  0
SECTION
  2
HEADER
  9
$ACADVER
  1
AC1014
  9
$ACADMAINTVER
 70
     9
  9
$DWGCODEPAGE
  3
ANSI_932
  9
$INSBASE
 10
0.0
 20
0.0
 30
0.0
  9
$EXTMIN
 10
-0.0128167419908323
 20
-0.0090632967028341
 30
-23.49273252472774
  9
$EXTMAX
 10
398.8000497643211
 20
275.8226172249287
 30
0.0007169841209702
  9
$LIMMIN
 10
0.0
 20
0.0
  9
$LIMMAX
 10
420.0
 20
297.0
  9
$ORTHOMODE
 70
     0
  9
$REGENMODE
 70
     1
  9
$FILLMODE
 70
     1
  9
$QTEXTMODE
 70
     0
  9
$MIRRTEXT
 70
     1
  9
$DRAGMODE
 70
     2
  9
$LTSCALE
 40
5.0
  9
$OSMODE
 70
    35
  9
$ATTMODE
 70
     1
  9
$TEXTSIZE
 40
3.0
  9
$TRACEWID
 40
1.0
  9
$TEXTSTYLE
  7
STANDARD
  9
$CLAYER
  8
CENTER_L
  9
$CELTYPE
  6
BYLAYER
  9
$CECOLOR
 62
   256
  9
$CELTSCALE
 40
1.0
  9
$DELOBJ
 70
     1
  9
$DISPSILH
 70
     0
  9
$DIMSCALE
 40
1.0
  9
$DIMASZ
 40
3.0
  9
$DIMEXO
 40
3.0
  9
$DIMDLI
 40
7.0
  9
$DIMRND
 40
0.0
  9
$DIMDLE
 40
0.0
  9
$DIMEXE
 40
1.5
  9
$DIMTP
 40
0.0
  9
$DIMTM
 40
0.0
  9
$DIMTXT
 40
3.0
  9
$DIMCEN
 40
3.0
  9
$DIMTSZ
 40
0.0
  9
$DIMTOL
 70
     0
  9
$DIMLIM
 70
     0
  9
$DIMTIH
 70
     0
  9
$DIMTOH
 70
     0
  9
$DIMSE1
 70
     0
  9
$DIMSE2
 70
     0
  9
$DIMTAD
 70
     3
  9
$DIMZIN
 70
     0
  9
$DIMBLK
  1

  9
$DIMASO
 70
     1
  9
$DIMSHO
 70
     1
  9
$DIMPOST
  1

  9
$DIMAPOST
  1

  9
$DIMALT
 70
     0
  9
$DIMALTD
 70
     2
  9
$DIMALTF
 40
25.4
  9
$DIMLFAC
 40
1.0
  9
$DIMTOFL
 70
     1
  9
$DIMTVP
 40
0.0
  9
$DIMTIX
 70
     0
  9
$DIMSOXD
 70
     0
  9
$DIMSAH
 70
     1
  9
$DIMBLK1
  1
OPEN
  9
$DIMBLK2
  1
OPEN
  9
$DIMSTYLE
  2
STANDARD
  9
$DIMCLRD
 70
   256
  9
$DIMCLRE
 70
   256
  9
$DIMCLRT
 70
   256
  9
$DIMTFAC
 40
1.0
  9
$DIMGAP
 40
1.0
  9
$DIMJUST
 70
     0
  9
$DIMSD1
 70
     0
  9
$DIMSD2
 70
     0
  9
$DIMTOLJ
 70
     1
  9
$DIMTZIN
 70
     0
  9
$DIMALTZ
 70
     0
  9
$DIMALTTZ
 70
     0
  9
$DIMFIT
 70
     3
  9
$DIMUPT
 70
     0
  9
$DIMUNIT
 70
     2
  9
$DIMDEC
 70
     0
  9
$DIMTDEC
 70
     0
  9
$DIMALTU
 70
     2
  9
$DIMALTTD
 70
     2
  9
$DIMTXSTY
  7
STANDARD
  9
$DIMAUNIT
 70
     0
  9
$LUNITS
 70
     2
  9
$LUPREC
 70
     4
  9
$SKETCHINC
 40
1.0
  9
$FILLETRAD
 40
0.3
  9
$AUNITS
 70
     0
  9
$AUPREC
 70
     0
  9
$MENU
  1
.
  9
$ELEVATION
 40
0.0
  9
$PELEVATION
 40
0.0
  9
$THICKNESS
 40
0.0
  9
$LIMCHECK
 70
     0
  9
$BLIPMODE
 70
     0
  9
$CHAMFERA
 40
10.0
  9
$CHAMFERB
 40
10.0
  9
$CHAMFERC
 40
20.0
  9
$CHAMFERD
 40
0.0
  9
$SKPOLY
 70
     0
  9
$TDCREATE
 40
2451589.469382176
  9
$TDUPDATE
 40
2453802.493625937
  9
$TDINDWG
 40
0.1800156250
  9
$TDUSRTIMER
 40
0.1800156250
  9
$USRTIMER
 70
     1
  9
$ANGBASE
 50
0.0
  9
$ANGDIR
 70
     0
  9
$PDMODE
 70
     0
  9
$PDSIZE
 40
0.0
  9
$PLINEWID
 40
0.0
  9
$COORDS
 70
     1
  9
$SPLFRAME
 70
     0
  9
$SPLINETYPE
 70
     6
  9
$SPLINESEGS
 70
     8
  9
$ATTDIA
 70
     0
  9
$ATTREQ
 70
     1
  9
$HANDLING
 70
 10241
  9
$HANDSEED
  5
1E93
  9
$SURFTAB1
 70
     6
  9
$SURFTAB2
 70
     6
  9
$SURFTYPE
 70
     6
  9
$SURFU
 70
     6
  9
$SURFV
 70
     6
  9
$UCSNAME
  2

  9
$UCSORG
 10
0.0
 20
0.0
 30
0.0
  9
$UCSXDIR
 10
1.0
 20
0.0
 30
0.0
  9
$UCSYDIR
 10
0.0
 20
1.0
 30
0.0
  9
$PUCSNAME
  2

  9
$PUCSORG
 10
0.0
 20
0.0
 30
0.0
  9
$PUCSXDIR
 10
1.0
 20
0.0
 30
0.0
  9
$PUCSYDIR
 10
0.0
 20
1.0
 30
0.0
  9
$USERI1
 70
     0
  9
$USERI2
 70
     0
  9
$USERI3
 70
     0
  9
$USERI4
 70
     0
  9
$USERI5
 70
     0
  9
$USERR1
 40
0.0
  9
$USERR2
 40
0.0
  9
$USERR3
 40
0.0
  9
$USERR4
 40
0.0
  9
$USERR5
 40
0.0
  9
$WORLDVIEW
 70
     1
  9
$SHADEDGE
 70
     3
  9
$SHADEDIF
 70
    70
  9
$TILEMODE
 70
     1
  9
$MAXACTVP
 70
    16
  9
$PINSBASE
 10
0.0
 20
0.0
 30
0.0
  9
$PLIMCHECK
 70
     0
  9
$PEXTMIN
 10
0.0
 20
0.0
 30
0.0
  9
$PEXTMAX
 10
420.0
 20
297.0
 30
0.0
  9
$PLIMMIN
 10
0.0
 20
0.0
  9
$PLIMMAX
 10
420.0
 20
297.0
  9
$UNITMODE
 70
     0
  9
$VISRETAIN
 70
     0
  9
$PLINEGEN
 70
     0
  9
$PSLTSCALE
 70
     1
  9
$TREEDEPTH
 70
  3020
  9
$PICKSTYLE
 70
     1
  9
$CMLSTYLE
  2
STANDARD
  9
$CMLJUST
 70
     0
  9
$CMLSCALE
 40
1.0
  9
$PROXYGRAPHICS
 70
     1
  9
$MEASUREMENT
 70
     0
  0
ENDSEC
  0
SECTION
  2
CLASSES
  0
CLASS
  1
ACDBDICTIONARYWDFLT
  2
AcDbDictionaryWithDefault
  3
AutoCAD 2000
 90
        0
280
     0
281
     0
  0
CLASS
  1
ACDBPLACEHOLDER
  2
AcDbPlaceHolder
  3
AutoCAD 2000
 90
        0
280
     0
281
     0
  0
CLASS
  1
LAYOUT
  2
AcDbLayout
  3
AutoCAD 2000
 90
        0
280
     0
281
     0
  0
CLASS
  1
LONG_TRANSACTION
  2
AcDbLongTransaction
  3
AutoCAD 2000
 90
        0
280
     0
281
     0
  0
CLASS
  1
LWPOLYLINE
  2
AcDbPolyline
  3
AutoCAD 2000
 90
        0
280
     0
281
     1
  0
CLASS
  1
HATCH
  2
AcDbHatch
  3
AutoCAD 2000
 90
        0
280
     0
281
     1
  0
CLASS
  1
XRECORD
  2
AcDbXrecord
  3
AutoCAD 2000
 90
        0
280
     0
281
     0
  0
CLASS
  1
LONG_TRANSACTION
  2
AcDbLongTransaction
  3
AutoCAD 2000
 90
        0
280
     0
281
     0
  0
CLASS
  1
LWPOLYLINE
  2
AcDbPolyline
  3
AutoCAD 2000
 90
        0
280
     0
281
     1
  0
CLASS
  1
HATCH
  2
AcDbHatch
  3
AutoCAD 2000
 90
        0
280
     0
281
     1
  0
CLASS
  1
XRECORD
  2
AcDbXrecord
  3
AutoCAD 2000
 90
        0
280
     0
281
     0
  0
CLASS
  1
DICTIONARYVAR
  2
AcDbDictionaryVar
  3
AutoCAD 2000
 90
        0
280
     0
281
     0
  0
CLASS
  1
LONG_TRANSACTION
  2
AcDbLongTransaction
  3
AutoCAD 2000
 90
        0
280
     0
281
     0
  0
CLASS
  1
LWPOLYLINE
  2
AcDbPolyline
  3
AutoCAD 2000
 90
        0
280
     0
281
     1
  0
CLASS
  1
HATCH
  2
AcDbHatch
  3
AutoCAD 2000
 90
        0
280
     0
281
     1
  0
CLASS
  1
XRECORD
  2
AcDbXrecord
  3
AutoCAD 2000
 90
        0
280
     0
281
     0
  0
CLASS
  1
LONG_TRANSACTION
  2
AcDbLongTransaction
  3
AutoCAD 2000
 90
        0
280
     0
281
     0
  0
CLASS
  1
LWPOLYLINE
  2
AcDbPolyline
  3
AutoCAD 2000
 90
        0
280
     0
281
     1
  0
CLASS
  1
HATCH
  2
AcDbHatch
  3
AutoCAD 2000
 90
        0
280
     0
281
     1
  0
CLASS
  1
XRECORD
  2
AcDbXrecord
  3
AutoCAD 2000
 90
        0
280
     0
281
     0
  0
CLASS
  1
LONG_TRANSACTION
  2
AcDbLongTransaction
  3
AutoCAD 2000
 90
        0
280
     0
281
     0
  0
CLASS
  1
LWPOLYLINE
  2
AcDbPolyline
  3
AutoCAD 2000
 90
        0
280
     0
281
     1
  0
CLASS
  1
HATCH
  2
AcDbHatch
  3
AutoCAD 2000
 90
        0
280
     0
281
     1
  0
CLASS
  1
XRECORD
  2
AcDbXrecord
  3
AutoCAD 2000
 90
        0
280
     0
281
     0
  0
CLASS
  1
LONG_TRANSACTION
  2
AcDbLongTransaction
  3
AutoCAD 2000
 90
        0
280
     0
281
     0
  0
CLASS
  1
LWPOLYLINE
  2
AcDbPolyline
  3
AutoCAD 2000
 90
        0
280
     0
281
     1
  0
CLASS
  1
HATCH
  2
AcDbHatch
  3
AutoCAD 2000
 90
        0
280
     0
281
     1
  0
CLASS
  1
XRECORD
  2
AcDbXrecord
  3
AutoCAD 2000
 90
        0
280
     0
281
     0
  0
CLASS
  1
LONG_TRANSACTION
  2
AcDbLongTransaction
  3
AutoCAD 2000
 90
        0
280
     0
281
     0
  0
CLASS
  1
LWPOLYLINE
  2
AcDbPolyline
  3
AutoCAD 2000
 90
        0
280
     0
281
     1
  0
CLASS
  1
HATCH
  2
AcDbHatch
  3
AutoCAD 2000
 90
        0
280
     0
281
     1
  0
CLASS
  1
XRECORD
  2
AcDbXrecord
  3
AutoCAD 2000
 90
        0
280
     0
281
     0
  0
CLASS
  1
LONG_TRANSACTION
  2
AcDbLongTransaction
  3
AutoCAD 2000
 90
        0
280
     0
281
     0
  0
CLASS
  1
LWPOLYLINE
  2
AcDbPolyline
  3
AutoCAD 2000
 90
        0
280
     0
281
     1
  0
CLASS
  1
HATCH
  2
AcDbHatch
  3
AutoCAD 2000
 90
        0
280
     0
281
     1
  0
CLASS
  1
XRECORD
  2
AcDbXrecord
  3
AutoCAD 2000
 90
        0
280
     0
281
     0
  0
CLASS
  1
LONG_TRANSACTION
  2
AcDbLongTransaction
  3
AutoCAD 2000
 90
        0
280
     0
281
     0
  0
CLASS
  1
LWPOLYLINE
  2
AcDbPolyline
  3
AutoCAD 2000
 90
        0
280
     0
281
     1
  0
CLASS
  1
HATCH
  2
AcDbHatch
  3
AutoCAD 2000
 90
        0
280
     0
281
     1
  0
CLASS
  1
XRECORD
  2
AcDbXrecord
  3
AutoCAD 2000
 90
        0
280
     0
281
     0
  0
CLASS
  1
LONG_TRANSACTION
  2
AcDbLongTransaction
  3
AutoCAD 2000
 90
        0
280
     0
281
     0
  0
CLASS
  1
LWPOLYLINE
  2
AcDbPolyline
  3
AutoCAD 2000
 90
        0
280
     0
281
     1
  0
CLASS
  1
HATCH
  2
AcDbHatch
  3
AutoCAD 2000
 90
        0
280
     0
281
     1
  0
CLASS
  1
XRECORD
  2
AcDbXrecord
  3
AutoCAD 2000
 90
        0
280
     0
281
     0
  0
CLASS
  1
LONG_TRANSACTION
  2
AcDbLongTransaction
  3
AutoCAD 2000
 90
        0
280
     0
281
     0
  0
CLASS
  1
LWPOLYLINE
  2
AcDbPolyline
  3
AutoCAD 2000
 90
        0
280
     0
281
     1
  0
CLASS
  1
HATCH
  2
AcDbHatch
  3
AutoCAD 2000
 90
        0
280
     0
281
     1
  0
CLASS
  1
XRECORD
  2
AcDbXrecord
  3
AutoCAD 2000
 90
        0
280
     0
281
     0
  0
CLASS
  1
LONG_TRANSACTION
  2
AcDbLongTransaction
  3
AutoCAD 2000
 90
        0
280
     0
281
     0
  0
CLASS
  1
LWPOLYLINE
  2
AcDbPolyline
  3
AutoCAD 2000
 90
        0
280
     0
281
     1
  0
CLASS
  1
HATCH
  2
AcDbHatch
  3
AutoCAD 2000
 90
        0
280
     0
281
     1
  0
CLASS
  1
XRECORD
  2
AcDbXrecord
  3
AutoCAD 2000
 90
        0
280
     0
281
     0
  0
CLASS
  1
LONG_TRANSACTION
  2
AcDbLongTransaction
  3
AutoCAD 2000
 90
        0
280
     0
281
     0
  0
CLASS
  1
LWPOLYLINE
  2
AcDbPolyline
  3
AutoCAD 2000
 90
        0
280
     0
281
     1
  0
CLASS
  1
HATCH
  2
AcDbHatch
  3
AutoCAD 2000
 90
        0
280
     0
281
     1
  0
CLASS
  1
XRECORD
  2
AcDbXrecord
  3
AutoCAD 2000
 90
        0
280
     0
281
     0
  0
ENDSEC
  0
SECTION
  2
TABLES
  0
TABLE
  2
VPORT
  5
8
330
0
100
AcDbSymbolTable
 70
     2
  0
VPORT
  5
1E6F
330
8
100
AcDbSymbolTableRecord
100
AcDbViewportTableRecord
  2
*ACTIVE
 70
     0
 10
0.0
 20
0.0
 11
1.0
 21
1.0
 12
225.5909645745254
 22
136.0516947332681
 13
0.0
 23
0.0
 14
5.0
 24
5.0
 15
0.0
 25
0.0
 16
0.0
 26
0.0
 36
1.0
 17
0.0
 27
0.0
 37
0.0
 40
312.6734358081683
 41
1.795454545454545
 42
50.0
 43
0.0
 44
0.0
 50
0.0
 51
0.0
 71
     0
 72
   100
 73
     1
 74
     0
 75
     0
 76
     0
 77
     0
 78
     0
  0
ENDTAB
  0
TABLE
  2
LTYPE
  5
5
330
0
100
AcDbSymbolTable
 70
     3
  0
LTYPE
  5
14
330
5
100
AcDbSymbolTableRecord
100
AcDbLinetypeTableRecord
  2
BYBLOCK
 70
     0
  3

 72
    65
 73
     0
 40
0.0
  0
LTYPE
  5
15
330
5
100
AcDbSymbolTableRecord
100
AcDbLinetypeTableRecord
  2
BYLAYER
 70
     0
  3

 72
    65
 73
     0
 40
0.0
  0
LTYPE
  5
16
330
5
100
AcDbSymbolTableRecord
100
AcDbLinetypeTableRecord
  2
CONTINUOUS
 70
     0
  3
Solid line
 72
    65
 73
     0
 40
0.0
  0
LTYPE
  5
120
330
5
100
AcDbSymbolTableRecord
100
AcDbLinetypeTableRecord
  2
CENTER
 70
     0
  3
____ _ ____ _ ____ _ ____ _ ____ _ ____ _ ____ 
 72
    65
 73
     4
 40
2.0
 49
1.25
 74
     0
 49
-0.25
 74
     0
 49
0.25
 74
     0
 49
-0.25
 74
     0
  0
LTYPE
  5
122
330
5
100
AcDbSymbolTableRecord
100
AcDbLinetypeTableRecord
  2
PHANTOM
 70
     0
  3
______  __  __  ______  __  __  ______  __  __ 
 72
    65
 73
     6
 40
2.5
 49
1.25
 74
     0
 49
-0.25
 74
     0
 49
0.25
 74
     0
 49
-0.25
 74
     0
 49
0.25
 74
     0
 49
-0.25
 74
     0
  0
ENDTAB
  0
TABLE
  2
LAYER
  5
2
330
0
100
AcDbSymbolTable
 70
     9
  0
LAYER
  5
F
330
2
100
AcDbSymbolTableRecord
100
AcDbLayerTableRecord
  2
0
 70
     0
 62
     7
  6
CONTINUOUS
  0
LAYER
  5
62
330
2
100
AcDbSymbolTableRecord
100
AcDbLayerTableRecord
  2
VIEWPORT
 70
     0
 62
     7
  6
CONTINUOUS
  0
LAYER
  5
6B
330
2
100
AcDbSymbolTableRecord
100
AcDbLayerTableRecord
  2
ZUWAKU
 70
     0
 62
     7
  6
CONTINUOUS
  0
LAYER
  5
3EF
330
2
100
AcDbSymbolTableRecord
100
AcDbLayerTableRecord
  2
DEFPOINTS
 70
     0
 62
     7
  6
CONTINUOUS
  0
LAYER
  5
54D
330
2
100
AcDbSymbolTableRecord
100
AcDbLayerTableRecord
  2
SEIHIN
 70
     0
 62
     3
  6
CONTINUOUS
  0
LAYER
  5
54E
330
2
100
AcDbSymbolTableRecord
100
AcDbLayerTableRecord
  2
SUNPOU
 70
     0
 62
     4
  6
CONTINUOUS
  0
LAYER
  5
54F
330
2
100
AcDbSymbolTableRecord
100
AcDbLayerTableRecord
  2
CENTER_L
 70
     0
 62
     1
  6
CENTER
  0
LAYER
  5
550
330
2
100
AcDbSymbolTableRecord
100
AcDbLayerTableRecord
  2
NOKITOI
 70
     0
 62
     8
  6
PHANTOM
  0
LAYER
  5
1C89
330
2
100
AcDbSymbolTableRecord
100
AcDbLayerTableRecord
  2
MOJI
 70
     0
 62
     2
  6
CONTINUOUS
  0
ENDTAB
  0
TABLE
  2
STYLE
  5
3
330
0
100
AcDbSymbolTable
 70
     2
  0
STYLE
  5
10
330
3
100
AcDbSymbolTableRecord
100
AcDbTextStyleTableRecord
  2
STANDARD
 70
     0
 40
0.0
 41
1.0
 50
0.0
 71
     0
 42
3.0
  3
TXT
  4
c:\PROGRAM FILES\AUTOCAD LT\ms\bigfont.shx
  0
STYLE
  5
1C8A
330
3
100
AcDbSymbolTableRecord
100
AcDbTextStyleTableRecord
  2
ｽﾀｲﾙ1
 70
     0
 40
0.0
 41
1.0
 50
0.0
 71
     0
 42
2.5
  3
MS PGothic.ttf
  4

1001
ACAD
1000
MS PGothic
1071
    32818
  0
ENDTAB
  0
TABLE
  2
VIEW
  5
6
330
0
100
AcDbSymbolTable
 70
     0
  0
ENDTAB
  0
TABLE
  2
UCS
  5
7
330
0
100
AcDbSymbolTable
 70
     0
  0
ENDTAB
  0
TABLE
  2
APPID
  5
9
330
0
100
AcDbSymbolTable
 70
     1
  0
APPID
  5
11
330
9
100
AcDbSymbolTableRecord
100
AcDbRegAppTableRecord
  2
ACAD
 70
     0
  0
ENDTAB
  0
TABLE
  2
DIMSTYLE
  5
A
330
0
100
AcDbSymbolTable
 70
     1
  0
DIMSTYLE
105
1D
102
{ACAD_REACTORS
330
1220
330
122D
330
123A
330
1247
330
1256
330
1265
330
1444
330
1451
330
145E
330
146B
330
19A4
330
19B3
102
}
330
A
100
AcDbSymbolTableRecord
100
AcDbDimStyleTableRecord
  2
STANDARD
 70
     0
  3

  4

  5

  6

  7

 40
1.0
 41
0.18
 42
0.0625
 43
0.38
 44
0.18
 45
0.0
 46
0.0
 47
0.0
 48
0.0
140
0.18
141
0.09
142
0.0
143
25.4
144
1.0
145
0.0
146
1.0
147
0.09
 71
     0
 72
     0
 73
     1
 74
     1
 75
     0
 76
     0
 77
     0
 78
     0
170
     0
171
     2
172
     0
173
     0
174
     0
175
     0
176
     0
177
     0
178
     0
270
     2
271
     4
272
     4
273
     2
274
     2
340
10
275
     0
280
     0
281
     0
282
     0
283
     1
284
     0
285
     0
286
     0
287
     3
288
     0
  0
ENDTAB
  0
TABLE
  2
BLOCK_RECORD
  5
1
330
0
100
AcDbSymbolTable
 70
    13
  0
BLOCK_RECORD
  5
1A
102
{ACAD_XDICTIONARY
360
7A2
102
}
330
1
100
AcDbSymbolTableRecord
100
AcDbBlockTableRecord
  2
*MODEL_SPACE
  0
BLOCK_RECORD
  5
17
102
{ACAD_XDICTIONARY
360
7A0
102
}
330
1
100
AcDbSymbolTableRecord
100
AcDbBlockTableRecord
  2
*PAPER_SPACE
  0
BLOCK_RECORD
  5
B2
330
1
100
AcDbSymbolTableRecord
100
AcDbBlockTableRecord
  2
_OPEN
  0
BLOCK_RECORD
  5
1221
330
1
100
AcDbSymbolTableRecord
100
AcDbBlockTableRecord
  2
*D1
  0
BLOCK_RECORD
  5
122E
330
1
100
AcDbSymbolTableRecord
100
AcDbBlockTableRecord
  2
*D2
  0
BLOCK_RECORD
  5
123B
330
1
100
AcDbSymbolTableRecord
100
AcDbBlockTableRecord
  2
*D3
  0
BLOCK_RECORD
  5
1248
330
1
100
AcDbSymbolTableRecord
100
AcDbBlockTableRecord
  2
*D4
  0
BLOCK_RECORD
  5
1257
330
1
100
AcDbSymbolTableRecord
100
AcDbBlockTableRecord
  2
*D5
  0
BLOCK_RECORD
  5
1266
330
1
100
AcDbSymbolTableRecord
100
AcDbBlockTableRecord
  2
*D6
  0
BLOCK_RECORD
  5
1445
330
1
100
AcDbSymbolTableRecord
100
AcDbBlockTableRecord
  2
*D7
  0
BLOCK_RECORD
  5
1452
330
1
100
AcDbSymbolTableRecord
100
AcDbBlockTableRecord
  2
*D8
  0
BLOCK_RECORD
  5
145F
330
1
100
AcDbSymbolTableRecord
100
AcDbBlockTableRecord
  2
*D9
  0
BLOCK_RECORD
  5
146C
330
1
100
AcDbSymbolTableRecord
100
AcDbBlockTableRecord
  2
*D10
  0
BLOCK_RECORD
  5
19A5
330
1
100
AcDbSymbolTableRecord
100
AcDbBlockTableRecord
  2
*D11
  0
BLOCK_RECORD
  5
19B4
330
1
100
AcDbSymbolTableRecord
100
AcDbBlockTableRecord
  2
*D12
  0
ENDTAB
  0
ENDSEC
  0
SECTION
  2
BLOCKS
  0
BLOCK
  5
1B
330
1A
100
AcDbEntity
  8
0
100
AcDbBlockBegin
  2
*MODEL_SPACE
 70
     0
 10
0.0
 20
0.0
 30
0.0
  3
*MODEL_SPACE
  1

  0
ENDBLK
  5
1C
330
1A
100
AcDbEntity
  8
0
100
AcDbBlockEnd
  0
BLOCK
  5
18
330
17
100
AcDbEntity
 67
     1
  8
0
100
AcDbBlockBegin
  2
*PAPER_SPACE
 70
     0
 10
0.0
 20
0.0
 30
0.0
  3
*PAPER_SPACE
  1

  0
ENDBLK
  5
19
330
17
100
AcDbEntity
 67
     1
  8
0
100
AcDbBlockEnd
  0
BLOCK
  5
B3
330
B2
100
AcDbEntity
  8
0
100
AcDbBlockBegin
  2
_OPEN
 70
     0
 10
0.0
 20
0.0
 30
0.0
  3
_OPEN
  1

  0
LINE
  5
B4
330
B2
100
AcDbEntity
  8
0
  6
BYBLOCK
 62
     0
100
AcDbLine
 10
-1.0
 20
0.1666666666666666
 30
0.0
 11
0.0
 21
0.0
 31
0.0
  0
LINE
  5
B5
330
B2
100
AcDbEntity
  8
0
  6
BYBLOCK
 62
     0
100
AcDbLine
 10
0.0
 20
0.0
 30
0.0
 11
-1.0
 21
-0.1666666666666666
 31
0.0
  0
LINE
  5
B6
330
B2
100
AcDbEntity
  8
0
  6
BYBLOCK
 62
     0
100
AcDbLine
 10
0.0
 20
0.0
 30
0.0
 11
-1.0
 21
0.0
 31
0.0
  0
ENDBLK
  5
B7
330
B2
100
AcDbEntity
  8
0
100
AcDbBlockEnd
  0
BLOCK
  5
122B
330
1221
100
AcDbEntity
  8
0
100
AcDbBlockBegin
  2
*D1
 70
     1
 10
0.0
 20
0.0
 30
0.0
  3
*D1
  1

  0
LINE
  5
1E2E
330
1221
100
AcDbEntity
  8
SUNPOU
100
AcDbLine
 10
310.437600135159
 20
120.2297757089097
 30
0.0
 11
303.8498913827601
 21
136.5349270361074
 31
0.0
  0
LINE
  5
1E2F
330
1221
100
AcDbEntity
  8
SUNPOU
100
AcDbLine
 10
351.2336897360975
 20
136.7124658192098
 30
0.0
 11
344.6459809836986
 21
153.0176171464075
 31
0.0
  0
LINE
  5
1E30
330
1221
100
AcDbEntity
  8
SUNPOU
100
AcDbLine
 10
307.1933528365844
 20
136.267971034505
 30
0.0
 11
342.4263393101222
 21
150.5030215843096
 31
0.0
  0
INSERT
  5
1E31
330
1221
100
AcDbEntity
  8
SUNPOU
100
AcDbBlockReference
  2
_OPEN
 10
304.411801272884
 20
135.1441512542572
 30
0.0
 41
3.0
 42
3.0
 43
3.0
 50
202.0
  0
INSERT
  5
1E32
330
1221
100
AcDbEntity
  8
SUNPOU
100
AcDbBlockReference
  2
_OPEN
 10
345.2078908738225
 20
151.6268413645573
 30
0.0
 41
3.0
 42
3.0
 43
3.0
 50
22.00000000000005
  0
MTEXT
  5
1E33
330
1221
100
AcDbEntity
  8
SUNPOU
100
AcDbMText
 10
323.8733295898136
 20
145.7034559458243
 30
0.0
 40
3.0
 41
0.0
 71
     5
 72
     1
  1
\A1;44
 11
0.927183854566787
 21
0.3746065934159129
 31
0.0
1001
ACAD
1000
MTEXTBEGIN
1070
    73
1070
     1
1070
    44
1040
1.0
1070
    74
1070
     0
1000
MTEXTEND
  0
POINT
  5
1E34
330
1221
100
AcDbEntity
  8
DEFPOINTS
 62
     0
100
AcDbPoint
 10
311.5614199154067
 20
117.4482241452094
 30
0.0
  0
POINT
  5
1E35
330
1221
100
AcDbEntity
  8
DEFPOINTS
 62
     0
100
AcDbPoint
 10
352.3575095163451
 20
133.9309142555095
 30
0.0
  0
POINT
  5
1E36
330
1221
100
AcDbEntity
  8
DEFPOINTS
 62
     0
100
AcDbPoint
 10
345.2078908738225
 20
151.6268413645573
 30
0.0
  0
ENDBLK
  5
122C
330
1221
100
AcDbEntity
  8
0
100
AcDbBlockEnd
  0
BLOCK
  5
1238
330
122E
100
AcDbEntity
  8
0
100
AcDbBlockBegin
  2
*D2
 70
     1
 10
0.0
 20
0.0
 30
0.0
  3
*D2
  1

  0
LINE
  5
1E25
330
122E
100
AcDbEntity
  8
SUNPOU
100
AcDbLine
 10
305.6424405242608
 20
116.0814092465522
 30
0.0
 11
295.4514231947778
 21
141.3050622616933
 31
0.0
  0
LINE
  5
1E26
330
122E
100
AcDbEntity
  8
SUNPOU
100
AcDbLine
 10
357.5647363800009
 20
137.0593784778434
 30
0.0
 11
347.3737190505179
 21
162.2830314929845
 31
0.0
  0
LINE
  5
1E27
330
122E
100
AcDbEntity
  8
SUNPOU
100
AcDbLine
 10
298.794884648602
 20
141.0381062600909
 30
0.0
 11
345.1540773769413
 21
159.7684359308866
 31
0.0
  0
INSERT
  5
1E28
330
122E
100
AcDbEntity
  8
SUNPOU
100
AcDbBlockReference
  2
_OPEN
 10
296.0133330849016
 20
139.9142864798431
 30
0.0
 41
3.0
 42
3.0
 43
3.0
 50
202.0000000000001
  0
INSERT
  5
1E29
330
122E
100
AcDbEntity
  8
SUNPOU
100
AcDbBlockReference
  2
_OPEN
 10
347.9356289406417
 20
160.8922557111343
 30
0.0
 41
3.0
 42
3.0
 43
3.0
 50
22.0000000000001
  0
MTEXT
  5
1E2A
330
122E
100
AcDbEntity
  8
SUNPOU
100
AcDbMText
 10
321.0379645292319
 20
152.7212307319057
 30
0.0
 40
3.0
 41
0.0
 71
     5
 72
     1
  1
\A1;56
 11
0.9271838545667867
 21
0.3746065934159137
 31
0.0
1001
ACAD
1000
MTEXTBEGIN
1070
    73
1070
     1
1070
    44
1040
1.0
1070
    74
1070
     0
1000
MTEXTEND
  0
POINT
  5
1E2B
330
122E
100
AcDbEntity
  8
DEFPOINTS
 62
     0
100
AcDbPoint
 10
306.7662603045086
 20
113.2998576828519
 30
0.0
  0
POINT
  5
1E2C
330
122E
100
AcDbEntity
  8
DEFPOINTS
 62
     0
100
AcDbPoint
 10
358.6885561602486
 20
134.2778269141431
 30
0.0
  0
POINT
  5
1E2D
330
122E
100
AcDbEntity
  8
DEFPOINTS
 62
     0
100
AcDbPoint
 10
347.9356289406417
 20
160.8922557111343
 30
0.0
  0
ENDBLK
  5
1239
330
122E
100
AcDbEntity
  8
0
100
AcDbBlockEnd
  0
BLOCK
  5
1245
330
123B
100
AcDbEntity
  8
0
100
AcDbBlockBegin
  2
*D3
 70
     1
 10
0.0
 20
0.0
 30
0.0
  3
*D3
  1

  0
LINE
  5
1E1C
330
123B
100
AcDbEntity
  8
SUNPOU
100
AcDbLine
 10
354.7831848163004
 20
135.9355586975956
 30
0.0
 11
369.908728670132
 21
142.0466750945635
 31
0.0
  0
LINE
  5
1E1D
330
123B
100
AcDbEntity
  8
SUNPOU
100
AcDbLine
 10
361.338800201079
 20
119.7098412426769
 30
0.0
 11
376.4643440549106
 21
125.8209576396449
 31
0.0
  0
LINE
  5
1E1E
330
123B
100
AcDbEntity
  8
SUNPOU
100
AcDbLine
 10
369.6417726685296
 20
138.7032136407393
 30
0.0
 11
373.9497484928127
 21
128.0405993132213
 31
0.0
  0
INSERT
  5
1E1F
330
123B
100
AcDbEntity
  8
SUNPOU
100
AcDbBlockReference
  2
_OPEN
 10
368.5179528882819
 20
141.4847652044396
 30
0.0
 41
3.0
 42
3.0
 43
3.0
 50
112.0000000000005
  0
INSERT
  5
1E20
330
123B
100
AcDbEntity
  8
SUNPOU
100
AcDbBlockReference
  2
_OPEN
 10
375.0735682730605
 20
125.259047749521
 30
0.0
 41
3.0
 42
3.0
 43
3.0
 50
292.0000000000005
  0
MTEXT
  5
1E21
330
123B
100
AcDbEntity
  8
SUNPOU
100
AcDbMText
 10
374.1137202170881
 20
134.3084229605201
 30
0.0
 40
3.0
 41
0.0
 71
     5
 72
     1
  1
\A1;18
 11
0.3746065934159212
 21
-0.9271838545667836
 31
0.0
1001
ACAD
1000
MTEXTBEGIN
1070
    73
1070
     1
1070
    44
1040
1.0
1070
    74
1070
     0
1000
MTEXTEND
  0
POINT
  5
1E22
330
123B
100
AcDbEntity
  8
DEFPOINTS
 62
     0
100
AcDbPoint
 10
352.0016332526
 20
134.8117389173479
 30
0.0
  0
POINT
  5
1E23
330
123B
100
AcDbEntity
  8
DEFPOINTS
 62
     0
100
AcDbPoint
 10
358.5572486373787
 20
118.5860214624292
 30
0.0
  0
POINT
  5
1E24
330
123B
100
AcDbEntity
  8
DEFPOINTS
 62
     0
100
AcDbPoint
 10
375.0735682730605
 20
125.259047749521
 30
0.0
  0
ENDBLK
  5
1246
330
123B
100
AcDbEntity
  8
0
100
AcDbBlockEnd
  0
BLOCK
  5
1254
330
1248
100
AcDbEntity
  8
0
100
AcDbBlockBegin
  2
*D4
 70
     1
 10
0.0
 20
0.0
 30
0.0
  3
*D4
  1

  0
LINE
  5
1E54
330
1248
100
AcDbEntity
  8
SUNPOU
100
AcDbLine
 10
308.4239920879612
 20
117.2052290267999
 30
0.0
 11
295.2808845297106
 21
111.8950688842943
 31
0.0
  0
LINE
  5
1E55
330
1248
100
AcDbEntity
  8
SUNPOU
100
AcDbLine
 10
311.0462382418726
 20
110.7149420448325
 30
0.0
 11
297.903130683622
 21
105.4047819023268
 31
0.0
  0
LINE
  5
1E56
330
1248
100
AcDbEntity
  8
SUNPOU
100
AcDbLine
 10
295.547840531313
 20
115.2385303381185
 30
0.0
 11
294.4240207510653
 21
118.0200819018189
 31
0.0
  0
LINE
  5
1E57
330
1248
100
AcDbEntity
  8
SUNPOU
100
AcDbLine
 10
300.41772624572
 20
103.1851402287504
 30
0.0
 11
301.5415460259677
 21
100.40358866505
 31
0.0
  0
LINE
  5
1E58
330
1248
100
AcDbEntity
  8
SUNPOU
100
AcDbLine
 10
296.6716603115608
 20
112.4569787744182
 30
0.0
 11
299.2939064654722
 21
105.9666917924507
 31
0.0
  0
INSERT
  5
1E59
330
1248
100
AcDbEntity
  8
SUNPOU
100
AcDbBlockReference
  2
_OPEN
 10
296.6716603115608
 20
112.4569787744182
 30
0.0
 41
3.0
 42
3.0
 43
3.0
 50
292.0000000000003
  0
INSERT
  5
1E5A
330
1248
100
AcDbEntity
  8
SUNPOU
100
AcDbBlockReference
  2
_OPEN
 10
299.2939064654722
 20
105.9666917924507
 30
0.0
 41
3.0
 42
3.0
 43
3.0
 50
112.0000000000004
  0
MTEXT
  5
1E5B
330
1248
100
AcDbEntity
  8
SUNPOU
100
AcDbMText
 10
300.3007430249334
 20
110.1483517669742
 30
0.0
 40
3.0
 41
0.0
 71
     5
 72
     1
  1
\A1;7
 11
0.3746065934159188
 21
-0.9271838545667849
 31
0.0
1001
ACAD
1000
MTEXTBEGIN
1070
    73
1070
     1
1070
    44
1040
1.0
1070
    74
1070
     0
1000
MTEXTEND
  0
POINT
  5
1E5C
330
1248
100
AcDbEntity
  8
DEFPOINTS
 62
     0
100
AcDbPoint
 10
311.2055436516616
 20
118.3290488070477
 30
0.0
  0
POINT
  5
1E5D
330
1248
100
AcDbEntity
  8
DEFPOINTS
 62
     0
100
AcDbPoint
 10
313.827789805573
 20
111.8387618250802
 30
0.0
  0
POINT
  5
1E5E
330
1248
100
AcDbEntity
  8
DEFPOINTS
 62
     0
100
AcDbPoint
 10
299.2939064654722
 20
105.9666917924507
 30
0.0
  0
ENDBLK
  5
1255
330
1248
100
AcDbEntity
  8
0
100
AcDbBlockEnd
  0
BLOCK
  5
1263
330
1257
100
AcDbEntity
  8
0
100
AcDbBlockBegin
  2
*D5
 70
     1
 10
0.0
 20
0.0
 30
0.0
  3
*D5
  1

  0
LINE
  5
1E49
330
1257
100
AcDbEntity
  8
SUNPOU
100
AcDbLine
 10
318.912976703607
 20
91.24408109893005
 30
0.0
 11
305.7698691453566
 21
85.93392095642455
 31
0.0
  0
LINE
  5
1E4A
330
1257
100
AcDbEntity
  8
SUNPOU
100
AcDbLine
 10
321.5352228575184
 20
84.75379411696257
 30
0.0
 11
308.392115299268
 21
79.44363397445709
 31
0.0
  0
LINE
  5
1E4B
330
1257
100
AcDbEntity
  8
SUNPOU
100
AcDbLine
 10
306.036825146959
 20
89.27738241024878
 30
0.0
 11
304.9130053667113
 21
92.05893397394914
 31
0.0
  0
LINE
  5
1E4C
330
1257
100
AcDbEntity
  8
SUNPOU
100
AcDbLine
 10
310.9067108613659
 20
77.22399230088061
 30
0.0
 11
312.0305306416137
 21
74.44244073718024
 31
0.0
  0
LINE
  5
1E4D
330
1257
100
AcDbEntity
  8
SUNPOU
100
AcDbLine
 10
307.1606449272068
 20
86.49583084654842
 30
0.0
 11
309.7828910811182
 21
80.00554386458096
 31
0.0
  0
INSERT
  5
1E4E
330
1257
100
AcDbEntity
  8
SUNPOU
100
AcDbBlockReference
  2
_OPEN
 10
307.1606449272068
 20
86.49583084654842
 30
0.0
 41
3.0
 42
3.0
 43
3.0
 50
292.0000000000003
  0
INSERT
  5
1E4F
330
1257
100
AcDbEntity
  8
SUNPOU
100
AcDbBlockReference
  2
_OPEN
 10
309.7828910811182
 20
80.00554386458096
 30
0.0
 41
3.0
 42
3.0
 43
3.0
 50
112.0000000000003
  0
MTEXT
  5
1E50
330
1257
100
AcDbEntity
  8
SUNPOU
100
AcDbMText
 10
310.7897276405795
 20
84.18720383910452
 30
0.0
 40
3.0
 41
0.0
 71
     5
 72
     1
  1
\A1;7
 11
0.3746065934159179
 21
-0.9271838545667849
 31
0.0
1001
ACAD
1000
MTEXTBEGIN
1070
    73
1070
     1
1070
    44
1040
1.0
1070
    74
1070
     0
1000
MTEXTEND
  0
POINT
  5
1E51
330
1257
100
AcDbEntity
  8
DEFPOINTS
 62
     0
100
AcDbPoint
 10
321.6945282673073
 20
92.3679008791778
 30
0.0
  0
POINT
  5
1E52
330
1257
100
AcDbEntity
  8
DEFPOINTS
 62
     0
100
AcDbPoint
 10
324.3167744212188
 20
85.87761389721034
 30
0.0
  0
POINT
  5
1E53
330
1257
100
AcDbEntity
  8
DEFPOINTS
 62
     0
100
AcDbPoint
 10
309.7828910811182
 20
80.00554386458096
 30
0.0
  0
ENDBLK
  5
1264
330
1257
100
AcDbEntity
  8
0
100
AcDbBlockEnd
  0
BLOCK
  5
1270
330
1266
100
AcDbEntity
  8
0
100
AcDbBlockBegin
  2
*D6
 70
     1
 10
0.0
 20
0.0
 30
0.0
  3
*D6
  1

  0
LINE
  5
1E40
330
1266
100
AcDbEntity
  8
SUNPOU
100
AcDbLine
 10
305.6424405242609
 20
116.0814092465523
 30
0.0
 11
287.2199391596244
 21
108.6382355497552
 31
0.0
  0
LINE
  5
1E41
330
1266
100
AcDbEntity
  8
SUNPOU
100
AcDbLine
 10
318.7536712938178
 20
83.62997433671473
 30
0.0
 11
300.3311699291813
 21
76.18680063991766
 31
0.0
  0
LINE
  5
1E42
330
1266
100
AcDbEntity
  8
SUNPOU
100
AcDbLine
 10
289.7345347217224
 20
106.4185938761787
 30
0.0
 11
300.5981259307838
 21
79.53026209374188
 31
0.0
  0
INSERT
  5
1E43
330
1266
100
AcDbEntity
  8
SUNPOU
100
AcDbBlockReference
  2
_OPEN
 10
288.6107149414746
 20
109.200145439879
 30
0.0
 41
3.0
 42
3.0
 43
3.0
 50
112.0
  0
INSERT
  5
1E44
330
1266
100
AcDbEntity
  8
SUNPOU
100
AcDbBlockReference
  2
_OPEN
 10
301.7219457110316
 20
76.74871053004152
 30
0.0
 41
3.0
 42
3.0
 43
3.0
 50
292.0
  0
MTEXT
  5
1E45
330
1266
100
AcDbEntity
  8
SUNPOU
100
AcDbMText
 10
297.4842899626701
 20
93.91094446850011
 30
0.0
 40
3.0
 41
0.0
 71
     5
 72
     1
  1
\A1;35
 11
0.3746065934159122
 21
-0.9271838545667872
 31
0.0
1001
ACAD
1000
MTEXTBEGIN
1070
    73
1070
     1
1070
    44
1040
1.0
1070
    74
1070
     0
1000
MTEXTEND
  0
POINT
  5
1E46
330
1266
100
AcDbEntity
  8
DEFPOINTS
 62
     0
100
AcDbPoint
 10
308.4239920879612
 20
117.2052290268
 30
0.0
  0
POINT
  5
1E47
330
1266
100
AcDbEntity
  8
DEFPOINTS
 62
     0
100
AcDbPoint
 10
321.5352228575182
 20
84.75379411696247
 30
0.0
  0
POINT
  5
1E48
330
1266
100
AcDbEntity
  8
DEFPOINTS
 62
     0
100
AcDbPoint
 10
301.7219457110316
 20
76.74871053004152
 30
0.0
  0
ENDBLK
  5
1271
330
1266
100
AcDbEntity
  8
0
100
AcDbBlockEnd
  0
BLOCK
  5
144F
330
1445
100
AcDbEntity
  8
0
100
AcDbBlockBegin
  2
*D7
 70
     1
 10
0.0
 20
0.0
 30
0.0
  3
*D7
  1

  0
LINE
  5
1E0A
330
1445
100
AcDbEntity
  8
SUNPOU
100
AcDbLine
 10
118.0322798986742
 20
229.8671053977314
 30
0.0
 11
95.92019196128786
 21
229.8671053977314
 31
0.0
  0
LINE
  5
1E0B
330
1445
100
AcDbEntity
  8
SUNPOU
100
AcDbLine
 10
118.0322798986742
 20
207.8671053977314
 30
0.0
 11
95.92019196128784
 21
207.8671053977314
 31
0.0
  0
LINE
  5
1E0C
330
1445
100
AcDbEntity
  8
SUNPOU
100
AcDbLine
 10
97.42019196128786
 20
226.8671053977314
 30
0.0
 11
97.42019196128785
 21
210.8671053977314
 31
0.0
  0
INSERT
  5
1E0D
330
1445
100
AcDbEntity
  8
SUNPOU
100
AcDbBlockReference
  2
_OPEN
 10
97.42019196128786
 20
229.8671053977314
 30
0.0
 41
3.0
 42
3.0
 43
3.0
 50
90.0
  0
INSERT
  5
1E0E
330
1445
100
AcDbEntity
  8
SUNPOU
100
AcDbBlockReference
  2
_OPEN
 10
97.42019196128785
 20
207.8671053977314
 30
0.0
 41
3.0
 42
3.0
 43
3.0
 50
270.0
  0
MTEXT
  5
1E0F
330
1445
100
AcDbEntity
  8
SUNPOU
100
AcDbMText
 10
94.92019196128781
 20
218.8671053977314
 30
0.0
 40
3.0
 41
0.0
 71
     5
 72
     1
  1
\A1;22
 11
0.0000000000000001
 21
1.0
 31
0.0
1001
ACAD
1000
MTEXTBEGIN
1070
    73
1070
     1
1070
    44
1040
1.0
1070
    74
1070
     0
1000
MTEXTEND
  0
POINT
  5
1E10
330
1445
100
AcDbEntity
  8
DEFPOINTS
 62
     0
100
AcDbPoint
 10
121.0322798986742
 20
229.8671053977314
 30
0.0
  0
POINT
  5
1E11
330
1445
100
AcDbEntity
  8
DEFPOINTS
 62
     0
100
AcDbPoint
 10
121.0322798986742
 20
207.8671053977314
 30
0.0
  0
POINT
  5
1E12
330
1445
100
AcDbEntity
  8
DEFPOINTS
 62
     0
100
AcDbPoint
 10
97.42019196128785
 20
207.8671053977314
 30
0.0
  0
ENDBLK
  5
1450
330
1445
100
AcDbEntity
  8
0
100
AcDbBlockEnd
  0
BLOCK
  5
145C
330
1452
100
AcDbEntity
  8
0
100
AcDbBlockBegin
  2
*D8
 70
     1
 10
0.0
 20
0.0
 30
0.0
  3
*D8
  1

  0
LINE
  5
1E5F
330
1452
100
AcDbEntity
  8
SUNPOU
100
AcDbLine
 10
272.1277279517385
 20
246.8671053977314
 30
0.0
 11
291.7550512182865
 21
246.8671053977314
 31
0.0
  0
LINE
  5
1E60
330
1452
100
AcDbEntity
  8
SUNPOU
100
AcDbLine
 10
272.1277279517385
 20
190.8671053977314
 30
0.0
 11
291.7550512182865
 21
190.8671053977314
 31
0.0
  0
LINE
  5
1E61
330
1452
100
AcDbEntity
  8
SUNPOU
100
AcDbLine
 10
290.2550512182865
 20
243.8671053977314
 30
0.0
 11
290.2550512182865
 21
193.8671053977314
 31
0.0
  0
INSERT
  5
1E62
330
1452
100
AcDbEntity
  8
SUNPOU
100
AcDbBlockReference
  2
_OPEN
 10
290.2550512182865
 20
246.8671053977314
 30
0.0
 41
3.0
 42
3.0
 43
3.0
 50
90.0
  0
INSERT
  5
1E63
330
1452
100
AcDbEntity
  8
SUNPOU
100
AcDbBlockReference
  2
_OPEN
 10
290.2550512182865
 20
190.8671053977314
 30
0.0
 41
3.0
 42
3.0
 43
3.0
 50
270.0
  0
MTEXT
  5
1E64
330
1452
100
AcDbEntity
  8
SUNPOU
100
AcDbMText
 10
287.7550512182864
 20
218.8671053977314
 30
0.0
 40
3.0
 41
0.0
 71
     5
 72
     1
  1
\A1;56
 11
0.0000000000000001
 21
1.0
 31
0.0
1001
ACAD
1000
MTEXTBEGIN
1070
    73
1070
     1
1070
    44
1040
1.0
1070
    74
1070
     0
1000
MTEXTEND
  0
POINT
  5
1E65
330
1452
100
AcDbEntity
  8
DEFPOINTS
 62
     0
100
AcDbPoint
 10
269.1277279517385
 20
246.8671053977314
 30
0.0
  0
POINT
  5
1E66
330
1452
100
AcDbEntity
  8
DEFPOINTS
 62
     0
100
AcDbPoint
 10
269.1277279517385
 20
190.8671053977314
 30
0.0
  0
POINT
  5
1E67
330
1452
100
AcDbEntity
  8
DEFPOINTS
 62
     0
100
AcDbPoint
 10
290.2550512182865
 20
190.8671053977314
 30
0.0
  0
ENDBLK
  5
145D
330
1452
100
AcDbEntity
  8
0
100
AcDbBlockEnd
  0
BLOCK
  5
1469
330
145F
100
AcDbEntity
  8
0
100
AcDbBlockBegin
  2
*D9
 70
     1
 10
0.0
 20
0.0
 30
0.0
  3
*D9
  1

  0
LINE
  5
1E13
330
145F
100
AcDbEntity
  8
SUNPOU
100
AcDbLine
 10
255.1053129109533
 20
98.66308821174818
 30
0.0
 11
255.1053129109533
 21
141.9552428546353
 31
0.0
  0
LINE
  5
1E14
330
145F
100
AcDbEntity
  8
SUNPOU
100
AcDbLine
 10
242.1676597593909
 20
122.6365076907112
 30
0.0
 11
242.1676597593909
 21
141.9552428546353
 31
0.0
  0
LINE
  5
1E15
330
145F
100
AcDbEntity
  8
SUNPOU
100
AcDbLine
 10
252.1053129109533
 20
140.4552428546353
 30
0.0
 11
245.1676597593909
 21
140.4552428546353
 31
0.0
  0
INSERT
  5
1E16
330
145F
100
AcDbEntity
  8
SUNPOU
100
AcDbBlockReference
  2
_OPEN
 10
255.1053129109533
 20
140.4552428546353
 30
0.0
 41
3.0
 42
3.0
 43
3.0
  0
INSERT
  5
1E17
330
145F
100
AcDbEntity
  8
SUNPOU
100
AcDbBlockReference
  2
_OPEN
 10
242.1676597593909
 20
140.4552428546353
 30
0.0
 41
3.0
 42
3.0
 43
3.0
 50
180.0
  0
MTEXT
  5
1E18
330
145F
100
AcDbEntity
  8
SUNPOU
100
AcDbMText
 10
248.6364863351721
 20
142.9552428546353
 30
0.0
 40
3.0
 41
0.0
 71
     5
 72
     1
  1
\A1;13
1001
ACAD
1000
MTEXTBEGIN
1070
    73
1070
     1
1070
    44
1040
1.0
1070
    74
1070
     0
1000
MTEXTEND
  0
POINT
  5
1E19
330
145F
100
AcDbEntity
  8
DEFPOINTS
 62
     0
100
AcDbPoint
 10
255.1053129109533
 20
95.66308821174819
 30
0.0
  0
POINT
  5
1E1A
330
145F
100
AcDbEntity
  8
DEFPOINTS
 62
     0
100
AcDbPoint
 10
242.1676597593909
 20
119.6365076907112
 30
0.0
  0
POINT
  5
1E1B
330
145F
100
AcDbEntity
  8
DEFPOINTS
 62
     0
100
AcDbPoint
 10
242.1676597593909
 20
140.4552428546353
 30
0.0
  0
ENDBLK
  5
146A
330
145F
100
AcDbEntity
  8
0
100
AcDbBlockEnd
  0
BLOCK
  5
1476
330
146C
100
AcDbEntity
  8
0
100
AcDbBlockBegin
  2
*D10
 70
     1
 10
0.0
 20
0.0
 30
0.0
  3
*D10
  1

  0
LINE
  5
1E01
330
146C
100
AcDbEntity
  8
SUNPOU
100
AcDbLine
 10
255.1053129109533
 20
98.66308821174825
 30
0.0
 11
255.1053129109533
 21
170.8767625631976
 31
0.0
  0
LINE
  5
1E02
330
146C
100
AcDbEntity
  8
SUNPOU
100
AcDbLine
 10
121.0322798986742
 20
155.4990077031606
 30
0.0
 11
121.0322798986742
 21
170.8767625631976
 31
0.0
  0
LINE
  5
1E03
330
146C
100
AcDbEntity
  8
SUNPOU
100
AcDbLine
 10
252.1053129109533
 20
169.3767625631976
 30
0.0
 11
124.0322798986742
 21
169.3767625631976
 31
0.0
  0
INSERT
  5
1E04
330
146C
100
AcDbEntity
  8
SUNPOU
100
AcDbBlockReference
  2
_OPEN
 10
255.1053129109533
 20
169.3767625631976
 30
0.0
 41
3.0
 42
3.0
 43
3.0
  0
INSERT
  5
1E05
330
146C
100
AcDbEntity
  8
SUNPOU
100
AcDbBlockReference
  2
_OPEN
 10
121.0322798986742
 20
169.3767625631976
 30
0.0
 41
3.0
 42
3.0
 43
3.0
 50
180.0
  0
MTEXT
  5
1E06
330
146C
100
AcDbEntity
  8
SUNPOU
100
AcDbMText
 10
188.0687964048138
 20
171.8767625631976
 30
0.0
 40
3.0
 41
0.0
 71
     5
 72
     1
  1
\A1;134
1001
ACAD
1000
MTEXTBEGIN
1070
    73
1070
     1
1070
    44
1040
1.0
1070
    74
1070
     0
1000
MTEXTEND
  0
POINT
  5
1E07
330
146C
100
AcDbEntity
  8
DEFPOINTS
 62
     0
100
AcDbPoint
 10
255.1053129109533
 20
95.66308821174825
 30
0.0
  0
POINT
  5
1E08
330
146C
100
AcDbEntity
  8
DEFPOINTS
 62
     0
100
AcDbPoint
 10
121.0322798986742
 20
152.4990077031606
 30
0.0
  0
POINT
  5
1E09
330
146C
100
AcDbEntity
  8
DEFPOINTS
 62
     0
100
AcDbPoint
 10
121.0322798986742
 20
169.3767625631976
 30
0.0
  0
ENDBLK
  5
1477
330
146C
100
AcDbEntity
  8
0
100
AcDbBlockEnd
  0
BLOCK
  5
19AF
330
19A5
100
AcDbEntity
  8
0
100
AcDbBlockBegin
  2
*D11
 70
     1
 10
0.0
 20
0.0
 30
0.0
  3
*D11
  1

  0
LINE
  5
1E37
330
19A5
100
AcDbEntity
  8
SUNPOU
100
AcDbLine
 10
257.8868644836381
 20
96.78690796975891
 30
0.0
 11
271.6431876973943
 21
102.3448231912549
 31
0.0
  0
LINE
  5
1E38
330
19A5
100
AcDbEntity
  8
SUNPOU
100
AcDbLine
 10
270.998094993763
 20
64.33547295510402
 30
0.0
 11
284.7544182075192
 21
69.89338817660004
 31
0.0
  0
LINE
  5
1E39
330
19A5
100
AcDbEntity
  8
SUNPOU
100
AcDbLine
 10
271.3762316690627
 20
99.00136173956486
 30
0.0
 11
282.2398226631661
 21
72.11302987027939
 31
0.0
  0
INSERT
  5
1E3A
330
19A5
100
AcDbEntity
  8
SUNPOU
100
AcDbBlockReference
  2
_OPEN
 10
270.252411911052
 20
101.7829133122495
 30
0.0
 41
3.0
 42
3.0
 43
3.0
 50
111.9999995419505
  0
INSERT
  5
1E3B
330
19A5
100
AcDbEntity
  8
SUNPOU
100
AcDbBlockReference
  2
_OPEN
 10
283.3636424211768
 20
69.33147829759469
 30
0.0
 41
3.0
 42
3.0
 43
3.0
 50
291.9999995419505
  0
MTEXT
  5
1E3C
330
19A5
100
AcDbEntity
  8
SUNPOU
100
AcDbMText
 10
279.1259868100183
 20
86.49371226993102
 30
0.0
 40
3.0
 41
0.0
 71
     5
 72
     1
  1
\A1;35
 11
0.3746065860035678
 21
-0.9271838575615689
 31
0.0
1001
ACAD
1000
MTEXTBEGIN
1070
    73
1070
     1
1070
    44
1040
1.0
1070
    74
1070
     0
1000
MTEXTEND
  0
POINT
  5
1E3D
330
19A5
100
AcDbEntity
  8
DEFPOINTS
 62
     0
100
AcDbPoint
 10
255.1053129109534
 20
95.66308821174819
 30
0.0
  0
POINT
  5
1E3E
330
19A5
100
AcDbEntity
  8
DEFPOINTS
 62
     0
100
AcDbPoint
 10
268.2165434210783
 20
63.2116531970933
 30
0.0
  0
POINT
  5
1E3F
330
19A5
100
AcDbEntity
  8
DEFPOINTS
 62
     0
100
AcDbPoint
 10
283.3636424211768
 20
69.33147829759469
 30
0.0
  0
ENDBLK
  5
19B0
330
19A5
100
AcDbEntity
  8
0
100
AcDbBlockEnd
  0
BLOCK
  5
19BE
330
19B4
100
AcDbEntity
  8
0
100
AcDbBlockBegin
  2
*D12
 70
     1
 10
0.0
 20
0.0
 30
0.0
  3
*D12
  1

  0
LINE
  5
1DF8
330
19B4
100
AcDbEntity
  8
SUNPOU
100
AcDbLine
 10
120.2655588986741
 20
104.4990077031606
 30
0.0
 11
95.92019196128783
 21
104.4990077031606
 31
0.0
  0
LINE
  5
1DF9
330
19B4
100
AcDbEntity
  8
SUNPOU
100
AcDbLine
 10
265.2165433453951
 20
63.21165338441571
 30
0.0
 11
95.92019196128781
 21
63.21165338441575
 31
0.0
  0
LINE
  5
1DFA
330
19B4
100
AcDbEntity
  8
SUNPOU
100
AcDbLine
 10
97.42019196128783
 20
101.4990077031606
 30
0.0
 11
97.42019196128781
 21
66.21165338441574
 31
0.0
  0
INSERT
  5
1DFB
330
19B4
100
AcDbEntity
  8
SUNPOU
100
AcDbBlockReference
  2
_OPEN
 10
97.42019196128783
 20
104.4990077031606
 30
0.0
 41
3.0
 42
3.0
 43
3.0
 50
90.0
  0
INSERT
  5
1DFC
330
19B4
100
AcDbEntity
  8
SUNPOU
100
AcDbBlockReference
  2
_OPEN
 10
97.42019196128781
 20
63.21165338441575
 30
0.0
 41
3.0
 42
3.0
 43
3.0
 50
270.0
  0
MTEXT
  5
1DFD
330
19B4
100
AcDbEntity
  8
SUNPOU
100
AcDbMText
 10
94.92019196128779
 20
83.8553305437882
 30
0.0
 40
3.0
 41
0.0
 71
     5
 72
     1
  1
\A1;41
 11
0.0000000000000001
 21
1.0
 31
0.0
1001
ACAD
1000
MTEXTBEGIN
1070
    73
1070
     1
1070
    44
1040
1.0
1070
    74
1070
     0
1000
MTEXTEND
  0
POINT
  5
1DFE
330
19B4
100
AcDbEntity
  8
DEFPOINTS
 62
     0
100
AcDbPoint
 10
123.2655588986741
 20
104.4990077031606
 30
0.0
  0
POINT
  5
1DFF
330
19B4
100
AcDbEntity
  8
DEFPOINTS
 62
     0
100
AcDbPoint
 10
268.2165433453951
 20
63.21165338441571
 30
0.0
  0
POINT
  5
1E00
330
19B4
100
AcDbEntity
  8
DEFPOINTS
 62
     0
100
AcDbPoint
 10
97.42019196128781
 20
63.21165338441575
 30
0.0
  0
ENDBLK
  5
19BF
330
19B4
100
AcDbEntity
  8
0
100
AcDbBlockEnd
  0
ENDSEC
  0
SECTION
  2
ENTITIES
  0
ARC
  5
5A7
330
1A
100
AcDbEntity
  8
NOKITOI
  6
PHANTOM
 62
     8
100
AcDbCircle
 10
174.0457435333225
 20
109.6990221795307
 30
0.0
 40
43.00001447645168
100
AcDbArc
 50
186.5249107071177
 51
269.9998883751437
  0
ARC
  5
5A8
330
1A
100
AcDbEntity
  8
NOKITOI
  6
PHANTOM
 62
     8
100
AcDbCircle
 10
174.0457658417478
 20
109.6990020785043
 30
0.0
 40
41.79999437547816
100
AcDbArc
 50
184.4742952125247
 51
269.999854592109
  0
LINE
  5
5A9
330
1A
100
AcDbEntity
  8
NOKITOI
  6
PHANTOM
 62
     8
100
AcDbLine
 10
123.8347597597796
 20
108.8366077031606
 30
0.0
 11
123.7492597597799
 21
111.5741077031605
 31
0.0
  0
LINE
  5
5AA
330
1A
100
AcDbEntity
  8
NOKITOI
  6
PHANTOM
 62
     8
100
AcDbLine
 10
122.2966597597799
 20
119.6365077031606
 30
0.0
 11
122.6868597597797
 21
107.1522077031605
 31
0.0
  0
LINE
  5
5AB
330
1A
100
AcDbEntity
  8
NOKITOI
  6
PHANTOM
 62
     8
100
AcDbLine
 10
131.8746597597803
 20
106.8990077031606
 30
0.0
 11
125.8337597597799
 21
106.8990077031606
 31
0.0
  0
ARC
  5
5AC
330
1A
100
AcDbEntity
  8
NOKITOI
  6
PHANTOM
 62
     8
100
AcDbCircle
 10
130.3307513356173
 20
104.6990152182171
 30
0.0
 40
0.9999924849789756
100
AcDbArc
 50
6.528264606673934
 51
89.99951732740965
  0
LINE
  5
5AD
330
1A
100
AcDbEntity
  8
NOKITOI
  6
PHANTOM
 62
     8
100
AcDbLine
 10
124.1860597597799
 20
105.6990077031606
 30
0.0
 11
130.3307597597797
 21
105.6990077031606
 31
0.0
  0
ARC
  5
5AE
330
1A
100
AcDbEntity
  8
NOKITOI
  6
PHANTOM
 62
     8
100
AcDbCircle
 10
125.8337733319183
 20
108.8989945480742
 30
0.0
 40
1.999986844959662
100
AcDbArc
 50
181.7875531852356
 51
269.9996111843215
  0
ARC
  5
5AF
330
1A
100
AcDbEntity
  8
NOKITOI
  6
PHANTOM
 62
     8
100
AcDbCircle
 10
124.1860957189307
 20
107.1989728490174
 30
0.0
 40
1.499965146287778
100
AcDbArc
 50
181.7866280217767
 51
269.9986264296971
  0
ARC
  5
5B0
330
1A
100
AcDbEntity
  8
NOKITOI
  6
PHANTOM
 62
     8
100
AcDbCircle
 10
131.8746723294882
 20
106.3989960784309
 30
0.0
 40
0.5000116248877111
100
AcDbArc
 50
4.474846808342103
 51
90.00144034898383
  0
ARC
  5
5B1
330
1A
100
AcDbEntity
  8
NOKITOI
  6
PHANTOM
 62
     8
100
AcDbCircle
 10
124.2956725106298
 20
119.699020858247
 30
0.0
 40
1.999986844954076
100
AcDbArc
 50
90.00036528735451
 51
181.7883072882703
  0
LINE
  5
5B2
330
1A
100
AcDbEntity
  8
NOKITOI
  6
PHANTOM
 62
     8
100
AcDbLine
 10
130.5735597597797
 20
119.1990077031606
 30
0.0
 11
128.3420597597798
 21
119.1990077031606
 31
0.0
  0
ARC
  5
5B3
330
1A
100
AcDbEntity
  8
NOKITOI
  6
PHANTOM
 62
     8
100
AcDbCircle
 10
130.2577528727849
 20
112.6990011680751
 30
0.0
 40
0.499993464961963
100
AcDbArc
 50
270.0007892017869
 51
356.997036131742
  0
LINE
  5
5B4
330
1A
100
AcDbEntity
  8
NOKITOI
  6
PHANTOM
 62
     8
100
AcDbLine
 10
129.5936597597799
 20
113.3990077031606
 30
0.0
 11
129.7748597597798
 21
116.8405077031607
 31
0.0
  0
LINE
  5
5B5
330
1A
100
AcDbEntity
  8
NOKITOI
  6
PHANTOM
 62
     8
100
AcDbLine
 10
129.21985975978
 20
116.2274077031605
 30
0.0
 11
129.7748597597798
 21
116.8405077031607
 31
0.0
  0
ARC
  5
5B6
330
1A
100
AcDbEntity
  8
NOKITOI
  6
PHANTOM
 62
     8
100
AcDbCircle
 10
127.7473799724491
 20
111.6990664315406
 30
0.0
 40
5.2000412730095
100
AcDbArc
 50
90.0013245430618
 51
142.0757990790548
  0
LINE
  5
5B7
330
1A
100
AcDbEntity
  8
NOKITOI
  6
PHANTOM
 62
     8
100
AcDbLine
 10
123.4960597597803
 20
119.6740077031605
 30
0.0
 11
123.6454597597796
 21
114.8951077031607
 31
0.0
  0
ARC
  5
5B8
330
1A
100
AcDbEntity
  8
NOKITOI
  6
PHANTOM
 62
     8
100
AcDbCircle
 10
127.7472976412265
 20
111.6990514856859
 30
0.0
 40
3.999989731271038
100
AcDbArc
 50
96.47731142013116
 51
181.7899836067311
  0
ARC
  5
5B9
330
1A
100
AcDbEntity
  8
NOKITOI
  6
PHANTOM
 62
     8
100
AcDbCircle
 10
127.3524739781953
 20
115.1766930688596
 30
0.0
 40
0.5000073448410256
100
AcDbArc
 50
351.872947864124
 51
96.47829282996921
  0
LINE
  5
5BA
330
1A
100
AcDbEntity
  8
NOKITOI
  6
PHANTOM
 62
     8
100
AcDbLine
 10
128.8157597597803
 20
113.3990077031606
 30
0.0
 11
129.21985975978
 21
116.2274077031605
 31
0.0
  0
LINE
  5
5BB
330
1A
100
AcDbEntity
  8
NOKITOI
  6
PHANTOM
 62
     8
100
AcDbLine
 10
129.5936597597799
 20
113.3990077031606
 30
0.0
 11
128.8157597597803
 21
113.3990077031606
 31
0.0
  0
ARC
  5
5BC
330
1A
100
AcDbEntity
  8
NOKITOI
  6
PHANTOM
 62
     8
100
AcDbCircle
 10
128.0086863603775
 20
112.6989770262785
 30
0.0
 40
0.4999693238254178
100
AcDbArc
 50
171.8555038770531
 51
269.9969516090356
  0
LINE
  5
5BD
330
1A
100
AcDbEntity
  8
NOKITOI
  6
PHANTOM
 62
     8
100
AcDbLine
 10
130.2577597597798
 20
112.1990077031606
 30
0.0
 11
128.0086597597798
 21
112.1990077031606
 31
0.0
  0
LINE
  5
5BE
330
1A
100
AcDbEntity
  8
NOKITOI
  6
PHANTOM
 62
     8
100
AcDbLine
 10
127.5137597597797
 20
112.7698077031608
 30
0.0
 11
127.8474597597798
 21
115.1060077031607
 31
0.0
  0
LINE
  5
5BF
330
1A
100
AcDbEntity
  8
NOKITOI
  6
PHANTOM
 62
     8
100
AcDbLine
 10
126.7684597597801
 20
120.4990077031607
 30
0.0
 11
126.2684597597801
 21
117.9990077031608
 31
0.0
  0
LINE
  5
5C0
330
1A
100
AcDbEntity
  8
NOKITOI
  6
PHANTOM
 62
     8
100
AcDbLine
 10
126.2684597597801
 20
117.9990077031608
 30
0.0
 11
129.2049597597799
 21
117.9990077031608
 31
0.0
  0
LINE
  5
5C1
330
1A
100
AcDbEntity
  8
NOKITOI
  6
PHANTOM
 62
     8
100
AcDbLine
 10
124.2956597597796
 20
121.6990077031606
 30
0.0
 11
127.62225975978
 21
121.6990077031606
 31
0.0
  0
LINE
  5
5C2
330
1A
100
AcDbEntity
  8
NOKITOI
  6
PHANTOM
 62
     8
100
AcDbLine
 10
124.2956597597796
 20
120.4990077031607
 30
0.0
 11
126.7684597597801
 21
120.4990077031607
 31
0.0
  0
ARC
  5
5C3
330
1A
100
AcDbEntity
  8
NOKITOI
  6
PHANTOM
 62
     8
100
AcDbCircle
 10
124.2956642545779
 20
119.6990123406875
 30
0.0
 40
0.7999953624857498
100
AcDbArc
 50
90.00032191805264
 51
181.7911273464193
  0
ARC
  5
5C4
330
1A
100
AcDbEntity
  8
NOKITOI
  6
PHANTOM
 62
     8
100
AcDbCircle
 10
127.6222589767714
 20
121.1990086581623
 30
0.0
 40
0.4999990449987349
100
AcDbArc
 50
348.6967198015447
 51
89.99991027369492
  0
ARC
  5
5C5
330
1A
100
AcDbEntity
  8
NOKITOI
  6
PHANTOM
 62
     8
100
AcDbCircle
 10
128.3420525052244
 20
119.699016553004
 30
0.0
 40
0.5000088498959383
100
AcDbArc
 50
168.6864043304892
 51
270.0008312961442
  0
LINE
  5
5C6
330
1A
100
AcDbEntity
  8
NOKITOI
  6
PHANTOM
 62
     8
100
AcDbLine
 10
127.8517597597799
 20
119.7971077031605
 30
0.0
 11
128.1125597597799
 21
121.1010077031606
 31
0.0
  0
LINE
  5
5C7
330
1A
100
AcDbEntity
  8
NOKITOI
  6
PHANTOM
 62
     8
100
AcDbLine
 10
128.2091597597802
 20
116.8990077031606
 30
0.0
 11
127.74725975978
 21
116.8990077031606
 31
0.0
  0
LINE
  5
5C8
330
1A
100
AcDbEntity
  8
NOKITOI
  6
PHANTOM
 62
     8
100
AcDbLine
 10
128.2091597597802
 20
116.8990077031606
 30
0.0
 11
129.2049597597799
 21
117.9990077031608
 31
0.0
  0
LINE
  5
5C9
330
1A
100
AcDbEntity
  8
NOKITOI
  6
PHANTOM
 62
     8
100
AcDbLine
 10
130.75715975978
 20
112.6728077031605
 30
0.0
 11
131.0729597597798
 21
118.6727077031606
 31
0.0
  0
ARC
  5
5CA
330
1A
100
AcDbEntity
  8
NOKITOI
  6
PHANTOM
 62
     8
100
AcDbCircle
 10
130.573553558622
 20
118.6990142382458
 30
0.0
 40
0.4999934649531607
100
AcDbArc
 50
356.9955363203376
 51
89.99928939038076
  0
LINE
  5
5CB
330
1A
100
AcDbEntity
  8
NOKITOI
  6
PHANTOM
 62
     8
100
AcDbLine
 10
214.8751597597799
 20
66.69890770316064
 30
0.0
 11
194.7172597597802
 21
66.69890770316064
 31
0.0
  0
LINE
  5
5CC
330
1A
100
AcDbEntity
  8
NOKITOI
  6
PHANTOM
 62
     8
100
AcDbLine
 10
214.6253597597798
 20
67.89890770316069
 30
0.0
 11
194.7172597597802
 21
67.89890770316069
 31
0.0
  0
LINE
  5
5CD
330
1A
100
AcDbEntity
  8
NOKITOI
  6
PHANTOM
 62
     8
100
AcDbLine
 10
218.8751597597799
 20
66.69890770316064
 30
0.0
 11
174.0457597597798
 21
66.69900770316061
 31
0.0
  0
LINE
  5
5CE
330
1A
100
AcDbEntity
  8
NOKITOI
  6
PHANTOM
 62
     8
100
AcDbLine
 10
174.0457597597798
 20
67.89900770316066
 30
0.0
 11
218.6253597597799
 21
67.89890770316069
 31
0.0
  0
LINE
  5
5CF
330
1A
100
AcDbEntity
  8
NOKITOI
  6
PHANTOM
 62
     8
100
AcDbLine
 10
240.6296597597799
 20
108.8364077031606
 30
0.0
 11
240.7151597597796
 21
111.5740077031606
 31
0.0
  0
LINE
  5
5D0
330
1A
100
AcDbEntity
  8
NOKITOI
  6
PHANTOM
 62
     8
100
AcDbLine
 10
242.1676597597799
 20
119.6365077031606
 30
0.0
 11
241.7775597597799
 21
107.1521077031605
 31
0.0
  0
LINE
  5
5D1
330
1A
100
AcDbEntity
  8
NOKITOI
  6
PHANTOM
 62
     8
100
AcDbLine
 10
240.2782597597799
 20
105.6990077031606
 30
0.0
 11
234.1371597597801
 21
105.6990077031606
 31
0.0
  0
LINE
  5
5D2
330
1A
100
AcDbEntity
  8
NOKITOI
  6
PHANTOM
 62
     8
100
AcDbLine
 10
232.5986597597795
 20
106.8990077031606
 30
0.0
 11
238.6305597597799
 21
106.8990077031606
 31
0.0
  0
LINE
  5
5D3
330
1A
100
AcDbEntity
  8
NOKITOI
  6
PHANTOM
 62
     8
100
AcDbLine
 10
233.1421597597802
 20
104.7985077031606
 30
0.0
 11
230.27335975978
 21
76.11110770316063
 31
0.0
  0
LINE
  5
5D4
330
1A
100
AcDbEntity
  8
NOKITOI
  6
PHANTOM
 62
     8
100
AcDbLine
 10
232.10115975978
 20
106.4488077031606
 30
0.0
 11
229.1081597597796
 21
76.51900770316055
 31
0.0
  0
LINE
  5
5D5
330
1A
100
AcDbEntity
  8
NOKITOI
  6
PHANTOM
 62
     8
100
AcDbLine
 10
229.9115597597799
 20
75.43660770316077
 30
0.0
 11
219.5084597597799
 21
66.92490770316076
 31
0.0
  0
LINE
  5
5D6
330
1A
100
AcDbEntity
  8
NOKITOI
  6
PHANTOM
 62
     8
100
AcDbLine
 10
228.9272597597803
 20
76.18170770316064
 30
0.0
 11
218.94195975978
 21
68.01190770316051
 31
0.0
  0
ARC
  5
5D7
330
1A
100
AcDbEntity
  8
NOKITOI
  6
PHANTOM
 62
     8
100
AcDbCircle
 10
218.8751528272025
 20
67.69890522815453
 30
0.0
 40
0.9999975250179316
100
AcDbArc
 50
270.0003972084035
 51
309.2946416752299
  0
ARC
  5
5D8
330
1A
100
AcDbEntity
  8
NOKITOI
  6
PHANTOM
 62
     8
100
AcDbCircle
 10
218.6253661475286
 20
68.39890998315022
 30
0.0
 40
0.5000022800304047
100
AcDbArc
 50
269.9992680212791
 51
309.2854498596061
  0
ARC
  5
5D9
330
1A
100
AcDbEntity
  8
NOKITOI
  6
PHANTOM
 62
     8
100
AcDbCircle
 10
229.2783371869111
 20
76.21056563148804
 30
0.0
 40
0.9999908507640039
100
AcDbArc
 50
309.288709223069
 51
354.2862329477532
  0
ARC
  5
5DA
330
1A
100
AcDbEntity
  8
NOKITOI
  6
PHANTOM
 62
     8
100
AcDbCircle
 10
228.6106423339017
 20
76.56867521677267
 30
0.0
 40
0.4999904508696396
100
AcDbArc
 50
309.2900846377951
 51
354.2990110749239
  0
ARC
  5
5DB
330
1A
100
AcDbEntity
  8
NOKITOI
  6
PHANTOM
 62
     8
100
AcDbCircle
 10
234.1371804096208
 20
104.6990263910098
 30
0.0
 40
0.9999813123640345
100
AcDbArc
 50
90.00118317084911
 51
174.2905900333514
  0
ARC
  5
5DC
330
1A
100
AcDbEntity
  8
NOKITOI
  6
PHANTOM
 62
     8
100
AcDbCircle
 10
232.5986728307845
 20
106.3990195334405
 30
0.0
 40
0.499988169890889
100
AcDbArc
 50
90.00149786226634
 51
174.2966061377162
  0
ARC
  5
5DD
330
1A
100
AcDbEntity
  8
NOKITOI
  6
PHANTOM
 62
     8
100
AcDbCircle
 10
240.278276972958
 20
107.1990243863084
 30
0.0
 40
1.500016683246579
100
AcDbArc
 50
269.9993425123344
 51
358.2076423244113
  0
ARC
  5
5DE
330
1A
100
AcDbEntity
  8
NOKITOI
  6
PHANTOM
 62
     8
100
AcDbCircle
 10
238.6305977476042
 20
108.8989445237328
 30
0.0
 40
2.000036820932882
100
AcDbArc
 50
269.9989117490344
 51
358.2110591274195
  0
LINE
  5
5DF
330
1A
100
AcDbEntity
  8
NOKITOI
  6
PHANTOM
 62
     8
100
AcDbLine
 10
240.1686597597801
 20
121.6989077031606
 30
0.0
 11
236.8420597597798
 21
121.6990077031606
 31
0.0
  0
LINE
  5
5E0
330
1A
100
AcDbEntity
  8
NOKITOI
  6
PHANTOM
 62
     8
100
AcDbLine
 10
238.1959597597799
 20
117.9990077031608
 30
0.0
 11
235.2593597597799
 21
117.9990077031608
 31
0.0
  0
ARC
  5
5E1
330
1A
100
AcDbEntity
  8
NOKITOI
  6
PHANTOM
 62
     8
100
AcDbCircle
 10
237.1118891322796
 20
115.1766379356555
 30
0.0
 40
0.4999578477751074
100
AcDbArc
 50
83.52609071220754
 51
188.1330561712932
  0
ARC
  5
5E2
330
1A
100
AcDbEntity
  8
NOKITOI
  6
PHANTOM
 62
     8
100
AcDbCircle
 10
236.7171418934287
 20
111.6990164315405
 30
0.0
 40
5.199991271650611
100
AcDbArc
 50
37.92532860472995
 51
89.9998031407256
  0
LINE
  5
5E3
330
1A
100
AcDbEntity
  8
NOKITOI
  6
PHANTOM
 62
     8
100
AcDbLine
 10
234.8706597597799
 20
113.3990077031606
 30
0.0
 11
234.6895597597796
 21
116.8404077031605
 31
0.0
  0
LINE
  5
5E4
330
1A
100
AcDbEntity
  8
NOKITOI
  6
PHANTOM
 62
     8
100
AcDbLine
 10
235.24455975978
 20
116.2274077031605
 30
0.0
 11
234.6895597597796
 21
116.8404077031605
 31
0.0
  0
LINE
  5
5E5
330
1A
100
AcDbEntity
  8
NOKITOI
  6
PHANTOM
 62
     8
100
AcDbLine
 10
233.70725975978
 20
112.6727077031606
 30
0.0
 11
233.3914597597797
 21
118.6727077031606
 31
0.0
  0
LINE
  5
5E6
330
1A
100
AcDbEntity
  8
NOKITOI
  6
PHANTOM
 62
     8
100
AcDbLine
 10
235.6485597597795
 20
113.3990077031606
 30
0.0
 11
235.24455975978
 21
116.2274077031605
 31
0.0
  0
LINE
  5
5E7
330
1A
100
AcDbEntity
  8
NOKITOI
  6
PHANTOM
 62
     8
100
AcDbLine
 10
234.8706597597799
 20
113.3990077031606
 30
0.0
 11
235.6485597597795
 21
113.3990077031606
 31
0.0
  0
LINE
  5
5E8
330
1A
100
AcDbEntity
  8
NOKITOI
  6
PHANTOM
 62
     8
100
AcDbLine
 10
234.2065597597799
 20
112.1990077031606
 30
0.0
 11
236.4556597597795
 21
112.1990077031606
 31
0.0
  0
ARC
  5
5E9
330
1A
100
AcDbEntity
  8
NOKITOI
  6
PHANTOM
 62
     8
100
AcDbCircle
 10
234.2065638811866
 20
112.6990037931301
 30
0.0
 40
0.4999960899864752
100
AcDbArc
 50
183.0147243791741
 51
269.9995277178593
  0
ARC
  5
5EA
330
1A
100
AcDbEntity
  8
NOKITOI
  6
PHANTOM
 62
     8
100
AcDbCircle
 10
236.4556699462161
 20
112.6990194478847
 30
0.0
 40
0.5000117448278309
100
AcDbArc
 50
269.9988327478016
 51
8.127314608715551
  0
LINE
  5
5EB
330
1A
100
AcDbEntity
  8
NOKITOI
  6
PHANTOM
 62
     8
100
AcDbLine
 10
236.9506597597798
 20
112.7697077031606
 30
0.0
 11
236.61685975978
 21
115.1059077031608
 31
0.0
  0
LINE
  5
5EC
330
1A
100
AcDbEntity
  8
NOKITOI
  6
PHANTOM
 62
     8
100
AcDbLine
 10
233.8907597597801
 20
119.1990077031606
 30
0.0
 11
236.12225975978
 21
119.1990077031606
 31
0.0
  0
ARC
  5
5ED
330
1A
100
AcDbEntity
  8
NOKITOI
  6
PHANTOM
 62
     8
100
AcDbCircle
 10
233.8907634692752
 20
118.6990116131913
 30
0.0
 40
0.4999960899831856
100
AcDbArc
 50
90.00042508015082
 51
183.0156217414647
  0
ARC
  5
5EE
330
1A
100
AcDbEntity
  8
NOKITOI
  6
PHANTOM
 62
     8
100
AcDbCircle
 10
236.8420525052244
 20
121.1989988533171
 30
0.0
 40
0.500008849895925
100
AcDbArc
 50
89.99916870385415
 51
191.3135956695126
  0
ARC
  5
5EF
330
1A
100
AcDbEntity
  8
NOKITOI
  6
PHANTOM
 62
     8
100
AcDbCircle
 10
236.1222589767714
 20
119.6990067481588
 30
0.0
 40
0.4999990449987399
100
AcDbArc
 50
270.000089726305
 51
11.30328019845521
  0
LINE
  5
5F0
330
1A
100
AcDbEntity
  8
NOKITOI
  6
PHANTOM
 62
     8
100
AcDbLine
 10
236.6125597597799
 20
119.7970077031607
 30
0.0
 11
236.3517597597799
 21
121.1010077031606
 31
0.0
  0
LINE
  5
5F1
330
1A
100
AcDbEntity
  8
NOKITOI
  6
PHANTOM
 62
     8
100
AcDbLine
 10
236.25515975978
 20
116.8990077031606
 30
0.0
 11
236.71715975978
 21
116.8990077031606
 31
0.0
  0
LINE
  5
5F2
330
1A
100
AcDbEntity
  8
NOKITOI
  6
PHANTOM
 62
     8
100
AcDbLine
 10
236.25515975978
 20
116.8990077031606
 30
0.0
 11
235.2593597597799
 21
117.9990077031608
 31
0.0
  0
LINE
  5
5F3
330
1A
100
AcDbEntity
  8
NOKITOI
  6
PHANTOM
 62
     8
100
AcDbLine
 10
240.9682597597795
 20
119.6740077031605
 30
0.0
 11
240.8189597597799
 21
114.8950077031607
 31
0.0
  0
ARC
  5
5F4
330
1A
100
AcDbEntity
  8
NOKITOI
  6
PHANTOM
 62
     8
100
AcDbCircle
 10
236.7171288328438
 20
111.6990434478244
 30
0.0
 40
3.99998565374706
100
AcDbArc
 50
358.208696659101
 51
83.52422380468341
  0
ARC
  5
5F5
330
1A
100
AcDbEntity
  8
NOKITOI
  6
PHANTOM
 62
     8
100
AcDbCircle
 10
240.1686485227858
 20
119.6990192969777
 30
0.0
 40
1.999988406214315
100
AcDbArc
 50
358.2088726535936
 51
89.99967808195551
  0
LINE
  5
5F6
330
1A
100
AcDbEntity
  8
NOKITOI
  6
PHANTOM
 62
     8
100
AcDbLine
 10
240.1686597597801
 20
120.4989077031606
 30
0.0
 11
237.6959597597799
 21
120.4990077031607
 31
0.0
  0
LINE
  5
5F7
330
1A
100
AcDbEntity
  8
NOKITOI
  6
PHANTOM
 62
     8
100
AcDbLine
 10
237.6959597597799
 20
120.4990077031607
 30
0.0
 11
238.1959597597799
 21
117.9990077031608
 31
0.0
  0
ARC
  5
5F8
330
1A
100
AcDbEntity
  8
NOKITOI
  6
PHANTOM
 62
     8
100
AcDbCircle
 10
240.1687037261328
 20
119.6989623406876
 30
0.0
 40
0.7999453636812564
100
AcDbArc
 50
358.2123436447881
 51
90.00314907315425
  0
LINE
  5
9FB
330
1A
100
AcDbEntity
  8
SEIHIN
100
AcDbLine
 10
183.7322798986741
 20
66.49900770316062
 30
0.0
 11
221.3114658986742
 21
66.49900770316062
 31
0.0
  0
LINE
  5
9FC
330
1A
100
AcDbEntity
  8
SEIHIN
100
AcDbLine
 10
183.7322798986741
 20
65.29900770316057
 30
0.0
 11
221.7398219986741
 21
65.29900770316057
 31
0.0
  0
LINE
  5
9FD
330
1A
100
AcDbEntity
  8
SEIHIN
100
AcDbLine
 10
183.7322798986741
 20
62.29900770316056
 30
0.0
 11
222.8107119986741
 21
62.29900770316056
 31
0.0
  0
LINE
  5
9FE
330
1A
100
AcDbEntity
  8
SEIHIN
100
AcDbLine
 10
173.7322798986741
 20
59.29900770316057
 30
0.0
 11
235.7322798986741
 21
59.29900770316057
 31
0.0
  0
LINE
  5
9FF
330
1A
100
AcDbEntity
  8
SEIHIN
100
AcDbLine
 10
180.2322798986741
 20
58.79900770316057
 30
0.0
 11
187.2322798986741
 21
58.79900770316057
 31
0.0
  0
LINE
  5
A00
330
1A
100
AcDbEntity
  8
SEIHIN
100
AcDbLine
 10
45.33209000068416
 20
58.79900770316057
 30
0.0
 11
52.33209000068416
 21
58.79900770316057
 31
0.0
  0
LINE
  5
A01
330
1A
100
AcDbEntity
  8
SEIHIN
100
AcDbLine
 10
45.33209000068416
 20
58.79900770316057
 30
0.0
 11
52.33209000068416
 21
58.79900770316057
 31
0.0
  0
LINE
  5
A02
330
1A
100
AcDbEntity
  8
SEIHIN
100
AcDbLine
 10
43.33209000068416
 20
62.29900770316056
 30
0.0
 11
54.33209000068416
 21
62.29900770316056
 31
0.0
  0
LINE
  5
A04
330
1A
100
AcDbEntity
  8
SEIHIN
100
AcDbLine
 10
55.33209000068416
 20
59.29900770316057
 30
0.0
 11
42.33209000068415
 21
59.29900770316057
 31
0.0
  0
LINE
  5
A06
330
1A
100
AcDbEntity
  8
SEIHIN
100
AcDbLine
 10
59.83209000068416
 20
103.2990077031605
 30
0.0
 11
37.83209000068416
 21
103.2990077031605
 31
0.0
  0
ARC
  5
A07
330
1A
100
AcDbEntity
  8
SEIHIN
100
AcDbCircle
 10
44.73209000068414
 20
138.4990077031605
 30
0.0
 40
2.0
100
AcDbArc
 50
0.0
 51
90.0
  0
ARC
  5
A08
330
1A
100
AcDbEntity
  8
SEIHIN
100
AcDbCircle
 10
44.23209000068413
 20
117.9990077031606
 30
0.0
 40
2.5
100
AcDbArc
 50
180.0
 51
0.0
  0
LINE
  5
A09
330
1A
100
AcDbEntity
  8
SEIHIN
100
AcDbLine
 10
51.83209000068416
 20
152.4990077031606
 30
0.0
 11
45.83209000068416
 21
152.4990077031606
 31
0.0
  0
LINE
  5
A0C
330
1A
100
AcDbEntity
  8
SEIHIN
100
AcDbLine
 10
41.83209000068416
 20
65.79900770316057
 30
0.0
 11
41.83209000068416
 21
103.2990077031605
 31
0.0
  0
LINE
  5
A11
330
1A
100
AcDbEntity
  8
SEIHIN
100
AcDbLine
 10
40.33209000068416
 20
65.29900770316057
 30
0.0
 11
37.83209000068416
 21
65.29900770316057
 31
0.0
  0
LINE
  5
A13
330
1A
100
AcDbEntity
  8
SEIHIN
100
AcDbLine
 10
40.03968750068418
 20
61.90374980316057
 30
0.0
 11
40.03968750068418
 21
62.01209160316058
 31
0.0
  0
LINE
  5
A14
330
1A
100
AcDbEntity
  8
SEIHIN
100
AcDbLine
 10
45.33209000068416
 20
59.29900770316057
 30
0.0
 11
45.33209000068416
 21
58.79900770316057
 31
0.0
  0
LINE
  5
A15
330
1A
100
AcDbEntity
  8
SEIHIN
100
AcDbLine
 10
45.33209000068416
 20
59.29900770316057
 30
0.0
 11
45.33209000068416
 21
58.79900770316057
 31
0.0
  0
ARC
  5
A16
330
1A
100
AcDbEntity
  8
SEIHIN
100
AcDbCircle
 10
43.33209000068416
 20
63.79900770316057
 30
0.0
 40
1.5
100
AcDbArc
 50
180.0
 51
270.0
  0
LINE
  5
A17
330
1A
100
AcDbEntity
  8
SEIHIN
100
AcDbLine
 10
40.03968750068418
 20
61.90374980316057
 30
0.0
 11
42.33209000068415
 21
61.90374980316057
 31
0.0
  0
LINE
  5
A18
330
1A
100
AcDbEntity
  8
SEIHIN
100
AcDbLine
 10
40.03968750068418
 20
65.29900770316057
 30
0.0
 11
40.03968750068418
 21
61.90374980316057
 31
0.0
  0
LINE
  5
A19
330
1A
100
AcDbEntity
  8
SEIHIN
100
AcDbLine
 10
42.33209000068415
 20
62.29900770316056
 30
0.0
 11
43.33209000068416
 21
62.29900770316056
 31
0.0
  0
LINE
  5
A1A
330
1A
100
AcDbEntity
  8
SEIHIN
100
AcDbLine
 10
42.33209000068415
 20
59.29900770316057
 30
0.0
 11
42.33209000068415
 21
62.29900770316056
 31
0.0
  0
ARC
  5
A1B
330
1A
100
AcDbEntity
  8
SEIHIN
100
AcDbCircle
 10
40.33209000068416
 20
63.79900770316057
 30
0.0
 40
1.5
100
AcDbArc
 50
0.0
 51
90.0
  0
ARC
  5
A24
330
1A
100
AcDbEntity
  8
SEIHIN
100
AcDbCircle
 10
39.78209000068409
 20
118.5490077031605
 30
0.0
 40
1.949999999999988
100
AcDbArc
 50
0.0
 51
180.0
  0
LINE
  5
A33
330
1A
100
AcDbEntity
  8
SEIHIN
100
AcDbLine
 10
41.73209000068413
 20
118.5490077031605
 30
0.0
 11
41.73209000068413
 21
117.9990077031606
 31
0.0
  0
LINE
  5
A34
330
1A
100
AcDbEntity
  8
SEIHIN
100
AcDbLine
 10
41.73209000068413
 20
118.4990077031605
 30
0.0
 11
41.73209000068413
 21
118.4990077031605
 31
0.0
  0
LINE
  5
A35
330
1A
100
AcDbEntity
  8
SEIHIN
100
AcDbLine
 10
42.83209000068416
 20
142.4977577031605
 30
0.0
 11
42.83209000068416
 21
149.4990077031606
 31
0.0
  0
ARC
  5
A36
330
1A
100
AcDbEntity
  8
SEIHIN
100
AcDbCircle
 10
44.83209000068415
 20
142.4977577031605
 30
0.0
 40
1.999999998843762
100
AcDbArc
 50
180.0
 51
268.5674562607732
  0
LINE
  5
A37
330
1A
100
AcDbEntity
  8
SEIHIN
100
AcDbLine
 10
44.33209000068416
 20
140.4990077031605
 30
0.0
 11
44.33209000068416
 21
140.4990077031605
 31
0.0
  0
ARC
  5
A38
330
1A
100
AcDbEntity
  8
SEIHIN
100
AcDbCircle
 10
45.83209000068416
 20
149.4990077031606
 30
0.0
 40
3.0
100
AcDbArc
 50
90.0
 51
180.0
  0
ARC
  5
A39
330
1A
100
AcDbEntity
  8
SEIHIN
100
AcDbCircle
 10
175.0458298986742
 20
109.4990077031606
 30
0.0
 40
43.99999996755491
100
AcDbArc
 50
190.0046914246752
 51
256.9987985386973
  0
ARC
  5
A3A
330
1A
100
AcDbEntity
  8
SEIHIN
100
AcDbCircle
 10
175.0458298986742
 20
109.4990077031606
 30
0.0
 40
45.19999999393088
100
AcDbArc
 50
190.0046914399661
 51
256.9987985135611
  0
ARC
  5
A3B
330
1A
100
AcDbEntity
  8
SEIHIN
100
AcDbCircle
 10
175.0458298986742
 20
109.4990077031606
 30
0.0
 40
48.19999998338746
100
AcDbArc
 50
190.3515581005718
 51
256.999279253117
  0
LINE
  5
A3E
330
1A
100
AcDbEntity
  8
SEIHIN
100
AcDbLine
 10
55.83209000068416
 20
65.79900770316057
 30
0.0
 11
55.83209000068416
 21
103.2990077031605
 31
0.0
  0
ARC
  5
A42
330
1A
100
AcDbEntity
  8
SEIHIN
100
AcDbCircle
 10
54.33209000068416
 20
63.79900770316057
 30
0.0
 40
1.5
100
AcDbArc
 50
270.0
 51
0.0
  0
LINE
  5
A43
330
1A
100
AcDbEntity
  8
SEIHIN
100
AcDbLine
 10
54.33209000068416
 20
62.29900770316056
 30
0.0
 11
55.33209000068416
 21
62.29900770316056
 31
0.0
  0
LINE
  5
A44
330
1A
100
AcDbEntity
  8
SEIHIN
100
AcDbLine
 10
52.33209000068416
 20
58.79900770316057
 30
0.0
 11
52.33209000068416
 21
59.29900770316057
 31
0.0
  0
LINE
  5
A46
330
1A
100
AcDbEntity
  8
SEIHIN
100
AcDbLine
 10
57.62449250068414
 20
62.01209160316058
 30
0.0
 11
57.62449250068414
 21
61.90374980316057
 31
0.0
  0
LINE
  5
A47
330
1A
100
AcDbEntity
  8
SEIHIN
100
AcDbLine
 10
57.33209000068416
 20
65.29900770316057
 30
0.0
 11
59.83209000068416
 21
65.29900770316057
 31
0.0
  0
ARC
  5
A49
330
1A
100
AcDbEntity
  8
SEIHIN
100
AcDbCircle
 10
57.33209000068416
 20
63.79900770316057
 30
0.0
 40
1.5
100
AcDbArc
 50
90.0
 51
180.0
  0
LINE
  5
A4A
330
1A
100
AcDbEntity
  8
SEIHIN
100
AcDbLine
 10
57.62449250068414
 20
61.90374980316057
 30
0.0
 11
57.62449250068414
 21
65.29900770316057
 31
0.0
  0
LINE
  5
A4B
330
1A
100
AcDbEntity
  8
SEIHIN
100
AcDbLine
 10
55.33209000068416
 20
62.29900770316056
 30
0.0
 11
55.33209000068416
 21
61.90374980316057
 31
0.0
  0
LINE
  5
A4C
330
1A
100
AcDbEntity
  8
SEIHIN
100
AcDbLine
 10
55.33209000068416
 20
61.90374980316057
 30
0.0
 11
57.62449250068414
 21
61.90374980316057
 31
0.0
  0
LINE
  5
A4D
330
1A
100
AcDbEntity
  8
SEIHIN
100
AcDbLine
 10
55.33209000068416
 20
61.90374980316057
 30
0.0
 11
55.33209000068416
 21
59.29900770316057
 31
0.0
  0
ARC
  5
A56
330
1A
100
AcDbEntity
  8
SEIHIN
100
AcDbCircle
 10
166.2708648986741
 20
71.49900770316062
 30
0.0
 40
5.000000009884356
100
AcDbArc
 50
256.997175988683
 51
270.0
  0
LINE
  5
A57
330
1A
100
AcDbEntity
  8
SEIHIN
100
AcDbLine
 10
166.2708648986741
 20
66.49900770316062
 30
0.0
 11
183.7322798986741
 21
66.49900770316062
 31
0.0
  0
LINE
  5
A58
330
1A
100
AcDbEntity
  8
SEIHIN
100
AcDbLine
 10
166.2708648986741
 20
65.29900770316057
 30
0.0
 11
183.7322798986741
 21
65.29900770316057
 31
0.0
  0
LINE
  5
A59
330
1A
100
AcDbEntity
  8
SEIHIN
100
AcDbLine
 10
166.2708648986741
 20
62.29900770316056
 30
0.0
 11
183.7322798986741
 21
62.29900770316056
 31
0.0
  0
ARC
  5
A5A
330
1A
100
AcDbEntity
  8
SEIHIN
100
AcDbCircle
 10
166.2708648986741
 20
71.49900770316062
 30
0.0
 40
6.20000002439895
100
AcDbArc
 50
256.9971760025682
 51
270.0
  0
ARC
  5
A5B
330
1A
100
AcDbEntity
  8
SEIHIN
100
AcDbCircle
 10
166.2708648986741
 20
71.49900770316062
 30
0.0
 40
9.20000000634241
100
AcDbArc
 50
256.9971761847128
 51
270.0
  0
LINE
  5
A5C
330
1A
100
AcDbEntity
  8
SEIHIN
100
AcDbLine
 10
173.7322798986741
 20
62.29900770316056
 30
0.0
 11
173.7322798986741
 21
59.29900770316057
 31
0.0
  0
LINE
  5
A5D
330
1A
100
AcDbEntity
  8
SEIHIN
100
AcDbLine
 10
180.2322798986741
 20
59.29900770316057
 30
0.0
 11
180.2322798986741
 21
58.79900770316057
 31
0.0
  0
LINE
  5
A5E
330
1A
100
AcDbEntity
  8
SEIHIN
100
AcDbLine
 10
50.93209000068418
 20
138.4990077031605
 30
0.0
 11
50.93209000068418
 21
117.9990077031606
 31
0.0
  0
LINE
  5
A5F
330
1A
100
AcDbEntity
  8
SEIHIN
100
AcDbLine
 10
46.73209000068413
 20
138.4990077031605
 30
0.0
 11
46.73209000068413
 21
117.9990077031606
 31
0.0
  0
ARC
  5
A60
330
1A
100
AcDbEntity
  8
SEIHIN
100
AcDbCircle
 10
57.88209000068412
 20
118.5490077031605
 30
0.0
 40
1.949999999999988
100
AcDbArc
 50
0.0
 51
180.0
  0
LINE
  5
A61
330
1A
100
AcDbEntity
  8
SEIHIN
100
AcDbLine
 10
59.83209000068416
 20
118.5490077031605
 30
0.0
 11
59.83209000068416
 21
65.29900770316055
 31
0.0
  0
LINE
  5
A66
330
1A
100
AcDbEntity
  8
SEIHIN
100
AcDbLine
 10
59.83209000068416
 20
95.82823650316056
 30
0.0
 11
59.83209000068416
 21
95.15618850316061
 31
0.0
  0
ARC
  5
A71
330
1A
100
AcDbEntity
  8
SEIHIN
100
AcDbCircle
 10
53.43209000068418
 20
117.9990077031606
 30
0.0
 40
2.5
100
AcDbArc
 50
180.0
 51
0.0
  0
LINE
  5
A72
330
1A
100
AcDbEntity
  8
SEIHIN
100
AcDbLine
 10
55.93209000068418
 20
118.4990077031605
 30
0.0
 11
55.93209000068418
 21
118.4990077031605
 31
0.0
  0
LINE
  5
A73
330
1A
100
AcDbEntity
  8
SEIHIN
100
AcDbLine
 10
55.93209000068418
 20
118.5490077031605
 30
0.0
 11
55.93209000068418
 21
117.9990077031606
 31
0.0
  0
LINE
  5
A74
330
1A
100
AcDbEntity
  8
SEIHIN
100
AcDbLine
 10
50.93209000068418
 20
127.3238197031605
 30
0.0
 11
50.93209000068418
 21
127.3238197031605
 31
0.0
  0
LINE
  5
A75
330
1A
100
AcDbEntity
  8
SEIHIN
100
AcDbLine
 10
46.73209000068413
 20
127.3238197031605
 30
0.0
 11
46.73209000068413
 21
127.3238197031605
 31
0.0
  0
LINE
  5
A76
330
1A
100
AcDbEntity
  8
SEIHIN
100
AcDbLine
 10
50.93209000068418
 20
126.3840927031605
 30
0.0
 11
50.93209000068418
 21
126.3840927031605
 31
0.0
  0
LINE
  5
A77
330
1A
100
AcDbEntity
  8
SEIHIN
100
AcDbLine
 10
46.73209000068413
 20
126.3840927031605
 30
0.0
 11
46.73209000068413
 21
126.3840927031605
 31
0.0
  0
LINE
  5
A78
330
1A
100
AcDbEntity
  8
SEIHIN
100
AcDbLine
 10
54.83209000068416
 20
142.4977577031605
 30
0.0
 11
54.83209000068416
 21
149.4990077031606
 31
0.0
  0
ARC
  5
A79
330
1A
100
AcDbEntity
  8
SEIHIN
100
AcDbCircle
 10
52.83209000068416
 20
142.4977577031605
 30
0.0
 40
1.99999999884376
100
AcDbArc
 50
271.4325437392202
 51
0.0
  0
ARC
  5
A7A
330
1A
100
AcDbEntity
  8
SEIHIN
100
AcDbCircle
 10
52.93209000068419
 20
138.4990077031605
 30
0.0
 40
2.0
100
AcDbArc
 50
90.0
 51
180.0
  0
ARC
  5
A7B
330
1A
100
AcDbEntity
  8
SEIHIN
100
AcDbCircle
 10
51.83209000068416
 20
149.4990077031606
 30
0.0
 40
3.0
100
AcDbArc
 50
0.0
 51
90.0
  0
LINE
  5
A7C
330
1A
100
AcDbEntity
  8
SEIHIN
100
AcDbLine
 10
122.2322798986741
 20
152.4990077031606
 30
0.0
 11
122.2322798986741
 21
105.4990077031606
 31
0.0
  0
LINE
  5
A7D
330
1A
100
AcDbEntity
  8
SEIHIN
100
AcDbLine
 10
121.0322798986742
 20
152.4990077031606
 30
0.0
 11
121.0322798986742
 21
105.4990077031606
 31
0.0
  0
ARC
  5
A7E
330
1A
100
AcDbEntity
  8
SEIHIN
100
AcDbCircle
 10
124.6791742986741
 20
100.2990077031605
 30
0.0
 40
2.999999985884628
100
AcDbArc
 50
10.35155819740191
 51
90.0
  0
LINE
  5
A7F
330
1A
100
AcDbEntity
  8
SEIHIN
100
AcDbLine
 10
128.5635751986742
 20
104.4990077031606
 30
0.0
 11
123.2322798986741
 21
104.4990077031606
 31
0.0
  0
LINE
  5
A80
330
1A
100
AcDbEntity
  8
SEIHIN
100
AcDbLine
 10
128.5635751986742
 20
103.2990077031605
 30
0.0
 11
123.2322798986741
 21
103.2990077031605
 31
0.0
  0
ARC
  5
A81
330
1A
100
AcDbEntity
  8
SEIHIN
100
AcDbCircle
 10
123.2322798986741
 20
105.4990077031606
 30
0.0
 40
1.0
100
AcDbArc
 50
180.0
 51
270.0
  0
LINE
  5
A82
330
1A
100
AcDbEntity
  8
SEIHIN
100
AcDbLine
 10
123.2655588986741
 20
104.4990077031606
 30
0.0
 11
123.2655588986741
 21
104.4990077031606
 31
0.0
  0
ARC
  5
A83
330
1A
100
AcDbEntity
  8
SEIHIN
100
AcDbCircle
 10
123.2322798986741
 20
105.4990077031606
 30
0.0
 40
2.199999999999988
100
AcDbArc
 50
180.0
 51
270.0
  0
ARC
  5
A84
330
1A
100
AcDbEntity
  8
SEIHIN
100
AcDbCircle
 10
128.5635751986742
 20
101.2990077031605
 30
0.0
 40
3.199999999587582
100
AcDbArc
 50
10.00469134359077
 51
90.0
  0
ARC
  5
A85
330
1A
100
AcDbEntity
  8
SEIHIN
100
AcDbCircle
 10
128.5635751986742
 20
101.2990077031605
 30
0.0
 40
2.000000016035531
100
AcDbArc
 50
10.00469045164722
 51
90.0
  0
LINE
  5
A86
330
1A
100
AcDbEntity
  8
SEIHIN
100
AcDbLine
 10
122.2322798986741
 20
111.0953417031605
 30
0.0
 11
122.2322798986741
 21
111.0953417031605
 31
0.0
  0
LINE
  5
A87
330
1A
100
AcDbEntity
  8
SEIHIN
100
AcDbLine
 10
122.2322798986741
 20
120.4990077031605
 30
0.0
 11
121.0322798986742
 21
120.4990077031605
 31
0.0
  0
LINE
  5
A88
330
1A
100
AcDbEntity
  8
SEIHIN
100
AcDbLine
 10
122.2322798986741
 20
140.4990077031605
 30
0.0
 11
121.0322798986742
 21
140.4990077031605
 31
0.0
  0
LINE
  5
A89
330
1A
100
AcDbEntity
  8
SEIHIN
100
AcDbLine
 10
122.2322798986741
 20
152.4990077031606
 30
0.0
 11
121.0322798986742
 21
152.4990077031606
 31
0.0
  0
LINE
  5
A8B
330
1A
100
AcDbEntity
  8
SEIHIN
100
AcDbLine
 10
241.7322798986741
 20
65.29900770316057
 30
0.0
 11
241.7322798986741
 21
94.29900770316058
 31
0.0
  0
LINE
  5
A8D
330
1A
100
AcDbEntity
  8
SEIHIN
100
AcDbLine
 10
232.8306875986742
 20
74.37335170316057
 30
0.0
 11
234.9005761986742
 21
95.07224500316057
 31
0.0
  0
LINE
  5
A8E
330
1A
100
AcDbEntity
  8
SEIHIN
100
AcDbLine
 10
238.1002734986742
 20
96.91959120316058
 30
0.0
 11
235.6921518986741
 21
72.83836690316061
 31
0.0
  0
LINE
  5
A8F
330
1A
100
AcDbEntity
  8
SEIHIN
100
AcDbLine
 10
238.7322798986741
 20
94.29900770316058
 30
0.0
 11
238.7322798986741
 21
65.29900770316057
 31
0.0
  0
LINE
  5
A93
330
1A
100
AcDbEntity
  8
SEIHIN
100
AcDbLine
 10
231.6861018986742
 20
74.98734570316061
 30
0.0
 11
233.7065315986742
 21
95.19164940316057
 31
0.0
  0
LINE
  5
A95
330
1A
100
AcDbEntity
  8
SEIHIN
100
AcDbLine
 10
187.2322798986741
 20
58.79900770316057
 30
0.0
 11
187.2322798986741
 21
59.29900770316057
 31
0.0
  0
LINE
  5
A96
330
1A
100
AcDbEntity
  8
SEIHIN
100
AcDbLine
 10
221.7398219986741
 20
65.29900770316057
 30
0.0
 11
232.8306875986742
 21
74.37335170316057
 31
0.0
  0
LINE
  5
A97
330
1A
100
AcDbEntity
  8
SEIHIN
100
AcDbLine
 10
222.8107119986741
 20
62.29900770316056
 30
0.0
 11
235.6921518986741
 21
72.83836690316061
 31
0.0
  0
LINE
  5
A98
330
1A
100
AcDbEntity
  8
SEIHIN
100
AcDbLine
 10
221.3114658986742
 20
66.49900770316062
 30
0.0
 11
231.6861018986742
 21
74.98734570316061
 31
0.0
  0
ARC
  5
A99
330
1A
100
AcDbEntity
  8
SEIHIN
100
AcDbCircle
 10
235.7322798986741
 20
65.29900770316057
 30
0.0
 40
3.0
100
AcDbArc
 50
270.0
 51
0.0
  0
ARC
  5
A9A
330
1A
100
AcDbEntity
  8
SEIHIN
100
AcDbCircle
 10
235.7322798986741
 20
65.29900770316057
 30
0.0
 40
6.0
100
AcDbArc
 50
270.0
 51
0.0
  0
LINE
  5
A9B
330
1A
100
AcDbEntity
  8
SEIHIN
100
AcDbLine
 10
235.7322798986741
 20
62.29900770316056
 30
0.0
 11
222.8107119986741
 21
62.29900770316056
 31
0.0
  0
LINE
  5
AA2
330
1A
100
AcDbEntity
  8
SEIHIN
100
AcDbLine
 10
262.7724361022501
 20
61.01209138419979
 30
0.0
 11
268.2165434210783
 21
63.21165319709331
 31
0.0
  0
LINE
  5
AA6
330
1A
100
AcDbEntity
  8
SEIHIN
100
AcDbLine
 10
254.4421060105645
 20
80.29564915213908
 30
0.0
 11
257.064352140695
 21
73.80536217526665
 31
0.0
  0
LINE
  5
AA9
330
1A
100
AcDbEntity
  8
SEIHIN
100
AcDbLine
 10
257.064352140695
 20
73.80536217526665
 30
0.0
 11
257.5279440493648
 21
73.99266542158276
 31
0.0
  0
LINE
  5
ABB
330
1A
100
AcDbEntity
  8
SEIHIN
100
AcDbLine
 10
254.9056980269321
 20
80.48295249011314
 30
0.0
 11
254.4421060105645
 21
80.29564915213908
 31
0.0
  0
LINE
  5
AC3
330
1A
100
AcDbEntity
  8
SEIHIN
100
AcDbLine
 10
253.2689506307143
 20
96.54664724843815
 30
0.0
 11
253.8335333433402
 21
95.14925598774601
 31
0.0
  0
LINE
  5
AC4
330
1A
100
AcDbEntity
  8
SEIHIN
100
AcDbLine
 10
268.2165433453951
 20
63.21165338441571
 30
0.0
 11
255.1053129109534
 21
95.66308821174819
 31
0.0
  0
LINE
  5
AC5
330
1A
100
AcDbEntity
  8
SEIHIN
100
AcDbLine
 10
234.7857111986742
 20
123.5124672031605
 30
0.0
 11
227.6716201986741
 21
118.5311272031605
 31
0.0
  0
LINE
  5
AC6
330
1A
100
AcDbEntity
  8
SEIHIN
100
AcDbLine
 10
243.2322798986741
 20
103.2876827031605
 30
0.0
 11
243.2322798986741
 21
121.7103327031605
 31
0.0
  0
LINE
  5
AC7
330
1A
100
AcDbEntity
  8
SEIHIN
100
AcDbLine
 10
235.4740028986742
 20
122.5294847031605
 30
0.0
 11
228.3599118986742
 21
117.5481447031605
 31
0.0
  0
LINE
  5
AC8
330
1A
100
AcDbEntity
  8
SEIHIN
100
AcDbLine
 10
244.4322798986742
 20
103.2876827031605
 30
0.0
 11
244.4322798986742
 21
121.7103327031605
 31
0.0
  0
LINE
  5
AC9
330
1A
100
AcDbEntity
  8
SEIHIN
100
AcDbLine
 10
242.7322798986741
 20
102.4216577031605
 30
0.0
 11
235.7856876986742
 21
98.41104060316061
 31
0.0
  0
ARC
  5
ACA
330
1A
100
AcDbEntity
  8
SEIHIN
100
AcDbCircle
 10
242.2322798986741
 20
103.2876827031605
 30
0.0
 40
2.200000005055114
100
AcDbArc
 50
299.9999998479836
 51
0.0
  0
LINE
  5
ACB
330
1A
100
AcDbEntity
  8
SEIHIN
100
AcDbLine
 10
243.3322799986741
 20
101.3824272031606
 30
0.0
 11
236.3856877986742
 21
97.37181010316056
 31
0.0
  0
ARC
  5
ACC
330
1A
100
AcDbEntity
  8
SEIHIN
100
AcDbCircle
 10
237.8856877986742
 20
94.77373390316058
 30
0.0
 40
4.200000021369245
100
AcDbArc
 50
120.0000011534159
 51
174.2894084913981
  0
ARC
  5
ACD
330
1A
100
AcDbEntity
  8
SEIHIN
100
AcDbCircle
 10
237.8856877986742
 20
94.77373390316058
 30
0.0
 40
3.000000006856998
100
AcDbArc
 50
120.0000001084146
 51
174.2894080027292
  0
LINE
  5
ACF
330
1A
100
AcDbEntity
  8
SEIHIN
100
AcDbLine
 10
247.7058475633209
 20
97.29900770316056
 30
0.0
 11
244.7322798986741
 21
97.29900770316056
 31
0.0
  0
LINE
  5
AD0
330
1A
100
AcDbEntity
  8
SEIHIN
100
AcDbLine
 10
244.7322798986741
 20
100.2990077031605
 30
0.0
 11
247.7058474971652
 21
100.2990077031605
 31
0.0
  0
ARC
  5
AD1
330
1A
100
AcDbEntity
  8
SEIHIN
100
AcDbCircle
 10
241.0853849986741
 20
96.6210801031606
 30
0.0
 40
2.999999957105099
100
AcDbArc
 50
120.0000001084146
 51
174.2894078126911
  0
ARC
  5
AD2
330
1A
100
AcDbEntity
  8
SEIHIN
100
AcDbCircle
 10
244.7322798986741
 20
94.29900770316058
 30
0.0
 40
3.0
100
AcDbArc
 50
90.0
 51
180.0
  0
ARC
  5
AD3
330
1A
100
AcDbEntity
  8
SEIHIN
100
AcDbCircle
 10
244.7322798986741
 20
94.29900770316058
 30
0.0
 40
6.0
100
AcDbArc
 50
90.0
 51
180.0
  0
LINE
  5
AD4
330
1A
100
AcDbEntity
  8
SEIHIN
100
AcDbLine
 10
251.0519817163951
 20
94.02543634553204
 30
0.0
 11
250.4873991810019
 21
95.42282734980151
 31
0.0
  0
LINE
  5
AD8
330
1A
100
AcDbEntity
  8
SEIHIN
100
AcDbLine
 10
227.6716201986741
 20
118.5311272031605
 30
0.0
 11
228.3599118986742
 21
117.5481447031605
 31
0.0
  0
ARC
  5
AD9
330
1A
100
AcDbEntity
  8
SEIHIN
100
AcDbCircle
 10
242.2322798986741
 20
103.2876827031605
 30
0.0
 40
0.9999999983612706
100
AcDbArc
 50
300.0000001084146
 51
0.0
  0
LINE
  5
ADA
330
1A
100
AcDbEntity
  8
SEIHIN
100
AcDbLine
 10
243.2322798986741
 20
111.8999387031605
 30
0.0
 11
243.2322798986741
 21
111.8999387031605
 31
0.0
  0
LINE
  5
ADB
330
1A
100
AcDbEntity
  8
SEIHIN
100
AcDbLine
 10
236.0475788986742
 20
122.7103327031605
 30
0.0
 11
242.2322798986741
 21
122.7103327031605
 31
0.0
  0
LINE
  5
ADC
330
1A
100
AcDbEntity
  8
SEIHIN
100
AcDbLine
 10
236.0475788986742
 20
123.9103327031605
 30
0.0
 11
242.2322798986741
 21
123.9103327031605
 31
0.0
  0
LINE
  5
ADD
330
1A
100
AcDbEntity
  8
SEIHIN
100
AcDbLine
 10
231.6051562986741
 20
121.2854187031605
 30
0.0
 11
232.2934478986742
 21
120.3024357031605
 31
0.0
  0
ARC
  5
ADE
330
1A
100
AcDbEntity
  8
SEIHIN
100
AcDbCircle
 10
236.0475788986742
 20
121.7103327031605
 30
0.0
 40
2.199999983850877
100
AcDbArc
 50
90.0
 51
124.9999986822715
  0
ARC
  5
ADF
330
1A
100
AcDbEntity
  8
SEIHIN
100
AcDbCircle
 10
236.0475788986742
 20
121.7103327031605
 30
0.0
 40
0.9999999714352551
100
AcDbArc
 50
90.0
 51
124.9999997494021
  0
ARC
  5
AE0
330
1A
100
AcDbEntity
  8
SEIHIN
100
AcDbCircle
 10
242.2322798986741
 20
121.7103327031605
 30
0.0
 40
2.200000000000017
100
AcDbArc
 50
0.0
 51
90.0
  0
ARC
  5
AE1
330
1A
100
AcDbEntity
  8
SEIHIN
100
AcDbCircle
 10
242.2322798986741
 20
121.7103327031605
 30
0.0
 40
1.0
100
AcDbArc
 50
0.0
 51
90.0
  0
LINE
  5
B98
330
1A
100
AcDbEntity
  8
SUNPOU
100
AcDbLine
 10
273.8723377332364
 20
39.21307072723877
 30
0.0
 11
273.8723377332365
 21
49.21307072723877
 31
0.0
  0
TEXT
  5
B9A
330
1A
100
AcDbEntity
  8
SUNPOU
100
AcDbText
 10
269.0112054608856
 20
42.99190339520619
 30
-23.49201566
 40
3.0
  1
10
100
AcDbText
  0
TEXT
  5
B9B
330
1A
100
AcDbEntity
  8
SUNPOU
100
AcDbText
 10
275.2068309302947
 20
35.50036198779406
 30
-23.49201566
 40
3.0
  1
4
100
AcDbText
  0
LINE
  5
B9C
330
1A
100
AcDbEntity
  8
CENTER_L
100
AcDbLine
 10
183.7322798986741
 20
51.79900770316056
 30
0.0
 11
183.7322798986741
 21
73.49900770316061
 31
0.0
  0
LINE
  5
C9D
330
1A
100
AcDbEntity
  8
SEIHIN
100
AcDbLine
 10
249.6612058822279
 20
93.46352651606384
 30
0.0
 11
262.7724361022501
 21
61.01209138419979
 31
0.0
  0
LINE
  5
FEA
330
1A
100
AcDbEntity
  8
CENTER_L
100
AcDbLine
 10
278.1426433986741
 20
218.8671053977314
 30
0.0
 11
114.0322798986742
 21
218.8671053977314
 31
0.0
  0
LINE
  5
FEB
330
1A
100
AcDbEntity
  8
SEIHIN
100
AcDbLine
 10
244.4322798986741
 20
229.8671053977314
 30
0.0
 11
121.0322798986742
 21
229.8671053977314
 31
0.0
  0
LINE
  5
FEC
330
1A
100
AcDbEntity
  8
SEIHIN
100
AcDbLine
 10
244.4322798986741
 20
207.8671053977314
 30
0.0
 11
121.0322798986742
 21
207.8671053977314
 31
0.0
  0
LINE
  5
FED
330
1A
100
AcDbEntity
  8
SEIHIN
100
AcDbLine
 10
121.0322798986742
 20
229.8671053977314
 30
0.0
 11
121.0322798986742
 21
207.8671053977314
 31
0.0
  0
LINE
  5
FEE
330
1A
100
AcDbEntity
  8
SEIHIN
100
AcDbLine
 10
122.2322798986741
 20
229.8671053977314
 30
0.0
 11
122.2322798986741
 21
207.8671053977314
 31
0.0
  0
LINE
  5
FF0
330
1A
100
AcDbEntity
  8
SEIHIN
100
AcDbLine
 10
228.7422840631657
 20
212.8671053977314
 30
0.0
 11
129.895256077304
 21
212.8671053977314
 31
0.0
  0
LINE
  5
FF1
330
1A
100
AcDbEntity
  8
SEIHIN
100
AcDbLine
 10
122.2322798986741
 20
224.8671053977314
 30
0.0
 11
121.0322798986742
 21
224.8671053977314
 31
0.0
  0
LINE
  5
FF2
330
1A
100
AcDbEntity
  8
SEIHIN
100
AcDbLine
 10
122.2322798986741
 20
212.8671053977314
 30
0.0
 11
121.0322798986742
 21
212.8671053977314
 31
0.0
  0
LINE
  5
FF3
330
1A
100
AcDbEntity
  8
SEIHIN
100
AcDbLine
 10
126.895256077304
 20
215.8671053977314
 30
0.0
 11
126.895256077304
 21
221.8671053977314
 31
0.0
  0
LINE
  5
FF5
330
1A
100
AcDbEntity
  8
SEIHIN
100
AcDbLine
 10
244.4322798986741
 20
207.8671053977314
 30
0.0
 11
244.4322798986741
 21
229.8671053977314
 31
0.0
  0
LINE
  5
FF6
330
1A
100
AcDbEntity
  8
SEIHIN
100
AcDbLine
 10
234.7857107894114
 20
207.8671053977314
 30
0.0
 11
234.7857107894114
 21
229.8671053977314
 31
0.0
  0
ARC
  5
FF8
330
1A
100
AcDbEntity
  8
SEIHIN
100
AcDbCircle
 10
245.018951299818
 20
218.8671053977314
 30
0.0
 40
17.34733110114381
100
AcDbArc
 50
140.6464899728084
 51
219.3535100271917
  0
LINE
  5
FF9
330
1A
100
AcDbEntity
  8
SEIHIN
100
AcDbLine
 10
129.8928214894515
 20
207.8671053977314
 30
0.0
 11
129.8928214894515
 21
212.8671053977314
 31
0.0
  0
LINE
  5
FFA
330
1A
100
AcDbEntity
  8
SEIHIN
100
AcDbLine
 10
129.8928214894515
 20
224.8671053977314
 30
0.0
 11
129.8928214894515
 21
229.8671053977314
 31
0.0
  0
ARC
  5
FFB
330
1A
100
AcDbEntity
  8
SEIHIN
100
AcDbCircle
 10
129.895256077304
 20
221.8671053977314
 30
0.0
 40
3.0
100
AcDbArc
 50
90.0
 51
180.0
  0
ARC
  5
FFC
330
1A
100
AcDbEntity
  8
SEIHIN
100
AcDbCircle
 10
129.895256077304
 20
215.8671053977314
 30
0.0
 40
3.0
100
AcDbArc
 50
180.0
 51
270.0
  0
LINE
  5
1178
330
1A
100
AcDbEntity
  8
SUNPOU
100
AcDbLine
 10
273.8723377332365
 20
39.21307072723877
 30
0.0
 11
277.9125998985934
 21
39.21307072723877
 31
0.0
  0
LINE
  5
119A
330
1A
100
AcDbEntity
  8
SEIHIN
100
AcDbLine
 10
369.5521473693101
 20
107.3894951317062
 30
0.0
 11
358.6885561602487
 21
134.277826914143
 31
0.0
  0
LINE
  5
119D
330
1A
100
AcDbEntity
  8
SEIHIN
100
AcDbLine
 10
321.5352228575182
 20
84.7537941169625
 30
0.0
 11
344.7148192216878
 21
94.11895895236042
 31
0.0
  0
LINE
  5
119E
330
1A
100
AcDbEntity
  8
SEIHIN
100
AcDbLine
 10
306.7662603045086
 20
113.2998576828519
 30
0.0
 11
317.62985151357
 21
86.41152590041512
 31
0.0
  0
CIRCLE
  5
11A8
330
1A
100
AcDbEntity
  8
SEIHIN
100
AcDbCircle
 10
321.6945282673072
 20
92.3679008791778
 30
0.0
 40
2.050000000000068
  0
CIRCLE
  5
11A9
330
1A
100
AcDbEntity
  8
SEIHIN
100
AcDbCircle
 10
317.7611590364401
 20
102.103331352129
 30
0.0
 40
3.25
  0
LINE
  5
11C1
330
1A
100
AcDbEntity
  8
SEIHIN
100
AcDbLine
 10
308.4239920879612
 20
117.2052290268
 30
0.0
 11
325.5768933974468
 21
124.1354510049944
 31
0.0
  0
CIRCLE
  5
11C8
330
1A
100
AcDbEntity
  8
SEIHIN
100
AcDbCircle
 10
313.8277898055729
 20
111.8387618250803
 30
0.0
 40
2.050000000000068
  0
LINE
  5
11CC
330
1A
100
AcDbEntity
  8
SEIHIN
100
AcDbLine
 10
344.7148192216877
 20
94.11895895236035
 30
0.0
 11
367.8944155858575
 21
103.4841237877581
 31
0.0
  0
CIRCLE
  5
11D1
330
1A
100
AcDbEntity
  8
SEIHIN
100
AcDbCircle
 10
362.4906178682458
 20
108.8505909894779
 30
0.0
 40
2.050000000000068
  0
CIRCLE
  5
11D3
330
1A
100
AcDbEntity
  8
SEIHIN
100
AcDbCircle
 10
358.5572486373787
 20
118.5860214624291
 30
0.0
 40
3.25
  0
LINE
  5
11D6
330
1A
100
AcDbEntity
  8
SEIHIN
100
AcDbLine
 10
337.6302835068149
 20
129.0053367194013
 30
0.0
 11
354.7831848163006
 21
135.9355586975957
 31
0.0
  0
CIRCLE
  5
11E3
330
1A
100
AcDbEntity
  8
SEIHIN
100
AcDbCircle
 10
354.6238794065116
 20
128.3214519353804
 30
0.0
 40
2.050000000000068
  0
LINE
  5
11EE
330
1A
100
AcDbEntity
  8
CENTER_L
100
AcDbLine
 10
347.8989752657231
 20
86.23789618854265
 30
0.0
 11
328.4742745156159
 21
134.3157176466784
 31
0.0
  0
ARC
  5
11F2
330
1A
100
AcDbEntity
  8
SEIHIN
100
AcDbCircle
 10
309.5478118682089
 20
114.4236774630996
 30
0.0
 40
3.0
100
AcDbArc
 50
112.0
 51
202.0000000000001
  0
ARC
  5
11F3
330
1A
100
AcDbEntity
  8
SEIHIN
100
AcDbCircle
 10
320.4114030772704
 20
87.53534568066285
 30
0.0
 40
3.0
100
AcDbArc
 50
202.0
 51
292.0000000000003
  0
ARC
  5
11F4
330
1A
100
AcDbEntity
  8
SEIHIN
100
AcDbCircle
 10
355.9070045965483
 20
133.1540071338953
 30
0.0
 40
3.0
100
AcDbArc
 50
22.00000000000001
 51
112.0
  0
ARC
  5
11F5
330
1A
100
AcDbEntity
  8
SEIHIN
100
AcDbCircle
 10
366.7705958056097
 20
106.2656753514585
 30
0.0
 40
3.0
100
AcDbArc
 50
292.0000000000001
 51
21.99999999999993
  0
LINE
  5
11F6
330
1A
100
AcDbEntity
  8
SEIHIN
100
AcDbLine
 10
228.7422840631656
 20
224.8671053977314
 30
0.0
 11
129.895256077304
 21
224.8671053977314
 31
0.0
  0
LINE
  5
11F7
330
1A
100
AcDbEntity
  8
CENTER_L
100
AcDbLine
 10
320.4770568387055
 20
95.38124840651986
 30
0.0
 11
315.0452612341748
 21
108.8254142977382
 31
0.0
  0
LINE
  5
11F8
330
1A
100
AcDbEntity
  8
CENTER_L
100
AcDbLine
 10
324.4832419820493
 20
104.8192291543944
 30
0.0
 11
311.0390760908309
 21
99.38743354986369
 31
0.0
  0
LINE
  5
11FB
330
1A
100
AcDbEntity
  8
CENTER_L
100
AcDbLine
 10
319.4372521257021
 20
114.1051317152465
 30
0.0
 11
308.2183274854438
 21
109.5723919349139
 31
0.0
  0
LINE
  5
11FC
330
1A
100
AcDbEntity
  8
CENTER_L
100
AcDbLine
 10
316.0941596957393
 20
106.2292995049511
 30
0.0
 11
311.5614199154066
 21
117.4482241452094
 31
0.0
  0
LINE
  5
11FD
330
1A
100
AcDbEntity
  8
CENTER_L
100
AcDbLine
 10
327.3039905874363
 20
94.63427076934408
 30
0.0
 11
316.0850659471781
 21
90.10153098901147
 31
0.0
  0
LINE
  5
11FE
330
1A
100
AcDbEntity
  8
CENTER_L
100
AcDbLine
 10
323.9608981574736
 20
86.7584385590487
 30
0.0
 11
319.4281583771409
 21
97.97736319930692
 31
0.0
  0
LINE
  5
11FF
330
1A
100
AcDbEntity
  8
CENTER_L
100
AcDbLine
 10
360.2333417266406
 20
130.5878218255467
 30
0.0
 11
349.0144170863824
 21
126.0550820452141
 31
0.0
  0
LINE
  5
1200
330
1A
100
AcDbEntity
  8
CENTER_L
100
AcDbLine
 10
356.8902492966779
 20
122.7119896152513
 30
0.0
 11
352.3575095163451
 21
133.9309142555095
 31
0.0
  0
LINE
  5
1201
330
1A
100
AcDbEntity
  8
CENTER_L
100
AcDbLine
 10
365.2793315829878
 20
121.3019192646945
 30
0.0
 11
351.8351656917694
 21
115.8701236601638
 31
0.0
  0
LINE
  5
1202
330
1A
100
AcDbEntity
  8
CENTER_L
100
AcDbLine
 10
361.273146439644
 20
111.8639385168199
 30
0.0
 11
355.8413508351132
 21
125.3081044080383
 31
0.0
  0
LINE
  5
1203
330
1A
100
AcDbEntity
  8
CENTER_L
100
AcDbLine
 10
364.7569877584121
 20
103.2411286693488
 30
0.0
 11
360.2242479780794
 21
114.4600533096071
 31
0.0
  0
LINE
  5
1204
330
1A
100
AcDbEntity
  8
CENTER_L
100
AcDbLine
 10
368.1000801883748
 20
111.1169608796442
 30
0.0
 11
356.8811555481165
 21
106.5842210993116
 31
0.0
  0
LINE
  5
1209
330
1A
100
AcDbEntity
  8
SEIHIN
100
AcDbLine
 10
350.7415142763719
 20
96.55390180956381
 30
0.0
 11
336.0587004613011
 21
132.8951412544047
 31
0.0
  0
LINE
  5
120A
330
1A
100
AcDbEntity
  8
SEIHIN
100
AcDbLine
 10
338.6881241670037
 20
91.68401609515695
 30
0.0
 11
322.4475794609317
 21
131.880774789475
 31
0.0
  0
LINE
  5
120B
330
1A
100
AcDbEntity
  8
SEIHIN
100
AcDbLine
 10
351.2051062036553
 20
96.74120510627176
 30
0.0
 11
338.0938754340984
 21
129.1926400161093
 31
0.0
  0
LINE
  5
120C
330
1A
100
AcDbEntity
  8
SEIHIN
100
AcDbLine
 10
338.2245322397203
 20
91.496712798449
 30
0.0
 11
325.1133014701634
 21
123.9481477082864
 31
0.0
  0
LINE
  5
120F
330
1A
100
AcDbEntity
  8
CENTER_L
100
AcDbLine
 10
271.2037591386053
 20
71.96831010584472
 30
0.0
 11
259.9848344983472
 21
67.43557032551212
 31
0.0
  0
LINE
  5
1210
330
1A
100
AcDbEntity
  8
CENTER_L
100
AcDbLine
 10
268.3830105332183
 20
82.15326849089505
 30
0.0
 11
254.938844642
 21
76.72147288636432
 31
0.0
  0
LINE
  5
1211
330
1A
100
AcDbEntity
  8
CENTER_L
100
AcDbLine
 10
263.3370206768712
 20
91.43917105174722
 30
0.0
 11
252.1180960366129
 21
86.90643127141461
 31
0.0
  0
LINE
  5
1212
330
1A
100
AcDbEntity
  8
SEIHIN
100
AcDbLine
 10
266.8257675590528
 20
62.64974350541037
 30
0.0
 11
253.7145371006942
 21
95.10117839193945
 31
0.0
  0
LINE
  5
1213
330
1A
100
AcDbEntity
  8
SEIHIN
 62
     2
100
AcDbLine
 10
313.7997382826241
 20
128.3868201565814
 30
0.0
 11
330.9526395921096
 21
135.3170421347759
 31
0.0
  0
LINE
  5
1214
330
1A
100
AcDbEntity
  8
SEIHIN
 62
     2
100
AcDbLine
 10
328.2909406362203
 20
129.7567625690833
 30
0.0
 11
345.443841945706
 21
136.6869845472777
 31
0.0
  0
LINE
  5
1215
330
1A
100
AcDbEntity
  8
CENTER_L
 62
     2
100
AcDbLine
 10
330.9526395921096
 20
135.3170421347759
 30
0.0
 11
328.2909406362203
 21
129.7567625690833
 31
0.0
  0
CIRCLE
  5
1218
330
1A
100
AcDbEntity
  8
SEIHIN
100
AcDbCircle
 10
183.7322798986741
 20
218.8671053977314
 30
0.0
 40
3.5
  0
DIMENSION
  5
1220
330
1A
100
AcDbEntity
  8
SUNPOU
100
AcDbDimension
  2
*D1
 10
345.2078908738225
 20
151.6268413645573
 30
0.0
 11
323.8733295898136
 21
145.7034559458243
 31
0.0
 70
    33
  3
STANDARD
100
AcDbAlignedDimension
 13
311.5614199154066
 23
117.4482241452094
 33
0.0
 14
352.3575095163451
 24
133.9309142555095
 34
0.0
1001
ACAD
1000
DSTYLE
1002
{
1070
    41
1040
3.0
1070
    42
1040
3.0
1070
    43
1040
7.0
1070
    44
1040
1.5
1070
    73
1070
     0
1070
    74
1070
     0
1070
    77
1070
     3
1070
   140
1040
3.0
1070
   141
1040
3.0
1070
   147
1040
1.0
1070
   172
1070
     1
1070
   173
1070
     1
1070
   176
1070
   256
1070
   177
1070
   256
1070
   178
1070
   256
1070
   271
1070
     0
1070
   272
1070
     0
1070
   341
1005
B2
1070
     6
1000
OPEN
1070
     7
1000
OPEN
1002
}
  0
DIMENSION
  5
122D
330
1A
100
AcDbEntity
  8
SUNPOU
100
AcDbDimension
  2
*D2
 10
347.9356289406417
 20
160.8922557111343
 30
0.0
 11
321.0379645292319
 21
152.7212307319057
 31
0.0
 70
    33
  3
STANDARD
100
AcDbAlignedDimension
 13
306.7662603045086
 23
113.2998576828519
 33
0.0
 14
358.6885561602486
 24
134.277826914143
 34
0.0
1001
ACAD
1000
DSTYLE
1002
{
1070
    41
1040
3.0
1070
    42
1040
3.0
1070
    43
1040
7.0
1070
    44
1040
1.5
1070
    73
1070
     0
1070
    74
1070
     0
1070
    77
1070
     3
1070
   140
1040
3.0
1070
   141
1040
3.0
1070
   147
1040
1.0
1070
   172
1070
     1
1070
   173
1070
     1
1070
   176
1070
   256
1070
   177
1070
   256
1070
   178
1070
   256
1070
   271
1070
     0
1070
   272
1070
     0
1070
   341
1005
B2
1070
     6
1000
OPEN
1070
     7
1000
OPEN
1002
}
  0
DIMENSION
  5
123A
330
1A
100
AcDbEntity
  8
SUNPOU
100
AcDbDimension
  2
*D3
 10
375.0735682730605
 20
125.259047749521
 30
0.0
 11
374.1137202170881
 21
134.3084229605201
 31
0.0
 70
    33
  3
STANDARD
100
AcDbAlignedDimension
 13
352.0016332526
 23
134.8117389173479
 33
0.0
 14
358.5572486373787
 24
118.5860214624292
 34
0.0
1001
ACAD
1000
DSTYLE
1002
{
1070
    41
1040
3.0
1070
    42
1040
3.0
1070
    43
1040
7.0
1070
    44
1040
1.5
1070
    73
1070
     0
1070
    74
1070
     0
1070
    77
1070
     3
1070
   140
1040
3.0
1070
   141
1040
3.0
1070
   147
1040
1.0
1070
   172
1070
     1
1070
   173
1070
     1
1070
   176
1070
   256
1070
   177
1070
   256
1070
   178
1070
   256
1070
   271
1070
     0
1070
   272
1070
     0
1070
   341
1005
B2
1070
     6
1000
OPEN
1070
     7
1000
OPEN
1002
}
  0
DIMENSION
  5
1247
330
1A
100
AcDbEntity
  8
SUNPOU
100
AcDbDimension
  2
*D4
 10
299.2939064654722
 20
105.9666917924507
 30
0.0
 11
300.3007430249334
 21
110.1483517669742
 31
0.0
 70
    33
  3
STANDARD
100
AcDbAlignedDimension
 13
311.2055436516616
 23
118.3290488070477
 33
0.0
 14
313.827789805573
 24
111.8387618250802
 34
0.0
1001
ACAD
1000
DSTYLE
1002
{
1070
    41
1040
3.0
1070
    42
1040
3.0
1070
    43
1040
7.0
1070
    44
1040
1.5
1070
    73
1070
     0
1070
    74
1070
     0
1070
    77
1070
     3
1070
   140
1040
3.0
1070
   141
1040
3.0
1070
   147
1040
1.0
1070
   172
1070
     1
1070
   173
1070
     1
1070
   176
1070
   256
1070
   177
1070
   256
1070
   178
1070
   256
1070
   271
1070
     0
1070
   272
1070
     0
1070
   341
1005
B2
1070
     6
1000
OPEN
1070
     7
1000
OPEN
1002
}
  0
DIMENSION
  5
1256
330
1A
100
AcDbEntity
  8
SUNPOU
100
AcDbDimension
  2
*D5
 10
309.7828910811182
 20
80.00554386458096
 30
0.0
 11
310.7897276405795
 21
84.18720383910452
 31
0.0
 70
    33
  3
STANDARD
100
AcDbAlignedDimension
 13
321.6945282673073
 23
92.3679008791778
 33
0.0
 14
324.3167744212187
 24
85.87761389721032
 34
0.0
1001
ACAD
1000
DSTYLE
1002
{
1070
    41
1040
3.0
1070
    42
1040
3.0
1070
    43
1040
7.0
1070
    44
1040
1.5
1070
    73
1070
     0
1070
    74
1070
     0
1070
    77
1070
     3
1070
   140
1040
3.0
1070
   141
1040
3.0
1070
   147
1040
1.0
1070
   172
1070
     1
1070
   173
1070
     1
1070
   176
1070
   256
1070
   177
1070
   256
1070
   178
1070
   256
1070
   271
1070
     0
1070
   272
1070
     0
1070
   341
1005
B2
1070
     6
1000
OPEN
1070
     7
1000
OPEN
1002
}
  0
DIMENSION
  5
1265
330
1A
100
AcDbEntity
  8
SUNPOU
100
AcDbDimension
  2
*D6
 10
301.7219457110316
 20
76.74871053004152
 30
0.0
 11
297.4842899626701
 21
93.91094446850011
 31
0.0
 70
    33
  3
STANDARD
100
AcDbAlignedDimension
 13
308.4239920879612
 23
117.2052290268
 33
0.0
 14
321.5352228575182
 24
84.75379411696247
 34
0.0
1001
ACAD
1000
DSTYLE
1002
{
1070
    41
1040
3.0
1070
    42
1040
3.0
1070
    43
1040
7.0
1070
    44
1040
1.5
1070
    73
1070
     0
1070
    74
1070
     0
1070
    77
1070
     3
1070
   140
1040
3.0
1070
   141
1040
3.0
1070
   147
1040
1.0
1070
   172
1070
     1
1070
   173
1070
     1
1070
   176
1070
   256
1070
   177
1070
   256
1070
   178
1070
   256
1070
   271
1070
     0
1070
   272
1070
     0
1070
   341
1005
B2
1070
     6
1000
OPEN
1070
     7
1000
OPEN
1002
}
  0
LINE
  5
1273
330
1A
100
AcDbEntity
  8
SEIHIN
100
AcDbLine
 10
267.0927250174258
 20
190.8671053977314
 30
0.0
 11
254.8383554286635
 21
190.8671053977314
 31
0.0
  0
LINE
  5
128F
330
1A
100
AcDbEntity
  8
SEIHIN
100
AcDbLine
 10
266.9447638534652
 20
225.3671053977314
 30
0.0
 11
244.4322798986741
 21
225.3671053977314
 31
0.0
  0
LINE
  5
1290
330
1A
100
AcDbEntity
  8
SEIHIN
100
AcDbLine
 10
266.9447638534652
 20
212.3671053977314
 30
0.0
 11
244.4322798986741
 21
212.3671053977314
 31
0.0
  0
LINE
  5
1291
330
1A
100
AcDbEntity
  8
SEIHIN
100
AcDbLine
 10
267.7165433453951
 20
211.8671053977314
 30
0.0
 11
251.3519827836377
 21
211.8671053977314
 31
0.0
  0
LINE
  5
12A6
330
1A
100
AcDbEntity
  8
SEIHIN
100
AcDbLine
 10
266.9447638534652
 20
212.3671053977314
 30
0.0
 11
266.9447638534652
 21
225.3671053977314
 31
0.0
  0
LINE
  5
1395
330
1A
100
AcDbEntity
  8
CENTER_L
100
AcDbLine
 10
48.83209000068416
 20
159.4990077031606
 30
0.0
 11
48.83209000068416
 21
51.79900770316057
 31
0.0
  0
LINE
  5
13B2
330
1A
100
AcDbEntity
  8
SEIHIN
100
AcDbLine
 10
37.8320900006841
 20
118.5490077031605
 30
0.0
 11
37.83209000068416
 21
65.29900770316057
 31
0.0
  0
LINE
  5
13FF
330
1A
100
AcDbEntity
  8
SEIHIN
100
AcDbLine
 10
249.6612069733786
 20
93.46352695691725
 30
0.0
 11
255.1053129109533
 21
95.66308821174819
 31
0.0
  0
DIMENSION
  5
1444
330
1A
100
AcDbEntity
  8
SUNPOU
100
AcDbDimension
  2
*D7
 10
97.42019196128785
 20
207.8671053977314
 30
0.0
 11
94.92019196128781
 21
218.8671053977314
 31
0.0
 70
    32
  3
STANDARD
100
AcDbAlignedDimension
 13
121.0322798986742
 23
229.8671053977314
 33
0.0
 14
121.0322798986742
 24
207.8671053977314
 34
0.0
 50
90.0
100
AcDbRotatedDimension
1001
ACAD
1000
DSTYLE
1002
{
1070
    41
1040
3.0
1070
    42
1040
3.0
1070
    43
1040
7.0
1070
    44
1040
1.5
1070
    73
1070
     0
1070
    74
1070
     0
1070
    77
1070
     3
1070
   140
1040
3.0
1070
   141
1040
3.0
1070
   147
1040
1.0
1070
   172
1070
     1
1070
   173
1070
     1
1070
   176
1070
   256
1070
   177
1070
   256
1070
   178
1070
   256
1070
   271
1070
     0
1070
   272
1070
     0
1070
   341
1005
B2
1070
     6
1000
OPEN
1070
     7
1000
OPEN
1002
}
  0
DIMENSION
  5
1451
330
1A
100
AcDbEntity
  8
SUNPOU
100
AcDbDimension
  2
*D8
 10
290.2550512182865
 20
190.8671053977314
 30
0.0
 11
287.7550512182864
 21
218.8671053977314
 31
0.0
 70
    32
  3
STANDARD
100
AcDbAlignedDimension
 13
269.1277279517385
 23
246.8671053977314
 33
0.0
 14
269.1277279517385
 24
190.8671053977314
 34
0.0
 50
90.0
100
AcDbRotatedDimension
1001
ACAD
1000
DSTYLE
1002
{
1070
    41
1040
3.0
1070
    42
1040
3.0
1070
    43
1040
7.0
1070
    44
1040
1.5
1070
    73
1070
     0
1070
    74
1070
     0
1070
    77
1070
     3
1070
   140
1040
3.0
1070
   141
1040
3.0
1070
   147
1040
1.0
1070
   172
1070
     1
1070
   173
1070
     1
1070
   176
1070
   256
1070
   177
1070
   256
1070
   178
1070
   256
1070
   271
1070
     0
1070
   272
1070
     0
1070
   341
1005
B2
1070
     6
1000
OPEN
1070
     7
1000
OPEN
1002
}
  0
DIMENSION
  5
145E
330
1A
100
AcDbEntity
  8
SUNPOU
100
AcDbDimension
  2
*D9
 10
242.1676597593909
 20
140.4552428546353
 30
0.0
 11
248.6364863351721
 21
142.9552428546353
 31
0.0
 70
    32
  3
STANDARD
100
AcDbAlignedDimension
 13
255.1053129109533
 23
95.66308821174819
 33
0.0
 14
242.1676597593909
 24
119.6365076907112
 34
0.0
100
AcDbRotatedDimension
1001
ACAD
1000
DSTYLE
1002
{
1070
    41
1040
3.0
1070
    42
1040
3.0
1070
    43
1040
7.0
1070
    44
1040
1.5
1070
    73
1070
     0
1070
    74
1070
     0
1070
    77
1070
     3
1070
   140
1040
3.0
1070
   141
1040
3.0
1070
   147
1040
1.0
1070
   172
1070
     1
1070
   173
1070
     1
1070
   176
1070
   256
1070
   177
1070
   256
1070
   178
1070
   256
1070
   271
1070
     0
1070
   272
1070
     0
1070
   341
1005
B2
1070
     6
1000
OPEN
1070
     7
1000
OPEN
1002
}
  0
DIMENSION
  5
146B
330
1A
100
AcDbEntity
  8
SUNPOU
100
AcDbDimension
  2
*D10
 10
121.0322798986742
 20
169.3767625631976
 30
0.0
 11
188.0687964048138
 21
171.8767625631976
 31
0.0
 70
    32
  3
STANDARD
100
AcDbAlignedDimension
 13
255.1053129109533
 23
95.66308821174825
 33
0.0
 14
121.0322798986742
 24
152.4990077031606
 34
0.0
100
AcDbRotatedDimension
1001
ACAD
1000
DSTYLE
1002
{
1070
    41
1040
3.0
1070
    42
1040
3.0
1070
    43
1040
7.0
1070
    44
1040
1.5
1070
    73
1070
     0
1070
    74
1070
     0
1070
    77
1070
     3
1070
   140
1040
3.0
1070
   141
1040
3.0
1070
   147
1040
1.0
1070
   172
1070
     1
1070
   173
1070
     1
1070
   176
1070
   256
1070
   177
1070
   256
1070
   178
1070
   256
1070
   271
1070
     0
1070
   272
1070
     0
1070
   341
1005
B2
1070
     6
1000
OPEN
1070
     7
1000
OPEN
1002
}
  0
LEADER
  5
14BF
330
1A
100
AcDbEntity
  8
SUNPOU
100
AcDbLeader
  3
STANDARD
 73
     0
 40
2.999999999999999
 41
15.59999999999999
 76
     3
 10
311.9308556438891
 20
112.6160267646195
 30
0.0
 10
294.8093382791542
 20
128.9281237054163
 30
0.0
 10
293.0335734516318
 20
129.0758456782894
 30
0.0
340
14C0
211
0.9999999999999998
221
-0.0000000174532918
231
0.0
213
0.1202984125888974
223
1.495168315584767
233
0.0
1001
ACAD
1000
DSTYLE
1002
{
1070
     6
1000
OPEN
1070
    41
1040
3.0
1070
    42
1040
3.0
1070
    43
1040
7.0
1070
    44
1040
1.5
1070
    73
1070
     0
1070
    74
1070
     0
1070
    77
1070
     0
1070
   140
1040
3.0
1070
   141
1040
3.0
1070
   147
1040
1.0
1070
   172
1070
     1
1070
   173
1070
     1
1070
   176
1070
   256
1070
   177
1070
   256
1070
   178
1070
   256
1070
   271
1070
     0
1070
   272
1070
     0
1070
   341
1005
B2
1070
   343
1005
B2
1070
   344
1005
B2
1002
}
  0
MTEXT
  5
14C0
102
{ACAD_REACTORS
330
14BF
102
}
330
1A
100
AcDbEntity
  8
SUNPOU
100
AcDbMText
 10
291.9132750390429
 20
127.5806773801579
 30
0.0
 40
2.999999999999999
 41
0.0
 71
     9
 72
     5
  1
\A1;4-φ4.2
 11
0.9999999999999998
 21
-0.0000000174532918
 31
0.0
1001
ACAD
1000
MTEXTBEGIN
1070
    73
1070
     1
1070
    44
1040
1.0
1070
    74
1070
     0
1000
MTEXTEND
1000
MTEXTBEGIN
1070
    73
1070
     1
1070
    44
1040
1.0
1070
    74
1070
     0
1000
MTEXTEND
1000
MTEXTBEGIN
1070
    73
1070
     1
1070
    44
1040
1.0
1070
    74
1070
     0
1000
MTEXTEND
1000
MTEXTBEGIN
1070
    73
1070
     1
1070
    44
1040
1.0
1070
    74
1070
     0
1000
MTEXTEND
1000
MTEXTBEGIN
1070
    73
1070
     1
1070
    44
1040
1.0
1070
    74
1070
     0
1000
MTEXTEND
1000
MTEXTBEGIN
1070
    73
1070
     1
1070
    44
1040
1.0
1070
    74
1070
     0
1000
MTEXTEND
1000
MTEXTBEGIN
1070
    73
1070
     1
1070
    44
1040
1.0
1070
    74
1070
     0
1000
MTEXTEND
1000
MTEXTBEGIN
1070
    73
1070
     1
1070
    44
1040
1.0
1070
    74
1070
     0
1000
MTEXTEND
1000
MTEXTBEGIN
1070
    73
1070
     1
1070
    44
1040
1.0
1070
    74
1070
     0
1000
MTEXTEND
1000
MTEXTBEGIN
1070
    73
1070
     1
1070
    44
1040
1.0
1070
    74
1070
     0
1000
MTEXTEND
  0
LEADER
  5
14C1
330
1A
100
AcDbEntity
  8
SUNPOU
100
AcDbLeader
  3
STANDARD
 73
     0
 40
3.0
 41
15.59999999999999
 76
     3
 10
361.3243106650502
 20
116.8813608701064
 30
0.0
 10
371.3472172988535
 20
111.8922339506513
 30
0.0
 10
372.9771335130219
 20
111.7562466811436
 30
0.0
340
14C2
211
0.9999999999999998
221
-0.0000000174532918
231
0.0
213
-0.1202984125888974
223
-1.495168315584767
233
0.0
1001
ACAD
1000
DSTYLE
1002
{
1070
     6
1000
OPEN
1070
    41
1040
3.0
1070
    42
1040
3.0
1070
    43
1040
7.0
1070
    44
1040
1.5
1070
    73
1070
     0
1070
    74
1070
     0
1070
    77
1070
     0
1070
   140
1040
3.0
1070
   141
1040
3.0
1070
   147
1040
1.0
1070
   172
1070
     1
1070
   173
1070
     1
1070
   176
1070
   256
1070
   177
1070
   256
1070
   178
1070
   256
1070
   271
1070
     0
1070
   272
1070
     0
1070
   341
1005
B2
1070
   343
1005
B2
1070
   344
1005
B2
1002
}
  0
MTEXT
  5
14C2
102
{ACAD_REACTORS
330
14C1
102
}
330
1A
100
AcDbEntity
  8
SUNPOU
100
AcDbMText
 10
374.0974319256108
 20
113.2514149792751
 30
0.0
 40
2.999999999999999
 41
0.0
 71
     1
 72
     5
  1
\A1;2-φ6.6
 11
0.9999999999999998
 21
-0.0000000174532918
 31
0.0
1001
ACAD
1000
MTEXTBEGIN
1070
    73
1070
     1
1070
    44
1040
1.0
1070
    74
1070
     0
1000
MTEXTEND
1000
MTEXTBEGIN
1070
    73
1070
     1
1070
    44
1040
1.0
1070
    74
1070
     0
1000
MTEXTEND
1000
MTEXTBEGIN
1070
    73
1070
     1
1070
    44
1040
1.0
1070
    74
1070
     0
1000
MTEXTEND
1000
MTEXTBEGIN
1070
    73
1070
     1
1070
    44
1040
1.0
1070
    74
1070
     0
1000
MTEXTEND
1000
MTEXTBEGIN
1070
    73
1070
     1
1070
    44
1040
1.0
1070
    74
1070
     0
1000
MTEXTEND
1000
MTEXTBEGIN
1070
    73
1070
     1
1070
    44
1040
1.0
1070
    74
1070
     0
1000
MTEXTEND
1000
MTEXTBEGIN
1070
    73
1070
     1
1070
    44
1040
1.0
1070
    74
1070
     0
1000
MTEXTEND
1000
MTEXTBEGIN
1070
    73
1070
     1
1070
    44
1040
1.0
1070
    74
1070
     0
1000
MTEXTEND
1000
MTEXTBEGIN
1070
    73
1070
     1
1070
    44
1040
1.0
1070
    74
1070
     0
1000
MTEXTEND
1000
MTEXTBEGIN
1070
    73
1070
     1
1070
    44
1040
1.0
1070
    74
1070
     0
1000
MTEXTEND
  0
LINE
  5
1566
330
1A
100
AcDbEntity
  8
SEIHIN
100
AcDbLine
 10
334.8530728989771
 20
99.84136748955009
 30
0.0
 11
333.7479183766753
 21
97.23778659358469
 31
0.0
  0
LINE
  5
1567
330
1A
100
AcDbEntity
  8
SEIHIN
100
AcDbLine
 10
333.7479183766753
 20
97.23778659358469
 30
0.0
 11
336.3514992726408
 21
96.13263207128296
 31
0.0
  0
LINE
  5
1568
330
1A
100
AcDbEntity
  8
SEIHIN
100
AcDbLine
 10
333.7479183766753
 20
97.23778659358467
 30
0.0
 11
335.6022860858089
 21
97.98699978041652
 31
0.0
  0
LINE
  5
1569
330
1A
100
AcDbEntity
  8
SEIHIN
100
AcDbLine
 10
325.8811799149412
 20
116.7086475394872
 30
0.0
 11
327.7355476240748
 21
117.457860726319
 31
0.0
  0
LINE
  5
156A
330
1A
100
AcDbEntity
  8
SEIHIN
100
AcDbLine
 10
326.9863344372429
 20
119.3122284354526
 30
0.0
 11
325.8811799149412
 21
116.7086475394872
 31
0.0
  0
LINE
  5
156B
330
1A
100
AcDbEntity
  8
SEIHIN
100
AcDbLine
 10
325.8811799149412
 20
116.7086475394872
 30
0.0
 11
328.4847608109066
 21
115.6034930171854
 31
0.0
  0
LINE
  5
156C
330
1A
100
AcDbEntity
  8
SEIHIN
100
AcDbLine
 10
342.5704892971426
 20
123.4515662209735
 30
0.0
 11
341.4653347748409
 21
120.8479853250081
 31
0.0
  0
LINE
  5
156D
330
1A
100
AcDbEntity
  8
SEIHIN
100
AcDbLine
 10
339.9669084011772
 20
124.5567207432752
 30
0.0
 11
342.5704892971426
 21
123.4515662209735
 31
0.0
  0
LINE
  5
156E
330
1A
100
AcDbEntity
  8
SEIHIN
100
AcDbLine
 10
342.5704892971426
 20
123.4515662209735
 30
0.0
 11
340.7161215880091
 21
122.7023530341417
 31
0.0
  0
LINE
  5
156F
330
1A
100
AcDbEntity
  8
SEIHIN
100
AcDbLine
 10
350.4372277588771
 20
103.9807052750711
 30
0.0
 11
348.5828600497435
 21
103.2314920882392
 31
0.0
  0
LINE
  5
1570
330
1A
100
AcDbEntity
  8
SEIHIN
100
AcDbLine
 10
347.8336468629117
 20
105.0858597973728
 30
0.0
 11
350.4372277588771
 21
103.9807052750711
 31
0.0
  0
LINE
  5
1571
330
1A
100
AcDbEntity
  8
SEIHIN
100
AcDbLine
 10
350.4372277588771
 20
103.9807052750711
 30
0.0
 11
349.3320732365755
 21
101.3771243791057
 31
0.0
  0
LINE
  5
1575
330
1A
100
AcDbEntity
  8
SEIHIN
100
AcDbLine
 10
263.0797017035093
 20
71.92158206990754
 30
0.0
 11
261.4219698978197
 21
68.0162107169751
 31
0.0
  0
LINE
  5
1576
330
1A
100
AcDbEntity
  8
SEIHIN
100
AcDbLine
 10
261.4219698978197
 20
68.0162107169751
 30
0.0
 11
265.3273412195307
 21
66.35847892453814
 31
0.0
  0
LINE
  5
1577
330
1A
100
AcDbEntity
  8
SEIHIN
100
AcDbLine
 10
261.4219698978196
 20
68.01621071697508
 30
0.0
 11
264.20352146152
 21
69.14003049722284
 31
0.0
  0
LINE
  5
1578
330
1A
100
AcDbEntity
  8
SEIHIN
100
AcDbLine
 10
253.5552315917447
 20
87.48707172576803
 30
0.0
 11
256.3367831554451
 21
88.61089150601578
 31
0.0
  0
LINE
  5
1579
330
1A
100
AcDbEntity
  8
SEIHIN
100
AcDbLine
 10
253.5552315917448
 20
87.48707172576805
 30
0.0
 11
257.4606029134558
 21
85.82933993333108
 31
0.0
  0
LINE
  5
157A
330
1A
100
AcDbEntity
  8
SEIHIN
100
AcDbLine
 10
255.2129633974344
 20
91.39244307870049
 30
0.0
 11
253.5552315917448
 21
87.48707172576805
 31
0.0
  0
LINE
  5
1590
330
1A
100
AcDbEntity
  8
SEIHIN
100
AcDbLine
 10
59.83209000068416
 20
89.6742269882842
 30
0.0
 11
60.62449250068414
 21
88.61089150601577
 31
0.0
  0
LINE
  5
1591
330
1A
100
AcDbEntity
  8
SEIHIN
100
AcDbLine
 10
60.62449250068414
 20
88.61089150601577
 30
0.0
 11
59.83209000068416
 21
88.25716688968205
 31
0.0
  0
LINE
  5
1593
330
1A
100
AcDbEntity
  8
SEIHIN
100
AcDbLine
 10
60.62449250068414
 20
69.14003049722282
 30
0.0
 11
59.83209000068416
 21
68.7863058808891
 31
0.0
  0
LINE
  5
1594
330
1A
100
AcDbEntity
  8
SEIHIN
100
AcDbLine
 10
59.83209000068416
 20
70.20336597949118
 30
0.0
 11
60.62449250068414
 21
69.14003049722282
 31
0.0
  0
ARC
  5
1990
330
1A
100
AcDbEntity
  8
SEIHIN
100
AcDbCircle
 10
247.7058474971652
 20
94.29900770316058
 30
0.0
 40
6.0
100
AcDbArc
 50
21.99999984326721
 51
90.0
  0
ARC
  5
1991
330
1A
100
AcDbEntity
  8
SEIHIN
100
AcDbCircle
 10
247.7058475633209
 20
94.29900770316058
 30
0.0
 40
3.0
100
AcDbArc
 50
21.99999724790099
 51
90.0
  0
DIMENSION
  5
19A4
330
1A
100
AcDbEntity
  8
SUNPOU
100
AcDbDimension
  2
*D11
 10
283.3636424211768
 20
69.33147829759469
 30
0.0
 11
279.1259868100183
 21
86.49371226993102
 31
0.0
 70
    33
  3
STANDARD
100
AcDbAlignedDimension
 13
255.1053129109534
 23
95.66308821174819
 33
0.0
 14
268.2165434210783
 24
63.21165319709331
 34
0.0
1001
ACAD
1000
DSTYLE
1002
{
1070
    41
1040
3.0
1070
    42
1040
3.0
1070
    43
1040
7.0
1070
    44
1040
1.5
1070
    73
1070
     0
1070
    74
1070
     0
1070
    77
1070
     3
1070
   140
1040
3.0
1070
   141
1040
3.0
1070
   147
1040
1.0
1070
   172
1070
     1
1070
   173
1070
     1
1070
   176
1070
   256
1070
   177
1070
   256
1070
   178
1070
   256
1070
   271
1070
     0
1070
   272
1070
     0
1070
   341
1005
B2
1070
     6
1000
OPEN
1070
     7
1000
OPEN
1002
}
  0
LINE
  5
19B1
330
1A
100
AcDbEntity
  8
SUNPOU
100
AcDbLine
 10
277.9125998985934
 20
39.21307072723877
 30
0.0
 11
268.2165434210783
 21
63.21165319709331
 31
0.0
  0
DIMENSION
  5
19B3
330
1A
100
AcDbEntity
  8
SUNPOU
100
AcDbDimension
  2
*D12
 10
97.42019196128781
 20
63.21165338441575
 30
0.0
 11
94.92019196128779
 21
83.8553305437882
 31
0.0
 70
    32
  3
STANDARD
100
AcDbAlignedDimension
 13
123.2655588986741
 23
104.4990077031606
 33
0.0
 14
268.2165433453951
 24
63.21165338441571
 34
0.0
 50
90.0
100
AcDbRotatedDimension
1001
ACAD
1000
DSTYLE
1002
{
1070
    41
1040
3.0
1070
    42
1040
3.0
1070
    43
1040
7.0
1070
    44
1040
1.5
1070
    73
1070
     0
1070
    74
1070
     0
1070
    77
1070
     3
1070
   140
1040
3.0
1070
   141
1040
3.0
1070
   147
1040
1.0
1070
   172
1070
     1
1070
   173
1070
     1
1070
   176
1070
   256
1070
   177
1070
   256
1070
   178
1070
   256
1070
   271
1070
     0
1070
   272
1070
     0
1070
   341
1005
B2
1070
     6
1000
OPEN
1070
     7
1000
OPEN
1002
}
  0
LINE
  5
19C1
330
1A
100
AcDbEntity
  8
SEIHIN
100
AcDbLine
 10
253.7145371006942
 20
193.8671053977314
 30
0.0
 11
253.7145371006942
 21
209.8671053977314
 31
0.0
  0
LINE
  5
19C2
330
1A
100
AcDbEntity
  8
SEIHIN
100
AcDbLine
 10
268.2165433453951
 20
193.8671053977314
 30
0.0
 11
268.2165433453951
 21
211.3671053977314
 31
0.0
  0
ELLIPSE
  5
19C7
330
1A
100
AcDbEntity
  8
SEIHIN
100
AcDbEllipse
 10
267.0927250174258
 20
193.8671053977314
 30
0.0
 11
0.0
 21
-3.0
 31
0.0
210
0.0
220
0.0
230
1.0
 40
0.3746061093231106
 41
6.283185307179586
 42
7.853981633974482
  0
ELLIPSE
  5
19C8
330
1A
100
AcDbEntity
  8
SEIHIN
100
AcDbEllipse
 10
256.2291312389227
 20
193.8671053977314
 30
0.0
 11
0.0
 21
-3.0
 31
0.0
210
0.0
220
0.0
230
1.0
 40
0.3746061093231106
 41
4.712388980384689
 42
6.283185307179586
  0
ELLIPSE
  5
19C9
330
1A
100
AcDbEntity
  8
SEIHIN
100
AcDbEllipse
 10
254.8383554286635
 20
193.8671053977314
 30
0.0
 11
0.0
 21
-3.0
 31
0.0
210
0.0
220
0.0
230
1.0
 40
0.3746061093231106
 41
4.712388980384689
 42
6.283185307179586
  0
LINE
  5
19CC
330
1A
100
AcDbEntity
  8
SEIHIN
100
AcDbLine
 10
255.1053129109533
 20
193.8671053977314
 30
0.0
 11
255.1053129109533
 21
211.3671053977314
 31
0.0
  0
LINE
  5
19D0
330
1A
100
AcDbEntity
  8
CENTER_L
100
AcDbLine
 10
257.7275589372952
 20
200.8671053977314
 30
0.0
 11
257.7275589372952
 21
192.8671053977314
 31
0.0
  0
LINE
  5
19D2
330
1A
100
AcDbEntity
  8
CENTER_L
100
AcDbLine
 10
261.6609280903327
 20
200.8671053977314
 30
0.0
 11
261.6609280903327
 21
192.8671053977314
 31
0.0
  0
LINE
  5
19D3
330
1A
100
AcDbEntity
  8
CENTER_L
100
AcDbLine
 10
265.5942972433702
 20
200.8671053977314
 30
0.0
 11
265.5942972433702
 21
192.8671053977314
 31
0.0
  0
LINE
  5
19D4
330
1A
100
AcDbEntity
  8
CENTER_L
100
AcDbLine
 10
269.5942972433702
 20
196.8671053977314
 30
0.0
 11
253.7145371006942
 21
196.8671053977314
 31
0.0
  0
ELLIPSE
  5
19D9
330
1A
100
AcDbEntity
  8
SEIHIN
100
AcDbEllipse
 10
261.6609280903327
 20
196.8671053977314
 30
0.0
 11
0.0
 21
3.300000000000011
 31
0.0
210
0.0
220
0.0
230
1.0
 40
0.3689302952940133
 41
0.0
 42
6.283185307179586
  0
ELLIPSE
  5
19DA
330
1A
100
AcDbEntity
  8
SEIHIN
100
AcDbEllipse
 10
257.7275589372952
 20
196.8671053977314
 30
0.0
 11
0.0
 21
2.099999999999994
 31
0.0
210
0.0
220
0.0
230
1.0
 40
0.3656867006028408
 41
0.0
 42
6.283185307179586
  0
ELLIPSE
  5
19DB
330
1A
100
AcDbEntity
  8
SEIHIN
100
AcDbEllipse
 10
265.5942972433702
 20
196.8671053977314
 30
0.0
 11
0.0
 21
2.099999999999994
 31
0.0
210
0.0
220
0.0
230
1.0
 40
0.3656867006028408
 41
0.0
 42
6.283185307179586
  0
ELLIPSE
  5
19DC
330
1A
100
AcDbEntity
  8
SEIHIN
100
AcDbEllipse
 10
260.2701522800735
 20
196.8671053977314
 30
0.0
 11
0.0
 21
3.300000000000011
 31
0.0
210
0.0
220
0.0
230
1.0
 40
0.3689302952940133
 41
3.749528770011537
 42
5.675249190757841
  0
ELLIPSE
  5
19DD
330
1A
100
AcDbEntity
  8
SEIHIN
100
AcDbEllipse
 10
264.203521433111
 20
196.8671053977314
 30
0.0
 11
0.0
 21
2.099999999999994
 31
0.0
210
0.0
220
0.0
230
1.0
 40
0.3656867006028408
 41
4.274199385673399
 42
5.15057857509598
  0
ELLIPSE
  5
19DE
330
1A
100
AcDbEntity
  8
SEIHIN
100
AcDbEllipse
 10
256.336783127036
 20
196.8671053977314
 30
0.0
 11
0.0
 21
2.099999999999994
 31
0.0
210
0.0
220
0.0
230
1.0
 40
0.3656867006028408
 41
4.274199385673399
 42
5.15057857509598
  0
LINE
  5
19E1
330
1A
100
AcDbEntity
  8
SEIHIN
100
AcDbLine
 10
249.6612069733786
 20
210.8671053977314
 30
0.0
 11
249.6612069733786
 21
212.3671053977314
 31
0.0
  0
LINE
  5
19E2
330
1A
100
AcDbEntity
  8
SEIHIN
100
AcDbLine
 10
253.2145371006941
 20
210.3671053977314
 30
0.0
 11
250.1612069733786
 21
210.3671053977314
 31
0.0
  0
LINE
  5
19E3
330
1A
100
AcDbEntity
  8
SEIHIN
100
AcDbLine
 10
251.0519827836378
 20
212.1671053977314
 30
0.0
 11
251.0519827836378
 21
212.3671053977314
 31
0.0
  0
ARC
  5
19E4
330
1A
100
AcDbEntity
  8
SEIHIN
100
AcDbCircle
 10
251.3519827836377
 20
212.1671053977314
 30
0.0
 40
0.3
100
AcDbArc
 50
179.9999999999891
 51
270.0000000000108
  0
ARC
  5
19E5
330
1A
100
AcDbEntity
  8
SEIHIN
100
AcDbCircle
 10
250.1612069733785
 20
210.8671053977313
 30
0.0
 40
0.5
100
AcDbArc
 50
179.9999999999934
 51
270.0000000000065
  0
ARC
  5
19E6
330
1A
100
AcDbEntity
  8
SEIHIN
100
AcDbCircle
 10
253.2145371006942
 20
209.8671053977314
 30
0.0
 40
0.5
100
AcDbArc
 50
0.0
 51
90.00000000000651
  0
ARC
  5
19E7
330
1A
100
AcDbEntity
  8
SEIHIN
100
AcDbCircle
 10
254.6053129109533
 20
211.3671053977314
 30
0.0
 40
0.5
100
AcDbArc
 50
359.9999999999967
 51
90.0
  0
ARC
  5
19E9
330
1A
100
AcDbEntity
  8
SEIHIN
100
AcDbCircle
 10
267.7165433453951
 20
211.3671053977314
 30
0.0
 40
0.5
100
AcDbArc
 50
359.9999999999967
 51
90.0
  0
LINE
  5
19EA
330
1A
100
AcDbEntity
  8
SEIHIN
100
AcDbLine
 10
264.1632132180796
 20
212.1671053977314
 30
0.0
 11
264.1632132180796
 21
212.3671053977314
 31
0.0
  0
ARC
  5
19EB
330
1A
100
AcDbEntity
  8
SEIHIN
100
AcDbCircle
 10
264.4632132180796
 20
212.1671053977314
 30
0.0
 40
0.3
100
AcDbArc
 50
179.9999999999945
 51
270.0
  0
LINE
  5
19EE
330
1A
100
AcDbEntity
  8
CENTER_L
100
AcDbLine
 10
269.5942972433702
 20
240.8671053977314
 30
0.0
 11
253.7145371006942
 21
240.8671053977314
 31
0.0
  0
LINE
  5
19EF
330
1A
100
AcDbEntity
  8
SEIHIN
100
AcDbLine
 10
267.7165433453951
 20
225.8671053977314
 30
0.0
 11
251.3519827836377
 21
225.8671053977314
 31
0.0
  0
ELLIPSE
  5
19F0
330
1A
100
AcDbEntity
  8
SEIHIN
100
AcDbEllipse
 10
265.5942972433702
 20
240.8671053977314
 30
0.0
 11
0.0
 21
-2.099999999999994
 31
0.0
210
0.0
220
0.0
230
-1.0
 40
0.3656867006028408
 41
0.0
 42
6.283185307179586
  0
LINE
  5
19F1
330
1A
100
AcDbEntity
  8
SEIHIN
100
AcDbLine
 10
267.0927250174258
 20
246.8671053977314
 30
0.0
 11
254.8383554286635
 21
246.8671053977314
 31
0.0
  0
LINE
  5
19F2
330
1A
100
AcDbEntity
  8
SEIHIN
100
AcDbLine
 10
255.1053129109533
 20
243.8671053977314
 30
0.0
 11
255.1053129109533
 21
226.3671053977314
 31
0.0
  0
LINE
  5
19F3
330
1A
100
AcDbEntity
  8
SEIHIN
100
AcDbLine
 10
253.7145371006942
 20
243.8671053977314
 30
0.0
 11
253.7145371006942
 21
227.8671053977314
 31
0.0
  0
LINE
  5
19F4
330
1A
100
AcDbEntity
  8
CENTER_L
100
AcDbLine
 10
265.5942972433702
 20
236.8671053977314
 30
0.0
 11
265.5942972433702
 21
244.8671053977314
 31
0.0
  0
LINE
  5
19F5
330
1A
100
AcDbEntity
  8
CENTER_L
100
AcDbLine
 10
261.6609280903327
 20
236.8671053977314
 30
0.0
 11
261.6609280903327
 21
244.8671053977314
 31
0.0
  0
LINE
  5
19F6
330
1A
100
AcDbEntity
  8
CENTER_L
100
AcDbLine
 10
257.7275589372952
 20
236.8671053977314
 30
0.0
 11
257.7275589372952
 21
244.8671053977314
 31
0.0
  0
ELLIPSE
  5
19F7
330
1A
100
AcDbEntity
  8
SEIHIN
100
AcDbEllipse
 10
256.336783127036
 20
240.8671053977314
 30
0.0
 11
0.0
 21
-2.099999999999994
 31
0.0
210
0.0
220
0.0
230
-1.0
 40
0.3656867006028408
 41
4.274199385673399
 42
5.15057857509598
  0
ELLIPSE
  5
19F8
330
1A
100
AcDbEntity
  8
SEIHIN
100
AcDbEllipse
 10
264.203521433111
 20
240.8671053977314
 30
0.0
 11
0.0
 21
-2.099999999999994
 31
0.0
210
0.0
220
0.0
230
-1.0
 40
0.3656867006028408
 41
4.274199385673399
 42
5.15057857509598
  0
ELLIPSE
  5
19F9
330
1A
100
AcDbEntity
  8
SEIHIN
100
AcDbEllipse
 10
260.2701522800735
 20
240.8671053977314
 30
0.0
 11
0.0
 21
-3.300000000000011
 31
0.0
210
0.0
220
0.0
230
-1.0
 40
0.3689302952940133
 41
3.749528770011537
 42
5.675249190757841
  0
ELLIPSE
  5
19FA
330
1A
100
AcDbEntity
  8
SEIHIN
100
AcDbEllipse
 10
257.7275589372952
 20
240.8671053977314
 30
0.0
 11
0.0
 21
-2.099999999999994
 31
0.0
210
0.0
220
0.0
230
-1.0
 40
0.3656867006028408
 41
0.0
 42
6.283185307179586
  0
ELLIPSE
  5
19FB
330
1A
100
AcDbEntity
  8
SEIHIN
100
AcDbEllipse
 10
261.6609280903327
 20
240.8671053977314
 30
0.0
 11
0.0
 21
-3.300000000000011
 31
0.0
210
0.0
220
0.0
230
-1.0
 40
0.3689302952940133
 41
0.0
 42
6.283185307179586
  0
ELLIPSE
  5
19FC
330
1A
100
AcDbEntity
  8
SEIHIN
100
AcDbEllipse
 10
254.8383554286635
 20
243.8671053977314
 30
0.0
 11
0.0
 21
3.0
 31
0.0
210
0.0
220
0.0
230
-1.0
 40
0.3746061093231106
 41
4.712388980384689
 42
6.283185307179586
  0
ELLIPSE
  5
19FD
330
1A
100
AcDbEntity
  8
SEIHIN
100
AcDbEllipse
 10
256.2291312389227
 20
243.8671053977314
 30
0.0
 11
0.0
 21
3.0
 31
0.0
210
0.0
220
0.0
230
-1.0
 40
0.3746061093231106
 41
4.712388980384689
 42
6.283185307179586
  0
ARC
  5
19FE
330
1A
100
AcDbEntity
  8
SEIHIN
100
AcDbCircle
 10
253.2145371006942
 20
227.8671053977314
 30
0.0
 40
0.5
100
AcDbArc
 50
269.9999999999934
 51
0.0
  0
LINE
  5
19FF
330
1A
100
AcDbEntity
  8
SEIHIN
100
AcDbLine
 10
249.6612069733786
 20
226.8671053977314
 30
0.0
 11
249.6612069733786
 21
225.3671053977314
 31
0.0
  0
LINE
  5
1A00
330
1A
100
AcDbEntity
  8
SEIHIN
100
AcDbLine
 10
251.0519827836378
 20
225.5671053977314
 30
0.0
 11
251.0519827836378
 21
225.3671053977314
 31
0.0
  0
LINE
  5
1A01
330
1A
100
AcDbEntity
  8
SEIHIN
100
AcDbLine
 10
253.2145371006941
 20
227.3671053977314
 30
0.0
 11
250.1612069733786
 21
227.3671053977314
 31
0.0
  0
ARC
  5
1A02
330
1A
100
AcDbEntity
  8
SEIHIN
100
AcDbCircle
 10
250.1612069733785
 20
226.8671053977314
 30
0.0
 40
0.5
100
AcDbArc
 50
89.99999999999351
 51
180.0000000000065
  0
ARC
  5
1A03
330
1A
100
AcDbEntity
  8
SEIHIN
100
AcDbCircle
 10
251.3519827836377
 20
225.5671053977315
 30
0.0
 40
0.3
100
AcDbArc
 50
89.99999999998918
 51
180.0000000000108
  0
ARC
  5
1A04
330
1A
100
AcDbEntity
  8
SEIHIN
100
AcDbCircle
 10
254.6053129109533
 20
226.3671053977314
 30
0.0
 40
0.5
100
AcDbArc
 50
270.0
 51
0.0000000000032709
  0
LINE
  5
1A05
330
1A
100
AcDbEntity
  8
SEIHIN
100
AcDbLine
 10
264.1632132180796
 20
225.5671053977314
 30
0.0
 11
264.1632132180796
 21
225.3671053977314
 31
0.0
  0
ARC
  5
1A06
330
1A
100
AcDbEntity
  8
SEIHIN
100
AcDbCircle
 10
264.4632132180796
 20
225.5671053977315
 30
0.0
 40
0.3
100
AcDbArc
 50
90.00000000000003
 51
180.0000000000054
  0
LINE
  5
1A07
330
1A
100
AcDbEntity
  8
SEIHIN
100
AcDbLine
 10
268.2165433453951
 20
243.8671053977314
 30
0.0
 11
268.2165433453951
 21
226.3671053977314
 31
0.0
  0
ELLIPSE
  5
1A08
330
1A
100
AcDbEntity
  8
SEIHIN
100
AcDbEllipse
 10
267.0927250174258
 20
243.8671053977314
 30
0.0
 11
0.0
 21
3.0
 31
0.0
210
0.0
220
0.0
230
-1.0
 40
0.3746061093231106
 41
6.283185307179586
 42
7.853981633974482
  0
ARC
  5
1A09
330
1A
100
AcDbEntity
  8
SEIHIN
100
AcDbCircle
 10
267.7165433453951
 20
226.3671053977314
 30
0.0
 40
0.5
100
AcDbArc
 50
270.0
 51
0.0000000000032709
  0
LINE
  5
1A0A
330
1A
100
AcDbEntity
  8
SEIHIN
100
AcDbLine
 10
73.83209000068416
 20
95.14925598774601
 30
0.0
 11
59.83209000068416
 21
95.14925598774601
 31
0.0
  0
LINE
  5
1A0B
330
1A
100
AcDbEntity
  8
SEIHIN
100
AcDbLine
 10
73.83209000068416
 20
62.64974350541037
 30
0.0
 11
57.62449250068414
 21
62.64974350541037
 31
0.0
  0
LINE
  5
1A0C
330
1A
100
AcDbEntity
  8
SEIHIN
100
AcDbLine
 10
73.83209000068416
 20
95.66308821174819
 30
0.0
 11
59.83209000068416
 21
95.66308821174819
 31
0.0
  0
LINE
  5
1A0D
330
1A
100
AcDbEntity
  8
SEIHIN
100
AcDbLine
 10
76.83209000068416
 20
92.31962339678535
 30
0.0
 11
76.83209000068416
 21
65.47937609637102
 31
0.0
  0
ELLIPSE
  5
1A12
330
1A
100
AcDbEntity
  8
SEIHIN
100
AcDbEllipse
 10
73.83209000068416
 20
92.31962339678535
 30
0.0
 11
-3.0
 21
0.0
 31
0.0
210
0.0
220
0.0
230
1.0
 40
0.9432108636535522
 41
3.141592653589793
 42
4.712388980384689
  0
ELLIPSE
  5
1A13
330
1A
100
AcDbEntity
  8
SEIHIN
100
AcDbEllipse
 10
73.83209000068416
 20
92.83345562078753
 30
0.0
 11
-3.0
 21
0.0
 31
0.0
210
0.0
220
0.0
230
1.0
 40
0.9432108636535522
 41
2.958989833679785
 42
4.712388980384689
  0
ELLIPSE
  5
1A14
330
1A
100
AcDbEntity
  8
SEIHIN
100
AcDbEllipse
 10
73.83209000068416
 20
65.47937609637102
 30
0.0
 11
-3.0
 21
0.0
 31
0.0
210
0.0
220
0.0
230
1.0
 40
0.9432108636535522
 41
1.570796326794896
 42
3.141592653589793
  0
LINE
  5
1A16
330
1A
100
AcDbEntity
  8
CENTER_L
100
AcDbLine
 10
77.13209000068417
 20
88.61089150601577
 30
0.0
 11
64.53209000068415
 21
88.61089150601577
 31
0.0
  0
LINE
  5
1A18
330
1A
100
AcDbEntity
  8
CENTER_L
100
AcDbLine
 10
77.13209000068417
 20
78.87546100161933
 30
0.0
 11
64.53209000068415
 21
78.87546100161933
 31
0.0
  0
LINE
  5
1A19
330
1A
100
AcDbEntity
  8
CENTER_L
100
AcDbLine
 10
77.13209000068417
 20
69.14003049722282
 30
0.0
 11
64.53209000068415
 21
69.14003049722282
 31
0.0
  0
LINE
  5
1A1A
330
1A
100
AcDbEntity
  8
CENTER_L
100
AcDbLine
 10
70.83209000068416
 20
92.61089150601577
 30
0.0
 11
70.83209000068416
 21
65.14003049722281
 31
0.0
  0
ELLIPSE
  5
1A1F
330
1A
100
AcDbEntity
  8
SEIHIN
100
AcDbEllipse
 10
70.83209000068416
 20
78.87546100161933
 30
0.0
 11
-3.300000000000011
 21
0.0
 31
0.0
210
0.0
220
0.0
230
1.0
 40
0.9131345447267882
 41
0.0
 42
6.283185307179586
  0
ELLIPSE
  5
1A20
330
1A
100
AcDbEntity
  8
SEIHIN
100
AcDbEllipse
 10
70.83209000068416
 20
88.61089150601577
 30
0.0
 11
-2.099999999999994
 21
0.0
 31
0.0
210
0.0
220
0.0
230
1.0
 40
0.9051063659641089
 41
0.0
 42
6.283185307179586
  0
ELLIPSE
  5
1A24
330
1A
100
AcDbEntity
  8
SEIHIN
100
AcDbEllipse
 10
70.83209000068416
 20
69.14003049722282
 30
0.0
 11
-2.099999999999994
 21
0.0
 31
0.0
210
0.0
220
0.0
230
1.0
 40
0.9051063659641089
 41
0.0
 42
6.283185307179586
  0
ELLIPSE
  5
1A28
330
1A
100
AcDbEntity
  8
SEIHIN
100
AcDbEllipse
 10
70.83209000068416
 20
69.65386272122501
 30
0.0
 11
-2.099999999999994
 21
0.0
 31
0.0
210
0.0
220
0.0
230
1.0
 40
0.9051063659641089
 41
0.1355825576569059
 42
3.006010095939179
  0
ELLIPSE
  5
1A29
330
1A
100
AcDbEntity
  8
SEIHIN
100
AcDbEllipse
 10
70.83209000068416
 20
79.38929322562152
 30
0.0
 11
-3.300000000000011
 21
0.0
 31
0.0
210
0.0
220
0.0
230
1.0
 40
0.9131345447267882
 41
0.0853631036709083
 42
3.056229549918884
  0
ELLIPSE
  5
1A2A
330
1A
100
AcDbEntity
  8
SEIHIN
100
AcDbEllipse
 10
70.83209000068416
 20
89.12472373001795
 30
0.0
 11
-2.099999999999994
 21
0.0
 31
0.0
210
0.0
220
0.0
230
1.0
 40
0.9051063659641089
 41
0.1355825576569059
 42
3.006010095939179
  0
LINE
  5
1A2E
330
1A
100
AcDbEntity
  8
SEIHIN
100
AcDbLine
 10
23.83209000068416
 20
95.66308821174819
 30
0.0
 11
37.83209000068416
 21
95.66308821174819
 31
0.0
  0
LINE
  5
1A2F
330
1A
100
AcDbEntity
  8
SEIHIN
100
AcDbLine
 10
23.83209000068416
 20
95.14925598774601
 30
0.0
 11
37.83209000068416
 21
95.14925598774601
 31
0.0
  0
ELLIPSE
  5
1A30
330
1A
100
AcDbEntity
  8
SEIHIN
100
AcDbEllipse
 10
26.83209000068416
 20
69.65386272122501
 30
0.0
 11
2.099999999999994
 21
0.0
 31
0.0
210
0.0
220
0.0
230
-1.0
 40
0.9051063659641089
 41
0.1355825576569059
 42
3.006010095939179
  0
ELLIPSE
  5
1A31
330
1A
100
AcDbEntity
  8
SEIHIN
100
AcDbEllipse
 10
26.83209000068416
 20
79.38929322562152
 30
0.0
 11
3.300000000000011
 21
0.0
 31
0.0
210
0.0
220
0.0
230
-1.0
 40
0.9131345447267882
 41
0.0853631036709083
 42
3.056229549918884
  0
ELLIPSE
  5
1A32
330
1A
100
AcDbEntity
  8
SEIHIN
100
AcDbEllipse
 10
26.83209000068416
 20
89.12472373001795
 30
0.0
 11
2.099999999999994
 21
0.0
 31
0.0
210
0.0
220
0.0
230
-1.0
 40
0.9051063659641089
 41
0.1355825576569059
 42
3.006010095939179
  0
LINE
  5
1A33
330
1A
100
AcDbEntity
  8
CENTER_L
100
AcDbLine
 10
20.53209000068414
 20
69.14003049722282
 30
0.0
 11
33.13209000068417
 21
69.14003049722282
 31
0.0
  0
LINE
  5
1A34
330
1A
100
AcDbEntity
  8
CENTER_L
100
AcDbLine
 10
20.53209000068414
 20
78.87546100161933
 30
0.0
 11
33.13209000068417
 21
78.87546100161933
 31
0.0
  0
LINE
  5
1A35
330
1A
100
AcDbEntity
  8
CENTER_L
100
AcDbLine
 10
20.53209000068414
 20
88.61089150601577
 30
0.0
 11
33.13209000068417
 21
88.61089150601577
 31
0.0
  0
ELLIPSE
  5
1A36
330
1A
100
AcDbEntity
  8
SEIHIN
100
AcDbEllipse
 10
26.83209000068416
 20
69.14003049722282
 30
0.0
 11
2.099999999999994
 21
0.0
 31
0.0
210
0.0
220
0.0
230
-1.0
 40
0.9051063659641089
 41
0.0
 42
6.283185307179586
  0
ELLIPSE
  5
1A37
330
1A
100
AcDbEntity
  8
SEIHIN
100
AcDbEllipse
 10
26.83209000068416
 20
88.61089150601577
 30
0.0
 11
2.099999999999994
 21
0.0
 31
0.0
210
0.0
220
0.0
230
-1.0
 40
0.9051063659641089
 41
0.0
 42
6.283185307179586
  0
ELLIPSE
  5
1A38
330
1A
100
AcDbEntity
  8
SEIHIN
100
AcDbEllipse
 10
26.83209000068416
 20
78.87546100161933
 30
0.0
 11
3.300000000000011
 21
0.0
 31
0.0
210
0.0
220
0.0
230
-1.0
 40
0.9131345447267882
 41
0.0
 42
6.283185307179586
  0
LINE
  5
1A39
330
1A
100
AcDbEntity
  8
SEIHIN
100
AcDbLine
 10
37.03968750068418
 20
69.14003049722282
 30
0.0
 11
37.83209000068416
 21
68.7863058808891
 31
0.0
  0
LINE
  5
1A3A
330
1A
100
AcDbEntity
  8
SEIHIN
100
AcDbLine
 10
37.83209000068416
 20
70.20336597949118
 30
0.0
 11
37.03968750068418
 21
69.14003049722282
 31
0.0
  0
LINE
  5
1A3B
330
1A
100
AcDbEntity
  8
SEIHIN
100
AcDbLine
 10
37.83209000068416
 20
89.6742269882842
 30
0.0
 11
37.03968750068418
 21
88.61089150601577
 31
0.0
  0
LINE
  5
1A3C
330
1A
100
AcDbEntity
  8
SEIHIN
100
AcDbLine
 10
37.03968750068418
 20
88.61089150601577
 30
0.0
 11
37.83209000068416
 21
88.25716688968205
 31
0.0
  0
LINE
  5
1A3D
330
1A
100
AcDbEntity
  8
SEIHIN
100
AcDbLine
 10
37.83209000068416
 20
95.82823650316056
 30
0.0
 11
37.83209000068416
 21
95.15618850316061
 31
0.0
  0
ELLIPSE
  5
1A3E
330
1A
100
AcDbEntity
  8
SEIHIN
100
AcDbEllipse
 10
23.83209000068416
 20
92.83345562078753
 30
0.0
 11
3.0
 21
0.0
 31
0.0
210
0.0
220
0.0
230
-1.0
 40
0.9432108636535522
 41
2.958989833679785
 42
4.712388980384689
  0
ELLIPSE
  5
1A3F
330
1A
100
AcDbEntity
  8
SEIHIN
100
AcDbEllipse
 10
23.83209000068416
 20
92.31962339678535
 30
0.0
 11
3.0
 21
0.0
 31
0.0
210
0.0
220
0.0
230
-1.0
 40
0.9432108636535522
 41
3.141592653589793
 42
4.712388980384689
  0
LINE
  5
1A40
330
1A
100
AcDbEntity
  8
SEIHIN
100
AcDbLine
 10
23.83209000068416
 20
62.64974350541037
 30
0.0
 11
40.03968750068418
 21
62.64974350541037
 31
0.0
  0
LINE
  5
1A41
330
1A
100
AcDbEntity
  8
CENTER_L
100
AcDbLine
 10
26.83209000068416
 20
92.61089150601577
 30
0.0
 11
26.83209000068416
 21
65.14003049722281
 31
0.0
  0
LINE
  5
1A42
330
1A
100
AcDbEntity
  8
SEIHIN
100
AcDbLine
 10
20.83209000068416
 20
92.31962339678535
 30
0.0
 11
20.83209000068416
 21
65.47937609637102
 31
0.0
  0
ELLIPSE
  5
1A43
330
1A
100
AcDbEntity
  8
SEIHIN
100
AcDbEllipse
 10
23.83209000068416
 20
65.47937609637102
 30
0.0
 11
3.0
 21
0.0
 31
0.0
210
0.0
220
0.0
230
-1.0
 40
0.9432108636535522
 41
1.570796326794896
 42
3.141592653589793
  0
LINE
  5
1A44
330
1A
100
AcDbEntity
  8
SEIHIN
100
AcDbLine
 10
252.1250447077993
 20
212.3671053977314
 30
0.0
 11
252.1250447077993
 21
225.3671053977314
 31
0.0
  0
LINE
  5
1AD2
330
1A
100
AcDbEntity
  8
SEIHIN
100
AcDbLine
 10
256.7651580367351
 20
211.8671053977314
 30
0.0
 11
257.765158036735
 21
209.8671053977314
 31
0.0
  0
LINE
  5
1AD3
330
1A
100
AcDbEntity
  8
SEIHIN
100
AcDbLine
 10
257.765158036735
 20
209.8671053977314
 30
0.0
 11
258.7651580367351
 21
211.8671053977314
 31
0.0
  0
LINE
  5
1AD4
330
1A
100
AcDbEntity
  8
SEIHIN
100
AcDbLine
 10
265.5942972433702
 20
209.8671053977314
 30
0.0
 11
266.5942972433701
 21
211.8671053977314
 31
0.0
  0
LINE
  5
1AD5
330
1A
100
AcDbEntity
  8
SEIHIN
100
AcDbLine
 10
264.5942972433701
 20
211.8671053977314
 30
0.0
 11
265.5942972433702
 21
209.8671053977314
 31
0.0
  0
LINE
  5
1AD6
330
1A
100
AcDbEntity
  8
SEIHIN
100
AcDbLine
 10
257.765158036735
 20
227.8671053977314
 30
0.0
 11
258.7651580367351
 21
225.8671053977314
 31
0.0
  0
LINE
  5
1AD7
330
1A
100
AcDbEntity
  8
SEIHIN
100
AcDbLine
 10
256.7651580367351
 20
225.8671053977314
 30
0.0
 11
257.765158036735
 21
227.8671053977314
 31
0.0
  0
LINE
  5
1AD8
330
1A
100
AcDbEntity
  8
SEIHIN
100
AcDbLine
 10
264.5942972433701
 20
225.8671053977314
 30
0.0
 11
265.5942972433702
 21
227.8671053977314
 31
0.0
  0
LINE
  5
1AD9
330
1A
100
AcDbEntity
  8
SEIHIN
100
AcDbLine
 10
265.5942972433702
 20
227.8671053977314
 30
0.0
 11
266.5942972433701
 21
225.8671053977314
 31
0.0
  0
LINE
  5
1D44
330
1A
100
AcDbEntity
  8
ZUWAKU
100
AcDbLine
 10
104.3233003079923
 20
7.599999732511943
 30
0.0
 11
223.712181648454
 21
7.599999732511939
 31
0.0
  0
LINE
  5
1D45
330
1A
100
AcDbEntity
  8
ZUWAKU
100
AcDbLine
 10
104.3233003079923
 20
7.79999973251194
 30
0.0
 11
223.712181648454
 21
7.799999732511944
 31
0.0
  0
LINE
  5
1D46
330
1A
100
AcDbEntity
  8
ZUWAKU
100
AcDbLine
 10
104.3233003079923
 20
7.69999973251194
 30
0.0
 11
223.712181648454
 21
7.69999973251194
 31
0.0
  0
LINE
  5
1D47
330
1A
100
AcDbEntity
  8
ZUWAKU
100
AcDbLine
 10
-0.0000003370416835
 20
15.39999973251193
 30
0.0
 11
398.6999996629582
 21
15.39999973251193
 31
0.0
  0
LINE
  5
1D48
330
1A
100
AcDbEntity
  8
ZUWAKU
100
AcDbLine
 10
-0.0000003370416835
 20
15.29999973251192
 30
0.0
 11
398.6999996629582
 21
15.29999973251192
 31
0.0
  0
LINE
  5
1D49
330
1A
100
AcDbEntity
  8
ZUWAKU
100
AcDbLine
 10
-0.0000003370416835
 20
15.19999973251192
 30
0.0
 11
398.6999996629582
 21
15.19999973251192
 31
0.0
  0
LINE
  5
1D4A
330
1A
100
AcDbEntity
  8
ZUWAKU
100
AcDbLine
 10
-0.0000003370416835
 20
15.09999973251192
 30
0.0
 11
398.6999996629582
 21
15.09999973251192
 31
0.0
  0
LINE
  5
1D4B
330
1A
100
AcDbEntity
  8
ZUWAKU
100
AcDbLine
 10
-0.0000003370416835
 20
14.99999973251192
 30
0.0
 11
398.6999996629582
 21
14.99999973251192
 31
0.0
  0
LWPOLYLINE
  5
1D4C
330
1A
100
AcDbEntity
  8
ZUWAKU
100
AcDbPolyline
 90
        4
 70
     1
 43
0.0
 10
0.0999996629582825
 20
275.6999997325119
 10
0.0999996629582825
 20
0.0999997325119466
 10
398.6999996629582
 20
0.0999997325119582
 10
398.6999996629583
 20
275.6999997325119
  0
LWPOLYLINE
  5
1D4D
330
1A
100
AcDbEntity
  8
ZUWAKU
100
AcDbPolyline
 90
        4
 70
     1
 43
0.0
 10
0.2999996629582711
 20
275.499999732512
 10
0.2999996629582711
 20
0.2999997325119352
 10
398.4999996629584
 20
0.2999997325119583
 10
398.4999996629582
 20
275.499999732512
  0
LWPOLYLINE
  5
1D4E
330
1A
100
AcDbEntity
  8
ZUWAKU
100
AcDbPolyline
 90
        4
 70
     1
 43
0.0
 10
-0.0000003370416835
 20
275.7999997325119
 10
-0.0000003370416835
 20
-0.0000002674880761
 10
398.7999996629584
 20
-0.0000002674880424
 10
398.7999996629584
 20
275.799999732512
  0
LWPOLYLINE
  5
1D4F
330
1A
100
AcDbEntity
  8
ZUWAKU
100
AcDbPolyline
 90
        4
 70
     1
 43
0.0
 10
0.1999996629583052
 20
275.5999997325119
 10
0.1999996629583052
 20
0.1999997325119693
 10
398.5999996629583
 20
0.1999997325119578
 10
398.5999996629583
 20
275.5999997325119
  0
LWPOLYLINE
  5
1D50
330
1A
100
AcDbEntity
  8
ZUWAKU
100
AcDbPolyline
 90
        4
 70
     1
 43
0.0
 10
0.3999996629582938
 20
275.3999997325119
 10
0.3999996629582938
 20
0.399999732511958
 10
398.3999996629583
 20
0.399999732511958
 10
398.3999996629583
 20
275.3999997325119
  0
TEXT
  5
1D51
330
1A
100
AcDbEntity
  8
MOJI
100
AcDbText
 10
46.47889445704288
 20
6.370588797649304
 30
0.0
 40
3.0
  1
新・丸トップＲＶ１０５
 41
0.9
  7
ｽﾀｲﾙ1
100
AcDbText
  0
HATCH
  5
1D52
330
1A
100
AcDbEntity
  8
ZUWAKU
100
AcDbHatch
 10
0.0
 20
0.0
 30
0.0
210
0.0
220
0.0
230
1.0
  2
ANSI37
 70
     0
 71
     0
 91
        8
 92
        7
 72
     1
 73
     1
 93
       24
 10
7.251130993518245
 20
8.822423973003715
 42
-0.1989123673796348
 10
7.046105740348878
 20
9.31739871983424
 42
0.0
 10
7.046105740348878
 20
9.962499732511929
 42
-0.4142135623730912
 10
7.308605740348866
 20
10.22499973251192
 42
0.0
 10
8.796105740348821
 20
10.22499973251192
 42
0.4142135623731546
 10
9.058605740348866
 20
10.48749973251192
 42
0.0
 10
9.058605740348866
 20
11.36249973251192
 42
0.4142135623731586
 10
8.796105740348821
 20
11.62499973251192
 42
0.0
 10
7.046105740348878
 20
11.62499973251192
 42
0.4142135623730928
 10
5.6461057403489
 20
10.22499973251193
 42
0.0
 10
5.6461057403489
 20
9.317398719834304
 42
0.1989123673796619
 10
6.261181499857116
 20
7.832474479342501
 42
0.0
 10
7.716080487179453
 20
6.377575492020172
 42
-0.1989123673796613
 10
7.921105740348878
 20
5.882600745189579
 42
0.0
 10
7.921105740348878
 20
5.237499732511921
 42
-0.4142135623730911
 10
7.658605740348889
 20
4.974999732511925
 42
0.0
 10
6.171105740348934
 20
4.974999732511925
 42
0.4142135623731526
 10
5.908605740348889
 20
4.712499732511931
 42
0.0
 10
5.908605740348889
 20
3.83749973251192
 42
0.4142135623731526
 10
6.171105740348934
 20
3.574999732511926
 42
0.0
 10
7.921105740348878
 20
3.574999732511926
 42
0.4142135623731044
 10
9.321105740348912
 20
4.974999732511914
 42
0.0
 10
9.321105740348912
 20
5.882600745189551
 42
0.1989123673796604
 10
8.706029980840639
 20
7.36752498568132
 42
0.0
 97
        0
 92
        7
 72
     1
 73
     1
 93
       16
 10
11.7711057403489
 20
9.524999732511929
 42
-0.4142135623730935
 10
12.47110574034889
 20
10.22499973251192
 42
0.0
 10
13.43360574034886
 20
10.22499973251192
 42
0.4142135623731546
 10
13.69610574034891
 20
10.48749973251192
 42
0.0
 10
13.69610574034891
 20
11.36249973251192
 42
0.4142135623730951
 10
13.43360574034892
 20
11.62499973251192
 42
0.0
 10
12.47110574034883
 20
11.6249997325119
 42
0.4142135623730892
 10
10.37110574034886
 20
9.524999732511894
 42
0.0
 10
10.37110574034886
 20
5.674999732511938
 42
0.4142135623730969
 10
12.47110574034889
 20
3.574999732511926
 42
0.0
 10
13.43360574034886
 20
3.574999732511926
 42
0.4142135623731526
 10
13.69610574034891
 20
3.83749973251192
 42
0.0
 10
13.69610574034891
 20
4.712499732511931
 42
0.4142135623730891
 10
13.43360574034892
 20
4.974999732511925
 42
0.0
 10
12.47110574034889
 20
4.974999732511925
 42
-0.4142135623730928
 10
11.7711057403489
 20
5.674999732511919
 42
0.0
 97
        0
 92
        7
 72
     1
 73
     1
 93
        2
 10
12.12110574034886
 20
7.599999732511925
 42
1.0
 10
13.87110574034886
 20
7.599999732511925
 42
1.0
 97
        0
 92
        7
 72
     1
 73
     1
 93
       26
 10
18.65742898143787
 20
9.602523329293639
 42
0.0
 10
19.18824879800678
 20
11.28345274842843
 42
0.5069206636600134
 10
18.9379333484091
 20
11.62499973251192
 42
0.0
 10
18.08848865860449
 20
11.62499973251192
 42
0.3272098845218764
 10
17.83817320900681
 20
11.44154671659541
 42
0.0
 10
16.90403827169092
 20
8.483452748428465
 42
-0.3272098845219541
 10
16.65372282209318
 20
8.299999732511924
 42
0.0
 10
16.58360574034895
 20
8.299999732511924
 42
-0.4142135623731526
 10
16.32110574034891
 20
8.562499732511918
 42
0.0
 10
16.32110574034891
 20
11.36249973251192
 42
0.4142135623730951
 10
16.05860574034892
 20
11.62499973251192
 42
0.0
 10
15.18360574034886
 20
11.62499973251192
 42
0.4142135623730871
 10
14.92110574034887
 20
11.36249973251193
 42
0.0
 10
14.92110574034887
 20
3.83749973251192
 42
0.4142135623730891
 10
15.18360574034886
 20
3.574999732511926
 42
0.0
 10
16.05860574034886
 20
3.574999732511926
 42
0.4142135623731526
 10
16.32110574034891
 20
3.83749973251192
 42
0.0
 10
16.32110574034891
 20
6.637499732511932
 42
-0.4142135623731526
 10
16.58360574034895
 20
6.899999732511925
 42
0.0
 10
16.65372282209324
 20
6.899999732511925
 42
-0.3272098845218915
 10
16.90403827169092
 20
6.716546716595388
 42
0.0
 10
17.83817320900681
 20
3.758452748428462
 42
0.3272098845218902
 10
18.08848865860449
 20
3.574999732511926
 42
0.0
 10
18.9379333484091
 20
3.574999732511926
 42
0.5069206636600335
 10
19.18824879800678
 20
3.91654671659543
 42
0.0
 10
18.02505310876995
 20
7.599999732511994
 42
0.0
 97
        0
 92
        7
 72
     1
 73
     1
 93
        8
 10
21.74610574034886
 20
11.36249973251193
 42
0.4142135623731546
 10
21.48360574034882
 20
11.62499973251192
 42
0.0
 10
20.60860574034893
 20
11.62499973251192
 42
0.4142135623731507
 10
20.34610574034889
 20
11.36249973251193
 42
0.0
 10
20.34610574034889
 20
3.83749973251192
 42
0.4142135623731526
 10
20.60860574034893
 20
3.574999732511926
 42
0.0
 10
21.48360574034882
 20
3.574999732511926
 42
0.4142135623731526
 10
21.74610574034886
 20
3.83749973251192
 42
0.0
 97
        0
 92
        7
 72
     1
 73
     1
 93
       24
 10
24.19610574034891
 20
9.962499732511929
 42
-0.4142135623731546
 10
24.45860574034895
 20
10.22499973251192
 42
0.0
 10
25.94610574034891
 20
10.22499973251192
 42
0.4142135623730911
 10
26.2086057403489
 20
10.48749973251192
 42
0.0
 10
26.2086057403489
 20
11.36249973251192
 42
0.4142135623730952
 10
25.94610574034891
 20
11.62499973251192
 42
0.0
 10
24.19610574034891
 20
11.62499973251192
 42
0.4142135623731048
 10
22.79610574034887
 20
10.22499973251193
 42
0.0
 10
22.79610574034887
 20
9.317398719834304
 42
0.1989123673796613
 10
23.41118149985715
 20
7.832474479342529
 42
0.0
 10
24.86608048717949
 20
6.377575492020195
 42
-0.1989123673796402
 10
25.07110574034891
 20
5.882600745189659
 42
0.0
 10
25.07110574034891
 20
5.237499732511921
 42
-0.4142135623730911
 10
24.80860574034892
 20
4.974999732511925
 42
0.0
 10
23.32110574034891
 20
4.974999732511925
 42
0.4142135623731526
 10
23.05860574034886
 20
4.712499732511931
 42
0.0
 10
23.05860574034886
 20
3.83749973251192
 42
0.4142135623730891
 10
23.32110574034885
 20
3.574999732511926
 42
0.0
 10
25.07110574034891
 20
3.574999732511926
 42
0.4142135623730925
 10
26.47110574034889
 20
4.974999732511914
 42
0.0
 10
26.47110574034889
 20
5.882600745189551
 42
0.1989123673796675
 10
25.85602998084061
 20
7.367524985681377
 42
0.0
 10
24.40113099351833
 20
8.822423973003635
 42
-0.1989123673796652
 10
24.19610574034891
 20
9.317398719834219
 42
0.0
 97
        0
 92
        7
 72
     1
 73
     1
 93
       16
 10
28.92110574034887
 20
11.36249973251192
 42
0.414213562373103
 10
28.65860574034888
 20
11.62499973251192
 42
0.0
 10
27.78360574034889
 20
11.62499973251192
 42
0.4142135623730871
 10
27.5211057403489
 20
11.36249973251193
 42
0.0
 10
27.5211057403489
 20
4.974999732511914
 42
0.4142135623730926
 10
28.92110574034887
 20
3.574999732511926
 42
0.0
 10
30.67110574034888
 20
3.574999732511926
 42
0.4142135623731044
 10
32.07110574034891
 20
4.974999732511914
 42
0.0
 10
32.07110574034891
 20
11.36249973251192
 42
0.4142135623730951
 10
31.80860574034892
 20
11.62499973251192
 42
0.0
 10
30.93360574034886
 20
11.62499973251192
 42
0.4142135623730871
 10
30.67110574034888
 20
11.36249973251193
 42
0.0
 10
30.67110574034888
 20
5.499999732511913
 42
-0.414213562373088
 10
30.1461057403489
 20
4.974999732511925
 42
0.0
 10
29.44610574034891
 20
4.974999732511925
 42
-0.4142135623731197
 10
28.92110574034887
 20
5.499999732511913
 42
0.0
 97
        0
 92
        7
 72
     1
 73
     1
 93
        8
 10
34.5211057403489
 20
11.36249973251193
 42
0.4142135623730871
 10
34.25860574034891
 20
11.62499973251192
 42
0.0
 10
33.38360574034891
 20
11.62499973251192
 42
0.4142135623731507
 10
33.12110574034886
 20
11.36249973251193
 42
0.0
 10
33.12110574034886
 20
3.83749973251192
 42
0.4142135623730891
 10
33.38360574034885
 20
3.574999732511926
 42
0.0
 10
34.25860574034891
 20
3.574999732511926
 42
0.4142135623730891
 10
34.5211057403489
 20
3.83749973251192
 42
0.0
 97
        0
 75
     0
 76
     1
 52
0.0
 41
0.1
 77
     0
 78
     2
 53
45.0
 43
-450.4711525043811
 44
-6.600000267488042
 45
-0.2245064030267288
 46
0.2245064030267288
 79
     0
 53
135.0
 43
-450.4711525043811
 44
-6.600000267488042
 45
-0.2245064030267288
 46
-0.2245064030267288
 79
     0
 47
0.057451373970553
 98
        8
 10
8.03992714446997
 20
7.583586555454701
 10
11.2022571661779
 20
9.422030823737429
 10
12.58218360578814
 20
7.755940555547283
 10
15.45702965377688
 20
8.100648555732675
 10
20.91923567243668
 20
8.330454689503483
 10
23.44910011052309
 20
9.709287890715529
 10
28.27884264915849
 20
9.364578690059431
 10
33.91353947276968
 20
9.594384823830239
  0
LINE
  5
1D53
330
1A
100
AcDbEntity
  8
ZUWAKU
100
AcDbLine
 10
12.47110574034889
 20
11.6249997325119
 30
0.0
 11
13.43360574034886
 21
11.62499973251192
 31
0.0
  0
LINE
  5
1D54
330
1A
100
AcDbEntity
  8
ZUWAKU
100
AcDbLine
 10
13.43360574034886
 20
10.22499973251192
 30
0.0
 11
12.47110574034889
 21
10.22499973251192
 31
0.0
  0
LINE
  5
1D55
330
1A
100
AcDbEntity
  8
ZUWAKU
100
AcDbLine
 10
12.47110574034889
 20
4.974999732511925
 30
0.0
 11
13.43360574034886
 21
4.974999732511925
 31
0.0
  0
LINE
  5
1D56
330
1A
100
AcDbEntity
  8
ZUWAKU
100
AcDbLine
 10
13.43360574034886
 20
3.574999732511926
 30
0.0
 11
12.47110574034889
 21
3.574999732511926
 31
0.0
  0
CIRCLE
  5
1D57
330
1A
100
AcDbEntity
  8
ZUWAKU
100
AcDbCircle
 10
12.99610574034886
 20
7.599999732511925
 30
0.0
 40
0.875
  0
ARC
  5
1D58
330
1A
100
AcDbEntity
  8
ZUWAKU
100
AcDbCircle
 10
7.746105740348866
 20
9.317398719834276
 30
0.0
 40
0.7
100
AcDbArc
 50
180.0000000000016
 51
224.9999999999988
  0
LINE
  5
1D59
330
1A
100
AcDbEntity
  8
ZUWAKU
100
AcDbLine
 10
11.7711057403489
 20
9.524999732511925
 30
0.0
 11
11.7711057403489
 21
5.674999732511928
 31
0.0
  0
LINE
  5
1D5A
330
1A
100
AcDbEntity
  8
ZUWAKU
100
AcDbLine
 10
10.37110574034886
 20
5.674999732511928
 30
0.0
 11
10.37110574034886
 21
9.524999732511904
 31
0.0
  0
ARC
  5
1D5B
330
1A
100
AcDbEntity
  8
ZUWAKU
100
AcDbCircle
 10
7.746105740348866
 20
9.317398719834276
 30
0.0
 40
2.099999999999999
100
AcDbArc
 50
180.0
 51
225.0
  0
ARC
  5
1D5C
330
1A
100
AcDbEntity
  8
ZUWAKU
100
AcDbCircle
 10
7.921105740348878
 20
4.974999732511925
 30
0.0
 40
1.399999999999999
100
AcDbArc
 50
270.0
 51
0.0
  0
ARC
  5
1D5D
330
1A
100
AcDbEntity
  8
ZUWAKU
100
AcDbCircle
 10
12.47110574034889
 20
5.674999732511928
 30
0.0
 40
2.099999999999999
100
AcDbArc
 50
180.0
 51
270.0
  0
ARC
  5
1D5E
330
1A
100
AcDbEntity
  8
ZUWAKU
100
AcDbCircle
 10
7.221105740348889
 20
5.882600745189577
 30
0.0
 40
2.099999999999999
100
AcDbArc
 50
0.0
 51
45.0
  0
LINE
  5
1D5F
330
1A
100
AcDbEntity
  8
ZUWAKU
100
AcDbLine
 10
8.706029980840639
 20
7.367524985681338
 30
0.0
 11
7.251130993518302
 21
8.822423973003676
 31
0.0
  0
LINE
  5
1D60
330
1A
100
AcDbEntity
  8
ZUWAKU
100
AcDbLine
 10
7.921105740348878
 20
5.237499732511928
 30
0.0
 11
7.921105740348878
 21
5.882600745189598
 31
0.0
  0
ARC
  5
1D61
330
1A
100
AcDbEntity
  8
ZUWAKU
100
AcDbCircle
 10
7.658605740348889
 20
5.237499732511928
 30
0.0
 40
0.2625
100
AcDbArc
 50
270.0
 51
0.0
  0
ARC
  5
1D62
330
1A
100
AcDbEntity
  8
ZUWAKU
100
AcDbCircle
 10
7.221105740348889
 20
5.882600745189598
 30
0.0
 40
0.7
100
AcDbArc
 50
0.0
 51
45.0
  0
LINE
  5
1D63
330
1A
100
AcDbEntity
  8
ZUWAKU
100
AcDbLine
 10
5.908605740348889
 20
3.837499732511925
 30
0.0
 11
5.908605740348889
 21
4.712499732511925
 31
0.0
  0
ARC
  5
1D64
330
1A
100
AcDbEntity
  8
ZUWAKU
100
AcDbCircle
 10
6.171105740348878
 20
3.837499732511925
 30
0.0
 40
0.2625
100
AcDbArc
 50
180.0
 51
270.0
  0
ARC
  5
1D65
330
1A
100
AcDbEntity
  8
ZUWAKU
100
AcDbCircle
 10
6.171105740348878
 20
4.712499732511925
 30
0.0
 40
0.2625
100
AcDbArc
 50
90.0
 51
180.0
  0
LINE
  5
1D66
330
1A
100
AcDbEntity
  8
ZUWAKU
100
AcDbLine
 10
6.171105740348878
 20
3.574999732511926
 30
0.0
 11
7.921105740348878
 21
3.574999732511926
 31
0.0
  0
LINE
  5
1D67
330
1A
100
AcDbEntity
  8
ZUWAKU
100
AcDbLine
 10
6.171105740348878
 20
4.974999732511925
 30
0.0
 11
7.658605740348889
 21
4.974999732511925
 31
0.0
  0
LINE
  5
1D68
330
1A
100
AcDbEntity
  8
ZUWAKU
100
AcDbLine
 10
6.261181499857116
 20
7.832474479342515
 30
0.0
 11
7.716080487179453
 21
6.377575492020184
 31
0.0
  0
LINE
  5
1D69
330
1A
100
AcDbEntity
  8
ZUWAKU
100
AcDbLine
 10
9.321105740348912
 20
4.974999732511925
 30
0.0
 11
9.321105740348912
 21
5.882600745189598
 31
0.0
  0
ARC
  5
1D6A
330
1A
100
AcDbEntity
  8
ZUWAKU
100
AcDbCircle
 10
12.47110574034889
 20
5.674999732511928
 30
0.0
 40
0.7
100
AcDbArc
 50
180.0
 51
270.0
  0
ARC
  5
1D6B
330
1A
100
AcDbEntity
  8
ZUWAKU
100
AcDbCircle
 10
8.796105740348878
 20
11.36249973251192
 30
0.0
 40
0.2625
100
AcDbArc
 50
0.0
 51
90.0
  0
ARC
  5
1D6C
330
1A
100
AcDbEntity
  8
ZUWAKU
100
AcDbCircle
 10
8.796105740348878
 20
10.48749973251192
 30
0.0
 40
0.2625
100
AcDbArc
 50
270.0
 51
0.0
  0
LINE
  5
1D6D
330
1A
100
AcDbEntity
  8
ZUWAKU
100
AcDbLine
 10
7.046105740348878
 20
11.62499973251192
 30
0.0
 11
8.796105740348878
 21
11.62499973251192
 31
0.0
  0
ARC
  5
1D6E
330
1A
100
AcDbEntity
  8
ZUWAKU
100
AcDbCircle
 10
7.308605740348866
 20
9.962499732511925
 30
0.0
 40
0.2625
100
AcDbArc
 50
90.0
 51
180.0
  0
LINE
  5
1D6F
330
1A
100
AcDbEntity
  8
ZUWAKU
100
AcDbLine
 10
7.046105740348878
 20
9.962499732511925
 30
0.0
 11
7.046105740348878
 21
9.317398719834255
 31
0.0
  0
LINE
  5
1D70
330
1A
100
AcDbEntity
  8
ZUWAKU
100
AcDbLine
 10
8.796105740348878
 20
10.22499973251192
 30
0.0
 11
7.308605740348866
 21
10.22499973251192
 31
0.0
  0
LINE
  5
1D71
330
1A
100
AcDbEntity
  8
ZUWAKU
100
AcDbLine
 10
5.6461057403489
 20
10.22499973251192
 30
0.0
 11
5.6461057403489
 21
9.317398719834255
 31
0.0
  0
ARC
  5
1D72
330
1A
100
AcDbEntity
  8
ZUWAKU
100
AcDbCircle
 10
7.046105740348878
 20
10.22499973251192
 30
0.0
 40
1.399999999999999
100
AcDbArc
 50
90.0
 51
180.0
  0
LINE
  5
1D73
330
1A
100
AcDbEntity
  8
ZUWAKU
100
AcDbLine
 10
9.058605740348866
 20
11.36249973251192
 30
0.0
 11
9.058605740348866
 21
10.48749973251192
 31
0.0
  0
ARC
  5
1D74
330
1A
100
AcDbEntity
  8
ZUWAKU
100
AcDbCircle
 10
12.47110574034889
 20
9.524999732511925
 30
0.0
 40
0.7
100
AcDbArc
 50
90.0
 51
180.0
  0
ARC
  5
1D75
330
1A
100
AcDbEntity
  8
ZUWAKU
100
AcDbCircle
 10
12.47110574034889
 20
9.524999732511904
 30
0.0
 40
2.099999999999999
100
AcDbArc
 50
90.0
 51
180.0
  0
LINE
  5
1D76
330
1A
100
AcDbEntity
  8
ZUWAKU
100
AcDbLine
 10
39.66331443695242
 20
14.99999973251192
 30
0.0
 11
39.66331443695253
 21
0.399999732511958
 31
0.0
  0
LINE
  5
1D77
330
1A
100
AcDbEntity
  8
ZUWAKU
100
AcDbLine
 10
39.76331443695244
 20
14.99999973251192
 30
0.0
 11
39.76331443695255
 21
0.399999732511958
 31
0.0
  0
LINE
  5
1D78
330
1A
100
AcDbEntity
  8
ZUWAKU
100
AcDbLine
 10
39.56331443695251
 20
14.99999973251192
 30
0.0
 11
39.56331443695251
 21
0.399999732511958
 31
0.0
  0
LINE
  5
1D79
330
1A
100
AcDbEntity
  8
ZUWAKU
100
AcDbLine
 10
32.07110574034891
 20
4.974999732511925
 30
0.0
 11
32.07110574034891
 21
11.36249973251192
 31
0.0
  0
LINE
  5
1D7A
330
1A
100
AcDbEntity
  8
ZUWAKU
100
AcDbLine
 10
30.67110574034888
 20
11.36249973251192
 30
0.0
 11
30.67110574034888
 21
5.499999732511923
 31
0.0
  0
LINE
  5
1D7B
330
1A
100
AcDbEntity
  8
ZUWAKU
100
AcDbLine
 10
34.5211057403489
 20
3.837499732511925
 30
0.0
 11
34.5211057403489
 21
11.36249973251192
 31
0.0
  0
LINE
  5
1D7C
330
1A
100
AcDbEntity
  8
ZUWAKU
100
AcDbLine
 10
33.12110574034886
 20
11.36249973251192
 30
0.0
 11
33.12110574034886
 21
3.837499732511925
 31
0.0
  0
ARC
  5
1D7D
330
1A
100
AcDbEntity
  8
ZUWAKU
100
AcDbCircle
 10
24.8961057403489
 20
9.317398719834276
 30
0.0
 40
0.7
100
AcDbArc
 50
180.0000000000016
 51
224.9999999999988
  0
ARC
  5
1D7E
330
1A
100
AcDbEntity
  8
ZUWAKU
100
AcDbCircle
 10
24.8961057403489
 20
9.317398719834276
 30
0.0
 40
2.099999999999999
100
AcDbArc
 50
180.0
 51
225.0
  0
LINE
  5
1D7F
330
1A
100
AcDbEntity
  8
ZUWAKU
100
AcDbLine
 10
18.65742898143787
 20
9.602523329293639
 30
0.0
 11
18.02505310876995
 21
7.599999732511935
 31
0.0
  0
LINE
  5
1D80
330
1A
100
AcDbEntity
  8
ZUWAKU
100
AcDbLine
 10
20.34610574034889
 20
11.36249973251192
 30
0.0
 11
20.34610574034889
 21
3.837499732511925
 31
0.0
  0
LINE
  5
1D81
330
1A
100
AcDbEntity
  8
ZUWAKU
100
AcDbLine
 10
21.74610574034886
 20
3.837499732511925
 30
0.0
 11
21.74610574034886
 21
11.36249973251192
 31
0.0
  0
LINE
  5
1D82
330
1A
100
AcDbEntity
  8
ZUWAKU
100
AcDbLine
 10
27.5211057403489
 20
11.36249973251192
 30
0.0
 11
27.5211057403489
 21
4.974999732511925
 31
0.0
  0
LINE
  5
1D83
330
1A
100
AcDbEntity
  8
ZUWAKU
100
AcDbLine
 10
28.92110574034887
 20
5.499999732511923
 30
0.0
 11
28.92110574034887
 21
11.36249973251192
 31
0.0
  0
LINE
  5
1D84
330
1A
100
AcDbEntity
  8
ZUWAKU
100
AcDbLine
 10
16.32110574034891
 20
8.562499732511927
 30
0.0
 11
16.32110574034891
 21
11.36249973251192
 31
0.0
  0
LINE
  5
1D85
330
1A
100
AcDbEntity
  8
ZUWAKU
100
AcDbLine
 10
14.92110574034887
 20
11.36249973251192
 30
0.0
 11
14.92110574034887
 21
3.837499732511925
 31
0.0
  0
LINE
  5
1D86
330
1A
100
AcDbEntity
  8
ZUWAKU
100
AcDbLine
 10
17.83817320900681
 20
11.44154671659541
 30
0.0
 11
16.90403827169092
 21
8.48345274842844
 31
0.0
  0
LINE
  5
1D87
330
1A
100
AcDbEntity
  8
ZUWAKU
100
AcDbLine
 10
30.1461057403489
 20
4.974999732511925
 30
0.0
 11
29.44610574034891
 21
4.974999732511925
 31
0.0
  0
LINE
  5
1D88
330
1A
100
AcDbEntity
  8
ZUWAKU
100
AcDbLine
 10
28.92110574034887
 20
3.574999732511926
 30
0.0
 11
30.67110574034888
 21
3.574999732511926
 31
0.0
  0
LINE
  5
1D89
330
1A
100
AcDbEntity
  8
ZUWAKU
100
AcDbLine
 10
20.60860574034887
 20
3.574999732511926
 30
0.0
 11
21.48360574034887
 21
3.574999732511926
 31
0.0
  0
LINE
  5
1D8A
330
1A
100
AcDbEntity
  8
ZUWAKU
100
AcDbLine
 10
17.83817320900681
 20
3.758452748428439
 30
0.0
 11
16.90403827169092
 21
6.716546716595409
 31
0.0
  0
ARC
  5
1D8B
330
1A
100
AcDbEntity
  8
ZUWAKU
100
AcDbCircle
 10
16.65372282209324
 20
8.562499732511927
 30
0.0
 40
0.2625
100
AcDbArc
 50
270.0
 51
342.4744316262769
  0
LINE
  5
1D8C
330
1A
100
AcDbEntity
  8
ZUWAKU
100
AcDbLine
 10
16.65372282209324
 20
8.299999732511924
 30
0.0
 11
16.5836057403489
 21
8.299999732511924
 31
0.0
  0
LINE
  5
1D8D
330
1A
100
AcDbEntity
  8
ZUWAKU
100
AcDbLine
 10
16.5836057403489
 20
6.899999732511925
 30
0.0
 11
16.65372282209324
 21
6.899999732511925
 31
0.0
  0
ARC
  5
1D8E
330
1A
100
AcDbEntity
  8
ZUWAKU
100
AcDbCircle
 10
16.5836057403489
 20
8.562499732511927
 30
0.0
 40
0.2625
100
AcDbArc
 50
180.0
 51
270.0
  0
LINE
  5
1D8F
330
1A
100
AcDbEntity
  8
ZUWAKU
100
AcDbLine
 10
15.18360574034886
 20
3.574999732511926
 30
0.0
 11
16.05860574034886
 21
3.574999732511926
 31
0.0
  0
ARC
  5
1D90
330
1A
100
AcDbEntity
  8
ZUWAKU
100
AcDbCircle
 10
16.05860574034886
 20
3.837499732511925
 30
0.0
 40
0.2625
100
AcDbArc
 50
270.0
 51
0.0
  0
LINE
  5
1D91
330
1A
100
AcDbEntity
  8
ZUWAKU
100
AcDbLine
 10
16.32110574034891
 20
3.837499732511925
 30
0.0
 11
16.32110574034891
 21
6.637499732511926
 31
0.0
  0
LINE
  5
1D92
330
1A
100
AcDbEntity
  8
ZUWAKU
100
AcDbLine
 10
13.69610574034891
 20
4.712499732511925
 30
0.0
 11
13.69610574034891
 21
3.837499732511925
 31
0.0
  0
ARC
  5
1D93
330
1A
100
AcDbEntity
  8
ZUWAKU
100
AcDbCircle
 10
13.43360574034886
 20
3.837499732511925
 30
0.0
 40
0.2625
100
AcDbArc
 50
270.0
 51
0.0
  0
ARC
  5
1D94
330
1A
100
AcDbEntity
  8
ZUWAKU
100
AcDbCircle
 10
13.43360574034886
 20
4.712499732511925
 30
0.0
 40
0.2625
100
AcDbArc
 50
0.0
 51
90.0
  0
ARC
  5
1D95
330
1A
100
AcDbEntity
  8
ZUWAKU
100
AcDbCircle
 10
15.18360574034886
 20
3.837499732511925
 30
0.0
 40
0.2625
100
AcDbArc
 50
180.0
 51
270.0
  0
ARC
  5
1D96
330
1A
100
AcDbEntity
  8
ZUWAKU
100
AcDbCircle
 10
16.65372282209324
 20
6.637499732511926
 30
0.0
 40
0.2625
100
AcDbArc
 50
17.52556837372303
 51
90.0
  0
ARC
  5
1D97
330
1A
100
AcDbEntity
  8
ZUWAKU
100
AcDbCircle
 10
16.5836057403489
 20
6.637499732511926
 30
0.0
 40
0.2625
100
AcDbArc
 50
90.0
 51
180.0
  0
ARC
  5
1D98
330
1A
100
AcDbEntity
  8
ZUWAKU
100
AcDbCircle
 10
20.60860574034887
 20
3.837499732511925
 30
0.0
 40
0.2625
100
AcDbArc
 50
180.0
 51
270.0
  0
LINE
  5
1D99
330
1A
100
AcDbEntity
  8
ZUWAKU
100
AcDbLine
 10
18.08848865860454
 20
3.574999732511926
 30
0.0
 11
18.93793334840904
 21
3.574999732511926
 31
0.0
  0
ARC
  5
1D9A
330
1A
100
AcDbEntity
  8
ZUWAKU
100
AcDbCircle
 10
18.93793334840904
 20
3.837499732511925
 30
0.0
 40
0.2625
100
AcDbArc
 50
270.0
 51
17.52556837372303
  0
LINE
  5
1D9B
330
1A
100
AcDbEntity
  8
ZUWAKU
100
AcDbLine
 10
19.18824879800678
 20
3.916546716595412
 30
0.0
 11
18.02505310876995
 21
7.599999732511935
 31
0.0
  0
ARC
  5
1D9C
330
1A
100
AcDbEntity
  8
ZUWAKU
100
AcDbCircle
 10
18.08848865860454
 20
3.837499732511925
 30
0.0
 40
0.2625
100
AcDbArc
 50
197.525568373723
 51
270.0
  0
ARC
  5
1D9D
330
1A
100
AcDbEntity
  8
ZUWAKU
100
AcDbCircle
 10
28.92110574034887
 20
4.974999732511925
 30
0.0
 40
1.399999999999999
100
AcDbArc
 50
180.0
 51
270.0
  0
ARC
  5
1D9E
330
1A
100
AcDbEntity
  8
ZUWAKU
100
AcDbCircle
 10
25.07110574034891
 20
4.974999732511925
 30
0.0
 40
1.399999999999999
100
AcDbArc
 50
270.0
 51
0.0
  0
LINE
  5
1D9F
330
1A
100
AcDbEntity
  8
ZUWAKU
100
AcDbLine
 10
25.85602998084067
 20
7.367524985681338
 30
0.0
 11
24.40113099351828
 21
8.822423973003676
 31
0.0
  0
LINE
  5
1DA0
330
1A
100
AcDbEntity
  8
ZUWAKU
100
AcDbLine
 10
25.07110574034891
 20
5.237499732511928
 30
0.0
 11
25.07110574034891
 21
5.882600745189598
 31
0.0
  0
ARC
  5
1DA1
330
1A
100
AcDbEntity
  8
ZUWAKU
100
AcDbCircle
 10
24.37110574034886
 20
5.882600745189598
 30
0.0
 40
0.7
100
AcDbArc
 50
0.0
 51
45.0
  0
ARC
  5
1DA2
330
1A
100
AcDbEntity
  8
ZUWAKU
100
AcDbCircle
 10
24.80860574034887
 20
5.237499732511928
 30
0.0
 40
0.2625
100
AcDbArc
 50
270.0
 51
0.0
  0
LINE
  5
1DA3
330
1A
100
AcDbEntity
  8
ZUWAKU
100
AcDbLine
 10
23.05860574034886
 20
3.837499732511925
 30
0.0
 11
23.05860574034886
 21
4.712499732511925
 31
0.0
  0
ARC
  5
1DA4
330
1A
100
AcDbEntity
  8
ZUWAKU
100
AcDbCircle
 10
23.32110574034891
 20
3.837499732511925
 30
0.0
 40
0.2625
100
AcDbArc
 50
180.0
 51
270.0
  0
ARC
  5
1DA5
330
1A
100
AcDbEntity
  8
ZUWAKU
100
AcDbCircle
 10
21.48360574034887
 20
3.837499732511925
 30
0.0
 40
0.2625
100
AcDbArc
 50
270.0
 51
0.0
  0
ARC
  5
1DA6
330
1A
100
AcDbEntity
  8
ZUWAKU
100
AcDbCircle
 10
23.32110574034891
 20
4.712499732511925
 30
0.0
 40
0.2625
100
AcDbArc
 50
90.0
 51
180.0
  0
LINE
  5
1DA7
330
1A
100
AcDbEntity
  8
ZUWAKU
100
AcDbLine
 10
23.32110574034891
 20
4.974999732511925
 30
0.0
 11
24.80860574034887
 21
4.974999732511925
 31
0.0
  0
LINE
  5
1DA8
330
1A
100
AcDbEntity
  8
ZUWAKU
100
AcDbLine
 10
23.32110574034891
 20
3.574999732511926
 30
0.0
 11
25.07110574034891
 21
3.574999732511926
 31
0.0
  0
LINE
  5
1DA9
330
1A
100
AcDbEntity
  8
ZUWAKU
100
AcDbLine
 10
23.41118149985715
 20
7.832474479342515
 30
0.0
 11
24.86608048717949
 21
6.377575492020184
 31
0.0
  0
LINE
  5
1DAA
330
1A
100
AcDbEntity
  8
ZUWAKU
100
AcDbLine
 10
26.47110574034889
 20
4.974999732511925
 30
0.0
 11
26.47110574034889
 21
5.882600745189598
 31
0.0
  0
ARC
  5
1DAB
330
1A
100
AcDbEntity
  8
ZUWAKU
100
AcDbCircle
 10
24.37110574034886
 20
5.882600745189577
 30
0.0
 40
2.099999999999999
100
AcDbArc
 50
0.0
 51
45.0
  0
ARC
  5
1DAC
330
1A
100
AcDbEntity
  8
ZUWAKU
100
AcDbCircle
 10
29.44610574034891
 20
5.499999732511923
 30
0.0
 40
0.525
100
AcDbArc
 50
180.0
 51
270.0
  0
ARC
  5
1DAD
330
1A
100
AcDbEntity
  8
ZUWAKU
100
AcDbCircle
 10
30.67110574034888
 20
4.974999732511925
 30
0.0
 40
1.399999999999999
100
AcDbArc
 50
270.0
 51
0.0
  0
LINE
  5
1DAE
330
1A
100
AcDbEntity
  8
ZUWAKU
100
AcDbLine
 10
33.38360574034891
 20
3.574999732511926
 30
0.0
 11
34.25860574034891
 21
3.574999732511926
 31
0.0
  0
ARC
  5
1DAF
330
1A
100
AcDbEntity
  8
ZUWAKU
100
AcDbCircle
 10
33.38360574034891
 20
3.837499732511925
 30
0.0
 40
0.2625
100
AcDbArc
 50
180.0
 51
270.0
  0
ARC
  5
1DB0
330
1A
100
AcDbEntity
  8
ZUWAKU
100
AcDbCircle
 10
30.1461057403489
 20
5.499999732511923
 30
0.0
 40
0.525
100
AcDbArc
 50
270.0
 51
0.0
  0
ARC
  5
1DB1
330
1A
100
AcDbEntity
  8
ZUWAKU
100
AcDbCircle
 10
34.25860574034891
 20
3.837499732511925
 30
0.0
 40
0.2625
100
AcDbArc
 50
270.0
 51
0.0
  0
LINE
  5
1DB2
330
1A
100
AcDbEntity
  8
ZUWAKU
100
AcDbLine
 10
21.48360574034887
 20
11.62499973251192
 30
0.0
 11
20.60860574034887
 21
11.62499973251192
 31
0.0
  0
ARC
  5
1DB3
330
1A
100
AcDbEntity
  8
ZUWAKU
100
AcDbCircle
 10
16.05860574034886
 20
11.36249973251192
 30
0.0
 40
0.2625
100
AcDbArc
 50
0.0
 51
90.0
  0
LINE
  5
1DB4
330
1A
100
AcDbEntity
  8
ZUWAKU
100
AcDbLine
 10
16.05860574034886
 20
11.62499973251192
 30
0.0
 11
15.18360574034886
 21
11.62499973251192
 31
0.0
  0
ARC
  5
1DB5
330
1A
100
AcDbEntity
  8
ZUWAKU
100
AcDbCircle
 10
13.43360574034886
 20
11.36249973251192
 30
0.0
 40
0.2625
100
AcDbArc
 50
0.0
 51
90.0
  0
ARC
  5
1DB6
330
1A
100
AcDbEntity
  8
ZUWAKU
100
AcDbCircle
 10
15.18360574034886
 20
11.36249973251192
 30
0.0
 40
0.2625
100
AcDbArc
 50
90.0
 51
180.0
  0
ARC
  5
1DB7
330
1A
100
AcDbEntity
  8
ZUWAKU
100
AcDbCircle
 10
13.43360574034886
 20
10.48749973251192
 30
0.0
 40
0.2625
100
AcDbArc
 50
270.0
 51
0.0
  0
LINE
  5
1DB8
330
1A
100
AcDbEntity
  8
ZUWAKU
100
AcDbLine
 10
13.69610574034891
 20
11.36249973251192
 30
0.0
 11
13.69610574034891
 21
10.48749973251192
 31
0.0
  0
ARC
  5
1DB9
330
1A
100
AcDbEntity
  8
ZUWAKU
100
AcDbCircle
 10
20.60860574034887
 20
11.36249973251192
 30
0.0
 40
0.2625
100
AcDbArc
 50
90.0
 51
180.0
  0
LINE
  5
1DBA
330
1A
100
AcDbEntity
  8
ZUWAKU
100
AcDbLine
 10
18.08848865860454
 20
11.62499973251192
 30
0.0
 11
18.93793334840904
 21
11.62499973251192
 31
0.0
  0
ARC
  5
1DBB
330
1A
100
AcDbEntity
  8
ZUWAKU
100
AcDbCircle
 10
18.93793334840904
 20
11.36249973251192
 30
0.0
 40
0.2625
100
AcDbArc
 50
342.4744316262769
 51
90.0
  0
LINE
  5
1DBC
330
1A
100
AcDbEntity
  8
ZUWAKU
100
AcDbLine
 10
19.18824879800678
 20
11.28345274842844
 30
0.0
 11
18.65742898143787
 21
9.602523329293639
 31
0.0
  0
ARC
  5
1DBD
330
1A
100
AcDbEntity
  8
ZUWAKU
100
AcDbCircle
 10
18.08848865860454
 20
11.36249973251192
 30
0.0
 40
0.2625
100
AcDbArc
 50
90.0
 51
162.4744316262769
  0
LINE
  5
1DBE
330
1A
100
AcDbEntity
  8
ZUWAKU
100
AcDbLine
 10
24.19610574034891
 20
11.62499973251192
 30
0.0
 11
25.94610574034891
 21
11.62499973251192
 31
0.0
  0
LINE
  5
1DBF
330
1A
100
AcDbEntity
  8
ZUWAKU
100
AcDbLine
 10
25.94610574034891
 20
10.22499973251192
 30
0.0
 11
24.4586057403489
 21
10.22499973251192
 31
0.0
  0
ARC
  5
1DC0
330
1A
100
AcDbEntity
  8
ZUWAKU
100
AcDbCircle
 10
24.4586057403489
 20
9.962499732511925
 30
0.0
 40
0.2625
100
AcDbArc
 50
90.0
 51
180.0
  0
LINE
  5
1DC1
330
1A
100
AcDbEntity
  8
ZUWAKU
100
AcDbLine
 10
24.19610574034891
 20
9.962499732511925
 30
0.0
 11
24.19610574034891
 21
9.317398719834255
 31
0.0
  0
ARC
  5
1DC2
330
1A
100
AcDbEntity
  8
ZUWAKU
100
AcDbCircle
 10
21.48360574034887
 20
11.36249973251192
 30
0.0
 40
0.2625
100
AcDbArc
 50
0.0
 51
90.0
  0
LINE
  5
1DC3
330
1A
100
AcDbEntity
  8
ZUWAKU
100
AcDbLine
 10
22.79610574034887
 20
10.22499973251192
 30
0.0
 11
22.79610574034887
 21
9.317398719834255
 31
0.0
  0
ARC
  5
1DC4
330
1A
100
AcDbEntity
  8
ZUWAKU
100
AcDbCircle
 10
24.19610574034891
 20
10.22499973251192
 30
0.0
 40
1.399999999999999
100
AcDbArc
 50
90.0
 51
180.0
  0
ARC
  5
1DC5
330
1A
100
AcDbEntity
  8
ZUWAKU
100
AcDbCircle
 10
28.65860574034888
 20
11.36249973251192
 30
0.0
 40
0.2625
100
AcDbArc
 50
0.0
 51
90.0
  0
ARC
  5
1DC6
330
1A
100
AcDbEntity
  8
ZUWAKU
100
AcDbCircle
 10
27.78360574034889
 20
11.36249973251192
 30
0.0
 40
0.2625
100
AcDbArc
 50
90.0
 51
180.0
  0
LINE
  5
1DC7
330
1A
100
AcDbEntity
  8
ZUWAKU
100
AcDbLine
 10
28.65860574034888
 20
11.62499973251192
 30
0.0
 11
27.78360574034889
 21
11.62499973251192
 31
0.0
  0
ARC
  5
1DC8
330
1A
100
AcDbEntity
  8
ZUWAKU
100
AcDbCircle
 10
25.94610574034891
 20
11.36249973251192
 30
0.0
 40
0.2625
100
AcDbArc
 50
0.0
 51
90.0
  0
ARC
  5
1DC9
330
1A
100
AcDbEntity
  8
ZUWAKU
100
AcDbCircle
 10
25.94610574034891
 20
10.48749973251192
 30
0.0
 40
0.2625
100
AcDbArc
 50
270.0
 51
0.0
  0
LINE
  5
1DCA
330
1A
100
AcDbEntity
  8
ZUWAKU
100
AcDbLine
 10
26.2086057403489
 20
11.36249973251192
 30
0.0
 11
26.2086057403489
 21
10.48749973251192
 31
0.0
  0
LINE
  5
1DCB
330
1A
100
AcDbEntity
  8
ZUWAKU
100
AcDbLine
 10
34.25860574034891
 20
11.62499973251192
 30
0.0
 11
33.38360574034891
 21
11.62499973251192
 31
0.0
  0
ARC
  5
1DCC
330
1A
100
AcDbEntity
  8
ZUWAKU
100
AcDbCircle
 10
33.38360574034891
 20
11.36249973251192
 30
0.0
 40
0.2625
100
AcDbArc
 50
90.0
 51
180.0
  0
ARC
  5
1DCD
330
1A
100
AcDbEntity
  8
ZUWAKU
100
AcDbCircle
 10
31.80860574034886
 20
11.36249973251192
 30
0.0
 40
0.2625
100
AcDbArc
 50
0.0
 51
90.0
  0
LINE
  5
1DCE
330
1A
100
AcDbEntity
  8
ZUWAKU
100
AcDbLine
 10
31.80860574034886
 20
11.62499973251192
 30
0.0
 11
30.93360574034886
 21
11.62499973251192
 31
0.0
  0
ARC
  5
1DCF
330
1A
100
AcDbEntity
  8
ZUWAKU
100
AcDbCircle
 10
30.93360574034886
 20
11.36249973251192
 30
0.0
 40
0.2625
100
AcDbArc
 50
90.0
 51
180.0
  0
ARC
  5
1DD0
330
1A
100
AcDbEntity
  8
ZUWAKU
100
AcDbCircle
 10
34.25860574034891
 20
11.36249973251192
 30
0.0
 40
0.2625
100
AcDbArc
 50
0.0
 51
90.0
  0
TEXT
  5
1DD1
330
1A
100
AcDbEntity
  8
MOJI
100
AcDbText
 10
119.9136010033838
 20
9.002460261215617
 30
0.0
 40
2.799999999999999
  1
亜鉛メッキ金具正面打（受）
 41
0.9
  7
ｽﾀｲﾙ1
100
AcDbText
  0
TEXT
  5
1DD2
330
1A
100
AcDbEntity
  8
MOJI
100
AcDbText
 10
119.9136010033838
 20
1.602460261215634
 30
0.0
 40
2.799999999999999
  1
ＲＶ１０５－４－１０
 41
0.9
  7
ｽﾀｲﾙ1
100
AcDbText
  0
LINE
  5
1DD3
330
1A
100
AcDbEntity
  8
ZUWAKU
100
AcDbLine
 10
104.1233003079922
 20
14.99999973251192
 30
0.0
 11
104.1233003079922
 21
0.399999732511958
 31
0.0
  0
LINE
  5
1DD4
330
1A
100
AcDbEntity
  8
ZUWAKU
100
AcDbLine
 10
104.3233003079922
 20
14.99999973251192
 30
0.0
 11
104.3233003079923
 21
0.399999732511958
 31
0.0
  0
LINE
  5
1DD5
330
1A
100
AcDbEntity
  8
ZUWAKU
100
AcDbLine
 10
104.2233003079921
 20
14.99999973251192
 30
0.0
 11
104.2233003079922
 21
0.399999732511958
 31
0.0
  0
TEXT
  5
1DD6
330
1A
100
AcDbEntity
  8
ZUWAKU
100
AcDbText
 10
104.862022819097
 20
4.827678001704732
 30
0.0
 40
2.0
  1
サイズ
 41
0.9
  7
ｽﾀｲﾙ1
100
AcDbText
  0
TEXT
  5
1DD7
330
1A
100
AcDbEntity
  8
ZUWAKU
100
AcDbText
 10
104.8620228190969
 20
12.02767800170471
 30
0.0
 40
2.0
  1
品名
 41
0.9
  7
ｽﾀｲﾙ1
100
AcDbText
  0
LINE
  5
1DD8
330
1A
100
AcDbEntity
  8
ZUWAKU
100
AcDbLine
 10
324.4086009180604
 20
7.599999732511939
 30
0.0
 11
348.6245049372289
 21
7.599999732511941
 31
0.0
  0
LINE
  5
1DD9
330
1A
100
AcDbEntity
  8
ZUWAKU
100
AcDbLine
 10
324.4086009180605
 20
7.699999732511942
 30
0.0
 11
348.6245049372289
 21
7.69999973251194
 31
0.0
  0
LINE
  5
1DDA
330
1A
100
AcDbEntity
  8
ZUWAKU
100
AcDbLine
 10
324.4086009180604
 20
7.79999973251194
 30
0.0
 11
348.6245049372289
 21
7.79999973251194
 31
0.0
  0
TEXT
  5
1DDB
330
1A
100
AcDbEntity
  8
ZUWAKU
100
AcDbText
 10
329.1019685066095
 20
9.002460261215617
 30
0.0
 40
2.799999999999999
  1
　　．　　．　　
 41
0.9
  7
ｽﾀｲﾙ1
100
AcDbText
  0
LINE
  5
1DDC
330
1A
100
AcDbEntity
  8
ZUWAKU
100
AcDbLine
 10
252.5995894120287
 20
7.599999732511943
 30
0.0
 11
276.2634775460145
 21
7.599999732511943
 31
0.0
  0
LINE
  5
1DDD
330
1A
100
AcDbEntity
  8
ZUWAKU
100
AcDbLine
 10
252.5995894120287
 20
7.69999973251194
 30
0.0
 11
276.2634775460145
 21
7.69999973251194
 31
0.0
  0
LINE
  5
1DDE
330
1A
100
AcDbEntity
  8
ZUWAKU
100
AcDbLine
 10
252.5995894120287
 20
7.79999973251194
 30
0.0
 11
276.2634775460145
 21
7.79999973251194
 31
0.0
  0
TEXT
  5
1DDF
330
1A
100
AcDbEntity
  8
MOJI
100
AcDbText
 10
231.2836388239526
 20
5.971308593341916
 30
0.0
 40
2.799999999999999
  1
ＬＪ４８Ｇ
 41
0.9
  7
ｽﾀｲﾙ1
100
AcDbText
  0
LINE
  5
1DE0
330
1A
100
AcDbEntity
  8
ZUWAKU
100
AcDbLine
 10
223.8121816484539
 20
14.99999973251192
 30
0.0
 11
223.812181648454
 21
0.399999732511958
 31
0.0
  0
LINE
  5
1DE1
330
1A
100
AcDbEntity
  8
ZUWAKU
100
AcDbLine
 10
223.9121816484539
 20
14.99999973251192
 30
0.0
 11
223.912181648454
 21
0.399999732511958
 31
0.0
  0
LINE
  5
1DE2
330
1A
100
AcDbEntity
  8
ZUWAKU
100
AcDbLine
 10
223.712181648454
 20
14.99999973251192
 30
0.0
 11
223.712181648454
 21
0.399999732511958
 31
0.0
  0
TEXT
  5
1DE3
330
1A
100
AcDbEntity
  8
MOJI
100
AcDbText
 10
264.0204536491147
 20
9.002460261215617
 30
0.0
 40
2.799999999999999
  1
Ａ３
 41
0.9
  7
ｽﾀｲﾙ1
100
AcDbText
  0
LINE
  5
1DE4
330
1A
100
AcDbEntity
  8
ZUWAKU
100
AcDbLine
 10
252.4995894120287
 20
14.99999973251192
 30
0.0
 11
252.4995894120288
 21
0.399999732511958
 31
0.0
  0
LINE
  5
1DE5
330
1A
100
AcDbEntity
  8
ZUWAKU
100
AcDbLine
 10
252.5995894120287
 20
14.99999973251192
 30
0.0
 11
252.5995894120288
 21
0.399999732511958
 31
0.0
  0
LINE
  5
1DE6
330
1A
100
AcDbEntity
  8
ZUWAKU
100
AcDbLine
 10
252.3995894120288
 20
14.99999973251192
 30
0.0
 11
252.3995894120288
 21
0.399999732511958
 31
0.0
  0
TEXT
  5
1DE7
330
1A
100
AcDbEntity
  8
ZUWAKU
100
AcDbText
 10
253.3383119231336
 20
4.827678001704732
 30
0.0
 40
2.0
  1
縮尺
 41
0.9
  7
ｽﾀｲﾙ1
100
AcDbText
  0
TEXT
  5
1DE8
330
1A
100
AcDbEntity
  8
MOJI
100
AcDbText
 10
264.0204536491147
 20
1.602460261215634
 30
0.0
 40
2.799999999999999
  1
１/１
 41
0.9
  7
ｽﾀｲﾙ1
100
AcDbText
  0
TEXT
  5
1DE9
330
1A
100
AcDbEntity
  8
ZUWAKU
100
AcDbText
 10
224.6509041595587
 20
12.02767800170471
 30
0.0
 40
2.0
  1
品番
 41
0.9
  7
ｽﾀｲﾙ1
100
AcDbText
  0
TEXT
  5
1DEA
330
1A
100
AcDbEntity
  8
ZUWAKU
100
AcDbText
 10
253.3383119231335
 20
12.02767800170471
 30
0.0
 40
2.0
  1
用紙
 41
0.9
  7
ｽﾀｲﾙ1
100
AcDbText
  0
LINE
  5
1DEB
330
1A
100
AcDbEntity
  8
ZUWAKU
100
AcDbLine
 10
324.3086009180605
 20
14.99999973251192
 30
0.0
 11
324.3086009180606
 21
0.399999732511958
 31
0.0
  0
LINE
  5
1DEC
330
1A
100
AcDbEntity
  8
ZUWAKU
100
AcDbLine
 10
324.4086009180605
 20
14.99999973251192
 30
0.0
 11
324.4086009180606
 21
0.399999732511958
 31
0.0
  0
LINE
  5
1DED
330
1A
100
AcDbEntity
  8
ZUWAKU
100
AcDbLine
 10
324.2086009180606
 20
14.99999973251192
 30
0.0
 11
324.2086009180606
 21
0.399999732511958
 31
0.0
  0
LINE
  5
1DEE
330
1A
100
AcDbEntity
  8
ZUWAKU
100
AcDbLine
 10
276.3634775460144
 20
14.99999973251192
 30
0.0
 11
276.3634775460145
 21
0.399999732511958
 31
0.0
  0
LINE
  5
1DEF
330
1A
100
AcDbEntity
  8
ZUWAKU
100
AcDbLine
 10
276.4634775460144
 20
14.99999973251192
 30
0.0
 11
276.4634775460145
 21
0.399999732511958
 31
0.0
  0
LINE
  5
1DF0
330
1A
100
AcDbEntity
  8
ZUWAKU
100
AcDbLine
 10
276.2634775460145
 20
14.99999973251192
 30
0.0
 11
276.2634775460145
 21
0.399999732511958
 31
0.0
  0
TEXT
  5
1DF1
330
1A
100
AcDbEntity
  8
ZUWAKU
100
AcDbText
 10
325.1473234291653
 20
12.02767800170471
 30
0.0
 40
2.0
  1
DATE
 41
0.9
  7
ｽﾀｲﾙ1
100
AcDbText
  0
LINE
  5
1DF2
330
1A
100
AcDbEntity
  8
ZUWAKU
100
AcDbLine
 10
348.6245049372289
 20
14.99999973251192
 30
0.0
 11
348.6245049372289
 21
0.399999732511958
 31
0.0
  0
LINE
  5
1DF3
330
1A
100
AcDbEntity
  8
ZUWAKU
100
AcDbLine
 10
348.7245049372289
 20
14.99999973251192
 30
0.0
 11
348.7245049372289
 21
0.399999732511958
 31
0.0
  0
LINE
  5
1DF4
330
1A
100
AcDbEntity
  8
ZUWAKU
100
AcDbLine
 10
348.8245049372288
 20
14.99999973251192
 30
0.0
 11
348.8245049372289
 21
0.399999732511958
 31
0.0
  0
LINE
  5
1DF5
330
1A
100
AcDbEntity
  8
ZUWAKU
100
AcDbLine
 10
348.9245049372289
 20
14.99999973251192
 30
0.0
 11
348.924504937229
 21
0.399999732511958
 31
0.0
  0
TEXT
  5
1DF6
330
1A
100
AcDbEntity
  8
ZUWAKU
100
AcDbText
 10
354.2640417590802
 20
8.776919400355325
 30
0.0
 40
3.0
  1
積水化学工業株式会社
 41
0.9
  7
ｽﾀｲﾙ1
100
AcDbText
  0
TEXT
  5
1DF7
330
1A
100
AcDbEntity
  8
ZUWAKU
100
AcDbText
 10
354.2640417590802
 20
3.324419889438956
 30
0.0
 40
3.0
  1
建材事業部
 41
0.9
  7
ｽﾀｲﾙ1
100
AcDbText
  0
VIEWPORT
  5
22
330
17
100
AcDbEntity
 67
     1
  8
0
100
AcDbViewport
 10
313.6808219178082
 20
148.5
 30
0.0
 40
627.3616438356165
 41
297.0
 68
     2
 69
     1
1001
ACAD
1000
MVIEW
1002
{
1070
    16
1010
0.0
1020
0.0
1030
0.0
1010
0.0
1020
0.0
1030
1.0
1040
0.0
1040
297.0
1040
313.6808219178082
1040
148.5
1040
50.0
1040
0.0
1040
0.0
1070
     0
1070
   100
1070
     1
1070
     0
1070
     0
1070
     0
1070
     0
1070
     0
1040
0.0
1040
0.0
1040
0.0
1040
1.0
1040
1.0
1040
10.0
1040
10.0
1070
     0
1002
{
1002
}
1002
}
  0
VIEWPORT
  5
64
330
17
100
AcDbEntity
 67
     1
  8
VIEWPORT
100
AcDbViewport
 10
210.0
 20
148.5
 30
0.0
 40
420.0
 41
297.0
 68
     1
 69
     2
1001
ACAD
1000
MVIEW
1002
{
1070
    16
1010
0.0
1020
0.0
1030
0.0
1010
0.0
1020
0.0
1030
1.0
1040
0.0
1040
302.9399999999998
1040
210.0
1040
148.5
1040
50.0
1040
0.0
1040
0.0
1070
     0
1070
   100
1070
     1
1070
     0
1070
     0
1070
     0
1070
     0
1070
     0
1040
0.0
1040
0.0
1040
0.0
1040
5.0
1040
5.0
1040
0.0
1040
0.0
1070
     0
1002
{
1002
}
1002
}
  0
ENDSEC
  0
SECTION
  2
OBJECTS
  0
DICTIONARY
  5
C
330
0
100
AcDbDictionary
  3
ACAD_GROUP
350
D
  3
ACAD_LAYOUT
350
141
  3
ACAD_MLINESTYLE
350
E
  3
ACAD_PLOTSETTINGS
350
142
  3
ACAD_PLOTSTYLENAME
350
13F
  3
ACDBVARIABLEDICTIONARY
350
120D
  3
ACDBHEADERROUNDTRIPXREC
350
1E70
  0
DICTIONARY
  5
7A2
330
1A
100
AcDbDictionary
280
     1
  3
ACAD_LAYOUTSELFREF
360
1E92
  0
DICTIONARY
  5
7A0
330
17
100
AcDbDictionary
280
     1
  3
ACAD_LAYOUTSELFREF
360
1E91
  0
DICTIONARY
  5
D
102
{ACAD_REACTORS
330
C
102
}
330
C
100
AcDbDictionary
  0
DICTIONARY
  5
141
102
{ACAD_REACTORS
330
C
102
}
330
C
100
AcDbDictionary
  0
DICTIONARY
  5
E
102
{ACAD_REACTORS
330
C
102
}
330
C
100
AcDbDictionary
  3
STANDARD
350
13
  0
DICTIONARY
  5
142
102
{ACAD_REACTORS
330
C
102
}
330
C
100
AcDbDictionary
  0
ACDBDICTIONARYWDFLT
  5
13F
102
{ACAD_REACTORS
330
C
102
}
330
C
100
AcDbDictionary
281
     1
  3
Normal
350
140
100
AcDbDictionaryWithDefault
340
140
1001
ACAD
1000
TREAT_AS_HARD
1070
     0
1000
TREAT_AS_HARD
1070
     0
1000
TREAT_AS_HARD
1070
     0
1000
TREAT_AS_HARD
1070
     0
1000
TREAT_AS_HARD
1070
     0
1000
TREAT_AS_HARD
1070
     0
1000
TREAT_AS_HARD
1070
     0
1000
TREAT_AS_HARD
1070
     0
1000
TREAT_AS_HARD
1070
     0
1000
TREAT_AS_HARD
1070
     0
1000
TREAT_AS_HARD
1070
     0
1000
TREAT_AS_HARD
1070
     0
  0
DICTIONARY
  5
120D
102
{ACAD_REACTORS
330
C
102
}
330
C
100
AcDbDictionary
  3
SORTENTS
350
120E
  0
DICTIONARY
  5
1E70
102
{ACAD_REACTORS
330
C
102
}
330
C
100
AcDbDictionary
  3
TSTACKALIGN
350
1E71
  3
TSTACKSIZE
350
1E72
  3
HYPERLINKBASE
350
1E73
  3
STYLESHEET
350
1E74
  3
LAYOUTDICT
350
1E75
  3
PLOTSETDICT
350
1E76
  3
PLOTSTYLNAMDICT
350
1E77
  3
LWETCUNION
350
1E78
  3
INSUNITS
350
1E79
  3
CEPSNTYPE
350
1E7A
  3
FINGERPRINTGUID
350
1E7B
  3
VERSIONGUID
350
1E7C
  3
PSVPSCALE
350
1E7D
  3
DIMSTYLEDATA
350
1E7E
  3
PUCSORTHOREF
350
1E7F
  3
PUCSORTHOVIEW
350
1E80
  3
PUCSBASE
350
1E81
  3
PUCSORGTOP
350
1E82
  3
PUCSORGBOTTOM
350
1E83
  3
PUCSORGLEFT
350
1E84
  3
PUCSORGRIGHT
350
1E85
  3
PUCSORGFRONT
350
1E86
  3
PUCSORGBACK
350
1E87
  3
UCSORTHOREF
350
1E88
  3
UCSORTHOVIEW
350
1E89
  3
UCSBASE
350
1E8A
  3
UCSORGTOP
350
1E8B
  3
UCSORGBOTTOM
350
1E8C
  3
UCSORGLEFT
350
1E8D
  3
UCSORGRIGHT
350
1E8E
  3
UCSORGFRONT
350
1E8F
  3
UCSORGBACK
350
1E90
  0
XRECORD
  5
1E92
102
{ACAD_REACTORS
330
7A2
102
}
330
7A2
100
AcDbXrecord
340
1A
  0
XRECORD
  5
1E91
102
{ACAD_REACTORS
330
7A0
102
}
330
7A0
100
AcDbXrecord
340
17
  0
MLINESTYLE
  5
13
102
{ACAD_REACTORS
330
E
102
}
330
E
100
AcDbMlineStyle
  2
STANDARD
 70
     0
  3

 62
     0
 51
90.0
 52
90.0
 71
     2
 49
0.5
 62
   256
  6
BYLAYER
 49
-0.5
 62
   256
  6
BYLAYER
  0
ACDBPLACEHOLDER
  5
140
102
{ACAD_REACTORS
330
13F
102
}
330
13F
100
AcDbPlaceHolder
280
     0
  0
DICTIONARYVAR
  5
120E
102
{ACAD_REACTORS
330
120D
102
}
330
120D
100
DictionaryVariables
280
     0
  1
96
  0
XRECORD
  5
1E71
102
{ACAD_REACTORS
330
1E70
102
}
330
1E70
100
AcDbXrecord
 90
        1
  0
XRECORD
  5
1E72
102
{ACAD_REACTORS
330
1E70
102
}
330
1E70
100
AcDbXrecord
 90
       70
  0
XRECORD
  5
1E73
102
{ACAD_REACTORS
330
1E70
102
}
330
1E70
100
AcDbXrecord
  1

  0
XRECORD
  5
1E74
102
{ACAD_REACTORS
330
1E70
102
}
330
1E70
100
AcDbXrecord
  1
systemprinter.ctb
  0
XRECORD
  5
1E75
102
{ACAD_REACTORS
330
1E70
102
}
330
1E70
100
AcDbXrecord
340
141
  0
XRECORD
  5
1E76
102
{ACAD_REACTORS
330
1E70
102
}
330
1E70
100
AcDbXrecord
340
142
  0
XRECORD
  5
1E77
102
{ACAD_REACTORS
330
1E70
102
}
330
1E70
100
AcDbXrecord
340
13F
  0
XRECORD
  5
1E78
102
{ACAD_REACTORS
330
1E70
102
}
330
1E70
100
AcDbXrecord
 90
    10781
  0
XRECORD
  5
1E79
102
{ACAD_REACTORS
330
1E70
102
}
330
1E70
100
AcDbXrecord
 90
        0
  0
XRECORD
  5
1E7A
102
{ACAD_REACTORS
330
1E70
102
}
330
1E70
100
AcDbXrecord
 90
        0
  0
XRECORD
  5
1E7B
102
{ACAD_REACTORS
330
1E70
102
}
330
1E70
100
AcDbXrecord
  1
{4E8D0500-CDD1-11D3-932C-444553540000}
  0
XRECORD
  5
1E7C
102
{ACAD_REACTORS
330
1E70
102
}
330
1E70
100
AcDbXrecord
  1
{A93052DF-CAF1-4AC5-BBCC-92964C0C5FDE}
  0
XRECORD
  5
1E7D
102
{ACAD_REACTORS
330
1E70
102
}
330
1E70
100
AcDbXrecord
 40
0.0
  0
XRECORD
  5
1E7E
102
{ACAD_REACTORS
330
1E70
102
}
330
1E70
100
AcDbXrecord
1000
DSTYLE
1002
{
1070
   341
340
B2
1070
   343
340
B2
1070
   344
340
B2
1070
   371
 70
    -1
1070
   372
 70
    -1
1002
}
  0
XRECORD
  5
1E7F
102
{ACAD_REACTORS
330
1E70
102
}
330
1E70
100
AcDbXrecord
340
0
  0
XRECORD
  5
1E80
102
{ACAD_REACTORS
330
1E70
102
}
330
1E70
100
AcDbXrecord
 70
     0
  0
XRECORD
  5
1E81
102
{ACAD_REACTORS
330
1E70
102
}
330
1E70
100
AcDbXrecord
340
0
  0
XRECORD
  5
1E82
102
{ACAD_REACTORS
330
1E70
102
}
330
1E70
100
AcDbXrecord
 10
0.0
 20
0.0
 30
0.0
  0
XRECORD
  5
1E83
102
{ACAD_REACTORS
330
1E70
102
}
330
1E70
100
AcDbXrecord
 10
0.0
 20
0.0
 30
0.0
  0
XRECORD
  5
1E84
102
{ACAD_REACTORS
330
1E70
102
}
330
1E70
100
AcDbXrecord
 10
0.0
 20
0.0
 30
0.0
  0
XRECORD
  5
1E85
102
{ACAD_REACTORS
330
1E70
102
}
330
1E70
100
AcDbXrecord
 10
0.0
 20
0.0
 30
0.0
  0
XRECORD
  5
1E86
102
{ACAD_REACTORS
330
1E70
102
}
330
1E70
100
AcDbXrecord
 10
0.0
 20
0.0
 30
0.0
  0
XRECORD
  5
1E87
102
{ACAD_REACTORS
330
1E70
102
}
330
1E70
100
AcDbXrecord
 10
0.0
 20
0.0
 30
0.0
  0
XRECORD
  5
1E88
102
{ACAD_REACTORS
330
1E70
102
}
330
1E70
100
AcDbXrecord
340
0
  0
XRECORD
  5
1E89
102
{ACAD_REACTORS
330
1E70
102
}
330
1E70
100
AcDbXrecord
 70
     0
  0
XRECORD
  5
1E8A
102
{ACAD_REACTORS
330
1E70
102
}
330
1E70
100
AcDbXrecord
340
0
  0
XRECORD
  5
1E8B
102
{ACAD_REACTORS
330
1E70
102
}
330
1E70
100
AcDbXrecord
 10
0.0
 20
0.0
 30
0.0
  0
XRECORD
  5
1E8C
102
{ACAD_REACTORS
330
1E70
102
}
330
1E70
100
AcDbXrecord
 10
0.0
 20
0.0
 30
0.0
  0
XRECORD
  5
1E8D
102
{ACAD_REACTORS
330
1E70
102
}
330
1E70
100
AcDbXrecord
 10
0.0
 20
0.0
 30
0.0
  0
XRECORD
  5
1E8E
102
{ACAD_REACTORS
330
1E70
102
}
330
1E70
100
AcDbXrecord
 10
0.0
 20
0.0
 30
0.0
  0
XRECORD
  5
1E8F
102
{ACAD_REACTORS
330
1E70
102
}
330
1E70
100
AcDbXrecord
 10
0.0
 20
0.0
 30
0.0
  0
XRECORD
  5
1E90
102
{ACAD_REACTORS
330
1E70
102
}
330
1E70
100
AcDbXrecord
 10
0.0
 20
0.0
 30
0.0
  0
ENDSEC
  0
EOF
