  0
SECTION
  2
HEADER
  9
$ACADVER
  1
AC1014
  9
$ACADMAINTVER
 70
     9
  9
$DWGCODEPAGE
  3
ANSI_932
  9
$INSBASE
 10
0.0
 20
0.0
 30
0.0
  9
$EXTMIN
 10
-0.0128167419908323
 20
-0.0090632967028341
 30
-23.49273252472774
  9
$EXTMAX
 10
398.8000497643211
 20
275.8226172249287
 30
0.0007169841209702
  9
$LIMMIN
 10
0.0
 20
0.0
  9
$LIMMAX
 10
420.0
 20
297.0
  9
$ORTHOMODE
 70
     0
  9
$REGENMODE
 70
     1
  9
$FILLMODE
 70
     1
  9
$QTEXTMODE
 70
     0
  9
$MIRRTEXT
 70
     1
  9
$DRAGMODE
 70
     2
  9
$LTSCALE
 40
5.0
  9
$OSMODE
 70
    35
  9
$ATTMODE
 70
     1
  9
$TEXTSIZE
 40
3.0
  9
$TRACEWID
 40
1.0
  9
$TEXTSTYLE
  7
STANDARD
  9
$CLAYER
  8
SEIHIN
  9
$CELTYPE
  6
BYLAYER
  9
$CECOLOR
 62
   256
  9
$CELTSCALE
 40
1.0
  9
$DELOBJ
 70
     1
  9
$DISPSILH
 70
     0
  9
$DIMSCALE
 40
1.0
  9
$DIMASZ
 40
3.0
  9
$DIMEXO
 40
3.0
  9
$DIMDLI
 40
7.0
  9
$DIMRND
 40
0.0
  9
$DIMDLE
 40
0.0
  9
$DIMEXE
 40
1.5
  9
$DIMTP
 40
0.0
  9
$DIMTM
 40
0.0
  9
$DIMTXT
 40
3.0
  9
$DIMCEN
 40
3.0
  9
$DIMTSZ
 40
0.0
  9
$DIMTOL
 70
     0
  9
$DIMLIM
 70
     0
  9
$DIMTIH
 70
     0
  9
$DIMTOH
 70
     0
  9
$DIMSE1
 70
     0
  9
$DIMSE2
 70
     0
  9
$DIMTAD
 70
     3
  9
$DIMZIN
 70
     0
  9
$DIMBLK
  1

  9
$DIMASO
 70
     1
  9
$DIMSHO
 70
     1
  9
$DIMPOST
  1

  9
$DIMAPOST
  1

  9
$DIMALT
 70
     0
  9
$DIMALTD
 70
     2
  9
$DIMALTF
 40
25.4
  9
$DIMLFAC
 40
1.0
  9
$DIMTOFL
 70
     1
  9
$DIMTVP
 40
0.0
  9
$DIMTIX
 70
     0
  9
$DIMSOXD
 70
     0
  9
$DIMSAH
 70
     1
  9
$DIMBLK1
  1
OPEN
  9
$DIMBLK2
  1
OPEN
  9
$DIMSTYLE
  2
STANDARD
  9
$DIMCLRD
 70
   256
  9
$DIMCLRE
 70
   256
  9
$DIMCLRT
 70
   256
  9
$DIMTFAC
 40
1.0
  9
$DIMGAP
 40
1.0
  9
$DIMJUST
 70
     0
  9
$DIMSD1
 70
     0
  9
$DIMSD2
 70
     0
  9
$DIMTOLJ
 70
     1
  9
$DIMTZIN
 70
     0
  9
$DIMALTZ
 70
     0
  9
$DIMALTTZ
 70
     0
  9
$DIMFIT
 70
     3
  9
$DIMUPT
 70
     0
  9
$DIMUNIT
 70
     2
  9
$DIMDEC
 70
     0
  9
$DIMTDEC
 70
     0
  9
$DIMALTU
 70
     2
  9
$DIMALTTD
 70
     2
  9
$DIMTXSTY
  7
STANDARD
  9
$DIMAUNIT
 70
     0
  9
$LUNITS
 70
     2
  9
$LUPREC
 70
     4
  9
$SKETCHINC
 40
1.0
  9
$FILLETRAD
 40
0.3
  9
$AUNITS
 70
     0
  9
$AUPREC
 70
     0
  9
$MENU
  1
.
  9
$ELEVATION
 40
0.0
  9
$PELEVATION
 40
0.0
  9
$THICKNESS
 40
0.0
  9
$LIMCHECK
 70
     0
  9
$BLIPMODE
 70
     0
  9
$CHAMFERA
 40
10.0
  9
$CHAMFERB
 40
10.0
  9
$CHAMFERC
 40
20.0
  9
$CHAMFERD
 40
0.0
  9
$SKPOLY
 70
     0
  9
$TDCREATE
 40
2451589.469382176
  9
$TDUPDATE
 40
2453802.494328333
  9
$TDINDWG
 40
0.1796336921
  9
$TDUSRTIMER
 40
0.1796336921
  9
$USRTIMER
 70
     1
  9
$ANGBASE
 50
0.0
  9
$ANGDIR
 70
     0
  9
$PDMODE
 70
     0
  9
$PDSIZE
 40
0.0
  9
$PLINEWID
 40
0.0
  9
$COORDS
 70
     1
  9
$SPLFRAME
 70
     0
  9
$SPLINETYPE
 70
     6
  9
$SPLINESEGS
 70
     8
  9
$ATTDIA
 70
     0
  9
$ATTREQ
 70
     1
  9
$HANDLING
 70
 10241
  9
$HANDSEED
  5
1EC5
  9
$SURFTAB1
 70
     6
  9
$SURFTAB2
 70
     6
  9
$SURFTYPE
 70
     6
  9
$SURFU
 70
     6
  9
$SURFV
 70
     6
  9
$UCSNAME
  2

  9
$UCSORG
 10
0.0
 20
0.0
 30
0.0
  9
$UCSXDIR
 10
1.0
 20
0.0
 30
0.0
  9
$UCSYDIR
 10
0.0
 20
1.0
 30
0.0
  9
$PUCSNAME
  2

  9
$PUCSORG
 10
0.0
 20
0.0
 30
0.0
  9
$PUCSXDIR
 10
1.0
 20
0.0
 30
0.0
  9
$PUCSYDIR
 10
0.0
 20
1.0
 30
0.0
  9
$USERI1
 70
     0
  9
$USERI2
 70
     0
  9
$USERI3
 70
     0
  9
$USERI4
 70
     0
  9
$USERI5
 70
     0
  9
$USERR1
 40
0.0
  9
$USERR2
 40
0.0
  9
$USERR3
 40
0.0
  9
$USERR4
 40
0.0
  9
$USERR5
 40
0.0
  9
$WORLDVIEW
 70
     1
  9
$SHADEDGE
 70
     3
  9
$SHADEDIF
 70
    70
  9
$TILEMODE
 70
     1
  9
$MAXACTVP
 70
    16
  9
$PINSBASE
 10
0.0
 20
0.0
 30
0.0
  9
$PLIMCHECK
 70
     0
  9
$PEXTMIN
 10
0.0
 20
0.0
 30
0.0
  9
$PEXTMAX
 10
420.0
 20
297.0
 30
0.0
  9
$PLIMMIN
 10
0.0
 20
0.0
  9
$PLIMMAX
 10
420.0
 20
297.0
  9
$UNITMODE
 70
     0
  9
$VISRETAIN
 70
     0
  9
$PLINEGEN
 70
     0
  9
$PSLTSCALE
 70
     1
  9
$TREEDEPTH
 70
  3020
  9
$PICKSTYLE
 70
     1
  9
$CMLSTYLE
  2
STANDARD
  9
$CMLJUST
 70
     0
  9
$CMLSCALE
 40
1.0
  9
$PROXYGRAPHICS
 70
     1
  9
$MEASUREMENT
 70
     0
  0
ENDSEC
  0
SECTION
  2
CLASSES
  0
CLASS
  1
ACDBDICTIONARYWDFLT
  2
AcDbDictionaryWithDefault
  3
AutoCAD 2000
 90
        0
280
     0
281
     0
  0
CLASS
  1
ACDBPLACEHOLDER
  2
AcDbPlaceHolder
  3
AutoCAD 2000
 90
        0
280
     0
281
     0
  0
CLASS
  1
LAYOUT
  2
AcDbLayout
  3
AutoCAD 2000
 90
        0
280
     0
281
     0
  0
CLASS
  1
LONG_TRANSACTION
  2
AcDbLongTransaction
  3
AutoCAD 2000
 90
        0
280
     0
281
     0
  0
CLASS
  1
LWPOLYLINE
  2
AcDbPolyline
  3
AutoCAD 2000
 90
        0
280
     0
281
     1
  0
CLASS
  1
HATCH
  2
AcDbHatch
  3
AutoCAD 2000
 90
        0
280
     0
281
     1
  0
CLASS
  1
XRECORD
  2
AcDbXrecord
  3
AutoCAD 2000
 90
        0
280
     0
281
     0
  0
CLASS
  1
LONG_TRANSACTION
  2
AcDbLongTransaction
  3
AutoCAD 2000
 90
        0
280
     0
281
     0
  0
CLASS
  1
LWPOLYLINE
  2
AcDbPolyline
  3
AutoCAD 2000
 90
        0
280
     0
281
     1
  0
CLASS
  1
HATCH
  2
AcDbHatch
  3
AutoCAD 2000
 90
        0
280
     0
281
     1
  0
CLASS
  1
XRECORD
  2
AcDbXrecord
  3
AutoCAD 2000
 90
        0
280
     0
281
     0
  0
CLASS
  1
DICTIONARYVAR
  2
AcDbDictionaryVar
  3
AutoCAD 2000
 90
        0
280
     0
281
     0
  0
CLASS
  1
LONG_TRANSACTION
  2
AcDbLongTransaction
  3
AutoCAD 2000
 90
        0
280
     0
281
     0
  0
CLASS
  1
LWPOLYLINE
  2
AcDbPolyline
  3
AutoCAD 2000
 90
        0
280
     0
281
     1
  0
CLASS
  1
HATCH
  2
AcDbHatch
  3
AutoCAD 2000
 90
        0
280
     0
281
     1
  0
CLASS
  1
XRECORD
  2
AcDbXrecord
  3
AutoCAD 2000
 90
        0
280
     0
281
     0
  0
CLASS
  1
LONG_TRANSACTION
  2
AcDbLongTransaction
  3
AutoCAD 2000
 90
        0
280
     0
281
     0
  0
CLASS
  1
LWPOLYLINE
  2
AcDbPolyline
  3
AutoCAD 2000
 90
        0
280
     0
281
     1
  0
CLASS
  1
HATCH
  2
AcDbHatch
  3
AutoCAD 2000
 90
        0
280
     0
281
     1
  0
CLASS
  1
XRECORD
  2
AcDbXrecord
  3
AutoCAD 2000
 90
        0
280
     0
281
     0
  0
CLASS
  1
LONG_TRANSACTION
  2
AcDbLongTransaction
  3
AutoCAD 2000
 90
        0
280
     0
281
     0
  0
CLASS
  1
LWPOLYLINE
  2
AcDbPolyline
  3
AutoCAD 2000
 90
        0
280
     0
281
     1
  0
CLASS
  1
HATCH
  2
AcDbHatch
  3
AutoCAD 2000
 90
        0
280
     0
281
     1
  0
CLASS
  1
XRECORD
  2
AcDbXrecord
  3
AutoCAD 2000
 90
        0
280
     0
281
     0
  0
CLASS
  1
LONG_TRANSACTION
  2
AcDbLongTransaction
  3
AutoCAD 2000
 90
        0
280
     0
281
     0
  0
CLASS
  1
LWPOLYLINE
  2
AcDbPolyline
  3
AutoCAD 2000
 90
        0
280
     0
281
     1
  0
CLASS
  1
HATCH
  2
AcDbHatch
  3
AutoCAD 2000
 90
        0
280
     0
281
     1
  0
CLASS
  1
XRECORD
  2
AcDbXrecord
  3
AutoCAD 2000
 90
        0
280
     0
281
     0
  0
CLASS
  1
LONG_TRANSACTION
  2
AcDbLongTransaction
  3
AutoCAD 2000
 90
        0
280
     0
281
     0
  0
CLASS
  1
LWPOLYLINE
  2
AcDbPolyline
  3
AutoCAD 2000
 90
        0
280
     0
281
     1
  0
CLASS
  1
HATCH
  2
AcDbHatch
  3
AutoCAD 2000
 90
        0
280
     0
281
     1
  0
CLASS
  1
XRECORD
  2
AcDbXrecord
  3
AutoCAD 2000
 90
        0
280
     0
281
     0
  0
CLASS
  1
LONG_TRANSACTION
  2
AcDbLongTransaction
  3
AutoCAD 2000
 90
        0
280
     0
281
     0
  0
CLASS
  1
LWPOLYLINE
  2
AcDbPolyline
  3
AutoCAD 2000
 90
        0
280
     0
281
     1
  0
CLASS
  1
HATCH
  2
AcDbHatch
  3
AutoCAD 2000
 90
        0
280
     0
281
     1
  0
CLASS
  1
XRECORD
  2
AcDbXrecord
  3
AutoCAD 2000
 90
        0
280
     0
281
     0
  0
CLASS
  1
LONG_TRANSACTION
  2
AcDbLongTransaction
  3
AutoCAD 2000
 90
        0
280
     0
281
     0
  0
CLASS
  1
LWPOLYLINE
  2
AcDbPolyline
  3
AutoCAD 2000
 90
        0
280
     0
281
     1
  0
CLASS
  1
HATCH
  2
AcDbHatch
  3
AutoCAD 2000
 90
        0
280
     0
281
     1
  0
CLASS
  1
XRECORD
  2
AcDbXrecord
  3
AutoCAD 2000
 90
        0
280
     0
281
     0
  0
CLASS
  1
LONG_TRANSACTION
  2
AcDbLongTransaction
  3
AutoCAD 2000
 90
        0
280
     0
281
     0
  0
CLASS
  1
LWPOLYLINE
  2
AcDbPolyline
  3
AutoCAD 2000
 90
        0
280
     0
281
     1
  0
CLASS
  1
HATCH
  2
AcDbHatch
  3
AutoCAD 2000
 90
        0
280
     0
281
     1
  0
CLASS
  1
XRECORD
  2
AcDbXrecord
  3
AutoCAD 2000
 90
        0
280
     0
281
     0
  0
CLASS
  1
LONG_TRANSACTION
  2
AcDbLongTransaction
  3
AutoCAD 2000
 90
        0
280
     0
281
     0
  0
CLASS
  1
LWPOLYLINE
  2
AcDbPolyline
  3
AutoCAD 2000
 90
        0
280
     0
281
     1
  0
CLASS
  1
HATCH
  2
AcDbHatch
  3
AutoCAD 2000
 90
        0
280
     0
281
     1
  0
CLASS
  1
XRECORD
  2
AcDbXrecord
  3
AutoCAD 2000
 90
        0
280
     0
281
     0
  0
CLASS
  1
LONG_TRANSACTION
  2
AcDbLongTransaction
  3
AutoCAD 2000
 90
        0
280
     0
281
     0
  0
CLASS
  1
LWPOLYLINE
  2
AcDbPolyline
  3
AutoCAD 2000
 90
        0
280
     0
281
     1
  0
CLASS
  1
HATCH
  2
AcDbHatch
  3
AutoCAD 2000
 90
        0
280
     0
281
     1
  0
CLASS
  1
XRECORD
  2
AcDbXrecord
  3
AutoCAD 2000
 90
        0
280
     0
281
     0
  0
CLASS
  1
LONG_TRANSACTION
  2
AcDbLongTransaction
  3
AutoCAD 2000
 90
        0
280
     0
281
     0
  0
CLASS
  1
LWPOLYLINE
  2
AcDbPolyline
  3
AutoCAD 2000
 90
        0
280
     0
281
     1
  0
CLASS
  1
HATCH
  2
AcDbHatch
  3
AutoCAD 2000
 90
        0
280
     0
281
     1
  0
CLASS
  1
XRECORD
  2
AcDbXrecord
  3
AutoCAD 2000
 90
        0
280
     0
281
     0
  0
CLASS
  1
LONG_TRANSACTION
  2
AcDbLongTransaction
  3
AutoCAD 2000
 90
        0
280
     0
281
     0
  0
CLASS
  1
LWPOLYLINE
  2
AcDbPolyline
  3
AutoCAD 2000
 90
        0
280
     0
281
     1
  0
CLASS
  1
HATCH
  2
AcDbHatch
  3
AutoCAD 2000
 90
        0
280
     0
281
     1
  0
CLASS
  1
XRECORD
  2
AcDbXrecord
  3
AutoCAD 2000
 90
        0
280
     0
281
     0
  0
ENDSEC
  0
SECTION
  2
TABLES
  0
TABLE
  2
VPORT
  5
8
330
0
100
AcDbSymbolTable
 70
     2
  0
VPORT
  5
1EA1
330
8
100
AcDbSymbolTableRecord
100
AcDbViewportTableRecord
  2
*ACTIVE
 70
     0
 10
0.0
 20
0.0
 11
1.0
 21
1.0
 12
217.9764798171027
 22
145.0870072554354
 13
0.0
 23
0.0
 14
5.0
 24
5.0
 15
0.0
 25
0.0
 16
0.0
 26
0.0
 36
1.0
 17
0.0
 27
0.0
 37
0.0
 40
300.3433393075277
 41
1.795454545454545
 42
50.0
 43
0.0
 44
0.0
 50
0.0
 51
0.0
 71
     0
 72
   100
 73
     1
 74
     0
 75
     0
 76
     0
 77
     0
 78
     0
  0
ENDTAB
  0
TABLE
  2
LTYPE
  5
5
330
0
100
AcDbSymbolTable
 70
     3
  0
LTYPE
  5
14
330
5
100
AcDbSymbolTableRecord
100
AcDbLinetypeTableRecord
  2
BYBLOCK
 70
     0
  3

 72
    65
 73
     0
 40
0.0
  0
LTYPE
  5
15
330
5
100
AcDbSymbolTableRecord
100
AcDbLinetypeTableRecord
  2
BYLAYER
 70
     0
  3

 72
    65
 73
     0
 40
0.0
  0
LTYPE
  5
16
330
5
100
AcDbSymbolTableRecord
100
AcDbLinetypeTableRecord
  2
CONTINUOUS
 70
     0
  3
Solid line
 72
    65
 73
     0
 40
0.0
  0
LTYPE
  5
120
330
5
100
AcDbSymbolTableRecord
100
AcDbLinetypeTableRecord
  2
CENTER
 70
     0
  3
____ _ ____ _ ____ _ ____ _ ____ _ ____ _ ____ 
 72
    65
 73
     4
 40
2.0
 49
1.25
 74
     0
 49
-0.25
 74
     0
 49
0.25
 74
     0
 49
-0.25
 74
     0
  0
LTYPE
  5
122
330
5
100
AcDbSymbolTableRecord
100
AcDbLinetypeTableRecord
  2
PHANTOM
 70
     0
  3
______  __  __  ______  __  __  ______  __  __ 
 72
    65
 73
     6
 40
2.5
 49
1.25
 74
     0
 49
-0.25
 74
     0
 49
0.25
 74
     0
 49
-0.25
 74
     0
 49
0.25
 74
     0
 49
-0.25
 74
     0
  0
ENDTAB
  0
TABLE
  2
LAYER
  5
2
330
0
100
AcDbSymbolTable
 70
     9
  0
LAYER
  5
F
330
2
100
AcDbSymbolTableRecord
100
AcDbLayerTableRecord
  2
0
 70
     0
 62
     7
  6
CONTINUOUS
  0
LAYER
  5
62
330
2
100
AcDbSymbolTableRecord
100
AcDbLayerTableRecord
  2
VIEWPORT
 70
     0
 62
     7
  6
CONTINUOUS
  0
LAYER
  5
6B
330
2
100
AcDbSymbolTableRecord
100
AcDbLayerTableRecord
  2
ZUWAKU
 70
     0
 62
     7
  6
CONTINUOUS
  0
LAYER
  5
3EF
330
2
100
AcDbSymbolTableRecord
100
AcDbLayerTableRecord
  2
DEFPOINTS
 70
     0
 62
     7
  6
CONTINUOUS
  0
LAYER
  5
54D
330
2
100
AcDbSymbolTableRecord
100
AcDbLayerTableRecord
  2
SEIHIN
 70
     0
 62
     3
  6
CONTINUOUS
  0
LAYER
  5
54E
330
2
100
AcDbSymbolTableRecord
100
AcDbLayerTableRecord
  2
SUNPOU
 70
     0
 62
     4
  6
CONTINUOUS
  0
LAYER
  5
54F
330
2
100
AcDbSymbolTableRecord
100
AcDbLayerTableRecord
  2
CENTER_L
 70
     0
 62
     1
  6
CENTER
  0
LAYER
  5
550
330
2
100
AcDbSymbolTableRecord
100
AcDbLayerTableRecord
  2
NOKOTOI
 70
     0
 62
     8
  6
PHANTOM
  0
LAYER
  5
1CBC
330
2
100
AcDbSymbolTableRecord
100
AcDbLayerTableRecord
  2
MOJI
 70
     0
 62
     2
  6
CONTINUOUS
  0
ENDTAB
  0
TABLE
  2
STYLE
  5
3
330
0
100
AcDbSymbolTable
 70
     2
  0
STYLE
  5
10
330
3
100
AcDbSymbolTableRecord
100
AcDbTextStyleTableRecord
  2
STANDARD
 70
     0
 40
0.0
 41
1.0
 50
0.0
 71
     0
 42
3.0
  3
TXT
  4
c:\PROGRAM FILES\AUTOCAD LT\ms\bigfont.shx
  0
STYLE
  5
1CBD
330
3
100
AcDbSymbolTableRecord
100
AcDbTextStyleTableRecord
  2
ｽﾀｲﾙ1
 70
     0
 40
0.0
 41
1.0
 50
0.0
 71
     0
 42
2.5
  3
MS PGothic.ttf
  4

1001
ACAD
1000
MS PGothic
1071
    32818
  0
ENDTAB
  0
TABLE
  2
VIEW
  5
6
330
0
100
AcDbSymbolTable
 70
     0
  0
ENDTAB
  0
TABLE
  2
UCS
  5
7
330
0
100
AcDbSymbolTable
 70
     0
  0
ENDTAB
  0
TABLE
  2
APPID
  5
9
330
0
100
AcDbSymbolTable
 70
     1
  0
APPID
  5
11
330
9
100
AcDbSymbolTableRecord
100
AcDbRegAppTableRecord
  2
ACAD
 70
     0
  0
ENDTAB
  0
TABLE
  2
DIMSTYLE
  5
A
330
0
100
AcDbSymbolTable
 70
     1
  0
DIMSTYLE
105
1D
102
{ACAD_REACTORS
330
1220
330
122D
330
123A
330
1247
330
1256
330
1265
330
1444
330
1451
330
145E
330
146B
330
19A4
330
19B3
102
}
330
A
100
AcDbSymbolTableRecord
100
AcDbDimStyleTableRecord
  2
STANDARD
 70
     0
  3

  4

  5

  6

  7

 40
1.0
 41
0.18
 42
0.0625
 43
0.38
 44
0.18
 45
0.0
 46
0.0
 47
0.0
 48
0.0
140
0.18
141
0.09
142
0.0
143
25.4
144
1.0
145
0.0
146
1.0
147
0.09
 71
     0
 72
     0
 73
     1
 74
     1
 75
     0
 76
     0
 77
     0
 78
     0
170
     0
171
     2
172
     0
173
     0
174
     0
175
     0
176
     0
177
     0
178
     0
270
     2
271
     4
272
     4
273
     2
274
     2
340
10
275
     0
280
     0
281
     0
282
     0
283
     1
284
     0
285
     0
286
     0
287
     3
288
     0
  0
ENDTAB
  0
TABLE
  2
BLOCK_RECORD
  5
1
330
0
100
AcDbSymbolTable
 70
    13
  0
BLOCK_RECORD
  5
1A
102
{ACAD_XDICTIONARY
360
7A2
102
}
330
1
100
AcDbSymbolTableRecord
100
AcDbBlockTableRecord
  2
*MODEL_SPACE
  0
BLOCK_RECORD
  5
17
102
{ACAD_XDICTIONARY
360
7A0
102
}
330
1
100
AcDbSymbolTableRecord
100
AcDbBlockTableRecord
  2
*PAPER_SPACE
  0
BLOCK_RECORD
  5
B2
330
1
100
AcDbSymbolTableRecord
100
AcDbBlockTableRecord
  2
_OPEN
  0
BLOCK_RECORD
  5
1221
330
1
100
AcDbSymbolTableRecord
100
AcDbBlockTableRecord
  2
*D1
  0
BLOCK_RECORD
  5
122E
330
1
100
AcDbSymbolTableRecord
100
AcDbBlockTableRecord
  2
*D2
  0
BLOCK_RECORD
  5
123B
330
1
100
AcDbSymbolTableRecord
100
AcDbBlockTableRecord
  2
*D3
  0
BLOCK_RECORD
  5
1248
330
1
100
AcDbSymbolTableRecord
100
AcDbBlockTableRecord
  2
*D4
  0
BLOCK_RECORD
  5
1257
330
1
100
AcDbSymbolTableRecord
100
AcDbBlockTableRecord
  2
*D5
  0
BLOCK_RECORD
  5
1266
330
1
100
AcDbSymbolTableRecord
100
AcDbBlockTableRecord
  2
*D6
  0
BLOCK_RECORD
  5
1445
330
1
100
AcDbSymbolTableRecord
100
AcDbBlockTableRecord
  2
*D7
  0
BLOCK_RECORD
  5
1452
330
1
100
AcDbSymbolTableRecord
100
AcDbBlockTableRecord
  2
*D8
  0
BLOCK_RECORD
  5
145F
330
1
100
AcDbSymbolTableRecord
100
AcDbBlockTableRecord
  2
*D9
  0
BLOCK_RECORD
  5
146C
330
1
100
AcDbSymbolTableRecord
100
AcDbBlockTableRecord
  2
*D10
  0
BLOCK_RECORD
  5
19A5
330
1
100
AcDbSymbolTableRecord
100
AcDbBlockTableRecord
  2
*D11
  0
BLOCK_RECORD
  5
19B4
330
1
100
AcDbSymbolTableRecord
100
AcDbBlockTableRecord
  2
*D12
  0
ENDTAB
  0
ENDSEC
  0
SECTION
  2
BLOCKS
  0
BLOCK
  5
1B
330
1A
100
AcDbEntity
  8
0
100
AcDbBlockBegin
  2
*MODEL_SPACE
 70
     0
 10
0.0
 20
0.0
 30
0.0
  3
*MODEL_SPACE
  1

  0
ENDBLK
  5
1C
330
1A
100
AcDbEntity
  8
0
100
AcDbBlockEnd
  0
BLOCK
  5
18
330
17
100
AcDbEntity
 67
     1
  8
0
100
AcDbBlockBegin
  2
*PAPER_SPACE
 70
     0
 10
0.0
 20
0.0
 30
0.0
  3
*PAPER_SPACE
  1

  0
ENDBLK
  5
19
330
17
100
AcDbEntity
 67
     1
  8
0
100
AcDbBlockEnd
  0
BLOCK
  5
B3
330
B2
100
AcDbEntity
  8
0
100
AcDbBlockBegin
  2
_OPEN
 70
     0
 10
0.0
 20
0.0
 30
0.0
  3
_OPEN
  1

  0
LINE
  5
B4
330
B2
100
AcDbEntity
  8
0
  6
BYBLOCK
 62
     0
100
AcDbLine
 10
-1.0
 20
0.1666666666666666
 30
0.0
 11
0.0
 21
0.0
 31
0.0
  0
LINE
  5
B5
330
B2
100
AcDbEntity
  8
0
  6
BYBLOCK
 62
     0
100
AcDbLine
 10
0.0
 20
0.0
 30
0.0
 11
-1.0
 21
-0.1666666666666666
 31
0.0
  0
LINE
  5
B6
330
B2
100
AcDbEntity
  8
0
  6
BYBLOCK
 62
     0
100
AcDbLine
 10
0.0
 20
0.0
 30
0.0
 11
-1.0
 21
0.0
 31
0.0
  0
ENDBLK
  5
B7
330
B2
100
AcDbEntity
  8
0
100
AcDbBlockEnd
  0
BLOCK
  5
122B
330
1221
100
AcDbEntity
  8
0
100
AcDbBlockBegin
  2
*D1
 70
     1
 10
0.0
 20
0.0
 30
0.0
  3
*D1
  1

  0
LINE
  5
1E61
330
1221
100
AcDbEntity
  8
SUNPOU
100
AcDbLine
 10
312.4755656661279
 20
122.8337911743859
 30
0.0
 11
305.8878569137291
 21
139.1389425015836
 31
0.0
  0
LINE
  5
1E62
330
1221
100
AcDbEntity
  8
SUNPOU
100
AcDbLine
 10
353.2716552670663
 20
139.316481284686
 30
0.0
 11
346.6839465146676
 21
155.6216326118837
 31
0.0
  0
LINE
  5
1E63
330
1221
100
AcDbEntity
  8
SUNPOU
100
AcDbLine
 10
309.2313183675533
 20
138.8719864999812
 30
0.0
 11
344.464304841091
 21
153.1070370497858
 31
0.0
  0
INSERT
  5
1E64
330
1221
100
AcDbEntity
  8
SUNPOU
100
AcDbBlockReference
  2
_OPEN
 10
306.449766803853
 20
137.7481667197334
 30
0.0
 41
3.0
 42
3.0
 43
3.0
 50
202.0
  0
INSERT
  5
1E65
330
1221
100
AcDbEntity
  8
SUNPOU
100
AcDbBlockReference
  2
_OPEN
 10
347.2458564047914
 20
154.2308568300335
 30
0.0
 41
3.0
 42
3.0
 43
3.0
 50
22.00000000000005
  0
MTEXT
  5
1E66
330
1221
100
AcDbEntity
  8
SUNPOU
100
AcDbMText
 10
325.9112951207824
 20
148.3074714113004
 30
0.0
 40
3.0
 41
0.0
 71
     5
 72
     1
  1
\A1;44
 11
0.927183854566787
 21
0.3746065934159129
 31
0.0
1001
ACAD
1000
MTEXTBEGIN
1070
    73
1070
     1
1070
    44
1040
1.0
1070
    74
1070
     0
1000
MTEXTEND
  0
POINT
  5
1E67
330
1221
100
AcDbEntity
  8
DEFPOINTS
 62
     0
100
AcDbPoint
 10
313.5993854463756
 20
120.0522396106856
 30
0.0
  0
POINT
  5
1E68
330
1221
100
AcDbEntity
  8
DEFPOINTS
 62
     0
100
AcDbPoint
 10
354.3954750473141
 20
136.5349297209857
 30
0.0
  0
POINT
  5
1E69
330
1221
100
AcDbEntity
  8
DEFPOINTS
 62
     0
100
AcDbPoint
 10
347.2458564047914
 20
154.2308568300335
 30
0.0
  0
ENDBLK
  5
122C
330
1221
100
AcDbEntity
  8
0
100
AcDbBlockEnd
  0
BLOCK
  5
1238
330
122E
100
AcDbEntity
  8
0
100
AcDbBlockBegin
  2
*D2
 70
     1
 10
0.0
 20
0.0
 30
0.0
  3
*D2
  1

  0
LINE
  5
1E58
330
122E
100
AcDbEntity
  8
SUNPOU
100
AcDbLine
 10
307.6804060552298
 20
118.6854247120284
 30
0.0
 11
297.4893887257467
 21
143.9090777271695
 31
0.0
  0
LINE
  5
1E59
330
122E
100
AcDbEntity
  8
SUNPOU
100
AcDbLine
 10
359.6027019109698
 20
139.6633939433196
 30
0.0
 11
349.4116845814867
 21
164.8870469584607
 31
0.0
  0
LINE
  5
1E5A
330
122E
100
AcDbEntity
  8
SUNPOU
100
AcDbLine
 10
300.8328501795709
 20
143.6421217255671
 30
0.0
 11
347.1920429079102
 21
162.3724513963628
 31
0.0
  0
INSERT
  5
1E5B
330
122E
100
AcDbEntity
  8
SUNPOU
100
AcDbBlockReference
  2
_OPEN
 10
298.0512986158705
 20
142.5183019453193
 30
0.0
 41
3.0
 42
3.0
 43
3.0
 50
202.0000000000001
  0
INSERT
  5
1E5C
330
122E
100
AcDbEntity
  8
SUNPOU
100
AcDbBlockReference
  2
_OPEN
 10
349.9735944716106
 20
163.4962711766105
 30
0.0
 41
3.0
 42
3.0
 43
3.0
 50
22.0000000000001
  0
MTEXT
  5
1E5D
330
122E
100
AcDbEntity
  8
SUNPOU
100
AcDbMText
 10
323.0759300602008
 20
155.3252461973819
 30
0.0
 40
3.0
 41
0.0
 71
     5
 72
     1
  1
\A1;56
 11
0.9271838545667867
 21
0.3746065934159137
 31
0.0
1001
ACAD
1000
MTEXTBEGIN
1070
    73
1070
     1
1070
    44
1040
1.0
1070
    74
1070
     0
1000
MTEXTEND
  0
POINT
  5
1E5E
330
122E
100
AcDbEntity
  8
DEFPOINTS
 62
     0
100
AcDbPoint
 10
308.8042258354775
 20
115.9038731483281
 30
0.0
  0
POINT
  5
1E5F
330
122E
100
AcDbEntity
  8
DEFPOINTS
 62
     0
100
AcDbPoint
 10
360.7265216912176
 20
136.8818423796193
 30
0.0
  0
POINT
  5
1E60
330
122E
100
AcDbEntity
  8
DEFPOINTS
 62
     0
100
AcDbPoint
 10
349.9735944716106
 20
163.4962711766105
 30
0.0
  0
ENDBLK
  5
1239
330
122E
100
AcDbEntity
  8
0
100
AcDbBlockEnd
  0
BLOCK
  5
1245
330
123B
100
AcDbEntity
  8
0
100
AcDbBlockBegin
  2
*D3
 70
     1
 10
0.0
 20
0.0
 30
0.0
  3
*D3
  1

  0
LINE
  5
1E4F
330
123B
100
AcDbEntity
  8
SUNPOU
100
AcDbLine
 10
356.8211503472693
 20
138.5395741630718
 30
0.0
 11
371.9466942011009
 21
144.6506905600398
 31
0.0
  0
LINE
  5
1E50
330
123B
100
AcDbEntity
  8
SUNPOU
100
AcDbLine
 10
363.3767657320479
 20
122.3138567081531
 30
0.0
 11
378.5023095858795
 21
128.4249731051211
 31
0.0
  0
LINE
  5
1E51
330
123B
100
AcDbEntity
  8
SUNPOU
100
AcDbLine
 10
371.6797381994985
 20
141.3072291062155
 30
0.0
 11
375.9877140237816
 21
130.6446147786975
 31
0.0
  0
INSERT
  5
1E52
330
123B
100
AcDbEntity
  8
SUNPOU
100
AcDbBlockReference
  2
_OPEN
 10
370.5559184192508
 20
144.0887806699159
 30
0.0
 41
3.0
 42
3.0
 43
3.0
 50
112.0000000000005
  0
INSERT
  5
1E53
330
123B
100
AcDbEntity
  8
SUNPOU
100
AcDbBlockReference
  2
_OPEN
 10
377.1115338040294
 20
127.8630632149972
 30
0.0
 41
3.0
 42
3.0
 43
3.0
 50
292.0000000000005
  0
MTEXT
  5
1E54
330
123B
100
AcDbEntity
  8
SUNPOU
100
AcDbMText
 10
376.151685748057
 20
136.9124384259963
 30
0.0
 40
3.0
 41
0.0
 71
     5
 72
     1
  1
\A1;18
 11
0.3746065934159212
 21
-0.9271838545667836
 31
0.0
1001
ACAD
1000
MTEXTBEGIN
1070
    73
1070
     1
1070
    44
1040
1.0
1070
    74
1070
     0
1000
MTEXTEND
  0
POINT
  5
1E55
330
123B
100
AcDbEntity
  8
DEFPOINTS
 62
     0
100
AcDbPoint
 10
354.0395987835689
 20
137.4157543828241
 30
0.0
  0
POINT
  5
1E56
330
123B
100
AcDbEntity
  8
DEFPOINTS
 62
     0
100
AcDbPoint
 10
360.5952141683475
 20
121.1900369279054
 30
0.0
  0
POINT
  5
1E57
330
123B
100
AcDbEntity
  8
DEFPOINTS
 62
     0
100
AcDbPoint
 10
377.1115338040294
 20
127.8630632149972
 30
0.0
  0
ENDBLK
  5
1246
330
123B
100
AcDbEntity
  8
0
100
AcDbBlockEnd
  0
BLOCK
  5
1254
330
1248
100
AcDbEntity
  8
0
100
AcDbBlockBegin
  2
*D4
 70
     1
 10
0.0
 20
0.0
 30
0.0
  3
*D4
  1

  0
LINE
  5
1E87
330
1248
100
AcDbEntity
  8
SUNPOU
100
AcDbLine
 10
310.4619576189302
 20
119.8092444922761
 30
0.0
 11
297.3188500606795
 21
114.4990843497705
 31
0.0
  0
LINE
  5
1E88
330
1248
100
AcDbEntity
  8
SUNPOU
100
AcDbLine
 10
313.0842037728416
 20
113.3189575103087
 30
0.0
 11
299.9410962145909
 21
108.0087973678031
 31
0.0
  0
LINE
  5
1E89
330
1248
100
AcDbEntity
  8
SUNPOU
100
AcDbLine
 10
297.5858060622819
 20
117.8425458035947
 30
0.0
 11
296.4619862820342
 21
120.6240973672951
 31
0.0
  0
LINE
  5
1E8A
330
1248
100
AcDbEntity
  8
SUNPOU
100
AcDbLine
 10
302.4556917766889
 20
105.7891556942266
 30
0.0
 11
303.5795115569366
 21
103.0076041305262
 31
0.0
  0
LINE
  5
1E8B
330
1248
100
AcDbEntity
  8
SUNPOU
100
AcDbLine
 10
298.7096258425297
 20
115.0609942398944
 30
0.0
 11
301.3318719964412
 21
108.5707072579269
 31
0.0
  0
INSERT
  5
1E8C
330
1248
100
AcDbEntity
  8
SUNPOU
100
AcDbBlockReference
  2
_OPEN
 10
298.7096258425297
 20
115.0609942398944
 30
0.0
 41
3.0
 42
3.0
 43
3.0
 50
292.0000000000003
  0
INSERT
  5
1E8D
330
1248
100
AcDbEntity
  8
SUNPOU
100
AcDbBlockReference
  2
_OPEN
 10
301.3318719964412
 20
108.5707072579269
 30
0.0
 41
3.0
 42
3.0
 43
3.0
 50
112.0000000000004
  0
MTEXT
  5
1E8E
330
1248
100
AcDbEntity
  8
SUNPOU
100
AcDbMText
 10
302.3387085559024
 20
112.7523672324504
 30
0.0
 40
3.0
 41
0.0
 71
     5
 72
     1
  1
\A1;7
 11
0.3746065934159188
 21
-0.9271838545667849
 31
0.0
1001
ACAD
1000
MTEXTBEGIN
1070
    73
1070
     1
1070
    44
1040
1.0
1070
    74
1070
     0
1000
MTEXTEND
  0
POINT
  5
1E8F
330
1248
100
AcDbEntity
  8
DEFPOINTS
 62
     0
100
AcDbPoint
 10
313.2435091826305
 20
120.9330642725239
 30
0.0
  0
POINT
  5
1E90
330
1248
100
AcDbEntity
  8
DEFPOINTS
 62
     0
100
AcDbPoint
 10
315.8657553365419
 20
114.4427772905564
 30
0.0
  0
POINT
  5
1E91
330
1248
100
AcDbEntity
  8
DEFPOINTS
 62
     0
100
AcDbPoint
 10
301.3318719964412
 20
108.5707072579269
 30
0.0
  0
ENDBLK
  5
1255
330
1248
100
AcDbEntity
  8
0
100
AcDbBlockEnd
  0
BLOCK
  5
1263
330
1257
100
AcDbEntity
  8
0
100
AcDbBlockBegin
  2
*D5
 70
     1
 10
0.0
 20
0.0
 30
0.0
  3
*D5
  1

  0
LINE
  5
1E7C
330
1257
100
AcDbEntity
  8
SUNPOU
100
AcDbLine
 10
320.9509422345758
 20
93.84809656440626
 30
0.0
 11
307.8078346763255
 21
88.53793642190076
 31
0.0
  0
LINE
  5
1E7D
330
1257
100
AcDbEntity
  8
SUNPOU
100
AcDbLine
 10
323.5731883884872
 20
87.35780958243877
 30
0.0
 11
310.4300808302369
 21
82.04764943993328
 31
0.0
  0
LINE
  5
1E7E
330
1257
100
AcDbEntity
  8
SUNPOU
100
AcDbLine
 10
308.0747906779279
 20
91.88139787572501
 30
0.0
 11
306.9509708976802
 21
94.66294943942536
 31
0.0
  0
LINE
  5
1E7F
330
1257
100
AcDbEntity
  8
SUNPOU
100
AcDbLine
 10
312.9446763923348
 20
79.82800776635682
 30
0.0
 11
314.0684961725826
 21
77.04645620265646
 31
0.0
  0
LINE
  5
1E80
330
1257
100
AcDbEntity
  8
SUNPOU
100
AcDbLine
 10
309.1986104581757
 20
89.09984631202465
 30
0.0
 11
311.8208566120871
 21
82.60955933005716
 31
0.0
  0
INSERT
  5
1E81
330
1257
100
AcDbEntity
  8
SUNPOU
100
AcDbBlockReference
  2
_OPEN
 10
309.1986104581757
 20
89.09984631202465
 30
0.0
 41
3.0
 42
3.0
 43
3.0
 50
292.0000000000003
  0
INSERT
  5
1E82
330
1257
100
AcDbEntity
  8
SUNPOU
100
AcDbBlockReference
  2
_OPEN
 10
311.8208566120871
 20
82.60955933005716
 30
0.0
 41
3.0
 42
3.0
 43
3.0
 50
112.0000000000003
  0
MTEXT
  5
1E83
330
1257
100
AcDbEntity
  8
SUNPOU
100
AcDbMText
 10
312.8276931715483
 20
86.79121930458075
 30
0.0
 40
3.0
 41
0.0
 71
     5
 72
     1
  1
\A1;7
 11
0.3746065934159179
 21
-0.9271838545667849
 31
0.0
1001
ACAD
1000
MTEXTBEGIN
1070
    73
1070
     1
1070
    44
1040
1.0
1070
    74
1070
     0
1000
MTEXTEND
  0
POINT
  5
1E84
330
1257
100
AcDbEntity
  8
DEFPOINTS
 62
     0
100
AcDbPoint
 10
323.7324937982762
 20
94.97191634465401
 30
0.0
  0
POINT
  5
1E85
330
1257
100
AcDbEntity
  8
DEFPOINTS
 62
     0
100
AcDbPoint
 10
326.3547399521876
 20
88.48162936268654
 30
0.0
  0
POINT
  5
1E86
330
1257
100
AcDbEntity
  8
DEFPOINTS
 62
     0
100
AcDbPoint
 10
311.8208566120871
 20
82.60955933005716
 30
0.0
  0
ENDBLK
  5
1264
330
1257
100
AcDbEntity
  8
0
100
AcDbBlockEnd
  0
BLOCK
  5
1270
330
1266
100
AcDbEntity
  8
0
100
AcDbBlockBegin
  2
*D6
 70
     1
 10
0.0
 20
0.0
 30
0.0
  3
*D6
  1

  0
LINE
  5
1E73
330
1266
100
AcDbEntity
  8
SUNPOU
100
AcDbLine
 10
307.6804060552298
 20
118.6854247120285
 30
0.0
 11
289.2579046905934
 21
111.2422510152314
 31
0.0
  0
LINE
  5
1E74
330
1266
100
AcDbEntity
  8
SUNPOU
100
AcDbLine
 10
320.7916368247868
 20
86.23398980219095
 30
0.0
 11
302.3691354601503
 21
78.79081610539387
 31
0.0
  0
LINE
  5
1E75
330
1266
100
AcDbEntity
  8
SUNPOU
100
AcDbLine
 10
291.7725002526913
 20
109.0226093416549
 30
0.0
 11
302.6360914617528
 21
82.13427755921811
 31
0.0
  0
INSERT
  5
1E76
330
1266
100
AcDbEntity
  8
SUNPOU
100
AcDbBlockReference
  2
_OPEN
 10
290.6486804724436
 20
111.8041609053552
 30
0.0
 41
3.0
 42
3.0
 43
3.0
 50
112.0
  0
INSERT
  5
1E77
330
1266
100
AcDbEntity
  8
SUNPOU
100
AcDbBlockReference
  2
_OPEN
 10
303.7599112420005
 20
79.35272599551774
 30
0.0
 41
3.0
 42
3.0
 43
3.0
 50
292.0
  0
MTEXT
  5
1E78
330
1266
100
AcDbEntity
  8
SUNPOU
100
AcDbMText
 10
299.5222554936389
 20
96.51495993397633
 30
0.0
 40
3.0
 41
0.0
 71
     5
 72
     1
  1
\A1;35
 11
0.3746065934159122
 21
-0.9271838545667872
 31
0.0
1001
ACAD
1000
MTEXTBEGIN
1070
    73
1070
     1
1070
    44
1040
1.0
1070
    74
1070
     0
1000
MTEXTEND
  0
POINT
  5
1E79
330
1266
100
AcDbEntity
  8
DEFPOINTS
 62
     0
100
AcDbPoint
 10
310.4619576189302
 20
119.8092444922762
 30
0.0
  0
POINT
  5
1E7A
330
1266
100
AcDbEntity
  8
DEFPOINTS
 62
     0
100
AcDbPoint
 10
323.5731883884871
 20
87.3578095824387
 30
0.0
  0
POINT
  5
1E7B
330
1266
100
AcDbEntity
  8
DEFPOINTS
 62
     0
100
AcDbPoint
 10
303.7599112420005
 20
79.35272599551774
 30
0.0
  0
ENDBLK
  5
1271
330
1266
100
AcDbEntity
  8
0
100
AcDbBlockEnd
  0
BLOCK
  5
144F
330
1445
100
AcDbEntity
  8
0
100
AcDbBlockBegin
  2
*D7
 70
     1
 10
0.0
 20
0.0
 30
0.0
  3
*D7
  1

  0
LINE
  5
1E3D
330
1445
100
AcDbEntity
  8
SUNPOU
100
AcDbLine
 10
120.0702454296431
 20
232.4711208632076
 30
0.0
 11
97.95815749225676
 21
232.4711208632076
 31
0.0
  0
LINE
  5
1E3E
330
1445
100
AcDbEntity
  8
SUNPOU
100
AcDbLine
 10
120.0702454296431
 20
210.4711208632076
 30
0.0
 11
97.95815749225674
 21
210.4711208632076
 31
0.0
  0
LINE
  5
1E3F
330
1445
100
AcDbEntity
  8
SUNPOU
100
AcDbLine
 10
99.45815749225676
 20
229.4711208632076
 30
0.0
 11
99.45815749225674
 21
213.4711208632076
 31
0.0
  0
INSERT
  5
1E40
330
1445
100
AcDbEntity
  8
SUNPOU
100
AcDbBlockReference
  2
_OPEN
 10
99.45815749225676
 20
232.4711208632076
 30
0.0
 41
3.0
 42
3.0
 43
3.0
 50
90.0
  0
INSERT
  5
1E41
330
1445
100
AcDbEntity
  8
SUNPOU
100
AcDbBlockReference
  2
_OPEN
 10
99.45815749225674
 20
210.4711208632076
 30
0.0
 41
3.0
 42
3.0
 43
3.0
 50
270.0
  0
MTEXT
  5
1E42
330
1445
100
AcDbEntity
  8
SUNPOU
100
AcDbMText
 10
96.95815749225673
 20
221.4711208632076
 30
0.0
 40
3.0
 41
0.0
 71
     5
 72
     1
  1
\A1;22
 11
0.0000000000000001
 21
1.0
 31
0.0
1001
ACAD
1000
MTEXTBEGIN
1070
    73
1070
     1
1070
    44
1040
1.0
1070
    74
1070
     0
1000
MTEXTEND
  0
POINT
  5
1E43
330
1445
100
AcDbEntity
  8
DEFPOINTS
 62
     0
100
AcDbPoint
 10
123.0702454296431
 20
232.4711208632076
 30
0.0
  0
POINT
  5
1E44
330
1445
100
AcDbEntity
  8
DEFPOINTS
 62
     0
100
AcDbPoint
 10
123.0702454296431
 20
210.4711208632076
 30
0.0
  0
POINT
  5
1E45
330
1445
100
AcDbEntity
  8
DEFPOINTS
 62
     0
100
AcDbPoint
 10
99.45815749225674
 20
210.4711208632076
 30
0.0
  0
ENDBLK
  5
1450
330
1445
100
AcDbEntity
  8
0
100
AcDbBlockEnd
  0
BLOCK
  5
145C
330
1452
100
AcDbEntity
  8
0
100
AcDbBlockBegin
  2
*D8
 70
     1
 10
0.0
 20
0.0
 30
0.0
  3
*D8
  1

  0
LINE
  5
1E92
330
1452
100
AcDbEntity
  8
SUNPOU
100
AcDbLine
 10
274.1656934827074
 20
249.4711208632076
 30
0.0
 11
293.7930167492554
 21
249.4711208632076
 31
0.0
  0
LINE
  5
1E93
330
1452
100
AcDbEntity
  8
SUNPOU
100
AcDbLine
 10
274.1656934827074
 20
193.4711208632076
 30
0.0
 11
293.7930167492554
 21
193.4711208632076
 31
0.0
  0
LINE
  5
1E94
330
1452
100
AcDbEntity
  8
SUNPOU
100
AcDbLine
 10
292.2930167492554
 20
246.4711208632076
 30
0.0
 11
292.2930167492554
 21
196.4711208632076
 31
0.0
  0
INSERT
  5
1E95
330
1452
100
AcDbEntity
  8
SUNPOU
100
AcDbBlockReference
  2
_OPEN
 10
292.2930167492554
 20
249.4711208632076
 30
0.0
 41
3.0
 42
3.0
 43
3.0
 50
90.0
  0
INSERT
  5
1E96
330
1452
100
AcDbEntity
  8
SUNPOU
100
AcDbBlockReference
  2
_OPEN
 10
292.2930167492554
 20
193.4711208632076
 30
0.0
 41
3.0
 42
3.0
 43
3.0
 50
270.0
  0
MTEXT
  5
1E97
330
1452
100
AcDbEntity
  8
SUNPOU
100
AcDbMText
 10
289.7930167492554
 20
221.4711208632076
 30
0.0
 40
3.0
 41
0.0
 71
     5
 72
     1
  1
\A1;56
 11
0.0000000000000001
 21
1.0
 31
0.0
1001
ACAD
1000
MTEXTBEGIN
1070
    73
1070
     1
1070
    44
1040
1.0
1070
    74
1070
     0
1000
MTEXTEND
  0
POINT
  5
1E98
330
1452
100
AcDbEntity
  8
DEFPOINTS
 62
     0
100
AcDbPoint
 10
271.1656934827074
 20
249.4711208632076
 30
0.0
  0
POINT
  5
1E99
330
1452
100
AcDbEntity
  8
DEFPOINTS
 62
     0
100
AcDbPoint
 10
271.1656934827074
 20
193.4711208632076
 30
0.0
  0
POINT
  5
1E9A
330
1452
100
AcDbEntity
  8
DEFPOINTS
 62
     0
100
AcDbPoint
 10
292.2930167492554
 20
193.4711208632076
 30
0.0
  0
ENDBLK
  5
145D
330
1452
100
AcDbEntity
  8
0
100
AcDbBlockEnd
  0
BLOCK
  5
1469
330
145F
100
AcDbEntity
  8
0
100
AcDbBlockBegin
  2
*D9
 70
     1
 10
0.0
 20
0.0
 30
0.0
  3
*D9
  1

  0
LINE
  5
1E46
330
145F
100
AcDbEntity
  8
SUNPOU
100
AcDbLine
 10
257.1432784419223
 20
101.2671036772244
 30
0.0
 11
257.1432784419223
 21
144.5592583201115
 31
0.0
  0
LINE
  5
1E47
330
145F
100
AcDbEntity
  8
SUNPOU
100
AcDbLine
 10
244.2056252903598
 20
125.2405231561874
 30
0.0
 11
244.2056252903598
 21
144.5592583201115
 31
0.0
  0
LINE
  5
1E48
330
145F
100
AcDbEntity
  8
SUNPOU
100
AcDbLine
 10
254.1432784419222
 20
143.0592583201115
 30
0.0
 11
247.2056252903598
 21
143.0592583201115
 31
0.0
  0
INSERT
  5
1E49
330
145F
100
AcDbEntity
  8
SUNPOU
100
AcDbBlockReference
  2
_OPEN
 10
257.1432784419223
 20
143.0592583201115
 30
0.0
 41
3.0
 42
3.0
 43
3.0
  0
INSERT
  5
1E4A
330
145F
100
AcDbEntity
  8
SUNPOU
100
AcDbBlockReference
  2
_OPEN
 10
244.2056252903598
 20
143.0592583201115
 30
0.0
 41
3.0
 42
3.0
 43
3.0
 50
180.0
  0
MTEXT
  5
1E4B
330
145F
100
AcDbEntity
  8
SUNPOU
100
AcDbMText
 10
250.674451866141
 20
145.5592583201115
 30
0.0
 40
3.0
 41
0.0
 71
     5
 72
     1
  1
\A1;13
1001
ACAD
1000
MTEXTBEGIN
1070
    73
1070
     1
1070
    44
1040
1.0
1070
    74
1070
     0
1000
MTEXTEND
  0
POINT
  5
1E4C
330
145F
100
AcDbEntity
  8
DEFPOINTS
 62
     0
100
AcDbPoint
 10
257.1432784419223
 20
98.26710367722441
 30
0.0
  0
POINT
  5
1E4D
330
145F
100
AcDbEntity
  8
DEFPOINTS
 62
     0
100
AcDbPoint
 10
244.2056252903598
 20
122.2405231561874
 30
0.0
  0
POINT
  5
1E4E
330
145F
100
AcDbEntity
  8
DEFPOINTS
 62
     0
100
AcDbPoint
 10
244.2056252903598
 20
143.0592583201115
 30
0.0
  0
ENDBLK
  5
146A
330
145F
100
AcDbEntity
  8
0
100
AcDbBlockEnd
  0
BLOCK
  5
1476
330
146C
100
AcDbEntity
  8
0
100
AcDbBlockBegin
  2
*D10
 70
     1
 10
0.0
 20
0.0
 30
0.0
  3
*D10
  1

  0
LINE
  5
1E34
330
146C
100
AcDbEntity
  8
SUNPOU
100
AcDbLine
 10
257.1432784419223
 20
101.2671036772244
 30
0.0
 11
257.1432784419223
 21
173.4807780286738
 31
0.0
  0
LINE
  5
1E35
330
146C
100
AcDbEntity
  8
SUNPOU
100
AcDbLine
 10
123.0702454296431
 20
158.1030231686368
 30
0.0
 11
123.0702454296431
 21
173.4807780286738
 31
0.0
  0
LINE
  5
1E36
330
146C
100
AcDbEntity
  8
SUNPOU
100
AcDbLine
 10
254.1432784419222
 20
171.9807780286738
 30
0.0
 11
126.0702454296431
 21
171.9807780286738
 31
0.0
  0
INSERT
  5
1E37
330
146C
100
AcDbEntity
  8
SUNPOU
100
AcDbBlockReference
  2
_OPEN
 10
257.1432784419223
 20
171.9807780286738
 30
0.0
 41
3.0
 42
3.0
 43
3.0
  0
INSERT
  5
1E38
330
146C
100
AcDbEntity
  8
SUNPOU
100
AcDbBlockReference
  2
_OPEN
 10
123.0702454296431
 20
171.9807780286738
 30
0.0
 41
3.0
 42
3.0
 43
3.0
 50
180.0
  0
MTEXT
  5
1E39
330
146C
100
AcDbEntity
  8
SUNPOU
100
AcDbMText
 10
190.1067619357826
 20
174.4807780286738
 30
0.0
 40
3.0
 41
0.0
 71
     5
 72
     1
  1
\A1;134
1001
ACAD
1000
MTEXTBEGIN
1070
    73
1070
     1
1070
    44
1040
1.0
1070
    74
1070
     0
1000
MTEXTEND
  0
POINT
  5
1E3A
330
146C
100
AcDbEntity
  8
DEFPOINTS
 62
     0
100
AcDbPoint
 10
257.1432784419223
 20
98.26710367722446
 30
0.0
  0
POINT
  5
1E3B
330
146C
100
AcDbEntity
  8
DEFPOINTS
 62
     0
100
AcDbPoint
 10
123.0702454296431
 20
155.1030231686368
 30
0.0
  0
POINT
  5
1E3C
330
146C
100
AcDbEntity
  8
DEFPOINTS
 62
     0
100
AcDbPoint
 10
123.0702454296431
 20
171.9807780286738
 30
0.0
  0
ENDBLK
  5
1477
330
146C
100
AcDbEntity
  8
0
100
AcDbBlockEnd
  0
BLOCK
  5
19AF
330
19A5
100
AcDbEntity
  8
0
100
AcDbBlockBegin
  2
*D11
 70
     1
 10
0.0
 20
0.0
 30
0.0
  3
*D11
  1

  0
LINE
  5
1E6A
330
19A5
100
AcDbEntity
  8
SUNPOU
100
AcDbLine
 10
259.924830014607
 20
99.39092343523512
 30
0.0
 11
273.6811532283633
 21
104.9488386567311
 31
0.0
  0
LINE
  5
1E6B
330
19A5
100
AcDbEntity
  8
SUNPOU
100
AcDbLine
 10
273.0360605247319
 20
66.93948842058022
 30
0.0
 11
286.7923837384881
 21
72.49740364207624
 31
0.0
  0
LINE
  5
1E6C
330
19A5
100
AcDbEntity
  8
SUNPOU
100
AcDbLine
 10
273.4141972000315
 20
101.605377205041
 30
0.0
 11
284.277788194135
 21
74.71704533575561
 31
0.0
  0
INSERT
  5
1E6D
330
19A5
100
AcDbEntity
  8
SUNPOU
100
AcDbBlockReference
  2
_OPEN
 10
272.2903774420209
 20
104.3869287777257
 30
0.0
 41
3.0
 42
3.0
 43
3.0
 50
111.9999995419505
  0
INSERT
  5
1E6E
330
19A5
100
AcDbEntity
  8
SUNPOU
100
AcDbBlockReference
  2
_OPEN
 10
285.4016079521457
 20
71.93549376307089
 30
0.0
 41
3.0
 42
3.0
 43
3.0
 50
291.9999995419505
  0
MTEXT
  5
1E6F
330
19A5
100
AcDbEntity
  8
SUNPOU
100
AcDbMText
 10
281.1639523409872
 20
89.09772773540723
 30
0.0
 40
3.0
 41
0.0
 71
     5
 72
     1
  1
\A1;35
 11
0.3746065860035678
 21
-0.9271838575615689
 31
0.0
1001
ACAD
1000
MTEXTBEGIN
1070
    73
1070
     1
1070
    44
1040
1.0
1070
    74
1070
     0
1000
MTEXTEND
  0
POINT
  5
1E70
330
19A5
100
AcDbEntity
  8
DEFPOINTS
 62
     0
100
AcDbPoint
 10
257.1432784419223
 20
98.26710367722441
 30
0.0
  0
POINT
  5
1E71
330
19A5
100
AcDbEntity
  8
DEFPOINTS
 62
     0
100
AcDbPoint
 10
270.2545089520472
 20
65.81566866256951
 30
0.0
  0
POINT
  5
1E72
330
19A5
100
AcDbEntity
  8
DEFPOINTS
 62
     0
100
AcDbPoint
 10
285.4016079521457
 20
71.93549376307089
 30
0.0
  0
ENDBLK
  5
19B0
330
19A5
100
AcDbEntity
  8
0
100
AcDbBlockEnd
  0
BLOCK
  5
19BE
330
19B4
100
AcDbEntity
  8
0
100
AcDbBlockBegin
  2
*D12
 70
     1
 10
0.0
 20
0.0
 30
0.0
  3
*D12
  1

  0
LINE
  5
1E2B
330
19B4
100
AcDbEntity
  8
SUNPOU
100
AcDbLine
 10
122.303524429643
 20
107.1030231686368
 30
0.0
 11
97.95815749225674
 21
107.1030231686368
 31
0.0
  0
LINE
  5
1E2C
330
19B4
100
AcDbEntity
  8
SUNPOU
100
AcDbLine
 10
267.254508876364
 20
65.81566884989192
 30
0.0
 11
97.95815749225672
 21
65.81566884989197
 31
0.0
  0
LINE
  5
1E2D
330
19B4
100
AcDbEntity
  8
SUNPOU
100
AcDbLine
 10
99.45815749225673
 20
104.1030231686368
 30
0.0
 11
99.45815749225673
 21
68.81566884989196
 31
0.0
  0
INSERT
  5
1E2E
330
19B4
100
AcDbEntity
  8
SUNPOU
100
AcDbBlockReference
  2
_OPEN
 10
99.45815749225673
 20
107.1030231686368
 30
0.0
 41
3.0
 42
3.0
 43
3.0
 50
90.0
  0
INSERT
  5
1E2F
330
19B4
100
AcDbEntity
  8
SUNPOU
100
AcDbBlockReference
  2
_OPEN
 10
99.45815749225673
 20
65.81566884989197
 30
0.0
 41
3.0
 42
3.0
 43
3.0
 50
270.0
  0
MTEXT
  5
1E30
330
19B4
100
AcDbEntity
  8
SUNPOU
100
AcDbMText
 10
96.95815749225671
 20
86.45934600926443
 30
0.0
 40
3.0
 41
0.0
 71
     5
 72
     1
  1
\A1;41
 11
0.0000000000000001
 21
1.0
 31
0.0
1001
ACAD
1000
MTEXTBEGIN
1070
    73
1070
     1
1070
    44
1040
1.0
1070
    74
1070
     0
1000
MTEXTEND
  0
POINT
  5
1E31
330
19B4
100
AcDbEntity
  8
DEFPOINTS
 62
     0
100
AcDbPoint
 10
125.303524429643
 20
107.1030231686368
 30
0.0
  0
POINT
  5
1E32
330
19B4
100
AcDbEntity
  8
DEFPOINTS
 62
     0
100
AcDbPoint
 10
270.254508876364
 20
65.81566884989192
 30
0.0
  0
POINT
  5
1E33
330
19B4
100
AcDbEntity
  8
DEFPOINTS
 62
     0
100
AcDbPoint
 10
99.45815749225673
 20
65.81566884989197
 30
0.0
  0
ENDBLK
  5
19BF
330
19B4
100
AcDbEntity
  8
0
100
AcDbBlockEnd
  0
ENDSEC
  0
SECTION
  2
ENTITIES
  0
ARC
  5
5A7
330
1A
100
AcDbEntity
  8
NOKOTOI
  6
PHANTOM
 62
     8
100
AcDbCircle
 10
176.0837090642914
 20
112.3030376450069
 30
0.0
 40
43.00001447645168
100
AcDbArc
 50
186.5249107071177
 51
269.9998883751437
  0
ARC
  5
5A8
330
1A
100
AcDbEntity
  8
NOKOTOI
  6
PHANTOM
 62
     8
100
AcDbCircle
 10
176.0837313727167
 20
112.3030175439805
 30
0.0
 40
41.79999437547816
100
AcDbArc
 50
184.4742952125247
 51
269.999854592109
  0
LINE
  5
5A9
330
1A
100
AcDbEntity
  8
NOKOTOI
  6
PHANTOM
 62
     8
100
AcDbLine
 10
125.8727252907485
 20
111.4406231686368
 30
0.0
 11
125.7872252907488
 21
114.1781231686368
 31
0.0
  0
LINE
  5
5AA
330
1A
100
AcDbEntity
  8
NOKOTOI
  6
PHANTOM
 62
     8
100
AcDbLine
 10
124.3346252907488
 20
122.2405231686368
 30
0.0
 11
124.7248252907486
 21
109.7562231686367
 31
0.0
  0
LINE
  5
5AB
330
1A
100
AcDbEntity
  8
NOKOTOI
  6
PHANTOM
 62
     8
100
AcDbLine
 10
133.9126252907492
 20
109.5030231686368
 30
0.0
 11
127.8717252907487
 21
109.5030231686368
 31
0.0
  0
ARC
  5
5AC
330
1A
100
AcDbEntity
  8
NOKOTOI
  6
PHANTOM
 62
     8
100
AcDbCircle
 10
132.3687168665862
 20
107.3030306836933
 30
0.0
 40
0.9999924849789756
100
AcDbArc
 50
6.528264606673934
 51
89.99951732740965
  0
LINE
  5
5AD
330
1A
100
AcDbEntity
  8
NOKOTOI
  6
PHANTOM
 62
     8
100
AcDbLine
 10
126.2240252907488
 20
108.3030231686368
 30
0.0
 11
132.3687252907486
 21
108.3030231686368
 31
0.0
  0
ARC
  5
5AE
330
1A
100
AcDbEntity
  8
NOKOTOI
  6
PHANTOM
 62
     8
100
AcDbCircle
 10
127.8717388628872
 20
111.5030100135504
 30
0.0
 40
1.999986844959662
100
AcDbArc
 50
181.7875531852356
 51
269.9996111843215
  0
ARC
  5
5AF
330
1A
100
AcDbEntity
  8
NOKOTOI
  6
PHANTOM
 62
     8
100
AcDbCircle
 10
126.2240612498996
 20
109.8029883144936
 30
0.0
 40
1.499965146287778
100
AcDbArc
 50
181.7866280217767
 51
269.9986264296971
  0
ARC
  5
5B0
330
1A
100
AcDbEntity
  8
NOKOTOI
  6
PHANTOM
 62
     8
100
AcDbCircle
 10
133.9126378604571
 20
109.0030115439071
 30
0.0
 40
0.5000116248877111
100
AcDbArc
 50
4.474846808342103
 51
90.00144034898383
  0
ARC
  5
5B1
330
1A
100
AcDbEntity
  8
NOKOTOI
  6
PHANTOM
 62
     8
100
AcDbCircle
 10
126.3336380415987
 20
122.3030363237232
 30
0.0
 40
1.999986844954076
100
AcDbArc
 50
90.00036528735451
 51
181.7883072882703
  0
LINE
  5
5B2
330
1A
100
AcDbEntity
  8
NOKOTOI
  6
PHANTOM
 62
     8
100
AcDbLine
 10
132.6115252907486
 20
121.8030231686368
 30
0.0
 11
130.3800252907487
 21
121.8030231686368
 31
0.0
  0
ARC
  5
5B3
330
1A
100
AcDbEntity
  8
NOKOTOI
  6
PHANTOM
 62
     8
100
AcDbCircle
 10
132.2957184037538
 20
115.3030166335513
 30
0.0
 40
0.499993464961963
100
AcDbArc
 50
270.0007892017869
 51
356.997036131742
  0
LINE
  5
5B4
330
1A
100
AcDbEntity
  8
NOKOTOI
  6
PHANTOM
 62
     8
100
AcDbLine
 10
131.6316252907488
 20
116.0030231686368
 30
0.0
 11
131.8128252907488
 21
119.444523168637
 31
0.0
  0
LINE
  5
5B5
330
1A
100
AcDbEntity
  8
NOKOTOI
  6
PHANTOM
 62
     8
100
AcDbLine
 10
131.2578252907489
 20
118.8314231686367
 30
0.0
 11
131.8128252907488
 21
119.444523168637
 31
0.0
  0
ARC
  5
5B6
330
1A
100
AcDbEntity
  8
NOKOTOI
  6
PHANTOM
 62
     8
100
AcDbCircle
 10
129.785345503418
 20
114.3030818970168
 30
0.0
 40
5.2000412730095
100
AcDbArc
 50
90.0013245430618
 51
142.0757990790548
  0
LINE
  5
5B7
330
1A
100
AcDbEntity
  8
NOKOTOI
  6
PHANTOM
 62
     8
100
AcDbLine
 10
125.5340252907492
 20
122.2780231686367
 30
0.0
 11
125.6834252907485
 21
117.4991231686369
 31
0.0
  0
ARC
  5
5B8
330
1A
100
AcDbEntity
  8
NOKOTOI
  6
PHANTOM
 62
     8
100
AcDbCircle
 10
129.7852631721954
 20
114.3030669511622
 30
0.0
 40
3.999989731271038
100
AcDbArc
 50
96.47731142013116
 51
181.7899836067311
  0
ARC
  5
5B9
330
1A
100
AcDbEntity
  8
NOKOTOI
  6
PHANTOM
 62
     8
100
AcDbCircle
 10
129.3904395091642
 20
117.7807085343358
 30
0.0
 40
0.5000073448410256
100
AcDbArc
 50
351.872947864124
 51
96.47829282996921
  0
LINE
  5
5BA
330
1A
100
AcDbEntity
  8
NOKOTOI
  6
PHANTOM
 62
     8
100
AcDbLine
 10
130.8537252907492
 20
116.0030231686368
 30
0.0
 11
131.2578252907489
 21
118.8314231686367
 31
0.0
  0
LINE
  5
5BB
330
1A
100
AcDbEntity
  8
NOKOTOI
  6
PHANTOM
 62
     8
100
AcDbLine
 10
131.6316252907488
 20
116.0030231686368
 30
0.0
 11
130.8537252907492
 21
116.0030231686368
 31
0.0
  0
ARC
  5
5BC
330
1A
100
AcDbEntity
  8
NOKOTOI
  6
PHANTOM
 62
     8
100
AcDbCircle
 10
130.0466518913464
 20
115.3029924917547
 30
0.0
 40
0.4999693238254178
100
AcDbArc
 50
171.8555038770531
 51
269.9969516090356
  0
LINE
  5
5BD
330
1A
100
AcDbEntity
  8
NOKOTOI
  6
PHANTOM
 62
     8
100
AcDbLine
 10
132.2957252907487
 20
114.8030231686368
 30
0.0
 11
130.0466252907487
 21
114.8030231686368
 31
0.0
  0
LINE
  5
5BE
330
1A
100
AcDbEntity
  8
NOKOTOI
  6
PHANTOM
 62
     8
100
AcDbLine
 10
129.5517252907486
 20
115.373823168637
 30
0.0
 11
129.8854252907487
 21
117.7100231686369
 31
0.0
  0
LINE
  5
5BF
330
1A
100
AcDbEntity
  8
NOKOTOI
  6
PHANTOM
 62
     8
100
AcDbLine
 10
128.806425290749
 20
123.103023168637
 30
0.0
 11
128.306425290749
 21
120.603023168637
 31
0.0
  0
LINE
  5
5C0
330
1A
100
AcDbEntity
  8
NOKOTOI
  6
PHANTOM
 62
     8
100
AcDbLine
 10
128.306425290749
 20
120.603023168637
 30
0.0
 11
131.2429252907488
 21
120.603023168637
 31
0.0
  0
LINE
  5
5C1
330
1A
100
AcDbEntity
  8
NOKOTOI
  6
PHANTOM
 62
     8
100
AcDbLine
 10
126.3336252907485
 20
124.3030231686368
 30
0.0
 11
129.6602252907489
 21
124.3030231686368
 31
0.0
  0
LINE
  5
5C2
330
1A
100
AcDbEntity
  8
NOKOTOI
  6
PHANTOM
 62
     8
100
AcDbLine
 10
126.3336252907485
 20
123.103023168637
 30
0.0
 11
128.806425290749
 21
123.103023168637
 31
0.0
  0
ARC
  5
5C3
330
1A
100
AcDbEntity
  8
NOKOTOI
  6
PHANTOM
 62
     8
100
AcDbCircle
 10
126.3336297855468
 20
122.3030278061637
 30
0.0
 40
0.7999953624857498
100
AcDbArc
 50
90.00032191805264
 51
181.7911273464193
  0
ARC
  5
5C4
330
1A
100
AcDbEntity
  8
NOKOTOI
  6
PHANTOM
 62
     8
100
AcDbCircle
 10
129.6602245077403
 20
123.8030241236385
 30
0.0
 40
0.4999990449987349
100
AcDbArc
 50
348.6967198015447
 51
89.99991027369492
  0
ARC
  5
5C5
330
1A
100
AcDbEntity
  8
NOKOTOI
  6
PHANTOM
 62
     8
100
AcDbCircle
 10
130.3800180361933
 20
122.3030320184802
 30
0.0
 40
0.5000088498959383
100
AcDbArc
 50
168.6864043304892
 51
270.0008312961442
  0
LINE
  5
5C6
330
1A
100
AcDbEntity
  8
NOKOTOI
  6
PHANTOM
 62
     8
100
AcDbLine
 10
129.8897252907488
 20
122.4011231686367
 30
0.0
 11
130.1505252907488
 21
123.7050231686368
 31
0.0
  0
LINE
  5
5C7
330
1A
100
AcDbEntity
  8
NOKOTOI
  6
PHANTOM
 62
     8
100
AcDbLine
 10
130.2471252907491
 20
119.5030231686368
 30
0.0
 11
129.7852252907489
 21
119.5030231686368
 31
0.0
  0
LINE
  5
5C8
330
1A
100
AcDbEntity
  8
NOKOTOI
  6
PHANTOM
 62
     8
100
AcDbLine
 10
130.2471252907491
 20
119.5030231686368
 30
0.0
 11
131.2429252907488
 21
120.603023168637
 31
0.0
  0
LINE
  5
5C9
330
1A
100
AcDbEntity
  8
NOKOTOI
  6
PHANTOM
 62
     8
100
AcDbLine
 10
132.7951252907489
 20
115.2768231686368
 30
0.0
 11
133.1109252907487
 21
121.2767231686368
 31
0.0
  0
ARC
  5
5CA
330
1A
100
AcDbEntity
  8
NOKOTOI
  6
PHANTOM
 62
     8
100
AcDbCircle
 10
132.6115190895909
 20
121.3030297037221
 30
0.0
 40
0.4999934649531607
100
AcDbArc
 50
356.9955363203376
 51
89.99928939038076
  0
LINE
  5
5CB
330
1A
100
AcDbEntity
  8
NOKOTOI
  6
PHANTOM
 62
     8
100
AcDbLine
 10
216.9131252907488
 20
69.30292316863685
 30
0.0
 11
196.7552252907491
 21
69.30292316863685
 31
0.0
  0
LINE
  5
5CC
330
1A
100
AcDbEntity
  8
NOKOTOI
  6
PHANTOM
 62
     8
100
AcDbLine
 10
216.6633252907488
 20
70.50292316863689
 30
0.0
 11
196.7552252907491
 21
70.50292316863689
 31
0.0
  0
LINE
  5
5CD
330
1A
100
AcDbEntity
  8
NOKOTOI
  6
PHANTOM
 62
     8
100
AcDbLine
 10
220.9131252907488
 20
69.30292316863685
 30
0.0
 11
176.0837252907487
 21
69.30302316863683
 31
0.0
  0
LINE
  5
5CE
330
1A
100
AcDbEntity
  8
NOKOTOI
  6
PHANTOM
 62
     8
100
AcDbLine
 10
176.0837252907487
 20
70.50302316863687
 30
0.0
 11
220.6633252907488
 21
70.50292316863689
 31
0.0
  0
LINE
  5
5CF
330
1A
100
AcDbEntity
  8
NOKOTOI
  6
PHANTOM
 62
     8
100
AcDbLine
 10
242.6676252907488
 20
111.4404231686368
 30
0.0
 11
242.7531252907485
 21
114.1780231686368
 31
0.0
  0
LINE
  5
5D0
330
1A
100
AcDbEntity
  8
NOKOTOI
  6
PHANTOM
 62
     8
100
AcDbLine
 10
244.2056252907488
 20
122.2405231686368
 30
0.0
 11
243.8155252907488
 21
109.7561231686367
 31
0.0
  0
LINE
  5
5D1
330
1A
100
AcDbEntity
  8
NOKOTOI
  6
PHANTOM
 62
     8
100
AcDbLine
 10
242.3162252907488
 20
108.3030231686368
 30
0.0
 11
236.175125290749
 21
108.3030231686368
 31
0.0
  0
LINE
  5
5D2
330
1A
100
AcDbEntity
  8
NOKOTOI
  6
PHANTOM
 62
     8
100
AcDbLine
 10
234.6366252907484
 20
109.5030231686368
 30
0.0
 11
240.6685252907488
 21
109.5030231686368
 31
0.0
  0
LINE
  5
5D3
330
1A
100
AcDbEntity
  8
NOKOTOI
  6
PHANTOM
 62
     8
100
AcDbLine
 10
235.1801252907491
 20
107.4025231686368
 30
0.0
 11
232.3113252907489
 21
78.71512316863683
 31
0.0
  0
LINE
  5
5D4
330
1A
100
AcDbEntity
  8
NOKOTOI
  6
PHANTOM
 62
     8
100
AcDbLine
 10
234.1391252907489
 20
109.0528231686368
 30
0.0
 11
231.1461252907486
 21
79.12302316863677
 31
0.0
  0
LINE
  5
5D5
330
1A
100
AcDbEntity
  8
NOKOTOI
  6
PHANTOM
 62
     8
100
AcDbLine
 10
231.9495252907488
 20
78.04062316863698
 30
0.0
 11
221.5464252907488
 21
69.52892316863696
 31
0.0
  0
LINE
  5
5D6
330
1A
100
AcDbEntity
  8
NOKOTOI
  6
PHANTOM
 62
     8
100
AcDbLine
 10
230.9652252907492
 20
78.78572316863685
 30
0.0
 11
220.9799252907489
 21
70.61592316863673
 31
0.0
  0
ARC
  5
5D7
330
1A
100
AcDbEntity
  8
NOKOTOI
  6
PHANTOM
 62
     8
100
AcDbCircle
 10
220.9131183581714
 20
70.30292069363074
 30
0.0
 40
0.9999975250179316
100
AcDbArc
 50
270.0003972084035
 51
309.2946416752299
  0
ARC
  5
5D8
330
1A
100
AcDbEntity
  8
NOKOTOI
  6
PHANTOM
 62
     8
100
AcDbCircle
 10
220.6633316784975
 20
71.00292544862643
 30
0.0
 40
0.5000022800304047
100
AcDbArc
 50
269.9992680212791
 51
309.2854498596061
  0
ARC
  5
5D9
330
1A
100
AcDbEntity
  8
NOKOTOI
  6
PHANTOM
 62
     8
100
AcDbCircle
 10
231.3163027178799
 20
78.81458109696424
 30
0.0
 40
0.9999908507640039
100
AcDbArc
 50
309.288709223069
 51
354.2862329477532
  0
ARC
  5
5DA
330
1A
100
AcDbEntity
  8
NOKOTOI
  6
PHANTOM
 62
     8
100
AcDbCircle
 10
230.6486078648706
 20
79.17269068224888
 30
0.0
 40
0.4999904508696396
100
AcDbArc
 50
309.2900846377951
 51
354.2990110749239
  0
ARC
  5
5DB
330
1A
100
AcDbEntity
  8
NOKOTOI
  6
PHANTOM
 62
     8
100
AcDbCircle
 10
236.1751459405897
 20
107.303041856486
 30
0.0
 40
0.9999813123640345
100
AcDbArc
 50
90.00118317084911
 51
174.2905900333514
  0
ARC
  5
5DC
330
1A
100
AcDbEntity
  8
NOKOTOI
  6
PHANTOM
 62
     8
100
AcDbCircle
 10
234.6366383617534
 20
109.0030349989167
 30
0.0
 40
0.499988169890889
100
AcDbArc
 50
90.00149786226634
 51
174.2966061377162
  0
ARC
  5
5DD
330
1A
100
AcDbEntity
  8
NOKOTOI
  6
PHANTOM
 62
     8
100
AcDbCircle
 10
242.316242503927
 20
109.8030398517846
 30
0.0
 40
1.500016683246579
100
AcDbArc
 50
269.9993425123344
 51
358.2076423244113
  0
ARC
  5
5DE
330
1A
100
AcDbEntity
  8
NOKOTOI
  6
PHANTOM
 62
     8
100
AcDbCircle
 10
240.6685632785731
 20
111.502959989209
 30
0.0
 40
2.000036820932882
100
AcDbArc
 50
269.9989117490344
 51
358.2110591274195
  0
LINE
  5
5DF
330
1A
100
AcDbEntity
  8
NOKOTOI
  6
PHANTOM
 62
     8
100
AcDbLine
 10
242.2066252907491
 20
124.3029231686368
 30
0.0
 11
238.8800252907487
 21
124.3030231686368
 31
0.0
  0
LINE
  5
5E0
330
1A
100
AcDbEntity
  8
NOKOTOI
  6
PHANTOM
 62
     8
100
AcDbLine
 10
240.2339252907488
 20
120.603023168637
 30
0.0
 11
237.2973252907488
 21
120.603023168637
 31
0.0
  0
ARC
  5
5E1
330
1A
100
AcDbEntity
  8
NOKOTOI
  6
PHANTOM
 62
     8
100
AcDbCircle
 10
239.1498546632485
 20
117.7806534011317
 30
0.0
 40
0.4999578477751074
100
AcDbArc
 50
83.52609071220754
 51
188.1330561712932
  0
ARC
  5
5E2
330
1A
100
AcDbEntity
  8
NOKOTOI
  6
PHANTOM
 62
     8
100
AcDbCircle
 10
238.7551074243976
 20
114.3030318970167
 30
0.0
 40
5.199991271650611
100
AcDbArc
 50
37.92532860472995
 51
89.9998031407256
  0
LINE
  5
5E3
330
1A
100
AcDbEntity
  8
NOKOTOI
  6
PHANTOM
 62
     8
100
AcDbLine
 10
236.9086252907488
 20
116.0030231686368
 30
0.0
 11
236.7275252907486
 21
119.4444231686368
 31
0.0
  0
LINE
  5
5E4
330
1A
100
AcDbEntity
  8
NOKOTOI
  6
PHANTOM
 62
     8
100
AcDbLine
 10
237.2825252907488
 20
118.8314231686367
 30
0.0
 11
236.7275252907486
 21
119.4444231686368
 31
0.0
  0
LINE
  5
5E5
330
1A
100
AcDbEntity
  8
NOKOTOI
  6
PHANTOM
 62
     8
100
AcDbLine
 10
235.7452252907489
 20
115.2767231686368
 30
0.0
 11
235.4294252907486
 21
121.2767231686368
 31
0.0
  0
LINE
  5
5E6
330
1A
100
AcDbEntity
  8
NOKOTOI
  6
PHANTOM
 62
     8
100
AcDbLine
 10
237.6865252907484
 20
116.0030231686368
 30
0.0
 11
237.2825252907488
 21
118.8314231686367
 31
0.0
  0
LINE
  5
5E7
330
1A
100
AcDbEntity
  8
NOKOTOI
  6
PHANTOM
 62
     8
100
AcDbLine
 10
236.9086252907488
 20
116.0030231686368
 30
0.0
 11
237.6865252907484
 21
116.0030231686368
 31
0.0
  0
LINE
  5
5E8
330
1A
100
AcDbEntity
  8
NOKOTOI
  6
PHANTOM
 62
     8
100
AcDbLine
 10
236.2445252907488
 20
114.8030231686368
 30
0.0
 11
238.4936252907484
 21
114.8030231686368
 31
0.0
  0
ARC
  5
5E9
330
1A
100
AcDbEntity
  8
NOKOTOI
  6
PHANTOM
 62
     8
100
AcDbCircle
 10
236.2445294121555
 20
115.3030192586063
 30
0.0
 40
0.4999960899864752
100
AcDbArc
 50
183.0147243791741
 51
269.9995277178593
  0
ARC
  5
5EA
330
1A
100
AcDbEntity
  8
NOKOTOI
  6
PHANTOM
 62
     8
100
AcDbCircle
 10
238.493635477185
 20
115.3030349133609
 30
0.0
 40
0.5000117448278309
100
AcDbArc
 50
269.9988327478016
 51
8.127314608715551
  0
LINE
  5
5EB
330
1A
100
AcDbEntity
  8
NOKOTOI
  6
PHANTOM
 62
     8
100
AcDbLine
 10
238.9886252907488
 20
115.3737231686368
 30
0.0
 11
238.6548252907489
 21
117.7099231686369
 31
0.0
  0
LINE
  5
5EC
330
1A
100
AcDbEntity
  8
NOKOTOI
  6
PHANTOM
 62
     8
100
AcDbLine
 10
235.928725290749
 20
121.8030231686368
 30
0.0
 11
238.1602252907489
 21
121.8030231686368
 31
0.0
  0
ARC
  5
5ED
330
1A
100
AcDbEntity
  8
NOKOTOI
  6
PHANTOM
 62
     8
100
AcDbCircle
 10
235.9287290002441
 20
121.3030270786675
 30
0.0
 40
0.4999960899831856
100
AcDbArc
 50
90.00042508015082
 51
183.0156217414647
  0
ARC
  5
5EE
330
1A
100
AcDbEntity
  8
NOKOTOI
  6
PHANTOM
 62
     8
100
AcDbCircle
 10
238.8800180361933
 20
123.8030143187934
 30
0.0
 40
0.500008849895925
100
AcDbArc
 50
89.99916870385415
 51
191.3135956695126
  0
ARC
  5
5EF
330
1A
100
AcDbEntity
  8
NOKOTOI
  6
PHANTOM
 62
     8
100
AcDbCircle
 10
238.1602245077403
 20
122.3030222136351
 30
0.0
 40
0.4999990449987399
100
AcDbArc
 50
270.000089726305
 51
11.30328019845521
  0
LINE
  5
5F0
330
1A
100
AcDbEntity
  8
NOKOTOI
  6
PHANTOM
 62
     8
100
AcDbLine
 10
238.6505252907488
 20
122.401023168637
 30
0.0
 11
238.3897252907488
 21
123.7050231686368
 31
0.0
  0
LINE
  5
5F1
330
1A
100
AcDbEntity
  8
NOKOTOI
  6
PHANTOM
 62
     8
100
AcDbLine
 10
238.2931252907489
 20
119.5030231686368
 30
0.0
 11
238.7551252907489
 21
119.5030231686368
 31
0.0
  0
LINE
  5
5F2
330
1A
100
AcDbEntity
  8
NOKOTOI
  6
PHANTOM
 62
     8
100
AcDbLine
 10
238.2931252907489
 20
119.5030231686368
 30
0.0
 11
237.2973252907488
 21
120.603023168637
 31
0.0
  0
LINE
  5
5F3
330
1A
100
AcDbEntity
  8
NOKOTOI
  6
PHANTOM
 62
     8
100
AcDbLine
 10
243.0062252907484
 20
122.2780231686367
 30
0.0
 11
242.8569252907488
 21
117.4990231686369
 31
0.0
  0
ARC
  5
5F4
330
1A
100
AcDbEntity
  8
NOKOTOI
  6
PHANTOM
 62
     8
100
AcDbCircle
 10
238.7550943638127
 20
114.3030589133006
 30
0.0
 40
3.99998565374706
100
AcDbArc
 50
358.208696659101
 51
83.52422380468341
  0
ARC
  5
5F5
330
1A
100
AcDbEntity
  8
NOKOTOI
  6
PHANTOM
 62
     8
100
AcDbCircle
 10
242.2066140537546
 20
122.3030347624539
 30
0.0
 40
1.999988406214315
100
AcDbArc
 50
358.2088726535936
 51
89.99967808195551
  0
LINE
  5
5F6
330
1A
100
AcDbEntity
  8
NOKOTOI
  6
PHANTOM
 62
     8
100
AcDbLine
 10
242.2066252907491
 20
123.1029231686368
 30
0.0
 11
239.7339252907488
 21
123.103023168637
 31
0.0
  0
LINE
  5
5F7
330
1A
100
AcDbEntity
  8
NOKOTOI
  6
PHANTOM
 62
     8
100
AcDbLine
 10
239.7339252907488
 20
123.103023168637
 30
0.0
 11
240.2339252907488
 21
120.603023168637
 31
0.0
  0
ARC
  5
5F8
330
1A
100
AcDbEntity
  8
NOKOTOI
  6
PHANTOM
 62
     8
100
AcDbCircle
 10
242.2066692571017
 20
122.3029778061638
 30
0.0
 40
0.7999453636812564
100
AcDbArc
 50
358.2123436447881
 51
90.00314907315425
  0
LINE
  5
9FB
330
1A
100
AcDbEntity
  8
SEIHIN
100
AcDbLine
 10
185.770245429643
 20
69.10302316863682
 30
0.0
 11
223.3494314296431
 21
69.10302316863682
 31
0.0
  0
LINE
  5
9FC
330
1A
100
AcDbEntity
  8
SEIHIN
100
AcDbLine
 10
185.770245429643
 20
67.90302316863678
 30
0.0
 11
223.777787529643
 21
67.90302316863678
 31
0.0
  0
LINE
  5
9FD
330
1A
100
AcDbEntity
  8
SEIHIN
100
AcDbLine
 10
185.770245429643
 20
64.90302316863678
 30
0.0
 11
224.848677529643
 21
64.90302316863678
 31
0.0
  0
LINE
  5
9FE
330
1A
100
AcDbEntity
  8
SEIHIN
100
AcDbLine
 10
175.770245429643
 20
61.90302316863678
 30
0.0
 11
237.770245429643
 21
61.90302316863678
 31
0.0
  0
LINE
  5
9FF
330
1A
100
AcDbEntity
  8
SEIHIN
100
AcDbLine
 10
182.270245429643
 20
61.40302316863678
 30
0.0
 11
189.270245429643
 21
61.40302316863678
 31
0.0
  0
LINE
  5
A00
330
1A
100
AcDbEntity
  8
SEIHIN
100
AcDbLine
 10
47.37005553165306
 20
61.40302316863678
 30
0.0
 11
54.37005553165306
 21
61.40302316863678
 31
0.0
  0
LINE
  5
A01
330
1A
100
AcDbEntity
  8
SEIHIN
100
AcDbLine
 10
47.37005553165306
 20
61.40302316863678
 30
0.0
 11
54.37005553165306
 21
61.40302316863678
 31
0.0
  0
LINE
  5
A02
330
1A
100
AcDbEntity
  8
SEIHIN
100
AcDbLine
 10
45.37005553165307
 20
64.90302316863678
 30
0.0
 11
56.37005553165306
 21
64.90302316863678
 31
0.0
  0
LINE
  5
A04
330
1A
100
AcDbEntity
  8
SEIHIN
100
AcDbLine
 10
57.37005553165307
 20
61.90302316863678
 30
0.0
 11
44.37005553165306
 21
61.90302316863678
 31
0.0
  0
LINE
  5
A06
330
1A
100
AcDbEntity
  8
SEIHIN
100
AcDbLine
 10
61.87005553165306
 20
105.9030231686367
 30
0.0
 11
39.87005553165306
 21
105.9030231686367
 31
0.0
  0
ARC
  5
A07
330
1A
100
AcDbEntity
  8
SEIHIN
100
AcDbCircle
 10
46.77005553165304
 20
141.1030231686368
 30
0.0
 40
2.0
100
AcDbArc
 50
0.0
 51
90.0
  0
ARC
  5
A08
330
1A
100
AcDbEntity
  8
SEIHIN
100
AcDbCircle
 10
46.27005553165304
 20
120.6030231686368
 30
0.0
 40
2.5
100
AcDbArc
 50
180.0
 51
0.0
  0
LINE
  5
A09
330
1A
100
AcDbEntity
  8
SEIHIN
100
AcDbLine
 10
53.87005553165306
 20
155.1030231686368
 30
0.0
 11
47.87005553165307
 21
155.1030231686368
 31
0.0
  0
LINE
  5
A0C
330
1A
100
AcDbEntity
  8
SEIHIN
100
AcDbLine
 10
43.87005553165306
 20
68.40302316863677
 30
0.0
 11
43.87005553165306
 21
105.9030231686367
 31
0.0
  0
LINE
  5
A11
330
1A
100
AcDbEntity
  8
SEIHIN
100
AcDbLine
 10
42.37005553165306
 20
67.90302316863678
 30
0.0
 11
39.87005553165306
 21
67.90302316863678
 31
0.0
  0
LINE
  5
A13
330
1A
100
AcDbEntity
  8
SEIHIN
100
AcDbLine
 10
42.07765303165309
 20
64.50776526863679
 30
0.0
 11
42.07765303165309
 21
64.61610706863679
 31
0.0
  0
LINE
  5
A14
330
1A
100
AcDbEntity
  8
SEIHIN
100
AcDbLine
 10
47.37005553165306
 20
61.90302316863678
 30
0.0
 11
47.37005553165306
 21
61.40302316863678
 31
0.0
  0
LINE
  5
A15
330
1A
100
AcDbEntity
  8
SEIHIN
100
AcDbLine
 10
47.37005553165306
 20
61.90302316863678
 30
0.0
 11
47.37005553165306
 21
61.40302316863678
 31
0.0
  0
ARC
  5
A16
330
1A
100
AcDbEntity
  8
SEIHIN
100
AcDbCircle
 10
45.37005553165307
 20
66.40302316863678
 30
0.0
 40
1.5
100
AcDbArc
 50
180.0
 51
270.0
  0
LINE
  5
A17
330
1A
100
AcDbEntity
  8
SEIHIN
100
AcDbLine
 10
42.07765303165309
 20
64.50776526863679
 30
0.0
 11
44.37005553165306
 21
64.50776526863679
 31
0.0
  0
LINE
  5
A18
330
1A
100
AcDbEntity
  8
SEIHIN
100
AcDbLine
 10
42.07765303165309
 20
67.90302316863678
 30
0.0
 11
42.07765303165309
 21
64.50776526863679
 31
0.0
  0
LINE
  5
A19
330
1A
100
AcDbEntity
  8
SEIHIN
100
AcDbLine
 10
44.37005553165306
 20
64.90302316863678
 30
0.0
 11
45.37005553165307
 21
64.90302316863678
 31
0.0
  0
LINE
  5
A1A
330
1A
100
AcDbEntity
  8
SEIHIN
100
AcDbLine
 10
44.37005553165306
 20
61.90302316863678
 30
0.0
 11
44.37005553165306
 21
64.90302316863678
 31
0.0
  0
ARC
  5
A1B
330
1A
100
AcDbEntity
  8
SEIHIN
100
AcDbCircle
 10
42.37005553165306
 20
66.40302316863678
 30
0.0
 40
1.5
100
AcDbArc
 50
0.0
 51
90.0
  0
ARC
  5
A24
330
1A
100
AcDbEntity
  8
SEIHIN
100
AcDbCircle
 10
41.82005553165299
 20
121.1530231686367
 30
0.0
 40
1.949999999999988
100
AcDbArc
 50
0.0
 51
180.0
  0
LINE
  5
A33
330
1A
100
AcDbEntity
  8
SEIHIN
100
AcDbLine
 10
43.77005553165304
 20
121.1530231686367
 30
0.0
 11
43.77005553165304
 21
120.6030231686368
 31
0.0
  0
LINE
  5
A34
330
1A
100
AcDbEntity
  8
SEIHIN
100
AcDbLine
 10
43.77005553165304
 20
121.1030231686368
 30
0.0
 11
43.77005553165304
 21
121.1030231686368
 31
0.0
  0
LINE
  5
A35
330
1A
100
AcDbEntity
  8
SEIHIN
100
AcDbLine
 10
44.87005553165306
 20
145.1017731686368
 30
0.0
 11
44.87005553165306
 21
152.1030231686368
 31
0.0
  0
ARC
  5
A36
330
1A
100
AcDbEntity
  8
SEIHIN
100
AcDbCircle
 10
46.87005553165306
 20
145.1017731686368
 30
0.0
 40
1.999999998843762
100
AcDbArc
 50
180.0
 51
268.5674562607732
  0
LINE
  5
A37
330
1A
100
AcDbEntity
  8
SEIHIN
100
AcDbLine
 10
46.37005553165306
 20
143.1030231686368
 30
0.0
 11
46.37005553165306
 21
143.1030231686368
 31
0.0
  0
ARC
  5
A38
330
1A
100
AcDbEntity
  8
SEIHIN
100
AcDbCircle
 10
47.87005553165307
 20
152.1030231686368
 30
0.0
 40
3.0
100
AcDbArc
 50
90.0
 51
180.0
  0
ARC
  5
A39
330
1A
100
AcDbEntity
  8
SEIHIN
100
AcDbCircle
 10
177.0837954296431
 20
112.1030231686368
 30
0.0
 40
43.99999996755491
100
AcDbArc
 50
190.0046914246752
 51
256.9987985386973
  0
ARC
  5
A3A
330
1A
100
AcDbEntity
  8
SEIHIN
100
AcDbCircle
 10
177.0837954296431
 20
112.1030231686368
 30
0.0
 40
45.19999999393088
100
AcDbArc
 50
190.0046914399661
 51
256.9987985135611
  0
ARC
  5
A3B
330
1A
100
AcDbEntity
  8
SEIHIN
100
AcDbCircle
 10
177.0837954296431
 20
112.1030231686368
 30
0.0
 40
48.19999998338746
100
AcDbArc
 50
190.3515581005718
 51
256.999279253117
  0
LINE
  5
A3E
330
1A
100
AcDbEntity
  8
SEIHIN
100
AcDbLine
 10
57.87005553165307
 20
68.40302316863677
 30
0.0
 11
57.87005553165307
 21
105.9030231686367
 31
0.0
  0
ARC
  5
A42
330
1A
100
AcDbEntity
  8
SEIHIN
100
AcDbCircle
 10
56.37005553165306
 20
66.40302316863678
 30
0.0
 40
1.5
100
AcDbArc
 50
270.0
 51
0.0
  0
LINE
  5
A43
330
1A
100
AcDbEntity
  8
SEIHIN
100
AcDbLine
 10
56.37005553165306
 20
64.90302316863678
 30
0.0
 11
57.37005553165307
 21
64.90302316863678
 31
0.0
  0
LINE
  5
A44
330
1A
100
AcDbEntity
  8
SEIHIN
100
AcDbLine
 10
54.37005553165306
 20
61.40302316863678
 30
0.0
 11
54.37005553165306
 21
61.90302316863678
 31
0.0
  0
LINE
  5
A46
330
1A
100
AcDbEntity
  8
SEIHIN
100
AcDbLine
 10
59.66245803165304
 20
64.61610706863679
 30
0.0
 11
59.66245803165304
 21
64.50776526863679
 31
0.0
  0
LINE
  5
A47
330
1A
100
AcDbEntity
  8
SEIHIN
100
AcDbLine
 10
59.37005553165306
 20
67.90302316863678
 30
0.0
 11
61.87005553165306
 21
67.90302316863678
 31
0.0
  0
ARC
  5
A49
330
1A
100
AcDbEntity
  8
SEIHIN
100
AcDbCircle
 10
59.37005553165306
 20
66.40302316863678
 30
0.0
 40
1.5
100
AcDbArc
 50
90.0
 51
180.0
  0
LINE
  5
A4A
330
1A
100
AcDbEntity
  8
SEIHIN
100
AcDbLine
 10
59.66245803165304
 20
64.50776526863679
 30
0.0
 11
59.66245803165304
 21
67.90302316863678
 31
0.0
  0
LINE
  5
A4B
330
1A
100
AcDbEntity
  8
SEIHIN
100
AcDbLine
 10
57.37005553165307
 20
64.90302316863678
 30
0.0
 11
57.37005553165307
 21
64.50776526863679
 31
0.0
  0
LINE
  5
A4C
330
1A
100
AcDbEntity
  8
SEIHIN
100
AcDbLine
 10
57.37005553165307
 20
64.50776526863679
 30
0.0
 11
59.66245803165304
 21
64.50776526863679
 31
0.0
  0
LINE
  5
A4D
330
1A
100
AcDbEntity
  8
SEIHIN
100
AcDbLine
 10
57.37005553165307
 20
64.50776526863679
 30
0.0
 11
57.37005553165307
 21
61.90302316863678
 31
0.0
  0
ARC
  5
A56
330
1A
100
AcDbEntity
  8
SEIHIN
100
AcDbCircle
 10
168.308830429643
 20
74.10302316863682
 30
0.0
 40
5.000000009884356
100
AcDbArc
 50
256.997175988683
 51
270.0
  0
LINE
  5
A57
330
1A
100
AcDbEntity
  8
SEIHIN
100
AcDbLine
 10
168.308830429643
 20
69.10302316863682
 30
0.0
 11
185.770245429643
 21
69.10302316863682
 31
0.0
  0
LINE
  5
A58
330
1A
100
AcDbEntity
  8
SEIHIN
100
AcDbLine
 10
168.308830429643
 20
67.90302316863678
 30
0.0
 11
185.770245429643
 21
67.90302316863678
 31
0.0
  0
LINE
  5
A59
330
1A
100
AcDbEntity
  8
SEIHIN
100
AcDbLine
 10
168.308830429643
 20
64.90302316863678
 30
0.0
 11
185.770245429643
 21
64.90302316863678
 31
0.0
  0
ARC
  5
A5A
330
1A
100
AcDbEntity
  8
SEIHIN
100
AcDbCircle
 10
168.308830429643
 20
74.10302316863682
 30
0.0
 40
6.20000002439895
100
AcDbArc
 50
256.9971760025682
 51
270.0
  0
ARC
  5
A5B
330
1A
100
AcDbEntity
  8
SEIHIN
100
AcDbCircle
 10
168.308830429643
 20
74.10302316863682
 30
0.0
 40
9.20000000634241
100
AcDbArc
 50
256.9971761847128
 51
270.0
  0
LINE
  5
A5C
330
1A
100
AcDbEntity
  8
SEIHIN
100
AcDbLine
 10
175.770245429643
 20
64.90302316863678
 30
0.0
 11
175.770245429643
 21
61.90302316863678
 31
0.0
  0
LINE
  5
A5D
330
1A
100
AcDbEntity
  8
SEIHIN
100
AcDbLine
 10
182.270245429643
 20
61.90302316863678
 30
0.0
 11
182.270245429643
 21
61.40302316863678
 31
0.0
  0
LINE
  5
A5E
330
1A
100
AcDbEntity
  8
SEIHIN
100
AcDbLine
 10
52.97005553165309
 20
141.1030231686368
 30
0.0
 11
52.97005553165309
 21
120.6030231686368
 31
0.0
  0
LINE
  5
A5F
330
1A
100
AcDbEntity
  8
SEIHIN
100
AcDbLine
 10
48.77005553165304
 20
141.1030231686368
 30
0.0
 11
48.77005553165304
 21
120.6030231686368
 31
0.0
  0
ARC
  5
A60
330
1A
100
AcDbEntity
  8
SEIHIN
100
AcDbCircle
 10
59.92005553165302
 20
121.1530231686367
 30
0.0
 40
1.949999999999988
100
AcDbArc
 50
0.0
 51
180.0
  0
LINE
  5
A61
330
1A
100
AcDbEntity
  8
SEIHIN
100
AcDbLine
 10
61.87005553165306
 20
121.1530231686367
 30
0.0
 11
61.87005553165306
 21
67.90302316863677
 31
0.0
  0
LINE
  5
A66
330
1A
100
AcDbEntity
  8
SEIHIN
100
AcDbLine
 10
61.87005553165306
 20
98.43225196863677
 30
0.0
 11
61.87005553165306
 21
97.76020396863682
 31
0.0
  0
ARC
  5
A71
330
1A
100
AcDbEntity
  8
SEIHIN
100
AcDbCircle
 10
55.47005553165309
 20
120.6030231686368
 30
0.0
 40
2.5
100
AcDbArc
 50
180.0
 51
0.0
  0
LINE
  5
A72
330
1A
100
AcDbEntity
  8
SEIHIN
100
AcDbLine
 10
57.97005553165309
 20
121.1030231686368
 30
0.0
 11
57.97005553165309
 21
121.1030231686368
 31
0.0
  0
LINE
  5
A73
330
1A
100
AcDbEntity
  8
SEIHIN
100
AcDbLine
 10
57.97005553165309
 20
121.1530231686367
 30
0.0
 11
57.97005553165309
 21
120.6030231686368
 31
0.0
  0
LINE
  5
A74
330
1A
100
AcDbEntity
  8
SEIHIN
100
AcDbLine
 10
52.97005553165309
 20
129.9278351686367
 30
0.0
 11
52.97005553165309
 21
129.9278351686367
 31
0.0
  0
LINE
  5
A75
330
1A
100
AcDbEntity
  8
SEIHIN
100
AcDbLine
 10
48.77005553165304
 20
129.9278351686367
 30
0.0
 11
48.77005553165304
 21
129.9278351686367
 31
0.0
  0
LINE
  5
A76
330
1A
100
AcDbEntity
  8
SEIHIN
100
AcDbLine
 10
52.97005553165309
 20
128.9881081686368
 30
0.0
 11
52.97005553165309
 21
128.9881081686368
 31
0.0
  0
LINE
  5
A77
330
1A
100
AcDbEntity
  8
SEIHIN
100
AcDbLine
 10
48.77005553165304
 20
128.9881081686368
 30
0.0
 11
48.77005553165304
 21
128.9881081686368
 31
0.0
  0
LINE
  5
A78
330
1A
100
AcDbEntity
  8
SEIHIN
100
AcDbLine
 10
56.87005553165306
 20
145.1017731686368
 30
0.0
 11
56.87005553165306
 21
152.1030231686368
 31
0.0
  0
ARC
  5
A79
330
1A
100
AcDbEntity
  8
SEIHIN
100
AcDbCircle
 10
54.87005553165307
 20
145.1017731686368
 30
0.0
 40
1.99999999884376
100
AcDbArc
 50
271.4325437392202
 51
0.0
  0
ARC
  5
A7A
330
1A
100
AcDbEntity
  8
SEIHIN
100
AcDbCircle
 10
54.97005553165308
 20
141.1030231686368
 30
0.0
 40
2.0
100
AcDbArc
 50
90.0
 51
180.0
  0
ARC
  5
A7B
330
1A
100
AcDbEntity
  8
SEIHIN
100
AcDbCircle
 10
53.87005553165306
 20
152.1030231686368
 30
0.0
 40
3.0
100
AcDbArc
 50
0.0
 51
90.0
  0
LINE
  5
A7C
330
1A
100
AcDbEntity
  8
SEIHIN
100
AcDbLine
 10
124.270245429643
 20
155.1030231686368
 30
0.0
 11
124.270245429643
 21
108.1030231686368
 31
0.0
  0
LINE
  5
A7D
330
1A
100
AcDbEntity
  8
SEIHIN
100
AcDbLine
 10
123.0702454296431
 20
155.1030231686368
 30
0.0
 11
123.0702454296431
 21
108.1030231686368
 31
0.0
  0
ARC
  5
A7E
330
1A
100
AcDbEntity
  8
SEIHIN
100
AcDbCircle
 10
126.717139829643
 20
102.9030231686367
 30
0.0
 40
2.999999985884628
100
AcDbArc
 50
10.35155819740191
 51
90.0
  0
LINE
  5
A7F
330
1A
100
AcDbEntity
  8
SEIHIN
100
AcDbLine
 10
130.6015407296431
 20
107.1030231686368
 30
0.0
 11
125.270245429643
 21
107.1030231686368
 31
0.0
  0
LINE
  5
A80
330
1A
100
AcDbEntity
  8
SEIHIN
100
AcDbLine
 10
130.6015407296431
 20
105.9030231686367
 30
0.0
 11
125.270245429643
 21
105.9030231686367
 31
0.0
  0
ARC
  5
A81
330
1A
100
AcDbEntity
  8
SEIHIN
100
AcDbCircle
 10
125.270245429643
 20
108.1030231686368
 30
0.0
 40
1.0
100
AcDbArc
 50
180.0
 51
270.0
  0
LINE
  5
A82
330
1A
100
AcDbEntity
  8
SEIHIN
100
AcDbLine
 10
125.303524429643
 20
107.1030231686368
 30
0.0
 11
125.303524429643
 21
107.1030231686368
 31
0.0
  0
ARC
  5
A83
330
1A
100
AcDbEntity
  8
SEIHIN
100
AcDbCircle
 10
125.270245429643
 20
108.1030231686368
 30
0.0
 40
2.199999999999988
100
AcDbArc
 50
180.0
 51
270.0
  0
ARC
  5
A84
330
1A
100
AcDbEntity
  8
SEIHIN
100
AcDbCircle
 10
130.6015407296431
 20
103.9030231686367
 30
0.0
 40
3.199999999587582
100
AcDbArc
 50
10.00469134359077
 51
90.0
  0
ARC
  5
A85
330
1A
100
AcDbEntity
  8
SEIHIN
100
AcDbCircle
 10
130.6015407296431
 20
103.9030231686367
 30
0.0
 40
2.000000016035531
100
AcDbArc
 50
10.00469045164722
 51
90.0
  0
LINE
  5
A86
330
1A
100
AcDbEntity
  8
SEIHIN
100
AcDbLine
 10
124.270245429643
 20
113.6993571686367
 30
0.0
 11
124.270245429643
 21
113.6993571686367
 31
0.0
  0
LINE
  5
A87
330
1A
100
AcDbEntity
  8
SEIHIN
100
AcDbLine
 10
124.270245429643
 20
123.1030231686368
 30
0.0
 11
123.0702454296431
 21
123.1030231686368
 31
0.0
  0
LINE
  5
A88
330
1A
100
AcDbEntity
  8
SEIHIN
100
AcDbLine
 10
124.270245429643
 20
143.1030231686368
 30
0.0
 11
123.0702454296431
 21
143.1030231686368
 31
0.0
  0
LINE
  5
A89
330
1A
100
AcDbEntity
  8
SEIHIN
100
AcDbLine
 10
124.270245429643
 20
155.1030231686368
 30
0.0
 11
123.0702454296431
 21
155.1030231686368
 31
0.0
  0
LINE
  5
A8B
330
1A
100
AcDbEntity
  8
SEIHIN
100
AcDbLine
 10
243.770245429643
 20
67.90302316863678
 30
0.0
 11
243.770245429643
 21
96.90302316863679
 31
0.0
  0
LINE
  5
A8D
330
1A
100
AcDbEntity
  8
SEIHIN
100
AcDbLine
 10
234.8686531296431
 20
76.97736716863677
 30
0.0
 11
236.9385417296431
 21
97.67626046863679
 31
0.0
  0
LINE
  5
A8E
330
1A
100
AcDbEntity
  8
SEIHIN
100
AcDbLine
 10
240.1382390296431
 20
99.52360666863679
 30
0.0
 11
237.730117429643
 21
75.44238236863681
 31
0.0
  0
LINE
  5
A8F
330
1A
100
AcDbEntity
  8
SEIHIN
100
AcDbLine
 10
240.770245429643
 20
96.90302316863679
 30
0.0
 11
240.770245429643
 21
67.90302316863678
 31
0.0
  0
LINE
  5
A93
330
1A
100
AcDbEntity
  8
SEIHIN
100
AcDbLine
 10
233.7240674296431
 20
77.59136116863682
 30
0.0
 11
235.7444971296431
 21
97.79566486863679
 31
0.0
  0
LINE
  5
A95
330
1A
100
AcDbEntity
  8
SEIHIN
100
AcDbLine
 10
189.270245429643
 20
61.40302316863678
 30
0.0
 11
189.270245429643
 21
61.90302316863678
 31
0.0
  0
LINE
  5
A96
330
1A
100
AcDbEntity
  8
SEIHIN
100
AcDbLine
 10
223.777787529643
 20
67.90302316863678
 30
0.0
 11
234.8686531296431
 21
76.97736716863677
 31
0.0
  0
LINE
  5
A97
330
1A
100
AcDbEntity
  8
SEIHIN
100
AcDbLine
 10
224.848677529643
 20
64.90302316863678
 30
0.0
 11
237.730117429643
 21
75.44238236863681
 31
0.0
  0
LINE
  5
A98
330
1A
100
AcDbEntity
  8
SEIHIN
100
AcDbLine
 10
223.3494314296431
 20
69.10302316863682
 30
0.0
 11
233.7240674296431
 21
77.59136116863682
 31
0.0
  0
ARC
  5
A99
330
1A
100
AcDbEntity
  8
SEIHIN
100
AcDbCircle
 10
237.770245429643
 20
67.90302316863678
 30
0.0
 40
3.0
100
AcDbArc
 50
270.0
 51
0.0
  0
ARC
  5
A9A
330
1A
100
AcDbEntity
  8
SEIHIN
100
AcDbCircle
 10
237.770245429643
 20
67.90302316863678
 30
0.0
 40
6.0
100
AcDbArc
 50
270.0
 51
0.0
  0
LINE
  5
A9B
330
1A
100
AcDbEntity
  8
SEIHIN
100
AcDbLine
 10
237.770245429643
 20
64.90302316863678
 30
0.0
 11
224.848677529643
 21
64.90302316863678
 31
0.0
  0
LINE
  5
AA2
330
1A
100
AcDbEntity
  8
SEIHIN
100
AcDbLine
 10
264.810401633219
 20
63.616106849676
 30
0.0
 11
270.2545089520472
 21
65.81566866256952
 31
0.0
  0
LINE
  5
AA6
330
1A
100
AcDbEntity
  8
SEIHIN
100
AcDbLine
 10
256.4800715415334
 20
82.89966461761528
 30
0.0
 11
259.1023176716639
 21
76.40937764074286
 31
0.0
  0
LINE
  5
AA9
330
1A
100
AcDbEntity
  8
SEIHIN
100
AcDbLine
 10
259.1023176716639
 20
76.40937764074286
 30
0.0
 11
259.5659095803337
 21
76.59668088705896
 31
0.0
  0
LINE
  5
ABB
330
1A
100
AcDbEntity
  8
SEIHIN
100
AcDbLine
 10
256.9436635579009
 20
83.08696795558935
 30
0.0
 11
256.4800715415334
 21
82.89966461761528
 31
0.0
  0
LINE
  5
AC3
330
1A
100
AcDbEntity
  8
SEIHIN
100
AcDbLine
 10
255.3069161616832
 20
99.15066271391436
 30
0.0
 11
255.8714988743091
 21
97.75327145322222
 31
0.0
  0
LINE
  5
AC4
330
1A
100
AcDbEntity
  8
SEIHIN
100
AcDbLine
 10
270.254508876364
 20
65.81566884989192
 30
0.0
 11
257.1432784419223
 21
98.26710367722441
 31
0.0
  0
LINE
  5
AC5
330
1A
100
AcDbEntity
  8
SEIHIN
100
AcDbLine
 10
236.8236767296431
 20
126.1164826686367
 30
0.0
 11
229.709585729643
 21
121.1351426686367
 31
0.0
  0
LINE
  5
AC6
330
1A
100
AcDbEntity
  8
SEIHIN
100
AcDbLine
 10
245.270245429643
 20
105.8916981686367
 30
0.0
 11
245.270245429643
 21
124.3143481686368
 31
0.0
  0
LINE
  5
AC7
330
1A
100
AcDbEntity
  8
SEIHIN
100
AcDbLine
 10
237.5119684296431
 20
125.1335001686367
 30
0.0
 11
230.3978774296431
 21
120.1521601686367
 31
0.0
  0
LINE
  5
AC8
330
1A
100
AcDbEntity
  8
SEIHIN
100
AcDbLine
 10
246.4702454296431
 20
105.8916981686367
 30
0.0
 11
246.4702454296431
 21
124.3143481686368
 31
0.0
  0
LINE
  5
AC9
330
1A
100
AcDbEntity
  8
SEIHIN
100
AcDbLine
 10
244.770245429643
 20
105.0256731686368
 30
0.0
 11
237.8236532296431
 21
101.0150560686368
 31
0.0
  0
ARC
  5
ACA
330
1A
100
AcDbEntity
  8
SEIHIN
100
AcDbCircle
 10
244.270245429643
 20
105.8916981686367
 30
0.0
 40
2.200000005055114
100
AcDbArc
 50
299.9999998479836
 51
0.0
  0
LINE
  5
ACB
330
1A
100
AcDbEntity
  8
SEIHIN
100
AcDbLine
 10
245.370245529643
 20
103.9864426686368
 30
0.0
 11
238.4236533296431
 21
99.97582556863678
 31
0.0
  0
ARC
  5
ACC
330
1A
100
AcDbEntity
  8
SEIHIN
100
AcDbCircle
 10
239.9236533296431
 20
97.37774936863679
 30
0.0
 40
4.200000021369245
100
AcDbArc
 50
120.0000011534159
 51
174.2894084913981
  0
ARC
  5
ACD
330
1A
100
AcDbEntity
  8
SEIHIN
100
AcDbCircle
 10
239.9236533296431
 20
97.37774936863679
 30
0.0
 40
3.000000006856998
100
AcDbArc
 50
120.0000001084146
 51
174.2894080027292
  0
LINE
  5
ACF
330
1A
100
AcDbEntity
  8
SEIHIN
100
AcDbLine
 10
249.7438130942898
 20
99.90302316863678
 30
0.0
 11
246.770245429643
 21
99.90302316863678
 31
0.0
  0
LINE
  5
AD0
330
1A
100
AcDbEntity
  8
SEIHIN
100
AcDbLine
 10
246.770245429643
 20
102.9030231686367
 30
0.0
 11
249.7438130281341
 21
102.9030231686367
 31
0.0
  0
ARC
  5
AD1
330
1A
100
AcDbEntity
  8
SEIHIN
100
AcDbCircle
 10
243.123350529643
 20
99.2250955686368
 30
0.0
 40
2.999999957105099
100
AcDbArc
 50
120.0000001084146
 51
174.2894078126911
  0
ARC
  5
AD2
330
1A
100
AcDbEntity
  8
SEIHIN
100
AcDbCircle
 10
246.770245429643
 20
96.90302316863679
 30
0.0
 40
3.0
100
AcDbArc
 50
90.0
 51
180.0
  0
ARC
  5
AD3
330
1A
100
AcDbEntity
  8
SEIHIN
100
AcDbCircle
 10
246.770245429643
 20
96.90302316863679
 30
0.0
 40
6.0
100
AcDbArc
 50
90.0
 51
180.0
  0
LINE
  5
AD4
330
1A
100
AcDbEntity
  8
SEIHIN
100
AcDbLine
 10
253.089947247364
 20
96.62945181100825
 30
0.0
 11
252.5253647119709
 21
98.02684281527772
 31
0.0
  0
LINE
  5
AD8
330
1A
100
AcDbEntity
  8
SEIHIN
100
AcDbLine
 10
229.709585729643
 20
121.1351426686367
 30
0.0
 11
230.3978774296431
 21
120.1521601686367
 31
0.0
  0
ARC
  5
AD9
330
1A
100
AcDbEntity
  8
SEIHIN
100
AcDbCircle
 10
244.270245429643
 20
105.8916981686367
 30
0.0
 40
0.9999999983612706
100
AcDbArc
 50
300.0000001084146
 51
0.0
  0
LINE
  5
ADA
330
1A
100
AcDbEntity
  8
SEIHIN
100
AcDbLine
 10
245.270245429643
 20
114.5039541686367
 30
0.0
 11
245.270245429643
 21
114.5039541686367
 31
0.0
  0
LINE
  5
ADB
330
1A
100
AcDbEntity
  8
SEIHIN
100
AcDbLine
 10
238.0855444296431
 20
125.3143481686368
 30
0.0
 11
244.270245429643
 21
125.3143481686368
 31
0.0
  0
LINE
  5
ADC
330
1A
100
AcDbEntity
  8
SEIHIN
100
AcDbLine
 10
238.0855444296431
 20
126.5143481686367
 30
0.0
 11
244.270245429643
 21
126.5143481686367
 31
0.0
  0
LINE
  5
ADD
330
1A
100
AcDbEntity
  8
SEIHIN
100
AcDbLine
 10
233.643121829643
 20
123.8894341686368
 30
0.0
 11
234.3314134296431
 21
122.9064511686368
 31
0.0
  0
ARC
  5
ADE
330
1A
100
AcDbEntity
  8
SEIHIN
100
AcDbCircle
 10
238.0855444296431
 20
124.3143481686368
 30
0.0
 40
2.199999983850877
100
AcDbArc
 50
90.0
 51
124.9999986822715
  0
ARC
  5
ADF
330
1A
100
AcDbEntity
  8
SEIHIN
100
AcDbCircle
 10
238.0855444296431
 20
124.3143481686368
 30
0.0
 40
0.9999999714352551
100
AcDbArc
 50
90.0
 51
124.9999997494021
  0
ARC
  5
AE0
330
1A
100
AcDbEntity
  8
SEIHIN
100
AcDbCircle
 10
244.270245429643
 20
124.3143481686368
 30
0.0
 40
2.200000000000017
100
AcDbArc
 50
0.0
 51
90.0
  0
ARC
  5
AE1
330
1A
100
AcDbEntity
  8
SEIHIN
100
AcDbCircle
 10
244.270245429643
 20
124.3143481686368
 30
0.0
 40
1.0
100
AcDbArc
 50
0.0
 51
90.0
  0
LINE
  5
B98
330
1A
100
AcDbEntity
  8
SUNPOU
100
AcDbLine
 10
275.9103032642053
 20
41.81708619271498
 30
0.0
 11
275.9103032642054
 21
51.81708619271498
 31
0.0
  0
TEXT
  5
B9A
330
1A
100
AcDbEntity
  8
SUNPOU
100
AcDbText
 10
271.0491709918545
 20
45.5959188606824
 30
-23.49201566
 40
3.0
  1
10
100
AcDbText
  0
TEXT
  5
B9B
330
1A
100
AcDbEntity
  8
SUNPOU
100
AcDbText
 10
277.2447964612636
 20
38.10437745327028
 30
-23.49201566
 40
3.0
  1
4
100
AcDbText
  0
LINE
  5
B9C
330
1A
100
AcDbEntity
  8
CENTER_L
100
AcDbLine
 10
185.770245429643
 20
54.40302316863676
 30
0.0
 11
185.770245429643
 21
76.10302316863682
 31
0.0
  0
LINE
  5
C9D
330
1A
100
AcDbEntity
  8
SEIHIN
100
AcDbLine
 10
251.6991714131969
 20
96.06754198154005
 30
0.0
 11
264.810401633219
 21
63.616106849676
 31
0.0
  0
LINE
  5
FEA
330
1A
100
AcDbEntity
  8
CENTER_L
100
AcDbLine
 10
280.180608929643
 20
221.4711208632076
 30
0.0
 11
116.0702454296431
 21
221.4711208632076
 31
0.0
  0
LINE
  5
FEB
330
1A
100
AcDbEntity
  8
SEIHIN
100
AcDbLine
 10
246.4702454296431
 20
232.4711208632076
 30
0.0
 11
123.0702454296431
 21
232.4711208632076
 31
0.0
  0
LINE
  5
FEC
330
1A
100
AcDbEntity
  8
SEIHIN
100
AcDbLine
 10
246.4702454296431
 20
210.4711208632076
 30
0.0
 11
123.0702454296431
 21
210.4711208632076
 31
0.0
  0
LINE
  5
FED
330
1A
100
AcDbEntity
  8
SEIHIN
100
AcDbLine
 10
123.0702454296431
 20
232.4711208632076
 30
0.0
 11
123.0702454296431
 21
210.4711208632076
 31
0.0
  0
LINE
  5
FEE
330
1A
100
AcDbEntity
  8
SEIHIN
100
AcDbLine
 10
124.270245429643
 20
232.4711208632076
 30
0.0
 11
124.270245429643
 21
210.4711208632076
 31
0.0
  0
LINE
  5
FF0
330
1A
100
AcDbEntity
  8
SEIHIN
100
AcDbLine
 10
230.7802495941345
 20
215.4711208632076
 30
0.0
 11
131.9332216082728
 21
215.4711208632076
 31
0.0
  0
LINE
  5
FF1
330
1A
100
AcDbEntity
  8
SEIHIN
100
AcDbLine
 10
124.270245429643
 20
227.4711208632076
 30
0.0
 11
123.0702454296431
 21
227.4711208632076
 31
0.0
  0
LINE
  5
FF2
330
1A
100
AcDbEntity
  8
SEIHIN
100
AcDbLine
 10
124.270245429643
 20
215.4711208632076
 30
0.0
 11
123.0702454296431
 21
215.4711208632076
 31
0.0
  0
LINE
  5
FF3
330
1A
100
AcDbEntity
  8
SEIHIN
100
AcDbLine
 10
128.9332216082728
 20
218.4711208632076
 30
0.0
 11
128.9332216082728
 21
224.4711208632076
 31
0.0
  0
LINE
  5
FF5
330
1A
100
AcDbEntity
  8
SEIHIN
100
AcDbLine
 10
246.4702454296431
 20
210.4711208632076
 30
0.0
 11
246.4702454296431
 21
232.4711208632076
 31
0.0
  0
LINE
  5
FF6
330
1A
100
AcDbEntity
  8
SEIHIN
100
AcDbLine
 10
236.8236763203803
 20
210.4711208632076
 30
0.0
 11
236.8236763203803
 21
232.4711208632076
 31
0.0
  0
ARC
  5
FF8
330
1A
100
AcDbEntity
  8
SEIHIN
100
AcDbCircle
 10
247.0569168307869
 20
221.4711208632076
 30
0.0
 40
17.34733110114381
100
AcDbArc
 50
140.6464899728084
 51
219.3535100271917
  0
LINE
  5
FF9
330
1A
100
AcDbEntity
  8
SEIHIN
100
AcDbLine
 10
131.9307870204204
 20
210.4711208632076
 30
0.0
 11
131.9307870204204
 21
215.4711208632076
 31
0.0
  0
LINE
  5
FFA
330
1A
100
AcDbEntity
  8
SEIHIN
100
AcDbLine
 10
131.9307870204204
 20
227.4711208632076
 30
0.0
 11
131.9307870204204
 21
232.4711208632076
 31
0.0
  0
ARC
  5
FFB
330
1A
100
AcDbEntity
  8
SEIHIN
100
AcDbCircle
 10
131.9332216082728
 20
224.4711208632076
 30
0.0
 40
3.0
100
AcDbArc
 50
90.0
 51
180.0
  0
ARC
  5
FFC
330
1A
100
AcDbEntity
  8
SEIHIN
100
AcDbCircle
 10
131.9332216082728
 20
218.4711208632076
 30
0.0
 40
3.0
100
AcDbArc
 50
180.0
 51
270.0
  0
LINE
  5
1178
330
1A
100
AcDbEntity
  8
SUNPOU
100
AcDbLine
 10
275.9103032642054
 20
41.81708619271498
 30
0.0
 11
279.9505654295623
 21
41.81708619271498
 31
0.0
  0
LINE
  5
119A
330
1A
100
AcDbEntity
  8
SEIHIN
100
AcDbLine
 10
371.590112900279
 20
109.9935105971824
 30
0.0
 11
360.7265216912176
 21
136.8818423796192
 31
0.0
  0
LINE
  5
119D
330
1A
100
AcDbEntity
  8
SEIHIN
100
AcDbLine
 10
323.573188388487
 20
87.3578095824387
 30
0.0
 11
346.7527847526567
 21
96.72297441783664
 31
0.0
  0
LINE
  5
119E
330
1A
100
AcDbEntity
  8
SEIHIN
100
AcDbLine
 10
308.8042258354775
 20
115.9038731483281
 30
0.0
 11
319.6678170445389
 21
89.01554136589131
 31
0.0
  0
CIRCLE
  5
11A8
330
1A
100
AcDbEntity
  8
SEIHIN
100
AcDbCircle
 10
323.732493798276
 20
94.971916344654
 30
0.0
 40
2.050000000000068
  0
CIRCLE
  5
11A9
330
1A
100
AcDbEntity
  8
SEIHIN
100
AcDbCircle
 10
319.799124567409
 20
104.7073468176052
 30
0.0
 40
3.25
  0
LINE
  5
11C1
330
1A
100
AcDbEntity
  8
SEIHIN
100
AcDbLine
 10
310.4619576189301
 20
119.8092444922762
 30
0.0
 11
327.6148589284157
 21
126.7394664704706
 31
0.0
  0
CIRCLE
  5
11C8
330
1A
100
AcDbEntity
  8
SEIHIN
100
AcDbCircle
 10
315.8657553365419
 20
114.4427772905565
 30
0.0
 40
2.050000000000068
  0
LINE
  5
11CC
330
1A
100
AcDbEntity
  8
SEIHIN
100
AcDbLine
 10
346.7527847526566
 20
96.72297441783657
 30
0.0
 11
369.9323811168265
 21
106.0881392532343
 31
0.0
  0
CIRCLE
  5
11D1
330
1A
100
AcDbEntity
  8
SEIHIN
100
AcDbCircle
 10
364.5285833992147
 20
111.4546064549541
 30
0.0
 40
2.050000000000068
  0
CIRCLE
  5
11D3
330
1A
100
AcDbEntity
  8
SEIHIN
100
AcDbCircle
 10
360.5952141683476
 20
121.1900369279053
 30
0.0
 40
3.25
  0
LINE
  5
11D6
330
1A
100
AcDbEntity
  8
SEIHIN
100
AcDbLine
 10
339.6682490377838
 20
131.6093521848775
 30
0.0
 11
356.8211503472695
 21
138.5395741630718
 31
0.0
  0
CIRCLE
  5
11E3
330
1A
100
AcDbEntity
  8
SEIHIN
100
AcDbCircle
 10
356.6618449374805
 20
130.9254674008566
 30
0.0
 40
2.050000000000068
  0
LINE
  5
11EE
330
1A
100
AcDbEntity
  8
CENTER_L
100
AcDbLine
 10
349.9369407966919
 20
88.84191165401887
 30
0.0
 11
330.5122400465847
 21
136.9197331121546
 31
0.0
  0
ARC
  5
11F2
330
1A
100
AcDbEntity
  8
SEIHIN
100
AcDbCircle
 10
311.5857773991778
 20
117.0276929285758
 30
0.0
 40
3.0
100
AcDbArc
 50
112.0
 51
202.0000000000001
  0
ARC
  5
11F3
330
1A
100
AcDbEntity
  8
SEIHIN
100
AcDbCircle
 10
322.4493686082392
 20
90.13936114613906
 30
0.0
 40
3.0
100
AcDbArc
 50
202.0
 51
292.0000000000003
  0
ARC
  5
11F4
330
1A
100
AcDbEntity
  8
SEIHIN
100
AcDbCircle
 10
357.9449701275172
 20
135.7580225993715
 30
0.0
 40
3.0
100
AcDbArc
 50
22.00000000000001
 51
112.0
  0
ARC
  5
11F5
330
1A
100
AcDbEntity
  8
SEIHIN
100
AcDbCircle
 10
368.8085613365786
 20
108.8696908169347
 30
0.0
 40
3.0
100
AcDbArc
 50
292.0000000000001
 51
21.99999999999993
  0
LINE
  5
11F6
330
1A
100
AcDbEntity
  8
SEIHIN
100
AcDbLine
 10
230.7802495941345
 20
227.4711208632076
 30
0.0
 11
131.9332216082728
 21
227.4711208632076
 31
0.0
  0
LINE
  5
11F7
330
1A
100
AcDbEntity
  8
CENTER_L
100
AcDbLine
 10
322.5150223696744
 20
97.98526387199608
 30
0.0
 11
317.0832267651437
 21
111.4294297632144
 31
0.0
  0
LINE
  5
11F8
330
1A
100
AcDbEntity
  8
CENTER_L
100
AcDbLine
 10
326.5212075130182
 20
107.4232446198706
 30
0.0
 11
313.0770416217998
 21
101.9914490153398
 31
0.0
  0
LINE
  5
11FB
330
1A
100
AcDbEntity
  8
CENTER_L
100
AcDbLine
 10
321.475217656671
 20
116.7091471807227
 30
0.0
 11
310.2562930164127
 21
112.1764074003901
 31
0.0
  0
LINE
  5
11FC
330
1A
100
AcDbEntity
  8
CENTER_L
100
AcDbLine
 10
318.1321252267082
 20
108.8333149704274
 30
0.0
 11
313.5993854463756
 21
120.0522396106856
 31
0.0
  0
LINE
  5
11FD
330
1A
100
AcDbEntity
  8
CENTER_L
100
AcDbLine
 10
329.3419561184052
 20
97.23828623482029
 30
0.0
 11
318.123031478147
 21
92.70554645448768
 31
0.0
  0
LINE
  5
11FE
330
1A
100
AcDbEntity
  8
CENTER_L
100
AcDbLine
 10
325.9988636884425
 20
89.3624540245249
 30
0.0
 11
321.4661239081098
 21
100.5813786647831
 31
0.0
  0
LINE
  5
11FF
330
1A
100
AcDbEntity
  8
CENTER_L
100
AcDbLine
 10
362.2713072576095
 20
133.1918372910229
 30
0.0
 11
351.0523826173513
 21
128.6590975106903
 31
0.0
  0
LINE
  5
1200
330
1A
100
AcDbEntity
  8
CENTER_L
100
AcDbLine
 10
358.9282148276468
 20
125.3160050807275
 30
0.0
 11
354.3954750473141
 21
136.5349297209857
 31
0.0
  0
LINE
  5
1201
330
1A
100
AcDbEntity
  8
CENTER_L
100
AcDbLine
 10
367.3172971139567
 20
123.9059347301707
 30
0.0
 11
353.8731312227383
 21
118.47413912564
 31
0.0
  0
LINE
  5
1202
330
1A
100
AcDbEntity
  8
CENTER_L
100
AcDbLine
 10
363.3111119706129
 20
114.4679539822962
 30
0.0
 11
357.8793163660821
 21
127.9121198735146
 31
0.0
  0
LINE
  5
1203
330
1A
100
AcDbEntity
  8
CENTER_L
100
AcDbLine
 10
366.794953289381
 20
105.845144134825
 30
0.0
 11
362.2622135090483
 21
117.0640687750833
 31
0.0
  0
LINE
  5
1204
330
1A
100
AcDbEntity
  8
CENTER_L
100
AcDbLine
 10
370.1380457193437
 20
113.7209763451204
 30
0.0
 11
358.9191210790854
 21
109.1882365647878
 31
0.0
  0
LINE
  5
1209
330
1A
100
AcDbEntity
  8
SEIHIN
100
AcDbLine
 10
352.7794798073408
 20
99.15791727504002
 30
0.0
 11
338.09666599227
 21
135.4991567198809
 31
0.0
  0
LINE
  5
120A
330
1A
100
AcDbEntity
  8
SEIHIN
100
AcDbLine
 10
340.7260896979726
 20
94.28803156063315
 30
0.0
 11
324.4855449919006
 21
134.4847902549512
 31
0.0
  0
LINE
  5
120B
330
1A
100
AcDbEntity
  8
SEIHIN
100
AcDbLine
 10
353.2430717346242
 20
99.34522057174797
 30
0.0
 11
340.1318409650673
 21
131.7966554815855
 31
0.0
  0
LINE
  5
120C
330
1A
100
AcDbEntity
  8
SEIHIN
100
AcDbLine
 10
340.2624977706892
 20
94.1007282639252
 30
0.0
 11
327.1512670011324
 21
126.5521631737626
 31
0.0
  0
LINE
  5
120F
330
1A
100
AcDbEntity
  8
CENTER_L
100
AcDbLine
 10
273.2417246695742
 20
74.57232557132093
 30
0.0
 11
262.0228000293161
 21
70.03958579098832
 31
0.0
  0
LINE
  5
1210
330
1A
100
AcDbEntity
  8
CENTER_L
100
AcDbLine
 10
270.4209760641872
 20
84.75728395637124
 30
0.0
 11
256.9768101729688
 21
79.32548835184054
 31
0.0
  0
LINE
  5
1211
330
1A
100
AcDbEntity
  8
CENTER_L
100
AcDbLine
 10
265.3749862078401
 20
94.04318651722343
 30
0.0
 11
254.1560615675819
 21
89.51044673689082
 31
0.0
  0
LINE
  5
1212
330
1A
100
AcDbEntity
  8
SEIHIN
100
AcDbLine
 10
268.8637330900216
 20
65.25375897088657
 30
0.0
 11
255.7525026316631
 21
97.70519385741566
 31
0.0
  0
LINE
  5
1213
330
1A
100
AcDbEntity
  8
SEIHIN
 62
     2
100
AcDbLine
 10
315.837703813593
 20
130.9908356220576
 30
0.0
 11
332.9906051230786
 21
137.9210576002521
 31
0.0
  0
LINE
  5
1214
330
1A
100
AcDbEntity
  8
SEIHIN
 62
     2
100
AcDbLine
 10
330.3289061671892
 20
132.3607780345595
 30
0.0
 11
347.4818074766749
 21
139.2910000127539
 31
0.0
  0
LINE
  5
1215
330
1A
100
AcDbEntity
  8
CENTER_L
 62
     2
100
AcDbLine
 10
332.9906051230786
 20
137.9210576002521
 30
0.0
 11
330.3289061671892
 21
132.3607780345595
 31
0.0
  0
CIRCLE
  5
1218
330
1A
100
AcDbEntity
  8
SEIHIN
100
AcDbCircle
 10
185.770245429643
 20
221.4711208632076
 30
0.0
 40
3.5
  0
DIMENSION
  5
1220
330
1A
100
AcDbEntity
  8
SUNPOU
100
AcDbDimension
  2
*D1
 10
347.2458564047914
 20
154.2308568300335
 30
0.0
 11
325.9112951207824
 21
148.3074714113004
 31
0.0
 70
    33
  3
STANDARD
100
AcDbAlignedDimension
 13
313.5993854463756
 23
120.0522396106856
 33
0.0
 14
354.3954750473141
 24
136.5349297209857
 34
0.0
1001
ACAD
1000
DSTYLE
1002
{
1070
    41
1040
3.0
1070
    42
1040
3.0
1070
    43
1040
7.0
1070
    44
1040
1.5
1070
    73
1070
     0
1070
    74
1070
     0
1070
    77
1070
     3
1070
   140
1040
3.0
1070
   141
1040
3.0
1070
   147
1040
1.0
1070
   172
1070
     1
1070
   173
1070
     1
1070
   176
1070
   256
1070
   177
1070
   256
1070
   178
1070
   256
1070
   271
1070
     0
1070
   272
1070
     0
1070
   341
1005
B2
1070
     6
1000
OPEN
1070
     7
1000
OPEN
1002
}
  0
DIMENSION
  5
122D
330
1A
100
AcDbEntity
  8
SUNPOU
100
AcDbDimension
  2
*D2
 10
349.9735944716106
 20
163.4962711766105
 30
0.0
 11
323.0759300602008
 21
155.3252461973819
 31
0.0
 70
    33
  3
STANDARD
100
AcDbAlignedDimension
 13
308.8042258354775
 23
115.9038731483281
 33
0.0
 14
360.7265216912175
 24
136.8818423796192
 34
0.0
1001
ACAD
1000
DSTYLE
1002
{
1070
    41
1040
3.0
1070
    42
1040
3.0
1070
    43
1040
7.0
1070
    44
1040
1.5
1070
    73
1070
     0
1070
    74
1070
     0
1070
    77
1070
     3
1070
   140
1040
3.0
1070
   141
1040
3.0
1070
   147
1040
1.0
1070
   172
1070
     1
1070
   173
1070
     1
1070
   176
1070
   256
1070
   177
1070
   256
1070
   178
1070
   256
1070
   271
1070
     0
1070
   272
1070
     0
1070
   341
1005
B2
1070
     6
1000
OPEN
1070
     7
1000
OPEN
1002
}
  0
DIMENSION
  5
123A
330
1A
100
AcDbEntity
  8
SUNPOU
100
AcDbDimension
  2
*D3
 10
377.1115338040294
 20
127.8630632149972
 30
0.0
 11
376.151685748057
 21
136.9124384259963
 31
0.0
 70
    33
  3
STANDARD
100
AcDbAlignedDimension
 13
354.0395987835689
 23
137.4157543828241
 33
0.0
 14
360.5952141683475
 24
121.1900369279054
 34
0.0
1001
ACAD
1000
DSTYLE
1002
{
1070
    41
1040
3.0
1070
    42
1040
3.0
1070
    43
1040
7.0
1070
    44
1040
1.5
1070
    73
1070
     0
1070
    74
1070
     0
1070
    77
1070
     3
1070
   140
1040
3.0
1070
   141
1040
3.0
1070
   147
1040
1.0
1070
   172
1070
     1
1070
   173
1070
     1
1070
   176
1070
   256
1070
   177
1070
   256
1070
   178
1070
   256
1070
   271
1070
     0
1070
   272
1070
     0
1070
   341
1005
B2
1070
     6
1000
OPEN
1070
     7
1000
OPEN
1002
}
  0
DIMENSION
  5
1247
330
1A
100
AcDbEntity
  8
SUNPOU
100
AcDbDimension
  2
*D4
 10
301.3318719964412
 20
108.5707072579269
 30
0.0
 11
302.3387085559024
 21
112.7523672324504
 31
0.0
 70
    33
  3
STANDARD
100
AcDbAlignedDimension
 13
313.2435091826305
 23
120.9330642725239
 33
0.0
 14
315.8657553365419
 24
114.4427772905564
 34
0.0
1001
ACAD
1000
DSTYLE
1002
{
1070
    41
1040
3.0
1070
    42
1040
3.0
1070
    43
1040
7.0
1070
    44
1040
1.5
1070
    73
1070
     0
1070
    74
1070
     0
1070
    77
1070
     3
1070
   140
1040
3.0
1070
   141
1040
3.0
1070
   147
1040
1.0
1070
   172
1070
     1
1070
   173
1070
     1
1070
   176
1070
   256
1070
   177
1070
   256
1070
   178
1070
   256
1070
   271
1070
     0
1070
   272
1070
     0
1070
   341
1005
B2
1070
     6
1000
OPEN
1070
     7
1000
OPEN
1002
}
  0
DIMENSION
  5
1256
330
1A
100
AcDbEntity
  8
SUNPOU
100
AcDbDimension
  2
*D5
 10
311.8208566120871
 20
82.60955933005716
 30
0.0
 11
312.8276931715483
 21
86.79121930458075
 31
0.0
 70
    33
  3
STANDARD
100
AcDbAlignedDimension
 13
323.7324937982762
 23
94.971916344654
 33
0.0
 14
326.3547399521876
 24
88.48162936268654
 34
0.0
1001
ACAD
1000
DSTYLE
1002
{
1070
    41
1040
3.0
1070
    42
1040
3.0
1070
    43
1040
7.0
1070
    44
1040
1.5
1070
    73
1070
     0
1070
    74
1070
     0
1070
    77
1070
     3
1070
   140
1040
3.0
1070
   141
1040
3.0
1070
   147
1040
1.0
1070
   172
1070
     1
1070
   173
1070
     1
1070
   176
1070
   256
1070
   177
1070
   256
1070
   178
1070
   256
1070
   271
1070
     0
1070
   272
1070
     0
1070
   341
1005
B2
1070
     6
1000
OPEN
1070
     7
1000
OPEN
1002
}
  0
DIMENSION
  5
1265
330
1A
100
AcDbEntity
  8
SUNPOU
100
AcDbDimension
  2
*D6
 10
303.7599112420005
 20
79.35272599551774
 30
0.0
 11
299.5222554936389
 21
96.51495993397633
 31
0.0
 70
    33
  3
STANDARD
100
AcDbAlignedDimension
 13
310.4619576189301
 23
119.8092444922762
 33
0.0
 14
323.573188388487
 24
87.35780958243868
 34
0.0
1001
ACAD
1000
DSTYLE
1002
{
1070
    41
1040
3.0
1070
    42
1040
3.0
1070
    43
1040
7.0
1070
    44
1040
1.5
1070
    73
1070
     0
1070
    74
1070
     0
1070
    77
1070
     3
1070
   140
1040
3.0
1070
   141
1040
3.0
1070
   147
1040
1.0
1070
   172
1070
     1
1070
   173
1070
     1
1070
   176
1070
   256
1070
   177
1070
   256
1070
   178
1070
   256
1070
   271
1070
     0
1070
   272
1070
     0
1070
   341
1005
B2
1070
     6
1000
OPEN
1070
     7
1000
OPEN
1002
}
  0
LINE
  5
1273
330
1A
100
AcDbEntity
  8
SEIHIN
100
AcDbLine
 10
269.1306905483947
 20
193.4711208632076
 30
0.0
 11
256.8763209596324
 21
193.4711208632076
 31
0.0
  0
LINE
  5
128F
330
1A
100
AcDbEntity
  8
SEIHIN
100
AcDbLine
 10
268.982729384434
 20
227.9711208632075
 30
0.0
 11
246.4702454296431
 21
227.9711208632076
 31
0.0
  0
LINE
  5
1290
330
1A
100
AcDbEntity
  8
SEIHIN
100
AcDbLine
 10
268.982729384434
 20
214.9711208632076
 30
0.0
 11
246.4702454296431
 21
214.9711208632076
 31
0.0
  0
LINE
  5
1291
330
1A
100
AcDbEntity
  8
SEIHIN
100
AcDbLine
 10
269.754508876364
 20
214.4711208632076
 30
0.0
 11
253.3899483146066
 21
214.4711208632076
 31
0.0
  0
LINE
  5
12A6
330
1A
100
AcDbEntity
  8
SEIHIN
100
AcDbLine
 10
268.982729384434
 20
214.9711208632076
 30
0.0
 11
268.982729384434
 21
227.9711208632075
 31
0.0
  0
LINE
  5
1395
330
1A
100
AcDbEntity
  8
CENTER_L
100
AcDbLine
 10
50.87005553165306
 20
162.1030231686368
 30
0.0
 11
50.87005553165306
 21
54.40302316863678
 31
0.0
  0
LINE
  5
13B2
330
1A
100
AcDbEntity
  8
SEIHIN
100
AcDbLine
 10
39.87005553165301
 20
121.1530231686367
 30
0.0
 11
39.87005553165306
 21
67.90302316863678
 31
0.0
  0
LINE
  5
13FF
330
1A
100
AcDbEntity
  8
SEIHIN
100
AcDbLine
 10
251.6991725043475
 20
96.06754242239347
 30
0.0
 11
257.1432784419223
 21
98.26710367722441
 31
0.0
  0
DIMENSION
  5
1444
330
1A
100
AcDbEntity
  8
SUNPOU
100
AcDbDimension
  2
*D7
 10
99.45815749225674
 20
210.4711208632076
 30
0.0
 11
96.95815749225673
 21
221.4711208632076
 31
0.0
 70
    32
  3
STANDARD
100
AcDbAlignedDimension
 13
123.0702454296431
 23
232.4711208632076
 33
0.0
 14
123.0702454296431
 24
210.4711208632076
 34
0.0
 50
90.0
100
AcDbRotatedDimension
1001
ACAD
1000
DSTYLE
1002
{
1070
    41
1040
3.0
1070
    42
1040
3.0
1070
    43
1040
7.0
1070
    44
1040
1.5
1070
    73
1070
     0
1070
    74
1070
     0
1070
    77
1070
     3
1070
   140
1040
3.0
1070
   141
1040
3.0
1070
   147
1040
1.0
1070
   172
1070
     1
1070
   173
1070
     1
1070
   176
1070
   256
1070
   177
1070
   256
1070
   178
1070
   256
1070
   271
1070
     0
1070
   272
1070
     0
1070
   341
1005
B2
1070
     6
1000
OPEN
1070
     7
1000
OPEN
1002
}
  0
DIMENSION
  5
1451
330
1A
100
AcDbEntity
  8
SUNPOU
100
AcDbDimension
  2
*D8
 10
292.2930167492554
 20
193.4711208632076
 30
0.0
 11
289.7930167492554
 21
221.4711208632076
 31
0.0
 70
    32
  3
STANDARD
100
AcDbAlignedDimension
 13
271.1656934827074
 23
249.4711208632076
 33
0.0
 14
271.1656934827074
 24
193.4711208632076
 34
0.0
 50
90.0
100
AcDbRotatedDimension
1001
ACAD
1000
DSTYLE
1002
{
1070
    41
1040
3.0
1070
    42
1040
3.0
1070
    43
1040
7.0
1070
    44
1040
1.5
1070
    73
1070
     0
1070
    74
1070
     0
1070
    77
1070
     3
1070
   140
1040
3.0
1070
   141
1040
3.0
1070
   147
1040
1.0
1070
   172
1070
     1
1070
   173
1070
     1
1070
   176
1070
   256
1070
   177
1070
   256
1070
   178
1070
   256
1070
   271
1070
     0
1070
   272
1070
     0
1070
   341
1005
B2
1070
     6
1000
OPEN
1070
     7
1000
OPEN
1002
}
  0
DIMENSION
  5
145E
330
1A
100
AcDbEntity
  8
SUNPOU
100
AcDbDimension
  2
*D9
 10
244.2056252903598
 20
143.0592583201115
 30
0.0
 11
250.674451866141
 21
145.5592583201115
 31
0.0
 70
    32
  3
STANDARD
100
AcDbAlignedDimension
 13
257.1432784419223
 23
98.26710367722441
 33
0.0
 14
244.2056252903598
 24
122.2405231561874
 34
0.0
100
AcDbRotatedDimension
1001
ACAD
1000
DSTYLE
1002
{
1070
    41
1040
3.0
1070
    42
1040
3.0
1070
    43
1040
7.0
1070
    44
1040
1.5
1070
    73
1070
     0
1070
    74
1070
     0
1070
    77
1070
     3
1070
   140
1040
3.0
1070
   141
1040
3.0
1070
   147
1040
1.0
1070
   172
1070
     1
1070
   173
1070
     1
1070
   176
1070
   256
1070
   177
1070
   256
1070
   178
1070
   256
1070
   271
1070
     0
1070
   272
1070
     0
1070
   341
1005
B2
1070
     6
1000
OPEN
1070
     7
1000
OPEN
1002
}
  0
DIMENSION
  5
146B
330
1A
100
AcDbEntity
  8
SUNPOU
100
AcDbDimension
  2
*D10
 10
123.0702454296431
 20
171.9807780286738
 30
0.0
 11
190.1067619357826
 21
174.4807780286738
 31
0.0
 70
    32
  3
STANDARD
100
AcDbAlignedDimension
 13
257.1432784419223
 23
98.26710367722446
 33
0.0
 14
123.0702454296431
 24
155.1030231686368
 34
0.0
100
AcDbRotatedDimension
1001
ACAD
1000
DSTYLE
1002
{
1070
    41
1040
3.0
1070
    42
1040
3.0
1070
    43
1040
7.0
1070
    44
1040
1.5
1070
    73
1070
     0
1070
    74
1070
     0
1070
    77
1070
     3
1070
   140
1040
3.0
1070
   141
1040
3.0
1070
   147
1040
1.0
1070
   172
1070
     1
1070
   173
1070
     1
1070
   176
1070
   256
1070
   177
1070
   256
1070
   178
1070
   256
1070
   271
1070
     0
1070
   272
1070
     0
1070
   341
1005
B2
1070
     6
1000
OPEN
1070
     7
1000
OPEN
1002
}
  0
LEADER
  5
14BF
330
1A
100
AcDbEntity
  8
SUNPOU
100
AcDbLeader
  3
STANDARD
 73
     0
 40
2.999999999999999
 41
15.59999999999999
 76
     3
 10
313.968821174858
 20
115.2200422300957
 30
0.0
 10
296.847303810123
 20
131.5321391708925
 30
0.0
 10
295.0715389826007
 20
131.6798611437656
 30
0.0
340
14C0
211
0.9999999999999998
221
-0.0000000174532918
231
0.0
213
0.1202984125888974
223
1.495168315584767
233
0.0
1001
ACAD
1000
DSTYLE
1002
{
1070
     6
1000
OPEN
1070
    41
1040
3.0
1070
    42
1040
3.0
1070
    43
1040
7.0
1070
    44
1040
1.5
1070
    73
1070
     0
1070
    74
1070
     0
1070
    77
1070
     0
1070
   140
1040
3.0
1070
   141
1040
3.0
1070
   147
1040
1.0
1070
   172
1070
     1
1070
   173
1070
     1
1070
   176
1070
   256
1070
   177
1070
   256
1070
   178
1070
   256
1070
   271
1070
     0
1070
   272
1070
     0
1070
   341
1005
B2
1070
   343
1005
B2
1070
   344
1005
B2
1002
}
  0
MTEXT
  5
14C0
102
{ACAD_REACTORS
330
14BF
102
}
330
1A
100
AcDbEntity
  8
SUNPOU
100
AcDbMText
 10
293.9512405700118
 20
130.1846928456341
 30
0.0
 40
2.999999999999999
 41
0.0
 71
     9
 72
     5
  1
\A1;4-φ4.2
 11
0.9999999999999998
 21
-0.0000000174532918
 31
0.0
1001
ACAD
1000
MTEXTBEGIN
1070
    73
1070
     1
1070
    44
1040
1.0
1070
    74
1070
     0
1000
MTEXTEND
1000
MTEXTBEGIN
1070
    73
1070
     1
1070
    44
1040
1.0
1070
    74
1070
     0
1000
MTEXTEND
1000
MTEXTBEGIN
1070
    73
1070
     1
1070
    44
1040
1.0
1070
    74
1070
     0
1000
MTEXTEND
1000
MTEXTBEGIN
1070
    73
1070
     1
1070
    44
1040
1.0
1070
    74
1070
     0
1000
MTEXTEND
1000
MTEXTBEGIN
1070
    73
1070
     1
1070
    44
1040
1.0
1070
    74
1070
     0
1000
MTEXTEND
1000
MTEXTBEGIN
1070
    73
1070
     1
1070
    44
1040
1.0
1070
    74
1070
     0
1000
MTEXTEND
1000
MTEXTBEGIN
1070
    73
1070
     1
1070
    44
1040
1.0
1070
    74
1070
     0
1000
MTEXTEND
1000
MTEXTBEGIN
1070
    73
1070
     1
1070
    44
1040
1.0
1070
    74
1070
     0
1000
MTEXTEND
1000
MTEXTBEGIN
1070
    73
1070
     1
1070
    44
1040
1.0
1070
    74
1070
     0
1000
MTEXTEND
1000
MTEXTBEGIN
1070
    73
1070
     1
1070
    44
1040
1.0
1070
    74
1070
     0
1000
MTEXTEND
1000
MTEXTBEGIN
1070
    73
1070
     1
1070
    44
1040
1.0
1070
    74
1070
     0
1000
MTEXTEND
  0
LEADER
  5
14C1
330
1A
100
AcDbEntity
  8
SUNPOU
100
AcDbLeader
  3
STANDARD
 73
     0
 40
3.0
 41
15.59999999999999
 76
     3
 10
363.3622761960191
 20
119.4853763355826
 30
0.0
 10
373.3851828298225
 20
114.4962494161275
 30
0.0
 10
375.0150990439907
 20
114.3602621466198
 30
0.0
340
14C2
211
0.9999999999999998
221
-0.0000000174532918
231
0.0
213
-0.1202984125888974
223
-1.495168315584767
233
0.0
1001
ACAD
1000
DSTYLE
1002
{
1070
     6
1000
OPEN
1070
    41
1040
3.0
1070
    42
1040
3.0
1070
    43
1040
7.0
1070
    44
1040
1.5
1070
    73
1070
     0
1070
    74
1070
     0
1070
    77
1070
     0
1070
   140
1040
3.0
1070
   141
1040
3.0
1070
   147
1040
1.0
1070
   172
1070
     1
1070
   173
1070
     1
1070
   176
1070
   256
1070
   177
1070
   256
1070
   178
1070
   256
1070
   271
1070
     0
1070
   272
1070
     0
1070
   341
1005
B2
1070
   343
1005
B2
1070
   344
1005
B2
1002
}
  0
MTEXT
  5
14C2
102
{ACAD_REACTORS
330
14C1
102
}
330
1A
100
AcDbEntity
  8
SUNPOU
100
AcDbMText
 10
376.1353974565797
 20
115.8554304447513
 30
0.0
 40
2.999999999999999
 41
0.0
 71
     1
 72
     5
  1
\A1;2-φ6.6
 11
0.9999999999999998
 21
-0.0000000174532918
 31
0.0
1001
ACAD
1000
MTEXTBEGIN
1070
    73
1070
     1
1070
    44
1040
1.0
1070
    74
1070
     0
1000
MTEXTEND
1000
MTEXTBEGIN
1070
    73
1070
     1
1070
    44
1040
1.0
1070
    74
1070
     0
1000
MTEXTEND
1000
MTEXTBEGIN
1070
    73
1070
     1
1070
    44
1040
1.0
1070
    74
1070
     0
1000
MTEXTEND
1000
MTEXTBEGIN
1070
    73
1070
     1
1070
    44
1040
1.0
1070
    74
1070
     0
1000
MTEXTEND
1000
MTEXTBEGIN
1070
    73
1070
     1
1070
    44
1040
1.0
1070
    74
1070
     0
1000
MTEXTEND
1000
MTEXTBEGIN
1070
    73
1070
     1
1070
    44
1040
1.0
1070
    74
1070
     0
1000
MTEXTEND
1000
MTEXTBEGIN
1070
    73
1070
     1
1070
    44
1040
1.0
1070
    74
1070
     0
1000
MTEXTEND
1000
MTEXTBEGIN
1070
    73
1070
     1
1070
    44
1040
1.0
1070
    74
1070
     0
1000
MTEXTEND
1000
MTEXTBEGIN
1070
    73
1070
     1
1070
    44
1040
1.0
1070
    74
1070
     0
1000
MTEXTEND
1000
MTEXTBEGIN
1070
    73
1070
     1
1070
    44
1040
1.0
1070
    74
1070
     0
1000
MTEXTEND
1000
MTEXTBEGIN
1070
    73
1070
     1
1070
    44
1040
1.0
1070
    74
1070
     0
1000
MTEXTEND
  0
LINE
  5
1566
330
1A
100
AcDbEntity
  8
SEIHIN
100
AcDbLine
 10
336.891038429946
 20
102.4453829550262
 30
0.0
 11
335.7858839076442
 21
99.8418020590609
 31
0.0
  0
LINE
  5
1567
330
1A
100
AcDbEntity
  8
SEIHIN
100
AcDbLine
 10
335.7858839076442
 20
99.8418020590609
 30
0.0
 11
338.3894648036097
 21
98.73664753675917
 31
0.0
  0
LINE
  5
1568
330
1A
100
AcDbEntity
  8
SEIHIN
100
AcDbLine
 10
335.7858839076442
 20
99.84180205906088
 30
0.0
 11
337.6402516167779
 21
100.5910152458927
 31
0.0
  0
LINE
  5
1569
330
1A
100
AcDbEntity
  8
SEIHIN
100
AcDbLine
 10
327.91914544591
 20
119.3126630049634
 30
0.0
 11
329.7735131550437
 21
120.0618761917952
 31
0.0
  0
LINE
  5
156A
330
1A
100
AcDbEntity
  8
SEIHIN
100
AcDbLine
 10
329.0242999682118
 20
121.9162439009288
 30
0.0
 11
327.91914544591
 21
119.3126630049634
 31
0.0
  0
LINE
  5
156B
330
1A
100
AcDbEntity
  8
SEIHIN
100
AcDbLine
 10
327.91914544591
 20
119.3126630049634
 30
0.0
 11
330.5227263418755
 21
118.2075084826617
 31
0.0
  0
LINE
  5
156C
330
1A
100
AcDbEntity
  8
SEIHIN
100
AcDbLine
 10
344.6084548281115
 20
126.0555816864497
 30
0.0
 11
343.5033003058098
 21
123.4520007904843
 31
0.0
  0
LINE
  5
156D
330
1A
100
AcDbEntity
  8
SEIHIN
100
AcDbLine
 10
342.0048739321461
 20
127.1607362087514
 30
0.0
 11
344.6084548281115
 21
126.0555816864497
 31
0.0
  0
LINE
  5
156E
330
1A
100
AcDbEntity
  8
SEIHIN
100
AcDbLine
 10
344.6084548281115
 20
126.0555816864497
 30
0.0
 11
342.754087118978
 21
125.3063684996179
 31
0.0
  0
LINE
  5
156F
330
1A
100
AcDbEntity
  8
SEIHIN
100
AcDbLine
 10
352.475193289846
 20
106.5847207405473
 30
0.0
 11
350.6208255807125
 21
105.8355075537154
 31
0.0
  0
LINE
  5
1570
330
1A
100
AcDbEntity
  8
SEIHIN
100
AcDbLine
 10
349.8716123938807
 20
107.689875262849
 30
0.0
 11
352.475193289846
 21
106.5847207405473
 31
0.0
  0
LINE
  5
1571
330
1A
100
AcDbEntity
  8
SEIHIN
100
AcDbLine
 10
352.475193289846
 20
106.5847207405473
 30
0.0
 11
351.3700387675444
 21
103.9811398445819
 31
0.0
  0
LINE
  5
1575
330
1A
100
AcDbEntity
  8
SEIHIN
100
AcDbLine
 10
265.1176672344782
 20
74.52559753538375
 30
0.0
 11
263.4599354287886
 21
70.62022618245132
 31
0.0
  0
LINE
  5
1576
330
1A
100
AcDbEntity
  8
SEIHIN
100
AcDbLine
 10
263.4599354287886
 20
70.62022618245132
 30
0.0
 11
267.3653067504996
 21
68.96249439001434
 31
0.0
  0
LINE
  5
1577
330
1A
100
AcDbEntity
  8
SEIHIN
100
AcDbLine
 10
263.4599354287885
 20
70.62022618245129
 30
0.0
 11
266.2414869924889
 21
71.74404596269905
 31
0.0
  0
LINE
  5
1578
330
1A
100
AcDbEntity
  8
SEIHIN
100
AcDbLine
 10
255.5931971227136
 20
90.09108719124425
 30
0.0
 11
258.374748686414
 21
91.214906971492
 31
0.0
  0
LINE
  5
1579
330
1A
100
AcDbEntity
  8
SEIHIN
100
AcDbLine
 10
255.5931971227137
 20
90.09108719124427
 30
0.0
 11
259.4985684444247
 21
88.4333553988073
 31
0.0
  0
LINE
  5
157A
330
1A
100
AcDbEntity
  8
SEIHIN
100
AcDbLine
 10
257.2509289284033
 20
93.9964585441767
 30
0.0
 11
255.5931971227137
 21
90.09108719124427
 31
0.0
  0
LINE
  5
1590
330
1A
100
AcDbEntity
  8
SEIHIN
100
AcDbLine
 10
61.87005553165306
 20
92.27824245376041
 30
0.0
 11
62.66245803165304
 21
91.21490697149198
 31
0.0
  0
LINE
  5
1591
330
1A
100
AcDbEntity
  8
SEIHIN
100
AcDbLine
 10
62.66245803165304
 20
91.21490697149198
 30
0.0
 11
61.87005553165306
 21
90.86118235515826
 31
0.0
  0
LINE
  5
1593
330
1A
100
AcDbEntity
  8
SEIHIN
100
AcDbLine
 10
62.66245803165304
 20
71.74404596269903
 30
0.0
 11
61.87005553165306
 21
71.39032134636531
 31
0.0
  0
LINE
  5
1594
330
1A
100
AcDbEntity
  8
SEIHIN
100
AcDbLine
 10
61.87005553165306
 20
72.80738144496739
 30
0.0
 11
62.66245803165304
 21
71.74404596269903
 31
0.0
  0
ARC
  5
1990
330
1A
100
AcDbEntity
  8
SEIHIN
100
AcDbCircle
 10
249.7438130281341
 20
96.90302316863679
 30
0.0
 40
6.0
100
AcDbArc
 50
21.99999984326721
 51
90.0
  0
ARC
  5
1991
330
1A
100
AcDbEntity
  8
SEIHIN
100
AcDbCircle
 10
249.7438130942898
 20
96.90302316863679
 30
0.0
 40
3.0
100
AcDbArc
 50
21.99999724790099
 51
90.0
  0
DIMENSION
  5
19A4
330
1A
100
AcDbEntity
  8
SUNPOU
100
AcDbDimension
  2
*D11
 10
285.4016079521457
 20
71.93549376307089
 30
0.0
 11
281.1639523409872
 21
89.09772773540723
 31
0.0
 70
    33
  3
STANDARD
100
AcDbAlignedDimension
 13
257.1432784419223
 23
98.26710367722441
 33
0.0
 14
270.2545089520472
 24
65.81566866256952
 34
0.0
1001
ACAD
1000
DSTYLE
1002
{
1070
    41
1040
3.0
1070
    42
1040
3.0
1070
    43
1040
7.0
1070
    44
1040
1.5
1070
    73
1070
     0
1070
    74
1070
     0
1070
    77
1070
     3
1070
   140
1040
3.0
1070
   141
1040
3.0
1070
   147
1040
1.0
1070
   172
1070
     1
1070
   173
1070
     1
1070
   176
1070
   256
1070
   177
1070
   256
1070
   178
1070
   256
1070
   271
1070
     0
1070
   272
1070
     0
1070
   341
1005
B2
1070
     6
1000
OPEN
1070
     7
1000
OPEN
1002
}
  0
LINE
  5
19B1
330
1A
100
AcDbEntity
  8
SUNPOU
100
AcDbLine
 10
279.9505654295623
 20
41.81708619271498
 30
0.0
 11
270.2545089520472
 21
65.81566866256952
 31
0.0
  0
DIMENSION
  5
19B3
330
1A
100
AcDbEntity
  8
SUNPOU
100
AcDbDimension
  2
*D12
 10
99.45815749225673
 20
65.81566884989197
 30
0.0
 11
96.95815749225671
 21
86.45934600926443
 31
0.0
 70
    32
  3
STANDARD
100
AcDbAlignedDimension
 13
125.303524429643
 23
107.1030231686368
 33
0.0
 14
270.254508876364
 24
65.81566884989192
 34
0.0
 50
90.0
100
AcDbRotatedDimension
1001
ACAD
1000
DSTYLE
1002
{
1070
    41
1040
3.0
1070
    42
1040
3.0
1070
    43
1040
7.0
1070
    44
1040
1.5
1070
    73
1070
     0
1070
    74
1070
     0
1070
    77
1070
     3
1070
   140
1040
3.0
1070
   141
1040
3.0
1070
   147
1040
1.0
1070
   172
1070
     1
1070
   173
1070
     1
1070
   176
1070
   256
1070
   177
1070
   256
1070
   178
1070
   256
1070
   271
1070
     0
1070
   272
1070
     0
1070
   341
1005
B2
1070
     6
1000
OPEN
1070
     7
1000
OPEN
1002
}
  0
LINE
  5
19C1
330
1A
100
AcDbEntity
  8
SEIHIN
100
AcDbLine
 10
255.7525026316631
 20
196.4711208632076
 30
0.0
 11
255.7525026316631
 21
212.4711208632076
 31
0.0
  0
LINE
  5
19C2
330
1A
100
AcDbEntity
  8
SEIHIN
100
AcDbLine
 10
270.254508876364
 20
196.4711208632076
 30
0.0
 11
270.254508876364
 21
213.9711208632076
 31
0.0
  0
ELLIPSE
  5
19C7
330
1A
100
AcDbEntity
  8
SEIHIN
100
AcDbEllipse
 10
269.1306905483947
 20
196.4711208632076
 30
0.0
 11
0.0
 21
-3.0
 31
0.0
210
0.0
220
0.0
230
1.0
 40
0.3746061093231106
 41
6.283185307179586
 42
7.853981633974482
  0
ELLIPSE
  5
19C8
330
1A
100
AcDbEntity
  8
SEIHIN
100
AcDbEllipse
 10
258.2670967698916
 20
196.4711208632076
 30
0.0
 11
0.0
 21
-3.0
 31
0.0
210
0.0
220
0.0
230
1.0
 40
0.3746061093231106
 41
4.712388980384689
 42
6.283185307179586
  0
ELLIPSE
  5
19C9
330
1A
100
AcDbEntity
  8
SEIHIN
100
AcDbEllipse
 10
256.8763209596324
 20
196.4711208632076
 30
0.0
 11
0.0
 21
-3.0
 31
0.0
210
0.0
220
0.0
230
1.0
 40
0.3746061093231106
 41
4.712388980384689
 42
6.283185307179586
  0
LINE
  5
19CC
330
1A
100
AcDbEntity
  8
SEIHIN
100
AcDbLine
 10
257.1432784419223
 20
196.4711208632076
 30
0.0
 11
257.1432784419223
 21
213.9711208632076
 31
0.0
  0
LINE
  5
19D0
330
1A
100
AcDbEntity
  8
CENTER_L
100
AcDbLine
 10
259.7655244682641
 20
203.4711208632076
 30
0.0
 11
259.7655244682641
 21
195.4711208632076
 31
0.0
  0
LINE
  5
19D2
330
1A
100
AcDbEntity
  8
CENTER_L
100
AcDbLine
 10
263.6988936213016
 20
203.4711208632076
 30
0.0
 11
263.6988936213016
 21
195.4711208632076
 31
0.0
  0
LINE
  5
19D3
330
1A
100
AcDbEntity
  8
CENTER_L
100
AcDbLine
 10
267.632262774339
 20
203.4711208632076
 30
0.0
 11
267.632262774339
 21
195.4711208632076
 31
0.0
  0
LINE
  5
19D4
330
1A
100
AcDbEntity
  8
CENTER_L
100
AcDbLine
 10
271.632262774339
 20
199.4711208632076
 30
0.0
 11
255.7525026316631
 21
199.4711208632076
 31
0.0
  0
ELLIPSE
  5
19D9
330
1A
100
AcDbEntity
  8
SEIHIN
100
AcDbEllipse
 10
263.6988936213016
 20
199.4711208632076
 30
0.0
 11
0.0
 21
3.300000000000011
 31
0.0
210
0.0
220
0.0
230
1.0
 40
0.3689302952940133
 41
0.0
 42
6.283185307179586
  0
ELLIPSE
  5
19DA
330
1A
100
AcDbEntity
  8
SEIHIN
100
AcDbEllipse
 10
259.7655244682641
 20
199.4711208632076
 30
0.0
 11
0.0
 21
2.099999999999994
 31
0.0
210
0.0
220
0.0
230
1.0
 40
0.3656867006028408
 41
0.0
 42
6.283185307179586
  0
ELLIPSE
  5
19DB
330
1A
100
AcDbEntity
  8
SEIHIN
100
AcDbEllipse
 10
267.632262774339
 20
199.4711208632076
 30
0.0
 11
0.0
 21
2.099999999999994
 31
0.0
210
0.0
220
0.0
230
1.0
 40
0.3656867006028408
 41
0.0
 42
6.283185307179586
  0
ELLIPSE
  5
19DC
330
1A
100
AcDbEntity
  8
SEIHIN
100
AcDbEllipse
 10
262.3081178110424
 20
199.4711208632076
 30
0.0
 11
0.0
 21
3.300000000000011
 31
0.0
210
0.0
220
0.0
230
1.0
 40
0.3689302952940133
 41
3.749528770011537
 42
5.675249190757841
  0
ELLIPSE
  5
19DD
330
1A
100
AcDbEntity
  8
SEIHIN
100
AcDbEllipse
 10
266.2414869640798
 20
199.4711208632076
 30
0.0
 11
0.0
 21
2.099999999999994
 31
0.0
210
0.0
220
0.0
230
1.0
 40
0.3656867006028408
 41
4.274199385673399
 42
5.15057857509598
  0
ELLIPSE
  5
19DE
330
1A
100
AcDbEntity
  8
SEIHIN
100
AcDbEllipse
 10
258.3747486580049
 20
199.4711208632076
 30
0.0
 11
0.0
 21
2.099999999999994
 31
0.0
210
0.0
220
0.0
230
1.0
 40
0.3656867006028408
 41
4.274199385673399
 42
5.15057857509598
  0
LINE
  5
19E1
330
1A
100
AcDbEntity
  8
SEIHIN
100
AcDbLine
 10
251.6991725043475
 20
213.4711208632076
 30
0.0
 11
251.6991725043475
 21
214.9711208632076
 31
0.0
  0
LINE
  5
19E2
330
1A
100
AcDbEntity
  8
SEIHIN
100
AcDbLine
 10
255.2525026316631
 20
212.9711208632076
 30
0.0
 11
252.1991725043475
 21
212.9711208632076
 31
0.0
  0
LINE
  5
19E3
330
1A
100
AcDbEntity
  8
SEIHIN
100
AcDbLine
 10
253.0899483146067
 20
214.7711208632076
 30
0.0
 11
253.0899483146067
 21
214.9711208632076
 31
0.0
  0
ARC
  5
19E4
330
1A
100
AcDbEntity
  8
SEIHIN
100
AcDbCircle
 10
253.3899483146066
 20
214.7711208632076
 30
0.0
 40
0.3
100
AcDbArc
 50
179.9999999999891
 51
270.0000000000108
  0
ARC
  5
19E5
330
1A
100
AcDbEntity
  8
SEIHIN
100
AcDbCircle
 10
252.1991725043474
 20
213.4711208632075
 30
0.0
 40
0.5
100
AcDbArc
 50
179.9999999999934
 51
270.0000000000065
  0
ARC
  5
19E6
330
1A
100
AcDbEntity
  8
SEIHIN
100
AcDbCircle
 10
255.2525026316631
 20
212.4711208632076
 30
0.0
 40
0.5
100
AcDbArc
 50
0.0
 51
90.00000000000651
  0
ARC
  5
19E7
330
1A
100
AcDbEntity
  8
SEIHIN
100
AcDbCircle
 10
256.6432784419223
 20
213.9711208632077
 30
0.0
 40
0.5
100
AcDbArc
 50
359.9999999999967
 51
90.0
  0
ARC
  5
19E9
330
1A
100
AcDbEntity
  8
SEIHIN
100
AcDbCircle
 10
269.754508876364
 20
213.9711208632076
 30
0.0
 40
0.5
100
AcDbArc
 50
359.9999999999967
 51
90.0
  0
LINE
  5
19EA
330
1A
100
AcDbEntity
  8
SEIHIN
100
AcDbLine
 10
266.2011787490484
 20
214.7711208632076
 30
0.0
 11
266.2011787490484
 21
214.9711208632076
 31
0.0
  0
ARC
  5
19EB
330
1A
100
AcDbEntity
  8
SEIHIN
100
AcDbCircle
 10
266.5011787490485
 20
214.7711208632076
 30
0.0
 40
0.3
100
AcDbArc
 50
179.9999999999945
 51
270.0
  0
LINE
  5
19EE
330
1A
100
AcDbEntity
  8
CENTER_L
100
AcDbLine
 10
271.632262774339
 20
243.4711208632076
 30
0.0
 11
255.7525026316631
 21
243.4711208632076
 31
0.0
  0
LINE
  5
19EF
330
1A
100
AcDbEntity
  8
SEIHIN
100
AcDbLine
 10
269.754508876364
 20
228.4711208632077
 30
0.0
 11
253.3899483146066
 21
228.4711208632077
 31
0.0
  0
ELLIPSE
  5
19F0
330
1A
100
AcDbEntity
  8
SEIHIN
100
AcDbEllipse
 10
267.632262774339
 20
243.4711208632076
 30
0.0
 11
0.0
 21
-2.099999999999994
 31
0.0
210
0.0
220
0.0
230
-1.0
 40
0.3656867006028408
 41
0.0
 42
6.283185307179586
  0
LINE
  5
19F1
330
1A
100
AcDbEntity
  8
SEIHIN
100
AcDbLine
 10
269.1306905483947
 20
249.4711208632076
 30
0.0
 11
256.8763209596324
 21
249.4711208632076
 31
0.0
  0
LINE
  5
19F2
330
1A
100
AcDbEntity
  8
SEIHIN
100
AcDbLine
 10
257.1432784419223
 20
246.4711208632076
 30
0.0
 11
257.1432784419223
 21
228.9711208632076
 31
0.0
  0
LINE
  5
19F3
330
1A
100
AcDbEntity
  8
SEIHIN
100
AcDbLine
 10
255.7525026316631
 20
246.4711208632076
 30
0.0
 11
255.7525026316631
 21
230.4711208632076
 31
0.0
  0
LINE
  5
19F4
330
1A
100
AcDbEntity
  8
CENTER_L
100
AcDbLine
 10
267.632262774339
 20
239.4711208632076
 30
0.0
 11
267.632262774339
 21
247.4711208632076
 31
0.0
  0
LINE
  5
19F5
330
1A
100
AcDbEntity
  8
CENTER_L
100
AcDbLine
 10
263.6988936213016
 20
239.4711208632076
 30
0.0
 11
263.6988936213016
 21
247.4711208632076
 31
0.0
  0
LINE
  5
19F6
330
1A
100
AcDbEntity
  8
CENTER_L
100
AcDbLine
 10
259.7655244682641
 20
239.4711208632076
 30
0.0
 11
259.7655244682641
 21
247.4711208632076
 31
0.0
  0
ELLIPSE
  5
19F7
330
1A
100
AcDbEntity
  8
SEIHIN
100
AcDbEllipse
 10
258.3747486580049
 20
243.4711208632076
 30
0.0
 11
0.0
 21
-2.099999999999994
 31
0.0
210
0.0
220
0.0
230
-1.0
 40
0.3656867006028408
 41
4.274199385673399
 42
5.15057857509598
  0
ELLIPSE
  5
19F8
330
1A
100
AcDbEntity
  8
SEIHIN
100
AcDbEllipse
 10
266.2414869640798
 20
243.4711208632076
 30
0.0
 11
0.0
 21
-2.099999999999994
 31
0.0
210
0.0
220
0.0
230
-1.0
 40
0.3656867006028408
 41
4.274199385673399
 42
5.15057857509598
  0
ELLIPSE
  5
19F9
330
1A
100
AcDbEntity
  8
SEIHIN
100
AcDbEllipse
 10
262.3081178110424
 20
243.4711208632076
 30
0.0
 11
0.0
 21
-3.300000000000011
 31
0.0
210
0.0
220
0.0
230
-1.0
 40
0.3689302952940133
 41
3.749528770011537
 42
5.675249190757841
  0
ELLIPSE
  5
19FA
330
1A
100
AcDbEntity
  8
SEIHIN
100
AcDbEllipse
 10
259.7655244682641
 20
243.4711208632076
 30
0.0
 11
0.0
 21
-2.099999999999994
 31
0.0
210
0.0
220
0.0
230
-1.0
 40
0.3656867006028408
 41
0.0
 42
6.283185307179586
  0
ELLIPSE
  5
19FB
330
1A
100
AcDbEntity
  8
SEIHIN
100
AcDbEllipse
 10
263.6988936213016
 20
243.4711208632076
 30
0.0
 11
0.0
 21
-3.300000000000011
 31
0.0
210
0.0
220
0.0
230
-1.0
 40
0.3689302952940133
 41
0.0
 42
6.283185307179586
  0
ELLIPSE
  5
19FC
330
1A
100
AcDbEntity
  8
SEIHIN
100
AcDbEllipse
 10
256.8763209596324
 20
246.4711208632076
 30
0.0
 11
0.0
 21
3.0
 31
0.0
210
0.0
220
0.0
230
-1.0
 40
0.3746061093231106
 41
4.712388980384689
 42
6.283185307179586
  0
ELLIPSE
  5
19FD
330
1A
100
AcDbEntity
  8
SEIHIN
100
AcDbEllipse
 10
258.2670967698916
 20
246.4711208632076
 30
0.0
 11
0.0
 21
3.0
 31
0.0
210
0.0
220
0.0
230
-1.0
 40
0.3746061093231106
 41
4.712388980384689
 42
6.283185307179586
  0
ARC
  5
19FE
330
1A
100
AcDbEntity
  8
SEIHIN
100
AcDbCircle
 10
255.2525026316631
 20
230.4711208632076
 30
0.0
 40
0.5
100
AcDbArc
 50
269.9999999999934
 51
0.0
  0
LINE
  5
19FF
330
1A
100
AcDbEntity
  8
SEIHIN
100
AcDbLine
 10
251.6991725043475
 20
229.4711208632076
 30
0.0
 11
251.6991725043475
 21
227.9711208632076
 31
0.0
  0
LINE
  5
1A00
330
1A
100
AcDbEntity
  8
SEIHIN
100
AcDbLine
 10
253.0899483146067
 20
228.1711208632076
 30
0.0
 11
253.0899483146067
 21
227.9711208632076
 31
0.0
  0
LINE
  5
1A01
330
1A
100
AcDbEntity
  8
SEIHIN
100
AcDbLine
 10
255.2525026316631
 20
229.9711208632076
 30
0.0
 11
252.1991725043475
 21
229.9711208632076
 31
0.0
  0
ARC
  5
1A02
330
1A
100
AcDbEntity
  8
SEIHIN
100
AcDbCircle
 10
252.1991725043474
 20
229.4711208632077
 30
0.0
 40
0.5
100
AcDbArc
 50
89.99999999999351
 51
180.0000000000065
  0
ARC
  5
1A03
330
1A
100
AcDbEntity
  8
SEIHIN
100
AcDbCircle
 10
253.3899483146066
 20
228.1711208632076
 30
0.0
 40
0.3
100
AcDbArc
 50
89.99999999998918
 51
180.0000000000108
  0
ARC
  5
1A04
330
1A
100
AcDbEntity
  8
SEIHIN
100
AcDbCircle
 10
256.6432784419223
 20
228.9711208632076
 30
0.0
 40
0.5
100
AcDbArc
 50
270.0
 51
0.0000000000032709
  0
LINE
  5
1A05
330
1A
100
AcDbEntity
  8
SEIHIN
100
AcDbLine
 10
266.2011787490484
 20
228.1711208632076
 30
0.0
 11
266.2011787490484
 21
227.9711208632076
 31
0.0
  0
ARC
  5
1A06
330
1A
100
AcDbEntity
  8
SEIHIN
100
AcDbCircle
 10
266.5011787490485
 20
228.1711208632076
 30
0.0
 40
0.3
100
AcDbArc
 50
90.00000000000003
 51
180.0000000000054
  0
LINE
  5
1A07
330
1A
100
AcDbEntity
  8
SEIHIN
100
AcDbLine
 10
270.254508876364
 20
246.4711208632076
 30
0.0
 11
270.254508876364
 21
228.9711208632076
 31
0.0
  0
ELLIPSE
  5
1A08
330
1A
100
AcDbEntity
  8
SEIHIN
100
AcDbEllipse
 10
269.1306905483947
 20
246.4711208632076
 30
0.0
 11
0.0
 21
3.0
 31
0.0
210
0.0
220
0.0
230
-1.0
 40
0.3746061093231106
 41
6.283185307179586
 42
7.853981633974482
  0
ARC
  5
1A09
330
1A
100
AcDbEntity
  8
SEIHIN
100
AcDbCircle
 10
269.754508876364
 20
228.9711208632076
 30
0.0
 40
0.5
100
AcDbArc
 50
270.0
 51
0.0000000000032709
  0
LINE
  5
1A0A
330
1A
100
AcDbEntity
  8
SEIHIN
100
AcDbLine
 10
75.87005553165306
 20
97.75327145322222
 30
0.0
 11
61.87005553165306
 21
97.75327145322222
 31
0.0
  0
LINE
  5
1A0B
330
1A
100
AcDbEntity
  8
SEIHIN
100
AcDbLine
 10
75.87005553165306
 20
65.25375897088657
 30
0.0
 11
59.66245803165304
 21
65.25375897088657
 31
0.0
  0
LINE
  5
1A0C
330
1A
100
AcDbEntity
  8
SEIHIN
100
AcDbLine
 10
75.87005553165306
 20
98.26710367722441
 30
0.0
 11
61.87005553165306
 21
98.26710367722441
 31
0.0
  0
LINE
  5
1A0D
330
1A
100
AcDbEntity
  8
SEIHIN
100
AcDbLine
 10
78.87005553165306
 20
94.92363886226156
 30
0.0
 11
78.87005553165306
 21
68.08339156184723
 31
0.0
  0
ELLIPSE
  5
1A12
330
1A
100
AcDbEntity
  8
SEIHIN
100
AcDbEllipse
 10
75.87005553165306
 20
94.92363886226156
 30
0.0
 11
-3.0
 21
0.0
 31
0.0
210
0.0
220
0.0
230
1.0
 40
0.9432108636535522
 41
3.141592653589793
 42
4.712388980384689
  0
ELLIPSE
  5
1A13
330
1A
100
AcDbEntity
  8
SEIHIN
100
AcDbEllipse
 10
75.87005553165306
 20
95.43747108626375
 30
0.0
 11
-3.0
 21
0.0
 31
0.0
210
0.0
220
0.0
230
1.0
 40
0.9432108636535522
 41
2.958989833679785
 42
4.712388980384689
  0
ELLIPSE
  5
1A14
330
1A
100
AcDbEntity
  8
SEIHIN
100
AcDbEllipse
 10
75.87005553165306
 20
68.08339156184723
 30
0.0
 11
-3.0
 21
0.0
 31
0.0
210
0.0
220
0.0
230
1.0
 40
0.9432108636535522
 41
1.570796326794896
 42
3.141592653589793
  0
LINE
  5
1A16
330
1A
100
AcDbEntity
  8
CENTER_L
100
AcDbLine
 10
79.17005553165307
 20
91.21490697149198
 30
0.0
 11
66.57005553165305
 21
91.21490697149198
 31
0.0
  0
LINE
  5
1A18
330
1A
100
AcDbEntity
  8
CENTER_L
100
AcDbLine
 10
79.17005553165307
 20
81.47947646709553
 30
0.0
 11
66.57005553165305
 21
81.47947646709553
 31
0.0
  0
LINE
  5
1A19
330
1A
100
AcDbEntity
  8
CENTER_L
100
AcDbLine
 10
79.17005553165307
 20
71.74404596269903
 30
0.0
 11
66.57005553165305
 21
71.74404596269903
 31
0.0
  0
LINE
  5
1A1A
330
1A
100
AcDbEntity
  8
CENTER_L
100
AcDbLine
 10
72.87005553165307
 20
95.21490697149198
 30
0.0
 11
72.87005553165307
 21
67.74404596269902
 31
0.0
  0
ELLIPSE
  5
1A1F
330
1A
100
AcDbEntity
  8
SEIHIN
100
AcDbEllipse
 10
72.87005553165307
 20
81.47947646709553
 30
0.0
 11
-3.300000000000011
 21
0.0
 31
0.0
210
0.0
220
0.0
230
1.0
 40
0.9131345447267882
 41
0.0
 42
6.283185307179586
  0
ELLIPSE
  5
1A20
330
1A
100
AcDbEntity
  8
SEIHIN
100
AcDbEllipse
 10
72.87005553165307
 20
91.21490697149198
 30
0.0
 11
-2.099999999999994
 21
0.0
 31
0.0
210
0.0
220
0.0
230
1.0
 40
0.9051063659641089
 41
0.0
 42
6.283185307179586
  0
ELLIPSE
  5
1A24
330
1A
100
AcDbEntity
  8
SEIHIN
100
AcDbEllipse
 10
72.87005553165307
 20
71.74404596269903
 30
0.0
 11
-2.099999999999994
 21
0.0
 31
0.0
210
0.0
220
0.0
230
1.0
 40
0.9051063659641089
 41
0.0
 42
6.283185307179586
  0
ELLIPSE
  5
1A28
330
1A
100
AcDbEntity
  8
SEIHIN
100
AcDbEllipse
 10
72.87005553165307
 20
72.25787818670122
 30
0.0
 11
-2.099999999999994
 21
0.0
 31
0.0
210
0.0
220
0.0
230
1.0
 40
0.9051063659641089
 41
0.1355825576569059
 42
3.006010095939179
  0
ELLIPSE
  5
1A29
330
1A
100
AcDbEntity
  8
SEIHIN
100
AcDbEllipse
 10
72.87005553165307
 20
81.99330869109772
 30
0.0
 11
-3.300000000000011
 21
0.0
 31
0.0
210
0.0
220
0.0
230
1.0
 40
0.9131345447267882
 41
0.0853631036709083
 42
3.056229549918884
  0
ELLIPSE
  5
1A2A
330
1A
100
AcDbEntity
  8
SEIHIN
100
AcDbEllipse
 10
72.87005553165307
 20
91.72873919549417
 30
0.0
 11
-2.099999999999994
 21
0.0
 31
0.0
210
0.0
220
0.0
230
1.0
 40
0.9051063659641089
 41
0.1355825576569059
 42
3.006010095939179
  0
LINE
  5
1A2E
330
1A
100
AcDbEntity
  8
SEIHIN
100
AcDbLine
 10
25.87005553165306
 20
98.26710367722441
 30
0.0
 11
39.87005553165306
 21
98.26710367722441
 31
0.0
  0
LINE
  5
1A2F
330
1A
100
AcDbEntity
  8
SEIHIN
100
AcDbLine
 10
25.87005553165306
 20
97.75327145322222
 30
0.0
 11
39.87005553165306
 21
97.75327145322222
 31
0.0
  0
ELLIPSE
  5
1A30
330
1A
100
AcDbEntity
  8
SEIHIN
100
AcDbEllipse
 10
28.87005553165306
 20
72.25787818670122
 30
0.0
 11
2.099999999999994
 21
0.0
 31
0.0
210
0.0
220
0.0
230
-1.0
 40
0.9051063659641089
 41
0.1355825576569059
 42
3.006010095939179
  0
ELLIPSE
  5
1A31
330
1A
100
AcDbEntity
  8
SEIHIN
100
AcDbEllipse
 10
28.87005553165306
 20
81.99330869109772
 30
0.0
 11
3.300000000000011
 21
0.0
 31
0.0
210
0.0
220
0.0
230
-1.0
 40
0.9131345447267882
 41
0.0853631036709083
 42
3.056229549918884
  0
ELLIPSE
  5
1A32
330
1A
100
AcDbEntity
  8
SEIHIN
100
AcDbEllipse
 10
28.87005553165306
 20
91.72873919549417
 30
0.0
 11
2.099999999999994
 21
0.0
 31
0.0
210
0.0
220
0.0
230
-1.0
 40
0.9051063659641089
 41
0.1355825576569059
 42
3.006010095939179
  0
LINE
  5
1A33
330
1A
100
AcDbEntity
  8
CENTER_L
100
AcDbLine
 10
22.57005553165305
 20
71.74404596269903
 30
0.0
 11
35.17005553165307
 21
71.74404596269903
 31
0.0
  0
LINE
  5
1A34
330
1A
100
AcDbEntity
  8
CENTER_L
100
AcDbLine
 10
22.57005553165305
 20
81.47947646709553
 30
0.0
 11
35.17005553165307
 21
81.47947646709553
 31
0.0
  0
LINE
  5
1A35
330
1A
100
AcDbEntity
  8
CENTER_L
100
AcDbLine
 10
22.57005553165305
 20
91.21490697149198
 30
0.0
 11
35.17005553165307
 21
91.21490697149198
 31
0.0
  0
ELLIPSE
  5
1A36
330
1A
100
AcDbEntity
  8
SEIHIN
100
AcDbEllipse
 10
28.87005553165306
 20
71.74404596269903
 30
0.0
 11
2.099999999999994
 21
0.0
 31
0.0
210
0.0
220
0.0
230
-1.0
 40
0.9051063659641089
 41
0.0
 42
6.283185307179586
  0
ELLIPSE
  5
1A37
330
1A
100
AcDbEntity
  8
SEIHIN
100
AcDbEllipse
 10
28.87005553165306
 20
91.21490697149198
 30
0.0
 11
2.099999999999994
 21
0.0
 31
0.0
210
0.0
220
0.0
230
-1.0
 40
0.9051063659641089
 41
0.0
 42
6.283185307179586
  0
ELLIPSE
  5
1A38
330
1A
100
AcDbEntity
  8
SEIHIN
100
AcDbEllipse
 10
28.87005553165306
 20
81.47947646709553
 30
0.0
 11
3.300000000000011
 21
0.0
 31
0.0
210
0.0
220
0.0
230
-1.0
 40
0.9131345447267882
 41
0.0
 42
6.283185307179586
  0
LINE
  5
1A39
330
1A
100
AcDbEntity
  8
SEIHIN
100
AcDbLine
 10
39.07765303165308
 20
71.74404596269903
 30
0.0
 11
39.87005553165306
 21
71.39032134636531
 31
0.0
  0
LINE
  5
1A3A
330
1A
100
AcDbEntity
  8
SEIHIN
100
AcDbLine
 10
39.87005553165306
 20
72.80738144496739
 30
0.0
 11
39.07765303165308
 21
71.74404596269903
 31
0.0
  0
LINE
  5
1A3B
330
1A
100
AcDbEntity
  8
SEIHIN
100
AcDbLine
 10
39.87005553165306
 20
92.27824245376041
 30
0.0
 11
39.07765303165308
 21
91.21490697149198
 31
0.0
  0
LINE
  5
1A3C
330
1A
100
AcDbEntity
  8
SEIHIN
100
AcDbLine
 10
39.07765303165308
 20
91.21490697149198
 30
0.0
 11
39.87005553165306
 21
90.86118235515826
 31
0.0
  0
LINE
  5
1A3D
330
1A
100
AcDbEntity
  8
SEIHIN
100
AcDbLine
 10
39.87005553165306
 20
98.43225196863677
 30
0.0
 11
39.87005553165306
 21
97.76020396863682
 31
0.0
  0
ELLIPSE
  5
1A3E
330
1A
100
AcDbEntity
  8
SEIHIN
100
AcDbEllipse
 10
25.87005553165306
 20
95.43747108626375
 30
0.0
 11
3.0
 21
0.0
 31
0.0
210
0.0
220
0.0
230
-1.0
 40
0.9432108636535522
 41
2.958989833679785
 42
4.712388980384689
  0
ELLIPSE
  5
1A3F
330
1A
100
AcDbEntity
  8
SEIHIN
100
AcDbEllipse
 10
25.87005553165306
 20
94.92363886226156
 30
0.0
 11
3.0
 21
0.0
 31
0.0
210
0.0
220
0.0
230
-1.0
 40
0.9432108636535522
 41
3.141592653589793
 42
4.712388980384689
  0
LINE
  5
1A40
330
1A
100
AcDbEntity
  8
SEIHIN
100
AcDbLine
 10
25.87005553165306
 20
65.25375897088657
 30
0.0
 11
42.07765303165309
 21
65.25375897088657
 31
0.0
  0
LINE
  5
1A41
330
1A
100
AcDbEntity
  8
CENTER_L
100
AcDbLine
 10
28.87005553165306
 20
95.21490697149198
 30
0.0
 11
28.87005553165306
 21
67.74404596269902
 31
0.0
  0
LINE
  5
1A42
330
1A
100
AcDbEntity
  8
SEIHIN
100
AcDbLine
 10
22.87005553165306
 20
94.92363886226156
 30
0.0
 11
22.87005553165306
 21
68.08339156184723
 31
0.0
  0
ELLIPSE
  5
1A43
330
1A
100
AcDbEntity
  8
SEIHIN
100
AcDbEllipse
 10
25.87005553165306
 20
68.08339156184723
 30
0.0
 11
3.0
 21
0.0
 31
0.0
210
0.0
220
0.0
230
-1.0
 40
0.9432108636535522
 41
1.570796326794896
 42
3.141592653589793
  0
LINE
  5
1A44
330
1A
100
AcDbEntity
  8
SEIHIN
100
AcDbLine
 10
254.1630102387682
 20
214.9711208632076
 30
0.0
 11
254.1630102387682
 21
227.9711208632076
 31
0.0
  0
LINE
  5
1AD2
330
1A
100
AcDbEntity
  8
SEIHIN
100
AcDbLine
 10
258.803123567704
 20
214.4711208632076
 30
0.0
 11
259.803123567704
 21
212.4711208632076
 31
0.0
  0
LINE
  5
1AD3
330
1A
100
AcDbEntity
  8
SEIHIN
100
AcDbLine
 10
259.803123567704
 20
212.4711208632076
 30
0.0
 11
260.803123567704
 21
214.4711208632076
 31
0.0
  0
LINE
  5
1AD4
330
1A
100
AcDbEntity
  8
SEIHIN
100
AcDbLine
 10
267.632262774339
 20
212.4711208632076
 30
0.0
 11
268.6322627743391
 21
214.4711208632076
 31
0.0
  0
LINE
  5
1AD5
330
1A
100
AcDbEntity
  8
SEIHIN
100
AcDbLine
 10
266.6322627743391
 20
214.4711208632076
 30
0.0
 11
267.632262774339
 21
212.4711208632076
 31
0.0
  0
LINE
  5
1AD6
330
1A
100
AcDbEntity
  8
SEIHIN
100
AcDbLine
 10
259.803123567704
 20
230.4711208632077
 30
0.0
 11
260.803123567704
 21
228.4711208632077
 31
0.0
  0
LINE
  5
1AD7
330
1A
100
AcDbEntity
  8
SEIHIN
100
AcDbLine
 10
258.803123567704
 20
228.4711208632077
 30
0.0
 11
259.803123567704
 21
230.4711208632077
 31
0.0
  0
LINE
  5
1AD8
330
1A
100
AcDbEntity
  8
SEIHIN
100
AcDbLine
 10
266.6322627743391
 20
228.4711208632077
 30
0.0
 11
267.632262774339
 21
230.4711208632077
 31
0.0
  0
LINE
  5
1AD9
330
1A
100
AcDbEntity
  8
SEIHIN
100
AcDbLine
 10
267.632262774339
 20
230.4711208632077
 30
0.0
 11
268.6322627743391
 21
228.4711208632077
 31
0.0
  0
LINE
  5
1D77
330
1A
100
AcDbEntity
  8
ZUWAKU
100
AcDbLine
 10
104.3233003079923
 20
7.599999732511943
 30
0.0
 11
223.712181648454
 21
7.599999732511939
 31
0.0
  0
LINE
  5
1D78
330
1A
100
AcDbEntity
  8
ZUWAKU
100
AcDbLine
 10
104.3233003079923
 20
7.79999973251194
 30
0.0
 11
223.712181648454
 21
7.799999732511944
 31
0.0
  0
LINE
  5
1D79
330
1A
100
AcDbEntity
  8
ZUWAKU
100
AcDbLine
 10
104.3233003079923
 20
7.69999973251194
 30
0.0
 11
223.712181648454
 21
7.69999973251194
 31
0.0
  0
LINE
  5
1D7A
330
1A
100
AcDbEntity
  8
ZUWAKU
100
AcDbLine
 10
-0.0000003370416835
 20
15.39999973251193
 30
0.0
 11
398.6999996629582
 21
15.39999973251193
 31
0.0
  0
LINE
  5
1D7B
330
1A
100
AcDbEntity
  8
ZUWAKU
100
AcDbLine
 10
-0.0000003370416835
 20
15.29999973251192
 30
0.0
 11
398.6999996629582
 21
15.29999973251192
 31
0.0
  0
LINE
  5
1D7C
330
1A
100
AcDbEntity
  8
ZUWAKU
100
AcDbLine
 10
-0.0000003370416835
 20
15.19999973251192
 30
0.0
 11
398.6999996629582
 21
15.19999973251192
 31
0.0
  0
LINE
  5
1D7D
330
1A
100
AcDbEntity
  8
ZUWAKU
100
AcDbLine
 10
-0.0000003370416835
 20
15.09999973251192
 30
0.0
 11
398.6999996629582
 21
15.09999973251192
 31
0.0
  0
LINE
  5
1D7E
330
1A
100
AcDbEntity
  8
ZUWAKU
100
AcDbLine
 10
-0.0000003370416835
 20
14.99999973251192
 30
0.0
 11
398.6999996629582
 21
14.99999973251192
 31
0.0
  0
LWPOLYLINE
  5
1D7F
330
1A
100
AcDbEntity
  8
ZUWAKU
100
AcDbPolyline
 90
        4
 70
     1
 43
0.0
 10
0.0999996629582825
 20
275.6999997325119
 10
0.0999996629582825
 20
0.0999997325119466
 10
398.6999996629582
 20
0.0999997325119582
 10
398.6999996629583
 20
275.6999997325119
  0
LWPOLYLINE
  5
1D80
330
1A
100
AcDbEntity
  8
ZUWAKU
100
AcDbPolyline
 90
        4
 70
     1
 43
0.0
 10
0.2999996629582711
 20
275.499999732512
 10
0.2999996629582711
 20
0.2999997325119352
 10
398.4999996629584
 20
0.2999997325119583
 10
398.4999996629582
 20
275.499999732512
  0
LWPOLYLINE
  5
1D81
330
1A
100
AcDbEntity
  8
ZUWAKU
100
AcDbPolyline
 90
        4
 70
     1
 43
0.0
 10
-0.0000003370416835
 20
275.7999997325119
 10
-0.0000003370416835
 20
-0.0000002674880761
 10
398.7999996629584
 20
-0.0000002674880424
 10
398.7999996629584
 20
275.799999732512
  0
LWPOLYLINE
  5
1D82
330
1A
100
AcDbEntity
  8
ZUWAKU
100
AcDbPolyline
 90
        4
 70
     1
 43
0.0
 10
0.1999996629583052
 20
275.5999997325119
 10
0.1999996629583052
 20
0.1999997325119693
 10
398.5999996629583
 20
0.1999997325119578
 10
398.5999996629583
 20
275.5999997325119
  0
LWPOLYLINE
  5
1D83
330
1A
100
AcDbEntity
  8
ZUWAKU
100
AcDbPolyline
 90
        4
 70
     1
 43
0.0
 10
0.3999996629582938
 20
275.3999997325119
 10
0.3999996629582938
 20
0.399999732511958
 10
398.3999996629583
 20
0.399999732511958
 10
398.3999996629583
 20
275.3999997325119
  0
TEXT
  5
1D84
330
1A
100
AcDbEntity
  8
MOJI
100
AcDbText
 10
46.47889445704288
 20
6.370588797649304
 30
0.0
 40
3.0
  1
新・丸トップＲＶ１０５
 41
0.9
  7
ｽﾀｲﾙ1
100
AcDbText
  0
HATCH
  5
1D85
330
1A
100
AcDbEntity
  8
ZUWAKU
100
AcDbHatch
 10
0.0
 20
0.0
 30
0.0
210
0.0
220
0.0
230
1.0
  2
ANSI37
 70
     0
 71
     0
 91
        8
 92
        7
 72
     1
 73
     1
 93
       24
 10
7.251130993518245
 20
8.822423973003715
 42
-0.1989123673796348
 10
7.046105740348878
 20
9.31739871983424
 42
0.0
 10
7.046105740348878
 20
9.962499732511929
 42
-0.4142135623730912
 10
7.308605740348866
 20
10.22499973251192
 42
0.0
 10
8.796105740348821
 20
10.22499973251192
 42
0.4142135623731546
 10
9.058605740348866
 20
10.48749973251192
 42
0.0
 10
9.058605740348866
 20
11.36249973251192
 42
0.4142135623731586
 10
8.796105740348821
 20
11.62499973251192
 42
0.0
 10
7.046105740348878
 20
11.62499973251192
 42
0.4142135623730928
 10
5.6461057403489
 20
10.22499973251193
 42
0.0
 10
5.6461057403489
 20
9.317398719834304
 42
0.1989123673796619
 10
6.261181499857116
 20
7.832474479342501
 42
0.0
 10
7.716080487179453
 20
6.377575492020172
 42
-0.1989123673796613
 10
7.921105740348878
 20
5.882600745189579
 42
0.0
 10
7.921105740348878
 20
5.237499732511921
 42
-0.4142135623730911
 10
7.658605740348889
 20
4.974999732511925
 42
0.0
 10
6.171105740348934
 20
4.974999732511925
 42
0.4142135623731526
 10
5.908605740348889
 20
4.712499732511931
 42
0.0
 10
5.908605740348889
 20
3.83749973251192
 42
0.4142135623731526
 10
6.171105740348934
 20
3.574999732511926
 42
0.0
 10
7.921105740348878
 20
3.574999732511926
 42
0.4142135623731044
 10
9.321105740348912
 20
4.974999732511914
 42
0.0
 10
9.321105740348912
 20
5.882600745189551
 42
0.1989123673796604
 10
8.706029980840639
 20
7.36752498568132
 42
0.0
 97
        0
 92
        7
 72
     1
 73
     1
 93
       16
 10
11.7711057403489
 20
9.524999732511929
 42
-0.4142135623730935
 10
12.47110574034889
 20
10.22499973251192
 42
0.0
 10
13.43360574034886
 20
10.22499973251192
 42
0.4142135623731546
 10
13.69610574034891
 20
10.48749973251192
 42
0.0
 10
13.69610574034891
 20
11.36249973251192
 42
0.4142135623730951
 10
13.43360574034892
 20
11.62499973251192
 42
0.0
 10
12.47110574034883
 20
11.6249997325119
 42
0.4142135623730892
 10
10.37110574034886
 20
9.524999732511894
 42
0.0
 10
10.37110574034886
 20
5.674999732511938
 42
0.4142135623730969
 10
12.47110574034889
 20
3.574999732511926
 42
0.0
 10
13.43360574034886
 20
3.574999732511926
 42
0.4142135623731526
 10
13.69610574034891
 20
3.83749973251192
 42
0.0
 10
13.69610574034891
 20
4.712499732511931
 42
0.4142135623730891
 10
13.43360574034892
 20
4.974999732511925
 42
0.0
 10
12.47110574034889
 20
4.974999732511925
 42
-0.4142135623730928
 10
11.7711057403489
 20
5.674999732511919
 42
0.0
 97
        0
 92
        7
 72
     1
 73
     1
 93
        2
 10
12.12110574034886
 20
7.599999732511925
 42
1.0
 10
13.87110574034886
 20
7.599999732511925
 42
1.0
 97
        0
 92
        7
 72
     1
 73
     1
 93
       26
 10
18.65742898143787
 20
9.602523329293639
 42
0.0
 10
19.18824879800678
 20
11.28345274842843
 42
0.5069206636600134
 10
18.9379333484091
 20
11.62499973251192
 42
0.0
 10
18.08848865860449
 20
11.62499973251192
 42
0.3272098845218764
 10
17.83817320900681
 20
11.44154671659541
 42
0.0
 10
16.90403827169092
 20
8.483452748428465
 42
-0.3272098845219541
 10
16.65372282209318
 20
8.299999732511924
 42
0.0
 10
16.58360574034895
 20
8.299999732511924
 42
-0.4142135623731526
 10
16.32110574034891
 20
8.562499732511918
 42
0.0
 10
16.32110574034891
 20
11.36249973251192
 42
0.4142135623730951
 10
16.05860574034892
 20
11.62499973251192
 42
0.0
 10
15.18360574034886
 20
11.62499973251192
 42
0.4142135623730871
 10
14.92110574034887
 20
11.36249973251193
 42
0.0
 10
14.92110574034887
 20
3.83749973251192
 42
0.4142135623730891
 10
15.18360574034886
 20
3.574999732511926
 42
0.0
 10
16.05860574034886
 20
3.574999732511926
 42
0.4142135623731526
 10
16.32110574034891
 20
3.83749973251192
 42
0.0
 10
16.32110574034891
 20
6.637499732511932
 42
-0.4142135623731526
 10
16.58360574034895
 20
6.899999732511925
 42
0.0
 10
16.65372282209324
 20
6.899999732511925
 42
-0.3272098845218915
 10
16.90403827169092
 20
6.716546716595388
 42
0.0
 10
17.83817320900681
 20
3.758452748428462
 42
0.3272098845218902
 10
18.08848865860449
 20
3.574999732511926
 42
0.0
 10
18.9379333484091
 20
3.574999732511926
 42
0.5069206636600335
 10
19.18824879800678
 20
3.91654671659543
 42
0.0
 10
18.02505310876995
 20
7.599999732511994
 42
0.0
 97
        0
 92
        7
 72
     1
 73
     1
 93
        8
 10
21.74610574034886
 20
11.36249973251193
 42
0.4142135623731546
 10
21.48360574034882
 20
11.62499973251192
 42
0.0
 10
20.60860574034893
 20
11.62499973251192
 42
0.4142135623731507
 10
20.34610574034889
 20
11.36249973251193
 42
0.0
 10
20.34610574034889
 20
3.83749973251192
 42
0.4142135623731526
 10
20.60860574034893
 20
3.574999732511926
 42
0.0
 10
21.48360574034882
 20
3.574999732511926
 42
0.4142135623731526
 10
21.74610574034886
 20
3.83749973251192
 42
0.0
 97
        0
 92
        7
 72
     1
 73
     1
 93
       24
 10
24.19610574034891
 20
9.962499732511929
 42
-0.4142135623731546
 10
24.45860574034895
 20
10.22499973251192
 42
0.0
 10
25.94610574034891
 20
10.22499973251192
 42
0.4142135623730911
 10
26.2086057403489
 20
10.48749973251192
 42
0.0
 10
26.2086057403489
 20
11.36249973251192
 42
0.4142135623730952
 10
25.94610574034891
 20
11.62499973251192
 42
0.0
 10
24.19610574034891
 20
11.62499973251192
 42
0.4142135623731048
 10
22.79610574034887
 20
10.22499973251193
 42
0.0
 10
22.79610574034887
 20
9.317398719834304
 42
0.1989123673796613
 10
23.41118149985715
 20
7.832474479342529
 42
0.0
 10
24.86608048717949
 20
6.377575492020195
 42
-0.1989123673796402
 10
25.07110574034891
 20
5.882600745189659
 42
0.0
 10
25.07110574034891
 20
5.237499732511921
 42
-0.4142135623730911
 10
24.80860574034892
 20
4.974999732511925
 42
0.0
 10
23.32110574034891
 20
4.974999732511925
 42
0.4142135623731526
 10
23.05860574034886
 20
4.712499732511931
 42
0.0
 10
23.05860574034886
 20
3.83749973251192
 42
0.4142135623730891
 10
23.32110574034885
 20
3.574999732511926
 42
0.0
 10
25.07110574034891
 20
3.574999732511926
 42
0.4142135623730925
 10
26.47110574034889
 20
4.974999732511914
 42
0.0
 10
26.47110574034889
 20
5.882600745189551
 42
0.1989123673796675
 10
25.85602998084061
 20
7.367524985681377
 42
0.0
 10
24.40113099351833
 20
8.822423973003635
 42
-0.1989123673796652
 10
24.19610574034891
 20
9.317398719834219
 42
0.0
 97
        0
 92
        7
 72
     1
 73
     1
 93
       16
 10
28.92110574034887
 20
11.36249973251192
 42
0.414213562373103
 10
28.65860574034888
 20
11.62499973251192
 42
0.0
 10
27.78360574034889
 20
11.62499973251192
 42
0.4142135623730871
 10
27.5211057403489
 20
11.36249973251193
 42
0.0
 10
27.5211057403489
 20
4.974999732511914
 42
0.4142135623730926
 10
28.92110574034887
 20
3.574999732511926
 42
0.0
 10
30.67110574034888
 20
3.574999732511926
 42
0.4142135623731044
 10
32.07110574034891
 20
4.974999732511914
 42
0.0
 10
32.07110574034891
 20
11.36249973251192
 42
0.4142135623730951
 10
31.80860574034892
 20
11.62499973251192
 42
0.0
 10
30.93360574034886
 20
11.62499973251192
 42
0.4142135623730871
 10
30.67110574034888
 20
11.36249973251193
 42
0.0
 10
30.67110574034888
 20
5.499999732511913
 42
-0.414213562373088
 10
30.1461057403489
 20
4.974999732511925
 42
0.0
 10
29.44610574034891
 20
4.974999732511925
 42
-0.4142135623731197
 10
28.92110574034887
 20
5.499999732511913
 42
0.0
 97
        0
 92
        7
 72
     1
 73
     1
 93
        8
 10
34.5211057403489
 20
11.36249973251193
 42
0.4142135623730871
 10
34.25860574034891
 20
11.62499973251192
 42
0.0
 10
33.38360574034891
 20
11.62499973251192
 42
0.4142135623731507
 10
33.12110574034886
 20
11.36249973251193
 42
0.0
 10
33.12110574034886
 20
3.83749973251192
 42
0.4142135623730891
 10
33.38360574034885
 20
3.574999732511926
 42
0.0
 10
34.25860574034891
 20
3.574999732511926
 42
0.4142135623730891
 10
34.5211057403489
 20
3.83749973251192
 42
0.0
 97
        0
 75
     0
 76
     1
 52
0.0
 41
0.1
 77
     0
 78
     2
 53
45.0
 43
-450.4711525043811
 44
-6.600000267488042
 45
-0.2245064030267288
 46
0.2245064030267288
 79
     0
 53
135.0
 43
-450.4711525043811
 44
-6.600000267488042
 45
-0.2245064030267288
 46
-0.2245064030267288
 79
     0
 47
0.057451373970553
 98
        8
 10
8.03992714446997
 20
7.583586555454701
 10
11.2022571661779
 20
9.422030823737429
 10
12.58218360578814
 20
7.755940555547283
 10
15.45702965377688
 20
8.100648555732675
 10
20.91923567243668
 20
8.330454689503483
 10
23.44910011052309
 20
9.709287890715529
 10
28.27884264915849
 20
9.364578690059431
 10
33.91353947276968
 20
9.594384823830239
  0
LINE
  5
1D86
330
1A
100
AcDbEntity
  8
ZUWAKU
100
AcDbLine
 10
12.47110574034889
 20
11.6249997325119
 30
0.0
 11
13.43360574034886
 21
11.62499973251192
 31
0.0
  0
LINE
  5
1D87
330
1A
100
AcDbEntity
  8
ZUWAKU
100
AcDbLine
 10
13.43360574034886
 20
10.22499973251192
 30
0.0
 11
12.47110574034889
 21
10.22499973251192
 31
0.0
  0
LINE
  5
1D88
330
1A
100
AcDbEntity
  8
ZUWAKU
100
AcDbLine
 10
12.47110574034889
 20
4.974999732511925
 30
0.0
 11
13.43360574034886
 21
4.974999732511925
 31
0.0
  0
LINE
  5
1D89
330
1A
100
AcDbEntity
  8
ZUWAKU
100
AcDbLine
 10
13.43360574034886
 20
3.574999732511926
 30
0.0
 11
12.47110574034889
 21
3.574999732511926
 31
0.0
  0
CIRCLE
  5
1D8A
330
1A
100
AcDbEntity
  8
ZUWAKU
100
AcDbCircle
 10
12.99610574034886
 20
7.599999732511925
 30
0.0
 40
0.875
  0
ARC
  5
1D8B
330
1A
100
AcDbEntity
  8
ZUWAKU
100
AcDbCircle
 10
7.746105740348866
 20
9.317398719834276
 30
0.0
 40
0.7
100
AcDbArc
 50
180.0000000000016
 51
224.9999999999988
  0
LINE
  5
1D8C
330
1A
100
AcDbEntity
  8
ZUWAKU
100
AcDbLine
 10
11.7711057403489
 20
9.524999732511925
 30
0.0
 11
11.7711057403489
 21
5.674999732511928
 31
0.0
  0
LINE
  5
1D8D
330
1A
100
AcDbEntity
  8
ZUWAKU
100
AcDbLine
 10
10.37110574034886
 20
5.674999732511928
 30
0.0
 11
10.37110574034886
 21
9.524999732511904
 31
0.0
  0
ARC
  5
1D8E
330
1A
100
AcDbEntity
  8
ZUWAKU
100
AcDbCircle
 10
7.746105740348866
 20
9.317398719834276
 30
0.0
 40
2.099999999999999
100
AcDbArc
 50
180.0
 51
225.0
  0
ARC
  5
1D8F
330
1A
100
AcDbEntity
  8
ZUWAKU
100
AcDbCircle
 10
7.921105740348878
 20
4.974999732511925
 30
0.0
 40
1.399999999999999
100
AcDbArc
 50
270.0
 51
0.0
  0
ARC
  5
1D90
330
1A
100
AcDbEntity
  8
ZUWAKU
100
AcDbCircle
 10
12.47110574034889
 20
5.674999732511928
 30
0.0
 40
2.099999999999999
100
AcDbArc
 50
180.0
 51
270.0
  0
ARC
  5
1D91
330
1A
100
AcDbEntity
  8
ZUWAKU
100
AcDbCircle
 10
7.221105740348889
 20
5.882600745189577
 30
0.0
 40
2.099999999999999
100
AcDbArc
 50
0.0
 51
45.0
  0
LINE
  5
1D92
330
1A
100
AcDbEntity
  8
ZUWAKU
100
AcDbLine
 10
8.706029980840639
 20
7.367524985681338
 30
0.0
 11
7.251130993518302
 21
8.822423973003676
 31
0.0
  0
LINE
  5
1D93
330
1A
100
AcDbEntity
  8
ZUWAKU
100
AcDbLine
 10
7.921105740348878
 20
5.237499732511928
 30
0.0
 11
7.921105740348878
 21
5.882600745189598
 31
0.0
  0
ARC
  5
1D94
330
1A
100
AcDbEntity
  8
ZUWAKU
100
AcDbCircle
 10
7.658605740348889
 20
5.237499732511928
 30
0.0
 40
0.2625
100
AcDbArc
 50
270.0
 51
0.0
  0
ARC
  5
1D95
330
1A
100
AcDbEntity
  8
ZUWAKU
100
AcDbCircle
 10
7.221105740348889
 20
5.882600745189598
 30
0.0
 40
0.7
100
AcDbArc
 50
0.0
 51
45.0
  0
LINE
  5
1D96
330
1A
100
AcDbEntity
  8
ZUWAKU
100
AcDbLine
 10
5.908605740348889
 20
3.837499732511925
 30
0.0
 11
5.908605740348889
 21
4.712499732511925
 31
0.0
  0
ARC
  5
1D97
330
1A
100
AcDbEntity
  8
ZUWAKU
100
AcDbCircle
 10
6.171105740348878
 20
3.837499732511925
 30
0.0
 40
0.2625
100
AcDbArc
 50
180.0
 51
270.0
  0
ARC
  5
1D98
330
1A
100
AcDbEntity
  8
ZUWAKU
100
AcDbCircle
 10
6.171105740348878
 20
4.712499732511925
 30
0.0
 40
0.2625
100
AcDbArc
 50
90.0
 51
180.0
  0
LINE
  5
1D99
330
1A
100
AcDbEntity
  8
ZUWAKU
100
AcDbLine
 10
6.171105740348878
 20
3.574999732511926
 30
0.0
 11
7.921105740348878
 21
3.574999732511926
 31
0.0
  0
LINE
  5
1D9A
330
1A
100
AcDbEntity
  8
ZUWAKU
100
AcDbLine
 10
6.171105740348878
 20
4.974999732511925
 30
0.0
 11
7.658605740348889
 21
4.974999732511925
 31
0.0
  0
LINE
  5
1D9B
330
1A
100
AcDbEntity
  8
ZUWAKU
100
AcDbLine
 10
6.261181499857116
 20
7.832474479342515
 30
0.0
 11
7.716080487179453
 21
6.377575492020184
 31
0.0
  0
LINE
  5
1D9C
330
1A
100
AcDbEntity
  8
ZUWAKU
100
AcDbLine
 10
9.321105740348912
 20
4.974999732511925
 30
0.0
 11
9.321105740348912
 21
5.882600745189598
 31
0.0
  0
ARC
  5
1D9D
330
1A
100
AcDbEntity
  8
ZUWAKU
100
AcDbCircle
 10
12.47110574034889
 20
5.674999732511928
 30
0.0
 40
0.7
100
AcDbArc
 50
180.0
 51
270.0
  0
ARC
  5
1D9E
330
1A
100
AcDbEntity
  8
ZUWAKU
100
AcDbCircle
 10
8.796105740348878
 20
11.36249973251192
 30
0.0
 40
0.2625
100
AcDbArc
 50
0.0
 51
90.0
  0
ARC
  5
1D9F
330
1A
100
AcDbEntity
  8
ZUWAKU
100
AcDbCircle
 10
8.796105740348878
 20
10.48749973251192
 30
0.0
 40
0.2625
100
AcDbArc
 50
270.0
 51
0.0
  0
LINE
  5
1DA0
330
1A
100
AcDbEntity
  8
ZUWAKU
100
AcDbLine
 10
7.046105740348878
 20
11.62499973251192
 30
0.0
 11
8.796105740348878
 21
11.62499973251192
 31
0.0
  0
ARC
  5
1DA1
330
1A
100
AcDbEntity
  8
ZUWAKU
100
AcDbCircle
 10
7.308605740348866
 20
9.962499732511925
 30
0.0
 40
0.2625
100
AcDbArc
 50
90.0
 51
180.0
  0
LINE
  5
1DA2
330
1A
100
AcDbEntity
  8
ZUWAKU
100
AcDbLine
 10
7.046105740348878
 20
9.962499732511925
 30
0.0
 11
7.046105740348878
 21
9.317398719834255
 31
0.0
  0
LINE
  5
1DA3
330
1A
100
AcDbEntity
  8
ZUWAKU
100
AcDbLine
 10
8.796105740348878
 20
10.22499973251192
 30
0.0
 11
7.308605740348866
 21
10.22499973251192
 31
0.0
  0
LINE
  5
1DA4
330
1A
100
AcDbEntity
  8
ZUWAKU
100
AcDbLine
 10
5.6461057403489
 20
10.22499973251192
 30
0.0
 11
5.6461057403489
 21
9.317398719834255
 31
0.0
  0
ARC
  5
1DA5
330
1A
100
AcDbEntity
  8
ZUWAKU
100
AcDbCircle
 10
7.046105740348878
 20
10.22499973251192
 30
0.0
 40
1.399999999999999
100
AcDbArc
 50
90.0
 51
180.0
  0
LINE
  5
1DA6
330
1A
100
AcDbEntity
  8
ZUWAKU
100
AcDbLine
 10
9.058605740348866
 20
11.36249973251192
 30
0.0
 11
9.058605740348866
 21
10.48749973251192
 31
0.0
  0
ARC
  5
1DA7
330
1A
100
AcDbEntity
  8
ZUWAKU
100
AcDbCircle
 10
12.47110574034889
 20
9.524999732511925
 30
0.0
 40
0.7
100
AcDbArc
 50
90.0
 51
180.0
  0
ARC
  5
1DA8
330
1A
100
AcDbEntity
  8
ZUWAKU
100
AcDbCircle
 10
12.47110574034889
 20
9.524999732511904
 30
0.0
 40
2.099999999999999
100
AcDbArc
 50
90.0
 51
180.0
  0
LINE
  5
1DA9
330
1A
100
AcDbEntity
  8
ZUWAKU
100
AcDbLine
 10
39.66331443695242
 20
14.99999973251192
 30
0.0
 11
39.66331443695253
 21
0.399999732511958
 31
0.0
  0
LINE
  5
1DAA
330
1A
100
AcDbEntity
  8
ZUWAKU
100
AcDbLine
 10
39.76331443695244
 20
14.99999973251192
 30
0.0
 11
39.76331443695255
 21
0.399999732511958
 31
0.0
  0
LINE
  5
1DAB
330
1A
100
AcDbEntity
  8
ZUWAKU
100
AcDbLine
 10
39.56331443695251
 20
14.99999973251192
 30
0.0
 11
39.56331443695251
 21
0.399999732511958
 31
0.0
  0
LINE
  5
1DAC
330
1A
100
AcDbEntity
  8
ZUWAKU
100
AcDbLine
 10
32.07110574034891
 20
4.974999732511925
 30
0.0
 11
32.07110574034891
 21
11.36249973251192
 31
0.0
  0
LINE
  5
1DAD
330
1A
100
AcDbEntity
  8
ZUWAKU
100
AcDbLine
 10
30.67110574034888
 20
11.36249973251192
 30
0.0
 11
30.67110574034888
 21
5.499999732511923
 31
0.0
  0
LINE
  5
1DAE
330
1A
100
AcDbEntity
  8
ZUWAKU
100
AcDbLine
 10
34.5211057403489
 20
3.837499732511925
 30
0.0
 11
34.5211057403489
 21
11.36249973251192
 31
0.0
  0
LINE
  5
1DAF
330
1A
100
AcDbEntity
  8
ZUWAKU
100
AcDbLine
 10
33.12110574034886
 20
11.36249973251192
 30
0.0
 11
33.12110574034886
 21
3.837499732511925
 31
0.0
  0
ARC
  5
1DB0
330
1A
100
AcDbEntity
  8
ZUWAKU
100
AcDbCircle
 10
24.8961057403489
 20
9.317398719834276
 30
0.0
 40
0.7
100
AcDbArc
 50
180.0000000000016
 51
224.9999999999988
  0
ARC
  5
1DB1
330
1A
100
AcDbEntity
  8
ZUWAKU
100
AcDbCircle
 10
24.8961057403489
 20
9.317398719834276
 30
0.0
 40
2.099999999999999
100
AcDbArc
 50
180.0
 51
225.0
  0
LINE
  5
1DB2
330
1A
100
AcDbEntity
  8
ZUWAKU
100
AcDbLine
 10
18.65742898143787
 20
9.602523329293639
 30
0.0
 11
18.02505310876995
 21
7.599999732511935
 31
0.0
  0
LINE
  5
1DB3
330
1A
100
AcDbEntity
  8
ZUWAKU
100
AcDbLine
 10
20.34610574034889
 20
11.36249973251192
 30
0.0
 11
20.34610574034889
 21
3.837499732511925
 31
0.0
  0
LINE
  5
1DB4
330
1A
100
AcDbEntity
  8
ZUWAKU
100
AcDbLine
 10
21.74610574034886
 20
3.837499732511925
 30
0.0
 11
21.74610574034886
 21
11.36249973251192
 31
0.0
  0
LINE
  5
1DB5
330
1A
100
AcDbEntity
  8
ZUWAKU
100
AcDbLine
 10
27.5211057403489
 20
11.36249973251192
 30
0.0
 11
27.5211057403489
 21
4.974999732511925
 31
0.0
  0
LINE
  5
1DB6
330
1A
100
AcDbEntity
  8
ZUWAKU
100
AcDbLine
 10
28.92110574034887
 20
5.499999732511923
 30
0.0
 11
28.92110574034887
 21
11.36249973251192
 31
0.0
  0
LINE
  5
1DB7
330
1A
100
AcDbEntity
  8
ZUWAKU
100
AcDbLine
 10
16.32110574034891
 20
8.562499732511927
 30
0.0
 11
16.32110574034891
 21
11.36249973251192
 31
0.0
  0
LINE
  5
1DB8
330
1A
100
AcDbEntity
  8
ZUWAKU
100
AcDbLine
 10
14.92110574034887
 20
11.36249973251192
 30
0.0
 11
14.92110574034887
 21
3.837499732511925
 31
0.0
  0
LINE
  5
1DB9
330
1A
100
AcDbEntity
  8
ZUWAKU
100
AcDbLine
 10
17.83817320900681
 20
11.44154671659541
 30
0.0
 11
16.90403827169092
 21
8.48345274842844
 31
0.0
  0
LINE
  5
1DBA
330
1A
100
AcDbEntity
  8
ZUWAKU
100
AcDbLine
 10
30.1461057403489
 20
4.974999732511925
 30
0.0
 11
29.44610574034891
 21
4.974999732511925
 31
0.0
  0
LINE
  5
1DBB
330
1A
100
AcDbEntity
  8
ZUWAKU
100
AcDbLine
 10
28.92110574034887
 20
3.574999732511926
 30
0.0
 11
30.67110574034888
 21
3.574999732511926
 31
0.0
  0
LINE
  5
1DBC
330
1A
100
AcDbEntity
  8
ZUWAKU
100
AcDbLine
 10
20.60860574034887
 20
3.574999732511926
 30
0.0
 11
21.48360574034887
 21
3.574999732511926
 31
0.0
  0
LINE
  5
1DBD
330
1A
100
AcDbEntity
  8
ZUWAKU
100
AcDbLine
 10
17.83817320900681
 20
3.758452748428439
 30
0.0
 11
16.90403827169092
 21
6.716546716595409
 31
0.0
  0
ARC
  5
1DBE
330
1A
100
AcDbEntity
  8
ZUWAKU
100
AcDbCircle
 10
16.65372282209324
 20
8.562499732511927
 30
0.0
 40
0.2625
100
AcDbArc
 50
270.0
 51
342.4744316262769
  0
LINE
  5
1DBF
330
1A
100
AcDbEntity
  8
ZUWAKU
100
AcDbLine
 10
16.65372282209324
 20
8.299999732511924
 30
0.0
 11
16.5836057403489
 21
8.299999732511924
 31
0.0
  0
LINE
  5
1DC0
330
1A
100
AcDbEntity
  8
ZUWAKU
100
AcDbLine
 10
16.5836057403489
 20
6.899999732511925
 30
0.0
 11
16.65372282209324
 21
6.899999732511925
 31
0.0
  0
ARC
  5
1DC1
330
1A
100
AcDbEntity
  8
ZUWAKU
100
AcDbCircle
 10
16.5836057403489
 20
8.562499732511927
 30
0.0
 40
0.2625
100
AcDbArc
 50
180.0
 51
270.0
  0
LINE
  5
1DC2
330
1A
100
AcDbEntity
  8
ZUWAKU
100
AcDbLine
 10
15.18360574034886
 20
3.574999732511926
 30
0.0
 11
16.05860574034886
 21
3.574999732511926
 31
0.0
  0
ARC
  5
1DC3
330
1A
100
AcDbEntity
  8
ZUWAKU
100
AcDbCircle
 10
16.05860574034886
 20
3.837499732511925
 30
0.0
 40
0.2625
100
AcDbArc
 50
270.0
 51
0.0
  0
LINE
  5
1DC4
330
1A
100
AcDbEntity
  8
ZUWAKU
100
AcDbLine
 10
16.32110574034891
 20
3.837499732511925
 30
0.0
 11
16.32110574034891
 21
6.637499732511926
 31
0.0
  0
LINE
  5
1DC5
330
1A
100
AcDbEntity
  8
ZUWAKU
100
AcDbLine
 10
13.69610574034891
 20
4.712499732511925
 30
0.0
 11
13.69610574034891
 21
3.837499732511925
 31
0.0
  0
ARC
  5
1DC6
330
1A
100
AcDbEntity
  8
ZUWAKU
100
AcDbCircle
 10
13.43360574034886
 20
3.837499732511925
 30
0.0
 40
0.2625
100
AcDbArc
 50
270.0
 51
0.0
  0
ARC
  5
1DC7
330
1A
100
AcDbEntity
  8
ZUWAKU
100
AcDbCircle
 10
13.43360574034886
 20
4.712499732511925
 30
0.0
 40
0.2625
100
AcDbArc
 50
0.0
 51
90.0
  0
ARC
  5
1DC8
330
1A
100
AcDbEntity
  8
ZUWAKU
100
AcDbCircle
 10
15.18360574034886
 20
3.837499732511925
 30
0.0
 40
0.2625
100
AcDbArc
 50
180.0
 51
270.0
  0
ARC
  5
1DC9
330
1A
100
AcDbEntity
  8
ZUWAKU
100
AcDbCircle
 10
16.65372282209324
 20
6.637499732511926
 30
0.0
 40
0.2625
100
AcDbArc
 50
17.52556837372303
 51
90.0
  0
ARC
  5
1DCA
330
1A
100
AcDbEntity
  8
ZUWAKU
100
AcDbCircle
 10
16.5836057403489
 20
6.637499732511926
 30
0.0
 40
0.2625
100
AcDbArc
 50
90.0
 51
180.0
  0
ARC
  5
1DCB
330
1A
100
AcDbEntity
  8
ZUWAKU
100
AcDbCircle
 10
20.60860574034887
 20
3.837499732511925
 30
0.0
 40
0.2625
100
AcDbArc
 50
180.0
 51
270.0
  0
LINE
  5
1DCC
330
1A
100
AcDbEntity
  8
ZUWAKU
100
AcDbLine
 10
18.08848865860454
 20
3.574999732511926
 30
0.0
 11
18.93793334840904
 21
3.574999732511926
 31
0.0
  0
ARC
  5
1DCD
330
1A
100
AcDbEntity
  8
ZUWAKU
100
AcDbCircle
 10
18.93793334840904
 20
3.837499732511925
 30
0.0
 40
0.2625
100
AcDbArc
 50
270.0
 51
17.52556837372303
  0
LINE
  5
1DCE
330
1A
100
AcDbEntity
  8
ZUWAKU
100
AcDbLine
 10
19.18824879800678
 20
3.916546716595412
 30
0.0
 11
18.02505310876995
 21
7.599999732511935
 31
0.0
  0
ARC
  5
1DCF
330
1A
100
AcDbEntity
  8
ZUWAKU
100
AcDbCircle
 10
18.08848865860454
 20
3.837499732511925
 30
0.0
 40
0.2625
100
AcDbArc
 50
197.525568373723
 51
270.0
  0
ARC
  5
1DD0
330
1A
100
AcDbEntity
  8
ZUWAKU
100
AcDbCircle
 10
28.92110574034887
 20
4.974999732511925
 30
0.0
 40
1.399999999999999
100
AcDbArc
 50
180.0
 51
270.0
  0
ARC
  5
1DD1
330
1A
100
AcDbEntity
  8
ZUWAKU
100
AcDbCircle
 10
25.07110574034891
 20
4.974999732511925
 30
0.0
 40
1.399999999999999
100
AcDbArc
 50
270.0
 51
0.0
  0
LINE
  5
1DD2
330
1A
100
AcDbEntity
  8
ZUWAKU
100
AcDbLine
 10
25.85602998084067
 20
7.367524985681338
 30
0.0
 11
24.40113099351828
 21
8.822423973003676
 31
0.0
  0
LINE
  5
1DD3
330
1A
100
AcDbEntity
  8
ZUWAKU
100
AcDbLine
 10
25.07110574034891
 20
5.237499732511928
 30
0.0
 11
25.07110574034891
 21
5.882600745189598
 31
0.0
  0
ARC
  5
1DD4
330
1A
100
AcDbEntity
  8
ZUWAKU
100
AcDbCircle
 10
24.37110574034886
 20
5.882600745189598
 30
0.0
 40
0.7
100
AcDbArc
 50
0.0
 51
45.0
  0
ARC
  5
1DD5
330
1A
100
AcDbEntity
  8
ZUWAKU
100
AcDbCircle
 10
24.80860574034887
 20
5.237499732511928
 30
0.0
 40
0.2625
100
AcDbArc
 50
270.0
 51
0.0
  0
LINE
  5
1DD6
330
1A
100
AcDbEntity
  8
ZUWAKU
100
AcDbLine
 10
23.05860574034886
 20
3.837499732511925
 30
0.0
 11
23.05860574034886
 21
4.712499732511925
 31
0.0
  0
ARC
  5
1DD7
330
1A
100
AcDbEntity
  8
ZUWAKU
100
AcDbCircle
 10
23.32110574034891
 20
3.837499732511925
 30
0.0
 40
0.2625
100
AcDbArc
 50
180.0
 51
270.0
  0
ARC
  5
1DD8
330
1A
100
AcDbEntity
  8
ZUWAKU
100
AcDbCircle
 10
21.48360574034887
 20
3.837499732511925
 30
0.0
 40
0.2625
100
AcDbArc
 50
270.0
 51
0.0
  0
ARC
  5
1DD9
330
1A
100
AcDbEntity
  8
ZUWAKU
100
AcDbCircle
 10
23.32110574034891
 20
4.712499732511925
 30
0.0
 40
0.2625
100
AcDbArc
 50
90.0
 51
180.0
  0
LINE
  5
1DDA
330
1A
100
AcDbEntity
  8
ZUWAKU
100
AcDbLine
 10
23.32110574034891
 20
4.974999732511925
 30
0.0
 11
24.80860574034887
 21
4.974999732511925
 31
0.0
  0
LINE
  5
1DDB
330
1A
100
AcDbEntity
  8
ZUWAKU
100
AcDbLine
 10
23.32110574034891
 20
3.574999732511926
 30
0.0
 11
25.07110574034891
 21
3.574999732511926
 31
0.0
  0
LINE
  5
1DDC
330
1A
100
AcDbEntity
  8
ZUWAKU
100
AcDbLine
 10
23.41118149985715
 20
7.832474479342515
 30
0.0
 11
24.86608048717949
 21
6.377575492020184
 31
0.0
  0
LINE
  5
1DDD
330
1A
100
AcDbEntity
  8
ZUWAKU
100
AcDbLine
 10
26.47110574034889
 20
4.974999732511925
 30
0.0
 11
26.47110574034889
 21
5.882600745189598
 31
0.0
  0
ARC
  5
1DDE
330
1A
100
AcDbEntity
  8
ZUWAKU
100
AcDbCircle
 10
24.37110574034886
 20
5.882600745189577
 30
0.0
 40
2.099999999999999
100
AcDbArc
 50
0.0
 51
45.0
  0
ARC
  5
1DDF
330
1A
100
AcDbEntity
  8
ZUWAKU
100
AcDbCircle
 10
29.44610574034891
 20
5.499999732511923
 30
0.0
 40
0.525
100
AcDbArc
 50
180.0
 51
270.0
  0
ARC
  5
1DE0
330
1A
100
AcDbEntity
  8
ZUWAKU
100
AcDbCircle
 10
30.67110574034888
 20
4.974999732511925
 30
0.0
 40
1.399999999999999
100
AcDbArc
 50
270.0
 51
0.0
  0
LINE
  5
1DE1
330
1A
100
AcDbEntity
  8
ZUWAKU
100
AcDbLine
 10
33.38360574034891
 20
3.574999732511926
 30
0.0
 11
34.25860574034891
 21
3.574999732511926
 31
0.0
  0
ARC
  5
1DE2
330
1A
100
AcDbEntity
  8
ZUWAKU
100
AcDbCircle
 10
33.38360574034891
 20
3.837499732511925
 30
0.0
 40
0.2625
100
AcDbArc
 50
180.0
 51
270.0
  0
ARC
  5
1DE3
330
1A
100
AcDbEntity
  8
ZUWAKU
100
AcDbCircle
 10
30.1461057403489
 20
5.499999732511923
 30
0.0
 40
0.525
100
AcDbArc
 50
270.0
 51
0.0
  0
ARC
  5
1DE4
330
1A
100
AcDbEntity
  8
ZUWAKU
100
AcDbCircle
 10
34.25860574034891
 20
3.837499732511925
 30
0.0
 40
0.2625
100
AcDbArc
 50
270.0
 51
0.0
  0
LINE
  5
1DE5
330
1A
100
AcDbEntity
  8
ZUWAKU
100
AcDbLine
 10
21.48360574034887
 20
11.62499973251192
 30
0.0
 11
20.60860574034887
 21
11.62499973251192
 31
0.0
  0
ARC
  5
1DE6
330
1A
100
AcDbEntity
  8
ZUWAKU
100
AcDbCircle
 10
16.05860574034886
 20
11.36249973251192
 30
0.0
 40
0.2625
100
AcDbArc
 50
0.0
 51
90.0
  0
LINE
  5
1DE7
330
1A
100
AcDbEntity
  8
ZUWAKU
100
AcDbLine
 10
16.05860574034886
 20
11.62499973251192
 30
0.0
 11
15.18360574034886
 21
11.62499973251192
 31
0.0
  0
ARC
  5
1DE8
330
1A
100
AcDbEntity
  8
ZUWAKU
100
AcDbCircle
 10
13.43360574034886
 20
11.36249973251192
 30
0.0
 40
0.2625
100
AcDbArc
 50
0.0
 51
90.0
  0
ARC
  5
1DE9
330
1A
100
AcDbEntity
  8
ZUWAKU
100
AcDbCircle
 10
15.18360574034886
 20
11.36249973251192
 30
0.0
 40
0.2625
100
AcDbArc
 50
90.0
 51
180.0
  0
ARC
  5
1DEA
330
1A
100
AcDbEntity
  8
ZUWAKU
100
AcDbCircle
 10
13.43360574034886
 20
10.48749973251192
 30
0.0
 40
0.2625
100
AcDbArc
 50
270.0
 51
0.0
  0
LINE
  5
1DEB
330
1A
100
AcDbEntity
  8
ZUWAKU
100
AcDbLine
 10
13.69610574034891
 20
11.36249973251192
 30
0.0
 11
13.69610574034891
 21
10.48749973251192
 31
0.0
  0
ARC
  5
1DEC
330
1A
100
AcDbEntity
  8
ZUWAKU
100
AcDbCircle
 10
20.60860574034887
 20
11.36249973251192
 30
0.0
 40
0.2625
100
AcDbArc
 50
90.0
 51
180.0
  0
LINE
  5
1DED
330
1A
100
AcDbEntity
  8
ZUWAKU
100
AcDbLine
 10
18.08848865860454
 20
11.62499973251192
 30
0.0
 11
18.93793334840904
 21
11.62499973251192
 31
0.0
  0
ARC
  5
1DEE
330
1A
100
AcDbEntity
  8
ZUWAKU
100
AcDbCircle
 10
18.93793334840904
 20
11.36249973251192
 30
0.0
 40
0.2625
100
AcDbArc
 50
342.4744316262769
 51
90.0
  0
LINE
  5
1DEF
330
1A
100
AcDbEntity
  8
ZUWAKU
100
AcDbLine
 10
19.18824879800678
 20
11.28345274842844
 30
0.0
 11
18.65742898143787
 21
9.602523329293639
 31
0.0
  0
ARC
  5
1DF0
330
1A
100
AcDbEntity
  8
ZUWAKU
100
AcDbCircle
 10
18.08848865860454
 20
11.36249973251192
 30
0.0
 40
0.2625
100
AcDbArc
 50
90.0
 51
162.4744316262769
  0
LINE
  5
1DF1
330
1A
100
AcDbEntity
  8
ZUWAKU
100
AcDbLine
 10
24.19610574034891
 20
11.62499973251192
 30
0.0
 11
25.94610574034891
 21
11.62499973251192
 31
0.0
  0
LINE
  5
1DF2
330
1A
100
AcDbEntity
  8
ZUWAKU
100
AcDbLine
 10
25.94610574034891
 20
10.22499973251192
 30
0.0
 11
24.4586057403489
 21
10.22499973251192
 31
0.0
  0
ARC
  5
1DF3
330
1A
100
AcDbEntity
  8
ZUWAKU
100
AcDbCircle
 10
24.4586057403489
 20
9.962499732511925
 30
0.0
 40
0.2625
100
AcDbArc
 50
90.0
 51
180.0
  0
LINE
  5
1DF4
330
1A
100
AcDbEntity
  8
ZUWAKU
100
AcDbLine
 10
24.19610574034891
 20
9.962499732511925
 30
0.0
 11
24.19610574034891
 21
9.317398719834255
 31
0.0
  0
ARC
  5
1DF5
330
1A
100
AcDbEntity
  8
ZUWAKU
100
AcDbCircle
 10
21.48360574034887
 20
11.36249973251192
 30
0.0
 40
0.2625
100
AcDbArc
 50
0.0
 51
90.0
  0
LINE
  5
1DF6
330
1A
100
AcDbEntity
  8
ZUWAKU
100
AcDbLine
 10
22.79610574034887
 20
10.22499973251192
 30
0.0
 11
22.79610574034887
 21
9.317398719834255
 31
0.0
  0
ARC
  5
1DF7
330
1A
100
AcDbEntity
  8
ZUWAKU
100
AcDbCircle
 10
24.19610574034891
 20
10.22499973251192
 30
0.0
 40
1.399999999999999
100
AcDbArc
 50
90.0
 51
180.0
  0
ARC
  5
1DF8
330
1A
100
AcDbEntity
  8
ZUWAKU
100
AcDbCircle
 10
28.65860574034888
 20
11.36249973251192
 30
0.0
 40
0.2625
100
AcDbArc
 50
0.0
 51
90.0
  0
ARC
  5
1DF9
330
1A
100
AcDbEntity
  8
ZUWAKU
100
AcDbCircle
 10
27.78360574034889
 20
11.36249973251192
 30
0.0
 40
0.2625
100
AcDbArc
 50
90.0
 51
180.0
  0
LINE
  5
1DFA
330
1A
100
AcDbEntity
  8
ZUWAKU
100
AcDbLine
 10
28.65860574034888
 20
11.62499973251192
 30
0.0
 11
27.78360574034889
 21
11.62499973251192
 31
0.0
  0
ARC
  5
1DFB
330
1A
100
AcDbEntity
  8
ZUWAKU
100
AcDbCircle
 10
25.94610574034891
 20
11.36249973251192
 30
0.0
 40
0.2625
100
AcDbArc
 50
0.0
 51
90.0
  0
ARC
  5
1DFC
330
1A
100
AcDbEntity
  8
ZUWAKU
100
AcDbCircle
 10
25.94610574034891
 20
10.48749973251192
 30
0.0
 40
0.2625
100
AcDbArc
 50
270.0
 51
0.0
  0
LINE
  5
1DFD
330
1A
100
AcDbEntity
  8
ZUWAKU
100
AcDbLine
 10
26.2086057403489
 20
11.36249973251192
 30
0.0
 11
26.2086057403489
 21
10.48749973251192
 31
0.0
  0
LINE
  5
1DFE
330
1A
100
AcDbEntity
  8
ZUWAKU
100
AcDbLine
 10
34.25860574034891
 20
11.62499973251192
 30
0.0
 11
33.38360574034891
 21
11.62499973251192
 31
0.0
  0
ARC
  5
1DFF
330
1A
100
AcDbEntity
  8
ZUWAKU
100
AcDbCircle
 10
33.38360574034891
 20
11.36249973251192
 30
0.0
 40
0.2625
100
AcDbArc
 50
90.0
 51
180.0
  0
ARC
  5
1E00
330
1A
100
AcDbEntity
  8
ZUWAKU
100
AcDbCircle
 10
31.80860574034886
 20
11.36249973251192
 30
0.0
 40
0.2625
100
AcDbArc
 50
0.0
 51
90.0
  0
LINE
  5
1E01
330
1A
100
AcDbEntity
  8
ZUWAKU
100
AcDbLine
 10
31.80860574034886
 20
11.62499973251192
 30
0.0
 11
30.93360574034886
 21
11.62499973251192
 31
0.0
  0
ARC
  5
1E02
330
1A
100
AcDbEntity
  8
ZUWAKU
100
AcDbCircle
 10
30.93360574034886
 20
11.36249973251192
 30
0.0
 40
0.2625
100
AcDbArc
 50
90.0
 51
180.0
  0
ARC
  5
1E03
330
1A
100
AcDbEntity
  8
ZUWAKU
100
AcDbCircle
 10
34.25860574034891
 20
11.36249973251192
 30
0.0
 40
0.2625
100
AcDbArc
 50
0.0
 51
90.0
  0
TEXT
  5
1E04
330
1A
100
AcDbEntity
  8
MOJI
100
AcDbText
 10
119.9136010033838
 20
9.002460261215617
 30
0.0
 40
2.799999999999999
  1
亜鉛メッキ金具正面打（受）
 41
0.9
  7
ｽﾀｲﾙ1
100
AcDbText
  0
TEXT
  5
1E05
330
1A
100
AcDbEntity
  8
MOJI
100
AcDbText
 10
119.9136010033838
 20
1.602460261215634
 30
0.0
 40
2.799999999999999
  1
ＲＶ１０５－４－３０
 41
0.9
  7
ｽﾀｲﾙ1
100
AcDbText
  0
LINE
  5
1E06
330
1A
100
AcDbEntity
  8
ZUWAKU
100
AcDbLine
 10
104.1233003079922
 20
14.99999973251192
 30
0.0
 11
104.1233003079922
 21
0.399999732511958
 31
0.0
  0
LINE
  5
1E07
330
1A
100
AcDbEntity
  8
ZUWAKU
100
AcDbLine
 10
104.3233003079922
 20
14.99999973251192
 30
0.0
 11
104.3233003079923
 21
0.399999732511958
 31
0.0
  0
LINE
  5
1E08
330
1A
100
AcDbEntity
  8
ZUWAKU
100
AcDbLine
 10
104.2233003079921
 20
14.99999973251192
 30
0.0
 11
104.2233003079922
 21
0.399999732511958
 31
0.0
  0
TEXT
  5
1E09
330
1A
100
AcDbEntity
  8
ZUWAKU
100
AcDbText
 10
104.862022819097
 20
4.827678001704732
 30
0.0
 40
2.0
  1
サイズ
 41
0.9
  7
ｽﾀｲﾙ1
100
AcDbText
  0
TEXT
  5
1E0A
330
1A
100
AcDbEntity
  8
ZUWAKU
100
AcDbText
 10
104.8620228190969
 20
12.02767800170471
 30
0.0
 40
2.0
  1
品名
 41
0.9
  7
ｽﾀｲﾙ1
100
AcDbText
  0
LINE
  5
1E0B
330
1A
100
AcDbEntity
  8
ZUWAKU
100
AcDbLine
 10
324.4086009180604
 20
7.599999732511939
 30
0.0
 11
348.6245049372289
 21
7.599999732511941
 31
0.0
  0
LINE
  5
1E0C
330
1A
100
AcDbEntity
  8
ZUWAKU
100
AcDbLine
 10
324.4086009180605
 20
7.699999732511942
 30
0.0
 11
348.6245049372289
 21
7.69999973251194
 31
0.0
  0
LINE
  5
1E0D
330
1A
100
AcDbEntity
  8
ZUWAKU
100
AcDbLine
 10
324.4086009180604
 20
7.79999973251194
 30
0.0
 11
348.6245049372289
 21
7.79999973251194
 31
0.0
  0
TEXT
  5
1E0E
330
1A
100
AcDbEntity
  8
ZUWAKU
100
AcDbText
 10
329.1019685066095
 20
9.002460261215617
 30
0.0
 40
2.799999999999999
  1
　　．　　．　　
 41
0.9
  7
ｽﾀｲﾙ1
100
AcDbText
  0
LINE
  5
1E0F
330
1A
100
AcDbEntity
  8
ZUWAKU
100
AcDbLine
 10
252.5995894120287
 20
7.599999732511943
 30
0.0
 11
276.2634775460145
 21
7.599999732511943
 31
0.0
  0
LINE
  5
1E10
330
1A
100
AcDbEntity
  8
ZUWAKU
100
AcDbLine
 10
252.5995894120287
 20
7.69999973251194
 30
0.0
 11
276.2634775460145
 21
7.69999973251194
 31
0.0
  0
LINE
  5
1E11
330
1A
100
AcDbEntity
  8
ZUWAKU
100
AcDbLine
 10
252.5995894120287
 20
7.79999973251194
 30
0.0
 11
276.2634775460145
 21
7.79999973251194
 31
0.0
  0
TEXT
  5
1E12
330
1A
100
AcDbEntity
  8
MOJI
100
AcDbText
 10
231.2836388239526
 20
5.971308593341916
 30
0.0
 40
2.799999999999999
  1
ＬＪ４９Ｇ
 41
0.9
  7
ｽﾀｲﾙ1
100
AcDbText
  0
LINE
  5
1E13
330
1A
100
AcDbEntity
  8
ZUWAKU
100
AcDbLine
 10
223.8121816484539
 20
14.99999973251192
 30
0.0
 11
223.812181648454
 21
0.399999732511958
 31
0.0
  0
LINE
  5
1E14
330
1A
100
AcDbEntity
  8
ZUWAKU
100
AcDbLine
 10
223.9121816484539
 20
14.99999973251192
 30
0.0
 11
223.912181648454
 21
0.399999732511958
 31
0.0
  0
LINE
  5
1E15
330
1A
100
AcDbEntity
  8
ZUWAKU
100
AcDbLine
 10
223.712181648454
 20
14.99999973251192
 30
0.0
 11
223.712181648454
 21
0.399999732511958
 31
0.0
  0
TEXT
  5
1E16
330
1A
100
AcDbEntity
  8
MOJI
100
AcDbText
 10
264.0204536491147
 20
9.002460261215617
 30
0.0
 40
2.799999999999999
  1
Ａ３
 41
0.9
  7
ｽﾀｲﾙ1
100
AcDbText
  0
LINE
  5
1E17
330
1A
100
AcDbEntity
  8
ZUWAKU
100
AcDbLine
 10
252.4995894120287
 20
14.99999973251192
 30
0.0
 11
252.4995894120288
 21
0.399999732511958
 31
0.0
  0
LINE
  5
1E18
330
1A
100
AcDbEntity
  8
ZUWAKU
100
AcDbLine
 10
252.5995894120287
 20
14.99999973251192
 30
0.0
 11
252.5995894120288
 21
0.399999732511958
 31
0.0
  0
LINE
  5
1E19
330
1A
100
AcDbEntity
  8
ZUWAKU
100
AcDbLine
 10
252.3995894120288
 20
14.99999973251192
 30
0.0
 11
252.3995894120288
 21
0.399999732511958
 31
0.0
  0
TEXT
  5
1E1A
330
1A
100
AcDbEntity
  8
ZUWAKU
100
AcDbText
 10
253.3383119231336
 20
4.827678001704732
 30
0.0
 40
2.0
  1
縮尺
 41
0.9
  7
ｽﾀｲﾙ1
100
AcDbText
  0
TEXT
  5
1E1B
330
1A
100
AcDbEntity
  8
MOJI
100
AcDbText
 10
264.0204536491147
 20
1.602460261215634
 30
0.0
 40
2.799999999999999
  1
１/１
 41
0.9
  7
ｽﾀｲﾙ1
100
AcDbText
  0
TEXT
  5
1E1C
330
1A
100
AcDbEntity
  8
ZUWAKU
100
AcDbText
 10
224.6509041595587
 20
12.02767800170471
 30
0.0
 40
2.0
  1
品番
 41
0.9
  7
ｽﾀｲﾙ1
100
AcDbText
  0
TEXT
  5
1E1D
330
1A
100
AcDbEntity
  8
ZUWAKU
100
AcDbText
 10
253.3383119231335
 20
12.02767800170471
 30
0.0
 40
2.0
  1
用紙
 41
0.9
  7
ｽﾀｲﾙ1
100
AcDbText
  0
LINE
  5
1E1E
330
1A
100
AcDbEntity
  8
ZUWAKU
100
AcDbLine
 10
324.3086009180605
 20
14.99999973251192
 30
0.0
 11
324.3086009180606
 21
0.399999732511958
 31
0.0
  0
LINE
  5
1E1F
330
1A
100
AcDbEntity
  8
ZUWAKU
100
AcDbLine
 10
324.4086009180605
 20
14.99999973251192
 30
0.0
 11
324.4086009180606
 21
0.399999732511958
 31
0.0
  0
LINE
  5
1E20
330
1A
100
AcDbEntity
  8
ZUWAKU
100
AcDbLine
 10
324.2086009180606
 20
14.99999973251192
 30
0.0
 11
324.2086009180606
 21
0.399999732511958
 31
0.0
  0
LINE
  5
1E21
330
1A
100
AcDbEntity
  8
ZUWAKU
100
AcDbLine
 10
276.3634775460144
 20
14.99999973251192
 30
0.0
 11
276.3634775460145
 21
0.399999732511958
 31
0.0
  0
LINE
  5
1E22
330
1A
100
AcDbEntity
  8
ZUWAKU
100
AcDbLine
 10
276.4634775460144
 20
14.99999973251192
 30
0.0
 11
276.4634775460145
 21
0.399999732511958
 31
0.0
  0
LINE
  5
1E23
330
1A
100
AcDbEntity
  8
ZUWAKU
100
AcDbLine
 10
276.2634775460145
 20
14.99999973251192
 30
0.0
 11
276.2634775460145
 21
0.399999732511958
 31
0.0
  0
TEXT
  5
1E24
330
1A
100
AcDbEntity
  8
ZUWAKU
100
AcDbText
 10
325.1473234291653
 20
12.02767800170471
 30
0.0
 40
2.0
  1
DATE
 41
0.9
  7
ｽﾀｲﾙ1
100
AcDbText
  0
LINE
  5
1E25
330
1A
100
AcDbEntity
  8
ZUWAKU
100
AcDbLine
 10
348.6245049372289
 20
14.99999973251192
 30
0.0
 11
348.6245049372289
 21
0.399999732511958
 31
0.0
  0
LINE
  5
1E26
330
1A
100
AcDbEntity
  8
ZUWAKU
100
AcDbLine
 10
348.7245049372289
 20
14.99999973251192
 30
0.0
 11
348.7245049372289
 21
0.399999732511958
 31
0.0
  0
LINE
  5
1E27
330
1A
100
AcDbEntity
  8
ZUWAKU
100
AcDbLine
 10
348.8245049372288
 20
14.99999973251192
 30
0.0
 11
348.8245049372289
 21
0.399999732511958
 31
0.0
  0
LINE
  5
1E28
330
1A
100
AcDbEntity
  8
ZUWAKU
100
AcDbLine
 10
348.9245049372289
 20
14.99999973251192
 30
0.0
 11
348.924504937229
 21
0.399999732511958
 31
0.0
  0
TEXT
  5
1E29
330
1A
100
AcDbEntity
  8
ZUWAKU
100
AcDbText
 10
354.2640417590802
 20
8.776919400355325
 30
0.0
 40
3.0
  1
積水化学工業株式会社
 41
0.9
  7
ｽﾀｲﾙ1
100
AcDbText
  0
TEXT
  5
1E2A
330
1A
100
AcDbEntity
  8
ZUWAKU
100
AcDbText
 10
354.2640417590802
 20
3.324419889438956
 30
0.0
 40
3.0
  1
建材事業部
 41
0.9
  7
ｽﾀｲﾙ1
100
AcDbText
  0
VIEWPORT
  5
22
330
17
100
AcDbEntity
 67
     1
  8
0
100
AcDbViewport
 10
313.6808219178082
 20
148.5
 30
0.0
 40
627.3616438356165
 41
297.0
 68
     2
 69
     1
1001
ACAD
1000
MVIEW
1002
{
1070
    16
1010
0.0
1020
0.0
1030
0.0
1010
0.0
1020
0.0
1030
1.0
1040
0.0
1040
297.0
1040
313.6808219178082
1040
148.5
1040
50.0
1040
0.0
1040
0.0
1070
     0
1070
   100
1070
     1
1070
     0
1070
     0
1070
     0
1070
     0
1070
     0
1040
0.0
1040
0.0
1040
0.0
1040
1.0
1040
1.0
1040
10.0
1040
10.0
1070
     0
1002
{
1002
}
1002
}
  0
VIEWPORT
  5
64
330
17
100
AcDbEntity
 67
     1
  8
VIEWPORT
100
AcDbViewport
 10
210.0
 20
148.5
 30
0.0
 40
420.0
 41
297.0
 68
     1
 69
     2
1001
ACAD
1000
MVIEW
1002
{
1070
    16
1010
0.0
1020
0.0
1030
0.0
1010
0.0
1020
0.0
1030
1.0
1040
0.0
1040
302.9399999999998
1040
210.0
1040
148.5
1040
50.0
1040
0.0
1040
0.0
1070
     0
1070
   100
1070
     1
1070
     0
1070
     0
1070
     0
1070
     0
1070
     0
1040
0.0
1040
0.0
1040
0.0
1040
5.0
1040
5.0
1040
0.0
1040
0.0
1070
     0
1002
{
1002
}
1002
}
  0
ENDSEC
  0
SECTION
  2
OBJECTS
  0
DICTIONARY
  5
C
330
0
100
AcDbDictionary
  3
ACAD_GROUP
350
D
  3
ACAD_LAYOUT
350
141
  3
ACAD_MLINESTYLE
350
E
  3
ACAD_PLOTSETTINGS
350
142
  3
ACAD_PLOTSTYLENAME
350
13F
  3
ACDBVARIABLEDICTIONARY
350
120D
  3
ACDBHEADERROUNDTRIPXREC
350
1EA2
  0
DICTIONARY
  5
7A2
330
1A
100
AcDbDictionary
280
     1
  3
ACAD_LAYOUTSELFREF
360
1EC4
  0
DICTIONARY
  5
7A0
330
17
100
AcDbDictionary
280
     1
  3
ACAD_LAYOUTSELFREF
360
1EC3
  0
DICTIONARY
  5
D
102
{ACAD_REACTORS
330
C
102
}
330
C
100
AcDbDictionary
  0
DICTIONARY
  5
141
102
{ACAD_REACTORS
330
C
102
}
330
C
100
AcDbDictionary
  0
DICTIONARY
  5
E
102
{ACAD_REACTORS
330
C
102
}
330
C
100
AcDbDictionary
  3
STANDARD
350
13
  0
DICTIONARY
  5
142
102
{ACAD_REACTORS
330
C
102
}
330
C
100
AcDbDictionary
  0
ACDBDICTIONARYWDFLT
  5
13F
102
{ACAD_REACTORS
330
C
102
}
330
C
100
AcDbDictionary
281
     1
  3
Normal
350
140
100
AcDbDictionaryWithDefault
340
140
1001
ACAD
1000
TREAT_AS_HARD
1070
     0
1000
TREAT_AS_HARD
1070
     0
1000
TREAT_AS_HARD
1070
     0
1000
TREAT_AS_HARD
1070
     0
1000
TREAT_AS_HARD
1070
     0
1000
TREAT_AS_HARD
1070
     0
1000
TREAT_AS_HARD
1070
     0
1000
TREAT_AS_HARD
1070
     0
1000
TREAT_AS_HARD
1070
     0
1000
TREAT_AS_HARD
1070
     0
1000
TREAT_AS_HARD
1070
     0
1000
TREAT_AS_HARD
1070
     0
1000
TREAT_AS_HARD
1070
     0
  0
DICTIONARY
  5
120D
102
{ACAD_REACTORS
330
C
102
}
330
C
100
AcDbDictionary
  3
SORTENTS
350
120E
  0
DICTIONARY
  5
1EA2
102
{ACAD_REACTORS
330
C
102
}
330
C
100
AcDbDictionary
  3
TSTACKALIGN
350
1EA3
  3
TSTACKSIZE
350
1EA4
  3
HYPERLINKBASE
350
1EA5
  3
STYLESHEET
350
1EA6
  3
LAYOUTDICT
350
1EA7
  3
PLOTSETDICT
350
1EA8
  3
PLOTSTYLNAMDICT
350
1EA9
  3
LWETCUNION
350
1EAA
  3
INSUNITS
350
1EAB
  3
CEPSNTYPE
350
1EAC
  3
FINGERPRINTGUID
350
1EAD
  3
VERSIONGUID
350
1EAE
  3
PSVPSCALE
350
1EAF
  3
DIMSTYLEDATA
350
1EB0
  3
PUCSORTHOREF
350
1EB1
  3
PUCSORTHOVIEW
350
1EB2
  3
PUCSBASE
350
1EB3
  3
PUCSORGTOP
350
1EB4
  3
PUCSORGBOTTOM
350
1EB5
  3
PUCSORGLEFT
350
1EB6
  3
PUCSORGRIGHT
350
1EB7
  3
PUCSORGFRONT
350
1EB8
  3
PUCSORGBACK
350
1EB9
  3
UCSORTHOREF
350
1EBA
  3
UCSORTHOVIEW
350
1EBB
  3
UCSBASE
350
1EBC
  3
UCSORGTOP
350
1EBD
  3
UCSORGBOTTOM
350
1EBE
  3
UCSORGLEFT
350
1EBF
  3
UCSORGRIGHT
350
1EC0
  3
UCSORGFRONT
350
1EC1
  3
UCSORGBACK
350
1EC2
  0
XRECORD
  5
1EC4
102
{ACAD_REACTORS
330
7A2
102
}
330
7A2
100
AcDbXrecord
340
1A
  0
XRECORD
  5
1EC3
102
{ACAD_REACTORS
330
7A0
102
}
330
7A0
100
AcDbXrecord
340
17
  0
MLINESTYLE
  5
13
102
{ACAD_REACTORS
330
E
102
}
330
E
100
AcDbMlineStyle
  2
STANDARD
 70
     0
  3

 62
     0
 51
90.0
 52
90.0
 71
     2
 49
0.5
 62
   256
  6
BYLAYER
 49
-0.5
 62
   256
  6
BYLAYER
  0
ACDBPLACEHOLDER
  5
140
102
{ACAD_REACTORS
330
13F
102
}
330
13F
100
AcDbPlaceHolder
280
     0
  0
DICTIONARYVAR
  5
120E
102
{ACAD_REACTORS
330
120D
102
}
330
120D
100
DictionaryVariables
280
     0
  1
96
  0
XRECORD
  5
1EA3
102
{ACAD_REACTORS
330
1EA2
102
}
330
1EA2
100
AcDbXrecord
 90
        1
  0
XRECORD
  5
1EA4
102
{ACAD_REACTORS
330
1EA2
102
}
330
1EA2
100
AcDbXrecord
 90
       70
  0
XRECORD
  5
1EA5
102
{ACAD_REACTORS
330
1EA2
102
}
330
1EA2
100
AcDbXrecord
  1

  0
XRECORD
  5
1EA6
102
{ACAD_REACTORS
330
1EA2
102
}
330
1EA2
100
AcDbXrecord
  1
systemprinter.ctb
  0
XRECORD
  5
1EA7
102
{ACAD_REACTORS
330
1EA2
102
}
330
1EA2
100
AcDbXrecord
340
141
  0
XRECORD
  5
1EA8
102
{ACAD_REACTORS
330
1EA2
102
}
330
1EA2
100
AcDbXrecord
340
142
  0
XRECORD
  5
1EA9
102
{ACAD_REACTORS
330
1EA2
102
}
330
1EA2
100
AcDbXrecord
340
13F
  0
XRECORD
  5
1EAA
102
{ACAD_REACTORS
330
1EA2
102
}
330
1EA2
100
AcDbXrecord
 90
    10781
  0
XRECORD
  5
1EAB
102
{ACAD_REACTORS
330
1EA2
102
}
330
1EA2
100
AcDbXrecord
 90
        0
  0
XRECORD
  5
1EAC
102
{ACAD_REACTORS
330
1EA2
102
}
330
1EA2
100
AcDbXrecord
 90
        0
  0
XRECORD
  5
1EAD
102
{ACAD_REACTORS
330
1EA2
102
}
330
1EA2
100
AcDbXrecord
  1
{4E8D0500-CDD1-11D3-932C-444553540000}
  0
XRECORD
  5
1EAE
102
{ACAD_REACTORS
330
1EA2
102
}
330
1EA2
100
AcDbXrecord
  1
{EF53478E-3530-4DED-BAAC-284B80D9D97B}
  0
XRECORD
  5
1EAF
102
{ACAD_REACTORS
330
1EA2
102
}
330
1EA2
100
AcDbXrecord
 40
0.0
  0
XRECORD
  5
1EB0
102
{ACAD_REACTORS
330
1EA2
102
}
330
1EA2
100
AcDbXrecord
1000
DSTYLE
1002
{
1070
   341
340
B2
1070
   343
340
B2
1070
   344
340
B2
1070
   371
 70
    -1
1070
   372
 70
    -1
1002
}
  0
XRECORD
  5
1EB1
102
{ACAD_REACTORS
330
1EA2
102
}
330
1EA2
100
AcDbXrecord
340
0
  0
XRECORD
  5
1EB2
102
{ACAD_REACTORS
330
1EA2
102
}
330
1EA2
100
AcDbXrecord
 70
     0
  0
XRECORD
  5
1EB3
102
{ACAD_REACTORS
330
1EA2
102
}
330
1EA2
100
AcDbXrecord
340
0
  0
XRECORD
  5
1EB4
102
{ACAD_REACTORS
330
1EA2
102
}
330
1EA2
100
AcDbXrecord
 10
0.0
 20
0.0
 30
0.0
  0
XRECORD
  5
1EB5
102
{ACAD_REACTORS
330
1EA2
102
}
330
1EA2
100
AcDbXrecord
 10
0.0
 20
0.0
 30
0.0
  0
XRECORD
  5
1EB6
102
{ACAD_REACTORS
330
1EA2
102
}
330
1EA2
100
AcDbXrecord
 10
0.0
 20
0.0
 30
0.0
  0
XRECORD
  5
1EB7
102
{ACAD_REACTORS
330
1EA2
102
}
330
1EA2
100
AcDbXrecord
 10
0.0
 20
0.0
 30
0.0
  0
XRECORD
  5
1EB8
102
{ACAD_REACTORS
330
1EA2
102
}
330
1EA2
100
AcDbXrecord
 10
0.0
 20
0.0
 30
0.0
  0
XRECORD
  5
1EB9
102
{ACAD_REACTORS
330
1EA2
102
}
330
1EA2
100
AcDbXrecord
 10
0.0
 20
0.0
 30
0.0
  0
XRECORD
  5
1EBA
102
{ACAD_REACTORS
330
1EA2
102
}
330
1EA2
100
AcDbXrecord
340
0
  0
XRECORD
  5
1EBB
102
{ACAD_REACTORS
330
1EA2
102
}
330
1EA2
100
AcDbXrecord
 70
     0
  0
XRECORD
  5
1EBC
102
{ACAD_REACTORS
330
1EA2
102
}
330
1EA2
100
AcDbXrecord
340
0
  0
XRECORD
  5
1EBD
102
{ACAD_REACTORS
330
1EA2
102
}
330
1EA2
100
AcDbXrecord
 10
0.0
 20
0.0
 30
0.0
  0
XRECORD
  5
1EBE
102
{ACAD_REACTORS
330
1EA2
102
}
330
1EA2
100
AcDbXrecord
 10
0.0
 20
0.0
 30
0.0
  0
XRECORD
  5
1EBF
102
{ACAD_REACTORS
330
1EA2
102
}
330
1EA2
100
AcDbXrecord
 10
0.0
 20
0.0
 30
0.0
  0
XRECORD
  5
1EC0
102
{ACAD_REACTORS
330
1EA2
102
}
330
1EA2
100
AcDbXrecord
 10
0.0
 20
0.0
 30
0.0
  0
XRECORD
  5
1EC1
102
{ACAD_REACTORS
330
1EA2
102
}
330
1EA2
100
AcDbXrecord
 10
0.0
 20
0.0
 30
0.0
  0
XRECORD
  5
1EC2
102
{ACAD_REACTORS
330
1EA2
102
}
330
1EA2
100
AcDbXrecord
 10
0.0
 20
0.0
 30
0.0
  0
ENDSEC
  0
EOF
