  0
SECTION
  2
HEADER
  9
$ACADVER
  1
AC1014
  9
$ACADMAINTVER
 70
     9
  9
$DWGCODEPAGE
  3
ANSI_932
  9
$INSBASE
 10
0.0
 20
0.0
 30
0.0
  9
$EXTMIN
 10
-0.0128167419908323
 20
-0.0090632967028341
 30
-23.49273252472774
  9
$EXTMAX
 10
398.8000497643211
 20
275.8226172249287
 30
0.0007169841209702
  9
$LIMMIN
 10
0.0
 20
0.0
  9
$LIMMAX
 10
420.0
 20
297.0
  9
$ORTHOMODE
 70
     0
  9
$REGENMODE
 70
     1
  9
$FILLMODE
 70
     1
  9
$QTEXTMODE
 70
     0
  9
$MIRRTEXT
 70
     1
  9
$DRAGMODE
 70
     2
  9
$LTSCALE
 40
5.0
  9
$OSMODE
 70
    35
  9
$ATTMODE
 70
     1
  9
$TEXTSIZE
 40
3.0
  9
$TRACEWID
 40
1.0
  9
$TEXTSTYLE
  7
STANDARD
  9
$CLAYER
  8
CENTER_L
  9
$CELTYPE
  6
BYLAYER
  9
$CECOLOR
 62
   256
  9
$CELTSCALE
 40
1.0
  9
$DELOBJ
 70
     1
  9
$DISPSILH
 70
     0
  9
$DIMSCALE
 40
1.0
  9
$DIMASZ
 40
3.0
  9
$DIMEXO
 40
3.0
  9
$DIMDLI
 40
7.0
  9
$DIMRND
 40
0.0
  9
$DIMDLE
 40
0.0
  9
$DIMEXE
 40
1.5
  9
$DIMTP
 40
0.0
  9
$DIMTM
 40
0.0
  9
$DIMTXT
 40
3.0
  9
$DIMCEN
 40
3.0
  9
$DIMTSZ
 40
0.0
  9
$DIMTOL
 70
     0
  9
$DIMLIM
 70
     0
  9
$DIMTIH
 70
     0
  9
$DIMTOH
 70
     0
  9
$DIMSE1
 70
     0
  9
$DIMSE2
 70
     0
  9
$DIMTAD
 70
     3
  9
$DIMZIN
 70
     0
  9
$DIMBLK
  1

  9
$DIMASO
 70
     1
  9
$DIMSHO
 70
     1
  9
$DIMPOST
  1

  9
$DIMAPOST
  1

  9
$DIMALT
 70
     0
  9
$DIMALTD
 70
     2
  9
$DIMALTF
 40
25.4
  9
$DIMLFAC
 40
1.0
  9
$DIMTOFL
 70
     1
  9
$DIMTVP
 40
0.0
  9
$DIMTIX
 70
     0
  9
$DIMSOXD
 70
     0
  9
$DIMSAH
 70
     1
  9
$DIMBLK1
  1
OPEN
  9
$DIMBLK2
  1
OPEN
  9
$DIMSTYLE
  2
STANDARD
  9
$DIMCLRD
 70
   256
  9
$DIMCLRE
 70
   256
  9
$DIMCLRT
 70
   256
  9
$DIMTFAC
 40
1.0
  9
$DIMGAP
 40
1.0
  9
$DIMJUST
 70
     0
  9
$DIMSD1
 70
     0
  9
$DIMSD2
 70
     0
  9
$DIMTOLJ
 70
     1
  9
$DIMTZIN
 70
     0
  9
$DIMALTZ
 70
     0
  9
$DIMALTTZ
 70
     0
  9
$DIMFIT
 70
     3
  9
$DIMUPT
 70
     0
  9
$DIMUNIT
 70
     2
  9
$DIMDEC
 70
     0
  9
$DIMTDEC
 70
     0
  9
$DIMALTU
 70
     2
  9
$DIMALTTD
 70
     2
  9
$DIMTXSTY
  7
STANDARD
  9
$DIMAUNIT
 70
     0
  9
$LUNITS
 70
     2
  9
$LUPREC
 70
     4
  9
$SKETCHINC
 40
1.0
  9
$FILLETRAD
 40
0.5
  9
$AUNITS
 70
     0
  9
$AUPREC
 70
     0
  9
$MENU
  1
.
  9
$ELEVATION
 40
0.0
  9
$PELEVATION
 40
0.0
  9
$THICKNESS
 40
0.0
  9
$LIMCHECK
 70
     0
  9
$BLIPMODE
 70
     0
  9
$CHAMFERA
 40
10.0
  9
$CHAMFERB
 40
10.0
  9
$CHAMFERC
 40
20.0
  9
$CHAMFERD
 40
0.0
  9
$SKPOLY
 70
     0
  9
$TDCREATE
 40
2451589.469382176
  9
$TDUPDATE
 40
2453802.494931088
  9
$TDINDWG
 40
0.1503154514
  9
$TDUSRTIMER
 40
0.1503154514
  9
$USRTIMER
 70
     1
  9
$ANGBASE
 50
0.0
  9
$ANGDIR
 70
     0
  9
$PDMODE
 70
     0
  9
$PDSIZE
 40
0.0
  9
$PLINEWID
 40
0.0
  9
$COORDS
 70
     1
  9
$SPLFRAME
 70
     0
  9
$SPLINETYPE
 70
     6
  9
$SPLINESEGS
 70
     8
  9
$ATTDIA
 70
     0
  9
$ATTREQ
 70
     1
  9
$HANDLING
 70
 10241
  9
$HANDSEED
  5
197A
  9
$SURFTAB1
 70
     6
  9
$SURFTAB2
 70
     6
  9
$SURFTYPE
 70
     6
  9
$SURFU
 70
     6
  9
$SURFV
 70
     6
  9
$UCSNAME
  2

  9
$UCSORG
 10
0.0
 20
0.0
 30
0.0
  9
$UCSXDIR
 10
1.0
 20
0.0
 30
0.0
  9
$UCSYDIR
 10
0.0
 20
1.0
 30
0.0
  9
$PUCSNAME
  2

  9
$PUCSORG
 10
0.0
 20
0.0
 30
0.0
  9
$PUCSXDIR
 10
1.0
 20
0.0
 30
0.0
  9
$PUCSYDIR
 10
0.0
 20
1.0
 30
0.0
  9
$USERI1
 70
     0
  9
$USERI2
 70
     0
  9
$USERI3
 70
     0
  9
$USERI4
 70
     0
  9
$USERI5
 70
     0
  9
$USERR1
 40
0.0
  9
$USERR2
 40
0.0
  9
$USERR3
 40
0.0
  9
$USERR4
 40
0.0
  9
$USERR5
 40
0.0
  9
$WORLDVIEW
 70
     1
  9
$SHADEDGE
 70
     3
  9
$SHADEDIF
 70
    70
  9
$TILEMODE
 70
     1
  9
$MAXACTVP
 70
    16
  9
$PINSBASE
 10
0.0
 20
0.0
 30
0.0
  9
$PLIMCHECK
 70
     0
  9
$PEXTMIN
 10
0.0
 20
0.0
 30
0.0
  9
$PEXTMAX
 10
420.0
 20
297.0
 30
0.0
  9
$PLIMMIN
 10
0.0
 20
0.0
  9
$PLIMMAX
 10
420.0
 20
297.0
  9
$UNITMODE
 70
     0
  9
$VISRETAIN
 70
     0
  9
$PLINEGEN
 70
     0
  9
$PSLTSCALE
 70
     1
  9
$TREEDEPTH
 70
  3020
  9
$PICKSTYLE
 70
     1
  9
$CMLSTYLE
  2
STANDARD
  9
$CMLJUST
 70
     0
  9
$CMLSCALE
 40
1.0
  9
$PROXYGRAPHICS
 70
     1
  9
$MEASUREMENT
 70
     0
  0
ENDSEC
  0
SECTION
  2
CLASSES
  0
CLASS
  1
ACDBDICTIONARYWDFLT
  2
AcDbDictionaryWithDefault
  3
AutoCAD 2000
 90
        0
280
     0
281
     0
  0
CLASS
  1
ACDBPLACEHOLDER
  2
AcDbPlaceHolder
  3
AutoCAD 2000
 90
        0
280
     0
281
     0
  0
CLASS
  1
LAYOUT
  2
AcDbLayout
  3
AutoCAD 2000
 90
        0
280
     0
281
     0
  0
CLASS
  1
LONG_TRANSACTION
  2
AcDbLongTransaction
  3
AutoCAD 2000
 90
        0
280
     0
281
     0
  0
CLASS
  1
LWPOLYLINE
  2
AcDbPolyline
  3
AutoCAD 2000
 90
        0
280
     0
281
     1
  0
CLASS
  1
HATCH
  2
AcDbHatch
  3
AutoCAD 2000
 90
        0
280
     0
281
     1
  0
CLASS
  1
XRECORD
  2
AcDbXrecord
  3
AutoCAD 2000
 90
        0
280
     0
281
     0
  0
CLASS
  1
LONG_TRANSACTION
  2
AcDbLongTransaction
  3
AutoCAD 2000
 90
        0
280
     0
281
     0
  0
CLASS
  1
LWPOLYLINE
  2
AcDbPolyline
  3
AutoCAD 2000
 90
        0
280
     0
281
     1
  0
CLASS
  1
HATCH
  2
AcDbHatch
  3
AutoCAD 2000
 90
        0
280
     0
281
     1
  0
CLASS
  1
XRECORD
  2
AcDbXrecord
  3
AutoCAD 2000
 90
        0
280
     0
281
     0
  0
CLASS
  1
DICTIONARYVAR
  2
AcDbDictionaryVar
  3
AutoCAD 2000
 90
        0
280
     0
281
     0
  0
CLASS
  1
LONG_TRANSACTION
  2
AcDbLongTransaction
  3
AutoCAD 2000
 90
        0
280
     0
281
     0
  0
CLASS
  1
LWPOLYLINE
  2
AcDbPolyline
  3
AutoCAD 2000
 90
        0
280
     0
281
     1
  0
CLASS
  1
HATCH
  2
AcDbHatch
  3
AutoCAD 2000
 90
        0
280
     0
281
     1
  0
CLASS
  1
XRECORD
  2
AcDbXrecord
  3
AutoCAD 2000
 90
        0
280
     0
281
     0
  0
CLASS
  1
LONG_TRANSACTION
  2
AcDbLongTransaction
  3
AutoCAD 2000
 90
        0
280
     0
281
     0
  0
CLASS
  1
LWPOLYLINE
  2
AcDbPolyline
  3
AutoCAD 2000
 90
        0
280
     0
281
     1
  0
CLASS
  1
HATCH
  2
AcDbHatch
  3
AutoCAD 2000
 90
        0
280
     0
281
     1
  0
CLASS
  1
XRECORD
  2
AcDbXrecord
  3
AutoCAD 2000
 90
        0
280
     0
281
     0
  0
CLASS
  1
LONG_TRANSACTION
  2
AcDbLongTransaction
  3
AutoCAD 2000
 90
        0
280
     0
281
     0
  0
CLASS
  1
LWPOLYLINE
  2
AcDbPolyline
  3
AutoCAD 2000
 90
        0
280
     0
281
     1
  0
CLASS
  1
HATCH
  2
AcDbHatch
  3
AutoCAD 2000
 90
        0
280
     0
281
     1
  0
CLASS
  1
XRECORD
  2
AcDbXrecord
  3
AutoCAD 2000
 90
        0
280
     0
281
     0
  0
CLASS
  1
LONG_TRANSACTION
  2
AcDbLongTransaction
  3
AutoCAD 2000
 90
        0
280
     0
281
     0
  0
CLASS
  1
LWPOLYLINE
  2
AcDbPolyline
  3
AutoCAD 2000
 90
        0
280
     0
281
     1
  0
CLASS
  1
HATCH
  2
AcDbHatch
  3
AutoCAD 2000
 90
        0
280
     0
281
     1
  0
CLASS
  1
XRECORD
  2
AcDbXrecord
  3
AutoCAD 2000
 90
        0
280
     0
281
     0
  0
CLASS
  1
LONG_TRANSACTION
  2
AcDbLongTransaction
  3
AutoCAD 2000
 90
        0
280
     0
281
     0
  0
CLASS
  1
LWPOLYLINE
  2
AcDbPolyline
  3
AutoCAD 2000
 90
        0
280
     0
281
     1
  0
CLASS
  1
HATCH
  2
AcDbHatch
  3
AutoCAD 2000
 90
        0
280
     0
281
     1
  0
CLASS
  1
XRECORD
  2
AcDbXrecord
  3
AutoCAD 2000
 90
        0
280
     0
281
     0
  0
CLASS
  1
LONG_TRANSACTION
  2
AcDbLongTransaction
  3
AutoCAD 2000
 90
        0
280
     0
281
     0
  0
CLASS
  1
LWPOLYLINE
  2
AcDbPolyline
  3
AutoCAD 2000
 90
        0
280
     0
281
     1
  0
CLASS
  1
HATCH
  2
AcDbHatch
  3
AutoCAD 2000
 90
        0
280
     0
281
     1
  0
CLASS
  1
XRECORD
  2
AcDbXrecord
  3
AutoCAD 2000
 90
        0
280
     0
281
     0
  0
CLASS
  1
LONG_TRANSACTION
  2
AcDbLongTransaction
  3
AutoCAD 2000
 90
        0
280
     0
281
     0
  0
CLASS
  1
LWPOLYLINE
  2
AcDbPolyline
  3
AutoCAD 2000
 90
        0
280
     0
281
     1
  0
CLASS
  1
HATCH
  2
AcDbHatch
  3
AutoCAD 2000
 90
        0
280
     0
281
     1
  0
CLASS
  1
XRECORD
  2
AcDbXrecord
  3
AutoCAD 2000
 90
        0
280
     0
281
     0
  0
CLASS
  1
LONG_TRANSACTION
  2
AcDbLongTransaction
  3
AutoCAD 2000
 90
        0
280
     0
281
     0
  0
CLASS
  1
LWPOLYLINE
  2
AcDbPolyline
  3
AutoCAD 2000
 90
        0
280
     0
281
     1
  0
CLASS
  1
HATCH
  2
AcDbHatch
  3
AutoCAD 2000
 90
        0
280
     0
281
     1
  0
CLASS
  1
XRECORD
  2
AcDbXrecord
  3
AutoCAD 2000
 90
        0
280
     0
281
     0
  0
CLASS
  1
LONG_TRANSACTION
  2
AcDbLongTransaction
  3
AutoCAD 2000
 90
        0
280
     0
281
     0
  0
CLASS
  1
LWPOLYLINE
  2
AcDbPolyline
  3
AutoCAD 2000
 90
        0
280
     0
281
     1
  0
CLASS
  1
HATCH
  2
AcDbHatch
  3
AutoCAD 2000
 90
        0
280
     0
281
     1
  0
CLASS
  1
XRECORD
  2
AcDbXrecord
  3
AutoCAD 2000
 90
        0
280
     0
281
     0
  0
CLASS
  1
LONG_TRANSACTION
  2
AcDbLongTransaction
  3
AutoCAD 2000
 90
        0
280
     0
281
     0
  0
CLASS
  1
LWPOLYLINE
  2
AcDbPolyline
  3
AutoCAD 2000
 90
        0
280
     0
281
     1
  0
CLASS
  1
HATCH
  2
AcDbHatch
  3
AutoCAD 2000
 90
        0
280
     0
281
     1
  0
CLASS
  1
XRECORD
  2
AcDbXrecord
  3
AutoCAD 2000
 90
        0
280
     0
281
     0
  0
ENDSEC
  0
SECTION
  2
TABLES
  0
TABLE
  2
VPORT
  5
8
330
0
100
AcDbSymbolTable
 70
     2
  0
VPORT
  5
1956
330
8
100
AcDbSymbolTableRecord
100
AcDbViewportTableRecord
  2
*ACTIVE
 70
     0
 10
0.0
 20
0.0
 11
1.0
 21
1.0
 12
204.7145318527474
 22
144.3524747922639
 13
0.0
 23
0.0
 14
5.0
 24
5.0
 15
0.0
 25
0.0
 16
0.0
 26
0.0
 36
1.0
 17
0.0
 27
0.0
 37
0.0
 40
314.105533406575
 41
1.795454545454545
 42
50.0
 43
0.0
 44
0.0
 50
0.0
 51
0.0
 71
     0
 72
   100
 73
     1
 74
     0
 75
     0
 76
     0
 77
     0
 78
     0
  0
ENDTAB
  0
TABLE
  2
LTYPE
  5
5
330
0
100
AcDbSymbolTable
 70
     3
  0
LTYPE
  5
14
330
5
100
AcDbSymbolTableRecord
100
AcDbLinetypeTableRecord
  2
BYBLOCK
 70
     0
  3

 72
    65
 73
     0
 40
0.0
  0
LTYPE
  5
15
330
5
100
AcDbSymbolTableRecord
100
AcDbLinetypeTableRecord
  2
BYLAYER
 70
     0
  3

 72
    65
 73
     0
 40
0.0
  0
LTYPE
  5
16
330
5
100
AcDbSymbolTableRecord
100
AcDbLinetypeTableRecord
  2
CONTINUOUS
 70
     0
  3
Solid line
 72
    65
 73
     0
 40
0.0
  0
LTYPE
  5
120
330
5
100
AcDbSymbolTableRecord
100
AcDbLinetypeTableRecord
  2
CENTER
 70
     0
  3
____ _ ____ _ ____ _ ____ _ ____ _ ____ _ ____ 
 72
    65
 73
     4
 40
2.0
 49
1.25
 74
     0
 49
-0.25
 74
     0
 49
0.25
 74
     0
 49
-0.25
 74
     0
  0
LTYPE
  5
122
330
5
100
AcDbSymbolTableRecord
100
AcDbLinetypeTableRecord
  2
PHANTOM
 70
     0
  3
______  __  __  ______  __  __  ______  __  __ 
 72
    65
 73
     6
 40
2.5
 49
1.25
 74
     0
 49
-0.25
 74
     0
 49
0.25
 74
     0
 49
-0.25
 74
     0
 49
0.25
 74
     0
 49
-0.25
 74
     0
  0
ENDTAB
  0
TABLE
  2
LAYER
  5
2
330
0
100
AcDbSymbolTable
 70
     9
  0
LAYER
  5
F
330
2
100
AcDbSymbolTableRecord
100
AcDbLayerTableRecord
  2
0
 70
     0
 62
     7
  6
CONTINUOUS
  0
LAYER
  5
62
330
2
100
AcDbSymbolTableRecord
100
AcDbLayerTableRecord
  2
VIEWPORT
 70
     0
 62
     7
  6
CONTINUOUS
  0
LAYER
  5
6B
330
2
100
AcDbSymbolTableRecord
100
AcDbLayerTableRecord
  2
ZUWAKU
 70
     0
 62
     7
  6
CONTINUOUS
  0
LAYER
  5
3EF
330
2
100
AcDbSymbolTableRecord
100
AcDbLayerTableRecord
  2
DEFPOINTS
 70
     0
 62
     7
  6
CONTINUOUS
  0
LAYER
  5
54D
330
2
100
AcDbSymbolTableRecord
100
AcDbLayerTableRecord
  2
SEIHIN
 70
     0
 62
     3
  6
CONTINUOUS
  0
LAYER
  5
54E
330
2
100
AcDbSymbolTableRecord
100
AcDbLayerTableRecord
  2
SUNPOU
 70
     0
 62
     4
  6
CONTINUOUS
  0
LAYER
  5
54F
330
2
100
AcDbSymbolTableRecord
100
AcDbLayerTableRecord
  2
CENTER_L
 70
     0
 62
     1
  6
CENTER
  0
LAYER
  5
550
330
2
100
AcDbSymbolTableRecord
100
AcDbLayerTableRecord
  2
NOKOTOI
 70
     0
 62
     8
  6
PHANTOM
  0
LAYER
  5
1771
330
2
100
AcDbSymbolTableRecord
100
AcDbLayerTableRecord
  2
MOJI
 70
     0
 62
     2
  6
CONTINUOUS
  0
ENDTAB
  0
TABLE
  2
STYLE
  5
3
330
0
100
AcDbSymbolTable
 70
     2
  0
STYLE
  5
10
330
3
100
AcDbSymbolTableRecord
100
AcDbTextStyleTableRecord
  2
STANDARD
 70
     0
 40
0.0
 41
1.0
 50
0.0
 71
     0
 42
3.0
  3
TXT
  4
c:\PROGRAM FILES\AUTOCAD LT\ms\bigfont.shx
  0
STYLE
  5
1772
330
3
100
AcDbSymbolTableRecord
100
AcDbTextStyleTableRecord
  2
ｽﾀｲﾙ1
 70
     0
 40
0.0
 41
1.0
 50
0.0
 71
     0
 42
2.5
  3
MS PGothic.ttf
  4

1001
ACAD
1000
MS PGothic
1071
    32818
  0
ENDTAB
  0
TABLE
  2
VIEW
  5
6
330
0
100
AcDbSymbolTable
 70
     0
  0
ENDTAB
  0
TABLE
  2
UCS
  5
7
330
0
100
AcDbSymbolTable
 70
     0
  0
ENDTAB
  0
TABLE
  2
APPID
  5
9
330
0
100
AcDbSymbolTable
 70
     1
  0
APPID
  5
11
330
9
100
AcDbSymbolTableRecord
100
AcDbRegAppTableRecord
  2
ACAD
 70
     0
  0
ENDTAB
  0
TABLE
  2
DIMSTYLE
  5
A
330
0
100
AcDbSymbolTable
 70
     1
  0
DIMSTYLE
105
1D
102
{ACAD_REACTORS
330
1220
330
122D
330
123A
330
1247
330
1256
330
1265
330
13B8
330
1444
330
1451
330
145E
330
146B
330
1478
102
}
330
A
100
AcDbSymbolTableRecord
100
AcDbDimStyleTableRecord
  2
STANDARD
 70
     0
  3

  4

  5

  6

  7

 40
1.0
 41
0.18
 42
0.0625
 43
0.38
 44
0.18
 45
0.0
 46
0.0
 47
0.0
 48
0.0
140
0.18
141
0.09
142
0.0
143
25.4
144
1.0
145
0.0
146
1.0
147
0.09
 71
     0
 72
     0
 73
     1
 74
     1
 75
     0
 76
     0
 77
     0
 78
     0
170
     0
171
     2
172
     0
173
     0
174
     0
175
     0
176
     0
177
     0
178
     0
270
     2
271
     4
272
     4
273
     2
274
     2
340
10
275
     0
280
     0
281
     0
282
     0
283
     1
284
     0
285
     0
286
     0
287
     3
288
     0
  0
ENDTAB
  0
TABLE
  2
BLOCK_RECORD
  5
1
330
0
100
AcDbSymbolTable
 70
    13
  0
BLOCK_RECORD
  5
1A
102
{ACAD_XDICTIONARY
360
7A2
102
}
330
1
100
AcDbSymbolTableRecord
100
AcDbBlockTableRecord
  2
*MODEL_SPACE
  0
BLOCK_RECORD
  5
17
102
{ACAD_XDICTIONARY
360
7A0
102
}
330
1
100
AcDbSymbolTableRecord
100
AcDbBlockTableRecord
  2
*PAPER_SPACE
  0
BLOCK_RECORD
  5
B2
330
1
100
AcDbSymbolTableRecord
100
AcDbBlockTableRecord
  2
_OPEN
  0
BLOCK_RECORD
  5
1221
330
1
100
AcDbSymbolTableRecord
100
AcDbBlockTableRecord
  2
*D1
  0
BLOCK_RECORD
  5
122E
330
1
100
AcDbSymbolTableRecord
100
AcDbBlockTableRecord
  2
*D2
  0
BLOCK_RECORD
  5
123B
330
1
100
AcDbSymbolTableRecord
100
AcDbBlockTableRecord
  2
*D3
  0
BLOCK_RECORD
  5
1248
330
1
100
AcDbSymbolTableRecord
100
AcDbBlockTableRecord
  2
*D4
  0
BLOCK_RECORD
  5
1257
330
1
100
AcDbSymbolTableRecord
100
AcDbBlockTableRecord
  2
*D5
  0
BLOCK_RECORD
  5
1266
330
1
100
AcDbSymbolTableRecord
100
AcDbBlockTableRecord
  2
*D6
  0
BLOCK_RECORD
  5
13B9
330
1
100
AcDbSymbolTableRecord
100
AcDbBlockTableRecord
  2
*D7
  0
BLOCK_RECORD
  5
1445
330
1
100
AcDbSymbolTableRecord
100
AcDbBlockTableRecord
  2
*D8
  0
BLOCK_RECORD
  5
1452
330
1
100
AcDbSymbolTableRecord
100
AcDbBlockTableRecord
  2
*D9
  0
BLOCK_RECORD
  5
145F
330
1
100
AcDbSymbolTableRecord
100
AcDbBlockTableRecord
  2
*D10
  0
BLOCK_RECORD
  5
146C
330
1
100
AcDbSymbolTableRecord
100
AcDbBlockTableRecord
  2
*D11
  0
BLOCK_RECORD
  5
1479
330
1
100
AcDbSymbolTableRecord
100
AcDbBlockTableRecord
  2
*D12
  0
ENDTAB
  0
ENDSEC
  0
SECTION
  2
BLOCKS
  0
BLOCK
  5
1B
330
1A
100
AcDbEntity
  8
0
100
AcDbBlockBegin
  2
*MODEL_SPACE
 70
     0
 10
0.0
 20
0.0
 30
0.0
  3
*MODEL_SPACE
  1

  0
ENDBLK
  5
1C
330
1A
100
AcDbEntity
  8
0
100
AcDbBlockEnd
  0
BLOCK
  5
18
330
17
100
AcDbEntity
 67
     1
  8
0
100
AcDbBlockBegin
  2
*PAPER_SPACE
 70
     0
 10
0.0
 20
0.0
 30
0.0
  3
*PAPER_SPACE
  1

  0
ENDBLK
  5
19
330
17
100
AcDbEntity
 67
     1
  8
0
100
AcDbBlockEnd
  0
BLOCK
  5
B3
330
B2
100
AcDbEntity
  8
0
100
AcDbBlockBegin
  2
_OPEN
 70
     0
 10
0.0
 20
0.0
 30
0.0
  3
_OPEN
  1

  0
LINE
  5
B4
330
B2
100
AcDbEntity
  8
0
  6
BYBLOCK
 62
     0
100
AcDbLine
 10
-1.0
 20
0.1666666666666666
 30
0.0
 11
0.0
 21
0.0
 31
0.0
  0
LINE
  5
B5
330
B2
100
AcDbEntity
  8
0
  6
BYBLOCK
 62
     0
100
AcDbLine
 10
0.0
 20
0.0
 30
0.0
 11
-1.0
 21
-0.1666666666666666
 31
0.0
  0
LINE
  5
B6
330
B2
100
AcDbEntity
  8
0
  6
BYBLOCK
 62
     0
100
AcDbLine
 10
0.0
 20
0.0
 30
0.0
 11
-1.0
 21
0.0
 31
0.0
  0
ENDBLK
  5
B7
330
B2
100
AcDbEntity
  8
0
100
AcDbBlockEnd
  0
BLOCK
  5
122B
330
1221
100
AcDbEntity
  8
0
100
AcDbBlockBegin
  2
*D1
 70
     1
 10
0.0
 20
0.0
 30
0.0
  3
*D1
  1

  0
LINE
  5
1916
330
1221
100
AcDbEntity
  8
SUNPOU
100
AcDbLine
 10
310.9226210984513
 20
128.2067410317385
 30
0.0
 11
303.0484762847374
 21
143.9310441915581
 31
0.0
  0
LINE
  5
1917
330
1221
100
AcDbEntity
  8
SUNPOU
100
AcDbLine
 10
350.2654071755291
 20
147.9081415833054
 30
0.0
 11
342.3912623618152
 21
163.632444743125
 31
0.0
  0
LINE
  5
1918
330
1221
100
AcDbEntity
  8
SUNPOU
100
AcDbLine
 10
306.402577626978
 20
143.9330901583554
 30
0.0
 11
340.3804383299088
 21
160.9479360892541
 31
0.0
  0
INSERT
  5
1919
330
1221
100
AcDbEntity
  8
SUNPOU
100
AcDbBlockReference
  2
_OPEN
 10
303.7201149399044
 20
142.5898128480213
 30
0.0
 41
3.0
 42
3.0
 43
3.0
 50
206.6000009999999
  0
INSERT
  5
191A
330
1221
100
AcDbEntity
  8
SUNPOU
100
AcDbBlockReference
  2
_OPEN
 10
343.0629010169822
 20
162.2912133995883
 30
0.0
 41
3.0
 42
3.0
 43
3.0
 50
26.60000099999999
  0
MTEXT
  5
191B
330
1221
100
AcDbEntity
  8
SUNPOU
100
AcDbMText
 10
322.2721102198316
 20
154.675898696366
 30
0.0
 40
3.0
 41
0.0
 71
     5
 72
     1
  1
\A1;44
 11
0.8941542290244978
 21
0.4477591034447049
 31
0.0
1001
ACAD
1000
MTEXTBEGIN
1070
    73
1070
     1
1070
    44
1040
1.0
1070
    74
1070
     0
1000
MTEXTEND
  0
POINT
  5
191C
330
1221
100
AcDbEntity
  8
DEFPOINTS
 62
     0
100
AcDbPoint
 10
312.2658984087854
 20
125.524278344665
 30
0.0
  0
POINT
  5
191D
330
1221
100
AcDbEntity
  8
DEFPOINTS
 62
     0
100
AcDbPoint
 10
351.6086844858631
 20
145.2256788962319
 30
0.0
  0
POINT
  5
191E
330
1221
100
AcDbEntity
  8
DEFPOINTS
 62
     0
100
AcDbPoint
 10
343.0629010169822
 20
162.2912133995883
 30
0.0
  0
ENDBLK
  5
122C
330
1221
100
AcDbEntity
  8
0
100
AcDbBlockEnd
  0
BLOCK
  5
1238
330
122E
100
AcDbEntity
  8
0
100
AcDbBlockBegin
  2
*D2
 70
     1
 10
0.0
 20
0.0
 30
0.0
  3
*D2
  1

  0
LINE
  5
190D
330
122E
100
AcDbEntity
  8
SUNPOU
100
AcDbLine
 10
306.4756018863659
 20
123.6871702415698
 30
0.0
 11
294.2945007983439
 21
148.0122659643302
 31
0.0
  0
LINE
  5
190E
330
122E
100
AcDbEntity
  8
SUNPOU
100
AcDbLine
 10
356.5482387117378
 20
148.7616800344734
 30
0.0
 11
344.3671376237158
 21
173.0867757572337
 31
0.0
  0
LINE
  5
190F
330
122E
100
AcDbEntity
  8
SUNPOU
100
AcDbLine
 10
297.6486021405845
 20
148.0143119311275
 30
0.0
 11
342.3563135918094
 21
170.4022671033628
 31
0.0
  0
INSERT
  5
1910
330
122E
100
AcDbEntity
  8
SUNPOU
100
AcDbBlockReference
  2
_OPEN
 10
294.966139453511
 20
146.6710346207934
 30
0.0
 41
3.0
 42
3.0
 43
3.0
 50
206.600001
  0
INSERT
  5
1911
330
122E
100
AcDbEntity
  8
SUNPOU
100
AcDbBlockReference
  2
_OPEN
 10
345.0387762788829
 20
171.745544413697
 30
0.0
 41
3.0
 42
3.0
 43
3.0
 50
26.60000100000005
  0
MTEXT
  5
1912
330
122E
100
AcDbEntity
  8
SUNPOU
100
AcDbMText
 10
318.8830601075851
 20
161.4436750898065
 30
0.0
 40
3.0
 41
0.0
 71
     5
 72
     1
  1
\A1;56
 11
0.8941542290244973
 21
0.4477591034447059
 31
0.0
1001
ACAD
1000
MTEXTBEGIN
1070
    73
1070
     1
1070
    44
1040
1.0
1070
    74
1070
     0
1000
MTEXTEND
  0
POINT
  5
1913
330
122E
100
AcDbEntity
  8
DEFPOINTS
 62
     0
100
AcDbPoint
 10
307.8188791967001
 20
121.0047075544964
 30
0.0
  0
POINT
  5
1914
330
122E
100
AcDbEntity
  8
DEFPOINTS
 62
     0
100
AcDbPoint
 10
357.891516022072
 20
146.0792173473999
 30
0.0
  0
POINT
  5
1915
330
122E
100
AcDbEntity
  8
DEFPOINTS
 62
     0
100
AcDbPoint
 10
345.0387762788829
 20
171.745544413697
 30
0.0
  0
ENDBLK
  5
1239
330
122E
100
AcDbEntity
  8
0
100
AcDbBlockEnd
  0
BLOCK
  5
1245
330
123B
100
AcDbEntity
  8
0
100
AcDbBlockBegin
  2
*D3
 70
     1
 10
0.0
 20
0.0
 30
0.0
  3
*D3
  1

  0
LINE
  5
1904
330
123B
100
AcDbEntity
  8
SUNPOU
100
AcDbLine
 10
353.8657760246643
 20
147.4184027241393
 30
0.0
 11
368.4524935743547
 21
154.722887073977
 31
0.0
  0
LINE
  5
1905
330
123B
100
AcDbEntity
  8
SUNPOU
100
AcDbLine
 10
361.7015603349466
 20
131.7707037162106
 30
0.0
 11
376.2882778846371
 21
139.0751880660483
 31
0.0
  0
LINE
  5
1906
330
123B
100
AcDbEntity
  8
SUNPOU
100
AcDbLine
 10
368.4545395411521
 20
151.3687857317364
 30
0.0
 11
373.6037692307662
 21
141.0860120979548
 31
0.0
  0
INSERT
  5
1907
330
123B
100
AcDbEntity
  8
SUNPOU
100
AcDbBlockReference
  2
_OPEN
 10
367.111262230818
 20
154.0512484188099
 30
0.0
 41
3.0
 42
3.0
 43
3.0
 50
116.6000010000003
  0
INSERT
  5
1908
330
123B
100
AcDbEntity
  8
SUNPOU
100
AcDbBlockReference
  2
_OPEN
 10
374.9470465411004
 20
138.4035494108813
 30
0.0
 41
3.0
 42
3.0
 43
3.0
 50
296.6000010000003
  0
MTEXT
  5
1909
330
123B
100
AcDbEntity
  8
SUNPOU
100
AcDbMText
 10
373.2645399585204
 20
147.3467966734574
 30
0.0
 40
3.0
 41
0.0
 71
     5
 72
     1
  1
\A1;18
 11
0.4477591034447105
 21
-0.8941542290244953
 31
0.0
1001
ACAD
1000
MTEXTBEGIN
1070
    73
1070
     1
1070
    44
1040
1.0
1070
    74
1070
     0
1000
MTEXTEND
  0
POINT
  5
190A
330
123B
100
AcDbEntity
  8
DEFPOINTS
 62
     0
100
AcDbPoint
 10
351.1833133375907
 20
146.0751254138051
 30
0.0
  0
POINT
  5
190B
330
123B
100
AcDbEntity
  8
DEFPOINTS
 62
     0
100
AcDbPoint
 10
359.0190976478731
 20
130.4274264058765
 30
0.0
  0
POINT
  5
190C
330
123B
100
AcDbEntity
  8
DEFPOINTS
 62
     0
100
AcDbPoint
 10
374.9470465411004
 20
138.4035494108813
 30
0.0
  0
ENDBLK
  5
1246
330
123B
100
AcDbEntity
  8
0
100
AcDbBlockEnd
  0
BLOCK
  5
1254
330
1248
100
AcDbEntity
  8
0
100
AcDbBlockBegin
  2
*D4
 70
     1
 10
0.0
 20
0.0
 30
0.0
  3
*D4
  1

  0
LINE
  5
193C
330
1248
100
AcDbEntity
  8
SUNPOU
100
AcDbLine
 10
309.1580645734395
 20
125.030447551904
 30
0.0
 11
296.4831618043177
 21
118.6833287709051
 31
0.0
  0
LINE
  5
193D
330
1248
100
AcDbEntity
  8
SUNPOU
100
AcDbLine
 10
312.2923782975524
 20
118.7713679487325
 30
0.0
 11
299.6174755284306
 21
112.4242491677337
 31
0.0
  0
LINE
  5
193E
330
1248
100
AcDbEntity
  8
SUNPOU
100
AcDbLine
 10
296.4811158375202
 20
122.0374301131457
 30
0.0
 11
295.1378385271861
 21
124.7198928002191
 31
0.0
  0
LINE
  5
193F
330
1248
100
AcDbEntity
  8
SUNPOU
100
AcDbLine
 10
302.3019841823015
 20
110.4134251358273
 30
0.0
 11
303.6452614926357
 21
107.7309624487538
 31
0.0
  0
LINE
  5
1940
330
1248
100
AcDbEntity
  8
SUNPOU
100
AcDbLine
 10
297.8243931478544
 20
119.3549674260722
 30
0.0
 11
300.9587068719674
 21
113.0958878229008
 31
0.0
  0
INSERT
  5
1941
330
1248
100
AcDbEntity
  8
SUNPOU
100
AcDbBlockReference
  2
_OPEN
 10
297.8243931478544
 20
119.3549674260722
 30
0.0
 41
3.0
 42
3.0
 43
3.0
 50
296.6000010000005
  0
INSERT
  5
1942
330
1248
100
AcDbEntity
  8
SUNPOU
100
AcDbBlockReference
  2
_OPEN
 10
300.9587068719674
 20
113.0958878229008
 30
0.0
 41
3.0
 42
3.0
 43
3.0
 50
116.6000010000006
  0
MTEXT
  5
1943
330
1248
100
AcDbEntity
  8
SUNPOU
100
AcDbMText
 10
301.6269355824721
 20
117.3448253830982
 30
0.0
 40
3.0
 41
0.0
 71
     5
 72
     1
  1
\A1;7
 11
0.4477591034447147
 21
-0.8941542290244928
 31
0.0
1001
ACAD
1000
MTEXTBEGIN
1070
    73
1070
     1
1070
    44
1040
1.0
1070
    74
1070
     0
1000
MTEXTEND
  0
POINT
  5
1944
330
1248
100
AcDbEntity
  8
DEFPOINTS
 62
     0
100
AcDbPoint
 10
311.840527260513
 20
126.3737248622381
 30
0.0
  0
POINT
  5
1945
330
1248
100
AcDbEntity
  8
DEFPOINTS
 62
     0
100
AcDbPoint
 10
314.9748409846259
 20
120.1146452590667
 30
0.0
  0
POINT
  5
1946
330
1248
100
AcDbEntity
  8
DEFPOINTS
 62
     0
100
AcDbPoint
 10
300.9587068719674
 20
113.0958878229008
 30
0.0
  0
ENDBLK
  5
1255
330
1248
100
AcDbEntity
  8
0
100
AcDbBlockEnd
  0
BLOCK
  5
1263
330
1257
100
AcDbEntity
  8
0
100
AcDbBlockBegin
  2
*D5
 70
     1
 10
0.0
 20
0.0
 30
0.0
  3
*D5
  1

  0
LINE
  5
1931
330
1257
100
AcDbEntity
  8
SUNPOU
100
AcDbLine
 10
321.6953194698914
 20
99.99412913921819
 30
0.0
 11
309.0204167007699
 21
93.64701035821955
 31
0.0
  0
LINE
  5
1932
330
1257
100
AcDbEntity
  8
SUNPOU
100
AcDbLine
 10
324.8296331940044
 20
93.73504953604674
 30
0.0
 11
312.1547304248829
 21
87.3879307550481
 31
0.0
  0
LINE
  5
1933
330
1257
100
AcDbEntity
  8
SUNPOU
100
AcDbLine
 10
309.0183707339726
 20
97.00111170046007
 30
0.0
 11
307.6750934236384
 21
99.68357438753356
 31
0.0
  0
LINE
  5
1934
330
1257
100
AcDbEntity
  8
SUNPOU
100
AcDbLine
 10
314.8392390787538
 20
85.37710672314165
 30
0.0
 11
316.1825163890879
 21
82.69464403606818
 31
0.0
  0
LINE
  5
1935
330
1257
100
AcDbEntity
  8
SUNPOU
100
AcDbLine
 10
310.3616480443067
 20
94.31864901338659
 30
0.0
 11
313.4959617684196
 21
88.05956941021515
 31
0.0
  0
INSERT
  5
1936
330
1257
100
AcDbEntity
  8
SUNPOU
100
AcDbBlockReference
  2
_OPEN
 10
310.3616480443067
 20
94.31864901338659
 30
0.0
 41
3.0
 42
3.0
 43
3.0
 50
296.6000010000005
  0
INSERT
  5
1937
330
1257
100
AcDbEntity
  8
SUNPOU
100
AcDbBlockReference
  2
_OPEN
 10
313.4959617684196
 20
88.05956941021515
 30
0.0
 41
3.0
 42
3.0
 43
3.0
 50
116.6000010000005
  0
MTEXT
  5
1938
330
1257
100
AcDbEntity
  8
SUNPOU
100
AcDbMText
 10
314.1641904789243
 20
92.30850697041269
 30
0.0
 40
3.0
 41
0.0
 71
     5
 72
     1
  1
\A1;7
 11
0.4477591034447132
 21
-0.8941542290244937
 31
0.0
1001
ACAD
1000
MTEXTBEGIN
1070
    73
1070
     1
1070
    44
1040
1.0
1070
    74
1070
     0
1000
MTEXTEND
  0
POINT
  5
1939
330
1257
100
AcDbEntity
  8
DEFPOINTS
 62
     0
100
AcDbPoint
 10
324.3777821569648
 20
101.3374064495523
 30
0.0
  0
POINT
  5
193A
330
1257
100
AcDbEntity
  8
DEFPOINTS
 62
     0
100
AcDbPoint
 10
327.5120958810778
 20
95.07832684638088
 30
0.0
  0
POINT
  5
193B
330
1257
100
AcDbEntity
  8
DEFPOINTS
 62
     0
100
AcDbPoint
 10
313.4959617684196
 20
88.05956941021515
 30
0.0
  0
ENDBLK
  5
1264
330
1257
100
AcDbEntity
  8
0
100
AcDbBlockEnd
  0
BLOCK
  5
1270
330
1266
100
AcDbEntity
  8
0
100
AcDbBlockBegin
  2
*D6
 70
     1
 10
0.0
 20
0.0
 30
0.0
  3
*D6
  1

  0
LINE
  5
1928
330
1266
100
AcDbEntity
  8
SUNPOU
100
AcDbLine
 10
306.475601886366
 20
123.6871702415699
 30
0.0
 11
288.709376317117
 21
114.7905068089515
 31
0.0
  0
LINE
  5
1929
330
1266
100
AcDbEntity
  8
SUNPOU
100
AcDbLine
 10
322.1471705069306
 20
92.3917722257125
 30
0.0
 11
304.3809449376817
 21
83.49510879309418
 31
0.0
  0
LINE
  5
192A
330
1266
100
AcDbEntity
  8
SUNPOU
100
AcDbLine
 10
291.3938849709878
 20
112.7796827770451
 30
0.0
 11
304.3788989708843
 21
86.84921013533474
 31
0.0
  0
INSERT
  5
192B
330
1266
100
AcDbEntity
  8
SUNPOU
100
AcDbBlockReference
  2
_OPEN
 10
290.0506076606538
 20
115.4621454641186
 30
0.0
 41
3.0
 42
3.0
 43
3.0
 50
116.6000009999999
  0
INSERT
  5
192C
330
1266
100
AcDbEntity
  8
SUNPOU
100
AcDbBlockReference
  2
_OPEN
 10
305.7221762812184
 20
84.16674744826122
 30
0.0
 41
3.0
 42
3.0
 43
3.0
 50
296.6000009999999
  0
MTEXT
  5
192D
330
1266
100
AcDbEntity
  8
SUNPOU
100
AcDbMText
 10
300.1217775434974
 20
100.9338442148017
 30
0.0
 40
3.0
 41
0.0
 71
     5
 72
     1
  1
\A1;35
 11
0.4477591034447044
 21
-0.894154229024498
 31
0.0
1001
ACAD
1000
MTEXTBEGIN
1070
    73
1070
     1
1070
    44
1040
1.0
1070
    74
1070
     0
1000
MTEXTEND
  0
POINT
  5
192E
330
1266
100
AcDbEntity
  8
DEFPOINTS
 62
     0
100
AcDbPoint
 10
309.1580645734395
 20
125.030447551904
 30
0.0
  0
POINT
  5
192F
330
1266
100
AcDbEntity
  8
DEFPOINTS
 62
     0
100
AcDbPoint
 10
324.8296331940041
 20
93.73504953604662
 30
0.0
  0
POINT
  5
1930
330
1266
100
AcDbEntity
  8
DEFPOINTS
 62
     0
100
AcDbPoint
 10
305.7221762812184
 20
84.16674744826122
 30
0.0
  0
ENDBLK
  5
1271
330
1266
100
AcDbEntity
  8
0
100
AcDbBlockEnd
  0
BLOCK
  5
13C3
330
13B9
100
AcDbEntity
  8
0
100
AcDbBlockBegin
  2
*D7
 70
     1
 10
0.0
 20
0.0
 30
0.0
  3
*D7
  1

  0
LINE
  5
191F
330
13B9
100
AcDbEntity
  8
SUNPOU
100
AcDbLine
 10
260.4212510109356
 20
100.6248722655522
 30
0.0
 11
272.5846010725727
 21
106.7158243999219
 31
0.0
  0
LINE
  5
1920
330
13B9
100
AcDbEntity
  8
SUNPOU
100
AcDbLine
 10
276.0928192908477
 20
69.32947430505819
 30
0.0
 11
288.2561693524848
 21
75.42042643942787
 31
0.0
  0
LINE
  5
1921
330
13B9
100
AcDbEntity
  8
SUNPOU
100
AcDbLine
 10
272.5866470125557
 20
103.361723057665
 30
0.0
 11
285.5716607146894
 21
77.43125049279552
 31
0.0
  0
INSERT
  5
1922
330
13B9
100
AcDbEntity
  8
SUNPOU
100
AcDbBlockReference
  2
_OPEN
 10
271.2433697236665
 20
106.0441857554772
 30
0.0
 41
3.0
 42
3.0
 43
3.0
 50
116.6000005419506
  0
INSERT
  5
1923
330
13B9
100
AcDbEntity
  8
SUNPOU
100
AcDbBlockReference
  2
_OPEN
 10
286.9149380035787
 20
74.74878779498323
 30
0.0
 41
3.0
 42
3.0
 43
3.0
 50
296.6000005419506
  0
MTEXT
  5
1924
330
13B9
100
AcDbEntity
  8
SUNPOU
100
AcDbMText
 10
281.3145394451328
 20
91.51588451597127
 30
0.0
 40
3.0
 41
0.0
 71
     5
 72
     1
  1
\A1;35
 11
0.4477590962964161
 21
-0.8941542326040943
 31
0.0
1001
ACAD
1000
MTEXTBEGIN
1070
    73
1070
     1
1070
    44
1040
1.0
1070
    74
1070
     0
1000
MTEXTEND
  0
POINT
  5
1925
330
13B9
100
AcDbEntity
  8
DEFPOINTS
 62
     0
100
AcDbPoint
 10
257.7387883131233
 20
99.281594976663
 30
0.0
  0
POINT
  5
1926
330
13B9
100
AcDbEntity
  8
DEFPOINTS
 62
     0
100
AcDbPoint
 10
273.4103565930354
 20
67.98619701616897
 30
0.0
  0
POINT
  5
1927
330
13B9
100
AcDbEntity
  8
DEFPOINTS
 62
     0
100
AcDbPoint
 10
286.9149380035787
 20
74.74878779498323
 30
0.0
  0
ENDBLK
  5
13C4
330
13B9
100
AcDbEntity
  8
0
100
AcDbBlockEnd
  0
BLOCK
  5
144F
330
1445
100
AcDbEntity
  8
0
100
AcDbBlockBegin
  2
*D8
 70
     1
 10
0.0
 20
0.0
 30
0.0
  3
*D8
  1

  0
LINE
  5
18F2
330
1445
100
AcDbEntity
  8
SUNPOU
100
AcDbLine
 10
120.2999927333159
 20
233.3204640306056
 30
0.0
 11
98.18790479592962
 21
233.3204640306056
 31
0.0
  0
LINE
  5
18F3
330
1445
100
AcDbEntity
  8
SUNPOU
100
AcDbLine
 10
120.2999927333159
 20
211.3204640306057
 30
0.0
 11
98.18790479592962
 21
211.3204640306057
 31
0.0
  0
LINE
  5
18F4
330
1445
100
AcDbEntity
  8
SUNPOU
100
AcDbLine
 10
99.68790479592962
 20
230.3204640306057
 30
0.0
 11
99.68790479592961
 21
214.3204640306056
 31
0.0
  0
INSERT
  5
18F5
330
1445
100
AcDbEntity
  8
SUNPOU
100
AcDbBlockReference
  2
_OPEN
 10
99.68790479592962
 20
233.3204640306056
 30
0.0
 41
3.0
 42
3.0
 43
3.0
 50
90.0
  0
INSERT
  5
18F6
330
1445
100
AcDbEntity
  8
SUNPOU
100
AcDbBlockReference
  2
_OPEN
 10
99.68790479592961
 20
211.3204640306057
 30
0.0
 41
3.0
 42
3.0
 43
3.0
 50
270.0
  0
MTEXT
  5
18F7
330
1445
100
AcDbEntity
  8
SUNPOU
100
AcDbMText
 10
97.18790479592959
 20
222.3204640306057
 30
0.0
 40
3.0
 41
0.0
 71
     5
 72
     1
  1
\A1;22
 11
0.0000000000000001
 21
1.0
 31
0.0
1001
ACAD
1000
MTEXTBEGIN
1070
    73
1070
     1
1070
    44
1040
1.0
1070
    74
1070
     0
1000
MTEXTEND
  0
POINT
  5
18F8
330
1445
100
AcDbEntity
  8
DEFPOINTS
 62
     0
100
AcDbPoint
 10
123.2999927333159
 20
233.3204640306056
 30
0.0
  0
POINT
  5
18F9
330
1445
100
AcDbEntity
  8
DEFPOINTS
 62
     0
100
AcDbPoint
 10
123.2999927333159
 20
211.3204640306057
 30
0.0
  0
POINT
  5
18FA
330
1445
100
AcDbEntity
  8
DEFPOINTS
 62
     0
100
AcDbPoint
 10
99.68790479592961
 20
211.3204640306057
 30
0.0
  0
ENDBLK
  5
1450
330
1445
100
AcDbEntity
  8
0
100
AcDbBlockEnd
  0
BLOCK
  5
145C
330
1452
100
AcDbEntity
  8
0
100
AcDbBlockBegin
  2
*D9
 70
     1
 10
0.0
 20
0.0
 30
0.0
  3
*D9
  1

  0
LINE
  5
1947
330
1452
100
AcDbEntity
  8
SUNPOU
100
AcDbLine
 10
274.3954407863803
 20
250.3204640306057
 30
0.0
 11
294.0227640529283
 21
250.3204640306057
 31
0.0
  0
LINE
  5
1948
330
1452
100
AcDbEntity
  8
SUNPOU
100
AcDbLine
 10
274.3954407863803
 20
194.3204640306056
 30
0.0
 11
294.0227640529283
 21
194.3204640306056
 31
0.0
  0
LINE
  5
1949
330
1452
100
AcDbEntity
  8
SUNPOU
100
AcDbLine
 10
292.5227640529283
 20
247.3204640306057
 30
0.0
 11
292.5227640529283
 21
197.3204640306057
 31
0.0
  0
INSERT
  5
194A
330
1452
100
AcDbEntity
  8
SUNPOU
100
AcDbBlockReference
  2
_OPEN
 10
292.5227640529283
 20
250.3204640306057
 30
0.0
 41
3.0
 42
3.0
 43
3.0
 50
90.0
  0
INSERT
  5
194B
330
1452
100
AcDbEntity
  8
SUNPOU
100
AcDbBlockReference
  2
_OPEN
 10
292.5227640529283
 20
194.3204640306056
 30
0.0
 41
3.0
 42
3.0
 43
3.0
 50
270.0
  0
MTEXT
  5
194C
330
1452
100
AcDbEntity
  8
SUNPOU
100
AcDbMText
 10
290.0227640529282
 20
222.3204640306057
 30
0.0
 40
3.0
 41
0.0
 71
     5
 72
     1
  1
\A1;56
 11
0.0000000000000001
 21
1.0
 31
0.0
1001
ACAD
1000
MTEXTBEGIN
1070
    73
1070
     1
1070
    44
1040
1.0
1070
    74
1070
     0
1000
MTEXTEND
  0
POINT
  5
194D
330
1452
100
AcDbEntity
  8
DEFPOINTS
 62
     0
100
AcDbPoint
 10
271.3954407863803
 20
250.3204640306057
 30
0.0
  0
POINT
  5
194E
330
1452
100
AcDbEntity
  8
DEFPOINTS
 62
     0
100
AcDbPoint
 10
271.3954407863803
 20
194.3204640306056
 30
0.0
  0
POINT
  5
194F
330
1452
100
AcDbEntity
  8
DEFPOINTS
 62
     0
100
AcDbPoint
 10
292.5227640529283
 20
194.3204640306056
 30
0.0
  0
ENDBLK
  5
145D
330
1452
100
AcDbEntity
  8
0
100
AcDbBlockEnd
  0
BLOCK
  5
1469
330
145F
100
AcDbEntity
  8
0
100
AcDbBlockBegin
  2
*D10
 70
     1
 10
0.0
 20
0.0
 30
0.0
  3
*D10
  1

  0
LINE
  5
18FB
330
145F
100
AcDbEntity
  8
SUNPOU
100
AcDbLine
 10
257.7387883131233
 20
102.2815949766629
 30
0.0
 11
257.7387883131233
 21
145.4086014875096
 31
0.0
  0
LINE
  5
18FC
330
145F
100
AcDbEntity
  8
SUNPOU
100
AcDbLine
 10
244.4353725940327
 20
126.0898663235855
 30
0.0
 11
244.4353725940327
 21
145.4086014875096
 31
0.0
  0
LINE
  5
18FD
330
145F
100
AcDbEntity
  8
SUNPOU
100
AcDbLine
 10
254.7387883131233
 20
143.9086014875096
 30
0.0
 11
247.4353725940327
 21
143.9086014875096
 31
0.0
  0
INSERT
  5
18FE
330
145F
100
AcDbEntity
  8
SUNPOU
100
AcDbBlockReference
  2
_OPEN
 10
257.7387883131233
 20
143.9086014875096
 30
0.0
 41
3.0
 42
3.0
 43
3.0
  0
INSERT
  5
18FF
330
145F
100
AcDbEntity
  8
SUNPOU
100
AcDbBlockReference
  2
_OPEN
 10
244.4353725940327
 20
143.9086014875096
 30
0.0
 41
3.0
 42
3.0
 43
3.0
 50
180.0
  0
MTEXT
  5
1900
330
145F
100
AcDbEntity
  8
SUNPOU
100
AcDbMText
 10
251.087080453578
 20
146.4086014875095
 30
0.0
 40
3.0
 41
0.0
 71
     5
 72
     1
  1
\A1;13
1001
ACAD
1000
MTEXTBEGIN
1070
    73
1070
     1
1070
    44
1040
1.0
1070
    74
1070
     0
1000
MTEXTEND
  0
POINT
  5
1901
330
145F
100
AcDbEntity
  8
DEFPOINTS
 62
     0
100
AcDbPoint
 10
257.7387883131233
 20
99.28159497666294
 30
0.0
  0
POINT
  5
1902
330
145F
100
AcDbEntity
  8
DEFPOINTS
 62
     0
100
AcDbPoint
 10
244.4353725940327
 20
123.0898663235855
 30
0.0
  0
POINT
  5
1903
330
145F
100
AcDbEntity
  8
DEFPOINTS
 62
     0
100
AcDbPoint
 10
244.4353725940327
 20
143.9086014875096
 30
0.0
  0
ENDBLK
  5
146A
330
145F
100
AcDbEntity
  8
0
100
AcDbBlockEnd
  0
BLOCK
  5
1476
330
146C
100
AcDbEntity
  8
0
100
AcDbBlockBegin
  2
*D11
 70
     1
 10
0.0
 20
0.0
 30
0.0
  3
*D11
  1

  0
LINE
  5
18E9
330
146C
100
AcDbEntity
  8
SUNPOU
100
AcDbLine
 10
257.7387883131233
 20
102.281594976663
 30
0.0
 11
257.7387883131233
 21
174.3301211960718
 31
0.0
  0
LINE
  5
18EA
330
146C
100
AcDbEntity
  8
SUNPOU
100
AcDbLine
 10
123.2999927333159
 20
158.9523663360348
 30
0.0
 11
123.2999927333159
 21
174.3301211960718
 31
0.0
  0
LINE
  5
18EB
330
146C
100
AcDbEntity
  8
SUNPOU
100
AcDbLine
 10
254.7387883131233
 20
172.8301211960719
 30
0.0
 11
126.299992733316
 21
172.8301211960719
 31
0.0
  0
INSERT
  5
18EC
330
146C
100
AcDbEntity
  8
SUNPOU
100
AcDbBlockReference
  2
_OPEN
 10
257.7387883131233
 20
172.8301211960719
 30
0.0
 41
3.0
 42
3.0
 43
3.0
  0
INSERT
  5
18ED
330
146C
100
AcDbEntity
  8
SUNPOU
100
AcDbBlockReference
  2
_OPEN
 10
123.2999927333159
 20
172.8301211960719
 30
0.0
 41
3.0
 42
3.0
 43
3.0
 50
180.0
  0
MTEXT
  5
18EE
330
146C
100
AcDbEntity
  8
SUNPOU
100
AcDbMText
 10
190.5193905232196
 20
175.3301211960718
 30
0.0
 40
3.0
 41
0.0
 71
     5
 72
     1
  1
\A1;134
1001
ACAD
1000
MTEXTBEGIN
1070
    73
1070
     1
1070
    44
1040
1.0
1070
    74
1070
     0
1000
MTEXTEND
  0
POINT
  5
18EF
330
146C
100
AcDbEntity
  8
DEFPOINTS
 62
     0
100
AcDbPoint
 10
257.7387883131233
 20
99.281594976663
 30
0.0
  0
POINT
  5
18F0
330
146C
100
AcDbEntity
  8
DEFPOINTS
 62
     0
100
AcDbPoint
 10
123.2999927333159
 20
155.9523663360348
 30
0.0
  0
POINT
  5
18F1
330
146C
100
AcDbEntity
  8
DEFPOINTS
 62
     0
100
AcDbPoint
 10
123.2999927333159
 20
172.8301211960719
 30
0.0
  0
ENDBLK
  5
1477
330
146C
100
AcDbEntity
  8
0
100
AcDbBlockEnd
  0
BLOCK
  5
1483
330
1479
100
AcDbEntity
  8
0
100
AcDbBlockBegin
  2
*D12
 70
     1
 10
0.0
 20
0.0
 30
0.0
  3
*D12
  1

  0
LINE
  5
18E0
330
1479
100
AcDbEntity
  8
SUNPOU
100
AcDbLine
 10
122.4999927333159
 20
107.9523663360348
 30
0.0
 11
98.1879047959296
 21
107.9523663360348
 31
0.0
  0
LINE
  5
18E1
330
1479
100
AcDbEntity
  8
SUNPOU
100
AcDbLine
 10
270.4103566834979
 20
67.98619683551968
 30
0.0
 11
98.18790479592959
 21
67.98619683551972
 31
0.0
  0
LINE
  5
18E2
330
1479
100
AcDbEntity
  8
SUNPOU
100
AcDbLine
 10
99.68790479592961
 20
104.9523663360348
 30
0.0
 11
99.68790479592959
 21
70.98619683551972
 31
0.0
  0
INSERT
  5
18E3
330
1479
100
AcDbEntity
  8
SUNPOU
100
AcDbBlockReference
  2
_OPEN
 10
99.68790479592961
 20
107.9523663360348
 30
0.0
 41
3.0
 42
3.0
 43
3.0
 50
90.0
  0
INSERT
  5
18E4
330
1479
100
AcDbEntity
  8
SUNPOU
100
AcDbBlockReference
  2
_OPEN
 10
99.68790479592959
 20
67.98619683551972
 30
0.0
 41
3.0
 42
3.0
 43
3.0
 50
270.0
  0
MTEXT
  5
18E5
330
1479
100
AcDbEntity
  8
SUNPOU
100
AcDbMText
 10
97.18790479592957
 20
87.96928158577733
 30
0.0
 40
3.0
 41
0.0
 71
     5
 72
     1
  1
\A1;40
 11
0.0000000000000001
 21
1.0
 31
0.0
1001
ACAD
1000
MTEXTBEGIN
1070
    73
1070
     1
1070
    44
1040
1.0
1070
    74
1070
     0
1000
MTEXTEND
  0
POINT
  5
18E6
330
1479
100
AcDbEntity
  8
DEFPOINTS
 62
     0
100
AcDbPoint
 10
125.4999927333159
 20
107.9523663360348
 30
0.0
  0
POINT
  5
18E7
330
1479
100
AcDbEntity
  8
DEFPOINTS
 62
     0
100
AcDbPoint
 10
273.4103566834979
 20
67.98619683551968
 30
0.0
  0
POINT
  5
18E8
330
1479
100
AcDbEntity
  8
DEFPOINTS
 62
     0
100
AcDbPoint
 10
99.68790479592959
 20
67.98619683551972
 30
0.0
  0
ENDBLK
  5
1484
330
1479
100
AcDbEntity
  8
0
100
AcDbBlockEnd
  0
ENDSEC
  0
SECTION
  2
ENTITIES
  0
ARC
  5
5A7
330
1A
100
AcDbEntity
  8
NOKOTOI
  6
PHANTOM
 62
     8
100
AcDbCircle
 10
176.3134563679643
 20
113.1523808124049
 30
0.0
 40
43.00001447645168
100
AcDbArc
 50
186.5249107071177
 51
269.9998883751437
  0
ARC
  5
5A8
330
1A
100
AcDbEntity
  8
NOKOTOI
  6
PHANTOM
 62
     8
100
AcDbCircle
 10
176.3134786763896
 20
113.1523607113785
 30
0.0
 40
41.79999437547816
100
AcDbArc
 50
184.4742952125247
 51
269.999854592109
  0
LINE
  5
5A9
330
1A
100
AcDbEntity
  8
NOKOTOI
  6
PHANTOM
 62
     8
100
AcDbLine
 10
126.1024725944214
 20
112.2899663360348
 30
0.0
 11
126.0169725944217
 21
115.0274663360348
 31
0.0
  0
LINE
  5
5AA
330
1A
100
AcDbEntity
  8
NOKOTOI
  6
PHANTOM
 62
     8
100
AcDbLine
 10
124.5643725944216
 20
123.0898663360348
 30
0.0
 11
124.9545725944215
 21
110.6055663360347
 31
0.0
  0
LINE
  5
5AB
330
1A
100
AcDbEntity
  8
NOKOTOI
  6
PHANTOM
 62
     8
100
AcDbLine
 10
134.142372594422
 20
110.3523663360349
 30
0.0
 11
128.1014725944216
 21
110.3523663360349
 31
0.0
  0
ARC
  5
5AC
330
1A
100
AcDbEntity
  8
NOKOTOI
  6
PHANTOM
 62
     8
100
AcDbCircle
 10
132.5984641702591
 20
108.1523738510913
 30
0.0
 40
0.9999924849789756
100
AcDbArc
 50
6.528264606673934
 51
89.99951732740965
  0
LINE
  5
5AD
330
1A
100
AcDbEntity
  8
NOKOTOI
  6
PHANTOM
 62
     8
100
AcDbLine
 10
126.4537725944216
 20
109.1523663360348
 30
0.0
 11
132.5984725944215
 21
109.1523663360348
 31
0.0
  0
ARC
  5
5AE
330
1A
100
AcDbEntity
  8
NOKOTOI
  6
PHANTOM
 62
     8
100
AcDbCircle
 10
128.10148616656
 20
112.3523531809484
 30
0.0
 40
1.999986844959662
100
AcDbArc
 50
181.7875531852356
 51
269.9996111843215
  0
ARC
  5
5AF
330
1A
100
AcDbEntity
  8
NOKOTOI
  6
PHANTOM
 62
     8
100
AcDbCircle
 10
126.4538085535725
 20
110.6523314818916
 30
0.0
 40
1.499965146287778
100
AcDbArc
 50
181.7866280217767
 51
269.9986264296971
  0
ARC
  5
5B0
330
1A
100
AcDbEntity
  8
NOKOTOI
  6
PHANTOM
 62
     8
100
AcDbCircle
 10
134.1423851641299
 20
109.8523547113051
 30
0.0
 40
0.5000116248877111
100
AcDbArc
 50
4.474846808342103
 51
90.00144034898383
  0
ARC
  5
5B1
330
1A
100
AcDbEntity
  8
NOKOTOI
  6
PHANTOM
 62
     8
100
AcDbCircle
 10
126.5633853452716
 20
123.1523794911213
 30
0.0
 40
1.999986844954076
100
AcDbArc
 50
90.00036528735451
 51
181.7883072882703
  0
LINE
  5
5B2
330
1A
100
AcDbEntity
  8
NOKOTOI
  6
PHANTOM
 62
     8
100
AcDbLine
 10
132.8412725944214
 20
122.6523663360348
 30
0.0
 11
130.6097725944216
 21
122.6523663360348
 31
0.0
  0
ARC
  5
5B3
330
1A
100
AcDbEntity
  8
NOKOTOI
  6
PHANTOM
 62
     8
100
AcDbCircle
 10
132.5254657074267
 20
116.1523598009493
 30
0.0
 40
0.499993464961963
100
AcDbArc
 50
270.0007892017869
 51
356.997036131742
  0
LINE
  5
5B4
330
1A
100
AcDbEntity
  8
NOKOTOI
  6
PHANTOM
 62
     8
100
AcDbLine
 10
131.8613725944216
 20
116.8523663360349
 30
0.0
 11
132.0425725944216
 21
120.293866336035
 31
0.0
  0
LINE
  5
5B5
330
1A
100
AcDbEntity
  8
NOKOTOI
  6
PHANTOM
 62
     8
100
AcDbLine
 10
131.4875725944218
 20
119.6807663360347
 30
0.0
 11
132.0425725944216
 21
120.293866336035
 31
0.0
  0
ARC
  5
5B6
330
1A
100
AcDbEntity
  8
NOKOTOI
  6
PHANTOM
 62
     8
100
AcDbCircle
 10
130.0150928070908
 20
115.1524250644149
 30
0.0
 40
5.2000412730095
100
AcDbArc
 50
90.0013245430618
 51
142.0757990790548
  0
LINE
  5
5B7
330
1A
100
AcDbEntity
  8
NOKOTOI
  6
PHANTOM
 62
     8
100
AcDbLine
 10
125.763772594422
 20
123.1273663360347
 30
0.0
 11
125.9131725944214
 21
118.3484663360349
 31
0.0
  0
ARC
  5
5B8
330
1A
100
AcDbEntity
  8
NOKOTOI
  6
PHANTOM
 62
     8
100
AcDbCircle
 10
130.0150104758683
 20
115.1524101185602
 30
0.0
 40
3.999989731271038
100
AcDbArc
 50
96.47731142013116
 51
181.7899836067311
  0
ARC
  5
5B9
330
1A
100
AcDbEntity
  8
NOKOTOI
  6
PHANTOM
 62
     8
100
AcDbCircle
 10
129.620186812837
 20
118.6300517017338
 30
0.0
 40
0.5000073448410256
100
AcDbArc
 50
351.872947864124
 51
96.47829282996921
  0
LINE
  5
5BA
330
1A
100
AcDbEntity
  8
NOKOTOI
  6
PHANTOM
 62
     8
100
AcDbLine
 10
131.0834725944221
 20
116.8523663360349
 30
0.0
 11
131.4875725944218
 21
119.6807663360347
 31
0.0
  0
LINE
  5
5BB
330
1A
100
AcDbEntity
  8
NOKOTOI
  6
PHANTOM
 62
     8
100
AcDbLine
 10
131.8613725944216
 20
116.8523663360349
 30
0.0
 11
131.0834725944221
 21
116.8523663360349
 31
0.0
  0
ARC
  5
5BC
330
1A
100
AcDbEntity
  8
NOKOTOI
  6
PHANTOM
 62
     8
100
AcDbCircle
 10
130.2763991950193
 20
116.1523356591528
 30
0.0
 40
0.4999693238254178
100
AcDbArc
 50
171.8555038770531
 51
269.9969516090356
  0
LINE
  5
5BD
330
1A
100
AcDbEntity
  8
NOKOTOI
  6
PHANTOM
 62
     8
100
AcDbLine
 10
132.5254725944216
 20
115.6523663360348
 30
0.0
 11
130.2763725944216
 21
115.6523663360348
 31
0.0
  0
LINE
  5
5BE
330
1A
100
AcDbEntity
  8
NOKOTOI
  6
PHANTOM
 62
     8
100
AcDbLine
 10
129.7814725944214
 20
116.223166336035
 30
0.0
 11
130.1151725944216
 21
118.559366336035
 31
0.0
  0
LINE
  5
5BF
330
1A
100
AcDbEntity
  8
NOKOTOI
  6
PHANTOM
 62
     8
100
AcDbLine
 10
129.0361725944219
 20
123.952366336035
 30
0.0
 11
128.5361725944219
 21
121.452366336035
 31
0.0
  0
LINE
  5
5C0
330
1A
100
AcDbEntity
  8
NOKOTOI
  6
PHANTOM
 62
     8
100
AcDbLine
 10
128.5361725944219
 20
121.452366336035
 30
0.0
 11
131.4726725944217
 21
121.452366336035
 31
0.0
  0
LINE
  5
5C1
330
1A
100
AcDbEntity
  8
NOKOTOI
  6
PHANTOM
 62
     8
100
AcDbLine
 10
126.5633725944214
 20
125.1523663360348
 30
0.0
 11
129.8899725944217
 21
125.1523663360348
 31
0.0
  0
LINE
  5
5C2
330
1A
100
AcDbEntity
  8
NOKOTOI
  6
PHANTOM
 62
     8
100
AcDbLine
 10
126.5633725944214
 20
123.952366336035
 30
0.0
 11
129.0361725944219
 21
123.952366336035
 31
0.0
  0
ARC
  5
5C3
330
1A
100
AcDbEntity
  8
NOKOTOI
  6
PHANTOM
 62
     8
100
AcDbCircle
 10
126.5633770892197
 20
123.1523709735617
 30
0.0
 40
0.7999953624857498
100
AcDbArc
 50
90.00032191805264
 51
181.7911273464193
  0
ARC
  5
5C4
330
1A
100
AcDbEntity
  8
NOKOTOI
  6
PHANTOM
 62
     8
100
AcDbCircle
 10
129.8899718114132
 20
124.6523672910365
 30
0.0
 40
0.4999990449987349
100
AcDbArc
 50
348.6967198015447
 51
89.99991027369492
  0
ARC
  5
5C5
330
1A
100
AcDbEntity
  8
NOKOTOI
  6
PHANTOM
 62
     8
100
AcDbCircle
 10
130.6097653398662
 20
123.1523751858782
 30
0.0
 40
0.5000088498959383
100
AcDbArc
 50
168.6864043304892
 51
270.0008312961442
  0
LINE
  5
5C6
330
1A
100
AcDbEntity
  8
NOKOTOI
  6
PHANTOM
 62
     8
100
AcDbLine
 10
130.1194725944216
 20
123.2504663360348
 30
0.0
 11
130.3802725944217
 21
124.5543663360349
 31
0.0
  0
LINE
  5
5C7
330
1A
100
AcDbEntity
  8
NOKOTOI
  6
PHANTOM
 62
     8
100
AcDbLine
 10
130.476872594422
 20
120.3523663360349
 30
0.0
 11
130.0149725944217
 21
120.3523663360349
 31
0.0
  0
LINE
  5
5C8
330
1A
100
AcDbEntity
  8
NOKOTOI
  6
PHANTOM
 62
     8
100
AcDbLine
 10
130.476872594422
 20
120.3523663360349
 30
0.0
 11
131.4726725944217
 21
121.452366336035
 31
0.0
  0
LINE
  5
5C9
330
1A
100
AcDbEntity
  8
NOKOTOI
  6
PHANTOM
 62
     8
100
AcDbLine
 10
133.0248725944217
 20
116.1261663360348
 30
0.0
 11
133.3406725944216
 21
122.1260663360348
 31
0.0
  0
ARC
  5
5CA
330
1A
100
AcDbEntity
  8
NOKOTOI
  6
PHANTOM
 62
     8
100
AcDbCircle
 10
132.8412663932637
 20
122.1523728711201
 30
0.0
 40
0.4999934649531607
100
AcDbArc
 50
356.9955363203376
 51
89.99928939038076
  0
LINE
  5
5CB
330
1A
100
AcDbEntity
  8
NOKOTOI
  6
PHANTOM
 62
     8
100
AcDbLine
 10
217.1428725944217
 20
70.15226633603489
 30
0.0
 11
196.984972594422
 21
70.15226633603489
 31
0.0
  0
LINE
  5
5CC
330
1A
100
AcDbEntity
  8
NOKOTOI
  6
PHANTOM
 62
     8
100
AcDbLine
 10
216.8930725944216
 20
71.35226633603494
 30
0.0
 11
196.984972594422
 21
71.35226633603494
 31
0.0
  0
LINE
  5
5CD
330
1A
100
AcDbEntity
  8
NOKOTOI
  6
PHANTOM
 62
     8
100
AcDbLine
 10
221.1428725944217
 20
70.15226633603489
 30
0.0
 11
176.3134725944216
 21
70.15236633603487
 31
0.0
  0
LINE
  5
5CE
330
1A
100
AcDbEntity
  8
NOKOTOI
  6
PHANTOM
 62
     8
100
AcDbLine
 10
176.3134725944216
 20
71.35236633603492
 30
0.0
 11
220.8930725944216
 21
71.35226633603494
 31
0.0
  0
LINE
  5
5CF
330
1A
100
AcDbEntity
  8
NOKOTOI
  6
PHANTOM
 62
     8
100
AcDbLine
 10
242.8973725944217
 20
112.2897663360349
 30
0.0
 11
242.9828725944214
 21
115.0273663360348
 31
0.0
  0
LINE
  5
5D0
330
1A
100
AcDbEntity
  8
NOKOTOI
  6
PHANTOM
 62
     8
100
AcDbLine
 10
244.4353725944217
 20
123.0898663360348
 30
0.0
 11
244.0452725944216
 21
110.6054663360348
 31
0.0
  0
LINE
  5
5D1
330
1A
100
AcDbEntity
  8
NOKOTOI
  6
PHANTOM
 62
     8
100
AcDbLine
 10
242.5459725944217
 20
109.1523663360348
 30
0.0
 11
236.4048725944218
 21
109.1523663360348
 31
0.0
  0
LINE
  5
5D2
330
1A
100
AcDbEntity
  8
NOKOTOI
  6
PHANTOM
 62
     8
100
AcDbLine
 10
234.8663725944213
 20
110.3523663360349
 30
0.0
 11
240.8982725944217
 21
110.3523663360349
 31
0.0
  0
LINE
  5
5D3
330
1A
100
AcDbEntity
  8
NOKOTOI
  6
PHANTOM
 62
     8
100
AcDbLine
 10
235.409872594422
 20
108.2518663360349
 30
0.0
 11
232.5410725944218
 21
79.56446633603488
 31
0.0
  0
LINE
  5
5D4
330
1A
100
AcDbEntity
  8
NOKOTOI
  6
PHANTOM
 62
     8
100
AcDbLine
 10
234.3688725944218
 20
109.9021663360349
 30
0.0
 11
231.3758725944214
 21
79.97236633603481
 31
0.0
  0
LINE
  5
5D5
330
1A
100
AcDbEntity
  8
NOKOTOI
  6
PHANTOM
 62
     8
100
AcDbLine
 10
232.1792725944217
 20
78.88996633603503
 30
0.0
 11
221.7761725944217
 21
70.37826633603501
 31
0.0
  0
LINE
  5
5D6
330
1A
100
AcDbEntity
  8
NOKOTOI
  6
PHANTOM
 62
     8
100
AcDbLine
 10
231.194972594422
 20
79.6350663360349
 30
0.0
 11
221.2096725944217
 21
71.46526633603477
 31
0.0
  0
ARC
  5
5D7
330
1A
100
AcDbEntity
  8
NOKOTOI
  6
PHANTOM
 62
     8
100
AcDbCircle
 10
221.1428656618442
 20
71.15226386102879
 30
0.0
 40
0.9999975250179316
100
AcDbArc
 50
270.0003972084035
 51
309.2946416752299
  0
ARC
  5
5D8
330
1A
100
AcDbEntity
  8
NOKOTOI
  6
PHANTOM
 62
     8
100
AcDbCircle
 10
220.8930789821704
 20
71.85226861602448
 30
0.0
 40
0.5000022800304047
100
AcDbArc
 50
269.9992680212791
 51
309.2854498596061
  0
ARC
  5
5D9
330
1A
100
AcDbEntity
  8
NOKOTOI
  6
PHANTOM
 62
     8
100
AcDbCircle
 10
231.5460500215528
 20
79.66392426436229
 30
0.0
 40
0.9999908507640039
100
AcDbArc
 50
309.288709223069
 51
354.2862329477532
  0
ARC
  5
5DA
330
1A
100
AcDbEntity
  8
NOKOTOI
  6
PHANTOM
 62
     8
100
AcDbCircle
 10
230.8783551685435
 20
80.02203384964692
 30
0.0
 40
0.4999904508696396
100
AcDbArc
 50
309.2900846377951
 51
354.2990110749239
  0
ARC
  5
5DB
330
1A
100
AcDbEntity
  8
NOKOTOI
  6
PHANTOM
 62
     8
100
AcDbCircle
 10
236.4048932442626
 20
108.152385023884
 30
0.0
 40
0.9999813123640345
100
AcDbArc
 50
90.00118317084911
 51
174.2905900333514
  0
ARC
  5
5DC
330
1A
100
AcDbEntity
  8
NOKOTOI
  6
PHANTOM
 62
     8
100
AcDbCircle
 10
234.8663856654263
 20
109.8523781663147
 30
0.0
 40
0.499988169890889
100
AcDbArc
 50
90.00149786226634
 51
174.2966061377162
  0
ARC
  5
5DD
330
1A
100
AcDbEntity
  8
NOKOTOI
  6
PHANTOM
 62
     8
100
AcDbCircle
 10
242.5459898075998
 20
110.6523830191826
 30
0.0
 40
1.500016683246579
100
AcDbArc
 50
269.9993425123344
 51
358.2076423244113
  0
ARC
  5
5DE
330
1A
100
AcDbEntity
  8
NOKOTOI
  6
PHANTOM
 62
     8
100
AcDbCircle
 10
240.898310582246
 20
112.3523031566071
 30
0.0
 40
2.000036820932882
100
AcDbArc
 50
269.9989117490344
 51
358.2110591274195
  0
LINE
  5
5DF
330
1A
100
AcDbEntity
  8
NOKOTOI
  6
PHANTOM
 62
     8
100
AcDbLine
 10
242.4363725944219
 20
125.1522663360349
 30
0.0
 11
239.1097725944216
 21
125.1523663360348
 31
0.0
  0
LINE
  5
5E0
330
1A
100
AcDbEntity
  8
NOKOTOI
  6
PHANTOM
 62
     8
100
AcDbLine
 10
240.4636725944217
 20
121.452366336035
 30
0.0
 11
237.5270725944217
 21
121.452366336035
 31
0.0
  0
ARC
  5
5E1
330
1A
100
AcDbEntity
  8
NOKOTOI
  6
PHANTOM
 62
     8
100
AcDbCircle
 10
239.3796019669213
 20
118.6299965685297
 30
0.0
 40
0.4999578477751074
100
AcDbArc
 50
83.52609071220754
 51
188.1330561712932
  0
ARC
  5
5E2
330
1A
100
AcDbEntity
  8
NOKOTOI
  6
PHANTOM
 62
     8
100
AcDbCircle
 10
238.9848547280705
 20
115.1523750644148
 30
0.0
 40
5.199991271650611
100
AcDbArc
 50
37.92532860472995
 51
89.9998031407256
  0
LINE
  5
5E3
330
1A
100
AcDbEntity
  8
NOKOTOI
  6
PHANTOM
 62
     8
100
AcDbLine
 10
237.1383725944217
 20
116.8523663360349
 30
0.0
 11
236.9572725944214
 21
120.2937663360348
 31
0.0
  0
LINE
  5
5E4
330
1A
100
AcDbEntity
  8
NOKOTOI
  6
PHANTOM
 62
     8
100
AcDbLine
 10
237.5122725944217
 20
119.6807663360347
 30
0.0
 11
236.9572725944214
 21
120.2937663360348
 31
0.0
  0
LINE
  5
5E5
330
1A
100
AcDbEntity
  8
NOKOTOI
  6
PHANTOM
 62
     8
100
AcDbLine
 10
235.9749725944218
 20
116.1260663360348
 30
0.0
 11
235.6591725944215
 21
122.1260663360348
 31
0.0
  0
LINE
  5
5E6
330
1A
100
AcDbEntity
  8
NOKOTOI
  6
PHANTOM
 62
     8
100
AcDbLine
 10
237.9162725944213
 20
116.8523663360349
 30
0.0
 11
237.5122725944217
 21
119.6807663360347
 31
0.0
  0
LINE
  5
5E7
330
1A
100
AcDbEntity
  8
NOKOTOI
  6
PHANTOM
 62
     8
100
AcDbLine
 10
237.1383725944217
 20
116.8523663360349
 30
0.0
 11
237.9162725944213
 21
116.8523663360349
 31
0.0
  0
LINE
  5
5E8
330
1A
100
AcDbEntity
  8
NOKOTOI
  6
PHANTOM
 62
     8
100
AcDbLine
 10
236.4742725944217
 20
115.6523663360348
 30
0.0
 11
238.7233725944212
 21
115.6523663360348
 31
0.0
  0
ARC
  5
5E9
330
1A
100
AcDbEntity
  8
NOKOTOI
  6
PHANTOM
 62
     8
100
AcDbCircle
 10
236.4742767158283
 20
116.1523624260043
 30
0.0
 40
0.4999960899864752
100
AcDbArc
 50
183.0147243791741
 51
269.9995277178593
  0
ARC
  5
5EA
330
1A
100
AcDbEntity
  8
NOKOTOI
  6
PHANTOM
 62
     8
100
AcDbCircle
 10
238.7233827808579
 20
116.152378080759
 30
0.0
 40
0.5000117448278309
100
AcDbArc
 50
269.9988327478016
 51
8.127314608715551
  0
LINE
  5
5EB
330
1A
100
AcDbEntity
  8
NOKOTOI
  6
PHANTOM
 62
     8
100
AcDbLine
 10
239.2183725944216
 20
116.2230663360348
 30
0.0
 11
238.8845725944217
 21
118.559266336035
 31
0.0
  0
LINE
  5
5EC
330
1A
100
AcDbEntity
  8
NOKOTOI
  6
PHANTOM
 62
     8
100
AcDbLine
 10
236.1584725944219
 20
122.6523663360348
 30
0.0
 11
238.3899725944217
 21
122.6523663360348
 31
0.0
  0
ARC
  5
5ED
330
1A
100
AcDbEntity
  8
NOKOTOI
  6
PHANTOM
 62
     8
100
AcDbCircle
 10
236.158476303917
 20
122.1523702460656
 30
0.0
 40
0.4999960899831856
100
AcDbArc
 50
90.00042508015082
 51
183.0156217414647
  0
ARC
  5
5EE
330
1A
100
AcDbEntity
  8
NOKOTOI
  6
PHANTOM
 62
     8
100
AcDbCircle
 10
239.1097653398662
 20
124.6523574861914
 30
0.0
 40
0.500008849895925
100
AcDbArc
 50
89.99916870385415
 51
191.3135956695126
  0
ARC
  5
5EF
330
1A
100
AcDbEntity
  8
NOKOTOI
  6
PHANTOM
 62
     8
100
AcDbCircle
 10
238.3899718114132
 20
123.1523653810331
 30
0.0
 40
0.4999990449987399
100
AcDbArc
 50
270.000089726305
 51
11.30328019845521
  0
LINE
  5
5F0
330
1A
100
AcDbEntity
  8
NOKOTOI
  6
PHANTOM
 62
     8
100
AcDbLine
 10
238.8802725944217
 20
123.250366336035
 30
0.0
 11
238.6194725944216
 21
124.5543663360349
 31
0.0
  0
LINE
  5
5F1
330
1A
100
AcDbEntity
  8
NOKOTOI
  6
PHANTOM
 62
     8
100
AcDbLine
 10
238.5228725944218
 20
120.3523663360349
 30
0.0
 11
238.9848725944218
 21
120.3523663360349
 31
0.0
  0
LINE
  5
5F2
330
1A
100
AcDbEntity
  8
NOKOTOI
  6
PHANTOM
 62
     8
100
AcDbLine
 10
238.5228725944218
 20
120.3523663360349
 30
0.0
 11
237.5270725944217
 21
121.452366336035
 31
0.0
  0
LINE
  5
5F3
330
1A
100
AcDbEntity
  8
NOKOTOI
  6
PHANTOM
 62
     8
100
AcDbLine
 10
243.2359725944213
 20
123.1273663360347
 30
0.0
 11
243.0866725944217
 21
118.348366336035
 31
0.0
  0
ARC
  5
5F4
330
1A
100
AcDbEntity
  8
NOKOTOI
  6
PHANTOM
 62
     8
100
AcDbCircle
 10
238.9848416674856
 20
115.1524020806987
 30
0.0
 40
3.99998565374706
100
AcDbArc
 50
358.208696659101
 51
83.52422380468341
  0
ARC
  5
5F5
330
1A
100
AcDbEntity
  8
NOKOTOI
  6
PHANTOM
 62
     8
100
AcDbCircle
 10
242.4363613574275
 20
123.152377929852
 30
0.0
 40
1.999988406214315
100
AcDbArc
 50
358.2088726535936
 51
89.99967808195551
  0
LINE
  5
5F6
330
1A
100
AcDbEntity
  8
NOKOTOI
  6
PHANTOM
 62
     8
100
AcDbLine
 10
242.4363725944219
 20
123.9522663360348
 30
0.0
 11
239.9636725944216
 21
123.952366336035
 31
0.0
  0
LINE
  5
5F7
330
1A
100
AcDbEntity
  8
NOKOTOI
  6
PHANTOM
 62
     8
100
AcDbLine
 10
239.9636725944216
 20
123.952366336035
 30
0.0
 11
240.4636725944217
 21
121.452366336035
 31
0.0
  0
ARC
  5
5F8
330
1A
100
AcDbEntity
  8
NOKOTOI
  6
PHANTOM
 62
     8
100
AcDbCircle
 10
242.4364165607746
 20
123.1523209735619
 30
0.0
 40
0.7999453636812564
100
AcDbArc
 50
358.2123436447881
 51
90.00314907315425
  0
LINE
  5
9FB
330
1A
100
AcDbEntity
  8
SEIHIN
100
AcDbLine
 10
185.9999927333159
 20
69.95236633603487
 30
0.0
 11
223.5791787333159
 21
69.95236633603487
 31
0.0
  0
LINE
  5
9FC
330
1A
100
AcDbEntity
  8
SEIHIN
100
AcDbLine
 10
185.9999927333159
 20
68.75236633603482
 30
0.0
 11
224.0075348333159
 21
68.75236633603482
 31
0.0
  0
LINE
  5
9FD
330
1A
100
AcDbEntity
  8
SEIHIN
100
AcDbLine
 10
185.9999927333159
 20
65.75236633603481
 30
0.0
 11
225.0784248333159
 21
65.75236633603481
 31
0.0
  0
LINE
  5
9FE
330
1A
100
AcDbEntity
  8
SEIHIN
100
AcDbLine
 10
175.9999927333159
 20
62.75236633603481
 30
0.0
 11
237.9999927333159
 21
62.75236633603481
 31
0.0
  0
LINE
  5
9FF
330
1A
100
AcDbEntity
  8
SEIHIN
100
AcDbLine
 10
182.4999927333159
 20
62.25236633603481
 30
0.0
 11
189.4999927333159
 21
62.25236633603481
 31
0.0
  0
LINE
  5
A00
330
1A
100
AcDbEntity
  8
SEIHIN
100
AcDbLine
 10
47.59980283532593
 20
62.25236633603481
 30
0.0
 11
54.59980283532593
 21
62.25236633603481
 31
0.0
  0
LINE
  5
A01
330
1A
100
AcDbEntity
  8
SEIHIN
100
AcDbLine
 10
47.59980283532593
 20
62.25236633603481
 30
0.0
 11
54.59980283532593
 21
62.25236633603481
 31
0.0
  0
LINE
  5
A02
330
1A
100
AcDbEntity
  8
SEIHIN
100
AcDbLine
 10
45.59980283532593
 20
65.75236633603481
 30
0.0
 11
56.59980283532593
 21
65.75236633603481
 31
0.0
  0
LINE
  5
A04
330
1A
100
AcDbEntity
  8
SEIHIN
100
AcDbLine
 10
57.59980283532593
 20
62.75236633603481
 30
0.0
 11
44.59980283532593
 21
62.75236633603481
 31
0.0
  0
LINE
  5
A06
330
1A
100
AcDbEntity
  8
SEIHIN
100
AcDbLine
 10
62.09980283532593
 20
106.7523663360348
 30
0.0
 11
40.09980283532593
 21
106.7523663360348
 31
0.0
  0
ARC
  5
A07
330
1A
100
AcDbEntity
  8
SEIHIN
100
AcDbCircle
 10
46.99980283532591
 20
141.9523663360348
 30
0.0
 40
2.0
100
AcDbArc
 50
0.0
 51
90.0
  0
ARC
  5
A08
330
1A
100
AcDbEntity
  8
SEIHIN
100
AcDbCircle
 10
46.49980283532591
 20
121.4523663360348
 30
0.0
 40
2.5
100
AcDbArc
 50
180.0
 51
0.0
  0
LINE
  5
A09
330
1A
100
AcDbEntity
  8
SEIHIN
100
AcDbLine
 10
54.09980283532593
 20
155.9523663360348
 30
0.0
 11
48.09980283532593
 21
155.9523663360348
 31
0.0
  0
LINE
  5
A0C
330
1A
100
AcDbEntity
  8
SEIHIN
100
AcDbLine
 10
44.09980283532592
 20
69.25236633603482
 30
0.0
 11
44.09980283532592
 21
106.7523663360348
 31
0.0
  0
LINE
  5
A11
330
1A
100
AcDbEntity
  8
SEIHIN
100
AcDbLine
 10
42.59980283532593
 20
68.75236633603482
 30
0.0
 11
40.09980283532593
 21
68.75236633603482
 31
0.0
  0
LINE
  5
A13
330
1A
100
AcDbEntity
  8
SEIHIN
100
AcDbLine
 10
42.30740033532595
 20
65.35710843603482
 30
0.0
 11
42.30740033532595
 21
65.46545023603482
 31
0.0
  0
LINE
  5
A14
330
1A
100
AcDbEntity
  8
SEIHIN
100
AcDbLine
 10
47.59980283532593
 20
62.75236633603481
 30
0.0
 11
47.59980283532593
 21
62.25236633603481
 31
0.0
  0
LINE
  5
A15
330
1A
100
AcDbEntity
  8
SEIHIN
100
AcDbLine
 10
47.59980283532593
 20
62.75236633603481
 30
0.0
 11
47.59980283532593
 21
62.25236633603481
 31
0.0
  0
ARC
  5
A16
330
1A
100
AcDbEntity
  8
SEIHIN
100
AcDbCircle
 10
45.59980283532593
 20
67.25236633603483
 30
0.0
 40
1.5
100
AcDbArc
 50
180.0
 51
270.0
  0
LINE
  5
A17
330
1A
100
AcDbEntity
  8
SEIHIN
100
AcDbLine
 10
42.30740033532595
 20
65.35710843603482
 30
0.0
 11
44.59980283532593
 21
65.35710843603482
 31
0.0
  0
LINE
  5
A18
330
1A
100
AcDbEntity
  8
SEIHIN
100
AcDbLine
 10
42.30740033532595
 20
68.75236633603482
 30
0.0
 11
42.30740033532595
 21
65.35710843603482
 31
0.0
  0
LINE
  5
A19
330
1A
100
AcDbEntity
  8
SEIHIN
100
AcDbLine
 10
44.59980283532593
 20
65.75236633603481
 30
0.0
 11
45.59980283532593
 21
65.75236633603481
 31
0.0
  0
LINE
  5
A1A
330
1A
100
AcDbEntity
  8
SEIHIN
100
AcDbLine
 10
44.59980283532593
 20
62.75236633603481
 30
0.0
 11
44.59980283532593
 21
65.75236633603481
 31
0.0
  0
ARC
  5
A1B
330
1A
100
AcDbEntity
  8
SEIHIN
100
AcDbCircle
 10
42.59980283532593
 20
67.25236633603483
 30
0.0
 40
1.5
100
AcDbArc
 50
0.0
 51
90.0
  0
ARC
  5
A24
330
1A
100
AcDbEntity
  8
SEIHIN
100
AcDbCircle
 10
42.04980283532586
 20
122.0023663360348
 30
0.0
 40
1.949999999999988
100
AcDbArc
 50
0.0
 51
180.0
  0
LINE
  5
A33
330
1A
100
AcDbEntity
  8
SEIHIN
100
AcDbLine
 10
43.99980283532591
 20
122.0023663360348
 30
0.0
 11
43.99980283532591
 21
121.4523663360348
 31
0.0
  0
LINE
  5
A34
330
1A
100
AcDbEntity
  8
SEIHIN
100
AcDbLine
 10
43.99980283532591
 20
121.9523663360348
 30
0.0
 11
43.99980283532591
 21
121.9523663360348
 31
0.0
  0
LINE
  5
A35
330
1A
100
AcDbEntity
  8
SEIHIN
100
AcDbLine
 10
45.09980283532593
 20
145.9511163360348
 30
0.0
 11
45.09980283532593
 21
152.9523663360348
 31
0.0
  0
ARC
  5
A36
330
1A
100
AcDbEntity
  8
SEIHIN
100
AcDbCircle
 10
47.09980283532593
 20
145.9511163360348
 30
0.0
 40
1.999999998843762
100
AcDbArc
 50
180.0
 51
268.5674562607732
  0
LINE
  5
A37
330
1A
100
AcDbEntity
  8
SEIHIN
100
AcDbLine
 10
46.59980283532592
 20
143.9523663360348
 30
0.0
 11
46.59980283532592
 21
143.9523663360348
 31
0.0
  0
ARC
  5
A38
330
1A
100
AcDbEntity
  8
SEIHIN
100
AcDbCircle
 10
48.09980283532593
 20
152.9523663360348
 30
0.0
 40
3.0
100
AcDbArc
 50
90.0
 51
180.0
  0
ARC
  5
A39
330
1A
100
AcDbEntity
  8
SEIHIN
100
AcDbCircle
 10
177.313542733316
 20
112.9523663360348
 30
0.0
 40
43.99999996755491
100
AcDbArc
 50
190.0046914246752
 51
256.9987985386973
  0
ARC
  5
A3A
330
1A
100
AcDbEntity
  8
SEIHIN
100
AcDbCircle
 10
177.313542733316
 20
112.9523663360348
 30
0.0
 40
45.19999999393088
100
AcDbArc
 50
190.0046914399661
 51
256.9987985135611
  0
ARC
  5
A3B
330
1A
100
AcDbEntity
  8
SEIHIN
100
AcDbCircle
 10
177.313542733316
 20
112.9523663360348
 30
0.0
 40
48.19999998338746
100
AcDbArc
 50
190.3515581005718
 51
256.999279253117
  0
LINE
  5
A3D
330
1A
100
AcDbEntity
  8
SEIHIN
100
AcDbLine
 10
79.09980283532593
 20
70.05547150400882
 30
0.0
 11
79.09980283532593
 21
96.50269630868901
 31
0.0
  0
LINE
  5
A3E
330
1A
100
AcDbEntity
  8
SEIHIN
100
AcDbLine
 10
58.09980283532593
 20
69.25236633603482
 30
0.0
 11
58.09980283532593
 21
106.7523663360348
 31
0.0
  0
ARC
  5
A42
330
1A
100
AcDbEntity
  8
SEIHIN
100
AcDbCircle
 10
56.59980283532593
 20
67.25236633603483
 30
0.0
 40
1.5
100
AcDbArc
 50
270.0
 51
0.0
  0
LINE
  5
A43
330
1A
100
AcDbEntity
  8
SEIHIN
100
AcDbLine
 10
56.59980283532593
 20
65.75236633603481
 30
0.0
 11
57.59980283532593
 21
65.75236633603481
 31
0.0
  0
LINE
  5
A44
330
1A
100
AcDbEntity
  8
SEIHIN
100
AcDbLine
 10
54.59980283532593
 20
62.25236633603481
 30
0.0
 11
54.59980283532593
 21
62.75236633603481
 31
0.0
  0
LINE
  5
A46
330
1A
100
AcDbEntity
  8
SEIHIN
100
AcDbLine
 10
59.89220533532591
 20
65.46545023603482
 30
0.0
 11
59.89220533532591
 21
65.35710843603482
 31
0.0
  0
LINE
  5
A47
330
1A
100
AcDbEntity
  8
SEIHIN
100
AcDbLine
 10
59.59980283532593
 20
68.75236633603482
 30
0.0
 11
62.09980283532593
 21
68.75236633603482
 31
0.0
  0
ARC
  5
A49
330
1A
100
AcDbEntity
  8
SEIHIN
100
AcDbCircle
 10
59.59980283532593
 20
67.25236633603483
 30
0.0
 40
1.5
100
AcDbArc
 50
90.0
 51
180.0
  0
LINE
  5
A4A
330
1A
100
AcDbEntity
  8
SEIHIN
100
AcDbLine
 10
59.89220533532591
 20
65.35710843603482
 30
0.0
 11
59.89220533532591
 21
68.75236633603482
 31
0.0
  0
LINE
  5
A4B
330
1A
100
AcDbEntity
  8
SEIHIN
100
AcDbLine
 10
57.59980283532593
 20
65.75236633603481
 30
0.0
 11
57.59980283532593
 21
65.35710843603482
 31
0.0
  0
LINE
  5
A4C
330
1A
100
AcDbEntity
  8
SEIHIN
100
AcDbLine
 10
57.59980283532593
 20
65.35710843603482
 30
0.0
 11
59.89220533532591
 21
65.35710843603482
 31
0.0
  0
LINE
  5
A4D
330
1A
100
AcDbEntity
  8
SEIHIN
100
AcDbLine
 10
57.59980283532593
 20
65.35710843603482
 30
0.0
 11
57.59980283532593
 21
62.75236633603481
 31
0.0
  0
ARC
  5
A56
330
1A
100
AcDbEntity
  8
SEIHIN
100
AcDbCircle
 10
168.5385777333159
 20
74.95236633603487
 30
0.0
 40
5.000000009884356
100
AcDbArc
 50
256.997175988683
 51
270.0
  0
LINE
  5
A57
330
1A
100
AcDbEntity
  8
SEIHIN
100
AcDbLine
 10
168.5385777333159
 20
69.95236633603487
 30
0.0
 11
185.9999927333159
 21
69.95236633603487
 31
0.0
  0
LINE
  5
A58
330
1A
100
AcDbEntity
  8
SEIHIN
100
AcDbLine
 10
168.5385777333159
 20
68.75236633603482
 30
0.0
 11
185.9999927333159
 21
68.75236633603482
 31
0.0
  0
LINE
  5
A59
330
1A
100
AcDbEntity
  8
SEIHIN
100
AcDbLine
 10
168.5385777333159
 20
65.75236633603481
 30
0.0
 11
185.9999927333159
 21
65.75236633603481
 31
0.0
  0
ARC
  5
A5A
330
1A
100
AcDbEntity
  8
SEIHIN
100
AcDbCircle
 10
168.5385777333159
 20
74.95236633603487
 30
0.0
 40
6.20000002439895
100
AcDbArc
 50
256.9971760025682
 51
270.0
  0
ARC
  5
A5B
330
1A
100
AcDbEntity
  8
SEIHIN
100
AcDbCircle
 10
168.5385777333159
 20
74.95236633603487
 30
0.0
 40
9.20000000634241
100
AcDbArc
 50
256.9971761847128
 51
270.0
  0
LINE
  5
A5C
330
1A
100
AcDbEntity
  8
SEIHIN
100
AcDbLine
 10
175.9999927333159
 20
65.75236633603481
 30
0.0
 11
175.9999927333159
 21
62.75236633603481
 31
0.0
  0
LINE
  5
A5D
330
1A
100
AcDbEntity
  8
SEIHIN
100
AcDbLine
 10
182.4999927333159
 20
62.75236633603481
 30
0.0
 11
182.4999927333159
 21
62.25236633603481
 31
0.0
  0
LINE
  5
A5E
330
1A
100
AcDbEntity
  8
SEIHIN
100
AcDbLine
 10
53.19980283532595
 20
141.9523663360348
 30
0.0
 11
53.19980283532595
 21
121.4523663360348
 31
0.0
  0
LINE
  5
A5F
330
1A
100
AcDbEntity
  8
SEIHIN
100
AcDbLine
 10
48.99980283532591
 20
141.9523663360348
 30
0.0
 11
48.99980283532591
 21
121.4523663360348
 31
0.0
  0
ARC
  5
A60
330
1A
100
AcDbEntity
  8
SEIHIN
100
AcDbCircle
 10
60.14980283532588
 20
122.0023663360348
 30
0.0
 40
1.949999999999988
100
AcDbArc
 50
0.0
 51
180.0
  0
LINE
  5
A61
330
1A
100
AcDbEntity
  8
SEIHIN
100
AcDbLine
 10
62.09980283532593
 20
122.0023663360348
 30
0.0
 11
62.09980283532593
 21
68.75236633603481
 31
0.0
  0
LINE
  5
A66
330
1A
100
AcDbEntity
  8
SEIHIN
100
AcDbLine
 10
62.09980283532593
 20
99.28159513603482
 30
0.0
 11
62.09980283532593
 21
98.60954713603486
 31
0.0
  0
ARC
  5
A71
330
1A
100
AcDbEntity
  8
SEIHIN
100
AcDbCircle
 10
55.69980283532595
 20
121.4523663360348
 30
0.0
 40
2.5
100
AcDbArc
 50
180.0
 51
0.0
  0
LINE
  5
A72
330
1A
100
AcDbEntity
  8
SEIHIN
100
AcDbLine
 10
58.19980283532595
 20
121.9523663360348
 30
0.0
 11
58.19980283532595
 21
121.9523663360348
 31
0.0
  0
LINE
  5
A73
330
1A
100
AcDbEntity
  8
SEIHIN
100
AcDbLine
 10
58.19980283532595
 20
122.0023663360348
 30
0.0
 11
58.19980283532595
 21
121.4523663360348
 31
0.0
  0
LINE
  5
A74
330
1A
100
AcDbEntity
  8
SEIHIN
100
AcDbLine
 10
53.19980283532595
 20
130.7771783360348
 30
0.0
 11
53.19980283532595
 21
130.7771783360348
 31
0.0
  0
LINE
  5
A75
330
1A
100
AcDbEntity
  8
SEIHIN
100
AcDbLine
 10
48.99980283532591
 20
130.7771783360348
 30
0.0
 11
48.99980283532591
 21
130.7771783360348
 31
0.0
  0
LINE
  5
A76
330
1A
100
AcDbEntity
  8
SEIHIN
100
AcDbLine
 10
53.19980283532595
 20
129.8374513360348
 30
0.0
 11
53.19980283532595
 21
129.8374513360348
 31
0.0
  0
LINE
  5
A77
330
1A
100
AcDbEntity
  8
SEIHIN
100
AcDbLine
 10
48.99980283532591
 20
129.8374513360348
 30
0.0
 11
48.99980283532591
 21
129.8374513360348
 31
0.0
  0
LINE
  5
A78
330
1A
100
AcDbEntity
  8
SEIHIN
100
AcDbLine
 10
57.09980283532593
 20
145.9511163360348
 30
0.0
 11
57.09980283532593
 21
152.9523663360348
 31
0.0
  0
ARC
  5
A79
330
1A
100
AcDbEntity
  8
SEIHIN
100
AcDbCircle
 10
55.09980283532593
 20
145.9511163360348
 30
0.0
 40
1.99999999884376
100
AcDbArc
 50
271.4325437392202
 51
0.0
  0
ARC
  5
A7A
330
1A
100
AcDbEntity
  8
SEIHIN
100
AcDbCircle
 10
55.19980283532595
 20
141.9523663360348
 30
0.0
 40
2.0
100
AcDbArc
 50
90.0
 51
180.0
  0
ARC
  5
A7B
330
1A
100
AcDbEntity
  8
SEIHIN
100
AcDbCircle
 10
54.09980283532593
 20
152.9523663360348
 30
0.0
 40
3.0
100
AcDbArc
 50
0.0
 51
90.0
  0
LINE
  5
A7C
330
1A
100
AcDbEntity
  8
SEIHIN
100
AcDbLine
 10
124.4999927333159
 20
155.9523663360348
 30
0.0
 11
124.4999927333159
 21
108.9523663360348
 31
0.0
  0
LINE
  5
A7D
330
1A
100
AcDbEntity
  8
SEIHIN
100
AcDbLine
 10
123.2999927333159
 20
155.9523663360348
 30
0.0
 11
123.2999927333159
 21
108.9523663360348
 31
0.0
  0
ARC
  5
A7E
330
1A
100
AcDbEntity
  8
SEIHIN
100
AcDbCircle
 10
126.9468871333159
 20
103.7523663360348
 30
0.0
 40
2.999999985884628
100
AcDbArc
 50
10.35155819740191
 51
90.0
  0
LINE
  5
A7F
330
1A
100
AcDbEntity
  8
SEIHIN
100
AcDbLine
 10
130.831288033316
 20
107.9523663360348
 30
0.0
 11
125.4999927333159
 21
107.9523663360348
 31
0.0
  0
LINE
  5
A80
330
1A
100
AcDbEntity
  8
SEIHIN
100
AcDbLine
 10
130.831288033316
 20
106.7523663360348
 30
0.0
 11
125.4999927333159
 21
106.7523663360348
 31
0.0
  0
ARC
  5
A81
330
1A
100
AcDbEntity
  8
SEIHIN
100
AcDbCircle
 10
125.4999927333159
 20
108.9523663360348
 30
0.0
 40
1.0
100
AcDbArc
 50
180.0
 51
270.0
  0
LINE
  5
A82
330
1A
100
AcDbEntity
  8
SEIHIN
100
AcDbLine
 10
125.5332717333159
 20
107.9523663360348
 30
0.0
 11
125.5332717333159
 21
107.9523663360348
 31
0.0
  0
ARC
  5
A83
330
1A
100
AcDbEntity
  8
SEIHIN
100
AcDbCircle
 10
125.4999927333159
 20
108.9523663360348
 30
0.0
 40
2.199999999999988
100
AcDbArc
 50
180.0
 51
270.0
  0
ARC
  5
A84
330
1A
100
AcDbEntity
  8
SEIHIN
100
AcDbCircle
 10
130.831288033316
 20
104.7523663360348
 30
0.0
 40
3.199999999587582
100
AcDbArc
 50
10.00469134359077
 51
90.0
  0
ARC
  5
A85
330
1A
100
AcDbEntity
  8
SEIHIN
100
AcDbCircle
 10
130.831288033316
 20
104.7523663360348
 30
0.0
 40
2.000000016035531
100
AcDbArc
 50
10.00469045164722
 51
90.0
  0
LINE
  5
A86
330
1A
100
AcDbEntity
  8
SEIHIN
100
AcDbLine
 10
124.4999927333159
 20
114.5487003360348
 30
0.0
 11
124.4999927333159
 21
114.5487003360348
 31
0.0
  0
LINE
  5
A87
330
1A
100
AcDbEntity
  8
SEIHIN
100
AcDbLine
 10
124.4999927333159
 20
123.9523663360348
 30
0.0
 11
123.2999927333159
 21
123.9523663360348
 31
0.0
  0
LINE
  5
A88
330
1A
100
AcDbEntity
  8
SEIHIN
100
AcDbLine
 10
124.4999927333159
 20
143.9523663360348
 30
0.0
 11
123.2999927333159
 21
143.9523663360348
 31
0.0
  0
LINE
  5
A89
330
1A
100
AcDbEntity
  8
SEIHIN
100
AcDbLine
 10
124.4999927333159
 20
155.9523663360348
 30
0.0
 11
123.2999927333159
 21
155.9523663360348
 31
0.0
  0
LINE
  5
A8B
330
1A
100
AcDbEntity
  8
SEIHIN
100
AcDbLine
 10
243.9999927333159
 20
68.75236633603482
 30
0.0
 11
243.9999927333159
 21
97.75236633603483
 31
0.0
  0
LINE
  5
A8D
330
1A
100
AcDbEntity
  8
SEIHIN
100
AcDbLine
 10
235.098400433316
 20
77.82671033603482
 30
0.0
 11
237.1682890333159
 21
98.52560363603483
 31
0.0
  0
LINE
  5
A8E
330
1A
100
AcDbEntity
  8
SEIHIN
100
AcDbLine
 10
240.367986333316
 20
100.3729498360348
 30
0.0
 11
237.9598647333159
 21
76.29172553603486
 31
0.0
  0
LINE
  5
A8F
330
1A
100
AcDbEntity
  8
SEIHIN
100
AcDbLine
 10
240.9999927333159
 20
97.75236633603483
 30
0.0
 11
240.9999927333159
 21
68.75236633603482
 31
0.0
  0
LINE
  5
A93
330
1A
100
AcDbEntity
  8
SEIHIN
100
AcDbLine
 10
233.953814733316
 20
78.44070433603487
 30
0.0
 11
235.974244433316
 21
98.64500803603483
 31
0.0
  0
LINE
  5
A95
330
1A
100
AcDbEntity
  8
SEIHIN
100
AcDbLine
 10
189.4999927333159
 20
62.25236633603481
 30
0.0
 11
189.4999927333159
 21
62.75236633603481
 31
0.0
  0
LINE
  5
A96
330
1A
100
AcDbEntity
  8
SEIHIN
100
AcDbLine
 10
224.0075348333159
 20
68.75236633603482
 30
0.0
 11
235.098400433316
 21
77.82671033603482
 31
0.0
  0
LINE
  5
A97
330
1A
100
AcDbEntity
  8
SEIHIN
100
AcDbLine
 10
225.0784248333159
 20
65.75236633603481
 30
0.0
 11
237.9598647333159
 21
76.29172553603486
 31
0.0
  0
LINE
  5
A98
330
1A
100
AcDbEntity
  8
SEIHIN
100
AcDbLine
 10
223.5791787333159
 20
69.95236633603487
 30
0.0
 11
233.953814733316
 21
78.44070433603487
 31
0.0
  0
ARC
  5
A99
330
1A
100
AcDbEntity
  8
SEIHIN
100
AcDbCircle
 10
237.9999927333159
 20
68.75236633603482
 30
0.0
 40
3.0
100
AcDbArc
 50
270.0
 51
0.0
  0
ARC
  5
A9A
330
1A
100
AcDbEntity
  8
SEIHIN
100
AcDbCircle
 10
237.9999927333159
 20
68.75236633603482
 30
0.0
 40
6.0
100
AcDbArc
 50
270.0
 51
0.0
  0
LINE
  5
A9B
330
1A
100
AcDbEntity
  8
SEIHIN
100
AcDbLine
 10
237.9999927333159
 20
65.75236633603481
 30
0.0
 11
225.0784248333159
 21
65.75236633603481
 31
0.0
  0
LINE
  5
AA2
330
1A
100
AcDbEntity
  8
SEIHIN
100
AcDbLine
 10
268.1601880333159
 20
65.35710843603482
 30
0.0
 11
273.4103566834978
 21
67.98619683551965
 31
0.0
  0
LINE
  5
AA6
330
1A
100
AcDbEntity
  8
SEIHIN
100
AcDbLine
 10
258.310170033316
 20
83.91046783603487
 30
0.0
 11
261.444483733316
 21
77.65138823603486
 31
0.0
  0
LINE
  5
AA9
330
1A
100
AcDbEntity
  8
SEIHIN
100
AcDbLine
 10
261.444483733316
 20
77.65138823603486
 30
0.0
 11
261.891560833316
 21
77.87526773603487
 31
0.0
  0
LINE
  5
ABB
330
1A
100
AcDbEntity
  8
SEIHIN
100
AcDbLine
 10
258.7572472333159
 20
84.13434743603485
 30
0.0
 11
258.310170033316
 21
83.91046783603487
 31
0.0
  0
LINE
  5
AC3
330
1A
100
AcDbEntity
  8
SEIHIN
100
AcDbLine
 10
255.6250192719423
 20
100.4393092656771
 30
0.0
 11
256.5123141044441
 21
98.66742249399536
 31
0.0
  0
LINE
  5
AC4
330
1A
100
AcDbEntity
  8
SEIHIN
100
AcDbLine
 10
273.4103565930354
 20
67.98619701616896
 30
0.0
 11
257.7387883131233
 21
99.281594976663
 31
0.0
  0
LINE
  5
AC5
330
1A
100
AcDbEntity
  8
SEIHIN
100
AcDbLine
 10
237.053424033316
 20
126.9658258360348
 30
0.0
 11
229.9393330333159
 21
121.9844858360348
 31
0.0
  0
LINE
  5
AC6
330
1A
100
AcDbEntity
  8
SEIHIN
100
AcDbLine
 10
245.4999927333159
 20
106.7410413360348
 30
0.0
 11
245.4999927333159
 21
125.1636913360348
 31
0.0
  0
LINE
  5
AC7
330
1A
100
AcDbEntity
  8
SEIHIN
100
AcDbLine
 10
237.741715733316
 20
125.9828433360348
 30
0.0
 11
230.627624733316
 21
121.0015033360348
 31
0.0
  0
LINE
  5
AC8
330
1A
100
AcDbEntity
  8
SEIHIN
100
AcDbLine
 10
246.6999927333159
 20
106.7410413360348
 30
0.0
 11
246.6999927333159
 21
125.1636913360348
 31
0.0
  0
LINE
  5
AC9
330
1A
100
AcDbEntity
  8
SEIHIN
100
AcDbLine
 10
244.9999927333159
 20
105.8750163360348
 30
0.0
 11
238.053400533316
 21
101.8643992360348
 31
0.0
  0
ARC
  5
ACA
330
1A
100
AcDbEntity
  8
SEIHIN
100
AcDbCircle
 10
244.4999927333159
 20
106.7410413360348
 30
0.0
 40
2.200000005055114
100
AcDbArc
 50
299.9999998479836
 51
0.0
  0
LINE
  5
ACB
330
1A
100
AcDbEntity
  8
SEIHIN
100
AcDbLine
 10
245.5999928333159
 20
104.8357858360348
 30
0.0
 11
238.6534006333159
 21
100.8251687360348
 31
0.0
  0
ARC
  5
ACC
330
1A
100
AcDbEntity
  8
SEIHIN
100
AcDbCircle
 10
240.153400633316
 20
98.22709253603484
 30
0.0
 40
4.200000021369245
100
AcDbArc
 50
120.0000011534159
 51
174.2894084913981
  0
ARC
  5
ACD
330
1A
100
AcDbEntity
  8
SEIHIN
100
AcDbCircle
 10
240.153400633316
 20
98.22709253603484
 30
0.0
 40
3.000000006856998
100
AcDbArc
 50
120.0000001084146
 51
174.2894080027292
  0
LINE
  5
ACF
330
1A
100
AcDbEntity
  8
SEIHIN
100
AcDbLine
 10
250.2602883333159
 20
100.7523663360348
 30
0.0
 11
246.9999927333159
 21
100.7523663360348
 31
0.0
  0
LINE
  5
AD0
330
1A
100
AcDbEntity
  8
SEIHIN
100
AcDbLine
 10
246.9999927333159
 20
103.7523663360348
 30
0.0
 11
250.2602883333159
 21
103.7523663360348
 31
0.0
  0
ARC
  5
AD1
330
1A
100
AcDbEntity
  8
SEIHIN
100
AcDbCircle
 10
243.3530978333159
 20
100.0744387360348
 30
0.0
 40
2.999999957105099
100
AcDbArc
 50
120.0000001084146
 51
174.2894078126911
  0
ARC
  5
AD2
330
1A
100
AcDbEntity
  8
SEIHIN
100
AcDbCircle
 10
246.9999927333159
 20
97.75236633603483
 30
0.0
 40
3.0
100
AcDbArc
 50
90.0
 51
180.0
  0
ARC
  5
AD3
330
1A
100
AcDbEntity
  8
SEIHIN
100
AcDbCircle
 10
246.9999927333159
 20
97.75236633603483
 30
0.0
 40
6.0
100
AcDbArc
 50
90.0
 51
180.0
  0
LINE
  5
AD4
330
1A
100
AcDbEntity
  8
SEIHIN
100
AcDbLine
 10
253.8298513432594
 20
97.32414531617823
 30
0.0
 11
252.9427511333159
 21
99.09564363603484
 31
0.0
  0
LINE
  5
AD5
330
1A
100
AcDbEntity
  8
SEIHIN
100
AcDbLine
 10
250.2602883333159
 20
103.7523663360348
 30
0.0
 11
250.2608807946162
 21
103.7523663360348
 31
0.0
  0
ARC
  5
AD6
330
1A
100
AcDbEntity
  8
SEIHIN
100
AcDbCircle
 10
250.2602883333159
 20
97.75236633603483
 30
0.0
 40
3.000000048173235
100
AcDbArc
 50
26.59999985782451
 51
90.0
  0
ARC
  5
AD7
330
1A
100
AcDbEntity
  8
SEIHIN
100
AcDbCircle
 10
250.2602883333159
 20
97.75236633603483
 30
0.0
 40
6.000000029250865
100
AcDbArc
 50
26.59999943154848
 51
90.0
  0
LINE
  5
AD8
330
1A
100
AcDbEntity
  8
SEIHIN
100
AcDbLine
 10
229.9393330333159
 20
121.9844858360348
 30
0.0
 11
230.627624733316
 21
121.0015033360348
 31
0.0
  0
ARC
  5
AD9
330
1A
100
AcDbEntity
  8
SEIHIN
100
AcDbCircle
 10
244.4999927333159
 20
106.7410413360348
 30
0.0
 40
0.9999999983612706
100
AcDbArc
 50
300.0000001084146
 51
0.0
  0
LINE
  5
ADA
330
1A
100
AcDbEntity
  8
SEIHIN
100
AcDbLine
 10
245.4999927333159
 20
115.3532973360348
 30
0.0
 11
245.4999927333159
 21
115.3532973360348
 31
0.0
  0
LINE
  5
ADB
330
1A
100
AcDbEntity
  8
SEIHIN
100
AcDbLine
 10
238.315291733316
 20
126.1636913360348
 30
0.0
 11
244.4999927333159
 21
126.1636913360348
 31
0.0
  0
LINE
  5
ADC
330
1A
100
AcDbEntity
  8
SEIHIN
100
AcDbLine
 10
238.315291733316
 20
127.3636913360348
 30
0.0
 11
244.4999927333159
 21
127.3636913360348
 31
0.0
  0
LINE
  5
ADD
330
1A
100
AcDbEntity
  8
SEIHIN
100
AcDbLine
 10
233.8728691333159
 20
124.7387773360348
 30
0.0
 11
234.561160733316
 21
123.7557943360348
 31
0.0
  0
ARC
  5
ADE
330
1A
100
AcDbEntity
  8
SEIHIN
100
AcDbCircle
 10
238.315291733316
 20
125.1636913360348
 30
0.0
 40
2.199999983850877
100
AcDbArc
 50
90.0
 51
124.9999986822715
  0
ARC
  5
ADF
330
1A
100
AcDbEntity
  8
SEIHIN
100
AcDbCircle
 10
238.315291733316
 20
125.1636913360348
 30
0.0
 40
0.9999999714352551
100
AcDbArc
 50
90.0
 51
124.9999997494021
  0
ARC
  5
AE0
330
1A
100
AcDbEntity
  8
SEIHIN
100
AcDbCircle
 10
244.4999927333159
 20
125.1636913360348
 30
0.0
 40
2.200000000000017
100
AcDbArc
 50
0.0
 51
90.0
  0
ARC
  5
AE1
330
1A
100
AcDbEntity
  8
SEIHIN
100
AcDbCircle
 10
244.4999927333159
 20
125.1636913360348
 30
0.0
 40
1.0
100
AcDbArc
 50
0.0
 51
90.0
  0
LINE
  5
B90
330
1A
100
AcDbEntity
  8
SUNPOU
100
AcDbLine
 10
286.0895513172485
 20
42.66642936011303
 30
0.0
 11
273.4103562333159
 21
67.98619683603483
 31
0.0
  0
LINE
  5
B98
330
1A
100
AcDbEntity
  8
SUNPOU
100
AcDbLine
 10
281.0819243333158
 20
42.66642936011303
 30
0.0
 11
281.0819243333158
 21
52.66642936011303
 31
0.0
  0
TEXT
  5
B9A
330
1A
100
AcDbEntity
  8
SUNPOU
100
AcDbText
 10
276.2207920609649
 20
46.44526202808044
 30
-23.49201566
 40
3.0
  1
10
100
AcDbText
  0
TEXT
  5
B9B
330
1A
100
AcDbEntity
  8
SUNPOU
100
AcDbText
 10
282.4164175303741
 20
38.95372062066832
 30
-23.49201566
 40
3.0
  1
5
100
AcDbText
  0
LINE
  5
B9C
330
1A
100
AcDbEntity
  8
CENTER_L
100
AcDbLine
 10
185.9999927333159
 20
55.25236633603481
 30
0.0
 11
185.9999927333159
 21
76.95236633603487
 31
0.0
  0
LINE
  5
C9D
330
1A
100
AcDbEntity
  8
SEIHIN
100
AcDbLine
 10
252.4886199427097
 20
96.65250671727569
 30
0.0
 11
268.1601880333159
 21
65.35710843603482
 31
0.0
  0
LINE
  5
FEA
330
1A
100
AcDbEntity
  8
CENTER_L
100
AcDbLine
 10
280.4103562333159
 20
222.3204640306057
 30
0.0
 11
116.299992733316
 21
222.3204640306057
 31
0.0
  0
LINE
  5
FEB
330
1A
100
AcDbEntity
  8
SEIHIN
100
AcDbLine
 10
246.6999927333159
 20
233.3204640306056
 30
0.0
 11
123.2999927333159
 21
233.3204640306056
 31
0.0
  0
LINE
  5
FEC
330
1A
100
AcDbEntity
  8
SEIHIN
100
AcDbLine
 10
246.6999927333159
 20
211.3204640306057
 30
0.0
 11
123.2999927333159
 21
211.3204640306057
 31
0.0
  0
LINE
  5
FED
330
1A
100
AcDbEntity
  8
SEIHIN
100
AcDbLine
 10
123.2999927333159
 20
233.3204640306056
 30
0.0
 11
123.2999927333159
 21
211.3204640306057
 31
0.0
  0
LINE
  5
FEE
330
1A
100
AcDbEntity
  8
SEIHIN
100
AcDbLine
 10
124.4999927333159
 20
233.3204640306056
 30
0.0
 11
124.4999927333159
 21
211.3204640306057
 31
0.0
  0
LINE
  5
FF0
330
1A
100
AcDbEntity
  8
SEIHIN
100
AcDbLine
 10
231.0099968978074
 20
216.3204640306056
 30
0.0
 11
132.1629689119457
 21
216.3204640306056
 31
0.0
  0
LINE
  5
FF1
330
1A
100
AcDbEntity
  8
SEIHIN
100
AcDbLine
 10
124.4999927333159
 20
228.3204640306057
 30
0.0
 11
123.2999927333159
 21
228.3204640306057
 31
0.0
  0
LINE
  5
FF2
330
1A
100
AcDbEntity
  8
SEIHIN
100
AcDbLine
 10
124.4999927333159
 20
216.3204640306056
 30
0.0
 11
123.2999927333159
 21
216.3204640306056
 31
0.0
  0
LINE
  5
FF3
330
1A
100
AcDbEntity
  8
SEIHIN
100
AcDbLine
 10
129.1629689119457
 20
219.3204640306057
 30
0.0
 11
129.1629689119457
 21
225.3204640306057
 31
0.0
  0
LINE
  5
FF5
330
1A
100
AcDbEntity
  8
SEIHIN
100
AcDbLine
 10
246.6999927333159
 20
211.3204640306057
 30
0.0
 11
246.6999927333159
 21
233.3204640306056
 31
0.0
  0
LINE
  5
FF6
330
1A
100
AcDbEntity
  8
SEIHIN
100
AcDbLine
 10
237.0534236240532
 20
211.3204640306057
 30
0.0
 11
237.0534236240532
 21
233.3204640306056
 31
0.0
  0
ARC
  5
FF8
330
1A
100
AcDbEntity
  8
SEIHIN
100
AcDbCircle
 10
247.2866641344598
 20
222.3204640306057
 30
0.0
 40
17.34733110114381
100
AcDbArc
 50
140.6464899728084
 51
219.3535100271917
  0
LINE
  5
FF9
330
1A
100
AcDbEntity
  8
SEIHIN
100
AcDbLine
 10
132.1605343240933
 20
211.3204640306057
 30
0.0
 11
132.1605343240933
 21
216.3204640306056
 31
0.0
  0
LINE
  5
FFA
330
1A
100
AcDbEntity
  8
SEIHIN
100
AcDbLine
 10
132.1605343240933
 20
228.3204640306057
 30
0.0
 11
132.1605343240933
 21
233.3204640306056
 31
0.0
  0
ARC
  5
FFB
330
1A
100
AcDbEntity
  8
SEIHIN
100
AcDbCircle
 10
132.1629689119457
 20
225.3204640306057
 30
0.0
 40
3.0
100
AcDbArc
 50
90.0
 51
180.0
  0
ARC
  5
FFC
330
1A
100
AcDbEntity
  8
SEIHIN
100
AcDbCircle
 10
132.1629689119457
 20
219.3204640306057
 30
0.0
 40
3.0
100
AcDbArc
 50
180.0
 51
270.0
  0
LINE
  5
1178
330
1A
100
AcDbEntity
  8
SUNPOU
100
AcDbLine
 10
281.0819243333158
 20
42.66642936011303
 30
0.0
 11
286.0895513172485
 21
42.66642936011303
 31
0.0
  0
LINE
  5
119A
330
1A
100
AcDbEntity
  8
SEIHIN
100
AcDbLine
 10
370.8765300219683
 20
120.1487447056895
 30
0.0
 11
357.891516022072
 21
146.0792173473999
 31
0.0
  0
LINE
  5
119D
330
1A
100
AcDbEntity
  8
SEIHIN
100
AcDbLine
 10
324.8296331940041
 20
93.73504953604664
 30
0.0
 11
347.1834889196165
 21
104.9290271221643
 31
0.0
  0
LINE
  5
119E
330
1A
100
AcDbEntity
  8
SEIHIN
100
AcDbLine
 10
307.8188791967001
 20
121.0047075544964
 30
0.0
 11
320.8038931965965
 21
95.07423491278601
 31
0.0
  0
CIRCLE
  5
11A8
330
1A
100
AcDbEntity
  8
SEIHIN
100
AcDbCircle
 10
324.3777821569647
 20
101.3374064495523
 30
0.0
 40
2.050000000000068
  0
CIRCLE
  5
11A9
330
1A
100
AcDbEntity
  8
SEIHIN
100
AcDbCircle
 10
319.6763115707953
 20
110.7260258543095
 30
0.0
 40
3.25
  0
LINE
  5
11C1
330
1A
100
AcDbEntity
  8
SEIHIN
100
AcDbLine
 10
309.1580645734395
 20
125.030447551904
 30
0.0
 11
325.6999178103927
 21
133.3139909656311
 31
0.0
  0
CIRCLE
  5
11C8
330
1A
100
AcDbEntity
  8
SEIHIN
100
AcDbCircle
 10
314.9748409846259
 20
120.1146452590667
 30
0.0
 40
2.050000000000068
  0
LINE
  5
11CC
330
1A
100
AcDbEntity
  8
SEIHIN
100
AcDbLine
 10
347.1834889196165
 20
104.9290271221643
 30
0.0
 11
369.537344645229
 21
116.1230047082819
 31
0.0
  0
CIRCLE
  5
11D1
330
1A
100
AcDbEntity
  8
SEIHIN
100
AcDbCircle
 10
363.7205682340426
 20
121.0388070011193
 30
0.0
 40
2.050000000000068
  0
CIRCLE
  5
11D3
330
1A
100
AcDbEntity
  8
SEIHIN
100
AcDbCircle
 10
359.0190976478731
 20
130.4274264058765
 30
0.0
 40
3.25
  0
LINE
  5
11D6
330
1A
100
AcDbEntity
  8
SEIHIN
100
AcDbLine
 10
337.3239227877111
 20
139.1348593104123
 30
0.0
 11
353.8657760246644
 21
147.4184027241393
 31
0.0
  0
CIRCLE
  5
11E3
330
1A
100
AcDbEntity
  8
SEIHIN
100
AcDbCircle
 10
354.3176270617038
 20
139.8160458106337
 30
0.0
 40
2.050000000000068
  0
LINE
  5
11EE
330
1A
100
AcDbEntity
  8
CENTER_L
100
AcDbLine
 10
350.9894412988965
 20
97.32871617545608
 30
0.0
 11
327.7715194966151
 21
143.6938326163186
 31
0.0
  0
ARC
  5
11F2
330
1A
100
AcDbEntity
  8
SEIHIN
100
AcDbCircle
 10
310.5013418837736
 20
122.3479848648305
 30
0.0
 40
3.0
100
AcDbArc
 50
116.600001
 51
206.6000010000001
  0
ARC
  5
11F3
330
1A
100
AcDbEntity
  8
SEIHIN
100
AcDbCircle
 10
323.48635588367
 20
96.41751222312013
 30
0.0
 40
3.0
100
AcDbArc
 50
206.600001
 51
296.6000010000002
  0
ARC
  5
11F4
330
1A
100
AcDbEntity
  8
SEIHIN
100
AcDbCircle
 10
355.2090533349984
 20
144.7359400370658
 30
0.0
 40
3.0
100
AcDbArc
 50
26.60000099999997
 51
116.600001
  0
ARC
  5
11F5
330
1A
100
AcDbEntity
  8
SEIHIN
100
AcDbCircle
 10
368.1940673348949
 20
118.8054673953554
 30
0.0
 40
3.0
100
AcDbArc
 50
296.6000010000001
 51
26.6000009999999
  0
LINE
  5
11F6
330
1A
100
AcDbEntity
  8
SEIHIN
100
AcDbLine
 10
231.0099968978074
 20
228.3204640306056
 30
0.0
 11
132.1629689119457
 21
228.3204640306057
 31
0.0
  0
LINE
  5
11F7
330
1A
100
AcDbEntity
  8
CENTER_L
100
AcDbLine
 10
322.9225650707695
 20
104.2434076938819
 30
0.0
 11
316.4300580708212
 21
117.2086440147371
 31
0.0
  0
LINE
  5
11F8
330
1A
100
AcDbEntity
  8
CENTER_L
100
AcDbLine
 10
326.1589297312229
 20
113.9722793542836
 30
0.0
 11
313.1936934103677
 21
107.4797723543354
 31
0.0
  0
LINE
  5
11FB
330
1A
100
AcDbEntity
  8
CENTER_L
100
AcDbLine
 10
320.3844740702241
 20
122.8235878349071
 30
0.0
 11
309.5652078990276
 21
117.4057026832262
 31
0.0
  0
LINE
  5
11FC
330
1A
100
AcDbEntity
  8
CENTER_L
100
AcDbLine
 10
317.6837835604665
 20
114.7050121734684
 30
0.0
 11
312.2658984087854
 21
125.5242783446649
 31
0.0
  0
LINE
  5
11FD
330
1A
100
AcDbEntity
  8
CENTER_L
100
AcDbLine
 10
329.787415242563
 20
104.0463490253927
 30
0.0
 11
318.9681490713665
 21
98.62846387371179
 31
0.0
  0
LINE
  5
11FE
330
1A
100
AcDbEntity
  8
CENTER_L
100
AcDbLine
 10
327.0867247328053
 20
95.92777336395405
 30
0.0
 11
321.6688395811242
 21
106.7470395351505
 31
0.0
  0
LINE
  5
11FF
330
1A
100
AcDbEntity
  8
CENTER_L
100
AcDbLine
 10
359.727260147302
 20
142.5249883864742
 30
0.0
 11
348.9079939761054
 21
137.1071032347932
 31
0.0
  0
LINE
  5
1200
330
1A
100
AcDbEntity
  8
CENTER_L
100
AcDbLine
 10
357.0265696375443
 20
134.4064127250354
 30
0.0
 11
351.6086844858631
 21
145.2256788962319
 31
0.0
  0
LINE
  5
1201
330
1A
100
AcDbEntity
  8
CENTER_L
100
AcDbLine
 10
365.5017158083007
 20
133.6736799058506
 30
0.0
 11
352.5364794874455
 21
127.1811729059024
 31
0.0
  0
LINE
  5
1202
330
1A
100
AcDbEntity
  8
CENTER_L
100
AcDbLine
 10
362.2653511478473
 20
123.9448082454489
 30
0.0
 11
355.772844147899
 21
136.9100445663041
 31
0.0
  0
LINE
  5
1203
330
1A
100
AcDbEntity
  8
CENTER_L
100
AcDbLine
 10
366.4295108098831
 20
115.629173915521
 30
0.0
 11
361.011625658202
 21
126.4484400867176
 31
0.0
  0
LINE
  5
1204
330
1A
100
AcDbEntity
  8
CENTER_L
100
AcDbLine
 10
369.1302013196408
 20
123.7477495769597
 30
0.0
 11
358.3109351484442
 21
118.3298644252788
 31
0.0
  0
LINE
  5
1209
330
1A
100
AcDbEntity
  8
SEIHIN
100
AcDbLine
 10
352.9954914082757
 20
107.8394612945549
 30
0.0
 11
335.4454437971747
 21
142.8860950096976
 31
0.0
  0
LINE
  5
120A
330
1A
100
AcDbEntity
  8
SEIHIN
100
AcDbLine
 10
341.3714864309572
 20
102.0185929497737
 30
0.0
 11
321.9595170079558
 21
140.783398443928
 31
0.0
  0
LINE
  5
120B
330
1A
100
AcDbEntity
  8
SEIHIN
100
AcDbLine
 10
353.442568522788
 20
108.0633408462772
 30
0.0
 11
337.7709999022233
 21
139.3587388621346
 31
0.0
  0
LINE
  5
120C
330
1A
100
AcDbEntity
  8
SEIHIN
100
AcDbLine
 10
340.9244093164451
 20
101.7947133980514
 30
0.0
 11
325.2528406958804
 21
133.0901114139087
 31
0.0
  0
LINE
  5
120F
330
1A
100
AcDbEntity
  8
CENTER_L
100
AcDbLine
 10
275.6856755948011
 20
76.95421901504676
 30
0.0
 11
264.8664094236046
 21
71.53633386336577
 31
0.0
  0
LINE
  5
1210
330
1A
100
AcDbEntity
  8
CENTER_L
100
AcDbLine
 10
272.057190083461
 20
86.88014934393759
 30
0.0
 11
259.0919537626059
 21
80.38764234398938
 31
0.0
  0
LINE
  5
1211
330
1A
100
AcDbEntity
  8
CENTER_L
100
AcDbLine
 10
266.2827344224623
 20
95.73145782456117
 30
0.0
 11
255.4634682512658
 21
90.31357267288019
 31
0.0
  0
LINE
  5
1212
330
1A
100
AcDbEntity
  8
SEIHIN
100
AcDbLine
 10
272.0691252441293
 20
67.31455837172433
 30
0.0
 11
256.3975569356299
 21
98.60995638930615
 31
0.0
  0
LINE
  5
1213
330
1A
100
AcDbEntity
  8
SEIHIN
 62
     2
100
AcDbLine
 10
313.6197430532758
 20
136.6071505577518
 30
0.0
 11
330.161596290229
 21
144.8906939714789
 31
0.0
  0
LINE
  5
1214
330
1A
100
AcDbEntity
  8
SEIHIN
 62
     2
100
AcDbLine
 10
327.954399530784
 20
139.1348593104123
 30
0.0
 11
344.4962527677373
 21
147.4184027241393
 31
0.0
  0
LINE
  5
1215
330
1A
100
AcDbEntity
  8
CENTER_L
 62
     2
100
AcDbLine
 10
330.161596290229
 20
144.8906939714789
 30
0.0
 11
327.954399530784
 21
139.1348593104123
 31
0.0
  0
CIRCLE
  5
1218
330
1A
100
AcDbEntity
  8
SEIHIN
100
AcDbCircle
 10
185.9999927333159
 20
222.3204640306057
 30
0.0
 40
3.5
  0
LINE
  5
121A
330
1A
100
AcDbEntity
  8
SEIHIN
100
AcDbLine
 10
273.4103562333159
 20
200.3204640306057
 30
0.0
 11
273.4103562333159
 21
214.8204640306057
 31
0.0
  0
LINE
  5
121B
330
1A
100
AcDbEntity
  8
CENTER_L
100
AcDbLine
 10
270.2760429189605
 20
194.2204640306057
 30
0.0
 11
270.2760429189605
 21
206.419924800368
 31
0.0
  0
LINE
  5
121C
330
1A
100
AcDbEntity
  8
CENTER_L
100
AcDbLine
 10
265.5745724078482
 20
207.6204633301004
 30
0.0
 11
265.5745724078482
 21
193.0204640306057
 31
0.0
  0
LINE
  5
121F
330
1A
100
AcDbEntity
  8
SEIHIN
100
AcDbLine
 10
256.620618833316
 20
200.3204640306057
 30
0.0
 11
256.620618833316
 21
213.3204640306056
 31
0.0
  0
DIMENSION
  5
1220
330
1A
100
AcDbEntity
  8
SUNPOU
100
AcDbDimension
  2
*D1
 10
343.0629010169822
 20
162.2912133995883
 30
0.0
 11
322.2721102198316
 21
154.675898696366
 31
0.0
 70
    33
  3
STANDARD
100
AcDbAlignedDimension
 13
312.2658984087854
 23
125.5242783446649
 33
0.0
 14
351.6086844858631
 24
145.2256788962319
 34
0.0
1001
ACAD
1000
DSTYLE
1002
{
1070
    41
1040
3.0
1070
    42
1040
3.0
1070
    43
1040
7.0
1070
    44
1040
1.5
1070
    73
1070
     0
1070
    74
1070
     0
1070
    77
1070
     3
1070
   140
1040
3.0
1070
   141
1040
3.0
1070
   147
1040
1.0
1070
   172
1070
     1
1070
   173
1070
     1
1070
   176
1070
   256
1070
   177
1070
   256
1070
   178
1070
   256
1070
   271
1070
     0
1070
   272
1070
     0
1070
   341
1005
B2
1070
     6
1000
OPEN
1070
     7
1000
OPEN
1002
}
  0
DIMENSION
  5
122D
330
1A
100
AcDbEntity
  8
SUNPOU
100
AcDbDimension
  2
*D2
 10
345.0387762788829
 20
171.745544413697
 30
0.0
 11
318.8830601075851
 21
161.4436750898065
 31
0.0
 70
    33
  3
STANDARD
100
AcDbAlignedDimension
 13
307.8188791967001
 23
121.0047075544964
 33
0.0
 14
357.8915160220719
 24
146.0792173473999
 34
0.0
1001
ACAD
1000
DSTYLE
1002
{
1070
    41
1040
3.0
1070
    42
1040
3.0
1070
    43
1040
7.0
1070
    44
1040
1.5
1070
    73
1070
     0
1070
    74
1070
     0
1070
    77
1070
     3
1070
   140
1040
3.0
1070
   141
1040
3.0
1070
   147
1040
1.0
1070
   172
1070
     1
1070
   173
1070
     1
1070
   176
1070
   256
1070
   177
1070
   256
1070
   178
1070
   256
1070
   271
1070
     0
1070
   272
1070
     0
1070
   341
1005
B2
1070
     6
1000
OPEN
1070
     7
1000
OPEN
1002
}
  0
DIMENSION
  5
123A
330
1A
100
AcDbEntity
  8
SUNPOU
100
AcDbDimension
  2
*D3
 10
374.9470465411004
 20
138.4035494108813
 30
0.0
 11
373.2645399585204
 21
147.3467966734574
 31
0.0
 70
    33
  3
STANDARD
100
AcDbAlignedDimension
 13
351.1833133375907
 23
146.0751254138051
 33
0.0
 14
359.0190976478731
 24
130.4274264058765
 34
0.0
1001
ACAD
1000
DSTYLE
1002
{
1070
    41
1040
3.0
1070
    42
1040
3.0
1070
    43
1040
7.0
1070
    44
1040
1.5
1070
    73
1070
     0
1070
    74
1070
     0
1070
    77
1070
     3
1070
   140
1040
3.0
1070
   141
1040
3.0
1070
   147
1040
1.0
1070
   172
1070
     1
1070
   173
1070
     1
1070
   176
1070
   256
1070
   177
1070
   256
1070
   178
1070
   256
1070
   271
1070
     0
1070
   272
1070
     0
1070
   341
1005
B2
1070
     6
1000
OPEN
1070
     7
1000
OPEN
1002
}
  0
DIMENSION
  5
1247
330
1A
100
AcDbEntity
  8
SUNPOU
100
AcDbDimension
  2
*D4
 10
300.9587068719674
 20
113.0958878229008
 30
0.0
 11
301.6269355824721
 21
117.3448253830982
 31
0.0
 70
    33
  3
STANDARD
100
AcDbAlignedDimension
 13
311.840527260513
 23
126.3737248622381
 33
0.0
 14
314.9748409846259
 24
120.1146452590667
 34
0.0
1001
ACAD
1000
DSTYLE
1002
{
1070
    41
1040
3.0
1070
    42
1040
3.0
1070
    43
1040
7.0
1070
    44
1040
1.5
1070
    73
1070
     0
1070
    74
1070
     0
1070
    77
1070
     3
1070
   140
1040
3.0
1070
   141
1040
3.0
1070
   147
1040
1.0
1070
   172
1070
     1
1070
   173
1070
     1
1070
   176
1070
   256
1070
   177
1070
   256
1070
   178
1070
   256
1070
   271
1070
     0
1070
   272
1070
     0
1070
   341
1005
B2
1070
     6
1000
OPEN
1070
     7
1000
OPEN
1002
}
  0
DIMENSION
  5
1256
330
1A
100
AcDbEntity
  8
SUNPOU
100
AcDbDimension
  2
*D5
 10
313.4959617684196
 20
88.05956941021515
 30
0.0
 11
314.1641904789243
 21
92.30850697041269
 31
0.0
 70
    33
  3
STANDARD
100
AcDbAlignedDimension
 13
324.3777821569648
 23
101.3374064495523
 33
0.0
 14
327.5120958810778
 24
95.07832684638087
 34
0.0
1001
ACAD
1000
DSTYLE
1002
{
1070
    41
1040
3.0
1070
    42
1040
3.0
1070
    43
1040
7.0
1070
    44
1040
1.5
1070
    73
1070
     0
1070
    74
1070
     0
1070
    77
1070
     3
1070
   140
1040
3.0
1070
   141
1040
3.0
1070
   147
1040
1.0
1070
   172
1070
     1
1070
   173
1070
     1
1070
   176
1070
   256
1070
   177
1070
   256
1070
   178
1070
   256
1070
   271
1070
     0
1070
   272
1070
     0
1070
   341
1005
B2
1070
     6
1000
OPEN
1070
     7
1000
OPEN
1002
}
  0
DIMENSION
  5
1265
330
1A
100
AcDbEntity
  8
SUNPOU
100
AcDbDimension
  2
*D6
 10
305.7221762812184
 20
84.16674744826122
 30
0.0
 11
300.1217775434974
 21
100.9338442148017
 31
0.0
 70
    33
  3
STANDARD
100
AcDbAlignedDimension
 13
309.1580645734395
 23
125.030447551904
 33
0.0
 14
324.8296331940041
 24
93.73504953604662
 34
0.0
1001
ACAD
1000
DSTYLE
1002
{
1070
    41
1040
3.0
1070
    42
1040
3.0
1070
    43
1040
7.0
1070
    44
1040
1.5
1070
    73
1070
     0
1070
    74
1070
     0
1070
    77
1070
     3
1070
   140
1040
3.0
1070
   141
1040
3.0
1070
   147
1040
1.0
1070
   172
1070
     1
1070
   173
1070
     1
1070
   176
1070
   256
1070
   177
1070
   256
1070
   178
1070
   256
1070
   271
1070
     0
1070
   272
1070
     0
1070
   341
1005
B2
1070
     6
1000
OPEN
1070
     7
1000
OPEN
1002
}
  0
LINE
  5
1273
330
1A
100
AcDbEntity
  8
SEIHIN
100
AcDbLine
 10
271.3954407863803
 20
194.3204640306056
 30
0.0
 11
258.6355342802516
 21
194.3204640306056
 31
0.0
  0
LINE
  5
1274
330
1A
100
AcDbEntity
  8
CENTER_L
100
AcDbLine
 10
273.6668281944217
 20
200.3204640306057
 30
0.0
 11
257.7387882333159
 21
200.3204640306057
 31
0.0
  0
ELLIPSE
  5
1278
330
1A
100
AcDbEntity
  8
SEIHIN
100
AcDbEllipse
 10
271.3954407863803
 20
200.3204640306057
 30
0.0
 11
0.0
 21
-6.0
 31
0.0
210
0.0
220
0.0
230
1.0
 40
0.3358192411559362
 41
6.283185307179586
 42
7.853981633974482
  0
ELLIPSE
  5
1279
330
1A
100
AcDbEntity
  8
SEIHIN
100
AcDbEllipse
 10
259.7537036802516
 20
200.3204640306057
 30
0.0
 11
0.0
 21
-6.0
 31
0.0
210
0.0
220
0.0
230
1.0
 40
0.3358192411559362
 41
4.712388980384689
 42
6.283185307179586
  0
ELLIPSE
  5
127C
330
1A
100
AcDbEntity
  8
SEIHIN
100
AcDbEllipse
 10
258.6355342802516
 20
200.3204640306057
 30
0.0
 11
0.0
 21
-6.0
 31
0.0
210
0.0
220
0.0
230
1.0
 40
0.3358192411559362
 41
4.712388980384689
 42
6.283185307179586
  0
LINE
  5
127D
330
1A
100
AcDbEntity
  8
SEIHIN
100
AcDbLine
 10
257.7387882333159
 20
200.3204640306057
 30
0.0
 11
257.7387882333159
 21
214.8204640306057
 31
0.0
  0
ELLIPSE
  5
1285
330
1A
100
AcDbEntity
  8
SEIHIN
100
AcDbEllipse
 10
265.5745724078482
 20
200.3204640306057
 30
0.0
 11
0.0
 21
-3.300000000000011
 31
0.0
210
0.0
220
0.0
230
1.0
 40
0.6445016911300838
 41
0.0
 42
6.283185307179586
  0
ELLIPSE
  5
1289
330
1A
100
AcDbEntity
  8
SEIHIN
100
AcDbEllipse
 10
260.8731018967358
 20
200.3204640306057
 30
0.0
 11
0.0
 21
-2.099999999999994
 31
0.0
210
0.0
220
0.0
230
1.0
 40
0.7569260310350522
 41
0.0
 42
6.283185307179586
  0
ELLIPSE
  5
128A
330
1A
100
AcDbEntity
  8
SEIHIN
100
AcDbEllipse
 10
270.2760429189605
 20
200.3204640306057
 30
0.0
 11
0.0
 21
-2.099999999999994
 31
0.0
210
0.0
220
0.0
230
1.0
 40
0.7569260310350522
 41
0.0
 42
6.283185307179586
  0
LINE
  5
128E
330
1A
100
AcDbEntity
  8
CENTER_L
100
AcDbLine
 10
260.8731018967358
 20
194.2204640306057
 30
0.0
 11
260.8731018967358
 21
206.419924800368
 31
0.0
  0
LINE
  5
128F
330
1A
100
AcDbEntity
  8
SEIHIN
100
AcDbLine
 10
272.3255968142036
 20
228.8204640306056
 30
0.0
 11
246.6999927333159
 21
228.8204640306056
 31
0.0
  0
LINE
  5
1290
330
1A
100
AcDbEntity
  8
SEIHIN
100
AcDbLine
 10
272.3255968142036
 20
215.8204640306057
 30
0.0
 11
246.6999927333159
 21
215.8204640306057
 31
0.0
  0
LINE
  5
1291
330
1A
100
AcDbEntity
  8
SEIHIN
100
AcDbLine
 10
272.9103562333159
 20
215.3204640306057
 30
0.0
 11
254.329851313534
 21
215.3204640306057
 31
0.0
  0
LINE
  5
1292
330
1A
100
AcDbEntity
  8
SEIHIN
100
AcDbLine
 10
272.9103562333159
 20
229.3204640306057
 30
0.0
 11
254.329851313534
 21
229.3204640306057
 31
0.0
  0
LINE
  5
1293
330
1A
100
AcDbEntity
  8
SEIHIN
100
AcDbLine
 10
256.120618833316
 20
230.8204640306056
 30
0.0
 11
252.9886199333159
 21
230.8204640306056
 31
0.0
  0
LINE
  5
1294
330
1A
100
AcDbEntity
  8
SEIHIN
100
AcDbLine
 10
256.120618833316
 20
213.8204640306056
 30
0.0
 11
252.9886199333159
 21
213.8204640306057
 31
0.0
  0
LINE
  5
1295
330
1A
100
AcDbEntity
  8
SEIHIN
100
AcDbLine
 10
252.4886199333159
 20
214.3204640306056
 30
0.0
 11
252.4886199333159
 21
215.8204640306057
 31
0.0
  0
ARC
  5
1296
330
1A
100
AcDbEntity
  8
SEIHIN
100
AcDbCircle
 10
252.9886199333158
 20
214.3204640306056
 30
0.0
 40
0.5
100
AcDbArc
 50
179.9999999999934
 51
270.0000000000065
  0
ARC
  5
1297
330
1A
100
AcDbEntity
  8
SEIHIN
100
AcDbCircle
 10
252.9886199333158
 20
230.3204640306057
 30
0.0
 40
0.5
100
AcDbArc
 50
89.99999999999349
 51
180.0000000000032
  0
ARC
  5
129B
330
1A
100
AcDbEntity
  8
SEIHIN
100
AcDbCircle
 10
256.120618833316
 20
231.3204640306056
 30
0.0
 40
0.5
100
AcDbArc
 50
269.9999999999934
 51
0.0000000000065138
  0
ARC
  5
129C
330
1A
100
AcDbEntity
  8
SEIHIN
100
AcDbCircle
 10
257.2387882333159
 20
229.8204640306057
 30
0.0
 40
0.5
100
AcDbArc
 50
270.0000000000065
 51
0.0
  0
ARC
  5
129D
330
1A
100
AcDbEntity
  8
SEIHIN
100
AcDbCircle
 10
272.910356233316
 20
229.8204640306057
 30
0.0
 40
0.5
100
AcDbArc
 50
269.9999999999934
 51
359.9999999999967
  0
ARC
  5
129E
330
1A
100
AcDbEntity
  8
SEIHIN
100
AcDbCircle
 10
256.120618833316
 20
213.3204640306056
 30
0.0
 40
0.5
100
AcDbArc
 50
0.0
 51
90.0
  0
ARC
  5
129F
330
1A
100
AcDbEntity
  8
SEIHIN
100
AcDbCircle
 10
257.2387882333159
 20
214.8204640306057
 30
0.0
 40
0.5
100
AcDbArc
 50
0.0
 51
90.0
  0
ARC
  5
12A0
330
1A
100
AcDbEntity
  8
SEIHIN
100
AcDbCircle
 10
272.9103562333159
 20
214.8204640306057
 30
0.0
 40
0.5
100
AcDbArc
 50
0.0
 51
90.0
  0
LINE
  5
12A1
330
1A
100
AcDbEntity
  8
SEIHIN
100
AcDbLine
 10
252.4886199333159
 20
228.8204640306056
 30
0.0
 11
252.4886199333159
 21
230.3204640306057
 31
0.0
  0
LINE
  5
12A2
330
1A
100
AcDbEntity
  8
SEIHIN
100
AcDbLine
 10
253.1058676068803
 20
228.8204640306056
 30
0.0
 11
253.1058676068804
 21
215.8204640306057
 31
0.0
  0
ARC
  5
12A3
330
1A
100
AcDbEntity
  8
SEIHIN
100
AcDbCircle
 10
254.329851313534
 20
228.8204640306056
 30
0.0
 40
0.5
100
AcDbArc
 50
90.0
 51
180.0
  0
ARC
  5
12A5
330
1A
100
AcDbEntity
  8
SEIHIN
100
AcDbCircle
 10
254.329851313534
 20
215.8204640306056
 30
0.0
 40
0.5
100
AcDbArc
 50
179.9999999999934
 51
270.0
  0
LINE
  5
12A6
330
1A
100
AcDbEntity
  8
SEIHIN
100
AcDbLine
 10
272.3255968142036
 20
215.8204640306057
 30
0.0
 11
272.3255968142036
 21
228.8204640306056
 31
0.0
  0
LINE
  5
12A7
330
1A
100
AcDbEntity
  8
SEIHIN
100
AcDbLine
 10
268.1601879333159
 20
228.8204640306056
 30
0.0
 11
268.1601879333159
 21
229.3204640306056
 31
0.0
  0
LINE
  5
12A8
330
1A
100
AcDbEntity
  8
SEIHIN
100
AcDbLine
 10
268.1601879333161
 20
215.3204640306057
 30
0.0
 11
268.160187933316
 21
215.8204640306057
 31
0.0
  0
LINE
  5
12AA
330
1A
100
AcDbEntity
  8
CENTER_L
100
AcDbLine
 10
273.6668281944217
 20
244.3204640306057
 30
0.0
 11
257.7387882333159
 21
244.3204640306057
 31
0.0
  0
LINE
  5
12AB
330
1A
100
AcDbEntity
  8
SEIHIN
100
AcDbLine
 10
273.4103562333159
 20
244.3204640306057
 30
0.0
 11
273.4103562333159
 21
229.8204640306057
 31
0.0
  0
LINE
  5
12AC
330
1A
100
AcDbEntity
  8
SEIHIN
100
AcDbLine
 10
257.7387882333159
 20
244.3204640306057
 30
0.0
 11
257.7387882333159
 21
229.8204640306057
 31
0.0
  0
LINE
  5
12AD
330
1A
100
AcDbEntity
  8
SEIHIN
100
AcDbLine
 10
256.620618833316
 20
244.3204640306057
 30
0.0
 11
256.620618833316
 21
231.3204640306057
 31
0.0
  0
LINE
  5
12AE
330
1A
100
AcDbEntity
  8
CENTER_L
100
AcDbLine
 10
260.8731018967358
 20
250.4204640306056
 30
0.0
 11
260.8731018967358
 21
238.2210032608434
 31
0.0
  0
LINE
  5
12AF
330
1A
100
AcDbEntity
  8
CENTER_L
100
AcDbLine
 10
265.5745724078482
 20
237.0204647311109
 30
0.0
 11
265.5745724078482
 21
251.6204640306057
 31
0.0
  0
LINE
  5
12B0
330
1A
100
AcDbEntity
  8
CENTER_L
100
AcDbLine
 10
270.2760429189605
 20
250.4204640306056
 30
0.0
 11
270.2760429189605
 21
238.2210032608434
 31
0.0
  0
ELLIPSE
  5
12B1
330
1A
100
AcDbEntity
  8
SEIHIN
100
AcDbEllipse
 10
270.2760429189605
 20
244.3204640306057
 30
0.0
 11
0.0
 21
2.099999999999994
 31
0.0
210
0.0
220
0.0
230
-1.0
 40
0.7569260310350522
 41
0.0
 42
6.283185307179586
  0
ELLIPSE
  5
12B2
330
1A
100
AcDbEntity
  8
SEIHIN
100
AcDbEllipse
 10
260.8731018967358
 20
244.3204640306057
 30
0.0
 11
0.0
 21
2.099999999999994
 31
0.0
210
0.0
220
0.0
230
-1.0
 40
0.7569260310350522
 41
0.0
 42
6.283185307179586
  0
ELLIPSE
  5
12B3
330
1A
100
AcDbEntity
  8
SEIHIN
100
AcDbEllipse
 10
265.5745724078482
 20
244.3204640306057
 30
0.0
 11
0.0
 21
3.300000000000011
 31
0.0
210
0.0
220
0.0
230
-1.0
 40
0.6445016911300838
 41
0.0
 42
6.283185307179586
  0
LINE
  5
12B4
330
1A
100
AcDbEntity
  8
SEIHIN
100
AcDbLine
 10
271.3954407863803
 20
250.3204640306057
 30
0.0
 11
258.6355342802516
 21
250.3204640306057
 31
0.0
  0
ELLIPSE
  5
12B5
330
1A
100
AcDbEntity
  8
SEIHIN
100
AcDbEllipse
 10
258.6355342802516
 20
244.3204640306057
 30
0.0
 11
0.0
 21
6.0
 31
0.0
210
0.0
220
0.0
230
-1.0
 40
0.3358192411559362
 41
4.712388980384689
 42
6.283185307179586
  0
ELLIPSE
  5
12B6
330
1A
100
AcDbEntity
  8
SEIHIN
100
AcDbEllipse
 10
259.7537036802516
 20
244.3204640306057
 30
0.0
 11
0.0
 21
6.0
 31
0.0
210
0.0
220
0.0
230
-1.0
 40
0.3358192411559362
 41
4.712388980384689
 42
6.283185307179586
  0
ELLIPSE
  5
12B7
330
1A
100
AcDbEntity
  8
SEIHIN
100
AcDbEllipse
 10
271.3954407863803
 20
244.3204640306057
 30
0.0
 11
0.0
 21
6.0
 31
0.0
210
0.0
220
0.0
230
-1.0
 40
0.3358192411559362
 41
6.283185307179586
 42
7.853981633974482
  0
LINE
  5
1395
330
1A
100
AcDbEntity
  8
CENTER_L
100
AcDbLine
 10
51.09980283532593
 20
162.9523663360348
 30
0.0
 11
51.09980283532593
 21
55.25236633603481
 31
0.0
  0
ELLIPSE
  5
139F
330
1A
100
AcDbEntity
  8
SEIHIN
100
AcDbEllipse
 10
76.09980283532593
 20
96.50269630868901
 30
0.0
 11
3.0
 21
0.0
 31
0.0
210
0.0
220
0.0
230
1.0
 40
0.9262995559913159
 41
6.283185307179586
 42
7.853981633974482
  0
ELLIPSE
  5
13A1
330
1A
100
AcDbEntity
  8
SEIHIN
100
AcDbEllipse
 10
76.09980283532593
 20
95.83105765352195
 30
0.0
 11
3.0
 21
0.0
 31
0.0
210
0.0
220
0.0
230
1.0
 40
0.9262995559913159
 41
6.527294875805655
 42
7.853981633974482
  0
ELLIPSE
  5
13A5
330
1A
100
AcDbEntity
  8
SEIHIN
100
AcDbEllipse
 10
76.09980283532593
 20
70.05547150400882
 30
0.0
 11
3.0
 21
0.0
 31
0.0
210
0.0
220
0.0
230
-1.0
 40
0.9262995559913159
 41
6.283185307179586
 42
7.853981633974482
  0
LINE
  5
13A6
330
1A
100
AcDbEntity
  8
SEIHIN
100
AcDbLine
 10
76.09980283532593
 20
98.6099563214959
 30
0.0
 11
62.09980283532593
 21
98.6099563214959
 31
0.0
  0
LINE
  5
13A7
330
1A
100
AcDbEntity
  8
SEIHIN
100
AcDbLine
 10
76.09980283532593
 20
99.28159497666296
 30
0.0
 11
62.09980283532593
 21
99.28159497666298
 31
0.0
  0
LINE
  5
13AB
330
1A
100
AcDbEntity
  8
SEIHIN
100
AcDbLine
 10
23.09980283532593
 20
70.05547150400882
 30
0.0
 11
23.09980283532593
 21
96.50269630868901
 31
0.0
  0
LINE
  5
13AC
330
1A
100
AcDbEntity
  8
SEIHIN
100
AcDbLine
 10
26.09980283532593
 20
99.28159497666296
 30
0.0
 11
40.09980283532593
 21
99.28159497666298
 31
0.0
  0
LINE
  5
13AD
330
1A
100
AcDbEntity
  8
SEIHIN
100
AcDbLine
 10
26.09980283532593
 20
98.6099563214959
 30
0.0
 11
40.09980283532593
 21
98.6099563214959
 31
0.0
  0
ELLIPSE
  5
13AE
330
1A
100
AcDbEntity
  8
SEIHIN
100
AcDbEllipse
 10
26.09980283532593
 20
96.50269630868901
 30
0.0
 11
-3.0
 21
0.0
 31
0.0
210
0.0
220
0.0
230
-1.0
 40
0.9262995559913159
 41
6.283185307179586
 42
7.853981633974482
  0
ELLIPSE
  5
13AF
330
1A
100
AcDbEntity
  8
SEIHIN
100
AcDbEllipse
 10
26.09980283532593
 20
95.83105765352195
 30
0.0
 11
-3.0
 21
0.0
 31
0.0
210
0.0
220
0.0
230
-1.0
 40
0.9262995559913159
 41
6.527294875805655
 42
7.853981633974482
  0
ELLIPSE
  5
13B1
330
1A
100
AcDbEntity
  8
SEIHIN
100
AcDbEllipse
 10
26.09980283532593
 20
70.05547150400882
 30
0.0
 11
-3.0
 21
0.0
 31
0.0
210
0.0
220
0.0
230
1.0
 40
0.9262995559913159
 41
6.283185307179586
 42
7.853981633974482
  0
LINE
  5
13B2
330
1A
100
AcDbEntity
  8
SEIHIN
100
AcDbLine
 10
40.09980283532587
 20
122.0023663360348
 30
0.0
 11
40.09980283532593
 21
68.75236633603482
 31
0.0
  0
LINE
  5
13B6
330
1A
100
AcDbEntity
  8
SEIHIN
100
AcDbLine
 10
76.09980283532593
 20
67.27657283603488
 30
0.0
 11
59.89220533532591
 21
67.27657283603488
 31
0.0
  0
LINE
  5
13B7
330
1A
100
AcDbEntity
  8
SEIHIN
100
AcDbLine
 10
26.09980283532593
 20
67.27657283603488
 30
0.0
 11
42.30740033532595
 21
67.27657283603488
 31
0.0
  0
DIMENSION
  5
13B8
330
1A
100
AcDbEntity
  8
SUNPOU
100
AcDbDimension
  2
*D7
 10
286.9149380035787
 20
74.74878779498323
 30
0.0
 11
281.3145394451328
 21
91.51588451597127
 31
0.0
 70
    33
  3
STANDARD
100
AcDbAlignedDimension
 13
257.7387883131233
 23
99.281594976663
 33
0.0
 14
273.4103565930354
 24
67.98619701616896
 34
0.0
1001
ACAD
1000
DSTYLE
1002
{
1070
    41
1040
3.0
1070
    42
1040
3.0
1070
    43
1040
7.0
1070
    44
1040
1.5
1070
    73
1070
     0
1070
    74
1070
     0
1070
    77
1070
     3
1070
   140
1040
3.0
1070
   141
1040
3.0
1070
   147
1040
1.0
1070
   172
1070
     1
1070
   173
1070
     1
1070
   176
1070
   256
1070
   177
1070
   256
1070
   178
1070
   256
1070
   271
1070
     0
1070
   272
1070
     0
1070
   341
1005
B2
1070
     6
1000
OPEN
1070
     7
1000
OPEN
1002
}
  0
LINE
  5
13FF
330
1A
100
AcDbEntity
  8
SEIHIN
100
AcDbLine
 10
252.4886209949896
 20
96.65250724421818
 30
0.0
 11
257.7387883131233
 21
99.28159497666294
 31
0.0
  0
DIMENSION
  5
1444
330
1A
100
AcDbEntity
  8
SUNPOU
100
AcDbDimension
  2
*D8
 10
99.68790479592961
 20
211.3204640306057
 30
0.0
 11
97.18790479592959
 21
222.3204640306057
 31
0.0
 70
    32
  3
STANDARD
100
AcDbAlignedDimension
 13
123.2999927333159
 23
233.3204640306056
 33
0.0
 14
123.2999927333159
 24
211.3204640306057
 34
0.0
 50
90.0
100
AcDbRotatedDimension
1001
ACAD
1000
DSTYLE
1002
{
1070
    41
1040
3.0
1070
    42
1040
3.0
1070
    43
1040
7.0
1070
    44
1040
1.5
1070
    73
1070
     0
1070
    74
1070
     0
1070
    77
1070
     3
1070
   140
1040
3.0
1070
   141
1040
3.0
1070
   147
1040
1.0
1070
   172
1070
     1
1070
   173
1070
     1
1070
   176
1070
   256
1070
   177
1070
   256
1070
   178
1070
   256
1070
   271
1070
     0
1070
   272
1070
     0
1070
   341
1005
B2
1070
     6
1000
OPEN
1070
     7
1000
OPEN
1002
}
  0
DIMENSION
  5
1451
330
1A
100
AcDbEntity
  8
SUNPOU
100
AcDbDimension
  2
*D9
 10
292.5227640529283
 20
194.3204640306056
 30
0.0
 11
290.0227640529282
 21
222.3204640306057
 31
0.0
 70
    32
  3
STANDARD
100
AcDbAlignedDimension
 13
271.3954407863803
 23
250.3204640306057
 33
0.0
 14
271.3954407863803
 24
194.3204640306056
 34
0.0
 50
90.0
100
AcDbRotatedDimension
1001
ACAD
1000
DSTYLE
1002
{
1070
    41
1040
3.0
1070
    42
1040
3.0
1070
    43
1040
7.0
1070
    44
1040
1.5
1070
    73
1070
     0
1070
    74
1070
     0
1070
    77
1070
     3
1070
   140
1040
3.0
1070
   141
1040
3.0
1070
   147
1040
1.0
1070
   172
1070
     1
1070
   173
1070
     1
1070
   176
1070
   256
1070
   177
1070
   256
1070
   178
1070
   256
1070
   271
1070
     0
1070
   272
1070
     0
1070
   341
1005
B2
1070
     6
1000
OPEN
1070
     7
1000
OPEN
1002
}
  0
DIMENSION
  5
145E
330
1A
100
AcDbEntity
  8
SUNPOU
100
AcDbDimension
  2
*D10
 10
244.4353725940327
 20
143.9086014875096
 30
0.0
 11
251.087080453578
 21
146.4086014875095
 31
0.0
 70
    32
  3
STANDARD
100
AcDbAlignedDimension
 13
257.7387883131233
 23
99.28159497666294
 33
0.0
 14
244.4353725940327
 24
123.0898663235855
 34
0.0
100
AcDbRotatedDimension
1001
ACAD
1000
DSTYLE
1002
{
1070
    41
1040
3.0
1070
    42
1040
3.0
1070
    43
1040
7.0
1070
    44
1040
1.5
1070
    73
1070
     0
1070
    74
1070
     0
1070
    77
1070
     3
1070
   140
1040
3.0
1070
   141
1040
3.0
1070
   147
1040
1.0
1070
   172
1070
     1
1070
   173
1070
     1
1070
   176
1070
   256
1070
   177
1070
   256
1070
   178
1070
   256
1070
   271
1070
     0
1070
   272
1070
     0
1070
   341
1005
B2
1070
     6
1000
OPEN
1070
     7
1000
OPEN
1002
}
  0
DIMENSION
  5
146B
330
1A
100
AcDbEntity
  8
SUNPOU
100
AcDbDimension
  2
*D11
 10
123.2999927333159
 20
172.8301211960719
 30
0.0
 11
190.5193905232196
 21
175.3301211960718
 31
0.0
 70
    32
  3
STANDARD
100
AcDbAlignedDimension
 13
257.7387883131233
 23
99.281594976663
 33
0.0
 14
123.2999927333159
 24
155.9523663360348
 34
0.0
100
AcDbRotatedDimension
1001
ACAD
1000
DSTYLE
1002
{
1070
    41
1040
3.0
1070
    42
1040
3.0
1070
    43
1040
7.0
1070
    44
1040
1.5
1070
    73
1070
     0
1070
    74
1070
     0
1070
    77
1070
     3
1070
   140
1040
3.0
1070
   141
1040
3.0
1070
   147
1040
1.0
1070
   172
1070
     1
1070
   173
1070
     1
1070
   176
1070
   256
1070
   177
1070
   256
1070
   178
1070
   256
1070
   271
1070
     0
1070
   272
1070
     0
1070
   341
1005
B2
1070
     6
1000
OPEN
1070
     7
1000
OPEN
1002
}
  0
DIMENSION
  5
1478
330
1A
100
AcDbEntity
  8
SUNPOU
100
AcDbDimension
  2
*D12
 10
99.68790479592959
 20
67.98619683551972
 30
0.0
 11
97.18790479592957
 21
87.96928158577733
 31
0.0
 70
    32
  3
STANDARD
100
AcDbAlignedDimension
 13
125.4999927333159
 23
107.9523663360348
 33
0.0
 14
273.4103566834979
 24
67.98619683551968
 34
0.0
 50
90.0
100
AcDbRotatedDimension
1001
ACAD
1000
DSTYLE
1002
{
1070
    41
1040
3.0
1070
    42
1040
3.0
1070
    43
1040
7.0
1070
    44
1040
1.5
1070
    73
1070
     0
1070
    74
1070
     0
1070
    77
1070
     3
1070
   140
1040
3.0
1070
   141
1040
3.0
1070
   147
1040
1.0
1070
   172
1070
     1
1070
   173
1070
     1
1070
   176
1070
   256
1070
   177
1070
   256
1070
   178
1070
   256
1070
   271
1070
     0
1070
   272
1070
     0
1070
   341
1005
B2
1070
     6
1000
OPEN
1070
     7
1000
OPEN
1002
}
  0
LEADER
  5
14BF
330
1A
100
AcDbEntity
  8
SUNPOU
100
AcDbLeader
  3
STANDARD
 73
     0
 40
3.0
 41
15.59999999999999
 76
     3
 10
313.0216812555008
 20
120.7372744203852
 30
0.0
 10
294.6471014911939
 20
135.6237005180756
 30
0.0
 10
292.7449110881125
 20
135.6237005180756
 30
0.0
340
14C0
213
0.0
223
1.5
233
0.0
1001
ACAD
1000
DSTYLE
1002
{
1070
     6
1000
OPEN
1070
    41
1040
3.0
1070
    42
1040
3.0
1070
    43
1040
7.0
1070
    44
1040
1.5
1070
    73
1070
     0
1070
    74
1070
     0
1070
    77
1070
     0
1070
   140
1040
3.0
1070
   141
1040
3.0
1070
   147
1040
1.0
1070
   172
1070
     1
1070
   173
1070
     1
1070
   176
1070
   256
1070
   177
1070
   256
1070
   178
1070
   256
1070
   271
1070
     0
1070
   272
1070
     0
1070
   341
1005
B2
1070
   343
1005
B2
1070
   344
1005
B2
1002
}
  0
MTEXT
  5
14C0
102
{ACAD_REACTORS
330
14BF
102
}
330
1A
100
AcDbEntity
  8
SUNPOU
100
AcDbMText
 10
291.7449110881125
 20
134.1237005180756
 30
0.0
 40
3.0
 41
0.0
 71
     9
 72
     5
  1
\A1;4-φ4.2
1001
ACAD
1000
MTEXTBEGIN
1070
    73
1070
     1
1070
    44
1040
1.0
1070
    74
1070
     0
1000
MTEXTEND
1000
MTEXTBEGIN
1070
    73
1070
     1
1070
    44
1040
1.0
1070
    74
1070
     0
1000
MTEXTEND
1000
MTEXTBEGIN
1070
    73
1070
     1
1070
    44
1040
1.0
1070
    74
1070
     0
1000
MTEXTEND
1000
MTEXTBEGIN
1070
    73
1070
     1
1070
    44
1040
1.0
1070
    74
1070
     0
1000
MTEXTEND
1000
MTEXTBEGIN
1070
    73
1070
     1
1070
    44
1040
1.0
1070
    74
1070
     0
1000
MTEXTEND
1000
MTEXTBEGIN
1070
    73
1070
     1
1070
    44
1040
1.0
1070
    74
1070
     0
1000
MTEXTEND
1000
MTEXTBEGIN
1070
    73
1070
     1
1070
    44
1040
1.0
1070
    74
1070
     0
1000
MTEXTEND
1000
MTEXTBEGIN
1070
    73
1070
     1
1070
    44
1040
1.0
1070
    74
1070
     0
1000
MTEXTEND
1000
MTEXTBEGIN
1070
    73
1070
     1
1070
    44
1040
1.0
1070
    74
1070
     0
1000
MTEXTEND
  0
LEADER
  5
14C1
330
1A
100
AcDbEntity
  8
SUNPOU
100
AcDbLeader
  3
STANDARD
 73
     0
 40
3.0
 41
15.59999999999999
 76
     3
 10
361.9139586040675
 20
128.9501721812078
 30
0.0
 10
372.3047029224289
 20
124.7809423579898
 30
0.0
 10
374.0605733976799
 20
124.7809423579898
 30
0.0
340
14C2
213
0.0
223
-1.5
233
0.0
1001
ACAD
1000
DSTYLE
1002
{
1070
     6
1000
OPEN
1070
    41
1040
3.0
1070
    42
1040
3.0
1070
    43
1040
7.0
1070
    44
1040
1.5
1070
    73
1070
     0
1070
    74
1070
     0
1070
    77
1070
     0
1070
   140
1040
3.0
1070
   141
1040
3.0
1070
   147
1040
1.0
1070
   172
1070
     1
1070
   173
1070
     1
1070
   176
1070
   256
1070
   177
1070
   256
1070
   178
1070
   256
1070
   271
1070
     0
1070
   272
1070
     0
1070
   341
1005
B2
1070
   343
1005
B2
1070
   344
1005
B2
1002
}
  0
MTEXT
  5
14C2
102
{ACAD_REACTORS
330
14C1
102
}
330
1A
100
AcDbEntity
  8
SUNPOU
100
AcDbMText
 10
375.0605733976799
 20
126.2809423579898
 30
0.0
 40
3.0
 41
0.0
 71
     1
 72
     5
  1
\A1;2-φ6.6
1001
ACAD
1000
MTEXTBEGIN
1070
    73
1070
     1
1070
    44
1040
1.0
1070
    74
1070
     0
1000
MTEXTEND
1000
MTEXTBEGIN
1070
    73
1070
     1
1070
    44
1040
1.0
1070
    74
1070
     0
1000
MTEXTEND
1000
MTEXTBEGIN
1070
    73
1070
     1
1070
    44
1040
1.0
1070
    74
1070
     0
1000
MTEXTEND
1000
MTEXTBEGIN
1070
    73
1070
     1
1070
    44
1040
1.0
1070
    74
1070
     0
1000
MTEXTEND
1000
MTEXTBEGIN
1070
    73
1070
     1
1070
    44
1040
1.0
1070
    74
1070
     0
1000
MTEXTEND
1000
MTEXTBEGIN
1070
    73
1070
     1
1070
    44
1040
1.0
1070
    74
1070
     0
1000
MTEXTEND
1000
MTEXTBEGIN
1070
    73
1070
     1
1070
    44
1040
1.0
1070
    74
1070
     0
1000
MTEXTEND
1000
MTEXTBEGIN
1070
    73
1070
     1
1070
    44
1040
1.0
1070
    74
1070
     0
1000
MTEXTEND
1000
MTEXTBEGIN
1070
    73
1070
     1
1070
    44
1040
1.0
1070
    74
1070
     0
1000
MTEXTEND
  0
LINE
  5
1566
330
1A
100
AcDbEntity
  8
SEIHIN
100
AcDbLine
 10
336.8945773854427
 20
109.8421014592719
 30
0.0
 11
336.0017871342831
 21
107.1582747943334
 31
0.0
  0
LINE
  5
1567
330
1A
100
AcDbEntity
  8
SEIHIN
100
AcDbLine
 10
336.0017871342831
 20
107.1582747943334
 30
0.0
 11
338.6856137992215
 21
106.2654845431739
 31
0.0
  0
LINE
  5
1568
330
1A
100
AcDbEntity
  8
SEIHIN
100
AcDbLine
 10
336.0017871342831
 20
107.1582747943334
 30
0.0
 11
337.7900955923322
 21
108.0537930012229
 31
0.0
  0
LINE
  5
1569
330
1A
100
AcDbEntity
  8
SEIHIN
100
AcDbLine
 10
326.5988459619443
 20
125.9355136038479
 30
0.0
 11
328.3871544199933
 21
126.8310318107373
 31
0.0
  0
LINE
  5
156A
330
1A
100
AcDbEntity
  8
SEIHIN
100
AcDbLine
 10
327.4916362131039
 20
128.6193402687863
 30
0.0
 11
326.5988459619443
 21
125.9355136038479
 31
0.0
  0
LINE
  5
156B
330
1A
100
AcDbEntity
  8
SEIHIN
100
AcDbLine
 10
326.5988459619443
 20
125.9355136038479
 30
0.0
 11
329.2826726268827
 21
125.0427233526883
 31
0.0
  0
LINE
  5
156C
330
1A
100
AcDbEntity
  8
SEIHIN
100
AcDbLine
 10
342.6936220843846
 20
133.9951774658524
 30
0.0
 11
341.800831833225
 21
131.311350800914
 31
0.0
  0
LINE
  5
156D
330
1A
100
AcDbEntity
  8
SEIHIN
100
AcDbLine
 10
340.0097954194462
 20
134.887967717012
 30
0.0
 11
342.6936220843846
 21
133.9951774658524
 31
0.0
  0
LINE
  5
156E
330
1A
100
AcDbEntity
  8
SEIHIN
100
AcDbLine
 10
342.6936220843846
 20
133.9951774658524
 30
0.0
 11
340.9053136263356
 21
133.099659258963
 31
0.0
  0
LINE
  5
156F
330
1A
100
AcDbEntity
  8
SEIHIN
100
AcDbLine
 10
352.0965632567237
 20
115.2179386563381
 30
0.0
 11
350.3082547986747
 21
114.3224204494487
 31
0.0
  0
LINE
  5
1570
330
1A
100
AcDbEntity
  8
SEIHIN
100
AcDbLine
 10
349.4127365917853
 20
116.1107289074977
 30
0.0
 11
352.0965632567237
 21
115.2179386563381
 31
0.0
  0
LINE
  5
1571
330
1A
100
AcDbEntity
  8
SEIHIN
100
AcDbLine
 10
352.0965632567237
 20
115.2179386563381
 30
0.0
 11
351.2037730055642
 21
112.5341119913997
 31
0.0
  0
LINE
  5
1575
330
1A
100
AcDbEntity
  8
SEIHIN
100
AcDbLine
 10
267.5915342865346
 20
76.25610068704286
 30
0.0
 11
266.2523488883503
 21
72.23036067889646
 31
0.0
  0
LINE
  5
1576
330
1A
100
AcDbEntity
  8
SEIHIN
100
AcDbLine
 10
266.2523488883503
 20
72.23036067889646
 30
0.0
 11
270.278088864313
 21
70.89117529141829
 31
0.0
  0
LINE
  5
1577
330
1A
100
AcDbEntity
  8
SEIHIN
100
AcDbLine
 10
266.2523488883503
 20
72.23036067889643
 30
0.0
 11
268.9348115754238
 21
73.57363798923057
 31
0.0
  0
LINE
  5
1578
330
1A
100
AcDbEntity
  8
SEIHIN
100
AcDbLine
 10
256.8494078661256
 20
91.00759956358244
 30
0.0
 11
259.5318705531991
 21
92.35087687391658
 31
0.0
  0
LINE
  5
1579
330
1A
100
AcDbEntity
  8
SEIHIN
100
AcDbLine
 10
256.8494078661256
 20
91.00759956358245
 30
0.0
 11
260.8751478420884
 21
89.6684141761043
 31
0.0
  0
LINE
  5
157A
330
1A
100
AcDbEntity
  8
SEIHIN
100
AcDbLine
 10
258.1885932643099
 20
95.03333957172886
 30
0.0
 11
256.8494078661256
 21
91.00759956358245
 31
0.0
  0
LINE
  5
1580
330
1A
100
AcDbEntity
  8
SEIHIN
100
AcDbLine
 10
259.8731018967358
 20
215.3204640306057
 30
0.0
 11
260.8731018967358
 21
213.3204640306057
 31
0.0
  0
LINE
  5
1581
330
1A
100
AcDbEntity
  8
SEIHIN
100
AcDbLine
 10
260.8731018967358
 20
213.3204640306057
 30
0.0
 11
261.8731018967358
 21
215.3204640306057
 31
0.0
  0
LINE
  5
1582
330
1A
100
AcDbEntity
  8
SEIHIN
100
AcDbLine
 10
270.2760429189605
 20
213.3204640306057
 30
0.0
 11
271.2760429189605
 21
215.3204640306057
 31
0.0
  0
LINE
  5
1583
330
1A
100
AcDbEntity
  8
SEIHIN
100
AcDbLine
 10
269.2760429189605
 20
215.3204640306057
 30
0.0
 11
270.2760429189605
 21
213.3204640306057
 31
0.0
  0
LINE
  5
1584
330
1A
100
AcDbEntity
  8
SEIHIN
100
AcDbLine
 10
260.8731018967358
 20
231.3204640306057
 30
0.0
 11
261.8731018967358
 21
229.3204640306057
 31
0.0
  0
LINE
  5
1585
330
1A
100
AcDbEntity
  8
SEIHIN
100
AcDbLine
 10
259.8731018967358
 20
229.3204640306057
 30
0.0
 11
260.8731018967358
 21
231.3204640306057
 31
0.0
  0
LINE
  5
1586
330
1A
100
AcDbEntity
  8
SEIHIN
100
AcDbLine
 10
269.2760429189605
 20
229.3204640306057
 30
0.0
 11
270.2760429189605
 21
231.3204640306057
 31
0.0
  0
LINE
  5
1587
330
1A
100
AcDbEntity
  8
SEIHIN
100
AcDbLine
 10
270.2760429189605
 20
231.3204640306057
 30
0.0
 11
271.2760429189605
 21
229.3204640306057
 31
0.0
  0
LINE
  5
1590
330
1A
100
AcDbEntity
  8
SEIHIN
100
AcDbLine
 10
62.09980283532593
 20
92.07093504585087
 30
0.0
 11
62.89220533532594
 21
91.00759956358244
 31
0.0
  0
LINE
  5
1591
330
1A
100
AcDbEntity
  8
SEIHIN
100
AcDbLine
 10
62.89220533532594
 20
91.00759956358244
 30
0.0
 11
62.09980283532593
 21
90.65387494724872
 31
0.0
  0
LINE
  5
1593
330
1A
100
AcDbEntity
  8
SEIHIN
100
AcDbLine
 10
62.89220533532591
 20
72.23036067889644
 30
0.0
 11
62.09980283532593
 21
71.87663606256272
 31
0.0
  0
LINE
  5
1594
330
1A
100
AcDbEntity
  8
SEIHIN
100
AcDbLine
 10
62.09980283532593
 20
73.2936961611648
 30
0.0
 11
62.89220533532591
 21
72.23036067889644
 31
0.0
  0
LINE
  5
1595
330
1A
100
AcDbEntity
  8
SEIHIN
100
AcDbLine
 10
40.09980283532593
 20
73.2936961611648
 30
0.0
 11
39.30740033532595
 21
72.23036067889644
 31
0.0
  0
LINE
  5
1596
330
1A
100
AcDbEntity
  8
SEIHIN
100
AcDbLine
 10
39.30740033532595
 20
72.23036067889644
 30
0.0
 11
40.09980283532593
 21
71.87663606256272
 31
0.0
  0
LINE
  5
1597
330
1A
100
AcDbEntity
  8
SEIHIN
100
AcDbLine
 10
40.09980283532593
 20
92.07093504585087
 30
0.0
 11
39.30740033532595
 21
91.00759956358244
 31
0.0
  0
LINE
  5
1598
330
1A
100
AcDbEntity
  8
SEIHIN
100
AcDbLine
 10
39.30740033532595
 20
91.00759956358244
 30
0.0
 11
40.09980283532593
 21
90.65387494724872
 31
0.0
  0
ELLIPSE
  5
1601
330
1A
100
AcDbEntity
  8
SEIHIN
100
AcDbEllipse
 10
269.1578735189606
 20
200.3204640306057
 30
0.0
 11
0.0
 21
-2.099999999999994
 31
0.0
210
0.0
220
0.0
230
1.0
 40
0.7569260310350522
 41
6.642599932657782
 42
9.065363335291182
  0
ELLIPSE
  5
1602
330
1A
100
AcDbEntity
  8
SEIHIN
100
AcDbEllipse
 10
264.4564030078482
 20
200.3204640306057
 30
0.0
 11
0.0
 21
-3.300000000000011
 31
0.0
210
0.0
220
0.0
230
1.0
 40
0.6445016911300838
 41
6.549180033385613
 42
9.158783234521957
  0
ELLIPSE
  5
1603
330
1A
100
AcDbEntity
  8
SEIHIN
100
AcDbEllipse
 10
259.7549324967359
 20
200.3204640306057
 30
0.0
 11
0.0
 21
-2.099999999999994
 31
0.0
210
0.0
220
0.0
230
1.0
 40
0.7569260310350522
 41
0.3594146254781967
 42
2.782178028111596
  0
ELLIPSE
  5
1604
330
1A
100
AcDbEntity
  8
SEIHIN
100
AcDbEllipse
 10
269.1578735189606
 20
244.3204640306057
 30
0.0
 11
0.0
 21
2.099999999999994
 31
0.0
210
0.0
220
0.0
230
-1.0
 40
0.7569260310350522
 41
6.642599932657782
 42
9.065363335291182
  0
ELLIPSE
  5
1605
330
1A
100
AcDbEntity
  8
SEIHIN
100
AcDbEllipse
 10
264.4564030078482
 20
244.3204640306057
 30
0.0
 11
0.0
 21
3.300000000000011
 31
0.0
210
0.0
220
0.0
230
-1.0
 40
0.6445016911300838
 41
6.549180033385613
 42
9.158783234521957
  0
ELLIPSE
  5
1606
330
1A
100
AcDbEntity
  8
SEIHIN
100
AcDbEllipse
 10
259.7549324967359
 20
244.3204640306057
 30
0.0
 11
0.0
 21
2.099999999999994
 31
0.0
210
0.0
220
0.0
230
-1.0
 40
0.7569260310350522
 41
0.3594146254781967
 42
2.782178028111596
  0
ELLIPSE
  5
160B
330
1A
100
AcDbEntity
  8
SEIHIN
100
AcDbEllipse
 10
73.09980283532593
 20
92.35046743603483
 30
0.0
 11
-2.050000000000011
 21
0.0
 31
0.0
210
0.0
220
0.0
230
1.0
 40
0.8941542259962524
 41
0.0
 42
6.283185307179586
  0
ELLIPSE
  5
160C
330
1A
100
AcDbEntity
  8
SEIHIN
100
AcDbEllipse
 10
73.09980283532593
 20
82.9618479360348
 30
0.0
 11
-3.25
 21
0.0
 31
0.0
210
0.0
220
0.0
230
1.0
 40
0.8941542379997102
 41
0.0
 42
6.283185307179586
  0
ELLIPSE
  5
160D
330
1A
100
AcDbEntity
  8
SEIHIN
100
AcDbEllipse
 10
73.09980283532593
 20
73.34340193603482
 30
0.0
 11
-2.050000000000011
 21
0.0
 31
0.0
210
0.0
220
0.0
230
1.0
 40
0.8941542259962524
 41
0.0
 42
6.283185307179586
  0
ELLIPSE
  5
1611
330
1A
100
AcDbEntity
  8
SEIHIN
100
AcDbEllipse
 10
73.09980283532593
 20
74.01544993603478
 30
0.0
 11
-2.050000000000011
 21
0.0
 31
0.0
210
0.0
220
0.0
230
1.0
 40
0.8941542259962524
 41
0.1843601177494008
 42
2.957232535840392
  0
ELLIPSE
  5
1612
330
1A
100
AcDbEntity
  8
SEIHIN
100
AcDbEllipse
 10
73.09980283532593
 20
83.63389593603477
 30
0.0
 11
-3.25
 21
0.0
 31
0.0
210
0.0
220
0.0
230
1.0
 40
0.8941542379997102
 41
0.1158902951699501
 42
3.02570235842066
  0
ELLIPSE
  5
1613
330
1A
100
AcDbEntity
  8
SEIHIN
100
AcDbEllipse
 10
73.09980283532593
 20
93.0225154360348
 30
0.0
 11
-2.050000000000011
 21
0.0
 31
0.0
210
0.0
220
0.0
230
1.0
 40
0.8941542259962524
 41
0.1843601177494008
 42
2.957232535840392
  0
ELLIPSE
  5
1614
330
1A
100
AcDbEntity
  8
SEIHIN
100
AcDbEllipse
 10
29.09980283532593
 20
83.63389593603477
 30
0.0
 11
3.25
 21
0.0
 31
0.0
210
0.0
220
0.0
230
-1.0
 40
0.8941542379997102
 41
0.1158902951699501
 42
3.02570235842066
  0
ELLIPSE
  5
1615
330
1A
100
AcDbEntity
  8
SEIHIN
100
AcDbEllipse
 10
29.09980283532593
 20
82.9618479360348
 30
0.0
 11
3.25
 21
0.0
 31
0.0
210
0.0
220
0.0
230
-1.0
 40
0.8941542379997102
 41
0.0
 42
6.283185307179586
  0
ELLIPSE
  5
1616
330
1A
100
AcDbEntity
  8
SEIHIN
100
AcDbEllipse
 10
29.09980283532593
 20
74.01544993603478
 30
0.0
 11
2.050000000000011
 21
0.0
 31
0.0
210
0.0
220
0.0
230
-1.0
 40
0.8941542259962524
 41
0.1843601177494008
 42
2.957232535840392
  0
ELLIPSE
  5
1617
330
1A
100
AcDbEntity
  8
SEIHIN
100
AcDbEllipse
 10
29.09980283532593
 20
73.34340193603482
 30
0.0
 11
2.050000000000011
 21
0.0
 31
0.0
210
0.0
220
0.0
230
-1.0
 40
0.8941542259962524
 41
0.0
 42
6.283185307179586
  0
ELLIPSE
  5
1618
330
1A
100
AcDbEntity
  8
SEIHIN
100
AcDbEllipse
 10
29.09980283532593
 20
92.35046743603483
 30
0.0
 11
2.050000000000011
 21
0.0
 31
0.0
210
0.0
220
0.0
230
-1.0
 40
0.8941542259962524
 41
0.0
 42
6.283185307179586
  0
ELLIPSE
  5
1619
330
1A
100
AcDbEntity
  8
SEIHIN
100
AcDbEllipse
 10
29.09980283532593
 20
93.0225154360348
 30
0.0
 11
2.050000000000011
 21
0.0
 31
0.0
210
0.0
220
0.0
230
-1.0
 40
0.8941542259962524
 41
0.1843601177494008
 42
2.957232535840392
  0
LINE
  5
161A
330
1A
100
AcDbEntity
  8
CENTER_L
100
AcDbLine
 10
73.09980283532593
 20
96.35046743603481
 30
0.0
 11
73.09980283532593
 21
69.27657283603489
 31
0.0
  0
LINE
  5
161B
330
1A
100
AcDbEntity
  8
CENTER_L
100
AcDbLine
 10
77.09980283532593
 20
92.35046743603483
 30
0.0
 11
69.09980283532593
 21
92.35046743603483
 31
0.0
  0
LINE
  5
1622
330
1A
100
AcDbEntity
  8
CENTER_L
100
AcDbLine
 10
79.34980079201685
 20
82.9618479360348
 30
0.0
 11
66.84980283532593
 21
82.9618479360348
 31
0.0
  0
LINE
  5
1623
330
1A
100
AcDbEntity
  8
CENTER_L
100
AcDbLine
 10
77.09980283532593
 20
73.34340193603482
 30
0.0
 11
69.09980283532593
 21
73.34340193603482
 31
0.0
  0
LINE
  5
1625
330
1A
100
AcDbEntity
  8
CENTER_L
100
AcDbLine
 10
25.09980283532593
 20
92.35046743603483
 30
0.0
 11
33.09980283532593
 21
92.35046743603483
 31
0.0
  0
LINE
  5
1626
330
1A
100
AcDbEntity
  8
CENTER_L
100
AcDbLine
 10
22.84980487863504
 20
82.9618479360348
 30
0.0
 11
35.34980283532593
 21
82.9618479360348
 31
0.0
  0
LINE
  5
1627
330
1A
100
AcDbEntity
  8
CENTER_L
100
AcDbLine
 10
25.09980283532593
 20
73.34340193603482
 30
0.0
 11
33.09980283532593
 21
73.34340193603482
 31
0.0
  0
LINE
  5
1628
330
1A
100
AcDbEntity
  8
CENTER_L
100
AcDbLine
 10
29.09980283532593
 20
96.35046743603481
 30
0.0
 11
29.09980283532593
 21
69.27657283603489
 31
0.0
  0
LINE
  5
182C
330
1A
100
AcDbEntity
  8
ZUWAKU
100
AcDbLine
 10
104.3233003079923
 20
7.599999732511943
 30
0.0
 11
223.712181648454
 21
7.599999732511939
 31
0.0
  0
LINE
  5
182D
330
1A
100
AcDbEntity
  8
ZUWAKU
100
AcDbLine
 10
104.3233003079923
 20
7.79999973251194
 30
0.0
 11
223.712181648454
 21
7.799999732511944
 31
0.0
  0
LINE
  5
182E
330
1A
100
AcDbEntity
  8
ZUWAKU
100
AcDbLine
 10
104.3233003079923
 20
7.69999973251194
 30
0.0
 11
223.712181648454
 21
7.69999973251194
 31
0.0
  0
LINE
  5
182F
330
1A
100
AcDbEntity
  8
ZUWAKU
100
AcDbLine
 10
-0.0000003370416835
 20
15.39999973251193
 30
0.0
 11
398.6999996629582
 21
15.39999973251193
 31
0.0
  0
LINE
  5
1830
330
1A
100
AcDbEntity
  8
ZUWAKU
100
AcDbLine
 10
-0.0000003370416835
 20
15.29999973251192
 30
0.0
 11
398.6999996629582
 21
15.29999973251192
 31
0.0
  0
LINE
  5
1831
330
1A
100
AcDbEntity
  8
ZUWAKU
100
AcDbLine
 10
-0.0000003370416835
 20
15.19999973251192
 30
0.0
 11
398.6999996629582
 21
15.19999973251192
 31
0.0
  0
LINE
  5
1832
330
1A
100
AcDbEntity
  8
ZUWAKU
100
AcDbLine
 10
-0.0000003370416835
 20
15.09999973251192
 30
0.0
 11
398.6999996629582
 21
15.09999973251192
 31
0.0
  0
LINE
  5
1833
330
1A
100
AcDbEntity
  8
ZUWAKU
100
AcDbLine
 10
-0.0000003370416835
 20
14.99999973251192
 30
0.0
 11
398.6999996629582
 21
14.99999973251192
 31
0.0
  0
LWPOLYLINE
  5
1834
330
1A
100
AcDbEntity
  8
ZUWAKU
100
AcDbPolyline
 90
        4
 70
     1
 43
0.0
 10
0.0999996629582825
 20
275.6999997325119
 10
0.0999996629582825
 20
0.0999997325119466
 10
398.6999996629582
 20
0.0999997325119582
 10
398.6999996629583
 20
275.6999997325119
  0
LWPOLYLINE
  5
1835
330
1A
100
AcDbEntity
  8
ZUWAKU
100
AcDbPolyline
 90
        4
 70
     1
 43
0.0
 10
0.2999996629582711
 20
275.499999732512
 10
0.2999996629582711
 20
0.2999997325119352
 10
398.4999996629584
 20
0.2999997325119583
 10
398.4999996629582
 20
275.499999732512
  0
LWPOLYLINE
  5
1836
330
1A
100
AcDbEntity
  8
ZUWAKU
100
AcDbPolyline
 90
        4
 70
     1
 43
0.0
 10
-0.0000003370416835
 20
275.7999997325119
 10
-0.0000003370416835
 20
-0.0000002674880761
 10
398.7999996629584
 20
-0.0000002674880424
 10
398.7999996629584
 20
275.799999732512
  0
LWPOLYLINE
  5
1837
330
1A
100
AcDbEntity
  8
ZUWAKU
100
AcDbPolyline
 90
        4
 70
     1
 43
0.0
 10
0.1999996629583052
 20
275.5999997325119
 10
0.1999996629583052
 20
0.1999997325119693
 10
398.5999996629583
 20
0.1999997325119578
 10
398.5999996629583
 20
275.5999997325119
  0
LWPOLYLINE
  5
1838
330
1A
100
AcDbEntity
  8
ZUWAKU
100
AcDbPolyline
 90
        4
 70
     1
 43
0.0
 10
0.3999996629582938
 20
275.3999997325119
 10
0.3999996629582938
 20
0.399999732511958
 10
398.3999996629583
 20
0.399999732511958
 10
398.3999996629583
 20
275.3999997325119
  0
TEXT
  5
1839
330
1A
100
AcDbEntity
  8
MOJI
100
AcDbText
 10
46.47889445704288
 20
6.370588797649304
 30
0.0
 40
3.0
  1
新・丸トップＲＶ１０５
 41
0.9
  7
ｽﾀｲﾙ1
100
AcDbText
  0
HATCH
  5
183A
330
1A
100
AcDbEntity
  8
ZUWAKU
100
AcDbHatch
 10
0.0
 20
0.0
 30
0.0
210
0.0
220
0.0
230
1.0
  2
ANSI37
 70
     0
 71
     0
 91
        8
 92
        7
 72
     1
 73
     1
 93
       24
 10
7.251130993518245
 20
8.822423973003715
 42
-0.1989123673796348
 10
7.046105740348878
 20
9.31739871983424
 42
0.0
 10
7.046105740348878
 20
9.962499732511929
 42
-0.4142135623730912
 10
7.308605740348866
 20
10.22499973251192
 42
0.0
 10
8.796105740348821
 20
10.22499973251192
 42
0.4142135623731546
 10
9.058605740348866
 20
10.48749973251192
 42
0.0
 10
9.058605740348866
 20
11.36249973251192
 42
0.4142135623731586
 10
8.796105740348821
 20
11.62499973251192
 42
0.0
 10
7.046105740348878
 20
11.62499973251192
 42
0.4142135623730928
 10
5.6461057403489
 20
10.22499973251193
 42
0.0
 10
5.6461057403489
 20
9.317398719834304
 42
0.1989123673796619
 10
6.261181499857116
 20
7.832474479342501
 42
0.0
 10
7.716080487179453
 20
6.377575492020172
 42
-0.1989123673796613
 10
7.921105740348878
 20
5.882600745189579
 42
0.0
 10
7.921105740348878
 20
5.237499732511921
 42
-0.4142135623730911
 10
7.658605740348889
 20
4.974999732511925
 42
0.0
 10
6.171105740348934
 20
4.974999732511925
 42
0.4142135623731526
 10
5.908605740348889
 20
4.712499732511931
 42
0.0
 10
5.908605740348889
 20
3.83749973251192
 42
0.4142135623731526
 10
6.171105740348934
 20
3.574999732511926
 42
0.0
 10
7.921105740348878
 20
3.574999732511926
 42
0.4142135623731044
 10
9.321105740348912
 20
4.974999732511914
 42
0.0
 10
9.321105740348912
 20
5.882600745189551
 42
0.1989123673796604
 10
8.706029980840639
 20
7.36752498568132
 42
0.0
 97
        0
 92
        7
 72
     1
 73
     1
 93
       16
 10
11.7711057403489
 20
9.524999732511929
 42
-0.4142135623730935
 10
12.47110574034889
 20
10.22499973251192
 42
0.0
 10
13.43360574034886
 20
10.22499973251192
 42
0.4142135623731546
 10
13.69610574034891
 20
10.48749973251192
 42
0.0
 10
13.69610574034891
 20
11.36249973251192
 42
0.4142135623730951
 10
13.43360574034892
 20
11.62499973251192
 42
0.0
 10
12.47110574034883
 20
11.6249997325119
 42
0.4142135623730892
 10
10.37110574034886
 20
9.524999732511894
 42
0.0
 10
10.37110574034886
 20
5.674999732511938
 42
0.4142135623730969
 10
12.47110574034889
 20
3.574999732511926
 42
0.0
 10
13.43360574034886
 20
3.574999732511926
 42
0.4142135623731526
 10
13.69610574034891
 20
3.83749973251192
 42
0.0
 10
13.69610574034891
 20
4.712499732511931
 42
0.4142135623730891
 10
13.43360574034892
 20
4.974999732511925
 42
0.0
 10
12.47110574034889
 20
4.974999732511925
 42
-0.4142135623730928
 10
11.7711057403489
 20
5.674999732511919
 42
0.0
 97
        0
 92
        7
 72
     1
 73
     1
 93
        2
 10
12.12110574034886
 20
7.599999732511925
 42
1.0
 10
13.87110574034886
 20
7.599999732511925
 42
1.0
 97
        0
 92
        7
 72
     1
 73
     1
 93
       26
 10
18.65742898143787
 20
9.602523329293639
 42
0.0
 10
19.18824879800678
 20
11.28345274842843
 42
0.5069206636600134
 10
18.9379333484091
 20
11.62499973251192
 42
0.0
 10
18.08848865860449
 20
11.62499973251192
 42
0.3272098845218764
 10
17.83817320900681
 20
11.44154671659541
 42
0.0
 10
16.90403827169092
 20
8.483452748428465
 42
-0.3272098845219541
 10
16.65372282209318
 20
8.299999732511924
 42
0.0
 10
16.58360574034895
 20
8.299999732511924
 42
-0.4142135623731526
 10
16.32110574034891
 20
8.562499732511918
 42
0.0
 10
16.32110574034891
 20
11.36249973251192
 42
0.4142135623730951
 10
16.05860574034892
 20
11.62499973251192
 42
0.0
 10
15.18360574034886
 20
11.62499973251192
 42
0.4142135623730871
 10
14.92110574034887
 20
11.36249973251193
 42
0.0
 10
14.92110574034887
 20
3.83749973251192
 42
0.4142135623730891
 10
15.18360574034886
 20
3.574999732511926
 42
0.0
 10
16.05860574034886
 20
3.574999732511926
 42
0.4142135623731526
 10
16.32110574034891
 20
3.83749973251192
 42
0.0
 10
16.32110574034891
 20
6.637499732511932
 42
-0.4142135623731526
 10
16.58360574034895
 20
6.899999732511925
 42
0.0
 10
16.65372282209324
 20
6.899999732511925
 42
-0.3272098845218915
 10
16.90403827169092
 20
6.716546716595388
 42
0.0
 10
17.83817320900681
 20
3.758452748428462
 42
0.3272098845218902
 10
18.08848865860449
 20
3.574999732511926
 42
0.0
 10
18.9379333484091
 20
3.574999732511926
 42
0.5069206636600335
 10
19.18824879800678
 20
3.91654671659543
 42
0.0
 10
18.02505310876995
 20
7.599999732511994
 42
0.0
 97
        0
 92
        7
 72
     1
 73
     1
 93
        8
 10
21.74610574034886
 20
11.36249973251193
 42
0.4142135623731546
 10
21.48360574034882
 20
11.62499973251192
 42
0.0
 10
20.60860574034893
 20
11.62499973251192
 42
0.4142135623731507
 10
20.34610574034889
 20
11.36249973251193
 42
0.0
 10
20.34610574034889
 20
3.83749973251192
 42
0.4142135623731526
 10
20.60860574034893
 20
3.574999732511926
 42
0.0
 10
21.48360574034882
 20
3.574999732511926
 42
0.4142135623731526
 10
21.74610574034886
 20
3.83749973251192
 42
0.0
 97
        0
 92
        7
 72
     1
 73
     1
 93
       24
 10
24.19610574034891
 20
9.962499732511929
 42
-0.4142135623731546
 10
24.45860574034895
 20
10.22499973251192
 42
0.0
 10
25.94610574034891
 20
10.22499973251192
 42
0.4142135623730911
 10
26.2086057403489
 20
10.48749973251192
 42
0.0
 10
26.2086057403489
 20
11.36249973251192
 42
0.4142135623730952
 10
25.94610574034891
 20
11.62499973251192
 42
0.0
 10
24.19610574034891
 20
11.62499973251192
 42
0.4142135623731048
 10
22.79610574034887
 20
10.22499973251193
 42
0.0
 10
22.79610574034887
 20
9.317398719834304
 42
0.1989123673796613
 10
23.41118149985715
 20
7.832474479342529
 42
0.0
 10
24.86608048717949
 20
6.377575492020195
 42
-0.1989123673796402
 10
25.07110574034891
 20
5.882600745189659
 42
0.0
 10
25.07110574034891
 20
5.237499732511921
 42
-0.4142135623730911
 10
24.80860574034892
 20
4.974999732511925
 42
0.0
 10
23.32110574034891
 20
4.974999732511925
 42
0.4142135623731526
 10
23.05860574034886
 20
4.712499732511931
 42
0.0
 10
23.05860574034886
 20
3.83749973251192
 42
0.4142135623730891
 10
23.32110574034885
 20
3.574999732511926
 42
0.0
 10
25.07110574034891
 20
3.574999732511926
 42
0.4142135623730925
 10
26.47110574034889
 20
4.974999732511914
 42
0.0
 10
26.47110574034889
 20
5.882600745189551
 42
0.1989123673796675
 10
25.85602998084061
 20
7.367524985681377
 42
0.0
 10
24.40113099351833
 20
8.822423973003635
 42
-0.1989123673796652
 10
24.19610574034891
 20
9.317398719834219
 42
0.0
 97
        0
 92
        7
 72
     1
 73
     1
 93
       16
 10
28.92110574034887
 20
11.36249973251192
 42
0.414213562373103
 10
28.65860574034888
 20
11.62499973251192
 42
0.0
 10
27.78360574034889
 20
11.62499973251192
 42
0.4142135623730871
 10
27.5211057403489
 20
11.36249973251193
 42
0.0
 10
27.5211057403489
 20
4.974999732511914
 42
0.4142135623730926
 10
28.92110574034887
 20
3.574999732511926
 42
0.0
 10
30.67110574034888
 20
3.574999732511926
 42
0.4142135623731044
 10
32.07110574034891
 20
4.974999732511914
 42
0.0
 10
32.07110574034891
 20
11.36249973251192
 42
0.4142135623730951
 10
31.80860574034892
 20
11.62499973251192
 42
0.0
 10
30.93360574034886
 20
11.62499973251192
 42
0.4142135623730871
 10
30.67110574034888
 20
11.36249973251193
 42
0.0
 10
30.67110574034888
 20
5.499999732511913
 42
-0.414213562373088
 10
30.1461057403489
 20
4.974999732511925
 42
0.0
 10
29.44610574034891
 20
4.974999732511925
 42
-0.4142135623731197
 10
28.92110574034887
 20
5.499999732511913
 42
0.0
 97
        0
 92
        7
 72
     1
 73
     1
 93
        8
 10
34.5211057403489
 20
11.36249973251193
 42
0.4142135623730871
 10
34.25860574034891
 20
11.62499973251192
 42
0.0
 10
33.38360574034891
 20
11.62499973251192
 42
0.4142135623731507
 10
33.12110574034886
 20
11.36249973251193
 42
0.0
 10
33.12110574034886
 20
3.83749973251192
 42
0.4142135623730891
 10
33.38360574034885
 20
3.574999732511926
 42
0.0
 10
34.25860574034891
 20
3.574999732511926
 42
0.4142135623730891
 10
34.5211057403489
 20
3.83749973251192
 42
0.0
 97
        0
 75
     0
 76
     1
 52
0.0
 41
0.1
 77
     0
 78
     2
 53
45.0
 43
-450.4711525043811
 44
-6.600000267488042
 45
-0.2245064030267288
 46
0.2245064030267288
 79
     0
 53
135.0
 43
-450.4711525043811
 44
-6.600000267488042
 45
-0.2245064030267288
 46
-0.2245064030267288
 79
     0
 47
0.057451373970553
 98
        8
 10
8.03992714446997
 20
7.583586555454701
 10
11.2022571661779
 20
9.422030823737429
 10
12.58218360578814
 20
7.755940555547283
 10
15.45702965377688
 20
8.100648555732675
 10
20.91923567243668
 20
8.330454689503483
 10
23.44910011052309
 20
9.709287890715529
 10
28.27884264915849
 20
9.364578690059431
 10
33.91353947276968
 20
9.594384823830239
  0
LINE
  5
183B
330
1A
100
AcDbEntity
  8
ZUWAKU
100
AcDbLine
 10
12.47110574034889
 20
11.6249997325119
 30
0.0
 11
13.43360574034886
 21
11.62499973251192
 31
0.0
  0
LINE
  5
183C
330
1A
100
AcDbEntity
  8
ZUWAKU
100
AcDbLine
 10
13.43360574034886
 20
10.22499973251192
 30
0.0
 11
12.47110574034889
 21
10.22499973251192
 31
0.0
  0
LINE
  5
183D
330
1A
100
AcDbEntity
  8
ZUWAKU
100
AcDbLine
 10
12.47110574034889
 20
4.974999732511925
 30
0.0
 11
13.43360574034886
 21
4.974999732511925
 31
0.0
  0
LINE
  5
183E
330
1A
100
AcDbEntity
  8
ZUWAKU
100
AcDbLine
 10
13.43360574034886
 20
3.574999732511926
 30
0.0
 11
12.47110574034889
 21
3.574999732511926
 31
0.0
  0
CIRCLE
  5
183F
330
1A
100
AcDbEntity
  8
ZUWAKU
100
AcDbCircle
 10
12.99610574034886
 20
7.599999732511925
 30
0.0
 40
0.875
  0
ARC
  5
1840
330
1A
100
AcDbEntity
  8
ZUWAKU
100
AcDbCircle
 10
7.746105740348866
 20
9.317398719834276
 30
0.0
 40
0.7
100
AcDbArc
 50
180.0000000000016
 51
224.9999999999988
  0
LINE
  5
1841
330
1A
100
AcDbEntity
  8
ZUWAKU
100
AcDbLine
 10
11.7711057403489
 20
9.524999732511925
 30
0.0
 11
11.7711057403489
 21
5.674999732511928
 31
0.0
  0
LINE
  5
1842
330
1A
100
AcDbEntity
  8
ZUWAKU
100
AcDbLine
 10
10.37110574034886
 20
5.674999732511928
 30
0.0
 11
10.37110574034886
 21
9.524999732511904
 31
0.0
  0
ARC
  5
1843
330
1A
100
AcDbEntity
  8
ZUWAKU
100
AcDbCircle
 10
7.746105740348866
 20
9.317398719834276
 30
0.0
 40
2.099999999999999
100
AcDbArc
 50
180.0
 51
225.0
  0
ARC
  5
1844
330
1A
100
AcDbEntity
  8
ZUWAKU
100
AcDbCircle
 10
7.921105740348878
 20
4.974999732511925
 30
0.0
 40
1.399999999999999
100
AcDbArc
 50
270.0
 51
0.0
  0
ARC
  5
1845
330
1A
100
AcDbEntity
  8
ZUWAKU
100
AcDbCircle
 10
12.47110574034889
 20
5.674999732511928
 30
0.0
 40
2.099999999999999
100
AcDbArc
 50
180.0
 51
270.0
  0
ARC
  5
1846
330
1A
100
AcDbEntity
  8
ZUWAKU
100
AcDbCircle
 10
7.221105740348889
 20
5.882600745189577
 30
0.0
 40
2.099999999999999
100
AcDbArc
 50
0.0
 51
45.0
  0
LINE
  5
1847
330
1A
100
AcDbEntity
  8
ZUWAKU
100
AcDbLine
 10
8.706029980840639
 20
7.367524985681338
 30
0.0
 11
7.251130993518302
 21
8.822423973003676
 31
0.0
  0
LINE
  5
1848
330
1A
100
AcDbEntity
  8
ZUWAKU
100
AcDbLine
 10
7.921105740348878
 20
5.237499732511928
 30
0.0
 11
7.921105740348878
 21
5.882600745189598
 31
0.0
  0
ARC
  5
1849
330
1A
100
AcDbEntity
  8
ZUWAKU
100
AcDbCircle
 10
7.658605740348889
 20
5.237499732511928
 30
0.0
 40
0.2625
100
AcDbArc
 50
270.0
 51
0.0
  0
ARC
  5
184A
330
1A
100
AcDbEntity
  8
ZUWAKU
100
AcDbCircle
 10
7.221105740348889
 20
5.882600745189598
 30
0.0
 40
0.7
100
AcDbArc
 50
0.0
 51
45.0
  0
LINE
  5
184B
330
1A
100
AcDbEntity
  8
ZUWAKU
100
AcDbLine
 10
5.908605740348889
 20
3.837499732511925
 30
0.0
 11
5.908605740348889
 21
4.712499732511925
 31
0.0
  0
ARC
  5
184C
330
1A
100
AcDbEntity
  8
ZUWAKU
100
AcDbCircle
 10
6.171105740348878
 20
3.837499732511925
 30
0.0
 40
0.2625
100
AcDbArc
 50
180.0
 51
270.0
  0
ARC
  5
184D
330
1A
100
AcDbEntity
  8
ZUWAKU
100
AcDbCircle
 10
6.171105740348878
 20
4.712499732511925
 30
0.0
 40
0.2625
100
AcDbArc
 50
90.0
 51
180.0
  0
LINE
  5
184E
330
1A
100
AcDbEntity
  8
ZUWAKU
100
AcDbLine
 10
6.171105740348878
 20
3.574999732511926
 30
0.0
 11
7.921105740348878
 21
3.574999732511926
 31
0.0
  0
LINE
  5
184F
330
1A
100
AcDbEntity
  8
ZUWAKU
100
AcDbLine
 10
6.171105740348878
 20
4.974999732511925
 30
0.0
 11
7.658605740348889
 21
4.974999732511925
 31
0.0
  0
LINE
  5
1850
330
1A
100
AcDbEntity
  8
ZUWAKU
100
AcDbLine
 10
6.261181499857116
 20
7.832474479342515
 30
0.0
 11
7.716080487179453
 21
6.377575492020184
 31
0.0
  0
LINE
  5
1851
330
1A
100
AcDbEntity
  8
ZUWAKU
100
AcDbLine
 10
9.321105740348912
 20
4.974999732511925
 30
0.0
 11
9.321105740348912
 21
5.882600745189598
 31
0.0
  0
ARC
  5
1852
330
1A
100
AcDbEntity
  8
ZUWAKU
100
AcDbCircle
 10
12.47110574034889
 20
5.674999732511928
 30
0.0
 40
0.7
100
AcDbArc
 50
180.0
 51
270.0
  0
ARC
  5
1853
330
1A
100
AcDbEntity
  8
ZUWAKU
100
AcDbCircle
 10
8.796105740348878
 20
11.36249973251192
 30
0.0
 40
0.2625
100
AcDbArc
 50
0.0
 51
90.0
  0
ARC
  5
1854
330
1A
100
AcDbEntity
  8
ZUWAKU
100
AcDbCircle
 10
8.796105740348878
 20
10.48749973251192
 30
0.0
 40
0.2625
100
AcDbArc
 50
270.0
 51
0.0
  0
LINE
  5
1855
330
1A
100
AcDbEntity
  8
ZUWAKU
100
AcDbLine
 10
7.046105740348878
 20
11.62499973251192
 30
0.0
 11
8.796105740348878
 21
11.62499973251192
 31
0.0
  0
ARC
  5
1856
330
1A
100
AcDbEntity
  8
ZUWAKU
100
AcDbCircle
 10
7.308605740348866
 20
9.962499732511925
 30
0.0
 40
0.2625
100
AcDbArc
 50
90.0
 51
180.0
  0
LINE
  5
1857
330
1A
100
AcDbEntity
  8
ZUWAKU
100
AcDbLine
 10
7.046105740348878
 20
9.962499732511925
 30
0.0
 11
7.046105740348878
 21
9.317398719834255
 31
0.0
  0
LINE
  5
1858
330
1A
100
AcDbEntity
  8
ZUWAKU
100
AcDbLine
 10
8.796105740348878
 20
10.22499973251192
 30
0.0
 11
7.308605740348866
 21
10.22499973251192
 31
0.0
  0
LINE
  5
1859
330
1A
100
AcDbEntity
  8
ZUWAKU
100
AcDbLine
 10
5.6461057403489
 20
10.22499973251192
 30
0.0
 11
5.6461057403489
 21
9.317398719834255
 31
0.0
  0
ARC
  5
185A
330
1A
100
AcDbEntity
  8
ZUWAKU
100
AcDbCircle
 10
7.046105740348878
 20
10.22499973251192
 30
0.0
 40
1.399999999999999
100
AcDbArc
 50
90.0
 51
180.0
  0
LINE
  5
185B
330
1A
100
AcDbEntity
  8
ZUWAKU
100
AcDbLine
 10
9.058605740348866
 20
11.36249973251192
 30
0.0
 11
9.058605740348866
 21
10.48749973251192
 31
0.0
  0
ARC
  5
185C
330
1A
100
AcDbEntity
  8
ZUWAKU
100
AcDbCircle
 10
12.47110574034889
 20
9.524999732511925
 30
0.0
 40
0.7
100
AcDbArc
 50
90.0
 51
180.0
  0
ARC
  5
185D
330
1A
100
AcDbEntity
  8
ZUWAKU
100
AcDbCircle
 10
12.47110574034889
 20
9.524999732511904
 30
0.0
 40
2.099999999999999
100
AcDbArc
 50
90.0
 51
180.0
  0
LINE
  5
185E
330
1A
100
AcDbEntity
  8
ZUWAKU
100
AcDbLine
 10
39.66331443695242
 20
14.99999973251192
 30
0.0
 11
39.66331443695253
 21
0.399999732511958
 31
0.0
  0
LINE
  5
185F
330
1A
100
AcDbEntity
  8
ZUWAKU
100
AcDbLine
 10
39.76331443695244
 20
14.99999973251192
 30
0.0
 11
39.76331443695255
 21
0.399999732511958
 31
0.0
  0
LINE
  5
1860
330
1A
100
AcDbEntity
  8
ZUWAKU
100
AcDbLine
 10
39.56331443695251
 20
14.99999973251192
 30
0.0
 11
39.56331443695251
 21
0.399999732511958
 31
0.0
  0
LINE
  5
1861
330
1A
100
AcDbEntity
  8
ZUWAKU
100
AcDbLine
 10
32.07110574034891
 20
4.974999732511925
 30
0.0
 11
32.07110574034891
 21
11.36249973251192
 31
0.0
  0
LINE
  5
1862
330
1A
100
AcDbEntity
  8
ZUWAKU
100
AcDbLine
 10
30.67110574034888
 20
11.36249973251192
 30
0.0
 11
30.67110574034888
 21
5.499999732511923
 31
0.0
  0
LINE
  5
1863
330
1A
100
AcDbEntity
  8
ZUWAKU
100
AcDbLine
 10
34.5211057403489
 20
3.837499732511925
 30
0.0
 11
34.5211057403489
 21
11.36249973251192
 31
0.0
  0
LINE
  5
1864
330
1A
100
AcDbEntity
  8
ZUWAKU
100
AcDbLine
 10
33.12110574034886
 20
11.36249973251192
 30
0.0
 11
33.12110574034886
 21
3.837499732511925
 31
0.0
  0
ARC
  5
1865
330
1A
100
AcDbEntity
  8
ZUWAKU
100
AcDbCircle
 10
24.8961057403489
 20
9.317398719834276
 30
0.0
 40
0.7
100
AcDbArc
 50
180.0000000000016
 51
224.9999999999988
  0
ARC
  5
1866
330
1A
100
AcDbEntity
  8
ZUWAKU
100
AcDbCircle
 10
24.8961057403489
 20
9.317398719834276
 30
0.0
 40
2.099999999999999
100
AcDbArc
 50
180.0
 51
225.0
  0
LINE
  5
1867
330
1A
100
AcDbEntity
  8
ZUWAKU
100
AcDbLine
 10
18.65742898143787
 20
9.602523329293639
 30
0.0
 11
18.02505310876995
 21
7.599999732511935
 31
0.0
  0
LINE
  5
1868
330
1A
100
AcDbEntity
  8
ZUWAKU
100
AcDbLine
 10
20.34610574034889
 20
11.36249973251192
 30
0.0
 11
20.34610574034889
 21
3.837499732511925
 31
0.0
  0
LINE
  5
1869
330
1A
100
AcDbEntity
  8
ZUWAKU
100
AcDbLine
 10
21.74610574034886
 20
3.837499732511925
 30
0.0
 11
21.74610574034886
 21
11.36249973251192
 31
0.0
  0
LINE
  5
186A
330
1A
100
AcDbEntity
  8
ZUWAKU
100
AcDbLine
 10
27.5211057403489
 20
11.36249973251192
 30
0.0
 11
27.5211057403489
 21
4.974999732511925
 31
0.0
  0
LINE
  5
186B
330
1A
100
AcDbEntity
  8
ZUWAKU
100
AcDbLine
 10
28.92110574034887
 20
5.499999732511923
 30
0.0
 11
28.92110574034887
 21
11.36249973251192
 31
0.0
  0
LINE
  5
186C
330
1A
100
AcDbEntity
  8
ZUWAKU
100
AcDbLine
 10
16.32110574034891
 20
8.562499732511927
 30
0.0
 11
16.32110574034891
 21
11.36249973251192
 31
0.0
  0
LINE
  5
186D
330
1A
100
AcDbEntity
  8
ZUWAKU
100
AcDbLine
 10
14.92110574034887
 20
11.36249973251192
 30
0.0
 11
14.92110574034887
 21
3.837499732511925
 31
0.0
  0
LINE
  5
186E
330
1A
100
AcDbEntity
  8
ZUWAKU
100
AcDbLine
 10
17.83817320900681
 20
11.44154671659541
 30
0.0
 11
16.90403827169092
 21
8.48345274842844
 31
0.0
  0
LINE
  5
186F
330
1A
100
AcDbEntity
  8
ZUWAKU
100
AcDbLine
 10
30.1461057403489
 20
4.974999732511925
 30
0.0
 11
29.44610574034891
 21
4.974999732511925
 31
0.0
  0
LINE
  5
1870
330
1A
100
AcDbEntity
  8
ZUWAKU
100
AcDbLine
 10
28.92110574034887
 20
3.574999732511926
 30
0.0
 11
30.67110574034888
 21
3.574999732511926
 31
0.0
  0
LINE
  5
1871
330
1A
100
AcDbEntity
  8
ZUWAKU
100
AcDbLine
 10
20.60860574034887
 20
3.574999732511926
 30
0.0
 11
21.48360574034887
 21
3.574999732511926
 31
0.0
  0
LINE
  5
1872
330
1A
100
AcDbEntity
  8
ZUWAKU
100
AcDbLine
 10
17.83817320900681
 20
3.758452748428439
 30
0.0
 11
16.90403827169092
 21
6.716546716595409
 31
0.0
  0
ARC
  5
1873
330
1A
100
AcDbEntity
  8
ZUWAKU
100
AcDbCircle
 10
16.65372282209324
 20
8.562499732511927
 30
0.0
 40
0.2625
100
AcDbArc
 50
270.0
 51
342.4744316262769
  0
LINE
  5
1874
330
1A
100
AcDbEntity
  8
ZUWAKU
100
AcDbLine
 10
16.65372282209324
 20
8.299999732511924
 30
0.0
 11
16.5836057403489
 21
8.299999732511924
 31
0.0
  0
LINE
  5
1875
330
1A
100
AcDbEntity
  8
ZUWAKU
100
AcDbLine
 10
16.5836057403489
 20
6.899999732511925
 30
0.0
 11
16.65372282209324
 21
6.899999732511925
 31
0.0
  0
ARC
  5
1876
330
1A
100
AcDbEntity
  8
ZUWAKU
100
AcDbCircle
 10
16.5836057403489
 20
8.562499732511927
 30
0.0
 40
0.2625
100
AcDbArc
 50
180.0
 51
270.0
  0
LINE
  5
1877
330
1A
100
AcDbEntity
  8
ZUWAKU
100
AcDbLine
 10
15.18360574034886
 20
3.574999732511926
 30
0.0
 11
16.05860574034886
 21
3.574999732511926
 31
0.0
  0
ARC
  5
1878
330
1A
100
AcDbEntity
  8
ZUWAKU
100
AcDbCircle
 10
16.05860574034886
 20
3.837499732511925
 30
0.0
 40
0.2625
100
AcDbArc
 50
270.0
 51
0.0
  0
LINE
  5
1879
330
1A
100
AcDbEntity
  8
ZUWAKU
100
AcDbLine
 10
16.32110574034891
 20
3.837499732511925
 30
0.0
 11
16.32110574034891
 21
6.637499732511926
 31
0.0
  0
LINE
  5
187A
330
1A
100
AcDbEntity
  8
ZUWAKU
100
AcDbLine
 10
13.69610574034891
 20
4.712499732511925
 30
0.0
 11
13.69610574034891
 21
3.837499732511925
 31
0.0
  0
ARC
  5
187B
330
1A
100
AcDbEntity
  8
ZUWAKU
100
AcDbCircle
 10
13.43360574034886
 20
3.837499732511925
 30
0.0
 40
0.2625
100
AcDbArc
 50
270.0
 51
0.0
  0
ARC
  5
187C
330
1A
100
AcDbEntity
  8
ZUWAKU
100
AcDbCircle
 10
13.43360574034886
 20
4.712499732511925
 30
0.0
 40
0.2625
100
AcDbArc
 50
0.0
 51
90.0
  0
ARC
  5
187D
330
1A
100
AcDbEntity
  8
ZUWAKU
100
AcDbCircle
 10
15.18360574034886
 20
3.837499732511925
 30
0.0
 40
0.2625
100
AcDbArc
 50
180.0
 51
270.0
  0
ARC
  5
187E
330
1A
100
AcDbEntity
  8
ZUWAKU
100
AcDbCircle
 10
16.65372282209324
 20
6.637499732511926
 30
0.0
 40
0.2625
100
AcDbArc
 50
17.52556837372303
 51
90.0
  0
ARC
  5
187F
330
1A
100
AcDbEntity
  8
ZUWAKU
100
AcDbCircle
 10
16.5836057403489
 20
6.637499732511926
 30
0.0
 40
0.2625
100
AcDbArc
 50
90.0
 51
180.0
  0
ARC
  5
1880
330
1A
100
AcDbEntity
  8
ZUWAKU
100
AcDbCircle
 10
20.60860574034887
 20
3.837499732511925
 30
0.0
 40
0.2625
100
AcDbArc
 50
180.0
 51
270.0
  0
LINE
  5
1881
330
1A
100
AcDbEntity
  8
ZUWAKU
100
AcDbLine
 10
18.08848865860454
 20
3.574999732511926
 30
0.0
 11
18.93793334840904
 21
3.574999732511926
 31
0.0
  0
ARC
  5
1882
330
1A
100
AcDbEntity
  8
ZUWAKU
100
AcDbCircle
 10
18.93793334840904
 20
3.837499732511925
 30
0.0
 40
0.2625
100
AcDbArc
 50
270.0
 51
17.52556837372303
  0
LINE
  5
1883
330
1A
100
AcDbEntity
  8
ZUWAKU
100
AcDbLine
 10
19.18824879800678
 20
3.916546716595412
 30
0.0
 11
18.02505310876995
 21
7.599999732511935
 31
0.0
  0
ARC
  5
1884
330
1A
100
AcDbEntity
  8
ZUWAKU
100
AcDbCircle
 10
18.08848865860454
 20
3.837499732511925
 30
0.0
 40
0.2625
100
AcDbArc
 50
197.525568373723
 51
270.0
  0
ARC
  5
1885
330
1A
100
AcDbEntity
  8
ZUWAKU
100
AcDbCircle
 10
28.92110574034887
 20
4.974999732511925
 30
0.0
 40
1.399999999999999
100
AcDbArc
 50
180.0
 51
270.0
  0
ARC
  5
1886
330
1A
100
AcDbEntity
  8
ZUWAKU
100
AcDbCircle
 10
25.07110574034891
 20
4.974999732511925
 30
0.0
 40
1.399999999999999
100
AcDbArc
 50
270.0
 51
0.0
  0
LINE
  5
1887
330
1A
100
AcDbEntity
  8
ZUWAKU
100
AcDbLine
 10
25.85602998084067
 20
7.367524985681338
 30
0.0
 11
24.40113099351828
 21
8.822423973003676
 31
0.0
  0
LINE
  5
1888
330
1A
100
AcDbEntity
  8
ZUWAKU
100
AcDbLine
 10
25.07110574034891
 20
5.237499732511928
 30
0.0
 11
25.07110574034891
 21
5.882600745189598
 31
0.0
  0
ARC
  5
1889
330
1A
100
AcDbEntity
  8
ZUWAKU
100
AcDbCircle
 10
24.37110574034886
 20
5.882600745189598
 30
0.0
 40
0.7
100
AcDbArc
 50
0.0
 51
45.0
  0
ARC
  5
188A
330
1A
100
AcDbEntity
  8
ZUWAKU
100
AcDbCircle
 10
24.80860574034887
 20
5.237499732511928
 30
0.0
 40
0.2625
100
AcDbArc
 50
270.0
 51
0.0
  0
LINE
  5
188B
330
1A
100
AcDbEntity
  8
ZUWAKU
100
AcDbLine
 10
23.05860574034886
 20
3.837499732511925
 30
0.0
 11
23.05860574034886
 21
4.712499732511925
 31
0.0
  0
ARC
  5
188C
330
1A
100
AcDbEntity
  8
ZUWAKU
100
AcDbCircle
 10
23.32110574034891
 20
3.837499732511925
 30
0.0
 40
0.2625
100
AcDbArc
 50
180.0
 51
270.0
  0
ARC
  5
188D
330
1A
100
AcDbEntity
  8
ZUWAKU
100
AcDbCircle
 10
21.48360574034887
 20
3.837499732511925
 30
0.0
 40
0.2625
100
AcDbArc
 50
270.0
 51
0.0
  0
ARC
  5
188E
330
1A
100
AcDbEntity
  8
ZUWAKU
100
AcDbCircle
 10
23.32110574034891
 20
4.712499732511925
 30
0.0
 40
0.2625
100
AcDbArc
 50
90.0
 51
180.0
  0
LINE
  5
188F
330
1A
100
AcDbEntity
  8
ZUWAKU
100
AcDbLine
 10
23.32110574034891
 20
4.974999732511925
 30
0.0
 11
24.80860574034887
 21
4.974999732511925
 31
0.0
  0
LINE
  5
1890
330
1A
100
AcDbEntity
  8
ZUWAKU
100
AcDbLine
 10
23.32110574034891
 20
3.574999732511926
 30
0.0
 11
25.07110574034891
 21
3.574999732511926
 31
0.0
  0
LINE
  5
1891
330
1A
100
AcDbEntity
  8
ZUWAKU
100
AcDbLine
 10
23.41118149985715
 20
7.832474479342515
 30
0.0
 11
24.86608048717949
 21
6.377575492020184
 31
0.0
  0
LINE
  5
1892
330
1A
100
AcDbEntity
  8
ZUWAKU
100
AcDbLine
 10
26.47110574034889
 20
4.974999732511925
 30
0.0
 11
26.47110574034889
 21
5.882600745189598
 31
0.0
  0
ARC
  5
1893
330
1A
100
AcDbEntity
  8
ZUWAKU
100
AcDbCircle
 10
24.37110574034886
 20
5.882600745189577
 30
0.0
 40
2.099999999999999
100
AcDbArc
 50
0.0
 51
45.0
  0
ARC
  5
1894
330
1A
100
AcDbEntity
  8
ZUWAKU
100
AcDbCircle
 10
29.44610574034891
 20
5.499999732511923
 30
0.0
 40
0.525
100
AcDbArc
 50
180.0
 51
270.0
  0
ARC
  5
1895
330
1A
100
AcDbEntity
  8
ZUWAKU
100
AcDbCircle
 10
30.67110574034888
 20
4.974999732511925
 30
0.0
 40
1.399999999999999
100
AcDbArc
 50
270.0
 51
0.0
  0
LINE
  5
1896
330
1A
100
AcDbEntity
  8
ZUWAKU
100
AcDbLine
 10
33.38360574034891
 20
3.574999732511926
 30
0.0
 11
34.25860574034891
 21
3.574999732511926
 31
0.0
  0
ARC
  5
1897
330
1A
100
AcDbEntity
  8
ZUWAKU
100
AcDbCircle
 10
33.38360574034891
 20
3.837499732511925
 30
0.0
 40
0.2625
100
AcDbArc
 50
180.0
 51
270.0
  0
ARC
  5
1898
330
1A
100
AcDbEntity
  8
ZUWAKU
100
AcDbCircle
 10
30.1461057403489
 20
5.499999732511923
 30
0.0
 40
0.525
100
AcDbArc
 50
270.0
 51
0.0
  0
ARC
  5
1899
330
1A
100
AcDbEntity
  8
ZUWAKU
100
AcDbCircle
 10
34.25860574034891
 20
3.837499732511925
 30
0.0
 40
0.2625
100
AcDbArc
 50
270.0
 51
0.0
  0
LINE
  5
189A
330
1A
100
AcDbEntity
  8
ZUWAKU
100
AcDbLine
 10
21.48360574034887
 20
11.62499973251192
 30
0.0
 11
20.60860574034887
 21
11.62499973251192
 31
0.0
  0
ARC
  5
189B
330
1A
100
AcDbEntity
  8
ZUWAKU
100
AcDbCircle
 10
16.05860574034886
 20
11.36249973251192
 30
0.0
 40
0.2625
100
AcDbArc
 50
0.0
 51
90.0
  0
LINE
  5
189C
330
1A
100
AcDbEntity
  8
ZUWAKU
100
AcDbLine
 10
16.05860574034886
 20
11.62499973251192
 30
0.0
 11
15.18360574034886
 21
11.62499973251192
 31
0.0
  0
ARC
  5
189D
330
1A
100
AcDbEntity
  8
ZUWAKU
100
AcDbCircle
 10
13.43360574034886
 20
11.36249973251192
 30
0.0
 40
0.2625
100
AcDbArc
 50
0.0
 51
90.0
  0
ARC
  5
189E
330
1A
100
AcDbEntity
  8
ZUWAKU
100
AcDbCircle
 10
15.18360574034886
 20
11.36249973251192
 30
0.0
 40
0.2625
100
AcDbArc
 50
90.0
 51
180.0
  0
ARC
  5
189F
330
1A
100
AcDbEntity
  8
ZUWAKU
100
AcDbCircle
 10
13.43360574034886
 20
10.48749973251192
 30
0.0
 40
0.2625
100
AcDbArc
 50
270.0
 51
0.0
  0
LINE
  5
18A0
330
1A
100
AcDbEntity
  8
ZUWAKU
100
AcDbLine
 10
13.69610574034891
 20
11.36249973251192
 30
0.0
 11
13.69610574034891
 21
10.48749973251192
 31
0.0
  0
ARC
  5
18A1
330
1A
100
AcDbEntity
  8
ZUWAKU
100
AcDbCircle
 10
20.60860574034887
 20
11.36249973251192
 30
0.0
 40
0.2625
100
AcDbArc
 50
90.0
 51
180.0
  0
LINE
  5
18A2
330
1A
100
AcDbEntity
  8
ZUWAKU
100
AcDbLine
 10
18.08848865860454
 20
11.62499973251192
 30
0.0
 11
18.93793334840904
 21
11.62499973251192
 31
0.0
  0
ARC
  5
18A3
330
1A
100
AcDbEntity
  8
ZUWAKU
100
AcDbCircle
 10
18.93793334840904
 20
11.36249973251192
 30
0.0
 40
0.2625
100
AcDbArc
 50
342.4744316262769
 51
90.0
  0
LINE
  5
18A4
330
1A
100
AcDbEntity
  8
ZUWAKU
100
AcDbLine
 10
19.18824879800678
 20
11.28345274842844
 30
0.0
 11
18.65742898143787
 21
9.602523329293639
 31
0.0
  0
ARC
  5
18A5
330
1A
100
AcDbEntity
  8
ZUWAKU
100
AcDbCircle
 10
18.08848865860454
 20
11.36249973251192
 30
0.0
 40
0.2625
100
AcDbArc
 50
90.0
 51
162.4744316262769
  0
LINE
  5
18A6
330
1A
100
AcDbEntity
  8
ZUWAKU
100
AcDbLine
 10
24.19610574034891
 20
11.62499973251192
 30
0.0
 11
25.94610574034891
 21
11.62499973251192
 31
0.0
  0
LINE
  5
18A7
330
1A
100
AcDbEntity
  8
ZUWAKU
100
AcDbLine
 10
25.94610574034891
 20
10.22499973251192
 30
0.0
 11
24.4586057403489
 21
10.22499973251192
 31
0.0
  0
ARC
  5
18A8
330
1A
100
AcDbEntity
  8
ZUWAKU
100
AcDbCircle
 10
24.4586057403489
 20
9.962499732511925
 30
0.0
 40
0.2625
100
AcDbArc
 50
90.0
 51
180.0
  0
LINE
  5
18A9
330
1A
100
AcDbEntity
  8
ZUWAKU
100
AcDbLine
 10
24.19610574034891
 20
9.962499732511925
 30
0.0
 11
24.19610574034891
 21
9.317398719834255
 31
0.0
  0
ARC
  5
18AA
330
1A
100
AcDbEntity
  8
ZUWAKU
100
AcDbCircle
 10
21.48360574034887
 20
11.36249973251192
 30
0.0
 40
0.2625
100
AcDbArc
 50
0.0
 51
90.0
  0
LINE
  5
18AB
330
1A
100
AcDbEntity
  8
ZUWAKU
100
AcDbLine
 10
22.79610574034887
 20
10.22499973251192
 30
0.0
 11
22.79610574034887
 21
9.317398719834255
 31
0.0
  0
ARC
  5
18AC
330
1A
100
AcDbEntity
  8
ZUWAKU
100
AcDbCircle
 10
24.19610574034891
 20
10.22499973251192
 30
0.0
 40
1.399999999999999
100
AcDbArc
 50
90.0
 51
180.0
  0
ARC
  5
18AD
330
1A
100
AcDbEntity
  8
ZUWAKU
100
AcDbCircle
 10
28.65860574034888
 20
11.36249973251192
 30
0.0
 40
0.2625
100
AcDbArc
 50
0.0
 51
90.0
  0
ARC
  5
18AE
330
1A
100
AcDbEntity
  8
ZUWAKU
100
AcDbCircle
 10
27.78360574034889
 20
11.36249973251192
 30
0.0
 40
0.2625
100
AcDbArc
 50
90.0
 51
180.0
  0
LINE
  5
18AF
330
1A
100
AcDbEntity
  8
ZUWAKU
100
AcDbLine
 10
28.65860574034888
 20
11.62499973251192
 30
0.0
 11
27.78360574034889
 21
11.62499973251192
 31
0.0
  0
ARC
  5
18B0
330
1A
100
AcDbEntity
  8
ZUWAKU
100
AcDbCircle
 10
25.94610574034891
 20
11.36249973251192
 30
0.0
 40
0.2625
100
AcDbArc
 50
0.0
 51
90.0
  0
ARC
  5
18B1
330
1A
100
AcDbEntity
  8
ZUWAKU
100
AcDbCircle
 10
25.94610574034891
 20
10.48749973251192
 30
0.0
 40
0.2625
100
AcDbArc
 50
270.0
 51
0.0
  0
LINE
  5
18B2
330
1A
100
AcDbEntity
  8
ZUWAKU
100
AcDbLine
 10
26.2086057403489
 20
11.36249973251192
 30
0.0
 11
26.2086057403489
 21
10.48749973251192
 31
0.0
  0
LINE
  5
18B3
330
1A
100
AcDbEntity
  8
ZUWAKU
100
AcDbLine
 10
34.25860574034891
 20
11.62499973251192
 30
0.0
 11
33.38360574034891
 21
11.62499973251192
 31
0.0
  0
ARC
  5
18B4
330
1A
100
AcDbEntity
  8
ZUWAKU
100
AcDbCircle
 10
33.38360574034891
 20
11.36249973251192
 30
0.0
 40
0.2625
100
AcDbArc
 50
90.0
 51
180.0
  0
ARC
  5
18B5
330
1A
100
AcDbEntity
  8
ZUWAKU
100
AcDbCircle
 10
31.80860574034886
 20
11.36249973251192
 30
0.0
 40
0.2625
100
AcDbArc
 50
0.0
 51
90.0
  0
LINE
  5
18B6
330
1A
100
AcDbEntity
  8
ZUWAKU
100
AcDbLine
 10
31.80860574034886
 20
11.62499973251192
 30
0.0
 11
30.93360574034886
 21
11.62499973251192
 31
0.0
  0
ARC
  5
18B7
330
1A
100
AcDbEntity
  8
ZUWAKU
100
AcDbCircle
 10
30.93360574034886
 20
11.36249973251192
 30
0.0
 40
0.2625
100
AcDbArc
 50
90.0
 51
180.0
  0
ARC
  5
18B8
330
1A
100
AcDbEntity
  8
ZUWAKU
100
AcDbCircle
 10
34.25860574034891
 20
11.36249973251192
 30
0.0
 40
0.2625
100
AcDbArc
 50
0.0
 51
90.0
  0
TEXT
  5
18B9
330
1A
100
AcDbEntity
  8
MOJI
100
AcDbText
 10
119.9136010033838
 20
9.002460261215617
 30
0.0
 40
2.799999999999999
  1
亜鉛メッキ金具正面打（受）
 41
0.9
  7
ｽﾀｲﾙ1
100
AcDbText
  0
TEXT
  5
18BA
330
1A
100
AcDbEntity
  8
MOJI
100
AcDbText
 10
119.9136010033838
 20
1.602460261215634
 30
0.0
 40
2.799999999999999
  1
ＲＶ１０５－５－１０
 41
0.9
  7
ｽﾀｲﾙ1
100
AcDbText
  0
LINE
  5
18BB
330
1A
100
AcDbEntity
  8
ZUWAKU
100
AcDbLine
 10
104.1233003079922
 20
14.99999973251192
 30
0.0
 11
104.1233003079922
 21
0.399999732511958
 31
0.0
  0
LINE
  5
18BC
330
1A
100
AcDbEntity
  8
ZUWAKU
100
AcDbLine
 10
104.3233003079922
 20
14.99999973251192
 30
0.0
 11
104.3233003079923
 21
0.399999732511958
 31
0.0
  0
LINE
  5
18BD
330
1A
100
AcDbEntity
  8
ZUWAKU
100
AcDbLine
 10
104.2233003079921
 20
14.99999973251192
 30
0.0
 11
104.2233003079922
 21
0.399999732511958
 31
0.0
  0
TEXT
  5
18BE
330
1A
100
AcDbEntity
  8
ZUWAKU
100
AcDbText
 10
104.862022819097
 20
4.827678001704732
 30
0.0
 40
2.0
  1
サイズ
 41
0.9
  7
ｽﾀｲﾙ1
100
AcDbText
  0
TEXT
  5
18BF
330
1A
100
AcDbEntity
  8
ZUWAKU
100
AcDbText
 10
104.8620228190969
 20
12.02767800170471
 30
0.0
 40
2.0
  1
品名
 41
0.9
  7
ｽﾀｲﾙ1
100
AcDbText
  0
LINE
  5
18C0
330
1A
100
AcDbEntity
  8
ZUWAKU
100
AcDbLine
 10
324.4086009180604
 20
7.599999732511939
 30
0.0
 11
348.6245049372289
 21
7.599999732511941
 31
0.0
  0
LINE
  5
18C1
330
1A
100
AcDbEntity
  8
ZUWAKU
100
AcDbLine
 10
324.4086009180605
 20
7.699999732511942
 30
0.0
 11
348.6245049372289
 21
7.69999973251194
 31
0.0
  0
LINE
  5
18C2
330
1A
100
AcDbEntity
  8
ZUWAKU
100
AcDbLine
 10
324.4086009180604
 20
7.79999973251194
 30
0.0
 11
348.6245049372289
 21
7.79999973251194
 31
0.0
  0
TEXT
  5
18C3
330
1A
100
AcDbEntity
  8
ZUWAKU
100
AcDbText
 10
329.1019685066095
 20
9.002460261215617
 30
0.0
 40
2.799999999999999
  1
　　．　　．　　
 41
0.9
  7
ｽﾀｲﾙ1
100
AcDbText
  0
LINE
  5
18C4
330
1A
100
AcDbEntity
  8
ZUWAKU
100
AcDbLine
 10
252.5995894120287
 20
7.599999732511943
 30
0.0
 11
276.2634775460145
 21
7.599999732511943
 31
0.0
  0
LINE
  5
18C5
330
1A
100
AcDbEntity
  8
ZUWAKU
100
AcDbLine
 10
252.5995894120287
 20
7.69999973251194
 30
0.0
 11
276.2634775460145
 21
7.69999973251194
 31
0.0
  0
LINE
  5
18C6
330
1A
100
AcDbEntity
  8
ZUWAKU
100
AcDbLine
 10
252.5995894120287
 20
7.79999973251194
 30
0.0
 11
276.2634775460145
 21
7.79999973251194
 31
0.0
  0
TEXT
  5
18C7
330
1A
100
AcDbEntity
  8
MOJI
100
AcDbText
 10
231.2836388239526
 20
5.971308593341916
 30
0.0
 40
2.799999999999999
  1
ＬＪ５０Ｇ
 41
0.9
  7
ｽﾀｲﾙ1
100
AcDbText
  0
LINE
  5
18C8
330
1A
100
AcDbEntity
  8
ZUWAKU
100
AcDbLine
 10
223.8121816484539
 20
14.99999973251192
 30
0.0
 11
223.812181648454
 21
0.399999732511958
 31
0.0
  0
LINE
  5
18C9
330
1A
100
AcDbEntity
  8
ZUWAKU
100
AcDbLine
 10
223.9121816484539
 20
14.99999973251192
 30
0.0
 11
223.912181648454
 21
0.399999732511958
 31
0.0
  0
LINE
  5
18CA
330
1A
100
AcDbEntity
  8
ZUWAKU
100
AcDbLine
 10
223.712181648454
 20
14.99999973251192
 30
0.0
 11
223.712181648454
 21
0.399999732511958
 31
0.0
  0
TEXT
  5
18CB
330
1A
100
AcDbEntity
  8
MOJI
100
AcDbText
 10
264.0204536491147
 20
9.002460261215617
 30
0.0
 40
2.799999999999999
  1
Ａ３
 41
0.9
  7
ｽﾀｲﾙ1
100
AcDbText
  0
LINE
  5
18CC
330
1A
100
AcDbEntity
  8
ZUWAKU
100
AcDbLine
 10
252.4995894120287
 20
14.99999973251192
 30
0.0
 11
252.4995894120288
 21
0.399999732511958
 31
0.0
  0
LINE
  5
18CD
330
1A
100
AcDbEntity
  8
ZUWAKU
100
AcDbLine
 10
252.5995894120287
 20
14.99999973251192
 30
0.0
 11
252.5995894120288
 21
0.399999732511958
 31
0.0
  0
LINE
  5
18CE
330
1A
100
AcDbEntity
  8
ZUWAKU
100
AcDbLine
 10
252.3995894120288
 20
14.99999973251192
 30
0.0
 11
252.3995894120288
 21
0.399999732511958
 31
0.0
  0
TEXT
  5
18CF
330
1A
100
AcDbEntity
  8
ZUWAKU
100
AcDbText
 10
253.3383119231336
 20
4.827678001704732
 30
0.0
 40
2.0
  1
縮尺
 41
0.9
  7
ｽﾀｲﾙ1
100
AcDbText
  0
TEXT
  5
18D0
330
1A
100
AcDbEntity
  8
MOJI
100
AcDbText
 10
264.0204536491147
 20
1.602460261215634
 30
0.0
 40
2.799999999999999
  1
１/１
 41
0.9
  7
ｽﾀｲﾙ1
100
AcDbText
  0
TEXT
  5
18D1
330
1A
100
AcDbEntity
  8
ZUWAKU
100
AcDbText
 10
224.6509041595587
 20
12.02767800170471
 30
0.0
 40
2.0
  1
品番
 41
0.9
  7
ｽﾀｲﾙ1
100
AcDbText
  0
TEXT
  5
18D2
330
1A
100
AcDbEntity
  8
ZUWAKU
100
AcDbText
 10
253.3383119231335
 20
12.02767800170471
 30
0.0
 40
2.0
  1
用紙
 41
0.9
  7
ｽﾀｲﾙ1
100
AcDbText
  0
LINE
  5
18D3
330
1A
100
AcDbEntity
  8
ZUWAKU
100
AcDbLine
 10
324.3086009180605
 20
14.99999973251192
 30
0.0
 11
324.3086009180606
 21
0.399999732511958
 31
0.0
  0
LINE
  5
18D4
330
1A
100
AcDbEntity
  8
ZUWAKU
100
AcDbLine
 10
324.4086009180605
 20
14.99999973251192
 30
0.0
 11
324.4086009180606
 21
0.399999732511958
 31
0.0
  0
LINE
  5
18D5
330
1A
100
AcDbEntity
  8
ZUWAKU
100
AcDbLine
 10
324.2086009180606
 20
14.99999973251192
 30
0.0
 11
324.2086009180606
 21
0.399999732511958
 31
0.0
  0
LINE
  5
18D6
330
1A
100
AcDbEntity
  8
ZUWAKU
100
AcDbLine
 10
276.3634775460144
 20
14.99999973251192
 30
0.0
 11
276.3634775460145
 21
0.399999732511958
 31
0.0
  0
LINE
  5
18D7
330
1A
100
AcDbEntity
  8
ZUWAKU
100
AcDbLine
 10
276.4634775460144
 20
14.99999973251192
 30
0.0
 11
276.4634775460145
 21
0.399999732511958
 31
0.0
  0
LINE
  5
18D8
330
1A
100
AcDbEntity
  8
ZUWAKU
100
AcDbLine
 10
276.2634775460145
 20
14.99999973251192
 30
0.0
 11
276.2634775460145
 21
0.399999732511958
 31
0.0
  0
TEXT
  5
18D9
330
1A
100
AcDbEntity
  8
ZUWAKU
100
AcDbText
 10
325.1473234291653
 20
12.02767800170471
 30
0.0
 40
2.0
  1
DATE
 41
0.9
  7
ｽﾀｲﾙ1
100
AcDbText
  0
LINE
  5
18DA
330
1A
100
AcDbEntity
  8
ZUWAKU
100
AcDbLine
 10
348.6245049372289
 20
14.99999973251192
 30
0.0
 11
348.6245049372289
 21
0.399999732511958
 31
0.0
  0
LINE
  5
18DB
330
1A
100
AcDbEntity
  8
ZUWAKU
100
AcDbLine
 10
348.7245049372289
 20
14.99999973251192
 30
0.0
 11
348.7245049372289
 21
0.399999732511958
 31
0.0
  0
LINE
  5
18DC
330
1A
100
AcDbEntity
  8
ZUWAKU
100
AcDbLine
 10
348.8245049372288
 20
14.99999973251192
 30
0.0
 11
348.8245049372289
 21
0.399999732511958
 31
0.0
  0
LINE
  5
18DD
330
1A
100
AcDbEntity
  8
ZUWAKU
100
AcDbLine
 10
348.9245049372289
 20
14.99999973251192
 30
0.0
 11
348.924504937229
 21
0.399999732511958
 31
0.0
  0
TEXT
  5
18DE
330
1A
100
AcDbEntity
  8
ZUWAKU
100
AcDbText
 10
354.2640417590802
 20
8.776919400355325
 30
0.0
 40
3.0
  1
積水化学工業株式会社
 41
0.9
  7
ｽﾀｲﾙ1
100
AcDbText
  0
TEXT
  5
18DF
330
1A
100
AcDbEntity
  8
ZUWAKU
100
AcDbText
 10
354.2640417590802
 20
3.324419889438956
 30
0.0
 40
3.0
  1
建材事業部
 41
0.9
  7
ｽﾀｲﾙ1
100
AcDbText
  0
VIEWPORT
  5
22
330
17
100
AcDbEntity
 67
     1
  8
0
100
AcDbViewport
 10
313.6808219178082
 20
148.5
 30
0.0
 40
627.3616438356165
 41
297.0
 68
     2
 69
     1
1001
ACAD
1000
MVIEW
1002
{
1070
    16
1010
0.0
1020
0.0
1030
0.0
1010
0.0
1020
0.0
1030
1.0
1040
0.0
1040
297.0
1040
313.6808219178082
1040
148.5
1040
50.0
1040
0.0
1040
0.0
1070
     0
1070
   100
1070
     1
1070
     0
1070
     0
1070
     0
1070
     0
1070
     0
1040
0.0
1040
0.0
1040
0.0
1040
1.0
1040
1.0
1040
10.0
1040
10.0
1070
     0
1002
{
1002
}
1002
}
  0
VIEWPORT
  5
64
330
17
100
AcDbEntity
 67
     1
  8
VIEWPORT
100
AcDbViewport
 10
210.0
 20
148.5
 30
0.0
 40
420.0
 41
297.0
 68
     1
 69
     2
1001
ACAD
1000
MVIEW
1002
{
1070
    16
1010
0.0
1020
0.0
1030
0.0
1010
0.0
1020
0.0
1030
1.0
1040
0.0
1040
302.9399999999998
1040
210.0
1040
148.5
1040
50.0
1040
0.0
1040
0.0
1070
     0
1070
   100
1070
     1
1070
     0
1070
     0
1070
     0
1070
     0
1070
     0
1040
0.0
1040
0.0
1040
0.0
1040
5.0
1040
5.0
1040
0.0
1040
0.0
1070
     0
1002
{
1002
}
1002
}
  0
ENDSEC
  0
SECTION
  2
OBJECTS
  0
DICTIONARY
  5
C
330
0
100
AcDbDictionary
  3
ACAD_GROUP
350
D
  3
ACAD_LAYOUT
350
141
  3
ACAD_MLINESTYLE
350
E
  3
ACAD_PLOTSETTINGS
350
142
  3
ACAD_PLOTSTYLENAME
350
13F
  3
ACDBVARIABLEDICTIONARY
350
120D
  3
ACDBHEADERROUNDTRIPXREC
350
1957
  0
DICTIONARY
  5
7A2
330
1A
100
AcDbDictionary
280
     1
  3
ACAD_LAYOUTSELFREF
360
1979
  0
DICTIONARY
  5
7A0
330
17
100
AcDbDictionary
280
     1
  3
ACAD_LAYOUTSELFREF
360
1978
  0
DICTIONARY
  5
D
102
{ACAD_REACTORS
330
C
102
}
330
C
100
AcDbDictionary
  0
DICTIONARY
  5
141
102
{ACAD_REACTORS
330
C
102
}
330
C
100
AcDbDictionary
  0
DICTIONARY
  5
E
102
{ACAD_REACTORS
330
C
102
}
330
C
100
AcDbDictionary
  3
STANDARD
350
13
  0
DICTIONARY
  5
142
102
{ACAD_REACTORS
330
C
102
}
330
C
100
AcDbDictionary
  0
ACDBDICTIONARYWDFLT
  5
13F
102
{ACAD_REACTORS
330
C
102
}
330
C
100
AcDbDictionary
281
     1
  3
Normal
350
140
100
AcDbDictionaryWithDefault
340
140
1001
ACAD
1000
TREAT_AS_HARD
1070
     0
1000
TREAT_AS_HARD
1070
     0
1000
TREAT_AS_HARD
1070
     0
1000
TREAT_AS_HARD
1070
     0
1000
TREAT_AS_HARD
1070
     0
1000
TREAT_AS_HARD
1070
     0
1000
TREAT_AS_HARD
1070
     0
1000
TREAT_AS_HARD
1070
     0
1000
TREAT_AS_HARD
1070
     0
1000
TREAT_AS_HARD
1070
     0
1000
TREAT_AS_HARD
1070
     0
  0
DICTIONARY
  5
120D
102
{ACAD_REACTORS
330
C
102
}
330
C
100
AcDbDictionary
  3
SORTENTS
350
120E
  0
DICTIONARY
  5
1957
102
{ACAD_REACTORS
330
C
102
}
330
C
100
AcDbDictionary
  3
TSTACKALIGN
350
1958
  3
TSTACKSIZE
350
1959
  3
HYPERLINKBASE
350
195A
  3
STYLESHEET
350
195B
  3
LAYOUTDICT
350
195C
  3
PLOTSETDICT
350
195D
  3
PLOTSTYLNAMDICT
350
195E
  3
LWETCUNION
350
195F
  3
INSUNITS
350
1960
  3
CEPSNTYPE
350
1961
  3
FINGERPRINTGUID
350
1962
  3
VERSIONGUID
350
1963
  3
PSVPSCALE
350
1964
  3
DIMSTYLEDATA
350
1965
  3
PUCSORTHOREF
350
1966
  3
PUCSORTHOVIEW
350
1967
  3
PUCSBASE
350
1968
  3
PUCSORGTOP
350
1969
  3
PUCSORGBOTTOM
350
196A
  3
PUCSORGLEFT
350
196B
  3
PUCSORGRIGHT
350
196C
  3
PUCSORGFRONT
350
196D
  3
PUCSORGBACK
350
196E
  3
UCSORTHOREF
350
196F
  3
UCSORTHOVIEW
350
1970
  3
UCSBASE
350
1971
  3
UCSORGTOP
350
1972
  3
UCSORGBOTTOM
350
1973
  3
UCSORGLEFT
350
1974
  3
UCSORGRIGHT
350
1975
  3
UCSORGFRONT
350
1976
  3
UCSORGBACK
350
1977
  0
XRECORD
  5
1979
102
{ACAD_REACTORS
330
7A2
102
}
330
7A2
100
AcDbXrecord
340
1A
  0
XRECORD
  5
1978
102
{ACAD_REACTORS
330
7A0
102
}
330
7A0
100
AcDbXrecord
340
17
  0
MLINESTYLE
  5
13
102
{ACAD_REACTORS
330
E
102
}
330
E
100
AcDbMlineStyle
  2
STANDARD
 70
     0
  3

 62
     0
 51
90.0
 52
90.0
 71
     2
 49
0.5
 62
   256
  6
BYLAYER
 49
-0.5
 62
   256
  6
BYLAYER
  0
ACDBPLACEHOLDER
  5
140
102
{ACAD_REACTORS
330
13F
102
}
330
13F
100
AcDbPlaceHolder
280
     0
  0
DICTIONARYVAR
  5
120E
102
{ACAD_REACTORS
330
120D
102
}
330
120D
100
DictionaryVariables
280
     0
  1
96
  0
XRECORD
  5
1958
102
{ACAD_REACTORS
330
1957
102
}
330
1957
100
AcDbXrecord
 90
        1
  0
XRECORD
  5
1959
102
{ACAD_REACTORS
330
1957
102
}
330
1957
100
AcDbXrecord
 90
       70
  0
XRECORD
  5
195A
102
{ACAD_REACTORS
330
1957
102
}
330
1957
100
AcDbXrecord
  1

  0
XRECORD
  5
195B
102
{ACAD_REACTORS
330
1957
102
}
330
1957
100
AcDbXrecord
  1
systemprinter.ctb
  0
XRECORD
  5
195C
102
{ACAD_REACTORS
330
1957
102
}
330
1957
100
AcDbXrecord
340
141
  0
XRECORD
  5
195D
102
{ACAD_REACTORS
330
1957
102
}
330
1957
100
AcDbXrecord
340
142
  0
XRECORD
  5
195E
102
{ACAD_REACTORS
330
1957
102
}
330
1957
100
AcDbXrecord
340
13F
  0
XRECORD
  5
195F
102
{ACAD_REACTORS
330
1957
102
}
330
1957
100
AcDbXrecord
 90
    10781
  0
XRECORD
  5
1960
102
{ACAD_REACTORS
330
1957
102
}
330
1957
100
AcDbXrecord
 90
        0
  0
XRECORD
  5
1961
102
{ACAD_REACTORS
330
1957
102
}
330
1957
100
AcDbXrecord
 90
        0
  0
XRECORD
  5
1962
102
{ACAD_REACTORS
330
1957
102
}
330
1957
100
AcDbXrecord
  1
{4E8D0500-CDD1-11D3-932C-444553540000}
  0
XRECORD
  5
1963
102
{ACAD_REACTORS
330
1957
102
}
330
1957
100
AcDbXrecord
  1
{B996C2E0-210F-4EFC-BEA8-D61FA42C9E94}
  0
XRECORD
  5
1964
102
{ACAD_REACTORS
330
1957
102
}
330
1957
100
AcDbXrecord
 40
0.0
  0
XRECORD
  5
1965
102
{ACAD_REACTORS
330
1957
102
}
330
1957
100
AcDbXrecord
1000
DSTYLE
1002
{
1070
   341
340
B2
1070
   343
340
B2
1070
   344
340
B2
1070
   371
 70
    -1
1070
   372
 70
    -1
1002
}
  0
XRECORD
  5
1966
102
{ACAD_REACTORS
330
1957
102
}
330
1957
100
AcDbXrecord
340
0
  0
XRECORD
  5
1967
102
{ACAD_REACTORS
330
1957
102
}
330
1957
100
AcDbXrecord
 70
     0
  0
XRECORD
  5
1968
102
{ACAD_REACTORS
330
1957
102
}
330
1957
100
AcDbXrecord
340
0
  0
XRECORD
  5
1969
102
{ACAD_REACTORS
330
1957
102
}
330
1957
100
AcDbXrecord
 10
0.0
 20
0.0
 30
0.0
  0
XRECORD
  5
196A
102
{ACAD_REACTORS
330
1957
102
}
330
1957
100
AcDbXrecord
 10
0.0
 20
0.0
 30
0.0
  0
XRECORD
  5
196B
102
{ACAD_REACTORS
330
1957
102
}
330
1957
100
AcDbXrecord
 10
0.0
 20
0.0
 30
0.0
  0
XRECORD
  5
196C
102
{ACAD_REACTORS
330
1957
102
}
330
1957
100
AcDbXrecord
 10
0.0
 20
0.0
 30
0.0
  0
XRECORD
  5
196D
102
{ACAD_REACTORS
330
1957
102
}
330
1957
100
AcDbXrecord
 10
0.0
 20
0.0
 30
0.0
  0
XRECORD
  5
196E
102
{ACAD_REACTORS
330
1957
102
}
330
1957
100
AcDbXrecord
 10
0.0
 20
0.0
 30
0.0
  0
XRECORD
  5
196F
102
{ACAD_REACTORS
330
1957
102
}
330
1957
100
AcDbXrecord
340
0
  0
XRECORD
  5
1970
102
{ACAD_REACTORS
330
1957
102
}
330
1957
100
AcDbXrecord
 70
     0
  0
XRECORD
  5
1971
102
{ACAD_REACTORS
330
1957
102
}
330
1957
100
AcDbXrecord
340
0
  0
XRECORD
  5
1972
102
{ACAD_REACTORS
330
1957
102
}
330
1957
100
AcDbXrecord
 10
0.0
 20
0.0
 30
0.0
  0
XRECORD
  5
1973
102
{ACAD_REACTORS
330
1957
102
}
330
1957
100
AcDbXrecord
 10
0.0
 20
0.0
 30
0.0
  0
XRECORD
  5
1974
102
{ACAD_REACTORS
330
1957
102
}
330
1957
100
AcDbXrecord
 10
0.0
 20
0.0
 30
0.0
  0
XRECORD
  5
1975
102
{ACAD_REACTORS
330
1957
102
}
330
1957
100
AcDbXrecord
 10
0.0
 20
0.0
 30
0.0
  0
XRECORD
  5
1976
102
{ACAD_REACTORS
330
1957
102
}
330
1957
100
AcDbXrecord
 10
0.0
 20
0.0
 30
0.0
  0
XRECORD
  5
1977
102
{ACAD_REACTORS
330
1957
102
}
330
1957
100
AcDbXrecord
 10
0.0
 20
0.0
 30
0.0
  0
ENDSEC
  0
EOF
