  0
SECTION
  2
HEADER
  9
$ACADVER
  1
AC1014
  9
$ACADMAINTVER
 70
     9
  9
$DWGCODEPAGE
  3
ANSI_932
  9
$INSBASE
 10
0.0
 20
0.0
 30
0.0
  9
$EXTMIN
 10
-0.0128167419908323
 20
-0.0090632967028341
 30
-23.49273252472774
  9
$EXTMAX
 10
398.8000497643211
 20
275.8226172249287
 30
0.0007169841209702
  9
$LIMMIN
 10
0.0
 20
0.0
  9
$LIMMAX
 10
420.0
 20
297.0
  9
$ORTHOMODE
 70
     0
  9
$REGENMODE
 70
     1
  9
$FILLMODE
 70
     1
  9
$QTEXTMODE
 70
     0
  9
$MIRRTEXT
 70
     1
  9
$DRAGMODE
 70
     2
  9
$LTSCALE
 40
5.0
  9
$OSMODE
 70
    35
  9
$ATTMODE
 70
     1
  9
$TEXTSIZE
 40
3.0
  9
$TRACEWID
 40
1.0
  9
$TEXTSTYLE
  7
STANDARD
  9
$CLAYER
  8
CENTER_L
  9
$CELTYPE
  6
BYLAYER
  9
$CECOLOR
 62
   256
  9
$CELTSCALE
 40
1.0
  9
$DELOBJ
 70
     1
  9
$DISPSILH
 70
     0
  9
$DIMSCALE
 40
1.0
  9
$DIMASZ
 40
3.0
  9
$DIMEXO
 40
3.0
  9
$DIMDLI
 40
7.0
  9
$DIMRND
 40
0.0
  9
$DIMDLE
 40
0.0
  9
$DIMEXE
 40
1.5
  9
$DIMTP
 40
0.0
  9
$DIMTM
 40
0.0
  9
$DIMTXT
 40
3.0
  9
$DIMCEN
 40
3.0
  9
$DIMTSZ
 40
0.0
  9
$DIMTOL
 70
     0
  9
$DIMLIM
 70
     0
  9
$DIMTIH
 70
     0
  9
$DIMTOH
 70
     0
  9
$DIMSE1
 70
     0
  9
$DIMSE2
 70
     0
  9
$DIMTAD
 70
     3
  9
$DIMZIN
 70
     0
  9
$DIMBLK
  1

  9
$DIMASO
 70
     1
  9
$DIMSHO
 70
     1
  9
$DIMPOST
  1

  9
$DIMAPOST
  1

  9
$DIMALT
 70
     0
  9
$DIMALTD
 70
     2
  9
$DIMALTF
 40
25.4
  9
$DIMLFAC
 40
1.0
  9
$DIMTOFL
 70
     1
  9
$DIMTVP
 40
0.0
  9
$DIMTIX
 70
     0
  9
$DIMSOXD
 70
     0
  9
$DIMSAH
 70
     1
  9
$DIMBLK1
  1
OPEN
  9
$DIMBLK2
  1
OPEN
  9
$DIMSTYLE
  2
STANDARD
  9
$DIMCLRD
 70
   256
  9
$DIMCLRE
 70
   256
  9
$DIMCLRT
 70
   256
  9
$DIMTFAC
 40
1.0
  9
$DIMGAP
 40
1.0
  9
$DIMJUST
 70
     0
  9
$DIMSD1
 70
     0
  9
$DIMSD2
 70
     0
  9
$DIMTOLJ
 70
     1
  9
$DIMTZIN
 70
     0
  9
$DIMALTZ
 70
     0
  9
$DIMALTTZ
 70
     0
  9
$DIMFIT
 70
     3
  9
$DIMUPT
 70
     0
  9
$DIMUNIT
 70
     2
  9
$DIMDEC
 70
     0
  9
$DIMTDEC
 70
     0
  9
$DIMALTU
 70
     2
  9
$DIMALTTD
 70
     2
  9
$DIMTXSTY
  7
STANDARD
  9
$DIMAUNIT
 70
     0
  9
$LUNITS
 70
     2
  9
$LUPREC
 70
     4
  9
$SKETCHINC
 40
1.0
  9
$FILLETRAD
 40
0.5
  9
$AUNITS
 70
     0
  9
$AUPREC
 70
     0
  9
$MENU
  1
.
  9
$ELEVATION
 40
0.0
  9
$PELEVATION
 40
0.0
  9
$THICKNESS
 40
0.0
  9
$LIMCHECK
 70
     0
  9
$BLIPMODE
 70
     0
  9
$CHAMFERA
 40
10.0
  9
$CHAMFERB
 40
10.0
  9
$CHAMFERC
 40
20.0
  9
$CHAMFERD
 40
0.0
  9
$SKPOLY
 70
     0
  9
$TDCREATE
 40
2451589.469382176
  9
$TDUPDATE
 40
2453802.495656828
  9
$TDINDWG
 40
0.1505992130
  9
$TDUSRTIMER
 40
0.1505992130
  9
$USRTIMER
 70
     1
  9
$ANGBASE
 50
0.0
  9
$ANGDIR
 70
     0
  9
$PDMODE
 70
     0
  9
$PDSIZE
 40
0.0
  9
$PLINEWID
 40
0.0
  9
$COORDS
 70
     1
  9
$SPLFRAME
 70
     0
  9
$SPLINETYPE
 70
     6
  9
$SPLINESEGS
 70
     8
  9
$ATTDIA
 70
     0
  9
$ATTREQ
 70
     1
  9
$HANDLING
 70
 10241
  9
$HANDSEED
  5
19A1
  9
$SURFTAB1
 70
     6
  9
$SURFTAB2
 70
     6
  9
$SURFTYPE
 70
     6
  9
$SURFU
 70
     6
  9
$SURFV
 70
     6
  9
$UCSNAME
  2

  9
$UCSORG
 10
0.0
 20
0.0
 30
0.0
  9
$UCSXDIR
 10
1.0
 20
0.0
 30
0.0
  9
$UCSYDIR
 10
0.0
 20
1.0
 30
0.0
  9
$PUCSNAME
  2

  9
$PUCSORG
 10
0.0
 20
0.0
 30
0.0
  9
$PUCSXDIR
 10
1.0
 20
0.0
 30
0.0
  9
$PUCSYDIR
 10
0.0
 20
1.0
 30
0.0
  9
$USERI1
 70
     0
  9
$USERI2
 70
     0
  9
$USERI3
 70
     0
  9
$USERI4
 70
     0
  9
$USERI5
 70
     0
  9
$USERR1
 40
0.0
  9
$USERR2
 40
0.0
  9
$USERR3
 40
0.0
  9
$USERR4
 40
0.0
  9
$USERR5
 40
0.0
  9
$WORLDVIEW
 70
     1
  9
$SHADEDGE
 70
     3
  9
$SHADEDIF
 70
    70
  9
$TILEMODE
 70
     1
  9
$MAXACTVP
 70
    16
  9
$PINSBASE
 10
0.0
 20
0.0
 30
0.0
  9
$PLIMCHECK
 70
     0
  9
$PEXTMIN
 10
0.0
 20
0.0
 30
0.0
  9
$PEXTMAX
 10
420.0
 20
297.0
 30
0.0
  9
$PLIMMIN
 10
0.0
 20
0.0
  9
$PLIMMAX
 10
420.0
 20
297.0
  9
$UNITMODE
 70
     0
  9
$VISRETAIN
 70
     0
  9
$PLINEGEN
 70
     0
  9
$PSLTSCALE
 70
     1
  9
$TREEDEPTH
 70
  3020
  9
$PICKSTYLE
 70
     1
  9
$CMLSTYLE
  2
STANDARD
  9
$CMLJUST
 70
     0
  9
$CMLSCALE
 40
1.0
  9
$PROXYGRAPHICS
 70
     1
  9
$MEASUREMENT
 70
     0
  0
ENDSEC
  0
SECTION
  2
CLASSES
  0
CLASS
  1
ACDBDICTIONARYWDFLT
  2
AcDbDictionaryWithDefault
  3
AutoCAD 2000
 90
        0
280
     0
281
     0
  0
CLASS
  1
ACDBPLACEHOLDER
  2
AcDbPlaceHolder
  3
AutoCAD 2000
 90
        0
280
     0
281
     0
  0
CLASS
  1
LAYOUT
  2
AcDbLayout
  3
AutoCAD 2000
 90
        0
280
     0
281
     0
  0
CLASS
  1
LONG_TRANSACTION
  2
AcDbLongTransaction
  3
AutoCAD 2000
 90
        0
280
     0
281
     0
  0
CLASS
  1
LWPOLYLINE
  2
AcDbPolyline
  3
AutoCAD 2000
 90
        0
280
     0
281
     1
  0
CLASS
  1
HATCH
  2
AcDbHatch
  3
AutoCAD 2000
 90
        0
280
     0
281
     1
  0
CLASS
  1
XRECORD
  2
AcDbXrecord
  3
AutoCAD 2000
 90
        0
280
     0
281
     0
  0
CLASS
  1
LONG_TRANSACTION
  2
AcDbLongTransaction
  3
AutoCAD 2000
 90
        0
280
     0
281
     0
  0
CLASS
  1
LWPOLYLINE
  2
AcDbPolyline
  3
AutoCAD 2000
 90
        0
280
     0
281
     1
  0
CLASS
  1
HATCH
  2
AcDbHatch
  3
AutoCAD 2000
 90
        0
280
     0
281
     1
  0
CLASS
  1
XRECORD
  2
AcDbXrecord
  3
AutoCAD 2000
 90
        0
280
     0
281
     0
  0
CLASS
  1
DICTIONARYVAR
  2
AcDbDictionaryVar
  3
AutoCAD 2000
 90
        0
280
     0
281
     0
  0
CLASS
  1
LONG_TRANSACTION
  2
AcDbLongTransaction
  3
AutoCAD 2000
 90
        0
280
     0
281
     0
  0
CLASS
  1
LWPOLYLINE
  2
AcDbPolyline
  3
AutoCAD 2000
 90
        0
280
     0
281
     1
  0
CLASS
  1
HATCH
  2
AcDbHatch
  3
AutoCAD 2000
 90
        0
280
     0
281
     1
  0
CLASS
  1
XRECORD
  2
AcDbXrecord
  3
AutoCAD 2000
 90
        0
280
     0
281
     0
  0
CLASS
  1
LONG_TRANSACTION
  2
AcDbLongTransaction
  3
AutoCAD 2000
 90
        0
280
     0
281
     0
  0
CLASS
  1
LWPOLYLINE
  2
AcDbPolyline
  3
AutoCAD 2000
 90
        0
280
     0
281
     1
  0
CLASS
  1
HATCH
  2
AcDbHatch
  3
AutoCAD 2000
 90
        0
280
     0
281
     1
  0
CLASS
  1
XRECORD
  2
AcDbXrecord
  3
AutoCAD 2000
 90
        0
280
     0
281
     0
  0
CLASS
  1
LONG_TRANSACTION
  2
AcDbLongTransaction
  3
AutoCAD 2000
 90
        0
280
     0
281
     0
  0
CLASS
  1
LWPOLYLINE
  2
AcDbPolyline
  3
AutoCAD 2000
 90
        0
280
     0
281
     1
  0
CLASS
  1
HATCH
  2
AcDbHatch
  3
AutoCAD 2000
 90
        0
280
     0
281
     1
  0
CLASS
  1
XRECORD
  2
AcDbXrecord
  3
AutoCAD 2000
 90
        0
280
     0
281
     0
  0
CLASS
  1
LONG_TRANSACTION
  2
AcDbLongTransaction
  3
AutoCAD 2000
 90
        0
280
     0
281
     0
  0
CLASS
  1
LWPOLYLINE
  2
AcDbPolyline
  3
AutoCAD 2000
 90
        0
280
     0
281
     1
  0
CLASS
  1
HATCH
  2
AcDbHatch
  3
AutoCAD 2000
 90
        0
280
     0
281
     1
  0
CLASS
  1
XRECORD
  2
AcDbXrecord
  3
AutoCAD 2000
 90
        0
280
     0
281
     0
  0
CLASS
  1
LONG_TRANSACTION
  2
AcDbLongTransaction
  3
AutoCAD 2000
 90
        0
280
     0
281
     0
  0
CLASS
  1
LWPOLYLINE
  2
AcDbPolyline
  3
AutoCAD 2000
 90
        0
280
     0
281
     1
  0
CLASS
  1
HATCH
  2
AcDbHatch
  3
AutoCAD 2000
 90
        0
280
     0
281
     1
  0
CLASS
  1
XRECORD
  2
AcDbXrecord
  3
AutoCAD 2000
 90
        0
280
     0
281
     0
  0
CLASS
  1
LONG_TRANSACTION
  2
AcDbLongTransaction
  3
AutoCAD 2000
 90
        0
280
     0
281
     0
  0
CLASS
  1
LWPOLYLINE
  2
AcDbPolyline
  3
AutoCAD 2000
 90
        0
280
     0
281
     1
  0
CLASS
  1
HATCH
  2
AcDbHatch
  3
AutoCAD 2000
 90
        0
280
     0
281
     1
  0
CLASS
  1
XRECORD
  2
AcDbXrecord
  3
AutoCAD 2000
 90
        0
280
     0
281
     0
  0
CLASS
  1
LONG_TRANSACTION
  2
AcDbLongTransaction
  3
AutoCAD 2000
 90
        0
280
     0
281
     0
  0
CLASS
  1
LWPOLYLINE
  2
AcDbPolyline
  3
AutoCAD 2000
 90
        0
280
     0
281
     1
  0
CLASS
  1
HATCH
  2
AcDbHatch
  3
AutoCAD 2000
 90
        0
280
     0
281
     1
  0
CLASS
  1
XRECORD
  2
AcDbXrecord
  3
AutoCAD 2000
 90
        0
280
     0
281
     0
  0
CLASS
  1
LONG_TRANSACTION
  2
AcDbLongTransaction
  3
AutoCAD 2000
 90
        0
280
     0
281
     0
  0
CLASS
  1
LWPOLYLINE
  2
AcDbPolyline
  3
AutoCAD 2000
 90
        0
280
     0
281
     1
  0
CLASS
  1
HATCH
  2
AcDbHatch
  3
AutoCAD 2000
 90
        0
280
     0
281
     1
  0
CLASS
  1
XRECORD
  2
AcDbXrecord
  3
AutoCAD 2000
 90
        0
280
     0
281
     0
  0
CLASS
  1
LONG_TRANSACTION
  2
AcDbLongTransaction
  3
AutoCAD 2000
 90
        0
280
     0
281
     0
  0
CLASS
  1
LWPOLYLINE
  2
AcDbPolyline
  3
AutoCAD 2000
 90
        0
280
     0
281
     1
  0
CLASS
  1
HATCH
  2
AcDbHatch
  3
AutoCAD 2000
 90
        0
280
     0
281
     1
  0
CLASS
  1
XRECORD
  2
AcDbXrecord
  3
AutoCAD 2000
 90
        0
280
     0
281
     0
  0
ENDSEC
  0
SECTION
  2
TABLES
  0
TABLE
  2
VPORT
  5
8
330
0
100
AcDbSymbolTable
 70
     2
  0
VPORT
  5
197D
330
8
100
AcDbSymbolTableRecord
100
AcDbViewportTableRecord
  2
*ACTIVE
 70
     0
 10
0.0
 20
0.0
 11
1.0
 21
1.0
 12
207.8407071779495
 22
146.10946489146
 13
0.0
 23
0.0
 14
5.0
 24
5.0
 15
0.0
 25
0.0
 16
0.0
 26
0.0
 36
1.0
 17
0.0
 27
0.0
 37
0.0
 40
330.124218815449
 41
1.795454545454545
 42
50.0
 43
0.0
 44
0.0
 50
0.0
 51
0.0
 71
     0
 72
   100
 73
     1
 74
     0
 75
     0
 76
     0
 77
     0
 78
     0
  0
ENDTAB
  0
TABLE
  2
LTYPE
  5
5
330
0
100
AcDbSymbolTable
 70
     3
  0
LTYPE
  5
14
330
5
100
AcDbSymbolTableRecord
100
AcDbLinetypeTableRecord
  2
BYBLOCK
 70
     0
  3

 72
    65
 73
     0
 40
0.0
  0
LTYPE
  5
15
330
5
100
AcDbSymbolTableRecord
100
AcDbLinetypeTableRecord
  2
BYLAYER
 70
     0
  3

 72
    65
 73
     0
 40
0.0
  0
LTYPE
  5
16
330
5
100
AcDbSymbolTableRecord
100
AcDbLinetypeTableRecord
  2
CONTINUOUS
 70
     0
  3
Solid line
 72
    65
 73
     0
 40
0.0
  0
LTYPE
  5
120
330
5
100
AcDbSymbolTableRecord
100
AcDbLinetypeTableRecord
  2
CENTER
 70
     0
  3
____ _ ____ _ ____ _ ____ _ ____ _ ____ _ ____ 
 72
    65
 73
     4
 40
2.0
 49
1.25
 74
     0
 49
-0.25
 74
     0
 49
0.25
 74
     0
 49
-0.25
 74
     0
  0
LTYPE
  5
122
330
5
100
AcDbSymbolTableRecord
100
AcDbLinetypeTableRecord
  2
PHANTOM
 70
     0
  3
______  __  __  ______  __  __  ______  __  __ 
 72
    65
 73
     6
 40
2.5
 49
1.25
 74
     0
 49
-0.25
 74
     0
 49
0.25
 74
     0
 49
-0.25
 74
     0
 49
0.25
 74
     0
 49
-0.25
 74
     0
  0
ENDTAB
  0
TABLE
  2
LAYER
  5
2
330
0
100
AcDbSymbolTable
 70
     9
  0
LAYER
  5
F
330
2
100
AcDbSymbolTableRecord
100
AcDbLayerTableRecord
  2
0
 70
     0
 62
     7
  6
CONTINUOUS
  0
LAYER
  5
62
330
2
100
AcDbSymbolTableRecord
100
AcDbLayerTableRecord
  2
VIEWPORT
 70
     0
 62
     7
  6
CONTINUOUS
  0
LAYER
  5
6B
330
2
100
AcDbSymbolTableRecord
100
AcDbLayerTableRecord
  2
ZUWAKU
 70
     0
 62
     7
  6
CONTINUOUS
  0
LAYER
  5
3EF
330
2
100
AcDbSymbolTableRecord
100
AcDbLayerTableRecord
  2
DEFPOINTS
 70
     0
 62
     7
  6
CONTINUOUS
  0
LAYER
  5
54D
330
2
100
AcDbSymbolTableRecord
100
AcDbLayerTableRecord
  2
SEIHIN
 70
     0
 62
     3
  6
CONTINUOUS
  0
LAYER
  5
54E
330
2
100
AcDbSymbolTableRecord
100
AcDbLayerTableRecord
  2
SUNPOU
 70
     0
 62
     4
  6
CONTINUOUS
  0
LAYER
  5
54F
330
2
100
AcDbSymbolTableRecord
100
AcDbLayerTableRecord
  2
CENTER_L
 70
     0
 62
     1
  6
CENTER
  0
LAYER
  5
550
330
2
100
AcDbSymbolTableRecord
100
AcDbLayerTableRecord
  2
NOKITOI
 70
     0
 62
     8
  6
PHANTOM
  0
LAYER
  5
1798
330
2
100
AcDbSymbolTableRecord
100
AcDbLayerTableRecord
  2
MOJI
 70
     0
 62
     2
  6
CONTINUOUS
  0
ENDTAB
  0
TABLE
  2
STYLE
  5
3
330
0
100
AcDbSymbolTable
 70
     2
  0
STYLE
  5
10
330
3
100
AcDbSymbolTableRecord
100
AcDbTextStyleTableRecord
  2
STANDARD
 70
     0
 40
0.0
 41
1.0
 50
0.0
 71
     0
 42
3.0
  3
TXT
  4
c:\PROGRAM FILES\AUTOCAD LT\ms\bigfont.shx
  0
STYLE
  5
1799
330
3
100
AcDbSymbolTableRecord
100
AcDbTextStyleTableRecord
  2
ｽﾀｲﾙ1
 70
     0
 40
0.0
 41
1.0
 50
0.0
 71
     0
 42
2.5
  3
MS PGothic.ttf
  4

1001
ACAD
1000
MS PGothic
1071
    32818
  0
ENDTAB
  0
TABLE
  2
VIEW
  5
6
330
0
100
AcDbSymbolTable
 70
     0
  0
ENDTAB
  0
TABLE
  2
UCS
  5
7
330
0
100
AcDbSymbolTable
 70
     0
  0
ENDTAB
  0
TABLE
  2
APPID
  5
9
330
0
100
AcDbSymbolTable
 70
     1
  0
APPID
  5
11
330
9
100
AcDbSymbolTableRecord
100
AcDbRegAppTableRecord
  2
ACAD
 70
     0
  0
ENDTAB
  0
TABLE
  2
DIMSTYLE
  5
A
330
0
100
AcDbSymbolTable
 70
     1
  0
DIMSTYLE
105
1D
102
{ACAD_REACTORS
330
1220
330
122D
330
123A
330
1247
330
1256
330
1265
330
13B8
330
1444
330
1451
330
145E
330
146B
330
1478
102
}
330
A
100
AcDbSymbolTableRecord
100
AcDbDimStyleTableRecord
  2
STANDARD
 70
     0
  3

  4

  5

  6

  7

 40
1.0
 41
0.18
 42
0.0625
 43
0.38
 44
0.18
 45
0.0
 46
0.0
 47
0.0
 48
0.0
140
0.18
141
0.09
142
0.0
143
25.4
144
1.0
145
0.0
146
1.0
147
0.09
 71
     0
 72
     0
 73
     1
 74
     1
 75
     0
 76
     0
 77
     0
 78
     0
170
     0
171
     2
172
     0
173
     0
174
     0
175
     0
176
     0
177
     0
178
     0
270
     2
271
     4
272
     4
273
     2
274
     2
340
10
275
     0
280
     0
281
     0
282
     0
283
     1
284
     0
285
     0
286
     0
287
     3
288
     0
  0
ENDTAB
  0
TABLE
  2
BLOCK_RECORD
  5
1
330
0
100
AcDbSymbolTable
 70
    13
  0
BLOCK_RECORD
  5
1A
102
{ACAD_XDICTIONARY
360
7A2
102
}
330
1
100
AcDbSymbolTableRecord
100
AcDbBlockTableRecord
  2
*MODEL_SPACE
  0
BLOCK_RECORD
  5
17
102
{ACAD_XDICTIONARY
360
7A0
102
}
330
1
100
AcDbSymbolTableRecord
100
AcDbBlockTableRecord
  2
*PAPER_SPACE
  0
BLOCK_RECORD
  5
B2
330
1
100
AcDbSymbolTableRecord
100
AcDbBlockTableRecord
  2
_OPEN
  0
BLOCK_RECORD
  5
1221
330
1
100
AcDbSymbolTableRecord
100
AcDbBlockTableRecord
  2
*D1
  0
BLOCK_RECORD
  5
122E
330
1
100
AcDbSymbolTableRecord
100
AcDbBlockTableRecord
  2
*D2
  0
BLOCK_RECORD
  5
123B
330
1
100
AcDbSymbolTableRecord
100
AcDbBlockTableRecord
  2
*D3
  0
BLOCK_RECORD
  5
1248
330
1
100
AcDbSymbolTableRecord
100
AcDbBlockTableRecord
  2
*D4
  0
BLOCK_RECORD
  5
1257
330
1
100
AcDbSymbolTableRecord
100
AcDbBlockTableRecord
  2
*D5
  0
BLOCK_RECORD
  5
1266
330
1
100
AcDbSymbolTableRecord
100
AcDbBlockTableRecord
  2
*D6
  0
BLOCK_RECORD
  5
13B9
330
1
100
AcDbSymbolTableRecord
100
AcDbBlockTableRecord
  2
*D7
  0
BLOCK_RECORD
  5
1445
330
1
100
AcDbSymbolTableRecord
100
AcDbBlockTableRecord
  2
*D8
  0
BLOCK_RECORD
  5
1452
330
1
100
AcDbSymbolTableRecord
100
AcDbBlockTableRecord
  2
*D9
  0
BLOCK_RECORD
  5
145F
330
1
100
AcDbSymbolTableRecord
100
AcDbBlockTableRecord
  2
*D10
  0
BLOCK_RECORD
  5
146C
330
1
100
AcDbSymbolTableRecord
100
AcDbBlockTableRecord
  2
*D11
  0
BLOCK_RECORD
  5
1479
330
1
100
AcDbSymbolTableRecord
100
AcDbBlockTableRecord
  2
*D12
  0
ENDTAB
  0
ENDSEC
  0
SECTION
  2
BLOCKS
  0
BLOCK
  5
1B
330
1A
100
AcDbEntity
  8
0
100
AcDbBlockBegin
  2
*MODEL_SPACE
 70
     0
 10
0.0
 20
0.0
 30
0.0
  3
*MODEL_SPACE
  1

  0
ENDBLK
  5
1C
330
1A
100
AcDbEntity
  8
0
100
AcDbBlockEnd
  0
BLOCK
  5
18
330
17
100
AcDbEntity
 67
     1
  8
0
100
AcDbBlockBegin
  2
*PAPER_SPACE
 70
     0
 10
0.0
 20
0.0
 30
0.0
  3
*PAPER_SPACE
  1

  0
ENDBLK
  5
19
330
17
100
AcDbEntity
 67
     1
  8
0
100
AcDbBlockEnd
  0
BLOCK
  5
B3
330
B2
100
AcDbEntity
  8
0
100
AcDbBlockBegin
  2
_OPEN
 70
     0
 10
0.0
 20
0.0
 30
0.0
  3
_OPEN
  1

  0
LINE
  5
B4
330
B2
100
AcDbEntity
  8
0
  6
BYBLOCK
 62
     0
100
AcDbLine
 10
-1.0
 20
0.1666666666666666
 30
0.0
 11
0.0
 21
0.0
 31
0.0
  0
LINE
  5
B5
330
B2
100
AcDbEntity
  8
0
  6
BYBLOCK
 62
     0
100
AcDbLine
 10
0.0
 20
0.0
 30
0.0
 11
-1.0
 21
-0.1666666666666666
 31
0.0
  0
LINE
  5
B6
330
B2
100
AcDbEntity
  8
0
  6
BYBLOCK
 62
     0
100
AcDbLine
 10
0.0
 20
0.0
 30
0.0
 11
-1.0
 21
0.0
 31
0.0
  0
ENDBLK
  5
B7
330
B2
100
AcDbEntity
  8
0
100
AcDbBlockEnd
  0
BLOCK
  5
122B
330
1221
100
AcDbEntity
  8
0
100
AcDbBlockBegin
  2
*D1
 70
     1
 10
0.0
 20
0.0
 30
0.0
  3
*D1
  1

  0
LINE
  5
193D
330
1221
100
AcDbEntity
  8
SUNPOU
100
AcDbLine
 10
314.2760972963357
 20
127.8736489904432
 30
0.0
 11
306.4019524826218
 21
143.5979521502628
 31
0.0
  0
LINE
  5
193E
330
1221
100
AcDbEntity
  8
SUNPOU
100
AcDbLine
 10
353.6188833734135
 20
147.5750495420102
 30
0.0
 11
345.7447385596996
 21
163.2993527018298
 31
0.0
  0
LINE
  5
193F
330
1221
100
AcDbEntity
  8
SUNPOU
100
AcDbLine
 10
309.7560538248624
 20
143.5999981170602
 30
0.0
 11
343.7339145277932
 21
160.6148440479589
 31
0.0
  0
INSERT
  5
1940
330
1221
100
AcDbEntity
  8
SUNPOU
100
AcDbBlockReference
  2
_OPEN
 10
307.073591137789
 20
142.2567208067261
 30
0.0
 41
3.0
 42
3.0
 43
3.0
 50
206.6000009999999
  0
INSERT
  5
1941
330
1221
100
AcDbEntity
  8
SUNPOU
100
AcDbBlockReference
  2
_OPEN
 10
346.4163772148667
 20
161.958121358293
 30
0.0
 41
3.0
 42
3.0
 43
3.0
 50
26.60000099999999
  0
MTEXT
  5
1942
330
1221
100
AcDbEntity
  8
SUNPOU
100
AcDbMText
 10
325.625586417716
 20
154.3428066550708
 30
0.0
 40
3.0
 41
0.0
 71
     5
 72
     1
  1
\A1;44
 11
0.8941542290244978
 21
0.4477591034447049
 31
0.0
1001
ACAD
1000
MTEXTBEGIN
1070
    73
1070
     1
1070
    44
1040
1.0
1070
    74
1070
     0
1000
MTEXTEND
  0
POINT
  5
1943
330
1221
100
AcDbEntity
  8
DEFPOINTS
 62
     0
100
AcDbPoint
 10
315.6193746066699
 20
125.1911863033697
 30
0.0
  0
POINT
  5
1944
330
1221
100
AcDbEntity
  8
DEFPOINTS
 62
     0
100
AcDbPoint
 10
354.9621606837475
 20
144.8925868549367
 30
0.0
  0
POINT
  5
1945
330
1221
100
AcDbEntity
  8
DEFPOINTS
 62
     0
100
AcDbPoint
 10
346.4163772148667
 20
161.958121358293
 30
0.0
  0
ENDBLK
  5
122C
330
1221
100
AcDbEntity
  8
0
100
AcDbBlockEnd
  0
BLOCK
  5
1238
330
122E
100
AcDbEntity
  8
0
100
AcDbBlockBegin
  2
*D2
 70
     1
 10
0.0
 20
0.0
 30
0.0
  3
*D2
  1

  0
LINE
  5
1934
330
122E
100
AcDbEntity
  8
SUNPOU
100
AcDbLine
 10
309.8290780842503
 20
123.3540782002746
 30
0.0
 11
297.6479769962283
 21
147.6791739230349
 31
0.0
  0
LINE
  5
1935
330
122E
100
AcDbEntity
  8
SUNPOU
100
AcDbLine
 10
359.9017149096222
 20
148.4285879931782
 30
0.0
 11
347.7206138216001
 21
172.7536837159384
 31
0.0
  0
LINE
  5
1936
330
122E
100
AcDbEntity
  8
SUNPOU
100
AcDbLine
 10
301.0020783384689
 20
147.6812198898323
 30
0.0
 11
345.7097897896937
 21
170.0691750620676
 31
0.0
  0
INSERT
  5
1937
330
122E
100
AcDbEntity
  8
SUNPOU
100
AcDbBlockReference
  2
_OPEN
 10
298.3196156513954
 20
146.3379425794982
 30
0.0
 41
3.0
 42
3.0
 43
3.0
 50
206.600001
  0
INSERT
  5
1938
330
122E
100
AcDbEntity
  8
SUNPOU
100
AcDbBlockReference
  2
_OPEN
 10
348.3922524767672
 20
171.4124523724017
 30
0.0
 41
3.0
 42
3.0
 43
3.0
 50
26.60000100000005
  0
MTEXT
  5
1939
330
122E
100
AcDbEntity
  8
SUNPOU
100
AcDbMText
 10
322.2365363054696
 20
161.1105830485112
 30
0.0
 40
3.0
 41
0.0
 71
     5
 72
     1
  1
\A1;56
 11
0.8941542290244973
 21
0.4477591034447059
 31
0.0
1001
ACAD
1000
MTEXTBEGIN
1070
    73
1070
     1
1070
    44
1040
1.0
1070
    74
1070
     0
1000
MTEXTEND
  0
POINT
  5
193A
330
122E
100
AcDbEntity
  8
DEFPOINTS
 62
     0
100
AcDbPoint
 10
311.1723553945844
 20
120.6716155132011
 30
0.0
  0
POINT
  5
193B
330
122E
100
AcDbEntity
  8
DEFPOINTS
 62
     0
100
AcDbPoint
 10
361.2449922199563
 20
145.7461253061047
 30
0.0
  0
POINT
  5
193C
330
122E
100
AcDbEntity
  8
DEFPOINTS
 62
     0
100
AcDbPoint
 10
348.3922524767672
 20
171.4124523724017
 30
0.0
  0
ENDBLK
  5
1239
330
122E
100
AcDbEntity
  8
0
100
AcDbBlockEnd
  0
BLOCK
  5
1245
330
123B
100
AcDbEntity
  8
0
100
AcDbBlockBegin
  2
*D3
 70
     1
 10
0.0
 20
0.0
 30
0.0
  3
*D3
  1

  0
LINE
  5
192B
330
123B
100
AcDbEntity
  8
SUNPOU
100
AcDbLine
 10
357.2192522225486
 20
147.085310682844
 30
0.0
 11
371.8059697722391
 21
154.3897950326817
 31
0.0
  0
LINE
  5
192C
330
123B
100
AcDbEntity
  8
SUNPOU
100
AcDbLine
 10
365.055036532831
 20
131.4376116749154
 30
0.0
 11
379.6417540825215
 21
138.7420960247531
 31
0.0
  0
LINE
  5
192D
330
123B
100
AcDbEntity
  8
SUNPOU
100
AcDbLine
 10
371.8080157390365
 20
151.0356936904412
 30
0.0
 11
376.9572454286507
 21
140.7529200566595
 31
0.0
  0
INSERT
  5
192E
330
123B
100
AcDbEntity
  8
SUNPOU
100
AcDbBlockReference
  2
_OPEN
 10
370.4647384287024
 20
153.7181563775147
 30
0.0
 41
3.0
 42
3.0
 43
3.0
 50
116.6000010000003
  0
INSERT
  5
192F
330
123B
100
AcDbEntity
  8
SUNPOU
100
AcDbBlockReference
  2
_OPEN
 10
378.3005227389848
 20
138.070457369586
 30
0.0
 41
3.0
 42
3.0
 43
3.0
 50
296.6000010000003
  0
MTEXT
  5
1930
330
123B
100
AcDbEntity
  8
SUNPOU
100
AcDbMText
 10
376.6180161564047
 20
147.0137046321621
 30
0.0
 40
3.0
 41
0.0
 71
     5
 72
     1
  1
\A1;18
 11
0.4477591034447105
 21
-0.8941542290244953
 31
0.0
1001
ACAD
1000
MTEXTBEGIN
1070
    73
1070
     1
1070
    44
1040
1.0
1070
    74
1070
     0
1000
MTEXTEND
  0
POINT
  5
1931
330
123B
100
AcDbEntity
  8
DEFPOINTS
 62
     0
100
AcDbPoint
 10
354.5367895354751
 20
145.7420333725099
 30
0.0
  0
POINT
  5
1932
330
123B
100
AcDbEntity
  8
DEFPOINTS
 62
     0
100
AcDbPoint
 10
362.3725738457576
 20
130.0943343645813
 30
0.0
  0
POINT
  5
1933
330
123B
100
AcDbEntity
  8
DEFPOINTS
 62
     0
100
AcDbPoint
 10
378.3005227389848
 20
138.070457369586
 30
0.0
  0
ENDBLK
  5
1246
330
123B
100
AcDbEntity
  8
0
100
AcDbBlockEnd
  0
BLOCK
  5
1254
330
1248
100
AcDbEntity
  8
0
100
AcDbBlockBegin
  2
*D4
 70
     1
 10
0.0
 20
0.0
 30
0.0
  3
*D4
  1

  0
LINE
  5
1963
330
1248
100
AcDbEntity
  8
SUNPOU
100
AcDbLine
 10
312.511540771324
 20
124.6973555106087
 30
0.0
 11
299.8366380022022
 21
118.3502367296099
 31
0.0
  0
LINE
  5
1964
330
1248
100
AcDbEntity
  8
SUNPOU
100
AcDbLine
 10
315.6458544954369
 20
118.4382759074373
 30
0.0
 11
302.9709517263152
 21
112.0911571264385
 31
0.0
  0
LINE
  5
1965
330
1248
100
AcDbEntity
  8
SUNPOU
100
AcDbLine
 10
299.8345920354048
 20
121.7043380718504
 30
0.0
 11
298.4913147250706
 21
124.3868007589239
 31
0.0
  0
LINE
  5
1966
330
1248
100
AcDbEntity
  8
SUNPOU
100
AcDbLine
 10
305.655460380186
 20
110.080333094532
 30
0.0
 11
306.9987376905202
 21
107.3978704074586
 31
0.0
  0
LINE
  5
1967
330
1248
100
AcDbEntity
  8
SUNPOU
100
AcDbLine
 10
301.1778693457389
 20
119.0218753847769
 30
0.0
 11
304.3121830698519
 21
112.7627957816055
 31
0.0
  0
INSERT
  5
1968
330
1248
100
AcDbEntity
  8
SUNPOU
100
AcDbBlockReference
  2
_OPEN
 10
301.1778693457389
 20
119.0218753847769
 30
0.0
 41
3.0
 42
3.0
 43
3.0
 50
296.6000010000005
  0
INSERT
  5
1969
330
1248
100
AcDbEntity
  8
SUNPOU
100
AcDbBlockReference
  2
_OPEN
 10
304.3121830698519
 20
112.7627957816055
 30
0.0
 41
3.0
 42
3.0
 43
3.0
 50
116.6000010000006
  0
MTEXT
  5
196A
330
1248
100
AcDbEntity
  8
SUNPOU
100
AcDbMText
 10
304.9804117803566
 20
117.011733341803
 30
0.0
 40
3.0
 41
0.0
 71
     5
 72
     1
  1
\A1;7
 11
0.4477591034447147
 21
-0.8941542290244928
 31
0.0
1001
ACAD
1000
MTEXTBEGIN
1070
    73
1070
     1
1070
    44
1040
1.0
1070
    74
1070
     0
1000
MTEXTEND
  0
POINT
  5
196B
330
1248
100
AcDbEntity
  8
DEFPOINTS
 62
     0
100
AcDbPoint
 10
315.1940034583975
 20
126.0406328209429
 30
0.0
  0
POINT
  5
196C
330
1248
100
AcDbEntity
  8
DEFPOINTS
 62
     0
100
AcDbPoint
 10
318.3283171825105
 20
119.7815532177715
 30
0.0
  0
POINT
  5
196D
330
1248
100
AcDbEntity
  8
DEFPOINTS
 62
     0
100
AcDbPoint
 10
304.3121830698519
 20
112.7627957816055
 30
0.0
  0
ENDBLK
  5
1255
330
1248
100
AcDbEntity
  8
0
100
AcDbBlockEnd
  0
BLOCK
  5
1263
330
1257
100
AcDbEntity
  8
0
100
AcDbBlockBegin
  2
*D5
 70
     1
 10
0.0
 20
0.0
 30
0.0
  3
*D5
  1

  0
LINE
  5
1958
330
1257
100
AcDbEntity
  8
SUNPOU
100
AcDbLine
 10
325.0487956677758
 20
99.66103709792296
 30
0.0
 11
312.3738928986544
 21
93.31391831692428
 31
0.0
  0
LINE
  5
1959
330
1257
100
AcDbEntity
  8
SUNPOU
100
AcDbLine
 10
328.1831093918888
 20
93.40195749475155
 30
0.0
 11
315.5082066227673
 21
87.05483871375284
 31
0.0
  0
LINE
  5
195A
330
1257
100
AcDbEntity
  8
SUNPOU
100
AcDbLine
 10
312.3718469318569
 20
96.66801965916485
 30
0.0
 11
311.0285696215228
 21
99.35048234623833
 31
0.0
  0
LINE
  5
195B
330
1257
100
AcDbEntity
  8
SUNPOU
100
AcDbLine
 10
318.1927152766381
 20
85.04401468184644
 30
0.0
 11
319.5359925869723
 21
82.36155199477295
 31
0.0
  0
LINE
  5
195C
330
1257
100
AcDbEntity
  8
SUNPOU
100
AcDbLine
 10
313.7151242421911
 20
93.98555697209136
 30
0.0
 11
316.849437966304
 21
87.72647736891991
 31
0.0
  0
INSERT
  5
195D
330
1257
100
AcDbEntity
  8
SUNPOU
100
AcDbBlockReference
  2
_OPEN
 10
313.7151242421911
 20
93.98555697209136
 30
0.0
 41
3.0
 42
3.0
 43
3.0
 50
296.6000010000005
  0
INSERT
  5
195E
330
1257
100
AcDbEntity
  8
SUNPOU
100
AcDbBlockReference
  2
_OPEN
 10
316.849437966304
 20
87.72647736891991
 30
0.0
 41
3.0
 42
3.0
 43
3.0
 50
116.6000010000005
  0
MTEXT
  5
195F
330
1257
100
AcDbEntity
  8
SUNPOU
100
AcDbMText
 10
317.5176666768088
 20
91.97541492911748
 30
0.0
 40
3.0
 41
0.0
 71
     5
 72
     1
  1
\A1;7
 11
0.4477591034447132
 21
-0.8941542290244937
 31
0.0
1001
ACAD
1000
MTEXTBEGIN
1070
    73
1070
     1
1070
    44
1040
1.0
1070
    74
1070
     0
1000
MTEXTEND
  0
POINT
  5
1960
330
1257
100
AcDbEntity
  8
DEFPOINTS
 62
     0
100
AcDbPoint
 10
327.7312583548492
 20
101.004314408257
 30
0.0
  0
POINT
  5
1961
330
1257
100
AcDbEntity
  8
DEFPOINTS
 62
     0
100
AcDbPoint
 10
330.8655720789623
 20
94.74523480508565
 30
0.0
  0
POINT
  5
1962
330
1257
100
AcDbEntity
  8
DEFPOINTS
 62
     0
100
AcDbPoint
 10
316.849437966304
 20
87.72647736891991
 30
0.0
  0
ENDBLK
  5
1264
330
1257
100
AcDbEntity
  8
0
100
AcDbBlockEnd
  0
BLOCK
  5
1270
330
1266
100
AcDbEntity
  8
0
100
AcDbBlockBegin
  2
*D6
 70
     1
 10
0.0
 20
0.0
 30
0.0
  3
*D6
  1

  0
LINE
  5
194F
330
1266
100
AcDbEntity
  8
SUNPOU
100
AcDbLine
 10
309.8290780842504
 20
123.3540782002747
 30
0.0
 11
292.0628525150015
 21
114.4574147676563
 31
0.0
  0
LINE
  5
1950
330
1266
100
AcDbEntity
  8
SUNPOU
100
AcDbLine
 10
325.5006467048151
 20
92.05868018441725
 30
0.0
 11
307.7344211355661
 21
83.16201675179895
 31
0.0
  0
LINE
  5
1951
330
1266
100
AcDbEntity
  8
SUNPOU
100
AcDbLine
 10
294.7473611688723
 20
112.4465907357499
 30
0.0
 11
307.7323751687687
 21
86.5161180940395
 31
0.0
  0
INSERT
  5
1952
330
1266
100
AcDbEntity
  8
SUNPOU
100
AcDbBlockReference
  2
_OPEN
 10
293.4040838585382
 20
115.1290534228234
 30
0.0
 41
3.0
 42
3.0
 43
3.0
 50
116.6000009999999
  0
INSERT
  5
1953
330
1266
100
AcDbEntity
  8
SUNPOU
100
AcDbBlockReference
  2
_OPEN
 10
309.0756524791029
 20
83.83365540696601
 30
0.0
 41
3.0
 42
3.0
 43
3.0
 50
296.6000009999999
  0
MTEXT
  5
1954
330
1266
100
AcDbEntity
  8
SUNPOU
100
AcDbMText
 10
303.4752537413818
 20
100.6007521735064
 30
0.0
 40
3.0
 41
0.0
 71
     5
 72
     1
  1
\A1;35
 11
0.4477591034447044
 21
-0.894154229024498
 31
0.0
1001
ACAD
1000
MTEXTBEGIN
1070
    73
1070
     1
1070
    44
1040
1.0
1070
    74
1070
     0
1000
MTEXTEND
  0
POINT
  5
1955
330
1266
100
AcDbEntity
  8
DEFPOINTS
 62
     0
100
AcDbPoint
 10
312.5115407713238
 20
124.6973555106088
 30
0.0
  0
POINT
  5
1956
330
1266
100
AcDbEntity
  8
DEFPOINTS
 62
     0
100
AcDbPoint
 10
328.1831093918885
 20
93.40195749475137
 30
0.0
  0
POINT
  5
1957
330
1266
100
AcDbEntity
  8
DEFPOINTS
 62
     0
100
AcDbPoint
 10
309.0756524791029
 20
83.83365540696601
 30
0.0
  0
ENDBLK
  5
1271
330
1266
100
AcDbEntity
  8
0
100
AcDbBlockEnd
  0
BLOCK
  5
13C3
330
13B9
100
AcDbEntity
  8
0
100
AcDbBlockBegin
  2
*D7
 70
     1
 10
0.0
 20
0.0
 30
0.0
  3
*D7
  1

  0
LINE
  5
1946
330
13B9
100
AcDbEntity
  8
SUNPOU
100
AcDbLine
 10
263.77472720882
 20
100.291780224257
 30
0.0
 11
275.9380772704571
 21
106.3827323586266
 31
0.0
  0
LINE
  5
1947
330
13B9
100
AcDbEntity
  8
SUNPOU
100
AcDbLine
 10
279.4462954887322
 20
68.99638226376298
 30
0.0
 11
291.6096455503693
 21
75.08733439813266
 31
0.0
  0
LINE
  5
1948
330
13B9
100
AcDbEntity
  8
SUNPOU
100
AcDbLine
 10
275.9401232104402
 20
103.0286310163697
 30
0.0
 11
288.9251369125739
 21
77.09815845150029
 31
0.0
  0
INSERT
  5
1949
330
13B9
100
AcDbEntity
  8
SUNPOU
100
AcDbBlockReference
  2
_OPEN
 10
274.596845921551
 20
105.711093714182
 30
0.0
 41
3.0
 42
3.0
 43
3.0
 50
116.6000005419506
  0
INSERT
  5
194A
330
13B9
100
AcDbEntity
  8
SUNPOU
100
AcDbBlockReference
  2
_OPEN
 10
290.2684142014631
 20
74.41569575368801
 30
0.0
 41
3.0
 42
3.0
 43
3.0
 50
296.6000005419506
  0
MTEXT
  5
194B
330
13B9
100
AcDbEntity
  8
SUNPOU
100
AcDbMText
 10
284.6680156430173
 20
91.18279247467606
 30
0.0
 40
3.0
 41
0.0
 71
     5
 72
     1
  1
\A1;35
 11
0.4477590962964161
 21
-0.8941542326040943
 31
0.0
1001
ACAD
1000
MTEXTBEGIN
1070
    73
1070
     1
1070
    44
1040
1.0
1070
    74
1070
     0
1000
MTEXTEND
  0
POINT
  5
194C
330
13B9
100
AcDbEntity
  8
DEFPOINTS
 62
     0
100
AcDbPoint
 10
261.0922645110077
 20
98.94850293536777
 30
0.0
  0
POINT
  5
194D
330
13B9
100
AcDbEntity
  8
DEFPOINTS
 62
     0
100
AcDbPoint
 10
276.7638327909199
 20
67.65310497487373
 30
0.0
  0
POINT
  5
194E
330
13B9
100
AcDbEntity
  8
DEFPOINTS
 62
     0
100
AcDbPoint
 10
290.2684142014631
 20
74.41569575368801
 30
0.0
  0
ENDBLK
  5
13C4
330
13B9
100
AcDbEntity
  8
0
100
AcDbBlockEnd
  0
BLOCK
  5
144F
330
1445
100
AcDbEntity
  8
0
100
AcDbBlockBegin
  2
*D8
 70
     1
 10
0.0
 20
0.0
 30
0.0
  3
*D8
  1

  0
LINE
  5
1919
330
1445
100
AcDbEntity
  8
SUNPOU
100
AcDbLine
 10
103.6534689312004
 20
232.9873719893104
 30
0.0
 11
86.58122736453719
 21
232.9873719893104
 31
0.0
  0
LINE
  5
191A
330
1445
100
AcDbEntity
  8
SUNPOU
100
AcDbLine
 10
103.6534689312004
 20
210.9873719893104
 30
0.0
 11
86.58122736453718
 21
210.9873719893104
 31
0.0
  0
LINE
  5
191B
330
1445
100
AcDbEntity
  8
SUNPOU
100
AcDbLine
 10
88.0812273645372
 20
229.9873719893104
 30
0.0
 11
88.08122736453718
 21
213.9873719893104
 31
0.0
  0
INSERT
  5
191C
330
1445
100
AcDbEntity
  8
SUNPOU
100
AcDbBlockReference
  2
_OPEN
 10
88.0812273645372
 20
232.9873719893104
 30
0.0
 41
3.0
 42
3.0
 43
3.0
 50
90.0
  0
INSERT
  5
191D
330
1445
100
AcDbEntity
  8
SUNPOU
100
AcDbBlockReference
  2
_OPEN
 10
88.08122736453718
 20
210.9873719893104
 30
0.0
 41
3.0
 42
3.0
 43
3.0
 50
270.0
  0
MTEXT
  5
191E
330
1445
100
AcDbEntity
  8
SUNPOU
100
AcDbMText
 10
85.58122736453716
 20
221.9873719893104
 30
0.0
 40
3.0
 41
0.0
 71
     5
 72
     1
  1
\A1;22
 11
0.0000000000000001
 21
1.0
 31
0.0
1001
ACAD
1000
MTEXTBEGIN
1070
    73
1070
     1
1070
    44
1040
1.0
1070
    74
1070
     0
1000
MTEXTEND
  0
POINT
  5
191F
330
1445
100
AcDbEntity
  8
DEFPOINTS
 62
     0
100
AcDbPoint
 10
106.6534689312004
 20
232.9873719893104
 30
0.0
  0
POINT
  5
1920
330
1445
100
AcDbEntity
  8
DEFPOINTS
 62
     0
100
AcDbPoint
 10
106.6534689312004
 20
210.9873719893104
 30
0.0
  0
POINT
  5
1921
330
1445
100
AcDbEntity
  8
DEFPOINTS
 62
     0
100
AcDbPoint
 10
88.08122736453718
 20
210.9873719893104
 30
0.0
  0
ENDBLK
  5
1450
330
1445
100
AcDbEntity
  8
0
100
AcDbBlockEnd
  0
BLOCK
  5
145C
330
1452
100
AcDbEntity
  8
0
100
AcDbBlockBegin
  2
*D9
 70
     1
 10
0.0
 20
0.0
 30
0.0
  3
*D9
  1

  0
LINE
  5
196E
330
1452
100
AcDbEntity
  8
SUNPOU
100
AcDbLine
 10
277.7489169842648
 20
249.9873719893104
 30
0.0
 11
297.3762402508127
 21
249.9873719893104
 31
0.0
  0
LINE
  5
196F
330
1452
100
AcDbEntity
  8
SUNPOU
100
AcDbLine
 10
277.7489169842648
 20
193.9873719893104
 30
0.0
 11
297.3762402508127
 21
193.9873719893104
 31
0.0
  0
LINE
  5
1970
330
1452
100
AcDbEntity
  8
SUNPOU
100
AcDbLine
 10
295.8762402508127
 20
246.9873719893104
 30
0.0
 11
295.8762402508127
 21
196.9873719893104
 31
0.0
  0
INSERT
  5
1971
330
1452
100
AcDbEntity
  8
SUNPOU
100
AcDbBlockReference
  2
_OPEN
 10
295.8762402508127
 20
249.9873719893104
 30
0.0
 41
3.0
 42
3.0
 43
3.0
 50
90.0
  0
INSERT
  5
1972
330
1452
100
AcDbEntity
  8
SUNPOU
100
AcDbBlockReference
  2
_OPEN
 10
295.8762402508127
 20
193.9873719893104
 30
0.0
 41
3.0
 42
3.0
 43
3.0
 50
270.0
  0
MTEXT
  5
1973
330
1452
100
AcDbEntity
  8
SUNPOU
100
AcDbMText
 10
293.3762402508127
 20
221.9873719893104
 30
0.0
 40
3.0
 41
0.0
 71
     5
 72
     1
  1
\A1;56
 11
0.0000000000000001
 21
1.0
 31
0.0
1001
ACAD
1000
MTEXTBEGIN
1070
    73
1070
     1
1070
    44
1040
1.0
1070
    74
1070
     0
1000
MTEXTEND
  0
POINT
  5
1974
330
1452
100
AcDbEntity
  8
DEFPOINTS
 62
     0
100
AcDbPoint
 10
274.7489169842647
 20
249.9873719893104
 30
0.0
  0
POINT
  5
1975
330
1452
100
AcDbEntity
  8
DEFPOINTS
 62
     0
100
AcDbPoint
 10
274.7489169842647
 20
193.9873719893104
 30
0.0
  0
POINT
  5
1976
330
1452
100
AcDbEntity
  8
DEFPOINTS
 62
     0
100
AcDbPoint
 10
295.8762402508127
 20
193.9873719893104
 30
0.0
  0
ENDBLK
  5
145D
330
1452
100
AcDbEntity
  8
0
100
AcDbBlockEnd
  0
BLOCK
  5
1469
330
145F
100
AcDbEntity
  8
0
100
AcDbBlockBegin
  2
*D10
 70
     1
 10
0.0
 20
0.0
 30
0.0
  3
*D10
  1

  0
LINE
  5
1922
330
145F
100
AcDbEntity
  8
SUNPOU
100
AcDbLine
 10
261.0922645110077
 20
101.9485029353677
 30
0.0
 11
261.0922645110077
 21
145.0755094462143
 31
0.0
  0
LINE
  5
1923
330
145F
100
AcDbEntity
  8
SUNPOU
100
AcDbLine
 10
227.7888487919171
 20
125.7567742822902
 30
0.0
 11
227.7888487919171
 21
145.0755094462143
 31
0.0
  0
LINE
  5
1924
330
145F
100
AcDbEntity
  8
SUNPOU
100
AcDbLine
 10
258.0922645110077
 20
143.5755094462143
 30
0.0
 11
230.7888487919171
 21
143.5755094462143
 31
0.0
  0
INSERT
  5
1925
330
145F
100
AcDbEntity
  8
SUNPOU
100
AcDbBlockReference
  2
_OPEN
 10
261.0922645110077
 20
143.5755094462143
 30
0.0
 41
3.0
 42
3.0
 43
3.0
  0
INSERT
  5
1926
330
145F
100
AcDbEntity
  8
SUNPOU
100
AcDbBlockReference
  2
_OPEN
 10
227.7888487919171
 20
143.5755094462143
 30
0.0
 41
3.0
 42
3.0
 43
3.0
 50
180.0
  0
MTEXT
  5
1927
330
145F
100
AcDbEntity
  8
SUNPOU
100
AcDbMText
 10
244.4405566514624
 20
146.0755094462143
 30
0.0
 40
3.0
 41
0.0
 71
     5
 72
     1
  1
\A1;33
1001
ACAD
1000
MTEXTBEGIN
1070
    73
1070
     1
1070
    44
1040
1.0
1070
    74
1070
     0
1000
MTEXTEND
  0
POINT
  5
1928
330
145F
100
AcDbEntity
  8
DEFPOINTS
 62
     0
100
AcDbPoint
 10
261.0922645110077
 20
98.94850293536771
 30
0.0
  0
POINT
  5
1929
330
145F
100
AcDbEntity
  8
DEFPOINTS
 62
     0
100
AcDbPoint
 10
227.7888487919171
 20
122.7567742822902
 30
0.0
  0
POINT
  5
192A
330
145F
100
AcDbEntity
  8
DEFPOINTS
 62
     0
100
AcDbPoint
 10
227.7888487919171
 20
143.5755094462143
 30
0.0
  0
ENDBLK
  5
146A
330
145F
100
AcDbEntity
  8
0
100
AcDbBlockEnd
  0
BLOCK
  5
1476
330
146C
100
AcDbEntity
  8
0
100
AcDbBlockBegin
  2
*D11
 70
     1
 10
0.0
 20
0.0
 30
0.0
  3
*D11
  1

  0
LINE
  5
1910
330
146C
100
AcDbEntity
  8
SUNPOU
100
AcDbLine
 10
261.0922645110077
 20
101.9485029353677
 30
0.0
 11
261.0922645110077
 21
173.9970291547766
 31
0.0
  0
LINE
  5
1911
330
146C
100
AcDbEntity
  8
SUNPOU
100
AcDbLine
 10
106.6534689312004
 20
158.6192742947396
 30
0.0
 11
106.6534689312004
 21
173.9970291547766
 31
0.0
  0
LINE
  5
1912
330
146C
100
AcDbEntity
  8
SUNPOU
100
AcDbLine
 10
258.0922645110077
 20
172.4970291547766
 30
0.0
 11
109.6534689312004
 21
172.4970291547766
 31
0.0
  0
INSERT
  5
1913
330
146C
100
AcDbEntity
  8
SUNPOU
100
AcDbBlockReference
  2
_OPEN
 10
261.0922645110077
 20
172.4970291547766
 30
0.0
 41
3.0
 42
3.0
 43
3.0
  0
INSERT
  5
1914
330
146C
100
AcDbEntity
  8
SUNPOU
100
AcDbBlockReference
  2
_OPEN
 10
106.6534689312004
 20
172.4970291547766
 30
0.0
 41
3.0
 42
3.0
 43
3.0
 50
180.0
  0
MTEXT
  5
1915
330
146C
100
AcDbEntity
  8
SUNPOU
100
AcDbMText
 10
183.8728667211041
 20
174.9970291547766
 30
0.0
 40
3.0
 41
0.0
 71
     5
 72
     1
  1
\A1;154
1001
ACAD
1000
MTEXTBEGIN
1070
    73
1070
     1
1070
    44
1040
1.0
1070
    74
1070
     0
1000
MTEXTEND
  0
POINT
  5
1916
330
146C
100
AcDbEntity
  8
DEFPOINTS
 62
     0
100
AcDbPoint
 10
261.0922645110077
 20
98.94850293536777
 30
0.0
  0
POINT
  5
1917
330
146C
100
AcDbEntity
  8
DEFPOINTS
 62
     0
100
AcDbPoint
 10
106.6534689312004
 20
155.6192742947396
 30
0.0
  0
POINT
  5
1918
330
146C
100
AcDbEntity
  8
DEFPOINTS
 62
     0
100
AcDbPoint
 10
106.6534689312004
 20
172.4970291547766
 30
0.0
  0
ENDBLK
  5
1477
330
146C
100
AcDbEntity
  8
0
100
AcDbBlockEnd
  0
BLOCK
  5
1483
330
1479
100
AcDbEntity
  8
0
100
AcDbBlockBegin
  2
*D12
 70
     1
 10
0.0
 20
0.0
 30
0.0
  3
*D12
  1

  0
LINE
  5
1907
330
1479
100
AcDbEntity
  8
SUNPOU
100
AcDbLine
 10
105.8534689312003
 20
107.6192742947396
 30
0.0
 11
86.58122736453718
 21
107.6192742947396
 31
0.0
  0
LINE
  5
1908
330
1479
100
AcDbEntity
  8
SUNPOU
100
AcDbLine
 10
273.7638328813823
 20
67.65310479422445
 30
0.0
 11
86.58122736453716
 21
67.6531047942245
 31
0.0
  0
LINE
  5
1909
330
1479
100
AcDbEntity
  8
SUNPOU
100
AcDbLine
 10
88.08122736453716
 20
104.6192742947396
 30
0.0
 11
88.08122736453716
 21
70.6531047942245
 31
0.0
  0
INSERT
  5
190A
330
1479
100
AcDbEntity
  8
SUNPOU
100
AcDbBlockReference
  2
_OPEN
 10
88.08122736453716
 20
107.6192742947396
 30
0.0
 41
3.0
 42
3.0
 43
3.0
 50
90.0
  0
INSERT
  5
190B
330
1479
100
AcDbEntity
  8
SUNPOU
100
AcDbBlockReference
  2
_OPEN
 10
88.08122736453716
 20
67.6531047942245
 30
0.0
 41
3.0
 42
3.0
 43
3.0
 50
270.0
  0
MTEXT
  5
190C
330
1479
100
AcDbEntity
  8
SUNPOU
100
AcDbMText
 10
85.58122736453714
 20
87.6361895444821
 30
0.0
 40
3.0
 41
0.0
 71
     5
 72
     1
  1
\A1;40
 11
0.0000000000000001
 21
1.0
 31
0.0
1001
ACAD
1000
MTEXTBEGIN
1070
    73
1070
     1
1070
    44
1040
1.0
1070
    74
1070
     0
1000
MTEXTEND
  0
POINT
  5
190D
330
1479
100
AcDbEntity
  8
DEFPOINTS
 62
     0
100
AcDbPoint
 10
108.8534689312003
 20
107.6192742947396
 30
0.0
  0
POINT
  5
190E
330
1479
100
AcDbEntity
  8
DEFPOINTS
 62
     0
100
AcDbPoint
 10
276.7638328813823
 20
67.65310479422445
 30
0.0
  0
POINT
  5
190F
330
1479
100
AcDbEntity
  8
DEFPOINTS
 62
     0
100
AcDbPoint
 10
88.08122736453716
 20
67.6531047942245
 30
0.0
  0
ENDBLK
  5
1484
330
1479
100
AcDbEntity
  8
0
100
AcDbBlockEnd
  0
ENDSEC
  0
SECTION
  2
ENTITIES
  0
ARC
  5
5A7
330
1A
100
AcDbEntity
  8
NOKITOI
  6
PHANTOM
 62
     8
100
AcDbCircle
 10
159.6669325658487
 20
112.8192887711097
 30
0.0
 40
43.00001447645168
100
AcDbArc
 50
186.5249107071177
 51
269.9998883751437
  0
ARC
  5
5A8
330
1A
100
AcDbEntity
  8
NOKITOI
  6
PHANTOM
 62
     8
100
AcDbCircle
 10
159.666954874274
 20
112.8192686700833
 30
0.0
 40
41.79999437547816
100
AcDbArc
 50
184.4742952125247
 51
269.999854592109
  0
LINE
  5
5A9
330
1A
100
AcDbEntity
  8
NOKITOI
  6
PHANTOM
 62
     8
100
AcDbLine
 10
109.4559487923058
 20
111.9568742947396
 30
0.0
 11
109.3704487923061
 21
114.6943742947396
 31
0.0
  0
LINE
  5
5AA
330
1A
100
AcDbEntity
  8
NOKITOI
  6
PHANTOM
 62
     8
100
AcDbLine
 10
107.9178487923061
 20
122.7567742947396
 30
0.0
 11
108.3080487923059
 21
110.2724742947395
 31
0.0
  0
LINE
  5
5AB
330
1A
100
AcDbEntity
  8
NOKITOI
  6
PHANTOM
 62
     8
100
AcDbLine
 10
117.4958487923065
 20
110.0192742947396
 30
0.0
 11
111.4549487923061
 21
110.0192742947396
 31
0.0
  0
ARC
  5
5AC
330
1A
100
AcDbEntity
  8
NOKITOI
  6
PHANTOM
 62
     8
100
AcDbCircle
 10
115.9519403681435
 20
107.8192818097961
 30
0.0
 40
0.9999924849789756
100
AcDbArc
 50
6.528264606673934
 51
89.99951732740965
  0
LINE
  5
5AD
330
1A
100
AcDbEntity
  8
NOKITOI
  6
PHANTOM
 62
     8
100
AcDbLine
 10
109.8072487923061
 20
108.8192742947396
 30
0.0
 11
115.9519487923059
 21
108.8192742947396
 31
0.0
  0
ARC
  5
5AE
330
1A
100
AcDbEntity
  8
NOKITOI
  6
PHANTOM
 62
     8
100
AcDbCircle
 10
111.4549623644445
 20
112.0192611396532
 30
0.0
 40
1.999986844959662
100
AcDbArc
 50
181.7875531852356
 51
269.9996111843215
  0
ARC
  5
5AF
330
1A
100
AcDbEntity
  8
NOKITOI
  6
PHANTOM
 62
     8
100
AcDbCircle
 10
109.807284751457
 20
110.3192394405964
 30
0.0
 40
1.499965146287778
100
AcDbArc
 50
181.7866280217767
 51
269.9986264296971
  0
ARC
  5
5B0
330
1A
100
AcDbEntity
  8
NOKITOI
  6
PHANTOM
 62
     8
100
AcDbCircle
 10
117.4958613620144
 20
109.5192626700099
 30
0.0
 40
0.5000116248877111
100
AcDbArc
 50
4.474846808342103
 51
90.00144034898383
  0
ARC
  5
5B1
330
1A
100
AcDbEntity
  8
NOKITOI
  6
PHANTOM
 62
     8
100
AcDbCircle
 10
109.916861543156
 20
122.819287449826
 30
0.0
 40
1.999986844954076
100
AcDbArc
 50
90.00036528735451
 51
181.7883072882703
  0
LINE
  5
5B2
330
1A
100
AcDbEntity
  8
NOKITOI
  6
PHANTOM
 62
     8
100
AcDbLine
 10
116.1947487923059
 20
122.3192742947396
 30
0.0
 11
113.963248792306
 21
122.3192742947396
 31
0.0
  0
ARC
  5
5B3
330
1A
100
AcDbEntity
  8
NOKITOI
  6
PHANTOM
 62
     8
100
AcDbCircle
 10
115.8789419053111
 20
115.8192677596541
 30
0.0
 40
0.499993464961963
100
AcDbArc
 50
270.0007892017869
 51
356.997036131742
  0
LINE
  5
5B4
330
1A
100
AcDbEntity
  8
NOKITOI
  6
PHANTOM
 62
     8
100
AcDbLine
 10
115.2148487923061
 20
116.5192742947396
 30
0.0
 11
115.3960487923061
 21
119.9607742947398
 31
0.0
  0
LINE
  5
5B5
330
1A
100
AcDbEntity
  8
NOKITOI
  6
PHANTOM
 62
     8
100
AcDbLine
 10
114.8410487923062
 20
119.3476742947395
 30
0.0
 11
115.3960487923061
 21
119.9607742947398
 31
0.0
  0
ARC
  5
5B6
330
1A
100
AcDbEntity
  8
NOKITOI
  6
PHANTOM
 62
     8
100
AcDbCircle
 10
113.3685690049753
 20
114.8193330231197
 30
0.0
 40
5.2000412730095
100
AcDbArc
 50
90.0013245430618
 51
142.0757990790548
  0
LINE
  5
5B7
330
1A
100
AcDbEntity
  8
NOKITOI
  6
PHANTOM
 62
     8
100
AcDbLine
 10
109.1172487923065
 20
122.7942742947395
 30
0.0
 11
109.2666487923058
 21
118.0153742947397
 31
0.0
  0
ARC
  5
5B8
330
1A
100
AcDbEntity
  8
NOKITOI
  6
PHANTOM
 62
     8
100
AcDbCircle
 10
113.3684866737528
 20
114.819318077265
 30
0.0
 40
3.999989731271038
100
AcDbArc
 50
96.47731142013116
 51
181.7899836067311
  0
ARC
  5
5B9
330
1A
100
AcDbEntity
  8
NOKITOI
  6
PHANTOM
 62
     8
100
AcDbCircle
 10
112.9736630107215
 20
118.2969596604386
 30
0.0
 40
0.5000073448410256
100
AcDbArc
 50
351.872947864124
 51
96.47829282996921
  0
LINE
  5
5BA
330
1A
100
AcDbEntity
  8
NOKITOI
  6
PHANTOM
 62
     8
100
AcDbLine
 10
114.4369487923065
 20
116.5192742947396
 30
0.0
 11
114.8410487923062
 21
119.3476742947395
 31
0.0
  0
LINE
  5
5BB
330
1A
100
AcDbEntity
  8
NOKITOI
  6
PHANTOM
 62
     8
100
AcDbLine
 10
115.2148487923061
 20
116.5192742947396
 30
0.0
 11
114.4369487923065
 21
116.5192742947396
 31
0.0
  0
ARC
  5
5BC
330
1A
100
AcDbEntity
  8
NOKITOI
  6
PHANTOM
 62
     8
100
AcDbCircle
 10
113.6298753929038
 20
115.8192436178576
 30
0.0
 40
0.4999693238254178
100
AcDbArc
 50
171.8555038770531
 51
269.9969516090356
  0
LINE
  5
5BD
330
1A
100
AcDbEntity
  8
NOKITOI
  6
PHANTOM
 62
     8
100
AcDbLine
 10
115.878948792306
 20
115.3192742947396
 30
0.0
 11
113.629848792306
 21
115.3192742947396
 31
0.0
  0
LINE
  5
5BE
330
1A
100
AcDbEntity
  8
NOKITOI
  6
PHANTOM
 62
     8
100
AcDbLine
 10
113.1349487923059
 20
115.8900742947398
 30
0.0
 11
113.468648792306
 21
118.2262742947397
 31
0.0
  0
LINE
  5
5BF
330
1A
100
AcDbEntity
  8
NOKITOI
  6
PHANTOM
 62
     8
100
AcDbLine
 10
112.3896487923063
 20
123.6192742947398
 30
0.0
 11
111.8896487923063
 21
121.1192742947398
 31
0.0
  0
LINE
  5
5C0
330
1A
100
AcDbEntity
  8
NOKITOI
  6
PHANTOM
 62
     8
100
AcDbLine
 10
111.8896487923063
 20
121.1192742947398
 30
0.0
 11
114.8261487923061
 21
121.1192742947398
 31
0.0
  0
LINE
  5
5C1
330
1A
100
AcDbEntity
  8
NOKITOI
  6
PHANTOM
 62
     8
100
AcDbLine
 10
109.9168487923058
 20
124.8192742947396
 30
0.0
 11
113.2434487923062
 21
124.8192742947396
 31
0.0
  0
LINE
  5
5C2
330
1A
100
AcDbEntity
  8
NOKITOI
  6
PHANTOM
 62
     8
100
AcDbLine
 10
109.9168487923058
 20
123.6192742947398
 30
0.0
 11
112.3896487923063
 21
123.6192742947398
 31
0.0
  0
ARC
  5
5C3
330
1A
100
AcDbEntity
  8
NOKITOI
  6
PHANTOM
 62
     8
100
AcDbCircle
 10
109.9168532871042
 20
122.8192789322665
 30
0.0
 40
0.7999953624857498
100
AcDbArc
 50
90.00032191805264
 51
181.7911273464193
  0
ARC
  5
5C4
330
1A
100
AcDbEntity
  8
NOKITOI
  6
PHANTOM
 62
     8
100
AcDbCircle
 10
113.2434480092976
 20
124.3192752497413
 30
0.0
 40
0.4999990449987349
100
AcDbArc
 50
348.6967198015447
 51
89.99991027369492
  0
ARC
  5
5C5
330
1A
100
AcDbEntity
  8
NOKITOI
  6
PHANTOM
 62
     8
100
AcDbCircle
 10
113.9632415377507
 20
122.819283144583
 30
0.0
 40
0.5000088498959383
100
AcDbArc
 50
168.6864043304892
 51
270.0008312961442
  0
LINE
  5
5C6
330
1A
100
AcDbEntity
  8
NOKITOI
  6
PHANTOM
 62
     8
100
AcDbLine
 10
113.4729487923061
 20
122.9173742947395
 30
0.0
 11
113.7337487923061
 21
124.2212742947396
 31
0.0
  0
LINE
  5
5C7
330
1A
100
AcDbEntity
  8
NOKITOI
  6
PHANTOM
 62
     8
100
AcDbLine
 10
113.8303487923064
 20
120.0192742947396
 30
0.0
 11
113.3684487923062
 21
120.0192742947396
 31
0.0
  0
LINE
  5
5C8
330
1A
100
AcDbEntity
  8
NOKITOI
  6
PHANTOM
 62
     8
100
AcDbLine
 10
113.8303487923064
 20
120.0192742947396
 30
0.0
 11
114.8261487923061
 21
121.1192742947398
 31
0.0
  0
LINE
  5
5C9
330
1A
100
AcDbEntity
  8
NOKITOI
  6
PHANTOM
 62
     8
100
AcDbLine
 10
116.3783487923062
 20
115.7930742947396
 30
0.0
 11
116.6941487923061
 21
121.7929742947396
 31
0.0
  0
ARC
  5
5CA
330
1A
100
AcDbEntity
  8
NOKITOI
  6
PHANTOM
 62
     8
100
AcDbCircle
 10
116.1947425911482
 20
121.8192808298249
 30
0.0
 40
0.4999934649531607
100
AcDbArc
 50
356.9955363203376
 51
89.99928939038076
  0
LINE
  5
5CB
330
1A
100
AcDbEntity
  8
NOKITOI
  6
PHANTOM
 62
     8
100
AcDbLine
 10
200.4963487923062
 20
69.81917429473966
 30
0.0
 11
180.3384487923064
 21
69.81917429473966
 31
0.0
  0
LINE
  5
5CC
330
1A
100
AcDbEntity
  8
NOKITOI
  6
PHANTOM
 62
     8
100
AcDbLine
 10
200.2465487923061
 20
71.01917429473971
 30
0.0
 11
180.3384487923064
 21
71.01917429473971
 31
0.0
  0
LINE
  5
5CD
330
1A
100
AcDbEntity
  8
NOKITOI
  6
PHANTOM
 62
     8
100
AcDbLine
 10
204.4963487923062
 20
69.81917429473966
 30
0.0
 11
159.666948792306
 21
69.81927429473964
 31
0.0
  0
LINE
  5
5CE
330
1A
100
AcDbEntity
  8
NOKITOI
  6
PHANTOM
 62
     8
100
AcDbLine
 10
159.666948792306
 20
71.01927429473969
 30
0.0
 11
204.2465487923061
 21
71.01917429473971
 31
0.0
  0
LINE
  5
5CF
330
1A
100
AcDbEntity
  8
NOKITOI
  6
PHANTOM
 62
     8
100
AcDbLine
 10
226.2508487923061
 20
111.9566742947397
 30
0.0
 11
226.3363487923058
 21
114.6942742947396
 31
0.0
  0
LINE
  5
5D0
330
1A
100
AcDbEntity
  8
NOKITOI
  6
PHANTOM
 62
     8
100
AcDbLine
 10
227.7888487923061
 20
122.7567742947396
 30
0.0
 11
227.3987487923061
 21
110.2723742947395
 31
0.0
  0
LINE
  5
5D1
330
1A
100
AcDbEntity
  8
NOKITOI
  6
PHANTOM
 62
     8
100
AcDbLine
 10
225.8994487923061
 20
108.8192742947396
 30
0.0
 11
219.7583487923063
 21
108.8192742947396
 31
0.0
  0
LINE
  5
5D2
330
1A
100
AcDbEntity
  8
NOKITOI
  6
PHANTOM
 62
     8
100
AcDbLine
 10
218.2198487923058
 20
110.0192742947396
 30
0.0
 11
224.2517487923061
 21
110.0192742947396
 31
0.0
  0
LINE
  5
5D3
330
1A
100
AcDbEntity
  8
NOKITOI
  6
PHANTOM
 62
     8
100
AcDbLine
 10
218.7633487923064
 20
107.9187742947396
 30
0.0
 11
215.8945487923062
 21
79.23137429473965
 31
0.0
  0
LINE
  5
5D4
330
1A
100
AcDbEntity
  8
NOKITOI
  6
PHANTOM
 62
     8
100
AcDbLine
 10
217.7223487923062
 20
109.5690742947396
 30
0.0
 11
214.7293487923059
 21
79.63927429473958
 31
0.0
  0
LINE
  5
5D5
330
1A
100
AcDbEntity
  8
NOKITOI
  6
PHANTOM
 62
     8
100
AcDbLine
 10
215.5327487923061
 20
78.5568742947398
 30
0.0
 11
205.1296487923061
 21
70.04517429473978
 31
0.0
  0
LINE
  5
5D6
330
1A
100
AcDbEntity
  8
NOKITOI
  6
PHANTOM
 62
     8
100
AcDbLine
 10
214.5484487923065
 20
79.30197429473967
 30
0.0
 11
204.5631487923062
 21
71.13217429473954
 31
0.0
  0
ARC
  5
5D7
330
1A
100
AcDbEntity
  8
NOKITOI
  6
PHANTOM
 62
     8
100
AcDbCircle
 10
204.4963418597287
 20
70.81917181973356
 30
0.0
 40
0.9999975250179316
100
AcDbArc
 50
270.0003972084035
 51
309.2946416752299
  0
ARC
  5
5D8
330
1A
100
AcDbEntity
  8
NOKITOI
  6
PHANTOM
 62
     8
100
AcDbCircle
 10
204.2465551800548
 20
71.51917657472925
 30
0.0
 40
0.5000022800304047
100
AcDbArc
 50
269.9992680212791
 51
309.2854498596061
  0
ARC
  5
5D9
330
1A
100
AcDbEntity
  8
NOKITOI
  6
PHANTOM
 62
     8
100
AcDbCircle
 10
214.8995262194373
 20
79.33083222306706
 30
0.0
 40
0.9999908507640039
100
AcDbArc
 50
309.288709223069
 51
354.2862329477532
  0
ARC
  5
5DA
330
1A
100
AcDbEntity
  8
NOKITOI
  6
PHANTOM
 62
     8
100
AcDbCircle
 10
214.2318313664279
 20
79.6889418083517
 30
0.0
 40
0.4999904508696396
100
AcDbArc
 50
309.2900846377951
 51
354.2990110749239
  0
ARC
  5
5DB
330
1A
100
AcDbEntity
  8
NOKITOI
  6
PHANTOM
 62
     8
100
AcDbCircle
 10
219.758369442147
 20
107.8192929825888
 30
0.0
 40
0.9999813123640345
100
AcDbArc
 50
90.00118317084911
 51
174.2905900333514
  0
ARC
  5
5DC
330
1A
100
AcDbEntity
  8
NOKITOI
  6
PHANTOM
 62
     8
100
AcDbCircle
 10
218.2198618633107
 20
109.5192861250195
 30
0.0
 40
0.499988169890889
100
AcDbArc
 50
90.00149786226634
 51
174.2966061377162
  0
ARC
  5
5DD
330
1A
100
AcDbEntity
  8
NOKITOI
  6
PHANTOM
 62
     8
100
AcDbCircle
 10
225.8994660054843
 20
110.3192909778874
 30
0.0
 40
1.500016683246579
100
AcDbArc
 50
269.9993425123344
 51
358.2076423244113
  0
ARC
  5
5DE
330
1A
100
AcDbEntity
  8
NOKITOI
  6
PHANTOM
 62
     8
100
AcDbCircle
 10
224.2517867801304
 20
112.0192111153119
 30
0.0
 40
2.000036820932882
100
AcDbArc
 50
269.9989117490344
 51
358.2110591274195
  0
LINE
  5
5DF
330
1A
100
AcDbEntity
  8
NOKITOI
  6
PHANTOM
 62
     8
100
AcDbLine
 10
225.7898487923064
 20
124.8191742947396
 30
0.0
 11
222.463248792306
 21
124.8192742947396
 31
0.0
  0
LINE
  5
5E0
330
1A
100
AcDbEntity
  8
NOKITOI
  6
PHANTOM
 62
     8
100
AcDbLine
 10
223.8171487923061
 20
121.1192742947398
 30
0.0
 11
220.8805487923061
 21
121.1192742947398
 31
0.0
  0
ARC
  5
5E1
330
1A
100
AcDbEntity
  8
NOKITOI
  6
PHANTOM
 62
     8
100
AcDbCircle
 10
222.7330781648058
 20
118.2969045272345
 30
0.0
 40
0.4999578477751074
100
AcDbArc
 50
83.52609071220754
 51
188.1330561712932
  0
ARC
  5
5E2
330
1A
100
AcDbEntity
  8
NOKITOI
  6
PHANTOM
 62
     8
100
AcDbCircle
 10
222.3383309259549
 20
114.8192830231195
 30
0.0
 40
5.199991271650611
100
AcDbArc
 50
37.92532860472995
 51
89.9998031407256
  0
LINE
  5
5E3
330
1A
100
AcDbEntity
  8
NOKITOI
  6
PHANTOM
 62
     8
100
AcDbLine
 10
220.4918487923061
 20
116.5192742947396
 30
0.0
 11
220.3107487923059
 21
119.9606742947396
 31
0.0
  0
LINE
  5
5E4
330
1A
100
AcDbEntity
  8
NOKITOI
  6
PHANTOM
 62
     8
100
AcDbLine
 10
220.8657487923062
 20
119.3476742947395
 30
0.0
 11
220.3107487923059
 21
119.9606742947396
 31
0.0
  0
LINE
  5
5E5
330
1A
100
AcDbEntity
  8
NOKITOI
  6
PHANTOM
 62
     8
100
AcDbLine
 10
219.3284487923062
 20
115.7929742947396
 30
0.0
 11
219.0126487923059
 21
121.7929742947396
 31
0.0
  0
LINE
  5
5E6
330
1A
100
AcDbEntity
  8
NOKITOI
  6
PHANTOM
 62
     8
100
AcDbLine
 10
221.2697487923057
 20
116.5192742947396
 30
0.0
 11
220.8657487923062
 21
119.3476742947395
 31
0.0
  0
LINE
  5
5E7
330
1A
100
AcDbEntity
  8
NOKITOI
  6
PHANTOM
 62
     8
100
AcDbLine
 10
220.4918487923061
 20
116.5192742947396
 30
0.0
 11
221.2697487923057
 21
116.5192742947396
 31
0.0
  0
LINE
  5
5E8
330
1A
100
AcDbEntity
  8
NOKITOI
  6
PHANTOM
 62
     8
100
AcDbLine
 10
219.8277487923061
 20
115.3192742947396
 30
0.0
 11
222.0768487923057
 21
115.3192742947396
 31
0.0
  0
ARC
  5
5E9
330
1A
100
AcDbEntity
  8
NOKITOI
  6
PHANTOM
 62
     8
100
AcDbCircle
 10
219.8277529137128
 20
115.8192703847091
 30
0.0
 40
0.4999960899864752
100
AcDbArc
 50
183.0147243791741
 51
269.9995277178593
  0
ARC
  5
5EA
330
1A
100
AcDbEntity
  8
NOKITOI
  6
PHANTOM
 62
     8
100
AcDbCircle
 10
222.0768589787423
 20
115.8192860394637
 30
0.0
 40
0.5000117448278309
100
AcDbArc
 50
269.9988327478016
 51
8.127314608715551
  0
LINE
  5
5EB
330
1A
100
AcDbEntity
  8
NOKITOI
  6
PHANTOM
 62
     8
100
AcDbLine
 10
222.5718487923061
 20
115.8899742947396
 30
0.0
 11
222.2380487923062
 21
118.2261742947398
 31
0.0
  0
LINE
  5
5EC
330
1A
100
AcDbEntity
  8
NOKITOI
  6
PHANTOM
 62
     8
100
AcDbLine
 10
219.5119487923063
 20
122.3192742947396
 30
0.0
 11
221.7434487923062
 21
122.3192742947396
 31
0.0
  0
ARC
  5
5ED
330
1A
100
AcDbEntity
  8
NOKITOI
  6
PHANTOM
 62
     8
100
AcDbCircle
 10
219.5119525018014
 20
121.8192782047703
 30
0.0
 40
0.4999960899831856
100
AcDbArc
 50
90.00042508015082
 51
183.0156217414647
  0
ARC
  5
5EE
330
1A
100
AcDbEntity
  8
NOKITOI
  6
PHANTOM
 62
     8
100
AcDbCircle
 10
222.4632415377506
 20
124.3192654448962
 30
0.0
 40
0.500008849895925
100
AcDbArc
 50
89.99916870385415
 51
191.3135956695126
  0
ARC
  5
5EF
330
1A
100
AcDbEntity
  8
NOKITOI
  6
PHANTOM
 62
     8
100
AcDbCircle
 10
221.7434480092976
 20
122.8192733397379
 30
0.0
 40
0.4999990449987399
100
AcDbArc
 50
270.000089726305
 51
11.30328019845521
  0
LINE
  5
5F0
330
1A
100
AcDbEntity
  8
NOKITOI
  6
PHANTOM
 62
     8
100
AcDbLine
 10
222.2337487923061
 20
122.9172742947398
 30
0.0
 11
221.9729487923061
 21
124.2212742947396
 31
0.0
  0
LINE
  5
5F1
330
1A
100
AcDbEntity
  8
NOKITOI
  6
PHANTOM
 62
     8
100
AcDbLine
 10
221.8763487923062
 20
120.0192742947396
 30
0.0
 11
222.3383487923062
 21
120.0192742947396
 31
0.0
  0
LINE
  5
5F2
330
1A
100
AcDbEntity
  8
NOKITOI
  6
PHANTOM
 62
     8
100
AcDbLine
 10
221.8763487923062
 20
120.0192742947396
 30
0.0
 11
220.8805487923061
 21
121.1192742947398
 31
0.0
  0
LINE
  5
5F3
330
1A
100
AcDbEntity
  8
NOKITOI
  6
PHANTOM
 62
     8
100
AcDbLine
 10
226.5894487923057
 20
122.7942742947395
 30
0.0
 11
226.4401487923061
 21
118.0152742947397
 31
0.0
  0
ARC
  5
5F4
330
1A
100
AcDbEntity
  8
NOKITOI
  6
PHANTOM
 62
     8
100
AcDbCircle
 10
222.33831786537
 20
114.8193100394034
 30
0.0
 40
3.99998565374706
100
AcDbArc
 50
358.208696659101
 51
83.52422380468341
  0
ARC
  5
5F5
330
1A
100
AcDbEntity
  8
NOKITOI
  6
PHANTOM
 62
     8
100
AcDbCircle
 10
225.789837555312
 20
122.8192858885567
 30
0.0
 40
1.999988406214315
100
AcDbArc
 50
358.2088726535936
 51
89.99967808195551
  0
LINE
  5
5F6
330
1A
100
AcDbEntity
  8
NOKITOI
  6
PHANTOM
 62
     8
100
AcDbLine
 10
225.7898487923064
 20
123.6191742947396
 30
0.0
 11
223.3171487923061
 21
123.6192742947398
 31
0.0
  0
LINE
  5
5F7
330
1A
100
AcDbEntity
  8
NOKITOI
  6
PHANTOM
 62
     8
100
AcDbLine
 10
223.3171487923061
 20
123.6192742947398
 30
0.0
 11
223.8171487923061
 21
121.1192742947398
 31
0.0
  0
ARC
  5
5F8
330
1A
100
AcDbEntity
  8
NOKITOI
  6
PHANTOM
 62
     8
100
AcDbCircle
 10
225.7898927586591
 20
122.8192289322666
 30
0.0
 40
0.7999453636812564
100
AcDbArc
 50
358.2123436447881
 51
90.00314907315425
  0
LINE
  5
9FB
330
1A
100
AcDbEntity
  8
SEIHIN
100
AcDbLine
 10
169.3534689312003
 20
69.61927429473964
 30
0.0
 11
206.9326549312004
 21
69.61927429473964
 31
0.0
  0
LINE
  5
9FC
330
1A
100
AcDbEntity
  8
SEIHIN
100
AcDbLine
 10
169.3534689312003
 20
68.41927429473959
 30
0.0
 11
207.3610110312003
 21
68.41927429473959
 31
0.0
  0
LINE
  5
9FD
330
1A
100
AcDbEntity
  8
SEIHIN
100
AcDbLine
 10
169.3534689312003
 20
65.41927429473958
 30
0.0
 11
208.4319010312003
 21
65.41927429473958
 31
0.0
  0
LINE
  5
9FE
330
1A
100
AcDbEntity
  8
SEIHIN
100
AcDbLine
 10
159.3534689312003
 20
62.41927429473958
 30
0.0
 11
221.3534689312004
 21
62.41927429473958
 31
0.0
  0
LINE
  5
9FF
330
1A
100
AcDbEntity
  8
SEIHIN
100
AcDbLine
 10
165.8534689312003
 20
61.91927429473958
 30
0.0
 11
172.8534689312003
 21
61.91927429473958
 31
0.0
  0
LINE
  5
A00
330
1A
100
AcDbEntity
  8
SEIHIN
100
AcDbLine
 10
40.95327903321037
 20
61.91927429473958
 30
0.0
 11
47.95327903321037
 21
61.91927429473958
 31
0.0
  0
LINE
  5
A01
330
1A
100
AcDbEntity
  8
SEIHIN
100
AcDbLine
 10
40.95327903321037
 20
61.91927429473958
 30
0.0
 11
47.95327903321037
 21
61.91927429473958
 31
0.0
  0
LINE
  5
A02
330
1A
100
AcDbEntity
  8
SEIHIN
100
AcDbLine
 10
38.95327903321037
 20
65.41927429473958
 30
0.0
 11
49.95327903321038
 21
65.41927429473958
 31
0.0
  0
LINE
  5
A04
330
1A
100
AcDbEntity
  8
SEIHIN
100
AcDbLine
 10
50.95327903321038
 20
62.41927429473958
 30
0.0
 11
37.95327903321037
 21
62.41927429473958
 31
0.0
  0
LINE
  5
A06
330
1A
100
AcDbEntity
  8
SEIHIN
100
AcDbLine
 10
55.45327903321037
 20
106.4192742947395
 30
0.0
 11
33.45327903321038
 21
106.4192742947395
 31
0.0
  0
ARC
  5
A07
330
1A
100
AcDbEntity
  8
SEIHIN
100
AcDbCircle
 10
40.35327903321035
 20
141.6192742947396
 30
0.0
 40
2.0
100
AcDbArc
 50
0.0
 51
90.0
  0
ARC
  5
A08
330
1A
100
AcDbEntity
  8
SEIHIN
100
AcDbCircle
 10
39.85327903321035
 20
121.1192742947396
 30
0.0
 40
2.5
100
AcDbArc
 50
180.0
 51
0.0
  0
LINE
  5
A09
330
1A
100
AcDbEntity
  8
SEIHIN
100
AcDbLine
 10
47.45327903321038
 20
155.6192742947396
 30
0.0
 11
41.45327903321038
 21
155.6192742947396
 31
0.0
  0
LINE
  5
A0C
330
1A
100
AcDbEntity
  8
SEIHIN
100
AcDbLine
 10
37.45327903321038
 20
68.91927429473959
 30
0.0
 11
37.45327903321038
 21
106.4192742947395
 31
0.0
  0
LINE
  5
A11
330
1A
100
AcDbEntity
  8
SEIHIN
100
AcDbLine
 10
35.95327903321038
 20
68.41927429473959
 30
0.0
 11
33.45327903321038
 21
68.41927429473959
 31
0.0
  0
LINE
  5
A13
330
1A
100
AcDbEntity
  8
SEIHIN
100
AcDbLine
 10
35.66087653321039
 20
65.02401639473958
 30
0.0
 11
35.66087653321039
 21
65.13235819473959
 31
0.0
  0
LINE
  5
A14
330
1A
100
AcDbEntity
  8
SEIHIN
100
AcDbLine
 10
40.95327903321037
 20
62.41927429473958
 30
0.0
 11
40.95327903321037
 21
61.91927429473958
 31
0.0
  0
LINE
  5
A15
330
1A
100
AcDbEntity
  8
SEIHIN
100
AcDbLine
 10
40.95327903321037
 20
62.41927429473958
 30
0.0
 11
40.95327903321037
 21
61.91927429473958
 31
0.0
  0
ARC
  5
A16
330
1A
100
AcDbEntity
  8
SEIHIN
100
AcDbCircle
 10
38.95327903321037
 20
66.9192742947396
 30
0.0
 40
1.5
100
AcDbArc
 50
180.0
 51
270.0
  0
LINE
  5
A17
330
1A
100
AcDbEntity
  8
SEIHIN
100
AcDbLine
 10
35.66087653321039
 20
65.02401639473958
 30
0.0
 11
37.95327903321037
 21
65.02401639473958
 31
0.0
  0
LINE
  5
A18
330
1A
100
AcDbEntity
  8
SEIHIN
100
AcDbLine
 10
35.66087653321039
 20
68.41927429473959
 30
0.0
 11
35.66087653321039
 21
65.02401639473958
 31
0.0
  0
LINE
  5
A19
330
1A
100
AcDbEntity
  8
SEIHIN
100
AcDbLine
 10
37.95327903321037
 20
65.41927429473958
 30
0.0
 11
38.95327903321037
 21
65.41927429473958
 31
0.0
  0
LINE
  5
A1A
330
1A
100
AcDbEntity
  8
SEIHIN
100
AcDbLine
 10
37.95327903321037
 20
62.41927429473958
 30
0.0
 11
37.95327903321037
 21
65.41927429473958
 31
0.0
  0
ARC
  5
A1B
330
1A
100
AcDbEntity
  8
SEIHIN
100
AcDbCircle
 10
35.95327903321038
 20
66.9192742947396
 30
0.0
 40
1.5
100
AcDbArc
 50
0.0
 51
90.0
  0
ARC
  5
A24
330
1A
100
AcDbEntity
  8
SEIHIN
100
AcDbCircle
 10
35.40327903321031
 20
121.6692742947395
 30
0.0
 40
1.949999999999988
100
AcDbArc
 50
0.0
 51
180.0
  0
LINE
  5
A33
330
1A
100
AcDbEntity
  8
SEIHIN
100
AcDbLine
 10
37.35327903321035
 20
121.6692742947395
 30
0.0
 11
37.35327903321035
 21
121.1192742947396
 31
0.0
  0
LINE
  5
A34
330
1A
100
AcDbEntity
  8
SEIHIN
100
AcDbLine
 10
37.35327903321035
 20
121.6192742947396
 30
0.0
 11
37.35327903321035
 21
121.6192742947396
 31
0.0
  0
LINE
  5
A35
330
1A
100
AcDbEntity
  8
SEIHIN
100
AcDbLine
 10
38.45327903321038
 20
145.6180242947396
 30
0.0
 11
38.45327903321038
 21
152.6192742947396
 31
0.0
  0
ARC
  5
A36
330
1A
100
AcDbEntity
  8
SEIHIN
100
AcDbCircle
 10
40.45327903321037
 20
145.6180242947396
 30
0.0
 40
1.999999998843762
100
AcDbArc
 50
180.0
 51
268.5674562607732
  0
LINE
  5
A37
330
1A
100
AcDbEntity
  8
SEIHIN
100
AcDbLine
 10
39.95327903321038
 20
143.6192742947396
 30
0.0
 11
39.95327903321038
 21
143.6192742947396
 31
0.0
  0
ARC
  5
A38
330
1A
100
AcDbEntity
  8
SEIHIN
100
AcDbCircle
 10
41.45327903321038
 20
152.6192742947396
 30
0.0
 40
3.0
100
AcDbArc
 50
90.0
 51
180.0
  0
ARC
  5
A39
330
1A
100
AcDbEntity
  8
SEIHIN
100
AcDbCircle
 10
160.6670189312004
 20
112.6192742947396
 30
0.0
 40
43.99999996755491
100
AcDbArc
 50
190.0046914246752
 51
256.9987985386973
  0
ARC
  5
A3A
330
1A
100
AcDbEntity
  8
SEIHIN
100
AcDbCircle
 10
160.6670189312004
 20
112.6192742947396
 30
0.0
 40
45.19999999393088
100
AcDbArc
 50
190.0046914399661
 51
256.9987985135611
  0
ARC
  5
A3B
330
1A
100
AcDbEntity
  8
SEIHIN
100
AcDbCircle
 10
160.6670189312004
 20
112.6192742947396
 30
0.0
 40
48.19999998338746
100
AcDbArc
 50
190.3515581005718
 51
256.999279253117
  0
LINE
  5
A3D
330
1A
100
AcDbEntity
  8
SEIHIN
100
AcDbLine
 10
72.45327903321038
 20
69.72237946271359
 30
0.0
 11
72.45327903321038
 21
96.16960426739378
 31
0.0
  0
LINE
  5
A3E
330
1A
100
AcDbEntity
  8
SEIHIN
100
AcDbLine
 10
51.45327903321038
 20
68.91927429473959
 30
0.0
 11
51.45327903321038
 21
106.4192742947395
 31
0.0
  0
ARC
  5
A42
330
1A
100
AcDbEntity
  8
SEIHIN
100
AcDbCircle
 10
49.95327903321038
 20
66.9192742947396
 30
0.0
 40
1.5
100
AcDbArc
 50
270.0
 51
0.0
  0
LINE
  5
A43
330
1A
100
AcDbEntity
  8
SEIHIN
100
AcDbLine
 10
49.95327903321038
 20
65.41927429473958
 30
0.0
 11
50.95327903321038
 21
65.41927429473958
 31
0.0
  0
LINE
  5
A44
330
1A
100
AcDbEntity
  8
SEIHIN
100
AcDbLine
 10
47.95327903321037
 20
61.91927429473958
 30
0.0
 11
47.95327903321037
 21
62.41927429473958
 31
0.0
  0
LINE
  5
A46
330
1A
100
AcDbEntity
  8
SEIHIN
100
AcDbLine
 10
53.24568153321036
 20
65.13235819473959
 30
0.0
 11
53.24568153321036
 21
65.02401639473958
 31
0.0
  0
LINE
  5
A47
330
1A
100
AcDbEntity
  8
SEIHIN
100
AcDbLine
 10
52.95327903321037
 20
68.41927429473959
 30
0.0
 11
55.45327903321037
 21
68.41927429473959
 31
0.0
  0
ARC
  5
A49
330
1A
100
AcDbEntity
  8
SEIHIN
100
AcDbCircle
 10
52.95327903321037
 20
66.9192742947396
 30
0.0
 40
1.5
100
AcDbArc
 50
90.0
 51
180.0
  0
LINE
  5
A4A
330
1A
100
AcDbEntity
  8
SEIHIN
100
AcDbLine
 10
53.24568153321036
 20
65.02401639473958
 30
0.0
 11
53.24568153321036
 21
68.41927429473959
 31
0.0
  0
LINE
  5
A4B
330
1A
100
AcDbEntity
  8
SEIHIN
100
AcDbLine
 10
50.95327903321038
 20
65.41927429473958
 30
0.0
 11
50.95327903321038
 21
65.02401639473958
 31
0.0
  0
LINE
  5
A4C
330
1A
100
AcDbEntity
  8
SEIHIN
100
AcDbLine
 10
50.95327903321038
 20
65.02401639473958
 30
0.0
 11
53.24568153321036
 21
65.02401639473958
 31
0.0
  0
LINE
  5
A4D
330
1A
100
AcDbEntity
  8
SEIHIN
100
AcDbLine
 10
50.95327903321038
 20
65.02401639473958
 30
0.0
 11
50.95327903321038
 21
62.41927429473958
 31
0.0
  0
ARC
  5
A56
330
1A
100
AcDbEntity
  8
SEIHIN
100
AcDbCircle
 10
151.8920539312003
 20
74.61927429473964
 30
0.0
 40
5.000000009884356
100
AcDbArc
 50
256.997175988683
 51
270.0
  0
LINE
  5
A57
330
1A
100
AcDbEntity
  8
SEIHIN
100
AcDbLine
 10
151.8920539312003
 20
69.61927429473964
 30
0.0
 11
169.3534689312003
 21
69.61927429473964
 31
0.0
  0
LINE
  5
A58
330
1A
100
AcDbEntity
  8
SEIHIN
100
AcDbLine
 10
151.8920539312003
 20
68.41927429473959
 30
0.0
 11
169.3534689312003
 21
68.41927429473959
 31
0.0
  0
LINE
  5
A59
330
1A
100
AcDbEntity
  8
SEIHIN
100
AcDbLine
 10
151.8920539312003
 20
65.41927429473958
 30
0.0
 11
169.3534689312003
 21
65.41927429473958
 31
0.0
  0
ARC
  5
A5A
330
1A
100
AcDbEntity
  8
SEIHIN
100
AcDbCircle
 10
151.8920539312003
 20
74.61927429473964
 30
0.0
 40
6.20000002439895
100
AcDbArc
 50
256.9971760025682
 51
270.0
  0
ARC
  5
A5B
330
1A
100
AcDbEntity
  8
SEIHIN
100
AcDbCircle
 10
151.8920539312003
 20
74.61927429473964
 30
0.0
 40
9.20000000634241
100
AcDbArc
 50
256.9971761847128
 51
270.0
  0
LINE
  5
A5C
330
1A
100
AcDbEntity
  8
SEIHIN
100
AcDbLine
 10
159.3534689312003
 20
65.41927429473958
 30
0.0
 11
159.3534689312003
 21
62.41927429473958
 31
0.0
  0
LINE
  5
A5D
330
1A
100
AcDbEntity
  8
SEIHIN
100
AcDbLine
 10
165.8534689312003
 20
62.41927429473958
 30
0.0
 11
165.8534689312003
 21
61.91927429473958
 31
0.0
  0
LINE
  5
A5E
330
1A
100
AcDbEntity
  8
SEIHIN
100
AcDbLine
 10
46.55327903321039
 20
141.6192742947396
 30
0.0
 11
46.55327903321039
 21
121.1192742947396
 31
0.0
  0
LINE
  5
A5F
330
1A
100
AcDbEntity
  8
SEIHIN
100
AcDbLine
 10
42.35327903321035
 20
141.6192742947396
 30
0.0
 11
42.35327903321035
 21
121.1192742947396
 31
0.0
  0
ARC
  5
A60
330
1A
100
AcDbEntity
  8
SEIHIN
100
AcDbCircle
 10
53.50327903321034
 20
121.6692742947395
 30
0.0
 40
1.949999999999988
100
AcDbArc
 50
0.0
 51
180.0
  0
LINE
  5
A61
330
1A
100
AcDbEntity
  8
SEIHIN
100
AcDbLine
 10
55.45327903321037
 20
121.6692742947395
 30
0.0
 11
55.45327903321037
 21
68.41927429473958
 31
0.0
  0
LINE
  5
A66
330
1A
100
AcDbEntity
  8
SEIHIN
100
AcDbLine
 10
55.45327903321037
 20
98.94850309473959
 30
0.0
 11
55.45327903321037
 21
98.27645509473963
 31
0.0
  0
ARC
  5
A71
330
1A
100
AcDbEntity
  8
SEIHIN
100
AcDbCircle
 10
49.0532790332104
 20
121.1192742947396
 30
0.0
 40
2.5
100
AcDbArc
 50
180.0
 51
0.0
  0
LINE
  5
A72
330
1A
100
AcDbEntity
  8
SEIHIN
100
AcDbLine
 10
51.5532790332104
 20
121.6192742947396
 30
0.0
 11
51.5532790332104
 21
121.6192742947396
 31
0.0
  0
LINE
  5
A73
330
1A
100
AcDbEntity
  8
SEIHIN
100
AcDbLine
 10
51.5532790332104
 20
121.6692742947395
 30
0.0
 11
51.5532790332104
 21
121.1192742947396
 31
0.0
  0
LINE
  5
A74
330
1A
100
AcDbEntity
  8
SEIHIN
100
AcDbLine
 10
46.55327903321039
 20
130.4440862947395
 30
0.0
 11
46.55327903321039
 21
130.4440862947395
 31
0.0
  0
LINE
  5
A75
330
1A
100
AcDbEntity
  8
SEIHIN
100
AcDbLine
 10
42.35327903321035
 20
130.4440862947395
 30
0.0
 11
42.35327903321035
 21
130.4440862947395
 31
0.0
  0
LINE
  5
A76
330
1A
100
AcDbEntity
  8
SEIHIN
100
AcDbLine
 10
46.55327903321039
 20
129.5043592947396
 30
0.0
 11
46.55327903321039
 21
129.5043592947396
 31
0.0
  0
LINE
  5
A77
330
1A
100
AcDbEntity
  8
SEIHIN
100
AcDbLine
 10
42.35327903321035
 20
129.5043592947396
 30
0.0
 11
42.35327903321035
 21
129.5043592947396
 31
0.0
  0
LINE
  5
A78
330
1A
100
AcDbEntity
  8
SEIHIN
100
AcDbLine
 10
50.45327903321037
 20
145.6180242947396
 30
0.0
 11
50.45327903321037
 21
152.6192742947396
 31
0.0
  0
ARC
  5
A79
330
1A
100
AcDbEntity
  8
SEIHIN
100
AcDbCircle
 10
48.45327903321038
 20
145.6180242947396
 30
0.0
 40
1.99999999884376
100
AcDbArc
 50
271.4325437392202
 51
0.0
  0
ARC
  5
A7A
330
1A
100
AcDbEntity
  8
SEIHIN
100
AcDbCircle
 10
48.5532790332104
 20
141.6192742947396
 30
0.0
 40
2.0
100
AcDbArc
 50
90.0
 51
180.0
  0
ARC
  5
A7B
330
1A
100
AcDbEntity
  8
SEIHIN
100
AcDbCircle
 10
47.45327903321038
 20
152.6192742947396
 30
0.0
 40
3.0
100
AcDbArc
 50
0.0
 51
90.0
  0
LINE
  5
A7C
330
1A
100
AcDbEntity
  8
SEIHIN
100
AcDbLine
 10
107.8534689312003
 20
155.6192742947396
 30
0.0
 11
107.8534689312003
 21
108.6192742947396
 31
0.0
  0
LINE
  5
A7D
330
1A
100
AcDbEntity
  8
SEIHIN
100
AcDbLine
 10
106.6534689312004
 20
155.6192742947396
 30
0.0
 11
106.6534689312004
 21
108.6192742947396
 31
0.0
  0
ARC
  5
A7E
330
1A
100
AcDbEntity
  8
SEIHIN
100
AcDbCircle
 10
110.3003633312004
 20
103.4192742947396
 30
0.0
 40
2.999999985884628
100
AcDbArc
 50
10.35155819740191
 51
90.0
  0
LINE
  5
A7F
330
1A
100
AcDbEntity
  8
SEIHIN
100
AcDbLine
 10
114.1847642312004
 20
107.6192742947396
 30
0.0
 11
108.8534689312003
 21
107.6192742947396
 31
0.0
  0
LINE
  5
A80
330
1A
100
AcDbEntity
  8
SEIHIN
100
AcDbLine
 10
114.1847642312004
 20
106.4192742947395
 30
0.0
 11
108.8534689312003
 21
106.4192742947395
 31
0.0
  0
ARC
  5
A81
330
1A
100
AcDbEntity
  8
SEIHIN
100
AcDbCircle
 10
108.8534689312003
 20
108.6192742947396
 30
0.0
 40
1.0
100
AcDbArc
 50
180.0
 51
270.0
  0
LINE
  5
A82
330
1A
100
AcDbEntity
  8
SEIHIN
100
AcDbLine
 10
108.8867479312003
 20
107.6192742947396
 30
0.0
 11
108.8867479312003
 21
107.6192742947396
 31
0.0
  0
ARC
  5
A83
330
1A
100
AcDbEntity
  8
SEIHIN
100
AcDbCircle
 10
108.8534689312003
 20
108.6192742947396
 30
0.0
 40
2.199999999999988
100
AcDbArc
 50
180.0
 51
270.0
  0
ARC
  5
A84
330
1A
100
AcDbEntity
  8
SEIHIN
100
AcDbCircle
 10
114.1847642312004
 20
104.4192742947396
 30
0.0
 40
3.199999999587582
100
AcDbArc
 50
10.00469134359077
 51
90.0
  0
ARC
  5
A85
330
1A
100
AcDbEntity
  8
SEIHIN
100
AcDbCircle
 10
114.1847642312004
 20
104.4192742947396
 30
0.0
 40
2.000000016035531
100
AcDbArc
 50
10.00469045164722
 51
90.0
  0
LINE
  5
A86
330
1A
100
AcDbEntity
  8
SEIHIN
100
AcDbLine
 10
107.8534689312003
 20
114.2156082947396
 30
0.0
 11
107.8534689312003
 21
114.2156082947396
 31
0.0
  0
LINE
  5
A87
330
1A
100
AcDbEntity
  8
SEIHIN
100
AcDbLine
 10
107.8534689312003
 20
123.6192742947396
 30
0.0
 11
106.6534689312004
 21
123.6192742947396
 31
0.0
  0
LINE
  5
A88
330
1A
100
AcDbEntity
  8
SEIHIN
100
AcDbLine
 10
107.8534689312003
 20
143.6192742947396
 30
0.0
 11
106.6534689312004
 21
143.6192742947396
 31
0.0
  0
LINE
  5
A89
330
1A
100
AcDbEntity
  8
SEIHIN
100
AcDbLine
 10
107.8534689312003
 20
155.6192742947396
 30
0.0
 11
106.6534689312004
 21
155.6192742947396
 31
0.0
  0
LINE
  5
A8B
330
1A
100
AcDbEntity
  8
SEIHIN
100
AcDbLine
 10
227.3534689312004
 20
68.41927429473959
 30
0.0
 11
227.3534689312004
 21
97.4192742947396
 31
0.0
  0
LINE
  5
A8D
330
1A
100
AcDbEntity
  8
SEIHIN
100
AcDbLine
 10
218.4518766312004
 20
77.49361829473959
 30
0.0
 11
220.5217652312004
 21
98.1925115947396
 31
0.0
  0
LINE
  5
A8E
330
1A
100
AcDbEntity
  8
SEIHIN
100
AcDbLine
 10
223.7214625312004
 20
100.0398577947396
 30
0.0
 11
221.3133409312003
 21
75.95863349473963
 31
0.0
  0
LINE
  5
A8F
330
1A
100
AcDbEntity
  8
SEIHIN
100
AcDbLine
 10
224.3534689312003
 20
97.4192742947396
 30
0.0
 11
224.3534689312003
 21
68.41927429473959
 31
0.0
  0
LINE
  5
A93
330
1A
100
AcDbEntity
  8
SEIHIN
100
AcDbLine
 10
217.3072909312004
 20
78.10761229473964
 30
0.0
 11
219.3277206312004
 21
98.3119159947396
 31
0.0
  0
LINE
  5
A95
330
1A
100
AcDbEntity
  8
SEIHIN
100
AcDbLine
 10
172.8534689312003
 20
61.91927429473958
 30
0.0
 11
172.8534689312003
 21
62.41927429473958
 31
0.0
  0
LINE
  5
A96
330
1A
100
AcDbEntity
  8
SEIHIN
100
AcDbLine
 10
207.3610110312003
 20
68.41927429473959
 30
0.0
 11
218.4518766312004
 21
77.49361829473959
 31
0.0
  0
LINE
  5
A97
330
1A
100
AcDbEntity
  8
SEIHIN
100
AcDbLine
 10
208.4319010312003
 20
65.41927429473958
 30
0.0
 11
221.3133409312003
 21
75.95863349473963
 31
0.0
  0
LINE
  5
A98
330
1A
100
AcDbEntity
  8
SEIHIN
100
AcDbLine
 10
206.9326549312004
 20
69.61927429473964
 30
0.0
 11
217.3072909312004
 21
78.10761229473964
 31
0.0
  0
ARC
  5
A99
330
1A
100
AcDbEntity
  8
SEIHIN
100
AcDbCircle
 10
221.3534689312004
 20
68.41927429473959
 30
0.0
 40
3.0
100
AcDbArc
 50
270.0
 51
0.0
  0
ARC
  5
A9A
330
1A
100
AcDbEntity
  8
SEIHIN
100
AcDbCircle
 10
221.3534689312004
 20
68.41927429473959
 30
0.0
 40
6.0
100
AcDbArc
 50
270.0
 51
0.0
  0
LINE
  5
A9B
330
1A
100
AcDbEntity
  8
SEIHIN
100
AcDbLine
 10
221.3534689312004
 20
65.41927429473958
 30
0.0
 11
208.4319010312003
 21
65.41927429473958
 31
0.0
  0
LINE
  5
AA2
330
1A
100
AcDbEntity
  8
SEIHIN
100
AcDbLine
 10
271.5136642312004
 20
65.02401639473958
 30
0.0
 11
276.7638328813823
 21
67.65310479422442
 31
0.0
  0
LINE
  5
AA6
330
1A
100
AcDbEntity
  8
SEIHIN
100
AcDbLine
 10
261.6636462312004
 20
83.57737579473964
 30
0.0
 11
264.7979599312004
 21
77.31829619473963
 31
0.0
  0
LINE
  5
AA9
330
1A
100
AcDbEntity
  8
SEIHIN
100
AcDbLine
 10
264.7979599312004
 20
77.31829619473963
 30
0.0
 11
265.2450370312004
 21
77.54217569473964
 31
0.0
  0
LINE
  5
ABB
330
1A
100
AcDbEntity
  8
SEIHIN
100
AcDbLine
 10
262.1107234312004
 20
83.80125539473961
 30
0.0
 11
261.6636462312004
 21
83.57737579473964
 31
0.0
  0
LINE
  5
AC3
330
1A
100
AcDbEntity
  8
SEIHIN
100
AcDbLine
 10
258.9784954698268
 20
100.1062172243819
 30
0.0
 11
259.8657903023285
 21
98.33433045270012
 31
0.0
  0
LINE
  5
AC4
330
1A
100
AcDbEntity
  8
SEIHIN
100
AcDbLine
 10
276.7638327909199
 20
67.65310497487373
 30
0.0
 11
261.0922645110077
 21
98.94850293536777
 31
0.0
  0
LINE
  5
AC5
330
1A
100
AcDbEntity
  8
SEIHIN
100
AcDbLine
 10
220.4069002312004
 20
126.6327337947395
 30
0.0
 11
213.2928092312003
 21
121.6513937947395
 31
0.0
  0
LINE
  5
AC6
330
1A
100
AcDbEntity
  8
SEIHIN
100
AcDbLine
 10
228.8534689312003
 20
106.4079492947396
 30
0.0
 11
228.8534689312003
 21
124.8305992947396
 31
0.0
  0
LINE
  5
AC7
330
1A
100
AcDbEntity
  8
SEIHIN
100
AcDbLine
 10
221.0951919312004
 20
125.6497512947395
 30
0.0
 11
213.9811009312004
 21
120.6684112947396
 31
0.0
  0
LINE
  5
AC8
330
1A
100
AcDbEntity
  8
SEIHIN
100
AcDbLine
 10
230.0534689312004
 20
106.4079492947396
 30
0.0
 11
230.0534689312004
 21
124.8305992947396
 31
0.0
  0
LINE
  5
AC9
330
1A
100
AcDbEntity
  8
SEIHIN
100
AcDbLine
 10
228.3534689312003
 20
105.5419242947396
 30
0.0
 11
221.4068767312004
 21
101.5313071947396
 31
0.0
  0
ARC
  5
ACA
330
1A
100
AcDbEntity
  8
SEIHIN
100
AcDbCircle
 10
227.8534689312003
 20
106.4079492947396
 30
0.0
 40
2.200000005055114
100
AcDbArc
 50
299.9999998479836
 51
0.0
  0
LINE
  5
ACB
330
1A
100
AcDbEntity
  8
SEIHIN
100
AcDbLine
 10
228.9534690312003
 20
104.5026937947396
 30
0.0
 11
222.0068768312004
 21
100.4920766947396
 31
0.0
  0
ARC
  5
ACC
330
1A
100
AcDbEntity
  8
SEIHIN
100
AcDbCircle
 10
223.5068768312004
 20
97.89400049473961
 30
0.0
 40
4.200000021369245
100
AcDbArc
 50
120.0000011534159
 51
174.2894084913981
  0
ARC
  5
ACD
330
1A
100
AcDbEntity
  8
SEIHIN
100
AcDbCircle
 10
223.5068768312004
 20
97.89400049473961
 30
0.0
 40
3.000000006856998
100
AcDbArc
 50
120.0000001084146
 51
174.2894080027292
  0
LINE
  5
ACF
330
1A
100
AcDbEntity
  8
SEIHIN
100
AcDbLine
 10
253.6137645312004
 20
100.4192742947396
 30
0.0
 11
230.3534689312003
 21
100.4192742947396
 31
0.0
  0
LINE
  5
AD0
330
1A
100
AcDbEntity
  8
SEIHIN
100
AcDbLine
 10
230.3534689312003
 20
103.4192742947396
 30
0.0
 11
253.6137645312004
 21
103.4192742947396
 31
0.0
  0
ARC
  5
AD1
330
1A
100
AcDbEntity
  8
SEIHIN
100
AcDbCircle
 10
226.7065740312003
 20
99.74134669473961
 30
0.0
 40
2.999999957105099
100
AcDbArc
 50
120.0000001084146
 51
174.2894078126911
  0
ARC
  5
AD2
330
1A
100
AcDbEntity
  8
SEIHIN
100
AcDbCircle
 10
230.3534689312003
 20
97.4192742947396
 30
0.0
 40
3.0
100
AcDbArc
 50
90.0
 51
180.0
  0
ARC
  5
AD3
330
1A
100
AcDbEntity
  8
SEIHIN
100
AcDbCircle
 10
230.3534689312003
 20
97.4192742947396
 30
0.0
 40
6.0
100
AcDbArc
 50
90.0
 51
180.0
  0
LINE
  5
AD4
330
1A
100
AcDbEntity
  8
SEIHIN
100
AcDbLine
 10
257.1833275411439
 20
96.991053274883
 30
0.0
 11
256.2962273312003
 21
98.76255159473961
 31
0.0
  0
LINE
  5
AD5
330
1A
100
AcDbEntity
  8
SEIHIN
100
AcDbLine
 10
253.6137645312004
 20
103.4192742947396
 30
0.0
 11
253.6143569925006
 21
103.4192742947396
 31
0.0
  0
ARC
  5
AD6
330
1A
100
AcDbEntity
  8
SEIHIN
100
AcDbCircle
 10
253.6137645312004
 20
97.4192742947396
 30
0.0
 40
3.000000048173235
100
AcDbArc
 50
26.59999985782451
 51
90.0
  0
ARC
  5
AD7
330
1A
100
AcDbEntity
  8
SEIHIN
100
AcDbCircle
 10
253.6137645312004
 20
97.4192742947396
 30
0.0
 40
6.000000029250865
100
AcDbArc
 50
26.59999943154848
 51
90.0
  0
LINE
  5
AD8
330
1A
100
AcDbEntity
  8
SEIHIN
100
AcDbLine
 10
213.2928092312003
 20
121.6513937947395
 30
0.0
 11
213.9811009312004
 21
120.6684112947396
 31
0.0
  0
ARC
  5
AD9
330
1A
100
AcDbEntity
  8
SEIHIN
100
AcDbCircle
 10
227.8534689312003
 20
106.4079492947396
 30
0.0
 40
0.9999999983612706
100
AcDbArc
 50
300.0000001084146
 51
0.0
  0
LINE
  5
ADA
330
1A
100
AcDbEntity
  8
SEIHIN
100
AcDbLine
 10
228.8534689312003
 20
115.0202052947395
 30
0.0
 11
228.8534689312003
 21
115.0202052947395
 31
0.0
  0
LINE
  5
ADB
330
1A
100
AcDbEntity
  8
SEIHIN
100
AcDbLine
 10
221.6687679312004
 20
125.8305992947396
 30
0.0
 11
227.8534689312003
 21
125.8305992947396
 31
0.0
  0
LINE
  5
ADC
330
1A
100
AcDbEntity
  8
SEIHIN
100
AcDbLine
 10
221.6687679312004
 20
127.0305992947396
 30
0.0
 11
227.8534689312003
 21
127.0305992947396
 31
0.0
  0
LINE
  5
ADD
330
1A
100
AcDbEntity
  8
SEIHIN
100
AcDbLine
 10
217.2263453312003
 20
124.4056852947396
 30
0.0
 11
217.9146369312004
 21
123.4227022947396
 31
0.0
  0
ARC
  5
ADE
330
1A
100
AcDbEntity
  8
SEIHIN
100
AcDbCircle
 10
221.6687679312004
 20
124.8305992947396
 30
0.0
 40
2.199999983850877
100
AcDbArc
 50
90.0
 51
124.9999986822715
  0
ARC
  5
ADF
330
1A
100
AcDbEntity
  8
SEIHIN
100
AcDbCircle
 10
221.6687679312004
 20
124.8305992947396
 30
0.0
 40
0.9999999714352551
100
AcDbArc
 50
90.0
 51
124.9999997494021
  0
ARC
  5
AE0
330
1A
100
AcDbEntity
  8
SEIHIN
100
AcDbCircle
 10
227.8534689312003
 20
124.8305992947396
 30
0.0
 40
2.200000000000017
100
AcDbArc
 50
0.0
 51
90.0
  0
ARC
  5
AE1
330
1A
100
AcDbEntity
  8
SEIHIN
100
AcDbCircle
 10
227.8534689312003
 20
124.8305992947396
 30
0.0
 40
1.0
100
AcDbArc
 50
0.0
 51
90.0
  0
LINE
  5
B90
330
1A
100
AcDbEntity
  8
SUNPOU
100
AcDbLine
 10
289.4430275151329
 20
42.3333373188178
 30
0.0
 11
276.7638324312004
 21
67.6531047947396
 31
0.0
  0
LINE
  5
B98
330
1A
100
AcDbEntity
  8
SUNPOU
100
AcDbLine
 10
284.4354005312002
 20
42.3333373188178
 30
0.0
 11
284.4354005312003
 21
52.3333373188178
 31
0.0
  0
TEXT
  5
B9A
330
1A
100
AcDbEntity
  8
SUNPOU
100
AcDbText
 10
279.5742682588494
 20
46.1121699867852
 30
-23.49201566
 40
3.0
  1
10
100
AcDbText
  0
TEXT
  5
B9B
330
1A
100
AcDbEntity
  8
SUNPOU
100
AcDbText
 10
285.7698937282585
 20
38.62062857937308
 30
-23.49201566
 40
3.0
  1
5
100
AcDbText
  0
LINE
  5
B9C
330
1A
100
AcDbEntity
  8
CENTER_L
100
AcDbLine
 10
169.3534689312003
 20
54.91927429473958
 30
0.0
 11
169.3534689312003
 21
76.61927429473964
 31
0.0
  0
LINE
  5
C9D
330
1A
100
AcDbEntity
  8
SEIHIN
100
AcDbLine
 10
255.8420961405942
 20
96.31941467598046
 30
0.0
 11
271.5136642312004
 21
65.02401639473958
 31
0.0
  0
LINE
  5
FEA
330
1A
100
AcDbEntity
  8
CENTER_L
100
AcDbLine
 10
283.7638324312004
 20
221.9873719893104
 30
0.0
 11
99.65346893120045
 21
221.9873719893104
 31
0.0
  0
LINE
  5
FEB
330
1A
100
AcDbEntity
  8
SEIHIN
100
AcDbLine
 10
230.0534689312004
 20
232.9873719893104
 30
0.0
 11
106.6534689312004
 21
232.9873719893104
 31
0.0
  0
LINE
  5
FEC
330
1A
100
AcDbEntity
  8
SEIHIN
100
AcDbLine
 10
230.0534689312004
 20
210.9873719893104
 30
0.0
 11
106.6534689312004
 21
210.9873719893104
 31
0.0
  0
LINE
  5
FED
330
1A
100
AcDbEntity
  8
SEIHIN
100
AcDbLine
 10
106.6534689312004
 20
232.9873719893104
 30
0.0
 11
106.6534689312004
 21
210.9873719893104
 31
0.0
  0
LINE
  5
FEE
330
1A
100
AcDbEntity
  8
SEIHIN
100
AcDbLine
 10
107.8534689312003
 20
232.9873719893104
 30
0.0
 11
107.8534689312003
 21
210.9873719893104
 31
0.0
  0
LINE
  5
FF0
330
1A
100
AcDbEntity
  8
SEIHIN
100
AcDbLine
 10
214.3634730956919
 20
215.9873719893104
 30
0.0
 11
115.5164451098302
 21
215.9873719893104
 31
0.0
  0
LINE
  5
FF1
330
1A
100
AcDbEntity
  8
SEIHIN
100
AcDbLine
 10
107.8534689312003
 20
227.9873719893104
 30
0.0
 11
106.6534689312004
 21
227.9873719893104
 31
0.0
  0
LINE
  5
FF2
330
1A
100
AcDbEntity
  8
SEIHIN
100
AcDbLine
 10
107.8534689312003
 20
215.9873719893104
 30
0.0
 11
106.6534689312004
 21
215.9873719893104
 31
0.0
  0
LINE
  5
FF3
330
1A
100
AcDbEntity
  8
SEIHIN
100
AcDbLine
 10
112.5164451098302
 20
218.9873719893104
 30
0.0
 11
112.5164451098302
 21
224.9873719893104
 31
0.0
  0
LINE
  5
FF5
330
1A
100
AcDbEntity
  8
SEIHIN
100
AcDbLine
 10
230.0534689312004
 20
210.9873719893104
 30
0.0
 11
230.0534689312004
 21
232.9873719893104
 31
0.0
  0
LINE
  5
FF6
330
1A
100
AcDbEntity
  8
SEIHIN
100
AcDbLine
 10
220.4068998219376
 20
210.9873719893104
 30
0.0
 11
220.4068998219376
 21
232.9873719893104
 31
0.0
  0
ARC
  5
FF8
330
1A
100
AcDbEntity
  8
SEIHIN
100
AcDbCircle
 10
230.6401403323442
 20
221.9873719893104
 30
0.0
 40
17.34733110114381
100
AcDbArc
 50
140.6464899728084
 51
219.3535100271917
  0
LINE
  5
FF9
330
1A
100
AcDbEntity
  8
SEIHIN
100
AcDbLine
 10
115.5140105219777
 20
210.9873719893104
 30
0.0
 11
115.5140105219777
 21
215.9873719893104
 31
0.0
  0
LINE
  5
FFA
330
1A
100
AcDbEntity
  8
SEIHIN
100
AcDbLine
 10
115.5140105219777
 20
227.9873719893104
 30
0.0
 11
115.5140105219777
 21
232.9873719893104
 31
0.0
  0
ARC
  5
FFB
330
1A
100
AcDbEntity
  8
SEIHIN
100
AcDbCircle
 10
115.5164451098302
 20
224.9873719893104
 30
0.0
 40
3.0
100
AcDbArc
 50
90.0
 51
180.0
  0
ARC
  5
FFC
330
1A
100
AcDbEntity
  8
SEIHIN
100
AcDbCircle
 10
115.5164451098302
 20
218.9873719893104
 30
0.0
 40
3.0
100
AcDbArc
 50
180.0
 51
270.0
  0
LINE
  5
1178
330
1A
100
AcDbEntity
  8
SUNPOU
100
AcDbLine
 10
284.4354005312003
 20
42.3333373188178
 30
0.0
 11
289.4430275151329
 21
42.3333373188178
 31
0.0
  0
LINE
  5
119A
330
1A
100
AcDbEntity
  8
SEIHIN
100
AcDbLine
 10
374.2300062198528
 20
119.8156526643943
 30
0.0
 11
361.2449922199564
 21
145.7461253061047
 31
0.0
  0
LINE
  5
119D
330
1A
100
AcDbEntity
  8
SEIHIN
100
AcDbLine
 10
328.1831093918885
 20
93.40195749475141
 30
0.0
 11
350.5369651175009
 21
104.5959350808691
 31
0.0
  0
LINE
  5
119E
330
1A
100
AcDbEntity
  8
SEIHIN
100
AcDbLine
 10
311.1723553945845
 20
120.6716155132012
 30
0.0
 11
324.1573693944809
 21
94.74114287149077
 31
0.0
  0
CIRCLE
  5
11A8
330
1A
100
AcDbEntity
  8
SEIHIN
100
AcDbCircle
 10
327.7312583548492
 20
101.004314408257
 30
0.0
 40
2.050000000000068
  0
CIRCLE
  5
11A9
330
1A
100
AcDbEntity
  8
SEIHIN
100
AcDbCircle
 10
323.0297877686798
 20
110.3929338130142
 30
0.0
 40
3.25
  0
LINE
  5
11C1
330
1A
100
AcDbEntity
  8
SEIHIN
100
AcDbLine
 10
312.5115407713239
 20
124.6973555106088
 30
0.0
 11
329.0533940082771
 21
132.9808989243359
 31
0.0
  0
CIRCLE
  5
11C8
330
1A
100
AcDbEntity
  8
SEIHIN
100
AcDbCircle
 10
318.3283171825103
 20
119.7815532177714
 30
0.0
 40
2.050000000000068
  0
LINE
  5
11CC
330
1A
100
AcDbEntity
  8
SEIHIN
100
AcDbLine
 10
350.5369651175009
 20
104.595935080869
 30
0.0
 11
372.8908208431135
 21
115.7899126669867
 31
0.0
  0
CIRCLE
  5
11D1
330
1A
100
AcDbEntity
  8
SEIHIN
100
AcDbCircle
 10
367.074044431927
 20
120.705714959824
 30
0.0
 40
2.050000000000068
  0
CIRCLE
  5
11D3
330
1A
100
AcDbEntity
  8
SEIHIN
100
AcDbCircle
 10
362.3725738457576
 20
130.0943343645813
 30
0.0
 40
3.25
  0
LINE
  5
11D6
330
1A
100
AcDbEntity
  8
SEIHIN
100
AcDbLine
 10
340.6773989855955
 20
138.801767269117
 30
0.0
 11
357.2192522225488
 21
147.0853106828441
 31
0.0
  0
CIRCLE
  5
11E3
330
1A
100
AcDbEntity
  8
SEIHIN
100
AcDbCircle
 10
357.6711032595882
 20
139.4829537693385
 30
0.0
 40
2.050000000000068
  0
LINE
  5
11EE
330
1A
100
AcDbEntity
  8
CENTER_L
100
AcDbLine
 10
354.342917496781
 20
96.99562413416085
 30
0.0
 11
331.1249956944996
 21
143.3607405750234
 31
0.0
  0
ARC
  5
11F2
330
1A
100
AcDbEntity
  8
SEIHIN
100
AcDbCircle
 10
313.854818081658
 20
122.0148928235353
 30
0.0
 40
3.0
100
AcDbArc
 50
116.600001
 51
206.6000010000001
  0
ARC
  5
11F3
330
1A
100
AcDbEntity
  8
SEIHIN
100
AcDbCircle
 10
326.8398320815544
 20
96.0844201818249
 30
0.0
 40
3.0
100
AcDbArc
 50
206.600001
 51
296.6000010000002
  0
ARC
  5
11F4
330
1A
100
AcDbEntity
  8
SEIHIN
100
AcDbCircle
 10
358.5625295328829
 20
144.4028479957706
 30
0.0
 40
3.0
100
AcDbArc
 50
26.60000099999997
 51
116.600001
  0
ARC
  5
11F5
330
1A
100
AcDbEntity
  8
SEIHIN
100
AcDbCircle
 10
371.5475435327793
 20
118.4723753540602
 30
0.0
 40
3.0
100
AcDbArc
 50
296.6000010000001
 51
26.6000009999999
  0
LINE
  5
11F6
330
1A
100
AcDbEntity
  8
SEIHIN
100
AcDbLine
 10
214.3634730956919
 20
227.9873719893104
 30
0.0
 11
115.5164451098302
 21
227.9873719893104
 31
0.0
  0
LINE
  5
11F7
330
1A
100
AcDbEntity
  8
CENTER_L
100
AcDbLine
 10
326.2760412686539
 20
103.9103156525867
 30
0.0
 11
319.7835342687056
 21
116.8755519734418
 31
0.0
  0
LINE
  5
11F8
330
1A
100
AcDbEntity
  8
CENTER_L
100
AcDbLine
 10
329.5124059291073
 20
113.6391873129883
 30
0.0
 11
316.5471696082521
 21
107.1466803130401
 31
0.0
  0
LINE
  5
11FB
330
1A
100
AcDbEntity
  8
CENTER_L
100
AcDbLine
 10
323.7379502681086
 20
122.4904957936119
 30
0.0
 11
312.9186840969121
 21
117.0726106419309
 31
0.0
  0
LINE
  5
11FC
330
1A
100
AcDbEntity
  8
CENTER_L
100
AcDbLine
 10
321.0372597583509
 20
114.3719201321732
 30
0.0
 11
315.6193746066698
 21
125.1911863033697
 31
0.0
  0
LINE
  5
11FD
330
1A
100
AcDbEntity
  8
CENTER_L
100
AcDbLine
 10
333.1408914404474
 20
103.7132569840975
 30
0.0
 11
322.3216252692509
 21
98.29537183241656
 31
0.0
  0
LINE
  5
11FE
330
1A
100
AcDbEntity
  8
CENTER_L
100
AcDbLine
 10
330.4402009306897
 20
95.59468132265882
 30
0.0
 11
325.0223157790086
 21
106.4139474938553
 31
0.0
  0
LINE
  5
11FF
330
1A
100
AcDbEntity
  8
CENTER_L
100
AcDbLine
 10
363.0807363451864
 20
142.1918963451789
 30
0.0
 11
352.2614701739898
 21
136.7740111934979
 31
0.0
  0
LINE
  5
1200
330
1A
100
AcDbEntity
  8
CENTER_L
100
AcDbLine
 10
360.3800458354287
 20
134.0733206837402
 30
0.0
 11
354.9621606837476
 21
144.8925868549367
 31
0.0
  0
LINE
  5
1201
330
1A
100
AcDbEntity
  8
CENTER_L
100
AcDbLine
 10
368.8551920061851
 20
133.3405878645554
 30
0.0
 11
355.88995568533
 21
126.8480808646071
 31
0.0
  0
LINE
  5
1202
330
1A
100
AcDbEntity
  8
CENTER_L
100
AcDbLine
 10
365.6188273457317
 20
123.6117162041537
 30
0.0
 11
359.1263203457835
 21
136.5769525250088
 31
0.0
  0
LINE
  5
1203
330
1A
100
AcDbEntity
  8
CENTER_L
100
AcDbLine
 10
369.7829870077676
 20
115.2960818742258
 30
0.0
 11
364.3651018560865
 21
126.1153480454223
 31
0.0
  0
LINE
  5
1204
330
1A
100
AcDbEntity
  8
CENTER_L
100
AcDbLine
 10
372.4836775175252
 20
123.4146575356645
 30
0.0
 11
361.6644113463287
 21
117.9967723839835
 31
0.0
  0
LINE
  5
1209
330
1A
100
AcDbEntity
  8
SEIHIN
100
AcDbLine
 10
356.3489676061602
 20
107.5063692532596
 30
0.0
 11
338.7989199950591
 21
142.5530029684024
 31
0.0
  0
LINE
  5
120A
330
1A
100
AcDbEntity
  8
SEIHIN
100
AcDbLine
 10
344.7249626288417
 20
101.6855009084785
 30
0.0
 11
325.3129932058403
 21
140.4503064026328
 31
0.0
  0
LINE
  5
120B
330
1A
100
AcDbEntity
  8
SEIHIN
100
AcDbLine
 10
356.7960447206725
 20
107.730248804982
 30
0.0
 11
341.1244761001078
 21
139.0256468208394
 31
0.0
  0
LINE
  5
120C
330
1A
100
AcDbEntity
  8
SEIHIN
100
AcDbLine
 10
344.2778855143295
 20
101.4616213567561
 30
0.0
 11
328.6063168937649
 21
132.7570193726135
 31
0.0
  0
LINE
  5
120F
330
1A
100
AcDbEntity
  8
CENTER_L
100
AcDbLine
 10
279.0391517926856
 20
76.62112697375153
 30
0.0
 11
268.2198856214891
 21
71.20324182207053
 31
0.0
  0
LINE
  5
1210
330
1A
100
AcDbEntity
  8
CENTER_L
100
AcDbLine
 10
275.4106662813455
 20
86.54705730264236
 30
0.0
 11
262.4454299604903
 21
80.05455030269414
 31
0.0
  0
LINE
  5
1211
330
1A
100
AcDbEntity
  8
CENTER_L
100
AcDbLine
 10
269.6362106203467
 20
95.39836578326594
 30
0.0
 11
258.8169444491502
 21
89.98048063158496
 31
0.0
  0
LINE
  5
1212
330
1A
100
AcDbEntity
  8
SEIHIN
100
AcDbLine
 10
275.4226014420138
 20
66.9814663304291
 30
0.0
 11
259.7510331335143
 21
98.27686434801092
 31
0.0
  0
LINE
  5
1213
330
1A
100
AcDbEntity
  8
SEIHIN
 62
     2
100
AcDbLine
 10
316.9732192511602
 20
136.2740585164565
 30
0.0
 11
333.5150724881135
 21
144.5576019301836
 31
0.0
  0
LINE
  5
1214
330
1A
100
AcDbEntity
  8
SEIHIN
 62
     2
100
AcDbLine
 10
331.3078757286684
 20
138.801767269117
 30
0.0
 11
347.8497289656217
 21
147.0853106828441
 31
0.0
  0
LINE
  5
1215
330
1A
100
AcDbEntity
  8
CENTER_L
 62
     2
100
AcDbLine
 10
333.5150724881135
 20
144.5576019301836
 30
0.0
 11
331.3078757286684
 21
138.801767269117
 31
0.0
  0
CIRCLE
  5
1218
330
1A
100
AcDbEntity
  8
SEIHIN
100
AcDbCircle
 10
169.3534689312003
 20
221.9873719893104
 30
0.0
 40
3.5
  0
LINE
  5
121A
330
1A
100
AcDbEntity
  8
SEIHIN
100
AcDbLine
 10
276.7638324312004
 20
199.9873719893104
 30
0.0
 11
276.7638324312004
 21
214.4873719893104
 31
0.0
  0
LINE
  5
121B
330
1A
100
AcDbEntity
  8
CENTER_L
100
AcDbLine
 10
273.629519116845
 20
193.8873719893104
 30
0.0
 11
273.629519116845
 21
206.0868327590727
 31
0.0
  0
LINE
  5
121C
330
1A
100
AcDbEntity
  8
CENTER_L
100
AcDbLine
 10
268.9280486057326
 20
207.2873712888052
 30
0.0
 11
268.9280486057326
 21
192.6873719893104
 31
0.0
  0
LINE
  5
121F
330
1A
100
AcDbEntity
  8
SEIHIN
100
AcDbLine
 10
259.9740950312004
 20
199.9873719893104
 30
0.0
 11
259.9740950312004
 21
212.9873719893104
 31
0.0
  0
DIMENSION
  5
1220
330
1A
100
AcDbEntity
  8
SUNPOU
100
AcDbDimension
  2
*D1
 10
346.4163772148667
 20
161.958121358293
 30
0.0
 11
325.625586417716
 21
154.3428066550708
 31
0.0
 70
    33
  3
STANDARD
100
AcDbAlignedDimension
 13
315.6193746066698
 23
125.1911863033697
 33
0.0
 14
354.9621606837476
 24
144.8925868549367
 34
0.0
1001
ACAD
1000
DSTYLE
1002
{
1070
    41
1040
3.0
1070
    42
1040
3.0
1070
    43
1040
7.0
1070
    44
1040
1.5
1070
    73
1070
     0
1070
    74
1070
     0
1070
    77
1070
     3
1070
   140
1040
3.0
1070
   141
1040
3.0
1070
   147
1040
1.0
1070
   172
1070
     1
1070
   173
1070
     1
1070
   176
1070
   256
1070
   177
1070
   256
1070
   178
1070
   256
1070
   271
1070
     0
1070
   272
1070
     0
1070
   341
1005
B2
1070
     6
1000
OPEN
1070
     7
1000
OPEN
1002
}
  0
DIMENSION
  5
122D
330
1A
100
AcDbEntity
  8
SUNPOU
100
AcDbDimension
  2
*D2
 10
348.3922524767672
 20
171.4124523724017
 30
0.0
 11
322.2365363054696
 21
161.1105830485112
 31
0.0
 70
    33
  3
STANDARD
100
AcDbAlignedDimension
 13
311.1723553945845
 23
120.6716155132012
 33
0.0
 14
361.2449922199563
 24
145.7461253061047
 34
0.0
1001
ACAD
1000
DSTYLE
1002
{
1070
    41
1040
3.0
1070
    42
1040
3.0
1070
    43
1040
7.0
1070
    44
1040
1.5
1070
    73
1070
     0
1070
    74
1070
     0
1070
    77
1070
     3
1070
   140
1040
3.0
1070
   141
1040
3.0
1070
   147
1040
1.0
1070
   172
1070
     1
1070
   173
1070
     1
1070
   176
1070
   256
1070
   177
1070
   256
1070
   178
1070
   256
1070
   271
1070
     0
1070
   272
1070
     0
1070
   341
1005
B2
1070
     6
1000
OPEN
1070
     7
1000
OPEN
1002
}
  0
DIMENSION
  5
123A
330
1A
100
AcDbEntity
  8
SUNPOU
100
AcDbDimension
  2
*D3
 10
378.3005227389848
 20
138.070457369586
 30
0.0
 11
376.6180161564047
 21
147.0137046321621
 31
0.0
 70
    33
  3
STANDARD
100
AcDbAlignedDimension
 13
354.5367895354751
 23
145.7420333725099
 33
0.0
 14
362.3725738457575
 24
130.0943343645813
 34
0.0
1001
ACAD
1000
DSTYLE
1002
{
1070
    41
1040
3.0
1070
    42
1040
3.0
1070
    43
1040
7.0
1070
    44
1040
1.5
1070
    73
1070
     0
1070
    74
1070
     0
1070
    77
1070
     3
1070
   140
1040
3.0
1070
   141
1040
3.0
1070
   147
1040
1.0
1070
   172
1070
     1
1070
   173
1070
     1
1070
   176
1070
   256
1070
   177
1070
   256
1070
   178
1070
   256
1070
   271
1070
     0
1070
   272
1070
     0
1070
   341
1005
B2
1070
     6
1000
OPEN
1070
     7
1000
OPEN
1002
}
  0
DIMENSION
  5
1247
330
1A
100
AcDbEntity
  8
SUNPOU
100
AcDbDimension
  2
*D4
 10
304.3121830698519
 20
112.7627957816055
 30
0.0
 11
304.9804117803566
 21
117.011733341803
 31
0.0
 70
    33
  3
STANDARD
100
AcDbAlignedDimension
 13
315.1940034583974
 23
126.0406328209429
 33
0.0
 14
318.3283171825104
 24
119.7815532177714
 34
0.0
1001
ACAD
1000
DSTYLE
1002
{
1070
    41
1040
3.0
1070
    42
1040
3.0
1070
    43
1040
7.0
1070
    44
1040
1.5
1070
    73
1070
     0
1070
    74
1070
     0
1070
    77
1070
     3
1070
   140
1040
3.0
1070
   141
1040
3.0
1070
   147
1040
1.0
1070
   172
1070
     1
1070
   173
1070
     1
1070
   176
1070
   256
1070
   177
1070
   256
1070
   178
1070
   256
1070
   271
1070
     0
1070
   272
1070
     0
1070
   341
1005
B2
1070
     6
1000
OPEN
1070
     7
1000
OPEN
1002
}
  0
DIMENSION
  5
1256
330
1A
100
AcDbEntity
  8
SUNPOU
100
AcDbDimension
  2
*D5
 10
316.849437966304
 20
87.72647736891991
 30
0.0
 11
317.5176666768088
 21
91.97541492911748
 31
0.0
 70
    33
  3
STANDARD
100
AcDbAlignedDimension
 13
327.7312583548492
 23
101.004314408257
 33
0.0
 14
330.8655720789622
 24
94.74523480508564
 34
0.0
1001
ACAD
1000
DSTYLE
1002
{
1070
    41
1040
3.0
1070
    42
1040
3.0
1070
    43
1040
7.0
1070
    44
1040
1.5
1070
    73
1070
     0
1070
    74
1070
     0
1070
    77
1070
     3
1070
   140
1040
3.0
1070
   141
1040
3.0
1070
   147
1040
1.0
1070
   172
1070
     1
1070
   173
1070
     1
1070
   176
1070
   256
1070
   177
1070
   256
1070
   178
1070
   256
1070
   271
1070
     0
1070
   272
1070
     0
1070
   341
1005
B2
1070
     6
1000
OPEN
1070
     7
1000
OPEN
1002
}
  0
DIMENSION
  5
1265
330
1A
100
AcDbEntity
  8
SUNPOU
100
AcDbDimension
  2
*D6
 10
309.0756524791029
 20
83.83365540696601
 30
0.0
 11
303.4752537413818
 21
100.6007521735064
 31
0.0
 70
    33
  3
STANDARD
100
AcDbAlignedDimension
 13
312.5115407713239
 23
124.6973555106088
 33
0.0
 14
328.1831093918885
 24
93.40195749475139
 34
0.0
1001
ACAD
1000
DSTYLE
1002
{
1070
    41
1040
3.0
1070
    42
1040
3.0
1070
    43
1040
7.0
1070
    44
1040
1.5
1070
    73
1070
     0
1070
    74
1070
     0
1070
    77
1070
     3
1070
   140
1040
3.0
1070
   141
1040
3.0
1070
   147
1040
1.0
1070
   172
1070
     1
1070
   173
1070
     1
1070
   176
1070
   256
1070
   177
1070
   256
1070
   178
1070
   256
1070
   271
1070
     0
1070
   272
1070
     0
1070
   341
1005
B2
1070
     6
1000
OPEN
1070
     7
1000
OPEN
1002
}
  0
LINE
  5
1273
330
1A
100
AcDbEntity
  8
SEIHIN
100
AcDbLine
 10
274.7489169842647
 20
193.9873719893104
 30
0.0
 11
261.9890104781361
 21
193.9873719893104
 31
0.0
  0
LINE
  5
1274
330
1A
100
AcDbEntity
  8
CENTER_L
100
AcDbLine
 10
277.0203043923061
 20
199.9873719893104
 30
0.0
 11
261.0922644312004
 21
199.9873719893104
 31
0.0
  0
ELLIPSE
  5
1278
330
1A
100
AcDbEntity
  8
SEIHIN
100
AcDbEllipse
 10
274.7489169842647
 20
199.9873719893104
 30
0.0
 11
0.0
 21
-6.0
 31
0.0
210
0.0
220
0.0
230
1.0
 40
0.3358192411559362
 41
6.283185307179586
 42
7.853981633974482
  0
ELLIPSE
  5
1279
330
1A
100
AcDbEntity
  8
SEIHIN
100
AcDbEllipse
 10
263.107179878136
 20
199.9873719893104
 30
0.0
 11
0.0
 21
-6.0
 31
0.0
210
0.0
220
0.0
230
1.0
 40
0.3358192411559362
 41
4.712388980384689
 42
6.283185307179586
  0
ELLIPSE
  5
127C
330
1A
100
AcDbEntity
  8
SEIHIN
100
AcDbEllipse
 10
261.9890104781361
 20
199.9873719893104
 30
0.0
 11
0.0
 21
-6.0
 31
0.0
210
0.0
220
0.0
230
1.0
 40
0.3358192411559362
 41
4.712388980384689
 42
6.283185307179586
  0
LINE
  5
127D
330
1A
100
AcDbEntity
  8
SEIHIN
100
AcDbLine
 10
261.0922644312004
 20
199.9873719893104
 30
0.0
 11
261.0922644312004
 21
214.4873719893104
 31
0.0
  0
ELLIPSE
  5
1285
330
1A
100
AcDbEntity
  8
SEIHIN
100
AcDbEllipse
 10
268.9280486057326
 20
199.9873719893104
 30
0.0
 11
0.0
 21
-3.300000000000011
 31
0.0
210
0.0
220
0.0
230
1.0
 40
0.6445016911300838
 41
0.0
 42
6.283185307179586
  0
ELLIPSE
  5
1289
330
1A
100
AcDbEntity
  8
SEIHIN
100
AcDbEllipse
 10
264.2265780946203
 20
199.9873719893104
 30
0.0
 11
0.0
 21
-2.099999999999994
 31
0.0
210
0.0
220
0.0
230
1.0
 40
0.7569260310350522
 41
0.0
 42
6.283185307179586
  0
ELLIPSE
  5
128A
330
1A
100
AcDbEntity
  8
SEIHIN
100
AcDbEllipse
 10
273.629519116845
 20
199.9873719893104
 30
0.0
 11
0.0
 21
-2.099999999999994
 31
0.0
210
0.0
220
0.0
230
1.0
 40
0.7569260310350522
 41
0.0
 42
6.283185307179586
  0
LINE
  5
128E
330
1A
100
AcDbEntity
  8
CENTER_L
100
AcDbLine
 10
264.2265780946203
 20
193.8873719893104
 30
0.0
 11
264.2265780946203
 21
206.0868327590727
 31
0.0
  0
LINE
  5
128F
330
1A
100
AcDbEntity
  8
SEIHIN
100
AcDbLine
 10
275.6790730120881
 20
228.4873719893104
 30
0.0
 11
230.0534689312004
 21
228.4873719893104
 31
0.0
  0
LINE
  5
1290
330
1A
100
AcDbEntity
  8
SEIHIN
100
AcDbLine
 10
275.6790730120881
 20
215.4873719893104
 30
0.0
 11
230.0534689312004
 21
215.4873719893104
 31
0.0
  0
LINE
  5
1291
330
1A
100
AcDbEntity
  8
SEIHIN
100
AcDbLine
 10
276.2638324312003
 20
214.9873719893104
 30
0.0
 11
257.6833275114184
 21
214.9873719893104
 31
0.0
  0
LINE
  5
1292
330
1A
100
AcDbEntity
  8
SEIHIN
100
AcDbLine
 10
276.2638324312003
 20
228.9873719893104
 30
0.0
 11
257.6833275114184
 21
228.9873719893104
 31
0.0
  0
LINE
  5
1293
330
1A
100
AcDbEntity
  8
SEIHIN
100
AcDbLine
 10
259.4740950312004
 20
230.4873719893104
 30
0.0
 11
256.3420961312004
 21
230.4873719893104
 31
0.0
  0
LINE
  5
1294
330
1A
100
AcDbEntity
  8
SEIHIN
100
AcDbLine
 10
259.4740950312004
 20
213.4873719893104
 30
0.0
 11
256.3420961312004
 21
213.4873719893104
 31
0.0
  0
LINE
  5
1295
330
1A
100
AcDbEntity
  8
SEIHIN
100
AcDbLine
 10
255.8420961312003
 20
213.9873719893104
 30
0.0
 11
255.8420961312003
 21
215.4873719893104
 31
0.0
  0
ARC
  5
1296
330
1A
100
AcDbEntity
  8
SEIHIN
100
AcDbCircle
 10
256.3420961312003
 20
213.9873719893104
 30
0.0
 40
0.5
100
AcDbArc
 50
179.9999999999934
 51
270.0000000000065
  0
ARC
  5
1297
330
1A
100
AcDbEntity
  8
SEIHIN
100
AcDbCircle
 10
256.3420961312003
 20
229.9873719893104
 30
0.0
 40
0.5
100
AcDbArc
 50
89.99999999999349
 51
180.0000000000032
  0
ARC
  5
129B
330
1A
100
AcDbEntity
  8
SEIHIN
100
AcDbCircle
 10
259.4740950312005
 20
230.9873719893104
 30
0.0
 40
0.5
100
AcDbArc
 50
269.9999999999934
 51
0.0000000000065138
  0
ARC
  5
129C
330
1A
100
AcDbEntity
  8
SEIHIN
100
AcDbCircle
 10
260.5922644312003
 20
229.4873719893104
 30
0.0
 40
0.5
100
AcDbArc
 50
270.0000000000065
 51
0.0
  0
ARC
  5
129D
330
1A
100
AcDbEntity
  8
SEIHIN
100
AcDbCircle
 10
276.2638324312004
 20
229.4873719893105
 30
0.0
 40
0.5
100
AcDbArc
 50
269.9999999999934
 51
359.9999999999967
  0
ARC
  5
129E
330
1A
100
AcDbEntity
  8
SEIHIN
100
AcDbCircle
 10
259.4740950312004
 20
212.9873719893104
 30
0.0
 40
0.5
100
AcDbArc
 50
0.0
 51
90.0
  0
ARC
  5
129F
330
1A
100
AcDbEntity
  8
SEIHIN
100
AcDbCircle
 10
260.5922644312004
 20
214.4873719893104
 30
0.0
 40
0.5
100
AcDbArc
 50
0.0
 51
90.0
  0
ARC
  5
12A0
330
1A
100
AcDbEntity
  8
SEIHIN
100
AcDbCircle
 10
276.2638324312003
 20
214.4873719893104
 30
0.0
 40
0.5
100
AcDbArc
 50
0.0
 51
90.0
  0
LINE
  5
12A1
330
1A
100
AcDbEntity
  8
SEIHIN
100
AcDbLine
 10
255.8420961312003
 20
228.4873719893104
 30
0.0
 11
255.8420961312003
 21
229.9873719893104
 31
0.0
  0
LINE
  5
12A2
330
1A
100
AcDbEntity
  8
SEIHIN
100
AcDbLine
 10
256.4593438047647
 20
228.4873719893104
 30
0.0
 11
256.4593438047649
 21
215.4873719893104
 31
0.0
  0
ARC
  5
12A3
330
1A
100
AcDbEntity
  8
SEIHIN
100
AcDbCircle
 10
257.6833275114184
 20
228.4873719893104
 30
0.0
 40
0.5
100
AcDbArc
 50
90.0
 51
180.0
  0
ARC
  5
12A5
330
1A
100
AcDbEntity
  8
SEIHIN
100
AcDbCircle
 10
257.6833275114184
 20
215.4873719893104
 30
0.0
 40
0.5
100
AcDbArc
 50
179.9999999999934
 51
270.0
  0
LINE
  5
12A6
330
1A
100
AcDbEntity
  8
SEIHIN
100
AcDbLine
 10
275.6790730120881
 20
215.4873719893104
 30
0.0
 11
275.6790730120881
 21
228.4873719893104
 31
0.0
  0
LINE
  5
12A7
330
1A
100
AcDbEntity
  8
SEIHIN
100
AcDbLine
 10
271.5136641312004
 20
228.4873719893104
 30
0.0
 11
271.5136641312003
 21
228.9873719893104
 31
0.0
  0
LINE
  5
12A8
330
1A
100
AcDbEntity
  8
SEIHIN
100
AcDbLine
 10
271.5136641312005
 20
214.9873719893104
 30
0.0
 11
271.5136641312004
 21
215.4873719893105
 31
0.0
  0
LINE
  5
12AA
330
1A
100
AcDbEntity
  8
CENTER_L
100
AcDbLine
 10
277.0203043923061
 20
243.9873719893104
 30
0.0
 11
261.0922644312004
 21
243.9873719893104
 31
0.0
  0
LINE
  5
12AB
330
1A
100
AcDbEntity
  8
SEIHIN
100
AcDbLine
 10
276.7638324312004
 20
243.9873719893104
 30
0.0
 11
276.7638324312004
 21
229.4873719893104
 31
0.0
  0
LINE
  5
12AC
330
1A
100
AcDbEntity
  8
SEIHIN
100
AcDbLine
 10
261.0922644312004
 20
243.9873719893104
 30
0.0
 11
261.0922644312004
 21
229.4873719893104
 31
0.0
  0
LINE
  5
12AD
330
1A
100
AcDbEntity
  8
SEIHIN
100
AcDbLine
 10
259.9740950312004
 20
243.9873719893104
 30
0.0
 11
259.9740950312004
 21
230.9873719893105
 31
0.0
  0
LINE
  5
12AE
330
1A
100
AcDbEntity
  8
CENTER_L
100
AcDbLine
 10
264.2265780946203
 20
250.0873719893104
 30
0.0
 11
264.2265780946203
 21
237.8879112195481
 31
0.0
  0
LINE
  5
12AF
330
1A
100
AcDbEntity
  8
CENTER_L
100
AcDbLine
 10
268.9280486057326
 20
236.6873726898157
 30
0.0
 11
268.9280486057326
 21
251.2873719893105
 31
0.0
  0
LINE
  5
12B0
330
1A
100
AcDbEntity
  8
CENTER_L
100
AcDbLine
 10
273.629519116845
 20
250.0873719893104
 30
0.0
 11
273.629519116845
 21
237.8879112195481
 31
0.0
  0
ELLIPSE
  5
12B1
330
1A
100
AcDbEntity
  8
SEIHIN
100
AcDbEllipse
 10
273.629519116845
 20
243.9873719893104
 30
0.0
 11
0.0
 21
2.099999999999994
 31
0.0
210
0.0
220
0.0
230
-1.0
 40
0.7569260310350522
 41
0.0
 42
6.283185307179586
  0
ELLIPSE
  5
12B2
330
1A
100
AcDbEntity
  8
SEIHIN
100
AcDbEllipse
 10
264.2265780946203
 20
243.9873719893104
 30
0.0
 11
0.0
 21
2.099999999999994
 31
0.0
210
0.0
220
0.0
230
-1.0
 40
0.7569260310350522
 41
0.0
 42
6.283185307179586
  0
ELLIPSE
  5
12B3
330
1A
100
AcDbEntity
  8
SEIHIN
100
AcDbEllipse
 10
268.9280486057326
 20
243.9873719893104
 30
0.0
 11
0.0
 21
3.300000000000011
 31
0.0
210
0.0
220
0.0
230
-1.0
 40
0.6445016911300838
 41
0.0
 42
6.283185307179586
  0
LINE
  5
12B4
330
1A
100
AcDbEntity
  8
SEIHIN
100
AcDbLine
 10
274.7489169842647
 20
249.9873719893104
 30
0.0
 11
261.9890104781361
 21
249.9873719893104
 31
0.0
  0
ELLIPSE
  5
12B5
330
1A
100
AcDbEntity
  8
SEIHIN
100
AcDbEllipse
 10
261.9890104781361
 20
243.9873719893104
 30
0.0
 11
0.0
 21
6.0
 31
0.0
210
0.0
220
0.0
230
-1.0
 40
0.3358192411559362
 41
4.712388980384689
 42
6.283185307179586
  0
ELLIPSE
  5
12B6
330
1A
100
AcDbEntity
  8
SEIHIN
100
AcDbEllipse
 10
263.107179878136
 20
243.9873719893104
 30
0.0
 11
0.0
 21
6.0
 31
0.0
210
0.0
220
0.0
230
-1.0
 40
0.3358192411559362
 41
4.712388980384689
 42
6.283185307179586
  0
ELLIPSE
  5
12B7
330
1A
100
AcDbEntity
  8
SEIHIN
100
AcDbEllipse
 10
274.7489169842647
 20
243.9873719893104
 30
0.0
 11
0.0
 21
6.0
 31
0.0
210
0.0
220
0.0
230
-1.0
 40
0.3358192411559362
 41
6.283185307179586
 42
7.853981633974482
  0
LINE
  5
1395
330
1A
100
AcDbEntity
  8
CENTER_L
100
AcDbLine
 10
44.45327903321038
 20
162.6192742947396
 30
0.0
 11
44.45327903321038
 21
54.91927429473958
 31
0.0
  0
ELLIPSE
  5
139F
330
1A
100
AcDbEntity
  8
SEIHIN
100
AcDbEllipse
 10
69.45327903321038
 20
96.16960426739378
 30
0.0
 11
3.0
 21
0.0000000000000122
 31
0.0
210
0.0
220
0.0
230
1.0
 40
0.9262995559913161
 41
-0.0000000000000042
 42
1.570796326794893
  0
ELLIPSE
  5
13A1
330
1A
100
AcDbEntity
  8
SEIHIN
100
AcDbEllipse
 10
69.45327903321038
 20
95.49796561222672
 30
0.0
 11
2.999999999999995
 21
0.0000000000000075
 31
0.0
210
0.0
220
0.0
230
1.0
 40
0.9262995559913171
 41
0.244109568626067
 42
1.570796326794893
  0
ELLIPSE
  5
13A5
330
1A
100
AcDbEntity
  8
SEIHIN
100
AcDbEllipse
 10
69.45327903321038
 20
69.72237946271359
 30
0.0
 11
-3.0
 21
0.0000000000000122
 31
0.0
210
0.0
220
0.0
230
-1.0
 40
0.9262995559913161
 41
3.141592653589789
 42
4.712388980384686
  0
LINE
  5
13A6
330
1A
100
AcDbEntity
  8
SEIHIN
100
AcDbLine
 10
69.45327903321038
 20
98.27686428020067
 30
0.0
 11
55.45327903321037
 21
98.27686428020067
 31
0.0
  0
LINE
  5
13A7
330
1A
100
AcDbEntity
  8
SEIHIN
100
AcDbLine
 10
69.45327903321038
 20
98.94850293536773
 30
0.0
 11
55.45327903321037
 21
98.94850293536775
 31
0.0
  0
LINE
  5
13AB
330
1A
100
AcDbEntity
  8
SEIHIN
100
AcDbLine
 10
16.45327903321037
 20
69.72237946271359
 30
0.0
 11
16.45327903321037
 21
96.16960426739378
 31
0.0
  0
LINE
  5
13AC
330
1A
100
AcDbEntity
  8
SEIHIN
100
AcDbLine
 10
19.45327903321038
 20
98.94850293536773
 30
0.0
 11
33.45327903321038
 21
98.94850293536775
 31
0.0
  0
LINE
  5
13AD
330
1A
100
AcDbEntity
  8
SEIHIN
100
AcDbLine
 10
19.45327903321038
 20
98.27686428020067
 30
0.0
 11
33.45327903321038
 21
98.27686428020067
 31
0.0
  0
ELLIPSE
  5
13AE
330
1A
100
AcDbEntity
  8
SEIHIN
100
AcDbEllipse
 10
19.45327903321038
 20
96.16960426739378
 30
0.0
 11
-3.0
 21
0.0000000000000122
 31
0.0
210
0.0
220
0.0
230
-1.0
 40
0.9262995559913161
 41
-0.0000000000000042
 42
1.570796326794893
  0
ELLIPSE
  5
13AF
330
1A
100
AcDbEntity
  8
SEIHIN
100
AcDbEllipse
 10
19.45327903321038
 20
95.49796561222672
 30
0.0
 11
-2.999999999999993
 21
0.0000000000000815
 31
0.0
210
0.0
220
0.0
230
-1.0
 40
0.926299555991318
 41
0.2441095686260404
 42
1.570796326794871
  0
ELLIPSE
  5
13B1
330
1A
100
AcDbEntity
  8
SEIHIN
100
AcDbEllipse
 10
19.45327903321038
 20
69.72237946271359
 30
0.0
 11
3.0
 21
0.0000000000000122
 31
0.0
210
0.0
220
0.0
230
1.0
 40
0.9262995559913161
 41
3.141592653589789
 42
4.712388980384686
  0
LINE
  5
13B2
330
1A
100
AcDbEntity
  8
SEIHIN
100
AcDbLine
 10
33.45327903321032
 20
121.6692742947395
 30
0.0
 11
33.45327903321038
 21
68.41927429473959
 31
0.0
  0
LINE
  5
13B6
330
1A
100
AcDbEntity
  8
SEIHIN
100
AcDbLine
 10
69.45327903321038
 20
66.94348079473964
 30
0.0
 11
53.24568153321036
 21
66.94348079473965
 31
0.0
  0
LINE
  5
13B7
330
1A
100
AcDbEntity
  8
SEIHIN
100
AcDbLine
 10
19.45327903321038
 20
66.94348079473964
 30
0.0
 11
35.66087653321039
 21
66.94348079473965
 31
0.0
  0
DIMENSION
  5
13B8
330
1A
100
AcDbEntity
  8
SUNPOU
100
AcDbDimension
  2
*D7
 10
290.2684142014631
 20
74.41569575368801
 30
0.0
 11
284.6680156430173
 21
91.18279247467606
 31
0.0
 70
    33
  3
STANDARD
100
AcDbAlignedDimension
 13
261.0922645110077
 23
98.94850293536777
 33
0.0
 14
276.7638327909199
 24
67.65310497487373
 34
0.0
1001
ACAD
1000
DSTYLE
1002
{
1070
    41
1040
3.0
1070
    42
1040
3.0
1070
    43
1040
7.0
1070
    44
1040
1.5
1070
    73
1070
     0
1070
    74
1070
     0
1070
    77
1070
     3
1070
   140
1040
3.0
1070
   141
1040
3.0
1070
   147
1040
1.0
1070
   172
1070
     1
1070
   173
1070
     1
1070
   176
1070
   256
1070
   177
1070
   256
1070
   178
1070
   256
1070
   271
1070
     0
1070
   272
1070
     0
1070
   341
1005
B2
1070
     6
1000
OPEN
1070
     7
1000
OPEN
1002
}
  0
LINE
  5
13FF
330
1A
100
AcDbEntity
  8
SEIHIN
100
AcDbLine
 10
255.8420971928741
 20
96.31941520292295
 30
0.0
 11
261.0922645110077
 21
98.94850293536771
 31
0.0
  0
DIMENSION
  5
1444
330
1A
100
AcDbEntity
  8
SUNPOU
100
AcDbDimension
  2
*D8
 10
88.08122736453718
 20
210.9873719893104
 30
0.0
 11
85.58122736453716
 21
221.9873719893104
 31
0.0
 70
    32
  3
STANDARD
100
AcDbAlignedDimension
 13
106.6534689312004
 23
232.9873719893104
 33
0.0
 14
106.6534689312004
 24
210.9873719893104
 34
0.0
 50
90.0
100
AcDbRotatedDimension
1001
ACAD
1000
DSTYLE
1002
{
1070
    41
1040
3.0
1070
    42
1040
3.0
1070
    43
1040
7.0
1070
    44
1040
1.5
1070
    73
1070
     0
1070
    74
1070
     0
1070
    77
1070
     3
1070
   140
1040
3.0
1070
   141
1040
3.0
1070
   147
1040
1.0
1070
   172
1070
     1
1070
   173
1070
     1
1070
   176
1070
   256
1070
   177
1070
   256
1070
   178
1070
   256
1070
   271
1070
     0
1070
   272
1070
     0
1070
   341
1005
B2
1070
     6
1000
OPEN
1070
     7
1000
OPEN
1002
}
  0
DIMENSION
  5
1451
330
1A
100
AcDbEntity
  8
SUNPOU
100
AcDbDimension
  2
*D9
 10
295.8762402508127
 20
193.9873719893104
 30
0.0
 11
293.3762402508127
 21
221.9873719893104
 31
0.0
 70
    32
  3
STANDARD
100
AcDbAlignedDimension
 13
274.7489169842647
 23
249.9873719893104
 33
0.0
 14
274.7489169842647
 24
193.9873719893104
 34
0.0
 50
90.0
100
AcDbRotatedDimension
1001
ACAD
1000
DSTYLE
1002
{
1070
    41
1040
3.0
1070
    42
1040
3.0
1070
    43
1040
7.0
1070
    44
1040
1.5
1070
    73
1070
     0
1070
    74
1070
     0
1070
    77
1070
     3
1070
   140
1040
3.0
1070
   141
1040
3.0
1070
   147
1040
1.0
1070
   172
1070
     1
1070
   173
1070
     1
1070
   176
1070
   256
1070
   177
1070
   256
1070
   178
1070
   256
1070
   271
1070
     0
1070
   272
1070
     0
1070
   341
1005
B2
1070
     6
1000
OPEN
1070
     7
1000
OPEN
1002
}
  0
DIMENSION
  5
145E
330
1A
100
AcDbEntity
  8
SUNPOU
100
AcDbDimension
  2
*D10
 10
227.7888487919171
 20
143.5755094462143
 30
0.0
 11
244.4405566514624
 21
146.0755094462143
 31
0.0
 70
    32
  3
STANDARD
100
AcDbAlignedDimension
 13
261.0922645110077
 23
98.94850293536771
 33
0.0
 14
227.7888487919171
 24
122.7567742822902
 34
0.0
100
AcDbRotatedDimension
1001
ACAD
1000
DSTYLE
1002
{
1070
    41
1040
3.0
1070
    42
1040
3.0
1070
    43
1040
7.0
1070
    44
1040
1.5
1070
    73
1070
     0
1070
    74
1070
     0
1070
    77
1070
     3
1070
   140
1040
3.0
1070
   141
1040
3.0
1070
   147
1040
1.0
1070
   172
1070
     1
1070
   173
1070
     1
1070
   176
1070
   256
1070
   177
1070
   256
1070
   178
1070
   256
1070
   271
1070
     0
1070
   272
1070
     0
1070
   341
1005
B2
1070
     6
1000
OPEN
1070
     7
1000
OPEN
1002
}
  0
DIMENSION
  5
146B
330
1A
100
AcDbEntity
  8
SUNPOU
100
AcDbDimension
  2
*D11
 10
106.6534689312004
 20
172.4970291547766
 30
0.0
 11
183.8728667211041
 21
174.9970291547766
 31
0.0
 70
    32
  3
STANDARD
100
AcDbAlignedDimension
 13
261.0922645110077
 23
98.94850293536777
 33
0.0
 14
106.6534689312004
 24
155.6192742947396
 34
0.0
100
AcDbRotatedDimension
1001
ACAD
1000
DSTYLE
1002
{
1070
    41
1040
3.0
1070
    42
1040
3.0
1070
    43
1040
7.0
1070
    44
1040
1.5
1070
    73
1070
     0
1070
    74
1070
     0
1070
    77
1070
     3
1070
   140
1040
3.0
1070
   141
1040
3.0
1070
   147
1040
1.0
1070
   172
1070
     1
1070
   173
1070
     1
1070
   176
1070
   256
1070
   177
1070
   256
1070
   178
1070
   256
1070
   271
1070
     0
1070
   272
1070
     0
1070
   341
1005
B2
1070
     6
1000
OPEN
1070
     7
1000
OPEN
1002
}
  0
DIMENSION
  5
1478
330
1A
100
AcDbEntity
  8
SUNPOU
100
AcDbDimension
  2
*D12
 10
88.08122736453716
 20
67.6531047942245
 30
0.0
 11
85.58122736453714
 21
87.6361895444821
 31
0.0
 70
    32
  3
STANDARD
100
AcDbAlignedDimension
 13
108.8534689312003
 23
107.6192742947396
 33
0.0
 14
276.7638328813823
 24
67.65310479422445
 34
0.0
 50
90.0
100
AcDbRotatedDimension
1001
ACAD
1000
DSTYLE
1002
{
1070
    41
1040
3.0
1070
    42
1040
3.0
1070
    43
1040
7.0
1070
    44
1040
1.5
1070
    73
1070
     0
1070
    74
1070
     0
1070
    77
1070
     3
1070
   140
1040
3.0
1070
   141
1040
3.0
1070
   147
1040
1.0
1070
   172
1070
     1
1070
   173
1070
     1
1070
   176
1070
   256
1070
   177
1070
   256
1070
   178
1070
   256
1070
   271
1070
     0
1070
   272
1070
     0
1070
   341
1005
B2
1070
     6
1000
OPEN
1070
     7
1000
OPEN
1002
}
  0
LEADER
  5
14BF
330
1A
100
AcDbEntity
  8
SUNPOU
100
AcDbLeader
  3
STANDARD
 73
     0
 40
3.0
 41
15.59999999999999
 76
     3
 10
316.3751574533852
 20
120.40418237909
 30
0.0
 10
298.0005776890784
 20
135.2906084767804
 30
0.0
 10
296.0983872859969
 20
135.2906084767804
 30
0.0
340
14C0
213
0.0
223
1.5
233
0.0
1001
ACAD
1000
DSTYLE
1002
{
1070
     6
1000
OPEN
1070
    41
1040
3.0
1070
    42
1040
3.0
1070
    43
1040
7.0
1070
    44
1040
1.5
1070
    73
1070
     0
1070
    74
1070
     0
1070
    77
1070
     0
1070
   140
1040
3.0
1070
   141
1040
3.0
1070
   147
1040
1.0
1070
   172
1070
     1
1070
   173
1070
     1
1070
   176
1070
   256
1070
   177
1070
   256
1070
   178
1070
   256
1070
   271
1070
     0
1070
   272
1070
     0
1070
   341
1005
B2
1070
   343
1005
B2
1070
   344
1005
B2
1002
}
  0
MTEXT
  5
14C0
102
{ACAD_REACTORS
330
14BF
102
}
330
1A
100
AcDbEntity
  8
SUNPOU
100
AcDbMText
 10
295.0983872859969
 20
133.7906084767804
 30
0.0
 40
3.0
 41
0.0
 71
     9
 72
     5
  1
\A1;4-φ4.2
1001
ACAD
1000
MTEXTBEGIN
1070
    73
1070
     1
1070
    44
1040
1.0
1070
    74
1070
     0
1000
MTEXTEND
1000
MTEXTBEGIN
1070
    73
1070
     1
1070
    44
1040
1.0
1070
    74
1070
     0
1000
MTEXTEND
1000
MTEXTBEGIN
1070
    73
1070
     1
1070
    44
1040
1.0
1070
    74
1070
     0
1000
MTEXTEND
1000
MTEXTBEGIN
1070
    73
1070
     1
1070
    44
1040
1.0
1070
    74
1070
     0
1000
MTEXTEND
1000
MTEXTBEGIN
1070
    73
1070
     1
1070
    44
1040
1.0
1070
    74
1070
     0
1000
MTEXTEND
1000
MTEXTBEGIN
1070
    73
1070
     1
1070
    44
1040
1.0
1070
    74
1070
     0
1000
MTEXTEND
1000
MTEXTBEGIN
1070
    73
1070
     1
1070
    44
1040
1.0
1070
    74
1070
     0
1000
MTEXTEND
1000
MTEXTBEGIN
1070
    73
1070
     1
1070
    44
1040
1.0
1070
    74
1070
     0
1000
MTEXTEND
  0
LEADER
  5
14C1
330
1A
100
AcDbEntity
  8
SUNPOU
100
AcDbLeader
  3
STANDARD
 73
     0
 40
3.0
 41
15.59999999999999
 76
     3
 10
365.267434801952
 20
128.6170801399126
 30
0.0
 10
375.6581791203134
 20
124.4478503166946
 30
0.0
 10
377.4140495955644
 20
124.4478503166946
 30
0.0
340
14C2
213
0.0
223
-1.5
233
0.0
1001
ACAD
1000
DSTYLE
1002
{
1070
     6
1000
OPEN
1070
    41
1040
3.0
1070
    42
1040
3.0
1070
    43
1040
7.0
1070
    44
1040
1.5
1070
    73
1070
     0
1070
    74
1070
     0
1070
    77
1070
     0
1070
   140
1040
3.0
1070
   141
1040
3.0
1070
   147
1040
1.0
1070
   172
1070
     1
1070
   173
1070
     1
1070
   176
1070
   256
1070
   177
1070
   256
1070
   178
1070
   256
1070
   271
1070
     0
1070
   272
1070
     0
1070
   341
1005
B2
1070
   343
1005
B2
1070
   344
1005
B2
1002
}
  0
MTEXT
  5
14C2
102
{ACAD_REACTORS
330
14C1
102
}
330
1A
100
AcDbEntity
  8
SUNPOU
100
AcDbMText
 10
378.4140495955643
 20
125.9478503166945
 30
0.0
 40
3.0
 41
0.0
 71
     1
 72
     5
  1
\A1;2-φ6.6
1001
ACAD
1000
MTEXTBEGIN
1070
    73
1070
     1
1070
    44
1040
1.0
1070
    74
1070
     0
1000
MTEXTEND
1000
MTEXTBEGIN
1070
    73
1070
     1
1070
    44
1040
1.0
1070
    74
1070
     0
1000
MTEXTEND
1000
MTEXTBEGIN
1070
    73
1070
     1
1070
    44
1040
1.0
1070
    74
1070
     0
1000
MTEXTEND
1000
MTEXTBEGIN
1070
    73
1070
     1
1070
    44
1040
1.0
1070
    74
1070
     0
1000
MTEXTEND
1000
MTEXTBEGIN
1070
    73
1070
     1
1070
    44
1040
1.0
1070
    74
1070
     0
1000
MTEXTEND
1000
MTEXTBEGIN
1070
    73
1070
     1
1070
    44
1040
1.0
1070
    74
1070
     0
1000
MTEXTEND
1000
MTEXTBEGIN
1070
    73
1070
     1
1070
    44
1040
1.0
1070
    74
1070
     0
1000
MTEXTEND
1000
MTEXTBEGIN
1070
    73
1070
     1
1070
    44
1040
1.0
1070
    74
1070
     0
1000
MTEXTEND
  0
LINE
  5
1566
330
1A
100
AcDbEntity
  8
SEIHIN
100
AcDbLine
 10
340.2480535833272
 20
109.5090094179766
 30
0.0
 11
339.3552633321676
 21
106.8251827530382
 31
0.0
  0
LINE
  5
1567
330
1A
100
AcDbEntity
  8
SEIHIN
100
AcDbLine
 10
339.3552633321676
 20
106.8251827530382
 30
0.0
 11
342.039089997106
 21
105.9323925018786
 31
0.0
  0
LINE
  5
1568
330
1A
100
AcDbEntity
  8
SEIHIN
100
AcDbLine
 10
339.3552633321676
 20
106.8251827530382
 30
0.0
 11
341.1435717902166
 21
107.7207009599276
 31
0.0
  0
LINE
  5
1569
330
1A
100
AcDbEntity
  8
SEIHIN
100
AcDbLine
 10
329.9523221598287
 20
125.6024215625527
 30
0.0
 11
331.7406306178777
 21
126.4979397694421
 31
0.0
  0
LINE
  5
156A
330
1A
100
AcDbEntity
  8
SEIHIN
100
AcDbLine
 10
330.8451124109883
 20
128.2862482274911
 30
0.0
 11
329.9523221598287
 21
125.6024215625527
 31
0.0
  0
LINE
  5
156B
330
1A
100
AcDbEntity
  8
SEIHIN
100
AcDbLine
 10
329.9523221598287
 20
125.6024215625527
 30
0.0
 11
332.6361488247671
 21
124.7096313113931
 31
0.0
  0
LINE
  5
156C
330
1A
100
AcDbEntity
  8
SEIHIN
100
AcDbLine
 10
346.047098282269
 20
133.6620854245572
 30
0.0
 11
345.1543080311095
 21
130.9782587596188
 31
0.0
  0
LINE
  5
156D
330
1A
100
AcDbEntity
  8
SEIHIN
100
AcDbLine
 10
343.3632716173306
 20
134.5548756757167
 30
0.0
 11
346.047098282269
 21
133.6620854245572
 31
0.0
  0
LINE
  5
156E
330
1A
100
AcDbEntity
  8
SEIHIN
100
AcDbLine
 10
346.047098282269
 20
133.6620854245572
 30
0.0
 11
344.25878982422
 21
132.7665672176678
 31
0.0
  0
LINE
  5
156F
330
1A
100
AcDbEntity
  8
SEIHIN
100
AcDbLine
 10
355.4500394546082
 20
114.8848466150429
 30
0.0
 11
353.6617309965591
 21
113.9893284081534
 31
0.0
  0
LINE
  5
1570
330
1A
100
AcDbEntity
  8
SEIHIN
100
AcDbLine
 10
352.7662127896697
 20
115.7776368662025
 30
0.0
 11
355.4500394546082
 21
114.8848466150429
 31
0.0
  0
LINE
  5
1571
330
1A
100
AcDbEntity
  8
SEIHIN
100
AcDbLine
 10
355.4500394546082
 20
114.8848466150429
 30
0.0
 11
354.5572492034486
 21
112.2010199501045
 31
0.0
  0
LINE
  5
1575
330
1A
100
AcDbEntity
  8
SEIHIN
100
AcDbLine
 10
270.945010484419
 20
75.92300864574763
 30
0.0
 11
269.6058250862348
 21
71.89726863760123
 31
0.0
  0
LINE
  5
1576
330
1A
100
AcDbEntity
  8
SEIHIN
100
AcDbLine
 10
269.6058250862348
 20
71.89726863760123
 30
0.0
 11
273.6315650621975
 21
70.55808325012306
 31
0.0
  0
LINE
  5
1577
330
1A
100
AcDbEntity
  8
SEIHIN
100
AcDbLine
 10
269.6058250862348
 20
71.8972686376012
 30
0.0
 11
272.2882877733082
 21
73.24054594793534
 31
0.0
  0
LINE
  5
1578
330
1A
100
AcDbEntity
  8
SEIHIN
100
AcDbLine
 10
260.2028840640101
 20
90.67450752228721
 30
0.0
 11
262.8853467510836
 21
92.01778483262135
 31
0.0
  0
LINE
  5
1579
330
1A
100
AcDbEntity
  8
SEIHIN
100
AcDbLine
 10
260.2028840640101
 20
90.67450752228722
 30
0.0
 11
264.2286240399728
 21
89.33532213480907
 31
0.0
  0
LINE
  5
157A
330
1A
100
AcDbEntity
  8
SEIHIN
100
AcDbLine
 10
261.5420694621943
 20
94.70024753043363
 30
0.0
 11
260.2028840640101
 21
90.67450752228722
 31
0.0
  0
LINE
  5
1580
330
1A
100
AcDbEntity
  8
SEIHIN
100
AcDbLine
 10
263.2265780946202
 20
214.9873719893104
 30
0.0
 11
264.2265780946202
 21
212.9873719893104
 31
0.0
  0
LINE
  5
1581
330
1A
100
AcDbEntity
  8
SEIHIN
100
AcDbLine
 10
264.2265780946202
 20
212.9873719893104
 30
0.0
 11
265.2265780946202
 21
214.9873719893104
 31
0.0
  0
LINE
  5
1582
330
1A
100
AcDbEntity
  8
SEIHIN
100
AcDbLine
 10
273.629519116845
 20
212.9873719893104
 30
0.0
 11
274.629519116845
 21
214.9873719893104
 31
0.0
  0
LINE
  5
1583
330
1A
100
AcDbEntity
  8
SEIHIN
100
AcDbLine
 10
272.629519116845
 20
214.9873719893104
 30
0.0
 11
273.629519116845
 21
212.9873719893104
 31
0.0
  0
LINE
  5
1584
330
1A
100
AcDbEntity
  8
SEIHIN
100
AcDbLine
 10
264.2265780946202
 20
230.9873719893104
 30
0.0
 11
265.2265780946202
 21
228.9873719893104
 31
0.0
  0
LINE
  5
1585
330
1A
100
AcDbEntity
  8
SEIHIN
100
AcDbLine
 10
263.2265780946202
 20
228.9873719893104
 30
0.0
 11
264.2265780946202
 21
230.9873719893104
 31
0.0
  0
LINE
  5
1586
330
1A
100
AcDbEntity
  8
SEIHIN
100
AcDbLine
 10
272.629519116845
 20
228.9873719893104
 30
0.0
 11
273.629519116845
 21
230.9873719893104
 31
0.0
  0
LINE
  5
1587
330
1A
100
AcDbEntity
  8
SEIHIN
100
AcDbLine
 10
273.629519116845
 20
230.9873719893104
 30
0.0
 11
274.629519116845
 21
228.9873719893104
 31
0.0
  0
LINE
  5
1590
330
1A
100
AcDbEntity
  8
SEIHIN
100
AcDbLine
 10
55.45327903321037
 20
91.73784300455563
 30
0.0
 11
56.24568153321035
 21
90.67450752228721
 31
0.0
  0
LINE
  5
1591
330
1A
100
AcDbEntity
  8
SEIHIN
100
AcDbLine
 10
56.24568153321035
 20
90.67450752228721
 30
0.0
 11
55.45327903321037
 21
90.32078290595348
 31
0.0
  0
LINE
  5
1593
330
1A
100
AcDbEntity
  8
SEIHIN
100
AcDbLine
 10
56.24568153321035
 20
71.89726863760121
 30
0.0
 11
55.45327903321037
 21
71.54354402126749
 31
0.0
  0
LINE
  5
1594
330
1A
100
AcDbEntity
  8
SEIHIN
100
AcDbLine
 10
55.45327903321037
 20
72.96060411986957
 30
0.0
 11
56.24568153321035
 21
71.89726863760121
 31
0.0
  0
LINE
  5
1595
330
1A
100
AcDbEntity
  8
SEIHIN
100
AcDbLine
 10
33.45327903321038
 20
72.96060411986957
 30
0.0
 11
32.6608765332104
 21
71.89726863760121
 31
0.0
  0
LINE
  5
1596
330
1A
100
AcDbEntity
  8
SEIHIN
100
AcDbLine
 10
32.6608765332104
 20
71.89726863760121
 30
0.0
 11
33.45327903321038
 21
71.54354402126749
 31
0.0
  0
LINE
  5
1597
330
1A
100
AcDbEntity
  8
SEIHIN
100
AcDbLine
 10
33.45327903321038
 20
91.73784300455563
 30
0.0
 11
32.6608765332104
 21
90.67450752228721
 31
0.0
  0
LINE
  5
1598
330
1A
100
AcDbEntity
  8
SEIHIN
100
AcDbLine
 10
32.6608765332104
 20
90.67450752228721
 30
0.0
 11
33.45327903321038
 21
90.32078290595348
 31
0.0
  0
ELLIPSE
  5
1633
330
1A
100
AcDbEntity
  8
SEIHIN
100
AcDbEllipse
 10
272.511349716845
 20
199.9873719893104
 30
0.0
 11
0.0
 21
-2.099999999999994
 31
0.0
210
0.0
220
0.0
230
1.0
 40
0.7569260310350522
 41
0.3594146254781967
 42
2.782178028111596
  0
ELLIPSE
  5
1634
330
1A
100
AcDbEntity
  8
SEIHIN
100
AcDbEllipse
 10
267.8098792057327
 20
199.9873719893104
 30
0.0
 11
0.0
 21
-3.300000000000011
 31
0.0
210
0.0
220
0.0
230
1.0
 40
0.6445016911300838
 41
0.2659947262474222
 42
2.875597927383766
  0
ELLIPSE
  5
1635
330
1A
100
AcDbEntity
  8
SEIHIN
100
AcDbEllipse
 10
263.1084086946203
 20
199.9873719893104
 30
0.0
 11
0.0
 21
-2.099999999999994
 31
0.0
210
0.0
220
0.0
230
1.0
 40
0.7569260310350522
 41
0.3594146254781967
 42
2.782178028111596
  0
ELLIPSE
  5
1636
330
1A
100
AcDbEntity
  8
SEIHIN
100
AcDbEllipse
 10
272.511349716845
 20
243.9873719893104
 30
0.0
 11
0.0
 21
2.099999999999994
 31
0.0
210
0.0
220
0.0
230
-1.0
 40
0.7569260310350522
 41
0.3594146254781967
 42
2.782178028111596
  0
ELLIPSE
  5
1637
330
1A
100
AcDbEntity
  8
SEIHIN
100
AcDbEllipse
 10
267.8098792057327
 20
243.9873719893104
 30
0.0
 11
0.0
 21
3.300000000000011
 31
0.0
210
0.0
220
0.0
230
-1.0
 40
0.6445016911300838
 41
0.2659947262474222
 42
2.875597927383766
  0
ELLIPSE
  5
1638
330
1A
100
AcDbEntity
  8
SEIHIN
100
AcDbEllipse
 10
263.1084086946203
 20
243.9873719893104
 30
0.0
 11
0.0
 21
2.099999999999994
 31
0.0
210
0.0
220
0.0
230
-1.0
 40
0.7569260310350522
 41
0.3594146254781967
 42
2.782178028111596
  0
ELLIPSE
  5
1639
330
1A
100
AcDbEntity
  8
SEIHIN
100
AcDbEllipse
 10
66.45327903321038
 20
92.0173753947396
 30
0.0
 11
-2.050000000000011
 21
0.0
 31
0.0
210
0.0
220
0.0
230
1.0
 40
0.8941542259962524
 41
0.0
 42
6.283185307179586
  0
ELLIPSE
  5
163A
330
1A
100
AcDbEntity
  8
SEIHIN
100
AcDbEllipse
 10
66.45327903321038
 20
82.62875589473956
 30
0.0
 11
-3.25
 21
0.0
 31
0.0
210
0.0
220
0.0
230
1.0
 40
0.8941542379996795
 41
0.0
 42
6.283185307179586
  0
ELLIPSE
  5
163B
330
1A
100
AcDbEntity
  8
SEIHIN
100
AcDbEllipse
 10
66.4532790304424
 20
73.24013642004993
 30
0.0
 11
-2.050000002767987
 21
-0.0000000246896832
 31
0.0
210
0.0
220
0.0
230
1.0
 40
0.8941542344180662
 41
0.0
 42
6.283185307179586
  0
ELLIPSE
  5
163C
330
1A
100
AcDbEntity
  8
SEIHIN
100
AcDbEllipse
 10
66.4532790304424
 20
73.91218426067805
 30
0.0
 11
-2.050000002767987
 21
-0.0000000246896832
 31
0.0
210
0.0
220
0.0
230
1.0
 40
0.8941542344180662
 41
0.1843600607503132
 42
2.957232571301584
  0
ELLIPSE
  5
163D
330
1A
100
AcDbEntity
  8
SEIHIN
100
AcDbEllipse
 10
66.45327903321038
 20
83.30080373536768
 30
0.0
 11
-3.25
 21
0.0
 31
0.0
210
0.0
220
0.0
230
1.0
 40
0.8941542379996795
 41
0.1158902675627972
 42
3.025702386026996
  0
ELLIPSE
  5
163E
330
1A
100
AcDbEntity
  8
SEIHIN
100
AcDbEllipse
 10
66.45327903321038
 20
92.68942323536771
 30
0.0
 11
-2.050000000000011
 21
0.0
 31
0.0
210
0.0
220
0.0
230
1.0
 40
0.8941542259962524
 41
0.1843600735274221
 42
2.957232580062346
  0
LINE
  5
163F
330
1A
100
AcDbEntity
  8
CENTER_L
100
AcDbLine
 10
66.45327903321038
 20
96.85039352829539
 30
0.0
 11
66.45327903321038
 21
68.40719439681873
 31
0.0
  0
LINE
  5
1640
330
1A
100
AcDbEntity
  8
CENTER_L
100
AcDbLine
 10
71.5026925683459
 20
92.0173753947396
 30
0.0
 11
61.40327903321036
 21
92.0173753947396
 31
0.0
  0
LINE
  5
1643
330
1A
100
AcDbEntity
  8
CENTER_L
100
AcDbLine
 10
72.70327698990133
 20
82.62875589473956
 30
0.0
 11
60.20327903321038
 21
82.62875589473956
 31
0.0
  0
LINE
  5
1644
330
1A
100
AcDbEntity
  8
CENTER_L
100
AcDbLine
 10
71.50269256557795
 20
73.24013642004993
 30
0.0
 11
61.40327903044237
 21
73.24013642004993
 31
0.0
  0
ELLIPSE
  5
1646
330
1A
100
AcDbEntity
  8
SEIHIN
100
AcDbEllipse
 10
22.45327903597835
 20
73.24013642004993
 30
0.0
 11
2.050000002767987
 21
-0.0000000246896832
 31
0.0
210
0.0
220
0.0
230
-1.0
 40
0.8941542344180662
 41
0.0
 42
6.283185307179586
  0
ELLIPSE
  5
1647
330
1A
100
AcDbEntity
  8
SEIHIN
100
AcDbEllipse
 10
22.45327903321038
 20
82.62875589473956
 30
0.0
 11
3.25
 21
0.0
 31
0.0
210
0.0
220
0.0
230
-1.0
 40
0.8941542379996795
 41
0.0
 42
6.283185307179586
  0
ELLIPSE
  5
1648
330
1A
100
AcDbEntity
  8
SEIHIN
100
AcDbEllipse
 10
22.45327903321038
 20
83.30080373536768
 30
0.0
 11
3.25
 21
0.0
 31
0.0
210
0.0
220
0.0
230
-1.0
 40
0.8941542379996795
 41
0.1158902675627972
 42
3.025702386026996
  0
ELLIPSE
  5
1649
330
1A
100
AcDbEntity
  8
SEIHIN
100
AcDbEllipse
 10
22.45327903597835
 20
73.91218426067805
 30
0.0
 11
2.050000002767987
 21
-0.0000000246896832
 31
0.0
210
0.0
220
0.0
230
-1.0
 40
0.8941542344180662
 41
0.1843600607503132
 42
2.957232571301584
  0
ELLIPSE
  5
164A
330
1A
100
AcDbEntity
  8
SEIHIN
100
AcDbEllipse
 10
22.45327903321038
 20
92.68942323536771
 30
0.0
 11
2.050000000000011
 21
0.0
 31
0.0
210
0.0
220
0.0
230
-1.0
 40
0.8941542259962524
 41
0.1843600735274221
 42
2.957232580062346
  0
ELLIPSE
  5
164B
330
1A
100
AcDbEntity
  8
SEIHIN
100
AcDbEllipse
 10
22.45327903321038
 20
92.0173753947396
 30
0.0
 11
2.050000000000011
 21
0.0
 31
0.0
210
0.0
220
0.0
230
-1.0
 40
0.8941542259962524
 41
0.0
 42
6.283185307179586
  0
LINE
  5
164C
330
1A
100
AcDbEntity
  8
CENTER_L
100
AcDbLine
 10
22.45327903321038
 20
96.85039352829539
 30
0.0
 11
22.45327903321038
 21
68.40719439681873
 31
0.0
  0
LINE
  5
164D
330
1A
100
AcDbEntity
  8
CENTER_L
100
AcDbLine
 10
17.40386550084281
 20
73.24013642004993
 30
0.0
 11
27.50327903597838
 21
73.24013642004993
 31
0.0
  0
LINE
  5
164E
330
1A
100
AcDbEntity
  8
CENTER_L
100
AcDbLine
 10
16.20328107651943
 20
82.62875589473956
 30
0.0
 11
28.70327903321038
 21
82.62875589473956
 31
0.0
  0
LINE
  5
164F
330
1A
100
AcDbEntity
  8
CENTER_L
100
AcDbLine
 10
17.40386549807487
 20
92.0173753947396
 30
0.0
 11
27.50327903321039
 21
92.0173753947396
 31
0.0
  0
LINE
  5
1853
330
1A
100
AcDbEntity
  8
ZUWAKU
100
AcDbLine
 10
104.3233003079923
 20
7.599999732511943
 30
0.0
 11
223.712181648454
 21
7.599999732511939
 31
0.0
  0
LINE
  5
1854
330
1A
100
AcDbEntity
  8
ZUWAKU
100
AcDbLine
 10
104.3233003079923
 20
7.79999973251194
 30
0.0
 11
223.712181648454
 21
7.799999732511944
 31
0.0
  0
LINE
  5
1855
330
1A
100
AcDbEntity
  8
ZUWAKU
100
AcDbLine
 10
104.3233003079923
 20
7.69999973251194
 30
0.0
 11
223.712181648454
 21
7.69999973251194
 31
0.0
  0
LINE
  5
1856
330
1A
100
AcDbEntity
  8
ZUWAKU
100
AcDbLine
 10
-0.0000003370416835
 20
15.39999973251193
 30
0.0
 11
398.6999996629582
 21
15.39999973251193
 31
0.0
  0
LINE
  5
1857
330
1A
100
AcDbEntity
  8
ZUWAKU
100
AcDbLine
 10
-0.0000003370416835
 20
15.29999973251192
 30
0.0
 11
398.6999996629582
 21
15.29999973251192
 31
0.0
  0
LINE
  5
1858
330
1A
100
AcDbEntity
  8
ZUWAKU
100
AcDbLine
 10
-0.0000003370416835
 20
15.19999973251192
 30
0.0
 11
398.6999996629582
 21
15.19999973251192
 31
0.0
  0
LINE
  5
1859
330
1A
100
AcDbEntity
  8
ZUWAKU
100
AcDbLine
 10
-0.0000003370416835
 20
15.09999973251192
 30
0.0
 11
398.6999996629582
 21
15.09999973251192
 31
0.0
  0
LINE
  5
185A
330
1A
100
AcDbEntity
  8
ZUWAKU
100
AcDbLine
 10
-0.0000003370416835
 20
14.99999973251192
 30
0.0
 11
398.6999996629582
 21
14.99999973251192
 31
0.0
  0
LWPOLYLINE
  5
185B
330
1A
100
AcDbEntity
  8
ZUWAKU
100
AcDbPolyline
 90
        4
 70
     1
 43
0.0
 10
0.0999996629582825
 20
275.6999997325119
 10
0.0999996629582825
 20
0.0999997325119466
 10
398.6999996629582
 20
0.0999997325119582
 10
398.6999996629583
 20
275.6999997325119
  0
LWPOLYLINE
  5
185C
330
1A
100
AcDbEntity
  8
ZUWAKU
100
AcDbPolyline
 90
        4
 70
     1
 43
0.0
 10
0.2999996629582711
 20
275.499999732512
 10
0.2999996629582711
 20
0.2999997325119352
 10
398.4999996629584
 20
0.2999997325119583
 10
398.4999996629582
 20
275.499999732512
  0
LWPOLYLINE
  5
185D
330
1A
100
AcDbEntity
  8
ZUWAKU
100
AcDbPolyline
 90
        4
 70
     1
 43
0.0
 10
-0.0000003370416835
 20
275.7999997325119
 10
-0.0000003370416835
 20
-0.0000002674880761
 10
398.7999996629584
 20
-0.0000002674880424
 10
398.7999996629584
 20
275.799999732512
  0
LWPOLYLINE
  5
185E
330
1A
100
AcDbEntity
  8
ZUWAKU
100
AcDbPolyline
 90
        4
 70
     1
 43
0.0
 10
0.1999996629583052
 20
275.5999997325119
 10
0.1999996629583052
 20
0.1999997325119693
 10
398.5999996629583
 20
0.1999997325119578
 10
398.5999996629583
 20
275.5999997325119
  0
LWPOLYLINE
  5
185F
330
1A
100
AcDbEntity
  8
ZUWAKU
100
AcDbPolyline
 90
        4
 70
     1
 43
0.0
 10
0.3999996629582938
 20
275.3999997325119
 10
0.3999996629582938
 20
0.399999732511958
 10
398.3999996629583
 20
0.399999732511958
 10
398.3999996629583
 20
275.3999997325119
  0
TEXT
  5
1860
330
1A
100
AcDbEntity
  8
MOJI
100
AcDbText
 10
46.47889445704288
 20
6.370588797649304
 30
0.0
 40
3.0
  1
新・丸トップＲＶ１０５
 41
0.9
  7
ｽﾀｲﾙ1
100
AcDbText
  0
HATCH
  5
1861
330
1A
100
AcDbEntity
  8
ZUWAKU
100
AcDbHatch
 10
0.0
 20
0.0
 30
0.0
210
0.0
220
0.0
230
1.0
  2
ANSI37
 70
     0
 71
     0
 91
        8
 92
        7
 72
     1
 73
     1
 93
       24
 10
7.251130993518245
 20
8.822423973003715
 42
-0.1989123673796348
 10
7.046105740348878
 20
9.31739871983424
 42
0.0
 10
7.046105740348878
 20
9.962499732511929
 42
-0.4142135623730912
 10
7.308605740348866
 20
10.22499973251192
 42
0.0
 10
8.796105740348821
 20
10.22499973251192
 42
0.4142135623731546
 10
9.058605740348866
 20
10.48749973251192
 42
0.0
 10
9.058605740348866
 20
11.36249973251192
 42
0.4142135623731586
 10
8.796105740348821
 20
11.62499973251192
 42
0.0
 10
7.046105740348878
 20
11.62499973251192
 42
0.4142135623730928
 10
5.6461057403489
 20
10.22499973251193
 42
0.0
 10
5.6461057403489
 20
9.317398719834304
 42
0.1989123673796619
 10
6.261181499857116
 20
7.832474479342501
 42
0.0
 10
7.716080487179453
 20
6.377575492020172
 42
-0.1989123673796613
 10
7.921105740348878
 20
5.882600745189579
 42
0.0
 10
7.921105740348878
 20
5.237499732511921
 42
-0.4142135623730911
 10
7.658605740348889
 20
4.974999732511925
 42
0.0
 10
6.171105740348934
 20
4.974999732511925
 42
0.4142135623731526
 10
5.908605740348889
 20
4.712499732511931
 42
0.0
 10
5.908605740348889
 20
3.83749973251192
 42
0.4142135623731526
 10
6.171105740348934
 20
3.574999732511926
 42
0.0
 10
7.921105740348878
 20
3.574999732511926
 42
0.4142135623731044
 10
9.321105740348912
 20
4.974999732511914
 42
0.0
 10
9.321105740348912
 20
5.882600745189551
 42
0.1989123673796604
 10
8.706029980840639
 20
7.36752498568132
 42
0.0
 97
        0
 92
        7
 72
     1
 73
     1
 93
       16
 10
11.7711057403489
 20
9.524999732511929
 42
-0.4142135623730935
 10
12.47110574034889
 20
10.22499973251192
 42
0.0
 10
13.43360574034886
 20
10.22499973251192
 42
0.4142135623731546
 10
13.69610574034891
 20
10.48749973251192
 42
0.0
 10
13.69610574034891
 20
11.36249973251192
 42
0.4142135623730951
 10
13.43360574034892
 20
11.62499973251192
 42
0.0
 10
12.47110574034883
 20
11.6249997325119
 42
0.4142135623730892
 10
10.37110574034886
 20
9.524999732511894
 42
0.0
 10
10.37110574034886
 20
5.674999732511938
 42
0.4142135623730969
 10
12.47110574034889
 20
3.574999732511926
 42
0.0
 10
13.43360574034886
 20
3.574999732511926
 42
0.4142135623731526
 10
13.69610574034891
 20
3.83749973251192
 42
0.0
 10
13.69610574034891
 20
4.712499732511931
 42
0.4142135623730891
 10
13.43360574034892
 20
4.974999732511925
 42
0.0
 10
12.47110574034889
 20
4.974999732511925
 42
-0.4142135623730928
 10
11.7711057403489
 20
5.674999732511919
 42
0.0
 97
        0
 92
        7
 72
     1
 73
     1
 93
        2
 10
12.12110574034886
 20
7.599999732511925
 42
1.0
 10
13.87110574034886
 20
7.599999732511925
 42
1.0
 97
        0
 92
        7
 72
     1
 73
     1
 93
       26
 10
18.65742898143787
 20
9.602523329293639
 42
0.0
 10
19.18824879800678
 20
11.28345274842843
 42
0.5069206636600134
 10
18.9379333484091
 20
11.62499973251192
 42
0.0
 10
18.08848865860449
 20
11.62499973251192
 42
0.3272098845218764
 10
17.83817320900681
 20
11.44154671659541
 42
0.0
 10
16.90403827169092
 20
8.483452748428465
 42
-0.3272098845219541
 10
16.65372282209318
 20
8.299999732511924
 42
0.0
 10
16.58360574034895
 20
8.299999732511924
 42
-0.4142135623731526
 10
16.32110574034891
 20
8.562499732511918
 42
0.0
 10
16.32110574034891
 20
11.36249973251192
 42
0.4142135623730951
 10
16.05860574034892
 20
11.62499973251192
 42
0.0
 10
15.18360574034886
 20
11.62499973251192
 42
0.4142135623730871
 10
14.92110574034887
 20
11.36249973251193
 42
0.0
 10
14.92110574034887
 20
3.83749973251192
 42
0.4142135623730891
 10
15.18360574034886
 20
3.574999732511926
 42
0.0
 10
16.05860574034886
 20
3.574999732511926
 42
0.4142135623731526
 10
16.32110574034891
 20
3.83749973251192
 42
0.0
 10
16.32110574034891
 20
6.637499732511932
 42
-0.4142135623731526
 10
16.58360574034895
 20
6.899999732511925
 42
0.0
 10
16.65372282209324
 20
6.899999732511925
 42
-0.3272098845218915
 10
16.90403827169092
 20
6.716546716595388
 42
0.0
 10
17.83817320900681
 20
3.758452748428462
 42
0.3272098845218902
 10
18.08848865860449
 20
3.574999732511926
 42
0.0
 10
18.9379333484091
 20
3.574999732511926
 42
0.5069206636600335
 10
19.18824879800678
 20
3.91654671659543
 42
0.0
 10
18.02505310876995
 20
7.599999732511994
 42
0.0
 97
        0
 92
        7
 72
     1
 73
     1
 93
        8
 10
21.74610574034886
 20
11.36249973251193
 42
0.4142135623731546
 10
21.48360574034882
 20
11.62499973251192
 42
0.0
 10
20.60860574034893
 20
11.62499973251192
 42
0.4142135623731507
 10
20.34610574034889
 20
11.36249973251193
 42
0.0
 10
20.34610574034889
 20
3.83749973251192
 42
0.4142135623731526
 10
20.60860574034893
 20
3.574999732511926
 42
0.0
 10
21.48360574034882
 20
3.574999732511926
 42
0.4142135623731526
 10
21.74610574034886
 20
3.83749973251192
 42
0.0
 97
        0
 92
        7
 72
     1
 73
     1
 93
       24
 10
24.19610574034891
 20
9.962499732511929
 42
-0.4142135623731546
 10
24.45860574034895
 20
10.22499973251192
 42
0.0
 10
25.94610574034891
 20
10.22499973251192
 42
0.4142135623730911
 10
26.2086057403489
 20
10.48749973251192
 42
0.0
 10
26.2086057403489
 20
11.36249973251192
 42
0.4142135623730952
 10
25.94610574034891
 20
11.62499973251192
 42
0.0
 10
24.19610574034891
 20
11.62499973251192
 42
0.4142135623731048
 10
22.79610574034887
 20
10.22499973251193
 42
0.0
 10
22.79610574034887
 20
9.317398719834304
 42
0.1989123673796613
 10
23.41118149985715
 20
7.832474479342529
 42
0.0
 10
24.86608048717949
 20
6.377575492020195
 42
-0.1989123673796402
 10
25.07110574034891
 20
5.882600745189659
 42
0.0
 10
25.07110574034891
 20
5.237499732511921
 42
-0.4142135623730911
 10
24.80860574034892
 20
4.974999732511925
 42
0.0
 10
23.32110574034891
 20
4.974999732511925
 42
0.4142135623731526
 10
23.05860574034886
 20
4.712499732511931
 42
0.0
 10
23.05860574034886
 20
3.83749973251192
 42
0.4142135623730891
 10
23.32110574034885
 20
3.574999732511926
 42
0.0
 10
25.07110574034891
 20
3.574999732511926
 42
0.4142135623730925
 10
26.47110574034889
 20
4.974999732511914
 42
0.0
 10
26.47110574034889
 20
5.882600745189551
 42
0.1989123673796675
 10
25.85602998084061
 20
7.367524985681377
 42
0.0
 10
24.40113099351833
 20
8.822423973003635
 42
-0.1989123673796652
 10
24.19610574034891
 20
9.317398719834219
 42
0.0
 97
        0
 92
        7
 72
     1
 73
     1
 93
       16
 10
28.92110574034887
 20
11.36249973251192
 42
0.414213562373103
 10
28.65860574034888
 20
11.62499973251192
 42
0.0
 10
27.78360574034889
 20
11.62499973251192
 42
0.4142135623730871
 10
27.5211057403489
 20
11.36249973251193
 42
0.0
 10
27.5211057403489
 20
4.974999732511914
 42
0.4142135623730926
 10
28.92110574034887
 20
3.574999732511926
 42
0.0
 10
30.67110574034888
 20
3.574999732511926
 42
0.4142135623731044
 10
32.07110574034891
 20
4.974999732511914
 42
0.0
 10
32.07110574034891
 20
11.36249973251192
 42
0.4142135623730951
 10
31.80860574034892
 20
11.62499973251192
 42
0.0
 10
30.93360574034886
 20
11.62499973251192
 42
0.4142135623730871
 10
30.67110574034888
 20
11.36249973251193
 42
0.0
 10
30.67110574034888
 20
5.499999732511913
 42
-0.414213562373088
 10
30.1461057403489
 20
4.974999732511925
 42
0.0
 10
29.44610574034891
 20
4.974999732511925
 42
-0.4142135623731197
 10
28.92110574034887
 20
5.499999732511913
 42
0.0
 97
        0
 92
        7
 72
     1
 73
     1
 93
        8
 10
34.5211057403489
 20
11.36249973251193
 42
0.4142135623730871
 10
34.25860574034891
 20
11.62499973251192
 42
0.0
 10
33.38360574034891
 20
11.62499973251192
 42
0.4142135623731507
 10
33.12110574034886
 20
11.36249973251193
 42
0.0
 10
33.12110574034886
 20
3.83749973251192
 42
0.4142135623730891
 10
33.38360574034885
 20
3.574999732511926
 42
0.0
 10
34.25860574034891
 20
3.574999732511926
 42
0.4142135623730891
 10
34.5211057403489
 20
3.83749973251192
 42
0.0
 97
        0
 75
     0
 76
     1
 52
0.0
 41
0.1
 77
     0
 78
     2
 53
45.0
 43
-450.4711525043811
 44
-6.600000267488042
 45
-0.2245064030267288
 46
0.2245064030267288
 79
     0
 53
135.0
 43
-450.4711525043811
 44
-6.600000267488042
 45
-0.2245064030267288
 46
-0.2245064030267288
 79
     0
 47
0.057451373970553
 98
        8
 10
8.03992714446997
 20
7.583586555454701
 10
11.2022571661779
 20
9.422030823737429
 10
12.58218360578814
 20
7.755940555547283
 10
15.45702965377688
 20
8.100648555732675
 10
20.91923567243668
 20
8.330454689503483
 10
23.44910011052309
 20
9.709287890715529
 10
28.27884264915849
 20
9.364578690059431
 10
33.91353947276968
 20
9.594384823830239
  0
LINE
  5
1862
330
1A
100
AcDbEntity
  8
ZUWAKU
100
AcDbLine
 10
12.47110574034889
 20
11.6249997325119
 30
0.0
 11
13.43360574034886
 21
11.62499973251192
 31
0.0
  0
LINE
  5
1863
330
1A
100
AcDbEntity
  8
ZUWAKU
100
AcDbLine
 10
13.43360574034886
 20
10.22499973251192
 30
0.0
 11
12.47110574034889
 21
10.22499973251192
 31
0.0
  0
LINE
  5
1864
330
1A
100
AcDbEntity
  8
ZUWAKU
100
AcDbLine
 10
12.47110574034889
 20
4.974999732511925
 30
0.0
 11
13.43360574034886
 21
4.974999732511925
 31
0.0
  0
LINE
  5
1865
330
1A
100
AcDbEntity
  8
ZUWAKU
100
AcDbLine
 10
13.43360574034886
 20
3.574999732511926
 30
0.0
 11
12.47110574034889
 21
3.574999732511926
 31
0.0
  0
CIRCLE
  5
1866
330
1A
100
AcDbEntity
  8
ZUWAKU
100
AcDbCircle
 10
12.99610574034886
 20
7.599999732511925
 30
0.0
 40
0.875
  0
ARC
  5
1867
330
1A
100
AcDbEntity
  8
ZUWAKU
100
AcDbCircle
 10
7.746105740348866
 20
9.317398719834276
 30
0.0
 40
0.7
100
AcDbArc
 50
180.0000000000016
 51
224.9999999999988
  0
LINE
  5
1868
330
1A
100
AcDbEntity
  8
ZUWAKU
100
AcDbLine
 10
11.7711057403489
 20
9.524999732511925
 30
0.0
 11
11.7711057403489
 21
5.674999732511928
 31
0.0
  0
LINE
  5
1869
330
1A
100
AcDbEntity
  8
ZUWAKU
100
AcDbLine
 10
10.37110574034886
 20
5.674999732511928
 30
0.0
 11
10.37110574034886
 21
9.524999732511904
 31
0.0
  0
ARC
  5
186A
330
1A
100
AcDbEntity
  8
ZUWAKU
100
AcDbCircle
 10
7.746105740348866
 20
9.317398719834276
 30
0.0
 40
2.099999999999999
100
AcDbArc
 50
180.0
 51
225.0
  0
ARC
  5
186B
330
1A
100
AcDbEntity
  8
ZUWAKU
100
AcDbCircle
 10
7.921105740348878
 20
4.974999732511925
 30
0.0
 40
1.399999999999999
100
AcDbArc
 50
270.0
 51
0.0
  0
ARC
  5
186C
330
1A
100
AcDbEntity
  8
ZUWAKU
100
AcDbCircle
 10
12.47110574034889
 20
5.674999732511928
 30
0.0
 40
2.099999999999999
100
AcDbArc
 50
180.0
 51
270.0
  0
ARC
  5
186D
330
1A
100
AcDbEntity
  8
ZUWAKU
100
AcDbCircle
 10
7.221105740348889
 20
5.882600745189577
 30
0.0
 40
2.099999999999999
100
AcDbArc
 50
0.0
 51
45.0
  0
LINE
  5
186E
330
1A
100
AcDbEntity
  8
ZUWAKU
100
AcDbLine
 10
8.706029980840639
 20
7.367524985681338
 30
0.0
 11
7.251130993518302
 21
8.822423973003676
 31
0.0
  0
LINE
  5
186F
330
1A
100
AcDbEntity
  8
ZUWAKU
100
AcDbLine
 10
7.921105740348878
 20
5.237499732511928
 30
0.0
 11
7.921105740348878
 21
5.882600745189598
 31
0.0
  0
ARC
  5
1870
330
1A
100
AcDbEntity
  8
ZUWAKU
100
AcDbCircle
 10
7.658605740348889
 20
5.237499732511928
 30
0.0
 40
0.2625
100
AcDbArc
 50
270.0
 51
0.0
  0
ARC
  5
1871
330
1A
100
AcDbEntity
  8
ZUWAKU
100
AcDbCircle
 10
7.221105740348889
 20
5.882600745189598
 30
0.0
 40
0.7
100
AcDbArc
 50
0.0
 51
45.0
  0
LINE
  5
1872
330
1A
100
AcDbEntity
  8
ZUWAKU
100
AcDbLine
 10
5.908605740348889
 20
3.837499732511925
 30
0.0
 11
5.908605740348889
 21
4.712499732511925
 31
0.0
  0
ARC
  5
1873
330
1A
100
AcDbEntity
  8
ZUWAKU
100
AcDbCircle
 10
6.171105740348878
 20
3.837499732511925
 30
0.0
 40
0.2625
100
AcDbArc
 50
180.0
 51
270.0
  0
ARC
  5
1874
330
1A
100
AcDbEntity
  8
ZUWAKU
100
AcDbCircle
 10
6.171105740348878
 20
4.712499732511925
 30
0.0
 40
0.2625
100
AcDbArc
 50
90.0
 51
180.0
  0
LINE
  5
1875
330
1A
100
AcDbEntity
  8
ZUWAKU
100
AcDbLine
 10
6.171105740348878
 20
3.574999732511926
 30
0.0
 11
7.921105740348878
 21
3.574999732511926
 31
0.0
  0
LINE
  5
1876
330
1A
100
AcDbEntity
  8
ZUWAKU
100
AcDbLine
 10
6.171105740348878
 20
4.974999732511925
 30
0.0
 11
7.658605740348889
 21
4.974999732511925
 31
0.0
  0
LINE
  5
1877
330
1A
100
AcDbEntity
  8
ZUWAKU
100
AcDbLine
 10
6.261181499857116
 20
7.832474479342515
 30
0.0
 11
7.716080487179453
 21
6.377575492020184
 31
0.0
  0
LINE
  5
1878
330
1A
100
AcDbEntity
  8
ZUWAKU
100
AcDbLine
 10
9.321105740348912
 20
4.974999732511925
 30
0.0
 11
9.321105740348912
 21
5.882600745189598
 31
0.0
  0
ARC
  5
1879
330
1A
100
AcDbEntity
  8
ZUWAKU
100
AcDbCircle
 10
12.47110574034889
 20
5.674999732511928
 30
0.0
 40
0.7
100
AcDbArc
 50
180.0
 51
270.0
  0
ARC
  5
187A
330
1A
100
AcDbEntity
  8
ZUWAKU
100
AcDbCircle
 10
8.796105740348878
 20
11.36249973251192
 30
0.0
 40
0.2625
100
AcDbArc
 50
0.0
 51
90.0
  0
ARC
  5
187B
330
1A
100
AcDbEntity
  8
ZUWAKU
100
AcDbCircle
 10
8.796105740348878
 20
10.48749973251192
 30
0.0
 40
0.2625
100
AcDbArc
 50
270.0
 51
0.0
  0
LINE
  5
187C
330
1A
100
AcDbEntity
  8
ZUWAKU
100
AcDbLine
 10
7.046105740348878
 20
11.62499973251192
 30
0.0
 11
8.796105740348878
 21
11.62499973251192
 31
0.0
  0
ARC
  5
187D
330
1A
100
AcDbEntity
  8
ZUWAKU
100
AcDbCircle
 10
7.308605740348866
 20
9.962499732511925
 30
0.0
 40
0.2625
100
AcDbArc
 50
90.0
 51
180.0
  0
LINE
  5
187E
330
1A
100
AcDbEntity
  8
ZUWAKU
100
AcDbLine
 10
7.046105740348878
 20
9.962499732511925
 30
0.0
 11
7.046105740348878
 21
9.317398719834255
 31
0.0
  0
LINE
  5
187F
330
1A
100
AcDbEntity
  8
ZUWAKU
100
AcDbLine
 10
8.796105740348878
 20
10.22499973251192
 30
0.0
 11
7.308605740348866
 21
10.22499973251192
 31
0.0
  0
LINE
  5
1880
330
1A
100
AcDbEntity
  8
ZUWAKU
100
AcDbLine
 10
5.6461057403489
 20
10.22499973251192
 30
0.0
 11
5.6461057403489
 21
9.317398719834255
 31
0.0
  0
ARC
  5
1881
330
1A
100
AcDbEntity
  8
ZUWAKU
100
AcDbCircle
 10
7.046105740348878
 20
10.22499973251192
 30
0.0
 40
1.399999999999999
100
AcDbArc
 50
90.0
 51
180.0
  0
LINE
  5
1882
330
1A
100
AcDbEntity
  8
ZUWAKU
100
AcDbLine
 10
9.058605740348866
 20
11.36249973251192
 30
0.0
 11
9.058605740348866
 21
10.48749973251192
 31
0.0
  0
ARC
  5
1883
330
1A
100
AcDbEntity
  8
ZUWAKU
100
AcDbCircle
 10
12.47110574034889
 20
9.524999732511925
 30
0.0
 40
0.7
100
AcDbArc
 50
90.0
 51
180.0
  0
ARC
  5
1884
330
1A
100
AcDbEntity
  8
ZUWAKU
100
AcDbCircle
 10
12.47110574034889
 20
9.524999732511904
 30
0.0
 40
2.099999999999999
100
AcDbArc
 50
90.0
 51
180.0
  0
LINE
  5
1885
330
1A
100
AcDbEntity
  8
ZUWAKU
100
AcDbLine
 10
39.66331443695242
 20
14.99999973251192
 30
0.0
 11
39.66331443695253
 21
0.399999732511958
 31
0.0
  0
LINE
  5
1886
330
1A
100
AcDbEntity
  8
ZUWAKU
100
AcDbLine
 10
39.76331443695244
 20
14.99999973251192
 30
0.0
 11
39.76331443695255
 21
0.399999732511958
 31
0.0
  0
LINE
  5
1887
330
1A
100
AcDbEntity
  8
ZUWAKU
100
AcDbLine
 10
39.56331443695251
 20
14.99999973251192
 30
0.0
 11
39.56331443695251
 21
0.399999732511958
 31
0.0
  0
LINE
  5
1888
330
1A
100
AcDbEntity
  8
ZUWAKU
100
AcDbLine
 10
32.07110574034891
 20
4.974999732511925
 30
0.0
 11
32.07110574034891
 21
11.36249973251192
 31
0.0
  0
LINE
  5
1889
330
1A
100
AcDbEntity
  8
ZUWAKU
100
AcDbLine
 10
30.67110574034888
 20
11.36249973251192
 30
0.0
 11
30.67110574034888
 21
5.499999732511923
 31
0.0
  0
LINE
  5
188A
330
1A
100
AcDbEntity
  8
ZUWAKU
100
AcDbLine
 10
34.5211057403489
 20
3.837499732511925
 30
0.0
 11
34.5211057403489
 21
11.36249973251192
 31
0.0
  0
LINE
  5
188B
330
1A
100
AcDbEntity
  8
ZUWAKU
100
AcDbLine
 10
33.12110574034886
 20
11.36249973251192
 30
0.0
 11
33.12110574034886
 21
3.837499732511925
 31
0.0
  0
ARC
  5
188C
330
1A
100
AcDbEntity
  8
ZUWAKU
100
AcDbCircle
 10
24.8961057403489
 20
9.317398719834276
 30
0.0
 40
0.7
100
AcDbArc
 50
180.0000000000016
 51
224.9999999999988
  0
ARC
  5
188D
330
1A
100
AcDbEntity
  8
ZUWAKU
100
AcDbCircle
 10
24.8961057403489
 20
9.317398719834276
 30
0.0
 40
2.099999999999999
100
AcDbArc
 50
180.0
 51
225.0
  0
LINE
  5
188E
330
1A
100
AcDbEntity
  8
ZUWAKU
100
AcDbLine
 10
18.65742898143787
 20
9.602523329293639
 30
0.0
 11
18.02505310876995
 21
7.599999732511935
 31
0.0
  0
LINE
  5
188F
330
1A
100
AcDbEntity
  8
ZUWAKU
100
AcDbLine
 10
20.34610574034889
 20
11.36249973251192
 30
0.0
 11
20.34610574034889
 21
3.837499732511925
 31
0.0
  0
LINE
  5
1890
330
1A
100
AcDbEntity
  8
ZUWAKU
100
AcDbLine
 10
21.74610574034886
 20
3.837499732511925
 30
0.0
 11
21.74610574034886
 21
11.36249973251192
 31
0.0
  0
LINE
  5
1891
330
1A
100
AcDbEntity
  8
ZUWAKU
100
AcDbLine
 10
27.5211057403489
 20
11.36249973251192
 30
0.0
 11
27.5211057403489
 21
4.974999732511925
 31
0.0
  0
LINE
  5
1892
330
1A
100
AcDbEntity
  8
ZUWAKU
100
AcDbLine
 10
28.92110574034887
 20
5.499999732511923
 30
0.0
 11
28.92110574034887
 21
11.36249973251192
 31
0.0
  0
LINE
  5
1893
330
1A
100
AcDbEntity
  8
ZUWAKU
100
AcDbLine
 10
16.32110574034891
 20
8.562499732511927
 30
0.0
 11
16.32110574034891
 21
11.36249973251192
 31
0.0
  0
LINE
  5
1894
330
1A
100
AcDbEntity
  8
ZUWAKU
100
AcDbLine
 10
14.92110574034887
 20
11.36249973251192
 30
0.0
 11
14.92110574034887
 21
3.837499732511925
 31
0.0
  0
LINE
  5
1895
330
1A
100
AcDbEntity
  8
ZUWAKU
100
AcDbLine
 10
17.83817320900681
 20
11.44154671659541
 30
0.0
 11
16.90403827169092
 21
8.48345274842844
 31
0.0
  0
LINE
  5
1896
330
1A
100
AcDbEntity
  8
ZUWAKU
100
AcDbLine
 10
30.1461057403489
 20
4.974999732511925
 30
0.0
 11
29.44610574034891
 21
4.974999732511925
 31
0.0
  0
LINE
  5
1897
330
1A
100
AcDbEntity
  8
ZUWAKU
100
AcDbLine
 10
28.92110574034887
 20
3.574999732511926
 30
0.0
 11
30.67110574034888
 21
3.574999732511926
 31
0.0
  0
LINE
  5
1898
330
1A
100
AcDbEntity
  8
ZUWAKU
100
AcDbLine
 10
20.60860574034887
 20
3.574999732511926
 30
0.0
 11
21.48360574034887
 21
3.574999732511926
 31
0.0
  0
LINE
  5
1899
330
1A
100
AcDbEntity
  8
ZUWAKU
100
AcDbLine
 10
17.83817320900681
 20
3.758452748428439
 30
0.0
 11
16.90403827169092
 21
6.716546716595409
 31
0.0
  0
ARC
  5
189A
330
1A
100
AcDbEntity
  8
ZUWAKU
100
AcDbCircle
 10
16.65372282209324
 20
8.562499732511927
 30
0.0
 40
0.2625
100
AcDbArc
 50
270.0
 51
342.4744316262769
  0
LINE
  5
189B
330
1A
100
AcDbEntity
  8
ZUWAKU
100
AcDbLine
 10
16.65372282209324
 20
8.299999732511924
 30
0.0
 11
16.5836057403489
 21
8.299999732511924
 31
0.0
  0
LINE
  5
189C
330
1A
100
AcDbEntity
  8
ZUWAKU
100
AcDbLine
 10
16.5836057403489
 20
6.899999732511925
 30
0.0
 11
16.65372282209324
 21
6.899999732511925
 31
0.0
  0
ARC
  5
189D
330
1A
100
AcDbEntity
  8
ZUWAKU
100
AcDbCircle
 10
16.5836057403489
 20
8.562499732511927
 30
0.0
 40
0.2625
100
AcDbArc
 50
180.0
 51
270.0
  0
LINE
  5
189E
330
1A
100
AcDbEntity
  8
ZUWAKU
100
AcDbLine
 10
15.18360574034886
 20
3.574999732511926
 30
0.0
 11
16.05860574034886
 21
3.574999732511926
 31
0.0
  0
ARC
  5
189F
330
1A
100
AcDbEntity
  8
ZUWAKU
100
AcDbCircle
 10
16.05860574034886
 20
3.837499732511925
 30
0.0
 40
0.2625
100
AcDbArc
 50
270.0
 51
0.0
  0
LINE
  5
18A0
330
1A
100
AcDbEntity
  8
ZUWAKU
100
AcDbLine
 10
16.32110574034891
 20
3.837499732511925
 30
0.0
 11
16.32110574034891
 21
6.637499732511926
 31
0.0
  0
LINE
  5
18A1
330
1A
100
AcDbEntity
  8
ZUWAKU
100
AcDbLine
 10
13.69610574034891
 20
4.712499732511925
 30
0.0
 11
13.69610574034891
 21
3.837499732511925
 31
0.0
  0
ARC
  5
18A2
330
1A
100
AcDbEntity
  8
ZUWAKU
100
AcDbCircle
 10
13.43360574034886
 20
3.837499732511925
 30
0.0
 40
0.2625
100
AcDbArc
 50
270.0
 51
0.0
  0
ARC
  5
18A3
330
1A
100
AcDbEntity
  8
ZUWAKU
100
AcDbCircle
 10
13.43360574034886
 20
4.712499732511925
 30
0.0
 40
0.2625
100
AcDbArc
 50
0.0
 51
90.0
  0
ARC
  5
18A4
330
1A
100
AcDbEntity
  8
ZUWAKU
100
AcDbCircle
 10
15.18360574034886
 20
3.837499732511925
 30
0.0
 40
0.2625
100
AcDbArc
 50
180.0
 51
270.0
  0
ARC
  5
18A5
330
1A
100
AcDbEntity
  8
ZUWAKU
100
AcDbCircle
 10
16.65372282209324
 20
6.637499732511926
 30
0.0
 40
0.2625
100
AcDbArc
 50
17.52556837372303
 51
90.0
  0
ARC
  5
18A6
330
1A
100
AcDbEntity
  8
ZUWAKU
100
AcDbCircle
 10
16.5836057403489
 20
6.637499732511926
 30
0.0
 40
0.2625
100
AcDbArc
 50
90.0
 51
180.0
  0
ARC
  5
18A7
330
1A
100
AcDbEntity
  8
ZUWAKU
100
AcDbCircle
 10
20.60860574034887
 20
3.837499732511925
 30
0.0
 40
0.2625
100
AcDbArc
 50
180.0
 51
270.0
  0
LINE
  5
18A8
330
1A
100
AcDbEntity
  8
ZUWAKU
100
AcDbLine
 10
18.08848865860454
 20
3.574999732511926
 30
0.0
 11
18.93793334840904
 21
3.574999732511926
 31
0.0
  0
ARC
  5
18A9
330
1A
100
AcDbEntity
  8
ZUWAKU
100
AcDbCircle
 10
18.93793334840904
 20
3.837499732511925
 30
0.0
 40
0.2625
100
AcDbArc
 50
270.0
 51
17.52556837372303
  0
LINE
  5
18AA
330
1A
100
AcDbEntity
  8
ZUWAKU
100
AcDbLine
 10
19.18824879800678
 20
3.916546716595412
 30
0.0
 11
18.02505310876995
 21
7.599999732511935
 31
0.0
  0
ARC
  5
18AB
330
1A
100
AcDbEntity
  8
ZUWAKU
100
AcDbCircle
 10
18.08848865860454
 20
3.837499732511925
 30
0.0
 40
0.2625
100
AcDbArc
 50
197.525568373723
 51
270.0
  0
ARC
  5
18AC
330
1A
100
AcDbEntity
  8
ZUWAKU
100
AcDbCircle
 10
28.92110574034887
 20
4.974999732511925
 30
0.0
 40
1.399999999999999
100
AcDbArc
 50
180.0
 51
270.0
  0
ARC
  5
18AD
330
1A
100
AcDbEntity
  8
ZUWAKU
100
AcDbCircle
 10
25.07110574034891
 20
4.974999732511925
 30
0.0
 40
1.399999999999999
100
AcDbArc
 50
270.0
 51
0.0
  0
LINE
  5
18AE
330
1A
100
AcDbEntity
  8
ZUWAKU
100
AcDbLine
 10
25.85602998084067
 20
7.367524985681338
 30
0.0
 11
24.40113099351828
 21
8.822423973003676
 31
0.0
  0
LINE
  5
18AF
330
1A
100
AcDbEntity
  8
ZUWAKU
100
AcDbLine
 10
25.07110574034891
 20
5.237499732511928
 30
0.0
 11
25.07110574034891
 21
5.882600745189598
 31
0.0
  0
ARC
  5
18B0
330
1A
100
AcDbEntity
  8
ZUWAKU
100
AcDbCircle
 10
24.37110574034886
 20
5.882600745189598
 30
0.0
 40
0.7
100
AcDbArc
 50
0.0
 51
45.0
  0
ARC
  5
18B1
330
1A
100
AcDbEntity
  8
ZUWAKU
100
AcDbCircle
 10
24.80860574034887
 20
5.237499732511928
 30
0.0
 40
0.2625
100
AcDbArc
 50
270.0
 51
0.0
  0
LINE
  5
18B2
330
1A
100
AcDbEntity
  8
ZUWAKU
100
AcDbLine
 10
23.05860574034886
 20
3.837499732511925
 30
0.0
 11
23.05860574034886
 21
4.712499732511925
 31
0.0
  0
ARC
  5
18B3
330
1A
100
AcDbEntity
  8
ZUWAKU
100
AcDbCircle
 10
23.32110574034891
 20
3.837499732511925
 30
0.0
 40
0.2625
100
AcDbArc
 50
180.0
 51
270.0
  0
ARC
  5
18B4
330
1A
100
AcDbEntity
  8
ZUWAKU
100
AcDbCircle
 10
21.48360574034887
 20
3.837499732511925
 30
0.0
 40
0.2625
100
AcDbArc
 50
270.0
 51
0.0
  0
ARC
  5
18B5
330
1A
100
AcDbEntity
  8
ZUWAKU
100
AcDbCircle
 10
23.32110574034891
 20
4.712499732511925
 30
0.0
 40
0.2625
100
AcDbArc
 50
90.0
 51
180.0
  0
LINE
  5
18B6
330
1A
100
AcDbEntity
  8
ZUWAKU
100
AcDbLine
 10
23.32110574034891
 20
4.974999732511925
 30
0.0
 11
24.80860574034887
 21
4.974999732511925
 31
0.0
  0
LINE
  5
18B7
330
1A
100
AcDbEntity
  8
ZUWAKU
100
AcDbLine
 10
23.32110574034891
 20
3.574999732511926
 30
0.0
 11
25.07110574034891
 21
3.574999732511926
 31
0.0
  0
LINE
  5
18B8
330
1A
100
AcDbEntity
  8
ZUWAKU
100
AcDbLine
 10
23.41118149985715
 20
7.832474479342515
 30
0.0
 11
24.86608048717949
 21
6.377575492020184
 31
0.0
  0
LINE
  5
18B9
330
1A
100
AcDbEntity
  8
ZUWAKU
100
AcDbLine
 10
26.47110574034889
 20
4.974999732511925
 30
0.0
 11
26.47110574034889
 21
5.882600745189598
 31
0.0
  0
ARC
  5
18BA
330
1A
100
AcDbEntity
  8
ZUWAKU
100
AcDbCircle
 10
24.37110574034886
 20
5.882600745189577
 30
0.0
 40
2.099999999999999
100
AcDbArc
 50
0.0
 51
45.0
  0
ARC
  5
18BB
330
1A
100
AcDbEntity
  8
ZUWAKU
100
AcDbCircle
 10
29.44610574034891
 20
5.499999732511923
 30
0.0
 40
0.525
100
AcDbArc
 50
180.0
 51
270.0
  0
ARC
  5
18BC
330
1A
100
AcDbEntity
  8
ZUWAKU
100
AcDbCircle
 10
30.67110574034888
 20
4.974999732511925
 30
0.0
 40
1.399999999999999
100
AcDbArc
 50
270.0
 51
0.0
  0
LINE
  5
18BD
330
1A
100
AcDbEntity
  8
ZUWAKU
100
AcDbLine
 10
33.38360574034891
 20
3.574999732511926
 30
0.0
 11
34.25860574034891
 21
3.574999732511926
 31
0.0
  0
ARC
  5
18BE
330
1A
100
AcDbEntity
  8
ZUWAKU
100
AcDbCircle
 10
33.38360574034891
 20
3.837499732511925
 30
0.0
 40
0.2625
100
AcDbArc
 50
180.0
 51
270.0
  0
ARC
  5
18BF
330
1A
100
AcDbEntity
  8
ZUWAKU
100
AcDbCircle
 10
30.1461057403489
 20
5.499999732511923
 30
0.0
 40
0.525
100
AcDbArc
 50
270.0
 51
0.0
  0
ARC
  5
18C0
330
1A
100
AcDbEntity
  8
ZUWAKU
100
AcDbCircle
 10
34.25860574034891
 20
3.837499732511925
 30
0.0
 40
0.2625
100
AcDbArc
 50
270.0
 51
0.0
  0
LINE
  5
18C1
330
1A
100
AcDbEntity
  8
ZUWAKU
100
AcDbLine
 10
21.48360574034887
 20
11.62499973251192
 30
0.0
 11
20.60860574034887
 21
11.62499973251192
 31
0.0
  0
ARC
  5
18C2
330
1A
100
AcDbEntity
  8
ZUWAKU
100
AcDbCircle
 10
16.05860574034886
 20
11.36249973251192
 30
0.0
 40
0.2625
100
AcDbArc
 50
0.0
 51
90.0
  0
LINE
  5
18C3
330
1A
100
AcDbEntity
  8
ZUWAKU
100
AcDbLine
 10
16.05860574034886
 20
11.62499973251192
 30
0.0
 11
15.18360574034886
 21
11.62499973251192
 31
0.0
  0
ARC
  5
18C4
330
1A
100
AcDbEntity
  8
ZUWAKU
100
AcDbCircle
 10
13.43360574034886
 20
11.36249973251192
 30
0.0
 40
0.2625
100
AcDbArc
 50
0.0
 51
90.0
  0
ARC
  5
18C5
330
1A
100
AcDbEntity
  8
ZUWAKU
100
AcDbCircle
 10
15.18360574034886
 20
11.36249973251192
 30
0.0
 40
0.2625
100
AcDbArc
 50
90.0
 51
180.0
  0
ARC
  5
18C6
330
1A
100
AcDbEntity
  8
ZUWAKU
100
AcDbCircle
 10
13.43360574034886
 20
10.48749973251192
 30
0.0
 40
0.2625
100
AcDbArc
 50
270.0
 51
0.0
  0
LINE
  5
18C7
330
1A
100
AcDbEntity
  8
ZUWAKU
100
AcDbLine
 10
13.69610574034891
 20
11.36249973251192
 30
0.0
 11
13.69610574034891
 21
10.48749973251192
 31
0.0
  0
ARC
  5
18C8
330
1A
100
AcDbEntity
  8
ZUWAKU
100
AcDbCircle
 10
20.60860574034887
 20
11.36249973251192
 30
0.0
 40
0.2625
100
AcDbArc
 50
90.0
 51
180.0
  0
LINE
  5
18C9
330
1A
100
AcDbEntity
  8
ZUWAKU
100
AcDbLine
 10
18.08848865860454
 20
11.62499973251192
 30
0.0
 11
18.93793334840904
 21
11.62499973251192
 31
0.0
  0
ARC
  5
18CA
330
1A
100
AcDbEntity
  8
ZUWAKU
100
AcDbCircle
 10
18.93793334840904
 20
11.36249973251192
 30
0.0
 40
0.2625
100
AcDbArc
 50
342.4744316262769
 51
90.0
  0
LINE
  5
18CB
330
1A
100
AcDbEntity
  8
ZUWAKU
100
AcDbLine
 10
19.18824879800678
 20
11.28345274842844
 30
0.0
 11
18.65742898143787
 21
9.602523329293639
 31
0.0
  0
ARC
  5
18CC
330
1A
100
AcDbEntity
  8
ZUWAKU
100
AcDbCircle
 10
18.08848865860454
 20
11.36249973251192
 30
0.0
 40
0.2625
100
AcDbArc
 50
90.0
 51
162.4744316262769
  0
LINE
  5
18CD
330
1A
100
AcDbEntity
  8
ZUWAKU
100
AcDbLine
 10
24.19610574034891
 20
11.62499973251192
 30
0.0
 11
25.94610574034891
 21
11.62499973251192
 31
0.0
  0
LINE
  5
18CE
330
1A
100
AcDbEntity
  8
ZUWAKU
100
AcDbLine
 10
25.94610574034891
 20
10.22499973251192
 30
0.0
 11
24.4586057403489
 21
10.22499973251192
 31
0.0
  0
ARC
  5
18CF
330
1A
100
AcDbEntity
  8
ZUWAKU
100
AcDbCircle
 10
24.4586057403489
 20
9.962499732511925
 30
0.0
 40
0.2625
100
AcDbArc
 50
90.0
 51
180.0
  0
LINE
  5
18D0
330
1A
100
AcDbEntity
  8
ZUWAKU
100
AcDbLine
 10
24.19610574034891
 20
9.962499732511925
 30
0.0
 11
24.19610574034891
 21
9.317398719834255
 31
0.0
  0
ARC
  5
18D1
330
1A
100
AcDbEntity
  8
ZUWAKU
100
AcDbCircle
 10
21.48360574034887
 20
11.36249973251192
 30
0.0
 40
0.2625
100
AcDbArc
 50
0.0
 51
90.0
  0
LINE
  5
18D2
330
1A
100
AcDbEntity
  8
ZUWAKU
100
AcDbLine
 10
22.79610574034887
 20
10.22499973251192
 30
0.0
 11
22.79610574034887
 21
9.317398719834255
 31
0.0
  0
ARC
  5
18D3
330
1A
100
AcDbEntity
  8
ZUWAKU
100
AcDbCircle
 10
24.19610574034891
 20
10.22499973251192
 30
0.0
 40
1.399999999999999
100
AcDbArc
 50
90.0
 51
180.0
  0
ARC
  5
18D4
330
1A
100
AcDbEntity
  8
ZUWAKU
100
AcDbCircle
 10
28.65860574034888
 20
11.36249973251192
 30
0.0
 40
0.2625
100
AcDbArc
 50
0.0
 51
90.0
  0
ARC
  5
18D5
330
1A
100
AcDbEntity
  8
ZUWAKU
100
AcDbCircle
 10
27.78360574034889
 20
11.36249973251192
 30
0.0
 40
0.2625
100
AcDbArc
 50
90.0
 51
180.0
  0
LINE
  5
18D6
330
1A
100
AcDbEntity
  8
ZUWAKU
100
AcDbLine
 10
28.65860574034888
 20
11.62499973251192
 30
0.0
 11
27.78360574034889
 21
11.62499973251192
 31
0.0
  0
ARC
  5
18D7
330
1A
100
AcDbEntity
  8
ZUWAKU
100
AcDbCircle
 10
25.94610574034891
 20
11.36249973251192
 30
0.0
 40
0.2625
100
AcDbArc
 50
0.0
 51
90.0
  0
ARC
  5
18D8
330
1A
100
AcDbEntity
  8
ZUWAKU
100
AcDbCircle
 10
25.94610574034891
 20
10.48749973251192
 30
0.0
 40
0.2625
100
AcDbArc
 50
270.0
 51
0.0
  0
LINE
  5
18D9
330
1A
100
AcDbEntity
  8
ZUWAKU
100
AcDbLine
 10
26.2086057403489
 20
11.36249973251192
 30
0.0
 11
26.2086057403489
 21
10.48749973251192
 31
0.0
  0
LINE
  5
18DA
330
1A
100
AcDbEntity
  8
ZUWAKU
100
AcDbLine
 10
34.25860574034891
 20
11.62499973251192
 30
0.0
 11
33.38360574034891
 21
11.62499973251192
 31
0.0
  0
ARC
  5
18DB
330
1A
100
AcDbEntity
  8
ZUWAKU
100
AcDbCircle
 10
33.38360574034891
 20
11.36249973251192
 30
0.0
 40
0.2625
100
AcDbArc
 50
90.0
 51
180.0
  0
ARC
  5
18DC
330
1A
100
AcDbEntity
  8
ZUWAKU
100
AcDbCircle
 10
31.80860574034886
 20
11.36249973251192
 30
0.0
 40
0.2625
100
AcDbArc
 50
0.0
 51
90.0
  0
LINE
  5
18DD
330
1A
100
AcDbEntity
  8
ZUWAKU
100
AcDbLine
 10
31.80860574034886
 20
11.62499973251192
 30
0.0
 11
30.93360574034886
 21
11.62499973251192
 31
0.0
  0
ARC
  5
18DE
330
1A
100
AcDbEntity
  8
ZUWAKU
100
AcDbCircle
 10
30.93360574034886
 20
11.36249973251192
 30
0.0
 40
0.2625
100
AcDbArc
 50
90.0
 51
180.0
  0
ARC
  5
18DF
330
1A
100
AcDbEntity
  8
ZUWAKU
100
AcDbCircle
 10
34.25860574034891
 20
11.36249973251192
 30
0.0
 40
0.2625
100
AcDbArc
 50
0.0
 51
90.0
  0
TEXT
  5
18E0
330
1A
100
AcDbEntity
  8
MOJI
100
AcDbText
 10
119.9136010033838
 20
9.002460261215617
 30
0.0
 40
2.799999999999999
  1
亜鉛メッキ金具正面打（受）
 41
0.9
  7
ｽﾀｲﾙ1
100
AcDbText
  0
TEXT
  5
18E1
330
1A
100
AcDbEntity
  8
MOJI
100
AcDbText
 10
119.9136010033838
 20
1.602460261215634
 30
0.0
 40
2.799999999999999
  1
ＲＶ１０５－５－３０
 41
0.9
  7
ｽﾀｲﾙ1
100
AcDbText
  0
LINE
  5
18E2
330
1A
100
AcDbEntity
  8
ZUWAKU
100
AcDbLine
 10
104.1233003079922
 20
14.99999973251192
 30
0.0
 11
104.1233003079922
 21
0.399999732511958
 31
0.0
  0
LINE
  5
18E3
330
1A
100
AcDbEntity
  8
ZUWAKU
100
AcDbLine
 10
104.3233003079922
 20
14.99999973251192
 30
0.0
 11
104.3233003079923
 21
0.399999732511958
 31
0.0
  0
LINE
  5
18E4
330
1A
100
AcDbEntity
  8
ZUWAKU
100
AcDbLine
 10
104.2233003079921
 20
14.99999973251192
 30
0.0
 11
104.2233003079922
 21
0.399999732511958
 31
0.0
  0
TEXT
  5
18E5
330
1A
100
AcDbEntity
  8
ZUWAKU
100
AcDbText
 10
104.862022819097
 20
4.827678001704732
 30
0.0
 40
2.0
  1
サイズ
 41
0.9
  7
ｽﾀｲﾙ1
100
AcDbText
  0
TEXT
  5
18E6
330
1A
100
AcDbEntity
  8
ZUWAKU
100
AcDbText
 10
104.8620228190969
 20
12.02767800170471
 30
0.0
 40
2.0
  1
品名
 41
0.9
  7
ｽﾀｲﾙ1
100
AcDbText
  0
LINE
  5
18E7
330
1A
100
AcDbEntity
  8
ZUWAKU
100
AcDbLine
 10
324.4086009180604
 20
7.599999732511939
 30
0.0
 11
348.6245049372289
 21
7.599999732511941
 31
0.0
  0
LINE
  5
18E8
330
1A
100
AcDbEntity
  8
ZUWAKU
100
AcDbLine
 10
324.4086009180605
 20
7.699999732511942
 30
0.0
 11
348.6245049372289
 21
7.69999973251194
 31
0.0
  0
LINE
  5
18E9
330
1A
100
AcDbEntity
  8
ZUWAKU
100
AcDbLine
 10
324.4086009180604
 20
7.79999973251194
 30
0.0
 11
348.6245049372289
 21
7.79999973251194
 31
0.0
  0
TEXT
  5
18EA
330
1A
100
AcDbEntity
  8
ZUWAKU
100
AcDbText
 10
329.1019685066095
 20
9.002460261215617
 30
0.0
 40
2.799999999999999
  1
　　．　　．　　
 41
0.9
  7
ｽﾀｲﾙ1
100
AcDbText
  0
LINE
  5
18EB
330
1A
100
AcDbEntity
  8
ZUWAKU
100
AcDbLine
 10
252.5995894120287
 20
7.599999732511943
 30
0.0
 11
276.2634775460145
 21
7.599999732511943
 31
0.0
  0
LINE
  5
18EC
330
1A
100
AcDbEntity
  8
ZUWAKU
100
AcDbLine
 10
252.5995894120287
 20
7.69999973251194
 30
0.0
 11
276.2634775460145
 21
7.69999973251194
 31
0.0
  0
LINE
  5
18ED
330
1A
100
AcDbEntity
  8
ZUWAKU
100
AcDbLine
 10
252.5995894120287
 20
7.79999973251194
 30
0.0
 11
276.2634775460145
 21
7.79999973251194
 31
0.0
  0
TEXT
  5
18EE
330
1A
100
AcDbEntity
  8
MOJI
100
AcDbText
 10
231.2836388239526
 20
5.971308593341916
 30
0.0
 40
2.799999999999999
  1
ＬＪ５１Ｇ
 41
0.9
  7
ｽﾀｲﾙ1
100
AcDbText
  0
LINE
  5
18EF
330
1A
100
AcDbEntity
  8
ZUWAKU
100
AcDbLine
 10
223.8121816484539
 20
14.99999973251192
 30
0.0
 11
223.812181648454
 21
0.399999732511958
 31
0.0
  0
LINE
  5
18F0
330
1A
100
AcDbEntity
  8
ZUWAKU
100
AcDbLine
 10
223.9121816484539
 20
14.99999973251192
 30
0.0
 11
223.912181648454
 21
0.399999732511958
 31
0.0
  0
LINE
  5
18F1
330
1A
100
AcDbEntity
  8
ZUWAKU
100
AcDbLine
 10
223.712181648454
 20
14.99999973251192
 30
0.0
 11
223.712181648454
 21
0.399999732511958
 31
0.0
  0
TEXT
  5
18F2
330
1A
100
AcDbEntity
  8
MOJI
100
AcDbText
 10
264.0204536491147
 20
9.002460261215617
 30
0.0
 40
2.799999999999999
  1
Ａ３
 41
0.9
  7
ｽﾀｲﾙ1
100
AcDbText
  0
LINE
  5
18F3
330
1A
100
AcDbEntity
  8
ZUWAKU
100
AcDbLine
 10
252.4995894120287
 20
14.99999973251192
 30
0.0
 11
252.4995894120288
 21
0.399999732511958
 31
0.0
  0
LINE
  5
18F4
330
1A
100
AcDbEntity
  8
ZUWAKU
100
AcDbLine
 10
252.5995894120287
 20
14.99999973251192
 30
0.0
 11
252.5995894120288
 21
0.399999732511958
 31
0.0
  0
LINE
  5
18F5
330
1A
100
AcDbEntity
  8
ZUWAKU
100
AcDbLine
 10
252.3995894120288
 20
14.99999973251192
 30
0.0
 11
252.3995894120288
 21
0.399999732511958
 31
0.0
  0
TEXT
  5
18F6
330
1A
100
AcDbEntity
  8
ZUWAKU
100
AcDbText
 10
253.3383119231336
 20
4.827678001704732
 30
0.0
 40
2.0
  1
縮尺
 41
0.9
  7
ｽﾀｲﾙ1
100
AcDbText
  0
TEXT
  5
18F7
330
1A
100
AcDbEntity
  8
MOJI
100
AcDbText
 10
264.0204536491147
 20
1.602460261215634
 30
0.0
 40
2.799999999999999
  1
１/１
 41
0.9
  7
ｽﾀｲﾙ1
100
AcDbText
  0
TEXT
  5
18F8
330
1A
100
AcDbEntity
  8
ZUWAKU
100
AcDbText
 10
224.6509041595587
 20
12.02767800170471
 30
0.0
 40
2.0
  1
品番
 41
0.9
  7
ｽﾀｲﾙ1
100
AcDbText
  0
TEXT
  5
18F9
330
1A
100
AcDbEntity
  8
ZUWAKU
100
AcDbText
 10
253.3383119231335
 20
12.02767800170471
 30
0.0
 40
2.0
  1
用紙
 41
0.9
  7
ｽﾀｲﾙ1
100
AcDbText
  0
LINE
  5
18FA
330
1A
100
AcDbEntity
  8
ZUWAKU
100
AcDbLine
 10
324.3086009180605
 20
14.99999973251192
 30
0.0
 11
324.3086009180606
 21
0.399999732511958
 31
0.0
  0
LINE
  5
18FB
330
1A
100
AcDbEntity
  8
ZUWAKU
100
AcDbLine
 10
324.4086009180605
 20
14.99999973251192
 30
0.0
 11
324.4086009180606
 21
0.399999732511958
 31
0.0
  0
LINE
  5
18FC
330
1A
100
AcDbEntity
  8
ZUWAKU
100
AcDbLine
 10
324.2086009180606
 20
14.99999973251192
 30
0.0
 11
324.2086009180606
 21
0.399999732511958
 31
0.0
  0
LINE
  5
18FD
330
1A
100
AcDbEntity
  8
ZUWAKU
100
AcDbLine
 10
276.3634775460144
 20
14.99999973251192
 30
0.0
 11
276.3634775460145
 21
0.399999732511958
 31
0.0
  0
LINE
  5
18FE
330
1A
100
AcDbEntity
  8
ZUWAKU
100
AcDbLine
 10
276.4634775460144
 20
14.99999973251192
 30
0.0
 11
276.4634775460145
 21
0.399999732511958
 31
0.0
  0
LINE
  5
18FF
330
1A
100
AcDbEntity
  8
ZUWAKU
100
AcDbLine
 10
276.2634775460145
 20
14.99999973251192
 30
0.0
 11
276.2634775460145
 21
0.399999732511958
 31
0.0
  0
TEXT
  5
1900
330
1A
100
AcDbEntity
  8
ZUWAKU
100
AcDbText
 10
325.1473234291653
 20
12.02767800170471
 30
0.0
 40
2.0
  1
DATE
 41
0.9
  7
ｽﾀｲﾙ1
100
AcDbText
  0
LINE
  5
1901
330
1A
100
AcDbEntity
  8
ZUWAKU
100
AcDbLine
 10
348.6245049372289
 20
14.99999973251192
 30
0.0
 11
348.6245049372289
 21
0.399999732511958
 31
0.0
  0
LINE
  5
1902
330
1A
100
AcDbEntity
  8
ZUWAKU
100
AcDbLine
 10
348.7245049372289
 20
14.99999973251192
 30
0.0
 11
348.7245049372289
 21
0.399999732511958
 31
0.0
  0
LINE
  5
1903
330
1A
100
AcDbEntity
  8
ZUWAKU
100
AcDbLine
 10
348.8245049372288
 20
14.99999973251192
 30
0.0
 11
348.8245049372289
 21
0.399999732511958
 31
0.0
  0
LINE
  5
1904
330
1A
100
AcDbEntity
  8
ZUWAKU
100
AcDbLine
 10
348.9245049372289
 20
14.99999973251192
 30
0.0
 11
348.924504937229
 21
0.399999732511958
 31
0.0
  0
TEXT
  5
1905
330
1A
100
AcDbEntity
  8
ZUWAKU
100
AcDbText
 10
354.2640417590802
 20
8.776919400355325
 30
0.0
 40
3.0
  1
積水化学工業株式会社
 41
0.9
  7
ｽﾀｲﾙ1
100
AcDbText
  0
TEXT
  5
1906
330
1A
100
AcDbEntity
  8
ZUWAKU
100
AcDbText
 10
354.2640417590802
 20
3.324419889438956
 30
0.0
 40
3.0
  1
建材事業部
 41
0.9
  7
ｽﾀｲﾙ1
100
AcDbText
  0
VIEWPORT
  5
22
330
17
100
AcDbEntity
 67
     1
  8
0
100
AcDbViewport
 10
313.6808219178082
 20
148.5
 30
0.0
 40
627.3616438356165
 41
297.0
 68
     2
 69
     1
1001
ACAD
1000
MVIEW
1002
{
1070
    16
1010
0.0
1020
0.0
1030
0.0
1010
0.0
1020
0.0
1030
1.0
1040
0.0
1040
297.0
1040
313.6808219178082
1040
148.5
1040
50.0
1040
0.0
1040
0.0
1070
     0
1070
   100
1070
     1
1070
     0
1070
     0
1070
     0
1070
     0
1070
     0
1040
0.0
1040
0.0
1040
0.0
1040
1.0
1040
1.0
1040
10.0
1040
10.0
1070
     0
1002
{
1002
}
1002
}
  0
VIEWPORT
  5
64
330
17
100
AcDbEntity
 67
     1
  8
VIEWPORT
100
AcDbViewport
 10
210.0
 20
148.5
 30
0.0
 40
420.0
 41
297.0
 68
     1
 69
     2
1001
ACAD
1000
MVIEW
1002
{
1070
    16
1010
0.0
1020
0.0
1030
0.0
1010
0.0
1020
0.0
1030
1.0
1040
0.0
1040
302.9399999999998
1040
210.0
1040
148.5
1040
50.0
1040
0.0
1040
0.0
1070
     0
1070
   100
1070
     1
1070
     0
1070
     0
1070
     0
1070
     0
1070
     0
1040
0.0
1040
0.0
1040
0.0
1040
5.0
1040
5.0
1040
0.0
1040
0.0
1070
     0
1002
{
1002
}
1002
}
  0
ENDSEC
  0
SECTION
  2
OBJECTS
  0
DICTIONARY
  5
C
330
0
100
AcDbDictionary
  3
ACAD_GROUP
350
D
  3
ACAD_LAYOUT
350
141
  3
ACAD_MLINESTYLE
350
E
  3
ACAD_PLOTSETTINGS
350
142
  3
ACAD_PLOTSTYLENAME
350
13F
  3
ACDBVARIABLEDICTIONARY
350
120D
  3
ACDBHEADERROUNDTRIPXREC
350
197E
  0
DICTIONARY
  5
7A2
330
1A
100
AcDbDictionary
280
     1
  3
ACAD_LAYOUTSELFREF
360
19A0
  0
DICTIONARY
  5
7A0
330
17
100
AcDbDictionary
280
     1
  3
ACAD_LAYOUTSELFREF
360
199F
  0
DICTIONARY
  5
D
102
{ACAD_REACTORS
330
C
102
}
330
C
100
AcDbDictionary
  0
DICTIONARY
  5
141
102
{ACAD_REACTORS
330
C
102
}
330
C
100
AcDbDictionary
  0
DICTIONARY
  5
E
102
{ACAD_REACTORS
330
C
102
}
330
C
100
AcDbDictionary
  3
STANDARD
350
13
  0
DICTIONARY
  5
142
102
{ACAD_REACTORS
330
C
102
}
330
C
100
AcDbDictionary
  0
ACDBDICTIONARYWDFLT
  5
13F
102
{ACAD_REACTORS
330
C
102
}
330
C
100
AcDbDictionary
281
     1
  3
Normal
350
140
100
AcDbDictionaryWithDefault
340
140
1001
ACAD
1000
TREAT_AS_HARD
1070
     0
1000
TREAT_AS_HARD
1070
     0
1000
TREAT_AS_HARD
1070
     0
1000
TREAT_AS_HARD
1070
     0
1000
TREAT_AS_HARD
1070
     0
1000
TREAT_AS_HARD
1070
     0
1000
TREAT_AS_HARD
1070
     0
1000
TREAT_AS_HARD
1070
     0
1000
TREAT_AS_HARD
1070
     0
1000
TREAT_AS_HARD
1070
     0
  0
DICTIONARY
  5
120D
102
{ACAD_REACTORS
330
C
102
}
330
C
100
AcDbDictionary
  3
SORTENTS
350
120E
  0
DICTIONARY
  5
197E
102
{ACAD_REACTORS
330
C
102
}
330
C
100
AcDbDictionary
  3
TSTACKALIGN
350
197F
  3
TSTACKSIZE
350
1980
  3
HYPERLINKBASE
350
1981
  3
STYLESHEET
350
1982
  3
LAYOUTDICT
350
1983
  3
PLOTSETDICT
350
1984
  3
PLOTSTYLNAMDICT
350
1985
  3
LWETCUNION
350
1986
  3
INSUNITS
350
1987
  3
CEPSNTYPE
350
1988
  3
FINGERPRINTGUID
350
1989
  3
VERSIONGUID
350
198A
  3
PSVPSCALE
350
198B
  3
DIMSTYLEDATA
350
198C
  3
PUCSORTHOREF
350
198D
  3
PUCSORTHOVIEW
350
198E
  3
PUCSBASE
350
198F
  3
PUCSORGTOP
350
1990
  3
PUCSORGBOTTOM
350
1991
  3
PUCSORGLEFT
350
1992
  3
PUCSORGRIGHT
350
1993
  3
PUCSORGFRONT
350
1994
  3
PUCSORGBACK
350
1995
  3
UCSORTHOREF
350
1996
  3
UCSORTHOVIEW
350
1997
  3
UCSBASE
350
1998
  3
UCSORGTOP
350
1999
  3
UCSORGBOTTOM
350
199A
  3
UCSORGLEFT
350
199B
  3
UCSORGRIGHT
350
199C
  3
UCSORGFRONT
350
199D
  3
UCSORGBACK
350
199E
  0
XRECORD
  5
19A0
102
{ACAD_REACTORS
330
7A2
102
}
330
7A2
100
AcDbXrecord
340
1A
  0
XRECORD
  5
199F
102
{ACAD_REACTORS
330
7A0
102
}
330
7A0
100
AcDbXrecord
340
17
  0
MLINESTYLE
  5
13
102
{ACAD_REACTORS
330
E
102
}
330
E
100
AcDbMlineStyle
  2
STANDARD
 70
     0
  3

 62
     0
 51
90.0
 52
90.0
 71
     2
 49
0.5
 62
   256
  6
BYLAYER
 49
-0.5
 62
   256
  6
BYLAYER
  0
ACDBPLACEHOLDER
  5
140
102
{ACAD_REACTORS
330
13F
102
}
330
13F
100
AcDbPlaceHolder
280
     0
  0
DICTIONARYVAR
  5
120E
102
{ACAD_REACTORS
330
120D
102
}
330
120D
100
DictionaryVariables
280
     0
  1
96
  0
XRECORD
  5
197F
102
{ACAD_REACTORS
330
197E
102
}
330
197E
100
AcDbXrecord
 90
        1
  0
XRECORD
  5
1980
102
{ACAD_REACTORS
330
197E
102
}
330
197E
100
AcDbXrecord
 90
       70
  0
XRECORD
  5
1981
102
{ACAD_REACTORS
330
197E
102
}
330
197E
100
AcDbXrecord
  1

  0
XRECORD
  5
1982
102
{ACAD_REACTORS
330
197E
102
}
330
197E
100
AcDbXrecord
  1
systemprinter.ctb
  0
XRECORD
  5
1983
102
{ACAD_REACTORS
330
197E
102
}
330
197E
100
AcDbXrecord
340
141
  0
XRECORD
  5
1984
102
{ACAD_REACTORS
330
197E
102
}
330
197E
100
AcDbXrecord
340
142
  0
XRECORD
  5
1985
102
{ACAD_REACTORS
330
197E
102
}
330
197E
100
AcDbXrecord
340
13F
  0
XRECORD
  5
1986
102
{ACAD_REACTORS
330
197E
102
}
330
197E
100
AcDbXrecord
 90
    10781
  0
XRECORD
  5
1987
102
{ACAD_REACTORS
330
197E
102
}
330
197E
100
AcDbXrecord
 90
        0
  0
XRECORD
  5
1988
102
{ACAD_REACTORS
330
197E
102
}
330
197E
100
AcDbXrecord
 90
        0
  0
XRECORD
  5
1989
102
{ACAD_REACTORS
330
197E
102
}
330
197E
100
AcDbXrecord
  1
{4E8D0500-CDD1-11D3-932C-444553540000}
  0
XRECORD
  5
198A
102
{ACAD_REACTORS
330
197E
102
}
330
197E
100
AcDbXrecord
  1
{23908C58-97E0-4BE5-84FE-980EC4FA271B}
  0
XRECORD
  5
198B
102
{ACAD_REACTORS
330
197E
102
}
330
197E
100
AcDbXrecord
 40
0.0
  0
XRECORD
  5
198C
102
{ACAD_REACTORS
330
197E
102
}
330
197E
100
AcDbXrecord
1000
DSTYLE
1002
{
1070
   341
340
B2
1070
   343
340
B2
1070
   344
340
B2
1070
   371
 70
    -1
1070
   372
 70
    -1
1002
}
  0
XRECORD
  5
198D
102
{ACAD_REACTORS
330
197E
102
}
330
197E
100
AcDbXrecord
340
0
  0
XRECORD
  5
198E
102
{ACAD_REACTORS
330
197E
102
}
330
197E
100
AcDbXrecord
 70
     0
  0
XRECORD
  5
198F
102
{ACAD_REACTORS
330
197E
102
}
330
197E
100
AcDbXrecord
340
0
  0
XRECORD
  5
1990
102
{ACAD_REACTORS
330
197E
102
}
330
197E
100
AcDbXrecord
 10
0.0
 20
0.0
 30
0.0
  0
XRECORD
  5
1991
102
{ACAD_REACTORS
330
197E
102
}
330
197E
100
AcDbXrecord
 10
0.0
 20
0.0
 30
0.0
  0
XRECORD
  5
1992
102
{ACAD_REACTORS
330
197E
102
}
330
197E
100
AcDbXrecord
 10
0.0
 20
0.0
 30
0.0
  0
XRECORD
  5
1993
102
{ACAD_REACTORS
330
197E
102
}
330
197E
100
AcDbXrecord
 10
0.0
 20
0.0
 30
0.0
  0
XRECORD
  5
1994
102
{ACAD_REACTORS
330
197E
102
}
330
197E
100
AcDbXrecord
 10
0.0
 20
0.0
 30
0.0
  0
XRECORD
  5
1995
102
{ACAD_REACTORS
330
197E
102
}
330
197E
100
AcDbXrecord
 10
0.0
 20
0.0
 30
0.0
  0
XRECORD
  5
1996
102
{ACAD_REACTORS
330
197E
102
}
330
197E
100
AcDbXrecord
340
0
  0
XRECORD
  5
1997
102
{ACAD_REACTORS
330
197E
102
}
330
197E
100
AcDbXrecord
 70
     0
  0
XRECORD
  5
1998
102
{ACAD_REACTORS
330
197E
102
}
330
197E
100
AcDbXrecord
340
0
  0
XRECORD
  5
1999
102
{ACAD_REACTORS
330
197E
102
}
330
197E
100
AcDbXrecord
 10
0.0
 20
0.0
 30
0.0
  0
XRECORD
  5
199A
102
{ACAD_REACTORS
330
197E
102
}
330
197E
100
AcDbXrecord
 10
0.0
 20
0.0
 30
0.0
  0
XRECORD
  5
199B
102
{ACAD_REACTORS
330
197E
102
}
330
197E
100
AcDbXrecord
 10
0.0
 20
0.0
 30
0.0
  0
XRECORD
  5
199C
102
{ACAD_REACTORS
330
197E
102
}
330
197E
100
AcDbXrecord
 10
0.0
 20
0.0
 30
0.0
  0
XRECORD
  5
199D
102
{ACAD_REACTORS
330
197E
102
}
330
197E
100
AcDbXrecord
 10
0.0
 20
0.0
 30
0.0
  0
XRECORD
  5
199E
102
{ACAD_REACTORS
330
197E
102
}
330
197E
100
AcDbXrecord
 10
0.0
 20
0.0
 30
0.0
  0
ENDSEC
  0
EOF
