  0
SECTION
  2
HEADER
  9
$ACADVER
  1
AC1014
  9
$ACADMAINTVER
 70
     9
  9
$DWGCODEPAGE
  3
ANSI_932
  9
$INSBASE
 10
0.0
 20
0.0
 30
0.0
  9
$EXTMIN
 10
-0.0256328098773793
 20
-0.0181260584133725
 30
-0.0015258207003583
  9
$EXTMAX
 10
797.6000995626677
 20
551.6452344880035
 30
0.0000000349246037
  9
$LIMMIN
 10
0.0
 20
0.0
  9
$LIMMAX
 10
840.0
 20
594.0
  9
$ORTHOMODE
 70
     0
  9
$REGENMODE
 70
     1
  9
$FILLMODE
 70
     1
  9
$QTEXTMODE
 70
     0
  9
$MIRRTEXT
 70
     1
  9
$DRAGMODE
 70
     2
  9
$LTSCALE
 40
10.0
  9
$OSMODE
 70
    35
  9
$ATTMODE
 70
     1
  9
$TEXTSIZE
 40
5.0
  9
$TRACEWID
 40
1.0
  9
$TEXTSTYLE
  7
STANDARD
  9
$CLAYER
  8
CENTER_L
  9
$CELTYPE
  6
BYLAYER
  9
$CECOLOR
 62
   256
  9
$CELTSCALE
 40
1.0
  9
$DELOBJ
 70
     1
  9
$DISPSILH
 70
     0
  9
$DIMSCALE
 40
1.0
  9
$DIMASZ
 40
3.0
  9
$DIMEXO
 40
6.0
  9
$DIMDLI
 40
14.0
  9
$DIMRND
 40
0.0
  9
$DIMDLE
 40
0.0
  9
$DIMEXE
 40
3.0
  9
$DIMTP
 40
0.0
  9
$DIMTM
 40
0.0
  9
$DIMTXT
 40
6.0
  9
$DIMCEN
 40
10.0
  9
$DIMTSZ
 40
0.0
  9
$DIMTOL
 70
     0
  9
$DIMLIM
 70
     0
  9
$DIMTIH
 70
     0
  9
$DIMTOH
 70
     0
  9
$DIMSE1
 70
     0
  9
$DIMSE2
 70
     0
  9
$DIMTAD
 70
     3
  9
$DIMZIN
 70
     0
  9
$DIMBLK
  1

  9
$DIMASO
 70
     1
  9
$DIMSHO
 70
     1
  9
$DIMPOST
  1

  9
$DIMAPOST
  1

  9
$DIMALT
 70
     0
  9
$DIMALTD
 70
     2
  9
$DIMALTF
 40
25.4
  9
$DIMLFAC
 40
1.0
  9
$DIMTOFL
 70
     1
  9
$DIMTVP
 40
0.0
  9
$DIMTIX
 70
     0
  9
$DIMSOXD
 70
     0
  9
$DIMSAH
 70
     1
  9
$DIMBLK1
  1
OPEN
  9
$DIMBLK2
  1
OPEN
  9
$DIMSTYLE
  2
STANDARD
  9
$DIMCLRD
 70
   256
  9
$DIMCLRE
 70
   256
  9
$DIMCLRT
 70
   256
  9
$DIMTFAC
 40
1.0
  9
$DIMGAP
 40
2.0
  9
$DIMJUST
 70
     0
  9
$DIMSD1
 70
     0
  9
$DIMSD2
 70
     0
  9
$DIMTOLJ
 70
     1
  9
$DIMTZIN
 70
     0
  9
$DIMALTZ
 70
     0
  9
$DIMALTTZ
 70
     0
  9
$DIMFIT
 70
     3
  9
$DIMUPT
 70
     0
  9
$DIMUNIT
 70
     2
  9
$DIMDEC
 70
     0
  9
$DIMTDEC
 70
     0
  9
$DIMALTU
 70
     2
  9
$DIMALTTD
 70
     2
  9
$DIMTXSTY
  7
STANDARD
  9
$DIMAUNIT
 70
     0
  9
$LUNITS
 70
     2
  9
$LUPREC
 70
     4
  9
$SKETCHINC
 40
1.0
  9
$FILLETRAD
 40
1.0
  9
$AUNITS
 70
     0
  9
$AUPREC
 70
     0
  9
$MENU
  1
.
  9
$ELEVATION
 40
0.0
  9
$PELEVATION
 40
0.0
  9
$THICKNESS
 40
0.0
  9
$LIMCHECK
 70
     0
  9
$BLIPMODE
 70
     0
  9
$CHAMFERA
 40
20.0
  9
$CHAMFERB
 40
20.0
  9
$CHAMFERC
 40
40.0
  9
$CHAMFERD
 40
0.0
  9
$SKPOLY
 70
     0
  9
$TDCREATE
 40
2451591.485258449
  9
$TDUPDATE
 40
2453802.486248368
  9
$TDINDWG
 40
0.0806524074
  9
$TDUSRTIMER
 40
0.0806524074
  9
$USRTIMER
 70
     1
  9
$ANGBASE
 50
0.0
  9
$ANGDIR
 70
     0
  9
$PDMODE
 70
     0
  9
$PDSIZE
 40
0.0
  9
$PLINEWID
 40
0.0
  9
$COORDS
 70
     1
  9
$SPLFRAME
 70
     0
  9
$SPLINETYPE
 70
     6
  9
$SPLINESEGS
 70
     8
  9
$ATTDIA
 70
     0
  9
$ATTREQ
 70
     1
  9
$HANDLING
 70
 10241
  9
$HANDSEED
  5
E9D
  9
$SURFTAB1
 70
     6
  9
$SURFTAB2
 70
     6
  9
$SURFTYPE
 70
     6
  9
$SURFU
 70
     6
  9
$SURFV
 70
     6
  9
$UCSNAME
  2

  9
$UCSORG
 10
0.0
 20
0.0
 30
0.0
  9
$UCSXDIR
 10
1.0
 20
0.0
 30
0.0
  9
$UCSYDIR
 10
0.0
 20
1.0
 30
0.0
  9
$PUCSNAME
  2

  9
$PUCSORG
 10
0.0
 20
0.0
 30
0.0
  9
$PUCSXDIR
 10
1.0
 20
0.0
 30
0.0
  9
$PUCSYDIR
 10
0.0
 20
1.0
 30
0.0
  9
$USERI1
 70
     0
  9
$USERI2
 70
     0
  9
$USERI3
 70
     0
  9
$USERI4
 70
     0
  9
$USERI5
 70
     0
  9
$USERR1
 40
0.0
  9
$USERR2
 40
0.0
  9
$USERR3
 40
0.0
  9
$USERR4
 40
0.0
  9
$USERR5
 40
0.0
  9
$WORLDVIEW
 70
     1
  9
$SHADEDGE
 70
     3
  9
$SHADEDIF
 70
    70
  9
$TILEMODE
 70
     1
  9
$MAXACTVP
 70
    16
  9
$PINSBASE
 10
0.0
 20
0.0
 30
0.0
  9
$PLIMCHECK
 70
     0
  9
$PEXTMIN
 10
0.0
 20
0.0
 30
0.0
  9
$PEXTMAX
 10
420.0
 20
297.0
 30
0.0
  9
$PLIMMIN
 10
0.0
 20
0.0
  9
$PLIMMAX
 10
420.0
 20
297.0
  9
$UNITMODE
 70
     0
  9
$VISRETAIN
 70
     0
  9
$PLINEGEN
 70
     0
  9
$PSLTSCALE
 70
     1
  9
$TREEDEPTH
 70
  3020
  9
$PICKSTYLE
 70
     1
  9
$CMLSTYLE
  2
STANDARD
  9
$CMLJUST
 70
     0
  9
$CMLSCALE
 40
1.0
  9
$PROXYGRAPHICS
 70
     1
  9
$MEASUREMENT
 70
     1
  0
ENDSEC
  0
SECTION
  2
CLASSES
  0
CLASS
  1
ACDBDICTIONARYWDFLT
  2
AcDbDictionaryWithDefault
  3
AutoCAD 2000
 90
        0
280
     0
281
     0
  0
CLASS
  1
ACDBPLACEHOLDER
  2
AcDbPlaceHolder
  3
AutoCAD 2000
 90
        0
280
     0
281
     0
  0
CLASS
  1
LAYOUT
  2
AcDbLayout
  3
AutoCAD 2000
 90
        0
280
     0
281
     0
  0
CLASS
  1
LONG_TRANSACTION
  2
AcDbLongTransaction
  3
AutoCAD 2000
 90
        0
280
     0
281
     0
  0
CLASS
  1
LWPOLYLINE
  2
AcDbPolyline
  3
AutoCAD 2000
 90
        0
280
     0
281
     1
  0
CLASS
  1
HATCH
  2
AcDbHatch
  3
AutoCAD 2000
 90
        0
280
     0
281
     1
  0
CLASS
  1
XRECORD
  2
AcDbXrecord
  3
AutoCAD 2000
 90
        0
280
     0
281
     0
  0
CLASS
  1
LONG_TRANSACTION
  2
AcDbLongTransaction
  3
AutoCAD 2000
 90
        0
280
     0
281
     0
  0
CLASS
  1
LWPOLYLINE
  2
AcDbPolyline
  3
AutoCAD 2000
 90
        0
280
     0
281
     1
  0
CLASS
  1
HATCH
  2
AcDbHatch
  3
AutoCAD 2000
 90
        0
280
     0
281
     1
  0
CLASS
  1
XRECORD
  2
AcDbXrecord
  3
AutoCAD 2000
 90
        0
280
     0
281
     0
  0
CLASS
  1
LONG_TRANSACTION
  2
AcDbLongTransaction
  3
AutoCAD 2000
 90
        0
280
     0
281
     0
  0
CLASS
  1
LWPOLYLINE
  2
AcDbPolyline
  3
AutoCAD 2000
 90
        0
280
     0
281
     1
  0
CLASS
  1
HATCH
  2
AcDbHatch
  3
AutoCAD 2000
 90
        0
280
     0
281
     1
  0
CLASS
  1
XRECORD
  2
AcDbXrecord
  3
AutoCAD 2000
 90
        0
280
     0
281
     0
  0
CLASS
  1
LONG_TRANSACTION
  2
AcDbLongTransaction
  3
AutoCAD 2000
 90
        0
280
     0
281
     0
  0
CLASS
  1
LWPOLYLINE
  2
AcDbPolyline
  3
AutoCAD 2000
 90
        0
280
     0
281
     1
  0
CLASS
  1
HATCH
  2
AcDbHatch
  3
AutoCAD 2000
 90
        0
280
     0
281
     1
  0
CLASS
  1
XRECORD
  2
AcDbXrecord
  3
AutoCAD 2000
 90
        0
280
     0
281
     0
  0
CLASS
  1
LONG_TRANSACTION
  2
AcDbLongTransaction
  3
AutoCAD 2000
 90
        0
280
     0
281
     0
  0
CLASS
  1
LWPOLYLINE
  2
AcDbPolyline
  3
AutoCAD 2000
 90
        0
280
     0
281
     1
  0
CLASS
  1
HATCH
  2
AcDbHatch
  3
AutoCAD 2000
 90
        0
280
     0
281
     1
  0
CLASS
  1
XRECORD
  2
AcDbXrecord
  3
AutoCAD 2000
 90
        0
280
     0
281
     0
  0
CLASS
  1
LONG_TRANSACTION
  2
AcDbLongTransaction
  3
AutoCAD 2000
 90
        0
280
     0
281
     0
  0
CLASS
  1
LWPOLYLINE
  2
AcDbPolyline
  3
AutoCAD 2000
 90
        0
280
     0
281
     1
  0
CLASS
  1
HATCH
  2
AcDbHatch
  3
AutoCAD 2000
 90
        0
280
     0
281
     1
  0
CLASS
  1
XRECORD
  2
AcDbXrecord
  3
AutoCAD 2000
 90
        0
280
     0
281
     0
  0
CLASS
  1
LONG_TRANSACTION
  2
AcDbLongTransaction
  3
AutoCAD 2000
 90
        0
280
     0
281
     0
  0
CLASS
  1
LWPOLYLINE
  2
AcDbPolyline
  3
AutoCAD 2000
 90
        0
280
     0
281
     1
  0
CLASS
  1
HATCH
  2
AcDbHatch
  3
AutoCAD 2000
 90
        0
280
     0
281
     1
  0
CLASS
  1
XRECORD
  2
AcDbXrecord
  3
AutoCAD 2000
 90
        0
280
     0
281
     0
  0
ENDSEC
  0
SECTION
  2
TABLES
  0
TABLE
  2
VPORT
  5
8
330
0
100
AcDbSymbolTable
 70
     2
  0
VPORT
  5
E79
330
8
100
AcDbSymbolTableRecord
100
AcDbViewportTableRecord
  2
*ACTIVE
 70
     0
 10
0.0
 20
0.0
 11
1.0
 21
1.0
 12
395.5952800716989
 22
283.7889124785808
 13
0.0
 23
0.0
 14
5.0
 24
5.0
 15
0.0
 25
0.0
 16
0.0
 26
0.0
 36
1.0
 17
0.0
 27
0.0
 37
0.0
 40
667.2871982916722
 41
1.795454545454545
 42
50.0
 43
0.0
 44
0.0
 50
0.0
 51
0.0
 71
     0
 72
   100
 73
     1
 74
     0
 75
     0
 76
     0
 77
     0
 78
     0
  0
ENDTAB
  0
TABLE
  2
LTYPE
  5
5
330
0
100
AcDbSymbolTable
 70
     3
  0
LTYPE
  5
14
330
5
100
AcDbSymbolTableRecord
100
AcDbLinetypeTableRecord
  2
BYBLOCK
 70
     0
  3

 72
    65
 73
     0
 40
0.0
  0
LTYPE
  5
15
330
5
100
AcDbSymbolTableRecord
100
AcDbLinetypeTableRecord
  2
BYLAYER
 70
     0
  3

 72
    65
 73
     0
 40
0.0
  0
LTYPE
  5
16
330
5
100
AcDbSymbolTableRecord
100
AcDbLinetypeTableRecord
  2
CONTINUOUS
 70
     0
  3
Solid line
 72
    65
 73
     0
 40
0.0
  0
LTYPE
  5
115
330
5
100
AcDbSymbolTableRecord
100
AcDbLinetypeTableRecord
  2
PHANTOM
 70
     0
  3
______  __  __  ______  __  __  ______  __  __ 
 72
    65
 73
     6
 40
2.5
 49
1.25
 74
     0
 49
-0.25
 74
     0
 49
0.25
 74
     0
 49
-0.25
 74
     0
 49
0.25
 74
     0
 49
-0.25
 74
     0
  0
LTYPE
  5
135
330
5
100
AcDbSymbolTableRecord
100
AcDbLinetypeTableRecord
  2
CENTER
 70
     0
  3
____ _ ____ _ ____ _ ____ _ ____ _ ____ _ ____ 
 72
    65
 73
     4
 40
2.0
 49
1.25
 74
     0
 49
-0.25
 74
     0
 49
0.25
 74
     0
 49
-0.25
 74
     0
  0
ENDTAB
  0
TABLE
  2
LAYER
  5
2
330
0
100
AcDbSymbolTable
 70
     9
  0
LAYER
  5
F
330
2
100
AcDbSymbolTableRecord
100
AcDbLayerTableRecord
  2
0
 70
     0
 62
     7
  6
CONTINUOUS
  0
LAYER
  5
62
330
2
100
AcDbSymbolTableRecord
100
AcDbLayerTableRecord
  2
VIEWPORT
 70
     0
 62
     7
  6
CONTINUOUS
  0
LAYER
  5
17C
330
2
100
AcDbSymbolTableRecord
100
AcDbLayerTableRecord
  2
DEFPOINTS
 70
     0
 62
     7
  6
CONTINUOUS
  0
LAYER
  5
17D
330
2
100
AcDbSymbolTableRecord
100
AcDbLayerTableRecord
  2
SEIHIN
 70
     0
 62
     3
  6
CONTINUOUS
  0
LAYER
  5
17E
330
2
100
AcDbSymbolTableRecord
100
AcDbLayerTableRecord
  2
SUNPOU
 70
     0
 62
     4
  6
CONTINUOUS
  0
LAYER
  5
17F
330
2
100
AcDbSymbolTableRecord
100
AcDbLayerTableRecord
  2
CENTER_L
 70
     0
 62
     1
  6
CENTER
  0
LAYER
  5
180
330
2
100
AcDbSymbolTableRecord
100
AcDbLayerTableRecord
  2
NOKITOI
 70
     0
 62
     8
  6
PHANTOM
  0
LAYER
  5
CB0
330
2
100
AcDbSymbolTableRecord
100
AcDbLayerTableRecord
  2
ZUWAKU
 70
     0
 62
     7
  6
CONTINUOUS
  0
LAYER
  5
CB1
330
2
100
AcDbSymbolTableRecord
100
AcDbLayerTableRecord
  2
MOJI
 70
     0
 62
     2
  6
CONTINUOUS
  0
ENDTAB
  0
TABLE
  2
STYLE
  5
3
330
0
100
AcDbSymbolTable
 70
     2
  0
STYLE
  5
10
330
3
100
AcDbSymbolTableRecord
100
AcDbTextStyleTableRecord
  2
STANDARD
 70
     0
 40
0.0
 41
1.0
 50
0.0
 71
     0
 42
5.0
  3
TXT
  4
c:\PROGRAM FILES\AUTOCAD LT\ms\bigfont.shx
  0
STYLE
  5
CB2
330
3
100
AcDbSymbolTableRecord
100
AcDbTextStyleTableRecord
  2
ｽﾀｲﾙ1
 70
     0
 40
0.0
 41
1.0
 50
0.0
 71
     0
 42
2.5
  3
MS PGothic.ttf
  4

1001
ACAD
1000
MS PGothic
1071
    32818
  0
ENDTAB
  0
TABLE
  2
VIEW
  5
6
330
0
100
AcDbSymbolTable
 70
     0
  0
ENDTAB
  0
TABLE
  2
UCS
  5
7
330
0
100
AcDbSymbolTable
 70
     0
  0
ENDTAB
  0
TABLE
  2
APPID
  5
9
330
0
100
AcDbSymbolTable
 70
     1
  0
APPID
  5
11
330
9
100
AcDbSymbolTableRecord
100
AcDbRegAppTableRecord
  2
ACAD
 70
     0
  0
ENDTAB
  0
TABLE
  2
DIMSTYLE
  5
A
330
0
100
AcDbSymbolTable
 70
     1
  0
DIMSTYLE
105
1D
102
{ACAD_REACTORS
330
B5D
330
B6A
330
B77
330
B9F
330
BAC
330
BBA
330
BCC
330
BD9
330
BE6
102
}
330
A
100
AcDbSymbolTableRecord
100
AcDbDimStyleTableRecord
  2
STANDARD
 70
     0
  3

  4

  5

  6

  7

 40
1.0
 41
0.18
 42
0.0625
 43
0.38
 44
0.18
 45
0.0
 46
0.0
 47
0.0
 48
0.0
140
0.18
141
0.09
142
0.0
143
25.4
144
1.0
145
0.0
146
1.0
147
0.09
 71
     0
 72
     0
 73
     1
 74
     1
 75
     0
 76
     0
 77
     0
 78
     0
170
     0
171
     2
172
     0
173
     0
174
     0
175
     0
176
     0
177
     0
178
     0
270
     2
271
     4
272
     4
273
     2
274
     2
340
10
275
     0
280
     0
281
     0
282
     0
283
     1
284
     0
285
     0
286
     0
287
     3
288
     0
  0
ENDTAB
  0
TABLE
  2
BLOCK_RECORD
  5
1
330
0
100
AcDbSymbolTable
 70
    10
  0
BLOCK_RECORD
  5
1A
102
{ACAD_XDICTIONARY
360
506
102
}
330
1
100
AcDbSymbolTableRecord
100
AcDbBlockTableRecord
  2
*MODEL_SPACE
  0
BLOCK_RECORD
  5
17
102
{ACAD_XDICTIONARY
360
504
102
}
330
1
100
AcDbSymbolTableRecord
100
AcDbBlockTableRecord
  2
*PAPER_SPACE
  0
BLOCK_RECORD
  5
6D
330
1
100
AcDbSymbolTableRecord
100
AcDbBlockTableRecord
  2
_OPEN
  0
BLOCK_RECORD
  5
B5E
330
1
100
AcDbSymbolTableRecord
100
AcDbBlockTableRecord
  2
*D1
  0
BLOCK_RECORD
  5
B6B
330
1
100
AcDbSymbolTableRecord
100
AcDbBlockTableRecord
  2
*D2
  0
BLOCK_RECORD
  5
B78
330
1
100
AcDbSymbolTableRecord
100
AcDbBlockTableRecord
  2
*D3
  0
BLOCK_RECORD
  5
BA0
330
1
100
AcDbSymbolTableRecord
100
AcDbBlockTableRecord
  2
*D4
  0
BLOCK_RECORD
  5
BAD
330
1
100
AcDbSymbolTableRecord
100
AcDbBlockTableRecord
  2
*D5
  0
BLOCK_RECORD
  5
BBB
330
1
100
AcDbSymbolTableRecord
100
AcDbBlockTableRecord
  2
*D6
  0
BLOCK_RECORD
  5
BCD
330
1
100
AcDbSymbolTableRecord
100
AcDbBlockTableRecord
  2
*D7
  0
BLOCK_RECORD
  5
BDA
330
1
100
AcDbSymbolTableRecord
100
AcDbBlockTableRecord
  2
*D8
  0
BLOCK_RECORD
  5
BE7
330
1
100
AcDbSymbolTableRecord
100
AcDbBlockTableRecord
  2
*D9
  0
ENDTAB
  0
ENDSEC
  0
SECTION
  2
BLOCKS
  0
BLOCK
  5
1B
330
1A
100
AcDbEntity
  8
0
100
AcDbBlockBegin
  2
*MODEL_SPACE
 70
     0
 10
0.0
 20
0.0
 30
0.0
  3
*MODEL_SPACE
  1

  0
ENDBLK
  5
1C
330
1A
100
AcDbEntity
  8
0
100
AcDbBlockEnd
  0
BLOCK
  5
18
330
17
100
AcDbEntity
 67
     1
  8
0
100
AcDbBlockBegin
  2
*PAPER_SPACE
 70
     0
 10
0.0
 20
0.0
 30
0.0
  3
*PAPER_SPACE
  1

  0
ENDBLK
  5
19
330
17
100
AcDbEntity
 67
     1
  8
0
100
AcDbBlockEnd
  0
BLOCK
  5
6E
330
6D
100
AcDbEntity
  8
0
100
AcDbBlockBegin
  2
_OPEN
 70
     0
 10
0.0
 20
0.0
 30
0.0
  3
_OPEN
  1

  0
LINE
  5
6F
330
6D
100
AcDbEntity
  8
0
  6
BYBLOCK
 62
     0
100
AcDbLine
 10
-1.0
 20
0.1666666666666666
 30
0.0
 11
0.0
 21
0.0
 31
0.0
  0
LINE
  5
70
330
6D
100
AcDbEntity
  8
0
  6
BYBLOCK
 62
     0
100
AcDbLine
 10
0.0
 20
0.0
 30
0.0
 11
-1.0
 21
-0.1666666666666666
 31
0.0
  0
LINE
  5
71
330
6D
100
AcDbEntity
  8
0
  6
BYBLOCK
 62
     0
100
AcDbLine
 10
0.0
 20
0.0
 30
0.0
 11
-1.0
 21
0.0
 31
0.0
  0
ENDBLK
  5
72
330
6D
100
AcDbEntity
  8
0
100
AcDbBlockEnd
  0
BLOCK
  5
B68
330
B5E
100
AcDbEntity
  8
0
100
AcDbBlockBegin
  2
*D1
 70
     1
 10
0.0
 20
0.0
 30
0.0
  3
*D1
  1

  0
LINE
  5
E29
330
B5E
100
AcDbEntity
  8
SUNPOU
100
AcDbLine
 10
386.0324754892061
 20
182.8379155593669
 30
0.0
 11
401.7576016422764
 21
143.9168626331594
 31
0.0
  0
LINE
  5
E2A
330
B5E
100
AcDbEntity
  8
SUNPOU
100
AcDbLine
 10
552.9255692609413
 20
250.267102498695
 30
0.0
 11
568.6506954140115
 21
211.3460495724874
 31
0.0
  0
LINE
  5
E2B
330
B5E
100
AcDbEntity
  8
SUNPOU
100
AcDbLine
 10
403.4153334228165
 20
147.8222339783438
 30
0.0
 11
564.7453240688272
 21
213.0037813530276
 31
0.0
  0
INSERT
  5
E2C
330
B5E
100
AcDbEntity
  8
SUNPOU
100
AcDbBlockReference
  2
_OPEN
 10
400.6337818599543
 20
146.6984141960217
 30
0.0
 41
3.0
 42
3.0
 43
3.0
 50
202.0000000427294
  0
INSERT
  5
E2D
330
B5E
100
AcDbEntity
  8
SUNPOU
100
AcDbBlockReference
  2
_OPEN
 10
567.5268756316894
 20
214.1276011353497
 30
0.0
 41
3.0
 42
3.0
 43
3.0
 50
22.00000004272947
  0
MTEXT
  5
E2E
330
B5E
100
AcDbEntity
  8
SUNPOU
100
AcDbMText
 10
482.2072957752849
 20
185.0489269371228
 30
0.0
 40
6.0
 41
0.0
 71
     5
 72
     1
  1
\A1;180
 11
0.9271838542874169
 21
0.3746065941073779
 31
0.0
1001
ACAD
1000
MTEXTBEGIN
1070
    73
1070
     1
1070
    44
1040
1.0
1070
    74
1070
     0
1000
MTEXTEND
  0
POINT
  5
E2F
330
B5E
100
AcDbEntity
  8
DEFPOINTS
 62
     0
100
AcDbPoint
 10
383.7848359245619
 20
188.4010186850914
 30
0.0
  0
POINT
  5
E30
330
B5E
100
AcDbEntity
  8
DEFPOINTS
 62
     0
100
AcDbPoint
 10
550.677929696297
 20
255.8302056244194
 30
0.0
  0
POINT
  5
E31
330
B5E
100
AcDbEntity
  8
DEFPOINTS
 62
     0
100
AcDbPoint
 10
567.5268756316894
 20
214.1276011353497
 30
0.0
  0
ENDBLK
  5
B69
330
B5E
100
AcDbEntity
  8
0
100
AcDbBlockEnd
  0
BLOCK
  5
B75
330
B6B
100
AcDbEntity
  8
0
100
AcDbBlockBegin
  2
*D2
 70
     1
 10
0.0
 20
0.0
 30
0.0
  3
*D2
  1

  0
LINE
  5
E4D
330
B6B
100
AcDbEntity
  8
SUNPOU
100
AcDbLine
 10
532.0875891202343
 20
261.8009047608968
 30
0.0
 11
520.9982803850237
 21
289.2479069659578
 31
0.0
  0
LINE
  5
E4E
330
B6B
100
AcDbEntity
  8
SUNPOU
100
AcDbLine
 10
545.9953471316526
 20
267.420003752144
 30
0.0
 11
534.9060383964422
 21
294.8670059572049
 31
0.0
  0
LINE
  5
E4F
330
B6B
100
AcDbEntity
  8
SUNPOU
100
AcDbLine
 10
524.9036517302081
 20
287.5901751854176
 30
0.0
 11
533.2483066159021
 21
290.9616346120206
 31
0.0
  0
INSERT
  5
E50
330
B6B
100
AcDbEntity
  8
SUNPOU
100
AcDbBlockReference
  2
_OPEN
 10
522.1221001673459
 20
286.4663554030956
 30
0.0
 41
3.0
 42
3.0
 43
3.0
 50
202.0000000427295
  0
INSERT
  5
E51
330
B6B
100
AcDbEntity
  8
SUNPOU
100
AcDbBlockReference
  2
_OPEN
 10
536.0298581787644
 20
292.0854543943427
 30
0.0
 41
3.0
 42
3.0
 43
3.0
 50
22.00000004272951
  0
MTEXT
  5
E52
330
B6B
100
AcDbEntity
  8
SUNPOU
100
AcDbMText
 10
527.202946202518
 20
293.9118241701562
 30
0.0
 40
6.0
 41
0.0
 71
     5
 72
     1
  1
\A1;15
 11
0.9271838542874167
 21
0.3746065941073785
 31
0.0
1001
ACAD
1000
MTEXTBEGIN
1070
    73
1070
     1
1070
    44
1040
1.0
1070
    74
1070
     0
1000
MTEXTEND
  0
POINT
  5
E53
330
B6B
100
AcDbEntity
  8
DEFPOINTS
 62
     0
100
AcDbPoint
 10
534.3352286848785
 20
256.2378016351723
 30
0.0
  0
POINT
  5
E54
330
B6B
100
AcDbEntity
  8
DEFPOINTS
 62
     0
100
AcDbPoint
 10
548.2429866962969
 20
261.8569006264194
 30
0.0
  0
POINT
  5
E55
330
B6B
100
AcDbEntity
  8
DEFPOINTS
 62
     0
100
AcDbPoint
 10
536.0298581787644
 20
292.0854543943427
 30
0.0
  0
ENDBLK
  5
B76
330
B6B
100
AcDbEntity
  8
0
100
AcDbBlockEnd
  0
BLOCK
  5
B82
330
B78
100
AcDbEntity
  8
0
100
AcDbBlockBegin
  2
*D3
 70
     1
 10
0.0
 20
0.0
 30
0.0
  3
*D3
  1

  0
LINE
  5
E44
330
B78
100
AcDbEntity
  8
SUNPOU
100
AcDbLine
 10
503.4104787454213
 20
252.6952297965995
 30
0.0
 11
493.1827649451853
 21
278.0097087506758
 31
0.0
  0
LINE
  5
E45
330
B78
100
AcDbEntity
  8
SUNPOU
100
AcDbLine
 10
531.2259937454212
 20
263.9334277915995
 30
0.0
 11
520.9982799451853
 21
289.2479067456759
 31
0.0
  0
LINE
  5
E46
330
B78
100
AcDbEntity
  8
SUNPOU
100
AcDbLine
 10
497.088136312183
 20
276.3519770215248
 30
0.0
 11
519.3405482160343
 21
285.3425353786781
 31
0.0
  0
INSERT
  5
E47
330
B78
100
AcDbEntity
  8
SUNPOU
100
AcDbBlockReference
  2
_OPEN
 10
494.3065847641086
 20
275.2281572026014
 30
0.0
 41
3.0
 42
3.0
 43
3.0
 50
202.0000007966588
  0
INSERT
  5
E48
330
B78
100
AcDbEntity
  8
SUNPOU
100
AcDbBlockReference
  2
_OPEN
 10
522.1220997641087
 20
286.4663551976014
 30
0.0
 41
3.0
 42
3.0
 43
3.0
 50
22.00000079665885
  0
MTEXT
  5
E49
330
B78
100
AcDbEntity
  8
SUNPOU
100
AcDbMText
 10
506.3413092325699
 20
285.4831754468922
 30
0.0
 40
6.0
 41
0.0
 71
     5
 72
     1
  1
\A1;30
 11
0.9271838493581373
 21
0.374606606307773
 31
0.0
1001
ACAD
1000
MTEXTBEGIN
1070
    73
1070
     1
1070
    44
1040
1.0
1070
    74
1070
     0
1000
MTEXTEND
  0
POINT
  5
E4A
330
B78
100
AcDbEntity
  8
DEFPOINTS
 62
     0
100
AcDbPoint
 10
505.6581183832679
 20
247.1321267004507
 30
0.0
  0
POINT
  5
E4B
330
B78
100
AcDbEntity
  8
DEFPOINTS
 62
     0
100
AcDbPoint
 10
533.4736333832679
 20
258.3703246954507
 30
0.0
  0
POINT
  5
E4C
330
B78
100
AcDbEntity
  8
DEFPOINTS
 62
     0
100
AcDbPoint
 10
522.1220997641087
 20
286.4663551976014
 30
0.0
  0
ENDBLK
  5
B83
330
B78
100
AcDbEntity
  8
0
100
AcDbBlockEnd
  0
BLOCK
  5
BAA
330
BA0
100
AcDbEntity
  8
0
100
AcDbBlockBegin
  2
*D4
 70
     1
 10
0.0
 20
0.0
 30
0.0
  3
*D4
  1

  0
LINE
  5
E56
330
BA0
100
AcDbEntity
  8
SUNPOU
100
AcDbLine
 10
438.5076088387592
 20
226.4727688464312
 30
0.0
 11
428.2798953506043
 21
251.7872486439525
 31
0.0
  0
LINE
  5
E57
330
BA0
100
AcDbEntity
  8
SUNPOU
100
AcDbLine
 10
503.4104788687591
 20
252.6952298464313
 30
0.0
 11
493.1827653806043
 21
278.0097096439526
 31
0.0
  0
LINE
  5
E58
330
BA0
100
AcDbEntity
  8
SUNPOU
100
AcDbLine
 10
432.185266680849
 20
250.1295168282167
 30
0.0
 11
491.5250335648684
 21
274.104338313708
 31
0.0
  0
INSERT
  5
E59
330
BA0
100
AcDbEntity
  8
SUNPOU
100
AcDbBlockReference
  2
_OPEN
 10
429.4037151078587
 20
249.0056970709622
 30
0.0
 41
3.0
 42
3.0
 43
3.0
 50
201.9999995263712
  0
INSERT
  5
E5A
330
BA0
100
AcDbEntity
  8
SUNPOU
100
AcDbBlockReference
  2
_OPEN
 10
494.3065851378586
 20
275.2281580709623
 30
0.0
 41
3.0
 42
3.0
 43
3.0
 50
21.99999952637127
  0
MTEXT
  5
E5B
330
BA0
100
AcDbEntity
  8
SUNPOU
100
AcDbMText
 10
459.9821171941014
 20
266.7528468592795
 30
0.0
 40
6.0
 41
0.0
 71
     5
 72
     1
  1
\A1;70
 11
0.927183857663428
 21
0.3746065857514574
 31
0.0
1001
ACAD
1000
MTEXTBEGIN
1070
    73
1070
     1
1070
    44
1040
1.0
1070
    74
1070
     0
1000
MTEXTEND
  0
POINT
  5
E5C
330
BA0
100
AcDbEntity
  8
DEFPOINTS
 62
     0
100
AcDbPoint
 10
440.7552483532679
 20
220.9096657004506
 30
0.0
  0
POINT
  5
E5D
330
BA0
100
AcDbEntity
  8
DEFPOINTS
 62
     0
100
AcDbPoint
 10
505.6581183832679
 20
247.1321267004507
 30
0.0
  0
POINT
  5
E5E
330
BA0
100
AcDbEntity
  8
DEFPOINTS
 62
     0
100
AcDbPoint
 10
494.3065851378586
 20
275.2281580709623
 30
0.0
  0
ENDBLK
  5
BAB
330
BA0
100
AcDbEntity
  8
0
100
AcDbBlockEnd
  0
BLOCK
  5
BB7
330
BAD
100
AcDbEntity
  8
0
100
AcDbBlockBegin
  2
*D5
 70
     1
 10
0.0
 20
0.0
 30
0.0
  3
*D5
  1

  0
LINE
  5
E5F
330
BAD
100
AcDbEntity
  8
SUNPOU
100
AcDbLine
 10
553.806089771091
 20
264.1045403171211
 30
0.0
 11
579.7154049837147
 21
274.5725838618558
 31
0.0
  0
LINE
  5
E60
330
BAD
100
AcDbEntity
  8
SUNPOU
100
AcDbLine
 10
558.6759757710909
 20
252.0511503131211
 30
0.0
 11
584.5852909837146
 21
262.5191938578558
 31
0.0
  0
LINE
  5
E61
330
BAD
100
AcDbEntity
  8
SUNPOU
100
AcDbLine
 10
578.0576732916684
 20
270.6672124791079
 30
0.0
 11
580.6799196009668
 21
264.176925549902
 31
0.0
  0
INSERT
  5
E62
330
BAD
100
AcDbEntity
  8
SUNPOU
100
AcDbBlockReference
  2
_OPEN
 10
576.9338534463177
 20
273.448764016505
 30
0.0
 41
3.0
 42
3.0
 43
3.0
 50
112.0000013410251
  0
INSERT
  5
E63
330
BAD
100
AcDbEntity
  8
SUNPOU
100
AcDbBlockReference
  2
_OPEN
 10
581.8037394463176
 20
261.395374012505
 30
0.0
 41
3.0
 42
3.0
 43
3.0
 50
292.000001341025
  0
MTEXT
  5
E64
330
BAD
100
AcDbEntity
  8
SUNPOU
100
AcDbMText
 10
584.0047156753127
 20
269.2951020900896
 30
0.0
 40
6.0
 41
0.0
 71
     5
 72
     1
  1
\A1;13
 11
0.374606615116932
 21
-0.9271838457990059
 31
0.0
1001
ACAD
1000
MTEXTBEGIN
1070
    73
1070
     1
1070
    44
1040
1.0
1070
    74
1070
     0
1000
MTEXTEND
  0
POINT
  5
E65
330
BAD
100
AcDbEntity
  8
DEFPOINTS
 62
     0
100
AcDbPoint
 10
548.242986696297
 20
261.8569006264195
 30
0.0
  0
POINT
  5
E66
330
BAD
100
AcDbEntity
  8
DEFPOINTS
 62
     0
100
AcDbPoint
 10
553.112872696297
 20
249.8035106224195
 30
0.0
  0
POINT
  5
E67
330
BAD
100
AcDbEntity
  8
DEFPOINTS
 62
     0
100
AcDbPoint
 10
581.8037394463176
 20
261.395374012505
 30
0.0
  0
ENDBLK
  5
BB8
330
BAD
100
AcDbEntity
  8
0
100
AcDbBlockEnd
  0
BLOCK
  5
BC7
330
BBB
100
AcDbEntity
  8
0
100
AcDbBlockBegin
  2
*D6
 70
     1
 10
0.0
 20
0.0
 30
0.0
  3
*D6
  1

  0
LINE
  5
E68
330
BBB
100
AcDbEntity
  8
SUNPOU
100
AcDbLine
 10
559.1128726962969
 20
385.9616898289104
 30
0.0
 11
597.4439033997796
 21
385.9616898289104
 31
0.0
  0
LINE
  5
E69
330
BBB
100
AcDbEntity
  8
SUNPOU
100
AcDbLine
 10
559.1128726962969
 20
382.9616898289103
 30
0.0
 11
597.4439033997796
 21
382.9616898289103
 31
0.0
  0
LINE
  5
E6A
330
BBB
100
AcDbEntity
  8
SUNPOU
100
AcDbLine
 10
594.4439033997796
 20
388.9616898289103
 30
0.0
 11
594.4439033997796
 21
391.9616898289103
 31
0.0
  0
LINE
  5
E6B
330
BBB
100
AcDbEntity
  8
SUNPOU
100
AcDbLine
 10
594.4439033997796
 20
379.9616898289103
 30
0.0
 11
594.4439033997796
 21
368.9616898289103
 31
0.0
  0
LINE
  5
E6C
330
BBB
100
AcDbEntity
  8
SUNPOU
100
AcDbLine
 10
594.4439033997796
 20
385.9616898289104
 30
0.0
 11
594.4439033997796
 21
382.9616898289103
 31
0.0
  0
INSERT
  5
E6D
330
BBB
100
AcDbEntity
  8
SUNPOU
100
AcDbBlockReference
  2
_OPEN
 10
594.4439033997796
 20
385.9616898289104
 30
0.0
 41
3.0
 42
3.0
 43
3.0
 50
270.0
  0
INSERT
  5
E6E
330
BBB
100
AcDbEntity
  8
SUNPOU
100
AcDbBlockReference
  2
_OPEN
 10
594.4439033997796
 20
382.9616898289103
 30
0.0
 41
3.0
 42
3.0
 43
3.0
 50
90.0
  0
MTEXT
  5
E6F
330
BBB
100
AcDbEntity
  8
SUNPOU
100
AcDbMText
 10
589.4439033997795
 20
372.9616898289104
 30
0.0
 40
6.0
 41
0.0
 71
     5
 72
     1
  1
\A1;3
 11
0.0000000000000001
 21
1.0
 31
0.0
1001
ACAD
1000
MTEXTBEGIN
1070
    73
1070
     1
1070
    44
1040
1.0
1070
    74
1070
     0
1000
MTEXTEND
  0
POINT
  5
E70
330
BBB
100
AcDbEntity
  8
DEFPOINTS
 62
     0
100
AcDbPoint
 10
553.1128726962968
 20
385.9616898289104
 30
0.0
  0
POINT
  5
E71
330
BBB
100
AcDbEntity
  8
DEFPOINTS
 62
     0
100
AcDbPoint
 10
553.1128726962968
 20
382.9616898289103
 30
0.0
  0
POINT
  5
E72
330
BBB
100
AcDbEntity
  8
DEFPOINTS
 62
     0
100
AcDbPoint
 10
594.4439033997796
 20
382.9616898289103
 30
0.0
  0
ENDBLK
  5
BC8
330
BBB
100
AcDbEntity
  8
0
100
AcDbBlockEnd
  0
BLOCK
  5
BD7
330
BCD
100
AcDbEntity
  8
0
100
AcDbBlockBegin
  2
*D7
 70
     1
 10
0.0
 20
0.0
 30
0.0
  3
*D7
  1

  0
LINE
  5
E20
330
BCD
100
AcDbEntity
  8
SUNPOU
100
AcDbLine
 10
383.2147865662969
 20
224.1227758574194
 30
0.0
 11
405.6343078915888
 21
224.1227758574194
 31
0.0
  0
LINE
  5
E21
330
BCD
100
AcDbEntity
  8
SUNPOU
100
AcDbLine
 10
394.2147865662969
 20
189.1227758562535
 30
0.0
 11
405.6343078915888
 21
189.1227758562535
 31
0.0
  0
LINE
  5
E22
330
BCD
100
AcDbEntity
  8
SUNPOU
100
AcDbLine
 10
402.6343078915888
 20
221.1227758574194
 30
0.0
 11
402.6343078915888
 21
192.1227758562535
 31
0.0
  0
INSERT
  5
E23
330
BCD
100
AcDbEntity
  8
SUNPOU
100
AcDbBlockReference
  2
_OPEN
 10
402.6343078915888
 20
224.1227758574194
 30
0.0
 41
3.0
 42
3.0
 43
3.0
 50
90.0
  0
INSERT
  5
E24
330
BCD
100
AcDbEntity
  8
SUNPOU
100
AcDbBlockReference
  2
_OPEN
 10
402.6343078915888
 20
189.1227758562535
 30
0.0
 41
3.0
 42
3.0
 43
3.0
 50
270.0
  0
MTEXT
  5
E25
330
BCD
100
AcDbEntity
  8
SUNPOU
100
AcDbMText
 10
397.6343078915888
 20
206.6227758568365
 30
0.0
 40
6.0
 41
0.0
 71
     5
 72
     1
  1
\A1;35
 11
0.0000000000000001
 21
1.0
 31
0.0
1001
ACAD
1000
MTEXTBEGIN
1070
    73
1070
     1
1070
    44
1040
1.0
1070
    74
1070
     0
1000
MTEXTEND
  0
POINT
  5
E26
330
BCD
100
AcDbEntity
  8
DEFPOINTS
 62
     0
100
AcDbPoint
 10
377.2147865662969
 20
224.1227758574194
 30
0.0
  0
POINT
  5
E27
330
BCD
100
AcDbEntity
  8
DEFPOINTS
 62
     0
100
AcDbPoint
 10
388.2147865662969
 20
189.1227758562535
 30
0.0
  0
POINT
  5
E28
330
BCD
100
AcDbEntity
  8
DEFPOINTS
 62
     0
100
AcDbPoint
 10
402.6343078915888
 20
189.1227758562535
 30
0.0
  0
ENDBLK
  5
BD8
330
BCD
100
AcDbEntity
  8
0
100
AcDbBlockEnd
  0
BLOCK
  5
BE4
330
BDA
100
AcDbEntity
  8
0
100
AcDbBlockBegin
  2
*D8
 70
     1
 10
0.0
 20
0.0
 30
0.0
  3
*D8
  1

  0
LINE
  5
E32
330
BDA
100
AcDbEntity
  8
SUNPOU
100
AcDbLine
 10
384.2147865662969
 20
223.1227758574194
 30
0.0
 11
384.2147865662969
 21
254.9570281943061
 31
0.0
  0
LINE
  5
E33
330
BDA
100
AcDbEntity
  8
SUNPOU
100
AcDbLine
 10
260.9847865754828
 20
209.6227758574194
 30
0.0
 11
260.9847865754828
 21
254.9570281943061
 31
0.0
  0
LINE
  5
E34
330
BDA
100
AcDbEntity
  8
SUNPOU
100
AcDbLine
 10
381.2147865662969
 20
251.957028194306
 30
0.0
 11
263.9847865754828
 21
251.957028194306
 31
0.0
  0
INSERT
  5
E35
330
BDA
100
AcDbEntity
  8
SUNPOU
100
AcDbBlockReference
  2
_OPEN
 10
384.2147865662969
 20
251.957028194306
 30
0.0
 41
3.0
 42
3.0
 43
3.0
  0
INSERT
  5
E36
330
BDA
100
AcDbEntity
  8
SUNPOU
100
AcDbBlockReference
  2
_OPEN
 10
260.9847865754828
 20
251.957028194306
 30
0.0
 41
3.0
 42
3.0
 43
3.0
 50
180.0
  0
MTEXT
  5
E37
330
BDA
100
AcDbEntity
  8
SUNPOU
100
AcDbMText
 10
322.5997865708899
 20
256.9570281943061
 30
0.0
 40
6.0
 41
0.0
 71
     5
 72
     1
  1
\A1;123
1001
ACAD
1000
MTEXTBEGIN
1070
    73
1070
     1
1070
    44
1040
1.0
1070
    74
1070
     0
1000
MTEXTEND
  0
POINT
  5
E38
330
BDA
100
AcDbEntity
  8
DEFPOINTS
 62
     0
100
AcDbPoint
 10
384.2147865662969
 20
217.1227758574194
 30
0.0
  0
POINT
  5
E39
330
BDA
100
AcDbEntity
  8
DEFPOINTS
 62
     0
100
AcDbPoint
 10
260.9847865754828
 20
203.6227758574194
 30
0.0
  0
POINT
  5
E3A
330
BDA
100
AcDbEntity
  8
DEFPOINTS
 62
     0
100
AcDbPoint
 10
260.9847865754828
 20
251.957028194306
 30
0.0
  0
ENDBLK
  5
BE5
330
BDA
100
AcDbEntity
  8
0
100
AcDbBlockEnd
  0
BLOCK
  5
BF1
330
BE7
100
AcDbEntity
  8
0
100
AcDbBlockBegin
  2
*D9
 70
     1
 10
0.0
 20
0.0
 30
0.0
  3
*D9
  1

  0
LINE
  5
E3B
330
BE7
100
AcDbEntity
  8
SUNPOU
100
AcDbLine
 10
260.0847425962969
 20
392.4116898289104
 30
0.0
 11
218.7945657702984
 21
392.4116898289104
 31
0.0
  0
LINE
  5
E3C
330
BE7
100
AcDbEntity
  8
SUNPOU
100
AcDbLine
 10
260.0847425962969
 20
376.5116898289104
 30
0.0
 11
218.7945657702984
 21
376.5116898289104
 31
0.0
  0
LINE
  5
E3D
330
BE7
100
AcDbEntity
  8
SUNPOU
100
AcDbLine
 10
221.7945657702985
 20
389.4116898289104
 30
0.0
 11
221.7945657702985
 21
379.5116898289104
 31
0.0
  0
INSERT
  5
E3E
330
BE7
100
AcDbEntity
  8
SUNPOU
100
AcDbBlockReference
  2
_OPEN
 10
221.7945657702985
 20
392.4116898289104
 30
0.0
 41
3.0
 42
3.0
 43
3.0
 50
90.0
  0
INSERT
  5
E3F
330
BE7
100
AcDbEntity
  8
SUNPOU
100
AcDbBlockReference
  2
_OPEN
 10
221.7945657702985
 20
376.5116898289104
 30
0.0
 41
3.0
 42
3.0
 43
3.0
 50
270.0
  0
MTEXT
  5
E40
330
BE7
100
AcDbEntity
  8
SUNPOU
100
AcDbMText
 10
216.7945657702984
 20
384.4616898289105
 30
0.0
 40
6.0
 41
0.0
 71
     5
 72
     1
  1
\A1;16
 11
0.0000000000000001
 21
1.0
 31
0.0
1001
ACAD
1000
MTEXTBEGIN
1070
    73
1070
     1
1070
    44
1040
1.0
1070
    74
1070
     0
1000
MTEXTEND
  0
POINT
  5
E41
330
BE7
100
AcDbEntity
  8
DEFPOINTS
 62
     0
100
AcDbPoint
 10
266.0847425962969
 20
392.4116898289104
 30
0.0
  0
POINT
  5
E42
330
BE7
100
AcDbEntity
  8
DEFPOINTS
 62
     0
100
AcDbPoint
 10
266.0847425962969
 20
376.5116898289104
 30
0.0
  0
POINT
  5
E43
330
BE7
100
AcDbEntity
  8
DEFPOINTS
 62
     0
100
AcDbPoint
 10
221.7945657702985
 20
376.5116898289104
 30
0.0
  0
ENDBLK
  5
BF2
330
BE7
100
AcDbEntity
  8
0
100
AcDbBlockEnd
  0
ENDSEC
  0
SECTION
  2
ENTITIES
  0
LINE
  5
286
330
1A
100
AcDbEntity
  8
NOKITOI
  6
PHANTOM
 62
     8
100
AcDbLine
 10
310.3317294155885
 20
161.914087802614
 30
0.0
 11
354.9113294155886
 21
161.913987802614
 31
0.0
  0
LINE
  5
287
330
1A
100
AcDbEntity
  8
NOKITOI
  6
PHANTOM
 62
     8
100
AcDbLine
 10
355.1611294155886
 20
160.713987802614
 30
0.0
 11
310.3317294155885
 21
160.714087802614
 31
0.0
  0
ARC
  5
2B2
330
1A
100
AcDbEntity
  8
NOKITOI
  6
PHANTOM
 62
     8
100
AcDbCircle
 10
310.3317354975565
 20
203.7140821779577
 30
0.0
 40
41.79999437547816
100
AcDbArc
 50
184.4742952125247
 51
269.999854592109
  0
ARC
  5
2B3
330
1A
100
AcDbEntity
  8
NOKITOI
  6
PHANTOM
 62
     8
100
AcDbCircle
 10
310.3317131891312
 20
203.7141022789841
 30
0.0
 40
43.00001447645168
100
AcDbArc
 50
186.5249107071177
 51
269.9998883751437
  0
LINE
  5
2C4
330
1A
100
AcDbEntity
  8
NOKITOI
  6
PHANTOM
 62
     8
100
AcDbLine
 10
350.9113294155886
 20
161.913987802614
 30
0.0
 11
331.0032294155889
 21
161.913987802614
 31
0.0
  0
LINE
  5
2C5
330
1A
100
AcDbEntity
  8
NOKITOI
  6
PHANTOM
 62
     8
100
AcDbLine
 10
351.1611294155887
 20
160.713987802614
 30
0.0
 11
331.0032294155889
 21
160.713987802614
 31
0.0
  0
ARC
  5
2C6
330
1A
100
AcDbEntity
  8
NOKITOI
  6
PHANTOM
 62
     8
100
AcDbCircle
 10
260.4720653747394
 20
201.2140529484708
 30
0.0
 40
1.499965146287778
100
AcDbArc
 50
181.7866280217767
 51
269.9986264296971
  0
ARC
  5
2C7
330
1A
100
AcDbEntity
  8
NOKITOI
  6
PHANTOM
 62
     8
100
AcDbCircle
 10
266.616720991426
 20
198.7140953176705
 30
0.0
 40
0.9999924849789756
100
AcDbArc
 50
6.528264606673934
 51
89.99951732740965
  0
ARC
  5
2D0
330
1A
100
AcDbEntity
  8
NOKITOI
  6
PHANTOM
 62
     8
100
AcDbCircle
 10
266.8595232144307
 20
212.7140943376992
 30
0.0
 40
0.4999934649531607
100
AcDbArc
 50
356.9955363203376
 51
89.99928939038076
  0
LINE
  5
2D1
330
1A
100
AcDbEntity
  8
NOKITOI
  6
PHANTOM
 62
     8
100
AcDbLine
 10
263.0544294155888
 20
214.5140878026142
 30
0.0
 11
262.5544294155888
 21
212.0140878026142
 31
0.0
  0
LINE
  5
2D2
330
1A
100
AcDbEntity
  8
NOKITOI
  6
PHANTOM
 62
     8
100
AcDbLine
 10
259.782029415589
 20
213.6890878026139
 30
0.0
 11
259.9314294155883
 21
208.9101878026141
 31
0.0
  0
LINE
  5
2D3
330
1A
100
AcDbEntity
  8
NOKITOI
  6
PHANTOM
 62
     8
100
AcDbLine
 10
258.5826294155885
 20
213.651587802614
 30
0.0
 11
258.9728294155884
 21
201.1672878026139
 31
0.0
  0
LINE
  5
2D4
330
1A
100
AcDbEntity
  8
NOKITOI
  6
PHANTOM
 62
     8
100
AcDbLine
 10
268.160629415589
 20
200.914087802614
 30
0.0
 11
262.1197294155886
 21
200.914087802614
 31
0.0
  0
LINE
  5
2D5
330
1A
100
AcDbEntity
  8
NOKITOI
  6
PHANTOM
 62
     8
100
AcDbLine
 10
267.0431294155887
 20
206.687887802614
 30
0.0
 11
267.3589294155886
 21
212.687787802614
 31
0.0
  0
LINE
  5
2D6
330
1A
100
AcDbEntity
  8
NOKITOI
  6
PHANTOM
 62
     8
100
AcDbLine
 10
264.4951294155889
 20
210.914087802614
 30
0.0
 11
265.4909294155886
 21
212.0140878026142
 31
0.0
  0
LINE
  5
2D7
330
1A
100
AcDbEntity
  8
NOKITOI
  6
PHANTOM
 62
     8
100
AcDbLine
 10
264.4951294155889
 20
210.914087802614
 30
0.0
 11
264.0332294155887
 21
210.914087802614
 31
0.0
  0
LINE
  5
2D8
330
1A
100
AcDbEntity
  8
NOKITOI
  6
PHANTOM
 62
     8
100
AcDbLine
 10
262.5544294155888
 20
212.0140878026142
 30
0.0
 11
265.4909294155886
 21
212.0140878026142
 31
0.0
  0
LINE
  5
2D9
330
1A
100
AcDbEntity
  8
NOKITOI
  6
PHANTOM
 62
     8
100
AcDbLine
 10
263.7997294155884
 20
206.7848878026142
 30
0.0
 11
264.1334294155885
 21
209.1210878026141
 31
0.0
  0
LINE
  5
2DA
330
1A
100
AcDbEntity
  8
NOKITOI
  6
PHANTOM
 62
     8
100
AcDbLine
 10
266.5437294155885
 20
206.214087802614
 30
0.0
 11
264.2946294155886
 21
206.214087802614
 31
0.0
  0
ARC
  5
2DB
330
1A
100
AcDbEntity
  8
NOKITOI
  6
PHANTOM
 62
     8
100
AcDbCircle
 10
264.2946560161863
 20
206.7140571257319
 30
0.0
 40
0.4999693238254178
100
AcDbArc
 50
171.8555038770531
 51
269.9969516090356
  0
LINE
  5
2DC
330
1A
100
AcDbEntity
  8
NOKITOI
  6
PHANTOM
 62
     8
100
AcDbLine
 10
265.8796294155886
 20
207.414087802614
 30
0.0
 11
265.101729415589
 21
207.414087802614
 31
0.0
  0
LINE
  5
2DD
330
1A
100
AcDbEntity
  8
NOKITOI
  6
PHANTOM
 62
     8
100
AcDbLine
 10
265.101729415589
 20
207.414087802614
 30
0.0
 11
265.5058294155888
 21
210.2424878026139
 31
0.0
  0
ARC
  5
2DE
330
1A
100
AcDbEntity
  8
NOKITOI
  6
PHANTOM
 62
     8
100
AcDbCircle
 10
263.638443634004
 20
209.191773168313
 30
0.0
 40
0.5000073448410256
100
AcDbArc
 50
351.872947864124
 51
96.47829282996916
  0
ARC
  5
2DF
330
1A
100
AcDbEntity
  8
NOKITOI
  6
PHANTOM
 62
     8
100
AcDbCircle
 10
264.0333496282578
 20
205.714146530994
 30
0.0
 40
5.2000412730095
100
AcDbArc
 50
90.0013245430618
 51
142.0757990790551
  0
LINE
  5
2E0
330
1A
100
AcDbEntity
  8
NOKITOI
  6
PHANTOM
 62
     8
100
AcDbLine
 10
265.5058294155888
 20
210.2424878026139
 30
0.0
 11
266.0608294155886
 21
210.8555878026141
 31
0.0
  0
LINE
  5
2E1
330
1A
100
AcDbEntity
  8
NOKITOI
  6
PHANTOM
 62
     8
100
AcDbLine
 10
265.8796294155886
 20
207.414087802614
 30
0.0
 11
266.0608294155886
 21
210.8555878026141
 31
0.0
  0
ARC
  5
2E2
330
1A
100
AcDbEntity
  8
NOKITOI
  6
PHANTOM
 62
     8
100
AcDbCircle
 10
266.5437225285936
 20
206.7140812675285
 30
0.0
 40
0.499993464961963
100
AcDbArc
 50
270.0007892017869
 51
356.997036131742
  0
ARC
  5
2E3
330
1A
100
AcDbEntity
  8
NOKITOI
  6
PHANTOM
 62
     8
100
AcDbCircle
 10
262.119742987727
 20
202.9140746475276
 30
0.0
 40
1.999986844959662
100
AcDbArc
 50
181.7875531852356
 51
269.9996111843215
  0
LINE
  5
2E4
330
1A
100
AcDbEntity
  8
NOKITOI
  6
PHANTOM
 62
     8
100
AcDbLine
 10
260.4720294155886
 20
199.714087802614
 30
0.0
 11
266.6167294155884
 21
199.714087802614
 31
0.0
  0
LINE
  5
2E5
330
1A
100
AcDbEntity
  8
NOKITOI
  6
PHANTOM
 62
     8
100
AcDbLine
 10
260.1207294155883
 20
202.851687802614
 30
0.0
 11
260.0352294155886
 21
205.589187802614
 31
0.0
  0
ARC
  5
2E6
330
1A
100
AcDbEntity
  8
NOKITOI
  6
PHANTOM
 62
     8
100
AcDbCircle
 10
268.1606419852969
 20
200.4140761778843
 30
0.0
 40
0.5000116248877111
100
AcDbArc
 50
4.474846808342103
 51
90.00144034898383
  0
ARC
  5
2E8
330
1A
100
AcDbEntity
  8
NOKITOI
  6
PHANTOM
 62
     8
100
AcDbCircle
 10
264.0332672970353
 20
205.7141315851394
 30
0.0
 40
3.999989731271038
100
AcDbArc
 50
96.47731142013119
 51
181.7899836067311
  0
LINE
  5
2E9
330
1A
100
AcDbEntity
  8
NOKITOI
  6
PHANTOM
 62
     8
100
AcDbLine
 10
264.1377294155886
 20
213.8121878026139
 30
0.0
 11
264.3985294155886
 21
215.116087802614
 31
0.0
  0
ARC
  5
2EA
330
1A
100
AcDbEntity
  8
NOKITOI
  6
PHANTOM
 62
     8
100
AcDbCircle
 10
264.6280221610331
 20
213.7140966524574
 30
0.0
 40
0.5000088498959383
100
AcDbArc
 50
168.6864043304892
 51
270.0008312961442
  0
ARC
  5
2EB
330
1A
100
AcDbEntity
  8
NOKITOI
  6
PHANTOM
 62
     8
100
AcDbCircle
 10
263.9082286325801
 20
215.2140887576157
 30
0.0
 40
0.4999990449987349
100
AcDbArc
 50
348.6967198015447
 51
89.99991027369492
  0
ARC
  5
2EC
330
1A
100
AcDbEntity
  8
NOKITOI
  6
PHANTOM
 62
     8
100
AcDbCircle
 10
260.5816339103867
 20
213.7140924401409
 30
0.0
 40
0.7999953624857498
100
AcDbArc
 50
90.00032191805264
 51
181.7911273464193
  0
LINE
  5
2ED
330
1A
100
AcDbEntity
  8
NOKITOI
  6
PHANTOM
 62
     8
100
AcDbLine
 10
260.5816294155884
 20
214.5140878026142
 30
0.0
 11
263.0544294155888
 21
214.5140878026142
 31
0.0
  0
LINE
  5
2EE
330
1A
100
AcDbEntity
  8
NOKITOI
  6
PHANTOM
 62
     8
100
AcDbLine
 10
260.5816294155884
 20
215.714087802614
 30
0.0
 11
263.9082294155887
 21
215.714087802614
 31
0.0
  0
LINE
  5
2EF
330
1A
100
AcDbEntity
  8
NOKITOI
  6
PHANTOM
 62
     8
100
AcDbLine
 10
266.8595294155884
 20
213.214087802614
 30
0.0
 11
264.6280294155885
 21
213.214087802614
 31
0.0
  0
ARC
  5
2F1
330
1A
100
AcDbEntity
  8
NOKITOI
  6
PHANTOM
 62
     8
100
AcDbCircle
 10
260.5816421664385
 20
213.7141009577004
 30
0.0
 40
1.999986844954076
100
AcDbArc
 50
90.00036528735451
 51
181.7883072882703
  0
LINE
  5
314
330
1A
100
AcDbEntity
  8
NOKITOI
  6
PHANTOM
 62
     8
100
AcDbLine
 10
368.3871294155887
 20
200.463887802614
 30
0.0
 11
365.3941294155884
 21
170.5340878026139
 31
0.0
  0
LINE
  5
315
330
1A
100
AcDbEntity
  8
NOKITOI
  6
PHANTOM
 62
     8
100
AcDbLine
 10
369.4281294155889
 20
198.813587802614
 30
0.0
 11
366.5593294155887
 21
170.1261878026139
 31
0.0
  0
LINE
  5
31B
330
1A
100
AcDbEntity
  8
NOKITOI
  6
PHANTOM
 62
     8
100
AcDbLine
 10
365.213229415589
 20
170.196787802614
 30
0.0
 11
355.2279294155887
 21
162.0269878026138
 31
0.0
  0
LINE
  5
31C
330
1A
100
AcDbEntity
  8
NOKITOI
  6
PHANTOM
 62
     8
100
AcDbLine
 10
366.1975294155886
 20
169.4516878026141
 30
0.0
 11
355.7944294155886
 21
160.9399878026141
 31
0.0
  0
ARC
  5
31D
330
1A
100
AcDbEntity
  8
NOKITOI
  6
PHANTOM
 62
     8
100
AcDbCircle
 10
354.9113358033373
 20
162.4139900826035
 30
0.0
 40
0.5000022800304047
100
AcDbArc
 50
269.9992680212791
 51
309.2854498596055
  0
ARC
  5
31E
330
1A
100
AcDbEntity
  8
NOKITOI
  6
PHANTOM
 62
     8
100
AcDbCircle
 10
355.1611224830112
 20
161.7139853276079
 30
0.0
 40
0.9999975250179316
100
AcDbArc
 50
270.0003972084035
 51
309.2946416752297
  0
ARC
  5
31F
330
1A
100
AcDbEntity
  8
NOKITOI
  6
PHANTOM
 62
     8
100
AcDbCircle
 10
364.8966119897104
 20
170.583755316226
 30
0.0
 40
0.4999904508696396
100
AcDbArc
 50
309.2900846377946
 51
354.2990110749239
  0
ARC
  5
320
330
1A
100
AcDbEntity
  8
NOKITOI
  6
PHANTOM
 62
     8
100
AcDbCircle
 10
365.5643068427198
 20
170.2256457309414
 30
0.0
 40
0.9999908507640039
100
AcDbArc
 50
309.288709223069
 51
354.2862329477532
  0
ARC
  5
323
330
1A
100
AcDbEntity
  8
NOKITOI
  6
PHANTOM
 62
     8
100
AcDbCircle
 10
376.5642466287668
 20
201.2141044857618
 30
0.0
 40
1.500016683246579
100
AcDbArc
 50
269.9993425123344
 51
358.2076423244113
  0
ARC
  5
324
330
1A
100
AcDbEntity
  8
NOKITOI
  6
PHANTOM
 62
     8
100
AcDbCircle
 10
370.4231500654295
 20
198.7141064904632
 30
0.0
 40
0.9999813123640345
100
AcDbArc
 50
90.00118317084911
 51
174.2905900333514
  0
ARC
  5
32E
330
1A
100
AcDbEntity
  8
NOKITOI
  6
PHANTOM
 62
     8
100
AcDbCircle
 10
376.4546181785945
 20
213.7140993964311
 30
0.0
 40
1.999988406214315
100
AcDbArc
 50
358.2088726535936
 51
89.99967808195551
  0
LINE
  5
32F
330
1A
100
AcDbEntity
  8
NOKITOI
  6
PHANTOM
 62
     8
100
AcDbLine
 10
378.4536294155886
 20
213.651587802614
 30
0.0
 11
378.0635294155886
 21
201.1671878026139
 31
0.0
  0
LINE
  5
330
330
1A
100
AcDbEntity
  8
NOKITOI
  6
PHANTOM
 62
     8
100
AcDbLine
 10
373.9819294155886
 20
214.5140878026142
 30
0.0
 11
374.4819294155886
 21
212.0140878026142
 31
0.0
  0
ARC
  5
331
330
1A
100
AcDbEntity
  8
NOKITOI
  6
PHANTOM
 62
     8
100
AcDbCircle
 10
370.1767331250839
 20
212.7140917126447
 30
0.0
 40
0.4999960899831856
100
AcDbArc
 50
90.00042508015082
 51
183.0156217414647
  0
LINE
  5
332
330
1A
100
AcDbEntity
  8
NOKITOI
  6
PHANTOM
 62
     8
100
AcDbLine
 10
377.2542294155882
 20
213.6890878026139
 30
0.0
 11
377.1049294155886
 21
208.9100878026141
 31
0.0
  0
ARC
  5
336
330
1A
100
AcDbEntity
  8
NOKITOI
  6
PHANTOM
 62
     8
100
AcDbCircle
 10
373.0030984886525
 20
205.7141235472778
 30
0.0
 40
3.99998565374706
100
AcDbArc
 50
358.208696659101
 51
83.5242238046835
  0
ARC
  5
337
330
1A
100
AcDbEntity
  8
NOKITOI
  6
PHANTOM
 62
     8
100
AcDbCircle
 10
373.0031115492374
 20
205.7140965309939
 30
0.0
 40
5.199991271650611
100
AcDbArc
 50
37.92532860472995
 51
89.9998031407256
  0
ARC
  5
338
330
1A
100
AcDbEntity
  8
NOKITOI
  6
PHANTOM
 62
     8
100
AcDbCircle
 10
374.9165674034129
 20
202.9140246231862
 30
0.0
 40
2.000036820932882
100
AcDbArc
 50
269.9989117490344
 51
358.2110591274195
  0
LINE
  5
339
330
1A
100
AcDbEntity
  8
NOKITOI
  6
PHANTOM
 62
     8
100
AcDbLine
 10
376.5642294155886
 20
199.714087802614
 30
0.0
 11
370.4231294155888
 21
199.714087802614
 31
0.0
  0
LINE
  5
33A
330
1A
100
AcDbEntity
  8
NOKITOI
  6
PHANTOM
 62
     8
100
AcDbLine
 10
372.5411294155887
 20
210.914087802614
 30
0.0
 11
371.5453294155886
 21
212.0140878026142
 31
0.0
  0
LINE
  5
33B
330
1A
100
AcDbEntity
  8
NOKITOI
  6
PHANTOM
 62
     8
100
AcDbLine
 10
372.5411294155887
 20
210.914087802614
 30
0.0
 11
373.0031294155887
 21
210.914087802614
 31
0.0
  0
LINE
  5
33C
330
1A
100
AcDbEntity
  8
NOKITOI
  6
PHANTOM
 62
     8
100
AcDbLine
 10
373.2366294155886
 20
206.784787802614
 30
0.0
 11
372.9028294155887
 21
209.1209878026142
 31
0.0
  0
ARC
  5
33D
330
1A
100
AcDbEntity
  8
NOKITOI
  6
PHANTOM
 62
     8
100
AcDbCircle
 10
372.7416396020248
 20
206.7140995473381
 30
0.0
 40
0.5000117448278309
100
AcDbArc
 50
269.9988327478016
 51
8.127314608715551
  0
ARC
  5
33E
330
1A
100
AcDbEntity
  8
NOKITOI
  6
PHANTOM
 62
     8
100
AcDbCircle
 10
370.4925335369953
 20
206.7140838925835
 30
0.0
 40
0.4999960899864752
100
AcDbArc
 50
183.0147243791741
 51
269.9995277178593
  0
LINE
  5
33F
330
1A
100
AcDbEntity
  8
NOKITOI
  6
PHANTOM
 62
     8
100
AcDbLine
 10
370.4925294155887
 20
206.214087802614
 30
0.0
 11
372.7416294155882
 21
206.214087802614
 31
0.0
  0
LINE
  5
340
330
1A
100
AcDbEntity
  8
NOKITOI
  6
PHANTOM
 62
     8
100
AcDbLine
 10
371.1566294155886
 20
207.414087802614
 30
0.0
 11
371.9345294155882
 21
207.414087802614
 31
0.0
  0
LINE
  5
341
330
1A
100
AcDbEntity
  8
NOKITOI
  6
PHANTOM
 62
     8
100
AcDbLine
 10
371.9345294155882
 20
207.414087802614
 30
0.0
 11
371.5305294155887
 21
210.2424878026139
 31
0.0
  0
LINE
  5
342
330
1A
100
AcDbEntity
  8
NOKITOI
  6
PHANTOM
 62
     8
100
AcDbLine
 10
369.9932294155887
 20
206.687787802614
 30
0.0
 11
369.6774294155884
 21
212.687787802614
 31
0.0
  0
LINE
  5
343
330
1A
100
AcDbEntity
  8
NOKITOI
  6
PHANTOM
 62
     8
100
AcDbLine
 10
371.5305294155887
 20
210.2424878026139
 30
0.0
 11
370.9755294155884
 21
210.855487802614
 31
0.0
  0
LINE
  5
344
330
1A
100
AcDbEntity
  8
NOKITOI
  6
PHANTOM
 62
     8
100
AcDbLine
 10
371.1566294155886
 20
207.414087802614
 30
0.0
 11
370.9755294155884
 21
210.855487802614
 31
0.0
  0
ARC
  5
345
330
1A
100
AcDbEntity
  8
NOKITOI
  6
PHANTOM
 62
     8
100
AcDbCircle
 10
373.3978587880883
 20
209.1917180351089
 30
0.0
 40
0.4999578477751074
100
AcDbArc
 50
83.52609071220751
 51
188.1330561712932
  0
LINE
  5
346
330
1A
100
AcDbEntity
  8
NOKITOI
  6
PHANTOM
 62
     8
100
AcDbLine
 10
374.4819294155886
 20
212.0140878026142
 30
0.0
 11
371.5453294155886
 21
212.0140878026142
 31
0.0
  0
ARC
  5
347
330
1A
100
AcDbEntity
  8
NOKITOI
  6
PHANTOM
 62
     8
100
AcDbCircle
 10
368.8846424865932
 20
200.4140996328938
 30
0.0
 40
0.499988169890889
100
AcDbArc
 50
90.00149786226634
 51
174.2966061377162
  0
LINE
  5
348
330
1A
100
AcDbEntity
  8
NOKITOI
  6
PHANTOM
 62
     8
100
AcDbLine
 10
368.8846294155883
 20
200.914087802614
 30
0.0
 11
374.9165294155886
 21
200.914087802614
 31
0.0
  0
LINE
  5
349
330
1A
100
AcDbEntity
  8
NOKITOI
  6
PHANTOM
 62
     8
100
AcDbLine
 10
376.9156294155886
 20
202.8514878026141
 30
0.0
 11
377.0011294155883
 21
205.589087802614
 31
0.0
  0
LINE
  5
34A
330
1A
100
AcDbEntity
  8
NOKITOI
  6
PHANTOM
 62
     8
100
AcDbLine
 10
376.4546294155889
 20
214.513987802614
 30
0.0
 11
373.9819294155886
 21
214.5140878026142
 31
0.0
  0
LINE
  5
34B
330
1A
100
AcDbEntity
  8
NOKITOI
  6
PHANTOM
 62
     8
100
AcDbLine
 10
376.4546294155889
 20
215.713987802614
 30
0.0
 11
373.1280294155885
 21
215.714087802614
 31
0.0
  0
LINE
  5
34E
330
1A
100
AcDbEntity
  8
NOKITOI
  6
PHANTOM
 62
     8
100
AcDbLine
 10
372.8985294155886
 20
213.8120878026142
 30
0.0
 11
372.6377294155886
 21
215.116087802614
 31
0.0
  0
ARC
  5
34F
330
1A
100
AcDbEntity
  8
NOKITOI
  6
PHANTOM
 62
     8
100
AcDbCircle
 10
372.4082286325801
 20
213.7140868476123
 30
0.0
 40
0.4999990449987399
100
AcDbArc
 50
270.000089726305
 51
11.30328019845521
  0
ARC
  5
350
330
1A
100
AcDbEntity
  8
NOKITOI
  6
PHANTOM
 62
     8
100
AcDbCircle
 10
373.1280221610331
 20
215.2140789527706
 30
0.0
 40
0.500008849895925
100
AcDbArc
 50
89.99916870385415
 51
191.3135956695126
  0
LINE
  5
351
330
1A
100
AcDbEntity
  8
NOKITOI
  6
PHANTOM
 62
     8
100
AcDbLine
 10
370.1767294155888
 20
213.214087802614
 30
0.0
 11
372.4082294155887
 21
213.214087802614
 31
0.0
  0
ARC
  5
352
330
1A
100
AcDbEntity
  8
NOKITOI
  6
PHANTOM
 62
     8
100
AcDbCircle
 10
376.4546733819415
 20
213.714042440141
 30
0.0
 40
0.7999453636812564
100
AcDbArc
 50
358.2123436447881
 51
90.00314907315425
  0
TEXT
  5
35E
330
1A
100
AcDbEntity
  8
SUNPOU
  6
CONTINUOUS
 62
     4
100
AcDbText
 10
619.2626334298515
 20
279.1155605014789
 30
0.0
 40
6.0
  1
10
100
AcDbText
  0
LINE
  5
35F
330
1A
100
AcDbEntity
  8
SUNPOU
  6
CONTINUOUS
 62
     4
100
AcDbLine
 10
610.6983863850833
 20
287.0905200998866
 30
0.0
 11
630.698386385083
 21
287.0905200998866
 31
0.0
  0
LINE
  5
360
330
1A
100
AcDbEntity
  8
SUNPOU
  6
CONTINUOUS
 62
     4
100
AcDbLine
 10
630.698386385083
 20
295.0905200998866
 30
0.0
 11
610.6983863850833
 21
287.0905200998866
 31
0.0
  0
LINE
  5
361
330
1A
100
AcDbEntity
  8
SUNPOU
  6
CONTINUOUS
 62
     4
100
AcDbLine
 10
630.698386385083
 20
287.0905200998866
 30
0.0
 11
630.698386385083
 21
295.0905200998866
 31
0.0
  0
TEXT
  5
362
330
1A
100
AcDbEntity
  8
SUNPOU
  6
CONTINUOUS
 62
     4
100
AcDbText
 10
634.9930848534415
 20
288.248334970915
 30
0.0
 40
6.0
  1
4
100
AcDbText
  0
ARC
  5
8F4
330
1A
100
AcDbEntity
  8
SEIHIN
 62
     3
100
AcDbCircle
 10
405.3015104452969
 20
392.3130055489103
 30
0.0
 40
9.351315722326162
100
AcDbArc
 50
188.3086397396297
 51
270.0000000367604
  0
ARC
  5
8F5
330
1A
100
AcDbEntity
  8
SEIHIN
 62
     3
100
AcDbCircle
 10
405.3015104452969
 20
397.0237949889103
 30
0.0
 40
11.06210516228768
100
AcDbArc
 50
213.2303554922619
 51
270.0000000362556
  0
ARC
  5
8F6
330
1A
100
AcDbEntity
  8
SEIHIN
 62
     3
100
AcDbCircle
 10
405.3015104452969
 20
371.8995846689104
 30
0.0
 40
11.06210515680762
100
AcDbArc
 50
90.00000001035688
 51
146.7696445943884
  0
ARC
  5
8F8
330
1A
100
AcDbEntity
  8
SEIHIN
 62
     3
100
AcDbCircle
 10
392.4540312562969
 20
204.5778443674194
 30
0.0
 40
10.25478336358967
100
AcDbArc
 50
290.5179792632314
 51
326.0024665446501
  0
ARC
  5
8F9
330
1A
100
AcDbEntity
  8
SEIHIN
 62
     3
100
AcDbCircle
 10
401.3530290542969
 20
181.8440491674194
 30
0.0
 40
11.16067807478394
100
AcDbArc
 50
79.4795287087274
 51
112.0000479657877
  0
ARC
  5
8FA
330
1A
100
AcDbEntity
  8
SEIHIN
 62
     3
100
AcDbCircle
 10
398.8444490622969
 20
187.8514248674195
 30
0.0
 40
7.651378348542147
100
AcDbArc
 50
59.43529395423555
 51
111.434602753931
  0
ARC
  5
8FD
330
1A
100
AcDbEntity
  8
SEIHIN
 62
     3
100
AcDbCircle
 10
276.8770915962969
 20
208.4227758574194
 30
0.0
 40
2.000000001052705
100
AcDbArc
 50
270.0
 51
299.9999999651758
  0
ARC
  5
8FF
330
1A
100
AcDbEntity
  8
SEIHIN
 62
     3
100
AcDbCircle
 10
276.8235031962969
 20
208.6227758574194
 30
0.0
 40
6.70000001483484
100
AcDbArc
 50
270.0
 51
300.0000087406067
  0
LINE
  5
900
330
1A
100
AcDbEntity
  8
SEIHIN
 62
     3
100
AcDbLine
 10
262.2838478962969
 20
208.2063012474194
 30
0.0
 11
263.0739634962969
 21
207.1915460374194
 31
0.0
  0
ARC
  5
901
330
1A
100
AcDbEntity
  8
SEIHIN
 62
     3
100
AcDbCircle
 10
269.1847865962969
 20
203.7771878574194
 30
0.0
 40
6.999999998144283
100
AcDbArc
 50
137.9753724543312
 51
180.0000000818504
  0
ARC
  5
902
330
1A
100
AcDbEntity
  8
SEIHIN
 62
     3
100
AcDbCircle
 10
269.1847865962969
 20
203.7771878574194
 30
0.0
 40
8.200000025865952
100
AcDbArc
 50
136.4895916441825
 51
180.0000000698716
  0
LINE
  5
903
330
1A
100
AcDbEntity
  8
SEIHIN
 62
     3
100
AcDbLine
 10
264.1098714962969
 20
203.1227758574194
 30
0.0
 11
262.4075780962968
 21
205.5035507074194
 31
0.0
  0
ARC
  5
904
330
1A
100
AcDbEntity
  8
SEIHIN
 62
     3
100
AcDbCircle
 10
262.6847865962969
 20
203.6227758574194
 30
0.0
 40
1.700000020814075
100
AcDbArc
 50
180.0820145529315
 51
270.0
  0
ARC
  5
905
330
1A
100
AcDbEntity
  8
SEIHIN
 62
     3
100
AcDbCircle
 10
262.6847865962969
 20
203.6227758574194
 30
0.0
 40
0.5
100
AcDbArc
 50
180.0
 51
270.0
  0
ARC
  5
906
330
1A
100
AcDbEntity
  8
SEIHIN
 62
     3
100
AcDbCircle
 10
262.6847865962969
 20
203.6227758574194
 30
0.0
 40
1.700000020814068
100
AcDbArc
 50
180.0000003370341
 51
180.0820145529315
  0
LINE
  5
907
330
1A
100
AcDbEntity
  8
SEIHIN
 62
     3
100
AcDbLine
 10
260.9847865962969
 20
203.7771878574194
 30
0.0
 11
260.9847865962969
 21
203.6227758574194
 31
0.0
  0
LINE
  5
908
330
1A
100
AcDbEntity
  8
SEIHIN
 62
     3
100
AcDbLine
 10
262.1847865962969
 20
203.6227758574194
 30
0.0
 11
262.1847865962969
 21
203.7771878574194
 31
0.0
  0
LINE
  5
909
330
1A
100
AcDbEntity
  8
SEIHIN
 62
     3
100
AcDbLine
 10
267.5847865962968
 20
204.4227758574194
 30
0.0
 11
267.5847865962968
 21
201.9227758574194
 31
0.0
  0
LINE
  5
90B
330
1A
100
AcDbEntity
  8
SEIHIN
 62
     3
100
AcDbLine
 10
276.8235031962969
 20
201.9227758574194
 30
0.0
 11
262.6847865962969
 21
201.9227758574194
 31
0.0
  0
LINE
  5
90C
330
1A
100
AcDbEntity
  8
SEIHIN
 62
     3
100
AcDbLine
 10
262.6847865962969
 20
203.1227758574194
 30
0.0
 11
267.5847865962968
 21
203.1227758574194
 31
0.0
  0
LINE
  5
90D
330
1A
100
AcDbEntity
  8
SEIHIN
 62
     3
100
AcDbLine
 10
269.5847865962968
 20
206.4227758574194
 30
0.0
 11
276.8770915962969
 21
206.4227758574194
 31
0.0
  0
LINE
  5
90E
330
1A
100
AcDbEntity
  8
SEIHIN
 62
     3
100
AcDbLine
 10
263.9847865962969
 20
208.4633376574194
 30
0.0
 11
263.2377422962969
 21
209.4227758574194
 31
0.0
  0
ARC
  5
90F
330
1A
100
AcDbEntity
  8
SEIHIN
 62
     3
100
AcDbCircle
 10
269.5847865962968
 20
204.4227758574194
 30
0.0
 40
2.0
100
AcDbArc
 50
90.0
 51
180.0000002864791
  0
LINE
  5
911
330
1A
100
AcDbEntity
  8
SEIHIN
 62
     3
100
AcDbLine
 10
285.4847865962969
 20
209.9227758574194
 30
0.0
 11
344.8885855662969
 21
209.9227758574194
 31
0.0
  0
ARC
  5
913
330
1A
100
AcDbEntity
  8
SEIHIN
 62
     3
100
AcDbCircle
 10
336.7647865662969
 20
205.1186088574194
 30
0.0
 40
5.704166995525981
100
AcDbArc
 50
57.37535862169602
 51
122.624641432457
  0
LINE
  5
914
330
1A
100
AcDbEntity
  8
SEIHIN
 62
     3
100
AcDbLine
 10
334.7647865662969
 20
205.4227758574194
 30
0.0
 11
338.7647865662969
 21
205.4227758574194
 31
0.0
  0
LINE
  5
915
330
1A
100
AcDbEntity
  8
SEIHIN
 62
     3
100
AcDbLine
 10
334.6813025662969
 20
204.8227758574194
 30
0.0
 11
338.8482715662969
 21
204.8227758574194
 31
0.0
  0
LINE
  5
916
330
1A
100
AcDbEntity
  8
SEIHIN
 62
     3
100
AcDbLine
 10
285.4847865962969
 20
205.4227758574194
 30
0.0
 11
334.7647865662969
 21
205.4227758574194
 31
0.0
  0
LINE
  5
918
330
1A
100
AcDbEntity
  8
SEIHIN
 62
     3
100
AcDbLine
 10
283.9847865962969
 20
205.0208518574194
 30
0.0
 11
280.1735040962969
 21
202.8204061374194
 31
0.0
  0
ARC
  5
919
330
1A
100
AcDbEntity
  8
SEIHIN
 62
     3
100
AcDbCircle
 10
285.4847865962969
 20
202.4227758574194
 30
0.0
 40
2.999999999413997
100
AcDbArc
 50
90.0
 51
120.0000000129247
  0
ARC
  5
91B
330
1A
100
AcDbEntity
  8
SEIHIN
 62
     3
100
AcDbCircle
 10
285.4847865962969
 20
202.4227758574194
 30
0.0
 40
7.499999996369929
100
AcDbArc
 50
90.0
 51
120.0000000320229
  0
LINE
  5
91D
330
1A
100
AcDbEntity
  8
SEIHIN
 62
     3
100
AcDbLine
 10
277.8770915962969
 20
206.6907248574194
 30
0.0
 11
281.7347865962969
 21
208.9179658574194
 31
0.0
  0
ARC
  5
925
330
1A
100
AcDbEntity
  8
SEIHIN
 62
     3
100
AcDbCircle
 10
334.6813025662969
 20
205.8227758574194
 30
0.0
 40
1.000000000462305
100
AcDbArc
 50
203.578178455081
 51
270.0
  0
LINE
  5
928
330
1A
100
AcDbEntity
  8
SEIHIN
 62
     3
100
AcDbLine
 10
381.2147865662969
 20
217.1227758574194
 30
0.0
 11
381.2147865662969
 21
196.1227758574194
 31
0.0
  0
LINE
  5
929
330
1A
100
AcDbEntity
  8
SEIHIN
 62
     3
100
AcDbLine
 10
350.7637205662969
 20
215.5546528574194
 30
0.0
 11
349.9873572462969
 21
210.6528830774194
 31
0.0
  0
LINE
  5
92A
330
1A
100
AcDbEntity
  8
SEIHIN
 62
     3
100
AcDbLine
 10
381.2147865662969
 20
217.4227758574194
 30
0.0
 11
381.2147865662969
 21
204.6588438574194
 31
0.0
  0
LINE
  5
92B
330
1A
100
AcDbEntity
  8
SEIHIN
 62
     3
100
AcDbLine
 10
380.2147865662969
 20
217.4227758574194
 30
0.0
 11
380.2147865662969
 21
200.7227758574194
 31
0.0
  0
LINE
  5
92C
330
1A
100
AcDbEntity
  8
SEIHIN
 62
     3
100
AcDbLine
 10
384.2147865662969
 20
217.1227758574194
 30
0.0
 11
384.2147865662969
 21
196.1227758574194
 31
0.0
  0
LINE
  5
92D
330
1A
100
AcDbEntity
  8
SEIHIN
 62
     3
100
AcDbLine
 10
343.3605827062969
 20
211.8463193874194
 30
0.0
 11
345.2598552662969
 21
218.9345076074194
 31
0.0
  0
LINE
  5
92E
330
1A
100
AcDbEntity
  8
SEIHIN
 62
     3
100
AcDbLine
 10
379.0147865662969
 20
217.4227758574194
 30
0.0
 11
379.0147865662969
 21
200.7227758574194
 31
0.0
  0
LINE
  5
92F
330
1A
100
AcDbEntity
  8
SEIHIN
 62
     3
100
AcDbLine
 10
360.4183145662969
 20
216.9734948574194
 30
0.0
 11
355.8310595662969
 21
206.4228078574194
 31
0.0
  0
LINE
  5
930
330
1A
100
AcDbEntity
  8
SEIHIN
 62
     3
100
AcDbLine
 10
346.3191235662969
 20
216.2586078574193
 30
0.0
 11
345.3824295662969
 21
210.3445578574194
 31
0.0
  0
LINE
  5
932
330
1A
100
AcDbEntity
  8
SEIHIN
 62
     3
100
AcDbLine
 10
353.4283575662969
 20
217.0227758574194
 30
0.0
 11
353.4283575662969
 21
212.1901078574194
 31
0.0
  0
LINE
  5
933
330
1A
100
AcDbEntity
  8
SEIHIN
 62
     3
100
AcDbLine
 10
353.0283575662969
 20
217.0227758574194
 30
0.0
 11
353.0283575662969
 21
212.1901078574194
 31
0.0
  0
LINE
  5
935
330
1A
100
AcDbEntity
  8
SEIHIN
 62
     3
100
AcDbLine
 10
366.8310595662969
 20
210.6164848574194
 30
0.0
 11
366.8310595662969
 21
216.5754058574194
 31
0.0
  0
ARC
  5
936
330
1A
100
AcDbEntity
  8
SEIHIN
 62
     3
100
AcDbCircle
 10
352.0283575662969
 20
212.1901078574194
 30
0.0
 40
1.00000000242602
100
AcDbArc
 50
285.0000002160139
 51
0.0
  0
ARC
  5
937
330
1A
100
AcDbEntity
  8
SEIHIN
 62
     3
100
AcDbCircle
 10
352.0283575662969
 20
212.1901078574194
 30
0.0
 40
1.400000001136407
100
AcDbArc
 50
284.9999998418851
 51
0.0
  0
LINE
  5
938
330
1A
100
AcDbEntity
  8
SEIHIN
 62
     3
100
AcDbLine
 10
351.0238115662969
 20
206.4228078574194
 30
0.0
 11
365.8310595662969
 21
206.4228078574194
 31
0.0
  0
LINE
  5
939
330
1A
100
AcDbEntity
  8
SEIHIN
 62
     3
100
AcDbLine
 10
351.0238115662969
 20
206.4228078574194
 30
0.0
 11
365.8310595662969
 21
206.4228078574194
 31
0.0
  0
LINE
  5
93A
330
1A
100
AcDbEntity
  8
SEIHIN
 62
     3
100
AcDbLine
 10
351.0074595662969
 20
206.8228078574194
 30
0.0
 11
356.0049725662969
 21
206.8228078574194
 31
0.0
  0
ARC
  5
93B
330
1A
100
AcDbEntity
  8
SEIHIN
 62
     3
100
AcDbCircle
 10
344.8885855662969
 20
210.4227758574194
 30
0.0
 40
0.5000000004381011
100
AcDbArc
 50
270.0
 51
350.9999991480861
  0
ARC
  5
93E
330
1A
100
AcDbEntity
  8
SEIHIN
 62
     3
100
AcDbCircle
 10
343.8636893962969
 20
211.6227758574194
 30
0.0
 40
6.199999997654025
100
AcDbArc
 50
270.0
 51
351.0000084443393
  0
LINE
  5
942
330
1A
100
AcDbEntity
  8
SEIHIN
 62
     3
100
AcDbLine
 10
338.7647865662969
 20
205.4227758574194
 30
0.0
 11
343.8636893962969
 21
205.4227758574194
 31
0.0
  0
ARC
  5
945
330
1A
100
AcDbEntity
  8
SEIHIN
 62
     3
100
AcDbCircle
 10
338.8482705662969
 20
205.8227758574194
 30
0.0
 40
1.000000000462305
100
AcDbArc
 50
270.0
 51
336.421821544919
  0
ARC
  5
949
330
1A
100
AcDbEntity
  8
SEIHIN
 62
     3
100
AcDbCircle
 10
340.4628050562969
 20
212.6227758574194
 30
0.0
 40
2.999999995886311
100
AcDbArc
 50
295.8419327105302
 51
345.0000131193997
  0
ARC
  5
94A
330
1A
100
AcDbEntity
  8
SEIHIN
 62
     3
100
AcDbCircle
 10
351.0238115662969
 20
208.6155598574194
 30
0.0
 40
1.792751996555905
100
AcDbArc
 50
105.0000000343158
 51
131.4901295096818
  0
ARC
  5
94B
330
1A
100
AcDbEntity
  8
SEIHIN
 62
     3
100
AcDbCircle
 10
351.0238115662969
 20
208.6155598574194
 30
0.0
 40
2.192751996560394
100
AcDbArc
 50
105.000000080988
 51
118.7852858525369
  0
LINE
  5
94C
330
1A
100
AcDbEntity
  8
SEIHIN
 62
     3
100
AcDbLine
 10
350.5476935662969
 20
210.3439788574194
 30
0.0
 11
352.3907035662968
 21
210.8378118574194
 31
0.0
  0
LINE
  5
94D
330
1A
100
AcDbEntity
  8
SEIHIN
 62
     3
100
AcDbLine
 10
350.4562855662969
 20
210.7335958574194
 30
0.0
 11
352.2871765662969
 21
211.2241818574194
 31
0.0
  0
LINE
  5
94E
330
1A
100
AcDbEntity
  8
SEIHIN
 62
     3
100
AcDbLine
 10
356.0110595662969
 20
206.8228078574194
 30
0.0
 11
365.8310595662969
 21
206.8228078574194
 31
0.0
  0
LINE
  5
94F
330
1A
100
AcDbEntity
  8
SEIHIN
 62
     3
100
AcDbLine
 10
354.1179865662969
 20
206.4228078574194
 30
0.0
 11
354.1179865662969
 21
206.8228078574195
 31
0.0
  0
LINE
  5
950
330
1A
100
AcDbEntity
  8
SEIHIN
 62
     3
100
AcDbLine
 10
366.8310595662969
 20
210.4164848574194
 30
0.0
 11
365.8310595662969
 21
206.4228078574194
 31
0.0
  0
LINE
  5
951
330
1A
100
AcDbEntity
  8
SEIHIN
 62
     3
100
AcDbLine
 10
363.1179865662969
 20
206.4228078574194
 30
0.0
 11
363.1179865662969
 21
206.8228078574194
 31
0.0
  0
LINE
  5
952
330
1A
100
AcDbEntity
  8
SEIHIN
 62
     3
100
AcDbLine
 10
365.8310595662969
 20
206.4228078574194
 30
0.0
 11
365.8310595662969
 21
206.8228078574194
 31
0.0
  0
ARC
  5
953
330
1A
100
AcDbEntity
  8
SEIHIN
 62
     3
100
AcDbCircle
 10
388.2147865662969
 20
196.1227758574194
 30
0.0
 40
4.000000001850274
100
AcDbArc
 50
270.0
 51
292.0398633092512
  0
ARC
  5
954
330
1A
100
AcDbEntity
  8
SEIHIN
 62
     3
100
AcDbCircle
 10
388.2147865662969
 20
196.1227758574194
 30
0.0
 40
4.0
100
AcDbArc
 50
180.0000001432396
 51
270.0
  0
LINE
  5
955
330
1A
100
AcDbEntity
  8
SEIHIN
 62
     3
100
AcDbLine
 10
370.7095062062969
 20
197.2639568474194
 30
0.0
 11
373.2459325062969
 21
187.7978836174194
 31
0.0
  0
LINE
  5
956
330
1A
100
AcDbEntity
  8
SEIHIN
 62
     3
100
AcDbLine
 10
369.5503952062969
 20
196.9533740274194
 30
0.0
 11
372.0868215062969
 21
187.4873008074194
 31
0.0
  0
ARC
  5
957
330
1A
100
AcDbEntity
  8
SEIHIN
 62
     3
100
AcDbCircle
 10
388.2147865662969
 20
196.1227758574194
 30
0.0
 40
6.999999998846761
100
AcDbArc
 50
204.0886794863611
 51
270.0000000818488
  0
LINE
  5
958
330
1A
100
AcDbEntity
  8
SEIHIN
 62
     3
100
AcDbLine
 10
372.7282944862969
 20
189.7297352874194
 30
0.0
 11
371.5691834962969
 21
189.4191524374194
 31
0.0
  0
LINE
  5
959
330
1A
100
AcDbEntity
  8
SEIHIN
 62
     3
100
AcDbLine
 10
372.0868215162969
 20
187.4873007674194
 30
0.0
 11
373.2459325062969
 21
187.7978836174194
 31
0.0
  0
ARC
  5
95A
330
1A
100
AcDbEntity
  8
SEIHIN
 62
     3
100
AcDbCircle
 10
388.2147865662969
 20
196.1227758574194
 30
0.0
 40
7.000000001165968
100
AcDbArc
 50
270.0000000818488
 51
292.0301337582653
  0
LINE
  5
95B
330
1A
100
AcDbEntity
  8
SEIHIN
 62
     3
100
AcDbLine
 10
390.8404458162969
 20
189.6338688974194
 30
0.0
 11
397.1721567962969
 21
192.1920461874194
 31
0.0
  0
ARC
  5
95C
330
1A
100
AcDbEntity
  8
SEIHIN
 62
     3
100
AcDbCircle
 10
378.2147865662969
 20
204.6588438574194
 30
0.0
 40
3.000000004265107
100
AcDbArc
 50
311.8103150062962
 51
0.0
  0
LINE
  5
95D
330
1A
100
AcDbEntity
  8
SEIHIN
 62
     3
100
AcDbLine
 10
371.6614842262969
 20
199.7227758574194
 30
0.0
 11
378.0147865662969
 21
199.7227758574194
 31
0.0
  0
LINE
  5
95E
330
1A
100
AcDbEntity
  8
SEIHIN
 62
     3
100
AcDbLine
 10
371.6754320362969
 20
198.5227758574195
 30
0.0
 11
378.0147865662969
 21
198.5227758574195
 31
0.0
  0
ARC
  5
95F
330
1A
100
AcDbEntity
  8
SEIHIN
 62
     3
100
AcDbCircle
 10
371.6754320362969
 20
197.5227758574195
 30
0.0
 40
2.199999996916341
100
AcDbArc
 50
180.0000002604354
 51
194.9999981765602
  0
ARC
  5
960
330
1A
100
AcDbEntity
  8
SEIHIN
 62
     3
100
AcDbCircle
 10
371.6754320362969
 20
197.5227758574195
 30
0.0
 40
2.199999994483917
100
AcDbArc
 50
90.20054527422605
 51
105.0000000722989
  0
ARC
  5
961
330
1A
100
AcDbEntity
  8
SEIHIN
 62
     3
100
AcDbCircle
 10
371.6754320362969
 20
197.5227758574195
 30
0.0
 40
0.9999999972496434
100
AcDbArc
 50
90.0
 51
194.9999980022748
  0
ARC
  5
962
330
1A
100
AcDbEntity
  8
SEIHIN
 62
     3
100
AcDbCircle
 10
371.6754320362969
 20
197.5227758574195
 30
0.0
 40
2.199999996315752
100
AcDbArc
 50
105.0000000722989
 51
180.0000002604354
  0
ARC
  5
963
330
1A
100
AcDbEntity
  8
SEIHIN
 62
     3
100
AcDbCircle
 10
371.6754320362969
 20
197.5227758574195
 30
0.0
 40
2.199999998168167
100
AcDbArc
 50
90.0
 51
90.20054527422605
  0
ARC
  5
964
330
1A
100
AcDbEntity
  8
SEIHIN
 62
     3
100
AcDbCircle
 10
388.2147865662969
 20
196.1227758574194
 30
0.0
 40
6.999999998846761
100
AcDbArc
 50
180.0000000818504
 51
204.0886794863611
  0
ARC
  5
965
330
1A
100
AcDbEntity
  8
SEIHIN
 62
     3
100
AcDbCircle
 10
378.0147865662969
 20
200.7227758574194
 30
0.0
 40
1.0
100
AcDbArc
 50
270.0
 51
0.0
  0
ARC
  5
966
330
1A
100
AcDbEntity
  8
SEIHIN
 62
     3
100
AcDbCircle
 10
378.0147865662969
 20
200.7227758574194
 30
0.0
 40
2.200000000000001
100
AcDbArc
 50
270.0
 51
0.0
  0
LINE
  5
967
330
1A
100
AcDbEntity
  8
SEIHIN
 62
     3
100
AcDbLine
 10
389.7157929062969
 20
192.4150838574194
 30
0.0
 11
396.0483460362969
 21
194.9736013974194
 31
0.0
  0
LINE
  5
968
330
1A
100
AcDbEntity
  8
SEIHIN
 62
     3
100
AcDbLine
 10
395.9026582162969
 20
194.9147400474194
 30
0.0
 11
395.5023842262969
 21
194.7530188574194
 31
0.0
  0
LINE
  5
96A
330
1A
100
AcDbEntity
  8
SEIHIN
 62
     3
100
AcDbLine
 10
378.0147865662969
 20
218.4227758574194
 30
0.0
 11
360.8679865662969
 21
218.4227758574194
 31
0.0
  0
LINE
  5
96B
330
1A
100
AcDbEntity
  8
SEIHIN
 62
     3
100
AcDbLine
 10
354.1218615662969
 20
222.9227758574194
 30
0.0
 11
375.0147865662969
 21
222.9227758574194
 31
0.0
  0
LINE
  5
96D
330
1A
100
AcDbEntity
  8
SEIHIN
 62
     3
100
AcDbLine
 10
352.0213364662969
 20
224.1227758574194
 30
0.0
 11
377.2147865662969
 21
224.1227758574194
 31
0.0
  0
ARC
  5
96F
330
1A
100
AcDbEntity
  8
SEIHIN
 62
     3
100
AcDbCircle
 10
354.1218615662969
 20
215.0227758574194
 30
0.0
 40
3.400000000887181
100
AcDbArc
 50
90.0
 51
171.0000000241322
  0
ARC
  5
970
330
1A
100
AcDbEntity
  8
SEIHIN
 62
     3
100
AcDbCircle
 10
354.1218615662969
 20
215.0227758574194
 30
0.0
 40
7.899999999354902
100
AcDbArc
 50
90.0
 51
171.000000026553
  0
ARC
  5
971
330
1A
100
AcDbEntity
  8
SEIHIN
 62
     3
100
AcDbCircle
 10
352.0213364662969
 20
217.1227758574194
 30
0.0
 40
7.000000001818088
100
AcDbArc
 50
90.0
 51
165.000013360371
  0
LINE
  5
974
330
1A
100
AcDbEntity
  8
SEIHIN
 62
     3
100
AcDbLine
 10
356.5345025662969
 20
217.4227758574194
 30
0.0
 11
360.7014715662969
 21
217.4227758574194
 31
0.0
  0
LINE
  5
975
330
1A
100
AcDbEntity
  8
SEIHIN
 62
     3
100
AcDbLine
 10
354.4283575662969
 20
218.0227758574194
 30
0.0
 11
364.2075575662969
 21
218.0227758574194
 31
0.0
  0
LINE
  5
976
330
1A
100
AcDbEntity
  8
SEIHIN
 62
     3
100
AcDbLine
 10
360.8679865662969
 20
218.4227758574194
 30
0.0
 11
356.3679865662969
 21
218.4227758574194
 31
0.0
  0
ARC
  5
978
330
1A
100
AcDbEntity
  8
SEIHIN
 62
     3
100
AcDbCircle
 10
356.5345025662969
 20
218.4227758574194
 30
0.0
 40
1.000000000462305
100
AcDbArc
 50
203.578178455081
 51
270.0
  0
LINE
  5
979
330
1A
100
AcDbEntity
  8
SEIHIN
 62
     3
100
AcDbLine
 10
356.3679865662969
 20
218.4227758574194
 30
0.0
 11
354.1218615662969
 21
218.4227758574194
 31
0.0
  0
ARC
  5
97B
330
1A
100
AcDbEntity
  8
SEIHIN
 62
     3
100
AcDbCircle
 10
354.4283575662969
 20
217.0227758574194
 30
0.0
 40
1.0
100
AcDbArc
 50
90.0
 51
180.0000005729565
  0
ARC
  5
97C
330
1A
100
AcDbEntity
  8
SEIHIN
 62
     3
100
AcDbCircle
 10
354.4283575662969
 20
217.0227758574194
 30
0.0
 40
1.399999999999998
100
AcDbArc
 50
90.0
 51
180.0000004092556
  0
LINE
  5
97F
330
1A
100
AcDbEntity
  8
SEIHIN
 62
     3
100
AcDbLine
 10
365.3310595662969
 20
217.8197358574194
 30
0.0
 11
361.7697155662969
 21
217.8197358574194
 31
0.0
  0
LINE
  5
980
330
1A
100
AcDbEntity
  8
SEIHIN
 62
     3
100
AcDbLine
 10
365.3310595662969
 20
217.8754058574194
 30
0.0
 11
361.7939195662969
 21
217.8754058574194
 31
0.0
  0
ARC
  5
981
330
1A
100
AcDbEntity
  8
SEIHIN
 62
     3
100
AcDbCircle
 10
360.7014715662969
 20
218.4227758574194
 30
0.0
 40
1.000000005160678
100
AcDbArc
 50
325.0882877584606
 51
336.421821544919
  0
ARC
  5
982
330
1A
100
AcDbEntity
  8
SEIHIN
 62
     3
100
AcDbCircle
 10
360.7014715662969
 20
218.4227758574194
 30
0.0
 40
1.000000000760434
100
AcDbArc
 50
270.0
 51
271.0792212267711
  0
ARC
  5
983
330
1A
100
AcDbEntity
  8
SEIHIN
 62
     3
100
AcDbCircle
 10
360.7014715662969
 20
218.4227758574194
 30
0.0
 40
1.000000005458808
100
AcDbArc
 50
271.0792212267711
 51
325.0882877584606
  0
ARC
  5
984
330
1A
100
AcDbEntity
  8
SEIHIN
 62
     3
100
AcDbCircle
 10
361.7939195662969
 20
216.3754058574194
 30
0.0
 40
1.499999998366152
100
AcDbArc
 50
90.00000190985865
 51
156.5014370654866
  0
ARC
  5
987
330
1A
100
AcDbEntity
  8
SEIHIN
 62
     3
100
AcDbCircle
 10
361.7697155662969
 20
216.3197358574194
 30
0.0
 40
1.499999998565515
100
AcDbArc
 50
90.0
 51
156.5014341565161
  0
LINE
  5
988
330
1A
100
AcDbEntity
  8
SEIHIN
 62
     3
100
AcDbLine
 10
364.2075575662969
 20
218.0227758574194
 30
0.0
 11
364.2075575662969
 21
218.4227758574194
 31
0.0
  0
ARC
  5
989
330
1A
100
AcDbEntity
  8
SEIHIN
 62
     3
100
AcDbCircle
 10
365.3310595662969
 20
216.3197358574194
 30
0.0
 40
1.5
100
AcDbArc
 50
0.0
 51
90.0
  0
ARC
  5
98A
330
1A
100
AcDbEntity
  8
SEIHIN
 62
     3
100
AcDbCircle
 10
365.3310595662969
 20
216.3754058574194
 30
0.0
 40
1.5
100
AcDbArc
 50
0.0
 51
90.0
  0
ARC
  5
98B
330
1A
100
AcDbEntity
  8
SEIHIN
 62
     3
100
AcDbCircle
 10
377.2147865662969
 20
217.1227758574194
 30
0.0
 40
7.0
100
AcDbArc
 50
0.0
 51
90.0
  0
ARC
  5
98D
330
1A
100
AcDbEntity
  8
SEIHIN
 62
     3
100
AcDbCircle
 10
377.2147865662969
 20
217.1227758574194
 30
0.0
 40
4.0
100
AcDbArc
 50
0.0
 51
90.0
  0
ARC
  5
98E
330
1A
100
AcDbEntity
  8
SEIHIN
 62
     3
100
AcDbCircle
 10
378.0147865662969
 20
217.4227758574194
 30
0.0
 40
3.200000000000001
100
AcDbArc
 50
0.0
 51
90.0
  0
LINE
  5
98F
330
1A
100
AcDbEntity
  8
SEIHIN
 62
     3
100
AcDbLine
 10
377.0147865662969
 20
220.9227758574194
 30
0.0
 11
377.0147865662969
 21
218.4227758574194
 31
0.0
  0
ARC
  5
990
330
1A
100
AcDbEntity
  8
SEIHIN
 62
     3
100
AcDbCircle
 10
378.0147865662969
 20
217.4227758574194
 30
0.0
 40
1.0
100
AcDbArc
 50
0.0
 51
90.0
  0
ARC
  5
991
330
1A
100
AcDbEntity
  8
SEIHIN
 62
     3
100
AcDbCircle
 10
378.0147865662969
 20
217.4227758574194
 30
0.0
 40
2.200000000000001
100
AcDbArc
 50
0.0
 51
90.0
  0
LINE
  5
992
330
1A
100
AcDbEntity
  8
SEIHIN
 62
     3
100
AcDbLine
 10
378.0147865662969
 20
219.6227758574194
 30
0.0
 11
377.0147865662969
 21
219.6227758574194
 31
0.0
  0
LINE
  5
993
330
1A
100
AcDbEntity
  8
SEIHIN
 62
     3
100
AcDbLine
 10
377.0047614362969
 20
221.1227758574194
 30
0.0
 11
377.2147865662969
 21
221.1227758574194
 31
0.0
  0
ARC
  5
994
330
1A
100
AcDbEntity
  8
SEIHIN
 62
     3
100
AcDbCircle
 10
375.0147865662969
 20
220.9227758574194
 30
0.0
 40
2.000000000000001
100
AcDbArc
 50
0.0
 51
90.0
  0
LINE
  5
996
330
1A
100
AcDbEntity
  8
SEIHIN
 62
     3
100
AcDbLine
 10
377.0147865662969
 20
220.6227758574194
 30
0.0
 11
378.0147865662969
 21
220.6227758574194
 31
0.0
  0
LINE
  5
998
330
1A
100
AcDbEntity
  8
SEIHIN
 62
     3
100
AcDbLine
 10
266.0847425962969
 20
392.4116898289104
 30
0.0
 11
376.8147405662968
 21
392.4116898289104
 31
0.0
  0
LINE
  5
999
330
1A
100
AcDbEntity
  8
SEIHIN
 62
     3
100
AcDbLine
 10
266.0847425962969
 20
376.5116898289104
 30
0.0
 11
376.8147405662968
 21
376.5116898289104
 31
0.0
  0
LINE
  5
99A
330
1A
100
AcDbEntity
  8
SEIHIN
 62
     3
100
AcDbLine
 10
266.0847425962969
 20
391.2116898289103
 30
0.0
 11
380.2147405662969
 21
391.2116898289103
 31
0.0
  0
LINE
  5
99B
330
1A
100
AcDbEntity
  8
SEIHIN
 62
     3
100
AcDbLine
 10
266.0847425962969
 20
377.7116898289103
 30
0.0
 11
380.2147405662969
 21
377.7116898289103
 31
0.0
  0
LINE
  5
99D
330
1A
100
AcDbEntity
  8
SEIHIN
 62
     3
100
AcDbLine
 10
263.2377422962969
 20
390.2116898289103
 30
0.0
 11
263.2377422962969
 21
378.7116898289103
 31
0.0
  0
LINE
  5
99E
330
1A
100
AcDbEntity
  8
SEIHIN
 62
     3
100
AcDbLine
 10
260.9847865962969
 20
378.7116898289103
 30
0.0
 11
260.9847865962969
 21
381.4616898289104
 31
0.0
  0
LINE
  5
99F
330
1A
100
AcDbEntity
  8
SEIHIN
 62
     3
100
AcDbLine
 10
261.9847865962969
 20
382.3971123140348
 30
0.0
 11
261.9847865962969
 21
386.5262673437859
 31
0.0
  0
LINE
  5
9A0
330
1A
100
AcDbEntity
  8
SEIHIN
 62
     3
100
AcDbLine
 10
261.9847865962969
 20
382.3971123140348
 30
0.0
 11
260.9847865962969
 21
381.4616898289104
 31
0.0
  0
LINE
  5
9A1
330
1A
100
AcDbEntity
  8
SEIHIN
 62
     3
100
AcDbLine
 10
263.9847865962969
 20
378.7116898289103
 30
0.0
 11
263.9847865962969
 21
390.2116898289103
 31
0.0
  0
LINE
  5
9A2
330
1A
100
AcDbEntity
  8
SEIHIN
 62
     3
100
AcDbLine
 10
260.9847865962969
 20
378.7116898289103
 30
0.0
 11
263.2377422962969
 21
378.7116898289103
 31
0.0
  0
LINE
  5
9A3
330
1A
100
AcDbEntity
  8
SEIHIN
 62
     3
100
AcDbLine
 10
266.0847425962969
 20
377.7116898289103
 30
0.0
 11
266.0847425962969
 21
377.7116898289103
 31
0.0
  0
LINE
  5
9A4
330
1A
100
AcDbEntity
  8
SEIHIN
 62
     3
100
AcDbLine
 10
266.0847425962969
 20
376.5116898289104
 30
0.0
 11
266.0847425962969
 21
377.7116898289103
 31
0.0
  0
LINE
  5
9A5
330
1A
100
AcDbEntity
  8
SEIHIN
 62
     3
100
AcDbLine
 10
263.2377422962969
 20
378.7116898289103
 30
0.0
 11
265.0847425962969
 21
378.7116898289103
 31
0.0
  0
LINE
  5
9A7
330
1A
100
AcDbEntity
  8
SEIHIN
 62
     3
100
AcDbLine
 10
260.9847865962969
 20
387.4616898289104
 30
0.0
 11
261.9847865962969
 21
386.5262673437859
 31
0.0
  0
LINE
  5
9A8
330
1A
100
AcDbEntity
  8
SEIHIN
 62
     3
100
AcDbLine
 10
260.9847865962969
 20
390.2116898289103
 30
0.0
 11
263.2377422962969
 21
390.2116898289103
 31
0.0
  0
LINE
  5
9AA
330
1A
100
AcDbEntity
  8
SEIHIN
 62
     3
100
AcDbLine
 10
263.2377422962969
 20
390.2116898289103
 30
0.0
 11
265.0847425962969
 21
390.2116898289103
 31
0.0
  0
LINE
  5
9AB
330
1A
100
AcDbEntity
  8
SEIHIN
 62
     3
100
AcDbLine
 10
266.0847425962969
 20
391.2116898289103
 30
0.0
 11
266.0847425962969
 21
391.2116898289103
 31
0.0
  0
LINE
  5
9AC
330
1A
100
AcDbEntity
  8
SEIHIN
 62
     3
100
AcDbLine
 10
266.0847425962969
 20
391.2116898289103
 30
0.0
 11
266.0847425962969
 21
392.4116898289104
 31
0.0
  0
CIRCLE
  5
9AE
330
1A
100
AcDbEntity
  8
SEIHIN
 62
     3
100
AcDbCircle
 10
336.7647865662969
 20
384.4616898289103
 30
0.0
 40
3.5
  0
LINE
  5
9B1
330
1A
100
AcDbEntity
  8
SEIHIN
 62
     3
100
AcDbLine
 10
326.7647865662969
 20
390.9616898289103
 30
0.0
 11
342.7647865662969
 21
390.9616898289103
 31
0.0
  0
LINE
  5
9B2
330
1A
100
AcDbEntity
  8
SEIHIN
 62
     3
100
AcDbLine
 10
342.7647865662969
 20
377.9616898289103
 30
0.0
 11
326.7647865662969
 21
377.9616898289103
 31
0.0
  0
LINE
  5
9B4
330
1A
100
AcDbEntity
  8
SEIHIN
 62
     3
100
AcDbLine
 10
298.7647405962969
 20
381.9616898289103
 30
0.0
 11
326.7647865662969
 21
381.9616898289103
 31
0.0
  0
LINE
  5
9B5
330
1A
100
AcDbEntity
  8
SEIHIN
 62
     3
100
AcDbLine
 10
298.7647405962969
 20
386.9616898289103
 30
0.0
 11
326.7647865662969
 21
386.9616898289103
 31
0.0
  0
ARC
  5
9B6
330
1A
100
AcDbEntity
  8
SEIHIN
 62
     3
100
AcDbCircle
 10
298.7647405962969
 20
384.4616898289103
 30
0.0
 40
2.5
100
AcDbArc
 50
180.0000002291823
 51
270.0
  0
LINE
  5
9B7
330
1A
100
AcDbEntity
  8
SEIHIN
 62
     3
100
AcDbLine
 10
292.7646975962969
 20
377.7116898289103
 30
0.0
 11
292.7646975962969
 21
391.2116898289103
 31
0.0
  0
ARC
  5
9B8
330
1A
100
AcDbEntity
  8
SEIHIN
 62
     3
100
AcDbCircle
 10
298.7647405962969
 20
384.4616898289103
 30
0.0
 40
2.5
100
AcDbArc
 50
90.0
 51
180.0000002291823
  0
LINE
  5
9BA
330
1A
100
AcDbEntity
  8
SEIHIN
 62
     3
100
AcDbLine
 10
326.7647865662969
 20
377.9616898289103
 30
0.0
 11
326.7647865662969
 21
390.9616898289103
 31
0.0
  0
LINE
  5
9C0
330
1A
100
AcDbEntity
  8
SEIHIN
 62
     3
100
AcDbLine
 10
381.2147865662969
 20
377.9616898289103
 30
0.0
 11
346.6500462662969
 21
377.9616898289103
 31
0.0
  0
LINE
  5
9C1
330
1A
100
AcDbEntity
  8
SEIHIN
 62
     3
100
AcDbLine
 10
346.6500462662969
 20
390.9616898289103
 30
0.0
 11
381.2147865662969
 21
390.9616898289103
 31
0.0
  0
LINE
  5
9C5
330
1A
100
AcDbEntity
  8
SEIHIN
 62
     3
100
AcDbLine
 10
342.7647865662969
 20
390.9616898289103
 30
0.0
 11
342.7647865662969
 21
377.9616898289103
 31
0.0
  0
LINE
  5
9C6
330
1A
100
AcDbEntity
  8
SEIHIN
 62
     3
100
AcDbLine
 10
346.6500462662969
 20
377.9616898289103
 30
0.0
 11
346.6500462662969
 21
390.9616898289103
 31
0.0
  0
ARC
  5
9C8
330
1A
100
AcDbEntity
  8
SEIHIN
 62
     3
100
AcDbCircle
 10
354.1676215662969
 20
376.1116898289103
 30
0.0
 40
1.499999998528055
100
AcDbArc
 50
184.0535363990665
 51
270.0
  0
LINE
  5
9C9
330
1A
100
AcDbEntity
  8
SEIHIN
 62
     3
100
AcDbLine
 10
346.6500462662969
 20
377.9616898289103
 30
0.0
 11
342.7647865662969
 21
377.9616898289103
 31
0.0
  0
ARC
  5
9CA
330
1A
100
AcDbEntity
  8
SEIHIN
 62
     3
100
AcDbCircle
 10
365.3310055662969
 20
378.0522018289103
 30
0.0
 40
5.442212002086844
100
AcDbArc
 50
270.0
 51
285.9991570397959
  0
ARC
  5
9CB
330
1A
100
AcDbEntity
  8
SEIHIN
 62
     3
100
AcDbCircle
 10
361.2241705662969
 20
375.2475458289103
 30
0.0
 40
2.637556000059316
100
AcDbArc
 50
252.1688580385967
 51
270.0
  0
LINE
  5
9CC
330
1A
100
AcDbEntity
  8
SEIHIN
 62
     3
100
AcDbLine
 10
365.8310055662969
 20
374.6116898289103
 30
0.0
 11
354.1676215662969
 21
374.6116898289103
 31
0.0
  0
LINE
  5
9CD
330
1A
100
AcDbEntity
  8
SEIHIN
 62
     3
100
AcDbLine
 10
355.8309945662969
 20
374.2116898289103
 30
0.0
 11
360.4165175662969
 21
372.7366898289103
 31
0.0
  0
LINE
  5
9CE
330
1A
100
AcDbEntity
  8
SEIHIN
 62
     3
100
AcDbLine
 10
355.8309945662969
 20
374.6116898289103
 30
0.0
 11
360.5508295662969
 21
373.0934868289104
 31
0.0
  0
LINE
  5
9CF
330
1A
100
AcDbEntity
  8
SEIHIN
 62
     3
100
AcDbLine
 10
355.8309945662969
 20
374.2116898289103
 30
0.0
 11
355.8309945662969
 21
374.6116898289103
 31
0.0
  0
LINE
  5
9D0
330
1A
100
AcDbEntity
  8
SEIHIN
 62
     3
100
AcDbLine
 10
352.6713745662969
 20
376.4616898289103
 30
0.0
 11
352.6713745662969
 21
376.0056568289104
 31
0.0
  0
ARC
  5
9D1
330
1A
100
AcDbEntity
  8
SEIHIN
 62
     3
100
AcDbCircle
 10
351.1713745662969
 20
376.4616898289103
 30
0.0
 40
1.500000002470376
100
AcDbArc
 50
0.0
 51
1.910213165415673
  0
LINE
  5
9D2
330
1A
100
AcDbEntity
  8
SEIHIN
 62
     3
100
AcDbLine
 10
361.2241705662969
 20
373.0060898289103
 30
0.0
 11
365.3310055662969
 21
373.0060898289103
 31
0.0
  0
LINE
  5
9D3
330
1A
100
AcDbEntity
  8
SEIHIN
 62
     3
100
AcDbLine
 10
365.3310055662969
 20
372.6099898289104
 30
0.0
 11
361.2241705662969
 21
372.6099898289104
 31
0.0
  0
ARC
  5
9D4
330
1A
100
AcDbEntity
  8
SEIHIN
 62
     3
100
AcDbCircle
 10
361.2241705662969
 20
375.6436458289103
 30
0.0
 40
2.637556001082227
100
AcDbArc
 50
255.209254168823
 51
270.0
  0
LINE
  5
9D5
330
1A
100
AcDbEntity
  8
SEIHIN
 62
     3
100
AcDbLine
 10
366.8310055662969
 20
372.8207898289103
 30
0.0
 11
366.8310055662969
 21
374.0537898289104
 31
0.0
  0
LINE
  5
9D6
330
1A
100
AcDbEntity
  8
SEIHIN
 62
     3
100
AcDbLine
 10
366.8310055662969
 20
374.0537898289104
 30
0.0
 11
365.8310055662969
 21
374.6116898289103
 31
0.0
  0
LINE
  5
9D7
330
1A
100
AcDbEntity
  8
SEIHIN
 62
     3
100
AcDbLine
 10
365.8310055662969
 20
376.5116898289104
 30
0.0
 11
365.8310055662969
 21
374.6116898289103
 31
0.0
  0
ARC
  5
9D8
330
1A
100
AcDbEntity
  8
SEIHIN
 62
     3
100
AcDbCircle
 10
365.3310055662969
 20
378.4483018289104
 30
0.0
 40
5.442212002086848
100
AcDbArc
 50
270.0
 51
285.9991570397959
  0
ARC
  5
9D9
330
1A
100
AcDbEntity
  8
SEIHIN
 62
     3
100
AcDbCircle
 10
354.1676215662969
 20
392.8116898289104
 30
0.0
 40
1.49999999782117
100
AcDbArc
 50
90.0
 51
175.9464643629666
  0
LINE
  5
9DA
330
1A
100
AcDbEntity
  8
SEIHIN
 62
     3
100
AcDbLine
 10
342.7647865662969
 20
390.9616898289103
 30
0.0
 11
346.6500462662969
 21
390.9616898289103
 31
0.0
  0
LINE
  5
9DC
330
1A
100
AcDbEntity
  8
SEIHIN
 62
     3
100
AcDbLine
 10
355.8309945662969
 20
394.7116898289103
 30
0.0
 11
360.4165175662969
 21
396.1866898289104
 31
0.0
  0
LINE
  5
9DD
330
1A
100
AcDbEntity
  8
SEIHIN
 62
     3
100
AcDbLine
 10
355.8309945662969
 20
394.3116898289104
 30
0.0
 11
360.5508295662969
 21
395.8298938289103
 31
0.0
  0
LINE
  5
9DE
330
1A
100
AcDbEntity
  8
SEIHIN
 62
     3
100
AcDbLine
 10
366.8310055662969
 20
394.8695898289104
 30
0.0
 11
365.8310055662969
 21
394.3116898289104
 31
0.0
  0
LINE
  5
9DF
330
1A
100
AcDbEntity
  8
SEIHIN
 62
     3
100
AcDbLine
 10
365.8310055662969
 20
394.3116898289104
 30
0.0
 11
354.1676215662969
 21
394.3116898289104
 31
0.0
  0
LINE
  5
9E0
330
1A
100
AcDbEntity
  8
SEIHIN
 62
     3
100
AcDbLine
 10
355.8309945662969
 20
394.7116898289103
 30
0.0
 11
355.8309945662969
 21
394.3116898289104
 31
0.0
  0
LINE
  5
9E1
330
1A
100
AcDbEntity
  8
SEIHIN
 62
     3
100
AcDbLine
 10
352.6713745662969
 20
392.4616898289103
 30
0.0
 11
352.6713745662969
 21
392.9177228289104
 31
0.0
  0
ARC
  5
9E2
330
1A
100
AcDbEntity
  8
SEIHIN
 62
     3
100
AcDbCircle
 10
351.1713745662969
 20
392.4616898289103
 30
0.0
 40
1.500000002470376
100
AcDbArc
 50
358.0897868345843
 51
0.0
  0
LINE
  5
9E3
330
1A
100
AcDbEntity
  8
SEIHIN
 62
     3
100
AcDbLine
 10
365.8310055662969
 20
392.4116898289104
 30
0.0
 11
365.8310055662969
 21
394.3116898289104
 31
0.0
  0
LINE
  5
9E4
330
1A
100
AcDbEntity
  8
SEIHIN
 62
     3
100
AcDbLine
 10
365.3310055662969
 20
396.3133898289104
 30
0.0
 11
361.2241705662969
 21
396.3133898289104
 31
0.0
  0
LINE
  5
9E5
330
1A
100
AcDbEntity
  8
SEIHIN
 62
     3
100
AcDbLine
 10
361.2241705662969
 20
395.9172898289104
 30
0.0
 11
365.3310055662969
 21
395.9172898289104
 31
0.0
  0
ARC
  5
9E6
330
1A
100
AcDbEntity
  8
SEIHIN
 62
     3
100
AcDbCircle
 10
361.2241705662969
 20
393.2797348289103
 30
0.0
 40
2.637555997524348
100
AcDbArc
 50
90.0
 51
104.7907460966655
  0
ARC
  5
9E7
330
1A
100
AcDbEntity
  8
SEIHIN
 62
     3
100
AcDbCircle
 10
361.2241705662969
 20
393.6758348289103
 30
0.0
 40
2.637555995299503
100
AcDbArc
 50
90.0
 51
107.8311420279226
  0
ARC
  5
9E8
330
1A
100
AcDbEntity
  8
SEIHIN
 62
     3
100
AcDbCircle
 10
365.3310055662969
 20
390.8711778289104
 30
0.0
 40
5.442211997280518
100
AcDbArc
 50
74.00084293118777
 51
90.0
  0
ARC
  5
9E9
330
1A
100
AcDbEntity
  8
SEIHIN
 62
     3
100
AcDbCircle
 10
365.3310055662969
 20
390.4750778289103
 30
0.0
 40
5.442211997280526
100
AcDbArc
 50
74.00084293118777
 51
90.0
  0
LINE
  5
9EA
330
1A
100
AcDbEntity
  8
SEIHIN
 62
     3
100
AcDbLine
 10
366.8310055662969
 20
396.1025898289103
 30
0.0
 11
366.8310055662969
 21
394.8695898289104
 31
0.0
  0
LINE
  5
9EB
330
1A
100
AcDbEntity
  8
SEIHIN
 62
     3
100
AcDbLine
 10
384.2147865662969
 20
390.9616898289103
 30
0.0
 11
384.2147865662969
 21
377.9616898289103
 31
0.0
  0
LINE
  5
9F0
330
1A
100
AcDbEntity
  8
SEIHIN
 62
     3
100
AcDbLine
 10
384.2147865662969
 20
377.9616898289103
 30
0.0
 11
381.2147865662969
 21
377.9616898289103
 31
0.0
  0
LINE
  5
9F3
330
1A
100
AcDbEntity
  8
SEIHIN
 62
     3
100
AcDbLine
 10
376.8147405662968
 20
376.5116898289104
 30
0.0
 11
376.8147405662968
 21
377.7116898289103
 31
0.0
  0
LINE
  5
9F4
330
1A
100
AcDbEntity
  8
SEIHIN
 62
     3
100
AcDbLine
 10
380.2147405662969
 20
377.7116898289103
 30
0.0
 11
380.2147405662969
 21
377.9616898289103
 31
0.0
  0
LINE
  5
9F6
330
1A
100
AcDbEntity
  8
SEIHIN
 62
     3
100
AcDbLine
 10
384.2147865662969
 20
377.9616898289103
 30
0.0
 11
396.0483460362969
 21
377.9616898289103
 31
0.0
  0
LINE
  5
9F7
330
1A
100
AcDbEntity
  8
SEIHIN
 62
     3
100
AcDbLine
 10
381.2147865662969
 20
390.9616898289103
 30
0.0
 11
384.2147865662969
 21
390.9616898289103
 31
0.0
  0
LINE
  5
9FC
330
1A
100
AcDbEntity
  8
SEIHIN
 62
     3
100
AcDbLine
 10
376.8147405662968
 20
391.2116898289103
 30
0.0
 11
376.8147405662968
 21
392.4116898289104
 31
0.0
  0
LINE
  5
9FD
330
1A
100
AcDbEntity
  8
SEIHIN
 62
     3
100
AcDbLine
 10
380.2147405662969
 20
390.9616898289103
 30
0.0
 11
380.2147405662969
 21
391.2116898289103
 31
0.0
  0
LINE
  5
9FE
330
1A
100
AcDbEntity
  8
SEIHIN
 62
     3
100
AcDbLine
 10
384.2147865662969
 20
390.9616898289103
 30
0.0
 11
396.0483460362969
 21
390.9616898289103
 31
0.0
  0
LINE
  5
9FF
330
1A
100
AcDbEntity
  8
SEIHIN
 62
     3
100
AcDbLine
 10
548.2429866962969
 20
261.8569006264194
 30
0.0
 11
553.1128726962968
 21
249.8035106224195
 31
0.0
  0
LINE
  5
A01
330
1A
100
AcDbEntity
  8
SEIHIN
 62
     3
100
AcDbLine
 10
405.3015104452969
 20
204.1047953374194
 30
0.0
 11
548.2429866962969
 21
261.8569006264194
 31
0.0
  0
LINE
  5
A05
330
1A
100
AcDbEntity
  8
SEIHIN
 62
     3
100
AcDbLine
 10
553.1128726962968
 20
249.8035106224195
 30
0.0
 11
410.171396420297
 21
192.0514053374194
 31
0.0
  0
ARC
  5
A09
330
1A
100
AcDbEntity
  8
SEIHIN
 62
     3
100
AcDbCircle
 10
409.3285568502968
 20
202.1978414274194
 30
0.0
 40
10.18138221698158
100
AcDbArc
 50
229.6403318532993
 51
274.7485180546941
  0
ARC
  5
A0A
330
1A
100
AcDbEntity
  8
SEIHIN
 62
     3
100
AcDbCircle
 10
409.5319170982969
 20
216.7934933474195
 30
0.0
 40
24.75035056249245
100
AcDbArc
 50
255.6336171581845
 51
271.4805262954647
  0
ARC
  5
A0B
330
1A
100
AcDbEntity
  8
SEIHIN
 62
     3
100
AcDbCircle
 10
413.3000115952969
 20
193.0726851174195
 30
0.0
 40
13.62657244508427
100
AcDbArc
 50
125.9428650233659
 51
154.9429929128442
  0
CIRCLE
  5
A0C
330
1A
100
AcDbEntity
  8
SEIHIN
 62
     3
100
AcDbCircle
 10
444.0517865662969
 20
212.7504478574194
 30
0.0
 40
1.799999999999997
  0
CIRCLE
  5
A0D
330
1A
100
AcDbEntity
  8
SEIHIN
 62
     3
100
AcDbCircle
 10
508.9546565962969
 20
238.9729088574195
 30
0.0
 40
1.799999999999997
  0
CIRCLE
  5
A11
330
1A
100
AcDbEntity
  8
SEIHIN
 62
     3
100
AcDbCircle
 10
536.7701715962969
 20
250.2111068524194
 30
0.0
 40
1.800000000000011
  0
LINE
  5
A16
330
1A
100
AcDbEntity
  8
SEIHIN
 62
     3
100
AcDbLine
 10
405.3015104452969
 20
385.9616898289104
 30
0.0
 11
553.1128726962968
 21
385.9616898289103
 31
0.0
  0
LINE
  5
A17
330
1A
100
AcDbEntity
  8
SEIHIN
 62
     3
100
AcDbLine
 10
553.1128726962968
 20
382.9616898289103
 30
0.0
 11
405.3015104452969
 21
382.9616898289103
 31
0.0
  0
LINE
  5
A26
330
1A
100
AcDbEntity
  8
SEIHIN
 62
     3
100
AcDbLine
 10
553.1128726962968
 20
385.9616898289104
 30
0.0
 11
553.1128726962968
 21
382.9616898289103
 31
0.0
  0
LINE
  5
B38
330
1A
100
AcDbEntity
  8
CENTER_L
100
AcDbLine
 10
407.7364534452969
 20
198.0781003354194
 30
0.0
 11
557.1682166763088
 21
258.452451783171
 31
0.0
  0
LINE
  5
B39
330
1A
100
AcDbEntity
  8
CENTER_L
100
AcDbLine
 10
533.4736333832679
 20
258.3703246954507
 30
0.0
 11
540.0667098093258
 21
242.0518890093881
 31
0.0
  0
LINE
  5
B3C
330
1A
100
AcDbEntity
  8
CENTER_L
100
AcDbLine
 10
505.6581183832679
 20
247.1321267004507
 30
0.0
 11
512.2511948093258
 21
230.8136910143882
 31
0.0
  0
LINE
  5
B3D
330
1A
100
AcDbEntity
  8
CENTER_L
100
AcDbLine
 10
440.755248353268
 20
220.9096657004507
 30
0.0
 11
447.3483247793259
 21
204.5912300143881
 31
0.0
  0
LINE
  5
B3E
330
1A
100
AcDbEntity
  8
CENTER_L
100
AcDbLine
 10
536.7701715962969
 20
392.9616898289103
 30
0.0
 11
536.7701715962969
 21
375.9616898289103
 31
0.0
  0
LINE
  5
B3F
330
1A
100
AcDbEntity
  8
CENTER_L
100
AcDbLine
 10
508.9546565962969
 20
392.9616898289103
 30
0.0
 11
508.9546565962969
 21
375.9616898289103
 31
0.0
  0
LINE
  5
B40
330
1A
100
AcDbEntity
  8
CENTER_L
100
AcDbLine
 10
444.0517865662969
 20
392.9616898289103
 30
0.0
 11
444.0517865662969
 21
375.9616898289103
 31
0.0
  0
LINE
  5
B43
330
1A
100
AcDbEntity
  8
SEIHIN
100
AcDbLine
 10
548.242986696297
 20
382.9616898289103
 30
0.0
 11
548.242986696297
 21
385.9616898289103
 31
0.0
  0
ARC
  5
B44
330
1A
100
AcDbEntity
  8
SEIHIN
 62
     3
100
AcDbCircle
 10
351.0238115662969
 20
208.6155598574194
 30
0.0
 40
2.192751996560394
100
AcDbArc
 50
195.6503830753083
 51
270.0
  0
ARC
  5
B45
330
1A
100
AcDbEntity
  8
SEIHIN
 62
     3
100
AcDbCircle
 10
351.0238115662969
 20
208.6155598574194
 30
0.0
 40
1.792751996555905
100
AcDbArc
 50
182.9455394181632
 51
270.0
  0
LINE
  5
B4A
330
1A
100
AcDbEntity
  8
SEIHIN
 62
     3
100
AcDbLine
 10
260.9847865962969
 20
387.4616898289104
 30
0.0
 11
260.9847865962969
 21
390.2116898289103
 31
0.0
  0
ARC
  5
B4B
330
1A
100
AcDbEntity
  8
SEIHIN
 62
     3
100
AcDbCircle
 10
265.0847425962969
 20
377.7116898289103
 30
0.0
 40
1.0
100
AcDbArc
 50
0.0
 51
90.0
  0
ARC
  5
B4C
330
1A
100
AcDbEntity
  8
SEIHIN
 62
     3
100
AcDbCircle
 10
265.0847425962969
 20
391.2116898289103
 30
0.0
 40
1.0
100
AcDbArc
 50
270.0
 51
0.0
  0
LINE
  5
B4D
330
1A
100
AcDbEntity
  8
CENTER_L
100
AcDbLine
 10
249.1433371035014
 20
384.4616898289103
 30
0.0
 11
569.0240885473044
 21
384.4616898289103
 31
0.0
  0
DIMENSION
  5
B5D
330
1A
100
AcDbEntity
  8
SUNPOU
100
AcDbDimension
  2
*D1
 10
567.5268756316894
 20
214.1276011353497
 30
0.0
 11
482.2072957752849
 21
185.0489269371228
 31
0.0
 70
    33
  3
STANDARD
100
AcDbAlignedDimension
 13
383.7848359245618
 23
188.4010186850914
 33
0.0
 14
550.6779296962969
 24
255.8302056244194
 34
0.0
1001
ACAD
1000
DSTYLE
1002
{
1070
    41
1040
3.0
1070
    42
1040
6.0
1070
    43
1040
14.0
1070
    44
1040
3.0
1070
    73
1070
     0
1070
    74
1070
     0
1070
    77
1070
     3
1070
   140
1040
6.0
1070
   141
1040
10.0
1070
   147
1040
2.0
1070
   172
1070
     1
1070
   173
1070
     1
1070
   176
1070
   256
1070
   177
1070
   256
1070
   178
1070
   256
1070
   271
1070
     0
1070
   272
1070
     0
1070
   341
1005
6D
1070
     6
1000
OPEN
1070
     7
1000
OPEN
1002
}
  0
DIMENSION
  5
B6A
330
1A
100
AcDbEntity
  8
SUNPOU
100
AcDbDimension
  2
*D2
 10
536.0298581787644
 20
292.0854543943427
 30
0.0
 11
527.202946202518
 21
293.9118241701562
 31
0.0
 70
    33
  3
STANDARD
100
AcDbAlignedDimension
 13
534.3352286848785
 23
256.2378016351723
 33
0.0
 14
548.2429866962969
 24
261.8569006264194
 34
0.0
1001
ACAD
1000
DSTYLE
1002
{
1070
    41
1040
3.0
1070
    42
1040
6.0
1070
    43
1040
14.0
1070
    44
1040
3.0
1070
    73
1070
     0
1070
    74
1070
     0
1070
    77
1070
     3
1070
   140
1040
6.0
1070
   141
1040
10.0
1070
   147
1040
2.0
1070
   172
1070
     1
1070
   173
1070
     1
1070
   176
1070
   256
1070
   177
1070
   256
1070
   178
1070
   256
1070
   271
1070
     0
1070
   272
1070
     0
1070
   341
1005
6D
1070
     6
1000
OPEN
1070
     7
1000
OPEN
1002
}
  0
DIMENSION
  5
B77
330
1A
100
AcDbEntity
  8
SUNPOU
100
AcDbDimension
  2
*D3
 10
522.1220997641087
 20
286.4663551976014
 30
0.0
 11
506.3413092325699
 21
285.4831754468922
 31
0.0
 70
    33
  3
STANDARD
100
AcDbAlignedDimension
 13
505.6581183832679
 23
247.1321267004507
 33
0.0
 14
533.4736333832679
 24
258.3703246954507
 34
0.0
1001
ACAD
1000
DSTYLE
1002
{
1070
    41
1040
3.0
1070
    42
1040
6.0
1070
    43
1040
14.0
1070
    44
1040
3.0
1070
    73
1070
     0
1070
    74
1070
     0
1070
    77
1070
     3
1070
   140
1040
6.0
1070
   141
1040
10.0
1070
   147
1040
2.0
1070
   172
1070
     1
1070
   173
1070
     1
1070
   176
1070
   256
1070
   177
1070
   256
1070
   178
1070
   256
1070
   271
1070
     0
1070
   272
1070
     0
1070
   341
1005
6D
1070
     6
1000
OPEN
1070
     7
1000
OPEN
1002
}
  0
DIMENSION
  5
B9F
330
1A
100
AcDbEntity
  8
SUNPOU
100
AcDbDimension
  2
*D4
 10
494.3065851378586
 20
275.2281580709623
 30
0.0
 11
459.9821171941014
 21
266.7528468592795
 31
0.0
 70
    33
  3
STANDARD
100
AcDbAlignedDimension
 13
440.755248353268
 23
220.9096657004507
 33
0.0
 14
505.6581183832679
 24
247.1321267004507
 34
0.0
1001
ACAD
1000
DSTYLE
1002
{
1070
    41
1040
3.0
1070
    42
1040
6.0
1070
    43
1040
14.0
1070
    44
1040
3.0
1070
    73
1070
     0
1070
    74
1070
     0
1070
    77
1070
     3
1070
   140
1040
6.0
1070
   141
1040
10.0
1070
   147
1040
2.0
1070
   172
1070
     1
1070
   173
1070
     1
1070
   176
1070
   256
1070
   177
1070
   256
1070
   178
1070
   256
1070
   271
1070
     0
1070
   272
1070
     0
1070
   341
1005
6D
1070
     6
1000
OPEN
1070
     7
1000
OPEN
1002
}
  0
DIMENSION
  5
BAC
330
1A
100
AcDbEntity
  8
SUNPOU
100
AcDbDimension
  2
*D5
 10
581.8037394463176
 20
261.395374012505
 30
0.0
 11
584.0047156753127
 21
269.2951020900896
 31
0.0
 70
    33
  3
STANDARD
100
AcDbAlignedDimension
 13
548.2429866962969
 23
261.8569006264194
 33
0.0
 14
553.1128726962968
 24
249.8035106224195
 34
0.0
1001
ACAD
1000
DSTYLE
1002
{
1070
    41
1040
3.0
1070
    42
1040
6.0
1070
    43
1040
14.0
1070
    44
1040
3.0
1070
    73
1070
     0
1070
    74
1070
     0
1070
    77
1070
     3
1070
   140
1040
6.0
1070
   141
1040
10.0
1070
   147
1040
2.0
1070
   172
1070
     1
1070
   173
1070
     1
1070
   176
1070
   256
1070
   177
1070
   256
1070
   178
1070
   256
1070
   271
1070
     0
1070
   272
1070
     0
1070
   341
1005
6D
1070
     6
1000
OPEN
1070
     7
1000
OPEN
1002
}
  0
DIMENSION
  5
BBA
330
1A
100
AcDbEntity
  8
SUNPOU
100
AcDbDimension
  2
*D6
 10
594.4439033997796
 20
382.9616898289103
 30
0.0
 11
589.4439033997795
 21
372.9616898289104
 31
0.0
 70
    32
  3
STANDARD
100
AcDbAlignedDimension
 13
553.1128726962968
 23
385.9616898289104
 33
0.0
 14
553.1128726962968
 24
382.9616898289103
 34
0.0
 50
90.0
100
AcDbRotatedDimension
1001
ACAD
1000
DSTYLE
1002
{
1070
    41
1040
3.0
1070
    42
1040
6.0
1070
    43
1040
14.0
1070
    44
1040
3.0
1070
    73
1070
     0
1070
    74
1070
     0
1070
    77
1070
     3
1070
   140
1040
6.0
1070
   141
1040
10.0
1070
   147
1040
2.0
1070
   172
1070
     1
1070
   173
1070
     1
1070
   176
1070
   256
1070
   177
1070
   256
1070
   178
1070
   256
1070
   271
1070
     0
1070
   272
1070
     0
1070
   341
1005
6D
1070
     6
1000
OPEN
1070
     7
1000
OPEN
1002
}
  0
LEADER
  5
BC9
330
1A
100
AcDbEntity
  8
SUNPOU
100
AcDbLeader
  3
STANDARD
 73
     0
 40
6.000000000000001
 41
31.19999999999999
 76
     3
 10
537.3685504256639
 20
251.9087354268035
 30
0.0
 10
553.9364767734637
 20
300.327843527621
 30
0.0
 10
557.0206836525735
 20
300.327843527621
 30
0.0
340
BCA
213
0.0
223
-3.0
233
0.0
1001
ACAD
1000
DSTYLE
1002
{
1070
     6
1000
OPEN
1070
    41
1040
3.0
1070
    42
1040
6.0
1070
    43
1040
14.0
1070
    44
1040
3.0
1070
    73
1070
     0
1070
    74
1070
     0
1070
    77
1070
     0
1070
   140
1040
6.0
1070
   141
1040
10.0
1070
   147
1040
2.0
1070
   172
1070
     1
1070
   173
1070
     1
1070
   176
1070
   256
1070
   177
1070
   256
1070
   178
1070
   256
1070
   271
1070
     0
1070
   272
1070
     0
1070
   341
1005
6D
1070
   343
1005
6D
1070
   344
1005
6D
1002
}
  0
MTEXT
  5
BCA
102
{ACAD_REACTORS
330
BC9
102
}
330
1A
100
AcDbEntity
  8
SUNPOU
100
AcDbMText
 10
559.0206836525736
 20
303.3278435276211
 30
0.0
 40
6.0
 41
0.0
 71
     1
 72
     5
  1
\A1;3-φ3.6
1001
ACAD
1000
MTEXTBEGIN
1070
    73
1070
     1
1070
    44
1040
1.0
1070
    74
1070
     0
1000
MTEXTEND
1000
MTEXTBEGIN
1070
    73
1070
     1
1070
    44
1040
1.0
1070
    74
1070
     0
1000
MTEXTEND
1000
MTEXTBEGIN
1070
    73
1070
     1
1070
    44
1040
1.0
1070
    74
1070
     0
1000
MTEXTEND
  0
DIMENSION
  5
BCC
330
1A
100
AcDbEntity
  8
SUNPOU
100
AcDbDimension
  2
*D7
 10
402.6343078915888
 20
189.1227758562535
 30
0.0
 11
397.6343078915888
 21
206.6227758568365
 31
0.0
 70
    32
  3
STANDARD
100
AcDbAlignedDimension
 13
377.2147865662969
 23
224.1227758574194
 33
0.0
 14
388.2147865662969
 24
189.1227758562535
 34
0.0
 50
90.0
100
AcDbRotatedDimension
1001
ACAD
1000
DSTYLE
1002
{
1070
    41
1040
3.0
1070
    42
1040
6.0
1070
    43
1040
14.0
1070
    44
1040
3.0
1070
    73
1070
     0
1070
    74
1070
     0
1070
    77
1070
     3
1070
   140
1040
6.0
1070
   141
1040
10.0
1070
   147
1040
2.0
1070
   172
1070
     1
1070
   173
1070
     1
1070
   176
1070
   256
1070
   177
1070
   256
1070
   178
1070
   256
1070
   271
1070
     0
1070
   272
1070
     0
1070
   341
1005
6D
1070
     6
1000
OPEN
1070
     7
1000
OPEN
1002
}
  0
DIMENSION
  5
BD9
330
1A
100
AcDbEntity
  8
SUNPOU
100
AcDbDimension
  2
*D8
 10
260.9847865754828
 20
251.957028194306
 30
0.0
 11
322.5997865708899
 21
256.9570281943061
 31
0.0
 70
    32
  3
STANDARD
100
AcDbAlignedDimension
 13
384.2147865662969
 23
217.1227758574194
 33
0.0
 14
260.9847865754828
 24
203.6227758574194
 34
0.0
100
AcDbRotatedDimension
1001
ACAD
1000
DSTYLE
1002
{
1070
    41
1040
3.0
1070
    42
1040
6.0
1070
    43
1040
14.0
1070
    44
1040
3.0
1070
    73
1070
     0
1070
    74
1070
     0
1070
    77
1070
     3
1070
   140
1040
6.0
1070
   141
1040
10.0
1070
   147
1040
2.0
1070
   172
1070
     1
1070
   173
1070
     1
1070
   176
1070
   256
1070
   177
1070
   256
1070
   178
1070
   256
1070
   271
1070
     0
1070
   272
1070
     0
1070
   341
1005
6D
1070
     6
1000
OPEN
1070
     7
1000
OPEN
1002
}
  0
DIMENSION
  5
BE6
330
1A
100
AcDbEntity
  8
SUNPOU
100
AcDbDimension
  2
*D9
 10
221.7945657702985
 20
376.5116898289104
 30
0.0
 11
216.7945657702984
 21
384.4616898289105
 31
0.0
 70
    32
  3
STANDARD
100
AcDbAlignedDimension
 13
266.0847425962969
 23
392.4116898289104
 33
0.0
 14
266.0847425962969
 24
376.5116898289104
 34
0.0
 50
90.0
100
AcDbRotatedDimension
1001
ACAD
1000
DSTYLE
1002
{
1070
    41
1040
3.0
1070
    42
1040
6.0
1070
    43
1040
14.0
1070
    44
1040
3.0
1070
    73
1070
     0
1070
    74
1070
     0
1070
    77
1070
     3
1070
   140
1040
6.0
1070
   141
1040
10.0
1070
   147
1040
2.0
1070
   172
1070
     1
1070
   173
1070
     1
1070
   176
1070
   256
1070
   177
1070
   256
1070
   178
1070
   256
1070
   271
1070
     0
1070
   272
1070
     0
1070
   341
1005
6D
1070
     6
1000
OPEN
1070
     7
1000
OPEN
1002
}
  0
LWPOLYLINE
  5
D6C
330
1A
100
AcDbEntity
  8
ZUWAKU
100
AcDbPolyline
 90
        4
 70
     1
 43
0.0
 10
0.8000007092546184
 20
550.8000003004076
 10
0.8000007092546184
 20
0.8000003004076461
 10
796.8000007092546
 20
0.8000003004076461
 10
796.8000007092546
 20
550.8000003004076
  0
LWPOLYLINE
  5
D6D
330
1A
100
AcDbEntity
  8
ZUWAKU
100
AcDbPolyline
 90
        4
 70
     1
 43
0.0
 10
0.4000007092546412
 20
551.2000003004076
 10
0.4000007092546412
 20
0.4000003004076689
 10
797.2000007092547
 20
0.4000003004076458
 10
797.2000007092547
 20
551.2000003004076
  0
LWPOLYLINE
  5
D6E
330
1A
100
AcDbEntity
  8
ZUWAKU
100
AcDbPolyline
 90
        4
 70
     1
 43
0.0
 10
0.0000007092546639
 20
551.6000003004076
 10
0.0000007092546639
 20
0.0000003004075779
 10
797.6000007092547
 20
0.0000003004076454
 10
797.6000007092547
 20
551.6000003004077
  0
LWPOLYLINE
  5
D6F
330
1A
100
AcDbEntity
  8
ZUWAKU
100
AcDbPolyline
 90
        4
 70
     1
 43
0.0
 10
0.600000709254573
 20
551.0000003004076
 10
0.600000709254573
 20
0.6000003004076007
 10
797.0000007092549
 20
0.6000003004076469
 10
797.0000007092546
 20
551.0000003004076
  0
LWPOLYLINE
  5
D70
330
1A
100
AcDbEntity
  8
ZUWAKU
100
AcDbPolyline
 90
        4
 70
     1
 43
0.0
 10
0.2000007092545957
 20
551.4000003004077
 10
0.2000007092545957
 20
0.2000003004076234
 10
797.4000007092545
 20
0.2000003004076465
 10
797.4000007092548
 20
551.4000003004077
  0
LINE
  5
D71
330
1A
100
AcDbEntity
  8
ZUWAKU
100
AcDbLine
 10
0.0000007092546639
 20
30.00000030040757
 30
0.0
 11
797.4000007092545
 21
30.00000030040757
 31
0.0
  0
LINE
  5
D72
330
1A
100
AcDbEntity
  8
ZUWAKU
100
AcDbLine
 10
0.0000007092546639
 20
30.20000030040758
 30
0.0
 11
797.4000007092545
 21
30.20000030040758
 31
0.0
  0
LINE
  5
D73
330
1A
100
AcDbEntity
  8
ZUWAKU
100
AcDbLine
 10
0.0000007092546639
 20
30.40000030040758
 30
0.0
 11
797.4000007092545
 21
30.40000030040758
 31
0.0
  0
LINE
  5
D74
330
1A
100
AcDbEntity
  8
ZUWAKU
100
AcDbLine
 10
0.0000007092546639
 20
30.60000030040758
 30
0.0
 11
797.4000007092545
 21
30.60000030040758
 31
0.0
  0
LINE
  5
D75
330
1A
100
AcDbEntity
  8
ZUWAKU
100
AcDbLine
 10
0.0000007092546639
 20
30.80000030040759
 30
0.0
 11
797.4000007092545
 21
30.80000030040759
 31
0.0
  0
LINE
  5
D76
330
1A
100
AcDbEntity
  8
ZUWAKU
100
AcDbLine
 10
208.6466019993226
 20
15.40000030040761
 30
0.0
 11
447.424364680246
 21
15.40000030040761
 31
0.0
  0
LINE
  5
D77
330
1A
100
AcDbEntity
  8
ZUWAKU
100
AcDbLine
 10
208.6466019993226
 20
15.60000030040761
 30
0.0
 11
447.424364680246
 21
15.60000030040761
 31
0.0
  0
LINE
  5
D78
330
1A
100
AcDbEntity
  8
ZUWAKU
100
AcDbLine
 10
208.6466019993226
 20
15.20000030040761
 30
0.0
 11
447.424364680246
 21
15.20000030040761
 31
0.0
  0
TEXT
  5
D79
330
1A
100
AcDbEntity
  8
MOJI
100
AcDbText
 10
92.9577902974238
 20
12.74117843068234
 30
0.0
 40
6.0
  1
新・丸トップＲＶ１０５
 41
0.9
  7
ｽﾀｲﾙ1
100
AcDbText
  0
CIRCLE
  5
D7A
330
1A
100
AcDbEntity
  8
ZUWAKU
100
AcDbCircle
 10
25.99221286403576
 20
15.20000030040758
 30
0.0
 40
1.75
  0
LINE
  5
D7B
330
1A
100
AcDbEntity
  8
ZUWAKU
100
AcDbLine
 10
26.86721286403576
 20
7.150000300407583
 30
0.0
 11
24.94221286403581
 21
7.150000300407583
 31
0.0
  0
LINE
  5
D7C
330
1A
100
AcDbEntity
  8
ZUWAKU
100
AcDbLine
 10
24.94221286403581
 20
9.95000030040758
 30
0.0
 11
26.86721286403576
 21
9.95000030040758
 31
0.0
  0
LINE
  5
D7D
330
1A
100
AcDbEntity
  8
ZUWAKU
100
AcDbLine
 10
26.86721286403576
 20
20.45000030040758
 30
0.0
 11
24.94221286403581
 21
20.45000030040758
 31
0.0
  0
LINE
  5
D7E
330
1A
100
AcDbEntity
  8
ZUWAKU
100
AcDbLine
 10
24.94221286403581
 20
23.25000030040754
 30
0.0
 11
26.86721286403576
 21
23.25000030040758
 31
0.0
  0
HATCH
  5
D7F
330
1A
100
AcDbEntity
  8
ZUWAKU
100
AcDbHatch
 10
0.0
 20
0.0
 30
0.0
210
0.0
220
0.0
230
1.0
  2
ANSI37
 70
     0
 71
     0
 91
        8
 92
        7
 72
     1
 73
     1
 93
       24
 10
14.50226337037452
 20
17.64484878139116
 42
-0.1989123673796348
 10
14.09221286403578
 20
18.63479827505221
 42
0.0
 10
14.09221286403578
 20
19.92500030040758
 42
-0.4142135623730912
 10
14.61721286403576
 20
20.45000030040758
 42
0.0
 10
17.59221286403567
 20
20.45000030040758
 42
0.4142135623731546
 10
18.11721286403576
 20
20.97500030040757
 42
0.0
 10
18.11721286403576
 20
22.72500030040758
 42
0.4142135623731586
 10
17.59221286403567
 20
23.25000030040758
 42
0.0
 10
14.09221286403578
 20
23.25000030040758
 42
0.4142135623730928
 10
11.29221286403583
 20
20.4500003004076
 42
0.0
 10
11.29221286403583
 20
18.63479827505233
 42
0.1989123673796619
 10
12.52236438305226
 20
15.66494979406873
 42
0.0
 10
15.43216235769693
 20
12.75515181942407
 42
-0.1989123673796613
 10
15.84221286403578
 20
11.76520232576288
 42
0.0
 10
15.84221286403578
 20
10.47500030040757
 42
-0.4142135623730911
 10
15.3172128640358
 20
9.95000030040758
 42
0.0
 10
12.3422128640359
 20
9.95000030040758
 42
0.4142135623731526
 10
11.81721286403581
 20
9.425000300407592
 42
0.0
 10
11.81721286403581
 20
7.675000300407571
 42
0.4142135623731526
 10
12.3422128640359
 20
7.150000300407583
 42
0.0
 10
15.84221286403578
 20
7.150000300407583
 42
0.4142135623731044
 10
18.64221286403585
 20
9.950000300407559
 42
0.0
 10
18.64221286403585
 20
11.76520232576283
 42
0.1989123673796604
 10
17.41206134501931
 20
14.73505080674637
 42
0.0
 97
        0
 92
        7
 72
     1
 73
     1
 93
       16
 10
23.54221286403583
 20
19.05000030040758
 42
-0.4142135623730935
 10
24.94221286403581
 20
20.45000030040758
 42
0.0
 10
26.86721286403576
 20
20.45000030040758
 42
0.4142135623731546
 10
27.39221286403585
 20
20.97500030040757
 42
0.0
 10
27.39221286403585
 20
22.72500030040758
 42
0.4142135623730951
 10
26.86721286403587
 20
23.25000030040758
 42
0.0
 10
24.94221286403569
 20
23.25000030040754
 42
0.4142135623730892
 10
20.74221286403576
 20
19.05000030040751
 42
0.0
 10
20.74221286403576
 20
11.3500003004076
 42
0.4142135623730969
 10
24.94221286403581
 20
7.150000300407583
 42
0.0
 10
26.86721286403576
 20
7.150000300407583
 42
0.4142135623731526
 10
27.39221286403585
 20
7.675000300407571
 42
0.0
 10
27.39221286403585
 20
9.425000300407592
 42
0.4142135623730891
 10
26.86721286403587
 20
9.95000030040758
 42
0.0
 10
24.94221286403581
 20
9.95000030040758
 42
-0.4142135623730928
 10
23.54221286403583
 20
11.35000030040757
 42
0.0
 97
        0
 92
        7
 72
     1
 73
     1
 93
        2
 10
24.24221286403576
 20
15.20000030040758
 42
1.0
 10
27.74221286403576
 20
15.20000030040758
 42
1.0
 97
        0
 92
        7
 72
     1
 73
     1
 93
       26
 10
37.31485934621378
 20
19.20504749397101
 42
0.0
 10
38.37649897935159
 20
22.5669063322406
 42
0.5069206636600134
 10
37.87586808015623
 20
23.25000030040758
 42
0.0
 10
36.17697870054701
 20
23.25000030040758
 42
0.3272098845218764
 10
35.67634780135165
 20
22.88309426857455
 42
0.0
 10
33.80807792671987
 20
16.96690633224066
 42
-0.3272098845219541
 10
33.3074470275244
 20
16.60000030040758
 42
0.0
 10
33.16721286403594
 20
16.60000030040758
 42
-0.4142135623731526
 10
32.64221286403585
 20
17.12500030040756
 42
0.0
 10
32.64221286403585
 20
22.72500030040758
 42
0.4142135623730951
 10
32.11721286403587
 20
23.25000030040758
 42
0.0
 10
30.36721286403576
 20
23.25000030040758
 42
0.4142135623730871
 10
29.84221286403578
 20
22.7250003004076
 42
0.0
 10
29.84221286403578
 20
7.675000300407571
 42
0.4142135623730891
 10
30.36721286403576
 20
7.150000300407583
 42
0.0
 10
32.11721286403576
 20
7.150000300407583
 42
0.4142135623731526
 10
32.64221286403585
 20
7.675000300407571
 42
0.0
 10
32.64221286403585
 20
13.27500030040759
 42
-0.4142135623731526
 10
33.16721286403594
 20
13.80000030040758
 42
0.0
 10
33.30744702752451
 20
13.80000030040758
 42
-0.3272098845218915
 10
33.80807792671987
 20
13.4330942685745
 42
0.0
 10
35.67634780135165
 20
7.516906332240655
 42
0.3272098845218902
 10
36.17697870054701
 20
7.150000300407583
 42
0.0
 10
37.87586808015623
 20
7.150000300407583
 42
0.5069206636600335
 10
38.37649897935159
 20
7.833094268574591
 42
0.0
 10
36.05010760087793
 20
15.20000030040772
 42
0.0
 97
        0
 92
        7
 72
     1
 73
     1
 93
        8
 10
43.49221286403576
 20
22.72500030040759
 42
0.4142135623731546
 10
42.96721286403567
 20
23.25000030040758
 42
0.0
 10
41.2172128640359
 20
23.25000030040758
 42
0.4142135623731507
 10
40.69221286403581
 20
22.7250003004076
 42
0.0
 10
40.69221286403581
 20
7.675000300407571
 42
0.4142135623731526
 10
41.2172128640359
 20
7.150000300407583
 42
0.0
 10
42.96721286403567
 20
7.150000300407583
 42
0.4142135623731526
 10
43.49221286403576
 20
7.675000300407571
 42
0.0
 97
        0
 92
        7
 72
     1
 73
     1
 93
       24
 10
48.39221286403585
 20
19.92500030040758
 42
-0.4142135623731546
 10
48.91721286403594
 20
20.45000030040758
 42
0.0
 10
51.89221286403586
 20
20.45000030040758
 42
0.4142135623730911
 10
52.41721286403583
 20
20.97500030040757
 42
0.0
 10
52.41721286403583
 20
22.72500030040758
 42
0.4142135623730952
 10
51.89221286403586
 20
23.25000030040758
 42
0.0
 10
48.39221286403585
 20
23.25000030040758
 42
0.4142135623731048
 10
45.59221286403579
 20
20.4500003004076
 42
0.0
 10
45.59221286403579
 20
18.63479827505233
 42
0.1989123673796613
 10
46.82236438305233
 20
15.66494979406878
 42
0.0
 10
49.73216235769701
 20
12.75515181942412
 42
-0.1989123673796402
 10
50.14221286403586
 20
11.76520232576304
 42
0.0
 10
50.14221286403586
 20
10.47500030040757
 42
-0.4142135623730911
 10
49.61721286403587
 20
9.95000030040758
 42
0.0
 10
46.64221286403585
 20
9.95000030040758
 42
0.4142135623731526
 10
46.11721286403576
 20
9.425000300407592
 42
0.0
 10
46.11721286403576
 20
7.675000300407571
 42
0.4142135623730891
 10
46.64221286403574
 20
7.150000300407583
 42
0.0
 10
50.14221286403586
 20
7.150000300407583
 42
0.4142135623730925
 10
52.94221286403581
 20
9.950000300407559
 42
0.0
 10
52.94221286403581
 20
11.76520232576283
 42
0.1989123673796675
 10
51.71206134501926
 20
14.73505080674648
 42
0.0
 10
48.8022633703747
 20
17.644848781391
 42
-0.1989123673796652
 10
48.39221286403585
 20
18.63479827505217
 42
0.0
 97
        0
 92
        7
 72
     1
 73
     1
 93
       16
 10
57.84221286403578
 20
22.72500030040757
 42
0.414213562373103
 10
57.31721286403581
 20
23.25000030040758
 42
0.0
 10
55.56721286403581
 20
23.25000030040758
 42
0.4142135623730871
 10
55.04221286403583
 20
22.7250003004076
 42
0.0
 10
55.04221286403583
 20
9.950000300407559
 42
0.4142135623730926
 10
57.84221286403578
 20
7.150000300407583
 42
0.0
 10
61.34221286403579
 20
7.150000300407583
 42
0.4142135623731044
 10
64.14221286403585
 20
9.950000300407559
 42
0.0
 10
64.14221286403585
 20
22.72500030040758
 42
0.4142135623730951
 10
63.61721286403588
 20
23.25000030040758
 42
0.0
 10
61.86721286403576
 20
23.25000030040758
 42
0.4142135623730871
 10
61.34221286403579
 20
22.7250003004076
 42
0.0
 10
61.34221286403579
 20
11.00000030040755
 42
-0.414213562373088
 10
60.29221286403583
 20
9.95000030040758
 42
0.0
 10
58.89221286403586
 20
9.95000030040758
 42
-0.4142135623731197
 10
57.84221286403578
 20
11.00000030040755
 42
0.0
 97
        0
 92
        7
 72
     1
 73
     1
 93
        8
 10
69.04221286403583
 20
22.7250003004076
 42
0.4142135623730871
 10
68.51721286403585
 20
23.25000030040758
 42
0.0
 10
66.76721286403585
 20
23.25000030040758
 42
0.4142135623731507
 10
66.24221286403576
 20
22.7250003004076
 42
0.0
 10
66.24221286403576
 20
7.675000300407571
 42
0.4142135623730891
 10
66.76721286403574
 20
7.150000300407583
 42
0.0
 10
68.51721286403585
 20
7.150000300407583
 42
0.4142135623730891
 10
69.04221286403583
 20
7.675000300407571
 42
0.0
 97
        0
 75
     0
 76
     1
 52
0.0
 41
0.2
 77
     0
 78
     2
 53
45.0
 43
-900.9423036254244
 44
-13.19999969959235
 45
-0.4490128060534576
 46
0.4490128060534577
 79
     0
 53
135.0
 43
-900.9423036254244
 44
-13.19999969959235
 45
-0.4490128060534577
 46
-0.4490128060534576
 79
     0
 47
0.057451373970553
 98
        8
 10
16.07985567227797
 20
15.16717394629313
 10
22.40451571569383
 20
18.84406248285858
 10
25.16436859491432
 20
15.51188194647829
 10
30.9140606908918
 20
16.20129794684908
 10
41.83847272821139
 20
16.66091021439069
 10
46.89820160438421
 20
19.41857661681479
 10
56.55768668165501
 20
18.72915821550259
 10
67.8270803288774
 20
19.18877048304421
  0
ARC
  5
D80
330
1A
100
AcDbEntity
  8
ZUWAKU
100
AcDbCircle
 10
15.49221286403576
 20
18.63479827505228
 30
0.0
 40
4.199999999999999
100
AcDbArc
 50
180.0
 51
225.0
  0
LINE
  5
D81
330
1A
100
AcDbEntity
  8
ZUWAKU
100
AcDbLine
 10
20.74221286403576
 20
11.35000030040758
 30
0.0
 11
20.74221286403576
 21
19.05000030040754
 31
0.0
  0
LINE
  5
D82
330
1A
100
AcDbEntity
  8
ZUWAKU
100
AcDbLine
 10
23.54221286403583
 20
19.05000030040758
 30
0.0
 11
23.54221286403583
 21
11.35000030040758
 31
0.0
  0
ARC
  5
D83
330
1A
100
AcDbEntity
  8
ZUWAKU
100
AcDbCircle
 10
15.49221286403576
 20
18.63479827505228
 30
0.0
 40
1.399999999999999
100
AcDbArc
 50
180.0000000000016
 51
224.9999999999988
  0
ARC
  5
D84
330
1A
100
AcDbEntity
  8
ZUWAKU
100
AcDbCircle
 10
24.94221286403581
 20
11.35000030040758
 30
0.0
 40
4.199999999999999
100
AcDbArc
 50
180.0
 51
270.0
  0
ARC
  5
D85
330
1A
100
AcDbEntity
  8
ZUWAKU
100
AcDbCircle
 10
15.84221286403578
 20
9.95000030040758
 30
0.0
 40
2.799999999999999
100
AcDbArc
 50
270.0
 51
0.0
  0
ARC
  5
D86
330
1A
100
AcDbEntity
  8
ZUWAKU
100
AcDbCircle
 10
14.44221286403581
 20
11.76520232576288
 30
0.0
 40
4.199999999999999
100
AcDbArc
 50
0.0
 51
45.0
  0
LINE
  5
D87
330
1A
100
AcDbEntity
  8
ZUWAKU
100
AcDbLine
 10
12.52236438305226
 20
15.66494979406876
 30
0.0
 11
15.43216235769693
 21
12.75515181942409
 31
0.0
  0
LINE
  5
D88
330
1A
100
AcDbEntity
  8
ZUWAKU
100
AcDbLine
 10
12.34221286403578
 20
9.95000030040758
 30
0.0
 11
15.3172128640358
 21
9.95000030040758
 31
0.0
  0
LINE
  5
D89
330
1A
100
AcDbEntity
  8
ZUWAKU
100
AcDbLine
 10
12.34221286403578
 20
7.150000300407583
 30
0.0
 11
15.84221286403578
 21
7.150000300407583
 31
0.0
  0
ARC
  5
D8A
330
1A
100
AcDbEntity
  8
ZUWAKU
100
AcDbCircle
 10
12.34221286403578
 20
9.425000300407582
 30
0.0
 40
0.525
100
AcDbArc
 50
90.0
 51
180.0
  0
ARC
  5
D8B
330
1A
100
AcDbEntity
  8
ZUWAKU
100
AcDbCircle
 10
12.34221286403578
 20
7.675000300407582
 30
0.0
 40
0.525
100
AcDbArc
 50
180.0
 51
270.0
  0
LINE
  5
D8C
330
1A
100
AcDbEntity
  8
ZUWAKU
100
AcDbLine
 10
11.81721286403581
 20
7.675000300407582
 30
0.0
 11
11.81721286403581
 21
9.425000300407582
 31
0.0
  0
ARC
  5
D8D
330
1A
100
AcDbEntity
  8
ZUWAKU
100
AcDbCircle
 10
14.44221286403581
 20
11.76520232576292
 30
0.0
 40
1.399999999999999
100
AcDbArc
 50
0.0
 51
45.0
  0
ARC
  5
D8E
330
1A
100
AcDbEntity
  8
ZUWAKU
100
AcDbCircle
 10
15.3172128640358
 20
10.47500030040758
 30
0.0
 40
0.525
100
AcDbArc
 50
270.0
 51
0.0
  0
LINE
  5
D8F
330
1A
100
AcDbEntity
  8
ZUWAKU
100
AcDbLine
 10
15.84221286403578
 20
10.47500030040758
 30
0.0
 11
15.84221286403578
 21
11.76520232576292
 31
0.0
  0
LINE
  5
D90
330
1A
100
AcDbEntity
  8
ZUWAKU
100
AcDbLine
 10
17.41206134501931
 20
14.7350508067464
 30
0.0
 11
14.50226337037463
 21
17.64484878139108
 31
0.0
  0
ARC
  5
D91
330
1A
100
AcDbEntity
  8
ZUWAKU
100
AcDbCircle
 10
24.94221286403581
 20
11.35000030040758
 30
0.0
 40
1.399999999999999
100
AcDbArc
 50
180.0
 51
270.0
  0
LINE
  5
D92
330
1A
100
AcDbEntity
  8
ZUWAKU
100
AcDbLine
 10
18.64221286403585
 20
9.95000030040758
 30
0.0
 11
18.64221286403585
 21
11.76520232576292
 31
0.0
  0
ARC
  5
D93
330
1A
100
AcDbEntity
  8
ZUWAKU
100
AcDbCircle
 10
17.59221286403578
 20
20.97500030040758
 30
0.0
 40
0.525
100
AcDbArc
 50
270.0
 51
0.0
  0
ARC
  5
D94
330
1A
100
AcDbEntity
  8
ZUWAKU
100
AcDbCircle
 10
17.59221286403578
 20
22.72500030040757
 30
0.0
 40
0.525
100
AcDbArc
 50
0.0
 51
90.0
  0
ARC
  5
D95
330
1A
100
AcDbEntity
  8
ZUWAKU
100
AcDbCircle
 10
14.09221286403578
 20
20.45000030040758
 30
0.0
 40
2.799999999999999
100
AcDbArc
 50
90.0
 51
180.0
  0
LINE
  5
D96
330
1A
100
AcDbEntity
  8
ZUWAKU
100
AcDbLine
 10
11.29221286403583
 20
20.45000030040758
 30
0.0
 11
11.29221286403583
 21
18.63479827505224
 31
0.0
  0
LINE
  5
D97
330
1A
100
AcDbEntity
  8
ZUWAKU
100
AcDbLine
 10
17.59221286403578
 20
20.45000030040758
 30
0.0
 11
14.61721286403576
 21
20.45000030040758
 31
0.0
  0
LINE
  5
D98
330
1A
100
AcDbEntity
  8
ZUWAKU
100
AcDbLine
 10
14.09221286403578
 20
19.92500030040758
 30
0.0
 11
14.09221286403578
 21
18.63479827505224
 31
0.0
  0
ARC
  5
D99
330
1A
100
AcDbEntity
  8
ZUWAKU
100
AcDbCircle
 10
14.61721286403576
 20
19.92500030040758
 30
0.0
 40
0.525
100
AcDbArc
 50
90.0
 51
180.0
  0
LINE
  5
D9A
330
1A
100
AcDbEntity
  8
ZUWAKU
100
AcDbLine
 10
14.09221286403578
 20
23.25000030040758
 30
0.0
 11
17.59221286403578
 21
23.25000030040758
 31
0.0
  0
ARC
  5
D9B
330
1A
100
AcDbEntity
  8
ZUWAKU
100
AcDbCircle
 10
24.94221286403581
 20
19.05000030040754
 30
0.0
 40
4.199999999999999
100
AcDbArc
 50
90.0
 51
180.0
  0
ARC
  5
D9C
330
1A
100
AcDbEntity
  8
ZUWAKU
100
AcDbCircle
 10
24.94221286403581
 20
19.05000030040758
 30
0.0
 40
1.399999999999999
100
AcDbArc
 50
90.0
 51
180.0
  0
LINE
  5
D9D
330
1A
100
AcDbEntity
  8
ZUWAKU
100
AcDbLine
 10
18.11721286403576
 20
22.72500030040757
 30
0.0
 11
18.11721286403576
 21
20.97500030040758
 31
0.0
  0
LINE
  5
D9E
330
1A
100
AcDbEntity
  8
ZUWAKU
100
AcDbLine
 10
35.67634780135165
 20
22.88309426857455
 30
0.0
 11
33.80807792671987
 21
16.96690633224061
 31
0.0
  0
LINE
  5
D9F
330
1A
100
AcDbEntity
  8
ZUWAKU
100
AcDbLine
 10
29.84221286403578
 20
22.72500030040757
 30
0.0
 11
29.84221286403578
 21
7.675000300407582
 31
0.0
  0
LINE
  5
DA0
330
1A
100
AcDbEntity
  8
ZUWAKU
100
AcDbLine
 10
32.64221286403585
 20
17.12500030040758
 30
0.0
 11
32.64221286403585
 21
22.72500030040757
 31
0.0
  0
LINE
  5
DA1
330
1A
100
AcDbEntity
  8
ZUWAKU
100
AcDbLine
 10
57.84221286403578
 20
11.00000030040757
 30
0.0
 11
57.84221286403578
 21
22.72500030040757
 31
0.0
  0
LINE
  5
DA2
330
1A
100
AcDbEntity
  8
ZUWAKU
100
AcDbLine
 10
55.04221286403583
 20
22.72500030040757
 30
0.0
 11
55.04221286403583
 21
9.95000030040758
 31
0.0
  0
LINE
  5
DA3
330
1A
100
AcDbEntity
  8
ZUWAKU
100
AcDbLine
 10
43.49221286403576
 20
7.675000300407582
 30
0.0
 11
43.49221286403576
 21
22.72500030040757
 31
0.0
  0
LINE
  5
DA4
330
1A
100
AcDbEntity
  8
ZUWAKU
100
AcDbLine
 10
40.69221286403581
 20
22.72500030040757
 30
0.0
 11
40.69221286403581
 21
7.675000300407582
 31
0.0
  0
LINE
  5
DA5
330
1A
100
AcDbEntity
  8
ZUWAKU
100
AcDbLine
 10
37.31485934621378
 20
19.20504749397101
 30
0.0
 11
36.05010760087793
 21
15.2000003004076
 31
0.0
  0
ARC
  5
DA6
330
1A
100
AcDbEntity
  8
ZUWAKU
100
AcDbCircle
 10
49.79221286403583
 20
18.63479827505228
 30
0.0
 40
4.199999999999999
100
AcDbArc
 50
180.0
 51
225.0
  0
ARC
  5
DA7
330
1A
100
AcDbEntity
  8
ZUWAKU
100
AcDbCircle
 10
49.79221286403583
 20
18.63479827505228
 30
0.0
 40
1.399999999999999
100
AcDbArc
 50
180.0000000000016
 51
224.9999999999988
  0
LINE
  5
DA8
330
1A
100
AcDbEntity
  8
ZUWAKU
100
AcDbLine
 10
66.24221286403576
 20
22.72500030040757
 30
0.0
 11
66.24221286403576
 21
7.675000300407582
 31
0.0
  0
LINE
  5
DA9
330
1A
100
AcDbEntity
  8
ZUWAKU
100
AcDbLine
 10
69.04221286403583
 20
7.675000300407582
 30
0.0
 11
69.04221286403583
 21
22.72500030040757
 31
0.0
  0
LINE
  5
DAA
330
1A
100
AcDbEntity
  8
ZUWAKU
100
AcDbLine
 10
61.34221286403579
 20
22.72500030040757
 30
0.0
 11
61.34221286403579
 21
11.00000030040757
 31
0.0
  0
LINE
  5
DAB
330
1A
100
AcDbEntity
  8
ZUWAKU
100
AcDbLine
 10
64.14221286403585
 20
9.95000030040758
 30
0.0
 11
64.14221286403585
 21
22.72500030040757
 31
0.0
  0
LINE
  5
DAC
330
1A
100
AcDbEntity
  8
ZUWAKU
100
AcDbLine
 10
79.12663025724305
 20
30.00000030040757
 30
0.0
 11
79.12663025724305
 21
0.8000003004076461
 31
0.0
  0
LINE
  5
DAD
330
1A
100
AcDbEntity
  8
ZUWAKU
100
AcDbLine
 10
79.52663025724291
 20
30.00000030040757
 30
0.0
 11
79.52663025724314
 21
0.8000003004076461
 31
0.0
  0
LINE
  5
DAE
330
1A
100
AcDbEntity
  8
ZUWAKU
100
AcDbLine
 10
79.32663025724287
 20
30.00000030040757
 30
0.0
 11
79.32663025724309
 21
0.8000003004076461
 31
0.0
  0
LINE
  5
DAF
330
1A
100
AcDbEntity
  8
ZUWAKU
100
AcDbLine
 10
57.84221286403578
 20
7.150000300407583
 30
0.0
 11
61.34221286403579
 21
7.150000300407583
 31
0.0
  0
LINE
  5
DB0
330
1A
100
AcDbEntity
  8
ZUWAKU
100
AcDbLine
 10
60.29221286403583
 20
9.95000030040758
 30
0.0
 11
58.89221286403586
 21
9.95000030040758
 31
0.0
  0
LINE
  5
DB1
330
1A
100
AcDbEntity
  8
ZUWAKU
100
AcDbLine
 10
41.21721286403579
 20
7.150000300407583
 30
0.0
 11
42.96721286403578
 21
7.150000300407583
 31
0.0
  0
LINE
  5
DB2
330
1A
100
AcDbEntity
  8
ZUWAKU
100
AcDbLine
 10
35.67634780135165
 20
7.516906332240608
 30
0.0
 11
33.80807792671987
 21
13.43309426857455
 31
0.0
  0
ARC
  5
DB3
330
1A
100
AcDbEntity
  8
ZUWAKU
100
AcDbCircle
 10
33.16721286403583
 20
13.27500030040758
 30
0.0
 40
0.525
100
AcDbArc
 50
90.0
 51
180.0
  0
ARC
  5
DB4
330
1A
100
AcDbEntity
  8
ZUWAKU
100
AcDbCircle
 10
33.30744702752451
 20
13.27500030040758
 30
0.0
 40
0.525
100
AcDbArc
 50
17.52556837372303
 51
90.0
  0
ARC
  5
DB5
330
1A
100
AcDbEntity
  8
ZUWAKU
100
AcDbCircle
 10
30.36721286403576
 20
7.675000300407582
 30
0.0
 40
0.525
100
AcDbArc
 50
180.0
 51
270.0
  0
ARC
  5
DB6
330
1A
100
AcDbEntity
  8
ZUWAKU
100
AcDbCircle
 10
26.86721286403576
 20
9.425000300407582
 30
0.0
 40
0.525
100
AcDbArc
 50
0.0
 51
90.0
  0
ARC
  5
DB7
330
1A
100
AcDbEntity
  8
ZUWAKU
100
AcDbCircle
 10
26.86721286403576
 20
7.675000300407582
 30
0.0
 40
0.525
100
AcDbArc
 50
270.0
 51
0.0
  0
LINE
  5
DB8
330
1A
100
AcDbEntity
  8
ZUWAKU
100
AcDbLine
 10
27.39221286403585
 20
9.425000300407582
 30
0.0
 11
27.39221286403585
 21
7.675000300407582
 31
0.0
  0
LINE
  5
DB9
330
1A
100
AcDbEntity
  8
ZUWAKU
100
AcDbLine
 10
32.64221286403585
 20
7.675000300407582
 30
0.0
 11
32.64221286403585
 21
13.27500030040758
 31
0.0
  0
ARC
  5
DBA
330
1A
100
AcDbEntity
  8
ZUWAKU
100
AcDbCircle
 10
32.11721286403576
 20
7.675000300407582
 30
0.0
 40
0.525
100
AcDbArc
 50
270.0
 51
0.0
  0
LINE
  5
DBB
330
1A
100
AcDbEntity
  8
ZUWAKU
100
AcDbLine
 10
30.36721286403576
 20
7.150000300407583
 30
0.0
 11
32.11721286403576
 21
7.150000300407583
 31
0.0
  0
ARC
  5
DBC
330
1A
100
AcDbEntity
  8
ZUWAKU
100
AcDbCircle
 10
33.16721286403583
 20
17.12500030040758
 30
0.0
 40
0.525
100
AcDbArc
 50
180.0
 51
270.0
  0
LINE
  5
DBD
330
1A
100
AcDbEntity
  8
ZUWAKU
100
AcDbLine
 10
33.16721286403583
 20
13.80000030040758
 30
0.0
 11
33.30744702752451
 21
13.80000030040758
 31
0.0
  0
LINE
  5
DBE
330
1A
100
AcDbEntity
  8
ZUWAKU
100
AcDbLine
 10
33.30744702752451
 20
16.60000030040758
 30
0.0
 11
33.16721286403583
 21
16.60000030040758
 31
0.0
  0
ARC
  5
DBF
330
1A
100
AcDbEntity
  8
ZUWAKU
100
AcDbCircle
 10
33.30744702752451
 20
17.12500030040758
 30
0.0
 40
0.525
100
AcDbArc
 50
270.0
 51
342.4744316262769
  0
ARC
  5
DC0
330
1A
100
AcDbEntity
  8
ZUWAKU
100
AcDbCircle
 10
36.17697870054712
 20
7.675000300407582
 30
0.0
 40
0.525
100
AcDbArc
 50
197.525568373723
 51
270.0
  0
LINE
  5
DC1
330
1A
100
AcDbEntity
  8
ZUWAKU
100
AcDbLine
 10
38.37649897935159
 20
7.833094268574555
 30
0.0
 11
36.05010760087793
 21
15.2000003004076
 31
0.0
  0
ARC
  5
DC2
330
1A
100
AcDbEntity
  8
ZUWAKU
100
AcDbCircle
 10
37.87586808015612
 20
7.675000300407582
 30
0.0
 40
0.525
100
AcDbArc
 50
270.0
 51
17.52556837372303
  0
LINE
  5
DC3
330
1A
100
AcDbEntity
  8
ZUWAKU
100
AcDbLine
 10
36.17697870054712
 20
7.150000300407583
 30
0.0
 11
37.87586808015612
 21
7.150000300407583
 31
0.0
  0
ARC
  5
DC4
330
1A
100
AcDbEntity
  8
ZUWAKU
100
AcDbCircle
 10
41.21721286403579
 20
7.675000300407582
 30
0.0
 40
0.525
100
AcDbArc
 50
180.0
 51
270.0
  0
ARC
  5
DC5
330
1A
100
AcDbEntity
  8
ZUWAKU
100
AcDbCircle
 10
50.14221286403586
 20
9.95000030040758
 30
0.0
 40
2.799999999999999
100
AcDbArc
 50
270.0
 51
0.0
  0
ARC
  5
DC6
330
1A
100
AcDbEntity
  8
ZUWAKU
100
AcDbCircle
 10
57.84221286403578
 20
9.95000030040758
 30
0.0
 40
2.799999999999999
100
AcDbArc
 50
180.0
 51
270.0
  0
LINE
  5
DC7
330
1A
100
AcDbEntity
  8
ZUWAKU
100
AcDbLine
 10
51.71206134501938
 20
14.7350508067464
 30
0.0
 11
48.80226337037459
 21
17.64484878139108
 31
0.0
  0
LINE
  5
DC8
330
1A
100
AcDbEntity
  8
ZUWAKU
100
AcDbLine
 10
46.82236438305233
 20
15.66494979406876
 30
0.0
 11
49.73216235769701
 21
12.75515181942409
 31
0.0
  0
LINE
  5
DC9
330
1A
100
AcDbEntity
  8
ZUWAKU
100
AcDbLine
 10
46.64221286403585
 20
7.150000300407583
 30
0.0
 11
50.14221286403586
 21
7.150000300407583
 31
0.0
  0
LINE
  5
DCA
330
1A
100
AcDbEntity
  8
ZUWAKU
100
AcDbLine
 10
46.64221286403585
 20
9.95000030040758
 30
0.0
 11
49.61721286403577
 21
9.95000030040758
 31
0.0
  0
ARC
  5
DCB
330
1A
100
AcDbEntity
  8
ZUWAKU
100
AcDbCircle
 10
46.64221286403585
 20
9.425000300407582
 30
0.0
 40
0.525
100
AcDbArc
 50
90.0
 51
180.0
  0
ARC
  5
DCC
330
1A
100
AcDbEntity
  8
ZUWAKU
100
AcDbCircle
 10
42.96721286403578
 20
7.675000300407582
 30
0.0
 40
0.525
100
AcDbArc
 50
270.0
 51
0.0
  0
ARC
  5
DCD
330
1A
100
AcDbEntity
  8
ZUWAKU
100
AcDbCircle
 10
46.64221286403585
 20
7.675000300407582
 30
0.0
 40
0.525
100
AcDbArc
 50
180.0
 51
270.0
  0
LINE
  5
DCE
330
1A
100
AcDbEntity
  8
ZUWAKU
100
AcDbLine
 10
46.11721286403576
 20
7.675000300407582
 30
0.0
 11
46.11721286403576
 21
9.425000300407582
 31
0.0
  0
ARC
  5
DCF
330
1A
100
AcDbEntity
  8
ZUWAKU
100
AcDbCircle
 10
49.61721286403577
 20
10.47500030040758
 30
0.0
 40
0.525
100
AcDbArc
 50
270.0
 51
0.0
  0
ARC
  5
DD0
330
1A
100
AcDbEntity
  8
ZUWAKU
100
AcDbCircle
 10
48.74221286403576
 20
11.76520232576292
 30
0.0
 40
1.399999999999999
100
AcDbArc
 50
0.0
 51
45.0
  0
LINE
  5
DD1
330
1A
100
AcDbEntity
  8
ZUWAKU
100
AcDbLine
 10
50.14221286403586
 20
10.47500030040758
 30
0.0
 11
50.14221286403586
 21
11.76520232576292
 31
0.0
  0
ARC
  5
DD2
330
1A
100
AcDbEntity
  8
ZUWAKU
100
AcDbCircle
 10
58.89221286403586
 20
11.00000030040757
 30
0.0
 40
1.049999999999999
100
AcDbArc
 50
180.0
 51
270.0
  0
ARC
  5
DD3
330
1A
100
AcDbEntity
  8
ZUWAKU
100
AcDbCircle
 10
48.74221286403576
 20
11.76520232576288
 30
0.0
 40
4.199999999999999
100
AcDbArc
 50
0.0
 51
45.0
  0
LINE
  5
DD4
330
1A
100
AcDbEntity
  8
ZUWAKU
100
AcDbLine
 10
52.94221286403581
 20
9.95000030040758
 30
0.0
 11
52.94221286403581
 21
11.76520232576292
 31
0.0
  0
ARC
  5
DD5
330
1A
100
AcDbEntity
  8
ZUWAKU
100
AcDbCircle
 10
61.34221286403579
 20
9.95000030040758
 30
0.0
 40
2.799999999999999
100
AcDbArc
 50
270.0
 51
0.0
  0
LINE
  5
DD6
330
1A
100
AcDbEntity
  8
ZUWAKU
100
AcDbLine
 10
66.76721286403585
 20
7.150000300407583
 30
0.0
 11
68.51721286403585
 21
7.150000300407583
 31
0.0
  0
ARC
  5
DD7
330
1A
100
AcDbEntity
  8
ZUWAKU
100
AcDbCircle
 10
60.29221286403583
 20
11.00000030040757
 30
0.0
 40
1.049999999999999
100
AcDbArc
 50
270.0
 51
0.0
  0
ARC
  5
DD8
330
1A
100
AcDbEntity
  8
ZUWAKU
100
AcDbCircle
 10
66.76721286403585
 20
7.675000300407582
 30
0.0
 40
0.525
100
AcDbArc
 50
180.0
 51
270.0
  0
ARC
  5
DD9
330
1A
100
AcDbEntity
  8
ZUWAKU
100
AcDbCircle
 10
68.51721286403585
 20
7.675000300407582
 30
0.0
 40
0.525
100
AcDbArc
 50
270.0
 51
0.0
  0
LINE
  5
DDA
330
1A
100
AcDbEntity
  8
ZUWAKU
100
AcDbLine
 10
42.96721286403578
 20
23.25000030040758
 30
0.0
 11
41.21721286403579
 21
23.25000030040758
 31
0.0
  0
LINE
  5
DDB
330
1A
100
AcDbEntity
  8
ZUWAKU
100
AcDbLine
 10
27.39221286403585
 20
22.72500030040757
 30
0.0
 11
27.39221286403585
 21
20.97500030040758
 31
0.0
  0
ARC
  5
DDC
330
1A
100
AcDbEntity
  8
ZUWAKU
100
AcDbCircle
 10
26.86721286403576
 20
20.97500030040758
 30
0.0
 40
0.525
100
AcDbArc
 50
270.0
 51
0.0
  0
ARC
  5
DDD
330
1A
100
AcDbEntity
  8
ZUWAKU
100
AcDbCircle
 10
30.36721286403576
 20
22.72500030040757
 30
0.0
 40
0.525
100
AcDbArc
 50
90.0
 51
180.0
  0
ARC
  5
DDE
330
1A
100
AcDbEntity
  8
ZUWAKU
100
AcDbCircle
 10
26.86721286403576
 20
22.72500030040757
 30
0.0
 40
0.525
100
AcDbArc
 50
0.0
 51
90.0
  0
LINE
  5
DDF
330
1A
100
AcDbEntity
  8
ZUWAKU
100
AcDbLine
 10
32.11721286403576
 20
23.25000030040758
 30
0.0
 11
30.36721286403576
 21
23.25000030040758
 31
0.0
  0
ARC
  5
DE0
330
1A
100
AcDbEntity
  8
ZUWAKU
100
AcDbCircle
 10
32.11721286403576
 20
22.72500030040757
 30
0.0
 40
0.525
100
AcDbArc
 50
0.0
 51
90.0
  0
ARC
  5
DE1
330
1A
100
AcDbEntity
  8
ZUWAKU
100
AcDbCircle
 10
36.17697870054712
 20
22.72500030040757
 30
0.0
 40
0.525
100
AcDbArc
 50
90.0
 51
162.4744316262769
  0
LINE
  5
DE2
330
1A
100
AcDbEntity
  8
ZUWAKU
100
AcDbLine
 10
38.37649897935159
 20
22.56690633224061
 30
0.0
 11
37.31485934621378
 21
19.20504749397101
 31
0.0
  0
ARC
  5
DE3
330
1A
100
AcDbEntity
  8
ZUWAKU
100
AcDbCircle
 10
37.87586808015612
 20
22.72500030040757
 30
0.0
 40
0.525
100
AcDbArc
 50
342.4744316262769
 51
90.0
  0
LINE
  5
DE4
330
1A
100
AcDbEntity
  8
ZUWAKU
100
AcDbLine
 10
36.17697870054712
 20
23.25000030040758
 30
0.0
 11
37.87586808015612
 21
23.25000030040758
 31
0.0
  0
ARC
  5
DE5
330
1A
100
AcDbEntity
  8
ZUWAKU
100
AcDbCircle
 10
41.21721286403579
 20
22.72500030040757
 30
0.0
 40
0.525
100
AcDbArc
 50
90.0
 51
180.0
  0
LINE
  5
DE6
330
1A
100
AcDbEntity
  8
ZUWAKU
100
AcDbLine
 10
51.89221286403586
 20
20.45000030040758
 30
0.0
 11
48.91721286403583
 21
20.45000030040758
 31
0.0
  0
LINE
  5
DE7
330
1A
100
AcDbEntity
  8
ZUWAKU
100
AcDbLine
 10
48.39221286403585
 20
23.25000030040758
 30
0.0
 11
51.89221286403586
 21
23.25000030040758
 31
0.0
  0
ARC
  5
DE8
330
1A
100
AcDbEntity
  8
ZUWAKU
100
AcDbCircle
 10
48.39221286403585
 20
20.45000030040758
 30
0.0
 40
2.799999999999999
100
AcDbArc
 50
90.0
 51
180.0
  0
LINE
  5
DE9
330
1A
100
AcDbEntity
  8
ZUWAKU
100
AcDbLine
 10
45.59221286403579
 20
20.45000030040758
 30
0.0
 11
45.59221286403579
 21
18.63479827505224
 31
0.0
  0
ARC
  5
DEA
330
1A
100
AcDbEntity
  8
ZUWAKU
100
AcDbCircle
 10
42.96721286403578
 20
22.72500030040757
 30
0.0
 40
0.525
100
AcDbArc
 50
0.0
 51
90.0
  0
LINE
  5
DEB
330
1A
100
AcDbEntity
  8
ZUWAKU
100
AcDbLine
 10
48.39221286403585
 20
19.92500030040758
 30
0.0
 11
48.39221286403585
 21
18.63479827505224
 31
0.0
  0
ARC
  5
DEC
330
1A
100
AcDbEntity
  8
ZUWAKU
100
AcDbCircle
 10
48.91721286403583
 20
19.92500030040758
 30
0.0
 40
0.525
100
AcDbArc
 50
90.0
 51
180.0
  0
LINE
  5
DED
330
1A
100
AcDbEntity
  8
ZUWAKU
100
AcDbLine
 10
52.41721286403583
 20
22.72500030040757
 30
0.0
 11
52.41721286403583
 21
20.97500030040758
 31
0.0
  0
ARC
  5
DEE
330
1A
100
AcDbEntity
  8
ZUWAKU
100
AcDbCircle
 10
51.89221286403586
 20
20.97500030040758
 30
0.0
 40
0.525
100
AcDbArc
 50
270.0
 51
0.0
  0
ARC
  5
DEF
330
1A
100
AcDbEntity
  8
ZUWAKU
100
AcDbCircle
 10
51.89221286403586
 20
22.72500030040757
 30
0.0
 40
0.525
100
AcDbArc
 50
0.0
 51
90.0
  0
LINE
  5
DF0
330
1A
100
AcDbEntity
  8
ZUWAKU
100
AcDbLine
 10
57.31721286403581
 20
23.25000030040758
 30
0.0
 11
55.56721286403581
 21
23.25000030040758
 31
0.0
  0
ARC
  5
DF1
330
1A
100
AcDbEntity
  8
ZUWAKU
100
AcDbCircle
 10
55.56721286403581
 20
22.72500030040757
 30
0.0
 40
0.525
100
AcDbArc
 50
90.0
 51
180.0
  0
ARC
  5
DF2
330
1A
100
AcDbEntity
  8
ZUWAKU
100
AcDbCircle
 10
57.31721286403581
 20
22.72500030040757
 30
0.0
 40
0.525
100
AcDbArc
 50
0.0
 51
90.0
  0
LINE
  5
DF3
330
1A
100
AcDbEntity
  8
ZUWAKU
100
AcDbLine
 10
68.51721286403585
 20
23.25000030040758
 30
0.0
 11
66.76721286403585
 21
23.25000030040758
 31
0.0
  0
ARC
  5
DF4
330
1A
100
AcDbEntity
  8
ZUWAKU
100
AcDbCircle
 10
61.86721286403576
 20
22.72500030040757
 30
0.0
 40
0.525
100
AcDbArc
 50
90.0
 51
180.0
  0
LINE
  5
DF5
330
1A
100
AcDbEntity
  8
ZUWAKU
100
AcDbLine
 10
63.61721286403576
 20
23.25000030040758
 30
0.0
 11
61.86721286403576
 21
23.25000030040758
 31
0.0
  0
ARC
  5
DF6
330
1A
100
AcDbEntity
  8
ZUWAKU
100
AcDbCircle
 10
63.61721286403576
 20
22.72500030040757
 30
0.0
 40
0.525
100
AcDbArc
 50
0.0
 51
90.0
  0
ARC
  5
DF7
330
1A
100
AcDbEntity
  8
ZUWAKU
100
AcDbCircle
 10
66.76721286403585
 20
22.72500030040757
 30
0.0
 40
0.525
100
AcDbArc
 50
90.0
 51
180.0
  0
ARC
  5
DF8
330
1A
100
AcDbEntity
  8
ZUWAKU
100
AcDbCircle
 10
68.51721286403585
 20
22.72500030040757
 30
0.0
 40
0.525
100
AcDbArc
 50
0.0
 51
90.0
  0
TEXT
  5
DF9
330
1A
100
AcDbEntity
  8
MOJI
100
AcDbText
 10
239.8272033901057
 20
18.00492135781496
 30
0.0
 40
5.599999999999999
  1
亜鉛メッキ金具横打（吊）
 41
0.9
  7
ｽﾀｲﾙ1
100
AcDbText
  0
TEXT
  5
DFA
330
1A
100
AcDbEntity
  8
MOJI
100
AcDbText
 10
239.8272033901057
 20
3.204921357814999
 30
0.0
 40
5.599999999999999
  1
ＲＶ１０５－Ｌ１８０
 41
0.9
  7
ｽﾀｲﾙ1
100
AcDbText
  0
LINE
  5
DFB
330
1A
100
AcDbEntity
  8
ZUWAKU
100
AcDbLine
 10
208.4466019993224
 20
30.00000030040757
 30
0.0
 11
208.4466019993226
 21
0.8000003004076461
 31
0.0
  0
LINE
  5
DFC
330
1A
100
AcDbEntity
  8
ZUWAKU
100
AcDbLine
 10
208.6466019993224
 20
30.00000030040757
 30
0.0
 11
208.6466019993226
 21
0.8000003004076461
 31
0.0
  0
LINE
  5
DFD
330
1A
100
AcDbEntity
  8
ZUWAKU
100
AcDbLine
 10
208.2466019993225
 20
30.00000030040757
 30
0.0
 11
208.2466019993225
 21
0.8000003004076461
 31
0.0
  0
TEXT
  5
DFE
330
1A
100
AcDbEntity
  8
ZUWAKU
100
AcDbText
 10
209.7240470215322
 20
9.655356838793196
 30
0.0
 40
4.0
  1
サイズ
 41
0.9
  7
ｽﾀｲﾙ1
100
AcDbText
  0
TEXT
  5
DFF
330
1A
100
AcDbEntity
  8
ZUWAKU
100
AcDbText
 10
209.7240470215319
 20
24.05535683879316
 30
0.0
 40
4.0
  1
品名
 41
0.9
  7
ｽﾀｲﾙ1
100
AcDbText
  0
TEXT
  5
E00
330
1A
100
AcDbEntity
  8
ZUWAKU
100
AcDbText
 10
658.2039383965571
 20
18.00492135781496
 30
0.0
 40
5.599999999999999
  1
　　．　　．　　
 41
0.9
  7
ｽﾀｲﾙ1
100
AcDbText
  0
LINE
  5
E01
330
1A
100
AcDbEntity
  8
ZUWAKU
100
AcDbLine
 10
648.8172032194588
 20
15.60000030040761
 30
0.0
 11
697.2490112577959
 21
15.60000030040761
 31
0.0
  0
LINE
  5
E02
330
1A
100
AcDbEntity
  8
ZUWAKU
100
AcDbLine
 10
648.817203219459
 20
15.40000030040761
 30
0.0
 11
697.2490112577959
 21
15.40000030040761
 31
0.0
  0
LINE
  5
E03
330
1A
100
AcDbEntity
  8
ZUWAKU
100
AcDbLine
 10
648.8172032194588
 20
15.20000030040761
 30
0.0
 11
697.2490112577959
 21
15.20000030040761
 31
0.0
  0
LINE
  5
E04
330
1A
100
AcDbEntity
  8
ZUWAKU
100
AcDbLine
 10
505.1991802073955
 20
15.60000030040761
 30
0.0
 11
552.5269564753671
 21
15.60000030040761
 31
0.0
  0
LINE
  5
E05
330
1A
100
AcDbEntity
  8
ZUWAKU
100
AcDbLine
 10
505.1991802073955
 20
15.40000030040761
 30
0.0
 11
552.5269564753671
 21
15.40000030040761
 31
0.0
  0
LINE
  5
E06
330
1A
100
AcDbEntity
  8
ZUWAKU
100
AcDbLine
 10
505.1991802073955
 20
15.20000030040761
 30
0.0
 11
552.5269564753671
 21
15.20000030040761
 31
0.0
  0
LINE
  5
E07
330
1A
100
AcDbEntity
  8
ZUWAKU
100
AcDbLine
 10
504.7991802073957
 20
30.00000030040757
 30
0.0
 11
504.7991802073957
 21
0.8000003004076461
 31
0.0
  0
LINE
  5
E08
330
1A
100
AcDbEntity
  8
ZUWAKU
100
AcDbLine
 10
505.1991802073955
 20
30.00000030040757
 30
0.0
 11
505.1991802073957
 21
0.8000003004076461
 31
0.0
  0
LINE
  5
E09
330
1A
100
AcDbEntity
  8
ZUWAKU
100
AcDbLine
 10
504.9991802073955
 20
30.00000030040757
 30
0.0
 11
504.9991802073957
 21
0.8000003004076461
 31
0.0
  0
TEXT
  5
E0A
330
1A
100
AcDbEntity
  8
MOJI
100
AcDbText
 10
528.0409086815675
 20
18.00492135781496
 30
0.0
 40
5.599999999999999
  1
Ａ３
 41
0.9
  7
ｽﾀｲﾙ1
100
AcDbText
  0
LINE
  5
E0B
330
1A
100
AcDbEntity
  8
ZUWAKU
100
AcDbLine
 10
447.424364680246
 20
30.00000030040757
 30
0.0
 11
447.424364680246
 21
0.8000003004076461
 31
0.0
  0
LINE
  5
E0C
330
1A
100
AcDbEntity
  8
ZUWAKU
100
AcDbLine
 10
447.8243646802459
 20
30.00000030040757
 30
0.0
 11
447.8243646802461
 21
0.8000003004076461
 31
0.0
  0
LINE
  5
E0D
330
1A
100
AcDbEntity
  8
ZUWAKU
100
AcDbLine
 10
447.6243646802458
 20
30.00000030040757
 30
0.0
 11
447.6243646802461
 21
0.8000003004076461
 31
0.0
  0
TEXT
  5
E0E
330
1A
100
AcDbEntity
  8
MOJI
100
AcDbText
 10
464.5946267124936
 20
11.94261802206756
 30
0.0
 40
5.599999999999999
  1
ＬＪ５２Ｇ
 41
0.9
  7
ｽﾀｲﾙ1
100
AcDbText
  0
TEXT
  5
E0F
330
1A
100
AcDbEntity
  8
ZUWAKU
100
AcDbText
 10
506.6766252296054
 20
9.655356838793196
 30
0.0
 40
4.0
  1
縮尺
 41
0.9
  7
ｽﾀｲﾙ1
100
AcDbText
  0
TEXT
  5
E10
330
1A
100
AcDbEntity
  8
MOJI
100
AcDbText
 10
528.0409086815675
 20
3.204921357814999
 30
0.0
 40
5.599999999999999
  1
１/２
 41
0.9
  7
ｽﾀｲﾙ1
100
AcDbText
  0
TEXT
  5
E11
330
1A
100
AcDbEntity
  8
ZUWAKU
100
AcDbText
 10
449.3018097024555
 20
24.05535683879316
 30
0.0
 40
4.0
  1
品番
 41
0.9
  7
ｽﾀｲﾙ1
100
AcDbText
  0
TEXT
  5
E12
330
1A
100
AcDbEntity
  8
ZUWAKU
100
AcDbText
 10
506.6766252296051
 20
24.05535683879316
 30
0.0
 40
4.0
  1
用紙
 41
0.9
  7
ｽﾀｲﾙ1
100
AcDbText
  0
LINE
  5
E13
330
1A
100
AcDbEntity
  8
ZUWAKU
100
AcDbLine
 10
552.5269564753671
 20
30.00000030040757
 30
0.0
 11
552.5269564753671
 21
0.8000003004076461
 31
0.0
  0
LINE
  5
E14
330
1A
100
AcDbEntity
  8
ZUWAKU
100
AcDbLine
 10
552.9269564753669
 20
30.00000030040757
 30
0.0
 11
552.9269564753672
 21
0.8000003004076461
 31
0.0
  0
LINE
  5
E15
330
1A
100
AcDbEntity
  8
ZUWAKU
100
AcDbLine
 10
552.7269564753669
 20
30.00000030040757
 30
0.0
 11
552.7269564753671
 21
0.8000003004076461
 31
0.0
  0
LINE
  5
E16
330
1A
100
AcDbEntity
  8
ZUWAKU
100
AcDbLine
 10
648.4172032194592
 20
30.00000030040757
 30
0.0
 11
648.4172032194592
 21
0.8000003004076461
 31
0.0
  0
LINE
  5
E17
330
1A
100
AcDbEntity
  8
ZUWAKU
100
AcDbLine
 10
648.817203219459
 20
30.00000030040757
 30
0.0
 11
648.8172032194593
 21
0.8000003004076461
 31
0.0
  0
LINE
  5
E18
330
1A
100
AcDbEntity
  8
ZUWAKU
100
AcDbLine
 10
648.617203219459
 20
30.00000030040757
 30
0.0
 11
648.6172032194592
 21
0.8000003004076461
 31
0.0
  0
TEXT
  5
E19
330
1A
100
AcDbEntity
  8
ZUWAKU
100
AcDbText
 10
650.2946482416687
 20
24.05535683879316
 30
0.0
 40
4.0
  1
DATE
 41
0.9
  7
ｽﾀｲﾙ1
100
AcDbText
  0
TEXT
  5
E1A
330
1A
100
AcDbEntity
  8
ZUWAKU
100
AcDbText
 10
708.5280849014984
 20
17.55383963609438
 30
0.0
 40
6.0
  1
積水化学工業株式会社
 41
0.9
  7
ｽﾀｲﾙ1
100
AcDbText
  0
LINE
  5
E1B
330
1A
100
AcDbEntity
  8
ZUWAKU
100
AcDbLine
 10
697.8490112577958
 20
30.00000030040757
 30
0.0
 11
697.8490112577961
 21
0.8000003004076461
 31
0.0
  0
LINE
  5
E1C
330
1A
100
AcDbEntity
  8
ZUWAKU
100
AcDbLine
 10
697.6490112577957
 20
30.00000030040757
 30
0.0
 11
697.649011257796
 21
0.8000003004076461
 31
0.0
  0
LINE
  5
E1D
330
1A
100
AcDbEntity
  8
ZUWAKU
100
AcDbLine
 10
697.4490112577959
 20
30.00000030040757
 30
0.0
 11
697.4490112577959
 21
0.8000003004076461
 31
0.0
  0
LINE
  5
E1E
330
1A
100
AcDbEntity
  8
ZUWAKU
100
AcDbLine
 10
697.2490112577959
 20
30.00000030040757
 30
0.0
 11
697.2490112577959
 21
0.8000003004076461
 31
0.0
  0
TEXT
  5
E1F
330
1A
100
AcDbEntity
  8
ZUWAKU
100
AcDbText
 10
708.5280849014984
 20
6.648840614261644
 30
0.0
 40
6.0
  1
建材事業部
 41
0.9
  7
ｽﾀｲﾙ1
100
AcDbText
  0
VIEWPORT
  5
22
330
17
100
AcDbEntity
 67
     1
  8
0
100
AcDbViewport
 10
313.6808219178082
 20
148.5
 30
0.0
 40
627.3616438356165
 41
297.0
 68
     2
 69
     1
1001
ACAD
1000
MVIEW
1002
{
1070
    16
1010
0.0
1020
0.0
1030
0.0
1010
0.0
1020
0.0
1030
1.0
1040
0.0
1040
297.0
1040
313.6808219178082
1040
148.5
1040
50.0
1040
0.0
1040
0.0
1070
     0
1070
   100
1070
     1
1070
     0
1070
     0
1070
     0
1070
     0
1070
     0
1040
0.0
1040
0.0
1040
0.0
1040
1.0
1040
1.0
1040
10.0
1040
10.0
1070
     0
1002
{
1002
}
1002
}
  0
VIEWPORT
  5
64
330
17
100
AcDbEntity
 67
     1
  8
VIEWPORT
100
AcDbViewport
 10
210.0
 20
148.5
 30
0.0
 40
420.0
 41
297.0
 68
     1
 69
     2
1001
ACAD
1000
MVIEW
1002
{
1070
    16
1010
0.0
1020
0.0
1030
0.0
1010
0.0
1020
0.0
1030
1.0
1040
0.0
1040
605.8799999999998
1040
420.0
1040
297.0
1040
50.0
1040
0.0
1040
0.0
1070
     0
1070
   100
1070
     1
1070
     0
1070
     0
1070
     0
1070
     0
1070
     0
1040
0.0
1040
0.0
1040
0.0
1040
10.0
1040
10.0
1040
0.0
1040
0.0
1070
     0
1002
{
1002
}
1002
}
  0
ENDSEC
  0
SECTION
  2
OBJECTS
  0
DICTIONARY
  5
C
330
0
100
AcDbDictionary
  3
ACAD_GROUP
350
D
  3
ACAD_LAYOUT
350
14C
  3
ACAD_MLINESTYLE
350
E
  3
ACAD_PLOTSETTINGS
350
14D
  3
ACAD_PLOTSTYLENAME
350
14A
  3
ACADDIM
350
4A5
  3
ACDBHEADERROUNDTRIPXREC
350
E7A
  0
DICTIONARY
  5
506
330
1A
100
AcDbDictionary
280
     1
  3
ACAD_LAYOUTSELFREF
360
E9C
  0
DICTIONARY
  5
504
330
17
100
AcDbDictionary
280
     1
  3
ACAD_LAYOUTSELFREF
360
E9B
  0
DICTIONARY
  5
D
102
{ACAD_REACTORS
330
C
102
}
330
C
100
AcDbDictionary
  0
DICTIONARY
  5
14C
102
{ACAD_REACTORS
330
C
102
}
330
C
100
AcDbDictionary
  0
DICTIONARY
  5
E
102
{ACAD_REACTORS
330
C
102
}
330
C
100
AcDbDictionary
  3
STANDARD
350
13
  0
DICTIONARY
  5
14D
102
{ACAD_REACTORS
330
C
102
}
330
C
100
AcDbDictionary
  0
ACDBDICTIONARYWDFLT
  5
14A
102
{ACAD_REACTORS
330
C
102
}
330
C
100
AcDbDictionary
281
     1
  3
Normal
350
14B
100
AcDbDictionaryWithDefault
340
14B
1001
ACAD
1000
TREAT_AS_HARD
1070
     0
1000
TREAT_AS_HARD
1070
     0
1000
TREAT_AS_HARD
1070
     0
1000
TREAT_AS_HARD
1070
     0
1000
TREAT_AS_HARD
1070
     0
1000
TREAT_AS_HARD
1070
     0
  0
XRECORD
  5
4A5
102
{ACAD_REACTORS
330
C
102
}
330
C
100
AcDbXrecord
 90
   990106
  3

 60
     0
 61
     0
 62
     1
 63
     3
 64
     0
 65
     0
 66
     0
 67
     3
 68
     1
 69
     0
 70
     0
 71
     0
 72
     0
 40
0.0
170
     0
340
BCA
  0
DICTIONARY
  5
E7A
102
{ACAD_REACTORS
330
C
102
}
330
C
100
AcDbDictionary
  3
TSTACKALIGN
350
E7B
  3
TSTACKSIZE
350
E7C
  3
HYPERLINKBASE
350
E7D
  3
STYLESHEET
350
E7E
  3
LAYOUTDICT
350
E7F
  3
PLOTSETDICT
350
E80
  3
PLOTSTYLNAMDICT
350
E81
  3
LWETCUNION
350
E82
  3
INSUNITS
350
E83
  3
CEPSNTYPE
350
E84
  3
FINGERPRINTGUID
350
E85
  3
VERSIONGUID
350
E86
  3
PSVPSCALE
350
E87
  3
DIMSTYLEDATA
350
E88
  3
PUCSORTHOREF
350
E89
  3
PUCSORTHOVIEW
350
E8A
  3
PUCSBASE
350
E8B
  3
PUCSORGTOP
350
E8C
  3
PUCSORGBOTTOM
350
E8D
  3
PUCSORGLEFT
350
E8E
  3
PUCSORGRIGHT
350
E8F
  3
PUCSORGFRONT
350
E90
  3
PUCSORGBACK
350
E91
  3
UCSORTHOREF
350
E92
  3
UCSORTHOVIEW
350
E93
  3
UCSBASE
350
E94
  3
UCSORGTOP
350
E95
  3
UCSORGBOTTOM
350
E96
  3
UCSORGLEFT
350
E97
  3
UCSORGRIGHT
350
E98
  3
UCSORGFRONT
350
E99
  3
UCSORGBACK
350
E9A
  0
XRECORD
  5
E9C
102
{ACAD_REACTORS
330
506
102
}
330
506
100
AcDbXrecord
340
1A
  0
XRECORD
  5
E9B
102
{ACAD_REACTORS
330
504
102
}
330
504
100
AcDbXrecord
340
17
  0
MLINESTYLE
  5
13
102
{ACAD_REACTORS
330
E
102
}
330
E
100
AcDbMlineStyle
  2
STANDARD
 70
     0
  3

 62
     0
 51
90.0
 52
90.0
 71
     2
 49
0.5
 62
   256
  6
BYLAYER
 49
-0.5
 62
   256
  6
BYLAYER
  0
ACDBPLACEHOLDER
  5
14B
102
{ACAD_REACTORS
330
14A
102
}
330
14A
100
AcDbPlaceHolder
280
     0
  0
XRECORD
  5
E7B
102
{ACAD_REACTORS
330
E7A
102
}
330
E7A
100
AcDbXrecord
 90
        1
  0
XRECORD
  5
E7C
102
{ACAD_REACTORS
330
E7A
102
}
330
E7A
100
AcDbXrecord
 90
       70
  0
XRECORD
  5
E7D
102
{ACAD_REACTORS
330
E7A
102
}
330
E7A
100
AcDbXrecord
  1

  0
XRECORD
  5
E7E
102
{ACAD_REACTORS
330
E7A
102
}
330
E7A
100
AcDbXrecord
  1
systemprinter.ctb
  0
XRECORD
  5
E7F
102
{ACAD_REACTORS
330
E7A
102
}
330
E7A
100
AcDbXrecord
340
14C
  0
XRECORD
  5
E80
102
{ACAD_REACTORS
330
E7A
102
}
330
E7A
100
AcDbXrecord
340
14D
  0
XRECORD
  5
E81
102
{ACAD_REACTORS
330
E7A
102
}
330
E7A
100
AcDbXrecord
340
14A
  0
XRECORD
  5
E82
102
{ACAD_REACTORS
330
E7A
102
}
330
E7A
100
AcDbXrecord
 90
    10781
  0
XRECORD
  5
E83
102
{ACAD_REACTORS
330
E7A
102
}
330
E7A
100
AcDbXrecord
 90
        0
  0
XRECORD
  5
E84
102
{ACAD_REACTORS
330
E7A
102
}
330
E7A
100
AcDbXrecord
 90
        0
  0
XRECORD
  5
E85
102
{ACAD_REACTORS
330
E7A
102
}
330
E7A
100
AcDbXrecord
  1
{75772F4A-CE5A-11D3-932C-444553540000}
  0
XRECORD
  5
E86
102
{ACAD_REACTORS
330
E7A
102
}
330
E7A
100
AcDbXrecord
  1
{828BB468-0DE0-4E90-A812-0433FF9A1D1E}
  0
XRECORD
  5
E87
102
{ACAD_REACTORS
330
E7A
102
}
330
E7A
100
AcDbXrecord
 40
0.0
  0
XRECORD
  5
E88
102
{ACAD_REACTORS
330
E7A
102
}
330
E7A
100
AcDbXrecord
1000
DSTYLE
1002
{
1070
   341
340
6D
1070
   343
340
6D
1070
   344
340
6D
1070
   371
 70
    -1
1070
   372
 70
    -1
1002
}
  0
XRECORD
  5
E89
102
{ACAD_REACTORS
330
E7A
102
}
330
E7A
100
AcDbXrecord
340
0
  0
XRECORD
  5
E8A
102
{ACAD_REACTORS
330
E7A
102
}
330
E7A
100
AcDbXrecord
 70
     0
  0
XRECORD
  5
E8B
102
{ACAD_REACTORS
330
E7A
102
}
330
E7A
100
AcDbXrecord
340
0
  0
XRECORD
  5
E8C
102
{ACAD_REACTORS
330
E7A
102
}
330
E7A
100
AcDbXrecord
 10
0.0
 20
0.0
 30
0.0
  0
XRECORD
  5
E8D
102
{ACAD_REACTORS
330
E7A
102
}
330
E7A
100
AcDbXrecord
 10
0.0
 20
0.0
 30
0.0
  0
XRECORD
  5
E8E
102
{ACAD_REACTORS
330
E7A
102
}
330
E7A
100
AcDbXrecord
 10
0.0
 20
0.0
 30
0.0
  0
XRECORD
  5
E8F
102
{ACAD_REACTORS
330
E7A
102
}
330
E7A
100
AcDbXrecord
 10
0.0
 20
0.0
 30
0.0
  0
XRECORD
  5
E90
102
{ACAD_REACTORS
330
E7A
102
}
330
E7A
100
AcDbXrecord
 10
0.0
 20
0.0
 30
0.0
  0
XRECORD
  5
E91
102
{ACAD_REACTORS
330
E7A
102
}
330
E7A
100
AcDbXrecord
 10
0.0
 20
0.0
 30
0.0
  0
XRECORD
  5
E92
102
{ACAD_REACTORS
330
E7A
102
}
330
E7A
100
AcDbXrecord
340
0
  0
XRECORD
  5
E93
102
{ACAD_REACTORS
330
E7A
102
}
330
E7A
100
AcDbXrecord
 70
     0
  0
XRECORD
  5
E94
102
{ACAD_REACTORS
330
E7A
102
}
330
E7A
100
AcDbXrecord
340
0
  0
XRECORD
  5
E95
102
{ACAD_REACTORS
330
E7A
102
}
330
E7A
100
AcDbXrecord
 10
0.0
 20
0.0
 30
0.0
  0
XRECORD
  5
E96
102
{ACAD_REACTORS
330
E7A
102
}
330
E7A
100
AcDbXrecord
 10
0.0
 20
0.0
 30
0.0
  0
XRECORD
  5
E97
102
{ACAD_REACTORS
330
E7A
102
}
330
E7A
100
AcDbXrecord
 10
0.0
 20
0.0
 30
0.0
  0
XRECORD
  5
E98
102
{ACAD_REACTORS
330
E7A
102
}
330
E7A
100
AcDbXrecord
 10
0.0
 20
0.0
 30
0.0
  0
XRECORD
  5
E99
102
{ACAD_REACTORS
330
E7A
102
}
330
E7A
100
AcDbXrecord
 10
0.0
 20
0.0
 30
0.0
  0
XRECORD
  5
E9A
102
{ACAD_REACTORS
330
E7A
102
}
330
E7A
100
AcDbXrecord
 10
0.0
 20
0.0
 30
0.0
  0
ENDSEC
  0
EOF
