  0
SECTION
  2
HEADER
  9
$ACADVER
  1
AC1014
  9
$ACADMAINTVER
 70
     9
  9
$DWGCODEPAGE
  3
ANSI_932
  9
$INSBASE
 10
0.0
 20
0.0
 30
0.0
  9
$EXTMIN
 10
-0.0256328098773793
 20
-0.0181260584133725
 30
-0.0015258207003583
  9
$EXTMAX
 10
797.6000995626677
 20
551.6452344880035
 30
0.0000000349246037
  9
$LIMMIN
 10
0.0
 20
0.0
  9
$LIMMAX
 10
840.0
 20
594.0
  9
$ORTHOMODE
 70
     1
  9
$REGENMODE
 70
     1
  9
$FILLMODE
 70
     1
  9
$QTEXTMODE
 70
     0
  9
$MIRRTEXT
 70
     1
  9
$DRAGMODE
 70
     2
  9
$LTSCALE
 40
10.0
  9
$OSMODE
 70
    35
  9
$ATTMODE
 70
     1
  9
$TEXTSIZE
 40
5.0
  9
$TRACEWID
 40
1.0
  9
$TEXTSTYLE
  7
STANDARD
  9
$CLAYER
  8
CENTER_L
  9
$CELTYPE
  6
BYLAYER
  9
$CECOLOR
 62
   256
  9
$CELTSCALE
 40
1.0
  9
$DELOBJ
 70
     1
  9
$DISPSILH
 70
     0
  9
$DIMSCALE
 40
1.0
  9
$DIMASZ
 40
3.0
  9
$DIMEXO
 40
6.0
  9
$DIMDLI
 40
14.0
  9
$DIMRND
 40
0.0
  9
$DIMDLE
 40
0.0
  9
$DIMEXE
 40
3.0
  9
$DIMTP
 40
0.0
  9
$DIMTM
 40
0.0
  9
$DIMTXT
 40
6.0
  9
$DIMCEN
 40
10.0
  9
$DIMTSZ
 40
0.0
  9
$DIMTOL
 70
     0
  9
$DIMLIM
 70
     0
  9
$DIMTIH
 70
     0
  9
$DIMTOH
 70
     0
  9
$DIMSE1
 70
     0
  9
$DIMSE2
 70
     0
  9
$DIMTAD
 70
     3
  9
$DIMZIN
 70
     0
  9
$DIMBLK
  1

  9
$DIMASO
 70
     1
  9
$DIMSHO
 70
     1
  9
$DIMPOST
  1

  9
$DIMAPOST
  1

  9
$DIMALT
 70
     0
  9
$DIMALTD
 70
     2
  9
$DIMALTF
 40
25.4
  9
$DIMLFAC
 40
1.0
  9
$DIMTOFL
 70
     1
  9
$DIMTVP
 40
0.0
  9
$DIMTIX
 70
     0
  9
$DIMSOXD
 70
     0
  9
$DIMSAH
 70
     1
  9
$DIMBLK1
  1
OPEN
  9
$DIMBLK2
  1
OPEN
  9
$DIMSTYLE
  2
STANDARD
  9
$DIMCLRD
 70
   256
  9
$DIMCLRE
 70
   256
  9
$DIMCLRT
 70
   256
  9
$DIMTFAC
 40
1.0
  9
$DIMGAP
 40
2.0
  9
$DIMJUST
 70
     0
  9
$DIMSD1
 70
     0
  9
$DIMSD2
 70
     0
  9
$DIMTOLJ
 70
     1
  9
$DIMTZIN
 70
     0
  9
$DIMALTZ
 70
     0
  9
$DIMALTTZ
 70
     0
  9
$DIMFIT
 70
     3
  9
$DIMUPT
 70
     0
  9
$DIMUNIT
 70
     2
  9
$DIMDEC
 70
     0
  9
$DIMTDEC
 70
     0
  9
$DIMALTU
 70
     2
  9
$DIMALTTD
 70
     2
  9
$DIMTXSTY
  7
STANDARD
  9
$DIMAUNIT
 70
     0
  9
$LUNITS
 70
     2
  9
$LUPREC
 70
     4
  9
$SKETCHINC
 40
1.0
  9
$FILLETRAD
 40
1.0
  9
$AUNITS
 70
     0
  9
$AUPREC
 70
     0
  9
$MENU
  1
.
  9
$ELEVATION
 40
0.0
  9
$PELEVATION
 40
0.0
  9
$THICKNESS
 40
0.0
  9
$LIMCHECK
 70
     0
  9
$BLIPMODE
 70
     0
  9
$CHAMFERA
 40
20.0
  9
$CHAMFERB
 40
20.0
  9
$CHAMFERC
 40
40.0
  9
$CHAMFERD
 40
0.0
  9
$SKPOLY
 70
     0
  9
$TDCREATE
 40
2451591.485258449
  9
$TDUPDATE
 40
2453805.483651250
  9
$TDINDWG
 40
0.1108949769
  9
$TDUSRTIMER
 40
0.1108949769
  9
$USRTIMER
 70
     1
  9
$ANGBASE
 50
0.0
  9
$ANGDIR
 70
     0
  9
$PDMODE
 70
     0
  9
$PDSIZE
 40
0.0
  9
$PLINEWID
 40
0.0
  9
$COORDS
 70
     1
  9
$SPLFRAME
 70
     0
  9
$SPLINETYPE
 70
     6
  9
$SPLINESEGS
 70
     8
  9
$ATTDIA
 70
     0
  9
$ATTREQ
 70
     1
  9
$HANDLING
 70
 10241
  9
$HANDSEED
  5
17C7
  9
$SURFTAB1
 70
     6
  9
$SURFTAB2
 70
     6
  9
$SURFTYPE
 70
     6
  9
$SURFU
 70
     6
  9
$SURFV
 70
     6
  9
$UCSNAME
  2

  9
$UCSORG
 10
0.0
 20
0.0
 30
0.0
  9
$UCSXDIR
 10
1.0
 20
0.0
 30
0.0
  9
$UCSYDIR
 10
0.0
 20
1.0
 30
0.0
  9
$PUCSNAME
  2

  9
$PUCSORG
 10
0.0
 20
0.0
 30
0.0
  9
$PUCSXDIR
 10
1.0
 20
0.0
 30
0.0
  9
$PUCSYDIR
 10
0.0
 20
1.0
 30
0.0
  9
$USERI1
 70
     0
  9
$USERI2
 70
     0
  9
$USERI3
 70
     0
  9
$USERI4
 70
     0
  9
$USERI5
 70
     0
  9
$USERR1
 40
0.0
  9
$USERR2
 40
0.0
  9
$USERR3
 40
0.0
  9
$USERR4
 40
0.0
  9
$USERR5
 40
0.0
  9
$WORLDVIEW
 70
     1
  9
$SHADEDGE
 70
     3
  9
$SHADEDIF
 70
    70
  9
$TILEMODE
 70
     1
  9
$MAXACTVP
 70
    16
  9
$PINSBASE
 10
0.0
 20
0.0
 30
0.0
  9
$PLIMCHECK
 70
     0
  9
$PEXTMIN
 10
0.0
 20
0.0
 30
0.0
  9
$PEXTMAX
 10
420.0
 20
297.0
 30
0.0
  9
$PLIMMIN
 10
0.0
 20
0.0
  9
$PLIMMAX
 10
420.0
 20
297.0
  9
$UNITMODE
 70
     0
  9
$VISRETAIN
 70
     0
  9
$PLINEGEN
 70
     0
  9
$PSLTSCALE
 70
     1
  9
$TREEDEPTH
 70
  3020
  9
$PICKSTYLE
 70
     1
  9
$CMLSTYLE
  2
STANDARD
  9
$CMLJUST
 70
     0
  9
$CMLSCALE
 40
1.0
  9
$PROXYGRAPHICS
 70
     1
  9
$MEASUREMENT
 70
     1
  0
ENDSEC
  0
SECTION
  2
CLASSES
  0
CLASS
  1
ACDBDICTIONARYWDFLT
  2
AcDbDictionaryWithDefault
  3
AutoCAD 2000
 90
        0
280
     0
281
     0
  0
CLASS
  1
ACDBPLACEHOLDER
  2
AcDbPlaceHolder
  3
AutoCAD 2000
 90
        0
280
     0
281
     0
  0
CLASS
  1
LAYOUT
  2
AcDbLayout
  3
AutoCAD 2000
 90
        0
280
     0
281
     0
  0
CLASS
  1
LONG_TRANSACTION
  2
AcDbLongTransaction
  3
AutoCAD 2000
 90
        0
280
     0
281
     0
  0
CLASS
  1
LWPOLYLINE
  2
AcDbPolyline
  3
AutoCAD 2000
 90
        0
280
     0
281
     1
  0
CLASS
  1
HATCH
  2
AcDbHatch
  3
AutoCAD 2000
 90
        0
280
     0
281
     1
  0
CLASS
  1
XRECORD
  2
AcDbXrecord
  3
AutoCAD 2000
 90
        0
280
     0
281
     0
  0
CLASS
  1
LONG_TRANSACTION
  2
AcDbLongTransaction
  3
AutoCAD 2000
 90
        0
280
     0
281
     0
  0
CLASS
  1
LWPOLYLINE
  2
AcDbPolyline
  3
AutoCAD 2000
 90
        0
280
     0
281
     1
  0
CLASS
  1
HATCH
  2
AcDbHatch
  3
AutoCAD 2000
 90
        0
280
     0
281
     1
  0
CLASS
  1
XRECORD
  2
AcDbXrecord
  3
AutoCAD 2000
 90
        0
280
     0
281
     0
  0
CLASS
  1
LONG_TRANSACTION
  2
AcDbLongTransaction
  3
AutoCAD 2000
 90
        0
280
     0
281
     0
  0
CLASS
  1
LWPOLYLINE
  2
AcDbPolyline
  3
AutoCAD 2000
 90
        0
280
     0
281
     1
  0
CLASS
  1
HATCH
  2
AcDbHatch
  3
AutoCAD 2000
 90
        0
280
     0
281
     1
  0
CLASS
  1
XRECORD
  2
AcDbXrecord
  3
AutoCAD 2000
 90
        0
280
     0
281
     0
  0
CLASS
  1
LONG_TRANSACTION
  2
AcDbLongTransaction
  3
AutoCAD 2000
 90
        0
280
     0
281
     0
  0
CLASS
  1
LWPOLYLINE
  2
AcDbPolyline
  3
AutoCAD 2000
 90
        0
280
     0
281
     1
  0
CLASS
  1
HATCH
  2
AcDbHatch
  3
AutoCAD 2000
 90
        0
280
     0
281
     1
  0
CLASS
  1
XRECORD
  2
AcDbXrecord
  3
AutoCAD 2000
 90
        0
280
     0
281
     0
  0
CLASS
  1
LONG_TRANSACTION
  2
AcDbLongTransaction
  3
AutoCAD 2000
 90
        0
280
     0
281
     0
  0
CLASS
  1
LWPOLYLINE
  2
AcDbPolyline
  3
AutoCAD 2000
 90
        0
280
     0
281
     1
  0
CLASS
  1
HATCH
  2
AcDbHatch
  3
AutoCAD 2000
 90
        0
280
     0
281
     1
  0
CLASS
  1
XRECORD
  2
AcDbXrecord
  3
AutoCAD 2000
 90
        0
280
     0
281
     0
  0
CLASS
  1
LONG_TRANSACTION
  2
AcDbLongTransaction
  3
AutoCAD 2000
 90
        0
280
     0
281
     0
  0
CLASS
  1
LWPOLYLINE
  2
AcDbPolyline
  3
AutoCAD 2000
 90
        0
280
     0
281
     1
  0
CLASS
  1
HATCH
  2
AcDbHatch
  3
AutoCAD 2000
 90
        0
280
     0
281
     1
  0
CLASS
  1
XRECORD
  2
AcDbXrecord
  3
AutoCAD 2000
 90
        0
280
     0
281
     0
  0
CLASS
  1
LONG_TRANSACTION
  2
AcDbLongTransaction
  3
AutoCAD 2000
 90
        0
280
     0
281
     0
  0
CLASS
  1
LWPOLYLINE
  2
AcDbPolyline
  3
AutoCAD 2000
 90
        0
280
     0
281
     1
  0
CLASS
  1
HATCH
  2
AcDbHatch
  3
AutoCAD 2000
 90
        0
280
     0
281
     1
  0
CLASS
  1
XRECORD
  2
AcDbXrecord
  3
AutoCAD 2000
 90
        0
280
     0
281
     0
  0
CLASS
  1
LONG_TRANSACTION
  2
AcDbLongTransaction
  3
AutoCAD 2000
 90
        0
280
     0
281
     0
  0
CLASS
  1
LWPOLYLINE
  2
AcDbPolyline
  3
AutoCAD 2000
 90
        0
280
     0
281
     1
  0
CLASS
  1
HATCH
  2
AcDbHatch
  3
AutoCAD 2000
 90
        0
280
     0
281
     1
  0
CLASS
  1
XRECORD
  2
AcDbXrecord
  3
AutoCAD 2000
 90
        0
280
     0
281
     0
  0
CLASS
  1
LONG_TRANSACTION
  2
AcDbLongTransaction
  3
AutoCAD 2000
 90
        0
280
     0
281
     0
  0
CLASS
  1
LWPOLYLINE
  2
AcDbPolyline
  3
AutoCAD 2000
 90
        0
280
     0
281
     1
  0
CLASS
  1
HATCH
  2
AcDbHatch
  3
AutoCAD 2000
 90
        0
280
     0
281
     1
  0
CLASS
  1
XRECORD
  2
AcDbXrecord
  3
AutoCAD 2000
 90
        0
280
     0
281
     0
  0
CLASS
  1
LONG_TRANSACTION
  2
AcDbLongTransaction
  3
AutoCAD 2000
 90
        0
280
     0
281
     0
  0
CLASS
  1
LWPOLYLINE
  2
AcDbPolyline
  3
AutoCAD 2000
 90
        0
280
     0
281
     1
  0
CLASS
  1
HATCH
  2
AcDbHatch
  3
AutoCAD 2000
 90
        0
280
     0
281
     1
  0
CLASS
  1
XRECORD
  2
AcDbXrecord
  3
AutoCAD 2000
 90
        0
280
     0
281
     0
  0
ENDSEC
  0
SECTION
  2
TABLES
  0
TABLE
  2
VPORT
  5
8
330
0
100
AcDbSymbolTable
 70
     2
  0
VPORT
  5
17A3
330
8
100
AcDbSymbolTableRecord
100
AcDbViewportTableRecord
  2
*ACTIVE
 70
     0
 10
0.0
 20
0.0
 11
1.0
 21
1.0
 12
444.1972117595728
 22
273.6119723036133
 13
0.0
 23
0.0
 14
5.0
 24
5.0
 15
0.0
 25
0.0
 16
0.0
 26
0.0
 36
1.0
 17
0.0
 27
0.0
 37
0.0
 40
650.5613456893802
 41
1.795454545454545
 42
50.0
 43
0.0
 44
0.0
 50
0.0
 51
0.0
 71
     0
 72
   100
 73
     1
 74
     0
 75
     0
 76
     0
 77
     0
 78
     0
  0
ENDTAB
  0
TABLE
  2
LTYPE
  5
5
330
0
100
AcDbSymbolTable
 70
     3
  0
LTYPE
  5
14
330
5
100
AcDbSymbolTableRecord
100
AcDbLinetypeTableRecord
  2
BYBLOCK
 70
     0
  3

 72
    65
 73
     0
 40
0.0
  0
LTYPE
  5
15
330
5
100
AcDbSymbolTableRecord
100
AcDbLinetypeTableRecord
  2
BYLAYER
 70
     0
  3

 72
    65
 73
     0
 40
0.0
  0
LTYPE
  5
16
330
5
100
AcDbSymbolTableRecord
100
AcDbLinetypeTableRecord
  2
CONTINUOUS
 70
     0
  3
Solid line
 72
    65
 73
     0
 40
0.0
  0
LTYPE
  5
115
330
5
100
AcDbSymbolTableRecord
100
AcDbLinetypeTableRecord
  2
PHANTOM
 70
     0
  3
______  __  __  ______  __  __  ______  __  __ 
 72
    65
 73
     6
 40
2.5
 49
1.25
 74
     0
 49
-0.25
 74
     0
 49
0.25
 74
     0
 49
-0.25
 74
     0
 49
0.25
 74
     0
 49
-0.25
 74
     0
  0
LTYPE
  5
135
330
5
100
AcDbSymbolTableRecord
100
AcDbLinetypeTableRecord
  2
CENTER
 70
     0
  3
____ _ ____ _ ____ _ ____ _ ____ _ ____ _ ____ 
 72
    65
 73
     4
 40
2.0
 49
1.25
 74
     0
 49
-0.25
 74
     0
 49
0.25
 74
     0
 49
-0.25
 74
     0
  0
ENDTAB
  0
TABLE
  2
LAYER
  5
2
330
0
100
AcDbSymbolTable
 70
     9
  0
LAYER
  5
F
330
2
100
AcDbSymbolTableRecord
100
AcDbLayerTableRecord
  2
0
 70
     0
 62
     7
  6
CONTINUOUS
  0
LAYER
  5
62
330
2
100
AcDbSymbolTableRecord
100
AcDbLayerTableRecord
  2
VIEWPORT
 70
     0
 62
     7
  6
CONTINUOUS
  0
LAYER
  5
65
330
2
100
AcDbSymbolTableRecord
100
AcDbLayerTableRecord
  2
ZUWAKU
 70
     0
 62
     7
  6
CONTINUOUS
  0
LAYER
  5
17C
330
2
100
AcDbSymbolTableRecord
100
AcDbLayerTableRecord
  2
DEFPOINTS
 70
     0
 62
     7
  6
CONTINUOUS
  0
LAYER
  5
17D
330
2
100
AcDbSymbolTableRecord
100
AcDbLayerTableRecord
  2
SEIHIN
 70
     0
 62
     3
  6
CONTINUOUS
  0
LAYER
  5
17E
330
2
100
AcDbSymbolTableRecord
100
AcDbLayerTableRecord
  2
SUNPOU
 70
     0
 62
     4
  6
CONTINUOUS
  0
LAYER
  5
17F
330
2
100
AcDbSymbolTableRecord
100
AcDbLayerTableRecord
  2
CENTER_L
 70
     0
 62
     1
  6
CENTER
  0
LAYER
  5
180
330
2
100
AcDbSymbolTableRecord
100
AcDbLayerTableRecord
  2
NOKITOI
 70
     0
 62
     8
  6
PHANTOM
  0
LAYER
  5
15ED
330
2
100
AcDbSymbolTableRecord
100
AcDbLayerTableRecord
  2
MOJI
 70
     0
 62
     2
  6
CONTINUOUS
  0
ENDTAB
  0
TABLE
  2
STYLE
  5
3
330
0
100
AcDbSymbolTable
 70
     2
  0
STYLE
  5
10
330
3
100
AcDbSymbolTableRecord
100
AcDbTextStyleTableRecord
  2
STANDARD
 70
     0
 40
0.0
 41
1.0
 50
0.0
 71
     0
 42
5.0
  3
TXT
  4
c:\PROGRAM FILES\AUTOCAD LT\ms\bigfont.shx
  0
STYLE
  5
15EE
330
3
100
AcDbSymbolTableRecord
100
AcDbTextStyleTableRecord
  2
ｽﾀｲﾙ1
 70
     0
 40
0.0
 41
1.0
 50
0.0
 71
     0
 42
2.5
  3
MS PGothic.ttf
  4

1001
ACAD
1000
MS PGothic
1071
    32818
  0
ENDTAB
  0
TABLE
  2
VIEW
  5
6
330
0
100
AcDbSymbolTable
 70
     0
  0
ENDTAB
  0
TABLE
  2
UCS
  5
7
330
0
100
AcDbSymbolTable
 70
     0
  0
ENDTAB
  0
TABLE
  2
APPID
  5
9
330
0
100
AcDbSymbolTable
 70
     1
  0
APPID
  5
11
330
9
100
AcDbSymbolTableRecord
100
AcDbRegAppTableRecord
  2
ACAD
 70
     0
  0
ENDTAB
  0
TABLE
  2
DIMSTYLE
  5
A
330
0
100
AcDbSymbolTable
 70
     1
  0
DIMSTYLE
105
1D
102
{ACAD_REACTORS
330
BD9
330
BE6
330
F9C
330
FEE
330
100C
330
1019
330
1026
102
}
330
A
100
AcDbSymbolTableRecord
100
AcDbDimStyleTableRecord
  2
STANDARD
 70
     0
  3

  4

  5

  6

  7

 40
1.0
 41
0.18
 42
0.0625
 43
0.38
 44
0.18
 45
0.0
 46
0.0
 47
0.0
 48
0.0
140
0.18
141
0.09
142
0.0
143
25.4
144
1.0
145
0.0
146
1.0
147
0.09
 71
     0
 72
     0
 73
     1
 74
     1
 75
     0
 76
     0
 77
     0
 78
     0
170
     0
171
     2
172
     0
173
     0
174
     0
175
     0
176
     0
177
     0
178
     0
270
     2
271
     4
272
     4
273
     2
274
     2
340
10
275
     0
280
     0
281
     0
282
     0
283
     1
284
     0
285
     0
286
     0
287
     3
288
     0
  0
ENDTAB
  0
TABLE
  2
BLOCK_RECORD
  5
1
330
0
100
AcDbSymbolTable
 70
     8
  0
BLOCK_RECORD
  5
1A
102
{ACAD_XDICTIONARY
360
506
102
}
330
1
100
AcDbSymbolTableRecord
100
AcDbBlockTableRecord
  2
*MODEL_SPACE
  0
BLOCK_RECORD
  5
17
102
{ACAD_XDICTIONARY
360
504
102
}
330
1
100
AcDbSymbolTableRecord
100
AcDbBlockTableRecord
  2
*PAPER_SPACE
  0
BLOCK_RECORD
  5
6D
330
1
100
AcDbSymbolTableRecord
100
AcDbBlockTableRecord
  2
_OPEN
  0
BLOCK_RECORD
  5
BDA
330
1
100
AcDbSymbolTableRecord
100
AcDbBlockTableRecord
  2
*D1
  0
BLOCK_RECORD
  5
BE7
330
1
100
AcDbSymbolTableRecord
100
AcDbBlockTableRecord
  2
*D2
  0
BLOCK_RECORD
  5
F9D
330
1
100
AcDbSymbolTableRecord
100
AcDbBlockTableRecord
  2
*D3
  0
BLOCK_RECORD
  5
FEF
330
1
100
AcDbSymbolTableRecord
100
AcDbBlockTableRecord
  2
*D4
  0
BLOCK_RECORD
  5
100D
330
1
100
AcDbSymbolTableRecord
100
AcDbBlockTableRecord
  2
*D5
  0
BLOCK_RECORD
  5
101A
330
1
100
AcDbSymbolTableRecord
100
AcDbBlockTableRecord
  2
*D6
  0
BLOCK_RECORD
  5
1027
330
1
100
AcDbSymbolTableRecord
100
AcDbBlockTableRecord
  2
*D7
  0
ENDTAB
  0
ENDSEC
  0
SECTION
  2
BLOCKS
  0
BLOCK
  5
1B
330
1A
100
AcDbEntity
  8
0
100
AcDbBlockBegin
  2
*MODEL_SPACE
 70
     0
 10
0.0
 20
0.0
 30
0.0
  3
*MODEL_SPACE
  1

  0
ENDBLK
  5
1C
330
1A
100
AcDbEntity
  8
0
100
AcDbBlockEnd
  0
BLOCK
  5
18
330
17
100
AcDbEntity
 67
     1
  8
0
100
AcDbBlockBegin
  2
*PAPER_SPACE
 70
     0
 10
0.0
 20
0.0
 30
0.0
  3
*PAPER_SPACE
  1

  0
ENDBLK
  5
19
330
17
100
AcDbEntity
 67
     1
  8
0
100
AcDbBlockEnd
  0
BLOCK
  5
6E
330
6D
100
AcDbEntity
  8
0
100
AcDbBlockBegin
  2
_OPEN
 70
     0
 10
0.0
 20
0.0
 30
0.0
  3
_OPEN
  1

  0
LINE
  5
6F
330
6D
100
AcDbEntity
  8
0
  6
BYBLOCK
 62
     0
100
AcDbLine
 10
-1.0
 20
0.1666666666666666
 30
0.0
 11
0.0
 21
0.0
 31
0.0
  0
LINE
  5
70
330
6D
100
AcDbEntity
  8
0
  6
BYBLOCK
 62
     0
100
AcDbLine
 10
0.0
 20
0.0
 30
0.0
 11
-1.0
 21
-0.1666666666666666
 31
0.0
  0
LINE
  5
71
330
6D
100
AcDbEntity
  8
0
  6
BYBLOCK
 62
     0
100
AcDbLine
 10
0.0
 20
0.0
 30
0.0
 11
-1.0
 21
0.0
 31
0.0
  0
ENDBLK
  5
72
330
6D
100
AcDbEntity
  8
0
100
AcDbBlockEnd
  0
BLOCK
  5
BE4
330
BDA
100
AcDbEntity
  8
0
100
AcDbBlockBegin
  2
*D1
 70
     1
 10
0.0
 20
0.0
 30
0.0
  3
*D1
  1

  0
LINE
  5
1777
330
BDA
100
AcDbEntity
  8
SUNPOU
100
AcDbLine
 10
415.5391240238891
 20
317.9652217067529
 30
0.0
 11
415.5391240238891
 21
350.2994740436395
 31
0.0
  0
LINE
  5
1778
330
BDA
100
AcDbEntity
  8
SUNPOU
100
AcDbLine
 10
288.7591240330749
 20
304.9652217067529
 30
0.0
 11
288.7591240330749
 21
350.2994740436395
 31
0.0
  0
LINE
  5
1779
330
BDA
100
AcDbEntity
  8
SUNPOU
100
AcDbLine
 10
412.5391240238891
 20
347.2994740436395
 30
0.0
 11
291.7591240330749
 21
347.2994740436395
 31
0.0
  0
INSERT
  5
177A
330
BDA
100
AcDbEntity
  8
SUNPOU
100
AcDbBlockReference
  2
_OPEN
 10
415.5391240238891
 20
347.2994740436395
 30
0.0
 41
3.0
 42
3.0
 43
3.0
  0
INSERT
  5
177B
330
BDA
100
AcDbEntity
  8
SUNPOU
100
AcDbBlockReference
  2
_OPEN
 10
288.7591240330749
 20
347.2994740436395
 30
0.0
 41
3.0
 42
3.0
 43
3.0
 50
180.0
  0
MTEXT
  5
177C
330
BDA
100
AcDbEntity
  8
SUNPOU
100
AcDbMText
 10
352.149124028482
 20
352.2994740436395
 30
0.0
 40
6.0
 41
0.0
 71
     5
 72
     1
  1
\A1;127
1001
ACAD
1000
MTEXTBEGIN
1070
    73
1070
     1
1070
    44
1040
1.0
1070
    74
1070
     0
1000
MTEXTEND
  0
POINT
  5
177D
330
BDA
100
AcDbEntity
  8
DEFPOINTS
 62
     0
100
AcDbPoint
 10
415.5391240238891
 20
311.9652217067529
 30
0.0
  0
POINT
  5
177E
330
BDA
100
AcDbEntity
  8
DEFPOINTS
 62
     0
100
AcDbPoint
 10
288.7591240330749
 20
298.9652217067529
 30
0.0
  0
POINT
  5
177F
330
BDA
100
AcDbEntity
  8
DEFPOINTS
 62
     0
100
AcDbPoint
 10
288.7591240330749
 20
347.2994740436395
 30
0.0
  0
ENDBLK
  5
BE5
330
BDA
100
AcDbEntity
  8
0
100
AcDbBlockEnd
  0
BLOCK
  5
BF1
330
BE7
100
AcDbEntity
  8
0
100
AcDbBlockBegin
  2
*D2
 70
     1
 10
0.0
 20
0.0
 30
0.0
  3
*D2
  1

  0
LINE
  5
1780
330
BE7
100
AcDbEntity
  8
SUNPOU
100
AcDbLine
 10
287.8590800538889
 20
456.7040762690859
 30
0.0
 11
246.5689032278906
 21
456.7040762690859
 31
0.0
  0
LINE
  5
1781
330
BE7
100
AcDbEntity
  8
SUNPOU
100
AcDbLine
 10
287.8590800538889
 20
440.8040762690859
 30
0.0
 11
246.5689032278906
 21
440.8040762690859
 31
0.0
  0
LINE
  5
1782
330
BE7
100
AcDbEntity
  8
SUNPOU
100
AcDbLine
 10
249.5689032278906
 20
453.7040762690859
 30
0.0
 11
249.5689032278905
 21
443.8040762690859
 31
0.0
  0
INSERT
  5
1783
330
BE7
100
AcDbEntity
  8
SUNPOU
100
AcDbBlockReference
  2
_OPEN
 10
249.5689032278906
 20
456.7040762690859
 30
0.0
 41
3.0
 42
3.0
 43
3.0
 50
90.0
  0
INSERT
  5
1784
330
BE7
100
AcDbEntity
  8
SUNPOU
100
AcDbBlockReference
  2
_OPEN
 10
249.5689032278905
 20
440.8040762690859
 30
0.0
 41
3.0
 42
3.0
 43
3.0
 50
270.0
  0
MTEXT
  5
1785
330
BE7
100
AcDbEntity
  8
SUNPOU
100
AcDbMText
 10
244.5689032278905
 20
448.7540762690859
 30
0.0
 40
6.0
 41
0.0
 71
     5
 72
     1
  1
\A1;16
 11
0.0000000000000001
 21
1.0
 31
0.0
1001
ACAD
1000
MTEXTBEGIN
1070
    73
1070
     1
1070
    44
1040
1.0
1070
    74
1070
     0
1000
MTEXTEND
  0
POINT
  5
1786
330
BE7
100
AcDbEntity
  8
DEFPOINTS
 62
     0
100
AcDbPoint
 10
293.8590800538889
 20
456.7040762690859
 30
0.0
  0
POINT
  5
1787
330
BE7
100
AcDbEntity
  8
DEFPOINTS
 62
     0
100
AcDbPoint
 10
293.8590800538889
 20
440.8040762690859
 30
0.0
  0
POINT
  5
1788
330
BE7
100
AcDbEntity
  8
DEFPOINTS
 62
     0
100
AcDbPoint
 10
249.5689032278905
 20
440.8040762690859
 30
0.0
  0
ENDBLK
  5
BF2
330
BE7
100
AcDbEntity
  8
0
100
AcDbBlockEnd
  0
BLOCK
  5
FA7
330
F9D
100
AcDbEntity
  8
0
100
AcDbBlockBegin
  2
*D3
 70
     1
 10
0.0
 20
0.0
 30
0.0
  3
*D3
  1

  0
LINE
  5
1789
330
F9D
100
AcDbEntity
  8
SUNPOU
100
AcDbLine
 10
422.4693460534343
 20
271.8123201424272
 30
0.0
 11
442.1343133543573
 21
223.1398141184906
 31
0.0
  0
LINE
  5
178A
330
F9D
100
AcDbEntity
  8
SUNPOU
100
AcDbLine
 10
561.5469256262027
 20
328.0033051154426
 30
0.0
 11
581.2118929271258
 21
279.330799091506
 31
0.0
  0
LINE
  5
178B
330
F9D
100
AcDbEntity
  8
SUNPOU
100
AcDbLine
 10
443.7920452488553
 20
227.0451854153028
 30
0.0
 11
577.3065216303137
 21
280.9885309860039
 31
0.0
  0
INSERT
  5
178C
330
F9D
100
AcDbEntity
  8
SUNPOU
100
AcDbBlockReference
  2
_OPEN
 10
441.0104936532002
 20
225.9213657141457
 30
0.0
 41
3.0
 42
3.0
 43
3.0
 50
201.9999983708516
  0
INSERT
  5
178D
330
F9D
100
AcDbEntity
  8
SUNPOU
100
AcDbBlockReference
  2
_OPEN
 10
580.0880732259687
 20
282.1123506871611
 30
0.0
 41
3.0
 42
3.0
 43
3.0
 50
21.99999837085163
  0
MTEXT
  5
178E
330
F9D
100
AcDbEntity
  8
SUNPOU
100
AcDbMText
 10
508.6762506043227
 20
258.6527775267451
 30
0.0
 40
6.0
 41
0.0
 71
     5
 72
     1
  1
\A1;150
 11
0.927183865218352
 21
0.3746065670523633
 31
0.0
1001
ACAD
1000
MTEXTBEGIN
1070
    73
1070
     1
1070
    44
1040
1.0
1070
    74
1070
     0
1000
MTEXTEND
  0
POINT
  5
178F
330
F9D
100
AcDbEntity
  8
DEFPOINTS
 62
     0
100
AcDbPoint
 10
420.2217066511201
 20
277.3754233337373
 30
0.0
  0
POINT
  5
1790
330
F9D
100
AcDbEntity
  8
DEFPOINTS
 62
     0
100
AcDbPoint
 10
559.2992862238886
 20
333.5664083067527
 30
0.0
  0
POINT
  5
1791
330
F9D
100
AcDbEntity
  8
DEFPOINTS
 62
     0
100
AcDbPoint
 10
580.0880732259687
 20
282.1123506871611
 30
0.0
  0
ENDBLK
  5
FA8
330
F9D
100
AcDbEntity
  8
0
100
AcDbBlockEnd
  0
BLOCK
  5
FFB
330
FEF
100
AcDbEntity
  8
0
100
AcDbBlockBegin
  2
*D4
 70
     1
 10
0.0
 20
0.0
 30
0.0
  3
*D4
  1

  0
LINE
  5
1792
330
FEF
100
AcDbEntity
  8
SUNPOU
100
AcDbLine
 10
554.466731117222
 20
334.8495333040592
 30
0.0
 11
582.8784126654498
 21
346.32859680014
 31
0.0
  0
LINE
  5
1793
330
FEF
100
AcDbEntity
  8
SUNPOU
100
AcDbLine
 10
556.714370517222
 20
329.2864301040591
 30
0.0
 11
585.1260520654498
 21
340.76549360014
 31
0.0
  0
LINE
  5
1794
330
FEF
100
AcDbEntity
  8
SUNPOU
100
AcDbLine
 10
578.9730413701299
 20
347.9863286981534
 30
0.0
 11
577.8492216714766
 21
350.7678802948201
 31
0.0
  0
LINE
  5
1795
330
FEF
100
AcDbEntity
  8
SUNPOU
100
AcDbLine
 10
583.4683201674364
 20
336.8601223048201
 30
0.0
 11
589.8366317931382
 21
321.0979965903756
 31
0.0
  0
LINE
  5
1796
330
FEF
100
AcDbEntity
  8
SUNPOU
100
AcDbLine
 10
580.0968610687831
 20
345.2047771014868
 30
0.0
 11
582.3445004687832
 21
339.6416739014867
 31
0.0
  0
INSERT
  5
1797
330
FEF
100
AcDbEntity
  8
SUNPOU
100
AcDbBlockReference
  2
_OPEN
 10
580.0968610687831
 20
345.2047771014868
 30
0.0
 41
3.0
 42
3.0
 43
3.0
 50
291.9999983192764
  0
INSERT
  5
1798
330
FEF
100
AcDbEntity
  8
SUNPOU
100
AcDbBlockReference
  2
_OPEN
 10
582.3445004687832
 20
339.6416739014867
 30
0.0
 41
3.0
 42
3.0
 43
3.0
 50
111.9999983192764
  0
MTEXT
  5
1799
330
FEF
100
AcDbEntity
  8
SUNPOU
100
AcDbMText
 10
591.8503051573918
 20
329.4613164803532
 30
0.0
 40
6.0
 41
0.0
 71
     5
 72
     1
  1
\A1;φ6
 11
0.3746065662177533
 21
-0.9271838655555566
 31
0.0
1001
ACAD
1000
MTEXTBEGIN
1070
    73
1070
     1
1070
    44
1040
1.0
1070
    74
1070
     0
1000
MTEXTEND
  0
POINT
  5
179A
330
FEF
100
AcDbEntity
  8
DEFPOINTS
 62
     0
100
AcDbPoint
 10
548.9036279238887
 20
332.6018939067527
 30
0.0
  0
POINT
  5
179B
330
FEF
100
AcDbEntity
  8
DEFPOINTS
 62
     0
100
AcDbPoint
 10
551.1512673238887
 20
327.0387907067526
 30
0.0
  0
POINT
  5
179C
330
FEF
100
AcDbEntity
  8
DEFPOINTS
 62
     0
100
AcDbPoint
 10
582.3445004687832
 20
339.6416739014867
 30
0.0
  0
ENDBLK
  5
FFC
330
FEF
100
AcDbEntity
  8
0
100
AcDbBlockEnd
  0
BLOCK
  5
1017
330
100D
100
AcDbEntity
  8
0
100
AcDbBlockBegin
  2
*D5
 70
     1
 10
0.0
 20
0.0
 30
0.0
  3
*D5
  1

  0
LINE
  5
176E
330
100D
100
AcDbEntity
  8
SUNPOU
100
AcDbLine
 10
414.5391240238891
 20
318.9652217067528
 30
0.0
 11
451.6588305463764
 21
318.9652217067528
 31
0.0
  0
LINE
  5
176F
330
100D
100
AcDbEntity
  8
SUNPOU
100
AcDbLine
 10
426.22170665112
 20
277.3754233337373
 30
0.0
 11
451.6588305463764
 21
277.3754233337373
 31
0.0
  0
LINE
  5
1770
330
100D
100
AcDbEntity
  8
SUNPOU
100
AcDbLine
 10
448.6588305463765
 20
315.9652217067529
 30
0.0
 11
448.6588305463765
 21
280.3754233337373
 31
0.0
  0
INSERT
  5
1771
330
100D
100
AcDbEntity
  8
SUNPOU
100
AcDbBlockReference
  2
_OPEN
 10
448.6588305463765
 20
318.9652217067528
 30
0.0
 41
3.0
 42
3.0
 43
3.0
 50
90.0
  0
INSERT
  5
1772
330
100D
100
AcDbEntity
  8
SUNPOU
100
AcDbBlockReference
  2
_OPEN
 10
448.6588305463765
 20
277.3754233337373
 30
0.0
 41
3.0
 42
3.0
 43
3.0
 50
270.0
  0
MTEXT
  5
1773
330
100D
100
AcDbEntity
  8
SUNPOU
100
AcDbMText
 10
443.6588305463764
 20
298.1703225202452
 30
0.0
 40
6.0
 41
0.0
 71
     5
 72
     1
  1
\A1;42
 11
0.0000000000000001
 21
1.0
 31
0.0
1001
ACAD
1000
MTEXTBEGIN
1070
    73
1070
     1
1070
    44
1040
1.0
1070
    74
1070
     0
1000
MTEXTEND
  0
POINT
  5
1774
330
100D
100
AcDbEntity
  8
DEFPOINTS
 62
     0
100
AcDbPoint
 10
408.5391240238891
 20
318.9652217067528
 30
0.0
  0
POINT
  5
1775
330
100D
100
AcDbEntity
  8
DEFPOINTS
 62
     0
100
AcDbPoint
 10
420.2217066511201
 20
277.3754233337373
 30
0.0
  0
POINT
  5
1776
330
100D
100
AcDbEntity
  8
DEFPOINTS
 62
     0
100
AcDbPoint
 10
448.6588305463765
 20
277.3754233337373
 30
0.0
  0
ENDBLK
  5
1018
330
100D
100
AcDbEntity
  8
0
100
AcDbBlockEnd
  0
BLOCK
  5
1024
330
101A
100
AcDbEntity
  8
0
100
AcDbBlockBegin
  2
*D6
 70
     1
 10
0.0
 20
0.0
 30
0.0
  3
*D6
  1

  0
LINE
  5
1765
330
101A
100
AcDbEntity
  8
SUNPOU
100
AcDbLine
 10
288.759125774703
 20
304.9627882867827
 30
0.0
 11
288.759125774703
 21
367.2185306646369
 31
0.0
  0
LINE
  5
1766
330
101A
100
AcDbEntity
  8
SUNPOU
100
AcDbLine
 10
559.2992862238886
 20
339.5664083067527
 30
0.0
 11
559.2992862238886
 21
367.2185306646369
 31
0.0
  0
LINE
  5
1767
330
101A
100
AcDbEntity
  8
SUNPOU
100
AcDbLine
 10
291.759125774703
 20
364.218530664637
 30
0.0
 11
556.2992862238886
 21
364.218530664637
 31
0.0
  0
INSERT
  5
1768
330
101A
100
AcDbEntity
  8
SUNPOU
100
AcDbBlockReference
  2
_OPEN
 10
288.759125774703
 20
364.218530664637
 30
0.0
 41
3.0
 42
3.0
 43
3.0
 50
180.0
  0
INSERT
  5
1769
330
101A
100
AcDbEntity
  8
SUNPOU
100
AcDbBlockReference
  2
_OPEN
 10
559.2992862238886
 20
364.218530664637
 30
0.0
 41
3.0
 42
3.0
 43
3.0
  0
MTEXT
  5
176A
330
101A
100
AcDbEntity
  8
SUNPOU
100
AcDbMText
 10
424.0292059992958
 20
369.2185306646369
 30
0.0
 40
6.0
 41
0.0
 71
     5
 72
     1
  1
\A1;271
1001
ACAD
1000
MTEXTBEGIN
1070
    73
1070
     1
1070
    44
1040
1.0
1070
    74
1070
     0
1000
MTEXTEND
  0
POINT
  5
176B
330
101A
100
AcDbEntity
  8
DEFPOINTS
 62
     0
100
AcDbPoint
 10
288.759125774703
 20
298.9627882867827
 30
0.0
  0
POINT
  5
176C
330
101A
100
AcDbEntity
  8
DEFPOINTS
 62
     0
100
AcDbPoint
 10
559.2992862238886
 20
333.5664083067527
 30
0.0
  0
POINT
  5
176D
330
101A
100
AcDbEntity
  8
DEFPOINTS
 62
     0
100
AcDbPoint
 10
559.2992862238886
 20
364.218530664637
 30
0.0
  0
ENDBLK
  5
1025
330
101A
100
AcDbEntity
  8
0
100
AcDbBlockEnd
  0
BLOCK
  5
1031
330
1027
100
AcDbEntity
  8
0
100
AcDbBlockBegin
  2
*D7
 70
     1
 10
0.0
 20
0.0
 30
0.0
  3
*D7
  1

  0
LINE
  5
175C
330
1027
100
AcDbEntity
  8
SUNPOU
100
AcDbLine
 10
285.012079753889
 20
304.7652217067528
 30
0.0
 11
246.381220867283
 21
304.7652217067528
 31
0.0
  0
LINE
  5
175D
330
1027
100
AcDbEntity
  8
SUNPOU
100
AcDbLine
 10
414.22170665112
 20
277.3754233337373
 30
0.0
 11
246.381220867283
 21
277.3754233337374
 31
0.0
  0
LINE
  5
175E
330
1027
100
AcDbEntity
  8
SUNPOU
100
AcDbLine
 10
249.3812208672829
 20
301.7652217067528
 30
0.0
 11
249.3812208672829
 21
280.3754233337373
 31
0.0
  0
INSERT
  5
175F
330
1027
100
AcDbEntity
  8
SUNPOU
100
AcDbBlockReference
  2
_OPEN
 10
249.3812208672829
 20
304.7652217067528
 30
0.0
 41
3.0
 42
3.0
 43
3.0
 50
90.0
  0
INSERT
  5
1760
330
1027
100
AcDbEntity
  8
SUNPOU
100
AcDbBlockReference
  2
_OPEN
 10
249.3812208672829
 20
277.3754233337374
 30
0.0
 41
3.0
 42
3.0
 43
3.0
 50
270.0
  0
MTEXT
  5
1761
330
1027
100
AcDbEntity
  8
SUNPOU
100
AcDbMText
 10
244.3812208672829
 20
291.0703225202452
 30
0.0
 40
6.0
 41
0.0
 71
     5
 72
     1
  1
\A1;27
 11
0.0000000000000001
 21
1.0
 31
0.0
1001
ACAD
1000
MTEXTBEGIN
1070
    73
1070
     1
1070
    44
1040
1.0
1070
    74
1070
     0
1000
MTEXTEND
  0
POINT
  5
1762
330
1027
100
AcDbEntity
  8
DEFPOINTS
 62
     0
100
AcDbPoint
 10
291.012079753889
 20
304.7652217067528
 30
0.0
  0
POINT
  5
1763
330
1027
100
AcDbEntity
  8
DEFPOINTS
 62
     0
100
AcDbPoint
 10
420.2217066511201
 20
277.3754233337373
 30
0.0
  0
POINT
  5
1764
330
1027
100
AcDbEntity
  8
DEFPOINTS
 62
     0
100
AcDbPoint
 10
249.3812208672829
 20
277.3754233337374
 30
0.0
  0
ENDBLK
  5
1032
330
1027
100
AcDbEntity
  8
0
100
AcDbBlockEnd
  0
ENDSEC
  0
SECTION
  2
ENTITIES
  0
LINE
  5
286
330
1A
100
AcDbEntity
  8
NOKITOI
  6
PHANTOM
 62
     8
100
AcDbLine
 10
338.1060668731806
 20
257.2565336519474
 30
0.0
 11
382.6856668731807
 21
257.2564336519475
 31
0.0
  0
LINE
  5
287
330
1A
100
AcDbEntity
  8
NOKITOI
  6
PHANTOM
 62
     8
100
AcDbLine
 10
382.9354668731807
 20
256.0564336519474
 30
0.0
 11
338.1060668731806
 21
256.0565336519474
 31
0.0
  0
ARC
  5
2B2
330
1A
100
AcDbEntity
  8
NOKITOI
  6
PHANTOM
 62
     8
100
AcDbCircle
 10
338.1060729551486
 20
299.0565280272911
 30
0.0
 40
41.79999437547816
100
AcDbArc
 50
184.4742952125247
 51
269.999854592109
  0
ARC
  5
2B3
330
1A
100
AcDbEntity
  8
NOKITOI
  6
PHANTOM
 62
     8
100
AcDbCircle
 10
338.1060506467233
 20
299.0565481283175
 30
0.0
 40
43.00001447645168
100
AcDbArc
 50
186.5249107071177
 51
269.9998883751437
  0
LINE
  5
2C4
330
1A
100
AcDbEntity
  8
NOKITOI
  6
PHANTOM
 62
     8
100
AcDbLine
 10
378.6856668731807
 20
257.2564336519475
 30
0.0
 11
358.777566873181
 21
257.2564336519475
 31
0.0
  0
LINE
  5
2C5
330
1A
100
AcDbEntity
  8
NOKITOI
  6
PHANTOM
 62
     8
100
AcDbLine
 10
378.9354668731807
 20
256.0564336519474
 30
0.0
 11
358.777566873181
 21
256.0564336519474
 31
0.0
  0
ARC
  5
2C6
330
1A
100
AcDbEntity
  8
NOKITOI
  6
PHANTOM
 62
     8
100
AcDbCircle
 10
288.2464028323315
 20
296.5564987978042
 30
0.0
 40
1.499965146287778
100
AcDbArc
 50
181.7866280217767
 51
269.9986264296971
  0
ARC
  5
2C7
330
1A
100
AcDbEntity
  8
NOKITOI
  6
PHANTOM
 62
     8
100
AcDbCircle
 10
294.3910584490181
 20
294.0565411670039
 30
0.0
 40
0.9999924849789756
100
AcDbArc
 50
6.528264606673934
 51
89.99951732740965
  0
ARC
  5
2D0
330
1A
100
AcDbEntity
  8
NOKITOI
  6
PHANTOM
 62
     8
100
AcDbCircle
 10
294.6338606720228
 20
308.0565401870327
 30
0.0
 40
0.4999934649531607
100
AcDbArc
 50
356.9955363203376
 51
89.99928939038076
  0
LINE
  5
2D1
330
1A
100
AcDbEntity
  8
NOKITOI
  6
PHANTOM
 62
     8
100
AcDbLine
 10
290.8287668731809
 20
309.8565336519476
 30
0.0
 11
290.3287668731809
 21
307.3565336519476
 31
0.0
  0
LINE
  5
2D2
330
1A
100
AcDbEntity
  8
NOKITOI
  6
PHANTOM
 62
     8
100
AcDbLine
 10
287.556366873181
 20
309.0315336519473
 30
0.0
 11
287.7057668731804
 21
304.2526336519475
 31
0.0
  0
LINE
  5
2D3
330
1A
100
AcDbEntity
  8
NOKITOI
  6
PHANTOM
 62
     8
100
AcDbLine
 10
286.3569668731806
 20
308.9940336519474
 30
0.0
 11
286.7471668731805
 21
296.5097336519473
 31
0.0
  0
LINE
  5
2D4
330
1A
100
AcDbEntity
  8
NOKITOI
  6
PHANTOM
 62
     8
100
AcDbLine
 10
295.9349668731811
 20
296.2565336519475
 30
0.0
 11
289.8940668731806
 21
296.2565336519475
 31
0.0
  0
LINE
  5
2D5
330
1A
100
AcDbEntity
  8
NOKITOI
  6
PHANTOM
 62
     8
100
AcDbLine
 10
294.8174668731808
 20
302.0303336519474
 30
0.0
 11
295.1332668731806
 21
308.0302336519474
 31
0.0
  0
LINE
  5
2D6
330
1A
100
AcDbEntity
  8
NOKITOI
  6
PHANTOM
 62
     8
100
AcDbLine
 10
292.269466873181
 20
306.2565336519475
 30
0.0
 11
293.2652668731807
 21
307.3565336519476
 31
0.0
  0
LINE
  5
2D7
330
1A
100
AcDbEntity
  8
NOKITOI
  6
PHANTOM
 62
     8
100
AcDbLine
 10
292.269466873181
 20
306.2565336519475
 30
0.0
 11
291.8075668731808
 21
306.2565336519475
 31
0.0
  0
LINE
  5
2D8
330
1A
100
AcDbEntity
  8
NOKITOI
  6
PHANTOM
 62
     8
100
AcDbLine
 10
290.3287668731809
 20
307.3565336519476
 30
0.0
 11
293.2652668731807
 21
307.3565336519476
 31
0.0
  0
LINE
  5
2D9
330
1A
100
AcDbEntity
  8
NOKITOI
  6
PHANTOM
 62
     8
100
AcDbLine
 10
291.5740668731805
 20
302.1273336519476
 30
0.0
 11
291.9077668731806
 21
304.4635336519476
 31
0.0
  0
LINE
  5
2DA
330
1A
100
AcDbEntity
  8
NOKITOI
  6
PHANTOM
 62
     8
100
AcDbLine
 10
294.3180668731806
 20
301.5565336519474
 30
0.0
 11
292.0689668731806
 21
301.5565336519474
 31
0.0
  0
ARC
  5
2DB
330
1A
100
AcDbEntity
  8
NOKITOI
  6
PHANTOM
 62
     8
100
AcDbCircle
 10
292.0689934737783
 20
302.0565029750654
 30
0.0
 40
0.4999693238254178
100
AcDbArc
 50
171.8555038770531
 51
269.9969516090356
  0
LINE
  5
2DC
330
1A
100
AcDbEntity
  8
NOKITOI
  6
PHANTOM
 62
     8
100
AcDbLine
 10
293.6539668731807
 20
302.7565336519475
 30
0.0
 11
292.8760668731811
 21
302.7565336519475
 31
0.0
  0
LINE
  5
2DD
330
1A
100
AcDbEntity
  8
NOKITOI
  6
PHANTOM
 62
     8
100
AcDbLine
 10
292.8760668731811
 20
302.7565336519475
 30
0.0
 11
293.2801668731808
 21
305.5849336519473
 31
0.0
  0
ARC
  5
2DE
330
1A
100
AcDbEntity
  8
NOKITOI
  6
PHANTOM
 62
     8
100
AcDbCircle
 10
291.4127810915961
 20
304.5342190176465
 30
0.0
 40
0.5000073448410256
100
AcDbArc
 50
351.872947864124
 51
96.47829282996916
  0
ARC
  5
2DF
330
1A
100
AcDbEntity
  8
NOKITOI
  6
PHANTOM
 62
     8
100
AcDbCircle
 10
291.8076870858499
 20
301.0565923803275
 30
0.0
 40
5.2000412730095
100
AcDbArc
 50
90.0013245430618
 51
142.0757990790551
  0
LINE
  5
2E0
330
1A
100
AcDbEntity
  8
NOKITOI
  6
PHANTOM
 62
     8
100
AcDbLine
 10
293.2801668731808
 20
305.5849336519473
 30
0.0
 11
293.8351668731807
 21
306.1980336519476
 31
0.0
  0
LINE
  5
2E1
330
1A
100
AcDbEntity
  8
NOKITOI
  6
PHANTOM
 62
     8
100
AcDbLine
 10
293.6539668731807
 20
302.7565336519475
 30
0.0
 11
293.8351668731807
 21
306.1980336519476
 31
0.0
  0
ARC
  5
2E2
330
1A
100
AcDbEntity
  8
NOKITOI
  6
PHANTOM
 62
     8
100
AcDbCircle
 10
294.3180599861857
 20
302.0565271168619
 30
0.0
 40
0.499993464961963
100
AcDbArc
 50
270.0007892017869
 51
356.997036131742
  0
ARC
  5
2E3
330
1A
100
AcDbEntity
  8
NOKITOI
  6
PHANTOM
 62
     8
100
AcDbCircle
 10
289.8940804453191
 20
298.256520496861
 30
0.0
 40
1.999986844959662
100
AcDbArc
 50
181.7875531852356
 51
269.9996111843215
  0
LINE
  5
2E4
330
1A
100
AcDbEntity
  8
NOKITOI
  6
PHANTOM
 62
     8
100
AcDbLine
 10
288.2463668731807
 20
295.0565336519474
 30
0.0
 11
294.3910668731805
 21
295.0565336519474
 31
0.0
  0
LINE
  5
2E5
330
1A
100
AcDbEntity
  8
NOKITOI
  6
PHANTOM
 62
     8
100
AcDbLine
 10
287.8950668731804
 20
298.1941336519474
 30
0.0
 11
287.8095668731807
 21
300.9316336519474
 31
0.0
  0
ARC
  5
2E6
330
1A
100
AcDbEntity
  8
NOKITOI
  6
PHANTOM
 62
     8
100
AcDbCircle
 10
295.934979442889
 20
295.7565220272178
 30
0.0
 40
0.5000116248877111
100
AcDbArc
 50
4.474846808342103
 51
90.00144034898383
  0
ARC
  5
2E8
330
1A
100
AcDbEntity
  8
NOKITOI
  6
PHANTOM
 62
     8
100
AcDbCircle
 10
291.8076047546274
 20
301.0565774344728
 30
0.0
 40
3.999989731271038
100
AcDbArc
 50
96.47731142013119
 51
181.7899836067311
  0
LINE
  5
2E9
330
1A
100
AcDbEntity
  8
NOKITOI
  6
PHANTOM
 62
     8
100
AcDbLine
 10
291.9120668731807
 20
309.1546336519474
 30
0.0
 11
292.1728668731807
 21
310.4585336519475
 31
0.0
  0
ARC
  5
2EA
330
1A
100
AcDbEntity
  8
NOKITOI
  6
PHANTOM
 62
     8
100
AcDbCircle
 10
292.4023596186252
 20
309.0565425017909
 30
0.0
 40
0.5000088498959383
100
AcDbArc
 50
168.6864043304892
 51
270.0008312961442
  0
ARC
  5
2EB
330
1A
100
AcDbEntity
  8
NOKITOI
  6
PHANTOM
 62
     8
100
AcDbCircle
 10
291.6825660901722
 20
310.5565346069492
 30
0.0
 40
0.4999990449987349
100
AcDbArc
 50
348.6967198015447
 51
89.99991027369492
  0
ARC
  5
2EC
330
1A
100
AcDbEntity
  8
NOKITOI
  6
PHANTOM
 62
     8
100
AcDbCircle
 10
288.3559713679787
 20
309.0565382894743
 30
0.0
 40
0.7999953624857498
100
AcDbArc
 50
90.00032191805264
 51
181.7911273464193
  0
LINE
  5
2ED
330
1A
100
AcDbEntity
  8
NOKITOI
  6
PHANTOM
 62
     8
100
AcDbLine
 10
288.3559668731805
 20
309.8565336519476
 30
0.0
 11
290.8287668731809
 21
309.8565336519476
 31
0.0
  0
LINE
  5
2EE
330
1A
100
AcDbEntity
  8
NOKITOI
  6
PHANTOM
 62
     8
100
AcDbLine
 10
288.3559668731805
 20
311.0565336519474
 30
0.0
 11
291.6825668731807
 21
311.0565336519474
 31
0.0
  0
LINE
  5
2EF
330
1A
100
AcDbEntity
  8
NOKITOI
  6
PHANTOM
 62
     8
100
AcDbLine
 10
294.6338668731805
 20
308.5565336519474
 30
0.0
 11
292.4023668731806
 21
308.5565336519474
 31
0.0
  0
ARC
  5
2F1
330
1A
100
AcDbEntity
  8
NOKITOI
  6
PHANTOM
 62
     8
100
AcDbCircle
 10
288.3559796240306
 20
309.0565468070339
 30
0.0
 40
1.999986844954076
100
AcDbArc
 50
90.00036528735451
 51
181.7883072882703
  0
LINE
  5
314
330
1A
100
AcDbEntity
  8
NOKITOI
  6
PHANTOM
 62
     8
100
AcDbLine
 10
396.1614668731808
 20
295.8063336519474
 30
0.0
 11
393.1684668731804
 21
265.8765336519473
 31
0.0
  0
LINE
  5
315
330
1A
100
AcDbEntity
  8
NOKITOI
  6
PHANTOM
 62
     8
100
AcDbLine
 10
397.202466873181
 20
294.1560336519474
 30
0.0
 11
394.3336668731808
 21
265.4686336519474
 31
0.0
  0
LINE
  5
31B
330
1A
100
AcDbEntity
  8
NOKITOI
  6
PHANTOM
 62
     8
100
AcDbLine
 10
392.987566873181
 20
265.5392336519474
 30
0.0
 11
383.0022668731808
 21
257.3694336519473
 31
0.0
  0
LINE
  5
31C
330
1A
100
AcDbEntity
  8
NOKITOI
  6
PHANTOM
 62
     8
100
AcDbLine
 10
393.9718668731807
 20
264.7941336519476
 30
0.0
 11
383.5687668731807
 21
256.2824336519475
 31
0.0
  0
ARC
  5
31D
330
1A
100
AcDbEntity
  8
NOKITOI
  6
PHANTOM
 62
     8
100
AcDbCircle
 10
382.6856732609294
 20
257.756435931937
 30
0.0
 40
0.5000022800304047
100
AcDbArc
 50
269.9992680212791
 51
309.2854498596055
  0
ARC
  5
31E
330
1A
100
AcDbEntity
  8
NOKITOI
  6
PHANTOM
 62
     8
100
AcDbCircle
 10
382.9354599406033
 20
257.0564311769413
 30
0.0
 40
0.9999975250179316
100
AcDbArc
 50
270.0003972084035
 51
309.2946416752297
  0
ARC
  5
31F
330
1A
100
AcDbEntity
  8
NOKITOI
  6
PHANTOM
 62
     8
100
AcDbCircle
 10
392.6709494473025
 20
265.9262011655595
 30
0.0
 40
0.4999904508696396
100
AcDbArc
 50
309.2900846377946
 51
354.2990110749239
  0
ARC
  5
320
330
1A
100
AcDbEntity
  8
NOKITOI
  6
PHANTOM
 62
     8
100
AcDbCircle
 10
393.3386443003119
 20
265.5680915802749
 30
0.0
 40
0.9999908507640039
100
AcDbArc
 50
309.288709223069
 51
354.2862329477532
  0
ARC
  5
323
330
1A
100
AcDbEntity
  8
NOKITOI
  6
PHANTOM
 62
     8
100
AcDbCircle
 10
404.3385840863589
 20
296.5565503350952
 30
0.0
 40
1.500016683246579
100
AcDbArc
 50
269.9993425123344
 51
358.2076423244113
  0
ARC
  5
324
330
1A
100
AcDbEntity
  8
NOKITOI
  6
PHANTOM
 62
     8
100
AcDbCircle
 10
398.1974875230216
 20
294.0565523397966
 30
0.0
 40
0.9999813123640345
100
AcDbArc
 50
90.00118317084911
 51
174.2905900333514
  0
ARC
  5
32E
330
1A
100
AcDbEntity
  8
NOKITOI
  6
PHANTOM
 62
     8
100
AcDbCircle
 10
404.2289556361866
 20
309.0565452457646
 30
0.0
 40
1.999988406214315
100
AcDbArc
 50
358.2088726535936
 51
89.99967808195551
  0
LINE
  5
32F
330
1A
100
AcDbEntity
  8
NOKITOI
  6
PHANTOM
 62
     8
100
AcDbLine
 10
406.2279668731807
 20
308.9940336519474
 30
0.0
 11
405.8378668731807
 21
296.5096336519474
 31
0.0
  0
LINE
  5
330
330
1A
100
AcDbEntity
  8
NOKITOI
  6
PHANTOM
 62
     8
100
AcDbLine
 10
401.7562668731807
 20
309.8565336519476
 30
0.0
 11
402.2562668731807
 21
307.3565336519476
 31
0.0
  0
ARC
  5
331
330
1A
100
AcDbEntity
  8
NOKITOI
  6
PHANTOM
 62
     8
100
AcDbCircle
 10
397.951070582676
 20
308.0565375619781
 30
0.0
 40
0.4999960899831856
100
AcDbArc
 50
90.00042508015082
 51
183.0156217414647
  0
LINE
  5
332
330
1A
100
AcDbEntity
  8
NOKITOI
  6
PHANTOM
 62
     8
100
AcDbLine
 10
405.0285668731803
 20
309.0315336519473
 30
0.0
 11
404.8792668731807
 21
304.2525336519476
 31
0.0
  0
ARC
  5
336
330
1A
100
AcDbEntity
  8
NOKITOI
  6
PHANTOM
 62
     8
100
AcDbCircle
 10
400.7774359462445
 20
301.0565693966112
 30
0.0
 40
3.99998565374706
100
AcDbArc
 50
358.208696659101
 51
83.5242238046835
  0
ARC
  5
337
330
1A
100
AcDbEntity
  8
NOKITOI
  6
PHANTOM
 62
     8
100
AcDbCircle
 10
400.7774490068295
 20
301.0565423803274
 30
0.0
 40
5.199991271650611
100
AcDbArc
 50
37.92532860472995
 51
89.9998031407256
  0
ARC
  5
338
330
1A
100
AcDbEntity
  8
NOKITOI
  6
PHANTOM
 62
     8
100
AcDbCircle
 10
402.690904861005
 20
298.2564704725197
 30
0.0
 40
2.000036820932882
100
AcDbArc
 50
269.9989117490344
 51
358.2110591274195
  0
LINE
  5
339
330
1A
100
AcDbEntity
  8
NOKITOI
  6
PHANTOM
 62
     8
100
AcDbLine
 10
404.3385668731807
 20
295.0565336519474
 30
0.0
 11
398.1974668731809
 21
295.0565336519474
 31
0.0
  0
LINE
  5
33A
330
1A
100
AcDbEntity
  8
NOKITOI
  6
PHANTOM
 62
     8
100
AcDbLine
 10
400.3154668731808
 20
306.2565336519475
 30
0.0
 11
399.3196668731807
 21
307.3565336519476
 31
0.0
  0
LINE
  5
33B
330
1A
100
AcDbEntity
  8
NOKITOI
  6
PHANTOM
 62
     8
100
AcDbLine
 10
400.3154668731808
 20
306.2565336519475
 30
0.0
 11
400.7774668731808
 21
306.2565336519475
 31
0.0
  0
LINE
  5
33C
330
1A
100
AcDbEntity
  8
NOKITOI
  6
PHANTOM
 62
     8
100
AcDbLine
 10
401.0109668731806
 20
302.1272336519474
 30
0.0
 11
400.6771668731808
 21
304.4634336519476
 31
0.0
  0
ARC
  5
33D
330
1A
100
AcDbEntity
  8
NOKITOI
  6
PHANTOM
 62
     8
100
AcDbCircle
 10
400.5159770596169
 20
302.0565453966716
 30
0.0
 40
0.5000117448278309
100
AcDbArc
 50
269.9988327478016
 51
8.127314608715551
  0
ARC
  5
33E
330
1A
100
AcDbEntity
  8
NOKITOI
  6
PHANTOM
 62
     8
100
AcDbCircle
 10
398.2668709945873
 20
302.0565297419169
 30
0.0
 40
0.4999960899864752
100
AcDbArc
 50
183.0147243791741
 51
269.9995277178593
  0
LINE
  5
33F
330
1A
100
AcDbEntity
  8
NOKITOI
  6
PHANTOM
 62
     8
100
AcDbLine
 10
398.2668668731808
 20
301.5565336519474
 30
0.0
 11
400.5159668731803
 21
301.5565336519474
 31
0.0
  0
LINE
  5
340
330
1A
100
AcDbEntity
  8
NOKITOI
  6
PHANTOM
 62
     8
100
AcDbLine
 10
398.9309668731807
 20
302.7565336519475
 30
0.0
 11
399.7088668731803
 21
302.7565336519475
 31
0.0
  0
LINE
  5
341
330
1A
100
AcDbEntity
  8
NOKITOI
  6
PHANTOM
 62
     8
100
AcDbLine
 10
399.7088668731803
 20
302.7565336519475
 30
0.0
 11
399.3048668731807
 21
305.5849336519473
 31
0.0
  0
LINE
  5
342
330
1A
100
AcDbEntity
  8
NOKITOI
  6
PHANTOM
 62
     8
100
AcDbLine
 10
397.7675668731808
 20
302.0302336519474
 30
0.0
 11
397.4517668731805
 21
308.0302336519474
 31
0.0
  0
LINE
  5
343
330
1A
100
AcDbEntity
  8
NOKITOI
  6
PHANTOM
 62
     8
100
AcDbLine
 10
399.3048668731807
 20
305.5849336519473
 30
0.0
 11
398.7498668731804
 21
306.1979336519474
 31
0.0
  0
LINE
  5
344
330
1A
100
AcDbEntity
  8
NOKITOI
  6
PHANTOM
 62
     8
100
AcDbLine
 10
398.9309668731807
 20
302.7565336519475
 30
0.0
 11
398.7498668731804
 21
306.1979336519474
 31
0.0
  0
ARC
  5
345
330
1A
100
AcDbEntity
  8
NOKITOI
  6
PHANTOM
 62
     8
100
AcDbCircle
 10
401.1721962456804
 20
304.5341638844423
 30
0.0
 40
0.4999578477751074
100
AcDbArc
 50
83.52609071220751
 51
188.1330561712932
  0
LINE
  5
346
330
1A
100
AcDbEntity
  8
NOKITOI
  6
PHANTOM
 62
     8
100
AcDbLine
 10
402.2562668731807
 20
307.3565336519476
 30
0.0
 11
399.3196668731807
 21
307.3565336519476
 31
0.0
  0
ARC
  5
347
330
1A
100
AcDbEntity
  8
NOKITOI
  6
PHANTOM
 62
     8
100
AcDbCircle
 10
396.6589799441853
 20
295.7565454822273
 30
0.0
 40
0.499988169890889
100
AcDbArc
 50
90.00149786226634
 51
174.2966061377162
  0
LINE
  5
348
330
1A
100
AcDbEntity
  8
NOKITOI
  6
PHANTOM
 62
     8
100
AcDbLine
 10
396.6589668731803
 20
296.2565336519475
 30
0.0
 11
402.6908668731807
 21
296.2565336519475
 31
0.0
  0
LINE
  5
349
330
1A
100
AcDbEntity
  8
NOKITOI
  6
PHANTOM
 62
     8
100
AcDbLine
 10
404.6899668731807
 20
298.1939336519475
 30
0.0
 11
404.7754668731804
 21
300.9315336519474
 31
0.0
  0
LINE
  5
34A
330
1A
100
AcDbEntity
  8
NOKITOI
  6
PHANTOM
 62
     8
100
AcDbLine
 10
404.2289668731809
 20
309.8564336519474
 30
0.0
 11
401.7562668731807
 21
309.8565336519476
 31
0.0
  0
LINE
  5
34B
330
1A
100
AcDbEntity
  8
NOKITOI
  6
PHANTOM
 62
     8
100
AcDbLine
 10
404.2289668731809
 20
311.0564336519475
 30
0.0
 11
400.9023668731806
 21
311.0565336519474
 31
0.0
  0
LINE
  5
34E
330
1A
100
AcDbEntity
  8
NOKITOI
  6
PHANTOM
 62
     8
100
AcDbLine
 10
400.6728668731807
 20
309.1545336519476
 30
0.0
 11
400.4120668731807
 21
310.4585336519475
 31
0.0
  0
ARC
  5
34F
330
1A
100
AcDbEntity
  8
NOKITOI
  6
PHANTOM
 62
     8
100
AcDbCircle
 10
400.1825660901722
 20
309.0565326969457
 30
0.0
 40
0.4999990449987399
100
AcDbArc
 50
270.000089726305
 51
11.30328019845521
  0
ARC
  5
350
330
1A
100
AcDbEntity
  8
NOKITOI
  6
PHANTOM
 62
     8
100
AcDbCircle
 10
400.9023596186252
 20
310.556524802104
 30
0.0
 40
0.500008849895925
100
AcDbArc
 50
89.99916870385415
 51
191.3135956695126
  0
LINE
  5
351
330
1A
100
AcDbEntity
  8
NOKITOI
  6
PHANTOM
 62
     8
100
AcDbLine
 10
397.9510668731809
 20
308.5565336519474
 30
0.0
 11
400.1825668731807
 21
308.5565336519474
 31
0.0
  0
ARC
  5
352
330
1A
100
AcDbEntity
  8
NOKITOI
  6
PHANTOM
 62
     8
100
AcDbCircle
 10
404.2290108395336
 20
309.0564882894744
 30
0.0
 40
0.7999453636812564
100
AcDbArc
 50
358.2123436447881
 51
90.00314907315425
  0
TEXT
  5
35E
330
1A
100
AcDbEntity
  8
SUNPOU
  6
CONTINUOUS
 62
     4
100
AcDbText
 10
628.1438596095836
 20
349.9462794581798
 30
0.0
 40
6.0
  1
10
100
AcDbText
  0
LINE
  5
35F
330
1A
100
AcDbEntity
  8
SUNPOU
  6
CONTINUOUS
 62
     4
100
AcDbLine
 10
619.5796125648152
 20
357.9212390565875
 30
0.0
 11
639.5796125648151
 21
357.9212390565875
 31
0.0
  0
LINE
  5
360
330
1A
100
AcDbEntity
  8
SUNPOU
  6
CONTINUOUS
 62
     4
100
AcDbLine
 10
639.5796125648151
 20
365.9212390565875
 30
0.0
 11
619.5796125648152
 21
357.9212390565875
 31
0.0
  0
LINE
  5
361
330
1A
100
AcDbEntity
  8
SUNPOU
  6
CONTINUOUS
 62
     4
100
AcDbLine
 10
639.5796125648151
 20
357.9212390565875
 30
0.0
 11
639.5796125648151
 21
365.9212390565875
 31
0.0
  0
TEXT
  5
362
330
1A
100
AcDbEntity
  8
SUNPOU
  6
CONTINUOUS
 62
     4
100
AcDbText
 10
643.8743110331736
 20
359.079053927616
 30
0.0
 40
6.0
  1
4
100
AcDbText
  0
ARC
  5
8FD
330
1A
100
AcDbEntity
  8
SEIHIN
 62
     3
100
AcDbCircle
 10
304.651429053889
 20
303.7652217067528
 30
0.0
 40
2.000000001052705
100
AcDbArc
 50
270.0
 51
299.9999999651758
  0
ARC
  5
8FF
330
1A
100
AcDbEntity
  8
SEIHIN
 62
     3
100
AcDbCircle
 10
304.597840653889
 20
303.9652217067529
 30
0.0
 40
6.70000001483484
100
AcDbArc
 50
270.0
 51
300.0000087406067
  0
LINE
  5
900
330
1A
100
AcDbEntity
  8
SEIHIN
 62
     3
100
AcDbLine
 10
290.058185353889
 20
303.5487470967528
 30
0.0
 11
290.848300953889
 21
302.5339918867529
 31
0.0
  0
ARC
  5
901
330
1A
100
AcDbEntity
  8
SEIHIN
 62
     3
100
AcDbCircle
 10
296.9591240538889
 20
299.1196337067528
 30
0.0
 40
6.999999998144283
100
AcDbArc
 50
137.9753724543312
 51
180.0000000818504
  0
ARC
  5
902
330
1A
100
AcDbEntity
  8
SEIHIN
 62
     3
100
AcDbCircle
 10
296.9591240538889
 20
299.1196337067528
 30
0.0
 40
8.200000025865952
100
AcDbArc
 50
136.4895916441825
 51
180.0000000698716
  0
LINE
  5
903
330
1A
100
AcDbEntity
  8
SEIHIN
 62
     3
100
AcDbLine
 10
291.884208953889
 20
298.4652217067529
 30
0.0
 11
290.1819155538889
 21
300.8459965567528
 31
0.0
  0
ARC
  5
904
330
1A
100
AcDbEntity
  8
SEIHIN
 62
     3
100
AcDbCircle
 10
290.459124053889
 20
298.9652217067529
 30
0.0
 40
1.700000020814075
100
AcDbArc
 50
180.0820145529315
 51
270.0
  0
ARC
  5
905
330
1A
100
AcDbEntity
  8
SEIHIN
 62
     3
100
AcDbCircle
 10
290.459124053889
 20
298.9652217067529
 30
0.0
 40
0.5
100
AcDbArc
 50
180.0
 51
270.0
  0
ARC
  5
906
330
1A
100
AcDbEntity
  8
SEIHIN
 62
     3
100
AcDbCircle
 10
290.459124053889
 20
298.9652217067529
 30
0.0
 40
1.700000020814068
100
AcDbArc
 50
180.0000003370341
 51
180.0820145529315
  0
LINE
  5
907
330
1A
100
AcDbEntity
  8
SEIHIN
 62
     3
100
AcDbLine
 10
288.759124053889
 20
299.1196337067528
 30
0.0
 11
288.759124053889
 21
298.9652217067529
 31
0.0
  0
LINE
  5
908
330
1A
100
AcDbEntity
  8
SEIHIN
 62
     3
100
AcDbLine
 10
289.959124053889
 20
298.9652217067529
 30
0.0
 11
289.959124053889
 21
299.1196337067528
 31
0.0
  0
LINE
  5
909
330
1A
100
AcDbEntity
  8
SEIHIN
 62
     3
100
AcDbLine
 10
295.3591240538889
 20
299.7652217067528
 30
0.0
 11
295.3591240538889
 21
297.2652217067528
 31
0.0
  0
LINE
  5
90B
330
1A
100
AcDbEntity
  8
SEIHIN
 62
     3
100
AcDbLine
 10
304.597840653889
 20
297.2652217067528
 30
0.0
 11
290.459124053889
 21
297.2652217067528
 31
0.0
  0
LINE
  5
90C
330
1A
100
AcDbEntity
  8
SEIHIN
 62
     3
100
AcDbLine
 10
290.459124053889
 20
298.4652217067529
 30
0.0
 11
295.3591240538889
 21
298.4652217067529
 31
0.0
  0
LINE
  5
90D
330
1A
100
AcDbEntity
  8
SEIHIN
 62
     3
100
AcDbLine
 10
297.359124053889
 20
301.7652217067528
 30
0.0
 11
304.651429053889
 21
301.7652217067528
 31
0.0
  0
LINE
  5
90E
330
1A
100
AcDbEntity
  8
SEIHIN
 62
     3
100
AcDbLine
 10
291.759124053889
 20
303.8057835067529
 30
0.0
 11
291.012079753889
 21
304.7652217067528
 31
0.0
  0
ARC
  5
90F
330
1A
100
AcDbEntity
  8
SEIHIN
 62
     3
100
AcDbCircle
 10
297.359124053889
 20
299.7652217067528
 30
0.0
 40
2.0
100
AcDbArc
 50
90.0
 51
180.0000002864791
  0
LINE
  5
911
330
1A
100
AcDbEntity
  8
SEIHIN
 62
     3
100
AcDbLine
 10
313.259124053889
 20
305.2652217067528
 30
0.0
 11
372.662923023889
 21
305.2652217067528
 31
0.0
  0
ARC
  5
913
330
1A
100
AcDbEntity
  8
SEIHIN
 62
     3
100
AcDbCircle
 10
364.539124023889
 20
300.4610547067528
 30
0.0
 40
5.704166995525981
100
AcDbArc
 50
57.37535862169602
 51
122.624641432457
  0
LINE
  5
914
330
1A
100
AcDbEntity
  8
SEIHIN
 62
     3
100
AcDbLine
 10
362.539124023889
 20
300.7652217067528
 30
0.0
 11
366.539124023889
 21
300.7652217067528
 31
0.0
  0
LINE
  5
915
330
1A
100
AcDbEntity
  8
SEIHIN
 62
     3
100
AcDbLine
 10
362.455640023889
 20
300.1652217067529
 30
0.0
 11
366.622609023889
 21
300.1652217067529
 31
0.0
  0
LINE
  5
916
330
1A
100
AcDbEntity
  8
SEIHIN
 62
     3
100
AcDbLine
 10
313.259124053889
 20
300.7652217067528
 30
0.0
 11
362.539124023889
 21
300.7652217067528
 31
0.0
  0
LINE
  5
918
330
1A
100
AcDbEntity
  8
SEIHIN
 62
     3
100
AcDbLine
 10
311.759124053889
 20
300.3632977067528
 30
0.0
 11
307.947841553889
 21
298.1628519867529
 31
0.0
  0
ARC
  5
919
330
1A
100
AcDbEntity
  8
SEIHIN
 62
     3
100
AcDbCircle
 10
313.259124053889
 20
297.7652217067528
 30
0.0
 40
2.999999999413997
100
AcDbArc
 50
90.0
 51
120.0000000129247
  0
ARC
  5
91B
330
1A
100
AcDbEntity
  8
SEIHIN
 62
     3
100
AcDbCircle
 10
313.259124053889
 20
297.7652217067528
 30
0.0
 40
7.499999996369929
100
AcDbArc
 50
90.0
 51
120.0000000320229
  0
LINE
  5
91D
330
1A
100
AcDbEntity
  8
SEIHIN
 62
     3
100
AcDbLine
 10
305.651429053889
 20
302.0331707067529
 30
0.0
 11
309.509124053889
 21
304.2604117067529
 31
0.0
  0
ARC
  5
925
330
1A
100
AcDbEntity
  8
SEIHIN
 62
     3
100
AcDbCircle
 10
362.455640023889
 20
301.1652217067529
 30
0.0
 40
1.000000000462305
100
AcDbArc
 50
203.578178455081
 51
270.0
  0
LINE
  5
929
330
1A
100
AcDbEntity
  8
SEIHIN
 62
     3
100
AcDbLine
 10
378.5380580238889
 20
310.8970987067529
 30
0.0
 11
377.761694703889
 21
305.9953289267529
 31
0.0
  0
LINE
  5
92A
330
1A
100
AcDbEntity
  8
SEIHIN
 62
     3
100
AcDbLine
 10
408.9891240238889
 20
312.7652217067528
 30
0.0
 11
408.9891240238889
 21
300.0012897067529
 31
0.0
  0
LINE
  5
92B
330
1A
100
AcDbEntity
  8
SEIHIN
 62
     3
100
AcDbLine
 10
407.989124023889
 20
312.7652217067528
 30
0.0
 11
407.989124023889
 21
296.0652217067528
 31
0.0
  0
LINE
  5
92E
330
1A
100
AcDbEntity
  8
SEIHIN
 62
     3
100
AcDbLine
 10
406.789124023889
 20
312.7652217067528
 30
0.0
 11
406.789124023889
 21
296.0652217067528
 31
0.0
  0
LINE
  5
92F
330
1A
100
AcDbEntity
  8
SEIHIN
 62
     3
100
AcDbLine
 10
388.192652023889
 20
312.3159407067529
 30
0.0
 11
383.605397023889
 21
301.7652537067529
 31
0.0
  0
LINE
  5
930
330
1A
100
AcDbEntity
  8
SEIHIN
 62
     3
100
AcDbLine
 10
374.093461023889
 20
311.6010537067528
 30
0.0
 11
373.156767023889
 21
305.6870037067529
 31
0.0
  0
LINE
  5
932
330
1A
100
AcDbEntity
  8
SEIHIN
 62
     3
100
AcDbLine
 10
381.202695023889
 20
312.3652217067529
 30
0.0
 11
381.202695023889
 21
307.5325537067528
 31
0.0
  0
LINE
  5
933
330
1A
100
AcDbEntity
  8
SEIHIN
 62
     3
100
AcDbLine
 10
380.802695023889
 20
312.3652217067529
 30
0.0
 11
380.802695023889
 21
307.5325537067528
 31
0.0
  0
LINE
  5
935
330
1A
100
AcDbEntity
  8
SEIHIN
 62
     3
100
AcDbLine
 10
394.605397023889
 20
305.9589307067529
 30
0.0
 11
394.605397023889
 21
311.9178517067529
 31
0.0
  0
ARC
  5
936
330
1A
100
AcDbEntity
  8
SEIHIN
 62
     3
100
AcDbCircle
 10
379.802695023889
 20
307.5325537067528
 30
0.0
 40
1.00000000242602
100
AcDbArc
 50
285.0000002160139
 51
0.0
  0
ARC
  5
937
330
1A
100
AcDbEntity
  8
SEIHIN
 62
     3
100
AcDbCircle
 10
379.802695023889
 20
307.5325537067528
 30
0.0
 40
1.400000001136407
100
AcDbArc
 50
284.9999998418851
 51
0.0
  0
LINE
  5
938
330
1A
100
AcDbEntity
  8
SEIHIN
 62
     3
100
AcDbLine
 10
378.798149023889
 20
301.7652537067529
 30
0.0
 11
393.605397023889
 21
301.7652537067529
 31
0.0
  0
LINE
  5
939
330
1A
100
AcDbEntity
  8
SEIHIN
 62
     3
100
AcDbLine
 10
378.798149023889
 20
301.7652537067529
 30
0.0
 11
393.605397023889
 21
301.7652537067529
 31
0.0
  0
LINE
  5
93A
330
1A
100
AcDbEntity
  8
SEIHIN
 62
     3
100
AcDbLine
 10
378.781797023889
 20
302.1652537067528
 30
0.0
 11
383.779310023889
 21
302.1652537067528
 31
0.0
  0
ARC
  5
93B
330
1A
100
AcDbEntity
  8
SEIHIN
 62
     3
100
AcDbCircle
 10
372.662923023889
 20
305.7652217067528
 30
0.0
 40
0.5000000004381011
100
AcDbArc
 50
270.0
 51
350.9999991480861
  0
ARC
  5
93E
330
1A
100
AcDbEntity
  8
SEIHIN
 62
     3
100
AcDbCircle
 10
371.638026853889
 20
306.9652217067529
 30
0.0
 40
6.199999997654025
100
AcDbArc
 50
270.0
 51
351.0000084443393
  0
LINE
  5
942
330
1A
100
AcDbEntity
  8
SEIHIN
 62
     3
100
AcDbLine
 10
366.539124023889
 20
300.7652217067528
 30
0.0
 11
371.638026853889
 21
300.7652217067528
 31
0.0
  0
ARC
  5
945
330
1A
100
AcDbEntity
  8
SEIHIN
 62
     3
100
AcDbCircle
 10
366.622608023889
 20
301.1652217067529
 30
0.0
 40
1.000000000462305
100
AcDbArc
 50
270.0
 51
336.421821544919
  0
ARC
  5
94A
330
1A
100
AcDbEntity
  8
SEIHIN
 62
     3
100
AcDbCircle
 10
378.798149023889
 20
303.9580057067529
 30
0.0
 40
1.792751996555905
100
AcDbArc
 50
105.0000000343158
 51
131.4901295096818
  0
ARC
  5
94B
330
1A
100
AcDbEntity
  8
SEIHIN
 62
     3
100
AcDbCircle
 10
378.798149023889
 20
303.9580057067529
 30
0.0
 40
2.192751996560394
100
AcDbArc
 50
105.000000080988
 51
118.7852858525369
  0
LINE
  5
94C
330
1A
100
AcDbEntity
  8
SEIHIN
 62
     3
100
AcDbLine
 10
378.322031023889
 20
305.6864247067528
 30
0.0
 11
380.165041023889
 21
306.1802577067528
 31
0.0
  0
LINE
  5
94D
330
1A
100
AcDbEntity
  8
SEIHIN
 62
     3
100
AcDbLine
 10
378.230623023889
 20
306.0760417067529
 30
0.0
 11
380.0615140238889
 21
306.5666277067529
 31
0.0
  0
LINE
  5
94E
330
1A
100
AcDbEntity
  8
SEIHIN
 62
     3
100
AcDbLine
 10
383.785397023889
 20
302.1652537067528
 30
0.0
 11
393.605397023889
 21
302.1652537067528
 31
0.0
  0
LINE
  5
94F
330
1A
100
AcDbEntity
  8
SEIHIN
 62
     3
100
AcDbLine
 10
381.892324023889
 20
301.7652537067529
 30
0.0
 11
381.892324023889
 21
302.1652537067529
 31
0.0
  0
LINE
  5
950
330
1A
100
AcDbEntity
  8
SEIHIN
 62
     3
100
AcDbLine
 10
394.605397023889
 20
305.7589307067528
 30
0.0
 11
393.605397023889
 21
301.7652537067529
 31
0.0
  0
LINE
  5
951
330
1A
100
AcDbEntity
  8
SEIHIN
 62
     3
100
AcDbLine
 10
390.892324023889
 20
301.7652537067529
 30
0.0
 11
390.892324023889
 21
302.1652537067528
 31
0.0
  0
LINE
  5
952
330
1A
100
AcDbEntity
  8
SEIHIN
 62
     3
100
AcDbLine
 10
393.605397023889
 20
301.7652537067529
 30
0.0
 11
393.605397023889
 21
302.1652537067528
 31
0.0
  0
LINE
  5
955
330
1A
100
AcDbEntity
  8
SEIHIN
 62
     3
100
AcDbLine
 10
398.483843663889
 20
292.6064026967529
 30
0.0
 11
401.020269963889
 21
283.1403294667529
 31
0.0
  0
LINE
  5
956
330
1A
100
AcDbEntity
  8
SEIHIN
 62
     3
100
AcDbLine
 10
397.3247326638889
 20
292.2958198767529
 30
0.0
 11
399.861158963889
 21
282.8297466567529
 31
0.0
  0
LINE
  5
958
330
1A
100
AcDbEntity
  8
SEIHIN
 62
     3
100
AcDbLine
 10
400.502631943889
 20
285.0721811367529
 30
0.0
 11
399.343520953889
 21
284.7615982867528
 31
0.0
  0
LINE
  5
959
330
1A
100
AcDbEntity
  8
SEIHIN
 62
     3
100
AcDbLine
 10
399.861158973889
 20
282.8297466167528
 30
0.0
 11
401.020269963889
 21
283.1403294667529
 31
0.0
  0
ARC
  5
95C
330
1A
100
AcDbEntity
  8
SEIHIN
 62
     3
100
AcDbCircle
 10
405.989124023889
 20
300.0012897067529
 30
0.0
 40
3.000000004265107
100
AcDbArc
 50
311.8103150062962
 51
0.0
  0
LINE
  5
95D
330
1A
100
AcDbEntity
  8
SEIHIN
 62
     3
100
AcDbLine
 10
399.435821683889
 20
295.0652217067528
 30
0.0
 11
405.789124023889
 21
295.0652217067528
 31
0.0
  0
LINE
  5
95E
330
1A
100
AcDbEntity
  8
SEIHIN
 62
     3
100
AcDbLine
 10
399.4497694938889
 20
293.8652217067529
 30
0.0
 11
405.789124023889
 21
293.8652217067529
 31
0.0
  0
ARC
  5
95F
330
1A
100
AcDbEntity
  8
SEIHIN
 62
     3
100
AcDbCircle
 10
399.4497694938889
 20
292.8652217067529
 30
0.0
 40
2.199999996916341
100
AcDbArc
 50
180.0000002604354
 51
194.9999981765602
  0
ARC
  5
960
330
1A
100
AcDbEntity
  8
SEIHIN
 62
     3
100
AcDbCircle
 10
399.4497694938889
 20
292.8652217067529
 30
0.0
 40
2.199999994483917
100
AcDbArc
 50
90.20054527422605
 51
105.0000000722989
  0
ARC
  5
961
330
1A
100
AcDbEntity
  8
SEIHIN
 62
     3
100
AcDbCircle
 10
399.4497694938889
 20
292.8652217067529
 30
0.0
 40
0.9999999972496434
100
AcDbArc
 50
90.0
 51
194.9999980022748
  0
ARC
  5
962
330
1A
100
AcDbEntity
  8
SEIHIN
 62
     3
100
AcDbCircle
 10
399.4497694938889
 20
292.8652217067529
 30
0.0
 40
2.199999996315752
100
AcDbArc
 50
105.0000000722989
 51
180.0000002604354
  0
ARC
  5
963
330
1A
100
AcDbEntity
  8
SEIHIN
 62
     3
100
AcDbCircle
 10
399.4497694938889
 20
292.8652217067529
 30
0.0
 40
2.199999998168167
100
AcDbArc
 50
90.0
 51
90.20054527422605
  0
ARC
  5
965
330
1A
100
AcDbEntity
  8
SEIHIN
 62
     3
100
AcDbCircle
 10
405.789124023889
 20
296.0652217067528
 30
0.0
 40
1.0
100
AcDbArc
 50
270.0
 51
0.0
  0
ARC
  5
966
330
1A
100
AcDbEntity
  8
SEIHIN
 62
     3
100
AcDbCircle
 10
405.789124023889
 20
296.0652217067528
 30
0.0
 40
2.200000000000001
100
AcDbArc
 50
270.0
 51
0.0
  0
LINE
  5
96A
330
1A
100
AcDbEntity
  8
SEIHIN
 62
     3
100
AcDbLine
 10
405.789124023889
 20
313.7652217067528
 30
0.0
 11
388.642324023889
 21
313.7652217067528
 31
0.0
  0
LINE
  5
96B
330
1A
100
AcDbEntity
  8
SEIHIN
 62
     3
100
AcDbLine
 10
381.896199023889
 20
318.2652217067528
 30
0.0
 11
402.789124023889
 21
318.2652217067528
 31
0.0
  0
ARC
  5
96F
330
1A
100
AcDbEntity
  8
SEIHIN
 62
     3
100
AcDbCircle
 10
381.896199023889
 20
310.3652217067529
 30
0.0
 40
3.400000000887181
100
AcDbArc
 50
90.0
 51
171.0000000241322
  0
ARC
  5
970
330
1A
100
AcDbEntity
  8
SEIHIN
 62
     3
100
AcDbCircle
 10
381.896199023889
 20
310.3652217067529
 30
0.0
 40
7.899999999354902
100
AcDbArc
 50
90.0
 51
171.000000026553
  0
LINE
  5
974
330
1A
100
AcDbEntity
  8
SEIHIN
 62
     3
100
AcDbLine
 10
384.308840023889
 20
312.7652217067528
 30
0.0
 11
388.475809023889
 21
312.7652217067528
 31
0.0
  0
LINE
  5
975
330
1A
100
AcDbEntity
  8
SEIHIN
 62
     3
100
AcDbLine
 10
382.202695023889
 20
313.3652217067528
 30
0.0
 11
391.981895023889
 21
313.3652217067528
 31
0.0
  0
LINE
  5
976
330
1A
100
AcDbEntity
  8
SEIHIN
 62
     3
100
AcDbLine
 10
388.642324023889
 20
313.7652217067528
 30
0.0
 11
384.142324023889
 21
313.7652217067528
 31
0.0
  0
ARC
  5
978
330
1A
100
AcDbEntity
  8
SEIHIN
 62
     3
100
AcDbCircle
 10
384.308840023889
 20
313.7652217067528
 30
0.0
 40
1.000000000462305
100
AcDbArc
 50
203.578178455081
 51
270.0
  0
LINE
  5
979
330
1A
100
AcDbEntity
  8
SEIHIN
 62
     3
100
AcDbLine
 10
384.142324023889
 20
313.7652217067528
 30
0.0
 11
381.896199023889
 21
313.7652217067528
 31
0.0
  0
ARC
  5
97B
330
1A
100
AcDbEntity
  8
SEIHIN
 62
     3
100
AcDbCircle
 10
382.202695023889
 20
312.3652217067529
 30
0.0
 40
1.0
100
AcDbArc
 50
90.0
 51
180.0000005729565
  0
ARC
  5
97C
330
1A
100
AcDbEntity
  8
SEIHIN
 62
     3
100
AcDbCircle
 10
382.202695023889
 20
312.3652217067529
 30
0.0
 40
1.399999999999998
100
AcDbArc
 50
90.0
 51
180.0000004092556
  0
LINE
  5
97F
330
1A
100
AcDbEntity
  8
SEIHIN
 62
     3
100
AcDbLine
 10
393.105397023889
 20
313.1621817067529
 30
0.0
 11
389.544053023889
 21
313.1621817067529
 31
0.0
  0
LINE
  5
980
330
1A
100
AcDbEntity
  8
SEIHIN
 62
     3
100
AcDbLine
 10
393.105397023889
 20
313.2178517067528
 30
0.0
 11
389.568257023889
 21
313.2178517067528
 31
0.0
  0
ARC
  5
981
330
1A
100
AcDbEntity
  8
SEIHIN
 62
     3
100
AcDbCircle
 10
388.475809023889
 20
313.7652217067528
 30
0.0
 40
1.000000005160678
100
AcDbArc
 50
325.0882877584606
 51
336.421821544919
  0
ARC
  5
982
330
1A
100
AcDbEntity
  8
SEIHIN
 62
     3
100
AcDbCircle
 10
388.475809023889
 20
313.7652217067528
 30
0.0
 40
1.000000000760434
100
AcDbArc
 50
270.0
 51
271.0792212267711
  0
ARC
  5
983
330
1A
100
AcDbEntity
  8
SEIHIN
 62
     3
100
AcDbCircle
 10
388.475809023889
 20
313.7652217067528
 30
0.0
 40
1.000000005458808
100
AcDbArc
 50
271.0792212267711
 51
325.0882877584606
  0
ARC
  5
984
330
1A
100
AcDbEntity
  8
SEIHIN
 62
     3
100
AcDbCircle
 10
389.568257023889
 20
311.7178517067528
 30
0.0
 40
1.499999998366152
100
AcDbArc
 50
90.00000190985865
 51
156.5014370654866
  0
ARC
  5
987
330
1A
100
AcDbEntity
  8
SEIHIN
 62
     3
100
AcDbCircle
 10
389.544053023889
 20
311.6621817067529
 30
0.0
 40
1.499999998565515
100
AcDbArc
 50
90.0
 51
156.5014341565161
  0
LINE
  5
988
330
1A
100
AcDbEntity
  8
SEIHIN
 62
     3
100
AcDbLine
 10
391.981895023889
 20
313.3652217067528
 30
0.0
 11
391.981895023889
 21
313.7652217067528
 31
0.0
  0
ARC
  5
989
330
1A
100
AcDbEntity
  8
SEIHIN
 62
     3
100
AcDbCircle
 10
393.105397023889
 20
311.6621817067529
 30
0.0
 40
1.5
100
AcDbArc
 50
0.0
 51
90.0
  0
ARC
  5
98A
330
1A
100
AcDbEntity
  8
SEIHIN
 62
     3
100
AcDbCircle
 10
393.105397023889
 20
311.7178517067528
 30
0.0
 40
1.5
100
AcDbArc
 50
0.0
 51
90.0
  0
ARC
  5
98E
330
1A
100
AcDbEntity
  8
SEIHIN
 62
     3
100
AcDbCircle
 10
405.789124023889
 20
312.7652217067528
 30
0.0
 40
3.200000000000001
100
AcDbArc
 50
0.0
 51
90.0
  0
LINE
  5
98F
330
1A
100
AcDbEntity
  8
SEIHIN
 62
     3
100
AcDbLine
 10
404.789124023889
 20
316.2652217067528
 30
0.0
 11
404.789124023889
 21
313.7652217067528
 31
0.0
  0
ARC
  5
990
330
1A
100
AcDbEntity
  8
SEIHIN
 62
     3
100
AcDbCircle
 10
405.789124023889
 20
312.7652217067528
 30
0.0
 40
1.0
100
AcDbArc
 50
0.0
 51
90.0
  0
ARC
  5
991
330
1A
100
AcDbEntity
  8
SEIHIN
 62
     3
100
AcDbCircle
 10
405.789124023889
 20
312.7652217067528
 30
0.0
 40
2.200000000000001
100
AcDbArc
 50
0.0
 51
90.0
  0
LINE
  5
992
330
1A
100
AcDbEntity
  8
SEIHIN
 62
     3
100
AcDbLine
 10
405.789124023889
 20
314.9652217067529
 30
0.0
 11
404.789124023889
 21
314.9652217067529
 31
0.0
  0
ARC
  5
994
330
1A
100
AcDbEntity
  8
SEIHIN
 62
     3
100
AcDbCircle
 10
402.789124023889
 20
316.2652217067528
 30
0.0
 40
2.000000000000001
100
AcDbArc
 50
0.0
 51
90.0
  0
LINE
  5
996
330
1A
100
AcDbEntity
  8
SEIHIN
 62
     3
100
AcDbLine
 10
404.789124023889
 20
315.9652217067529
 30
0.0
 11
405.789124023889
 21
315.9652217067529
 31
0.0
  0
LINE
  5
998
330
1A
100
AcDbEntity
  8
SEIHIN
 62
     3
100
AcDbLine
 10
293.8590800538889
 20
456.7040762690859
 30
0.0
 11
404.589078023889
 21
456.7040762690859
 31
0.0
  0
LINE
  5
999
330
1A
100
AcDbEntity
  8
SEIHIN
 62
     3
100
AcDbLine
 10
293.8590800538889
 20
440.8040762690859
 30
0.0
 11
404.589078023889
 21
440.8040762690859
 31
0.0
  0
LINE
  5
99A
330
1A
100
AcDbEntity
  8
SEIHIN
 62
     3
100
AcDbLine
 10
293.8590800538889
 20
455.5040762690858
 30
0.0
 11
407.989078023889
 21
455.5040762690858
 31
0.0
  0
LINE
  5
99B
330
1A
100
AcDbEntity
  8
SEIHIN
 62
     3
100
AcDbLine
 10
293.8590800538889
 20
442.0040762690859
 30
0.0
 11
407.989078023889
 21
442.0040762690859
 31
0.0
  0
LINE
  5
99D
330
1A
100
AcDbEntity
  8
SEIHIN
 62
     3
100
AcDbLine
 10
291.012079753889
 20
454.5040762690859
 30
0.0
 11
291.012079753889
 21
443.0040762690858
 31
0.0
  0
LINE
  5
99E
330
1A
100
AcDbEntity
  8
SEIHIN
 62
     3
100
AcDbLine
 10
288.759124053889
 20
443.0040762690858
 30
0.0
 11
288.759124053889
 21
445.7540762690858
 31
0.0
  0
LINE
  5
99F
330
1A
100
AcDbEntity
  8
SEIHIN
 62
     3
100
AcDbLine
 10
289.759124053889
 20
446.6894987542103
 30
0.0
 11
289.759124053889
 21
450.8186537839614
 31
0.0
  0
LINE
  5
9A0
330
1A
100
AcDbEntity
  8
SEIHIN
 62
     3
100
AcDbLine
 10
289.759124053889
 20
446.6894987542103
 30
0.0
 11
288.759124053889
 21
445.7540762690858
 31
0.0
  0
LINE
  5
9A1
330
1A
100
AcDbEntity
  8
SEIHIN
 62
     3
100
AcDbLine
 10
291.759124053889
 20
443.0040762690858
 30
0.0
 11
291.759124053889
 21
454.5040762690859
 31
0.0
  0
LINE
  5
9A2
330
1A
100
AcDbEntity
  8
SEIHIN
 62
     3
100
AcDbLine
 10
288.759124053889
 20
443.0040762690858
 30
0.0
 11
291.012079753889
 21
443.0040762690858
 31
0.0
  0
LINE
  5
9A3
330
1A
100
AcDbEntity
  8
SEIHIN
 62
     3
100
AcDbLine
 10
293.8590800538889
 20
442.0040762690859
 30
0.0
 11
293.8590800538889
 21
442.0040762690859
 31
0.0
  0
LINE
  5
9A4
330
1A
100
AcDbEntity
  8
SEIHIN
 62
     3
100
AcDbLine
 10
293.8590800538889
 20
440.8040762690859
 30
0.0
 11
293.8590800538889
 21
442.0040762690859
 31
0.0
  0
LINE
  5
9A5
330
1A
100
AcDbEntity
  8
SEIHIN
 62
     3
100
AcDbLine
 10
291.012079753889
 20
443.0040762690858
 30
0.0
 11
292.859080053889
 21
443.0040762690858
 31
0.0
  0
LINE
  5
9A7
330
1A
100
AcDbEntity
  8
SEIHIN
 62
     3
100
AcDbLine
 10
288.759124053889
 20
451.7540762690859
 30
0.0
 11
289.759124053889
 21
450.8186537839614
 31
0.0
  0
LINE
  5
9A8
330
1A
100
AcDbEntity
  8
SEIHIN
 62
     3
100
AcDbLine
 10
288.759124053889
 20
454.5040762690859
 30
0.0
 11
291.012079753889
 21
454.5040762690859
 31
0.0
  0
LINE
  5
9AA
330
1A
100
AcDbEntity
  8
SEIHIN
 62
     3
100
AcDbLine
 10
291.012079753889
 20
454.5040762690859
 30
0.0
 11
292.859080053889
 21
454.5040762690859
 31
0.0
  0
LINE
  5
9AB
330
1A
100
AcDbEntity
  8
SEIHIN
 62
     3
100
AcDbLine
 10
293.8590800538889
 20
455.5040762690858
 30
0.0
 11
293.8590800538889
 21
455.5040762690858
 31
0.0
  0
LINE
  5
9AC
330
1A
100
AcDbEntity
  8
SEIHIN
 62
     3
100
AcDbLine
 10
293.8590800538889
 20
455.5040762690858
 30
0.0
 11
293.8590800538889
 21
456.7040762690859
 31
0.0
  0
CIRCLE
  5
9AE
330
1A
100
AcDbEntity
  8
SEIHIN
 62
     3
100
AcDbCircle
 10
364.539124023889
 20
448.7540762690858
 30
0.0
 40
3.5
  0
LINE
  5
9B1
330
1A
100
AcDbEntity
  8
SEIHIN
 62
     3
100
AcDbLine
 10
354.539124023889
 20
455.2540762690859
 30
0.0
 11
370.539124023889
 21
455.2540762690859
 31
0.0
  0
LINE
  5
9B2
330
1A
100
AcDbEntity
  8
SEIHIN
 62
     3
100
AcDbLine
 10
370.539124023889
 20
442.2540762690858
 30
0.0
 11
354.539124023889
 21
442.2540762690858
 31
0.0
  0
LINE
  5
9B4
330
1A
100
AcDbEntity
  8
SEIHIN
 62
     3
100
AcDbLine
 10
326.539078053889
 20
446.2540762690858
 30
0.0
 11
354.539124023889
 21
446.2540762690858
 31
0.0
  0
LINE
  5
9B5
330
1A
100
AcDbEntity
  8
SEIHIN
 62
     3
100
AcDbLine
 10
326.539078053889
 20
451.2540762690859
 30
0.0
 11
354.539124023889
 21
451.2540762690859
 31
0.0
  0
ARC
  5
9B6
330
1A
100
AcDbEntity
  8
SEIHIN
 62
     3
100
AcDbCircle
 10
326.539078053889
 20
448.7540762690858
 30
0.0
 40
2.5
100
AcDbArc
 50
180.0000002291823
 51
270.0
  0
LINE
  5
9B7
330
1A
100
AcDbEntity
  8
SEIHIN
 62
     3
100
AcDbLine
 10
320.539035053889
 20
442.0040762690859
 30
0.0
 11
320.539035053889
 21
455.5040762690858
 31
0.0
  0
ARC
  5
9B8
330
1A
100
AcDbEntity
  8
SEIHIN
 62
     3
100
AcDbCircle
 10
326.539078053889
 20
448.7540762690858
 30
0.0
 40
2.5
100
AcDbArc
 50
90.0
 51
180.0000002291823
  0
LINE
  5
9BA
330
1A
100
AcDbEntity
  8
SEIHIN
 62
     3
100
AcDbLine
 10
354.539124023889
 20
442.2540762690858
 30
0.0
 11
354.539124023889
 21
455.2540762690859
 31
0.0
  0
LINE
  5
9C0
330
1A
100
AcDbEntity
  8
SEIHIN
 62
     3
100
AcDbLine
 10
408.9891240238889
 20
442.2540762690858
 30
0.0
 11
374.424383723889
 21
442.2540762690858
 31
0.0
  0
LINE
  5
9C1
330
1A
100
AcDbEntity
  8
SEIHIN
 62
     3
100
AcDbLine
 10
374.424383723889
 20
455.2540762690859
 30
0.0
 11
408.9891240238889
 21
455.2540762690859
 31
0.0
  0
LINE
  5
9C5
330
1A
100
AcDbEntity
  8
SEIHIN
 62
     3
100
AcDbLine
 10
370.539124023889
 20
455.2540762690859
 30
0.0
 11
370.539124023889
 21
442.2540762690858
 31
0.0
  0
LINE
  5
9C6
330
1A
100
AcDbEntity
  8
SEIHIN
 62
     3
100
AcDbLine
 10
374.424383723889
 20
442.2540762690858
 30
0.0
 11
374.424383723889
 21
455.2540762690859
 31
0.0
  0
ARC
  5
9C8
330
1A
100
AcDbEntity
  8
SEIHIN
 62
     3
100
AcDbCircle
 10
381.941959023889
 20
440.4040762690859
 30
0.0
 40
1.499999998528055
100
AcDbArc
 50
184.0535363990665
 51
270.0
  0
LINE
  5
9C9
330
1A
100
AcDbEntity
  8
SEIHIN
 62
     3
100
AcDbLine
 10
374.424383723889
 20
442.2540762690858
 30
0.0
 11
370.539124023889
 21
442.2540762690858
 31
0.0
  0
ARC
  5
9CA
330
1A
100
AcDbEntity
  8
SEIHIN
 62
     3
100
AcDbCircle
 10
393.105343023889
 20
442.3445882690859
 30
0.0
 40
5.442212002086844
100
AcDbArc
 50
270.0
 51
285.9991570397959
  0
ARC
  5
9CB
330
1A
100
AcDbEntity
  8
SEIHIN
 62
     3
100
AcDbCircle
 10
388.998508023889
 20
439.5399322690858
 30
0.0
 40
2.637556000059316
100
AcDbArc
 50
252.1688580385967
 51
270.0
  0
LINE
  5
9CC
330
1A
100
AcDbEntity
  8
SEIHIN
 62
     3
100
AcDbLine
 10
393.605343023889
 20
438.9040762690858
 30
0.0
 11
381.941959023889
 21
438.9040762690858
 31
0.0
  0
LINE
  5
9CD
330
1A
100
AcDbEntity
  8
SEIHIN
 62
     3
100
AcDbLine
 10
383.6053320238889
 20
438.5040762690858
 30
0.0
 11
388.190855023889
 21
437.0290762690858
 31
0.0
  0
LINE
  5
9CE
330
1A
100
AcDbEntity
  8
SEIHIN
 62
     3
100
AcDbLine
 10
383.6053320238889
 20
438.9040762690858
 30
0.0
 11
388.325167023889
 21
437.3858732690859
 31
0.0
  0
LINE
  5
9CF
330
1A
100
AcDbEntity
  8
SEIHIN
 62
     3
100
AcDbLine
 10
383.6053320238889
 20
438.5040762690858
 30
0.0
 11
383.6053320238889
 21
438.9040762690858
 31
0.0
  0
LINE
  5
9D0
330
1A
100
AcDbEntity
  8
SEIHIN
 62
     3
100
AcDbLine
 10
380.445712023889
 20
440.7540762690858
 30
0.0
 11
380.445712023889
 21
440.2980432690859
 31
0.0
  0
ARC
  5
9D1
330
1A
100
AcDbEntity
  8
SEIHIN
 62
     3
100
AcDbCircle
 10
378.945712023889
 20
440.7540762690858
 30
0.0
 40
1.500000002470376
100
AcDbArc
 50
0.0
 51
1.910213165415673
  0
LINE
  5
9D2
330
1A
100
AcDbEntity
  8
SEIHIN
 62
     3
100
AcDbLine
 10
388.998508023889
 20
437.2984762690858
 30
0.0
 11
393.105343023889
 21
437.2984762690858
 31
0.0
  0
LINE
  5
9D3
330
1A
100
AcDbEntity
  8
SEIHIN
 62
     3
100
AcDbLine
 10
393.105343023889
 20
436.9023762690859
 30
0.0
 11
388.998508023889
 21
436.9023762690859
 31
0.0
  0
ARC
  5
9D4
330
1A
100
AcDbEntity
  8
SEIHIN
 62
     3
100
AcDbCircle
 10
388.998508023889
 20
439.9360322690859
 30
0.0
 40
2.637556001082227
100
AcDbArc
 50
255.209254168823
 51
270.0
  0
LINE
  5
9D5
330
1A
100
AcDbEntity
  8
SEIHIN
 62
     3
100
AcDbLine
 10
394.605343023889
 20
437.1131762690859
 30
0.0
 11
394.605343023889
 21
438.3461762690859
 31
0.0
  0
LINE
  5
9D6
330
1A
100
AcDbEntity
  8
SEIHIN
 62
     3
100
AcDbLine
 10
394.605343023889
 20
438.3461762690859
 30
0.0
 11
393.605343023889
 21
438.9040762690858
 31
0.0
  0
LINE
  5
9D7
330
1A
100
AcDbEntity
  8
SEIHIN
 62
     3
100
AcDbLine
 10
393.605343023889
 20
440.8040762690859
 30
0.0
 11
393.605343023889
 21
438.9040762690858
 31
0.0
  0
ARC
  5
9D8
330
1A
100
AcDbEntity
  8
SEIHIN
 62
     3
100
AcDbCircle
 10
393.105343023889
 20
442.7406882690859
 30
0.0
 40
5.442212002086848
100
AcDbArc
 50
270.0
 51
285.9991570397959
  0
ARC
  5
9D9
330
1A
100
AcDbEntity
  8
SEIHIN
 62
     3
100
AcDbCircle
 10
381.941959023889
 20
457.1040762690858
 30
0.0
 40
1.49999999782117
100
AcDbArc
 50
90.0
 51
175.9464643629666
  0
LINE
  5
9DA
330
1A
100
AcDbEntity
  8
SEIHIN
 62
     3
100
AcDbLine
 10
370.539124023889
 20
455.2540762690859
 30
0.0
 11
374.424383723889
 21
455.2540762690859
 31
0.0
  0
LINE
  5
9DC
330
1A
100
AcDbEntity
  8
SEIHIN
 62
     3
100
AcDbLine
 10
383.6053320238889
 20
459.0040762690859
 30
0.0
 11
388.190855023889
 21
460.4790762690859
 31
0.0
  0
LINE
  5
9DD
330
1A
100
AcDbEntity
  8
SEIHIN
 62
     3
100
AcDbLine
 10
383.6053320238889
 20
458.6040762690859
 30
0.0
 11
388.325167023889
 21
460.1222802690858
 31
0.0
  0
LINE
  5
9DE
330
1A
100
AcDbEntity
  8
SEIHIN
 62
     3
100
AcDbLine
 10
394.605343023889
 20
459.1619762690859
 30
0.0
 11
393.605343023889
 21
458.6040762690859
 31
0.0
  0
LINE
  5
9DF
330
1A
100
AcDbEntity
  8
SEIHIN
 62
     3
100
AcDbLine
 10
393.605343023889
 20
458.6040762690859
 30
0.0
 11
381.941959023889
 21
458.6040762690859
 31
0.0
  0
LINE
  5
9E0
330
1A
100
AcDbEntity
  8
SEIHIN
 62
     3
100
AcDbLine
 10
383.6053320238889
 20
459.0040762690859
 30
0.0
 11
383.6053320238889
 21
458.6040762690859
 31
0.0
  0
LINE
  5
9E1
330
1A
100
AcDbEntity
  8
SEIHIN
 62
     3
100
AcDbLine
 10
380.445712023889
 20
456.7540762690859
 30
0.0
 11
380.445712023889
 21
457.2101092690859
 31
0.0
  0
ARC
  5
9E2
330
1A
100
AcDbEntity
  8
SEIHIN
 62
     3
100
AcDbCircle
 10
378.945712023889
 20
456.7540762690859
 30
0.0
 40
1.500000002470376
100
AcDbArc
 50
358.0897868345843
 51
0.0
  0
LINE
  5
9E3
330
1A
100
AcDbEntity
  8
SEIHIN
 62
     3
100
AcDbLine
 10
393.605343023889
 20
456.7040762690859
 30
0.0
 11
393.605343023889
 21
458.6040762690859
 31
0.0
  0
LINE
  5
9E4
330
1A
100
AcDbEntity
  8
SEIHIN
 62
     3
100
AcDbLine
 10
393.105343023889
 20
460.6057762690859
 30
0.0
 11
388.998508023889
 21
460.6057762690859
 31
0.0
  0
LINE
  5
9E5
330
1A
100
AcDbEntity
  8
SEIHIN
 62
     3
100
AcDbLine
 10
388.998508023889
 20
460.2096762690859
 30
0.0
 11
393.105343023889
 21
460.2096762690859
 31
0.0
  0
ARC
  5
9E6
330
1A
100
AcDbEntity
  8
SEIHIN
 62
     3
100
AcDbCircle
 10
388.998508023889
 20
457.5721212690858
 30
0.0
 40
2.637555997524348
100
AcDbArc
 50
90.0
 51
104.7907460966655
  0
ARC
  5
9E7
330
1A
100
AcDbEntity
  8
SEIHIN
 62
     3
100
AcDbCircle
 10
388.998508023889
 20
457.9682212690859
 30
0.0
 40
2.637555995299503
100
AcDbArc
 50
90.0
 51
107.8311420279226
  0
ARC
  5
9E8
330
1A
100
AcDbEntity
  8
SEIHIN
 62
     3
100
AcDbCircle
 10
393.105343023889
 20
455.1635642690858
 30
0.0
 40
5.442211997280518
100
AcDbArc
 50
74.00084293118777
 51
90.0
  0
ARC
  5
9E9
330
1A
100
AcDbEntity
  8
SEIHIN
 62
     3
100
AcDbCircle
 10
393.105343023889
 20
454.7674642690858
 30
0.0
 40
5.442211997280526
100
AcDbArc
 50
74.00084293118777
 51
90.0
  0
LINE
  5
9EA
330
1A
100
AcDbEntity
  8
SEIHIN
 62
     3
100
AcDbLine
 10
394.605343023889
 20
460.3949762690858
 30
0.0
 11
394.605343023889
 21
459.1619762690859
 31
0.0
  0
LINE
  5
9F0
330
1A
100
AcDbEntity
  8
SEIHIN
 62
     3
100
AcDbLine
 10
411.989124023889
 20
442.2540762690858
 30
0.0
 11
408.9891240238889
 21
442.2540762690858
 31
0.0
  0
LINE
  5
9F3
330
1A
100
AcDbEntity
  8
SEIHIN
 62
     3
100
AcDbLine
 10
404.589078023889
 20
440.8040762690859
 30
0.0
 11
404.589078023889
 21
442.0040762690859
 31
0.0
  0
LINE
  5
9F4
330
1A
100
AcDbEntity
  8
SEIHIN
 62
     3
100
AcDbLine
 10
407.989078023889
 20
442.0040762690859
 30
0.0
 11
407.989078023889
 21
442.2540762690858
 31
0.0
  0
LINE
  5
9F6
330
1A
100
AcDbEntity
  8
SEIHIN
 62
     3
100
AcDbLine
 10
411.989124023889
 20
442.2540762690858
 30
0.0
 11
423.822683493889
 21
442.2540762690858
 31
0.0
  0
LINE
  5
9F7
330
1A
100
AcDbEntity
  8
SEIHIN
 62
     3
100
AcDbLine
 10
408.9891240238889
 20
455.2540762690859
 30
0.0
 11
411.989124023889
 21
455.2540762690859
 31
0.0
  0
LINE
  5
9FC
330
1A
100
AcDbEntity
  8
SEIHIN
 62
     3
100
AcDbLine
 10
404.589078023889
 20
455.5040762690858
 30
0.0
 11
404.589078023889
 21
456.7040762690859
 31
0.0
  0
LINE
  5
9FD
330
1A
100
AcDbEntity
  8
SEIHIN
 62
     3
100
AcDbLine
 10
407.989078023889
 20
455.2540762690859
 30
0.0
 11
407.989078023889
 21
455.5040762690858
 31
0.0
  0
LINE
  5
9FE
330
1A
100
AcDbEntity
  8
SEIHIN
 62
     3
100
AcDbLine
 10
411.989124023889
 20
455.2540762690859
 30
0.0
 11
423.822683493889
 21
455.2540762690859
 31
0.0
  0
ARC
  5
B44
330
1A
100
AcDbEntity
  8
SEIHIN
 62
     3
100
AcDbCircle
 10
378.798149023889
 20
303.9580057067529
 30
0.0
 40
2.192751996560394
100
AcDbArc
 50
195.6503830753083
 51
270.0
  0
ARC
  5
B45
330
1A
100
AcDbEntity
  8
SEIHIN
 62
     3
100
AcDbCircle
 10
378.798149023889
 20
303.9580057067529
 30
0.0
 40
1.792751996555905
100
AcDbArc
 50
182.9455394181632
 51
270.0
  0
LINE
  5
B4A
330
1A
100
AcDbEntity
  8
SEIHIN
 62
     3
100
AcDbLine
 10
288.759124053889
 20
451.7540762690859
 30
0.0
 11
288.759124053889
 21
454.5040762690859
 31
0.0
  0
ARC
  5
B4B
330
1A
100
AcDbEntity
  8
SEIHIN
 62
     3
100
AcDbCircle
 10
292.859080053889
 20
442.0040762690859
 30
0.0
 40
1.0
100
AcDbArc
 50
0.0
 51
90.0
  0
ARC
  5
B4C
330
1A
100
AcDbEntity
  8
SEIHIN
 62
     3
100
AcDbCircle
 10
292.859080053889
 20
455.5040762690858
 30
0.0
 40
1.0
100
AcDbArc
 50
270.0
 51
0.0
  0
LINE
  5
B4D
330
1A
100
AcDbEntity
  8
CENTER_L
100
AcDbLine
 10
276.9176745610934
 20
448.7540762690858
 30
0.0
 11
578.0343796116378
 21
448.7540762690858
 31
0.0
  0
DIMENSION
  5
BD9
330
1A
100
AcDbEntity
  8
SUNPOU
100
AcDbDimension
  2
*D1
 10
288.7591240330749
 20
347.2994740436395
 30
0.0
 11
352.149124028482
 21
352.2994740436395
 31
0.0
 70
    32
  3
STANDARD
100
AcDbAlignedDimension
 13
415.5391240238891
 23
311.9652217067529
 33
0.0
 14
288.7591240330749
 24
298.9652217067529
 34
0.0
100
AcDbRotatedDimension
1001
ACAD
1000
DSTYLE
1002
{
1070
    41
1040
3.0
1070
    42
1040
6.0
1070
    43
1040
14.0
1070
    44
1040
3.0
1070
    73
1070
     0
1070
    74
1070
     0
1070
    77
1070
     3
1070
   140
1040
6.0
1070
   141
1040
10.0
1070
   147
1040
2.0
1070
   172
1070
     1
1070
   173
1070
     1
1070
   176
1070
   256
1070
   177
1070
   256
1070
   178
1070
   256
1070
   271
1070
     0
1070
   272
1070
     0
1070
   341
1005
6D
1070
     6
1000
OPEN
1070
     7
1000
OPEN
1002
}
  0
DIMENSION
  5
BE6
330
1A
100
AcDbEntity
  8
SUNPOU
100
AcDbDimension
  2
*D2
 10
249.5689032278905
 20
440.8040762690859
 30
0.0
 11
244.5689032278905
 21
448.7540762690859
 31
0.0
 70
    32
  3
STANDARD
100
AcDbAlignedDimension
 13
293.8590800538889
 23
456.7040762690859
 33
0.0
 14
293.8590800538889
 24
440.8040762690859
 34
0.0
 50
90.0
100
AcDbRotatedDimension
1001
ACAD
1000
DSTYLE
1002
{
1070
    41
1040
3.0
1070
    42
1040
6.0
1070
    43
1040
14.0
1070
    44
1040
3.0
1070
    73
1070
     0
1070
    74
1070
     0
1070
    77
1070
     3
1070
   140
1040
6.0
1070
   141
1040
10.0
1070
   147
1040
2.0
1070
   172
1070
     1
1070
   173
1070
     1
1070
   176
1070
   256
1070
   177
1070
   256
1070
   178
1070
   256
1070
   271
1070
     0
1070
   272
1070
     0
1070
   341
1005
6D
1070
     6
1000
OPEN
1070
     7
1000
OPEN
1002
}
  0
LINE
  5
F58
330
1A
100
AcDbEntity
  8
SEIHIN
100
AcDbLine
 10
422.806622423889
 20
281.6554012067529
 30
0.0
 11
548.9036280238888
 21
332.6018939067527
 31
0.0
  0
LINE
  5
F5A
330
1A
100
AcDbEntity
  8
SEIHIN
100
AcDbLine
 10
415.5391240238891
 20
311.9652217067529
 30
0.0
 11
415.5391240238891
 21
288.9652217067529
 31
0.0
  0
LINE
  5
F5B
330
1A
100
AcDbEntity
  8
SEIHIN
100
AcDbLine
 10
412.5391240238891
 20
311.9652217067529
 30
0.0
 11
412.5391240238891
 21
288.3820807067528
 31
0.0
  0
LINE
  5
F5C
330
1A
100
AcDbEntity
  8
SEIHIN
100
AcDbLine
 10
412.5391240238891
 20
288.3820807067528
 30
0.0
 11
416.1290331238891
 21
279.4967437067529
 31
0.0
  0
LINE
  5
F5D
330
1A
100
AcDbEntity
  8
SEIHIN
100
AcDbLine
 10
418.7512778238891
 20
273.0064600067529
 30
0.0
 11
422.1227370238891
 21
264.6618057067529
 31
0.0
  0
LINE
  5
F5E
330
1A
100
AcDbEntity
  8
SEIHIN
100
AcDbLine
 10
421.3455279238891
 20
274.5938682067528
 30
0.0
 11
424.904289023889
 21
265.7856257067529
 31
0.0
  0
LINE
  5
F5F
330
1A
100
AcDbEntity
  8
SEIHIN
100
AcDbLine
 10
422.1227370238891
 20
264.6618057067529
 30
0.0
 11
424.904289023889
 21
265.7856257067529
 31
0.0
  0
LINE
  5
F60
330
1A
100
AcDbEntity
  8
SEIHIN
100
AcDbLine
 10
422.806622423889
 20
281.6554012067529
 30
0.0
 11
425.054261823889
 21
276.0922980067529
 31
0.0
  0
LINE
  5
F61
330
1A
100
AcDbEntity
  8
SEIHIN
100
AcDbLine
 10
420.0531989238891
 20
283.1314293067529
 30
0.0
 11
424.0989498238891
 21
273.1178436067529
 31
0.0
  0
LINE
  5
F62
330
1A
100
AcDbEntity
  8
SEIHIN
100
AcDbLine
 10
416.1290331238891
 20
279.4967437067529
 30
0.0
 11
418.7512778238891
 21
273.0064600067529
 31
0.0
  0
LINE
  5
F63
330
1A
100
AcDbEntity
  8
SEIHIN
100
AcDbLine
 10
418.1988311238891
 20
282.3822162067529
 30
0.0
 11
421.3829870238891
 21
274.5011534067529
 31
0.0
  0
ARC
  5
F64
330
1A
100
AcDbEntity
  8
SEIHIN
100
AcDbCircle
 10
422.6555588238891
 20
278.3587616067528
 30
0.0
 40
6.624993717619814
100
AcDbArc
 50
170.1091925164112
 51
233.8908071907933
  0
LINE
  5
F66
330
1A
100
AcDbEntity
  8
SEIHIN
100
AcDbLine
 10
424.0989498238891
 20
273.1178436067529
 30
0.0
 11
422.2445821238891
 21
272.3686305067528
 31
0.0
  0
LINE
  5
F67
330
1A
100
AcDbEntity
  8
SEIHIN
100
AcDbLine
 10
425.054261823889
 20
276.0922980067529
 30
0.0
 11
424.0989498238891
 21
273.1178436067529
 31
0.0
  0
LINE
  5
F68
330
1A
100
AcDbEntity
  8
SEIHIN
100
AcDbLine
 10
418.1988311238891
 20
282.3822162067529
 30
0.0
 11
420.0531989238891
 21
283.1314293067529
 31
0.0
  0
LINE
  5
F69
330
1A
100
AcDbEntity
  8
SEIHIN
100
AcDbLine
 10
420.0531989238891
 20
283.1314293067529
 30
0.0
 11
422.806622423889
 21
281.6554012067529
 31
0.0
  0
LINE
  5
F6B
330
1A
100
AcDbEntity
  8
SEIHIN
100
AcDbLine
 10
415.5391240238891
 20
288.9652217067529
 30
0.0
 11
419.0978882238891
 21
280.1569713067528
 31
0.0
  0
ARC
  5
F6C
330
1A
100
AcDbEntity
  8
SEIHIN
100
AcDbCircle
 10
408.5391240238891
 20
311.9652217067529
 30
0.0
 40
7.0
100
AcDbArc
 50
0.0
 51
90.0
  0
ARC
  5
F6D
330
1A
100
AcDbEntity
  8
SEIHIN
100
AcDbCircle
 10
408.5391240238891
 20
311.9652217067529
 30
0.0
 40
4.0
100
AcDbArc
 50
0.0
 51
90.0
  0
LINE
  5
F6E
330
1A
100
AcDbEntity
  8
SEIHIN
100
AcDbLine
 10
548.9036280238888
 20
332.6018939067527
 30
0.0
 11
559.2992862238888
 21
333.5664083067527
 31
0.0
  0
LINE
  5
F70
330
1A
100
AcDbEntity
  8
SEIHIN
100
AcDbLine
 10
548.9036279238887
 20
332.6018939067527
 30
0.0
 11
548.9036280238888
 21
332.6018939067527
 31
0.0
  0
LINE
  5
F71
330
1A
100
AcDbEntity
  8
SEIHIN
100
AcDbLine
 10
559.2992862238888
 20
333.5664083067527
 30
0.0
 11
551.1512673238887
 21
327.0387907067527
 31
0.0
  0
LINE
  5
F72
330
1A
100
AcDbEntity
  8
SEIHIN
100
AcDbLine
 10
381.6617020238891
 20
318.9652217067528
 30
0.0
 11
408.5391240238891
 21
318.9652217067528
 31
0.0
  0
LINE
  5
F73
330
1A
100
AcDbEntity
  8
SEIHIN
100
AcDbLine
 10
404.7664960172175
 20
315.9652217067529
 30
0.0
 11
408.5391240238891
 21
315.9652217067529
 31
0.0
  0
LINE
  5
F74
330
1A
100
AcDbEntity
  8
SEIHIN
100
AcDbLine
 10
548.9036279238888
 20
451.7540762690859
 30
0.0
 11
423.930442123889
 21
451.7540762690859
 31
0.0
  0
LINE
  5
F75
330
1A
100
AcDbEntity
  8
SEIHIN
100
AcDbLine
 10
423.930442123889
 20
445.7540762690858
 30
0.0
 11
548.9036279238888
 21
445.7540762690858
 31
0.0
  0
LINE
  5
F76
330
1A
100
AcDbEntity
  8
SEIHIN
100
AcDbLine
 10
412.5391240238891
 20
455.2540762690859
 30
0.0
 11
415.5391240238891
 21
455.2540762690859
 31
0.0
  0
LINE
  5
F77
330
1A
100
AcDbEntity
  8
SEIHIN
100
AcDbLine
 10
415.5391240238891
 20
442.2540762690858
 30
0.0
 11
412.5391240238891
 21
442.2540762690858
 31
0.0
  0
LINE
  5
F7B
330
1A
100
AcDbEntity
  8
SEIHIN
100
AcDbLine
 10
422.0760743238891
 20
443.3540762690859
 30
0.0
 11
423.930442123889
 21
445.7540762690858
 31
0.0
  0
LINE
  5
F7C
330
1A
100
AcDbEntity
  8
SEIHIN
100
AcDbLine
 10
424.904289023889
 20
445.7540762690858
 30
0.0
 11
424.904289023889
 21
442.2540762690858
 31
0.0
  0
ARC
  5
F7D
330
1A
100
AcDbEntity
  8
SEIHIN
100
AcDbCircle
 10
428.272198523889
 20
448.7540762690858
 30
0.0
 40
8.218999641186602
100
AcDbArc
 50
138.9274408431419
 51
221.072559156858
  0
ARC
  5
F7E
330
1A
100
AcDbEntity
  8
SEIHIN
100
AcDbCircle
 10
426.4178313238891
 20
448.7540762690858
 30
0.0
 40
8.219000168901308
100
AcDbArc
 50
138.9274440492386
 51
221.0725559507613
  0
LINE
  5
F7F
330
1A
100
AcDbEntity
  8
SEIHIN
100
AcDbLine
 10
415.5391240238891
 20
442.2540762690858
 30
0.0
 11
415.5391240238891
 21
455.2540762690859
 31
0.0
  0
LINE
  5
F80
330
1A
100
AcDbEntity
  8
SEIHIN
100
AcDbLine
 10
422.0760743238891
 20
443.3540762690859
 30
0.0
 11
420.2217064238891
 21
443.3540762690859
 31
0.0
  0
LINE
  5
F81
330
1A
100
AcDbEntity
  8
SEIHIN
100
AcDbLine
 10
424.904289023889
 20
442.2540762690858
 30
0.0
 11
415.5391240238891
 21
442.2540762690858
 31
0.0
  0
LINE
  5
F82
330
1A
100
AcDbEntity
  8
SEIHIN
100
AcDbLine
 10
420.2217064238891
 20
454.1540762690859
 30
0.0
 11
422.0760743238891
 21
454.1540762690859
 31
0.0
  0
LINE
  5
F83
330
1A
100
AcDbEntity
  8
SEIHIN
100
AcDbLine
 10
422.0760743238891
 20
454.1540762690859
 30
0.0
 11
423.930442123889
 21
451.7540762690859
 31
0.0
  0
LINE
  5
F84
330
1A
100
AcDbEntity
  8
SEIHIN
100
AcDbLine
 10
423.930442123889
 20
451.7540762690859
 30
0.0
 11
422.806622423889
 21
451.7540762690859
 31
0.0
  0
LINE
  5
F85
330
1A
100
AcDbEntity
  8
SEIHIN
100
AcDbLine
 10
424.904289023889
 20
455.2540762690859
 30
0.0
 11
424.904289023889
 21
451.7540762690859
 31
0.0
  0
LINE
  5
F86
330
1A
100
AcDbEntity
  8
SEIHIN
100
AcDbLine
 10
415.5391240238891
 20
455.2540762690859
 30
0.0
 11
424.904289023889
 21
455.2540762690859
 31
0.0
  0
LINE
  5
F87
330
1A
100
AcDbEntity
  8
SEIHIN
100
AcDbLine
 10
422.806622423889
 20
445.7540762690858
 30
0.0
 11
423.930442123889
 21
445.7540762690858
 31
0.0
  0
LINE
  5
F88
330
1A
100
AcDbEntity
  8
SEIHIN
100
AcDbLine
 10
422.806622423889
 20
451.7540762690859
 30
0.0
 11
422.806622423889
 21
445.7540762690858
 31
0.0
  0
LINE
  5
F89
330
1A
100
AcDbEntity
  8
SEIHIN
100
AcDbLine
 10
559.2992862238888
 20
448.7540762690858
 30
0.0
 11
548.9036279238888
 21
445.7540762690858
 31
0.0
  0
LINE
  5
F8A
330
1A
100
AcDbEntity
  8
SEIHIN
100
AcDbLine
 10
559.2992862238888
 20
448.7540762690858
 30
0.0
 11
548.9036279238888
 21
451.7540762690859
 31
0.0
  0
ARC
  5
F95
330
1A
100
AcDbEntity
  8
SEIHIN
100
AcDbCircle
 10
381.6617020238891
 20
311.9652217067529
 30
0.0
 40
7.000000005682091
100
AcDbArc
 50
90.0
 51
159.8596214145064
  0
LINE
  5
F99
330
1A
100
AcDbEntity
  8
CENTER_L
100
AcDbLine
 10
406.6722929132324
 20
271.901105287093
 30
0.0
 11
565.7895732804174
 21
336.1886542761193
 31
0.0
  0
DIMENSION
  5
F9C
330
1A
100
AcDbEntity
  8
SUNPOU
100
AcDbDimension
  2
*D3
 10
580.0880732259687
 20
282.1123506871611
 30
0.0
 11
508.6762506043227
 21
258.6527775267451
 31
0.0
 70
    33
  3
STANDARD
100
AcDbAlignedDimension
 13
420.2217066511201
 23
277.3754233337373
 33
0.0
 14
559.2992862238886
 24
333.5664083067527
 34
0.0
1001
ACAD
1000
DSTYLE
1002
{
1070
    41
1040
3.0
1070
    42
1040
6.0
1070
    43
1040
14.0
1070
    44
1040
3.0
1070
    73
1070
     0
1070
    74
1070
     0
1070
    77
1070
     3
1070
   140
1040
6.0
1070
   141
1040
10.0
1070
   147
1040
2.0
1070
   172
1070
     1
1070
   173
1070
     1
1070
   176
1070
   256
1070
   177
1070
   256
1070
   178
1070
   256
1070
   271
1070
     0
1070
   272
1070
     0
1070
   341
1005
6D
1070
     6
1000
OPEN
1070
     7
1000
OPEN
1002
}
  0
DIMENSION
  5
FEE
330
1A
100
AcDbEntity
  8
SUNPOU
100
AcDbDimension
  2
*D4
 10
582.3445004687832
 20
339.6416739014867
 30
0.0
 11
591.8503051573918
 21
329.4613164803532
 31
0.0
 70
    33
  1
φ<>
  3
STANDARD
100
AcDbAlignedDimension
 13
548.9036279238887
 23
332.6018939067527
 33
0.0
 14
551.1512673238887
 24
327.0387907067527
 34
0.0
1001
ACAD
1000
DSTYLE
1002
{
1070
    41
1040
3.0
1070
    42
1040
6.0
1070
    43
1040
14.0
1070
    44
1040
3.0
1070
    73
1070
     0
1070
    74
1070
     0
1070
    77
1070
     3
1070
   140
1040
6.0
1070
   141
1040
10.0
1070
   147
1040
2.0
1070
   172
1070
     1
1070
   173
1070
     1
1070
   176
1070
   256
1070
   177
1070
   256
1070
   178
1070
   256
1070
   271
1070
     0
1070
   272
1070
     0
1070
   341
1005
6D
1070
     6
1000
OPEN
1070
     7
1000
OPEN
1002
}
  0
DIMENSION
  5
100C
330
1A
100
AcDbEntity
  8
SUNPOU
100
AcDbDimension
  2
*D5
 10
448.6588305463765
 20
277.3754233337373
 30
0.0
 11
443.6588305463764
 21
298.1703225202452
 31
0.0
 70
    32
  3
STANDARD
100
AcDbAlignedDimension
 13
408.5391240238891
 23
318.9652217067528
 33
0.0
 14
420.2217066511201
 24
277.3754233337373
 34
0.0
 50
90.0
100
AcDbRotatedDimension
1001
ACAD
1000
DSTYLE
1002
{
1070
    41
1040
3.0
1070
    42
1040
6.0
1070
    43
1040
14.0
1070
    44
1040
3.0
1070
    73
1070
     0
1070
    74
1070
     0
1070
    77
1070
     3
1070
   140
1040
6.0
1070
   141
1040
10.0
1070
   147
1040
2.0
1070
   172
1070
     1
1070
   173
1070
     1
1070
   176
1070
   256
1070
   177
1070
   256
1070
   178
1070
   256
1070
   271
1070
     0
1070
   272
1070
     0
1070
   341
1005
6D
1070
     6
1000
OPEN
1070
     7
1000
OPEN
1002
}
  0
DIMENSION
  5
1019
330
1A
100
AcDbEntity
  8
SUNPOU
100
AcDbDimension
  2
*D6
 10
559.2992862238886
 20
364.218530664637
 30
0.0
 11
424.0292059992958
 21
369.2185306646369
 31
0.0
 70
    32
  3
STANDARD
100
AcDbAlignedDimension
 13
288.759125774703
 23
298.9627882867827
 33
0.0
 14
559.2992862238886
 24
333.5664083067527
 34
0.0
100
AcDbRotatedDimension
1001
ACAD
1000
DSTYLE
1002
{
1070
    41
1040
3.0
1070
    42
1040
6.0
1070
    43
1040
14.0
1070
    44
1040
3.0
1070
    73
1070
     0
1070
    74
1070
     0
1070
    77
1070
     3
1070
   140
1040
6.0
1070
   141
1040
10.0
1070
   147
1040
2.0
1070
   172
1070
     1
1070
   173
1070
     1
1070
   176
1070
   256
1070
   177
1070
   256
1070
   178
1070
   256
1070
   271
1070
     0
1070
   272
1070
     0
1070
   341
1005
6D
1070
     6
1000
OPEN
1070
     7
1000
OPEN
1002
}
  0
DIMENSION
  5
1026
330
1A
100
AcDbEntity
  8
SUNPOU
100
AcDbDimension
  2
*D7
 10
249.3812208672829
 20
277.3754233337374
 30
0.0
 11
244.3812208672829
 21
291.0703225202452
 31
0.0
 70
    32
  3
STANDARD
100
AcDbAlignedDimension
 13
291.012079753889
 23
304.7652217067528
 33
0.0
 14
420.2217066511201
 24
277.3754233337373
 34
0.0
 50
90.0
100
AcDbRotatedDimension
1001
ACAD
1000
DSTYLE
1002
{
1070
    41
1040
3.0
1070
    42
1040
6.0
1070
    43
1040
14.0
1070
    44
1040
3.0
1070
    73
1070
     0
1070
    74
1070
     0
1070
    77
1070
     3
1070
   140
1040
6.0
1070
   141
1040
10.0
1070
   147
1040
2.0
1070
   172
1070
     1
1070
   173
1070
     1
1070
   176
1070
   256
1070
   177
1070
   256
1070
   178
1070
   256
1070
   271
1070
     0
1070
   272
1070
     0
1070
   341
1005
6D
1070
     6
1000
OPEN
1070
     7
1000
OPEN
1002
}
  0
LINE
  5
11C4
330
1A
100
AcDbEntity
  8
SEIHIN
100
AcDbLine
 10
548.9036279238887
 20
332.6018939067526
 30
0.0
 11
548.9036280238886
 21
332.6018939067526
 31
0.0
  0
ARC
  5
11C5
330
1A
100
AcDbEntity
  8
SEIHIN
100
AcDbCircle
 10
550.5893572238886
 20
328.4295669067526
 30
0.0
 40
1.499999843989628
100
AcDbArc
 50
111.9999979793749
 51
291.9999994102669
  0
ARC
  5
11C6
330
1A
100
AcDbEntity
  8
SEIHIN
100
AcDbCircle
 10
549.4655376238887
 20
331.2111182067527
 30
0.0
 40
1.49999984398965
100
AcDbArc
 50
111.9999979793815
 51
291.9999994102669
  0
LINE
  5
11C9
330
1A
100
AcDbEntity
  8
SEIHIN
100
AcDbLine
 10
425.0545330251567
 20
276.0924082907779
 30
0.0
 11
551.1515386251565
 21
327.0389009907777
 31
0.0
  0
ARC
  5
11CA
330
1A
100
AcDbEntity
  8
SEIHIN
100
AcDbCircle
 10
549.6338279238889
 20
450.2540762690858
 30
0.0
 40
1.668290110850032
100
AcDbArc
 50
115.9568159196542
 51
244.0431840803456
  0
ARC
  5
11CB
330
1A
100
AcDbEntity
  8
SEIHIN
100
AcDbCircle
 10
549.6338279238889
 20
447.2540762690859
 30
0.0
 40
1.668290110850032
100
AcDbArc
 50
115.9568159196542
 51
244.0431840803456
  0
LINE
  5
13C2
330
1A
100
AcDbEntity
  8
SEIHIN
100
AcDbLine
 10
418.751277823889
 20
137.7970113131905
 30
0.0
 11
422.1227370238891
 21
129.4523570131905
 31
0.0
  0
LINE
  5
13C3
330
1A
100
AcDbEntity
  8
SEIHIN
100
AcDbLine
 10
418.198831123889
 20
147.1727675131905
 30
0.0
 11
421.3829870238889
 21
139.2917047131905
 31
0.0
  0
LINE
  5
13C4
330
1A
100
AcDbEntity
  8
SEIHIN
100
AcDbLine
 10
418.198831123889
 20
147.1727675131905
 30
0.0
 11
420.0531989238891
 21
147.9219806131906
 31
0.0
  0
TEXT
  5
13C5
330
1A
100
AcDbEntity
  8
NOKITOI
 48
5.0
100
AcDbText
 10
314.5832167643952
 20
94.41174009263159
 30
0.0
 40
8.0
  1
軒樋の差し替え
100
AcDbText
  0
ARC
  5
13C6
330
1A
100
AcDbEntity
  8
SEIHIN
 62
     3
100
AcDbCircle
 10
296.9591240538889
 20
163.9101850131905
 30
0.0
 40
8.200000025865952
100
AcDbArc
 50
136.4895916441865
 51
180.0000000698716
  0
ARC
  5
13C7
330
1A
100
AcDbEntity
  8
SEIHIN
 62
     3
100
AcDbCircle
 10
290.4591240538889
 20
163.7557730131906
 30
0.0
 40
1.700000020814075
100
AcDbArc
 50
180.0820145529315
 51
270.0
  0
ARC
  5
13C8
330
1A
100
AcDbEntity
  8
NOKITOI
  6
PHANTOM
 62
     8
100
AcDbCircle
 10
291.8074847395323
 20
165.8470936867651
 30
0.0
 40
5.199991271650611
100
AcDbArc
 50
90.00019685927275
 51
142.0746713952716
  0
ARC
  5
13C9
330
1A
100
AcDbEntity
  8
NOKITOI
  6
PHANTOM
 62
     8
100
AcDbCircle
 10
291.8074978001172
 20
165.8471207030489
 30
0.0
 40
3.99998565374706
100
AcDbArc
 50
96.47577619531659
 51
181.7913033408989
  0
ARC
  5
13CA
330
1A
100
AcDbEntity
  8
NOKITOI
  6
PHANTOM
 62
     8
100
AcDbCircle
 10
289.8940288853568
 20
163.0470217789573
 30
0.0
 40
2.000036820932882
100
AcDbArc
 50
181.7889408725803
 51
270.0010882509654
  0
LINE
  5
13CB
330
1A
100
AcDbEntity
  8
NOKITOI
  6
PHANTOM
 62
     8
100
AcDbLine
 10
288.2463668731811
 20
159.8470849583851
 30
0.0
 11
294.387466873181
 21
159.8470849583851
 31
0.0
  0
LINE
  5
13CC
330
1A
100
AcDbEntity
  8
NOKITOI
  6
PHANTOM
 62
     8
100
AcDbLine
 10
288.3559668731809
 20
174.6469849583851
 30
0.0
 11
290.8286668731811
 21
174.6470849583853
 31
0.0
  0
LINE
  5
13CD
330
1A
100
AcDbEntity
  8
NOKITOI
  6
PHANTOM
 62
     8
100
AcDbLine
 10
288.3559668731809
 20
175.8469849583851
 30
0.0
 11
291.6825668731812
 21
175.8470849583851
 31
0.0
  0
LINE
  5
13CE
330
1A
100
AcDbEntity
  8
NOKITOI
  6
PHANTOM
 62
     8
100
AcDbLine
 10
286.3569668731811
 20
173.7845849583851
 30
0.0
 11
286.7470668731812
 21
161.300184958385
 31
0.0
  0
LINE
  5
13CF
330
1A
100
AcDbEntity
  8
NOKITOI
  6
PHANTOM
 62
     8
100
AcDbLine
 10
287.8949668731811
 20
162.9844849583852
 30
0.0
 11
287.8094668731814
 21
165.7220849583851
 31
0.0
  0
ARC
  5
13D0
330
1A
100
AcDbEntity
  8
NOKITOI
  6
PHANTOM
 62
     8
100
AcDbCircle
 10
288.246349660003
 20
161.3471016415329
 30
0.0
 40
1.500016683246579
100
AcDbArc
 50
181.7923576755887
 51
270.0006574876639
  0
ARC
  5
13D1
330
1A
100
AcDbEntity
  8
NOKITOI
  6
PHANTOM
 62
     8
100
AcDbCircle
 10
288.3559781101753
 20
173.8470965522022
 30
0.0
 40
1.999988406214315
100
AcDbArc
 50
90.0003219180396
 51
181.7911273464062
  0
ARC
  5
13D2
330
1A
100
AcDbEntity
  8
NOKITOI
  6
PHANTOM
 62
     8
100
AcDbCircle
 10
288.3559229068282
 20
173.8470395959121
 30
0.0
 40
0.7999453636812564
100
AcDbArc
 50
89.99685092684575
 51
181.7876563552118
  0
LINE
  5
13D3
330
1A
100
AcDbEntity
  8
NOKITOI
  6
PHANTOM
 62
     8
100
AcDbLine
 10
287.5563668731815
 20
173.822084958385
 30
0.0
 11
287.7056668731811
 21
169.0430849583852
 31
0.0
  0
LINE
  5
13D4
330
1A
100
AcDbEntity
  8
NOKITOI
  6
PHANTOM
 62
     8
100
AcDbLine
 10
354.4788668731812
 20
122.0470849583852
 30
0.0
 11
309.8992668731812
 21
122.0469849583852
 31
0.0
  0
LINE
  5
13D5
330
1A
100
AcDbEntity
  8
NOKITOI
  6
PHANTOM
 62
     8
100
AcDbLine
 10
309.6494668731811
 20
120.8469849583851
 30
0.0
 11
354.4788668731812
 21
120.8470849583851
 31
0.0
  0
LINE
  5
13D6
330
1A
100
AcDbEntity
  8
SEIHIN
 62
     3
100
AcDbLine
 10
313.259124053889
 20
170.0557730131905
 30
0.0
 11
372.6629230238888
 21
170.0557730131905
 31
0.0
  0
LINE
  5
13D7
330
1A
100
AcDbEntity
  8
SEIHIN
 62
     3
100
AcDbLine
 10
313.259124053889
 20
165.5557730131905
 30
0.0
 11
362.5391240238889
 21
165.5557730131905
 31
0.0
  0
LINE
  5
13D8
330
1A
100
AcDbEntity
  8
NOKITOI
  6
PHANTOM
 62
     8
100
AcDbLine
 10
296.423466873181
 20
160.5968849583851
 30
0.0
 11
299.4164668731814
 21
130.667084958385
 31
0.0
  0
LINE
  5
13D9
330
1A
100
AcDbEntity
  8
NOKITOI
  6
PHANTOM
 62
     8
100
AcDbLine
 10
295.3824668731808
 20
158.9465849583851
 30
0.0
 11
298.251266873181
 21
130.2591849583851
 31
0.0
  0
LINE
  5
13DA
330
1A
100
AcDbEntity
  8
NOKITOI
  6
PHANTOM
 62
     8
100
AcDbLine
 10
313.8992668731812
 20
122.0469849583852
 30
0.0
 11
333.8073668731808
 21
122.0469849583852
 31
0.0
  0
LINE
  5
13DB
330
1A
100
AcDbEntity
  8
NOKITOI
  6
PHANTOM
 62
     8
100
AcDbLine
 10
313.6494668731811
 20
120.8469849583851
 30
0.0
 11
333.8073668731808
 21
120.8469849583851
 31
0.0
  0
LINE
  5
13DC
330
1A
100
AcDbEntity
  8
NOKITOI
  6
PHANTOM
 62
     8
100
AcDbLine
 10
299.5973668731808
 20
130.3297849583851
 30
0.0
 11
309.5826668731811
 21
122.159984958385
 31
0.0
  0
LINE
  5
13DD
330
1A
100
AcDbEntity
  8
NOKITOI
  6
PHANTOM
 62
     8
100
AcDbLine
 10
298.6130668731811
 20
129.5846849583853
 30
0.0
 11
309.0161668731811
 21
121.0729849583852
 31
0.0
  0
ARC
  5
13DE
330
1A
100
AcDbEntity
  8
NOKITOI
  6
PHANTOM
 62
     8
100
AcDbCircle
 10
299.9139842990594
 20
130.7167524719972
 30
0.0
 40
0.4999904508696396
100
AcDbArc
 50
185.7009889250759
 51
230.7099153622048
  0
ARC
  5
13DF
330
1A
100
AcDbEntity
  8
NOKITOI
  6
PHANTOM
 62
     8
100
AcDbCircle
 10
299.24628944605
 20
130.3586428867125
 30
0.0
 40
0.9999908507640039
100
AcDbArc
 50
185.713767052247
 51
230.7112907769351
  0
ARC
  5
13E0
330
1A
100
AcDbEntity
  8
NOKITOI
  6
PHANTOM
 62
     8
100
AcDbCircle
 10
309.6494738057586
 20
121.846982483379
 30
0.0
 40
0.9999975250179316
100
AcDbArc
 50
230.705358324772
 51
269.9996027915947
  0
ARC
  5
13E1
330
1A
100
AcDbEntity
  8
NOKITOI
  6
PHANTOM
 62
     8
100
AcDbCircle
 10
309.8992604854324
 20
122.5469872383747
 30
0.0
 40
0.5000022800304047
100
AcDbArc
 50
230.7145501403939
 51
270.0007319787176
  0
ARC
  5
13E2
330
1A
100
AcDbEntity
  8
SEIHIN
 62
     3
100
AcDbCircle
 10
304.6514290538889
 20
168.5557730131905
 30
0.0
 40
2.000000001052705
100
AcDbArc
 50
270.0
 51
299.9999999651758
  0
ARC
  5
13E3
330
1A
100
AcDbEntity
  8
SEIHIN
 62
     3
100
AcDbCircle
 10
304.597840653889
 20
168.7557730131906
 30
0.0
 40
6.70000001483484
100
AcDbArc
 50
270.0
 51
300.0000087406071
  0
LINE
  5
13E4
330
1A
100
AcDbEntity
  8
SEIHIN
 62
     3
100
AcDbLine
 10
290.058185353889
 20
168.3392984031906
 30
0.0
 11
290.848300953889
 21
167.3245431931906
 31
0.0
  0
ARC
  5
13E5
330
1A
100
AcDbEntity
  8
SEIHIN
 62
     3
100
AcDbCircle
 10
296.9591240538889
 20
163.9101850131905
 30
0.0
 40
6.999999998144283
100
AcDbArc
 50
137.9753724543271
 51
180.0000000818504
  0
LINE
  5
13E6
330
1A
100
AcDbEntity
  8
NOKITOI
  6
PHANTOM
 62
     8
100
AcDbLine
 10
294.817366873181
 20
166.8207849583851
 30
0.0
 11
295.1331668731814
 21
172.8207849583851
 31
0.0
  0
LINE
  5
13E7
330
1A
100
AcDbEntity
  8
NOKITOI
  6
PHANTOM
 62
     8
100
AcDbLine
 10
293.6539668731811
 20
167.5470849583851
 30
0.0
 11
293.8350668731814
 21
170.9884849583851
 31
0.0
  0
LINE
  5
13E8
330
1A
100
AcDbEntity
  8
NOKITOI
  6
PHANTOM
 62
     8
100
AcDbLine
 10
291.5739668731812
 20
166.9177849583851
 30
0.0
 11
291.9077668731811
 21
169.2539849583853
 31
0.0
  0
LINE
  5
13E9
330
1A
100
AcDbEntity
  8
NOKITOI
  6
PHANTOM
 62
     8
100
AcDbLine
 10
292.8760668731815
 20
167.5470849583851
 30
0.0
 11
293.2800668731811
 21
170.375484958385
 31
0.0
  0
LINE
  5
13EA
330
1A
100
AcDbEntity
  8
SEIHIN
 62
     3
100
AcDbLine
 10
304.597840653889
 20
162.0557730131905
 30
0.0
 11
290.4591240538889
 21
162.0557730131905
 31
0.0
  0
ARC
  5
13EB
330
1A
100
AcDbEntity
  8
SEIHIN
 62
     3
100
AcDbCircle
 10
297.359124053889
 20
164.5557730131905
 30
0.0
 40
2.0
100
AcDbArc
 50
90.0
 51
180.0000002864791
  0
LINE
  5
13EC
330
1A
100
AcDbEntity
  8
SEIHIN
 62
     3
100
AcDbLine
 10
291.8842089538888
 20
163.2557730131906
 30
0.0
 11
290.1819155538889
 21
165.6365478631905
 31
0.0
  0
ARC
  5
13ED
330
1A
100
AcDbEntity
  8
SEIHIN
 62
     3
100
AcDbCircle
 10
290.4591240538889
 20
163.7557730131906
 30
0.0
 40
0.5
100
AcDbArc
 50
180.0
 51
270.0
  0
ARC
  5
13EE
330
1A
100
AcDbEntity
  8
SEIHIN
 62
     3
100
AcDbCircle
 10
290.4591240538889
 20
163.7557730131906
 30
0.0
 40
1.700000020814068
100
AcDbArc
 50
180.0000003370341
 51
180.0820145529315
  0
LINE
  5
13EF
330
1A
100
AcDbEntity
  8
SEIHIN
 62
     3
100
AcDbLine
 10
288.759124053889
 20
163.9101850131905
 30
0.0
 11
288.759124053889
 21
163.7557730131906
 31
0.0
  0
LINE
  5
13F0
330
1A
100
AcDbEntity
  8
SEIHIN
 62
     3
100
AcDbLine
 10
289.9591240538888
 20
163.7557730131906
 30
0.0
 11
289.9591240538888
 21
163.9101850131905
 31
0.0
  0
LINE
  5
13F1
330
1A
100
AcDbEntity
  8
SEIHIN
 62
     3
100
AcDbLine
 10
295.3591240538889
 20
164.5557730131905
 30
0.0
 11
295.3591240538889
 21
162.0557730131905
 31
0.0
  0
LINE
  5
13F2
330
1A
100
AcDbEntity
  8
SEIHIN
 62
     3
100
AcDbLine
 10
290.4591240538889
 20
163.2557730131906
 30
0.0
 11
295.3591240538889
 21
163.2557730131906
 31
0.0
  0
ARC
  5
13F3
330
1A
100
AcDbEntity
  8
NOKITOI
  6
PHANTOM
 62
     8
100
AcDbCircle
 10
292.0689566867449
 20
166.8470967031092
 30
0.0
 40
0.5000117448278309
100
AcDbArc
 50
171.8726853912842
 51
270.0011672522033
  0
ARC
  5
13F4
330
1A
100
AcDbEntity
  8
NOKITOI
  6
PHANTOM
 62
     8
100
AcDbCircle
 10
294.3180627517745
 20
166.8470810483546
 30
0.0
 40
0.4999960899864752
100
AcDbArc
 50
270.0004722821357
 51
356.9852756208257
  0
LINE
  5
13F5
330
1A
100
AcDbEntity
  8
NOKITOI
  6
PHANTOM
 62
     8
100
AcDbLine
 10
294.3180668731811
 20
166.3470849583851
 30
0.0
 11
292.0689668731816
 21
166.3470849583851
 31
0.0
  0
LINE
  5
13F6
330
1A
100
AcDbEntity
  8
NOKITOI
  6
PHANTOM
 62
     8
100
AcDbLine
 10
293.6539668731811
 20
167.5470849583851
 30
0.0
 11
292.8760668731815
 21
167.5470849583851
 31
0.0
  0
ARC
  5
13F7
330
1A
100
AcDbEntity
  8
NOKITOI
  6
PHANTOM
 62
     8
100
AcDbCircle
 10
294.3874462233402
 20
158.8471036462343
 30
0.0
 40
0.9999813123640345
100
AcDbArc
 50
5.70940996664858
 51
89.99881682915088
  0
ARC
  5
13F8
330
1A
100
AcDbEntity
  8
NOKITOI
  6
PHANTOM
 62
     8
100
AcDbCircle
 10
295.9259538021765
 20
160.547096788665
 30
0.0
 40
0.499988169890889
100
AcDbArc
 50
5.703393862283571
 51
89.99850213773529
  0
LINE
  5
13F9
330
1A
100
AcDbEntity
  8
NOKITOI
  6
PHANTOM
 62
     8
100
AcDbLine
 10
295.9259668731815
 20
161.0470849583852
 30
0.0
 11
289.8940668731811
 21
161.0470849583852
 31
0.0
  0
LINE
  5
13FA
330
1A
100
AcDbEntity
  8
SEIHIN
 62
     3
100
AcDbLine
 10
297.359124053889
 20
166.5557730131905
 30
0.0
 11
304.6514290538889
 21
166.5557730131905
 31
0.0
  0
LINE
  5
13FB
330
1A
100
AcDbEntity
  8
NOKITOI
  6
PHANTOM
 62
     8
100
AcDbLine
 10
291.9120668731811
 20
173.9450849583853
 30
0.0
 11
292.1728668731812
 21
175.2490849583852
 31
0.0
  0
ARC
  5
13FC
330
1A
100
AcDbEntity
  8
NOKITOI
  6
PHANTOM
 62
     8
100
AcDbCircle
 10
291.6825741277366
 20
175.3470761085417
 30
0.0
 40
0.500008849895925
100
AcDbArc
 50
348.6864043304874
 51
90.00083129614912
  0
LINE
  5
13FD
330
1A
100
AcDbEntity
  8
SEIHIN
 62
     3
100
AcDbLine
 10
291.759124053889
 20
168.5963348131906
 30
0.0
 11
291.0120797538888
 21
169.5557730131905
 31
0.0
  0
LINE
  5
13FE
330
1A
100
AcDbEntity
  8
NOKITOI
  6
PHANTOM
 62
     8
100
AcDbLine
 10
293.2800668731811
 20
170.375484958385
 30
0.0
 11
293.8350668731814
 21
170.9884849583851
 31
0.0
  0
ARC
  5
13FF
330
1A
100
AcDbEntity
  8
NOKITOI
  6
PHANTOM
 62
     8
100
AcDbCircle
 10
291.4127375006815
 20
169.32471519088
 30
0.0
 40
0.4999578477751074
100
AcDbArc
 50
351.8669438287072
 51
96.47390928778916
  0
ARC
  5
1400
330
1A
100
AcDbEntity
  8
NOKITOI
  6
PHANTOM
 62
     8
100
AcDbCircle
 10
294.6338631636858
 20
172.8470888684158
 30
0.0
 40
0.4999960899831856
100
AcDbArc
 50
356.9843782585353
 51
89.99957491985082
  0
LINE
  5
1401
330
1A
100
AcDbEntity
  8
NOKITOI
  6
PHANTOM
 62
     8
100
AcDbLine
 10
292.269466873181
 20
171.0470849583852
 30
0.0
 11
293.2652668731811
 21
172.1470849583853
 31
0.0
  0
LINE
  5
1402
330
1A
100
AcDbEntity
  8
NOKITOI
  6
PHANTOM
 62
     8
100
AcDbLine
 10
292.269466873181
 20
171.0470849583852
 30
0.0
 11
291.807466873181
 21
171.0470849583852
 31
0.0
  0
LINE
  5
1403
330
1A
100
AcDbEntity
  8
NOKITOI
  6
PHANTOM
 62
     8
100
AcDbLine
 10
290.3286668731812
 20
172.1470849583853
 30
0.0
 11
293.2652668731811
 21
172.1470849583853
 31
0.0
  0
LINE
  5
1404
330
1A
100
AcDbEntity
  8
NOKITOI
  6
PHANTOM
 62
     8
100
AcDbLine
 10
294.6338668731809
 20
173.3470849583851
 30
0.0
 11
292.4023668731811
 21
173.3470849583851
 31
0.0
  0
LINE
  5
1405
330
1A
100
AcDbEntity
  8
NOKITOI
  6
PHANTOM
 62
     8
100
AcDbLine
 10
290.8286668731811
 20
174.6470849583853
 30
0.0
 11
290.3286668731812
 21
172.1470849583853
 31
0.0
  0
ARC
  5
1406
330
1A
100
AcDbEntity
  8
NOKITOI
  6
PHANTOM
 62
     8
100
AcDbCircle
 10
292.4023676561896
 20
173.8470840033834
 30
0.0
 40
0.4999990449987399
100
AcDbArc
 50
168.6967198015436
 51
269.9999102736932
  0
LINE
  5
1407
330
1A
100
AcDbEntity
  8
SEIHIN
 62
     3
100
AcDbLine
 10
305.6514290538889
 20
166.8237220131906
 30
0.0
 11
309.5091240538891
 21
169.0509630131906
 31
0.0
  0
LINE
  5
1408
330
1A
100
AcDbEntity
  8
SEIHIN
 62
     3
100
AcDbLine
 10
311.7591240538891
 20
165.1538490131905
 30
0.0
 11
307.947841553889
 21
162.9534032931906
 31
0.0
  0
ARC
  5
1409
330
1A
100
AcDbEntity
  8
SEIHIN
 62
     3
100
AcDbCircle
 10
313.259124053889
 20
162.5557730131905
 30
0.0
 40
2.999999999413997
100
AcDbArc
 50
90.0
 51
120.0000000129219
  0
ARC
  5
140A
330
1A
100
AcDbEntity
  8
SEIHIN
 62
     3
100
AcDbCircle
 10
313.259124053889
 20
162.5557730131905
 30
0.0
 40
7.499999996369929
100
AcDbArc
 50
90.0
 51
120.0000000320188
  0
LINE
  5
140B
330
1A
100
AcDbEntity
  8
SEIHIN
100
AcDbLine
 10
415.5391240238891
 20
176.7557730131906
 30
0.0
 11
415.5391240238891
 21
153.7557730131906
 31
0.0
  0
LINE
  5
140C
330
1A
100
AcDbEntity
  8
SEIHIN
100
AcDbLine
 10
412.5391240238891
 20
176.7557730131906
 30
0.0
 11
412.5391240238891
 21
153.1726320131905
 31
0.0
  0
ARC
  5
140D
330
1A
100
AcDbEntity
  8
NOKITOI
  6
PHANTOM
 62
     8
100
AcDbCircle
 10
354.4788607912132
 20
163.8470793337288
 30
0.0
 40
41.79999437547816
100
AcDbArc
 50
270.0001454078877
 51
355.5257047874749
  0
ARC
  5
140E
330
1A
100
AcDbEntity
  8
NOKITOI
  6
PHANTOM
 62
     8
100
AcDbCircle
 10
354.4788830996385
 20
163.8470994347552
 30
0.0
 40
43.00001447645168
100
AcDbArc
 50
270.0001116248529
 51
353.4750892928824
  0
LINE
  5
140F
330
1A
100
AcDbEntity
  8
SEIHIN
 62
     3
100
AcDbLine
 10
398.483843663889
 20
157.3969540031906
 30
0.0
 11
401.0202699638889
 21
147.9308807731906
 31
0.0
  0
LINE
  5
1410
330
1A
100
AcDbEntity
  8
SEIHIN
 62
     3
100
AcDbLine
 10
397.3247326638889
 20
157.0863711831905
 30
0.0
 11
399.861158963889
 21
147.6202979631905
 31
0.0
  0
LINE
  5
1411
330
1A
100
AcDbEntity
  8
SEIHIN
 62
     3
100
AcDbLine
 10
400.5026319438888
 20
149.8627324431906
 30
0.0
 11
399.343520953889
 21
149.5521495931905
 31
0.0
  0
LINE
  5
1412
330
1A
100
AcDbEntity
  8
SEIHIN
 62
     3
100
AcDbLine
 10
399.8611589738889
 20
147.6202979231906
 30
0.0
 11
401.0202699638889
 21
147.9308807731906
 31
0.0
  0
LINE
  5
1413
330
1A
100
AcDbEntity
  8
SEIHIN
100
AcDbLine
 10
412.5391240238891
 20
153.1726320131905
 30
0.0
 11
416.129033123889
 21
144.2872950131905
 31
0.0
  0
LINE
  5
1414
330
1A
100
AcDbEntity
  8
SEIHIN
100
AcDbLine
 10
416.129033123889
 20
144.2872950131905
 30
0.0
 11
418.751277823889
 21
137.7970113131905
 31
0.0
  0
ARC
  5
1415
330
1A
100
AcDbEntity
  8
SEIHIN
100
AcDbCircle
 10
422.6555588238891
 20
143.1493129131905
 30
0.0
 40
6.624993717619814
100
AcDbArc
 50
170.1091925164098
 51
233.8908071907937
  0
LINE
  5
1416
330
1A
100
AcDbEntity
  8
SEIHIN
100
AcDbLine
 10
415.5391240238891
 20
153.7557730131906
 30
0.0
 11
419.0978882238889
 21
144.9475226131905
 31
0.0
  0
LINE
  5
1417
330
1A
100
AcDbEntity
  8
SEIHIN
 62
     3
100
AcDbLine
 10
388.1926520238889
 20
177.1064920131906
 30
0.0
 11
383.605397023889
 21
166.5558050131906
 31
0.0
  0
LINE
  5
1418
330
1A
100
AcDbEntity
  8
SEIHIN
 62
     3
100
AcDbLine
 10
378.7981490238889
 20
166.5558050131906
 30
0.0
 11
393.605397023889
 21
166.5558050131906
 31
0.0
  0
LINE
  5
1419
330
1A
100
AcDbEntity
  8
SEIHIN
 62
     3
100
AcDbLine
 10
378.7981490238889
 20
166.5558050131906
 30
0.0
 11
393.605397023889
 21
166.5558050131906
 31
0.0
  0
LINE
  5
141A
330
1A
100
AcDbEntity
  8
SEIHIN
 62
     3
100
AcDbLine
 10
383.7853970238889
 20
166.9558050131905
 30
0.0
 11
393.605397023889
 21
166.9558050131905
 31
0.0
  0
LINE
  5
141B
330
1A
100
AcDbEntity
  8
SEIHIN
 62
     3
100
AcDbLine
 10
381.896199023889
 20
183.0557730131905
 30
0.0
 11
402.7891240238889
 21
183.0557730131905
 31
0.0
  0
LINE
  5
141C
330
1A
100
AcDbEntity
  8
SEIHIN
 62
     3
100
AcDbLine
 10
384.3088400238889
 20
177.5557730131905
 30
0.0
 11
388.475809023889
 21
177.5557730131905
 31
0.0
  0
LINE
  5
141D
330
1A
100
AcDbEntity
  8
SEIHIN
 62
     3
100
AcDbLine
 10
382.2026950238889
 20
178.1557730131905
 30
0.0
 11
391.9818950238889
 21
178.1557730131905
 31
0.0
  0
LINE
  5
141E
330
1A
100
AcDbEntity
  8
SEIHIN
 62
     3
100
AcDbLine
 10
388.6423240238889
 20
178.5557730131905
 30
0.0
 11
384.1423240238889
 21
178.5557730131905
 31
0.0
  0
LINE
  5
141F
330
1A
100
AcDbEntity
  8
SEIHIN
100
AcDbLine
 10
381.6617020238891
 20
183.7557730131906
 30
0.0
 11
408.5391240238891
 21
183.7557730131906
 31
0.0
  0
ARC
  5
1420
330
1A
100
AcDbEntity
  8
SEIHIN
100
AcDbCircle
 10
381.6617020238891
 20
176.7557730131906
 30
0.0
 40
7.000000005682091
100
AcDbArc
 50
90.0
 51
159.8596214145063
  0
ARC
  5
1421
330
1A
100
AcDbEntity
  8
SEIHIN
 62
     3
100
AcDbCircle
 10
381.896199023889
 20
175.1557730131905
 30
0.0
 40
7.899999999354902
100
AcDbArc
 50
90.0
 51
171.000000026553
  0
LINE
  5
1422
330
1A
100
AcDbEntity
  8
SEIHIN
 62
     3
100
AcDbLine
 10
366.5391240238889
 20
165.5557730131905
 30
0.0
 11
371.6380268538889
 21
165.5557730131905
 31
0.0
  0
LINE
  5
1423
330
1A
100
AcDbEntity
  8
SEIHIN
 62
     3
100
AcDbLine
 10
362.5391240238889
 20
165.5557730131905
 30
0.0
 11
366.5391240238889
 21
165.5557730131905
 31
0.0
  0
LINE
  5
1424
330
1A
100
AcDbEntity
  8
SEIHIN
 62
     3
100
AcDbLine
 10
362.4556400238889
 20
164.9557730131905
 30
0.0
 11
366.622609023889
 21
164.9557730131905
 31
0.0
  0
ARC
  5
1425
330
1A
100
AcDbEntity
  8
SEIHIN
 62
     3
100
AcDbCircle
 10
362.4556400238889
 20
165.9557730131905
 30
0.0
 40
1.000000000462305
100
AcDbArc
 50
203.578178455081
 51
270.0
  0
ARC
  5
1426
330
1A
100
AcDbEntity
  8
SEIHIN
 62
     3
100
AcDbCircle
 10
366.6226080238889
 20
165.9557730131905
 30
0.0
 40
1.000000000462305
100
AcDbArc
 50
270.0
 51
336.421821544919
  0
ARC
  5
1427
330
1A
100
AcDbEntity
  8
SEIHIN
 62
     3
100
AcDbCircle
 10
364.5391240238889
 20
165.2516060131905
 30
0.0
 40
5.704166995525981
100
AcDbArc
 50
57.37535862169647
 51
122.6246414324574
  0
ARC
  5
1428
330
1A
100
AcDbEntity
  8
SEIHIN
 62
     3
100
AcDbCircle
 10
371.6380268538889
 20
171.7557730131906
 30
0.0
 40
6.199999997654025
100
AcDbArc
 50
270.0
 51
351.0000084443393
  0
ARC
  5
1429
330
1A
100
AcDbEntity
  8
SEIHIN
 62
     3
100
AcDbCircle
 10
378.7981490238889
 20
168.7485570131906
 30
0.0
 40
2.192751996560394
100
AcDbArc
 50
195.6503830753082
 51
270.0
  0
ARC
  5
142A
330
1A
100
AcDbEntity
  8
SEIHIN
 62
     3
100
AcDbCircle
 10
378.7981490238889
 20
168.7485570131906
 30
0.0
 40
1.792751996555905
100
AcDbArc
 50
182.9455394181634
 51
270.0
  0
LINE
  5
142B
330
1A
100
AcDbEntity
  8
SEIHIN
 62
     3
100
AcDbLine
 10
378.7817970238888
 20
166.9558050131905
 30
0.0
 11
383.7793100238889
 21
166.9558050131905
 31
0.0
  0
LINE
  5
142C
330
1A
100
AcDbEntity
  8
SEIHIN
 62
     3
100
AcDbLine
 10
381.8923240238889
 20
166.5558050131906
 30
0.0
 11
381.8923240238889
 21
166.9558050131906
 31
0.0
  0
ARC
  5
142D
330
1A
100
AcDbEntity
  8
SEIHIN
 62
     3
100
AcDbCircle
 10
381.896199023889
 20
175.1557730131905
 30
0.0
 40
3.400000000887181
100
AcDbArc
 50
90.0
 51
171.0000000241327
  0
LINE
  5
142E
330
1A
100
AcDbEntity
  8
SEIHIN
 62
     3
100
AcDbLine
 10
378.3220310238889
 20
170.4769760131905
 30
0.0
 11
380.165041023889
 21
170.9708090131905
 31
0.0
  0
LINE
  5
142F
330
1A
100
AcDbEntity
  8
SEIHIN
 62
     3
100
AcDbLine
 10
378.2306230238889
 20
170.8665930131906
 30
0.0
 11
380.0615140238889
 21
171.3571790131906
 31
0.0
  0
ARC
  5
1430
330
1A
100
AcDbEntity
  8
SEIHIN
 62
     3
100
AcDbCircle
 10
378.7981490238889
 20
168.7485570131906
 30
0.0
 40
2.192751996560394
100
AcDbArc
 50
105.0000000809913
 51
118.7852858525347
  0
ARC
  5
1431
330
1A
100
AcDbEntity
  8
SEIHIN
 62
     3
100
AcDbCircle
 10
372.6629230238888
 20
170.5557730131905
 30
0.0
 40
0.5000000004381011
100
AcDbArc
 50
270.0
 51
350.9999991480873
  0
ARC
  5
1432
330
1A
100
AcDbEntity
  8
SEIHIN
 62
     3
100
AcDbCircle
 10
378.7981490238889
 20
168.7485570131906
 30
0.0
 40
1.792751996555905
100
AcDbArc
 50
105.0000000343191
 51
131.4901295096841
  0
LINE
  5
1433
330
1A
100
AcDbEntity
  8
SEIHIN
 62
     3
100
AcDbLine
 10
374.0934610238889
 20
176.3916050131905
 30
0.0
 11
373.1567670238889
 21
170.4775550131905
 31
0.0
  0
LINE
  5
1434
330
1A
100
AcDbEntity
  8
SEIHIN
 62
     3
100
AcDbLine
 10
378.5380580238888
 20
175.6876500131905
 30
0.0
 11
377.7616947038889
 21
170.7858802331905
 31
0.0
  0
LINE
  5
1435
330
1A
100
AcDbEntity
  8
SEIHIN
 62
     3
100
AcDbLine
 10
384.1423240238889
 20
178.5557730131905
 30
0.0
 11
381.896199023889
 21
178.5557730131905
 31
0.0
  0
ARC
  5
1436
330
1A
100
AcDbEntity
  8
SEIHIN
 62
     3
100
AcDbCircle
 10
384.3088400238889
 20
178.5557730131905
 30
0.0
 40
1.000000000462305
100
AcDbArc
 50
203.578178455081
 51
270.0
  0
ARC
  5
1437
330
1A
100
AcDbEntity
  8
SEIHIN
 62
     3
100
AcDbCircle
 10
382.2026950238889
 20
177.1557730131905
 30
0.0
 40
1.0
100
AcDbArc
 50
90.0
 51
180.0000005729565
  0
ARC
  5
1438
330
1A
100
AcDbEntity
  8
SEIHIN
 62
     3
100
AcDbCircle
 10
382.2026950238889
 20
177.1557730131905
 30
0.0
 40
1.399999999999998
100
AcDbArc
 50
90.0
 51
180.0000004092556
  0
ARC
  5
1439
330
1A
100
AcDbEntity
  8
SEIHIN
 62
     3
100
AcDbCircle
 10
379.8026950238891
 20
172.3231050131905
 30
0.0
 40
1.00000000242602
100
AcDbArc
 50
285.0000002160108
 51
0.0
  0
ARC
  5
143A
330
1A
100
AcDbEntity
  8
SEIHIN
 62
     3
100
AcDbCircle
 10
379.8026950238891
 20
172.3231050131905
 30
0.0
 40
1.400000001136407
100
AcDbArc
 50
284.9999998418849
 51
0.0
  0
LINE
  5
143B
330
1A
100
AcDbEntity
  8
SEIHIN
 62
     3
100
AcDbLine
 10
381.2026950238889
 20
177.1557730131905
 30
0.0
 11
381.2026950238889
 21
172.3231050131905
 31
0.0
  0
LINE
  5
143C
330
1A
100
AcDbEntity
  8
SEIHIN
 62
     3
100
AcDbLine
 10
380.8026950238891
 20
177.1557730131905
 30
0.0
 11
380.8026950238891
 21
172.3231050131905
 31
0.0
  0
ARC
  5
143D
330
1A
100
AcDbEntity
  8
SEIHIN
 62
     3
100
AcDbCircle
 10
405.7891240238888
 20
177.5557730131905
 30
0.0
 40
3.200000000000001
100
AcDbArc
 50
0.0
 51
90.0
  0
LINE
  5
143E
330
1A
100
AcDbEntity
  8
SEIHIN
 62
     3
100
AcDbLine
 10
404.7891240238889
 20
181.0557730131905
 30
0.0
 11
404.7891240238889
 21
178.5557730131905
 31
0.0
  0
ARC
  5
143F
330
1A
100
AcDbEntity
  8
SEIHIN
 62
     3
100
AcDbCircle
 10
405.7891240238888
 20
177.5557730131905
 30
0.0
 40
2.200000000000001
100
AcDbArc
 50
0.0
 51
90.0
  0
ARC
  5
1440
330
1A
100
AcDbEntity
  8
SEIHIN
100
AcDbCircle
 10
408.5391240238891
 20
176.7557730131906
 30
0.0
 40
4.0
100
AcDbArc
 50
0.0
 51
90.0
  0
ARC
  5
1441
330
1A
100
AcDbEntity
  8
SEIHIN
100
AcDbCircle
 10
408.5391240238891
 20
176.7557730131906
 30
0.0
 40
7.0
100
AcDbArc
 50
0.0
 51
90.0
  0
LINE
  5
1442
330
1A
100
AcDbEntity
  8
NOKITOI
  6
PHANTOM
 62
     8
100
AcDbLine
 10
404.2289668731814
 20
174.6470849583853
 30
0.0
 11
401.756166873181
 21
174.6470849583853
 31
0.0
  0
LINE
  5
1443
330
1A
100
AcDbEntity
  8
NOKITOI
  6
PHANTOM
 62
     8
100
AcDbLine
 10
404.2289668731814
 20
175.8470849583851
 30
0.0
 11
400.9023668731811
 21
175.8470849583851
 31
0.0
  0
LINE
  5
1444
330
1A
100
AcDbEntity
  8
SEIHIN
 62
     3
100
AcDbLine
 10
405.7891240238888
 20
178.5557730131905
 30
0.0
 11
388.6423240238889
 21
178.5557730131905
 31
0.0
  0
ARC
  5
1445
330
1A
100
AcDbEntity
  8
NOKITOI
  6
PHANTOM
 62
     8
100
AcDbCircle
 10
400.7772466605119
 20
165.8471436867652
 30
0.0
 40
5.2000412730095
100
AcDbArc
 50
37.92420092094092
 51
89.99867545693819
  0
ARC
  5
1446
330
1A
100
AcDbEntity
  8
NOKITOI
  6
PHANTOM
 62
     8
100
AcDbCircle
 10
402.6908533010428
 20
163.0470718032987
 30
0.0
 40
1.999986844959662
100
AcDbArc
 50
270.0003888156784
 51
358.2124468147644
  0
LINE
  5
1447
330
1A
100
AcDbEntity
  8
NOKITOI
  6
PHANTOM
 62
     8
100
AcDbLine
 10
404.3385668731811
 20
159.8470849583851
 30
0.0
 11
398.1938668731813
 21
159.8470849583851
 31
0.0
  0
ARC
  5
1448
330
1A
100
AcDbEntity
  8
NOKITOI
  6
PHANTOM
 62
     8
100
AcDbCircle
 10
400.7773289917345
 20
165.8471287409105
 30
0.0
 40
3.999989731271038
100
AcDbArc
 50
358.2100163932687
 51
83.52268857986718
  0
LINE
  5
1449
330
1A
100
AcDbEntity
  8
SEIHIN
 62
     3
100
AcDbLine
 10
399.4358216838889
 20
159.8557730131905
 30
0.0
 11
405.7891240238888
 21
159.8557730131905
 31
0.0
  0
LINE
  5
144A
330
1A
100
AcDbEntity
  8
SEIHIN
 62
     3
100
AcDbLine
 10
399.4497694938889
 20
158.6557730131906
 30
0.0
 11
405.7891240238888
 21
158.6557730131906
 31
0.0
  0
LINE
  5
144B
330
1A
100
AcDbEntity
  8
NOKITOI
  6
PHANTOM
 62
     8
100
AcDbLine
 10
397.7674668731811
 20
166.8208849583851
 30
0.0
 11
397.4516668731812
 21
172.8207849583851
 31
0.0
  0
LINE
  5
144C
330
1A
100
AcDbEntity
  8
NOKITOI
  6
PHANTOM
 62
     8
100
AcDbLine
 10
398.9309668731812
 20
167.5470849583851
 30
0.0
 11
398.7497668731812
 21
170.9885849583853
 31
0.0
  0
LINE
  5
144D
330
1A
100
AcDbEntity
  8
NOKITOI
  6
PHANTOM
 62
     8
100
AcDbLine
 10
401.0108668731813
 20
166.9178849583853
 30
0.0
 11
400.6771668731812
 21
169.2540849583853
 31
0.0
  0
LINE
  5
144E
330
1A
100
AcDbEntity
  8
NOKITOI
  6
PHANTOM
 62
     8
100
AcDbLine
 10
399.7088668731807
 20
167.5470849583851
 30
0.0
 11
399.304766873181
 21
170.375484958385
 31
0.0
  0
LINE
  5
144F
330
1A
100
AcDbEntity
  8
SEIHIN
 62
     3
100
AcDbLine
 10
394.605397023889
 20
170.5494820131905
 30
0.0
 11
393.605397023889
 21
166.5558050131906
 31
0.0
  0
LINE
  5
1450
330
1A
100
AcDbEntity
  8
SEIHIN
 62
     3
100
AcDbLine
 10
390.8923240238889
 20
166.5558050131906
 30
0.0
 11
390.8923240238889
 21
166.9558050131905
 31
0.0
  0
LINE
  5
1451
330
1A
100
AcDbEntity
  8
SEIHIN
 62
     3
100
AcDbLine
 10
393.605397023889
 20
166.5558050131906
 30
0.0
 11
393.605397023889
 21
166.9558050131905
 31
0.0
  0
LINE
  5
1452
330
1A
100
AcDbEntity
  8
NOKITOI
  6
PHANTOM
 62
     8
100
AcDbLine
 10
398.2668668731812
 20
166.3470849583851
 30
0.0
 11
400.5159668731812
 21
166.3470849583851
 31
0.0
  0
ARC
  5
1453
330
1A
100
AcDbEntity
  8
NOKITOI
  6
PHANTOM
 62
     8
100
AcDbCircle
 10
400.5159402725835
 20
166.8470542815031
 30
0.0
 40
0.4999693238254178
100
AcDbArc
 50
270.0030483909627
 51
8.144496122946364
  0
LINE
  5
1454
330
1A
100
AcDbEntity
  8
NOKITOI
  6
PHANTOM
 62
     8
100
AcDbLine
 10
398.9309668731812
 20
167.5470849583851
 30
0.0
 11
399.7088668731807
 21
167.5470849583851
 31
0.0
  0
ARC
  5
1455
330
1A
100
AcDbEntity
  8
NOKITOI
  6
PHANTOM
 62
     8
100
AcDbCircle
 10
398.2668737601761
 20
166.8470784232996
 30
0.0
 40
0.499993464961963
100
AcDbArc
 50
183.0029638682578
 51
269.9992107982097
  0
ARC
  5
1456
330
1A
100
AcDbEntity
  8
NOKITOI
  6
PHANTOM
 62
     8
100
AcDbCircle
 10
398.1938752973437
 20
158.8470924734416
 30
0.0
 40
0.9999924849789756
100
AcDbArc
 50
90.00048267258547
 51
173.4717353933264
  0
LINE
  5
1457
330
1A
100
AcDbEntity
  8
NOKITOI
  6
PHANTOM
 62
     8
100
AcDbLine
 10
396.6499668731808
 20
161.0470849583852
 30
0.0
 11
402.6908668731811
 21
161.0470849583852
 31
0.0
  0
ARC
  5
1458
330
1A
100
AcDbEntity
  8
NOKITOI
  6
PHANTOM
 62
     8
100
AcDbCircle
 10
396.6499543034728
 20
160.5470733336554
 30
0.0
 40
0.5000116248877111
100
AcDbArc
 50
89.99855965101616
 51
175.525153191658
  0
ARC
  5
1459
330
1A
100
AcDbEntity
  8
SEIHIN
 62
     3
100
AcDbCircle
 10
399.4497694938889
 20
157.6557730131906
 30
0.0
 40
2.199999996315752
100
AcDbArc
 50
105.0000000722989
 51
180.0000002604354
  0
ARC
  5
145A
330
1A
100
AcDbEntity
  8
SEIHIN
 62
     3
100
AcDbCircle
 10
399.4497694938889
 20
157.6557730131906
 30
0.0
 40
2.199999996916341
100
AcDbArc
 50
180.0000002604354
 51
194.9999981765586
  0
ARC
  5
145B
330
1A
100
AcDbEntity
  8
SEIHIN
 62
     3
100
AcDbCircle
 10
399.4497694938889
 20
157.6557730131906
 30
0.0
 40
0.9999999972496434
100
AcDbArc
 50
90.0
 51
194.9999980022732
  0
ARC
  5
145C
330
1A
100
AcDbEntity
  8
SEIHIN
 62
     3
100
AcDbCircle
 10
399.4497694938889
 20
157.6557730131906
 30
0.0
 40
2.199999994483917
100
AcDbArc
 50
90.20054527422605
 51
105.0000000722989
  0
ARC
  5
145D
330
1A
100
AcDbEntity
  8
SEIHIN
 62
     3
100
AcDbCircle
 10
399.4497694938889
 20
157.6557730131906
 30
0.0
 40
2.199999998168167
100
AcDbArc
 50
90.0
 51
90.20054527422605
  0
LINE
  5
145E
330
1A
100
AcDbEntity
  8
SEIHIN
 62
     3
100
AcDbLine
 10
393.105397023889
 20
177.9527330131905
 30
0.0
 11
389.544053023889
 21
177.9527330131905
 31
0.0
  0
LINE
  5
145F
330
1A
100
AcDbEntity
  8
SEIHIN
 62
     3
100
AcDbLine
 10
393.105397023889
 20
178.0084030131905
 30
0.0
 11
389.5682570238889
 21
178.0084030131905
 31
0.0
  0
ARC
  5
1460
330
1A
100
AcDbEntity
  8
SEIHIN
 62
     3
100
AcDbCircle
 10
388.475809023889
 20
178.5557730131905
 30
0.0
 40
1.000000005160678
100
AcDbArc
 50
325.0882877584587
 51
336.421821544919
  0
ARC
  5
1461
330
1A
100
AcDbEntity
  8
SEIHIN
 62
     3
100
AcDbCircle
 10
388.475809023889
 20
178.5557730131905
 30
0.0
 40
1.000000000760434
100
AcDbArc
 50
270.0
 51
271.0792212267711
  0
ARC
  5
1462
330
1A
100
AcDbEntity
  8
SEIHIN
 62
     3
100
AcDbCircle
 10
388.475809023889
 20
178.5557730131905
 30
0.0
 40
1.000000005458808
100
AcDbArc
 50
271.0792212267711
 51
325.0882877584587
  0
LINE
  5
1463
330
1A
100
AcDbEntity
  8
SEIHIN
 62
     3
100
AcDbLine
 10
391.9818950238889
 20
178.1557730131905
 30
0.0
 11
391.9818950238889
 21
178.5557730131905
 31
0.0
  0
ARC
  5
1464
330
1A
100
AcDbEntity
  8
SEIHIN
 62
     3
100
AcDbCircle
 10
389.5682570238889
 20
176.5084030131905
 30
0.0
 40
1.499999998366152
100
AcDbArc
 50
90.00000190985865
 51
156.5014370654866
  0
ARC
  5
1465
330
1A
100
AcDbEntity
  8
SEIHIN
 62
     3
100
AcDbCircle
 10
389.544053023889
 20
176.4527330131905
 30
0.0
 40
1.499999998565515
100
AcDbArc
 50
90.0
 51
156.5014341565161
  0
ARC
  5
1466
330
1A
100
AcDbEntity
  8
SEIHIN
 62
     3
100
AcDbCircle
 10
393.105397023889
 20
176.4527330131905
 30
0.0
 40
1.5
100
AcDbArc
 50
0.0
 51
90.0
  0
ARC
  5
1467
330
1A
100
AcDbEntity
  8
SEIHIN
 62
     3
100
AcDbCircle
 10
393.105397023889
 20
176.5084030131905
 30
0.0
 40
1.5
100
AcDbArc
 50
0.0
 51
90.0
  0
LINE
  5
1468
330
1A
100
AcDbEntity
  8
SEIHIN
 62
     3
100
AcDbLine
 10
394.605397023889
 20
170.7494820131905
 30
0.0
 11
394.605397023889
 21
176.7084030131906
 31
0.0
  0
LINE
  5
1469
330
1A
100
AcDbEntity
  8
NOKITOI
  6
PHANTOM
 62
     8
100
AcDbLine
 10
400.6728668731811
 20
173.945184958385
 30
0.0
 11
400.4120668731811
 21
175.2490849583852
 31
0.0
  0
ARC
  5
146A
330
1A
100
AcDbEntity
  8
NOKITOI
  6
PHANTOM
 62
     8
100
AcDbCircle
 10
400.9023676561896
 20
175.3470859133868
 30
0.0
 40
0.4999990449987349
100
AcDbArc
 50
90.0000897263067
 51
191.3032801984554
  0
LINE
  5
146B
330
1A
100
AcDbEntity
  8
NOKITOI
  6
PHANTOM
 62
     8
100
AcDbLine
 10
399.304766873181
 20
170.375484958385
 30
0.0
 11
398.7497668731812
 21
170.9885849583853
 31
0.0
  0
ARC
  5
146C
330
1A
100
AcDbEntity
  8
NOKITOI
  6
PHANTOM
 62
     8
100
AcDbCircle
 10
401.1721526547658
 20
169.3247703240841
 30
0.0
 40
0.5000073448410256
100
AcDbArc
 50
83.5217071700357
 51
188.1270521358756
  0
ARC
  5
146D
330
1A
100
AcDbEntity
  8
NOKITOI
  6
PHANTOM
 62
     8
100
AcDbCircle
 10
397.951073074339
 20
172.8470914934704
 30
0.0
 40
0.4999934649531607
100
AcDbArc
 50
90.00071060961758
 51
183.0044636796622
  0
LINE
  5
146E
330
1A
100
AcDbEntity
  8
NOKITOI
  6
PHANTOM
 62
     8
100
AcDbLine
 10
400.3154668731808
 20
171.0470849583852
 30
0.0
 11
399.3196668731811
 21
172.1470849583853
 31
0.0
  0
LINE
  5
146F
330
1A
100
AcDbEntity
  8
NOKITOI
  6
PHANTOM
 62
     8
100
AcDbLine
 10
400.3154668731808
 20
171.0470849583852
 30
0.0
 11
400.7773668731811
 21
171.0470849583852
 31
0.0
  0
LINE
  5
1470
330
1A
100
AcDbEntity
  8
NOKITOI
  6
PHANTOM
 62
     8
100
AcDbLine
 10
402.2561668731809
 20
172.1470849583853
 30
0.0
 11
399.3196668731811
 21
172.1470849583853
 31
0.0
  0
LINE
  5
1471
330
1A
100
AcDbEntity
  8
NOKITOI
  6
PHANTOM
 62
     8
100
AcDbLine
 10
397.9510668731813
 20
173.3470849583851
 30
0.0
 11
400.1825668731812
 21
173.3470849583851
 31
0.0
  0
LINE
  5
1472
330
1A
100
AcDbEntity
  8
NOKITOI
  6
PHANTOM
 62
     8
100
AcDbLine
 10
401.756166873181
 20
174.6470849583853
 30
0.0
 11
402.2561668731809
 21
172.1470849583853
 31
0.0
  0
ARC
  5
1473
330
1A
100
AcDbEntity
  8
NOKITOI
  6
PHANTOM
 62
     8
100
AcDbCircle
 10
400.1825741277366
 20
173.8470938082285
 30
0.0
 40
0.5000088498959383
100
AcDbArc
 50
269.9991687038573
 51
11.31359566951103
  0
LINE
  5
1474
330
1A
100
AcDbEntity
  8
NOKITOI
  6
PHANTOM
 62
     8
100
AcDbLine
 10
406.2279668731812
 20
173.7845849583851
 30
0.0
 11
405.8377668731814
 21
161.300284958385
 31
0.0
  0
LINE
  5
1475
330
1A
100
AcDbEntity
  8
SEIHIN
 62
     3
100
AcDbLine
 10
408.9891240238889
 20
177.5557730131905
 30
0.0
 11
408.9891240238889
 21
164.7918410131905
 31
0.0
  0
LINE
  5
1476
330
1A
100
AcDbEntity
  8
SEIHIN
 62
     3
100
AcDbLine
 10
407.989124023889
 20
177.5557730131905
 30
0.0
 11
407.989124023889
 21
160.8557730131905
 31
0.0
  0
LINE
  5
1477
330
1A
100
AcDbEntity
  8
SEIHIN
 62
     3
100
AcDbLine
 10
406.7891240238889
 20
177.5557730131905
 30
0.0
 11
406.7891240238889
 21
160.8557730131905
 31
0.0
  0
LINE
  5
1478
330
1A
100
AcDbEntity
  8
NOKITOI
  6
PHANTOM
 62
     8
100
AcDbLine
 10
404.6898668731814
 20
162.9846849583851
 30
0.0
 11
404.7753668731811
 21
165.7221849583851
 31
0.0
  0
ARC
  5
1479
330
1A
100
AcDbEntity
  8
SEIHIN
 62
     3
100
AcDbCircle
 10
405.9891240238889
 20
164.7918410131905
 30
0.0
 40
3.000000004265107
100
AcDbArc
 50
311.8103150062992
 51
0.0
  0
ARC
  5
147A
330
1A
100
AcDbEntity
  8
NOKITOI
  6
PHANTOM
 62
     8
100
AcDbCircle
 10
404.3385309140303
 20
161.3470501042419
 30
0.0
 40
1.499965146287778
100
AcDbArc
 50
270.0013735702995
 51
358.2133719782232
  0
ARC
  5
147B
330
1A
100
AcDbEntity
  8
SEIHIN
 62
     3
100
AcDbCircle
 10
405.7891240238888
 20
160.8557730131905
 30
0.0
 40
2.200000000000001
100
AcDbArc
 50
270.0
 51
0.0
  0
ARC
  5
147C
330
1A
100
AcDbEntity
  8
SEIHIN
 62
     3
100
AcDbCircle
 10
405.7891240238888
 20
160.8557730131905
 30
0.0
 40
1.0
100
AcDbArc
 50
270.0
 51
0.0
  0
ARC
  5
147D
330
1A
100
AcDbEntity
  8
NOKITOI
  6
PHANTOM
 62
     8
100
AcDbCircle
 10
404.2289623783831
 20
173.847089595912
 30
0.0
 40
0.7999953624857498
100
AcDbArc
 50
358.2088726535808
 51
89.99967808194737
  0
ARC
  5
147E
330
1A
100
AcDbEntity
  8
NOKITOI
  6
PHANTOM
 62
     8
100
AcDbCircle
 10
404.2289541223312
 20
173.8470981134715
 30
0.0
 40
1.999986844954076
100
AcDbArc
 50
358.2116927117297
 51
89.99963471264711
  0
ARC
  5
147F
330
1A
100
AcDbEntity
  8
SEIHIN
 62
     3
100
AcDbCircle
 10
405.7891240238888
 20
177.5557730131905
 30
0.0
 40
1.0
100
AcDbArc
 50
0.0
 51
90.0
  0
LINE
  5
1480
330
1A
100
AcDbEntity
  8
NOKITOI
  6
PHANTOM
 62
     8
100
AcDbLine
 10
405.0285668731808
 20
173.822084958385
 30
0.0
 11
404.8791668731814
 21
169.0431849583852
 31
0.0
  0
ARC
  5
1481
330
1A
100
AcDbEntity
  8
SEIHIN
 62
     3
100
AcDbCircle
 10
402.7891240238889
 20
181.0557730131905
 30
0.0
 40
2.000000000000001
100
AcDbArc
 50
0.0
 51
90.0
  0
LINE
  5
1482
330
1A
100
AcDbEntity
  8
SEIHIN
 62
     3
100
AcDbLine
 10
405.7891240238888
 20
179.7557730131906
 30
0.0
 11
404.7891240238889
 21
179.7557730131906
 31
0.0
  0
LINE
  5
1483
330
1A
100
AcDbEntity
  8
SEIHIN
 62
     3
100
AcDbLine
 10
404.7891240238889
 20
180.7557730131906
 30
0.0
 11
405.7891240238888
 21
180.7557730131906
 31
0.0
  0
LINE
  5
1484
330
1A
100
AcDbEntity
  8
SEIHIN
100
AcDbLine
 10
404.7664960172175
 20
180.7557730131906
 30
0.0
 11
408.5391240238891
 21
180.7557730131906
 31
0.0
  0
LINE
  5
1487
330
1A
100
AcDbEntity
  8
SEIHIN
100
AcDbLine
 10
421.345527923889
 20
139.3844195131905
 30
0.0
 11
424.904289023889
 21
130.5761770131905
 31
0.0
  0
LINE
  5
1488
330
1A
100
AcDbEntity
  8
SEIHIN
100
AcDbLine
 10
422.1227370238891
 20
129.4523570131905
 30
0.0
 11
424.904289023889
 21
130.5761770131905
 31
0.0
  0
LINE
  5
1489
330
1A
100
AcDbEntity
  8
SEIHIN
100
AcDbLine
 10
422.8066224238889
 20
146.4459525131906
 30
0.0
 11
425.0542618238889
 21
140.8828493131906
 31
0.0
  0
LINE
  5
148A
330
1A
100
AcDbEntity
  8
SEIHIN
100
AcDbLine
 10
420.0531989238891
 20
147.9219806131906
 30
0.0
 11
424.0989498238891
 21
137.9083949131906
 31
0.0
  0
LINE
  5
148B
330
1A
100
AcDbEntity
  8
SEIHIN
100
AcDbLine
 10
424.0989498238891
 20
137.9083949131906
 30
0.0
 11
422.2445821238891
 21
137.1591818131905
 31
0.0
  0
LINE
  5
148C
330
1A
100
AcDbEntity
  8
SEIHIN
100
AcDbLine
 10
425.0542618238889
 20
140.8828493131906
 30
0.0
 11
424.0989498238891
 21
137.9083949131906
 31
0.0
  0
LINE
  5
148D
330
1A
100
AcDbEntity
  8
SEIHIN
100
AcDbLine
 10
420.0531989238891
 20
147.9219806131906
 30
0.0
 11
422.8066224238889
 21
146.4459525131906
 31
0.0
  0
LINE
  5
1494
330
1A
100
AcDbEntity
  8
SEIHIN
100
AcDbLine
 10
425.0545330251567
 20
140.8829595972156
 30
0.0
 11
551.1515386251565
 21
191.8294522972154
 31
0.0
  0
LINE
  5
1495
330
1A
100
AcDbEntity
  8
CENTER_L
100
AcDbLine
 10
406.6722929132324
 20
136.6916565935307
 30
0.0
 11
565.7895732804174
 21
200.979205582557
 31
0.0
  0
LINE
  5
1496
330
1A
100
AcDbEntity
  8
SEIHIN
100
AcDbLine
 10
422.806622423889
 20
146.4459525131906
 30
0.0
 11
548.9036280238888
 21
197.3924452131903
 31
0.0
  0
LINE
  5
1561
330
1A
100
AcDbEntity
  8
SEIHIN
100
AcDbLine
 10
559.2992862238888
 20
198.3569596131905
 30
0.0
 11
551.1512673238887
 21
191.8293420131903
 31
0.0
  0
LINE
  5
1562
330
1A
100
AcDbEntity
  8
SEIHIN
100
AcDbLine
 10
548.9036280238888
 20
197.3924452131903
 30
0.0
 11
559.2992862238888
 21
198.3569596131905
 31
0.0
  0
ARC
  5
1563
330
1A
100
AcDbEntity
  8
SEIHIN
100
AcDbCircle
 10
549.4655376238887
 20
196.0016695131903
 30
0.0
 40
1.49999984398965
100
AcDbArc
 50
111.9999979793815
 51
291.9999994102669
  0
ARC
  5
1564
330
1A
100
AcDbEntity
  8
SEIHIN
100
AcDbCircle
 10
550.5893572238886
 20
193.2201182131903
 30
0.0
 40
1.499999843989628
100
AcDbArc
 50
111.9999979793749
 51
291.9999994102669
  0
LINE
  5
1565
330
1A
100
AcDbEntity
  8
SEIHIN
100
AcDbLine
 10
548.9036279238887
 20
197.3924452131903
 30
0.0
 11
548.9036280238886
 21
197.3924452131903
 31
0.0
  0
LINE
  5
1566
330
1A
100
AcDbEntity
  8
SEIHIN
100
AcDbLine
 10
548.9036279238887
 20
197.3924452131903
 30
0.0
 11
548.9036280238888
 21
197.3924452131903
 31
0.0
  0
LINE
  5
16A8
330
1A
100
AcDbEntity
  8
ZUWAKU
100
AcDbLine
 10
208.6466018818887
 20
15.20000036911607
 30
0.0
 11
447.4243645628121
 21
15.20000036911606
 31
0.0
  0
LINE
  5
16A9
330
1A
100
AcDbEntity
  8
ZUWAKU
100
AcDbLine
 10
208.6466018818887
 20
15.60000036911607
 30
0.0
 11
447.4243645628121
 21
15.60000036911607
 31
0.0
  0
LINE
  5
16AA
330
1A
100
AcDbEntity
  8
ZUWAKU
100
AcDbLine
 10
208.6466018818887
 20
15.40000036911607
 30
0.0
 11
447.4243645628121
 21
15.40000036911607
 31
0.0
  0
LINE
  5
16AB
330
1A
100
AcDbEntity
  8
ZUWAKU
100
AcDbLine
 10
0.000000591820708
 20
30.80000036911604
 30
0.0
 11
797.4000005918205
 21
30.80000036911604
 31
0.0
  0
LINE
  5
16AC
330
1A
100
AcDbEntity
  8
ZUWAKU
100
AcDbLine
 10
0.000000591820708
 20
30.60000036911604
 30
0.0
 11
797.4000005918205
 21
30.60000036911604
 31
0.0
  0
LINE
  5
16AD
330
1A
100
AcDbEntity
  8
ZUWAKU
100
AcDbLine
 10
0.000000591820708
 20
30.40000036911604
 30
0.0
 11
797.4000005918205
 21
30.40000036911604
 31
0.0
  0
LINE
  5
16AE
330
1A
100
AcDbEntity
  8
ZUWAKU
100
AcDbLine
 10
0.000000591820708
 20
30.20000036911604
 30
0.0
 11
797.4000005918205
 21
30.20000036911604
 31
0.0
  0
LINE
  5
16AF
330
1A
100
AcDbEntity
  8
ZUWAKU
100
AcDbLine
 10
0.000000591820708
 20
30.00000036911603
 30
0.0
 11
797.4000005918205
 21
30.00000036911603
 31
0.0
  0
LWPOLYLINE
  5
16B0
330
1A
100
AcDbEntity
  8
ZUWAKU
100
AcDbPolyline
 90
        4
 70
     1
 43
0.0
 10
0.2000005918206398
 20
551.4000003691161
 10
0.2000005918206398
 20
0.2000003691160828
 10
797.4000005918205
 20
0.2000003691161059
 10
797.4000005918208
 20
551.4000003691161
  0
LWPOLYLINE
  5
16B1
330
1A
100
AcDbEntity
  8
ZUWAKU
100
AcDbPolyline
 90
        4
 70
     1
 43
0.0
 10
0.6000005918206171
 20
551.0000003691161
 10
0.6000005918206171
 20
0.6000003691160601
 10
797.0000005918209
 20
0.6000003691161063
 10
797.0000005918207
 20
551.0000003691161
  0
LWPOLYLINE
  5
16B2
330
1A
100
AcDbEntity
  8
ZUWAKU
100
AcDbPolyline
 90
        4
 70
     1
 43
0.0
 10
0.000000591820708
 20
551.600000369116
 10
0.000000591820708
 20
0.0000003691160373
 10
797.6000005918209
 20
0.0000003691161048
 10
797.6000005918209
 20
551.6000003691162
  0
LWPOLYLINE
  5
16B3
330
1A
100
AcDbEntity
  8
ZUWAKU
100
AcDbPolyline
 90
        4
 70
     1
 43
0.0
 10
0.4000005918206853
 20
551.200000369116
 10
0.4000005918206853
 20
0.4000003691161283
 10
797.2000005918207
 20
0.4000003691161052
 10
797.2000005918207
 20
551.200000369116
  0
LWPOLYLINE
  5
16B4
330
1A
100
AcDbEntity
  8
ZUWAKU
100
AcDbPolyline
 90
        4
 70
     1
 43
0.0
 10
0.8000005918206625
 20
550.8000003691161
 10
0.8000005918206625
 20
0.8000003691161055
 10
796.8000005918207
 20
0.8000003691161055
 10
796.8000005918207
 20
550.8000003691161
  0
TEXT
  5
16B5
330
1A
100
AcDbEntity
  8
MOJI
100
AcDbText
 10
92.95779017998984
 20
12.74117849939079
 30
0.0
 40
6.0
  1
新・丸トップＲＶ１０５
 41
0.9
  7
ｽﾀｲﾙ1
100
AcDbText
  0
HATCH
  5
16B6
330
1A
100
AcDbEntity
  8
ZUWAKU
100
AcDbHatch
 10
0.0
 20
0.0
 30
0.0
210
0.0
220
0.0
230
1.0
  2
ANSI37
 70
     0
 71
     0
 91
        8
 92
        7
 72
     1
 73
     1
 93
       24
 10
14.50226325294056
 20
17.64484885009962
 42
-0.1989123673796348
 10
14.09221274660183
 20
18.63479834376067
 42
0.0
 10
14.09221274660183
 20
19.92500036911605
 42
-0.4142135623730912
 10
14.6172127466018
 20
20.45000036911603
 42
0.0
 10
17.59221274660171
 20
20.45000036911603
 42
0.4142135623731546
 10
18.11721274660181
 20
20.97500036911603
 42
0.0
 10
18.11721274660181
 20
22.72500036911604
 42
0.4142135623731586
 10
17.59221274660171
 20
23.25000036911604
 42
0.0
 10
14.09221274660183
 20
23.25000036911604
 42
0.4142135623730928
 10
11.29221274660187
 20
20.45000036911607
 42
0.0
 10
11.29221274660187
 20
18.6347983437608
 42
0.1989123673796619
 10
12.5223642656183
 20
15.66494986277719
 42
0.0
 10
15.43216224026298
 20
12.75515188813253
 42
-0.1989123673796613
 10
15.84221274660183
 20
11.76520239447134
 42
0.0
 10
15.84221274660183
 20
10.47500036911603
 42
-0.4142135623730911
 10
15.31721274660185
 20
9.95000036911604
 42
0.0
 10
12.34221274660194
 20
9.95000036911604
 42
0.4142135623731526
 10
11.81721274660185
 20
9.425000369116052
 42
0.0
 10
11.81721274660185
 20
7.67500036911603
 42
0.4142135623731526
 10
12.34221274660194
 20
7.150000369116042
 42
0.0
 10
15.84221274660183
 20
7.150000369116042
 42
0.4142135623731044
 10
18.6422127466019
 20
9.950000369116018
 42
0.0
 10
18.6422127466019
 20
11.76520239447129
 42
0.1989123673796604
 10
17.41206122758535
 20
14.73505087545483
 42
0.0
 97
        0
 92
        7
 72
     1
 73
     1
 93
       16
 10
23.54221274660187
 20
19.05000036911604
 42
-0.4142135623730935
 10
24.94221274660185
 20
20.45000036911603
 42
0.0
 10
26.86721274660181
 20
20.45000036911603
 42
0.4142135623731546
 10
27.3922127466019
 20
20.97500036911603
 42
0.0
 10
27.3922127466019
 20
22.72500036911604
 42
0.4142135623730951
 10
26.86721274660192
 20
23.25000036911604
 42
0.0
 10
24.94221274660174
 20
23.250000369116
 42
0.4142135623730892
 10
20.7422127466018
 20
19.05000036911597
 42
0.0
 10
20.7422127466018
 20
11.35000036911606
 42
0.4142135623730969
 10
24.94221274660185
 20
7.150000369116042
 42
0.0
 10
26.86721274660181
 20
7.150000369116042
 42
0.4142135623731526
 10
27.3922127466019
 20
7.67500036911603
 42
0.0
 10
27.3922127466019
 20
9.425000369116052
 42
0.4142135623730891
 10
26.86721274660192
 20
9.95000036911604
 42
0.0
 10
24.94221274660185
 20
9.95000036911604
 42
-0.4142135623730928
 10
23.54221274660187
 20
11.35000036911602
 42
0.0
 97
        0
 92
        7
 72
     1
 73
     1
 93
        2
 10
24.24221274660181
 20
15.20000036911604
 42
1.0
 10
27.74221274660181
 20
15.20000036911604
 42
1.0
 97
        0
 92
        7
 72
     1
 73
     1
 93
       26
 10
37.31485922877982
 20
19.20504756267946
 42
0.0
 10
38.37649886191764
 20
22.56690640094905
 42
0.5069206636600134
 10
37.87586796272228
 20
23.25000036911604
 42
0.0
 10
36.17697858311305
 20
23.25000036911604
 42
0.3272098845218764
 10
35.67634768391769
 20
22.88309433728301
 42
0.0
 10
33.80807780928591
 20
16.96690640094912
 42
-0.3272098845219541
 10
33.30744691009044
 20
16.60000036911603
 42
0.0
 10
33.16721274660199
 20
16.60000036911603
 42
-0.4142135623731526
 10
32.6422127466019
 20
17.12500036911602
 42
0.0
 10
32.6422127466019
 20
22.72500036911604
 42
0.4142135623730951
 10
32.11721274660192
 20
23.25000036911604
 42
0.0
 10
30.3672127466018
 20
23.25000036911604
 42
0.4142135623730871
 10
29.84221274660183
 20
22.72500036911606
 42
0.0
 10
29.84221274660183
 20
7.67500036911603
 42
0.4142135623730891
 10
30.3672127466018
 20
7.150000369116042
 42
0.0
 10
32.11721274660181
 20
7.150000369116042
 42
0.4142135623731526
 10
32.6422127466019
 20
7.67500036911603
 42
0.0
 10
32.6422127466019
 20
13.27500036911605
 42
-0.4142135623731526
 10
33.16721274660199
 20
13.80000036911604
 42
0.0
 10
33.30744691009056
 20
13.80000036911604
 42
-0.3272098845218915
 10
33.80807780928591
 20
13.43309433728296
 42
0.0
 10
35.67634768391769
 20
7.516906400949114
 42
0.3272098845218902
 10
36.17697858311305
 20
7.150000369116042
 42
0.0
 10
37.87586796272228
 20
7.150000369116042
 42
0.5069206636600335
 10
38.37649886191764
 20
7.83309433728305
 42
0.0
 10
36.05010748344398
 20
15.20000036911618
 42
0.0
 97
        0
 92
        7
 72
     1
 73
     1
 93
        8
 10
43.4922127466018
 20
22.72500036911605
 42
0.4142135623731546
 10
42.96721274660171
 20
23.25000036911604
 42
0.0
 10
41.21721274660195
 20
23.25000036911604
 42
0.4142135623731507
 10
40.69221274660185
 20
22.72500036911606
 42
0.0
 10
40.69221274660185
 20
7.67500036911603
 42
0.4142135623731526
 10
41.21721274660195
 20
7.150000369116042
 42
0.0
 10
42.96721274660171
 20
7.150000369116042
 42
0.4142135623731526
 10
43.4922127466018
 20
7.67500036911603
 42
0.0
 97
        0
 92
        7
 72
     1
 73
     1
 93
       24
 10
48.39221274660189
 20
19.92500036911605
 42
-0.4142135623731546
 10
48.91721274660199
 20
20.45000036911603
 42
0.0
 10
51.8922127466019
 20
20.45000036911603
 42
0.4142135623730911
 10
52.41721274660188
 20
20.97500036911603
 42
0.0
 10
52.41721274660188
 20
22.72500036911604
 42
0.4142135623730952
 10
51.8922127466019
 20
23.25000036911604
 42
0.0
 10
48.39221274660189
 20
23.25000036911604
 42
0.4142135623731048
 10
45.59221274660183
 20
20.45000036911607
 42
0.0
 10
45.59221274660183
 20
18.6347983437608
 42
0.1989123673796613
 10
46.82236426561837
 20
15.66494986277724
 42
0.0
 10
49.73216224026305
 20
12.75515188813258
 42
-0.1989123673796402
 10
50.1422127466019
 20
11.7652023944715
 42
0.0
 10
50.1422127466019
 20
10.47500036911603
 42
-0.4142135623730911
 10
49.61721274660192
 20
9.95000036911604
 42
0.0
 10
46.6422127466019
 20
9.95000036911604
 42
0.4142135623731526
 10
46.11721274660181
 20
9.425000369116052
 42
0.0
 10
46.11721274660181
 20
7.67500036911603
 42
0.4142135623730891
 10
46.64221274660178
 20
7.150000369116042
 42
0.0
 10
50.1422127466019
 20
7.150000369116042
 42
0.4142135623730925
 10
52.94221274660185
 20
9.950000369116018
 42
0.0
 10
52.94221274660185
 20
11.76520239447129
 42
0.1989123673796675
 10
51.71206122758531
 20
14.73505087545494
 42
0.0
 10
48.80226325294074
 20
17.64484885009946
 42
-0.1989123673796652
 10
48.39221274660189
 20
18.63479834376063
 42
0.0
 97
        0
 92
        7
 72
     1
 73
     1
 93
       16
 10
57.84221274660183
 20
22.72500036911603
 42
0.414213562373103
 10
57.31721274660185
 20
23.25000036911604
 42
0.0
 10
55.56721274660185
 20
23.25000036911604
 42
0.4142135623730871
 10
55.04221274660188
 20
22.72500036911606
 42
0.0
 10
55.04221274660188
 20
9.950000369116018
 42
0.4142135623730926
 10
57.84221274660183
 20
7.150000369116042
 42
0.0
 10
61.34221274660183
 20
7.150000369116042
 42
0.4142135623731044
 10
64.1422127466019
 20
9.950000369116018
 42
0.0
 10
64.1422127466019
 20
22.72500036911604
 42
0.4142135623730951
 10
63.61721274660192
 20
23.25000036911604
 42
0.0
 10
61.86721274660181
 20
23.25000036911604
 42
0.4142135623730871
 10
61.34221274660183
 20
22.72500036911606
 42
0.0
 10
61.34221274660183
 20
11.00000036911601
 42
-0.414213562373088
 10
60.29221274660187
 20
9.95000036911604
 42
0.0
 10
58.8922127466019
 20
9.95000036911604
 42
-0.4142135623731197
 10
57.84221274660183
 20
11.00000036911601
 42
0.0
 97
        0
 92
        7
 72
     1
 73
     1
 93
        8
 10
69.04221274660187
 20
22.72500036911606
 42
0.4142135623730871
 10
68.5172127466019
 20
23.25000036911604
 42
0.0
 10
66.7672127466019
 20
23.25000036911604
 42
0.4142135623731507
 10
66.24221274660181
 20
22.72500036911606
 42
0.0
 10
66.24221274660181
 20
7.67500036911603
 42
0.4142135623730891
 10
66.76721274660178
 20
7.150000369116042
 42
0.0
 10
68.5172127466019
 20
7.150000369116042
 42
0.4142135623730891
 10
69.04221274660187
 20
7.67500036911603
 42
0.0
 97
        0
 75
     0
 76
     1
 52
0.0
 41
0.2
 77
     0
 78
     2
 53
45.0
 43
-900.9423037428582
 44
-13.19999963088389
 45
-0.4490128060534576
 46
0.4490128060534577
 79
     0
 53
135.0
 43
-900.9423037428582
 44
-13.19999963088389
 45
-0.4490128060534577
 46
-0.4490128060534576
 79
     0
 47
0.057451373970553
 98
        8
 10
16.07985555484401
 20
15.16717401500159
 10
22.40451559825987
 20
18.84406255156704
 10
25.16436847748036
 20
15.51188201518675
 10
30.91406057345784
 20
16.20129801555754
 10
41.83847261077744
 20
16.66091028309915
 10
46.89820148695026
 20
19.41857668552325
 10
56.55768656422106
 20
18.72915828421105
 10
67.82708021144344
 20
19.18877055175267
  0
LINE
  5
16B7
330
1A
100
AcDbEntity
  8
ZUWAKU
100
AcDbLine
 10
24.94221274660185
 20
23.250000369116
 30
0.0
 11
26.86721274660181
 21
23.25000036911604
 31
0.0
  0
LINE
  5
16B8
330
1A
100
AcDbEntity
  8
ZUWAKU
100
AcDbLine
 10
26.86721274660181
 20
20.45000036911603
 30
0.0
 11
24.94221274660185
 21
20.45000036911603
 31
0.0
  0
LINE
  5
16B9
330
1A
100
AcDbEntity
  8
ZUWAKU
100
AcDbLine
 10
24.94221274660185
 20
9.95000036911604
 30
0.0
 11
26.86721274660181
 21
9.95000036911604
 31
0.0
  0
LINE
  5
16BA
330
1A
100
AcDbEntity
  8
ZUWAKU
100
AcDbLine
 10
26.86721274660181
 20
7.150000369116042
 30
0.0
 11
24.94221274660185
 21
7.150000369116042
 31
0.0
  0
CIRCLE
  5
16BB
330
1A
100
AcDbEntity
  8
ZUWAKU
100
AcDbCircle
 10
25.9922127466018
 20
15.20000036911604
 30
0.0
 40
1.75
  0
ARC
  5
16BC
330
1A
100
AcDbEntity
  8
ZUWAKU
100
AcDbCircle
 10
15.49221274660181
 20
18.63479834376074
 30
0.0
 40
1.399999999999999
100
AcDbArc
 50
180.0000000000016
 51
224.9999999999988
  0
LINE
  5
16BD
330
1A
100
AcDbEntity
  8
ZUWAKU
100
AcDbLine
 10
23.54221274660187
 20
19.05000036911604
 30
0.0
 11
23.54221274660187
 21
11.35000036911604
 31
0.0
  0
LINE
  5
16BE
330
1A
100
AcDbEntity
  8
ZUWAKU
100
AcDbLine
 10
20.7422127466018
 20
11.35000036911604
 30
0.0
 11
20.7422127466018
 21
19.050000369116
 31
0.0
  0
ARC
  5
16BF
330
1A
100
AcDbEntity
  8
ZUWAKU
100
AcDbCircle
 10
15.49221274660181
 20
18.63479834376074
 30
0.0
 40
4.199999999999999
100
AcDbArc
 50
180.0
 51
225.0
  0
ARC
  5
16C0
330
1A
100
AcDbEntity
  8
ZUWAKU
100
AcDbCircle
 10
15.84221274660183
 20
9.95000036911604
 30
0.0
 40
2.799999999999999
100
AcDbArc
 50
270.0
 51
0.0
  0
ARC
  5
16C1
330
1A
100
AcDbEntity
  8
ZUWAKU
100
AcDbCircle
 10
24.94221274660185
 20
11.35000036911604
 30
0.0
 40
4.199999999999999
100
AcDbArc
 50
180.0
 51
270.0
  0
ARC
  5
16C2
330
1A
100
AcDbEntity
  8
ZUWAKU
100
AcDbCircle
 10
14.44221274660185
 20
11.76520239447134
 30
0.0
 40
4.199999999999999
100
AcDbArc
 50
0.0
 51
45.0
  0
LINE
  5
16C3
330
1A
100
AcDbEntity
  8
ZUWAKU
100
AcDbLine
 10
17.41206122758535
 20
14.73505087545486
 30
0.0
 11
14.50226325294067
 21
17.64484885009954
 31
0.0
  0
LINE
  5
16C4
330
1A
100
AcDbEntity
  8
ZUWAKU
100
AcDbLine
 10
15.84221274660183
 20
10.47500036911604
 30
0.0
 11
15.84221274660183
 21
11.76520239447138
 31
0.0
  0
ARC
  5
16C5
330
1A
100
AcDbEntity
  8
ZUWAKU
100
AcDbCircle
 10
15.31721274660185
 20
10.47500036911604
 30
0.0
 40
0.525
100
AcDbArc
 50
270.0
 51
0.0
  0
ARC
  5
16C6
330
1A
100
AcDbEntity
  8
ZUWAKU
100
AcDbCircle
 10
14.44221274660185
 20
11.76520239447138
 30
0.0
 40
1.399999999999999
100
AcDbArc
 50
0.0
 51
45.0
  0
LINE
  5
16C7
330
1A
100
AcDbEntity
  8
ZUWAKU
100
AcDbLine
 10
11.81721274660185
 20
7.675000369116041
 30
0.0
 11
11.81721274660185
 21
9.425000369116041
 31
0.0
  0
ARC
  5
16C8
330
1A
100
AcDbEntity
  8
ZUWAKU
100
AcDbCircle
 10
12.34221274660183
 20
7.675000369116041
 30
0.0
 40
0.525
100
AcDbArc
 50
180.0
 51
270.0
  0
ARC
  5
16C9
330
1A
100
AcDbEntity
  8
ZUWAKU
100
AcDbCircle
 10
12.34221274660183
 20
9.425000369116041
 30
0.0
 40
0.525
100
AcDbArc
 50
90.0
 51
180.0
  0
LINE
  5
16CA
330
1A
100
AcDbEntity
  8
ZUWAKU
100
AcDbLine
 10
12.34221274660183
 20
7.150000369116042
 30
0.0
 11
15.84221274660183
 21
7.150000369116042
 31
0.0
  0
LINE
  5
16CB
330
1A
100
AcDbEntity
  8
ZUWAKU
100
AcDbLine
 10
12.34221274660183
 20
9.95000036911604
 30
0.0
 11
15.31721274660185
 21
9.95000036911604
 31
0.0
  0
LINE
  5
16CC
330
1A
100
AcDbEntity
  8
ZUWAKU
100
AcDbLine
 10
12.5223642656183
 20
15.66494986277722
 30
0.0
 11
15.43216224026298
 21
12.75515188813256
 31
0.0
  0
LINE
  5
16CD
330
1A
100
AcDbEntity
  8
ZUWAKU
100
AcDbLine
 10
18.6422127466019
 20
9.95000036911604
 30
0.0
 11
18.6422127466019
 21
11.76520239447138
 31
0.0
  0
ARC
  5
16CE
330
1A
100
AcDbEntity
  8
ZUWAKU
100
AcDbCircle
 10
24.94221274660185
 20
11.35000036911604
 30
0.0
 40
1.399999999999999
100
AcDbArc
 50
180.0
 51
270.0
  0
ARC
  5
16CF
330
1A
100
AcDbEntity
  8
ZUWAKU
100
AcDbCircle
 10
17.59221274660183
 20
22.72500036911603
 30
0.0
 40
0.525
100
AcDbArc
 50
0.0
 51
90.0
  0
ARC
  5
16D0
330
1A
100
AcDbEntity
  8
ZUWAKU
100
AcDbCircle
 10
17.59221274660183
 20
20.97500036911604
 30
0.0
 40
0.525
100
AcDbArc
 50
270.0
 51
0.0
  0
LINE
  5
16D1
330
1A
100
AcDbEntity
  8
ZUWAKU
100
AcDbLine
 10
14.09221274660183
 20
23.25000036911604
 30
0.0
 11
17.59221274660183
 21
23.25000036911604
 31
0.0
  0
ARC
  5
16D2
330
1A
100
AcDbEntity
  8
ZUWAKU
100
AcDbCircle
 10
14.6172127466018
 20
19.92500036911604
 30
0.0
 40
0.525
100
AcDbArc
 50
90.0
 51
180.0
  0
LINE
  5
16D3
330
1A
100
AcDbEntity
  8
ZUWAKU
100
AcDbLine
 10
14.09221274660183
 20
19.92500036911604
 30
0.0
 11
14.09221274660183
 21
18.6347983437607
 31
0.0
  0
LINE
  5
16D4
330
1A
100
AcDbEntity
  8
ZUWAKU
100
AcDbLine
 10
17.59221274660183
 20
20.45000036911603
 30
0.0
 11
14.6172127466018
 21
20.45000036911603
 31
0.0
  0
LINE
  5
16D5
330
1A
100
AcDbEntity
  8
ZUWAKU
100
AcDbLine
 10
11.29221274660187
 20
20.45000036911603
 30
0.0
 11
11.29221274660187
 21
18.6347983437607
 31
0.0
  0
ARC
  5
16D6
330
1A
100
AcDbEntity
  8
ZUWAKU
100
AcDbCircle
 10
14.09221274660183
 20
20.45000036911603
 30
0.0
 40
2.799999999999999
100
AcDbArc
 50
90.0
 51
180.0
  0
LINE
  5
16D7
330
1A
100
AcDbEntity
  8
ZUWAKU
100
AcDbLine
 10
18.11721274660181
 20
22.72500036911603
 30
0.0
 11
18.11721274660181
 21
20.97500036911604
 31
0.0
  0
ARC
  5
16D8
330
1A
100
AcDbEntity
  8
ZUWAKU
100
AcDbCircle
 10
24.94221274660185
 20
19.05000036911604
 30
0.0
 40
1.399999999999999
100
AcDbArc
 50
90.0
 51
180.0
  0
ARC
  5
16D9
330
1A
100
AcDbEntity
  8
ZUWAKU
100
AcDbCircle
 10
24.94221274660185
 20
19.050000369116
 30
0.0
 40
4.199999999999999
100
AcDbArc
 50
90.0
 51
180.0
  0
LINE
  5
16DA
330
1A
100
AcDbEntity
  8
ZUWAKU
100
AcDbLine
 10
79.32663013980891
 20
30.00000036911603
 30
0.0
 11
79.32663013980914
 21
0.8000003691161055
 31
0.0
  0
LINE
  5
16DB
330
1A
100
AcDbEntity
  8
ZUWAKU
100
AcDbLine
 10
79.52663013980895
 20
30.00000036911603
 30
0.0
 11
79.52663013980918
 21
0.8000003691161055
 31
0.0
  0
LINE
  5
16DC
330
1A
100
AcDbEntity
  8
ZUWAKU
100
AcDbLine
 10
79.12663013980909
 20
30.00000036911603
 30
0.0
 11
79.12663013980909
 21
0.8000003691161055
 31
0.0
  0
LINE
  5
16DD
330
1A
100
AcDbEntity
  8
ZUWAKU
100
AcDbLine
 10
64.1422127466019
 20
9.95000036911604
 30
0.0
 11
64.1422127466019
 21
22.72500036911603
 31
0.0
  0
LINE
  5
16DE
330
1A
100
AcDbEntity
  8
ZUWAKU
100
AcDbLine
 10
61.34221274660183
 20
22.72500036911603
 30
0.0
 11
61.34221274660183
 21
11.00000036911603
 31
0.0
  0
LINE
  5
16DF
330
1A
100
AcDbEntity
  8
ZUWAKU
100
AcDbLine
 10
69.04221274660187
 20
7.675000369116041
 30
0.0
 11
69.04221274660187
 21
22.72500036911603
 31
0.0
  0
LINE
  5
16E0
330
1A
100
AcDbEntity
  8
ZUWAKU
100
AcDbLine
 10
66.24221274660181
 20
22.72500036911603
 30
0.0
 11
66.24221274660181
 21
7.675000369116041
 31
0.0
  0
ARC
  5
16E1
330
1A
100
AcDbEntity
  8
ZUWAKU
100
AcDbCircle
 10
49.79221274660187
 20
18.63479834376074
 30
0.0
 40
1.399999999999999
100
AcDbArc
 50
180.0000000000016
 51
224.9999999999988
  0
ARC
  5
16E2
330
1A
100
AcDbEntity
  8
ZUWAKU
100
AcDbCircle
 10
49.79221274660187
 20
18.63479834376074
 30
0.0
 40
4.199999999999999
100
AcDbArc
 50
180.0
 51
225.0
  0
LINE
  5
16E3
330
1A
100
AcDbEntity
  8
ZUWAKU
100
AcDbLine
 10
37.31485922877982
 20
19.20504756267946
 30
0.0
 11
36.05010748344398
 21
15.20000036911606
 31
0.0
  0
LINE
  5
16E4
330
1A
100
AcDbEntity
  8
ZUWAKU
100
AcDbLine
 10
40.69221274660185
 20
22.72500036911603
 30
0.0
 11
40.69221274660185
 21
7.675000369116041
 31
0.0
  0
LINE
  5
16E5
330
1A
100
AcDbEntity
  8
ZUWAKU
100
AcDbLine
 10
43.4922127466018
 20
7.675000369116041
 30
0.0
 11
43.4922127466018
 21
22.72500036911603
 31
0.0
  0
LINE
  5
16E6
330
1A
100
AcDbEntity
  8
ZUWAKU
100
AcDbLine
 10
55.04221274660188
 20
22.72500036911603
 30
0.0
 11
55.04221274660188
 21
9.95000036911604
 31
0.0
  0
LINE
  5
16E7
330
1A
100
AcDbEntity
  8
ZUWAKU
100
AcDbLine
 10
57.84221274660183
 20
11.00000036911603
 30
0.0
 11
57.84221274660183
 21
22.72500036911603
 31
0.0
  0
LINE
  5
16E8
330
1A
100
AcDbEntity
  8
ZUWAKU
100
AcDbLine
 10
32.6422127466019
 20
17.12500036911604
 30
0.0
 11
32.6422127466019
 21
22.72500036911603
 31
0.0
  0
LINE
  5
16E9
330
1A
100
AcDbEntity
  8
ZUWAKU
100
AcDbLine
 10
29.84221274660183
 20
22.72500036911603
 30
0.0
 11
29.84221274660183
 21
7.675000369116041
 31
0.0
  0
LINE
  5
16EA
330
1A
100
AcDbEntity
  8
ZUWAKU
100
AcDbLine
 10
35.67634768391769
 20
22.88309433728301
 30
0.0
 11
33.80807780928591
 21
16.96690640094907
 31
0.0
  0
LINE
  5
16EB
330
1A
100
AcDbEntity
  8
ZUWAKU
100
AcDbLine
 10
60.29221274660187
 20
9.95000036911604
 30
0.0
 11
58.8922127466019
 21
9.95000036911604
 31
0.0
  0
LINE
  5
16EC
330
1A
100
AcDbEntity
  8
ZUWAKU
100
AcDbLine
 10
57.84221274660183
 20
7.150000369116042
 30
0.0
 11
61.34221274660183
 21
7.150000369116042
 31
0.0
  0
LINE
  5
16ED
330
1A
100
AcDbEntity
  8
ZUWAKU
100
AcDbLine
 10
41.21721274660183
 20
7.150000369116042
 30
0.0
 11
42.96721274660183
 21
7.150000369116042
 31
0.0
  0
LINE
  5
16EE
330
1A
100
AcDbEntity
  8
ZUWAKU
100
AcDbLine
 10
35.67634768391769
 20
7.516906400949068
 30
0.0
 11
33.80807780928591
 21
13.433094337283
 31
0.0
  0
ARC
  5
16EF
330
1A
100
AcDbEntity
  8
ZUWAKU
100
AcDbCircle
 10
33.30744691009056
 20
17.12500036911604
 30
0.0
 40
0.525
100
AcDbArc
 50
270.0
 51
342.4744316262769
  0
LINE
  5
16F0
330
1A
100
AcDbEntity
  8
ZUWAKU
100
AcDbLine
 10
33.30744691009056
 20
16.60000036911603
 30
0.0
 11
33.16721274660187
 21
16.60000036911603
 31
0.0
  0
LINE
  5
16F1
330
1A
100
AcDbEntity
  8
ZUWAKU
100
AcDbLine
 10
33.16721274660187
 20
13.80000036911604
 30
0.0
 11
33.30744691009056
 21
13.80000036911604
 31
0.0
  0
ARC
  5
16F2
330
1A
100
AcDbEntity
  8
ZUWAKU
100
AcDbCircle
 10
33.16721274660187
 20
17.12500036911604
 30
0.0
 40
0.525
100
AcDbArc
 50
180.0
 51
270.0
  0
LINE
  5
16F3
330
1A
100
AcDbEntity
  8
ZUWAKU
100
AcDbLine
 10
30.3672127466018
 20
7.150000369116042
 30
0.0
 11
32.11721274660181
 21
7.150000369116042
 31
0.0
  0
ARC
  5
16F4
330
1A
100
AcDbEntity
  8
ZUWAKU
100
AcDbCircle
 10
32.11721274660181
 20
7.675000369116041
 30
0.0
 40
0.525
100
AcDbArc
 50
270.0
 51
0.0
  0
LINE
  5
16F5
330
1A
100
AcDbEntity
  8
ZUWAKU
100
AcDbLine
 10
32.6422127466019
 20
7.675000369116041
 30
0.0
 11
32.6422127466019
 21
13.27500036911604
 31
0.0
  0
LINE
  5
16F6
330
1A
100
AcDbEntity
  8
ZUWAKU
100
AcDbLine
 10
27.3922127466019
 20
9.425000369116041
 30
0.0
 11
27.3922127466019
 21
7.675000369116041
 31
0.0
  0
ARC
  5
16F7
330
1A
100
AcDbEntity
  8
ZUWAKU
100
AcDbCircle
 10
26.86721274660181
 20
7.675000369116041
 30
0.0
 40
0.525
100
AcDbArc
 50
270.0
 51
0.0
  0
ARC
  5
16F8
330
1A
100
AcDbEntity
  8
ZUWAKU
100
AcDbCircle
 10
26.86721274660181
 20
9.425000369116041
 30
0.0
 40
0.525
100
AcDbArc
 50
0.0
 51
90.0
  0
ARC
  5
16F9
330
1A
100
AcDbEntity
  8
ZUWAKU
100
AcDbCircle
 10
30.3672127466018
 20
7.675000369116041
 30
0.0
 40
0.525
100
AcDbArc
 50
180.0
 51
270.0
  0
ARC
  5
16FA
330
1A
100
AcDbEntity
  8
ZUWAKU
100
AcDbCircle
 10
33.30744691009056
 20
13.27500036911604
 30
0.0
 40
0.525
100
AcDbArc
 50
17.52556837372303
 51
90.0
  0
ARC
  5
16FB
330
1A
100
AcDbEntity
  8
ZUWAKU
100
AcDbCircle
 10
33.16721274660187
 20
13.27500036911604
 30
0.0
 40
0.525
100
AcDbArc
 50
90.0
 51
180.0
  0
ARC
  5
16FC
330
1A
100
AcDbEntity
  8
ZUWAKU
100
AcDbCircle
 10
41.21721274660183
 20
7.675000369116041
 30
0.0
 40
0.525
100
AcDbArc
 50
180.0
 51
270.0
  0
LINE
  5
16FD
330
1A
100
AcDbEntity
  8
ZUWAKU
100
AcDbLine
 10
36.17697858311316
 20
7.150000369116042
 30
0.0
 11
37.87586796272217
 21
7.150000369116042
 31
0.0
  0
ARC
  5
16FE
330
1A
100
AcDbEntity
  8
ZUWAKU
100
AcDbCircle
 10
37.87586796272217
 20
7.675000369116041
 30
0.0
 40
0.525
100
AcDbArc
 50
270.0
 51
17.52556837372303
  0
LINE
  5
16FF
330
1A
100
AcDbEntity
  8
ZUWAKU
100
AcDbLine
 10
38.37649886191764
 20
7.833094337283014
 30
0.0
 11
36.05010748344398
 21
15.20000036911606
 31
0.0
  0
ARC
  5
1700
330
1A
100
AcDbEntity
  8
ZUWAKU
100
AcDbCircle
 10
36.17697858311316
 20
7.675000369116041
 30
0.0
 40
0.525
100
AcDbArc
 50
197.525568373723
 51
270.0
  0
ARC
  5
1701
330
1A
100
AcDbEntity
  8
ZUWAKU
100
AcDbCircle
 10
57.84221274660183
 20
9.95000036911604
 30
0.0
 40
2.799999999999999
100
AcDbArc
 50
180.0
 51
270.0
  0
ARC
  5
1702
330
1A
100
AcDbEntity
  8
ZUWAKU
100
AcDbCircle
 10
50.1422127466019
 20
9.95000036911604
 30
0.0
 40
2.799999999999999
100
AcDbArc
 50
270.0
 51
0.0
  0
LINE
  5
1703
330
1A
100
AcDbEntity
  8
ZUWAKU
100
AcDbLine
 10
51.71206122758542
 20
14.73505087545486
 30
0.0
 11
48.80226325294064
 21
17.64484885009954
 31
0.0
  0
LINE
  5
1704
330
1A
100
AcDbEntity
  8
ZUWAKU
100
AcDbLine
 10
50.1422127466019
 20
10.47500036911604
 30
0.0
 11
50.1422127466019
 21
11.76520239447138
 31
0.0
  0
ARC
  5
1705
330
1A
100
AcDbEntity
  8
ZUWAKU
100
AcDbCircle
 10
48.74221274660181
 20
11.76520239447138
 30
0.0
 40
1.399999999999999
100
AcDbArc
 50
0.0
 51
45.0
  0
ARC
  5
1706
330
1A
100
AcDbEntity
  8
ZUWAKU
100
AcDbCircle
 10
49.61721274660181
 20
10.47500036911604
 30
0.0
 40
0.525
100
AcDbArc
 50
270.0
 51
0.0
  0
LINE
  5
1707
330
1A
100
AcDbEntity
  8
ZUWAKU
100
AcDbLine
 10
46.11721274660181
 20
7.675000369116041
 30
0.0
 11
46.11721274660181
 21
9.425000369116041
 31
0.0
  0
ARC
  5
1708
330
1A
100
AcDbEntity
  8
ZUWAKU
100
AcDbCircle
 10
46.6422127466019
 20
7.675000369116041
 30
0.0
 40
0.525
100
AcDbArc
 50
180.0
 51
270.0
  0
ARC
  5
1709
330
1A
100
AcDbEntity
  8
ZUWAKU
100
AcDbCircle
 10
42.96721274660183
 20
7.675000369116041
 30
0.0
 40
0.525
100
AcDbArc
 50
270.0
 51
0.0
  0
ARC
  5
170A
330
1A
100
AcDbEntity
  8
ZUWAKU
100
AcDbCircle
 10
46.6422127466019
 20
9.425000369116041
 30
0.0
 40
0.525
100
AcDbArc
 50
90.0
 51
180.0
  0
LINE
  5
170B
330
1A
100
AcDbEntity
  8
ZUWAKU
100
AcDbLine
 10
46.6422127466019
 20
9.95000036911604
 30
0.0
 11
49.61721274660181
 21
9.95000036911604
 31
0.0
  0
LINE
  5
170C
330
1A
100
AcDbEntity
  8
ZUWAKU
100
AcDbLine
 10
46.6422127466019
 20
7.150000369116042
 30
0.0
 11
50.1422127466019
 21
7.150000369116042
 31
0.0
  0
LINE
  5
170D
330
1A
100
AcDbEntity
  8
ZUWAKU
100
AcDbLine
 10
46.82236426561837
 20
15.66494986277722
 30
0.0
 11
49.73216224026305
 21
12.75515188813256
 31
0.0
  0
LINE
  5
170E
330
1A
100
AcDbEntity
  8
ZUWAKU
100
AcDbLine
 10
52.94221274660185
 20
9.95000036911604
 30
0.0
 11
52.94221274660185
 21
11.76520239447138
 31
0.0
  0
ARC
  5
170F
330
1A
100
AcDbEntity
  8
ZUWAKU
100
AcDbCircle
 10
48.74221274660181
 20
11.76520239447134
 30
0.0
 40
4.199999999999999
100
AcDbArc
 50
0.0
 51
45.0
  0
ARC
  5
1710
330
1A
100
AcDbEntity
  8
ZUWAKU
100
AcDbCircle
 10
58.8922127466019
 20
11.00000036911603
 30
0.0
 40
1.049999999999999
100
AcDbArc
 50
180.0
 51
270.0
  0
ARC
  5
1711
330
1A
100
AcDbEntity
  8
ZUWAKU
100
AcDbCircle
 10
61.34221274660183
 20
9.95000036911604
 30
0.0
 40
2.799999999999999
100
AcDbArc
 50
270.0
 51
0.0
  0
LINE
  5
1712
330
1A
100
AcDbEntity
  8
ZUWAKU
100
AcDbLine
 10
66.7672127466019
 20
7.150000369116042
 30
0.0
 11
68.5172127466019
 21
7.150000369116042
 31
0.0
  0
ARC
  5
1713
330
1A
100
AcDbEntity
  8
ZUWAKU
100
AcDbCircle
 10
66.7672127466019
 20
7.675000369116041
 30
0.0
 40
0.525
100
AcDbArc
 50
180.0
 51
270.0
  0
ARC
  5
1714
330
1A
100
AcDbEntity
  8
ZUWAKU
100
AcDbCircle
 10
60.29221274660187
 20
11.00000036911603
 30
0.0
 40
1.049999999999999
100
AcDbArc
 50
270.0
 51
0.0
  0
ARC
  5
1715
330
1A
100
AcDbEntity
  8
ZUWAKU
100
AcDbCircle
 10
68.5172127466019
 20
7.675000369116041
 30
0.0
 40
0.525
100
AcDbArc
 50
270.0
 51
0.0
  0
LINE
  5
1716
330
1A
100
AcDbEntity
  8
ZUWAKU
100
AcDbLine
 10
42.96721274660183
 20
23.25000036911604
 30
0.0
 11
41.21721274660183
 21
23.25000036911604
 31
0.0
  0
ARC
  5
1717
330
1A
100
AcDbEntity
  8
ZUWAKU
100
AcDbCircle
 10
32.11721274660181
 20
22.72500036911603
 30
0.0
 40
0.525
100
AcDbArc
 50
0.0
 51
90.0
  0
LINE
  5
1718
330
1A
100
AcDbEntity
  8
ZUWAKU
100
AcDbLine
 10
32.11721274660181
 20
23.25000036911604
 30
0.0
 11
30.3672127466018
 21
23.25000036911604
 31
0.0
  0
ARC
  5
1719
330
1A
100
AcDbEntity
  8
ZUWAKU
100
AcDbCircle
 10
26.86721274660181
 20
22.72500036911603
 30
0.0
 40
0.525
100
AcDbArc
 50
0.0
 51
90.0
  0
ARC
  5
171A
330
1A
100
AcDbEntity
  8
ZUWAKU
100
AcDbCircle
 10
30.3672127466018
 20
22.72500036911603
 30
0.0
 40
0.525
100
AcDbArc
 50
90.0
 51
180.0
  0
ARC
  5
171B
330
1A
100
AcDbEntity
  8
ZUWAKU
100
AcDbCircle
 10
26.86721274660181
 20
20.97500036911604
 30
0.0
 40
0.525
100
AcDbArc
 50
270.0
 51
0.0
  0
LINE
  5
171C
330
1A
100
AcDbEntity
  8
ZUWAKU
100
AcDbLine
 10
27.3922127466019
 20
22.72500036911603
 30
0.0
 11
27.3922127466019
 21
20.97500036911604
 31
0.0
  0
ARC
  5
171D
330
1A
100
AcDbEntity
  8
ZUWAKU
100
AcDbCircle
 10
41.21721274660183
 20
22.72500036911603
 30
0.0
 40
0.525
100
AcDbArc
 50
90.0
 51
180.0
  0
LINE
  5
171E
330
1A
100
AcDbEntity
  8
ZUWAKU
100
AcDbLine
 10
36.17697858311316
 20
23.25000036911604
 30
0.0
 11
37.87586796272217
 21
23.25000036911604
 31
0.0
  0
ARC
  5
171F
330
1A
100
AcDbEntity
  8
ZUWAKU
100
AcDbCircle
 10
37.87586796272217
 20
22.72500036911603
 30
0.0
 40
0.525
100
AcDbArc
 50
342.4744316262769
 51
90.0
  0
LINE
  5
1720
330
1A
100
AcDbEntity
  8
ZUWAKU
100
AcDbLine
 10
38.37649886191764
 20
22.56690640094907
 30
0.0
 11
37.31485922877982
 21
19.20504756267946
 31
0.0
  0
ARC
  5
1721
330
1A
100
AcDbEntity
  8
ZUWAKU
100
AcDbCircle
 10
36.17697858311316
 20
22.72500036911603
 30
0.0
 40
0.525
100
AcDbArc
 50
90.0
 51
162.4744316262769
  0
LINE
  5
1722
330
1A
100
AcDbEntity
  8
ZUWAKU
100
AcDbLine
 10
48.39221274660189
 20
23.25000036911604
 30
0.0
 11
51.8922127466019
 21
23.25000036911604
 31
0.0
  0
LINE
  5
1723
330
1A
100
AcDbEntity
  8
ZUWAKU
100
AcDbLine
 10
51.8922127466019
 20
20.45000036911603
 30
0.0
 11
48.91721274660188
 21
20.45000036911603
 31
0.0
  0
ARC
  5
1724
330
1A
100
AcDbEntity
  8
ZUWAKU
100
AcDbCircle
 10
48.91721274660188
 20
19.92500036911604
 30
0.0
 40
0.525
100
AcDbArc
 50
90.0
 51
180.0
  0
LINE
  5
1725
330
1A
100
AcDbEntity
  8
ZUWAKU
100
AcDbLine
 10
48.39221274660189
 20
19.92500036911604
 30
0.0
 11
48.39221274660189
 21
18.6347983437607
 31
0.0
  0
ARC
  5
1726
330
1A
100
AcDbEntity
  8
ZUWAKU
100
AcDbCircle
 10
42.96721274660183
 20
22.72500036911603
 30
0.0
 40
0.525
100
AcDbArc
 50
0.0
 51
90.0
  0
LINE
  5
1727
330
1A
100
AcDbEntity
  8
ZUWAKU
100
AcDbLine
 10
45.59221274660183
 20
20.45000036911603
 30
0.0
 11
45.59221274660183
 21
18.6347983437607
 31
0.0
  0
ARC
  5
1728
330
1A
100
AcDbEntity
  8
ZUWAKU
100
AcDbCircle
 10
48.39221274660189
 20
20.45000036911603
 30
0.0
 40
2.799999999999999
100
AcDbArc
 50
90.0
 51
180.0
  0
ARC
  5
1729
330
1A
100
AcDbEntity
  8
ZUWAKU
100
AcDbCircle
 10
57.31721274660185
 20
22.72500036911603
 30
0.0
 40
0.525
100
AcDbArc
 50
0.0
 51
90.0
  0
ARC
  5
172A
330
1A
100
AcDbEntity
  8
ZUWAKU
100
AcDbCircle
 10
55.56721274660185
 20
22.72500036911603
 30
0.0
 40
0.525
100
AcDbArc
 50
90.0
 51
180.0
  0
LINE
  5
172B
330
1A
100
AcDbEntity
  8
ZUWAKU
100
AcDbLine
 10
57.31721274660185
 20
23.25000036911604
 30
0.0
 11
55.56721274660185
 21
23.25000036911604
 31
0.0
  0
ARC
  5
172C
330
1A
100
AcDbEntity
  8
ZUWAKU
100
AcDbCircle
 10
51.8922127466019
 20
22.72500036911603
 30
0.0
 40
0.525
100
AcDbArc
 50
0.0
 51
90.0
  0
ARC
  5
172D
330
1A
100
AcDbEntity
  8
ZUWAKU
100
AcDbCircle
 10
51.8922127466019
 20
20.97500036911604
 30
0.0
 40
0.525
100
AcDbArc
 50
270.0
 51
0.0
  0
LINE
  5
172E
330
1A
100
AcDbEntity
  8
ZUWAKU
100
AcDbLine
 10
52.41721274660188
 20
22.72500036911603
 30
0.0
 11
52.41721274660188
 21
20.97500036911604
 31
0.0
  0
LINE
  5
172F
330
1A
100
AcDbEntity
  8
ZUWAKU
100
AcDbLine
 10
68.5172127466019
 20
23.25000036911604
 30
0.0
 11
66.7672127466019
 21
23.25000036911604
 31
0.0
  0
ARC
  5
1730
330
1A
100
AcDbEntity
  8
ZUWAKU
100
AcDbCircle
 10
66.7672127466019
 20
22.72500036911603
 30
0.0
 40
0.525
100
AcDbArc
 50
90.0
 51
180.0
  0
ARC
  5
1731
330
1A
100
AcDbEntity
  8
ZUWAKU
100
AcDbCircle
 10
63.61721274660181
 20
22.72500036911603
 30
0.0
 40
0.525
100
AcDbArc
 50
0.0
 51
90.0
  0
LINE
  5
1732
330
1A
100
AcDbEntity
  8
ZUWAKU
100
AcDbLine
 10
63.61721274660181
 20
23.25000036911604
 30
0.0
 11
61.86721274660181
 21
23.25000036911604
 31
0.0
  0
ARC
  5
1733
330
1A
100
AcDbEntity
  8
ZUWAKU
100
AcDbCircle
 10
61.86721274660181
 20
22.72500036911603
 30
0.0
 40
0.525
100
AcDbArc
 50
90.0
 51
180.0
  0
ARC
  5
1734
330
1A
100
AcDbEntity
  8
ZUWAKU
100
AcDbCircle
 10
68.5172127466019
 20
22.72500036911603
 30
0.0
 40
0.525
100
AcDbArc
 50
0.0
 51
90.0
  0
TEXT
  5
1735
330
1A
100
AcDbEntity
  8
MOJI
100
AcDbText
 10
239.8272032726718
 20
3.204921426523458
 30
0.0
 40
5.599999999999999
  1
ＲＶ１０５－Ｌ１５０
 41
0.9
  7
ｽﾀｲﾙ1
100
AcDbText
  0
TEXT
  5
1736
330
1A
100
AcDbEntity
  8
MOJI
100
AcDbText
 10
239.8272032726718
 20
18.00492142652342
 30
0.0
 40
5.599999999999999
  1
亜鉛メッキ金具打込丸足（吊）
 41
0.9
  7
ｽﾀｲﾙ1
100
AcDbText
  0
LINE
  5
1737
330
1A
100
AcDbEntity
  8
ZUWAKU
100
AcDbLine
 10
208.2466018818886
 20
30.00000036911603
 30
0.0
 11
208.2466018818886
 21
0.8000003691161055
 31
0.0
  0
LINE
  5
1738
330
1A
100
AcDbEntity
  8
ZUWAKU
100
AcDbLine
 10
208.6466018818884
 20
30.00000036911603
 30
0.0
 11
208.6466018818887
 21
0.8000003691161055
 31
0.0
  0
LINE
  5
1739
330
1A
100
AcDbEntity
  8
ZUWAKU
100
AcDbLine
 10
208.4466018818884
 20
30.00000036911603
 30
0.0
 11
208.4466018818886
 21
0.8000003691161055
 31
0.0
  0
TEXT
  5
173A
330
1A
100
AcDbEntity
  8
ZUWAKU
100
AcDbText
 10
209.7240469040982
 20
9.655356907501655
 30
0.0
 40
4.0
  1
サイズ
 41
0.9
  7
ｽﾀｲﾙ1
100
AcDbText
  0
TEXT
  5
173B
330
1A
100
AcDbEntity
  8
ZUWAKU
100
AcDbText
 10
209.724046904098
 20
24.05535690750161
 30
0.0
 40
4.0
  1
品名
 41
0.9
  7
ｽﾀｲﾙ1
100
AcDbText
  0
LINE
  5
173C
330
1A
100
AcDbEntity
  8
ZUWAKU
100
AcDbLine
 10
648.8172031020249
 20
15.20000036911606
 30
0.0
 11
697.249011140362
 21
15.20000036911607
 31
0.0
  0
LINE
  5
173D
330
1A
100
AcDbEntity
  8
ZUWAKU
100
AcDbLine
 10
648.8172031020251
 20
15.40000036911607
 30
0.0
 11
697.249011140362
 21
15.40000036911607
 31
0.0
  0
LINE
  5
173E
330
1A
100
AcDbEntity
  8
ZUWAKU
100
AcDbLine
 10
648.8172031020249
 20
15.60000036911607
 30
0.0
 11
697.249011140362
 21
15.60000036911607
 31
0.0
  0
TEXT
  5
173F
330
1A
100
AcDbEntity
  8
ZUWAKU
100
AcDbText
 10
658.2039382791231
 20
18.00492142652342
 30
0.0
 40
5.599999999999999
  1
　　．　　．　　
 41
0.9
  7
ｽﾀｲﾙ1
100
AcDbText
  0
LINE
  5
1740
330
1A
100
AcDbEntity
  8
ZUWAKU
100
AcDbLine
 10
505.1991800899616
 20
15.20000036911607
 30
0.0
 11
552.5269563579331
 21
15.20000036911607
 31
0.0
  0
LINE
  5
1741
330
1A
100
AcDbEntity
  8
ZUWAKU
100
AcDbLine
 10
505.1991800899616
 20
15.40000036911607
 30
0.0
 11
552.5269563579331
 21
15.40000036911607
 31
0.0
  0
LINE
  5
1742
330
1A
100
AcDbEntity
  8
ZUWAKU
100
AcDbLine
 10
505.1991800899616
 20
15.60000036911607
 30
0.0
 11
552.5269563579331
 21
15.60000036911607
 31
0.0
  0
TEXT
  5
1743
330
1A
100
AcDbEntity
  8
MOJI
100
AcDbText
 10
464.5946265950597
 20
11.94261809077602
 30
0.0
 40
5.599999999999999
  1
ＬＪ５４Ｇ
 41
0.9
  7
ｽﾀｲﾙ1
100
AcDbText
  0
LINE
  5
1744
330
1A
100
AcDbEntity
  8
ZUWAKU
100
AcDbLine
 10
447.6243645628119
 20
30.00000036911603
 30
0.0
 11
447.6243645628121
 21
0.8000003691161055
 31
0.0
  0
LINE
  5
1745
330
1A
100
AcDbEntity
  8
ZUWAKU
100
AcDbLine
 10
447.8243645628119
 20
30.00000036911603
 30
0.0
 11
447.8243645628122
 21
0.8000003691161055
 31
0.0
  0
LINE
  5
1746
330
1A
100
AcDbEntity
  8
ZUWAKU
100
AcDbLine
 10
447.4243645628121
 20
30.00000036911603
 30
0.0
 11
447.4243645628121
 21
0.8000003691161055
 31
0.0
  0
TEXT
  5
1747
330
1A
100
AcDbEntity
  8
MOJI
100
AcDbText
 10
528.0409085641336
 20
18.00492142652342
 30
0.0
 40
5.599999999999999
  1
Ａ３
 41
0.9
  7
ｽﾀｲﾙ1
100
AcDbText
  0
LINE
  5
1748
330
1A
100
AcDbEntity
  8
ZUWAKU
100
AcDbLine
 10
504.9991800899615
 20
30.00000036911603
 30
0.0
 11
504.9991800899618
 21
0.8000003691161055
 31
0.0
  0
LINE
  5
1749
330
1A
100
AcDbEntity
  8
ZUWAKU
100
AcDbLine
 10
505.1991800899616
 20
30.00000036911603
 30
0.0
 11
505.1991800899618
 21
0.8000003691161055
 31
0.0
  0
LINE
  5
174A
330
1A
100
AcDbEntity
  8
ZUWAKU
100
AcDbLine
 10
504.7991800899617
 20
30.00000036911603
 30
0.0
 11
504.7991800899617
 21
0.8000003691161055
 31
0.0
  0
TEXT
  5
174B
330
1A
100
AcDbEntity
  8
ZUWAKU
100
AcDbText
 10
506.6766251121714
 20
9.655356907501655
 30
0.0
 40
4.0
  1
縮尺
 41
0.9
  7
ｽﾀｲﾙ1
100
AcDbText
  0
TEXT
  5
174C
330
1A
100
AcDbEntity
  8
MOJI
100
AcDbText
 10
528.0409085641336
 20
3.204921426523458
 30
0.0
 40
5.599999999999999
  1
１/２
 41
0.9
  7
ｽﾀｲﾙ1
100
AcDbText
  0
TEXT
  5
174D
330
1A
100
AcDbEntity
  8
ZUWAKU
100
AcDbText
 10
449.3018095850215
 20
24.05535690750161
 30
0.0
 40
4.0
  1
品番
 41
0.9
  7
ｽﾀｲﾙ1
100
AcDbText
  0
TEXT
  5
174E
330
1A
100
AcDbEntity
  8
ZUWAKU
100
AcDbText
 10
506.6766251121712
 20
24.05535690750161
 30
0.0
 40
4.0
  1
用紙
 41
0.9
  7
ｽﾀｲﾙ1
100
AcDbText
  0
LINE
  5
174F
330
1A
100
AcDbEntity
  8
ZUWAKU
100
AcDbLine
 10
648.6172031020251
 20
30.00000036911603
 30
0.0
 11
648.6172031020252
 21
0.8000003691161055
 31
0.0
  0
LINE
  5
1750
330
1A
100
AcDbEntity
  8
ZUWAKU
100
AcDbLine
 10
648.8172031020251
 20
30.00000036911603
 30
0.0
 11
648.8172031020253
 21
0.8000003691161055
 31
0.0
  0
LINE
  5
1751
330
1A
100
AcDbEntity
  8
ZUWAKU
100
AcDbLine
 10
648.4172031020253
 20
30.00000036911603
 30
0.0
 11
648.4172031020253
 21
0.8000003691161055
 31
0.0
  0
LINE
  5
1752
330
1A
100
AcDbEntity
  8
ZUWAKU
100
AcDbLine
 10
552.726956357933
 20
30.00000036911603
 30
0.0
 11
552.7269563579332
 21
0.8000003691161055
 31
0.0
  0
LINE
  5
1753
330
1A
100
AcDbEntity
  8
ZUWAKU
100
AcDbLine
 10
552.926956357933
 20
30.00000036911603
 30
0.0
 11
552.9269563579332
 21
0.8000003691161055
 31
0.0
  0
LINE
  5
1754
330
1A
100
AcDbEntity
  8
ZUWAKU
100
AcDbLine
 10
552.5269563579331
 20
30.00000036911603
 30
0.0
 11
552.5269563579331
 21
0.8000003691161055
 31
0.0
  0
TEXT
  5
1755
330
1A
100
AcDbEntity
  8
ZUWAKU
100
AcDbText
 10
650.2946481242347
 20
24.05535690750161
 30
0.0
 40
4.0
  1
DATE
 41
0.9
  7
ｽﾀｲﾙ1
100
AcDbText
  0
LINE
  5
1756
330
1A
100
AcDbEntity
  8
ZUWAKU
100
AcDbLine
 10
697.249011140362
 20
30.00000036911603
 30
0.0
 11
697.249011140362
 21
0.8000003691161055
 31
0.0
  0
LINE
  5
1757
330
1A
100
AcDbEntity
  8
ZUWAKU
100
AcDbLine
 10
697.4490111403619
 20
30.00000036911603
 30
0.0
 11
697.4490111403619
 21
0.8000003691161055
 31
0.0
  0
LINE
  5
1758
330
1A
100
AcDbEntity
  8
ZUWAKU
100
AcDbLine
 10
697.6490111403618
 20
30.00000036911603
 30
0.0
 11
697.649011140362
 21
0.8000003691161055
 31
0.0
  0
LINE
  5
1759
330
1A
100
AcDbEntity
  8
ZUWAKU
100
AcDbLine
 10
697.8490111403618
 20
30.00000036911603
 30
0.0
 11
697.8490111403621
 21
0.8000003691161055
 31
0.0
  0
TEXT
  5
175A
330
1A
100
AcDbEntity
  8
ZUWAKU
100
AcDbText
 10
708.5280847840644
 20
17.55383970480284
 30
0.0
 40
6.0
  1
積水化学工業株式会社
 41
0.9
  7
ｽﾀｲﾙ1
100
AcDbText
  0
TEXT
  5
175B
330
1A
100
AcDbEntity
  8
ZUWAKU
100
AcDbText
 10
708.5280847840644
 20
6.648840682970103
 30
0.0
 40
6.0
  1
建材事業部
 41
0.9
  7
ｽﾀｲﾙ1
100
AcDbText
  0
VIEWPORT
  5
22
330
17
100
AcDbEntity
 67
     1
  8
0
100
AcDbViewport
 10
313.6808219178082
 20
148.5
 30
0.0
 40
627.3616438356165
 41
297.0
 68
     2
 69
     1
1001
ACAD
1000
MVIEW
1002
{
1070
    16
1010
0.0
1020
0.0
1030
0.0
1010
0.0
1020
0.0
1030
1.0
1040
0.0
1040
297.0
1040
313.6808219178082
1040
148.5
1040
50.0
1040
0.0
1040
0.0
1070
     0
1070
   100
1070
     1
1070
     0
1070
     0
1070
     0
1070
     0
1070
     0
1040
0.0
1040
0.0
1040
0.0
1040
1.0
1040
1.0
1040
10.0
1040
10.0
1070
     0
1002
{
1002
}
1002
}
  0
VIEWPORT
  5
64
330
17
100
AcDbEntity
 67
     1
  8
VIEWPORT
100
AcDbViewport
 10
210.0
 20
148.5
 30
0.0
 40
420.0
 41
297.0
 68
     1
 69
     2
1001
ACAD
1000
MVIEW
1002
{
1070
    16
1010
0.0
1020
0.0
1030
0.0
1010
0.0
1020
0.0
1030
1.0
1040
0.0
1040
605.8799999999998
1040
420.0
1040
297.0
1040
50.0
1040
0.0
1040
0.0
1070
     0
1070
   100
1070
     1
1070
     0
1070
     0
1070
     0
1070
     0
1070
     0
1040
0.0
1040
0.0
1040
0.0
1040
10.0
1040
10.0
1040
0.0
1040
0.0
1070
     0
1002
{
1002
}
1002
}
  0
ENDSEC
  0
SECTION
  2
OBJECTS
  0
DICTIONARY
  5
C
330
0
100
AcDbDictionary
  3
ACAD_GROUP
350
D
  3
ACAD_LAYOUT
350
14C
  3
ACAD_MLINESTYLE
350
E
  3
ACAD_PLOTSETTINGS
350
14D
  3
ACAD_PLOTSTYLENAME
350
14A
  3
ACADDIM
350
4A5
  3
ACDBHEADERROUNDTRIPXREC
350
17A4
  0
DICTIONARY
  5
506
330
1A
100
AcDbDictionary
280
     1
  3
ACAD_LAYOUTSELFREF
360
17C6
  0
DICTIONARY
  5
504
330
17
100
AcDbDictionary
280
     1
  3
ACAD_LAYOUTSELFREF
360
17C5
  0
DICTIONARY
  5
D
102
{ACAD_REACTORS
330
C
102
}
330
C
100
AcDbDictionary
  0
DICTIONARY
  5
14C
102
{ACAD_REACTORS
330
C
102
}
330
C
100
AcDbDictionary
  0
DICTIONARY
  5
E
102
{ACAD_REACTORS
330
C
102
}
330
C
100
AcDbDictionary
  3
STANDARD
350
13
  0
DICTIONARY
  5
14D
102
{ACAD_REACTORS
330
C
102
}
330
C
100
AcDbDictionary
  0
ACDBDICTIONARYWDFLT
  5
14A
102
{ACAD_REACTORS
330
C
102
}
330
C
100
AcDbDictionary
281
     1
  3
Normal
350
14B
100
AcDbDictionaryWithDefault
340
14B
1001
ACAD
1000
TREAT_AS_HARD
1070
     0
1000
TREAT_AS_HARD
1070
     0
1000
TREAT_AS_HARD
1070
     0
1000
TREAT_AS_HARD
1070
     0
1000
TREAT_AS_HARD
1070
     0
1000
TREAT_AS_HARD
1070
     0
1000
TREAT_AS_HARD
1070
     0
1000
TREAT_AS_HARD
1070
     0
1000
TREAT_AS_HARD
1070
     0
  0
XRECORD
  5
4A5
102
{ACAD_REACTORS
330
C
102
}
330
C
100
AcDbXrecord
 90
   990106
  3

 60
     0
 61
     0
 62
     1
 63
     3
 64
     0
 65
     0
 66
     0
 67
     3
 68
     1
 69
     0
 70
     0
 71
     0
 72
     0
 40
0.0
170
     0
340
0
  0
DICTIONARY
  5
17A4
102
{ACAD_REACTORS
330
C
102
}
330
C
100
AcDbDictionary
  3
TSTACKALIGN
350
17A5
  3
TSTACKSIZE
350
17A6
  3
HYPERLINKBASE
350
17A7
  3
STYLESHEET
350
17A8
  3
LAYOUTDICT
350
17A9
  3
PLOTSETDICT
350
17AA
  3
PLOTSTYLNAMDICT
350
17AB
  3
LWETCUNION
350
17AC
  3
INSUNITS
350
17AD
  3
CEPSNTYPE
350
17AE
  3
FINGERPRINTGUID
350
17AF
  3
VERSIONGUID
350
17B0
  3
PSVPSCALE
350
17B1
  3
DIMSTYLEDATA
350
17B2
  3
PUCSORTHOREF
350
17B3
  3
PUCSORTHOVIEW
350
17B4
  3
PUCSBASE
350
17B5
  3
PUCSORGTOP
350
17B6
  3
PUCSORGBOTTOM
350
17B7
  3
PUCSORGLEFT
350
17B8
  3
PUCSORGRIGHT
350
17B9
  3
PUCSORGFRONT
350
17BA
  3
PUCSORGBACK
350
17BB
  3
UCSORTHOREF
350
17BC
  3
UCSORTHOVIEW
350
17BD
  3
UCSBASE
350
17BE
  3
UCSORGTOP
350
17BF
  3
UCSORGBOTTOM
350
17C0
  3
UCSORGLEFT
350
17C1
  3
UCSORGRIGHT
350
17C2
  3
UCSORGFRONT
350
17C3
  3
UCSORGBACK
350
17C4
  0
XRECORD
  5
17C6
102
{ACAD_REACTORS
330
506
102
}
330
506
100
AcDbXrecord
340
1A
  0
XRECORD
  5
17C5
102
{ACAD_REACTORS
330
504
102
}
330
504
100
AcDbXrecord
340
17
  0
MLINESTYLE
  5
13
102
{ACAD_REACTORS
330
E
102
}
330
E
100
AcDbMlineStyle
  2
STANDARD
 70
     0
  3

 62
     0
 51
90.0
 52
90.0
 71
     2
 49
0.5
 62
   256
  6
BYLAYER
 49
-0.5
 62
   256
  6
BYLAYER
  0
ACDBPLACEHOLDER
  5
14B
102
{ACAD_REACTORS
330
14A
102
}
330
14A
100
AcDbPlaceHolder
280
     0
  0
XRECORD
  5
17A5
102
{ACAD_REACTORS
330
17A4
102
}
330
17A4
100
AcDbXrecord
 90
        1
  0
XRECORD
  5
17A6
102
{ACAD_REACTORS
330
17A4
102
}
330
17A4
100
AcDbXrecord
 90
       70
  0
XRECORD
  5
17A7
102
{ACAD_REACTORS
330
17A4
102
}
330
17A4
100
AcDbXrecord
  1

  0
XRECORD
  5
17A8
102
{ACAD_REACTORS
330
17A4
102
}
330
17A4
100
AcDbXrecord
  1
systemprinter.ctb
  0
XRECORD
  5
17A9
102
{ACAD_REACTORS
330
17A4
102
}
330
17A4
100
AcDbXrecord
340
14C
  0
XRECORD
  5
17AA
102
{ACAD_REACTORS
330
17A4
102
}
330
17A4
100
AcDbXrecord
340
14D
  0
XRECORD
  5
17AB
102
{ACAD_REACTORS
330
17A4
102
}
330
17A4
100
AcDbXrecord
340
14A
  0
XRECORD
  5
17AC
102
{ACAD_REACTORS
330
17A4
102
}
330
17A4
100
AcDbXrecord
 90
    10781
  0
XRECORD
  5
17AD
102
{ACAD_REACTORS
330
17A4
102
}
330
17A4
100
AcDbXrecord
 90
        0
  0
XRECORD
  5
17AE
102
{ACAD_REACTORS
330
17A4
102
}
330
17A4
100
AcDbXrecord
 90
        0
  0
XRECORD
  5
17AF
102
{ACAD_REACTORS
330
17A4
102
}
330
17A4
100
AcDbXrecord
  1
{75772F4A-CE5A-11D3-932C-444553540000}
  0
XRECORD
  5
17B0
102
{ACAD_REACTORS
330
17A4
102
}
330
17A4
100
AcDbXrecord
  1
{26F49D71-B17D-42A5-BF87-8A3BC2583D1C}
  0
XRECORD
  5
17B1
102
{ACAD_REACTORS
330
17A4
102
}
330
17A4
100
AcDbXrecord
 40
0.0
  0
XRECORD
  5
17B2
102
{ACAD_REACTORS
330
17A4
102
}
330
17A4
100
AcDbXrecord
1000
DSTYLE
1002
{
1070
   341
340
6D
1070
   343
340
6D
1070
   344
340
6D
1070
   371
 70
    -1
1070
   372
 70
    -1
1002
}
  0
XRECORD
  5
17B3
102
{ACAD_REACTORS
330
17A4
102
}
330
17A4
100
AcDbXrecord
340
0
  0
XRECORD
  5
17B4
102
{ACAD_REACTORS
330
17A4
102
}
330
17A4
100
AcDbXrecord
 70
     0
  0
XRECORD
  5
17B5
102
{ACAD_REACTORS
330
17A4
102
}
330
17A4
100
AcDbXrecord
340
0
  0
XRECORD
  5
17B6
102
{ACAD_REACTORS
330
17A4
102
}
330
17A4
100
AcDbXrecord
 10
0.0
 20
0.0
 30
0.0
  0
XRECORD
  5
17B7
102
{ACAD_REACTORS
330
17A4
102
}
330
17A4
100
AcDbXrecord
 10
0.0
 20
0.0
 30
0.0
  0
XRECORD
  5
17B8
102
{ACAD_REACTORS
330
17A4
102
}
330
17A4
100
AcDbXrecord
 10
0.0
 20
0.0
 30
0.0
  0
XRECORD
  5
17B9
102
{ACAD_REACTORS
330
17A4
102
}
330
17A4
100
AcDbXrecord
 10
0.0
 20
0.0
 30
0.0
  0
XRECORD
  5
17BA
102
{ACAD_REACTORS
330
17A4
102
}
330
17A4
100
AcDbXrecord
 10
0.0
 20
0.0
 30
0.0
  0
XRECORD
  5
17BB
102
{ACAD_REACTORS
330
17A4
102
}
330
17A4
100
AcDbXrecord
 10
0.0
 20
0.0
 30
0.0
  0
XRECORD
  5
17BC
102
{ACAD_REACTORS
330
17A4
102
}
330
17A4
100
AcDbXrecord
340
0
  0
XRECORD
  5
17BD
102
{ACAD_REACTORS
330
17A4
102
}
330
17A4
100
AcDbXrecord
 70
     0
  0
XRECORD
  5
17BE
102
{ACAD_REACTORS
330
17A4
102
}
330
17A4
100
AcDbXrecord
340
0
  0
XRECORD
  5
17BF
102
{ACAD_REACTORS
330
17A4
102
}
330
17A4
100
AcDbXrecord
 10
0.0
 20
0.0
 30
0.0
  0
XRECORD
  5
17C0
102
{ACAD_REACTORS
330
17A4
102
}
330
17A4
100
AcDbXrecord
 10
0.0
 20
0.0
 30
0.0
  0
XRECORD
  5
17C1
102
{ACAD_REACTORS
330
17A4
102
}
330
17A4
100
AcDbXrecord
 10
0.0
 20
0.0
 30
0.0
  0
XRECORD
  5
17C2
102
{ACAD_REACTORS
330
17A4
102
}
330
17A4
100
AcDbXrecord
 10
0.0
 20
0.0
 30
0.0
  0
XRECORD
  5
17C3
102
{ACAD_REACTORS
330
17A4
102
}
330
17A4
100
AcDbXrecord
 10
0.0
 20
0.0
 30
0.0
  0
XRECORD
  5
17C4
102
{ACAD_REACTORS
330
17A4
102
}
330
17A4
100
AcDbXrecord
 10
0.0
 20
0.0
 30
0.0
  0
ENDSEC
  0
EOF
