  0
SECTION
  2
HEADER
  9
$ACADVER
  1
AC1014
  9
$ACADMAINTVER
 70
     9
  9
$DWGCODEPAGE
  3
ANSI_932
  9
$INSBASE
 10
0.0
 20
0.0
 30
0.0
  9
$EXTMIN
 10
-0.0256328098773793
 20
-0.0181260584133725
 30
-0.0015258207003583
  9
$EXTMAX
 10
797.6000995626677
 20
551.6452344880035
 30
0.0000000349246037
  9
$LIMMIN
 10
0.0
 20
0.0
  9
$LIMMAX
 10
840.0
 20
594.0
  9
$ORTHOMODE
 70
     1
  9
$REGENMODE
 70
     1
  9
$FILLMODE
 70
     1
  9
$QTEXTMODE
 70
     0
  9
$MIRRTEXT
 70
     1
  9
$DRAGMODE
 70
     2
  9
$LTSCALE
 40
10.0
  9
$OSMODE
 70
    35
  9
$ATTMODE
 70
     1
  9
$TEXTSIZE
 40
5.0
  9
$TRACEWID
 40
1.0
  9
$TEXTSTYLE
  7
STANDARD
  9
$CLAYER
  8
SUNPOU
  9
$CELTYPE
  6
BYLAYER
  9
$CECOLOR
 62
   256
  9
$CELTSCALE
 40
1.0
  9
$DELOBJ
 70
     1
  9
$DISPSILH
 70
     0
  9
$DIMSCALE
 40
1.0
  9
$DIMASZ
 40
3.0
  9
$DIMEXO
 40
6.0
  9
$DIMDLI
 40
14.0
  9
$DIMRND
 40
0.0
  9
$DIMDLE
 40
0.0
  9
$DIMEXE
 40
3.0
  9
$DIMTP
 40
0.0
  9
$DIMTM
 40
0.0
  9
$DIMTXT
 40
6.0
  9
$DIMCEN
 40
10.0
  9
$DIMTSZ
 40
0.0
  9
$DIMTOL
 70
     0
  9
$DIMLIM
 70
     0
  9
$DIMTIH
 70
     0
  9
$DIMTOH
 70
     0
  9
$DIMSE1
 70
     0
  9
$DIMSE2
 70
     0
  9
$DIMTAD
 70
     3
  9
$DIMZIN
 70
     0
  9
$DIMBLK
  1

  9
$DIMASO
 70
     1
  9
$DIMSHO
 70
     1
  9
$DIMPOST
  1

  9
$DIMAPOST
  1

  9
$DIMALT
 70
     0
  9
$DIMALTD
 70
     2
  9
$DIMALTF
 40
25.4
  9
$DIMLFAC
 40
1.0
  9
$DIMTOFL
 70
     1
  9
$DIMTVP
 40
0.0
  9
$DIMTIX
 70
     0
  9
$DIMSOXD
 70
     0
  9
$DIMSAH
 70
     1
  9
$DIMBLK1
  1
OPEN
  9
$DIMBLK2
  1
OPEN
  9
$DIMSTYLE
  2
STANDARD
  9
$DIMCLRD
 70
   256
  9
$DIMCLRE
 70
   256
  9
$DIMCLRT
 70
   256
  9
$DIMTFAC
 40
1.0
  9
$DIMGAP
 40
2.0
  9
$DIMJUST
 70
     0
  9
$DIMSD1
 70
     0
  9
$DIMSD2
 70
     0
  9
$DIMTOLJ
 70
     1
  9
$DIMTZIN
 70
     0
  9
$DIMALTZ
 70
     0
  9
$DIMALTTZ
 70
     0
  9
$DIMFIT
 70
     3
  9
$DIMUPT
 70
     0
  9
$DIMUNIT
 70
     2
  9
$DIMDEC
 70
     0
  9
$DIMTDEC
 70
     0
  9
$DIMALTU
 70
     2
  9
$DIMALTTD
 70
     2
  9
$DIMTXSTY
  7
STANDARD
  9
$DIMAUNIT
 70
     0
  9
$LUNITS
 70
     2
  9
$LUPREC
 70
     4
  9
$SKETCHINC
 40
1.0
  9
$FILLETRAD
 40
1.0
  9
$AUNITS
 70
     0
  9
$AUPREC
 70
     0
  9
$MENU
  1
.
  9
$ELEVATION
 40
0.0
  9
$PELEVATION
 40
0.0
  9
$THICKNESS
 40
0.0
  9
$LIMCHECK
 70
     0
  9
$BLIPMODE
 70
     0
  9
$CHAMFERA
 40
20.0
  9
$CHAMFERB
 40
20.0
  9
$CHAMFERC
 40
40.0
  9
$CHAMFERD
 40
0.0
  9
$SKPOLY
 70
     0
  9
$TDCREATE
 40
2451591.485258449
  9
$TDUPDATE
 40
2453805.465361319
  9
$TDINDWG
 40
0.0951485648
  9
$TDUSRTIMER
 40
0.0951485648
  9
$USRTIMER
 70
     1
  9
$ANGBASE
 50
0.0
  9
$ANGDIR
 70
     0
  9
$PDMODE
 70
     0
  9
$PDSIZE
 40
0.0
  9
$PLINEWID
 40
0.0
  9
$COORDS
 70
     1
  9
$SPLFRAME
 70
     0
  9
$SPLINETYPE
 70
     6
  9
$SPLINESEGS
 70
     8
  9
$ATTDIA
 70
     0
  9
$ATTREQ
 70
     1
  9
$HANDLING
 70
 10241
  9
$HANDSEED
  5
1539
  9
$SURFTAB1
 70
     6
  9
$SURFTAB2
 70
     6
  9
$SURFTYPE
 70
     6
  9
$SURFU
 70
     6
  9
$SURFV
 70
     6
  9
$UCSNAME
  2

  9
$UCSORG
 10
0.0
 20
0.0
 30
0.0
  9
$UCSXDIR
 10
1.0
 20
0.0
 30
0.0
  9
$UCSYDIR
 10
0.0
 20
1.0
 30
0.0
  9
$PUCSNAME
  2

  9
$PUCSORG
 10
0.0
 20
0.0
 30
0.0
  9
$PUCSXDIR
 10
1.0
 20
0.0
 30
0.0
  9
$PUCSYDIR
 10
0.0
 20
1.0
 30
0.0
  9
$USERI1
 70
     0
  9
$USERI2
 70
     0
  9
$USERI3
 70
     0
  9
$USERI4
 70
     0
  9
$USERI5
 70
     0
  9
$USERR1
 40
0.0
  9
$USERR2
 40
0.0
  9
$USERR3
 40
0.0
  9
$USERR4
 40
0.0
  9
$USERR5
 40
0.0
  9
$WORLDVIEW
 70
     1
  9
$SHADEDGE
 70
     3
  9
$SHADEDIF
 70
    70
  9
$TILEMODE
 70
     1
  9
$MAXACTVP
 70
    16
  9
$PINSBASE
 10
0.0
 20
0.0
 30
0.0
  9
$PLIMCHECK
 70
     0
  9
$PEXTMIN
 10
0.0
 20
0.0
 30
0.0
  9
$PEXTMAX
 10
420.0
 20
297.0
 30
0.0
  9
$PLIMMIN
 10
0.0
 20
0.0
  9
$PLIMMAX
 10
420.0
 20
297.0
  9
$UNITMODE
 70
     0
  9
$VISRETAIN
 70
     0
  9
$PLINEGEN
 70
     0
  9
$PSLTSCALE
 70
     1
  9
$TREEDEPTH
 70
  3020
  9
$PICKSTYLE
 70
     1
  9
$CMLSTYLE
  2
STANDARD
  9
$CMLJUST
 70
     0
  9
$CMLSCALE
 40
1.0
  9
$PROXYGRAPHICS
 70
     1
  9
$MEASUREMENT
 70
     1
  0
ENDSEC
  0
SECTION
  2
CLASSES
  0
CLASS
  1
ACDBDICTIONARYWDFLT
  2
AcDbDictionaryWithDefault
  3
AutoCAD 2000
 90
        0
280
     0
281
     0
  0
CLASS
  1
ACDBPLACEHOLDER
  2
AcDbPlaceHolder
  3
AutoCAD 2000
 90
        0
280
     0
281
     0
  0
CLASS
  1
LAYOUT
  2
AcDbLayout
  3
AutoCAD 2000
 90
        0
280
     0
281
     0
  0
CLASS
  1
LONG_TRANSACTION
  2
AcDbLongTransaction
  3
AutoCAD 2000
 90
        0
280
     0
281
     0
  0
CLASS
  1
LWPOLYLINE
  2
AcDbPolyline
  3
AutoCAD 2000
 90
        0
280
     0
281
     1
  0
CLASS
  1
HATCH
  2
AcDbHatch
  3
AutoCAD 2000
 90
        0
280
     0
281
     1
  0
CLASS
  1
XRECORD
  2
AcDbXrecord
  3
AutoCAD 2000
 90
        0
280
     0
281
     0
  0
CLASS
  1
LONG_TRANSACTION
  2
AcDbLongTransaction
  3
AutoCAD 2000
 90
        0
280
     0
281
     0
  0
CLASS
  1
LWPOLYLINE
  2
AcDbPolyline
  3
AutoCAD 2000
 90
        0
280
     0
281
     1
  0
CLASS
  1
HATCH
  2
AcDbHatch
  3
AutoCAD 2000
 90
        0
280
     0
281
     1
  0
CLASS
  1
XRECORD
  2
AcDbXrecord
  3
AutoCAD 2000
 90
        0
280
     0
281
     0
  0
CLASS
  1
LONG_TRANSACTION
  2
AcDbLongTransaction
  3
AutoCAD 2000
 90
        0
280
     0
281
     0
  0
CLASS
  1
LWPOLYLINE
  2
AcDbPolyline
  3
AutoCAD 2000
 90
        0
280
     0
281
     1
  0
CLASS
  1
HATCH
  2
AcDbHatch
  3
AutoCAD 2000
 90
        0
280
     0
281
     1
  0
CLASS
  1
XRECORD
  2
AcDbXrecord
  3
AutoCAD 2000
 90
        0
280
     0
281
     0
  0
CLASS
  1
LONG_TRANSACTION
  2
AcDbLongTransaction
  3
AutoCAD 2000
 90
        0
280
     0
281
     0
  0
CLASS
  1
LWPOLYLINE
  2
AcDbPolyline
  3
AutoCAD 2000
 90
        0
280
     0
281
     1
  0
CLASS
  1
HATCH
  2
AcDbHatch
  3
AutoCAD 2000
 90
        0
280
     0
281
     1
  0
CLASS
  1
XRECORD
  2
AcDbXrecord
  3
AutoCAD 2000
 90
        0
280
     0
281
     0
  0
CLASS
  1
LONG_TRANSACTION
  2
AcDbLongTransaction
  3
AutoCAD 2000
 90
        0
280
     0
281
     0
  0
CLASS
  1
LWPOLYLINE
  2
AcDbPolyline
  3
AutoCAD 2000
 90
        0
280
     0
281
     1
  0
CLASS
  1
HATCH
  2
AcDbHatch
  3
AutoCAD 2000
 90
        0
280
     0
281
     1
  0
CLASS
  1
XRECORD
  2
AcDbXrecord
  3
AutoCAD 2000
 90
        0
280
     0
281
     0
  0
CLASS
  1
LONG_TRANSACTION
  2
AcDbLongTransaction
  3
AutoCAD 2000
 90
        0
280
     0
281
     0
  0
CLASS
  1
LWPOLYLINE
  2
AcDbPolyline
  3
AutoCAD 2000
 90
        0
280
     0
281
     1
  0
CLASS
  1
HATCH
  2
AcDbHatch
  3
AutoCAD 2000
 90
        0
280
     0
281
     1
  0
CLASS
  1
XRECORD
  2
AcDbXrecord
  3
AutoCAD 2000
 90
        0
280
     0
281
     0
  0
CLASS
  1
LONG_TRANSACTION
  2
AcDbLongTransaction
  3
AutoCAD 2000
 90
        0
280
     0
281
     0
  0
CLASS
  1
LWPOLYLINE
  2
AcDbPolyline
  3
AutoCAD 2000
 90
        0
280
     0
281
     1
  0
CLASS
  1
HATCH
  2
AcDbHatch
  3
AutoCAD 2000
 90
        0
280
     0
281
     1
  0
CLASS
  1
XRECORD
  2
AcDbXrecord
  3
AutoCAD 2000
 90
        0
280
     0
281
     0
  0
CLASS
  1
LONG_TRANSACTION
  2
AcDbLongTransaction
  3
AutoCAD 2000
 90
        0
280
     0
281
     0
  0
CLASS
  1
LWPOLYLINE
  2
AcDbPolyline
  3
AutoCAD 2000
 90
        0
280
     0
281
     1
  0
CLASS
  1
HATCH
  2
AcDbHatch
  3
AutoCAD 2000
 90
        0
280
     0
281
     1
  0
CLASS
  1
XRECORD
  2
AcDbXrecord
  3
AutoCAD 2000
 90
        0
280
     0
281
     0
  0
CLASS
  1
LONG_TRANSACTION
  2
AcDbLongTransaction
  3
AutoCAD 2000
 90
        0
280
     0
281
     0
  0
CLASS
  1
LWPOLYLINE
  2
AcDbPolyline
  3
AutoCAD 2000
 90
        0
280
     0
281
     1
  0
CLASS
  1
HATCH
  2
AcDbHatch
  3
AutoCAD 2000
 90
        0
280
     0
281
     1
  0
CLASS
  1
XRECORD
  2
AcDbXrecord
  3
AutoCAD 2000
 90
        0
280
     0
281
     0
  0
ENDSEC
  0
SECTION
  2
TABLES
  0
TABLE
  2
VPORT
  5
8
330
0
100
AcDbSymbolTable
 70
     2
  0
VPORT
  5
1515
330
8
100
AcDbSymbolTableRecord
100
AcDbViewportTableRecord
  2
*ACTIVE
 70
     0
 10
0.0
 20
0.0
 11
1.0
 21
1.0
 12
431.9319795420983
 22
266.6451219345284
 13
0.0
 23
0.0
 14
5.0
 24
5.0
 15
0.0
 25
0.0
 16
0.0
 26
0.0
 36
1.0
 17
0.0
 27
0.0
 37
0.0
 40
625.1365515562167
 41
1.795454545454545
 42
50.0
 43
0.0
 44
0.0
 50
0.0
 51
0.0
 71
     0
 72
   100
 73
     1
 74
     0
 75
     0
 76
     0
 77
     0
 78
     0
  0
ENDTAB
  0
TABLE
  2
LTYPE
  5
5
330
0
100
AcDbSymbolTable
 70
     3
  0
LTYPE
  5
14
330
5
100
AcDbSymbolTableRecord
100
AcDbLinetypeTableRecord
  2
BYBLOCK
 70
     0
  3

 72
    65
 73
     0
 40
0.0
  0
LTYPE
  5
15
330
5
100
AcDbSymbolTableRecord
100
AcDbLinetypeTableRecord
  2
BYLAYER
 70
     0
  3

 72
    65
 73
     0
 40
0.0
  0
LTYPE
  5
16
330
5
100
AcDbSymbolTableRecord
100
AcDbLinetypeTableRecord
  2
CONTINUOUS
 70
     0
  3
Solid line
 72
    65
 73
     0
 40
0.0
  0
LTYPE
  5
115
330
5
100
AcDbSymbolTableRecord
100
AcDbLinetypeTableRecord
  2
PHANTOM
 70
     0
  3
______  __  __  ______  __  __  ______  __  __ 
 72
    65
 73
     6
 40
2.5
 49
1.25
 74
     0
 49
-0.25
 74
     0
 49
0.25
 74
     0
 49
-0.25
 74
     0
 49
0.25
 74
     0
 49
-0.25
 74
     0
  0
LTYPE
  5
135
330
5
100
AcDbSymbolTableRecord
100
AcDbLinetypeTableRecord
  2
CENTER
 70
     0
  3
____ _ ____ _ ____ _ ____ _ ____ _ ____ _ ____ 
 72
    65
 73
     4
 40
2.0
 49
1.25
 74
     0
 49
-0.25
 74
     0
 49
0.25
 74
     0
 49
-0.25
 74
     0
  0
ENDTAB
  0
TABLE
  2
LAYER
  5
2
330
0
100
AcDbSymbolTable
 70
     9
  0
LAYER
  5
F
330
2
100
AcDbSymbolTableRecord
100
AcDbLayerTableRecord
  2
0
 70
     0
 62
     7
  6
CONTINUOUS
  0
LAYER
  5
62
330
2
100
AcDbSymbolTableRecord
100
AcDbLayerTableRecord
  2
VIEWPORT
 70
     0
 62
     7
  6
CONTINUOUS
  0
LAYER
  5
65
330
2
100
AcDbSymbolTableRecord
100
AcDbLayerTableRecord
  2
ZUWAKU
 70
     0
 62
     7
  6
CONTINUOUS
  0
LAYER
  5
17C
330
2
100
AcDbSymbolTableRecord
100
AcDbLayerTableRecord
  2
DEFPOINTS
 70
     0
 62
     7
  6
CONTINUOUS
  0
LAYER
  5
17D
330
2
100
AcDbSymbolTableRecord
100
AcDbLayerTableRecord
  2
SEIHIN
 70
     0
 62
     3
  6
CONTINUOUS
  0
LAYER
  5
17E
330
2
100
AcDbSymbolTableRecord
100
AcDbLayerTableRecord
  2
SUNPOU
 70
     0
 62
     4
  6
CONTINUOUS
  0
LAYER
  5
17F
330
2
100
AcDbSymbolTableRecord
100
AcDbLayerTableRecord
  2
CENTER_L
 70
     0
 62
     1
  6
CENTER
  0
LAYER
  5
180
330
2
100
AcDbSymbolTableRecord
100
AcDbLayerTableRecord
  2
NOKITOI
 70
     0
 62
     8
  6
PHANTOM
  0
LAYER
  5
1353
330
2
100
AcDbSymbolTableRecord
100
AcDbLayerTableRecord
  2
MOJI
 70
     0
 62
     2
  6
CONTINUOUS
  0
ENDTAB
  0
TABLE
  2
STYLE
  5
3
330
0
100
AcDbSymbolTable
 70
     2
  0
STYLE
  5
10
330
3
100
AcDbSymbolTableRecord
100
AcDbTextStyleTableRecord
  2
STANDARD
 70
     0
 40
0.0
 41
1.0
 50
0.0
 71
     0
 42
5.0
  3
TXT
  4
c:\PROGRAM FILES\AUTOCAD LT\ms\bigfont.shx
  0
STYLE
  5
1354
330
3
100
AcDbSymbolTableRecord
100
AcDbTextStyleTableRecord
  2
ｽﾀｲﾙ1
 70
     0
 40
0.0
 41
1.0
 50
0.0
 71
     0
 42
2.5
  3
MS PGothic.ttf
  4

1001
ACAD
1000
MS PGothic
1071
    32818
  0
ENDTAB
  0
TABLE
  2
VIEW
  5
6
330
0
100
AcDbSymbolTable
 70
     0
  0
ENDTAB
  0
TABLE
  2
UCS
  5
7
330
0
100
AcDbSymbolTable
 70
     0
  0
ENDTAB
  0
TABLE
  2
APPID
  5
9
330
0
100
AcDbSymbolTable
 70
     1
  0
APPID
  5
11
330
9
100
AcDbSymbolTableRecord
100
AcDbRegAppTableRecord
  2
ACAD
 70
     0
  0
ENDTAB
  0
TABLE
  2
DIMSTYLE
  5
A
330
0
100
AcDbSymbolTable
 70
     1
  0
DIMSTYLE
105
1D
102
{ACAD_REACTORS
330
BD9
330
BE6
330
F9C
330
FEE
330
FFD
330
100C
330
1019
330
1026
102
}
330
A
100
AcDbSymbolTableRecord
100
AcDbDimStyleTableRecord
  2
STANDARD
 70
     0
  3

  4

  5

  6

  7

 40
1.0
 41
0.18
 42
0.0625
 43
0.38
 44
0.18
 45
0.0
 46
0.0
 47
0.0
 48
0.0
140
0.18
141
0.09
142
0.0
143
25.4
144
1.0
145
0.0
146
1.0
147
0.09
 71
     0
 72
     0
 73
     1
 74
     1
 75
     0
 76
     0
 77
     0
 78
     0
170
     0
171
     2
172
     0
173
     0
174
     0
175
     0
176
     0
177
     0
178
     0
270
     2
271
     4
272
     4
273
     2
274
     2
340
10
275
     0
280
     0
281
     0
282
     0
283
     1
284
     0
285
     0
286
     0
287
     3
288
     0
  0
ENDTAB
  0
TABLE
  2
BLOCK_RECORD
  5
1
330
0
100
AcDbSymbolTable
 70
     9
  0
BLOCK_RECORD
  5
1A
102
{ACAD_XDICTIONARY
360
506
102
}
330
1
100
AcDbSymbolTableRecord
100
AcDbBlockTableRecord
  2
*MODEL_SPACE
  0
BLOCK_RECORD
  5
17
102
{ACAD_XDICTIONARY
360
504
102
}
330
1
100
AcDbSymbolTableRecord
100
AcDbBlockTableRecord
  2
*PAPER_SPACE
  0
BLOCK_RECORD
  5
6D
330
1
100
AcDbSymbolTableRecord
100
AcDbBlockTableRecord
  2
_OPEN
  0
BLOCK_RECORD
  5
BDA
330
1
100
AcDbSymbolTableRecord
100
AcDbBlockTableRecord
  2
*D1
  0
BLOCK_RECORD
  5
BE7
330
1
100
AcDbSymbolTableRecord
100
AcDbBlockTableRecord
  2
*D2
  0
BLOCK_RECORD
  5
F9D
330
1
100
AcDbSymbolTableRecord
100
AcDbBlockTableRecord
  2
*D3
  0
BLOCK_RECORD
  5
FEF
330
1
100
AcDbSymbolTableRecord
100
AcDbBlockTableRecord
  2
*D4
  0
BLOCK_RECORD
  5
FFE
330
1
100
AcDbSymbolTableRecord
100
AcDbBlockTableRecord
  2
*D5
  0
BLOCK_RECORD
  5
100D
330
1
100
AcDbSymbolTableRecord
100
AcDbBlockTableRecord
  2
*D6
  0
BLOCK_RECORD
  5
101A
330
1
100
AcDbSymbolTableRecord
100
AcDbBlockTableRecord
  2
*D7
  0
BLOCK_RECORD
  5
1027
330
1
100
AcDbSymbolTableRecord
100
AcDbBlockTableRecord
  2
*D8
  0
ENDTAB
  0
ENDSEC
  0
SECTION
  2
BLOCKS
  0
BLOCK
  5
1B
330
1A
100
AcDbEntity
  8
0
100
AcDbBlockBegin
  2
*MODEL_SPACE
 70
     0
 10
0.0
 20
0.0
 30
0.0
  3
*MODEL_SPACE
  1

  0
ENDBLK
  5
1C
330
1A
100
AcDbEntity
  8
0
100
AcDbBlockEnd
  0
BLOCK
  5
18
330
17
100
AcDbEntity
 67
     1
  8
0
100
AcDbBlockBegin
  2
*PAPER_SPACE
 70
     0
 10
0.0
 20
0.0
 30
0.0
  3
*PAPER_SPACE
  1

  0
ENDBLK
  5
19
330
17
100
AcDbEntity
 67
     1
  8
0
100
AcDbBlockEnd
  0
BLOCK
  5
6E
330
6D
100
AcDbEntity
  8
0
100
AcDbBlockBegin
  2
_OPEN
 70
     0
 10
0.0
 20
0.0
 30
0.0
  3
_OPEN
  1

  0
LINE
  5
6F
330
6D
100
AcDbEntity
  8
0
  6
BYBLOCK
 62
     0
100
AcDbLine
 10
-1.0
 20
0.1666666666666666
 30
0.0
 11
0.0
 21
0.0
 31
0.0
  0
LINE
  5
70
330
6D
100
AcDbEntity
  8
0
  6
BYBLOCK
 62
     0
100
AcDbLine
 10
0.0
 20
0.0
 30
0.0
 11
-1.0
 21
-0.1666666666666666
 31
0.0
  0
LINE
  5
71
330
6D
100
AcDbEntity
  8
0
  6
BYBLOCK
 62
     0
100
AcDbLine
 10
0.0
 20
0.0
 30
0.0
 11
-1.0
 21
0.0
 31
0.0
  0
ENDBLK
  5
72
330
6D
100
AcDbEntity
  8
0
100
AcDbBlockEnd
  0
BLOCK
  5
BE4
330
BDA
100
AcDbEntity
  8
0
100
AcDbBlockBegin
  2
*D1
 70
     1
 10
0.0
 20
0.0
 30
0.0
  3
*D1
  1

  0
LINE
  5
14E6
330
BDA
100
AcDbEntity
  8
SUNPOU
100
AcDbLine
 10
415.5391240238891
 20
320.4389655717849
 30
0.0
 11
415.5391240238891
 21
352.7732179086715
 31
0.0
  0
LINE
  5
14E7
330
BDA
100
AcDbEntity
  8
SUNPOU
100
AcDbLine
 10
288.7591240330749
 20
307.4389655717849
 30
0.0
 11
288.7591240330749
 21
352.7732179086715
 31
0.0
  0
LINE
  5
14E8
330
BDA
100
AcDbEntity
  8
SUNPOU
100
AcDbLine
 10
412.5391240238891
 20
349.7732179086715
 30
0.0
 11
291.7591240330749
 21
349.7732179086715
 31
0.0
  0
INSERT
  5
14E9
330
BDA
100
AcDbEntity
  8
SUNPOU
100
AcDbBlockReference
  2
_OPEN
 10
415.5391240238891
 20
349.7732179086715
 30
0.0
 41
3.0
 42
3.0
 43
3.0
  0
INSERT
  5
14EA
330
BDA
100
AcDbEntity
  8
SUNPOU
100
AcDbBlockReference
  2
_OPEN
 10
288.7591240330749
 20
349.7732179086715
 30
0.0
 41
3.0
 42
3.0
 43
3.0
 50
180.0
  0
MTEXT
  5
14EB
330
BDA
100
AcDbEntity
  8
SUNPOU
100
AcDbMText
 10
352.149124028482
 20
354.7732179086715
 30
0.0
 40
6.0
 41
0.0
 71
     5
 72
     1
  1
\A1;127
1001
ACAD
1000
MTEXTBEGIN
1070
    73
1070
     1
1070
    44
1040
1.0
1070
    74
1070
     0
1000
MTEXTEND
  0
POINT
  5
14EC
330
BDA
100
AcDbEntity
  8
DEFPOINTS
 62
     0
100
AcDbPoint
 10
415.5391240238891
 20
314.4389655717849
 30
0.0
  0
POINT
  5
14ED
330
BDA
100
AcDbEntity
  8
DEFPOINTS
 62
     0
100
AcDbPoint
 10
288.7591240330749
 20
301.4389655717849
 30
0.0
  0
POINT
  5
14EE
330
BDA
100
AcDbEntity
  8
DEFPOINTS
 62
     0
100
AcDbPoint
 10
288.7591240330749
 20
349.7732179086715
 30
0.0
  0
ENDBLK
  5
BE5
330
BDA
100
AcDbEntity
  8
0
100
AcDbBlockEnd
  0
BLOCK
  5
BF1
330
BE7
100
AcDbEntity
  8
0
100
AcDbBlockBegin
  2
*D2
 70
     1
 10
0.0
 20
0.0
 30
0.0
  3
*D2
  1

  0
LINE
  5
14DD
330
BE7
100
AcDbEntity
  8
SUNPOU
100
AcDbLine
 10
287.8590800538889
 20
437.6993298713497
 30
0.0
 11
246.5689032278906
 21
437.6993298713497
 31
0.0
  0
LINE
  5
14DE
330
BE7
100
AcDbEntity
  8
SUNPOU
100
AcDbLine
 10
287.8590800538889
 20
421.7993298713497
 30
0.0
 11
246.5689032278906
 21
421.7993298713497
 31
0.0
  0
LINE
  5
14DF
330
BE7
100
AcDbEntity
  8
SUNPOU
100
AcDbLine
 10
249.5689032278905
 20
434.6993298713497
 30
0.0
 11
249.5689032278905
 21
424.7993298713497
 31
0.0
  0
INSERT
  5
14E0
330
BE7
100
AcDbEntity
  8
SUNPOU
100
AcDbBlockReference
  2
_OPEN
 10
249.5689032278905
 20
437.6993298713497
 30
0.0
 41
3.0
 42
3.0
 43
3.0
 50
90.0
  0
INSERT
  5
14E1
330
BE7
100
AcDbEntity
  8
SUNPOU
100
AcDbBlockReference
  2
_OPEN
 10
249.5689032278905
 20
421.7993298713497
 30
0.0
 41
3.0
 42
3.0
 43
3.0
 50
270.0
  0
MTEXT
  5
14E2
330
BE7
100
AcDbEntity
  8
SUNPOU
100
AcDbMText
 10
244.5689032278905
 20
429.7493298713497
 30
0.0
 40
6.0
 41
0.0
 71
     5
 72
     1
  1
\A1;16
 11
0.0000000000000001
 21
1.0
 31
0.0
1001
ACAD
1000
MTEXTBEGIN
1070
    73
1070
     1
1070
    44
1040
1.0
1070
    74
1070
     0
1000
MTEXTEND
  0
POINT
  5
14E3
330
BE7
100
AcDbEntity
  8
DEFPOINTS
 62
     0
100
AcDbPoint
 10
293.8590800538889
 20
437.6993298713497
 30
0.0
  0
POINT
  5
14E4
330
BE7
100
AcDbEntity
  8
DEFPOINTS
 62
     0
100
AcDbPoint
 10
293.8590800538889
 20
421.7993298713497
 30
0.0
  0
POINT
  5
14E5
330
BE7
100
AcDbEntity
  8
DEFPOINTS
 62
     0
100
AcDbPoint
 10
249.5689032278905
 20
421.7993298713497
 30
0.0
  0
ENDBLK
  5
BF2
330
BE7
100
AcDbEntity
  8
0
100
AcDbBlockEnd
  0
BLOCK
  5
FA7
330
F9D
100
AcDbEntity
  8
0
100
AcDbBlockBegin
  2
*D3
 70
     1
 10
0.0
 20
0.0
 30
0.0
  3
*D3
  1

  0
LINE
  5
14EF
330
F9D
100
AcDbEntity
  8
SUNPOU
100
AcDbLine
 10
422.4693460534342
 20
274.2860640074592
 30
0.0
 11
442.1343133543572
 21
225.6135579835226
 31
0.0
  0
LINE
  5
14F0
330
F9D
100
AcDbEntity
  8
SUNPOU
100
AcDbLine
 10
533.7314096696526
 20
319.2388519689038
 30
0.0
 11
553.3963769705756
 21
270.5663459449673
 31
0.0
  0
LINE
  5
14F1
330
F9D
100
AcDbEntity
  8
SUNPOU
100
AcDbLine
 10
443.7920452488553
 20
229.5189292803348
 30
0.0
 11
549.4910056737635
 21
272.2240778394653
 31
0.0
  0
INSERT
  5
14F2
330
F9D
100
AcDbEntity
  8
SUNPOU
100
AcDbBlockReference
  2
_OPEN
 10
441.0104936532002
 20
228.3951095791777
 30
0.0
 41
3.0
 42
3.0
 43
3.0
 50
201.9999983708516
  0
INSERT
  5
14F3
330
F9D
100
AcDbEntity
  8
SUNPOU
100
AcDbBlockReference
  2
_OPEN
 10
552.2725572694185
 20
273.3478975406224
 30
0.0
 41
3.0
 42
3.0
 43
3.0
 50
21.99999837085163
  0
MTEXT
  5
14F4
330
F9D
100
AcDbEntity
  8
SUNPOU
100
AcDbMText
 10
494.7684926260476
 20
255.5074228859918
 30
0.0
 40
6.0
 41
0.0
 71
     5
 72
     1
  1
\A1;120
 11
0.927183865218352
 21
0.3746065670523633
 31
0.0
1001
ACAD
1000
MTEXTBEGIN
1070
    73
1070
     1
1070
    44
1040
1.0
1070
    74
1070
     0
1000
MTEXTEND
  0
POINT
  5
14F5
330
F9D
100
AcDbEntity
  8
DEFPOINTS
 62
     0
100
AcDbPoint
 10
420.2217066511201
 20
279.8491671987692
 30
0.0
  0
POINT
  5
14F6
330
F9D
100
AcDbEntity
  8
DEFPOINTS
 62
     0
100
AcDbPoint
 10
531.4837702673384
 20
324.801955160214
 30
0.0
  0
POINT
  5
14F7
330
F9D
100
AcDbEntity
  8
DEFPOINTS
 62
     0
100
AcDbPoint
 10
552.2725572694185
 20
273.3478975406224
 30
0.0
  0
ENDBLK
  5
FA8
330
F9D
100
AcDbEntity
  8
0
100
AcDbBlockEnd
  0
BLOCK
  5
FFB
330
FEF
100
AcDbEntity
  8
0
100
AcDbBlockBegin
  2
*D4
 70
     1
 10
0.0
 20
0.0
 30
0.0
  3
*D4
  1

  0
LINE
  5
1503
330
FEF
100
AcDbEntity
  8
SUNPOU
100
AcDbLine
 10
526.6512151606717
 20
326.0850801575205
 30
0.0
 11
573.469607890545
 21
345.0009370742747
 31
0.0
  0
LINE
  5
1504
330
FEF
100
AcDbEntity
  8
SUNPOU
100
AcDbLine
 10
528.8988545606719
 20
320.5219769575204
 30
0.0
 11
575.717247290545
 21
339.4378338742747
 31
0.0
  0
LINE
  5
1505
330
FEF
100
AcDbEntity
  8
SUNPOU
100
AcDbLine
 10
569.5642365952251
 20
346.6586689722881
 30
0.0
 11
568.4404168965718
 21
349.4402205689548
 31
0.0
  0
LINE
  5
1506
330
FEF
100
AcDbEntity
  8
SUNPOU
100
AcDbLine
 10
574.0595153925316
 20
335.5324625789548
 30
0.0
 11
578.180187620927
 21
325.3334400578437
 31
0.0
  0
LINE
  5
1507
330
FEF
100
AcDbEntity
  8
SUNPOU
100
AcDbLine
 10
570.6880562938784
 20
343.8771173756215
 30
0.0
 11
572.9356956938784
 21
338.3140141756215
 31
0.0
  0
INSERT
  5
1508
330
FEF
100
AcDbEntity
  8
SUNPOU
100
AcDbBlockReference
  2
_OPEN
 10
570.6880562938784
 20
343.8771173756215
 30
0.0
 41
3.0
 42
3.0
 43
3.0
 50
291.9999983192764
  0
INSERT
  5
1509
330
FEF
100
AcDbEntity
  8
SUNPOU
100
AcDbBlockReference
  2
_OPEN
 10
572.9356956938784
 20
338.3140141756215
 30
0.0
 41
3.0
 42
3.0
 43
3.0
 50
111.9999983192764
  0
MTEXT
  5
150A
330
FEF
100
AcDbEntity
  8
SUNPOU
100
AcDbMText
 10
581.3176806838336
 20
330.9152083511546
 30
0.0
 40
6.0
 41
0.0
 71
     5
 72
     1
  1
\A1;6
 11
0.3746065662177533
 21
-0.9271838655555566
 31
0.0
1001
ACAD
1000
MTEXTBEGIN
1070
    73
1070
     1
1070
    44
1040
1.0
1070
    74
1070
     0
1000
MTEXTEND
  0
POINT
  5
150B
330
FEF
100
AcDbEntity
  8
DEFPOINTS
 62
     0
100
AcDbPoint
 10
521.0881119673384
 20
323.8374407602139
 30
0.0
  0
POINT
  5
150C
330
FEF
100
AcDbEntity
  8
DEFPOINTS
 62
     0
100
AcDbPoint
 10
523.3357513673386
 20
318.2743375602139
 30
0.0
  0
POINT
  5
150D
330
FEF
100
AcDbEntity
  8
DEFPOINTS
 62
     0
100
AcDbPoint
 10
572.9356956938784
 20
338.3140141756215
 30
0.0
  0
ENDBLK
  5
FFC
330
FEF
100
AcDbEntity
  8
0
100
AcDbBlockEnd
  0
BLOCK
  5
100A
330
FFE
100
AcDbEntity
  8
0
100
AcDbBlockBegin
  2
*D5
 70
     1
 10
0.0
 20
0.0
 30
0.0
  3
*D5
  1

  0
LINE
  5
14F8
330
FFE
100
AcDbEntity
  8
SUNPOU
100
AcDbLine
 10
527.0881119673383
 20
432.7493298713497
 30
0.0
 11
569.6370848158591
 21
432.7493298713497
 31
0.0
  0
LINE
  5
14F9
330
FFE
100
AcDbEntity
  8
SUNPOU
100
AcDbLine
 10
527.0881119673383
 20
426.7493298713496
 30
0.0
 11
569.6370848158591
 21
426.7493298713496
 31
0.0
  0
LINE
  5
14FA
330
FFE
100
AcDbEntity
  8
SUNPOU
100
AcDbLine
 10
566.6370848158591
 20
435.7493298713497
 30
0.0
 11
566.6370848158591
 21
438.7493298713496
 31
0.0
  0
LINE
  5
14FB
330
FFE
100
AcDbEntity
  8
SUNPOU
100
AcDbLine
 10
566.6370848158591
 20
423.7493298713497
 30
0.0
 11
566.6370848158591
 21
412.7493298713496
 31
0.0
  0
LINE
  5
14FC
330
FFE
100
AcDbEntity
  8
SUNPOU
100
AcDbLine
 10
566.6370848158591
 20
432.7493298713497
 30
0.0
 11
566.6370848158591
 21
426.7493298713496
 31
0.0
  0
INSERT
  5
14FD
330
FFE
100
AcDbEntity
  8
SUNPOU
100
AcDbBlockReference
  2
_OPEN
 10
566.6370848158591
 20
432.7493298713497
 30
0.0
 41
3.0
 42
3.0
 43
3.0
 50
270.0
  0
INSERT
  5
14FE
330
FFE
100
AcDbEntity
  8
SUNPOU
100
AcDbBlockReference
  2
_OPEN
 10
566.6370848158591
 20
426.7493298713496
 30
0.0
 41
3.0
 42
3.0
 43
3.0
 50
90.0
  0
MTEXT
  5
14FF
330
FFE
100
AcDbEntity
  8
SUNPOU
100
AcDbMText
 10
561.637084815859
 20
416.7493298713497
 30
0.0
 40
6.0
 41
0.0
 71
     5
 72
     1
  1
\A1;6
 11
0.0000000000000001
 21
1.0
 31
0.0
1001
ACAD
1000
MTEXTBEGIN
1070
    73
1070
     1
1070
    44
1040
1.0
1070
    74
1070
     0
1000
MTEXTEND
  0
POINT
  5
1500
330
FFE
100
AcDbEntity
  8
DEFPOINTS
 62
     0
100
AcDbPoint
 10
521.0881119673383
 20
432.7493298713497
 30
0.0
  0
POINT
  5
1501
330
FFE
100
AcDbEntity
  8
DEFPOINTS
 62
     0
100
AcDbPoint
 10
521.0881119673383
 20
426.7493298713496
 30
0.0
  0
POINT
  5
1502
330
FFE
100
AcDbEntity
  8
DEFPOINTS
 62
     0
100
AcDbPoint
 10
566.6370848158591
 20
426.7493298713496
 30
0.0
  0
ENDBLK
  5
100B
330
FFE
100
AcDbEntity
  8
0
100
AcDbBlockEnd
  0
BLOCK
  5
1017
330
100D
100
AcDbEntity
  8
0
100
AcDbBlockBegin
  2
*D6
 70
     1
 10
0.0
 20
0.0
 30
0.0
  3
*D6
  1

  0
LINE
  5
14D4
330
100D
100
AcDbEntity
  8
SUNPOU
100
AcDbLine
 10
414.5391240238891
 20
321.4389655717849
 30
0.0
 11
451.6588305463764
 21
321.4389655717849
 31
0.0
  0
LINE
  5
14D5
330
100D
100
AcDbEntity
  8
SUNPOU
100
AcDbLine
 10
426.22170665112
 20
279.8491671987693
 30
0.0
 11
451.6588305463764
 21
279.8491671987693
 31
0.0
  0
LINE
  5
14D6
330
100D
100
AcDbEntity
  8
SUNPOU
100
AcDbLine
 10
448.6588305463765
 20
318.4389655717849
 30
0.0
 11
448.6588305463765
 21
282.8491671987693
 31
0.0
  0
INSERT
  5
14D7
330
100D
100
AcDbEntity
  8
SUNPOU
100
AcDbBlockReference
  2
_OPEN
 10
448.6588305463765
 20
321.4389655717849
 30
0.0
 41
3.0
 42
3.0
 43
3.0
 50
90.0
  0
INSERT
  5
14D8
330
100D
100
AcDbEntity
  8
SUNPOU
100
AcDbBlockReference
  2
_OPEN
 10
448.6588305463765
 20
279.8491671987693
 30
0.0
 41
3.0
 42
3.0
 43
3.0
 50
270.0
  0
MTEXT
  5
14D9
330
100D
100
AcDbEntity
  8
SUNPOU
100
AcDbMText
 10
443.6588305463764
 20
300.6440663852772
 30
0.0
 40
6.0
 41
0.0
 71
     5
 72
     1
  1
\A1;42
 11
0.0000000000000001
 21
1.0
 31
0.0
1001
ACAD
1000
MTEXTBEGIN
1070
    73
1070
     1
1070
    44
1040
1.0
1070
    74
1070
     0
1000
MTEXTEND
  0
POINT
  5
14DA
330
100D
100
AcDbEntity
  8
DEFPOINTS
 62
     0
100
AcDbPoint
 10
408.5391240238891
 20
321.4389655717849
 30
0.0
  0
POINT
  5
14DB
330
100D
100
AcDbEntity
  8
DEFPOINTS
 62
     0
100
AcDbPoint
 10
420.2217066511201
 20
279.8491671987693
 30
0.0
  0
POINT
  5
14DC
330
100D
100
AcDbEntity
  8
DEFPOINTS
 62
     0
100
AcDbPoint
 10
448.6588305463765
 20
279.8491671987693
 30
0.0
  0
ENDBLK
  5
1018
330
100D
100
AcDbEntity
  8
0
100
AcDbBlockEnd
  0
BLOCK
  5
1024
330
101A
100
AcDbEntity
  8
0
100
AcDbBlockBegin
  2
*D7
 70
     1
 10
0.0
 20
0.0
 30
0.0
  3
*D7
  1

  0
LINE
  5
14CB
330
101A
100
AcDbEntity
  8
SUNPOU
100
AcDbLine
 10
288.759125774703
 20
307.4365321518147
 30
0.0
 11
288.759125774703
 21
369.692274529669
 31
0.0
  0
LINE
  5
14CC
330
101A
100
AcDbEntity
  8
SUNPOU
100
AcDbLine
 10
531.4837702673384
 20
330.8019551602139
 30
0.0
 11
531.4837702673384
 21
369.692274529669
 31
0.0
  0
LINE
  5
14CD
330
101A
100
AcDbEntity
  8
SUNPOU
100
AcDbLine
 10
291.759125774703
 20
366.692274529669
 30
0.0
 11
528.4837702673383
 21
366.692274529669
 31
0.0
  0
INSERT
  5
14CE
330
101A
100
AcDbEntity
  8
SUNPOU
100
AcDbBlockReference
  2
_OPEN
 10
288.759125774703
 20
366.692274529669
 30
0.0
 41
3.0
 42
3.0
 43
3.0
 50
180.0
  0
INSERT
  5
14CF
330
101A
100
AcDbEntity
  8
SUNPOU
100
AcDbBlockReference
  2
_OPEN
 10
531.4837702673384
 20
366.692274529669
 30
0.0
 41
3.0
 42
3.0
 43
3.0
  0
MTEXT
  5
14D0
330
101A
100
AcDbEntity
  8
SUNPOU
100
AcDbMText
 10
410.1214480210207
 20
371.692274529669
 30
0.0
 40
6.0
 41
0.0
 71
     5
 72
     1
  1
\A1;243
1001
ACAD
1000
MTEXTBEGIN
1070
    73
1070
     1
1070
    44
1040
1.0
1070
    74
1070
     0
1000
MTEXTEND
  0
POINT
  5
14D1
330
101A
100
AcDbEntity
  8
DEFPOINTS
 62
     0
100
AcDbPoint
 10
288.759125774703
 20
301.4365321518147
 30
0.0
  0
POINT
  5
14D2
330
101A
100
AcDbEntity
  8
DEFPOINTS
 62
     0
100
AcDbPoint
 10
531.4837702673384
 20
324.8019551602139
 30
0.0
  0
POINT
  5
14D3
330
101A
100
AcDbEntity
  8
DEFPOINTS
 62
     0
100
AcDbPoint
 10
531.4837702673384
 20
366.692274529669
 30
0.0
  0
ENDBLK
  5
1025
330
101A
100
AcDbEntity
  8
0
100
AcDbBlockEnd
  0
BLOCK
  5
1031
330
1027
100
AcDbEntity
  8
0
100
AcDbBlockBegin
  2
*D8
 70
     1
 10
0.0
 20
0.0
 30
0.0
  3
*D8
  1

  0
LINE
  5
14C2
330
1027
100
AcDbEntity
  8
SUNPOU
100
AcDbLine
 10
285.012079753889
 20
307.2389655717849
 30
0.0
 11
246.381220867283
 21
307.2389655717849
 31
0.0
  0
LINE
  5
14C3
330
1027
100
AcDbEntity
  8
SUNPOU
100
AcDbLine
 10
414.22170665112
 20
279.8491671987693
 30
0.0
 11
246.381220867283
 21
279.8491671987694
 31
0.0
  0
LINE
  5
14C4
330
1027
100
AcDbEntity
  8
SUNPOU
100
AcDbLine
 10
249.3812208672829
 20
304.2389655717848
 30
0.0
 11
249.3812208672829
 21
282.8491671987693
 31
0.0
  0
INSERT
  5
14C5
330
1027
100
AcDbEntity
  8
SUNPOU
100
AcDbBlockReference
  2
_OPEN
 10
249.3812208672829
 20
307.2389655717849
 30
0.0
 41
3.0
 42
3.0
 43
3.0
 50
90.0
  0
INSERT
  5
14C6
330
1027
100
AcDbEntity
  8
SUNPOU
100
AcDbBlockReference
  2
_OPEN
 10
249.3812208672829
 20
279.8491671987694
 30
0.0
 41
3.0
 42
3.0
 43
3.0
 50
270.0
  0
MTEXT
  5
14C7
330
1027
100
AcDbEntity
  8
SUNPOU
100
AcDbMText
 10
244.3812208672829
 20
293.5440663852772
 30
0.0
 40
6.0
 41
0.0
 71
     5
 72
     1
  1
\A1;27
 11
0.0000000000000001
 21
1.0
 31
0.0
1001
ACAD
1000
MTEXTBEGIN
1070
    73
1070
     1
1070
    44
1040
1.0
1070
    74
1070
     0
1000
MTEXTEND
  0
POINT
  5
14C8
330
1027
100
AcDbEntity
  8
DEFPOINTS
 62
     0
100
AcDbPoint
 10
291.012079753889
 20
307.2389655717849
 30
0.0
  0
POINT
  5
14C9
330
1027
100
AcDbEntity
  8
DEFPOINTS
 62
     0
100
AcDbPoint
 10
420.2217066511201
 20
279.8491671987693
 30
0.0
  0
POINT
  5
14CA
330
1027
100
AcDbEntity
  8
DEFPOINTS
 62
     0
100
AcDbPoint
 10
249.3812208672829
 20
279.8491671987694
 30
0.0
  0
ENDBLK
  5
1032
330
1027
100
AcDbEntity
  8
0
100
AcDbBlockEnd
  0
ENDSEC
  0
SECTION
  2
ENTITIES
  0
LINE
  5
286
330
1A
100
AcDbEntity
  8
NOKITOI
  6
PHANTOM
 62
     8
100
AcDbLine
 10
338.1060668731806
 20
259.7302775169795
 30
0.0
 11
382.6856668731807
 21
259.7301775169795
 31
0.0
  0
LINE
  5
287
330
1A
100
AcDbEntity
  8
NOKITOI
  6
PHANTOM
 62
     8
100
AcDbLine
 10
382.9354668731807
 20
258.5301775169795
 30
0.0
 11
338.1060668731806
 21
258.5302775169795
 31
0.0
  0
ARC
  5
2B2
330
1A
100
AcDbEntity
  8
NOKITOI
  6
PHANTOM
 62
     8
100
AcDbCircle
 10
338.1060729551486
 20
301.5302718923231
 30
0.0
 40
41.79999437547816
100
AcDbArc
 50
184.4742952125247
 51
269.999854592109
  0
ARC
  5
2B3
330
1A
100
AcDbEntity
  8
NOKITOI
  6
PHANTOM
 62
     8
100
AcDbCircle
 10
338.1060506467233
 20
301.5302919933495
 30
0.0
 40
43.00001447645168
100
AcDbArc
 50
186.5249107071177
 51
269.9998883751437
  0
LINE
  5
2C4
330
1A
100
AcDbEntity
  8
NOKITOI
  6
PHANTOM
 62
     8
100
AcDbLine
 10
378.6856668731807
 20
259.7301775169795
 30
0.0
 11
358.777566873181
 21
259.7301775169795
 31
0.0
  0
LINE
  5
2C5
330
1A
100
AcDbEntity
  8
NOKITOI
  6
PHANTOM
 62
     8
100
AcDbLine
 10
378.9354668731807
 20
258.5301775169795
 30
0.0
 11
358.777566873181
 21
258.5301775169795
 31
0.0
  0
ARC
  5
2C6
330
1A
100
AcDbEntity
  8
NOKITOI
  6
PHANTOM
 62
     8
100
AcDbCircle
 10
288.2464028323315
 20
299.0302426628362
 30
0.0
 40
1.499965146287778
100
AcDbArc
 50
181.7866280217767
 51
269.9986264296971
  0
ARC
  5
2C7
330
1A
100
AcDbEntity
  8
NOKITOI
  6
PHANTOM
 62
     8
100
AcDbCircle
 10
294.3910584490181
 20
296.5302850320359
 30
0.0
 40
0.9999924849789756
100
AcDbArc
 50
6.528264606673934
 51
89.99951732740965
  0
ARC
  5
2D0
330
1A
100
AcDbEntity
  8
NOKITOI
  6
PHANTOM
 62
     8
100
AcDbCircle
 10
294.6338606720228
 20
310.5302840520647
 30
0.0
 40
0.4999934649531607
100
AcDbArc
 50
356.9955363203376
 51
89.99928939038076
  0
LINE
  5
2D1
330
1A
100
AcDbEntity
  8
NOKITOI
  6
PHANTOM
 62
     8
100
AcDbLine
 10
290.8287668731809
 20
312.3302775169796
 30
0.0
 11
290.3287668731809
 21
309.8302775169796
 31
0.0
  0
LINE
  5
2D2
330
1A
100
AcDbEntity
  8
NOKITOI
  6
PHANTOM
 62
     8
100
AcDbLine
 10
287.556366873181
 20
311.5052775169794
 30
0.0
 11
287.7057668731804
 21
306.7263775169795
 31
0.0
  0
LINE
  5
2D3
330
1A
100
AcDbEntity
  8
NOKITOI
  6
PHANTOM
 62
     8
100
AcDbLine
 10
286.3569668731806
 20
311.4677775169794
 30
0.0
 11
286.7471668731805
 21
298.9834775169794
 31
0.0
  0
LINE
  5
2D4
330
1A
100
AcDbEntity
  8
NOKITOI
  6
PHANTOM
 62
     8
100
AcDbLine
 10
295.9349668731811
 20
298.7302775169795
 30
0.0
 11
289.8940668731806
 21
298.7302775169795
 31
0.0
  0
LINE
  5
2D5
330
1A
100
AcDbEntity
  8
NOKITOI
  6
PHANTOM
 62
     8
100
AcDbLine
 10
294.8174668731808
 20
304.5040775169794
 30
0.0
 11
295.1332668731806
 21
310.5039775169795
 31
0.0
  0
LINE
  5
2D6
330
1A
100
AcDbEntity
  8
NOKITOI
  6
PHANTOM
 62
     8
100
AcDbLine
 10
292.269466873181
 20
308.7302775169795
 30
0.0
 11
293.2652668731807
 21
309.8302775169796
 31
0.0
  0
LINE
  5
2D7
330
1A
100
AcDbEntity
  8
NOKITOI
  6
PHANTOM
 62
     8
100
AcDbLine
 10
292.269466873181
 20
308.7302775169795
 30
0.0
 11
291.8075668731808
 21
308.7302775169795
 31
0.0
  0
LINE
  5
2D8
330
1A
100
AcDbEntity
  8
NOKITOI
  6
PHANTOM
 62
     8
100
AcDbLine
 10
290.3287668731809
 20
309.8302775169796
 30
0.0
 11
293.2652668731807
 21
309.8302775169796
 31
0.0
  0
LINE
  5
2D9
330
1A
100
AcDbEntity
  8
NOKITOI
  6
PHANTOM
 62
     8
100
AcDbLine
 10
291.5740668731805
 20
304.6010775169796
 30
0.0
 11
291.9077668731806
 21
306.9372775169796
 31
0.0
  0
LINE
  5
2DA
330
1A
100
AcDbEntity
  8
NOKITOI
  6
PHANTOM
 62
     8
100
AcDbLine
 10
294.3180668731806
 20
304.0302775169795
 30
0.0
 11
292.0689668731806
 21
304.0302775169795
 31
0.0
  0
ARC
  5
2DB
330
1A
100
AcDbEntity
  8
NOKITOI
  6
PHANTOM
 62
     8
100
AcDbCircle
 10
292.0689934737783
 20
304.5302468400974
 30
0.0
 40
0.4999693238254178
100
AcDbArc
 50
171.8555038770531
 51
269.9969516090356
  0
LINE
  5
2DC
330
1A
100
AcDbEntity
  8
NOKITOI
  6
PHANTOM
 62
     8
100
AcDbLine
 10
293.6539668731807
 20
305.2302775169795
 30
0.0
 11
292.8760668731811
 21
305.2302775169795
 31
0.0
  0
LINE
  5
2DD
330
1A
100
AcDbEntity
  8
NOKITOI
  6
PHANTOM
 62
     8
100
AcDbLine
 10
292.8760668731811
 20
305.2302775169795
 30
0.0
 11
293.2801668731808
 21
308.0586775169793
 31
0.0
  0
ARC
  5
2DE
330
1A
100
AcDbEntity
  8
NOKITOI
  6
PHANTOM
 62
     8
100
AcDbCircle
 10
291.4127810915961
 20
307.0079628826785
 30
0.0
 40
0.5000073448410256
100
AcDbArc
 50
351.872947864124
 51
96.47829282996916
  0
ARC
  5
2DF
330
1A
100
AcDbEntity
  8
NOKITOI
  6
PHANTOM
 62
     8
100
AcDbCircle
 10
291.8076870858499
 20
303.5303362453595
 30
0.0
 40
5.2000412730095
100
AcDbArc
 50
90.0013245430618
 51
142.0757990790551
  0
LINE
  5
2E0
330
1A
100
AcDbEntity
  8
NOKITOI
  6
PHANTOM
 62
     8
100
AcDbLine
 10
293.2801668731808
 20
308.0586775169793
 30
0.0
 11
293.8351668731807
 21
308.6717775169796
 31
0.0
  0
LINE
  5
2E1
330
1A
100
AcDbEntity
  8
NOKITOI
  6
PHANTOM
 62
     8
100
AcDbLine
 10
293.6539668731807
 20
305.2302775169795
 30
0.0
 11
293.8351668731807
 21
308.6717775169796
 31
0.0
  0
ARC
  5
2E2
330
1A
100
AcDbEntity
  8
NOKITOI
  6
PHANTOM
 62
     8
100
AcDbCircle
 10
294.3180599861857
 20
304.530270981894
 30
0.0
 40
0.499993464961963
100
AcDbArc
 50
270.0007892017869
 51
356.997036131742
  0
ARC
  5
2E3
330
1A
100
AcDbEntity
  8
NOKITOI
  6
PHANTOM
 62
     8
100
AcDbCircle
 10
289.8940804453191
 20
300.7302643618931
 30
0.0
 40
1.999986844959662
100
AcDbArc
 50
181.7875531852356
 51
269.9996111843215
  0
LINE
  5
2E4
330
1A
100
AcDbEntity
  8
NOKITOI
  6
PHANTOM
 62
     8
100
AcDbLine
 10
288.2463668731807
 20
297.5302775169794
 30
0.0
 11
294.3910668731805
 21
297.5302775169794
 31
0.0
  0
LINE
  5
2E5
330
1A
100
AcDbEntity
  8
NOKITOI
  6
PHANTOM
 62
     8
100
AcDbLine
 10
287.8950668731804
 20
300.6678775169794
 30
0.0
 11
287.8095668731807
 21
303.4053775169794
 31
0.0
  0
ARC
  5
2E6
330
1A
100
AcDbEntity
  8
NOKITOI
  6
PHANTOM
 62
     8
100
AcDbCircle
 10
295.934979442889
 20
298.2302658922498
 30
0.0
 40
0.5000116248877111
100
AcDbArc
 50
4.474846808342103
 51
90.00144034898383
  0
ARC
  5
2E8
330
1A
100
AcDbEntity
  8
NOKITOI
  6
PHANTOM
 62
     8
100
AcDbCircle
 10
291.8076047546274
 20
303.5303212995048
 30
0.0
 40
3.999989731271038
100
AcDbArc
 50
96.47731142013119
 51
181.7899836067311
  0
LINE
  5
2E9
330
1A
100
AcDbEntity
  8
NOKITOI
  6
PHANTOM
 62
     8
100
AcDbLine
 10
291.9120668731807
 20
311.6283775169794
 30
0.0
 11
292.1728668731807
 21
312.9322775169795
 31
0.0
  0
ARC
  5
2EA
330
1A
100
AcDbEntity
  8
NOKITOI
  6
PHANTOM
 62
     8
100
AcDbCircle
 10
292.4023596186252
 20
311.5302863668229
 30
0.0
 40
0.5000088498959383
100
AcDbArc
 50
168.6864043304892
 51
270.0008312961442
  0
ARC
  5
2EB
330
1A
100
AcDbEntity
  8
NOKITOI
  6
PHANTOM
 62
     8
100
AcDbCircle
 10
291.6825660901722
 20
313.0302784719812
 30
0.0
 40
0.4999990449987349
100
AcDbArc
 50
348.6967198015447
 51
89.99991027369492
  0
ARC
  5
2EC
330
1A
100
AcDbEntity
  8
NOKITOI
  6
PHANTOM
 62
     8
100
AcDbCircle
 10
288.3559713679787
 20
311.5302821545063
 30
0.0
 40
0.7999953624857498
100
AcDbArc
 50
90.00032191805264
 51
181.7911273464193
  0
LINE
  5
2ED
330
1A
100
AcDbEntity
  8
NOKITOI
  6
PHANTOM
 62
     8
100
AcDbLine
 10
288.3559668731805
 20
312.3302775169796
 30
0.0
 11
290.8287668731809
 21
312.3302775169796
 31
0.0
  0
LINE
  5
2EE
330
1A
100
AcDbEntity
  8
NOKITOI
  6
PHANTOM
 62
     8
100
AcDbLine
 10
288.3559668731805
 20
313.5302775169794
 30
0.0
 11
291.6825668731807
 21
313.5302775169794
 31
0.0
  0
LINE
  5
2EF
330
1A
100
AcDbEntity
  8
NOKITOI
  6
PHANTOM
 62
     8
100
AcDbLine
 10
294.6338668731805
 20
311.0302775169794
 30
0.0
 11
292.4023668731806
 21
311.0302775169794
 31
0.0
  0
ARC
  5
2F1
330
1A
100
AcDbEntity
  8
NOKITOI
  6
PHANTOM
 62
     8
100
AcDbCircle
 10
288.3559796240306
 20
311.5302906720659
 30
0.0
 40
1.999986844954076
100
AcDbArc
 50
90.00036528735451
 51
181.7883072882703
  0
LINE
  5
314
330
1A
100
AcDbEntity
  8
NOKITOI
  6
PHANTOM
 62
     8
100
AcDbLine
 10
396.1614668731808
 20
298.2800775169795
 30
0.0
 11
393.1684668731804
 21
268.3502775169794
 31
0.0
  0
LINE
  5
315
330
1A
100
AcDbEntity
  8
NOKITOI
  6
PHANTOM
 62
     8
100
AcDbLine
 10
397.202466873181
 20
296.6297775169795
 30
0.0
 11
394.3336668731808
 21
267.9423775169794
 31
0.0
  0
LINE
  5
31B
330
1A
100
AcDbEntity
  8
NOKITOI
  6
PHANTOM
 62
     8
100
AcDbLine
 10
392.987566873181
 20
268.0129775169795
 30
0.0
 11
383.0022668731808
 21
259.8431775169793
 31
0.0
  0
LINE
  5
31C
330
1A
100
AcDbEntity
  8
NOKITOI
  6
PHANTOM
 62
     8
100
AcDbLine
 10
393.9718668731807
 20
267.2678775169796
 30
0.0
 11
383.5687668731807
 21
258.7561775169796
 31
0.0
  0
ARC
  5
31D
330
1A
100
AcDbEntity
  8
NOKITOI
  6
PHANTOM
 62
     8
100
AcDbCircle
 10
382.6856732609294
 20
260.230179796969
 30
0.0
 40
0.5000022800304047
100
AcDbArc
 50
269.9992680212791
 51
309.2854498596055
  0
ARC
  5
31E
330
1A
100
AcDbEntity
  8
NOKITOI
  6
PHANTOM
 62
     8
100
AcDbCircle
 10
382.9354599406033
 20
259.5301750419733
 30
0.0
 40
0.9999975250179316
100
AcDbArc
 50
270.0003972084035
 51
309.2946416752297
  0
ARC
  5
31F
330
1A
100
AcDbEntity
  8
NOKITOI
  6
PHANTOM
 62
     8
100
AcDbCircle
 10
392.6709494473025
 20
268.3999450305915
 30
0.0
 40
0.4999904508696396
100
AcDbArc
 50
309.2900846377946
 51
354.2990110749239
  0
ARC
  5
320
330
1A
100
AcDbEntity
  8
NOKITOI
  6
PHANTOM
 62
     8
100
AcDbCircle
 10
393.3386443003119
 20
268.0418354453069
 30
0.0
 40
0.9999908507640039
100
AcDbArc
 50
309.288709223069
 51
354.2862329477532
  0
ARC
  5
323
330
1A
100
AcDbEntity
  8
NOKITOI
  6
PHANTOM
 62
     8
100
AcDbCircle
 10
404.3385840863589
 20
299.0302942001272
 30
0.0
 40
1.500016683246579
100
AcDbArc
 50
269.9993425123344
 51
358.2076423244113
  0
ARC
  5
324
330
1A
100
AcDbEntity
  8
NOKITOI
  6
PHANTOM
 62
     8
100
AcDbCircle
 10
398.1974875230216
 20
296.5302962048287
 30
0.0
 40
0.9999813123640345
100
AcDbArc
 50
90.00118317084911
 51
174.2905900333514
  0
ARC
  5
32E
330
1A
100
AcDbEntity
  8
NOKITOI
  6
PHANTOM
 62
     8
100
AcDbCircle
 10
404.2289556361866
 20
311.5302891107966
 30
0.0
 40
1.999988406214315
100
AcDbArc
 50
358.2088726535936
 51
89.99967808195551
  0
LINE
  5
32F
330
1A
100
AcDbEntity
  8
NOKITOI
  6
PHANTOM
 62
     8
100
AcDbLine
 10
406.2279668731807
 20
311.4677775169794
 30
0.0
 11
405.8378668731807
 21
298.9833775169794
 31
0.0
  0
LINE
  5
330
330
1A
100
AcDbEntity
  8
NOKITOI
  6
PHANTOM
 62
     8
100
AcDbLine
 10
401.7562668731807
 20
312.3302775169796
 30
0.0
 11
402.2562668731807
 21
309.8302775169796
 31
0.0
  0
ARC
  5
331
330
1A
100
AcDbEntity
  8
NOKITOI
  6
PHANTOM
 62
     8
100
AcDbCircle
 10
397.951070582676
 20
310.5302814270102
 30
0.0
 40
0.4999960899831856
100
AcDbArc
 50
90.00042508015082
 51
183.0156217414647
  0
LINE
  5
332
330
1A
100
AcDbEntity
  8
NOKITOI
  6
PHANTOM
 62
     8
100
AcDbLine
 10
405.0285668731803
 20
311.5052775169794
 30
0.0
 11
404.8792668731807
 21
306.7262775169796
 31
0.0
  0
ARC
  5
336
330
1A
100
AcDbEntity
  8
NOKITOI
  6
PHANTOM
 62
     8
100
AcDbCircle
 10
400.7774359462445
 20
303.5303132616433
 30
0.0
 40
3.99998565374706
100
AcDbArc
 50
358.208696659101
 51
83.5242238046835
  0
ARC
  5
337
330
1A
100
AcDbEntity
  8
NOKITOI
  6
PHANTOM
 62
     8
100
AcDbCircle
 10
400.7774490068295
 20
303.5302862453594
 30
0.0
 40
5.199991271650611
100
AcDbArc
 50
37.92532860472995
 51
89.9998031407256
  0
ARC
  5
338
330
1A
100
AcDbEntity
  8
NOKITOI
  6
PHANTOM
 62
     8
100
AcDbCircle
 10
402.690904861005
 20
300.7302143375517
 30
0.0
 40
2.000036820932882
100
AcDbArc
 50
269.9989117490344
 51
358.2110591274195
  0
LINE
  5
339
330
1A
100
AcDbEntity
  8
NOKITOI
  6
PHANTOM
 62
     8
100
AcDbLine
 10
404.3385668731807
 20
297.5302775169794
 30
0.0
 11
398.1974668731809
 21
297.5302775169794
 31
0.0
  0
LINE
  5
33A
330
1A
100
AcDbEntity
  8
NOKITOI
  6
PHANTOM
 62
     8
100
AcDbLine
 10
400.3154668731808
 20
308.7302775169795
 30
0.0
 11
399.3196668731807
 21
309.8302775169796
 31
0.0
  0
LINE
  5
33B
330
1A
100
AcDbEntity
  8
NOKITOI
  6
PHANTOM
 62
     8
100
AcDbLine
 10
400.3154668731808
 20
308.7302775169795
 30
0.0
 11
400.7774668731808
 21
308.7302775169795
 31
0.0
  0
LINE
  5
33C
330
1A
100
AcDbEntity
  8
NOKITOI
  6
PHANTOM
 62
     8
100
AcDbLine
 10
401.0109668731806
 20
304.6009775169794
 30
0.0
 11
400.6771668731808
 21
306.9371775169796
 31
0.0
  0
ARC
  5
33D
330
1A
100
AcDbEntity
  8
NOKITOI
  6
PHANTOM
 62
     8
100
AcDbCircle
 10
400.5159770596169
 20
304.5302892617036
 30
0.0
 40
0.5000117448278309
100
AcDbArc
 50
269.9988327478016
 51
8.127314608715551
  0
ARC
  5
33E
330
1A
100
AcDbEntity
  8
NOKITOI
  6
PHANTOM
 62
     8
100
AcDbCircle
 10
398.2668709945873
 20
304.5302736069489
 30
0.0
 40
0.4999960899864752
100
AcDbArc
 50
183.0147243791741
 51
269.9995277178593
  0
LINE
  5
33F
330
1A
100
AcDbEntity
  8
NOKITOI
  6
PHANTOM
 62
     8
100
AcDbLine
 10
398.2668668731808
 20
304.0302775169795
 30
0.0
 11
400.5159668731803
 21
304.0302775169795
 31
0.0
  0
LINE
  5
340
330
1A
100
AcDbEntity
  8
NOKITOI
  6
PHANTOM
 62
     8
100
AcDbLine
 10
398.9309668731807
 20
305.2302775169795
 30
0.0
 11
399.7088668731803
 21
305.2302775169795
 31
0.0
  0
LINE
  5
341
330
1A
100
AcDbEntity
  8
NOKITOI
  6
PHANTOM
 62
     8
100
AcDbLine
 10
399.7088668731803
 20
305.2302775169795
 30
0.0
 11
399.3048668731807
 21
308.0586775169793
 31
0.0
  0
LINE
  5
342
330
1A
100
AcDbEntity
  8
NOKITOI
  6
PHANTOM
 62
     8
100
AcDbLine
 10
397.7675668731808
 20
304.5039775169795
 30
0.0
 11
397.4517668731805
 21
310.5039775169795
 31
0.0
  0
LINE
  5
343
330
1A
100
AcDbEntity
  8
NOKITOI
  6
PHANTOM
 62
     8
100
AcDbLine
 10
399.3048668731807
 20
308.0586775169793
 30
0.0
 11
398.7498668731804
 21
308.6716775169794
 31
0.0
  0
LINE
  5
344
330
1A
100
AcDbEntity
  8
NOKITOI
  6
PHANTOM
 62
     8
100
AcDbLine
 10
398.9309668731807
 20
305.2302775169795
 30
0.0
 11
398.7498668731804
 21
308.6716775169794
 31
0.0
  0
ARC
  5
345
330
1A
100
AcDbEntity
  8
NOKITOI
  6
PHANTOM
 62
     8
100
AcDbCircle
 10
401.1721962456804
 20
307.0079077494743
 30
0.0
 40
0.4999578477751074
100
AcDbArc
 50
83.52609071220751
 51
188.1330561712932
  0
LINE
  5
346
330
1A
100
AcDbEntity
  8
NOKITOI
  6
PHANTOM
 62
     8
100
AcDbLine
 10
402.2562668731807
 20
309.8302775169796
 30
0.0
 11
399.3196668731807
 21
309.8302775169796
 31
0.0
  0
ARC
  5
347
330
1A
100
AcDbEntity
  8
NOKITOI
  6
PHANTOM
 62
     8
100
AcDbCircle
 10
396.6589799441853
 20
298.2302893472594
 30
0.0
 40
0.499988169890889
100
AcDbArc
 50
90.00149786226634
 51
174.2966061377162
  0
LINE
  5
348
330
1A
100
AcDbEntity
  8
NOKITOI
  6
PHANTOM
 62
     8
100
AcDbLine
 10
396.6589668731803
 20
298.7302775169795
 30
0.0
 11
402.6908668731807
 21
298.7302775169795
 31
0.0
  0
LINE
  5
349
330
1A
100
AcDbEntity
  8
NOKITOI
  6
PHANTOM
 62
     8
100
AcDbLine
 10
404.6899668731807
 20
300.6676775169795
 30
0.0
 11
404.7754668731804
 21
303.4052775169794
 31
0.0
  0
LINE
  5
34A
330
1A
100
AcDbEntity
  8
NOKITOI
  6
PHANTOM
 62
     8
100
AcDbLine
 10
404.2289668731809
 20
312.3301775169794
 30
0.0
 11
401.7562668731807
 21
312.3302775169796
 31
0.0
  0
LINE
  5
34B
330
1A
100
AcDbEntity
  8
NOKITOI
  6
PHANTOM
 62
     8
100
AcDbLine
 10
404.2289668731809
 20
313.5301775169795
 30
0.0
 11
400.9023668731806
 21
313.5302775169794
 31
0.0
  0
LINE
  5
34E
330
1A
100
AcDbEntity
  8
NOKITOI
  6
PHANTOM
 62
     8
100
AcDbLine
 10
400.6728668731807
 20
311.6282775169796
 30
0.0
 11
400.4120668731807
 21
312.9322775169795
 31
0.0
  0
ARC
  5
34F
330
1A
100
AcDbEntity
  8
NOKITOI
  6
PHANTOM
 62
     8
100
AcDbCircle
 10
400.1825660901722
 20
311.5302765619777
 30
0.0
 40
0.4999990449987399
100
AcDbArc
 50
270.000089726305
 51
11.30328019845521
  0
ARC
  5
350
330
1A
100
AcDbEntity
  8
NOKITOI
  6
PHANTOM
 62
     8
100
AcDbCircle
 10
400.9023596186252
 20
313.030268667136
 30
0.0
 40
0.500008849895925
100
AcDbArc
 50
89.99916870385415
 51
191.3135956695126
  0
LINE
  5
351
330
1A
100
AcDbEntity
  8
NOKITOI
  6
PHANTOM
 62
     8
100
AcDbLine
 10
397.9510668731809
 20
311.0302775169794
 30
0.0
 11
400.1825668731807
 21
311.0302775169794
 31
0.0
  0
ARC
  5
352
330
1A
100
AcDbEntity
  8
NOKITOI
  6
PHANTOM
 62
     8
100
AcDbCircle
 10
404.2290108395336
 20
311.5302321545065
 30
0.0
 40
0.7999453636812564
100
AcDbArc
 50
358.2123436447881
 51
90.00314907315425
  0
TEXT
  5
35E
330
1A
100
AcDbEntity
  8
SUNPOU
  6
CONTINUOUS
 62
     4
100
AcDbText
 10
628.1438596095836
 20
352.4200233232119
 30
0.0
 40
6.0
  1
10
100
AcDbText
  0
LINE
  5
35F
330
1A
100
AcDbEntity
  8
SUNPOU
  6
CONTINUOUS
 62
     4
100
AcDbLine
 10
619.5796125648152
 20
360.3949829216196
 30
0.0
 11
639.5796125648151
 21
360.3949829216196
 31
0.0
  0
LINE
  5
360
330
1A
100
AcDbEntity
  8
SUNPOU
  6
CONTINUOUS
 62
     4
100
AcDbLine
 10
639.5796125648151
 20
368.3949829216196
 30
0.0
 11
619.5796125648152
 21
360.3949829216196
 31
0.0
  0
LINE
  5
361
330
1A
100
AcDbEntity
  8
SUNPOU
  6
CONTINUOUS
 62
     4
100
AcDbLine
 10
639.5796125648151
 20
360.3949829216196
 30
0.0
 11
639.5796125648151
 21
368.3949829216196
 31
0.0
  0
TEXT
  5
362
330
1A
100
AcDbEntity
  8
SUNPOU
  6
CONTINUOUS
 62
     4
100
AcDbText
 10
643.8743110331736
 20
361.552797792648
 30
0.0
 40
6.0
  1
4
100
AcDbText
  0
ARC
  5
8FD
330
1A
100
AcDbEntity
  8
SEIHIN
 62
     3
100
AcDbCircle
 10
304.651429053889
 20
306.2389655717848
 30
0.0
 40
2.000000001052705
100
AcDbArc
 50
270.0
 51
299.9999999651758
  0
ARC
  5
8FF
330
1A
100
AcDbEntity
  8
SEIHIN
 62
     3
100
AcDbCircle
 10
304.597840653889
 20
306.4389655717849
 30
0.0
 40
6.70000001483484
100
AcDbArc
 50
270.0
 51
300.0000087406067
  0
LINE
  5
900
330
1A
100
AcDbEntity
  8
SEIHIN
 62
     3
100
AcDbLine
 10
290.058185353889
 20
306.0224909617849
 30
0.0
 11
290.848300953889
 21
305.0077357517849
 31
0.0
  0
ARC
  5
901
330
1A
100
AcDbEntity
  8
SEIHIN
 62
     3
100
AcDbCircle
 10
296.9591240538889
 20
301.5933775717849
 30
0.0
 40
6.999999998144283
100
AcDbArc
 50
137.9753724543312
 51
180.0000000818504
  0
ARC
  5
902
330
1A
100
AcDbEntity
  8
SEIHIN
 62
     3
100
AcDbCircle
 10
296.9591240538889
 20
301.5933775717849
 30
0.0
 40
8.200000025865952
100
AcDbArc
 50
136.4895916441825
 51
180.0000000698716
  0
LINE
  5
903
330
1A
100
AcDbEntity
  8
SEIHIN
 62
     3
100
AcDbLine
 10
291.884208953889
 20
300.9389655717849
 30
0.0
 11
290.1819155538889
 21
303.3197404217848
 31
0.0
  0
ARC
  5
904
330
1A
100
AcDbEntity
  8
SEIHIN
 62
     3
100
AcDbCircle
 10
290.459124053889
 20
301.4389655717849
 30
0.0
 40
1.700000020814075
100
AcDbArc
 50
180.0820145529315
 51
270.0
  0
ARC
  5
905
330
1A
100
AcDbEntity
  8
SEIHIN
 62
     3
100
AcDbCircle
 10
290.459124053889
 20
301.4389655717849
 30
0.0
 40
0.5
100
AcDbArc
 50
180.0
 51
270.0
  0
ARC
  5
906
330
1A
100
AcDbEntity
  8
SEIHIN
 62
     3
100
AcDbCircle
 10
290.459124053889
 20
301.4389655717849
 30
0.0
 40
1.700000020814068
100
AcDbArc
 50
180.0000003370341
 51
180.0820145529315
  0
LINE
  5
907
330
1A
100
AcDbEntity
  8
SEIHIN
 62
     3
100
AcDbLine
 10
288.759124053889
 20
301.5933775717849
 30
0.0
 11
288.759124053889
 21
301.4389655717849
 31
0.0
  0
LINE
  5
908
330
1A
100
AcDbEntity
  8
SEIHIN
 62
     3
100
AcDbLine
 10
289.959124053889
 20
301.4389655717849
 30
0.0
 11
289.959124053889
 21
301.5933775717849
 31
0.0
  0
LINE
  5
909
330
1A
100
AcDbEntity
  8
SEIHIN
 62
     3
100
AcDbLine
 10
295.3591240538889
 20
302.2389655717848
 30
0.0
 11
295.3591240538889
 21
299.7389655717848
 31
0.0
  0
LINE
  5
90B
330
1A
100
AcDbEntity
  8
SEIHIN
 62
     3
100
AcDbLine
 10
304.597840653889
 20
299.7389655717848
 30
0.0
 11
290.459124053889
 21
299.7389655717848
 31
0.0
  0
LINE
  5
90C
330
1A
100
AcDbEntity
  8
SEIHIN
 62
     3
100
AcDbLine
 10
290.459124053889
 20
300.9389655717849
 30
0.0
 11
295.3591240538889
 21
300.9389655717849
 31
0.0
  0
LINE
  5
90D
330
1A
100
AcDbEntity
  8
SEIHIN
 62
     3
100
AcDbLine
 10
297.359124053889
 20
304.2389655717848
 30
0.0
 11
304.651429053889
 21
304.2389655717848
 31
0.0
  0
LINE
  5
90E
330
1A
100
AcDbEntity
  8
SEIHIN
 62
     3
100
AcDbLine
 10
291.759124053889
 20
306.2795273717849
 30
0.0
 11
291.012079753889
 21
307.2389655717849
 31
0.0
  0
ARC
  5
90F
330
1A
100
AcDbEntity
  8
SEIHIN
 62
     3
100
AcDbCircle
 10
297.359124053889
 20
302.2389655717848
 30
0.0
 40
2.0
100
AcDbArc
 50
90.0
 51
180.0000002864791
  0
LINE
  5
911
330
1A
100
AcDbEntity
  8
SEIHIN
 62
     3
100
AcDbLine
 10
313.259124053889
 20
307.7389655717849
 30
0.0
 11
372.662923023889
 21
307.7389655717849
 31
0.0
  0
ARC
  5
913
330
1A
100
AcDbEntity
  8
SEIHIN
 62
     3
100
AcDbCircle
 10
364.539124023889
 20
302.9347985717848
 30
0.0
 40
5.704166995525981
100
AcDbArc
 50
57.37535862169602
 51
122.624641432457
  0
LINE
  5
914
330
1A
100
AcDbEntity
  8
SEIHIN
 62
     3
100
AcDbLine
 10
362.539124023889
 20
303.2389655717849
 30
0.0
 11
366.539124023889
 21
303.2389655717849
 31
0.0
  0
LINE
  5
915
330
1A
100
AcDbEntity
  8
SEIHIN
 62
     3
100
AcDbLine
 10
362.455640023889
 20
302.6389655717849
 30
0.0
 11
366.622609023889
 21
302.6389655717849
 31
0.0
  0
LINE
  5
916
330
1A
100
AcDbEntity
  8
SEIHIN
 62
     3
100
AcDbLine
 10
313.259124053889
 20
303.2389655717849
 30
0.0
 11
362.539124023889
 21
303.2389655717849
 31
0.0
  0
LINE
  5
918
330
1A
100
AcDbEntity
  8
SEIHIN
 62
     3
100
AcDbLine
 10
311.759124053889
 20
302.8370415717848
 30
0.0
 11
307.947841553889
 21
300.6365958517849
 31
0.0
  0
ARC
  5
919
330
1A
100
AcDbEntity
  8
SEIHIN
 62
     3
100
AcDbCircle
 10
313.259124053889
 20
300.2389655717848
 30
0.0
 40
2.999999999413997
100
AcDbArc
 50
90.0
 51
120.0000000129247
  0
ARC
  5
91B
330
1A
100
AcDbEntity
  8
SEIHIN
 62
     3
100
AcDbCircle
 10
313.259124053889
 20
300.2389655717848
 30
0.0
 40
7.499999996369929
100
AcDbArc
 50
90.0
 51
120.0000000320229
  0
LINE
  5
91D
330
1A
100
AcDbEntity
  8
SEIHIN
 62
     3
100
AcDbLine
 10
305.651429053889
 20
304.5069145717849
 30
0.0
 11
309.509124053889
 21
306.7341555717849
 31
0.0
  0
ARC
  5
925
330
1A
100
AcDbEntity
  8
SEIHIN
 62
     3
100
AcDbCircle
 10
362.455640023889
 20
303.6389655717849
 30
0.0
 40
1.000000000462305
100
AcDbArc
 50
203.578178455081
 51
270.0
  0
LINE
  5
929
330
1A
100
AcDbEntity
  8
SEIHIN
 62
     3
100
AcDbLine
 10
378.5380580238889
 20
313.3708425717849
 30
0.0
 11
377.761694703889
 21
308.4690727917849
 31
0.0
  0
LINE
  5
92A
330
1A
100
AcDbEntity
  8
SEIHIN
 62
     3
100
AcDbLine
 10
408.9891240238889
 20
315.2389655717848
 30
0.0
 11
408.9891240238889
 21
302.4750335717849
 31
0.0
  0
LINE
  5
92B
330
1A
100
AcDbEntity
  8
SEIHIN
 62
     3
100
AcDbLine
 10
407.989124023889
 20
315.2389655717848
 30
0.0
 11
407.989124023889
 21
298.5389655717849
 31
0.0
  0
LINE
  5
92E
330
1A
100
AcDbEntity
  8
SEIHIN
 62
     3
100
AcDbLine
 10
406.789124023889
 20
315.2389655717848
 30
0.0
 11
406.789124023889
 21
298.5389655717849
 31
0.0
  0
LINE
  5
92F
330
1A
100
AcDbEntity
  8
SEIHIN
 62
     3
100
AcDbLine
 10
388.192652023889
 20
314.7896845717849
 30
0.0
 11
383.605397023889
 21
304.2389975717849
 31
0.0
  0
LINE
  5
930
330
1A
100
AcDbEntity
  8
SEIHIN
 62
     3
100
AcDbLine
 10
374.093461023889
 20
314.0747975717848
 30
0.0
 11
373.156767023889
 21
308.1607475717849
 31
0.0
  0
LINE
  5
932
330
1A
100
AcDbEntity
  8
SEIHIN
 62
     3
100
AcDbLine
 10
381.202695023889
 20
314.8389655717849
 30
0.0
 11
381.202695023889
 21
310.0062975717849
 31
0.0
  0
LINE
  5
933
330
1A
100
AcDbEntity
  8
SEIHIN
 62
     3
100
AcDbLine
 10
380.802695023889
 20
314.8389655717849
 30
0.0
 11
380.802695023889
 21
310.0062975717849
 31
0.0
  0
LINE
  5
935
330
1A
100
AcDbEntity
  8
SEIHIN
 62
     3
100
AcDbLine
 10
394.605397023889
 20
308.4326745717849
 30
0.0
 11
394.605397023889
 21
314.3915955717849
 31
0.0
  0
ARC
  5
936
330
1A
100
AcDbEntity
  8
SEIHIN
 62
     3
100
AcDbCircle
 10
379.802695023889
 20
310.0062975717849
 30
0.0
 40
1.00000000242602
100
AcDbArc
 50
285.0000002160139
 51
0.0
  0
ARC
  5
937
330
1A
100
AcDbEntity
  8
SEIHIN
 62
     3
100
AcDbCircle
 10
379.802695023889
 20
310.0062975717849
 30
0.0
 40
1.400000001136407
100
AcDbArc
 50
284.9999998418851
 51
0.0
  0
LINE
  5
938
330
1A
100
AcDbEntity
  8
SEIHIN
 62
     3
100
AcDbLine
 10
378.798149023889
 20
304.2389975717849
 30
0.0
 11
393.605397023889
 21
304.2389975717849
 31
0.0
  0
LINE
  5
939
330
1A
100
AcDbEntity
  8
SEIHIN
 62
     3
100
AcDbLine
 10
378.798149023889
 20
304.2389975717849
 30
0.0
 11
393.605397023889
 21
304.2389975717849
 31
0.0
  0
LINE
  5
93A
330
1A
100
AcDbEntity
  8
SEIHIN
 62
     3
100
AcDbLine
 10
378.781797023889
 20
304.6389975717849
 30
0.0
 11
383.779310023889
 21
304.6389975717849
 31
0.0
  0
ARC
  5
93B
330
1A
100
AcDbEntity
  8
SEIHIN
 62
     3
100
AcDbCircle
 10
372.662923023889
 20
308.2389655717848
 30
0.0
 40
0.5000000004381011
100
AcDbArc
 50
270.0
 51
350.9999991480861
  0
ARC
  5
93E
330
1A
100
AcDbEntity
  8
SEIHIN
 62
     3
100
AcDbCircle
 10
371.638026853889
 20
309.4389655717849
 30
0.0
 40
6.199999997654025
100
AcDbArc
 50
270.0
 51
351.0000084443393
  0
LINE
  5
942
330
1A
100
AcDbEntity
  8
SEIHIN
 62
     3
100
AcDbLine
 10
366.539124023889
 20
303.2389655717849
 30
0.0
 11
371.638026853889
 21
303.2389655717849
 31
0.0
  0
ARC
  5
945
330
1A
100
AcDbEntity
  8
SEIHIN
 62
     3
100
AcDbCircle
 10
366.622608023889
 20
303.6389655717849
 30
0.0
 40
1.000000000462305
100
AcDbArc
 50
270.0
 51
336.421821544919
  0
ARC
  5
94A
330
1A
100
AcDbEntity
  8
SEIHIN
 62
     3
100
AcDbCircle
 10
378.798149023889
 20
306.4317495717849
 30
0.0
 40
1.792751996555905
100
AcDbArc
 50
105.0000000343158
 51
131.4901295096818
  0
ARC
  5
94B
330
1A
100
AcDbEntity
  8
SEIHIN
 62
     3
100
AcDbCircle
 10
378.798149023889
 20
306.4317495717849
 30
0.0
 40
2.192751996560394
100
AcDbArc
 50
105.000000080988
 51
118.7852858525369
  0
LINE
  5
94C
330
1A
100
AcDbEntity
  8
SEIHIN
 62
     3
100
AcDbLine
 10
378.322031023889
 20
308.1601685717848
 30
0.0
 11
380.165041023889
 21
308.6540015717848
 31
0.0
  0
LINE
  5
94D
330
1A
100
AcDbEntity
  8
SEIHIN
 62
     3
100
AcDbLine
 10
378.230623023889
 20
308.5497855717849
 30
0.0
 11
380.0615140238889
 21
309.0403715717849
 31
0.0
  0
LINE
  5
94E
330
1A
100
AcDbEntity
  8
SEIHIN
 62
     3
100
AcDbLine
 10
383.785397023889
 20
304.6389975717849
 30
0.0
 11
393.605397023889
 21
304.6389975717849
 31
0.0
  0
LINE
  5
94F
330
1A
100
AcDbEntity
  8
SEIHIN
 62
     3
100
AcDbLine
 10
381.892324023889
 20
304.2389975717849
 30
0.0
 11
381.892324023889
 21
304.6389975717849
 31
0.0
  0
LINE
  5
950
330
1A
100
AcDbEntity
  8
SEIHIN
 62
     3
100
AcDbLine
 10
394.605397023889
 20
308.2326745717849
 30
0.0
 11
393.605397023889
 21
304.2389975717849
 31
0.0
  0
LINE
  5
951
330
1A
100
AcDbEntity
  8
SEIHIN
 62
     3
100
AcDbLine
 10
390.892324023889
 20
304.2389975717849
 30
0.0
 11
390.892324023889
 21
304.6389975717849
 31
0.0
  0
LINE
  5
952
330
1A
100
AcDbEntity
  8
SEIHIN
 62
     3
100
AcDbLine
 10
393.605397023889
 20
304.2389975717849
 30
0.0
 11
393.605397023889
 21
304.6389975717849
 31
0.0
  0
LINE
  5
955
330
1A
100
AcDbEntity
  8
SEIHIN
 62
     3
100
AcDbLine
 10
398.483843663889
 20
295.0801465617849
 30
0.0
 11
401.020269963889
 21
285.6140733317849
 31
0.0
  0
LINE
  5
956
330
1A
100
AcDbEntity
  8
SEIHIN
 62
     3
100
AcDbLine
 10
397.3247326638889
 20
294.7695637417849
 30
0.0
 11
399.861158963889
 21
285.3034905217849
 31
0.0
  0
LINE
  5
958
330
1A
100
AcDbEntity
  8
SEIHIN
 62
     3
100
AcDbLine
 10
400.502631943889
 20
287.5459250017849
 30
0.0
 11
399.343520953889
 21
287.2353421517848
 31
0.0
  0
LINE
  5
959
330
1A
100
AcDbEntity
  8
SEIHIN
 62
     3
100
AcDbLine
 10
399.861158973889
 20
285.3034904817849
 30
0.0
 11
401.020269963889
 21
285.6140733317849
 31
0.0
  0
ARC
  5
95C
330
1A
100
AcDbEntity
  8
SEIHIN
 62
     3
100
AcDbCircle
 10
405.989124023889
 20
302.4750335717849
 30
0.0
 40
3.000000004265107
100
AcDbArc
 50
311.8103150062962
 51
0.0
  0
LINE
  5
95D
330
1A
100
AcDbEntity
  8
SEIHIN
 62
     3
100
AcDbLine
 10
399.435821683889
 20
297.5389655717849
 30
0.0
 11
405.789124023889
 21
297.5389655717849
 31
0.0
  0
LINE
  5
95E
330
1A
100
AcDbEntity
  8
SEIHIN
 62
     3
100
AcDbLine
 10
399.4497694938889
 20
296.3389655717849
 30
0.0
 11
405.789124023889
 21
296.3389655717849
 31
0.0
  0
ARC
  5
95F
330
1A
100
AcDbEntity
  8
SEIHIN
 62
     3
100
AcDbCircle
 10
399.4497694938889
 20
295.3389655717849
 30
0.0
 40
2.199999996916341
100
AcDbArc
 50
180.0000002604354
 51
194.9999981765602
  0
ARC
  5
960
330
1A
100
AcDbEntity
  8
SEIHIN
 62
     3
100
AcDbCircle
 10
399.4497694938889
 20
295.3389655717849
 30
0.0
 40
2.199999994483917
100
AcDbArc
 50
90.20054527422605
 51
105.0000000722989
  0
ARC
  5
961
330
1A
100
AcDbEntity
  8
SEIHIN
 62
     3
100
AcDbCircle
 10
399.4497694938889
 20
295.3389655717849
 30
0.0
 40
0.9999999972496434
100
AcDbArc
 50
90.0
 51
194.9999980022748
  0
ARC
  5
962
330
1A
100
AcDbEntity
  8
SEIHIN
 62
     3
100
AcDbCircle
 10
399.4497694938889
 20
295.3389655717849
 30
0.0
 40
2.199999996315752
100
AcDbArc
 50
105.0000000722989
 51
180.0000002604354
  0
ARC
  5
963
330
1A
100
AcDbEntity
  8
SEIHIN
 62
     3
100
AcDbCircle
 10
399.4497694938889
 20
295.3389655717849
 30
0.0
 40
2.199999998168167
100
AcDbArc
 50
90.0
 51
90.20054527422605
  0
ARC
  5
965
330
1A
100
AcDbEntity
  8
SEIHIN
 62
     3
100
AcDbCircle
 10
405.789124023889
 20
298.5389655717849
 30
0.0
 40
1.0
100
AcDbArc
 50
270.0
 51
0.0
  0
ARC
  5
966
330
1A
100
AcDbEntity
  8
SEIHIN
 62
     3
100
AcDbCircle
 10
405.789124023889
 20
298.5389655717849
 30
0.0
 40
2.200000000000001
100
AcDbArc
 50
270.0
 51
0.0
  0
LINE
  5
96A
330
1A
100
AcDbEntity
  8
SEIHIN
 62
     3
100
AcDbLine
 10
405.789124023889
 20
316.2389655717849
 30
0.0
 11
388.642324023889
 21
316.2389655717849
 31
0.0
  0
LINE
  5
96B
330
1A
100
AcDbEntity
  8
SEIHIN
 62
     3
100
AcDbLine
 10
381.896199023889
 20
320.7389655717848
 30
0.0
 11
402.789124023889
 21
320.7389655717848
 31
0.0
  0
ARC
  5
96F
330
1A
100
AcDbEntity
  8
SEIHIN
 62
     3
100
AcDbCircle
 10
381.896199023889
 20
312.8389655717849
 30
0.0
 40
3.400000000887181
100
AcDbArc
 50
90.0
 51
171.0000000241322
  0
ARC
  5
970
330
1A
100
AcDbEntity
  8
SEIHIN
 62
     3
100
AcDbCircle
 10
381.896199023889
 20
312.8389655717849
 30
0.0
 40
7.899999999354902
100
AcDbArc
 50
90.0
 51
171.000000026553
  0
LINE
  5
974
330
1A
100
AcDbEntity
  8
SEIHIN
 62
     3
100
AcDbLine
 10
384.308840023889
 20
315.2389655717848
 30
0.0
 11
388.475809023889
 21
315.2389655717848
 31
0.0
  0
LINE
  5
975
330
1A
100
AcDbEntity
  8
SEIHIN
 62
     3
100
AcDbLine
 10
382.202695023889
 20
315.8389655717849
 30
0.0
 11
391.981895023889
 21
315.8389655717849
 31
0.0
  0
LINE
  5
976
330
1A
100
AcDbEntity
  8
SEIHIN
 62
     3
100
AcDbLine
 10
388.642324023889
 20
316.2389655717849
 30
0.0
 11
384.142324023889
 21
316.2389655717849
 31
0.0
  0
ARC
  5
978
330
1A
100
AcDbEntity
  8
SEIHIN
 62
     3
100
AcDbCircle
 10
384.308840023889
 20
316.2389655717849
 30
0.0
 40
1.000000000462305
100
AcDbArc
 50
203.578178455081
 51
270.0
  0
LINE
  5
979
330
1A
100
AcDbEntity
  8
SEIHIN
 62
     3
100
AcDbLine
 10
384.142324023889
 20
316.2389655717849
 30
0.0
 11
381.896199023889
 21
316.2389655717849
 31
0.0
  0
ARC
  5
97B
330
1A
100
AcDbEntity
  8
SEIHIN
 62
     3
100
AcDbCircle
 10
382.202695023889
 20
314.8389655717849
 30
0.0
 40
1.0
100
AcDbArc
 50
90.0
 51
180.0000005729565
  0
ARC
  5
97C
330
1A
100
AcDbEntity
  8
SEIHIN
 62
     3
100
AcDbCircle
 10
382.202695023889
 20
314.8389655717849
 30
0.0
 40
1.399999999999998
100
AcDbArc
 50
90.0
 51
180.0000004092556
  0
LINE
  5
97F
330
1A
100
AcDbEntity
  8
SEIHIN
 62
     3
100
AcDbLine
 10
393.105397023889
 20
315.6359255717849
 30
0.0
 11
389.544053023889
 21
315.6359255717849
 31
0.0
  0
LINE
  5
980
330
1A
100
AcDbEntity
  8
SEIHIN
 62
     3
100
AcDbLine
 10
393.105397023889
 20
315.6915955717848
 30
0.0
 11
389.568257023889
 21
315.6915955717848
 31
0.0
  0
ARC
  5
981
330
1A
100
AcDbEntity
  8
SEIHIN
 62
     3
100
AcDbCircle
 10
388.475809023889
 20
316.2389655717849
 30
0.0
 40
1.000000005160678
100
AcDbArc
 50
325.0882877584606
 51
336.421821544919
  0
ARC
  5
982
330
1A
100
AcDbEntity
  8
SEIHIN
 62
     3
100
AcDbCircle
 10
388.475809023889
 20
316.2389655717849
 30
0.0
 40
1.000000000760434
100
AcDbArc
 50
270.0
 51
271.0792212267711
  0
ARC
  5
983
330
1A
100
AcDbEntity
  8
SEIHIN
 62
     3
100
AcDbCircle
 10
388.475809023889
 20
316.2389655717849
 30
0.0
 40
1.000000005458808
100
AcDbArc
 50
271.0792212267711
 51
325.0882877584606
  0
ARC
  5
984
330
1A
100
AcDbEntity
  8
SEIHIN
 62
     3
100
AcDbCircle
 10
389.568257023889
 20
314.1915955717848
 30
0.0
 40
1.499999998366152
100
AcDbArc
 50
90.00000190985865
 51
156.5014370654866
  0
ARC
  5
987
330
1A
100
AcDbEntity
  8
SEIHIN
 62
     3
100
AcDbCircle
 10
389.544053023889
 20
314.1359255717849
 30
0.0
 40
1.499999998565515
100
AcDbArc
 50
90.0
 51
156.5014341565161
  0
LINE
  5
988
330
1A
100
AcDbEntity
  8
SEIHIN
 62
     3
100
AcDbLine
 10
391.981895023889
 20
315.8389655717849
 30
0.0
 11
391.981895023889
 21
316.2389655717849
 31
0.0
  0
ARC
  5
989
330
1A
100
AcDbEntity
  8
SEIHIN
 62
     3
100
AcDbCircle
 10
393.105397023889
 20
314.1359255717849
 30
0.0
 40
1.5
100
AcDbArc
 50
0.0
 51
90.0
  0
ARC
  5
98A
330
1A
100
AcDbEntity
  8
SEIHIN
 62
     3
100
AcDbCircle
 10
393.105397023889
 20
314.1915955717848
 30
0.0
 40
1.5
100
AcDbArc
 50
0.0
 51
90.0
  0
ARC
  5
98E
330
1A
100
AcDbEntity
  8
SEIHIN
 62
     3
100
AcDbCircle
 10
405.789124023889
 20
315.2389655717848
 30
0.0
 40
3.200000000000001
100
AcDbArc
 50
0.0
 51
90.0
  0
LINE
  5
98F
330
1A
100
AcDbEntity
  8
SEIHIN
 62
     3
100
AcDbLine
 10
404.789124023889
 20
318.7389655717848
 30
0.0
 11
404.789124023889
 21
316.2389655717849
 31
0.0
  0
ARC
  5
990
330
1A
100
AcDbEntity
  8
SEIHIN
 62
     3
100
AcDbCircle
 10
405.789124023889
 20
315.2389655717848
 30
0.0
 40
1.0
100
AcDbArc
 50
0.0
 51
90.0
  0
ARC
  5
991
330
1A
100
AcDbEntity
  8
SEIHIN
 62
     3
100
AcDbCircle
 10
405.789124023889
 20
315.2389655717848
 30
0.0
 40
2.200000000000001
100
AcDbArc
 50
0.0
 51
90.0
  0
LINE
  5
992
330
1A
100
AcDbEntity
  8
SEIHIN
 62
     3
100
AcDbLine
 10
405.789124023889
 20
317.4389655717849
 30
0.0
 11
404.789124023889
 21
317.4389655717849
 31
0.0
  0
ARC
  5
994
330
1A
100
AcDbEntity
  8
SEIHIN
 62
     3
100
AcDbCircle
 10
402.789124023889
 20
318.7389655717848
 30
0.0
 40
2.000000000000001
100
AcDbArc
 50
0.0
 51
90.0
  0
LINE
  5
996
330
1A
100
AcDbEntity
  8
SEIHIN
 62
     3
100
AcDbLine
 10
404.789124023889
 20
318.4389655717849
 30
0.0
 11
405.789124023889
 21
318.4389655717849
 31
0.0
  0
LINE
  5
998
330
1A
100
AcDbEntity
  8
SEIHIN
 62
     3
100
AcDbLine
 10
293.8590800538889
 20
437.6993298713497
 30
0.0
 11
404.589078023889
 21
437.6993298713497
 31
0.0
  0
LINE
  5
999
330
1A
100
AcDbEntity
  8
SEIHIN
 62
     3
100
AcDbLine
 10
293.8590800538889
 20
421.7993298713497
 30
0.0
 11
404.589078023889
 21
421.7993298713497
 31
0.0
  0
LINE
  5
99A
330
1A
100
AcDbEntity
  8
SEIHIN
 62
     3
100
AcDbLine
 10
293.8590800538889
 20
436.4993298713496
 30
0.0
 11
407.989078023889
 21
436.4993298713496
 31
0.0
  0
LINE
  5
99B
330
1A
100
AcDbEntity
  8
SEIHIN
 62
     3
100
AcDbLine
 10
293.8590800538889
 20
422.9993298713496
 30
0.0
 11
407.989078023889
 21
422.9993298713496
 31
0.0
  0
LINE
  5
99D
330
1A
100
AcDbEntity
  8
SEIHIN
 62
     3
100
AcDbLine
 10
291.012079753889
 20
435.4993298713496
 30
0.0
 11
291.012079753889
 21
423.9993298713496
 31
0.0
  0
LINE
  5
99E
330
1A
100
AcDbEntity
  8
SEIHIN
 62
     3
100
AcDbLine
 10
288.759124053889
 20
423.9993298713496
 30
0.0
 11
288.759124053889
 21
426.7493298713496
 31
0.0
  0
LINE
  5
99F
330
1A
100
AcDbEntity
  8
SEIHIN
 62
     3
100
AcDbLine
 10
289.759124053889
 20
427.684752356474
 30
0.0
 11
289.759124053889
 21
431.8139073862252
 31
0.0
  0
LINE
  5
9A0
330
1A
100
AcDbEntity
  8
SEIHIN
 62
     3
100
AcDbLine
 10
289.759124053889
 20
427.684752356474
 30
0.0
 11
288.759124053889
 21
426.7493298713496
 31
0.0
  0
LINE
  5
9A1
330
1A
100
AcDbEntity
  8
SEIHIN
 62
     3
100
AcDbLine
 10
291.759124053889
 20
423.9993298713496
 30
0.0
 11
291.759124053889
 21
435.4993298713496
 31
0.0
  0
LINE
  5
9A2
330
1A
100
AcDbEntity
  8
SEIHIN
 62
     3
100
AcDbLine
 10
288.759124053889
 20
423.9993298713496
 30
0.0
 11
291.012079753889
 21
423.9993298713496
 31
0.0
  0
LINE
  5
9A3
330
1A
100
AcDbEntity
  8
SEIHIN
 62
     3
100
AcDbLine
 10
293.8590800538889
 20
422.9993298713496
 30
0.0
 11
293.8590800538889
 21
422.9993298713496
 31
0.0
  0
LINE
  5
9A4
330
1A
100
AcDbEntity
  8
SEIHIN
 62
     3
100
AcDbLine
 10
293.8590800538889
 20
421.7993298713497
 30
0.0
 11
293.8590800538889
 21
422.9993298713496
 31
0.0
  0
LINE
  5
9A5
330
1A
100
AcDbEntity
  8
SEIHIN
 62
     3
100
AcDbLine
 10
291.012079753889
 20
423.9993298713496
 30
0.0
 11
292.859080053889
 21
423.9993298713496
 31
0.0
  0
LINE
  5
9A7
330
1A
100
AcDbEntity
  8
SEIHIN
 62
     3
100
AcDbLine
 10
288.759124053889
 20
432.7493298713497
 30
0.0
 11
289.759124053889
 21
431.8139073862252
 31
0.0
  0
LINE
  5
9A8
330
1A
100
AcDbEntity
  8
SEIHIN
 62
     3
100
AcDbLine
 10
288.759124053889
 20
435.4993298713496
 30
0.0
 11
291.012079753889
 21
435.4993298713496
 31
0.0
  0
LINE
  5
9AA
330
1A
100
AcDbEntity
  8
SEIHIN
 62
     3
100
AcDbLine
 10
291.012079753889
 20
435.4993298713496
 30
0.0
 11
292.859080053889
 21
435.4993298713496
 31
0.0
  0
LINE
  5
9AB
330
1A
100
AcDbEntity
  8
SEIHIN
 62
     3
100
AcDbLine
 10
293.8590800538889
 20
436.4993298713496
 30
0.0
 11
293.8590800538889
 21
436.4993298713496
 31
0.0
  0
LINE
  5
9AC
330
1A
100
AcDbEntity
  8
SEIHIN
 62
     3
100
AcDbLine
 10
293.8590800538889
 20
436.4993298713496
 30
0.0
 11
293.8590800538889
 21
437.6993298713497
 31
0.0
  0
CIRCLE
  5
9AE
330
1A
100
AcDbEntity
  8
SEIHIN
 62
     3
100
AcDbCircle
 10
364.539124023889
 20
429.7493298713496
 30
0.0
 40
3.5
  0
LINE
  5
9B1
330
1A
100
AcDbEntity
  8
SEIHIN
 62
     3
100
AcDbLine
 10
354.539124023889
 20
436.2493298713497
 30
0.0
 11
370.539124023889
 21
436.2493298713497
 31
0.0
  0
LINE
  5
9B2
330
1A
100
AcDbEntity
  8
SEIHIN
 62
     3
100
AcDbLine
 10
370.539124023889
 20
423.2493298713497
 30
0.0
 11
354.539124023889
 21
423.2493298713497
 31
0.0
  0
LINE
  5
9B4
330
1A
100
AcDbEntity
  8
SEIHIN
 62
     3
100
AcDbLine
 10
326.539078053889
 20
427.2493298713497
 30
0.0
 11
354.539124023889
 21
427.2493298713497
 31
0.0
  0
LINE
  5
9B5
330
1A
100
AcDbEntity
  8
SEIHIN
 62
     3
100
AcDbLine
 10
326.539078053889
 20
432.2493298713497
 30
0.0
 11
354.539124023889
 21
432.2493298713497
 31
0.0
  0
ARC
  5
9B6
330
1A
100
AcDbEntity
  8
SEIHIN
 62
     3
100
AcDbCircle
 10
326.539078053889
 20
429.7493298713496
 30
0.0
 40
2.5
100
AcDbArc
 50
180.0000002291823
 51
270.0
  0
LINE
  5
9B7
330
1A
100
AcDbEntity
  8
SEIHIN
 62
     3
100
AcDbLine
 10
320.539035053889
 20
422.9993298713496
 30
0.0
 11
320.539035053889
 21
436.4993298713496
 31
0.0
  0
ARC
  5
9B8
330
1A
100
AcDbEntity
  8
SEIHIN
 62
     3
100
AcDbCircle
 10
326.539078053889
 20
429.7493298713496
 30
0.0
 40
2.5
100
AcDbArc
 50
90.0
 51
180.0000002291823
  0
LINE
  5
9BA
330
1A
100
AcDbEntity
  8
SEIHIN
 62
     3
100
AcDbLine
 10
354.539124023889
 20
423.2493298713497
 30
0.0
 11
354.539124023889
 21
436.2493298713497
 31
0.0
  0
LINE
  5
9C0
330
1A
100
AcDbEntity
  8
SEIHIN
 62
     3
100
AcDbLine
 10
408.9891240238889
 20
423.2493298713497
 30
0.0
 11
374.424383723889
 21
423.2493298713497
 31
0.0
  0
LINE
  5
9C1
330
1A
100
AcDbEntity
  8
SEIHIN
 62
     3
100
AcDbLine
 10
374.424383723889
 20
436.2493298713497
 30
0.0
 11
408.9891240238889
 21
436.2493298713497
 31
0.0
  0
LINE
  5
9C5
330
1A
100
AcDbEntity
  8
SEIHIN
 62
     3
100
AcDbLine
 10
370.539124023889
 20
436.2493298713497
 30
0.0
 11
370.539124023889
 21
423.2493298713497
 31
0.0
  0
LINE
  5
9C6
330
1A
100
AcDbEntity
  8
SEIHIN
 62
     3
100
AcDbLine
 10
374.424383723889
 20
423.2493298713497
 30
0.0
 11
374.424383723889
 21
436.2493298713497
 31
0.0
  0
ARC
  5
9C8
330
1A
100
AcDbEntity
  8
SEIHIN
 62
     3
100
AcDbCircle
 10
381.941959023889
 20
421.3993298713496
 30
0.0
 40
1.499999998528055
100
AcDbArc
 50
184.0535363990665
 51
270.0
  0
LINE
  5
9C9
330
1A
100
AcDbEntity
  8
SEIHIN
 62
     3
100
AcDbLine
 10
374.424383723889
 20
423.2493298713497
 30
0.0
 11
370.539124023889
 21
423.2493298713497
 31
0.0
  0
ARC
  5
9CA
330
1A
100
AcDbEntity
  8
SEIHIN
 62
     3
100
AcDbCircle
 10
393.105343023889
 20
423.3398418713496
 30
0.0
 40
5.442212002086844
100
AcDbArc
 50
270.0
 51
285.9991570397959
  0
ARC
  5
9CB
330
1A
100
AcDbEntity
  8
SEIHIN
 62
     3
100
AcDbCircle
 10
388.998508023889
 20
420.5351858713497
 30
0.0
 40
2.637556000059316
100
AcDbArc
 50
252.1688580385967
 51
270.0
  0
LINE
  5
9CC
330
1A
100
AcDbEntity
  8
SEIHIN
 62
     3
100
AcDbLine
 10
393.605343023889
 20
419.8993298713496
 30
0.0
 11
381.941959023889
 21
419.8993298713496
 31
0.0
  0
LINE
  5
9CD
330
1A
100
AcDbEntity
  8
SEIHIN
 62
     3
100
AcDbLine
 10
383.6053320238889
 20
419.4993298713496
 30
0.0
 11
388.190855023889
 21
418.0243298713496
 31
0.0
  0
LINE
  5
9CE
330
1A
100
AcDbEntity
  8
SEIHIN
 62
     3
100
AcDbLine
 10
383.6053320238889
 20
419.8993298713496
 30
0.0
 11
388.325167023889
 21
418.3811268713497
 31
0.0
  0
LINE
  5
9CF
330
1A
100
AcDbEntity
  8
SEIHIN
 62
     3
100
AcDbLine
 10
383.6053320238889
 20
419.4993298713496
 30
0.0
 11
383.6053320238889
 21
419.8993298713496
 31
0.0
  0
LINE
  5
9D0
330
1A
100
AcDbEntity
  8
SEIHIN
 62
     3
100
AcDbLine
 10
380.445712023889
 20
421.7493298713496
 30
0.0
 11
380.445712023889
 21
421.2932968713497
 31
0.0
  0
ARC
  5
9D1
330
1A
100
AcDbEntity
  8
SEIHIN
 62
     3
100
AcDbCircle
 10
378.945712023889
 20
421.7493298713496
 30
0.0
 40
1.500000002470376
100
AcDbArc
 50
0.0
 51
1.910213165415673
  0
LINE
  5
9D2
330
1A
100
AcDbEntity
  8
SEIHIN
 62
     3
100
AcDbLine
 10
388.998508023889
 20
418.2937298713496
 30
0.0
 11
393.105343023889
 21
418.2937298713496
 31
0.0
  0
LINE
  5
9D3
330
1A
100
AcDbEntity
  8
SEIHIN
 62
     3
100
AcDbLine
 10
393.105343023889
 20
417.8976298713497
 30
0.0
 11
388.998508023889
 21
417.8976298713497
 31
0.0
  0
ARC
  5
9D4
330
1A
100
AcDbEntity
  8
SEIHIN
 62
     3
100
AcDbCircle
 10
388.998508023889
 20
420.9312858713497
 30
0.0
 40
2.637556001082227
100
AcDbArc
 50
255.209254168823
 51
270.0
  0
LINE
  5
9D5
330
1A
100
AcDbEntity
  8
SEIHIN
 62
     3
100
AcDbLine
 10
394.605343023889
 20
418.1084298713496
 30
0.0
 11
394.605343023889
 21
419.3414298713497
 31
0.0
  0
LINE
  5
9D6
330
1A
100
AcDbEntity
  8
SEIHIN
 62
     3
100
AcDbLine
 10
394.605343023889
 20
419.3414298713497
 30
0.0
 11
393.605343023889
 21
419.8993298713496
 31
0.0
  0
LINE
  5
9D7
330
1A
100
AcDbEntity
  8
SEIHIN
 62
     3
100
AcDbLine
 10
393.605343023889
 20
421.7993298713497
 30
0.0
 11
393.605343023889
 21
419.8993298713496
 31
0.0
  0
ARC
  5
9D8
330
1A
100
AcDbEntity
  8
SEIHIN
 62
     3
100
AcDbCircle
 10
393.105343023889
 20
423.7359418713497
 30
0.0
 40
5.442212002086848
100
AcDbArc
 50
270.0
 51
285.9991570397959
  0
ARC
  5
9D9
330
1A
100
AcDbEntity
  8
SEIHIN
 62
     3
100
AcDbCircle
 10
381.941959023889
 20
438.0993298713497
 30
0.0
 40
1.49999999782117
100
AcDbArc
 50
90.0
 51
175.9464643629666
  0
LINE
  5
9DA
330
1A
100
AcDbEntity
  8
SEIHIN
 62
     3
100
AcDbLine
 10
370.539124023889
 20
436.2493298713497
 30
0.0
 11
374.424383723889
 21
436.2493298713497
 31
0.0
  0
LINE
  5
9DC
330
1A
100
AcDbEntity
  8
SEIHIN
 62
     3
100
AcDbLine
 10
383.6053320238889
 20
439.9993298713496
 30
0.0
 11
388.190855023889
 21
441.4743298713497
 31
0.0
  0
LINE
  5
9DD
330
1A
100
AcDbEntity
  8
SEIHIN
 62
     3
100
AcDbLine
 10
383.6053320238889
 20
439.5993298713497
 30
0.0
 11
388.325167023889
 21
441.1175338713497
 31
0.0
  0
LINE
  5
9DE
330
1A
100
AcDbEntity
  8
SEIHIN
 62
     3
100
AcDbLine
 10
394.605343023889
 20
440.1572298713497
 30
0.0
 11
393.605343023889
 21
439.5993298713497
 31
0.0
  0
LINE
  5
9DF
330
1A
100
AcDbEntity
  8
SEIHIN
 62
     3
100
AcDbLine
 10
393.605343023889
 20
439.5993298713497
 30
0.0
 11
381.941959023889
 21
439.5993298713497
 31
0.0
  0
LINE
  5
9E0
330
1A
100
AcDbEntity
  8
SEIHIN
 62
     3
100
AcDbLine
 10
383.6053320238889
 20
439.9993298713496
 30
0.0
 11
383.6053320238889
 21
439.5993298713497
 31
0.0
  0
LINE
  5
9E1
330
1A
100
AcDbEntity
  8
SEIHIN
 62
     3
100
AcDbLine
 10
380.445712023889
 20
437.7493298713496
 30
0.0
 11
380.445712023889
 21
438.2053628713497
 31
0.0
  0
ARC
  5
9E2
330
1A
100
AcDbEntity
  8
SEIHIN
 62
     3
100
AcDbCircle
 10
378.945712023889
 20
437.7493298713496
 30
0.0
 40
1.500000002470376
100
AcDbArc
 50
358.0897868345843
 51
0.0
  0
LINE
  5
9E3
330
1A
100
AcDbEntity
  8
SEIHIN
 62
     3
100
AcDbLine
 10
393.605343023889
 20
437.6993298713497
 30
0.0
 11
393.605343023889
 21
439.5993298713497
 31
0.0
  0
LINE
  5
9E4
330
1A
100
AcDbEntity
  8
SEIHIN
 62
     3
100
AcDbLine
 10
393.105343023889
 20
441.6010298713497
 30
0.0
 11
388.998508023889
 21
441.6010298713497
 31
0.0
  0
LINE
  5
9E5
330
1A
100
AcDbEntity
  8
SEIHIN
 62
     3
100
AcDbLine
 10
388.998508023889
 20
441.2049298713497
 30
0.0
 11
393.105343023889
 21
441.2049298713497
 31
0.0
  0
ARC
  5
9E6
330
1A
100
AcDbEntity
  8
SEIHIN
 62
     3
100
AcDbCircle
 10
388.998508023889
 20
438.5673748713497
 30
0.0
 40
2.637555997524348
100
AcDbArc
 50
90.0
 51
104.7907460966655
  0
ARC
  5
9E7
330
1A
100
AcDbEntity
  8
SEIHIN
 62
     3
100
AcDbCircle
 10
388.998508023889
 20
438.9634748713497
 30
0.0
 40
2.637555995299503
100
AcDbArc
 50
90.0
 51
107.8311420279226
  0
ARC
  5
9E8
330
1A
100
AcDbEntity
  8
SEIHIN
 62
     3
100
AcDbCircle
 10
393.105343023889
 20
436.1588178713496
 30
0.0
 40
5.442211997280518
100
AcDbArc
 50
74.00084293118777
 51
90.0
  0
ARC
  5
9E9
330
1A
100
AcDbEntity
  8
SEIHIN
 62
     3
100
AcDbCircle
 10
393.105343023889
 20
435.7627178713496
 30
0.0
 40
5.442211997280526
100
AcDbArc
 50
74.00084293118777
 51
90.0
  0
LINE
  5
9EA
330
1A
100
AcDbEntity
  8
SEIHIN
 62
     3
100
AcDbLine
 10
394.605343023889
 20
441.3902298713496
 30
0.0
 11
394.605343023889
 21
440.1572298713497
 31
0.0
  0
LINE
  5
9F0
330
1A
100
AcDbEntity
  8
SEIHIN
 62
     3
100
AcDbLine
 10
411.989124023889
 20
423.2493298713497
 30
0.0
 11
408.9891240238889
 21
423.2493298713497
 31
0.0
  0
LINE
  5
9F3
330
1A
100
AcDbEntity
  8
SEIHIN
 62
     3
100
AcDbLine
 10
404.589078023889
 20
421.7993298713497
 30
0.0
 11
404.589078023889
 21
422.9993298713496
 31
0.0
  0
LINE
  5
9F4
330
1A
100
AcDbEntity
  8
SEIHIN
 62
     3
100
AcDbLine
 10
407.989078023889
 20
422.9993298713496
 30
0.0
 11
407.989078023889
 21
423.2493298713497
 31
0.0
  0
LINE
  5
9F6
330
1A
100
AcDbEntity
  8
SEIHIN
 62
     3
100
AcDbLine
 10
411.989124023889
 20
423.2493298713497
 30
0.0
 11
423.822683493889
 21
423.2493298713497
 31
0.0
  0
LINE
  5
9F7
330
1A
100
AcDbEntity
  8
SEIHIN
 62
     3
100
AcDbLine
 10
408.9891240238889
 20
436.2493298713497
 30
0.0
 11
411.989124023889
 21
436.2493298713497
 31
0.0
  0
LINE
  5
9FC
330
1A
100
AcDbEntity
  8
SEIHIN
 62
     3
100
AcDbLine
 10
404.589078023889
 20
436.4993298713496
 30
0.0
 11
404.589078023889
 21
437.6993298713497
 31
0.0
  0
LINE
  5
9FD
330
1A
100
AcDbEntity
  8
SEIHIN
 62
     3
100
AcDbLine
 10
407.989078023889
 20
436.2493298713497
 30
0.0
 11
407.989078023889
 21
436.4993298713496
 31
0.0
  0
LINE
  5
9FE
330
1A
100
AcDbEntity
  8
SEIHIN
 62
     3
100
AcDbLine
 10
411.989124023889
 20
436.2493298713497
 30
0.0
 11
423.822683493889
 21
436.2493298713497
 31
0.0
  0
ARC
  5
B44
330
1A
100
AcDbEntity
  8
SEIHIN
 62
     3
100
AcDbCircle
 10
378.798149023889
 20
306.4317495717849
 30
0.0
 40
2.192751996560394
100
AcDbArc
 50
195.6503830753083
 51
270.0
  0
ARC
  5
B45
330
1A
100
AcDbEntity
  8
SEIHIN
 62
     3
100
AcDbCircle
 10
378.798149023889
 20
306.4317495717849
 30
0.0
 40
1.792751996555905
100
AcDbArc
 50
182.9455394181632
 51
270.0
  0
LINE
  5
B4A
330
1A
100
AcDbEntity
  8
SEIHIN
 62
     3
100
AcDbLine
 10
288.759124053889
 20
432.7493298713497
 30
0.0
 11
288.759124053889
 21
435.4993298713496
 31
0.0
  0
ARC
  5
B4B
330
1A
100
AcDbEntity
  8
SEIHIN
 62
     3
100
AcDbCircle
 10
292.859080053889
 20
422.9993298713496
 30
0.0
 40
1.0
100
AcDbArc
 50
0.0
 51
90.0
  0
ARC
  5
B4C
330
1A
100
AcDbEntity
  8
SEIHIN
 62
     3
100
AcDbCircle
 10
292.859080053889
 20
436.4993298713496
 30
0.0
 40
1.0
100
AcDbArc
 50
270.0
 51
0.0
  0
LINE
  5
B4D
330
1A
100
AcDbEntity
  8
CENTER_L
100
AcDbLine
 10
276.9176745610934
 20
429.7493298713496
 30
0.0
 11
550.2188636550873
 21
429.7493298713496
 31
0.0
  0
DIMENSION
  5
BD9
330
1A
100
AcDbEntity
  8
SUNPOU
100
AcDbDimension
  2
*D1
 10
288.7591240330749
 20
349.7732179086715
 30
0.0
 11
352.149124028482
 21
354.7732179086715
 31
0.0
 70
    32
  3
STANDARD
100
AcDbAlignedDimension
 13
415.5391240238891
 23
314.4389655717849
 33
0.0
 14
288.7591240330749
 24
301.4389655717849
 34
0.0
100
AcDbRotatedDimension
1001
ACAD
1000
DSTYLE
1002
{
1070
    41
1040
3.0
1070
    42
1040
6.0
1070
    43
1040
14.0
1070
    44
1040
3.0
1070
    73
1070
     0
1070
    74
1070
     0
1070
    77
1070
     3
1070
   140
1040
6.0
1070
   141
1040
10.0
1070
   147
1040
2.0
1070
   172
1070
     1
1070
   173
1070
     1
1070
   176
1070
   256
1070
   177
1070
   256
1070
   178
1070
   256
1070
   271
1070
     0
1070
   272
1070
     0
1070
   341
1005
6D
1070
     6
1000
OPEN
1070
     7
1000
OPEN
1002
}
  0
DIMENSION
  5
BE6
330
1A
100
AcDbEntity
  8
SUNPOU
100
AcDbDimension
  2
*D2
 10
249.5689032278905
 20
421.7993298713497
 30
0.0
 11
244.5689032278905
 21
429.7493298713497
 31
0.0
 70
    32
  3
STANDARD
100
AcDbAlignedDimension
 13
293.8590800538889
 23
437.6993298713497
 33
0.0
 14
293.8590800538889
 24
421.7993298713497
 34
0.0
 50
90.0
100
AcDbRotatedDimension
1001
ACAD
1000
DSTYLE
1002
{
1070
    41
1040
3.0
1070
    42
1040
6.0
1070
    43
1040
14.0
1070
    44
1040
3.0
1070
    73
1070
     0
1070
    74
1070
     0
1070
    77
1070
     3
1070
   140
1040
6.0
1070
   141
1040
10.0
1070
   147
1040
2.0
1070
   172
1070
     1
1070
   173
1070
     1
1070
   176
1070
   256
1070
   177
1070
   256
1070
   178
1070
   256
1070
   271
1070
     0
1070
   272
1070
     0
1070
   341
1005
6D
1070
     6
1000
OPEN
1070
     7
1000
OPEN
1002
}
  0
LINE
  5
F58
330
1A
100
AcDbEntity
  8
SEIHIN
100
AcDbLine
 10
422.806622423889
 20
284.1291450717849
 30
0.0
 11
521.0881120673385
 21
323.837440760214
 31
0.0
  0
LINE
  5
F59
330
1A
100
AcDbEntity
  8
SEIHIN
100
AcDbLine
 10
425.054261823889
 20
278.5660418717849
 30
0.0
 11
523.3357513673385
 21
318.2743375602139
 31
0.0
  0
LINE
  5
F5A
330
1A
100
AcDbEntity
  8
SEIHIN
100
AcDbLine
 10
415.5391240238891
 20
314.4389655717849
 30
0.0
 11
415.5391240238891
 21
291.4389655717849
 31
0.0
  0
LINE
  5
F5B
330
1A
100
AcDbEntity
  8
SEIHIN
100
AcDbLine
 10
412.5391240238891
 20
314.4389655717849
 30
0.0
 11
412.5391240238891
 21
290.8558245717849
 31
0.0
  0
LINE
  5
F5C
330
1A
100
AcDbEntity
  8
SEIHIN
100
AcDbLine
 10
412.5391240238891
 20
290.8558245717849
 30
0.0
 11
416.1290331238891
 21
281.9704875717849
 31
0.0
  0
LINE
  5
F5D
330
1A
100
AcDbEntity
  8
SEIHIN
100
AcDbLine
 10
418.7512778238891
 20
275.4802038717849
 30
0.0
 11
422.1227370238891
 21
267.1355495717849
 31
0.0
  0
LINE
  5
F5E
330
1A
100
AcDbEntity
  8
SEIHIN
100
AcDbLine
 10
421.3455279238891
 20
277.0676120717848
 30
0.0
 11
424.904289023889
 21
268.2593695717849
 31
0.0
  0
LINE
  5
F5F
330
1A
100
AcDbEntity
  8
SEIHIN
100
AcDbLine
 10
422.1227370238891
 20
267.1355495717849
 30
0.0
 11
424.904289023889
 21
268.2593695717849
 31
0.0
  0
LINE
  5
F60
330
1A
100
AcDbEntity
  8
SEIHIN
100
AcDbLine
 10
422.806622423889
 20
284.1291450717849
 30
0.0
 11
425.054261823889
 21
278.5660418717849
 31
0.0
  0
LINE
  5
F61
330
1A
100
AcDbEntity
  8
SEIHIN
100
AcDbLine
 10
420.0531989238891
 20
285.6051731717849
 30
0.0
 11
424.0989498238891
 21
275.5915874717849
 31
0.0
  0
LINE
  5
F62
330
1A
100
AcDbEntity
  8
SEIHIN
100
AcDbLine
 10
416.1290331238891
 20
281.9704875717849
 30
0.0
 11
418.7512778238891
 21
275.4802038717849
 31
0.0
  0
LINE
  5
F63
330
1A
100
AcDbEntity
  8
SEIHIN
100
AcDbLine
 10
418.1988311238891
 20
284.8559600717848
 30
0.0
 11
421.3829870238891
 21
276.9748972717849
 31
0.0
  0
ARC
  5
F64
330
1A
100
AcDbEntity
  8
SEIHIN
100
AcDbCircle
 10
422.6555588238891
 20
280.8325054717848
 30
0.0
 40
6.624993717619814
100
AcDbArc
 50
170.1091925164112
 51
233.8908071907933
  0
LINE
  5
F66
330
1A
100
AcDbEntity
  8
SEIHIN
100
AcDbLine
 10
424.0989498238891
 20
275.5915874717849
 30
0.0
 11
422.2445821238891
 21
274.8423743717848
 31
0.0
  0
LINE
  5
F67
330
1A
100
AcDbEntity
  8
SEIHIN
100
AcDbLine
 10
425.054261823889
 20
278.5660418717849
 30
0.0
 11
424.0989498238891
 21
275.5915874717849
 31
0.0
  0
LINE
  5
F68
330
1A
100
AcDbEntity
  8
SEIHIN
100
AcDbLine
 10
418.1988311238891
 20
284.8559600717848
 30
0.0
 11
420.0531989238891
 21
285.6051731717849
 31
0.0
  0
LINE
  5
F69
330
1A
100
AcDbEntity
  8
SEIHIN
100
AcDbLine
 10
420.0531989238891
 20
285.6051731717849
 30
0.0
 11
422.806622423889
 21
284.1291450717849
 31
0.0
  0
LINE
  5
F6B
330
1A
100
AcDbEntity
  8
SEIHIN
100
AcDbLine
 10
415.5391240238891
 20
291.4389655717849
 30
0.0
 11
419.0978882238891
 21
282.6307151717849
 31
0.0
  0
ARC
  5
F6C
330
1A
100
AcDbEntity
  8
SEIHIN
100
AcDbCircle
 10
408.5391240238891
 20
314.4389655717849
 30
0.0
 40
7.0
100
AcDbArc
 50
0.0
 51
90.0
  0
ARC
  5
F6D
330
1A
100
AcDbEntity
  8
SEIHIN
100
AcDbCircle
 10
408.5391240238891
 20
314.4389655717849
 30
0.0
 40
4.0
100
AcDbArc
 50
0.0
 51
90.0
  0
LINE
  5
F6E
330
1A
100
AcDbEntity
  8
SEIHIN
100
AcDbLine
 10
521.0881120673385
 20
323.837440760214
 30
0.0
 11
531.4837702673385
 21
324.801955160214
 31
0.0
  0
LINE
  5
F6F
330
1A
100
AcDbEntity
  8
SEIHIN
100
AcDbLine
 10
521.0881120673385
 20
323.837440760214
 30
0.0
 11
523.3357513673385
 21
318.2743375602139
 31
0.0
  0
LINE
  5
F70
330
1A
100
AcDbEntity
  8
SEIHIN
100
AcDbLine
 10
521.0881119673384
 20
323.837440760214
 30
0.0
 11
521.0881120673385
 21
323.837440760214
 31
0.0
  0
LINE
  5
F71
330
1A
100
AcDbEntity
  8
SEIHIN
100
AcDbLine
 10
531.4837702673385
 20
324.801955160214
 30
0.0
 11
523.3357513673385
 21
318.2743375602139
 31
0.0
  0
LINE
  5
F72
330
1A
100
AcDbEntity
  8
SEIHIN
100
AcDbLine
 10
381.6617020238891
 20
321.4389655717849
 30
0.0
 11
408.5391240238891
 21
321.4389655717849
 31
0.0
  0
LINE
  5
F73
330
1A
100
AcDbEntity
  8
SEIHIN
100
AcDbLine
 10
404.7664960172175
 20
318.4389655717849
 30
0.0
 11
408.5391240238891
 21
318.4389655717849
 31
0.0
  0
LINE
  5
F74
330
1A
100
AcDbEntity
  8
SEIHIN
100
AcDbLine
 10
521.0881119673383
 20
432.7493298713497
 30
0.0
 11
423.930442123889
 21
432.7493298713497
 31
0.0
  0
LINE
  5
F75
330
1A
100
AcDbEntity
  8
SEIHIN
100
AcDbLine
 10
423.930442123889
 20
426.7493298713496
 30
0.0
 11
521.0881119673383
 21
426.7493298713496
 31
0.0
  0
LINE
  5
F76
330
1A
100
AcDbEntity
  8
SEIHIN
100
AcDbLine
 10
412.5391240238891
 20
436.2493298713497
 30
0.0
 11
415.5391240238891
 21
436.2493298713497
 31
0.0
  0
LINE
  5
F77
330
1A
100
AcDbEntity
  8
SEIHIN
100
AcDbLine
 10
415.5391240238891
 20
423.2493298713497
 30
0.0
 11
412.5391240238891
 21
423.2493298713497
 31
0.0
  0
LINE
  5
F7B
330
1A
100
AcDbEntity
  8
SEIHIN
100
AcDbLine
 10
422.0760743238891
 20
424.3493298713497
 30
0.0
 11
423.930442123889
 21
426.7493298713496
 31
0.0
  0
LINE
  5
F7C
330
1A
100
AcDbEntity
  8
SEIHIN
100
AcDbLine
 10
424.904289023889
 20
426.7493298713496
 30
0.0
 11
424.904289023889
 21
423.2493298713497
 31
0.0
  0
ARC
  5
F7D
330
1A
100
AcDbEntity
  8
SEIHIN
100
AcDbCircle
 10
428.272198523889
 20
429.7493298713496
 30
0.0
 40
8.218999641186602
100
AcDbArc
 50
138.9274408431419
 51
221.072559156858
  0
ARC
  5
F7E
330
1A
100
AcDbEntity
  8
SEIHIN
100
AcDbCircle
 10
426.4178313238891
 20
429.7493298713496
 30
0.0
 40
8.219000168901308
100
AcDbArc
 50
138.9274440492386
 51
221.0725559507613
  0
LINE
  5
F7F
330
1A
100
AcDbEntity
  8
SEIHIN
100
AcDbLine
 10
415.5391240238891
 20
423.2493298713497
 30
0.0
 11
415.5391240238891
 21
436.2493298713497
 31
0.0
  0
LINE
  5
F80
330
1A
100
AcDbEntity
  8
SEIHIN
100
AcDbLine
 10
422.0760743238891
 20
424.3493298713497
 30
0.0
 11
420.2217064238891
 21
424.3493298713497
 31
0.0
  0
LINE
  5
F81
330
1A
100
AcDbEntity
  8
SEIHIN
100
AcDbLine
 10
424.904289023889
 20
423.2493298713497
 30
0.0
 11
415.5391240238891
 21
423.2493298713497
 31
0.0
  0
LINE
  5
F82
330
1A
100
AcDbEntity
  8
SEIHIN
100
AcDbLine
 10
420.2217064238891
 20
435.1493298713497
 30
0.0
 11
422.0760743238891
 21
435.1493298713497
 31
0.0
  0
LINE
  5
F83
330
1A
100
AcDbEntity
  8
SEIHIN
100
AcDbLine
 10
422.0760743238891
 20
435.1493298713497
 30
0.0
 11
423.930442123889
 21
432.7493298713497
 31
0.0
  0
LINE
  5
F84
330
1A
100
AcDbEntity
  8
SEIHIN
100
AcDbLine
 10
423.930442123889
 20
432.7493298713497
 30
0.0
 11
422.806622423889
 21
432.7493298713497
 31
0.0
  0
LINE
  5
F85
330
1A
100
AcDbEntity
  8
SEIHIN
100
AcDbLine
 10
424.904289023889
 20
436.2493298713497
 30
0.0
 11
424.904289023889
 21
432.7493298713497
 31
0.0
  0
LINE
  5
F86
330
1A
100
AcDbEntity
  8
SEIHIN
100
AcDbLine
 10
415.5391240238891
 20
436.2493298713497
 30
0.0
 11
424.904289023889
 21
436.2493298713497
 31
0.0
  0
LINE
  5
F87
330
1A
100
AcDbEntity
  8
SEIHIN
100
AcDbLine
 10
422.806622423889
 20
426.7493298713496
 30
0.0
 11
423.930442123889
 21
426.7493298713496
 31
0.0
  0
LINE
  5
F88
330
1A
100
AcDbEntity
  8
SEIHIN
100
AcDbLine
 10
422.806622423889
 20
432.7493298713497
 30
0.0
 11
422.806622423889
 21
426.7493298713496
 31
0.0
  0
LINE
  5
F89
330
1A
100
AcDbEntity
  8
SEIHIN
100
AcDbLine
 10
531.4837702673384
 20
429.7493298713496
 30
0.0
 11
521.0881119673383
 21
426.7493298713496
 31
0.0
  0
LINE
  5
F8A
330
1A
100
AcDbEntity
  8
SEIHIN
100
AcDbLine
 10
531.4837702673384
 20
429.7493298713496
 30
0.0
 11
521.0881119673383
 21
432.7493298713497
 31
0.0
  0
LINE
  5
F8B
330
1A
100
AcDbEntity
  8
SEIHIN
100
AcDbLine
 10
521.0881119673383
 20
432.7493298713497
 30
0.0
 11
521.0881119673383
 21
426.7493298713496
 31
0.0
  0
ARC
  5
F95
330
1A
100
AcDbEntity
  8
SEIHIN
100
AcDbCircle
 10
381.6617020238891
 20
314.4389655717849
 30
0.0
 40
7.000000005682091
100
AcDbArc
 50
90.0
 51
159.8596214145064
  0
LINE
  5
F99
330
1A
100
AcDbEntity
  8
CENTER_L
100
AcDbLine
 10
406.6722929132324
 20
274.374849152125
 30
0.0
 11
541.5769716390294
 21
328.8798728831749
 31
0.0
  0
DIMENSION
  5
F9C
330
1A
100
AcDbEntity
  8
SUNPOU
100
AcDbDimension
  2
*D3
 10
552.2725572694185
 20
273.3478975406224
 30
0.0
 11
494.7684926260476
 21
255.5074228859918
 31
0.0
 70
    33
  3
STANDARD
100
AcDbAlignedDimension
 13
420.2217066511201
 23
279.8491671987693
 33
0.0
 14
531.4837702673384
 24
324.8019551602139
 34
0.0
1001
ACAD
1000
DSTYLE
1002
{
1070
    41
1040
3.0
1070
    42
1040
6.0
1070
    43
1040
14.0
1070
    44
1040
3.0
1070
    73
1070
     0
1070
    74
1070
     0
1070
    77
1070
     3
1070
   140
1040
6.0
1070
   141
1040
10.0
1070
   147
1040
2.0
1070
   172
1070
     1
1070
   173
1070
     1
1070
   176
1070
   256
1070
   177
1070
   256
1070
   178
1070
   256
1070
   271
1070
     0
1070
   272
1070
     0
1070
   341
1005
6D
1070
     6
1000
OPEN
1070
     7
1000
OPEN
1002
}
  0
DIMENSION
  5
FEE
330
1A
100
AcDbEntity
  8
SUNPOU
100
AcDbDimension
  2
*D4
 10
572.9356956938784
 20
338.3140141756215
 30
0.0
 11
581.3176806838336
 21
330.9152083511546
 31
0.0
 70
    33
  3
STANDARD
100
AcDbAlignedDimension
 13
521.0881119673384
 23
323.837440760214
 33
0.0
 14
523.3357513673385
 24
318.2743375602139
 34
0.0
1001
ACAD
1000
DSTYLE
1002
{
1070
    41
1040
3.0
1070
    42
1040
6.0
1070
    43
1040
14.0
1070
    44
1040
3.0
1070
    73
1070
     0
1070
    74
1070
     0
1070
    77
1070
     3
1070
   140
1040
6.0
1070
   141
1040
10.0
1070
   147
1040
2.0
1070
   172
1070
     1
1070
   173
1070
     1
1070
   176
1070
   256
1070
   177
1070
   256
1070
   178
1070
   256
1070
   271
1070
     0
1070
   272
1070
     0
1070
   341
1005
6D
1070
     6
1000
OPEN
1070
     7
1000
OPEN
1002
}
  0
DIMENSION
  5
FFD
330
1A
100
AcDbEntity
  8
SUNPOU
100
AcDbDimension
  2
*D5
 10
566.6370848158591
 20
426.7493298713496
 30
0.0
 11
561.637084815859
 21
416.7493298713497
 31
0.0
 70
    32
  3
STANDARD
100
AcDbAlignedDimension
 13
521.0881119673383
 23
432.7493298713497
 33
0.0
 14
521.0881119673383
 24
426.7493298713496
 34
0.0
 50
90.0
100
AcDbRotatedDimension
1001
ACAD
1000
DSTYLE
1002
{
1070
    41
1040
3.0
1070
    42
1040
6.0
1070
    43
1040
14.0
1070
    44
1040
3.0
1070
    73
1070
     0
1070
    74
1070
     0
1070
    77
1070
     3
1070
   140
1040
6.0
1070
   141
1040
10.0
1070
   147
1040
2.0
1070
   172
1070
     1
1070
   173
1070
     1
1070
   176
1070
   256
1070
   177
1070
   256
1070
   178
1070
   256
1070
   271
1070
     0
1070
   272
1070
     0
1070
   341
1005
6D
1070
     6
1000
OPEN
1070
     7
1000
OPEN
1002
}
  0
DIMENSION
  5
100C
330
1A
100
AcDbEntity
  8
SUNPOU
100
AcDbDimension
  2
*D6
 10
448.6588305463765
 20
279.8491671987693
 30
0.0
 11
443.6588305463764
 21
300.6440663852772
 31
0.0
 70
    32
  3
STANDARD
100
AcDbAlignedDimension
 13
408.5391240238891
 23
321.4389655717849
 33
0.0
 14
420.2217066511201
 24
279.8491671987693
 34
0.0
 50
90.0
100
AcDbRotatedDimension
1001
ACAD
1000
DSTYLE
1002
{
1070
    41
1040
3.0
1070
    42
1040
6.0
1070
    43
1040
14.0
1070
    44
1040
3.0
1070
    73
1070
     0
1070
    74
1070
     0
1070
    77
1070
     3
1070
   140
1040
6.0
1070
   141
1040
10.0
1070
   147
1040
2.0
1070
   172
1070
     1
1070
   173
1070
     1
1070
   176
1070
   256
1070
   177
1070
   256
1070
   178
1070
   256
1070
   271
1070
     0
1070
   272
1070
     0
1070
   341
1005
6D
1070
     6
1000
OPEN
1070
     7
1000
OPEN
1002
}
  0
DIMENSION
  5
1019
330
1A
100
AcDbEntity
  8
SUNPOU
100
AcDbDimension
  2
*D7
 10
531.4837702673384
 20
366.692274529669
 30
0.0
 11
410.1214480210207
 21
371.692274529669
 31
0.0
 70
    32
  3
STANDARD
100
AcDbAlignedDimension
 13
288.759125774703
 23
301.4365321518147
 33
0.0
 14
531.4837702673384
 24
324.8019551602139
 34
0.0
100
AcDbRotatedDimension
1001
ACAD
1000
DSTYLE
1002
{
1070
    41
1040
3.0
1070
    42
1040
6.0
1070
    43
1040
14.0
1070
    44
1040
3.0
1070
    73
1070
     0
1070
    74
1070
     0
1070
    77
1070
     3
1070
   140
1040
6.0
1070
   141
1040
10.0
1070
   147
1040
2.0
1070
   172
1070
     1
1070
   173
1070
     1
1070
   176
1070
   256
1070
   177
1070
   256
1070
   178
1070
   256
1070
   271
1070
     0
1070
   272
1070
     0
1070
   341
1005
6D
1070
     6
1000
OPEN
1070
     7
1000
OPEN
1002
}
  0
DIMENSION
  5
1026
330
1A
100
AcDbEntity
  8
SUNPOU
100
AcDbDimension
  2
*D8
 10
249.3812208672829
 20
279.8491671987694
 30
0.0
 11
244.3812208672829
 21
293.5440663852772
 31
0.0
 70
    32
  3
STANDARD
100
AcDbAlignedDimension
 13
291.012079753889
 23
307.2389655717849
 33
0.0
 14
420.2217066511201
 24
279.8491671987693
 34
0.0
 50
90.0
100
AcDbRotatedDimension
1001
ACAD
1000
DSTYLE
1002
{
1070
    41
1040
3.0
1070
    42
1040
6.0
1070
    43
1040
14.0
1070
    44
1040
3.0
1070
    73
1070
     0
1070
    74
1070
     0
1070
    77
1070
     3
1070
   140
1040
6.0
1070
   141
1040
10.0
1070
   147
1040
2.0
1070
   172
1070
     1
1070
   173
1070
     1
1070
   176
1070
   256
1070
   177
1070
   256
1070
   178
1070
   256
1070
   271
1070
     0
1070
   272
1070
     0
1070
   341
1005
6D
1070
     6
1000
OPEN
1070
     7
1000
OPEN
1002
}
  0
LINE
  5
1136
330
1A
100
AcDbEntity
  8
SEIHIN
100
AcDbLine
 10
418.7512778238891
 20
139.7977996601205
 30
0.0
 11
422.1227370238891
 21
131.4531453601205
 31
0.0
  0
LINE
  5
1137
330
1A
100
AcDbEntity
  8
SEIHIN
100
AcDbLine
 10
418.1988311238891
 20
149.1735558601205
 30
0.0
 11
421.3829870238891
 21
141.2924930601205
 31
0.0
  0
LINE
  5
1138
330
1A
100
AcDbEntity
  8
SEIHIN
100
AcDbLine
 10
418.1988311238891
 20
149.1735558601205
 30
0.0
 11
420.0531989238891
 21
149.9227689601205
 31
0.0
  0
LINE
  5
1139
330
1A
100
AcDbEntity
  8
CENTER_L
100
AcDbLine
 10
406.6722929132324
 20
138.6924449404607
 30
0.0
 11
541.5769716390294
 21
193.1974686715106
 31
0.0
  0
LINE
  5
113D
330
1A
100
AcDbEntity
  8
SEIHIN
100
AcDbLine
 10
412.5391240238891
 20
155.1734203601205
 30
0.0
 11
416.1290331238891
 21
146.2880833601206
 31
0.0
  0
LINE
  5
113E
330
1A
100
AcDbEntity
  8
SEIHIN
100
AcDbLine
 10
415.5391240238891
 20
155.7565613601205
 30
0.0
 11
419.0978882238891
 21
146.9483109601205
 31
0.0
  0
ARC
  5
113F
330
1A
100
AcDbEntity
  8
NOKITOI
  6
PHANTOM
 62
     8
100
AcDbCircle
 10
354.4788607912132
 20
165.8478676806588
 30
0.0
 40
41.79999437547816
100
AcDbArc
 50
270.0001454078909
 51
355.5257047874752
  0
LINE
  5
1140
330
1A
100
AcDbEntity
  8
NOKITOI
  6
PHANTOM
 62
     8
100
AcDbLine
 10
296.423466873181
 20
162.5976733053152
 30
0.0
 11
299.4164668731814
 21
132.667873305315
 31
0.0
  0
LINE
  5
1141
330
1A
100
AcDbEntity
  8
NOKITOI
  6
PHANTOM
 62
     8
100
AcDbLine
 10
295.3824668731808
 20
160.9473733053151
 30
0.0
 11
298.251266873181
 21
132.2599733053151
 31
0.0
  0
ARC
  5
1142
330
1A
100
AcDbEntity
  8
NOKITOI
  6
PHANTOM
 62
     8
100
AcDbCircle
 10
354.4788830996385
 20
165.8478877816852
 30
0.0
 40
43.00001447645168
100
AcDbArc
 50
270.0001116248562
 51
353.4750892928823
  0
LINE
  5
1143
330
1A
100
AcDbEntity
  8
NOKITOI
  6
PHANTOM
 62
     8
100
AcDbLine
 10
354.4788668731812
 20
124.0478733053151
 30
0.0
 11
309.8992668731812
 21
124.0477733053152
 31
0.0
  0
LINE
  5
1144
330
1A
100
AcDbEntity
  8
NOKITOI
  6
PHANTOM
 62
     8
100
AcDbLine
 10
309.6494668731811
 20
122.8477733053151
 30
0.0
 11
354.4788668731812
 21
122.8478733053151
 31
0.0
  0
LINE
  5
1145
330
1A
100
AcDbEntity
  8
NOKITOI
  6
PHANTOM
 62
     8
100
AcDbLine
 10
299.5973668731808
 20
132.3305733053151
 30
0.0
 11
309.5826668731811
 21
124.160773305315
 31
0.0
  0
LINE
  5
1146
330
1A
100
AcDbEntity
  8
NOKITOI
  6
PHANTOM
 62
     8
100
AcDbLine
 10
298.6130668731811
 20
131.5854733053153
 30
0.0
 11
309.0161668731811
 21
123.0737733053152
 31
0.0
  0
LINE
  5
1147
330
1A
100
AcDbEntity
  8
NOKITOI
  6
PHANTOM
 62
     8
100
AcDbLine
 10
313.8992668731812
 20
124.0477733053152
 30
0.0
 11
333.8073668731808
 21
124.0477733053152
 31
0.0
  0
LINE
  5
1148
330
1A
100
AcDbEntity
  8
NOKITOI
  6
PHANTOM
 62
     8
100
AcDbLine
 10
313.6494668731811
 20
122.8477733053151
 30
0.0
 11
333.8073668731808
 21
122.8477733053151
 31
0.0
  0
ARC
  5
1149
330
1A
100
AcDbEntity
  8
NOKITOI
  6
PHANTOM
 62
     8
100
AcDbCircle
 10
309.8992604854324
 20
124.5477755853047
 30
0.0
 40
0.5000022800304047
100
AcDbArc
 50
230.7145501403943
 51
270.0007319787208
  0
ARC
  5
114A
330
1A
100
AcDbEntity
  8
NOKITOI
  6
PHANTOM
 62
     8
100
AcDbCircle
 10
309.6494738057586
 20
123.847770830309
 30
0.0
 40
0.9999975250179316
100
AcDbArc
 50
230.7053583247703
 51
269.9996027915963
  0
ARC
  5
114B
330
1A
100
AcDbEntity
  8
NOKITOI
  6
PHANTOM
 62
     8
100
AcDbCircle
 10
299.9139842990594
 20
132.7175408189272
 30
0.0
 40
0.4999904508696396
100
AcDbArc
 50
185.700988925076
 51
230.7099153622053
  0
ARC
  5
114C
330
1A
100
AcDbEntity
  8
NOKITOI
  6
PHANTOM
 62
     8
100
AcDbCircle
 10
299.24628944605
 20
132.3594312336425
 30
0.0
 40
0.9999908507640039
100
AcDbArc
 50
185.7137670522467
 51
230.7112907769309
  0
LINE
  5
114D
330
1A
100
AcDbEntity
  8
SEIHIN
100
AcDbLine
 10
416.1290331238891
 20
146.2880833601206
 30
0.0
 11
418.7512778238891
 21
139.7977996601205
 31
0.0
  0
ARC
  5
114E
330
1A
100
AcDbEntity
  8
SEIHIN
100
AcDbCircle
 10
422.6555588238891
 20
145.1501012601205
 30
0.0
 40
6.624993717619814
100
AcDbArc
 50
170.1091925164112
 51
233.8908071907933
  0
ARC
  5
114F
330
1A
100
AcDbEntity
  8
NOKITOI
  6
PHANTOM
 62
     8
100
AcDbCircle
 10
400.7772466605119
 20
167.8479320336952
 30
0.0
 40
5.2000412730095
100
AcDbArc
 50
37.92420092094485
 51
89.9986754569382
  0
ARC
  5
1150
330
1A
100
AcDbEntity
  8
NOKITOI
  6
PHANTOM
 62
     8
100
AcDbCircle
 10
402.6908533010428
 20
165.0478601502287
 30
0.0
 40
1.999986844959662
100
AcDbArc
 50
270.0003888156784
 51
358.2124468147644
  0
LINE
  5
1151
330
1A
100
AcDbEntity
  8
NOKITOI
  6
PHANTOM
 62
     8
100
AcDbLine
 10
404.3385668731811
 20
161.8478733053151
 30
0.0
 11
398.1938668731813
 21
161.8478733053151
 31
0.0
  0
ARC
  5
1152
330
1A
100
AcDbEntity
  8
NOKITOI
  6
PHANTOM
 62
     8
100
AcDbCircle
 10
400.7773289917345
 20
167.8479170878405
 30
0.0
 40
3.999989731271038
100
AcDbArc
 50
358.2100163932688
 51
83.52268857986882
  0
LINE
  5
1153
330
1A
100
AcDbEntity
  8
NOKITOI
  6
PHANTOM
 62
     8
100
AcDbLine
 10
404.2289668731814
 20
176.6478733053153
 30
0.0
 11
401.756166873181
 21
176.6478733053153
 31
0.0
  0
LINE
  5
1154
330
1A
100
AcDbEntity
  8
NOKITOI
  6
PHANTOM
 62
     8
100
AcDbLine
 10
404.2289668731814
 20
177.8478733053151
 30
0.0
 11
400.9023668731811
 21
177.8478733053151
 31
0.0
  0
ARC
  5
1155
330
1A
100
AcDbEntity
  8
SEIHIN
 62
     3
100
AcDbCircle
 10
296.9591240538889
 20
165.9109733601205
 30
0.0
 40
8.200000025865952
100
AcDbArc
 50
136.4895916441825
 51
180.0000000698716
  0
ARC
  5
1156
330
1A
100
AcDbEntity
  8
SEIHIN
 62
     3
100
AcDbCircle
 10
290.459124053889
 20
165.7565613601206
 30
0.0
 40
1.700000020814075
100
AcDbArc
 50
180.0820145529315
 51
270.0
  0
LINE
  5
1157
330
1A
100
AcDbEntity
  8
NOKITOI
  6
PHANTOM
 62
     8
100
AcDbLine
 10
405.0285668731808
 20
175.822873305315
 30
0.0
 11
404.8791668731814
 21
171.0439733053152
 31
0.0
  0
LINE
  5
1158
330
1A
100
AcDbEntity
  8
NOKITOI
  6
PHANTOM
 62
     8
100
AcDbLine
 10
406.2279668731812
 20
175.7853733053151
 30
0.0
 11
405.8377668731814
 21
163.301073305315
 31
0.0
  0
ARC
  5
1159
330
1A
100
AcDbEntity
  8
NOKITOI
  6
PHANTOM
 62
     8
100
AcDbCircle
 10
404.3385309140303
 20
163.3478384511719
 30
0.0
 40
1.499965146287778
100
AcDbArc
 50
270.0013735703027
 51
358.2133719782232
  0
LINE
  5
115A
330
1A
100
AcDbEntity
  8
NOKITOI
  6
PHANTOM
 62
     8
100
AcDbLine
 10
404.6898668731814
 20
164.9854733053151
 30
0.0
 11
404.7753668731811
 21
167.7229733053151
 31
0.0
  0
ARC
  5
115B
330
1A
100
AcDbEntity
  8
NOKITOI
  6
PHANTOM
 62
     8
100
AcDbCircle
 10
404.2289623783831
 20
175.847877942842
 30
0.0
 40
0.7999953624857498
100
AcDbArc
 50
358.2088726535807
 51
89.99967808194737
  0
ARC
  5
115C
330
1A
100
AcDbEntity
  8
NOKITOI
  6
PHANTOM
 62
     8
100
AcDbCircle
 10
404.2289541223312
 20
175.8478864604015
 30
0.0
 40
1.999986844954076
100
AcDbArc
 50
358.2116927117296
 51
89.9996347126455
  0
LINE
  5
115D
330
1A
100
AcDbEntity
  8
SEIHIN
 62
     3
100
AcDbLine
 10
313.259124053889
 20
172.0565613601205
 30
0.0
 11
372.662923023889
 21
172.0565613601205
 31
0.0
  0
LINE
  5
115E
330
1A
100
AcDbEntity
  8
SEIHIN
 62
     3
100
AcDbLine
 10
313.259124053889
 20
167.5565613601205
 30
0.0
 11
362.539124023889
 21
167.5565613601205
 31
0.0
  0
LINE
  5
1160
330
1A
100
AcDbEntity
  8
NOKITOI
  6
PHANTOM
 62
     8
100
AcDbLine
 10
397.7674668731811
 20
168.8216733053151
 30
0.0
 11
397.4516668731812
 21
174.8215733053151
 31
0.0
  0
LINE
  5
1161
330
1A
100
AcDbEntity
  8
NOKITOI
  6
PHANTOM
 62
     8
100
AcDbLine
 10
399.304766873181
 20
172.376273305315
 30
0.0
 11
398.7497668731812
 21
172.9893733053153
 31
0.0
  0
LINE
  5
1162
330
1A
100
AcDbEntity
  8
NOKITOI
  6
PHANTOM
 62
     8
100
AcDbLine
 10
398.9309668731812
 20
169.5478733053151
 30
0.0
 11
398.7497668731812
 21
172.9893733053153
 31
0.0
  0
ARC
  5
1163
330
1A
100
AcDbEntity
  8
SEIHIN
 62
     3
100
AcDbCircle
 10
304.651429053889
 20
170.5565613601205
 30
0.0
 40
2.000000001052705
100
AcDbArc
 50
270.0
 51
299.9999999651758
  0
ARC
  5
1164
330
1A
100
AcDbEntity
  8
SEIHIN
 62
     3
100
AcDbCircle
 10
304.597840653889
 20
170.7565613601206
 30
0.0
 40
6.70000001483484
100
AcDbArc
 50
270.0
 51
300.0000087406067
  0
ARC
  5
1165
330
1A
100
AcDbEntity
  8
NOKITOI
  6
PHANTOM
 62
     8
100
AcDbCircle
 10
398.1938752973437
 20
160.8478808203716
 30
0.0
 40
0.9999924849789756
100
AcDbArc
 50
90.00048267259034
 51
173.471735393326
  0
LINE
  5
1166
330
1A
100
AcDbEntity
  8
SEIHIN
 62
     3
100
AcDbLine
 10
304.597840653889
 20
164.0565613601205
 30
0.0
 11
290.459124053889
 21
164.0565613601205
 31
0.0
  0
ARC
  5
1167
330
1A
100
AcDbEntity
  8
SEIHIN
 62
     3
100
AcDbCircle
 10
297.359124053889
 20
166.5565613601205
 30
0.0
 40
2.0
100
AcDbArc
 50
90.0
 51
180.0000002864791
  0
LINE
  5
1168
330
1A
100
AcDbEntity
  8
NOKITOI
  6
PHANTOM
 62
     8
100
AcDbLine
 10
401.0108668731813
 20
168.9186733053153
 30
0.0
 11
400.6771668731812
 21
171.2548733053153
 31
0.0
  0
LINE
  5
1169
330
1A
100
AcDbEntity
  8
NOKITOI
  6
PHANTOM
 62
     8
100
AcDbLine
 10
398.2668668731812
 20
168.3478733053151
 30
0.0
 11
400.5159668731812
 21
168.3478733053151
 31
0.0
  0
ARC
  5
116A
330
1A
100
AcDbEntity
  8
NOKITOI
  6
PHANTOM
 62
     8
100
AcDbCircle
 10
400.5159402725835
 20
168.8478426284331
 30
0.0
 40
0.4999693238254178
100
AcDbArc
 50
270.0030483909644
 51
8.144496122946835
  0
LINE
  5
116B
330
1A
100
AcDbEntity
  8
NOKITOI
  6
PHANTOM
 62
     8
100
AcDbLine
 10
398.9309668731812
 20
169.5478733053151
 30
0.0
 11
399.7088668731807
 21
169.5478733053151
 31
0.0
  0
LINE
  5
116C
330
1A
100
AcDbEntity
  8
NOKITOI
  6
PHANTOM
 62
     8
100
AcDbLine
 10
399.7088668731807
 20
169.5478733053151
 30
0.0
 11
399.304766873181
 21
172.376273305315
 31
0.0
  0
ARC
  5
116D
330
1A
100
AcDbEntity
  8
NOKITOI
  6
PHANTOM
 62
     8
100
AcDbCircle
 10
401.1721526547658
 20
171.3255586710141
 30
0.0
 40
0.5000073448410256
100
AcDbArc
 50
83.52170717003087
 51
188.1270521358759
  0
ARC
  5
116E
330
1A
100
AcDbEntity
  8
NOKITOI
  6
PHANTOM
 62
     8
100
AcDbCircle
 10
398.2668737601761
 20
168.8478667702296
 30
0.0
 40
0.499993464961963
100
AcDbArc
 50
183.0029638682579
 51
269.999210798213
  0
LINE
  5
116F
330
1A
100
AcDbEntity
  8
SEIHIN
 62
     3
100
AcDbLine
 10
290.058185353889
 20
170.3400867501205
 30
0.0
 11
290.848300953889
 21
169.3253315401205
 31
0.0
  0
LINE
  5
1170
330
1A
100
AcDbEntity
  8
SEIHIN
 62
     3
100
AcDbLine
 10
291.759124053889
 20
170.5971231601205
 30
0.0
 11
291.012079753889
 21
171.5565613601205
 31
0.0
  0
LINE
  5
1171
330
1A
100
AcDbEntity
  8
NOKITOI
  6
PHANTOM
 62
     8
100
AcDbLine
 10
396.6499668731808
 20
163.0478733053152
 30
0.0
 11
402.6908668731811
 21
163.0478733053152
 31
0.0
  0
ARC
  5
1172
330
1A
100
AcDbEntity
  8
NOKITOI
  6
PHANTOM
 62
     8
100
AcDbCircle
 10
396.6499543034728
 20
162.5478616805854
 30
0.0
 40
0.5000116248877111
100
AcDbArc
 50
89.99855965101618
 51
175.5251531916578
  0
LINE
  5
1173
330
1A
100
AcDbEntity
  8
SEIHIN
 62
     3
100
AcDbLine
 10
291.884208953889
 20
165.2565613601206
 30
0.0
 11
290.1819155538889
 21
167.6373362101205
 31
0.0
  0
ARC
  5
1174
330
1A
100
AcDbEntity
  8
SEIHIN
 62
     3
100
AcDbCircle
 10
290.459124053889
 20
165.7565613601206
 30
0.0
 40
0.5
100
AcDbArc
 50
180.0
 51
270.0
  0
ARC
  5
1175
330
1A
100
AcDbEntity
  8
SEIHIN
 62
     3
100
AcDbCircle
 10
290.459124053889
 20
165.7565613601206
 30
0.0
 40
1.700000020814068
100
AcDbArc
 50
180.0000003370341
 51
180.0820145529315
  0
LINE
  5
1176
330
1A
100
AcDbEntity
  8
SEIHIN
 62
     3
100
AcDbLine
 10
288.759124053889
 20
165.9109733601205
 30
0.0
 11
288.759124053889
 21
165.7565613601206
 31
0.0
  0
LINE
  5
1177
330
1A
100
AcDbEntity
  8
SEIHIN
 62
     3
100
AcDbLine
 10
289.959124053889
 20
165.7565613601206
 30
0.0
 11
289.959124053889
 21
165.9109733601205
 31
0.0
  0
LINE
  5
1178
330
1A
100
AcDbEntity
  8
SEIHIN
 62
     3
100
AcDbLine
 10
295.3591240538889
 20
166.5565613601205
 30
0.0
 11
295.3591240538889
 21
164.0565613601205
 31
0.0
  0
LINE
  5
1179
330
1A
100
AcDbEntity
  8
SEIHIN
 62
     3
100
AcDbLine
 10
290.459124053889
 20
165.2565613601206
 30
0.0
 11
295.3591240538889
 21
165.2565613601206
 31
0.0
  0
ARC
  5
117A
330
1A
100
AcDbEntity
  8
SEIHIN
 62
     3
100
AcDbCircle
 10
296.9591240538889
 20
165.9109733601205
 30
0.0
 40
6.999999998144283
100
AcDbArc
 50
137.9753724543312
 51
180.0000000818504
  0
LINE
  5
117B
330
1A
100
AcDbEntity
  8
SEIHIN
 62
     3
100
AcDbLine
 10
297.359124053889
 20
168.5565613601205
 30
0.0
 11
304.651429053889
 21
168.5565613601205
 31
0.0
  0
ARC
  5
117C
330
1A
100
AcDbEntity
  8
SEIHIN
 62
     3
100
AcDbCircle
 10
313.259124053889
 20
164.5565613601205
 30
0.0
 40
7.499999996369929
100
AcDbArc
 50
90.0
 51
120.0000000320229
  0
LINE
  5
117D
330
1A
100
AcDbEntity
  8
SEIHIN
 62
     3
100
AcDbLine
 10
305.651429053889
 20
168.8245103601206
 30
0.0
 11
309.509124053889
 21
171.0517513601205
 31
0.0
  0
LINE
  5
117E
330
1A
100
AcDbEntity
  8
SEIHIN
 62
     3
100
AcDbLine
 10
311.759124053889
 20
167.1546373601205
 30
0.0
 11
307.947841553889
 21
164.9541916401205
 31
0.0
  0
ARC
  5
117F
330
1A
100
AcDbEntity
  8
SEIHIN
 62
     3
100
AcDbCircle
 10
313.259124053889
 20
164.5565613601205
 30
0.0
 40
2.999999999413997
100
AcDbArc
 50
90.0
 51
120.0000000129247
  0
ARC
  5
1180
330
1A
100
AcDbEntity
  8
NOKITOI
  6
PHANTOM
 62
     8
100
AcDbCircle
 10
397.951073074339
 20
174.8478798404004
 30
0.0
 40
0.4999934649531607
100
AcDbArc
 50
90.00071060961923
 51
183.0044636796624
  0
LINE
  5
1181
330
1A
100
AcDbEntity
  8
NOKITOI
  6
PHANTOM
 62
     8
100
AcDbLine
 10
401.756166873181
 20
176.6478733053153
 30
0.0
 11
402.2561668731809
 21
174.1478733053153
 31
0.0
  0
LINE
  5
1182
330
1A
100
AcDbEntity
  8
NOKITOI
  6
PHANTOM
 62
     8
100
AcDbLine
 10
400.3154668731808
 20
173.0478733053151
 30
0.0
 11
399.3196668731811
 21
174.1478733053153
 31
0.0
  0
LINE
  5
1183
330
1A
100
AcDbEntity
  8
NOKITOI
  6
PHANTOM
 62
     8
100
AcDbLine
 10
400.3154668731808
 20
173.0478733053151
 30
0.0
 11
400.7773668731811
 21
173.0478733053151
 31
0.0
  0
LINE
  5
1184
330
1A
100
AcDbEntity
  8
NOKITOI
  6
PHANTOM
 62
     8
100
AcDbLine
 10
402.2561668731809
 20
174.1478733053153
 30
0.0
 11
399.3196668731811
 21
174.1478733053153
 31
0.0
  0
LINE
  5
1185
330
1A
100
AcDbEntity
  8
NOKITOI
  6
PHANTOM
 62
     8
100
AcDbLine
 10
400.6728668731811
 20
175.945973305315
 30
0.0
 11
400.4120668731811
 21
177.2498733053151
 31
0.0
  0
ARC
  5
1186
330
1A
100
AcDbEntity
  8
NOKITOI
  6
PHANTOM
 62
     8
100
AcDbCircle
 10
400.1825741277366
 20
175.8478821551585
 30
0.0
 40
0.5000088498959383
100
AcDbArc
 50
269.9991687038557
 51
11.3135956695107
  0
ARC
  5
1187
330
1A
100
AcDbEntity
  8
NOKITOI
  6
PHANTOM
 62
     8
100
AcDbCircle
 10
400.9023676561896
 20
177.3478742603168
 30
0.0
 40
0.4999990449987349
100
AcDbArc
 50
90.00008972630508
 51
191.3032801984552
  0
LINE
  5
1188
330
1A
100
AcDbEntity
  8
NOKITOI
  6
PHANTOM
 62
     8
100
AcDbLine
 10
397.9510668731813
 20
175.3478733053151
 30
0.0
 11
400.1825668731812
 21
175.3478733053151
 31
0.0
  0
LINE
  5
1189
330
1A
100
AcDbEntity
  8
SEIHIN
 62
     3
100
AcDbLine
 10
388.192652023889
 20
179.1072803601206
 30
0.0
 11
383.605397023889
 21
168.5565933601205
 31
0.0
  0
LINE
  5
118A
330
1A
100
AcDbEntity
  8
SEIHIN
 62
     3
100
AcDbLine
 10
378.798149023889
 20
168.5565933601205
 30
0.0
 11
393.605397023889
 21
168.5565933601205
 31
0.0
  0
LINE
  5
118B
330
1A
100
AcDbEntity
  8
SEIHIN
 62
     3
100
AcDbLine
 10
378.798149023889
 20
168.5565933601205
 30
0.0
 11
393.605397023889
 21
168.5565933601205
 31
0.0
  0
LINE
  5
118C
330
1A
100
AcDbEntity
  8
SEIHIN
 62
     3
100
AcDbLine
 10
383.785397023889
 20
168.9565933601205
 30
0.0
 11
393.605397023889
 21
168.9565933601205
 31
0.0
  0
LINE
  5
118D
330
1A
100
AcDbEntity
  8
SEIHIN
 62
     3
100
AcDbLine
 10
381.896199023889
 20
185.0565613601205
 30
0.0
 11
402.789124023889
 21
185.0565613601205
 31
0.0
  0
LINE
  5
118E
330
1A
100
AcDbEntity
  8
SEIHIN
 62
     3
100
AcDbLine
 10
384.308840023889
 20
179.5565613601205
 30
0.0
 11
388.475809023889
 21
179.5565613601205
 31
0.0
  0
LINE
  5
118F
330
1A
100
AcDbEntity
  8
SEIHIN
 62
     3
100
AcDbLine
 10
382.202695023889
 20
180.1565613601205
 30
0.0
 11
391.981895023889
 21
180.1565613601205
 31
0.0
  0
LINE
  5
1190
330
1A
100
AcDbEntity
  8
SEIHIN
 62
     3
100
AcDbLine
 10
388.642324023889
 20
180.5565613601205
 30
0.0
 11
384.142324023889
 21
180.5565613601205
 31
0.0
  0
LINE
  5
1191
330
1A
100
AcDbEntity
  8
SEIHIN
100
AcDbLine
 10
381.6617020238891
 20
185.7565613601206
 30
0.0
 11
408.5391240238891
 21
185.7565613601206
 31
0.0
  0
LINE
  5
1192
330
1A
100
AcDbEntity
  8
SEIHIN
 62
     3
100
AcDbLine
 10
374.093461023889
 20
178.3923933601205
 30
0.0
 11
373.156767023889
 21
172.4783433601205
 31
0.0
  0
ARC
  5
1193
330
1A
100
AcDbEntity
  8
SEIHIN
 62
     3
100
AcDbCircle
 10
378.798149023889
 20
170.7493453601206
 30
0.0
 40
2.192751996560394
100
AcDbArc
 50
105.000000080988
 51
118.7852858525369
  0
LINE
  5
1194
330
1A
100
AcDbEntity
  8
SEIHIN
 62
     3
100
AcDbLine
 10
378.322031023889
 20
172.4777643601205
 30
0.0
 11
380.165041023889
 21
172.9715973601205
 31
0.0
  0
ARC
  5
1195
330
1A
100
AcDbEntity
  8
SEIHIN
 62
     3
100
AcDbCircle
 10
371.638026853889
 20
173.7565613601206
 30
0.0
 40
6.199999997654025
100
AcDbArc
 50
270.0
 51
351.0000084443393
  0
ARC
  5
1196
330
1A
100
AcDbEntity
  8
SEIHIN
 62
     3
100
AcDbCircle
 10
364.539124023889
 20
167.2523943601205
 30
0.0
 40
5.704166995525981
100
AcDbArc
 50
57.37535862169602
 51
122.624641432457
  0
LINE
  5
1197
330
1A
100
AcDbEntity
  8
SEIHIN
 62
     3
100
AcDbLine
 10
366.539124023889
 20
167.5565613601205
 30
0.0
 11
371.638026853889
 21
167.5565613601205
 31
0.0
  0
LINE
  5
1198
330
1A
100
AcDbEntity
  8
SEIHIN
 62
     3
100
AcDbLine
 10
362.539124023889
 20
167.5565613601205
 30
0.0
 11
366.539124023889
 21
167.5565613601205
 31
0.0
  0
LINE
  5
1199
330
1A
100
AcDbEntity
  8
SEIHIN
 62
     3
100
AcDbLine
 10
362.455640023889
 20
166.9565613601205
 30
0.0
 11
366.622609023889
 21
166.9565613601205
 31
0.0
  0
ARC
  5
119A
330
1A
100
AcDbEntity
  8
SEIHIN
 62
     3
100
AcDbCircle
 10
362.455640023889
 20
167.9565613601205
 30
0.0
 40
1.000000000462305
100
AcDbArc
 50
203.578178455081
 51
270.0
  0
ARC
  5
119B
330
1A
100
AcDbEntity
  8
SEIHIN
 62
     3
100
AcDbCircle
 10
366.622608023889
 20
167.9565613601205
 30
0.0
 40
1.000000000462305
100
AcDbArc
 50
270.0
 51
336.421821544919
  0
LINE
  5
119C
330
1A
100
AcDbEntity
  8
SEIHIN
 62
     3
100
AcDbLine
 10
378.781797023889
 20
168.9565933601205
 30
0.0
 11
383.779310023889
 21
168.9565933601205
 31
0.0
  0
ARC
  5
119D
330
1A
100
AcDbEntity
  8
SEIHIN
 62
     3
100
AcDbCircle
 10
372.662923023889
 20
172.5565613601205
 30
0.0
 40
0.5000000004381011
100
AcDbArc
 50
270.0
 51
350.9999991480861
  0
ARC
  5
119E
330
1A
100
AcDbEntity
  8
SEIHIN
 62
     3
100
AcDbCircle
 10
378.798149023889
 20
170.7493453601206
 30
0.0
 40
1.792751996555905
100
AcDbArc
 50
105.0000000343158
 51
131.4901295096818
  0
ARC
  5
119F
330
1A
100
AcDbEntity
  8
SEIHIN
 62
     3
100
AcDbCircle
 10
378.798149023889
 20
170.7493453601206
 30
0.0
 40
2.192751996560394
100
AcDbArc
 50
195.6503830753083
 51
270.0
  0
ARC
  5
11A0
330
1A
100
AcDbEntity
  8
SEIHIN
 62
     3
100
AcDbCircle
 10
378.798149023889
 20
170.7493453601206
 30
0.0
 40
1.792751996555905
100
AcDbArc
 50
182.9455394181632
 51
270.0
  0
LINE
  5
11A1
330
1A
100
AcDbEntity
  8
SEIHIN
 62
     3
100
AcDbLine
 10
381.892324023889
 20
168.5565933601205
 30
0.0
 11
381.892324023889
 21
168.9565933601206
 31
0.0
  0
ARC
  5
11A2
330
1A
100
AcDbEntity
  8
SEIHIN
100
AcDbCircle
 10
381.6617020238891
 20
178.7565613601206
 30
0.0
 40
7.000000005682091
100
AcDbArc
 50
90.0
 51
159.8596214145064
  0
ARC
  5
11A3
330
1A
100
AcDbEntity
  8
SEIHIN
 62
     3
100
AcDbCircle
 10
381.896199023889
 20
177.1565613601205
 30
0.0
 40
7.899999999354902
100
AcDbArc
 50
90.0
 51
171.000000026553
  0
LINE
  5
11A4
330
1A
100
AcDbEntity
  8
SEIHIN
 62
     3
100
AcDbLine
 10
378.230623023889
 20
172.8673813601205
 30
0.0
 11
380.0615140238889
 21
173.3579673601205
 31
0.0
  0
ARC
  5
11A5
330
1A
100
AcDbEntity
  8
SEIHIN
 62
     3
100
AcDbCircle
 10
381.896199023889
 20
177.1565613601205
 30
0.0
 40
3.400000000887181
100
AcDbArc
 50
90.0
 51
171.0000000241322
  0
LINE
  5
11A6
330
1A
100
AcDbEntity
  8
SEIHIN
 62
     3
100
AcDbLine
 10
378.5380580238889
 20
177.6884383601205
 30
0.0
 11
377.761694703889
 21
172.7866685801205
 31
0.0
  0
LINE
  5
11A7
330
1A
100
AcDbEntity
  8
SEIHIN
 62
     3
100
AcDbLine
 10
384.142324023889
 20
180.5565613601205
 30
0.0
 11
381.896199023889
 21
180.5565613601205
 31
0.0
  0
LINE
  5
11A8
330
1A
100
AcDbEntity
  8
SEIHIN
 62
     3
100
AcDbLine
 10
381.202695023889
 20
179.1565613601205
 30
0.0
 11
381.202695023889
 21
174.3238933601205
 31
0.0
  0
LINE
  5
11A9
330
1A
100
AcDbEntity
  8
SEIHIN
 62
     3
100
AcDbLine
 10
380.802695023889
 20
179.1565613601205
 30
0.0
 11
380.802695023889
 21
174.3238933601205
 31
0.0
  0
ARC
  5
11AA
330
1A
100
AcDbEntity
  8
SEIHIN
 62
     3
100
AcDbCircle
 10
379.802695023889
 20
174.3238933601205
 30
0.0
 40
1.00000000242602
100
AcDbArc
 50
285.0000002160139
 51
0.0
  0
ARC
  5
11AB
330
1A
100
AcDbEntity
  8
SEIHIN
 62
     3
100
AcDbCircle
 10
379.802695023889
 20
174.3238933601205
 30
0.0
 40
1.400000001136407
100
AcDbArc
 50
284.9999998418851
 51
0.0
  0
ARC
  5
11AC
330
1A
100
AcDbEntity
  8
SEIHIN
 62
     3
100
AcDbCircle
 10
384.308840023889
 20
180.5565613601205
 30
0.0
 40
1.000000000462305
100
AcDbArc
 50
203.578178455081
 51
270.0
  0
ARC
  5
11AD
330
1A
100
AcDbEntity
  8
SEIHIN
 62
     3
100
AcDbCircle
 10
382.202695023889
 20
179.1565613601205
 30
0.0
 40
1.0
100
AcDbArc
 50
90.0
 51
180.0000005729565
  0
ARC
  5
11AE
330
1A
100
AcDbEntity
  8
SEIHIN
 62
     3
100
AcDbCircle
 10
382.202695023889
 20
179.1565613601205
 30
0.0
 40
1.399999999999998
100
AcDbArc
 50
90.0
 51
180.0000004092556
  0
LINE
  5
11AF
330
1A
100
AcDbEntity
  8
NOKITOI
  6
PHANTOM
 62
     8
100
AcDbLine
 10
287.5563668731815
 20
175.822873305315
 30
0.0
 11
287.7056668731811
 21
171.0438733053153
 31
0.0
  0
LINE
  5
11B0
330
1A
100
AcDbEntity
  8
NOKITOI
  6
PHANTOM
 62
     8
100
AcDbLine
 10
286.3569668731811
 20
175.7853733053151
 30
0.0
 11
286.7470668731812
 21
163.3009733053151
 31
0.0
  0
LINE
  5
11B1
330
1A
100
AcDbEntity
  8
NOKITOI
  6
PHANTOM
 62
     8
100
AcDbLine
 10
294.817366873181
 20
168.8215733053151
 30
0.0
 11
295.1331668731814
 21
174.8215733053151
 31
0.0
  0
LINE
  5
11B2
330
1A
100
AcDbEntity
  8
NOKITOI
  6
PHANTOM
 62
     8
100
AcDbLine
 10
293.2800668731811
 20
172.376273305315
 30
0.0
 11
293.8350668731814
 21
172.9892733053151
 31
0.0
  0
LINE
  5
11B3
330
1A
100
AcDbEntity
  8
NOKITOI
  6
PHANTOM
 62
     8
100
AcDbLine
 10
293.6539668731811
 20
169.5478733053151
 30
0.0
 11
293.8350668731814
 21
172.9892733053151
 31
0.0
  0
LINE
  5
11B4
330
1A
100
AcDbEntity
  8
SEIHIN
 62
     3
100
AcDbLine
 10
394.605397023889
 20
172.7502703601205
 30
0.0
 11
394.605397023889
 21
178.7091913601206
 31
0.0
  0
ARC
  5
11B5
330
1A
100
AcDbEntity
  8
NOKITOI
  6
PHANTOM
 62
     8
100
AcDbCircle
 10
291.8074847395323
 20
167.847882033695
 30
0.0
 40
5.199991271650611
100
AcDbArc
 50
90.00019685927439
 51
142.07467139527
  0
LINE
  5
11B6
330
1A
100
AcDbEntity
  8
SEIHIN
 62
     3
100
AcDbLine
 10
408.9891240238889
 20
179.5565613601205
 30
0.0
 11
408.9891240238889
 21
166.7926293601206
 31
0.0
  0
LINE
  5
11B7
330
1A
100
AcDbEntity
  8
SEIHIN
 62
     3
100
AcDbLine
 10
407.989124023889
 20
179.5565613601205
 30
0.0
 11
407.989124023889
 21
162.8565613601205
 31
0.0
  0
LINE
  5
11B8
330
1A
100
AcDbEntity
  8
SEIHIN
 62
     3
100
AcDbLine
 10
406.789124023889
 20
179.5565613601205
 30
0.0
 11
406.789124023889
 21
162.8565613601205
 31
0.0
  0
LINE
  5
11B9
330
1A
100
AcDbEntity
  8
SEIHIN
100
AcDbLine
 10
415.5391240238891
 20
178.7565613601206
 30
0.0
 11
415.5391240238891
 21
155.7565613601205
 31
0.0
  0
LINE
  5
11BA
330
1A
100
AcDbEntity
  8
SEIHIN
100
AcDbLine
 10
412.5391240238891
 20
178.7565613601206
 30
0.0
 11
412.5391240238891
 21
155.1734203601205
 31
0.0
  0
ARC
  5
11BB
330
1A
100
AcDbEntity
  8
NOKITOI
  6
PHANTOM
 62
     8
100
AcDbCircle
 10
291.8074978001172
 20
167.8479090499789
 30
0.0
 40
3.99998565374706
100
AcDbArc
 50
96.4757761953165
 51
181.791303340899
  0
ARC
  5
11BC
330
1A
100
AcDbEntity
  8
NOKITOI
  6
PHANTOM
 62
     8
100
AcDbCircle
 10
289.8940288853568
 20
165.0478101258874
 30
0.0
 40
2.000036820932882
100
AcDbArc
 50
181.7889408725805
 51
270.0010882509654
  0
LINE
  5
11BD
330
1A
100
AcDbEntity
  8
NOKITOI
  6
PHANTOM
 62
     8
100
AcDbLine
 10
288.2463668731811
 20
161.8478733053151
 30
0.0
 11
294.387466873181
 21
161.8478733053151
 31
0.0
  0
LINE
  5
11BE
330
1A
100
AcDbEntity
  8
SEIHIN
 62
     3
100
AcDbLine
 10
399.435821683889
 20
161.8565613601205
 30
0.0
 11
405.789124023889
 21
161.8565613601205
 31
0.0
  0
LINE
  5
11BF
330
1A
100
AcDbEntity
  8
SEIHIN
 62
     3
100
AcDbLine
 10
399.4497694938889
 20
160.6565613601206
 30
0.0
 11
405.789124023889
 21
160.6565613601206
 31
0.0
  0
ARC
  5
11C0
330
1A
100
AcDbEntity
  8
NOKITOI
  6
PHANTOM
 62
     8
100
AcDbCircle
 10
294.3874462233402
 20
160.8478919931643
 30
0.0
 40
0.9999813123640345
100
AcDbArc
 50
5.709409966648592
 51
89.9988168291509
  0
ARC
  5
11C1
330
1A
100
AcDbEntity
  8
SEIHIN
 62
     3
100
AcDbCircle
 10
399.4497694938889
 20
159.6565613601206
 30
0.0
 40
2.199999996315752
100
AcDbArc
 50
105.0000000722989
 51
180.0000002604354
  0
ARC
  5
11C2
330
1A
100
AcDbEntity
  8
SEIHIN
 62
     3
100
AcDbCircle
 10
399.4497694938889
 20
159.6565613601206
 30
0.0
 40
2.199999996916341
100
AcDbArc
 50
180.0000002604354
 51
194.9999981765602
  0
ARC
  5
11C3
330
1A
100
AcDbEntity
  8
SEIHIN
 62
     3
100
AcDbCircle
 10
399.4497694938889
 20
159.6565613601206
 30
0.0
 40
0.9999999972496434
100
AcDbArc
 50
90.0
 51
194.9999980022748
  0
LINE
  5
11C4
330
1A
100
AcDbEntity
  8
SEIHIN
 62
     3
100
AcDbLine
 10
400.502631943889
 20
151.8635207901206
 30
0.0
 11
399.343520953889
 21
151.5529379401205
 31
0.0
  0
LINE
  5
11C5
330
1A
100
AcDbEntity
  8
SEIHIN
 62
     3
100
AcDbLine
 10
399.861158973889
 20
149.6210862701206
 30
0.0
 11
401.020269963889
 21
149.9316691201206
 31
0.0
  0
LINE
  5
11C6
330
1A
100
AcDbEntity
  8
SEIHIN
 62
     3
100
AcDbLine
 10
398.483843663889
 20
159.3977423501206
 30
0.0
 11
401.020269963889
 21
149.9316691201206
 31
0.0
  0
LINE
  5
11C7
330
1A
100
AcDbEntity
  8
SEIHIN
 62
     3
100
AcDbLine
 10
397.3247326638889
 20
159.0871595301205
 30
0.0
 11
399.861158963889
 21
149.6210863101205
 31
0.0
  0
LINE
  5
11C8
330
1A
100
AcDbEntity
  8
SEIHIN
 62
     3
100
AcDbLine
 10
394.605397023889
 20
172.5502703601205
 30
0.0
 11
393.605397023889
 21
168.5565933601205
 31
0.0
  0
LINE
  5
11C9
330
1A
100
AcDbEntity
  8
SEIHIN
 62
     3
100
AcDbLine
 10
390.892324023889
 20
168.5565933601205
 30
0.0
 11
390.892324023889
 21
168.9565933601205
 31
0.0
  0
LINE
  5
11CA
330
1A
100
AcDbEntity
  8
SEIHIN
 62
     3
100
AcDbLine
 10
393.605397023889
 20
168.5565933601205
 30
0.0
 11
393.605397023889
 21
168.9565933601205
 31
0.0
  0
LINE
  5
11CB
330
1A
100
AcDbEntity
  8
NOKITOI
  6
PHANTOM
 62
     8
100
AcDbLine
 10
291.5739668731812
 20
168.9185733053151
 30
0.0
 11
291.9077668731811
 21
171.2547733053153
 31
0.0
  0
ARC
  5
11CC
330
1A
100
AcDbEntity
  8
NOKITOI
  6
PHANTOM
 62
     8
100
AcDbCircle
 10
292.0689566867449
 20
168.8478850500392
 30
0.0
 40
0.5000117448278309
100
AcDbArc
 50
171.8726853912844
 51
270.0011672521984
  0
ARC
  5
11CD
330
1A
100
AcDbEntity
  8
NOKITOI
  6
PHANTOM
 62
     8
100
AcDbCircle
 10
294.3180627517745
 20
168.8478693952846
 30
0.0
 40
0.4999960899864752
100
AcDbArc
 50
270.0004722821405
 51
356.9852756208258
  0
LINE
  5
11CE
330
1A
100
AcDbEntity
  8
NOKITOI
  6
PHANTOM
 62
     8
100
AcDbLine
 10
294.3180668731811
 20
168.3478733053151
 30
0.0
 11
292.0689668731816
 21
168.3478733053151
 31
0.0
  0
LINE
  5
11CF
330
1A
100
AcDbEntity
  8
NOKITOI
  6
PHANTOM
 62
     8
100
AcDbLine
 10
293.6539668731811
 20
169.5478733053151
 30
0.0
 11
292.8760668731815
 21
169.5478733053151
 31
0.0
  0
LINE
  5
11D0
330
1A
100
AcDbEntity
  8
NOKITOI
  6
PHANTOM
 62
     8
100
AcDbLine
 10
292.8760668731815
 20
169.5478733053151
 30
0.0
 11
293.2800668731811
 21
172.376273305315
 31
0.0
  0
ARC
  5
11D1
330
1A
100
AcDbEntity
  8
NOKITOI
  6
PHANTOM
 62
     8
100
AcDbCircle
 10
291.4127375006815
 20
171.32550353781
 30
0.0
 40
0.4999578477751074
100
AcDbArc
 50
351.8669438287067
 51
96.47390928779252
  0
ARC
  5
11D2
330
1A
100
AcDbEntity
  8
NOKITOI
  6
PHANTOM
 62
     8
100
AcDbCircle
 10
295.9259538021765
 20
162.547885135595
 30
0.0
 40
0.499988169890889
100
AcDbArc
 50
5.70339386228373
 51
89.99850213773367
  0
LINE
  5
11D3
330
1A
100
AcDbEntity
  8
NOKITOI
  6
PHANTOM
 62
     8
100
AcDbLine
 10
295.9259668731815
 20
163.0478733053152
 30
0.0
 11
289.8940668731811
 21
163.0478733053152
 31
0.0
  0
ARC
  5
11D4
330
1A
100
AcDbEntity
  8
SEIHIN
 62
     3
100
AcDbCircle
 10
399.4497694938889
 20
159.6565613601206
 30
0.0
 40
2.199999994483917
100
AcDbArc
 50
90.20054527422605
 51
105.0000000722989
  0
ARC
  5
11D5
330
1A
100
AcDbEntity
  8
SEIHIN
 62
     3
100
AcDbCircle
 10
399.4497694938889
 20
159.6565613601206
 30
0.0
 40
2.199999998168167
100
AcDbArc
 50
90.0
 51
90.20054527422605
  0
ARC
  5
11D6
330
1A
100
AcDbEntity
  8
SEIHIN
 62
     3
100
AcDbCircle
 10
405.789124023889
 20
162.8565613601205
 30
0.0
 40
2.200000000000001
100
AcDbArc
 50
270.0
 51
0.0
  0
ARC
  5
11D7
330
1A
100
AcDbEntity
  8
NOKITOI
  6
PHANTOM
 62
     8
100
AcDbCircle
 10
288.246349660003
 20
163.3478899884629
 30
0.0
 40
1.500016683246579
100
AcDbArc
 50
181.7923576755887
 51
270.0006574876656
  0
LINE
  5
11D8
330
1A
100
AcDbEntity
  8
NOKITOI
  6
PHANTOM
 62
     8
100
AcDbLine
 10
287.8949668731811
 20
164.9852733053152
 30
0.0
 11
287.8094668731814
 21
167.7228733053151
 31
0.0
  0
ARC
  5
11D9
330
1A
100
AcDbEntity
  8
SEIHIN
 62
     3
100
AcDbCircle
 10
405.989124023889
 20
166.7926293601206
 30
0.0
 40
3.000000004265107
100
AcDbArc
 50
311.8103150062962
 51
0.0
  0
ARC
  5
11DA
330
1A
100
AcDbEntity
  8
SEIHIN
 62
     3
100
AcDbCircle
 10
405.789124023889
 20
162.8565613601205
 30
0.0
 40
1.0
100
AcDbArc
 50
270.0
 51
0.0
  0
LINE
  5
11DB
330
1A
100
AcDbEntity
  8
SEIHIN
 62
     3
100
AcDbLine
 10
405.789124023889
 20
180.5565613601205
 30
0.0
 11
388.642324023889
 21
180.5565613601205
 31
0.0
  0
ARC
  5
11DC
330
1A
100
AcDbEntity
  8
SEIHIN
 62
     3
100
AcDbCircle
 10
402.789124023889
 20
183.0565613601205
 30
0.0
 40
2.000000000000001
100
AcDbArc
 50
0.0
 51
90.0
  0
LINE
  5
11DD
330
1A
100
AcDbEntity
  8
NOKITOI
  6
PHANTOM
 62
     8
100
AcDbLine
 10
288.3559668731809
 20
176.6477733053151
 30
0.0
 11
290.8286668731811
 21
176.6478733053153
 31
0.0
  0
LINE
  5
11DE
330
1A
100
AcDbEntity
  8
NOKITOI
  6
PHANTOM
 62
     8
100
AcDbLine
 10
288.3559668731809
 20
177.8477733053151
 30
0.0
 11
291.6825668731812
 21
177.8478733053151
 31
0.0
  0
LINE
  5
11DF
330
1A
100
AcDbEntity
  8
SEIHIN
 62
     3
100
AcDbLine
 10
393.105397023889
 20
179.9535213601205
 30
0.0
 11
389.544053023889
 21
179.9535213601205
 31
0.0
  0
LINE
  5
11E0
330
1A
100
AcDbEntity
  8
SEIHIN
 62
     3
100
AcDbLine
 10
393.105397023889
 20
180.0091913601205
 30
0.0
 11
389.568257023889
 21
180.0091913601205
 31
0.0
  0
ARC
  5
11E1
330
1A
100
AcDbEntity
  8
SEIHIN
 62
     3
100
AcDbCircle
 10
388.475809023889
 20
180.5565613601205
 30
0.0
 40
1.000000005160678
100
AcDbArc
 50
325.0882877584606
 51
336.421821544919
  0
ARC
  5
11E2
330
1A
100
AcDbEntity
  8
SEIHIN
 62
     3
100
AcDbCircle
 10
388.475809023889
 20
180.5565613601205
 30
0.0
 40
1.000000000760434
100
AcDbArc
 50
270.0
 51
271.0792212267711
  0
ARC
  5
11E3
330
1A
100
AcDbEntity
  8
SEIHIN
 62
     3
100
AcDbCircle
 10
388.475809023889
 20
180.5565613601205
 30
0.0
 40
1.000000005458808
100
AcDbArc
 50
271.0792212267711
 51
325.0882877584606
  0
LINE
  5
11E4
330
1A
100
AcDbEntity
  8
SEIHIN
 62
     3
100
AcDbLine
 10
391.981895023889
 20
180.1565613601205
 30
0.0
 11
391.981895023889
 21
180.5565613601205
 31
0.0
  0
ARC
  5
11E5
330
1A
100
AcDbEntity
  8
SEIHIN
 62
     3
100
AcDbCircle
 10
389.568257023889
 20
178.5091913601205
 30
0.0
 40
1.499999998366152
100
AcDbArc
 50
90.00000190985865
 51
156.5014370654866
  0
ARC
  5
11E6
330
1A
100
AcDbEntity
  8
SEIHIN
 62
     3
100
AcDbCircle
 10
389.544053023889
 20
178.4535213601206
 30
0.0
 40
1.499999998565515
100
AcDbArc
 50
90.0
 51
156.5014341565161
  0
ARC
  5
11E7
330
1A
100
AcDbEntity
  8
SEIHIN
 62
     3
100
AcDbCircle
 10
393.105397023889
 20
178.4535213601206
 30
0.0
 40
1.5
100
AcDbArc
 50
0.0
 51
90.0
  0
ARC
  5
11E8
330
1A
100
AcDbEntity
  8
SEIHIN
 62
     3
100
AcDbCircle
 10
393.105397023889
 20
178.5091913601205
 30
0.0
 40
1.5
100
AcDbArc
 50
0.0
 51
90.0
  0
LINE
  5
11E9
330
1A
100
AcDbEntity
  8
NOKITOI
  6
PHANTOM
 62
     8
100
AcDbLine
 10
290.8286668731811
 20
176.6478733053153
 30
0.0
 11
290.3286668731812
 21
174.1478733053153
 31
0.0
  0
ARC
  5
11EA
330
1A
100
AcDbEntity
  8
NOKITOI
  6
PHANTOM
 62
     8
100
AcDbCircle
 10
294.6338631636858
 20
174.8478772153458
 30
0.0
 40
0.4999960899831856
100
AcDbArc
 50
356.9843782585353
 51
89.9995749198492
  0
LINE
  5
11EB
330
1A
100
AcDbEntity
  8
NOKITOI
  6
PHANTOM
 62
     8
100
AcDbLine
 10
292.269466873181
 20
173.0478733053151
 30
0.0
 11
293.2652668731811
 21
174.1478733053153
 31
0.0
  0
LINE
  5
11EC
330
1A
100
AcDbEntity
  8
NOKITOI
  6
PHANTOM
 62
     8
100
AcDbLine
 10
292.269466873181
 20
173.0478733053151
 30
0.0
 11
291.807466873181
 21
173.0478733053151
 31
0.0
  0
LINE
  5
11ED
330
1A
100
AcDbEntity
  8
NOKITOI
  6
PHANTOM
 62
     8
100
AcDbLine
 10
290.3286668731812
 20
174.1478733053153
 30
0.0
 11
293.2652668731811
 21
174.1478733053153
 31
0.0
  0
LINE
  5
11EE
330
1A
100
AcDbEntity
  8
NOKITOI
  6
PHANTOM
 62
     8
100
AcDbLine
 10
291.9120668731811
 20
175.9458733053153
 30
0.0
 11
292.1728668731812
 21
177.2498733053151
 31
0.0
  0
ARC
  5
11EF
330
1A
100
AcDbEntity
  8
NOKITOI
  6
PHANTOM
 62
     8
100
AcDbCircle
 10
292.4023676561896
 20
175.8478723503134
 30
0.0
 40
0.4999990449987399
100
AcDbArc
 50
168.6967198015447
 51
269.9999102736949
  0
ARC
  5
11F0
330
1A
100
AcDbEntity
  8
NOKITOI
  6
PHANTOM
 62
     8
100
AcDbCircle
 10
291.6825741277366
 20
177.3478644554717
 30
0.0
 40
0.500008849895925
100
AcDbArc
 50
348.6864043304874
 51
90.00083129614585
  0
LINE
  5
11F1
330
1A
100
AcDbEntity
  8
NOKITOI
  6
PHANTOM
 62
     8
100
AcDbLine
 10
294.6338668731809
 20
175.3478733053151
 30
0.0
 11
292.4023668731811
 21
175.3478733053151
 31
0.0
  0
ARC
  5
11F2
330
1A
100
AcDbEntity
  8
SEIHIN
100
AcDbCircle
 10
408.5391240238891
 20
178.7565613601206
 30
0.0
 40
7.0
100
AcDbArc
 50
0.0
 51
90.0
  0
ARC
  5
11F3
330
1A
100
AcDbEntity
  8
SEIHIN
100
AcDbCircle
 10
408.5391240238891
 20
178.7565613601206
 30
0.0
 40
4.0
100
AcDbArc
 50
0.0
 51
90.0
  0
ARC
  5
11F4
330
1A
100
AcDbEntity
  8
SEIHIN
 62
     3
100
AcDbCircle
 10
405.789124023889
 20
179.5565613601205
 30
0.0
 40
3.200000000000001
100
AcDbArc
 50
0.0
 51
90.0
  0
LINE
  5
11F5
330
1A
100
AcDbEntity
  8
SEIHIN
 62
     3
100
AcDbLine
 10
404.789124023889
 20
183.0565613601205
 30
0.0
 11
404.789124023889
 21
180.5565613601205
 31
0.0
  0
ARC
  5
11F6
330
1A
100
AcDbEntity
  8
SEIHIN
 62
     3
100
AcDbCircle
 10
405.789124023889
 20
179.5565613601205
 30
0.0
 40
1.0
100
AcDbArc
 50
0.0
 51
90.0
  0
ARC
  5
11F7
330
1A
100
AcDbEntity
  8
SEIHIN
 62
     3
100
AcDbCircle
 10
405.789124023889
 20
179.5565613601205
 30
0.0
 40
2.200000000000001
100
AcDbArc
 50
0.0
 51
90.0
  0
LINE
  5
11F8
330
1A
100
AcDbEntity
  8
SEIHIN
 62
     3
100
AcDbLine
 10
405.789124023889
 20
181.7565613601205
 30
0.0
 11
404.789124023889
 21
181.7565613601205
 31
0.0
  0
LINE
  5
11F9
330
1A
100
AcDbEntity
  8
SEIHIN
 62
     3
100
AcDbLine
 10
404.789124023889
 20
182.7565613601205
 30
0.0
 11
405.789124023889
 21
182.7565613601205
 31
0.0
  0
LINE
  5
11FA
330
1A
100
AcDbEntity
  8
SEIHIN
100
AcDbLine
 10
404.7664960172175
 20
182.7565613601205
 30
0.0
 11
408.5391240238891
 21
182.7565613601205
 31
0.0
  0
ARC
  5
11FB
330
1A
100
AcDbEntity
  8
NOKITOI
  6
PHANTOM
 62
     8
100
AcDbCircle
 10
288.3559781101753
 20
175.8478848991322
 30
0.0
 40
1.999988406214315
100
AcDbArc
 50
90.00032191804448
 51
181.7911273464063
  0
ARC
  5
11FC
330
1A
100
AcDbEntity
  8
NOKITOI
  6
PHANTOM
 62
     8
100
AcDbCircle
 10
288.3559229068282
 20
175.8478279428421
 30
0.0
 40
0.7999453636812564
100
AcDbArc
 50
89.99685092684577
 51
181.7876563552118
  0
LINE
  5
11FD
330
1A
100
AcDbEntity
  8
SEIHIN
100
AcDbLine
 10
420.0531989238891
 20
149.9227689601205
 30
0.0
 11
422.806622423889
 21
148.4467408601205
 31
0.0
  0
LINE
  5
11FE
330
1A
100
AcDbEntity
  8
SEIHIN
100
AcDbLine
 10
420.0531989238891
 20
149.9227689601205
 30
0.0
 11
424.0989498238891
 21
139.9091832601205
 31
0.0
  0
LINE
  5
11FF
330
1A
100
AcDbEntity
  8
SEIHIN
100
AcDbLine
 10
422.806622423889
 20
148.4467408601205
 30
0.0
 11
521.0881120673385
 21
188.1550365485496
 31
0.0
  0
LINE
  5
1200
330
1A
100
AcDbEntity
  8
SEIHIN
100
AcDbLine
 10
425.054261823889
 20
142.8836376601205
 30
0.0
 11
523.3357513673385
 21
182.5919333485496
 31
0.0
  0
LINE
  5
1202
330
1A
100
AcDbEntity
  8
SEIHIN
100
AcDbLine
 10
421.3455279238891
 20
141.3852078601205
 30
0.0
 11
424.904289023889
 21
132.5769653601206
 31
0.0
  0
LINE
  5
1203
330
1A
100
AcDbEntity
  8
SEIHIN
100
AcDbLine
 10
422.1227370238891
 20
131.4531453601205
 30
0.0
 11
424.904289023889
 21
132.5769653601206
 31
0.0
  0
LINE
  5
1204
330
1A
100
AcDbEntity
  8
SEIHIN
100
AcDbLine
 10
424.0989498238891
 20
139.9091832601205
 30
0.0
 11
422.2445821238891
 21
139.1599701601205
 31
0.0
  0
LINE
  5
1205
330
1A
100
AcDbEntity
  8
SEIHIN
100
AcDbLine
 10
425.054261823889
 20
142.8836376601205
 30
0.0
 11
424.0989498238891
 21
139.9091832601205
 31
0.0
  0
LINE
  5
1206
330
1A
100
AcDbEntity
  8
SEIHIN
100
AcDbLine
 10
422.806622423889
 20
148.4467408601205
 30
0.0
 11
425.054261823889
 21
142.8836376601205
 31
0.0
  0
LINE
  5
1208
330
1A
100
AcDbEntity
  8
SEIHIN
100
AcDbLine
 10
521.0881120673385
 20
188.1550365485496
 30
0.0
 11
523.3357513673385
 21
182.5919333485496
 31
0.0
  0
LINE
  5
1209
330
1A
100
AcDbEntity
  8
SEIHIN
100
AcDbLine
 10
531.4837702673385
 20
189.1195509485496
 30
0.0
 11
523.3357513673385
 21
182.5919333485496
 31
0.0
  0
LINE
  5
120A
330
1A
100
AcDbEntity
  8
SEIHIN
100
AcDbLine
 10
521.0881120673385
 20
188.1550365485496
 30
0.0
 11
531.4837702673385
 21
189.1195509485496
 31
0.0
  0
LINE
  5
120B
330
1A
100
AcDbEntity
  8
SEIHIN
100
AcDbLine
 10
521.0881119673384
 20
188.1550365485496
 30
0.0
 11
521.0881120673385
 21
188.1550365485496
 31
0.0
  0
TEXT
  5
1317
330
1A
100
AcDbEntity
  8
NOKITOI
 48
5.0
100
AcDbText
 10
314.5832167643952
 20
96.41252843956159
 30
0.0
 40
8.0
  1
軒樋の差し替え
100
AcDbText
  0
LINE
  5
140E
330
1A
100
AcDbEntity
  8
ZUWAKU
100
AcDbLine
 10
208.6466018818887
 20
15.20000036911607
 30
0.0
 11
447.4243645628121
 21
15.20000036911606
 31
0.0
  0
LINE
  5
140F
330
1A
100
AcDbEntity
  8
ZUWAKU
100
AcDbLine
 10
208.6466018818887
 20
15.60000036911607
 30
0.0
 11
447.4243645628121
 21
15.60000036911607
 31
0.0
  0
LINE
  5
1410
330
1A
100
AcDbEntity
  8
ZUWAKU
100
AcDbLine
 10
208.6466018818887
 20
15.40000036911607
 30
0.0
 11
447.4243645628121
 21
15.40000036911607
 31
0.0
  0
LINE
  5
1411
330
1A
100
AcDbEntity
  8
ZUWAKU
100
AcDbLine
 10
0.000000591820708
 20
30.80000036911604
 30
0.0
 11
797.4000005918205
 21
30.80000036911604
 31
0.0
  0
LINE
  5
1412
330
1A
100
AcDbEntity
  8
ZUWAKU
100
AcDbLine
 10
0.000000591820708
 20
30.60000036911604
 30
0.0
 11
797.4000005918205
 21
30.60000036911604
 31
0.0
  0
LINE
  5
1413
330
1A
100
AcDbEntity
  8
ZUWAKU
100
AcDbLine
 10
0.000000591820708
 20
30.40000036911604
 30
0.0
 11
797.4000005918205
 21
30.40000036911604
 31
0.0
  0
LINE
  5
1414
330
1A
100
AcDbEntity
  8
ZUWAKU
100
AcDbLine
 10
0.000000591820708
 20
30.20000036911604
 30
0.0
 11
797.4000005918205
 21
30.20000036911604
 31
0.0
  0
LINE
  5
1415
330
1A
100
AcDbEntity
  8
ZUWAKU
100
AcDbLine
 10
0.000000591820708
 20
30.00000036911603
 30
0.0
 11
797.4000005918205
 21
30.00000036911603
 31
0.0
  0
LWPOLYLINE
  5
1416
330
1A
100
AcDbEntity
  8
ZUWAKU
100
AcDbPolyline
 90
        4
 70
     1
 43
0.0
 10
0.2000005918206398
 20
551.4000003691161
 10
0.2000005918206398
 20
0.2000003691160828
 10
797.4000005918205
 20
0.2000003691161059
 10
797.4000005918208
 20
551.4000003691161
  0
LWPOLYLINE
  5
1417
330
1A
100
AcDbEntity
  8
ZUWAKU
100
AcDbPolyline
 90
        4
 70
     1
 43
0.0
 10
0.6000005918206171
 20
551.0000003691161
 10
0.6000005918206171
 20
0.6000003691160601
 10
797.0000005918209
 20
0.6000003691161063
 10
797.0000005918207
 20
551.0000003691161
  0
LWPOLYLINE
  5
1418
330
1A
100
AcDbEntity
  8
ZUWAKU
100
AcDbPolyline
 90
        4
 70
     1
 43
0.0
 10
0.000000591820708
 20
551.600000369116
 10
0.000000591820708
 20
0.0000003691160373
 10
797.6000005918209
 20
0.0000003691161048
 10
797.6000005918209
 20
551.6000003691162
  0
LWPOLYLINE
  5
1419
330
1A
100
AcDbEntity
  8
ZUWAKU
100
AcDbPolyline
 90
        4
 70
     1
 43
0.0
 10
0.4000005918206853
 20
551.200000369116
 10
0.4000005918206853
 20
0.4000003691161283
 10
797.2000005918207
 20
0.4000003691161052
 10
797.2000005918207
 20
551.200000369116
  0
LWPOLYLINE
  5
141A
330
1A
100
AcDbEntity
  8
ZUWAKU
100
AcDbPolyline
 90
        4
 70
     1
 43
0.0
 10
0.8000005918206625
 20
550.8000003691161
 10
0.8000005918206625
 20
0.8000003691161055
 10
796.8000005918207
 20
0.8000003691161055
 10
796.8000005918207
 20
550.8000003691161
  0
TEXT
  5
141B
330
1A
100
AcDbEntity
  8
MOJI
100
AcDbText
 10
92.95779017998984
 20
12.74117849939079
 30
0.0
 40
6.0
  1
新・丸トップＲＶ１０５
 41
0.9
  7
ｽﾀｲﾙ1
100
AcDbText
  0
HATCH
  5
141C
330
1A
100
AcDbEntity
  8
ZUWAKU
100
AcDbHatch
 10
0.0
 20
0.0
 30
0.0
210
0.0
220
0.0
230
1.0
  2
ANSI37
 70
     0
 71
     0
 91
        8
 92
        7
 72
     1
 73
     1
 93
       24
 10
14.50226325294056
 20
17.64484885009962
 42
-0.1989123673796348
 10
14.09221274660183
 20
18.63479834376067
 42
0.0
 10
14.09221274660183
 20
19.92500036911605
 42
-0.4142135623730912
 10
14.6172127466018
 20
20.45000036911603
 42
0.0
 10
17.59221274660171
 20
20.45000036911603
 42
0.4142135623731546
 10
18.11721274660181
 20
20.97500036911603
 42
0.0
 10
18.11721274660181
 20
22.72500036911604
 42
0.4142135623731586
 10
17.59221274660171
 20
23.25000036911604
 42
0.0
 10
14.09221274660183
 20
23.25000036911604
 42
0.4142135623730928
 10
11.29221274660187
 20
20.45000036911607
 42
0.0
 10
11.29221274660187
 20
18.6347983437608
 42
0.1989123673796619
 10
12.5223642656183
 20
15.66494986277719
 42
0.0
 10
15.43216224026298
 20
12.75515188813253
 42
-0.1989123673796613
 10
15.84221274660183
 20
11.76520239447134
 42
0.0
 10
15.84221274660183
 20
10.47500036911603
 42
-0.4142135623730911
 10
15.31721274660185
 20
9.95000036911604
 42
0.0
 10
12.34221274660194
 20
9.95000036911604
 42
0.4142135623731526
 10
11.81721274660185
 20
9.425000369116052
 42
0.0
 10
11.81721274660185
 20
7.67500036911603
 42
0.4142135623731526
 10
12.34221274660194
 20
7.150000369116042
 42
0.0
 10
15.84221274660183
 20
7.150000369116042
 42
0.4142135623731044
 10
18.6422127466019
 20
9.950000369116018
 42
0.0
 10
18.6422127466019
 20
11.76520239447129
 42
0.1989123673796604
 10
17.41206122758535
 20
14.73505087545483
 42
0.0
 97
        0
 92
        7
 72
     1
 73
     1
 93
       16
 10
23.54221274660187
 20
19.05000036911604
 42
-0.4142135623730935
 10
24.94221274660185
 20
20.45000036911603
 42
0.0
 10
26.86721274660181
 20
20.45000036911603
 42
0.4142135623731546
 10
27.3922127466019
 20
20.97500036911603
 42
0.0
 10
27.3922127466019
 20
22.72500036911604
 42
0.4142135623730951
 10
26.86721274660192
 20
23.25000036911604
 42
0.0
 10
24.94221274660174
 20
23.250000369116
 42
0.4142135623730892
 10
20.7422127466018
 20
19.05000036911597
 42
0.0
 10
20.7422127466018
 20
11.35000036911606
 42
0.4142135623730969
 10
24.94221274660185
 20
7.150000369116042
 42
0.0
 10
26.86721274660181
 20
7.150000369116042
 42
0.4142135623731526
 10
27.3922127466019
 20
7.67500036911603
 42
0.0
 10
27.3922127466019
 20
9.425000369116052
 42
0.4142135623730891
 10
26.86721274660192
 20
9.95000036911604
 42
0.0
 10
24.94221274660185
 20
9.95000036911604
 42
-0.4142135623730928
 10
23.54221274660187
 20
11.35000036911602
 42
0.0
 97
        0
 92
        7
 72
     1
 73
     1
 93
        2
 10
24.24221274660181
 20
15.20000036911604
 42
1.0
 10
27.74221274660181
 20
15.20000036911604
 42
1.0
 97
        0
 92
        7
 72
     1
 73
     1
 93
       26
 10
37.31485922877982
 20
19.20504756267946
 42
0.0
 10
38.37649886191764
 20
22.56690640094905
 42
0.5069206636600134
 10
37.87586796272228
 20
23.25000036911604
 42
0.0
 10
36.17697858311305
 20
23.25000036911604
 42
0.3272098845218764
 10
35.67634768391769
 20
22.88309433728301
 42
0.0
 10
33.80807780928591
 20
16.96690640094912
 42
-0.3272098845219541
 10
33.30744691009044
 20
16.60000036911603
 42
0.0
 10
33.16721274660199
 20
16.60000036911603
 42
-0.4142135623731526
 10
32.6422127466019
 20
17.12500036911602
 42
0.0
 10
32.6422127466019
 20
22.72500036911604
 42
0.4142135623730951
 10
32.11721274660192
 20
23.25000036911604
 42
0.0
 10
30.3672127466018
 20
23.25000036911604
 42
0.4142135623730871
 10
29.84221274660183
 20
22.72500036911606
 42
0.0
 10
29.84221274660183
 20
7.67500036911603
 42
0.4142135623730891
 10
30.3672127466018
 20
7.150000369116042
 42
0.0
 10
32.11721274660181
 20
7.150000369116042
 42
0.4142135623731526
 10
32.6422127466019
 20
7.67500036911603
 42
0.0
 10
32.6422127466019
 20
13.27500036911605
 42
-0.4142135623731526
 10
33.16721274660199
 20
13.80000036911604
 42
0.0
 10
33.30744691009056
 20
13.80000036911604
 42
-0.3272098845218915
 10
33.80807780928591
 20
13.43309433728296
 42
0.0
 10
35.67634768391769
 20
7.516906400949114
 42
0.3272098845218902
 10
36.17697858311305
 20
7.150000369116042
 42
0.0
 10
37.87586796272228
 20
7.150000369116042
 42
0.5069206636600335
 10
38.37649886191764
 20
7.83309433728305
 42
0.0
 10
36.05010748344398
 20
15.20000036911618
 42
0.0
 97
        0
 92
        7
 72
     1
 73
     1
 93
        8
 10
43.4922127466018
 20
22.72500036911605
 42
0.4142135623731546
 10
42.96721274660171
 20
23.25000036911604
 42
0.0
 10
41.21721274660195
 20
23.25000036911604
 42
0.4142135623731507
 10
40.69221274660185
 20
22.72500036911606
 42
0.0
 10
40.69221274660185
 20
7.67500036911603
 42
0.4142135623731526
 10
41.21721274660195
 20
7.150000369116042
 42
0.0
 10
42.96721274660171
 20
7.150000369116042
 42
0.4142135623731526
 10
43.4922127466018
 20
7.67500036911603
 42
0.0
 97
        0
 92
        7
 72
     1
 73
     1
 93
       24
 10
48.39221274660189
 20
19.92500036911605
 42
-0.4142135623731546
 10
48.91721274660199
 20
20.45000036911603
 42
0.0
 10
51.8922127466019
 20
20.45000036911603
 42
0.4142135623730911
 10
52.41721274660188
 20
20.97500036911603
 42
0.0
 10
52.41721274660188
 20
22.72500036911604
 42
0.4142135623730952
 10
51.8922127466019
 20
23.25000036911604
 42
0.0
 10
48.39221274660189
 20
23.25000036911604
 42
0.4142135623731048
 10
45.59221274660183
 20
20.45000036911607
 42
0.0
 10
45.59221274660183
 20
18.6347983437608
 42
0.1989123673796613
 10
46.82236426561837
 20
15.66494986277724
 42
0.0
 10
49.73216224026305
 20
12.75515188813258
 42
-0.1989123673796402
 10
50.1422127466019
 20
11.7652023944715
 42
0.0
 10
50.1422127466019
 20
10.47500036911603
 42
-0.4142135623730911
 10
49.61721274660192
 20
9.95000036911604
 42
0.0
 10
46.6422127466019
 20
9.95000036911604
 42
0.4142135623731526
 10
46.11721274660181
 20
9.425000369116052
 42
0.0
 10
46.11721274660181
 20
7.67500036911603
 42
0.4142135623730891
 10
46.64221274660178
 20
7.150000369116042
 42
0.0
 10
50.1422127466019
 20
7.150000369116042
 42
0.4142135623730925
 10
52.94221274660185
 20
9.950000369116018
 42
0.0
 10
52.94221274660185
 20
11.76520239447129
 42
0.1989123673796675
 10
51.71206122758531
 20
14.73505087545494
 42
0.0
 10
48.80226325294074
 20
17.64484885009946
 42
-0.1989123673796652
 10
48.39221274660189
 20
18.63479834376063
 42
0.0
 97
        0
 92
        7
 72
     1
 73
     1
 93
       16
 10
57.84221274660183
 20
22.72500036911603
 42
0.414213562373103
 10
57.31721274660185
 20
23.25000036911604
 42
0.0
 10
55.56721274660185
 20
23.25000036911604
 42
0.4142135623730871
 10
55.04221274660188
 20
22.72500036911606
 42
0.0
 10
55.04221274660188
 20
9.950000369116018
 42
0.4142135623730926
 10
57.84221274660183
 20
7.150000369116042
 42
0.0
 10
61.34221274660183
 20
7.150000369116042
 42
0.4142135623731044
 10
64.1422127466019
 20
9.950000369116018
 42
0.0
 10
64.1422127466019
 20
22.72500036911604
 42
0.4142135623730951
 10
63.61721274660192
 20
23.25000036911604
 42
0.0
 10
61.86721274660181
 20
23.25000036911604
 42
0.4142135623730871
 10
61.34221274660183
 20
22.72500036911606
 42
0.0
 10
61.34221274660183
 20
11.00000036911601
 42
-0.414213562373088
 10
60.29221274660187
 20
9.95000036911604
 42
0.0
 10
58.8922127466019
 20
9.95000036911604
 42
-0.4142135623731197
 10
57.84221274660183
 20
11.00000036911601
 42
0.0
 97
        0
 92
        7
 72
     1
 73
     1
 93
        8
 10
69.04221274660187
 20
22.72500036911606
 42
0.4142135623730871
 10
68.5172127466019
 20
23.25000036911604
 42
0.0
 10
66.7672127466019
 20
23.25000036911604
 42
0.4142135623731507
 10
66.24221274660181
 20
22.72500036911606
 42
0.0
 10
66.24221274660181
 20
7.67500036911603
 42
0.4142135623730891
 10
66.76721274660178
 20
7.150000369116042
 42
0.0
 10
68.5172127466019
 20
7.150000369116042
 42
0.4142135623730891
 10
69.04221274660187
 20
7.67500036911603
 42
0.0
 97
        0
 75
     0
 76
     1
 52
0.0
 41
0.2
 77
     0
 78
     2
 53
45.0
 43
-900.9423037428582
 44
-13.19999963088389
 45
-0.4490128060534576
 46
0.4490128060534577
 79
     0
 53
135.0
 43
-900.9423037428582
 44
-13.19999963088389
 45
-0.4490128060534577
 46
-0.4490128060534576
 79
     0
 47
0.057451373970553
 98
        8
 10
16.07985555484401
 20
15.16717401500159
 10
22.40451559825987
 20
18.84406255156704
 10
25.16436847748036
 20
15.51188201518675
 10
30.91406057345784
 20
16.20129801555754
 10
41.83847261077744
 20
16.66091028309915
 10
46.89820148695026
 20
19.41857668552325
 10
56.55768656422106
 20
18.72915828421105
 10
67.82708021144344
 20
19.18877055175267
  0
LINE
  5
141D
330
1A
100
AcDbEntity
  8
ZUWAKU
100
AcDbLine
 10
24.94221274660185
 20
23.250000369116
 30
0.0
 11
26.86721274660181
 21
23.25000036911604
 31
0.0
  0
LINE
  5
141E
330
1A
100
AcDbEntity
  8
ZUWAKU
100
AcDbLine
 10
26.86721274660181
 20
20.45000036911603
 30
0.0
 11
24.94221274660185
 21
20.45000036911603
 31
0.0
  0
LINE
  5
141F
330
1A
100
AcDbEntity
  8
ZUWAKU
100
AcDbLine
 10
24.94221274660185
 20
9.95000036911604
 30
0.0
 11
26.86721274660181
 21
9.95000036911604
 31
0.0
  0
LINE
  5
1420
330
1A
100
AcDbEntity
  8
ZUWAKU
100
AcDbLine
 10
26.86721274660181
 20
7.150000369116042
 30
0.0
 11
24.94221274660185
 21
7.150000369116042
 31
0.0
  0
CIRCLE
  5
1421
330
1A
100
AcDbEntity
  8
ZUWAKU
100
AcDbCircle
 10
25.9922127466018
 20
15.20000036911604
 30
0.0
 40
1.75
  0
ARC
  5
1422
330
1A
100
AcDbEntity
  8
ZUWAKU
100
AcDbCircle
 10
15.49221274660181
 20
18.63479834376074
 30
0.0
 40
1.399999999999999
100
AcDbArc
 50
180.0000000000016
 51
224.9999999999988
  0
LINE
  5
1423
330
1A
100
AcDbEntity
  8
ZUWAKU
100
AcDbLine
 10
23.54221274660187
 20
19.05000036911604
 30
0.0
 11
23.54221274660187
 21
11.35000036911604
 31
0.0
  0
LINE
  5
1424
330
1A
100
AcDbEntity
  8
ZUWAKU
100
AcDbLine
 10
20.7422127466018
 20
11.35000036911604
 30
0.0
 11
20.7422127466018
 21
19.050000369116
 31
0.0
  0
ARC
  5
1425
330
1A
100
AcDbEntity
  8
ZUWAKU
100
AcDbCircle
 10
15.49221274660181
 20
18.63479834376074
 30
0.0
 40
4.199999999999999
100
AcDbArc
 50
180.0
 51
225.0
  0
ARC
  5
1426
330
1A
100
AcDbEntity
  8
ZUWAKU
100
AcDbCircle
 10
15.84221274660183
 20
9.95000036911604
 30
0.0
 40
2.799999999999999
100
AcDbArc
 50
270.0
 51
0.0
  0
ARC
  5
1427
330
1A
100
AcDbEntity
  8
ZUWAKU
100
AcDbCircle
 10
24.94221274660185
 20
11.35000036911604
 30
0.0
 40
4.199999999999999
100
AcDbArc
 50
180.0
 51
270.0
  0
ARC
  5
1428
330
1A
100
AcDbEntity
  8
ZUWAKU
100
AcDbCircle
 10
14.44221274660185
 20
11.76520239447134
 30
0.0
 40
4.199999999999999
100
AcDbArc
 50
0.0
 51
45.0
  0
LINE
  5
1429
330
1A
100
AcDbEntity
  8
ZUWAKU
100
AcDbLine
 10
17.41206122758535
 20
14.73505087545486
 30
0.0
 11
14.50226325294067
 21
17.64484885009954
 31
0.0
  0
LINE
  5
142A
330
1A
100
AcDbEntity
  8
ZUWAKU
100
AcDbLine
 10
15.84221274660183
 20
10.47500036911604
 30
0.0
 11
15.84221274660183
 21
11.76520239447138
 31
0.0
  0
ARC
  5
142B
330
1A
100
AcDbEntity
  8
ZUWAKU
100
AcDbCircle
 10
15.31721274660185
 20
10.47500036911604
 30
0.0
 40
0.525
100
AcDbArc
 50
270.0
 51
0.0
  0
ARC
  5
142C
330
1A
100
AcDbEntity
  8
ZUWAKU
100
AcDbCircle
 10
14.44221274660185
 20
11.76520239447138
 30
0.0
 40
1.399999999999999
100
AcDbArc
 50
0.0
 51
45.0
  0
LINE
  5
142D
330
1A
100
AcDbEntity
  8
ZUWAKU
100
AcDbLine
 10
11.81721274660185
 20
7.675000369116041
 30
0.0
 11
11.81721274660185
 21
9.425000369116041
 31
0.0
  0
ARC
  5
142E
330
1A
100
AcDbEntity
  8
ZUWAKU
100
AcDbCircle
 10
12.34221274660183
 20
7.675000369116041
 30
0.0
 40
0.525
100
AcDbArc
 50
180.0
 51
270.0
  0
ARC
  5
142F
330
1A
100
AcDbEntity
  8
ZUWAKU
100
AcDbCircle
 10
12.34221274660183
 20
9.425000369116041
 30
0.0
 40
0.525
100
AcDbArc
 50
90.0
 51
180.0
  0
LINE
  5
1430
330
1A
100
AcDbEntity
  8
ZUWAKU
100
AcDbLine
 10
12.34221274660183
 20
7.150000369116042
 30
0.0
 11
15.84221274660183
 21
7.150000369116042
 31
0.0
  0
LINE
  5
1431
330
1A
100
AcDbEntity
  8
ZUWAKU
100
AcDbLine
 10
12.34221274660183
 20
9.95000036911604
 30
0.0
 11
15.31721274660185
 21
9.95000036911604
 31
0.0
  0
LINE
  5
1432
330
1A
100
AcDbEntity
  8
ZUWAKU
100
AcDbLine
 10
12.5223642656183
 20
15.66494986277722
 30
0.0
 11
15.43216224026298
 21
12.75515188813256
 31
0.0
  0
LINE
  5
1433
330
1A
100
AcDbEntity
  8
ZUWAKU
100
AcDbLine
 10
18.6422127466019
 20
9.95000036911604
 30
0.0
 11
18.6422127466019
 21
11.76520239447138
 31
0.0
  0
ARC
  5
1434
330
1A
100
AcDbEntity
  8
ZUWAKU
100
AcDbCircle
 10
24.94221274660185
 20
11.35000036911604
 30
0.0
 40
1.399999999999999
100
AcDbArc
 50
180.0
 51
270.0
  0
ARC
  5
1435
330
1A
100
AcDbEntity
  8
ZUWAKU
100
AcDbCircle
 10
17.59221274660183
 20
22.72500036911603
 30
0.0
 40
0.525
100
AcDbArc
 50
0.0
 51
90.0
  0
ARC
  5
1436
330
1A
100
AcDbEntity
  8
ZUWAKU
100
AcDbCircle
 10
17.59221274660183
 20
20.97500036911604
 30
0.0
 40
0.525
100
AcDbArc
 50
270.0
 51
0.0
  0
LINE
  5
1437
330
1A
100
AcDbEntity
  8
ZUWAKU
100
AcDbLine
 10
14.09221274660183
 20
23.25000036911604
 30
0.0
 11
17.59221274660183
 21
23.25000036911604
 31
0.0
  0
ARC
  5
1438
330
1A
100
AcDbEntity
  8
ZUWAKU
100
AcDbCircle
 10
14.6172127466018
 20
19.92500036911604
 30
0.0
 40
0.525
100
AcDbArc
 50
90.0
 51
180.0
  0
LINE
  5
1439
330
1A
100
AcDbEntity
  8
ZUWAKU
100
AcDbLine
 10
14.09221274660183
 20
19.92500036911604
 30
0.0
 11
14.09221274660183
 21
18.6347983437607
 31
0.0
  0
LINE
  5
143A
330
1A
100
AcDbEntity
  8
ZUWAKU
100
AcDbLine
 10
17.59221274660183
 20
20.45000036911603
 30
0.0
 11
14.6172127466018
 21
20.45000036911603
 31
0.0
  0
LINE
  5
143B
330
1A
100
AcDbEntity
  8
ZUWAKU
100
AcDbLine
 10
11.29221274660187
 20
20.45000036911603
 30
0.0
 11
11.29221274660187
 21
18.6347983437607
 31
0.0
  0
ARC
  5
143C
330
1A
100
AcDbEntity
  8
ZUWAKU
100
AcDbCircle
 10
14.09221274660183
 20
20.45000036911603
 30
0.0
 40
2.799999999999999
100
AcDbArc
 50
90.0
 51
180.0
  0
LINE
  5
143D
330
1A
100
AcDbEntity
  8
ZUWAKU
100
AcDbLine
 10
18.11721274660181
 20
22.72500036911603
 30
0.0
 11
18.11721274660181
 21
20.97500036911604
 31
0.0
  0
ARC
  5
143E
330
1A
100
AcDbEntity
  8
ZUWAKU
100
AcDbCircle
 10
24.94221274660185
 20
19.05000036911604
 30
0.0
 40
1.399999999999999
100
AcDbArc
 50
90.0
 51
180.0
  0
ARC
  5
143F
330
1A
100
AcDbEntity
  8
ZUWAKU
100
AcDbCircle
 10
24.94221274660185
 20
19.050000369116
 30
0.0
 40
4.199999999999999
100
AcDbArc
 50
90.0
 51
180.0
  0
LINE
  5
1440
330
1A
100
AcDbEntity
  8
ZUWAKU
100
AcDbLine
 10
79.32663013980891
 20
30.00000036911603
 30
0.0
 11
79.32663013980914
 21
0.8000003691161055
 31
0.0
  0
LINE
  5
1441
330
1A
100
AcDbEntity
  8
ZUWAKU
100
AcDbLine
 10
79.52663013980895
 20
30.00000036911603
 30
0.0
 11
79.52663013980918
 21
0.8000003691161055
 31
0.0
  0
LINE
  5
1442
330
1A
100
AcDbEntity
  8
ZUWAKU
100
AcDbLine
 10
79.12663013980909
 20
30.00000036911603
 30
0.0
 11
79.12663013980909
 21
0.8000003691161055
 31
0.0
  0
LINE
  5
1443
330
1A
100
AcDbEntity
  8
ZUWAKU
100
AcDbLine
 10
64.1422127466019
 20
9.95000036911604
 30
0.0
 11
64.1422127466019
 21
22.72500036911603
 31
0.0
  0
LINE
  5
1444
330
1A
100
AcDbEntity
  8
ZUWAKU
100
AcDbLine
 10
61.34221274660183
 20
22.72500036911603
 30
0.0
 11
61.34221274660183
 21
11.00000036911603
 31
0.0
  0
LINE
  5
1445
330
1A
100
AcDbEntity
  8
ZUWAKU
100
AcDbLine
 10
69.04221274660187
 20
7.675000369116041
 30
0.0
 11
69.04221274660187
 21
22.72500036911603
 31
0.0
  0
LINE
  5
1446
330
1A
100
AcDbEntity
  8
ZUWAKU
100
AcDbLine
 10
66.24221274660181
 20
22.72500036911603
 30
0.0
 11
66.24221274660181
 21
7.675000369116041
 31
0.0
  0
ARC
  5
1447
330
1A
100
AcDbEntity
  8
ZUWAKU
100
AcDbCircle
 10
49.79221274660187
 20
18.63479834376074
 30
0.0
 40
1.399999999999999
100
AcDbArc
 50
180.0000000000016
 51
224.9999999999988
  0
ARC
  5
1448
330
1A
100
AcDbEntity
  8
ZUWAKU
100
AcDbCircle
 10
49.79221274660187
 20
18.63479834376074
 30
0.0
 40
4.199999999999999
100
AcDbArc
 50
180.0
 51
225.0
  0
LINE
  5
1449
330
1A
100
AcDbEntity
  8
ZUWAKU
100
AcDbLine
 10
37.31485922877982
 20
19.20504756267946
 30
0.0
 11
36.05010748344398
 21
15.20000036911606
 31
0.0
  0
LINE
  5
144A
330
1A
100
AcDbEntity
  8
ZUWAKU
100
AcDbLine
 10
40.69221274660185
 20
22.72500036911603
 30
0.0
 11
40.69221274660185
 21
7.675000369116041
 31
0.0
  0
LINE
  5
144B
330
1A
100
AcDbEntity
  8
ZUWAKU
100
AcDbLine
 10
43.4922127466018
 20
7.675000369116041
 30
0.0
 11
43.4922127466018
 21
22.72500036911603
 31
0.0
  0
LINE
  5
144C
330
1A
100
AcDbEntity
  8
ZUWAKU
100
AcDbLine
 10
55.04221274660188
 20
22.72500036911603
 30
0.0
 11
55.04221274660188
 21
9.95000036911604
 31
0.0
  0
LINE
  5
144D
330
1A
100
AcDbEntity
  8
ZUWAKU
100
AcDbLine
 10
57.84221274660183
 20
11.00000036911603
 30
0.0
 11
57.84221274660183
 21
22.72500036911603
 31
0.0
  0
LINE
  5
144E
330
1A
100
AcDbEntity
  8
ZUWAKU
100
AcDbLine
 10
32.6422127466019
 20
17.12500036911604
 30
0.0
 11
32.6422127466019
 21
22.72500036911603
 31
0.0
  0
LINE
  5
144F
330
1A
100
AcDbEntity
  8
ZUWAKU
100
AcDbLine
 10
29.84221274660183
 20
22.72500036911603
 30
0.0
 11
29.84221274660183
 21
7.675000369116041
 31
0.0
  0
LINE
  5
1450
330
1A
100
AcDbEntity
  8
ZUWAKU
100
AcDbLine
 10
35.67634768391769
 20
22.88309433728301
 30
0.0
 11
33.80807780928591
 21
16.96690640094907
 31
0.0
  0
LINE
  5
1451
330
1A
100
AcDbEntity
  8
ZUWAKU
100
AcDbLine
 10
60.29221274660187
 20
9.95000036911604
 30
0.0
 11
58.8922127466019
 21
9.95000036911604
 31
0.0
  0
LINE
  5
1452
330
1A
100
AcDbEntity
  8
ZUWAKU
100
AcDbLine
 10
57.84221274660183
 20
7.150000369116042
 30
0.0
 11
61.34221274660183
 21
7.150000369116042
 31
0.0
  0
LINE
  5
1453
330
1A
100
AcDbEntity
  8
ZUWAKU
100
AcDbLine
 10
41.21721274660183
 20
7.150000369116042
 30
0.0
 11
42.96721274660183
 21
7.150000369116042
 31
0.0
  0
LINE
  5
1454
330
1A
100
AcDbEntity
  8
ZUWAKU
100
AcDbLine
 10
35.67634768391769
 20
7.516906400949068
 30
0.0
 11
33.80807780928591
 21
13.433094337283
 31
0.0
  0
ARC
  5
1455
330
1A
100
AcDbEntity
  8
ZUWAKU
100
AcDbCircle
 10
33.30744691009056
 20
17.12500036911604
 30
0.0
 40
0.525
100
AcDbArc
 50
270.0
 51
342.4744316262769
  0
LINE
  5
1456
330
1A
100
AcDbEntity
  8
ZUWAKU
100
AcDbLine
 10
33.30744691009056
 20
16.60000036911603
 30
0.0
 11
33.16721274660187
 21
16.60000036911603
 31
0.0
  0
LINE
  5
1457
330
1A
100
AcDbEntity
  8
ZUWAKU
100
AcDbLine
 10
33.16721274660187
 20
13.80000036911604
 30
0.0
 11
33.30744691009056
 21
13.80000036911604
 31
0.0
  0
ARC
  5
1458
330
1A
100
AcDbEntity
  8
ZUWAKU
100
AcDbCircle
 10
33.16721274660187
 20
17.12500036911604
 30
0.0
 40
0.525
100
AcDbArc
 50
180.0
 51
270.0
  0
LINE
  5
1459
330
1A
100
AcDbEntity
  8
ZUWAKU
100
AcDbLine
 10
30.3672127466018
 20
7.150000369116042
 30
0.0
 11
32.11721274660181
 21
7.150000369116042
 31
0.0
  0
ARC
  5
145A
330
1A
100
AcDbEntity
  8
ZUWAKU
100
AcDbCircle
 10
32.11721274660181
 20
7.675000369116041
 30
0.0
 40
0.525
100
AcDbArc
 50
270.0
 51
0.0
  0
LINE
  5
145B
330
1A
100
AcDbEntity
  8
ZUWAKU
100
AcDbLine
 10
32.6422127466019
 20
7.675000369116041
 30
0.0
 11
32.6422127466019
 21
13.27500036911604
 31
0.0
  0
LINE
  5
145C
330
1A
100
AcDbEntity
  8
ZUWAKU
100
AcDbLine
 10
27.3922127466019
 20
9.425000369116041
 30
0.0
 11
27.3922127466019
 21
7.675000369116041
 31
0.0
  0
ARC
  5
145D
330
1A
100
AcDbEntity
  8
ZUWAKU
100
AcDbCircle
 10
26.86721274660181
 20
7.675000369116041
 30
0.0
 40
0.525
100
AcDbArc
 50
270.0
 51
0.0
  0
ARC
  5
145E
330
1A
100
AcDbEntity
  8
ZUWAKU
100
AcDbCircle
 10
26.86721274660181
 20
9.425000369116041
 30
0.0
 40
0.525
100
AcDbArc
 50
0.0
 51
90.0
  0
ARC
  5
145F
330
1A
100
AcDbEntity
  8
ZUWAKU
100
AcDbCircle
 10
30.3672127466018
 20
7.675000369116041
 30
0.0
 40
0.525
100
AcDbArc
 50
180.0
 51
270.0
  0
ARC
  5
1460
330
1A
100
AcDbEntity
  8
ZUWAKU
100
AcDbCircle
 10
33.30744691009056
 20
13.27500036911604
 30
0.0
 40
0.525
100
AcDbArc
 50
17.52556837372303
 51
90.0
  0
ARC
  5
1461
330
1A
100
AcDbEntity
  8
ZUWAKU
100
AcDbCircle
 10
33.16721274660187
 20
13.27500036911604
 30
0.0
 40
0.525
100
AcDbArc
 50
90.0
 51
180.0
  0
ARC
  5
1462
330
1A
100
AcDbEntity
  8
ZUWAKU
100
AcDbCircle
 10
41.21721274660183
 20
7.675000369116041
 30
0.0
 40
0.525
100
AcDbArc
 50
180.0
 51
270.0
  0
LINE
  5
1463
330
1A
100
AcDbEntity
  8
ZUWAKU
100
AcDbLine
 10
36.17697858311316
 20
7.150000369116042
 30
0.0
 11
37.87586796272217
 21
7.150000369116042
 31
0.0
  0
ARC
  5
1464
330
1A
100
AcDbEntity
  8
ZUWAKU
100
AcDbCircle
 10
37.87586796272217
 20
7.675000369116041
 30
0.0
 40
0.525
100
AcDbArc
 50
270.0
 51
17.52556837372303
  0
LINE
  5
1465
330
1A
100
AcDbEntity
  8
ZUWAKU
100
AcDbLine
 10
38.37649886191764
 20
7.833094337283014
 30
0.0
 11
36.05010748344398
 21
15.20000036911606
 31
0.0
  0
ARC
  5
1466
330
1A
100
AcDbEntity
  8
ZUWAKU
100
AcDbCircle
 10
36.17697858311316
 20
7.675000369116041
 30
0.0
 40
0.525
100
AcDbArc
 50
197.525568373723
 51
270.0
  0
ARC
  5
1467
330
1A
100
AcDbEntity
  8
ZUWAKU
100
AcDbCircle
 10
57.84221274660183
 20
9.95000036911604
 30
0.0
 40
2.799999999999999
100
AcDbArc
 50
180.0
 51
270.0
  0
ARC
  5
1468
330
1A
100
AcDbEntity
  8
ZUWAKU
100
AcDbCircle
 10
50.1422127466019
 20
9.95000036911604
 30
0.0
 40
2.799999999999999
100
AcDbArc
 50
270.0
 51
0.0
  0
LINE
  5
1469
330
1A
100
AcDbEntity
  8
ZUWAKU
100
AcDbLine
 10
51.71206122758542
 20
14.73505087545486
 30
0.0
 11
48.80226325294064
 21
17.64484885009954
 31
0.0
  0
LINE
  5
146A
330
1A
100
AcDbEntity
  8
ZUWAKU
100
AcDbLine
 10
50.1422127466019
 20
10.47500036911604
 30
0.0
 11
50.1422127466019
 21
11.76520239447138
 31
0.0
  0
ARC
  5
146B
330
1A
100
AcDbEntity
  8
ZUWAKU
100
AcDbCircle
 10
48.74221274660181
 20
11.76520239447138
 30
0.0
 40
1.399999999999999
100
AcDbArc
 50
0.0
 51
45.0
  0
ARC
  5
146C
330
1A
100
AcDbEntity
  8
ZUWAKU
100
AcDbCircle
 10
49.61721274660181
 20
10.47500036911604
 30
0.0
 40
0.525
100
AcDbArc
 50
270.0
 51
0.0
  0
LINE
  5
146D
330
1A
100
AcDbEntity
  8
ZUWAKU
100
AcDbLine
 10
46.11721274660181
 20
7.675000369116041
 30
0.0
 11
46.11721274660181
 21
9.425000369116041
 31
0.0
  0
ARC
  5
146E
330
1A
100
AcDbEntity
  8
ZUWAKU
100
AcDbCircle
 10
46.6422127466019
 20
7.675000369116041
 30
0.0
 40
0.525
100
AcDbArc
 50
180.0
 51
270.0
  0
ARC
  5
146F
330
1A
100
AcDbEntity
  8
ZUWAKU
100
AcDbCircle
 10
42.96721274660183
 20
7.675000369116041
 30
0.0
 40
0.525
100
AcDbArc
 50
270.0
 51
0.0
  0
ARC
  5
1470
330
1A
100
AcDbEntity
  8
ZUWAKU
100
AcDbCircle
 10
46.6422127466019
 20
9.425000369116041
 30
0.0
 40
0.525
100
AcDbArc
 50
90.0
 51
180.0
  0
LINE
  5
1471
330
1A
100
AcDbEntity
  8
ZUWAKU
100
AcDbLine
 10
46.6422127466019
 20
9.95000036911604
 30
0.0
 11
49.61721274660181
 21
9.95000036911604
 31
0.0
  0
LINE
  5
1472
330
1A
100
AcDbEntity
  8
ZUWAKU
100
AcDbLine
 10
46.6422127466019
 20
7.150000369116042
 30
0.0
 11
50.1422127466019
 21
7.150000369116042
 31
0.0
  0
LINE
  5
1473
330
1A
100
AcDbEntity
  8
ZUWAKU
100
AcDbLine
 10
46.82236426561837
 20
15.66494986277722
 30
0.0
 11
49.73216224026305
 21
12.75515188813256
 31
0.0
  0
LINE
  5
1474
330
1A
100
AcDbEntity
  8
ZUWAKU
100
AcDbLine
 10
52.94221274660185
 20
9.95000036911604
 30
0.0
 11
52.94221274660185
 21
11.76520239447138
 31
0.0
  0
ARC
  5
1475
330
1A
100
AcDbEntity
  8
ZUWAKU
100
AcDbCircle
 10
48.74221274660181
 20
11.76520239447134
 30
0.0
 40
4.199999999999999
100
AcDbArc
 50
0.0
 51
45.0
  0
ARC
  5
1476
330
1A
100
AcDbEntity
  8
ZUWAKU
100
AcDbCircle
 10
58.8922127466019
 20
11.00000036911603
 30
0.0
 40
1.049999999999999
100
AcDbArc
 50
180.0
 51
270.0
  0
ARC
  5
1477
330
1A
100
AcDbEntity
  8
ZUWAKU
100
AcDbCircle
 10
61.34221274660183
 20
9.95000036911604
 30
0.0
 40
2.799999999999999
100
AcDbArc
 50
270.0
 51
0.0
  0
LINE
  5
1478
330
1A
100
AcDbEntity
  8
ZUWAKU
100
AcDbLine
 10
66.7672127466019
 20
7.150000369116042
 30
0.0
 11
68.5172127466019
 21
7.150000369116042
 31
0.0
  0
ARC
  5
1479
330
1A
100
AcDbEntity
  8
ZUWAKU
100
AcDbCircle
 10
66.7672127466019
 20
7.675000369116041
 30
0.0
 40
0.525
100
AcDbArc
 50
180.0
 51
270.0
  0
ARC
  5
147A
330
1A
100
AcDbEntity
  8
ZUWAKU
100
AcDbCircle
 10
60.29221274660187
 20
11.00000036911603
 30
0.0
 40
1.049999999999999
100
AcDbArc
 50
270.0
 51
0.0
  0
ARC
  5
147B
330
1A
100
AcDbEntity
  8
ZUWAKU
100
AcDbCircle
 10
68.5172127466019
 20
7.675000369116041
 30
0.0
 40
0.525
100
AcDbArc
 50
270.0
 51
0.0
  0
LINE
  5
147C
330
1A
100
AcDbEntity
  8
ZUWAKU
100
AcDbLine
 10
42.96721274660183
 20
23.25000036911604
 30
0.0
 11
41.21721274660183
 21
23.25000036911604
 31
0.0
  0
ARC
  5
147D
330
1A
100
AcDbEntity
  8
ZUWAKU
100
AcDbCircle
 10
32.11721274660181
 20
22.72500036911603
 30
0.0
 40
0.525
100
AcDbArc
 50
0.0
 51
90.0
  0
LINE
  5
147E
330
1A
100
AcDbEntity
  8
ZUWAKU
100
AcDbLine
 10
32.11721274660181
 20
23.25000036911604
 30
0.0
 11
30.3672127466018
 21
23.25000036911604
 31
0.0
  0
ARC
  5
147F
330
1A
100
AcDbEntity
  8
ZUWAKU
100
AcDbCircle
 10
26.86721274660181
 20
22.72500036911603
 30
0.0
 40
0.525
100
AcDbArc
 50
0.0
 51
90.0
  0
ARC
  5
1480
330
1A
100
AcDbEntity
  8
ZUWAKU
100
AcDbCircle
 10
30.3672127466018
 20
22.72500036911603
 30
0.0
 40
0.525
100
AcDbArc
 50
90.0
 51
180.0
  0
ARC
  5
1481
330
1A
100
AcDbEntity
  8
ZUWAKU
100
AcDbCircle
 10
26.86721274660181
 20
20.97500036911604
 30
0.0
 40
0.525
100
AcDbArc
 50
270.0
 51
0.0
  0
LINE
  5
1482
330
1A
100
AcDbEntity
  8
ZUWAKU
100
AcDbLine
 10
27.3922127466019
 20
22.72500036911603
 30
0.0
 11
27.3922127466019
 21
20.97500036911604
 31
0.0
  0
ARC
  5
1483
330
1A
100
AcDbEntity
  8
ZUWAKU
100
AcDbCircle
 10
41.21721274660183
 20
22.72500036911603
 30
0.0
 40
0.525
100
AcDbArc
 50
90.0
 51
180.0
  0
LINE
  5
1484
330
1A
100
AcDbEntity
  8
ZUWAKU
100
AcDbLine
 10
36.17697858311316
 20
23.25000036911604
 30
0.0
 11
37.87586796272217
 21
23.25000036911604
 31
0.0
  0
ARC
  5
1485
330
1A
100
AcDbEntity
  8
ZUWAKU
100
AcDbCircle
 10
37.87586796272217
 20
22.72500036911603
 30
0.0
 40
0.525
100
AcDbArc
 50
342.4744316262769
 51
90.0
  0
LINE
  5
1486
330
1A
100
AcDbEntity
  8
ZUWAKU
100
AcDbLine
 10
38.37649886191764
 20
22.56690640094907
 30
0.0
 11
37.31485922877982
 21
19.20504756267946
 31
0.0
  0
ARC
  5
1487
330
1A
100
AcDbEntity
  8
ZUWAKU
100
AcDbCircle
 10
36.17697858311316
 20
22.72500036911603
 30
0.0
 40
0.525
100
AcDbArc
 50
90.0
 51
162.4744316262769
  0
LINE
  5
1488
330
1A
100
AcDbEntity
  8
ZUWAKU
100
AcDbLine
 10
48.39221274660189
 20
23.25000036911604
 30
0.0
 11
51.8922127466019
 21
23.25000036911604
 31
0.0
  0
LINE
  5
1489
330
1A
100
AcDbEntity
  8
ZUWAKU
100
AcDbLine
 10
51.8922127466019
 20
20.45000036911603
 30
0.0
 11
48.91721274660188
 21
20.45000036911603
 31
0.0
  0
ARC
  5
148A
330
1A
100
AcDbEntity
  8
ZUWAKU
100
AcDbCircle
 10
48.91721274660188
 20
19.92500036911604
 30
0.0
 40
0.525
100
AcDbArc
 50
90.0
 51
180.0
  0
LINE
  5
148B
330
1A
100
AcDbEntity
  8
ZUWAKU
100
AcDbLine
 10
48.39221274660189
 20
19.92500036911604
 30
0.0
 11
48.39221274660189
 21
18.6347983437607
 31
0.0
  0
ARC
  5
148C
330
1A
100
AcDbEntity
  8
ZUWAKU
100
AcDbCircle
 10
42.96721274660183
 20
22.72500036911603
 30
0.0
 40
0.525
100
AcDbArc
 50
0.0
 51
90.0
  0
LINE
  5
148D
330
1A
100
AcDbEntity
  8
ZUWAKU
100
AcDbLine
 10
45.59221274660183
 20
20.45000036911603
 30
0.0
 11
45.59221274660183
 21
18.6347983437607
 31
0.0
  0
ARC
  5
148E
330
1A
100
AcDbEntity
  8
ZUWAKU
100
AcDbCircle
 10
48.39221274660189
 20
20.45000036911603
 30
0.0
 40
2.799999999999999
100
AcDbArc
 50
90.0
 51
180.0
  0
ARC
  5
148F
330
1A
100
AcDbEntity
  8
ZUWAKU
100
AcDbCircle
 10
57.31721274660185
 20
22.72500036911603
 30
0.0
 40
0.525
100
AcDbArc
 50
0.0
 51
90.0
  0
ARC
  5
1490
330
1A
100
AcDbEntity
  8
ZUWAKU
100
AcDbCircle
 10
55.56721274660185
 20
22.72500036911603
 30
0.0
 40
0.525
100
AcDbArc
 50
90.0
 51
180.0
  0
LINE
  5
1491
330
1A
100
AcDbEntity
  8
ZUWAKU
100
AcDbLine
 10
57.31721274660185
 20
23.25000036911604
 30
0.0
 11
55.56721274660185
 21
23.25000036911604
 31
0.0
  0
ARC
  5
1492
330
1A
100
AcDbEntity
  8
ZUWAKU
100
AcDbCircle
 10
51.8922127466019
 20
22.72500036911603
 30
0.0
 40
0.525
100
AcDbArc
 50
0.0
 51
90.0
  0
ARC
  5
1493
330
1A
100
AcDbEntity
  8
ZUWAKU
100
AcDbCircle
 10
51.8922127466019
 20
20.97500036911604
 30
0.0
 40
0.525
100
AcDbArc
 50
270.0
 51
0.0
  0
LINE
  5
1494
330
1A
100
AcDbEntity
  8
ZUWAKU
100
AcDbLine
 10
52.41721274660188
 20
22.72500036911603
 30
0.0
 11
52.41721274660188
 21
20.97500036911604
 31
0.0
  0
LINE
  5
1495
330
1A
100
AcDbEntity
  8
ZUWAKU
100
AcDbLine
 10
68.5172127466019
 20
23.25000036911604
 30
0.0
 11
66.7672127466019
 21
23.25000036911604
 31
0.0
  0
ARC
  5
1496
330
1A
100
AcDbEntity
  8
ZUWAKU
100
AcDbCircle
 10
66.7672127466019
 20
22.72500036911603
 30
0.0
 40
0.525
100
AcDbArc
 50
90.0
 51
180.0
  0
ARC
  5
1497
330
1A
100
AcDbEntity
  8
ZUWAKU
100
AcDbCircle
 10
63.61721274660181
 20
22.72500036911603
 30
0.0
 40
0.525
100
AcDbArc
 50
0.0
 51
90.0
  0
LINE
  5
1498
330
1A
100
AcDbEntity
  8
ZUWAKU
100
AcDbLine
 10
63.61721274660181
 20
23.25000036911604
 30
0.0
 11
61.86721274660181
 21
23.25000036911604
 31
0.0
  0
ARC
  5
1499
330
1A
100
AcDbEntity
  8
ZUWAKU
100
AcDbCircle
 10
61.86721274660181
 20
22.72500036911603
 30
0.0
 40
0.525
100
AcDbArc
 50
90.0
 51
180.0
  0
ARC
  5
149A
330
1A
100
AcDbEntity
  8
ZUWAKU
100
AcDbCircle
 10
68.5172127466019
 20
22.72500036911603
 30
0.0
 40
0.525
100
AcDbArc
 50
0.0
 51
90.0
  0
TEXT
  5
149B
330
1A
100
AcDbEntity
  8
MOJI
100
AcDbText
 10
239.8272032726718
 20
3.204921426523458
 30
0.0
 40
5.599999999999999
  1
ＲＶ１０５－Ｌ１２０
 41
0.9
  7
ｽﾀｲﾙ1
100
AcDbText
  0
TEXT
  5
149C
330
1A
100
AcDbEntity
  8
MOJI
100
AcDbText
 10
239.8272032726718
 20
18.00492142652342
 30
0.0
 40
5.599999999999999
  1
亜鉛メッキ金具打込角足（吊）
 41
0.9
  7
ｽﾀｲﾙ1
100
AcDbText
  0
LINE
  5
149D
330
1A
100
AcDbEntity
  8
ZUWAKU
100
AcDbLine
 10
208.2466018818886
 20
30.00000036911603
 30
0.0
 11
208.2466018818886
 21
0.8000003691161055
 31
0.0
  0
LINE
  5
149E
330
1A
100
AcDbEntity
  8
ZUWAKU
100
AcDbLine
 10
208.6466018818884
 20
30.00000036911603
 30
0.0
 11
208.6466018818887
 21
0.8000003691161055
 31
0.0
  0
LINE
  5
149F
330
1A
100
AcDbEntity
  8
ZUWAKU
100
AcDbLine
 10
208.4466018818884
 20
30.00000036911603
 30
0.0
 11
208.4466018818886
 21
0.8000003691161055
 31
0.0
  0
TEXT
  5
14A0
330
1A
100
AcDbEntity
  8
ZUWAKU
100
AcDbText
 10
209.7240469040982
 20
9.655356907501655
 30
0.0
 40
4.0
  1
サイズ
 41
0.9
  7
ｽﾀｲﾙ1
100
AcDbText
  0
TEXT
  5
14A1
330
1A
100
AcDbEntity
  8
ZUWAKU
100
AcDbText
 10
209.724046904098
 20
24.05535690750161
 30
0.0
 40
4.0
  1
品名
 41
0.9
  7
ｽﾀｲﾙ1
100
AcDbText
  0
LINE
  5
14A2
330
1A
100
AcDbEntity
  8
ZUWAKU
100
AcDbLine
 10
648.8172031020249
 20
15.20000036911606
 30
0.0
 11
697.249011140362
 21
15.20000036911607
 31
0.0
  0
LINE
  5
14A3
330
1A
100
AcDbEntity
  8
ZUWAKU
100
AcDbLine
 10
648.8172031020251
 20
15.40000036911607
 30
0.0
 11
697.249011140362
 21
15.40000036911607
 31
0.0
  0
LINE
  5
14A4
330
1A
100
AcDbEntity
  8
ZUWAKU
100
AcDbLine
 10
648.8172031020249
 20
15.60000036911607
 30
0.0
 11
697.249011140362
 21
15.60000036911607
 31
0.0
  0
TEXT
  5
14A5
330
1A
100
AcDbEntity
  8
ZUWAKU
100
AcDbText
 10
658.2039382791231
 20
18.00492142652342
 30
0.0
 40
5.599999999999999
  1
　　．　　．　　
 41
0.9
  7
ｽﾀｲﾙ1
100
AcDbText
  0
LINE
  5
14A6
330
1A
100
AcDbEntity
  8
ZUWAKU
100
AcDbLine
 10
505.1991800899616
 20
15.20000036911607
 30
0.0
 11
552.5269563579331
 21
15.20000036911607
 31
0.0
  0
LINE
  5
14A7
330
1A
100
AcDbEntity
  8
ZUWAKU
100
AcDbLine
 10
505.1991800899616
 20
15.40000036911607
 30
0.0
 11
552.5269563579331
 21
15.40000036911607
 31
0.0
  0
LINE
  5
14A8
330
1A
100
AcDbEntity
  8
ZUWAKU
100
AcDbLine
 10
505.1991800899616
 20
15.60000036911607
 30
0.0
 11
552.5269563579331
 21
15.60000036911607
 31
0.0
  0
TEXT
  5
14A9
330
1A
100
AcDbEntity
  8
MOJI
100
AcDbText
 10
464.5946265950597
 20
11.94261809077602
 30
0.0
 40
5.599999999999999
  1
ＬＪ５５Ｇ
 41
0.9
  7
ｽﾀｲﾙ1
100
AcDbText
  0
LINE
  5
14AA
330
1A
100
AcDbEntity
  8
ZUWAKU
100
AcDbLine
 10
447.6243645628119
 20
30.00000036911603
 30
0.0
 11
447.6243645628121
 21
0.8000003691161055
 31
0.0
  0
LINE
  5
14AB
330
1A
100
AcDbEntity
  8
ZUWAKU
100
AcDbLine
 10
447.8243645628119
 20
30.00000036911603
 30
0.0
 11
447.8243645628122
 21
0.8000003691161055
 31
0.0
  0
LINE
  5
14AC
330
1A
100
AcDbEntity
  8
ZUWAKU
100
AcDbLine
 10
447.4243645628121
 20
30.00000036911603
 30
0.0
 11
447.4243645628121
 21
0.8000003691161055
 31
0.0
  0
TEXT
  5
14AD
330
1A
100
AcDbEntity
  8
MOJI
100
AcDbText
 10
528.0409085641336
 20
18.00492142652342
 30
0.0
 40
5.599999999999999
  1
Ａ３
 41
0.9
  7
ｽﾀｲﾙ1
100
AcDbText
  0
LINE
  5
14AE
330
1A
100
AcDbEntity
  8
ZUWAKU
100
AcDbLine
 10
504.9991800899615
 20
30.00000036911603
 30
0.0
 11
504.9991800899618
 21
0.8000003691161055
 31
0.0
  0
LINE
  5
14AF
330
1A
100
AcDbEntity
  8
ZUWAKU
100
AcDbLine
 10
505.1991800899616
 20
30.00000036911603
 30
0.0
 11
505.1991800899618
 21
0.8000003691161055
 31
0.0
  0
LINE
  5
14B0
330
1A
100
AcDbEntity
  8
ZUWAKU
100
AcDbLine
 10
504.7991800899617
 20
30.00000036911603
 30
0.0
 11
504.7991800899617
 21
0.8000003691161055
 31
0.0
  0
TEXT
  5
14B1
330
1A
100
AcDbEntity
  8
ZUWAKU
100
AcDbText
 10
506.6766251121714
 20
9.655356907501655
 30
0.0
 40
4.0
  1
縮尺
 41
0.9
  7
ｽﾀｲﾙ1
100
AcDbText
  0
TEXT
  5
14B2
330
1A
100
AcDbEntity
  8
MOJI
100
AcDbText
 10
528.0409085641336
 20
3.204921426523458
 30
0.0
 40
5.599999999999999
  1
１/２
 41
0.9
  7
ｽﾀｲﾙ1
100
AcDbText
  0
TEXT
  5
14B3
330
1A
100
AcDbEntity
  8
ZUWAKU
100
AcDbText
 10
449.3018095850215
 20
24.05535690750161
 30
0.0
 40
4.0
  1
品番
 41
0.9
  7
ｽﾀｲﾙ1
100
AcDbText
  0
TEXT
  5
14B4
330
1A
100
AcDbEntity
  8
ZUWAKU
100
AcDbText
 10
506.6766251121712
 20
24.05535690750161
 30
0.0
 40
4.0
  1
用紙
 41
0.9
  7
ｽﾀｲﾙ1
100
AcDbText
  0
LINE
  5
14B5
330
1A
100
AcDbEntity
  8
ZUWAKU
100
AcDbLine
 10
648.6172031020251
 20
30.00000036911603
 30
0.0
 11
648.6172031020252
 21
0.8000003691161055
 31
0.0
  0
LINE
  5
14B6
330
1A
100
AcDbEntity
  8
ZUWAKU
100
AcDbLine
 10
648.8172031020251
 20
30.00000036911603
 30
0.0
 11
648.8172031020253
 21
0.8000003691161055
 31
0.0
  0
LINE
  5
14B7
330
1A
100
AcDbEntity
  8
ZUWAKU
100
AcDbLine
 10
648.4172031020253
 20
30.00000036911603
 30
0.0
 11
648.4172031020253
 21
0.8000003691161055
 31
0.0
  0
LINE
  5
14B8
330
1A
100
AcDbEntity
  8
ZUWAKU
100
AcDbLine
 10
552.726956357933
 20
30.00000036911603
 30
0.0
 11
552.7269563579332
 21
0.8000003691161055
 31
0.0
  0
LINE
  5
14B9
330
1A
100
AcDbEntity
  8
ZUWAKU
100
AcDbLine
 10
552.926956357933
 20
30.00000036911603
 30
0.0
 11
552.9269563579332
 21
0.8000003691161055
 31
0.0
  0
LINE
  5
14BA
330
1A
100
AcDbEntity
  8
ZUWAKU
100
AcDbLine
 10
552.5269563579331
 20
30.00000036911603
 30
0.0
 11
552.5269563579331
 21
0.8000003691161055
 31
0.0
  0
TEXT
  5
14BB
330
1A
100
AcDbEntity
  8
ZUWAKU
100
AcDbText
 10
650.2946481242347
 20
24.05535690750161
 30
0.0
 40
4.0
  1
DATE
 41
0.9
  7
ｽﾀｲﾙ1
100
AcDbText
  0
LINE
  5
14BC
330
1A
100
AcDbEntity
  8
ZUWAKU
100
AcDbLine
 10
697.249011140362
 20
30.00000036911603
 30
0.0
 11
697.249011140362
 21
0.8000003691161055
 31
0.0
  0
LINE
  5
14BD
330
1A
100
AcDbEntity
  8
ZUWAKU
100
AcDbLine
 10
697.4490111403619
 20
30.00000036911603
 30
0.0
 11
697.4490111403619
 21
0.8000003691161055
 31
0.0
  0
LINE
  5
14BE
330
1A
100
AcDbEntity
  8
ZUWAKU
100
AcDbLine
 10
697.6490111403618
 20
30.00000036911603
 30
0.0
 11
697.649011140362
 21
0.8000003691161055
 31
0.0
  0
LINE
  5
14BF
330
1A
100
AcDbEntity
  8
ZUWAKU
100
AcDbLine
 10
697.8490111403618
 20
30.00000036911603
 30
0.0
 11
697.8490111403621
 21
0.8000003691161055
 31
0.0
  0
TEXT
  5
14C0
330
1A
100
AcDbEntity
  8
ZUWAKU
100
AcDbText
 10
708.5280847840644
 20
17.55383970480284
 30
0.0
 40
6.0
  1
積水化学工業株式会社
 41
0.9
  7
ｽﾀｲﾙ1
100
AcDbText
  0
TEXT
  5
14C1
330
1A
100
AcDbEntity
  8
ZUWAKU
100
AcDbText
 10
708.5280847840644
 20
6.648840682970103
 30
0.0
 40
6.0
  1
建材事業部
 41
0.9
  7
ｽﾀｲﾙ1
100
AcDbText
  0
VIEWPORT
  5
22
330
17
100
AcDbEntity
 67
     1
  8
0
100
AcDbViewport
 10
313.6808219178082
 20
148.5
 30
0.0
 40
627.3616438356165
 41
297.0
 68
     2
 69
     1
1001
ACAD
1000
MVIEW
1002
{
1070
    16
1010
0.0
1020
0.0
1030
0.0
1010
0.0
1020
0.0
1030
1.0
1040
0.0
1040
297.0
1040
313.6808219178082
1040
148.5
1040
50.0
1040
0.0
1040
0.0
1070
     0
1070
   100
1070
     1
1070
     0
1070
     0
1070
     0
1070
     0
1070
     0
1040
0.0
1040
0.0
1040
0.0
1040
1.0
1040
1.0
1040
10.0
1040
10.0
1070
     0
1002
{
1002
}
1002
}
  0
VIEWPORT
  5
64
330
17
100
AcDbEntity
 67
     1
  8
VIEWPORT
100
AcDbViewport
 10
210.0
 20
148.5
 30
0.0
 40
420.0
 41
297.0
 68
     1
 69
     2
1001
ACAD
1000
MVIEW
1002
{
1070
    16
1010
0.0
1020
0.0
1030
0.0
1010
0.0
1020
0.0
1030
1.0
1040
0.0
1040
605.8799999999998
1040
420.0
1040
297.0
1040
50.0
1040
0.0
1040
0.0
1070
     0
1070
   100
1070
     1
1070
     0
1070
     0
1070
     0
1070
     0
1070
     0
1040
0.0
1040
0.0
1040
0.0
1040
10.0
1040
10.0
1040
0.0
1040
0.0
1070
     0
1002
{
1002
}
1002
}
  0
ENDSEC
  0
SECTION
  2
OBJECTS
  0
DICTIONARY
  5
C
330
0
100
AcDbDictionary
  3
ACAD_GROUP
350
D
  3
ACAD_LAYOUT
350
14C
  3
ACAD_MLINESTYLE
350
E
  3
ACAD_PLOTSETTINGS
350
14D
  3
ACAD_PLOTSTYLENAME
350
14A
  3
ACADDIM
350
4A5
  3
ACDBHEADERROUNDTRIPXREC
350
1516
  0
DICTIONARY
  5
506
330
1A
100
AcDbDictionary
280
     1
  3
ACAD_LAYOUTSELFREF
360
1538
  0
DICTIONARY
  5
504
330
17
100
AcDbDictionary
280
     1
  3
ACAD_LAYOUTSELFREF
360
1537
  0
DICTIONARY
  5
D
102
{ACAD_REACTORS
330
C
102
}
330
C
100
AcDbDictionary
  0
DICTIONARY
  5
14C
102
{ACAD_REACTORS
330
C
102
}
330
C
100
AcDbDictionary
  0
DICTIONARY
  5
E
102
{ACAD_REACTORS
330
C
102
}
330
C
100
AcDbDictionary
  3
STANDARD
350
13
  0
DICTIONARY
  5
14D
102
{ACAD_REACTORS
330
C
102
}
330
C
100
AcDbDictionary
  0
ACDBDICTIONARYWDFLT
  5
14A
102
{ACAD_REACTORS
330
C
102
}
330
C
100
AcDbDictionary
281
     1
  3
Normal
350
14B
100
AcDbDictionaryWithDefault
340
14B
1001
ACAD
1000
TREAT_AS_HARD
1070
     0
1000
TREAT_AS_HARD
1070
     0
1000
TREAT_AS_HARD
1070
     0
1000
TREAT_AS_HARD
1070
     0
1000
TREAT_AS_HARD
1070
     0
1000
TREAT_AS_HARD
1070
     0
1000
TREAT_AS_HARD
1070
     0
1000
TREAT_AS_HARD
1070
     0
  0
XRECORD
  5
4A5
102
{ACAD_REACTORS
330
C
102
}
330
C
100
AcDbXrecord
 90
   990106
  3

 60
     0
 61
     0
 62
     1
 63
     3
 64
     0
 65
     0
 66
     0
 67
     3
 68
     1
 69
     0
 70
     0
 71
     0
 72
     0
 40
0.0
170
     0
340
0
  0
DICTIONARY
  5
1516
102
{ACAD_REACTORS
330
C
102
}
330
C
100
AcDbDictionary
  3
TSTACKALIGN
350
1517
  3
TSTACKSIZE
350
1518
  3
HYPERLINKBASE
350
1519
  3
STYLESHEET
350
151A
  3
LAYOUTDICT
350
151B
  3
PLOTSETDICT
350
151C
  3
PLOTSTYLNAMDICT
350
151D
  3
LWETCUNION
350
151E
  3
INSUNITS
350
151F
  3
CEPSNTYPE
350
1520
  3
FINGERPRINTGUID
350
1521
  3
VERSIONGUID
350
1522
  3
PSVPSCALE
350
1523
  3
DIMSTYLEDATA
350
1524
  3
PUCSORTHOREF
350
1525
  3
PUCSORTHOVIEW
350
1526
  3
PUCSBASE
350
1527
  3
PUCSORGTOP
350
1528
  3
PUCSORGBOTTOM
350
1529
  3
PUCSORGLEFT
350
152A
  3
PUCSORGRIGHT
350
152B
  3
PUCSORGFRONT
350
152C
  3
PUCSORGBACK
350
152D
  3
UCSORTHOREF
350
152E
  3
UCSORTHOVIEW
350
152F
  3
UCSBASE
350
1530
  3
UCSORGTOP
350
1531
  3
UCSORGBOTTOM
350
1532
  3
UCSORGLEFT
350
1533
  3
UCSORGRIGHT
350
1534
  3
UCSORGFRONT
350
1535
  3
UCSORGBACK
350
1536
  0
XRECORD
  5
1538
102
{ACAD_REACTORS
330
506
102
}
330
506
100
AcDbXrecord
340
1A
  0
XRECORD
  5
1537
102
{ACAD_REACTORS
330
504
102
}
330
504
100
AcDbXrecord
340
17
  0
MLINESTYLE
  5
13
102
{ACAD_REACTORS
330
E
102
}
330
E
100
AcDbMlineStyle
  2
STANDARD
 70
     0
  3

 62
     0
 51
90.0
 52
90.0
 71
     2
 49
0.5
 62
   256
  6
BYLAYER
 49
-0.5
 62
   256
  6
BYLAYER
  0
ACDBPLACEHOLDER
  5
14B
102
{ACAD_REACTORS
330
14A
102
}
330
14A
100
AcDbPlaceHolder
280
     0
  0
XRECORD
  5
1517
102
{ACAD_REACTORS
330
1516
102
}
330
1516
100
AcDbXrecord
 90
        1
  0
XRECORD
  5
1518
102
{ACAD_REACTORS
330
1516
102
}
330
1516
100
AcDbXrecord
 90
       70
  0
XRECORD
  5
1519
102
{ACAD_REACTORS
330
1516
102
}
330
1516
100
AcDbXrecord
  1

  0
XRECORD
  5
151A
102
{ACAD_REACTORS
330
1516
102
}
330
1516
100
AcDbXrecord
  1
systemprinter.ctb
  0
XRECORD
  5
151B
102
{ACAD_REACTORS
330
1516
102
}
330
1516
100
AcDbXrecord
340
14C
  0
XRECORD
  5
151C
102
{ACAD_REACTORS
330
1516
102
}
330
1516
100
AcDbXrecord
340
14D
  0
XRECORD
  5
151D
102
{ACAD_REACTORS
330
1516
102
}
330
1516
100
AcDbXrecord
340
14A
  0
XRECORD
  5
151E
102
{ACAD_REACTORS
330
1516
102
}
330
1516
100
AcDbXrecord
 90
    10781
  0
XRECORD
  5
151F
102
{ACAD_REACTORS
330
1516
102
}
330
1516
100
AcDbXrecord
 90
        0
  0
XRECORD
  5
1520
102
{ACAD_REACTORS
330
1516
102
}
330
1516
100
AcDbXrecord
 90
        0
  0
XRECORD
  5
1521
102
{ACAD_REACTORS
330
1516
102
}
330
1516
100
AcDbXrecord
  1
{75772F4A-CE5A-11D3-932C-444553540000}
  0
XRECORD
  5
1522
102
{ACAD_REACTORS
330
1516
102
}
330
1516
100
AcDbXrecord
  1
{01CEF4FC-125C-4325-A7AB-A5E640F20855}
  0
XRECORD
  5
1523
102
{ACAD_REACTORS
330
1516
102
}
330
1516
100
AcDbXrecord
 40
0.0
  0
XRECORD
  5
1524
102
{ACAD_REACTORS
330
1516
102
}
330
1516
100
AcDbXrecord
1000
DSTYLE
1002
{
1070
   341
340
6D
1070
   343
340
6D
1070
   344
340
6D
1002
}
  0
XRECORD
  5
1525
102
{ACAD_REACTORS
330
1516
102
}
330
1516
100
AcDbXrecord
340
0
  0
XRECORD
  5
1526
102
{ACAD_REACTORS
330
1516
102
}
330
1516
100
AcDbXrecord
 70
     0
  0
XRECORD
  5
1527
102
{ACAD_REACTORS
330
1516
102
}
330
1516
100
AcDbXrecord
340
0
  0
XRECORD
  5
1528
102
{ACAD_REACTORS
330
1516
102
}
330
1516
100
AcDbXrecord
 10
0.0
 20
0.0
 30
0.0
  0
XRECORD
  5
1529
102
{ACAD_REACTORS
330
1516
102
}
330
1516
100
AcDbXrecord
 10
0.0
 20
0.0
 30
0.0
  0
XRECORD
  5
152A
102
{ACAD_REACTORS
330
1516
102
}
330
1516
100
AcDbXrecord
 10
0.0
 20
0.0
 30
0.0
  0
XRECORD
  5
152B
102
{ACAD_REACTORS
330
1516
102
}
330
1516
100
AcDbXrecord
 10
0.0
 20
0.0
 30
0.0
  0
XRECORD
  5
152C
102
{ACAD_REACTORS
330
1516
102
}
330
1516
100
AcDbXrecord
 10
0.0
 20
0.0
 30
0.0
  0
XRECORD
  5
152D
102
{ACAD_REACTORS
330
1516
102
}
330
1516
100
AcDbXrecord
 10
0.0
 20
0.0
 30
0.0
  0
XRECORD
  5
152E
102
{ACAD_REACTORS
330
1516
102
}
330
1516
100
AcDbXrecord
340
0
  0
XRECORD
  5
152F
102
{ACAD_REACTORS
330
1516
102
}
330
1516
100
AcDbXrecord
 70
     0
  0
XRECORD
  5
1530
102
{ACAD_REACTORS
330
1516
102
}
330
1516
100
AcDbXrecord
340
0
  0
XRECORD
  5
1531
102
{ACAD_REACTORS
330
1516
102
}
330
1516
100
AcDbXrecord
 10
0.0
 20
0.0
 30
0.0
  0
XRECORD
  5
1532
102
{ACAD_REACTORS
330
1516
102
}
330
1516
100
AcDbXrecord
 10
0.0
 20
0.0
 30
0.0
  0
XRECORD
  5
1533
102
{ACAD_REACTORS
330
1516
102
}
330
1516
100
AcDbXrecord
 10
0.0
 20
0.0
 30
0.0
  0
XRECORD
  5
1534
102
{ACAD_REACTORS
330
1516
102
}
330
1516
100
AcDbXrecord
 10
0.0
 20
0.0
 30
0.0
  0
XRECORD
  5
1535
102
{ACAD_REACTORS
330
1516
102
}
330
1516
100
AcDbXrecord
 10
0.0
 20
0.0
 30
0.0
  0
XRECORD
  5
1536
102
{ACAD_REACTORS
330
1516
102
}
330
1516
100
AcDbXrecord
 10
0.0
 20
0.0
 30
0.0
  0
ENDSEC
  0
EOF
