  0
SECTION
  2
HEADER
  9
$ACADVER
  1
AC1014
  9
$ACADMAINTVER
 70
     9
  9
$DWGCODEPAGE
  3
ANSI_932
  9
$INSBASE
 10
0.0
 20
0.0
 30
0.0
  9
$EXTMIN
 10
-0.0256328098773793
 20
-0.0181260584133725
 30
-0.0015258207003583
  9
$EXTMAX
 10
797.6000995626677
 20
551.6452344880035
 30
0.0000000349246037
  9
$LIMMIN
 10
0.0
 20
0.0
  9
$LIMMAX
 10
840.0
 20
594.0
  9
$ORTHOMODE
 70
     1
  9
$REGENMODE
 70
     1
  9
$FILLMODE
 70
     1
  9
$QTEXTMODE
 70
     0
  9
$MIRRTEXT
 70
     1
  9
$DRAGMODE
 70
     2
  9
$LTSCALE
 40
10.0
  9
$OSMODE
 70
    35
  9
$ATTMODE
 70
     1
  9
$TEXTSIZE
 40
5.0
  9
$TRACEWID
 40
1.0
  9
$TEXTSTYLE
  7
STANDARD
  9
$CLAYER
  8
SUNPOU
  9
$CELTYPE
  6
BYLAYER
  9
$CECOLOR
 62
   256
  9
$CELTSCALE
 40
1.0
  9
$DELOBJ
 70
     1
  9
$DISPSILH
 70
     0
  9
$DIMSCALE
 40
1.0
  9
$DIMASZ
 40
3.0
  9
$DIMEXO
 40
6.0
  9
$DIMDLI
 40
14.0
  9
$DIMRND
 40
0.0
  9
$DIMDLE
 40
0.0
  9
$DIMEXE
 40
3.0
  9
$DIMTP
 40
0.0
  9
$DIMTM
 40
0.0
  9
$DIMTXT
 40
6.0
  9
$DIMCEN
 40
10.0
  9
$DIMTSZ
 40
0.0
  9
$DIMTOL
 70
     0
  9
$DIMLIM
 70
     0
  9
$DIMTIH
 70
     0
  9
$DIMTOH
 70
     0
  9
$DIMSE1
 70
     0
  9
$DIMSE2
 70
     0
  9
$DIMTAD
 70
     3
  9
$DIMZIN
 70
     0
  9
$DIMBLK
  1

  9
$DIMASO
 70
     1
  9
$DIMSHO
 70
     1
  9
$DIMPOST
  1

  9
$DIMAPOST
  1

  9
$DIMALT
 70
     0
  9
$DIMALTD
 70
     2
  9
$DIMALTF
 40
25.4
  9
$DIMLFAC
 40
1.0
  9
$DIMTOFL
 70
     1
  9
$DIMTVP
 40
0.0
  9
$DIMTIX
 70
     0
  9
$DIMSOXD
 70
     0
  9
$DIMSAH
 70
     1
  9
$DIMBLK1
  1
OPEN
  9
$DIMBLK2
  1
OPEN
  9
$DIMSTYLE
  2
STANDARD
  9
$DIMCLRD
 70
   256
  9
$DIMCLRE
 70
   256
  9
$DIMCLRT
 70
   256
  9
$DIMTFAC
 40
1.0
  9
$DIMGAP
 40
2.0
  9
$DIMJUST
 70
     0
  9
$DIMSD1
 70
     0
  9
$DIMSD2
 70
     0
  9
$DIMTOLJ
 70
     1
  9
$DIMTZIN
 70
     0
  9
$DIMALTZ
 70
     0
  9
$DIMALTTZ
 70
     0
  9
$DIMFIT
 70
     3
  9
$DIMUPT
 70
     0
  9
$DIMUNIT
 70
     2
  9
$DIMDEC
 70
     0
  9
$DIMTDEC
 70
     0
  9
$DIMALTU
 70
     2
  9
$DIMALTTD
 70
     2
  9
$DIMTXSTY
  7
STANDARD
  9
$DIMAUNIT
 70
     0
  9
$LUNITS
 70
     2
  9
$LUPREC
 70
     4
  9
$SKETCHINC
 40
1.0
  9
$FILLETRAD
 40
1.0
  9
$AUNITS
 70
     0
  9
$AUPREC
 70
     0
  9
$MENU
  1
.
  9
$ELEVATION
 40
0.0
  9
$PELEVATION
 40
0.0
  9
$THICKNESS
 40
0.0
  9
$LIMCHECK
 70
     0
  9
$BLIPMODE
 70
     0
  9
$CHAMFERA
 40
20.0
  9
$CHAMFERB
 40
20.0
  9
$CHAMFERC
 40
40.0
  9
$CHAMFERD
 40
0.0
  9
$SKPOLY
 70
     0
  9
$TDCREATE
 40
2451591.485258449
  9
$TDUPDATE
 40
2453805.466470440
  9
$TDINDWG
 40
0.1176982292
  9
$TDUSRTIMER
 40
0.1176982292
  9
$USRTIMER
 70
     1
  9
$ANGBASE
 50
0.0
  9
$ANGDIR
 70
     0
  9
$PDMODE
 70
     0
  9
$PDSIZE
 40
0.0
  9
$PLINEWID
 40
0.0
  9
$COORDS
 70
     1
  9
$SPLFRAME
 70
     0
  9
$SPLINETYPE
 70
     6
  9
$SPLINESEGS
 70
     8
  9
$ATTDIA
 70
     0
  9
$ATTREQ
 70
     1
  9
$HANDLING
 70
 10241
  9
$HANDSEED
  5
1B1C
  9
$SURFTAB1
 70
     6
  9
$SURFTAB2
 70
     6
  9
$SURFTYPE
 70
     6
  9
$SURFU
 70
     6
  9
$SURFV
 70
     6
  9
$UCSNAME
  2

  9
$UCSORG
 10
0.0
 20
0.0
 30
0.0
  9
$UCSXDIR
 10
1.0
 20
0.0
 30
0.0
  9
$UCSYDIR
 10
0.0
 20
1.0
 30
0.0
  9
$PUCSNAME
  2

  9
$PUCSORG
 10
0.0
 20
0.0
 30
0.0
  9
$PUCSXDIR
 10
1.0
 20
0.0
 30
0.0
  9
$PUCSYDIR
 10
0.0
 20
1.0
 30
0.0
  9
$USERI1
 70
     0
  9
$USERI2
 70
     0
  9
$USERI3
 70
     0
  9
$USERI4
 70
     0
  9
$USERI5
 70
     0
  9
$USERR1
 40
0.0
  9
$USERR2
 40
0.0
  9
$USERR3
 40
0.0
  9
$USERR4
 40
0.0
  9
$USERR5
 40
0.0
  9
$WORLDVIEW
 70
     1
  9
$SHADEDGE
 70
     3
  9
$SHADEDIF
 70
    70
  9
$TILEMODE
 70
     1
  9
$MAXACTVP
 70
    16
  9
$PINSBASE
 10
0.0
 20
0.0
 30
0.0
  9
$PLIMCHECK
 70
     0
  9
$PEXTMIN
 10
0.0
 20
0.0
 30
0.0
  9
$PEXTMAX
 10
420.0
 20
297.0
 30
0.0
  9
$PLIMMIN
 10
0.0
 20
0.0
  9
$PLIMMAX
 10
420.0
 20
297.0
  9
$UNITMODE
 70
     0
  9
$VISRETAIN
 70
     0
  9
$PLINEGEN
 70
     0
  9
$PSLTSCALE
 70
     1
  9
$TREEDEPTH
 70
  3020
  9
$PICKSTYLE
 70
     1
  9
$CMLSTYLE
  2
STANDARD
  9
$CMLJUST
 70
     0
  9
$CMLSCALE
 40
1.0
  9
$PROXYGRAPHICS
 70
     1
  9
$MEASUREMENT
 70
     1
  0
ENDSEC
  0
SECTION
  2
CLASSES
  0
CLASS
  1
ACDBDICTIONARYWDFLT
  2
AcDbDictionaryWithDefault
  3
AutoCAD 2000
 90
        0
280
     0
281
     0
  0
CLASS
  1
ACDBPLACEHOLDER
  2
AcDbPlaceHolder
  3
AutoCAD 2000
 90
        0
280
     0
281
     0
  0
CLASS
  1
LAYOUT
  2
AcDbLayout
  3
AutoCAD 2000
 90
        0
280
     0
281
     0
  0
CLASS
  1
LONG_TRANSACTION
  2
AcDbLongTransaction
  3
AutoCAD 2000
 90
        0
280
     0
281
     0
  0
CLASS
  1
LWPOLYLINE
  2
AcDbPolyline
  3
AutoCAD 2000
 90
        0
280
     0
281
     1
  0
CLASS
  1
HATCH
  2
AcDbHatch
  3
AutoCAD 2000
 90
        0
280
     0
281
     1
  0
CLASS
  1
XRECORD
  2
AcDbXrecord
  3
AutoCAD 2000
 90
        0
280
     0
281
     0
  0
CLASS
  1
LONG_TRANSACTION
  2
AcDbLongTransaction
  3
AutoCAD 2000
 90
        0
280
     0
281
     0
  0
CLASS
  1
LWPOLYLINE
  2
AcDbPolyline
  3
AutoCAD 2000
 90
        0
280
     0
281
     1
  0
CLASS
  1
HATCH
  2
AcDbHatch
  3
AutoCAD 2000
 90
        0
280
     0
281
     1
  0
CLASS
  1
XRECORD
  2
AcDbXrecord
  3
AutoCAD 2000
 90
        0
280
     0
281
     0
  0
CLASS
  1
LONG_TRANSACTION
  2
AcDbLongTransaction
  3
AutoCAD 2000
 90
        0
280
     0
281
     0
  0
CLASS
  1
LWPOLYLINE
  2
AcDbPolyline
  3
AutoCAD 2000
 90
        0
280
     0
281
     1
  0
CLASS
  1
HATCH
  2
AcDbHatch
  3
AutoCAD 2000
 90
        0
280
     0
281
     1
  0
CLASS
  1
XRECORD
  2
AcDbXrecord
  3
AutoCAD 2000
 90
        0
280
     0
281
     0
  0
CLASS
  1
LONG_TRANSACTION
  2
AcDbLongTransaction
  3
AutoCAD 2000
 90
        0
280
     0
281
     0
  0
CLASS
  1
LWPOLYLINE
  2
AcDbPolyline
  3
AutoCAD 2000
 90
        0
280
     0
281
     1
  0
CLASS
  1
HATCH
  2
AcDbHatch
  3
AutoCAD 2000
 90
        0
280
     0
281
     1
  0
CLASS
  1
XRECORD
  2
AcDbXrecord
  3
AutoCAD 2000
 90
        0
280
     0
281
     0
  0
CLASS
  1
LONG_TRANSACTION
  2
AcDbLongTransaction
  3
AutoCAD 2000
 90
        0
280
     0
281
     0
  0
CLASS
  1
LWPOLYLINE
  2
AcDbPolyline
  3
AutoCAD 2000
 90
        0
280
     0
281
     1
  0
CLASS
  1
HATCH
  2
AcDbHatch
  3
AutoCAD 2000
 90
        0
280
     0
281
     1
  0
CLASS
  1
XRECORD
  2
AcDbXrecord
  3
AutoCAD 2000
 90
        0
280
     0
281
     0
  0
CLASS
  1
LONG_TRANSACTION
  2
AcDbLongTransaction
  3
AutoCAD 2000
 90
        0
280
     0
281
     0
  0
CLASS
  1
LWPOLYLINE
  2
AcDbPolyline
  3
AutoCAD 2000
 90
        0
280
     0
281
     1
  0
CLASS
  1
HATCH
  2
AcDbHatch
  3
AutoCAD 2000
 90
        0
280
     0
281
     1
  0
CLASS
  1
XRECORD
  2
AcDbXrecord
  3
AutoCAD 2000
 90
        0
280
     0
281
     0
  0
CLASS
  1
LONG_TRANSACTION
  2
AcDbLongTransaction
  3
AutoCAD 2000
 90
        0
280
     0
281
     0
  0
CLASS
  1
LWPOLYLINE
  2
AcDbPolyline
  3
AutoCAD 2000
 90
        0
280
     0
281
     1
  0
CLASS
  1
HATCH
  2
AcDbHatch
  3
AutoCAD 2000
 90
        0
280
     0
281
     1
  0
CLASS
  1
XRECORD
  2
AcDbXrecord
  3
AutoCAD 2000
 90
        0
280
     0
281
     0
  0
CLASS
  1
LONG_TRANSACTION
  2
AcDbLongTransaction
  3
AutoCAD 2000
 90
        0
280
     0
281
     0
  0
CLASS
  1
LWPOLYLINE
  2
AcDbPolyline
  3
AutoCAD 2000
 90
        0
280
     0
281
     1
  0
CLASS
  1
HATCH
  2
AcDbHatch
  3
AutoCAD 2000
 90
        0
280
     0
281
     1
  0
CLASS
  1
XRECORD
  2
AcDbXrecord
  3
AutoCAD 2000
 90
        0
280
     0
281
     0
  0
CLASS
  1
LONG_TRANSACTION
  2
AcDbLongTransaction
  3
AutoCAD 2000
 90
        0
280
     0
281
     0
  0
CLASS
  1
LWPOLYLINE
  2
AcDbPolyline
  3
AutoCAD 2000
 90
        0
280
     0
281
     1
  0
CLASS
  1
HATCH
  2
AcDbHatch
  3
AutoCAD 2000
 90
        0
280
     0
281
     1
  0
CLASS
  1
XRECORD
  2
AcDbXrecord
  3
AutoCAD 2000
 90
        0
280
     0
281
     0
  0
ENDSEC
  0
SECTION
  2
TABLES
  0
TABLE
  2
VPORT
  5
8
330
0
100
AcDbSymbolTable
 70
     2
  0
VPORT
  5
1AF8
330
8
100
AcDbSymbolTableRecord
100
AcDbViewportTableRecord
  2
*ACTIVE
 70
     0
 10
0.0
 20
0.0
 11
1.0
 21
1.0
 12
427.3218145257089
 22
292.9463746431341
 13
0.0
 23
0.0
 14
5.0
 24
5.0
 15
0.0
 25
0.0
 16
0.0
 26
0.0
 36
1.0
 17
0.0
 27
0.0
 37
0.0
 40
653.7812706235497
 41
1.795454545454545
 42
50.0
 43
0.0
 44
0.0
 50
0.0
 51
0.0
 71
     0
 72
   100
 73
     1
 74
     0
 75
     0
 76
     0
 77
     0
 78
     0
  0
ENDTAB
  0
TABLE
  2
LTYPE
  5
5
330
0
100
AcDbSymbolTable
 70
     3
  0
LTYPE
  5
14
330
5
100
AcDbSymbolTableRecord
100
AcDbLinetypeTableRecord
  2
BYBLOCK
 70
     0
  3

 72
    65
 73
     0
 40
0.0
  0
LTYPE
  5
15
330
5
100
AcDbSymbolTableRecord
100
AcDbLinetypeTableRecord
  2
BYLAYER
 70
     0
  3

 72
    65
 73
     0
 40
0.0
  0
LTYPE
  5
16
330
5
100
AcDbSymbolTableRecord
100
AcDbLinetypeTableRecord
  2
CONTINUOUS
 70
     0
  3
Solid line
 72
    65
 73
     0
 40
0.0
  0
LTYPE
  5
115
330
5
100
AcDbSymbolTableRecord
100
AcDbLinetypeTableRecord
  2
PHANTOM
 70
     0
  3
______  __  __  ______  __  __  ______  __  __ 
 72
    65
 73
     6
 40
2.5
 49
1.25
 74
     0
 49
-0.25
 74
     0
 49
0.25
 74
     0
 49
-0.25
 74
     0
 49
0.25
 74
     0
 49
-0.25
 74
     0
  0
LTYPE
  5
135
330
5
100
AcDbSymbolTableRecord
100
AcDbLinetypeTableRecord
  2
CENTER
 70
     0
  3
____ _ ____ _ ____ _ ____ _ ____ _ ____ _ ____ 
 72
    65
 73
     4
 40
2.0
 49
1.25
 74
     0
 49
-0.25
 74
     0
 49
0.25
 74
     0
 49
-0.25
 74
     0
  0
ENDTAB
  0
TABLE
  2
LAYER
  5
2
330
0
100
AcDbSymbolTable
 70
     9
  0
LAYER
  5
F
330
2
100
AcDbSymbolTableRecord
100
AcDbLayerTableRecord
  2
0
 70
     0
 62
     7
  6
CONTINUOUS
  0
LAYER
  5
62
330
2
100
AcDbSymbolTableRecord
100
AcDbLayerTableRecord
  2
VIEWPORT
 70
     0
 62
     7
  6
CONTINUOUS
  0
LAYER
  5
65
330
2
100
AcDbSymbolTableRecord
100
AcDbLayerTableRecord
  2
ZUWAKU
 70
     0
 62
     7
  6
CONTINUOUS
  0
LAYER
  5
17C
330
2
100
AcDbSymbolTableRecord
100
AcDbLayerTableRecord
  2
DEFPOINTS
 70
     0
 62
     7
  6
CONTINUOUS
  0
LAYER
  5
17E
330
2
100
AcDbSymbolTableRecord
100
AcDbLayerTableRecord
  2
SUNPOU
 70
     0
 62
     4
  6
CONTINUOUS
  0
LAYER
  5
17F
330
2
100
AcDbSymbolTableRecord
100
AcDbLayerTableRecord
  2
CENTER_L
 70
     0
 62
     1
  6
CENTER
  0
LAYER
  5
11E5
330
2
100
AcDbSymbolTableRecord
100
AcDbLayerTableRecord
  2
SEIHIN
 70
     0
 62
     3
  6
CONTINUOUS
  0
LAYER
  5
11E8
330
2
100
AcDbSymbolTableRecord
100
AcDbLayerTableRecord
  2
NOKITOI
 70
     0
 62
     8
  6
PHANTOM
  0
LAYER
  5
1937
330
2
100
AcDbSymbolTableRecord
100
AcDbLayerTableRecord
  2
MOJI
 70
     0
 62
     2
  6
CONTINUOUS
  0
ENDTAB
  0
TABLE
  2
STYLE
  5
3
330
0
100
AcDbSymbolTable
 70
     2
  0
STYLE
  5
10
330
3
100
AcDbSymbolTableRecord
100
AcDbTextStyleTableRecord
  2
STANDARD
 70
     0
 40
0.0
 41
1.0
 50
0.0
 71
     0
 42
5.0
  3
TXT
  4
c:\PROGRAM FILES\AUTOCAD LT\ms\bigfont.shx
  0
STYLE
  5
1938
330
3
100
AcDbSymbolTableRecord
100
AcDbTextStyleTableRecord
  2
ｽﾀｲﾙ1
 70
     0
 40
0.0
 41
1.0
 50
0.0
 71
     0
 42
2.5
  3
MS PGothic.ttf
  4

1001
ACAD
1000
MS PGothic
1071
    32818
  0
ENDTAB
  0
TABLE
  2
VIEW
  5
6
330
0
100
AcDbSymbolTable
 70
     0
  0
ENDTAB
  0
TABLE
  2
UCS
  5
7
330
0
100
AcDbSymbolTable
 70
     0
  0
ENDTAB
  0
TABLE
  2
APPID
  5
9
330
0
100
AcDbSymbolTable
 70
     1
  0
APPID
  5
11
330
9
100
AcDbSymbolTableRecord
100
AcDbRegAppTableRecord
  2
ACAD
 70
     0
  0
ENDTAB
  0
TABLE
  2
DIMSTYLE
  5
A
330
0
100
AcDbSymbolTable
 70
     1
  0
DIMSTYLE
105
1D
102
{ACAD_REACTORS
330
BD9
330
BE6
330
F9C
330
FEE
330
FFD
330
100C
330
1019
330
1026
102
}
330
A
100
AcDbSymbolTableRecord
100
AcDbDimStyleTableRecord
  2
STANDARD
 70
     0
  3

  4

  5

  6

  7

 40
1.0
 41
0.18
 42
0.0625
 43
0.38
 44
0.18
 45
0.0
 46
0.0
 47
0.0
 48
0.0
140
0.18
141
0.09
142
0.0
143
25.4
144
1.0
145
0.0
146
1.0
147
0.09
 71
     0
 72
     0
 73
     1
 74
     1
 75
     0
 76
     0
 77
     0
 78
     0
170
     0
171
     2
172
     0
173
     0
174
     0
175
     0
176
     0
177
     0
178
     0
270
     2
271
     4
272
     4
273
     2
274
     2
340
10
275
     0
280
     0
281
     0
282
     0
283
     1
284
     0
285
     0
286
     0
287
     3
288
     0
  0
ENDTAB
  0
TABLE
  2
BLOCK_RECORD
  5
1
330
0
100
AcDbSymbolTable
 70
     9
  0
BLOCK_RECORD
  5
1A
102
{ACAD_XDICTIONARY
360
506
102
}
330
1
100
AcDbSymbolTableRecord
100
AcDbBlockTableRecord
  2
*MODEL_SPACE
  0
BLOCK_RECORD
  5
17
102
{ACAD_XDICTIONARY
360
504
102
}
330
1
100
AcDbSymbolTableRecord
100
AcDbBlockTableRecord
  2
*PAPER_SPACE
  0
BLOCK_RECORD
  5
6D
330
1
100
AcDbSymbolTableRecord
100
AcDbBlockTableRecord
  2
_OPEN
  0
BLOCK_RECORD
  5
BDA
330
1
100
AcDbSymbolTableRecord
100
AcDbBlockTableRecord
  2
*D1
  0
BLOCK_RECORD
  5
BE7
330
1
100
AcDbSymbolTableRecord
100
AcDbBlockTableRecord
  2
*D2
  0
BLOCK_RECORD
  5
F9D
330
1
100
AcDbSymbolTableRecord
100
AcDbBlockTableRecord
  2
*D3
  0
BLOCK_RECORD
  5
FEF
330
1
100
AcDbSymbolTableRecord
100
AcDbBlockTableRecord
  2
*D4
  0
BLOCK_RECORD
  5
FFE
330
1
100
AcDbSymbolTableRecord
100
AcDbBlockTableRecord
  2
*D5
  0
BLOCK_RECORD
  5
100D
330
1
100
AcDbSymbolTableRecord
100
AcDbBlockTableRecord
  2
*D6
  0
BLOCK_RECORD
  5
101A
330
1
100
AcDbSymbolTableRecord
100
AcDbBlockTableRecord
  2
*D7
  0
BLOCK_RECORD
  5
1027
330
1
100
AcDbSymbolTableRecord
100
AcDbBlockTableRecord
  2
*D8
  0
ENDTAB
  0
ENDSEC
  0
SECTION
  2
BLOCKS
  0
BLOCK
  5
1B
330
1A
100
AcDbEntity
  8
0
100
AcDbBlockBegin
  2
*MODEL_SPACE
 70
     0
 10
0.0
 20
0.0
 30
0.0
  3
*MODEL_SPACE
  1

  0
ENDBLK
  5
1C
330
1A
100
AcDbEntity
  8
0
100
AcDbBlockEnd
  0
BLOCK
  5
18
330
17
100
AcDbEntity
 67
     1
  8
0
100
AcDbBlockBegin
  2
*PAPER_SPACE
 70
     0
 10
0.0
 20
0.0
 30
0.0
  3
*PAPER_SPACE
  1

  0
ENDBLK
  5
19
330
17
100
AcDbEntity
 67
     1
  8
0
100
AcDbBlockEnd
  0
BLOCK
  5
6E
330
6D
100
AcDbEntity
  8
0
100
AcDbBlockBegin
  2
_OPEN
 70
     0
 10
0.0
 20
0.0
 30
0.0
  3
_OPEN
  1

  0
LINE
  5
6F
330
6D
100
AcDbEntity
  8
0
  6
BYBLOCK
 62
     0
100
AcDbLine
 10
-1.0
 20
0.1666666666666666
 30
0.0
 11
0.0
 21
0.0
 31
0.0
  0
LINE
  5
70
330
6D
100
AcDbEntity
  8
0
  6
BYBLOCK
 62
     0
100
AcDbLine
 10
0.0
 20
0.0
 30
0.0
 11
-1.0
 21
-0.1666666666666666
 31
0.0
  0
LINE
  5
71
330
6D
100
AcDbEntity
  8
0
  6
BYBLOCK
 62
     0
100
AcDbLine
 10
0.0
 20
0.0
 30
0.0
 11
-1.0
 21
0.0
 31
0.0
  0
ENDBLK
  5
72
330
6D
100
AcDbEntity
  8
0
100
AcDbBlockEnd
  0
BLOCK
  5
BE4
330
BDA
100
AcDbEntity
  8
0
100
AcDbBlockBegin
  2
*D1
 70
     1
 10
0.0
 20
0.0
 30
0.0
  3
*D1
  1

  0
LINE
  5
1ACA
330
BDA
100
AcDbEntity
  8
SUNPOU
100
AcDbLine
 10
365.2506233470871
 20
324.0673511235005
 30
0.0
 11
365.2506233470871
 21
356.4016034603871
 31
0.0
  0
LINE
  5
1ACB
330
BDA
100
AcDbEntity
  8
SUNPOU
100
AcDbLine
 10
238.470623356273
 20
311.0673511235005
 30
0.0
 11
238.470623356273
 21
356.4016034603871
 31
0.0
  0
LINE
  5
1ACC
330
BDA
100
AcDbEntity
  8
SUNPOU
100
AcDbLine
 10
362.2506233470871
 20
353.4016034603871
 30
0.0
 11
241.4706233562729
 21
353.4016034603871
 31
0.0
  0
INSERT
  5
1ACD
330
BDA
100
AcDbEntity
  8
SUNPOU
100
AcDbBlockReference
  2
_OPEN
 10
365.2506233470871
 20
353.4016034603871
 30
0.0
 41
3.0
 42
3.0
 43
3.0
  0
INSERT
  5
1ACE
330
BDA
100
AcDbEntity
  8
SUNPOU
100
AcDbBlockReference
  2
_OPEN
 10
238.470623356273
 20
353.4016034603871
 30
0.0
 41
3.0
 42
3.0
 43
3.0
 50
180.0
  0
MTEXT
  5
1ACF
330
BDA
100
AcDbEntity
  8
SUNPOU
100
AcDbMText
 10
301.8606233516801
 20
358.4016034603871
 30
0.0
 40
6.0
 41
0.0
 71
     5
 72
     1
  1
\A1;127
1001
ACAD
1000
MTEXTBEGIN
1070
    73
1070
     1
1070
    44
1040
1.0
1070
    74
1070
     0
1000
MTEXTEND
  0
POINT
  5
1AD0
330
BDA
100
AcDbEntity
  8
DEFPOINTS
 62
     0
100
AcDbPoint
 10
365.2506233470871
 20
318.0673511235005
 30
0.0
  0
POINT
  5
1AD1
330
BDA
100
AcDbEntity
  8
DEFPOINTS
 62
     0
100
AcDbPoint
 10
238.470623356273
 20
305.0673511235005
 30
0.0
  0
POINT
  5
1AD2
330
BDA
100
AcDbEntity
  8
DEFPOINTS
 62
     0
100
AcDbPoint
 10
238.470623356273
 20
353.4016034603871
 30
0.0
  0
ENDBLK
  5
BE5
330
BDA
100
AcDbEntity
  8
0
100
AcDbBlockEnd
  0
BLOCK
  5
BF1
330
BE7
100
AcDbEntity
  8
0
100
AcDbBlockBegin
  2
*D2
 70
     1
 10
0.0
 20
0.0
 30
0.0
  3
*D2
  1

  0
LINE
  5
1AB8
330
BE7
100
AcDbEntity
  8
SUNPOU
100
AcDbLine
 10
237.570579377087
 20
469.2954103359483
 30
0.0
 11
196.2804025510886
 21
469.2954103359483
 31
0.0
  0
LINE
  5
1AB9
330
BE7
100
AcDbEntity
  8
SUNPOU
100
AcDbLine
 10
237.570579377087
 20
453.3954103359483
 30
0.0
 11
196.2804025510886
 21
453.3954103359483
 31
0.0
  0
LINE
  5
1ABA
330
BE7
100
AcDbEntity
  8
SUNPOU
100
AcDbLine
 10
199.2804025510886
 20
466.2954103359482
 30
0.0
 11
199.2804025510886
 21
456.3954103359483
 31
0.0
  0
INSERT
  5
1ABB
330
BE7
100
AcDbEntity
  8
SUNPOU
100
AcDbBlockReference
  2
_OPEN
 10
199.2804025510886
 20
469.2954103359483
 30
0.0
 41
3.0
 42
3.0
 43
3.0
 50
90.0
  0
INSERT
  5
1ABC
330
BE7
100
AcDbEntity
  8
SUNPOU
100
AcDbBlockReference
  2
_OPEN
 10
199.2804025510886
 20
453.3954103359483
 30
0.0
 41
3.0
 42
3.0
 43
3.0
 50
270.0
  0
MTEXT
  5
1ABD
330
BE7
100
AcDbEntity
  8
SUNPOU
100
AcDbMText
 10
194.2804025510885
 20
461.3454103359483
 30
0.0
 40
6.0
 41
0.0
 71
     5
 72
     1
  1
\A1;16
 11
0.0000000000000001
 21
1.0
 31
0.0
1001
ACAD
1000
MTEXTBEGIN
1070
    73
1070
     1
1070
    44
1040
1.0
1070
    74
1070
     0
1000
MTEXTEND
  0
POINT
  5
1ABE
330
BE7
100
AcDbEntity
  8
DEFPOINTS
 62
     0
100
AcDbPoint
 10
243.570579377087
 20
469.2954103359483
 30
0.0
  0
POINT
  5
1ABF
330
BE7
100
AcDbEntity
  8
DEFPOINTS
 62
     0
100
AcDbPoint
 10
243.570579377087
 20
453.3954103359483
 30
0.0
  0
POINT
  5
1AC0
330
BE7
100
AcDbEntity
  8
DEFPOINTS
 62
     0
100
AcDbPoint
 10
199.2804025510886
 20
453.3954103359483
 30
0.0
  0
ENDBLK
  5
BF2
330
BE7
100
AcDbEntity
  8
0
100
AcDbBlockEnd
  0
BLOCK
  5
FA7
330
F9D
100
AcDbEntity
  8
0
100
AcDbBlockBegin
  2
*D3
 70
     1
 10
0.0
 20
0.0
 30
0.0
  3
*D3
  1

  0
LINE
  5
1AAF
330
F9D
100
AcDbEntity
  8
SUNPOU
100
AcDbLine
 10
372.1808453766322
 20
277.9144495591748
 30
0.0
 11
391.8458126775552
 21
229.2419435352385
 31
0.0
  0
LINE
  5
1AB0
330
F9D
100
AcDbEntity
  8
SUNPOU
100
AcDbLine
 10
511.2584249494013
 20
334.1054345321904
 30
0.0
 11
530.9233922503243
 21
285.432928508254
 31
0.0
  0
LINE
  5
1AB1
330
F9D
100
AcDbEntity
  8
SUNPOU
100
AcDbLine
 10
393.5035445720533
 20
233.1473148320506
 30
0.0
 11
527.0180209535123
 21
287.090660402752
 31
0.0
  0
INSERT
  5
1AB2
330
F9D
100
AcDbEntity
  8
SUNPOU
100
AcDbBlockReference
  2
_OPEN
 10
390.7219929763982
 20
232.0234951308935
 30
0.0
 41
3.0
 42
3.0
 43
3.0
 50
201.9999983708516
  0
INSERT
  5
1AB3
330
F9D
100
AcDbEntity
  8
SUNPOU
100
AcDbBlockReference
  2
_OPEN
 10
529.7995725491672
 20
288.2144801039091
 30
0.0
 41
3.0
 42
3.0
 43
3.0
 50
21.99999837085163
  0
MTEXT
  5
1AB4
330
F9D
100
AcDbEntity
  8
SUNPOU
100
AcDbMText
 10
458.3877499275209
 20
264.754906943493
 30
0.0
 40
6.0
 41
0.0
 71
     5
 72
     1
  1
\A1;150
 11
0.927183865218352
 21
0.3746065670523633
 31
0.0
1001
ACAD
1000
MTEXTBEGIN
1070
    73
1070
     1
1070
    44
1040
1.0
1070
    74
1070
     0
1000
MTEXTEND
  0
POINT
  5
1AB5
330
F9D
100
AcDbEntity
  8
DEFPOINTS
 62
     0
100
AcDbPoint
 10
369.933205974318
 20
283.4775527504849
 30
0.0
  0
POINT
  5
1AB6
330
F9D
100
AcDbEntity
  8
DEFPOINTS
 62
     0
100
AcDbPoint
 10
509.0107855470872
 20
339.6685377235005
 30
0.0
  0
POINT
  5
1AB7
330
F9D
100
AcDbEntity
  8
DEFPOINTS
 62
     0
100
AcDbPoint
 10
529.7995725491672
 20
288.2144801039091
 30
0.0
  0
ENDBLK
  5
FA8
330
F9D
100
AcDbEntity
  8
0
100
AcDbBlockEnd
  0
BLOCK
  5
FFB
330
FEF
100
AcDbEntity
  8
0
100
AcDbBlockBegin
  2
*D4
 70
     1
 10
0.0
 20
0.0
 30
0.0
  3
*D4
  1

  0
LINE
  5
1AE7
330
FEF
100
AcDbEntity
  8
SUNPOU
100
AcDbLine
 10
504.1782304404207
 20
340.951662720807
 30
0.0
 11
542.4440059777363
 21
356.4120382840768
 31
0.0
  0
LINE
  5
1AE8
330
FEF
100
AcDbEntity
  8
SUNPOU
100
AcDbLine
 10
506.4258698404207
 20
335.388559520807
 30
0.0
 11
544.6916453777363
 21
350.8489350840768
 31
0.0
  0
LINE
  5
1AE9
330
FEF
100
AcDbEntity
  8
SUNPOU
100
AcDbLine
 10
538.5386346824163
 20
358.0697701820902
 30
0.0
 11
537.4148149837632
 21
360.8513217787569
 31
0.0
  0
LINE
  5
1AEA
330
FEF
100
AcDbEntity
  8
SUNPOU
100
AcDbLine
 10
543.0339134797229
 20
346.9435637887569
 30
0.0
 11
547.1545857081182
 21
336.7445412676457
 31
0.0
  0
LINE
  5
1AEB
330
FEF
100
AcDbEntity
  8
SUNPOU
100
AcDbLine
 10
539.6624543810697
 20
355.2882185854235
 30
0.0
 11
541.9100937810696
 21
349.7251153854235
 31
0.0
  0
INSERT
  5
1AEC
330
FEF
100
AcDbEntity
  8
SUNPOU
100
AcDbBlockReference
  2
_OPEN
 10
539.6624543810697
 20
355.2882185854235
 30
0.0
 41
3.0
 42
3.0
 43
3.0
 50
291.9999983192764
  0
INSERT
  5
1AED
330
FEF
100
AcDbEntity
  8
SUNPOU
100
AcDbBlockReference
  2
_OPEN
 10
541.9100937810696
 20
349.7251153854235
 30
0.0
 41
3.0
 42
3.0
 43
3.0
 50
111.9999983192764
  0
MTEXT
  5
1AEE
330
FEF
100
AcDbEntity
  8
SUNPOU
100
AcDbMText
 10
550.292078771025
 20
342.3263095609568
 30
0.0
 40
6.0
 41
0.0
 71
     5
 72
     1
  1
\A1;6
 11
0.3746065662177533
 21
-0.9271838655555566
 31
0.0
1001
ACAD
1000
MTEXTBEGIN
1070
    73
1070
     1
1070
    44
1040
1.0
1070
    74
1070
     0
1000
MTEXTEND
  0
POINT
  5
1AEF
330
FEF
100
AcDbEntity
  8
DEFPOINTS
 62
     0
100
AcDbPoint
 10
498.6151272470872
 20
338.7040233235005
 30
0.0
  0
POINT
  5
1AF0
330
FEF
100
AcDbEntity
  8
DEFPOINTS
 62
     0
100
AcDbPoint
 10
500.8627666470872
 20
333.1409201235005
 30
0.0
  0
POINT
  5
1AF1
330
FEF
100
AcDbEntity
  8
DEFPOINTS
 62
     0
100
AcDbPoint
 10
541.9100937810696
 20
349.7251153854235
 30
0.0
  0
ENDBLK
  5
FFC
330
FEF
100
AcDbEntity
  8
0
100
AcDbBlockEnd
  0
BLOCK
  5
100A
330
FFE
100
AcDbEntity
  8
0
100
AcDbBlockBegin
  2
*D5
 70
     1
 10
0.0
 20
0.0
 30
0.0
  3
*D5
  1

  0
LINE
  5
1ADC
330
FFE
100
AcDbEntity
  8
SUNPOU
100
AcDbLine
 10
504.6151272470872
 20
464.3454103359482
 30
0.0
 11
547.1641000956079
 21
464.3454103359482
 31
0.0
  0
LINE
  5
1ADD
330
FFE
100
AcDbEntity
  8
SUNPOU
100
AcDbLine
 10
504.6151272470872
 20
458.3454103359482
 30
0.0
 11
547.1641000956079
 21
458.3454103359482
 31
0.0
  0
LINE
  5
1ADE
330
FFE
100
AcDbEntity
  8
SUNPOU
100
AcDbLine
 10
544.164100095608
 20
467.3454103359482
 30
0.0
 11
544.164100095608
 21
470.3454103359482
 31
0.0
  0
LINE
  5
1ADF
330
FFE
100
AcDbEntity
  8
SUNPOU
100
AcDbLine
 10
544.164100095608
 20
455.3454103359483
 30
0.0
 11
544.164100095608
 21
444.3454103359482
 31
0.0
  0
LINE
  5
1AE0
330
FFE
100
AcDbEntity
  8
SUNPOU
100
AcDbLine
 10
544.164100095608
 20
464.3454103359482
 30
0.0
 11
544.164100095608
 21
458.3454103359482
 31
0.0
  0
INSERT
  5
1AE1
330
FFE
100
AcDbEntity
  8
SUNPOU
100
AcDbBlockReference
  2
_OPEN
 10
544.164100095608
 20
464.3454103359482
 30
0.0
 41
3.0
 42
3.0
 43
3.0
 50
270.0
  0
INSERT
  5
1AE2
330
FFE
100
AcDbEntity
  8
SUNPOU
100
AcDbBlockReference
  2
_OPEN
 10
544.164100095608
 20
458.3454103359482
 30
0.0
 41
3.0
 42
3.0
 43
3.0
 50
90.0
  0
MTEXT
  5
1AE3
330
FFE
100
AcDbEntity
  8
SUNPOU
100
AcDbMText
 10
539.1641000956078
 20
448.3454103359483
 30
0.0
 40
6.0
 41
0.0
 71
     5
 72
     1
  1
\A1;6
 11
0.0000000000000001
 21
1.0
 31
0.0
1001
ACAD
1000
MTEXTBEGIN
1070
    73
1070
     1
1070
    44
1040
1.0
1070
    74
1070
     0
1000
MTEXTEND
  0
POINT
  5
1AE4
330
FFE
100
AcDbEntity
  8
DEFPOINTS
 62
     0
100
AcDbPoint
 10
498.6151272470872
 20
464.3454103359482
 30
0.0
  0
POINT
  5
1AE5
330
FFE
100
AcDbEntity
  8
DEFPOINTS
 62
     0
100
AcDbPoint
 10
498.6151272470872
 20
458.3454103359482
 30
0.0
  0
POINT
  5
1AE6
330
FFE
100
AcDbEntity
  8
DEFPOINTS
 62
     0
100
AcDbPoint
 10
544.164100095608
 20
458.3454103359482
 30
0.0
  0
ENDBLK
  5
100B
330
FFE
100
AcDbEntity
  8
0
100
AcDbBlockEnd
  0
BLOCK
  5
1017
330
100D
100
AcDbEntity
  8
0
100
AcDbBlockBegin
  2
*D6
 70
     1
 10
0.0
 20
0.0
 30
0.0
  3
*D6
  1

  0
LINE
  5
1AD3
330
100D
100
AcDbEntity
  8
SUNPOU
100
AcDbLine
 10
364.2506233470871
 20
325.0673511235005
 30
0.0
 11
401.3703298695745
 21
325.0673511235004
 31
0.0
  0
LINE
  5
1AD4
330
100D
100
AcDbEntity
  8
SUNPOU
100
AcDbLine
 10
375.9332059743181
 20
283.4775527504849
 30
0.0
 11
401.3703298695745
 21
283.4775527504849
 31
0.0
  0
LINE
  5
1AD5
330
100D
100
AcDbEntity
  8
SUNPOU
100
AcDbLine
 10
398.3703298695745
 20
322.0673511235005
 30
0.0
 11
398.3703298695745
 21
286.4775527504848
 31
0.0
  0
INSERT
  5
1AD6
330
100D
100
AcDbEntity
  8
SUNPOU
100
AcDbBlockReference
  2
_OPEN
 10
398.3703298695745
 20
325.0673511235004
 30
0.0
 41
3.0
 42
3.0
 43
3.0
 50
90.0
  0
INSERT
  5
1AD7
330
100D
100
AcDbEntity
  8
SUNPOU
100
AcDbBlockReference
  2
_OPEN
 10
398.3703298695745
 20
283.4775527504849
 30
0.0
 41
3.0
 42
3.0
 43
3.0
 50
270.0
  0
MTEXT
  5
1AD8
330
100D
100
AcDbEntity
  8
SUNPOU
100
AcDbMText
 10
393.3703298695744
 20
304.2724519369928
 30
0.0
 40
6.0
 41
0.0
 71
     5
 72
     1
  1
\A1;42
 11
0.0000000000000001
 21
1.0
 31
0.0
1001
ACAD
1000
MTEXTBEGIN
1070
    73
1070
     1
1070
    44
1040
1.0
1070
    74
1070
     0
1000
MTEXTEND
  0
POINT
  5
1AD9
330
100D
100
AcDbEntity
  8
DEFPOINTS
 62
     0
100
AcDbPoint
 10
358.2506233470871
 20
325.0673511235005
 30
0.0
  0
POINT
  5
1ADA
330
100D
100
AcDbEntity
  8
DEFPOINTS
 62
     0
100
AcDbPoint
 10
369.9332059743181
 20
283.4775527504849
 30
0.0
  0
POINT
  5
1ADB
330
100D
100
AcDbEntity
  8
DEFPOINTS
 62
     0
100
AcDbPoint
 10
398.3703298695745
 20
283.4775527504849
 30
0.0
  0
ENDBLK
  5
1018
330
100D
100
AcDbEntity
  8
0
100
AcDbBlockEnd
  0
BLOCK
  5
1024
330
101A
100
AcDbEntity
  8
0
100
AcDbBlockBegin
  2
*D7
 70
     1
 10
0.0
 20
0.0
 30
0.0
  3
*D7
  1

  0
LINE
  5
1AA6
330
101A
100
AcDbEntity
  8
SUNPOU
100
AcDbLine
 10
238.4706250979011
 20
311.0649177035303
 30
0.0
 11
238.4706250979011
 21
373.3206600813846
 31
0.0
  0
LINE
  5
1AA7
330
101A
100
AcDbEntity
  8
SUNPOU
100
AcDbLine
 10
509.0107855470872
 20
345.6685377235005
 30
0.0
 11
509.0107855470872
 21
373.3206600813846
 31
0.0
  0
LINE
  5
1AA8
330
101A
100
AcDbEntity
  8
SUNPOU
100
AcDbLine
 10
241.4706250979011
 20
370.3206600813846
 30
0.0
 11
506.0107855470873
 21
370.3206600813846
 31
0.0
  0
INSERT
  5
1AA9
330
101A
100
AcDbEntity
  8
SUNPOU
100
AcDbBlockReference
  2
_OPEN
 10
238.4706250979011
 20
370.3206600813846
 30
0.0
 41
3.0
 42
3.0
 43
3.0
 50
180.0
  0
INSERT
  5
1AAA
330
101A
100
AcDbEntity
  8
SUNPOU
100
AcDbBlockReference
  2
_OPEN
 10
509.0107855470872
 20
370.3206600813846
 30
0.0
 41
3.0
 42
3.0
 43
3.0
  0
MTEXT
  5
1AAB
330
101A
100
AcDbEntity
  8
SUNPOU
100
AcDbMText
 10
373.7407053224941
 20
375.3206600813846
 30
0.0
 40
6.0
 41
0.0
 71
     5
 72
     1
  1
\A1;271
1001
ACAD
1000
MTEXTBEGIN
1070
    73
1070
     1
1070
    44
1040
1.0
1070
    74
1070
     0
1000
MTEXTEND
  0
POINT
  5
1AAC
330
101A
100
AcDbEntity
  8
DEFPOINTS
 62
     0
100
AcDbPoint
 10
238.4706250979011
 20
305.0649177035303
 30
0.0
  0
POINT
  5
1AAD
330
101A
100
AcDbEntity
  8
DEFPOINTS
 62
     0
100
AcDbPoint
 10
509.0107855470872
 20
339.6685377235005
 30
0.0
  0
POINT
  5
1AAE
330
101A
100
AcDbEntity
  8
DEFPOINTS
 62
     0
100
AcDbPoint
 10
509.0107855470872
 20
370.3206600813846
 30
0.0
  0
ENDBLK
  5
1025
330
101A
100
AcDbEntity
  8
0
100
AcDbBlockEnd
  0
BLOCK
  5
1031
330
1027
100
AcDbEntity
  8
0
100
AcDbBlockBegin
  2
*D8
 70
     1
 10
0.0
 20
0.0
 30
0.0
  3
*D8
  1

  0
LINE
  5
1AC1
330
1027
100
AcDbEntity
  8
SUNPOU
100
AcDbLine
 10
234.723579077087
 20
310.8673511235005
 30
0.0
 11
196.092720190481
 21
310.8673511235005
 31
0.0
  0
LINE
  5
1AC2
330
1027
100
AcDbEntity
  8
SUNPOU
100
AcDbLine
 10
363.9332059743181
 20
283.4775527504849
 30
0.0
 11
196.092720190481
 21
283.4775527504849
 31
0.0
  0
LINE
  5
1AC3
330
1027
100
AcDbEntity
  8
SUNPOU
100
AcDbLine
 10
199.092720190481
 20
307.8673511235005
 30
0.0
 11
199.092720190481
 21
286.4775527504849
 31
0.0
  0
INSERT
  5
1AC4
330
1027
100
AcDbEntity
  8
SUNPOU
100
AcDbBlockReference
  2
_OPEN
 10
199.092720190481
 20
310.8673511235005
 30
0.0
 41
3.0
 42
3.0
 43
3.0
 50
90.0
  0
INSERT
  5
1AC5
330
1027
100
AcDbEntity
  8
SUNPOU
100
AcDbBlockReference
  2
_OPEN
 10
199.092720190481
 20
283.4775527504849
 30
0.0
 41
3.0
 42
3.0
 43
3.0
 50
270.0
  0
MTEXT
  5
1AC6
330
1027
100
AcDbEntity
  8
SUNPOU
100
AcDbMText
 10
194.0927201904809
 20
297.1724519369928
 30
0.0
 40
6.0
 41
0.0
 71
     5
 72
     1
  1
\A1;27
 11
0.0000000000000001
 21
1.0
 31
0.0
1001
ACAD
1000
MTEXTBEGIN
1070
    73
1070
     1
1070
    44
1040
1.0
1070
    74
1070
     0
1000
MTEXTEND
  0
POINT
  5
1AC7
330
1027
100
AcDbEntity
  8
DEFPOINTS
 62
     0
100
AcDbPoint
 10
240.723579077087
 20
310.8673511235005
 30
0.0
  0
POINT
  5
1AC8
330
1027
100
AcDbEntity
  8
DEFPOINTS
 62
     0
100
AcDbPoint
 10
369.9332059743181
 20
283.4775527504849
 30
0.0
  0
POINT
  5
1AC9
330
1027
100
AcDbEntity
  8
DEFPOINTS
 62
     0
100
AcDbPoint
 10
199.092720190481
 20
283.4775527504849
 30
0.0
  0
ENDBLK
  5
1032
330
1027
100
AcDbEntity
  8
0
100
AcDbBlockEnd
  0
ENDSEC
  0
SECTION
  2
ENTITIES
  0
LINE
  5
286
330
1A
100
AcDbEntity
  8
NOKITOI
  6
PHANTOM
 62
     8
100
AcDbLine
 10
287.8175661963787
 20
263.3586630686951
 30
0.0
 11
332.3971661963787
 21
263.3585630686951
 31
0.0
  0
LINE
  5
287
330
1A
100
AcDbEntity
  8
NOKITOI
  6
PHANTOM
 62
     8
100
AcDbLine
 10
332.6469661963788
 20
262.1585630686951
 30
0.0
 11
287.8175661963787
 21
262.158663068695
 31
0.0
  0
ARC
  5
2B2
330
1A
100
AcDbEntity
  8
NOKITOI
  6
PHANTOM
 62
     8
100
AcDbCircle
 10
287.8175722783467
 20
305.1586574440388
 30
0.0
 40
41.79999437547816
100
AcDbArc
 50
184.4742952125247
 51
269.999854592109
  0
ARC
  5
2B3
330
1A
100
AcDbEntity
  8
NOKITOI
  6
PHANTOM
 62
     8
100
AcDbCircle
 10
287.8175499699214
 20
305.1586775450652
 30
0.0
 40
43.00001447645168
100
AcDbArc
 50
186.5249107071177
 51
269.9998883751437
  0
LINE
  5
2C4
330
1A
100
AcDbEntity
  8
NOKITOI
  6
PHANTOM
 62
     8
100
AcDbLine
 10
328.3971661963787
 20
263.3585630686951
 30
0.0
 11
308.4890661963791
 21
263.3585630686951
 31
0.0
  0
LINE
  5
2C5
330
1A
100
AcDbEntity
  8
NOKITOI
  6
PHANTOM
 62
     8
100
AcDbLine
 10
328.6469661963788
 20
262.1585630686951
 30
0.0
 11
308.4890661963791
 21
262.1585630686951
 31
0.0
  0
ARC
  5
2C6
330
1A
100
AcDbEntity
  8
NOKITOI
  6
PHANTOM
 62
     8
100
AcDbCircle
 10
237.9579021555296
 20
302.6586282145518
 30
0.0
 40
1.499965146287778
100
AcDbArc
 50
181.7866280217767
 51
269.9986264296971
  0
ARC
  5
2C7
330
1A
100
AcDbEntity
  8
NOKITOI
  6
PHANTOM
 62
     8
100
AcDbCircle
 10
244.1025577722161
 20
300.1586705837516
 30
0.0
 40
0.9999924849789756
100
AcDbArc
 50
6.528264606673934
 51
89.99951732740965
  0
ARC
  5
2D0
330
1A
100
AcDbEntity
  8
NOKITOI
  6
PHANTOM
 62
     8
100
AcDbCircle
 10
244.3453599952208
 20
314.1586696037803
 30
0.0
 40
0.4999934649531607
100
AcDbArc
 50
356.9955363203376
 51
89.99928939038076
  0
LINE
  5
2D1
330
1A
100
AcDbEntity
  8
NOKITOI
  6
PHANTOM
 62
     8
100
AcDbLine
 10
240.540266196379
 20
315.9586630686952
 30
0.0
 11
240.0402661963789
 21
313.4586630686952
 31
0.0
  0
LINE
  5
2D2
330
1A
100
AcDbEntity
  8
NOKITOI
  6
PHANTOM
 62
     8
100
AcDbLine
 10
237.2678661963791
 20
315.1336630686949
 30
0.0
 11
237.4172661963784
 21
310.3547630686952
 31
0.0
  0
LINE
  5
2D3
330
1A
100
AcDbEntity
  8
NOKITOI
  6
PHANTOM
 62
     8
100
AcDbLine
 10
236.0684661963787
 20
315.096163068695
 30
0.0
 11
236.4586661963785
 21
302.611863068695
 31
0.0
  0
LINE
  5
2D4
330
1A
100
AcDbEntity
  8
NOKITOI
  6
PHANTOM
 62
     8
100
AcDbLine
 10
245.6464661963791
 20
302.3586630686951
 30
0.0
 11
239.6055661963787
 21
302.3586630686951
 31
0.0
  0
LINE
  5
2D5
330
1A
100
AcDbEntity
  8
NOKITOI
  6
PHANTOM
 62
     8
100
AcDbLine
 10
244.5289661963788
 20
308.132463068695
 30
0.0
 11
244.8447661963787
 21
314.132363068695
 31
0.0
  0
LINE
  5
2D6
330
1A
100
AcDbEntity
  8
NOKITOI
  6
PHANTOM
 62
     8
100
AcDbLine
 10
241.980966196379
 20
312.3586630686951
 30
0.0
 11
242.9767661963787
 21
313.4586630686952
 31
0.0
  0
LINE
  5
2D7
330
1A
100
AcDbEntity
  8
NOKITOI
  6
PHANTOM
 62
     8
100
AcDbLine
 10
241.980966196379
 20
312.3586630686951
 30
0.0
 11
241.5190661963788
 21
312.3586630686951
 31
0.0
  0
LINE
  5
2D8
330
1A
100
AcDbEntity
  8
NOKITOI
  6
PHANTOM
 62
     8
100
AcDbLine
 10
240.0402661963789
 20
313.4586630686952
 30
0.0
 11
242.9767661963787
 21
313.4586630686952
 31
0.0
  0
LINE
  5
2D9
330
1A
100
AcDbEntity
  8
NOKITOI
  6
PHANTOM
 62
     8
100
AcDbLine
 10
241.2855661963785
 20
308.2294630686952
 30
0.0
 11
241.6192661963787
 21
310.5656630686952
 31
0.0
  0
LINE
  5
2DA
330
1A
100
AcDbEntity
  8
NOKITOI
  6
PHANTOM
 62
     8
100
AcDbLine
 10
244.0295661963787
 20
307.658663068695
 30
0.0
 11
241.7804661963787
 21
307.658663068695
 31
0.0
  0
ARC
  5
2DB
330
1A
100
AcDbEntity
  8
NOKITOI
  6
PHANTOM
 62
     8
100
AcDbCircle
 10
241.7804927969764
 20
308.158632391813
 30
0.0
 40
0.4999693238254178
100
AcDbArc
 50
171.8555038770531
 51
269.9969516090356
  0
LINE
  5
2DC
330
1A
100
AcDbEntity
  8
NOKITOI
  6
PHANTOM
 62
     8
100
AcDbLine
 10
243.3654661963787
 20
308.8586630686951
 30
0.0
 11
242.5875661963791
 21
308.8586630686951
 31
0.0
  0
LINE
  5
2DD
330
1A
100
AcDbEntity
  8
NOKITOI
  6
PHANTOM
 62
     8
100
AcDbLine
 10
242.5875661963791
 20
308.8586630686951
 30
0.0
 11
242.9916661963789
 21
311.687063068695
 31
0.0
  0
ARC
  5
2DE
330
1A
100
AcDbEntity
  8
NOKITOI
  6
PHANTOM
 62
     8
100
AcDbCircle
 10
241.1242804147941
 20
310.636348434394
 30
0.0
 40
0.5000073448410256
100
AcDbArc
 50
351.872947864124
 51
96.47829282996916
  0
ARC
  5
2DF
330
1A
100
AcDbEntity
  8
NOKITOI
  6
PHANTOM
 62
     8
100
AcDbCircle
 10
241.5191864090479
 20
307.1587217970751
 30
0.0
 40
5.2000412730095
100
AcDbArc
 50
90.0013245430618
 51
142.0757990790551
  0
LINE
  5
2E0
330
1A
100
AcDbEntity
  8
NOKITOI
  6
PHANTOM
 62
     8
100
AcDbLine
 10
242.9916661963789
 20
311.687063068695
 30
0.0
 11
243.5466661963787
 21
312.3001630686952
 31
0.0
  0
LINE
  5
2E1
330
1A
100
AcDbEntity
  8
NOKITOI
  6
PHANTOM
 62
     8
100
AcDbLine
 10
243.3654661963787
 20
308.8586630686951
 30
0.0
 11
243.5466661963787
 21
312.3001630686952
 31
0.0
  0
ARC
  5
2E2
330
1A
100
AcDbEntity
  8
NOKITOI
  6
PHANTOM
 62
     8
100
AcDbCircle
 10
244.0295593093837
 20
308.1586565336095
 30
0.0
 40
0.499993464961963
100
AcDbArc
 50
270.0007892017869
 51
356.997036131742
  0
ARC
  5
2E3
330
1A
100
AcDbEntity
  8
NOKITOI
  6
PHANTOM
 62
     8
100
AcDbCircle
 10
239.6055797685171
 20
304.3586499136087
 30
0.0
 40
1.999986844959662
100
AcDbArc
 50
181.7875531852356
 51
269.9996111843215
  0
LINE
  5
2E4
330
1A
100
AcDbEntity
  8
NOKITOI
  6
PHANTOM
 62
     8
100
AcDbLine
 10
237.9578661963787
 20
301.158663068695
 30
0.0
 11
244.1025661963785
 21
301.158663068695
 31
0.0
  0
LINE
  5
2E5
330
1A
100
AcDbEntity
  8
NOKITOI
  6
PHANTOM
 62
     8
100
AcDbLine
 10
237.6065661963784
 20
304.2962630686951
 30
0.0
 11
237.5210661963787
 21
307.033763068695
 31
0.0
  0
ARC
  5
2E6
330
1A
100
AcDbEntity
  8
NOKITOI
  6
PHANTOM
 62
     8
100
AcDbCircle
 10
245.646478766087
 20
301.8586514439654
 30
0.0
 40
0.5000116248877111
100
AcDbArc
 50
4.474846808342103
 51
90.00144034898383
  0
ARC
  5
2E8
330
1A
100
AcDbEntity
  8
NOKITOI
  6
PHANTOM
 62
     8
100
AcDbCircle
 10
241.5191040778254
 20
307.1587068512204
 30
0.0
 40
3.999989731271038
100
AcDbArc
 50
96.47731142013119
 51
181.7899836067311
  0
LINE
  5
2E9
330
1A
100
AcDbEntity
  8
NOKITOI
  6
PHANTOM
 62
     8
100
AcDbLine
 10
241.6235661963787
 20
315.256763068695
 30
0.0
 11
241.8843661963787
 21
316.5606630686951
 31
0.0
  0
ARC
  5
2EA
330
1A
100
AcDbEntity
  8
NOKITOI
  6
PHANTOM
 62
     8
100
AcDbCircle
 10
242.1138589418233
 20
315.1586719185385
 30
0.0
 40
0.5000088498959383
100
AcDbArc
 50
168.6864043304892
 51
270.0008312961442
  0
ARC
  5
2EB
330
1A
100
AcDbEntity
  8
NOKITOI
  6
PHANTOM
 62
     8
100
AcDbCircle
 10
241.3940654133702
 20
316.6586640236968
 30
0.0
 40
0.4999990449987349
100
AcDbArc
 50
348.6967198015447
 51
89.99991027369492
  0
ARC
  5
2EC
330
1A
100
AcDbEntity
  8
NOKITOI
  6
PHANTOM
 62
     8
100
AcDbCircle
 10
238.0674706911768
 20
315.158667706222
 30
0.0
 40
0.7999953624857498
100
AcDbArc
 50
90.00032191805264
 51
181.7911273464193
  0
LINE
  5
2ED
330
1A
100
AcDbEntity
  8
NOKITOI
  6
PHANTOM
 62
     8
100
AcDbLine
 10
238.0674661963785
 20
315.9586630686952
 30
0.0
 11
240.540266196379
 21
315.9586630686952
 31
0.0
  0
LINE
  5
2EE
330
1A
100
AcDbEntity
  8
NOKITOI
  6
PHANTOM
 62
     8
100
AcDbLine
 10
238.0674661963785
 20
317.1586630686951
 30
0.0
 11
241.3940661963788
 21
317.1586630686951
 31
0.0
  0
LINE
  5
2EF
330
1A
100
AcDbEntity
  8
NOKITOI
  6
PHANTOM
 62
     8
100
AcDbLine
 10
244.3453661963785
 20
314.658663068695
 30
0.0
 11
242.1138661963786
 21
314.658663068695
 31
0.0
  0
ARC
  5
2F1
330
1A
100
AcDbEntity
  8
NOKITOI
  6
PHANTOM
 62
     8
100
AcDbCircle
 10
238.0674789472286
 20
315.1586762237815
 30
0.0
 40
1.999986844954076
100
AcDbArc
 50
90.00036528735451
 51
181.7883072882703
  0
LINE
  5
314
330
1A
100
AcDbEntity
  8
NOKITOI
  6
PHANTOM
 62
     8
100
AcDbLine
 10
345.8729661963789
 20
301.9084630686951
 30
0.0
 11
342.8799661963785
 21
271.978663068695
 31
0.0
  0
LINE
  5
315
330
1A
100
AcDbEntity
  8
NOKITOI
  6
PHANTOM
 62
     8
100
AcDbLine
 10
346.913966196379
 20
300.2581630686951
 30
0.0
 11
344.0451661963789
 21
271.5707630686951
 31
0.0
  0
LINE
  5
31B
330
1A
100
AcDbEntity
  8
NOKITOI
  6
PHANTOM
 62
     8
100
AcDbLine
 10
342.6990661963791
 20
271.6413630686951
 30
0.0
 11
332.7137661963788
 21
263.471563068695
 31
0.0
  0
LINE
  5
31C
330
1A
100
AcDbEntity
  8
NOKITOI
  6
PHANTOM
 62
     8
100
AcDbLine
 10
343.6833661963787
 20
270.8962630686952
 30
0.0
 11
333.2802661963787
 21
262.3845630686952
 31
0.0
  0
ARC
  5
31D
330
1A
100
AcDbEntity
  8
NOKITOI
  6
PHANTOM
 62
     8
100
AcDbCircle
 10
332.3971725841274
 20
263.8585653486846
 30
0.0
 40
0.5000022800304047
100
AcDbArc
 50
269.9992680212791
 51
309.2854498596055
  0
ARC
  5
31E
330
1A
100
AcDbEntity
  8
NOKITOI
  6
PHANTOM
 62
     8
100
AcDbCircle
 10
332.6469592638013
 20
263.158560593689
 30
0.0
 40
0.9999975250179316
100
AcDbArc
 50
270.0003972084035
 51
309.2946416752297
  0
ARC
  5
31F
330
1A
100
AcDbEntity
  8
NOKITOI
  6
PHANTOM
 62
     8
100
AcDbCircle
 10
342.3824487705005
 20
272.0283305823071
 30
0.0
 40
0.4999904508696396
100
AcDbArc
 50
309.2900846377946
 51
354.2990110749239
  0
ARC
  5
320
330
1A
100
AcDbEntity
  8
NOKITOI
  6
PHANTOM
 62
     8
100
AcDbCircle
 10
343.0501436235099
 20
271.6702209970225
 30
0.0
 40
0.9999908507640039
100
AcDbArc
 50
309.288709223069
 51
354.2862329477532
  0
ARC
  5
323
330
1A
100
AcDbEntity
  8
NOKITOI
  6
PHANTOM
 62
     8
100
AcDbCircle
 10
354.0500834095569
 20
302.6586797518429
 30
0.0
 40
1.500016683246579
100
AcDbArc
 50
269.9993425123344
 51
358.2076423244113
  0
ARC
  5
324
330
1A
100
AcDbEntity
  8
NOKITOI
  6
PHANTOM
 62
     8
100
AcDbCircle
 10
347.9089868462196
 20
300.1586817565442
 30
0.0
 40
0.9999813123640345
100
AcDbArc
 50
90.00118317084911
 51
174.2905900333514
  0
ARC
  5
32E
330
1A
100
AcDbEntity
  8
NOKITOI
  6
PHANTOM
 62
     8
100
AcDbCircle
 10
353.9404549593846
 20
315.1586746625122
 30
0.0
 40
1.999988406214315
100
AcDbArc
 50
358.2088726535936
 51
89.99967808195551
  0
LINE
  5
32F
330
1A
100
AcDbEntity
  8
NOKITOI
  6
PHANTOM
 62
     8
100
AcDbLine
 10
355.9394661963788
 20
315.096163068695
 30
0.0
 11
355.5493661963787
 21
302.611763068695
 31
0.0
  0
LINE
  5
330
330
1A
100
AcDbEntity
  8
NOKITOI
  6
PHANTOM
 62
     8
100
AcDbLine
 10
351.4677661963787
 20
315.9586630686952
 30
0.0
 11
351.9677661963787
 21
313.4586630686952
 31
0.0
  0
ARC
  5
331
330
1A
100
AcDbEntity
  8
NOKITOI
  6
PHANTOM
 62
     8
100
AcDbCircle
 10
347.662569905874
 20
314.1586669787258
 30
0.0
 40
0.4999960899831856
100
AcDbArc
 50
90.00042508015082
 51
183.0156217414647
  0
LINE
  5
332
330
1A
100
AcDbEntity
  8
NOKITOI
  6
PHANTOM
 62
     8
100
AcDbLine
 10
354.7400661963783
 20
315.1336630686949
 30
0.0
 11
354.5907661963788
 21
310.3546630686952
 31
0.0
  0
ARC
  5
336
330
1A
100
AcDbEntity
  8
NOKITOI
  6
PHANTOM
 62
     8
100
AcDbCircle
 10
350.4889352694426
 20
307.1586988133589
 30
0.0
 40
3.99998565374706
100
AcDbArc
 50
358.208696659101
 51
83.5242238046835
  0
ARC
  5
337
330
1A
100
AcDbEntity
  8
NOKITOI
  6
PHANTOM
 62
     8
100
AcDbCircle
 10
350.4889483300276
 20
307.158671797075
 30
0.0
 40
5.199991271650611
100
AcDbArc
 50
37.92532860472995
 51
89.9998031407256
  0
ARC
  5
338
330
1A
100
AcDbEntity
  8
NOKITOI
  6
PHANTOM
 62
     8
100
AcDbCircle
 10
352.402404184203
 20
304.3585998892673
 30
0.0
 40
2.000036820932882
100
AcDbArc
 50
269.9989117490344
 51
358.2110591274195
  0
LINE
  5
339
330
1A
100
AcDbEntity
  8
NOKITOI
  6
PHANTOM
 62
     8
100
AcDbLine
 10
354.0500661963787
 20
301.158663068695
 30
0.0
 11
347.9089661963789
 21
301.158663068695
 31
0.0
  0
LINE
  5
33A
330
1A
100
AcDbEntity
  8
NOKITOI
  6
PHANTOM
 62
     8
100
AcDbLine
 10
350.0269661963788
 20
312.3586630686951
 30
0.0
 11
349.0311661963787
 21
313.4586630686952
 31
0.0
  0
LINE
  5
33B
330
1A
100
AcDbEntity
  8
NOKITOI
  6
PHANTOM
 62
     8
100
AcDbLine
 10
350.0269661963788
 20
312.3586630686951
 30
0.0
 11
350.4889661963789
 21
312.3586630686951
 31
0.0
  0
LINE
  5
33C
330
1A
100
AcDbEntity
  8
NOKITOI
  6
PHANTOM
 62
     8
100
AcDbLine
 10
350.7224661963787
 20
308.2293630686951
 30
0.0
 11
350.3886661963788
 21
310.5655630686952
 31
0.0
  0
ARC
  5
33D
330
1A
100
AcDbEntity
  8
NOKITOI
  6
PHANTOM
 62
     8
100
AcDbCircle
 10
350.2274763828149
 20
308.1586748134192
 30
0.0
 40
0.5000117448278309
100
AcDbArc
 50
269.9988327478016
 51
8.127314608715551
  0
ARC
  5
33E
330
1A
100
AcDbEntity
  8
NOKITOI
  6
PHANTOM
 62
     8
100
AcDbCircle
 10
347.9783703177854
 20
308.1586591586646
 30
0.0
 40
0.4999960899864752
100
AcDbArc
 50
183.0147243791741
 51
269.9995277178593
  0
LINE
  5
33F
330
1A
100
AcDbEntity
  8
NOKITOI
  6
PHANTOM
 62
     8
100
AcDbLine
 10
347.9783661963788
 20
307.658663068695
 30
0.0
 11
350.2274661963783
 21
307.658663068695
 31
0.0
  0
LINE
  5
340
330
1A
100
AcDbEntity
  8
NOKITOI
  6
PHANTOM
 62
     8
100
AcDbLine
 10
348.6424661963788
 20
308.8586630686951
 30
0.0
 11
349.4203661963783
 21
308.8586630686951
 31
0.0
  0
LINE
  5
341
330
1A
100
AcDbEntity
  8
NOKITOI
  6
PHANTOM
 62
     8
100
AcDbLine
 10
349.4203661963783
 20
308.8586630686951
 30
0.0
 11
349.0163661963788
 21
311.687063068695
 31
0.0
  0
LINE
  5
342
330
1A
100
AcDbEntity
  8
NOKITOI
  6
PHANTOM
 62
     8
100
AcDbLine
 10
347.4790661963788
 20
308.132363068695
 30
0.0
 11
347.1632661963785
 21
314.132363068695
 31
0.0
  0
LINE
  5
343
330
1A
100
AcDbEntity
  8
NOKITOI
  6
PHANTOM
 62
     8
100
AcDbLine
 10
349.0163661963788
 20
311.687063068695
 30
0.0
 11
348.4613661963785
 21
312.300063068695
 31
0.0
  0
LINE
  5
344
330
1A
100
AcDbEntity
  8
NOKITOI
  6
PHANTOM
 62
     8
100
AcDbLine
 10
348.6424661963788
 20
308.8586630686951
 30
0.0
 11
348.4613661963785
 21
312.300063068695
 31
0.0
  0
ARC
  5
345
330
1A
100
AcDbEntity
  8
NOKITOI
  6
PHANTOM
 62
     8
100
AcDbCircle
 10
350.8836955688784
 20
310.63629330119
 30
0.0
 40
0.4999578477751074
100
AcDbArc
 50
83.52609071220751
 51
188.1330561712932
  0
LINE
  5
346
330
1A
100
AcDbEntity
  8
NOKITOI
  6
PHANTOM
 62
     8
100
AcDbLine
 10
351.9677661963787
 20
313.4586630686952
 30
0.0
 11
349.0311661963787
 21
313.4586630686952
 31
0.0
  0
ARC
  5
347
330
1A
100
AcDbEntity
  8
NOKITOI
  6
PHANTOM
 62
     8
100
AcDbCircle
 10
346.3704792673834
 20
301.8586748989749
 30
0.0
 40
0.499988169890889
100
AcDbArc
 50
90.00149786226634
 51
174.2966061377162
  0
LINE
  5
348
330
1A
100
AcDbEntity
  8
NOKITOI
  6
PHANTOM
 62
     8
100
AcDbLine
 10
346.3704661963784
 20
302.3586630686951
 30
0.0
 11
352.4023661963788
 21
302.3586630686951
 31
0.0
  0
LINE
  5
349
330
1A
100
AcDbEntity
  8
NOKITOI
  6
PHANTOM
 62
     8
100
AcDbLine
 10
354.4014661963788
 20
304.2960630686951
 30
0.0
 11
354.4869661963784
 21
307.033663068695
 31
0.0
  0
LINE
  5
34A
330
1A
100
AcDbEntity
  8
NOKITOI
  6
PHANTOM
 62
     8
100
AcDbLine
 10
353.940466196379
 20
315.958563068695
 30
0.0
 11
351.4677661963787
 21
315.9586630686952
 31
0.0
  0
LINE
  5
34B
330
1A
100
AcDbEntity
  8
NOKITOI
  6
PHANTOM
 62
     8
100
AcDbLine
 10
353.940466196379
 20
317.1585630686951
 30
0.0
 11
350.6138661963786
 21
317.1586630686951
 31
0.0
  0
LINE
  5
34E
330
1A
100
AcDbEntity
  8
NOKITOI
  6
PHANTOM
 62
     8
100
AcDbLine
 10
350.3843661963788
 20
315.2566630686952
 30
0.0
 11
350.1235661963787
 21
316.5606630686951
 31
0.0
  0
ARC
  5
34F
330
1A
100
AcDbEntity
  8
NOKITOI
  6
PHANTOM
 62
     8
100
AcDbCircle
 10
349.8940654133702
 20
315.1586621136933
 30
0.0
 40
0.4999990449987399
100
AcDbArc
 50
270.000089726305
 51
11.30328019845521
  0
ARC
  5
350
330
1A
100
AcDbEntity
  8
NOKITOI
  6
PHANTOM
 62
     8
100
AcDbCircle
 10
350.6138589418233
 20
316.6586542188516
 30
0.0
 40
0.500008849895925
100
AcDbArc
 50
89.99916870385415
 51
191.3135956695126
  0
LINE
  5
351
330
1A
100
AcDbEntity
  8
NOKITOI
  6
PHANTOM
 62
     8
100
AcDbLine
 10
347.6625661963789
 20
314.658663068695
 30
0.0
 11
349.8940661963788
 21
314.658663068695
 31
0.0
  0
ARC
  5
352
330
1A
100
AcDbEntity
  8
NOKITOI
  6
PHANTOM
 62
     8
100
AcDbCircle
 10
353.9405101627317
 20
315.1586177062221
 30
0.0
 40
0.7999453636812564
100
AcDbArc
 50
358.2123436447881
 51
90.00314907315425
  0
TEXT
  5
35E
330
1A
100
AcDbEntity
  8
SUNPOU
  6
CONTINUOUS
 62
     4
100
AcDbText
 10
577.8553589327816
 20
356.0484088749275
 30
0.0
 40
6.0
  1
10
100
AcDbText
  0
LINE
  5
35F
330
1A
100
AcDbEntity
  8
SUNPOU
  6
CONTINUOUS
 62
     4
100
AcDbLine
 10
569.2911118880133
 20
364.0233684733352
 30
0.0
 11
589.2911118880131
 21
364.0233684733352
 31
0.0
  0
LINE
  5
360
330
1A
100
AcDbEntity
  8
SUNPOU
  6
CONTINUOUS
 62
     4
100
AcDbLine
 10
589.2911118880131
 20
372.0233684733352
 30
0.0
 11
569.2911118880133
 21
364.0233684733352
 31
0.0
  0
LINE
  5
361
330
1A
100
AcDbEntity
  8
SUNPOU
  6
CONTINUOUS
 62
     4
100
AcDbLine
 10
589.2911118880131
 20
364.0233684733352
 30
0.0
 11
589.2911118880131
 21
372.0233684733352
 31
0.0
  0
TEXT
  5
362
330
1A
100
AcDbEntity
  8
SUNPOU
  6
CONTINUOUS
 62
     4
100
AcDbText
 10
593.5858103563716
 20
365.1811833443636
 30
0.0
 40
6.0
  1
4
100
AcDbText
  0
ARC
  5
8FD
330
1A
100
AcDbEntity
  8
SEIHIN
 62
     3
100
AcDbCircle
 10
254.362928377087
 20
309.8673511235005
 30
0.0
 40
2.000000001052705
100
AcDbArc
 50
270.0
 51
299.9999999651758
  0
ARC
  5
8FF
330
1A
100
AcDbEntity
  8
SEIHIN
 62
     3
100
AcDbCircle
 10
254.309339977087
 20
310.0673511235005
 30
0.0
 40
6.70000001483484
100
AcDbArc
 50
270.0
 51
300.0000087406067
  0
LINE
  5
900
330
1A
100
AcDbEntity
  8
SEIHIN
 62
     3
100
AcDbLine
 10
239.769684677087
 20
309.6508765135005
 30
0.0
 11
240.559800277087
 21
308.6361213035005
 31
0.0
  0
ARC
  5
901
330
1A
100
AcDbEntity
  8
SEIHIN
 62
     3
100
AcDbCircle
 10
246.670623377087
 20
305.2217631235005
 30
0.0
 40
6.999999998144283
100
AcDbArc
 50
137.9753724543312
 51
180.0000000818504
  0
ARC
  5
902
330
1A
100
AcDbEntity
  8
SEIHIN
 62
     3
100
AcDbCircle
 10
246.670623377087
 20
305.2217631235005
 30
0.0
 40
8.200000025865952
100
AcDbArc
 50
136.4895916441825
 51
180.0000000698716
  0
LINE
  5
903
330
1A
100
AcDbEntity
  8
SEIHIN
 62
     3
100
AcDbLine
 10
241.595708277087
 20
304.5673511235005
 30
0.0
 11
239.893414877087
 21
306.9481259735005
 31
0.0
  0
ARC
  5
904
330
1A
100
AcDbEntity
  8
SEIHIN
 62
     3
100
AcDbCircle
 10
240.170623377087
 20
305.0673511235005
 30
0.0
 40
1.700000020814075
100
AcDbArc
 50
180.0820145529315
 51
270.0
  0
ARC
  5
905
330
1A
100
AcDbEntity
  8
SEIHIN
 62
     3
100
AcDbCircle
 10
240.170623377087
 20
305.0673511235005
 30
0.0
 40
0.5
100
AcDbArc
 50
180.0
 51
270.0
  0
ARC
  5
906
330
1A
100
AcDbEntity
  8
SEIHIN
 62
     3
100
AcDbCircle
 10
240.170623377087
 20
305.0673511235005
 30
0.0
 40
1.700000020814068
100
AcDbArc
 50
180.0000003370341
 51
180.0820145529315
  0
LINE
  5
907
330
1A
100
AcDbEntity
  8
SEIHIN
 62
     3
100
AcDbLine
 10
238.470623377087
 20
305.2217631235005
 30
0.0
 11
238.470623377087
 21
305.0673511235005
 31
0.0
  0
LINE
  5
908
330
1A
100
AcDbEntity
  8
SEIHIN
 62
     3
100
AcDbLine
 10
239.670623377087
 20
305.0673511235005
 30
0.0
 11
239.670623377087
 21
305.2217631235005
 31
0.0
  0
LINE
  5
909
330
1A
100
AcDbEntity
  8
SEIHIN
 62
     3
100
AcDbLine
 10
245.070623377087
 20
305.8673511235005
 30
0.0
 11
245.070623377087
 21
303.3673511235004
 31
0.0
  0
LINE
  5
90B
330
1A
100
AcDbEntity
  8
SEIHIN
 62
     3
100
AcDbLine
 10
254.309339977087
 20
303.3673511235004
 30
0.0
 11
240.170623377087
 21
303.3673511235004
 31
0.0
  0
LINE
  5
90C
330
1A
100
AcDbEntity
  8
SEIHIN
 62
     3
100
AcDbLine
 10
240.170623377087
 20
304.5673511235005
 30
0.0
 11
245.070623377087
 21
304.5673511235005
 31
0.0
  0
LINE
  5
90D
330
1A
100
AcDbEntity
  8
SEIHIN
 62
     3
100
AcDbLine
 10
247.070623377087
 20
307.8673511235005
 30
0.0
 11
254.362928377087
 21
307.8673511235005
 31
0.0
  0
LINE
  5
90E
330
1A
100
AcDbEntity
  8
SEIHIN
 62
     3
100
AcDbLine
 10
241.470623377087
 20
309.9079129235005
 30
0.0
 11
240.723579077087
 21
310.8673511235005
 31
0.0
  0
ARC
  5
90F
330
1A
100
AcDbEntity
  8
SEIHIN
 62
     3
100
AcDbCircle
 10
247.070623377087
 20
305.8673511235005
 30
0.0
 40
2.0
100
AcDbArc
 50
90.0
 51
180.0000002864791
  0
LINE
  5
911
330
1A
100
AcDbEntity
  8
SEIHIN
 62
     3
100
AcDbLine
 10
262.970623377087
 20
311.3673511235004
 30
0.0
 11
322.374422347087
 21
311.3673511235004
 31
0.0
  0
ARC
  5
913
330
1A
100
AcDbEntity
  8
SEIHIN
 62
     3
100
AcDbCircle
 10
314.250623347087
 20
306.5631841235004
 30
0.0
 40
5.704166995525981
100
AcDbArc
 50
57.37535862169602
 51
122.624641432457
  0
LINE
  5
914
330
1A
100
AcDbEntity
  8
SEIHIN
 62
     3
100
AcDbLine
 10
312.250623347087
 20
306.8673511235004
 30
0.0
 11
316.250623347087
 21
306.8673511235004
 31
0.0
  0
LINE
  5
915
330
1A
100
AcDbEntity
  8
SEIHIN
 62
     3
100
AcDbLine
 10
312.167139347087
 20
306.2673511235005
 30
0.0
 11
316.334108347087
 21
306.2673511235005
 31
0.0
  0
LINE
  5
916
330
1A
100
AcDbEntity
  8
SEIHIN
 62
     3
100
AcDbLine
 10
262.970623377087
 20
306.8673511235004
 30
0.0
 11
312.250623347087
 21
306.8673511235004
 31
0.0
  0
LINE
  5
918
330
1A
100
AcDbEntity
  8
SEIHIN
 62
     3
100
AcDbLine
 10
261.470623377087
 20
306.4654271235005
 30
0.0
 11
257.659340877087
 21
304.2649814035005
 31
0.0
  0
ARC
  5
919
330
1A
100
AcDbEntity
  8
SEIHIN
 62
     3
100
AcDbCircle
 10
262.970623377087
 20
303.8673511235005
 30
0.0
 40
2.999999999413997
100
AcDbArc
 50
90.0
 51
120.0000000129247
  0
ARC
  5
91B
330
1A
100
AcDbEntity
  8
SEIHIN
 62
     3
100
AcDbCircle
 10
262.970623377087
 20
303.8673511235005
 30
0.0
 40
7.499999996369929
100
AcDbArc
 50
90.0
 51
120.0000000320229
  0
LINE
  5
91D
330
1A
100
AcDbEntity
  8
SEIHIN
 62
     3
100
AcDbLine
 10
255.362928377087
 20
308.1353001235005
 30
0.0
 11
259.220623377087
 21
310.3625411235005
 31
0.0
  0
ARC
  5
925
330
1A
100
AcDbEntity
  8
SEIHIN
 62
     3
100
AcDbCircle
 10
312.167139347087
 20
307.2673511235005
 30
0.0
 40
1.000000000462305
100
AcDbArc
 50
203.578178455081
 51
270.0
  0
LINE
  5
929
330
1A
100
AcDbEntity
  8
SEIHIN
 62
     3
100
AcDbLine
 10
328.249557347087
 20
316.9992281235005
 30
0.0
 11
327.473194027087
 21
312.0974583435005
 31
0.0
  0
LINE
  5
92A
330
1A
100
AcDbEntity
  8
SEIHIN
 62
     3
100
AcDbLine
 10
358.700623347087
 20
318.8673511235005
 30
0.0
 11
358.700623347087
 21
306.1034191235005
 31
0.0
  0
LINE
  5
92B
330
1A
100
AcDbEntity
  8
SEIHIN
 62
     3
100
AcDbLine
 10
357.700623347087
 20
318.8673511235005
 30
0.0
 11
357.700623347087
 21
302.1673511235005
 31
0.0
  0
LINE
  5
92E
330
1A
100
AcDbEntity
  8
SEIHIN
 62
     3
100
AcDbLine
 10
356.500623347087
 20
318.8673511235005
 30
0.0
 11
356.500623347087
 21
302.1673511235005
 31
0.0
  0
LINE
  5
92F
330
1A
100
AcDbEntity
  8
SEIHIN
 62
     3
100
AcDbLine
 10
337.904151347087
 20
318.4180701235005
 30
0.0
 11
333.3168963470871
 21
307.8673831235005
 31
0.0
  0
LINE
  5
930
330
1A
100
AcDbEntity
  8
SEIHIN
 62
     3
100
AcDbLine
 10
323.8049603470871
 20
317.7031831235004
 30
0.0
 11
322.868266347087
 21
311.7891331235004
 31
0.0
  0
LINE
  5
932
330
1A
100
AcDbEntity
  8
SEIHIN
 62
     3
100
AcDbLine
 10
330.914194347087
 20
318.4673511235005
 30
0.0
 11
330.914194347087
 21
313.6346831235005
 31
0.0
  0
LINE
  5
933
330
1A
100
AcDbEntity
  8
SEIHIN
 62
     3
100
AcDbLine
 10
330.5141943470871
 20
318.4673511235005
 30
0.0
 11
330.5141943470871
 21
313.6346831235005
 31
0.0
  0
LINE
  5
935
330
1A
100
AcDbEntity
  8
SEIHIN
 62
     3
100
AcDbLine
 10
344.3168963470871
 20
312.0610601235004
 30
0.0
 11
344.3168963470871
 21
318.0199811235005
 31
0.0
  0
ARC
  5
936
330
1A
100
AcDbEntity
  8
SEIHIN
 62
     3
100
AcDbCircle
 10
329.514194347087
 20
313.6346831235005
 30
0.0
 40
1.00000000242602
100
AcDbArc
 50
285.0000002160139
 51
0.0
  0
ARC
  5
937
330
1A
100
AcDbEntity
  8
SEIHIN
 62
     3
100
AcDbCircle
 10
329.514194347087
 20
313.6346831235005
 30
0.0
 40
1.400000001136407
100
AcDbArc
 50
284.9999998418851
 51
0.0
  0
LINE
  5
938
330
1A
100
AcDbEntity
  8
SEIHIN
 62
     3
100
AcDbLine
 10
328.509648347087
 20
307.8673831235005
 30
0.0
 11
343.316896347087
 21
307.8673831235005
 31
0.0
  0
LINE
  5
939
330
1A
100
AcDbEntity
  8
SEIHIN
 62
     3
100
AcDbLine
 10
328.509648347087
 20
307.8673831235005
 30
0.0
 11
343.316896347087
 21
307.8673831235005
 31
0.0
  0
LINE
  5
93A
330
1A
100
AcDbEntity
  8
SEIHIN
 62
     3
100
AcDbLine
 10
328.493296347087
 20
308.2673831235005
 30
0.0
 11
333.490809347087
 21
308.2673831235005
 31
0.0
  0
ARC
  5
93B
330
1A
100
AcDbEntity
  8
SEIHIN
 62
     3
100
AcDbCircle
 10
322.374422347087
 20
311.8673511235005
 30
0.0
 40
0.5000000004381011
100
AcDbArc
 50
270.0
 51
350.9999991480861
  0
ARC
  5
93E
330
1A
100
AcDbEntity
  8
SEIHIN
 62
     3
100
AcDbCircle
 10
321.349526177087
 20
313.0673511235005
 30
0.0
 40
6.199999997654025
100
AcDbArc
 50
270.0
 51
351.0000084443393
  0
LINE
  5
942
330
1A
100
AcDbEntity
  8
SEIHIN
 62
     3
100
AcDbLine
 10
316.250623347087
 20
306.8673511235004
 30
0.0
 11
321.349526177087
 21
306.8673511235004
 31
0.0
  0
ARC
  5
945
330
1A
100
AcDbEntity
  8
SEIHIN
 62
     3
100
AcDbCircle
 10
316.334107347087
 20
307.2673511235005
 30
0.0
 40
1.000000000462305
100
AcDbArc
 50
270.0
 51
336.421821544919
  0
ARC
  5
94A
330
1A
100
AcDbEntity
  8
SEIHIN
 62
     3
100
AcDbCircle
 10
328.509648347087
 20
310.0601351235005
 30
0.0
 40
1.792751996555905
100
AcDbArc
 50
105.0000000343158
 51
131.4901295096818
  0
ARC
  5
94B
330
1A
100
AcDbEntity
  8
SEIHIN
 62
     3
100
AcDbCircle
 10
328.509648347087
 20
310.0601351235005
 30
0.0
 40
2.192751996560394
100
AcDbArc
 50
105.000000080988
 51
118.7852858525369
  0
LINE
  5
94C
330
1A
100
AcDbEntity
  8
SEIHIN
 62
     3
100
AcDbLine
 10
328.0335303470871
 20
311.7885541235005
 30
0.0
 11
329.876540347087
 21
312.2823871235004
 31
0.0
  0
LINE
  5
94D
330
1A
100
AcDbEntity
  8
SEIHIN
 62
     3
100
AcDbLine
 10
327.942122347087
 20
312.1781711235005
 30
0.0
 11
329.773013347087
 21
312.6687571235005
 31
0.0
  0
LINE
  5
94E
330
1A
100
AcDbEntity
  8
SEIHIN
 62
     3
100
AcDbLine
 10
333.496896347087
 20
308.2673831235005
 30
0.0
 11
343.316896347087
 21
308.2673831235005
 31
0.0
  0
LINE
  5
94F
330
1A
100
AcDbEntity
  8
SEIHIN
 62
     3
100
AcDbLine
 10
331.603823347087
 20
307.8673831235005
 30
0.0
 11
331.603823347087
 21
308.2673831235005
 31
0.0
  0
LINE
  5
950
330
1A
100
AcDbEntity
  8
SEIHIN
 62
     3
100
AcDbLine
 10
344.3168963470871
 20
311.8610601235005
 30
0.0
 11
343.316896347087
 21
307.8673831235005
 31
0.0
  0
LINE
  5
951
330
1A
100
AcDbEntity
  8
SEIHIN
 62
     3
100
AcDbLine
 10
340.603823347087
 20
307.8673831235005
 30
0.0
 11
340.603823347087
 21
308.2673831235005
 31
0.0
  0
LINE
  5
952
330
1A
100
AcDbEntity
  8
SEIHIN
 62
     3
100
AcDbLine
 10
343.316896347087
 20
307.8673831235005
 30
0.0
 11
343.316896347087
 21
308.2673831235005
 31
0.0
  0
LINE
  5
955
330
1A
100
AcDbEntity
  8
SEIHIN
 62
     3
100
AcDbLine
 10
348.195342987087
 20
298.7085321135005
 30
0.0
 11
350.731769287087
 21
289.2424588835005
 31
0.0
  0
LINE
  5
956
330
1A
100
AcDbEntity
  8
SEIHIN
 62
     3
100
AcDbLine
 10
347.036231987087
 20
298.3979492935005
 30
0.0
 11
349.572658287087
 21
288.9318760735005
 31
0.0
  0
LINE
  5
958
330
1A
100
AcDbEntity
  8
SEIHIN
 62
     3
100
AcDbLine
 10
350.214131267087
 20
291.1743105535005
 30
0.0
 11
349.055020277087
 21
290.8637277035004
 31
0.0
  0
LINE
  5
959
330
1A
100
AcDbEntity
  8
SEIHIN
 62
     3
100
AcDbLine
 10
349.572658297087
 20
288.9318760335005
 30
0.0
 11
350.731769287087
 21
289.2424588835005
 31
0.0
  0
ARC
  5
95C
330
1A
100
AcDbEntity
  8
SEIHIN
 62
     3
100
AcDbCircle
 10
355.700623347087
 20
306.1034191235005
 30
0.0
 40
3.000000004265107
100
AcDbArc
 50
311.8103150062962
 51
0.0
  0
LINE
  5
95D
330
1A
100
AcDbEntity
  8
SEIHIN
 62
     3
100
AcDbLine
 10
349.147321007087
 20
301.1673511235005
 30
0.0
 11
355.500623347087
 21
301.1673511235005
 31
0.0
  0
LINE
  5
95E
330
1A
100
AcDbEntity
  8
SEIHIN
 62
     3
100
AcDbLine
 10
349.161268817087
 20
299.9673511235005
 30
0.0
 11
355.500623347087
 21
299.9673511235005
 31
0.0
  0
ARC
  5
95F
330
1A
100
AcDbEntity
  8
SEIHIN
 62
     3
100
AcDbCircle
 10
349.161268817087
 20
298.9673511235005
 30
0.0
 40
2.199999996916341
100
AcDbArc
 50
180.0000002604354
 51
194.9999981765602
  0
ARC
  5
960
330
1A
100
AcDbEntity
  8
SEIHIN
 62
     3
100
AcDbCircle
 10
349.161268817087
 20
298.9673511235005
 30
0.0
 40
2.199999994483917
100
AcDbArc
 50
90.20054527422605
 51
105.0000000722989
  0
ARC
  5
961
330
1A
100
AcDbEntity
  8
SEIHIN
 62
     3
100
AcDbCircle
 10
349.161268817087
 20
298.9673511235005
 30
0.0
 40
0.9999999972496434
100
AcDbArc
 50
90.0
 51
194.9999980022748
  0
ARC
  5
962
330
1A
100
AcDbEntity
  8
SEIHIN
 62
     3
100
AcDbCircle
 10
349.161268817087
 20
298.9673511235005
 30
0.0
 40
2.199999996315752
100
AcDbArc
 50
105.0000000722989
 51
180.0000002604354
  0
ARC
  5
963
330
1A
100
AcDbEntity
  8
SEIHIN
 62
     3
100
AcDbCircle
 10
349.161268817087
 20
298.9673511235005
 30
0.0
 40
2.199999998168167
100
AcDbArc
 50
90.0
 51
90.20054527422605
  0
ARC
  5
965
330
1A
100
AcDbEntity
  8
SEIHIN
 62
     3
100
AcDbCircle
 10
355.500623347087
 20
302.1673511235005
 30
0.0
 40
1.0
100
AcDbArc
 50
270.0
 51
0.0
  0
ARC
  5
966
330
1A
100
AcDbEntity
  8
SEIHIN
 62
     3
100
AcDbCircle
 10
355.500623347087
 20
302.1673511235005
 30
0.0
 40
2.200000000000001
100
AcDbArc
 50
270.0
 51
0.0
  0
LINE
  5
96A
330
1A
100
AcDbEntity
  8
SEIHIN
 62
     3
100
AcDbLine
 10
355.500623347087
 20
319.8673511235004
 30
0.0
 11
338.353823347087
 21
319.8673511235004
 31
0.0
  0
LINE
  5
96B
330
1A
100
AcDbEntity
  8
SEIHIN
 62
     3
100
AcDbLine
 10
331.607698347087
 20
324.3673511235005
 30
0.0
 11
352.500623347087
 21
324.3673511235005
 31
0.0
  0
ARC
  5
96F
330
1A
100
AcDbEntity
  8
SEIHIN
 62
     3
100
AcDbCircle
 10
331.607698347087
 20
316.4673511235005
 30
0.0
 40
3.400000000887181
100
AcDbArc
 50
90.0
 51
171.0000000241322
  0
ARC
  5
970
330
1A
100
AcDbEntity
  8
SEIHIN
 62
     3
100
AcDbCircle
 10
331.607698347087
 20
316.4673511235005
 30
0.0
 40
7.899999999354902
100
AcDbArc
 50
90.0
 51
171.000000026553
  0
LINE
  5
974
330
1A
100
AcDbEntity
  8
SEIHIN
 62
     3
100
AcDbLine
 10
334.020339347087
 20
318.8673511235005
 30
0.0
 11
338.187308347087
 21
318.8673511235005
 31
0.0
  0
LINE
  5
975
330
1A
100
AcDbEntity
  8
SEIHIN
 62
     3
100
AcDbLine
 10
331.914194347087
 20
319.4673511235005
 30
0.0
 11
341.693394347087
 21
319.4673511235005
 31
0.0
  0
LINE
  5
976
330
1A
100
AcDbEntity
  8
SEIHIN
 62
     3
100
AcDbLine
 10
338.353823347087
 20
319.8673511235004
 30
0.0
 11
333.853823347087
 21
319.8673511235004
 31
0.0
  0
ARC
  5
978
330
1A
100
AcDbEntity
  8
SEIHIN
 62
     3
100
AcDbCircle
 10
334.020339347087
 20
319.8673511235004
 30
0.0
 40
1.000000000462305
100
AcDbArc
 50
203.578178455081
 51
270.0
  0
LINE
  5
979
330
1A
100
AcDbEntity
  8
SEIHIN
 62
     3
100
AcDbLine
 10
333.853823347087
 20
319.8673511235004
 30
0.0
 11
331.607698347087
 21
319.8673511235004
 31
0.0
  0
ARC
  5
97B
330
1A
100
AcDbEntity
  8
SEIHIN
 62
     3
100
AcDbCircle
 10
331.914194347087
 20
318.4673511235005
 30
0.0
 40
1.0
100
AcDbArc
 50
90.0
 51
180.0000005729565
  0
ARC
  5
97C
330
1A
100
AcDbEntity
  8
SEIHIN
 62
     3
100
AcDbCircle
 10
331.914194347087
 20
318.4673511235005
 30
0.0
 40
1.399999999999998
100
AcDbArc
 50
90.0
 51
180.0000004092556
  0
LINE
  5
97F
330
1A
100
AcDbEntity
  8
SEIHIN
 62
     3
100
AcDbLine
 10
342.816896347087
 20
319.2643111235005
 30
0.0
 11
339.255552347087
 21
319.2643111235005
 31
0.0
  0
LINE
  5
980
330
1A
100
AcDbEntity
  8
SEIHIN
 62
     3
100
AcDbLine
 10
342.816896347087
 20
319.3199811235004
 30
0.0
 11
339.279756347087
 21
319.3199811235004
 31
0.0
  0
ARC
  5
981
330
1A
100
AcDbEntity
  8
SEIHIN
 62
     3
100
AcDbCircle
 10
338.187308347087
 20
319.8673511235004
 30
0.0
 40
1.000000005160678
100
AcDbArc
 50
325.0882877584606
 51
336.421821544919
  0
ARC
  5
982
330
1A
100
AcDbEntity
  8
SEIHIN
 62
     3
100
AcDbCircle
 10
338.187308347087
 20
319.8673511235004
 30
0.0
 40
1.000000000760434
100
AcDbArc
 50
270.0
 51
271.0792212267711
  0
ARC
  5
983
330
1A
100
AcDbEntity
  8
SEIHIN
 62
     3
100
AcDbCircle
 10
338.187308347087
 20
319.8673511235004
 30
0.0
 40
1.000000005458808
100
AcDbArc
 50
271.0792212267711
 51
325.0882877584606
  0
ARC
  5
984
330
1A
100
AcDbEntity
  8
SEIHIN
 62
     3
100
AcDbCircle
 10
339.279756347087
 20
317.8199811235005
 30
0.0
 40
1.499999998366152
100
AcDbArc
 50
90.00000190985865
 51
156.5014370654866
  0
ARC
  5
987
330
1A
100
AcDbEntity
  8
SEIHIN
 62
     3
100
AcDbCircle
 10
339.255552347087
 20
317.7643111235005
 30
0.0
 40
1.499999998565515
100
AcDbArc
 50
90.0
 51
156.5014341565161
  0
LINE
  5
988
330
1A
100
AcDbEntity
  8
SEIHIN
 62
     3
100
AcDbLine
 10
341.693394347087
 20
319.4673511235005
 30
0.0
 11
341.693394347087
 21
319.8673511235004
 31
0.0
  0
ARC
  5
989
330
1A
100
AcDbEntity
  8
SEIHIN
 62
     3
100
AcDbCircle
 10
342.816896347087
 20
317.7643111235005
 30
0.0
 40
1.5
100
AcDbArc
 50
0.0
 51
90.0
  0
ARC
  5
98A
330
1A
100
AcDbEntity
  8
SEIHIN
 62
     3
100
AcDbCircle
 10
342.816896347087
 20
317.8199811235005
 30
0.0
 40
1.5
100
AcDbArc
 50
0.0
 51
90.0
  0
ARC
  5
98E
330
1A
100
AcDbEntity
  8
SEIHIN
 62
     3
100
AcDbCircle
 10
355.500623347087
 20
318.8673511235005
 30
0.0
 40
3.200000000000001
100
AcDbArc
 50
0.0
 51
90.0
  0
LINE
  5
98F
330
1A
100
AcDbEntity
  8
SEIHIN
 62
     3
100
AcDbLine
 10
354.500623347087
 20
322.3673511235005
 30
0.0
 11
354.500623347087
 21
319.8673511235004
 31
0.0
  0
ARC
  5
990
330
1A
100
AcDbEntity
  8
SEIHIN
 62
     3
100
AcDbCircle
 10
355.500623347087
 20
318.8673511235005
 30
0.0
 40
1.0
100
AcDbArc
 50
0.0
 51
90.0
  0
ARC
  5
991
330
1A
100
AcDbEntity
  8
SEIHIN
 62
     3
100
AcDbCircle
 10
355.500623347087
 20
318.8673511235005
 30
0.0
 40
2.200000000000001
100
AcDbArc
 50
0.0
 51
90.0
  0
LINE
  5
992
330
1A
100
AcDbEntity
  8
SEIHIN
 62
     3
100
AcDbLine
 10
355.500623347087
 20
321.0673511235005
 30
0.0
 11
354.500623347087
 21
321.0673511235005
 31
0.0
  0
ARC
  5
994
330
1A
100
AcDbEntity
  8
SEIHIN
 62
     3
100
AcDbCircle
 10
352.500623347087
 20
322.3673511235005
 30
0.0
 40
2.000000000000001
100
AcDbArc
 50
0.0
 51
90.0
  0
LINE
  5
996
330
1A
100
AcDbEntity
  8
SEIHIN
 62
     3
100
AcDbLine
 10
354.500623347087
 20
322.0673511235005
 30
0.0
 11
355.500623347087
 21
322.0673511235005
 31
0.0
  0
LINE
  5
998
330
1A
100
AcDbEntity
  8
SEIHIN
 62
     3
100
AcDbLine
 10
243.570579377087
 20
469.2954103359483
 30
0.0
 11
354.300577347087
 21
469.2954103359483
 31
0.0
  0
LINE
  5
999
330
1A
100
AcDbEntity
  8
SEIHIN
 62
     3
100
AcDbLine
 10
243.570579377087
 20
453.3954103359483
 30
0.0
 11
354.300577347087
 21
453.3954103359483
 31
0.0
  0
LINE
  5
99A
330
1A
100
AcDbEntity
  8
SEIHIN
 62
     3
100
AcDbLine
 10
243.570579377087
 20
468.0954103359482
 30
0.0
 11
357.700577347087
 21
468.0954103359482
 31
0.0
  0
LINE
  5
99B
330
1A
100
AcDbEntity
  8
SEIHIN
 62
     3
100
AcDbLine
 10
243.570579377087
 20
454.5954103359482
 30
0.0
 11
357.700577347087
 21
454.5954103359482
 31
0.0
  0
LINE
  5
99D
330
1A
100
AcDbEntity
  8
SEIHIN
 62
     3
100
AcDbLine
 10
240.723579077087
 20
467.0954103359482
 30
0.0
 11
240.723579077087
 21
455.5954103359482
 31
0.0
  0
LINE
  5
99E
330
1A
100
AcDbEntity
  8
SEIHIN
 62
     3
100
AcDbLine
 10
238.470623377087
 20
455.5954103359482
 30
0.0
 11
238.470623377087
 21
458.3454103359482
 31
0.0
  0
LINE
  5
99F
330
1A
100
AcDbEntity
  8
SEIHIN
 62
     3
100
AcDbLine
 10
239.470623377087
 20
459.2808328210726
 30
0.0
 11
239.470623377087
 21
463.4099878508238
 31
0.0
  0
LINE
  5
9A0
330
1A
100
AcDbEntity
  8
SEIHIN
 62
     3
100
AcDbLine
 10
239.470623377087
 20
459.2808328210726
 30
0.0
 11
238.470623377087
 21
458.3454103359482
 31
0.0
  0
LINE
  5
9A1
330
1A
100
AcDbEntity
  8
SEIHIN
 62
     3
100
AcDbLine
 10
241.470623377087
 20
455.5954103359482
 30
0.0
 11
241.470623377087
 21
467.0954103359482
 31
0.0
  0
LINE
  5
9A2
330
1A
100
AcDbEntity
  8
SEIHIN
 62
     3
100
AcDbLine
 10
238.470623377087
 20
455.5954103359482
 30
0.0
 11
240.723579077087
 21
455.5954103359482
 31
0.0
  0
LINE
  5
9A3
330
1A
100
AcDbEntity
  8
SEIHIN
 62
     3
100
AcDbLine
 10
243.570579377087
 20
454.5954103359482
 30
0.0
 11
243.570579377087
 21
454.5954103359482
 31
0.0
  0
LINE
  5
9A4
330
1A
100
AcDbEntity
  8
SEIHIN
 62
     3
100
AcDbLine
 10
243.570579377087
 20
453.3954103359483
 30
0.0
 11
243.570579377087
 21
454.5954103359482
 31
0.0
  0
LINE
  5
9A5
330
1A
100
AcDbEntity
  8
SEIHIN
 62
     3
100
AcDbLine
 10
240.723579077087
 20
455.5954103359482
 30
0.0
 11
242.570579377087
 21
455.5954103359482
 31
0.0
  0
LINE
  5
9A7
330
1A
100
AcDbEntity
  8
SEIHIN
 62
     3
100
AcDbLine
 10
238.470623377087
 20
464.3454103359482
 30
0.0
 11
239.470623377087
 21
463.4099878508238
 31
0.0
  0
LINE
  5
9A8
330
1A
100
AcDbEntity
  8
SEIHIN
 62
     3
100
AcDbLine
 10
238.470623377087
 20
467.0954103359482
 30
0.0
 11
240.723579077087
 21
467.0954103359482
 31
0.0
  0
LINE
  5
9AA
330
1A
100
AcDbEntity
  8
SEIHIN
 62
     3
100
AcDbLine
 10
240.723579077087
 20
467.0954103359482
 30
0.0
 11
242.570579377087
 21
467.0954103359482
 31
0.0
  0
LINE
  5
9AB
330
1A
100
AcDbEntity
  8
SEIHIN
 62
     3
100
AcDbLine
 10
243.570579377087
 20
468.0954103359482
 30
0.0
 11
243.570579377087
 21
468.0954103359482
 31
0.0
  0
LINE
  5
9AC
330
1A
100
AcDbEntity
  8
SEIHIN
 62
     3
100
AcDbLine
 10
243.570579377087
 20
468.0954103359482
 30
0.0
 11
243.570579377087
 21
469.2954103359483
 31
0.0
  0
CIRCLE
  5
9AE
330
1A
100
AcDbEntity
  8
SEIHIN
 62
     3
100
AcDbCircle
 10
314.250623347087
 20
461.3454103359482
 30
0.0
 40
3.5
  0
LINE
  5
9B1
330
1A
100
AcDbEntity
  8
SEIHIN
 62
     3
100
AcDbLine
 10
304.250623347087
 20
467.8454103359483
 30
0.0
 11
320.250623347087
 21
467.8454103359483
 31
0.0
  0
LINE
  5
9B2
330
1A
100
AcDbEntity
  8
SEIHIN
 62
     3
100
AcDbLine
 10
320.250623347087
 20
454.8454103359482
 30
0.0
 11
304.250623347087
 21
454.8454103359482
 31
0.0
  0
LINE
  5
9B4
330
1A
100
AcDbEntity
  8
SEIHIN
 62
     3
100
AcDbLine
 10
276.250577377087
 20
458.8454103359482
 30
0.0
 11
304.250623347087
 21
458.8454103359482
 31
0.0
  0
LINE
  5
9B5
330
1A
100
AcDbEntity
  8
SEIHIN
 62
     3
100
AcDbLine
 10
276.250577377087
 20
463.8454103359483
 30
0.0
 11
304.250623347087
 21
463.8454103359483
 31
0.0
  0
ARC
  5
9B6
330
1A
100
AcDbEntity
  8
SEIHIN
 62
     3
100
AcDbCircle
 10
276.250577377087
 20
461.3454103359482
 30
0.0
 40
2.5
100
AcDbArc
 50
180.0000002291823
 51
270.0
  0
LINE
  5
9B7
330
1A
100
AcDbEntity
  8
SEIHIN
 62
     3
100
AcDbLine
 10
270.250534377087
 20
454.5954103359482
 30
0.0
 11
270.250534377087
 21
468.0954103359482
 31
0.0
  0
ARC
  5
9B8
330
1A
100
AcDbEntity
  8
SEIHIN
 62
     3
100
AcDbCircle
 10
276.250577377087
 20
461.3454103359482
 30
0.0
 40
2.5
100
AcDbArc
 50
90.0
 51
180.0000002291823
  0
LINE
  5
9BA
330
1A
100
AcDbEntity
  8
SEIHIN
 62
     3
100
AcDbLine
 10
304.250623347087
 20
454.8454103359482
 30
0.0
 11
304.250623347087
 21
467.8454103359483
 31
0.0
  0
LINE
  5
9C0
330
1A
100
AcDbEntity
  8
SEIHIN
 62
     3
100
AcDbLine
 10
358.700623347087
 20
454.8454103359482
 30
0.0
 11
324.135883047087
 21
454.8454103359482
 31
0.0
  0
LINE
  5
9C1
330
1A
100
AcDbEntity
  8
SEIHIN
 62
     3
100
AcDbLine
 10
324.135883047087
 20
467.8454103359483
 30
0.0
 11
358.700623347087
 21
467.8454103359483
 31
0.0
  0
LINE
  5
9C5
330
1A
100
AcDbEntity
  8
SEIHIN
 62
     3
100
AcDbLine
 10
320.250623347087
 20
467.8454103359483
 30
0.0
 11
320.250623347087
 21
454.8454103359482
 31
0.0
  0
LINE
  5
9C6
330
1A
100
AcDbEntity
  8
SEIHIN
 62
     3
100
AcDbLine
 10
324.135883047087
 20
454.8454103359482
 30
0.0
 11
324.135883047087
 21
467.8454103359483
 31
0.0
  0
ARC
  5
9C8
330
1A
100
AcDbEntity
  8
SEIHIN
 62
     3
100
AcDbCircle
 10
331.653458347087
 20
452.9954103359482
 30
0.0
 40
1.499999998528055
100
AcDbArc
 50
184.0535363990665
 51
270.0
  0
LINE
  5
9C9
330
1A
100
AcDbEntity
  8
SEIHIN
 62
     3
100
AcDbLine
 10
324.135883047087
 20
454.8454103359482
 30
0.0
 11
320.250623347087
 21
454.8454103359482
 31
0.0
  0
ARC
  5
9CA
330
1A
100
AcDbEntity
  8
SEIHIN
 62
     3
100
AcDbCircle
 10
342.816842347087
 20
454.9359223359482
 30
0.0
 40
5.442212002086844
100
AcDbArc
 50
270.0
 51
285.9991570397959
  0
ARC
  5
9CB
330
1A
100
AcDbEntity
  8
SEIHIN
 62
     3
100
AcDbCircle
 10
338.710007347087
 20
452.1312663359482
 30
0.0
 40
2.637556000059316
100
AcDbArc
 50
252.1688580385967
 51
270.0
  0
LINE
  5
9CC
330
1A
100
AcDbEntity
  8
SEIHIN
 62
     3
100
AcDbLine
 10
343.316842347087
 20
451.4954103359482
 30
0.0
 11
331.653458347087
 21
451.4954103359482
 31
0.0
  0
LINE
  5
9CD
330
1A
100
AcDbEntity
  8
SEIHIN
 62
     3
100
AcDbLine
 10
333.316831347087
 20
451.0954103359482
 30
0.0
 11
337.902354347087
 21
449.6204103359482
 31
0.0
  0
LINE
  5
9CE
330
1A
100
AcDbEntity
  8
SEIHIN
 62
     3
100
AcDbLine
 10
333.316831347087
 20
451.4954103359482
 30
0.0
 11
338.036666347087
 21
449.9772073359483
 31
0.0
  0
LINE
  5
9CF
330
1A
100
AcDbEntity
  8
SEIHIN
 62
     3
100
AcDbLine
 10
333.316831347087
 20
451.0954103359482
 30
0.0
 11
333.316831347087
 21
451.4954103359482
 31
0.0
  0
LINE
  5
9D0
330
1A
100
AcDbEntity
  8
SEIHIN
 62
     3
100
AcDbLine
 10
330.157211347087
 20
453.3454103359482
 30
0.0
 11
330.157211347087
 21
452.8893773359483
 31
0.0
  0
ARC
  5
9D1
330
1A
100
AcDbEntity
  8
SEIHIN
 62
     3
100
AcDbCircle
 10
328.657211347087
 20
453.3454103359482
 30
0.0
 40
1.500000002470376
100
AcDbArc
 50
0.0
 51
1.910213165415673
  0
LINE
  5
9D2
330
1A
100
AcDbEntity
  8
SEIHIN
 62
     3
100
AcDbLine
 10
338.710007347087
 20
449.8898103359482
 30
0.0
 11
342.816842347087
 21
449.8898103359482
 31
0.0
  0
LINE
  5
9D3
330
1A
100
AcDbEntity
  8
SEIHIN
 62
     3
100
AcDbLine
 10
342.816842347087
 20
449.4937103359482
 30
0.0
 11
338.710007347087
 21
449.4937103359482
 31
0.0
  0
ARC
  5
9D4
330
1A
100
AcDbEntity
  8
SEIHIN
 62
     3
100
AcDbCircle
 10
338.710007347087
 20
452.5273663359483
 30
0.0
 40
2.637556001082227
100
AcDbArc
 50
255.209254168823
 51
270.0
  0
LINE
  5
9D5
330
1A
100
AcDbEntity
  8
SEIHIN
 62
     3
100
AcDbLine
 10
344.316842347087
 20
449.7045103359482
 30
0.0
 11
344.316842347087
 21
450.9375103359483
 31
0.0
  0
LINE
  5
9D6
330
1A
100
AcDbEntity
  8
SEIHIN
 62
     3
100
AcDbLine
 10
344.316842347087
 20
450.9375103359483
 30
0.0
 11
343.316842347087
 21
451.4954103359482
 31
0.0
  0
LINE
  5
9D7
330
1A
100
AcDbEntity
  8
SEIHIN
 62
     3
100
AcDbLine
 10
343.316842347087
 20
453.3954103359483
 30
0.0
 11
343.316842347087
 21
451.4954103359482
 31
0.0
  0
ARC
  5
9D8
330
1A
100
AcDbEntity
  8
SEIHIN
 62
     3
100
AcDbCircle
 10
342.816842347087
 20
455.3320223359483
 30
0.0
 40
5.442212002086848
100
AcDbArc
 50
270.0
 51
285.9991570397959
  0
ARC
  5
9D9
330
1A
100
AcDbEntity
  8
SEIHIN
 62
     3
100
AcDbCircle
 10
331.653458347087
 20
469.6954103359482
 30
0.0
 40
1.49999999782117
100
AcDbArc
 50
90.0
 51
175.9464643629666
  0
LINE
  5
9DA
330
1A
100
AcDbEntity
  8
SEIHIN
 62
     3
100
AcDbLine
 10
320.250623347087
 20
467.8454103359483
 30
0.0
 11
324.135883047087
 21
467.8454103359483
 31
0.0
  0
LINE
  5
9DC
330
1A
100
AcDbEntity
  8
SEIHIN
 62
     3
100
AcDbLine
 10
333.316831347087
 20
471.5954103359482
 30
0.0
 11
337.902354347087
 21
473.0704103359482
 31
0.0
  0
LINE
  5
9DD
330
1A
100
AcDbEntity
  8
SEIHIN
 62
     3
100
AcDbLine
 10
333.316831347087
 20
471.1954103359483
 30
0.0
 11
338.036666347087
 21
472.7136143359482
 31
0.0
  0
LINE
  5
9DE
330
1A
100
AcDbEntity
  8
SEIHIN
 62
     3
100
AcDbLine
 10
344.316842347087
 20
471.7533103359483
 30
0.0
 11
343.316842347087
 21
471.1954103359483
 31
0.0
  0
LINE
  5
9DF
330
1A
100
AcDbEntity
  8
SEIHIN
 62
     3
100
AcDbLine
 10
343.316842347087
 20
471.1954103359483
 30
0.0
 11
331.653458347087
 21
471.1954103359483
 31
0.0
  0
LINE
  5
9E0
330
1A
100
AcDbEntity
  8
SEIHIN
 62
     3
100
AcDbLine
 10
333.316831347087
 20
471.5954103359482
 30
0.0
 11
333.316831347087
 21
471.1954103359483
 31
0.0
  0
LINE
  5
9E1
330
1A
100
AcDbEntity
  8
SEIHIN
 62
     3
100
AcDbLine
 10
330.157211347087
 20
469.3454103359482
 30
0.0
 11
330.157211347087
 21
469.8014433359483
 31
0.0
  0
ARC
  5
9E2
330
1A
100
AcDbEntity
  8
SEIHIN
 62
     3
100
AcDbCircle
 10
328.657211347087
 20
469.3454103359482
 30
0.0
 40
1.500000002470376
100
AcDbArc
 50
358.0897868345843
 51
0.0
  0
LINE
  5
9E3
330
1A
100
AcDbEntity
  8
SEIHIN
 62
     3
100
AcDbLine
 10
343.316842347087
 20
469.2954103359483
 30
0.0
 11
343.316842347087
 21
471.1954103359483
 31
0.0
  0
LINE
  5
9E4
330
1A
100
AcDbEntity
  8
SEIHIN
 62
     3
100
AcDbLine
 10
342.816842347087
 20
473.1971103359483
 30
0.0
 11
338.710007347087
 21
473.1971103359483
 31
0.0
  0
LINE
  5
9E5
330
1A
100
AcDbEntity
  8
SEIHIN
 62
     3
100
AcDbLine
 10
338.710007347087
 20
472.8010103359483
 30
0.0
 11
342.816842347087
 21
472.8010103359483
 31
0.0
  0
ARC
  5
9E6
330
1A
100
AcDbEntity
  8
SEIHIN
 62
     3
100
AcDbCircle
 10
338.710007347087
 20
470.1634553359482
 30
0.0
 40
2.637555997524348
100
AcDbArc
 50
90.0
 51
104.7907460966655
  0
ARC
  5
9E7
330
1A
100
AcDbEntity
  8
SEIHIN
 62
     3
100
AcDbCircle
 10
338.710007347087
 20
470.5595553359483
 30
0.0
 40
2.637555995299503
100
AcDbArc
 50
90.0
 51
107.8311420279226
  0
ARC
  5
9E8
330
1A
100
AcDbEntity
  8
SEIHIN
 62
     3
100
AcDbCircle
 10
342.816842347087
 20
467.7548983359482
 30
0.0
 40
5.442211997280518
100
AcDbArc
 50
74.00084293118777
 51
90.0
  0
ARC
  5
9E9
330
1A
100
AcDbEntity
  8
SEIHIN
 62
     3
100
AcDbCircle
 10
342.816842347087
 20
467.3587983359482
 30
0.0
 40
5.442211997280526
100
AcDbArc
 50
74.00084293118777
 51
90.0
  0
LINE
  5
9EA
330
1A
100
AcDbEntity
  8
SEIHIN
 62
     3
100
AcDbLine
 10
344.316842347087
 20
472.9863103359482
 30
0.0
 11
344.316842347087
 21
471.7533103359483
 31
0.0
  0
LINE
  5
9F0
330
1A
100
AcDbEntity
  8
SEIHIN
 62
     3
100
AcDbLine
 10
361.700623347087
 20
454.8454103359482
 30
0.0
 11
358.700623347087
 21
454.8454103359482
 31
0.0
  0
LINE
  5
9F3
330
1A
100
AcDbEntity
  8
SEIHIN
 62
     3
100
AcDbLine
 10
354.300577347087
 20
453.3954103359483
 30
0.0
 11
354.300577347087
 21
454.5954103359482
 31
0.0
  0
LINE
  5
9F4
330
1A
100
AcDbEntity
  8
SEIHIN
 62
     3
100
AcDbLine
 10
357.700577347087
 20
454.5954103359482
 30
0.0
 11
357.700577347087
 21
454.8454103359482
 31
0.0
  0
LINE
  5
9F6
330
1A
100
AcDbEntity
  8
SEIHIN
 62
     3
100
AcDbLine
 10
361.700623347087
 20
454.8454103359482
 30
0.0
 11
373.534182817087
 21
454.8454103359482
 31
0.0
  0
LINE
  5
9F7
330
1A
100
AcDbEntity
  8
SEIHIN
 62
     3
100
AcDbLine
 10
358.700623347087
 20
467.8454103359483
 30
0.0
 11
361.700623347087
 21
467.8454103359483
 31
0.0
  0
LINE
  5
9FC
330
1A
100
AcDbEntity
  8
SEIHIN
 62
     3
100
AcDbLine
 10
354.300577347087
 20
468.0954103359482
 30
0.0
 11
354.300577347087
 21
469.2954103359483
 31
0.0
  0
LINE
  5
9FD
330
1A
100
AcDbEntity
  8
SEIHIN
 62
     3
100
AcDbLine
 10
357.700577347087
 20
467.8454103359483
 30
0.0
 11
357.700577347087
 21
468.0954103359482
 31
0.0
  0
LINE
  5
9FE
330
1A
100
AcDbEntity
  8
SEIHIN
 62
     3
100
AcDbLine
 10
361.700623347087
 20
467.8454103359483
 30
0.0
 11
373.534182817087
 21
467.8454103359483
 31
0.0
  0
ARC
  5
B44
330
1A
100
AcDbEntity
  8
SEIHIN
 62
     3
100
AcDbCircle
 10
328.509648347087
 20
310.0601351235005
 30
0.0
 40
2.192751996560394
100
AcDbArc
 50
195.6503830753083
 51
270.0
  0
ARC
  5
B45
330
1A
100
AcDbEntity
  8
SEIHIN
 62
     3
100
AcDbCircle
 10
328.509648347087
 20
310.0601351235005
 30
0.0
 40
1.792751996555905
100
AcDbArc
 50
182.9455394181632
 51
270.0
  0
LINE
  5
B4A
330
1A
100
AcDbEntity
  8
SEIHIN
 62
     3
100
AcDbLine
 10
238.470623377087
 20
464.3454103359482
 30
0.0
 11
238.470623377087
 21
467.0954103359482
 31
0.0
  0
ARC
  5
B4B
330
1A
100
AcDbEntity
  8
SEIHIN
 62
     3
100
AcDbCircle
 10
242.570579377087
 20
454.5954103359482
 30
0.0
 40
1.0
100
AcDbArc
 50
0.0
 51
90.0
  0
ARC
  5
B4C
330
1A
100
AcDbEntity
  8
SEIHIN
 62
     3
100
AcDbCircle
 10
242.570579377087
 20
468.0954103359482
 30
0.0
 40
1.0
100
AcDbArc
 50
270.0
 51
0.0
  0
LINE
  5
B4D
330
1A
100
AcDbEntity
  8
CENTER_L
100
AcDbLine
 10
226.6291738842915
 20
461.3454103359482
 30
0.0
 11
527.7458789348362
 21
461.3454103359482
 31
0.0
  0
DIMENSION
  5
BD9
330
1A
100
AcDbEntity
  8
SUNPOU
100
AcDbDimension
  2
*D1
 10
238.470623356273
 20
353.4016034603871
 30
0.0
 11
301.8606233516801
 21
358.4016034603871
 31
0.0
 70
    32
  3
STANDARD
100
AcDbAlignedDimension
 13
365.2506233470871
 23
318.0673511235005
 33
0.0
 14
238.470623356273
 24
305.0673511235005
 34
0.0
100
AcDbRotatedDimension
1001
ACAD
1000
DSTYLE
1002
{
1070
    41
1040
3.0
1070
    42
1040
6.0
1070
    43
1040
14.0
1070
    44
1040
3.0
1070
    73
1070
     0
1070
    74
1070
     0
1070
    77
1070
     3
1070
   140
1040
6.0
1070
   141
1040
10.0
1070
   147
1040
2.0
1070
   172
1070
     1
1070
   173
1070
     1
1070
   176
1070
   256
1070
   177
1070
   256
1070
   178
1070
   256
1070
   271
1070
     0
1070
   272
1070
     0
1070
   341
1005
6D
1070
     6
1000
OPEN
1070
     7
1000
OPEN
1002
}
  0
DIMENSION
  5
BE6
330
1A
100
AcDbEntity
  8
SUNPOU
100
AcDbDimension
  2
*D2
 10
199.2804025510886
 20
453.3954103359483
 30
0.0
 11
194.2804025510885
 21
461.3454103359483
 31
0.0
 70
    32
  3
STANDARD
100
AcDbAlignedDimension
 13
243.570579377087
 23
469.2954103359483
 33
0.0
 14
243.570579377087
 24
453.3954103359483
 34
0.0
 50
90.0
100
AcDbRotatedDimension
1001
ACAD
1000
DSTYLE
1002
{
1070
    41
1040
3.0
1070
    42
1040
6.0
1070
    43
1040
14.0
1070
    44
1040
3.0
1070
    73
1070
     0
1070
    74
1070
     0
1070
    77
1070
     3
1070
   140
1040
6.0
1070
   141
1040
10.0
1070
   147
1040
2.0
1070
   172
1070
     1
1070
   173
1070
     1
1070
   176
1070
   256
1070
   177
1070
   256
1070
   178
1070
   256
1070
   271
1070
     0
1070
   272
1070
     0
1070
   341
1005
6D
1070
     6
1000
OPEN
1070
     7
1000
OPEN
1002
}
  0
LINE
  5
F58
330
1A
100
AcDbEntity
  8
SEIHIN
100
AcDbLine
 10
372.5181217470871
 20
287.7575306235005
 30
0.0
 11
498.6151273470873
 21
338.7040233235005
 31
0.0
  0
LINE
  5
F59
330
1A
100
AcDbEntity
  8
SEIHIN
100
AcDbLine
 10
374.7657611470871
 20
282.1944274235005
 30
0.0
 11
500.8627666470873
 21
333.1409201235005
 31
0.0
  0
LINE
  5
F5A
330
1A
100
AcDbEntity
  8
SEIHIN
100
AcDbLine
 10
365.2506233470871
 20
318.0673511235005
 30
0.0
 11
365.2506233470871
 21
295.0673511235005
 31
0.0
  0
LINE
  5
F5B
330
1A
100
AcDbEntity
  8
SEIHIN
100
AcDbLine
 10
362.2506233470871
 20
318.0673511235005
 30
0.0
 11
362.2506233470871
 21
294.4842101235005
 31
0.0
  0
LINE
  5
F5C
330
1A
100
AcDbEntity
  8
SEIHIN
100
AcDbLine
 10
362.2506233470871
 20
294.4842101235005
 30
0.0
 11
365.8405324470872
 21
285.5988731235005
 31
0.0
  0
LINE
  5
F5D
330
1A
100
AcDbEntity
  8
SEIHIN
100
AcDbLine
 10
368.4627771470871
 20
279.1085894235005
 30
0.0
 11
371.8342363470871
 21
270.7639351235005
 31
0.0
  0
LINE
  5
F5E
330
1A
100
AcDbEntity
  8
SEIHIN
100
AcDbLine
 10
371.0570272470871
 20
280.6959976235004
 30
0.0
 11
374.6157883470871
 21
271.8877551235005
 31
0.0
  0
LINE
  5
F5F
330
1A
100
AcDbEntity
  8
SEIHIN
100
AcDbLine
 10
371.8342363470871
 20
270.7639351235005
 30
0.0
 11
374.6157883470871
 21
271.8877551235005
 31
0.0
  0
LINE
  5
F60
330
1A
100
AcDbEntity
  8
SEIHIN
100
AcDbLine
 10
372.5181217470871
 20
287.7575306235005
 30
0.0
 11
374.7657611470871
 21
282.1944274235005
 31
0.0
  0
LINE
  5
F61
330
1A
100
AcDbEntity
  8
SEIHIN
100
AcDbLine
 10
369.7646982470871
 20
289.2335587235005
 30
0.0
 11
373.8104491470871
 21
279.2199730235005
 31
0.0
  0
LINE
  5
F62
330
1A
100
AcDbEntity
  8
SEIHIN
100
AcDbLine
 10
365.8405324470872
 20
285.5988731235005
 30
0.0
 11
368.4627771470871
 21
279.1085894235005
 31
0.0
  0
LINE
  5
F63
330
1A
100
AcDbEntity
  8
SEIHIN
100
AcDbLine
 10
367.9103304470871
 20
288.4843456235005
 30
0.0
 11
371.0944863470871
 21
280.6032828235005
 31
0.0
  0
ARC
  5
F64
330
1A
100
AcDbEntity
  8
SEIHIN
100
AcDbCircle
 10
372.3670581470871
 20
284.4608910235005
 30
0.0
 40
6.624993717619814
100
AcDbArc
 50
170.1091925164112
 51
233.8908071907933
  0
LINE
  5
F66
330
1A
100
AcDbEntity
  8
SEIHIN
100
AcDbLine
 10
373.8104491470871
 20
279.2199730235005
 30
0.0
 11
371.9560814470871
 21
278.4707599235005
 31
0.0
  0
LINE
  5
F67
330
1A
100
AcDbEntity
  8
SEIHIN
100
AcDbLine
 10
374.7657611470871
 20
282.1944274235005
 30
0.0
 11
373.8104491470871
 21
279.2199730235005
 31
0.0
  0
LINE
  5
F68
330
1A
100
AcDbEntity
  8
SEIHIN
100
AcDbLine
 10
367.9103304470871
 20
288.4843456235005
 30
0.0
 11
369.7646982470871
 21
289.2335587235005
 31
0.0
  0
LINE
  5
F69
330
1A
100
AcDbEntity
  8
SEIHIN
100
AcDbLine
 10
369.7646982470871
 20
289.2335587235005
 30
0.0
 11
372.5181217470871
 21
287.7575306235005
 31
0.0
  0
LINE
  5
F6B
330
1A
100
AcDbEntity
  8
SEIHIN
100
AcDbLine
 10
365.2506233470871
 20
295.0673511235005
 30
0.0
 11
368.8093875470871
 21
286.2591007235005
 31
0.0
  0
ARC
  5
F6C
330
1A
100
AcDbEntity
  8
SEIHIN
100
AcDbCircle
 10
358.2506233470871
 20
318.0673511235005
 30
0.0
 40
7.0
100
AcDbArc
 50
0.0
 51
90.0
  0
ARC
  5
F6D
330
1A
100
AcDbEntity
  8
SEIHIN
100
AcDbCircle
 10
358.2506233470871
 20
318.0673511235005
 30
0.0
 40
4.0
100
AcDbArc
 50
0.0
 51
90.0
  0
LINE
  5
F6E
330
1A
100
AcDbEntity
  8
SEIHIN
100
AcDbLine
 10
498.6151273470873
 20
338.7040233235005
 30
0.0
 11
509.0107855470874
 21
339.6685377235006
 31
0.0
  0
LINE
  5
F6F
330
1A
100
AcDbEntity
  8
SEIHIN
100
AcDbLine
 10
498.6151273470873
 20
338.7040233235005
 30
0.0
 11
500.8627666470873
 21
333.1409201235005
 31
0.0
  0
LINE
  5
F70
330
1A
100
AcDbEntity
  8
SEIHIN
100
AcDbLine
 10
498.6151272470873
 20
338.7040233235005
 30
0.0
 11
498.6151273470873
 21
338.7040233235005
 31
0.0
  0
LINE
  5
F71
330
1A
100
AcDbEntity
  8
SEIHIN
100
AcDbLine
 10
509.0107855470874
 20
339.6685377235006
 30
0.0
 11
500.8627666470873
 21
333.1409201235005
 31
0.0
  0
LINE
  5
F72
330
1A
100
AcDbEntity
  8
SEIHIN
100
AcDbLine
 10
331.3732013470871
 20
325.0673511235005
 30
0.0
 11
358.2506233470871
 21
325.0673511235005
 31
0.0
  0
LINE
  5
F73
330
1A
100
AcDbEntity
  8
SEIHIN
100
AcDbLine
 10
354.4779953404155
 20
322.0673511235005
 30
0.0
 11
358.2506233470871
 21
322.0673511235005
 31
0.0
  0
LINE
  5
F74
330
1A
100
AcDbEntity
  8
SEIHIN
100
AcDbLine
 10
498.6151272470872
 20
464.3454103359482
 30
0.0
 11
373.6419414470871
 21
464.3454103359482
 31
0.0
  0
LINE
  5
F75
330
1A
100
AcDbEntity
  8
SEIHIN
100
AcDbLine
 10
373.6419414470871
 20
458.3454103359482
 30
0.0
 11
498.6151272470872
 21
458.3454103359482
 31
0.0
  0
LINE
  5
F76
330
1A
100
AcDbEntity
  8
SEIHIN
100
AcDbLine
 10
362.2506233470871
 20
467.8454103359483
 30
0.0
 11
365.2506233470871
 21
467.8454103359483
 31
0.0
  0
LINE
  5
F77
330
1A
100
AcDbEntity
  8
SEIHIN
100
AcDbLine
 10
365.2506233470871
 20
454.8454103359482
 30
0.0
 11
362.2506233470871
 21
454.8454103359482
 31
0.0
  0
LINE
  5
F7B
330
1A
100
AcDbEntity
  8
SEIHIN
100
AcDbLine
 10
371.7875736470871
 20
455.9454103359483
 30
0.0
 11
373.6419414470871
 21
458.3454103359482
 31
0.0
  0
LINE
  5
F7C
330
1A
100
AcDbEntity
  8
SEIHIN
100
AcDbLine
 10
374.6157883470871
 20
458.3454103359482
 30
0.0
 11
374.6157883470871
 21
454.8454103359482
 31
0.0
  0
ARC
  5
F7D
330
1A
100
AcDbEntity
  8
SEIHIN
100
AcDbCircle
 10
377.9836978470871
 20
461.3454103359482
 30
0.0
 40
8.218999641186602
100
AcDbArc
 50
138.9274408431419
 51
221.072559156858
  0
ARC
  5
F7E
330
1A
100
AcDbEntity
  8
SEIHIN
100
AcDbCircle
 10
376.1293306470871
 20
461.3454103359482
 30
0.0
 40
8.219000168901308
100
AcDbArc
 50
138.9274440492386
 51
221.0725559507613
  0
LINE
  5
F7F
330
1A
100
AcDbEntity
  8
SEIHIN
100
AcDbLine
 10
365.2506233470871
 20
454.8454103359482
 30
0.0
 11
365.2506233470871
 21
467.8454103359483
 31
0.0
  0
LINE
  5
F80
330
1A
100
AcDbEntity
  8
SEIHIN
100
AcDbLine
 10
371.7875736470871
 20
455.9454103359483
 30
0.0
 11
369.9332057470872
 21
455.9454103359483
 31
0.0
  0
LINE
  5
F81
330
1A
100
AcDbEntity
  8
SEIHIN
100
AcDbLine
 10
374.6157883470871
 20
454.8454103359482
 30
0.0
 11
365.2506233470871
 21
454.8454103359482
 31
0.0
  0
LINE
  5
F82
330
1A
100
AcDbEntity
  8
SEIHIN
100
AcDbLine
 10
369.9332057470872
 20
466.7454103359482
 30
0.0
 11
371.7875736470871
 21
466.7454103359482
 31
0.0
  0
LINE
  5
F83
330
1A
100
AcDbEntity
  8
SEIHIN
100
AcDbLine
 10
371.7875736470871
 20
466.7454103359482
 30
0.0
 11
373.6419414470871
 21
464.3454103359482
 31
0.0
  0
LINE
  5
F84
330
1A
100
AcDbEntity
  8
SEIHIN
100
AcDbLine
 10
373.6419414470871
 20
464.3454103359482
 30
0.0
 11
372.5181217470871
 21
464.3454103359482
 31
0.0
  0
LINE
  5
F85
330
1A
100
AcDbEntity
  8
SEIHIN
100
AcDbLine
 10
374.6157883470871
 20
467.8454103359483
 30
0.0
 11
374.6157883470871
 21
464.3454103359482
 31
0.0
  0
LINE
  5
F86
330
1A
100
AcDbEntity
  8
SEIHIN
100
AcDbLine
 10
365.2506233470871
 20
467.8454103359483
 30
0.0
 11
374.6157883470871
 21
467.8454103359483
 31
0.0
  0
LINE
  5
F87
330
1A
100
AcDbEntity
  8
SEIHIN
100
AcDbLine
 10
372.5181217470871
 20
458.3454103359482
 30
0.0
 11
373.6419414470871
 21
458.3454103359482
 31
0.0
  0
LINE
  5
F88
330
1A
100
AcDbEntity
  8
SEIHIN
100
AcDbLine
 10
372.5181217470871
 20
464.3454103359482
 30
0.0
 11
372.5181217470871
 21
458.3454103359482
 31
0.0
  0
LINE
  5
F89
330
1A
100
AcDbEntity
  8
SEIHIN
100
AcDbLine
 10
509.0107855470872
 20
461.3454103359482
 30
0.0
 11
498.6151272470872
 21
458.3454103359482
 31
0.0
  0
LINE
  5
F8A
330
1A
100
AcDbEntity
  8
SEIHIN
100
AcDbLine
 10
509.0107855470872
 20
461.3454103359482
 30
0.0
 11
498.6151272470872
 21
464.3454103359482
 31
0.0
  0
LINE
  5
F8B
330
1A
100
AcDbEntity
  8
SEIHIN
100
AcDbLine
 10
498.6151272470872
 20
464.3454103359482
 30
0.0
 11
498.6151272470872
 21
458.3454103359482
 31
0.0
  0
ARC
  5
F95
330
1A
100
AcDbEntity
  8
SEIHIN
100
AcDbCircle
 10
331.3732013470871
 20
318.0673511235005
 30
0.0
 40
7.000000005682091
100
AcDbArc
 50
90.0
 51
159.8596214145064
  0
LINE
  5
F99
330
1A
100
AcDbEntity
  8
CENTER_L
100
AcDbLine
 10
356.3837922364304
 20
278.0032347038406
 30
0.0
 11
515.5010726036157
 21
342.290783692867
 31
0.0
  0
DIMENSION
  5
F9C
330
1A
100
AcDbEntity
  8
SUNPOU
100
AcDbDimension
  2
*D3
 10
529.7995725491672
 20
288.2144801039091
 30
0.0
 11
458.3877499275209
 21
264.754906943493
 31
0.0
 70
    33
  3
STANDARD
100
AcDbAlignedDimension
 13
369.9332059743181
 23
283.4775527504849
 33
0.0
 14
509.0107855470872
 24
339.6685377235005
 34
0.0
1001
ACAD
1000
DSTYLE
1002
{
1070
    41
1040
3.0
1070
    42
1040
6.0
1070
    43
1040
14.0
1070
    44
1040
3.0
1070
    73
1070
     0
1070
    74
1070
     0
1070
    77
1070
     3
1070
   140
1040
6.0
1070
   141
1040
10.0
1070
   147
1040
2.0
1070
   172
1070
     1
1070
   173
1070
     1
1070
   176
1070
   256
1070
   177
1070
   256
1070
   178
1070
   256
1070
   271
1070
     0
1070
   272
1070
     0
1070
   341
1005
6D
1070
     6
1000
OPEN
1070
     7
1000
OPEN
1002
}
  0
DIMENSION
  5
FEE
330
1A
100
AcDbEntity
  8
SUNPOU
100
AcDbDimension
  2
*D4
 10
541.9100937810696
 20
349.7251153854235
 30
0.0
 11
550.292078771025
 21
342.3263095609568
 31
0.0
 70
    33
  3
STANDARD
100
AcDbAlignedDimension
 13
498.6151272470873
 23
338.7040233235005
 33
0.0
 14
500.8627666470873
 24
333.1409201235005
 34
0.0
1001
ACAD
1000
DSTYLE
1002
{
1070
    41
1040
3.0
1070
    42
1040
6.0
1070
    43
1040
14.0
1070
    44
1040
3.0
1070
    73
1070
     0
1070
    74
1070
     0
1070
    77
1070
     3
1070
   140
1040
6.0
1070
   141
1040
10.0
1070
   147
1040
2.0
1070
   172
1070
     1
1070
   173
1070
     1
1070
   176
1070
   256
1070
   177
1070
   256
1070
   178
1070
   256
1070
   271
1070
     0
1070
   272
1070
     0
1070
   341
1005
6D
1070
     6
1000
OPEN
1070
     7
1000
OPEN
1002
}
  0
DIMENSION
  5
FFD
330
1A
100
AcDbEntity
  8
SUNPOU
100
AcDbDimension
  2
*D5
 10
544.164100095608
 20
458.3454103359482
 30
0.0
 11
539.1641000956078
 21
448.3454103359483
 31
0.0
 70
    32
  3
STANDARD
100
AcDbAlignedDimension
 13
498.6151272470872
 23
464.3454103359482
 33
0.0
 14
498.6151272470872
 24
458.3454103359482
 34
0.0
 50
90.0
100
AcDbRotatedDimension
1001
ACAD
1000
DSTYLE
1002
{
1070
    41
1040
3.0
1070
    42
1040
6.0
1070
    43
1040
14.0
1070
    44
1040
3.0
1070
    73
1070
     0
1070
    74
1070
     0
1070
    77
1070
     3
1070
   140
1040
6.0
1070
   141
1040
10.0
1070
   147
1040
2.0
1070
   172
1070
     1
1070
   173
1070
     1
1070
   176
1070
   256
1070
   177
1070
   256
1070
   178
1070
   256
1070
   271
1070
     0
1070
   272
1070
     0
1070
   341
1005
6D
1070
     6
1000
OPEN
1070
     7
1000
OPEN
1002
}
  0
DIMENSION
  5
100C
330
1A
100
AcDbEntity
  8
SUNPOU
100
AcDbDimension
  2
*D6
 10
398.3703298695745
 20
283.4775527504849
 30
0.0
 11
393.3703298695744
 21
304.2724519369928
 31
0.0
 70
    32
  3
STANDARD
100
AcDbAlignedDimension
 13
358.2506233470871
 23
325.0673511235005
 33
0.0
 14
369.9332059743181
 24
283.4775527504849
 34
0.0
 50
90.0
100
AcDbRotatedDimension
1001
ACAD
1000
DSTYLE
1002
{
1070
    41
1040
3.0
1070
    42
1040
6.0
1070
    43
1040
14.0
1070
    44
1040
3.0
1070
    73
1070
     0
1070
    74
1070
     0
1070
    77
1070
     3
1070
   140
1040
6.0
1070
   141
1040
10.0
1070
   147
1040
2.0
1070
   172
1070
     1
1070
   173
1070
     1
1070
   176
1070
   256
1070
   177
1070
   256
1070
   178
1070
   256
1070
   271
1070
     0
1070
   272
1070
     0
1070
   341
1005
6D
1070
     6
1000
OPEN
1070
     7
1000
OPEN
1002
}
  0
DIMENSION
  5
1019
330
1A
100
AcDbEntity
  8
SUNPOU
100
AcDbDimension
  2
*D7
 10
509.0107855470872
 20
370.3206600813846
 30
0.0
 11
373.7407053224941
 21
375.3206600813846
 31
0.0
 70
    32
  3
STANDARD
100
AcDbAlignedDimension
 13
238.4706250979011
 23
305.0649177035303
 33
0.0
 14
509.0107855470872
 24
339.6685377235005
 34
0.0
100
AcDbRotatedDimension
1001
ACAD
1000
DSTYLE
1002
{
1070
    41
1040
3.0
1070
    42
1040
6.0
1070
    43
1040
14.0
1070
    44
1040
3.0
1070
    73
1070
     0
1070
    74
1070
     0
1070
    77
1070
     3
1070
   140
1040
6.0
1070
   141
1040
10.0
1070
   147
1040
2.0
1070
   172
1070
     1
1070
   173
1070
     1
1070
   176
1070
   256
1070
   177
1070
   256
1070
   178
1070
   256
1070
   271
1070
     0
1070
   272
1070
     0
1070
   341
1005
6D
1070
     6
1000
OPEN
1070
     7
1000
OPEN
1002
}
  0
DIMENSION
  5
1026
330
1A
100
AcDbEntity
  8
SUNPOU
100
AcDbDimension
  2
*D8
 10
199.092720190481
 20
283.4775527504849
 30
0.0
 11
194.0927201904809
 21
297.1724519369928
 31
0.0
 70
    32
  3
STANDARD
100
AcDbAlignedDimension
 13
240.723579077087
 23
310.8673511235005
 33
0.0
 14
369.9332059743181
 24
283.4775527504849
 34
0.0
 50
90.0
100
AcDbRotatedDimension
1001
ACAD
1000
DSTYLE
1002
{
1070
    41
1040
3.0
1070
    42
1040
6.0
1070
    43
1040
14.0
1070
    44
1040
3.0
1070
    73
1070
     0
1070
    74
1070
     0
1070
    77
1070
     3
1070
   140
1040
6.0
1070
   141
1040
10.0
1070
   147
1040
2.0
1070
   172
1070
     1
1070
   173
1070
     1
1070
   176
1070
   256
1070
   177
1070
   256
1070
   178
1070
   256
1070
   271
1070
     0
1070
   272
1070
     0
1070
   341
1005
6D
1070
     6
1000
OPEN
1070
     7
1000
OPEN
1002
}
  0
LINE
  5
1411
330
1A
100
AcDbEntity
  8
SEIHIN
100
AcDbLine
 10
367.9103304470871
 20
141.3668671621508
 30
0.0
 11
369.7646982470871
 21
142.1160802621509
 31
0.0
  0
LINE
  5
1412
330
1A
100
AcDbEntity
  8
SEIHIN
100
AcDbLine
 10
367.9103304470871
 20
141.3668671621508
 30
0.0
 11
371.094486347087
 21
133.4858043621508
 31
0.0
  0
LINE
  5
1413
330
1A
100
AcDbEntity
  8
SEIHIN
100
AcDbLine
 10
368.4627771470871
 20
131.9911109621508
 30
0.0
 11
371.8342363470871
 21
123.6464566621508
 31
0.0
  0
TEXT
  5
142C
330
1A
100
AcDbEntity
  8
NOKITOI
 48
5.0
100
AcDbText
 10
264.2947160875932
 20
88.60583974159187
 30
0.0
 40
8.0
  1
軒樋の差し替え
100
AcDbText
  0
LINE
  5
142D
330
1A
100
AcDbEntity
  8
NOKITOI
  6
PHANTOM
 62
     8
100
AcDbLine
 10
238.0674661963789
 20
170.0410846073454
 30
0.0
 11
241.3940661963792
 21
170.0411846073454
 31
0.0
  0
LINE
  5
142E
330
1A
100
AcDbEntity
  8
NOKITOI
  6
PHANTOM
 62
     8
100
AcDbLine
 10
238.0674661963789
 20
168.8410846073454
 30
0.0
 11
240.5401661963791
 21
168.8411846073456
 31
0.0
  0
LINE
  5
142F
330
1A
100
AcDbEntity
  8
NOKITOI
  6
PHANTOM
 62
     8
100
AcDbLine
 10
237.9578661963791
 20
154.0411846073454
 30
0.0
 11
244.0989661963789
 21
154.0411846073454
 31
0.0
  0
ARC
  5
1430
330
1A
100
AcDbEntity
  8
NOKITOI
  6
PHANTOM
 62
     8
100
AcDbCircle
 10
239.6055282085548
 20
157.2411214279176
 30
0.0
 40
2.000036820932882
100
AcDbArc
 50
181.7889408725803
 51
270.0010882509654
  0
ARC
  5
1431
330
1A
100
AcDbEntity
  8
NOKITOI
  6
PHANTOM
 62
     8
100
AcDbCircle
 10
241.5189971233152
 20
160.0412203520092
 30
0.0
 40
3.99998565374706
100
AcDbArc
 50
96.47577619531659
 51
181.7913033408989
  0
ARC
  5
1432
330
1A
100
AcDbEntity
  8
NOKITOI
  6
PHANTOM
 62
     8
100
AcDbCircle
 10
241.5189840627303
 20
160.0411933357253
 30
0.0
 40
5.199991271650611
100
AcDbArc
 50
90.00019685927275
 51
142.074671395271
  0
ARC
  5
1433
330
1A
100
AcDbEntity
  8
SEIHIN
 62
     3
100
AcDbCircle
 10
240.170623377087
 20
157.9498726621508
 30
0.0
 40
1.700000020814075
100
AcDbArc
 50
180.0820145529315
 51
270.0
  0
ARC
  5
1434
330
1A
100
AcDbEntity
  8
SEIHIN
 62
     3
100
AcDbCircle
 10
246.670623377087
 20
158.1042846621508
 30
0.0
 40
8.200000025865952
100
AcDbArc
 50
136.4895916441847
 51
180.0000000698716
  0
LINE
  5
1435
330
1A
100
AcDbEntity
  8
NOKITOI
  6
PHANTOM
 62
     8
100
AcDbLine
 10
236.0684661963791
 20
167.9786846073454
 30
0.0
 11
236.4585661963792
 21
155.4942846073453
 31
0.0
  0
LINE
  5
1436
330
1A
100
AcDbEntity
  8
NOKITOI
  6
PHANTOM
 62
     8
100
AcDbLine
 10
237.2678661963795
 20
168.0161846073453
 30
0.0
 11
237.4171661963791
 21
163.2371846073455
 31
0.0
  0
ARC
  5
1437
330
1A
100
AcDbEntity
  8
NOKITOI
  6
PHANTOM
 62
     8
100
AcDbCircle
 10
237.957848983201
 20
155.5412012904932
 30
0.0
 40
1.500016683246579
100
AcDbArc
 50
181.7923576755887
 51
270.0006574876639
  0
LINE
  5
1438
330
1A
100
AcDbEntity
  8
NOKITOI
  6
PHANTOM
 62
     8
100
AcDbLine
 10
237.6064661963791
 20
157.1785846073455
 30
0.0
 11
237.5209661963794
 21
159.9161846073454
 31
0.0
  0
ARC
  5
1439
330
1A
100
AcDbEntity
  8
NOKITOI
  6
PHANTOM
 62
     8
100
AcDbCircle
 10
238.0674222300262
 20
168.0411392448724
 30
0.0
 40
0.7999453636812564
100
AcDbArc
 50
89.99685092684575
 51
181.7876563552118
  0
ARC
  5
143A
330
1A
100
AcDbEntity
  8
NOKITOI
  6
PHANTOM
 62
     8
100
AcDbCircle
 10
238.0674774333733
 20
168.0411962011625
 30
0.0
 40
1.999988406214315
100
AcDbArc
 50
90.00032191804612
 51
181.7911273464062
  0
LINE
  5
143B
330
1A
100
AcDbEntity
  8
SEIHIN
 62
     3
100
AcDbLine
 10
262.970623377087
 20
159.7498726621508
 30
0.0
 11
312.250623347087
 21
159.7498726621508
 31
0.0
  0
LINE
  5
143C
330
1A
100
AcDbEntity
  8
SEIHIN
 62
     3
100
AcDbLine
 10
262.970623377087
 20
164.2498726621508
 30
0.0
 11
322.3744223470869
 21
164.2498726621508
 31
0.0
  0
LINE
  5
143D
330
1A
100
AcDbEntity
  8
NOKITOI
  6
PHANTOM
 62
     8
100
AcDbLine
 10
259.3609661963791
 20
115.0410846073454
 30
0.0
 11
304.1903661963792
 21
115.0411846073454
 31
0.0
  0
LINE
  5
143E
330
1A
100
AcDbEntity
  8
NOKITOI
  6
PHANTOM
 62
     8
100
AcDbLine
 10
304.1903661963792
 20
116.2411846073454
 30
0.0
 11
259.6107661963791
 21
116.2410846073455
 31
0.0
  0
LINE
  5
143F
330
1A
100
AcDbEntity
  8
NOKITOI
  6
PHANTOM
 62
     8
100
AcDbLine
 10
245.0939661963788
 20
153.1406846073454
 30
0.0
 11
247.962766196379
 21
124.4532846073454
 31
0.0
  0
LINE
  5
1440
330
1A
100
AcDbEntity
  8
NOKITOI
  6
PHANTOM
 62
     8
100
AcDbLine
 10
246.134966196379
 20
154.7909846073454
 30
0.0
 11
249.1279661963794
 21
124.8611846073453
 31
0.0
  0
LINE
  5
1441
330
1A
100
AcDbEntity
  8
NOKITOI
  6
PHANTOM
 62
     8
100
AcDbLine
 10
263.3609661963791
 20
115.0410846073454
 30
0.0
 11
283.5188661963788
 21
115.0410846073454
 31
0.0
  0
LINE
  5
1442
330
1A
100
AcDbEntity
  8
NOKITOI
  6
PHANTOM
 62
     8
100
AcDbLine
 10
263.6107661963791
 20
116.2410846073455
 30
0.0
 11
283.5188661963788
 21
116.2410846073455
 31
0.0
  0
LINE
  5
1443
330
1A
100
AcDbEntity
  8
NOKITOI
  6
PHANTOM
 62
     8
100
AcDbLine
 10
248.3245661963791
 20
123.7787846073455
 30
0.0
 11
258.7276661963791
 21
115.2670846073455
 31
0.0
  0
LINE
  5
1444
330
1A
100
AcDbEntity
  8
NOKITOI
  6
PHANTOM
 62
     8
100
AcDbLine
 10
249.3088661963787
 20
124.5238846073454
 30
0.0
 11
259.2941661963791
 21
116.3540846073453
 31
0.0
  0
ARC
  5
1445
330
1A
100
AcDbEntity
  8
NOKITOI
  6
PHANTOM
 62
     8
100
AcDbCircle
 10
259.3609731289565
 20
116.0410821323393
 30
0.0
 40
0.9999975250179316
100
AcDbArc
 50
230.7053583247713
 51
269.9996027915947
  0
ARC
  5
1446
330
1A
100
AcDbEntity
  8
NOKITOI
  6
PHANTOM
 62
     8
100
AcDbCircle
 10
259.6107598086304
 20
116.741086887335
 30
0.0
 40
0.5000022800304047
100
AcDbArc
 50
230.7145501403941
 51
270.0007319787176
  0
ARC
  5
1447
330
1A
100
AcDbEntity
  8
NOKITOI
  6
PHANTOM
 62
     8
100
AcDbCircle
 10
248.957788769248
 20
124.5527425356728
 30
0.0
 40
0.9999908507640039
100
AcDbArc
 50
185.713767052247
 51
230.7112907769333
  0
ARC
  5
1448
330
1A
100
AcDbEntity
  8
NOKITOI
  6
PHANTOM
 62
     8
100
AcDbCircle
 10
249.6254836222573
 20
124.9108521209574
 30
0.0
 40
0.4999904508696396
100
AcDbArc
 50
185.7009889250759
 51
230.7099153622051
  0
ARC
  5
1449
330
1A
100
AcDbEntity
  8
NOKITOI
  6
PHANTOM
 62
     8
100
AcDbCircle
 10
242.1138669793876
 20
168.0411836523437
 30
0.0
 40
0.4999990449987399
100
AcDbArc
 50
168.6967198015444
 51
269.9999102736932
  0
LINE
  5
144A
330
1A
100
AcDbEntity
  8
NOKITOI
  6
PHANTOM
 62
     8
100
AcDbLine
 10
240.5401661963791
 20
168.8411846073456
 30
0.0
 11
240.0401661963791
 21
166.3411846073456
 31
0.0
  0
ARC
  5
144B
330
1A
100
AcDbEntity
  8
SEIHIN
 62
     3
100
AcDbCircle
 10
254.309339977087
 20
162.9498726621508
 30
0.0
 40
6.70000001483484
100
AcDbArc
 50
270.0
 51
300.0000087406069
  0
ARC
  5
144C
330
1A
100
AcDbEntity
  8
SEIHIN
 62
     3
100
AcDbCircle
 10
254.362928377087
 20
162.7498726621508
 30
0.0
 40
2.000000001052705
100
AcDbArc
 50
270.0
 51
299.9999999651755
  0
LINE
  5
144D
330
1A
100
AcDbEntity
  8
NOKITOI
  6
PHANTOM
 62
     8
100
AcDbLine
 10
245.6374661963795
 20
155.2411846073454
 30
0.0
 11
239.6055661963791
 21
155.2411846073454
 31
0.0
  0
ARC
  5
144E
330
1A
100
AcDbEntity
  8
NOKITOI
  6
PHANTOM
 62
     8
100
AcDbCircle
 10
245.6374531253745
 20
154.7411964376253
 30
0.0
 40
0.499988169890889
100
AcDbArc
 50
5.703393862283571
 51
89.99850213773529
  0
ARC
  5
144F
330
1A
100
AcDbEntity
  8
NOKITOI
  6
PHANTOM
 62
     8
100
AcDbCircle
 10
244.0989455465382
 20
153.0412032951946
 30
0.0
 40
0.9999813123640345
100
AcDbArc
 50
5.70940996664858
 51
89.99881682915088
  0
ARC
  5
1450
330
1A
100
AcDbEntity
  8
SEIHIN
 62
     3
100
AcDbCircle
 10
247.0706233770869
 20
158.7498726621508
 30
0.0
 40
2.0
100
AcDbArc
 50
90.0
 51
180.0000002864791
  0
LINE
  5
1451
330
1A
100
AcDbEntity
  8
SEIHIN
 62
     3
100
AcDbLine
 10
254.309339977087
 20
156.2498726621508
 30
0.0
 11
240.170623377087
 21
156.2498726621508
 31
0.0
  0
LINE
  5
1452
330
1A
100
AcDbEntity
  8
NOKITOI
  6
PHANTOM
 62
     8
100
AcDbLine
 10
244.3453661963789
 20
167.5411846073454
 30
0.0
 11
242.113866196379
 21
167.5411846073454
 31
0.0
  0
LINE
  5
1453
330
1A
100
AcDbEntity
  8
NOKITOI
  6
PHANTOM
 62
     8
100
AcDbLine
 10
240.0401661963791
 20
166.3411846073456
 30
0.0
 11
242.9767661963791
 21
166.3411846073456
 31
0.0
  0
LINE
  5
1454
330
1A
100
AcDbEntity
  8
NOKITOI
  6
PHANTOM
 62
     8
100
AcDbLine
 10
241.980966196379
 20
165.2411846073454
 30
0.0
 11
241.518966196379
 21
165.2411846073454
 31
0.0
  0
LINE
  5
1455
330
1A
100
AcDbEntity
  8
NOKITOI
  6
PHANTOM
 62
     8
100
AcDbLine
 10
241.980966196379
 20
165.2411846073454
 30
0.0
 11
242.9767661963791
 21
166.3411846073456
 31
0.0
  0
ARC
  5
1456
330
1A
100
AcDbEntity
  8
NOKITOI
  6
PHANTOM
 62
     8
100
AcDbCircle
 10
244.3453624868838
 20
167.0411885173761
 30
0.0
 40
0.4999960899831856
100
AcDbArc
 50
356.9843782585353
 51
89.99957491985082
  0
ARC
  5
1457
330
1A
100
AcDbEntity
  8
NOKITOI
  6
PHANTOM
 62
     8
100
AcDbCircle
 10
241.1242368238794
 20
163.5188148398403
 30
0.0
 40
0.4999578477751074
100
AcDbArc
 50
351.8669438287072
 51
96.47390928779564
  0
LINE
  5
1458
330
1A
100
AcDbEntity
  8
NOKITOI
  6
PHANTOM
 62
     8
100
AcDbLine
 10
242.5875661963795
 20
161.7411846073454
 30
0.0
 11
242.9915661963791
 21
164.5695846073453
 31
0.0
  0
LINE
  5
1459
330
1A
100
AcDbEntity
  8
NOKITOI
  6
PHANTOM
 62
     8
100
AcDbLine
 10
243.3654661963791
 20
161.7411846073454
 30
0.0
 11
242.5875661963795
 21
161.7411846073454
 31
0.0
  0
LINE
  5
145A
330
1A
100
AcDbEntity
  8
NOKITOI
  6
PHANTOM
 62
     8
100
AcDbLine
 10
244.0295661963791
 20
160.5411846073454
 30
0.0
 11
241.7804661963795
 21
160.5411846073454
 31
0.0
  0
ARC
  5
145B
330
1A
100
AcDbEntity
  8
NOKITOI
  6
PHANTOM
 62
     8
100
AcDbCircle
 10
244.0295620749724
 20
161.0411806973149
 30
0.0
 40
0.4999960899864752
100
AcDbArc
 50
270.0004722821422
 51
356.9852756208257
  0
ARC
  5
145C
330
1A
100
AcDbEntity
  8
NOKITOI
  6
PHANTOM
 62
     8
100
AcDbCircle
 10
241.7804560099429
 20
161.0411963520695
 30
0.0
 40
0.5000117448278309
100
AcDbArc
 50
171.8726853912842
 51
270.0011672521967
  0
LINE
  5
145D
330
1A
100
AcDbEntity
  8
NOKITOI
  6
PHANTOM
 62
     8
100
AcDbLine
 10
241.2854661963792
 20
161.1118846073454
 30
0.0
 11
241.6192661963791
 21
163.4480846073456
 31
0.0
  0
LINE
  5
145E
330
1A
100
AcDbEntity
  8
NOKITOI
  6
PHANTOM
 62
     8
100
AcDbLine
 10
243.3654661963791
 20
161.7411846073454
 30
0.0
 11
243.5465661963793
 21
165.1825846073454
 31
0.0
  0
LINE
  5
145F
330
1A
100
AcDbEntity
  8
NOKITOI
  6
PHANTOM
 62
     8
100
AcDbLine
 10
242.9915661963791
 20
164.5695846073453
 30
0.0
 11
243.5465661963793
 21
165.1825846073454
 31
0.0
  0
LINE
  5
1460
330
1A
100
AcDbEntity
  8
NOKITOI
  6
PHANTOM
 62
     8
100
AcDbLine
 10
244.528866196379
 20
161.0148846073454
 30
0.0
 11
244.8446661963793
 21
167.0148846073454
 31
0.0
  0
ARC
  5
1461
330
1A
100
AcDbEntity
  8
SEIHIN
 62
     3
100
AcDbCircle
 10
246.670623377087
 20
158.1042846621508
 30
0.0
 40
6.999999998144283
100
AcDbArc
 50
137.975372454329
 51
180.0000000818504
  0
LINE
  5
1462
330
1A
100
AcDbEntity
  8
SEIHIN
 62
     3
100
AcDbLine
 10
240.170623377087
 20
157.4498726621508
 30
0.0
 11
245.0706233770869
 21
157.4498726621508
 31
0.0
  0
LINE
  5
1463
330
1A
100
AcDbEntity
  8
SEIHIN
 62
     3
100
AcDbLine
 10
245.0706233770869
 20
158.7498726621508
 30
0.0
 11
245.0706233770869
 21
156.2498726621508
 31
0.0
  0
LINE
  5
1464
330
1A
100
AcDbEntity
  8
SEIHIN
 62
     3
100
AcDbLine
 10
239.670623377087
 20
157.9498726621508
 30
0.0
 11
239.670623377087
 21
158.1042846621508
 31
0.0
  0
LINE
  5
1465
330
1A
100
AcDbEntity
  8
SEIHIN
 62
     3
100
AcDbLine
 10
238.470623377087
 20
158.1042846621508
 30
0.0
 11
238.470623377087
 21
157.9498726621508
 31
0.0
  0
ARC
  5
1466
330
1A
100
AcDbEntity
  8
SEIHIN
 62
     3
100
AcDbCircle
 10
240.170623377087
 20
157.9498726621508
 30
0.0
 40
1.700000020814068
100
AcDbArc
 50
180.0000003370341
 51
180.0820145529315
  0
ARC
  5
1467
330
1A
100
AcDbEntity
  8
SEIHIN
 62
     3
100
AcDbCircle
 10
240.170623377087
 20
157.9498726621508
 30
0.0
 40
0.5
100
AcDbArc
 50
180.0
 51
270.0
  0
LINE
  5
1468
330
1A
100
AcDbEntity
  8
SEIHIN
 62
     3
100
AcDbLine
 10
241.5957082770869
 20
157.4498726621508
 30
0.0
 11
239.8934148770869
 21
159.8306475121508
 31
0.0
  0
LINE
  5
1469
330
1A
100
AcDbEntity
  8
SEIHIN
 62
     3
100
AcDbLine
 10
241.470623377087
 20
162.7904344621508
 30
0.0
 11
240.7235790770869
 21
163.7498726621508
 31
0.0
  0
LINE
  5
146A
330
1A
100
AcDbEntity
  8
SEIHIN
 62
     3
100
AcDbLine
 10
239.769684677087
 20
162.5333980521508
 30
0.0
 11
240.559800277087
 21
161.5186428421508
 31
0.0
  0
LINE
  5
146B
330
1A
100
AcDbEntity
  8
SEIHIN
 62
     3
100
AcDbLine
 10
247.0706233770869
 20
160.7498726621508
 30
0.0
 11
254.362928377087
 21
160.7498726621508
 31
0.0
  0
ARC
  5
146C
330
1A
100
AcDbEntity
  8
SEIHIN
 62
     3
100
AcDbCircle
 10
262.970623377087
 20
156.7498726621508
 30
0.0
 40
2.999999999413997
100
AcDbArc
 50
90.0
 51
120.0000000129227
  0
LINE
  5
146D
330
1A
100
AcDbEntity
  8
SEIHIN
 62
     3
100
AcDbLine
 10
261.470623377087
 20
159.3479486621508
 30
0.0
 11
257.6593408770869
 21
157.1475029421508
 31
0.0
  0
LINE
  5
146E
330
1A
100
AcDbEntity
  8
SEIHIN
 62
     3
100
AcDbLine
 10
255.362928377087
 20
161.0178216621508
 30
0.0
 11
259.220623377087
 21
163.2450626621508
 31
0.0
  0
ARC
  5
146F
330
1A
100
AcDbEntity
  8
SEIHIN
 62
     3
100
AcDbCircle
 10
262.970623377087
 20
156.7498726621508
 30
0.0
 40
7.499999996369929
100
AcDbArc
 50
90.0
 51
120.0000000320253
  0
ARC
  5
1470
330
1A
100
AcDbEntity
  8
NOKITOI
  6
PHANTOM
 62
     8
100
AcDbCircle
 10
241.3940734509346
 20
169.541175757502
 30
0.0
 40
0.500008849895925
100
AcDbArc
 50
348.6864043304874
 51
90.00083129614912
  0
LINE
  5
1471
330
1A
100
AcDbEntity
  8
NOKITOI
  6
PHANTOM
 62
     8
100
AcDbLine
 10
241.6235661963791
 20
168.1391846073456
 30
0.0
 11
241.8843661963791
 21
169.4431846073454
 31
0.0
  0
LINE
  5
1472
330
1A
100
AcDbEntity
  8
SEIHIN
 62
     3
100
AcDbLine
 10
347.0362319870869
 20
151.2804708321508
 30
0.0
 11
349.572658287087
 21
141.8143976121508
 31
0.0
  0
LINE
  5
1473
330
1A
100
AcDbEntity
  8
SEIHIN
 62
     3
100
AcDbLine
 10
348.195342987087
 20
151.5910536521508
 30
0.0
 11
350.731769287087
 21
142.1249804221508
 31
0.0
  0
ARC
  5
1474
330
1A
100
AcDbEntity
  8
NOKITOI
  6
PHANTOM
 62
     8
100
AcDbCircle
 10
304.1903824228365
 20
158.0411990837155
 30
0.0
 40
43.00001447645168
100
AcDbArc
 50
270.0001116248529
 51
353.4750892928824
  0
ARC
  5
1475
330
1A
100
AcDbEntity
  8
NOKITOI
  6
PHANTOM
 62
     8
100
AcDbCircle
 10
304.1903601144112
 20
158.0411789826891
 30
0.0
 40
41.79999437547816
100
AcDbArc
 50
270.0001454078877
 51
355.5257047874749
  0
LINE
  5
1476
330
1A
100
AcDbEntity
  8
SEIHIN
100
AcDbLine
 10
365.2506233470871
 20
147.9498726621508
 30
0.0
 11
368.809387547087
 21
139.1416222621508
 31
0.0
  0
LINE
  5
1477
330
1A
100
AcDbEntity
  8
SEIHIN
100
AcDbLine
 10
362.2506233470871
 20
147.3667316621508
 30
0.0
 11
365.8405324470871
 21
138.4813946621508
 31
0.0
  0
LINE
  5
1478
330
1A
100
AcDbEntity
  8
SEIHIN
 62
     3
100
AcDbLine
 10
349.572658297087
 20
141.8143975721508
 30
0.0
 11
350.731769287087
 21
142.1249804221508
 31
0.0
  0
LINE
  5
1479
330
1A
100
AcDbEntity
  8
SEIHIN
 62
     3
100
AcDbLine
 10
350.214131267087
 20
144.0568320921508
 30
0.0
 11
349.055020277087
 21
143.7462492421508
 31
0.0
  0
ARC
  5
147A
330
1A
100
AcDbEntity
  8
SEIHIN
100
AcDbCircle
 10
372.3670581470871
 20
137.3434125621508
 30
0.0
 40
6.624993717619814
100
AcDbArc
 50
170.1091925164106
 51
233.8908071907937
  0
LINE
  5
147B
330
1A
100
AcDbEntity
  8
SEIHIN
100
AcDbLine
 10
365.8405324470871
 20
138.4813946621508
 30
0.0
 11
368.4627771470871
 21
131.9911109621508
 31
0.0
  0
LINE
  5
147C
330
1A
100
AcDbEntity
  8
SEIHIN
100
AcDbLine
 10
331.373201347087
 20
177.9498726621508
 30
0.0
 11
358.2506233470871
 21
177.9498726621508
 31
0.0
  0
LINE
  5
147D
330
1A
100
AcDbEntity
  8
SEIHIN
 62
     3
100
AcDbLine
 10
338.353823347087
 20
172.7498726621508
 30
0.0
 11
333.853823347087
 21
172.7498726621508
 31
0.0
  0
LINE
  5
147E
330
1A
100
AcDbEntity
  8
SEIHIN
 62
     3
100
AcDbLine
 10
331.9141943470869
 20
172.3498726621508
 30
0.0
 11
341.693394347087
 21
172.3498726621508
 31
0.0
  0
LINE
  5
147F
330
1A
100
AcDbEntity
  8
SEIHIN
 62
     3
100
AcDbLine
 10
334.020339347087
 20
171.7498726621508
 30
0.0
 11
338.187308347087
 21
171.7498726621508
 31
0.0
  0
LINE
  5
1480
330
1A
100
AcDbEntity
  8
SEIHIN
 62
     3
100
AcDbLine
 10
331.607698347087
 20
177.2498726621508
 30
0.0
 11
352.500623347087
 21
177.2498726621508
 31
0.0
  0
LINE
  5
1481
330
1A
100
AcDbEntity
  8
SEIHIN
 62
     3
100
AcDbLine
 10
333.496896347087
 20
161.1499046621508
 30
0.0
 11
343.316896347087
 21
161.1499046621508
 31
0.0
  0
LINE
  5
1482
330
1A
100
AcDbEntity
  8
SEIHIN
 62
     3
100
AcDbLine
 10
328.5096483470869
 20
160.7499046621508
 30
0.0
 11
343.316896347087
 21
160.7499046621508
 31
0.0
  0
LINE
  5
1483
330
1A
100
AcDbEntity
  8
SEIHIN
 62
     3
100
AcDbLine
 10
328.5096483470869
 20
160.7499046621508
 30
0.0
 11
343.316896347087
 21
160.7499046621508
 31
0.0
  0
LINE
  5
1484
330
1A
100
AcDbEntity
  8
SEIHIN
 62
     3
100
AcDbLine
 10
337.9041513470869
 20
171.3005916621509
 30
0.0
 11
333.316896347087
 21
160.7499046621508
 31
0.0
  0
LINE
  5
1485
330
1A
100
AcDbEntity
  8
SEIHIN
 62
     3
100
AcDbLine
 10
330.5141943470871
 20
171.3498726621508
 30
0.0
 11
330.5141943470871
 21
166.5172046621508
 31
0.0
  0
LINE
  5
1486
330
1A
100
AcDbEntity
  8
SEIHIN
 62
     3
100
AcDbLine
 10
330.9141943470869
 20
171.3498726621508
 30
0.0
 11
330.9141943470869
 21
166.5172046621508
 31
0.0
  0
LINE
  5
1487
330
1A
100
AcDbEntity
  8
SEIHIN
 62
     3
100
AcDbLine
 10
328.2495573470869
 20
169.8817496621508
 30
0.0
 11
327.473194027087
 21
164.9799798821508
 31
0.0
  0
LINE
  5
1488
330
1A
100
AcDbEntity
  8
SEIHIN
 62
     3
100
AcDbLine
 10
323.804960347087
 20
170.5857046621508
 30
0.0
 11
322.8682663470869
 21
164.6716546621508
 31
0.0
  0
LINE
  5
1489
330
1A
100
AcDbEntity
  8
SEIHIN
 62
     3
100
AcDbLine
 10
316.250623347087
 20
159.7498726621508
 30
0.0
 11
321.3495261770869
 21
159.7498726621508
 31
0.0
  0
LINE
  5
148A
330
1A
100
AcDbEntity
  8
SEIHIN
 62
     3
100
AcDbLine
 10
312.167139347087
 20
159.1498726621508
 30
0.0
 11
316.334108347087
 21
159.1498726621508
 31
0.0
  0
LINE
  5
148B
330
1A
100
AcDbEntity
  8
SEIHIN
 62
     3
100
AcDbLine
 10
312.250623347087
 20
159.7498726621508
 30
0.0
 11
316.250623347087
 21
159.7498726621508
 31
0.0
  0
ARC
  5
148C
330
1A
100
AcDbEntity
  8
SEIHIN
 62
     3
100
AcDbCircle
 10
314.250623347087
 20
159.4457056621508
 30
0.0
 40
5.704166995525981
100
AcDbArc
 50
57.37535862169647
 51
122.6246414324574
  0
ARC
  5
148D
330
1A
100
AcDbEntity
  8
SEIHIN
 62
     3
100
AcDbCircle
 10
312.167139347087
 20
160.1498726621508
 30
0.0
 40
1.000000000462305
100
AcDbArc
 50
203.578178455081
 51
270.0
  0
ARC
  5
148E
330
1A
100
AcDbEntity
  8
SEIHIN
 62
     3
100
AcDbCircle
 10
316.334107347087
 20
160.1498726621508
 30
0.0
 40
1.000000000462305
100
AcDbArc
 50
270.0
 51
336.421821544919
  0
LINE
  5
148F
330
1A
100
AcDbEntity
  8
SEIHIN
 62
     3
100
AcDbLine
 10
327.942122347087
 20
165.0606926621508
 30
0.0
 11
329.7730133470869
 21
165.5512786621508
 31
0.0
  0
LINE
  5
1490
330
1A
100
AcDbEntity
  8
SEIHIN
 62
     3
100
AcDbLine
 10
328.4932963470869
 20
161.1499046621508
 30
0.0
 11
333.490809347087
 21
161.1499046621508
 31
0.0
  0
LINE
  5
1491
330
1A
100
AcDbEntity
  8
SEIHIN
 62
     3
100
AcDbLine
 10
328.033530347087
 20
164.6710756621508
 30
0.0
 11
329.8765403470869
 21
165.1649086621508
 31
0.0
  0
ARC
  5
1492
330
1A
100
AcDbEntity
  8
SEIHIN
 62
     3
100
AcDbCircle
 10
328.5096483470869
 20
162.9426566621509
 30
0.0
 40
1.792751996555905
100
AcDbArc
 50
182.9455394181634
 51
270.0
  0
ARC
  5
1493
330
1A
100
AcDbEntity
  8
SEIHIN
 62
     3
100
AcDbCircle
 10
328.5096483470869
 20
162.9426566621509
 30
0.0
 40
2.192751996560394
100
AcDbArc
 50
195.6503830753086
 51
270.0
  0
ARC
  5
1494
330
1A
100
AcDbEntity
  8
SEIHIN
 62
     3
100
AcDbCircle
 10
328.5096483470869
 20
162.9426566621509
 30
0.0
 40
1.792751996555905
100
AcDbArc
 50
105.0000000343126
 51
131.490129509683
  0
ARC
  5
1495
330
1A
100
AcDbEntity
  8
SEIHIN
 62
     3
100
AcDbCircle
 10
322.3744223470869
 20
164.7498726621508
 30
0.0
 40
0.5000000004381011
100
AcDbArc
 50
270.0
 51
350.9999991480865
  0
ARC
  5
1496
330
1A
100
AcDbEntity
  8
SEIHIN
 62
     3
100
AcDbCircle
 10
321.3495261770869
 20
165.9498726621508
 30
0.0
 40
6.199999997654025
100
AcDbArc
 50
270.0
 51
351.0000084443396
  0
ARC
  5
1497
330
1A
100
AcDbEntity
  8
SEIHIN
 62
     3
100
AcDbCircle
 10
328.5096483470869
 20
162.9426566621509
 30
0.0
 40
2.192751996560394
100
AcDbArc
 50
105.0000000809911
 51
118.7852858525351
  0
ARC
  5
1498
330
1A
100
AcDbEntity
  8
SEIHIN
 62
     3
100
AcDbCircle
 10
329.514194347087
 20
166.5172046621508
 30
0.0
 40
1.400000001136407
100
AcDbArc
 50
284.999999841885
 51
0.0
  0
ARC
  5
1499
330
1A
100
AcDbEntity
  8
SEIHIN
 62
     3
100
AcDbCircle
 10
329.514194347087
 20
166.5172046621508
 30
0.0
 40
1.00000000242602
100
AcDbArc
 50
285.000000216011
 51
0.0
  0
LINE
  5
149A
330
1A
100
AcDbEntity
  8
SEIHIN
 62
     3
100
AcDbLine
 10
331.603823347087
 20
160.7499046621508
 30
0.0
 11
331.603823347087
 21
161.1499046621509
 31
0.0
  0
ARC
  5
149B
330
1A
100
AcDbEntity
  8
SEIHIN
 62
     3
100
AcDbCircle
 10
331.607698347087
 20
169.3498726621508
 30
0.0
 40
3.400000000887181
100
AcDbArc
 50
90.0
 51
171.0000000241327
  0
ARC
  5
149C
330
1A
100
AcDbEntity
  8
SEIHIN
 62
     3
100
AcDbCircle
 10
331.607698347087
 20
169.3498726621508
 30
0.0
 40
7.899999999354902
100
AcDbArc
 50
90.0
 51
171.000000026553
  0
ARC
  5
149D
330
1A
100
AcDbEntity
  8
SEIHIN
100
AcDbCircle
 10
331.373201347087
 20
170.9498726621508
 30
0.0
 40
7.000000005682091
100
AcDbArc
 50
90.0
 51
159.8596214145063
  0
ARC
  5
149E
330
1A
100
AcDbEntity
  8
SEIHIN
 62
     3
100
AcDbCircle
 10
331.9141943470869
 20
171.3498726621508
 30
0.0
 40
1.399999999999998
100
AcDbArc
 50
90.0
 51
180.0000004092556
  0
ARC
  5
149F
330
1A
100
AcDbEntity
  8
SEIHIN
 62
     3
100
AcDbCircle
 10
331.9141943470869
 20
171.3498726621508
 30
0.0
 40
1.0
100
AcDbArc
 50
90.0
 51
180.0000005729565
  0
ARC
  5
14A0
330
1A
100
AcDbEntity
  8
SEIHIN
 62
     3
100
AcDbCircle
 10
334.020339347087
 20
172.7498726621508
 30
0.0
 40
1.000000000462305
100
AcDbArc
 50
203.578178455081
 51
270.0
  0
LINE
  5
14A1
330
1A
100
AcDbEntity
  8
SEIHIN
 62
     3
100
AcDbLine
 10
333.853823347087
 20
172.7498726621508
 30
0.0
 11
331.607698347087
 21
172.7498726621508
 31
0.0
  0
LINE
  5
14A2
330
1A
100
AcDbEntity
  8
SEIHIN
100
AcDbLine
 10
362.2506233470871
 20
170.9498726621508
 30
0.0
 11
362.2506233470871
 21
147.3667316621508
 31
0.0
  0
LINE
  5
14A3
330
1A
100
AcDbEntity
  8
SEIHIN
100
AcDbLine
 10
365.2506233470871
 20
170.9498726621508
 30
0.0
 11
365.2506233470871
 21
147.9498726621508
 31
0.0
  0
LINE
  5
14A4
330
1A
100
AcDbEntity
  8
SEIHIN
 62
     3
100
AcDbLine
 10
356.500623347087
 20
171.7498726621508
 30
0.0
 11
356.500623347087
 21
155.0498726621508
 31
0.0
  0
LINE
  5
14A5
330
1A
100
AcDbEntity
  8
SEIHIN
 62
     3
100
AcDbLine
 10
357.7006233470869
 20
171.7498726621508
 30
0.0
 11
357.7006233470869
 21
155.0498726621508
 31
0.0
  0
LINE
  5
14A6
330
1A
100
AcDbEntity
  8
SEIHIN
 62
     3
100
AcDbLine
 10
358.7006233470869
 20
171.7498726621508
 30
0.0
 11
358.7006233470869
 21
158.9859406621508
 31
0.0
  0
LINE
  5
14A7
330
1A
100
AcDbEntity
  8
SEIHIN
 62
     3
100
AcDbLine
 10
344.316896347087
 20
164.9435816621508
 30
0.0
 11
344.316896347087
 21
170.9025026621508
 31
0.0
  0
ARC
  5
14A8
330
1A
100
AcDbEntity
  8
NOKITOI
  6
PHANTOM
 62
     8
100
AcDbCircle
 10
349.8940734509346
 20
168.0411934571888
 30
0.0
 40
0.5000088498959383
100
AcDbArc
 50
269.9991687038573
 51
11.31359566951103
  0
LINE
  5
14A9
330
1A
100
AcDbEntity
  8
NOKITOI
  6
PHANTOM
 62
     8
100
AcDbLine
 10
351.4676661963789
 20
168.8411846073456
 30
0.0
 11
351.9676661963789
 21
166.3411846073456
 31
0.0
  0
LINE
  5
14AA
330
1A
100
AcDbEntity
  8
NOKITOI
  6
PHANTOM
 62
     8
100
AcDbLine
 10
355.9394661963792
 20
167.9786846073454
 30
0.0
 11
355.5492661963794
 21
155.4943846073453
 31
0.0
  0
LINE
  5
14AB
330
1A
100
AcDbEntity
  8
NOKITOI
  6
PHANTOM
 62
     8
100
AcDbLine
 10
354.7400661963787
 20
168.0161846073453
 30
0.0
 11
354.5906661963794
 21
163.2372846073455
 31
0.0
  0
LINE
  5
14AC
330
1A
100
AcDbEntity
  8
SEIHIN
 62
     3
100
AcDbLine
 10
349.161268817087
 20
152.8498726621509
 30
0.0
 11
355.500623347087
 21
152.8498726621509
 31
0.0
  0
LINE
  5
14AD
330
1A
100
AcDbEntity
  8
SEIHIN
 62
     3
100
AcDbLine
 10
349.147321007087
 20
154.0498726621508
 30
0.0
 11
355.500623347087
 21
154.0498726621508
 31
0.0
  0
ARC
  5
14AE
330
1A
100
AcDbEntity
  8
NOKITOI
  6
PHANTOM
 62
     8
100
AcDbCircle
 10
350.4888283149325
 20
160.0412283898708
 30
0.0
 40
3.999989731271038
100
AcDbArc
 50
358.2100163932687
 51
83.52268857986727
  0
LINE
  5
14AF
330
1A
100
AcDbEntity
  8
NOKITOI
  6
PHANTOM
 62
     8
100
AcDbLine
 10
354.0500661963791
 20
154.0411846073454
 30
0.0
 11
347.9053661963793
 21
154.0411846073454
 31
0.0
  0
ARC
  5
14B0
330
1A
100
AcDbEntity
  8
NOKITOI
  6
PHANTOM
 62
     8
100
AcDbCircle
 10
352.4023526242407
 20
157.241171452259
 30
0.0
 40
1.999986844959662
100
AcDbArc
 50
270.0003888156784
 51
358.2124468147644
  0
ARC
  5
14B1
330
1A
100
AcDbEntity
  8
NOKITOI
  6
PHANTOM
 62
     8
100
AcDbCircle
 10
350.48874598371
 20
160.0412433357254
 30
0.0
 40
5.2000412730095
100
AcDbArc
 50
37.92420092094285
 51
89.99867545693819
  0
ARC
  5
14B2
330
1A
100
AcDbEntity
  8
SEIHIN
 62
     3
100
AcDbCircle
 10
349.161268817087
 20
151.8498726621509
 30
0.0
 40
2.199999998168167
100
AcDbArc
 50
90.0
 51
90.20054527422605
  0
ARC
  5
14B3
330
1A
100
AcDbEntity
  8
SEIHIN
 62
     3
100
AcDbCircle
 10
349.161268817087
 20
151.8498726621509
 30
0.0
 40
2.199999994483917
100
AcDbArc
 50
90.20054527422605
 51
105.0000000722989
  0
ARC
  5
14B4
330
1A
100
AcDbEntity
  8
SEIHIN
 62
     3
100
AcDbCircle
 10
349.161268817087
 20
151.8498726621509
 30
0.0
 40
0.9999999972496434
100
AcDbArc
 50
90.0
 51
194.999998002274
  0
ARC
  5
14B5
330
1A
100
AcDbEntity
  8
SEIHIN
 62
     3
100
AcDbCircle
 10
349.161268817087
 20
151.8498726621509
 30
0.0
 40
2.199999996916341
100
AcDbArc
 50
180.0000002604354
 51
194.9999981765594
  0
ARC
  5
14B6
330
1A
100
AcDbEntity
  8
SEIHIN
 62
     3
100
AcDbCircle
 10
349.161268817087
 20
151.8498726621509
 30
0.0
 40
2.199999996315752
100
AcDbArc
 50
105.0000000722989
 51
180.0000002604354
  0
ARC
  5
14B7
330
1A
100
AcDbEntity
  8
NOKITOI
  6
PHANTOM
 62
     8
100
AcDbCircle
 10
346.3614536266709
 20
154.7411729826157
 30
0.0
 40
0.5000116248877111
100
AcDbArc
 50
89.99855965101616
 51
175.525153191658
  0
LINE
  5
14B8
330
1A
100
AcDbEntity
  8
NOKITOI
  6
PHANTOM
 62
     8
100
AcDbLine
 10
346.3614661963787
 20
155.2411846073454
 30
0.0
 11
352.4023661963791
 21
155.2411846073454
 31
0.0
  0
ARC
  5
14B9
330
1A
100
AcDbEntity
  8
NOKITOI
  6
PHANTOM
 62
     8
100
AcDbCircle
 10
347.9053746205417
 20
153.0411921224019
 30
0.0
 40
0.9999924849789756
100
AcDbArc
 50
90.00048267259197
 51
173.4717353933264
  0
LINE
  5
14BA
330
1A
100
AcDbEntity
  8
SEIHIN
 62
     3
100
AcDbLine
 10
343.316896347087
 20
160.7499046621508
 30
0.0
 11
343.316896347087
 21
161.1499046621508
 31
0.0
  0
LINE
  5
14BB
330
1A
100
AcDbEntity
  8
SEIHIN
 62
     3
100
AcDbLine
 10
340.603823347087
 20
160.7499046621508
 30
0.0
 11
340.603823347087
 21
161.1499046621508
 31
0.0
  0
LINE
  5
14BC
330
1A
100
AcDbEntity
  8
SEIHIN
 62
     3
100
AcDbLine
 10
344.316896347087
 20
164.7435816621508
 30
0.0
 11
343.316896347087
 21
160.7499046621508
 31
0.0
  0
LINE
  5
14BD
330
1A
100
AcDbEntity
  8
NOKITOI
  6
PHANTOM
 62
     8
100
AcDbLine
 10
347.6625661963793
 20
167.5411846073454
 30
0.0
 11
349.8940661963792
 21
167.5411846073454
 31
0.0
  0
LINE
  5
14BE
330
1A
100
AcDbEntity
  8
NOKITOI
  6
PHANTOM
 62
     8
100
AcDbLine
 10
351.9676661963789
 20
166.3411846073456
 30
0.0
 11
349.0311661963791
 21
166.3411846073456
 31
0.0
  0
LINE
  5
14BF
330
1A
100
AcDbEntity
  8
NOKITOI
  6
PHANTOM
 62
     8
100
AcDbLine
 10
350.0269661963788
 20
165.2411846073454
 30
0.0
 11
350.4888661963791
 21
165.2411846073454
 31
0.0
  0
LINE
  5
14C0
330
1A
100
AcDbEntity
  8
NOKITOI
  6
PHANTOM
 62
     8
100
AcDbLine
 10
350.0269661963788
 20
165.2411846073454
 30
0.0
 11
349.0311661963791
 21
166.3411846073456
 31
0.0
  0
ARC
  5
14C1
330
1A
100
AcDbEntity
  8
NOKITOI
  6
PHANTOM
 62
     8
100
AcDbCircle
 10
347.662572397537
 20
167.0411911424307
 30
0.0
 40
0.4999934649531607
100
AcDbArc
 50
90.00071060961758
 51
183.0044636796622
  0
ARC
  5
14C2
330
1A
100
AcDbEntity
  8
NOKITOI
  6
PHANTOM
 62
     8
100
AcDbCircle
 10
347.9783730833741
 20
161.0411780722599
 30
0.0
 40
0.499993464961963
100
AcDbArc
 50
183.0029638682578
 51
269.9992107982097
  0
ARC
  5
14C3
330
1A
100
AcDbEntity
  8
NOKITOI
  6
PHANTOM
 62
     8
100
AcDbCircle
 10
350.8836519779638
 20
163.5188699730444
 30
0.0
 40
0.5000073448410256
100
AcDbArc
 50
83.52170717002923
 51
188.1270521358756
  0
LINE
  5
14C4
330
1A
100
AcDbEntity
  8
NOKITOI
  6
PHANTOM
 62
     8
100
AcDbLine
 10
349.4203661963787
 20
161.7411846073454
 30
0.0
 11
349.016266196379
 21
164.5695846073453
 31
0.0
  0
LINE
  5
14C5
330
1A
100
AcDbEntity
  8
NOKITOI
  6
PHANTOM
 62
     8
100
AcDbLine
 10
348.6424661963791
 20
161.7411846073454
 30
0.0
 11
349.4203661963787
 21
161.7411846073454
 31
0.0
  0
ARC
  5
14C6
330
1A
100
AcDbEntity
  8
NOKITOI
  6
PHANTOM
 62
     8
100
AcDbCircle
 10
350.2274395957815
 20
161.0411539304633
 30
0.0
 40
0.4999693238254178
100
AcDbArc
 50
270.0030483909627
 51
8.144496122946364
  0
LINE
  5
14C7
330
1A
100
AcDbEntity
  8
NOKITOI
  6
PHANTOM
 62
     8
100
AcDbLine
 10
347.9783661963792
 20
160.5411846073454
 30
0.0
 11
350.2274661963792
 21
160.5411846073454
 31
0.0
  0
LINE
  5
14C8
330
1A
100
AcDbEntity
  8
NOKITOI
  6
PHANTOM
 62
     8
100
AcDbLine
 10
350.7223661963793
 20
161.1119846073456
 30
0.0
 11
350.3886661963792
 21
163.4481846073455
 31
0.0
  0
LINE
  5
14C9
330
1A
100
AcDbEntity
  8
NOKITOI
  6
PHANTOM
 62
     8
100
AcDbLine
 10
348.6424661963791
 20
161.7411846073454
 30
0.0
 11
348.4612661963792
 21
165.1826846073456
 31
0.0
  0
LINE
  5
14CA
330
1A
100
AcDbEntity
  8
NOKITOI
  6
PHANTOM
 62
     8
100
AcDbLine
 10
349.016266196379
 20
164.5695846073453
 30
0.0
 11
348.4612661963792
 21
165.1826846073456
 31
0.0
  0
LINE
  5
14CB
330
1A
100
AcDbEntity
  8
NOKITOI
  6
PHANTOM
 62
     8
100
AcDbLine
 10
347.478966196379
 20
161.0149846073454
 30
0.0
 11
347.1631661963792
 21
167.0148846073454
 31
0.0
  0
ARC
  5
14CC
330
1A
100
AcDbEntity
  8
SEIHIN
 62
     3
100
AcDbCircle
 10
355.500623347087
 20
155.0498726621508
 30
0.0
 40
1.0
100
AcDbArc
 50
270.0
 51
0.0
  0
ARC
  5
14CD
330
1A
100
AcDbEntity
  8
SEIHIN
 62
     3
100
AcDbCircle
 10
355.500623347087
 20
155.0498726621508
 30
0.0
 40
2.200000000000001
100
AcDbArc
 50
270.0
 51
0.0
  0
ARC
  5
14CE
330
1A
100
AcDbEntity
  8
NOKITOI
  6
PHANTOM
 62
     8
100
AcDbCircle
 10
354.0500302372283
 20
155.5411497532022
 30
0.0
 40
1.499965146287778
100
AcDbArc
 50
270.0013735702995
 51
358.2133719782232
  0
ARC
  5
14CF
330
1A
100
AcDbEntity
  8
SEIHIN
 62
     3
100
AcDbCircle
 10
355.7006233470869
 20
158.9859406621508
 30
0.0
 40
3.000000004265107
100
AcDbArc
 50
311.8103150062981
 51
0.0
  0
LINE
  5
14D0
330
1A
100
AcDbEntity
  8
NOKITOI
  6
PHANTOM
 62
     8
100
AcDbLine
 10
354.4013661963794
 20
157.1787846073454
 30
0.0
 11
354.4868661963791
 21
159.9162846073454
 31
0.0
  0
ARC
  5
14D1
330
1A
100
AcDbEntity
  8
SEIHIN
 62
     3
100
AcDbCircle
 10
352.500623347087
 20
175.2498726621508
 30
0.0
 40
2.000000000000001
100
AcDbArc
 50
0.0
 51
90.0
  0
LINE
  5
14D2
330
1A
100
AcDbEntity
  8
SEIHIN
 62
     3
100
AcDbLine
 10
355.500623347087
 20
172.7498726621508
 30
0.0
 11
338.353823347087
 21
172.7498726621508
 31
0.0
  0
LINE
  5
14D3
330
1A
100
AcDbEntity
  8
NOKITOI
  6
PHANTOM
 62
     8
100
AcDbLine
 10
353.9404661963794
 20
170.0411846073454
 30
0.0
 11
350.613866196379
 21
170.0411846073454
 31
0.0
  0
LINE
  5
14D4
330
1A
100
AcDbEntity
  8
NOKITOI
  6
PHANTOM
 62
     8
100
AcDbLine
 10
353.9404661963794
 20
168.8411846073456
 30
0.0
 11
351.4676661963789
 21
168.8411846073456
 31
0.0
  0
ARC
  5
14D5
330
1A
100
AcDbEntity
  8
SEIHIN
 62
     3
100
AcDbCircle
 10
342.816896347087
 20
170.7025026621508
 30
0.0
 40
1.5
100
AcDbArc
 50
0.0
 51
90.0
  0
ARC
  5
14D6
330
1A
100
AcDbEntity
  8
SEIHIN
 62
     3
100
AcDbCircle
 10
342.816896347087
 20
170.6468326621508
 30
0.0
 40
1.5
100
AcDbArc
 50
0.0
 51
90.0
  0
ARC
  5
14D7
330
1A
100
AcDbEntity
  8
SEIHIN
 62
     3
100
AcDbCircle
 10
339.255552347087
 20
170.6468326621508
 30
0.0
 40
1.499999998565515
100
AcDbArc
 50
90.0
 51
156.5014341565161
  0
ARC
  5
14D8
330
1A
100
AcDbEntity
  8
SEIHIN
 62
     3
100
AcDbCircle
 10
339.279756347087
 20
170.7025026621508
 30
0.0
 40
1.499999998366152
100
AcDbArc
 50
90.00000190985865
 51
156.5014370654866
  0
LINE
  5
14D9
330
1A
100
AcDbEntity
  8
SEIHIN
 62
     3
100
AcDbLine
 10
341.693394347087
 20
172.3498726621508
 30
0.0
 11
341.693394347087
 21
172.7498726621508
 31
0.0
  0
ARC
  5
14DA
330
1A
100
AcDbEntity
  8
SEIHIN
 62
     3
100
AcDbCircle
 10
338.187308347087
 20
172.7498726621508
 30
0.0
 40
1.000000005458808
100
AcDbArc
 50
271.0792212267711
 51
325.0882877584594
  0
ARC
  5
14DB
330
1A
100
AcDbEntity
  8
SEIHIN
 62
     3
100
AcDbCircle
 10
338.187308347087
 20
172.7498726621508
 30
0.0
 40
1.000000000760434
100
AcDbArc
 50
270.0
 51
271.0792212267711
  0
ARC
  5
14DC
330
1A
100
AcDbEntity
  8
SEIHIN
 62
     3
100
AcDbCircle
 10
338.187308347087
 20
172.7498726621508
 30
0.0
 40
1.000000005160678
100
AcDbArc
 50
325.0882877584594
 51
336.421821544919
  0
LINE
  5
14DD
330
1A
100
AcDbEntity
  8
SEIHIN
 62
     3
100
AcDbLine
 10
342.816896347087
 20
172.2025026621508
 30
0.0
 11
339.279756347087
 21
172.2025026621508
 31
0.0
  0
LINE
  5
14DE
330
1A
100
AcDbEntity
  8
SEIHIN
 62
     3
100
AcDbLine
 10
342.816896347087
 20
172.1468326621508
 30
0.0
 11
339.255552347087
 21
172.1468326621508
 31
0.0
  0
ARC
  5
14DF
330
1A
100
AcDbEntity
  8
NOKITOI
  6
PHANTOM
 62
     8
100
AcDbCircle
 10
350.6138669793876
 20
169.5411855623471
 30
0.0
 40
0.4999990449987349
100
AcDbArc
 50
90.0000897263067
 51
191.3032801984554
  0
LINE
  5
14E0
330
1A
100
AcDbEntity
  8
NOKITOI
  6
PHANTOM
 62
     8
100
AcDbLine
 10
350.3843661963792
 20
168.1392846073453
 30
0.0
 11
350.1235661963791
 21
169.4431846073454
 31
0.0
  0
ARC
  5
14E1
330
1A
100
AcDbEntity
  8
SEIHIN
100
AcDbCircle
 10
358.2506233470871
 20
170.9498726621508
 30
0.0
 40
7.0
100
AcDbArc
 50
0.0
 51
90.0
  0
ARC
  5
14E2
330
1A
100
AcDbEntity
  8
SEIHIN
100
AcDbCircle
 10
358.2506233470871
 20
170.9498726621508
 30
0.0
 40
4.0
100
AcDbArc
 50
0.0
 51
90.0
  0
LINE
  5
14E3
330
1A
100
AcDbEntity
  8
SEIHIN
100
AcDbLine
 10
354.4779953404155
 20
174.9498726621508
 30
0.0
 11
358.2506233470871
 21
174.9498726621508
 31
0.0
  0
LINE
  5
14E4
330
1A
100
AcDbEntity
  8
SEIHIN
 62
     3
100
AcDbLine
 10
354.500623347087
 20
174.9498726621508
 30
0.0
 11
355.500623347087
 21
174.9498726621508
 31
0.0
  0
LINE
  5
14E5
330
1A
100
AcDbEntity
  8
SEIHIN
 62
     3
100
AcDbLine
 10
355.500623347087
 20
173.9498726621508
 30
0.0
 11
354.500623347087
 21
173.9498726621508
 31
0.0
  0
ARC
  5
14E6
330
1A
100
AcDbEntity
  8
SEIHIN
 62
     3
100
AcDbCircle
 10
355.500623347087
 20
171.7498726621508
 30
0.0
 40
2.200000000000001
100
AcDbArc
 50
0.0
 51
90.0
  0
ARC
  5
14E7
330
1A
100
AcDbEntity
  8
SEIHIN
 62
     3
100
AcDbCircle
 10
355.500623347087
 20
171.7498726621508
 30
0.0
 40
1.0
100
AcDbArc
 50
0.0
 51
90.0
  0
LINE
  5
14E8
330
1A
100
AcDbEntity
  8
SEIHIN
 62
     3
100
AcDbLine
 10
354.500623347087
 20
175.2498726621508
 30
0.0
 11
354.500623347087
 21
172.7498726621508
 31
0.0
  0
ARC
  5
14E9
330
1A
100
AcDbEntity
  8
SEIHIN
 62
     3
100
AcDbCircle
 10
355.500623347087
 20
171.7498726621508
 30
0.0
 40
3.200000000000001
100
AcDbArc
 50
0.0
 51
90.0
  0
ARC
  5
14EA
330
1A
100
AcDbEntity
  8
NOKITOI
  6
PHANTOM
 62
     8
100
AcDbCircle
 10
353.9404534455292
 20
168.0411977624318
 30
0.0
 40
1.999986844954076
100
AcDbArc
 50
358.2116927117297
 51
89.99963471264711
  0
ARC
  5
14EB
330
1A
100
AcDbEntity
  8
NOKITOI
  6
PHANTOM
 62
     8
100
AcDbCircle
 10
353.9404617015811
 20
168.0411892448723
 30
0.0
 40
0.7999953624857498
100
AcDbArc
 50
358.2088726535808
 51
89.99967808194737
  0
LINE
  5
1600
330
1A
100
AcDbEntity
  8
SEIHIN
100
AcDbLine
 10
374.765761147087
 20
135.0769489621508
 30
0.0
 11
373.8104491470871
 21
132.1024945621508
 31
0.0
  0
LINE
  5
1601
330
1A
100
AcDbEntity
  8
SEIHIN
100
AcDbLine
 10
371.057027247087
 20
133.5785191621508
 30
0.0
 11
374.615788347087
 21
124.7702766621508
 31
0.0
  0
LINE
  5
1602
330
1A
100
AcDbEntity
  8
SEIHIN
100
AcDbLine
 10
369.7646982470871
 20
142.1160802621509
 30
0.0
 11
373.8104491470871
 21
132.1024945621508
 31
0.0
  0
LINE
  5
1603
330
1A
100
AcDbEntity
  8
SEIHIN
100
AcDbLine
 10
373.8104491470871
 20
132.1024945621508
 30
0.0
 11
371.9560814470871
 21
131.3532814621508
 31
0.0
  0
LINE
  5
1604
330
1A
100
AcDbEntity
  8
SEIHIN
100
AcDbLine
 10
371.8342363470871
 20
123.6464566621508
 30
0.0
 11
374.615788347087
 21
124.7702766621508
 31
0.0
  0
LINE
  5
1605
330
1A
100
AcDbEntity
  8
SEIHIN
100
AcDbLine
 10
372.518121747087
 20
140.6400521621508
 30
0.0
 11
374.765761147087
 21
135.0769489621508
 31
0.0
  0
LINE
  5
1606
330
1A
100
AcDbEntity
  8
SEIHIN
100
AcDbLine
 10
369.7646982470871
 20
142.1160802621509
 30
0.0
 11
372.518121747087
 21
140.6400521621508
 31
0.0
  0
LINE
  5
18BF
330
1A
100
AcDbEntity
  8
SEIHIN
100
AcDbLine
 10
372.518121747087
 20
140.6400521621508
 30
0.0
 11
498.6151273470873
 21
191.5865448621508
 31
0.0
  0
LINE
  5
18C0
330
1A
100
AcDbEntity
  8
SEIHIN
100
AcDbLine
 10
374.765761147087
 20
135.0769489621508
 30
0.0
 11
500.8627666470872
 21
186.0234416621509
 31
0.0
  0
LINE
  5
18C1
330
1A
100
AcDbEntity
  8
CENTER_L
100
AcDbLine
 10
356.3837922364303
 20
130.885756242491
 30
0.0
 11
515.5010726036157
 21
195.1733052315174
 31
0.0
  0
LINE
  5
18C2
330
1A
100
AcDbEntity
  8
SEIHIN
100
AcDbLine
 10
509.0107855470873
 20
192.551059262151
 30
0.0
 11
500.8627666470872
 21
186.0234416621509
 31
0.0
  0
LINE
  5
18C3
330
1A
100
AcDbEntity
  8
SEIHIN
100
AcDbLine
 10
498.6151273470873
 20
191.5865448621508
 30
0.0
 11
509.0107855470873
 21
192.551059262151
 31
0.0
  0
LINE
  5
18C4
330
1A
100
AcDbEntity
  8
SEIHIN
100
AcDbLine
 10
498.6151273470873
 20
191.5865448621508
 30
0.0
 11
500.8627666470872
 21
186.0234416621509
 31
0.0
  0
LINE
  5
18C5
330
1A
100
AcDbEntity
  8
SEIHIN
100
AcDbLine
 10
498.6151272470872
 20
191.5865448621508
 30
0.0
 11
498.6151273470873
 21
191.5865448621508
 31
0.0
  0
LINE
  5
19F2
330
1A
100
AcDbEntity
  8
ZUWAKU
100
AcDbLine
 10
208.6466018818887
 20
15.20000036911607
 30
0.0
 11
447.4243645628121
 21
15.20000036911606
 31
0.0
  0
LINE
  5
19F3
330
1A
100
AcDbEntity
  8
ZUWAKU
100
AcDbLine
 10
208.6466018818887
 20
15.60000036911607
 30
0.0
 11
447.4243645628121
 21
15.60000036911607
 31
0.0
  0
LINE
  5
19F4
330
1A
100
AcDbEntity
  8
ZUWAKU
100
AcDbLine
 10
208.6466018818887
 20
15.40000036911607
 30
0.0
 11
447.4243645628121
 21
15.40000036911607
 31
0.0
  0
LINE
  5
19F5
330
1A
100
AcDbEntity
  8
ZUWAKU
100
AcDbLine
 10
0.000000591820708
 20
30.80000036911604
 30
0.0
 11
797.4000005918205
 21
30.80000036911604
 31
0.0
  0
LINE
  5
19F6
330
1A
100
AcDbEntity
  8
ZUWAKU
100
AcDbLine
 10
0.000000591820708
 20
30.60000036911604
 30
0.0
 11
797.4000005918205
 21
30.60000036911604
 31
0.0
  0
LINE
  5
19F7
330
1A
100
AcDbEntity
  8
ZUWAKU
100
AcDbLine
 10
0.000000591820708
 20
30.40000036911604
 30
0.0
 11
797.4000005918205
 21
30.40000036911604
 31
0.0
  0
LINE
  5
19F8
330
1A
100
AcDbEntity
  8
ZUWAKU
100
AcDbLine
 10
0.000000591820708
 20
30.20000036911604
 30
0.0
 11
797.4000005918205
 21
30.20000036911604
 31
0.0
  0
LINE
  5
19F9
330
1A
100
AcDbEntity
  8
ZUWAKU
100
AcDbLine
 10
0.000000591820708
 20
30.00000036911603
 30
0.0
 11
797.4000005918205
 21
30.00000036911603
 31
0.0
  0
LWPOLYLINE
  5
19FA
330
1A
100
AcDbEntity
  8
ZUWAKU
100
AcDbPolyline
 90
        4
 70
     1
 43
0.0
 10
0.2000005918206398
 20
551.4000003691161
 10
0.2000005918206398
 20
0.2000003691160828
 10
797.4000005918205
 20
0.2000003691161059
 10
797.4000005918208
 20
551.4000003691161
  0
LWPOLYLINE
  5
19FB
330
1A
100
AcDbEntity
  8
ZUWAKU
100
AcDbPolyline
 90
        4
 70
     1
 43
0.0
 10
0.6000005918206171
 20
551.0000003691161
 10
0.6000005918206171
 20
0.6000003691160601
 10
797.0000005918209
 20
0.6000003691161063
 10
797.0000005918207
 20
551.0000003691161
  0
LWPOLYLINE
  5
19FC
330
1A
100
AcDbEntity
  8
ZUWAKU
100
AcDbPolyline
 90
        4
 70
     1
 43
0.0
 10
0.000000591820708
 20
551.600000369116
 10
0.000000591820708
 20
0.0000003691160373
 10
797.6000005918209
 20
0.0000003691161048
 10
797.6000005918209
 20
551.6000003691162
  0
LWPOLYLINE
  5
19FD
330
1A
100
AcDbEntity
  8
ZUWAKU
100
AcDbPolyline
 90
        4
 70
     1
 43
0.0
 10
0.4000005918206853
 20
551.200000369116
 10
0.4000005918206853
 20
0.4000003691161283
 10
797.2000005918207
 20
0.4000003691161052
 10
797.2000005918207
 20
551.200000369116
  0
LWPOLYLINE
  5
19FE
330
1A
100
AcDbEntity
  8
ZUWAKU
100
AcDbPolyline
 90
        4
 70
     1
 43
0.0
 10
0.8000005918206625
 20
550.8000003691161
 10
0.8000005918206625
 20
0.8000003691161055
 10
796.8000005918207
 20
0.8000003691161055
 10
796.8000005918207
 20
550.8000003691161
  0
TEXT
  5
19FF
330
1A
100
AcDbEntity
  8
MOJI
100
AcDbText
 10
92.95779017998984
 20
12.74117849939079
 30
0.0
 40
6.0
  1
新・丸トップＲＶ１０５
 41
0.9
  7
ｽﾀｲﾙ1
100
AcDbText
  0
HATCH
  5
1A00
330
1A
100
AcDbEntity
  8
ZUWAKU
100
AcDbHatch
 10
0.0
 20
0.0
 30
0.0
210
0.0
220
0.0
230
1.0
  2
ANSI37
 70
     0
 71
     0
 91
        8
 92
        7
 72
     1
 73
     1
 93
       24
 10
14.50226325294056
 20
17.64484885009962
 42
-0.1989123673796348
 10
14.09221274660183
 20
18.63479834376067
 42
0.0
 10
14.09221274660183
 20
19.92500036911605
 42
-0.4142135623730912
 10
14.6172127466018
 20
20.45000036911603
 42
0.0
 10
17.59221274660171
 20
20.45000036911603
 42
0.4142135623731546
 10
18.11721274660181
 20
20.97500036911603
 42
0.0
 10
18.11721274660181
 20
22.72500036911604
 42
0.4142135623731586
 10
17.59221274660171
 20
23.25000036911604
 42
0.0
 10
14.09221274660183
 20
23.25000036911604
 42
0.4142135623730928
 10
11.29221274660187
 20
20.45000036911607
 42
0.0
 10
11.29221274660187
 20
18.6347983437608
 42
0.1989123673796619
 10
12.5223642656183
 20
15.66494986277719
 42
0.0
 10
15.43216224026298
 20
12.75515188813253
 42
-0.1989123673796613
 10
15.84221274660183
 20
11.76520239447134
 42
0.0
 10
15.84221274660183
 20
10.47500036911603
 42
-0.4142135623730911
 10
15.31721274660185
 20
9.95000036911604
 42
0.0
 10
12.34221274660194
 20
9.95000036911604
 42
0.4142135623731526
 10
11.81721274660185
 20
9.425000369116052
 42
0.0
 10
11.81721274660185
 20
7.67500036911603
 42
0.4142135623731526
 10
12.34221274660194
 20
7.150000369116042
 42
0.0
 10
15.84221274660183
 20
7.150000369116042
 42
0.4142135623731044
 10
18.6422127466019
 20
9.950000369116018
 42
0.0
 10
18.6422127466019
 20
11.76520239447129
 42
0.1989123673796604
 10
17.41206122758535
 20
14.73505087545483
 42
0.0
 97
        0
 92
        7
 72
     1
 73
     1
 93
       16
 10
23.54221274660187
 20
19.05000036911604
 42
-0.4142135623730935
 10
24.94221274660185
 20
20.45000036911603
 42
0.0
 10
26.86721274660181
 20
20.45000036911603
 42
0.4142135623731546
 10
27.3922127466019
 20
20.97500036911603
 42
0.0
 10
27.3922127466019
 20
22.72500036911604
 42
0.4142135623730951
 10
26.86721274660192
 20
23.25000036911604
 42
0.0
 10
24.94221274660174
 20
23.250000369116
 42
0.4142135623730892
 10
20.7422127466018
 20
19.05000036911597
 42
0.0
 10
20.7422127466018
 20
11.35000036911606
 42
0.4142135623730969
 10
24.94221274660185
 20
7.150000369116042
 42
0.0
 10
26.86721274660181
 20
7.150000369116042
 42
0.4142135623731526
 10
27.3922127466019
 20
7.67500036911603
 42
0.0
 10
27.3922127466019
 20
9.425000369116052
 42
0.4142135623730891
 10
26.86721274660192
 20
9.95000036911604
 42
0.0
 10
24.94221274660185
 20
9.95000036911604
 42
-0.4142135623730928
 10
23.54221274660187
 20
11.35000036911602
 42
0.0
 97
        0
 92
        7
 72
     1
 73
     1
 93
        2
 10
24.24221274660181
 20
15.20000036911604
 42
1.0
 10
27.74221274660181
 20
15.20000036911604
 42
1.0
 97
        0
 92
        7
 72
     1
 73
     1
 93
       26
 10
37.31485922877982
 20
19.20504756267946
 42
0.0
 10
38.37649886191764
 20
22.56690640094905
 42
0.5069206636600134
 10
37.87586796272228
 20
23.25000036911604
 42
0.0
 10
36.17697858311305
 20
23.25000036911604
 42
0.3272098845218764
 10
35.67634768391769
 20
22.88309433728301
 42
0.0
 10
33.80807780928591
 20
16.96690640094912
 42
-0.3272098845219541
 10
33.30744691009044
 20
16.60000036911603
 42
0.0
 10
33.16721274660199
 20
16.60000036911603
 42
-0.4142135623731526
 10
32.6422127466019
 20
17.12500036911602
 42
0.0
 10
32.6422127466019
 20
22.72500036911604
 42
0.4142135623730951
 10
32.11721274660192
 20
23.25000036911604
 42
0.0
 10
30.3672127466018
 20
23.25000036911604
 42
0.4142135623730871
 10
29.84221274660183
 20
22.72500036911606
 42
0.0
 10
29.84221274660183
 20
7.67500036911603
 42
0.4142135623730891
 10
30.3672127466018
 20
7.150000369116042
 42
0.0
 10
32.11721274660181
 20
7.150000369116042
 42
0.4142135623731526
 10
32.6422127466019
 20
7.67500036911603
 42
0.0
 10
32.6422127466019
 20
13.27500036911605
 42
-0.4142135623731526
 10
33.16721274660199
 20
13.80000036911604
 42
0.0
 10
33.30744691009056
 20
13.80000036911604
 42
-0.3272098845218915
 10
33.80807780928591
 20
13.43309433728296
 42
0.0
 10
35.67634768391769
 20
7.516906400949114
 42
0.3272098845218902
 10
36.17697858311305
 20
7.150000369116042
 42
0.0
 10
37.87586796272228
 20
7.150000369116042
 42
0.5069206636600335
 10
38.37649886191764
 20
7.83309433728305
 42
0.0
 10
36.05010748344398
 20
15.20000036911618
 42
0.0
 97
        0
 92
        7
 72
     1
 73
     1
 93
        8
 10
43.4922127466018
 20
22.72500036911605
 42
0.4142135623731546
 10
42.96721274660171
 20
23.25000036911604
 42
0.0
 10
41.21721274660195
 20
23.25000036911604
 42
0.4142135623731507
 10
40.69221274660185
 20
22.72500036911606
 42
0.0
 10
40.69221274660185
 20
7.67500036911603
 42
0.4142135623731526
 10
41.21721274660195
 20
7.150000369116042
 42
0.0
 10
42.96721274660171
 20
7.150000369116042
 42
0.4142135623731526
 10
43.4922127466018
 20
7.67500036911603
 42
0.0
 97
        0
 92
        7
 72
     1
 73
     1
 93
       24
 10
48.39221274660189
 20
19.92500036911605
 42
-0.4142135623731546
 10
48.91721274660199
 20
20.45000036911603
 42
0.0
 10
51.8922127466019
 20
20.45000036911603
 42
0.4142135623730911
 10
52.41721274660188
 20
20.97500036911603
 42
0.0
 10
52.41721274660188
 20
22.72500036911604
 42
0.4142135623730952
 10
51.8922127466019
 20
23.25000036911604
 42
0.0
 10
48.39221274660189
 20
23.25000036911604
 42
0.4142135623731048
 10
45.59221274660183
 20
20.45000036911607
 42
0.0
 10
45.59221274660183
 20
18.6347983437608
 42
0.1989123673796613
 10
46.82236426561837
 20
15.66494986277724
 42
0.0
 10
49.73216224026305
 20
12.75515188813258
 42
-0.1989123673796402
 10
50.1422127466019
 20
11.7652023944715
 42
0.0
 10
50.1422127466019
 20
10.47500036911603
 42
-0.4142135623730911
 10
49.61721274660192
 20
9.95000036911604
 42
0.0
 10
46.6422127466019
 20
9.95000036911604
 42
0.4142135623731526
 10
46.11721274660181
 20
9.425000369116052
 42
0.0
 10
46.11721274660181
 20
7.67500036911603
 42
0.4142135623730891
 10
46.64221274660178
 20
7.150000369116042
 42
0.0
 10
50.1422127466019
 20
7.150000369116042
 42
0.4142135623730925
 10
52.94221274660185
 20
9.950000369116018
 42
0.0
 10
52.94221274660185
 20
11.76520239447129
 42
0.1989123673796675
 10
51.71206122758531
 20
14.73505087545494
 42
0.0
 10
48.80226325294074
 20
17.64484885009946
 42
-0.1989123673796652
 10
48.39221274660189
 20
18.63479834376063
 42
0.0
 97
        0
 92
        7
 72
     1
 73
     1
 93
       16
 10
57.84221274660183
 20
22.72500036911603
 42
0.414213562373103
 10
57.31721274660185
 20
23.25000036911604
 42
0.0
 10
55.56721274660185
 20
23.25000036911604
 42
0.4142135623730871
 10
55.04221274660188
 20
22.72500036911606
 42
0.0
 10
55.04221274660188
 20
9.950000369116018
 42
0.4142135623730926
 10
57.84221274660183
 20
7.150000369116042
 42
0.0
 10
61.34221274660183
 20
7.150000369116042
 42
0.4142135623731044
 10
64.1422127466019
 20
9.950000369116018
 42
0.0
 10
64.1422127466019
 20
22.72500036911604
 42
0.4142135623730951
 10
63.61721274660192
 20
23.25000036911604
 42
0.0
 10
61.86721274660181
 20
23.25000036911604
 42
0.4142135623730871
 10
61.34221274660183
 20
22.72500036911606
 42
0.0
 10
61.34221274660183
 20
11.00000036911601
 42
-0.414213562373088
 10
60.29221274660187
 20
9.95000036911604
 42
0.0
 10
58.8922127466019
 20
9.95000036911604
 42
-0.4142135623731197
 10
57.84221274660183
 20
11.00000036911601
 42
0.0
 97
        0
 92
        7
 72
     1
 73
     1
 93
        8
 10
69.04221274660187
 20
22.72500036911606
 42
0.4142135623730871
 10
68.5172127466019
 20
23.25000036911604
 42
0.0
 10
66.7672127466019
 20
23.25000036911604
 42
0.4142135623731507
 10
66.24221274660181
 20
22.72500036911606
 42
0.0
 10
66.24221274660181
 20
7.67500036911603
 42
0.4142135623730891
 10
66.76721274660178
 20
7.150000369116042
 42
0.0
 10
68.5172127466019
 20
7.150000369116042
 42
0.4142135623730891
 10
69.04221274660187
 20
7.67500036911603
 42
0.0
 97
        0
 75
     0
 76
     1
 52
0.0
 41
0.2
 77
     0
 78
     2
 53
45.0
 43
-900.9423037428582
 44
-13.19999963088389
 45
-0.4490128060534576
 46
0.4490128060534577
 79
     0
 53
135.0
 43
-900.9423037428582
 44
-13.19999963088389
 45
-0.4490128060534577
 46
-0.4490128060534576
 79
     0
 47
0.057451373970553
 98
        8
 10
16.07985555484401
 20
15.16717401500159
 10
22.40451559825987
 20
18.84406255156704
 10
25.16436847748036
 20
15.51188201518675
 10
30.91406057345784
 20
16.20129801555754
 10
41.83847261077744
 20
16.66091028309915
 10
46.89820148695026
 20
19.41857668552325
 10
56.55768656422106
 20
18.72915828421105
 10
67.82708021144344
 20
19.18877055175267
  0
LINE
  5
1A01
330
1A
100
AcDbEntity
  8
ZUWAKU
100
AcDbLine
 10
24.94221274660185
 20
23.250000369116
 30
0.0
 11
26.86721274660181
 21
23.25000036911604
 31
0.0
  0
LINE
  5
1A02
330
1A
100
AcDbEntity
  8
ZUWAKU
100
AcDbLine
 10
26.86721274660181
 20
20.45000036911603
 30
0.0
 11
24.94221274660185
 21
20.45000036911603
 31
0.0
  0
LINE
  5
1A03
330
1A
100
AcDbEntity
  8
ZUWAKU
100
AcDbLine
 10
24.94221274660185
 20
9.95000036911604
 30
0.0
 11
26.86721274660181
 21
9.95000036911604
 31
0.0
  0
LINE
  5
1A04
330
1A
100
AcDbEntity
  8
ZUWAKU
100
AcDbLine
 10
26.86721274660181
 20
7.150000369116042
 30
0.0
 11
24.94221274660185
 21
7.150000369116042
 31
0.0
  0
CIRCLE
  5
1A05
330
1A
100
AcDbEntity
  8
ZUWAKU
100
AcDbCircle
 10
25.9922127466018
 20
15.20000036911604
 30
0.0
 40
1.75
  0
ARC
  5
1A06
330
1A
100
AcDbEntity
  8
ZUWAKU
100
AcDbCircle
 10
15.49221274660181
 20
18.63479834376074
 30
0.0
 40
1.399999999999999
100
AcDbArc
 50
180.0000000000016
 51
224.9999999999988
  0
LINE
  5
1A07
330
1A
100
AcDbEntity
  8
ZUWAKU
100
AcDbLine
 10
23.54221274660187
 20
19.05000036911604
 30
0.0
 11
23.54221274660187
 21
11.35000036911604
 31
0.0
  0
LINE
  5
1A08
330
1A
100
AcDbEntity
  8
ZUWAKU
100
AcDbLine
 10
20.7422127466018
 20
11.35000036911604
 30
0.0
 11
20.7422127466018
 21
19.050000369116
 31
0.0
  0
ARC
  5
1A09
330
1A
100
AcDbEntity
  8
ZUWAKU
100
AcDbCircle
 10
15.49221274660181
 20
18.63479834376074
 30
0.0
 40
4.199999999999999
100
AcDbArc
 50
180.0
 51
225.0
  0
ARC
  5
1A0A
330
1A
100
AcDbEntity
  8
ZUWAKU
100
AcDbCircle
 10
15.84221274660183
 20
9.95000036911604
 30
0.0
 40
2.799999999999999
100
AcDbArc
 50
270.0
 51
0.0
  0
ARC
  5
1A0B
330
1A
100
AcDbEntity
  8
ZUWAKU
100
AcDbCircle
 10
24.94221274660185
 20
11.35000036911604
 30
0.0
 40
4.199999999999999
100
AcDbArc
 50
180.0
 51
270.0
  0
ARC
  5
1A0C
330
1A
100
AcDbEntity
  8
ZUWAKU
100
AcDbCircle
 10
14.44221274660185
 20
11.76520239447134
 30
0.0
 40
4.199999999999999
100
AcDbArc
 50
0.0
 51
45.0
  0
LINE
  5
1A0D
330
1A
100
AcDbEntity
  8
ZUWAKU
100
AcDbLine
 10
17.41206122758535
 20
14.73505087545486
 30
0.0
 11
14.50226325294067
 21
17.64484885009954
 31
0.0
  0
LINE
  5
1A0E
330
1A
100
AcDbEntity
  8
ZUWAKU
100
AcDbLine
 10
15.84221274660183
 20
10.47500036911604
 30
0.0
 11
15.84221274660183
 21
11.76520239447138
 31
0.0
  0
ARC
  5
1A0F
330
1A
100
AcDbEntity
  8
ZUWAKU
100
AcDbCircle
 10
15.31721274660185
 20
10.47500036911604
 30
0.0
 40
0.525
100
AcDbArc
 50
270.0
 51
0.0
  0
ARC
  5
1A10
330
1A
100
AcDbEntity
  8
ZUWAKU
100
AcDbCircle
 10
14.44221274660185
 20
11.76520239447138
 30
0.0
 40
1.399999999999999
100
AcDbArc
 50
0.0
 51
45.0
  0
LINE
  5
1A11
330
1A
100
AcDbEntity
  8
ZUWAKU
100
AcDbLine
 10
11.81721274660185
 20
7.675000369116041
 30
0.0
 11
11.81721274660185
 21
9.425000369116041
 31
0.0
  0
ARC
  5
1A12
330
1A
100
AcDbEntity
  8
ZUWAKU
100
AcDbCircle
 10
12.34221274660183
 20
7.675000369116041
 30
0.0
 40
0.525
100
AcDbArc
 50
180.0
 51
270.0
  0
ARC
  5
1A13
330
1A
100
AcDbEntity
  8
ZUWAKU
100
AcDbCircle
 10
12.34221274660183
 20
9.425000369116041
 30
0.0
 40
0.525
100
AcDbArc
 50
90.0
 51
180.0
  0
LINE
  5
1A14
330
1A
100
AcDbEntity
  8
ZUWAKU
100
AcDbLine
 10
12.34221274660183
 20
7.150000369116042
 30
0.0
 11
15.84221274660183
 21
7.150000369116042
 31
0.0
  0
LINE
  5
1A15
330
1A
100
AcDbEntity
  8
ZUWAKU
100
AcDbLine
 10
12.34221274660183
 20
9.95000036911604
 30
0.0
 11
15.31721274660185
 21
9.95000036911604
 31
0.0
  0
LINE
  5
1A16
330
1A
100
AcDbEntity
  8
ZUWAKU
100
AcDbLine
 10
12.5223642656183
 20
15.66494986277722
 30
0.0
 11
15.43216224026298
 21
12.75515188813256
 31
0.0
  0
LINE
  5
1A17
330
1A
100
AcDbEntity
  8
ZUWAKU
100
AcDbLine
 10
18.6422127466019
 20
9.95000036911604
 30
0.0
 11
18.6422127466019
 21
11.76520239447138
 31
0.0
  0
ARC
  5
1A18
330
1A
100
AcDbEntity
  8
ZUWAKU
100
AcDbCircle
 10
24.94221274660185
 20
11.35000036911604
 30
0.0
 40
1.399999999999999
100
AcDbArc
 50
180.0
 51
270.0
  0
ARC
  5
1A19
330
1A
100
AcDbEntity
  8
ZUWAKU
100
AcDbCircle
 10
17.59221274660183
 20
22.72500036911603
 30
0.0
 40
0.525
100
AcDbArc
 50
0.0
 51
90.0
  0
ARC
  5
1A1A
330
1A
100
AcDbEntity
  8
ZUWAKU
100
AcDbCircle
 10
17.59221274660183
 20
20.97500036911604
 30
0.0
 40
0.525
100
AcDbArc
 50
270.0
 51
0.0
  0
LINE
  5
1A1B
330
1A
100
AcDbEntity
  8
ZUWAKU
100
AcDbLine
 10
14.09221274660183
 20
23.25000036911604
 30
0.0
 11
17.59221274660183
 21
23.25000036911604
 31
0.0
  0
ARC
  5
1A1C
330
1A
100
AcDbEntity
  8
ZUWAKU
100
AcDbCircle
 10
14.6172127466018
 20
19.92500036911604
 30
0.0
 40
0.525
100
AcDbArc
 50
90.0
 51
180.0
  0
LINE
  5
1A1D
330
1A
100
AcDbEntity
  8
ZUWAKU
100
AcDbLine
 10
14.09221274660183
 20
19.92500036911604
 30
0.0
 11
14.09221274660183
 21
18.6347983437607
 31
0.0
  0
LINE
  5
1A1E
330
1A
100
AcDbEntity
  8
ZUWAKU
100
AcDbLine
 10
17.59221274660183
 20
20.45000036911603
 30
0.0
 11
14.6172127466018
 21
20.45000036911603
 31
0.0
  0
LINE
  5
1A1F
330
1A
100
AcDbEntity
  8
ZUWAKU
100
AcDbLine
 10
11.29221274660187
 20
20.45000036911603
 30
0.0
 11
11.29221274660187
 21
18.6347983437607
 31
0.0
  0
ARC
  5
1A20
330
1A
100
AcDbEntity
  8
ZUWAKU
100
AcDbCircle
 10
14.09221274660183
 20
20.45000036911603
 30
0.0
 40
2.799999999999999
100
AcDbArc
 50
90.0
 51
180.0
  0
LINE
  5
1A21
330
1A
100
AcDbEntity
  8
ZUWAKU
100
AcDbLine
 10
18.11721274660181
 20
22.72500036911603
 30
0.0
 11
18.11721274660181
 21
20.97500036911604
 31
0.0
  0
ARC
  5
1A22
330
1A
100
AcDbEntity
  8
ZUWAKU
100
AcDbCircle
 10
24.94221274660185
 20
19.05000036911604
 30
0.0
 40
1.399999999999999
100
AcDbArc
 50
90.0
 51
180.0
  0
ARC
  5
1A23
330
1A
100
AcDbEntity
  8
ZUWAKU
100
AcDbCircle
 10
24.94221274660185
 20
19.050000369116
 30
0.0
 40
4.199999999999999
100
AcDbArc
 50
90.0
 51
180.0
  0
LINE
  5
1A24
330
1A
100
AcDbEntity
  8
ZUWAKU
100
AcDbLine
 10
79.32663013980891
 20
30.00000036911603
 30
0.0
 11
79.32663013980914
 21
0.8000003691161055
 31
0.0
  0
LINE
  5
1A25
330
1A
100
AcDbEntity
  8
ZUWAKU
100
AcDbLine
 10
79.52663013980895
 20
30.00000036911603
 30
0.0
 11
79.52663013980918
 21
0.8000003691161055
 31
0.0
  0
LINE
  5
1A26
330
1A
100
AcDbEntity
  8
ZUWAKU
100
AcDbLine
 10
79.12663013980909
 20
30.00000036911603
 30
0.0
 11
79.12663013980909
 21
0.8000003691161055
 31
0.0
  0
LINE
  5
1A27
330
1A
100
AcDbEntity
  8
ZUWAKU
100
AcDbLine
 10
64.1422127466019
 20
9.95000036911604
 30
0.0
 11
64.1422127466019
 21
22.72500036911603
 31
0.0
  0
LINE
  5
1A28
330
1A
100
AcDbEntity
  8
ZUWAKU
100
AcDbLine
 10
61.34221274660183
 20
22.72500036911603
 30
0.0
 11
61.34221274660183
 21
11.00000036911603
 31
0.0
  0
LINE
  5
1A29
330
1A
100
AcDbEntity
  8
ZUWAKU
100
AcDbLine
 10
69.04221274660187
 20
7.675000369116041
 30
0.0
 11
69.04221274660187
 21
22.72500036911603
 31
0.0
  0
LINE
  5
1A2A
330
1A
100
AcDbEntity
  8
ZUWAKU
100
AcDbLine
 10
66.24221274660181
 20
22.72500036911603
 30
0.0
 11
66.24221274660181
 21
7.675000369116041
 31
0.0
  0
ARC
  5
1A2B
330
1A
100
AcDbEntity
  8
ZUWAKU
100
AcDbCircle
 10
49.79221274660187
 20
18.63479834376074
 30
0.0
 40
1.399999999999999
100
AcDbArc
 50
180.0000000000016
 51
224.9999999999988
  0
ARC
  5
1A2C
330
1A
100
AcDbEntity
  8
ZUWAKU
100
AcDbCircle
 10
49.79221274660187
 20
18.63479834376074
 30
0.0
 40
4.199999999999999
100
AcDbArc
 50
180.0
 51
225.0
  0
LINE
  5
1A2D
330
1A
100
AcDbEntity
  8
ZUWAKU
100
AcDbLine
 10
37.31485922877982
 20
19.20504756267946
 30
0.0
 11
36.05010748344398
 21
15.20000036911606
 31
0.0
  0
LINE
  5
1A2E
330
1A
100
AcDbEntity
  8
ZUWAKU
100
AcDbLine
 10
40.69221274660185
 20
22.72500036911603
 30
0.0
 11
40.69221274660185
 21
7.675000369116041
 31
0.0
  0
LINE
  5
1A2F
330
1A
100
AcDbEntity
  8
ZUWAKU
100
AcDbLine
 10
43.4922127466018
 20
7.675000369116041
 30
0.0
 11
43.4922127466018
 21
22.72500036911603
 31
0.0
  0
LINE
  5
1A30
330
1A
100
AcDbEntity
  8
ZUWAKU
100
AcDbLine
 10
55.04221274660188
 20
22.72500036911603
 30
0.0
 11
55.04221274660188
 21
9.95000036911604
 31
0.0
  0
LINE
  5
1A31
330
1A
100
AcDbEntity
  8
ZUWAKU
100
AcDbLine
 10
57.84221274660183
 20
11.00000036911603
 30
0.0
 11
57.84221274660183
 21
22.72500036911603
 31
0.0
  0
LINE
  5
1A32
330
1A
100
AcDbEntity
  8
ZUWAKU
100
AcDbLine
 10
32.6422127466019
 20
17.12500036911604
 30
0.0
 11
32.6422127466019
 21
22.72500036911603
 31
0.0
  0
LINE
  5
1A33
330
1A
100
AcDbEntity
  8
ZUWAKU
100
AcDbLine
 10
29.84221274660183
 20
22.72500036911603
 30
0.0
 11
29.84221274660183
 21
7.675000369116041
 31
0.0
  0
LINE
  5
1A34
330
1A
100
AcDbEntity
  8
ZUWAKU
100
AcDbLine
 10
35.67634768391769
 20
22.88309433728301
 30
0.0
 11
33.80807780928591
 21
16.96690640094907
 31
0.0
  0
LINE
  5
1A35
330
1A
100
AcDbEntity
  8
ZUWAKU
100
AcDbLine
 10
60.29221274660187
 20
9.95000036911604
 30
0.0
 11
58.8922127466019
 21
9.95000036911604
 31
0.0
  0
LINE
  5
1A36
330
1A
100
AcDbEntity
  8
ZUWAKU
100
AcDbLine
 10
57.84221274660183
 20
7.150000369116042
 30
0.0
 11
61.34221274660183
 21
7.150000369116042
 31
0.0
  0
LINE
  5
1A37
330
1A
100
AcDbEntity
  8
ZUWAKU
100
AcDbLine
 10
41.21721274660183
 20
7.150000369116042
 30
0.0
 11
42.96721274660183
 21
7.150000369116042
 31
0.0
  0
LINE
  5
1A38
330
1A
100
AcDbEntity
  8
ZUWAKU
100
AcDbLine
 10
35.67634768391769
 20
7.516906400949068
 30
0.0
 11
33.80807780928591
 21
13.433094337283
 31
0.0
  0
ARC
  5
1A39
330
1A
100
AcDbEntity
  8
ZUWAKU
100
AcDbCircle
 10
33.30744691009056
 20
17.12500036911604
 30
0.0
 40
0.525
100
AcDbArc
 50
270.0
 51
342.4744316262769
  0
LINE
  5
1A3A
330
1A
100
AcDbEntity
  8
ZUWAKU
100
AcDbLine
 10
33.30744691009056
 20
16.60000036911603
 30
0.0
 11
33.16721274660187
 21
16.60000036911603
 31
0.0
  0
LINE
  5
1A3B
330
1A
100
AcDbEntity
  8
ZUWAKU
100
AcDbLine
 10
33.16721274660187
 20
13.80000036911604
 30
0.0
 11
33.30744691009056
 21
13.80000036911604
 31
0.0
  0
ARC
  5
1A3C
330
1A
100
AcDbEntity
  8
ZUWAKU
100
AcDbCircle
 10
33.16721274660187
 20
17.12500036911604
 30
0.0
 40
0.525
100
AcDbArc
 50
180.0
 51
270.0
  0
LINE
  5
1A3D
330
1A
100
AcDbEntity
  8
ZUWAKU
100
AcDbLine
 10
30.3672127466018
 20
7.150000369116042
 30
0.0
 11
32.11721274660181
 21
7.150000369116042
 31
0.0
  0
ARC
  5
1A3E
330
1A
100
AcDbEntity
  8
ZUWAKU
100
AcDbCircle
 10
32.11721274660181
 20
7.675000369116041
 30
0.0
 40
0.525
100
AcDbArc
 50
270.0
 51
0.0
  0
LINE
  5
1A3F
330
1A
100
AcDbEntity
  8
ZUWAKU
100
AcDbLine
 10
32.6422127466019
 20
7.675000369116041
 30
0.0
 11
32.6422127466019
 21
13.27500036911604
 31
0.0
  0
LINE
  5
1A40
330
1A
100
AcDbEntity
  8
ZUWAKU
100
AcDbLine
 10
27.3922127466019
 20
9.425000369116041
 30
0.0
 11
27.3922127466019
 21
7.675000369116041
 31
0.0
  0
ARC
  5
1A41
330
1A
100
AcDbEntity
  8
ZUWAKU
100
AcDbCircle
 10
26.86721274660181
 20
7.675000369116041
 30
0.0
 40
0.525
100
AcDbArc
 50
270.0
 51
0.0
  0
ARC
  5
1A42
330
1A
100
AcDbEntity
  8
ZUWAKU
100
AcDbCircle
 10
26.86721274660181
 20
9.425000369116041
 30
0.0
 40
0.525
100
AcDbArc
 50
0.0
 51
90.0
  0
ARC
  5
1A43
330
1A
100
AcDbEntity
  8
ZUWAKU
100
AcDbCircle
 10
30.3672127466018
 20
7.675000369116041
 30
0.0
 40
0.525
100
AcDbArc
 50
180.0
 51
270.0
  0
ARC
  5
1A44
330
1A
100
AcDbEntity
  8
ZUWAKU
100
AcDbCircle
 10
33.30744691009056
 20
13.27500036911604
 30
0.0
 40
0.525
100
AcDbArc
 50
17.52556837372303
 51
90.0
  0
ARC
  5
1A45
330
1A
100
AcDbEntity
  8
ZUWAKU
100
AcDbCircle
 10
33.16721274660187
 20
13.27500036911604
 30
0.0
 40
0.525
100
AcDbArc
 50
90.0
 51
180.0
  0
ARC
  5
1A46
330
1A
100
AcDbEntity
  8
ZUWAKU
100
AcDbCircle
 10
41.21721274660183
 20
7.675000369116041
 30
0.0
 40
0.525
100
AcDbArc
 50
180.0
 51
270.0
  0
LINE
  5
1A47
330
1A
100
AcDbEntity
  8
ZUWAKU
100
AcDbLine
 10
36.17697858311316
 20
7.150000369116042
 30
0.0
 11
37.87586796272217
 21
7.150000369116042
 31
0.0
  0
ARC
  5
1A48
330
1A
100
AcDbEntity
  8
ZUWAKU
100
AcDbCircle
 10
37.87586796272217
 20
7.675000369116041
 30
0.0
 40
0.525
100
AcDbArc
 50
270.0
 51
17.52556837372303
  0
LINE
  5
1A49
330
1A
100
AcDbEntity
  8
ZUWAKU
100
AcDbLine
 10
38.37649886191764
 20
7.833094337283014
 30
0.0
 11
36.05010748344398
 21
15.20000036911606
 31
0.0
  0
ARC
  5
1A4A
330
1A
100
AcDbEntity
  8
ZUWAKU
100
AcDbCircle
 10
36.17697858311316
 20
7.675000369116041
 30
0.0
 40
0.525
100
AcDbArc
 50
197.525568373723
 51
270.0
  0
ARC
  5
1A4B
330
1A
100
AcDbEntity
  8
ZUWAKU
100
AcDbCircle
 10
57.84221274660183
 20
9.95000036911604
 30
0.0
 40
2.799999999999999
100
AcDbArc
 50
180.0
 51
270.0
  0
ARC
  5
1A4C
330
1A
100
AcDbEntity
  8
ZUWAKU
100
AcDbCircle
 10
50.1422127466019
 20
9.95000036911604
 30
0.0
 40
2.799999999999999
100
AcDbArc
 50
270.0
 51
0.0
  0
LINE
  5
1A4D
330
1A
100
AcDbEntity
  8
ZUWAKU
100
AcDbLine
 10
51.71206122758542
 20
14.73505087545486
 30
0.0
 11
48.80226325294064
 21
17.64484885009954
 31
0.0
  0
LINE
  5
1A4E
330
1A
100
AcDbEntity
  8
ZUWAKU
100
AcDbLine
 10
50.1422127466019
 20
10.47500036911604
 30
0.0
 11
50.1422127466019
 21
11.76520239447138
 31
0.0
  0
ARC
  5
1A4F
330
1A
100
AcDbEntity
  8
ZUWAKU
100
AcDbCircle
 10
48.74221274660181
 20
11.76520239447138
 30
0.0
 40
1.399999999999999
100
AcDbArc
 50
0.0
 51
45.0
  0
ARC
  5
1A50
330
1A
100
AcDbEntity
  8
ZUWAKU
100
AcDbCircle
 10
49.61721274660181
 20
10.47500036911604
 30
0.0
 40
0.525
100
AcDbArc
 50
270.0
 51
0.0
  0
LINE
  5
1A51
330
1A
100
AcDbEntity
  8
ZUWAKU
100
AcDbLine
 10
46.11721274660181
 20
7.675000369116041
 30
0.0
 11
46.11721274660181
 21
9.425000369116041
 31
0.0
  0
ARC
  5
1A52
330
1A
100
AcDbEntity
  8
ZUWAKU
100
AcDbCircle
 10
46.6422127466019
 20
7.675000369116041
 30
0.0
 40
0.525
100
AcDbArc
 50
180.0
 51
270.0
  0
ARC
  5
1A53
330
1A
100
AcDbEntity
  8
ZUWAKU
100
AcDbCircle
 10
42.96721274660183
 20
7.675000369116041
 30
0.0
 40
0.525
100
AcDbArc
 50
270.0
 51
0.0
  0
ARC
  5
1A54
330
1A
100
AcDbEntity
  8
ZUWAKU
100
AcDbCircle
 10
46.6422127466019
 20
9.425000369116041
 30
0.0
 40
0.525
100
AcDbArc
 50
90.0
 51
180.0
  0
LINE
  5
1A55
330
1A
100
AcDbEntity
  8
ZUWAKU
100
AcDbLine
 10
46.6422127466019
 20
9.95000036911604
 30
0.0
 11
49.61721274660181
 21
9.95000036911604
 31
0.0
  0
LINE
  5
1A56
330
1A
100
AcDbEntity
  8
ZUWAKU
100
AcDbLine
 10
46.6422127466019
 20
7.150000369116042
 30
0.0
 11
50.1422127466019
 21
7.150000369116042
 31
0.0
  0
LINE
  5
1A57
330
1A
100
AcDbEntity
  8
ZUWAKU
100
AcDbLine
 10
46.82236426561837
 20
15.66494986277722
 30
0.0
 11
49.73216224026305
 21
12.75515188813256
 31
0.0
  0
LINE
  5
1A58
330
1A
100
AcDbEntity
  8
ZUWAKU
100
AcDbLine
 10
52.94221274660185
 20
9.95000036911604
 30
0.0
 11
52.94221274660185
 21
11.76520239447138
 31
0.0
  0
ARC
  5
1A59
330
1A
100
AcDbEntity
  8
ZUWAKU
100
AcDbCircle
 10
48.74221274660181
 20
11.76520239447134
 30
0.0
 40
4.199999999999999
100
AcDbArc
 50
0.0
 51
45.0
  0
ARC
  5
1A5A
330
1A
100
AcDbEntity
  8
ZUWAKU
100
AcDbCircle
 10
58.8922127466019
 20
11.00000036911603
 30
0.0
 40
1.049999999999999
100
AcDbArc
 50
180.0
 51
270.0
  0
ARC
  5
1A5B
330
1A
100
AcDbEntity
  8
ZUWAKU
100
AcDbCircle
 10
61.34221274660183
 20
9.95000036911604
 30
0.0
 40
2.799999999999999
100
AcDbArc
 50
270.0
 51
0.0
  0
LINE
  5
1A5C
330
1A
100
AcDbEntity
  8
ZUWAKU
100
AcDbLine
 10
66.7672127466019
 20
7.150000369116042
 30
0.0
 11
68.5172127466019
 21
7.150000369116042
 31
0.0
  0
ARC
  5
1A5D
330
1A
100
AcDbEntity
  8
ZUWAKU
100
AcDbCircle
 10
66.7672127466019
 20
7.675000369116041
 30
0.0
 40
0.525
100
AcDbArc
 50
180.0
 51
270.0
  0
ARC
  5
1A5E
330
1A
100
AcDbEntity
  8
ZUWAKU
100
AcDbCircle
 10
60.29221274660187
 20
11.00000036911603
 30
0.0
 40
1.049999999999999
100
AcDbArc
 50
270.0
 51
0.0
  0
ARC
  5
1A5F
330
1A
100
AcDbEntity
  8
ZUWAKU
100
AcDbCircle
 10
68.5172127466019
 20
7.675000369116041
 30
0.0
 40
0.525
100
AcDbArc
 50
270.0
 51
0.0
  0
LINE
  5
1A60
330
1A
100
AcDbEntity
  8
ZUWAKU
100
AcDbLine
 10
42.96721274660183
 20
23.25000036911604
 30
0.0
 11
41.21721274660183
 21
23.25000036911604
 31
0.0
  0
ARC
  5
1A61
330
1A
100
AcDbEntity
  8
ZUWAKU
100
AcDbCircle
 10
32.11721274660181
 20
22.72500036911603
 30
0.0
 40
0.525
100
AcDbArc
 50
0.0
 51
90.0
  0
LINE
  5
1A62
330
1A
100
AcDbEntity
  8
ZUWAKU
100
AcDbLine
 10
32.11721274660181
 20
23.25000036911604
 30
0.0
 11
30.3672127466018
 21
23.25000036911604
 31
0.0
  0
ARC
  5
1A63
330
1A
100
AcDbEntity
  8
ZUWAKU
100
AcDbCircle
 10
26.86721274660181
 20
22.72500036911603
 30
0.0
 40
0.525
100
AcDbArc
 50
0.0
 51
90.0
  0
ARC
  5
1A64
330
1A
100
AcDbEntity
  8
ZUWAKU
100
AcDbCircle
 10
30.3672127466018
 20
22.72500036911603
 30
0.0
 40
0.525
100
AcDbArc
 50
90.0
 51
180.0
  0
ARC
  5
1A65
330
1A
100
AcDbEntity
  8
ZUWAKU
100
AcDbCircle
 10
26.86721274660181
 20
20.97500036911604
 30
0.0
 40
0.525
100
AcDbArc
 50
270.0
 51
0.0
  0
LINE
  5
1A66
330
1A
100
AcDbEntity
  8
ZUWAKU
100
AcDbLine
 10
27.3922127466019
 20
22.72500036911603
 30
0.0
 11
27.3922127466019
 21
20.97500036911604
 31
0.0
  0
ARC
  5
1A67
330
1A
100
AcDbEntity
  8
ZUWAKU
100
AcDbCircle
 10
41.21721274660183
 20
22.72500036911603
 30
0.0
 40
0.525
100
AcDbArc
 50
90.0
 51
180.0
  0
LINE
  5
1A68
330
1A
100
AcDbEntity
  8
ZUWAKU
100
AcDbLine
 10
36.17697858311316
 20
23.25000036911604
 30
0.0
 11
37.87586796272217
 21
23.25000036911604
 31
0.0
  0
ARC
  5
1A69
330
1A
100
AcDbEntity
  8
ZUWAKU
100
AcDbCircle
 10
37.87586796272217
 20
22.72500036911603
 30
0.0
 40
0.525
100
AcDbArc
 50
342.4744316262769
 51
90.0
  0
LINE
  5
1A6A
330
1A
100
AcDbEntity
  8
ZUWAKU
100
AcDbLine
 10
38.37649886191764
 20
22.56690640094907
 30
0.0
 11
37.31485922877982
 21
19.20504756267946
 31
0.0
  0
ARC
  5
1A6B
330
1A
100
AcDbEntity
  8
ZUWAKU
100
AcDbCircle
 10
36.17697858311316
 20
22.72500036911603
 30
0.0
 40
0.525
100
AcDbArc
 50
90.0
 51
162.4744316262769
  0
LINE
  5
1A6C
330
1A
100
AcDbEntity
  8
ZUWAKU
100
AcDbLine
 10
48.39221274660189
 20
23.25000036911604
 30
0.0
 11
51.8922127466019
 21
23.25000036911604
 31
0.0
  0
LINE
  5
1A6D
330
1A
100
AcDbEntity
  8
ZUWAKU
100
AcDbLine
 10
51.8922127466019
 20
20.45000036911603
 30
0.0
 11
48.91721274660188
 21
20.45000036911603
 31
0.0
  0
ARC
  5
1A6E
330
1A
100
AcDbEntity
  8
ZUWAKU
100
AcDbCircle
 10
48.91721274660188
 20
19.92500036911604
 30
0.0
 40
0.525
100
AcDbArc
 50
90.0
 51
180.0
  0
LINE
  5
1A6F
330
1A
100
AcDbEntity
  8
ZUWAKU
100
AcDbLine
 10
48.39221274660189
 20
19.92500036911604
 30
0.0
 11
48.39221274660189
 21
18.6347983437607
 31
0.0
  0
ARC
  5
1A70
330
1A
100
AcDbEntity
  8
ZUWAKU
100
AcDbCircle
 10
42.96721274660183
 20
22.72500036911603
 30
0.0
 40
0.525
100
AcDbArc
 50
0.0
 51
90.0
  0
LINE
  5
1A71
330
1A
100
AcDbEntity
  8
ZUWAKU
100
AcDbLine
 10
45.59221274660183
 20
20.45000036911603
 30
0.0
 11
45.59221274660183
 21
18.6347983437607
 31
0.0
  0
ARC
  5
1A72
330
1A
100
AcDbEntity
  8
ZUWAKU
100
AcDbCircle
 10
48.39221274660189
 20
20.45000036911603
 30
0.0
 40
2.799999999999999
100
AcDbArc
 50
90.0
 51
180.0
  0
ARC
  5
1A73
330
1A
100
AcDbEntity
  8
ZUWAKU
100
AcDbCircle
 10
57.31721274660185
 20
22.72500036911603
 30
0.0
 40
0.525
100
AcDbArc
 50
0.0
 51
90.0
  0
ARC
  5
1A74
330
1A
100
AcDbEntity
  8
ZUWAKU
100
AcDbCircle
 10
55.56721274660185
 20
22.72500036911603
 30
0.0
 40
0.525
100
AcDbArc
 50
90.0
 51
180.0
  0
LINE
  5
1A75
330
1A
100
AcDbEntity
  8
ZUWAKU
100
AcDbLine
 10
57.31721274660185
 20
23.25000036911604
 30
0.0
 11
55.56721274660185
 21
23.25000036911604
 31
0.0
  0
ARC
  5
1A76
330
1A
100
AcDbEntity
  8
ZUWAKU
100
AcDbCircle
 10
51.8922127466019
 20
22.72500036911603
 30
0.0
 40
0.525
100
AcDbArc
 50
0.0
 51
90.0
  0
ARC
  5
1A77
330
1A
100
AcDbEntity
  8
ZUWAKU
100
AcDbCircle
 10
51.8922127466019
 20
20.97500036911604
 30
0.0
 40
0.525
100
AcDbArc
 50
270.0
 51
0.0
  0
LINE
  5
1A78
330
1A
100
AcDbEntity
  8
ZUWAKU
100
AcDbLine
 10
52.41721274660188
 20
22.72500036911603
 30
0.0
 11
52.41721274660188
 21
20.97500036911604
 31
0.0
  0
LINE
  5
1A79
330
1A
100
AcDbEntity
  8
ZUWAKU
100
AcDbLine
 10
68.5172127466019
 20
23.25000036911604
 30
0.0
 11
66.7672127466019
 21
23.25000036911604
 31
0.0
  0
ARC
  5
1A7A
330
1A
100
AcDbEntity
  8
ZUWAKU
100
AcDbCircle
 10
66.7672127466019
 20
22.72500036911603
 30
0.0
 40
0.525
100
AcDbArc
 50
90.0
 51
180.0
  0
ARC
  5
1A7B
330
1A
100
AcDbEntity
  8
ZUWAKU
100
AcDbCircle
 10
63.61721274660181
 20
22.72500036911603
 30
0.0
 40
0.525
100
AcDbArc
 50
0.0
 51
90.0
  0
LINE
  5
1A7C
330
1A
100
AcDbEntity
  8
ZUWAKU
100
AcDbLine
 10
63.61721274660181
 20
23.25000036911604
 30
0.0
 11
61.86721274660181
 21
23.25000036911604
 31
0.0
  0
ARC
  5
1A7D
330
1A
100
AcDbEntity
  8
ZUWAKU
100
AcDbCircle
 10
61.86721274660181
 20
22.72500036911603
 30
0.0
 40
0.525
100
AcDbArc
 50
90.0
 51
180.0
  0
ARC
  5
1A7E
330
1A
100
AcDbEntity
  8
ZUWAKU
100
AcDbCircle
 10
68.5172127466019
 20
22.72500036911603
 30
0.0
 40
0.525
100
AcDbArc
 50
0.0
 51
90.0
  0
TEXT
  5
1A7F
330
1A
100
AcDbEntity
  8
MOJI
100
AcDbText
 10
239.8272032726718
 20
3.204921426523458
 30
0.0
 40
5.599999999999999
  1
ＲＶ１０５－Ｌ１５０
 41
0.9
  7
ｽﾀｲﾙ1
100
AcDbText
  0
TEXT
  5
1A80
330
1A
100
AcDbEntity
  8
MOJI
100
AcDbText
 10
239.8272032726718
 20
18.00492142652342
 30
0.0
 40
5.599999999999999
  1
亜鉛メッキ金具打込角足（吊）
 41
0.9
  7
ｽﾀｲﾙ1
100
AcDbText
  0
LINE
  5
1A81
330
1A
100
AcDbEntity
  8
ZUWAKU
100
AcDbLine
 10
208.2466018818886
 20
30.00000036911603
 30
0.0
 11
208.2466018818886
 21
0.8000003691161055
 31
0.0
  0
LINE
  5
1A82
330
1A
100
AcDbEntity
  8
ZUWAKU
100
AcDbLine
 10
208.6466018818884
 20
30.00000036911603
 30
0.0
 11
208.6466018818887
 21
0.8000003691161055
 31
0.0
  0
LINE
  5
1A83
330
1A
100
AcDbEntity
  8
ZUWAKU
100
AcDbLine
 10
208.4466018818884
 20
30.00000036911603
 30
0.0
 11
208.4466018818886
 21
0.8000003691161055
 31
0.0
  0
TEXT
  5
1A84
330
1A
100
AcDbEntity
  8
ZUWAKU
100
AcDbText
 10
209.7240469040982
 20
9.655356907501655
 30
0.0
 40
4.0
  1
サイズ
 41
0.9
  7
ｽﾀｲﾙ1
100
AcDbText
  0
TEXT
  5
1A85
330
1A
100
AcDbEntity
  8
ZUWAKU
100
AcDbText
 10
209.724046904098
 20
24.05535690750161
 30
0.0
 40
4.0
  1
品名
 41
0.9
  7
ｽﾀｲﾙ1
100
AcDbText
  0
LINE
  5
1A86
330
1A
100
AcDbEntity
  8
ZUWAKU
100
AcDbLine
 10
648.8172031020249
 20
15.20000036911606
 30
0.0
 11
697.249011140362
 21
15.20000036911607
 31
0.0
  0
LINE
  5
1A87
330
1A
100
AcDbEntity
  8
ZUWAKU
100
AcDbLine
 10
648.8172031020251
 20
15.40000036911607
 30
0.0
 11
697.249011140362
 21
15.40000036911607
 31
0.0
  0
LINE
  5
1A88
330
1A
100
AcDbEntity
  8
ZUWAKU
100
AcDbLine
 10
648.8172031020249
 20
15.60000036911607
 30
0.0
 11
697.249011140362
 21
15.60000036911607
 31
0.0
  0
TEXT
  5
1A89
330
1A
100
AcDbEntity
  8
ZUWAKU
100
AcDbText
 10
658.2039382791231
 20
18.00492142652342
 30
0.0
 40
5.599999999999999
  1
　　．　　．　　
 41
0.9
  7
ｽﾀｲﾙ1
100
AcDbText
  0
LINE
  5
1A8A
330
1A
100
AcDbEntity
  8
ZUWAKU
100
AcDbLine
 10
505.1991800899616
 20
15.20000036911607
 30
0.0
 11
552.5269563579331
 21
15.20000036911607
 31
0.0
  0
LINE
  5
1A8B
330
1A
100
AcDbEntity
  8
ZUWAKU
100
AcDbLine
 10
505.1991800899616
 20
15.40000036911607
 30
0.0
 11
552.5269563579331
 21
15.40000036911607
 31
0.0
  0
LINE
  5
1A8C
330
1A
100
AcDbEntity
  8
ZUWAKU
100
AcDbLine
 10
505.1991800899616
 20
15.60000036911607
 30
0.0
 11
552.5269563579331
 21
15.60000036911607
 31
0.0
  0
TEXT
  5
1A8D
330
1A
100
AcDbEntity
  8
MOJI
100
AcDbText
 10
464.5946265950597
 20
11.94261809077602
 30
0.0
 40
5.599999999999999
  1
ＬＪ５６Ｇ
 41
0.9
  7
ｽﾀｲﾙ1
100
AcDbText
  0
LINE
  5
1A8E
330
1A
100
AcDbEntity
  8
ZUWAKU
100
AcDbLine
 10
447.6243645628119
 20
30.00000036911603
 30
0.0
 11
447.6243645628121
 21
0.8000003691161055
 31
0.0
  0
LINE
  5
1A8F
330
1A
100
AcDbEntity
  8
ZUWAKU
100
AcDbLine
 10
447.8243645628119
 20
30.00000036911603
 30
0.0
 11
447.8243645628122
 21
0.8000003691161055
 31
0.0
  0
LINE
  5
1A90
330
1A
100
AcDbEntity
  8
ZUWAKU
100
AcDbLine
 10
447.4243645628121
 20
30.00000036911603
 30
0.0
 11
447.4243645628121
 21
0.8000003691161055
 31
0.0
  0
TEXT
  5
1A91
330
1A
100
AcDbEntity
  8
MOJI
100
AcDbText
 10
528.0409085641336
 20
18.00492142652342
 30
0.0
 40
5.599999999999999
  1
Ａ３
 41
0.9
  7
ｽﾀｲﾙ1
100
AcDbText
  0
LINE
  5
1A92
330
1A
100
AcDbEntity
  8
ZUWAKU
100
AcDbLine
 10
504.9991800899615
 20
30.00000036911603
 30
0.0
 11
504.9991800899618
 21
0.8000003691161055
 31
0.0
  0
LINE
  5
1A93
330
1A
100
AcDbEntity
  8
ZUWAKU
100
AcDbLine
 10
505.1991800899616
 20
30.00000036911603
 30
0.0
 11
505.1991800899618
 21
0.8000003691161055
 31
0.0
  0
LINE
  5
1A94
330
1A
100
AcDbEntity
  8
ZUWAKU
100
AcDbLine
 10
504.7991800899617
 20
30.00000036911603
 30
0.0
 11
504.7991800899617
 21
0.8000003691161055
 31
0.0
  0
TEXT
  5
1A95
330
1A
100
AcDbEntity
  8
ZUWAKU
100
AcDbText
 10
506.6766251121714
 20
9.655356907501655
 30
0.0
 40
4.0
  1
縮尺
 41
0.9
  7
ｽﾀｲﾙ1
100
AcDbText
  0
TEXT
  5
1A96
330
1A
100
AcDbEntity
  8
MOJI
100
AcDbText
 10
528.0409085641336
 20
3.204921426523458
 30
0.0
 40
5.599999999999999
  1
１/２
 41
0.9
  7
ｽﾀｲﾙ1
100
AcDbText
  0
TEXT
  5
1A97
330
1A
100
AcDbEntity
  8
ZUWAKU
100
AcDbText
 10
449.3018095850215
 20
24.05535690750161
 30
0.0
 40
4.0
  1
品番
 41
0.9
  7
ｽﾀｲﾙ1
100
AcDbText
  0
TEXT
  5
1A98
330
1A
100
AcDbEntity
  8
ZUWAKU
100
AcDbText
 10
506.6766251121712
 20
24.05535690750161
 30
0.0
 40
4.0
  1
用紙
 41
0.9
  7
ｽﾀｲﾙ1
100
AcDbText
  0
LINE
  5
1A99
330
1A
100
AcDbEntity
  8
ZUWAKU
100
AcDbLine
 10
648.6172031020251
 20
30.00000036911603
 30
0.0
 11
648.6172031020252
 21
0.8000003691161055
 31
0.0
  0
LINE
  5
1A9A
330
1A
100
AcDbEntity
  8
ZUWAKU
100
AcDbLine
 10
648.8172031020251
 20
30.00000036911603
 30
0.0
 11
648.8172031020253
 21
0.8000003691161055
 31
0.0
  0
LINE
  5
1A9B
330
1A
100
AcDbEntity
  8
ZUWAKU
100
AcDbLine
 10
648.4172031020253
 20
30.00000036911603
 30
0.0
 11
648.4172031020253
 21
0.8000003691161055
 31
0.0
  0
LINE
  5
1A9C
330
1A
100
AcDbEntity
  8
ZUWAKU
100
AcDbLine
 10
552.726956357933
 20
30.00000036911603
 30
0.0
 11
552.7269563579332
 21
0.8000003691161055
 31
0.0
  0
LINE
  5
1A9D
330
1A
100
AcDbEntity
  8
ZUWAKU
100
AcDbLine
 10
552.926956357933
 20
30.00000036911603
 30
0.0
 11
552.9269563579332
 21
0.8000003691161055
 31
0.0
  0
LINE
  5
1A9E
330
1A
100
AcDbEntity
  8
ZUWAKU
100
AcDbLine
 10
552.5269563579331
 20
30.00000036911603
 30
0.0
 11
552.5269563579331
 21
0.8000003691161055
 31
0.0
  0
TEXT
  5
1A9F
330
1A
100
AcDbEntity
  8
ZUWAKU
100
AcDbText
 10
650.2946481242347
 20
24.05535690750161
 30
0.0
 40
4.0
  1
DATE
 41
0.9
  7
ｽﾀｲﾙ1
100
AcDbText
  0
LINE
  5
1AA0
330
1A
100
AcDbEntity
  8
ZUWAKU
100
AcDbLine
 10
697.249011140362
 20
30.00000036911603
 30
0.0
 11
697.249011140362
 21
0.8000003691161055
 31
0.0
  0
LINE
  5
1AA1
330
1A
100
AcDbEntity
  8
ZUWAKU
100
AcDbLine
 10
697.4490111403619
 20
30.00000036911603
 30
0.0
 11
697.4490111403619
 21
0.8000003691161055
 31
0.0
  0
LINE
  5
1AA2
330
1A
100
AcDbEntity
  8
ZUWAKU
100
AcDbLine
 10
697.6490111403618
 20
30.00000036911603
 30
0.0
 11
697.649011140362
 21
0.8000003691161055
 31
0.0
  0
LINE
  5
1AA3
330
1A
100
AcDbEntity
  8
ZUWAKU
100
AcDbLine
 10
697.8490111403618
 20
30.00000036911603
 30
0.0
 11
697.8490111403621
 21
0.8000003691161055
 31
0.0
  0
TEXT
  5
1AA4
330
1A
100
AcDbEntity
  8
ZUWAKU
100
AcDbText
 10
708.5280847840644
 20
17.55383970480284
 30
0.0
 40
6.0
  1
積水化学工業株式会社
 41
0.9
  7
ｽﾀｲﾙ1
100
AcDbText
  0
TEXT
  5
1AA5
330
1A
100
AcDbEntity
  8
ZUWAKU
100
AcDbText
 10
708.5280847840644
 20
6.648840682970103
 30
0.0
 40
6.0
  1
建材事業部
 41
0.9
  7
ｽﾀｲﾙ1
100
AcDbText
  0
VIEWPORT
  5
22
330
17
100
AcDbEntity
 67
     1
  8
0
100
AcDbViewport
 10
313.6808219178082
 20
148.5
 30
0.0
 40
627.3616438356165
 41
297.0
 68
     2
 69
     1
1001
ACAD
1000
MVIEW
1002
{
1070
    16
1010
0.0
1020
0.0
1030
0.0
1010
0.0
1020
0.0
1030
1.0
1040
0.0
1040
297.0
1040
313.6808219178082
1040
148.5
1040
50.0
1040
0.0
1040
0.0
1070
     0
1070
   100
1070
     1
1070
     0
1070
     0
1070
     0
1070
     0
1070
     0
1040
0.0
1040
0.0
1040
0.0
1040
1.0
1040
1.0
1040
10.0
1040
10.0
1070
     0
1002
{
1002
}
1002
}
  0
VIEWPORT
  5
64
330
17
100
AcDbEntity
 67
     1
  8
VIEWPORT
100
AcDbViewport
 10
210.0
 20
148.5
 30
0.0
 40
420.0
 41
297.0
 68
     1
 69
     2
1001
ACAD
1000
MVIEW
1002
{
1070
    16
1010
0.0
1020
0.0
1030
0.0
1010
0.0
1020
0.0
1030
1.0
1040
0.0
1040
605.8799999999998
1040
420.0
1040
297.0
1040
50.0
1040
0.0
1040
0.0
1070
     0
1070
   100
1070
     1
1070
     0
1070
     0
1070
     0
1070
     0
1070
     0
1040
0.0
1040
0.0
1040
0.0
1040
10.0
1040
10.0
1040
0.0
1040
0.0
1070
     0
1002
{
1002
}
1002
}
  0
ENDSEC
  0
SECTION
  2
OBJECTS
  0
DICTIONARY
  5
C
330
0
100
AcDbDictionary
  3
ACAD_GROUP
350
D
  3
ACAD_LAYOUT
350
14C
  3
ACAD_MLINESTYLE
350
E
  3
ACAD_PLOTSETTINGS
350
14D
  3
ACAD_PLOTSTYLENAME
350
14A
  3
ACADDIM
350
4A5
  3
ACDBHEADERROUNDTRIPXREC
350
1AF9
  0
DICTIONARY
  5
506
330
1A
100
AcDbDictionary
280
     1
  3
ACAD_LAYOUTSELFREF
360
1B1B
  0
DICTIONARY
  5
504
330
17
100
AcDbDictionary
280
     1
  3
ACAD_LAYOUTSELFREF
360
1B1A
  0
DICTIONARY
  5
D
102
{ACAD_REACTORS
330
C
102
}
330
C
100
AcDbDictionary
  0
DICTIONARY
  5
14C
102
{ACAD_REACTORS
330
C
102
}
330
C
100
AcDbDictionary
  0
DICTIONARY
  5
E
102
{ACAD_REACTORS
330
C
102
}
330
C
100
AcDbDictionary
  3
STANDARD
350
13
  0
DICTIONARY
  5
14D
102
{ACAD_REACTORS
330
C
102
}
330
C
100
AcDbDictionary
  0
ACDBDICTIONARYWDFLT
  5
14A
102
{ACAD_REACTORS
330
C
102
}
330
C
100
AcDbDictionary
281
     1
  3
Normal
350
14B
100
AcDbDictionaryWithDefault
340
14B
1001
ACAD
1000
TREAT_AS_HARD
1070
     0
1000
TREAT_AS_HARD
1070
     0
1000
TREAT_AS_HARD
1070
     0
1000
TREAT_AS_HARD
1070
     0
1000
TREAT_AS_HARD
1070
     0
1000
TREAT_AS_HARD
1070
     0
1000
TREAT_AS_HARD
1070
     0
1000
TREAT_AS_HARD
1070
     0
  0
XRECORD
  5
4A5
102
{ACAD_REACTORS
330
C
102
}
330
C
100
AcDbXrecord
 90
   990106
  3

 60
     0
 61
     0
 62
     1
 63
     3
 64
     0
 65
     0
 66
     0
 67
     3
 68
     1
 69
     0
 70
     0
 71
     0
 72
     0
 40
0.0
170
     0
340
0
  0
DICTIONARY
  5
1AF9
102
{ACAD_REACTORS
330
C
102
}
330
C
100
AcDbDictionary
  3
TSTACKALIGN
350
1AFA
  3
TSTACKSIZE
350
1AFB
  3
HYPERLINKBASE
350
1AFC
  3
STYLESHEET
350
1AFD
  3
LAYOUTDICT
350
1AFE
  3
PLOTSETDICT
350
1AFF
  3
PLOTSTYLNAMDICT
350
1B00
  3
LWETCUNION
350
1B01
  3
INSUNITS
350
1B02
  3
CEPSNTYPE
350
1B03
  3
FINGERPRINTGUID
350
1B04
  3
VERSIONGUID
350
1B05
  3
PSVPSCALE
350
1B06
  3
DIMSTYLEDATA
350
1B07
  3
PUCSORTHOREF
350
1B08
  3
PUCSORTHOVIEW
350
1B09
  3
PUCSBASE
350
1B0A
  3
PUCSORGTOP
350
1B0B
  3
PUCSORGBOTTOM
350
1B0C
  3
PUCSORGLEFT
350
1B0D
  3
PUCSORGRIGHT
350
1B0E
  3
PUCSORGFRONT
350
1B0F
  3
PUCSORGBACK
350
1B10
  3
UCSORTHOREF
350
1B11
  3
UCSORTHOVIEW
350
1B12
  3
UCSBASE
350
1B13
  3
UCSORGTOP
350
1B14
  3
UCSORGBOTTOM
350
1B15
  3
UCSORGLEFT
350
1B16
  3
UCSORGRIGHT
350
1B17
  3
UCSORGFRONT
350
1B18
  3
UCSORGBACK
350
1B19
  0
XRECORD
  5
1B1B
102
{ACAD_REACTORS
330
506
102
}
330
506
100
AcDbXrecord
340
1A
  0
XRECORD
  5
1B1A
102
{ACAD_REACTORS
330
504
102
}
330
504
100
AcDbXrecord
340
17
  0
MLINESTYLE
  5
13
102
{ACAD_REACTORS
330
E
102
}
330
E
100
AcDbMlineStyle
  2
STANDARD
 70
     0
  3

 62
     0
 51
90.0
 52
90.0
 71
     2
 49
0.5
 62
   256
  6
BYLAYER
 49
-0.5
 62
   256
  6
BYLAYER
  0
ACDBPLACEHOLDER
  5
14B
102
{ACAD_REACTORS
330
14A
102
}
330
14A
100
AcDbPlaceHolder
280
     0
  0
XRECORD
  5
1AFA
102
{ACAD_REACTORS
330
1AF9
102
}
330
1AF9
100
AcDbXrecord
 90
        1
  0
XRECORD
  5
1AFB
102
{ACAD_REACTORS
330
1AF9
102
}
330
1AF9
100
AcDbXrecord
 90
       70
  0
XRECORD
  5
1AFC
102
{ACAD_REACTORS
330
1AF9
102
}
330
1AF9
100
AcDbXrecord
  1

  0
XRECORD
  5
1AFD
102
{ACAD_REACTORS
330
1AF9
102
}
330
1AF9
100
AcDbXrecord
  1
systemprinter.ctb
  0
XRECORD
  5
1AFE
102
{ACAD_REACTORS
330
1AF9
102
}
330
1AF9
100
AcDbXrecord
340
14C
  0
XRECORD
  5
1AFF
102
{ACAD_REACTORS
330
1AF9
102
}
330
1AF9
100
AcDbXrecord
340
14D
  0
XRECORD
  5
1B00
102
{ACAD_REACTORS
330
1AF9
102
}
330
1AF9
100
AcDbXrecord
340
14A
  0
XRECORD
  5
1B01
102
{ACAD_REACTORS
330
1AF9
102
}
330
1AF9
100
AcDbXrecord
 90
    10781
  0
XRECORD
  5
1B02
102
{ACAD_REACTORS
330
1AF9
102
}
330
1AF9
100
AcDbXrecord
 90
        0
  0
XRECORD
  5
1B03
102
{ACAD_REACTORS
330
1AF9
102
}
330
1AF9
100
AcDbXrecord
 90
        0
  0
XRECORD
  5
1B04
102
{ACAD_REACTORS
330
1AF9
102
}
330
1AF9
100
AcDbXrecord
  1
{75772F4A-CE5A-11D3-932C-444553540000}
  0
XRECORD
  5
1B05
102
{ACAD_REACTORS
330
1AF9
102
}
330
1AF9
100
AcDbXrecord
  1
{009D2F66-B67D-490C-BCE1-B0FE7263DE2B}
  0
XRECORD
  5
1B06
102
{ACAD_REACTORS
330
1AF9
102
}
330
1AF9
100
AcDbXrecord
 40
0.0
  0
XRECORD
  5
1B07
102
{ACAD_REACTORS
330
1AF9
102
}
330
1AF9
100
AcDbXrecord
1000
DSTYLE
1002
{
1070
   341
340
6D
1070
   343
340
6D
1070
   344
340
6D
1002
}
  0
XRECORD
  5
1B08
102
{ACAD_REACTORS
330
1AF9
102
}
330
1AF9
100
AcDbXrecord
340
0
  0
XRECORD
  5
1B09
102
{ACAD_REACTORS
330
1AF9
102
}
330
1AF9
100
AcDbXrecord
 70
     0
  0
XRECORD
  5
1B0A
102
{ACAD_REACTORS
330
1AF9
102
}
330
1AF9
100
AcDbXrecord
340
0
  0
XRECORD
  5
1B0B
102
{ACAD_REACTORS
330
1AF9
102
}
330
1AF9
100
AcDbXrecord
 10
0.0
 20
0.0
 30
0.0
  0
XRECORD
  5
1B0C
102
{ACAD_REACTORS
330
1AF9
102
}
330
1AF9
100
AcDbXrecord
 10
0.0
 20
0.0
 30
0.0
  0
XRECORD
  5
1B0D
102
{ACAD_REACTORS
330
1AF9
102
}
330
1AF9
100
AcDbXrecord
 10
0.0
 20
0.0
 30
0.0
  0
XRECORD
  5
1B0E
102
{ACAD_REACTORS
330
1AF9
102
}
330
1AF9
100
AcDbXrecord
 10
0.0
 20
0.0
 30
0.0
  0
XRECORD
  5
1B0F
102
{ACAD_REACTORS
330
1AF9
102
}
330
1AF9
100
AcDbXrecord
 10
0.0
 20
0.0
 30
0.0
  0
XRECORD
  5
1B10
102
{ACAD_REACTORS
330
1AF9
102
}
330
1AF9
100
AcDbXrecord
 10
0.0
 20
0.0
 30
0.0
  0
XRECORD
  5
1B11
102
{ACAD_REACTORS
330
1AF9
102
}
330
1AF9
100
AcDbXrecord
340
0
  0
XRECORD
  5
1B12
102
{ACAD_REACTORS
330
1AF9
102
}
330
1AF9
100
AcDbXrecord
 70
     0
  0
XRECORD
  5
1B13
102
{ACAD_REACTORS
330
1AF9
102
}
330
1AF9
100
AcDbXrecord
340
0
  0
XRECORD
  5
1B14
102
{ACAD_REACTORS
330
1AF9
102
}
330
1AF9
100
AcDbXrecord
 10
0.0
 20
0.0
 30
0.0
  0
XRECORD
  5
1B15
102
{ACAD_REACTORS
330
1AF9
102
}
330
1AF9
100
AcDbXrecord
 10
0.0
 20
0.0
 30
0.0
  0
XRECORD
  5
1B16
102
{ACAD_REACTORS
330
1AF9
102
}
330
1AF9
100
AcDbXrecord
 10
0.0
 20
0.0
 30
0.0
  0
XRECORD
  5
1B17
102
{ACAD_REACTORS
330
1AF9
102
}
330
1AF9
100
AcDbXrecord
 10
0.0
 20
0.0
 30
0.0
  0
XRECORD
  5
1B18
102
{ACAD_REACTORS
330
1AF9
102
}
330
1AF9
100
AcDbXrecord
 10
0.0
 20
0.0
 30
0.0
  0
XRECORD
  5
1B19
102
{ACAD_REACTORS
330
1AF9
102
}
330
1AF9
100
AcDbXrecord
 10
0.0
 20
0.0
 30
0.0
  0
ENDSEC
  0
EOF
