  0
SECTION
  2
HEADER
  9
$ACADVER
  1
AC1012
  9
$DWGCODEPAGE
  3
dos932
  9
$INSBASE
 10
0.0
 20
0.0
 30
0.0
  9
$EXTMIN
 10
5.0
 20
2.449000558492456
 30
0.0
  9
$EXTMAX
 10
403.0
 20
282.0
 30
0.0
  9
$LIMMIN
 10
0.0
 20
0.0
  9
$LIMMAX
 10
420.0
 20
297.0
  9
$ORTHOMODE
 70
     0
  9
$REGENMODE
 70
     1
  9
$FILLMODE
 70
     1
  9
$QTEXTMODE
 70
     0
  9
$MIRRTEXT
 70
     1
  9
$DRAGMODE
 70
     2
  9
$LTSCALE
 40
1.0
  9
$OSMODE
 70
    37
  9
$ATTMODE
 70
     1
  9
$TEXTSIZE
 40
2.5
  9
$TRACEWID
 40
1.0
  9
$TEXTSTYLE
  7
STYLE1
  9
$CLAYER
  8
SUNPOU
  9
$CELTYPE
  6
BYLAYER
  9
$CECOLOR
 62
   256
  9
$CELTSCALE
 40
5.0
  9
$DELOBJ
 70
     1
  9
$DISPSILH
 70
     0
  9
$DIMSCALE
 40
1.0
  9
$DIMASZ
 40
3.0
  9
$DIMEXO
 40
3.0
  9
$DIMDLI
 40
7.0
  9
$DIMRND
 40
0.0
  9
$DIMDLE
 40
0.0
  9
$DIMEXE
 40
1.5
  9
$DIMTP
 40
0.0
  9
$DIMTM
 40
0.0
  9
$DIMTXT
 40
3.0
  9
$DIMCEN
 40
150.0
  9
$DIMTSZ
 40
0.0
  9
$DIMTOL
 70
     0
  9
$DIMLIM
 70
     0
  9
$DIMTIH
 70
     0
  9
$DIMTOH
 70
     0
  9
$DIMSE1
 70
     0
  9
$DIMSE2
 70
     0
  9
$DIMTAD
 70
     3
  9
$DIMZIN
 70
     0
  9
$DIMBLK
  1

  9
$DIMASO
 70
     1
  9
$DIMSHO
 70
     1
  9
$DIMPOST
  1

  9
$DIMAPOST
  1

  9
$DIMALT
 70
     0
  9
$DIMALTD
 70
     2
  9
$DIMALTF
 40
25.4
  9
$DIMLFAC
 40
1.0
  9
$DIMTOFL
 70
     1
  9
$DIMTVP
 40
0.0
  9
$DIMTIX
 70
     0
  9
$DIMSOXD
 70
     0
  9
$DIMSAH
 70
     1
  9
$DIMBLK1
  1
OPEN
  9
$DIMBLK2
  1
OPEN
  9
$DIMSTYLE
  2
STANDARD
  9
$DIMCLRD
 70
   256
  9
$DIMCLRE
 70
   256
  9
$DIMCLRT
 70
   256
  9
$DIMTFAC
 40
1.0
  9
$DIMGAP
 40
1.0
  9
$DIMJUST
 70
     0
  9
$DIMSD1
 70
     0
  9
$DIMSD2
 70
     0
  9
$DIMTOLJ
 70
     1
  9
$DIMTZIN
 70
     0
  9
$DIMALTZ
 70
     0
  9
$DIMALTTZ
 70
     0
  9
$DIMFIT
 70
     3
  9
$DIMUPT
 70
     0
  9
$DIMUNIT
 70
     2
  9
$DIMDEC
 70
     0
  9
$DIMTDEC
 70
     0
  9
$DIMALTU
 70
     2
  9
$DIMALTTD
 70
     2
  9
$DIMTXSTY
  7
STANDARD
  9
$DIMAUNIT
 70
     0
  9
$LUNITS
 70
     2
  9
$LUPREC
 70
     4
  9
$SKETCHINC
 40
1.0
  9
$FILLETRAD
 40
10.0
  9
$AUNITS
 70
     0
  9
$AUPREC
 70
     0
  9
$MENU
  1
.
  9
$ELEVATION
 40
0.0
  9
$PELEVATION
 40
0.0
  9
$THICKNESS
 40
0.0
  9
$LIMCHECK
 70
     0
  9
$BLIPMODE
 70
     0
  9
$CHAMFERA
 40
10.0
  9
$CHAMFERB
 40
10.0
  9
$CHAMFERC
 40
20.0
  9
$CHAMFERD
 40
0.0
  9
$SKPOLY
 70
     0
  9
$TDCREATE
 40
2451019.404804977
  9
$TDUPDATE
 40
2452659.823103298
  9
$TDINDWG
 40
0.0877989468
  9
$TDUSRTIMER
 40
0.0877989468
  9
$USRTIMER
 70
     1
  9
$ANGBASE
 50
0.0
  9
$ANGDIR
 70
     0
  9
$PDMODE
 70
     0
  9
$PDSIZE
 40
0.0
  9
$PLINEWID
 40
0.0
  9
$COORDS
 70
     1
  9
$SPLFRAME
 70
     0
  9
$SPLINETYPE
 70
     6
  9
$SPLINESEGS
 70
     8
  9
$ATTDIA
 70
     0
  9
$ATTREQ
 70
     1
  9
$HANDLING
 70
 10241
  9
$HANDSEED
  5
824
  9
$SURFTAB1
 70
     6
  9
$SURFTAB2
 70
     6
  9
$SURFTYPE
 70
     6
  9
$SURFU
 70
     6
  9
$SURFV
 70
     6
  9
$UCSNAME
  2

  9
$UCSORG
 10
0.0
 20
0.0
 30
0.0
  9
$UCSXDIR
 10
1.0
 20
0.0
 30
0.0
  9
$UCSYDIR
 10
0.0
 20
1.0
 30
0.0
  9
$PUCSNAME
  2

  9
$PUCSORG
 10
0.0
 20
0.0
 30
0.0
  9
$PUCSXDIR
 10
1.0
 20
0.0
 30
0.0
  9
$PUCSYDIR
 10
0.0
 20
1.0
 30
0.0
  9
$USERI1
 70
     0
  9
$USERI2
 70
     0
  9
$USERI3
 70
     0
  9
$USERI4
 70
     0
  9
$USERI5
 70
     0
  9
$USERR1
 40
0.0
  9
$USERR2
 40
0.0
  9
$USERR3
 40
0.0
  9
$USERR4
 40
0.0
  9
$USERR5
 40
0.0
  9
$WORLDVIEW
 70
     1
  9
$SHADEDGE
 70
     3
  9
$SHADEDIF
 70
    70
  9
$TILEMODE
 70
     1
  9
$MAXACTVP
 70
    16
  9
$PINSBASE
 10
0.0
 20
0.0
 30
0.0
  9
$PLIMCHECK
 70
     0
  9
$PEXTMIN
 10
0.0
 20
0.0
 30
0.0
  9
$PEXTMAX
 10
420.0
 20
297.0
 30
0.0
  9
$PLIMMIN
 10
0.0
 20
0.0
  9
$PLIMMAX
 10
420.0
 20
297.0
  9
$UNITMODE
 70
     0
  9
$VISRETAIN
 70
     0
  9
$PLINEGEN
 70
     0
  9
$PSLTSCALE
 70
     1
  9
$TREEDEPTH
 70
  3020
  9
$PICKSTYLE
 70
     1
  9
$CMLSTYLE
  2
STANDARD
  9
$CMLJUST
 70
     0
  9
$CMLSCALE
 40
1.0
  9
$SAVEIMAGES
 70
     1
  0
ENDSEC
  0
SECTION
  2
CLASSES
  0
CLASS
  1
ACDBDICTIONARYWDFLT
  2
AcDbDictionaryWithDefault
  3
AutoCAD 2000
 90
    32768
280
     0
281
     0
  0
CLASS
  1
ACDBPLACEHOLDER
  2
AcDbPlaceHolder
  3
AutoCAD 2000
 90
    32768
280
     0
281
     0
  0
CLASS
  1
LAYOUT
  2
AcDbLayout
  3
AutoCAD 2000
 90
    32768
280
     0
281
     0
  0
CLASS
  1
LONG_TRANSACTION
  2
AcDbLongTransaction
  3
AutoCAD 2000
 90
    32768
280
     0
281
     0
  0
CLASS
  1
LWPOLYLINE
  2
AcDbPolyline
  3
AutoCAD 2000
 90
    32768
280
     0
281
     1
  0
CLASS
  1
HATCH
  2
AcDbHatch
  3
AutoCAD 2000
 90
    32768
280
     0
281
     1
  0
CLASS
  1
XRECORD
  2
AcDbXrecord
  3
AutoCAD 2000
 90
    32768
280
     0
281
     0
  0
CLASS
  1
LONG_TRANSACTION
  2
AcDbLongTransaction
  3
AutoCAD 2000
 90
    32768
280
     0
281
     0
  0
CLASS
  1
LWPOLYLINE
  2
AcDbPolyline
  3
AutoCAD 2000
 90
    32768
280
     0
281
     1
  0
CLASS
  1
HATCH
  2
AcDbHatch
  3
AutoCAD 2000
 90
    32768
280
     0
281
     1
  0
CLASS
  1
XRECORD
  2
AcDbXrecord
  3
AutoCAD 2000
 90
    32768
280
     0
281
     0
  0
CLASS
  1
LONG_TRANSACTION
  2
AcDbLongTransaction
  3
AutoCAD 2000
 90
    32768
280
     0
281
     0
  0
CLASS
  1
LWPOLYLINE
  2
AcDbPolyline
  3
AutoCAD 2000
 90
    32768
280
     0
281
     1
  0
CLASS
  1
HATCH
  2
AcDbHatch
  3
AutoCAD 2000
 90
    32768
280
     0
281
     1
  0
CLASS
  1
XRECORD
  2
AcDbXrecord
  3
AutoCAD 2000
 90
    32768
280
     0
281
     0
  0
CLASS
  1
LONG_TRANSACTION
  2
AcDbLongTransaction
  3
AutoCAD 2000
 90
    32768
280
     0
281
     0
  0
CLASS
  1
LWPOLYLINE
  2
AcDbPolyline
  3
AutoCAD 2000
 90
    32768
280
     0
281
     1
  0
CLASS
  1
HATCH
  2
AcDbHatch
  3
AutoCAD 2000
 90
    32768
280
     0
281
     1
  0
CLASS
  1
XRECORD
  2
AcDbXrecord
  3
AutoCAD 2000
 90
    32768
280
     0
281
     0
  0
CLASS
  1
LONG_TRANSACTION
  2
AcDbLongTransaction
  3
AutoCAD 2000
 90
    32768
280
     0
281
     0
  0
CLASS
  1
LWPOLYLINE
  2
AcDbPolyline
  3
AutoCAD 2000
 90
    32768
280
     0
281
     1
  0
CLASS
  1
HATCH
  2
AcDbHatch
  3
AutoCAD 2000
 90
    32768
280
     0
281
     1
  0
CLASS
  1
XRECORD
  2
AcDbXrecord
  3
AutoCAD 2000
 90
    32768
280
     0
281
     0
  0
ENDSEC
  0
SECTION
  2
TABLES
  0
TABLE
  2
VPORT
  5
8
330
0
100
AcDbSymbolTable
 70
     2
  0
VPORT
  5
7FE
330
8
100
AcDbSymbolTableRecord
100
AcDbViewportTableRecord
  2
*ACTIVE
 70
     0
 10
0.0
 20
0.0
 11
1.0
 21
1.0
 12
271.3641585083041
 22
148.5
 13
0.0
 23
0.0
 14
5.0
 24
5.0
 15
0.0
 25
0.0
 16
0.0
 26
0.0
 36
1.0
 17
0.0
 27
0.0
 37
0.0
 40
300.2817679558011
 41
2.159633027522935
 42
50.0
 43
0.0
 44
0.0
 50
0.0
 51
0.0
 71
     0
 72
   100
 73
     1
 74
     0
 75
     0
 76
     0
 77
     0
 78
     0
  0
ENDTAB
  0
TABLE
  2
LTYPE
  5
5
330
0
100
AcDbSymbolTable
 70
     2
  0
LTYPE
  5
14
330
5
100
AcDbSymbolTableRecord
100
AcDbLinetypeTableRecord
  2
BYBLOCK
 70
     0
  3

 72
    65
 73
     0
 40
0.0
  0
LTYPE
  5
15
330
5
100
AcDbSymbolTableRecord
100
AcDbLinetypeTableRecord
  2
BYLAYER
 70
     0
  3

 72
    65
 73
     0
 40
0.0
  0
LTYPE
  5
16
330
5
100
AcDbSymbolTableRecord
100
AcDbLinetypeTableRecord
  2
CONTINUOUS
 70
     0
  3
Solid line
 72
    65
 73
     0
 40
0.0
  0
LTYPE
  5
120
330
5
100
AcDbSymbolTableRecord
100
AcDbLinetypeTableRecord
  2
CENTER
 70
     0
  3
____ _ ____ _ ____ _ ____ _ ____ _ ____ _ ____ 
 72
    65
 73
     4
 40
2.0
 49
1.25
 74
     0
 49
-0.25
 74
     0
 49
0.25
 74
     0
 49
-0.25
 74
     0
  0
ENDTAB
  0
TABLE
  2
LAYER
  5
2
330
0
100
AcDbSymbolTable
 70
     7
  0
LAYER
  5
F
330
2
100
AcDbSymbolTableRecord
100
AcDbLayerTableRecord
  2
0
 70
     0
 62
     7
  6
CONTINUOUS
  0
LAYER
  5
62
330
2
100
AcDbSymbolTableRecord
100
AcDbLayerTableRecord
  2
VIEWPORT
 70
     0
 62
     7
  6
CONTINUOUS
  0
LAYER
  5
6B
330
2
100
AcDbSymbolTableRecord
100
AcDbLayerTableRecord
  2
ZUWAKU
 70
     0
 62
     7
  6
CONTINUOUS
  0
LAYER
  5
134
330
2
100
AcDbSymbolTableRecord
100
AcDbLayerTableRecord
  2
SEIHIN
 70
     0
 62
     3
  6
CONTINUOUS
  0
LAYER
  5
1E9
330
2
100
AcDbSymbolTableRecord
100
AcDbLayerTableRecord
  2
SUNPOU
 70
     0
 62
     4
  6
CONTINUOUS
  0
LAYER
  5
1EA
330
2
100
AcDbSymbolTableRecord
100
AcDbLayerTableRecord
  2
CENTER_L
 70
     0
 62
     1
  6
CENTER
  0
LAYER
  5
264
330
2
100
AcDbSymbolTableRecord
100
AcDbLayerTableRecord
  2
DEFPOINTS
 70
     0
 62
     7
  6
CONTINUOUS
  0
ENDTAB
  0
TABLE
  2
STYLE
  5
3
330
0
100
AcDbSymbolTable
 70
     2
  0
STYLE
  5
10
330
3
100
AcDbSymbolTableRecord
100
AcDbTextStyleTableRecord
  2
STANDARD
 70
     0
 40
0.0
 41
1.0
 50
0.0
 71
     0
 42
2.5
  3
TXT
  4
a:\program files\autocad lt\ms\bigfont.shx
  0
STYLE
  5
41F
330
3
100
AcDbSymbolTableRecord
100
AcDbTextStyleTableRecord
  2
STYLE1
 70
     0
 40
0.0
 41
1.0
 50
0.0
 71
     0
 42
2.5
  3
TXT
  4
a:\program files\autocad lt\ms\bigfont.shx
  0
ENDTAB
  0
TABLE
  2
VIEW
  5
6
330
0
100
AcDbSymbolTable
 70
     0
  0
ENDTAB
  0
TABLE
  2
UCS
  5
7
330
0
100
AcDbSymbolTable
 70
     0
  0
ENDTAB
  0
TABLE
  2
APPID
  5
9
330
0
100
AcDbSymbolTable
 70
     1
  0
APPID
  5
11
330
9
100
AcDbSymbolTableRecord
100
AcDbRegAppTableRecord
  2
ACAD
 70
     0
  0
ENDTAB
  0
TABLE
  2
DIMSTYLE
  5
A
330
0
100
AcDbSymbolTable
 70
     1
  0
DIMSTYLE
105
1D
102
{ACAD_REACTORS
330
296
330
3B9
330
3DC
330
578
330
585
330
592
330
59F
330
638
330
269
330
650
330
517
330
56F
102
}
330
A
100
AcDbSymbolTableRecord
100
AcDbDimStyleTableRecord
  2
STANDARD
 70
     0
  3

  4

  5

  6

  7

 40
1.0
 41
0.18
 42
0.0625
 43
0.38
 44
0.18
 45
0.0
 46
0.0
 47
0.0
 48
0.0
140
0.18
141
0.09
142
0.0
143
25.4
144
1.0
145
0.0
146
1.0
147
0.09
 71
     0
 72
     0
 73
     1
 74
     1
 75
     0
 76
     0
 77
     0
 78
     0
170
     0
171
     2
172
     0
173
     0
174
     0
175
     0
176
     0
177
     0
178
     0
270
     2
271
     4
272
     4
273
     2
274
     2
340
10
275
     0
280
     0
281
     0
282
     0
283
     1
284
     0
285
     0
286
     0
287
     3
288
     0
  0
ENDTAB
  0
TABLE
  2
BLOCK_RECORD
  5
1
330
0
100
AcDbSymbolTable
 70
    13
  0
BLOCK_RECORD
  5
1A
102
{ACAD_XDICTIONARY
360
5D8
102
}
330
1
100
AcDbSymbolTableRecord
100
AcDbBlockTableRecord
  2
*MODEL_SPACE
  0
BLOCK_RECORD
  5
17
102
{ACAD_XDICTIONARY
360
5D6
102
}
330
1
100
AcDbSymbolTableRecord
100
AcDbBlockTableRecord
  2
*PAPER_SPACE
  0
BLOCK_RECORD
  5
B2
330
1
100
AcDbSymbolTableRecord
100
AcDbBlockTableRecord
  2
_OPEN
  0
BLOCK_RECORD
  5
25A
330
1
100
AcDbSymbolTableRecord
100
AcDbBlockTableRecord
  2
*D1
  0
BLOCK_RECORD
  5
288
330
1
100
AcDbSymbolTableRecord
100
AcDbBlockTableRecord
  2
*D2
  0
BLOCK_RECORD
  5
3AD
330
1
100
AcDbSymbolTableRecord
100
AcDbBlockTableRecord
  2
*D3
  0
BLOCK_RECORD
  5
3D0
330
1
100
AcDbSymbolTableRecord
100
AcDbBlockTableRecord
  2
*D4
  0
BLOCK_RECORD
  5
534
330
1
100
AcDbSymbolTableRecord
100
AcDbBlockTableRecord
  2
*D5
  0
BLOCK_RECORD
  5
570
330
1
100
AcDbSymbolTableRecord
100
AcDbBlockTableRecord
  2
*D6
  0
BLOCK_RECORD
  5
579
330
1
100
AcDbSymbolTableRecord
100
AcDbBlockTableRecord
  2
*D7
  0
BLOCK_RECORD
  5
586
330
1
100
AcDbSymbolTableRecord
100
AcDbBlockTableRecord
  2
*D8
  0
BLOCK_RECORD
  5
593
330
1
100
AcDbSymbolTableRecord
100
AcDbBlockTableRecord
  2
*D9
  0
BLOCK_RECORD
  5
5A0
330
1
100
AcDbSymbolTableRecord
100
AcDbBlockTableRecord
  2
*D10
  0
BLOCK_RECORD
  5
639
330
1
100
AcDbSymbolTableRecord
100
AcDbBlockTableRecord
  2
*D11
  0
BLOCK_RECORD
  5
651
330
1
100
AcDbSymbolTableRecord
100
AcDbBlockTableRecord
  2
*D12
  0
ENDTAB
  0
ENDSEC
  0
SECTION
  2
BLOCKS
  0
BLOCK
  5
1B
330
1A
100
AcDbEntity
  8
0
100
AcDbBlockBegin
  2
*MODEL_SPACE
 70
     0
 10
0.0
 20
0.0
 30
0.0
  3
*MODEL_SPACE
  1

  0
ENDBLK
  5
1C
330
1A
100
AcDbEntity
  8
0
100
AcDbBlockEnd
  0
BLOCK
  5
18
330
17
100
AcDbEntity
 67
     1
  8
0
100
AcDbBlockBegin
  2
*PAPER_SPACE
 70
     0
 10
0.0
 20
0.0
 30
0.0
  3
*PAPER_SPACE
  1

  0
ENDBLK
  5
19
330
17
100
AcDbEntity
 67
     1
  8
0
100
AcDbBlockEnd
  0
BLOCK
  5
B3
330
B2
100
AcDbEntity
  8
0
100
AcDbBlockBegin
  2
_OPEN
 70
     0
 10
0.0
 20
0.0
 30
0.0
  3
_OPEN
  1

  0
LINE
  5
B4
330
B2
100
AcDbEntity
  8
0
  6
BYBLOCK
 62
     0
100
AcDbLine
 10
-1.0
 20
0.1666666666666666
 30
0.0
 11
0.0
 21
0.0
 31
0.0
  0
LINE
  5
B5
330
B2
100
AcDbEntity
  8
0
  6
BYBLOCK
 62
     0
100
AcDbLine
 10
0.0
 20
0.0
 30
0.0
 11
-1.0
 21
-0.1666666666666666
 31
0.0
  0
LINE
  5
B6
330
B2
100
AcDbEntity
  8
0
  6
BYBLOCK
 62
     0
100
AcDbLine
 10
0.0
 20
0.0
 30
0.0
 11
-1.0
 21
0.0
 31
0.0
  0
ENDBLK
  5
B7
330
B2
100
AcDbEntity
  8
0
100
AcDbBlockEnd
  0
BLOCK
  5
25B
330
25A
100
AcDbEntity
  8
0
100
AcDbBlockBegin
  2
*D1
 70
     1
 10
0.0
 20
0.0
 30
0.0
  3
*D1
  1

  0
LINE
  5
801
330
25A
100
AcDbEntity
  8
SUNPOU
 62
     4
 48
5.0
100
AcDbLine
 10
139.4050035000882
 20
112.4206731820182
 30
0.0
 11
165.5990227786173
 21
112.4206731820182
 31
0.0
  0
LINE
  5
802
330
25A
100
AcDbEntity
  8
SUNPOU
 62
     4
 48
5.0
100
AcDbLine
 10
141.4050035000882
 20
108.4207731820181
 30
0.0
 11
165.5990227786173
 21
108.4207731820181
 31
0.0
  0
LINE
  5
803
330
25A
100
AcDbEntity
  8
SUNPOU
 62
     4
 48
5.0
100
AcDbLine
 10
164.0990227786173
 20
115.4206731820182
 30
0.0
 11
164.0990227786173
 21
118.4206731820182
 31
0.0
  0
LINE
  5
804
330
25A
100
AcDbEntity
  8
SUNPOU
 62
     4
 48
5.0
100
AcDbLine
 10
164.0990227786173
 20
105.4207731820181
 30
0.0
 11
164.0990227786173
 21
102.4207731820181
 31
0.0
  0
MTEXT
  5
805
330
25A
100
AcDbEntity
  8
SUNPOU
 62
     4
 48
5.0
100
AcDbMText
 10
162.1623546589724
 20
110.3956650806185
 30
0.0
 40
3.0
 41
0.0
 71
     5
 72
     1
  1
\A1;4
 11
0.0000000000000001
 21
1.0
 31
0.0
  0
LINE
  5
806
330
25A
100
AcDbEntity
  8
SUNPOU
 62
     4
 48
5.0
100
AcDbLine
 10
164.0990227786173
 20
112.4206731820182
 30
0.0
 11
164.0990227786173
 21
108.4207731820181
 31
0.0
  0
INSERT
  5
807
330
25A
100
AcDbEntity
  8
SUNPOU
 62
     4
 48
5.0
100
AcDbBlockReference
  2
_OPEN
 10
164.0990227786173
 20
112.4206731820182
 30
0.0
 41
3.0
 42
3.0
 43
3.0
 50
270.0
  0
INSERT
  5
808
330
25A
100
AcDbEntity
  8
SUNPOU
 62
     4
 48
5.0
100
AcDbBlockReference
  2
_OPEN
 10
164.0990227786173
 20
108.4207731820181
 30
0.0
 41
3.0
 42
3.0
 43
3.0
 50
90.0
  0
POINT
  5
809
330
25A
100
AcDbEntity
  8
DEFPOINTS
 62
     0
 48
5.0
100
AcDbPoint
 10
136.4050035000882
 20
112.4206731820182
 30
0.0
  0
POINT
  5
80A
330
25A
100
AcDbEntity
  8
DEFPOINTS
 62
     0
 48
5.0
100
AcDbPoint
 10
138.4050035000882
 20
108.4207731820181
 30
0.0
  0
POINT
  5
80B
330
25A
100
AcDbEntity
  8
DEFPOINTS
 62
     0
 48
5.0
100
AcDbPoint
 10
164.0990227786173
 20
108.4207731820181
 30
0.0
  0
ENDBLK
  5
268
330
25A
100
AcDbEntity
  8
0
100
AcDbBlockEnd
  0
BLOCK
  5
37C
330
288
100
AcDbEntity
  8
0
100
AcDbBlockBegin
  2
*D2
 70
     1
 10
0.0
 20
0.0
 30
0.0
  3
*D2
  1

  0
LINE
  5
68C
330
288
100
AcDbEntity
  8
SUNPOU
 62
     4
 48
5.0
100
AcDbLine
 10
109.8662055803873
 20
106.4634264743365
 30
0.0
 11
111.0707202699031
 21
106.4634264743365
 31
0.0
  0
LINE
  5
68D
330
288
100
AcDbEntity
  8
SUNPOU
 62
     4
 48
5.0
100
AcDbLine
 10
109.6262035000882
 20
105.4205731820181
 30
0.0
 11
111.0707202699031
 21
105.4205731820181
 31
0.0
  0
LINE
  5
68E
330
288
100
AcDbEntity
  8
SUNPOU
 62
     4
 48
5.0
100
AcDbLine
 10
109.5707202699031
 20
109.4634264743365
 30
0.0
 11
109.5707202699031
 21
112.4634264743365
 31
0.0
  0
LINE
  5
68F
330
288
100
AcDbEntity
  8
SUNPOU
 62
     4
 48
5.0
100
AcDbLine
 10
109.5707202699031
 20
102.4205731820181
 30
0.0
 11
109.5707202699031
 21
89.92057318201819
 31
0.0
  0
LINE
  5
690
330
288
100
AcDbEntity
  8
SUNPOU
 62
     4
 48
5.0
100
AcDbLine
 10
109.5707202699031
 20
106.4634264743365
 30
0.0
 11
109.5707202699031
 21
105.4205731820181
 31
0.0
  0
INSERT
  5
691
330
288
100
AcDbEntity
  8
SUNPOU
 62
     4
 48
5.0
100
AcDbBlockReference
  2
_OPEN
 10
109.5707202699031
 20
106.4634264743365
 30
0.0
 41
3.0
 42
3.0
 43
3.0
 50
270.0
  0
INSERT
  5
692
330
288
100
AcDbEntity
  8
SUNPOU
 62
     4
 48
5.0
100
AcDbBlockReference
  2
_OPEN
 10
109.5707202699031
 20
105.4205731820181
 30
0.0
 41
3.0
 42
3.0
 43
3.0
 50
90.0
  0
MTEXT
  5
693
330
288
100
AcDbEntity
  8
SUNPOU
 62
     4
 48
5.0
100
AcDbMText
 10
107.0707202699031
 20
94.67057318201822
 30
0.0
 40
3.0
 41
0.0
 71
     5
 72
     1
  1
\A1;t1.0
 11
0.0000000000000001
 21
1.0
 31
0.0
1001
ACAD
1000
MTEXTBEGIN
1070
    73
1070
     1
1070
    44
1040
1.0
1070
    74
1070
     0
1000
MTEXTEND
1000
MTEXTBEGIN
1070
    73
1070
     1
1070
    44
1040
1.0
1070
    74
1070
     0
1000
MTEXTEND
1000
MTEXTBEGIN
1070
    73
1070
     1
1070
    44
1040
1.0
1070
    74
1070
     0
1000
MTEXTEND
1000
MTEXTBEGIN
1070
    73
1070
     1
1070
    44
1040
1.0
1070
    74
1070
     0
1000
MTEXTEND
  0
POINT
  5
694
330
288
100
AcDbEntity
  8
DEFPOINTS
 62
     0
 48
5.0
100
AcDbPoint
 10
106.8662055803873
 20
106.4634264743365
 30
0.0
  0
POINT
  5
695
330
288
100
AcDbEntity
  8
DEFPOINTS
 62
     0
 48
5.0
100
AcDbPoint
 10
106.6262035000882
 20
105.4205731820181
 30
0.0
  0
POINT
  5
696
330
288
100
AcDbEntity
  8
DEFPOINTS
 62
     0
 48
5.0
100
AcDbPoint
 10
109.5707202699031
 20
105.4205731820181
 30
0.0
  0
ENDBLK
  5
388
330
288
100
AcDbEntity
  8
0
100
AcDbBlockEnd
  0
BLOCK
  5
3AE
330
3AD
100
AcDbEntity
  8
0
100
AcDbBlockBegin
  2
*D3
 70
     1
 10
0.0
 20
0.0
 30
0.0
  3
*D3
  1

  0
LINE
  5
6BB
330
3AD
100
AcDbEntity
  8
SUNPOU
 62
     4
 48
5.0
100
AcDbLine
 10
251.823902166865
 20
102.4206731820182
 30
0.0
 11
251.823902166865
 21
89.71398716216288
 31
0.0
  0
LINE
  5
6BC
330
3AD
100
AcDbEntity
  8
SUNPOU
 62
     4
 48
5.0
100
AcDbLine
 10
291.823902166865
 20
102.4206731820182
 30
0.0
 11
291.823902166865
 21
89.71398716216288
 31
0.0
  0
LINE
  5
6BD
330
3AD
100
AcDbEntity
  8
SUNPOU
 62
     4
 48
5.0
100
AcDbLine
 10
254.823902166865
 20
91.21398716216289
 30
0.0
 11
288.823902166865
 21
91.21398716216289
 31
0.0
  0
INSERT
  5
6BE
330
3AD
100
AcDbEntity
  8
SUNPOU
 62
     4
 48
5.0
100
AcDbBlockReference
  2
_OPEN
 10
251.823902166865
 20
91.21398716216289
 30
0.0
 41
3.0
 42
3.0
 43
3.0
 50
180.0
  0
INSERT
  5
6BF
330
3AD
100
AcDbEntity
  8
SUNPOU
 62
     4
 48
5.0
100
AcDbBlockReference
  2
_OPEN
 10
291.823902166865
 20
91.21398716216289
 30
0.0
 41
3.0
 42
3.0
 43
3.0
  0
MTEXT
  5
6C0
330
3AD
100
AcDbEntity
  8
SUNPOU
 62
     4
 48
5.0
100
AcDbMText
 10
271.823902166865
 20
93.71398716216289
 30
0.0
 40
3.0
 41
0.0
 71
     5
 72
     1
  1
\A1;40
1001
ACAD
1000
MTEXTBEGIN
1070
    73
1070
     1
1070
    44
1040
1.0
1070
    74
1070
     0
1000
MTEXTEND
1000
MTEXTBEGIN
1070
    73
1070
     1
1070
    44
1040
1.0
1070
    74
1070
     0
1000
MTEXTEND
1000
MTEXTBEGIN
1070
    73
1070
     1
1070
    44
1040
1.0
1070
    74
1070
     0
1000
MTEXTEND
1000
MTEXTBEGIN
1070
    73
1070
     1
1070
    44
1040
1.0
1070
    74
1070
     0
1000
MTEXTEND
  0
POINT
  5
6C1
330
3AD
100
AcDbEntity
  8
DEFPOINTS
 62
     0
 48
5.0
100
AcDbPoint
 10
251.823902166865
 20
105.4206731820182
 30
0.0
  0
POINT
  5
6C2
330
3AD
100
AcDbEntity
  8
DEFPOINTS
 62
     0
 48
5.0
100
AcDbPoint
 10
291.823902166865
 20
105.4206731820182
 30
0.0
  0
POINT
  5
6C3
330
3AD
100
AcDbEntity
  8
DEFPOINTS
 62
     0
 48
5.0
100
AcDbPoint
 10
291.823902166865
 20
91.21398716216289
 30
0.0
  0
ENDBLK
  5
3B8
330
3AD
100
AcDbEntity
  8
0
100
AcDbBlockEnd
  0
BLOCK
  5
3D1
330
3D0
100
AcDbEntity
  8
0
100
AcDbBlockBegin
  2
*D4
 70
     1
 10
0.0
 20
0.0
 30
0.0
  3
*D4
  1

  0
LINE
  5
683
330
3D0
100
AcDbEntity
  8
SUNPOU
 62
     4
 48
5.0
100
AcDbLine
 10
146.4050035000882
 20
102.4206731820182
 30
0.0
 11
146.4050035000882
 21
77.47770934263314
 31
0.0
  0
LINE
  5
684
330
3D0
100
AcDbEntity
  8
SUNPOU
 62
     4
 48
5.0
100
AcDbLine
 10
101.5807795000881
 20
107.9206731822232
 30
0.0
 11
101.5807795000881
 21
77.47770934263314
 31
0.0
  0
LINE
  5
685
330
3D0
100
AcDbEntity
  8
SUNPOU
 62
     4
 48
5.0
100
AcDbLine
 10
143.4050035000882
 20
78.97770934263315
 30
0.0
 11
104.5807795000881
 21
78.97770934263315
 31
0.0
  0
INSERT
  5
686
330
3D0
100
AcDbEntity
  8
SUNPOU
 62
     4
 48
5.0
100
AcDbBlockReference
  2
_OPEN
 10
146.4050035000882
 20
78.97770934263315
 30
0.0
 41
3.0
 42
3.0
 43
3.0
  0
INSERT
  5
687
330
3D0
100
AcDbEntity
  8
SUNPOU
 62
     4
 48
5.0
100
AcDbBlockReference
  2
_OPEN
 10
101.5807795000881
 20
78.97770934263315
 30
0.0
 41
3.0
 42
3.0
 43
3.0
 50
180.0
  0
MTEXT
  5
688
330
3D0
100
AcDbEntity
  8
SUNPOU
 62
     4
 48
5.0
100
AcDbMText
 10
123.9928915000882
 20
81.47770934263315
 30
0.0
 40
3.0
 41
0.0
 71
     5
 72
     1
  1
\A1;45
1001
ACAD
1000
MTEXTBEGIN
1070
    73
1070
     1
1070
    44
1040
1.0
1070
    74
1070
     0
1000
MTEXTEND
1000
MTEXTBEGIN
1070
    73
1070
     1
1070
    44
1040
1.0
1070
    74
1070
     0
1000
MTEXTEND
1000
MTEXTBEGIN
1070
    73
1070
     1
1070
    44
1040
1.0
1070
    74
1070
     0
1000
MTEXTEND
1000
MTEXTBEGIN
1070
    73
1070
     1
1070
    44
1040
1.0
1070
    74
1070
     0
1000
MTEXTEND
  0
POINT
  5
689
330
3D0
100
AcDbEntity
  8
DEFPOINTS
 62
     0
 48
5.0
100
AcDbPoint
 10
146.4050035000882
 20
105.4206731820182
 30
0.0
  0
POINT
  5
68A
330
3D0
100
AcDbEntity
  8
DEFPOINTS
 62
     0
 48
5.0
100
AcDbPoint
 10
101.5807795000881
 20
110.9206731822232
 30
0.0
  0
POINT
  5
68B
330
3D0
100
AcDbEntity
  8
DEFPOINTS
 62
     0
 48
5.0
100
AcDbPoint
 10
101.5807795000881
 20
78.97770934263315
 30
0.0
  0
ENDBLK
  5
3DB
330
3D0
100
AcDbEntity
  8
0
100
AcDbBlockEnd
  0
BLOCK
  5
53E
330
534
100
AcDbEntity
  8
0
 48
5.0
100
AcDbBlockBegin
  2
*D5
 70
     1
 10
0.0
 20
0.0
 30
0.0
  3
*D5
  1

  0
LINE
  5
80C
330
534
100
AcDbEntity
  8
SUNPOU
  6
CONTINUOUS
 62
     4
 48
5.0
100
AcDbLine
 10
135.4050035000882
 20
193.4206731820182
 30
0.0
 11
135.4050035000882
 21
218.5306879527342
 31
0.0
  0
LINE
  5
80D
330
534
100
AcDbEntity
  8
SUNPOU
  6
CONTINUOUS
 62
     4
 48
5.0
100
AcDbLine
 10
117.4050035000883
 20
193.4206731820182
 30
0.0
 11
117.4050035000883
 21
218.5306879527342
 31
0.0
  0
LINE
  5
80E
330
534
100
AcDbEntity
  8
SUNPOU
  6
CONTINUOUS
 62
     4
 48
5.0
100
AcDbLine
 10
132.4050035000882
 20
217.0306879527342
 30
0.0
 11
120.4050035000882
 21
217.0306879527342
 31
0.0
  0
MTEXT
  5
80F
330
534
100
AcDbEntity
  8
SUNPOU
  6
CONTINUOUS
 62
     4
 48
5.0
100
AcDbMText
 10
130.6955597390144
 20
220.6185997644415
 30
0.0
 40
3.0
 41
0.0
 71
     5
 72
     1
  1
\A1;18
  0
INSERT
  5
810
330
534
100
AcDbEntity
  8
SUNPOU
  6
CONTINUOUS
 62
     4
 48
5.0
100
AcDbBlockReference
  2
_OPEN
 10
135.4050035000882
 20
217.0306879527342
 30
0.0
 41
3.0
 42
3.0
 43
3.0
  0
INSERT
  5
811
330
534
100
AcDbEntity
  8
SUNPOU
  6
CONTINUOUS
 62
     4
 48
5.0
100
AcDbBlockReference
  2
_OPEN
 10
117.4050035000883
 20
217.0306879527342
 30
0.0
 41
3.0
 42
3.0
 43
3.0
 50
180.0
  0
POINT
  5
812
330
534
100
AcDbEntity
  8
DEFPOINTS
  6
CONTINUOUS
 62
     0
 48
5.0
100
AcDbPoint
 10
135.4050035000882
 20
190.4206731820182
 30
0.0
  0
POINT
  5
813
330
534
100
AcDbEntity
  8
DEFPOINTS
  6
CONTINUOUS
 62
     0
 48
5.0
100
AcDbPoint
 10
117.4050035000883
 20
190.4206731820182
 30
0.0
  0
POINT
  5
814
330
534
100
AcDbEntity
  8
DEFPOINTS
  6
CONTINUOUS
 62
     0
 48
5.0
100
AcDbPoint
 10
117.4050035000883
 20
217.0306879527342
 30
0.0
  0
ENDBLK
  5
53F
330
534
100
AcDbEntity
  8
0
 48
5.0
100
AcDbBlockEnd
  0
BLOCK
  5
576
330
570
100
AcDbEntity
  8
0
 48
5.0
100
AcDbBlockBegin
  2
*D6
 70
     1
 10
0.0
 20
0.0
 30
0.0
  3
*D6
  1

  0
LINE
  5
815
330
570
100
AcDbEntity
  8
SUNPOU
 62
     4
 48
5.0
100
AcDbLine
 10
247.6988899450622
 20
170.544213760408
 30
0.0
 11
295.948913319204
 21
146.2967386549255
 31
0.0
  0
MTEXT
  5
816
330
570
100
AcDbEntity
  8
SUNPOU
 62
     4
 48
5.0
100
AcDbMText
 10
286.3274917927765
 20
154.436500875219
 30
0.0
 40
3.0
 41
0.0
 71
     5
 72
     1
  1
\A1;\U+220560
 11
0.893518215263175
 21
-0.4490269468449644
 31
0.0
  0
INSERT
  5
817
330
570
100
AcDbEntity
  8
SUNPOU
 62
     4
 48
5.0
100
AcDbBlockReference
  2
_OPEN
 10
245.0183352992727
 20
171.8912946009429
 30
0.0
 41
3.0
 42
3.0
 43
3.0
 50
153.3187290067512
  0
INSERT
  5
818
330
570
100
AcDbEntity
  8
SUNPOU
 62
     4
 48
5.0
100
AcDbBlockReference
  2
_OPEN
 10
298.6294679649935
 20
144.9496578143905
 30
0.0
 41
3.0
 42
3.0
 43
3.0
 50
333.3187290067513
  0
POINT
  5
819
330
570
100
AcDbEntity
  8
DEFPOINTS
 62
     0
 48
5.0
100
AcDbPoint
 10
298.6294679649935
 20
144.9496578143905
 30
0.0
  0
POINT
  5
81A
330
570
100
AcDbEntity
  8
DEFPOINTS
 62
     0
 48
5.0
100
AcDbPoint
 10
245.0183352992727
 20
171.8912946009429
 30
0.0
  0
ENDBLK
  5
577
330
570
100
AcDbEntity
  8
0
 48
5.0
100
AcDbBlockEnd
  0
BLOCK
  5
583
330
579
100
AcDbEntity
  8
0
 48
5.0
100
AcDbBlockBegin
  2
*D7
 70
     1
 10
0.0
 20
0.0
 30
0.0
  3
*D7
  1

  0
LINE
  5
6B2
330
579
100
AcDbEntity
  8
SUNPOU
 62
     4
 48
5.0
100
AcDbLine
 10
268.8238936446795
 20
191.4204938304342
 30
0.0
 11
217.3628775940253
 21
191.4204938304342
 31
0.0
  0
LINE
  5
6B3
330
579
100
AcDbEntity
  8
SUNPOU
 62
     4
 48
5.0
100
AcDbLine
 10
248.823902166865
 20
116.4205731820181
 30
0.0
 11
217.3628775940253
 21
116.4205731820181
 31
0.0
  0
LINE
  5
6B4
330
579
100
AcDbEntity
  8
SUNPOU
 62
     4
 48
5.0
100
AcDbLine
 10
218.8628775940253
 20
188.4204938304342
 30
0.0
 11
218.8628775940253
 21
119.4205731820181
 31
0.0
  0
INSERT
  5
6B5
330
579
100
AcDbEntity
  8
SUNPOU
 62
     4
 48
5.0
100
AcDbBlockReference
  2
_OPEN
 10
218.8628775940253
 20
191.4204938304342
 30
0.0
 41
3.0
 42
3.0
 43
3.0
 50
90.0
  0
INSERT
  5
6B6
330
579
100
AcDbEntity
  8
SUNPOU
 62
     4
 48
5.0
100
AcDbBlockReference
  2
_OPEN
 10
218.8628775940253
 20
116.4205731820181
 30
0.0
 41
3.0
 42
3.0
 43
3.0
 50
270.0
  0
MTEXT
  5
6B7
330
579
100
AcDbEntity
  8
SUNPOU
 62
     4
 48
5.0
100
AcDbMText
 10
216.3628775940253
 20
153.9205335062262
 30
0.0
 40
3.0
 41
0.0
 71
     5
 72
     1
  1
\A1;75
 11
0.0000000000000001
 21
1.0
 31
0.0
1001
ACAD
1000
MTEXTBEGIN
1070
    73
1070
     1
1070
    44
1040
1.0
1070
    74
1070
     0
1000
MTEXTEND
1000
MTEXTBEGIN
1070
    73
1070
     1
1070
    44
1040
1.0
1070
    74
1070
     0
1000
MTEXTEND
1000
MTEXTBEGIN
1070
    73
1070
     1
1070
    44
1040
1.0
1070
    74
1070
     0
1000
MTEXTEND
1000
MTEXTBEGIN
1070
    73
1070
     1
1070
    44
1040
1.0
1070
    74
1070
     0
1000
MTEXTEND
  0
POINT
  5
6B8
330
579
100
AcDbEntity
  8
DEFPOINTS
 62
     0
 48
5.0
100
AcDbPoint
 10
271.8238936446795
 20
191.4204938304342
 30
0.0
  0
POINT
  5
6B9
330
579
100
AcDbEntity
  8
DEFPOINTS
 62
     0
 48
5.0
100
AcDbPoint
 10
251.823902166865
 20
116.4205731820181
 30
0.0
  0
POINT
  5
6BA
330
579
100
AcDbEntity
  8
DEFPOINTS
 62
     0
 48
5.0
100
AcDbPoint
 10
218.8628775940253
 20
116.4205731820181
 30
0.0
  0
ENDBLK
  5
584
330
579
100
AcDbEntity
  8
0
 48
5.0
100
AcDbBlockEnd
  0
BLOCK
  5
590
330
586
100
AcDbEntity
  8
0
 48
5.0
100
AcDbBlockBegin
  2
*D8
 70
     1
 10
0.0
 20
0.0
 30
0.0
  3
*D8
  1

  0
LINE
  5
81B
330
586
100
AcDbEntity
  8
SUNPOU
 62
     4
 48
5.0
100
AcDbLine
 10
248.823902166865
 20
116.4205731820181
 30
0.0
 11
217.3628775940253
 21
116.4205731820181
 31
0.0
  0
LINE
  5
81C
330
586
100
AcDbEntity
  8
SUNPOU
 62
     4
 48
5.0
100
AcDbLine
 10
248.823902166865
 20
105.4206731820182
 30
0.0
 11
217.3628775940253
 21
105.4206731820182
 31
0.0
  0
LINE
  5
81D
330
586
100
AcDbEntity
  8
SUNPOU
 62
     4
 48
5.0
100
AcDbLine
 10
218.8628775940253
 20
113.4205731820182
 30
0.0
 11
218.8628775940253
 21
108.4206731820182
 31
0.0
  0
INSERT
  5
81E
330
586
100
AcDbEntity
  8
SUNPOU
 62
     4
 48
5.0
100
AcDbBlockReference
  2
_OPEN
 10
218.8628775940253
 20
116.4205731820181
 30
0.0
 41
3.0
 42
3.0
 43
3.0
 50
90.0
  0
INSERT
  5
81F
330
586
100
AcDbEntity
  8
SUNPOU
 62
     4
 48
5.0
100
AcDbBlockReference
  2
_OPEN
 10
218.8628775940253
 20
105.4206731820182
 30
0.0
 41
3.0
 42
3.0
 43
3.0
 50
270.0
  0
MTEXT
  5
820
330
586
100
AcDbEntity
  8
SUNPOU
 62
     4
 48
5.0
100
AcDbMText
 10
216.3628775940253
 20
110.9206231820182
 30
0.0
 40
3.0
 41
0.0
 71
     5
 72
     1
  1
\A1;11
 11
0.0000000000000001
 21
1.0
 31
0.0
  0
POINT
  5
821
330
586
100
AcDbEntity
  8
DEFPOINTS
 62
     0
 48
5.0
100
AcDbPoint
 10
251.823902166865
 20
116.4205731820181
 30
0.0
  0
POINT
  5
822
330
586
100
AcDbEntity
  8
DEFPOINTS
 62
     0
 48
5.0
100
AcDbPoint
 10
251.823902166865
 20
105.4206731820182
 30
0.0
  0
POINT
  5
823
330
586
100
AcDbEntity
  8
DEFPOINTS
 62
     0
 48
5.0
100
AcDbPoint
 10
218.8628775940253
 20
105.4206731820182
 30
0.0
  0
ENDBLK
  5
591
330
586
100
AcDbEntity
  8
0
 48
5.0
100
AcDbBlockEnd
  0
BLOCK
  5
59D
330
593
100
AcDbEntity
  8
0
 48
5.0
100
AcDbBlockBegin
  2
*D9
 70
     1
 10
0.0
 20
0.0
 30
0.0
  3
*D9
  1

  0
LINE
  5
666
330
593
100
AcDbEntity
  8
SUNPOU
 62
     4
 48
5.0
100
AcDbLine
 10
268.8238936446795
 20
191.4204938304342
 30
0.0
 11
209.4484792244474
 21
191.4204938304342
 31
0.0
  0
LINE
  5
667
330
593
100
AcDbEntity
  8
SUNPOU
 62
     4
 48
5.0
100
AcDbLine
 10
248.823902166865
 20
105.4206731820182
 30
0.0
 11
209.4484792244474
 21
105.4206731820182
 31
0.0
  0
LINE
  5
668
330
593
100
AcDbEntity
  8
SUNPOU
 62
     4
 48
5.0
100
AcDbLine
 10
210.9484792244475
 20
188.4204938304342
 30
0.0
 11
210.9484792244475
 21
108.4206731820182
 31
0.0
  0
INSERT
  5
669
330
593
100
AcDbEntity
  8
SUNPOU
 62
     4
 48
5.0
100
AcDbBlockReference
  2
_OPEN
 10
210.9484792244475
 20
191.4204938304342
 30
0.0
 41
3.0
 42
3.0
 43
3.0
 50
90.0
  0
INSERT
  5
66A
330
593
100
AcDbEntity
  8
SUNPOU
 62
     4
 48
5.0
100
AcDbBlockReference
  2
_OPEN
 10
210.9484792244475
 20
105.4206731820182
 30
0.0
 41
3.0
 42
3.0
 43
3.0
 50
270.0
  0
MTEXT
  5
66B
330
593
100
AcDbEntity
  8
SUNPOU
 62
     4
 48
5.0
100
AcDbMText
 10
208.4484792244474
 20
148.4205835062263
 30
0.0
 40
3.0
 41
0.0
 71
     5
 72
     1
  1
\A1;86
 11
0.0000000000000001
 21
1.0
 31
0.0
1001
ACAD
1000
MTEXTBEGIN
1070
    73
1070
     1
1070
    44
1040
1.0
1070
    74
1070
     0
1000
MTEXTEND
1000
MTEXTBEGIN
1070
    73
1070
     1
1070
    44
1040
1.0
1070
    74
1070
     0
1000
MTEXTEND
1000
MTEXTBEGIN
1070
    73
1070
     1
1070
    44
1040
1.0
1070
    74
1070
     0
1000
MTEXTEND
1000
MTEXTBEGIN
1070
    73
1070
     1
1070
    44
1040
1.0
1070
    74
1070
     0
1000
MTEXTEND
  0
POINT
  5
66C
330
593
100
AcDbEntity
  8
DEFPOINTS
 62
     0
 48
5.0
100
AcDbPoint
 10
271.8238936446795
 20
191.4204938304342
 30
0.0
  0
POINT
  5
66D
330
593
100
AcDbEntity
  8
DEFPOINTS
 62
     0
 48
5.0
100
AcDbPoint
 10
251.823902166865
 20
105.4206731820182
 30
0.0
  0
POINT
  5
66E
330
593
100
AcDbEntity
  8
DEFPOINTS
 62
     0
 48
5.0
100
AcDbPoint
 10
210.9484792244475
 20
105.4206731820182
 30
0.0
  0
ENDBLK
  5
59E
330
593
100
AcDbEntity
  8
0
 48
5.0
100
AcDbBlockEnd
  0
BLOCK
  5
5AA
330
5A0
100
AcDbEntity
  8
0
 48
5.0
100
AcDbBlockBegin
  2
*D10
 70
     1
 10
0.0
 20
0.0
 30
0.0
  3
*D10
  1

  0
LINE
  5
6A0
330
5A0
100
AcDbEntity
  8
SUNPOU
 62
     4
 48
5.0
100
AcDbLine
 10
149.4050035000882
 20
115.4207731820181
 30
0.0
 11
174.9098592901914
 21
115.4207731820181
 31
0.0
  0
LINE
  5
6A1
330
5A0
100
AcDbEntity
  8
SUNPOU
 62
     4
 48
5.0
100
AcDbLine
 10
149.4050035000882
 20
106.4207731820181
 30
0.0
 11
174.9098592901914
 21
106.4207731820181
 31
0.0
  0
LINE
  5
6A2
330
5A0
100
AcDbEntity
  8
SUNPOU
 62
     4
 48
5.0
100
AcDbLine
 10
173.4098592901914
 20
112.4207731820181
 30
0.0
 11
173.4098592901914
 21
109.4207731820181
 31
0.0
  0
INSERT
  5
6A3
330
5A0
100
AcDbEntity
  8
SUNPOU
 62
     4
 48
5.0
100
AcDbBlockReference
  2
_OPEN
 10
173.4098592901914
 20
115.4207731820181
 30
0.0
 41
3.0
 42
3.0
 43
3.0
 50
90.0
  0
INSERT
  5
6A4
330
5A0
100
AcDbEntity
  8
SUNPOU
 62
     4
 48
5.0
100
AcDbBlockReference
  2
_OPEN
 10
173.4098592901914
 20
106.4207731820181
 30
0.0
 41
3.0
 42
3.0
 43
3.0
 50
270.0
  0
MTEXT
  5
6A5
330
5A0
100
AcDbEntity
  8
SUNPOU
 62
     4
 48
5.0
100
AcDbMText
 10
170.9098592901914
 20
110.9207731820182
 30
0.0
 40
3.0
 41
0.0
 71
     5
 72
     1
  1
\A1;9
 11
0.0000000000000001
 21
1.0
 31
0.0
1001
ACAD
1000
MTEXTBEGIN
1070
    73
1070
     1
1070
    44
1040
1.0
1070
    74
1070
     0
1000
MTEXTEND
1000
MTEXTBEGIN
1070
    73
1070
     1
1070
    44
1040
1.0
1070
    74
1070
     0
1000
MTEXTEND
1000
MTEXTBEGIN
1070
    73
1070
     1
1070
    44
1040
1.0
1070
    74
1070
     0
1000
MTEXTEND
1000
MTEXTBEGIN
1070
    73
1070
     1
1070
    44
1040
1.0
1070
    74
1070
     0
1000
MTEXTEND
  0
POINT
  5
6A6
330
5A0
100
AcDbEntity
  8
DEFPOINTS
 62
     0
 48
5.0
100
AcDbPoint
 10
146.4050035000882
 20
115.4207731820181
 30
0.0
  0
POINT
  5
6A7
330
5A0
100
AcDbEntity
  8
DEFPOINTS
 62
     0
 48
5.0
100
AcDbPoint
 10
146.4050035000882
 20
106.4207731820181
 30
0.0
  0
POINT
  5
6A8
330
5A0
100
AcDbEntity
  8
DEFPOINTS
 62
     0
 48
5.0
100
AcDbPoint
 10
173.4098592901914
 20
106.4207731820181
 30
0.0
  0
ENDBLK
  5
5AB
330
5A0
100
AcDbEntity
  8
0
 48
5.0
100
AcDbBlockEnd
  0
BLOCK
  5
643
330
639
100
AcDbEntity
  8
0
 48
5.0
100
AcDbBlockBegin
  2
*D11
 70
     1
 10
0.0
 20
0.0
 30
0.0
  3
*D11
  1

  0
LINE
  5
73A
330
639
100
AcDbEntity
  8
SUNPOU
 62
     4
 48
5.0
100
AcDbLine
 10
149.4050035000882
 20
116.4207731820182
 30
0.0
 11
184.8449408008298
 21
116.4207731820181
 31
0.0
  0
LINE
  5
73B
330
639
100
AcDbEntity
  8
SUNPOU
 62
     4
 48
5.0
100
AcDbLine
 10
149.4050035000882
 20
105.4206731820182
 30
0.0
 11
184.8449408008298
 21
105.4206731820181
 31
0.0
  0
LINE
  5
73C
330
639
100
AcDbEntity
  8
SUNPOU
 62
     4
 48
5.0
100
AcDbLine
 10
183.3449408008298
 20
113.4207731820181
 30
0.0
 11
183.3449408008298
 21
108.4206731820182
 31
0.0
  0
INSERT
  5
73D
330
639
100
AcDbEntity
  8
SUNPOU
 62
     4
 48
5.0
100
AcDbBlockReference
  2
_OPEN
 10
183.3449408008298
 20
116.4207731820181
 30
0.0
 41
3.0
 42
3.0
 43
3.0
 50
90.0
  0
INSERT
  5
73E
330
639
100
AcDbEntity
  8
SUNPOU
 62
     4
 48
5.0
100
AcDbBlockReference
  2
_OPEN
 10
183.3449408008298
 20
105.4206731820181
 30
0.0
 41
3.0
 42
3.0
 43
3.0
 50
270.0
  0
MTEXT
  5
73F
330
639
100
AcDbEntity
  8
SUNPOU
 62
     4
 48
5.0
100
AcDbMText
 10
180.8449408008297
 20
110.9207231820182
 30
0.0
 40
3.0
 41
0.0
 71
     5
 72
     1
  1
\A1;11
 11
0.0000000000000001
 21
1.0
 31
0.0
1001
ACAD
1000
MTEXTBEGIN
1070
    73
1070
     1
1070
    44
1040
1.0
1070
    74
1070
     0
1000
MTEXTEND
1000
MTEXTBEGIN
1070
    73
1070
     1
1070
    44
1040
1.0
1070
    74
1070
     0
1000
MTEXTEND
1000
MTEXTBEGIN
1070
    73
1070
     1
1070
    44
1040
1.0
1070
    74
1070
     0
1000
MTEXTEND
  0
POINT
  5
740
330
639
100
AcDbEntity
  8
DEFPOINTS
 62
     0
 48
5.0
100
AcDbPoint
 10
146.4050035000882
 20
116.4207731820182
 30
0.0
  0
POINT
  5
741
330
639
100
AcDbEntity
  8
DEFPOINTS
 62
     0
 48
5.0
100
AcDbPoint
 10
146.4050035000882
 20
105.4206731820182
 30
0.0
  0
POINT
  5
742
330
639
100
AcDbEntity
  8
DEFPOINTS
 62
     0
 48
5.0
100
AcDbPoint
 10
183.3449408008298
 20
105.4206731820181
 30
0.0
  0
ENDBLK
  5
644
330
639
100
AcDbEntity
  8
0
 48
5.0
100
AcDbBlockEnd
  0
BLOCK
  5
65B
330
651
100
AcDbEntity
  8
0
 48
5.0
100
AcDbBlockBegin
  2
*D12
 70
     1
 10
0.0
 20
0.0
 30
0.0
  3
*D12
  1

  0
LINE
  5
743
330
651
100
AcDbEntity
  8
SUNPOU
 62
     4
 48
5.0
100
AcDbLine
 10
126.4050035000882
 20
199.8889837993446
 30
0.0
 11
126.4050035000882
 21
229.1319894820464
 31
0.0
  0
LINE
  5
744
330
651
100
AcDbEntity
  8
SUNPOU
 62
     4
 48
5.0
100
AcDbLine
 10
101.5807795000881
 20
113.9206731820182
 30
0.0
 11
101.5807795000882
 21
229.1319894820464
 31
0.0
  0
LINE
  5
745
330
651
100
AcDbEntity
  8
SUNPOU
 62
     4
 48
5.0
100
AcDbLine
 10
123.4050035000882
 20
227.6319894820464
 30
0.0
 11
104.5807795000882
 21
227.6319894820464
 31
0.0
  0
INSERT
  5
746
330
651
100
AcDbEntity
  8
SUNPOU
 62
     4
 48
5.0
100
AcDbBlockReference
  2
_OPEN
 10
126.4050035000882
 20
227.6319894820464
 30
0.0
 41
3.0
 42
3.0
 43
3.0
  0
INSERT
  5
747
330
651
100
AcDbEntity
  8
SUNPOU
 62
     4
 48
5.0
100
AcDbBlockReference
  2
_OPEN
 10
101.5807795000882
 20
227.6319894820464
 30
0.0
 41
3.0
 42
3.0
 43
3.0
 50
180.0
  0
MTEXT
  5
748
330
651
100
AcDbEntity
  8
SUNPOU
 62
     4
 48
5.0
100
AcDbMText
 10
113.9928915000882
 20
230.1319894820465
 30
0.0
 40
3.0
 41
0.0
 71
     5
 72
     1
  1
\A1;25
1001
ACAD
1000
MTEXTBEGIN
1070
    73
1070
     1
1070
    44
1040
1.0
1070
    74
1070
     0
1000
MTEXTEND
1000
MTEXTBEGIN
1070
    73
1070
     1
1070
    44
1040
1.0
1070
    74
1070
     0
1000
MTEXTEND
1000
MTEXTBEGIN
1070
    73
1070
     1
1070
    44
1040
1.0
1070
    74
1070
     0
1000
MTEXTEND
  0
POINT
  5
749
330
651
100
AcDbEntity
  8
DEFPOINTS
 62
     0
 48
5.0
100
AcDbPoint
 10
126.4050035000882
 20
196.8889837993446
 30
0.0
  0
POINT
  5
74A
330
651
100
AcDbEntity
  8
DEFPOINTS
 62
     0
 48
5.0
100
AcDbPoint
 10
101.5807795000881
 20
110.9206731820182
 30
0.0
  0
POINT
  5
74B
330
651
100
AcDbEntity
  8
DEFPOINTS
 62
     0
 48
5.0
100
AcDbPoint
 10
101.5807795000882
 20
227.6319894820464
 30
0.0
  0
ENDBLK
  5
65C
330
651
100
AcDbEntity
  8
0
 48
5.0
100
AcDbBlockEnd
  0
ENDSEC
  0
SECTION
  2
ENTITIES
  0
LINE
  5
6C
330
1A
100
AcDbEntity
  8
ZUWAKU
 48
5.0
100
AcDbLine
 10
403.0
 20
7.0
 30
0.0
 11
5.0
 21
7.0
 31
0.0
  0
LINE
  5
6D
330
1A
100
AcDbEntity
  8
ZUWAKU
 48
5.0
100
AcDbLine
 10
5.0
 20
282.0
 30
0.0
 11
5.0
 21
7.0
 31
0.0
  0
LINE
  5
6E
330
1A
100
AcDbEntity
  8
ZUWAKU
 48
5.0
100
AcDbLine
 10
403.0
 20
282.0
 30
0.0
 11
403.0
 21
7.0
 31
0.0
  0
LINE
  5
6F
330
1A
100
AcDbEntity
  8
ZUWAKU
 48
5.0
100
AcDbLine
 10
403.0
 20
282.0
 30
0.0
 11
5.0
 21
282.0
 31
0.0
  0
LINE
  5
8E
330
1A
100
AcDbEntity
  8
ZUWAKU
 48
5.0
100
AcDbLine
 10
5.0
 20
13.0
 30
0.0
 11
403.0
 21
12.99999999999994
 31
0.0
  0
TEXT
  5
92
330
1A
100
AcDbEntity
  8
ZUWAKU
 62
     7
100
AcDbText
 10
25.15073007242387
 20
8.160237806787449
 30
0.0
 40
4.0
  1
丸トップ　たてとい
100
AcDbText
  0
TEXT
  5
93
330
1A
100
AcDbEntity
  8
ZUWAKU
 48
5.0
100
AcDbText
 10
8.003143713074223
 20
7.870178177610682
 30
0.0
 40
4.0
  1
品 種
100
AcDbText
  0
TEXT
  5
97
330
1A
100
AcDbEntity
  8
ZUWAKU
 48
5.0
100
AcDbText
 10
107.7028028167073
 20
8.200497435100942
 30
0.0
 40
4.0
  1
品名・ｻ ｲ ｽﾞ
100
AcDbText
  0
TEXT
  5
99
330
1A
100
AcDbEntity
  8
ZUWAKU
 62
     7
100
AcDbText
 10
141.1313324528735
 20
7.9299153608506
 30
0.0
 40
4.0
  1
這いといデンデン　ＵＴ６０　
100
AcDbText
  0
LINE
  5
9A
330
1A
100
AcDbEntity
  8
ZUWAKU
 48
5.0
100
AcDbLine
 10
324.3551403257206
 20
6.999999999999836
 30
0.0
 11
324.3551403257206
 21
12.99999999999995
 31
0.0
  0
LINE
  5
9B
330
1A
100
AcDbEntity
  8
ZUWAKU
 48
5.0
100
AcDbLine
 10
307.142312366876
 20
6.999999999999836
 30
0.0
 11
307.142312366876
 21
12.99999999999995
 31
0.0
  0
TEXT
  5
9C
330
1A
100
AcDbEntity
  8
ZUWAKU
 48
5.0
100
AcDbText
 10
310.1429253763237
 20
7.934661405801826
 30
0.0
 40
4.0
  1
品 番
100
AcDbText
  0
TEXT
  5
9E
330
1A
100
AcDbEntity
  8
ZUWAKU
 48
5.0
100
AcDbText
 10
322.9513761015196
 20
2.449000558492457
 30
0.0
 40
4.0
  1
積水化学工業株式会社  建材
100
AcDbText
  0
TEXT
  5
A1
330
1A
100
AcDbEntity
  8
ZUWAKU
 48
5.0
100
AcDbText
 10
389.843492473331
 20
7.886151458996323
 30
0.0
 40
4.0
  1
1/1
100
AcDbText
  0
TEXT
  5
A2
330
1A
100
AcDbEntity
  8
ZUWAKU
 48
5.0
100
AcDbText
 10
369.8225424558458
 20
7.729845637642938
 30
0.0
 40
4.0
  1
尺 度
100
AcDbText
  0
LINE
  5
A3
330
1A
100
AcDbEntity
  8
ZUWAKU
 48
5.0
100
AcDbLine
 10
366.8807110760169
 20
6.999999999999886
 30
0.0
 11
366.8807110760169
 21
12.99999999999994
 31
0.0
  0
TEXT
  5
A6
330
1A
100
AcDbEntity
  8
ZUWAKU
 48
5.0
100
AcDbText
 10
396.1622424237184
 20
2.480970960763784
 30
0.0
 40
4.0
  1
A3
100
AcDbText
  0
LINE
  5
F5
330
1A
100
AcDbEntity
  8
ZUWAKU
 48
5.0
100
AcDbLine
 10
22.25374857290876
 20
7.0
 30
0.0
 11
22.25374857290876
 21
13.0
 31
0.0
  0
LINE
  5
F6
330
1A
100
AcDbEntity
  8
ZUWAKU
 48
5.0
100
AcDbLine
 10
104.7316872784438
 20
7.0
 30
0.0
 11
104.7316872784438
 21
12.99999999999998
 31
0.0
  0
LINE
  5
F8
330
1A
100
AcDbEntity
  8
ZUWAKU
 48
5.0
100
AcDbLine
 10
138.0261803105822
 20
7.0
 30
0.0
 11
138.0261803105822
 21
12.99999999999998
 31
0.0
  0
LINE
  5
100
330
1A
100
AcDbEntity
  8
ZUWAKU
 48
5.0
100
AcDbLine
 10
384.3363149538092
 20
6.999999999999862
 30
0.0
 11
384.3363149538092
 21
12.99999999999994
 31
0.0
  0
LINE
  5
199
330
1A
100
AcDbEntity
  8
SEIHIN
 48
5.0
100
AcDbLine
 10
106.6262035000882
 20
105.4205731820181
 30
0.0
 11
146.4050035000882
 21
105.4207731820181
 31
0.0
  0
LINE
  5
19A
330
1A
100
AcDbEntity
  8
SEIHIN
 48
5.0
100
AcDbLine
 10
146.4050035000882
 20
106.4207731820181
 30
0.0
 11
107.0685035000882
 21
106.4206731820182
 31
0.0
  0
LINE
  5
19B
330
1A
100
AcDbEntity
  8
SEIHIN
 48
5.0
100
AcDbLine
 10
136.4050035000882
 20
112.4206731820182
 30
0.0
 11
131.1401035000882
 21
115.4206731820182
 31
0.0
  0
LINE
  5
19C
330
1A
100
AcDbEntity
  8
SEIHIN
 48
5.0
100
AcDbLine
 10
131.4050035000882
 20
116.4206731820182
 30
0.0
 11
136.4050035000882
 21
113.5716731820181
 31
0.0
  0
LINE
  5
19D
330
1A
100
AcDbEntity
  8
SEIHIN
 48
5.0
100
AcDbLine
 10
132.4050035000882
 20
106.4207731820181
 30
0.0
 11
134.4050035000882
 21
108.4207731820181
 31
0.0
  0
LINE
  5
19E
330
1A
100
AcDbEntity
  8
SEIHIN
 48
5.0
100
AcDbLine
 10
136.4050035000882
 20
112.4206731820182
 30
0.0
 11
141.6699035000881
 21
115.4207731820181
 31
0.0
  0
LINE
  5
19F
330
1A
100
AcDbEntity
  8
SEIHIN
 48
5.0
100
AcDbLine
 10
146.4050035000882
 20
105.4206731820182
 30
0.0
 11
146.4050035000882
 21
106.4207731820181
 31
0.0
  0
LINE
  5
1A0
330
1A
100
AcDbEntity
  8
SEIHIN
 48
5.0
100
AcDbLine
 10
140.4050035000882
 20
106.4207731820181
 30
0.0
 11
138.4050035000882
 21
108.4207731820181
 31
0.0
  0
LINE
  5
1A1
330
1A
100
AcDbEntity
  8
SEIHIN
 48
5.0
100
AcDbLine
 10
144.4050035000882
 20
106.4207731820181
 30
0.0
 11
144.4050035000882
 21
105.4205731820181
 31
0.0
  0
LINE
  5
1A2
330
1A
100
AcDbEntity
  8
SEIHIN
 48
5.0
100
AcDbLine
 10
138.4050035000882
 20
108.4207731820181
 30
0.0
 11
134.4050035000882
 21
108.4207731820181
 31
0.0
  0
LINE
  5
1A3
330
1A
100
AcDbEntity
  8
SEIHIN
 48
5.0
100
AcDbLine
 10
141.4050035000882
 20
116.4206731820182
 30
0.0
 11
146.4050035000882
 21
116.4207731820182
 31
0.0
  0
LINE
  5
1A4
330
1A
100
AcDbEntity
  8
SEIHIN
 48
5.0
100
AcDbLine
 10
146.4050035000882
 20
115.4207731820181
 30
0.0
 11
141.6699035000881
 21
115.4207731820181
 31
0.0
  0
LINE
  5
1A5
330
1A
100
AcDbEntity
  8
SEIHIN
 48
5.0
100
AcDbLine
 10
146.4050035000882
 20
115.4207731820181
 30
0.0
 11
146.4050035000882
 21
116.4205731820181
 31
0.0
  0
LINE
  5
1A6
330
1A
100
AcDbEntity
  8
SEIHIN
 48
5.0
100
AcDbLine
 10
141.4050035000882
 20
116.4206731820182
 30
0.0
 11
136.4050035000882
 21
113.5716731820181
 31
0.0
  0
LINE
  5
1A7
330
1A
100
AcDbEntity
  8
SEIHIN
 48
5.0
100
AcDbLine
 10
144.4050035000882
 20
116.4205731820181
 30
0.0
 11
144.4050035000882
 21
115.4206731820182
 31
0.0
  0
LINE
  5
1A8
330
1A
100
AcDbEntity
  8
SEIHIN
 48
5.0
100
AcDbLine
 10
116.4050035000882
 20
112.4206731820182
 30
0.0
 11
121.6699035000881
 21
115.4206731820182
 31
0.0
  0
LINE
  5
1A9
330
1A
100
AcDbEntity
  8
SEIHIN
 48
5.0
100
AcDbLine
 10
116.4050035000882
 20
112.4206731820182
 30
0.0
 11
111.1401035000882
 21
115.4206731820182
 31
0.0
  0
LINE
  5
1AA
330
1A
100
AcDbEntity
  8
SEIHIN
 48
5.0
100
AcDbLine
 10
106.6986035000882
 20
115.2569731820182
 30
0.0
 11
103.0622035000882
 21
111.2569731820182
 31
0.0
  0
LINE
  5
1AB
330
1A
100
AcDbEntity
  8
SEIHIN
 48
5.0
100
AcDbLine
 10
106.2562035000881
 20
116.2569731820182
 30
0.0
 11
101.7108035000882
 21
111.2569731820182
 31
0.0
  0
LINE
  5
1AC
330
1A
100
AcDbEntity
  8
SEIHIN
 48
5.0
100
AcDbLine
 10
128.4050035000882
 20
108.4206731820182
 30
0.0
 11
126.4050035000882
 21
108.4206731820182
 31
0.0
  0
LINE
  5
1AD
330
1A
100
AcDbEntity
  8
SEIHIN
 48
5.0
100
AcDbLine
 10
130.4050035000882
 20
106.4206731820182
 30
0.0
 11
128.4050035000882
 21
108.4206731820182
 31
0.0
  0
LINE
  5
1AE
330
1A
100
AcDbEntity
  8
SEIHIN
 48
5.0
100
AcDbLine
 10
124.4050035000882
 20
108.4206731820182
 30
0.0
 11
126.4050035000882
 21
108.4206731820182
 31
0.0
  0
LINE
  5
1AF
330
1A
100
AcDbEntity
  8
SEIHIN
 48
5.0
100
AcDbLine
 10
122.4050035000882
 20
106.4206731820182
 30
0.0
 11
124.4050035000882
 21
108.4206731820182
 31
0.0
  0
LINE
  5
1B0
330
1A
100
AcDbEntity
  8
SEIHIN
 48
5.0
100
AcDbLine
 10
114.4050035000882
 20
108.4206731820182
 30
0.0
 11
118.4050035000882
 21
108.4206731820182
 31
0.0
  0
LINE
  5
1B1
330
1A
100
AcDbEntity
  8
SEIHIN
 48
5.0
100
AcDbLine
 10
120.4050035000882
 20
106.4206731820182
 30
0.0
 11
118.4050035000882
 21
108.4206731820182
 31
0.0
  0
LINE
  5
1B2
330
1A
100
AcDbEntity
  8
SEIHIN
 48
5.0
100
AcDbLine
 10
112.4050035000882
 20
106.4206731820182
 30
0.0
 11
114.4050035000882
 21
108.4206731820182
 31
0.0
  0
LINE
  5
1B3
330
1A
100
AcDbEntity
  8
SEIHIN
 48
5.0
100
AcDbLine
 10
103.0622035000882
 20
110.5842731820182
 30
0.0
 11
106.6985035000882
 21
106.5842731820181
 31
0.0
  0
LINE
  5
1B4
330
1A
100
AcDbEntity
  8
SEIHIN
 48
5.0
100
AcDbLine
 10
101.7108035000882
 20
110.5843731820182
 30
0.0
 11
106.2562035000881
 21
105.5842731820181
 31
0.0
  0
ARC
  5
1B5
330
1A
100
AcDbEntity
  8
SEIHIN
 48
5.0
100
AcDbCircle
 10
106.6261035000882
 20
105.9206731820182
 30
0.0
 40
0.5000320000000001
100
AcDbArc
 50
222.2767719585
 51
269.9999999647
  0
ARC
  5
1B6
330
1A
100
AcDbEntity
  8
SEIHIN
 48
5.0
100
AcDbCircle
 10
107.0685035000882
 20
106.9206731820182
 30
0.0
 40
0.4999990000000001
100
AcDbArc
 50
222.2682929584999
 51
269.9999999647
  0
ARC
  5
1B7
330
1A
100
AcDbEntity
  8
SEIHIN
 48
5.0
100
AcDbCircle
 10
103.4322035000882
 20
110.9206731820182
 30
0.0
 40
0.500031
100
AcDbArc
 50
137.7317069945
 51
222.2767719585
  0
ARC
  5
1B8
330
1A
100
AcDbEntity
  8
SEIHIN
 48
5.0
100
AcDbCircle
 10
102.0807035000881
 20
110.9206731820182
 30
0.0
 40
0.499924
100
AcDbArc
 50
137.7239979944999
 51
222.2760019585
  0
LINE
  5
1B9
330
1A
100
AcDbEntity
  8
SEIHIN
 48
5.0
100
AcDbLine
 10
111.1401035000882
 20
115.4206731820182
 30
0.0
 11
107.0686035000882
 21
115.4206731820182
 31
0.0
  0
LINE
  5
1BA
330
1A
100
AcDbEntity
  8
SEIHIN
 48
5.0
100
AcDbLine
 10
111.4050035000882
 20
116.4206731820182
 30
0.0
 11
106.6262035000882
 21
116.4205731820181
 31
0.0
  0
LINE
  5
1BB
330
1A
100
AcDbEntity
  8
SEIHIN
 48
5.0
100
AcDbLine
 10
131.4050035000882
 20
116.4206731820182
 30
0.0
 11
121.4050035000882
 21
116.4206731820182
 31
0.0
  0
LINE
  5
1BC
330
1A
100
AcDbEntity
  8
SEIHIN
 48
5.0
100
AcDbLine
 10
131.1401035000882
 20
115.4206731820182
 30
0.0
 11
121.6699035000881
 21
115.4206731820182
 31
0.0
  0
LINE
  5
1BE
330
1A
100
AcDbEntity
  8
SEIHIN
 48
5.0
100
AcDbLine
 10
111.4050035000882
 20
116.4206731820182
 30
0.0
 11
116.4050035000882
 21
113.5715731820182
 31
0.0
  0
LINE
  5
1BF
330
1A
100
AcDbEntity
  8
SEIHIN
 48
5.0
100
AcDbLine
 10
121.4050035000882
 20
116.4206731820182
 30
0.0
 11
116.4050035000882
 21
113.5715731820182
 31
0.0
  0
ARC
  5
1C0
330
1A
100
AcDbEntity
  8
SEIHIN
 48
5.0
100
AcDbCircle
 10
107.0686035000882
 20
114.9206731820182
 30
0.0
 40
0.4999990000000001
100
AcDbArc
 50
89.99999998819999
 51
137.7317069945
  0
ARC
  5
1C1
330
1A
100
AcDbEntity
  8
SEIHIN
 48
5.0
100
AcDbCircle
 10
106.6262035000882
 20
115.9205731820181
 30
0.0
 40
0.5000320000000001
100
AcDbArc
 50
89.99999998819999
 51
137.7232279945
  0
LINE
  5
1D2
330
1A
100
AcDbEntity
  8
SEIHIN
 48
5.0
100
AcDbLine
 10
251.823902166865
 20
105.4206731820182
 30
0.0
 11
251.823902166865
 21
116.4205731820181
 31
0.0
  0
LINE
  5
1E1
330
1A
100
AcDbEntity
  8
SEIHIN
 48
5.0
100
AcDbLine
 10
291.823902166865
 20
116.4205731820181
 30
0.0
 11
291.823902166865
 21
105.4206731820182
 31
0.0
  0
LINE
  5
24F
330
1A
100
AcDbEntity
  8
SEIHIN
 48
5.0
100
AcDbLine
 10
251.823902166865
 20
115.4207731820181
 30
0.0
 11
291.823902166865
 21
115.4207731820181
 31
0.0
  0
LINE
  5
250
330
1A
100
AcDbEntity
  8
SEIHIN
 48
5.0
100
AcDbLine
 10
251.823902166865
 20
116.4205731820181
 30
0.0
 11
291.823902166865
 21
116.4205731820181
 31
0.0
  0
LINE
  5
251
330
1A
100
AcDbEntity
  8
SEIHIN
 48
5.0
100
AcDbLine
 10
251.823902166865
 20
105.4206731820182
 30
0.0
 11
291.823902166865
 21
105.4206731820182
 31
0.0
  0
LINE
  5
252
330
1A
100
AcDbEntity
  8
SEIHIN
 48
5.0
100
AcDbLine
 10
251.823902166865
 20
106.4207731820181
 30
0.0
 11
291.823902166865
 21
106.4207731820181
 31
0.0
  0
LINE
  5
253
330
1A
100
AcDbEntity
  8
CENTER_L
 48
5.0
100
AcDbLine
 10
271.823902166865
 20
197.2563541993757
 30
0.0
 11
271.823902166865
 21
99.12320564467643
 31
0.0
  0
LINE
  5
255
330
1A
100
AcDbEntity
  8
SEIHIN
 48
5.0
100
AcDbLine
 10
251.823902166865
 20
112.4206731820182
 30
0.0
 11
291.823902166865
 21
112.4206731820182
 31
0.0
  0
LINE
  5
257
330
1A
100
AcDbEntity
  8
CENTER_L
 48
5.0
100
AcDbLine
 10
126.4050035000882
 20
196.8889837993446
 30
0.0
 11
126.4050035000882
 21
110.7850500118013
 31
0.0
  0
DIMENSION
  5
269
330
1A
100
AcDbEntity
  8
SUNPOU
 48
5.0
100
AcDbDimension
  2
*D1
 10
164.0990227786173
 20
108.4207731820181
 30
0.0
 11
162.1623546589724
 21
110.3956650806185
 31
0.0
 70
   160
  3
STANDARD
100
AcDbAlignedDimension
 13
136.4050035000882
 23
112.4206731820182
 33
0.0
 14
138.4050035000882
 24
108.4207731820181
 34
0.0
 50
90.0
100
AcDbRotatedDimension
1001
ACAD
1000
DSTYLE
1002
{
1070
   287
1070
     5
1070
   287
1070
     5
1070
   287
1070
     5
1070
   287
1070
     5
1070
    41
1040
3.0
1070
    42
1040
3.0
1070
    43
1040
7.0
1070
    44
1040
1.5
1070
    73
1070
     0
1070
    74
1070
     0
1070
    77
1070
     3
1070
   140
1040
3.0
1070
   141
1040
150.0
1070
   147
1040
1.0
1070
   172
1070
     1
1070
   173
1070
     1
1070
   176
1070
     4
1070
   177
1070
     4
1070
   178
1070
     4
1070
   271
1070
     0
1070
   272
1070
     2
1070
   279
1070
     2
1070
     6
1000
OPEN
1070
     7
1000
OPEN
1002
}
  0
DIMENSION
  5
296
330
1A
100
AcDbEntity
  8
SUNPOU
 48
5.0
100
AcDbDimension
  2
*D2
 10
109.5707202699031
 20
105.4205731820181
 30
0.0
 11
107.0707202699031
 21
94.67057318201822
 31
0.0
 70
    32
  1
t<>
  3
STANDARD
100
AcDbAlignedDimension
 13
106.8662055803873
 23
106.4634264743365
 33
0.0
 14
106.6262035000882
 24
105.4205731820181
 34
0.0
 50
90.0
100
AcDbRotatedDimension
1001
ACAD
1000
DSTYLE
1002
{
1070
   140
1040
3.0
1070
    74
1070
     0
1070
   172
1070
     1
1070
    73
1070
     0
1070
   272
1070
     2
1070
    77
1070
     3
1070
   173
1070
     1
1070
   147
1040
1.0
1070
    42
1040
3.0
1070
    44
1040
1.5
1070
    43
1040
7.0
1070
   271
1070
     1
1070
   178
1070
     4
1070
   177
1070
     4
1070
   176
1070
     4
1070
   141
1040
150.0
1070
     7
1000
_OPEN
1070
     6
1000
_OPEN
1070
    41
1040
3.0
1002
}
  0
DIMENSION
  5
3B9
330
1A
100
AcDbEntity
  8
SUNPOU
 48
5.0
100
AcDbDimension
  2
*D3
 10
291.823902166865
 20
91.21398716216289
 30
0.0
 11
271.823902166865
 21
93.71398716216289
 31
0.0
 70
    32
  3
STANDARD
100
AcDbAlignedDimension
 13
251.823902166865
 23
105.4206731820182
 33
0.0
 14
291.823902166865
 24
105.4206731820182
 34
0.0
100
AcDbRotatedDimension
1001
ACAD
1000
DSTYLE
1002
{
1070
   140
1040
3.0
1070
    74
1070
     0
1070
   172
1070
     1
1070
    73
1070
     0
1070
   272
1070
     2
1070
    77
1070
     3
1070
   173
1070
     1
1070
   147
1040
1.0
1070
    42
1040
3.0
1070
    44
1040
1.5
1070
    43
1040
7.0
1070
   271
1070
     0
1070
   178
1070
     4
1070
   177
1070
     4
1070
   176
1070
     4
1070
   141
1040
150.0
1070
     7
1000
_OPEN
1070
     6
1000
_OPEN
1070
    41
1040
3.0
1002
}
  0
LINE
  5
3C9
330
1A
100
AcDbEntity
  8
SEIHIN
 48
5.0
100
AcDbLine
 10
285.8239021668651
 20
106.4207731820181
 30
0.0
 11
281.8239021668651
 21
108.4207731820181
 31
0.0
  0
LINE
  5
3CA
330
1A
100
AcDbEntity
  8
SEIHIN
 48
5.0
100
AcDbLine
 10
283.5878341893653
 20
106.4207731820181
 30
0.0
 11
281.3766885713651
 21
107.5263459910182
 31
0.0
  0
LINE
  5
3CC
330
1A
100
AcDbEntity
  8
SEIHIN
 48
5.0
100
AcDbLine
 10
281.3766885713651
 20
107.5263459910182
 30
0.0
 11
281.8239021668651
 21
108.4207731820181
 31
0.0
  0
LINE
  5
3CD
330
1A
100
AcDbEntity
  8
SEIHIN
 48
5.0
100
AcDbLine
 10
262.271115762365
 20
107.5263459910182
 30
0.0
 11
261.823902166865
 21
108.4207731820181
 31
0.0
  0
LINE
  5
3CE
330
1A
100
AcDbEntity
  8
SEIHIN
 48
5.0
100
AcDbLine
 10
257.823902166865
 20
106.4207731820181
 30
0.0
 11
261.823902166865
 21
108.4207731820181
 31
0.0
  0
LINE
  5
3CF
330
1A
100
AcDbEntity
  8
SEIHIN
 48
5.0
100
AcDbLine
 10
260.0599701443648
 20
106.4207731820181
 30
0.0
 11
262.271115762365
 21
107.5263459910182
 31
0.0
  0
DIMENSION
  5
3DC
330
1A
100
AcDbEntity
  8
SUNPOU
 48
5.0
100
AcDbDimension
  2
*D4
 10
101.5807795000881
 20
78.97770934263315
 30
0.0
 11
123.9928915000882
 21
81.47770934263315
 31
0.0
 70
    32
  3
STANDARD
100
AcDbAlignedDimension
 13
146.4050035000882
 23
105.4206731820182
 33
0.0
 14
101.5807795000881
 24
110.9206731822232
 34
0.0
100
AcDbRotatedDimension
1001
ACAD
1000
DSTYLE
1002
{
1070
   140
1040
3.0
1070
    74
1070
     0
1070
   172
1070
     1
1070
    73
1070
     0
1070
   272
1070
     2
1070
    77
1070
     3
1070
   173
1070
     1
1070
   147
1040
1.0
1070
    42
1040
3.0
1070
    44
1040
1.5
1070
    43
1040
7.0
1070
   271
1070
     0
1070
   178
1070
     4
1070
   177
1070
     4
1070
   176
1070
     4
1070
   141
1040
150.0
1070
     7
1000
_OPEN
1070
     6
1000
_OPEN
1070
    41
1040
3.0
1002
}
  0
LINE
  5
3FA
330
1A
100
AcDbEntity
  8
SEIHIN
 48
5.0
100
AcDbLine
 10
129.9048924195882
 20
113.4206537915655
 30
0.0
 11
129.9049035000056
 21
115.4207537915597
 31
0.0
  0
LINE
  5
3FB
330
1A
100
AcDbEntity
  8
SEIHIN
 48
5.0
100
AcDbLine
 10
129.9048924195882
 20
113.420653791671
 30
0.0
 11
122.9048924196087
 21
113.4206925713826
 31
0.0
  0
LINE
  5
3FC
330
1A
100
AcDbEntity
  8
SEIHIN
 48
5.0
100
AcDbLine
 10
122.9048924196087
 20
113.4206925713826
 30
0.0
 11
122.9049034995707
 21
115.4206925713767
 31
0.0
  0
LINE
  5
41B
330
1A
100
AcDbEntity
  8
SEIHIN
 48
5.0
100
AcDbLine
 10
289.823902166865
 20
106.4207731820181
 30
0.0
 11
289.823902166865
 21
105.4205731820181
 31
0.0
  0
LINE
  5
41C
330
1A
100
AcDbEntity
  8
SEIHIN
 48
5.0
100
AcDbLine
 10
289.823902166865
 20
116.4205731820181
 30
0.0
 11
289.823902166865
 21
115.4206731820182
 31
0.0
  0
LINE
  5
41D
330
1A
100
AcDbEntity
  8
SEIHIN
 48
5.0
100
AcDbLine
 10
253.823902166865
 20
106.4207731820181
 30
0.0
 11
253.823902166865
 21
105.4205731820181
 31
0.0
  0
LINE
  5
41E
330
1A
100
AcDbEntity
  8
SEIHIN
 48
5.0
100
AcDbLine
 10
253.823902166865
 20
116.4205731820181
 30
0.0
 11
253.823902166865
 21
115.4206731820182
 31
0.0
  0
LINE
  5
43F
330
1A
100
AcDbEntity
  8
SEIHIN
 48
5.0
100
AcDbLine
 10
251.823902166865
 20
110.9206361833127
 30
0.0
 11
291.823902166865
 21
110.9206361833127
 31
0.0
  0
ARC
  5
4D5
330
1A
100
AcDbEntity
  8
SEIHIN
  6
CONTINUOUS
 62
     3
 48
5.0
100
AcDbCircle
 10
271.8239184786521
 20
158.4204909067953
 30
0.0
 40
30.00000073140751
100
AcDbArc
 50
56.91476191784818
 51
217.8396642833198
  0
ARC
  5
4D7
330
1A
100
AcDbEntity
  8
SEIHIN
  6
CONTINUOUS
 62
     3
 48
5.0
100
AcDbCircle
 10
271.823901632133
 20
158.4204762076668
 30
0.0
 40
30.00002224349183
100
AcDbArc
 50
323.1303657241728
 51
56.91475028497219
  0
ARC
  5
4D8
330
1A
100
AcDbEntity
  8
SEIHIN
  6
CONTINUOUS
 62
     3
 48
5.0
100
AcDbCircle
 10
271.8238926462497
 20
158.4204722365404
 30
0.0
 40
31.99997718139744
100
AcDbArc
 50
334.8942121785948
 51
216.44852777225
  0
ARC
  5
4D9
330
1A
100
AcDbEntity
  8
SEIHIN
  6
CONTINUOUS
 62
     3
 48
5.0
100
AcDbCircle
 10
271.8239106890506
 20
158.4204737864257
 30
0.0
 40
33.00002004400853
100
AcDbArc
 50
335.4801257385076
 51
212.6332982330827
  0
ARC
  5
4DA
330
1A
100
AcDbEntity
  8
SEIHIN
  6
CONTINUOUS
 62
     3
 48
5.0
100
AcDbCircle
 10
271.8239972858079
 20
158.4205239574014
 30
0.0
 40
32.99996009043882
100
AcDbArc
 50
285.6803442712564
 51
310.5067251357155
  0
ARC
  5
4DB
330
1A
100
AcDbEntity
  8
SEIHIN
  6
CONTINUOUS
 62
     3
 48
5.0
100
AcDbCircle
 10
271.8239868299779
 20
158.4205199419692
 30
0.0
 40
33.99995498781402
100
AcDbArc
 50
285.6802421637071
 51
312.1437139407647
  0
ARC
  5
4DC
330
1A
100
AcDbEntity
  8
SEIHIN
  6
CONTINUOUS
 62
     3
 48
5.0
100
AcDbCircle
 10
271.8240665107474
 20
158.4204732353819
 30
0.0
 40
30.99997257768559
100
AcDbArc
 50
244.3206234143024
 51
295.7160327893983
  0
ARC
  5
4DD
330
1A
100
AcDbEntity
  8
SEIHIN
  6
CONTINUOUS
 62
     3
 48
5.0
100
AcDbCircle
 10
271.8239555307773
 20
158.4205009854255
 30
0.0
 40
29.99999399103715
100
AcDbArc
 50
271.9099204880748
 51
323.1302661034778
  0
LINE
  5
4DE
330
1A
100
AcDbEntity
  8
CENTER_L
  6
CENTER
 62
     1
 48
5.0
100
AcDbLine
 10
309.044502166865
 20
158.4204731820182
 30
0.0
 11
236.2229021668651
 21
158.4204731820182
 31
0.0
  0
LINE
  5
4DF
330
1A
100
AcDbEntity
  8
CENTER_L
  6
CENTER
 62
     1
 48
5.0
100
AcDbLine
 10
299.823902166865
 20
145.0626052000355
 30
0.0
 11
299.823902166865
 21
127.7785411640006
 31
0.0
  0
LINE
  5
4E0
330
1A
100
AcDbEntity
  8
SEIHIN
  6
CONTINUOUS
 62
     3
 48
5.0
100
AcDbLine
 10
296.288402166865
 20
139.9560731820181
 30
0.0
 11
295.823902166865
 21
140.4204731820181
 31
0.0
  0
LINE
  5
4E1
330
1A
100
AcDbEntity
  8
SEIHIN
  6
CONTINUOUS
 62
     3
 48
5.0
100
AcDbLine
 10
296.288402166865
 20
139.9560731820181
 30
0.0
 11
295.823902166865
 21
140.4204731820181
 31
0.0
  0
ARC
  5
4E2
330
1A
100
AcDbEntity
  8
SEIHIN
  6
CONTINUOUS
 62
     3
 48
5.0
100
AcDbCircle
 10
301.8238946567662
 20
140.4205871445885
 30
0.0
 40
2.999985585773595
100
AcDbArc
 50
324.8624897523932
 51
91.68651397791739
  0
ARC
  5
4E3
330
1A
100
AcDbEntity
  8
SEIHIN
  6
CONTINUOUS
 62
     3
 48
5.0
100
AcDbCircle
 10
299.8239008353381
 20
136.4205329552166
 30
0.0
 40
4.999979552968912
100
AcDbArc
 50
221.2080105160423
 51
134.9996632578526
  0
ARC
  5
4E4
330
1A
100
AcDbEntity
  8
SEIHIN
  6
CONTINUOUS
 62
     3
 48
5.0
100
AcDbCircle
 10
271.8239021654993
 20
158.4206731820182
 30
0.0
 40
28.99998689514277
100
AcDbArc
 50
352.0718546280941
 51
7.928145371905861
  0
LINE
  5
4E5
330
1A
100
AcDbEntity
  8
SEIHIN
  6
CONTINUOUS
 62
     3
 48
5.0
100
AcDbLine
 10
300.546702166865
 20
162.4205731820181
 30
0.0
 11
301.4043021668651
 21
163.4205731820181
 31
0.0
  0
LINE
  5
4E6
330
1A
100
AcDbEntity
  8
SEIHIN
  6
CONTINUOUS
 62
     3
 48
5.0
100
AcDbLine
 10
300.546702166865
 20
154.4205731820181
 30
0.0
 11
301.4043021668651
 21
153.4205731820181
 31
0.0
  0
ARC
  5
4E7
330
1A
100
AcDbEntity
  8
SEIHIN
  6
CONTINUOUS
 62
     3
 48
5.0
100
AcDbCircle
 10
301.7062198364228
 20
144.4188462742554
 30
0.0
 40
1.000007787236081
100
AcDbArc
 50
154.8921427735658
 51
271.6894447532726
  0
ARC
  5
4E8
330
1A
100
AcDbEntity
  8
SEIHIN
  6
CONTINUOUS
 62
     3
 48
5.0
100
AcDbCircle
 10
302.7576129957661
 20
144.3100509711696
 30
0.0
 40
0.9999995899415395
100
AcDbArc
 50
155.4792740687245
 51
256.5020292841534
  0
LINE
  5
4E9
330
1A
100
AcDbEntity
  8
CENTER_L
  6
CENTER
 62
     1
 48
5.0
100
AcDbLine
 10
308.4659341848825
 20
136.4205731820181
 30
0.0
 11
291.1818701488476
 21
136.4205731820181
 31
0.0
  0
ARC
  5
4EA
330
1A
100
AcDbEntity
  8
SEIHIN
  6
CONTINUOUS
 62
     3
 48
5.0
100
AcDbCircle
 10
299.823902166865
 20
136.4205731820181
 30
0.0
 40
2.25
100
AcDbArc
 50
90.00000000000003
 51
270.0
  0
ARC
  5
4EB
330
1A
100
AcDbEntity
  8
SEIHIN
  6
CONTINUOUS
 62
     3
 48
5.0
100
AcDbCircle
 10
299.823902166865
 20
136.4205731820181
 30
0.0
 40
2.400000000000005
100
AcDbArc
 50
90.00000000000003
 51
270.0
  0
ARC
  5
4EC
330
1A
100
AcDbEntity
  8
SEIHIN
  6
CONTINUOUS
 62
     3
 48
5.0
100
AcDbCircle
 10
299.823902166865
 20
136.4205731820181
 30
0.0
 40
2.25
100
AcDbArc
 50
270.0
 51
90.00000000000003
  0
ARC
  5
4ED
330
1A
100
AcDbEntity
  8
SEIHIN
  6
CONTINUOUS
 62
     3
 48
5.0
100
AcDbCircle
 10
299.823902166865
 20
136.4205731820181
 30
0.0
 40
2.400000000000005
100
AcDbArc
 50
270.0
 51
90.00000000000003
  0
ARC
  5
4EE
330
1A
100
AcDbEntity
  8
SEIHIN
  6
CONTINUOUS
 62
     3
 48
5.0
100
AcDbCircle
 10
295.308689403682
 20
132.4692739251895
 30
0.0
 40
0.9999483636654158
100
AcDbArc
 50
41.18810665101295
 51
132.1459835182186
  0
ARC
  5
4EF
330
1A
100
AcDbEntity
  8
SEIHIN
  6
CONTINUOUS
 62
     3
 48
5.0
100
AcDbCircle
 10
294.5576959842741
 20
131.8088736296507
 30
0.0
 40
2.000042968288538
100
AcDbArc
 50
41.21113102868036
 51
130.5063978602463
  0
ARC
  5
4F0
330
1A
100
AcDbEntity
  8
SEIHIN
  6
CONTINUOUS
 62
     3
 48
5.0
100
AcDbCircle
 10
284.8239245848678
 20
131.3835088352782
 30
0.0
 40
0.9999775826328592
100
AcDbArc
 50
295.6763617862555
 51
359.9979571728741
  0
LINE
  5
4F1
330
1A
100
AcDbEntity
  8
SEIHIN
  6
CONTINUOUS
 62
     3
 48
5.0
100
AcDbLine
 10
285.8239021668651
 20
131.887473182018
 30
0.0
 11
285.8239021668651
 21
131.3834731820181
 31
0.0
  0
ARC
  5
4F2
330
1A
100
AcDbEntity
  8
SEIHIN
  6
CONTINUOUS
 62
     3
 48
5.0
100
AcDbCircle
 10
242.5238993881132
 20
136.9205720622072
 30
0.0
 40
3.999997221248225
100
AcDbArc
 50
43.89792730504868
 51
179.9999839598787
  0
ARC
  5
4F3
330
1A
100
AcDbEntity
  8
SEIHIN
  6
CONTINUOUS
 62
     3
 48
5.0
100
AcDbCircle
 10
271.8239021672065
 20
158.4205731820181
 30
0.0
 40
28.99998689412843
100
AcDbArc
 50
172.0718546278145
 51
187.9281453721854
  0
LINE
  5
4F4
330
1A
100
AcDbEntity
  8
SEIHIN
  6
CONTINUOUS
 62
     3
 48
5.0
100
AcDbLine
 10
243.101102166865
 20
162.420573182018
 30
0.0
 11
242.2435021668651
 21
163.420573182018
 31
0.0
  0
LINE
  5
4F5
330
1A
100
AcDbEntity
  8
SEIHIN
  6
CONTINUOUS
 62
     3
 48
5.0
100
AcDbLine
 10
242.2435021668651
 20
153.420573182018
 30
0.0
 11
243.101102166865
 21
154.420573182018
 31
0.0
  0
LINE
  5
4F6
330
1A
100
AcDbEntity
  8
SEIHIN
  6
CONTINUOUS
 62
     3
 48
5.0
100
AcDbLine
 10
243.437202166865
 20
141.5920731820182
 30
0.0
 11
243.437202166865
 21
140.8148731820182
 31
0.0
  0
ARC
  5
4F7
330
1A
100
AcDbEntity
  8
SEIHIN
  6
CONTINUOUS
 62
     3
 48
5.0
100
AcDbCircle
 10
258.8238797488622
 20
131.3835088352782
 30
0.0
 40
0.9999775826328388
100
AcDbArc
 50
180.0020428271226
 51
244.3236382137378
  0
ARC
  5
4F8
330
1A
100
AcDbEntity
  8
SEIHIN
  6
CONTINUOUS
 62
     3
 48
5.0
100
AcDbCircle
 10
271.8238757559988
 20
158.4204829259641
 30
0.0
 40
29.99997683991848
100
AcDbArc
 50
231.4083080221061
 51
268.0900269144307
  0
ARC
  5
4F9
330
1A
100
AcDbEntity
  8
SEIHIN
  6
CONTINUOUS
 62
     3
 48
5.0
100
AcDbCircle
 10
271.8239931919032
 20
158.4204290547853
 30
0.0
 40
32.99998828037068
100
AcDbArc
 50
233.9536635645488
 51
254.3195141205757
  0
ARC
  5
4FA
330
1A
100
AcDbEntity
  8
SEIHIN
  6
CONTINUOUS
 62
     3
 48
5.0
100
AcDbCircle
 10
271.8239899011452
 20
158.4204306501438
 30
0.0
 40
34.00001189145251
100
AcDbArc
 50
233.9537813543719
 51
254.3194830061572
  0
ARC
  5
4FB
330
1A
100
AcDbEntity
  8
SEIHIN
  6
CONTINUOUS
 62
     3
 48
5.0
100
AcDbCircle
 10
261.8239178906769
 20
122.797452436318
 30
0.0
 40
3.999984276242003
100
AcDbArc
 50
0.0002971614341018
 51
74.31953910419188
  0
ARC
  5
4FC
330
1A
100
AcDbEntity
  8
SEIHIN
  6
CONTINUOUS
 62
     3
 48
5.0
100
AcDbCircle
 10
261.8239293729452
 20
122.7974372870453
 30
0.0
 40
2.999972794134699
100
AcDbArc
 50
0.0006855496981083
 51
74.32025814544757
  0
ARC
  5
4FD
330
1A
100
AcDbEntity
  8
SEIHIN
  6
CONTINUOUS
 62
     3
 48
5.0
100
AcDbCircle
 10
281.8238864430533
 20
122.797452436318
 30
0.0
 40
3.999984276241949
100
AcDbArc
 50
105.6804608958097
 51
179.9997028385675
  0
ARC
  5
4FE
330
1A
100
AcDbEntity
  8
SEIHIN
  6
CONTINUOUS
 62
     3
 48
5.0
100
AcDbCircle
 10
281.823874960785
 20
122.7974372870454
 30
0.0
 40
2.999972794134695
100
AcDbArc
 50
105.6797418545525
 51
179.9993144503019
  0
ARC
  5
4FF
330
1A
100
AcDbEntity
  8
SEIHIN
  6
CONTINUOUS
 62
     3
 48
5.0
100
AcDbCircle
 10
271.823902166865
 20
128.4204731820182
 30
0.0
 40
1.000039449221876
100
AcDbArc
 50
179.0431537514014
 51
0.956846248598612
  0
LINE
  5
500
330
1A
100
AcDbEntity
  8
SEIHIN
  6
CONTINUOUS
 62
     3
 48
5.0
100
AcDbLine
 10
264.823902166865
 20
116.4205731820181
 30
0.0
 11
278.823902166865
 21
116.4205731820181
 31
0.0
  0
LINE
  5
501
330
1A
100
AcDbEntity
  8
SEIHIN
  6
CONTINUOUS
 62
     3
 48
5.0
100
AcDbLine
 10
277.823902166865
 20
116.4205731820181
 30
0.0
 11
277.823902166865
 21
122.7974731820181
 31
0.0
  0
LINE
  5
502
330
1A
100
AcDbEntity
  8
SEIHIN
  6
CONTINUOUS
 62
     3
 48
5.0
100
AcDbLine
 10
278.823902166865
 20
116.4205731820181
 30
0.0
 11
278.823902166865
 21
122.7974731820181
 31
0.0
  0
LINE
  5
503
330
1A
100
AcDbEntity
  8
SEIHIN
  6
CONTINUOUS
 62
     3
 48
5.0
100
AcDbLine
 10
265.823902166865
 20
116.4205731820181
 30
0.0
 11
265.823902166865
 21
122.7974731820181
 31
0.0
  0
LINE
  5
504
330
1A
100
AcDbEntity
  8
SEIHIN
  6
CONTINUOUS
 62
     3
 48
5.0
100
AcDbLine
 10
264.823902166865
 20
116.4205731820181
 30
0.0
 11
264.823902166865
 21
122.7974731820181
 31
0.0
  0
ARC
  5
505
330
1A
100
AcDbEntity
  8
SEIHIN
  6
CONTINUOUS
 62
     3
 48
5.0
100
AcDbCircle
 10
245.8239029385703
 20
136.420590998579
 30
0.0
 40
3.000017816561054
100
AcDbArc
 50
85.03967509317988
 51
269.9999852616031
  0
ARC
  5
506
330
1A
100
AcDbEntity
  8
SEIHIN
  6
CONTINUOUS
 62
     3
 48
5.0
100
AcDbCircle
 10
245.8238890829857
 20
136.4205959979501
 30
0.0
 40
3.300017459728334
100
AcDbArc
 50
97.27149521603649
 51
322.3926995915996
  0
ARC
  5
507
330
1A
100
AcDbEntity
  8
SEIHIN
  6
CONTINUOUS
 62
     3
 48
5.0
100
AcDbCircle
 10
245.8238846747531
 20
136.420581221852
 30
0.0
 40
6.299982507893
100
AcDbArc
 50
180.0000731190212
 51
310.6305666822373
  0
ARC
  5
508
330
1A
100
AcDbEntity
  8
SEIHIN
  6
CONTINUOUS
 62
     3
 48
5.0
100
AcDbCircle
 10
245.8238877247132
 20
136.4205798201399
 30
0.0
 40
7.299985557851063
100
AcDbArc
 50
180.0000521009762
 51
310.6296956503592
  0
ARC
  5
509
330
1A
100
AcDbEntity
  8
SEIHIN
  6
CONTINUOUS
 62
     3
 48
5.0
100
AcDbCircle
 10
245.8238483186507
 20
136.4205444650766
 30
0.0
 40
2.999971283541721
100
AcDbArc
 50
270.0010284349825
 51
326.1425129467369
  0
ARC
  5
50A
330
1A
100
AcDbEntity
  8
SEIHIN
  6
CONTINUOUS
 62
     3
 48
5.0
100
AcDbCircle
 10
251.0523866687256
 20
132.3928713067203
 30
0.0
 40
3.300043063354758
100
AcDbArc
 50
51.40697626332428
 51
142.3913093391848
  0
ARC
  5
50B
330
1A
100
AcDbEntity
  8
SEIHIN
  6
CONTINUOUS
 62
     3
 48
5.0
100
AcDbCircle
 10
244.5782009918179
 20
137.2563077934816
 30
0.0
 40
4.500044480377723
100
AcDbArc
 50
326.1436029468851
 51
37.74453165839754
  0
LINE
  5
50C
330
1A
100
AcDbEntity
  8
SEIHIN
  6
CONTINUOUS
 62
     3
 48
5.0
100
AcDbLine
 10
257.823902166865
 20
131.887473182018
 30
0.0
 11
257.823902166865
 21
131.3834731820181
 31
0.0
  0
ARC
  5
50D
330
1A
100
AcDbEntity
  8
SEIHIN
  6
CONTINUOUS
 62
     3
 48
5.0
100
AcDbCircle
 10
251.2286834922136
 20
130.1214764367621
 30
0.0
 40
1.999976018987851
100
AcDbArc
 50
53.95528902156104
 51
130.6320225007137
  0
ARC
  5
50E
330
1A
100
AcDbEntity
  8
SEIHIN
  6
CONTINUOUS
 62
     3
 48
5.0
100
AcDbCircle
 10
251.2286077439672
 20
130.1214734051318
 30
0.0
 40
0.9999987875029436
100
AcDbArc
 50
53.94970891253973
 51
130.6326186193247
  0
ARC
  5
50F
330
1A
100
AcDbEntity
  8
SEIHIN
  6
CONTINUOUS
 62
     3
 48
5.0
100
AcDbCircle
 10
271.8277265935602
 20
158.4150446898222
 30
0.0
 40
32.99998069950273
100
AcDbArc
 50
214.8810949397436
 51
215.4259989327297
  0
LINE
  5
510
330
1A
100
AcDbEntity
  8
SEIHIN
  6
CONTINUOUS
 62
     3
 48
5.0
100
AcDbLine
 10
243.437202166865
 20
138.699573182018
 30
0.0
 11
243.437202166865
 21
138.238273182018
 31
0.0
  0
LINE
  5
511
330
1A
100
AcDbEntity
  8
SEIHIN
  6
CONTINUOUS
 62
     3
 48
5.0
100
AcDbLine
 10
238.5239021668651
 20
136.420573182018
 30
0.0
 11
238.5239021668651
 21
136.920573182018
 31
0.0
  0
LINE
  5
512
330
1A
100
AcDbEntity
  8
SEIHIN
  6
CONTINUOUS
 62
     3
 48
5.0
100
AcDbLine
 10
239.5239021668651
 20
136.420573182018
 30
0.0
 11
239.5239021668651
 21
139.566373182018
 31
0.0
  0
LINE
  5
513
330
1A
100
AcDbEntity
  8
SEIHIN
  6
CONTINUOUS
 62
     3
 48
5.0
100
AcDbLine
 10
132.9050035000882
 20
191.4206731820182
 30
0.0
 11
132.9050035000881
 21
140.9086731820182
 31
0.0
  0
LINE
  5
514
330
1A
100
AcDbEntity
  8
SEIHIN
  6
CONTINUOUS
 62
     3
 48
5.0
100
AcDbLine
 10
119.9050035000883
 20
191.4206731820182
 30
0.0
 11
119.9050035000883
 21
140.9086731820182
 31
0.0
  0
LINE
  5
515
330
1A
100
AcDbEntity
  8
SEIHIN
  6
CONTINUOUS
 62
     3
 48
5.0
100
AcDbLine
 10
135.4050035000882
 20
190.4206731820182
 30
0.0
 11
135.4050035000881
 21
116.4206731820182
 31
0.0
  0
LINE
  5
516
330
1A
100
AcDbEntity
  8
SEIHIN
  6
CONTINUOUS
 62
     3
 48
5.0
100
AcDbLine
 10
117.4050035000883
 20
190.4206731820182
 30
0.0
 11
117.4050035000883
 21
116.4206731820182
 31
0.0
  0
DIMENSION
  5
517
330
1A
100
AcDbEntity
  8
SUNPOU
  6
CONTINUOUS
 48
5.0
100
AcDbDimension
  2
*D5
 10
117.4050035000883
 20
217.0306879527342
 30
0.0
 11
130.6955597390144
 21
220.6185997644415
 31
0.0
 70
   160
  3
STANDARD
100
AcDbAlignedDimension
 13
135.4050035000882
 23
190.4206731820182
 33
0.0
 14
117.4050035000883
 24
190.4206731820182
 34
0.0
100
AcDbRotatedDimension
1001
ACAD
1000
DSTYLE
1002
{
1070
   287
1070
     5
1070
   287
1070
     5
1070
   287
1070
     5
1070
   287
1070
     5
1070
    41
1040
3.0
1070
    42
1040
3.0
1070
    43
1040
7.0
1070
    44
1040
1.5
1070
    73
1070
     0
1070
    74
1070
     0
1070
    77
1070
     3
1070
   140
1040
3.0
1070
   141
1040
150.0
1070
   147
1040
1.0
1070
   172
1070
     1
1070
   173
1070
     1
1070
   176
1070
     4
1070
   177
1070
     4
1070
   178
1070
     4
1070
   271
1070
     0
1070
   272
1070
     2
1070
   279
1070
     2
1070
   288
1070
     1
1070
     6
1000
OPEN
1070
     7
1000
OPEN
1002
}
  0
LINE
  5
518
330
1A
100
AcDbEntity
  8
SEIHIN
  6
CONTINUOUS
 62
     3
 48
5.0
100
AcDbLine
 10
132.9050035000882
 20
191.4206731820182
 30
0.0
 11
126.4050035000883
 21
191.4206731820182
 31
0.0
  0
LINE
  5
519
330
1A
100
AcDbEntity
  8
SEIHIN
  6
CONTINUOUS
 62
     3
 48
5.0
100
AcDbLine
 10
119.9050035000883
 20
191.4206731820182
 30
0.0
 11
126.4050035000883
 21
191.4206731820182
 31
0.0
  0
LINE
  5
51A
330
1A
100
AcDbEntity
  8
SEIHIN
  6
CONTINUOUS
 62
     3
 48
5.0
100
AcDbLine
 10
117.4050035000883
 20
190.4206731820182
 30
0.0
 11
119.9050035000883
 21
191.4206731820182
 31
0.0
  0
LINE
  5
51B
330
1A
100
AcDbEntity
  8
SEIHIN
  6
CONTINUOUS
 62
     3
 48
5.0
100
AcDbLine
 10
135.4050035000882
 20
190.4206731820182
 30
0.0
 11
132.9050035000882
 21
191.4206731820182
 31
0.0
  0
LINE
  5
51C
330
1A
100
AcDbEntity
  8
SEIHIN
  6
CONTINUOUS
 62
     3
 48
5.0
100
AcDbLine
 10
128.4051035000883
 20
141.5921731820183
 30
0.0
 11
126.4051035000883
 21
141.5921731820183
 31
0.0
  0
LINE
  5
51D
330
1A
100
AcDbEntity
  8
SEIHIN
  6
CONTINUOUS
 62
     3
 48
5.0
100
AcDbLine
 10
117.4050035000883
 20
140.9085731820182
 30
0.0
 11
135.4050035000881
 21
140.9085731820182
 31
0.0
  0
LINE
  5
51E
330
1A
100
AcDbEntity
  8
SEIHIN
  6
CONTINUOUS
 62
     3
 48
5.0
100
AcDbLine
 10
124.4049035000883
 20
141.5921731820183
 30
0.0
 11
126.4049035000883
 21
141.5921731820183
 31
0.0
  0
LINE
  5
51F
330
1A
100
AcDbEntity
  8
SEIHIN
  6
CONTINUOUS
 62
     3
 48
5.0
100
AcDbLine
 10
124.4050035000882
 20
141.5921731820183
 30
0.0
 11
124.4050035000882
 21
140.9086731820182
 31
0.0
  0
LINE
  5
520
330
1A
100
AcDbEntity
  8
SEIHIN
  6
CONTINUOUS
 62
     3
 48
5.0
100
AcDbLine
 10
128.4050035000881
 20
141.5921731820183
 30
0.0
 11
128.4050035000881
 21
140.9086731820182
 31
0.0
  0
LINE
  5
521
330
1A
100
AcDbEntity
  8
SEIHIN
  6
CONTINUOUS
 62
     3
 48
5.0
100
AcDbLine
 10
119.9050035000883
 20
136.9205731820184
 30
0.0
 11
119.9050035000883
 21
116.4206731820182
 31
0.0
  0
LINE
  5
522
330
1A
100
AcDbEntity
  8
SEIHIN
  6
CONTINUOUS
 62
     3
 48
5.0
100
AcDbLine
 10
132.9050035000881
 20
136.9205731820184
 30
0.0
 11
132.9050035000881
 21
116.4206731820182
 31
0.0
  0
LINE
  5
523
330
1A
100
AcDbEntity
  8
SEIHIN
  6
CONTINUOUS
 62
     3
 48
5.0
100
AcDbLine
 10
132.9050035000881
 20
129.1209731820182
 30
0.0
 11
126.4050035000882
 21
129.1209731820182
 31
0.0
  0
LINE
  5
524
330
1A
100
AcDbEntity
  8
SEIHIN
  6
CONTINUOUS
 62
     3
 48
5.0
100
AcDbLine
 10
119.9050035000883
 20
136.9205731820184
 30
0.0
 11
117.4050035000883
 21
139.4529731820184
 31
0.0
  0
LINE
  5
525
330
1A
100
AcDbEntity
  8
SEIHIN
  6
CONTINUOUS
 62
     3
 48
5.0
100
AcDbLine
 10
119.9050035000883
 20
129.1209731820182
 30
0.0
 11
126.4050035000882
 21
129.1209731820182
 31
0.0
  0
LINE
  5
526
330
1A
100
AcDbEntity
  8
SEIHIN
  6
CONTINUOUS
 62
     3
 48
5.0
100
AcDbLine
 10
117.4050035000883
 20
130.1209731820184
 30
0.0
 11
119.9050035000883
 21
129.1209731820182
 31
0.0
  0
LINE
  5
527
330
1A
100
AcDbEntity
  8
SEIHIN
  6
CONTINUOUS
 62
     3
 48
5.0
100
AcDbLine
 10
132.9050035000881
 20
136.9205731820184
 30
0.0
 11
135.4050035000881
 21
139.4529731820184
 31
0.0
  0
LINE
  5
528
330
1A
100
AcDbEntity
  8
SEIHIN
  6
CONTINUOUS
 62
     3
 48
5.0
100
AcDbLine
 10
135.4050035000881
 20
130.1209731820184
 30
0.0
 11
132.9050035000881
 21
129.1209731820182
 31
0.0
  0
LINE
  5
529
330
1A
100
AcDbEntity
  8
SEIHIN
  6
CONTINUOUS
 62
     3
 48
5.0
100
AcDbLine
 10
117.4050035000883
 20
116.4206731820182
 30
0.0
 11
135.4050035000881
 21
116.4206731820182
 31
0.0
  0
DIMENSION
  5
56F
330
1A
100
AcDbEntity
  8
SUNPOU
 48
5.0
100
AcDbDimension
  2
*D6
 10
245.0183352992727
 20
171.8912946009429
 30
0.0
 11
286.3274917927765
 21
154.436500875219
 31
0.0
 70
   163
  3
STANDARD
100
AcDbDiametricDimension
 15
298.6294679649935
 25
144.9496578143905
 35
0.0
 40
0.0
1001
ACAD
1000
DSTYLE
1002
{
1070
   287
1070
     5
1070
   287
1070
     5
1070
   287
1070
     5
1070
   287
1070
     5
1070
    41
1040
3.0
1070
    42
1040
3.0
1070
    43
1040
7.0
1070
    44
1040
1.5
1070
    73
1070
     0
1070
    74
1070
     0
1070
    77
1070
     3
1070
   140
1040
3.0
1070
   141
1040
150.0
1070
   147
1040
1.0
1070
   172
1070
     1
1070
   173
1070
     1
1070
   176
1070
     4
1070
   177
1070
     4
1070
   178
1070
     4
1070
   271
1070
     0
1070
   272
1070
     2
1070
   279
1070
     2
1070
   288
1070
     1
1070
   341
1005
B2
1070
     6
1000
OPEN
1070
     7
1000
OPEN
1002
}
  0
DIMENSION
  5
578
330
1A
100
AcDbEntity
  8
SUNPOU
 48
5.0
100
AcDbDimension
  2
*D7
 10
218.8628775940253
 20
116.4205731820181
 30
0.0
 11
216.3628775940253
 21
153.9205335062262
 31
0.0
 70
    32
  3
STANDARD
100
AcDbAlignedDimension
 13
271.8238936446795
 23
191.4204938304342
 33
0.0
 14
251.823902166865
 24
116.4205731820181
 34
0.0
 50
90.0
100
AcDbRotatedDimension
1001
ACAD
1000
DSTYLE
1002
{
1070
    41
1040
3.0
1070
    42
1040
3.0
1070
    43
1040
7.0
1070
    44
1040
1.5
1070
    73
1070
     0
1070
    74
1070
     0
1070
    77
1070
     3
1070
   140
1040
3.0
1070
   141
1040
150.0
1070
   147
1040
1.0
1070
   172
1070
     1
1070
   173
1070
     1
1070
   176
1070
     4
1070
   177
1070
     4
1070
   178
1070
     4
1070
   271
1070
     0
1070
   272
1070
     2
1070
   341
1005
B2
1070
     6
1000
OPEN
1070
     7
1000
OPEN
1002
}
  0
DIMENSION
  5
585
330
1A
100
AcDbEntity
  8
SUNPOU
 48
5.0
100
AcDbDimension
  2
*D8
 10
218.8628775940253
 20
105.4206731820182
 30
0.0
 11
216.3628775940253
 21
110.9206231820182
 31
0.0
 70
    32
  3
STANDARD
100
AcDbAlignedDimension
 13
251.823902166865
 23
116.4205731820181
 33
0.0
 14
251.823902166865
 24
105.4206731820182
 34
0.0
 50
90.0
100
AcDbRotatedDimension
1001
ACAD
1000
DSTYLE
1002
{
1070
   287
1070
     4
1070
   287
1070
     4
1070
   287
1070
     4
1070
   287
1070
     4
1070
   287
1070
     4
1070
   279
1070
     1
1070
    41
1040
3.0
1070
    42
1040
3.0
1070
    43
1040
7.0
1070
    44
1040
1.5
1070
    73
1070
     0
1070
    74
1070
     0
1070
    77
1070
     3
1070
   140
1040
3.0
1070
   141
1040
150.0
1070
   147
1040
1.0
1070
   172
1070
     1
1070
   173
1070
     1
1070
   176
1070
     4
1070
   177
1070
     4
1070
   178
1070
     4
1070
   271
1070
     0
1070
   272
1070
     2
1070
   341
1005
B2
1070
     6
1000
OPEN
1070
     7
1000
OPEN
1002
}
  0
DIMENSION
  5
592
330
1A
100
AcDbEntity
  8
SUNPOU
 48
5.0
100
AcDbDimension
  2
*D9
 10
210.9484792244475
 20
105.4206731820182
 30
0.0
 11
208.4484792244474
 21
148.4205835062263
 31
0.0
 70
    32
  3
STANDARD
100
AcDbAlignedDimension
 13
271.8238936446795
 23
191.4204938304342
 33
0.0
 14
251.823902166865
 24
105.4206731820182
 34
0.0
 50
90.0
100
AcDbRotatedDimension
1001
ACAD
1000
DSTYLE
1002
{
1070
    41
1040
3.0
1070
    42
1040
3.0
1070
    43
1040
7.0
1070
    44
1040
1.5
1070
    73
1070
     0
1070
    74
1070
     0
1070
    77
1070
     3
1070
   140
1040
3.0
1070
   141
1040
150.0
1070
   147
1040
1.0
1070
   172
1070
     1
1070
   173
1070
     1
1070
   176
1070
     4
1070
   177
1070
     4
1070
   178
1070
     4
1070
   271
1070
     0
1070
   272
1070
     2
1070
   341
1005
B2
1070
     6
1000
OPEN
1070
     7
1000
OPEN
1002
}
  0
DIMENSION
  5
59F
330
1A
100
AcDbEntity
  8
SUNPOU
 48
5.0
100
AcDbDimension
  2
*D10
 10
173.4098592901914
 20
106.4207731820181
 30
0.0
 11
170.9098592901914
 21
110.9207731820182
 31
0.0
 70
    32
  3
STANDARD
100
AcDbAlignedDimension
 13
146.4050035000882
 23
115.4207731820181
 33
0.0
 14
146.4050035000882
 24
106.4207731820181
 34
0.0
 50
90.0
100
AcDbRotatedDimension
1001
ACAD
1000
DSTYLE
1002
{
1070
    41
1040
3.0
1070
    42
1040
3.0
1070
    43
1040
7.0
1070
    44
1040
1.5
1070
    73
1070
     0
1070
    74
1070
     0
1070
    77
1070
     3
1070
   140
1040
3.0
1070
   141
1040
150.0
1070
   147
1040
1.0
1070
   172
1070
     1
1070
   173
1070
     1
1070
   176
1070
     4
1070
   177
1070
     4
1070
   178
1070
     4
1070
   271
1070
     0
1070
   272
1070
     2
1070
   341
1005
B2
1070
     6
1000
OPEN
1070
     7
1000
OPEN
1002
}
  0
TEXT
  5
5B1
330
1A
100
AcDbEntity
  8
ZUWAKU
 48
5.0
100
AcDbText
 10
327.3557533351683
 20
7.934661405801662
 30
0.0
 40
4.0
  1
LJ67
100
AcDbText
  0
DIMENSION
  5
638
330
1A
100
AcDbEntity
  8
SUNPOU
 48
5.0
100
AcDbDimension
  2
*D11
 10
183.3449408008298
 20
105.4206731820181
 30
0.0
 11
180.8449408008297
 21
110.9207231820182
 31
0.0
 70
    32
  3
STANDARD
100
AcDbAlignedDimension
 13
146.4050035000882
 23
116.4207731820182
 33
0.0
 14
146.4050035000882
 24
105.4206731820182
 34
0.0
 50
90.0
100
AcDbRotatedDimension
1001
ACAD
1000
DSTYLE
1002
{
1070
    41
1040
3.0
1070
    42
1040
3.0
1070
    43
1040
7.0
1070
    44
1040
1.5
1070
    73
1070
     0
1070
    74
1070
     0
1070
    77
1070
     3
1070
   140
1040
3.0
1070
   141
1040
150.0
1070
   147
1040
1.0
1070
   172
1070
     1
1070
   173
1070
     1
1070
   176
1070
     4
1070
   177
1070
     4
1070
   178
1070
     4
1070
   271
1070
     0
1070
   272
1070
     2
1070
   341
1005
B2
1070
     6
1000
OPEN
1070
     7
1000
OPEN
1002
}
  0
DIMENSION
  5
650
330
1A
100
AcDbEntity
  8
SUNPOU
 48
5.0
100
AcDbDimension
  2
*D12
 10
101.5807795000882
 20
227.6319894820464
 30
0.0
 11
113.9928915000882
 21
230.1319894820465
 31
0.0
 70
    32
  3
STANDARD
100
AcDbAlignedDimension
 13
126.4050035000882
 23
196.8889837993446
 33
0.0
 14
101.5807795000881
 24
110.9206731820182
 34
0.0
100
AcDbRotatedDimension
1001
ACAD
1000
DSTYLE
1002
{
1070
    41
1040
3.0
1070
    42
1040
3.0
1070
    43
1040
7.0
1070
    44
1040
1.5
1070
    73
1070
     0
1070
    74
1070
     0
1070
    77
1070
     3
1070
   140
1040
3.0
1070
   141
1040
150.0
1070
   147
1040
1.0
1070
   172
1070
     1
1070
   173
1070
     1
1070
   176
1070
     4
1070
   177
1070
     4
1070
   178
1070
     4
1070
   271
1070
     0
1070
   272
1070
     2
1070
   341
1005
B2
1070
     6
1000
OPEN
1070
     7
1000
OPEN
1002
}
  0
VIEWPORT
  5
22
330
17
100
AcDbEntity
 67
     1
  8
0
100
AcDbViewport
 10
313.6808219178082
 20
148.5
 30
0.0
 40
627.3616438356165
 41
297.0
 68
     2
 69
     1
1001
ACAD
1000
MVIEW
1002
{
1070
    16
1010
0.0
1020
0.0
1030
0.0
1010
0.0
1020
0.0
1030
1.0
1040
0.0
1040
297.0
1040
313.6808219178082
1040
148.5
1040
50.0
1040
0.0
1040
0.0
1070
     0
1070
   100
1070
     1
1070
     0
1070
     0
1070
     0
1070
     0
1070
     0
1040
0.0
1040
0.0
1040
0.0
1040
1.0
1040
1.0
1040
10.0
1040
10.0
1070
     0
1002
{
1002
}
1002
}
  0
VIEWPORT
  5
64
330
17
100
AcDbEntity
 67
     1
  8
VIEWPORT
100
AcDbViewport
 10
210.0
 20
148.5
 30
0.0
 40
420.0
 41
297.0
 68
     1
 69
     2
1001
ACAD
1000
MVIEW
1002
{
1070
    16
1010
0.0
1020
0.0
1030
0.0
1010
0.0
1020
0.0
1030
1.0
1040
0.0
1040
302.9399999999998
1040
210.0
1040
148.5
1040
50.0
1040
0.0
1040
0.0
1070
     0
1070
   100
1070
     1
1070
     0
1070
     0
1070
     0
1070
     0
1070
     0
1040
0.0
1040
0.0
1040
0.0
1040
5.0
1040
5.0
1040
0.0
1040
0.0
1070
     0
1002
{
1002
}
1002
}
  0
ENDSEC
  0
SECTION
  2
OBJECTS
  0
DICTIONARY
  5
C
330
0
100
AcDbDictionary
  3
ACAD_GROUP
350
D
  3
ACAD_LAYOUT
350
45E
  3
ACAD_MLINESTYLE
350
E
  3
ACAD_PLOTSETTINGS
350
45F
1001
ACAD
1000
TREAT_AS_HARD
1070
     0
  0
DICTIONARY
  5
5D8
330
1A
100
AcDbDictionary
  3
ACAD_LAYOUTSELFREF
350
800
1001
ACAD
1000
TREAT_AS_HARD
1070
     1
  0
DICTIONARY
  5
5D6
330
17
100
AcDbDictionary
  3
ACAD_LAYOUTSELFREF
350
7FF
1001
ACAD
1000
TREAT_AS_HARD
1070
     1
  0
DICTIONARY
  5
D
102
{ACAD_REACTORS
330
C
102
}
330
C
100
AcDbDictionary
1001
ACAD
1000
TREAT_AS_HARD
1070
     0
  0
DICTIONARY
  5
45E
102
{ACAD_REACTORS
330
C
102
}
330
C
100
AcDbDictionary
1001
ACAD
1000
TREAT_AS_HARD
1070
     0
  0
DICTIONARY
  5
E
102
{ACAD_REACTORS
330
C
102
}
330
C
100
AcDbDictionary
  3
STANDARD
350
13
1001
ACAD
1000
TREAT_AS_HARD
1070
     0
  0
DICTIONARY
  5
45F
102
{ACAD_REACTORS
330
C
102
}
330
C
100
AcDbDictionary
1001
ACAD
1000
TREAT_AS_HARD
1070
     0
  0
XRECORD
  5
800
102
{ACAD_REACTORS
330
5D8
102
}
330
5D8
100
AcDbXrecord
340
1A
  0
XRECORD
  5
7FF
102
{ACAD_REACTORS
330
5D6
102
}
330
5D6
100
AcDbXrecord
340
17
  0
MLINESTYLE
  5
13
102
{ACAD_REACTORS
330
E
102
}
330
E
100
AcDbMlineStyle
  2
STANDARD
 70
     0
  3

 62
     0
 51
90.0
 52
90.0
 71
     2
 49
0.5
 62
   256
  6
BYLAYER
 49
-0.5
 62
   256
  6
BYLAYER
  0
ENDSEC
  0
EOF
