  0
SECTION
  2
HEADER
  9
$ACADVER
  1
AC1012
  9
$DWGCODEPAGE
  3
dos932
  9
$INSBASE
 10
0.0
 20
0.0
 30
0.0
  9
$EXTMIN
 10
4.985962897755712
 20
2.438141563486055
 30
-0.0000000000000053
  9
$EXTMAX
 10
403.0297861143829
 20
282.0086066310859
 30
0.0000000000000099
  9
$LIMMIN
 10
0.0
 20
0.0
  9
$LIMMAX
 10
420.0
 20
297.0
  9
$ORTHOMODE
 70
     1
  9
$REGENMODE
 70
     1
  9
$FILLMODE
 70
     1
  9
$QTEXTMODE
 70
     0
  9
$MIRRTEXT
 70
     1
  9
$DRAGMODE
 70
     2
  9
$LTSCALE
 40
1.0
  9
$OSMODE
 70
    63
  9
$ATTMODE
 70
     1
  9
$TEXTSIZE
 40
2.5
  9
$TRACEWID
 40
1.0
  9
$TEXTSTYLE
  7
STYLE1
  9
$CLAYER
  8
SUNPOU
  9
$CELTYPE
  6
BYLAYER
  9
$CECOLOR
 62
   256
  9
$CELTSCALE
 40
5.0
  9
$DELOBJ
 70
     1
  9
$DISPSILH
 70
     0
  9
$DIMSCALE
 40
1.0
  9
$DIMASZ
 40
3.0
  9
$DIMEXO
 40
3.0
  9
$DIMDLI
 40
7.0
  9
$DIMRND
 40
0.0
  9
$DIMDLE
 40
0.0
  9
$DIMEXE
 40
1.5
  9
$DIMTP
 40
0.0
  9
$DIMTM
 40
0.0
  9
$DIMTXT
 40
3.0
  9
$DIMCEN
 40
150.0
  9
$DIMTSZ
 40
0.0
  9
$DIMTOL
 70
     0
  9
$DIMLIM
 70
     0
  9
$DIMTIH
 70
     0
  9
$DIMTOH
 70
     0
  9
$DIMSE1
 70
     0
  9
$DIMSE2
 70
     0
  9
$DIMTAD
 70
     3
  9
$DIMZIN
 70
     0
  9
$DIMBLK
  1

  9
$DIMASO
 70
     1
  9
$DIMSHO
 70
     1
  9
$DIMPOST
  1

  9
$DIMAPOST
  1

  9
$DIMALT
 70
     0
  9
$DIMALTD
 70
     2
  9
$DIMALTF
 40
25.4
  9
$DIMLFAC
 40
1.0
  9
$DIMTOFL
 70
     1
  9
$DIMTVP
 40
0.0
  9
$DIMTIX
 70
     0
  9
$DIMSOXD
 70
     0
  9
$DIMSAH
 70
     1
  9
$DIMBLK1
  1
OPEN
  9
$DIMBLK2
  1
OPEN
  9
$DIMSTYLE
  2
STANDARD
  9
$DIMCLRD
 70
   256
  9
$DIMCLRE
 70
   256
  9
$DIMCLRT
 70
   256
  9
$DIMTFAC
 40
1.0
  9
$DIMGAP
 40
1.0
  9
$DIMJUST
 70
     0
  9
$DIMSD1
 70
     0
  9
$DIMSD2
 70
     0
  9
$DIMTOLJ
 70
     1
  9
$DIMTZIN
 70
     0
  9
$DIMALTZ
 70
     0
  9
$DIMALTTZ
 70
     0
  9
$DIMFIT
 70
     3
  9
$DIMUPT
 70
     0
  9
$DIMUNIT
 70
     2
  9
$DIMDEC
 70
     0
  9
$DIMTDEC
 70
     0
  9
$DIMALTU
 70
     2
  9
$DIMALTTD
 70
     2
  9
$DIMTXSTY
  7
STANDARD
  9
$DIMAUNIT
 70
     0
  9
$LUNITS
 70
     2
  9
$LUPREC
 70
     4
  9
$SKETCHINC
 40
1.0
  9
$FILLETRAD
 40
10.0
  9
$AUNITS
 70
     0
  9
$AUPREC
 70
     0
  9
$MENU
  1
.
  9
$ELEVATION
 40
0.0
  9
$PELEVATION
 40
0.0
  9
$THICKNESS
 40
0.0
  9
$LIMCHECK
 70
     0
  9
$BLIPMODE
 70
     0
  9
$CHAMFERA
 40
10.0
  9
$CHAMFERB
 40
10.0
  9
$CHAMFERC
 40
20.0
  9
$CHAMFERD
 40
0.0
  9
$SKPOLY
 70
     0
  9
$TDCREATE
 40
2451019.400252777
  9
$TDUPDATE
 40
2453710.405762071
  9
$TDINDWG
 40
0.0769140741
  9
$TDUSRTIMER
 40
0.0769140741
  9
$USRTIMER
 70
     1
  9
$ANGBASE
 50
0.0
  9
$ANGDIR
 70
     0
  9
$PDMODE
 70
     0
  9
$PDSIZE
 40
0.0
  9
$PLINEWID
 40
0.0
  9
$COORDS
 70
     1
  9
$SPLFRAME
 70
     0
  9
$SPLINETYPE
 70
     6
  9
$SPLINESEGS
 70
     8
  9
$ATTDIA
 70
     0
  9
$ATTREQ
 70
     1
  9
$HANDLING
 70
 10241
  9
$HANDSEED
  5
92E
  9
$SURFTAB1
 70
     6
  9
$SURFTAB2
 70
     6
  9
$SURFTYPE
 70
     6
  9
$SURFU
 70
     6
  9
$SURFV
 70
     6
  9
$UCSNAME
  2

  9
$UCSORG
 10
0.0
 20
0.0
 30
0.0
  9
$UCSXDIR
 10
1.0
 20
0.0
 30
0.0
  9
$UCSYDIR
 10
0.0
 20
1.0
 30
0.0
  9
$PUCSNAME
  2

  9
$PUCSORG
 10
0.0
 20
0.0
 30
0.0
  9
$PUCSXDIR
 10
1.0
 20
0.0
 30
0.0
  9
$PUCSYDIR
 10
0.0
 20
1.0
 30
0.0
  9
$USERI1
 70
     0
  9
$USERI2
 70
     0
  9
$USERI3
 70
     0
  9
$USERI4
 70
     0
  9
$USERI5
 70
     0
  9
$USERR1
 40
0.0
  9
$USERR2
 40
0.0
  9
$USERR3
 40
0.0
  9
$USERR4
 40
0.0
  9
$USERR5
 40
0.0
  9
$WORLDVIEW
 70
     1
  9
$SHADEDGE
 70
     3
  9
$SHADEDIF
 70
    70
  9
$TILEMODE
 70
     1
  9
$MAXACTVP
 70
    16
  9
$PINSBASE
 10
0.0
 20
0.0
 30
0.0
  9
$PLIMCHECK
 70
     0
  9
$PEXTMIN
 10
0.0
 20
0.0
 30
0.0
  9
$PEXTMAX
 10
420.0
 20
297.0
 30
0.0
  9
$PLIMMIN
 10
0.0
 20
0.0
  9
$PLIMMAX
 10
420.0
 20
297.0
  9
$UNITMODE
 70
     0
  9
$VISRETAIN
 70
     0
  9
$PLINEGEN
 70
     0
  9
$PSLTSCALE
 70
     1
  9
$TREEDEPTH
 70
  3020
  9
$PICKSTYLE
 70
     1
  9
$CMLSTYLE
  2
STANDARD
  9
$CMLJUST
 70
     0
  9
$CMLSCALE
 40
1.0
  9
$SAVEIMAGES
 70
     1
  0
ENDSEC
  0
SECTION
  2
CLASSES
  0
CLASS
  1
ACDBDICTIONARYWDFLT
  2
AcDbDictionaryWithDefault
  3
AutoCAD 2000
 90
    32768
280
     0
281
     0
  0
CLASS
  1
ACDBPLACEHOLDER
  2
AcDbPlaceHolder
  3
AutoCAD 2000
 90
    32768
280
     0
281
     0
  0
CLASS
  1
LAYOUT
  2
AcDbLayout
  3
AutoCAD 2000
 90
    32768
280
     0
281
     0
  0
CLASS
  1
LONG_TRANSACTION
  2
AcDbLongTransaction
  3
AutoCAD 2000
 90
    32768
280
     0
281
     0
  0
CLASS
  1
LWPOLYLINE
  2
AcDbPolyline
  3
AutoCAD 2000
 90
    32768
280
     0
281
     1
  0
CLASS
  1
HATCH
  2
AcDbHatch
  3
AutoCAD 2000
 90
    32768
280
     0
281
     1
  0
CLASS
  1
XRECORD
  2
AcDbXrecord
  3
AutoCAD 2000
 90
    32768
280
     0
281
     0
  0
CLASS
  1
LONG_TRANSACTION
  2
AcDbLongTransaction
  3
AutoCAD 2000
 90
    32768
280
     0
281
     0
  0
CLASS
  1
LWPOLYLINE
  2
AcDbPolyline
  3
AutoCAD 2000
 90
    32768
280
     0
281
     1
  0
CLASS
  1
HATCH
  2
AcDbHatch
  3
AutoCAD 2000
 90
    32768
280
     0
281
     1
  0
CLASS
  1
XRECORD
  2
AcDbXrecord
  3
AutoCAD 2000
 90
    32768
280
     0
281
     0
  0
CLASS
  1
LONG_TRANSACTION
  2
AcDbLongTransaction
  3
AutoCAD 2000
 90
    32768
280
     0
281
     0
  0
CLASS
  1
LWPOLYLINE
  2
AcDbPolyline
  3
AutoCAD 2000
 90
    32768
280
     0
281
     1
  0
CLASS
  1
HATCH
  2
AcDbHatch
  3
AutoCAD 2000
 90
    32768
280
     0
281
     1
  0
CLASS
  1
XRECORD
  2
AcDbXrecord
  3
AutoCAD 2000
 90
    32768
280
     0
281
     0
  0
CLASS
  1
LONG_TRANSACTION
  2
AcDbLongTransaction
  3
AutoCAD 2000
 90
    32768
280
     0
281
     0
  0
CLASS
  1
LWPOLYLINE
  2
AcDbPolyline
  3
AutoCAD 2000
 90
    32768
280
     0
281
     1
  0
CLASS
  1
HATCH
  2
AcDbHatch
  3
AutoCAD 2000
 90
    32768
280
     0
281
     1
  0
CLASS
  1
XRECORD
  2
AcDbXrecord
  3
AutoCAD 2000
 90
    32768
280
     0
281
     0
  0
CLASS
  1
LONG_TRANSACTION
  2
AcDbLongTransaction
  3
AutoCAD 2000
 90
    32768
280
     0
281
     0
  0
CLASS
  1
LWPOLYLINE
  2
AcDbPolyline
  3
AutoCAD 2000
 90
    32768
280
     0
281
     1
  0
CLASS
  1
HATCH
  2
AcDbHatch
  3
AutoCAD 2000
 90
    32768
280
     0
281
     1
  0
CLASS
  1
XRECORD
  2
AcDbXrecord
  3
AutoCAD 2000
 90
    32768
280
     0
281
     0
  0
ENDSEC
  0
SECTION
  2
TABLES
  0
TABLE
  2
VPORT
  5
8
330
0
100
AcDbSymbolTable
 70
     4
  0
VPORT
  5
918
330
8
100
AcDbSymbolTableRecord
100
AcDbViewportTableRecord
  2
*ACTIVE
 70
     0
 10
0.0
 20
0.0
 11
1.0
 21
1.0
 12
212.9874681745517
 22
147.0600265796108
 13
0.0
 23
0.0
 14
5.0
 24
5.0
 15
0.0
 25
0.0
 16
0.0
 26
0.0
 36
1.0
 17
0.0
 27
0.0
 37
0.0
 40
302.7023184794173
 41
1.795454545454545
 42
50.0
 43
0.0
 44
0.0
 50
0.0
 51
0.0
 71
     0
 72
   100
 73
     1
 74
     0
 75
     0
 76
     0
 77
     0
 78
     0
  0
ENDTAB
  0
TABLE
  2
LTYPE
  5
5
330
0
100
AcDbSymbolTable
 70
     2
  0
LTYPE
  5
14
330
5
100
AcDbSymbolTableRecord
100
AcDbLinetypeTableRecord
  2
BYBLOCK
 70
     0
  3

 72
    65
 73
     0
 40
0.0
  0
LTYPE
  5
15
330
5
100
AcDbSymbolTableRecord
100
AcDbLinetypeTableRecord
  2
BYLAYER
 70
     0
  3

 72
    65
 73
     0
 40
0.0
  0
LTYPE
  5
16
330
5
100
AcDbSymbolTableRecord
100
AcDbLinetypeTableRecord
  2
CONTINUOUS
 70
     0
  3
Solid line
 72
    65
 73
     0
 40
0.0
  0
LTYPE
  5
120
330
5
100
AcDbSymbolTableRecord
100
AcDbLinetypeTableRecord
  2
CENTER
 70
     0
  3
____ _ ____ _ ____ _ ____ _ ____ _ ____ _ ____ 
 72
    65
 73
     4
 40
2.0
 49
1.25
 74
     0
 49
-0.25
 74
     0
 49
0.25
 74
     0
 49
-0.25
 74
     0
  0
ENDTAB
  0
TABLE
  2
LAYER
  5
2
330
0
100
AcDbSymbolTable
 70
     7
  0
LAYER
  5
F
330
2
100
AcDbSymbolTableRecord
100
AcDbLayerTableRecord
  2
0
 70
     0
 62
     7
  6
CONTINUOUS
  0
LAYER
  5
62
330
2
100
AcDbSymbolTableRecord
100
AcDbLayerTableRecord
  2
VIEWPORT
 70
     0
 62
     7
  6
CONTINUOUS
  0
LAYER
  5
6B
330
2
100
AcDbSymbolTableRecord
100
AcDbLayerTableRecord
  2
ZUWAKU
 70
     0
 62
     7
  6
CONTINUOUS
  0
LAYER
  5
134
330
2
100
AcDbSymbolTableRecord
100
AcDbLayerTableRecord
  2
SEIHIN
 70
     0
 62
     3
  6
CONTINUOUS
  0
LAYER
  5
188
330
2
100
AcDbSymbolTableRecord
100
AcDbLayerTableRecord
  2
SUNPOU
 70
     0
 62
     4
  6
CONTINUOUS
  0
LAYER
  5
189
330
2
100
AcDbSymbolTableRecord
100
AcDbLayerTableRecord
  2
CENTER_L
 70
     0
 62
     1
  6
CENTER
  0
LAYER
  5
1FA
330
2
100
AcDbSymbolTableRecord
100
AcDbLayerTableRecord
  2
DEFPOINTS
 70
     0
 62
     7
  6
CONTINUOUS
  0
ENDTAB
  0
TABLE
  2
STYLE
  5
3
330
0
100
AcDbSymbolTable
 70
     2
  0
STYLE
  5
10
330
3
100
AcDbSymbolTableRecord
100
AcDbTextStyleTableRecord
  2
STANDARD
 70
     0
 40
0.0
 41
1.0
 50
0.0
 71
     0
 42
2.5
  3
TXT
  4
a:\program files\autocad lt\ms\bigfont.shx
  0
STYLE
  5
34E
330
3
100
AcDbSymbolTableRecord
100
AcDbTextStyleTableRecord
  2
STYLE1
 70
     0
 40
0.0
 41
1.0
 50
0.0
 71
     0
 42
2.5
  3
TXT
  4
a:\program files\autocad lt\ms\bigfont.shx
  0
ENDTAB
  0
TABLE
  2
VIEW
  5
6
330
0
100
AcDbSymbolTable
 70
     0
  0
ENDTAB
  0
TABLE
  2
UCS
  5
7
330
0
100
AcDbSymbolTable
 70
     0
  0
ENDTAB
  0
TABLE
  2
APPID
  5
9
330
0
100
AcDbSymbolTable
 70
     1
  0
APPID
  5
11
330
9
100
AcDbSymbolTableRecord
100
AcDbRegAppTableRecord
  2
ACAD
 70
     0
  0
ENDTAB
  0
TABLE
  2
DIMSTYLE
  5
A
330
0
100
AcDbSymbolTable
 70
     1
  0
DIMSTYLE
105
1D
102
{ACAD_REACTORS
330
1FF
330
21B
330
293
330
2BE
330
36A
330
505
330
242
330
67F
330
6C2
330
6CF
330
6DC
330
68C
330
4FF
102
}
330
A
100
AcDbSymbolTableRecord
100
AcDbDimStyleTableRecord
  2
STANDARD
 70
     0
  3

  4

  5

  6

  7

 40
1.0
 41
0.18
 42
0.0625
 43
0.38
 44
0.18
 45
0.0
 46
0.0
 47
0.0
 48
0.0
140
0.18
141
0.09
142
0.0
143
25.4
144
1.0
145
0.0
146
1.0
147
0.09
 71
     0
 72
     0
 73
     1
 74
     1
 75
     0
 76
     0
 77
     0
 78
     0
170
     0
171
     2
172
     0
173
     0
174
     0
175
     0
176
     0
177
     0
178
     0
270
     2
271
     4
272
     4
273
     2
274
     2
340
10
275
     0
280
     0
281
     0
282
     0
283
     1
284
     0
285
     0
286
     0
287
     3
288
     0
  0
ENDTAB
  0
TABLE
  2
BLOCK_RECORD
  5
1
330
0
100
AcDbSymbolTable
 70
    14
  0
BLOCK_RECORD
  5
1A
102
{ACAD_XDICTIONARY
360
7A4
102
}
330
1
100
AcDbSymbolTableRecord
100
AcDbBlockTableRecord
  2
*MODEL_SPACE
  0
BLOCK_RECORD
  5
17
102
{ACAD_XDICTIONARY
360
7A2
102
}
330
1
100
AcDbSymbolTableRecord
100
AcDbBlockTableRecord
  2
*PAPER_SPACE
  0
BLOCK_RECORD
  5
B2
330
1
100
AcDbSymbolTableRecord
100
AcDbBlockTableRecord
  2
_OPEN
  0
BLOCK_RECORD
  5
1F2
330
1
100
AcDbSymbolTableRecord
100
AcDbBlockTableRecord
  2
*D1
  0
BLOCK_RECORD
  5
20D
330
1
100
AcDbSymbolTableRecord
100
AcDbBlockTableRecord
  2
*D2
  0
BLOCK_RECORD
  5
236
330
1
100
AcDbSymbolTableRecord
100
AcDbBlockTableRecord
  2
*D3
  0
BLOCK_RECORD
  5
287
330
1
100
AcDbSymbolTableRecord
100
AcDbBlockTableRecord
  2
*D4
  0
BLOCK_RECORD
  5
2B2
330
1
100
AcDbSymbolTableRecord
100
AcDbBlockTableRecord
  2
*D5
  0
BLOCK_RECORD
  5
35E
330
1
100
AcDbSymbolTableRecord
100
AcDbBlockTableRecord
  2
*D6
  0
BLOCK_RECORD
  5
595
330
1
100
AcDbSymbolTableRecord
100
AcDbBlockTableRecord
  2
*D7
  0
BLOCK_RECORD
  5
5A1
330
1
100
AcDbSymbolTableRecord
100
AcDbBlockTableRecord
  2
*D8
  0
BLOCK_RECORD
  5
680
330
1
100
AcDbSymbolTableRecord
100
AcDbBlockTableRecord
  2
*D9
  0
BLOCK_RECORD
  5
68D
330
1
100
AcDbSymbolTableRecord
100
AcDbBlockTableRecord
  2
*D10
  0
BLOCK_RECORD
  5
6C3
330
1
100
AcDbSymbolTableRecord
100
AcDbBlockTableRecord
  2
*D11
  0
BLOCK_RECORD
  5
6D0
330
1
100
AcDbSymbolTableRecord
100
AcDbBlockTableRecord
  2
*D12
  0
BLOCK_RECORD
  5
6DD
330
1
100
AcDbSymbolTableRecord
100
AcDbBlockTableRecord
  2
*D13
  0
ENDTAB
  0
ENDSEC
  0
SECTION
  2
BLOCKS
  0
BLOCK
  5
1B
330
1A
100
AcDbEntity
  8
0
100
AcDbBlockBegin
  2
*MODEL_SPACE
 70
     0
 10
0.0
 20
0.0
 30
0.0
  3
*MODEL_SPACE
  1

  0
ENDBLK
  5
1C
330
1A
100
AcDbEntity
  8
0
100
AcDbBlockEnd
  0
BLOCK
  5
18
330
17
100
AcDbEntity
 67
     1
  8
0
100
AcDbBlockBegin
  2
*PAPER_SPACE
 70
     0
 10
0.0
 20
0.0
 30
0.0
  3
*PAPER_SPACE
  1

  0
ENDBLK
  5
19
330
17
100
AcDbEntity
 67
     1
  8
0
100
AcDbBlockEnd
  0
BLOCK
  5
B3
330
B2
100
AcDbEntity
  8
0
100
AcDbBlockBegin
  2
_OPEN
 70
     0
 10
0.0
 20
0.0
 30
0.0
  3
_OPEN
  1

  0
LINE
  5
B4
330
B2
100
AcDbEntity
  8
0
  6
BYBLOCK
 62
     0
100
AcDbLine
 10
-1.0
 20
0.1666666666666666
 30
0.0
 11
0.0
 21
0.0
 31
0.0
  0
LINE
  5
B5
330
B2
100
AcDbEntity
  8
0
  6
BYBLOCK
 62
     0
100
AcDbLine
 10
0.0
 20
0.0
 30
0.0
 11
-1.0
 21
-0.1666666666666666
 31
0.0
  0
LINE
  5
B6
330
B2
100
AcDbEntity
  8
0
  6
BYBLOCK
 62
     0
100
AcDbLine
 10
0.0
 20
0.0
 30
0.0
 11
-1.0
 21
0.0
 31
0.0
  0
ENDBLK
  5
B7
330
B2
100
AcDbEntity
  8
0
100
AcDbBlockEnd
  0
BLOCK
  5
1F3
330
1F2
100
AcDbEntity
  8
0
100
AcDbBlockBegin
  2
*D1
 70
     1
 10
0.0
 20
0.0
 30
0.0
  3
*D1
  1

  0
LINE
  5
726
330
1F2
100
AcDbEntity
  8
SUNPOU
 62
     4
 48
5.0
100
AcDbLine
 10
152.5768199374079
 20
118.4644690880065
 30
0.0
 11
183.7189522911946
 21
118.4644690880065
 31
0.0
  0
LINE
  5
727
330
1F2
100
AcDbEntity
  8
SUNPOU
 62
     4
 48
5.0
100
AcDbLine
 10
143.5768199374078
 20
90.46402878810647
 30
0.0
 11
183.7189522911946
 21
90.46402878810646
 31
0.0
  0
LINE
  5
728
330
1F2
100
AcDbEntity
  8
SUNPOU
 62
     4
 48
5.0
100
AcDbLine
 10
182.2189522911946
 20
115.4644690880065
 30
0.0
 11
182.2189522911946
 21
93.46402878810646
 31
0.0
  0
INSERT
  5
729
330
1F2
100
AcDbEntity
  8
SUNPOU
 62
     4
 48
5.0
100
AcDbBlockReference
  2
_OPEN
 10
182.2189522911946
 20
118.4644690880065
 30
0.0
 41
3.0
 42
3.0
 43
3.0
 50
90.0
  0
INSERT
  5
72A
330
1F2
100
AcDbEntity
  8
SUNPOU
 62
     4
 48
5.0
100
AcDbBlockReference
  2
_OPEN
 10
182.2189522911946
 20
90.46402878810646
 30
0.0
 41
3.0
 42
3.0
 43
3.0
 50
270.0
  0
MTEXT
  5
72B
330
1F2
100
AcDbEntity
  8
SUNPOU
 62
     4
 48
5.0
100
AcDbMText
 10
179.7189522911946
 20
104.4642489380565
 30
0.0
 40
3.0
 41
0.0
 71
     5
 72
     1
  1
\A1;28
 11
0.0000000000000001
 21
1.0
 31
0.0
1001
ACAD
1000
MTEXTBEGIN
1070
    73
1070
     1
1070
    44
1040
1.0
1070
    74
1070
     0
1000
MTEXTEND
1000
MTEXTBEGIN
1070
    73
1070
     1
1070
    44
1040
1.0
1070
    74
1070
     0
1000
MTEXTEND
1000
MTEXTBEGIN
1070
    73
1070
     1
1070
    44
1040
1.0
1070
    74
1070
     0
1000
MTEXTEND
1000
MTEXTBEGIN
1070
    73
1070
     1
1070
    44
1040
1.0
1070
    74
1070
     0
1000
MTEXTEND
1000
MTEXTBEGIN
1070
    73
1070
     1
1070
    44
1040
1.0
1070
    74
1070
     0
1000
MTEXTEND
  0
POINT
  5
72C
330
1F2
100
AcDbEntity
  8
DEFPOINTS
 62
     0
 48
5.0
100
AcDbPoint
 10
149.5768199374079
 20
118.4644690880065
 30
0.0
  0
POINT
  5
72D
330
1F2
100
AcDbEntity
  8
DEFPOINTS
 62
     0
 48
5.0
100
AcDbPoint
 10
140.5768199374078
 20
90.46402878810647
 30
0.0
  0
POINT
  5
72E
330
1F2
100
AcDbEntity
  8
DEFPOINTS
 62
     0
 48
5.0
100
AcDbPoint
 10
182.2189522911946
 20
90.46402878810646
 30
0.0
  0
ENDBLK
  5
1FE
330
1F2
100
AcDbEntity
  8
0
100
AcDbBlockEnd
  0
BLOCK
  5
2F5
330
20D
100
AcDbEntity
  8
0
100
AcDbBlockBegin
  2
*D2
 70
     1
 10
0.0
 20
0.0
 30
0.0
  3
*D2
  1

  0
LINE
  5
712
330
20D
100
AcDbEntity
  8
SUNPOU
 62
     4
 48
5.0
100
AcDbLine
 10
114.5768199374078
 20
86.46446908800649
 30
0.0
 11
126.7553750602144
 21
86.46446908800649
 31
0.0
  0
LINE
  5
713
330
20D
100
AcDbEntity
  8
SUNPOU
 62
     4
 48
5.0
100
AcDbLine
 10
114.5768199374078
 20
85.4644690880065
 30
0.0
 11
126.7553750602144
 21
85.4644690880065
 31
0.0
  0
LINE
  5
714
330
20D
100
AcDbEntity
  8
SUNPOU
 62
     4
 48
5.0
100
AcDbLine
 10
125.2553750602144
 20
89.4644690880065
 30
0.0
 11
125.2553750602144
 21
92.46446908800649
 31
0.0
  0
LINE
  5
715
330
20D
100
AcDbEntity
  8
SUNPOU
 62
     4
 48
5.0
100
AcDbLine
 10
125.2553750602144
 20
82.46446908800649
 30
0.0
 11
125.2553750602144
 21
69.96446908800649
 31
0.0
  0
LINE
  5
716
330
20D
100
AcDbEntity
  8
SUNPOU
 62
     4
 48
5.0
100
AcDbLine
 10
125.2553750602144
 20
86.46446908800649
 30
0.0
 11
125.2553750602144
 21
85.4644690880065
 31
0.0
  0
INSERT
  5
717
330
20D
100
AcDbEntity
  8
SUNPOU
 62
     4
 48
5.0
100
AcDbBlockReference
  2
_OPEN
 10
125.2553750602144
 20
86.46446908800649
 30
0.0
 41
3.0
 42
3.0
 43
3.0
 50
270.0
  0
INSERT
  5
718
330
20D
100
AcDbEntity
  8
SUNPOU
 62
     4
 48
5.0
100
AcDbBlockReference
  2
_OPEN
 10
125.2553750602144
 20
85.4644690880065
 30
0.0
 41
3.0
 42
3.0
 43
3.0
 50
90.0
  0
MTEXT
  5
719
330
20D
100
AcDbEntity
  8
SUNPOU
 62
     4
 48
5.0
100
AcDbMText
 10
122.7553750602144
 20
74.7144690880065
 30
0.0
 40
3.0
 41
0.0
 71
     5
 72
     1
  1
\A1;t1.0
 11
0.0000000000000001
 21
1.0
 31
0.0
1001
ACAD
1000
MTEXTBEGIN
1070
    73
1070
     1
1070
    44
1040
1.0
1070
    74
1070
     0
1000
MTEXTEND
1000
MTEXTBEGIN
1070
    73
1070
     1
1070
    44
1040
1.0
1070
    74
1070
     0
1000
MTEXTEND
1000
MTEXTBEGIN
1070
    73
1070
     1
1070
    44
1040
1.0
1070
    74
1070
     0
1000
MTEXTEND
1000
MTEXTBEGIN
1070
    73
1070
     1
1070
    44
1040
1.0
1070
    74
1070
     0
1000
MTEXTEND
1000
MTEXTBEGIN
1070
    73
1070
     1
1070
    44
1040
1.0
1070
    74
1070
     0
1000
MTEXTEND
  0
POINT
  5
71A
330
20D
100
AcDbEntity
  8
DEFPOINTS
 62
     0
 48
5.0
100
AcDbPoint
 10
111.5768199374078
 20
86.46446908800649
 30
0.0
  0
POINT
  5
71B
330
20D
100
AcDbEntity
  8
DEFPOINTS
 62
     0
 48
5.0
100
AcDbPoint
 10
111.5768199374078
 20
85.4644690880065
 30
0.0
  0
POINT
  5
71C
330
20D
100
AcDbEntity
  8
DEFPOINTS
 62
     0
 48
5.0
100
AcDbPoint
 10
125.2553750602144
 20
85.4644690880065
 30
0.0
  0
ENDBLK
  5
301
330
20D
100
AcDbEntity
  8
0
100
AcDbBlockEnd
  0
BLOCK
  5
237
330
236
100
AcDbEntity
  8
0
100
AcDbBlockBegin
  2
*D3
 70
     1
 10
0.0
 20
0.0
 30
0.0
  3
*D3
  1

  0
LINE
  5
700
330
236
100
AcDbEntity
  8
SUNPOU
 62
     4
 48
5.0
100
AcDbLine
 10
158.5768199374078
 20
124.4644690880065
 30
0.0
 11
158.5768199374078
 21
239.930366062131
 31
0.0
  0
LINE
  5
701
330
236
100
AcDbEntity
  8
SUNPOU
 62
     4
 48
5.0
100
AcDbLine
 10
109.5768199374078
 20
122.4644690880065
 30
0.0
 11
109.5768199374079
 21
239.930366062131
 31
0.0
  0
LINE
  5
702
330
236
100
AcDbEntity
  8
SUNPOU
 62
     4
 48
5.0
100
AcDbLine
 10
155.5768199374078
 20
238.430366062131
 30
0.0
 11
112.5768199374079
 21
238.430366062131
 31
0.0
  0
INSERT
  5
703
330
236
100
AcDbEntity
  8
SUNPOU
 62
     4
 48
5.0
100
AcDbBlockReference
  2
_OPEN
 10
158.5768199374078
 20
238.430366062131
 30
0.0
 41
3.0
 42
3.0
 43
3.0
  0
INSERT
  5
704
330
236
100
AcDbEntity
  8
SUNPOU
 62
     4
 48
5.0
100
AcDbBlockReference
  2
_OPEN
 10
109.5768199374079
 20
238.430366062131
 30
0.0
 41
3.0
 42
3.0
 43
3.0
 50
180.0
  0
MTEXT
  5
705
330
236
100
AcDbEntity
  8
SUNPOU
 62
     4
 48
5.0
100
AcDbMText
 10
134.0768199374078
 20
240.930366062131
 30
0.0
 40
3.0
 41
0.0
 71
     5
 72
     1
  1
\A1;49
1001
ACAD
1000
MTEXTBEGIN
1070
    73
1070
     1
1070
    44
1040
1.0
1070
    74
1070
     0
1000
MTEXTEND
1000
MTEXTBEGIN
1070
    73
1070
     1
1070
    44
1040
1.0
1070
    74
1070
     0
1000
MTEXTEND
1000
MTEXTBEGIN
1070
    73
1070
     1
1070
    44
1040
1.0
1070
    74
1070
     0
1000
MTEXTEND
1000
MTEXTBEGIN
1070
    73
1070
     1
1070
    44
1040
1.0
1070
    74
1070
     0
1000
MTEXTEND
1000
MTEXTBEGIN
1070
    73
1070
     1
1070
    44
1040
1.0
1070
    74
1070
     0
1000
MTEXTEND
  0
POINT
  5
706
330
236
100
AcDbEntity
  8
DEFPOINTS
 62
     0
 48
5.0
100
AcDbPoint
 10
158.5768199374078
 20
121.4644690880065
 30
0.0
  0
POINT
  5
707
330
236
100
AcDbEntity
  8
DEFPOINTS
 62
     0
 48
5.0
100
AcDbPoint
 10
109.5768199374078
 20
119.4644690880065
 30
0.0
  0
POINT
  5
708
330
236
100
AcDbEntity
  8
DEFPOINTS
 62
     0
 48
5.0
100
AcDbPoint
 10
109.5768199374079
 20
238.430366062131
 30
0.0
  0
ENDBLK
  5
241
330
236
100
AcDbEntity
  8
0
100
AcDbBlockEnd
  0
BLOCK
  5
288
330
287
100
AcDbEntity
  8
0
100
AcDbBlockBegin
  2
*D4
 70
     1
 10
0.0
 20
0.0
 30
0.0
  3
*D4
  1

  0
LINE
  5
709
330
287
100
AcDbEntity
  8
SUNPOU
 62
     4
 48
5.0
100
AcDbLine
 10
151.5768199374079
 20
82.46446908800649
 30
0.0
 11
151.5768199374079
 21
50.46883480320764
 31
0.0
  0
LINE
  5
70A
330
287
100
AcDbEntity
  8
SUNPOU
 62
     4
 48
5.0
100
AcDbLine
 10
109.5768199374078
 20
84.4644690880065
 30
0.0
 11
109.5768199374078
 21
50.46883480320764
 31
0.0
  0
LINE
  5
70B
330
287
100
AcDbEntity
  8
SUNPOU
 62
     4
 48
5.0
100
AcDbLine
 10
148.5768199374079
 20
51.96883480320764
 30
0.0
 11
112.5768199374078
 21
51.96883480320764
 31
0.0
  0
INSERT
  5
70C
330
287
100
AcDbEntity
  8
SUNPOU
 62
     4
 48
5.0
100
AcDbBlockReference
  2
_OPEN
 10
151.5768199374079
 20
51.96883480320764
 30
0.0
 41
3.0
 42
3.0
 43
3.0
  0
INSERT
  5
70D
330
287
100
AcDbEntity
  8
SUNPOU
 62
     4
 48
5.0
100
AcDbBlockReference
  2
_OPEN
 10
109.5768199374078
 20
51.96883480320764
 30
0.0
 41
3.0
 42
3.0
 43
3.0
 50
180.0
  0
MTEXT
  5
70E
330
287
100
AcDbEntity
  8
SUNPOU
 62
     4
 48
5.0
100
AcDbMText
 10
130.5768199374078
 20
54.46883480320764
 30
0.0
 40
3.0
 41
0.0
 71
     5
 72
     1
  1
\A1;42
1001
ACAD
1000
MTEXTBEGIN
1070
    73
1070
     1
1070
    44
1040
1.0
1070
    74
1070
     0
1000
MTEXTEND
1000
MTEXTBEGIN
1070
    73
1070
     1
1070
    44
1040
1.0
1070
    74
1070
     0
1000
MTEXTEND
1000
MTEXTBEGIN
1070
    73
1070
     1
1070
    44
1040
1.0
1070
    74
1070
     0
1000
MTEXTEND
1000
MTEXTBEGIN
1070
    73
1070
     1
1070
    44
1040
1.0
1070
    74
1070
     0
1000
MTEXTEND
1000
MTEXTBEGIN
1070
    73
1070
     1
1070
    44
1040
1.0
1070
    74
1070
     0
1000
MTEXTEND
  0
POINT
  5
70F
330
287
100
AcDbEntity
  8
DEFPOINTS
 62
     0
 48
5.0
100
AcDbPoint
 10
151.5768199374079
 20
85.4644690880065
 30
0.0
  0
POINT
  5
710
330
287
100
AcDbEntity
  8
DEFPOINTS
 62
     0
 48
5.0
100
AcDbPoint
 10
109.5768199374078
 20
87.46446908800649
 30
0.0
  0
POINT
  5
711
330
287
100
AcDbEntity
  8
DEFPOINTS
 62
     0
 48
5.0
100
AcDbPoint
 10
109.5768199374078
 20
51.96883480320764
 30
0.0
  0
ENDBLK
  5
292
330
287
100
AcDbEntity
  8
0
100
AcDbBlockEnd
  0
BLOCK
  5
33F
330
2B2
100
AcDbEntity
  8
0
100
AcDbBlockBegin
  2
*D5
 70
     1
 10
0.0
 20
0.0
 30
0.0
  3
*D5
  1

  0
LINE
  5
753
330
2B2
100
AcDbEntity
  8
SUNPOU
 62
     4
 48
5.0
100
AcDbLine
 10
273.6595624707738
 20
82.46446908800633
 30
0.0
 11
273.6595624707738
 21
59.31767673000582
 31
0.0
  0
LINE
  5
754
330
2B2
100
AcDbEntity
  8
SUNPOU
 62
     4
 48
5.0
100
AcDbLine
 10
293.6595624707738
 20
82.4644690880063
 30
0.0
 11
293.6595624707738
 21
59.31767673000582
 31
0.0
  0
LINE
  5
755
330
2B2
100
AcDbEntity
  8
SUNPOU
 62
     4
 48
5.0
100
AcDbLine
 10
276.6595624707738
 20
60.81767673000581
 30
0.0
 11
290.6595624707738
 21
60.81767673000581
 31
0.0
  0
INSERT
  5
756
330
2B2
100
AcDbEntity
  8
SUNPOU
 62
     4
 48
5.0
100
AcDbBlockReference
  2
_OPEN
 10
273.6595624707738
 20
60.81767673000581
 30
0.0
 41
3.0
 42
3.0
 43
3.0
 50
180.0
  0
INSERT
  5
757
330
2B2
100
AcDbEntity
  8
SUNPOU
 62
     4
 48
5.0
100
AcDbBlockReference
  2
_OPEN
 10
293.6595624707738
 20
60.81767673000581
 30
0.0
 41
3.0
 42
3.0
 43
3.0
  0
MTEXT
  5
758
330
2B2
100
AcDbEntity
  8
SUNPOU
 62
     4
 48
5.0
100
AcDbMText
 10
283.6595624707738
 20
63.31767673000581
 30
0.0
 40
3.0
 41
0.0
 71
     5
 72
     1
  1
\A1;20
1001
ACAD
1000
MTEXTBEGIN
1070
    73
1070
     1
1070
    44
1040
1.0
1070
    74
1070
     0
1000
MTEXTEND
1000
MTEXTBEGIN
1070
    73
1070
     1
1070
    44
1040
1.0
1070
    74
1070
     0
1000
MTEXTEND
1000
MTEXTBEGIN
1070
    73
1070
     1
1070
    44
1040
1.0
1070
    74
1070
     0
1000
MTEXTEND
1000
MTEXTBEGIN
1070
    73
1070
     1
1070
    44
1040
1.0
1070
    74
1070
     0
1000
MTEXTEND
1000
MTEXTBEGIN
1070
    73
1070
     1
1070
    44
1040
1.0
1070
    74
1070
     0
1000
MTEXTEND
  0
POINT
  5
759
330
2B2
100
AcDbEntity
  8
DEFPOINTS
 62
     0
 48
5.0
100
AcDbPoint
 10
273.6595624707738
 20
85.46446908800632
 30
0.0
  0
POINT
  5
75A
330
2B2
100
AcDbEntity
  8
DEFPOINTS
 62
     0
 48
5.0
100
AcDbPoint
 10
293.6595624707738
 20
85.4644690880063
 30
0.0
  0
POINT
  5
75B
330
2B2
100
AcDbEntity
  8
DEFPOINTS
 62
     0
 48
5.0
100
AcDbPoint
 10
293.6595624707738
 20
60.81767673000581
 30
0.0
  0
ENDBLK
  5
349
330
2B2
100
AcDbEntity
  8
0
100
AcDbBlockEnd
  0
BLOCK
  5
35F
330
35E
100
AcDbEntity
  8
0
100
AcDbBlockBegin
  2
*D6
 70
     1
 10
0.0
 20
0.0
 30
0.0
  3
*D6
  1

  0
LINE
  5
6EE
330
35E
100
AcDbEntity
  8
SUNPOU
 62
     4
 48
5.0
100
AcDbLine
 10
161.5768199374078
 20
121.4644690880065
 30
0.0
 11
202.1655619951941
 21
121.4644690880065
 31
0.0
  0
LINE
  5
6EF
330
35E
100
AcDbEntity
  8
SUNPOU
 62
     4
 48
5.0
100
AcDbLine
 10
154.5768199374078
 20
85.4644690880065
 30
0.0
 11
202.1655619951941
 21
85.46446908800648
 31
0.0
  0
LINE
  5
6F0
330
35E
100
AcDbEntity
  8
SUNPOU
 62
     4
 48
5.0
100
AcDbLine
 10
200.6655619951941
 20
118.4644690880065
 30
0.0
 11
200.6655619951941
 21
88.46446908800649
 31
0.0
  0
INSERT
  5
6F1
330
35E
100
AcDbEntity
  8
SUNPOU
 62
     4
 48
5.0
100
AcDbBlockReference
  2
_OPEN
 10
200.6655619951941
 20
121.4644690880065
 30
0.0
 41
3.0
 42
3.0
 43
3.0
 50
90.0
  0
INSERT
  5
6F2
330
35E
100
AcDbEntity
  8
SUNPOU
 62
     4
 48
5.0
100
AcDbBlockReference
  2
_OPEN
 10
200.6655619951941
 20
85.46446908800648
 30
0.0
 41
3.0
 42
3.0
 43
3.0
 50
270.0
  0
MTEXT
  5
6F3
330
35E
100
AcDbEntity
  8
SUNPOU
 62
     4
 48
5.0
100
AcDbMText
 10
198.1655619951941
 20
103.4644690880065
 30
0.0
 40
3.0
 41
0.0
 71
     5
 72
     1
  1
\A1;36
 11
0.0000000000000001
 21
1.0
 31
0.0
1001
ACAD
1000
MTEXTBEGIN
1070
    73
1070
     1
1070
    44
1040
1.0
1070
    74
1070
     0
1000
MTEXTEND
1000
MTEXTBEGIN
1070
    73
1070
     1
1070
    44
1040
1.0
1070
    74
1070
     0
1000
MTEXTEND
1000
MTEXTBEGIN
1070
    73
1070
     1
1070
    44
1040
1.0
1070
    74
1070
     0
1000
MTEXTEND
1000
MTEXTBEGIN
1070
    73
1070
     1
1070
    44
1040
1.0
1070
    74
1070
     0
1000
MTEXTEND
1000
MTEXTBEGIN
1070
    73
1070
     1
1070
    44
1040
1.0
1070
    74
1070
     0
1000
MTEXTEND
  0
POINT
  5
6F4
330
35E
100
AcDbEntity
  8
DEFPOINTS
 62
     0
 48
5.0
100
AcDbPoint
 10
158.5768199374078
 20
121.4644690880065
 30
0.0
  0
POINT
  5
6F5
330
35E
100
AcDbEntity
  8
DEFPOINTS
 62
     0
 48
5.0
100
AcDbPoint
 10
151.5768199374079
 20
85.4644690880065
 30
0.0
  0
POINT
  5
6F6
330
35E
100
AcDbEntity
  8
DEFPOINTS
 62
     0
 48
5.0
100
AcDbPoint
 10
200.6655619951941
 20
85.46446908800648
 30
0.0
  0
ENDBLK
  5
369
330
35E
100
AcDbEntity
  8
0
100
AcDbBlockEnd
  0
BLOCK
  5
59F
330
595
100
AcDbEntity
  8
0
 48
5.0
100
AcDbBlockBegin
  2
*D7
 70
     1
 10
0.0
 20
0.0
 30
0.0
  3
*D7
  1

  0
LINE
  5
91B
330
595
100
AcDbEntity
  8
SUNPOU
  6
CONTINUOUS
 62
     4
 48
5.0
100
AcDbLine
 10
138.5768199374078
 20
198.4644690880065
 30
0.0
 11
138.5768199374078
 21
231.9927207888741
 31
0.0
  0
LINE
  5
91C
330
595
100
AcDbEntity
  8
SUNPOU
  6
CONTINUOUS
 62
     4
 48
5.0
100
AcDbLine
 10
120.5768199374079
 20
198.4644690880065
 30
0.0
 11
120.5768199374079
 21
231.9927207888741
 31
0.0
  0
LINE
  5
91D
330
595
100
AcDbEntity
  8
SUNPOU
  6
CONTINUOUS
 62
     4
 48
5.0
100
AcDbLine
 10
135.5768199374078
 20
230.4927207888741
 30
0.0
 11
132.1223560228886
 21
230.4927207888741
 31
0.0
  0
LINE
  5
91E
330
595
100
AcDbEntity
  8
SUNPOU
  6
CONTINUOUS
 62
     4
 48
5.0
100
AcDbLine
 10
123.5768199374079
 20
230.4927207888741
 30
0.0
 11
126.1223560228886
 21
230.4927207888741
 31
0.0
  0
MTEXT
  5
91F
330
595
100
AcDbEntity
  8
SUNPOU
  6
CONTINUOUS
 62
     4
 48
5.0
100
AcDbMText
 10
129.1223560228886
 20
232.9431680972003
 30
0.0
 40
3.0
 41
0.0
 71
     5
 72
     1
  1
\A1;18
  0
INSERT
  5
920
330
595
100
AcDbEntity
  8
SUNPOU
  6
CONTINUOUS
 62
     4
 48
5.0
100
AcDbBlockReference
  2
_OPEN
 10
138.5768199374078
 20
230.4927207888741
 30
0.0
 41
3.0
 42
3.0
 43
3.0
  0
INSERT
  5
921
330
595
100
AcDbEntity
  8
SUNPOU
  6
CONTINUOUS
 62
     4
 48
5.0
100
AcDbBlockReference
  2
_OPEN
 10
120.5768199374079
 20
230.4927207888741
 30
0.0
 41
3.0
 42
3.0
 43
3.0
 50
180.0
  0
POINT
  5
922
330
595
100
AcDbEntity
  8
DEFPOINTS
  6
CONTINUOUS
 62
     0
 48
5.0
100
AcDbPoint
 10
138.5768199374078
 20
195.4644690880065
 30
0.0
  0
POINT
  5
923
330
595
100
AcDbEntity
  8
DEFPOINTS
  6
CONTINUOUS
 62
     0
 48
5.0
100
AcDbPoint
 10
120.5768199374079
 20
195.4644690880065
 30
0.0
  0
POINT
  5
924
330
595
100
AcDbEntity
  8
DEFPOINTS
  6
CONTINUOUS
 62
     0
 48
5.0
100
AcDbPoint
 10
120.5768199374079
 20
230.4927207888741
 30
0.0
  0
ENDBLK
  5
5A0
330
595
100
AcDbEntity
  8
0
 48
5.0
100
AcDbBlockEnd
  0
BLOCK
  5
5A7
330
5A1
100
AcDbEntity
  8
0
 48
5.0
100
AcDbBlockBegin
  2
*D8
 70
     1
 10
0.0
 20
0.0
 30
0.0
  3
*D8
  1

  0
LINE
  5
75C
330
5A1
100
AcDbEntity
  8
SUNPOU
 62
     4
 48
5.0
100
AcDbLine
 10
291.2970584126832
 20
159.6262391401314
 30
0.0
 11
307.7845736231127
 21
151.3406345609136
 31
0.0
  0
MTEXT
  5
75D
330
5A1
100
AcDbEntity
  8
SUNPOU
 62
     4
 48
5.0
100
AcDbMText
 10
296.6638373022957
 20
159.7271566807757
 30
0.0
 40
3.0
 41
0.0
 71
     5
 72
     1
  1
\A1;\U+220560
 11
0.893518215263175
 21
-0.4490269468449644
 31
0.0
1001
ACAD
1000
MTEXTBEGIN
1070
    73
1070
     1
1070
    44
1040
1.0
1070
    74
1070
     0
1000
MTEXTEND
1000
MTEXTBEGIN
1070
    73
1070
     1
1070
    44
1040
1.0
1070
    74
1070
     0
1000
MTEXTEND
1000
MTEXTBEGIN
1070
    73
1070
     1
1070
    44
1040
1.0
1070
    74
1070
     0
1000
MTEXTEND
1000
MTEXTBEGIN
1070
    73
1070
     1
1070
    44
1040
1.0
1070
    74
1070
     0
1000
MTEXTEND
1000
MTEXTBEGIN
1070
    73
1070
     1
1070
    44
1040
1.0
1070
    74
1070
     0
1000
MTEXTEND
  0
INSERT
  5
75E
330
5A1
100
AcDbEntity
  8
SUNPOU
 62
     4
 48
5.0
100
AcDbBlockReference
  2
_OPEN
 10
310.4651282689022
 20
149.9935537203787
 30
0.0
 41
3.0
 42
3.0
 43
3.0
 50
333.3187290067513
  0
POINT
  5
75F
330
5A1
100
AcDbEntity
  8
DEFPOINTS
 62
     0
 48
5.0
100
AcDbPoint
 10
310.4651282689022
 20
149.9935537203787
 30
0.0
  0
POINT
  5
760
330
5A1
100
AcDbEntity
  8
DEFPOINTS
 62
     0
 48
5.0
100
AcDbPoint
 10
256.8539956031815
 20
176.935190506931
 30
0.0
  0
ENDBLK
  5
5A8
330
5A1
100
AcDbEntity
  8
0
 48
5.0
100
AcDbBlockEnd
  0
BLOCK
  5
68A
330
680
100
AcDbEntity
  8
0
 48
5.0
100
AcDbBlockBegin
  2
*D9
 70
     1
 10
0.0
 20
0.0
 30
0.0
  3
*D9
  1

  0
LINE
  5
7B8
330
680
100
AcDbEntity
  8
ZUWAKU
 62
     4
 48
5.0
100
AcDbLine
 10
161.5768199374078
 20
120.4644690880065
 30
0.0
 11
192.7833142704139
 21
120.4644690880065
 31
0.0
  0
LINE
  5
7B9
330
680
100
AcDbEntity
  8
ZUWAKU
 62
     4
 48
5.0
100
AcDbLine
 10
154.5768199374078
 20
86.46446908800649
 30
0.0
 11
192.7833142704139
 21
86.46446908800648
 31
0.0
  0
LINE
  5
7BA
330
680
100
AcDbEntity
  8
ZUWAKU
 62
     4
 48
5.0
100
AcDbLine
 10
191.2833142704139
 20
117.4644690880065
 30
0.0
 11
191.2833142704139
 21
89.46446908800648
 31
0.0
  0
INSERT
  5
7BB
330
680
100
AcDbEntity
  8
ZUWAKU
 62
     4
 48
5.0
100
AcDbBlockReference
  2
_OPEN
 10
191.2833142704139
 20
120.4644690880065
 30
0.0
 41
3.0
 42
3.0
 43
3.0
 50
90.0
  0
INSERT
  5
7BC
330
680
100
AcDbEntity
  8
ZUWAKU
 62
     4
 48
5.0
100
AcDbBlockReference
  2
_OPEN
 10
191.2833142704139
 20
86.46446908800648
 30
0.0
 41
3.0
 42
3.0
 43
3.0
 50
270.0
  0
MTEXT
  5
7BD
330
680
100
AcDbEntity
  8
ZUWAKU
 62
     4
 48
5.0
100
AcDbMText
 10
188.7833142704139
 20
103.4644690880065
 30
0.0
 40
3.0
 41
0.0
 71
     5
 72
     1
  1
\A1;34
 11
0.0000000000000001
 21
1.0
 31
0.0
1001
ACAD
1000
MTEXTBEGIN
1070
    73
1070
     1
1070
    44
1040
1.0
1070
    74
1070
     0
1000
MTEXTEND
1000
MTEXTBEGIN
1070
    73
1070
     1
1070
    44
1040
1.0
1070
    74
1070
     0
1000
MTEXTEND
1000
MTEXTBEGIN
1070
    73
1070
     1
1070
    44
1040
1.0
1070
    74
1070
     0
1000
MTEXTEND
1000
MTEXTBEGIN
1070
    73
1070
     1
1070
    44
1040
1.0
1070
    74
1070
     0
1000
MTEXTEND
  0
POINT
  5
7BE
330
680
100
AcDbEntity
  8
DEFPOINTS
 62
     0
 48
5.0
100
AcDbPoint
 10
158.5768199374078
 20
120.4644690880065
 30
0.0
  0
POINT
  5
7BF
330
680
100
AcDbEntity
  8
DEFPOINTS
 62
     0
 48
5.0
100
AcDbPoint
 10
151.5768199374079
 20
86.46446908800649
 30
0.0
  0
POINT
  5
7C0
330
680
100
AcDbEntity
  8
DEFPOINTS
 62
     0
 48
5.0
100
AcDbPoint
 10
191.2833142704139
 20
86.46446908800648
 30
0.0
  0
ENDBLK
  5
68B
330
680
100
AcDbEntity
  8
0
 48
5.0
100
AcDbBlockEnd
  0
BLOCK
  5
697
330
68D
100
AcDbEntity
  8
0
 48
5.0
100
AcDbBlockBegin
  2
*D10
 70
     1
 10
0.0
 20
0.0
 30
0.0
  3
*D10
  1

  0
LINE
  5
925
330
68D
100
AcDbEntity
  8
ZUWAKU
 62
     4
 48
5.0
100
AcDbLine
 10
129.5768199374078
 20
204.9327797053329
 30
0.0
 11
129.5768199374078
 21
221.7561671856984
 31
0.0
  0
LINE
  5
926
330
68D
100
AcDbEntity
  8
ZUWAKU
 62
     4
 48
5.0
100
AcDbLine
 10
109.5768199374078
 20
122.4644690880065
 30
0.0
 11
109.5768199374078
 21
221.7561671856984
 31
0.0
  0
LINE
  5
927
330
68D
100
AcDbEntity
  8
ZUWAKU
 62
     4
 48
5.0
100
AcDbLine
 10
126.5768199374079
 20
220.2561671856984
 30
0.0
 11
112.5768199374078
 21
220.2561671856984
 31
0.0
  0
MTEXT
  5
928
330
68D
100
AcDbEntity
  8
ZUWAKU
 62
     4
 48
5.0
100
AcDbMText
 10
115.6472909038748
 20
222.7976564415111
 30
0.0
 40
3.0
 41
0.0
 71
     5
 72
     1
  1
\A1;20
  0
INSERT
  5
929
330
68D
100
AcDbEntity
  8
ZUWAKU
 62
     4
 48
5.0
100
AcDbBlockReference
  2
_OPEN
 10
129.5768199374078
 20
220.2561671856984
 30
0.0
 41
3.0
 42
3.0
 43
3.0
  0
INSERT
  5
92A
330
68D
100
AcDbEntity
  8
ZUWAKU
 62
     4
 48
5.0
100
AcDbBlockReference
  2
_OPEN
 10
109.5768199374078
 20
220.2561671856984
 30
0.0
 41
3.0
 42
3.0
 43
3.0
 50
180.0
  0
POINT
  5
92B
330
68D
100
AcDbEntity
  8
DEFPOINTS
 62
     0
 48
5.0
100
AcDbPoint
 10
129.5768199374078
 20
201.9327797053329
 30
0.0
  0
POINT
  5
92C
330
68D
100
AcDbEntity
  8
DEFPOINTS
 62
     0
 48
5.0
100
AcDbPoint
 10
109.5768199374078
 20
119.4644690880065
 30
0.0
  0
POINT
  5
92D
330
68D
100
AcDbEntity
  8
DEFPOINTS
 62
     0
 48
5.0
100
AcDbPoint
 10
109.5768199374078
 20
220.2561671856984
 30
0.0
  0
ENDBLK
  5
698
330
68D
100
AcDbEntity
  8
0
 48
5.0
100
AcDbBlockEnd
  0
BLOCK
  5
6CD
330
6C3
100
AcDbEntity
  8
0
 48
5.0
100
AcDbBlockBegin
  2
*D11
 70
     1
 10
0.0
 20
0.0
 30
0.0
  3
*D11
  1

  0
LINE
  5
7CA
330
6C3
100
AcDbEntity
  8
ZUWAKU
 62
     4
 48
5.0
100
AcDbLine
 10
280.6595624707738
 20
196.4643897364213
 30
0.0
 11
231.368562913321
 21
196.4643897364213
 31
0.0
  0
LINE
  5
7CB
330
6C3
100
AcDbEntity
  8
ZUWAKU
 62
     4
 48
5.0
100
AcDbLine
 10
270.6319624706738
 20
121.4644690880063
 30
0.0
 11
231.368562913321
 21
121.4644690880063
 31
0.0
  0
LINE
  5
7CC
330
6C3
100
AcDbEntity
  8
ZUWAKU
 62
     4
 48
5.0
100
AcDbLine
 10
232.868562913321
 20
193.4643897364213
 30
0.0
 11
232.868562913321
 21
124.4644690880063
 31
0.0
  0
INSERT
  5
7CD
330
6C3
100
AcDbEntity
  8
ZUWAKU
 62
     4
 48
5.0
100
AcDbBlockReference
  2
_OPEN
 10
232.868562913321
 20
196.4643897364213
 30
0.0
 41
3.0
 42
3.0
 43
3.0
 50
90.0
  0
INSERT
  5
7CE
330
6C3
100
AcDbEntity
  8
ZUWAKU
 62
     4
 48
5.0
100
AcDbBlockReference
  2
_OPEN
 10
232.868562913321
 20
121.4644690880063
 30
0.0
 41
3.0
 42
3.0
 43
3.0
 50
270.0
  0
MTEXT
  5
7CF
330
6C3
100
AcDbEntity
  8
ZUWAKU
 62
     4
 48
5.0
100
AcDbMText
 10
230.368562913321
 20
158.9644294122139
 30
0.0
 40
3.0
 41
0.0
 71
     5
 72
     1
  1
\A1;75
 11
0.0000000000000001
 21
1.0
 31
0.0
1001
ACAD
1000
MTEXTBEGIN
1070
    73
1070
     1
1070
    44
1040
1.0
1070
    74
1070
     0
1000
MTEXTEND
1000
MTEXTBEGIN
1070
    73
1070
     1
1070
    44
1040
1.0
1070
    74
1070
     0
1000
MTEXTEND
1000
MTEXTBEGIN
1070
    73
1070
     1
1070
    44
1040
1.0
1070
    74
1070
     0
1000
MTEXTEND
1000
MTEXTBEGIN
1070
    73
1070
     1
1070
    44
1040
1.0
1070
    74
1070
     0
1000
MTEXTEND
  0
POINT
  5
7D0
330
6C3
100
AcDbEntity
  8
DEFPOINTS
 62
     0
 48
5.0
100
AcDbPoint
 10
283.6595624707738
 20
196.4643897364213
 30
0.0
  0
POINT
  5
7D1
330
6C3
100
AcDbEntity
  8
DEFPOINTS
 62
     0
 48
5.0
100
AcDbPoint
 10
273.6319624706739
 20
121.4644690880063
 30
0.0
  0
POINT
  5
7D2
330
6C3
100
AcDbEntity
  8
DEFPOINTS
 62
     0
 48
5.0
100
AcDbPoint
 10
232.868562913321
 20
121.4644690880063
 30
0.0
  0
ENDBLK
  5
6CE
330
6C3
100
AcDbEntity
  8
0
 48
5.0
100
AcDbBlockEnd
  0
BLOCK
  5
6DA
330
6D0
100
AcDbEntity
  8
0
 48
5.0
100
AcDbBlockBegin
  2
*D12
 70
     1
 10
0.0
 20
0.0
 30
0.0
  3
*D12
  1

  0
LINE
  5
7D3
330
6D0
100
AcDbEntity
  8
ZUWAKU
 62
     4
 48
5.0
100
AcDbLine
 10
270.6319624706738
 20
121.4644690880063
 30
0.0
 11
231.368562913321
 21
121.4644690880063
 31
0.0
  0
LINE
  5
7D4
330
6D0
100
AcDbEntity
  8
ZUWAKU
 62
     4
 48
5.0
100
AcDbLine
 10
270.6595624707738
 20
85.46446908800632
 30
0.0
 11
231.368562913321
 21
85.46446908800632
 31
0.0
  0
LINE
  5
7D5
330
6D0
100
AcDbEntity
  8
ZUWAKU
 62
     4
 48
5.0
100
AcDbLine
 10
232.868562913321
 20
118.4644690880063
 30
0.0
 11
232.868562913321
 21
88.46446908800633
 31
0.0
  0
INSERT
  5
7D6
330
6D0
100
AcDbEntity
  8
ZUWAKU
 62
     4
 48
5.0
100
AcDbBlockReference
  2
_OPEN
 10
232.868562913321
 20
121.4644690880063
 30
0.0
 41
3.0
 42
3.0
 43
3.0
 50
90.0
  0
INSERT
  5
7D7
330
6D0
100
AcDbEntity
  8
ZUWAKU
 62
     4
 48
5.0
100
AcDbBlockReference
  2
_OPEN
 10
232.868562913321
 20
85.46446908800632
 30
0.0
 41
3.0
 42
3.0
 43
3.0
 50
270.0
  0
MTEXT
  5
7D8
330
6D0
100
AcDbEntity
  8
ZUWAKU
 62
     4
 48
5.0
100
AcDbMText
 10
230.368562913321
 20
103.4644690880063
 30
0.0
 40
3.0
 41
0.0
 71
     5
 72
     1
  1
\A1;36
 11
0.0000000000000001
 21
1.0
 31
0.0
1001
ACAD
1000
MTEXTBEGIN
1070
    73
1070
     1
1070
    44
1040
1.0
1070
    74
1070
     0
1000
MTEXTEND
1000
MTEXTBEGIN
1070
    73
1070
     1
1070
    44
1040
1.0
1070
    74
1070
     0
1000
MTEXTEND
1000
MTEXTBEGIN
1070
    73
1070
     1
1070
    44
1040
1.0
1070
    74
1070
     0
1000
MTEXTEND
1000
MTEXTBEGIN
1070
    73
1070
     1
1070
    44
1040
1.0
1070
    74
1070
     0
1000
MTEXTEND
  0
POINT
  5
7D9
330
6D0
100
AcDbEntity
  8
DEFPOINTS
 62
     0
 48
5.0
100
AcDbPoint
 10
273.6319624706739
 20
121.4644690880063
 30
0.0
  0
POINT
  5
7DA
330
6D0
100
AcDbEntity
  8
DEFPOINTS
 62
     0
 48
5.0
100
AcDbPoint
 10
273.6595624707738
 20
85.46446908800632
 30
0.0
  0
POINT
  5
7DB
330
6D0
100
AcDbEntity
  8
DEFPOINTS
 62
     0
 48
5.0
100
AcDbPoint
 10
232.868562913321
 20
85.46446908800632
 30
0.0
  0
ENDBLK
  5
6DB
330
6D0
100
AcDbEntity
  8
0
 48
5.0
100
AcDbBlockEnd
  0
BLOCK
  5
6E7
330
6DD
100
AcDbEntity
  8
0
 48
5.0
100
AcDbBlockBegin
  2
*D13
 70
     1
 10
0.0
 20
0.0
 30
0.0
  3
*D13
  1

  0
LINE
  5
7DC
330
6DD
100
AcDbEntity
  8
ZUWAKU
 62
     4
 48
5.0
100
AcDbLine
 10
280.6595539485882
 20
196.4643897364224
 30
0.0
 11
223.744653046908
 21
196.4643897364224
 31
0.0
  0
LINE
  5
7DD
330
6DD
100
AcDbEntity
  8
ZUWAKU
 62
     4
 48
5.0
100
AcDbLine
 10
270.6595624707738
 20
85.46446908800632
 30
0.0
 11
223.744653046908
 21
85.46446908800634
 31
0.0
  0
LINE
  5
7DE
330
6DD
100
AcDbEntity
  8
ZUWAKU
 62
     4
 48
5.0
100
AcDbLine
 10
225.2446530469081
 20
193.4643897364224
 30
0.0
 11
225.244653046908
 21
88.46446908800633
 31
0.0
  0
INSERT
  5
7DF
330
6DD
100
AcDbEntity
  8
ZUWAKU
 62
     4
 48
5.0
100
AcDbBlockReference
  2
_OPEN
 10
225.2446530469081
 20
196.4643897364224
 30
0.0
 41
3.0
 42
3.0
 43
3.0
 50
90.0
  0
INSERT
  5
7E0
330
6DD
100
AcDbEntity
  8
ZUWAKU
 62
     4
 48
5.0
100
AcDbBlockReference
  2
_OPEN
 10
225.244653046908
 20
85.46446908800632
 30
0.0
 41
3.0
 42
3.0
 43
3.0
 50
270.0
  0
MTEXT
  5
7E1
330
6DD
100
AcDbEntity
  8
ZUWAKU
 62
     4
 48
5.0
100
AcDbMText
 10
222.744653046908
 20
140.9644294122144
 30
0.0
 40
3.0
 41
0.0
 71
     5
 72
     1
  1
\A1;111
 11
0.0000000000000001
 21
1.0
 31
0.0
1001
ACAD
1000
MTEXTBEGIN
1070
    73
1070
     1
1070
    44
1040
1.0
1070
    74
1070
     0
1000
MTEXTEND
1000
MTEXTBEGIN
1070
    73
1070
     1
1070
    44
1040
1.0
1070
    74
1070
     0
1000
MTEXTEND
1000
MTEXTBEGIN
1070
    73
1070
     1
1070
    44
1040
1.0
1070
    74
1070
     0
1000
MTEXTEND
1000
MTEXTBEGIN
1070
    73
1070
     1
1070
    44
1040
1.0
1070
    74
1070
     0
1000
MTEXTEND
  0
POINT
  5
7E2
330
6DD
100
AcDbEntity
  8
DEFPOINTS
 62
     0
 48
5.0
100
AcDbPoint
 10
283.6595539485882
 20
196.4643897364224
 30
0.0
  0
POINT
  5
7E3
330
6DD
100
AcDbEntity
  8
DEFPOINTS
 62
     0
 48
5.0
100
AcDbPoint
 10
273.6595624707738
 20
85.46446908800632
 30
0.0
  0
POINT
  5
7E4
330
6DD
100
AcDbEntity
  8
DEFPOINTS
 62
     0
 48
5.0
100
AcDbPoint
 10
225.244653046908
 20
85.46446908800632
 30
0.0
  0
ENDBLK
  5
6E8
330
6DD
100
AcDbEntity
  8
0
 48
5.0
100
AcDbBlockEnd
  0
ENDSEC
  0
SECTION
  2
ENTITIES
  0
LINE
  5
6C
330
1A
100
AcDbEntity
  8
ZUWAKU
 48
5.0
100
AcDbLine
 10
403.0
 20
7.0
 30
0.0
 11
5.0
 21
7.0
 31
0.0
  0
LINE
  5
6D
330
1A
100
AcDbEntity
  8
ZUWAKU
 48
5.0
100
AcDbLine
 10
5.0
 20
282.0
 30
0.0
 11
5.0
 21
7.0
 31
0.0
  0
LINE
  5
6E
330
1A
100
AcDbEntity
  8
ZUWAKU
 48
5.0
100
AcDbLine
 10
403.0
 20
282.0
 30
0.0
 11
403.0
 21
7.0
 31
0.0
  0
LINE
  5
6F
330
1A
100
AcDbEntity
  8
ZUWAKU
 48
5.0
100
AcDbLine
 10
403.0
 20
282.0
 30
0.0
 11
5.0
 21
282.0
 31
0.0
  0
LINE
  5
8E
330
1A
100
AcDbEntity
  8
ZUWAKU
 48
5.0
100
AcDbLine
 10
5.0
 20
13.0
 30
0.0
 11
403.0
 21
12.99999999999994
 31
0.0
  0
TEXT
  5
93
330
1A
100
AcDbEntity
  8
ZUWAKU
 48
5.0
100
AcDbText
 10
8.003143713074223
 20
7.870178177610682
 30
0.0
 40
4.0
  1
品 種
100
AcDbText
  0
TEXT
  5
97
330
1A
100
AcDbEntity
  8
ZUWAKU
 48
5.0
100
AcDbText
 10
107.7028028167073
 20
8.200497435100942
 30
0.0
 40
4.0
  1
品名・ｻ ｲ ｽﾞ
100
AcDbText
  0
TEXT
  5
99
330
1A
100
AcDbEntity
  8
ZUWAKU
 62
     7
100
AcDbText
 10
141.1313324528735
 20
7.9299153608506
 30
0.0
 40
4.0
  1
這いといデンデン　ＵＴ６０（ＭＯ）
100
AcDbText
  0
LINE
  5
9A
330
1A
100
AcDbEntity
  8
ZUWAKU
 48
5.0
100
AcDbLine
 10
324.3551403257206
 20
6.999999999999836
 30
0.0
 11
324.3551403257206
 21
12.99999999999995
 31
0.0
  0
LINE
  5
9B
330
1A
100
AcDbEntity
  8
ZUWAKU
 48
5.0
100
AcDbLine
 10
307.142312366876
 20
6.999999999999836
 30
0.0
 11
307.142312366876
 21
12.99999999999995
 31
0.0
  0
TEXT
  5
9C
330
1A
100
AcDbEntity
  8
ZUWAKU
 48
5.0
100
AcDbText
 10
310.1429253763237
 20
7.934661405801826
 30
0.0
 40
4.0
  1
品 番
100
AcDbText
  0
TEXT
  5
9D
330
1A
100
AcDbEntity
  8
ZUWAKU
 62
     7
100
AcDbText
 10
327.1013476411085
 20
8.060146781246267
 30
0.0
 40
4.0
  1
LJ69
100
AcDbText
  0
TEXT
  5
9E
330
1A
100
AcDbEntity
  8
ZUWAKU
 48
5.0
100
AcDbText
 10
322.9513761015196
 20
2.449000558492457
 30
0.0
 40
4.0
  1
積水化学工業株式会社  建材
100
AcDbText
  0
TEXT
  5
A1
330
1A
100
AcDbEntity
  8
ZUWAKU
 48
5.0
100
AcDbText
 10
389.843492473331
 20
7.886151458996323
 30
0.0
 40
4.0
  1
1/1
100
AcDbText
  0
TEXT
  5
A2
330
1A
100
AcDbEntity
  8
ZUWAKU
 48
5.0
100
AcDbText
 10
369.8225424558458
 20
7.729845637642938
 30
0.0
 40
4.0
  1
尺 度
100
AcDbText
  0
LINE
  5
A3
330
1A
100
AcDbEntity
  8
ZUWAKU
 48
5.0
100
AcDbLine
 10
366.8807110760169
 20
6.999999999999886
 30
0.0
 11
366.8807110760169
 21
12.99999999999994
 31
0.0
  0
TEXT
  5
A6
330
1A
100
AcDbEntity
  8
ZUWAKU
 48
5.0
100
AcDbText
 10
396.1622424237184
 20
2.480970960763784
 30
0.0
 40
4.0
  1
A3
100
AcDbText
  0
LINE
  5
F5
330
1A
100
AcDbEntity
  8
ZUWAKU
 48
5.0
100
AcDbLine
 10
22.25374857290876
 20
7.0
 30
0.0
 11
22.25374857290876
 21
13.0
 31
0.0
  0
LINE
  5
F6
330
1A
100
AcDbEntity
  8
ZUWAKU
 48
5.0
100
AcDbLine
 10
104.7316872784438
 20
7.0
 30
0.0
 11
104.7316872784438
 21
12.99999999999998
 31
0.0
  0
LINE
  5
F8
330
1A
100
AcDbEntity
  8
ZUWAKU
 48
5.0
100
AcDbLine
 10
138.0261803105822
 20
7.0
 30
0.0
 11
138.0261803105822
 21
12.99999999999998
 31
0.0
  0
LINE
  5
100
330
1A
100
AcDbEntity
  8
ZUWAKU
 48
5.0
100
AcDbLine
 10
384.3363149538092
 20
6.999999999999862
 30
0.0
 11
384.3363149538092
 21
12.99999999999994
 31
0.0
  0
LINE
  5
195
330
1A
100
AcDbEntity
  8
SEIHIN
 48
5.0
100
AcDbLine
 10
149.5768199374079
 20
119.5415020494065
 30
0.0
 11
144.7694023410079
 21
121.4644690880065
 31
0.0
  0
LINE
  5
196
330
1A
100
AcDbEntity
  8
SEIHIN
 48
5.0
100
AcDbLine
 10
149.5768199374079
 20
118.4644690880065
 30
0.0
 11
144.5768199374079
 21
120.4644690880065
 31
0.0
  0
LINE
  5
197
330
1A
100
AcDbEntity
  8
SEIHIN
 48
5.0
100
AcDbLine
 10
151.5768199374079
 20
85.4644690880065
 30
0.0
 11
146.2740720310079
 21
85.4644690880065
 31
0.0
  0
LINE
  5
198
330
1A
100
AcDbEntity
  8
SEIHIN
 48
5.0
100
AcDbLine
 10
151.5768199374079
 20
86.46446908800649
 30
0.0
 11
146.5768199374078
 21
86.46446908800649
 31
0.0
  0
LINE
  5
199
330
1A
100
AcDbEntity
  8
SEIHIN
 48
5.0
100
AcDbLine
 10
151.5768199374079
 20
86.46446908800649
 30
0.0
 11
151.5768199374079
 21
85.4644690880065
 31
0.0
  0
LINE
  5
19A
330
1A
100
AcDbEntity
  8
SEIHIN
 48
5.0
100
AcDbLine
 10
154.3842375339079
 20
121.4644690880065
 30
0.0
 11
158.5768199374078
 21
121.4644690880065
 31
0.0
  0
LINE
  5
19B
330
1A
100
AcDbEntity
  8
SEIHIN
 48
5.0
100
AcDbLine
 10
154.5768199374078
 20
120.4644690880065
 30
0.0
 11
158.5768199374078
 21
120.4644690880065
 31
0.0
  0
LINE
  5
19C
330
1A
100
AcDbEntity
  8
SEIHIN
 48
5.0
100
AcDbLine
 10
154.3842375339079
 20
121.4644690880065
 30
0.0
 11
158.5768199374078
 21
121.4644690880065
 31
0.0
  0
LINE
  5
19D
330
1A
100
AcDbEntity
  8
SEIHIN
 48
5.0
100
AcDbLine
 10
158.5768199374078
 20
121.4644690880065
 30
0.0
 11
158.5768199374078
 21
120.4644690880065
 31
0.0
  0
LINE
  5
19E
330
1A
100
AcDbEntity
  8
SEIHIN
 48
5.0
100
AcDbLine
 10
155.5768199374078
 20
121.4644690880065
 30
0.0
 11
155.5768199374078
 21
120.4644690880065
 31
0.0
  0
LINE
  5
19F
330
1A
100
AcDbEntity
  8
SEIHIN
 48
5.0
100
AcDbLine
 10
149.5768199374079
 20
118.4644690880065
 30
0.0
 11
154.5768199374078
 21
120.4644690880065
 31
0.0
  0
LINE
  5
1A0
330
1A
100
AcDbEntity
  8
SEIHIN
 48
5.0
100
AcDbLine
 10
149.5768199374079
 20
119.5415020494065
 30
0.0
 11
154.3842375339079
 21
121.4644690880065
 31
0.0
  0
ARC
  5
1A1
330
1A
100
AcDbEntity
  8
SEIHIN
 48
5.0
100
AcDbCircle
 10
111.5768199374078
 20
87.46446908800649
 30
0.0
 40
2.0
100
AcDbArc
 50
180.0
 51
270.0
  0
LINE
  5
1A2
330
1A
100
AcDbEntity
  8
SEIHIN
 48
5.0
100
AcDbLine
 10
109.5768199374078
 20
119.4644690880065
 30
0.0
 11
109.5768199374078
 21
87.46446908800649
 31
0.0
  0
LINE
  5
1A3
330
1A
100
AcDbEntity
  8
SEIHIN
 48
5.0
100
AcDbLine
 10
110.5768199374078
 20
119.4644690880065
 30
0.0
 11
110.5768199374078
 21
87.46446908800649
 31
0.0
  0
LINE
  5
1A4
330
1A
100
AcDbEntity
  8
SEIHIN
 48
5.0
100
AcDbLine
 10
137.5768199374078
 20
86.46446908800649
 30
0.0
 11
111.5768199374078
 21
86.46446908800649
 31
0.0
  0
LINE
  5
1A5
330
1A
100
AcDbEntity
  8
SEIHIN
 48
5.0
100
AcDbLine
 10
138.0767869131079
 20
85.4644690880065
 30
0.0
 11
111.5768199374078
 21
85.4644690880065
 31
0.0
  0
LINE
  5
1A6
330
1A
100
AcDbEntity
  8
SEIHIN
 48
5.0
100
AcDbLine
 10
146.5768199374078
 20
86.46446908800649
 30
0.0
 11
140.5768199374078
 21
90.46402878810647
 31
0.0
  0
LINE
  5
1A7
330
1A
100
AcDbEntity
  8
SEIHIN
 48
5.0
100
AcDbLine
 10
146.2740720310079
 20
85.4644690880065
 30
0.0
 11
140.8092152857079
 21
89.10730588890652
 31
0.0
  0
LINE
  5
1A8
330
1A
100
AcDbEntity
  8
SEIHIN
 48
5.0
100
AcDbLine
 10
148.5768199374079
 20
86.46446908800649
 30
0.0
 11
148.5768199374079
 21
85.4644690880065
 31
0.0
  0
LINE
  5
1A9
330
1A
100
AcDbEntity
  8
SEIHIN
 48
5.0
100
AcDbLine
 10
140.5768199374078
 20
90.46402878810647
 30
0.0
 11
137.5768199374078
 21
86.46446908800649
 31
0.0
  0
LINE
  5
1AA
330
1A
100
AcDbEntity
  8
SEIHIN
 48
5.0
100
AcDbLine
 10
140.8092152857079
 20
89.10730588890652
 30
0.0
 11
138.0767869131079
 21
85.4644690880065
 31
0.0
  0
ARC
  5
1AB
330
1A
100
AcDbEntity
  8
SEIHIN
 48
5.0
100
AcDbCircle
 10
111.5768199374078
 20
87.46446908800649
 30
0.0
 40
1.0
100
AcDbArc
 50
180.0
 51
270.0
  0
LINE
  5
1AE
330
1A
100
AcDbEntity
  8
SEIHIN
 48
5.0
100
AcDbLine
 10
144.5768199374079
 20
120.4644690880065
 30
0.0
 11
124.5768199374079
 21
120.4644690880065
 31
0.0
  0
LINE
  5
1AF
330
1A
100
AcDbEntity
  8
SEIHIN
 48
5.0
100
AcDbLine
 10
144.7694023410079
 20
121.4644690880065
 30
0.0
 11
124.3842375339079
 21
121.4644690880065
 31
0.0
  0
LINE
  5
1B0
330
1A
100
AcDbEntity
  8
SEIHIN
 48
5.0
100
AcDbLine
 10
111.5768199374078
 20
121.4644690880065
 30
0.0
 11
114.7694023410078
 21
121.4644690880065
 31
0.0
  0
LINE
  5
1B1
330
1A
100
AcDbEntity
  8
SEIHIN
 48
5.0
100
AcDbLine
 10
111.5768199374078
 20
120.4644690880065
 30
0.0
 11
114.5768199374078
 21
120.4644690880065
 31
0.0
  0
LINE
  5
1B2
330
1A
100
AcDbEntity
  8
SEIHIN
 48
5.0
100
AcDbLine
 10
114.5768199374078
 20
120.4644690880065
 30
0.0
 11
119.5768199374078
 21
118.4644690880065
 31
0.0
  0
LINE
  5
1B3
330
1A
100
AcDbEntity
  8
SEIHIN
 48
5.0
100
AcDbLine
 10
114.7694023410078
 20
121.4644690880065
 30
0.0
 11
119.5768199374078
 21
119.5415020494065
 31
0.0
  0
LINE
  5
1B4
330
1A
100
AcDbEntity
  8
SEIHIN
 48
5.0
100
AcDbLine
 10
124.5768199374079
 20
120.4644690880065
 30
0.0
 11
119.5768199374078
 21
118.4644690880065
 31
0.0
  0
LINE
  5
1B5
330
1A
100
AcDbEntity
  8
SEIHIN
 48
5.0
100
AcDbLine
 10
124.3842375339079
 20
121.4644690880065
 30
0.0
 11
119.5768199374078
 21
119.5415020494065
 31
0.0
  0
ARC
  5
1B6
330
1A
100
AcDbEntity
  8
SEIHIN
 48
5.0
100
AcDbCircle
 10
111.5768199374078
 20
119.4644690880065
 30
0.0
 40
2.0
100
AcDbArc
 50
90.0
 51
180.0
  0
ARC
  5
1B7
330
1A
100
AcDbEntity
  8
SEIHIN
 48
5.0
100
AcDbCircle
 10
111.5768199374078
 20
119.4644690880065
 30
0.0
 40
1.0
100
AcDbArc
 50
90.0
 51
180.0
  0
LINE
  5
1C5
330
1A
100
AcDbEntity
  8
SEIHIN
 48
5.0
100
AcDbLine
 10
273.6595624707738
 20
85.46446908800632
 30
0.0
 11
273.6595624707738
 21
121.4644690880063
 31
0.0
  0
LINE
  5
1C6
330
1A
100
AcDbEntity
  8
SEIHIN
 48
5.0
100
AcDbLine
 10
293.6595624707738
 20
121.4644690880063
 30
0.0
 11
293.6595624707738
 21
85.4644690880063
 31
0.0
  0
LINE
  5
1C7
330
1A
100
AcDbEntity
  8
SEIHIN
 48
5.0
100
AcDbLine
 10
293.6595624707738
 20
85.4644690880063
 30
0.0
 11
273.6595624707738
 21
85.46446908800632
 31
0.0
  0
LINE
  5
1C8
330
1A
100
AcDbEntity
  8
SEIHIN
 48
5.0
100
AcDbLine
 10
273.6595624707738
 20
121.4644690880063
 30
0.0
 11
293.6595624707738
 21
121.4644690880063
 31
0.0
  0
LINE
  5
1CA
330
1A
100
AcDbEntity
  8
SEIHIN
 48
5.0
100
AcDbLine
 10
273.6319624706739
 20
121.4644690880063
 30
0.0
 11
293.6871624708738
 21
121.4644690880063
 31
0.0
  0
LINE
  5
1DE
330
1A
100
AcDbEntity
  8
CENTER_L
 48
5.0
100
AcDbLine
 10
283.6595624707738
 20
82.1623283331753
 30
0.0
 11
283.6595624707738
 21
202.6566517182573
 31
0.0
  0
LINE
  5
1E5
330
1A
100
AcDbEntity
  8
SEIHIN
 48
5.0
100
AcDbLine
 10
293.6595624707738
 20
120.4644690880065
 30
0.0
 11
273.6595624707738
 21
120.4644690880065
 31
0.0
  0
LINE
  5
1E6
330
1A
100
AcDbEntity
  8
SEIHIN
 48
5.0
100
AcDbLine
 10
293.6595624707738
 20
118.4644690880065
 30
0.0
 11
273.6595624707738
 21
118.4644690880065
 31
0.0
  0
LINE
  5
1E7
330
1A
100
AcDbEntity
  8
SEIHIN
 48
5.0
100
AcDbLine
 10
293.6595624707738
 20
86.46446908800649
 30
0.0
 11
273.6595624707738
 21
86.46446908800649
 31
0.0
  0
LINE
  5
1E8
330
1A
100
AcDbEntity
  8
SEIHIN
 48
5.0
100
AcDbLine
 10
293.6595624707738
 20
90.46402878810647
 30
0.0
 11
273.6595624707738
 21
90.46402878810647
 31
0.0
  0
LINE
  5
1EA
330
1A
100
AcDbEntity
  8
SEIHIN
 48
5.0
100
AcDbLine
 10
126.076805975708
 20
118.464401635598
 30
0.0
 11
133.0768059757079
 21
118.4644365393952
 31
0.0
  0
LINE
  5
1EE
330
1A
100
AcDbEntity
  8
SEIHIN
 48
5.0
100
AcDbLine
 10
133.0768059757079
 20
118.4644365393952
 30
0.0
 11
133.0767960026393
 21
120.4645365393952
 31
0.0
  0
LINE
  5
1EF
330
1A
100
AcDbEntity
  8
SEIHIN
 48
5.0
100
AcDbLine
 10
126.076805975708
 20
118.4644016356952
 30
0.0
 11
126.0767960032364
 21
120.4644016356952
 31
0.0
  0
DIMENSION
  5
1FF
330
1A
100
AcDbEntity
  8
SUNPOU
 48
5.0
100
AcDbDimension
  2
*D1
 10
182.2189522911946
 20
90.46402878810646
 30
0.0
 11
179.7189522911946
 21
104.4642489380565
 31
0.0
 70
    32
  3
STANDARD
100
AcDbAlignedDimension
 13
149.5768199374079
 23
118.4644690880065
 33
0.0
 14
140.5768199374078
 24
90.46402878810647
 34
0.0
 50
90.0
100
AcDbRotatedDimension
1001
ACAD
1000
DSTYLE
1002
{
1070
   140
1040
3.0
1070
    74
1070
     0
1070
   172
1070
     1
1070
    73
1070
     0
1070
   272
1070
     2
1070
    77
1070
     3
1070
   173
1070
     1
1070
   147
1040
1.0
1070
    42
1040
3.0
1070
    44
1040
1.5
1070
    43
1040
7.0
1070
   271
1070
     0
1070
   178
1070
     4
1070
   177
1070
     4
1070
   176
1070
     4
1070
   141
1040
150.0
1070
     7
1000
_OPEN
1070
     6
1000
_OPEN
1070
    41
1040
3.0
1002
}
  0
DIMENSION
  5
21B
330
1A
100
AcDbEntity
  8
SUNPOU
 48
5.0
100
AcDbDimension
  2
*D2
 10
125.2553750602144
 20
85.4644690880065
 30
0.0
 11
122.7553750602144
 21
74.7144690880065
 31
0.0
 70
    32
  1
t<>
  3
STANDARD
100
AcDbAlignedDimension
 13
111.5768199374078
 23
86.46446908800649
 33
0.0
 14
111.5768199374078
 24
85.4644690880065
 34
0.0
 50
90.0
100
AcDbRotatedDimension
1001
ACAD
1000
DSTYLE
1002
{
1070
   140
1040
3.0
1070
    74
1070
     0
1070
   172
1070
     1
1070
    73
1070
     0
1070
   272
1070
     2
1070
    77
1070
     3
1070
   173
1070
     1
1070
   147
1040
1.0
1070
    42
1040
3.0
1070
    44
1040
1.5
1070
    43
1040
7.0
1070
   271
1070
     1
1070
   178
1070
     4
1070
   177
1070
     4
1070
   176
1070
     4
1070
   141
1040
150.0
1070
     7
1000
_OPEN
1070
     6
1000
_OPEN
1070
    41
1040
3.0
1002
}
  0
DIMENSION
  5
242
330
1A
100
AcDbEntity
  8
SUNPOU
 48
5.0
100
AcDbDimension
  2
*D3
 10
109.5768199374079
 20
238.430366062131
 30
0.0
 11
134.0768199374078
 21
240.930366062131
 31
0.0
 70
    32
  3
STANDARD
100
AcDbAlignedDimension
 13
158.5768199374078
 23
121.4644690880065
 33
0.0
 14
109.5768199374078
 24
119.4644690880065
 34
0.0
100
AcDbRotatedDimension
1001
ACAD
1000
DSTYLE
1002
{
1070
   140
1040
3.0
1070
    74
1070
     0
1070
   172
1070
     1
1070
    73
1070
     0
1070
   272
1070
     2
1070
    77
1070
     3
1070
   173
1070
     1
1070
   147
1040
1.0
1070
    42
1040
3.0
1070
    44
1040
1.5
1070
    43
1040
7.0
1070
   271
1070
     0
1070
   178
1070
     4
1070
   177
1070
     4
1070
   176
1070
     4
1070
   141
1040
150.0
1070
     7
1000
_OPEN
1070
     6
1000
_OPEN
1070
    41
1040
3.0
1002
}
  0
DIMENSION
  5
293
330
1A
100
AcDbEntity
  8
SUNPOU
 48
5.0
100
AcDbDimension
  2
*D4
 10
109.5768199374078
 20
51.96883480320764
 30
0.0
 11
130.5768199374078
 21
54.46883480320764
 31
0.0
 70
    32
  3
STANDARD
100
AcDbAlignedDimension
 13
151.5768199374079
 23
85.4644690880065
 33
0.0
 14
109.5768199374078
 24
87.46446908800649
 34
0.0
100
AcDbRotatedDimension
1001
ACAD
1000
DSTYLE
1002
{
1070
   140
1040
3.0
1070
    74
1070
     0
1070
   172
1070
     1
1070
    73
1070
     0
1070
   272
1070
     2
1070
    77
1070
     3
1070
   173
1070
     1
1070
   147
1040
1.0
1070
    42
1040
3.0
1070
    44
1040
1.5
1070
    43
1040
7.0
1070
   271
1070
     0
1070
   178
1070
     4
1070
   177
1070
     4
1070
   176
1070
     4
1070
   141
1040
150.0
1070
     7
1000
_OPEN
1070
     6
1000
_OPEN
1070
    41
1040
3.0
1002
}
  0
DIMENSION
  5
2BE
330
1A
100
AcDbEntity
  8
SUNPOU
 48
5.0
100
AcDbDimension
  2
*D5
 10
293.6595624707738
 20
60.81767673000581
 30
0.0
 11
283.6595624707738
 21
63.31767673000581
 31
0.0
 70
    32
  3
STANDARD
100
AcDbAlignedDimension
 13
273.6595624707738
 23
85.46446908800632
 33
0.0
 14
293.6595624707738
 24
85.4644690880063
 34
0.0
100
AcDbRotatedDimension
1001
ACAD
1000
DSTYLE
1002
{
1070
   140
1040
3.0
1070
    74
1070
     0
1070
   172
1070
     1
1070
    73
1070
     0
1070
   272
1070
     2
1070
    77
1070
     3
1070
   173
1070
     1
1070
   147
1040
1.0
1070
    42
1040
3.0
1070
    44
1040
1.5
1070
    43
1040
7.0
1070
   271
1070
     0
1070
   178
1070
     4
1070
   177
1070
     4
1070
   176
1070
     4
1070
   141
1040
150.0
1070
     7
1000
_OPEN
1070
     6
1000
_OPEN
1070
    41
1040
3.0
1002
}
  0
LINE
  5
356
330
1A
100
AcDbEntity
  8
SEIHIN
 48
5.0
100
AcDbLine
 10
290.6595624707739
 20
121.4644690880065
 30
0.0
 11
290.6595624707739
 21
120.4644690880065
 31
0.0
  0
LINE
  5
357
330
1A
100
AcDbEntity
  8
SEIHIN
 48
5.0
100
AcDbLine
 10
290.6595624707738
 20
86.4644690880063
 30
0.0
 11
290.6595624707738
 21
85.4644690880063
 31
0.0
  0
LINE
  5
358
330
1A
100
AcDbEntity
  8
SEIHIN
 48
5.0
100
AcDbLine
 10
276.6595624707738
 20
86.4644690880063
 30
0.0
 11
276.6595624707738
 21
85.4644690880063
 31
0.0
  0
LINE
  5
359
330
1A
100
AcDbEntity
  8
SEIHIN
 48
5.0
100
AcDbLine
 10
276.6595624707737
 20
121.4644690880065
 30
0.0
 11
276.6595624707737
 21
120.4644690880065
 31
0.0
  0
DIMENSION
  5
36A
330
1A
100
AcDbEntity
  8
SUNPOU
 48
5.0
100
AcDbDimension
  2
*D6
 10
200.6655619951941
 20
85.46446908800648
 30
0.0
 11
198.1655619951941
 21
103.4644690880065
 31
0.0
 70
    32
  3
STANDARD
100
AcDbAlignedDimension
 13
158.5768199374078
 23
121.4644690880065
 33
0.0
 14
151.5768199374079
 24
85.4644690880065
 34
0.0
 50
90.0
100
AcDbRotatedDimension
1001
ACAD
1000
DSTYLE
1002
{
1070
   140
1040
3.0
1070
    74
1070
     0
1070
   172
1070
     1
1070
    73
1070
     0
1070
   272
1070
     2
1070
    77
1070
     3
1070
   173
1070
     1
1070
   147
1040
1.0
1070
    42
1040
3.0
1070
    44
1040
1.5
1070
    43
1040
7.0
1070
   271
1070
     0
1070
   178
1070
     4
1070
   177
1070
     4
1070
   176
1070
     4
1070
   141
1040
150.0
1070
     7
1000
_OPEN
1070
     6
1000
_OPEN
1070
    41
1040
3.0
1002
}
  0
TEXT
  5
37D
330
1A
100
AcDbEntity
  8
ZUWAKU
 48
5.0
100
AcDbText
 10
25.22486411117233
 20
8.200497435100942
 30
0.0
 40
4.0
  1
丸トップ　たてとい
100
AcDbText
  0
LINE
  5
4BD
330
1A
100
AcDbEntity
  8
SEIHIN
  6
CONTINUOUS
 62
     3
 48
5.0
100
AcDbLine
 10
136.0768199374078
 20
196.4644690880065
 30
0.0
 11
136.0768199374078
 21
145.9524690880065
 31
0.0
  0
LINE
  5
4BE
330
1A
100
AcDbEntity
  8
SEIHIN
  6
CONTINUOUS
 62
     3
 48
5.0
100
AcDbLine
 10
123.0768199374079
 20
196.4644690880065
 30
0.0
 11
123.0768199374079
 21
145.9524690880065
 31
0.0
  0
LINE
  5
4BF
330
1A
100
AcDbEntity
  8
CENTER_L
 48
5.0
100
AcDbLine
 10
129.5768199374078
 20
201.9327797053329
 30
0.0
 11
129.5768199374078
 21
115.8288459177896
 31
0.0
  0
LINE
  5
4C0
330
1A
100
AcDbEntity
  8
SEIHIN
  6
CONTINUOUS
 62
     3
 48
5.0
100
AcDbLine
 10
138.5768199374078
 20
195.4644690880065
 30
0.0
 11
138.5768199374078
 21
121.4644690880065
 31
0.0
  0
LINE
  5
4C1
330
1A
100
AcDbEntity
  8
SEIHIN
  6
CONTINUOUS
 62
     3
 48
5.0
100
AcDbLine
 10
120.5768199374079
 20
195.4644690880065
 30
0.0
 11
120.5768199374079
 21
121.4644690880065
 31
0.0
  0
LINE
  5
4D6
330
1A
100
AcDbEntity
  8
SEIHIN
  6
CONTINUOUS
 62
     3
 48
5.0
100
AcDbLine
 10
123.0768199374079
 20
141.9643690880067
 30
0.0
 11
123.0768199374079
 21
121.4644690880065
 31
0.0
  0
LINE
  5
4D7
330
1A
100
AcDbEntity
  8
SEIHIN
  6
CONTINUOUS
 62
     3
 48
5.0
100
AcDbLine
 10
136.0768199374078
 20
141.9643690880067
 30
0.0
 11
136.0768199374078
 21
121.4644690880065
 31
0.0
  0
LINE
  5
4DC
330
1A
100
AcDbEntity
  8
SEIHIN
  6
CONTINUOUS
 62
     3
 48
5.0
100
AcDbLine
 10
120.5768199374079
 20
121.4644690880065
 30
0.0
 11
138.5768199374078
 21
121.4644690880065
 31
0.0
  0
LINE
  5
4EE
330
1A
100
AcDbEntity
  8
SEIHIN
  6
CONTINUOUS
 62
     3
 48
5.0
100
AcDbLine
 10
131.5769199374079
 20
146.6359690880066
 30
0.0
 11
129.5769199374079
 21
146.6359690880066
 31
0.0
  0
LINE
  5
4EF
330
1A
100
AcDbEntity
  8
SEIHIN
  6
CONTINUOUS
 62
     3
 48
5.0
100
AcDbLine
 10
120.5768199374079
 20
145.9523690880065
 30
0.0
 11
138.5768199374078
 21
145.9523690880065
 31
0.0
  0
LINE
  5
4F0
330
1A
100
AcDbEntity
  8
SEIHIN
  6
CONTINUOUS
 62
     3
 48
5.0
100
AcDbLine
 10
136.0768199374078
 20
134.1647690880065
 30
0.0
 11
129.5768199374079
 21
134.1647690880065
 31
0.0
  0
LINE
  5
4F1
330
1A
100
AcDbEntity
  8
SEIHIN
  6
CONTINUOUS
 62
     3
 48
5.0
100
AcDbLine
 10
120.5768199374079
 20
135.1647690880067
 30
0.0
 11
123.0768199374079
 21
134.1647690880065
 31
0.0
  0
LINE
  5
4F2
330
1A
100
AcDbEntity
  8
SEIHIN
  6
CONTINUOUS
 62
     3
 48
5.0
100
AcDbLine
 10
123.0768199374079
 20
134.1647690880065
 30
0.0
 11
129.5768199374079
 21
134.1647690880065
 31
0.0
  0
LINE
  5
4F3
330
1A
100
AcDbEntity
  8
SEIHIN
  6
CONTINUOUS
 62
     3
 48
5.0
100
AcDbLine
 10
123.0768199374079
 20
141.9643690880067
 30
0.0
 11
120.5768199374079
 21
144.4967690880067
 31
0.0
  0
LINE
  5
4F4
330
1A
100
AcDbEntity
  8
SEIHIN
  6
CONTINUOUS
 62
     3
 48
5.0
100
AcDbLine
 10
127.5767199374079
 20
146.6359690880066
 30
0.0
 11
129.5767199374079
 21
146.6359690880066
 31
0.0
  0
LINE
  5
4F5
330
1A
100
AcDbEntity
  8
SEIHIN
  6
CONTINUOUS
 62
     3
 48
5.0
100
AcDbLine
 10
127.5768199374079
 20
146.6359690880066
 30
0.0
 11
127.5768199374079
 21
145.9524690880065
 31
0.0
  0
LINE
  5
4F6
330
1A
100
AcDbEntity
  8
SEIHIN
  6
CONTINUOUS
 62
     3
 48
5.0
100
AcDbLine
 10
138.5768199374078
 20
135.1647690880067
 30
0.0
 11
136.0768199374078
 21
134.1647690880065
 31
0.0
  0
LINE
  5
4F7
330
1A
100
AcDbEntity
  8
SEIHIN
  6
CONTINUOUS
 62
     3
 48
5.0
100
AcDbLine
 10
131.5768199374078
 20
146.6359690880066
 30
0.0
 11
131.5768199374078
 21
145.9524690880065
 31
0.0
  0
LINE
  5
4F8
330
1A
100
AcDbEntity
  8
SEIHIN
  6
CONTINUOUS
 62
     3
 48
5.0
100
AcDbLine
 10
136.0768199374078
 20
141.9643690880067
 30
0.0
 11
138.5768199374078
 21
144.4967690880067
 31
0.0
  0
DIMENSION
  5
4FF
330
1A
100
AcDbEntity
  8
SUNPOU
  6
CONTINUOUS
 48
5.0
100
AcDbDimension
  2
*D7
 10
120.5768199374079
 20
230.4927207888741
 30
0.0
 11
129.1223560228886
 21
232.9431680972003
 31
0.0
 70
   160
  3
STANDARD
100
AcDbAlignedDimension
 13
138.5768199374078
 23
195.4644690880065
 33
0.0
 14
120.5768199374079
 24
195.4644690880065
 34
0.0
100
AcDbRotatedDimension
1001
ACAD
1000
DSTYLE
1002
{
1070
   287
1070
     5
1070
   287
1070
     5
1070
   287
1070
     5
1070
   287
1070
     5
1070
   287
1070
     5
1070
    41
1040
3.0
1070
    42
1040
3.0
1070
    43
1040
7.0
1070
    44
1040
1.5
1070
    73
1070
     0
1070
    74
1070
     0
1070
    77
1070
     3
1070
   140
1040
3.0
1070
   141
1040
150.0
1070
   147
1040
1.0
1070
   172
1070
     1
1070
   173
1070
     1
1070
   176
1070
     4
1070
   177
1070
     4
1070
   178
1070
     4
1070
   271
1070
     0
1070
   272
1070
     2
1070
   279
1070
     2
1070
   288
1070
     1
1070
     6
1000
OPEN
1070
     7
1000
OPEN
1002
}
  0
LINE
  5
500
330
1A
100
AcDbEntity
  8
SEIHIN
  6
CONTINUOUS
 62
     3
 48
5.0
100
AcDbLine
 10
136.0768199374078
 20
196.4644690880065
 30
0.0
 11
129.5768199374079
 21
196.4644690880065
 31
0.0
  0
LINE
  5
501
330
1A
100
AcDbEntity
  8
SEIHIN
  6
CONTINUOUS
 62
     3
 48
5.0
100
AcDbLine
 10
120.5768199374079
 20
195.4644690880065
 30
0.0
 11
123.0768199374079
 21
196.4644690880065
 31
0.0
  0
LINE
  5
502
330
1A
100
AcDbEntity
  8
SEIHIN
  6
CONTINUOUS
 62
     3
 48
5.0
100
AcDbLine
 10
123.0768199374079
 20
196.4644690880065
 30
0.0
 11
129.5768199374079
 21
196.4644690880065
 31
0.0
  0
LINE
  5
503
330
1A
100
AcDbEntity
  8
SEIHIN
  6
CONTINUOUS
 62
     3
 48
5.0
100
AcDbLine
 10
138.5768199374078
 20
195.4644690880065
 30
0.0
 11
136.0768199374078
 21
196.4644690880065
 31
0.0
  0
ARC
  5
504
330
1A
100
AcDbEntity
  8
SEIHIN
  6
CONTINUOUS
 62
     3
 48
5.0
100
AcDbCircle
 10
283.6595619360417
 20
163.464372113655
 30
0.0
 40
30.00002224349183
100
AcDbArc
 50
323.1303657241727
 51
56.91475028497221
  0
DIMENSION
  5
505
330
1A
100
AcDbEntity
  8
SUNPOU
 48
5.0
100
AcDbDimension
  2
*D8
 10
256.8539956031815
 20
176.935190506931
 30
0.0
 11
295.5412699351833
 21
157.4933611426178
 31
0.0
 70
   163
  3
STANDARD
100
AcDbDiametricDimension
 15
310.4651282689022
 25
149.9935537203787
 35
0.0
 40
0.0
1001
ACAD
1000
DSTYLE
1002
{
1070
    41
1040
3.0
1070
    42
1040
3.0
1070
    43
1040
7.0
1070
    44
1040
1.5
1070
    73
1070
     0
1070
    74
1070
     0
1070
    77
1070
     3
1070
   140
1040
3.0
1070
   141
1040
150.0
1070
   147
1040
1.0
1070
   172
1070
     1
1070
   173
1070
     1
1070
   176
1070
     4
1070
   177
1070
     4
1070
   178
1070
     4
1070
   271
1070
     0
1070
   272
1070
     2
1070
   288
1070
     1
1070
   341
1005
B2
1070
     6
1000
OPEN
1070
     7
1000
OPEN
1002
}
  0
ARC
  5
506
330
1A
100
AcDbEntity
  8
SEIHIN
  6
CONTINUOUS
 62
     3
 48
5.0
100
AcDbCircle
 10
283.6595787825608
 20
163.4643868127835
 30
0.0
 40
30.00000073140751
100
AcDbArc
 50
56.91476191784817
 51
217.8396642833198
  0
ARC
  5
508
330
1A
100
AcDbEntity
  8
SEIHIN
  6
CONTINUOUS
 62
     3
 48
5.0
100
AcDbCircle
 10
283.6595709929594
 20
163.4643696924139
 30
0.0
 40
33.00002004400853
100
AcDbArc
 50
335.4801257385076
 51
212.6332982330827
  0
ARC
  5
509
330
1A
100
AcDbEntity
  8
SEIHIN
  6
CONTINUOUS
 62
     3
 48
5.0
100
AcDbCircle
 10
283.6595529501585
 20
163.4643681425286
 30
0.0
 40
31.99997718139744
100
AcDbArc
 50
334.8942121785948
 51
216.44852777225
  0
ARC
  5
511
330
1A
100
AcDbEntity
  8
SEIHIN
  6
CONTINUOUS
 62
     3
 48
5.0
100
AcDbCircle
 10
283.6597268146562
 20
163.46436914137
 30
0.0
 40
30.99997257768559
100
AcDbArc
 50
244.3206234143024
 51
295.7160327893983
  0
LINE
  5
512
330
1A
100
AcDbEntity
  8
SEIHIN
  6
CONTINUOUS
 62
     3
 48
5.0
100
AcDbLine
 10
276.6595624707738
 20
121.4644690880063
 30
0.0
 11
290.6595624707738
 21
121.4644690880063
 31
0.0
  0
ARC
  5
513
330
1A
100
AcDbEntity
  8
SEIHIN
  6
CONTINUOUS
 62
     3
 48
5.0
100
AcDbCircle
 10
283.6595360599076
 20
163.4643788319523
 30
0.0
 40
29.99997683991848
100
AcDbArc
 50
231.4083080221061
 51
268.0900269144306
  0
ARC
  5
514
330
1A
100
AcDbEntity
  8
SEIHIN
  6
CONTINUOUS
 62
     3
 48
5.0
100
AcDbCircle
 10
311.6595624707738
 20
141.4644690880063
 30
0.0
 40
2.400000000000005
100
AcDbArc
 50
270.0
 51
90.0
  0
ARC
  5
515
330
1A
100
AcDbEntity
  8
SEIHIN
  6
CONTINUOUS
 62
     3
 48
5.0
100
AcDbCircle
 10
311.6595624707738
 20
141.4644690880063
 30
0.0
 40
2.25
100
AcDbArc
 50
270.0
 51
90.0
  0
LINE
  5
516
330
1A
100
AcDbEntity
  8
CENTER_L
  6
CENTER
 62
     1
 48
5.0
100
AcDbLine
 10
320.3015944887912
 20
141.4644690880062
 30
0.0
 11
303.0175304527563
 21
141.4644690880062
 31
0.0
  0
ARC
  5
517
330
1A
100
AcDbEntity
  8
SEIHIN
  6
CONTINUOUS
 62
     3
 48
5.0
100
AcDbCircle
 10
313.5418801403315
 20
149.4627421802436
 30
0.0
 40
1.000007787236081
100
AcDbArc
 50
154.8921427735657
 51
271.6894447532726
  0
ARC
  5
518
330
1A
100
AcDbEntity
  8
SEIHIN
  6
CONTINUOUS
 62
     3
 48
5.0
100
AcDbCircle
 10
311.6595611392468
 20
141.4644288612047
 30
0.0
 40
4.999979552968912
100
AcDbArc
 50
221.2080105160423
 51
134.9996632578525
  0
ARC
  5
51A
330
1A
100
AcDbEntity
  8
SEIHIN
  6
CONTINUOUS
 62
     3
 48
5.0
100
AcDbCircle
 10
313.659554960675
 20
145.4644830505767
 30
0.0
 40
2.999985585773595
100
AcDbArc
 50
324.8624897523932
 51
91.68651397791736
  0
ARC
  5
51B
330
1A
100
AcDbEntity
  8
SEIHIN
  6
CONTINUOUS
 62
     3
 48
5.0
100
AcDbCircle
 10
314.5932732996748
 20
149.3539468771577
 30
0.0
 40
0.9999995899415395
100
AcDbArc
 50
155.4792740687245
 51
256.5020292841533
  0
ARC
  5
51C
330
1A
100
AcDbEntity
  8
SEIHIN
  6
CONTINUOUS
 62
     3
 48
5.0
100
AcDbCircle
 10
293.6595352646937
 20
127.8413331930336
 30
0.0
 40
2.999972794134695
100
AcDbArc
 50
105.6797418545524
 51
179.9993144503018
  0
ARC
  5
51D
330
1A
100
AcDbEntity
  8
SEIHIN
  6
CONTINUOUS
 62
     3
 48
5.0
100
AcDbCircle
 10
293.659546746962
 20
127.8413483423062
 30
0.0
 40
3.999984276241949
100
AcDbArc
 50
105.6804608958097
 51
179.9997028385675
  0
ARC
  5
51E
330
1A
100
AcDbEntity
  8
SEIHIN
  6
CONTINUOUS
 62
     3
 48
5.0
100
AcDbCircle
 10
283.6596471338866
 20
163.4644158479574
 30
0.0
 40
33.99995498781402
100
AcDbArc
 50
285.680242163707
 51
312.1437139407647
  0
LINE
  5
525
330
1A
100
AcDbEntity
  8
SEIHIN
  6
CONTINUOUS
 62
     3
 48
5.0
100
AcDbLine
 10
276.6595624707738
 20
121.4644690880063
 30
0.0
 11
276.6595624707738
 21
127.8413690880063
 31
0.0
  0
LINE
  5
526
330
1A
100
AcDbEntity
  8
SEIHIN
  6
CONTINUOUS
 62
     3
 48
5.0
100
AcDbLine
 10
277.6595624707738
 20
121.4644690880063
 30
0.0
 11
277.6595624707738
 21
127.8413690880063
 31
0.0
  0
ARC
  5
527
330
1A
100
AcDbEntity
  8
SEIHIN
  6
CONTINUOUS
 62
     3
 48
5.0
100
AcDbCircle
 10
283.659615834686
 20
163.4643968914136
 30
0.0
 40
29.99999399103715
100
AcDbArc
 50
271.9099204880748
 51
323.1302661034777
  0
ARC
  5
528
330
1A
100
AcDbEntity
  8
SEIHIN
  6
CONTINUOUS
 62
     3
 48
5.0
100
AcDbCircle
 10
283.6596575897167
 20
163.4644198633895
 30
0.0
 40
32.99996009043882
100
AcDbArc
 50
285.6803442712564
 51
310.5067251357155
  0
ARC
  5
529
330
1A
100
AcDbEntity
  8
SEIHIN
  6
CONTINUOUS
 62
     3
 48
5.0
100
AcDbCircle
 10
311.6595624707738
 20
141.4644690880063
 30
0.0
 40
2.400000000000005
100
AcDbArc
 50
90.0
 51
270.0
  0
ARC
  5
52A
330
1A
100
AcDbEntity
  8
SEIHIN
  6
CONTINUOUS
 62
     3
 48
5.0
100
AcDbCircle
 10
311.6595624707738
 20
141.4644690880063
 30
0.0
 40
2.25
100
AcDbArc
 50
90.0
 51
270.0
  0
LINE
  5
52B
330
1A
100
AcDbEntity
  8
CENTER_L
  6
CENTER
 62
     1
 48
5.0
100
AcDbLine
 10
311.6595624707738
 20
150.1065011060237
 30
0.0
 11
311.6595624707738
 21
132.8224370699888
 31
0.0
  0
ARC
  5
52C
330
1A
100
AcDbEntity
  8
SEIHIN
  6
CONTINUOUS
 62
     3
 48
5.0
100
AcDbCircle
 10
306.3933562881828
 20
136.8527695356389
 30
0.0
 40
2.000042968288538
100
AcDbArc
 50
41.21113102868036
 51
130.5063978602462
  0
ARC
  5
52D
330
1A
100
AcDbEntity
  8
SEIHIN
  6
CONTINUOUS
 62
     3
 48
5.0
100
AcDbCircle
 10
307.1443497075907
 20
137.5131698311777
 30
0.0
 40
0.9999483636654158
100
AcDbArc
 50
41.18810665101295
 51
132.1459835182186
  0
ARC
  5
52E
330
1A
100
AcDbEntity
  8
SEIHIN
  6
CONTINUOUS
 62
     3
 48
5.0
100
AcDbCircle
 10
296.6595848887766
 20
136.4274047412664
 30
0.0
 40
0.9999775826328592
100
AcDbArc
 50
295.6763617862555
 51
359.9979571728741
  0
LINE
  5
52F
330
1A
100
AcDbEntity
  8
SEIHIN
  6
CONTINUOUS
 62
     3
 48
5.0
100
AcDbLine
 10
297.6595624707738
 20
136.9313690880062
 30
0.0
 11
297.6595624707738
 21
136.4273690880063
 31
0.0
  0
LINE
  5
530
330
1A
100
AcDbEntity
  8
SEIHIN
  6
CONTINUOUS
 62
     3
 48
5.0
100
AcDbLine
 10
308.1240624707738
 20
144.9999690880063
 30
0.0
 11
307.6595624707738
 21
145.4643690880063
 31
0.0
  0
LINE
  5
531
330
1A
100
AcDbEntity
  8
SEIHIN
  6
CONTINUOUS
 62
     3
 48
5.0
100
AcDbLine
 10
308.1240624707738
 20
144.9999690880063
 30
0.0
 11
307.6595624707738
 21
145.4643690880063
 31
0.0
  0
ARC
  5
532
330
1A
100
AcDbEntity
  8
SEIHIN
  6
CONTINUOUS
 62
     3
 48
5.0
100
AcDbCircle
 10
283.6595624707738
 20
133.4643690880063
 30
0.0
 40
1.000039449221876
100
AcDbArc
 50
179.0431537514014
 51
0.956846248598612
  0
ARC
  5
533
330
1A
100
AcDbEntity
  8
SEIHIN
  6
CONTINUOUS
 62
     3
 48
5.0
100
AcDbCircle
 10
273.659589676854
 20
127.8413331930335
 30
0.0
 40
2.999972794134699
100
AcDbArc
 50
0.0006855496981338
 51
74.32025814544752
  0
ARC
  5
534
330
1A
100
AcDbEntity
  8
SEIHIN
  6
CONTINUOUS
 62
     3
 48
5.0
100
AcDbCircle
 10
273.6595781945857
 20
127.8413483423062
 30
0.0
 40
3.999984276242003
100
AcDbArc
 50
0.0002971614341018
 51
74.31953910419188
  0
ARC
  5
535
330
1A
100
AcDbEntity
  8
SEIHIN
  6
CONTINUOUS
 62
     3
 48
5.0
100
AcDbCircle
 10
283.659650205054
 20
163.464326556132
 30
0.0
 40
34.00001189145251
100
AcDbArc
 50
233.9537813543719
 51
254.3194830061572
  0
LINE
  5
53B
330
1A
100
AcDbEntity
  8
SEIHIN
  6
CONTINUOUS
 62
     3
 48
5.0
100
AcDbLine
 10
290.6595624707738
 20
121.4644690880063
 30
0.0
 11
290.6595624707738
 21
127.8413690880063
 31
0.0
  0
LINE
  5
53C
330
1A
100
AcDbEntity
  8
SEIHIN
  6
CONTINUOUS
 62
     3
 48
5.0
100
AcDbLine
 10
289.6595624707738
 20
121.4644690880063
 30
0.0
 11
289.6595624707738
 21
127.8413690880063
 31
0.0
  0
ARC
  5
53E
330
1A
100
AcDbEntity
  8
SEIHIN
  6
CONTINUOUS
 62
     3
 48
5.0
100
AcDbCircle
 10
263.0643437961224
 20
135.1653723427503
 30
0.0
 40
1.999976018987851
100
AcDbArc
 50
53.95528902156104
 51
130.6320225007137
  0
ARC
  5
53F
330
1A
100
AcDbEntity
  8
SEIHIN
  6
CONTINUOUS
 62
     3
 48
5.0
100
AcDbCircle
 10
262.8880469726343
 20
137.4367672127085
 30
0.0
 40
3.300043063354758
100
AcDbArc
 50
51.40697626332427
 51
142.3913093391848
  0
ARC
  5
540
330
1A
100
AcDbEntity
  8
SEIHIN
  6
CONTINUOUS
 62
     3
 48
5.0
100
AcDbCircle
 10
263.0642680478759
 20
135.1653693111199
 30
0.0
 40
0.9999987875029436
100
AcDbArc
 50
53.94970891253971
 51
130.6326186193247
  0
ARC
  5
541
330
1A
100
AcDbEntity
  8
SEIHIN
  6
CONTINUOUS
 62
     3
 48
5.0
100
AcDbCircle
 10
283.659653495812
 20
163.4643249607735
 30
0.0
 40
32.99998828037068
100
AcDbArc
 50
233.9536635645488
 51
254.3195141205757
  0
ARC
  5
542
330
1A
100
AcDbEntity
  8
SEIHIN
  6
CONTINUOUS
 62
     3
 48
5.0
100
AcDbCircle
 10
270.659540052771
 20
136.4274047412664
 30
0.0
 40
0.9999775826328388
100
AcDbArc
 50
180.0020428271226
 51
244.3236382137378
  0
LINE
  5
543
330
1A
100
AcDbEntity
  8
SEIHIN
  6
CONTINUOUS
 62
     3
 48
5.0
100
AcDbLine
 10
269.6595624707738
 20
136.9313690880062
 30
0.0
 11
269.6595624707738
 21
136.4273690880063
 31
0.0
  0
LINE
  5
544
330
1A
100
AcDbEntity
  8
SEIHIN
  6
CONTINUOUS
 62
     3
 48
5.0
100
AcDbLine
 10
251.3595624707738
 20
141.4644690880062
 30
0.0
 11
251.3595624707738
 21
144.6102690880062
 31
0.0
  0
LINE
  5
545
330
1A
100
AcDbEntity
  8
SEIHIN
  6
CONTINUOUS
 62
     3
 48
5.0
100
AcDbLine
 10
250.3595624707738
 20
141.4644690880062
 30
0.0
 11
250.3595624707738
 21
141.9644690880062
 31
0.0
  0
ARC
  5
546
330
1A
100
AcDbEntity
  8
SEIHIN
  6
CONTINUOUS
 62
     3
 48
5.0
100
AcDbCircle
 10
256.4138612957267
 20
142.3002036994698
 30
0.0
 40
4.500044480377723
100
AcDbArc
 50
326.1436029468851
 51
37.74453165839751
  0
ARC
  5
547
330
1A
100
AcDbEntity
  8
SEIHIN
  6
CONTINUOUS
 62
     3
 48
5.0
100
AcDbCircle
 10
257.6595493868944
 20
141.4644919039383
 30
0.0
 40
3.300017459728334
100
AcDbArc
 50
97.27149521603648
 51
322.3926995915996
  0
ARC
  5
548
330
1A
100
AcDbEntity
  8
SEIHIN
  6
CONTINUOUS
 62
     3
 48
5.0
100
AcDbCircle
 10
257.659563242479
 20
141.4644869045672
 30
0.0
 40
3.000017816561054
100
AcDbArc
 50
85.03967509317989
 51
269.9999852616031
  0
ARC
  5
549
330
1A
100
AcDbEntity
  8
SEIHIN
  6
CONTINUOUS
 62
     3
 48
5.0
100
AcDbCircle
 10
257.6595480286219
 20
141.4644757261281
 30
0.0
 40
7.299985557851063
100
AcDbArc
 50
180.0000521009762
 51
310.6296956503592
  0
ARC
  5
54A
330
1A
100
AcDbEntity
  8
SEIHIN
  6
CONTINUOUS
 62
     3
 48
5.0
100
AcDbCircle
 10
257.6595449786618
 20
141.4644771278402
 30
0.0
 40
6.299982507893
100
AcDbArc
 50
180.0000731190212
 51
310.6305666822373
  0
ARC
  5
54B
330
1A
100
AcDbEntity
  8
SEIHIN
  6
CONTINUOUS
 62
     3
 48
5.0
100
AcDbCircle
 10
257.6595086225595
 20
141.4644403710647
 30
0.0
 40
2.999971283541721
100
AcDbArc
 50
270.0010284349825
 51
326.1425129467369
  0
ARC
  5
54C
330
1A
100
AcDbEntity
  8
SEIHIN
  6
CONTINUOUS
 62
     3
 48
5.0
100
AcDbCircle
 10
254.359559692022
 20
141.9644679681953
 30
0.0
 40
3.999997221248225
100
AcDbArc
 50
43.89792730504872
 51
179.9999839598787
  0
ARC
  5
54D
330
1A
100
AcDbEntity
  8
SEIHIN
  6
CONTINUOUS
 62
     3
 48
5.0
100
AcDbCircle
 10
283.663386897469
 20
163.4589405958104
 30
0.0
 40
32.99998069950273
100
AcDbArc
 50
214.8810949397436
 51
215.4259989327297
  0
LINE
  5
54E
330
1A
100
AcDbEntity
  8
SEIHIN
  6
CONTINUOUS
 62
     3
 48
5.0
100
AcDbLine
 10
255.2728624707738
 20
143.7434690880062
 30
0.0
 11
255.2728624707738
 21
143.2821690880062
 31
0.0
  0
LINE
  5
54F
330
1A
100
AcDbEntity
  8
SEIHIN
  6
CONTINUOUS
 62
     3
 48
5.0
100
AcDbLine
 10
255.2728624707738
 20
146.6359690880064
 30
0.0
 11
255.2728624707738
 21
145.8587690880063
 31
0.0
  0
LINE
  5
550
330
1A
100
AcDbEntity
  8
CENTER_L
  6
CENTER
 62
     1
 48
5.0
100
AcDbLine
 10
320.8801624707738
 20
163.4643690880064
 30
0.0
 11
248.0585624707739
 21
163.4643690880063
 31
0.0
  0
LINE
  5
551
330
1A
100
AcDbEntity
  8
SEIHIN
  6
CONTINUOUS
 62
     3
 48
5.0
100
AcDbLine
 10
312.3823624707737
 20
159.4644690880063
 30
0.0
 11
313.2399624707738
 21
158.4644690880063
 31
0.0
  0
LINE
  5
552
330
1A
100
AcDbEntity
  8
SEIHIN
  6
CONTINUOUS
 62
     3
 48
5.0
100
AcDbLine
 10
312.3823624707737
 20
167.4644690880063
 30
0.0
 11
313.2399624707738
 21
168.4644690880062
 31
0.0
  0
ARC
  5
553
330
1A
100
AcDbEntity
  8
SEIHIN
  6
CONTINUOUS
 62
     3
 48
5.0
100
AcDbCircle
 10
283.6595624694081
 20
163.4645690880064
 30
0.0
 40
28.99998689514277
100
AcDbArc
 50
352.0718546280941
 51
7.928145371905861
  0
ARC
  5
554
330
1A
100
AcDbEntity
  8
SEIHIN
  6
CONTINUOUS
 62
     3
 48
5.0
100
AcDbCircle
 10
283.6595624711153
 20
163.4644690880063
 30
0.0
 40
28.99998689412843
100
AcDbArc
 50
172.0718546278146
 51
187.9281453721853
  0
LINE
  5
555
330
1A
100
AcDbEntity
  8
SEIHIN
  6
CONTINUOUS
 62
     3
 48
5.0
100
AcDbLine
 10
254.0791624707738
 20
158.4644690880062
 30
0.0
 11
254.9367624707738
 21
159.4644690880062
 31
0.0
  0
LINE
  5
556
330
1A
100
AcDbEntity
  8
SEIHIN
  6
CONTINUOUS
 62
     3
 48
5.0
100
AcDbLine
 10
254.9367624707738
 20
167.4644690880062
 30
0.0
 11
254.0791624707738
 21
168.4644690880062
 31
0.0
  0
DIMENSION
  5
67F
330
1A
100
AcDbEntity
  8
ZUWAKU
 48
5.0
100
AcDbDimension
  2
*D9
 10
191.2833142704139
 20
86.46446908800648
 30
0.0
 11
188.7833142704139
 21
103.4644690880065
 31
0.0
 70
    32
  3
STANDARD
100
AcDbAlignedDimension
 13
158.5768199374078
 23
120.4644690880065
 33
0.0
 14
151.5768199374079
 24
86.46446908800649
 34
0.0
 50
90.0
100
AcDbRotatedDimension
1001
ACAD
1000
DSTYLE
1002
{
1070
    41
1040
3.0
1070
    42
1040
3.0
1070
    43
1040
7.0
1070
    44
1040
1.5
1070
    73
1070
     0
1070
    74
1070
     0
1070
    77
1070
     3
1070
   140
1040
3.0
1070
   141
1040
150.0
1070
   147
1040
1.0
1070
   172
1070
     1
1070
   173
1070
     1
1070
   176
1070
     4
1070
   177
1070
     4
1070
   178
1070
     4
1070
   271
1070
     0
1070
   272
1070
     2
1070
   341
1005
B2
1070
     6
1000
OPEN
1070
     7
1000
OPEN
1002
}
  0
DIMENSION
  5
68C
330
1A
100
AcDbEntity
  8
ZUWAKU
 48
5.0
100
AcDbDimension
  2
*D10
 10
109.5768199374078
 20
220.2561671856984
 30
0.0
 11
115.6472909038748
 21
222.7976564415111
 31
0.0
 70
   160
  3
STANDARD
100
AcDbAlignedDimension
 13
129.5768199374078
 23
201.9327797053329
 33
0.0
 14
109.5768199374078
 24
119.4644690880065
 34
0.0
100
AcDbRotatedDimension
1001
ACAD
1000
DSTYLE
1002
{
1070
   287
1070
     5
1070
   287
1070
     5
1070
   287
1070
     5
1070
   287
1070
     5
1070
   287
1070
     5
1070
    41
1040
3.0
1070
    42
1040
3.0
1070
    43
1040
7.0
1070
    44
1040
1.5
1070
    73
1070
     0
1070
    74
1070
     0
1070
    77
1070
     3
1070
   140
1040
3.0
1070
   141
1040
150.0
1070
   147
1040
1.0
1070
   172
1070
     1
1070
   173
1070
     1
1070
   176
1070
     4
1070
   177
1070
     4
1070
   178
1070
     4
1070
   271
1070
     0
1070
   272
1070
     2
1070
   279
1070
     2
1070
   341
1005
B2
1070
     6
1000
OPEN
1070
     7
1000
OPEN
1002
}
  0
DIMENSION
  5
6C2
330
1A
100
AcDbEntity
  8
ZUWAKU
 48
5.0
100
AcDbDimension
  2
*D11
 10
232.868562913321
 20
121.4644690880063
 30
0.0
 11
230.368562913321
 21
158.9644294122139
 31
0.0
 70
    32
  3
STANDARD
100
AcDbAlignedDimension
 13
283.6595624707738
 23
196.4643897364213
 33
0.0
 14
273.6319624706739
 24
121.4644690880063
 34
0.0
 50
90.0
100
AcDbRotatedDimension
1001
ACAD
1000
DSTYLE
1002
{
1070
    41
1040
3.0
1070
    42
1040
3.0
1070
    43
1040
7.0
1070
    44
1040
1.5
1070
    73
1070
     0
1070
    74
1070
     0
1070
    77
1070
     3
1070
   140
1040
3.0
1070
   141
1040
150.0
1070
   147
1040
1.0
1070
   172
1070
     1
1070
   173
1070
     1
1070
   176
1070
     4
1070
   177
1070
     4
1070
   178
1070
     4
1070
   271
1070
     0
1070
   272
1070
     2
1070
   341
1005
B2
1070
     6
1000
OPEN
1070
     7
1000
OPEN
1002
}
  0
DIMENSION
  5
6CF
330
1A
100
AcDbEntity
  8
ZUWAKU
 48
5.0
100
AcDbDimension
  2
*D12
 10
232.868562913321
 20
85.46446908800632
 30
0.0
 11
230.368562913321
 21
103.4644690880063
 31
0.0
 70
    32
  3
STANDARD
100
AcDbAlignedDimension
 13
273.6319624706739
 23
121.4644690880063
 33
0.0
 14
273.6595624707738
 24
85.46446908800632
 34
0.0
 50
90.0
100
AcDbRotatedDimension
1001
ACAD
1000
DSTYLE
1002
{
1070
    41
1040
3.0
1070
    42
1040
3.0
1070
    43
1040
7.0
1070
    44
1040
1.5
1070
    73
1070
     0
1070
    74
1070
     0
1070
    77
1070
     3
1070
   140
1040
3.0
1070
   141
1040
150.0
1070
   147
1040
1.0
1070
   172
1070
     1
1070
   173
1070
     1
1070
   176
1070
     4
1070
   177
1070
     4
1070
   178
1070
     4
1070
   271
1070
     0
1070
   272
1070
     2
1070
   341
1005
B2
1070
     6
1000
OPEN
1070
     7
1000
OPEN
1002
}
  0
DIMENSION
  5
6DC
330
1A
100
AcDbEntity
  8
ZUWAKU
 48
5.0
100
AcDbDimension
  2
*D13
 10
225.244653046908
 20
85.46446908800632
 30
0.0
 11
222.744653046908
 21
140.9644294122144
 31
0.0
 70
    32
  3
STANDARD
100
AcDbAlignedDimension
 13
283.6595539485882
 23
196.4643897364224
 33
0.0
 14
273.6595624707738
 24
85.46446908800632
 34
0.0
 50
90.0
100
AcDbRotatedDimension
1001
ACAD
1000
DSTYLE
1002
{
1070
    41
1040
3.0
1070
    42
1040
3.0
1070
    43
1040
7.0
1070
    44
1040
1.5
1070
    73
1070
     0
1070
    74
1070
     0
1070
    77
1070
     3
1070
   140
1040
3.0
1070
   141
1040
150.0
1070
   147
1040
1.0
1070
   172
1070
     1
1070
   173
1070
     1
1070
   176
1070
     4
1070
   177
1070
     4
1070
   178
1070
     4
1070
   271
1070
     0
1070
   272
1070
     2
1070
   341
1005
B2
1070
     6
1000
OPEN
1070
     7
1000
OPEN
1002
}
  0
LINE
  5
8BE
330
1A
100
AcDbEntity
  8
CENTER_L
  6
CENTER
 62
     1
 48
5.0
100
AcDbLine
 10
142.7717883954854
 20
163.4643690880064
 30
0.0
 11
117.4839343441681
 21
163.4643690880063
 31
0.0
  0
VIEWPORT
  5
22
330
17
100
AcDbEntity
 67
     1
  8
0
100
AcDbViewport
 10
313.6808219178082
 20
148.5
 30
0.0
 40
627.3616438356165
 41
297.0
 68
     2
 69
     1
1001
ACAD
1000
MVIEW
1002
{
1070
    16
1010
0.0
1020
0.0
1030
0.0
1010
0.0
1020
0.0
1030
1.0
1040
0.0
1040
297.0
1040
313.6808219178082
1040
148.5
1040
50.0
1040
0.0
1040
0.0
1070
     0
1070
   100
1070
     1
1070
     0
1070
     0
1070
     0
1070
     0
1070
     0
1040
0.0
1040
0.0
1040
0.0
1040
1.0
1040
1.0
1040
10.0
1040
10.0
1070
     0
1002
{
1002
}
1002
}
  0
VIEWPORT
  5
64
330
17
100
AcDbEntity
 67
     1
  8
VIEWPORT
100
AcDbViewport
 10
210.0
 20
148.5
 30
0.0
 40
420.0
 41
297.0
 68
     1
 69
     2
1001
ACAD
1000
MVIEW
1002
{
1070
    16
1010
0.0
1020
0.0
1030
0.0
1010
0.0
1020
0.0
1030
1.0
1040
0.0
1040
302.9399999999998
1040
210.0
1040
148.5
1040
50.0
1040
0.0
1040
0.0
1070
     0
1070
   100
1070
     1
1070
     0
1070
     0
1070
     0
1070
     0
1070
     0
1040
0.0
1040
0.0
1040
0.0
1040
5.0
1040
5.0
1040
0.0
1040
0.0
1070
     0
1002
{
1002
}
1002
}
  0
ENDSEC
  0
SECTION
  2
OBJECTS
  0
DICTIONARY
  5
C
330
0
100
AcDbDictionary
  3
ACAD_GROUP
350
D
  3
ACAD_LAYOUT
350
3AC
  3
ACAD_MLINESTYLE
350
E
  3
ACAD_PLOTSETTINGS
350
3AD
1001
ACAD
1000
TREAT_AS_HARD
1070
     0
  0
DICTIONARY
  5
7A4
330
1A
100
AcDbDictionary
  3
ACAD_LAYOUTSELFREF
350
91A
1001
ACAD
1000
TREAT_AS_HARD
1070
     1
  0
DICTIONARY
  5
7A2
330
17
100
AcDbDictionary
  3
ACAD_LAYOUTSELFREF
350
919
1001
ACAD
1000
TREAT_AS_HARD
1070
     1
  0
DICTIONARY
  5
D
102
{ACAD_REACTORS
330
C
102
}
330
C
100
AcDbDictionary
1001
ACAD
1000
TREAT_AS_HARD
1070
     0
  0
DICTIONARY
  5
3AC
102
{ACAD_REACTORS
330
C
102
}
330
C
100
AcDbDictionary
1001
ACAD
1000
TREAT_AS_HARD
1070
     0
  0
DICTIONARY
  5
E
102
{ACAD_REACTORS
330
C
102
}
330
C
100
AcDbDictionary
  3
STANDARD
350
13
1001
ACAD
1000
TREAT_AS_HARD
1070
     0
  0
DICTIONARY
  5
3AD
102
{ACAD_REACTORS
330
C
102
}
330
C
100
AcDbDictionary
1001
ACAD
1000
TREAT_AS_HARD
1070
     0
  0
XRECORD
  5
91A
102
{ACAD_REACTORS
330
7A4
102
}
330
7A4
100
AcDbXrecord
340
1A
  0
XRECORD
  5
919
102
{ACAD_REACTORS
330
7A2
102
}
330
7A2
100
AcDbXrecord
340
17
  0
MLINESTYLE
  5
13
102
{ACAD_REACTORS
330
E
102
}
330
E
100
AcDbMlineStyle
  2
STANDARD
 70
     0
  3

 62
     0
 51
90.0
 52
90.0
 71
     2
 49
0.5
 62
   256
  6
BYLAYER
 49
-0.5
 62
   256
  6
BYLAYER
  0
ENDSEC
  0
EOF
