  0
SECTION
  2
HEADER
  9
$ACADVER
  1
AC1014
  9
$ACADMAINTVER
 70
     9
  9
$DWGCODEPAGE
  3
ANSI_932
  9
$INSBASE
 10
0.0
 20
0.0
 30
0.0
  9
$EXTMIN
 10
-0.0128164723930695
 20
-0.0090630292066862
 30
-0.0015258207003583
  9
$EXTMAX
 10
398.8000497779291
 20
275.8226172440017
 30
0.0000000349246037
  9
$LIMMIN
 10
0.0
 20
0.0
  9
$LIMMAX
 10
420.0
 20
297.0
  9
$ORTHOMODE
 70
     0
  9
$REGENMODE
 70
     1
  9
$FILLMODE
 70
     1
  9
$QTEXTMODE
 70
     0
  9
$MIRRTEXT
 70
     1
  9
$DRAGMODE
 70
     2
  9
$LTSCALE
 40
5.0
  9
$OSMODE
 70
    35
  9
$ATTMODE
 70
     1
  9
$TEXTSIZE
 40
3.0
  9
$TRACEWID
 40
1.0
  9
$TEXTSTYLE
  7
STANDARD
  9
$CLAYER
  8
SEIHIN
  9
$CELTYPE
  6
BYLAYER
  9
$CECOLOR
 62
   256
  9
$CELTSCALE
 40
1.0
  9
$DELOBJ
 70
     1
  9
$DISPSILH
 70
     0
  9
$DIMSCALE
 40
1.0
  9
$DIMASZ
 40
3.0
  9
$DIMEXO
 40
3.0
  9
$DIMDLI
 40
7.0
  9
$DIMRND
 40
0.0
  9
$DIMDLE
 40
0.0
  9
$DIMEXE
 40
1.5
  9
$DIMTP
 40
0.0
  9
$DIMTM
 40
0.0
  9
$DIMTXT
 40
3.0
  9
$DIMCEN
 40
3.0
  9
$DIMTSZ
 40
0.0
  9
$DIMTOL
 70
     0
  9
$DIMLIM
 70
     0
  9
$DIMTIH
 70
     0
  9
$DIMTOH
 70
     0
  9
$DIMSE1
 70
     0
  9
$DIMSE2
 70
     0
  9
$DIMTAD
 70
     3
  9
$DIMZIN
 70
     0
  9
$DIMBLK
  1

  9
$DIMASO
 70
     1
  9
$DIMSHO
 70
     1
  9
$DIMPOST
  1

  9
$DIMAPOST
  1

  9
$DIMALT
 70
     0
  9
$DIMALTD
 70
     2
  9
$DIMALTF
 40
25.4
  9
$DIMLFAC
 40
1.0
  9
$DIMTOFL
 70
     1
  9
$DIMTVP
 40
0.0
  9
$DIMTIX
 70
     0
  9
$DIMSOXD
 70
     0
  9
$DIMSAH
 70
     1
  9
$DIMBLK1
  1
OPEN
  9
$DIMBLK2
  1
OPEN
  9
$DIMSTYLE
  2
STANDARD
  9
$DIMCLRD
 70
   256
  9
$DIMCLRE
 70
   256
  9
$DIMCLRT
 70
   256
  9
$DIMTFAC
 40
1.0
  9
$DIMGAP
 40
1.0
  9
$DIMJUST
 70
     0
  9
$DIMSD1
 70
     0
  9
$DIMSD2
 70
     0
  9
$DIMTOLJ
 70
     1
  9
$DIMTZIN
 70
     0
  9
$DIMALTZ
 70
     0
  9
$DIMALTTZ
 70
     0
  9
$DIMFIT
 70
     3
  9
$DIMUPT
 70
     0
  9
$DIMUNIT
 70
     2
  9
$DIMDEC
 70
     0
  9
$DIMTDEC
 70
     0
  9
$DIMALTU
 70
     2
  9
$DIMALTTD
 70
     2
  9
$DIMTXSTY
  7
STANDARD
  9
$DIMAUNIT
 70
     0
  9
$LUNITS
 70
     2
  9
$LUPREC
 70
     4
  9
$SKETCHINC
 40
1.0
  9
$FILLETRAD
 40
0.25
  9
$AUNITS
 70
     0
  9
$AUPREC
 70
     0
  9
$MENU
  1
.
  9
$ELEVATION
 40
0.0
  9
$PELEVATION
 40
0.0
  9
$THICKNESS
 40
0.0
  9
$LIMCHECK
 70
     0
  9
$BLIPMODE
 70
     0
  9
$CHAMFERA
 40
10.0
  9
$CHAMFERB
 40
10.0
  9
$CHAMFERC
 40
20.0
  9
$CHAMFERD
 40
0.0
  9
$SKPOLY
 70
     0
  9
$TDCREATE
 40
2451589.469382176
  9
$TDUPDATE
 40
2453802.570931887
  9
$TDINDWG
 40
0.4097396759
  9
$TDUSRTIMER
 40
0.4097396759
  9
$USRTIMER
 70
     1
  9
$ANGBASE
 50
0.0
  9
$ANGDIR
 70
     0
  9
$PDMODE
 70
     0
  9
$PDSIZE
 40
0.0
  9
$PLINEWID
 40
0.0
  9
$COORDS
 70
     1
  9
$SPLFRAME
 70
     0
  9
$SPLINETYPE
 70
     6
  9
$SPLINESEGS
 70
     8
  9
$ATTDIA
 70
     0
  9
$ATTREQ
 70
     1
  9
$HANDLING
 70
 10241
  9
$HANDSEED
  5
2916
  9
$SURFTAB1
 70
     6
  9
$SURFTAB2
 70
     6
  9
$SURFTYPE
 70
     6
  9
$SURFU
 70
     6
  9
$SURFV
 70
     6
  9
$UCSNAME
  2

  9
$UCSORG
 10
0.0
 20
0.0
 30
0.0
  9
$UCSXDIR
 10
1.0
 20
0.0
 30
0.0
  9
$UCSYDIR
 10
0.0
 20
1.0
 30
0.0
  9
$PUCSNAME
  2

  9
$PUCSORG
 10
0.0
 20
0.0
 30
0.0
  9
$PUCSXDIR
 10
1.0
 20
0.0
 30
0.0
  9
$PUCSYDIR
 10
0.0
 20
1.0
 30
0.0
  9
$USERI1
 70
     0
  9
$USERI2
 70
     0
  9
$USERI3
 70
     0
  9
$USERI4
 70
     0
  9
$USERI5
 70
     0
  9
$USERR1
 40
0.0
  9
$USERR2
 40
0.0
  9
$USERR3
 40
0.0
  9
$USERR4
 40
0.0
  9
$USERR5
 40
0.0
  9
$WORLDVIEW
 70
     1
  9
$SHADEDGE
 70
     3
  9
$SHADEDIF
 70
    70
  9
$TILEMODE
 70
     1
  9
$MAXACTVP
 70
    16
  9
$PINSBASE
 10
0.0
 20
0.0
 30
0.0
  9
$PLIMCHECK
 70
     0
  9
$PEXTMIN
 10
0.0
 20
0.0
 30
0.0
  9
$PEXTMAX
 10
420.0
 20
297.0
 30
0.0
  9
$PLIMMIN
 10
0.0
 20
0.0
  9
$PLIMMAX
 10
420.0
 20
297.0
  9
$UNITMODE
 70
     0
  9
$VISRETAIN
 70
     0
  9
$PLINEGEN
 70
     0
  9
$PSLTSCALE
 70
     1
  9
$TREEDEPTH
 70
  3020
  9
$PICKSTYLE
 70
     1
  9
$CMLSTYLE
  2
STANDARD
  9
$CMLJUST
 70
     0
  9
$CMLSCALE
 40
1.0
  9
$PROXYGRAPHICS
 70
     1
  9
$MEASUREMENT
 70
     0
  0
ENDSEC
  0
SECTION
  2
CLASSES
  0
CLASS
  1
ACDBDICTIONARYWDFLT
  2
AcDbDictionaryWithDefault
  3
AutoCAD 2000
 90
        0
280
     0
281
     0
  0
CLASS
  1
ACDBPLACEHOLDER
  2
AcDbPlaceHolder
  3
AutoCAD 2000
 90
        0
280
     0
281
     0
  0
CLASS
  1
LAYOUT
  2
AcDbLayout
  3
AutoCAD 2000
 90
        0
280
     0
281
     0
  0
CLASS
  1
LONG_TRANSACTION
  2
AcDbLongTransaction
  3
AutoCAD 2000
 90
        0
280
     0
281
     0
  0
CLASS
  1
LWPOLYLINE
  2
AcDbPolyline
  3
AutoCAD 2000
 90
        0
280
     0
281
     1
  0
CLASS
  1
HATCH
  2
AcDbHatch
  3
AutoCAD 2000
 90
        0
280
     0
281
     1
  0
CLASS
  1
XRECORD
  2
AcDbXrecord
  3
AutoCAD 2000
 90
        0
280
     0
281
     0
  0
CLASS
  1
LONG_TRANSACTION
  2
AcDbLongTransaction
  3
AutoCAD 2000
 90
        0
280
     0
281
     0
  0
CLASS
  1
LWPOLYLINE
  2
AcDbPolyline
  3
AutoCAD 2000
 90
        0
280
     0
281
     1
  0
CLASS
  1
HATCH
  2
AcDbHatch
  3
AutoCAD 2000
 90
        0
280
     0
281
     1
  0
CLASS
  1
XRECORD
  2
AcDbXrecord
  3
AutoCAD 2000
 90
        0
280
     0
281
     0
  0
CLASS
  1
DICTIONARYVAR
  2
AcDbDictionaryVar
  3
AutoCAD 2000
 90
        0
280
     0
281
     0
  0
CLASS
  1
LONG_TRANSACTION
  2
AcDbLongTransaction
  3
AutoCAD 2000
 90
        0
280
     0
281
     0
  0
CLASS
  1
LWPOLYLINE
  2
AcDbPolyline
  3
AutoCAD 2000
 90
        0
280
     0
281
     1
  0
CLASS
  1
HATCH
  2
AcDbHatch
  3
AutoCAD 2000
 90
        0
280
     0
281
     1
  0
CLASS
  1
XRECORD
  2
AcDbXrecord
  3
AutoCAD 2000
 90
        0
280
     0
281
     0
  0
CLASS
  1
LONG_TRANSACTION
  2
AcDbLongTransaction
  3
AutoCAD 2000
 90
        0
280
     0
281
     0
  0
CLASS
  1
LWPOLYLINE
  2
AcDbPolyline
  3
AutoCAD 2000
 90
        0
280
     0
281
     1
  0
CLASS
  1
HATCH
  2
AcDbHatch
  3
AutoCAD 2000
 90
        0
280
     0
281
     1
  0
CLASS
  1
XRECORD
  2
AcDbXrecord
  3
AutoCAD 2000
 90
        0
280
     0
281
     0
  0
CLASS
  1
LONG_TRANSACTION
  2
AcDbLongTransaction
  3
AutoCAD 2000
 90
        0
280
     0
281
     0
  0
CLASS
  1
LWPOLYLINE
  2
AcDbPolyline
  3
AutoCAD 2000
 90
        0
280
     0
281
     1
  0
CLASS
  1
HATCH
  2
AcDbHatch
  3
AutoCAD 2000
 90
        0
280
     0
281
     1
  0
CLASS
  1
XRECORD
  2
AcDbXrecord
  3
AutoCAD 2000
 90
        0
280
     0
281
     0
  0
CLASS
  1
LONG_TRANSACTION
  2
AcDbLongTransaction
  3
AutoCAD 2000
 90
        0
280
     0
281
     0
  0
CLASS
  1
LWPOLYLINE
  2
AcDbPolyline
  3
AutoCAD 2000
 90
        0
280
     0
281
     1
  0
CLASS
  1
HATCH
  2
AcDbHatch
  3
AutoCAD 2000
 90
        0
280
     0
281
     1
  0
CLASS
  1
XRECORD
  2
AcDbXrecord
  3
AutoCAD 2000
 90
        0
280
     0
281
     0
  0
CLASS
  1
LONG_TRANSACTION
  2
AcDbLongTransaction
  3
AutoCAD 2000
 90
        0
280
     0
281
     0
  0
CLASS
  1
LWPOLYLINE
  2
AcDbPolyline
  3
AutoCAD 2000
 90
        0
280
     0
281
     1
  0
CLASS
  1
HATCH
  2
AcDbHatch
  3
AutoCAD 2000
 90
        0
280
     0
281
     1
  0
CLASS
  1
XRECORD
  2
AcDbXrecord
  3
AutoCAD 2000
 90
        0
280
     0
281
     0
  0
CLASS
  1
LONG_TRANSACTION
  2
AcDbLongTransaction
  3
AutoCAD 2000
 90
        0
280
     0
281
     0
  0
CLASS
  1
LWPOLYLINE
  2
AcDbPolyline
  3
AutoCAD 2000
 90
        0
280
     0
281
     1
  0
CLASS
  1
HATCH
  2
AcDbHatch
  3
AutoCAD 2000
 90
        0
280
     0
281
     1
  0
CLASS
  1
XRECORD
  2
AcDbXrecord
  3
AutoCAD 2000
 90
        0
280
     0
281
     0
  0
CLASS
  1
LONG_TRANSACTION
  2
AcDbLongTransaction
  3
AutoCAD 2000
 90
        0
280
     0
281
     0
  0
CLASS
  1
LWPOLYLINE
  2
AcDbPolyline
  3
AutoCAD 2000
 90
        0
280
     0
281
     1
  0
CLASS
  1
HATCH
  2
AcDbHatch
  3
AutoCAD 2000
 90
        0
280
     0
281
     1
  0
CLASS
  1
XRECORD
  2
AcDbXrecord
  3
AutoCAD 2000
 90
        0
280
     0
281
     0
  0
CLASS
  1
LONG_TRANSACTION
  2
AcDbLongTransaction
  3
AutoCAD 2000
 90
        0
280
     0
281
     0
  0
CLASS
  1
LWPOLYLINE
  2
AcDbPolyline
  3
AutoCAD 2000
 90
        0
280
     0
281
     1
  0
CLASS
  1
HATCH
  2
AcDbHatch
  3
AutoCAD 2000
 90
        0
280
     0
281
     1
  0
CLASS
  1
XRECORD
  2
AcDbXrecord
  3
AutoCAD 2000
 90
        0
280
     0
281
     0
  0
CLASS
  1
LONG_TRANSACTION
  2
AcDbLongTransaction
  3
AutoCAD 2000
 90
        0
280
     0
281
     0
  0
CLASS
  1
LWPOLYLINE
  2
AcDbPolyline
  3
AutoCAD 2000
 90
        0
280
     0
281
     1
  0
CLASS
  1
HATCH
  2
AcDbHatch
  3
AutoCAD 2000
 90
        0
280
     0
281
     1
  0
CLASS
  1
XRECORD
  2
AcDbXrecord
  3
AutoCAD 2000
 90
        0
280
     0
281
     0
  0
CLASS
  1
LONG_TRANSACTION
  2
AcDbLongTransaction
  3
AutoCAD 2000
 90
        0
280
     0
281
     0
  0
CLASS
  1
LWPOLYLINE
  2
AcDbPolyline
  3
AutoCAD 2000
 90
        0
280
     0
281
     1
  0
CLASS
  1
HATCH
  2
AcDbHatch
  3
AutoCAD 2000
 90
        0
280
     0
281
     1
  0
CLASS
  1
XRECORD
  2
AcDbXrecord
  3
AutoCAD 2000
 90
        0
280
     0
281
     0
  0
CLASS
  1
LONG_TRANSACTION
  2
AcDbLongTransaction
  3
AutoCAD 2000
 90
        0
280
     0
281
     0
  0
CLASS
  1
LWPOLYLINE
  2
AcDbPolyline
  3
AutoCAD 2000
 90
        0
280
     0
281
     1
  0
CLASS
  1
HATCH
  2
AcDbHatch
  3
AutoCAD 2000
 90
        0
280
     0
281
     1
  0
CLASS
  1
XRECORD
  2
AcDbXrecord
  3
AutoCAD 2000
 90
        0
280
     0
281
     0
  0
CLASS
  1
LONG_TRANSACTION
  2
AcDbLongTransaction
  3
AutoCAD 2000
 90
        0
280
     0
281
     0
  0
CLASS
  1
LWPOLYLINE
  2
AcDbPolyline
  3
AutoCAD 2000
 90
        0
280
     0
281
     1
  0
CLASS
  1
HATCH
  2
AcDbHatch
  3
AutoCAD 2000
 90
        0
280
     0
281
     1
  0
CLASS
  1
XRECORD
  2
AcDbXrecord
  3
AutoCAD 2000
 90
        0
280
     0
281
     0
  0
ENDSEC
  0
SECTION
  2
TABLES
  0
TABLE
  2
VPORT
  5
8
330
0
100
AcDbSymbolTable
 70
     2
  0
VPORT
  5
28F2
330
8
100
AcDbSymbolTableRecord
100
AcDbViewportTableRecord
  2
*ACTIVE
 70
     0
 10
0.0
 20
0.0
 11
1.0
 21
1.0
 12
220.3369729614138
 22
130.4065603617924
 13
0.0
 23
0.0
 14
5.0
 24
5.0
 15
0.0
 25
0.0
 16
0.0
 26
0.0
 36
1.0
 17
0.0
 27
0.0
 37
0.0
 40
334.1312890338146
 41
1.795454545454545
 42
50.0
 43
0.0
 44
0.0
 50
0.0
 51
0.0
 71
     0
 72
   100
 73
     1
 74
     0
 75
     0
 76
     0
 77
     0
 78
     0
  0
ENDTAB
  0
TABLE
  2
LTYPE
  5
5
330
0
100
AcDbSymbolTable
 70
     3
  0
LTYPE
  5
14
330
5
100
AcDbSymbolTableRecord
100
AcDbLinetypeTableRecord
  2
BYBLOCK
 70
     0
  3

 72
    65
 73
     0
 40
0.0
  0
LTYPE
  5
15
330
5
100
AcDbSymbolTableRecord
100
AcDbLinetypeTableRecord
  2
BYLAYER
 70
     0
  3

 72
    65
 73
     0
 40
0.0
  0
LTYPE
  5
16
330
5
100
AcDbSymbolTableRecord
100
AcDbLinetypeTableRecord
  2
CONTINUOUS
 70
     0
  3
Solid line
 72
    65
 73
     0
 40
0.0
  0
LTYPE
  5
120
330
5
100
AcDbSymbolTableRecord
100
AcDbLinetypeTableRecord
  2
CENTER
 70
     0
  3
____ _ ____ _ ____ _ ____ _ ____ _ ____ _ ____ 
 72
    65
 73
     4
 40
2.0
 49
1.25
 74
     0
 49
-0.25
 74
     0
 49
0.25
 74
     0
 49
-0.25
 74
     0
  0
LTYPE
  5
122
330
5
100
AcDbSymbolTableRecord
100
AcDbLinetypeTableRecord
  2
PHANTOM
 70
     0
  3
______  __  __  ______  __  __  ______  __  __ 
 72
    65
 73
     6
 40
2.5
 49
1.25
 74
     0
 49
-0.25
 74
     0
 49
0.25
 74
     0
 49
-0.25
 74
     0
 49
0.25
 74
     0
 49
-0.25
 74
     0
  0
ENDTAB
  0
TABLE
  2
LAYER
  5
2
330
0
100
AcDbSymbolTable
 70
     9
  0
LAYER
  5
F
330
2
100
AcDbSymbolTableRecord
100
AcDbLayerTableRecord
  2
0
 70
     0
 62
     7
  6
CONTINUOUS
  0
LAYER
  5
62
330
2
100
AcDbSymbolTableRecord
100
AcDbLayerTableRecord
  2
VIEWPORT
 70
     0
 62
     7
  6
CONTINUOUS
  0
LAYER
  5
6B
330
2
100
AcDbSymbolTableRecord
100
AcDbLayerTableRecord
  2
ZUWAKU
 70
     0
 62
     7
  6
CONTINUOUS
  0
LAYER
  5
3EF
330
2
100
AcDbSymbolTableRecord
100
AcDbLayerTableRecord
  2
DEFPOINTS
 70
     0
 62
     7
  6
CONTINUOUS
  0
LAYER
  5
54D
330
2
100
AcDbSymbolTableRecord
100
AcDbLayerTableRecord
  2
SEIHIN
 70
     0
 62
     3
  6
CONTINUOUS
  0
LAYER
  5
54E
330
2
100
AcDbSymbolTableRecord
100
AcDbLayerTableRecord
  2
SUNPOU
 70
     0
 62
     4
  6
CONTINUOUS
  0
LAYER
  5
54F
330
2
100
AcDbSymbolTableRecord
100
AcDbLayerTableRecord
  2
CENTER_L
 70
     0
 62
     1
  6
CENTER
  0
LAYER
  5
550
330
2
100
AcDbSymbolTableRecord
100
AcDbLayerTableRecord
  2
NOKITOI
 70
     0
 62
     8
  6
PHANTOM
  0
LAYER
  5
259F
330
2
100
AcDbSymbolTableRecord
100
AcDbLayerTableRecord
  2
MOJI
 70
     0
 62
     2
  6
CONTINUOUS
  0
ENDTAB
  0
TABLE
  2
STYLE
  5
3
330
0
100
AcDbSymbolTable
 70
     2
  0
STYLE
  5
10
330
3
100
AcDbSymbolTableRecord
100
AcDbTextStyleTableRecord
  2
STANDARD
 70
     0
 40
0.0
 41
1.0
 50
0.0
 71
     0
 42
3.0
  3
TXT
  4
c:\PROGRAM FILES\AUTOCAD LT\ms\bigfont.shx
  0
STYLE
  5
25A0
330
3
100
AcDbSymbolTableRecord
100
AcDbTextStyleTableRecord
  2
ｽﾀｲﾙ1
 70
     0
 40
0.0
 41
1.0
 50
0.0
 71
     0
 42
2.5
  3
MS PGothic.ttf
  4

1001
ACAD
1000
MS PGothic
1071
    32818
  0
ENDTAB
  0
TABLE
  2
VIEW
  5
6
330
0
100
AcDbSymbolTable
 70
     0
  0
ENDTAB
  0
TABLE
  2
UCS
  5
7
330
0
100
AcDbSymbolTable
 70
     0
  0
ENDTAB
  0
TABLE
  2
APPID
  5
9
330
0
100
AcDbSymbolTable
 70
     1
  0
APPID
  5
11
330
9
100
AcDbSymbolTableRecord
100
AcDbRegAppTableRecord
  2
ACAD
 70
     0
  0
ENDTAB
  0
TABLE
  2
DIMSTYLE
  5
A
330
0
100
AcDbSymbolTable
 70
     1
  0
DIMSTYLE
105
1D
102
{ACAD_REACTORS
330
1F96
330
1FA3
330
1FB0
330
1FEA
330
1FF7
330
2006
330
2015
330
2022
330
204C
330
2059
330
2066
330
2073
102
}
330
A
100
AcDbSymbolTableRecord
100
AcDbDimStyleTableRecord
  2
STANDARD
 70
     0
  3

  4

  5

  6

  7

 40
1.0
 41
0.18
 42
0.0625
 43
0.38
 44
0.18
 45
0.0
 46
0.0
 47
0.0
 48
0.0
140
0.18
141
0.09
142
0.0
143
25.4
144
1.0
145
0.0
146
1.0
147
0.09
 71
     0
 72
     0
 73
     1
 74
     1
 75
     0
 76
     0
 77
     0
 78
     0
170
     0
171
     2
172
     0
173
     0
174
     0
175
     0
176
     0
177
     0
178
     0
270
     2
271
     4
272
     4
273
     2
274
     2
340
10
275
     0
280
     0
281
     0
282
     0
283
     1
284
     0
285
     0
286
     0
287
     3
288
     0
  0
ENDTAB
  0
TABLE
  2
BLOCK_RECORD
  5
1
330
0
100
AcDbSymbolTable
 70
    13
  0
BLOCK_RECORD
  5
1A
102
{ACAD_XDICTIONARY
360
7A2
102
}
330
1
100
AcDbSymbolTableRecord
100
AcDbBlockTableRecord
  2
*MODEL_SPACE
  0
BLOCK_RECORD
  5
17
102
{ACAD_XDICTIONARY
360
7A0
102
}
330
1
100
AcDbSymbolTableRecord
100
AcDbBlockTableRecord
  2
*PAPER_SPACE
  0
BLOCK_RECORD
  5
B2
330
1
100
AcDbSymbolTableRecord
100
AcDbBlockTableRecord
  2
_OPEN
  0
BLOCK_RECORD
  5
1F97
330
1
100
AcDbSymbolTableRecord
100
AcDbBlockTableRecord
  2
*D1
  0
BLOCK_RECORD
  5
1FA4
330
1
100
AcDbSymbolTableRecord
100
AcDbBlockTableRecord
  2
*D2
  0
BLOCK_RECORD
  5
1FB1
330
1
100
AcDbSymbolTableRecord
100
AcDbBlockTableRecord
  2
*D3
  0
BLOCK_RECORD
  5
1FEB
330
1
100
AcDbSymbolTableRecord
100
AcDbBlockTableRecord
  2
*D4
  0
BLOCK_RECORD
  5
1FF8
330
1
100
AcDbSymbolTableRecord
100
AcDbBlockTableRecord
  2
*D5
  0
BLOCK_RECORD
  5
2007
330
1
100
AcDbSymbolTableRecord
100
AcDbBlockTableRecord
  2
*D6
  0
BLOCK_RECORD
  5
2016
330
1
100
AcDbSymbolTableRecord
100
AcDbBlockTableRecord
  2
*D7
  0
BLOCK_RECORD
  5
2023
330
1
100
AcDbSymbolTableRecord
100
AcDbBlockTableRecord
  2
*D8
  0
BLOCK_RECORD
  5
204D
330
1
100
AcDbSymbolTableRecord
100
AcDbBlockTableRecord
  2
*D9
  0
BLOCK_RECORD
  5
205A
330
1
100
AcDbSymbolTableRecord
100
AcDbBlockTableRecord
  2
*D10
  0
BLOCK_RECORD
  5
2067
330
1
100
AcDbSymbolTableRecord
100
AcDbBlockTableRecord
  2
*D11
  0
BLOCK_RECORD
  5
2074
330
1
100
AcDbSymbolTableRecord
100
AcDbBlockTableRecord
  2
*D12
  0
ENDTAB
  0
ENDSEC
  0
SECTION
  2
BLOCKS
  0
BLOCK
  5
1B
330
1A
100
AcDbEntity
  8
0
100
AcDbBlockBegin
  2
*MODEL_SPACE
 70
     0
 10
0.0
 20
0.0
 30
0.0
  3
*MODEL_SPACE
  1

  0
ENDBLK
  5
1C
330
1A
100
AcDbEntity
  8
0
100
AcDbBlockEnd
  0
BLOCK
  5
18
330
17
100
AcDbEntity
 67
     1
  8
0
100
AcDbBlockBegin
  2
*PAPER_SPACE
 70
     0
 10
0.0
 20
0.0
 30
0.0
  3
*PAPER_SPACE
  1

  0
ENDBLK
  5
19
330
17
100
AcDbEntity
 67
     1
  8
0
100
AcDbBlockEnd
  0
BLOCK
  5
B3
330
B2
100
AcDbEntity
  8
0
100
AcDbBlockBegin
  2
_OPEN
 70
     0
 10
0.0
 20
0.0
 30
0.0
  3
_OPEN
  1

  0
LINE
  5
B4
330
B2
100
AcDbEntity
  8
0
  6
BYBLOCK
 62
     0
100
AcDbLine
 10
-1.0
 20
0.1666666666666666
 30
0.0
 11
0.0
 21
0.0
 31
0.0
  0
LINE
  5
B5
330
B2
100
AcDbEntity
  8
0
  6
BYBLOCK
 62
     0
100
AcDbLine
 10
0.0
 20
0.0
 30
0.0
 11
-1.0
 21
-0.1666666666666666
 31
0.0
  0
LINE
  5
B6
330
B2
100
AcDbEntity
  8
0
  6
BYBLOCK
 62
     0
100
AcDbLine
 10
0.0
 20
0.0
 30
0.0
 11
-1.0
 21
0.0
 31
0.0
  0
ENDBLK
  5
B7
330
B2
100
AcDbEntity
  8
0
100
AcDbBlockEnd
  0
BLOCK
  5
1FA1
330
1F97
100
AcDbEntity
  8
0
100
AcDbBlockBegin
  2
*D1
 70
     1
 10
0.0
 20
0.0
 30
0.0
  3
*D1
  1

  0
LINE
  5
273B
330
1F97
100
AcDbEntity
  8
SUNPOU
100
AcDbLine
 10
201.2003519685564
 20
144.1150933251634
 30
0.0
 11
47.46912210021879
 21
144.1150933251635
 31
0.0
  0
LINE
  5
273C
330
1F97
100
AcDbEntity
  8
SUNPOU
100
AcDbLine
 10
72.79993486855648
 20
87.40111502516343
 30
0.0
 11
47.46912210021878
 21
87.40111502516343
 31
0.0
  0
LINE
  5
273D
330
1F97
100
AcDbEntity
  8
SUNPOU
100
AcDbLine
 10
48.96912210021878
 20
141.1150933251635
 30
0.0
 11
48.96912210021877
 21
90.40111502516344
 31
0.0
  0
INSERT
  5
273E
330
1F97
100
AcDbEntity
  8
SUNPOU
100
AcDbBlockReference
  2
_OPEN
 10
48.96912210021879
 20
144.1150933251635
 30
0.0
 41
3.0
 42
3.0
 43
3.0
 50
90.0
  0
INSERT
  5
273F
330
1F97
100
AcDbEntity
  8
SUNPOU
100
AcDbBlockReference
  2
_OPEN
 10
48.96912210021877
 20
87.40111502516343
 30
0.0
 41
3.0
 42
3.0
 43
3.0
 50
270.0
  0
MTEXT
  5
2740
330
1F97
100
AcDbEntity
  8
SUNPOU
100
AcDbMText
 10
46.46912210021876
 20
115.7581041751634
 30
0.0
 40
3.0
 41
0.0
 71
     5
 72
     1
  1
\A1;57
 11
0.0000000000000001
 21
1.0
 31
0.0
1001
ACAD
1000
MTEXTBEGIN
1070
    73
1070
     1
1070
    44
1040
1.0
1070
    74
1070
     0
1000
MTEXTEND
  0
POINT
  5
2741
330
1F97
100
AcDbEntity
  8
DEFPOINTS
 62
     0
100
AcDbPoint
 10
204.2003519685564
 20
144.1150933251634
 30
0.0
  0
POINT
  5
2742
330
1F97
100
AcDbEntity
  8
DEFPOINTS
 62
     0
100
AcDbPoint
 10
75.79993486855648
 20
87.40111502516343
 30
0.0
  0
POINT
  5
2743
330
1F97
100
AcDbEntity
  8
DEFPOINTS
 62
     0
100
AcDbPoint
 10
48.96912210021877
 20
87.40111502516343
 30
0.0
  0
ENDBLK
  5
1FA2
330
1F97
100
AcDbEntity
  8
0
100
AcDbBlockEnd
  0
BLOCK
  5
1FAE
330
1FA4
100
AcDbEntity
  8
0
100
AcDbBlockBegin
  2
*D2
 70
     1
 10
0.0
 20
0.0
 30
0.0
  3
*D2
  1

  0
LINE
  5
2732
330
1FA4
100
AcDbEntity
  8
SUNPOU
100
AcDbLine
 10
210.8003519685564
 20
147.1150933251634
 30
0.0
 11
210.8003519685564
 21
169.1377404395886
 31
0.0
  0
LINE
  5
2733
330
1FA4
100
AcDbEntity
  8
SUNPOU
100
AcDbLine
 10
128.2999348685564
 20
91.70111502516347
 30
0.0
 11
128.2999348685564
 21
169.1377404395886
 31
0.0
  0
LINE
  5
2734
330
1FA4
100
AcDbEntity
  8
SUNPOU
100
AcDbLine
 10
207.8003519685564
 20
167.6377404395887
 30
0.0
 11
131.2999348685564
 21
167.6377404395887
 31
0.0
  0
INSERT
  5
2735
330
1FA4
100
AcDbEntity
  8
SUNPOU
100
AcDbBlockReference
  2
_OPEN
 10
210.8003519685564
 20
167.6377404395887
 30
0.0
 41
3.0
 42
3.0
 43
3.0
  0
INSERT
  5
2736
330
1FA4
100
AcDbEntity
  8
SUNPOU
100
AcDbBlockReference
  2
_OPEN
 10
128.2999348685564
 20
167.6377404395887
 30
0.0
 41
3.0
 42
3.0
 43
3.0
 50
180.0
  0
MTEXT
  5
2737
330
1FA4
100
AcDbEntity
  8
SUNPOU
100
AcDbMText
 10
169.5501434185564
 20
170.1377404395886
 30
0.0
 40
3.0
 41
0.0
 71
     5
 72
     1
  1
\A1;83
1001
ACAD
1000
MTEXTBEGIN
1070
    73
1070
     1
1070
    44
1040
1.0
1070
    74
1070
     0
1000
MTEXTEND
  0
POINT
  5
2738
330
1FA4
100
AcDbEntity
  8
DEFPOINTS
 62
     0
100
AcDbPoint
 10
210.8003519685564
 20
144.1150933251634
 30
0.0
  0
POINT
  5
2739
330
1FA4
100
AcDbEntity
  8
DEFPOINTS
 62
     0
100
AcDbPoint
 10
128.2999348685564
 20
88.70111502516346
 30
0.0
  0
POINT
  5
273A
330
1FA4
100
AcDbEntity
  8
DEFPOINTS
 62
     0
100
AcDbPoint
 10
128.2999348685564
 20
167.6377404395887
 30
0.0
  0
ENDBLK
  5
1FAF
330
1FA4
100
AcDbEntity
  8
0
100
AcDbBlockEnd
  0
BLOCK
  5
1FBB
330
1FB1
100
AcDbEntity
  8
0
100
AcDbBlockBegin
  2
*D3
 70
     1
 10
0.0
 20
0.0
 30
0.0
  3
*D3
  1

  0
LINE
  5
2729
330
1FB1
100
AcDbEntity
  8
SUNPOU
100
AcDbLine
 10
75.79993486855648
 20
89.93568564450391
 30
0.0
 11
75.79993486855648
 21
178.6156329943224
 31
0.0
  0
LINE
  5
272A
330
1FB1
100
AcDbEntity
  8
SUNPOU
100
AcDbLine
 10
210.8003519685564
 20
147.1150933251634
 30
0.0
 11
210.8003519685564
 21
178.6156329943224
 31
0.0
  0
LINE
  5
272B
330
1FB1
100
AcDbEntity
  8
SUNPOU
100
AcDbLine
 10
78.79993486855648
 20
177.1156329943224
 30
0.0
 11
207.8003519685564
 21
177.1156329943224
 31
0.0
  0
INSERT
  5
272C
330
1FB1
100
AcDbEntity
  8
SUNPOU
100
AcDbBlockReference
  2
_OPEN
 10
75.79993486855648
 20
177.1156329943224
 30
0.0
 41
3.0
 42
3.0
 43
3.0
 50
180.0
  0
INSERT
  5
272D
330
1FB1
100
AcDbEntity
  8
SUNPOU
100
AcDbBlockReference
  2
_OPEN
 10
210.8003519685564
 20
177.1156329943224
 30
0.0
 41
3.0
 42
3.0
 43
3.0
  0
MTEXT
  5
272E
330
1FB1
100
AcDbEntity
  8
SUNPOU
100
AcDbMText
 10
143.3001434185564
 20
179.6156329943224
 30
0.0
 40
3.0
 41
0.0
 71
     5
 72
     1
  1
\A1;135
1001
ACAD
1000
MTEXTBEGIN
1070
    73
1070
     1
1070
    44
1040
1.0
1070
    74
1070
     0
1000
MTEXTEND
  0
POINT
  5
272F
330
1FB1
100
AcDbEntity
  8
DEFPOINTS
 62
     0
100
AcDbPoint
 10
75.79993486855648
 20
86.93568564450393
 30
0.0
  0
POINT
  5
2730
330
1FB1
100
AcDbEntity
  8
DEFPOINTS
 62
     0
100
AcDbPoint
 10
210.8003519685564
 20
144.1150933251634
 30
0.0
  0
POINT
  5
2731
330
1FB1
100
AcDbEntity
  8
DEFPOINTS
 62
     0
100
AcDbPoint
 10
210.8003519685564
 20
177.1156329943224
 30
0.0
  0
ENDBLK
  5
1FBC
330
1FB1
100
AcDbEntity
  8
0
100
AcDbBlockEnd
  0
BLOCK
  5
1FF5
330
1FEB
100
AcDbEntity
  8
0
100
AcDbBlockBegin
  2
*D4
 70
     1
 10
0.0
 20
0.0
 30
0.0
  3
*D4
  1

  0
LINE
  5
2720
330
1FEB
100
AcDbEntity
  8
SUNPOU
100
AcDbLine
 10
210.8003519685564
 20
147.1150933251634
 30
0.0
 11
210.8003519685564
 21
158.7931837560595
 31
0.0
  0
LINE
  5
2721
330
1FEB
100
AcDbEntity
  8
SUNPOU
100
AcDbLine
 10
192.2588775917845
 20
94.43161502516339
 30
0.0
 11
192.2588775917845
 21
158.7931837560595
 31
0.0
  0
LINE
  5
2722
330
1FEB
100
AcDbEntity
  8
SUNPOU
100
AcDbLine
 10
207.8003519685564
 20
157.2931837560595
 30
0.0
 11
195.2588775917845
 21
157.2931837560595
 31
0.0
  0
INSERT
  5
2723
330
1FEB
100
AcDbEntity
  8
SUNPOU
100
AcDbBlockReference
  2
_OPEN
 10
210.8003519685564
 20
157.2931837560595
 30
0.0
 41
3.0
 42
3.0
 43
3.0
  0
INSERT
  5
2724
330
1FEB
100
AcDbEntity
  8
SUNPOU
100
AcDbBlockReference
  2
_OPEN
 10
192.2588775917845
 20
157.2931837560595
 30
0.0
 41
3.0
 42
3.0
 43
3.0
 50
180.0
  0
MTEXT
  5
2725
330
1FEB
100
AcDbEntity
  8
SUNPOU
100
AcDbMText
 10
201.5296147801705
 20
159.7931837560595
 30
0.0
 40
3.0
 41
0.0
 71
     5
 72
     1
  1
\A1;19
1001
ACAD
1000
MTEXTBEGIN
1070
    73
1070
     1
1070
    44
1040
1.0
1070
    74
1070
     0
1000
MTEXTEND
  0
POINT
  5
2726
330
1FEB
100
AcDbEntity
  8
DEFPOINTS
 62
     0
100
AcDbPoint
 10
210.8003519685564
 20
144.1150933251634
 30
0.0
  0
POINT
  5
2727
330
1FEB
100
AcDbEntity
  8
DEFPOINTS
 62
     0
100
AcDbPoint
 10
192.2588775917845
 20
91.4316150251634
 30
0.0
  0
POINT
  5
2728
330
1FEB
100
AcDbEntity
  8
DEFPOINTS
 62
     0
100
AcDbPoint
 10
192.2588775917845
 20
157.2931837560595
 30
0.0
  0
ENDBLK
  5
1FF6
330
1FEB
100
AcDbEntity
  8
0
100
AcDbBlockEnd
  0
BLOCK
  5
2002
330
1FF8
100
AcDbEntity
  8
0
100
AcDbBlockBegin
  2
*D5
 70
     1
 10
0.0
 20
0.0
 30
0.0
  3
*D5
  1

  0
LINE
  5
2717
330
1FF8
100
AcDbEntity
  8
SUNPOU
100
AcDbLine
 10
213.8003519685564
 20
144.1150933251634
 30
0.0
 11
233.3518464294904
 21
144.1150933251634
 31
0.0
  0
LINE
  5
2718
330
1FF8
100
AcDbEntity
  8
SUNPOU
100
AcDbLine
 10
213.8003519685564
 20
109.1150933251634
 30
0.0
 11
233.3518464294904
 21
109.1150933251634
 31
0.0
  0
LINE
  5
2719
330
1FF8
100
AcDbEntity
  8
SUNPOU
100
AcDbLine
 10
231.8518464294904
 20
141.1150933251634
 30
0.0
 11
231.8518464294904
 21
112.1150933251634
 31
0.0
  0
INSERT
  5
271A
330
1FF8
100
AcDbEntity
  8
SUNPOU
100
AcDbBlockReference
  2
_OPEN
 10
231.8518464294904
 20
144.1150933251634
 30
0.0
 41
3.0
 42
3.0
 43
3.0
 50
90.0
  0
INSERT
  5
271B
330
1FF8
100
AcDbEntity
  8
SUNPOU
100
AcDbBlockReference
  2
_OPEN
 10
231.8518464294904
 20
109.1150933251634
 30
0.0
 41
3.0
 42
3.0
 43
3.0
 50
270.0
  0
MTEXT
  5
271C
330
1FF8
100
AcDbEntity
  8
SUNPOU
100
AcDbMText
 10
229.3518464294904
 20
126.6150933251634
 30
0.0
 40
3.0
 41
0.0
 71
     5
 72
     1
  1
\A1;35
 11
0.0000000000000001
 21
1.0
 31
0.0
1001
ACAD
1000
MTEXTBEGIN
1070
    73
1070
     1
1070
    44
1040
1.0
1070
    74
1070
     0
1000
MTEXTEND
  0
POINT
  5
271D
330
1FF8
100
AcDbEntity
  8
DEFPOINTS
 62
     0
100
AcDbPoint
 10
210.8003519685564
 20
144.1150933251634
 30
0.0
  0
POINT
  5
271E
330
1FF8
100
AcDbEntity
  8
DEFPOINTS
 62
     0
100
AcDbPoint
 10
210.8003519685564
 20
109.1150933251634
 30
0.0
  0
POINT
  5
271F
330
1FF8
100
AcDbEntity
  8
DEFPOINTS
 62
     0
100
AcDbPoint
 10
231.8518464294904
 20
109.1150933251634
 30
0.0
  0
ENDBLK
  5
2003
330
1FF8
100
AcDbEntity
  8
0
100
AcDbBlockEnd
  0
BLOCK
  5
2013
330
2007
100
AcDbEntity
  8
0
100
AcDbBlockBegin
  2
*D6
 70
     1
 10
0.0
 20
0.0
 30
0.0
  3
*D6
  1

  0
LINE
  5
275F
330
2007
100
AcDbEntity
  8
SUNPOU
100
AcDbLine
 10
281.2237303347114
 20
144.1150933251634
 30
0.0
 11
265.5057125701455
 21
144.1150933251634
 31
0.0
  0
LINE
  5
2760
330
2007
100
AcDbEntity
  8
SUNPOU
100
AcDbLine
 10
281.1237303347114
 20
136.1150933251634
 30
0.0
 11
265.5057125701455
 21
136.1150933251634
 31
0.0
  0
LINE
  5
2761
330
2007
100
AcDbEntity
  8
SUNPOU
100
AcDbLine
 10
267.0057125701455
 20
147.1150933251634
 30
0.0
 11
267.0057125701455
 21
150.1150933251634
 31
0.0
  0
LINE
  5
2762
330
2007
100
AcDbEntity
  8
SUNPOU
100
AcDbLine
 10
267.0057125701455
 20
133.1150933251634
 30
0.0
 11
267.0057125701455
 21
130.1150933251634
 31
0.0
  0
LINE
  5
2763
330
2007
100
AcDbEntity
  8
SUNPOU
100
AcDbLine
 10
267.0057125701455
 20
144.1150933251634
 30
0.0
 11
267.0057125701455
 21
136.1150933251634
 31
0.0
  0
INSERT
  5
2764
330
2007
100
AcDbEntity
  8
SUNPOU
100
AcDbBlockReference
  2
_OPEN
 10
267.0057125701455
 20
144.1150933251634
 30
0.0
 41
3.0
 42
3.0
 43
3.0
 50
270.0
  0
INSERT
  5
2765
330
2007
100
AcDbEntity
  8
SUNPOU
100
AcDbBlockReference
  2
_OPEN
 10
267.0057125701455
 20
136.1150933251634
 30
0.0
 41
3.0
 42
3.0
 43
3.0
 50
90.0
  0
MTEXT
  5
2766
330
2007
100
AcDbEntity
  8
SUNPOU
100
AcDbMText
 10
264.5057125701455
 20
140.1150933251634
 30
0.0
 40
3.0
 41
0.0
 71
     5
 72
     1
  1
\A1;8
 11
0.0000000000000001
 21
1.0
 31
0.0
1001
ACAD
1000
MTEXTBEGIN
1070
    73
1070
     1
1070
    44
1040
1.0
1070
    74
1070
     0
1000
MTEXTEND
  0
POINT
  5
2767
330
2007
100
AcDbEntity
  8
DEFPOINTS
 62
     0
100
AcDbPoint
 10
284.2237303347114
 20
144.1150933251634
 30
0.0
  0
POINT
  5
2768
330
2007
100
AcDbEntity
  8
DEFPOINTS
 62
     0
100
AcDbPoint
 10
284.1237303347114
 20
136.1150933251634
 30
0.0
  0
POINT
  5
2769
330
2007
100
AcDbEntity
  8
DEFPOINTS
 62
     0
100
AcDbPoint
 10
267.0057125701455
 20
136.1150933251634
 30
0.0
  0
ENDBLK
  5
2014
330
2007
100
AcDbEntity
  8
0
100
AcDbBlockEnd
  0
BLOCK
  5
2020
330
2016
100
AcDbEntity
  8
0
100
AcDbBlockBegin
  2
*D7
 70
     1
 10
0.0
 20
0.0
 30
0.0
  3
*D7
  1

  0
LINE
  5
2773
330
2016
100
AcDbEntity
  8
SUNPOU
100
AcDbLine
 10
281.1237303347114
 20
117.1150933251634
 30
0.0
 11
265.5057125701455
 21
117.1150933251634
 31
0.0
  0
LINE
  5
2774
330
2016
100
AcDbEntity
  8
SUNPOU
100
AcDbLine
 10
281.2237303347114
 20
109.1150933251634
 30
0.0
 11
265.5057125701455
 21
109.1150933251634
 31
0.0
  0
LINE
  5
2775
330
2016
100
AcDbEntity
  8
SUNPOU
100
AcDbLine
 10
267.0057125701455
 20
114.1150933251634
 30
0.0
 11
267.0057125701455
 21
112.1150933251634
 31
0.0
  0
INSERT
  5
2776
330
2016
100
AcDbEntity
  8
SUNPOU
100
AcDbBlockReference
  2
_OPEN
 10
267.0057125701455
 20
117.1150933251634
 30
0.0
 41
3.0
 42
3.0
 43
3.0
 50
90.0
  0
INSERT
  5
2777
330
2016
100
AcDbEntity
  8
SUNPOU
100
AcDbBlockReference
  2
_OPEN
 10
267.0057125701455
 20
109.1150933251634
 30
0.0
 41
3.0
 42
3.0
 43
3.0
 50
270.0
  0
MTEXT
  5
2778
330
2016
100
AcDbEntity
  8
SUNPOU
100
AcDbMText
 10
264.5057125701455
 20
113.1150933251634
 30
0.0
 40
3.0
 41
0.0
 71
     5
 72
     1
  1
\A1;8
 11
0.0000000000000001
 21
1.0
 31
0.0
1001
ACAD
1000
MTEXTBEGIN
1070
    73
1070
     1
1070
    44
1040
1.0
1070
    74
1070
     0
1000
MTEXTEND
  0
POINT
  5
2779
330
2016
100
AcDbEntity
  8
DEFPOINTS
 62
     0
100
AcDbPoint
 10
284.1237303347114
 20
117.1150933251634
 30
0.0
  0
POINT
  5
277A
330
2016
100
AcDbEntity
  8
DEFPOINTS
 62
     0
100
AcDbPoint
 10
284.2237303347114
 20
109.1150933251634
 30
0.0
  0
POINT
  5
277B
330
2016
100
AcDbEntity
  8
DEFPOINTS
 62
     0
100
AcDbPoint
 10
267.0057125701455
 20
109.1150933251634
 30
0.0
  0
ENDBLK
  5
2021
330
2016
100
AcDbEntity
  8
0
100
AcDbBlockEnd
  0
BLOCK
  5
202D
330
2023
100
AcDbEntity
  8
0
100
AcDbBlockBegin
  2
*D8
 70
     1
 10
0.0
 20
0.0
 30
0.0
  3
*D8
  1

  0
LINE
  5
276A
330
2023
100
AcDbEntity
  8
SUNPOU
100
AcDbLine
 10
281.2237303347114
 20
144.1150933251634
 30
0.0
 11
255.4873335424656
 21
144.1150933251634
 31
0.0
  0
LINE
  5
276B
330
2023
100
AcDbEntity
  8
SUNPOU
100
AcDbLine
 10
281.2237303347114
 20
109.1150933251634
 30
0.0
 11
255.4873335424656
 21
109.1150933251634
 31
0.0
  0
LINE
  5
276C
330
2023
100
AcDbEntity
  8
SUNPOU
100
AcDbLine
 10
256.9873335424657
 20
141.1150933251634
 30
0.0
 11
256.9873335424656
 21
112.1150933251634
 31
0.0
  0
INSERT
  5
276D
330
2023
100
AcDbEntity
  8
SUNPOU
100
AcDbBlockReference
  2
_OPEN
 10
256.9873335424657
 20
144.1150933251634
 30
0.0
 41
3.0
 42
3.0
 43
3.0
 50
90.0
  0
INSERT
  5
276E
330
2023
100
AcDbEntity
  8
SUNPOU
100
AcDbBlockReference
  2
_OPEN
 10
256.9873335424656
 20
109.1150933251634
 30
0.0
 41
3.0
 42
3.0
 43
3.0
 50
270.0
  0
MTEXT
  5
276F
330
2023
100
AcDbEntity
  8
SUNPOU
100
AcDbMText
 10
254.4873335424656
 20
126.6150933251634
 30
0.0
 40
3.0
 41
0.0
 71
     5
 72
     1
  1
\A1;35
 11
0.0000000000000001
 21
1.0
 31
0.0
1001
ACAD
1000
MTEXTBEGIN
1070
    73
1070
     1
1070
    44
1040
1.0
1070
    74
1070
     0
1000
MTEXTEND
  0
POINT
  5
2770
330
2023
100
AcDbEntity
  8
DEFPOINTS
 62
     0
100
AcDbPoint
 10
284.2237303347114
 20
144.1150933251634
 30
0.0
  0
POINT
  5
2771
330
2023
100
AcDbEntity
  8
DEFPOINTS
 62
     0
100
AcDbPoint
 10
284.2237303347114
 20
109.1150933251634
 30
0.0
  0
POINT
  5
2772
330
2023
100
AcDbEntity
  8
DEFPOINTS
 62
     0
100
AcDbPoint
 10
256.9873335424656
 20
109.1150933251634
 30
0.0
  0
ENDBLK
  5
202E
330
2023
100
AcDbEntity
  8
0
100
AcDbBlockEnd
  0
BLOCK
  5
2057
330
204D
100
AcDbEntity
  8
0
100
AcDbBlockBegin
  2
*D9
 70
     1
 10
0.0
 20
0.0
 30
0.0
  3
*D9
  1

  0
LINE
  5
2756
330
204D
100
AcDbEntity
  8
SUNPOU
100
AcDbLine
 10
290.2237303347114
 20
145.2150933251634
 30
0.0
 11
290.2237303347114
 21
158.7931837560595
 31
0.0
  0
LINE
  5
2757
330
204D
100
AcDbEntity
  8
SUNPOU
100
AcDbLine
 10
334.2237303347114
 20
145.2150933251634
 30
0.0
 11
334.2237303347114
 21
158.7931837560595
 31
0.0
  0
LINE
  5
2758
330
204D
100
AcDbEntity
  8
SUNPOU
100
AcDbLine
 10
293.2237303347114
 20
157.2931837560595
 30
0.0
 11
331.2237303347114
 21
157.2931837560595
 31
0.0
  0
INSERT
  5
2759
330
204D
100
AcDbEntity
  8
SUNPOU
100
AcDbBlockReference
  2
_OPEN
 10
290.2237303347114
 20
157.2931837560595
 30
0.0
 41
3.0
 42
3.0
 43
3.0
 50
180.0
  0
INSERT
  5
275A
330
204D
100
AcDbEntity
  8
SUNPOU
100
AcDbBlockReference
  2
_OPEN
 10
334.2237303347114
 20
157.2931837560595
 30
0.0
 41
3.0
 42
3.0
 43
3.0
  0
MTEXT
  5
275B
330
204D
100
AcDbEntity
  8
SUNPOU
100
AcDbMText
 10
312.2237303347114
 20
159.7931837560595
 30
0.0
 40
3.0
 41
0.0
 71
     5
 72
     1
  1
\A1;44
1001
ACAD
1000
MTEXTBEGIN
1070
    73
1070
     1
1070
    44
1040
1.0
1070
    74
1070
     0
1000
MTEXTEND
  0
POINT
  5
275C
330
204D
100
AcDbEntity
  8
DEFPOINTS
 62
     0
100
AcDbPoint
 10
290.2237303347114
 20
142.2150933251634
 30
0.0
  0
POINT
  5
275D
330
204D
100
AcDbEntity
  8
DEFPOINTS
 62
     0
100
AcDbPoint
 10
334.2237303347114
 20
142.2150933251634
 30
0.0
  0
POINT
  5
275E
330
204D
100
AcDbEntity
  8
DEFPOINTS
 62
     0
100
AcDbPoint
 10
334.2237303347114
 20
157.2931837560595
 30
0.0
  0
ENDBLK
  5
2058
330
204D
100
AcDbEntity
  8
0
100
AcDbBlockEnd
  0
BLOCK
  5
2064
330
205A
100
AcDbEntity
  8
0
100
AcDbBlockBegin
  2
*D10
 70
     1
 10
0.0
 20
0.0
 30
0.0
  3
*D10
  1

  0
LINE
  5
274D
330
205A
100
AcDbEntity
  8
SUNPOU
100
AcDbLine
 10
281.2237303347114
 20
144.1150933251634
 30
0.0
 11
281.2237303347114
 21
169.1377404395886
 31
0.0
  0
LINE
  5
274E
330
205A
100
AcDbEntity
  8
SUNPOU
100
AcDbLine
 10
343.2237303347114
 20
144.1150933251634
 30
0.0
 11
343.2237303347114
 21
169.1377404395886
 31
0.0
  0
LINE
  5
274F
330
205A
100
AcDbEntity
  8
SUNPOU
100
AcDbLine
 10
284.2237303347114
 20
167.6377404395887
 30
0.0
 11
340.2237303347114
 21
167.6377404395887
 31
0.0
  0
INSERT
  5
2750
330
205A
100
AcDbEntity
  8
SUNPOU
100
AcDbBlockReference
  2
_OPEN
 10
281.2237303347114
 20
167.6377404395887
 30
0.0
 41
3.0
 42
3.0
 43
3.0
 50
180.0
  0
INSERT
  5
2751
330
205A
100
AcDbEntity
  8
SUNPOU
100
AcDbBlockReference
  2
_OPEN
 10
343.2237303347114
 20
167.6377404395887
 30
0.0
 41
3.0
 42
3.0
 43
3.0
  0
MTEXT
  5
2752
330
205A
100
AcDbEntity
  8
SUNPOU
100
AcDbMText
 10
312.2237303347114
 20
170.1377404395886
 30
0.0
 40
3.0
 41
0.0
 71
     5
 72
     1
  1
\A1;62
1001
ACAD
1000
MTEXTBEGIN
1070
    73
1070
     1
1070
    44
1040
1.0
1070
    74
1070
     0
1000
MTEXTEND
  0
POINT
  5
2753
330
205A
100
AcDbEntity
  8
DEFPOINTS
 62
     0
100
AcDbPoint
 10
281.2237303347114
 20
141.1150933251634
 30
0.0
  0
POINT
  5
2754
330
205A
100
AcDbEntity
  8
DEFPOINTS
 62
     0
100
AcDbPoint
 10
343.2237303347114
 20
141.1150933251634
 30
0.0
  0
POINT
  5
2755
330
205A
100
AcDbEntity
  8
DEFPOINTS
 62
     0
100
AcDbPoint
 10
343.2237303347114
 20
167.6377404395887
 30
0.0
  0
ENDBLK
  5
2065
330
205A
100
AcDbEntity
  8
0
100
AcDbBlockEnd
  0
BLOCK
  5
2071
330
2067
100
AcDbEntity
  8
0
100
AcDbBlockBegin
  2
*D11
 70
     1
 10
0.0
 20
0.0
 30
0.0
  3
*D11
  1

  0
LINE
  5
270E
330
2067
100
AcDbEntity
  8
SUNPOU
100
AcDbLine
 10
213.8003519685564
 20
260.5657358570524
 30
0.0
 11
233.3518464294904
 21
260.5657358570524
 31
0.0
  0
LINE
  5
270F
330
2067
100
AcDbEntity
  8
SUNPOU
100
AcDbLine
 10
213.8003519685564
 20
198.5657358570524
 30
0.0
 11
233.3518464294904
 21
198.5657358570524
 31
0.0
  0
LINE
  5
2710
330
2067
100
AcDbEntity
  8
SUNPOU
100
AcDbLine
 10
231.8518464294905
 20
257.5657358570524
 30
0.0
 11
231.8518464294905
 21
201.5657358570524
 31
0.0
  0
INSERT
  5
2711
330
2067
100
AcDbEntity
  8
SUNPOU
100
AcDbBlockReference
  2
_OPEN
 10
231.8518464294905
 20
260.5657358570524
 30
0.0
 41
3.0
 42
3.0
 43
3.0
 50
90.0
  0
INSERT
  5
2712
330
2067
100
AcDbEntity
  8
SUNPOU
100
AcDbBlockReference
  2
_OPEN
 10
231.8518464294905
 20
198.5657358570524
 30
0.0
 41
3.0
 42
3.0
 43
3.0
 50
270.0
  0
MTEXT
  5
2713
330
2067
100
AcDbEntity
  8
SUNPOU
100
AcDbMText
 10
229.3518464294904
 20
229.5657358570525
 30
0.0
 40
3.0
 41
0.0
 71
     5
 72
     1
  1
\A1;62
 11
0.0000000000000001
 21
1.0
 31
0.0
1001
ACAD
1000
MTEXTBEGIN
1070
    73
1070
     1
1070
    44
1040
1.0
1070
    74
1070
     0
1000
MTEXTEND
  0
POINT
  5
2714
330
2067
100
AcDbEntity
  8
DEFPOINTS
 62
     0
100
AcDbPoint
 10
210.8003519685564
 20
260.5657358570524
 30
0.0
  0
POINT
  5
2715
330
2067
100
AcDbEntity
  8
DEFPOINTS
 62
     0
100
AcDbPoint
 10
210.8003519685564
 20
198.5657358570524
 30
0.0
  0
POINT
  5
2716
330
2067
100
AcDbEntity
  8
DEFPOINTS
 62
     0
100
AcDbPoint
 10
231.8518464294905
 20
198.5657358570524
 30
0.0
  0
ENDBLK
  5
2072
330
2067
100
AcDbEntity
  8
0
100
AcDbBlockEnd
  0
BLOCK
  5
207E
330
2074
100
AcDbEntity
  8
0
100
AcDbBlockBegin
  2
*D12
 70
     1
 10
0.0
 20
0.0
 30
0.0
  3
*D12
  1

  0
LINE
  5
2744
330
2074
100
AcDbEntity
  8
SUNPOU
100
AcDbLine
 10
72.79993486855648
 20
239.5657358570524
 30
0.0
 11
47.46912210021879
 21
239.5657358570524
 31
0.0
  0
LINE
  5
2745
330
2074
100
AcDbEntity
  8
SUNPOU
100
AcDbLine
 10
72.79993486855648
 20
219.5657358570524
 30
0.0
 11
47.46912210021879
 21
219.5657358570525
 31
0.0
  0
LINE
  5
2746
330
2074
100
AcDbEntity
  8
SUNPOU
100
AcDbLine
 10
48.9691221002188
 20
236.5657358570524
 30
0.0
 11
48.9691221002188
 21
222.5657358570524
 31
0.0
  0
INSERT
  5
2747
330
2074
100
AcDbEntity
  8
SUNPOU
100
AcDbBlockReference
  2
_OPEN
 10
48.9691221002188
 20
239.5657358570524
 30
0.0
 41
3.0
 42
3.0
 43
3.0
 50
90.0
  0
INSERT
  5
2748
330
2074
100
AcDbEntity
  8
SUNPOU
100
AcDbBlockReference
  2
_OPEN
 10
48.9691221002188
 20
219.5657358570525
 30
0.0
 41
3.0
 42
3.0
 43
3.0
 50
270.0
  0
MTEXT
  5
2749
330
2074
100
AcDbEntity
  8
SUNPOU
100
AcDbMText
 10
46.46912210021876
 20
229.5657358570525
 30
0.0
 40
3.0
 41
0.0
 71
     5
 72
     1
  1
\A1;20
 11
0.0000000000000001
 21
1.0
 31
0.0
1001
ACAD
1000
MTEXTBEGIN
1070
    73
1070
     1
1070
    44
1040
1.0
1070
    74
1070
     0
1000
MTEXTEND
  0
POINT
  5
274A
330
2074
100
AcDbEntity
  8
DEFPOINTS
 62
     0
100
AcDbPoint
 10
75.79993486855648
 20
239.5657358570524
 30
0.0
  0
POINT
  5
274B
330
2074
100
AcDbEntity
  8
DEFPOINTS
 62
     0
100
AcDbPoint
 10
75.79993486855648
 20
219.5657358570524
 30
0.0
  0
POINT
  5
274C
330
2074
100
AcDbEntity
  8
DEFPOINTS
 62
     0
100
AcDbPoint
 10
48.9691221002188
 20
219.5657358570525
 30
0.0
  0
ENDBLK
  5
207F
330
2074
100
AcDbEntity
  8
0
100
AcDbBlockEnd
  0
ENDSEC
  0
SECTION
  2
ENTITIES
  0
TEXT
  5
9D
330
1A
100
AcDbEntity
  8
ZUWAKU
 48
5.0
100
AcDbText
 10
327.1013476411085
 20
8.060146781246267
 30
0.0
 40
4.0
  1

100
AcDbText
  0
ARC
  5
5A7
330
1A
100
AcDbEntity
  8
NOKITOI
  6
PHANTOM
 62
     8
100
AcDbCircle
 10
124.1369613653268
 20
81.49412950153347
 30
0.0
 40
43.00001447645168
100
AcDbArc
 50
186.5249107071177
 51
269.9998883751437
  0
ARC
  5
5A8
330
1A
100
AcDbEntity
  8
NOKITOI
  6
PHANTOM
 62
     8
100
AcDbCircle
 10
124.1369836737521
 20
81.49410940050708
 30
0.0
 40
41.79999437547816
100
AcDbArc
 50
184.4742952125247
 51
269.999854592109
  0
LINE
  5
5A9
330
1A
100
AcDbEntity
  8
NOKITOI
  6
PHANTOM
 62
     8
100
AcDbLine
 10
73.92597759178397
 20
80.6317150251634
 30
0.0
 11
73.84047759178429
 21
83.36921502516336
 31
0.0
  0
LINE
  5
5AA
330
1A
100
AcDbEntity
  8
NOKITOI
  6
PHANTOM
 62
     8
100
AcDbLine
 10
72.38787759178421
 20
91.43161502516338
 30
0.0
 11
72.77807759178404
 21
78.9473150251633
 31
0.0
  0
LINE
  5
5AB
330
1A
100
AcDbEntity
  8
NOKITOI
  6
PHANTOM
 62
     8
100
AcDbLine
 10
81.96587759178465
 20
78.69411502516342
 30
0.0
 11
75.92497759178423
 21
78.69411502516342
 31
0.0
  0
ARC
  5
5AC
330
1A
100
AcDbEntity
  8
NOKITOI
  6
PHANTOM
 62
     8
100
AcDbCircle
 10
80.42196916762168
 20
76.49412254021988
 30
0.0
 40
0.9999924849789756
100
AcDbArc
 50
6.528264606673934
 51
89.99951732740965
  0
LINE
  5
5AD
330
1A
100
AcDbEntity
  8
NOKITOI
  6
PHANTOM
 62
     8
100
AcDbLine
 10
74.27727759178424
 20
77.49411502516338
 30
0.0
 11
80.42197759178407
 21
77.49411502516338
 31
0.0
  0
ARC
  5
5AE
330
1A
100
AcDbEntity
  8
NOKITOI
  6
PHANTOM
 62
     8
100
AcDbCircle
 10
75.92499116392264
 20
80.69410187007699
 30
0.0
 40
1.999986844959662
100
AcDbArc
 50
181.7875531852356
 51
269.9996111843215
  0
ARC
  5
5AF
330
1A
100
AcDbEntity
  8
NOKITOI
  6
PHANTOM
 62
     8
100
AcDbCircle
 10
74.2773135509351
 20
78.99408017102016
 30
0.0
 40
1.499965146287778
100
AcDbArc
 50
181.7866280217767
 51
269.9986264296971
  0
ARC
  5
5B0
330
1A
100
AcDbEntity
  8
NOKITOI
  6
PHANTOM
 62
     8
100
AcDbCircle
 10
81.96589016149255
 20
78.1941034004337
 30
0.0
 40
0.5000116248877111
100
AcDbArc
 50
4.474846808342103
 51
90.00144034898383
  0
ARC
  5
5B1
330
1A
100
AcDbEntity
  8
NOKITOI
  6
PHANTOM
 62
     8
100
AcDbCircle
 10
74.38689034263416
 20
91.49412818024982
 30
0.0
 40
1.999986844954076
100
AcDbArc
 50
90.00036528735451
 51
181.7883072882703
  0
LINE
  5
5B2
330
1A
100
AcDbEntity
  8
NOKITOI
  6
PHANTOM
 62
     8
100
AcDbLine
 10
80.66477759178406
 20
90.99411502516337
 30
0.0
 11
78.43327759178419
 21
90.99411502516337
 31
0.0
  0
ARC
  5
5B3
330
1A
100
AcDbEntity
  8
NOKITOI
  6
PHANTOM
 62
     8
100
AcDbCircle
 10
80.34897070478928
 20
84.49410849007788
 30
0.0
 40
0.499993464961963
100
AcDbArc
 50
270.0007892017869
 51
356.997036131742
  0
LINE
  5
5B4
330
1A
100
AcDbEntity
  8
NOKITOI
  6
PHANTOM
 62
     8
100
AcDbLine
 10
79.68487759178424
 20
85.19411502516343
 30
0.0
 11
79.86607759178423
 21
88.63561502516356
 31
0.0
  0
LINE
  5
5B5
330
1A
100
AcDbEntity
  8
NOKITOI
  6
PHANTOM
 62
     8
100
AcDbLine
 10
79.3110775917844
 20
88.0225150251633
 30
0.0
 11
79.86607759178423
 21
88.63561502516356
 31
0.0
  0
ARC
  5
5B6
330
1A
100
AcDbEntity
  8
NOKITOI
  6
PHANTOM
 62
     8
100
AcDbCircle
 10
77.83859780445346
 20
83.49417375354343
 30
0.0
 40
5.2000412730095
100
AcDbArc
 50
90.0013245430618
 51
142.0757990790548
  0
LINE
  5
5B7
330
1A
100
AcDbEntity
  8
NOKITOI
  6
PHANTOM
 62
     8
100
AcDbLine
 10
73.58727759178464
 20
91.4691150251633
 30
0.0
 11
73.73667759178397
 21
86.69021502516349
 31
0.0
  0
ARC
  5
5B8
330
1A
100
AcDbEntity
  8
NOKITOI
  6
PHANTOM
 62
     8
100
AcDbCircle
 10
77.83851547323092
 20
83.49415880768876
 30
0.0
 40
3.999989731271038
100
AcDbArc
 50
96.47731142013116
 51
181.7899836067311
  0
ARC
  5
5B9
330
1A
100
AcDbEntity
  8
NOKITOI
  6
PHANTOM
 62
     8
100
AcDbCircle
 10
77.44369181019965
 20
86.97180039086239
 30
0.0
 40
0.5000073448410256
100
AcDbArc
 50
351.872947864124
 51
96.47829282996921
  0
LINE
  5
5BA
330
1A
100
AcDbEntity
  8
NOKITOI
  6
PHANTOM
 62
     8
100
AcDbLine
 10
78.90697759178465
 20
85.19411502516343
 30
0.0
 11
79.3110775917844
 21
88.0225150251633
 31
0.0
  0
LINE
  5
5BB
330
1A
100
AcDbEntity
  8
NOKITOI
  6
PHANTOM
 62
     8
100
AcDbLine
 10
79.68487759178424
 20
85.19411502516343
 30
0.0
 11
78.90697759178465
 21
85.19411502516343
 31
0.0
  0
ARC
  5
5BC
330
1A
100
AcDbEntity
  8
NOKITOI
  6
PHANTOM
 62
     8
100
AcDbCircle
 10
78.09990419238193
 20
84.49408434828134
 30
0.0
 40
0.4999693238254178
100
AcDbArc
 50
171.8555038770531
 51
269.9969516090356
  0
LINE
  5
5BD
330
1A
100
AcDbEntity
  8
NOKITOI
  6
PHANTOM
 62
     8
100
AcDbLine
 10
80.3489775917842
 20
83.99411502516338
 30
0.0
 11
78.09987759178421
 21
83.99411502516338
 31
0.0
  0
LINE
  5
5BE
330
1A
100
AcDbEntity
  8
NOKITOI
  6
PHANTOM
 62
     8
100
AcDbLine
 10
77.60497759178406
 20
84.56491502516357
 30
0.0
 11
77.9386775917842
 21
86.90111502516353
 31
0.0
  0
LINE
  5
5BF
330
1A
100
AcDbEntity
  8
NOKITOI
  6
PHANTOM
 62
     8
100
AcDbLine
 10
76.85967759178447
 20
92.29411502516356
 30
0.0
 11
76.35967759178448
 21
89.79411502516356
 31
0.0
  0
LINE
  5
5C0
330
1A
100
AcDbEntity
  8
NOKITOI
  6
PHANTOM
 62
     8
100
AcDbLine
 10
76.35967759178448
 20
89.79411502516356
 30
0.0
 11
79.29617759178427
 21
89.79411502516356
 31
0.0
  0
LINE
  5
5C1
330
1A
100
AcDbEntity
  8
NOKITOI
  6
PHANTOM
 62
     8
100
AcDbLine
 10
74.38687759178401
 20
93.49411502516337
 30
0.0
 11
77.71347759178434
 21
93.49411502516337
 31
0.0
  0
LINE
  5
5C2
330
1A
100
AcDbEntity
  8
NOKITOI
  6
PHANTOM
 62
     8
100
AcDbLine
 10
74.38687759178401
 20
92.29411502516356
 30
0.0
 11
76.85967759178447
 21
92.29411502516356
 31
0.0
  0
ARC
  5
5C3
330
1A
100
AcDbEntity
  8
NOKITOI
  6
PHANTOM
 62
     8
100
AcDbCircle
 10
74.38688208658231
 20
91.49411966269028
 30
0.0
 40
0.7999953624857498
100
AcDbArc
 50
90.00032191805264
 51
181.7911273464193
  0
ARC
  5
5C4
330
1A
100
AcDbEntity
  8
NOKITOI
  6
PHANTOM
 62
     8
100
AcDbCircle
 10
77.71347680877579
 20
92.9941159801651
 30
0.0
 40
0.4999990449987349
100
AcDbArc
 50
348.6967198015447
 51
89.99991027369492
  0
ARC
  5
5C5
330
1A
100
AcDbEntity
  8
NOKITOI
  6
PHANTOM
 62
     8
100
AcDbCircle
 10
78.4332703372288
 20
91.4941238750068
 30
0.0
 40
0.5000088498959383
100
AcDbArc
 50
168.6864043304892
 51
270.0008312961442
  0
LINE
  5
5C6
330
1A
100
AcDbEntity
  8
NOKITOI
  6
PHANTOM
 62
     8
100
AcDbLine
 10
77.94297759178426
 20
91.59221502516331
 30
0.0
 11
78.20377759178427
 21
92.89611502516342
 31
0.0
  0
LINE
  5
5C7
330
1A
100
AcDbEntity
  8
NOKITOI
  6
PHANTOM
 62
     8
100
AcDbLine
 10
78.30037759178458
 20
88.69411502516342
 30
0.0
 11
77.83847759178434
 21
88.69411502516342
 31
0.0
  0
LINE
  5
5C8
330
1A
100
AcDbEntity
  8
NOKITOI
  6
PHANTOM
 62
     8
100
AcDbLine
 10
78.30037759178458
 20
88.69411502516342
 30
0.0
 11
79.29617759178427
 21
89.79411502516356
 31
0.0
  0
LINE
  5
5C9
330
1A
100
AcDbEntity
  8
NOKITOI
  6
PHANTOM
 62
     8
100
AcDbLine
 10
80.84837759178435
 20
84.46791502516337
 30
0.0
 11
81.16417759178421
 21
90.46781502516338
 31
0.0
  0
ARC
  5
5CA
330
1A
100
AcDbEntity
  8
NOKITOI
  6
PHANTOM
 62
     8
100
AcDbCircle
 10
80.66477139062635
 20
90.49412156024866
 30
0.0
 40
0.4999934649531607
100
AcDbArc
 50
356.9955363203376
 51
89.99928939038076
  0
LINE
  5
5CB
330
1A
100
AcDbEntity
  8
NOKITOI
  6
PHANTOM
 62
     8
100
AcDbLine
 10
164.9663775917842
 20
38.4940150251634
 30
0.0
 11
144.8084775917845
 21
38.4940150251634
 31
0.0
  0
LINE
  5
5CC
330
1A
100
AcDbEntity
  8
NOKITOI
  6
PHANTOM
 62
     8
100
AcDbLine
 10
164.7165775917842
 20
39.69401502516345
 30
0.0
 11
144.8084775917845
 21
39.69401502516345
 31
0.0
  0
LINE
  5
5CD
330
1A
100
AcDbEntity
  8
NOKITOI
  6
PHANTOM
 62
     8
100
AcDbLine
 10
168.9663775917842
 20
38.4940150251634
 30
0.0
 11
124.1369775917841
 21
38.49411502516338
 31
0.0
  0
LINE
  5
5CE
330
1A
100
AcDbEntity
  8
NOKITOI
  6
PHANTOM
 62
     8
100
AcDbLine
 10
124.1369775917841
 20
39.69411502516342
 30
0.0
 11
168.7165775917842
 21
39.69401502516345
 31
0.0
  0
LINE
  5
5CF
330
1A
100
AcDbEntity
  8
NOKITOI
  6
PHANTOM
 62
     8
100
AcDbLine
 10
190.7208775917842
 20
80.63151502516346
 30
0.0
 11
190.8063775917839
 21
83.36911502516338
 31
0.0
  0
LINE
  5
5D0
330
1A
100
AcDbEntity
  8
NOKITOI
  6
PHANTOM
 62
     8
100
AcDbLine
 10
192.2588775917842
 20
91.43161502516338
 30
0.0
 11
191.8687775917842
 21
78.94721502516333
 31
0.0
  0
LINE
  5
5D1
330
1A
100
AcDbEntity
  8
NOKITOI
  6
PHANTOM
 62
     8
100
AcDbLine
 10
190.3694775917842
 20
77.49411502516338
 30
0.0
 11
184.2283775917844
 21
77.49411502516338
 31
0.0
  0
LINE
  5
5D2
330
1A
100
AcDbEntity
  8
NOKITOI
  6
PHANTOM
 62
     8
100
AcDbLine
 10
182.6898775917838
 20
78.69411502516342
 30
0.0
 11
188.7217775917842
 21
78.69411502516342
 31
0.0
  0
LINE
  5
5D3
330
1A
100
AcDbEntity
  8
NOKITOI
  6
PHANTOM
 62
     8
100
AcDbLine
 10
183.2333775917845
 20
76.59361502516341
 30
0.0
 11
180.3645775917843
 21
47.90621502516339
 31
0.0
  0
LINE
  5
5D4
330
1A
100
AcDbEntity
  8
NOKITOI
  6
PHANTOM
 62
     8
100
AcDbLine
 10
182.1923775917843
 20
78.24391502516343
 30
0.0
 11
179.1993775917839
 21
48.31411502516331
 31
0.0
  0
LINE
  5
5D5
330
1A
100
AcDbEntity
  8
NOKITOI
  6
PHANTOM
 62
     8
100
AcDbLine
 10
180.0027775917842
 20
47.23171502516353
 30
0.0
 11
169.5996775917842
 21
38.72001502516352
 31
0.0
  0
LINE
  5
5D6
330
1A
100
AcDbEntity
  8
NOKITOI
  6
PHANTOM
 62
     8
100
AcDbLine
 10
179.0184775917845
 20
47.9768150251634
 30
0.0
 11
169.0331775917843
 21
39.80701502516328
 31
0.0
  0
ARC
  5
5D7
330
1A
100
AcDbEntity
  8
NOKITOI
  6
PHANTOM
 62
     8
100
AcDbCircle
 10
168.9663706592068
 20
39.49401255015729
 30
0.0
 40
0.9999975250179316
100
AcDbArc
 50
270.0003972084035
 51
309.2946416752299
  0
ARC
  5
5D8
330
1A
100
AcDbEntity
  8
NOKITOI
  6
PHANTOM
 62
     8
100
AcDbCircle
 10
168.7165839795329
 20
40.19401730515298
 30
0.0
 40
0.5000022800304047
100
AcDbArc
 50
269.9992680212791
 51
309.2854498596061
  0
ARC
  5
5D9
330
1A
100
AcDbEntity
  8
NOKITOI
  6
PHANTOM
 62
     8
100
AcDbCircle
 10
179.3695550189154
 20
48.0056729534908
 30
0.0
 40
0.9999908507640039
100
AcDbArc
 50
309.288709223069
 51
354.2862329477532
  0
ARC
  5
5DA
330
1A
100
AcDbEntity
  8
NOKITOI
  6
PHANTOM
 62
     8
100
AcDbCircle
 10
178.701860165906
 20
48.36378253877544
 30
0.0
 40
0.4999904508696396
100
AcDbArc
 50
309.2900846377951
 51
354.2990110749239
  0
ARC
  5
5DB
330
1A
100
AcDbEntity
  8
NOKITOI
  6
PHANTOM
 62
     8
100
AcDbCircle
 10
184.2283982416251
 20
76.49413371301259
 30
0.0
 40
0.9999813123640345
100
AcDbArc
 50
90.00118317084911
 51
174.2905900333514
  0
ARC
  5
5DC
330
1A
100
AcDbEntity
  8
NOKITOI
  6
PHANTOM
 62
     8
100
AcDbCircle
 10
182.6898906627888
 20
78.19412685544327
 30
0.0
 40
0.499988169890889
100
AcDbArc
 50
90.00149786226634
 51
174.2966061377162
  0
ARC
  5
5DD
330
1A
100
AcDbEntity
  8
NOKITOI
  6
PHANTOM
 62
     8
100
AcDbCircle
 10
190.3694948049624
 20
78.99413170831119
 30
0.0
 40
1.500016683246579
100
AcDbArc
 50
269.9993425123344
 51
358.2076423244113
  0
ARC
  5
5DE
330
1A
100
AcDbEntity
  8
NOKITOI
  6
PHANTOM
 62
     8
100
AcDbCircle
 10
188.7218155796085
 20
80.69405184573563
 30
0.0
 40
2.000036820932882
100
AcDbArc
 50
269.9989117490344
 51
358.2110591274195
  0
LINE
  5
5DF
330
1A
100
AcDbEntity
  8
NOKITOI
  6
PHANTOM
 62
     8
100
AcDbLine
 10
190.2598775917844
 20
93.49401502516341
 30
0.0
 11
186.9332775917841
 21
93.49411502516337
 31
0.0
  0
LINE
  5
5E0
330
1A
100
AcDbEntity
  8
NOKITOI
  6
PHANTOM
 62
     8
100
AcDbLine
 10
188.2871775917842
 20
89.79411502516356
 30
0.0
 11
185.3505775917842
 21
89.79411502516356
 31
0.0
  0
ARC
  5
5E1
330
1A
100
AcDbEntity
  8
NOKITOI
  6
PHANTOM
 62
     8
100
AcDbCircle
 10
187.2031069642839
 20
86.97174525765829
 30
0.0
 40
0.4999578477751074
100
AcDbArc
 50
83.52609071220754
 51
188.1330561712932
  0
ARC
  5
5E2
330
1A
100
AcDbEntity
  8
NOKITOI
  6
PHANTOM
 62
     8
100
AcDbCircle
 10
186.808359725433
 20
83.49412375354333
 30
0.0
 40
5.199991271650611
100
AcDbArc
 50
37.92532860472995
 51
89.9998031407256
  0
LINE
  5
5E3
330
1A
100
AcDbEntity
  8
NOKITOI
  6
PHANTOM
 62
     8
100
AcDbLine
 10
184.9618775917842
 20
85.19411502516343
 30
0.0
 11
184.780777591784
 21
88.63551502516335
 31
0.0
  0
LINE
  5
5E4
330
1A
100
AcDbEntity
  8
NOKITOI
  6
PHANTOM
 62
     8
100
AcDbLine
 10
185.3357775917842
 20
88.0225150251633
 30
0.0
 11
184.780777591784
 21
88.63551502516335
 31
0.0
  0
LINE
  5
5E5
330
1A
100
AcDbEntity
  8
NOKITOI
  6
PHANTOM
 62
     8
100
AcDbLine
 10
183.7984775917843
 20
84.46781502516339
 30
0.0
 11
183.482677591784
 21
90.46781502516338
 31
0.0
  0
LINE
  5
5E6
330
1A
100
AcDbEntity
  8
NOKITOI
  6
PHANTOM
 62
     8
100
AcDbLine
 10
185.7397775917838
 20
85.19411502516343
 30
0.0
 11
185.3357775917842
 21
88.0225150251633
 31
0.0
  0
LINE
  5
5E7
330
1A
100
AcDbEntity
  8
NOKITOI
  6
PHANTOM
 62
     8
100
AcDbLine
 10
184.9618775917842
 20
85.19411502516343
 30
0.0
 11
185.7397775917838
 21
85.19411502516343
 31
0.0
  0
LINE
  5
5E8
330
1A
100
AcDbEntity
  8
NOKITOI
  6
PHANTOM
 62
     8
100
AcDbLine
 10
184.2977775917842
 20
83.99411502516338
 30
0.0
 11
186.5468775917838
 21
83.99411502516338
 31
0.0
  0
ARC
  5
5E9
330
1A
100
AcDbEntity
  8
NOKITOI
  6
PHANTOM
 62
     8
100
AcDbCircle
 10
184.2977817131909
 20
84.49411111513288
 30
0.0
 40
0.4999960899864752
100
AcDbArc
 50
183.0147243791741
 51
269.9995277178593
  0
ARC
  5
5EA
330
1A
100
AcDbEntity
  8
NOKITOI
  6
PHANTOM
 62
     8
100
AcDbCircle
 10
186.5468877782204
 20
84.49412676988751
 30
0.0
 40
0.5000117448278309
100
AcDbArc
 50
269.9988327478016
 51
8.127314608715551
  0
LINE
  5
5EB
330
1A
100
AcDbEntity
  8
NOKITOI
  6
PHANTOM
 62
     8
100
AcDbLine
 10
187.0418775917841
 20
84.56481502516338
 30
0.0
 11
186.7080775917843
 21
86.90101502516355
 31
0.0
  0
LINE
  5
5EC
330
1A
100
AcDbEntity
  8
NOKITOI
  6
PHANTOM
 62
     8
100
AcDbLine
 10
183.9819775917844
 20
90.99411502516337
 30
0.0
 11
186.2134775917843
 21
90.99411502516337
 31
0.0
  0
ARC
  5
5ED
330
1A
100
AcDbEntity
  8
NOKITOI
  6
PHANTOM
 62
     8
100
AcDbCircle
 10
183.9819813012795
 20
90.4941189351941
 30
0.0
 40
0.4999960899831856
100
AcDbArc
 50
90.00042508015082
 51
183.0156217414647
  0
ARC
  5
5EE
330
1A
100
AcDbEntity
  8
NOKITOI
  6
PHANTOM
 62
     8
100
AcDbCircle
 10
186.9332703372287
 20
92.99410617531995
 30
0.0
 40
0.500008849895925
100
AcDbArc
 50
89.99916870385415
 51
191.3135956695126
  0
ARC
  5
5EF
330
1A
100
AcDbEntity
  8
NOKITOI
  6
PHANTOM
 62
     8
100
AcDbCircle
 10
186.2134768087757
 20
91.49411407016165
 30
0.0
 40
0.4999990449987399
100
AcDbArc
 50
270.000089726305
 51
11.30328019845521
  0
LINE
  5
5F0
330
1A
100
AcDbEntity
  8
NOKITOI
  6
PHANTOM
 62
     8
100
AcDbLine
 10
186.7037775917842
 20
91.59211502516356
 30
0.0
 11
186.4429775917842
 21
92.89611502516342
 31
0.0
  0
LINE
  5
5F1
330
1A
100
AcDbEntity
  8
NOKITOI
  6
PHANTOM
 62
     8
100
AcDbLine
 10
186.3463775917843
 20
88.69411502516342
 30
0.0
 11
186.8083775917843
 21
88.69411502516342
 31
0.0
  0
LINE
  5
5F2
330
1A
100
AcDbEntity
  8
NOKITOI
  6
PHANTOM
 62
     8
100
AcDbLine
 10
186.3463775917843
 20
88.69411502516342
 30
0.0
 11
185.3505775917842
 21
89.79411502516356
 31
0.0
  0
LINE
  5
5F3
330
1A
100
AcDbEntity
  8
NOKITOI
  6
PHANTOM
 62
     8
100
AcDbLine
 10
191.0594775917838
 20
91.4691150251633
 30
0.0
 11
190.9101775917842
 21
86.69011502516353
 31
0.0
  0
ARC
  5
5F4
330
1A
100
AcDbEntity
  8
NOKITOI
  6
PHANTOM
 62
     8
100
AcDbCircle
 10
186.8083466648481
 20
83.49415076982721
 30
0.0
 40
3.99998565374706
100
AcDbArc
 50
358.208696659101
 51
83.52422380468341
  0
ARC
  5
5F5
330
1A
100
AcDbEntity
  8
NOKITOI
  6
PHANTOM
 62
     8
100
AcDbCircle
 10
190.25986635479
 20
91.49412661898052
 30
0.0
 40
1.999988406214315
100
AcDbArc
 50
358.2088726535936
 51
89.99967808195551
  0
LINE
  5
5F6
330
1A
100
AcDbEntity
  8
NOKITOI
  6
PHANTOM
 62
     8
100
AcDbLine
 10
190.2598775917844
 20
92.29401502516337
 30
0.0
 11
187.7871775917842
 21
92.29411502516356
 31
0.0
  0
LINE
  5
5F7
330
1A
100
AcDbEntity
  8
NOKITOI
  6
PHANTOM
 62
     8
100
AcDbLine
 10
187.7871775917842
 20
92.29411502516356
 30
0.0
 11
188.2871775917842
 21
89.79411502516356
 31
0.0
  0
ARC
  5
5F8
330
1A
100
AcDbEntity
  8
NOKITOI
  6
PHANTOM
 62
     8
100
AcDbCircle
 10
190.2599215581371
 20
91.4940696626904
 30
0.0
 40
0.7999453636812564
100
AcDbArc
 50
358.2123436447881
 51
90.00314907315425
  0
LINE
  5
1D19
330
1A
100
AcDbEntity
  8
SEIHIN
100
AcDbLine
 10
151.5146535117717
 20
88.28690146832313
 30
0.0
 11
164.3021400685564
 21
101.0743881251634
 31
0.0
  0
ARC
  5
1D1B
330
1A
100
AcDbEntity
  8
SEIHIN
100
AcDbCircle
 10
150.8146534685564
 20
88.50111502516346
 30
0.0
 40
5.500000002456481
100
AcDbArc
 50
270.0
 51
315.0
  0
LINE
  5
1D1E
330
1A
100
AcDbEntity
  8
SEIHIN
100
AcDbLine
 10
85.70350806855651
 20
75.40111502516343
 30
0.0
 11
154.1283619685564
 21
75.40111502516343
 31
0.0
  0
LINE
  5
1D23
330
1A
100
AcDbEntity
  8
SEIHIN
100
AcDbLine
 10
150.8075466901919
 20
88.99400824674328
 30
0.0
 11
163.5950332685564
 21
101.7814949251634
 31
0.0
  0
LINE
  5
1D24
330
1A
100
AcDbEntity
  8
CENTER_L
100
AcDbLine
 10
138.2999348685564
 20
97.89171789927081
 30
0.0
 11
138.2999348685564
 21
72.95270044728851
 31
0.0
  0
LINE
  5
1D2A
330
1A
100
AcDbEntity
  8
SEIHIN
100
AcDbLine
 10
128.2999348685564
 20
88.70111502516346
 30
0.0
 11
128.2999348685564
 21
83.20111502516345
 31
0.0
  0
LINE
  5
1D2C
330
1A
100
AcDbEntity
  8
SEIHIN
100
AcDbLine
 10
78.09993486855649
 20
83.00111502516346
 30
0.0
 11
150.8148178503
 21
83.00111502516346
 31
0.0
  0
ARC
  5
1D41
330
1A
100
AcDbEntity
  8
SEIHIN
100
AcDbCircle
 10
85.70350806855651
 20
77.00111502516346
 30
0.0
 40
1.599999992064534
100
AcDbArc
 50
185.0000004668387
 51
270.0
  0
LINE
  5
1D42
330
1A
100
AcDbEntity
  8
SEIHIN
100
AcDbLine
 10
78.89993486855644
 20
80.40111502516344
 30
0.0
 11
83.79993486855648
 21
80.40111502516344
 31
0.0
  0
ARC
  5
1D43
330
1A
100
AcDbEntity
  8
SEIHIN
100
AcDbCircle
 10
78.89993486855644
 20
83.50111502516346
 30
0.0
 40
3.100000000000008
100
AcDbArc
 50
180.0
 51
270.0
  0
LINE
  5
1D44
330
1A
100
AcDbEntity
  8
SEIHIN
100
AcDbLine
 10
75.79993486855648
 20
87.40111502516343
 30
0.0
 11
77.59993486855648
 21
87.40111502516343
 31
0.0
  0
ARC
  5
1D45
330
1A
100
AcDbEntity
  8
SEIHIN
100
AcDbCircle
 10
78.09993486855649
 20
83.50111502516346
 30
0.0
 40
0.5
100
AcDbArc
 50
180.0
 51
270.0
  0
LINE
  5
1D46
330
1A
100
AcDbEntity
  8
SEIHIN
100
AcDbLine
 10
75.79993486855648
 20
87.40111502516343
 30
0.0
 11
75.79993486855648
 21
83.50111502516346
 31
0.0
  0
LINE
  5
1D47
330
1A
100
AcDbEntity
  8
SEIHIN
100
AcDbLine
 10
77.59993486855648
 20
87.40111502516343
 30
0.0
 11
77.59993486855648
 21
83.50111502516346
 31
0.0
  0
LINE
  5
1D48
330
1A
100
AcDbEntity
  8
SEIHIN
100
AcDbLine
 10
84.10959656855647
 20
76.86166582516346
 30
0.0
 11
83.57246432879
 21
83.00111502516344
 31
0.0
  0
LINE
  5
1D4B
330
1A
100
AcDbEntity
  8
SEIHIN
100
AcDbLine
 10
128.2999348685564
 20
87.70111502516346
 30
0.0
 11
150.1004399438659
 21
87.70111502516346
 31
0.0
  0
LINE
  5
1D4D
330
1A
100
AcDbEntity
  8
SEIHIN
100
AcDbLine
 10
128.2999348685564
 20
83.00111502516346
 30
0.0
 11
150.8146534685564
 21
83.00111502516346
 31
0.0
  0
ARC
  5
1D5C
330
1A
100
AcDbEntity
  8
SEIHIN
100
AcDbCircle
 10
138.2999348685564
 20
82.81049002516345
 30
0.0
 40
7.890625
100
AcDbArc
 50
48.29108392084388
 51
131.708916079156
  0
LINE
  5
1D5D
330
1A
100
AcDbEntity
  8
SEIHIN
100
AcDbLine
 10
128.2999348685564
 20
88.70111502516346
 30
0.0
 11
150.100439906239
 21
88.70111502516344
 31
0.0
  0
LINE
  5
1D5E
330
1A
100
AcDbEntity
  8
SEIHIN
100
AcDbLine
 10
322.2237303347114
 20
98.93644402516343
 30
0.0
 11
322.2237303347114
 21
74.53348702516343
 31
0.0
  0
LINE
  5
1D60
330
1A
100
AcDbEntity
  8
CENTER_L
100
AcDbLine
 10
312.2237303347114
 20
153.7508869271574
 30
0.0
 11
312.2237303347114
 21
69.45398742516345
 31
0.0
  0
LINE
  5
1D61
330
1A
100
AcDbEntity
  8
SEIHIN
100
AcDbLine
 10
322.2237303347114
 20
144.1150933251634
 30
0.0
 11
322.2237303347114
 21
98.93644402516343
 31
0.0
  0
LINE
  5
1D62
330
1A
100
AcDbEntity
  8
SEIHIN
100
AcDbLine
 10
324.8237303347114
 20
97.43644402516345
 30
0.0
 11
324.8237303347114
 21
75.40111502516343
 31
0.0
  0
LINE
  5
1D63
330
1A
100
AcDbEntity
  8
SEIHIN
100
AcDbLine
 10
308.2237303347114
 20
98.93644402516343
 30
0.0
 11
308.2237303347113
 21
75.03348702516344
 31
0.0
  0
LINE
  5
1D64
330
1A
100
AcDbEntity
  8
SEIHIN
100
AcDbLine
 10
316.2237303347114
 20
98.93644402516343
 30
0.0
 11
316.2237303347114
 21
75.03348702516344
 31
0.0
  0
LINE
  5
1D65
330
1A
100
AcDbEntity
  8
SEIHIN
100
AcDbLine
 10
197.7999348685564
 20
94.50111502516348
 30
0.0
 11
197.7999348685564
 21
77.47559734773528
 31
0.0
  0
LINE
  5
1D66
330
1A
100
AcDbEntity
  8
SEIHIN
100
AcDbLine
 10
302.2237303347114
 20
144.1150933251634
 30
0.0
 11
302.2237303347113
 21
98.93644402516343
 31
0.0
  0
LINE
  5
1D67
330
1A
100
AcDbEntity
  8
SEIHIN
100
AcDbLine
 10
194.1999348685564
 20
94.50111502516348
 30
0.0
 11
194.1999348685564
 21
77.52800512516346
 31
0.0
  0
LINE
  5
1D68
330
1A
100
AcDbEntity
  8
SEIHIN
100
AcDbLine
 10
196.7999348685564
 20
94.50111502516348
 30
0.0
 11
196.7999348685564
 21
77.52800512516346
 31
0.0
  0
LINE
  5
1D6A
330
1A
100
AcDbEntity
  8
SEIHIN
100
AcDbLine
 10
299.6237303347114
 20
97.43644402516345
 30
0.0
 11
299.6237303347114
 21
75.40111502516343
 31
0.0
  0
LINE
  5
1D6B
330
1A
100
AcDbEntity
  8
SEIHIN
100
AcDbLine
 10
302.2237303347114
 20
98.93644402516343
 30
0.0
 11
302.2237303347114
 21
74.53348702516343
 31
0.0
  0
LINE
  5
1D6C
330
1A
100
AcDbEntity
  8
SEIHIN
100
AcDbLine
 10
157.7346065685564
 20
76.89487042516343
 30
0.0
 11
172.1344365275452
 21
91.29470046139216
 31
0.0
  0
LINE
  5
1D6E
330
1A
100
AcDbEntity
  8
SEIHIN
100
AcDbLine
 10
154.7037407685564
 20
84.61202772516346
 30
0.0
 11
166.5342903635014
 21
96.4425773201084
 31
0.0
  0
LINE
  5
1D79
330
1A
100
AcDbEntity
  8
SEIHIN
100
AcDbLine
 10
168.7811611685564
 20
73.99603792516344
 30
0.0
 11
180.7242075685564
 21
79.82105082516345
 31
0.0
  0
LINE
  5
1D7A
330
1A
100
AcDbEntity
  8
SEIHIN
100
AcDbLine
 10
169.4387177685564
 20
72.64784672516343
 30
0.0
 11
180.7242075685564
 21
78.15214792516345
 31
0.0
  0
LINE
  5
1D7B
330
1A
100
AcDbEntity
  8
SEIHIN
100
AcDbLine
 10
168.6058127685564
 20
74.35555552516344
 30
0.0
 11
180.4488590685565
 21
80.13179512516343
 31
0.0
  0
LINE
  5
1D7D
330
1A
100
AcDbEntity
  8
SEIHIN
100
AcDbLine
 10
157.7234628196303
 20
76.88376102180175
 30
0.0
 11
166.8557496685564
 21
72.62530572516344
 31
0.0
  0
ARC
  5
1D7E
330
1A
100
AcDbEntity
  8
SEIHIN
100
AcDbCircle
 10
154.1283619685564
 20
80.50111502516346
 30
0.0
 40
5.100000011277387
100
AcDbArc
 50
270.0
 51
315.0
  0
LINE
  5
1D7F
330
1A
100
AcDbEntity
  8
SEIHIN
100
AcDbLine
 10
159.1532121441745
 20
78.31347600839089
 30
0.0
 11
167.6587244685564
 21
74.34729052516344
 31
0.0
  0
LINE
  5
1D80
330
1A
100
AcDbEntity
  8
SEIHIN
100
AcDbLine
 10
158.8522172344901
 20
78.01248109709185
 30
0.0
 11
167.4896771685564
 21
73.98476742516344
 31
0.0
  0
ARC
  5
1D81
330
1A
100
AcDbEntity
  8
SEIHIN
100
AcDbCircle
 10
168.1236045685564
 20
75.34422902516344
 30
0.0
 40
1.499999997384386
100
AcDbArc
 50
244.9999984438223
 51
295.9999936879063
  0
ARC
  5
1D83
330
1A
100
AcDbEntity
  8
SEIHIN
100
AcDbCircle
 10
168.1236045685564
 20
75.34422902516344
 30
0.0
 40
1.099999981342675
100
AcDbArc
 50
244.9999979823536
 51
295.9999960018844
  0
ARC
  5
1D84
330
1A
100
AcDbEntity
  8
SEIHIN
100
AcDbCircle
 10
168.1236045685564
 20
75.34422902516344
 30
0.0
 40
2.9999999920909
100
AcDbArc
 50
244.9999949819811
 51
295.999994525133
  0
ARC
  5
1D86
330
1A
100
AcDbEntity
  8
SEIHIN
100
AcDbCircle
 10
178.7953744685564
 20
83.77574462516346
 30
0.0
 40
4.400000010194002
100
AcDbArc
 50
296.0000006547247
 51
359.9999934891161
  0
ARC
  5
1D87
330
1A
100
AcDbEntity
  8
SEIHIN
100
AcDbCircle
 10
178.6953744685564
 20
83.72697132516343
 30
0.0
 40
4.000000009467725
100
AcDbArc
 50
296.0000000723986
 51
0.0
  0
LINE
  5
1D88
330
1A
100
AcDbEntity
  8
SEIHIN
100
AcDbLine
 10
183.1953744685564
 20
82.10684122516346
 30
0.0
 11
183.1953744685564
 21
86.23507182516345
 31
0.0
  0
ARC
  5
1D8A
330
1A
100
AcDbEntity
  8
SEIHIN
100
AcDbCircle
 10
178.7953744685564
 20
82.10684172516344
 30
0.0
 40
4.400000010194002
100
AcDbArc
 50
296.0000006547247
 51
359.9999934891161
  0
LINE
  5
1D8B
330
1A
100
AcDbEntity
  8
SEIHIN
100
AcDbLine
 10
182.6953744685564
 20
86.23507182516345
 30
0.0
 11
183.1953744685564
 21
86.23507182516345
 31
0.0
  0
LINE
  5
1D8C
330
1A
100
AcDbEntity
  8
SEIHIN
100
AcDbLine
 10
182.6953744685564
 20
83.72697132516343
 30
0.0
 11
182.6953744685564
 21
86.23507182516345
 31
0.0
  0
LINE
  5
1D92
330
1A
100
AcDbEntity
  8
SEIHIN
100
AcDbLine
 10
187.3095280685564
 20
77.36746672516345
 30
0.0
 11
187.1786882108235
 21
74.87089292818912
 31
0.0
  0
ARC
  5
1D93
330
1A
100
AcDbEntity
  8
SEIHIN
100
AcDbCircle
 10
193.7999348685564
 20
77.52800512516346
 30
0.0
 40
2.999999998689364
100
AcDbArc
 50
266.9999993993207
 51
0.0
  0
LINE
  5
1D94
330
1A
100
AcDbEntity
  8
SEIHIN
100
AcDbLine
 10
194.642926997527
 20
74.47970874359213
 30
0.0
 11
187.1786882685564
 21
74.87089292516346
 31
0.0
  0
LINE
  5
1D96
330
1A
100
AcDbEntity
  8
SEIHIN
100
AcDbLine
 10
193.7790004685565
 20
77.12855332516345
 30
0.0
 11
187.3147616685564
 21
77.46732972516345
 31
0.0
  0
ARC
  5
1D97
330
1A
100
AcDbEntity
  8
SEIHIN
100
AcDbCircle
 10
193.7999348685564
 20
77.52800512516346
 30
0.0
 40
0.3999999935166316
100
AcDbArc
 50
266.999997392128
 51
0.0
  0
LINE
  5
1D9E
330
1A
100
AcDbEntity
  8
SEIHIN
100
AcDbLine
 10
299.6237303347114
 20
75.40111502516343
 30
0.0
 11
302.2237303347114
 21
75.40111502516343
 31
0.0
  0
LINE
  5
1DA4
330
1A
100
AcDbEntity
  8
SEIHIN
100
AcDbLine
 10
302.2237303347114
 20
74.53348702516343
 30
0.0
 11
322.2237303347114
 21
74.53348702516343
 31
0.0
  0
LINE
  5
1DA6
330
1A
100
AcDbEntity
  8
SEIHIN
100
AcDbLine
 10
322.2237303347114
 20
75.40111502516343
 30
0.0
 11
324.8237303347114
 21
75.40111502516343
 31
0.0
  0
ARC
  5
1DA7
330
1A
100
AcDbEntity
  8
SEIHIN
100
AcDbCircle
 10
340.2237303347114
 20
141.1150933251634
 30
0.0
 40
3.0
100
AcDbArc
 50
0.0000019098594751
 51
90.0
  0
ARC
  5
1DA8
330
1A
100
AcDbEntity
  8
SEIHIN
100
AcDbCircle
 10
340.2237303347114
 20
112.1150933251634
 30
0.0
 40
3.000000000000003
100
AcDbArc
 50
270.0
 51
0.0000038197189503
  0
LINE
  5
1DA9
330
1A
100
AcDbEntity
  8
SEIHIN
100
AcDbLine
 10
204.2003519685564
 20
144.1150933251634
 30
0.0
 11
204.2003519685564
 21
109.1150933251634
 31
0.0
  0
LINE
  5
1DAB
330
1A
100
AcDbEntity
  8
SEIHIN
100
AcDbLine
 10
210.8003519685564
 20
144.1150933251634
 30
0.0
 11
210.8003519685564
 21
109.1150933251634
 31
0.0
  0
LINE
  5
1DAC
330
1A
100
AcDbEntity
  8
SEIHIN
100
AcDbLine
 10
209.2003519685564
 20
144.1150933251634
 30
0.0
 11
209.2003519685564
 21
109.1150933251634
 31
0.0
  0
LINE
  5
1DAE
330
1A
100
AcDbEntity
  8
SEIHIN
100
AcDbLine
 10
192.0644230685564
 20
98.93781442516342
 30
0.0
 11
169.4805744685564
 21
97.75424512516345
 31
0.0
  0
LINE
  5
1DB0
330
1A
100
AcDbEntity
  8
SEIHIN
100
AcDbLine
 10
201.5154768685564
 20
105.4406711251634
 30
0.0
 11
167.8510438685564
 21
103.6763929251634
 31
0.0
  0
LINE
  5
1DB1
330
1A
100
AcDbEntity
  8
SEIHIN
100
AcDbLine
 10
204.8526878685564
 20
104.6141945251634
 30
0.0
 11
167.9033798685564
 21
102.6777634251634
 31
0.0
  0
LINE
  5
1DB3
330
1A
100
AcDbEntity
  8
SEIHIN
100
AcDbLine
 10
192.2004965685564
 20
96.34137762516344
 30
0.0
 11
177.7999348685564
 21
95.5866762150044
 31
0.0
  0
ARC
  5
1DB6
330
1A
100
AcDbEntity
  8
SEIHIN
100
AcDbCircle
 10
169.7160862685564
 20
93.26041222516346
 30
0.0
 40
4.499999985879004
100
AcDbArc
 50
92.99999996493296
 51
135.0
  0
ARC
  5
1DB8
330
1A
100
AcDbEntity
  8
SEIHIN
100
AcDbCircle
 10
168.1912275685564
 20
97.18530092516346
 30
0.0
 40
5.500000065643712
100
AcDbArc
 50
92.99999935063343
 51
135.0000022098678
  0
ARC
  5
1DB9
330
1A
100
AcDbEntity
  8
SEIHIN
100
AcDbCircle
 10
168.1912275685564
 20
97.18530092516346
 30
0.0
 40
6.500000024766264
100
AcDbArc
 50
92.99999897148103
 51
135.000002493184
  0
LINE
  5
1DBA
330
1A
100
AcDbEntity
  8
SEIHIN
100
AcDbLine
 10
205.8003519685564
 20
108.8183438251634
 30
0.0
 11
201.5154768685564
 21
105.4406711251634
 31
0.0
  0
ARC
  5
1DBB
330
1A
100
AcDbEntity
  8
SEIHIN
100
AcDbCircle
 10
192.2999348685564
 20
94.44398152516345
 30
0.0
 40
4.499999996725646
100
AcDbArc
 50
0.0
 51
92.99999996493296
  0
ARC
  5
1DBC
330
1A
100
AcDbEntity
  8
SEIHIN
100
AcDbCircle
 10
192.2999348685564
 20
94.44398152516345
 30
0.0
 40
5.500000030448694
100
AcDbArc
 50
0.0
 51
68.36289348814613
  0
ARC
  5
1DBD
330
1A
100
AcDbEntity
  8
SEIHIN
100
AcDbCircle
 10
192.2999348685564
 20
94.44398152516345
 30
0.0
 40
1.899999991552915
100
AcDbArc
 50
0.0
 51
92.99999951753015
  0
ARC
  5
1DBE
330
1A
100
AcDbEntity
  8
SEIHIN
100
AcDbCircle
 10
204.8003519685564
 20
105.6128241251634
 30
0.0
 40
5.50000003044868
100
AcDbArc
 50
273.0000003909445
 51
0.0
  0
LINE
  5
1DBF
330
1A
100
AcDbEntity
  8
SEIHIN
100
AcDbLine
 10
210.8003519685564
 20
109.1150933251634
 30
0.0
 11
204.2003519685564
 21
109.1150933251634
 31
0.0
  0
ARC
  5
1DC0
330
1A
100
AcDbEntity
  8
SEIHIN
100
AcDbCircle
 10
204.8003519685564
 20
105.6128241251634
 30
0.0
 40
1.000000031106234
100
AcDbArc
 50
272.9999965862871
 51
0.0
  0
LINE
  5
1DC1
330
1A
100
AcDbEntity
  8
SEIHIN
100
AcDbLine
 10
205.8003519685564
 20
109.1150933251634
 30
0.0
 11
205.8003519685564
 21
105.6128241251634
 31
0.0
  0
LINE
  5
1DC2
330
1A
100
AcDbEntity
  8
SEIHIN
100
AcDbLine
 10
210.3003519685564
 20
109.1150933251634
 30
0.0
 11
210.3003519685564
 21
105.6128241251634
 31
0.0
  0
LINE
  5
1DC3
330
1A
100
AcDbEntity
  8
SEIHIN
100
AcDbLine
 10
210.8003519685564
 20
144.1150933251634
 30
0.0
 11
204.2003519685564
 21
144.1150933251634
 31
0.0
  0
LINE
  5
1DC4
330
1A
100
AcDbEntity
  8
SEIHIN
100
AcDbLine
 10
322.7237303347114
 20
144.1150933251634
 30
0.0
 11
322.7237303347114
 21
109.1150933251634
 31
0.0
  0
LINE
  5
1DC7
330
1A
100
AcDbEntity
  8
CENTER_L
100
AcDbLine
 10
290.2237303347114
 20
142.2150933251634
 30
0.0
 11
290.2237303347114
 21
130.0150933251634
 31
0.0
  0
LINE
  5
1DC9
330
1A
100
AcDbEntity
  8
SEIHIN
100
AcDbLine
 10
281.2237303347114
 20
141.1150934251634
 30
0.0
 11
281.2237303347114
 21
112.1150935251634
 31
0.0
  0
LINE
  5
1DCA
330
1A
100
AcDbEntity
  8
SEIHIN
100
AcDbLine
 10
301.7237303347114
 20
144.1150933251634
 30
0.0
 11
301.7237303347114
 21
109.1150933251634
 31
0.0
  0
LINE
  5
1DCC
330
1A
100
AcDbEntity
  8
SEIHIN
100
AcDbLine
 10
309.2237303347114
 20
99.93644402516345
 30
0.0
 11
315.2237303347114
 21
99.93644402516345
 31
0.0
  0
ARC
  5
1DCF
330
1A
100
AcDbEntity
  8
SEIHIN
100
AcDbCircle
 10
284.2237303347114
 20
112.1150933251634
 30
0.0
 40
3.000000000000003
100
AcDbArc
 50
179.999996180281
 51
270.0
  0
LINE
  5
1DD1
330
1A
100
AcDbEntity
  8
SEIHIN
100
AcDbLine
 10
284.2237303347114
 20
109.1150933251634
 30
0.0
 11
302.2237303347114
 21
109.1150933251634
 31
0.0
  0
ARC
  5
1DD3
330
1A
100
AcDbEntity
  8
SEIHIN
100
AcDbCircle
 10
301.1237303347114
 20
97.43644402516345
 30
0.0
 40
1.5
100
AcDbArc
 50
90.0
 51
180.0
  0
LINE
  5
1DD5
330
1A
100
AcDbEntity
  8
SEIHIN
100
AcDbLine
 10
301.1237303347114
 20
98.93644402516343
 30
0.0
 11
307.8095167723383
 21
98.93644402516343
 31
0.0
  0
CIRCLE
  5
1DD8
330
1A
100
AcDbEntity
  8
SEIHIN
100
AcDbCircle
 10
290.2237303347114
 20
117.1150933251634
 30
0.0
 40
2.100000000000022
  0
LINE
  5
1DE0
330
1A
100
AcDbEntity
  8
SEIHIN
100
AcDbLine
 10
322.2237303347114
 20
109.1150933251634
 30
0.0
 11
340.2237303347114
 21
109.1150933251634
 31
0.0
  0
ARC
  5
1DE2
330
1A
100
AcDbEntity
  8
SEIHIN
100
AcDbCircle
 10
323.3237303347114
 20
97.43644402516345
 30
0.0
 40
1.5
100
AcDbArc
 50
0.0
 51
90.0
  0
LINE
  5
1DE4
330
1A
100
AcDbEntity
  8
SEIHIN
100
AcDbLine
 10
316.6379438970845
 20
98.93644402516343
 30
0.0
 11
323.3237303347114
 21
98.93644402516343
 31
0.0
  0
CIRCLE
  5
1DEB
330
1A
100
AcDbEntity
  8
SEIHIN
100
AcDbCircle
 10
334.2237303347114
 20
117.1150933251634
 30
0.0
 40
2.100000000000022
  0
LINE
  5
1DEE
330
1A
100
AcDbEntity
  8
SEIHIN
100
AcDbLine
 10
284.2237303347114
 20
144.1150933251634
 30
0.0
 11
340.2237303347114
 21
144.1150933251634
 31
0.0
  0
LINE
  5
1DEF
330
1A
100
AcDbEntity
  8
CENTER_L
100
AcDbLine
 10
284.1237303347114
 20
136.1150933251634
 30
0.0
 11
296.3237303347114
 21
136.1150933251634
 31
0.0
  0
LINE
  5
1DF2
330
1A
100
AcDbEntity
  8
SEIHIN
100
AcDbLine
 10
322.2237303347114
 20
144.1150933251634
 30
0.0
 11
302.2237303347114
 21
144.1150933251634
 31
0.0
  0
ARC
  5
1DF3
330
1A
100
AcDbEntity
  8
SEIHIN
100
AcDbCircle
 10
284.2237303347114
 20
141.1150933251634
 30
0.0
 40
3.0
100
AcDbArc
 50
90.0
 51
180.0
  0
CIRCLE
  5
1DF4
330
1A
100
AcDbEntity
  8
SEIHIN
100
AcDbCircle
 10
290.2237303347114
 20
136.1150933251634
 30
0.0
 40
2.100000000000022
  0
CIRCLE
  5
1E06
330
1A
100
AcDbEntity
  8
SEIHIN
100
AcDbCircle
 10
334.2237303347114
 20
136.1150933251634
 30
0.0
 40
2.100000000000022
  0
LINE
  5
1E0A
330
1A
100
AcDbEntity
  8
SEIHIN
100
AcDbLine
 10
343.2237303347114
 20
141.1150934251634
 30
0.0
 11
343.2237303347114
 21
112.1150935251634
 31
0.0
  0
LINE
  5
1EC3
330
1A
100
AcDbEntity
  8
SEIHIN
100
AcDbLine
 10
75.79993486855648
 20
239.5657358570524
 30
0.0
 11
83.57246432878998
 21
239.5657358570524
 31
0.0
  0
LINE
  5
1EC4
330
1A
100
AcDbEntity
  8
SEIHIN
100
AcDbLine
 10
209.8003519685564
 20
219.0657358570524
 30
0.0
 11
206.1003519685564
 21
219.0657358570524
 31
0.0
  0
LINE
  5
1EC5
330
1A
100
AcDbEntity
  8
SEIHIN
100
AcDbLine
 10
210.8003519685564
 20
198.5657358570524
 30
0.0
 11
209.2003519685564
 21
198.5657358570524
 31
0.0
  0
LINE
  5
1EC6
330
1A
100
AcDbEntity
  8
CENTER_L
100
AcDbLine
 10
217.8003519685564
 20
229.5657358570524
 30
0.0
 11
68.79993486855648
 21
229.5657358570524
 31
0.0
  0
LINE
  5
1EC7
330
1A
100
AcDbEntity
  8
SEIHIN
100
AcDbLine
 10
210.8003519685564
 20
218.0657358570524
 30
0.0
 11
210.8003519685564
 21
198.5657358570524
 31
0.0
  0
LINE
  5
1EC8
330
1A
100
AcDbEntity
  8
SEIHIN
100
AcDbLine
 10
204.2003519685564
 20
218.4657358570524
 30
0.0
 11
204.2003519685565
 21
240.6657358570524
 31
0.0
  0
LINE
  5
1EC9
330
1A
100
AcDbEntity
  8
SEIHIN
100
AcDbLine
 10
209.2003519685564
 20
198.5657358570524
 30
0.0
 11
209.2003519685564
 21
216.9657358570524
 31
0.0
  0
LINE
  5
1ECB
330
1A
100
AcDbEntity
  8
SEIHIN
100
AcDbLine
 10
75.79993486855648
 20
219.5657358570524
 30
0.0
 11
83.57246432879
 21
219.5657358570524
 31
0.0
  0
LINE
  5
1ECC
330
1A
100
AcDbEntity
  8
SEIHIN
100
AcDbLine
 10
205.2003519685564
 20
217.4657358570524
 30
0.0
 11
208.7003519685564
 21
217.4657358570524
 31
0.0
  0
LINE
  5
1ECD
330
1A
100
AcDbEntity
  8
SEIHIN
100
AcDbLine
 10
205.8003519685564
 20
219.3657358570524
 30
0.0
 11
205.8003519685565
 21
239.7657358570524
 31
0.0
  0
ARC
  5
1ECE
330
1A
100
AcDbEntity
  8
SEIHIN
100
AcDbCircle
 10
209.8003519685564
 20
218.0657358570524
 30
0.0
 40
1.0
100
AcDbArc
 50
359.9999999999983
 51
90.0
  0
ARC
  5
1ECF
330
1A
100
AcDbEntity
  8
SEIHIN
100
AcDbCircle
 10
205.2003519685564
 20
218.4657358570524
 30
0.0
 40
1.0
100
AcDbArc
 50
180.0000000000016
 51
270.0
  0
ARC
  5
1ED0
330
1A
100
AcDbEntity
  8
SEIHIN
100
AcDbCircle
 10
208.7003519685564
 20
216.9657358570524
 30
0.0
 40
0.5
100
AcDbArc
 50
359.9999999999967
 51
89.99999999999674
  0
LINE
  5
1ED1
330
1A
100
AcDbEntity
  8
CENTER_L
100
AcDbLine
 10
202.2003519685565
 20
207.5657358570524
 30
0.0
 11
217.8003519685564
 21
207.5657358570524
 31
0.0
  0
LINE
  5
1ED8
330
1A
100
AcDbEntity
  8
CENTER_L
100
AcDbLine
 10
138.2999348685564
 20
214.5368641445012
 30
0.0
 11
138.2999348685564
 21
244.5946075696036
 31
0.0
  0
LINE
  5
1EDA
330
1A
100
AcDbEntity
  8
SEIHIN
100
AcDbLine
 10
128.2999348685564
 20
219.5657358570524
 30
0.0
 11
128.2999348685564
 21
239.5657358570524
 31
0.0
  0
LINE
  5
1F11
330
1A
100
AcDbEntity
  8
SEIHIN
100
AcDbLine
 10
177.7999348685564
 20
98.19024434960322
 30
0.0
 11
177.7999348685564
 21
92.54058122455342
 31
0.0
  0
LINE
  5
1F12
330
1A
100
AcDbEntity
  8
SEIHIN
100
AcDbLine
 10
176.8522708268812
 20
91.54195168990794
 30
0.0
 11
172.1344365275452
 21
91.29470046139216
 31
0.0
  0
ARC
  5
1F13
330
1A
100
AcDbEntity
  8
SEIHIN
100
AcDbCircle
 10
176.7999348685564
 20
92.54058122455342
 30
0.0
 40
1.0
100
AcDbArc
 50
273.0000001194438
 51
0.0
  0
ARC
  5
1F15
330
1A
100
AcDbEntity
  8
SEIHIN
100
AcDbCircle
 10
194.7999348685564
 20
77.47559734773528
 30
0.0
 40
3.0
100
AcDbArc
 50
266.9999999560026
 51
0.0
  0
LINE
  5
1F16
330
1A
100
AcDbEntity
  8
SEIHIN
100
AcDbLine
 10
205.0881997669627
 20
100.1203616555704
 30
0.0
 11
169.6722434190884
 21
98.26429010726791
 31
0.0
  0
ARC
  5
1F1E
330
1A
100
AcDbEntity
  8
SEIHIN
100
AcDbCircle
 10
309.2237303347114
 20
98.93644402516343
 30
0.0
 40
1.0
100
AcDbArc
 50
90.0
 51
160.5287793655085
  0
ARC
  5
1F1F
330
1A
100
AcDbEntity
  8
SEIHIN
100
AcDbCircle
 10
315.2237303347114
 20
98.93644402516343
 30
0.0
 40
1.0
100
AcDbArc
 50
19.47122063449142
 51
90.0
  0
LINE
  5
1F21
330
1A
100
AcDbEntity
  8
SEIHIN
100
AcDbLine
 10
316.6379438970845
 20
99.89351896669242
 30
0.0
 11
321.7237303347114
 21
99.89351896669246
 31
0.0
  0
LINE
  5
1F22
330
1A
100
AcDbEntity
  8
SEIHIN
100
AcDbLine
 10
309.2237303347114
 20
100.8935189666924
 30
0.0
 11
315.2237303347114
 21
100.8935189666924
 31
0.0
  0
LINE
  5
1F23
330
1A
100
AcDbEntity
  8
SEIHIN
100
AcDbLine
 10
309.2237303347114
 20
100.8935189666924
 30
0.0
 11
315.2237303347114
 21
100.8935189666924
 31
0.0
  0
ARC
  5
1F25
330
1A
100
AcDbEntity
  8
SEIHIN
100
AcDbCircle
 10
309.2237303347114
 20
99.89351896669242
 30
0.0
 40
1.0
100
AcDbArc
 50
90.0
 51
160.5287793655093
  0
ARC
  5
1F27
330
1A
100
AcDbEntity
  8
SEIHIN
100
AcDbCircle
 10
315.2237303347114
 20
99.89351896669242
 30
0.0
 40
1.0
100
AcDbArc
 50
19.47122063449065
 51
90.0
  0
LINE
  5
1F28
330
1A
100
AcDbEntity
  8
SEIHIN
100
AcDbLine
 10
302.7237303347114
 20
99.89351896669244
 30
0.0
 11
307.8095167723383
 21
99.89351896669241
 31
0.0
  0
ARC
  5
1F2B
330
1A
100
AcDbEntity
  8
SEIHIN
100
AcDbCircle
 10
307.8095167723383
 20
99.43644402516346
 30
0.0
 40
0.5
100
AcDbArc
 50
270.0
 51
340.5287793655096
  0
ARC
  5
1F2C
330
1A
100
AcDbEntity
  8
SEIHIN
100
AcDbCircle
 10
316.6379438970845
 20
99.43644402516346
 30
0.0
 40
0.5
100
AcDbArc
 50
199.4712206344903
 51
270.0
  0
ARC
  5
1F2D
330
1A
100
AcDbEntity
  8
SEIHIN
100
AcDbCircle
 10
307.8095167723383
 20
100.3935189666924
 30
0.0
 40
0.5
100
AcDbArc
 50
270.0
 51
340.5287793655096
  0
ARC
  5
1F2E
330
1A
100
AcDbEntity
  8
SEIHIN
100
AcDbCircle
 10
316.6379438970845
 20
100.3935189666924
 30
0.0
 40
0.5
100
AcDbArc
 50
199.4712206344903
 51
270.0
  0
LINE
  5
1F30
330
1A
100
AcDbEntity
  8
CENTER_L
100
AcDbLine
 10
284.1237303347114
 20
117.1150933251634
 30
0.0
 11
296.3237303347114
 21
117.1150933251634
 31
0.0
  0
LINE
  5
1F31
330
1A
100
AcDbEntity
  8
CENTER_L
100
AcDbLine
 10
290.2237303347114
 20
123.2150933251634
 30
0.0
 11
290.2237303347114
 21
111.0150933251634
 31
0.0
  0
LINE
  5
1F32
330
1A
100
AcDbEntity
  8
CENTER_L
100
AcDbLine
 10
334.2237303347114
 20
123.2150933251634
 30
0.0
 11
334.2237303347114
 21
111.0150933251634
 31
0.0
  0
LINE
  5
1F33
330
1A
100
AcDbEntity
  8
CENTER_L
100
AcDbLine
 10
334.2237303347114
 20
142.2150933251634
 30
0.0
 11
334.2237303347114
 21
130.0150933251634
 31
0.0
  0
LINE
  5
1F34
330
1A
100
AcDbEntity
  8
CENTER_L
100
AcDbLine
 10
340.3237303347114
 20
117.1150933251634
 30
0.0
 11
328.1237303347114
 21
117.1150933251634
 31
0.0
  0
LINE
  5
1F35
330
1A
100
AcDbEntity
  8
CENTER_L
100
AcDbLine
 10
340.3237303347114
 20
136.1150933251634
 30
0.0
 11
328.1237303347114
 21
136.1150933251634
 31
0.0
  0
LINE
  5
1F48
330
1A
100
AcDbEntity
  8
CENTER_L
100
AcDbLine
 10
204.7003519685564
 20
117.1150933251634
 30
0.0
 11
216.9003519685564
 21
117.1150933251634
 31
0.0
  0
LINE
  5
1F49
330
1A
100
AcDbEntity
  8
CENTER_L
100
AcDbLine
 10
204.7003519685564
 20
136.1150933251634
 30
0.0
 11
216.9003519685564
 21
136.1150933251634
 31
0.0
  0
LINE
  5
1F4A
330
1A
100
AcDbEntity
  8
SEIHIN
100
AcDbLine
 10
209.2003519685564
 20
134.1150933251634
 30
0.0
 11
206.6875020002834
 21
134.1150933251634
 31
0.0
  0
LINE
  5
1F4B
330
1A
100
AcDbEntity
  8
SEIHIN
100
AcDbLine
 10
209.2003519685564
 20
138.1150933251634
 30
0.0
 11
206.6875020002834
 21
138.1150933251634
 31
0.0
  0
LINE
  5
1F4C
330
1A
100
AcDbEntity
  8
SEIHIN
100
AcDbLine
 10
300.7237303347114
 20
137.1150933251634
 30
0.0
 11
298.7237303347114
 21
137.1150933251634
 31
0.0
  0
LINE
  5
1F4D
330
1A
100
AcDbEntity
  8
SEIHIN
100
AcDbLine
 10
300.7237303347114
 20
135.1150933251634
 30
0.0
 11
298.7237303347114
 21
135.1150933251634
 31
0.0
  0
LINE
  5
1F4E
330
1A
100
AcDbEntity
  8
SEIHIN
100
AcDbLine
 10
298.2237303347114
 20
135.6150933251634
 30
0.0
 11
298.2237303347114
 21
136.6150933251634
 31
0.0
  0
ARC
  5
1F4F
330
1A
100
AcDbEntity
  8
SEIHIN
100
AcDbCircle
 10
298.7237303347114
 20
135.6150933251634
 30
0.0
 40
0.5
100
AcDbArc
 50
180.0
 51
270.0000000000005
  0
ARC
  5
1F50
330
1A
100
AcDbEntity
  8
SEIHIN
100
AcDbCircle
 10
298.7237303347114
 20
136.6150933251634
 30
0.0
 40
0.5
100
AcDbArc
 50
90.0
 51
180.0
  0
LINE
  5
1F51
330
1A
100
AcDbEntity
  8
SEIHIN
100
AcDbLine
 10
300.7237303347114
 20
118.1150933251634
 30
0.0
 11
298.7237303347114
 21
118.1150933251634
 31
0.0
  0
LINE
  5
1F52
330
1A
100
AcDbEntity
  8
SEIHIN
100
AcDbLine
 10
300.7237303347114
 20
116.1150933251634
 30
0.0
 11
298.7237303347114
 21
116.1150933251634
 31
0.0
  0
LINE
  5
1F53
330
1A
100
AcDbEntity
  8
SEIHIN
100
AcDbLine
 10
298.2237303347114
 20
116.6150933251634
 30
0.0
 11
298.2237303347114
 21
117.6150933251634
 31
0.0
  0
ARC
  5
1F54
330
1A
100
AcDbEntity
  8
SEIHIN
100
AcDbCircle
 10
298.7237303347114
 20
117.6150933251634
 30
0.0
 40
0.5
100
AcDbArc
 50
90.0
 51
180.0
  0
ARC
  5
1F55
330
1A
100
AcDbEntity
  8
SEIHIN
100
AcDbCircle
 10
298.7237303347114
 20
116.6150933251634
 30
0.0
 40
0.5
100
AcDbArc
 50
180.0
 51
270.0000000000005
  0
LINE
  5
1F56
330
1A
100
AcDbEntity
  8
SEIHIN
100
AcDbLine
 10
326.2237303347114
 20
116.6150933251634
 30
0.0
 11
326.2237303347114
 21
117.6150933251634
 31
0.0
  0
LINE
  5
1F57
330
1A
100
AcDbEntity
  8
SEIHIN
100
AcDbLine
 10
323.7237303347114
 20
116.1150933251634
 30
0.0
 11
325.7237303347114
 21
116.1150933251634
 31
0.0
  0
ARC
  5
1F58
330
1A
100
AcDbEntity
  8
SEIHIN
100
AcDbCircle
 10
325.7237303347114
 20
116.6150933251634
 30
0.0
 40
0.5
100
AcDbArc
 50
269.9999999999994
 51
0.000000000000007
  0
LINE
  5
1F59
330
1A
100
AcDbEntity
  8
SEIHIN
100
AcDbLine
 10
323.7237303347114
 20
118.1150933251634
 30
0.0
 11
325.7237303347114
 21
118.1150933251634
 31
0.0
  0
ARC
  5
1F5A
330
1A
100
AcDbEntity
  8
SEIHIN
100
AcDbCircle
 10
325.7237303347114
 20
117.6150933251634
 30
0.0
 40
0.5
100
AcDbArc
 50
0.000000000000007
 51
90.0
  0
LINE
  5
1F5B
330
1A
100
AcDbEntity
  8
SEIHIN
100
AcDbLine
 10
323.7237303347114
 20
137.1150933251634
 30
0.0
 11
325.7237303347114
 21
137.1150933251634
 31
0.0
  0
LINE
  5
1F5C
330
1A
100
AcDbEntity
  8
SEIHIN
100
AcDbLine
 10
323.7237303347114
 20
135.1150933251634
 30
0.0
 11
325.7237303347114
 21
135.1150933251634
 31
0.0
  0
LINE
  5
1F5D
330
1A
100
AcDbEntity
  8
SEIHIN
100
AcDbLine
 10
326.2237303347114
 20
135.6150933251634
 30
0.0
 11
326.2237303347114
 21
136.6150933251634
 31
0.0
  0
ARC
  5
1F5E
330
1A
100
AcDbEntity
  8
SEIHIN
100
AcDbCircle
 10
325.7237303347114
 20
136.6150933251634
 30
0.0
 40
0.5
100
AcDbArc
 50
0.000000000000007
 51
90.0
  0
ARC
  5
1F5F
330
1A
100
AcDbEntity
  8
SEIHIN
100
AcDbCircle
 10
325.7237303347114
 20
135.6150933251634
 30
0.0
 40
0.5
100
AcDbArc
 50
269.9999999999994
 51
0.000000000000007
  0
LINE
  5
1F61
330
1A
100
AcDbEntity
  8
SEIHIN
100
AcDbLine
 10
177.7999348685564
 20
217.0657358570524
 30
0.0
 11
83.57246432879
 21
217.0657358570524
 31
0.0
  0
LINE
  5
1F62
330
1A
100
AcDbEntity
  8
SEIHIN
100
AcDbLine
 10
177.7999348685564
 20
217.0657358570524
 30
0.0
 11
177.7999348685564
 21
219.5657358570524
 31
0.0
  0
LINE
  5
1F63
330
1A
100
AcDbEntity
  8
SEIHIN
100
AcDbLine
 10
83.57246432879
 20
217.0657358570524
 30
0.0
 11
83.57246432879
 21
219.5657358570524
 31
0.0
  0
LINE
  5
1F64
330
1A
100
AcDbEntity
  8
SEIHIN
100
AcDbLine
 10
75.79993486855648
 20
219.5657358570524
 30
0.0
 11
75.79993486855648
 21
239.5657358570524
 31
0.0
  0
LINE
  5
1F67
330
1A
100
AcDbEntity
  8
SEIHIN
100
AcDbLine
 10
77.59993486855648
 20
219.5657358570524
 30
0.0
 11
77.59993486855648
 21
239.5657358570524
 31
0.0
  0
LINE
  5
1F68
330
1A
100
AcDbEntity
  8
SEIHIN
100
AcDbLine
 10
128.2999348685564
 20
219.5657358570524
 30
0.0
 11
204.2003519685564
 21
219.5657358570524
 31
0.0
  0
LINE
  5
1F69
330
1A
100
AcDbEntity
  8
SEIHIN
100
AcDbLine
 10
130.2999348685564
 20
221.5657358570525
 30
0.0
 11
202.2003519685565
 21
221.5657358570525
 31
0.0
  0
CIRCLE
  5
1F6A
330
1A
100
AcDbEntity
  8
SEIHIN
100
AcDbCircle
 10
138.2999348685564
 20
229.5657358570524
 30
0.0
 40
5.0
  0
LINE
  5
1F6B
330
1A
100
AcDbEntity
  8
SEIHIN
100
AcDbLine
 10
210.3003519685564
 20
219.5657358570525
 30
0.0
 11
210.3003519685564
 21
239.5657358570524
 31
0.0
  0
LINE
  5
1F6C
330
1A
100
AcDbEntity
  8
SEIHIN
100
AcDbLine
 10
150.655517716578
 20
222.0657358570524
 30
0.0
 11
150.655517716578
 21
237.0657358570524
 31
0.0
  0
LINE
  5
1F6D
330
1A
100
AcDbEntity
  8
SEIHIN
100
AcDbLine
 10
165.4403189225288
 20
222.0657358570524
 30
0.0
 11
165.4403189225288
 21
237.0657358570524
 31
0.0
  0
LINE
  5
1F70
330
1A
100
AcDbEntity
  8
SEIHIN
100
AcDbLine
 10
130.2999348685564
 20
237.5657358570524
 30
0.0
 11
202.2003519685565
 21
237.5657358570524
 31
0.0
  0
LINE
  5
1F71
330
1A
100
AcDbEntity
  8
SEIHIN
100
AcDbLine
 10
128.2999348685564
 20
239.5657358570524
 30
0.0
 11
204.2003519685564
 21
239.5657358570524
 31
0.0
  0
LINE
  5
1F72
330
1A
100
AcDbEntity
  8
SEIHIN
100
AcDbLine
 10
177.7999348685564
 20
242.0657358570524
 30
0.0
 11
83.57246432879
 21
242.0657358570524
 31
0.0
  0
LINE
  5
1F73
330
1A
100
AcDbEntity
  8
SEIHIN
100
AcDbLine
 10
75.79993486855648
 20
239.5657358570524
 30
0.0
 11
83.57246432879
 21
239.5657358570524
 31
0.0
  0
LINE
  5
1F74
330
1A
100
AcDbEntity
  8
SEIHIN
100
AcDbLine
 10
83.57246432879
 20
242.0657358570524
 30
0.0
 11
83.57246432879
 21
239.5657358570524
 31
0.0
  0
LINE
  5
1F75
330
1A
100
AcDbEntity
  8
SEIHIN
100
AcDbLine
 10
151.5875341881996
 20
238.0657358570525
 30
0.0
 11
151.5875341881996
 21
239.0657358570524
 31
0.0
  0
LINE
  5
1F76
330
1A
100
AcDbEntity
  8
SEIHIN
100
AcDbLine
 10
164.6015044659718
 20
239.0657358570524
 30
0.0
 11
164.6015044659718
 21
238.0657358570524
 31
0.0
  0
LINE
  5
1F77
330
1A
100
AcDbEntity
  8
SEIHIN
100
AcDbLine
 10
177.7999348685564
 20
242.0657358570524
 30
0.0
 11
177.7999348685564
 21
239.5657358570524
 31
0.0
  0
LINE
  5
1F78
330
1A
100
AcDbEntity
  8
SEIHIN
100
AcDbLine
 10
209.2003519685564
 20
260.5657358570524
 30
0.0
 11
209.2003519685564
 21
242.1657358570524
 31
0.0
  0
LINE
  5
1F79
330
1A
100
AcDbEntity
  8
SEIHIN
100
AcDbLine
 10
210.8003519685564
 20
241.0657358570524
 30
0.0
 11
210.8003519685564
 21
260.5657358570524
 31
0.0
  0
LINE
  5
1F7A
330
1A
100
AcDbEntity
  8
CENTER_L
100
AcDbLine
 10
202.2003519685565
 20
251.5657358570524
 30
0.0
 11
217.8003519685564
 21
251.5657358570524
 31
0.0
  0
LINE
  5
1F7B
330
1A
100
AcDbEntity
  8
SEIHIN
100
AcDbLine
 10
210.8003519685564
 20
260.5657358570524
 30
0.0
 11
209.2003519685564
 21
260.5657358570524
 31
0.0
  0
LINE
  5
1F7C
330
1A
100
AcDbEntity
  8
SEIHIN
100
AcDbLine
 10
209.8003519685564
 20
240.0657358570524
 30
0.0
 11
206.1003519685564
 21
240.0657358570524
 31
0.0
  0
LINE
  5
1F7D
330
1A
100
AcDbEntity
  8
SEIHIN
100
AcDbLine
 10
205.2003519685564
 20
241.6657358570524
 30
0.0
 11
208.7003519685564
 21
241.6657358570524
 31
0.0
  0
ARC
  5
1F7F
330
1A
100
AcDbEntity
  8
SEIHIN
100
AcDbCircle
 10
205.2003519685564
 20
240.6657358570524
 30
0.0
 40
1.0
100
AcDbArc
 50
90.00000000000003
 51
179.9999999999983
  0
ARC
  5
1F81
330
1A
100
AcDbEntity
  8
SEIHIN
100
AcDbCircle
 10
208.7003519685564
 20
242.1657358570524
 30
0.0
 40
0.5
100
AcDbArc
 50
270.0000000000032
 51
0.0000000000032709
  0
ARC
  5
1F82
330
1A
100
AcDbEntity
  8
SEIHIN
100
AcDbCircle
 10
209.8003519685564
 20
241.0657358570524
 30
0.0
 40
1.0
100
AcDbArc
 50
270.0
 51
0.0000000000016425
  0
LINE
  5
1F85
330
1A
100
AcDbEntity
  8
SEIHIN
100
AcDbLine
 10
168.2380729531957
 20
240.0657358570524
 30
0.0
 11
168.2380729531957
 21
241.5657358570524
 31
0.0
  0
LINE
  5
1F86
330
1A
100
AcDbEntity
  8
SEIHIN
100
AcDbLine
 10
152.7135150902522
 20
240.0657358570525
 30
0.0
 11
152.7135150902522
 21
241.5657358570523
 31
0.0
  0
LINE
  5
1F87
330
1A
100
AcDbEntity
  8
SEIHIN
100
AcDbLine
 10
205.8003519685564
 20
239.5657358570524
 30
0.0
 11
210.3003519685564
 21
239.5657358570524
 31
0.0
  0
LINE
  5
1F88
330
1A
100
AcDbEntity
  8
SEIHIN
100
AcDbLine
 10
128.2999348685564
 20
83.20111502516345
 30
0.0
 11
150.7217602532362
 21
83.20111502516345
 31
0.0
  0
LINE
  5
1F89
330
1A
100
AcDbEntity
  8
SEIHIN
100
AcDbLine
 10
154.2572941730008
 20
84.66558113306259
 30
0.0
 11
166.398389269983
 21
96.8066763250427
 31
0.0
  0
ARC
  5
1F8B
330
1A
100
AcDbEntity
  8
SEIHIN
100
AcDbCircle
 10
169.9339231897477
 20
93.27114243294184
 30
0.0
 40
5.0
100
AcDbArc
 50
92.99999987887712
 51
135.0000002241552
  0
LINE
  5
1F8E
330
1A
100
AcDbEntity
  8
SEIHIN
100
AcDbLine
 10
209.2003519685564
 20
243.6657358570524
 30
0.0
 11
207.2003519685565
 21
241.6657358570524
 31
0.0
  0
LINE
  5
1F8F
330
1A
100
AcDbEntity
  8
SEIHIN
100
AcDbLine
 10
209.2003519685564
 20
215.4657358570525
 30
0.0
 11
207.2003519685565
 21
217.4657358570524
 31
0.0
  0
ARC
  5
1F91
330
1A
100
AcDbEntity
  8
SEIHIN
100
AcDbCircle
 10
206.1003519685564
 20
239.7657358570524
 30
0.0
 40
0.3
100
AcDbArc
 50
90.0
 51
180.0
  0
ARC
  5
1F92
330
1A
100
AcDbEntity
  8
SEIHIN
100
AcDbCircle
 10
206.1003519685564
 20
219.3657358570524
 30
0.0
 40
0.3
100
AcDbArc
 50
180.0
 51
270.0
  0
ARC
  5
1F93
330
1A
100
AcDbEntity
  8
SEIHIN
100
AcDbCircle
 10
150.7217602532362
 20
88.20111502516345
 30
0.0
 40
5.0
100
AcDbArc
 50
270.0
 51
315.0000002241551
  0
ARC
  5
1F94
330
1A
100
AcDbEntity
  8
SEIHIN
100
AcDbCircle
 10
150.1004399438659
 20
89.70111502516346
 30
0.0
 40
2.0
100
AcDbArc
 50
270.0
 51
315.0000002241553
  0
ARC
  5
1F95
330
1A
100
AcDbEntity
  8
SEIHIN
100
AcDbCircle
 10
150.100439906239
 20
89.70111502516344
 30
0.0
 40
1.0
100
AcDbArc
 50
270.0
 51
315.0000002241551
  0
DIMENSION
  5
1F96
330
1A
100
AcDbEntity
  8
SUNPOU
100
AcDbDimension
  2
*D1
 10
48.96912210021877
 20
87.40111502516343
 30
0.0
 11
46.46912210021876
 21
115.7581041751634
 31
0.0
 70
    32
  3
STANDARD
100
AcDbAlignedDimension
 13
204.2003519685564
 23
144.1150933251634
 33
0.0
 14
75.79993486855648
 24
87.40111502516343
 34
0.0
 50
90.0
100
AcDbRotatedDimension
1001
ACAD
1000
DSTYLE
1002
{
1070
    41
1040
3.0
1070
    42
1040
3.0
1070
    43
1040
7.0
1070
    44
1040
1.5
1070
    73
1070
     0
1070
    74
1070
     0
1070
    77
1070
     3
1070
   140
1040
3.0
1070
   141
1040
3.0
1070
   147
1040
1.0
1070
   172
1070
     1
1070
   173
1070
     1
1070
   176
1070
   256
1070
   177
1070
   256
1070
   178
1070
   256
1070
   271
1070
     0
1070
   272
1070
     0
1070
   341
1005
B2
1070
     6
1000
OPEN
1070
     7
1000
OPEN
1002
}
  0
DIMENSION
  5
1FA3
330
1A
100
AcDbEntity
  8
SUNPOU
100
AcDbDimension
  2
*D2
 10
128.2999348685564
 20
167.6377404395887
 30
0.0
 11
169.5501434185564
 21
170.1377404395886
 31
0.0
 70
    32
  3
STANDARD
100
AcDbAlignedDimension
 13
210.8003519685564
 23
144.1150933251634
 33
0.0
 14
128.2999348685564
 24
88.70111502516346
 34
0.0
100
AcDbRotatedDimension
1001
ACAD
1000
DSTYLE
1002
{
1070
    41
1040
3.0
1070
    42
1040
3.0
1070
    43
1040
7.0
1070
    44
1040
1.5
1070
    73
1070
     0
1070
    74
1070
     0
1070
    77
1070
     3
1070
   140
1040
3.0
1070
   141
1040
3.0
1070
   147
1040
1.0
1070
   172
1070
     1
1070
   173
1070
     1
1070
   176
1070
   256
1070
   177
1070
   256
1070
   178
1070
   256
1070
   271
1070
     0
1070
   272
1070
     0
1070
   341
1005
B2
1070
     6
1000
OPEN
1070
     7
1000
OPEN
1002
}
  0
DIMENSION
  5
1FB0
330
1A
100
AcDbEntity
  8
SUNPOU
100
AcDbDimension
  2
*D3
 10
210.8003519685564
 20
177.1156329943224
 30
0.0
 11
143.3001434185564
 21
179.6156329943224
 31
0.0
 70
    32
  3
STANDARD
100
AcDbAlignedDimension
 13
75.79993486855648
 23
86.93568564450393
 33
0.0
 14
210.8003519685564
 24
144.1150933251634
 34
0.0
100
AcDbRotatedDimension
1001
ACAD
1000
DSTYLE
1002
{
1070
    41
1040
3.0
1070
    42
1040
3.0
1070
    43
1040
7.0
1070
    44
1040
1.5
1070
    73
1070
     0
1070
    74
1070
     0
1070
    77
1070
     3
1070
   140
1040
3.0
1070
   141
1040
3.0
1070
   147
1040
1.0
1070
   172
1070
     1
1070
   173
1070
     1
1070
   176
1070
   256
1070
   177
1070
   256
1070
   178
1070
   256
1070
   271
1070
     0
1070
   272
1070
     0
1070
   341
1005
B2
1070
     6
1000
OPEN
1070
     7
1000
OPEN
1002
}
  0
DIMENSION
  5
1FEA
330
1A
100
AcDbEntity
  8
SUNPOU
100
AcDbDimension
  2
*D4
 10
192.2588775917845
 20
157.2931837560595
 30
0.0
 11
201.5296147801705
 21
159.7931837560595
 31
0.0
 70
    32
  3
STANDARD
100
AcDbAlignedDimension
 13
210.8003519685564
 23
144.1150933251634
 33
0.0
 14
192.2588775917845
 24
91.4316150251634
 34
0.0
100
AcDbRotatedDimension
1001
ACAD
1000
DSTYLE
1002
{
1070
    41
1040
3.0
1070
    42
1040
3.0
1070
    43
1040
7.0
1070
    44
1040
1.5
1070
    73
1070
     0
1070
    74
1070
     0
1070
    77
1070
     3
1070
   140
1040
3.0
1070
   141
1040
3.0
1070
   147
1040
1.0
1070
   172
1070
     1
1070
   173
1070
     1
1070
   176
1070
   256
1070
   177
1070
   256
1070
   178
1070
   256
1070
   271
1070
     0
1070
   272
1070
     0
1070
   341
1005
B2
1070
     6
1000
OPEN
1070
     7
1000
OPEN
1002
}
  0
DIMENSION
  5
1FF7
330
1A
100
AcDbEntity
  8
SUNPOU
100
AcDbDimension
  2
*D5
 10
231.8518464294904
 20
109.1150933251634
 30
0.0
 11
229.3518464294904
 21
126.6150933251634
 31
0.0
 70
    32
  3
STANDARD
100
AcDbAlignedDimension
 13
210.8003519685564
 23
144.1150933251634
 33
0.0
 14
210.8003519685564
 24
109.1150933251634
 34
0.0
 50
90.0
100
AcDbRotatedDimension
1001
ACAD
1000
DSTYLE
1002
{
1070
    41
1040
3.0
1070
    42
1040
3.0
1070
    43
1040
7.0
1070
    44
1040
1.5
1070
    73
1070
     0
1070
    74
1070
     0
1070
    77
1070
     3
1070
   140
1040
3.0
1070
   141
1040
3.0
1070
   147
1040
1.0
1070
   172
1070
     1
1070
   173
1070
     1
1070
   176
1070
   256
1070
   177
1070
   256
1070
   178
1070
   256
1070
   271
1070
     0
1070
   272
1070
     0
1070
   341
1005
B2
1070
     6
1000
OPEN
1070
     7
1000
OPEN
1002
}
  0
LINE
  5
2004
330
1A
100
AcDbEntity
  8
SEIHIN
100
AcDbLine
 10
209.2003519685564
 20
119.1150933251634
 30
0.0
 11
206.6875020002834
 21
119.1150933251634
 31
0.0
  0
LINE
  5
2005
330
1A
100
AcDbEntity
  8
SEIHIN
100
AcDbLine
 10
209.2003519685564
 20
115.1150933251634
 30
0.0
 11
206.6875020002834
 21
115.1150933251634
 31
0.0
  0
DIMENSION
  5
2006
330
1A
100
AcDbEntity
  8
SUNPOU
100
AcDbDimension
  2
*D6
 10
267.0057125701455
 20
136.1150933251634
 30
0.0
 11
264.5057125701455
 21
140.1150933251634
 31
0.0
 70
    32
  3
STANDARD
100
AcDbAlignedDimension
 13
284.2237303347114
 23
144.1150933251634
 33
0.0
 14
284.1237303347114
 24
136.1150933251634
 34
0.0
 50
90.0
100
AcDbRotatedDimension
1001
ACAD
1000
DSTYLE
1002
{
1070
    41
1040
3.0
1070
    42
1040
3.0
1070
    43
1040
7.0
1070
    44
1040
1.5
1070
    73
1070
     0
1070
    74
1070
     0
1070
    77
1070
     3
1070
   140
1040
3.0
1070
   141
1040
3.0
1070
   147
1040
1.0
1070
   172
1070
     1
1070
   173
1070
     1
1070
   176
1070
   256
1070
   177
1070
   256
1070
   178
1070
   256
1070
   271
1070
     0
1070
   272
1070
     0
1070
   341
1005
B2
1070
     6
1000
OPEN
1070
     7
1000
OPEN
1002
}
  0
DIMENSION
  5
2015
330
1A
100
AcDbEntity
  8
SUNPOU
100
AcDbDimension
  2
*D7
 10
267.0057125701455
 20
109.1150933251634
 30
0.0
 11
264.5057125701455
 21
113.1150933251634
 31
0.0
 70
    32
  3
STANDARD
100
AcDbAlignedDimension
 13
284.1237303347114
 23
117.1150933251634
 33
0.0
 14
284.2237303347114
 24
109.1150933251634
 34
0.0
 50
90.0
100
AcDbRotatedDimension
1001
ACAD
1000
DSTYLE
1002
{
1070
    41
1040
3.0
1070
    42
1040
3.0
1070
    43
1040
7.0
1070
    44
1040
1.5
1070
    73
1070
     0
1070
    74
1070
     0
1070
    77
1070
     3
1070
   140
1040
3.0
1070
   141
1040
3.0
1070
   147
1040
1.0
1070
   172
1070
     1
1070
   173
1070
     1
1070
   176
1070
   256
1070
   177
1070
   256
1070
   178
1070
   256
1070
   271
1070
     0
1070
   272
1070
     0
1070
   341
1005
B2
1070
     6
1000
OPEN
1070
     7
1000
OPEN
1002
}
  0
DIMENSION
  5
2022
330
1A
100
AcDbEntity
  8
SUNPOU
100
AcDbDimension
  2
*D8
 10
256.9873335424656
 20
109.1150933251634
 30
0.0
 11
254.4873335424656
 21
126.6150933251634
 31
0.0
 70
    32
  3
STANDARD
100
AcDbAlignedDimension
 13
284.2237303347114
 23
144.1150933251634
 33
0.0
 14
284.2237303347114
 24
109.1150933251634
 34
0.0
 50
90.0
100
AcDbRotatedDimension
1001
ACAD
1000
DSTYLE
1002
{
1070
    41
1040
3.0
1070
    42
1040
3.0
1070
    43
1040
7.0
1070
    44
1040
1.5
1070
    73
1070
     0
1070
    74
1070
     0
1070
    77
1070
     3
1070
   140
1040
3.0
1070
   141
1040
3.0
1070
   147
1040
1.0
1070
   172
1070
     1
1070
   173
1070
     1
1070
   176
1070
   256
1070
   177
1070
   256
1070
   178
1070
   256
1070
   271
1070
     0
1070
   272
1070
     0
1070
   341
1005
B2
1070
     6
1000
OPEN
1070
     7
1000
OPEN
1002
}
  0
DIMENSION
  5
204C
330
1A
100
AcDbEntity
  8
SUNPOU
100
AcDbDimension
  2
*D9
 10
334.2237303347114
 20
157.2931837560595
 30
0.0
 11
312.2237303347114
 21
159.7931837560595
 31
0.0
 70
    32
  3
STANDARD
100
AcDbAlignedDimension
 13
290.2237303347114
 23
142.2150933251634
 33
0.0
 14
334.2237303347114
 24
142.2150933251634
 34
0.0
100
AcDbRotatedDimension
1001
ACAD
1000
DSTYLE
1002
{
1070
    41
1040
3.0
1070
    42
1040
3.0
1070
    43
1040
7.0
1070
    44
1040
1.5
1070
    73
1070
     0
1070
    74
1070
     0
1070
    77
1070
     3
1070
   140
1040
3.0
1070
   141
1040
3.0
1070
   147
1040
1.0
1070
   172
1070
     1
1070
   173
1070
     1
1070
   176
1070
   256
1070
   177
1070
   256
1070
   178
1070
   256
1070
   271
1070
     0
1070
   272
1070
     0
1070
   341
1005
B2
1070
     6
1000
OPEN
1070
     7
1000
OPEN
1002
}
  0
DIMENSION
  5
2059
330
1A
100
AcDbEntity
  8
SUNPOU
100
AcDbDimension
  2
*D10
 10
343.2237303347114
 20
167.6377404395887
 30
0.0
 11
312.2237303347114
 21
170.1377404395886
 31
0.0
 70
    32
  3
STANDARD
100
AcDbAlignedDimension
 13
281.2237303347114
 23
141.1150933251634
 33
0.0
 14
343.2237303347114
 24
141.1150933251634
 34
0.0
100
AcDbRotatedDimension
1001
ACAD
1000
DSTYLE
1002
{
1070
    41
1040
3.0
1070
    42
1040
3.0
1070
    43
1040
7.0
1070
    44
1040
1.5
1070
    73
1070
     0
1070
    74
1070
     0
1070
    77
1070
     3
1070
   140
1040
3.0
1070
   141
1040
3.0
1070
   147
1040
1.0
1070
   172
1070
     1
1070
   173
1070
     1
1070
   176
1070
   256
1070
   177
1070
   256
1070
   178
1070
   256
1070
   271
1070
     0
1070
   272
1070
     0
1070
   341
1005
B2
1070
     6
1000
OPEN
1070
     7
1000
OPEN
1002
}
  0
DIMENSION
  5
2066
330
1A
100
AcDbEntity
  8
SUNPOU
100
AcDbDimension
  2
*D11
 10
231.8518464294905
 20
198.5657358570524
 30
0.0
 11
229.3518464294904
 21
229.5657358570525
 31
0.0
 70
    32
  3
STANDARD
100
AcDbAlignedDimension
 13
210.8003519685564
 23
260.5657358570524
 33
0.0
 14
210.8003519685564
 24
198.5657358570524
 34
0.0
 50
90.0
100
AcDbRotatedDimension
1001
ACAD
1000
DSTYLE
1002
{
1070
    41
1040
3.0
1070
    42
1040
3.0
1070
    43
1040
7.0
1070
    44
1040
1.5
1070
    73
1070
     0
1070
    74
1070
     0
1070
    77
1070
     3
1070
   140
1040
3.0
1070
   141
1040
3.0
1070
   147
1040
1.0
1070
   172
1070
     1
1070
   173
1070
     1
1070
   176
1070
   256
1070
   177
1070
   256
1070
   178
1070
   256
1070
   271
1070
     0
1070
   272
1070
     0
1070
   341
1005
B2
1070
     6
1000
OPEN
1070
     7
1000
OPEN
1002
}
  0
DIMENSION
  5
2073
330
1A
100
AcDbEntity
  8
SUNPOU
100
AcDbDimension
  2
*D12
 10
48.9691221002188
 20
219.5657358570525
 30
0.0
 11
46.46912210021876
 21
229.5657358570525
 31
0.0
 70
    32
  3
STANDARD
100
AcDbAlignedDimension
 13
75.79993486855648
 23
239.5657358570524
 33
0.0
 14
75.79993486855648
 24
219.5657358570524
 34
0.0
 50
90.0
100
AcDbRotatedDimension
1001
ACAD
1000
DSTYLE
1002
{
1070
    41
1040
3.0
1070
    42
1040
3.0
1070
    43
1040
7.0
1070
    44
1040
1.5
1070
    73
1070
     0
1070
    74
1070
     0
1070
    77
1070
     3
1070
   140
1040
3.0
1070
   141
1040
3.0
1070
   147
1040
1.0
1070
   172
1070
     1
1070
   173
1070
     1
1070
   176
1070
   256
1070
   177
1070
   256
1070
   178
1070
   256
1070
   271
1070
     0
1070
   272
1070
     0
1070
   341
1005
B2
1070
     6
1000
OPEN
1070
     7
1000
OPEN
1002
}
  0
LEADER
  5
2081
330
1A
100
AcDbEntity
  8
SUNPOU
100
AcDbLeader
  3
STANDARD
 73
     0
 40
3.0
 41
15.59999999999999
 76
     3
 10
288.6601780589823
 20
137.5169864313103
 30
0.0
 10
274.0373545391642
 20
161.0185146322153
 30
0.0
 10
271.024799295988
 20
161.0185146322153
 30
0.0
340
2082
213
0.0
223
1.5
233
0.0
1001
ACAD
1000
DSTYLE
1002
{
1070
     6
1000
OPEN
1070
    41
1040
3.0
1070
    42
1040
3.0
1070
    43
1040
7.0
1070
    44
1040
1.5
1070
    73
1070
     0
1070
    74
1070
     0
1070
    77
1070
     0
1070
   140
1040
3.0
1070
   141
1040
3.0
1070
   147
1040
1.0
1070
   172
1070
     1
1070
   173
1070
     1
1070
   176
1070
   256
1070
   177
1070
   256
1070
   178
1070
   256
1070
   271
1070
     0
1070
   272
1070
     0
1070
   341
1005
B2
1070
   343
1005
B2
1070
   344
1005
B2
1002
}
  0
MTEXT
  5
2082
102
{ACAD_REACTORS
330
2081
102
}
330
1A
100
AcDbEntity
  8
SUNPOU
100
AcDbMText
 10
270.024799295988
 20
159.5185146322153
 30
0.0
 40
3.0
 41
0.0
 71
     9
 72
     5
  1
\A1;4-φ4.2
1001
ACAD
1000
MTEXTBEGIN
1070
    73
1070
     1
1070
    44
1040
1.0
1070
    74
1070
     0
1000
MTEXTEND
1000
MTEXTBEGIN
1070
    73
1070
     1
1070
    44
1040
1.0
1070
    74
1070
     0
1000
MTEXTEND
1000
MTEXTBEGIN
1070
    73
1070
     1
1070
    44
1040
1.0
1070
    74
1070
     0
1000
MTEXTEND
1000
MTEXTBEGIN
1070
    73
1070
     1
1070
    44
1040
1.0
1070
    74
1070
     0
1000
MTEXTEND
1000
MTEXTBEGIN
1070
    73
1070
     1
1070
    44
1040
1.0
1070
    74
1070
     0
1000
MTEXTEND
1000
MTEXTBEGIN
1070
    73
1070
     1
1070
    44
1040
1.0
1070
    74
1070
     0
1000
MTEXTEND
  0
LINE
  5
2127
330
1A
100
AcDbEntity
  8
SEIHIN
100
AcDbLine
 10
151.5875341881996
 20
221.0657358570524
 30
0.0
 11
151.5875341881996
 21
220.0657358570524
 31
0.0
  0
LINE
  5
2128
330
1A
100
AcDbEntity
  8
SEIHIN
100
AcDbLine
 10
152.7135150902522
 20
219.0657358570524
 30
0.0
 11
152.7135150902522
 21
217.5657358570525
 31
0.0
  0
LINE
  5
2129
330
1A
100
AcDbEntity
  8
SEIHIN
100
AcDbLine
 10
164.6015044659718
 20
220.0657358570524
 30
0.0
 11
164.6015044659718
 21
221.0657358570524
 31
0.0
  0
LINE
  5
212A
330
1A
100
AcDbEntity
  8
SEIHIN
100
AcDbLine
 10
168.2380729531957
 20
219.0657358570525
 30
0.0
 11
168.2380729531957
 21
217.5657358570524
 31
0.0
  0
LINE
  5
226B
330
1A
100
AcDbEntity
  8
SEIHIN
100
AcDbLine
 10
302.2237303347114
 20
91.54195168990794
 30
0.0
 11
299.6237303347114
 21
91.54195168990794
 31
0.0
  0
LINE
  5
226C
330
1A
100
AcDbEntity
  8
SEIHIN
100
AcDbLine
 10
322.2237303347114
 20
91.54195168990794
 30
0.0
 11
324.8237303347114
 21
91.54195168990794
 31
0.0
  0
LINE
  5
226D
330
1A
100
AcDbEntity
  8
SEIHIN
100
AcDbLine
 10
315.4737303347114
 20
72.34422903307254
 30
0.0
 11
308.9737303347114
 21
72.34422903307254
 31
0.0
  0
LINE
  5
226E
330
1A
100
AcDbEntity
  8
SEIHIN
100
AcDbLine
 10
303.2237303347114
 20
74.53348702516343
 30
0.0
 11
303.2237303347114
 21
72.84422903307255
 31
0.0
  0
LINE
  5
226F
330
1A
100
AcDbEntity
  8
SEIHIN
100
AcDbLine
 10
321.2237303347114
 20
74.53348702516343
 30
0.0
 11
321.2237303347114
 21
72.84422903307255
 31
0.0
  0
LINE
  5
2272
330
1A
100
AcDbEntity
  8
SEIHIN
100
AcDbLine
 10
308.7237303347114
 20
74.53348702516343
 30
0.0
 11
308.7237303347114
 21
72.59422903307253
 31
0.0
  0
LINE
  5
2273
330
1A
100
AcDbEntity
  8
SEIHIN
100
AcDbLine
 10
315.7237303347114
 20
74.53348702516343
 30
0.0
 11
315.7237303347114
 21
72.59422903307253
 31
0.0
  0
LINE
  5
2274
330
1A
100
AcDbEntity
  8
SEIHIN
100
AcDbLine
 10
321.2237303347114
 20
72.84422903307254
 30
0.0
 11
315.9737303347114
 21
72.84422903307254
 31
0.0
  0
LINE
  5
2275
330
1A
100
AcDbEntity
  8
SEIHIN
100
AcDbLine
 10
308.4737303347114
 20
72.84422903307254
 30
0.0
 11
303.2237303347114
 21
72.84422903307254
 31
0.0
  0
ARC
  5
2276
330
1A
100
AcDbEntity
  8
SEIHIN
100
AcDbCircle
 10
308.4737303347114
 20
72.59422903307253
 30
0.0
 40
0.25
100
AcDbArc
 50
0.0
 51
90.0
  0
ARC
  5
2277
330
1A
100
AcDbEntity
  8
SEIHIN
100
AcDbCircle
 10
315.9737303347114
 20
72.59422903307253
 30
0.0
 40
0.25
100
AcDbArc
 50
90.0
 51
180.0
  0
ARC
  5
2278
330
1A
100
AcDbEntity
  8
SEIHIN
100
AcDbCircle
 10
308.9737303347114
 20
72.59422903307253
 30
0.0
 40
0.25
100
AcDbArc
 50
180.0
 51
270.0
  0
ARC
  5
2279
330
1A
100
AcDbEntity
  8
SEIHIN
100
AcDbCircle
 10
315.4737303347114
 20
72.59422903307253
 30
0.0
 40
0.25
100
AcDbArc
 50
270.0
 51
0.0
  0
LINE
  5
2318
330
1A
100
AcDbEntity
  8
SEIHIN
100
AcDbLine
 10
205.8003519685564
 20
219.5657358570524
 30
0.0
 11
210.3003519685564
 21
219.5657358570524
 31
0.0
  0
LWPOLYLINE
  5
2836
330
1A
100
AcDbEntity
  8
ZUWAKU
100
AcDbPolyline
 90
        4
 70
     1
 43
0.0
 10
0.4000003632512517
 20
275.4000002150744
 10
0.4000003632512517
 20
0.400000215074499
 10
398.4000003632512
 20
0.400000215074499
 10
398.4000003632512
 20
275.4000002150744
  0
LWPOLYLINE
  5
2837
330
1A
100
AcDbEntity
  8
ZUWAKU
100
AcDbPolyline
 90
        4
 70
     1
 43
0.0
 10
0.200000363251263
 20
275.6000002150745
 10
0.200000363251263
 20
0.2000002150745104
 10
398.6000003632513
 20
0.2000002150744988
 10
398.6000003632513
 20
275.6000002150745
  0
LWPOLYLINE
  5
2838
330
1A
100
AcDbEntity
  8
ZUWAKU
100
AcDbPolyline
 90
        4
 70
     1
 43
0.0
 10
0.0000003632512744
 20
275.8000002150744
 10
0.0000003632512744
 20
0.0000002150744649
 10
398.8000003632513
 20
0.0000002150744987
 10
398.8000003632513
 20
275.8000002150745
  0
LWPOLYLINE
  5
2839
330
1A
100
AcDbEntity
  8
ZUWAKU
100
AcDbPolyline
 90
        4
 70
     1
 43
0.0
 10
0.3000003632512289
 20
275.5000002150745
 10
0.3000003632512289
 20
0.3000002150744763
 10
398.5000003632514
 20
0.3000002150744994
 10
398.5000003632512
 20
275.5000002150745
  0
LWPOLYLINE
  5
283A
330
1A
100
AcDbEntity
  8
ZUWAKU
100
AcDbPolyline
 90
        4
 70
     1
 43
0.0
 10
0.1000003632512403
 20
275.7000002150745
 10
0.1000003632512403
 20
0.1000002150744876
 10
398.7000003632512
 20
0.1000002150744992
 10
398.7000003632513
 20
275.7000002150745
  0
LINE
  5
283B
330
1A
100
AcDbEntity
  8
ZUWAKU
100
AcDbLine
 10
0.0000003632512744
 20
15.00000021507446
 30
0.0
 11
398.7000003632512
 21
15.00000021507446
 31
0.0
  0
LINE
  5
283C
330
1A
100
AcDbEntity
  8
ZUWAKU
100
AcDbLine
 10
0.0000003632512744
 20
15.10000021507446
 30
0.0
 11
398.7000003632512
 21
15.10000021507446
 31
0.0
  0
LINE
  5
283D
330
1A
100
AcDbEntity
  8
ZUWAKU
100
AcDbLine
 10
0.0000003632512744
 20
15.20000021507446
 30
0.0
 11
398.7000003632512
 21
15.20000021507446
 31
0.0
  0
LINE
  5
283E
330
1A
100
AcDbEntity
  8
ZUWAKU
100
AcDbLine
 10
0.0000003632512744
 20
15.30000021507446
 30
0.0
 11
398.7000003632512
 21
15.30000021507446
 31
0.0
  0
LINE
  5
283F
330
1A
100
AcDbEntity
  8
ZUWAKU
100
AcDbLine
 10
0.0000003632512744
 20
15.40000021507447
 30
0.0
 11
398.7000003632512
 21
15.40000021507447
 31
0.0
  0
LINE
  5
2840
330
1A
100
AcDbEntity
  8
ZUWAKU
100
AcDbLine
 10
104.3233010082852
 20
7.700000215074481
 30
0.0
 11
223.7121823487469
 21
7.700000215074481
 31
0.0
  0
LINE
  5
2841
330
1A
100
AcDbEntity
  8
ZUWAKU
100
AcDbLine
 10
104.3233010082852
 20
7.800000215074481
 30
0.0
 11
223.7121823487469
 21
7.800000215074485
 31
0.0
  0
LINE
  5
2842
330
1A
100
AcDbEntity
  8
ZUWAKU
100
AcDbLine
 10
104.3233010082852
 20
7.600000215074484
 30
0.0
 11
223.7121823487469
 21
7.60000021507448
 31
0.0
  0
TEXT
  5
2843
330
1A
100
AcDbEntity
  8
MOJI
100
AcDbText
 10
46.47889515733583
 20
6.370589280211845
 30
0.0
 40
3.0
  1
新・丸トップＲＶ１０５
 41
0.9
  7
ｽﾀｲﾙ1
100
AcDbText
  0
CIRCLE
  5
2844
330
1A
100
AcDbEntity
  8
ZUWAKU
100
AcDbCircle
 10
12.99610644064182
 20
7.600000215074466
 30
0.0
 40
0.875
  0
LINE
  5
2845
330
1A
100
AcDbEntity
  8
ZUWAKU
100
AcDbLine
 10
13.43360644064182
 20
3.575000215074467
 30
0.0
 11
12.47110644064184
 21
3.575000215074467
 31
0.0
  0
LINE
  5
2846
330
1A
100
AcDbEntity
  8
ZUWAKU
100
AcDbLine
 10
12.47110644064184
 20
4.975000215074466
 30
0.0
 11
13.43360644064182
 21
4.975000215074466
 31
0.0
  0
LINE
  5
2847
330
1A
100
AcDbEntity
  8
ZUWAKU
100
AcDbLine
 10
13.43360644064182
 20
10.22500021507446
 30
0.0
 11
12.47110644064184
 21
10.22500021507446
 31
0.0
  0
LINE
  5
2848
330
1A
100
AcDbEntity
  8
ZUWAKU
100
AcDbLine
 10
12.47110644064184
 20
11.62500021507444
 30
0.0
 11
13.43360644064182
 21
11.62500021507446
 31
0.0
  0
HATCH
  5
2849
330
1A
100
AcDbEntity
  8
ZUWAKU
100
AcDbHatch
 10
0.0
 20
0.0
 30
0.0
210
0.0
220
0.0
230
1.0
  2
ANSI37
 70
     0
 71
     0
 91
        8
 92
        7
 72
     1
 73
     1
 93
       24
 10
7.251131693811203
 20
8.822424455566256
 42
-0.1989123673796348
 10
7.046106440641835
 20
9.317399202396781
 42
0.0
 10
7.046106440641835
 20
9.96250021507447
 42
-0.4142135623730912
 10
7.308606440641824
 20
10.22500021507446
 42
0.0
 10
8.796106440641779
 20
10.22500021507446
 42
0.4142135623731546
 10
9.058606440641824
 20
10.48750021507446
 42
0.0
 10
9.058606440641824
 20
11.36250021507446
 42
0.4142135623731586
 10
8.796106440641779
 20
11.62500021507446
 42
0.0
 10
7.046106440641835
 20
11.62500021507446
 42
0.4142135623730928
 10
5.646106440641858
 20
10.22500021507448
 42
0.0
 10
5.646106440641858
 20
9.317399202396845
 42
0.1989123673796619
 10
6.261182200150074
 20
7.832474961905042
 42
0.0
 10
7.716081187472411
 20
6.377575974582713
 42
-0.1989123673796613
 10
7.921106440641835
 20
5.88260122775212
 42
0.0
 10
7.921106440641835
 20
5.237500215074462
 42
-0.4142135623730911
 10
7.658606440641847
 20
4.975000215074466
 42
0.0
 10
6.171106440641892
 20
4.975000215074466
 42
0.4142135623731526
 10
5.908606440641847
 20
4.712500215074472
 42
0.0
 10
5.908606440641847
 20
3.837500215074461
 42
0.4142135623731526
 10
6.171106440641892
 20
3.575000215074467
 42
0.0
 10
7.921106440641835
 20
3.575000215074467
 42
0.4142135623731044
 10
9.321106440641869
 20
4.975000215074455
 42
0.0
 10
9.321106440641869
 20
5.882601227752092
 42
0.1989123673796604
 10
8.706030681133597
 20
7.367525468243862
 42
0.0
 97
        0
 92
        7
 72
     1
 73
     1
 93
       16
 10
11.77110644064185
 20
9.52500021507447
 42
-0.4142135623730935
 10
12.47110644064184
 20
10.22500021507446
 42
0.0
 10
13.43360644064182
 20
10.22500021507446
 42
0.4142135623731546
 10
13.69610644064187
 20
10.48750021507446
 42
0.0
 10
13.69610644064187
 20
11.36250021507446
 42
0.4142135623730951
 10
13.43360644064188
 20
11.62500021507446
 42
0.0
 10
12.47110644064179
 20
11.62500021507444
 42
0.4142135623730892
 10
10.37110644064182
 20
9.525000215074435
 42
0.0
 10
10.37110644064182
 20
5.675000215074479
 42
0.4142135623730969
 10
12.47110644064184
 20
3.575000215074467
 42
0.0
 10
13.43360644064182
 20
3.575000215074467
 42
0.4142135623731526
 10
13.69610644064187
 20
3.837500215074461
 42
0.0
 10
13.69610644064187
 20
4.712500215074472
 42
0.4142135623730891
 10
13.43360644064188
 20
4.975000215074466
 42
0.0
 10
12.47110644064184
 20
4.975000215074466
 42
-0.4142135623730928
 10
11.77110644064185
 20
5.67500021507446
 42
0.0
 97
        0
 92
        7
 72
     1
 73
     1
 93
        2
 10
12.12110644064182
 20
7.600000215074466
 42
1.0
 10
13.87110644064182
 20
7.600000215074466
 42
1.0
 97
        0
 92
        7
 72
     1
 73
     1
 93
       26
 10
18.65742968173083
 20
9.60252381185618
 42
0.0
 10
19.18824949829974
 20
11.28345323099097
 42
0.5069206636600134
 10
18.93793404870206
 20
11.62500021507446
 42
0.0
 10
18.08848935889744
 20
11.62500021507446
 42
0.3272098845218764
 10
17.83817390929977
 20
11.44154719915795
 42
0.0
 10
16.90403897198388
 20
8.483453230991006
 42
-0.3272098845219541
 10
16.65372352238614
 20
8.300000215074465
 42
0.0
 10
16.58360644064191
 20
8.300000215074465
 42
-0.4142135623731526
 10
16.32110644064186
 20
8.562500215074459
 42
0.0
 10
16.32110644064186
 20
11.36250021507446
 42
0.4142135623730951
 10
16.05860644064188
 20
11.62500021507446
 42
0.0
 10
15.18360644064182
 20
11.62500021507446
 42
0.4142135623730871
 10
14.92110644064183
 20
11.36250021507447
 42
0.0
 10
14.92110644064183
 20
3.837500215074461
 42
0.4142135623730891
 10
15.18360644064182
 20
3.575000215074467
 42
0.0
 10
16.05860644064182
 20
3.575000215074467
 42
0.4142135623731526
 10
16.32110644064186
 20
3.837500215074461
 42
0.0
 10
16.32110644064186
 20
6.637500215074473
 42
-0.4142135623731526
 10
16.58360644064191
 20
6.900000215074467
 42
0.0
 10
16.6537235223862
 20
6.900000215074467
 42
-0.3272098845218915
 10
16.90403897198388
 20
6.716547199157929
 42
0.0
 10
17.83817390929977
 20
3.758453230991003
 42
0.3272098845218902
 10
18.08848935889744
 20
3.575000215074467
 42
0.0
 10
18.93793404870206
 20
3.575000215074467
 42
0.5069206636600335
 10
19.18824949829974
 20
3.916547199157971
 42
0.0
 10
18.02505380906291
 20
7.600000215074535
 42
0.0
 97
        0
 92
        7
 72
     1
 73
     1
 93
        8
 10
21.74610644064182
 20
11.36250021507447
 42
0.4142135623731546
 10
21.48360644064177
 20
11.62500021507446
 42
0.0
 10
20.60860644064189
 20
11.62500021507446
 42
0.4142135623731507
 10
20.34610644064184
 20
11.36250021507447
 42
0.0
 10
20.34610644064184
 20
3.837500215074461
 42
0.4142135623731526
 10
20.60860644064189
 20
3.575000215074467
 42
0.0
 10
21.48360644064177
 20
3.575000215074467
 42
0.4142135623731526
 10
21.74610644064182
 20
3.837500215074461
 42
0.0
 97
        0
 92
        7
 72
     1
 73
     1
 93
       24
 10
24.19610644064187
 20
9.96250021507447
 42
-0.4142135623731546
 10
24.45860644064191
 20
10.22500021507446
 42
0.0
 10
25.94610644064187
 20
10.22500021507446
 42
0.4142135623730911
 10
26.20860644064185
 20
10.48750021507446
 42
0.0
 10
26.20860644064185
 20
11.36250021507446
 42
0.4142135623730952
 10
25.94610644064187
 20
11.62500021507446
 42
0.0
 10
24.19610644064187
 20
11.62500021507446
 42
0.4142135623731048
 10
22.79610644064183
 20
10.22500021507448
 42
0.0
 10
22.79610644064183
 20
9.317399202396845
 42
0.1989123673796613
 10
23.4111822001501
 20
7.83247496190507
 42
0.0
 10
24.86608118747244
 20
6.377575974582736
 42
-0.1989123673796402
 10
25.07110644064187
 20
5.8826012277522
 42
0.0
 10
25.07110644064187
 20
5.237500215074462
 42
-0.4142135623730911
 10
24.80860644064188
 20
4.975000215074466
 42
0.0
 10
23.32110644064186
 20
4.975000215074466
 42
0.4142135623731526
 10
23.05860644064182
 20
4.712500215074472
 42
0.0
 10
23.05860644064182
 20
3.837500215074461
 42
0.4142135623730891
 10
23.32110644064181
 20
3.575000215074467
 42
0.0
 10
25.07110644064187
 20
3.575000215074467
 42
0.4142135623730925
 10
26.47110644064184
 20
4.975000215074455
 42
0.0
 10
26.47110644064184
 20
5.882601227752092
 42
0.1989123673796675
 10
25.85603068113357
 20
7.367525468243918
 42
0.0
 10
24.40113169381129
 20
8.822424455566176
 42
-0.1989123673796652
 10
24.19610644064187
 20
9.31739920239676
 42
0.0
 97
        0
 92
        7
 72
     1
 73
     1
 93
       16
 10
28.92110644064183
 20
11.36250021507446
 42
0.414213562373103
 10
28.65860644064184
 20
11.62500021507446
 42
0.0
 10
27.78360644064184
 20
11.62500021507446
 42
0.4142135623730871
 10
27.52110644064186
 20
11.36250021507447
 42
0.0
 10
27.52110644064186
 20
4.975000215074455
 42
0.4142135623730926
 10
28.92110644064183
 20
3.575000215074467
 42
0.0
 10
30.67110644064183
 20
3.575000215074467
 42
0.4142135623731044
 10
32.07110644064186
 20
4.975000215074455
 42
0.0
 10
32.07110644064186
 20
11.36250021507446
 42
0.4142135623730951
 10
31.80860644064188
 20
11.62500021507446
 42
0.0
 10
30.93360644064182
 20
11.62500021507446
 42
0.4142135623730871
 10
30.67110644064183
 20
11.36250021507447
 42
0.0
 10
30.67110644064183
 20
5.500000215074454
 42
-0.414213562373088
 10
30.14610644064186
 20
4.975000215074466
 42
0.0
 10
29.44610644064187
 20
4.975000215074466
 42
-0.4142135623731197
 10
28.92110644064183
 20
5.500000215074454
 42
0.0
 97
        0
 92
        7
 72
     1
 73
     1
 93
        8
 10
34.52110644064186
 20
11.36250021507447
 42
0.4142135623730871
 10
34.25860644064186
 20
11.62500021507446
 42
0.0
 10
33.38360644064187
 20
11.62500021507446
 42
0.4142135623731507
 10
33.12110644064182
 20
11.36250021507447
 42
0.0
 10
33.12110644064182
 20
3.837500215074461
 42
0.4142135623730891
 10
33.38360644064181
 20
3.575000215074467
 42
0.0
 10
34.25860644064186
 20
3.575000215074467
 42
0.4142135623730891
 10
34.52110644064186
 20
3.837500215074461
 42
0.0
 97
        0
 75
     0
 76
     1
 52
0.0
 41
0.1
 77
     0
 78
     2
 53
45.0
 43
-450.4711518040882
 44
-6.5999997849255
 45
-0.2245064030267288
 46
0.2245064030267288
 79
     0
 53
135.0
 43
-450.4711518040882
 44
-6.5999997849255
 45
-0.2245064030267288
 46
-0.2245064030267288
 79
     0
 47
0.057451373970553
 98
        8
 10
8.039927844762928
 20
7.583587038017242
 10
11.20225786647085
 20
9.42203130629997
 10
12.5821843060811
 20
7.755941038109824
 10
15.45703035406984
 20
8.100649038295216
 10
20.91923637272964
 20
8.330455172066024
 10
23.44910081081605
 20
9.70928837327807
 10
28.27884334945144
 20
9.364579172621972
 10
33.91354017306264
 20
9.59438530639278
  0
ARC
  5
284A
330
1A
100
AcDbEntity
  8
ZUWAKU
100
AcDbCircle
 10
7.746106440641824
 20
9.317399202396817
 30
0.0
 40
2.099999999999999
100
AcDbArc
 50
180.0
 51
225.0
  0
LINE
  5
284B
330
1A
100
AcDbEntity
  8
ZUWAKU
100
AcDbLine
 10
10.37110644064182
 20
5.675000215074469
 30
0.0
 11
10.37110644064182
 21
9.525000215074445
 31
0.0
  0
LINE
  5
284C
330
1A
100
AcDbEntity
  8
ZUWAKU
100
AcDbLine
 10
11.77110644064185
 20
9.525000215074467
 30
0.0
 11
11.77110644064185
 21
5.675000215074469
 31
0.0
  0
ARC
  5
284D
330
1A
100
AcDbEntity
  8
ZUWAKU
100
AcDbCircle
 10
7.746106440641824
 20
9.317399202396817
 30
0.0
 40
0.7
100
AcDbArc
 50
180.0000000000016
 51
224.9999999999988
  0
ARC
  5
284E
330
1A
100
AcDbEntity
  8
ZUWAKU
100
AcDbCircle
 10
12.47110644064184
 20
5.675000215074469
 30
0.0
 40
2.099999999999999
100
AcDbArc
 50
180.0
 51
270.0
  0
ARC
  5
284F
330
1A
100
AcDbEntity
  8
ZUWAKU
100
AcDbCircle
 10
7.921106440641835
 20
4.975000215074466
 30
0.0
 40
1.399999999999999
100
AcDbArc
 50
270.0
 51
0.0
  0
ARC
  5
2850
330
1A
100
AcDbEntity
  8
ZUWAKU
100
AcDbCircle
 10
7.221106440641847
 20
5.882601227752118
 30
0.0
 40
2.099999999999999
100
AcDbArc
 50
0.0
 51
45.0
  0
LINE
  5
2851
330
1A
100
AcDbEntity
  8
ZUWAKU
100
AcDbLine
 10
6.261182200150074
 20
7.832474961905056
 30
0.0
 11
7.716081187472411
 21
6.377575974582725
 31
0.0
  0
LINE
  5
2852
330
1A
100
AcDbEntity
  8
ZUWAKU
100
AcDbLine
 10
6.171106440641835
 20
4.975000215074466
 30
0.0
 11
7.658606440641847
 21
4.975000215074466
 31
0.0
  0
LINE
  5
2853
330
1A
100
AcDbEntity
  8
ZUWAKU
100
AcDbLine
 10
6.171106440641835
 20
3.575000215074467
 30
0.0
 11
7.921106440641835
 21
3.575000215074467
 31
0.0
  0
ARC
  5
2854
330
1A
100
AcDbEntity
  8
ZUWAKU
100
AcDbCircle
 10
6.171106440641835
 20
4.712500215074467
 30
0.0
 40
0.2625
100
AcDbArc
 50
90.0
 51
180.0
  0
ARC
  5
2855
330
1A
100
AcDbEntity
  8
ZUWAKU
100
AcDbCircle
 10
6.171106440641835
 20
3.837500215074467
 30
0.0
 40
0.2625
100
AcDbArc
 50
180.0
 51
270.0
  0
LINE
  5
2856
330
1A
100
AcDbEntity
  8
ZUWAKU
100
AcDbLine
 10
5.908606440641847
 20
3.837500215074467
 30
0.0
 11
5.908606440641847
 21
4.712500215074467
 31
0.0
  0
ARC
  5
2857
330
1A
100
AcDbEntity
  8
ZUWAKU
100
AcDbCircle
 10
7.221106440641847
 20
5.88260122775214
 30
0.0
 40
0.7
100
AcDbArc
 50
0.0
 51
45.0
  0
ARC
  5
2858
330
1A
100
AcDbEntity
  8
ZUWAKU
100
AcDbCircle
 10
7.658606440641847
 20
5.237500215074469
 30
0.0
 40
0.2625
100
AcDbArc
 50
270.0
 51
0.0
  0
LINE
  5
2859
330
1A
100
AcDbEntity
  8
ZUWAKU
100
AcDbLine
 10
7.921106440641835
 20
5.237500215074469
 30
0.0
 11
7.921106440641835
 21
5.88260122775214
 31
0.0
  0
LINE
  5
285A
330
1A
100
AcDbEntity
  8
ZUWAKU
100
AcDbLine
 10
8.706030681133597
 20
7.367525468243879
 30
0.0
 11
7.251131693811259
 21
8.822424455566217
 31
0.0
  0
ARC
  5
285B
330
1A
100
AcDbEntity
  8
ZUWAKU
100
AcDbCircle
 10
12.47110644064184
 20
5.675000215074469
 30
0.0
 40
0.7
100
AcDbArc
 50
180.0
 51
270.0
  0
LINE
  5
285C
330
1A
100
AcDbEntity
  8
ZUWAKU
100
AcDbLine
 10
9.321106440641869
 20
4.975000215074466
 30
0.0
 11
9.321106440641869
 21
5.88260122775214
 31
0.0
  0
ARC
  5
285D
330
1A
100
AcDbEntity
  8
ZUWAKU
100
AcDbCircle
 10
8.796106440641835
 20
10.48750021507446
 30
0.0
 40
0.2625
100
AcDbArc
 50
270.0
 51
0.0
  0
ARC
  5
285E
330
1A
100
AcDbEntity
  8
ZUWAKU
100
AcDbCircle
 10
8.796106440641835
 20
11.36250021507446
 30
0.0
 40
0.2625
100
AcDbArc
 50
0.0
 51
90.0
  0
ARC
  5
285F
330
1A
100
AcDbEntity
  8
ZUWAKU
100
AcDbCircle
 10
7.046106440641835
 20
10.22500021507446
 30
0.0
 40
1.399999999999999
100
AcDbArc
 50
90.0
 51
180.0
  0
LINE
  5
2860
330
1A
100
AcDbEntity
  8
ZUWAKU
100
AcDbLine
 10
5.646106440641858
 20
10.22500021507446
 30
0.0
 11
5.646106440641858
 21
9.317399202396796
 31
0.0
  0
LINE
  5
2861
330
1A
100
AcDbEntity
  8
ZUWAKU
100
AcDbLine
 10
8.796106440641835
 20
10.22500021507446
 30
0.0
 11
7.308606440641824
 21
10.22500021507446
 31
0.0
  0
LINE
  5
2862
330
1A
100
AcDbEntity
  8
ZUWAKU
100
AcDbLine
 10
7.046106440641835
 20
9.962500215074467
 30
0.0
 11
7.046106440641835
 21
9.317399202396796
 31
0.0
  0
ARC
  5
2863
330
1A
100
AcDbEntity
  8
ZUWAKU
100
AcDbCircle
 10
7.308606440641824
 20
9.962500215074467
 30
0.0
 40
0.2625
100
AcDbArc
 50
90.0
 51
180.0
  0
LINE
  5
2864
330
1A
100
AcDbEntity
  8
ZUWAKU
100
AcDbLine
 10
7.046106440641835
 20
11.62500021507446
 30
0.0
 11
8.796106440641835
 21
11.62500021507446
 31
0.0
  0
ARC
  5
2865
330
1A
100
AcDbEntity
  8
ZUWAKU
100
AcDbCircle
 10
12.47110644064184
 20
9.525000215074445
 30
0.0
 40
2.099999999999999
100
AcDbArc
 50
90.0
 51
180.0
  0
ARC
  5
2866
330
1A
100
AcDbEntity
  8
ZUWAKU
100
AcDbCircle
 10
12.47110644064184
 20
9.525000215074467
 30
0.0
 40
0.7
100
AcDbArc
 50
90.0
 51
180.0
  0
LINE
  5
2867
330
1A
100
AcDbEntity
  8
ZUWAKU
100
AcDbLine
 10
9.058606440641824
 20
11.36250021507446
 30
0.0
 11
9.058606440641824
 21
10.48750021507446
 31
0.0
  0
LINE
  5
2868
330
1A
100
AcDbEntity
  8
ZUWAKU
100
AcDbLine
 10
17.83817390929977
 20
11.44154719915795
 30
0.0
 11
16.90403897198388
 21
8.483453230990981
 31
0.0
  0
LINE
  5
2869
330
1A
100
AcDbEntity
  8
ZUWAKU
100
AcDbLine
 10
14.92110644064183
 20
11.36250021507446
 30
0.0
 11
14.92110644064183
 21
3.837500215074467
 31
0.0
  0
LINE
  5
286A
330
1A
100
AcDbEntity
  8
ZUWAKU
100
AcDbLine
 10
16.32110644064186
 20
8.562500215074468
 30
0.0
 11
16.32110644064186
 21
11.36250021507446
 31
0.0
  0
LINE
  5
286B
330
1A
100
AcDbEntity
  8
ZUWAKU
100
AcDbLine
 10
28.92110644064183
 20
5.500000215074464
 30
0.0
 11
28.92110644064183
 21
11.36250021507446
 31
0.0
  0
LINE
  5
286C
330
1A
100
AcDbEntity
  8
ZUWAKU
100
AcDbLine
 10
27.52110644064186
 20
11.36250021507446
 30
0.0
 11
27.52110644064186
 21
4.975000215074466
 31
0.0
  0
LINE
  5
286D
330
1A
100
AcDbEntity
  8
ZUWAKU
100
AcDbLine
 10
21.74610644064182
 20
3.837500215074467
 30
0.0
 11
21.74610644064182
 21
11.36250021507446
 31
0.0
  0
LINE
  5
286E
330
1A
100
AcDbEntity
  8
ZUWAKU
100
AcDbLine
 10
20.34610644064184
 20
11.36250021507446
 30
0.0
 11
20.34610644064184
 21
3.837500215074467
 31
0.0
  0
LINE
  5
286F
330
1A
100
AcDbEntity
  8
ZUWAKU
100
AcDbLine
 10
18.65742968173083
 20
9.60252381185618
 30
0.0
 11
18.02505380906291
 21
7.600000215074476
 31
0.0
  0
ARC
  5
2870
330
1A
100
AcDbEntity
  8
ZUWAKU
100
AcDbCircle
 10
24.89610644064185
 20
9.317399202396817
 30
0.0
 40
2.099999999999999
100
AcDbArc
 50
180.0
 51
225.0
  0
ARC
  5
2871
330
1A
100
AcDbEntity
  8
ZUWAKU
100
AcDbCircle
 10
24.89610644064185
 20
9.317399202396817
 30
0.0
 40
0.7
100
AcDbArc
 50
180.0000000000016
 51
224.9999999999988
  0
LINE
  5
2872
330
1A
100
AcDbEntity
  8
ZUWAKU
100
AcDbLine
 10
33.12110644064182
 20
11.36250021507446
 30
0.0
 11
33.12110644064182
 21
3.837500215074467
 31
0.0
  0
LINE
  5
2873
330
1A
100
AcDbEntity
  8
ZUWAKU
100
AcDbLine
 10
34.52110644064186
 20
3.837500215074467
 30
0.0
 11
34.52110644064186
 21
11.36250021507446
 31
0.0
  0
LINE
  5
2874
330
1A
100
AcDbEntity
  8
ZUWAKU
100
AcDbLine
 10
30.67110644064183
 20
11.36250021507446
 30
0.0
 11
30.67110644064183
 21
5.500000215074464
 31
0.0
  0
LINE
  5
2875
330
1A
100
AcDbEntity
  8
ZUWAKU
100
AcDbLine
 10
32.07110644064186
 20
4.975000215074466
 30
0.0
 11
32.07110644064186
 21
11.36250021507446
 31
0.0
  0
LINE
  5
2876
330
1A
100
AcDbEntity
  8
ZUWAKU
100
AcDbLine
 10
39.56331513724546
 20
15.00000021507446
 30
0.0
 11
39.56331513724546
 21
0.400000215074499
 31
0.0
  0
LINE
  5
2877
330
1A
100
AcDbEntity
  8
ZUWAKU
100
AcDbLine
 10
39.7633151372454
 20
15.00000021507446
 30
0.0
 11
39.76331513724551
 21
0.400000215074499
 31
0.0
  0
LINE
  5
2878
330
1A
100
AcDbEntity
  8
ZUWAKU
100
AcDbLine
 10
39.66331513724537
 20
15.00000021507446
 30
0.0
 11
39.66331513724549
 21
0.400000215074499
 31
0.0
  0
LINE
  5
2879
330
1A
100
AcDbEntity
  8
ZUWAKU
100
AcDbLine
 10
28.92110644064183
 20
3.575000215074467
 30
0.0
 11
30.67110644064183
 21
3.575000215074467
 31
0.0
  0
LINE
  5
287A
330
1A
100
AcDbEntity
  8
ZUWAKU
100
AcDbLine
 10
30.14610644064186
 20
4.975000215074466
 30
0.0
 11
29.44610644064187
 21
4.975000215074466
 31
0.0
  0
LINE
  5
287B
330
1A
100
AcDbEntity
  8
ZUWAKU
100
AcDbLine
 10
20.60860644064183
 20
3.575000215074467
 30
0.0
 11
21.48360644064183
 21
3.575000215074467
 31
0.0
  0
LINE
  5
287C
330
1A
100
AcDbEntity
  8
ZUWAKU
100
AcDbLine
 10
17.83817390929977
 20
3.75845323099098
 30
0.0
 11
16.90403897198388
 21
6.71654719915795
 31
0.0
  0
ARC
  5
287D
330
1A
100
AcDbEntity
  8
ZUWAKU
100
AcDbCircle
 10
16.58360644064186
 20
6.637500215074467
 30
0.0
 40
0.2625
100
AcDbArc
 50
90.0
 51
180.0
  0
ARC
  5
287E
330
1A
100
AcDbEntity
  8
ZUWAKU
100
AcDbCircle
 10
16.6537235223862
 20
6.637500215074467
 30
0.0
 40
0.2625
100
AcDbArc
 50
17.52556837372303
 51
90.0
  0
ARC
  5
287F
330
1A
100
AcDbEntity
  8
ZUWAKU
100
AcDbCircle
 10
15.18360644064182
 20
3.837500215074467
 30
0.0
 40
0.2625
100
AcDbArc
 50
180.0
 51
270.0
  0
ARC
  5
2880
330
1A
100
AcDbEntity
  8
ZUWAKU
100
AcDbCircle
 10
13.43360644064182
 20
4.712500215074467
 30
0.0
 40
0.2625
100
AcDbArc
 50
0.0
 51
90.0
  0
ARC
  5
2881
330
1A
100
AcDbEntity
  8
ZUWAKU
100
AcDbCircle
 10
13.43360644064182
 20
3.837500215074467
 30
0.0
 40
0.2625
100
AcDbArc
 50
270.0
 51
0.0
  0
LINE
  5
2882
330
1A
100
AcDbEntity
  8
ZUWAKU
100
AcDbLine
 10
13.69610644064187
 20
4.712500215074467
 30
0.0
 11
13.69610644064187
 21
3.837500215074467
 31
0.0
  0
LINE
  5
2883
330
1A
100
AcDbEntity
  8
ZUWAKU
100
AcDbLine
 10
16.32110644064186
 20
3.837500215074467
 30
0.0
 11
16.32110644064186
 21
6.637500215074467
 31
0.0
  0
ARC
  5
2884
330
1A
100
AcDbEntity
  8
ZUWAKU
100
AcDbCircle
 10
16.05860644064182
 20
3.837500215074467
 30
0.0
 40
0.2625
100
AcDbArc
 50
270.0
 51
0.0
  0
LINE
  5
2885
330
1A
100
AcDbEntity
  8
ZUWAKU
100
AcDbLine
 10
15.18360644064182
 20
3.575000215074467
 30
0.0
 11
16.05860644064182
 21
3.575000215074467
 31
0.0
  0
ARC
  5
2886
330
1A
100
AcDbEntity
  8
ZUWAKU
100
AcDbCircle
 10
16.58360644064186
 20
8.562500215074468
 30
0.0
 40
0.2625
100
AcDbArc
 50
180.0
 51
270.0
  0
LINE
  5
2887
330
1A
100
AcDbEntity
  8
ZUWAKU
100
AcDbLine
 10
16.58360644064186
 20
6.900000215074467
 30
0.0
 11
16.6537235223862
 21
6.900000215074467
 31
0.0
  0
LINE
  5
2888
330
1A
100
AcDbEntity
  8
ZUWAKU
100
AcDbLine
 10
16.6537235223862
 20
8.300000215074465
 30
0.0
 11
16.58360644064186
 21
8.300000215074465
 31
0.0
  0
ARC
  5
2889
330
1A
100
AcDbEntity
  8
ZUWAKU
100
AcDbCircle
 10
16.6537235223862
 20
8.562500215074468
 30
0.0
 40
0.2625
100
AcDbArc
 50
270.0
 51
342.4744316262769
  0
ARC
  5
288A
330
1A
100
AcDbEntity
  8
ZUWAKU
100
AcDbCircle
 10
18.0884893588975
 20
3.837500215074467
 30
0.0
 40
0.2625
100
AcDbArc
 50
197.525568373723
 51
270.0
  0
LINE
  5
288B
330
1A
100
AcDbEntity
  8
ZUWAKU
100
AcDbLine
 10
19.18824949829974
 20
3.916547199157953
 30
0.0
 11
18.02505380906291
 21
7.600000215074476
 31
0.0
  0
ARC
  5
288C
330
1A
100
AcDbEntity
  8
ZUWAKU
100
AcDbCircle
 10
18.937934048702
 20
3.837500215074467
 30
0.0
 40
0.2625
100
AcDbArc
 50
270.0
 51
17.52556837372303
  0
LINE
  5
288D
330
1A
100
AcDbEntity
  8
ZUWAKU
100
AcDbLine
 10
18.0884893588975
 20
3.575000215074467
 30
0.0
 11
18.937934048702
 21
3.575000215074467
 31
0.0
  0
ARC
  5
288E
330
1A
100
AcDbEntity
  8
ZUWAKU
100
AcDbCircle
 10
20.60860644064183
 20
3.837500215074467
 30
0.0
 40
0.2625
100
AcDbArc
 50
180.0
 51
270.0
  0
ARC
  5
288F
330
1A
100
AcDbEntity
  8
ZUWAKU
100
AcDbCircle
 10
25.07110644064187
 20
4.975000215074466
 30
0.0
 40
1.399999999999999
100
AcDbArc
 50
270.0
 51
0.0
  0
ARC
  5
2890
330
1A
100
AcDbEntity
  8
ZUWAKU
100
AcDbCircle
 10
28.92110644064183
 20
4.975000215074466
 30
0.0
 40
1.399999999999999
100
AcDbArc
 50
180.0
 51
270.0
  0
LINE
  5
2891
330
1A
100
AcDbEntity
  8
ZUWAKU
100
AcDbLine
 10
25.85603068113363
 20
7.367525468243879
 30
0.0
 11
24.40113169381123
 21
8.822424455566217
 31
0.0
  0
LINE
  5
2892
330
1A
100
AcDbEntity
  8
ZUWAKU
100
AcDbLine
 10
23.4111822001501
 20
7.832474961905056
 30
0.0
 11
24.86608118747244
 21
6.377575974582725
 31
0.0
  0
LINE
  5
2893
330
1A
100
AcDbEntity
  8
ZUWAKU
100
AcDbLine
 10
23.32110644064186
 20
3.575000215074467
 30
0.0
 11
25.07110644064187
 21
3.575000215074467
 31
0.0
  0
LINE
  5
2894
330
1A
100
AcDbEntity
  8
ZUWAKU
100
AcDbLine
 10
23.32110644064186
 20
4.975000215074466
 30
0.0
 11
24.80860644064182
 21
4.975000215074466
 31
0.0
  0
ARC
  5
2895
330
1A
100
AcDbEntity
  8
ZUWAKU
100
AcDbCircle
 10
23.32110644064186
 20
4.712500215074467
 30
0.0
 40
0.2625
100
AcDbArc
 50
90.0
 51
180.0
  0
ARC
  5
2896
330
1A
100
AcDbEntity
  8
ZUWAKU
100
AcDbCircle
 10
21.48360644064183
 20
3.837500215074467
 30
0.0
 40
0.2625
100
AcDbArc
 50
270.0
 51
0.0
  0
ARC
  5
2897
330
1A
100
AcDbEntity
  8
ZUWAKU
100
AcDbCircle
 10
23.32110644064186
 20
3.837500215074467
 30
0.0
 40
0.2625
100
AcDbArc
 50
180.0
 51
270.0
  0
LINE
  5
2898
330
1A
100
AcDbEntity
  8
ZUWAKU
100
AcDbLine
 10
23.05860644064182
 20
3.837500215074467
 30
0.0
 11
23.05860644064182
 21
4.712500215074467
 31
0.0
  0
ARC
  5
2899
330
1A
100
AcDbEntity
  8
ZUWAKU
100
AcDbCircle
 10
24.80860644064182
 20
5.237500215074469
 30
0.0
 40
0.2625
100
AcDbArc
 50
270.0
 51
0.0
  0
ARC
  5
289A
330
1A
100
AcDbEntity
  8
ZUWAKU
100
AcDbCircle
 10
24.37110644064182
 20
5.88260122775214
 30
0.0
 40
0.7
100
AcDbArc
 50
0.0
 51
45.0
  0
LINE
  5
289B
330
1A
100
AcDbEntity
  8
ZUWAKU
100
AcDbLine
 10
25.07110644064187
 20
5.237500215074469
 30
0.0
 11
25.07110644064187
 21
5.88260122775214
 31
0.0
  0
ARC
  5
289C
330
1A
100
AcDbEntity
  8
ZUWAKU
100
AcDbCircle
 10
29.44610644064187
 20
5.500000215074464
 30
0.0
 40
0.525
100
AcDbArc
 50
180.0
 51
270.0
  0
ARC
  5
289D
330
1A
100
AcDbEntity
  8
ZUWAKU
100
AcDbCircle
 10
24.37110644064182
 20
5.882601227752118
 30
0.0
 40
2.099999999999999
100
AcDbArc
 50
0.0
 51
45.0
  0
LINE
  5
289E
330
1A
100
AcDbEntity
  8
ZUWAKU
100
AcDbLine
 10
26.47110644064184
 20
4.975000215074466
 30
0.0
 11
26.47110644064184
 21
5.88260122775214
 31
0.0
  0
ARC
  5
289F
330
1A
100
AcDbEntity
  8
ZUWAKU
100
AcDbCircle
 10
30.67110644064183
 20
4.975000215074466
 30
0.0
 40
1.399999999999999
100
AcDbArc
 50
270.0
 51
0.0
  0
LINE
  5
28A0
330
1A
100
AcDbEntity
  8
ZUWAKU
100
AcDbLine
 10
33.38360644064187
 20
3.575000215074467
 30
0.0
 11
34.25860644064186
 21
3.575000215074467
 31
0.0
  0
ARC
  5
28A1
330
1A
100
AcDbEntity
  8
ZUWAKU
100
AcDbCircle
 10
30.14610644064186
 20
5.500000215074464
 30
0.0
 40
0.525
100
AcDbArc
 50
270.0
 51
0.0
  0
ARC
  5
28A2
330
1A
100
AcDbEntity
  8
ZUWAKU
100
AcDbCircle
 10
33.38360644064187
 20
3.837500215074467
 30
0.0
 40
0.2625
100
AcDbArc
 50
180.0
 51
270.0
  0
ARC
  5
28A3
330
1A
100
AcDbEntity
  8
ZUWAKU
100
AcDbCircle
 10
34.25860644064186
 20
3.837500215074467
 30
0.0
 40
0.2625
100
AcDbArc
 50
270.0
 51
0.0
  0
LINE
  5
28A4
330
1A
100
AcDbEntity
  8
ZUWAKU
100
AcDbLine
 10
21.48360644064183
 20
11.62500021507446
 30
0.0
 11
20.60860644064183
 21
11.62500021507446
 31
0.0
  0
LINE
  5
28A5
330
1A
100
AcDbEntity
  8
ZUWAKU
100
AcDbLine
 10
13.69610644064187
 20
11.36250021507446
 30
0.0
 11
13.69610644064187
 21
10.48750021507446
 31
0.0
  0
ARC
  5
28A6
330
1A
100
AcDbEntity
  8
ZUWAKU
100
AcDbCircle
 10
13.43360644064182
 20
10.48750021507446
 30
0.0
 40
0.2625
100
AcDbArc
 50
270.0
 51
0.0
  0
ARC
  5
28A7
330
1A
100
AcDbEntity
  8
ZUWAKU
100
AcDbCircle
 10
15.18360644064182
 20
11.36250021507446
 30
0.0
 40
0.2625
100
AcDbArc
 50
90.0
 51
180.0
  0
ARC
  5
28A8
330
1A
100
AcDbEntity
  8
ZUWAKU
100
AcDbCircle
 10
13.43360644064182
 20
11.36250021507446
 30
0.0
 40
0.2625
100
AcDbArc
 50
0.0
 51
90.0
  0
LINE
  5
28A9
330
1A
100
AcDbEntity
  8
ZUWAKU
100
AcDbLine
 10
16.05860644064182
 20
11.62500021507446
 30
0.0
 11
15.18360644064182
 21
11.62500021507446
 31
0.0
  0
ARC
  5
28AA
330
1A
100
AcDbEntity
  8
ZUWAKU
100
AcDbCircle
 10
16.05860644064182
 20
11.36250021507446
 30
0.0
 40
0.2625
100
AcDbArc
 50
0.0
 51
90.0
  0
ARC
  5
28AB
330
1A
100
AcDbEntity
  8
ZUWAKU
100
AcDbCircle
 10
18.0884893588975
 20
11.36250021507446
 30
0.0
 40
0.2625
100
AcDbArc
 50
90.0
 51
162.4744316262769
  0
LINE
  5
28AC
330
1A
100
AcDbEntity
  8
ZUWAKU
100
AcDbLine
 10
19.18824949829974
 20
11.28345323099098
 30
0.0
 11
18.65742968173083
 21
9.60252381185618
 31
0.0
  0
ARC
  5
28AD
330
1A
100
AcDbEntity
  8
ZUWAKU
100
AcDbCircle
 10
18.937934048702
 20
11.36250021507446
 30
0.0
 40
0.2625
100
AcDbArc
 50
342.4744316262769
 51
90.0
  0
LINE
  5
28AE
330
1A
100
AcDbEntity
  8
ZUWAKU
100
AcDbLine
 10
18.0884893588975
 20
11.62500021507446
 30
0.0
 11
18.937934048702
 21
11.62500021507446
 31
0.0
  0
ARC
  5
28AF
330
1A
100
AcDbEntity
  8
ZUWAKU
100
AcDbCircle
 10
20.60860644064183
 20
11.36250021507446
 30
0.0
 40
0.2625
100
AcDbArc
 50
90.0
 51
180.0
  0
LINE
  5
28B0
330
1A
100
AcDbEntity
  8
ZUWAKU
100
AcDbLine
 10
25.94610644064187
 20
10.22500021507446
 30
0.0
 11
24.45860644064186
 21
10.22500021507446
 31
0.0
  0
LINE
  5
28B1
330
1A
100
AcDbEntity
  8
ZUWAKU
100
AcDbLine
 10
24.19610644064187
 20
11.62500021507446
 30
0.0
 11
25.94610644064187
 21
11.62500021507446
 31
0.0
  0
ARC
  5
28B2
330
1A
100
AcDbEntity
  8
ZUWAKU
100
AcDbCircle
 10
24.19610644064187
 20
10.22500021507446
 30
0.0
 40
1.399999999999999
100
AcDbArc
 50
90.0
 51
180.0
  0
LINE
  5
28B3
330
1A
100
AcDbEntity
  8
ZUWAKU
100
AcDbLine
 10
22.79610644064183
 20
10.22500021507446
 30
0.0
 11
22.79610644064183
 21
9.317399202396796
 31
0.0
  0
ARC
  5
28B4
330
1A
100
AcDbEntity
  8
ZUWAKU
100
AcDbCircle
 10
21.48360644064183
 20
11.36250021507446
 30
0.0
 40
0.2625
100
AcDbArc
 50
0.0
 51
90.0
  0
LINE
  5
28B5
330
1A
100
AcDbEntity
  8
ZUWAKU
100
AcDbLine
 10
24.19610644064187
 20
9.962500215074467
 30
0.0
 11
24.19610644064187
 21
9.317399202396796
 31
0.0
  0
ARC
  5
28B6
330
1A
100
AcDbEntity
  8
ZUWAKU
100
AcDbCircle
 10
24.45860644064186
 20
9.962500215074467
 30
0.0
 40
0.2625
100
AcDbArc
 50
90.0
 51
180.0
  0
LINE
  5
28B7
330
1A
100
AcDbEntity
  8
ZUWAKU
100
AcDbLine
 10
26.20860644064185
 20
11.36250021507446
 30
0.0
 11
26.20860644064185
 21
10.48750021507446
 31
0.0
  0
ARC
  5
28B8
330
1A
100
AcDbEntity
  8
ZUWAKU
100
AcDbCircle
 10
25.94610644064187
 20
10.48750021507446
 30
0.0
 40
0.2625
100
AcDbArc
 50
270.0
 51
0.0
  0
ARC
  5
28B9
330
1A
100
AcDbEntity
  8
ZUWAKU
100
AcDbCircle
 10
25.94610644064187
 20
11.36250021507446
 30
0.0
 40
0.2625
100
AcDbArc
 50
0.0
 51
90.0
  0
LINE
  5
28BA
330
1A
100
AcDbEntity
  8
ZUWAKU
100
AcDbLine
 10
28.65860644064184
 20
11.62500021507446
 30
0.0
 11
27.78360644064184
 21
11.62500021507446
 31
0.0
  0
ARC
  5
28BB
330
1A
100
AcDbEntity
  8
ZUWAKU
100
AcDbCircle
 10
27.78360644064184
 20
11.36250021507446
 30
0.0
 40
0.2625
100
AcDbArc
 50
90.0
 51
180.0
  0
ARC
  5
28BC
330
1A
100
AcDbEntity
  8
ZUWAKU
100
AcDbCircle
 10
28.65860644064184
 20
11.36250021507446
 30
0.0
 40
0.2625
100
AcDbArc
 50
0.0
 51
90.0
  0
LINE
  5
28BD
330
1A
100
AcDbEntity
  8
ZUWAKU
100
AcDbLine
 10
34.25860644064186
 20
11.62500021507446
 30
0.0
 11
33.38360644064187
 21
11.62500021507446
 31
0.0
  0
ARC
  5
28BE
330
1A
100
AcDbEntity
  8
ZUWAKU
100
AcDbCircle
 10
30.93360644064182
 20
11.36250021507446
 30
0.0
 40
0.2625
100
AcDbArc
 50
90.0
 51
180.0
  0
LINE
  5
28BF
330
1A
100
AcDbEntity
  8
ZUWAKU
100
AcDbLine
 10
31.80860644064182
 20
11.62500021507446
 30
0.0
 11
30.93360644064182
 21
11.62500021507446
 31
0.0
  0
ARC
  5
28C0
330
1A
100
AcDbEntity
  8
ZUWAKU
100
AcDbCircle
 10
31.80860644064182
 20
11.36250021507446
 30
0.0
 40
0.2625
100
AcDbArc
 50
0.0
 51
90.0
  0
ARC
  5
28C1
330
1A
100
AcDbEntity
  8
ZUWAKU
100
AcDbCircle
 10
33.38360644064187
 20
11.36250021507446
 30
0.0
 40
0.2625
100
AcDbArc
 50
90.0
 51
180.0
  0
ARC
  5
28C2
330
1A
100
AcDbEntity
  8
ZUWAKU
100
AcDbCircle
 10
34.25860644064186
 20
11.36250021507446
 30
0.0
 40
0.2625
100
AcDbArc
 50
0.0
 51
90.0
  0
TEXT
  5
28C3
330
1A
100
AcDbEntity
  8
MOJI
100
AcDbText
 10
119.9136017036768
 20
1.602460743778175
 30
0.0
 40
2.799999999999999
  1
ＲＶ１０５－０－１０
 41
0.9
  7
ｽﾀｲﾙ1
100
AcDbText
  0
LINE
  5
28C4
330
1A
100
AcDbEntity
  8
ZUWAKU
100
AcDbLine
 10
104.2233010082851
 20
15.00000021507446
 30
0.0
 11
104.2233010082852
 21
0.400000215074499
 31
0.0
  0
LINE
  5
28C5
330
1A
100
AcDbEntity
  8
ZUWAKU
100
AcDbLine
 10
104.3233010082851
 20
15.00000021507446
 30
0.0
 11
104.3233010082852
 21
0.400000215074499
 31
0.0
  0
LINE
  5
28C6
330
1A
100
AcDbEntity
  8
ZUWAKU
100
AcDbLine
 10
104.1233010082852
 20
15.00000021507446
 30
0.0
 11
104.1233010082852
 21
0.400000215074499
 31
0.0
  0
TEXT
  5
28C7
330
1A
100
AcDbEntity
  8
MOJI
100
AcDbText
 10
119.9136017036768
 20
9.002460743778158
 30
0.0
 40
2.799999999999999
  1
亜鉛メッキ金具正面打（吊）ストロング高強度金具（釣針型）
 41
0.9
  7
ｽﾀｲﾙ1
100
AcDbText
  0
TEXT
  5
28C8
330
1A
100
AcDbEntity
  8
ZUWAKU
100
AcDbText
 10
104.86202351939
 20
4.827678484267273
 30
0.0
 40
2.0
  1
サイズ
 41
0.9
  7
ｽﾀｲﾙ1
100
AcDbText
  0
TEXT
  5
28C9
330
1A
100
AcDbEntity
  8
ZUWAKU
100
AcDbText
 10
104.8620235193899
 20
12.02767848426725
 30
0.0
 40
2.0
  1
品名
 41
0.9
  7
ｽﾀｲﾙ1
100
AcDbText
  0
TEXT
  5
28CA
330
1A
100
AcDbEntity
  8
ZUWAKU
100
AcDbText
 10
329.1019692069024
 20
9.002460743778158
 30
0.0
 40
2.799999999999999
  1
　　．　　．　　
 41
0.9
  7
ｽﾀｲﾙ1
100
AcDbText
  0
LINE
  5
28CB
330
1A
100
AcDbEntity
  8
ZUWAKU
100
AcDbLine
 10
324.4086016183533
 20
7.800000215074481
 30
0.0
 11
348.6245056375218
 21
7.800000215074481
 31
0.0
  0
LINE
  5
28CC
330
1A
100
AcDbEntity
  8
ZUWAKU
100
AcDbLine
 10
324.4086016183534
 20
7.700000215074483
 30
0.0
 11
348.6245056375218
 21
7.700000215074481
 31
0.0
  0
LINE
  5
28CD
330
1A
100
AcDbEntity
  8
ZUWAKU
100
AcDbLine
 10
324.4086016183533
 20
7.60000021507448
 30
0.0
 11
348.6245056375218
 21
7.600000215074482
 31
0.0
  0
LINE
  5
28CE
330
1A
100
AcDbEntity
  8
ZUWAKU
100
AcDbLine
 10
252.5995901123217
 20
7.800000215074481
 30
0.0
 11
276.2634782463075
 21
7.800000215074481
 31
0.0
  0
LINE
  5
28CF
330
1A
100
AcDbEntity
  8
ZUWAKU
100
AcDbLine
 10
252.5995901123217
 20
7.700000215074481
 30
0.0
 11
276.2634782463075
 21
7.700000215074481
 31
0.0
  0
LINE
  5
28D0
330
1A
100
AcDbEntity
  8
ZUWAKU
100
AcDbLine
 10
252.5995901123217
 20
7.600000215074484
 30
0.0
 11
276.2634782463075
 21
7.600000215074484
 31
0.0
  0
LINE
  5
28D1
330
1A
100
AcDbEntity
  8
ZUWAKU
100
AcDbLine
 10
252.3995901123218
 20
15.00000021507446
 30
0.0
 11
252.3995901123218
 21
0.400000215074499
 31
0.0
  0
LINE
  5
28D2
330
1A
100
AcDbEntity
  8
ZUWAKU
100
AcDbLine
 10
252.5995901123217
 20
15.00000021507446
 30
0.0
 11
252.5995901123218
 21
0.400000215074499
 31
0.0
  0
LINE
  5
28D3
330
1A
100
AcDbEntity
  8
ZUWAKU
100
AcDbLine
 10
252.4995901123217
 20
15.00000021507446
 30
0.0
 11
252.4995901123218
 21
0.400000215074499
 31
0.0
  0
TEXT
  5
28D4
330
1A
100
AcDbEntity
  8
MOJI
100
AcDbText
 10
264.0204543494077
 20
9.002460743778158
 30
0.0
 40
2.799999999999999
  1
Ａ３
 41
0.9
  7
ｽﾀｲﾙ1
100
AcDbText
  0
LINE
  5
28D5
330
1A
100
AcDbEntity
  8
ZUWAKU
100
AcDbLine
 10
223.7121823487469
 20
15.00000021507446
 30
0.0
 11
223.7121823487469
 21
0.400000215074499
 31
0.0
  0
LINE
  5
28D6
330
1A
100
AcDbEntity
  8
ZUWAKU
100
AcDbLine
 10
223.9121823487469
 20
15.00000021507446
 30
0.0
 11
223.912182348747
 21
0.400000215074499
 31
0.0
  0
LINE
  5
28D7
330
1A
100
AcDbEntity
  8
ZUWAKU
100
AcDbLine
 10
223.8121823487468
 20
15.00000021507446
 30
0.0
 11
223.812182348747
 21
0.400000215074499
 31
0.0
  0
TEXT
  5
28D8
330
1A
100
AcDbEntity
  8
MOJI
100
AcDbText
 10
231.2836395242455
 20
5.971309075904457
 30
0.0
 40
2.799999999999999
  1
ＬＪ７０□
 41
0.9
  7
ｽﾀｲﾙ1
100
AcDbText
  0
TEXT
  5
28D9
330
1A
100
AcDbEntity
  8
ZUWAKU
100
AcDbText
 10
231.3468811910048
 20
1.307035670644211
 30
0.0
 40
1.5
  1
□には色品番が入ります
 41
0.9
  7
ｽﾀｲﾙ1
100
AcDbText
  0
TEXT
  5
28DA
330
1A
100
AcDbEntity
  8
ZUWAKU
100
AcDbText
 10
253.3383126234266
 20
4.827678484267273
 30
0.0
 40
2.0
  1
縮尺
 41
0.9
  7
ｽﾀｲﾙ1
100
AcDbText
  0
TEXT
  5
28DB
330
1A
100
AcDbEntity
  8
MOJI
100
AcDbText
 10
264.0204543494077
 20
1.602460743778175
 30
0.0
 40
2.799999999999999
  1
１/１
 41
0.9
  7
ｽﾀｲﾙ1
100
AcDbText
  0
TEXT
  5
28DC
330
1A
100
AcDbEntity
  8
ZUWAKU
100
AcDbText
 10
224.6509048598517
 20
12.02767848426725
 30
0.0
 40
2.0
  1
品番
 41
0.9
  7
ｽﾀｲﾙ1
100
AcDbText
  0
TEXT
  5
28DD
330
1A
100
AcDbEntity
  8
ZUWAKU
100
AcDbText
 10
253.3383126234265
 20
12.02767848426725
 30
0.0
 40
2.0
  1
用紙
 41
0.9
  7
ｽﾀｲﾙ1
100
AcDbText
  0
LINE
  5
28DE
330
1A
100
AcDbEntity
  8
ZUWAKU
100
AcDbLine
 10
276.2634782463075
 20
15.00000021507446
 30
0.0
 11
276.2634782463075
 21
0.400000215074499
 31
0.0
  0
LINE
  5
28DF
330
1A
100
AcDbEntity
  8
ZUWAKU
100
AcDbLine
 10
276.4634782463074
 20
15.00000021507446
 30
0.0
 11
276.4634782463075
 21
0.400000215074499
 31
0.0
  0
LINE
  5
28E0
330
1A
100
AcDbEntity
  8
ZUWAKU
100
AcDbLine
 10
276.3634782463074
 20
15.00000021507446
 30
0.0
 11
276.3634782463075
 21
0.400000215074499
 31
0.0
  0
LINE
  5
28E1
330
1A
100
AcDbEntity
  8
ZUWAKU
100
AcDbLine
 10
324.2086016183535
 20
15.00000021507446
 30
0.0
 11
324.2086016183535
 21
0.400000215074499
 31
0.0
  0
LINE
  5
28E2
330
1A
100
AcDbEntity
  8
ZUWAKU
100
AcDbLine
 10
324.4086016183534
 20
15.00000021507446
 30
0.0
 11
324.4086016183536
 21
0.400000215074499
 31
0.0
  0
LINE
  5
28E3
330
1A
100
AcDbEntity
  8
ZUWAKU
100
AcDbLine
 10
324.3086016183534
 20
15.00000021507446
 30
0.0
 11
324.3086016183535
 21
0.400000215074499
 31
0.0
  0
TEXT
  5
28E4
330
1A
100
AcDbEntity
  8
ZUWAKU
100
AcDbText
 10
325.1473241294583
 20
12.02767848426725
 30
0.0
 40
2.0
  1
DATE
 41
0.9
  7
ｽﾀｲﾙ1
100
AcDbText
  0
TEXT
  5
28E5
330
1A
100
AcDbEntity
  8
ZUWAKU
100
AcDbText
 10
354.2640424593731
 20
8.776919882917866
 30
0.0
 40
3.0
  1
積水化学工業株式会社
 41
0.9
  7
ｽﾀｲﾙ1
100
AcDbText
  0
LINE
  5
28E6
330
1A
100
AcDbEntity
  8
ZUWAKU
100
AcDbLine
 10
348.9245056375218
 20
15.00000021507446
 30
0.0
 11
348.9245056375219
 21
0.400000215074499
 31
0.0
  0
LINE
  5
28E7
330
1A
100
AcDbEntity
  8
ZUWAKU
100
AcDbLine
 10
348.8245056375218
 20
15.00000021507446
 30
0.0
 11
348.8245056375219
 21
0.400000215074499
 31
0.0
  0
LINE
  5
28E8
330
1A
100
AcDbEntity
  8
ZUWAKU
100
AcDbLine
 10
348.7245056375219
 20
15.00000021507446
 30
0.0
 11
348.7245056375219
 21
0.400000215074499
 31
0.0
  0
LINE
  5
28E9
330
1A
100
AcDbEntity
  8
ZUWAKU
100
AcDbLine
 10
348.6245056375218
 20
15.00000021507446
 30
0.0
 11
348.6245056375218
 21
0.400000215074499
 31
0.0
  0
TEXT
  5
28EA
330
1A
100
AcDbEntity
  8
ZUWAKU
100
AcDbText
 10
354.2640424593731
 20
3.324420372001497
 30
0.0
 40
3.0
  1
建材事業部
 41
0.9
  7
ｽﾀｲﾙ1
100
AcDbText
  0
VIEWPORT
  5
22
330
17
100
AcDbEntity
 67
     1
  8
0
100
AcDbViewport
 10
313.6808219178082
 20
148.5
 30
0.0
 40
627.3616438356165
 41
297.0
 68
     2
 69
     1
1001
ACAD
1000
MVIEW
1002
{
1070
    16
1010
0.0
1020
0.0
1030
0.0
1010
0.0
1020
0.0
1030
1.0
1040
0.0
1040
297.0
1040
313.6808219178082
1040
148.5
1040
50.0
1040
0.0
1040
0.0
1070
     0
1070
   100
1070
     1
1070
     0
1070
     0
1070
     0
1070
     0
1070
     0
1040
0.0
1040
0.0
1040
0.0
1040
1.0
1040
1.0
1040
10.0
1040
10.0
1070
     0
1002
{
1002
}
1002
}
  0
VIEWPORT
  5
64
330
17
100
AcDbEntity
 67
     1
  8
VIEWPORT
100
AcDbViewport
 10
210.0
 20
148.5
 30
0.0
 40
420.0
 41
297.0
 68
     1
 69
     2
1001
ACAD
1000
MVIEW
1002
{
1070
    16
1010
0.0
1020
0.0
1030
0.0
1010
0.0
1020
0.0
1030
1.0
1040
0.0
1040
302.9399999999998
1040
210.0
1040
148.5
1040
50.0
1040
0.0
1040
0.0
1070
     0
1070
   100
1070
     1
1070
     0
1070
     0
1070
     0
1070
     0
1070
     0
1040
0.0
1040
0.0
1040
0.0
1040
5.0
1040
5.0
1040
0.0
1040
0.0
1070
     0
1002
{
1002
}
1002
}
  0
ENDSEC
  0
SECTION
  2
OBJECTS
  0
DICTIONARY
  5
C
330
0
100
AcDbDictionary
  3
ACAD_GROUP
350
D
  3
ACAD_LAYOUT
350
141
  3
ACAD_MLINESTYLE
350
E
  3
ACAD_PLOTSETTINGS
350
142
  3
ACAD_PLOTSTYLENAME
350
13F
  3
ACADDIM
350
1A14
  3
ACDBVARIABLEDICTIONARY
350
120D
  3
ACDBHEADERROUNDTRIPXREC
350
28F3
  0
DICTIONARY
  5
7A2
330
1A
100
AcDbDictionary
280
     1
  3
ACAD_LAYOUTSELFREF
360
2915
  0
DICTIONARY
  5
7A0
330
17
100
AcDbDictionary
280
     1
  3
ACAD_LAYOUTSELFREF
360
2914
  0
DICTIONARY
  5
D
102
{ACAD_REACTORS
330
C
102
}
330
C
100
AcDbDictionary
  0
DICTIONARY
  5
141
102
{ACAD_REACTORS
330
C
102
}
330
C
100
AcDbDictionary
  0
DICTIONARY
  5
E
102
{ACAD_REACTORS
330
C
102
}
330
C
100
AcDbDictionary
  3
STANDARD
350
13
  0
DICTIONARY
  5
142
102
{ACAD_REACTORS
330
C
102
}
330
C
100
AcDbDictionary
  0
ACDBDICTIONARYWDFLT
  5
13F
102
{ACAD_REACTORS
330
C
102
}
330
C
100
AcDbDictionary
281
     1
  3
Normal
350
140
100
AcDbDictionaryWithDefault
340
140
1001
ACAD
1000
TREAT_AS_HARD
1070
     0
1000
TREAT_AS_HARD
1070
     0
1000
TREAT_AS_HARD
1070
     0
1000
TREAT_AS_HARD
1070
     0
1000
TREAT_AS_HARD
1070
     0
1000
TREAT_AS_HARD
1070
     0
1000
TREAT_AS_HARD
1070
     0
1000
TREAT_AS_HARD
1070
     0
1000
TREAT_AS_HARD
1070
     0
1000
TREAT_AS_HARD
1070
     0
1000
TREAT_AS_HARD
1070
     0
1000
TREAT_AS_HARD
1070
     0
1000
TREAT_AS_HARD
1070
     0
  0
XRECORD
  5
1A14
102
{ACAD_REACTORS
330
C
102
}
330
C
100
AcDbXrecord
 90
   990106
  3

 60
     0
 61
     0
 62
     1
 63
     3
 64
     0
 65
     0
 66
     0
 67
     3
 68
     1
 69
     0
 70
     0
 71
     0
 72
     0
 40
0.0
170
     0
340
2082
  0
DICTIONARY
  5
120D
102
{ACAD_REACTORS
330
C
102
}
330
C
100
AcDbDictionary
  3
SORTENTS
350
120E
  0
DICTIONARY
  5
28F3
102
{ACAD_REACTORS
330
C
102
}
330
C
100
AcDbDictionary
  3
TSTACKALIGN
350
28F4
  3
TSTACKSIZE
350
28F5
  3
HYPERLINKBASE
350
28F6
  3
STYLESHEET
350
28F7
  3
LAYOUTDICT
350
28F8
  3
PLOTSETDICT
350
28F9
  3
PLOTSTYLNAMDICT
350
28FA
  3
LWETCUNION
350
28FB
  3
INSUNITS
350
28FC
  3
CEPSNTYPE
350
28FD
  3
FINGERPRINTGUID
350
28FE
  3
VERSIONGUID
350
28FF
  3
PSVPSCALE
350
2900
  3
DIMSTYLEDATA
350
2901
  3
PUCSORTHOREF
350
2902
  3
PUCSORTHOVIEW
350
2903
  3
PUCSBASE
350
2904
  3
PUCSORGTOP
350
2905
  3
PUCSORGBOTTOM
350
2906
  3
PUCSORGLEFT
350
2907
  3
PUCSORGRIGHT
350
2908
  3
PUCSORGFRONT
350
2909
  3
PUCSORGBACK
350
290A
  3
UCSORTHOREF
350
290B
  3
UCSORTHOVIEW
350
290C
  3
UCSBASE
350
290D
  3
UCSORGTOP
350
290E
  3
UCSORGBOTTOM
350
290F
  3
UCSORGLEFT
350
2910
  3
UCSORGRIGHT
350
2911
  3
UCSORGFRONT
350
2912
  3
UCSORGBACK
350
2913
  0
XRECORD
  5
2915
102
{ACAD_REACTORS
330
7A2
102
}
330
7A2
100
AcDbXrecord
340
1A
  0
XRECORD
  5
2914
102
{ACAD_REACTORS
330
7A0
102
}
330
7A0
100
AcDbXrecord
340
17
  0
MLINESTYLE
  5
13
102
{ACAD_REACTORS
330
E
102
}
330
E
100
AcDbMlineStyle
  2
STANDARD
 70
     0
  3

 62
     0
 51
90.0
 52
90.0
 71
     2
 49
0.5
 62
   256
  6
BYLAYER
 49
-0.5
 62
   256
  6
BYLAYER
  0
ACDBPLACEHOLDER
  5
140
102
{ACAD_REACTORS
330
13F
102
}
330
13F
100
AcDbPlaceHolder
280
     0
  0
DICTIONARYVAR
  5
120E
102
{ACAD_REACTORS
330
120D
102
}
330
120D
100
DictionaryVariables
280
     0
  1
96
  0
XRECORD
  5
28F4
102
{ACAD_REACTORS
330
28F3
102
}
330
28F3
100
AcDbXrecord
 90
        1
  0
XRECORD
  5
28F5
102
{ACAD_REACTORS
330
28F3
102
}
330
28F3
100
AcDbXrecord
 90
       70
  0
XRECORD
  5
28F6
102
{ACAD_REACTORS
330
28F3
102
}
330
28F3
100
AcDbXrecord
  1

  0
XRECORD
  5
28F7
102
{ACAD_REACTORS
330
28F3
102
}
330
28F3
100
AcDbXrecord
  1
systemprinter.ctb
  0
XRECORD
  5
28F8
102
{ACAD_REACTORS
330
28F3
102
}
330
28F3
100
AcDbXrecord
340
141
  0
XRECORD
  5
28F9
102
{ACAD_REACTORS
330
28F3
102
}
330
28F3
100
AcDbXrecord
340
142
  0
XRECORD
  5
28FA
102
{ACAD_REACTORS
330
28F3
102
}
330
28F3
100
AcDbXrecord
340
13F
  0
XRECORD
  5
28FB
102
{ACAD_REACTORS
330
28F3
102
}
330
28F3
100
AcDbXrecord
 90
    10781
  0
XRECORD
  5
28FC
102
{ACAD_REACTORS
330
28F3
102
}
330
28F3
100
AcDbXrecord
 90
        0
  0
XRECORD
  5
28FD
102
{ACAD_REACTORS
330
28F3
102
}
330
28F3
100
AcDbXrecord
 90
        0
  0
XRECORD
  5
28FE
102
{ACAD_REACTORS
330
28F3
102
}
330
28F3
100
AcDbXrecord
  1
{4E8D0500-CDD1-11D3-932C-444553540000}
  0
XRECORD
  5
28FF
102
{ACAD_REACTORS
330
28F3
102
}
330
28F3
100
AcDbXrecord
  1
{F0DA6F52-CE9F-4D7F-A412-64B1FEB30D6C}
  0
XRECORD
  5
2900
102
{ACAD_REACTORS
330
28F3
102
}
330
28F3
100
AcDbXrecord
 40
0.0
  0
XRECORD
  5
2901
102
{ACAD_REACTORS
330
28F3
102
}
330
28F3
100
AcDbXrecord
1000
DSTYLE
1002
{
1070
   341
340
B2
1070
   343
340
B2
1070
   344
340
B2
1070
   371
 70
    -1
1070
   372
 70
    -1
1002
}
  0
XRECORD
  5
2902
102
{ACAD_REACTORS
330
28F3
102
}
330
28F3
100
AcDbXrecord
340
0
  0
XRECORD
  5
2903
102
{ACAD_REACTORS
330
28F3
102
}
330
28F3
100
AcDbXrecord
 70
     0
  0
XRECORD
  5
2904
102
{ACAD_REACTORS
330
28F3
102
}
330
28F3
100
AcDbXrecord
340
0
  0
XRECORD
  5
2905
102
{ACAD_REACTORS
330
28F3
102
}
330
28F3
100
AcDbXrecord
 10
0.0
 20
0.0
 30
0.0
  0
XRECORD
  5
2906
102
{ACAD_REACTORS
330
28F3
102
}
330
28F3
100
AcDbXrecord
 10
0.0
 20
0.0
 30
0.0
  0
XRECORD
  5
2907
102
{ACAD_REACTORS
330
28F3
102
}
330
28F3
100
AcDbXrecord
 10
0.0
 20
0.0
 30
0.0
  0
XRECORD
  5
2908
102
{ACAD_REACTORS
330
28F3
102
}
330
28F3
100
AcDbXrecord
 10
0.0
 20
0.0
 30
0.0
  0
XRECORD
  5
2909
102
{ACAD_REACTORS
330
28F3
102
}
330
28F3
100
AcDbXrecord
 10
0.0
 20
0.0
 30
0.0
  0
XRECORD
  5
290A
102
{ACAD_REACTORS
330
28F3
102
}
330
28F3
100
AcDbXrecord
 10
0.0
 20
0.0
 30
0.0
  0
XRECORD
  5
290B
102
{ACAD_REACTORS
330
28F3
102
}
330
28F3
100
AcDbXrecord
340
0
  0
XRECORD
  5
290C
102
{ACAD_REACTORS
330
28F3
102
}
330
28F3
100
AcDbXrecord
 70
     0
  0
XRECORD
  5
290D
102
{ACAD_REACTORS
330
28F3
102
}
330
28F3
100
AcDbXrecord
340
0
  0
XRECORD
  5
290E
102
{ACAD_REACTORS
330
28F3
102
}
330
28F3
100
AcDbXrecord
 10
0.0
 20
0.0
 30
0.0
  0
XRECORD
  5
290F
102
{ACAD_REACTORS
330
28F3
102
}
330
28F3
100
AcDbXrecord
 10
0.0
 20
0.0
 30
0.0
  0
XRECORD
  5
2910
102
{ACAD_REACTORS
330
28F3
102
}
330
28F3
100
AcDbXrecord
 10
0.0
 20
0.0
 30
0.0
  0
XRECORD
  5
2911
102
{ACAD_REACTORS
330
28F3
102
}
330
28F3
100
AcDbXrecord
 10
0.0
 20
0.0
 30
0.0
  0
XRECORD
  5
2912
102
{ACAD_REACTORS
330
28F3
102
}
330
28F3
100
AcDbXrecord
 10
0.0
 20
0.0
 30
0.0
  0
XRECORD
  5
2913
102
{ACAD_REACTORS
330
28F3
102
}
330
28F3
100
AcDbXrecord
 10
0.0
 20
0.0
 30
0.0
  0
ENDSEC
  0
EOF
