  0
SECTION
  2
HEADER
  9
$ACADVER
  1
AC1014
  9
$ACADMAINTVER
 70
     9
  9
$DWGCODEPAGE
  3
ANSI_932
  9
$INSBASE
 10
0.0
 20
0.0
 30
0.0
  9
$EXTMIN
 10
-0.0128167242222617
 20
-0.0090632695025761
 30
-0.0015258207003583
  9
$EXTMAX
 10
398.8000497652178
 20
275.822617226868
 30
0.0000000349246037
  9
$LIMMIN
 10
0.0
 20
0.0
  9
$LIMMAX
 10
420.0
 20
297.0
  9
$ORTHOMODE
 70
     0
  9
$REGENMODE
 70
     1
  9
$FILLMODE
 70
     1
  9
$QTEXTMODE
 70
     0
  9
$MIRRTEXT
 70
     1
  9
$DRAGMODE
 70
     2
  9
$LTSCALE
 40
5.0
  9
$OSMODE
 70
    35
  9
$ATTMODE
 70
     1
  9
$TEXTSIZE
 40
3.0
  9
$TRACEWID
 40
1.0
  9
$TEXTSTYLE
  7
STANDARD
  9
$CLAYER
  8
SEIHIN
  9
$CELTYPE
  6
BYLAYER
  9
$CECOLOR
 62
   256
  9
$CELTSCALE
 40
1.0
  9
$DELOBJ
 70
     1
  9
$DISPSILH
 70
     0
  9
$DIMSCALE
 40
1.0
  9
$DIMASZ
 40
3.0
  9
$DIMEXO
 40
3.0
  9
$DIMDLI
 40
7.0
  9
$DIMRND
 40
0.0
  9
$DIMDLE
 40
0.0
  9
$DIMEXE
 40
1.5
  9
$DIMTP
 40
0.0
  9
$DIMTM
 40
0.0
  9
$DIMTXT
 40
3.0
  9
$DIMCEN
 40
3.0
  9
$DIMTSZ
 40
0.0
  9
$DIMTOL
 70
     0
  9
$DIMLIM
 70
     0
  9
$DIMTIH
 70
     0
  9
$DIMTOH
 70
     0
  9
$DIMSE1
 70
     0
  9
$DIMSE2
 70
     0
  9
$DIMTAD
 70
     3
  9
$DIMZIN
 70
     0
  9
$DIMBLK
  1

  9
$DIMASO
 70
     1
  9
$DIMSHO
 70
     1
  9
$DIMPOST
  1

  9
$DIMAPOST
  1

  9
$DIMALT
 70
     0
  9
$DIMALTD
 70
     2
  9
$DIMALTF
 40
25.4
  9
$DIMLFAC
 40
1.0
  9
$DIMTOFL
 70
     1
  9
$DIMTVP
 40
0.0
  9
$DIMTIX
 70
     0
  9
$DIMSOXD
 70
     0
  9
$DIMSAH
 70
     1
  9
$DIMBLK1
  1
OPEN
  9
$DIMBLK2
  1
OPEN
  9
$DIMSTYLE
  2
STANDARD
  9
$DIMCLRD
 70
   256
  9
$DIMCLRE
 70
   256
  9
$DIMCLRT
 70
   256
  9
$DIMTFAC
 40
1.0
  9
$DIMGAP
 40
1.0
  9
$DIMJUST
 70
     0
  9
$DIMSD1
 70
     0
  9
$DIMSD2
 70
     0
  9
$DIMTOLJ
 70
     1
  9
$DIMTZIN
 70
     0
  9
$DIMALTZ
 70
     0
  9
$DIMALTTZ
 70
     0
  9
$DIMFIT
 70
     3
  9
$DIMUPT
 70
     0
  9
$DIMUNIT
 70
     2
  9
$DIMDEC
 70
     0
  9
$DIMTDEC
 70
     0
  9
$DIMALTU
 70
     2
  9
$DIMALTTD
 70
     2
  9
$DIMTXSTY
  7
STANDARD
  9
$DIMAUNIT
 70
     0
  9
$LUNITS
 70
     2
  9
$LUPREC
 70
     4
  9
$SKETCHINC
 40
1.0
  9
$FILLETRAD
 40
0.25
  9
$AUNITS
 70
     0
  9
$AUPREC
 70
     0
  9
$MENU
  1
.
  9
$ELEVATION
 40
0.0
  9
$PELEVATION
 40
0.0
  9
$THICKNESS
 40
0.0
  9
$LIMCHECK
 70
     0
  9
$BLIPMODE
 70
     0
  9
$CHAMFERA
 40
10.0
  9
$CHAMFERB
 40
10.0
  9
$CHAMFERC
 40
20.0
  9
$CHAMFERD
 40
0.0
  9
$SKPOLY
 70
     0
  9
$TDCREATE
 40
2451589.469382176
  9
$TDUPDATE
 40
2453802.571619282
  9
$TDINDWG
 40
0.4115606481
  9
$TDUSRTIMER
 40
0.4115606481
  9
$USRTIMER
 70
     1
  9
$ANGBASE
 50
0.0
  9
$ANGDIR
 70
     0
  9
$PDMODE
 70
     0
  9
$PDSIZE
 40
0.0
  9
$PLINEWID
 40
0.0
  9
$COORDS
 70
     1
  9
$SPLFRAME
 70
     0
  9
$SPLINETYPE
 70
     6
  9
$SPLINESEGS
 70
     8
  9
$ATTDIA
 70
     0
  9
$ATTREQ
 70
     1
  9
$HANDLING
 70
 10241
  9
$HANDSEED
  5
2AFC
  9
$SURFTAB1
 70
     6
  9
$SURFTAB2
 70
     6
  9
$SURFTYPE
 70
     6
  9
$SURFU
 70
     6
  9
$SURFV
 70
     6
  9
$UCSNAME
  2

  9
$UCSORG
 10
0.0
 20
0.0
 30
0.0
  9
$UCSXDIR
 10
1.0
 20
0.0
 30
0.0
  9
$UCSYDIR
 10
0.0
 20
1.0
 30
0.0
  9
$PUCSNAME
  2

  9
$PUCSORG
 10
0.0
 20
0.0
 30
0.0
  9
$PUCSXDIR
 10
1.0
 20
0.0
 30
0.0
  9
$PUCSYDIR
 10
0.0
 20
1.0
 30
0.0
  9
$USERI1
 70
     0
  9
$USERI2
 70
     0
  9
$USERI3
 70
     0
  9
$USERI4
 70
     0
  9
$USERI5
 70
     0
  9
$USERR1
 40
0.0
  9
$USERR2
 40
0.0
  9
$USERR3
 40
0.0
  9
$USERR4
 40
0.0
  9
$USERR5
 40
0.0
  9
$WORLDVIEW
 70
     1
  9
$SHADEDGE
 70
     3
  9
$SHADEDIF
 70
    70
  9
$TILEMODE
 70
     1
  9
$MAXACTVP
 70
    16
  9
$PINSBASE
 10
0.0
 20
0.0
 30
0.0
  9
$PLIMCHECK
 70
     0
  9
$PEXTMIN
 10
0.0
 20
0.0
 30
0.0
  9
$PEXTMAX
 10
420.0
 20
297.0
 30
0.0
  9
$PLIMMIN
 10
0.0
 20
0.0
  9
$PLIMMAX
 10
420.0
 20
297.0
  9
$UNITMODE
 70
     0
  9
$VISRETAIN
 70
     0
  9
$PLINEGEN
 70
     0
  9
$PSLTSCALE
 70
     1
  9
$TREEDEPTH
 70
  3020
  9
$PICKSTYLE
 70
     1
  9
$CMLSTYLE
  2
STANDARD
  9
$CMLJUST
 70
     0
  9
$CMLSCALE
 40
1.0
  9
$PROXYGRAPHICS
 70
     1
  9
$MEASUREMENT
 70
     0
  0
ENDSEC
  0
SECTION
  2
CLASSES
  0
CLASS
  1
ACDBDICTIONARYWDFLT
  2
AcDbDictionaryWithDefault
  3
AutoCAD 2000
 90
        0
280
     0
281
     0
  0
CLASS
  1
ACDBPLACEHOLDER
  2
AcDbPlaceHolder
  3
AutoCAD 2000
 90
        0
280
     0
281
     0
  0
CLASS
  1
LAYOUT
  2
AcDbLayout
  3
AutoCAD 2000
 90
        0
280
     0
281
     0
  0
CLASS
  1
LONG_TRANSACTION
  2
AcDbLongTransaction
  3
AutoCAD 2000
 90
        0
280
     0
281
     0
  0
CLASS
  1
LWPOLYLINE
  2
AcDbPolyline
  3
AutoCAD 2000
 90
        0
280
     0
281
     1
  0
CLASS
  1
HATCH
  2
AcDbHatch
  3
AutoCAD 2000
 90
        0
280
     0
281
     1
  0
CLASS
  1
XRECORD
  2
AcDbXrecord
  3
AutoCAD 2000
 90
        0
280
     0
281
     0
  0
CLASS
  1
LONG_TRANSACTION
  2
AcDbLongTransaction
  3
AutoCAD 2000
 90
        0
280
     0
281
     0
  0
CLASS
  1
LWPOLYLINE
  2
AcDbPolyline
  3
AutoCAD 2000
 90
        0
280
     0
281
     1
  0
CLASS
  1
HATCH
  2
AcDbHatch
  3
AutoCAD 2000
 90
        0
280
     0
281
     1
  0
CLASS
  1
XRECORD
  2
AcDbXrecord
  3
AutoCAD 2000
 90
        0
280
     0
281
     0
  0
CLASS
  1
DICTIONARYVAR
  2
AcDbDictionaryVar
  3
AutoCAD 2000
 90
        0
280
     0
281
     0
  0
CLASS
  1
LONG_TRANSACTION
  2
AcDbLongTransaction
  3
AutoCAD 2000
 90
        0
280
     0
281
     0
  0
CLASS
  1
LWPOLYLINE
  2
AcDbPolyline
  3
AutoCAD 2000
 90
        0
280
     0
281
     1
  0
CLASS
  1
HATCH
  2
AcDbHatch
  3
AutoCAD 2000
 90
        0
280
     0
281
     1
  0
CLASS
  1
XRECORD
  2
AcDbXrecord
  3
AutoCAD 2000
 90
        0
280
     0
281
     0
  0
CLASS
  1
LONG_TRANSACTION
  2
AcDbLongTransaction
  3
AutoCAD 2000
 90
        0
280
     0
281
     0
  0
CLASS
  1
LWPOLYLINE
  2
AcDbPolyline
  3
AutoCAD 2000
 90
        0
280
     0
281
     1
  0
CLASS
  1
HATCH
  2
AcDbHatch
  3
AutoCAD 2000
 90
        0
280
     0
281
     1
  0
CLASS
  1
XRECORD
  2
AcDbXrecord
  3
AutoCAD 2000
 90
        0
280
     0
281
     0
  0
CLASS
  1
LONG_TRANSACTION
  2
AcDbLongTransaction
  3
AutoCAD 2000
 90
        0
280
     0
281
     0
  0
CLASS
  1
LWPOLYLINE
  2
AcDbPolyline
  3
AutoCAD 2000
 90
        0
280
     0
281
     1
  0
CLASS
  1
HATCH
  2
AcDbHatch
  3
AutoCAD 2000
 90
        0
280
     0
281
     1
  0
CLASS
  1
XRECORD
  2
AcDbXrecord
  3
AutoCAD 2000
 90
        0
280
     0
281
     0
  0
CLASS
  1
LONG_TRANSACTION
  2
AcDbLongTransaction
  3
AutoCAD 2000
 90
        0
280
     0
281
     0
  0
CLASS
  1
LWPOLYLINE
  2
AcDbPolyline
  3
AutoCAD 2000
 90
        0
280
     0
281
     1
  0
CLASS
  1
HATCH
  2
AcDbHatch
  3
AutoCAD 2000
 90
        0
280
     0
281
     1
  0
CLASS
  1
XRECORD
  2
AcDbXrecord
  3
AutoCAD 2000
 90
        0
280
     0
281
     0
  0
CLASS
  1
LONG_TRANSACTION
  2
AcDbLongTransaction
  3
AutoCAD 2000
 90
        0
280
     0
281
     0
  0
CLASS
  1
LWPOLYLINE
  2
AcDbPolyline
  3
AutoCAD 2000
 90
        0
280
     0
281
     1
  0
CLASS
  1
HATCH
  2
AcDbHatch
  3
AutoCAD 2000
 90
        0
280
     0
281
     1
  0
CLASS
  1
XRECORD
  2
AcDbXrecord
  3
AutoCAD 2000
 90
        0
280
     0
281
     0
  0
CLASS
  1
LONG_TRANSACTION
  2
AcDbLongTransaction
  3
AutoCAD 2000
 90
        0
280
     0
281
     0
  0
CLASS
  1
LWPOLYLINE
  2
AcDbPolyline
  3
AutoCAD 2000
 90
        0
280
     0
281
     1
  0
CLASS
  1
HATCH
  2
AcDbHatch
  3
AutoCAD 2000
 90
        0
280
     0
281
     1
  0
CLASS
  1
XRECORD
  2
AcDbXrecord
  3
AutoCAD 2000
 90
        0
280
     0
281
     0
  0
CLASS
  1
LONG_TRANSACTION
  2
AcDbLongTransaction
  3
AutoCAD 2000
 90
        0
280
     0
281
     0
  0
CLASS
  1
LWPOLYLINE
  2
AcDbPolyline
  3
AutoCAD 2000
 90
        0
280
     0
281
     1
  0
CLASS
  1
HATCH
  2
AcDbHatch
  3
AutoCAD 2000
 90
        0
280
     0
281
     1
  0
CLASS
  1
XRECORD
  2
AcDbXrecord
  3
AutoCAD 2000
 90
        0
280
     0
281
     0
  0
CLASS
  1
LONG_TRANSACTION
  2
AcDbLongTransaction
  3
AutoCAD 2000
 90
        0
280
     0
281
     0
  0
CLASS
  1
LWPOLYLINE
  2
AcDbPolyline
  3
AutoCAD 2000
 90
        0
280
     0
281
     1
  0
CLASS
  1
HATCH
  2
AcDbHatch
  3
AutoCAD 2000
 90
        0
280
     0
281
     1
  0
CLASS
  1
XRECORD
  2
AcDbXrecord
  3
AutoCAD 2000
 90
        0
280
     0
281
     0
  0
CLASS
  1
LONG_TRANSACTION
  2
AcDbLongTransaction
  3
AutoCAD 2000
 90
        0
280
     0
281
     0
  0
CLASS
  1
LWPOLYLINE
  2
AcDbPolyline
  3
AutoCAD 2000
 90
        0
280
     0
281
     1
  0
CLASS
  1
HATCH
  2
AcDbHatch
  3
AutoCAD 2000
 90
        0
280
     0
281
     1
  0
CLASS
  1
XRECORD
  2
AcDbXrecord
  3
AutoCAD 2000
 90
        0
280
     0
281
     0
  0
CLASS
  1
LONG_TRANSACTION
  2
AcDbLongTransaction
  3
AutoCAD 2000
 90
        0
280
     0
281
     0
  0
CLASS
  1
LWPOLYLINE
  2
AcDbPolyline
  3
AutoCAD 2000
 90
        0
280
     0
281
     1
  0
CLASS
  1
HATCH
  2
AcDbHatch
  3
AutoCAD 2000
 90
        0
280
     0
281
     1
  0
CLASS
  1
XRECORD
  2
AcDbXrecord
  3
AutoCAD 2000
 90
        0
280
     0
281
     0
  0
CLASS
  1
LONG_TRANSACTION
  2
AcDbLongTransaction
  3
AutoCAD 2000
 90
        0
280
     0
281
     0
  0
CLASS
  1
LWPOLYLINE
  2
AcDbPolyline
  3
AutoCAD 2000
 90
        0
280
     0
281
     1
  0
CLASS
  1
HATCH
  2
AcDbHatch
  3
AutoCAD 2000
 90
        0
280
     0
281
     1
  0
CLASS
  1
XRECORD
  2
AcDbXrecord
  3
AutoCAD 2000
 90
        0
280
     0
281
     0
  0
CLASS
  1
LONG_TRANSACTION
  2
AcDbLongTransaction
  3
AutoCAD 2000
 90
        0
280
     0
281
     0
  0
CLASS
  1
LWPOLYLINE
  2
AcDbPolyline
  3
AutoCAD 2000
 90
        0
280
     0
281
     1
  0
CLASS
  1
HATCH
  2
AcDbHatch
  3
AutoCAD 2000
 90
        0
280
     0
281
     1
  0
CLASS
  1
XRECORD
  2
AcDbXrecord
  3
AutoCAD 2000
 90
        0
280
     0
281
     0
  0
ENDSEC
  0
SECTION
  2
TABLES
  0
TABLE
  2
VPORT
  5
8
330
0
100
AcDbSymbolTable
 70
     2
  0
VPORT
  5
2AD8
330
8
100
AcDbSymbolTableRecord
100
AcDbViewportTableRecord
  2
*ACTIVE
 70
     0
 10
0.0
 20
0.0
 11
1.0
 21
1.0
 12
225.5248053095352
 22
145.744601473427
 13
0.0
 23
0.0
 14
5.0
 24
5.0
 15
0.0
 25
0.0
 16
0.0
 26
0.0
 36
1.0
 17
0.0
 27
0.0
 37
0.0
 40
321.3085019176769
 41
1.795454545454545
 42
50.0
 43
0.0
 44
0.0
 50
0.0
 51
0.0
 71
     0
 72
   100
 73
     1
 74
     0
 75
     0
 76
     0
 77
     0
 78
     0
  0
ENDTAB
  0
TABLE
  2
LTYPE
  5
5
330
0
100
AcDbSymbolTable
 70
     3
  0
LTYPE
  5
14
330
5
100
AcDbSymbolTableRecord
100
AcDbLinetypeTableRecord
  2
BYBLOCK
 70
     0
  3

 72
    65
 73
     0
 40
0.0
  0
LTYPE
  5
15
330
5
100
AcDbSymbolTableRecord
100
AcDbLinetypeTableRecord
  2
BYLAYER
 70
     0
  3

 72
    65
 73
     0
 40
0.0
  0
LTYPE
  5
16
330
5
100
AcDbSymbolTableRecord
100
AcDbLinetypeTableRecord
  2
CONTINUOUS
 70
     0
  3
Solid line
 72
    65
 73
     0
 40
0.0
  0
LTYPE
  5
120
330
5
100
AcDbSymbolTableRecord
100
AcDbLinetypeTableRecord
  2
CENTER
 70
     0
  3
____ _ ____ _ ____ _ ____ _ ____ _ ____ _ ____ 
 72
    65
 73
     4
 40
2.0
 49
1.25
 74
     0
 49
-0.25
 74
     0
 49
0.25
 74
     0
 49
-0.25
 74
     0
  0
LTYPE
  5
122
330
5
100
AcDbSymbolTableRecord
100
AcDbLinetypeTableRecord
  2
PHANTOM
 70
     0
  3
______  __  __  ______  __  __  ______  __  __ 
 72
    65
 73
     6
 40
2.5
 49
1.25
 74
     0
 49
-0.25
 74
     0
 49
0.25
 74
     0
 49
-0.25
 74
     0
 49
0.25
 74
     0
 49
-0.25
 74
     0
  0
ENDTAB
  0
TABLE
  2
LAYER
  5
2
330
0
100
AcDbSymbolTable
 70
     9
  0
LAYER
  5
F
330
2
100
AcDbSymbolTableRecord
100
AcDbLayerTableRecord
  2
0
 70
     0
 62
     7
  6
CONTINUOUS
  0
LAYER
  5
62
330
2
100
AcDbSymbolTableRecord
100
AcDbLayerTableRecord
  2
VIEWPORT
 70
     0
 62
     7
  6
CONTINUOUS
  0
LAYER
  5
6B
330
2
100
AcDbSymbolTableRecord
100
AcDbLayerTableRecord
  2
ZUWAKU
 70
     0
 62
     7
  6
CONTINUOUS
  0
LAYER
  5
3EF
330
2
100
AcDbSymbolTableRecord
100
AcDbLayerTableRecord
  2
DEFPOINTS
 70
     0
 62
     7
  6
CONTINUOUS
  0
LAYER
  5
54D
330
2
100
AcDbSymbolTableRecord
100
AcDbLayerTableRecord
  2
SEIHIN
 70
     0
 62
     3
  6
CONTINUOUS
  0
LAYER
  5
54E
330
2
100
AcDbSymbolTableRecord
100
AcDbLayerTableRecord
  2
SUNPOU
 70
     0
 62
     4
  6
CONTINUOUS
  0
LAYER
  5
54F
330
2
100
AcDbSymbolTableRecord
100
AcDbLayerTableRecord
  2
CENTER_L
 70
     0
 62
     1
  6
CENTER
  0
LAYER
  5
550
330
2
100
AcDbSymbolTableRecord
100
AcDbLayerTableRecord
  2
NOKITOI
 70
     0
 62
     8
  6
PHANTOM
  0
LAYER
  5
28F3
330
2
100
AcDbSymbolTableRecord
100
AcDbLayerTableRecord
  2
MOJI
 70
     0
 62
     2
  6
CONTINUOUS
  0
ENDTAB
  0
TABLE
  2
STYLE
  5
3
330
0
100
AcDbSymbolTable
 70
     2
  0
STYLE
  5
10
330
3
100
AcDbSymbolTableRecord
100
AcDbTextStyleTableRecord
  2
STANDARD
 70
     0
 40
0.0
 41
1.0
 50
0.0
 71
     0
 42
3.0
  3
TXT
  4
c:\PROGRAM FILES\AUTOCAD LT\ms\bigfont.shx
  0
STYLE
  5
28F4
330
3
100
AcDbSymbolTableRecord
100
AcDbTextStyleTableRecord
  2
ｽﾀｲﾙ1
 70
     0
 40
0.0
 41
1.0
 50
0.0
 71
     0
 42
2.5
  3
MS PGothic.ttf
  4

1001
ACAD
1000
MS PGothic
1071
    32818
  0
ENDTAB
  0
TABLE
  2
VIEW
  5
6
330
0
100
AcDbSymbolTable
 70
     0
  0
ENDTAB
  0
TABLE
  2
UCS
  5
7
330
0
100
AcDbSymbolTable
 70
     0
  0
ENDTAB
  0
TABLE
  2
APPID
  5
9
330
0
100
AcDbSymbolTable
 70
     1
  0
APPID
  5
11
330
9
100
AcDbSymbolTableRecord
100
AcDbRegAppTableRecord
  2
ACAD
 70
     0
  0
ENDTAB
  0
TABLE
  2
DIMSTYLE
  5
A
330
0
100
AcDbSymbolTable
 70
     1
  0
DIMSTYLE
105
1D
102
{ACAD_REACTORS
330
1F96
330
1FA3
330
1FB0
330
1FEA
330
1FF7
330
2006
330
2015
330
2022
330
204C
330
2059
330
2066
330
2073
102
}
330
A
100
AcDbSymbolTableRecord
100
AcDbDimStyleTableRecord
  2
STANDARD
 70
     0
  3

  4

  5

  6

  7

 40
1.0
 41
0.18
 42
0.0625
 43
0.38
 44
0.18
 45
0.0
 46
0.0
 47
0.0
 48
0.0
140
0.18
141
0.09
142
0.0
143
25.4
144
1.0
145
0.0
146
1.0
147
0.09
 71
     0
 72
     0
 73
     1
 74
     1
 75
     0
 76
     0
 77
     0
 78
     0
170
     0
171
     2
172
     0
173
     0
174
     0
175
     0
176
     0
177
     0
178
     0
270
     2
271
     4
272
     4
273
     2
274
     2
340
10
275
     0
280
     0
281
     0
282
     0
283
     1
284
     0
285
     0
286
     0
287
     3
288
     0
  0
ENDTAB
  0
TABLE
  2
BLOCK_RECORD
  5
1
330
0
100
AcDbSymbolTable
 70
    13
  0
BLOCK_RECORD
  5
1A
102
{ACAD_XDICTIONARY
360
7A2
102
}
330
1
100
AcDbSymbolTableRecord
100
AcDbBlockTableRecord
  2
*MODEL_SPACE
  0
BLOCK_RECORD
  5
17
102
{ACAD_XDICTIONARY
360
7A0
102
}
330
1
100
AcDbSymbolTableRecord
100
AcDbBlockTableRecord
  2
*PAPER_SPACE
  0
BLOCK_RECORD
  5
B2
330
1
100
AcDbSymbolTableRecord
100
AcDbBlockTableRecord
  2
_OPEN
  0
BLOCK_RECORD
  5
1F97
330
1
100
AcDbSymbolTableRecord
100
AcDbBlockTableRecord
  2
*D1
  0
BLOCK_RECORD
  5
1FA4
330
1
100
AcDbSymbolTableRecord
100
AcDbBlockTableRecord
  2
*D2
  0
BLOCK_RECORD
  5
1FB1
330
1
100
AcDbSymbolTableRecord
100
AcDbBlockTableRecord
  2
*D3
  0
BLOCK_RECORD
  5
1FEB
330
1
100
AcDbSymbolTableRecord
100
AcDbBlockTableRecord
  2
*D4
  0
BLOCK_RECORD
  5
1FF8
330
1
100
AcDbSymbolTableRecord
100
AcDbBlockTableRecord
  2
*D5
  0
BLOCK_RECORD
  5
2007
330
1
100
AcDbSymbolTableRecord
100
AcDbBlockTableRecord
  2
*D6
  0
BLOCK_RECORD
  5
2016
330
1
100
AcDbSymbolTableRecord
100
AcDbBlockTableRecord
  2
*D7
  0
BLOCK_RECORD
  5
2023
330
1
100
AcDbSymbolTableRecord
100
AcDbBlockTableRecord
  2
*D8
  0
BLOCK_RECORD
  5
204D
330
1
100
AcDbSymbolTableRecord
100
AcDbBlockTableRecord
  2
*D9
  0
BLOCK_RECORD
  5
205A
330
1
100
AcDbSymbolTableRecord
100
AcDbBlockTableRecord
  2
*D10
  0
BLOCK_RECORD
  5
2067
330
1
100
AcDbSymbolTableRecord
100
AcDbBlockTableRecord
  2
*D11
  0
BLOCK_RECORD
  5
2074
330
1
100
AcDbSymbolTableRecord
100
AcDbBlockTableRecord
  2
*D12
  0
ENDTAB
  0
ENDSEC
  0
SECTION
  2
BLOCKS
  0
BLOCK
  5
1B
330
1A
100
AcDbEntity
  8
0
100
AcDbBlockBegin
  2
*MODEL_SPACE
 70
     0
 10
0.0
 20
0.0
 30
0.0
  3
*MODEL_SPACE
  1

  0
ENDBLK
  5
1C
330
1A
100
AcDbEntity
  8
0
100
AcDbBlockEnd
  0
BLOCK
  5
18
330
17
100
AcDbEntity
 67
     1
  8
0
100
AcDbBlockBegin
  2
*PAPER_SPACE
 70
     0
 10
0.0
 20
0.0
 30
0.0
  3
*PAPER_SPACE
  1

  0
ENDBLK
  5
19
330
17
100
AcDbEntity
 67
     1
  8
0
100
AcDbBlockEnd
  0
BLOCK
  5
B3
330
B2
100
AcDbEntity
  8
0
100
AcDbBlockBegin
  2
_OPEN
 70
     0
 10
0.0
 20
0.0
 30
0.0
  3
_OPEN
  1

  0
LINE
  5
B4
330
B2
100
AcDbEntity
  8
0
  6
BYBLOCK
 62
     0
100
AcDbLine
 10
-1.0
 20
0.1666666666666666
 30
0.0
 11
0.0
 21
0.0
 31
0.0
  0
LINE
  5
B5
330
B2
100
AcDbEntity
  8
0
  6
BYBLOCK
 62
     0
100
AcDbLine
 10
0.0
 20
0.0
 30
0.0
 11
-1.0
 21
-0.1666666666666666
 31
0.0
  0
LINE
  5
B6
330
B2
100
AcDbEntity
  8
0
  6
BYBLOCK
 62
     0
100
AcDbLine
 10
0.0
 20
0.0
 30
0.0
 11
-1.0
 21
0.0
 31
0.0
  0
ENDBLK
  5
B7
330
B2
100
AcDbEntity
  8
0
100
AcDbBlockEnd
  0
BLOCK
  5
1FA1
330
1F97
100
AcDbEntity
  8
0
100
AcDbBlockBegin
  2
*D1
 70
     1
 10
0.0
 20
0.0
 30
0.0
  3
*D1
  1

  0
LINE
  5
2A7F
330
1F97
100
AcDbEntity
  8
SUNPOU
100
AcDbLine
 10
207.6008705838939
 20
142.1946284063255
 30
0.0
 11
49.86964071555622
 21
142.1946284063256
 31
0.0
  0
LINE
  5
2A80
330
1F97
100
AcDbEntity
  8
SUNPOU
100
AcDbLine
 10
75.20045348389391
 20
85.48065010632557
 30
0.0
 11
49.86964071555621
 21
85.48065010632557
 31
0.0
  0
LINE
  5
2A81
330
1F97
100
AcDbEntity
  8
SUNPOU
100
AcDbLine
 10
51.36964071555621
 20
139.1946284063256
 30
0.0
 11
51.3696407155562
 21
88.48065010632558
 31
0.0
  0
INSERT
  5
2A82
330
1F97
100
AcDbEntity
  8
SUNPOU
100
AcDbBlockReference
  2
_OPEN
 10
51.36964071555621
 20
142.1946284063256
 30
0.0
 41
3.0
 42
3.0
 43
3.0
 50
90.0
  0
INSERT
  5
2A83
330
1F97
100
AcDbEntity
  8
SUNPOU
100
AcDbBlockReference
  2
_OPEN
 10
51.3696407155562
 20
85.48065010632557
 30
0.0
 41
3.0
 42
3.0
 43
3.0
 50
270.0
  0
MTEXT
  5
2A84
330
1F97
100
AcDbEntity
  8
SUNPOU
100
AcDbMText
 10
48.86964071555619
 20
113.8376392563256
 30
0.0
 40
3.0
 41
0.0
 71
     5
 72
     1
  1
\A1;57
 11
0.0000000000000001
 21
1.0
 31
0.0
1001
ACAD
1000
MTEXTBEGIN
1070
    73
1070
     1
1070
    44
1040
1.0
1070
    74
1070
     0
1000
MTEXTEND
  0
POINT
  5
2A85
330
1F97
100
AcDbEntity
  8
DEFPOINTS
 62
     0
100
AcDbPoint
 10
210.6008705838938
 20
142.1946284063255
 30
0.0
  0
POINT
  5
2A86
330
1F97
100
AcDbEntity
  8
DEFPOINTS
 62
     0
100
AcDbPoint
 10
78.20045348389391
 20
85.48065010632557
 30
0.0
  0
POINT
  5
2A87
330
1F97
100
AcDbEntity
  8
DEFPOINTS
 62
     0
100
AcDbPoint
 10
51.3696407155562
 20
85.48065010632557
 30
0.0
  0
ENDBLK
  5
1FA2
330
1F97
100
AcDbEntity
  8
0
100
AcDbBlockEnd
  0
BLOCK
  5
1FAE
330
1FA4
100
AcDbEntity
  8
0
100
AcDbBlockBegin
  2
*D2
 70
     1
 10
0.0
 20
0.0
 30
0.0
  3
*D2
  1

  0
LINE
  5
2A76
330
1FA4
100
AcDbEntity
  8
SUNPOU
100
AcDbLine
 10
217.2008705838939
 20
145.1946284063255
 30
0.0
 11
217.2008705838939
 21
167.2172755207508
 31
0.0
  0
LINE
  5
2A77
330
1FA4
100
AcDbEntity
  8
SUNPOU
100
AcDbLine
 10
130.7004534838939
 20
89.7806501063256
 30
0.0
 11
130.7004534838939
 21
167.2172755207508
 31
0.0
  0
LINE
  5
2A78
330
1FA4
100
AcDbEntity
  8
SUNPOU
100
AcDbLine
 10
214.2008705838938
 20
165.7172755207508
 30
0.0
 11
133.7004534838939
 21
165.7172755207508
 31
0.0
  0
INSERT
  5
2A79
330
1FA4
100
AcDbEntity
  8
SUNPOU
100
AcDbBlockReference
  2
_OPEN
 10
217.2008705838939
 20
165.7172755207508
 30
0.0
 41
3.0
 42
3.0
 43
3.0
  0
INSERT
  5
2A7A
330
1FA4
100
AcDbEntity
  8
SUNPOU
100
AcDbBlockReference
  2
_OPEN
 10
130.7004534838939
 20
165.7172755207508
 30
0.0
 41
3.0
 42
3.0
 43
3.0
 50
180.0
  0
MTEXT
  5
2A7B
330
1FA4
100
AcDbEntity
  8
SUNPOU
100
AcDbMText
 10
173.9506620338939
 20
168.2172755207508
 30
0.0
 40
3.0
 41
0.0
 71
     5
 72
     1
  1
\A1;87
1001
ACAD
1000
MTEXTBEGIN
1070
    73
1070
     1
1070
    44
1040
1.0
1070
    74
1070
     0
1000
MTEXTEND
  0
POINT
  5
2A7C
330
1FA4
100
AcDbEntity
  8
DEFPOINTS
 62
     0
100
AcDbPoint
 10
217.2008705838939
 20
142.1946284063255
 30
0.0
  0
POINT
  5
2A7D
330
1FA4
100
AcDbEntity
  8
DEFPOINTS
 62
     0
100
AcDbPoint
 10
130.7004534838939
 20
86.78065010632559
 30
0.0
  0
POINT
  5
2A7E
330
1FA4
100
AcDbEntity
  8
DEFPOINTS
 62
     0
100
AcDbPoint
 10
130.7004534838939
 20
165.7172755207508
 30
0.0
  0
ENDBLK
  5
1FAF
330
1FA4
100
AcDbEntity
  8
0
100
AcDbBlockEnd
  0
BLOCK
  5
1FBB
330
1FB1
100
AcDbEntity
  8
0
100
AcDbBlockBegin
  2
*D3
 70
     1
 10
0.0
 20
0.0
 30
0.0
  3
*D3
  1

  0
LINE
  5
2A6D
330
1FB1
100
AcDbEntity
  8
SUNPOU
100
AcDbLine
 10
78.20045348389391
 20
88.01522072566605
 30
0.0
 11
78.20045348389391
 21
176.6951680754846
 31
0.0
  0
LINE
  5
2A6E
330
1FB1
100
AcDbEntity
  8
SUNPOU
100
AcDbLine
 10
217.2008705838939
 20
145.1946284063255
 30
0.0
 11
217.2008705838939
 21
176.6951680754846
 31
0.0
  0
LINE
  5
2A6F
330
1FB1
100
AcDbEntity
  8
SUNPOU
100
AcDbLine
 10
81.20045348389391
 20
175.1951680754846
 30
0.0
 11
214.2008705838938
 21
175.1951680754846
 31
0.0
  0
INSERT
  5
2A70
330
1FB1
100
AcDbEntity
  8
SUNPOU
100
AcDbBlockReference
  2
_OPEN
 10
78.20045348389391
 20
175.1951680754846
 30
0.0
 41
3.0
 42
3.0
 43
3.0
 50
180.0
  0
INSERT
  5
2A71
330
1FB1
100
AcDbEntity
  8
SUNPOU
100
AcDbBlockReference
  2
_OPEN
 10
217.2008705838939
 20
175.1951680754846
 30
0.0
 41
3.0
 42
3.0
 43
3.0
  0
MTEXT
  5
2A72
330
1FB1
100
AcDbEntity
  8
SUNPOU
100
AcDbMText
 10
147.7006620338939
 20
177.6951680754846
 30
0.0
 40
3.0
 41
0.0
 71
     5
 72
     1
  1
\A1;139
1001
ACAD
1000
MTEXTBEGIN
1070
    73
1070
     1
1070
    44
1040
1.0
1070
    74
1070
     0
1000
MTEXTEND
  0
POINT
  5
2A73
330
1FB1
100
AcDbEntity
  8
DEFPOINTS
 62
     0
100
AcDbPoint
 10
78.20045348389391
 20
85.01522072566606
 30
0.0
  0
POINT
  5
2A74
330
1FB1
100
AcDbEntity
  8
DEFPOINTS
 62
     0
100
AcDbPoint
 10
217.2008705838939
 20
142.1946284063255
 30
0.0
  0
POINT
  5
2A75
330
1FB1
100
AcDbEntity
  8
DEFPOINTS
 62
     0
100
AcDbPoint
 10
217.2008705838939
 20
175.1951680754846
 30
0.0
  0
ENDBLK
  5
1FBC
330
1FB1
100
AcDbEntity
  8
0
100
AcDbBlockEnd
  0
BLOCK
  5
1FF5
330
1FEB
100
AcDbEntity
  8
0
100
AcDbBlockBegin
  2
*D4
 70
     1
 10
0.0
 20
0.0
 30
0.0
  3
*D4
  1

  0
LINE
  5
2A64
330
1FEB
100
AcDbEntity
  8
SUNPOU
100
AcDbLine
 10
217.2008705838939
 20
145.1946284063255
 30
0.0
 11
217.2008705838939
 21
156.8727188372216
 31
0.0
  0
LINE
  5
2A65
330
1FEB
100
AcDbEntity
  8
SUNPOU
100
AcDbLine
 10
194.6593962071219
 20
92.51115010632553
 30
0.0
 11
194.6593962071219
 21
156.8727188372216
 31
0.0
  0
LINE
  5
2A66
330
1FEB
100
AcDbEntity
  8
SUNPOU
100
AcDbLine
 10
214.2008705838938
 20
155.3727188372216
 30
0.0
 11
197.6593962071219
 21
155.3727188372216
 31
0.0
  0
INSERT
  5
2A67
330
1FEB
100
AcDbEntity
  8
SUNPOU
100
AcDbBlockReference
  2
_OPEN
 10
217.2008705838939
 20
155.3727188372216
 30
0.0
 41
3.0
 42
3.0
 43
3.0
  0
INSERT
  5
2A68
330
1FEB
100
AcDbEntity
  8
SUNPOU
100
AcDbBlockReference
  2
_OPEN
 10
194.6593962071219
 20
155.3727188372216
 30
0.0
 41
3.0
 42
3.0
 43
3.0
 50
180.0
  0
MTEXT
  5
2A69
330
1FEB
100
AcDbEntity
  8
SUNPOU
100
AcDbMText
 10
205.9301333955079
 20
157.8727188372216
 30
0.0
 40
3.0
 41
0.0
 71
     5
 72
     1
  1
\A1;23
1001
ACAD
1000
MTEXTBEGIN
1070
    73
1070
     1
1070
    44
1040
1.0
1070
    74
1070
     0
1000
MTEXTEND
  0
POINT
  5
2A6A
330
1FEB
100
AcDbEntity
  8
DEFPOINTS
 62
     0
100
AcDbPoint
 10
217.2008705838939
 20
142.1946284063255
 30
0.0
  0
POINT
  5
2A6B
330
1FEB
100
AcDbEntity
  8
DEFPOINTS
 62
     0
100
AcDbPoint
 10
194.6593962071219
 20
89.51115010632554
 30
0.0
  0
POINT
  5
2A6C
330
1FEB
100
AcDbEntity
  8
DEFPOINTS
 62
     0
100
AcDbPoint
 10
194.6593962071219
 20
155.3727188372216
 30
0.0
  0
ENDBLK
  5
1FF6
330
1FEB
100
AcDbEntity
  8
0
100
AcDbBlockEnd
  0
BLOCK
  5
2002
330
1FF8
100
AcDbEntity
  8
0
100
AcDbBlockBegin
  2
*D5
 70
     1
 10
0.0
 20
0.0
 30
0.0
  3
*D5
  1

  0
LINE
  5
2AC0
330
1FF8
100
AcDbEntity
  8
SUNPOU
100
AcDbLine
 10
220.2008705838939
 20
142.1946284063255
 30
0.0
 11
239.7523650448279
 21
142.1946284063255
 31
0.0
  0
LINE
  5
2AC1
330
1FF8
100
AcDbEntity
  8
SUNPOU
100
AcDbLine
 10
220.2008705838939
 20
107.1946284063255
 30
0.0
 11
239.7523650448279
 21
107.1946284063255
 31
0.0
  0
LINE
  5
2AC2
330
1FF8
100
AcDbEntity
  8
SUNPOU
100
AcDbLine
 10
238.2523650448279
 20
139.1946284063255
 30
0.0
 11
238.2523650448279
 21
110.1946284063255
 31
0.0
  0
INSERT
  5
2AC3
330
1FF8
100
AcDbEntity
  8
SUNPOU
100
AcDbBlockReference
  2
_OPEN
 10
238.2523650448279
 20
142.1946284063255
 30
0.0
 41
3.0
 42
3.0
 43
3.0
 50
90.0
  0
INSERT
  5
2AC4
330
1FF8
100
AcDbEntity
  8
SUNPOU
100
AcDbBlockReference
  2
_OPEN
 10
238.2523650448279
 20
107.1946284063255
 30
0.0
 41
3.0
 42
3.0
 43
3.0
 50
270.0
  0
MTEXT
  5
2AC5
330
1FF8
100
AcDbEntity
  8
SUNPOU
100
AcDbMText
 10
235.7523650448278
 20
124.6946284063256
 30
0.0
 40
3.0
 41
0.0
 71
     5
 72
     1
  1
\A1;35
 11
0.0000000000000001
 21
1.0
 31
0.0
1001
ACAD
1000
MTEXTBEGIN
1070
    73
1070
     1
1070
    44
1040
1.0
1070
    74
1070
     0
1000
MTEXTEND
  0
POINT
  5
2AC6
330
1FF8
100
AcDbEntity
  8
DEFPOINTS
 62
     0
100
AcDbPoint
 10
217.2008705838939
 20
142.1946284063255
 30
0.0
  0
POINT
  5
2AC7
330
1FF8
100
AcDbEntity
  8
DEFPOINTS
 62
     0
100
AcDbPoint
 10
217.2008705838939
 20
107.1946284063255
 30
0.0
  0
POINT
  5
2AC8
330
1FF8
100
AcDbEntity
  8
DEFPOINTS
 62
     0
100
AcDbPoint
 10
238.2523650448279
 20
107.1946284063255
 30
0.0
  0
ENDBLK
  5
2003
330
1FF8
100
AcDbEntity
  8
0
100
AcDbBlockEnd
  0
BLOCK
  5
2013
330
2007
100
AcDbEntity
  8
0
100
AcDbBlockBegin
  2
*D6
 70
     1
 10
0.0
 20
0.0
 30
0.0
  3
*D6
  1

  0
LINE
  5
2AA3
330
2007
100
AcDbEntity
  8
SUNPOU
100
AcDbLine
 10
287.6242489500488
 20
142.1946284063255
 30
0.0
 11
271.9062311854829
 21
142.1946284063255
 31
0.0
  0
LINE
  5
2AA4
330
2007
100
AcDbEntity
  8
SUNPOU
100
AcDbLine
 10
287.5242489500488
 20
134.1946284063255
 30
0.0
 11
271.9062311854829
 21
134.1946284063255
 31
0.0
  0
LINE
  5
2AA5
330
2007
100
AcDbEntity
  8
SUNPOU
100
AcDbLine
 10
273.4062311854829
 20
145.1946284063255
 30
0.0
 11
273.4062311854829
 21
148.1946284063256
 31
0.0
  0
LINE
  5
2AA6
330
2007
100
AcDbEntity
  8
SUNPOU
100
AcDbLine
 10
273.4062311854829
 20
131.1946284063255
 30
0.0
 11
273.4062311854829
 21
128.1946284063255
 31
0.0
  0
LINE
  5
2AA7
330
2007
100
AcDbEntity
  8
SUNPOU
100
AcDbLine
 10
273.4062311854829
 20
142.1946284063255
 30
0.0
 11
273.4062311854829
 21
134.1946284063255
 31
0.0
  0
INSERT
  5
2AA8
330
2007
100
AcDbEntity
  8
SUNPOU
100
AcDbBlockReference
  2
_OPEN
 10
273.4062311854829
 20
142.1946284063255
 30
0.0
 41
3.0
 42
3.0
 43
3.0
 50
270.0
  0
INSERT
  5
2AA9
330
2007
100
AcDbEntity
  8
SUNPOU
100
AcDbBlockReference
  2
_OPEN
 10
273.4062311854829
 20
134.1946284063255
 30
0.0
 41
3.0
 42
3.0
 43
3.0
 50
90.0
  0
MTEXT
  5
2AAA
330
2007
100
AcDbEntity
  8
SUNPOU
100
AcDbMText
 10
270.9062311854828
 20
138.1946284063256
 30
0.0
 40
3.0
 41
0.0
 71
     5
 72
     1
  1
\A1;8
 11
0.0000000000000001
 21
1.0
 31
0.0
1001
ACAD
1000
MTEXTBEGIN
1070
    73
1070
     1
1070
    44
1040
1.0
1070
    74
1070
     0
1000
MTEXTEND
  0
POINT
  5
2AAB
330
2007
100
AcDbEntity
  8
DEFPOINTS
 62
     0
100
AcDbPoint
 10
290.6242489500488
 20
142.1946284063255
 30
0.0
  0
POINT
  5
2AAC
330
2007
100
AcDbEntity
  8
DEFPOINTS
 62
     0
100
AcDbPoint
 10
290.5242489500488
 20
134.1946284063255
 30
0.0
  0
POINT
  5
2AAD
330
2007
100
AcDbEntity
  8
DEFPOINTS
 62
     0
100
AcDbPoint
 10
273.4062311854829
 20
134.1946284063255
 30
0.0
  0
ENDBLK
  5
2014
330
2007
100
AcDbEntity
  8
0
100
AcDbBlockEnd
  0
BLOCK
  5
2020
330
2016
100
AcDbEntity
  8
0
100
AcDbBlockBegin
  2
*D7
 70
     1
 10
0.0
 20
0.0
 30
0.0
  3
*D7
  1

  0
LINE
  5
2AB7
330
2016
100
AcDbEntity
  8
SUNPOU
100
AcDbLine
 10
287.5242489500488
 20
115.1946284063256
 30
0.0
 11
271.9062311854829
 21
115.1946284063256
 31
0.0
  0
LINE
  5
2AB8
330
2016
100
AcDbEntity
  8
SUNPOU
100
AcDbLine
 10
287.6242489500488
 20
107.1946284063255
 30
0.0
 11
271.9062311854829
 21
107.1946284063255
 31
0.0
  0
LINE
  5
2AB9
330
2016
100
AcDbEntity
  8
SUNPOU
100
AcDbLine
 10
273.4062311854829
 20
112.1946284063256
 30
0.0
 11
273.4062311854829
 21
110.1946284063255
 31
0.0
  0
INSERT
  5
2ABA
330
2016
100
AcDbEntity
  8
SUNPOU
100
AcDbBlockReference
  2
_OPEN
 10
273.4062311854829
 20
115.1946284063256
 30
0.0
 41
3.0
 42
3.0
 43
3.0
 50
90.0
  0
INSERT
  5
2ABB
330
2016
100
AcDbEntity
  8
SUNPOU
100
AcDbBlockReference
  2
_OPEN
 10
273.4062311854829
 20
107.1946284063255
 30
0.0
 41
3.0
 42
3.0
 43
3.0
 50
270.0
  0
MTEXT
  5
2ABC
330
2016
100
AcDbEntity
  8
SUNPOU
100
AcDbMText
 10
270.9062311854829
 20
111.1946284063256
 30
0.0
 40
3.0
 41
0.0
 71
     5
 72
     1
  1
\A1;8
 11
0.0000000000000001
 21
1.0
 31
0.0
1001
ACAD
1000
MTEXTBEGIN
1070
    73
1070
     1
1070
    44
1040
1.0
1070
    74
1070
     0
1000
MTEXTEND
  0
POINT
  5
2ABD
330
2016
100
AcDbEntity
  8
DEFPOINTS
 62
     0
100
AcDbPoint
 10
290.5242489500488
 20
115.1946284063255
 30
0.0
  0
POINT
  5
2ABE
330
2016
100
AcDbEntity
  8
DEFPOINTS
 62
     0
100
AcDbPoint
 10
290.6242489500488
 20
107.1946284063255
 30
0.0
  0
POINT
  5
2ABF
330
2016
100
AcDbEntity
  8
DEFPOINTS
 62
     0
100
AcDbPoint
 10
273.4062311854829
 20
107.1946284063255
 30
0.0
  0
ENDBLK
  5
2021
330
2016
100
AcDbEntity
  8
0
100
AcDbBlockEnd
  0
BLOCK
  5
202D
330
2023
100
AcDbEntity
  8
0
100
AcDbBlockBegin
  2
*D8
 70
     1
 10
0.0
 20
0.0
 30
0.0
  3
*D8
  1

  0
LINE
  5
2AAE
330
2023
100
AcDbEntity
  8
SUNPOU
100
AcDbLine
 10
287.6242489500488
 20
142.1946284063255
 30
0.0
 11
261.8878521578031
 21
142.1946284063255
 31
0.0
  0
LINE
  5
2AAF
330
2023
100
AcDbEntity
  8
SUNPOU
100
AcDbLine
 10
287.6242489500488
 20
107.1946284063255
 30
0.0
 11
261.8878521578031
 21
107.1946284063255
 31
0.0
  0
LINE
  5
2AB0
330
2023
100
AcDbEntity
  8
SUNPOU
100
AcDbLine
 10
263.3878521578031
 20
139.1946284063255
 30
0.0
 11
263.387852157803
 21
110.1946284063255
 31
0.0
  0
INSERT
  5
2AB1
330
2023
100
AcDbEntity
  8
SUNPOU
100
AcDbBlockReference
  2
_OPEN
 10
263.3878521578031
 20
142.1946284063255
 30
0.0
 41
3.0
 42
3.0
 43
3.0
 50
90.0
  0
INSERT
  5
2AB2
330
2023
100
AcDbEntity
  8
SUNPOU
100
AcDbBlockReference
  2
_OPEN
 10
263.387852157803
 20
107.1946284063255
 30
0.0
 41
3.0
 42
3.0
 43
3.0
 50
270.0
  0
MTEXT
  5
2AB3
330
2023
100
AcDbEntity
  8
SUNPOU
100
AcDbMText
 10
260.887852157803
 20
124.6946284063256
 30
0.0
 40
3.0
 41
0.0
 71
     5
 72
     1
  1
\A1;35
 11
0.0000000000000001
 21
1.0
 31
0.0
1001
ACAD
1000
MTEXTBEGIN
1070
    73
1070
     1
1070
    44
1040
1.0
1070
    74
1070
     0
1000
MTEXTEND
  0
POINT
  5
2AB4
330
2023
100
AcDbEntity
  8
DEFPOINTS
 62
     0
100
AcDbPoint
 10
290.6242489500488
 20
142.1946284063255
 30
0.0
  0
POINT
  5
2AB5
330
2023
100
AcDbEntity
  8
DEFPOINTS
 62
     0
100
AcDbPoint
 10
290.6242489500488
 20
107.1946284063255
 30
0.0
  0
POINT
  5
2AB6
330
2023
100
AcDbEntity
  8
DEFPOINTS
 62
     0
100
AcDbPoint
 10
263.387852157803
 20
107.1946284063255
 30
0.0
  0
ENDBLK
  5
202E
330
2023
100
AcDbEntity
  8
0
100
AcDbBlockEnd
  0
BLOCK
  5
2057
330
204D
100
AcDbEntity
  8
0
100
AcDbBlockBegin
  2
*D9
 70
     1
 10
0.0
 20
0.0
 30
0.0
  3
*D9
  1

  0
LINE
  5
2A9A
330
204D
100
AcDbEntity
  8
SUNPOU
100
AcDbLine
 10
296.6242489500488
 20
143.2946284063256
 30
0.0
 11
296.6242489500488
 21
156.8727188372216
 31
0.0
  0
LINE
  5
2A9B
330
204D
100
AcDbEntity
  8
SUNPOU
100
AcDbLine
 10
340.6242489500488
 20
143.2946284063256
 30
0.0
 11
340.6242489500488
 21
156.8727188372216
 31
0.0
  0
LINE
  5
2A9C
330
204D
100
AcDbEntity
  8
SUNPOU
100
AcDbLine
 10
299.6242489500488
 20
155.3727188372216
 30
0.0
 11
337.6242489500488
 21
155.3727188372216
 31
0.0
  0
INSERT
  5
2A9D
330
204D
100
AcDbEntity
  8
SUNPOU
100
AcDbBlockReference
  2
_OPEN
 10
296.6242489500488
 20
155.3727188372216
 30
0.0
 41
3.0
 42
3.0
 43
3.0
 50
180.0
  0
INSERT
  5
2A9E
330
204D
100
AcDbEntity
  8
SUNPOU
100
AcDbBlockReference
  2
_OPEN
 10
340.6242489500488
 20
155.3727188372216
 30
0.0
 41
3.0
 42
3.0
 43
3.0
  0
MTEXT
  5
2A9F
330
204D
100
AcDbEntity
  8
SUNPOU
100
AcDbMText
 10
318.6242489500488
 20
157.8727188372216
 30
0.0
 40
3.0
 41
0.0
 71
     5
 72
     1
  1
\A1;44
1001
ACAD
1000
MTEXTBEGIN
1070
    73
1070
     1
1070
    44
1040
1.0
1070
    74
1070
     0
1000
MTEXTEND
  0
POINT
  5
2AA0
330
204D
100
AcDbEntity
  8
DEFPOINTS
 62
     0
100
AcDbPoint
 10
296.6242489500488
 20
140.2946284063256
 30
0.0
  0
POINT
  5
2AA1
330
204D
100
AcDbEntity
  8
DEFPOINTS
 62
     0
100
AcDbPoint
 10
340.6242489500488
 20
140.2946284063256
 30
0.0
  0
POINT
  5
2AA2
330
204D
100
AcDbEntity
  8
DEFPOINTS
 62
     0
100
AcDbPoint
 10
340.6242489500488
 20
155.3727188372216
 30
0.0
  0
ENDBLK
  5
2058
330
204D
100
AcDbEntity
  8
0
100
AcDbBlockEnd
  0
BLOCK
  5
2064
330
205A
100
AcDbEntity
  8
0
100
AcDbBlockBegin
  2
*D10
 70
     1
 10
0.0
 20
0.0
 30
0.0
  3
*D10
  1

  0
LINE
  5
2A91
330
205A
100
AcDbEntity
  8
SUNPOU
100
AcDbLine
 10
287.6242489500488
 20
142.1946284063255
 30
0.0
 11
287.6242489500488
 21
167.2172755207508
 31
0.0
  0
LINE
  5
2A92
330
205A
100
AcDbEntity
  8
SUNPOU
100
AcDbLine
 10
349.6242489500488
 20
142.1946284063255
 30
0.0
 11
349.6242489500488
 21
167.2172755207508
 31
0.0
  0
LINE
  5
2A93
330
205A
100
AcDbEntity
  8
SUNPOU
100
AcDbLine
 10
290.6242489500488
 20
165.7172755207508
 30
0.0
 11
346.6242489500488
 21
165.7172755207508
 31
0.0
  0
INSERT
  5
2A94
330
205A
100
AcDbEntity
  8
SUNPOU
100
AcDbBlockReference
  2
_OPEN
 10
287.6242489500488
 20
165.7172755207508
 30
0.0
 41
3.0
 42
3.0
 43
3.0
 50
180.0
  0
INSERT
  5
2A95
330
205A
100
AcDbEntity
  8
SUNPOU
100
AcDbBlockReference
  2
_OPEN
 10
349.6242489500488
 20
165.7172755207508
 30
0.0
 41
3.0
 42
3.0
 43
3.0
  0
MTEXT
  5
2A96
330
205A
100
AcDbEntity
  8
SUNPOU
100
AcDbMText
 10
318.6242489500488
 20
168.2172755207508
 30
0.0
 40
3.0
 41
0.0
 71
     5
 72
     1
  1
\A1;62
1001
ACAD
1000
MTEXTBEGIN
1070
    73
1070
     1
1070
    44
1040
1.0
1070
    74
1070
     0
1000
MTEXTEND
  0
POINT
  5
2A97
330
205A
100
AcDbEntity
  8
DEFPOINTS
 62
     0
100
AcDbPoint
 10
287.6242489500488
 20
139.1946284063255
 30
0.0
  0
POINT
  5
2A98
330
205A
100
AcDbEntity
  8
DEFPOINTS
 62
     0
100
AcDbPoint
 10
349.6242489500488
 20
139.1946284063255
 30
0.0
  0
POINT
  5
2A99
330
205A
100
AcDbEntity
  8
DEFPOINTS
 62
     0
100
AcDbPoint
 10
349.6242489500488
 20
165.7172755207508
 30
0.0
  0
ENDBLK
  5
2065
330
205A
100
AcDbEntity
  8
0
100
AcDbBlockEnd
  0
BLOCK
  5
2071
330
2067
100
AcDbEntity
  8
0
100
AcDbBlockBegin
  2
*D11
 70
     1
 10
0.0
 20
0.0
 30
0.0
  3
*D11
  1

  0
LINE
  5
2AC9
330
2067
100
AcDbEntity
  8
SUNPOU
100
AcDbLine
 10
220.2008705838939
 20
258.6452709382145
 30
0.0
 11
239.7523650448279
 21
258.6452709382145
 31
0.0
  0
LINE
  5
2ACA
330
2067
100
AcDbEntity
  8
SUNPOU
100
AcDbLine
 10
220.2008705838939
 20
196.6452709382146
 30
0.0
 11
239.7523650448279
 21
196.6452709382146
 31
0.0
  0
LINE
  5
2ACB
330
2067
100
AcDbEntity
  8
SUNPOU
100
AcDbLine
 10
238.2523650448279
 20
255.6452709382146
 30
0.0
 11
238.2523650448279
 21
199.6452709382145
 31
0.0
  0
INSERT
  5
2ACC
330
2067
100
AcDbEntity
  8
SUNPOU
100
AcDbBlockReference
  2
_OPEN
 10
238.2523650448279
 20
258.6452709382145
 30
0.0
 41
3.0
 42
3.0
 43
3.0
 50
90.0
  0
INSERT
  5
2ACD
330
2067
100
AcDbEntity
  8
SUNPOU
100
AcDbBlockReference
  2
_OPEN
 10
238.2523650448279
 20
196.6452709382146
 30
0.0
 41
3.0
 42
3.0
 43
3.0
 50
270.0
  0
MTEXT
  5
2ACE
330
2067
100
AcDbEntity
  8
SUNPOU
100
AcDbMText
 10
235.7523650448278
 20
227.6452709382146
 30
0.0
 40
3.0
 41
0.0
 71
     5
 72
     1
  1
\A1;62
 11
0.0000000000000001
 21
1.0
 31
0.0
1001
ACAD
1000
MTEXTBEGIN
1070
    73
1070
     1
1070
    44
1040
1.0
1070
    74
1070
     0
1000
MTEXTEND
  0
POINT
  5
2ACF
330
2067
100
AcDbEntity
  8
DEFPOINTS
 62
     0
100
AcDbPoint
 10
217.2008705838939
 20
258.6452709382145
 30
0.0
  0
POINT
  5
2AD0
330
2067
100
AcDbEntity
  8
DEFPOINTS
 62
     0
100
AcDbPoint
 10
217.2008705838939
 20
196.6452709382146
 30
0.0
  0
POINT
  5
2AD1
330
2067
100
AcDbEntity
  8
DEFPOINTS
 62
     0
100
AcDbPoint
 10
238.2523650448279
 20
196.6452709382146
 30
0.0
  0
ENDBLK
  5
2072
330
2067
100
AcDbEntity
  8
0
100
AcDbBlockEnd
  0
BLOCK
  5
207E
330
2074
100
AcDbEntity
  8
0
100
AcDbBlockBegin
  2
*D12
 70
     1
 10
0.0
 20
0.0
 30
0.0
  3
*D12
  1

  0
LINE
  5
2A88
330
2074
100
AcDbEntity
  8
SUNPOU
100
AcDbLine
 10
75.20045348389391
 20
237.6452709382145
 30
0.0
 11
49.86964071555623
 21
237.6452709382146
 31
0.0
  0
LINE
  5
2A89
330
2074
100
AcDbEntity
  8
SUNPOU
100
AcDbLine
 10
75.20045348389391
 20
217.6452709382146
 30
0.0
 11
49.86964071555623
 21
217.6452709382146
 31
0.0
  0
LINE
  5
2A8A
330
2074
100
AcDbEntity
  8
SUNPOU
100
AcDbLine
 10
51.36964071555623
 20
234.6452709382146
 30
0.0
 11
51.36964071555623
 21
220.6452709382146
 31
0.0
  0
INSERT
  5
2A8B
330
2074
100
AcDbEntity
  8
SUNPOU
100
AcDbBlockReference
  2
_OPEN
 10
51.36964071555623
 20
237.6452709382146
 30
0.0
 41
3.0
 42
3.0
 43
3.0
 50
90.0
  0
INSERT
  5
2A8C
330
2074
100
AcDbEntity
  8
SUNPOU
100
AcDbBlockReference
  2
_OPEN
 10
51.36964071555623
 20
217.6452709382146
 30
0.0
 41
3.0
 42
3.0
 43
3.0
 50
270.0
  0
MTEXT
  5
2A8D
330
2074
100
AcDbEntity
  8
SUNPOU
100
AcDbMText
 10
48.86964071555619
 20
227.6452709382146
 30
0.0
 40
3.0
 41
0.0
 71
     5
 72
     1
  1
\A1;20
 11
0.0000000000000001
 21
1.0
 31
0.0
1001
ACAD
1000
MTEXTBEGIN
1070
    73
1070
     1
1070
    44
1040
1.0
1070
    74
1070
     0
1000
MTEXTEND
  0
POINT
  5
2A8E
330
2074
100
AcDbEntity
  8
DEFPOINTS
 62
     0
100
AcDbPoint
 10
78.20045348389391
 20
237.6452709382145
 30
0.0
  0
POINT
  5
2A8F
330
2074
100
AcDbEntity
  8
DEFPOINTS
 62
     0
100
AcDbPoint
 10
78.20045348389391
 20
217.6452709382146
 30
0.0
  0
POINT
  5
2A90
330
2074
100
AcDbEntity
  8
DEFPOINTS
 62
     0
100
AcDbPoint
 10
51.36964071555623
 20
217.6452709382146
 30
0.0
  0
ENDBLK
  5
207F
330
2074
100
AcDbEntity
  8
0
100
AcDbBlockEnd
  0
ENDSEC
  0
SECTION
  2
ENTITIES
  0
TEXT
  5
9D
330
1A
100
AcDbEntity
  8
ZUWAKU
 48
5.0
100
AcDbText
 10
327.1013476411085
 20
8.060146781246267
 30
0.0
 40
4.0
  1

100
AcDbText
  0
ARC
  5
5A7
330
1A
100
AcDbEntity
  8
NOKITOI
  6
PHANTOM
 62
     8
100
AcDbCircle
 10
126.5374799806643
 20
79.57366458269561
 30
0.0
 40
43.00001447645168
100
AcDbArc
 50
186.5249107071177
 51
269.9998883751437
  0
ARC
  5
5A8
330
1A
100
AcDbEntity
  8
NOKITOI
  6
PHANTOM
 62
     8
100
AcDbCircle
 10
126.5375022890895
 20
79.57364448166922
 30
0.0
 40
41.79999437547816
100
AcDbArc
 50
184.4742952125247
 51
269.999854592109
  0
LINE
  5
5A9
330
1A
100
AcDbEntity
  8
NOKITOI
  6
PHANTOM
 62
     8
100
AcDbLine
 10
76.32649620712141
 20
78.71125010632553
 30
0.0
 11
76.24099620712172
 21
81.44875010632549
 31
0.0
  0
LINE
  5
5AA
330
1A
100
AcDbEntity
  8
NOKITOI
  6
PHANTOM
 62
     8
100
AcDbLine
 10
74.78839620712165
 20
89.51115010632552
 30
0.0
 11
75.17859620712147
 21
77.02685010632544
 31
0.0
  0
LINE
  5
5AB
330
1A
100
AcDbEntity
  8
NOKITOI
  6
PHANTOM
 62
     8
100
AcDbLine
 10
84.36639620712208
 20
76.77365010632556
 30
0.0
 11
78.32549620712166
 21
76.77365010632556
 31
0.0
  0
ARC
  5
5AC
330
1A
100
AcDbEntity
  8
NOKITOI
  6
PHANTOM
 62
     8
100
AcDbCircle
 10
82.82248778295912
 20
74.57365762138201
 30
0.0
 40
0.9999924849789756
100
AcDbArc
 50
6.528264606673934
 51
89.99951732740965
  0
LINE
  5
5AD
330
1A
100
AcDbEntity
  8
NOKITOI
  6
PHANTOM
 62
     8
100
AcDbLine
 10
76.67779620712167
 20
75.57365010632551
 30
0.0
 11
82.8224962071215
 21
75.57365010632551
 31
0.0
  0
ARC
  5
5AE
330
1A
100
AcDbEntity
  8
NOKITOI
  6
PHANTOM
 62
     8
100
AcDbCircle
 10
78.32550977926008
 20
78.77363695123912
 30
0.0
 40
1.999986844959662
100
AcDbArc
 50
181.7875531852356
 51
269.9996111843215
  0
ARC
  5
5AF
330
1A
100
AcDbEntity
  8
NOKITOI
  6
PHANTOM
 62
     8
100
AcDbCircle
 10
76.67783216627253
 20
77.07361525218229
 30
0.0
 40
1.499965146287778
100
AcDbArc
 50
181.7866280217767
 51
269.9986264296971
  0
ARC
  5
5B0
330
1A
100
AcDbEntity
  8
NOKITOI
  6
PHANTOM
 62
     8
100
AcDbCircle
 10
84.36640877682998
 20
76.27363848159584
 30
0.0
 40
0.5000116248877111
100
AcDbArc
 50
4.474846808342103
 51
90.00144034898383
  0
ARC
  5
5B1
330
1A
100
AcDbEntity
  8
NOKITOI
  6
PHANTOM
 62
     8
100
AcDbCircle
 10
76.78740895797159
 20
89.57366326141196
 30
0.0
 40
1.999986844954076
100
AcDbArc
 50
90.00036528735451
 51
181.7883072882703
  0
LINE
  5
5B2
330
1A
100
AcDbEntity
  8
NOKITOI
  6
PHANTOM
 62
     8
100
AcDbLine
 10
83.06529620712149
 20
89.07365010632551
 30
0.0
 11
80.83379620712163
 21
89.07365010632551
 31
0.0
  0
ARC
  5
5B3
330
1A
100
AcDbEntity
  8
NOKITOI
  6
PHANTOM
 62
     8
100
AcDbCircle
 10
82.74948932012671
 20
82.57364357124002
 30
0.0
 40
0.499993464961963
100
AcDbArc
 50
270.0007892017869
 51
356.997036131742
  0
LINE
  5
5B4
330
1A
100
AcDbEntity
  8
NOKITOI
  6
PHANTOM
 62
     8
100
AcDbLine
 10
82.08539620712167
 20
83.27365010632556
 30
0.0
 11
82.26659620712167
 21
86.71515010632569
 31
0.0
  0
LINE
  5
5B5
330
1A
100
AcDbEntity
  8
NOKITOI
  6
PHANTOM
 62
     8
100
AcDbLine
 10
81.71159620712183
 20
86.10205010632544
 30
0.0
 11
82.26659620712167
 21
86.71515010632569
 31
0.0
  0
ARC
  5
5B6
330
1A
100
AcDbEntity
  8
NOKITOI
  6
PHANTOM
 62
     8
100
AcDbCircle
 10
80.23911641979088
 20
81.57370883470557
 30
0.0
 40
5.2000412730095
100
AcDbArc
 50
90.0013245430618
 51
142.0757990790548
  0
LINE
  5
5B7
330
1A
100
AcDbEntity
  8
NOKITOI
  6
PHANTOM
 62
     8
100
AcDbLine
 10
75.98779620712207
 20
89.54865010632543
 30
0.0
 11
76.1371962071214
 21
84.76975010632562
 31
0.0
  0
ARC
  5
5B8
330
1A
100
AcDbEntity
  8
NOKITOI
  6
PHANTOM
 62
     8
100
AcDbCircle
 10
80.23903408856837
 20
81.5736938888509
 30
0.0
 40
3.999989731271038
100
AcDbArc
 50
96.47731142013116
 51
181.7899836067311
  0
ARC
  5
5B9
330
1A
100
AcDbEntity
  8
NOKITOI
  6
PHANTOM
 62
     8
100
AcDbCircle
 10
79.84421042553709
 20
85.05133547202452
 30
0.0
 40
0.5000073448410256
100
AcDbArc
 50
351.872947864124
 51
96.47829282996921
  0
LINE
  5
5BA
330
1A
100
AcDbEntity
  8
NOKITOI
  6
PHANTOM
 62
     8
100
AcDbLine
 10
81.30749620712208
 20
83.27365010632556
 30
0.0
 11
81.71159620712183
 21
86.10205010632544
 31
0.0
  0
LINE
  5
5BB
330
1A
100
AcDbEntity
  8
NOKITOI
  6
PHANTOM
 62
     8
100
AcDbLine
 10
82.08539620712167
 20
83.27365010632556
 30
0.0
 11
81.30749620712208
 21
83.27365010632556
 31
0.0
  0
ARC
  5
5BC
330
1A
100
AcDbEntity
  8
NOKITOI
  6
PHANTOM
 62
     8
100
AcDbCircle
 10
80.50042280771936
 20
82.57361942944347
 30
0.0
 40
0.4999693238254178
100
AcDbArc
 50
171.8555038770531
 51
269.9969516090356
  0
LINE
  5
5BD
330
1A
100
AcDbEntity
  8
NOKITOI
  6
PHANTOM
 62
     8
100
AcDbLine
 10
82.74949620712163
 20
82.07365010632551
 30
0.0
 11
80.50039620712164
 21
82.07365010632551
 31
0.0
  0
LINE
  5
5BE
330
1A
100
AcDbEntity
  8
NOKITOI
  6
PHANTOM
 62
     8
100
AcDbLine
 10
80.00549620712149
 20
82.6444501063257
 30
0.0
 11
80.33919620712163
 21
84.98065010632567
 31
0.0
  0
LINE
  5
5BF
330
1A
100
AcDbEntity
  8
NOKITOI
  6
PHANTOM
 62
     8
100
AcDbLine
 10
79.26019620712191
 20
90.37365010632569
 30
0.0
 11
78.76019620712191
 21
87.87365010632569
 31
0.0
  0
LINE
  5
5C0
330
1A
100
AcDbEntity
  8
NOKITOI
  6
PHANTOM
 62
     8
100
AcDbLine
 10
78.76019620712191
 20
87.87365010632569
 30
0.0
 11
81.6966962071217
 21
87.87365010632569
 31
0.0
  0
LINE
  5
5C1
330
1A
100
AcDbEntity
  8
NOKITOI
  6
PHANTOM
 62
     8
100
AcDbLine
 10
76.78739620712144
 20
91.57365010632551
 30
0.0
 11
80.11399620712177
 21
91.57365010632551
 31
0.0
  0
LINE
  5
5C2
330
1A
100
AcDbEntity
  8
NOKITOI
  6
PHANTOM
 62
     8
100
AcDbLine
 10
76.78739620712144
 20
90.37365010632569
 30
0.0
 11
79.26019620712191
 21
90.37365010632569
 31
0.0
  0
ARC
  5
5C3
330
1A
100
AcDbEntity
  8
NOKITOI
  6
PHANTOM
 62
     8
100
AcDbCircle
 10
76.78740070191975
 20
89.57365474385241
 30
0.0
 40
0.7999953624857498
100
AcDbArc
 50
90.00032191805264
 51
181.7911273464193
  0
ARC
  5
5C4
330
1A
100
AcDbEntity
  8
NOKITOI
  6
PHANTOM
 62
     8
100
AcDbCircle
 10
80.11399542411323
 20
91.07365106132723
 30
0.0
 40
0.4999990449987349
100
AcDbArc
 50
348.6967198015447
 51
89.99991027369492
  0
ARC
  5
5C5
330
1A
100
AcDbEntity
  8
NOKITOI
  6
PHANTOM
 62
     8
100
AcDbCircle
 10
80.83378895256624
 20
89.57365895616893
 30
0.0
 40
0.5000088498959383
100
AcDbArc
 50
168.6864043304892
 51
270.0008312961442
  0
LINE
  5
5C6
330
1A
100
AcDbEntity
  8
NOKITOI
  6
PHANTOM
 62
     8
100
AcDbLine
 10
80.34349620712168
 20
89.67175010632544
 30
0.0
 11
80.6042962071217
 21
90.97565010632555
 31
0.0
  0
LINE
  5
5C7
330
1A
100
AcDbEntity
  8
NOKITOI
  6
PHANTOM
 62
     8
100
AcDbLine
 10
80.70089620712201
 20
86.77365010632556
 30
0.0
 11
80.23899620712176
 21
86.77365010632556
 31
0.0
  0
LINE
  5
5C8
330
1A
100
AcDbEntity
  8
NOKITOI
  6
PHANTOM
 62
     8
100
AcDbLine
 10
80.70089620712201
 20
86.77365010632556
 30
0.0
 11
81.6966962071217
 21
87.87365010632569
 31
0.0
  0
LINE
  5
5C9
330
1A
100
AcDbEntity
  8
NOKITOI
  6
PHANTOM
 62
     8
100
AcDbLine
 10
83.24889620712179
 20
82.5474501063255
 30
0.0
 11
83.56469620712164
 21
88.54735010632552
 31
0.0
  0
ARC
  5
5CA
330
1A
100
AcDbEntity
  8
NOKITOI
  6
PHANTOM
 62
     8
100
AcDbCircle
 10
83.06529000596379
 20
88.57365664141079
 30
0.0
 40
0.4999934649531607
100
AcDbArc
 50
356.9955363203376
 51
89.99928939038076
  0
LINE
  5
5CB
330
1A
100
AcDbEntity
  8
NOKITOI
  6
PHANTOM
 62
     8
100
AcDbLine
 10
167.3668962071217
 20
36.57355010632554
 30
0.0
 11
147.208996207122
 21
36.57355010632554
 31
0.0
  0
LINE
  5
5CC
330
1A
100
AcDbEntity
  8
NOKITOI
  6
PHANTOM
 62
     8
100
AcDbLine
 10
167.1170962071216
 20
37.77355010632558
 30
0.0
 11
147.208996207122
 21
37.77355010632558
 31
0.0
  0
LINE
  5
5CD
330
1A
100
AcDbEntity
  8
NOKITOI
  6
PHANTOM
 62
     8
100
AcDbLine
 10
171.3668962071217
 20
36.57355010632554
 30
0.0
 11
126.5374962071216
 21
36.57365010632551
 31
0.0
  0
LINE
  5
5CE
330
1A
100
AcDbEntity
  8
NOKITOI
  6
PHANTOM
 62
     8
100
AcDbLine
 10
126.5374962071216
 20
37.77365010632556
 30
0.0
 11
171.1170962071216
 21
37.77355010632558
 31
0.0
  0
LINE
  5
5CF
330
1A
100
AcDbEntity
  8
NOKITOI
  6
PHANTOM
 62
     8
100
AcDbLine
 10
193.1213962071217
 20
78.71105010632558
 30
0.0
 11
193.2068962071213
 21
81.44865010632551
 31
0.0
  0
LINE
  5
5D0
330
1A
100
AcDbEntity
  8
NOKITOI
  6
PHANTOM
 62
     8
100
AcDbLine
 10
194.6593962071217
 20
89.51115010632552
 30
0.0
 11
194.2692962071216
 21
77.02675010632546
 31
0.0
  0
LINE
  5
5D1
330
1A
100
AcDbEntity
  8
NOKITOI
  6
PHANTOM
 62
     8
100
AcDbLine
 10
192.7699962071216
 20
75.57365010632551
 30
0.0
 11
186.6288962071218
 21
75.57365010632551
 31
0.0
  0
LINE
  5
5D2
330
1A
100
AcDbEntity
  8
NOKITOI
  6
PHANTOM
 62
     8
100
AcDbLine
 10
185.0903962071213
 20
76.77365010632556
 30
0.0
 11
191.1222962071217
 21
76.77365010632556
 31
0.0
  0
LINE
  5
5D3
330
1A
100
AcDbEntity
  8
NOKITOI
  6
PHANTOM
 62
     8
100
AcDbLine
 10
185.6338962071219
 20
74.67315010632555
 30
0.0
 11
182.7650962071217
 21
45.98575010632552
 31
0.0
  0
LINE
  5
5D4
330
1A
100
AcDbEntity
  8
NOKITOI
  6
PHANTOM
 62
     8
100
AcDbLine
 10
184.5928962071218
 20
76.32345010632556
 30
0.0
 11
181.5998962071214
 21
46.39365010632545
 31
0.0
  0
LINE
  5
5D5
330
1A
100
AcDbEntity
  8
NOKITOI
  6
PHANTOM
 62
     8
100
AcDbLine
 10
182.4032962071216
 20
45.31125010632567
 30
0.0
 11
172.0001962071216
 21
36.79955010632565
 31
0.0
  0
LINE
  5
5D6
330
1A
100
AcDbEntity
  8
NOKITOI
  6
PHANTOM
 62
     8
100
AcDbLine
 10
181.418996207122
 20
46.05635010632553
 30
0.0
 11
171.4336962071217
 21
37.88655010632541
 31
0.0
  0
ARC
  5
5D7
330
1A
100
AcDbEntity
  8
NOKITOI
  6
PHANTOM
 62
     8
100
AcDbCircle
 10
171.3668892745442
 20
37.57354763131942
 30
0.0
 40
0.9999975250179316
100
AcDbArc
 50
270.0003972084035
 51
309.2946416752299
  0
ARC
  5
5D8
330
1A
100
AcDbEntity
  8
NOKITOI
  6
PHANTOM
 62
     8
100
AcDbCircle
 10
171.1171025948703
 20
38.27355238631511
 30
0.0
 40
0.5000022800304047
100
AcDbArc
 50
269.9992680212791
 51
309.2854498596061
  0
ARC
  5
5D9
330
1A
100
AcDbEntity
  8
NOKITOI
  6
PHANTOM
 62
     8
100
AcDbCircle
 10
181.7700736342528
 20
46.08520803465293
 30
0.0
 40
0.9999908507640039
100
AcDbArc
 50
309.288709223069
 51
354.2862329477532
  0
ARC
  5
5DA
330
1A
100
AcDbEntity
  8
NOKITOI
  6
PHANTOM
 62
     8
100
AcDbCircle
 10
181.1023787812434
 20
46.44331761993757
 30
0.0
 40
0.4999904508696396
100
AcDbArc
 50
309.2900846377951
 51
354.2990110749239
  0
ARC
  5
5DB
330
1A
100
AcDbEntity
  8
NOKITOI
  6
PHANTOM
 62
     8
100
AcDbCircle
 10
186.6289168569626
 20
74.57366879417472
 30
0.0
 40
0.9999813123640345
100
AcDbArc
 50
90.00118317084911
 51
174.2905900333514
  0
ARC
  5
5DC
330
1A
100
AcDbEntity
  8
NOKITOI
  6
PHANTOM
 62
     8
100
AcDbCircle
 10
185.0904092781263
 20
76.27366193660541
 30
0.0
 40
0.499988169890889
100
AcDbArc
 50
90.00149786226634
 51
174.2966061377162
  0
ARC
  5
5DD
330
1A
100
AcDbEntity
  8
NOKITOI
  6
PHANTOM
 62
     8
100
AcDbCircle
 10
192.7700134202998
 20
77.07366678947332
 30
0.0
 40
1.500016683246579
100
AcDbArc
 50
269.9993425123344
 51
358.2076423244113
  0
ARC
  5
5DE
330
1A
100
AcDbEntity
  8
NOKITOI
  6
PHANTOM
 62
     8
100
AcDbCircle
 10
191.1223341949459
 20
78.77358692689776
 30
0.0
 40
2.000036820932882
100
AcDbArc
 50
269.9989117490344
 51
358.2110591274195
  0
LINE
  5
5DF
330
1A
100
AcDbEntity
  8
NOKITOI
  6
PHANTOM
 62
     8
100
AcDbLine
 10
192.6603962071219
 20
91.57355010632555
 30
0.0
 11
189.3337962071216
 21
91.57365010632551
 31
0.0
  0
LINE
  5
5E0
330
1A
100
AcDbEntity
  8
NOKITOI
  6
PHANTOM
 62
     8
100
AcDbLine
 10
190.6876962071216
 20
87.87365010632569
 30
0.0
 11
187.7510962071216
 21
87.87365010632569
 31
0.0
  0
ARC
  5
5E1
330
1A
100
AcDbEntity
  8
NOKITOI
  6
PHANTOM
 62
     8
100
AcDbCircle
 10
189.6036255796213
 20
85.05128033882042
 30
0.0
 40
0.4999578477751074
100
AcDbArc
 50
83.52609071220754
 51
188.1330561712932
  0
ARC
  5
5E2
330
1A
100
AcDbEntity
  8
NOKITOI
  6
PHANTOM
 62
     8
100
AcDbCircle
 10
189.2088783407704
 20
81.57365883470546
 30
0.0
 40
5.199991271650611
100
AcDbArc
 50
37.92532860472995
 51
89.9998031407256
  0
LINE
  5
5E3
330
1A
100
AcDbEntity
  8
NOKITOI
  6
PHANTOM
 62
     8
100
AcDbLine
 10
187.3623962071216
 20
83.27365010632556
 30
0.0
 11
187.1812962071214
 21
86.71505010632548
 31
0.0
  0
LINE
  5
5E4
330
1A
100
AcDbEntity
  8
NOKITOI
  6
PHANTOM
 62
     8
100
AcDbLine
 10
187.7362962071217
 20
86.10205010632544
 30
0.0
 11
187.1812962071214
 21
86.71505010632548
 31
0.0
  0
LINE
  5
5E5
330
1A
100
AcDbEntity
  8
NOKITOI
  6
PHANTOM
 62
     8
100
AcDbLine
 10
186.1989962071217
 20
82.54735010632552
 30
0.0
 11
185.8831962071214
 21
88.54735010632552
 31
0.0
  0
LINE
  5
5E6
330
1A
100
AcDbEntity
  8
NOKITOI
  6
PHANTOM
 62
     8
100
AcDbLine
 10
188.1402962071213
 20
83.27365010632556
 30
0.0
 11
187.7362962071217
 21
86.10205010632544
 31
0.0
  0
LINE
  5
5E7
330
1A
100
AcDbEntity
  8
NOKITOI
  6
PHANTOM
 62
     8
100
AcDbLine
 10
187.3623962071216
 20
83.27365010632556
 30
0.0
 11
188.1402962071213
 21
83.27365010632556
 31
0.0
  0
LINE
  5
5E8
330
1A
100
AcDbEntity
  8
NOKITOI
  6
PHANTOM
 62
     8
100
AcDbLine
 10
186.6982962071217
 20
82.07365010632551
 30
0.0
 11
188.9473962071212
 21
82.07365010632551
 31
0.0
  0
ARC
  5
5E9
330
1A
100
AcDbEntity
  8
NOKITOI
  6
PHANTOM
 62
     8
100
AcDbCircle
 10
186.6983003285283
 20
82.57364619629502
 30
0.0
 40
0.4999960899864752
100
AcDbArc
 50
183.0147243791741
 51
269.9995277178593
  0
ARC
  5
5EA
330
1A
100
AcDbEntity
  8
NOKITOI
  6
PHANTOM
 62
     8
100
AcDbCircle
 10
188.9474063935578
 20
82.57366185104965
 30
0.0
 40
0.5000117448278309
100
AcDbArc
 50
269.9988327478016
 51
8.127314608715551
  0
LINE
  5
5EB
330
1A
100
AcDbEntity
  8
NOKITOI
  6
PHANTOM
 62
     8
100
AcDbLine
 10
189.4423962071216
 20
82.64435010632551
 30
0.0
 11
189.1085962071217
 21
84.98055010632569
 31
0.0
  0
LINE
  5
5EC
330
1A
100
AcDbEntity
  8
NOKITOI
  6
PHANTOM
 62
     8
100
AcDbLine
 10
186.3824962071218
 20
89.07365010632551
 30
0.0
 11
188.6139962071217
 21
89.07365010632551
 31
0.0
  0
ARC
  5
5ED
330
1A
100
AcDbEntity
  8
NOKITOI
  6
PHANTOM
 62
     8
100
AcDbCircle
 10
186.3824999166169
 20
88.57365401635624
 30
0.0
 40
0.4999960899831856
100
AcDbArc
 50
90.00042508015082
 51
183.0156217414647
  0
ARC
  5
5EE
330
1A
100
AcDbEntity
  8
NOKITOI
  6
PHANTOM
 62
     8
100
AcDbCircle
 10
189.3337889525662
 20
91.07364125648208
 30
0.0
 40
0.500008849895925
100
AcDbArc
 50
89.99916870385415
 51
191.3135956695126
  0
ARC
  5
5EF
330
1A
100
AcDbEntity
  8
NOKITOI
  6
PHANTOM
 62
     8
100
AcDbCircle
 10
188.6139954241132
 20
89.57364915132378
 30
0.0
 40
0.4999990449987399
100
AcDbArc
 50
270.000089726305
 51
11.30328019845521
  0
LINE
  5
5F0
330
1A
100
AcDbEntity
  8
NOKITOI
  6
PHANTOM
 62
     8
100
AcDbLine
 10
189.1042962071216
 20
89.67165010632569
 30
0.0
 11
188.8434962071216
 21
90.97565010632555
 31
0.0
  0
LINE
  5
5F1
330
1A
100
AcDbEntity
  8
NOKITOI
  6
PHANTOM
 62
     8
100
AcDbLine
 10
188.7468962071218
 20
86.77365010632556
 30
0.0
 11
189.2088962071218
 21
86.77365010632556
 31
0.0
  0
LINE
  5
5F2
330
1A
100
AcDbEntity
  8
NOKITOI
  6
PHANTOM
 62
     8
100
AcDbLine
 10
188.7468962071218
 20
86.77365010632556
 30
0.0
 11
187.7510962071216
 21
87.87365010632569
 31
0.0
  0
LINE
  5
5F3
330
1A
100
AcDbEntity
  8
NOKITOI
  6
PHANTOM
 62
     8
100
AcDbLine
 10
193.4599962071212
 20
89.54865010632543
 30
0.0
 11
193.3106962071217
 21
84.76965010632566
 31
0.0
  0
ARC
  5
5F4
330
1A
100
AcDbEntity
  8
NOKITOI
  6
PHANTOM
 62
     8
100
AcDbCircle
 10
189.2088652801855
 20
81.57368585098934
 30
0.0
 40
3.99998565374706
100
AcDbArc
 50
358.208696659101
 51
83.52422380468341
  0
ARC
  5
5F5
330
1A
100
AcDbEntity
  8
NOKITOI
  6
PHANTOM
 62
     8
100
AcDbCircle
 10
192.6603849701275
 20
89.57366170014266
 30
0.0
 40
1.999988406214315
100
AcDbArc
 50
358.2088726535936
 51
89.99967808195551
  0
LINE
  5
5F6
330
1A
100
AcDbEntity
  8
NOKITOI
  6
PHANTOM
 62
     8
100
AcDbLine
 10
192.6603962071219
 20
90.3735501063255
 30
0.0
 11
190.1876962071216
 21
90.37365010632569
 31
0.0
  0
LINE
  5
5F7
330
1A
100
AcDbEntity
  8
NOKITOI
  6
PHANTOM
 62
     8
100
AcDbLine
 10
190.1876962071216
 20
90.37365010632569
 30
0.0
 11
190.6876962071216
 21
87.87365010632569
 31
0.0
  0
ARC
  5
5F8
330
1A
100
AcDbEntity
  8
NOKITOI
  6
PHANTOM
 62
     8
100
AcDbCircle
 10
192.6604401734746
 20
89.57360474385254
 30
0.0
 40
0.7999453636812564
100
AcDbArc
 50
358.2123436447881
 51
90.00314907315425
  0
LINE
  5
1D19
330
1A
100
AcDbEntity
  8
SEIHIN
100
AcDbLine
 10
153.9151721271092
 20
86.36643654948526
 30
0.0
 11
166.7026586838939
 21
99.15392320632561
 31
0.0
  0
ARC
  5
1D1B
330
1A
100
AcDbEntity
  8
SEIHIN
100
AcDbCircle
 10
153.2151720838939
 20
86.5806501063256
 30
0.0
 40
5.500000002456481
100
AcDbArc
 50
270.0
 51
315.0
  0
LINE
  5
1D1E
330
1A
100
AcDbEntity
  8
SEIHIN
100
AcDbLine
 10
88.10402668389395
 20
73.48065010632557
 30
0.0
 11
156.5288805838939
 21
73.48065010632557
 31
0.0
  0
LINE
  5
1D23
330
1A
100
AcDbEntity
  8
SEIHIN
100
AcDbLine
 10
153.2080653055293
 20
87.07354332790542
 30
0.0
 11
165.9955518838939
 21
99.86103000632557
 31
0.0
  0
LINE
  5
1D24
330
1A
100
AcDbEntity
  8
CENTER_L
100
AcDbLine
 10
140.7004534838939
 20
95.97125298043295
 30
0.0
 11
140.7004534838939
 21
71.03223552845064
 31
0.0
  0
LINE
  5
1D2A
330
1A
100
AcDbEntity
  8
SEIHIN
100
AcDbLine
 10
130.7004534838939
 20
86.78065010632559
 30
0.0
 11
130.7004534838939
 21
81.28065010632559
 31
0.0
  0
LINE
  5
1D2C
330
1A
100
AcDbEntity
  8
SEIHIN
100
AcDbLine
 10
80.50045348389392
 20
81.08065010632559
 30
0.0
 11
153.2153364656374
 21
81.08065010632559
 31
0.0
  0
ARC
  5
1D41
330
1A
100
AcDbEntity
  8
SEIHIN
100
AcDbCircle
 10
88.10402668389395
 20
75.08065010632559
 30
0.0
 40
1.599999992064534
100
AcDbArc
 50
185.0000004668387
 51
270.0
  0
LINE
  5
1D42
330
1A
100
AcDbEntity
  8
SEIHIN
100
AcDbLine
 10
81.30045348389387
 20
78.48065010632557
 30
0.0
 11
86.20045348389391
 21
78.48065010632557
 31
0.0
  0
ARC
  5
1D43
330
1A
100
AcDbEntity
  8
SEIHIN
100
AcDbCircle
 10
81.30045348389387
 20
81.5806501063256
 30
0.0
 40
3.100000000000008
100
AcDbArc
 50
180.0
 51
270.0
  0
LINE
  5
1D44
330
1A
100
AcDbEntity
  8
SEIHIN
100
AcDbLine
 10
78.20045348389391
 20
85.48065010632557
 30
0.0
 11
80.00045348389392
 21
85.48065010632557
 31
0.0
  0
ARC
  5
1D45
330
1A
100
AcDbEntity
  8
SEIHIN
100
AcDbCircle
 10
80.50045348389392
 20
81.5806501063256
 30
0.0
 40
0.5
100
AcDbArc
 50
180.0
 51
270.0
  0
LINE
  5
1D46
330
1A
100
AcDbEntity
  8
SEIHIN
100
AcDbLine
 10
78.20045348389391
 20
85.48065010632557
 30
0.0
 11
78.20045348389391
 21
81.5806501063256
 31
0.0
  0
LINE
  5
1D47
330
1A
100
AcDbEntity
  8
SEIHIN
100
AcDbLine
 10
80.00045348389392
 20
85.48065010632557
 30
0.0
 11
80.00045348389392
 21
81.5806501063256
 31
0.0
  0
LINE
  5
1D48
330
1A
100
AcDbEntity
  8
SEIHIN
100
AcDbLine
 10
86.5101151838939
 20
74.94120090632559
 30
0.0
 11
85.97298294412743
 21
81.08065010632557
 31
0.0
  0
LINE
  5
1D4B
330
1A
100
AcDbEntity
  8
SEIHIN
100
AcDbLine
 10
130.7004534838939
 20
85.7806501063256
 30
0.0
 11
152.5009585592033
 21
85.7806501063256
 31
0.0
  0
LINE
  5
1D4D
330
1A
100
AcDbEntity
  8
SEIHIN
100
AcDbLine
 10
130.7004534838939
 20
81.08065010632559
 30
0.0
 11
153.2151720838939
 21
81.08065010632559
 31
0.0
  0
ARC
  5
1D5C
330
1A
100
AcDbEntity
  8
SEIHIN
100
AcDbCircle
 10
140.7004534838939
 20
80.89002510632559
 30
0.0
 40
7.890625
100
AcDbArc
 50
48.29108392084388
 51
131.708916079156
  0
LINE
  5
1D5D
330
1A
100
AcDbEntity
  8
SEIHIN
100
AcDbLine
 10
130.7004534838939
 20
86.78065010632559
 30
0.0
 11
152.5009585215764
 21
86.78065010632558
 31
0.0
  0
LINE
  5
1D5E
330
1A
100
AcDbEntity
  8
SEIHIN
100
AcDbLine
 10
328.6242489500488
 20
97.01597910632557
 30
0.0
 11
328.6242489500488
 21
72.61302210632557
 31
0.0
  0
LINE
  5
1D60
330
1A
100
AcDbEntity
  8
CENTER_L
100
AcDbLine
 10
318.6242489500488
 20
151.8304220083195
 30
0.0
 11
318.6242489500488
 21
67.53352250632558
 31
0.0
  0
LINE
  5
1D61
330
1A
100
AcDbEntity
  8
SEIHIN
100
AcDbLine
 10
328.6242489500488
 20
142.1946284063255
 30
0.0
 11
328.6242489500488
 21
97.01597910632557
 31
0.0
  0
LINE
  5
1D62
330
1A
100
AcDbEntity
  8
SEIHIN
100
AcDbLine
 10
331.2242489500488
 20
95.51597910632557
 30
0.0
 11
331.2242489500488
 21
73.48065010632557
 31
0.0
  0
LINE
  5
1D63
330
1A
100
AcDbEntity
  8
SEIHIN
100
AcDbLine
 10
314.6242489500488
 20
97.01597910632557
 30
0.0
 11
314.6242489500488
 21
73.11302210632558
 31
0.0
  0
LINE
  5
1D64
330
1A
100
AcDbEntity
  8
SEIHIN
100
AcDbLine
 10
322.6242489500488
 20
97.01597910632557
 30
0.0
 11
322.6242489500488
 21
73.11302210632558
 31
0.0
  0
LINE
  5
1D65
330
1A
100
AcDbEntity
  8
SEIHIN
100
AcDbLine
 10
200.2004534838939
 20
92.58065010632561
 30
0.0
 11
200.2004534838939
 21
75.55513242889742
 31
0.0
  0
LINE
  5
1D66
330
1A
100
AcDbEntity
  8
SEIHIN
100
AcDbLine
 10
308.6242489500488
 20
142.1946284063255
 30
0.0
 11
308.6242489500488
 21
97.01597910632557
 31
0.0
  0
LINE
  5
1D67
330
1A
100
AcDbEntity
  8
SEIHIN
100
AcDbLine
 10
196.6004534838939
 20
92.58065010632561
 30
0.0
 11
196.6004534838939
 21
75.60754020632559
 31
0.0
  0
LINE
  5
1D68
330
1A
100
AcDbEntity
  8
SEIHIN
100
AcDbLine
 10
199.2004534838939
 20
92.58065010632561
 30
0.0
 11
199.2004534838939
 21
75.60754020632559
 31
0.0
  0
LINE
  5
1D6A
330
1A
100
AcDbEntity
  8
SEIHIN
100
AcDbLine
 10
306.0242489500488
 20
95.51597910632557
 30
0.0
 11
306.0242489500488
 21
73.48065010632557
 31
0.0
  0
LINE
  5
1D6B
330
1A
100
AcDbEntity
  8
SEIHIN
100
AcDbLine
 10
308.6242489500488
 20
97.01597910632557
 30
0.0
 11
308.6242489500488
 21
72.61302210632557
 31
0.0
  0
LINE
  5
1D6C
330
1A
100
AcDbEntity
  8
SEIHIN
100
AcDbLine
 10
160.1351251838939
 20
74.97440550632557
 30
0.0
 11
174.5349551428826
 21
89.37423554255429
 31
0.0
  0
LINE
  5
1D6E
330
1A
100
AcDbEntity
  8
SEIHIN
100
AcDbLine
 10
157.1042593838939
 20
82.69156280632559
 30
0.0
 11
168.9348089788388
 21
94.52211240127054
 31
0.0
  0
LINE
  5
1D79
330
1A
100
AcDbEntity
  8
SEIHIN
100
AcDbLine
 10
171.1816797838939
 20
72.07557300632557
 30
0.0
 11
183.1247261838939
 21
77.90058590632559
 31
0.0
  0
LINE
  5
1D7A
330
1A
100
AcDbEntity
  8
SEIHIN
100
AcDbLine
 10
171.8392363838939
 20
70.72738180632557
 30
0.0
 11
183.1247261838939
 21
76.23168300632558
 31
0.0
  0
LINE
  5
1D7B
330
1A
100
AcDbEntity
  8
SEIHIN
100
AcDbLine
 10
171.0063313838939
 20
72.43509060632558
 30
0.0
 11
182.8493776838939
 21
78.21133020632557
 31
0.0
  0
LINE
  5
1D7D
330
1A
100
AcDbEntity
  8
SEIHIN
100
AcDbLine
 10
160.1239814349678
 20
74.96329610296388
 30
0.0
 11
169.2562682838939
 21
70.70484080632557
 31
0.0
  0
ARC
  5
1D7E
330
1A
100
AcDbEntity
  8
SEIHIN
100
AcDbCircle
 10
156.5288805838939
 20
78.58065010632559
 30
0.0
 40
5.100000011277387
100
AcDbArc
 50
270.0
 51
315.0
  0
LINE
  5
1D7F
330
1A
100
AcDbEntity
  8
SEIHIN
100
AcDbLine
 10
161.5537307595119
 20
76.39301108955303
 30
0.0
 11
170.0592430838939
 21
72.42682560632558
 31
0.0
  0
LINE
  5
1D80
330
1A
100
AcDbEntity
  8
SEIHIN
100
AcDbLine
 10
161.2527358498275
 20
76.09201617825398
 30
0.0
 11
169.8901957838939
 21
72.06430250632557
 31
0.0
  0
ARC
  5
1D81
330
1A
100
AcDbEntity
  8
SEIHIN
100
AcDbCircle
 10
170.5241231838939
 20
73.42376410632557
 30
0.0
 40
1.499999997384386
100
AcDbArc
 50
244.9999984438223
 51
295.9999936879063
  0
ARC
  5
1D83
330
1A
100
AcDbEntity
  8
SEIHIN
100
AcDbCircle
 10
170.5241231838939
 20
73.42376410632557
 30
0.0
 40
1.099999981342675
100
AcDbArc
 50
244.9999979823536
 51
295.9999960018844
  0
ARC
  5
1D84
330
1A
100
AcDbEntity
  8
SEIHIN
100
AcDbCircle
 10
170.5241231838939
 20
73.42376410632557
 30
0.0
 40
2.9999999920909
100
AcDbArc
 50
244.9999949819811
 51
295.999994525133
  0
ARC
  5
1D86
330
1A
100
AcDbEntity
  8
SEIHIN
100
AcDbCircle
 10
181.1958930838938
 20
81.85527970632559
 30
0.0
 40
4.400000010194002
100
AcDbArc
 50
296.0000006547247
 51
359.9999934891161
  0
ARC
  5
1D87
330
1A
100
AcDbEntity
  8
SEIHIN
100
AcDbCircle
 10
181.0958930838939
 20
81.80650640632556
 30
0.0
 40
4.000000009467725
100
AcDbArc
 50
296.0000000723986
 51
0.0
  0
LINE
  5
1D88
330
1A
100
AcDbEntity
  8
SEIHIN
100
AcDbLine
 10
185.5958930838939
 20
80.18637630632559
 30
0.0
 11
185.5958930838939
 21
84.31460690632558
 31
0.0
  0
ARC
  5
1D8A
330
1A
100
AcDbEntity
  8
SEIHIN
100
AcDbCircle
 10
181.1958930838938
 20
80.18637680632558
 30
0.0
 40
4.400000010194002
100
AcDbArc
 50
296.0000006547247
 51
359.9999934891161
  0
LINE
  5
1D8B
330
1A
100
AcDbEntity
  8
SEIHIN
100
AcDbLine
 10
185.0958930838939
 20
84.31460690632558
 30
0.0
 11
185.5958930838939
 21
84.31460690632558
 31
0.0
  0
LINE
  5
1D8C
330
1A
100
AcDbEntity
  8
SEIHIN
100
AcDbLine
 10
185.0958930838939
 20
81.80650640632556
 30
0.0
 11
185.0958930838939
 21
84.31460690632558
 31
0.0
  0
LINE
  5
1D92
330
1A
100
AcDbEntity
  8
SEIHIN
100
AcDbLine
 10
189.7100466838939
 20
75.44700180632559
 30
0.0
 11
189.5792068261609
 21
72.95042800935125
 31
0.0
  0
ARC
  5
1D93
330
1A
100
AcDbEntity
  8
SEIHIN
100
AcDbCircle
 10
196.2004534838939
 20
75.60754020632559
 30
0.0
 40
2.999999998689364
100
AcDbArc
 50
266.9999993993207
 51
0.0
  0
LINE
  5
1D94
330
1A
100
AcDbEntity
  8
SEIHIN
100
AcDbLine
 10
197.0434456128645
 20
72.55924382475426
 30
0.0
 11
189.5792068838939
 21
72.95042800632559
 31
0.0
  0
LINE
  5
1D96
330
1A
100
AcDbEntity
  8
SEIHIN
100
AcDbLine
 10
196.1795190838939
 20
75.20808840632558
 30
0.0
 11
189.7152802838939
 21
75.54686480632558
 31
0.0
  0
ARC
  5
1D97
330
1A
100
AcDbEntity
  8
SEIHIN
100
AcDbCircle
 10
196.2004534838939
 20
75.60754020632559
 30
0.0
 40
0.3999999935166316
100
AcDbArc
 50
266.999997392128
 51
0.0
  0
LINE
  5
1D9E
330
1A
100
AcDbEntity
  8
SEIHIN
100
AcDbLine
 10
306.0242489500488
 20
73.48065010632557
 30
0.0
 11
308.6242489500488
 21
73.48065010632557
 31
0.0
  0
LINE
  5
1DA4
330
1A
100
AcDbEntity
  8
SEIHIN
100
AcDbLine
 10
308.6242489500488
 20
72.61302210632557
 30
0.0
 11
328.6242489500488
 21
72.61302210632557
 31
0.0
  0
LINE
  5
1DA6
330
1A
100
AcDbEntity
  8
SEIHIN
100
AcDbLine
 10
328.6242489500488
 20
73.48065010632557
 30
0.0
 11
331.2242489500488
 21
73.48065010632557
 31
0.0
  0
ARC
  5
1DA7
330
1A
100
AcDbEntity
  8
SEIHIN
100
AcDbCircle
 10
346.6242489500488
 20
139.1946284063255
 30
0.0
 40
3.0
100
AcDbArc
 50
0.0000019098594751
 51
90.0
  0
ARC
  5
1DA8
330
1A
100
AcDbEntity
  8
SEIHIN
100
AcDbCircle
 10
346.6242489500488
 20
110.1946284063255
 30
0.0
 40
3.000000000000003
100
AcDbArc
 50
270.0
 51
0.0000038197189503
  0
LINE
  5
1DA9
330
1A
100
AcDbEntity
  8
SEIHIN
100
AcDbLine
 10
210.6008705838938
 20
142.1946284063255
 30
0.0
 11
210.6008705838938
 21
107.1946284063255
 31
0.0
  0
LINE
  5
1DAB
330
1A
100
AcDbEntity
  8
SEIHIN
100
AcDbLine
 10
217.2008705838939
 20
142.1946284063255
 30
0.0
 11
217.2008705838939
 21
107.1946284063255
 31
0.0
  0
LINE
  5
1DAC
330
1A
100
AcDbEntity
  8
SEIHIN
100
AcDbLine
 10
215.6008705838939
 20
142.1946284063255
 30
0.0
 11
215.6008705838939
 21
107.1946284063255
 31
0.0
  0
LINE
  5
1DAE
330
1A
100
AcDbEntity
  8
SEIHIN
100
AcDbLine
 10
194.4649416838939
 20
97.01734950632555
 30
0.0
 11
171.8810930838939
 21
95.83378020632556
 31
0.0
  0
LINE
  5
1DB0
330
1A
100
AcDbEntity
  8
SEIHIN
100
AcDbLine
 10
207.9159954838939
 20
103.5202062063255
 30
0.0
 11
170.2515624838938
 21
101.7559280063255
 31
0.0
  0
LINE
  5
1DB1
330
1A
100
AcDbEntity
  8
SEIHIN
100
AcDbLine
 10
211.2532064838938
 20
102.6937296063255
 30
0.0
 11
170.3038984838939
 21
100.7572985063255
 31
0.0
  0
LINE
  5
1DB3
330
1A
100
AcDbEntity
  8
SEIHIN
100
AcDbLine
 10
194.6010151838939
 20
94.42091270632557
 30
0.0
 11
180.2004534838939
 21
93.66621129616653
 31
0.0
  0
ARC
  5
1DB6
330
1A
100
AcDbEntity
  8
SEIHIN
100
AcDbCircle
 10
172.1166048838939
 20
91.3399473063256
 30
0.0
 40
4.499999985879004
100
AcDbArc
 50
92.99999996493296
 51
135.0
  0
ARC
  5
1DB8
330
1A
100
AcDbEntity
  8
SEIHIN
100
AcDbCircle
 10
170.5917461838939
 20
95.26483600632559
 30
0.0
 40
5.500000065643712
100
AcDbArc
 50
92.99999935063343
 51
135.0000022098678
  0
ARC
  5
1DB9
330
1A
100
AcDbEntity
  8
SEIHIN
100
AcDbCircle
 10
170.5917461838939
 20
95.26483600632559
 30
0.0
 40
6.500000024766264
100
AcDbArc
 50
92.99999897148103
 51
135.000002493184
  0
LINE
  5
1DBA
330
1A
100
AcDbEntity
  8
SEIHIN
100
AcDbLine
 10
212.2008705838938
 20
106.8978789063255
 30
0.0
 11
207.9159954838939
 21
103.5202062063255
 31
0.0
  0
ARC
  5
1DBB
330
1A
100
AcDbEntity
  8
SEIHIN
100
AcDbCircle
 10
194.7004534838939
 20
92.52351660632559
 30
0.0
 40
4.499999996725646
100
AcDbArc
 50
0.0
 51
92.99999996493296
  0
ARC
  5
1DBC
330
1A
100
AcDbEntity
  8
SEIHIN
100
AcDbCircle
 10
194.7004534838939
 20
92.52351660632559
 30
0.0
 40
5.500000030448694
100
AcDbArc
 50
0.0
 51
68.36289348814613
  0
ARC
  5
1DBD
330
1A
100
AcDbEntity
  8
SEIHIN
100
AcDbCircle
 10
194.7004534838939
 20
92.52351660632559
 30
0.0
 40
1.899999991552915
100
AcDbArc
 50
0.0
 51
92.99999951753015
  0
ARC
  5
1DBE
330
1A
100
AcDbEntity
  8
SEIHIN
100
AcDbCircle
 10
211.2008705838939
 20
103.6923592063256
 30
0.0
 40
5.50000003044868
100
AcDbArc
 50
273.0000003909445
 51
0.0
  0
LINE
  5
1DBF
330
1A
100
AcDbEntity
  8
SEIHIN
100
AcDbLine
 10
217.2008705838939
 20
107.1946284063255
 30
0.0
 11
210.6008705838938
 21
107.1946284063255
 31
0.0
  0
ARC
  5
1DC0
330
1A
100
AcDbEntity
  8
SEIHIN
100
AcDbCircle
 10
211.2008705838939
 20
103.6923592063256
 30
0.0
 40
1.000000031106234
100
AcDbArc
 50
272.9999965862871
 51
0.0
  0
LINE
  5
1DC1
330
1A
100
AcDbEntity
  8
SEIHIN
100
AcDbLine
 10
212.2008705838938
 20
107.1946284063255
 30
0.0
 11
212.2008705838938
 21
103.6923592063256
 31
0.0
  0
LINE
  5
1DC2
330
1A
100
AcDbEntity
  8
SEIHIN
100
AcDbLine
 10
216.7008705838938
 20
107.1946284063255
 30
0.0
 11
216.7008705838938
 21
103.6923592063256
 31
0.0
  0
LINE
  5
1DC3
330
1A
100
AcDbEntity
  8
SEIHIN
100
AcDbLine
 10
217.2008705838939
 20
142.1946284063255
 30
0.0
 11
210.6008705838938
 21
142.1946284063255
 31
0.0
  0
LINE
  5
1DC4
330
1A
100
AcDbEntity
  8
SEIHIN
100
AcDbLine
 10
329.1242489500488
 20
142.1946284063255
 30
0.0
 11
329.1242489500488
 21
107.1946284063255
 31
0.0
  0
LINE
  5
1DC7
330
1A
100
AcDbEntity
  8
CENTER_L
100
AcDbLine
 10
296.6242489500488
 20
140.2946284063256
 30
0.0
 11
296.6242489500488
 21
128.0946284063255
 31
0.0
  0
LINE
  5
1DC9
330
1A
100
AcDbEntity
  8
SEIHIN
100
AcDbLine
 10
287.6242489500488
 20
139.1946285063255
 30
0.0
 11
287.6242489500488
 21
110.1946286063255
 31
0.0
  0
LINE
  5
1DCA
330
1A
100
AcDbEntity
  8
SEIHIN
100
AcDbLine
 10
308.1242489500488
 20
142.1946284063255
 30
0.0
 11
308.1242489500488
 21
107.1946284063255
 31
0.0
  0
LINE
  5
1DCC
330
1A
100
AcDbEntity
  8
SEIHIN
100
AcDbLine
 10
315.6242489500488
 20
98.01597910632558
 30
0.0
 11
321.6242489500488
 21
98.01597910632558
 31
0.0
  0
ARC
  5
1DCF
330
1A
100
AcDbEntity
  8
SEIHIN
100
AcDbCircle
 10
290.6242489500488
 20
110.1946284063255
 30
0.0
 40
3.000000000000003
100
AcDbArc
 50
179.999996180281
 51
270.0
  0
LINE
  5
1DD1
330
1A
100
AcDbEntity
  8
SEIHIN
100
AcDbLine
 10
290.6242489500488
 20
107.1946284063255
 30
0.0
 11
308.6242489500488
 21
107.1946284063255
 31
0.0
  0
ARC
  5
1DD3
330
1A
100
AcDbEntity
  8
SEIHIN
100
AcDbCircle
 10
307.5242489500488
 20
95.51597910632557
 30
0.0
 40
1.5
100
AcDbArc
 50
90.0
 51
180.0
  0
LINE
  5
1DD5
330
1A
100
AcDbEntity
  8
SEIHIN
100
AcDbLine
 10
307.5242489500488
 20
97.01597910632557
 30
0.0
 11
314.2100353876757
 21
97.01597910632557
 31
0.0
  0
CIRCLE
  5
1DD8
330
1A
100
AcDbEntity
  8
SEIHIN
100
AcDbCircle
 10
296.6242489500488
 20
115.1946284063255
 30
0.0
 40
2.100000000000022
  0
LINE
  5
1DE0
330
1A
100
AcDbEntity
  8
SEIHIN
100
AcDbLine
 10
328.6242489500488
 20
107.1946284063255
 30
0.0
 11
346.6242489500488
 21
107.1946284063255
 31
0.0
  0
ARC
  5
1DE2
330
1A
100
AcDbEntity
  8
SEIHIN
100
AcDbCircle
 10
329.7242489500488
 20
95.51597910632557
 30
0.0
 40
1.5
100
AcDbArc
 50
0.0
 51
90.0
  0
LINE
  5
1DE4
330
1A
100
AcDbEntity
  8
SEIHIN
100
AcDbLine
 10
323.0384625124219
 20
97.01597910632557
 30
0.0
 11
329.7242489500488
 21
97.01597910632557
 31
0.0
  0
CIRCLE
  5
1DEB
330
1A
100
AcDbEntity
  8
SEIHIN
100
AcDbCircle
 10
340.6242489500488
 20
115.1946284063255
 30
0.0
 40
2.100000000000022
  0
LINE
  5
1DEE
330
1A
100
AcDbEntity
  8
SEIHIN
100
AcDbLine
 10
290.6242489500488
 20
142.1946284063255
 30
0.0
 11
346.6242489500488
 21
142.1946284063255
 31
0.0
  0
LINE
  5
1DEF
330
1A
100
AcDbEntity
  8
CENTER_L
100
AcDbLine
 10
290.5242489500488
 20
134.1946284063255
 30
0.0
 11
302.7242489500488
 21
134.1946284063255
 31
0.0
  0
LINE
  5
1DF2
330
1A
100
AcDbEntity
  8
SEIHIN
100
AcDbLine
 10
328.6242489500488
 20
142.1946284063255
 30
0.0
 11
308.6242489500488
 21
142.1946284063255
 31
0.0
  0
ARC
  5
1DF3
330
1A
100
AcDbEntity
  8
SEIHIN
100
AcDbCircle
 10
290.6242489500488
 20
139.1946284063255
 30
0.0
 40
3.0
100
AcDbArc
 50
90.0
 51
180.0
  0
CIRCLE
  5
1DF4
330
1A
100
AcDbEntity
  8
SEIHIN
100
AcDbCircle
 10
296.6242489500488
 20
134.1946284063255
 30
0.0
 40
2.100000000000022
  0
CIRCLE
  5
1E06
330
1A
100
AcDbEntity
  8
SEIHIN
100
AcDbCircle
 10
340.6242489500488
 20
134.1946284063255
 30
0.0
 40
2.100000000000022
  0
LINE
  5
1E0A
330
1A
100
AcDbEntity
  8
SEIHIN
100
AcDbLine
 10
349.6242489500488
 20
139.1946285063255
 30
0.0
 11
349.6242489500488
 21
110.1946286063255
 31
0.0
  0
LINE
  5
1EC3
330
1A
100
AcDbEntity
  8
SEIHIN
100
AcDbLine
 10
78.20045348389391
 20
237.6452709382145
 30
0.0
 11
85.97298294412741
 21
237.6452709382145
 31
0.0
  0
LINE
  5
1EC4
330
1A
100
AcDbEntity
  8
SEIHIN
100
AcDbLine
 10
216.2008705838939
 20
217.1452709382145
 30
0.0
 11
212.5008705838939
 21
217.1452709382145
 31
0.0
  0
LINE
  5
1EC5
330
1A
100
AcDbEntity
  8
SEIHIN
100
AcDbLine
 10
217.2008705838939
 20
196.6452709382146
 30
0.0
 11
215.6008705838939
 21
196.6452709382146
 31
0.0
  0
LINE
  5
1EC6
330
1A
100
AcDbEntity
  8
CENTER_L
100
AcDbLine
 10
224.2008705838939
 20
227.6452709382145
 30
0.0
 11
71.20045348389391
 21
227.6452709382145
 31
0.0
  0
LINE
  5
1EC7
330
1A
100
AcDbEntity
  8
SEIHIN
100
AcDbLine
 10
217.2008705838939
 20
216.1452709382146
 30
0.0
 11
217.2008705838939
 21
196.6452709382146
 31
0.0
  0
LINE
  5
1EC8
330
1A
100
AcDbEntity
  8
SEIHIN
100
AcDbLine
 10
210.6008705838938
 20
216.5452709382146
 30
0.0
 11
210.6008705838939
 21
238.7452709382145
 31
0.0
  0
LINE
  5
1EC9
330
1A
100
AcDbEntity
  8
SEIHIN
100
AcDbLine
 10
215.6008705838939
 20
196.6452709382146
 30
0.0
 11
215.6008705838939
 21
215.0452709382145
 31
0.0
  0
LINE
  5
1ECB
330
1A
100
AcDbEntity
  8
SEIHIN
100
AcDbLine
 10
78.20045348389391
 20
217.6452709382146
 30
0.0
 11
85.97298294412743
 21
217.6452709382146
 31
0.0
  0
LINE
  5
1ECC
330
1A
100
AcDbEntity
  8
SEIHIN
100
AcDbLine
 10
211.6008705838939
 20
215.5452709382145
 30
0.0
 11
215.1008705838939
 21
215.5452709382145
 31
0.0
  0
LINE
  5
1ECD
330
1A
100
AcDbEntity
  8
SEIHIN
100
AcDbLine
 10
212.2008705838938
 20
217.4452709382145
 30
0.0
 11
212.2008705838939
 21
237.8452709382145
 31
0.0
  0
ARC
  5
1ECE
330
1A
100
AcDbEntity
  8
SEIHIN
100
AcDbCircle
 10
216.2008705838939
 20
216.1452709382146
 30
0.0
 40
1.0
100
AcDbArc
 50
359.9999999999983
 51
90.0
  0
ARC
  5
1ECF
330
1A
100
AcDbEntity
  8
SEIHIN
100
AcDbCircle
 10
211.6008705838939
 20
216.5452709382146
 30
0.0
 40
1.0
100
AcDbArc
 50
180.0000000000016
 51
270.0
  0
ARC
  5
1ED0
330
1A
100
AcDbEntity
  8
SEIHIN
100
AcDbCircle
 10
215.1008705838939
 20
215.0452709382146
 30
0.0
 40
0.5
100
AcDbArc
 50
359.9999999999967
 51
89.99999999999674
  0
LINE
  5
1ED1
330
1A
100
AcDbEntity
  8
CENTER_L
100
AcDbLine
 10
208.6008705838939
 20
205.6452709382146
 30
0.0
 11
224.2008705838939
 21
205.6452709382146
 31
0.0
  0
LINE
  5
1ED8
330
1A
100
AcDbEntity
  8
CENTER_L
100
AcDbLine
 10
140.7004534838939
 20
212.6163992256633
 30
0.0
 11
140.7004534838939
 21
242.6741426507658
 31
0.0
  0
LINE
  5
1EDA
330
1A
100
AcDbEntity
  8
SEIHIN
100
AcDbLine
 10
130.7004534838939
 20
217.6452709382146
 30
0.0
 11
130.7004534838938
 21
237.6452709382146
 31
0.0
  0
LINE
  5
1F11
330
1A
100
AcDbEntity
  8
SEIHIN
100
AcDbLine
 10
180.2004534838939
 20
96.26977943076536
 30
0.0
 11
180.2004534838939
 21
90.62011630571555
 31
0.0
  0
LINE
  5
1F12
330
1A
100
AcDbEntity
  8
SEIHIN
100
AcDbLine
 10
179.2527894422186
 20
89.62148677107007
 30
0.0
 11
174.5349551428826
 21
89.37423554255429
 31
0.0
  0
ARC
  5
1F13
330
1A
100
AcDbEntity
  8
SEIHIN
100
AcDbCircle
 10
179.2004534838939
 20
90.62011630571555
 30
0.0
 40
1.0
100
AcDbArc
 50
273.0000001194438
 51
0.0
  0
ARC
  5
1F15
330
1A
100
AcDbEntity
  8
SEIHIN
100
AcDbCircle
 10
197.2004534838939
 20
75.55513242889742
 30
0.0
 40
3.0
100
AcDbArc
 50
266.9999999560026
 51
0.0
  0
LINE
  5
1F16
330
1A
100
AcDbEntity
  8
SEIHIN
100
AcDbLine
 10
211.4887183823002
 20
98.19989673673255
 30
0.0
 11
172.0727620344258
 21
96.34382518843004
 31
0.0
  0
ARC
  5
1F1E
330
1A
100
AcDbEntity
  8
SEIHIN
100
AcDbCircle
 10
315.6242489500488
 20
97.01597910632557
 30
0.0
 40
1.0
100
AcDbArc
 50
90.0
 51
160.5287793655085
  0
ARC
  5
1F1F
330
1A
100
AcDbEntity
  8
SEIHIN
100
AcDbCircle
 10
321.6242489500488
 20
97.01597910632557
 30
0.0
 40
1.0
100
AcDbArc
 50
19.47122063449142
 51
90.0
  0
LINE
  5
1F21
330
1A
100
AcDbEntity
  8
SEIHIN
100
AcDbLine
 10
323.0384625124219
 20
97.97305404785456
 30
0.0
 11
328.1242489500489
 21
97.97305404785459
 31
0.0
  0
LINE
  5
1F22
330
1A
100
AcDbEntity
  8
SEIHIN
100
AcDbLine
 10
315.6242489500488
 20
98.97305404785456
 30
0.0
 11
321.6242489500488
 21
98.97305404785456
 31
0.0
  0
LINE
  5
1F23
330
1A
100
AcDbEntity
  8
SEIHIN
100
AcDbLine
 10
315.6242489500488
 20
98.97305404785456
 30
0.0
 11
321.6242489500488
 21
98.97305404785456
 31
0.0
  0
ARC
  5
1F25
330
1A
100
AcDbEntity
  8
SEIHIN
100
AcDbCircle
 10
315.6242489500488
 20
97.97305404785456
 30
0.0
 40
1.0
100
AcDbArc
 50
90.0
 51
160.5287793655093
  0
ARC
  5
1F27
330
1A
100
AcDbEntity
  8
SEIHIN
100
AcDbCircle
 10
321.6242489500488
 20
97.97305404785456
 30
0.0
 40
1.0
100
AcDbArc
 50
19.47122063449065
 51
90.0
  0
LINE
  5
1F28
330
1A
100
AcDbEntity
  8
SEIHIN
100
AcDbLine
 10
309.1242489500487
 20
97.97305404785458
 30
0.0
 11
314.2100353876757
 21
97.97305404785454
 31
0.0
  0
ARC
  5
1F2B
330
1A
100
AcDbEntity
  8
SEIHIN
100
AcDbCircle
 10
314.2100353876757
 20
97.51597910632559
 30
0.0
 40
0.5
100
AcDbArc
 50
270.0
 51
340.5287793655096
  0
ARC
  5
1F2C
330
1A
100
AcDbEntity
  8
SEIHIN
100
AcDbCircle
 10
323.0384625124219
 20
97.51597910632559
 30
0.0
 40
0.5
100
AcDbArc
 50
199.4712206344903
 51
270.0
  0
ARC
  5
1F2D
330
1A
100
AcDbEntity
  8
SEIHIN
100
AcDbCircle
 10
314.2100353876757
 20
98.47305404785457
 30
0.0
 40
0.5
100
AcDbArc
 50
270.0
 51
340.5287793655096
  0
ARC
  5
1F2E
330
1A
100
AcDbEntity
  8
SEIHIN
100
AcDbCircle
 10
323.0384625124219
 20
98.47305404785457
 30
0.0
 40
0.5
100
AcDbArc
 50
199.4712206344903
 51
270.0
  0
LINE
  5
1F30
330
1A
100
AcDbEntity
  8
CENTER_L
100
AcDbLine
 10
290.5242489500488
 20
115.1946284063255
 30
0.0
 11
302.7242489500488
 21
115.1946284063255
 31
0.0
  0
LINE
  5
1F31
330
1A
100
AcDbEntity
  8
CENTER_L
100
AcDbLine
 10
296.6242489500488
 20
121.2946284063256
 30
0.0
 11
296.6242489500488
 21
109.0946284063255
 31
0.0
  0
LINE
  5
1F32
330
1A
100
AcDbEntity
  8
CENTER_L
100
AcDbLine
 10
340.6242489500488
 20
121.2946284063256
 30
0.0
 11
340.6242489500488
 21
109.0946284063255
 31
0.0
  0
LINE
  5
1F33
330
1A
100
AcDbEntity
  8
CENTER_L
100
AcDbLine
 10
340.6242489500488
 20
140.2946284063256
 30
0.0
 11
340.6242489500488
 21
128.0946284063255
 31
0.0
  0
LINE
  5
1F34
330
1A
100
AcDbEntity
  8
CENTER_L
100
AcDbLine
 10
346.7242489500488
 20
115.1946284063255
 30
0.0
 11
334.5242489500488
 21
115.1946284063255
 31
0.0
  0
LINE
  5
1F35
330
1A
100
AcDbEntity
  8
CENTER_L
100
AcDbLine
 10
346.7242489500488
 20
134.1946284063255
 30
0.0
 11
334.5242489500488
 21
134.1946284063255
 31
0.0
  0
LINE
  5
1F48
330
1A
100
AcDbEntity
  8
CENTER_L
100
AcDbLine
 10
211.1008705838938
 20
115.1946284063255
 30
0.0
 11
223.3008705838939
 21
115.1946284063255
 31
0.0
  0
LINE
  5
1F49
330
1A
100
AcDbEntity
  8
CENTER_L
100
AcDbLine
 10
211.1008705838938
 20
134.1946284063255
 30
0.0
 11
223.3008705838939
 21
134.1946284063255
 31
0.0
  0
LINE
  5
1F4A
330
1A
100
AcDbEntity
  8
SEIHIN
100
AcDbLine
 10
215.6008705838939
 20
132.1946284063255
 30
0.0
 11
213.0880206156208
 21
132.1946284063255
 31
0.0
  0
LINE
  5
1F4B
330
1A
100
AcDbEntity
  8
SEIHIN
100
AcDbLine
 10
215.6008705838939
 20
136.1946284063255
 30
0.0
 11
213.0880206156208
 21
136.1946284063255
 31
0.0
  0
LINE
  5
1F4C
330
1A
100
AcDbEntity
  8
SEIHIN
100
AcDbLine
 10
307.1242489500488
 20
135.1946284063255
 30
0.0
 11
305.1242489500488
 21
135.1946284063255
 31
0.0
  0
LINE
  5
1F4D
330
1A
100
AcDbEntity
  8
SEIHIN
100
AcDbLine
 10
307.1242489500488
 20
133.1946284063255
 30
0.0
 11
305.1242489500488
 21
133.1946284063255
 31
0.0
  0
LINE
  5
1F4E
330
1A
100
AcDbEntity
  8
SEIHIN
100
AcDbLine
 10
304.6242489500488
 20
133.6946284063255
 30
0.0
 11
304.6242489500488
 21
134.6946284063256
 31
0.0
  0
ARC
  5
1F4F
330
1A
100
AcDbEntity
  8
SEIHIN
100
AcDbCircle
 10
305.1242489500488
 20
133.6946284063255
 30
0.0
 40
0.5
100
AcDbArc
 50
180.0
 51
270.0000000000005
  0
ARC
  5
1F50
330
1A
100
AcDbEntity
  8
SEIHIN
100
AcDbCircle
 10
305.1242489500488
 20
134.6946284063256
 30
0.0
 40
0.5
100
AcDbArc
 50
90.0
 51
180.0
  0
LINE
  5
1F51
330
1A
100
AcDbEntity
  8
SEIHIN
100
AcDbLine
 10
307.1242489500488
 20
116.1946284063255
 30
0.0
 11
305.1242489500488
 21
116.1946284063255
 31
0.0
  0
LINE
  5
1F52
330
1A
100
AcDbEntity
  8
SEIHIN
100
AcDbLine
 10
307.1242489500488
 20
114.1946284063255
 30
0.0
 11
305.1242489500488
 21
114.1946284063255
 31
0.0
  0
LINE
  5
1F53
330
1A
100
AcDbEntity
  8
SEIHIN
100
AcDbLine
 10
304.6242489500488
 20
114.6946284063255
 30
0.0
 11
304.6242489500488
 21
115.6946284063255
 31
0.0
  0
ARC
  5
1F54
330
1A
100
AcDbEntity
  8
SEIHIN
100
AcDbCircle
 10
305.1242489500488
 20
115.6946284063255
 30
0.0
 40
0.5
100
AcDbArc
 50
90.0
 51
180.0
  0
ARC
  5
1F55
330
1A
100
AcDbEntity
  8
SEIHIN
100
AcDbCircle
 10
305.1242489500488
 20
114.6946284063255
 30
0.0
 40
0.5
100
AcDbArc
 50
180.0
 51
270.0000000000005
  0
LINE
  5
1F56
330
1A
100
AcDbEntity
  8
SEIHIN
100
AcDbLine
 10
332.6242489500488
 20
114.6946284063255
 30
0.0
 11
332.6242489500488
 21
115.6946284063255
 31
0.0
  0
LINE
  5
1F57
330
1A
100
AcDbEntity
  8
SEIHIN
100
AcDbLine
 10
330.1242489500488
 20
114.1946284063255
 30
0.0
 11
332.1242489500488
 21
114.1946284063255
 31
0.0
  0
ARC
  5
1F58
330
1A
100
AcDbEntity
  8
SEIHIN
100
AcDbCircle
 10
332.1242489500488
 20
114.6946284063255
 30
0.0
 40
0.5
100
AcDbArc
 50
269.9999999999994
 51
0.000000000000007
  0
LINE
  5
1F59
330
1A
100
AcDbEntity
  8
SEIHIN
100
AcDbLine
 10
330.1242489500488
 20
116.1946284063255
 30
0.0
 11
332.1242489500488
 21
116.1946284063255
 31
0.0
  0
ARC
  5
1F5A
330
1A
100
AcDbEntity
  8
SEIHIN
100
AcDbCircle
 10
332.1242489500488
 20
115.6946284063255
 30
0.0
 40
0.5
100
AcDbArc
 50
0.000000000000007
 51
90.0
  0
LINE
  5
1F5B
330
1A
100
AcDbEntity
  8
SEIHIN
100
AcDbLine
 10
330.1242489500488
 20
135.1946284063255
 30
0.0
 11
332.1242489500488
 21
135.1946284063255
 31
0.0
  0
LINE
  5
1F5C
330
1A
100
AcDbEntity
  8
SEIHIN
100
AcDbLine
 10
330.1242489500488
 20
133.1946284063255
 30
0.0
 11
332.1242489500488
 21
133.1946284063255
 31
0.0
  0
LINE
  5
1F5D
330
1A
100
AcDbEntity
  8
SEIHIN
100
AcDbLine
 10
332.6242489500488
 20
133.6946284063255
 30
0.0
 11
332.6242489500488
 21
134.6946284063256
 31
0.0
  0
ARC
  5
1F5E
330
1A
100
AcDbEntity
  8
SEIHIN
100
AcDbCircle
 10
332.1242489500488
 20
134.6946284063256
 30
0.0
 40
0.5
100
AcDbArc
 50
0.000000000000007
 51
90.0
  0
ARC
  5
1F5F
330
1A
100
AcDbEntity
  8
SEIHIN
100
AcDbCircle
 10
332.1242489500488
 20
133.6946284063255
 30
0.0
 40
0.5
100
AcDbArc
 50
269.9999999999994
 51
0.000000000000007
  0
LINE
  5
1F61
330
1A
100
AcDbEntity
  8
SEIHIN
100
AcDbLine
 10
180.2004534838939
 20
215.1452709382145
 30
0.0
 11
85.97298294412743
 21
215.1452709382145
 31
0.0
  0
LINE
  5
1F62
330
1A
100
AcDbEntity
  8
SEIHIN
100
AcDbLine
 10
180.2004534838939
 20
215.1452709382145
 30
0.0
 11
180.2004534838939
 21
217.6452709382146
 31
0.0
  0
LINE
  5
1F63
330
1A
100
AcDbEntity
  8
SEIHIN
100
AcDbLine
 10
85.97298294412743
 20
215.1452709382145
 30
0.0
 11
85.97298294412743
 21
217.6452709382146
 31
0.0
  0
LINE
  5
1F64
330
1A
100
AcDbEntity
  8
SEIHIN
100
AcDbLine
 10
78.20045348389391
 20
217.6452709382146
 30
0.0
 11
78.20045348389391
 21
237.6452709382145
 31
0.0
  0
LINE
  5
1F67
330
1A
100
AcDbEntity
  8
SEIHIN
100
AcDbLine
 10
80.00045348389392
 20
217.6452709382146
 30
0.0
 11
80.00045348389392
 21
237.6452709382145
 31
0.0
  0
LINE
  5
1F68
330
1A
100
AcDbEntity
  8
SEIHIN
100
AcDbLine
 10
130.7004534838938
 20
217.6452709382145
 30
0.0
 11
210.6008705838938
 21
217.6452709382146
 31
0.0
  0
LINE
  5
1F69
330
1A
100
AcDbEntity
  8
SEIHIN
100
AcDbLine
 10
132.7004534838939
 20
219.6452709382146
 30
0.0
 11
208.6008705838939
 21
219.6452709382146
 31
0.0
  0
CIRCLE
  5
1F6A
330
1A
100
AcDbEntity
  8
SEIHIN
100
AcDbCircle
 10
140.7004534838939
 20
227.6452709382145
 30
0.0
 40
5.0
  0
LINE
  5
1F6B
330
1A
100
AcDbEntity
  8
SEIHIN
100
AcDbLine
 10
216.7008705838938
 20
217.6452709382146
 30
0.0
 11
216.7008705838939
 21
237.6452709382145
 31
0.0
  0
LINE
  5
1F6C
330
1A
100
AcDbEntity
  8
SEIHIN
100
AcDbLine
 10
153.0560363319154
 20
220.1452709382146
 30
0.0
 11
153.0560363319154
 21
235.1452709382146
 31
0.0
  0
LINE
  5
1F6D
330
1A
100
AcDbEntity
  8
SEIHIN
100
AcDbLine
 10
167.8408375378662
 20
220.1452709382146
 30
0.0
 11
167.8408375378662
 21
235.1452709382145
 31
0.0
  0
LINE
  5
1F70
330
1A
100
AcDbEntity
  8
SEIHIN
100
AcDbLine
 10
132.7004534838939
 20
235.6452709382146
 30
0.0
 11
208.6008705838939
 21
235.6452709382145
 31
0.0
  0
LINE
  5
1F71
330
1A
100
AcDbEntity
  8
SEIHIN
100
AcDbLine
 10
130.7004534838938
 20
237.6452709382146
 30
0.0
 11
210.6008705838938
 21
237.6452709382146
 31
0.0
  0
LINE
  5
1F72
330
1A
100
AcDbEntity
  8
SEIHIN
100
AcDbLine
 10
180.2004534838939
 20
240.1452709382145
 30
0.0
 11
85.97298294412743
 21
240.1452709382145
 31
0.0
  0
LINE
  5
1F73
330
1A
100
AcDbEntity
  8
SEIHIN
100
AcDbLine
 10
78.20045348389391
 20
237.6452709382145
 30
0.0
 11
85.97298294412743
 21
237.6452709382145
 31
0.0
  0
LINE
  5
1F74
330
1A
100
AcDbEntity
  8
SEIHIN
100
AcDbLine
 10
85.97298294412743
 20
240.1452709382145
 30
0.0
 11
85.97298294412743
 21
237.6452709382145
 31
0.0
  0
LINE
  5
1F75
330
1A
100
AcDbEntity
  8
SEIHIN
100
AcDbLine
 10
153.9880528035371
 20
236.1452709382146
 30
0.0
 11
153.9880528035371
 21
237.1452709382146
 31
0.0
  0
LINE
  5
1F76
330
1A
100
AcDbEntity
  8
SEIHIN
100
AcDbLine
 10
167.0020230813092
 20
237.1452709382146
 30
0.0
 11
167.0020230813092
 21
236.1452709382145
 31
0.0
  0
LINE
  5
1F77
330
1A
100
AcDbEntity
  8
SEIHIN
100
AcDbLine
 10
180.2004534838939
 20
240.1452709382145
 30
0.0
 11
180.2004534838939
 21
237.6452709382145
 31
0.0
  0
LINE
  5
1F78
330
1A
100
AcDbEntity
  8
SEIHIN
100
AcDbLine
 10
215.6008705838939
 20
258.6452709382145
 30
0.0
 11
215.6008705838939
 21
240.2452709382145
 31
0.0
  0
LINE
  5
1F79
330
1A
100
AcDbEntity
  8
SEIHIN
100
AcDbLine
 10
217.2008705838939
 20
239.1452709382146
 30
0.0
 11
217.2008705838939
 21
258.6452709382145
 31
0.0
  0
LINE
  5
1F7A
330
1A
100
AcDbEntity
  8
CENTER_L
100
AcDbLine
 10
208.6008705838939
 20
249.6452709382146
 30
0.0
 11
224.2008705838939
 21
249.6452709382146
 31
0.0
  0
LINE
  5
1F7B
330
1A
100
AcDbEntity
  8
SEIHIN
100
AcDbLine
 10
217.2008705838939
 20
258.6452709382145
 30
0.0
 11
215.6008705838939
 21
258.6452709382145
 31
0.0
  0
LINE
  5
1F7C
330
1A
100
AcDbEntity
  8
SEIHIN
100
AcDbLine
 10
216.2008705838939
 20
238.1452709382145
 30
0.0
 11
212.5008705838939
 21
238.1452709382145
 31
0.0
  0
LINE
  5
1F7D
330
1A
100
AcDbEntity
  8
SEIHIN
100
AcDbLine
 10
211.6008705838939
 20
239.7452709382145
 30
0.0
 11
215.1008705838939
 21
239.7452709382145
 31
0.0
  0
ARC
  5
1F7F
330
1A
100
AcDbEntity
  8
SEIHIN
100
AcDbCircle
 10
211.6008705838939
 20
238.7452709382145
 30
0.0
 40
1.0
100
AcDbArc
 50
90.00000000000003
 51
179.9999999999983
  0
ARC
  5
1F81
330
1A
100
AcDbEntity
  8
SEIHIN
100
AcDbCircle
 10
215.1008705838939
 20
240.2452709382145
 30
0.0
 40
0.5
100
AcDbArc
 50
270.0000000000032
 51
0.0000000000032709
  0
ARC
  5
1F82
330
1A
100
AcDbEntity
  8
SEIHIN
100
AcDbCircle
 10
216.2008705838939
 20
239.1452709382145
 30
0.0
 40
1.0
100
AcDbArc
 50
270.0
 51
0.0000000000016425
  0
LINE
  5
1F85
330
1A
100
AcDbEntity
  8
SEIHIN
100
AcDbLine
 10
170.6385915685332
 20
238.1452709382145
 30
0.0
 11
170.6385915685332
 21
239.6452709382145
 31
0.0
  0
LINE
  5
1F86
330
1A
100
AcDbEntity
  8
SEIHIN
100
AcDbLine
 10
155.1140337055896
 20
238.1452709382146
 30
0.0
 11
155.1140337055896
 21
239.6452709382145
 31
0.0
  0
LINE
  5
1F87
330
1A
100
AcDbEntity
  8
SEIHIN
100
AcDbLine
 10
212.2008705838938
 20
237.6452709382146
 30
0.0
 11
216.7008705838938
 21
237.6452709382145
 31
0.0
  0
LINE
  5
1F88
330
1A
100
AcDbEntity
  8
SEIHIN
100
AcDbLine
 10
130.7004534838939
 20
81.28065010632559
 30
0.0
 11
153.1222788685736
 21
81.28065010632559
 31
0.0
  0
LINE
  5
1F89
330
1A
100
AcDbEntity
  8
SEIHIN
100
AcDbLine
 10
156.6578127883382
 20
82.74511621422472
 30
0.0
 11
168.7989078853205
 21
94.88621140620484
 31
0.0
  0
ARC
  5
1F8B
330
1A
100
AcDbEntity
  8
SEIHIN
100
AcDbCircle
 10
172.3344418050851
 20
91.35067751410398
 30
0.0
 40
5.0
100
AcDbArc
 50
92.99999987887712
 51
135.0000002241552
  0
LINE
  5
1F8E
330
1A
100
AcDbEntity
  8
SEIHIN
100
AcDbLine
 10
215.6008705838939
 20
241.7452709382145
 30
0.0
 11
213.6008705838939
 21
239.7452709382145
 31
0.0
  0
LINE
  5
1F8F
330
1A
100
AcDbEntity
  8
SEIHIN
100
AcDbLine
 10
215.6008705838939
 20
213.5452709382146
 30
0.0
 11
213.6008705838939
 21
215.5452709382145
 31
0.0
  0
ARC
  5
1F91
330
1A
100
AcDbEntity
  8
SEIHIN
100
AcDbCircle
 10
212.5008705838939
 20
237.8452709382145
 30
0.0
 40
0.3
100
AcDbArc
 50
90.0
 51
180.0
  0
ARC
  5
1F92
330
1A
100
AcDbEntity
  8
SEIHIN
100
AcDbCircle
 10
212.5008705838939
 20
217.4452709382145
 30
0.0
 40
0.3
100
AcDbArc
 50
180.0
 51
270.0
  0
ARC
  5
1F93
330
1A
100
AcDbEntity
  8
SEIHIN
100
AcDbCircle
 10
153.1222788685736
 20
86.28065010632559
 30
0.0
 40
5.0
100
AcDbArc
 50
270.0
 51
315.0000002241551
  0
ARC
  5
1F94
330
1A
100
AcDbEntity
  8
SEIHIN
100
AcDbCircle
 10
152.5009585592033
 20
87.78065010632559
 30
0.0
 40
2.0
100
AcDbArc
 50
270.0
 51
315.0000002241553
  0
ARC
  5
1F95
330
1A
100
AcDbEntity
  8
SEIHIN
100
AcDbCircle
 10
152.5009585215764
 20
87.78065010632557
 30
0.0
 40
1.0
100
AcDbArc
 50
270.0
 51
315.0000002241551
  0
DIMENSION
  5
1F96
330
1A
100
AcDbEntity
  8
SUNPOU
100
AcDbDimension
  2
*D1
 10
51.3696407155562
 20
85.48065010632557
 30
0.0
 11
48.86964071555619
 21
113.8376392563256
 31
0.0
 70
    32
  3
STANDARD
100
AcDbAlignedDimension
 13
210.6008705838938
 23
142.1946284063255
 33
0.0
 14
78.20045348389391
 24
85.48065010632557
 34
0.0
 50
90.0
100
AcDbRotatedDimension
1001
ACAD
1000
DSTYLE
1002
{
1070
    41
1040
3.0
1070
    42
1040
3.0
1070
    43
1040
7.0
1070
    44
1040
1.5
1070
    73
1070
     0
1070
    74
1070
     0
1070
    77
1070
     3
1070
   140
1040
3.0
1070
   141
1040
3.0
1070
   147
1040
1.0
1070
   172
1070
     1
1070
   173
1070
     1
1070
   176
1070
   256
1070
   177
1070
   256
1070
   178
1070
   256
1070
   271
1070
     0
1070
   272
1070
     0
1070
   341
1005
B2
1070
     6
1000
OPEN
1070
     7
1000
OPEN
1002
}
  0
DIMENSION
  5
1FA3
330
1A
100
AcDbEntity
  8
SUNPOU
100
AcDbDimension
  2
*D2
 10
130.7004534838939
 20
165.7172755207508
 30
0.0
 11
173.9506620338939
 21
168.2172755207508
 31
0.0
 70
    32
  3
STANDARD
100
AcDbAlignedDimension
 13
217.2008705838939
 23
142.1946284063255
 33
0.0
 14
130.7004534838939
 24
86.78065010632559
 34
0.0
100
AcDbRotatedDimension
1001
ACAD
1000
DSTYLE
1002
{
1070
    41
1040
3.0
1070
    42
1040
3.0
1070
    43
1040
7.0
1070
    44
1040
1.5
1070
    73
1070
     0
1070
    74
1070
     0
1070
    77
1070
     3
1070
   140
1040
3.0
1070
   141
1040
3.0
1070
   147
1040
1.0
1070
   172
1070
     1
1070
   173
1070
     1
1070
   176
1070
   256
1070
   177
1070
   256
1070
   178
1070
   256
1070
   271
1070
     0
1070
   272
1070
     0
1070
   341
1005
B2
1070
     6
1000
OPEN
1070
     7
1000
OPEN
1002
}
  0
DIMENSION
  5
1FB0
330
1A
100
AcDbEntity
  8
SUNPOU
100
AcDbDimension
  2
*D3
 10
217.2008705838939
 20
175.1951680754846
 30
0.0
 11
147.7006620338939
 21
177.6951680754846
 31
0.0
 70
    32
  3
STANDARD
100
AcDbAlignedDimension
 13
78.20045348389391
 23
85.01522072566606
 33
0.0
 14
217.2008705838939
 24
142.1946284063255
 34
0.0
100
AcDbRotatedDimension
1001
ACAD
1000
DSTYLE
1002
{
1070
    41
1040
3.0
1070
    42
1040
3.0
1070
    43
1040
7.0
1070
    44
1040
1.5
1070
    73
1070
     0
1070
    74
1070
     0
1070
    77
1070
     3
1070
   140
1040
3.0
1070
   141
1040
3.0
1070
   147
1040
1.0
1070
   172
1070
     1
1070
   173
1070
     1
1070
   176
1070
   256
1070
   177
1070
   256
1070
   178
1070
   256
1070
   271
1070
     0
1070
   272
1070
     0
1070
   341
1005
B2
1070
     6
1000
OPEN
1070
     7
1000
OPEN
1002
}
  0
DIMENSION
  5
1FEA
330
1A
100
AcDbEntity
  8
SUNPOU
100
AcDbDimension
  2
*D4
 10
194.6593962071219
 20
155.3727188372216
 30
0.0
 11
205.9301333955079
 21
157.8727188372216
 31
0.0
 70
    32
  3
STANDARD
100
AcDbAlignedDimension
 13
217.2008705838939
 23
142.1946284063255
 33
0.0
 14
194.6593962071219
 24
89.51115010632554
 34
0.0
100
AcDbRotatedDimension
1001
ACAD
1000
DSTYLE
1002
{
1070
    41
1040
3.0
1070
    42
1040
3.0
1070
    43
1040
7.0
1070
    44
1040
1.5
1070
    73
1070
     0
1070
    74
1070
     0
1070
    77
1070
     3
1070
   140
1040
3.0
1070
   141
1040
3.0
1070
   147
1040
1.0
1070
   172
1070
     1
1070
   173
1070
     1
1070
   176
1070
   256
1070
   177
1070
   256
1070
   178
1070
   256
1070
   271
1070
     0
1070
   272
1070
     0
1070
   341
1005
B2
1070
     6
1000
OPEN
1070
     7
1000
OPEN
1002
}
  0
DIMENSION
  5
1FF7
330
1A
100
AcDbEntity
  8
SUNPOU
100
AcDbDimension
  2
*D5
 10
238.2523650448279
 20
107.1946284063255
 30
0.0
 11
235.7523650448278
 21
124.6946284063256
 31
0.0
 70
    32
  3
STANDARD
100
AcDbAlignedDimension
 13
217.2008705838939
 23
142.1946284063255
 33
0.0
 14
217.2008705838939
 24
107.1946284063255
 34
0.0
 50
90.0
100
AcDbRotatedDimension
1001
ACAD
1000
DSTYLE
1002
{
1070
    41
1040
3.0
1070
    42
1040
3.0
1070
    43
1040
7.0
1070
    44
1040
1.5
1070
    73
1070
     0
1070
    74
1070
     0
1070
    77
1070
     3
1070
   140
1040
3.0
1070
   141
1040
3.0
1070
   147
1040
1.0
1070
   172
1070
     1
1070
   173
1070
     1
1070
   176
1070
   256
1070
   177
1070
   256
1070
   178
1070
   256
1070
   271
1070
     0
1070
   272
1070
     0
1070
   341
1005
B2
1070
     6
1000
OPEN
1070
     7
1000
OPEN
1002
}
  0
LINE
  5
2004
330
1A
100
AcDbEntity
  8
SEIHIN
100
AcDbLine
 10
215.6008705838939
 20
117.1946284063255
 30
0.0
 11
213.0880206156208
 21
117.1946284063255
 31
0.0
  0
LINE
  5
2005
330
1A
100
AcDbEntity
  8
SEIHIN
100
AcDbLine
 10
215.6008705838939
 20
113.1946284063255
 30
0.0
 11
213.0880206156208
 21
113.1946284063255
 31
0.0
  0
DIMENSION
  5
2006
330
1A
100
AcDbEntity
  8
SUNPOU
100
AcDbDimension
  2
*D6
 10
273.4062311854829
 20
134.1946284063255
 30
0.0
 11
270.9062311854828
 21
138.1946284063256
 31
0.0
 70
    32
  3
STANDARD
100
AcDbAlignedDimension
 13
290.6242489500488
 23
142.1946284063255
 33
0.0
 14
290.5242489500488
 24
134.1946284063255
 34
0.0
 50
90.0
100
AcDbRotatedDimension
1001
ACAD
1000
DSTYLE
1002
{
1070
    41
1040
3.0
1070
    42
1040
3.0
1070
    43
1040
7.0
1070
    44
1040
1.5
1070
    73
1070
     0
1070
    74
1070
     0
1070
    77
1070
     3
1070
   140
1040
3.0
1070
   141
1040
3.0
1070
   147
1040
1.0
1070
   172
1070
     1
1070
   173
1070
     1
1070
   176
1070
   256
1070
   177
1070
   256
1070
   178
1070
   256
1070
   271
1070
     0
1070
   272
1070
     0
1070
   341
1005
B2
1070
     6
1000
OPEN
1070
     7
1000
OPEN
1002
}
  0
DIMENSION
  5
2015
330
1A
100
AcDbEntity
  8
SUNPOU
100
AcDbDimension
  2
*D7
 10
273.4062311854829
 20
107.1946284063255
 30
0.0
 11
270.9062311854829
 21
111.1946284063256
 31
0.0
 70
    32
  3
STANDARD
100
AcDbAlignedDimension
 13
290.5242489500488
 23
115.1946284063255
 33
0.0
 14
290.6242489500488
 24
107.1946284063255
 34
0.0
 50
90.0
100
AcDbRotatedDimension
1001
ACAD
1000
DSTYLE
1002
{
1070
    41
1040
3.0
1070
    42
1040
3.0
1070
    43
1040
7.0
1070
    44
1040
1.5
1070
    73
1070
     0
1070
    74
1070
     0
1070
    77
1070
     3
1070
   140
1040
3.0
1070
   141
1040
3.0
1070
   147
1040
1.0
1070
   172
1070
     1
1070
   173
1070
     1
1070
   176
1070
   256
1070
   177
1070
   256
1070
   178
1070
   256
1070
   271
1070
     0
1070
   272
1070
     0
1070
   341
1005
B2
1070
     6
1000
OPEN
1070
     7
1000
OPEN
1002
}
  0
DIMENSION
  5
2022
330
1A
100
AcDbEntity
  8
SUNPOU
100
AcDbDimension
  2
*D8
 10
263.387852157803
 20
107.1946284063255
 30
0.0
 11
260.887852157803
 21
124.6946284063256
 31
0.0
 70
    32
  3
STANDARD
100
AcDbAlignedDimension
 13
290.6242489500488
 23
142.1946284063255
 33
0.0
 14
290.6242489500488
 24
107.1946284063255
 34
0.0
 50
90.0
100
AcDbRotatedDimension
1001
ACAD
1000
DSTYLE
1002
{
1070
    41
1040
3.0
1070
    42
1040
3.0
1070
    43
1040
7.0
1070
    44
1040
1.5
1070
    73
1070
     0
1070
    74
1070
     0
1070
    77
1070
     3
1070
   140
1040
3.0
1070
   141
1040
3.0
1070
   147
1040
1.0
1070
   172
1070
     1
1070
   173
1070
     1
1070
   176
1070
   256
1070
   177
1070
   256
1070
   178
1070
   256
1070
   271
1070
     0
1070
   272
1070
     0
1070
   341
1005
B2
1070
     6
1000
OPEN
1070
     7
1000
OPEN
1002
}
  0
DIMENSION
  5
204C
330
1A
100
AcDbEntity
  8
SUNPOU
100
AcDbDimension
  2
*D9
 10
340.6242489500488
 20
155.3727188372216
 30
0.0
 11
318.6242489500488
 21
157.8727188372216
 31
0.0
 70
    32
  3
STANDARD
100
AcDbAlignedDimension
 13
296.6242489500488
 23
140.2946284063256
 33
0.0
 14
340.6242489500488
 24
140.2946284063256
 34
0.0
100
AcDbRotatedDimension
1001
ACAD
1000
DSTYLE
1002
{
1070
    41
1040
3.0
1070
    42
1040
3.0
1070
    43
1040
7.0
1070
    44
1040
1.5
1070
    73
1070
     0
1070
    74
1070
     0
1070
    77
1070
     3
1070
   140
1040
3.0
1070
   141
1040
3.0
1070
   147
1040
1.0
1070
   172
1070
     1
1070
   173
1070
     1
1070
   176
1070
   256
1070
   177
1070
   256
1070
   178
1070
   256
1070
   271
1070
     0
1070
   272
1070
     0
1070
   341
1005
B2
1070
     6
1000
OPEN
1070
     7
1000
OPEN
1002
}
  0
DIMENSION
  5
2059
330
1A
100
AcDbEntity
  8
SUNPOU
100
AcDbDimension
  2
*D10
 10
349.6242489500488
 20
165.7172755207508
 30
0.0
 11
318.6242489500488
 21
168.2172755207508
 31
0.0
 70
    32
  3
STANDARD
100
AcDbAlignedDimension
 13
287.6242489500488
 23
139.1946284063255
 33
0.0
 14
349.6242489500488
 24
139.1946284063255
 34
0.0
100
AcDbRotatedDimension
1001
ACAD
1000
DSTYLE
1002
{
1070
    41
1040
3.0
1070
    42
1040
3.0
1070
    43
1040
7.0
1070
    44
1040
1.5
1070
    73
1070
     0
1070
    74
1070
     0
1070
    77
1070
     3
1070
   140
1040
3.0
1070
   141
1040
3.0
1070
   147
1040
1.0
1070
   172
1070
     1
1070
   173
1070
     1
1070
   176
1070
   256
1070
   177
1070
   256
1070
   178
1070
   256
1070
   271
1070
     0
1070
   272
1070
     0
1070
   341
1005
B2
1070
     6
1000
OPEN
1070
     7
1000
OPEN
1002
}
  0
DIMENSION
  5
2066
330
1A
100
AcDbEntity
  8
SUNPOU
100
AcDbDimension
  2
*D11
 10
238.2523650448279
 20
196.6452709382146
 30
0.0
 11
235.7523650448278
 21
227.6452709382146
 31
0.0
 70
    32
  3
STANDARD
100
AcDbAlignedDimension
 13
217.2008705838939
 23
258.6452709382145
 33
0.0
 14
217.2008705838939
 24
196.6452709382146
 34
0.0
 50
90.0
100
AcDbRotatedDimension
1001
ACAD
1000
DSTYLE
1002
{
1070
    41
1040
3.0
1070
    42
1040
3.0
1070
    43
1040
7.0
1070
    44
1040
1.5
1070
    73
1070
     0
1070
    74
1070
     0
1070
    77
1070
     3
1070
   140
1040
3.0
1070
   141
1040
3.0
1070
   147
1040
1.0
1070
   172
1070
     1
1070
   173
1070
     1
1070
   176
1070
   256
1070
   177
1070
   256
1070
   178
1070
   256
1070
   271
1070
     0
1070
   272
1070
     0
1070
   341
1005
B2
1070
     6
1000
OPEN
1070
     7
1000
OPEN
1002
}
  0
DIMENSION
  5
2073
330
1A
100
AcDbEntity
  8
SUNPOU
100
AcDbDimension
  2
*D12
 10
51.36964071555623
 20
217.6452709382146
 30
0.0
 11
48.86964071555619
 21
227.6452709382146
 31
0.0
 70
    32
  3
STANDARD
100
AcDbAlignedDimension
 13
78.20045348389391
 23
237.6452709382145
 33
0.0
 14
78.20045348389391
 24
217.6452709382146
 34
0.0
 50
90.0
100
AcDbRotatedDimension
1001
ACAD
1000
DSTYLE
1002
{
1070
    41
1040
3.0
1070
    42
1040
3.0
1070
    43
1040
7.0
1070
    44
1040
1.5
1070
    73
1070
     0
1070
    74
1070
     0
1070
    77
1070
     3
1070
   140
1040
3.0
1070
   141
1040
3.0
1070
   147
1040
1.0
1070
   172
1070
     1
1070
   173
1070
     1
1070
   176
1070
   256
1070
   177
1070
   256
1070
   178
1070
   256
1070
   271
1070
     0
1070
   272
1070
     0
1070
   341
1005
B2
1070
     6
1000
OPEN
1070
     7
1000
OPEN
1002
}
  0
LEADER
  5
2081
330
1A
100
AcDbEntity
  8
SUNPOU
100
AcDbLeader
  3
STANDARD
 73
     0
 40
3.0
 41
15.59999999999999
 76
     3
 10
295.0606966743197
 20
135.5965215124725
 30
0.0
 10
280.4378731545016
 20
159.0980497133774
 30
0.0
 10
277.4253179113254
 20
159.0980497133774
 30
0.0
340
2082
213
0.0
223
1.5
233
0.0
1001
ACAD
1000
DSTYLE
1002
{
1070
     6
1000
OPEN
1070
    41
1040
3.0
1070
    42
1040
3.0
1070
    43
1040
7.0
1070
    44
1040
1.5
1070
    73
1070
     0
1070
    74
1070
     0
1070
    77
1070
     0
1070
   140
1040
3.0
1070
   141
1040
3.0
1070
   147
1040
1.0
1070
   172
1070
     1
1070
   173
1070
     1
1070
   176
1070
   256
1070
   177
1070
   256
1070
   178
1070
   256
1070
   271
1070
     0
1070
   272
1070
     0
1070
   341
1005
B2
1070
   343
1005
B2
1070
   344
1005
B2
1002
}
  0
MTEXT
  5
2082
102
{ACAD_REACTORS
330
2081
102
}
330
1A
100
AcDbEntity
  8
SUNPOU
100
AcDbMText
 10
276.4253179113254
 20
157.5980497133774
 30
0.0
 40
3.0
 41
0.0
 71
     9
 72
     5
  1
\A1;4-φ4.2
1001
ACAD
1000
MTEXTBEGIN
1070
    73
1070
     1
1070
    44
1040
1.0
1070
    74
1070
     0
1000
MTEXTEND
1000
MTEXTBEGIN
1070
    73
1070
     1
1070
    44
1040
1.0
1070
    74
1070
     0
1000
MTEXTEND
1000
MTEXTBEGIN
1070
    73
1070
     1
1070
    44
1040
1.0
1070
    74
1070
     0
1000
MTEXTEND
1000
MTEXTBEGIN
1070
    73
1070
     1
1070
    44
1040
1.0
1070
    74
1070
     0
1000
MTEXTEND
1000
MTEXTBEGIN
1070
    73
1070
     1
1070
    44
1040
1.0
1070
    74
1070
     0
1000
MTEXTEND
1000
MTEXTBEGIN
1070
    73
1070
     1
1070
    44
1040
1.0
1070
    74
1070
     0
1000
MTEXTEND
  0
LINE
  5
2127
330
1A
100
AcDbEntity
  8
SEIHIN
100
AcDbLine
 10
153.9880528035371
 20
219.1452709382145
 30
0.0
 11
153.9880528035371
 21
218.1452709382146
 31
0.0
  0
LINE
  5
2128
330
1A
100
AcDbEntity
  8
SEIHIN
100
AcDbLine
 10
155.1140337055896
 20
217.1452709382145
 30
0.0
 11
155.1140337055896
 21
215.6452709382146
 31
0.0
  0
LINE
  5
2129
330
1A
100
AcDbEntity
  8
SEIHIN
100
AcDbLine
 10
167.0020230813092
 20
218.1452709382145
 30
0.0
 11
167.0020230813092
 21
219.1452709382145
 31
0.0
  0
LINE
  5
212A
330
1A
100
AcDbEntity
  8
SEIHIN
100
AcDbLine
 10
170.6385915685332
 20
217.1452709382146
 30
0.0
 11
170.6385915685332
 21
215.6452709382146
 31
0.0
  0
LINE
  5
226B
330
1A
100
AcDbEntity
  8
SEIHIN
100
AcDbLine
 10
308.6242489500488
 20
89.62148677107007
 30
0.0
 11
306.0242489500488
 21
89.62148677107007
 31
0.0
  0
LINE
  5
226C
330
1A
100
AcDbEntity
  8
SEIHIN
100
AcDbLine
 10
328.6242489500488
 20
89.62148677107007
 30
0.0
 11
331.2242489500488
 21
89.62148677107007
 31
0.0
  0
LINE
  5
226D
330
1A
100
AcDbEntity
  8
SEIHIN
100
AcDbLine
 10
321.8742489500488
 20
70.42376411423467
 30
0.0
 11
315.3742489500488
 21
70.42376411423467
 31
0.0
  0
LINE
  5
226E
330
1A
100
AcDbEntity
  8
SEIHIN
100
AcDbLine
 10
309.6242489500488
 20
72.61302210632557
 30
0.0
 11
309.6242489500488
 21
70.92376411423469
 31
0.0
  0
LINE
  5
226F
330
1A
100
AcDbEntity
  8
SEIHIN
100
AcDbLine
 10
327.6242489500488
 20
72.61302210632557
 30
0.0
 11
327.6242489500489
 21
70.92376411423469
 31
0.0
  0
LINE
  5
2272
330
1A
100
AcDbEntity
  8
SEIHIN
100
AcDbLine
 10
315.1242489500488
 20
72.61302210632557
 30
0.0
 11
315.1242489500488
 21
70.67376411423467
 31
0.0
  0
LINE
  5
2273
330
1A
100
AcDbEntity
  8
SEIHIN
100
AcDbLine
 10
322.1242489500488
 20
72.61302210632557
 30
0.0
 11
322.1242489500488
 21
70.67376411423467
 31
0.0
  0
LINE
  5
2274
330
1A
100
AcDbEntity
  8
SEIHIN
100
AcDbLine
 10
327.6242489500488
 20
70.92376411423467
 30
0.0
 11
322.3742489500488
 21
70.92376411423467
 31
0.0
  0
LINE
  5
2275
330
1A
100
AcDbEntity
  8
SEIHIN
100
AcDbLine
 10
314.8742489500488
 20
70.92376411423467
 30
0.0
 11
309.6242489500488
 21
70.92376411423467
 31
0.0
  0
ARC
  5
2276
330
1A
100
AcDbEntity
  8
SEIHIN
100
AcDbCircle
 10
314.8742489500488
 20
70.67376411423467
 30
0.0
 40
0.25
100
AcDbArc
 50
0.0
 51
90.0
  0
ARC
  5
2277
330
1A
100
AcDbEntity
  8
SEIHIN
100
AcDbCircle
 10
322.3742489500488
 20
70.67376411423467
 30
0.0
 40
0.25
100
AcDbArc
 50
90.0
 51
180.0
  0
ARC
  5
2278
330
1A
100
AcDbEntity
  8
SEIHIN
100
AcDbCircle
 10
315.3742489500488
 20
70.67376411423467
 30
0.0
 40
0.25
100
AcDbArc
 50
180.0
 51
270.0
  0
ARC
  5
2279
330
1A
100
AcDbEntity
  8
SEIHIN
100
AcDbCircle
 10
321.8742489500488
 20
70.67376411423467
 30
0.0
 40
0.25
100
AcDbArc
 50
270.0
 51
0.0
  0
LINE
  5
2318
330
1A
100
AcDbEntity
  8
SEIHIN
100
AcDbLine
 10
212.2008705838938
 20
217.6452709382145
 30
0.0
 11
216.7008705838938
 21
217.6452709382146
 31
0.0
  0
TEXT
  5
29AF
330
1A
100
AcDbEntity
  8
MOJI
100
AcDbText
 10
119.9136010211517
 20
9.002460288415193
 30
0.0
 40
2.799999999999999
  1
亜鉛メッキ金具正面打（吊）ストロング高強度金具（釣針型）
 41
0.9
  7
ｽﾀｲﾙ1
100
AcDbText
  0
LINE
  5
29B0
330
1A
100
AcDbEntity
  8
ZUWAKU
100
AcDbLine
 10
104.3233003257602
 20
7.599999759711518
 30
0.0
 11
223.7121816662219
 21
7.599999759711515
 31
0.0
  0
LINE
  5
29B1
330
1A
100
AcDbEntity
  8
ZUWAKU
100
AcDbLine
 10
104.3233003257602
 20
7.799999759711516
 30
0.0
 11
223.7121816662219
 21
7.79999975971152
 31
0.0
  0
LINE
  5
29B2
330
1A
100
AcDbEntity
  8
ZUWAKU
100
AcDbLine
 10
104.3233003257602
 20
7.699999759711516
 30
0.0
 11
223.7121816662219
 21
7.699999759711516
 31
0.0
  0
LINE
  5
29B3
330
1A
100
AcDbEntity
  8
ZUWAKU
100
AcDbLine
 10
-0.000000319273795
 20
15.3999997597115
 30
0.0
 11
398.6999996807261
 21
15.3999997597115
 31
0.0
  0
LINE
  5
29B4
330
1A
100
AcDbEntity
  8
ZUWAKU
100
AcDbLine
 10
-0.000000319273795
 20
15.2999997597115
 30
0.0
 11
398.6999996807261
 21
15.2999997597115
 31
0.0
  0
LINE
  5
29B5
330
1A
100
AcDbEntity
  8
ZUWAKU
100
AcDbLine
 10
-0.000000319273795
 20
15.1999997597115
 30
0.0
 11
398.6999996807261
 21
15.1999997597115
 31
0.0
  0
LINE
  5
29B6
330
1A
100
AcDbEntity
  8
ZUWAKU
100
AcDbLine
 10
-0.000000319273795
 20
15.0999997597115
 30
0.0
 11
398.6999996807261
 21
15.0999997597115
 31
0.0
  0
LINE
  5
29B7
330
1A
100
AcDbEntity
  8
ZUWAKU
100
AcDbLine
 10
-0.000000319273795
 20
14.99999975971149
 30
0.0
 11
398.6999996807261
 21
14.99999975971149
 31
0.0
  0
LWPOLYLINE
  5
29B8
330
1A
100
AcDbEntity
  8
ZUWAKU
100
AcDbPolyline
 90
        4
 70
     1
 43
0.0
 10
0.099999680726171
 20
275.6999997597115
 10
0.099999680726171
 20
0.0999997597115226
 10
398.6999996807261
 20
0.0999997597115341
 10
398.6999996807262
 20
275.6999997597115
  0
LWPOLYLINE
  5
29B9
330
1A
100
AcDbEntity
  8
ZUWAKU
100
AcDbPolyline
 90
        4
 70
     1
 43
0.0
 10
0.2999996807261596
 20
275.4999997597115
 10
0.2999996807261596
 20
0.2999997597115111
 10
398.4999996807263
 20
0.2999997597115342
 10
398.4999996807262
 20
275.4999997597115
  0
LWPOLYLINE
  5
29BA
330
1A
100
AcDbEntity
  8
ZUWAKU
100
AcDbPolyline
 90
        4
 70
     1
 43
0.0
 10
-0.000000319273795
 20
275.7999997597115
 10
-0.000000319273795
 20
-0.0000002402885002
 10
398.7999996807262
 20
-0.0000002402884665
 10
398.7999996807262
 20
275.7999997597115
  0
LWPOLYLINE
  5
29BB
330
1A
100
AcDbEntity
  8
ZUWAKU
100
AcDbPolyline
 90
        4
 70
     1
 43
0.0
 10
0.1999996807261937
 20
275.5999997597115
 10
0.1999996807261937
 20
0.1999997597115453
 10
398.5999996807262
 20
0.1999997597115337
 10
398.5999996807262
 20
275.5999997597115
  0
LWPOLYLINE
  5
29BC
330
1A
100
AcDbEntity
  8
ZUWAKU
100
AcDbPolyline
 90
        4
 70
     1
 43
0.0
 10
0.3999996807261823
 20
275.3999997597115
 10
0.3999996807261823
 20
0.3999997597115339
 10
398.3999996807261
 20
0.3999997597115339
 10
398.3999996807261
 20
275.3999997597115
  0
TEXT
  5
29BD
330
1A
100
AcDbEntity
  8
MOJI
100
AcDbText
 10
46.47889447481077
 20
6.37058882484888
 30
0.0
 40
3.0
  1
新・丸トップＲＶ１０５
 41
0.9
  7
ｽﾀｲﾙ1
100
AcDbText
  0
HATCH
  5
29BE
330
1A
100
AcDbEntity
  8
ZUWAKU
100
AcDbHatch
 10
0.0
 20
0.0
 30
0.0
210
0.0
220
0.0
230
1.0
  2
ANSI37
 70
     0
 71
     0
 91
        8
 92
        7
 72
     1
 73
     1
 93
       24
 10
7.251131011286133
 20
8.822424000203291
 42
-0.1989123673796348
 10
7.046105758116766
 20
9.317398747033816
 42
0.0
 10
7.046105758116766
 20
9.962499759711505
 42
-0.4142135623730912
 10
7.308605758116755
 20
10.2249997597115
 42
0.0
 10
8.796105758116709
 20
10.2249997597115
 42
0.4142135623731546
 10
9.058605758116755
 20
10.48749975971149
 42
0.0
 10
9.058605758116755
 20
11.3624997597115
 42
0.4142135623731586
 10
8.796105758116709
 20
11.6249997597115
 42
0.0
 10
7.046105758116766
 20
11.6249997597115
 42
0.4142135623730928
 10
5.646105758116789
 20
10.22499975971151
 42
0.0
 10
5.646105758116789
 20
9.31739874703388
 42
0.1989123673796619
 10
6.261181517625004
 20
7.832474506542077
 42
0.0
 10
7.716080504947342
 20
6.377575519219748
 42
-0.1989123673796613
 10
7.921105758116766
 20
5.882600772389155
 42
0.0
 10
7.921105758116766
 20
5.237499759711496
 42
-0.4142135623730911
 10
7.658605758116777
 20
4.974999759711501
 42
0.0
 10
6.171105758116823
 20
4.974999759711501
 42
0.4142135623731526
 10
5.908605758116777
 20
4.712499759711507
 42
0.0
 10
5.908605758116777
 20
3.837499759711496
 42
0.4142135623731526
 10
6.171105758116823
 20
3.574999759711502
 42
0.0
 10
7.921105758116766
 20
3.574999759711502
 42
0.4142135623731044
 10
9.3211057581168
 20
4.97499975971149
 42
0.0
 10
9.3211057581168
 20
5.882600772389126
 42
0.1989123673796604
 10
8.706029998608528
 20
7.367525012880896
 42
0.0
 97
        0
 92
        7
 72
     1
 73
     1
 93
       16
 10
11.77110575811678
 20
9.524999759711505
 42
-0.4142135623730935
 10
12.47110575811677
 20
10.2249997597115
 42
0.0
 10
13.43360575811675
 20
10.2249997597115
 42
0.4142135623731546
 10
13.6961057581168
 20
10.48749975971149
 42
0.0
 10
13.6961057581168
 20
11.3624997597115
 42
0.4142135623730951
 10
13.43360575811681
 20
11.6249997597115
 42
0.0
 10
12.47110575811672
 20
11.62499975971148
 42
0.4142135623730892
 10
10.37110575811675
 20
9.524999759711469
 42
0.0
 10
10.37110575811675
 20
5.674999759711514
 42
0.4142135623730969
 10
12.47110575811677
 20
3.574999759711502
 42
0.0
 10
13.43360575811675
 20
3.574999759711502
 42
0.4142135623731526
 10
13.6961057581168
 20
3.837499759711496
 42
0.0
 10
13.6961057581168
 20
4.712499759711507
 42
0.4142135623730891
 10
13.43360575811681
 20
4.974999759711501
 42
0.0
 10
12.47110575811677
 20
4.974999759711501
 42
-0.4142135623730928
 10
11.77110575811678
 20
5.674999759711495
 42
0.0
 97
        0
 92
        7
 72
     1
 73
     1
 93
        2
 10
12.12110575811675
 20
7.599999759711501
 42
1.0
 10
13.87110575811675
 20
7.599999759711501
 42
1.0
 97
        0
 92
        7
 72
     1
 73
     1
 93
       26
 10
18.65742899920576
 20
9.602523356493215
 42
0.0
 10
19.18824881577467
 20
11.28345277562801
 42
0.5069206636600134
 10
18.93793336617699
 20
11.6249997597115
 42
0.0
 10
18.08848867637237
 20
11.6249997597115
 42
0.3272098845218764
 10
17.8381732267747
 20
11.44154674379498
 42
0.0
 10
16.90403828945881
 20
8.483452775628041
 42
-0.3272098845219541
 10
16.65372283986107
 20
8.2999997597115
 42
0.0
 10
16.58360575811684
 20
8.2999997597115
 42
-0.4142135623731526
 10
16.3211057581168
 20
8.562499759711494
 42
0.0
 10
16.3211057581168
 20
11.3624997597115
 42
0.4142135623730951
 10
16.05860575811681
 20
11.6249997597115
 42
0.0
 10
15.18360575811675
 20
11.6249997597115
 42
0.4142135623730871
 10
14.92110575811676
 20
11.36249975971151
 42
0.0
 10
14.92110575811676
 20
3.837499759711496
 42
0.4142135623730891
 10
15.18360575811675
 20
3.574999759711502
 42
0.0
 10
16.05860575811675
 20
3.574999759711502
 42
0.4142135623731526
 10
16.3211057581168
 20
3.837499759711496
 42
0.0
 10
16.3211057581168
 20
6.637499759711507
 42
-0.4142135623731526
 10
16.58360575811684
 20
6.899999759711501
 42
0.0
 10
16.65372283986113
 20
6.899999759711501
 42
-0.3272098845218915
 10
16.90403828945881
 20
6.716546743794964
 42
0.0
 10
17.8381732267747
 20
3.758452775628038
 42
0.3272098845218902
 10
18.08848867637237
 20
3.574999759711502
 42
0.0
 10
18.93793336617699
 20
3.574999759711502
 42
0.5069206636600335
 10
19.18824881577467
 20
3.916546743795006
 42
0.0
 10
18.02505312653784
 20
7.59999975971157
 42
0.0
 97
        0
 92
        7
 72
     1
 73
     1
 93
        8
 10
21.74610575811675
 20
11.3624997597115
 42
0.4142135623731546
 10
21.48360575811671
 20
11.6249997597115
 42
0.0
 10
20.60860575811682
 20
11.6249997597115
 42
0.4142135623731507
 10
20.34610575811677
 20
11.36249975971151
 42
0.0
 10
20.34610575811677
 20
3.837499759711496
 42
0.4142135623731526
 10
20.60860575811682
 20
3.574999759711502
 42
0.0
 10
21.48360575811671
 20
3.574999759711502
 42
0.4142135623731526
 10
21.74610575811675
 20
3.837499759711496
 42
0.0
 97
        0
 92
        7
 72
     1
 73
     1
 93
       24
 10
24.1961057581168
 20
9.962499759711505
 42
-0.4142135623731546
 10
24.45860575811684
 20
10.2249997597115
 42
0.0
 10
25.9461057581168
 20
10.2249997597115
 42
0.4142135623730911
 10
26.20860575811679
 20
10.48749975971149
 42
0.0
 10
26.20860575811679
 20
11.3624997597115
 42
0.4142135623730952
 10
25.9461057581168
 20
11.6249997597115
 42
0.0
 10
24.1961057581168
 20
11.6249997597115
 42
0.4142135623731048
 10
22.79610575811676
 20
10.22499975971151
 42
0.0
 10
22.79610575811676
 20
9.31739874703388
 42
0.1989123673796613
 10
23.41118151762504
 20
7.832474506542105
 42
0.0
 10
24.86608050494737
 20
6.377575519219771
 42
-0.1989123673796402
 10
25.0711057581168
 20
5.882600772389235
 42
0.0
 10
25.0711057581168
 20
5.237499759711496
 42
-0.4142135623730911
 10
24.80860575811681
 20
4.974999759711501
 42
0.0
 10
23.3211057581168
 20
4.974999759711501
 42
0.4142135623731526
 10
23.05860575811675
 20
4.712499759711507
 42
0.0
 10
23.05860575811675
 20
3.837499759711496
 42
0.4142135623730891
 10
23.32110575811674
 20
3.574999759711502
 42
0.0
 10
25.0711057581168
 20
3.574999759711502
 42
0.4142135623730925
 10
26.47110575811677
 20
4.97499975971149
 42
0.0
 10
26.47110575811677
 20
5.882600772389126
 42
0.1989123673796675
 10
25.8560299986085
 20
7.367525012880953
 42
0.0
 10
24.40113101128622
 20
8.822424000203211
 42
-0.1989123673796652
 10
24.1961057581168
 20
9.317398747033795
 42
0.0
 97
        0
 92
        7
 72
     1
 73
     1
 93
       16
 10
28.92110575811676
 20
11.36249975971149
 42
0.414213562373103
 10
28.65860575811677
 20
11.6249997597115
 42
0.0
 10
27.78360575811678
 20
11.6249997597115
 42
0.4142135623730871
 10
27.52110575811679
 20
11.36249975971151
 42
0.0
 10
27.52110575811679
 20
4.97499975971149
 42
0.4142135623730926
 10
28.92110575811676
 20
3.574999759711502
 42
0.0
 10
30.67110575811677
 20
3.574999759711502
 42
0.4142135623731044
 10
32.0711057581168
 20
4.97499975971149
 42
0.0
 10
32.0711057581168
 20
11.3624997597115
 42
0.4142135623730951
 10
31.80860575811681
 20
11.6249997597115
 42
0.0
 10
30.93360575811675
 20
11.6249997597115
 42
0.4142135623730871
 10
30.67110575811677
 20
11.36249975971151
 42
0.0
 10
30.67110575811677
 20
5.499999759711489
 42
-0.414213562373088
 10
30.14610575811679
 20
4.974999759711501
 42
0.0
 10
29.4461057581168
 20
4.974999759711501
 42
-0.4142135623731197
 10
28.92110575811676
 20
5.499999759711489
 42
0.0
 97
        0
 92
        7
 72
     1
 73
     1
 93
        8
 10
34.52110575811679
 20
11.36249975971151
 42
0.4142135623730871
 10
34.2586057581168
 20
11.6249997597115
 42
0.0
 10
33.3836057581168
 20
11.6249997597115
 42
0.4142135623731507
 10
33.12110575811675
 20
11.36249975971151
 42
0.0
 10
33.12110575811675
 20
3.837499759711496
 42
0.4142135623730891
 10
33.38360575811674
 20
3.574999759711502
 42
0.0
 10
34.2586057581168
 20
3.574999759711502
 42
0.4142135623730891
 10
34.52110575811679
 20
3.837499759711496
 42
0.0
 97
        0
 75
     0
 76
     1
 52
0.0
 41
0.1
 77
     0
 78
     2
 53
45.0
 43
-450.4711524866133
 44
-6.600000240288466
 45
-0.2245064030267288
 46
0.2245064030267288
 79
     0
 53
135.0
 43
-450.4711524866133
 44
-6.600000240288466
 45
-0.2245064030267288
 46
-0.2245064030267288
 79
     0
 47
0.057451373970553
 98
        8
 10
8.039927162237859
 20
7.583586582654277
 10
11.20225718394578
 20
9.422030850937005
 10
12.58218362355603
 20
7.755940582746859
 10
15.45702967154477
 20
8.100648582932251
 10
20.91923569020457
 20
8.330454716703059
 10
23.44910012829097
 20
9.709287917915105
 10
28.27884266692638
 20
9.364578717259007
 10
33.91353949053757
 20
9.594384851029815
  0
LINE
  5
29BF
330
1A
100
AcDbEntity
  8
ZUWAKU
100
AcDbLine
 10
12.47110575811677
 20
11.62499975971148
 30
0.0
 11
13.43360575811675
 21
11.6249997597115
 31
0.0
  0
LINE
  5
29C0
330
1A
100
AcDbEntity
  8
ZUWAKU
100
AcDbLine
 10
13.43360575811675
 20
10.2249997597115
 30
0.0
 11
12.47110575811677
 21
10.2249997597115
 31
0.0
  0
LINE
  5
29C1
330
1A
100
AcDbEntity
  8
ZUWAKU
100
AcDbLine
 10
12.47110575811677
 20
4.974999759711501
 30
0.0
 11
13.43360575811675
 21
4.974999759711501
 31
0.0
  0
LINE
  5
29C2
330
1A
100
AcDbEntity
  8
ZUWAKU
100
AcDbLine
 10
13.43360575811675
 20
3.574999759711502
 30
0.0
 11
12.47110575811677
 21
3.574999759711502
 31
0.0
  0
CIRCLE
  5
29C3
330
1A
100
AcDbEntity
  8
ZUWAKU
100
AcDbCircle
 10
12.99610575811675
 20
7.599999759711501
 30
0.0
 40
0.875
  0
ARC
  5
29C4
330
1A
100
AcDbEntity
  8
ZUWAKU
100
AcDbCircle
 10
7.746105758116755
 20
9.317398747033852
 30
0.0
 40
0.7
100
AcDbArc
 50
180.0000000000016
 51
224.9999999999988
  0
LINE
  5
29C5
330
1A
100
AcDbEntity
  8
ZUWAKU
100
AcDbLine
 10
11.77110575811678
 20
9.524999759711501
 30
0.0
 11
11.77110575811678
 21
5.674999759711504
 31
0.0
  0
LINE
  5
29C6
330
1A
100
AcDbEntity
  8
ZUWAKU
100
AcDbLine
 10
10.37110575811675
 20
5.674999759711504
 30
0.0
 11
10.37110575811675
 21
9.52499975971148
 31
0.0
  0
ARC
  5
29C7
330
1A
100
AcDbEntity
  8
ZUWAKU
100
AcDbCircle
 10
7.746105758116755
 20
9.317398747033852
 30
0.0
 40
2.099999999999999
100
AcDbArc
 50
180.0
 51
225.0
  0
ARC
  5
29C8
330
1A
100
AcDbEntity
  8
ZUWAKU
100
AcDbCircle
 10
7.921105758116766
 20
4.974999759711501
 30
0.0
 40
1.399999999999999
100
AcDbArc
 50
270.0
 51
0.0
  0
ARC
  5
29C9
330
1A
100
AcDbEntity
  8
ZUWAKU
100
AcDbCircle
 10
12.47110575811677
 20
5.674999759711504
 30
0.0
 40
2.099999999999999
100
AcDbArc
 50
180.0
 51
270.0
  0
ARC
  5
29CA
330
1A
100
AcDbEntity
  8
ZUWAKU
100
AcDbCircle
 10
7.221105758116777
 20
5.882600772389153
 30
0.0
 40
2.099999999999999
100
AcDbArc
 50
0.0
 51
45.0
  0
LINE
  5
29CB
330
1A
100
AcDbEntity
  8
ZUWAKU
100
AcDbLine
 10
8.706029998608528
 20
7.367525012880914
 30
0.0
 11
7.25113101128619
 21
8.822424000203252
 31
0.0
  0
LINE
  5
29CC
330
1A
100
AcDbEntity
  8
ZUWAKU
100
AcDbLine
 10
7.921105758116766
 20
5.237499759711504
 30
0.0
 11
7.921105758116766
 21
5.882600772389174
 31
0.0
  0
ARC
  5
29CD
330
1A
100
AcDbEntity
  8
ZUWAKU
100
AcDbCircle
 10
7.658605758116777
 20
5.237499759711504
 30
0.0
 40
0.2625
100
AcDbArc
 50
270.0
 51
0.0
  0
ARC
  5
29CE
330
1A
100
AcDbEntity
  8
ZUWAKU
100
AcDbCircle
 10
7.221105758116777
 20
5.882600772389174
 30
0.0
 40
0.7
100
AcDbArc
 50
0.0
 51
45.0
  0
LINE
  5
29CF
330
1A
100
AcDbEntity
  8
ZUWAKU
100
AcDbLine
 10
5.908605758116777
 20
3.837499759711501
 30
0.0
 11
5.908605758116777
 21
4.712499759711501
 31
0.0
  0
ARC
  5
29D0
330
1A
100
AcDbEntity
  8
ZUWAKU
100
AcDbCircle
 10
6.171105758116766
 20
3.837499759711501
 30
0.0
 40
0.2625
100
AcDbArc
 50
180.0
 51
270.0
  0
ARC
  5
29D1
330
1A
100
AcDbEntity
  8
ZUWAKU
100
AcDbCircle
 10
6.171105758116766
 20
4.712499759711501
 30
0.0
 40
0.2625
100
AcDbArc
 50
90.0
 51
180.0
  0
LINE
  5
29D2
330
1A
100
AcDbEntity
  8
ZUWAKU
100
AcDbLine
 10
6.171105758116766
 20
3.574999759711502
 30
0.0
 11
7.921105758116766
 21
3.574999759711502
 31
0.0
  0
LINE
  5
29D3
330
1A
100
AcDbEntity
  8
ZUWAKU
100
AcDbLine
 10
6.171105758116766
 20
4.974999759711501
 30
0.0
 11
7.658605758116777
 21
4.974999759711501
 31
0.0
  0
LINE
  5
29D4
330
1A
100
AcDbEntity
  8
ZUWAKU
100
AcDbLine
 10
6.261181517625004
 20
7.832474506542091
 30
0.0
 11
7.716080504947342
 21
6.37757551921976
 31
0.0
  0
LINE
  5
29D5
330
1A
100
AcDbEntity
  8
ZUWAKU
100
AcDbLine
 10
9.3211057581168
 20
4.974999759711501
 30
0.0
 11
9.3211057581168
 21
5.882600772389174
 31
0.0
  0
ARC
  5
29D6
330
1A
100
AcDbEntity
  8
ZUWAKU
100
AcDbCircle
 10
12.47110575811677
 20
5.674999759711504
 30
0.0
 40
0.7
100
AcDbArc
 50
180.0
 51
270.0
  0
ARC
  5
29D7
330
1A
100
AcDbEntity
  8
ZUWAKU
100
AcDbCircle
 10
8.796105758116766
 20
11.3624997597115
 30
0.0
 40
0.2625
100
AcDbArc
 50
0.0
 51
90.0
  0
ARC
  5
29D8
330
1A
100
AcDbEntity
  8
ZUWAKU
100
AcDbCircle
 10
8.796105758116766
 20
10.4874997597115
 30
0.0
 40
0.2625
100
AcDbArc
 50
270.0
 51
0.0
  0
LINE
  5
29D9
330
1A
100
AcDbEntity
  8
ZUWAKU
100
AcDbLine
 10
7.046105758116766
 20
11.6249997597115
 30
0.0
 11
8.796105758116766
 21
11.6249997597115
 31
0.0
  0
ARC
  5
29DA
330
1A
100
AcDbEntity
  8
ZUWAKU
100
AcDbCircle
 10
7.308605758116755
 20
9.962499759711501
 30
0.0
 40
0.2625
100
AcDbArc
 50
90.0
 51
180.0
  0
LINE
  5
29DB
330
1A
100
AcDbEntity
  8
ZUWAKU
100
AcDbLine
 10
7.046105758116766
 20
9.962499759711501
 30
0.0
 11
7.046105758116766
 21
9.317398747033831
 31
0.0
  0
LINE
  5
29DC
330
1A
100
AcDbEntity
  8
ZUWAKU
100
AcDbLine
 10
8.796105758116766
 20
10.2249997597115
 30
0.0
 11
7.308605758116755
 21
10.2249997597115
 31
0.0
  0
LINE
  5
29DD
330
1A
100
AcDbEntity
  8
ZUWAKU
100
AcDbLine
 10
5.646105758116789
 20
10.2249997597115
 30
0.0
 11
5.646105758116789
 21
9.317398747033831
 31
0.0
  0
ARC
  5
29DE
330
1A
100
AcDbEntity
  8
ZUWAKU
100
AcDbCircle
 10
7.046105758116766
 20
10.2249997597115
 30
0.0
 40
1.399999999999999
100
AcDbArc
 50
90.0
 51
180.0
  0
LINE
  5
29DF
330
1A
100
AcDbEntity
  8
ZUWAKU
100
AcDbLine
 10
9.058605758116755
 20
11.3624997597115
 30
0.0
 11
9.058605758116755
 21
10.4874997597115
 31
0.0
  0
ARC
  5
29E0
330
1A
100
AcDbEntity
  8
ZUWAKU
100
AcDbCircle
 10
12.47110575811677
 20
9.524999759711501
 30
0.0
 40
0.7
100
AcDbArc
 50
90.0
 51
180.0
  0
ARC
  5
29E1
330
1A
100
AcDbEntity
  8
ZUWAKU
100
AcDbCircle
 10
12.47110575811677
 20
9.52499975971148
 30
0.0
 40
2.099999999999999
100
AcDbArc
 50
90.0
 51
180.0
  0
LINE
  5
29E2
330
1A
100
AcDbEntity
  8
ZUWAKU
100
AcDbLine
 10
39.66331445472031
 20
14.99999975971149
 30
0.0
 11
39.66331445472042
 21
0.3999997597115339
 31
0.0
  0
LINE
  5
29E3
330
1A
100
AcDbEntity
  8
ZUWAKU
100
AcDbLine
 10
39.76331445472033
 20
14.99999975971149
 30
0.0
 11
39.76331445472044
 21
0.3999997597115339
 31
0.0
  0
LINE
  5
29E4
330
1A
100
AcDbEntity
  8
ZUWAKU
100
AcDbLine
 10
39.5633144547204
 20
14.99999975971149
 30
0.0
 11
39.5633144547204
 21
0.3999997597115339
 31
0.0
  0
LINE
  5
29E5
330
1A
100
AcDbEntity
  8
ZUWAKU
100
AcDbLine
 10
32.0711057581168
 20
4.974999759711501
 30
0.0
 11
32.0711057581168
 21
11.3624997597115
 31
0.0
  0
LINE
  5
29E6
330
1A
100
AcDbEntity
  8
ZUWAKU
100
AcDbLine
 10
30.67110575811677
 20
11.3624997597115
 30
0.0
 11
30.67110575811677
 21
5.499999759711499
 31
0.0
  0
LINE
  5
29E7
330
1A
100
AcDbEntity
  8
ZUWAKU
100
AcDbLine
 10
34.52110575811679
 20
3.837499759711501
 30
0.0
 11
34.52110575811679
 21
11.3624997597115
 31
0.0
  0
LINE
  5
29E8
330
1A
100
AcDbEntity
  8
ZUWAKU
100
AcDbLine
 10
33.12110575811675
 20
11.3624997597115
 30
0.0
 11
33.12110575811675
 21
3.837499759711501
 31
0.0
  0
ARC
  5
29E9
330
1A
100
AcDbEntity
  8
ZUWAKU
100
AcDbCircle
 10
24.89610575811679
 20
9.317398747033852
 30
0.0
 40
0.7
100
AcDbArc
 50
180.0000000000016
 51
224.9999999999988
  0
ARC
  5
29EA
330
1A
100
AcDbEntity
  8
ZUWAKU
100
AcDbCircle
 10
24.89610575811679
 20
9.317398747033852
 30
0.0
 40
2.099999999999999
100
AcDbArc
 50
180.0
 51
225.0
  0
LINE
  5
29EB
330
1A
100
AcDbEntity
  8
ZUWAKU
100
AcDbLine
 10
18.65742899920576
 20
9.602523356493215
 30
0.0
 11
18.02505312653784
 21
7.599999759711511
 31
0.0
  0
LINE
  5
29EC
330
1A
100
AcDbEntity
  8
ZUWAKU
100
AcDbLine
 10
20.34610575811677
 20
11.3624997597115
 30
0.0
 11
20.34610575811677
 21
3.837499759711501
 31
0.0
  0
LINE
  5
29ED
330
1A
100
AcDbEntity
  8
ZUWAKU
100
AcDbLine
 10
21.74610575811675
 20
3.837499759711501
 30
0.0
 11
21.74610575811675
 21
11.3624997597115
 31
0.0
  0
LINE
  5
29EE
330
1A
100
AcDbEntity
  8
ZUWAKU
100
AcDbLine
 10
27.52110575811679
 20
11.3624997597115
 30
0.0
 11
27.52110575811679
 21
4.974999759711501
 31
0.0
  0
LINE
  5
29EF
330
1A
100
AcDbEntity
  8
ZUWAKU
100
AcDbLine
 10
28.92110575811676
 20
5.499999759711499
 30
0.0
 11
28.92110575811676
 21
11.3624997597115
 31
0.0
  0
LINE
  5
29F0
330
1A
100
AcDbEntity
  8
ZUWAKU
100
AcDbLine
 10
16.3211057581168
 20
8.562499759711503
 30
0.0
 11
16.3211057581168
 21
11.3624997597115
 31
0.0
  0
LINE
  5
29F1
330
1A
100
AcDbEntity
  8
ZUWAKU
100
AcDbLine
 10
14.92110575811676
 20
11.3624997597115
 30
0.0
 11
14.92110575811676
 21
3.837499759711501
 31
0.0
  0
LINE
  5
29F2
330
1A
100
AcDbEntity
  8
ZUWAKU
100
AcDbLine
 10
17.8381732267747
 20
11.44154674379498
 30
0.0
 11
16.90403828945881
 21
8.483452775628016
 31
0.0
  0
LINE
  5
29F3
330
1A
100
AcDbEntity
  8
ZUWAKU
100
AcDbLine
 10
30.14610575811679
 20
4.974999759711501
 30
0.0
 11
29.4461057581168
 21
4.974999759711501
 31
0.0
  0
LINE
  5
29F4
330
1A
100
AcDbEntity
  8
ZUWAKU
100
AcDbLine
 10
28.92110575811676
 20
3.574999759711502
 30
0.0
 11
30.67110575811677
 21
3.574999759711502
 31
0.0
  0
LINE
  5
29F5
330
1A
100
AcDbEntity
  8
ZUWAKU
100
AcDbLine
 10
20.60860575811676
 20
3.574999759711502
 30
0.0
 11
21.48360575811676
 21
3.574999759711502
 31
0.0
  0
LINE
  5
29F6
330
1A
100
AcDbEntity
  8
ZUWAKU
100
AcDbLine
 10
17.8381732267747
 20
3.758452775628015
 30
0.0
 11
16.90403828945881
 21
6.716546743794985
 31
0.0
  0
ARC
  5
29F7
330
1A
100
AcDbEntity
  8
ZUWAKU
100
AcDbCircle
 10
16.65372283986113
 20
8.562499759711503
 30
0.0
 40
0.2625
100
AcDbArc
 50
270.0
 51
342.4744316262769
  0
LINE
  5
29F8
330
1A
100
AcDbEntity
  8
ZUWAKU
100
AcDbLine
 10
16.65372283986113
 20
8.2999997597115
 30
0.0
 11
16.58360575811679
 21
8.2999997597115
 31
0.0
  0
LINE
  5
29F9
330
1A
100
AcDbEntity
  8
ZUWAKU
100
AcDbLine
 10
16.58360575811679
 20
6.899999759711501
 30
0.0
 11
16.65372283986113
 21
6.899999759711501
 31
0.0
  0
ARC
  5
29FA
330
1A
100
AcDbEntity
  8
ZUWAKU
100
AcDbCircle
 10
16.58360575811679
 20
8.562499759711503
 30
0.0
 40
0.2625
100
AcDbArc
 50
180.0
 51
270.0
  0
LINE
  5
29FB
330
1A
100
AcDbEntity
  8
ZUWAKU
100
AcDbLine
 10
15.18360575811675
 20
3.574999759711502
 30
0.0
 11
16.05860575811675
 21
3.574999759711502
 31
0.0
  0
ARC
  5
29FC
330
1A
100
AcDbEntity
  8
ZUWAKU
100
AcDbCircle
 10
16.05860575811675
 20
3.837499759711501
 30
0.0
 40
0.2625
100
AcDbArc
 50
270.0
 51
0.0
  0
LINE
  5
29FD
330
1A
100
AcDbEntity
  8
ZUWAKU
100
AcDbLine
 10
16.3211057581168
 20
3.837499759711501
 30
0.0
 11
16.3211057581168
 21
6.637499759711502
 31
0.0
  0
LINE
  5
29FE
330
1A
100
AcDbEntity
  8
ZUWAKU
100
AcDbLine
 10
13.6961057581168
 20
4.712499759711501
 30
0.0
 11
13.6961057581168
 21
3.837499759711501
 31
0.0
  0
ARC
  5
29FF
330
1A
100
AcDbEntity
  8
ZUWAKU
100
AcDbCircle
 10
13.43360575811675
 20
3.837499759711501
 30
0.0
 40
0.2625
100
AcDbArc
 50
270.0
 51
0.0
  0
ARC
  5
2A00
330
1A
100
AcDbEntity
  8
ZUWAKU
100
AcDbCircle
 10
13.43360575811675
 20
4.712499759711501
 30
0.0
 40
0.2625
100
AcDbArc
 50
0.0
 51
90.0
  0
ARC
  5
2A01
330
1A
100
AcDbEntity
  8
ZUWAKU
100
AcDbCircle
 10
15.18360575811675
 20
3.837499759711501
 30
0.0
 40
0.2625
100
AcDbArc
 50
180.0
 51
270.0
  0
ARC
  5
2A02
330
1A
100
AcDbEntity
  8
ZUWAKU
100
AcDbCircle
 10
16.65372283986113
 20
6.637499759711502
 30
0.0
 40
0.2625
100
AcDbArc
 50
17.52556837372303
 51
90.0
  0
ARC
  5
2A03
330
1A
100
AcDbEntity
  8
ZUWAKU
100
AcDbCircle
 10
16.58360575811679
 20
6.637499759711502
 30
0.0
 40
0.2625
100
AcDbArc
 50
90.0
 51
180.0
  0
ARC
  5
2A04
330
1A
100
AcDbEntity
  8
ZUWAKU
100
AcDbCircle
 10
20.60860575811676
 20
3.837499759711501
 30
0.0
 40
0.2625
100
AcDbArc
 50
180.0
 51
270.0
  0
LINE
  5
2A05
330
1A
100
AcDbEntity
  8
ZUWAKU
100
AcDbLine
 10
18.08848867637243
 20
3.574999759711502
 30
0.0
 11
18.93793336617693
 21
3.574999759711502
 31
0.0
  0
ARC
  5
2A06
330
1A
100
AcDbEntity
  8
ZUWAKU
100
AcDbCircle
 10
18.93793336617693
 20
3.837499759711501
 30
0.0
 40
0.2625
100
AcDbArc
 50
270.0
 51
17.52556837372303
  0
LINE
  5
2A07
330
1A
100
AcDbEntity
  8
ZUWAKU
100
AcDbLine
 10
19.18824881577467
 20
3.916546743794988
 30
0.0
 11
18.02505312653784
 21
7.599999759711511
 31
0.0
  0
ARC
  5
2A08
330
1A
100
AcDbEntity
  8
ZUWAKU
100
AcDbCircle
 10
18.08848867637243
 20
3.837499759711501
 30
0.0
 40
0.2625
100
AcDbArc
 50
197.525568373723
 51
270.0
  0
ARC
  5
2A09
330
1A
100
AcDbEntity
  8
ZUWAKU
100
AcDbCircle
 10
28.92110575811676
 20
4.974999759711501
 30
0.0
 40
1.399999999999999
100
AcDbArc
 50
180.0
 51
270.0
  0
ARC
  5
2A0A
330
1A
100
AcDbEntity
  8
ZUWAKU
100
AcDbCircle
 10
25.0711057581168
 20
4.974999759711501
 30
0.0
 40
1.399999999999999
100
AcDbArc
 50
270.0
 51
0.0
  0
LINE
  5
2A0B
330
1A
100
AcDbEntity
  8
ZUWAKU
100
AcDbLine
 10
25.85602999860856
 20
7.367525012880914
 30
0.0
 11
24.40113101128616
 21
8.822424000203252
 31
0.0
  0
LINE
  5
2A0C
330
1A
100
AcDbEntity
  8
ZUWAKU
100
AcDbLine
 10
25.0711057581168
 20
5.237499759711504
 30
0.0
 11
25.0711057581168
 21
5.882600772389174
 31
0.0
  0
ARC
  5
2A0D
330
1A
100
AcDbEntity
  8
ZUWAKU
100
AcDbCircle
 10
24.37110575811675
 20
5.882600772389174
 30
0.0
 40
0.7
100
AcDbArc
 50
0.0
 51
45.0
  0
ARC
  5
2A0E
330
1A
100
AcDbEntity
  8
ZUWAKU
100
AcDbCircle
 10
24.80860575811675
 20
5.237499759711504
 30
0.0
 40
0.2625
100
AcDbArc
 50
270.0
 51
0.0
  0
LINE
  5
2A0F
330
1A
100
AcDbEntity
  8
ZUWAKU
100
AcDbLine
 10
23.05860575811675
 20
3.837499759711501
 30
0.0
 11
23.05860575811675
 21
4.712499759711501
 31
0.0
  0
ARC
  5
2A10
330
1A
100
AcDbEntity
  8
ZUWAKU
100
AcDbCircle
 10
23.3211057581168
 20
3.837499759711501
 30
0.0
 40
0.2625
100
AcDbArc
 50
180.0
 51
270.0
  0
ARC
  5
2A11
330
1A
100
AcDbEntity
  8
ZUWAKU
100
AcDbCircle
 10
21.48360575811676
 20
3.837499759711501
 30
0.0
 40
0.2625
100
AcDbArc
 50
270.0
 51
0.0
  0
ARC
  5
2A12
330
1A
100
AcDbEntity
  8
ZUWAKU
100
AcDbCircle
 10
23.3211057581168
 20
4.712499759711501
 30
0.0
 40
0.2625
100
AcDbArc
 50
90.0
 51
180.0
  0
LINE
  5
2A13
330
1A
100
AcDbEntity
  8
ZUWAKU
100
AcDbLine
 10
23.3211057581168
 20
4.974999759711501
 30
0.0
 11
24.80860575811675
 21
4.974999759711501
 31
0.0
  0
LINE
  5
2A14
330
1A
100
AcDbEntity
  8
ZUWAKU
100
AcDbLine
 10
23.3211057581168
 20
3.574999759711502
 30
0.0
 11
25.0711057581168
 21
3.574999759711502
 31
0.0
  0
LINE
  5
2A15
330
1A
100
AcDbEntity
  8
ZUWAKU
100
AcDbLine
 10
23.41118151762504
 20
7.832474506542091
 30
0.0
 11
24.86608050494737
 21
6.37757551921976
 31
0.0
  0
LINE
  5
2A16
330
1A
100
AcDbEntity
  8
ZUWAKU
100
AcDbLine
 10
26.47110575811677
 20
4.974999759711501
 30
0.0
 11
26.47110575811677
 21
5.882600772389174
 31
0.0
  0
ARC
  5
2A17
330
1A
100
AcDbEntity
  8
ZUWAKU
100
AcDbCircle
 10
24.37110575811675
 20
5.882600772389153
 30
0.0
 40
2.099999999999999
100
AcDbArc
 50
0.0
 51
45.0
  0
ARC
  5
2A18
330
1A
100
AcDbEntity
  8
ZUWAKU
100
AcDbCircle
 10
29.4461057581168
 20
5.499999759711499
 30
0.0
 40
0.525
100
AcDbArc
 50
180.0
 51
270.0
  0
ARC
  5
2A19
330
1A
100
AcDbEntity
  8
ZUWAKU
100
AcDbCircle
 10
30.67110575811677
 20
4.974999759711501
 30
0.0
 40
1.399999999999999
100
AcDbArc
 50
270.0
 51
0.0
  0
LINE
  5
2A1A
330
1A
100
AcDbEntity
  8
ZUWAKU
100
AcDbLine
 10
33.3836057581168
 20
3.574999759711502
 30
0.0
 11
34.2586057581168
 21
3.574999759711502
 31
0.0
  0
ARC
  5
2A1B
330
1A
100
AcDbEntity
  8
ZUWAKU
100
AcDbCircle
 10
33.3836057581168
 20
3.837499759711501
 30
0.0
 40
0.2625
100
AcDbArc
 50
180.0
 51
270.0
  0
ARC
  5
2A1C
330
1A
100
AcDbEntity
  8
ZUWAKU
100
AcDbCircle
 10
30.14610575811679
 20
5.499999759711499
 30
0.0
 40
0.525
100
AcDbArc
 50
270.0
 51
0.0
  0
ARC
  5
2A1D
330
1A
100
AcDbEntity
  8
ZUWAKU
100
AcDbCircle
 10
34.2586057581168
 20
3.837499759711501
 30
0.0
 40
0.2625
100
AcDbArc
 50
270.0
 51
0.0
  0
LINE
  5
2A1E
330
1A
100
AcDbEntity
  8
ZUWAKU
100
AcDbLine
 10
21.48360575811676
 20
11.6249997597115
 30
0.0
 11
20.60860575811676
 21
11.6249997597115
 31
0.0
  0
ARC
  5
2A1F
330
1A
100
AcDbEntity
  8
ZUWAKU
100
AcDbCircle
 10
16.05860575811675
 20
11.3624997597115
 30
0.0
 40
0.2625
100
AcDbArc
 50
0.0
 51
90.0
  0
LINE
  5
2A20
330
1A
100
AcDbEntity
  8
ZUWAKU
100
AcDbLine
 10
16.05860575811675
 20
11.6249997597115
 30
0.0
 11
15.18360575811675
 21
11.6249997597115
 31
0.0
  0
ARC
  5
2A21
330
1A
100
AcDbEntity
  8
ZUWAKU
100
AcDbCircle
 10
13.43360575811675
 20
11.3624997597115
 30
0.0
 40
0.2625
100
AcDbArc
 50
0.0
 51
90.0
  0
ARC
  5
2A22
330
1A
100
AcDbEntity
  8
ZUWAKU
100
AcDbCircle
 10
15.18360575811675
 20
11.3624997597115
 30
0.0
 40
0.2625
100
AcDbArc
 50
90.0
 51
180.0
  0
ARC
  5
2A23
330
1A
100
AcDbEntity
  8
ZUWAKU
100
AcDbCircle
 10
13.43360575811675
 20
10.4874997597115
 30
0.0
 40
0.2625
100
AcDbArc
 50
270.0
 51
0.0
  0
LINE
  5
2A24
330
1A
100
AcDbEntity
  8
ZUWAKU
100
AcDbLine
 10
13.6961057581168
 20
11.3624997597115
 30
0.0
 11
13.6961057581168
 21
10.4874997597115
 31
0.0
  0
ARC
  5
2A25
330
1A
100
AcDbEntity
  8
ZUWAKU
100
AcDbCircle
 10
20.60860575811676
 20
11.3624997597115
 30
0.0
 40
0.2625
100
AcDbArc
 50
90.0
 51
180.0
  0
LINE
  5
2A26
330
1A
100
AcDbEntity
  8
ZUWAKU
100
AcDbLine
 10
18.08848867637243
 20
11.6249997597115
 30
0.0
 11
18.93793336617693
 21
11.6249997597115
 31
0.0
  0
ARC
  5
2A27
330
1A
100
AcDbEntity
  8
ZUWAKU
100
AcDbCircle
 10
18.93793336617693
 20
11.3624997597115
 30
0.0
 40
0.2625
100
AcDbArc
 50
342.4744316262769
 51
90.0
  0
LINE
  5
2A28
330
1A
100
AcDbEntity
  8
ZUWAKU
100
AcDbLine
 10
19.18824881577467
 20
11.28345277562801
 30
0.0
 11
18.65742899920576
 21
9.602523356493215
 31
0.0
  0
ARC
  5
2A29
330
1A
100
AcDbEntity
  8
ZUWAKU
100
AcDbCircle
 10
18.08848867637243
 20
11.3624997597115
 30
0.0
 40
0.2625
100
AcDbArc
 50
90.0
 51
162.4744316262769
  0
LINE
  5
2A2A
330
1A
100
AcDbEntity
  8
ZUWAKU
100
AcDbLine
 10
24.1961057581168
 20
11.6249997597115
 30
0.0
 11
25.9461057581168
 21
11.6249997597115
 31
0.0
  0
LINE
  5
2A2B
330
1A
100
AcDbEntity
  8
ZUWAKU
100
AcDbLine
 10
25.9461057581168
 20
10.2249997597115
 30
0.0
 11
24.45860575811678
 21
10.2249997597115
 31
0.0
  0
ARC
  5
2A2C
330
1A
100
AcDbEntity
  8
ZUWAKU
100
AcDbCircle
 10
24.45860575811678
 20
9.962499759711501
 30
0.0
 40
0.2625
100
AcDbArc
 50
90.0
 51
180.0
  0
LINE
  5
2A2D
330
1A
100
AcDbEntity
  8
ZUWAKU
100
AcDbLine
 10
24.1961057581168
 20
9.962499759711501
 30
0.0
 11
24.1961057581168
 21
9.317398747033831
 31
0.0
  0
ARC
  5
2A2E
330
1A
100
AcDbEntity
  8
ZUWAKU
100
AcDbCircle
 10
21.48360575811676
 20
11.3624997597115
 30
0.0
 40
0.2625
100
AcDbArc
 50
0.0
 51
90.0
  0
LINE
  5
2A2F
330
1A
100
AcDbEntity
  8
ZUWAKU
100
AcDbLine
 10
22.79610575811676
 20
10.2249997597115
 30
0.0
 11
22.79610575811676
 21
9.317398747033831
 31
0.0
  0
ARC
  5
2A30
330
1A
100
AcDbEntity
  8
ZUWAKU
100
AcDbCircle
 10
24.1961057581168
 20
10.2249997597115
 30
0.0
 40
1.399999999999999
100
AcDbArc
 50
90.0
 51
180.0
  0
ARC
  5
2A31
330
1A
100
AcDbEntity
  8
ZUWAKU
100
AcDbCircle
 10
28.65860575811677
 20
11.3624997597115
 30
0.0
 40
0.2625
100
AcDbArc
 50
0.0
 51
90.0
  0
ARC
  5
2A32
330
1A
100
AcDbEntity
  8
ZUWAKU
100
AcDbCircle
 10
27.78360575811678
 20
11.3624997597115
 30
0.0
 40
0.2625
100
AcDbArc
 50
90.0
 51
180.0
  0
LINE
  5
2A33
330
1A
100
AcDbEntity
  8
ZUWAKU
100
AcDbLine
 10
28.65860575811677
 20
11.6249997597115
 30
0.0
 11
27.78360575811678
 21
11.6249997597115
 31
0.0
  0
ARC
  5
2A34
330
1A
100
AcDbEntity
  8
ZUWAKU
100
AcDbCircle
 10
25.9461057581168
 20
11.3624997597115
 30
0.0
 40
0.2625
100
AcDbArc
 50
0.0
 51
90.0
  0
ARC
  5
2A35
330
1A
100
AcDbEntity
  8
ZUWAKU
100
AcDbCircle
 10
25.9461057581168
 20
10.4874997597115
 30
0.0
 40
0.2625
100
AcDbArc
 50
270.0
 51
0.0
  0
LINE
  5
2A36
330
1A
100
AcDbEntity
  8
ZUWAKU
100
AcDbLine
 10
26.20860575811679
 20
11.3624997597115
 30
0.0
 11
26.20860575811679
 21
10.4874997597115
 31
0.0
  0
LINE
  5
2A37
330
1A
100
AcDbEntity
  8
ZUWAKU
100
AcDbLine
 10
34.2586057581168
 20
11.6249997597115
 30
0.0
 11
33.3836057581168
 21
11.6249997597115
 31
0.0
  0
ARC
  5
2A38
330
1A
100
AcDbEntity
  8
ZUWAKU
100
AcDbCircle
 10
33.3836057581168
 20
11.3624997597115
 30
0.0
 40
0.2625
100
AcDbArc
 50
90.0
 51
180.0
  0
ARC
  5
2A39
330
1A
100
AcDbEntity
  8
ZUWAKU
100
AcDbCircle
 10
31.80860575811675
 20
11.3624997597115
 30
0.0
 40
0.2625
100
AcDbArc
 50
0.0
 51
90.0
  0
LINE
  5
2A3A
330
1A
100
AcDbEntity
  8
ZUWAKU
100
AcDbLine
 10
31.80860575811675
 20
11.6249997597115
 30
0.0
 11
30.93360575811675
 21
11.6249997597115
 31
0.0
  0
ARC
  5
2A3B
330
1A
100
AcDbEntity
  8
ZUWAKU
100
AcDbCircle
 10
30.93360575811675
 20
11.3624997597115
 30
0.0
 40
0.2625
100
AcDbArc
 50
90.0
 51
180.0
  0
ARC
  5
2A3C
330
1A
100
AcDbEntity
  8
ZUWAKU
100
AcDbCircle
 10
34.2586057581168
 20
11.3624997597115
 30
0.0
 40
0.2625
100
AcDbArc
 50
0.0
 51
90.0
  0
TEXT
  5
2A3D
330
1A
100
AcDbEntity
  8
MOJI
100
AcDbText
 10
119.9136010211517
 20
1.60246028841521
 30
0.0
 40
2.799999999999999
  1
ＲＶ１０５－０－２０
 41
0.9
  7
ｽﾀｲﾙ1
100
AcDbText
  0
LINE
  5
2A3E
330
1A
100
AcDbEntity
  8
ZUWAKU
100
AcDbLine
 10
104.1233003257601
 20
14.99999975971149
 30
0.0
 11
104.1233003257601
 21
0.3999997597115339
 31
0.0
  0
LINE
  5
2A3F
330
1A
100
AcDbEntity
  8
ZUWAKU
100
AcDbLine
 10
104.32330032576
 20
14.99999975971149
 30
0.0
 11
104.3233003257602
 21
0.3999997597115339
 31
0.0
  0
LINE
  5
2A40
330
1A
100
AcDbEntity
  8
ZUWAKU
100
AcDbLine
 10
104.22330032576
 20
14.99999975971149
 30
0.0
 11
104.2233003257601
 21
0.3999997597115339
 31
0.0
  0
TEXT
  5
2A41
330
1A
100
AcDbEntity
  8
ZUWAKU
100
AcDbText
 10
104.8620228368649
 20
4.827678028904308
 30
0.0
 40
2.0
  1
サイズ
 41
0.9
  7
ｽﾀｲﾙ1
100
AcDbText
  0
TEXT
  5
2A42
330
1A
100
AcDbEntity
  8
ZUWAKU
100
AcDbText
 10
104.8620228368648
 20
12.02767802890429
 30
0.0
 40
2.0
  1
品名
 41
0.9
  7
ｽﾀｲﾙ1
100
AcDbText
  0
LINE
  5
2A43
330
1A
100
AcDbEntity
  8
ZUWAKU
100
AcDbLine
 10
324.4086009358283
 20
7.599999759711515
 30
0.0
 11
348.6245049549968
 21
7.599999759711517
 31
0.0
  0
LINE
  5
2A44
330
1A
100
AcDbEntity
  8
ZUWAKU
100
AcDbLine
 10
324.4086009358284
 20
7.699999759711518
 30
0.0
 11
348.6245049549968
 21
7.699999759711516
 31
0.0
  0
LINE
  5
2A45
330
1A
100
AcDbEntity
  8
ZUWAKU
100
AcDbLine
 10
324.4086009358283
 20
7.799999759711516
 30
0.0
 11
348.6245049549968
 21
7.799999759711516
 31
0.0
  0
TEXT
  5
2A46
330
1A
100
AcDbEntity
  8
ZUWAKU
100
AcDbText
 10
329.1019685243774
 20
9.002460288415193
 30
0.0
 40
2.799999999999999
  1
　　．　　．　　
 41
0.9
  7
ｽﾀｲﾙ1
100
AcDbText
  0
LINE
  5
2A47
330
1A
100
AcDbEntity
  8
ZUWAKU
100
AcDbLine
 10
252.5995894297966
 20
7.599999759711518
 30
0.0
 11
276.2634775637824
 21
7.599999759711518
 31
0.0
  0
LINE
  5
2A48
330
1A
100
AcDbEntity
  8
ZUWAKU
100
AcDbLine
 10
252.5995894297966
 20
7.699999759711516
 30
0.0
 11
276.2634775637824
 21
7.699999759711516
 31
0.0
  0
LINE
  5
2A49
330
1A
100
AcDbEntity
  8
ZUWAKU
100
AcDbLine
 10
252.5995894297966
 20
7.799999759711516
 30
0.0
 11
276.2634775637824
 21
7.799999759711516
 31
0.0
  0
TEXT
  5
2A4A
330
1A
100
AcDbEntity
  8
MOJI
100
AcDbText
 10
231.2836388417205
 20
5.971308620541492
 30
0.0
 40
2.799999999999999
  1
ＬＪ７１□
 41
0.9
  7
ｽﾀｲﾙ1
100
AcDbText
  0
LINE
  5
2A4B
330
1A
100
AcDbEntity
  8
ZUWAKU
100
AcDbLine
 10
223.8121816662218
 20
14.99999975971149
 30
0.0
 11
223.8121816662219
 21
0.3999997597115339
 31
0.0
  0
LINE
  5
2A4C
330
1A
100
AcDbEntity
  8
ZUWAKU
100
AcDbLine
 10
223.9121816662218
 20
14.99999975971149
 30
0.0
 11
223.9121816662219
 21
0.3999997597115339
 31
0.0
  0
LINE
  5
2A4D
330
1A
100
AcDbEntity
  8
ZUWAKU
100
AcDbLine
 10
223.7121816662219
 20
14.99999975971149
 30
0.0
 11
223.7121816662219
 21
0.3999997597115339
 31
0.0
  0
TEXT
  5
2A4E
330
1A
100
AcDbEntity
  8
MOJI
100
AcDbText
 10
264.0204536668826
 20
9.002460288415193
 30
0.0
 40
2.799999999999999
  1
Ａ３
 41
0.9
  7
ｽﾀｲﾙ1
100
AcDbText
  0
LINE
  5
2A4F
330
1A
100
AcDbEntity
  8
ZUWAKU
100
AcDbLine
 10
252.4995894297966
 20
14.99999975971149
 30
0.0
 11
252.4995894297967
 21
0.3999997597115339
 31
0.0
  0
LINE
  5
2A50
330
1A
100
AcDbEntity
  8
ZUWAKU
100
AcDbLine
 10
252.5995894297966
 20
14.99999975971149
 30
0.0
 11
252.5995894297967
 21
0.3999997597115339
 31
0.0
  0
LINE
  5
2A51
330
1A
100
AcDbEntity
  8
ZUWAKU
100
AcDbLine
 10
252.3995894297967
 20
14.99999975971149
 30
0.0
 11
252.3995894297967
 21
0.3999997597115339
 31
0.0
  0
TEXT
  5
2A52
330
1A
100
AcDbEntity
  8
ZUWAKU
100
AcDbText
 10
231.3468805084797
 20
1.307035215281246
 30
0.0
 40
1.5
  1
□には色品番が入ります
 41
0.9
  7
ｽﾀｲﾙ1
100
AcDbText
  0
TEXT
  5
2A53
330
1A
100
AcDbEntity
  8
ZUWAKU
100
AcDbText
 10
253.3383119409015
 20
4.827678028904308
 30
0.0
 40
2.0
  1
縮尺
 41
0.9
  7
ｽﾀｲﾙ1
100
AcDbText
  0
TEXT
  5
2A54
330
1A
100
AcDbEntity
  8
MOJI
100
AcDbText
 10
264.0204536668826
 20
1.60246028841521
 30
0.0
 40
2.799999999999999
  1
１/１
 41
0.9
  7
ｽﾀｲﾙ1
100
AcDbText
  0
TEXT
  5
2A55
330
1A
100
AcDbEntity
  8
ZUWAKU
100
AcDbText
 10
224.6509041773266
 20
12.02767802890429
 30
0.0
 40
2.0
  1
品番
 41
0.9
  7
ｽﾀｲﾙ1
100
AcDbText
  0
TEXT
  5
2A56
330
1A
100
AcDbEntity
  8
ZUWAKU
100
AcDbText
 10
253.3383119409014
 20
12.02767802890429
 30
0.0
 40
2.0
  1
用紙
 41
0.9
  7
ｽﾀｲﾙ1
100
AcDbText
  0
LINE
  5
2A57
330
1A
100
AcDbEntity
  8
ZUWAKU
100
AcDbLine
 10
324.3086009358283
 20
14.99999975971149
 30
0.0
 11
324.3086009358285
 21
0.3999997597115339
 31
0.0
  0
LINE
  5
2A58
330
1A
100
AcDbEntity
  8
ZUWAKU
100
AcDbLine
 10
324.4086009358284
 20
14.99999975971149
 30
0.0
 11
324.4086009358285
 21
0.3999997597115339
 31
0.0
  0
LINE
  5
2A59
330
1A
100
AcDbEntity
  8
ZUWAKU
100
AcDbLine
 10
324.2086009358284
 20
14.99999975971149
 30
0.0
 11
324.2086009358284
 21
0.3999997597115339
 31
0.0
  0
LINE
  5
2A5A
330
1A
100
AcDbEntity
  8
ZUWAKU
100
AcDbLine
 10
276.3634775637823
 20
14.99999975971149
 30
0.0
 11
276.3634775637824
 21
0.3999997597115339
 31
0.0
  0
LINE
  5
2A5B
330
1A
100
AcDbEntity
  8
ZUWAKU
100
AcDbLine
 10
276.4634775637823
 20
14.99999975971149
 30
0.0
 11
276.4634775637824
 21
0.3999997597115339
 31
0.0
  0
LINE
  5
2A5C
330
1A
100
AcDbEntity
  8
ZUWAKU
100
AcDbLine
 10
276.2634775637824
 20
14.99999975971149
 30
0.0
 11
276.2634775637824
 21
0.3999997597115339
 31
0.0
  0
TEXT
  5
2A5D
330
1A
100
AcDbEntity
  8
ZUWAKU
100
AcDbText
 10
325.1473234469332
 20
12.02767802890429
 30
0.0
 40
2.0
  1
DATE
 41
0.9
  7
ｽﾀｲﾙ1
100
AcDbText
  0
LINE
  5
2A5E
330
1A
100
AcDbEntity
  8
ZUWAKU
100
AcDbLine
 10
348.6245049549968
 20
14.99999975971149
 30
0.0
 11
348.6245049549968
 21
0.3999997597115339
 31
0.0
  0
LINE
  5
2A5F
330
1A
100
AcDbEntity
  8
ZUWAKU
100
AcDbLine
 10
348.7245049549968
 20
14.99999975971149
 30
0.0
 11
348.7245049549968
 21
0.3999997597115339
 31
0.0
  0
LINE
  5
2A60
330
1A
100
AcDbEntity
  8
ZUWAKU
100
AcDbLine
 10
348.8245049549967
 20
14.99999975971149
 30
0.0
 11
348.8245049549969
 21
0.3999997597115339
 31
0.0
  0
LINE
  5
2A61
330
1A
100
AcDbEntity
  8
ZUWAKU
100
AcDbLine
 10
348.9245049549968
 20
14.99999975971149
 30
0.0
 11
348.9245049549968
 21
0.3999997597115339
 31
0.0
  0
TEXT
  5
2A62
330
1A
100
AcDbEntity
  8
ZUWAKU
100
AcDbText
 10
354.2640417768481
 20
8.776919427554901
 30
0.0
 40
3.0
  1
積水化学工業株式会社
 41
0.9
  7
ｽﾀｲﾙ1
100
AcDbText
  0
TEXT
  5
2A63
330
1A
100
AcDbEntity
  8
ZUWAKU
100
AcDbText
 10
354.2640417768481
 20
3.324419916638532
 30
0.0
 40
3.0
  1
建材事業部
 41
0.9
  7
ｽﾀｲﾙ1
100
AcDbText
  0
VIEWPORT
  5
22
330
17
100
AcDbEntity
 67
     1
  8
0
100
AcDbViewport
 10
313.6808219178082
 20
148.5
 30
0.0
 40
627.3616438356165
 41
297.0
 68
     2
 69
     1
1001
ACAD
1000
MVIEW
1002
{
1070
    16
1010
0.0
1020
0.0
1030
0.0
1010
0.0
1020
0.0
1030
1.0
1040
0.0
1040
297.0
1040
313.6808219178082
1040
148.5
1040
50.0
1040
0.0
1040
0.0
1070
     0
1070
   100
1070
     1
1070
     0
1070
     0
1070
     0
1070
     0
1070
     0
1040
0.0
1040
0.0
1040
0.0
1040
1.0
1040
1.0
1040
10.0
1040
10.0
1070
     0
1002
{
1002
}
1002
}
  0
VIEWPORT
  5
64
330
17
100
AcDbEntity
 67
     1
  8
VIEWPORT
100
AcDbViewport
 10
210.0
 20
148.5
 30
0.0
 40
420.0
 41
297.0
 68
     1
 69
     2
1001
ACAD
1000
MVIEW
1002
{
1070
    16
1010
0.0
1020
0.0
1030
0.0
1010
0.0
1020
0.0
1030
1.0
1040
0.0
1040
302.9399999999998
1040
210.0
1040
148.5
1040
50.0
1040
0.0
1040
0.0
1070
     0
1070
   100
1070
     1
1070
     0
1070
     0
1070
     0
1070
     0
1070
     0
1040
0.0
1040
0.0
1040
0.0
1040
5.0
1040
5.0
1040
0.0
1040
0.0
1070
     0
1002
{
1002
}
1002
}
  0
ENDSEC
  0
SECTION
  2
OBJECTS
  0
DICTIONARY
  5
C
330
0
100
AcDbDictionary
  3
ACAD_GROUP
350
D
  3
ACAD_LAYOUT
350
141
  3
ACAD_MLINESTYLE
350
E
  3
ACAD_PLOTSETTINGS
350
142
  3
ACAD_PLOTSTYLENAME
350
13F
  3
ACADDIM
350
1A14
  3
ACDBVARIABLEDICTIONARY
350
120D
  3
ACDBHEADERROUNDTRIPXREC
350
2AD9
  0
DICTIONARY
  5
7A2
330
1A
100
AcDbDictionary
280
     1
  3
ACAD_LAYOUTSELFREF
360
2AFB
  0
DICTIONARY
  5
7A0
330
17
100
AcDbDictionary
280
     1
  3
ACAD_LAYOUTSELFREF
360
2AFA
  0
DICTIONARY
  5
D
102
{ACAD_REACTORS
330
C
102
}
330
C
100
AcDbDictionary
  0
DICTIONARY
  5
141
102
{ACAD_REACTORS
330
C
102
}
330
C
100
AcDbDictionary
  0
DICTIONARY
  5
E
102
{ACAD_REACTORS
330
C
102
}
330
C
100
AcDbDictionary
  3
STANDARD
350
13
  0
DICTIONARY
  5
142
102
{ACAD_REACTORS
330
C
102
}
330
C
100
AcDbDictionary
  0
ACDBDICTIONARYWDFLT
  5
13F
102
{ACAD_REACTORS
330
C
102
}
330
C
100
AcDbDictionary
281
     1
  3
Normal
350
140
100
AcDbDictionaryWithDefault
340
140
1001
ACAD
1000
TREAT_AS_HARD
1070
     0
1000
TREAT_AS_HARD
1070
     0
1000
TREAT_AS_HARD
1070
     0
1000
TREAT_AS_HARD
1070
     0
1000
TREAT_AS_HARD
1070
     0
1000
TREAT_AS_HARD
1070
     0
1000
TREAT_AS_HARD
1070
     0
1000
TREAT_AS_HARD
1070
     0
1000
TREAT_AS_HARD
1070
     0
1000
TREAT_AS_HARD
1070
     0
1000
TREAT_AS_HARD
1070
     0
1000
TREAT_AS_HARD
1070
     0
1000
TREAT_AS_HARD
1070
     0
  0
XRECORD
  5
1A14
102
{ACAD_REACTORS
330
C
102
}
330
C
100
AcDbXrecord
 90
   990106
  3

 60
     0
 61
     0
 62
     1
 63
     3
 64
     0
 65
     0
 66
     0
 67
     3
 68
     1
 69
     0
 70
     0
 71
     0
 72
     0
 40
0.0
170
     0
340
2082
  0
DICTIONARY
  5
120D
102
{ACAD_REACTORS
330
C
102
}
330
C
100
AcDbDictionary
  3
SORTENTS
350
120E
  0
DICTIONARY
  5
2AD9
102
{ACAD_REACTORS
330
C
102
}
330
C
100
AcDbDictionary
  3
TSTACKALIGN
350
2ADA
  3
TSTACKSIZE
350
2ADB
  3
HYPERLINKBASE
350
2ADC
  3
STYLESHEET
350
2ADD
  3
LAYOUTDICT
350
2ADE
  3
PLOTSETDICT
350
2ADF
  3
PLOTSTYLNAMDICT
350
2AE0
  3
LWETCUNION
350
2AE1
  3
INSUNITS
350
2AE2
  3
CEPSNTYPE
350
2AE3
  3
FINGERPRINTGUID
350
2AE4
  3
VERSIONGUID
350
2AE5
  3
PSVPSCALE
350
2AE6
  3
DIMSTYLEDATA
350
2AE7
  3
PUCSORTHOREF
350
2AE8
  3
PUCSORTHOVIEW
350
2AE9
  3
PUCSBASE
350
2AEA
  3
PUCSORGTOP
350
2AEB
  3
PUCSORGBOTTOM
350
2AEC
  3
PUCSORGLEFT
350
2AED
  3
PUCSORGRIGHT
350
2AEE
  3
PUCSORGFRONT
350
2AEF
  3
PUCSORGBACK
350
2AF0
  3
UCSORTHOREF
350
2AF1
  3
UCSORTHOVIEW
350
2AF2
  3
UCSBASE
350
2AF3
  3
UCSORGTOP
350
2AF4
  3
UCSORGBOTTOM
350
2AF5
  3
UCSORGLEFT
350
2AF6
  3
UCSORGRIGHT
350
2AF7
  3
UCSORGFRONT
350
2AF8
  3
UCSORGBACK
350
2AF9
  0
XRECORD
  5
2AFB
102
{ACAD_REACTORS
330
7A2
102
}
330
7A2
100
AcDbXrecord
340
1A
  0
XRECORD
  5
2AFA
102
{ACAD_REACTORS
330
7A0
102
}
330
7A0
100
AcDbXrecord
340
17
  0
MLINESTYLE
  5
13
102
{ACAD_REACTORS
330
E
102
}
330
E
100
AcDbMlineStyle
  2
STANDARD
 70
     0
  3

 62
     0
 51
90.0
 52
90.0
 71
     2
 49
0.5
 62
   256
  6
BYLAYER
 49
-0.5
 62
   256
  6
BYLAYER
  0
ACDBPLACEHOLDER
  5
140
102
{ACAD_REACTORS
330
13F
102
}
330
13F
100
AcDbPlaceHolder
280
     0
  0
DICTIONARYVAR
  5
120E
102
{ACAD_REACTORS
330
120D
102
}
330
120D
100
DictionaryVariables
280
     0
  1
96
  0
XRECORD
  5
2ADA
102
{ACAD_REACTORS
330
2AD9
102
}
330
2AD9
100
AcDbXrecord
 90
        1
  0
XRECORD
  5
2ADB
102
{ACAD_REACTORS
330
2AD9
102
}
330
2AD9
100
AcDbXrecord
 90
       70
  0
XRECORD
  5
2ADC
102
{ACAD_REACTORS
330
2AD9
102
}
330
2AD9
100
AcDbXrecord
  1

  0
XRECORD
  5
2ADD
102
{ACAD_REACTORS
330
2AD9
102
}
330
2AD9
100
AcDbXrecord
  1
systemprinter.ctb
  0
XRECORD
  5
2ADE
102
{ACAD_REACTORS
330
2AD9
102
}
330
2AD9
100
AcDbXrecord
340
141
  0
XRECORD
  5
2ADF
102
{ACAD_REACTORS
330
2AD9
102
}
330
2AD9
100
AcDbXrecord
340
142
  0
XRECORD
  5
2AE0
102
{ACAD_REACTORS
330
2AD9
102
}
330
2AD9
100
AcDbXrecord
340
13F
  0
XRECORD
  5
2AE1
102
{ACAD_REACTORS
330
2AD9
102
}
330
2AD9
100
AcDbXrecord
 90
    10781
  0
XRECORD
  5
2AE2
102
{ACAD_REACTORS
330
2AD9
102
}
330
2AD9
100
AcDbXrecord
 90
        0
  0
XRECORD
  5
2AE3
102
{ACAD_REACTORS
330
2AD9
102
}
330
2AD9
100
AcDbXrecord
 90
        0
  0
XRECORD
  5
2AE4
102
{ACAD_REACTORS
330
2AD9
102
}
330
2AD9
100
AcDbXrecord
  1
{4E8D0500-CDD1-11D3-932C-444553540000}
  0
XRECORD
  5
2AE5
102
{ACAD_REACTORS
330
2AD9
102
}
330
2AD9
100
AcDbXrecord
  1
{AA79F05E-E8DA-43A2-B27A-E380AE3EBA6B}
  0
XRECORD
  5
2AE6
102
{ACAD_REACTORS
330
2AD9
102
}
330
2AD9
100
AcDbXrecord
 40
0.0
  0
XRECORD
  5
2AE7
102
{ACAD_REACTORS
330
2AD9
102
}
330
2AD9
100
AcDbXrecord
1000
DSTYLE
1002
{
1070
   341
340
B2
1070
   343
340
B2
1070
   344
340
B2
1070
   371
 70
    -1
1070
   372
 70
    -1
1002
}
  0
XRECORD
  5
2AE8
102
{ACAD_REACTORS
330
2AD9
102
}
330
2AD9
100
AcDbXrecord
340
0
  0
XRECORD
  5
2AE9
102
{ACAD_REACTORS
330
2AD9
102
}
330
2AD9
100
AcDbXrecord
 70
     0
  0
XRECORD
  5
2AEA
102
{ACAD_REACTORS
330
2AD9
102
}
330
2AD9
100
AcDbXrecord
340
0
  0
XRECORD
  5
2AEB
102
{ACAD_REACTORS
330
2AD9
102
}
330
2AD9
100
AcDbXrecord
 10
0.0
 20
0.0
 30
0.0
  0
XRECORD
  5
2AEC
102
{ACAD_REACTORS
330
2AD9
102
}
330
2AD9
100
AcDbXrecord
 10
0.0
 20
0.0
 30
0.0
  0
XRECORD
  5
2AED
102
{ACAD_REACTORS
330
2AD9
102
}
330
2AD9
100
AcDbXrecord
 10
0.0
 20
0.0
 30
0.0
  0
XRECORD
  5
2AEE
102
{ACAD_REACTORS
330
2AD9
102
}
330
2AD9
100
AcDbXrecord
 10
0.0
 20
0.0
 30
0.0
  0
XRECORD
  5
2AEF
102
{ACAD_REACTORS
330
2AD9
102
}
330
2AD9
100
AcDbXrecord
 10
0.0
 20
0.0
 30
0.0
  0
XRECORD
  5
2AF0
102
{ACAD_REACTORS
330
2AD9
102
}
330
2AD9
100
AcDbXrecord
 10
0.0
 20
0.0
 30
0.0
  0
XRECORD
  5
2AF1
102
{ACAD_REACTORS
330
2AD9
102
}
330
2AD9
100
AcDbXrecord
340
0
  0
XRECORD
  5
2AF2
102
{ACAD_REACTORS
330
2AD9
102
}
330
2AD9
100
AcDbXrecord
 70
     0
  0
XRECORD
  5
2AF3
102
{ACAD_REACTORS
330
2AD9
102
}
330
2AD9
100
AcDbXrecord
340
0
  0
XRECORD
  5
2AF4
102
{ACAD_REACTORS
330
2AD9
102
}
330
2AD9
100
AcDbXrecord
 10
0.0
 20
0.0
 30
0.0
  0
XRECORD
  5
2AF5
102
{ACAD_REACTORS
330
2AD9
102
}
330
2AD9
100
AcDbXrecord
 10
0.0
 20
0.0
 30
0.0
  0
XRECORD
  5
2AF6
102
{ACAD_REACTORS
330
2AD9
102
}
330
2AD9
100
AcDbXrecord
 10
0.0
 20
0.0
 30
0.0
  0
XRECORD
  5
2AF7
102
{ACAD_REACTORS
330
2AD9
102
}
330
2AD9
100
AcDbXrecord
 10
0.0
 20
0.0
 30
0.0
  0
XRECORD
  5
2AF8
102
{ACAD_REACTORS
330
2AD9
102
}
330
2AD9
100
AcDbXrecord
 10
0.0
 20
0.0
 30
0.0
  0
XRECORD
  5
2AF9
102
{ACAD_REACTORS
330
2AD9
102
}
330
2AD9
100
AcDbXrecord
 10
0.0
 20
0.0
 30
0.0
  0
ENDSEC
  0
EOF
