  0
SECTION
  2
HEADER
  9
$ACADVER
  1
AC1014
  9
$ACADMAINTVER
 70
     9
  9
$DWGCODEPAGE
  3
ANSI_932
  9
$INSBASE
 10
0.0
 20
0.0
 30
0.0
  9
$EXTMIN
 10
-0.0128167242222617
 20
-0.0090632695025761
 30
-0.0015258207003583
  9
$EXTMAX
 10
398.8000497652178
 20
275.822617226868
 30
0.0000000349246037
  9
$LIMMIN
 10
0.0
 20
0.0
  9
$LIMMAX
 10
420.0
 20
297.0
  9
$ORTHOMODE
 70
     0
  9
$REGENMODE
 70
     1
  9
$FILLMODE
 70
     1
  9
$QTEXTMODE
 70
     0
  9
$MIRRTEXT
 70
     1
  9
$DRAGMODE
 70
     2
  9
$LTSCALE
 40
5.0
  9
$OSMODE
 70
    35
  9
$ATTMODE
 70
     1
  9
$TEXTSIZE
 40
3.0
  9
$TRACEWID
 40
1.0
  9
$TEXTSTYLE
  7
STANDARD
  9
$CLAYER
  8
SEIHIN
  9
$CELTYPE
  6
BYLAYER
  9
$CECOLOR
 62
   256
  9
$CELTSCALE
 40
1.0
  9
$DELOBJ
 70
     1
  9
$DISPSILH
 70
     0
  9
$DIMSCALE
 40
1.0
  9
$DIMASZ
 40
3.0
  9
$DIMEXO
 40
3.0
  9
$DIMDLI
 40
7.0
  9
$DIMRND
 40
0.0
  9
$DIMDLE
 40
0.0
  9
$DIMEXE
 40
1.5
  9
$DIMTP
 40
0.0
  9
$DIMTM
 40
0.0
  9
$DIMTXT
 40
3.0
  9
$DIMCEN
 40
3.0
  9
$DIMTSZ
 40
0.0
  9
$DIMTOL
 70
     0
  9
$DIMLIM
 70
     0
  9
$DIMTIH
 70
     0
  9
$DIMTOH
 70
     0
  9
$DIMSE1
 70
     0
  9
$DIMSE2
 70
     0
  9
$DIMTAD
 70
     3
  9
$DIMZIN
 70
     0
  9
$DIMBLK
  1

  9
$DIMASO
 70
     1
  9
$DIMSHO
 70
     1
  9
$DIMPOST
  1

  9
$DIMAPOST
  1

  9
$DIMALT
 70
     0
  9
$DIMALTD
 70
     2
  9
$DIMALTF
 40
25.4
  9
$DIMLFAC
 40
1.0
  9
$DIMTOFL
 70
     1
  9
$DIMTVP
 40
0.0
  9
$DIMTIX
 70
     0
  9
$DIMSOXD
 70
     0
  9
$DIMSAH
 70
     1
  9
$DIMBLK1
  1
OPEN
  9
$DIMBLK2
  1
OPEN
  9
$DIMSTYLE
  2
STANDARD
  9
$DIMCLRD
 70
   256
  9
$DIMCLRE
 70
   256
  9
$DIMCLRT
 70
   256
  9
$DIMTFAC
 40
1.0
  9
$DIMGAP
 40
1.0
  9
$DIMJUST
 70
     0
  9
$DIMSD1
 70
     0
  9
$DIMSD2
 70
     0
  9
$DIMTOLJ
 70
     1
  9
$DIMTZIN
 70
     0
  9
$DIMALTZ
 70
     0
  9
$DIMALTTZ
 70
     0
  9
$DIMFIT
 70
     3
  9
$DIMUPT
 70
     0
  9
$DIMUNIT
 70
     2
  9
$DIMDEC
 70
     0
  9
$DIMTDEC
 70
     0
  9
$DIMALTU
 70
     2
  9
$DIMALTTD
 70
     2
  9
$DIMTXSTY
  7
STANDARD
  9
$DIMAUNIT
 70
     0
  9
$LUNITS
 70
     2
  9
$LUPREC
 70
     4
  9
$SKETCHINC
 40
1.0
  9
$FILLETRAD
 40
0.25
  9
$AUNITS
 70
     0
  9
$AUPREC
 70
     0
  9
$MENU
  1
.
  9
$ELEVATION
 40
0.0
  9
$PELEVATION
 40
0.0
  9
$THICKNESS
 40
0.0
  9
$LIMCHECK
 70
     0
  9
$BLIPMODE
 70
     0
  9
$CHAMFERA
 40
10.0
  9
$CHAMFERB
 40
10.0
  9
$CHAMFERC
 40
20.0
  9
$CHAMFERD
 40
0.0
  9
$SKPOLY
 70
     0
  9
$TDCREATE
 40
2451589.469382176
  9
$TDUPDATE
 40
2453802.573844571
  9
$TDINDWG
 40
0.4112013657
  9
$TDUSRTIMER
 40
0.4112013657
  9
$USRTIMER
 70
     1
  9
$ANGBASE
 50
0.0
  9
$ANGDIR
 70
     0
  9
$PDMODE
 70
     0
  9
$PDSIZE
 40
0.0
  9
$PLINEWID
 40
0.0
  9
$COORDS
 70
     1
  9
$SPLFRAME
 70
     0
  9
$SPLINETYPE
 70
     6
  9
$SPLINESEGS
 70
     8
  9
$ATTDIA
 70
     0
  9
$ATTREQ
 70
     1
  9
$HANDLING
 70
 10241
  9
$HANDSEED
  5
2B5B
  9
$SURFTAB1
 70
     6
  9
$SURFTAB2
 70
     6
  9
$SURFTYPE
 70
     6
  9
$SURFU
 70
     6
  9
$SURFV
 70
     6
  9
$UCSNAME
  2

  9
$UCSORG
 10
0.0
 20
0.0
 30
0.0
  9
$UCSXDIR
 10
1.0
 20
0.0
 30
0.0
  9
$UCSYDIR
 10
0.0
 20
1.0
 30
0.0
  9
$PUCSNAME
  2

  9
$PUCSORG
 10
0.0
 20
0.0
 30
0.0
  9
$PUCSXDIR
 10
1.0
 20
0.0
 30
0.0
  9
$PUCSYDIR
 10
0.0
 20
1.0
 30
0.0
  9
$USERI1
 70
     0
  9
$USERI2
 70
     0
  9
$USERI3
 70
     0
  9
$USERI4
 70
     0
  9
$USERI5
 70
     0
  9
$USERR1
 40
0.0
  9
$USERR2
 40
0.0
  9
$USERR3
 40
0.0
  9
$USERR4
 40
0.0
  9
$USERR5
 40
0.0
  9
$WORLDVIEW
 70
     1
  9
$SHADEDGE
 70
     3
  9
$SHADEDIF
 70
    70
  9
$TILEMODE
 70
     1
  9
$MAXACTVP
 70
    16
  9
$PINSBASE
 10
0.0
 20
0.0
 30
0.0
  9
$PLIMCHECK
 70
     0
  9
$PEXTMIN
 10
0.0
 20
0.0
 30
0.0
  9
$PEXTMAX
 10
420.0
 20
297.0
 30
0.0
  9
$PLIMMIN
 10
0.0
 20
0.0
  9
$PLIMMAX
 10
420.0
 20
297.0
  9
$UNITMODE
 70
     0
  9
$VISRETAIN
 70
     0
  9
$PLINEGEN
 70
     0
  9
$PSLTSCALE
 70
     1
  9
$TREEDEPTH
 70
  3020
  9
$PICKSTYLE
 70
     1
  9
$CMLSTYLE
  2
STANDARD
  9
$CMLJUST
 70
     0
  9
$CMLSCALE
 40
1.0
  9
$PROXYGRAPHICS
 70
     1
  9
$MEASUREMENT
 70
     0
  0
ENDSEC
  0
SECTION
  2
CLASSES
  0
CLASS
  1
ACDBDICTIONARYWDFLT
  2
AcDbDictionaryWithDefault
  3
AutoCAD 2000
 90
        0
280
     0
281
     0
  0
CLASS
  1
ACDBPLACEHOLDER
  2
AcDbPlaceHolder
  3
AutoCAD 2000
 90
        0
280
     0
281
     0
  0
CLASS
  1
LAYOUT
  2
AcDbLayout
  3
AutoCAD 2000
 90
        0
280
     0
281
     0
  0
CLASS
  1
LONG_TRANSACTION
  2
AcDbLongTransaction
  3
AutoCAD 2000
 90
        0
280
     0
281
     0
  0
CLASS
  1
LWPOLYLINE
  2
AcDbPolyline
  3
AutoCAD 2000
 90
        0
280
     0
281
     1
  0
CLASS
  1
HATCH
  2
AcDbHatch
  3
AutoCAD 2000
 90
        0
280
     0
281
     1
  0
CLASS
  1
XRECORD
  2
AcDbXrecord
  3
AutoCAD 2000
 90
        0
280
     0
281
     0
  0
CLASS
  1
LONG_TRANSACTION
  2
AcDbLongTransaction
  3
AutoCAD 2000
 90
        0
280
     0
281
     0
  0
CLASS
  1
LWPOLYLINE
  2
AcDbPolyline
  3
AutoCAD 2000
 90
        0
280
     0
281
     1
  0
CLASS
  1
HATCH
  2
AcDbHatch
  3
AutoCAD 2000
 90
        0
280
     0
281
     1
  0
CLASS
  1
XRECORD
  2
AcDbXrecord
  3
AutoCAD 2000
 90
        0
280
     0
281
     0
  0
CLASS
  1
DICTIONARYVAR
  2
AcDbDictionaryVar
  3
AutoCAD 2000
 90
        0
280
     0
281
     0
  0
CLASS
  1
LONG_TRANSACTION
  2
AcDbLongTransaction
  3
AutoCAD 2000
 90
        0
280
     0
281
     0
  0
CLASS
  1
LWPOLYLINE
  2
AcDbPolyline
  3
AutoCAD 2000
 90
        0
280
     0
281
     1
  0
CLASS
  1
HATCH
  2
AcDbHatch
  3
AutoCAD 2000
 90
        0
280
     0
281
     1
  0
CLASS
  1
XRECORD
  2
AcDbXrecord
  3
AutoCAD 2000
 90
        0
280
     0
281
     0
  0
CLASS
  1
LONG_TRANSACTION
  2
AcDbLongTransaction
  3
AutoCAD 2000
 90
        0
280
     0
281
     0
  0
CLASS
  1
LWPOLYLINE
  2
AcDbPolyline
  3
AutoCAD 2000
 90
        0
280
     0
281
     1
  0
CLASS
  1
HATCH
  2
AcDbHatch
  3
AutoCAD 2000
 90
        0
280
     0
281
     1
  0
CLASS
  1
XRECORD
  2
AcDbXrecord
  3
AutoCAD 2000
 90
        0
280
     0
281
     0
  0
CLASS
  1
LONG_TRANSACTION
  2
AcDbLongTransaction
  3
AutoCAD 2000
 90
        0
280
     0
281
     0
  0
CLASS
  1
LWPOLYLINE
  2
AcDbPolyline
  3
AutoCAD 2000
 90
        0
280
     0
281
     1
  0
CLASS
  1
HATCH
  2
AcDbHatch
  3
AutoCAD 2000
 90
        0
280
     0
281
     1
  0
CLASS
  1
XRECORD
  2
AcDbXrecord
  3
AutoCAD 2000
 90
        0
280
     0
281
     0
  0
CLASS
  1
LONG_TRANSACTION
  2
AcDbLongTransaction
  3
AutoCAD 2000
 90
        0
280
     0
281
     0
  0
CLASS
  1
LWPOLYLINE
  2
AcDbPolyline
  3
AutoCAD 2000
 90
        0
280
     0
281
     1
  0
CLASS
  1
HATCH
  2
AcDbHatch
  3
AutoCAD 2000
 90
        0
280
     0
281
     1
  0
CLASS
  1
XRECORD
  2
AcDbXrecord
  3
AutoCAD 2000
 90
        0
280
     0
281
     0
  0
CLASS
  1
LONG_TRANSACTION
  2
AcDbLongTransaction
  3
AutoCAD 2000
 90
        0
280
     0
281
     0
  0
CLASS
  1
LWPOLYLINE
  2
AcDbPolyline
  3
AutoCAD 2000
 90
        0
280
     0
281
     1
  0
CLASS
  1
HATCH
  2
AcDbHatch
  3
AutoCAD 2000
 90
        0
280
     0
281
     1
  0
CLASS
  1
XRECORD
  2
AcDbXrecord
  3
AutoCAD 2000
 90
        0
280
     0
281
     0
  0
CLASS
  1
LONG_TRANSACTION
  2
AcDbLongTransaction
  3
AutoCAD 2000
 90
        0
280
     0
281
     0
  0
CLASS
  1
LWPOLYLINE
  2
AcDbPolyline
  3
AutoCAD 2000
 90
        0
280
     0
281
     1
  0
CLASS
  1
HATCH
  2
AcDbHatch
  3
AutoCAD 2000
 90
        0
280
     0
281
     1
  0
CLASS
  1
XRECORD
  2
AcDbXrecord
  3
AutoCAD 2000
 90
        0
280
     0
281
     0
  0
CLASS
  1
LONG_TRANSACTION
  2
AcDbLongTransaction
  3
AutoCAD 2000
 90
        0
280
     0
281
     0
  0
CLASS
  1
LWPOLYLINE
  2
AcDbPolyline
  3
AutoCAD 2000
 90
        0
280
     0
281
     1
  0
CLASS
  1
HATCH
  2
AcDbHatch
  3
AutoCAD 2000
 90
        0
280
     0
281
     1
  0
CLASS
  1
XRECORD
  2
AcDbXrecord
  3
AutoCAD 2000
 90
        0
280
     0
281
     0
  0
CLASS
  1
LONG_TRANSACTION
  2
AcDbLongTransaction
  3
AutoCAD 2000
 90
        0
280
     0
281
     0
  0
CLASS
  1
LWPOLYLINE
  2
AcDbPolyline
  3
AutoCAD 2000
 90
        0
280
     0
281
     1
  0
CLASS
  1
HATCH
  2
AcDbHatch
  3
AutoCAD 2000
 90
        0
280
     0
281
     1
  0
CLASS
  1
XRECORD
  2
AcDbXrecord
  3
AutoCAD 2000
 90
        0
280
     0
281
     0
  0
CLASS
  1
LONG_TRANSACTION
  2
AcDbLongTransaction
  3
AutoCAD 2000
 90
        0
280
     0
281
     0
  0
CLASS
  1
LWPOLYLINE
  2
AcDbPolyline
  3
AutoCAD 2000
 90
        0
280
     0
281
     1
  0
CLASS
  1
HATCH
  2
AcDbHatch
  3
AutoCAD 2000
 90
        0
280
     0
281
     1
  0
CLASS
  1
XRECORD
  2
AcDbXrecord
  3
AutoCAD 2000
 90
        0
280
     0
281
     0
  0
CLASS
  1
LONG_TRANSACTION
  2
AcDbLongTransaction
  3
AutoCAD 2000
 90
        0
280
     0
281
     0
  0
CLASS
  1
LWPOLYLINE
  2
AcDbPolyline
  3
AutoCAD 2000
 90
        0
280
     0
281
     1
  0
CLASS
  1
HATCH
  2
AcDbHatch
  3
AutoCAD 2000
 90
        0
280
     0
281
     1
  0
CLASS
  1
XRECORD
  2
AcDbXrecord
  3
AutoCAD 2000
 90
        0
280
     0
281
     0
  0
CLASS
  1
LONG_TRANSACTION
  2
AcDbLongTransaction
  3
AutoCAD 2000
 90
        0
280
     0
281
     0
  0
CLASS
  1
LWPOLYLINE
  2
AcDbPolyline
  3
AutoCAD 2000
 90
        0
280
     0
281
     1
  0
CLASS
  1
HATCH
  2
AcDbHatch
  3
AutoCAD 2000
 90
        0
280
     0
281
     1
  0
CLASS
  1
XRECORD
  2
AcDbXrecord
  3
AutoCAD 2000
 90
        0
280
     0
281
     0
  0
CLASS
  1
LONG_TRANSACTION
  2
AcDbLongTransaction
  3
AutoCAD 2000
 90
        0
280
     0
281
     0
  0
CLASS
  1
LWPOLYLINE
  2
AcDbPolyline
  3
AutoCAD 2000
 90
        0
280
     0
281
     1
  0
CLASS
  1
HATCH
  2
AcDbHatch
  3
AutoCAD 2000
 90
        0
280
     0
281
     1
  0
CLASS
  1
XRECORD
  2
AcDbXrecord
  3
AutoCAD 2000
 90
        0
280
     0
281
     0
  0
CLASS
  1
LONG_TRANSACTION
  2
AcDbLongTransaction
  3
AutoCAD 2000
 90
        0
280
     0
281
     0
  0
CLASS
  1
LWPOLYLINE
  2
AcDbPolyline
  3
AutoCAD 2000
 90
        0
280
     0
281
     1
  0
CLASS
  1
HATCH
  2
AcDbHatch
  3
AutoCAD 2000
 90
        0
280
     0
281
     1
  0
CLASS
  1
XRECORD
  2
AcDbXrecord
  3
AutoCAD 2000
 90
        0
280
     0
281
     0
  0
CLASS
  1
LONG_TRANSACTION
  2
AcDbLongTransaction
  3
AutoCAD 2000
 90
        0
280
     0
281
     0
  0
CLASS
  1
LWPOLYLINE
  2
AcDbPolyline
  3
AutoCAD 2000
 90
        0
280
     0
281
     1
  0
CLASS
  1
HATCH
  2
AcDbHatch
  3
AutoCAD 2000
 90
        0
280
     0
281
     1
  0
CLASS
  1
XRECORD
  2
AcDbXrecord
  3
AutoCAD 2000
 90
        0
280
     0
281
     0
  0
ENDSEC
  0
SECTION
  2
TABLES
  0
TABLE
  2
VPORT
  5
8
330
0
100
AcDbSymbolTable
 70
     2
  0
VPORT
  5
2B37
330
8
100
AcDbSymbolTableRecord
100
AcDbViewportTableRecord
  2
*ACTIVE
 70
     0
 10
0.0
 20
0.0
 11
1.0
 21
1.0
 12
223.8581048077513
 22
147.7089061973219
 13
0.0
 23
0.0
 14
5.0
 24
5.0
 15
0.0
 25
0.0
 16
0.0
 26
0.0
 36
1.0
 17
0.0
 27
0.0
 37
0.0
 40
336.1551768795647
 41
1.795454545454545
 42
50.0
 43
0.0
 44
0.0
 50
0.0
 51
0.0
 71
     0
 72
   100
 73
     1
 74
     0
 75
     0
 76
     0
 77
     0
 78
     0
  0
ENDTAB
  0
TABLE
  2
LTYPE
  5
5
330
0
100
AcDbSymbolTable
 70
     3
  0
LTYPE
  5
14
330
5
100
AcDbSymbolTableRecord
100
AcDbLinetypeTableRecord
  2
BYBLOCK
 70
     0
  3

 72
    65
 73
     0
 40
0.0
  0
LTYPE
  5
15
330
5
100
AcDbSymbolTableRecord
100
AcDbLinetypeTableRecord
  2
BYLAYER
 70
     0
  3

 72
    65
 73
     0
 40
0.0
  0
LTYPE
  5
16
330
5
100
AcDbSymbolTableRecord
100
AcDbLinetypeTableRecord
  2
CONTINUOUS
 70
     0
  3
Solid line
 72
    65
 73
     0
 40
0.0
  0
LTYPE
  5
120
330
5
100
AcDbSymbolTableRecord
100
AcDbLinetypeTableRecord
  2
CENTER
 70
     0
  3
____ _ ____ _ ____ _ ____ _ ____ _ ____ _ ____ 
 72
    65
 73
     4
 40
2.0
 49
1.25
 74
     0
 49
-0.25
 74
     0
 49
0.25
 74
     0
 49
-0.25
 74
     0
  0
LTYPE
  5
122
330
5
100
AcDbSymbolTableRecord
100
AcDbLinetypeTableRecord
  2
PHANTOM
 70
     0
  3
______  __  __  ______  __  __  ______  __  __ 
 72
    65
 73
     6
 40
2.5
 49
1.25
 74
     0
 49
-0.25
 74
     0
 49
0.25
 74
     0
 49
-0.25
 74
     0
 49
0.25
 74
     0
 49
-0.25
 74
     0
  0
ENDTAB
  0
TABLE
  2
LAYER
  5
2
330
0
100
AcDbSymbolTable
 70
     9
  0
LAYER
  5
F
330
2
100
AcDbSymbolTableRecord
100
AcDbLayerTableRecord
  2
0
 70
     0
 62
     7
  6
CONTINUOUS
  0
LAYER
  5
62
330
2
100
AcDbSymbolTableRecord
100
AcDbLayerTableRecord
  2
VIEWPORT
 70
     0
 62
     7
  6
CONTINUOUS
  0
LAYER
  5
6B
330
2
100
AcDbSymbolTableRecord
100
AcDbLayerTableRecord
  2
ZUWAKU
 70
     0
 62
     7
  6
CONTINUOUS
  0
LAYER
  5
3EF
330
2
100
AcDbSymbolTableRecord
100
AcDbLayerTableRecord
  2
DEFPOINTS
 70
     0
 62
     7
  6
CONTINUOUS
  0
LAYER
  5
54D
330
2
100
AcDbSymbolTableRecord
100
AcDbLayerTableRecord
  2
SEIHIN
 70
     0
 62
     3
  6
CONTINUOUS
  0
LAYER
  5
54E
330
2
100
AcDbSymbolTableRecord
100
AcDbLayerTableRecord
  2
SUNPOU
 70
     0
 62
     4
  6
CONTINUOUS
  0
LAYER
  5
54F
330
2
100
AcDbSymbolTableRecord
100
AcDbLayerTableRecord
  2
CENTER_L
 70
     0
 62
     1
  6
CENTER
  0
LAYER
  5
550
330
2
100
AcDbSymbolTableRecord
100
AcDbLayerTableRecord
  2
NOKITOI
 70
     0
 62
     8
  6
PHANTOM
  0
LAYER
  5
2952
330
2
100
AcDbSymbolTableRecord
100
AcDbLayerTableRecord
  2
MOJI
 70
     0
 62
     2
  6
CONTINUOUS
  0
ENDTAB
  0
TABLE
  2
STYLE
  5
3
330
0
100
AcDbSymbolTable
 70
     2
  0
STYLE
  5
10
330
3
100
AcDbSymbolTableRecord
100
AcDbTextStyleTableRecord
  2
STANDARD
 70
     0
 40
0.0
 41
1.0
 50
0.0
 71
     0
 42
3.0
  3
TXT
  4
c:\PROGRAM FILES\AUTOCAD LT\ms\bigfont.shx
  0
STYLE
  5
2953
330
3
100
AcDbSymbolTableRecord
100
AcDbTextStyleTableRecord
  2
ｽﾀｲﾙ1
 70
     0
 40
0.0
 41
1.0
 50
0.0
 71
     0
 42
2.5
  3
MS PGothic.ttf
  4

1001
ACAD
1000
MS PGothic
1071
    32818
  0
ENDTAB
  0
TABLE
  2
VIEW
  5
6
330
0
100
AcDbSymbolTable
 70
     0
  0
ENDTAB
  0
TABLE
  2
UCS
  5
7
330
0
100
AcDbSymbolTable
 70
     0
  0
ENDTAB
  0
TABLE
  2
APPID
  5
9
330
0
100
AcDbSymbolTable
 70
     1
  0
APPID
  5
11
330
9
100
AcDbSymbolTableRecord
100
AcDbRegAppTableRecord
  2
ACAD
 70
     0
  0
ENDTAB
  0
TABLE
  2
DIMSTYLE
  5
A
330
0
100
AcDbSymbolTable
 70
     1
  0
DIMSTYLE
105
1D
102
{ACAD_REACTORS
330
1F96
330
1FA3
330
1FB0
330
1FEA
330
1FF7
330
2006
330
2015
330
2022
330
204C
330
2059
330
2066
330
2073
102
}
330
A
100
AcDbSymbolTableRecord
100
AcDbDimStyleTableRecord
  2
STANDARD
 70
     0
  3

  4

  5

  6

  7

 40
1.0
 41
0.18
 42
0.0625
 43
0.38
 44
0.18
 45
0.0
 46
0.0
 47
0.0
 48
0.0
140
0.18
141
0.09
142
0.0
143
25.4
144
1.0
145
0.0
146
1.0
147
0.09
 71
     0
 72
     0
 73
     1
 74
     1
 75
     0
 76
     0
 77
     0
 78
     0
170
     0
171
     2
172
     0
173
     0
174
     0
175
     0
176
     0
177
     0
178
     0
270
     2
271
     4
272
     4
273
     2
274
     2
340
10
275
     0
280
     0
281
     0
282
     0
283
     1
284
     0
285
     0
286
     0
287
     3
288
     0
  0
ENDTAB
  0
TABLE
  2
BLOCK_RECORD
  5
1
330
0
100
AcDbSymbolTable
 70
    13
  0
BLOCK_RECORD
  5
1A
102
{ACAD_XDICTIONARY
360
7A2
102
}
330
1
100
AcDbSymbolTableRecord
100
AcDbBlockTableRecord
  2
*MODEL_SPACE
  0
BLOCK_RECORD
  5
17
102
{ACAD_XDICTIONARY
360
7A0
102
}
330
1
100
AcDbSymbolTableRecord
100
AcDbBlockTableRecord
  2
*PAPER_SPACE
  0
BLOCK_RECORD
  5
B2
330
1
100
AcDbSymbolTableRecord
100
AcDbBlockTableRecord
  2
_OPEN
  0
BLOCK_RECORD
  5
1F97
330
1
100
AcDbSymbolTableRecord
100
AcDbBlockTableRecord
  2
*D1
  0
BLOCK_RECORD
  5
1FA4
330
1
100
AcDbSymbolTableRecord
100
AcDbBlockTableRecord
  2
*D2
  0
BLOCK_RECORD
  5
1FB1
330
1
100
AcDbSymbolTableRecord
100
AcDbBlockTableRecord
  2
*D3
  0
BLOCK_RECORD
  5
1FEB
330
1
100
AcDbSymbolTableRecord
100
AcDbBlockTableRecord
  2
*D4
  0
BLOCK_RECORD
  5
1FF8
330
1
100
AcDbSymbolTableRecord
100
AcDbBlockTableRecord
  2
*D5
  0
BLOCK_RECORD
  5
2007
330
1
100
AcDbSymbolTableRecord
100
AcDbBlockTableRecord
  2
*D6
  0
BLOCK_RECORD
  5
2016
330
1
100
AcDbSymbolTableRecord
100
AcDbBlockTableRecord
  2
*D7
  0
BLOCK_RECORD
  5
2023
330
1
100
AcDbSymbolTableRecord
100
AcDbBlockTableRecord
  2
*D8
  0
BLOCK_RECORD
  5
204D
330
1
100
AcDbSymbolTableRecord
100
AcDbBlockTableRecord
  2
*D9
  0
BLOCK_RECORD
  5
205A
330
1
100
AcDbSymbolTableRecord
100
AcDbBlockTableRecord
  2
*D10
  0
BLOCK_RECORD
  5
2067
330
1
100
AcDbSymbolTableRecord
100
AcDbBlockTableRecord
  2
*D11
  0
BLOCK_RECORD
  5
2074
330
1
100
AcDbSymbolTableRecord
100
AcDbBlockTableRecord
  2
*D12
  0
ENDTAB
  0
ENDSEC
  0
SECTION
  2
BLOCKS
  0
BLOCK
  5
1B
330
1A
100
AcDbEntity
  8
0
100
AcDbBlockBegin
  2
*MODEL_SPACE
 70
     0
 10
0.0
 20
0.0
 30
0.0
  3
*MODEL_SPACE
  1

  0
ENDBLK
  5
1C
330
1A
100
AcDbEntity
  8
0
100
AcDbBlockEnd
  0
BLOCK
  5
18
330
17
100
AcDbEntity
 67
     1
  8
0
100
AcDbBlockBegin
  2
*PAPER_SPACE
 70
     0
 10
0.0
 20
0.0
 30
0.0
  3
*PAPER_SPACE
  1

  0
ENDBLK
  5
19
330
17
100
AcDbEntity
 67
     1
  8
0
100
AcDbBlockEnd
  0
BLOCK
  5
B3
330
B2
100
AcDbEntity
  8
0
100
AcDbBlockBegin
  2
_OPEN
 70
     0
 10
0.0
 20
0.0
 30
0.0
  3
_OPEN
  1

  0
LINE
  5
B4
330
B2
100
AcDbEntity
  8
0
  6
BYBLOCK
 62
     0
100
AcDbLine
 10
-1.0
 20
0.1666666666666666
 30
0.0
 11
0.0
 21
0.0
 31
0.0
  0
LINE
  5
B5
330
B2
100
AcDbEntity
  8
0
  6
BYBLOCK
 62
     0
100
AcDbLine
 10
0.0
 20
0.0
 30
0.0
 11
-1.0
 21
-0.1666666666666666
 31
0.0
  0
LINE
  5
B6
330
B2
100
AcDbEntity
  8
0
  6
BYBLOCK
 62
     0
100
AcDbLine
 10
0.0
 20
0.0
 30
0.0
 11
-1.0
 21
0.0
 31
0.0
  0
ENDBLK
  5
B7
330
B2
100
AcDbEntity
  8
0
100
AcDbBlockEnd
  0
BLOCK
  5
1FA1
330
1F97
100
AcDbEntity
  8
0
100
AcDbBlockBegin
  2
*D1
 70
     1
 10
0.0
 20
0.0
 30
0.0
  3
*D1
  1

  0
LINE
  5
2ADE
330
1F97
100
AcDbEntity
  8
SUNPOU
100
AcDbLine
 10
237.6929777370687
 20
142.3588199587883
 30
0.0
 11
39.96174786873098
 21
142.3588199587883
 31
0.0
  0
LINE
  5
2ADF
330
1F97
100
AcDbEntity
  8
SUNPOU
100
AcDbLine
 10
65.29256063706867
 20
85.6448416587883
 30
0.0
 11
39.96174786873097
 21
85.6448416587883
 31
0.0
  0
LINE
  5
2AE0
330
1F97
100
AcDbEntity
  8
SUNPOU
100
AcDbLine
 10
41.46174786873098
 20
139.3588199587883
 30
0.0
 11
41.46174786873097
 21
88.64484165878831
 31
0.0
  0
INSERT
  5
2AE1
330
1F97
100
AcDbEntity
  8
SUNPOU
100
AcDbBlockReference
  2
_OPEN
 10
41.46174786873098
 20
142.3588199587883
 30
0.0
 41
3.0
 42
3.0
 43
3.0
 50
90.0
  0
INSERT
  5
2AE2
330
1F97
100
AcDbEntity
  8
SUNPOU
100
AcDbBlockReference
  2
_OPEN
 10
41.46174786873097
 20
85.6448416587883
 30
0.0
 41
3.0
 42
3.0
 43
3.0
 50
270.0
  0
MTEXT
  5
2AE3
330
1F97
100
AcDbEntity
  8
SUNPOU
100
AcDbMText
 10
38.96174786873096
 20
114.0018308087883
 30
0.0
 40
3.0
 41
0.0
 71
     5
 72
     1
  1
\A1;57
 11
0.0000000000000001
 21
1.0
 31
0.0
1001
ACAD
1000
MTEXTBEGIN
1070
    73
1070
     1
1070
    44
1040
1.0
1070
    74
1070
     0
1000
MTEXTEND
  0
POINT
  5
2AE4
330
1F97
100
AcDbEntity
  8
DEFPOINTS
 62
     0
100
AcDbPoint
 10
240.6929777370686
 20
142.3588199587883
 30
0.0
  0
POINT
  5
2AE5
330
1F97
100
AcDbEntity
  8
DEFPOINTS
 62
     0
100
AcDbPoint
 10
68.29256063706868
 20
85.6448416587883
 30
0.0
  0
POINT
  5
2AE6
330
1F97
100
AcDbEntity
  8
DEFPOINTS
 62
     0
100
AcDbPoint
 10
41.46174786873097
 20
85.6448416587883
 30
0.0
  0
ENDBLK
  5
1FA2
330
1F97
100
AcDbEntity
  8
0
100
AcDbBlockEnd
  0
BLOCK
  5
1FAE
330
1FA4
100
AcDbEntity
  8
0
100
AcDbBlockBegin
  2
*D2
 70
     1
 10
0.0
 20
0.0
 30
0.0
  3
*D2
  1

  0
LINE
  5
2AD5
330
1FA4
100
AcDbEntity
  8
SUNPOU
100
AcDbLine
 10
247.2929777370686
 20
145.3588199587883
 30
0.0
 11
247.2929777370686
 21
167.3814670732135
 31
0.0
  0
LINE
  5
2AD6
330
1FA4
100
AcDbEntity
  8
SUNPOU
100
AcDbLine
 10
120.7925606370686
 20
89.94484165878834
 30
0.0
 11
120.7925606370686
 21
167.3814670732135
 31
0.0
  0
LINE
  5
2AD7
330
1FA4
100
AcDbEntity
  8
SUNPOU
100
AcDbLine
 10
244.2929777370686
 20
165.8814670732135
 30
0.0
 11
123.7925606370686
 21
165.8814670732135
 31
0.0
  0
INSERT
  5
2AD8
330
1FA4
100
AcDbEntity
  8
SUNPOU
100
AcDbBlockReference
  2
_OPEN
 10
247.2929777370686
 20
165.8814670732135
 30
0.0
 41
3.0
 42
3.0
 43
3.0
  0
INSERT
  5
2AD9
330
1FA4
100
AcDbEntity
  8
SUNPOU
100
AcDbBlockReference
  2
_OPEN
 10
120.7925606370686
 20
165.8814670732135
 30
0.0
 41
3.0
 42
3.0
 43
3.0
 50
180.0
  0
MTEXT
  5
2ADA
330
1FA4
100
AcDbEntity
  8
SUNPOU
100
AcDbMText
 10
184.0427691870686
 20
168.3814670732135
 30
0.0
 40
3.0
 41
0.0
 71
     5
 72
     1
  1
\A1;127
1001
ACAD
1000
MTEXTBEGIN
1070
    73
1070
     1
1070
    44
1040
1.0
1070
    74
1070
     0
1000
MTEXTEND
  0
POINT
  5
2ADB
330
1FA4
100
AcDbEntity
  8
DEFPOINTS
 62
     0
100
AcDbPoint
 10
247.2929777370686
 20
142.3588199587883
 30
0.0
  0
POINT
  5
2ADC
330
1FA4
100
AcDbEntity
  8
DEFPOINTS
 62
     0
100
AcDbPoint
 10
120.7925606370686
 20
86.94484165878833
 30
0.0
  0
POINT
  5
2ADD
330
1FA4
100
AcDbEntity
  8
DEFPOINTS
 62
     0
100
AcDbPoint
 10
120.7925606370686
 20
165.8814670732135
 30
0.0
  0
ENDBLK
  5
1FAF
330
1FA4
100
AcDbEntity
  8
0
100
AcDbBlockEnd
  0
BLOCK
  5
1FBB
330
1FB1
100
AcDbEntity
  8
0
100
AcDbBlockBegin
  2
*D3
 70
     1
 10
0.0
 20
0.0
 30
0.0
  3
*D3
  1

  0
LINE
  5
2ACC
330
1FB1
100
AcDbEntity
  8
SUNPOU
100
AcDbLine
 10
68.29256063706868
 20
88.17941227812879
 30
0.0
 11
68.29256063706868
 21
176.8593596279473
 31
0.0
  0
LINE
  5
2ACD
330
1FB1
100
AcDbEntity
  8
SUNPOU
100
AcDbLine
 10
247.2929777370686
 20
145.3588199587883
 30
0.0
 11
247.2929777370686
 21
176.8593596279473
 31
0.0
  0
LINE
  5
2ACE
330
1FB1
100
AcDbEntity
  8
SUNPOU
100
AcDbLine
 10
71.29256063706868
 20
175.3593596279473
 30
0.0
 11
244.2929777370686
 21
175.3593596279473
 31
0.0
  0
INSERT
  5
2ACF
330
1FB1
100
AcDbEntity
  8
SUNPOU
100
AcDbBlockReference
  2
_OPEN
 10
68.29256063706868
 20
175.3593596279473
 30
0.0
 41
3.0
 42
3.0
 43
3.0
 50
180.0
  0
INSERT
  5
2AD0
330
1FB1
100
AcDbEntity
  8
SUNPOU
100
AcDbBlockReference
  2
_OPEN
 10
247.2929777370686
 20
175.3593596279473
 30
0.0
 41
3.0
 42
3.0
 43
3.0
  0
MTEXT
  5
2AD1
330
1FB1
100
AcDbEntity
  8
SUNPOU
100
AcDbMText
 10
157.7927691870686
 20
177.8593596279473
 30
0.0
 40
3.0
 41
0.0
 71
     5
 72
     1
  1
\A1;179
1001
ACAD
1000
MTEXTBEGIN
1070
    73
1070
     1
1070
    44
1040
1.0
1070
    74
1070
     0
1000
MTEXTEND
  0
POINT
  5
2AD2
330
1FB1
100
AcDbEntity
  8
DEFPOINTS
 62
     0
100
AcDbPoint
 10
68.29256063706868
 20
85.1794122781288
 30
0.0
  0
POINT
  5
2AD3
330
1FB1
100
AcDbEntity
  8
DEFPOINTS
 62
     0
100
AcDbPoint
 10
247.2929777370686
 20
142.3588199587883
 30
0.0
  0
POINT
  5
2AD4
330
1FB1
100
AcDbEntity
  8
DEFPOINTS
 62
     0
100
AcDbPoint
 10
247.2929777370686
 20
175.3593596279473
 30
0.0
  0
ENDBLK
  5
1FBC
330
1FB1
100
AcDbEntity
  8
0
100
AcDbBlockEnd
  0
BLOCK
  5
1FF5
330
1FEB
100
AcDbEntity
  8
0
100
AcDbBlockBegin
  2
*D4
 70
     1
 10
0.0
 20
0.0
 30
0.0
  3
*D4
  1

  0
LINE
  5
2AC3
330
1FEB
100
AcDbEntity
  8
SUNPOU
100
AcDbLine
 10
247.2929777370686
 20
145.3588199587883
 30
0.0
 11
247.2929777370686
 21
157.0369103896844
 31
0.0
  0
LINE
  5
2AC4
330
1FEB
100
AcDbEntity
  8
SUNPOU
100
AcDbLine
 10
184.7515033602967
 20
92.67534165878826
 30
0.0
 11
184.7515033602967
 21
157.0369103896844
 31
0.0
  0
LINE
  5
2AC5
330
1FEB
100
AcDbEntity
  8
SUNPOU
100
AcDbLine
 10
244.2929777370686
 20
155.5369103896843
 30
0.0
 11
187.7515033602967
 21
155.5369103896843
 31
0.0
  0
INSERT
  5
2AC6
330
1FEB
100
AcDbEntity
  8
SUNPOU
100
AcDbBlockReference
  2
_OPEN
 10
247.2929777370686
 20
155.5369103896843
 30
0.0
 41
3.0
 42
3.0
 43
3.0
  0
INSERT
  5
2AC7
330
1FEB
100
AcDbEntity
  8
SUNPOU
100
AcDbBlockReference
  2
_OPEN
 10
184.7515033602967
 20
155.5369103896843
 30
0.0
 41
3.0
 42
3.0
 43
3.0
 50
180.0
  0
MTEXT
  5
2AC8
330
1FEB
100
AcDbEntity
  8
SUNPOU
100
AcDbMText
 10
216.0222405486826
 20
158.0369103896844
 30
0.0
 40
3.0
 41
0.0
 71
     5
 72
     1
  1
\A1;63
1001
ACAD
1000
MTEXTBEGIN
1070
    73
1070
     1
1070
    44
1040
1.0
1070
    74
1070
     0
1000
MTEXTEND
  0
POINT
  5
2AC9
330
1FEB
100
AcDbEntity
  8
DEFPOINTS
 62
     0
100
AcDbPoint
 10
247.2929777370686
 20
142.3588199587883
 30
0.0
  0
POINT
  5
2ACA
330
1FEB
100
AcDbEntity
  8
DEFPOINTS
 62
     0
100
AcDbPoint
 10
184.7515033602967
 20
89.67534165878827
 30
0.0
  0
POINT
  5
2ACB
330
1FEB
100
AcDbEntity
  8
DEFPOINTS
 62
     0
100
AcDbPoint
 10
184.7515033602967
 20
155.5369103896843
 30
0.0
  0
ENDBLK
  5
1FF6
330
1FEB
100
AcDbEntity
  8
0
100
AcDbBlockEnd
  0
BLOCK
  5
2002
330
1FF8
100
AcDbEntity
  8
0
100
AcDbBlockBegin
  2
*D5
 70
     1
 10
0.0
 20
0.0
 30
0.0
  3
*D5
  1

  0
LINE
  5
2B0D
330
1FF8
100
AcDbEntity
  8
SUNPOU
100
AcDbLine
 10
250.2929777370686
 20
142.3588199587883
 30
0.0
 11
269.8444721980027
 21
142.3588199587883
 31
0.0
  0
LINE
  5
2B0E
330
1FF8
100
AcDbEntity
  8
SUNPOU
100
AcDbLine
 10
250.2929777370686
 20
107.3588199587883
 30
0.0
 11
269.8444721980026
 21
107.3588199587883
 31
0.0
  0
LINE
  5
2B0F
330
1FF8
100
AcDbEntity
  8
SUNPOU
100
AcDbLine
 10
268.3444721980027
 20
139.3588199587883
 30
0.0
 11
268.3444721980027
 21
110.3588199587883
 31
0.0
  0
INSERT
  5
2B10
330
1FF8
100
AcDbEntity
  8
SUNPOU
100
AcDbBlockReference
  2
_OPEN
 10
268.3444721980027
 20
142.3588199587883
 30
0.0
 41
3.0
 42
3.0
 43
3.0
 50
90.0
  0
INSERT
  5
2B11
330
1FF8
100
AcDbEntity
  8
SUNPOU
100
AcDbBlockReference
  2
_OPEN
 10
268.3444721980027
 20
107.3588199587883
 30
0.0
 41
3.0
 42
3.0
 43
3.0
 50
270.0
  0
MTEXT
  5
2B12
330
1FF8
100
AcDbEntity
  8
SUNPOU
100
AcDbMText
 10
265.8444721980026
 20
124.8588199587883
 30
0.0
 40
3.0
 41
0.0
 71
     5
 72
     1
  1
\A1;35
 11
0.0000000000000001
 21
1.0
 31
0.0
1001
ACAD
1000
MTEXTBEGIN
1070
    73
1070
     1
1070
    44
1040
1.0
1070
    74
1070
     0
1000
MTEXTEND
  0
POINT
  5
2B13
330
1FF8
100
AcDbEntity
  8
DEFPOINTS
 62
     0
100
AcDbPoint
 10
247.2929777370686
 20
142.3588199587883
 30
0.0
  0
POINT
  5
2B14
330
1FF8
100
AcDbEntity
  8
DEFPOINTS
 62
     0
100
AcDbPoint
 10
247.2929777370686
 20
107.3588199587883
 30
0.0
  0
POINT
  5
2B15
330
1FF8
100
AcDbEntity
  8
DEFPOINTS
 62
     0
100
AcDbPoint
 10
268.3444721980027
 20
107.3588199587883
 30
0.0
  0
ENDBLK
  5
2003
330
1FF8
100
AcDbEntity
  8
0
100
AcDbBlockEnd
  0
BLOCK
  5
2013
330
2007
100
AcDbEntity
  8
0
100
AcDbBlockBegin
  2
*D6
 70
     1
 10
0.0
 20
0.0
 30
0.0
  3
*D6
  1

  0
LINE
  5
2B02
330
2007
100
AcDbEntity
  8
SUNPOU
100
AcDbLine
 10
317.7163561032236
 20
142.3588199587883
 30
0.0
 11
301.9983383386577
 21
142.3588199587883
 31
0.0
  0
LINE
  5
2B03
330
2007
100
AcDbEntity
  8
SUNPOU
100
AcDbLine
 10
317.6163561032236
 20
134.3588199587883
 30
0.0
 11
301.9983383386577
 21
134.3588199587883
 31
0.0
  0
LINE
  5
2B04
330
2007
100
AcDbEntity
  8
SUNPOU
100
AcDbLine
 10
303.4983383386577
 20
145.3588199587883
 30
0.0
 11
303.4983383386577
 21
148.3588199587883
 31
0.0
  0
LINE
  5
2B05
330
2007
100
AcDbEntity
  8
SUNPOU
100
AcDbLine
 10
303.4983383386577
 20
131.3588199587883
 30
0.0
 11
303.4983383386577
 21
128.3588199587883
 31
0.0
  0
LINE
  5
2B06
330
2007
100
AcDbEntity
  8
SUNPOU
100
AcDbLine
 10
303.4983383386577
 20
142.3588199587883
 30
0.0
 11
303.4983383386577
 21
134.3588199587883
 31
0.0
  0
INSERT
  5
2B07
330
2007
100
AcDbEntity
  8
SUNPOU
100
AcDbBlockReference
  2
_OPEN
 10
303.4983383386577
 20
142.3588199587883
 30
0.0
 41
3.0
 42
3.0
 43
3.0
 50
270.0
  0
INSERT
  5
2B08
330
2007
100
AcDbEntity
  8
SUNPOU
100
AcDbBlockReference
  2
_OPEN
 10
303.4983383386577
 20
134.3588199587883
 30
0.0
 41
3.0
 42
3.0
 43
3.0
 50
90.0
  0
MTEXT
  5
2B09
330
2007
100
AcDbEntity
  8
SUNPOU
100
AcDbMText
 10
300.9983383386576
 20
138.3588199587883
 30
0.0
 40
3.0
 41
0.0
 71
     5
 72
     1
  1
\A1;8
 11
0.0000000000000001
 21
1.0
 31
0.0
1001
ACAD
1000
MTEXTBEGIN
1070
    73
1070
     1
1070
    44
1040
1.0
1070
    74
1070
     0
1000
MTEXTEND
  0
POINT
  5
2B0A
330
2007
100
AcDbEntity
  8
DEFPOINTS
 62
     0
100
AcDbPoint
 10
320.7163561032236
 20
142.3588199587883
 30
0.0
  0
POINT
  5
2B0B
330
2007
100
AcDbEntity
  8
DEFPOINTS
 62
     0
100
AcDbPoint
 10
320.6163561032236
 20
134.3588199587883
 30
0.0
  0
POINT
  5
2B0C
330
2007
100
AcDbEntity
  8
DEFPOINTS
 62
     0
100
AcDbPoint
 10
303.4983383386577
 20
134.3588199587883
 30
0.0
  0
ENDBLK
  5
2014
330
2007
100
AcDbEntity
  8
0
100
AcDbBlockEnd
  0
BLOCK
  5
2020
330
2016
100
AcDbEntity
  8
0
100
AcDbBlockBegin
  2
*D7
 70
     1
 10
0.0
 20
0.0
 30
0.0
  3
*D7
  1

  0
LINE
  5
2B1F
330
2016
100
AcDbEntity
  8
SUNPOU
100
AcDbLine
 10
317.6163561032236
 20
115.3588199587883
 30
0.0
 11
301.9983383386577
 21
115.3588199587883
 31
0.0
  0
LINE
  5
2B20
330
2016
100
AcDbEntity
  8
SUNPOU
100
AcDbLine
 10
317.7163561032236
 20
107.3588199587883
 30
0.0
 11
301.9983383386577
 21
107.3588199587883
 31
0.0
  0
LINE
  5
2B21
330
2016
100
AcDbEntity
  8
SUNPOU
100
AcDbLine
 10
303.4983383386577
 20
112.3588199587883
 30
0.0
 11
303.4983383386577
 21
110.3588199587883
 31
0.0
  0
INSERT
  5
2B22
330
2016
100
AcDbEntity
  8
SUNPOU
100
AcDbBlockReference
  2
_OPEN
 10
303.4983383386577
 20
115.3588199587883
 30
0.0
 41
3.0
 42
3.0
 43
3.0
 50
90.0
  0
INSERT
  5
2B23
330
2016
100
AcDbEntity
  8
SUNPOU
100
AcDbBlockReference
  2
_OPEN
 10
303.4983383386577
 20
107.3588199587883
 30
0.0
 41
3.0
 42
3.0
 43
3.0
 50
270.0
  0
MTEXT
  5
2B24
330
2016
100
AcDbEntity
  8
SUNPOU
100
AcDbMText
 10
300.9983383386577
 20
111.3588199587883
 30
0.0
 40
3.0
 41
0.0
 71
     5
 72
     1
  1
\A1;8
 11
0.0000000000000001
 21
1.0
 31
0.0
1001
ACAD
1000
MTEXTBEGIN
1070
    73
1070
     1
1070
    44
1040
1.0
1070
    74
1070
     0
1000
MTEXTEND
  0
POINT
  5
2B25
330
2016
100
AcDbEntity
  8
DEFPOINTS
 62
     0
100
AcDbPoint
 10
320.6163561032236
 20
115.3588199587883
 30
0.0
  0
POINT
  5
2B26
330
2016
100
AcDbEntity
  8
DEFPOINTS
 62
     0
100
AcDbPoint
 10
320.7163561032236
 20
107.3588199587883
 30
0.0
  0
POINT
  5
2B27
330
2016
100
AcDbEntity
  8
DEFPOINTS
 62
     0
100
AcDbPoint
 10
303.4983383386577
 20
107.3588199587883
 30
0.0
  0
ENDBLK
  5
2021
330
2016
100
AcDbEntity
  8
0
100
AcDbBlockEnd
  0
BLOCK
  5
202D
330
2023
100
AcDbEntity
  8
0
100
AcDbBlockBegin
  2
*D8
 70
     1
 10
0.0
 20
0.0
 30
0.0
  3
*D8
  1

  0
LINE
  5
2B16
330
2023
100
AcDbEntity
  8
SUNPOU
100
AcDbLine
 10
317.7163561032236
 20
142.3588199587883
 30
0.0
 11
291.9799593109778
 21
142.3588199587883
 31
0.0
  0
LINE
  5
2B17
330
2023
100
AcDbEntity
  8
SUNPOU
100
AcDbLine
 10
317.7163561032236
 20
107.3588199587883
 30
0.0
 11
291.9799593109778
 21
107.3588199587883
 31
0.0
  0
LINE
  5
2B18
330
2023
100
AcDbEntity
  8
SUNPOU
100
AcDbLine
 10
293.4799593109779
 20
139.3588199587883
 30
0.0
 11
293.4799593109778
 21
110.3588199587883
 31
0.0
  0
INSERT
  5
2B19
330
2023
100
AcDbEntity
  8
SUNPOU
100
AcDbBlockReference
  2
_OPEN
 10
293.4799593109779
 20
142.3588199587883
 30
0.0
 41
3.0
 42
3.0
 43
3.0
 50
90.0
  0
INSERT
  5
2B1A
330
2023
100
AcDbEntity
  8
SUNPOU
100
AcDbBlockReference
  2
_OPEN
 10
293.4799593109778
 20
107.3588199587883
 30
0.0
 41
3.0
 42
3.0
 43
3.0
 50
270.0
  0
MTEXT
  5
2B1B
330
2023
100
AcDbEntity
  8
SUNPOU
100
AcDbMText
 10
290.9799593109778
 20
124.8588199587883
 30
0.0
 40
3.0
 41
0.0
 71
     5
 72
     1
  1
\A1;35
 11
0.0000000000000001
 21
1.0
 31
0.0
1001
ACAD
1000
MTEXTBEGIN
1070
    73
1070
     1
1070
    44
1040
1.0
1070
    74
1070
     0
1000
MTEXTEND
  0
POINT
  5
2B1C
330
2023
100
AcDbEntity
  8
DEFPOINTS
 62
     0
100
AcDbPoint
 10
320.7163561032236
 20
142.3588199587883
 30
0.0
  0
POINT
  5
2B1D
330
2023
100
AcDbEntity
  8
DEFPOINTS
 62
     0
100
AcDbPoint
 10
320.7163561032236
 20
107.3588199587883
 30
0.0
  0
POINT
  5
2B1E
330
2023
100
AcDbEntity
  8
DEFPOINTS
 62
     0
100
AcDbPoint
 10
293.4799593109778
 20
107.3588199587883
 30
0.0
  0
ENDBLK
  5
202E
330
2023
100
AcDbEntity
  8
0
100
AcDbBlockEnd
  0
BLOCK
  5
2057
330
204D
100
AcDbEntity
  8
0
100
AcDbBlockBegin
  2
*D9
 70
     1
 10
0.0
 20
0.0
 30
0.0
  3
*D9
  1

  0
LINE
  5
2AF9
330
204D
100
AcDbEntity
  8
SUNPOU
100
AcDbLine
 10
326.7163561032236
 20
143.4588199587883
 30
0.0
 11
326.7163561032236
 21
157.0369103896844
 31
0.0
  0
LINE
  5
2AFA
330
204D
100
AcDbEntity
  8
SUNPOU
100
AcDbLine
 10
370.7163561032236
 20
143.4588199587883
 30
0.0
 11
370.7163561032236
 21
157.0369103896844
 31
0.0
  0
LINE
  5
2AFB
330
204D
100
AcDbEntity
  8
SUNPOU
100
AcDbLine
 10
329.7163561032236
 20
155.5369103896843
 30
0.0
 11
367.7163561032236
 21
155.5369103896843
 31
0.0
  0
INSERT
  5
2AFC
330
204D
100
AcDbEntity
  8
SUNPOU
100
AcDbBlockReference
  2
_OPEN
 10
326.7163561032236
 20
155.5369103896843
 30
0.0
 41
3.0
 42
3.0
 43
3.0
 50
180.0
  0
INSERT
  5
2AFD
330
204D
100
AcDbEntity
  8
SUNPOU
100
AcDbBlockReference
  2
_OPEN
 10
370.7163561032236
 20
155.5369103896843
 30
0.0
 41
3.0
 42
3.0
 43
3.0
  0
MTEXT
  5
2AFE
330
204D
100
AcDbEntity
  8
SUNPOU
100
AcDbMText
 10
348.7163561032236
 20
158.0369103896844
 30
0.0
 40
3.0
 41
0.0
 71
     5
 72
     1
  1
\A1;44
1001
ACAD
1000
MTEXTBEGIN
1070
    73
1070
     1
1070
    44
1040
1.0
1070
    74
1070
     0
1000
MTEXTEND
  0
POINT
  5
2AFF
330
204D
100
AcDbEntity
  8
DEFPOINTS
 62
     0
100
AcDbPoint
 10
326.7163561032236
 20
140.4588199587883
 30
0.0
  0
POINT
  5
2B00
330
204D
100
AcDbEntity
  8
DEFPOINTS
 62
     0
100
AcDbPoint
 10
370.7163561032236
 20
140.4588199587883
 30
0.0
  0
POINT
  5
2B01
330
204D
100
AcDbEntity
  8
DEFPOINTS
 62
     0
100
AcDbPoint
 10
370.7163561032236
 20
155.5369103896843
 30
0.0
  0
ENDBLK
  5
2058
330
204D
100
AcDbEntity
  8
0
100
AcDbBlockEnd
  0
BLOCK
  5
2064
330
205A
100
AcDbEntity
  8
0
100
AcDbBlockBegin
  2
*D10
 70
     1
 10
0.0
 20
0.0
 30
0.0
  3
*D10
  1

  0
LINE
  5
2AF0
330
205A
100
AcDbEntity
  8
SUNPOU
100
AcDbLine
 10
317.7163561032236
 20
142.3588199587883
 30
0.0
 11
317.7163561032236
 21
167.3814670732135
 31
0.0
  0
LINE
  5
2AF1
330
205A
100
AcDbEntity
  8
SUNPOU
100
AcDbLine
 10
379.7163561032236
 20
142.3588199587883
 30
0.0
 11
379.7163561032236
 21
167.3814670732135
 31
0.0
  0
LINE
  5
2AF2
330
205A
100
AcDbEntity
  8
SUNPOU
100
AcDbLine
 10
320.7163561032236
 20
165.8814670732135
 30
0.0
 11
376.7163561032236
 21
165.8814670732135
 31
0.0
  0
INSERT
  5
2AF3
330
205A
100
AcDbEntity
  8
SUNPOU
100
AcDbBlockReference
  2
_OPEN
 10
317.7163561032236
 20
165.8814670732135
 30
0.0
 41
3.0
 42
3.0
 43
3.0
 50
180.0
  0
INSERT
  5
2AF4
330
205A
100
AcDbEntity
  8
SUNPOU
100
AcDbBlockReference
  2
_OPEN
 10
379.7163561032236
 20
165.8814670732135
 30
0.0
 41
3.0
 42
3.0
 43
3.0
  0
MTEXT
  5
2AF5
330
205A
100
AcDbEntity
  8
SUNPOU
100
AcDbMText
 10
348.7163561032236
 20
168.3814670732135
 30
0.0
 40
3.0
 41
0.0
 71
     5
 72
     1
  1
\A1;62
1001
ACAD
1000
MTEXTBEGIN
1070
    73
1070
     1
1070
    44
1040
1.0
1070
    74
1070
     0
1000
MTEXTEND
  0
POINT
  5
2AF6
330
205A
100
AcDbEntity
  8
DEFPOINTS
 62
     0
100
AcDbPoint
 10
317.7163561032236
 20
139.3588199587883
 30
0.0
  0
POINT
  5
2AF7
330
205A
100
AcDbEntity
  8
DEFPOINTS
 62
     0
100
AcDbPoint
 10
379.7163561032236
 20
139.3588199587883
 30
0.0
  0
POINT
  5
2AF8
330
205A
100
AcDbEntity
  8
DEFPOINTS
 62
     0
100
AcDbPoint
 10
379.7163561032236
 20
165.8814670732135
 30
0.0
  0
ENDBLK
  5
2065
330
205A
100
AcDbEntity
  8
0
100
AcDbBlockEnd
  0
BLOCK
  5
2071
330
2067
100
AcDbEntity
  8
0
100
AcDbBlockBegin
  2
*D11
 70
     1
 10
0.0
 20
0.0
 30
0.0
  3
*D11
  1

  0
LINE
  5
2B28
330
2067
100
AcDbEntity
  8
SUNPOU
100
AcDbLine
 10
250.2929777370686
 20
258.8094624906773
 30
0.0
 11
269.8444721980026
 21
258.8094624906773
 31
0.0
  0
LINE
  5
2B29
330
2067
100
AcDbEntity
  8
SUNPOU
100
AcDbLine
 10
250.2929777370686
 20
196.8094624906773
 30
0.0
 11
269.8444721980026
 21
196.8094624906773
 31
0.0
  0
LINE
  5
2B2A
330
2067
100
AcDbEntity
  8
SUNPOU
100
AcDbLine
 10
268.3444721980027
 20
255.8094624906773
 30
0.0
 11
268.3444721980027
 21
199.8094624906773
 31
0.0
  0
INSERT
  5
2B2B
330
2067
100
AcDbEntity
  8
SUNPOU
100
AcDbBlockReference
  2
_OPEN
 10
268.3444721980027
 20
258.8094624906773
 30
0.0
 41
3.0
 42
3.0
 43
3.0
 50
90.0
  0
INSERT
  5
2B2C
330
2067
100
AcDbEntity
  8
SUNPOU
100
AcDbBlockReference
  2
_OPEN
 10
268.3444721980027
 20
196.8094624906773
 30
0.0
 41
3.0
 42
3.0
 43
3.0
 50
270.0
  0
MTEXT
  5
2B2D
330
2067
100
AcDbEntity
  8
SUNPOU
100
AcDbMText
 10
265.8444721980026
 20
227.8094624906773
 30
0.0
 40
3.0
 41
0.0
 71
     5
 72
     1
  1
\A1;62
 11
0.0000000000000001
 21
1.0
 31
0.0
1001
ACAD
1000
MTEXTBEGIN
1070
    73
1070
     1
1070
    44
1040
1.0
1070
    74
1070
     0
1000
MTEXTEND
  0
POINT
  5
2B2E
330
2067
100
AcDbEntity
  8
DEFPOINTS
 62
     0
100
AcDbPoint
 10
247.2929777370686
 20
258.8094624906773
 30
0.0
  0
POINT
  5
2B2F
330
2067
100
AcDbEntity
  8
DEFPOINTS
 62
     0
100
AcDbPoint
 10
247.2929777370686
 20
196.8094624906773
 30
0.0
  0
POINT
  5
2B30
330
2067
100
AcDbEntity
  8
DEFPOINTS
 62
     0
100
AcDbPoint
 10
268.3444721980027
 20
196.8094624906773
 30
0.0
  0
ENDBLK
  5
2072
330
2067
100
AcDbEntity
  8
0
100
AcDbBlockEnd
  0
BLOCK
  5
207E
330
2074
100
AcDbEntity
  8
0
100
AcDbBlockBegin
  2
*D12
 70
     1
 10
0.0
 20
0.0
 30
0.0
  3
*D12
  1

  0
LINE
  5
2AE7
330
2074
100
AcDbEntity
  8
SUNPOU
100
AcDbLine
 10
65.29256063706867
 20
237.8094624906773
 30
0.0
 11
39.96174786873099
 21
237.8094624906773
 31
0.0
  0
LINE
  5
2AE8
330
2074
100
AcDbEntity
  8
SUNPOU
100
AcDbLine
 10
65.29256063706867
 20
217.8094624906773
 30
0.0
 11
39.96174786873099
 21
217.8094624906773
 31
0.0
  0
LINE
  5
2AE9
330
2074
100
AcDbEntity
  8
SUNPOU
100
AcDbLine
 10
41.46174786873099
 20
234.8094624906773
 30
0.0
 11
41.46174786873099
 21
220.8094624906773
 31
0.0
  0
INSERT
  5
2AEA
330
2074
100
AcDbEntity
  8
SUNPOU
100
AcDbBlockReference
  2
_OPEN
 10
41.46174786873099
 20
237.8094624906773
 30
0.0
 41
3.0
 42
3.0
 43
3.0
 50
90.0
  0
INSERT
  5
2AEB
330
2074
100
AcDbEntity
  8
SUNPOU
100
AcDbBlockReference
  2
_OPEN
 10
41.46174786873099
 20
217.8094624906773
 30
0.0
 41
3.0
 42
3.0
 43
3.0
 50
270.0
  0
MTEXT
  5
2AEC
330
2074
100
AcDbEntity
  8
SUNPOU
100
AcDbMText
 10
38.96174786873096
 20
227.8094624906773
 30
0.0
 40
3.0
 41
0.0
 71
     5
 72
     1
  1
\A1;20
 11
0.0000000000000001
 21
1.0
 31
0.0
1001
ACAD
1000
MTEXTBEGIN
1070
    73
1070
     1
1070
    44
1040
1.0
1070
    74
1070
     0
1000
MTEXTEND
  0
POINT
  5
2AED
330
2074
100
AcDbEntity
  8
DEFPOINTS
 62
     0
100
AcDbPoint
 10
68.29256063706868
 20
237.8094624906773
 30
0.0
  0
POINT
  5
2AEE
330
2074
100
AcDbEntity
  8
DEFPOINTS
 62
     0
100
AcDbPoint
 10
68.29256063706868
 20
217.8094624906773
 30
0.0
  0
POINT
  5
2AEF
330
2074
100
AcDbEntity
  8
DEFPOINTS
 62
     0
100
AcDbPoint
 10
41.46174786873099
 20
217.8094624906773
 30
0.0
  0
ENDBLK
  5
207F
330
2074
100
AcDbEntity
  8
0
100
AcDbBlockEnd
  0
ENDSEC
  0
SECTION
  2
ENTITIES
  0
TEXT
  5
9D
330
1A
100
AcDbEntity
  8
ZUWAKU
 48
5.0
100
AcDbText
 10
327.1013476411085
 20
8.060146781246267
 30
0.0
 40
4.0
  1

100
AcDbText
  0
ARC
  5
5A7
330
1A
100
AcDbEntity
  8
NOKITOI
  6
PHANTOM
 62
     8
100
AcDbCircle
 10
116.629587133839
 20
79.73785613515835
 30
0.0
 40
43.00001447645168
100
AcDbArc
 50
186.5249107071177
 51
269.9998883751437
  0
ARC
  5
5A8
330
1A
100
AcDbEntity
  8
NOKITOI
  6
PHANTOM
 62
     8
100
AcDbCircle
 10
116.6296094422643
 20
79.73783603413195
 30
0.0
 40
41.79999437547816
100
AcDbArc
 50
184.4742952125247
 51
269.999854592109
  0
LINE
  5
5A9
330
1A
100
AcDbEntity
  8
NOKITOI
  6
PHANTOM
 62
     8
100
AcDbLine
 10
66.41860336029617
 20
78.87544165878828
 30
0.0
 11
66.33310336029649
 21
81.61294165878823
 31
0.0
  0
LINE
  5
5AA
330
1A
100
AcDbEntity
  8
NOKITOI
  6
PHANTOM
 62
     8
100
AcDbLine
 10
64.88050336029641
 20
89.67534165878825
 30
0.0
 11
65.27070336029623
 21
77.19104165878817
 31
0.0
  0
LINE
  5
5AB
330
1A
100
AcDbEntity
  8
NOKITOI
  6
PHANTOM
 62
     8
100
AcDbLine
 10
74.45850336029685
 20
76.9378416587883
 30
0.0
 11
68.41760336029643
 21
76.9378416587883
 31
0.0
  0
ARC
  5
5AC
330
1A
100
AcDbEntity
  8
NOKITOI
  6
PHANTOM
 62
     8
100
AcDbCircle
 10
72.91459493613388
 20
74.73784917384475
 30
0.0
 40
0.9999924849789756
100
AcDbArc
 50
6.528264606673934
 51
89.99951732740965
  0
LINE
  5
5AD
330
1A
100
AcDbEntity
  8
NOKITOI
  6
PHANTOM
 62
     8
100
AcDbLine
 10
66.76990336029644
 20
75.73784165878826
 30
0.0
 11
72.91460336029627
 21
75.73784165878826
 31
0.0
  0
ARC
  5
5AE
330
1A
100
AcDbEntity
  8
NOKITOI
  6
PHANTOM
 62
     8
100
AcDbCircle
 10
68.41761693243483
 20
78.93782850370186
 30
0.0
 40
1.999986844959662
100
AcDbArc
 50
181.7875531852356
 51
269.9996111843215
  0
ARC
  5
5AF
330
1A
100
AcDbEntity
  8
NOKITOI
  6
PHANTOM
 62
     8
100
AcDbCircle
 10
66.7699393194473
 20
77.23780680464503
 30
0.0
 40
1.499965146287778
100
AcDbArc
 50
181.7866280217767
 51
269.9986264296971
  0
ARC
  5
5B0
330
1A
100
AcDbEntity
  8
NOKITOI
  6
PHANTOM
 62
     8
100
AcDbCircle
 10
74.45851593000475
 20
76.43783003405857
 30
0.0
 40
0.5000116248877111
100
AcDbArc
 50
4.474846808342103
 51
90.00144034898383
  0
ARC
  5
5B1
330
1A
100
AcDbEntity
  8
NOKITOI
  6
PHANTOM
 62
     8
100
AcDbCircle
 10
66.87951611114636
 20
89.73785481387469
 30
0.0
 40
1.999986844954076
100
AcDbArc
 50
90.00036528735451
 51
181.7883072882703
  0
LINE
  5
5B2
330
1A
100
AcDbEntity
  8
NOKITOI
  6
PHANTOM
 62
     8
100
AcDbLine
 10
73.15740336029626
 20
89.23784165878826
 30
0.0
 11
70.92590336029639
 21
89.23784165878826
 31
0.0
  0
ARC
  5
5B3
330
1A
100
AcDbEntity
  8
NOKITOI
  6
PHANTOM
 62
     8
100
AcDbCircle
 10
72.84159647330148
 20
82.73783512370275
 30
0.0
 40
0.499993464961963
100
AcDbArc
 50
270.0007892017869
 51
356.997036131742
  0
LINE
  5
5B4
330
1A
100
AcDbEntity
  8
NOKITOI
  6
PHANTOM
 62
     8
100
AcDbLine
 10
72.17750336029644
 20
83.4378416587883
 30
0.0
 11
72.35870336029643
 21
86.87934165878843
 31
0.0
  0
LINE
  5
5B5
330
1A
100
AcDbEntity
  8
NOKITOI
  6
PHANTOM
 62
     8
100
AcDbLine
 10
71.8037033602966
 20
86.26624165878817
 30
0.0
 11
72.35870336029643
 21
86.87934165878843
 31
0.0
  0
ARC
  5
5B6
330
1A
100
AcDbEntity
  8
NOKITOI
  6
PHANTOM
 62
     8
100
AcDbCircle
 10
70.33122357296566
 20
81.7379003871683
 30
0.0
 40
5.2000412730095
100
AcDbArc
 50
90.0013245430618
 51
142.0757990790548
  0
LINE
  5
5B7
330
1A
100
AcDbEntity
  8
NOKITOI
  6
PHANTOM
 62
     8
100
AcDbLine
 10
66.07990336029684
 20
89.71284165878817
 30
0.0
 11
66.22930336029617
 21
84.93394165878838
 31
0.0
  0
ARC
  5
5B8
330
1A
100
AcDbEntity
  8
NOKITOI
  6
PHANTOM
 62
     8
100
AcDbCircle
 10
70.33114124174312
 20
81.73788544131364
 30
0.0
 40
3.999989731271038
100
AcDbArc
 50
96.47731142013116
 51
181.7899836067311
  0
ARC
  5
5B9
330
1A
100
AcDbEntity
  8
NOKITOI
  6
PHANTOM
 62
     8
100
AcDbCircle
 10
69.93631757871185
 20
85.21552702448728
 30
0.0
 40
0.5000073448410256
100
AcDbArc
 50
351.872947864124
 51
96.47829282996921
  0
LINE
  5
5BA
330
1A
100
AcDbEntity
  8
NOKITOI
  6
PHANTOM
 62
     8
100
AcDbLine
 10
71.39960336029685
 20
83.4378416587883
 30
0.0
 11
71.8037033602966
 21
86.26624165878817
 31
0.0
  0
LINE
  5
5BB
330
1A
100
AcDbEntity
  8
NOKITOI
  6
PHANTOM
 62
     8
100
AcDbLine
 10
72.17750336029644
 20
83.4378416587883
 30
0.0
 11
71.39960336029685
 21
83.4378416587883
 31
0.0
  0
ARC
  5
5BC
330
1A
100
AcDbEntity
  8
NOKITOI
  6
PHANTOM
 62
     8
100
AcDbCircle
 10
70.59252996089412
 20
82.73781098190623
 30
0.0
 40
0.4999693238254178
100
AcDbArc
 50
171.8555038770531
 51
269.9969516090356
  0
LINE
  5
5BD
330
1A
100
AcDbEntity
  8
NOKITOI
  6
PHANTOM
 62
     8
100
AcDbLine
 10
72.8416033602964
 20
82.23784165878825
 30
0.0
 11
70.59250336029641
 21
82.23784165878825
 31
0.0
  0
LINE
  5
5BE
330
1A
100
AcDbEntity
  8
NOKITOI
  6
PHANTOM
 62
     8
100
AcDbLine
 10
70.09760336029626
 20
82.80864165878844
 30
0.0
 11
70.4313033602964
 21
85.1448416587884
 31
0.0
  0
LINE
  5
5BF
330
1A
100
AcDbEntity
  8
NOKITOI
  6
PHANTOM
 62
     8
100
AcDbLine
 10
69.35230336029667
 20
90.53784165878843
 30
0.0
 11
68.85230336029668
 21
88.03784165878843
 31
0.0
  0
LINE
  5
5C0
330
1A
100
AcDbEntity
  8
NOKITOI
  6
PHANTOM
 62
     8
100
AcDbLine
 10
68.85230336029668
 20
88.03784165878843
 30
0.0
 11
71.78880336029647
 21
88.03784165878843
 31
0.0
  0
LINE
  5
5C1
330
1A
100
AcDbEntity
  8
NOKITOI
  6
PHANTOM
 62
     8
100
AcDbLine
 10
66.87950336029621
 20
91.73784165878826
 30
0.0
 11
70.20610336029654
 21
91.73784165878826
 31
0.0
  0
LINE
  5
5C2
330
1A
100
AcDbEntity
  8
NOKITOI
  6
PHANTOM
 62
     8
100
AcDbLine
 10
66.87950336029621
 20
90.53784165878843
 30
0.0
 11
69.35230336029667
 21
90.53784165878843
 31
0.0
  0
ARC
  5
5C3
330
1A
100
AcDbEntity
  8
NOKITOI
  6
PHANTOM
 62
     8
100
AcDbCircle
 10
66.87950785509451
 20
89.73784629631515
 30
0.0
 40
0.7999953624857498
100
AcDbArc
 50
90.00032191805264
 51
181.7911273464193
  0
ARC
  5
5C4
330
1A
100
AcDbEntity
  8
NOKITOI
  6
PHANTOM
 62
     8
100
AcDbCircle
 10
70.20610257728799
 20
91.23784261378999
 30
0.0
 40
0.4999990449987349
100
AcDbArc
 50
348.6967198015447
 51
89.99991027369492
  0
ARC
  5
5C5
330
1A
100
AcDbEntity
  8
NOKITOI
  6
PHANTOM
 62
     8
100
AcDbCircle
 10
70.925896105741
 20
89.73785050863169
 30
0.0
 40
0.5000088498959383
100
AcDbArc
 50
168.6864043304892
 51
270.0008312961442
  0
LINE
  5
5C6
330
1A
100
AcDbEntity
  8
NOKITOI
  6
PHANTOM
 62
     8
100
AcDbLine
 10
70.43560336029646
 20
89.83594165878818
 30
0.0
 11
70.69640336029647
 21
91.1398416587883
 31
0.0
  0
LINE
  5
5C7
330
1A
100
AcDbEntity
  8
NOKITOI
  6
PHANTOM
 62
     8
100
AcDbLine
 10
70.79300336029678
 20
86.93784165878829
 30
0.0
 11
70.33110336029654
 21
86.93784165878829
 31
0.0
  0
LINE
  5
5C8
330
1A
100
AcDbEntity
  8
NOKITOI
  6
PHANTOM
 62
     8
100
AcDbLine
 10
70.79300336029678
 20
86.93784165878829
 30
0.0
 11
71.78880336029647
 21
88.03784165878843
 31
0.0
  0
LINE
  5
5C9
330
1A
100
AcDbEntity
  8
NOKITOI
  6
PHANTOM
 62
     8
100
AcDbLine
 10
73.34100336029655
 20
82.71164165878824
 30
0.0
 11
73.6568033602964
 21
88.71154165878825
 31
0.0
  0
ARC
  5
5CA
330
1A
100
AcDbEntity
  8
NOKITOI
  6
PHANTOM
 62
     8
100
AcDbCircle
 10
73.15739715913855
 20
88.73784819387353
 30
0.0
 40
0.4999934649531607
100
AcDbArc
 50
356.9955363203376
 51
89.99928939038076
  0
LINE
  5
5CB
330
1A
100
AcDbEntity
  8
NOKITOI
  6
PHANTOM
 62
     8
100
AcDbLine
 10
157.4590033602964
 20
36.73774165878828
 30
0.0
 11
137.3011033602967
 21
36.73774165878828
 31
0.0
  0
LINE
  5
5CC
330
1A
100
AcDbEntity
  8
NOKITOI
  6
PHANTOM
 62
     8
100
AcDbLine
 10
157.2092033602964
 20
37.93774165878832
 30
0.0
 11
137.3011033602967
 21
37.93774165878832
 31
0.0
  0
LINE
  5
5CD
330
1A
100
AcDbEntity
  8
NOKITOI
  6
PHANTOM
 62
     8
100
AcDbLine
 10
161.4590033602964
 20
36.73774165878828
 30
0.0
 11
116.6296033602963
 21
36.73784165878825
 31
0.0
  0
LINE
  5
5CE
330
1A
100
AcDbEntity
  8
NOKITOI
  6
PHANTOM
 62
     8
100
AcDbLine
 10
116.6296033602963
 20
37.9378416587883
 30
0.0
 11
161.2092033602964
 21
37.93774165878832
 31
0.0
  0
LINE
  5
5CF
330
1A
100
AcDbEntity
  8
NOKITOI
  6
PHANTOM
 62
     8
100
AcDbLine
 10
183.2135033602964
 20
78.87524165878833
 30
0.0
 11
183.2990033602961
 21
81.61284165878825
 31
0.0
  0
LINE
  5
5D0
330
1A
100
AcDbEntity
  8
NOKITOI
  6
PHANTOM
 62
     8
100
AcDbLine
 10
184.7515033602964
 20
89.67534165878825
 30
0.0
 11
184.3614033602964
 21
77.19094165878821
 31
0.0
  0
LINE
  5
5D1
330
1A
100
AcDbEntity
  8
NOKITOI
  6
PHANTOM
 62
     8
100
AcDbLine
 10
182.8621033602964
 20
75.73784165878826
 30
0.0
 11
176.7210033602966
 21
75.73784165878826
 31
0.0
  0
LINE
  5
5D2
330
1A
100
AcDbEntity
  8
NOKITOI
  6
PHANTOM
 62
     8
100
AcDbLine
 10
175.182503360296
 20
76.9378416587883
 30
0.0
 11
181.2144033602964
 21
76.9378416587883
 31
0.0
  0
LINE
  5
5D3
330
1A
100
AcDbEntity
  8
NOKITOI
  6
PHANTOM
 62
     8
100
AcDbLine
 10
175.7260033602967
 20
74.83734165878829
 30
0.0
 11
172.8572033602965
 21
46.14994165878826
 31
0.0
  0
LINE
  5
5D4
330
1A
100
AcDbEntity
  8
NOKITOI
  6
PHANTOM
 62
     8
100
AcDbLine
 10
174.6850033602965
 20
76.4876416587883
 30
0.0
 11
171.6920033602962
 21
46.55784165878819
 31
0.0
  0
LINE
  5
5D5
330
1A
100
AcDbEntity
  8
NOKITOI
  6
PHANTOM
 62
     8
100
AcDbLine
 10
172.4954033602964
 20
45.47544165878841
 30
0.0
 11
162.0923033602964
 21
36.96374165878839
 31
0.0
  0
LINE
  5
5D6
330
1A
100
AcDbEntity
  8
NOKITOI
  6
PHANTOM
 62
     8
100
AcDbLine
 10
171.5111033602967
 20
46.22054165878828
 30
0.0
 11
161.5258033602965
 21
38.05074165878815
 31
0.0
  0
ARC
  5
5D7
330
1A
100
AcDbEntity
  8
NOKITOI
  6
PHANTOM
 62
     8
100
AcDbCircle
 10
161.458996427719
 20
37.73773918378216
 30
0.0
 40
0.9999975250179316
100
AcDbArc
 50
270.0003972084035
 51
309.2946416752299
  0
ARC
  5
5D8
330
1A
100
AcDbEntity
  8
NOKITOI
  6
PHANTOM
 62
     8
100
AcDbCircle
 10
161.2092097480451
 20
38.43774393877785
 30
0.0
 40
0.5000022800304047
100
AcDbArc
 50
269.9992680212791
 51
309.2854498596061
  0
ARC
  5
5D9
330
1A
100
AcDbEntity
  8
NOKITOI
  6
PHANTOM
 62
     8
100
AcDbCircle
 10
171.8621807874276
 20
46.24939958711567
 30
0.0
 40
0.9999908507640039
100
AcDbArc
 50
309.288709223069
 51
354.2862329477532
  0
ARC
  5
5DA
330
1A
100
AcDbEntity
  8
NOKITOI
  6
PHANTOM
 62
     8
100
AcDbCircle
 10
171.1944859344182
 20
46.60750917240031
 30
0.0
 40
0.4999904508696396
100
AcDbArc
 50
309.2900846377951
 51
354.2990110749239
  0
ARC
  5
5DB
330
1A
100
AcDbEntity
  8
NOKITOI
  6
PHANTOM
 62
     8
100
AcDbCircle
 10
176.7210240101373
 20
74.73786034663746
 30
0.0
 40
0.9999813123640345
100
AcDbArc
 50
90.00118317084911
 51
174.2905900333514
  0
ARC
  5
5DC
330
1A
100
AcDbEntity
  8
NOKITOI
  6
PHANTOM
 62
     8
100
AcDbCircle
 10
175.182516431301
 20
76.43785348906814
 30
0.0
 40
0.499988169890889
100
AcDbArc
 50
90.00149786226634
 51
174.2966061377162
  0
ARC
  5
5DD
330
1A
100
AcDbEntity
  8
NOKITOI
  6
PHANTOM
 62
     8
100
AcDbCircle
 10
182.8621205734745
 20
77.23785834193606
 30
0.0
 40
1.500016683246579
100
AcDbArc
 50
269.9993425123344
 51
358.2076423244113
  0
ARC
  5
5DE
330
1A
100
AcDbEntity
  8
NOKITOI
  6
PHANTOM
 62
     8
100
AcDbCircle
 10
181.2144413481207
 20
78.9377784793605
 30
0.0
 40
2.000036820932882
100
AcDbArc
 50
269.9989117490344
 51
358.2110591274195
  0
LINE
  5
5DF
330
1A
100
AcDbEntity
  8
NOKITOI
  6
PHANTOM
 62
     8
100
AcDbLine
 10
182.7525033602966
 20
91.73774165878828
 30
0.0
 11
179.4259033602963
 21
91.73784165878826
 31
0.0
  0
LINE
  5
5E0
330
1A
100
AcDbEntity
  8
NOKITOI
  6
PHANTOM
 62
     8
100
AcDbLine
 10
180.7798033602964
 20
88.03784165878843
 30
0.0
 11
177.8432033602964
 21
88.03784165878843
 31
0.0
  0
ARC
  5
5E1
330
1A
100
AcDbEntity
  8
NOKITOI
  6
PHANTOM
 62
     8
100
AcDbCircle
 10
179.6957327327961
 20
85.21547189128316
 30
0.0
 40
0.4999578477751074
100
AcDbArc
 50
83.52609071220754
 51
188.1330561712932
  0
ARC
  5
5E2
330
1A
100
AcDbEntity
  8
NOKITOI
  6
PHANTOM
 62
     8
100
AcDbCircle
 10
179.3009854939452
 20
81.7378503871682
 30
0.0
 40
5.199991271650611
100
AcDbArc
 50
37.92532860472995
 51
89.9998031407256
  0
LINE
  5
5E3
330
1A
100
AcDbEntity
  8
NOKITOI
  6
PHANTOM
 62
     8
100
AcDbLine
 10
177.4545033602964
 20
83.4378416587883
 30
0.0
 11
177.2734033602962
 21
86.87924165878824
 31
0.0
  0
LINE
  5
5E4
330
1A
100
AcDbEntity
  8
NOKITOI
  6
PHANTOM
 62
     8
100
AcDbLine
 10
177.8284033602965
 20
86.26624165878817
 30
0.0
 11
177.2734033602962
 21
86.87924165878824
 31
0.0
  0
LINE
  5
5E5
330
1A
100
AcDbEntity
  8
NOKITOI
  6
PHANTOM
 62
     8
100
AcDbLine
 10
176.2911033602965
 20
82.71154165878826
 30
0.0
 11
175.9753033602962
 21
88.71154165878825
 31
0.0
  0
LINE
  5
5E6
330
1A
100
AcDbEntity
  8
NOKITOI
  6
PHANTOM
 62
     8
100
AcDbLine
 10
178.232403360296
 20
83.4378416587883
 30
0.0
 11
177.8284033602965
 21
86.26624165878817
 31
0.0
  0
LINE
  5
5E7
330
1A
100
AcDbEntity
  8
NOKITOI
  6
PHANTOM
 62
     8
100
AcDbLine
 10
177.4545033602964
 20
83.4378416587883
 30
0.0
 11
178.232403360296
 21
83.4378416587883
 31
0.0
  0
LINE
  5
5E8
330
1A
100
AcDbEntity
  8
NOKITOI
  6
PHANTOM
 62
     8
100
AcDbLine
 10
176.7904033602964
 20
82.23784165878825
 30
0.0
 11
179.039503360296
 21
82.23784165878825
 31
0.0
  0
ARC
  5
5E9
330
1A
100
AcDbEntity
  8
NOKITOI
  6
PHANTOM
 62
     8
100
AcDbCircle
 10
176.7904074817031
 20
82.73783774875775
 30
0.0
 40
0.4999960899864752
100
AcDbArc
 50
183.0147243791741
 51
269.9995277178593
  0
ARC
  5
5EA
330
1A
100
AcDbEntity
  8
NOKITOI
  6
PHANTOM
 62
     8
100
AcDbCircle
 10
179.0395135467326
 20
82.73785340351238
 30
0.0
 40
0.5000117448278309
100
AcDbArc
 50
269.9988327478016
 51
8.127314608715551
  0
LINE
  5
5EB
330
1A
100
AcDbEntity
  8
NOKITOI
  6
PHANTOM
 62
     8
100
AcDbLine
 10
179.5345033602963
 20
82.80854165878825
 30
0.0
 11
179.2007033602964
 21
85.14474165878842
 31
0.0
  0
LINE
  5
5EC
330
1A
100
AcDbEntity
  8
NOKITOI
  6
PHANTOM
 62
     8
100
AcDbLine
 10
176.4746033602966
 20
89.23784165878826
 30
0.0
 11
178.7061033602965
 21
89.23784165878826
 31
0.0
  0
ARC
  5
5ED
330
1A
100
AcDbEntity
  8
NOKITOI
  6
PHANTOM
 62
     8
100
AcDbCircle
 10
176.4746070697917
 20
88.73784556881899
 30
0.0
 40
0.4999960899831856
100
AcDbArc
 50
90.00042508015082
 51
183.0156217414647
  0
ARC
  5
5EE
330
1A
100
AcDbEntity
  8
NOKITOI
  6
PHANTOM
 62
     8
100
AcDbCircle
 10
179.4258961057409
 20
91.23783280894484
 30
0.0
 40
0.500008849895925
100
AcDbArc
 50
89.99916870385415
 51
191.3135956695126
  0
ARC
  5
5EF
330
1A
100
AcDbEntity
  8
NOKITOI
  6
PHANTOM
 62
     8
100
AcDbCircle
 10
178.7061025772879
 20
89.73784070378654
 30
0.0
 40
0.4999990449987399
100
AcDbArc
 50
270.000089726305
 51
11.30328019845521
  0
LINE
  5
5F0
330
1A
100
AcDbEntity
  8
NOKITOI
  6
PHANTOM
 62
     8
100
AcDbLine
 10
179.1964033602964
 20
89.83584165878843
 30
0.0
 11
178.9356033602964
 21
91.1398416587883
 31
0.0
  0
LINE
  5
5F1
330
1A
100
AcDbEntity
  8
NOKITOI
  6
PHANTOM
 62
     8
100
AcDbLine
 10
178.8390033602965
 20
86.93784165878829
 30
0.0
 11
179.3010033602965
 21
86.93784165878829
 31
0.0
  0
LINE
  5
5F2
330
1A
100
AcDbEntity
  8
NOKITOI
  6
PHANTOM
 62
     8
100
AcDbLine
 10
178.8390033602965
 20
86.93784165878829
 30
0.0
 11
177.8432033602964
 21
88.03784165878843
 31
0.0
  0
LINE
  5
5F3
330
1A
100
AcDbEntity
  8
NOKITOI
  6
PHANTOM
 62
     8
100
AcDbLine
 10
183.552103360296
 20
89.71284165878817
 30
0.0
 11
183.4028033602964
 21
84.9338416587884
 31
0.0
  0
ARC
  5
5F4
330
1A
100
AcDbEntity
  8
NOKITOI
  6
PHANTOM
 62
     8
100
AcDbCircle
 10
179.3009724333603
 20
81.73787740345208
 30
0.0
 40
3.99998565374706
100
AcDbArc
 50
358.208696659101
 51
83.52422380468341
  0
ARC
  5
5F5
330
1A
100
AcDbEntity
  8
NOKITOI
  6
PHANTOM
 62
     8
100
AcDbCircle
 10
182.7524921233022
 20
89.73785325260539
 30
0.0
 40
1.999988406214315
100
AcDbArc
 50
358.2088726535936
 51
89.99967808195551
  0
LINE
  5
5F6
330
1A
100
AcDbEntity
  8
NOKITOI
  6
PHANTOM
 62
     8
100
AcDbLine
 10
182.7525033602966
 20
90.53774165878824
 30
0.0
 11
180.2798033602964
 21
90.53784165878843
 31
0.0
  0
LINE
  5
5F7
330
1A
100
AcDbEntity
  8
NOKITOI
  6
PHANTOM
 62
     8
100
AcDbLine
 10
180.2798033602964
 20
90.53784165878843
 30
0.0
 11
180.7798033602964
 21
88.03784165878843
 31
0.0
  0
ARC
  5
5F8
330
1A
100
AcDbEntity
  8
NOKITOI
  6
PHANTOM
 62
     8
100
AcDbCircle
 10
182.7525473266493
 20
89.73779629631527
 30
0.0
 40
0.7999453636812564
100
AcDbArc
 50
358.2123436447881
 51
90.00314907315425
  0
LINE
  5
1D19
330
1A
100
AcDbEntity
  8
SEIHIN
100
AcDbLine
 10
144.0072792802839
 20
86.530628101948
 30
0.0
 11
156.7947658370686
 21
99.31811475878834
 31
0.0
  0
ARC
  5
1D1B
330
1A
100
AcDbEntity
  8
SEIHIN
100
AcDbCircle
 10
143.3072792370686
 20
86.74484165878833
 30
0.0
 40
5.500000002456481
100
AcDbArc
 50
270.0
 51
315.0
  0
LINE
  5
1D1E
330
1A
100
AcDbEntity
  8
SEIHIN
100
AcDbLine
 10
78.19613383706871
 20
73.64484165878831
 30
0.0
 11
146.6209877370686
 21
73.64484165878831
 31
0.0
  0
LINE
  5
1D23
330
1A
100
AcDbEntity
  8
SEIHIN
100
AcDbLine
 10
143.3001724587041
 20
87.23773488036815
 30
0.0
 11
156.0876590370686
 21
100.0252215587883
 31
0.0
  0
LINE
  5
1D24
330
1A
100
AcDbEntity
  8
CENTER_L
100
AcDbLine
 10
130.7925606370686
 20
96.1354445328957
 30
0.0
 11
130.7925606370686
 21
71.19642708091338
 31
0.0
  0
LINE
  5
1D2A
330
1A
100
AcDbEntity
  8
SEIHIN
100
AcDbLine
 10
120.7925606370686
 20
86.94484165878833
 30
0.0
 11
120.7925606370686
 21
81.44484165878834
 31
0.0
  0
LINE
  5
1D2C
330
1A
100
AcDbEntity
  8
SEIHIN
100
AcDbLine
 10
70.59256063706868
 20
81.24484165878833
 30
0.0
 11
143.3074436188121
 21
81.24484165878833
 31
0.0
  0
ARC
  5
1D41
330
1A
100
AcDbEntity
  8
SEIHIN
100
AcDbCircle
 10
78.19613383706871
 20
75.24484165878833
 30
0.0
 40
1.599999992064534
100
AcDbArc
 50
185.0000004668387
 51
270.0
  0
LINE
  5
1D42
330
1A
100
AcDbEntity
  8
SEIHIN
100
AcDbLine
 10
71.39256063706864
 20
78.64484165878831
 30
0.0
 11
76.29256063706868
 21
78.64484165878831
 31
0.0
  0
ARC
  5
1D43
330
1A
100
AcDbEntity
  8
SEIHIN
100
AcDbCircle
 10
71.39256063706864
 20
81.74484165878833
 30
0.0
 40
3.100000000000008
100
AcDbArc
 50
180.0
 51
270.0
  0
LINE
  5
1D44
330
1A
100
AcDbEntity
  8
SEIHIN
100
AcDbLine
 10
68.29256063706868
 20
85.6448416587883
 30
0.0
 11
70.09256063706868
 21
85.6448416587883
 31
0.0
  0
ARC
  5
1D45
330
1A
100
AcDbEntity
  8
SEIHIN
100
AcDbCircle
 10
70.59256063706868
 20
81.74484165878833
 30
0.0
 40
0.5
100
AcDbArc
 50
180.0
 51
270.0
  0
LINE
  5
1D46
330
1A
100
AcDbEntity
  8
SEIHIN
100
AcDbLine
 10
68.29256063706868
 20
85.6448416587883
 30
0.0
 11
68.29256063706868
 21
81.74484165878833
 31
0.0
  0
LINE
  5
1D47
330
1A
100
AcDbEntity
  8
SEIHIN
100
AcDbLine
 10
70.09256063706868
 20
85.6448416587883
 30
0.0
 11
70.09256063706868
 21
81.74484165878833
 31
0.0
  0
LINE
  5
1D48
330
1A
100
AcDbEntity
  8
SEIHIN
100
AcDbLine
 10
76.60222233706867
 20
75.10539245878833
 30
0.0
 11
76.06509009730223
 21
81.24484165878831
 31
0.0
  0
LINE
  5
1D4B
330
1A
100
AcDbEntity
  8
SEIHIN
100
AcDbLine
 10
120.7925606370686
 20
85.94484165878833
 30
0.0
 11
142.5930657123781
 21
85.94484165878833
 31
0.0
  0
LINE
  5
1D4D
330
1A
100
AcDbEntity
  8
SEIHIN
100
AcDbLine
 10
120.7925606370686
 20
81.24484165878833
 30
0.0
 11
143.3072792370686
 21
81.24484165878833
 31
0.0
  0
ARC
  5
1D5C
330
1A
100
AcDbEntity
  8
SEIHIN
100
AcDbCircle
 10
130.7925606370686
 20
81.05421665878834
 30
0.0
 40
7.890625
100
AcDbArc
 50
48.29108392084388
 51
131.708916079156
  0
LINE
  5
1D5D
330
1A
100
AcDbEntity
  8
SEIHIN
100
AcDbLine
 10
120.7925606370686
 20
86.94484165878833
 30
0.0
 11
142.5930656747511
 21
86.94484165878831
 31
0.0
  0
LINE
  5
1D5E
330
1A
100
AcDbEntity
  8
SEIHIN
100
AcDbLine
 10
358.7163561032236
 20
97.18017065878832
 30
0.0
 11
358.7163561032236
 21
72.77721365878831
 31
0.0
  0
LINE
  5
1D60
330
1A
100
AcDbEntity
  8
CENTER_L
100
AcDbLine
 10
348.7163561032236
 20
151.9946135607823
 30
0.0
 11
348.7163561032236
 21
67.69771405878832
 31
0.0
  0
LINE
  5
1D61
330
1A
100
AcDbEntity
  8
SEIHIN
100
AcDbLine
 10
358.7163561032236
 20
142.3588199587883
 30
0.0
 11
358.7163561032236
 21
97.1801706587883
 31
0.0
  0
LINE
  5
1D62
330
1A
100
AcDbEntity
  8
SEIHIN
100
AcDbLine
 10
361.3163561032236
 20
95.68017065878832
 30
0.0
 11
361.3163561032236
 21
73.64484165878831
 31
0.0
  0
LINE
  5
1D63
330
1A
100
AcDbEntity
  8
SEIHIN
100
AcDbLine
 10
344.7163561032236
 20
97.18017065878832
 30
0.0
 11
344.7163561032235
 21
73.27721365878831
 31
0.0
  0
LINE
  5
1D64
330
1A
100
AcDbEntity
  8
SEIHIN
100
AcDbLine
 10
352.7163561032236
 20
97.18017065878832
 30
0.0
 11
352.7163561032236
 21
73.27721365878831
 31
0.0
  0
LINE
  5
1D65
330
1A
100
AcDbEntity
  8
SEIHIN
100
AcDbLine
 10
190.2925606370686
 20
92.74484165878835
 30
0.0
 11
190.2925606370686
 21
75.71932398136016
 31
0.0
  0
LINE
  5
1D66
330
1A
100
AcDbEntity
  8
SEIHIN
100
AcDbLine
 10
338.7163561032236
 20
142.3588199587883
 30
0.0
 11
338.7163561032235
 21
97.1801706587883
 31
0.0
  0
LINE
  5
1D67
330
1A
100
AcDbEntity
  8
SEIHIN
100
AcDbLine
 10
186.6925606370686
 20
92.74484165878835
 30
0.0
 11
186.6925606370686
 21
75.77173175878833
 31
0.0
  0
LINE
  5
1D68
330
1A
100
AcDbEntity
  8
SEIHIN
100
AcDbLine
 10
189.2925606370686
 20
92.74484165878835
 30
0.0
 11
189.2925606370686
 21
75.77173175878833
 31
0.0
  0
LINE
  5
1D6A
330
1A
100
AcDbEntity
  8
SEIHIN
100
AcDbLine
 10
336.1163561032236
 20
95.68017065878832
 30
0.0
 11
336.1163561032236
 21
73.64484165878831
 31
0.0
  0
LINE
  5
1D6B
330
1A
100
AcDbEntity
  8
SEIHIN
100
AcDbLine
 10
338.7163561032236
 20
97.18017065878832
 30
0.0
 11
338.7163561032236
 21
72.77721365878831
 31
0.0
  0
LINE
  5
1D6C
330
1A
100
AcDbEntity
  8
SEIHIN
100
AcDbLine
 10
150.2272323370686
 20
75.13859705878831
 30
0.0
 11
164.6270622960574
 21
89.53842709501703
 31
0.0
  0
LINE
  5
1D6E
330
1A
100
AcDbEntity
  8
SEIHIN
100
AcDbLine
 10
147.1963665370686
 20
82.85575435878833
 30
0.0
 11
159.0269161320136
 21
94.68630395373327
 31
0.0
  0
LINE
  5
1D79
330
1A
100
AcDbEntity
  8
SEIHIN
100
AcDbLine
 10
161.2737869370686
 20
72.23976455878831
 30
0.0
 11
173.2168333370687
 21
78.06477745878833
 31
0.0
  0
LINE
  5
1D7A
330
1A
100
AcDbEntity
  8
SEIHIN
100
AcDbLine
 10
161.9313435370686
 20
70.8915733587883
 30
0.0
 11
173.2168333370687
 21
76.39587455878832
 31
0.0
  0
LINE
  5
1D7B
330
1A
100
AcDbEntity
  8
SEIHIN
100
AcDbLine
 10
161.0984385370686
 20
72.59928215878831
 30
0.0
 11
172.9414848370686
 21
78.37552175878831
 31
0.0
  0
LINE
  5
1D7D
330
1A
100
AcDbEntity
  8
SEIHIN
100
AcDbLine
 10
150.2160885881425
 20
75.12748765542662
 30
0.0
 11
159.3483754370686
 21
70.86903235878832
 31
0.0
  0
ARC
  5
1D7E
330
1A
100
AcDbEntity
  8
SEIHIN
100
AcDbCircle
 10
146.6209877370686
 20
78.74484165878833
 30
0.0
 40
5.100000011277387
100
AcDbArc
 50
270.0
 51
315.0
  0
LINE
  5
1D7F
330
1A
100
AcDbEntity
  8
SEIHIN
100
AcDbLine
 10
151.6458379126867
 20
76.55720264201576
 30
0.0
 11
160.1513502370686
 21
72.59101715878832
 31
0.0
  0
LINE
  5
1D80
330
1A
100
AcDbEntity
  8
SEIHIN
100
AcDbLine
 10
151.3448430030023
 20
76.25620773071672
 30
0.0
 11
159.9823029370686
 21
72.22849405878831
 31
0.0
  0
ARC
  5
1D81
330
1A
100
AcDbEntity
  8
SEIHIN
100
AcDbCircle
 10
160.6162303370686
 20
73.58795565878832
 30
0.0
 40
1.499999997384386
100
AcDbArc
 50
244.9999984438223
 51
295.9999936879063
  0
ARC
  5
1D83
330
1A
100
AcDbEntity
  8
SEIHIN
100
AcDbCircle
 10
160.6162303370686
 20
73.58795565878832
 30
0.0
 40
1.099999981342675
100
AcDbArc
 50
244.9999979823536
 51
295.9999960018844
  0
ARC
  5
1D84
330
1A
100
AcDbEntity
  8
SEIHIN
100
AcDbCircle
 10
160.6162303370686
 20
73.58795565878832
 30
0.0
 40
2.9999999920909
100
AcDbArc
 50
244.9999949819811
 51
295.999994525133
  0
ARC
  5
1D86
330
1A
100
AcDbEntity
  8
SEIHIN
100
AcDbCircle
 10
171.2880002370686
 20
82.01947125878833
 30
0.0
 40
4.400000010194002
100
AcDbArc
 50
296.0000006547247
 51
359.9999934891161
  0
ARC
  5
1D87
330
1A
100
AcDbEntity
  8
SEIHIN
100
AcDbCircle
 10
171.1880002370686
 20
81.9706979587883
 30
0.0
 40
4.000000009467725
100
AcDbArc
 50
296.0000000723986
 51
0.0
  0
LINE
  5
1D88
330
1A
100
AcDbEntity
  8
SEIHIN
100
AcDbLine
 10
175.6880002370686
 20
80.35056785878833
 30
0.0
 11
175.6880002370686
 21
84.47879845878832
 31
0.0
  0
ARC
  5
1D8A
330
1A
100
AcDbEntity
  8
SEIHIN
100
AcDbCircle
 10
171.2880002370686
 20
80.35056835878831
 30
0.0
 40
4.400000010194002
100
AcDbArc
 50
296.0000006547247
 51
359.9999934891161
  0
LINE
  5
1D8B
330
1A
100
AcDbEntity
  8
SEIHIN
100
AcDbLine
 10
175.1880002370686
 20
84.47879845878832
 30
0.0
 11
175.6880002370686
 21
84.47879845878832
 31
0.0
  0
LINE
  5
1D8C
330
1A
100
AcDbEntity
  8
SEIHIN
100
AcDbLine
 10
175.1880002370686
 20
81.9706979587883
 30
0.0
 11
175.1880002370686
 21
84.47879845878832
 31
0.0
  0
LINE
  5
1D92
330
1A
100
AcDbEntity
  8
SEIHIN
100
AcDbLine
 10
179.8021538370687
 20
75.61119335878832
 30
0.0
 11
179.6713139793357
 21
73.114619561814
 31
0.0
  0
ARC
  5
1D93
330
1A
100
AcDbEntity
  8
SEIHIN
100
AcDbCircle
 10
186.2925606370686
 20
75.77173175878833
 30
0.0
 40
2.999999998689364
100
AcDbArc
 50
266.9999993993207
 51
0.0
  0
LINE
  5
1D94
330
1A
100
AcDbEntity
  8
SEIHIN
100
AcDbLine
 10
187.1355527660393
 20
72.723435377217
 30
0.0
 11
179.6713140370686
 21
73.11461955878833
 31
0.0
  0
LINE
  5
1D96
330
1A
100
AcDbEntity
  8
SEIHIN
100
AcDbLine
 10
186.2716262370686
 20
75.37227995878833
 30
0.0
 11
179.8073874370686
 21
75.71105635878833
 31
0.0
  0
ARC
  5
1D97
330
1A
100
AcDbEntity
  8
SEIHIN
100
AcDbCircle
 10
186.2925606370686
 20
75.77173175878833
 30
0.0
 40
0.3999999935166316
100
AcDbArc
 50
266.999997392128
 51
0.0
  0
LINE
  5
1D9E
330
1A
100
AcDbEntity
  8
SEIHIN
100
AcDbLine
 10
336.1163561032236
 20
73.64484165878831
 30
0.0
 11
338.7163561032236
 21
73.64484165878831
 31
0.0
  0
LINE
  5
1DA4
330
1A
100
AcDbEntity
  8
SEIHIN
100
AcDbLine
 10
338.7163561032236
 20
72.77721365878831
 30
0.0
 11
358.7163561032236
 21
72.77721365878831
 31
0.0
  0
LINE
  5
1DA6
330
1A
100
AcDbEntity
  8
SEIHIN
100
AcDbLine
 10
358.7163561032236
 20
73.64484165878831
 30
0.0
 11
361.3163561032236
 21
73.64484165878831
 31
0.0
  0
ARC
  5
1DA7
330
1A
100
AcDbEntity
  8
SEIHIN
100
AcDbCircle
 10
376.7163561032236
 20
139.3588199587883
 30
0.0
 40
3.0
100
AcDbArc
 50
0.0000019098594751
 51
90.0
  0
ARC
  5
1DA8
330
1A
100
AcDbEntity
  8
SEIHIN
100
AcDbCircle
 10
376.7163561032236
 20
110.3588199587883
 30
0.0
 40
3.000000000000003
100
AcDbArc
 50
270.0
 51
0.0000038197189503
  0
LINE
  5
1DA9
330
1A
100
AcDbEntity
  8
SEIHIN
100
AcDbLine
 10
240.6929777370686
 20
142.3588199587883
 30
0.0
 11
240.6929777370686
 21
107.3588199587883
 31
0.0
  0
LINE
  5
1DAB
330
1A
100
AcDbEntity
  8
SEIHIN
100
AcDbLine
 10
247.2929777370686
 20
142.3588199587883
 30
0.0
 11
247.2929777370686
 21
107.3588199587883
 31
0.0
  0
LINE
  5
1DAC
330
1A
100
AcDbEntity
  8
SEIHIN
100
AcDbLine
 10
245.6929777370687
 20
142.3588199587883
 30
0.0
 11
245.6929777370687
 21
107.3588199587883
 31
0.0
  0
LINE
  5
1DAE
330
1A
100
AcDbEntity
  8
SEIHIN
100
AcDbLine
 10
184.5570488370686
 20
97.18154105878831
 30
0.0
 11
161.9732002370686
 21
95.99797175878832
 31
0.0
  0
LINE
  5
1DB0
330
1A
100
AcDbEntity
  8
SEIHIN
100
AcDbLine
 10
238.0081026370686
 20
103.6843977587883
 30
0.0
 11
160.3436696370686
 21
101.9201195587883
 31
0.0
  0
LINE
  5
1DB1
330
1A
100
AcDbEntity
  8
SEIHIN
100
AcDbLine
 10
241.3453136370686
 20
102.8579211587883
 30
0.0
 11
160.3960056370686
 21
100.9214900587883
 31
0.0
  0
LINE
  5
1DB3
330
1A
100
AcDbEntity
  8
SEIHIN
100
AcDbLine
 10
184.6931223370686
 20
94.58510425878831
 30
0.0
 11
170.2925606370686
 21
93.83040284862927
 31
0.0
  0
ARC
  5
1DB6
330
1A
100
AcDbEntity
  8
SEIHIN
100
AcDbCircle
 10
162.2087120370686
 20
91.50413885878833
 30
0.0
 40
4.499999985879004
100
AcDbArc
 50
92.99999996493296
 51
135.0
  0
ARC
  5
1DB8
330
1A
100
AcDbEntity
  8
SEIHIN
100
AcDbCircle
 10
160.6838533370686
 20
95.42902755878833
 30
0.0
 40
5.500000065643712
100
AcDbArc
 50
92.99999935063343
 51
135.0000022098678
  0
ARC
  5
1DB9
330
1A
100
AcDbEntity
  8
SEIHIN
100
AcDbCircle
 10
160.6838533370686
 20
95.42902755878833
 30
0.0
 40
6.500000024766264
100
AcDbArc
 50
92.99999897148103
 51
135.000002493184
  0
LINE
  5
1DBA
330
1A
100
AcDbEntity
  8
SEIHIN
100
AcDbLine
 10
242.2929777370686
 20
107.0620704587883
 30
0.0
 11
238.0081026370686
 21
103.6843977587883
 31
0.0
  0
ARC
  5
1DBB
330
1A
100
AcDbEntity
  8
SEIHIN
100
AcDbCircle
 10
184.7925606370686
 20
92.68770815878832
 30
0.0
 40
4.499999996725646
100
AcDbArc
 50
0.0
 51
92.99999996493296
  0
ARC
  5
1DBC
330
1A
100
AcDbEntity
  8
SEIHIN
100
AcDbCircle
 10
184.7925606370686
 20
92.68770815878832
 30
0.0
 40
5.500000030448694
100
AcDbArc
 50
0.0
 51
68.36289348814613
  0
ARC
  5
1DBD
330
1A
100
AcDbEntity
  8
SEIHIN
100
AcDbCircle
 10
184.7925606370686
 20
92.68770815878832
 30
0.0
 40
1.899999991552915
100
AcDbArc
 50
0.0
 51
92.99999951753015
  0
ARC
  5
1DBE
330
1A
100
AcDbEntity
  8
SEIHIN
100
AcDbCircle
 10
241.2929777370686
 20
103.8565507587883
 30
0.0
 40
5.50000003044868
100
AcDbArc
 50
273.0000003909445
 51
0.0
  0
LINE
  5
1DBF
330
1A
100
AcDbEntity
  8
SEIHIN
100
AcDbLine
 10
247.2929777370686
 20
107.3588199587883
 30
0.0
 11
240.6929777370686
 21
107.3588199587883
 31
0.0
  0
ARC
  5
1DC0
330
1A
100
AcDbEntity
  8
SEIHIN
100
AcDbCircle
 10
241.2929777370686
 20
103.8565507587883
 30
0.0
 40
1.000000031106234
100
AcDbArc
 50
272.9999965862871
 51
0.0
  0
LINE
  5
1DC1
330
1A
100
AcDbEntity
  8
SEIHIN
100
AcDbLine
 10
242.2929777370686
 20
107.3588199587883
 30
0.0
 11
242.2929777370686
 21
103.8565507587883
 31
0.0
  0
LINE
  5
1DC2
330
1A
100
AcDbEntity
  8
SEIHIN
100
AcDbLine
 10
246.7929777370686
 20
107.3588199587883
 30
0.0
 11
246.7929777370686
 21
103.8565507587883
 31
0.0
  0
LINE
  5
1DC3
330
1A
100
AcDbEntity
  8
SEIHIN
100
AcDbLine
 10
247.2929777370686
 20
142.3588199587883
 30
0.0
 11
240.6929777370686
 21
142.3588199587883
 31
0.0
  0
LINE
  5
1DC4
330
1A
100
AcDbEntity
  8
SEIHIN
100
AcDbLine
 10
359.2163561032236
 20
142.3588199587883
 30
0.0
 11
359.2163561032236
 21
107.3588199587883
 31
0.0
  0
LINE
  5
1DC7
330
1A
100
AcDbEntity
  8
CENTER_L
100
AcDbLine
 10
326.7163561032236
 20
140.4588199587883
 30
0.0
 11
326.7163561032236
 21
128.2588199587883
 31
0.0
  0
LINE
  5
1DC9
330
1A
100
AcDbEntity
  8
SEIHIN
100
AcDbLine
 10
317.7163561032236
 20
139.3588200587883
 30
0.0
 11
317.7163561032236
 21
110.3588201587883
 31
0.0
  0
LINE
  5
1DCA
330
1A
100
AcDbEntity
  8
SEIHIN
100
AcDbLine
 10
338.2163561032236
 20
142.3588199587883
 30
0.0
 11
338.2163561032236
 21
107.3588199587883
 31
0.0
  0
LINE
  5
1DCC
330
1A
100
AcDbEntity
  8
SEIHIN
100
AcDbLine
 10
345.7163561032236
 20
98.18017065878832
 30
0.0
 11
351.7163561032236
 21
98.18017065878832
 31
0.0
  0
ARC
  5
1DCF
330
1A
100
AcDbEntity
  8
SEIHIN
100
AcDbCircle
 10
320.7163561032236
 20
110.3588199587883
 30
0.0
 40
3.000000000000003
100
AcDbArc
 50
179.999996180281
 51
270.0
  0
LINE
  5
1DD1
330
1A
100
AcDbEntity
  8
SEIHIN
100
AcDbLine
 10
320.7163561032236
 20
107.3588199587883
 30
0.0
 11
338.7163561032236
 21
107.3588199587883
 31
0.0
  0
ARC
  5
1DD3
330
1A
100
AcDbEntity
  8
SEIHIN
100
AcDbCircle
 10
337.6163561032236
 20
95.68017065878832
 30
0.0
 40
1.5
100
AcDbArc
 50
90.0
 51
180.0
  0
LINE
  5
1DD5
330
1A
100
AcDbEntity
  8
SEIHIN
100
AcDbLine
 10
337.6163561032236
 20
97.18017065878832
 30
0.0
 11
344.3021425408505
 21
97.18017065878832
 31
0.0
  0
CIRCLE
  5
1DD8
330
1A
100
AcDbEntity
  8
SEIHIN
100
AcDbCircle
 10
326.7163561032236
 20
115.3588199587883
 30
0.0
 40
2.100000000000022
  0
LINE
  5
1DE0
330
1A
100
AcDbEntity
  8
SEIHIN
100
AcDbLine
 10
358.7163561032236
 20
107.3588199587883
 30
0.0
 11
376.7163561032236
 21
107.3588199587883
 31
0.0
  0
ARC
  5
1DE2
330
1A
100
AcDbEntity
  8
SEIHIN
100
AcDbCircle
 10
359.8163561032236
 20
95.68017065878832
 30
0.0
 40
1.5
100
AcDbArc
 50
0.0
 51
90.0
  0
LINE
  5
1DE4
330
1A
100
AcDbEntity
  8
SEIHIN
100
AcDbLine
 10
353.1305696655967
 20
97.18017065878832
 30
0.0
 11
359.8163561032236
 21
97.18017065878832
 31
0.0
  0
CIRCLE
  5
1DEB
330
1A
100
AcDbEntity
  8
SEIHIN
100
AcDbCircle
 10
370.7163561032236
 20
115.3588199587883
 30
0.0
 40
2.100000000000022
  0
LINE
  5
1DEE
330
1A
100
AcDbEntity
  8
SEIHIN
100
AcDbLine
 10
320.7163561032236
 20
142.3588199587883
 30
0.0
 11
376.7163561032236
 21
142.3588199587883
 31
0.0
  0
LINE
  5
1DEF
330
1A
100
AcDbEntity
  8
CENTER_L
100
AcDbLine
 10
320.6163561032236
 20
134.3588199587883
 30
0.0
 11
332.8163561032236
 21
134.3588199587883
 31
0.0
  0
LINE
  5
1DF2
330
1A
100
AcDbEntity
  8
SEIHIN
100
AcDbLine
 10
358.7163561032236
 20
142.3588199587883
 30
0.0
 11
338.7163561032236
 21
142.3588199587883
 31
0.0
  0
ARC
  5
1DF3
330
1A
100
AcDbEntity
  8
SEIHIN
100
AcDbCircle
 10
320.7163561032236
 20
139.3588199587883
 30
0.0
 40
3.0
100
AcDbArc
 50
90.0
 51
180.0
  0
CIRCLE
  5
1DF4
330
1A
100
AcDbEntity
  8
SEIHIN
100
AcDbCircle
 10
326.7163561032236
 20
134.3588199587883
 30
0.0
 40
2.100000000000022
  0
CIRCLE
  5
1E06
330
1A
100
AcDbEntity
  8
SEIHIN
100
AcDbCircle
 10
370.7163561032236
 20
134.3588199587883
 30
0.0
 40
2.100000000000022
  0
LINE
  5
1E0A
330
1A
100
AcDbEntity
  8
SEIHIN
100
AcDbLine
 10
379.7163561032236
 20
139.3588200587883
 30
0.0
 11
379.7163561032236
 21
110.3588201587883
 31
0.0
  0
LINE
  5
1EC3
330
1A
100
AcDbEntity
  8
SEIHIN
100
AcDbLine
 10
68.29256063706868
 20
237.8094624906773
 30
0.0
 11
76.06509009730217
 21
237.8094624906773
 31
0.0
  0
LINE
  5
1EC4
330
1A
100
AcDbEntity
  8
SEIHIN
100
AcDbLine
 10
246.2929777370686
 20
217.3094624906773
 30
0.0
 11
242.5929777370686
 21
217.3094624906773
 31
0.0
  0
LINE
  5
1EC5
330
1A
100
AcDbEntity
  8
SEIHIN
100
AcDbLine
 10
247.2929777370686
 20
196.8094624906773
 30
0.0
 11
245.6929777370687
 21
196.8094624906773
 31
0.0
  0
LINE
  5
1EC6
330
1A
100
AcDbEntity
  8
CENTER_L
100
AcDbLine
 10
254.2929777370686
 20
227.8094624906773
 30
0.0
 11
61.29256063706868
 21
227.8094624906773
 31
0.0
  0
LINE
  5
1EC7
330
1A
100
AcDbEntity
  8
SEIHIN
100
AcDbLine
 10
247.2929777370686
 20
216.3094624906773
 30
0.0
 11
247.2929777370686
 21
196.8094624906773
 31
0.0
  0
LINE
  5
1EC8
330
1A
100
AcDbEntity
  8
SEIHIN
100
AcDbLine
 10
240.6929777370686
 20
216.7094624906773
 30
0.0
 11
240.6929777370687
 21
238.9094624906773
 31
0.0
  0
LINE
  5
1EC9
330
1A
100
AcDbEntity
  8
SEIHIN
100
AcDbLine
 10
245.6929777370687
 20
196.8094624906773
 30
0.0
 11
245.6929777370687
 21
215.2094624906773
 31
0.0
  0
LINE
  5
1ECB
330
1A
100
AcDbEntity
  8
SEIHIN
100
AcDbLine
 10
68.29256063706868
 20
217.8094624906773
 30
0.0
 11
76.06509009730223
 21
217.8094624906773
 31
0.0
  0
LINE
  5
1ECC
330
1A
100
AcDbEntity
  8
SEIHIN
100
AcDbLine
 10
241.6929777370686
 20
215.7094624906773
 30
0.0
 11
245.1929777370687
 21
215.7094624906773
 31
0.0
  0
LINE
  5
1ECD
330
1A
100
AcDbEntity
  8
SEIHIN
100
AcDbLine
 10
242.2929777370686
 20
217.6094624906773
 30
0.0
 11
242.2929777370686
 21
238.0094624906773
 31
0.0
  0
ARC
  5
1ECE
330
1A
100
AcDbEntity
  8
SEIHIN
100
AcDbCircle
 10
246.2929777370686
 20
216.3094624906773
 30
0.0
 40
1.0
100
AcDbArc
 50
359.9999999999983
 51
90.0
  0
ARC
  5
1ECF
330
1A
100
AcDbEntity
  8
SEIHIN
100
AcDbCircle
 10
241.6929777370686
 20
216.7094624906773
 30
0.0
 40
1.0
100
AcDbArc
 50
180.0000000000016
 51
270.0
  0
ARC
  5
1ED0
330
1A
100
AcDbEntity
  8
SEIHIN
100
AcDbCircle
 10
245.1929777370686
 20
215.2094624906773
 30
0.0
 40
0.5
100
AcDbArc
 50
359.9999999999967
 51
89.99999999999674
  0
LINE
  5
1ED1
330
1A
100
AcDbEntity
  8
CENTER_L
100
AcDbLine
 10
238.6929777370687
 20
205.8094624906773
 30
0.0
 11
254.2929777370686
 21
205.8094624906773
 31
0.0
  0
LINE
  5
1ED8
330
1A
100
AcDbEntity
  8
CENTER_L
100
AcDbLine
 10
130.7925606370686
 20
212.7805907781261
 30
0.0
 11
130.7925606370686
 21
242.8383342032285
 31
0.0
  0
LINE
  5
1EDA
330
1A
100
AcDbEntity
  8
SEIHIN
100
AcDbLine
 10
120.7925606370686
 20
217.8094624906773
 30
0.0
 11
120.7925606370686
 21
237.8094624906773
 31
0.0
  0
LINE
  5
1F11
330
1A
100
AcDbEntity
  8
SEIHIN
100
AcDbLine
 10
170.2925606370686
 20
96.43397098322809
 30
0.0
 11
170.2925606370686
 21
90.78430785817829
 31
0.0
  0
LINE
  5
1F12
330
1A
100
AcDbEntity
  8
SEIHIN
100
AcDbLine
 10
169.3448965953934
 20
89.78567832353283
 30
0.0
 11
164.6270622960574
 21
89.53842709501703
 31
0.0
  0
ARC
  5
1F13
330
1A
100
AcDbEntity
  8
SEIHIN
100
AcDbCircle
 10
169.2925606370686
 20
90.78430785817829
 30
0.0
 40
1.0
100
AcDbArc
 50
273.0000001194438
 51
0.0
  0
ARC
  5
1F15
330
1A
100
AcDbEntity
  8
SEIHIN
100
AcDbCircle
 10
187.2925606370686
 20
75.71932398136016
 30
0.0
 40
3.0
100
AcDbArc
 50
266.9999999560026
 51
0.0
  0
LINE
  5
1F16
330
1A
100
AcDbEntity
  8
SEIHIN
100
AcDbLine
 10
241.5808255354749
 20
98.36408828919529
 30
0.0
 11
162.1648691876006
 21
96.50801674089278
 31
0.0
  0
ARC
  5
1F1E
330
1A
100
AcDbEntity
  8
SEIHIN
100
AcDbCircle
 10
345.7163561032236
 20
97.18017065878832
 30
0.0
 40
1.0
100
AcDbArc
 50
90.0
 51
160.5287793655085
  0
ARC
  5
1F1F
330
1A
100
AcDbEntity
  8
SEIHIN
100
AcDbCircle
 10
351.7163561032236
 20
97.18017065878832
 30
0.0
 40
1.0
100
AcDbArc
 50
19.47122063449142
 51
90.0
  0
LINE
  5
1F21
330
1A
100
AcDbEntity
  8
SEIHIN
100
AcDbLine
 10
353.1305696655967
 20
98.13724560031729
 30
0.0
 11
358.2163561032237
 21
98.13724560031733
 31
0.0
  0
LINE
  5
1F22
330
1A
100
AcDbEntity
  8
SEIHIN
100
AcDbLine
 10
345.7163561032236
 20
99.13724560031731
 30
0.0
 11
351.7163561032236
 21
99.13724560031731
 31
0.0
  0
LINE
  5
1F23
330
1A
100
AcDbEntity
  8
SEIHIN
100
AcDbLine
 10
345.7163561032236
 20
99.13724560031731
 30
0.0
 11
351.7163561032236
 21
99.13724560031731
 31
0.0
  0
ARC
  5
1F25
330
1A
100
AcDbEntity
  8
SEIHIN
100
AcDbCircle
 10
345.7163561032236
 20
98.13724560031729
 30
0.0
 40
1.0
100
AcDbArc
 50
90.0
 51
160.5287793655093
  0
ARC
  5
1F27
330
1A
100
AcDbEntity
  8
SEIHIN
100
AcDbCircle
 10
351.7163561032236
 20
98.13724560031729
 30
0.0
 40
1.0
100
AcDbArc
 50
19.47122063449065
 51
90.0
  0
LINE
  5
1F28
330
1A
100
AcDbEntity
  8
SEIHIN
100
AcDbLine
 10
339.2163561032235
 20
98.13724560031731
 30
0.0
 11
344.3021425408505
 21
98.13724560031728
 31
0.0
  0
ARC
  5
1F2B
330
1A
100
AcDbEntity
  8
SEIHIN
100
AcDbCircle
 10
344.3021425408505
 20
97.68017065878833
 30
0.0
 40
0.5
100
AcDbArc
 50
270.0
 51
340.5287793655096
  0
ARC
  5
1F2C
330
1A
100
AcDbEntity
  8
SEIHIN
100
AcDbCircle
 10
353.1305696655967
 20
97.68017065878833
 30
0.0
 40
0.5
100
AcDbArc
 50
199.4712206344903
 51
270.0
  0
ARC
  5
1F2D
330
1A
100
AcDbEntity
  8
SEIHIN
100
AcDbCircle
 10
344.3021425408505
 20
98.6372456003173
 30
0.0
 40
0.5
100
AcDbArc
 50
270.0
 51
340.5287793655096
  0
ARC
  5
1F2E
330
1A
100
AcDbEntity
  8
SEIHIN
100
AcDbCircle
 10
353.1305696655967
 20
98.6372456003173
 30
0.0
 40
0.5
100
AcDbArc
 50
199.4712206344903
 51
270.0
  0
LINE
  5
1F30
330
1A
100
AcDbEntity
  8
CENTER_L
100
AcDbLine
 10
320.6163561032236
 20
115.3588199587883
 30
0.0
 11
332.8163561032236
 21
115.3588199587883
 31
0.0
  0
LINE
  5
1F31
330
1A
100
AcDbEntity
  8
CENTER_L
100
AcDbLine
 10
326.7163561032236
 20
121.4588199587883
 30
0.0
 11
326.7163561032236
 21
109.2588199587883
 31
0.0
  0
LINE
  5
1F32
330
1A
100
AcDbEntity
  8
CENTER_L
100
AcDbLine
 10
370.7163561032236
 20
121.4588199587883
 30
0.0
 11
370.7163561032236
 21
109.2588199587883
 31
0.0
  0
LINE
  5
1F33
330
1A
100
AcDbEntity
  8
CENTER_L
100
AcDbLine
 10
370.7163561032236
 20
140.4588199587883
 30
0.0
 11
370.7163561032236
 21
128.2588199587883
 31
0.0
  0
LINE
  5
1F34
330
1A
100
AcDbEntity
  8
CENTER_L
100
AcDbLine
 10
376.8163561032236
 20
115.3588199587883
 30
0.0
 11
364.6163561032236
 21
115.3588199587883
 31
0.0
  0
LINE
  5
1F35
330
1A
100
AcDbEntity
  8
CENTER_L
100
AcDbLine
 10
376.8163561032236
 20
134.3588199587883
 30
0.0
 11
364.6163561032236
 21
134.3588199587883
 31
0.0
  0
LINE
  5
1F48
330
1A
100
AcDbEntity
  8
CENTER_L
100
AcDbLine
 10
241.1929777370686
 20
115.3588199587883
 30
0.0
 11
253.3929777370687
 21
115.3588199587883
 31
0.0
  0
LINE
  5
1F49
330
1A
100
AcDbEntity
  8
CENTER_L
100
AcDbLine
 10
241.1929777370686
 20
134.3588199587883
 30
0.0
 11
253.3929777370687
 21
134.3588199587883
 31
0.0
  0
LINE
  5
1F4A
330
1A
100
AcDbEntity
  8
SEIHIN
100
AcDbLine
 10
245.6929777370687
 20
132.3588199587883
 30
0.0
 11
243.1801277687956
 21
132.3588199587883
 31
0.0
  0
LINE
  5
1F4B
330
1A
100
AcDbEntity
  8
SEIHIN
100
AcDbLine
 10
245.6929777370687
 20
136.3588199587883
 30
0.0
 11
243.1801277687956
 21
136.3588199587883
 31
0.0
  0
LINE
  5
1F4C
330
1A
100
AcDbEntity
  8
SEIHIN
100
AcDbLine
 10
337.2163561032236
 20
135.3588199587883
 30
0.0
 11
335.2163561032236
 21
135.3588199587883
 31
0.0
  0
LINE
  5
1F4D
330
1A
100
AcDbEntity
  8
SEIHIN
100
AcDbLine
 10
337.2163561032236
 20
133.3588199587883
 30
0.0
 11
335.2163561032236
 21
133.3588199587883
 31
0.0
  0
LINE
  5
1F4E
330
1A
100
AcDbEntity
  8
SEIHIN
100
AcDbLine
 10
334.7163561032236
 20
133.8588199587882
 30
0.0
 11
334.7163561032236
 21
134.8588199587883
 31
0.0
  0
ARC
  5
1F4F
330
1A
100
AcDbEntity
  8
SEIHIN
100
AcDbCircle
 10
335.2163561032236
 20
133.8588199587882
 30
0.0
 40
0.5
100
AcDbArc
 50
180.0
 51
270.0000000000005
  0
ARC
  5
1F50
330
1A
100
AcDbEntity
  8
SEIHIN
100
AcDbCircle
 10
335.2163561032236
 20
134.8588199587883
 30
0.0
 40
0.5
100
AcDbArc
 50
90.0
 51
180.0
  0
LINE
  5
1F51
330
1A
100
AcDbEntity
  8
SEIHIN
100
AcDbLine
 10
337.2163561032236
 20
116.3588199587883
 30
0.0
 11
335.2163561032236
 21
116.3588199587883
 31
0.0
  0
LINE
  5
1F52
330
1A
100
AcDbEntity
  8
SEIHIN
100
AcDbLine
 10
337.2163561032236
 20
114.3588199587883
 30
0.0
 11
335.2163561032236
 21
114.3588199587883
 31
0.0
  0
LINE
  5
1F53
330
1A
100
AcDbEntity
  8
SEIHIN
100
AcDbLine
 10
334.7163561032236
 20
114.8588199587883
 30
0.0
 11
334.7163561032236
 21
115.8588199587883
 31
0.0
  0
ARC
  5
1F54
330
1A
100
AcDbEntity
  8
SEIHIN
100
AcDbCircle
 10
335.2163561032236
 20
115.8588199587883
 30
0.0
 40
0.5
100
AcDbArc
 50
90.0
 51
180.0
  0
ARC
  5
1F55
330
1A
100
AcDbEntity
  8
SEIHIN
100
AcDbCircle
 10
335.2163561032236
 20
114.8588199587883
 30
0.0
 40
0.5
100
AcDbArc
 50
180.0
 51
270.0000000000005
  0
LINE
  5
1F56
330
1A
100
AcDbEntity
  8
SEIHIN
100
AcDbLine
 10
362.7163561032236
 20
114.8588199587883
 30
0.0
 11
362.7163561032236
 21
115.8588199587883
 31
0.0
  0
LINE
  5
1F57
330
1A
100
AcDbEntity
  8
SEIHIN
100
AcDbLine
 10
360.2163561032236
 20
114.3588199587883
 30
0.0
 11
362.2163561032236
 21
114.3588199587883
 31
0.0
  0
ARC
  5
1F58
330
1A
100
AcDbEntity
  8
SEIHIN
100
AcDbCircle
 10
362.2163561032236
 20
114.8588199587883
 30
0.0
 40
0.5
100
AcDbArc
 50
269.9999999999994
 51
0.000000000000007
  0
LINE
  5
1F59
330
1A
100
AcDbEntity
  8
SEIHIN
100
AcDbLine
 10
360.2163561032236
 20
116.3588199587883
 30
0.0
 11
362.2163561032236
 21
116.3588199587883
 31
0.0
  0
ARC
  5
1F5A
330
1A
100
AcDbEntity
  8
SEIHIN
100
AcDbCircle
 10
362.2163561032236
 20
115.8588199587883
 30
0.0
 40
0.5
100
AcDbArc
 50
0.000000000000007
 51
90.0
  0
LINE
  5
1F5B
330
1A
100
AcDbEntity
  8
SEIHIN
100
AcDbLine
 10
360.2163561032236
 20
135.3588199587883
 30
0.0
 11
362.2163561032236
 21
135.3588199587883
 31
0.0
  0
LINE
  5
1F5C
330
1A
100
AcDbEntity
  8
SEIHIN
100
AcDbLine
 10
360.2163561032236
 20
133.3588199587883
 30
0.0
 11
362.2163561032236
 21
133.3588199587883
 31
0.0
  0
LINE
  5
1F5D
330
1A
100
AcDbEntity
  8
SEIHIN
100
AcDbLine
 10
362.7163561032236
 20
133.8588199587882
 30
0.0
 11
362.7163561032236
 21
134.8588199587883
 31
0.0
  0
ARC
  5
1F5E
330
1A
100
AcDbEntity
  8
SEIHIN
100
AcDbCircle
 10
362.2163561032236
 20
134.8588199587883
 30
0.0
 40
0.5
100
AcDbArc
 50
0.000000000000007
 51
90.0
  0
ARC
  5
1F5F
330
1A
100
AcDbEntity
  8
SEIHIN
100
AcDbCircle
 10
362.2163561032236
 20
133.8588199587882
 30
0.0
 40
0.5
100
AcDbArc
 50
269.9999999999994
 51
0.000000000000007
  0
LINE
  5
1F61
330
1A
100
AcDbEntity
  8
SEIHIN
100
AcDbLine
 10
170.2925606370686
 20
215.3094624906773
 30
0.0
 11
76.06509009730223
 21
215.3094624906773
 31
0.0
  0
LINE
  5
1F62
330
1A
100
AcDbEntity
  8
SEIHIN
100
AcDbLine
 10
170.2925606370686
 20
215.3094624906773
 30
0.0
 11
170.2925606370686
 21
217.8094624906773
 31
0.0
  0
LINE
  5
1F63
330
1A
100
AcDbEntity
  8
SEIHIN
100
AcDbLine
 10
76.06509009730223
 20
215.3094624906773
 30
0.0
 11
76.06509009730223
 21
217.8094624906773
 31
0.0
  0
LINE
  5
1F64
330
1A
100
AcDbEntity
  8
SEIHIN
100
AcDbLine
 10
68.29256063706868
 20
217.8094624906773
 30
0.0
 11
68.29256063706868
 21
237.8094624906773
 31
0.0
  0
LINE
  5
1F67
330
1A
100
AcDbEntity
  8
SEIHIN
100
AcDbLine
 10
70.09256063706868
 20
217.8094624906773
 30
0.0
 11
70.09256063706868
 21
237.8094624906773
 31
0.0
  0
LINE
  5
1F68
330
1A
100
AcDbEntity
  8
SEIHIN
100
AcDbLine
 10
120.7925606370686
 20
217.8094624906773
 30
0.0
 11
240.6929777370686
 21
217.8094624906773
 31
0.0
  0
LINE
  5
1F69
330
1A
100
AcDbEntity
  8
SEIHIN
100
AcDbLine
 10
122.7925606370686
 20
219.8094624906773
 30
0.0
 11
238.6929777370687
 21
219.8094624906774
 31
0.0
  0
CIRCLE
  5
1F6A
330
1A
100
AcDbEntity
  8
SEIHIN
100
AcDbCircle
 10
130.7925606370686
 20
227.8094624906773
 30
0.0
 40
5.0
  0
LINE
  5
1F6B
330
1A
100
AcDbEntity
  8
SEIHIN
100
AcDbLine
 10
246.7929777370686
 20
217.8094624906773
 30
0.0
 11
246.7929777370687
 21
237.8094624906773
 31
0.0
  0
LINE
  5
1F6C
330
1A
100
AcDbEntity
  8
SEIHIN
100
AcDbLine
 10
143.1481434850902
 20
220.3094624906773
 30
0.0
 11
143.1481434850902
 21
235.3094624906773
 31
0.0
  0
LINE
  5
1F6D
330
1A
100
AcDbEntity
  8
SEIHIN
100
AcDbLine
 10
157.932944691041
 20
220.3094624906773
 30
0.0
 11
157.932944691041
 21
235.3094624906773
 31
0.0
  0
LINE
  5
1F70
330
1A
100
AcDbEntity
  8
SEIHIN
100
AcDbLine
 10
122.7925606370686
 20
235.8094624906773
 30
0.0
 11
238.6929777370687
 21
235.8094624906772
 31
0.0
  0
LINE
  5
1F71
330
1A
100
AcDbEntity
  8
SEIHIN
100
AcDbLine
 10
120.7925606370686
 20
237.8094624906773
 30
0.0
 11
240.6929777370686
 21
237.8094624906773
 31
0.0
  0
LINE
  5
1F72
330
1A
100
AcDbEntity
  8
SEIHIN
100
AcDbLine
 10
170.2925606370686
 20
240.3094624906773
 30
0.0
 11
76.06509009730223
 21
240.3094624906773
 31
0.0
  0
LINE
  5
1F73
330
1A
100
AcDbEntity
  8
SEIHIN
100
AcDbLine
 10
68.29256063706868
 20
237.8094624906773
 30
0.0
 11
76.06509009730223
 21
237.8094624906773
 31
0.0
  0
LINE
  5
1F74
330
1A
100
AcDbEntity
  8
SEIHIN
100
AcDbLine
 10
76.06509009730223
 20
240.3094624906773
 30
0.0
 11
76.06509009730223
 21
237.8094624906773
 31
0.0
  0
LINE
  5
1F75
330
1A
100
AcDbEntity
  8
SEIHIN
100
AcDbLine
 10
144.0801599567119
 20
236.3094624906774
 30
0.0
 11
144.0801599567119
 21
237.3094624906773
 31
0.0
  0
LINE
  5
1F76
330
1A
100
AcDbEntity
  8
SEIHIN
100
AcDbLine
 10
157.094130234484
 20
237.3094624906773
 30
0.0
 11
157.094130234484
 21
236.3094624906773
 31
0.0
  0
LINE
  5
1F77
330
1A
100
AcDbEntity
  8
SEIHIN
100
AcDbLine
 10
170.2925606370686
 20
240.3094624906773
 30
0.0
 11
170.2925606370686
 21
237.8094624906773
 31
0.0
  0
LINE
  5
1F78
330
1A
100
AcDbEntity
  8
SEIHIN
100
AcDbLine
 10
245.6929777370687
 20
258.8094624906773
 30
0.0
 11
245.6929777370687
 21
240.4094624906773
 31
0.0
  0
LINE
  5
1F79
330
1A
100
AcDbEntity
  8
SEIHIN
100
AcDbLine
 10
247.2929777370686
 20
239.3094624906773
 30
0.0
 11
247.2929777370686
 21
258.8094624906773
 31
0.0
  0
LINE
  5
1F7A
330
1A
100
AcDbEntity
  8
CENTER_L
100
AcDbLine
 10
238.6929777370687
 20
249.8094624906773
 30
0.0
 11
254.2929777370686
 21
249.8094624906773
 31
0.0
  0
LINE
  5
1F7B
330
1A
100
AcDbEntity
  8
SEIHIN
100
AcDbLine
 10
247.2929777370686
 20
258.8094624906773
 30
0.0
 11
245.6929777370687
 21
258.8094624906773
 31
0.0
  0
LINE
  5
1F7C
330
1A
100
AcDbEntity
  8
SEIHIN
100
AcDbLine
 10
246.2929777370686
 20
238.3094624906773
 30
0.0
 11
242.5929777370686
 21
238.3094624906773
 31
0.0
  0
LINE
  5
1F7D
330
1A
100
AcDbEntity
  8
SEIHIN
100
AcDbLine
 10
241.6929777370686
 20
239.9094624906773
 30
0.0
 11
245.1929777370687
 21
239.9094624906773
 31
0.0
  0
ARC
  5
1F7F
330
1A
100
AcDbEntity
  8
SEIHIN
100
AcDbCircle
 10
241.6929777370686
 20
238.9094624906773
 30
0.0
 40
1.0
100
AcDbArc
 50
90.00000000000003
 51
179.9999999999983
  0
ARC
  5
1F81
330
1A
100
AcDbEntity
  8
SEIHIN
100
AcDbCircle
 10
245.1929777370686
 20
240.4094624906773
 30
0.0
 40
0.5
100
AcDbArc
 50
270.0000000000032
 51
0.0000000000032709
  0
ARC
  5
1F82
330
1A
100
AcDbEntity
  8
SEIHIN
100
AcDbCircle
 10
246.2929777370686
 20
239.3094624906773
 30
0.0
 40
1.0
100
AcDbArc
 50
270.0
 51
0.0000000000016425
  0
LINE
  5
1F85
330
1A
100
AcDbEntity
  8
SEIHIN
100
AcDbLine
 10
160.7306987217079
 20
238.3094624906773
 30
0.0
 11
160.7306987217079
 21
239.8094624906773
 31
0.0
  0
LINE
  5
1F86
330
1A
100
AcDbEntity
  8
SEIHIN
100
AcDbLine
 10
145.2061408587644
 20
238.3094624906773
 30
0.0
 11
145.2061408587644
 21
239.8094624906772
 31
0.0
  0
LINE
  5
1F87
330
1A
100
AcDbEntity
  8
SEIHIN
100
AcDbLine
 10
242.2929777370686
 20
237.8094624906773
 30
0.0
 11
246.7929777370686
 21
237.8094624906773
 31
0.0
  0
LINE
  5
1F88
330
1A
100
AcDbEntity
  8
SEIHIN
100
AcDbLine
 10
120.7925606370686
 20
81.44484165878834
 30
0.0
 11
143.2143860217484
 21
81.44484165878832
 31
0.0
  0
LINE
  5
1F89
330
1A
100
AcDbEntity
  8
SEIHIN
100
AcDbLine
 10
146.749919941513
 20
82.90930776668746
 30
0.0
 11
158.8910150384952
 21
95.05040295866757
 31
0.0
  0
ARC
  5
1F8B
330
1A
100
AcDbEntity
  8
SEIHIN
100
AcDbCircle
 10
162.4265489582598
 20
91.51486906656671
 30
0.0
 40
5.0
100
AcDbArc
 50
92.99999987887712
 51
135.0000002241552
  0
LINE
  5
1F8E
330
1A
100
AcDbEntity
  8
SEIHIN
100
AcDbLine
 10
245.6929777370687
 20
241.9094624906772
 30
0.0
 11
243.6929777370687
 21
239.9094624906773
 31
0.0
  0
LINE
  5
1F8F
330
1A
100
AcDbEntity
  8
SEIHIN
100
AcDbLine
 10
245.6929777370687
 20
213.7094624906773
 30
0.0
 11
243.6929777370687
 21
215.7094624906773
 31
0.0
  0
ARC
  5
1F91
330
1A
100
AcDbEntity
  8
SEIHIN
100
AcDbCircle
 10
242.5929777370686
 20
238.0094624906773
 30
0.0
 40
0.3
100
AcDbArc
 50
90.0
 51
180.0
  0
ARC
  5
1F92
330
1A
100
AcDbEntity
  8
SEIHIN
100
AcDbCircle
 10
242.5929777370686
 20
217.6094624906773
 30
0.0
 40
0.3
100
AcDbArc
 50
180.0
 51
270.0
  0
ARC
  5
1F93
330
1A
100
AcDbEntity
  8
SEIHIN
100
AcDbCircle
 10
143.2143860217484
 20
86.44484165878832
 30
0.0
 40
5.0
100
AcDbArc
 50
270.0
 51
315.0000002241551
  0
ARC
  5
1F94
330
1A
100
AcDbEntity
  8
SEIHIN
100
AcDbCircle
 10
142.5930657123781
 20
87.94484165878833
 30
0.0
 40
2.0
100
AcDbArc
 50
270.0
 51
315.0000002241553
  0
ARC
  5
1F95
330
1A
100
AcDbEntity
  8
SEIHIN
100
AcDbCircle
 10
142.5930656747511
 20
87.94484165878833
 30
0.0
 40
1.0
100
AcDbArc
 50
270.0
 51
315.0000002241551
  0
DIMENSION
  5
1F96
330
1A
100
AcDbEntity
  8
SUNPOU
100
AcDbDimension
  2
*D1
 10
41.46174786873097
 20
85.6448416587883
 30
0.0
 11
38.96174786873096
 21
114.0018308087883
 31
0.0
 70
    32
  3
STANDARD
100
AcDbAlignedDimension
 13
240.6929777370686
 23
142.3588199587883
 33
0.0
 14
68.29256063706868
 24
85.6448416587883
 34
0.0
 50
90.0
100
AcDbRotatedDimension
1001
ACAD
1000
DSTYLE
1002
{
1070
    41
1040
3.0
1070
    42
1040
3.0
1070
    43
1040
7.0
1070
    44
1040
1.5
1070
    73
1070
     0
1070
    74
1070
     0
1070
    77
1070
     3
1070
   140
1040
3.0
1070
   141
1040
3.0
1070
   147
1040
1.0
1070
   172
1070
     1
1070
   173
1070
     1
1070
   176
1070
   256
1070
   177
1070
   256
1070
   178
1070
   256
1070
   271
1070
     0
1070
   272
1070
     0
1070
   341
1005
B2
1070
     6
1000
OPEN
1070
     7
1000
OPEN
1002
}
  0
DIMENSION
  5
1FA3
330
1A
100
AcDbEntity
  8
SUNPOU
100
AcDbDimension
  2
*D2
 10
120.7925606370686
 20
165.8814670732135
 30
0.0
 11
184.0427691870686
 21
168.3814670732135
 31
0.0
 70
    32
  3
STANDARD
100
AcDbAlignedDimension
 13
247.2929777370686
 23
142.3588199587883
 33
0.0
 14
120.7925606370686
 24
86.94484165878833
 34
0.0
100
AcDbRotatedDimension
1001
ACAD
1000
DSTYLE
1002
{
1070
    41
1040
3.0
1070
    42
1040
3.0
1070
    43
1040
7.0
1070
    44
1040
1.5
1070
    73
1070
     0
1070
    74
1070
     0
1070
    77
1070
     3
1070
   140
1040
3.0
1070
   141
1040
3.0
1070
   147
1040
1.0
1070
   172
1070
     1
1070
   173
1070
     1
1070
   176
1070
   256
1070
   177
1070
   256
1070
   178
1070
   256
1070
   271
1070
     0
1070
   272
1070
     0
1070
   341
1005
B2
1070
     6
1000
OPEN
1070
     7
1000
OPEN
1002
}
  0
DIMENSION
  5
1FB0
330
1A
100
AcDbEntity
  8
SUNPOU
100
AcDbDimension
  2
*D3
 10
247.2929777370686
 20
175.3593596279473
 30
0.0
 11
157.7927691870686
 21
177.8593596279473
 31
0.0
 70
    32
  3
STANDARD
100
AcDbAlignedDimension
 13
68.29256063706868
 23
85.1794122781288
 33
0.0
 14
247.2929777370686
 24
142.3588199587883
 34
0.0
100
AcDbRotatedDimension
1001
ACAD
1000
DSTYLE
1002
{
1070
    41
1040
3.0
1070
    42
1040
3.0
1070
    43
1040
7.0
1070
    44
1040
1.5
1070
    73
1070
     0
1070
    74
1070
     0
1070
    77
1070
     3
1070
   140
1040
3.0
1070
   141
1040
3.0
1070
   147
1040
1.0
1070
   172
1070
     1
1070
   173
1070
     1
1070
   176
1070
   256
1070
   177
1070
   256
1070
   178
1070
   256
1070
   271
1070
     0
1070
   272
1070
     0
1070
   341
1005
B2
1070
     6
1000
OPEN
1070
     7
1000
OPEN
1002
}
  0
DIMENSION
  5
1FEA
330
1A
100
AcDbEntity
  8
SUNPOU
100
AcDbDimension
  2
*D4
 10
184.7515033602967
 20
155.5369103896843
 30
0.0
 11
216.0222405486826
 21
158.0369103896844
 31
0.0
 70
    32
  3
STANDARD
100
AcDbAlignedDimension
 13
247.2929777370686
 23
142.3588199587883
 33
0.0
 14
184.7515033602967
 24
89.67534165878827
 34
0.0
100
AcDbRotatedDimension
1001
ACAD
1000
DSTYLE
1002
{
1070
    41
1040
3.0
1070
    42
1040
3.0
1070
    43
1040
7.0
1070
    44
1040
1.5
1070
    73
1070
     0
1070
    74
1070
     0
1070
    77
1070
     3
1070
   140
1040
3.0
1070
   141
1040
3.0
1070
   147
1040
1.0
1070
   172
1070
     1
1070
   173
1070
     1
1070
   176
1070
   256
1070
   177
1070
   256
1070
   178
1070
   256
1070
   271
1070
     0
1070
   272
1070
     0
1070
   341
1005
B2
1070
     6
1000
OPEN
1070
     7
1000
OPEN
1002
}
  0
DIMENSION
  5
1FF7
330
1A
100
AcDbEntity
  8
SUNPOU
100
AcDbDimension
  2
*D5
 10
268.3444721980027
 20
107.3588199587883
 30
0.0
 11
265.8444721980026
 21
124.8588199587883
 31
0.0
 70
    32
  3
STANDARD
100
AcDbAlignedDimension
 13
247.2929777370686
 23
142.3588199587883
 33
0.0
 14
247.2929777370686
 24
107.3588199587883
 34
0.0
 50
90.0
100
AcDbRotatedDimension
1001
ACAD
1000
DSTYLE
1002
{
1070
    41
1040
3.0
1070
    42
1040
3.0
1070
    43
1040
7.0
1070
    44
1040
1.5
1070
    73
1070
     0
1070
    74
1070
     0
1070
    77
1070
     3
1070
   140
1040
3.0
1070
   141
1040
3.0
1070
   147
1040
1.0
1070
   172
1070
     1
1070
   173
1070
     1
1070
   176
1070
   256
1070
   177
1070
   256
1070
   178
1070
   256
1070
   271
1070
     0
1070
   272
1070
     0
1070
   341
1005
B2
1070
     6
1000
OPEN
1070
     7
1000
OPEN
1002
}
  0
LINE
  5
2004
330
1A
100
AcDbEntity
  8
SEIHIN
100
AcDbLine
 10
245.6929777370687
 20
117.3588199587883
 30
0.0
 11
243.1801277687956
 21
117.3588199587883
 31
0.0
  0
LINE
  5
2005
330
1A
100
AcDbEntity
  8
SEIHIN
100
AcDbLine
 10
245.6929777370687
 20
113.3588199587883
 30
0.0
 11
243.1801277687956
 21
113.3588199587883
 31
0.0
  0
DIMENSION
  5
2006
330
1A
100
AcDbEntity
  8
SUNPOU
100
AcDbDimension
  2
*D6
 10
303.4983383386577
 20
134.3588199587883
 30
0.0
 11
300.9983383386576
 21
138.3588199587883
 31
0.0
 70
    32
  3
STANDARD
100
AcDbAlignedDimension
 13
320.7163561032236
 23
142.3588199587883
 33
0.0
 14
320.6163561032236
 24
134.3588199587883
 34
0.0
 50
90.0
100
AcDbRotatedDimension
1001
ACAD
1000
DSTYLE
1002
{
1070
    41
1040
3.0
1070
    42
1040
3.0
1070
    43
1040
7.0
1070
    44
1040
1.5
1070
    73
1070
     0
1070
    74
1070
     0
1070
    77
1070
     3
1070
   140
1040
3.0
1070
   141
1040
3.0
1070
   147
1040
1.0
1070
   172
1070
     1
1070
   173
1070
     1
1070
   176
1070
   256
1070
   177
1070
   256
1070
   178
1070
   256
1070
   271
1070
     0
1070
   272
1070
     0
1070
   341
1005
B2
1070
     6
1000
OPEN
1070
     7
1000
OPEN
1002
}
  0
DIMENSION
  5
2015
330
1A
100
AcDbEntity
  8
SUNPOU
100
AcDbDimension
  2
*D7
 10
303.4983383386577
 20
107.3588199587883
 30
0.0
 11
300.9983383386577
 21
111.3588199587883
 31
0.0
 70
    32
  3
STANDARD
100
AcDbAlignedDimension
 13
320.6163561032236
 23
115.3588199587883
 33
0.0
 14
320.7163561032236
 24
107.3588199587883
 34
0.0
 50
90.0
100
AcDbRotatedDimension
1001
ACAD
1000
DSTYLE
1002
{
1070
    41
1040
3.0
1070
    42
1040
3.0
1070
    43
1040
7.0
1070
    44
1040
1.5
1070
    73
1070
     0
1070
    74
1070
     0
1070
    77
1070
     3
1070
   140
1040
3.0
1070
   141
1040
3.0
1070
   147
1040
1.0
1070
   172
1070
     1
1070
   173
1070
     1
1070
   176
1070
   256
1070
   177
1070
   256
1070
   178
1070
   256
1070
   271
1070
     0
1070
   272
1070
     0
1070
   341
1005
B2
1070
     6
1000
OPEN
1070
     7
1000
OPEN
1002
}
  0
DIMENSION
  5
2022
330
1A
100
AcDbEntity
  8
SUNPOU
100
AcDbDimension
  2
*D8
 10
293.4799593109778
 20
107.3588199587883
 30
0.0
 11
290.9799593109778
 21
124.8588199587883
 31
0.0
 70
    32
  3
STANDARD
100
AcDbAlignedDimension
 13
320.7163561032236
 23
142.3588199587883
 33
0.0
 14
320.7163561032236
 24
107.3588199587883
 34
0.0
 50
90.0
100
AcDbRotatedDimension
1001
ACAD
1000
DSTYLE
1002
{
1070
    41
1040
3.0
1070
    42
1040
3.0
1070
    43
1040
7.0
1070
    44
1040
1.5
1070
    73
1070
     0
1070
    74
1070
     0
1070
    77
1070
     3
1070
   140
1040
3.0
1070
   141
1040
3.0
1070
   147
1040
1.0
1070
   172
1070
     1
1070
   173
1070
     1
1070
   176
1070
   256
1070
   177
1070
   256
1070
   178
1070
   256
1070
   271
1070
     0
1070
   272
1070
     0
1070
   341
1005
B2
1070
     6
1000
OPEN
1070
     7
1000
OPEN
1002
}
  0
DIMENSION
  5
204C
330
1A
100
AcDbEntity
  8
SUNPOU
100
AcDbDimension
  2
*D9
 10
370.7163561032236
 20
155.5369103896843
 30
0.0
 11
348.7163561032236
 21
158.0369103896844
 31
0.0
 70
    32
  3
STANDARD
100
AcDbAlignedDimension
 13
326.7163561032236
 23
140.4588199587883
 33
0.0
 14
370.7163561032236
 24
140.4588199587883
 34
0.0
100
AcDbRotatedDimension
1001
ACAD
1000
DSTYLE
1002
{
1070
    41
1040
3.0
1070
    42
1040
3.0
1070
    43
1040
7.0
1070
    44
1040
1.5
1070
    73
1070
     0
1070
    74
1070
     0
1070
    77
1070
     3
1070
   140
1040
3.0
1070
   141
1040
3.0
1070
   147
1040
1.0
1070
   172
1070
     1
1070
   173
1070
     1
1070
   176
1070
   256
1070
   177
1070
   256
1070
   178
1070
   256
1070
   271
1070
     0
1070
   272
1070
     0
1070
   341
1005
B2
1070
     6
1000
OPEN
1070
     7
1000
OPEN
1002
}
  0
DIMENSION
  5
2059
330
1A
100
AcDbEntity
  8
SUNPOU
100
AcDbDimension
  2
*D10
 10
379.7163561032236
 20
165.8814670732135
 30
0.0
 11
348.7163561032236
 21
168.3814670732135
 31
0.0
 70
    32
  3
STANDARD
100
AcDbAlignedDimension
 13
317.7163561032236
 23
139.3588199587883
 33
0.0
 14
379.7163561032236
 24
139.3588199587883
 34
0.0
100
AcDbRotatedDimension
1001
ACAD
1000
DSTYLE
1002
{
1070
    41
1040
3.0
1070
    42
1040
3.0
1070
    43
1040
7.0
1070
    44
1040
1.5
1070
    73
1070
     0
1070
    74
1070
     0
1070
    77
1070
     3
1070
   140
1040
3.0
1070
   141
1040
3.0
1070
   147
1040
1.0
1070
   172
1070
     1
1070
   173
1070
     1
1070
   176
1070
   256
1070
   177
1070
   256
1070
   178
1070
   256
1070
   271
1070
     0
1070
   272
1070
     0
1070
   341
1005
B2
1070
     6
1000
OPEN
1070
     7
1000
OPEN
1002
}
  0
DIMENSION
  5
2066
330
1A
100
AcDbEntity
  8
SUNPOU
100
AcDbDimension
  2
*D11
 10
268.3444721980027
 20
196.8094624906773
 30
0.0
 11
265.8444721980026
 21
227.8094624906773
 31
0.0
 70
    32
  3
STANDARD
100
AcDbAlignedDimension
 13
247.2929777370686
 23
258.8094624906773
 33
0.0
 14
247.2929777370686
 24
196.8094624906773
 34
0.0
 50
90.0
100
AcDbRotatedDimension
1001
ACAD
1000
DSTYLE
1002
{
1070
    41
1040
3.0
1070
    42
1040
3.0
1070
    43
1040
7.0
1070
    44
1040
1.5
1070
    73
1070
     0
1070
    74
1070
     0
1070
    77
1070
     3
1070
   140
1040
3.0
1070
   141
1040
3.0
1070
   147
1040
1.0
1070
   172
1070
     1
1070
   173
1070
     1
1070
   176
1070
   256
1070
   177
1070
   256
1070
   178
1070
   256
1070
   271
1070
     0
1070
   272
1070
     0
1070
   341
1005
B2
1070
     6
1000
OPEN
1070
     7
1000
OPEN
1002
}
  0
DIMENSION
  5
2073
330
1A
100
AcDbEntity
  8
SUNPOU
100
AcDbDimension
  2
*D12
 10
41.46174786873099
 20
217.8094624906773
 30
0.0
 11
38.96174786873096
 21
227.8094624906773
 31
0.0
 70
    32
  3
STANDARD
100
AcDbAlignedDimension
 13
68.29256063706868
 23
237.8094624906773
 33
0.0
 14
68.29256063706868
 24
217.8094624906773
 34
0.0
 50
90.0
100
AcDbRotatedDimension
1001
ACAD
1000
DSTYLE
1002
{
1070
    41
1040
3.0
1070
    42
1040
3.0
1070
    43
1040
7.0
1070
    44
1040
1.5
1070
    73
1070
     0
1070
    74
1070
     0
1070
    77
1070
     3
1070
   140
1040
3.0
1070
   141
1040
3.0
1070
   147
1040
1.0
1070
   172
1070
     1
1070
   173
1070
     1
1070
   176
1070
   256
1070
   177
1070
   256
1070
   178
1070
   256
1070
   271
1070
     0
1070
   272
1070
     0
1070
   341
1005
B2
1070
     6
1000
OPEN
1070
     7
1000
OPEN
1002
}
  0
LEADER
  5
2081
330
1A
100
AcDbEntity
  8
SUNPOU
100
AcDbLeader
  3
STANDARD
 73
     0
 40
3.0
 41
15.59999999999999
 76
     3
 10
325.1528038274944
 20
135.7607130649352
 30
0.0
 10
310.5299803076764
 20
159.2622412658402
 30
0.0
 10
307.5174250645002
 20
159.2622412658402
 30
0.0
340
2082
213
0.0
223
1.5
233
0.0
1001
ACAD
1000
DSTYLE
1002
{
1070
     6
1000
OPEN
1070
    41
1040
3.0
1070
    42
1040
3.0
1070
    43
1040
7.0
1070
    44
1040
1.5
1070
    73
1070
     0
1070
    74
1070
     0
1070
    77
1070
     0
1070
   140
1040
3.0
1070
   141
1040
3.0
1070
   147
1040
1.0
1070
   172
1070
     1
1070
   173
1070
     1
1070
   176
1070
   256
1070
   177
1070
   256
1070
   178
1070
   256
1070
   271
1070
     0
1070
   272
1070
     0
1070
   341
1005
B2
1070
   343
1005
B2
1070
   344
1005
B2
1002
}
  0
MTEXT
  5
2082
102
{ACAD_REACTORS
330
2081
102
}
330
1A
100
AcDbEntity
  8
SUNPOU
100
AcDbMText
 10
306.5174250645002
 20
157.7622412658401
 30
0.0
 40
3.0
 41
0.0
 71
     9
 72
     5
  1
\A1;4-φ4.2
1001
ACAD
1000
MTEXTBEGIN
1070
    73
1070
     1
1070
    44
1040
1.0
1070
    74
1070
     0
1000
MTEXTEND
1000
MTEXTBEGIN
1070
    73
1070
     1
1070
    44
1040
1.0
1070
    74
1070
     0
1000
MTEXTEND
1000
MTEXTBEGIN
1070
    73
1070
     1
1070
    44
1040
1.0
1070
    74
1070
     0
1000
MTEXTEND
1000
MTEXTBEGIN
1070
    73
1070
     1
1070
    44
1040
1.0
1070
    74
1070
     0
1000
MTEXTEND
1000
MTEXTBEGIN
1070
    73
1070
     1
1070
    44
1040
1.0
1070
    74
1070
     0
1000
MTEXTEND
1000
MTEXTBEGIN
1070
    73
1070
     1
1070
    44
1040
1.0
1070
    74
1070
     0
1000
MTEXTEND
1000
MTEXTBEGIN
1070
    73
1070
     1
1070
    44
1040
1.0
1070
    74
1070
     0
1000
MTEXTEND
1000
MTEXTBEGIN
1070
    73
1070
     1
1070
    44
1040
1.0
1070
    74
1070
     0
1000
MTEXTEND
  0
LINE
  5
2127
330
1A
100
AcDbEntity
  8
SEIHIN
100
AcDbLine
 10
144.0801599567119
 20
219.3094624906772
 30
0.0
 11
144.0801599567119
 21
218.3094624906773
 31
0.0
  0
LINE
  5
2128
330
1A
100
AcDbEntity
  8
SEIHIN
100
AcDbLine
 10
145.2061408587644
 20
217.3094624906773
 30
0.0
 11
145.2061408587644
 21
215.8094624906774
 31
0.0
  0
LINE
  5
2129
330
1A
100
AcDbEntity
  8
SEIHIN
100
AcDbLine
 10
157.094130234484
 20
218.3094624906773
 30
0.0
 11
157.094130234484
 21
219.3094624906773
 31
0.0
  0
LINE
  5
212A
330
1A
100
AcDbEntity
  8
SEIHIN
100
AcDbLine
 10
160.7306987217079
 20
217.3094624906773
 30
0.0
 11
160.7306987217079
 21
215.8094624906773
 31
0.0
  0
LINE
  5
226B
330
1A
100
AcDbEntity
  8
SEIHIN
100
AcDbLine
 10
338.7163561032236
 20
89.78567832353281
 30
0.0
 11
336.1163561032236
 21
89.78567832353281
 31
0.0
  0
LINE
  5
226C
330
1A
100
AcDbEntity
  8
SEIHIN
100
AcDbLine
 10
358.7163561032236
 20
89.78567832353281
 30
0.0
 11
361.3163561032236
 21
89.78567832353281
 31
0.0
  0
LINE
  5
226D
330
1A
100
AcDbEntity
  8
SEIHIN
100
AcDbLine
 10
351.9663561032236
 20
70.58795566669741
 30
0.0
 11
345.4663561032236
 21
70.58795566669741
 31
0.0
  0
LINE
  5
226E
330
1A
100
AcDbEntity
  8
SEIHIN
100
AcDbLine
 10
339.7163561032236
 20
72.77721365878831
 30
0.0
 11
339.7163561032236
 21
71.08795566669742
 31
0.0
  0
LINE
  5
226F
330
1A
100
AcDbEntity
  8
SEIHIN
100
AcDbLine
 10
357.7163561032236
 20
72.77721365878831
 30
0.0
 11
357.7163561032236
 21
71.08795566669742
 31
0.0
  0
LINE
  5
2272
330
1A
100
AcDbEntity
  8
SEIHIN
100
AcDbLine
 10
345.2163561032236
 20
72.77721365878831
 30
0.0
 11
345.2163561032236
 21
70.83795566669741
 31
0.0
  0
LINE
  5
2273
330
1A
100
AcDbEntity
  8
SEIHIN
100
AcDbLine
 10
352.2163561032236
 20
72.77721365878831
 30
0.0
 11
352.2163561032236
 21
70.83795566669741
 31
0.0
  0
LINE
  5
2274
330
1A
100
AcDbEntity
  8
SEIHIN
100
AcDbLine
 10
357.7163561032236
 20
71.08795566669741
 30
0.0
 11
352.4663561032236
 21
71.08795566669741
 31
0.0
  0
LINE
  5
2275
330
1A
100
AcDbEntity
  8
SEIHIN
100
AcDbLine
 10
344.9663561032236
 20
71.08795566669741
 30
0.0
 11
339.7163561032236
 21
71.08795566669741
 31
0.0
  0
ARC
  5
2276
330
1A
100
AcDbEntity
  8
SEIHIN
100
AcDbCircle
 10
344.9663561032236
 20
70.83795566669741
 30
0.0
 40
0.25
100
AcDbArc
 50
0.0
 51
90.0
  0
ARC
  5
2277
330
1A
100
AcDbEntity
  8
SEIHIN
100
AcDbCircle
 10
352.4663561032236
 20
70.83795566669741
 30
0.0
 40
0.25
100
AcDbArc
 50
90.0
 51
180.0
  0
ARC
  5
2278
330
1A
100
AcDbEntity
  8
SEIHIN
100
AcDbCircle
 10
345.4663561032236
 20
70.83795566669741
 30
0.0
 40
0.25
100
AcDbArc
 50
180.0
 51
270.0
  0
ARC
  5
2279
330
1A
100
AcDbEntity
  8
SEIHIN
100
AcDbCircle
 10
351.9663561032236
 20
70.83795566669741
 30
0.0
 40
0.25
100
AcDbArc
 50
270.0
 51
0.0
  0
LINE
  5
2318
330
1A
100
AcDbEntity
  8
SEIHIN
100
AcDbLine
 10
242.2929777370686
 20
217.8094624906773
 30
0.0
 11
246.7929777370686
 21
217.8094624906773
 31
0.0
  0
TEXT
  5
2A0E
330
1A
100
AcDbEntity
  8
MOJI
100
AcDbText
 10
119.9136010211517
 20
9.002460288415193
 30
0.0
 40
2.799999999999999
  1
亜鉛メッキ金具正面打（吊）ストロング高強度金具（釣針型）
 41
0.9
  7
ｽﾀｲﾙ1
100
AcDbText
  0
LINE
  5
2A0F
330
1A
100
AcDbEntity
  8
ZUWAKU
100
AcDbLine
 10
104.3233003257602
 20
7.599999759711518
 30
0.0
 11
223.7121816662219
 21
7.599999759711515
 31
0.0
  0
LINE
  5
2A10
330
1A
100
AcDbEntity
  8
ZUWAKU
100
AcDbLine
 10
104.3233003257602
 20
7.799999759711516
 30
0.0
 11
223.7121816662219
 21
7.79999975971152
 31
0.0
  0
LINE
  5
2A11
330
1A
100
AcDbEntity
  8
ZUWAKU
100
AcDbLine
 10
104.3233003257602
 20
7.699999759711516
 30
0.0
 11
223.7121816662219
 21
7.699999759711516
 31
0.0
  0
LINE
  5
2A12
330
1A
100
AcDbEntity
  8
ZUWAKU
100
AcDbLine
 10
-0.000000319273795
 20
15.3999997597115
 30
0.0
 11
398.6999996807261
 21
15.3999997597115
 31
0.0
  0
LINE
  5
2A13
330
1A
100
AcDbEntity
  8
ZUWAKU
100
AcDbLine
 10
-0.000000319273795
 20
15.2999997597115
 30
0.0
 11
398.6999996807261
 21
15.2999997597115
 31
0.0
  0
LINE
  5
2A14
330
1A
100
AcDbEntity
  8
ZUWAKU
100
AcDbLine
 10
-0.000000319273795
 20
15.1999997597115
 30
0.0
 11
398.6999996807261
 21
15.1999997597115
 31
0.0
  0
LINE
  5
2A15
330
1A
100
AcDbEntity
  8
ZUWAKU
100
AcDbLine
 10
-0.000000319273795
 20
15.0999997597115
 30
0.0
 11
398.6999996807261
 21
15.0999997597115
 31
0.0
  0
LINE
  5
2A16
330
1A
100
AcDbEntity
  8
ZUWAKU
100
AcDbLine
 10
-0.000000319273795
 20
14.99999975971149
 30
0.0
 11
398.6999996807261
 21
14.99999975971149
 31
0.0
  0
LWPOLYLINE
  5
2A17
330
1A
100
AcDbEntity
  8
ZUWAKU
100
AcDbPolyline
 90
        4
 70
     1
 43
0.0
 10
0.099999680726171
 20
275.6999997597115
 10
0.099999680726171
 20
0.0999997597115226
 10
398.6999996807261
 20
0.0999997597115341
 10
398.6999996807262
 20
275.6999997597115
  0
LWPOLYLINE
  5
2A18
330
1A
100
AcDbEntity
  8
ZUWAKU
100
AcDbPolyline
 90
        4
 70
     1
 43
0.0
 10
0.2999996807261596
 20
275.4999997597115
 10
0.2999996807261596
 20
0.2999997597115111
 10
398.4999996807263
 20
0.2999997597115342
 10
398.4999996807262
 20
275.4999997597115
  0
LWPOLYLINE
  5
2A19
330
1A
100
AcDbEntity
  8
ZUWAKU
100
AcDbPolyline
 90
        4
 70
     1
 43
0.0
 10
-0.000000319273795
 20
275.7999997597115
 10
-0.000000319273795
 20
-0.0000002402885002
 10
398.7999996807262
 20
-0.0000002402884665
 10
398.7999996807262
 20
275.7999997597115
  0
LWPOLYLINE
  5
2A1A
330
1A
100
AcDbEntity
  8
ZUWAKU
100
AcDbPolyline
 90
        4
 70
     1
 43
0.0
 10
0.1999996807261937
 20
275.5999997597115
 10
0.1999996807261937
 20
0.1999997597115453
 10
398.5999996807262
 20
0.1999997597115337
 10
398.5999996807262
 20
275.5999997597115
  0
LWPOLYLINE
  5
2A1B
330
1A
100
AcDbEntity
  8
ZUWAKU
100
AcDbPolyline
 90
        4
 70
     1
 43
0.0
 10
0.3999996807261823
 20
275.3999997597115
 10
0.3999996807261823
 20
0.3999997597115339
 10
398.3999996807261
 20
0.3999997597115339
 10
398.3999996807261
 20
275.3999997597115
  0
TEXT
  5
2A1C
330
1A
100
AcDbEntity
  8
MOJI
100
AcDbText
 10
46.47889447481077
 20
6.37058882484888
 30
0.0
 40
3.0
  1
新・丸トップＲＶ１０５
 41
0.9
  7
ｽﾀｲﾙ1
100
AcDbText
  0
HATCH
  5
2A1D
330
1A
100
AcDbEntity
  8
ZUWAKU
100
AcDbHatch
 10
0.0
 20
0.0
 30
0.0
210
0.0
220
0.0
230
1.0
  2
ANSI37
 70
     0
 71
     0
 91
        8
 92
        7
 72
     1
 73
     1
 93
       24
 10
7.251131011286133
 20
8.822424000203291
 42
-0.1989123673796348
 10
7.046105758116766
 20
9.317398747033816
 42
0.0
 10
7.046105758116766
 20
9.962499759711505
 42
-0.4142135623730912
 10
7.308605758116755
 20
10.2249997597115
 42
0.0
 10
8.796105758116709
 20
10.2249997597115
 42
0.4142135623731546
 10
9.058605758116755
 20
10.48749975971149
 42
0.0
 10
9.058605758116755
 20
11.3624997597115
 42
0.4142135623731586
 10
8.796105758116709
 20
11.6249997597115
 42
0.0
 10
7.046105758116766
 20
11.6249997597115
 42
0.4142135623730928
 10
5.646105758116789
 20
10.22499975971151
 42
0.0
 10
5.646105758116789
 20
9.31739874703388
 42
0.1989123673796619
 10
6.261181517625004
 20
7.832474506542077
 42
0.0
 10
7.716080504947342
 20
6.377575519219748
 42
-0.1989123673796613
 10
7.921105758116766
 20
5.882600772389155
 42
0.0
 10
7.921105758116766
 20
5.237499759711496
 42
-0.4142135623730911
 10
7.658605758116777
 20
4.974999759711501
 42
0.0
 10
6.171105758116823
 20
4.974999759711501
 42
0.4142135623731526
 10
5.908605758116777
 20
4.712499759711507
 42
0.0
 10
5.908605758116777
 20
3.837499759711496
 42
0.4142135623731526
 10
6.171105758116823
 20
3.574999759711502
 42
0.0
 10
7.921105758116766
 20
3.574999759711502
 42
0.4142135623731044
 10
9.3211057581168
 20
4.97499975971149
 42
0.0
 10
9.3211057581168
 20
5.882600772389126
 42
0.1989123673796604
 10
8.706029998608528
 20
7.367525012880896
 42
0.0
 97
        0
 92
        7
 72
     1
 73
     1
 93
       16
 10
11.77110575811678
 20
9.524999759711505
 42
-0.4142135623730935
 10
12.47110575811677
 20
10.2249997597115
 42
0.0
 10
13.43360575811675
 20
10.2249997597115
 42
0.4142135623731546
 10
13.6961057581168
 20
10.48749975971149
 42
0.0
 10
13.6961057581168
 20
11.3624997597115
 42
0.4142135623730951
 10
13.43360575811681
 20
11.6249997597115
 42
0.0
 10
12.47110575811672
 20
11.62499975971148
 42
0.4142135623730892
 10
10.37110575811675
 20
9.524999759711469
 42
0.0
 10
10.37110575811675
 20
5.674999759711514
 42
0.4142135623730969
 10
12.47110575811677
 20
3.574999759711502
 42
0.0
 10
13.43360575811675
 20
3.574999759711502
 42
0.4142135623731526
 10
13.6961057581168
 20
3.837499759711496
 42
0.0
 10
13.6961057581168
 20
4.712499759711507
 42
0.4142135623730891
 10
13.43360575811681
 20
4.974999759711501
 42
0.0
 10
12.47110575811677
 20
4.974999759711501
 42
-0.4142135623730928
 10
11.77110575811678
 20
5.674999759711495
 42
0.0
 97
        0
 92
        7
 72
     1
 73
     1
 93
        2
 10
12.12110575811675
 20
7.599999759711501
 42
1.0
 10
13.87110575811675
 20
7.599999759711501
 42
1.0
 97
        0
 92
        7
 72
     1
 73
     1
 93
       26
 10
18.65742899920576
 20
9.602523356493215
 42
0.0
 10
19.18824881577467
 20
11.28345277562801
 42
0.5069206636600134
 10
18.93793336617699
 20
11.6249997597115
 42
0.0
 10
18.08848867637237
 20
11.6249997597115
 42
0.3272098845218764
 10
17.8381732267747
 20
11.44154674379498
 42
0.0
 10
16.90403828945881
 20
8.483452775628041
 42
-0.3272098845219541
 10
16.65372283986107
 20
8.2999997597115
 42
0.0
 10
16.58360575811684
 20
8.2999997597115
 42
-0.4142135623731526
 10
16.3211057581168
 20
8.562499759711494
 42
0.0
 10
16.3211057581168
 20
11.3624997597115
 42
0.4142135623730951
 10
16.05860575811681
 20
11.6249997597115
 42
0.0
 10
15.18360575811675
 20
11.6249997597115
 42
0.4142135623730871
 10
14.92110575811676
 20
11.36249975971151
 42
0.0
 10
14.92110575811676
 20
3.837499759711496
 42
0.4142135623730891
 10
15.18360575811675
 20
3.574999759711502
 42
0.0
 10
16.05860575811675
 20
3.574999759711502
 42
0.4142135623731526
 10
16.3211057581168
 20
3.837499759711496
 42
0.0
 10
16.3211057581168
 20
6.637499759711507
 42
-0.4142135623731526
 10
16.58360575811684
 20
6.899999759711501
 42
0.0
 10
16.65372283986113
 20
6.899999759711501
 42
-0.3272098845218915
 10
16.90403828945881
 20
6.716546743794964
 42
0.0
 10
17.8381732267747
 20
3.758452775628038
 42
0.3272098845218902
 10
18.08848867637237
 20
3.574999759711502
 42
0.0
 10
18.93793336617699
 20
3.574999759711502
 42
0.5069206636600335
 10
19.18824881577467
 20
3.916546743795006
 42
0.0
 10
18.02505312653784
 20
7.59999975971157
 42
0.0
 97
        0
 92
        7
 72
     1
 73
     1
 93
        8
 10
21.74610575811675
 20
11.3624997597115
 42
0.4142135623731546
 10
21.48360575811671
 20
11.6249997597115
 42
0.0
 10
20.60860575811682
 20
11.6249997597115
 42
0.4142135623731507
 10
20.34610575811677
 20
11.36249975971151
 42
0.0
 10
20.34610575811677
 20
3.837499759711496
 42
0.4142135623731526
 10
20.60860575811682
 20
3.574999759711502
 42
0.0
 10
21.48360575811671
 20
3.574999759711502
 42
0.4142135623731526
 10
21.74610575811675
 20
3.837499759711496
 42
0.0
 97
        0
 92
        7
 72
     1
 73
     1
 93
       24
 10
24.1961057581168
 20
9.962499759711505
 42
-0.4142135623731546
 10
24.45860575811684
 20
10.2249997597115
 42
0.0
 10
25.9461057581168
 20
10.2249997597115
 42
0.4142135623730911
 10
26.20860575811679
 20
10.48749975971149
 42
0.0
 10
26.20860575811679
 20
11.3624997597115
 42
0.4142135623730952
 10
25.9461057581168
 20
11.6249997597115
 42
0.0
 10
24.1961057581168
 20
11.6249997597115
 42
0.4142135623731048
 10
22.79610575811676
 20
10.22499975971151
 42
0.0
 10
22.79610575811676
 20
9.31739874703388
 42
0.1989123673796613
 10
23.41118151762504
 20
7.832474506542105
 42
0.0
 10
24.86608050494737
 20
6.377575519219771
 42
-0.1989123673796402
 10
25.0711057581168
 20
5.882600772389235
 42
0.0
 10
25.0711057581168
 20
5.237499759711496
 42
-0.4142135623730911
 10
24.80860575811681
 20
4.974999759711501
 42
0.0
 10
23.3211057581168
 20
4.974999759711501
 42
0.4142135623731526
 10
23.05860575811675
 20
4.712499759711507
 42
0.0
 10
23.05860575811675
 20
3.837499759711496
 42
0.4142135623730891
 10
23.32110575811674
 20
3.574999759711502
 42
0.0
 10
25.0711057581168
 20
3.574999759711502
 42
0.4142135623730925
 10
26.47110575811677
 20
4.97499975971149
 42
0.0
 10
26.47110575811677
 20
5.882600772389126
 42
0.1989123673796675
 10
25.8560299986085
 20
7.367525012880953
 42
0.0
 10
24.40113101128622
 20
8.822424000203211
 42
-0.1989123673796652
 10
24.1961057581168
 20
9.317398747033795
 42
0.0
 97
        0
 92
        7
 72
     1
 73
     1
 93
       16
 10
28.92110575811676
 20
11.36249975971149
 42
0.414213562373103
 10
28.65860575811677
 20
11.6249997597115
 42
0.0
 10
27.78360575811678
 20
11.6249997597115
 42
0.4142135623730871
 10
27.52110575811679
 20
11.36249975971151
 42
0.0
 10
27.52110575811679
 20
4.97499975971149
 42
0.4142135623730926
 10
28.92110575811676
 20
3.574999759711502
 42
0.0
 10
30.67110575811677
 20
3.574999759711502
 42
0.4142135623731044
 10
32.0711057581168
 20
4.97499975971149
 42
0.0
 10
32.0711057581168
 20
11.3624997597115
 42
0.4142135623730951
 10
31.80860575811681
 20
11.6249997597115
 42
0.0
 10
30.93360575811675
 20
11.6249997597115
 42
0.4142135623730871
 10
30.67110575811677
 20
11.36249975971151
 42
0.0
 10
30.67110575811677
 20
5.499999759711489
 42
-0.414213562373088
 10
30.14610575811679
 20
4.974999759711501
 42
0.0
 10
29.4461057581168
 20
4.974999759711501
 42
-0.4142135623731197
 10
28.92110575811676
 20
5.499999759711489
 42
0.0
 97
        0
 92
        7
 72
     1
 73
     1
 93
        8
 10
34.52110575811679
 20
11.36249975971151
 42
0.4142135623730871
 10
34.2586057581168
 20
11.6249997597115
 42
0.0
 10
33.3836057581168
 20
11.6249997597115
 42
0.4142135623731507
 10
33.12110575811675
 20
11.36249975971151
 42
0.0
 10
33.12110575811675
 20
3.837499759711496
 42
0.4142135623730891
 10
33.38360575811674
 20
3.574999759711502
 42
0.0
 10
34.2586057581168
 20
3.574999759711502
 42
0.4142135623730891
 10
34.52110575811679
 20
3.837499759711496
 42
0.0
 97
        0
 75
     0
 76
     1
 52
0.0
 41
0.1
 77
     0
 78
     2
 53
45.0
 43
-450.4711524866133
 44
-6.600000240288466
 45
-0.2245064030267288
 46
0.2245064030267288
 79
     0
 53
135.0
 43
-450.4711524866133
 44
-6.600000240288466
 45
-0.2245064030267288
 46
-0.2245064030267288
 79
     0
 47
0.057451373970553
 98
        8
 10
8.039927162237859
 20
7.583586582654277
 10
11.20225718394578
 20
9.422030850937005
 10
12.58218362355603
 20
7.755940582746859
 10
15.45702967154477
 20
8.100648582932251
 10
20.91923569020457
 20
8.330454716703059
 10
23.44910012829097
 20
9.709287917915105
 10
28.27884266692638
 20
9.364578717259007
 10
33.91353949053757
 20
9.594384851029815
  0
LINE
  5
2A1E
330
1A
100
AcDbEntity
  8
ZUWAKU
100
AcDbLine
 10
12.47110575811677
 20
11.62499975971148
 30
0.0
 11
13.43360575811675
 21
11.6249997597115
 31
0.0
  0
LINE
  5
2A1F
330
1A
100
AcDbEntity
  8
ZUWAKU
100
AcDbLine
 10
13.43360575811675
 20
10.2249997597115
 30
0.0
 11
12.47110575811677
 21
10.2249997597115
 31
0.0
  0
LINE
  5
2A20
330
1A
100
AcDbEntity
  8
ZUWAKU
100
AcDbLine
 10
12.47110575811677
 20
4.974999759711501
 30
0.0
 11
13.43360575811675
 21
4.974999759711501
 31
0.0
  0
LINE
  5
2A21
330
1A
100
AcDbEntity
  8
ZUWAKU
100
AcDbLine
 10
13.43360575811675
 20
3.574999759711502
 30
0.0
 11
12.47110575811677
 21
3.574999759711502
 31
0.0
  0
CIRCLE
  5
2A22
330
1A
100
AcDbEntity
  8
ZUWAKU
100
AcDbCircle
 10
12.99610575811675
 20
7.599999759711501
 30
0.0
 40
0.875
  0
ARC
  5
2A23
330
1A
100
AcDbEntity
  8
ZUWAKU
100
AcDbCircle
 10
7.746105758116755
 20
9.317398747033852
 30
0.0
 40
0.7
100
AcDbArc
 50
180.0000000000016
 51
224.9999999999988
  0
LINE
  5
2A24
330
1A
100
AcDbEntity
  8
ZUWAKU
100
AcDbLine
 10
11.77110575811678
 20
9.524999759711501
 30
0.0
 11
11.77110575811678
 21
5.674999759711504
 31
0.0
  0
LINE
  5
2A25
330
1A
100
AcDbEntity
  8
ZUWAKU
100
AcDbLine
 10
10.37110575811675
 20
5.674999759711504
 30
0.0
 11
10.37110575811675
 21
9.52499975971148
 31
0.0
  0
ARC
  5
2A26
330
1A
100
AcDbEntity
  8
ZUWAKU
100
AcDbCircle
 10
7.746105758116755
 20
9.317398747033852
 30
0.0
 40
2.099999999999999
100
AcDbArc
 50
180.0
 51
225.0
  0
ARC
  5
2A27
330
1A
100
AcDbEntity
  8
ZUWAKU
100
AcDbCircle
 10
7.921105758116766
 20
4.974999759711501
 30
0.0
 40
1.399999999999999
100
AcDbArc
 50
270.0
 51
0.0
  0
ARC
  5
2A28
330
1A
100
AcDbEntity
  8
ZUWAKU
100
AcDbCircle
 10
12.47110575811677
 20
5.674999759711504
 30
0.0
 40
2.099999999999999
100
AcDbArc
 50
180.0
 51
270.0
  0
ARC
  5
2A29
330
1A
100
AcDbEntity
  8
ZUWAKU
100
AcDbCircle
 10
7.221105758116777
 20
5.882600772389153
 30
0.0
 40
2.099999999999999
100
AcDbArc
 50
0.0
 51
45.0
  0
LINE
  5
2A2A
330
1A
100
AcDbEntity
  8
ZUWAKU
100
AcDbLine
 10
8.706029998608528
 20
7.367525012880914
 30
0.0
 11
7.25113101128619
 21
8.822424000203252
 31
0.0
  0
LINE
  5
2A2B
330
1A
100
AcDbEntity
  8
ZUWAKU
100
AcDbLine
 10
7.921105758116766
 20
5.237499759711504
 30
0.0
 11
7.921105758116766
 21
5.882600772389174
 31
0.0
  0
ARC
  5
2A2C
330
1A
100
AcDbEntity
  8
ZUWAKU
100
AcDbCircle
 10
7.658605758116777
 20
5.237499759711504
 30
0.0
 40
0.2625
100
AcDbArc
 50
270.0
 51
0.0
  0
ARC
  5
2A2D
330
1A
100
AcDbEntity
  8
ZUWAKU
100
AcDbCircle
 10
7.221105758116777
 20
5.882600772389174
 30
0.0
 40
0.7
100
AcDbArc
 50
0.0
 51
45.0
  0
LINE
  5
2A2E
330
1A
100
AcDbEntity
  8
ZUWAKU
100
AcDbLine
 10
5.908605758116777
 20
3.837499759711501
 30
0.0
 11
5.908605758116777
 21
4.712499759711501
 31
0.0
  0
ARC
  5
2A2F
330
1A
100
AcDbEntity
  8
ZUWAKU
100
AcDbCircle
 10
6.171105758116766
 20
3.837499759711501
 30
0.0
 40
0.2625
100
AcDbArc
 50
180.0
 51
270.0
  0
ARC
  5
2A30
330
1A
100
AcDbEntity
  8
ZUWAKU
100
AcDbCircle
 10
6.171105758116766
 20
4.712499759711501
 30
0.0
 40
0.2625
100
AcDbArc
 50
90.0
 51
180.0
  0
LINE
  5
2A31
330
1A
100
AcDbEntity
  8
ZUWAKU
100
AcDbLine
 10
6.171105758116766
 20
3.574999759711502
 30
0.0
 11
7.921105758116766
 21
3.574999759711502
 31
0.0
  0
LINE
  5
2A32
330
1A
100
AcDbEntity
  8
ZUWAKU
100
AcDbLine
 10
6.171105758116766
 20
4.974999759711501
 30
0.0
 11
7.658605758116777
 21
4.974999759711501
 31
0.0
  0
LINE
  5
2A33
330
1A
100
AcDbEntity
  8
ZUWAKU
100
AcDbLine
 10
6.261181517625004
 20
7.832474506542091
 30
0.0
 11
7.716080504947342
 21
6.37757551921976
 31
0.0
  0
LINE
  5
2A34
330
1A
100
AcDbEntity
  8
ZUWAKU
100
AcDbLine
 10
9.3211057581168
 20
4.974999759711501
 30
0.0
 11
9.3211057581168
 21
5.882600772389174
 31
0.0
  0
ARC
  5
2A35
330
1A
100
AcDbEntity
  8
ZUWAKU
100
AcDbCircle
 10
12.47110575811677
 20
5.674999759711504
 30
0.0
 40
0.7
100
AcDbArc
 50
180.0
 51
270.0
  0
ARC
  5
2A36
330
1A
100
AcDbEntity
  8
ZUWAKU
100
AcDbCircle
 10
8.796105758116766
 20
11.3624997597115
 30
0.0
 40
0.2625
100
AcDbArc
 50
0.0
 51
90.0
  0
ARC
  5
2A37
330
1A
100
AcDbEntity
  8
ZUWAKU
100
AcDbCircle
 10
8.796105758116766
 20
10.4874997597115
 30
0.0
 40
0.2625
100
AcDbArc
 50
270.0
 51
0.0
  0
LINE
  5
2A38
330
1A
100
AcDbEntity
  8
ZUWAKU
100
AcDbLine
 10
7.046105758116766
 20
11.6249997597115
 30
0.0
 11
8.796105758116766
 21
11.6249997597115
 31
0.0
  0
ARC
  5
2A39
330
1A
100
AcDbEntity
  8
ZUWAKU
100
AcDbCircle
 10
7.308605758116755
 20
9.962499759711501
 30
0.0
 40
0.2625
100
AcDbArc
 50
90.0
 51
180.0
  0
LINE
  5
2A3A
330
1A
100
AcDbEntity
  8
ZUWAKU
100
AcDbLine
 10
7.046105758116766
 20
9.962499759711501
 30
0.0
 11
7.046105758116766
 21
9.317398747033831
 31
0.0
  0
LINE
  5
2A3B
330
1A
100
AcDbEntity
  8
ZUWAKU
100
AcDbLine
 10
8.796105758116766
 20
10.2249997597115
 30
0.0
 11
7.308605758116755
 21
10.2249997597115
 31
0.0
  0
LINE
  5
2A3C
330
1A
100
AcDbEntity
  8
ZUWAKU
100
AcDbLine
 10
5.646105758116789
 20
10.2249997597115
 30
0.0
 11
5.646105758116789
 21
9.317398747033831
 31
0.0
  0
ARC
  5
2A3D
330
1A
100
AcDbEntity
  8
ZUWAKU
100
AcDbCircle
 10
7.046105758116766
 20
10.2249997597115
 30
0.0
 40
1.399999999999999
100
AcDbArc
 50
90.0
 51
180.0
  0
LINE
  5
2A3E
330
1A
100
AcDbEntity
  8
ZUWAKU
100
AcDbLine
 10
9.058605758116755
 20
11.3624997597115
 30
0.0
 11
9.058605758116755
 21
10.4874997597115
 31
0.0
  0
ARC
  5
2A3F
330
1A
100
AcDbEntity
  8
ZUWAKU
100
AcDbCircle
 10
12.47110575811677
 20
9.524999759711501
 30
0.0
 40
0.7
100
AcDbArc
 50
90.0
 51
180.0
  0
ARC
  5
2A40
330
1A
100
AcDbEntity
  8
ZUWAKU
100
AcDbCircle
 10
12.47110575811677
 20
9.52499975971148
 30
0.0
 40
2.099999999999999
100
AcDbArc
 50
90.0
 51
180.0
  0
LINE
  5
2A41
330
1A
100
AcDbEntity
  8
ZUWAKU
100
AcDbLine
 10
39.66331445472031
 20
14.99999975971149
 30
0.0
 11
39.66331445472042
 21
0.3999997597115339
 31
0.0
  0
LINE
  5
2A42
330
1A
100
AcDbEntity
  8
ZUWAKU
100
AcDbLine
 10
39.76331445472033
 20
14.99999975971149
 30
0.0
 11
39.76331445472044
 21
0.3999997597115339
 31
0.0
  0
LINE
  5
2A43
330
1A
100
AcDbEntity
  8
ZUWAKU
100
AcDbLine
 10
39.5633144547204
 20
14.99999975971149
 30
0.0
 11
39.5633144547204
 21
0.3999997597115339
 31
0.0
  0
LINE
  5
2A44
330
1A
100
AcDbEntity
  8
ZUWAKU
100
AcDbLine
 10
32.0711057581168
 20
4.974999759711501
 30
0.0
 11
32.0711057581168
 21
11.3624997597115
 31
0.0
  0
LINE
  5
2A45
330
1A
100
AcDbEntity
  8
ZUWAKU
100
AcDbLine
 10
30.67110575811677
 20
11.3624997597115
 30
0.0
 11
30.67110575811677
 21
5.499999759711499
 31
0.0
  0
LINE
  5
2A46
330
1A
100
AcDbEntity
  8
ZUWAKU
100
AcDbLine
 10
34.52110575811679
 20
3.837499759711501
 30
0.0
 11
34.52110575811679
 21
11.3624997597115
 31
0.0
  0
LINE
  5
2A47
330
1A
100
AcDbEntity
  8
ZUWAKU
100
AcDbLine
 10
33.12110575811675
 20
11.3624997597115
 30
0.0
 11
33.12110575811675
 21
3.837499759711501
 31
0.0
  0
ARC
  5
2A48
330
1A
100
AcDbEntity
  8
ZUWAKU
100
AcDbCircle
 10
24.89610575811679
 20
9.317398747033852
 30
0.0
 40
0.7
100
AcDbArc
 50
180.0000000000016
 51
224.9999999999988
  0
ARC
  5
2A49
330
1A
100
AcDbEntity
  8
ZUWAKU
100
AcDbCircle
 10
24.89610575811679
 20
9.317398747033852
 30
0.0
 40
2.099999999999999
100
AcDbArc
 50
180.0
 51
225.0
  0
LINE
  5
2A4A
330
1A
100
AcDbEntity
  8
ZUWAKU
100
AcDbLine
 10
18.65742899920576
 20
9.602523356493215
 30
0.0
 11
18.02505312653784
 21
7.599999759711511
 31
0.0
  0
LINE
  5
2A4B
330
1A
100
AcDbEntity
  8
ZUWAKU
100
AcDbLine
 10
20.34610575811677
 20
11.3624997597115
 30
0.0
 11
20.34610575811677
 21
3.837499759711501
 31
0.0
  0
LINE
  5
2A4C
330
1A
100
AcDbEntity
  8
ZUWAKU
100
AcDbLine
 10
21.74610575811675
 20
3.837499759711501
 30
0.0
 11
21.74610575811675
 21
11.3624997597115
 31
0.0
  0
LINE
  5
2A4D
330
1A
100
AcDbEntity
  8
ZUWAKU
100
AcDbLine
 10
27.52110575811679
 20
11.3624997597115
 30
0.0
 11
27.52110575811679
 21
4.974999759711501
 31
0.0
  0
LINE
  5
2A4E
330
1A
100
AcDbEntity
  8
ZUWAKU
100
AcDbLine
 10
28.92110575811676
 20
5.499999759711499
 30
0.0
 11
28.92110575811676
 21
11.3624997597115
 31
0.0
  0
LINE
  5
2A4F
330
1A
100
AcDbEntity
  8
ZUWAKU
100
AcDbLine
 10
16.3211057581168
 20
8.562499759711503
 30
0.0
 11
16.3211057581168
 21
11.3624997597115
 31
0.0
  0
LINE
  5
2A50
330
1A
100
AcDbEntity
  8
ZUWAKU
100
AcDbLine
 10
14.92110575811676
 20
11.3624997597115
 30
0.0
 11
14.92110575811676
 21
3.837499759711501
 31
0.0
  0
LINE
  5
2A51
330
1A
100
AcDbEntity
  8
ZUWAKU
100
AcDbLine
 10
17.8381732267747
 20
11.44154674379498
 30
0.0
 11
16.90403828945881
 21
8.483452775628016
 31
0.0
  0
LINE
  5
2A52
330
1A
100
AcDbEntity
  8
ZUWAKU
100
AcDbLine
 10
30.14610575811679
 20
4.974999759711501
 30
0.0
 11
29.4461057581168
 21
4.974999759711501
 31
0.0
  0
LINE
  5
2A53
330
1A
100
AcDbEntity
  8
ZUWAKU
100
AcDbLine
 10
28.92110575811676
 20
3.574999759711502
 30
0.0
 11
30.67110575811677
 21
3.574999759711502
 31
0.0
  0
LINE
  5
2A54
330
1A
100
AcDbEntity
  8
ZUWAKU
100
AcDbLine
 10
20.60860575811676
 20
3.574999759711502
 30
0.0
 11
21.48360575811676
 21
3.574999759711502
 31
0.0
  0
LINE
  5
2A55
330
1A
100
AcDbEntity
  8
ZUWAKU
100
AcDbLine
 10
17.8381732267747
 20
3.758452775628015
 30
0.0
 11
16.90403828945881
 21
6.716546743794985
 31
0.0
  0
ARC
  5
2A56
330
1A
100
AcDbEntity
  8
ZUWAKU
100
AcDbCircle
 10
16.65372283986113
 20
8.562499759711503
 30
0.0
 40
0.2625
100
AcDbArc
 50
270.0
 51
342.4744316262769
  0
LINE
  5
2A57
330
1A
100
AcDbEntity
  8
ZUWAKU
100
AcDbLine
 10
16.65372283986113
 20
8.2999997597115
 30
0.0
 11
16.58360575811679
 21
8.2999997597115
 31
0.0
  0
LINE
  5
2A58
330
1A
100
AcDbEntity
  8
ZUWAKU
100
AcDbLine
 10
16.58360575811679
 20
6.899999759711501
 30
0.0
 11
16.65372283986113
 21
6.899999759711501
 31
0.0
  0
ARC
  5
2A59
330
1A
100
AcDbEntity
  8
ZUWAKU
100
AcDbCircle
 10
16.58360575811679
 20
8.562499759711503
 30
0.0
 40
0.2625
100
AcDbArc
 50
180.0
 51
270.0
  0
LINE
  5
2A5A
330
1A
100
AcDbEntity
  8
ZUWAKU
100
AcDbLine
 10
15.18360575811675
 20
3.574999759711502
 30
0.0
 11
16.05860575811675
 21
3.574999759711502
 31
0.0
  0
ARC
  5
2A5B
330
1A
100
AcDbEntity
  8
ZUWAKU
100
AcDbCircle
 10
16.05860575811675
 20
3.837499759711501
 30
0.0
 40
0.2625
100
AcDbArc
 50
270.0
 51
0.0
  0
LINE
  5
2A5C
330
1A
100
AcDbEntity
  8
ZUWAKU
100
AcDbLine
 10
16.3211057581168
 20
3.837499759711501
 30
0.0
 11
16.3211057581168
 21
6.637499759711502
 31
0.0
  0
LINE
  5
2A5D
330
1A
100
AcDbEntity
  8
ZUWAKU
100
AcDbLine
 10
13.6961057581168
 20
4.712499759711501
 30
0.0
 11
13.6961057581168
 21
3.837499759711501
 31
0.0
  0
ARC
  5
2A5E
330
1A
100
AcDbEntity
  8
ZUWAKU
100
AcDbCircle
 10
13.43360575811675
 20
3.837499759711501
 30
0.0
 40
0.2625
100
AcDbArc
 50
270.0
 51
0.0
  0
ARC
  5
2A5F
330
1A
100
AcDbEntity
  8
ZUWAKU
100
AcDbCircle
 10
13.43360575811675
 20
4.712499759711501
 30
0.0
 40
0.2625
100
AcDbArc
 50
0.0
 51
90.0
  0
ARC
  5
2A60
330
1A
100
AcDbEntity
  8
ZUWAKU
100
AcDbCircle
 10
15.18360575811675
 20
3.837499759711501
 30
0.0
 40
0.2625
100
AcDbArc
 50
180.0
 51
270.0
  0
ARC
  5
2A61
330
1A
100
AcDbEntity
  8
ZUWAKU
100
AcDbCircle
 10
16.65372283986113
 20
6.637499759711502
 30
0.0
 40
0.2625
100
AcDbArc
 50
17.52556837372303
 51
90.0
  0
ARC
  5
2A62
330
1A
100
AcDbEntity
  8
ZUWAKU
100
AcDbCircle
 10
16.58360575811679
 20
6.637499759711502
 30
0.0
 40
0.2625
100
AcDbArc
 50
90.0
 51
180.0
  0
ARC
  5
2A63
330
1A
100
AcDbEntity
  8
ZUWAKU
100
AcDbCircle
 10
20.60860575811676
 20
3.837499759711501
 30
0.0
 40
0.2625
100
AcDbArc
 50
180.0
 51
270.0
  0
LINE
  5
2A64
330
1A
100
AcDbEntity
  8
ZUWAKU
100
AcDbLine
 10
18.08848867637243
 20
3.574999759711502
 30
0.0
 11
18.93793336617693
 21
3.574999759711502
 31
0.0
  0
ARC
  5
2A65
330
1A
100
AcDbEntity
  8
ZUWAKU
100
AcDbCircle
 10
18.93793336617693
 20
3.837499759711501
 30
0.0
 40
0.2625
100
AcDbArc
 50
270.0
 51
17.52556837372303
  0
LINE
  5
2A66
330
1A
100
AcDbEntity
  8
ZUWAKU
100
AcDbLine
 10
19.18824881577467
 20
3.916546743794988
 30
0.0
 11
18.02505312653784
 21
7.599999759711511
 31
0.0
  0
ARC
  5
2A67
330
1A
100
AcDbEntity
  8
ZUWAKU
100
AcDbCircle
 10
18.08848867637243
 20
3.837499759711501
 30
0.0
 40
0.2625
100
AcDbArc
 50
197.525568373723
 51
270.0
  0
ARC
  5
2A68
330
1A
100
AcDbEntity
  8
ZUWAKU
100
AcDbCircle
 10
28.92110575811676
 20
4.974999759711501
 30
0.0
 40
1.399999999999999
100
AcDbArc
 50
180.0
 51
270.0
  0
ARC
  5
2A69
330
1A
100
AcDbEntity
  8
ZUWAKU
100
AcDbCircle
 10
25.0711057581168
 20
4.974999759711501
 30
0.0
 40
1.399999999999999
100
AcDbArc
 50
270.0
 51
0.0
  0
LINE
  5
2A6A
330
1A
100
AcDbEntity
  8
ZUWAKU
100
AcDbLine
 10
25.85602999860856
 20
7.367525012880914
 30
0.0
 11
24.40113101128616
 21
8.822424000203252
 31
0.0
  0
LINE
  5
2A6B
330
1A
100
AcDbEntity
  8
ZUWAKU
100
AcDbLine
 10
25.0711057581168
 20
5.237499759711504
 30
0.0
 11
25.0711057581168
 21
5.882600772389174
 31
0.0
  0
ARC
  5
2A6C
330
1A
100
AcDbEntity
  8
ZUWAKU
100
AcDbCircle
 10
24.37110575811675
 20
5.882600772389174
 30
0.0
 40
0.7
100
AcDbArc
 50
0.0
 51
45.0
  0
ARC
  5
2A6D
330
1A
100
AcDbEntity
  8
ZUWAKU
100
AcDbCircle
 10
24.80860575811675
 20
5.237499759711504
 30
0.0
 40
0.2625
100
AcDbArc
 50
270.0
 51
0.0
  0
LINE
  5
2A6E
330
1A
100
AcDbEntity
  8
ZUWAKU
100
AcDbLine
 10
23.05860575811675
 20
3.837499759711501
 30
0.0
 11
23.05860575811675
 21
4.712499759711501
 31
0.0
  0
ARC
  5
2A6F
330
1A
100
AcDbEntity
  8
ZUWAKU
100
AcDbCircle
 10
23.3211057581168
 20
3.837499759711501
 30
0.0
 40
0.2625
100
AcDbArc
 50
180.0
 51
270.0
  0
ARC
  5
2A70
330
1A
100
AcDbEntity
  8
ZUWAKU
100
AcDbCircle
 10
21.48360575811676
 20
3.837499759711501
 30
0.0
 40
0.2625
100
AcDbArc
 50
270.0
 51
0.0
  0
ARC
  5
2A71
330
1A
100
AcDbEntity
  8
ZUWAKU
100
AcDbCircle
 10
23.3211057581168
 20
4.712499759711501
 30
0.0
 40
0.2625
100
AcDbArc
 50
90.0
 51
180.0
  0
LINE
  5
2A72
330
1A
100
AcDbEntity
  8
ZUWAKU
100
AcDbLine
 10
23.3211057581168
 20
4.974999759711501
 30
0.0
 11
24.80860575811675
 21
4.974999759711501
 31
0.0
  0
LINE
  5
2A73
330
1A
100
AcDbEntity
  8
ZUWAKU
100
AcDbLine
 10
23.3211057581168
 20
3.574999759711502
 30
0.0
 11
25.0711057581168
 21
3.574999759711502
 31
0.0
  0
LINE
  5
2A74
330
1A
100
AcDbEntity
  8
ZUWAKU
100
AcDbLine
 10
23.41118151762504
 20
7.832474506542091
 30
0.0
 11
24.86608050494737
 21
6.37757551921976
 31
0.0
  0
LINE
  5
2A75
330
1A
100
AcDbEntity
  8
ZUWAKU
100
AcDbLine
 10
26.47110575811677
 20
4.974999759711501
 30
0.0
 11
26.47110575811677
 21
5.882600772389174
 31
0.0
  0
ARC
  5
2A76
330
1A
100
AcDbEntity
  8
ZUWAKU
100
AcDbCircle
 10
24.37110575811675
 20
5.882600772389153
 30
0.0
 40
2.099999999999999
100
AcDbArc
 50
0.0
 51
45.0
  0
ARC
  5
2A77
330
1A
100
AcDbEntity
  8
ZUWAKU
100
AcDbCircle
 10
29.4461057581168
 20
5.499999759711499
 30
0.0
 40
0.525
100
AcDbArc
 50
180.0
 51
270.0
  0
ARC
  5
2A78
330
1A
100
AcDbEntity
  8
ZUWAKU
100
AcDbCircle
 10
30.67110575811677
 20
4.974999759711501
 30
0.0
 40
1.399999999999999
100
AcDbArc
 50
270.0
 51
0.0
  0
LINE
  5
2A79
330
1A
100
AcDbEntity
  8
ZUWAKU
100
AcDbLine
 10
33.3836057581168
 20
3.574999759711502
 30
0.0
 11
34.2586057581168
 21
3.574999759711502
 31
0.0
  0
ARC
  5
2A7A
330
1A
100
AcDbEntity
  8
ZUWAKU
100
AcDbCircle
 10
33.3836057581168
 20
3.837499759711501
 30
0.0
 40
0.2625
100
AcDbArc
 50
180.0
 51
270.0
  0
ARC
  5
2A7B
330
1A
100
AcDbEntity
  8
ZUWAKU
100
AcDbCircle
 10
30.14610575811679
 20
5.499999759711499
 30
0.0
 40
0.525
100
AcDbArc
 50
270.0
 51
0.0
  0
ARC
  5
2A7C
330
1A
100
AcDbEntity
  8
ZUWAKU
100
AcDbCircle
 10
34.2586057581168
 20
3.837499759711501
 30
0.0
 40
0.2625
100
AcDbArc
 50
270.0
 51
0.0
  0
LINE
  5
2A7D
330
1A
100
AcDbEntity
  8
ZUWAKU
100
AcDbLine
 10
21.48360575811676
 20
11.6249997597115
 30
0.0
 11
20.60860575811676
 21
11.6249997597115
 31
0.0
  0
ARC
  5
2A7E
330
1A
100
AcDbEntity
  8
ZUWAKU
100
AcDbCircle
 10
16.05860575811675
 20
11.3624997597115
 30
0.0
 40
0.2625
100
AcDbArc
 50
0.0
 51
90.0
  0
LINE
  5
2A7F
330
1A
100
AcDbEntity
  8
ZUWAKU
100
AcDbLine
 10
16.05860575811675
 20
11.6249997597115
 30
0.0
 11
15.18360575811675
 21
11.6249997597115
 31
0.0
  0
ARC
  5
2A80
330
1A
100
AcDbEntity
  8
ZUWAKU
100
AcDbCircle
 10
13.43360575811675
 20
11.3624997597115
 30
0.0
 40
0.2625
100
AcDbArc
 50
0.0
 51
90.0
  0
ARC
  5
2A81
330
1A
100
AcDbEntity
  8
ZUWAKU
100
AcDbCircle
 10
15.18360575811675
 20
11.3624997597115
 30
0.0
 40
0.2625
100
AcDbArc
 50
90.0
 51
180.0
  0
ARC
  5
2A82
330
1A
100
AcDbEntity
  8
ZUWAKU
100
AcDbCircle
 10
13.43360575811675
 20
10.4874997597115
 30
0.0
 40
0.2625
100
AcDbArc
 50
270.0
 51
0.0
  0
LINE
  5
2A83
330
1A
100
AcDbEntity
  8
ZUWAKU
100
AcDbLine
 10
13.6961057581168
 20
11.3624997597115
 30
0.0
 11
13.6961057581168
 21
10.4874997597115
 31
0.0
  0
ARC
  5
2A84
330
1A
100
AcDbEntity
  8
ZUWAKU
100
AcDbCircle
 10
20.60860575811676
 20
11.3624997597115
 30
0.0
 40
0.2625
100
AcDbArc
 50
90.0
 51
180.0
  0
LINE
  5
2A85
330
1A
100
AcDbEntity
  8
ZUWAKU
100
AcDbLine
 10
18.08848867637243
 20
11.6249997597115
 30
0.0
 11
18.93793336617693
 21
11.6249997597115
 31
0.0
  0
ARC
  5
2A86
330
1A
100
AcDbEntity
  8
ZUWAKU
100
AcDbCircle
 10
18.93793336617693
 20
11.3624997597115
 30
0.0
 40
0.2625
100
AcDbArc
 50
342.4744316262769
 51
90.0
  0
LINE
  5
2A87
330
1A
100
AcDbEntity
  8
ZUWAKU
100
AcDbLine
 10
19.18824881577467
 20
11.28345277562801
 30
0.0
 11
18.65742899920576
 21
9.602523356493215
 31
0.0
  0
ARC
  5
2A88
330
1A
100
AcDbEntity
  8
ZUWAKU
100
AcDbCircle
 10
18.08848867637243
 20
11.3624997597115
 30
0.0
 40
0.2625
100
AcDbArc
 50
90.0
 51
162.4744316262769
  0
LINE
  5
2A89
330
1A
100
AcDbEntity
  8
ZUWAKU
100
AcDbLine
 10
24.1961057581168
 20
11.6249997597115
 30
0.0
 11
25.9461057581168
 21
11.6249997597115
 31
0.0
  0
LINE
  5
2A8A
330
1A
100
AcDbEntity
  8
ZUWAKU
100
AcDbLine
 10
25.9461057581168
 20
10.2249997597115
 30
0.0
 11
24.45860575811678
 21
10.2249997597115
 31
0.0
  0
ARC
  5
2A8B
330
1A
100
AcDbEntity
  8
ZUWAKU
100
AcDbCircle
 10
24.45860575811678
 20
9.962499759711501
 30
0.0
 40
0.2625
100
AcDbArc
 50
90.0
 51
180.0
  0
LINE
  5
2A8C
330
1A
100
AcDbEntity
  8
ZUWAKU
100
AcDbLine
 10
24.1961057581168
 20
9.962499759711501
 30
0.0
 11
24.1961057581168
 21
9.317398747033831
 31
0.0
  0
ARC
  5
2A8D
330
1A
100
AcDbEntity
  8
ZUWAKU
100
AcDbCircle
 10
21.48360575811676
 20
11.3624997597115
 30
0.0
 40
0.2625
100
AcDbArc
 50
0.0
 51
90.0
  0
LINE
  5
2A8E
330
1A
100
AcDbEntity
  8
ZUWAKU
100
AcDbLine
 10
22.79610575811676
 20
10.2249997597115
 30
0.0
 11
22.79610575811676
 21
9.317398747033831
 31
0.0
  0
ARC
  5
2A8F
330
1A
100
AcDbEntity
  8
ZUWAKU
100
AcDbCircle
 10
24.1961057581168
 20
10.2249997597115
 30
0.0
 40
1.399999999999999
100
AcDbArc
 50
90.0
 51
180.0
  0
ARC
  5
2A90
330
1A
100
AcDbEntity
  8
ZUWAKU
100
AcDbCircle
 10
28.65860575811677
 20
11.3624997597115
 30
0.0
 40
0.2625
100
AcDbArc
 50
0.0
 51
90.0
  0
ARC
  5
2A91
330
1A
100
AcDbEntity
  8
ZUWAKU
100
AcDbCircle
 10
27.78360575811678
 20
11.3624997597115
 30
0.0
 40
0.2625
100
AcDbArc
 50
90.0
 51
180.0
  0
LINE
  5
2A92
330
1A
100
AcDbEntity
  8
ZUWAKU
100
AcDbLine
 10
28.65860575811677
 20
11.6249997597115
 30
0.0
 11
27.78360575811678
 21
11.6249997597115
 31
0.0
  0
ARC
  5
2A93
330
1A
100
AcDbEntity
  8
ZUWAKU
100
AcDbCircle
 10
25.9461057581168
 20
11.3624997597115
 30
0.0
 40
0.2625
100
AcDbArc
 50
0.0
 51
90.0
  0
ARC
  5
2A94
330
1A
100
AcDbEntity
  8
ZUWAKU
100
AcDbCircle
 10
25.9461057581168
 20
10.4874997597115
 30
0.0
 40
0.2625
100
AcDbArc
 50
270.0
 51
0.0
  0
LINE
  5
2A95
330
1A
100
AcDbEntity
  8
ZUWAKU
100
AcDbLine
 10
26.20860575811679
 20
11.3624997597115
 30
0.0
 11
26.20860575811679
 21
10.4874997597115
 31
0.0
  0
LINE
  5
2A96
330
1A
100
AcDbEntity
  8
ZUWAKU
100
AcDbLine
 10
34.2586057581168
 20
11.6249997597115
 30
0.0
 11
33.3836057581168
 21
11.6249997597115
 31
0.0
  0
ARC
  5
2A97
330
1A
100
AcDbEntity
  8
ZUWAKU
100
AcDbCircle
 10
33.3836057581168
 20
11.3624997597115
 30
0.0
 40
0.2625
100
AcDbArc
 50
90.0
 51
180.0
  0
ARC
  5
2A98
330
1A
100
AcDbEntity
  8
ZUWAKU
100
AcDbCircle
 10
31.80860575811675
 20
11.3624997597115
 30
0.0
 40
0.2625
100
AcDbArc
 50
0.0
 51
90.0
  0
LINE
  5
2A99
330
1A
100
AcDbEntity
  8
ZUWAKU
100
AcDbLine
 10
31.80860575811675
 20
11.6249997597115
 30
0.0
 11
30.93360575811675
 21
11.6249997597115
 31
0.0
  0
ARC
  5
2A9A
330
1A
100
AcDbEntity
  8
ZUWAKU
100
AcDbCircle
 10
30.93360575811675
 20
11.3624997597115
 30
0.0
 40
0.2625
100
AcDbArc
 50
90.0
 51
180.0
  0
ARC
  5
2A9B
330
1A
100
AcDbEntity
  8
ZUWAKU
100
AcDbCircle
 10
34.2586057581168
 20
11.3624997597115
 30
0.0
 40
0.2625
100
AcDbArc
 50
0.0
 51
90.0
  0
TEXT
  5
2A9C
330
1A
100
AcDbEntity
  8
MOJI
100
AcDbText
 10
119.9136010211517
 20
1.60246028841521
 30
0.0
 40
2.799999999999999
  1
ＲＶ１０５－０－６０
 41
0.9
  7
ｽﾀｲﾙ1
100
AcDbText
  0
LINE
  5
2A9D
330
1A
100
AcDbEntity
  8
ZUWAKU
100
AcDbLine
 10
104.1233003257601
 20
14.99999975971149
 30
0.0
 11
104.1233003257601
 21
0.3999997597115339
 31
0.0
  0
LINE
  5
2A9E
330
1A
100
AcDbEntity
  8
ZUWAKU
100
AcDbLine
 10
104.32330032576
 20
14.99999975971149
 30
0.0
 11
104.3233003257602
 21
0.3999997597115339
 31
0.0
  0
LINE
  5
2A9F
330
1A
100
AcDbEntity
  8
ZUWAKU
100
AcDbLine
 10
104.22330032576
 20
14.99999975971149
 30
0.0
 11
104.2233003257601
 21
0.3999997597115339
 31
0.0
  0
TEXT
  5
2AA0
330
1A
100
AcDbEntity
  8
ZUWAKU
100
AcDbText
 10
104.8620228368649
 20
4.827678028904308
 30
0.0
 40
2.0
  1
サイズ
 41
0.9
  7
ｽﾀｲﾙ1
100
AcDbText
  0
TEXT
  5
2AA1
330
1A
100
AcDbEntity
  8
ZUWAKU
100
AcDbText
 10
104.8620228368648
 20
12.02767802890429
 30
0.0
 40
2.0
  1
品名
 41
0.9
  7
ｽﾀｲﾙ1
100
AcDbText
  0
LINE
  5
2AA2
330
1A
100
AcDbEntity
  8
ZUWAKU
100
AcDbLine
 10
324.4086009358283
 20
7.599999759711515
 30
0.0
 11
348.6245049549968
 21
7.599999759711517
 31
0.0
  0
LINE
  5
2AA3
330
1A
100
AcDbEntity
  8
ZUWAKU
100
AcDbLine
 10
324.4086009358284
 20
7.699999759711518
 30
0.0
 11
348.6245049549968
 21
7.699999759711516
 31
0.0
  0
LINE
  5
2AA4
330
1A
100
AcDbEntity
  8
ZUWAKU
100
AcDbLine
 10
324.4086009358283
 20
7.799999759711516
 30
0.0
 11
348.6245049549968
 21
7.799999759711516
 31
0.0
  0
TEXT
  5
2AA5
330
1A
100
AcDbEntity
  8
ZUWAKU
100
AcDbText
 10
329.1019685243774
 20
9.002460288415193
 30
0.0
 40
2.799999999999999
  1
　　．　　．　　
 41
0.9
  7
ｽﾀｲﾙ1
100
AcDbText
  0
LINE
  5
2AA6
330
1A
100
AcDbEntity
  8
ZUWAKU
100
AcDbLine
 10
252.5995894297966
 20
7.599999759711518
 30
0.0
 11
276.2634775637824
 21
7.599999759711518
 31
0.0
  0
LINE
  5
2AA7
330
1A
100
AcDbEntity
  8
ZUWAKU
100
AcDbLine
 10
252.5995894297966
 20
7.699999759711516
 30
0.0
 11
276.2634775637824
 21
7.699999759711516
 31
0.0
  0
LINE
  5
2AA8
330
1A
100
AcDbEntity
  8
ZUWAKU
100
AcDbLine
 10
252.5995894297966
 20
7.799999759711516
 30
0.0
 11
276.2634775637824
 21
7.799999759711516
 31
0.0
  0
TEXT
  5
2AA9
330
1A
100
AcDbEntity
  8
MOJI
100
AcDbText
 10
231.2836388417205
 20
5.971308620541492
 30
0.0
 40
2.799999999999999
  1
ＬＪ７４□
 41
0.9
  7
ｽﾀｲﾙ1
100
AcDbText
  0
LINE
  5
2AAA
330
1A
100
AcDbEntity
  8
ZUWAKU
100
AcDbLine
 10
223.8121816662218
 20
14.99999975971149
 30
0.0
 11
223.8121816662219
 21
0.3999997597115339
 31
0.0
  0
LINE
  5
2AAB
330
1A
100
AcDbEntity
  8
ZUWAKU
100
AcDbLine
 10
223.9121816662218
 20
14.99999975971149
 30
0.0
 11
223.9121816662219
 21
0.3999997597115339
 31
0.0
  0
LINE
  5
2AAC
330
1A
100
AcDbEntity
  8
ZUWAKU
100
AcDbLine
 10
223.7121816662219
 20
14.99999975971149
 30
0.0
 11
223.7121816662219
 21
0.3999997597115339
 31
0.0
  0
TEXT
  5
2AAD
330
1A
100
AcDbEntity
  8
MOJI
100
AcDbText
 10
264.0204536668826
 20
9.002460288415193
 30
0.0
 40
2.799999999999999
  1
Ａ３
 41
0.9
  7
ｽﾀｲﾙ1
100
AcDbText
  0
LINE
  5
2AAE
330
1A
100
AcDbEntity
  8
ZUWAKU
100
AcDbLine
 10
252.4995894297966
 20
14.99999975971149
 30
0.0
 11
252.4995894297967
 21
0.3999997597115339
 31
0.0
  0
LINE
  5
2AAF
330
1A
100
AcDbEntity
  8
ZUWAKU
100
AcDbLine
 10
252.5995894297966
 20
14.99999975971149
 30
0.0
 11
252.5995894297967
 21
0.3999997597115339
 31
0.0
  0
LINE
  5
2AB0
330
1A
100
AcDbEntity
  8
ZUWAKU
100
AcDbLine
 10
252.3995894297967
 20
14.99999975971149
 30
0.0
 11
252.3995894297967
 21
0.3999997597115339
 31
0.0
  0
TEXT
  5
2AB1
330
1A
100
AcDbEntity
  8
ZUWAKU
100
AcDbText
 10
231.3468805084797
 20
1.307035215281246
 30
0.0
 40
1.5
  1
□には色品番が入ります
 41
0.9
  7
ｽﾀｲﾙ1
100
AcDbText
  0
TEXT
  5
2AB2
330
1A
100
AcDbEntity
  8
ZUWAKU
100
AcDbText
 10
253.3383119409015
 20
4.827678028904308
 30
0.0
 40
2.0
  1
縮尺
 41
0.9
  7
ｽﾀｲﾙ1
100
AcDbText
  0
TEXT
  5
2AB3
330
1A
100
AcDbEntity
  8
MOJI
100
AcDbText
 10
264.0204536668826
 20
1.60246028841521
 30
0.0
 40
2.799999999999999
  1
１/１
 41
0.9
  7
ｽﾀｲﾙ1
100
AcDbText
  0
TEXT
  5
2AB4
330
1A
100
AcDbEntity
  8
ZUWAKU
100
AcDbText
 10
224.6509041773266
 20
12.02767802890429
 30
0.0
 40
2.0
  1
品番
 41
0.9
  7
ｽﾀｲﾙ1
100
AcDbText
  0
TEXT
  5
2AB5
330
1A
100
AcDbEntity
  8
ZUWAKU
100
AcDbText
 10
253.3383119409014
 20
12.02767802890429
 30
0.0
 40
2.0
  1
用紙
 41
0.9
  7
ｽﾀｲﾙ1
100
AcDbText
  0
LINE
  5
2AB6
330
1A
100
AcDbEntity
  8
ZUWAKU
100
AcDbLine
 10
324.3086009358283
 20
14.99999975971149
 30
0.0
 11
324.3086009358285
 21
0.3999997597115339
 31
0.0
  0
LINE
  5
2AB7
330
1A
100
AcDbEntity
  8
ZUWAKU
100
AcDbLine
 10
324.4086009358284
 20
14.99999975971149
 30
0.0
 11
324.4086009358285
 21
0.3999997597115339
 31
0.0
  0
LINE
  5
2AB8
330
1A
100
AcDbEntity
  8
ZUWAKU
100
AcDbLine
 10
324.2086009358284
 20
14.99999975971149
 30
0.0
 11
324.2086009358284
 21
0.3999997597115339
 31
0.0
  0
LINE
  5
2AB9
330
1A
100
AcDbEntity
  8
ZUWAKU
100
AcDbLine
 10
276.3634775637823
 20
14.99999975971149
 30
0.0
 11
276.3634775637824
 21
0.3999997597115339
 31
0.0
  0
LINE
  5
2ABA
330
1A
100
AcDbEntity
  8
ZUWAKU
100
AcDbLine
 10
276.4634775637823
 20
14.99999975971149
 30
0.0
 11
276.4634775637824
 21
0.3999997597115339
 31
0.0
  0
LINE
  5
2ABB
330
1A
100
AcDbEntity
  8
ZUWAKU
100
AcDbLine
 10
276.2634775637824
 20
14.99999975971149
 30
0.0
 11
276.2634775637824
 21
0.3999997597115339
 31
0.0
  0
TEXT
  5
2ABC
330
1A
100
AcDbEntity
  8
ZUWAKU
100
AcDbText
 10
325.1473234469332
 20
12.02767802890429
 30
0.0
 40
2.0
  1
DATE
 41
0.9
  7
ｽﾀｲﾙ1
100
AcDbText
  0
LINE
  5
2ABD
330
1A
100
AcDbEntity
  8
ZUWAKU
100
AcDbLine
 10
348.6245049549968
 20
14.99999975971149
 30
0.0
 11
348.6245049549968
 21
0.3999997597115339
 31
0.0
  0
LINE
  5
2ABE
330
1A
100
AcDbEntity
  8
ZUWAKU
100
AcDbLine
 10
348.7245049549968
 20
14.99999975971149
 30
0.0
 11
348.7245049549968
 21
0.3999997597115339
 31
0.0
  0
LINE
  5
2ABF
330
1A
100
AcDbEntity
  8
ZUWAKU
100
AcDbLine
 10
348.8245049549967
 20
14.99999975971149
 30
0.0
 11
348.8245049549969
 21
0.3999997597115339
 31
0.0
  0
LINE
  5
2AC0
330
1A
100
AcDbEntity
  8
ZUWAKU
100
AcDbLine
 10
348.9245049549968
 20
14.99999975971149
 30
0.0
 11
348.9245049549968
 21
0.3999997597115339
 31
0.0
  0
TEXT
  5
2AC1
330
1A
100
AcDbEntity
  8
ZUWAKU
100
AcDbText
 10
354.2640417768481
 20
8.776919427554901
 30
0.0
 40
3.0
  1
積水化学工業株式会社
 41
0.9
  7
ｽﾀｲﾙ1
100
AcDbText
  0
TEXT
  5
2AC2
330
1A
100
AcDbEntity
  8
ZUWAKU
100
AcDbText
 10
354.2640417768481
 20
3.324419916638532
 30
0.0
 40
3.0
  1
建材事業部
 41
0.9
  7
ｽﾀｲﾙ1
100
AcDbText
  0
VIEWPORT
  5
22
330
17
100
AcDbEntity
 67
     1
  8
0
100
AcDbViewport
 10
313.6808219178082
 20
148.5
 30
0.0
 40
627.3616438356165
 41
297.0
 68
     2
 69
     1
1001
ACAD
1000
MVIEW
1002
{
1070
    16
1010
0.0
1020
0.0
1030
0.0
1010
0.0
1020
0.0
1030
1.0
1040
0.0
1040
297.0
1040
313.6808219178082
1040
148.5
1040
50.0
1040
0.0
1040
0.0
1070
     0
1070
   100
1070
     1
1070
     0
1070
     0
1070
     0
1070
     0
1070
     0
1040
0.0
1040
0.0
1040
0.0
1040
1.0
1040
1.0
1040
10.0
1040
10.0
1070
     0
1002
{
1002
}
1002
}
  0
VIEWPORT
  5
64
330
17
100
AcDbEntity
 67
     1
  8
VIEWPORT
100
AcDbViewport
 10
210.0
 20
148.5
 30
0.0
 40
420.0
 41
297.0
 68
     1
 69
     2
1001
ACAD
1000
MVIEW
1002
{
1070
    16
1010
0.0
1020
0.0
1030
0.0
1010
0.0
1020
0.0
1030
1.0
1040
0.0
1040
302.9399999999998
1040
210.0
1040
148.5
1040
50.0
1040
0.0
1040
0.0
1070
     0
1070
   100
1070
     1
1070
     0
1070
     0
1070
     0
1070
     0
1070
     0
1040
0.0
1040
0.0
1040
0.0
1040
5.0
1040
5.0
1040
0.0
1040
0.0
1070
     0
1002
{
1002
}
1002
}
  0
ENDSEC
  0
SECTION
  2
OBJECTS
  0
DICTIONARY
  5
C
330
0
100
AcDbDictionary
  3
ACAD_GROUP
350
D
  3
ACAD_LAYOUT
350
141
  3
ACAD_MLINESTYLE
350
E
  3
ACAD_PLOTSETTINGS
350
142
  3
ACAD_PLOTSTYLENAME
350
13F
  3
ACADDIM
350
1A14
  3
ACDBVARIABLEDICTIONARY
350
120D
  3
ACDBHEADERROUNDTRIPXREC
350
2B38
  0
DICTIONARY
  5
7A2
330
1A
100
AcDbDictionary
280
     1
  3
ACAD_LAYOUTSELFREF
360
2B5A
  0
DICTIONARY
  5
7A0
330
17
100
AcDbDictionary
280
     1
  3
ACAD_LAYOUTSELFREF
360
2B59
  0
DICTIONARY
  5
D
102
{ACAD_REACTORS
330
C
102
}
330
C
100
AcDbDictionary
  0
DICTIONARY
  5
141
102
{ACAD_REACTORS
330
C
102
}
330
C
100
AcDbDictionary
  0
DICTIONARY
  5
E
102
{ACAD_REACTORS
330
C
102
}
330
C
100
AcDbDictionary
  3
STANDARD
350
13
  0
DICTIONARY
  5
142
102
{ACAD_REACTORS
330
C
102
}
330
C
100
AcDbDictionary
  0
ACDBDICTIONARYWDFLT
  5
13F
102
{ACAD_REACTORS
330
C
102
}
330
C
100
AcDbDictionary
281
     1
  3
Normal
350
140
100
AcDbDictionaryWithDefault
340
140
1001
ACAD
1000
TREAT_AS_HARD
1070
     0
1000
TREAT_AS_HARD
1070
     0
1000
TREAT_AS_HARD
1070
     0
1000
TREAT_AS_HARD
1070
     0
1000
TREAT_AS_HARD
1070
     0
1000
TREAT_AS_HARD
1070
     0
1000
TREAT_AS_HARD
1070
     0
1000
TREAT_AS_HARD
1070
     0
1000
TREAT_AS_HARD
1070
     0
1000
TREAT_AS_HARD
1070
     0
1000
TREAT_AS_HARD
1070
     0
1000
TREAT_AS_HARD
1070
     0
1000
TREAT_AS_HARD
1070
     0
1000
TREAT_AS_HARD
1070
     0
1000
TREAT_AS_HARD
1070
     0
  0
XRECORD
  5
1A14
102
{ACAD_REACTORS
330
C
102
}
330
C
100
AcDbXrecord
 90
   990106
  3

 60
     0
 61
     0
 62
     1
 63
     3
 64
     0
 65
     0
 66
     0
 67
     3
 68
     1
 69
     0
 70
     0
 71
     0
 72
     0
 40
0.0
170
     0
340
2082
  0
DICTIONARY
  5
120D
102
{ACAD_REACTORS
330
C
102
}
330
C
100
AcDbDictionary
  3
SORTENTS
350
120E
  0
DICTIONARY
  5
2B38
102
{ACAD_REACTORS
330
C
102
}
330
C
100
AcDbDictionary
  3
TSTACKALIGN
350
2B39
  3
TSTACKSIZE
350
2B3A
  3
HYPERLINKBASE
350
2B3B
  3
STYLESHEET
350
2B3C
  3
LAYOUTDICT
350
2B3D
  3
PLOTSETDICT
350
2B3E
  3
PLOTSTYLNAMDICT
350
2B3F
  3
LWETCUNION
350
2B40
  3
INSUNITS
350
2B41
  3
CEPSNTYPE
350
2B42
  3
FINGERPRINTGUID
350
2B43
  3
VERSIONGUID
350
2B44
  3
PSVPSCALE
350
2B45
  3
DIMSTYLEDATA
350
2B46
  3
PUCSORTHOREF
350
2B47
  3
PUCSORTHOVIEW
350
2B48
  3
PUCSBASE
350
2B49
  3
PUCSORGTOP
350
2B4A
  3
PUCSORGBOTTOM
350
2B4B
  3
PUCSORGLEFT
350
2B4C
  3
PUCSORGRIGHT
350
2B4D
  3
PUCSORGFRONT
350
2B4E
  3
PUCSORGBACK
350
2B4F
  3
UCSORTHOREF
350
2B50
  3
UCSORTHOVIEW
350
2B51
  3
UCSBASE
350
2B52
  3
UCSORGTOP
350
2B53
  3
UCSORGBOTTOM
350
2B54
  3
UCSORGLEFT
350
2B55
  3
UCSORGRIGHT
350
2B56
  3
UCSORGFRONT
350
2B57
  3
UCSORGBACK
350
2B58
  0
XRECORD
  5
2B5A
102
{ACAD_REACTORS
330
7A2
102
}
330
7A2
100
AcDbXrecord
340
1A
  0
XRECORD
  5
2B59
102
{ACAD_REACTORS
330
7A0
102
}
330
7A0
100
AcDbXrecord
340
17
  0
MLINESTYLE
  5
13
102
{ACAD_REACTORS
330
E
102
}
330
E
100
AcDbMlineStyle
  2
STANDARD
 70
     0
  3

 62
     0
 51
90.0
 52
90.0
 71
     2
 49
0.5
 62
   256
  6
BYLAYER
 49
-0.5
 62
   256
  6
BYLAYER
  0
ACDBPLACEHOLDER
  5
140
102
{ACAD_REACTORS
330
13F
102
}
330
13F
100
AcDbPlaceHolder
280
     0
  0
DICTIONARYVAR
  5
120E
102
{ACAD_REACTORS
330
120D
102
}
330
120D
100
DictionaryVariables
280
     0
  1
96
  0
XRECORD
  5
2B39
102
{ACAD_REACTORS
330
2B38
102
}
330
2B38
100
AcDbXrecord
 90
        1
  0
XRECORD
  5
2B3A
102
{ACAD_REACTORS
330
2B38
102
}
330
2B38
100
AcDbXrecord
 90
       70
  0
XRECORD
  5
2B3B
102
{ACAD_REACTORS
330
2B38
102
}
330
2B38
100
AcDbXrecord
  1

  0
XRECORD
  5
2B3C
102
{ACAD_REACTORS
330
2B38
102
}
330
2B38
100
AcDbXrecord
  1
systemprinter.ctb
  0
XRECORD
  5
2B3D
102
{ACAD_REACTORS
330
2B38
102
}
330
2B38
100
AcDbXrecord
340
141
  0
XRECORD
  5
2B3E
102
{ACAD_REACTORS
330
2B38
102
}
330
2B38
100
AcDbXrecord
340
142
  0
XRECORD
  5
2B3F
102
{ACAD_REACTORS
330
2B38
102
}
330
2B38
100
AcDbXrecord
340
13F
  0
XRECORD
  5
2B40
102
{ACAD_REACTORS
330
2B38
102
}
330
2B38
100
AcDbXrecord
 90
    10781
  0
XRECORD
  5
2B41
102
{ACAD_REACTORS
330
2B38
102
}
330
2B38
100
AcDbXrecord
 90
        0
  0
XRECORD
  5
2B42
102
{ACAD_REACTORS
330
2B38
102
}
330
2B38
100
AcDbXrecord
 90
        0
  0
XRECORD
  5
2B43
102
{ACAD_REACTORS
330
2B38
102
}
330
2B38
100
AcDbXrecord
  1
{4E8D0500-CDD1-11D3-932C-444553540000}
  0
XRECORD
  5
2B44
102
{ACAD_REACTORS
330
2B38
102
}
330
2B38
100
AcDbXrecord
  1
{AC53A829-DA56-4C62-8A66-ED50BD08CBE2}
  0
XRECORD
  5
2B45
102
{ACAD_REACTORS
330
2B38
102
}
330
2B38
100
AcDbXrecord
 40
0.0
  0
XRECORD
  5
2B46
102
{ACAD_REACTORS
330
2B38
102
}
330
2B38
100
AcDbXrecord
1000
DSTYLE
1002
{
1070
   341
340
B2
1070
   343
340
B2
1070
   344
340
B2
1070
   371
 70
    -1
1070
   372
 70
    -1
1002
}
  0
XRECORD
  5
2B47
102
{ACAD_REACTORS
330
2B38
102
}
330
2B38
100
AcDbXrecord
340
0
  0
XRECORD
  5
2B48
102
{ACAD_REACTORS
330
2B38
102
}
330
2B38
100
AcDbXrecord
 70
     0
  0
XRECORD
  5
2B49
102
{ACAD_REACTORS
330
2B38
102
}
330
2B38
100
AcDbXrecord
340
0
  0
XRECORD
  5
2B4A
102
{ACAD_REACTORS
330
2B38
102
}
330
2B38
100
AcDbXrecord
 10
0.0
 20
0.0
 30
0.0
  0
XRECORD
  5
2B4B
102
{ACAD_REACTORS
330
2B38
102
}
330
2B38
100
AcDbXrecord
 10
0.0
 20
0.0
 30
0.0
  0
XRECORD
  5
2B4C
102
{ACAD_REACTORS
330
2B38
102
}
330
2B38
100
AcDbXrecord
 10
0.0
 20
0.0
 30
0.0
  0
XRECORD
  5
2B4D
102
{ACAD_REACTORS
330
2B38
102
}
330
2B38
100
AcDbXrecord
 10
0.0
 20
0.0
 30
0.0
  0
XRECORD
  5
2B4E
102
{ACAD_REACTORS
330
2B38
102
}
330
2B38
100
AcDbXrecord
 10
0.0
 20
0.0
 30
0.0
  0
XRECORD
  5
2B4F
102
{ACAD_REACTORS
330
2B38
102
}
330
2B38
100
AcDbXrecord
 10
0.0
 20
0.0
 30
0.0
  0
XRECORD
  5
2B50
102
{ACAD_REACTORS
330
2B38
102
}
330
2B38
100
AcDbXrecord
340
0
  0
XRECORD
  5
2B51
102
{ACAD_REACTORS
330
2B38
102
}
330
2B38
100
AcDbXrecord
 70
     0
  0
XRECORD
  5
2B52
102
{ACAD_REACTORS
330
2B38
102
}
330
2B38
100
AcDbXrecord
340
0
  0
XRECORD
  5
2B53
102
{ACAD_REACTORS
330
2B38
102
}
330
2B38
100
AcDbXrecord
 10
0.0
 20
0.0
 30
0.0
  0
XRECORD
  5
2B54
102
{ACAD_REACTORS
330
2B38
102
}
330
2B38
100
AcDbXrecord
 10
0.0
 20
0.0
 30
0.0
  0
XRECORD
  5
2B55
102
{ACAD_REACTORS
330
2B38
102
}
330
2B38
100
AcDbXrecord
 10
0.0
 20
0.0
 30
0.0
  0
XRECORD
  5
2B56
102
{ACAD_REACTORS
330
2B38
102
}
330
2B38
100
AcDbXrecord
 10
0.0
 20
0.0
 30
0.0
  0
XRECORD
  5
2B57
102
{ACAD_REACTORS
330
2B38
102
}
330
2B38
100
AcDbXrecord
 10
0.0
 20
0.0
 30
0.0
  0
XRECORD
  5
2B58
102
{ACAD_REACTORS
330
2B38
102
}
330
2B38
100
AcDbXrecord
 10
0.0
 20
0.0
 30
0.0
  0
ENDSEC
  0
EOF
