  0
SECTION
  2
HEADER
  9
$ACADVER
  1
AC1014
  9
$ACADMAINTVER
 70
     9
  9
$DWGCODEPAGE
  3
ANSI_932
  9
$INSBASE
 10
0.0
 20
0.0
 30
0.0
  9
$EXTMIN
 10
-0.0128167242222617
 20
-0.0090632695025761
 30
-0.0015258207003583
  9
$EXTMAX
 10
398.8000497652178
 20
275.822617226868
 30
0.0000000349246037
  9
$LIMMIN
 10
0.0
 20
0.0
  9
$LIMMAX
 10
420.0
 20
297.0
  9
$ORTHOMODE
 70
     0
  9
$REGENMODE
 70
     1
  9
$FILLMODE
 70
     1
  9
$QTEXTMODE
 70
     0
  9
$MIRRTEXT
 70
     1
  9
$DRAGMODE
 70
     2
  9
$LTSCALE
 40
5.0
  9
$OSMODE
 70
    35
  9
$ATTMODE
 70
     1
  9
$TEXTSIZE
 40
3.0
  9
$TRACEWID
 40
1.0
  9
$TEXTSTYLE
  7
STANDARD
  9
$CLAYER
  8
SEIHIN
  9
$CELTYPE
  6
BYLAYER
  9
$CECOLOR
 62
   256
  9
$CELTSCALE
 40
1.0
  9
$DELOBJ
 70
     1
  9
$DISPSILH
 70
     0
  9
$DIMSCALE
 40
1.0
  9
$DIMASZ
 40
3.0
  9
$DIMEXO
 40
3.0
  9
$DIMDLI
 40
7.0
  9
$DIMRND
 40
0.0
  9
$DIMDLE
 40
0.0
  9
$DIMEXE
 40
1.5
  9
$DIMTP
 40
0.0
  9
$DIMTM
 40
0.0
  9
$DIMTXT
 40
3.0
  9
$DIMCEN
 40
3.0
  9
$DIMTSZ
 40
0.0
  9
$DIMTOL
 70
     0
  9
$DIMLIM
 70
     0
  9
$DIMTIH
 70
     0
  9
$DIMTOH
 70
     0
  9
$DIMSE1
 70
     0
  9
$DIMSE2
 70
     0
  9
$DIMTAD
 70
     3
  9
$DIMZIN
 70
     0
  9
$DIMBLK
  1

  9
$DIMASO
 70
     1
  9
$DIMSHO
 70
     1
  9
$DIMPOST
  1

  9
$DIMAPOST
  1

  9
$DIMALT
 70
     0
  9
$DIMALTD
 70
     2
  9
$DIMALTF
 40
25.4
  9
$DIMLFAC
 40
1.0
  9
$DIMTOFL
 70
     1
  9
$DIMTVP
 40
0.0
  9
$DIMTIX
 70
     0
  9
$DIMSOXD
 70
     0
  9
$DIMSAH
 70
     1
  9
$DIMBLK1
  1
OPEN
  9
$DIMBLK2
  1
OPEN
  9
$DIMSTYLE
  2
STANDARD
  9
$DIMCLRD
 70
   256
  9
$DIMCLRE
 70
   256
  9
$DIMCLRT
 70
   256
  9
$DIMTFAC
 40
1.0
  9
$DIMGAP
 40
1.0
  9
$DIMJUST
 70
     0
  9
$DIMSD1
 70
     0
  9
$DIMSD2
 70
     0
  9
$DIMTOLJ
 70
     1
  9
$DIMTZIN
 70
     0
  9
$DIMALTZ
 70
     0
  9
$DIMALTTZ
 70
     0
  9
$DIMFIT
 70
     3
  9
$DIMUPT
 70
     0
  9
$DIMUNIT
 70
     2
  9
$DIMDEC
 70
     0
  9
$DIMTDEC
 70
     0
  9
$DIMALTU
 70
     2
  9
$DIMALTTD
 70
     2
  9
$DIMTXSTY
  7
STANDARD
  9
$DIMAUNIT
 70
     0
  9
$LUNITS
 70
     2
  9
$LUPREC
 70
     4
  9
$SKETCHINC
 40
1.0
  9
$FILLETRAD
 40
0.25
  9
$AUNITS
 70
     0
  9
$AUPREC
 70
     0
  9
$MENU
  1
.
  9
$ELEVATION
 40
0.0
  9
$PELEVATION
 40
0.0
  9
$THICKNESS
 40
0.0
  9
$LIMCHECK
 70
     0
  9
$BLIPMODE
 70
     0
  9
$CHAMFERA
 40
10.0
  9
$CHAMFERB
 40
10.0
  9
$CHAMFERC
 40
20.0
  9
$CHAMFERD
 40
0.0
  9
$SKPOLY
 70
     0
  9
$TDCREATE
 40
2451589.469382176
  9
$TDUPDATE
 40
2453802.574780092
  9
$TDINDWG
 40
0.4128809606
  9
$TDUSRTIMER
 40
0.4128809606
  9
$USRTIMER
 70
     1
  9
$ANGBASE
 50
0.0
  9
$ANGDIR
 70
     0
  9
$PDMODE
 70
     0
  9
$PDSIZE
 40
0.0
  9
$PLINEWID
 40
0.0
  9
$COORDS
 70
     1
  9
$SPLFRAME
 70
     0
  9
$SPLINETYPE
 70
     6
  9
$SPLINESEGS
 70
     8
  9
$ATTDIA
 70
     0
  9
$ATTREQ
 70
     1
  9
$HANDLING
 70
 10241
  9
$HANDSEED
  5
2C56
  9
$SURFTAB1
 70
     6
  9
$SURFTAB2
 70
     6
  9
$SURFTYPE
 70
     6
  9
$SURFU
 70
     6
  9
$SURFV
 70
     6
  9
$UCSNAME
  2

  9
$UCSORG
 10
0.0
 20
0.0
 30
0.0
  9
$UCSXDIR
 10
1.0
 20
0.0
 30
0.0
  9
$UCSYDIR
 10
0.0
 20
1.0
 30
0.0
  9
$PUCSNAME
  2

  9
$PUCSORG
 10
0.0
 20
0.0
 30
0.0
  9
$PUCSXDIR
 10
1.0
 20
0.0
 30
0.0
  9
$PUCSYDIR
 10
0.0
 20
1.0
 30
0.0
  9
$USERI1
 70
     0
  9
$USERI2
 70
     0
  9
$USERI3
 70
     0
  9
$USERI4
 70
     0
  9
$USERI5
 70
     0
  9
$USERR1
 40
0.0
  9
$USERR2
 40
0.0
  9
$USERR3
 40
0.0
  9
$USERR4
 40
0.0
  9
$USERR5
 40
0.0
  9
$WORLDVIEW
 70
     1
  9
$SHADEDGE
 70
     3
  9
$SHADEDIF
 70
    70
  9
$TILEMODE
 70
     1
  9
$MAXACTVP
 70
    16
  9
$PINSBASE
 10
0.0
 20
0.0
 30
0.0
  9
$PLIMCHECK
 70
     0
  9
$PEXTMIN
 10
0.0
 20
0.0
 30
0.0
  9
$PEXTMAX
 10
420.0
 20
297.0
 30
0.0
  9
$PLIMMIN
 10
0.0
 20
0.0
  9
$PLIMMAX
 10
420.0
 20
297.0
  9
$UNITMODE
 70
     0
  9
$VISRETAIN
 70
     0
  9
$PLINEGEN
 70
     0
  9
$PSLTSCALE
 70
     1
  9
$TREEDEPTH
 70
  3020
  9
$PICKSTYLE
 70
     1
  9
$CMLSTYLE
  2
STANDARD
  9
$CMLJUST
 70
     0
  9
$CMLSCALE
 40
1.0
  9
$PROXYGRAPHICS
 70
     1
  9
$MEASUREMENT
 70
     0
  0
ENDSEC
  0
SECTION
  2
CLASSES
  0
CLASS
  1
ACDBDICTIONARYWDFLT
  2
AcDbDictionaryWithDefault
  3
AutoCAD 2000
 90
        0
280
     0
281
     0
  0
CLASS
  1
ACDBPLACEHOLDER
  2
AcDbPlaceHolder
  3
AutoCAD 2000
 90
        0
280
     0
281
     0
  0
CLASS
  1
LAYOUT
  2
AcDbLayout
  3
AutoCAD 2000
 90
        0
280
     0
281
     0
  0
CLASS
  1
LONG_TRANSACTION
  2
AcDbLongTransaction
  3
AutoCAD 2000
 90
        0
280
     0
281
     0
  0
CLASS
  1
LWPOLYLINE
  2
AcDbPolyline
  3
AutoCAD 2000
 90
        0
280
     0
281
     1
  0
CLASS
  1
HATCH
  2
AcDbHatch
  3
AutoCAD 2000
 90
        0
280
     0
281
     1
  0
CLASS
  1
XRECORD
  2
AcDbXrecord
  3
AutoCAD 2000
 90
        0
280
     0
281
     0
  0
CLASS
  1
LONG_TRANSACTION
  2
AcDbLongTransaction
  3
AutoCAD 2000
 90
        0
280
     0
281
     0
  0
CLASS
  1
LWPOLYLINE
  2
AcDbPolyline
  3
AutoCAD 2000
 90
        0
280
     0
281
     1
  0
CLASS
  1
HATCH
  2
AcDbHatch
  3
AutoCAD 2000
 90
        0
280
     0
281
     1
  0
CLASS
  1
XRECORD
  2
AcDbXrecord
  3
AutoCAD 2000
 90
        0
280
     0
281
     0
  0
CLASS
  1
DICTIONARYVAR
  2
AcDbDictionaryVar
  3
AutoCAD 2000
 90
        0
280
     0
281
     0
  0
CLASS
  1
LONG_TRANSACTION
  2
AcDbLongTransaction
  3
AutoCAD 2000
 90
        0
280
     0
281
     0
  0
CLASS
  1
LWPOLYLINE
  2
AcDbPolyline
  3
AutoCAD 2000
 90
        0
280
     0
281
     1
  0
CLASS
  1
HATCH
  2
AcDbHatch
  3
AutoCAD 2000
 90
        0
280
     0
281
     1
  0
CLASS
  1
XRECORD
  2
AcDbXrecord
  3
AutoCAD 2000
 90
        0
280
     0
281
     0
  0
CLASS
  1
LONG_TRANSACTION
  2
AcDbLongTransaction
  3
AutoCAD 2000
 90
        0
280
     0
281
     0
  0
CLASS
  1
LWPOLYLINE
  2
AcDbPolyline
  3
AutoCAD 2000
 90
        0
280
     0
281
     1
  0
CLASS
  1
HATCH
  2
AcDbHatch
  3
AutoCAD 2000
 90
        0
280
     0
281
     1
  0
CLASS
  1
XRECORD
  2
AcDbXrecord
  3
AutoCAD 2000
 90
        0
280
     0
281
     0
  0
CLASS
  1
LONG_TRANSACTION
  2
AcDbLongTransaction
  3
AutoCAD 2000
 90
        0
280
     0
281
     0
  0
CLASS
  1
LWPOLYLINE
  2
AcDbPolyline
  3
AutoCAD 2000
 90
        0
280
     0
281
     1
  0
CLASS
  1
HATCH
  2
AcDbHatch
  3
AutoCAD 2000
 90
        0
280
     0
281
     1
  0
CLASS
  1
XRECORD
  2
AcDbXrecord
  3
AutoCAD 2000
 90
        0
280
     0
281
     0
  0
CLASS
  1
LONG_TRANSACTION
  2
AcDbLongTransaction
  3
AutoCAD 2000
 90
        0
280
     0
281
     0
  0
CLASS
  1
LWPOLYLINE
  2
AcDbPolyline
  3
AutoCAD 2000
 90
        0
280
     0
281
     1
  0
CLASS
  1
HATCH
  2
AcDbHatch
  3
AutoCAD 2000
 90
        0
280
     0
281
     1
  0
CLASS
  1
XRECORD
  2
AcDbXrecord
  3
AutoCAD 2000
 90
        0
280
     0
281
     0
  0
CLASS
  1
LONG_TRANSACTION
  2
AcDbLongTransaction
  3
AutoCAD 2000
 90
        0
280
     0
281
     0
  0
CLASS
  1
LWPOLYLINE
  2
AcDbPolyline
  3
AutoCAD 2000
 90
        0
280
     0
281
     1
  0
CLASS
  1
HATCH
  2
AcDbHatch
  3
AutoCAD 2000
 90
        0
280
     0
281
     1
  0
CLASS
  1
XRECORD
  2
AcDbXrecord
  3
AutoCAD 2000
 90
        0
280
     0
281
     0
  0
CLASS
  1
LONG_TRANSACTION
  2
AcDbLongTransaction
  3
AutoCAD 2000
 90
        0
280
     0
281
     0
  0
CLASS
  1
LWPOLYLINE
  2
AcDbPolyline
  3
AutoCAD 2000
 90
        0
280
     0
281
     1
  0
CLASS
  1
HATCH
  2
AcDbHatch
  3
AutoCAD 2000
 90
        0
280
     0
281
     1
  0
CLASS
  1
XRECORD
  2
AcDbXrecord
  3
AutoCAD 2000
 90
        0
280
     0
281
     0
  0
CLASS
  1
LONG_TRANSACTION
  2
AcDbLongTransaction
  3
AutoCAD 2000
 90
        0
280
     0
281
     0
  0
CLASS
  1
LWPOLYLINE
  2
AcDbPolyline
  3
AutoCAD 2000
 90
        0
280
     0
281
     1
  0
CLASS
  1
HATCH
  2
AcDbHatch
  3
AutoCAD 2000
 90
        0
280
     0
281
     1
  0
CLASS
  1
XRECORD
  2
AcDbXrecord
  3
AutoCAD 2000
 90
        0
280
     0
281
     0
  0
CLASS
  1
LONG_TRANSACTION
  2
AcDbLongTransaction
  3
AutoCAD 2000
 90
        0
280
     0
281
     0
  0
CLASS
  1
LWPOLYLINE
  2
AcDbPolyline
  3
AutoCAD 2000
 90
        0
280
     0
281
     1
  0
CLASS
  1
HATCH
  2
AcDbHatch
  3
AutoCAD 2000
 90
        0
280
     0
281
     1
  0
CLASS
  1
XRECORD
  2
AcDbXrecord
  3
AutoCAD 2000
 90
        0
280
     0
281
     0
  0
CLASS
  1
LONG_TRANSACTION
  2
AcDbLongTransaction
  3
AutoCAD 2000
 90
        0
280
     0
281
     0
  0
CLASS
  1
LWPOLYLINE
  2
AcDbPolyline
  3
AutoCAD 2000
 90
        0
280
     0
281
     1
  0
CLASS
  1
HATCH
  2
AcDbHatch
  3
AutoCAD 2000
 90
        0
280
     0
281
     1
  0
CLASS
  1
XRECORD
  2
AcDbXrecord
  3
AutoCAD 2000
 90
        0
280
     0
281
     0
  0
CLASS
  1
LONG_TRANSACTION
  2
AcDbLongTransaction
  3
AutoCAD 2000
 90
        0
280
     0
281
     0
  0
CLASS
  1
LWPOLYLINE
  2
AcDbPolyline
  3
AutoCAD 2000
 90
        0
280
     0
281
     1
  0
CLASS
  1
HATCH
  2
AcDbHatch
  3
AutoCAD 2000
 90
        0
280
     0
281
     1
  0
CLASS
  1
XRECORD
  2
AcDbXrecord
  3
AutoCAD 2000
 90
        0
280
     0
281
     0
  0
CLASS
  1
LONG_TRANSACTION
  2
AcDbLongTransaction
  3
AutoCAD 2000
 90
        0
280
     0
281
     0
  0
CLASS
  1
LWPOLYLINE
  2
AcDbPolyline
  3
AutoCAD 2000
 90
        0
280
     0
281
     1
  0
CLASS
  1
HATCH
  2
AcDbHatch
  3
AutoCAD 2000
 90
        0
280
     0
281
     1
  0
CLASS
  1
XRECORD
  2
AcDbXrecord
  3
AutoCAD 2000
 90
        0
280
     0
281
     0
  0
CLASS
  1
LONG_TRANSACTION
  2
AcDbLongTransaction
  3
AutoCAD 2000
 90
        0
280
     0
281
     0
  0
CLASS
  1
LWPOLYLINE
  2
AcDbPolyline
  3
AutoCAD 2000
 90
        0
280
     0
281
     1
  0
CLASS
  1
HATCH
  2
AcDbHatch
  3
AutoCAD 2000
 90
        0
280
     0
281
     1
  0
CLASS
  1
XRECORD
  2
AcDbXrecord
  3
AutoCAD 2000
 90
        0
280
     0
281
     0
  0
CLASS
  1
LONG_TRANSACTION
  2
AcDbLongTransaction
  3
AutoCAD 2000
 90
        0
280
     0
281
     0
  0
CLASS
  1
LWPOLYLINE
  2
AcDbPolyline
  3
AutoCAD 2000
 90
        0
280
     0
281
     1
  0
CLASS
  1
HATCH
  2
AcDbHatch
  3
AutoCAD 2000
 90
        0
280
     0
281
     1
  0
CLASS
  1
XRECORD
  2
AcDbXrecord
  3
AutoCAD 2000
 90
        0
280
     0
281
     0
  0
CLASS
  1
LONG_TRANSACTION
  2
AcDbLongTransaction
  3
AutoCAD 2000
 90
        0
280
     0
281
     0
  0
CLASS
  1
LWPOLYLINE
  2
AcDbPolyline
  3
AutoCAD 2000
 90
        0
280
     0
281
     1
  0
CLASS
  1
HATCH
  2
AcDbHatch
  3
AutoCAD 2000
 90
        0
280
     0
281
     1
  0
CLASS
  1
XRECORD
  2
AcDbXrecord
  3
AutoCAD 2000
 90
        0
280
     0
281
     0
  0
ENDSEC
  0
SECTION
  2
TABLES
  0
TABLE
  2
VPORT
  5
8
330
0
100
AcDbSymbolTable
 70
     2
  0
VPORT
  5
2C32
330
8
100
AcDbSymbolTableRecord
100
AcDbViewportTableRecord
  2
*ACTIVE
 70
     0
 10
0.0
 20
0.0
 11
1.0
 21
1.0
 12
233.5099173266507
 22
146.9860153353366
 13
0.0
 23
0.0
 14
5.0
 24
5.0
 15
0.0
 25
0.0
 16
0.0
 26
0.0
 36
1.0
 17
0.0
 27
0.0
 37
0.0
 40
321.4269019423602
 41
1.795454545454545
 42
50.0
 43
0.0
 44
0.0
 50
0.0
 51
0.0
 71
     0
 72
   100
 73
     1
 74
     0
 75
     0
 76
     0
 77
     0
 78
     0
  0
ENDTAB
  0
TABLE
  2
LTYPE
  5
5
330
0
100
AcDbSymbolTable
 70
     3
  0
LTYPE
  5
14
330
5
100
AcDbSymbolTableRecord
100
AcDbLinetypeTableRecord
  2
BYBLOCK
 70
     0
  3

 72
    65
 73
     0
 40
0.0
  0
LTYPE
  5
15
330
5
100
AcDbSymbolTableRecord
100
AcDbLinetypeTableRecord
  2
BYLAYER
 70
     0
  3

 72
    65
 73
     0
 40
0.0
  0
LTYPE
  5
16
330
5
100
AcDbSymbolTableRecord
100
AcDbLinetypeTableRecord
  2
CONTINUOUS
 70
     0
  3
Solid line
 72
    65
 73
     0
 40
0.0
  0
LTYPE
  5
120
330
5
100
AcDbSymbolTableRecord
100
AcDbLinetypeTableRecord
  2
CENTER
 70
     0
  3
____ _ ____ _ ____ _ ____ _ ____ _ ____ _ ____ 
 72
    65
 73
     4
 40
2.0
 49
1.25
 74
     0
 49
-0.25
 74
     0
 49
0.25
 74
     0
 49
-0.25
 74
     0
  0
LTYPE
  5
122
330
5
100
AcDbSymbolTableRecord
100
AcDbLinetypeTableRecord
  2
PHANTOM
 70
     0
  3
______  __  __  ______  __  __  ______  __  __ 
 72
    65
 73
     6
 40
2.5
 49
1.25
 74
     0
 49
-0.25
 74
     0
 49
0.25
 74
     0
 49
-0.25
 74
     0
 49
0.25
 74
     0
 49
-0.25
 74
     0
  0
ENDTAB
  0
TABLE
  2
LAYER
  5
2
330
0
100
AcDbSymbolTable
 70
     9
  0
LAYER
  5
F
330
2
100
AcDbSymbolTableRecord
100
AcDbLayerTableRecord
  2
0
 70
     0
 62
     7
  6
CONTINUOUS
  0
LAYER
  5
62
330
2
100
AcDbSymbolTableRecord
100
AcDbLayerTableRecord
  2
VIEWPORT
 70
     0
 62
     7
  6
CONTINUOUS
  0
LAYER
  5
6B
330
2
100
AcDbSymbolTableRecord
100
AcDbLayerTableRecord
  2
ZUWAKU
 70
     0
 62
     7
  6
CONTINUOUS
  0
LAYER
  5
3EF
330
2
100
AcDbSymbolTableRecord
100
AcDbLayerTableRecord
  2
DEFPOINTS
 70
     0
 62
     7
  6
CONTINUOUS
  0
LAYER
  5
54D
330
2
100
AcDbSymbolTableRecord
100
AcDbLayerTableRecord
  2
SEIHIN
 70
     0
 62
     3
  6
CONTINUOUS
  0
LAYER
  5
54E
330
2
100
AcDbSymbolTableRecord
100
AcDbLayerTableRecord
  2
SUNPOU
 70
     0
 62
     4
  6
CONTINUOUS
  0
LAYER
  5
54F
330
2
100
AcDbSymbolTableRecord
100
AcDbLayerTableRecord
  2
CENTER_L
 70
     0
 62
     1
  6
CENTER
  0
LAYER
  5
550
330
2
100
AcDbSymbolTableRecord
100
AcDbLayerTableRecord
  2
NOKITOI
 70
     0
 62
     8
  6
PHANTOM
  0
LAYER
  5
2A4D
330
2
100
AcDbSymbolTableRecord
100
AcDbLayerTableRecord
  2
MOJI
 70
     0
 62
     2
  6
CONTINUOUS
  0
ENDTAB
  0
TABLE
  2
STYLE
  5
3
330
0
100
AcDbSymbolTable
 70
     2
  0
STYLE
  5
10
330
3
100
AcDbSymbolTableRecord
100
AcDbTextStyleTableRecord
  2
STANDARD
 70
     0
 40
0.0
 41
1.0
 50
0.0
 71
     0
 42
3.0
  3
TXT
  4
c:\PROGRAM FILES\AUTOCAD LT\ms\bigfont.shx
  0
STYLE
  5
2A4E
330
3
100
AcDbSymbolTableRecord
100
AcDbTextStyleTableRecord
  2
ｽﾀｲﾙ1
 70
     0
 40
0.0
 41
1.0
 50
0.0
 71
     0
 42
2.5
  3
MS PGothic.ttf
  4

1001
ACAD
1000
MS PGothic
1071
    32818
  0
ENDTAB
  0
TABLE
  2
VIEW
  5
6
330
0
100
AcDbSymbolTable
 70
     0
  0
ENDTAB
  0
TABLE
  2
UCS
  5
7
330
0
100
AcDbSymbolTable
 70
     0
  0
ENDTAB
  0
TABLE
  2
APPID
  5
9
330
0
100
AcDbSymbolTable
 70
     1
  0
APPID
  5
11
330
9
100
AcDbSymbolTableRecord
100
AcDbRegAppTableRecord
  2
ACAD
 70
     0
  0
ENDTAB
  0
TABLE
  2
DIMSTYLE
  5
A
330
0
100
AcDbSymbolTable
 70
     1
  0
DIMSTYLE
105
1D
102
{ACAD_REACTORS
330
1F96
330
1FA3
330
1FB0
330
1FEA
330
1FF7
330
2006
330
2015
330
2022
330
204C
330
2059
330
2066
330
2073
102
}
330
A
100
AcDbSymbolTableRecord
100
AcDbDimStyleTableRecord
  2
STANDARD
 70
     0
  3

  4

  5

  6

  7

 40
1.0
 41
0.18
 42
0.0625
 43
0.38
 44
0.18
 45
0.0
 46
0.0
 47
0.0
 48
0.0
140
0.18
141
0.09
142
0.0
143
25.4
144
1.0
145
0.0
146
1.0
147
0.09
 71
     0
 72
     0
 73
     1
 74
     1
 75
     0
 76
     0
 77
     0
 78
     0
170
     0
171
     2
172
     0
173
     0
174
     0
175
     0
176
     0
177
     0
178
     0
270
     2
271
     4
272
     4
273
     2
274
     2
340
10
275
     0
280
     0
281
     0
282
     0
283
     1
284
     0
285
     0
286
     0
287
     3
288
     0
  0
ENDTAB
  0
TABLE
  2
BLOCK_RECORD
  5
1
330
0
100
AcDbSymbolTable
 70
    13
  0
BLOCK_RECORD
  5
1A
102
{ACAD_XDICTIONARY
360
7A2
102
}
330
1
100
AcDbSymbolTableRecord
100
AcDbBlockTableRecord
  2
*MODEL_SPACE
  0
BLOCK_RECORD
  5
17
102
{ACAD_XDICTIONARY
360
7A0
102
}
330
1
100
AcDbSymbolTableRecord
100
AcDbBlockTableRecord
  2
*PAPER_SPACE
  0
BLOCK_RECORD
  5
B2
330
1
100
AcDbSymbolTableRecord
100
AcDbBlockTableRecord
  2
_OPEN
  0
BLOCK_RECORD
  5
1F97
330
1
100
AcDbSymbolTableRecord
100
AcDbBlockTableRecord
  2
*D1
  0
BLOCK_RECORD
  5
1FA4
330
1
100
AcDbSymbolTableRecord
100
AcDbBlockTableRecord
  2
*D2
  0
BLOCK_RECORD
  5
1FB1
330
1
100
AcDbSymbolTableRecord
100
AcDbBlockTableRecord
  2
*D3
  0
BLOCK_RECORD
  5
1FEB
330
1
100
AcDbSymbolTableRecord
100
AcDbBlockTableRecord
  2
*D4
  0
BLOCK_RECORD
  5
1FF8
330
1
100
AcDbSymbolTableRecord
100
AcDbBlockTableRecord
  2
*D5
  0
BLOCK_RECORD
  5
2007
330
1
100
AcDbSymbolTableRecord
100
AcDbBlockTableRecord
  2
*D6
  0
BLOCK_RECORD
  5
2016
330
1
100
AcDbSymbolTableRecord
100
AcDbBlockTableRecord
  2
*D7
  0
BLOCK_RECORD
  5
2023
330
1
100
AcDbSymbolTableRecord
100
AcDbBlockTableRecord
  2
*D8
  0
BLOCK_RECORD
  5
204D
330
1
100
AcDbSymbolTableRecord
100
AcDbBlockTableRecord
  2
*D9
  0
BLOCK_RECORD
  5
205A
330
1
100
AcDbSymbolTableRecord
100
AcDbBlockTableRecord
  2
*D10
  0
BLOCK_RECORD
  5
2067
330
1
100
AcDbSymbolTableRecord
100
AcDbBlockTableRecord
  2
*D11
  0
BLOCK_RECORD
  5
2074
330
1
100
AcDbSymbolTableRecord
100
AcDbBlockTableRecord
  2
*D12
  0
ENDTAB
  0
ENDSEC
  0
SECTION
  2
BLOCKS
  0
BLOCK
  5
1B
330
1A
100
AcDbEntity
  8
0
100
AcDbBlockBegin
  2
*MODEL_SPACE
 70
     0
 10
0.0
 20
0.0
 30
0.0
  3
*MODEL_SPACE
  1

  0
ENDBLK
  5
1C
330
1A
100
AcDbEntity
  8
0
100
AcDbBlockEnd
  0
BLOCK
  5
18
330
17
100
AcDbEntity
 67
     1
  8
0
100
AcDbBlockBegin
  2
*PAPER_SPACE
 70
     0
 10
0.0
 20
0.0
 30
0.0
  3
*PAPER_SPACE
  1

  0
ENDBLK
  5
19
330
17
100
AcDbEntity
 67
     1
  8
0
100
AcDbBlockEnd
  0
BLOCK
  5
B3
330
B2
100
AcDbEntity
  8
0
100
AcDbBlockBegin
  2
_OPEN
 70
     0
 10
0.0
 20
0.0
 30
0.0
  3
_OPEN
  1

  0
LINE
  5
B4
330
B2
100
AcDbEntity
  8
0
  6
BYBLOCK
 62
     0
100
AcDbLine
 10
-1.0
 20
0.1666666666666666
 30
0.0
 11
0.0
 21
0.0
 31
0.0
  0
LINE
  5
B5
330
B2
100
AcDbEntity
  8
0
  6
BYBLOCK
 62
     0
100
AcDbLine
 10
0.0
 20
0.0
 30
0.0
 11
-1.0
 21
-0.1666666666666666
 31
0.0
  0
LINE
  5
B6
330
B2
100
AcDbEntity
  8
0
  6
BYBLOCK
 62
     0
100
AcDbLine
 10
0.0
 20
0.0
 30
0.0
 11
-1.0
 21
0.0
 31
0.0
  0
ENDBLK
  5
B7
330
B2
100
AcDbEntity
  8
0
100
AcDbBlockEnd
  0
BLOCK
  5
1FA1
330
1F97
100
AcDbEntity
  8
0
100
AcDbBlockBegin
  2
*D1
 70
     1
 10
0.0
 20
0.0
 30
0.0
  3
*D1
  1

  0
LINE
  5
2BD9
330
1F97
100
AcDbEntity
  8
SUNPOU
100
AcDbLine
 10
244.7248646113934
 20
142.0934701263444
 30
0.0
 11
31.99363474305574
 21
142.0934701263444
 31
0.0
  0
LINE
  5
2BDA
330
1F97
100
AcDbEntity
  8
SUNPOU
100
AcDbLine
 10
57.32444751139343
 20
85.3794918263444
 30
0.0
 11
31.99363474305572
 21
85.3794918263444
 31
0.0
  0
LINE
  5
2BDB
330
1F97
100
AcDbEntity
  8
SUNPOU
100
AcDbLine
 10
33.49363474305573
 20
139.0934701263444
 30
0.0
 11
33.49363474305572
 21
88.37949182634439
 31
0.0
  0
INSERT
  5
2BDC
330
1F97
100
AcDbEntity
  8
SUNPOU
100
AcDbBlockReference
  2
_OPEN
 10
33.49363474305573
 20
142.0934701263444
 30
0.0
 41
3.0
 42
3.0
 43
3.0
 50
90.0
  0
INSERT
  5
2BDD
330
1F97
100
AcDbEntity
  8
SUNPOU
100
AcDbBlockReference
  2
_OPEN
 10
33.49363474305572
 20
85.3794918263444
 30
0.0
 41
3.0
 42
3.0
 43
3.0
 50
270.0
  0
MTEXT
  5
2BDE
330
1F97
100
AcDbEntity
  8
SUNPOU
100
AcDbMText
 10
30.99363474305571
 20
113.7364809763444
 30
0.0
 40
3.0
 41
0.0
 71
     5
 72
     1
  1
\A1;57
 11
0.0000000000000001
 21
1.0
 31
0.0
1001
ACAD
1000
MTEXTBEGIN
1070
    73
1070
     1
1070
    44
1040
1.0
1070
    74
1070
     0
1000
MTEXTEND
  0
POINT
  5
2BDF
330
1F97
100
AcDbEntity
  8
DEFPOINTS
 62
     0
100
AcDbPoint
 10
247.7248646113934
 20
142.0934701263444
 30
0.0
  0
POINT
  5
2BE0
330
1F97
100
AcDbEntity
  8
DEFPOINTS
 62
     0
100
AcDbPoint
 10
60.32444751139343
 20
85.3794918263444
 30
0.0
  0
POINT
  5
2BE1
330
1F97
100
AcDbEntity
  8
DEFPOINTS
 62
     0
100
AcDbPoint
 10
33.49363474305572
 20
85.3794918263444
 30
0.0
  0
ENDBLK
  5
1FA2
330
1F97
100
AcDbEntity
  8
0
100
AcDbBlockEnd
  0
BLOCK
  5
1FAE
330
1FA4
100
AcDbEntity
  8
0
100
AcDbBlockBegin
  2
*D2
 70
     1
 10
0.0
 20
0.0
 30
0.0
  3
*D2
  1

  0
LINE
  5
2BD0
330
1FA4
100
AcDbEntity
  8
SUNPOU
100
AcDbLine
 10
254.3248646113934
 20
145.0934701263444
 30
0.0
 11
254.3248646113934
 21
167.1161172407696
 31
0.0
  0
LINE
  5
2BD1
330
1FA4
100
AcDbEntity
  8
SUNPOU
100
AcDbLine
 10
112.8244475113934
 20
89.67949182634441
 30
0.0
 11
112.8244475113934
 21
167.1161172407696
 31
0.0
  0
LINE
  5
2BD2
330
1FA4
100
AcDbEntity
  8
SUNPOU
100
AcDbLine
 10
251.3248646113934
 20
165.6161172407696
 30
0.0
 11
115.8244475113934
 21
165.6161172407696
 31
0.0
  0
INSERT
  5
2BD3
330
1FA4
100
AcDbEntity
  8
SUNPOU
100
AcDbBlockReference
  2
_OPEN
 10
254.3248646113934
 20
165.6161172407696
 30
0.0
 41
3.0
 42
3.0
 43
3.0
  0
INSERT
  5
2BD4
330
1FA4
100
AcDbEntity
  8
SUNPOU
100
AcDbBlockReference
  2
_OPEN
 10
112.8244475113934
 20
165.6161172407696
 30
0.0
 41
3.0
 42
3.0
 43
3.0
 50
180.0
  0
MTEXT
  5
2BD5
330
1FA4
100
AcDbEntity
  8
SUNPOU
100
AcDbMText
 10
183.5746560613934
 20
168.1161172407696
 30
0.0
 40
3.0
 41
0.0
 71
     5
 72
     1
  1
\A1;142
1001
ACAD
1000
MTEXTBEGIN
1070
    73
1070
     1
1070
    44
1040
1.0
1070
    74
1070
     0
1000
MTEXTEND
  0
POINT
  5
2BD6
330
1FA4
100
AcDbEntity
  8
DEFPOINTS
 62
     0
100
AcDbPoint
 10
254.3248646113934
 20
142.0934701263444
 30
0.0
  0
POINT
  5
2BD7
330
1FA4
100
AcDbEntity
  8
DEFPOINTS
 62
     0
100
AcDbPoint
 10
112.8244475113934
 20
86.67949182634442
 30
0.0
  0
POINT
  5
2BD8
330
1FA4
100
AcDbEntity
  8
DEFPOINTS
 62
     0
100
AcDbPoint
 10
112.8244475113934
 20
165.6161172407696
 30
0.0
  0
ENDBLK
  5
1FAF
330
1FA4
100
AcDbEntity
  8
0
100
AcDbBlockEnd
  0
BLOCK
  5
1FBB
330
1FB1
100
AcDbEntity
  8
0
100
AcDbBlockBegin
  2
*D3
 70
     1
 10
0.0
 20
0.0
 30
0.0
  3
*D3
  1

  0
LINE
  5
2BC7
330
1FB1
100
AcDbEntity
  8
SUNPOU
100
AcDbLine
 10
60.32444751139343
 20
87.91406244568488
 30
0.0
 11
60.32444751139344
 21
176.5940097955034
 31
0.0
  0
LINE
  5
2BC8
330
1FB1
100
AcDbEntity
  8
SUNPOU
100
AcDbLine
 10
254.3248646113934
 20
145.0934701263444
 30
0.0
 11
254.3248646113934
 21
176.5940097955034
 31
0.0
  0
LINE
  5
2BC9
330
1FB1
100
AcDbEntity
  8
SUNPOU
100
AcDbLine
 10
63.32444751139344
 20
175.0940097955034
 30
0.0
 11
251.3248646113934
 21
175.0940097955034
 31
0.0
  0
INSERT
  5
2BCA
330
1FB1
100
AcDbEntity
  8
SUNPOU
100
AcDbBlockReference
  2
_OPEN
 10
60.32444751139344
 20
175.0940097955034
 30
0.0
 41
3.0
 42
3.0
 43
3.0
 50
180.0
  0
INSERT
  5
2BCB
330
1FB1
100
AcDbEntity
  8
SUNPOU
100
AcDbBlockReference
  2
_OPEN
 10
254.3248646113934
 20
175.0940097955034
 30
0.0
 41
3.0
 42
3.0
 43
3.0
  0
MTEXT
  5
2BCC
330
1FB1
100
AcDbEntity
  8
SUNPOU
100
AcDbMText
 10
157.3246560613934
 20
177.5940097955034
 30
0.0
 40
3.0
 41
0.0
 71
     5
 72
     1
  1
\A1;194
1001
ACAD
1000
MTEXTBEGIN
1070
    73
1070
     1
1070
    44
1040
1.0
1070
    74
1070
     0
1000
MTEXTEND
  0
POINT
  5
2BCD
330
1FB1
100
AcDbEntity
  8
DEFPOINTS
 62
     0
100
AcDbPoint
 10
60.32444751139343
 20
84.91406244568487
 30
0.0
  0
POINT
  5
2BCE
330
1FB1
100
AcDbEntity
  8
DEFPOINTS
 62
     0
100
AcDbPoint
 10
254.3248646113934
 20
142.0934701263444
 30
0.0
  0
POINT
  5
2BCF
330
1FB1
100
AcDbEntity
  8
DEFPOINTS
 62
     0
100
AcDbPoint
 10
254.3248646113934
 20
175.0940097955034
 30
0.0
  0
ENDBLK
  5
1FBC
330
1FB1
100
AcDbEntity
  8
0
100
AcDbBlockEnd
  0
BLOCK
  5
1FF5
330
1FEB
100
AcDbEntity
  8
0
100
AcDbBlockBegin
  2
*D4
 70
     1
 10
0.0
 20
0.0
 30
0.0
  3
*D4
  1

  0
LINE
  5
2BBE
330
1FEB
100
AcDbEntity
  8
SUNPOU
100
AcDbLine
 10
254.3248646113934
 20
145.0934701263444
 30
0.0
 11
254.3248646113934
 21
156.7715605572404
 31
0.0
  0
LINE
  5
2BBF
330
1FEB
100
AcDbEntity
  8
SUNPOU
100
AcDbLine
 10
176.7833902346215
 20
92.40999182634435
 30
0.0
 11
176.7833902346215
 21
156.7715605572404
 31
0.0
  0
LINE
  5
2BC0
330
1FEB
100
AcDbEntity
  8
SUNPOU
100
AcDbLine
 10
251.3248646113934
 20
155.2715605572404
 30
0.0
 11
179.7833902346214
 21
155.2715605572404
 31
0.0
  0
INSERT
  5
2BC1
330
1FEB
100
AcDbEntity
  8
SUNPOU
100
AcDbBlockReference
  2
_OPEN
 10
254.3248646113934
 20
155.2715605572404
 30
0.0
 41
3.0
 42
3.0
 43
3.0
  0
INSERT
  5
2BC2
330
1FEB
100
AcDbEntity
  8
SUNPOU
100
AcDbBlockReference
  2
_OPEN
 10
176.7833902346215
 20
155.2715605572404
 30
0.0
 41
3.0
 42
3.0
 43
3.0
 50
180.0
  0
MTEXT
  5
2BC3
330
1FEB
100
AcDbEntity
  8
SUNPOU
100
AcDbMText
 10
215.5541274230074
 20
157.7715605572404
 30
0.0
 40
3.0
 41
0.0
 71
     5
 72
     1
  1
\A1;78
1001
ACAD
1000
MTEXTBEGIN
1070
    73
1070
     1
1070
    44
1040
1.0
1070
    74
1070
     0
1000
MTEXTEND
  0
POINT
  5
2BC4
330
1FEB
100
AcDbEntity
  8
DEFPOINTS
 62
     0
100
AcDbPoint
 10
254.3248646113934
 20
142.0934701263444
 30
0.0
  0
POINT
  5
2BC5
330
1FEB
100
AcDbEntity
  8
DEFPOINTS
 62
     0
100
AcDbPoint
 10
176.7833902346215
 20
89.40999182634435
 30
0.0
  0
POINT
  5
2BC6
330
1FEB
100
AcDbEntity
  8
DEFPOINTS
 62
     0
100
AcDbPoint
 10
176.7833902346215
 20
155.2715605572404
 30
0.0
  0
ENDBLK
  5
1FF6
330
1FEB
100
AcDbEntity
  8
0
100
AcDbBlockEnd
  0
BLOCK
  5
2002
330
1FF8
100
AcDbEntity
  8
0
100
AcDbBlockBegin
  2
*D5
 70
     1
 10
0.0
 20
0.0
 30
0.0
  3
*D5
  1

  0
LINE
  5
2C08
330
1FF8
100
AcDbEntity
  8
SUNPOU
100
AcDbLine
 10
257.3248646113934
 20
142.0934701263444
 30
0.0
 11
276.8763590723275
 21
142.0934701263444
 31
0.0
  0
LINE
  5
2C09
330
1FF8
100
AcDbEntity
  8
SUNPOU
100
AcDbLine
 10
257.3248646113934
 20
107.0934701263444
 30
0.0
 11
276.8763590723274
 21
107.0934701263444
 31
0.0
  0
LINE
  5
2C0A
330
1FF8
100
AcDbEntity
  8
SUNPOU
100
AcDbLine
 10
275.3763590723274
 20
139.0934701263444
 30
0.0
 11
275.3763590723274
 21
110.0934701263444
 31
0.0
  0
INSERT
  5
2C0B
330
1FF8
100
AcDbEntity
  8
SUNPOU
100
AcDbBlockReference
  2
_OPEN
 10
275.3763590723274
 20
142.0934701263444
 30
0.0
 41
3.0
 42
3.0
 43
3.0
 50
90.0
  0
INSERT
  5
2C0C
330
1FF8
100
AcDbEntity
  8
SUNPOU
100
AcDbBlockReference
  2
_OPEN
 10
275.3763590723274
 20
107.0934701263444
 30
0.0
 41
3.0
 42
3.0
 43
3.0
 50
270.0
  0
MTEXT
  5
2C0D
330
1FF8
100
AcDbEntity
  8
SUNPOU
100
AcDbMText
 10
272.8763590723274
 20
124.5934701263444
 30
0.0
 40
3.0
 41
0.0
 71
     5
 72
     1
  1
\A1;35
 11
0.0000000000000001
 21
1.0
 31
0.0
1001
ACAD
1000
MTEXTBEGIN
1070
    73
1070
     1
1070
    44
1040
1.0
1070
    74
1070
     0
1000
MTEXTEND
  0
POINT
  5
2C0E
330
1FF8
100
AcDbEntity
  8
DEFPOINTS
 62
     0
100
AcDbPoint
 10
254.3248646113934
 20
142.0934701263444
 30
0.0
  0
POINT
  5
2C0F
330
1FF8
100
AcDbEntity
  8
DEFPOINTS
 62
     0
100
AcDbPoint
 10
254.3248646113934
 20
107.0934701263444
 30
0.0
  0
POINT
  5
2C10
330
1FF8
100
AcDbEntity
  8
DEFPOINTS
 62
     0
100
AcDbPoint
 10
275.3763590723274
 20
107.0934701263444
 30
0.0
  0
ENDBLK
  5
2003
330
1FF8
100
AcDbEntity
  8
0
100
AcDbBlockEnd
  0
BLOCK
  5
2013
330
2007
100
AcDbEntity
  8
0
100
AcDbBlockBegin
  2
*D6
 70
     1
 10
0.0
 20
0.0
 30
0.0
  3
*D6
  1

  0
LINE
  5
2BFD
330
2007
100
AcDbEntity
  8
SUNPOU
100
AcDbLine
 10
324.7482429775483
 20
142.0934701263444
 30
0.0
 11
309.0302252129824
 21
142.0934701263444
 31
0.0
  0
LINE
  5
2BFE
330
2007
100
AcDbEntity
  8
SUNPOU
100
AcDbLine
 10
324.6482429775483
 20
134.0934701263444
 30
0.0
 11
309.0302252129824
 21
134.0934701263444
 31
0.0
  0
LINE
  5
2BFF
330
2007
100
AcDbEntity
  8
SUNPOU
100
AcDbLine
 10
310.5302252129825
 20
145.0934701263444
 30
0.0
 11
310.5302252129825
 21
148.0934701263444
 31
0.0
  0
LINE
  5
2C00
330
2007
100
AcDbEntity
  8
SUNPOU
100
AcDbLine
 10
310.5302252129825
 20
131.0934701263444
 30
0.0
 11
310.5302252129825
 21
128.0934701263444
 31
0.0
  0
LINE
  5
2C01
330
2007
100
AcDbEntity
  8
SUNPOU
100
AcDbLine
 10
310.5302252129825
 20
142.0934701263444
 30
0.0
 11
310.5302252129825
 21
134.0934701263444
 31
0.0
  0
INSERT
  5
2C02
330
2007
100
AcDbEntity
  8
SUNPOU
100
AcDbBlockReference
  2
_OPEN
 10
310.5302252129825
 20
142.0934701263444
 30
0.0
 41
3.0
 42
3.0
 43
3.0
 50
270.0
  0
INSERT
  5
2C03
330
2007
100
AcDbEntity
  8
SUNPOU
100
AcDbBlockReference
  2
_OPEN
 10
310.5302252129825
 20
134.0934701263444
 30
0.0
 41
3.0
 42
3.0
 43
3.0
 50
90.0
  0
MTEXT
  5
2C04
330
2007
100
AcDbEntity
  8
SUNPOU
100
AcDbMText
 10
308.0302252129824
 20
138.0934701263444
 30
0.0
 40
3.0
 41
0.0
 71
     5
 72
     1
  1
\A1;8
 11
0.0000000000000001
 21
1.0
 31
0.0
1001
ACAD
1000
MTEXTBEGIN
1070
    73
1070
     1
1070
    44
1040
1.0
1070
    74
1070
     0
1000
MTEXTEND
  0
POINT
  5
2C05
330
2007
100
AcDbEntity
  8
DEFPOINTS
 62
     0
100
AcDbPoint
 10
327.7482429775484
 20
142.0934701263444
 30
0.0
  0
POINT
  5
2C06
330
2007
100
AcDbEntity
  8
DEFPOINTS
 62
     0
100
AcDbPoint
 10
327.6482429775483
 20
134.0934701263444
 30
0.0
  0
POINT
  5
2C07
330
2007
100
AcDbEntity
  8
DEFPOINTS
 62
     0
100
AcDbPoint
 10
310.5302252129825
 20
134.0934701263444
 30
0.0
  0
ENDBLK
  5
2014
330
2007
100
AcDbEntity
  8
0
100
AcDbBlockEnd
  0
BLOCK
  5
2020
330
2016
100
AcDbEntity
  8
0
100
AcDbBlockBegin
  2
*D7
 70
     1
 10
0.0
 20
0.0
 30
0.0
  3
*D7
  1

  0
LINE
  5
2C1A
330
2016
100
AcDbEntity
  8
SUNPOU
100
AcDbLine
 10
324.6482429775483
 20
115.0934701263444
 30
0.0
 11
309.0302252129824
 21
115.0934701263444
 31
0.0
  0
LINE
  5
2C1B
330
2016
100
AcDbEntity
  8
SUNPOU
100
AcDbLine
 10
324.7482429775483
 20
107.0934701263444
 30
0.0
 11
309.0302252129824
 21
107.0934701263444
 31
0.0
  0
LINE
  5
2C1C
330
2016
100
AcDbEntity
  8
SUNPOU
100
AcDbLine
 10
310.5302252129825
 20
112.0934701263444
 30
0.0
 11
310.5302252129825
 21
110.0934701263444
 31
0.0
  0
INSERT
  5
2C1D
330
2016
100
AcDbEntity
  8
SUNPOU
100
AcDbBlockReference
  2
_OPEN
 10
310.5302252129825
 20
115.0934701263444
 30
0.0
 41
3.0
 42
3.0
 43
3.0
 50
90.0
  0
INSERT
  5
2C1E
330
2016
100
AcDbEntity
  8
SUNPOU
100
AcDbBlockReference
  2
_OPEN
 10
310.5302252129825
 20
107.0934701263444
 30
0.0
 41
3.0
 42
3.0
 43
3.0
 50
270.0
  0
MTEXT
  5
2C1F
330
2016
100
AcDbEntity
  8
SUNPOU
100
AcDbMText
 10
308.0302252129825
 20
111.0934701263444
 30
0.0
 40
3.0
 41
0.0
 71
     5
 72
     1
  1
\A1;8
 11
0.0000000000000001
 21
1.0
 31
0.0
1001
ACAD
1000
MTEXTBEGIN
1070
    73
1070
     1
1070
    44
1040
1.0
1070
    74
1070
     0
1000
MTEXTEND
  0
POINT
  5
2C20
330
2016
100
AcDbEntity
  8
DEFPOINTS
 62
     0
100
AcDbPoint
 10
327.6482429775483
 20
115.0934701263444
 30
0.0
  0
POINT
  5
2C21
330
2016
100
AcDbEntity
  8
DEFPOINTS
 62
     0
100
AcDbPoint
 10
327.7482429775484
 20
107.0934701263444
 30
0.0
  0
POINT
  5
2C22
330
2016
100
AcDbEntity
  8
DEFPOINTS
 62
     0
100
AcDbPoint
 10
310.5302252129825
 20
107.0934701263444
 30
0.0
  0
ENDBLK
  5
2021
330
2016
100
AcDbEntity
  8
0
100
AcDbBlockEnd
  0
BLOCK
  5
202D
330
2023
100
AcDbEntity
  8
0
100
AcDbBlockBegin
  2
*D8
 70
     1
 10
0.0
 20
0.0
 30
0.0
  3
*D8
  1

  0
LINE
  5
2C11
330
2023
100
AcDbEntity
  8
SUNPOU
100
AcDbLine
 10
324.7482429775483
 20
142.0934701263444
 30
0.0
 11
299.0118461853026
 21
142.0934701263444
 31
0.0
  0
LINE
  5
2C12
330
2023
100
AcDbEntity
  8
SUNPOU
100
AcDbLine
 10
324.7482429775483
 20
107.0934701263444
 30
0.0
 11
299.0118461853025
 21
107.0934701263444
 31
0.0
  0
LINE
  5
2C13
330
2023
100
AcDbEntity
  8
SUNPOU
100
AcDbLine
 10
300.5118461853026
 20
139.0934701263444
 30
0.0
 11
300.5118461853026
 21
110.0934701263444
 31
0.0
  0
INSERT
  5
2C14
330
2023
100
AcDbEntity
  8
SUNPOU
100
AcDbBlockReference
  2
_OPEN
 10
300.5118461853026
 20
142.0934701263444
 30
0.0
 41
3.0
 42
3.0
 43
3.0
 50
90.0
  0
INSERT
  5
2C15
330
2023
100
AcDbEntity
  8
SUNPOU
100
AcDbBlockReference
  2
_OPEN
 10
300.5118461853026
 20
107.0934701263444
 30
0.0
 41
3.0
 42
3.0
 43
3.0
 50
270.0
  0
MTEXT
  5
2C16
330
2023
100
AcDbEntity
  8
SUNPOU
100
AcDbMText
 10
298.0118461853026
 20
124.5934701263444
 30
0.0
 40
3.0
 41
0.0
 71
     5
 72
     1
  1
\A1;35
 11
0.0000000000000001
 21
1.0
 31
0.0
1001
ACAD
1000
MTEXTBEGIN
1070
    73
1070
     1
1070
    44
1040
1.0
1070
    74
1070
     0
1000
MTEXTEND
  0
POINT
  5
2C17
330
2023
100
AcDbEntity
  8
DEFPOINTS
 62
     0
100
AcDbPoint
 10
327.7482429775484
 20
142.0934701263444
 30
0.0
  0
POINT
  5
2C18
330
2023
100
AcDbEntity
  8
DEFPOINTS
 62
     0
100
AcDbPoint
 10
327.7482429775484
 20
107.0934701263444
 30
0.0
  0
POINT
  5
2C19
330
2023
100
AcDbEntity
  8
DEFPOINTS
 62
     0
100
AcDbPoint
 10
300.5118461853026
 20
107.0934701263444
 30
0.0
  0
ENDBLK
  5
202E
330
2023
100
AcDbEntity
  8
0
100
AcDbBlockEnd
  0
BLOCK
  5
2057
330
204D
100
AcDbEntity
  8
0
100
AcDbBlockBegin
  2
*D9
 70
     1
 10
0.0
 20
0.0
 30
0.0
  3
*D9
  1

  0
LINE
  5
2BF4
330
204D
100
AcDbEntity
  8
SUNPOU
100
AcDbLine
 10
333.7482429775484
 20
143.1934701263444
 30
0.0
 11
333.7482429775484
 21
156.7715605572404
 31
0.0
  0
LINE
  5
2BF5
330
204D
100
AcDbEntity
  8
SUNPOU
100
AcDbLine
 10
377.7482429775484
 20
143.1934701263444
 30
0.0
 11
377.7482429775484
 21
156.7715605572404
 31
0.0
  0
LINE
  5
2BF6
330
204D
100
AcDbEntity
  8
SUNPOU
100
AcDbLine
 10
336.7482429775483
 20
155.2715605572404
 30
0.0
 11
374.7482429775483
 21
155.2715605572404
 31
0.0
  0
INSERT
  5
2BF7
330
204D
100
AcDbEntity
  8
SUNPOU
100
AcDbBlockReference
  2
_OPEN
 10
333.7482429775484
 20
155.2715605572404
 30
0.0
 41
3.0
 42
3.0
 43
3.0
 50
180.0
  0
INSERT
  5
2BF8
330
204D
100
AcDbEntity
  8
SUNPOU
100
AcDbBlockReference
  2
_OPEN
 10
377.7482429775484
 20
155.2715605572404
 30
0.0
 41
3.0
 42
3.0
 43
3.0
  0
MTEXT
  5
2BF9
330
204D
100
AcDbEntity
  8
SUNPOU
100
AcDbMText
 10
355.7482429775483
 20
157.7715605572404
 30
0.0
 40
3.0
 41
0.0
 71
     5
 72
     1
  1
\A1;44
1001
ACAD
1000
MTEXTBEGIN
1070
    73
1070
     1
1070
    44
1040
1.0
1070
    74
1070
     0
1000
MTEXTEND
  0
POINT
  5
2BFA
330
204D
100
AcDbEntity
  8
DEFPOINTS
 62
     0
100
AcDbPoint
 10
333.7482429775484
 20
140.1934701263444
 30
0.0
  0
POINT
  5
2BFB
330
204D
100
AcDbEntity
  8
DEFPOINTS
 62
     0
100
AcDbPoint
 10
377.7482429775484
 20
140.1934701263444
 30
0.0
  0
POINT
  5
2BFC
330
204D
100
AcDbEntity
  8
DEFPOINTS
 62
     0
100
AcDbPoint
 10
377.7482429775484
 20
155.2715605572404
 30
0.0
  0
ENDBLK
  5
2058
330
204D
100
AcDbEntity
  8
0
100
AcDbBlockEnd
  0
BLOCK
  5
2064
330
205A
100
AcDbEntity
  8
0
100
AcDbBlockBegin
  2
*D10
 70
     1
 10
0.0
 20
0.0
 30
0.0
  3
*D10
  1

  0
LINE
  5
2BEB
330
205A
100
AcDbEntity
  8
SUNPOU
100
AcDbLine
 10
324.7482429775483
 20
142.0934701263444
 30
0.0
 11
324.7482429775483
 21
167.1161172407696
 31
0.0
  0
LINE
  5
2BEC
330
205A
100
AcDbEntity
  8
SUNPOU
100
AcDbLine
 10
386.7482429775483
 20
142.0934701263444
 30
0.0
 11
386.7482429775483
 21
167.1161172407696
 31
0.0
  0
LINE
  5
2BED
330
205A
100
AcDbEntity
  8
SUNPOU
100
AcDbLine
 10
327.7482429775484
 20
165.6161172407696
 30
0.0
 11
383.7482429775484
 21
165.6161172407696
 31
0.0
  0
INSERT
  5
2BEE
330
205A
100
AcDbEntity
  8
SUNPOU
100
AcDbBlockReference
  2
_OPEN
 10
324.7482429775483
 20
165.6161172407696
 30
0.0
 41
3.0
 42
3.0
 43
3.0
 50
180.0
  0
INSERT
  5
2BEF
330
205A
100
AcDbEntity
  8
SUNPOU
100
AcDbBlockReference
  2
_OPEN
 10
386.7482429775483
 20
165.6161172407696
 30
0.0
 41
3.0
 42
3.0
 43
3.0
  0
MTEXT
  5
2BF0
330
205A
100
AcDbEntity
  8
SUNPOU
100
AcDbMText
 10
355.7482429775483
 20
168.1161172407696
 30
0.0
 40
3.0
 41
0.0
 71
     5
 72
     1
  1
\A1;62
1001
ACAD
1000
MTEXTBEGIN
1070
    73
1070
     1
1070
    44
1040
1.0
1070
    74
1070
     0
1000
MTEXTEND
  0
POINT
  5
2BF1
330
205A
100
AcDbEntity
  8
DEFPOINTS
 62
     0
100
AcDbPoint
 10
324.7482429775483
 20
139.0934701263444
 30
0.0
  0
POINT
  5
2BF2
330
205A
100
AcDbEntity
  8
DEFPOINTS
 62
     0
100
AcDbPoint
 10
386.7482429775483
 20
139.0934701263444
 30
0.0
  0
POINT
  5
2BF3
330
205A
100
AcDbEntity
  8
DEFPOINTS
 62
     0
100
AcDbPoint
 10
386.7482429775483
 20
165.6161172407696
 30
0.0
  0
ENDBLK
  5
2065
330
205A
100
AcDbEntity
  8
0
100
AcDbBlockEnd
  0
BLOCK
  5
2071
330
2067
100
AcDbEntity
  8
0
100
AcDbBlockBegin
  2
*D11
 70
     1
 10
0.0
 20
0.0
 30
0.0
  3
*D11
  1

  0
LINE
  5
2C23
330
2067
100
AcDbEntity
  8
SUNPOU
100
AcDbLine
 10
257.3248646113934
 20
258.5441126582334
 30
0.0
 11
276.8763590723274
 21
258.5441126582334
 31
0.0
  0
LINE
  5
2C24
330
2067
100
AcDbEntity
  8
SUNPOU
100
AcDbLine
 10
257.3248646113934
 20
196.5441126582334
 30
0.0
 11
276.8763590723274
 21
196.5441126582334
 31
0.0
  0
LINE
  5
2C25
330
2067
100
AcDbEntity
  8
SUNPOU
100
AcDbLine
 10
275.3763590723274
 20
255.5441126582334
 30
0.0
 11
275.3763590723274
 21
199.5441126582334
 31
0.0
  0
INSERT
  5
2C26
330
2067
100
AcDbEntity
  8
SUNPOU
100
AcDbBlockReference
  2
_OPEN
 10
275.3763590723274
 20
258.5441126582334
 30
0.0
 41
3.0
 42
3.0
 43
3.0
 50
90.0
  0
INSERT
  5
2C27
330
2067
100
AcDbEntity
  8
SUNPOU
100
AcDbBlockReference
  2
_OPEN
 10
275.3763590723274
 20
196.5441126582334
 30
0.0
 41
3.0
 42
3.0
 43
3.0
 50
270.0
  0
MTEXT
  5
2C28
330
2067
100
AcDbEntity
  8
SUNPOU
100
AcDbMText
 10
272.8763590723273
 20
227.5441126582334
 30
0.0
 40
3.0
 41
0.0
 71
     5
 72
     1
  1
\A1;62
 11
0.0000000000000001
 21
1.0
 31
0.0
1001
ACAD
1000
MTEXTBEGIN
1070
    73
1070
     1
1070
    44
1040
1.0
1070
    74
1070
     0
1000
MTEXTEND
  0
POINT
  5
2C29
330
2067
100
AcDbEntity
  8
DEFPOINTS
 62
     0
100
AcDbPoint
 10
254.3248646113934
 20
258.5441126582334
 30
0.0
  0
POINT
  5
2C2A
330
2067
100
AcDbEntity
  8
DEFPOINTS
 62
     0
100
AcDbPoint
 10
254.3248646113934
 20
196.5441126582334
 30
0.0
  0
POINT
  5
2C2B
330
2067
100
AcDbEntity
  8
DEFPOINTS
 62
     0
100
AcDbPoint
 10
275.3763590723274
 20
196.5441126582334
 30
0.0
  0
ENDBLK
  5
2072
330
2067
100
AcDbEntity
  8
0
100
AcDbBlockEnd
  0
BLOCK
  5
207E
330
2074
100
AcDbEntity
  8
0
100
AcDbBlockBegin
  2
*D12
 70
     1
 10
0.0
 20
0.0
 30
0.0
  3
*D12
  1

  0
LINE
  5
2BE2
330
2074
100
AcDbEntity
  8
SUNPOU
100
AcDbLine
 10
57.32444751139343
 20
237.5441126582334
 30
0.0
 11
31.99363474305575
 21
237.5441126582334
 31
0.0
  0
LINE
  5
2BE3
330
2074
100
AcDbEntity
  8
SUNPOU
100
AcDbLine
 10
57.32444751139343
 20
217.5441126582334
 30
0.0
 11
31.99363474305575
 21
217.5441126582334
 31
0.0
  0
LINE
  5
2BE4
330
2074
100
AcDbEntity
  8
SUNPOU
100
AcDbLine
 10
33.49363474305575
 20
234.5441126582334
 30
0.0
 11
33.49363474305575
 21
220.5441126582334
 31
0.0
  0
INSERT
  5
2BE5
330
2074
100
AcDbEntity
  8
SUNPOU
100
AcDbBlockReference
  2
_OPEN
 10
33.49363474305575
 20
237.5441126582334
 30
0.0
 41
3.0
 42
3.0
 43
3.0
 50
90.0
  0
INSERT
  5
2BE6
330
2074
100
AcDbEntity
  8
SUNPOU
100
AcDbBlockReference
  2
_OPEN
 10
33.49363474305575
 20
217.5441126582334
 30
0.0
 41
3.0
 42
3.0
 43
3.0
 50
270.0
  0
MTEXT
  5
2BE7
330
2074
100
AcDbEntity
  8
SUNPOU
100
AcDbMText
 10
30.99363474305571
 20
227.5441126582334
 30
0.0
 40
3.0
 41
0.0
 71
     5
 72
     1
  1
\A1;20
 11
0.0000000000000001
 21
1.0
 31
0.0
1001
ACAD
1000
MTEXTBEGIN
1070
    73
1070
     1
1070
    44
1040
1.0
1070
    74
1070
     0
1000
MTEXTEND
  0
POINT
  5
2BE8
330
2074
100
AcDbEntity
  8
DEFPOINTS
 62
     0
100
AcDbPoint
 10
60.32444751139343
 20
237.5441126582334
 30
0.0
  0
POINT
  5
2BE9
330
2074
100
AcDbEntity
  8
DEFPOINTS
 62
     0
100
AcDbPoint
 10
60.32444751139343
 20
217.5441126582334
 30
0.0
  0
POINT
  5
2BEA
330
2074
100
AcDbEntity
  8
DEFPOINTS
 62
     0
100
AcDbPoint
 10
33.49363474305575
 20
217.5441126582334
 30
0.0
  0
ENDBLK
  5
207F
330
2074
100
AcDbEntity
  8
0
100
AcDbBlockEnd
  0
ENDSEC
  0
SECTION
  2
ENTITIES
  0
TEXT
  5
9D
330
1A
100
AcDbEntity
  8
ZUWAKU
 48
5.0
100
AcDbText
 10
327.1013476411085
 20
8.060146781246267
 30
0.0
 40
4.0
  1

100
AcDbText
  0
ARC
  5
5A7
330
1A
100
AcDbEntity
  8
NOKITOI
  6
PHANTOM
 62
     8
100
AcDbCircle
 10
108.6614740081638
 20
79.47250630271444
 30
0.0
 40
43.00001447645168
100
AcDbArc
 50
186.5249107071177
 51
269.9998883751437
  0
ARC
  5
5A8
330
1A
100
AcDbEntity
  8
NOKITOI
  6
PHANTOM
 62
     8
100
AcDbCircle
 10
108.6614963165891
 20
79.47248620168804
 30
0.0
 40
41.79999437547816
100
AcDbArc
 50
184.4742952125247
 51
269.999854592109
  0
LINE
  5
5A9
330
1A
100
AcDbEntity
  8
NOKITOI
  6
PHANTOM
 62
     8
100
AcDbLine
 10
58.45049023462093
 20
78.61009182634436
 30
0.0
 11
58.36499023462124
 21
81.3475918263443
 31
0.0
  0
LINE
  5
5AA
330
1A
100
AcDbEntity
  8
NOKITOI
  6
PHANTOM
 62
     8
100
AcDbLine
 10
56.91239023462117
 20
89.40999182634433
 30
0.0
 11
57.302590234621
 21
76.92569182634426
 31
0.0
  0
LINE
  5
5AB
330
1A
100
AcDbEntity
  8
NOKITOI
  6
PHANTOM
 62
     8
100
AcDbLine
 10
66.4903902346216
 20
76.67249182634439
 30
0.0
 11
60.44949023462118
 21
76.67249182634439
 31
0.0
  0
ARC
  5
5AC
330
1A
100
AcDbEntity
  8
NOKITOI
  6
PHANTOM
 62
     8
100
AcDbCircle
 10
64.94648181045864
 20
74.47249934140083
 30
0.0
 40
0.9999924849789756
100
AcDbArc
 50
6.528264606673934
 51
89.99951732740965
  0
LINE
  5
5AD
330
1A
100
AcDbEntity
  8
NOKITOI
  6
PHANTOM
 62
     8
100
AcDbLine
 10
58.80179023462119
 20
75.47249182634434
 30
0.0
 11
64.94649023462102
 21
75.47249182634434
 31
0.0
  0
ARC
  5
5AE
330
1A
100
AcDbEntity
  8
NOKITOI
  6
PHANTOM
 62
     8
100
AcDbCircle
 10
60.4495038067596
 20
78.67247867125795
 30
0.0
 40
1.999986844959662
100
AcDbArc
 50
181.7875531852356
 51
269.9996111843215
  0
ARC
  5
5AF
330
1A
100
AcDbEntity
  8
NOKITOI
  6
PHANTOM
 62
     8
100
AcDbCircle
 10
58.80182619377205
 20
76.97245697220111
 30
0.0
 40
1.499965146287778
100
AcDbArc
 50
181.7866280217767
 51
269.9986264296971
  0
ARC
  5
5B0
330
1A
100
AcDbEntity
  8
NOKITOI
  6
PHANTOM
 62
     8
100
AcDbCircle
 10
66.4904028043295
 20
76.17248020161466
 30
0.0
 40
0.5000116248877111
100
AcDbArc
 50
4.474846808342103
 51
90.00144034898383
  0
ARC
  5
5B1
330
1A
100
AcDbEntity
  8
NOKITOI
  6
PHANTOM
 62
     8
100
AcDbCircle
 10
58.91140298547111
 20
89.47250498143077
 30
0.0
 40
1.999986844954076
100
AcDbArc
 50
90.00036528735451
 51
181.7883072882703
  0
LINE
  5
5B2
330
1A
100
AcDbEntity
  8
NOKITOI
  6
PHANTOM
 62
     8
100
AcDbLine
 10
65.18929023462101
 20
88.97249182634434
 30
0.0
 11
62.95779023462114
 21
88.97249182634434
 31
0.0
  0
ARC
  5
5B3
330
1A
100
AcDbEntity
  8
NOKITOI
  6
PHANTOM
 62
     8
100
AcDbCircle
 10
64.87348334762623
 20
82.47248529125883
 30
0.0
 40
0.499993464961963
100
AcDbArc
 50
270.0007892017869
 51
356.997036131742
  0
LINE
  5
5B4
330
1A
100
AcDbEntity
  8
NOKITOI
  6
PHANTOM
 62
     8
100
AcDbLine
 10
64.20939023462119
 20
83.17249182634439
 30
0.0
 11
64.39059023462118
 21
86.61399182634452
 31
0.0
  0
LINE
  5
5B5
330
1A
100
AcDbEntity
  8
NOKITOI
  6
PHANTOM
 62
     8
100
AcDbLine
 10
63.83559023462135
 20
86.00089182634425
 30
0.0
 11
64.39059023462118
 21
86.61399182634452
 31
0.0
  0
ARC
  5
5B6
330
1A
100
AcDbEntity
  8
NOKITOI
  6
PHANTOM
 62
     8
100
AcDbCircle
 10
62.36311044729041
 20
81.4725505547244
 30
0.0
 40
5.2000412730095
100
AcDbArc
 50
90.0013245430618
 51
142.0757990790548
  0
LINE
  5
5B7
330
1A
100
AcDbEntity
  8
NOKITOI
  6
PHANTOM
 62
     8
100
AcDbLine
 10
58.11179023462159
 20
89.44749182634424
 30
0.0
 11
58.26119023462092
 21
84.66859182634445
 31
0.0
  0
ARC
  5
5B8
330
1A
100
AcDbEntity
  8
NOKITOI
  6
PHANTOM
 62
     8
100
AcDbCircle
 10
62.36302811606788
 20
81.47253560886971
 30
0.0
 40
3.999989731271038
100
AcDbArc
 50
96.47731142013116
 51
181.7899836067311
  0
ARC
  5
5B9
330
1A
100
AcDbEntity
  8
NOKITOI
  6
PHANTOM
 62
     8
100
AcDbCircle
 10
61.96820445303661
 20
84.95017719204335
 30
0.0
 40
0.5000073448410256
100
AcDbArc
 50
351.872947864124
 51
96.47829282996921
  0
LINE
  5
5BA
330
1A
100
AcDbEntity
  8
NOKITOI
  6
PHANTOM
 62
     8
100
AcDbLine
 10
63.4314902346216
 20
83.17249182634439
 30
0.0
 11
63.83559023462135
 21
86.00089182634425
 31
0.0
  0
LINE
  5
5BB
330
1A
100
AcDbEntity
  8
NOKITOI
  6
PHANTOM
 62
     8
100
AcDbLine
 10
64.20939023462119
 20
83.17249182634439
 30
0.0
 11
63.4314902346216
 21
83.17249182634439
 31
0.0
  0
ARC
  5
5BC
330
1A
100
AcDbEntity
  8
NOKITOI
  6
PHANTOM
 62
     8
100
AcDbCircle
 10
62.62441683521888
 20
82.4724611494623
 30
0.0
 40
0.4999693238254178
100
AcDbArc
 50
171.8555038770531
 51
269.9969516090356
  0
LINE
  5
5BD
330
1A
100
AcDbEntity
  8
NOKITOI
  6
PHANTOM
 62
     8
100
AcDbLine
 10
64.87349023462115
 20
81.97249182634434
 30
0.0
 11
62.62439023462116
 21
81.97249182634434
 31
0.0
  0
LINE
  5
5BE
330
1A
100
AcDbEntity
  8
NOKITOI
  6
PHANTOM
 62
     8
100
AcDbLine
 10
62.12949023462101
 20
82.54329182634453
 30
0.0
 11
62.46319023462115
 21
84.8794918263445
 31
0.0
  0
LINE
  5
5BF
330
1A
100
AcDbEntity
  8
NOKITOI
  6
PHANTOM
 62
     8
100
AcDbLine
 10
61.38419023462143
 20
90.27249182634452
 30
0.0
 11
60.88419023462143
 21
87.77249182634452
 31
0.0
  0
LINE
  5
5C0
330
1A
100
AcDbEntity
  8
NOKITOI
  6
PHANTOM
 62
     8
100
AcDbLine
 10
60.88419023462143
 20
87.77249182634452
 30
0.0
 11
63.82069023462122
 21
87.77249182634452
 31
0.0
  0
LINE
  5
5C1
330
1A
100
AcDbEntity
  8
NOKITOI
  6
PHANTOM
 62
     8
100
AcDbLine
 10
58.91139023462097
 20
91.47249182634434
 30
0.0
 11
62.23799023462129
 21
91.47249182634434
 31
0.0
  0
LINE
  5
5C2
330
1A
100
AcDbEntity
  8
NOKITOI
  6
PHANTOM
 62
     8
100
AcDbLine
 10
58.91139023462097
 20
90.27249182634452
 30
0.0
 11
61.38419023462143
 21
90.27249182634452
 31
0.0
  0
ARC
  5
5C3
330
1A
100
AcDbEntity
  8
NOKITOI
  6
PHANTOM
 62
     8
100
AcDbCircle
 10
58.91139472941927
 20
89.47249646387124
 30
0.0
 40
0.7999953624857498
100
AcDbArc
 50
90.00032191805264
 51
181.7911273464193
  0
ARC
  5
5C4
330
1A
100
AcDbEntity
  8
NOKITOI
  6
PHANTOM
 62
     8
100
AcDbCircle
 10
62.23798945161274
 20
90.97249278134606
 30
0.0
 40
0.4999990449987349
100
AcDbArc
 50
348.6967198015447
 51
89.99991027369492
  0
ARC
  5
5C5
330
1A
100
AcDbEntity
  8
NOKITOI
  6
PHANTOM
 62
     8
100
AcDbCircle
 10
62.95778298006576
 20
89.47250067618776
 30
0.0
 40
0.5000088498959383
100
AcDbArc
 50
168.6864043304892
 51
270.0008312961442
  0
LINE
  5
5C6
330
1A
100
AcDbEntity
  8
NOKITOI
  6
PHANTOM
 62
     8
100
AcDbLine
 10
62.46749023462121
 20
89.57059182634427
 30
0.0
 11
62.72829023462122
 21
90.87449182634438
 31
0.0
  0
LINE
  5
5C7
330
1A
100
AcDbEntity
  8
NOKITOI
  6
PHANTOM
 62
     8
100
AcDbLine
 10
62.82489023462153
 20
86.67249182634439
 30
0.0
 11
62.36299023462129
 21
86.67249182634439
 31
0.0
  0
LINE
  5
5C8
330
1A
100
AcDbEntity
  8
NOKITOI
  6
PHANTOM
 62
     8
100
AcDbLine
 10
62.82489023462153
 20
86.67249182634439
 30
0.0
 11
63.82069023462122
 21
87.77249182634452
 31
0.0
  0
LINE
  5
5C9
330
1A
100
AcDbEntity
  8
NOKITOI
  6
PHANTOM
 62
     8
100
AcDbLine
 10
65.37289023462131
 20
82.44629182634431
 30
0.0
 11
65.68869023462116
 21
88.44619182634435
 31
0.0
  0
ARC
  5
5CA
330
1A
100
AcDbEntity
  8
NOKITOI
  6
PHANTOM
 62
     8
100
AcDbCircle
 10
65.18928403346331
 20
88.47249836142962
 30
0.0
 40
0.4999934649531607
100
AcDbArc
 50
356.9955363203376
 51
89.99928939038076
  0
LINE
  5
5CB
330
1A
100
AcDbEntity
  8
NOKITOI
  6
PHANTOM
 62
     8
100
AcDbLine
 10
149.4908902346212
 20
36.47239182634436
 30
0.0
 11
129.3329902346215
 21
36.47239182634436
 31
0.0
  0
LINE
  5
5CC
330
1A
100
AcDbEntity
  8
NOKITOI
  6
PHANTOM
 62
     8
100
AcDbLine
 10
149.2410902346211
 20
37.6723918263444
 30
0.0
 11
129.3329902346215
 21
37.6723918263444
 31
0.0
  0
LINE
  5
5CD
330
1A
100
AcDbEntity
  8
NOKITOI
  6
PHANTOM
 62
     8
100
AcDbLine
 10
153.4908902346212
 20
36.47239182634436
 30
0.0
 11
108.6614902346211
 21
36.47249182634434
 31
0.0
  0
LINE
  5
5CE
330
1A
100
AcDbEntity
  8
NOKITOI
  6
PHANTOM
 62
     8
100
AcDbLine
 10
108.6614902346211
 20
37.67249182634438
 30
0.0
 11
153.2410902346211
 21
37.6723918263444
 31
0.0
  0
LINE
  5
5CF
330
1A
100
AcDbEntity
  8
NOKITOI
  6
PHANTOM
 62
     8
100
AcDbLine
 10
175.2453902346212
 20
78.6098918263444
 30
0.0
 11
175.3308902346209
 21
81.34749182634434
 31
0.0
  0
LINE
  5
5D0
330
1A
100
AcDbEntity
  8
NOKITOI
  6
PHANTOM
 62
     8
100
AcDbLine
 10
176.7833902346212
 20
89.40999182634433
 30
0.0
 11
176.3932902346211
 21
76.92559182634429
 31
0.0
  0
LINE
  5
5D1
330
1A
100
AcDbEntity
  8
NOKITOI
  6
PHANTOM
 62
     8
100
AcDbLine
 10
174.8939902346212
 20
75.47249182634434
 30
0.0
 11
168.7528902346213
 21
75.47249182634434
 31
0.0
  0
LINE
  5
5D2
330
1A
100
AcDbEntity
  8
NOKITOI
  6
PHANTOM
 62
     8
100
AcDbLine
 10
167.2143902346208
 20
76.67249182634439
 30
0.0
 11
173.2462902346212
 21
76.67249182634439
 31
0.0
  0
LINE
  5
5D3
330
1A
100
AcDbEntity
  8
NOKITOI
  6
PHANTOM
 62
     8
100
AcDbLine
 10
167.7578902346215
 20
74.57199182634437
 30
0.0
 11
164.8890902346213
 21
45.88459182634434
 31
0.0
  0
LINE
  5
5D4
330
1A
100
AcDbEntity
  8
NOKITOI
  6
PHANTOM
 62
     8
100
AcDbLine
 10
166.7168902346213
 20
76.22229182634439
 30
0.0
 11
163.7238902346209
 21
46.29249182634427
 31
0.0
  0
LINE
  5
5D5
330
1A
100
AcDbEntity
  8
NOKITOI
  6
PHANTOM
 62
     8
100
AcDbLine
 10
164.5272902346211
 20
45.2100918263445
 30
0.0
 11
154.1241902346211
 21
36.69839182634447
 31
0.0
  0
LINE
  5
5D6
330
1A
100
AcDbEntity
  8
NOKITOI
  6
PHANTOM
 62
     8
100
AcDbLine
 10
163.5429902346215
 20
45.95519182634435
 30
0.0
 11
153.5576902346212
 21
37.78539182634423
 31
0.0
  0
ARC
  5
5D7
330
1A
100
AcDbEntity
  8
NOKITOI
  6
PHANTOM
 62
     8
100
AcDbCircle
 10
153.4908833020437
 20
37.47238935133825
 30
0.0
 40
0.9999975250179316
100
AcDbArc
 50
270.0003972084035
 51
309.2946416752299
  0
ARC
  5
5D8
330
1A
100
AcDbEntity
  8
NOKITOI
  6
PHANTOM
 62
     8
100
AcDbCircle
 10
153.2410966223698
 20
38.17239410633394
 30
0.0
 40
0.5000022800304047
100
AcDbArc
 50
269.9992680212791
 51
309.2854498596061
  0
ARC
  5
5D9
330
1A
100
AcDbEntity
  8
NOKITOI
  6
PHANTOM
 62
     8
100
AcDbCircle
 10
163.8940676617523
 20
45.98404975467175
 30
0.0
 40
0.9999908507640039
100
AcDbArc
 50
309.288709223069
 51
354.2862329477532
  0
ARC
  5
5DA
330
1A
100
AcDbEntity
  8
NOKITOI
  6
PHANTOM
 62
     8
100
AcDbCircle
 10
163.2263728087429
 20
46.3421593399564
 30
0.0
 40
0.4999904508696396
100
AcDbArc
 50
309.2900846377951
 51
354.2990110749239
  0
ARC
  5
5DB
330
1A
100
AcDbEntity
  8
NOKITOI
  6
PHANTOM
 62
     8
100
AcDbCircle
 10
168.7529108844621
 20
74.47251051419354
 30
0.0
 40
0.9999813123640345
100
AcDbArc
 50
90.00118317084911
 51
174.2905900333514
  0
ARC
  5
5DC
330
1A
100
AcDbEntity
  8
NOKITOI
  6
PHANTOM
 62
     8
100
AcDbCircle
 10
167.2144033056258
 20
76.17250365662423
 30
0.0
 40
0.499988169890889
100
AcDbArc
 50
90.00149786226634
 51
174.2966061377162
  0
ARC
  5
5DD
330
1A
100
AcDbEntity
  8
NOKITOI
  6
PHANTOM
 62
     8
100
AcDbCircle
 10
174.8940074477993
 20
76.97250850949214
 30
0.0
 40
1.500016683246579
100
AcDbArc
 50
269.9993425123344
 51
358.2076423244113
  0
ARC
  5
5DE
330
1A
100
AcDbEntity
  8
NOKITOI
  6
PHANTOM
 62
     8
100
AcDbCircle
 10
173.2463282224455
 20
78.67242864691658
 30
0.0
 40
2.000036820932882
100
AcDbArc
 50
269.9989117490344
 51
358.2110591274195
  0
LINE
  5
5DF
330
1A
100
AcDbEntity
  8
NOKITOI
  6
PHANTOM
 62
     8
100
AcDbLine
 10
174.7843902346214
 20
91.47239182634436
 30
0.0
 11
171.4577902346211
 21
91.47249182634434
 31
0.0
  0
LINE
  5
5E0
330
1A
100
AcDbEntity
  8
NOKITOI
  6
PHANTOM
 62
     8
100
AcDbLine
 10
172.8116902346211
 20
87.77249182634452
 30
0.0
 11
169.8750902346211
 21
87.77249182634452
 31
0.0
  0
ARC
  5
5E1
330
1A
100
AcDbEntity
  8
NOKITOI
  6
PHANTOM
 62
     8
100
AcDbCircle
 10
171.7276196071208
 20
84.95012205883924
 30
0.0
 40
0.4999578477751074
100
AcDbArc
 50
83.52609071220754
 51
188.1330561712932
  0
ARC
  5
5E2
330
1A
100
AcDbEntity
  8
NOKITOI
  6
PHANTOM
 62
     8
100
AcDbCircle
 10
171.33287236827
 20
81.47250055472429
 30
0.0
 40
5.199991271650611
100
AcDbArc
 50
37.92532860472995
 51
89.9998031407256
  0
LINE
  5
5E3
330
1A
100
AcDbEntity
  8
NOKITOI
  6
PHANTOM
 62
     8
100
AcDbLine
 10
169.4863902346212
 20
83.17249182634439
 30
0.0
 11
169.3052902346209
 21
86.61389182634431
 31
0.0
  0
LINE
  5
5E4
330
1A
100
AcDbEntity
  8
NOKITOI
  6
PHANTOM
 62
     8
100
AcDbLine
 10
169.8602902346212
 20
86.00089182634425
 30
0.0
 11
169.3052902346209
 21
86.61389182634431
 31
0.0
  0
LINE
  5
5E5
330
1A
100
AcDbEntity
  8
NOKITOI
  6
PHANTOM
 62
     8
100
AcDbLine
 10
168.3229902346212
 20
82.44619182634435
 30
0.0
 11
168.007190234621
 21
88.44619182634435
 31
0.0
  0
LINE
  5
5E6
330
1A
100
AcDbEntity
  8
NOKITOI
  6
PHANTOM
 62
     8
100
AcDbLine
 10
170.2642902346207
 20
83.17249182634439
 30
0.0
 11
169.8602902346212
 21
86.00089182634425
 31
0.0
  0
LINE
  5
5E7
330
1A
100
AcDbEntity
  8
NOKITOI
  6
PHANTOM
 62
     8
100
AcDbLine
 10
169.4863902346212
 20
83.17249182634439
 30
0.0
 11
170.2642902346207
 21
83.17249182634439
 31
0.0
  0
LINE
  5
5E8
330
1A
100
AcDbEntity
  8
NOKITOI
  6
PHANTOM
 62
     8
100
AcDbLine
 10
168.8222902346212
 20
81.97249182634434
 30
0.0
 11
171.0713902346207
 21
81.97249182634434
 31
0.0
  0
ARC
  5
5E9
330
1A
100
AcDbEntity
  8
NOKITOI
  6
PHANTOM
 62
     8
100
AcDbCircle
 10
168.8222943560278
 20
82.47248791631383
 30
0.0
 40
0.4999960899864752
100
AcDbArc
 50
183.0147243791741
 51
269.9995277178593
  0
ARC
  5
5EA
330
1A
100
AcDbEntity
  8
NOKITOI
  6
PHANTOM
 62
     8
100
AcDbCircle
 10
171.0714004210574
 20
82.47250357106848
 30
0.0
 40
0.5000117448278309
100
AcDbArc
 50
269.9988327478016
 51
8.127314608715551
  0
LINE
  5
5EB
330
1A
100
AcDbEntity
  8
NOKITOI
  6
PHANTOM
 62
     8
100
AcDbLine
 10
171.5663902346211
 20
82.54319182634432
 30
0.0
 11
171.2325902346212
 21
84.87939182634452
 31
0.0
  0
LINE
  5
5EC
330
1A
100
AcDbEntity
  8
NOKITOI
  6
PHANTOM
 62
     8
100
AcDbLine
 10
168.5064902346214
 20
88.97249182634434
 30
0.0
 11
170.7379902346212
 21
88.97249182634434
 31
0.0
  0
ARC
  5
5ED
330
1A
100
AcDbEntity
  8
NOKITOI
  6
PHANTOM
 62
     8
100
AcDbCircle
 10
168.5064939441164
 20
88.47249573637506
 30
0.0
 40
0.4999960899831856
100
AcDbArc
 50
90.00042508015082
 51
183.0156217414647
  0
ARC
  5
5EE
330
1A
100
AcDbEntity
  8
NOKITOI
  6
PHANTOM
 62
     8
100
AcDbCircle
 10
171.4577829800657
 20
90.97248297650091
 30
0.0
 40
0.500008849895925
100
AcDbArc
 50
89.99916870385415
 51
191.3135956695126
  0
ARC
  5
5EF
330
1A
100
AcDbEntity
  8
NOKITOI
  6
PHANTOM
 62
     8
100
AcDbCircle
 10
170.7379894516127
 20
89.47249087134261
 30
0.0
 40
0.4999990449987399
100
AcDbArc
 50
270.000089726305
 51
11.30328019845521
  0
LINE
  5
5F0
330
1A
100
AcDbEntity
  8
NOKITOI
  6
PHANTOM
 62
     8
100
AcDbLine
 10
171.2282902346212
 20
89.57049182634452
 30
0.0
 11
170.9674902346211
 21
90.87449182634438
 31
0.0
  0
LINE
  5
5F1
330
1A
100
AcDbEntity
  8
NOKITOI
  6
PHANTOM
 62
     8
100
AcDbLine
 10
170.8708902346213
 20
86.67249182634439
 30
0.0
 11
171.3328902346213
 21
86.67249182634439
 31
0.0
  0
LINE
  5
5F2
330
1A
100
AcDbEntity
  8
NOKITOI
  6
PHANTOM
 62
     8
100
AcDbLine
 10
170.8708902346213
 20
86.67249182634439
 30
0.0
 11
169.8750902346211
 21
87.77249182634452
 31
0.0
  0
LINE
  5
5F3
330
1A
100
AcDbEntity
  8
NOKITOI
  6
PHANTOM
 62
     8
100
AcDbLine
 10
175.5839902346208
 20
89.44749182634424
 30
0.0
 11
175.4346902346212
 21
84.66849182634447
 31
0.0
  0
ARC
  5
5F4
330
1A
100
AcDbEntity
  8
NOKITOI
  6
PHANTOM
 62
     8
100
AcDbCircle
 10
171.332859307685
 20
81.47252757100815
 30
0.0
 40
3.99998565374706
100
AcDbArc
 50
358.208696659101
 51
83.52422380468341
  0
ARC
  5
5F5
330
1A
100
AcDbEntity
  8
NOKITOI
  6
PHANTOM
 62
     8
100
AcDbCircle
 10
174.784378997627
 20
89.47250342016147
 30
0.0
 40
1.999988406214315
100
AcDbArc
 50
358.2088726535936
 51
89.99967808195551
  0
LINE
  5
5F6
330
1A
100
AcDbEntity
  8
NOKITOI
  6
PHANTOM
 62
     8
100
AcDbLine
 10
174.7843902346214
 20
90.27239182634431
 30
0.0
 11
172.3116902346211
 21
90.27249182634452
 31
0.0
  0
LINE
  5
5F7
330
1A
100
AcDbEntity
  8
NOKITOI
  6
PHANTOM
 62
     8
100
AcDbLine
 10
172.3116902346211
 20
90.27249182634452
 30
0.0
 11
172.8116902346211
 21
87.77249182634452
 31
0.0
  0
ARC
  5
5F8
330
1A
100
AcDbEntity
  8
NOKITOI
  6
PHANTOM
 62
     8
100
AcDbCircle
 10
174.7844342009741
 20
89.47244646387137
 30
0.0
 40
0.7999453636812564
100
AcDbArc
 50
358.2123436447881
 51
90.00314907315425
  0
LINE
  5
1D19
330
1A
100
AcDbEntity
  8
SEIHIN
100
AcDbLine
 10
136.0391661546087
 20
86.26527826950407
 30
0.0
 11
148.8266527113934
 21
99.05276492634442
 31
0.0
  0
ARC
  5
1D1B
330
1A
100
AcDbEntity
  8
SEIHIN
100
AcDbCircle
 10
135.3391661113934
 20
86.47949182634441
 30
0.0
 40
5.500000002456481
100
AcDbArc
 50
270.0
 51
315.0
  0
LINE
  5
1D1E
330
1A
100
AcDbEntity
  8
SEIHIN
100
AcDbLine
 10
70.22802071139347
 20
73.37949182634439
 30
0.0
 11
138.6528746113934
 21
73.37949182634439
 31
0.0
  0
LINE
  5
1D23
330
1A
100
AcDbEntity
  8
SEIHIN
100
AcDbLine
 10
135.3320593330288
 20
86.97238504792423
 30
0.0
 11
148.1195459113934
 21
99.7598717263444
 31
0.0
  0
LINE
  5
1D24
330
1A
100
AcDbEntity
  8
CENTER_L
100
AcDbLine
 10
122.8244475113934
 20
95.87009470045178
 30
0.0
 11
122.8244475113934
 21
70.93107724846946
 31
0.0
  0
LINE
  5
1D2A
330
1A
100
AcDbEntity
  8
SEIHIN
100
AcDbLine
 10
112.8244475113934
 20
86.67949182634442
 30
0.0
 11
112.8244475113934
 21
81.17949182634442
 31
0.0
  0
LINE
  5
1D2C
330
1A
100
AcDbEntity
  8
SEIHIN
100
AcDbLine
 10
62.62444751139344
 20
80.97949182634442
 30
0.0
 11
135.3393304931369
 21
80.97949182634442
 31
0.0
  0
ARC
  5
1D41
330
1A
100
AcDbEntity
  8
SEIHIN
100
AcDbCircle
 10
70.22802071139347
 20
74.97949182634441
 30
0.0
 40
1.599999992064534
100
AcDbArc
 50
185.0000004668387
 51
270.0
  0
LINE
  5
1D42
330
1A
100
AcDbEntity
  8
SEIHIN
100
AcDbLine
 10
63.42444751139339
 20
78.37949182634439
 30
0.0
 11
68.32444751139343
 21
78.37949182634439
 31
0.0
  0
ARC
  5
1D43
330
1A
100
AcDbEntity
  8
SEIHIN
100
AcDbCircle
 10
63.42444751139339
 20
81.47949182634441
 30
0.0
 40
3.100000000000008
100
AcDbArc
 50
180.0
 51
270.0
  0
LINE
  5
1D44
330
1A
100
AcDbEntity
  8
SEIHIN
100
AcDbLine
 10
60.32444751139343
 20
85.3794918263444
 30
0.0
 11
62.12444751139344
 21
85.3794918263444
 31
0.0
  0
ARC
  5
1D45
330
1A
100
AcDbEntity
  8
SEIHIN
100
AcDbCircle
 10
62.62444751139344
 20
81.47949182634441
 30
0.0
 40
0.5
100
AcDbArc
 50
180.0
 51
270.0
  0
LINE
  5
1D46
330
1A
100
AcDbEntity
  8
SEIHIN
100
AcDbLine
 10
60.32444751139343
 20
85.3794918263444
 30
0.0
 11
60.32444751139343
 21
81.47949182634441
 31
0.0
  0
LINE
  5
1D47
330
1A
100
AcDbEntity
  8
SEIHIN
100
AcDbLine
 10
62.12444751139344
 20
85.3794918263444
 30
0.0
 11
62.12444751139344
 21
81.47949182634441
 31
0.0
  0
LINE
  5
1D48
330
1A
100
AcDbEntity
  8
SEIHIN
100
AcDbLine
 10
68.63410921139342
 20
74.84004262634441
 30
0.0
 11
68.09697697162699
 21
80.9794918263444
 31
0.0
  0
LINE
  5
1D4B
330
1A
100
AcDbEntity
  8
SEIHIN
100
AcDbLine
 10
112.8244475113934
 20
85.67949182634441
 30
0.0
 11
134.6249525867028
 21
85.67949182634441
 31
0.0
  0
LINE
  5
1D4D
330
1A
100
AcDbEntity
  8
SEIHIN
100
AcDbLine
 10
112.8244475113934
 20
80.97949182634442
 30
0.0
 11
135.3391661113934
 21
80.97949182634442
 31
0.0
  0
ARC
  5
1D5C
330
1A
100
AcDbEntity
  8
SEIHIN
100
AcDbCircle
 10
122.8244475113934
 20
80.78886682634442
 30
0.0
 40
7.890625
100
AcDbArc
 50
48.29108392084388
 51
131.708916079156
  0
LINE
  5
1D5D
330
1A
100
AcDbEntity
  8
SEIHIN
100
AcDbLine
 10
112.8244475113934
 20
86.67949182634442
 30
0.0
 11
134.6249525490759
 21
86.67949182634441
 31
0.0
  0
LINE
  5
1D5E
330
1A
100
AcDbEntity
  8
SEIHIN
100
AcDbLine
 10
365.7482429775483
 20
96.9148208263444
 30
0.0
 11
365.7482429775483
 21
72.5118638263444
 31
0.0
  0
LINE
  5
1D60
330
1A
100
AcDbEntity
  8
CENTER_L
100
AcDbLine
 10
355.7482429775483
 20
151.7292637283384
 30
0.0
 11
355.7482429775483
 21
67.4323642263444
 31
0.0
  0
LINE
  5
1D61
330
1A
100
AcDbEntity
  8
SEIHIN
100
AcDbLine
 10
365.7482429775483
 20
142.0934701263444
 30
0.0
 11
365.7482429775483
 21
96.91482082634438
 31
0.0
  0
LINE
  5
1D62
330
1A
100
AcDbEntity
  8
SEIHIN
100
AcDbLine
 10
368.3482429775484
 20
95.41482082634439
 30
0.0
 11
368.3482429775484
 21
73.37949182634439
 31
0.0
  0
LINE
  5
1D63
330
1A
100
AcDbEntity
  8
SEIHIN
100
AcDbLine
 10
351.7482429775483
 20
96.9148208263444
 30
0.0
 11
351.7482429775483
 21
73.0118638263444
 31
0.0
  0
LINE
  5
1D64
330
1A
100
AcDbEntity
  8
SEIHIN
100
AcDbLine
 10
359.7482429775483
 20
96.9148208263444
 30
0.0
 11
359.7482429775483
 21
73.0118638263444
 31
0.0
  0
LINE
  5
1D65
330
1A
100
AcDbEntity
  8
SEIHIN
100
AcDbLine
 10
182.3244475113934
 20
92.47949182634442
 30
0.0
 11
182.3244475113934
 21
75.45397414891624
 31
0.0
  0
LINE
  5
1D66
330
1A
100
AcDbEntity
  8
SEIHIN
100
AcDbLine
 10
345.7482429775483
 20
142.0934701263444
 30
0.0
 11
345.7482429775483
 21
96.91482082634438
 31
0.0
  0
LINE
  5
1D67
330
1A
100
AcDbEntity
  8
SEIHIN
100
AcDbLine
 10
178.7244475113934
 20
92.47949182634442
 30
0.0
 11
178.7244475113934
 21
75.50638192634441
 31
0.0
  0
LINE
  5
1D68
330
1A
100
AcDbEntity
  8
SEIHIN
100
AcDbLine
 10
181.3244475113934
 20
92.47949182634442
 30
0.0
 11
181.3244475113934
 21
75.50638192634441
 31
0.0
  0
LINE
  5
1D6A
330
1A
100
AcDbEntity
  8
SEIHIN
100
AcDbLine
 10
343.1482429775483
 20
95.41482082634439
 30
0.0
 11
343.1482429775483
 21
73.37949182634439
 31
0.0
  0
LINE
  5
1D6B
330
1A
100
AcDbEntity
  8
SEIHIN
100
AcDbLine
 10
345.7482429775483
 20
96.9148208263444
 30
0.0
 11
345.7482429775483
 21
72.5118638263444
 31
0.0
  0
LINE
  5
1D6C
330
1A
100
AcDbEntity
  8
SEIHIN
100
AcDbLine
 10
142.2591192113934
 20
74.87324722634439
 30
0.0
 11
156.6589491703821
 21
89.27307726257311
 31
0.0
  0
LINE
  5
1D6E
330
1A
100
AcDbEntity
  8
SEIHIN
100
AcDbLine
 10
139.2282534113934
 20
82.59040452634442
 30
0.0
 11
151.0588030063383
 21
94.42095412128935
 31
0.0
  0
LINE
  5
1D79
330
1A
100
AcDbEntity
  8
SEIHIN
100
AcDbLine
 10
153.3056738113934
 20
71.97441472634439
 30
0.0
 11
165.2487202113934
 21
77.79942762634441
 31
0.0
  0
LINE
  5
1D7A
330
1A
100
AcDbEntity
  8
SEIHIN
100
AcDbLine
 10
153.9632304113934
 20
70.62622352634439
 30
0.0
 11
165.2487202113934
 21
76.1305247263444
 31
0.0
  0
LINE
  5
1D7B
330
1A
100
AcDbEntity
  8
SEIHIN
100
AcDbLine
 10
153.1303254113934
 20
72.3339323263444
 30
0.0
 11
164.9733717113934
 21
78.11017192634439
 31
0.0
  0
LINE
  5
1D7D
330
1A
100
AcDbEntity
  8
SEIHIN
100
AcDbLine
 10
142.2479754624673
 20
74.8621378229827
 30
0.0
 11
151.3802623113934
 21
70.6036825263444
 31
0.0
  0
ARC
  5
1D7E
330
1A
100
AcDbEntity
  8
SEIHIN
100
AcDbCircle
 10
138.6528746113934
 20
78.47949182634441
 30
0.0
 40
5.100000011277387
100
AcDbArc
 50
270.0
 51
315.0
  0
LINE
  5
1D7F
330
1A
100
AcDbEntity
  8
SEIHIN
100
AcDbLine
 10
143.6777247870115
 20
76.29185280957185
 30
0.0
 11
152.1832371113934
 21
72.3256673263444
 31
0.0
  0
LINE
  5
1D80
330
1A
100
AcDbEntity
  8
SEIHIN
100
AcDbLine
 10
143.376729877327
 20
75.99085789827281
 30
0.0
 11
152.0141898113934
 21
71.9631442263444
 31
0.0
  0
ARC
  5
1D81
330
1A
100
AcDbEntity
  8
SEIHIN
100
AcDbCircle
 10
152.6481172113934
 20
73.3226058263444
 30
0.0
 40
1.499999997384386
100
AcDbArc
 50
244.9999984438223
 51
295.9999936879063
  0
ARC
  5
1D83
330
1A
100
AcDbEntity
  8
SEIHIN
100
AcDbCircle
 10
152.6481172113934
 20
73.3226058263444
 30
0.0
 40
1.099999981342675
100
AcDbArc
 50
244.9999979823536
 51
295.9999960018844
  0
ARC
  5
1D84
330
1A
100
AcDbEntity
  8
SEIHIN
100
AcDbCircle
 10
152.6481172113934
 20
73.3226058263444
 30
0.0
 40
2.9999999920909
100
AcDbArc
 50
244.9999949819811
 51
295.999994525133
  0
ARC
  5
1D86
330
1A
100
AcDbEntity
  8
SEIHIN
100
AcDbCircle
 10
163.3198871113934
 20
81.7541214263444
 30
0.0
 40
4.400000010194002
100
AcDbArc
 50
296.0000006547247
 51
359.9999934891161
  0
ARC
  5
1D87
330
1A
100
AcDbEntity
  8
SEIHIN
100
AcDbCircle
 10
163.2198871113934
 20
81.70534812634439
 30
0.0
 40
4.000000009467725
100
AcDbArc
 50
296.0000000723986
 51
0.0
  0
LINE
  5
1D88
330
1A
100
AcDbEntity
  8
SEIHIN
100
AcDbLine
 10
167.7198871113934
 20
80.0852180263444
 30
0.0
 11
167.7198871113934
 21
84.21344862634439
 31
0.0
  0
ARC
  5
1D8A
330
1A
100
AcDbEntity
  8
SEIHIN
100
AcDbCircle
 10
163.3198871113934
 20
80.08521852634441
 30
0.0
 40
4.400000010194002
100
AcDbArc
 50
296.0000006547247
 51
359.9999934891161
  0
LINE
  5
1D8B
330
1A
100
AcDbEntity
  8
SEIHIN
100
AcDbLine
 10
167.2198871113934
 20
84.21344862634439
 30
0.0
 11
167.7198871113934
 21
84.21344862634439
 31
0.0
  0
LINE
  5
1D8C
330
1A
100
AcDbEntity
  8
SEIHIN
100
AcDbLine
 10
167.2198871113934
 20
81.70534812634439
 30
0.0
 11
167.2198871113934
 21
84.21344862634439
 31
0.0
  0
LINE
  5
1D92
330
1A
100
AcDbEntity
  8
SEIHIN
100
AcDbLine
 10
171.8340407113934
 20
75.34584352634441
 30
0.0
 11
171.7032008536604
 21
72.84926972937007
 31
0.0
  0
ARC
  5
1D93
330
1A
100
AcDbEntity
  8
SEIHIN
100
AcDbCircle
 10
178.3244475113934
 20
75.50638192634441
 30
0.0
 40
2.999999998689364
100
AcDbArc
 50
266.9999993993207
 51
0.0
  0
LINE
  5
1D94
330
1A
100
AcDbEntity
  8
SEIHIN
100
AcDbLine
 10
179.167439640364
 20
72.45808554477308
 30
0.0
 11
171.7032009113934
 21
72.84926972634441
 31
0.0
  0
LINE
  5
1D96
330
1A
100
AcDbEntity
  8
SEIHIN
100
AcDbLine
 10
178.3035131113934
 20
75.1069301263444
 30
0.0
 11
171.8392743113934
 21
75.4457065263444
 31
0.0
  0
ARC
  5
1D97
330
1A
100
AcDbEntity
  8
SEIHIN
100
AcDbCircle
 10
178.3244475113934
 20
75.50638192634441
 30
0.0
 40
0.3999999935166316
100
AcDbArc
 50
266.999997392128
 51
0.0
  0
LINE
  5
1D9E
330
1A
100
AcDbEntity
  8
SEIHIN
100
AcDbLine
 10
343.1482429775483
 20
73.37949182634439
 30
0.0
 11
345.7482429775483
 21
73.37949182634439
 31
0.0
  0
LINE
  5
1DA4
330
1A
100
AcDbEntity
  8
SEIHIN
100
AcDbLine
 10
345.7482429775483
 20
72.5118638263444
 30
0.0
 11
365.7482429775483
 21
72.5118638263444
 31
0.0
  0
LINE
  5
1DA6
330
1A
100
AcDbEntity
  8
SEIHIN
100
AcDbLine
 10
365.7482429775483
 20
73.37949182634439
 30
0.0
 11
368.3482429775484
 21
73.37949182634439
 31
0.0
  0
ARC
  5
1DA7
330
1A
100
AcDbEntity
  8
SEIHIN
100
AcDbCircle
 10
383.7482429775484
 20
139.0934701263444
 30
0.0
 40
3.0
100
AcDbArc
 50
0.0000019098594751
 51
90.0
  0
ARC
  5
1DA8
330
1A
100
AcDbEntity
  8
SEIHIN
100
AcDbCircle
 10
383.7482429775484
 20
110.0934701263444
 30
0.0
 40
3.000000000000003
100
AcDbArc
 50
270.0
 51
0.0000038197189503
  0
LINE
  5
1DA9
330
1A
100
AcDbEntity
  8
SEIHIN
100
AcDbLine
 10
247.7248646113934
 20
142.0934701263444
 30
0.0
 11
247.7248646113934
 21
107.0934701263444
 31
0.0
  0
LINE
  5
1DAB
330
1A
100
AcDbEntity
  8
SEIHIN
100
AcDbLine
 10
254.3248646113934
 20
142.0934701263444
 30
0.0
 11
254.3248646113934
 21
107.0934701263444
 31
0.0
  0
LINE
  5
1DAC
330
1A
100
AcDbEntity
  8
SEIHIN
100
AcDbLine
 10
252.7248646113934
 20
142.0934701263444
 30
0.0
 11
252.7248646113934
 21
107.0934701263444
 31
0.0
  0
LINE
  5
1DAE
330
1A
100
AcDbEntity
  8
SEIHIN
100
AcDbLine
 10
176.5889357113934
 20
96.91619122634438
 30
0.0
 11
154.0050871113934
 21
95.73262192634439
 31
0.0
  0
LINE
  5
1DB0
330
1A
100
AcDbEntity
  8
SEIHIN
100
AcDbLine
 10
245.0399895113934
 20
103.4190479263443
 30
0.0
 11
152.3755565113934
 21
101.6547697263443
 31
0.0
  0
LINE
  5
1DB1
330
1A
100
AcDbEntity
  8
SEIHIN
100
AcDbLine
 10
248.3772005113934
 20
102.5925713263444
 30
0.0
 11
152.4278925113934
 21
100.6561402263444
 31
0.0
  0
LINE
  5
1DB3
330
1A
100
AcDbEntity
  8
SEIHIN
100
AcDbLine
 10
176.7250092113934
 20
94.31975442634438
 30
0.0
 11
162.3244475113934
 21
93.56505301618536
 31
0.0
  0
ARC
  5
1DB6
330
1A
100
AcDbEntity
  8
SEIHIN
100
AcDbCircle
 10
154.2405989113934
 20
91.23878902634443
 30
0.0
 40
4.499999985879004
100
AcDbArc
 50
92.99999996493296
 51
135.0
  0
ARC
  5
1DB8
330
1A
100
AcDbEntity
  8
SEIHIN
100
AcDbCircle
 10
152.7157402113934
 20
95.16367772634442
 30
0.0
 40
5.500000065643712
100
AcDbArc
 50
92.99999935063343
 51
135.0000022098678
  0
ARC
  5
1DB9
330
1A
100
AcDbEntity
  8
SEIHIN
100
AcDbCircle
 10
152.7157402113934
 20
95.16367772634442
 30
0.0
 40
6.500000024766264
100
AcDbArc
 50
92.99999897148103
 51
135.000002493184
  0
LINE
  5
1DBA
330
1A
100
AcDbEntity
  8
SEIHIN
100
AcDbLine
 10
249.3248646113934
 20
106.7967206263443
 30
0.0
 11
245.0399895113934
 21
103.4190479263443
 31
0.0
  0
ARC
  5
1DBB
330
1A
100
AcDbEntity
  8
SEIHIN
100
AcDbCircle
 10
176.8244475113934
 20
92.4223583263444
 30
0.0
 40
4.499999996725646
100
AcDbArc
 50
0.0
 51
92.99999996493296
  0
ARC
  5
1DBC
330
1A
100
AcDbEntity
  8
SEIHIN
100
AcDbCircle
 10
176.8244475113934
 20
92.4223583263444
 30
0.0
 40
5.500000030448694
100
AcDbArc
 50
0.0
 51
68.36289348814613
  0
ARC
  5
1DBD
330
1A
100
AcDbEntity
  8
SEIHIN
100
AcDbCircle
 10
176.8244475113934
 20
92.4223583263444
 30
0.0
 40
1.899999991552915
100
AcDbArc
 50
0.0
 51
92.99999951753015
  0
ARC
  5
1DBE
330
1A
100
AcDbEntity
  8
SEIHIN
100
AcDbCircle
 10
248.3248646113934
 20
103.5912009263444
 30
0.0
 40
5.50000003044868
100
AcDbArc
 50
273.0000003909445
 51
0.0
  0
LINE
  5
1DBF
330
1A
100
AcDbEntity
  8
SEIHIN
100
AcDbLine
 10
254.3248646113934
 20
107.0934701263444
 30
0.0
 11
247.7248646113934
 21
107.0934701263444
 31
0.0
  0
ARC
  5
1DC0
330
1A
100
AcDbEntity
  8
SEIHIN
100
AcDbCircle
 10
248.3248646113934
 20
103.5912009263444
 30
0.0
 40
1.000000031106234
100
AcDbArc
 50
272.9999965862871
 51
0.0
  0
LINE
  5
1DC1
330
1A
100
AcDbEntity
  8
SEIHIN
100
AcDbLine
 10
249.3248646113934
 20
107.0934701263444
 30
0.0
 11
249.3248646113934
 21
103.5912009263444
 31
0.0
  0
LINE
  5
1DC2
330
1A
100
AcDbEntity
  8
SEIHIN
100
AcDbLine
 10
253.8248646113934
 20
107.0934701263444
 30
0.0
 11
253.8248646113934
 21
103.5912009263444
 31
0.0
  0
LINE
  5
1DC3
330
1A
100
AcDbEntity
  8
SEIHIN
100
AcDbLine
 10
254.3248646113934
 20
142.0934701263444
 30
0.0
 11
247.7248646113934
 21
142.0934701263444
 31
0.0
  0
LINE
  5
1DC4
330
1A
100
AcDbEntity
  8
SEIHIN
100
AcDbLine
 10
366.2482429775483
 20
142.0934701263444
 30
0.0
 11
366.2482429775483
 21
107.0934701263444
 31
0.0
  0
LINE
  5
1DC7
330
1A
100
AcDbEntity
  8
CENTER_L
100
AcDbLine
 10
333.7482429775484
 20
140.1934701263444
 30
0.0
 11
333.7482429775484
 21
127.9934701263443
 31
0.0
  0
LINE
  5
1DC9
330
1A
100
AcDbEntity
  8
SEIHIN
100
AcDbLine
 10
324.7482429775483
 20
139.0934702263443
 30
0.0
 11
324.7482429775483
 21
110.0934703263444
 31
0.0
  0
LINE
  5
1DCA
330
1A
100
AcDbEntity
  8
SEIHIN
100
AcDbLine
 10
345.2482429775483
 20
142.0934701263444
 30
0.0
 11
345.2482429775483
 21
107.0934701263444
 31
0.0
  0
LINE
  5
1DCC
330
1A
100
AcDbEntity
  8
SEIHIN
100
AcDbLine
 10
352.7482429775484
 20
97.91482082634439
 30
0.0
 11
358.7482429775484
 21
97.91482082634439
 31
0.0
  0
ARC
  5
1DCF
330
1A
100
AcDbEntity
  8
SEIHIN
100
AcDbCircle
 10
327.7482429775484
 20
110.0934701263444
 30
0.0
 40
3.000000000000003
100
AcDbArc
 50
179.999996180281
 51
270.0
  0
LINE
  5
1DD1
330
1A
100
AcDbEntity
  8
SEIHIN
100
AcDbLine
 10
327.7482429775484
 20
107.0934701263444
 30
0.0
 11
345.7482429775483
 21
107.0934701263444
 31
0.0
  0
ARC
  5
1DD3
330
1A
100
AcDbEntity
  8
SEIHIN
100
AcDbCircle
 10
344.6482429775483
 20
95.41482082634439
 30
0.0
 40
1.5
100
AcDbArc
 50
90.0
 51
180.0
  0
LINE
  5
1DD5
330
1A
100
AcDbEntity
  8
SEIHIN
100
AcDbLine
 10
344.6482429775483
 20
96.9148208263444
 30
0.0
 11
351.3340294151753
 21
96.9148208263444
 31
0.0
  0
CIRCLE
  5
1DD8
330
1A
100
AcDbEntity
  8
SEIHIN
100
AcDbCircle
 10
333.7482429775484
 20
115.0934701263444
 30
0.0
 40
2.100000000000022
  0
LINE
  5
1DE0
330
1A
100
AcDbEntity
  8
SEIHIN
100
AcDbLine
 10
365.7482429775483
 20
107.0934701263444
 30
0.0
 11
383.7482429775484
 21
107.0934701263444
 31
0.0
  0
ARC
  5
1DE2
330
1A
100
AcDbEntity
  8
SEIHIN
100
AcDbCircle
 10
366.8482429775484
 20
95.41482082634439
 30
0.0
 40
1.5
100
AcDbArc
 50
0.0
 51
90.0
  0
LINE
  5
1DE4
330
1A
100
AcDbEntity
  8
SEIHIN
100
AcDbLine
 10
360.1624565399215
 20
96.9148208263444
 30
0.0
 11
366.8482429775484
 21
96.9148208263444
 31
0.0
  0
CIRCLE
  5
1DEB
330
1A
100
AcDbEntity
  8
SEIHIN
100
AcDbCircle
 10
377.7482429775484
 20
115.0934701263444
 30
0.0
 40
2.100000000000022
  0
LINE
  5
1DEE
330
1A
100
AcDbEntity
  8
SEIHIN
100
AcDbLine
 10
327.7482429775484
 20
142.0934701263444
 30
0.0
 11
383.7482429775484
 21
142.0934701263444
 31
0.0
  0
LINE
  5
1DEF
330
1A
100
AcDbEntity
  8
CENTER_L
100
AcDbLine
 10
327.6482429775483
 20
134.0934701263444
 30
0.0
 11
339.8482429775484
 21
134.0934701263444
 31
0.0
  0
LINE
  5
1DF2
330
1A
100
AcDbEntity
  8
SEIHIN
100
AcDbLine
 10
365.7482429775483
 20
142.0934701263444
 30
0.0
 11
345.7482429775483
 21
142.0934701263444
 31
0.0
  0
ARC
  5
1DF3
330
1A
100
AcDbEntity
  8
SEIHIN
100
AcDbCircle
 10
327.7482429775484
 20
139.0934701263444
 30
0.0
 40
3.0
100
AcDbArc
 50
90.0
 51
180.0
  0
CIRCLE
  5
1DF4
330
1A
100
AcDbEntity
  8
SEIHIN
100
AcDbCircle
 10
333.7482429775484
 20
134.0934701263444
 30
0.0
 40
2.100000000000022
  0
CIRCLE
  5
1E06
330
1A
100
AcDbEntity
  8
SEIHIN
100
AcDbCircle
 10
377.7482429775484
 20
134.0934701263444
 30
0.0
 40
2.100000000000022
  0
LINE
  5
1E0A
330
1A
100
AcDbEntity
  8
SEIHIN
100
AcDbLine
 10
386.7482429775483
 20
139.0934702263443
 30
0.0
 11
386.7482429775483
 21
110.0934703263444
 31
0.0
  0
LINE
  5
1EC3
330
1A
100
AcDbEntity
  8
SEIHIN
100
AcDbLine
 10
60.32444751139343
 20
237.5441126582334
 30
0.0
 11
68.09697697162693
 21
237.5441126582334
 31
0.0
  0
LINE
  5
1EC4
330
1A
100
AcDbEntity
  8
SEIHIN
100
AcDbLine
 10
253.3248646113934
 20
217.0441126582334
 30
0.0
 11
249.6248646113934
 21
217.0441126582334
 31
0.0
  0
LINE
  5
1EC5
330
1A
100
AcDbEntity
  8
SEIHIN
100
AcDbLine
 10
254.3248646113934
 20
196.5441126582334
 30
0.0
 11
252.7248646113934
 21
196.5441126582334
 31
0.0
  0
LINE
  5
1EC6
330
1A
100
AcDbEntity
  8
CENTER_L
100
AcDbLine
 10
261.3248646113934
 20
227.5441126582334
 30
0.0
 11
53.32444751139343
 21
227.5441126582334
 31
0.0
  0
LINE
  5
1EC7
330
1A
100
AcDbEntity
  8
SEIHIN
100
AcDbLine
 10
254.3248646113934
 20
216.0441126582334
 30
0.0
 11
254.3248646113934
 21
196.5441126582334
 31
0.0
  0
LINE
  5
1EC8
330
1A
100
AcDbEntity
  8
SEIHIN
100
AcDbLine
 10
247.7248646113934
 20
216.4441126582334
 30
0.0
 11
247.7248646113934
 21
238.6441126582333
 31
0.0
  0
LINE
  5
1EC9
330
1A
100
AcDbEntity
  8
SEIHIN
100
AcDbLine
 10
252.7248646113934
 20
196.5441126582334
 30
0.0
 11
252.7248646113934
 21
214.9441126582334
 31
0.0
  0
LINE
  5
1ECB
330
1A
100
AcDbEntity
  8
SEIHIN
100
AcDbLine
 10
60.32444751139343
 20
217.5441126582334
 30
0.0
 11
68.09697697162699
 21
217.5441126582334
 31
0.0
  0
LINE
  5
1ECC
330
1A
100
AcDbEntity
  8
SEIHIN
100
AcDbLine
 10
248.7248646113934
 20
215.4441126582334
 30
0.0
 11
252.2248646113934
 21
215.4441126582334
 31
0.0
  0
LINE
  5
1ECD
330
1A
100
AcDbEntity
  8
SEIHIN
100
AcDbLine
 10
249.3248646113934
 20
217.3441126582334
 30
0.0
 11
249.3248646113934
 21
237.7441126582334
 31
0.0
  0
ARC
  5
1ECE
330
1A
100
AcDbEntity
  8
SEIHIN
100
AcDbCircle
 10
253.3248646113934
 20
216.0441126582334
 30
0.0
 40
1.0
100
AcDbArc
 50
359.9999999999983
 51
90.0
  0
ARC
  5
1ECF
330
1A
100
AcDbEntity
  8
SEIHIN
100
AcDbCircle
 10
248.7248646113934
 20
216.4441126582334
 30
0.0
 40
1.0
100
AcDbArc
 50
180.0000000000016
 51
270.0
  0
ARC
  5
1ED0
330
1A
100
AcDbEntity
  8
SEIHIN
100
AcDbCircle
 10
252.2248646113934
 20
214.9441126582334
 30
0.0
 40
0.5
100
AcDbArc
 50
359.9999999999967
 51
89.99999999999674
  0
LINE
  5
1ED1
330
1A
100
AcDbEntity
  8
CENTER_L
100
AcDbLine
 10
245.7248646113934
 20
205.5441126582334
 30
0.0
 11
261.3248646113934
 21
205.5441126582334
 31
0.0
  0
LINE
  5
1ED8
330
1A
100
AcDbEntity
  8
CENTER_L
100
AcDbLine
 10
122.8244475113934
 20
212.5152409456822
 30
0.0
 11
122.8244475113934
 21
242.5729843707846
 31
0.0
  0
LINE
  5
1EDA
330
1A
100
AcDbEntity
  8
SEIHIN
100
AcDbLine
 10
112.8244475113934
 20
217.5441126582334
 30
0.0
 11
112.8244475113933
 21
237.5441126582334
 31
0.0
  0
LINE
  5
1F11
330
1A
100
AcDbEntity
  8
SEIHIN
100
AcDbLine
 10
162.3244475113934
 20
96.16862115078419
 30
0.0
 11
162.3244475113934
 21
90.51895802573438
 31
0.0
  0
LINE
  5
1F12
330
1A
100
AcDbEntity
  8
SEIHIN
100
AcDbLine
 10
161.3767834697181
 20
89.5203284910889
 30
0.0
 11
156.6589491703821
 21
89.27307726257311
 31
0.0
  0
ARC
  5
1F13
330
1A
100
AcDbEntity
  8
SEIHIN
100
AcDbCircle
 10
161.3244475113934
 20
90.51895802573438
 30
0.0
 40
1.0
100
AcDbArc
 50
273.0000001194438
 51
0.0
  0
ARC
  5
1F15
330
1A
100
AcDbEntity
  8
SEIHIN
100
AcDbCircle
 10
179.3244475113934
 20
75.45397414891624
 30
0.0
 40
3.0
100
AcDbArc
 50
266.9999999560026
 51
0.0
  0
LINE
  5
1F16
330
1A
100
AcDbEntity
  8
SEIHIN
100
AcDbLine
 10
248.6127124097996
 20
98.09873845675136
 30
0.0
 11
154.1967560619254
 21
96.24266690844885
 31
0.0
  0
ARC
  5
1F1E
330
1A
100
AcDbEntity
  8
SEIHIN
100
AcDbCircle
 10
352.7482429775484
 20
96.9148208263444
 30
0.0
 40
1.0
100
AcDbArc
 50
90.0
 51
160.5287793655085
  0
ARC
  5
1F1F
330
1A
100
AcDbEntity
  8
SEIHIN
100
AcDbCircle
 10
358.7482429775484
 20
96.9148208263444
 30
0.0
 40
1.0
100
AcDbArc
 50
19.47122063449142
 51
90.0
  0
LINE
  5
1F21
330
1A
100
AcDbEntity
  8
SEIHIN
100
AcDbLine
 10
360.1624565399215
 20
97.87189576787339
 30
0.0
 11
365.2482429775484
 21
97.87189576787341
 31
0.0
  0
LINE
  5
1F22
330
1A
100
AcDbEntity
  8
SEIHIN
100
AcDbLine
 10
352.7482429775484
 20
98.87189576787339
 30
0.0
 11
358.7482429775484
 21
98.87189576787339
 31
0.0
  0
LINE
  5
1F23
330
1A
100
AcDbEntity
  8
SEIHIN
100
AcDbLine
 10
352.7482429775484
 20
98.87189576787339
 30
0.0
 11
358.7482429775484
 21
98.87189576787339
 31
0.0
  0
ARC
  5
1F25
330
1A
100
AcDbEntity
  8
SEIHIN
100
AcDbCircle
 10
352.7482429775484
 20
97.87189576787339
 30
0.0
 40
1.0
100
AcDbArc
 50
90.0
 51
160.5287793655093
  0
ARC
  5
1F27
330
1A
100
AcDbEntity
  8
SEIHIN
100
AcDbCircle
 10
358.7482429775484
 20
97.87189576787339
 30
0.0
 40
1.0
100
AcDbArc
 50
19.47122063449065
 51
90.0
  0
LINE
  5
1F28
330
1A
100
AcDbEntity
  8
SEIHIN
100
AcDbLine
 10
346.2482429775483
 20
97.87189576787341
 30
0.0
 11
351.3340294151753
 21
97.87189576787335
 31
0.0
  0
ARC
  5
1F2B
330
1A
100
AcDbEntity
  8
SEIHIN
100
AcDbCircle
 10
351.3340294151753
 20
97.41482082634441
 30
0.0
 40
0.5
100
AcDbArc
 50
270.0
 51
340.5287793655096
  0
ARC
  5
1F2C
330
1A
100
AcDbEntity
  8
SEIHIN
100
AcDbCircle
 10
360.1624565399215
 20
97.41482082634441
 30
0.0
 40
0.5
100
AcDbArc
 50
199.4712206344903
 51
270.0
  0
ARC
  5
1F2D
330
1A
100
AcDbEntity
  8
SEIHIN
100
AcDbCircle
 10
351.3340294151753
 20
98.37189576787338
 30
0.0
 40
0.5
100
AcDbArc
 50
270.0
 51
340.5287793655096
  0
ARC
  5
1F2E
330
1A
100
AcDbEntity
  8
SEIHIN
100
AcDbCircle
 10
360.1624565399215
 20
98.37189576787338
 30
0.0
 40
0.5
100
AcDbArc
 50
199.4712206344903
 51
270.0
  0
LINE
  5
1F30
330
1A
100
AcDbEntity
  8
CENTER_L
100
AcDbLine
 10
327.6482429775483
 20
115.0934701263444
 30
0.0
 11
339.8482429775484
 21
115.0934701263444
 31
0.0
  0
LINE
  5
1F31
330
1A
100
AcDbEntity
  8
CENTER_L
100
AcDbLine
 10
333.7482429775484
 20
121.1934701263444
 30
0.0
 11
333.7482429775484
 21
108.9934701263443
 31
0.0
  0
LINE
  5
1F32
330
1A
100
AcDbEntity
  8
CENTER_L
100
AcDbLine
 10
377.7482429775484
 20
121.1934701263444
 30
0.0
 11
377.7482429775484
 21
108.9934701263443
 31
0.0
  0
LINE
  5
1F33
330
1A
100
AcDbEntity
  8
CENTER_L
100
AcDbLine
 10
377.7482429775484
 20
140.1934701263444
 30
0.0
 11
377.7482429775484
 21
127.9934701263443
 31
0.0
  0
LINE
  5
1F34
330
1A
100
AcDbEntity
  8
CENTER_L
100
AcDbLine
 10
383.8482429775483
 20
115.0934701263444
 30
0.0
 11
371.6482429775483
 21
115.0934701263444
 31
0.0
  0
LINE
  5
1F35
330
1A
100
AcDbEntity
  8
CENTER_L
100
AcDbLine
 10
383.8482429775483
 20
134.0934701263444
 30
0.0
 11
371.6482429775483
 21
134.0934701263444
 31
0.0
  0
LINE
  5
1F48
330
1A
100
AcDbEntity
  8
CENTER_L
100
AcDbLine
 10
248.2248646113934
 20
115.0934701263444
 30
0.0
 11
260.4248646113934
 21
115.0934701263444
 31
0.0
  0
LINE
  5
1F49
330
1A
100
AcDbEntity
  8
CENTER_L
100
AcDbLine
 10
248.2248646113934
 20
134.0934701263444
 30
0.0
 11
260.4248646113934
 21
134.0934701263444
 31
0.0
  0
LINE
  5
1F4A
330
1A
100
AcDbEntity
  8
SEIHIN
100
AcDbLine
 10
252.7248646113934
 20
132.0934701263444
 30
0.0
 11
250.2120146431204
 21
132.0934701263443
 31
0.0
  0
LINE
  5
1F4B
330
1A
100
AcDbEntity
  8
SEIHIN
100
AcDbLine
 10
252.7248646113934
 20
136.0934701263444
 30
0.0
 11
250.2120146431204
 21
136.0934701263444
 31
0.0
  0
LINE
  5
1F4C
330
1A
100
AcDbEntity
  8
SEIHIN
100
AcDbLine
 10
344.2482429775484
 20
135.0934701263444
 30
0.0
 11
342.2482429775484
 21
135.0934701263444
 31
0.0
  0
LINE
  5
1F4D
330
1A
100
AcDbEntity
  8
SEIHIN
100
AcDbLine
 10
344.2482429775484
 20
133.0934701263444
 30
0.0
 11
342.2482429775484
 21
133.0934701263443
 31
0.0
  0
LINE
  5
1F4E
330
1A
100
AcDbEntity
  8
SEIHIN
100
AcDbLine
 10
341.7482429775483
 20
133.5934701263443
 30
0.0
 11
341.7482429775483
 21
134.5934701263444
 31
0.0
  0
ARC
  5
1F4F
330
1A
100
AcDbEntity
  8
SEIHIN
100
AcDbCircle
 10
342.2482429775484
 20
133.5934701263443
 30
0.0
 40
0.5
100
AcDbArc
 50
180.0
 51
270.0000000000005
  0
ARC
  5
1F50
330
1A
100
AcDbEntity
  8
SEIHIN
100
AcDbCircle
 10
342.2482429775484
 20
134.5934701263444
 30
0.0
 40
0.5
100
AcDbArc
 50
90.0
 51
180.0
  0
LINE
  5
1F51
330
1A
100
AcDbEntity
  8
SEIHIN
100
AcDbLine
 10
344.2482429775484
 20
116.0934701263444
 30
0.0
 11
342.2482429775484
 21
116.0934701263444
 31
0.0
  0
LINE
  5
1F52
330
1A
100
AcDbEntity
  8
SEIHIN
100
AcDbLine
 10
344.2482429775484
 20
114.0934701263444
 30
0.0
 11
342.2482429775484
 21
114.0934701263443
 31
0.0
  0
LINE
  5
1F53
330
1A
100
AcDbEntity
  8
SEIHIN
100
AcDbLine
 10
341.7482429775483
 20
114.5934701263443
 30
0.0
 11
341.7482429775483
 21
115.5934701263444
 31
0.0
  0
ARC
  5
1F54
330
1A
100
AcDbEntity
  8
SEIHIN
100
AcDbCircle
 10
342.2482429775484
 20
115.5934701263444
 30
0.0
 40
0.5
100
AcDbArc
 50
90.0
 51
180.0
  0
ARC
  5
1F55
330
1A
100
AcDbEntity
  8
SEIHIN
100
AcDbCircle
 10
342.2482429775484
 20
114.5934701263443
 30
0.0
 40
0.5
100
AcDbArc
 50
180.0
 51
270.0000000000005
  0
LINE
  5
1F56
330
1A
100
AcDbEntity
  8
SEIHIN
100
AcDbLine
 10
369.7482429775484
 20
114.5934701263443
 30
0.0
 11
369.7482429775484
 21
115.5934701263444
 31
0.0
  0
LINE
  5
1F57
330
1A
100
AcDbEntity
  8
SEIHIN
100
AcDbLine
 10
367.2482429775484
 20
114.0934701263444
 30
0.0
 11
369.2482429775484
 21
114.0934701263443
 31
0.0
  0
ARC
  5
1F58
330
1A
100
AcDbEntity
  8
SEIHIN
100
AcDbCircle
 10
369.2482429775484
 20
114.5934701263443
 30
0.0
 40
0.5
100
AcDbArc
 50
269.9999999999994
 51
0.000000000000007
  0
LINE
  5
1F59
330
1A
100
AcDbEntity
  8
SEIHIN
100
AcDbLine
 10
367.2482429775484
 20
116.0934701263444
 30
0.0
 11
369.2482429775484
 21
116.0934701263444
 31
0.0
  0
ARC
  5
1F5A
330
1A
100
AcDbEntity
  8
SEIHIN
100
AcDbCircle
 10
369.2482429775484
 20
115.5934701263444
 30
0.0
 40
0.5
100
AcDbArc
 50
0.000000000000007
 51
90.0
  0
LINE
  5
1F5B
330
1A
100
AcDbEntity
  8
SEIHIN
100
AcDbLine
 10
367.2482429775484
 20
135.0934701263444
 30
0.0
 11
369.2482429775484
 21
135.0934701263444
 31
0.0
  0
LINE
  5
1F5C
330
1A
100
AcDbEntity
  8
SEIHIN
100
AcDbLine
 10
367.2482429775484
 20
133.0934701263444
 30
0.0
 11
369.2482429775484
 21
133.0934701263443
 31
0.0
  0
LINE
  5
1F5D
330
1A
100
AcDbEntity
  8
SEIHIN
100
AcDbLine
 10
369.7482429775484
 20
133.5934701263443
 30
0.0
 11
369.7482429775484
 21
134.5934701263444
 31
0.0
  0
ARC
  5
1F5E
330
1A
100
AcDbEntity
  8
SEIHIN
100
AcDbCircle
 10
369.2482429775484
 20
134.5934701263444
 30
0.0
 40
0.5
100
AcDbArc
 50
0.000000000000007
 51
90.0
  0
ARC
  5
1F5F
330
1A
100
AcDbEntity
  8
SEIHIN
100
AcDbCircle
 10
369.2482429775484
 20
133.5934701263443
 30
0.0
 40
0.5
100
AcDbArc
 50
269.9999999999994
 51
0.000000000000007
  0
LINE
  5
1F61
330
1A
100
AcDbEntity
  8
SEIHIN
100
AcDbLine
 10
162.3244475113934
 20
215.0441126582334
 30
0.0
 11
68.09697697162699
 21
215.0441126582334
 31
0.0
  0
LINE
  5
1F62
330
1A
100
AcDbEntity
  8
SEIHIN
100
AcDbLine
 10
162.3244475113934
 20
215.0441126582334
 30
0.0
 11
162.3244475113934
 21
217.5441126582334
 31
0.0
  0
LINE
  5
1F63
330
1A
100
AcDbEntity
  8
SEIHIN
100
AcDbLine
 10
68.09697697162699
 20
215.0441126582334
 30
0.0
 11
68.09697697162699
 21
217.5441126582334
 31
0.0
  0
LINE
  5
1F64
330
1A
100
AcDbEntity
  8
SEIHIN
100
AcDbLine
 10
60.32444751139343
 20
217.5441126582334
 30
0.0
 11
60.32444751139343
 21
237.5441126582334
 31
0.0
  0
LINE
  5
1F67
330
1A
100
AcDbEntity
  8
SEIHIN
100
AcDbLine
 10
62.12444751139344
 20
217.5441126582334
 30
0.0
 11
62.12444751139344
 21
237.5441126582334
 31
0.0
  0
LINE
  5
1F68
330
1A
100
AcDbEntity
  8
SEIHIN
100
AcDbLine
 10
112.8244475113933
 20
217.5441126582334
 30
0.0
 11
247.7248646113934
 21
217.5441126582334
 31
0.0
  0
LINE
  5
1F69
330
1A
100
AcDbEntity
  8
SEIHIN
100
AcDbLine
 10
114.8244475113934
 20
219.5441126582334
 30
0.0
 11
245.7248646113934
 21
219.5441126582334
 31
0.0
  0
CIRCLE
  5
1F6A
330
1A
100
AcDbEntity
  8
SEIHIN
100
AcDbCircle
 10
122.8244475113934
 20
227.5441126582334
 30
0.0
 40
5.0
  0
LINE
  5
1F6B
330
1A
100
AcDbEntity
  8
SEIHIN
100
AcDbLine
 10
253.8248646113934
 20
217.5441126582334
 30
0.0
 11
253.8248646113934
 21
237.5441126582334
 31
0.0
  0
LINE
  5
1F6C
330
1A
100
AcDbEntity
  8
SEIHIN
100
AcDbLine
 10
135.1800303594149
 20
220.0441126582334
 30
0.0
 11
135.180030359415
 21
235.0441126582334
 31
0.0
  0
LINE
  5
1F6D
330
1A
100
AcDbEntity
  8
SEIHIN
100
AcDbLine
 10
149.9648315653657
 20
220.0441126582334
 30
0.0
 11
149.9648315653657
 21
235.0441126582333
 31
0.0
  0
LINE
  5
1F70
330
1A
100
AcDbEntity
  8
SEIHIN
100
AcDbLine
 10
114.8244475113934
 20
235.5441126582334
 30
0.0
 11
245.7248646113935
 21
235.5441126582333
 31
0.0
  0
LINE
  5
1F71
330
1A
100
AcDbEntity
  8
SEIHIN
100
AcDbLine
 10
112.8244475113933
 20
237.5441126582334
 30
0.0
 11
247.7248646113934
 21
237.5441126582334
 31
0.0
  0
LINE
  5
1F72
330
1A
100
AcDbEntity
  8
SEIHIN
100
AcDbLine
 10
162.3244475113934
 20
240.0441126582334
 30
0.0
 11
68.09697697162699
 21
240.0441126582334
 31
0.0
  0
LINE
  5
1F73
330
1A
100
AcDbEntity
  8
SEIHIN
100
AcDbLine
 10
60.32444751139343
 20
237.5441126582334
 30
0.0
 11
68.09697697162699
 21
237.5441126582334
 31
0.0
  0
LINE
  5
1F74
330
1A
100
AcDbEntity
  8
SEIHIN
100
AcDbLine
 10
68.09697697162699
 20
240.0441126582334
 30
0.0
 11
68.09697697162699
 21
237.5441126582334
 31
0.0
  0
LINE
  5
1F75
330
1A
100
AcDbEntity
  8
SEIHIN
100
AcDbLine
 10
136.1120468310366
 20
236.0441126582334
 30
0.0
 11
136.1120468310366
 21
237.0441126582334
 31
0.0
  0
LINE
  5
1F76
330
1A
100
AcDbEntity
  8
SEIHIN
100
AcDbLine
 10
149.1260171088088
 20
237.0441126582334
 30
0.0
 11
149.1260171088087
 21
236.0441126582334
 31
0.0
  0
LINE
  5
1F77
330
1A
100
AcDbEntity
  8
SEIHIN
100
AcDbLine
 10
162.3244475113934
 20
240.0441126582334
 30
0.0
 11
162.3244475113934
 21
237.5441126582334
 31
0.0
  0
LINE
  5
1F78
330
1A
100
AcDbEntity
  8
SEIHIN
100
AcDbLine
 10
252.7248646113934
 20
258.5441126582334
 30
0.0
 11
252.7248646113934
 21
240.1441126582334
 31
0.0
  0
LINE
  5
1F79
330
1A
100
AcDbEntity
  8
SEIHIN
100
AcDbLine
 10
254.3248646113934
 20
239.0441126582334
 30
0.0
 11
254.3248646113934
 21
258.5441126582334
 31
0.0
  0
LINE
  5
1F7A
330
1A
100
AcDbEntity
  8
CENTER_L
100
AcDbLine
 10
245.7248646113934
 20
249.5441126582334
 30
0.0
 11
261.3248646113934
 21
249.5441126582334
 31
0.0
  0
LINE
  5
1F7B
330
1A
100
AcDbEntity
  8
SEIHIN
100
AcDbLine
 10
254.3248646113934
 20
258.5441126582334
 30
0.0
 11
252.7248646113934
 21
258.5441126582334
 31
0.0
  0
LINE
  5
1F7C
330
1A
100
AcDbEntity
  8
SEIHIN
100
AcDbLine
 10
253.3248646113934
 20
238.0441126582334
 30
0.0
 11
249.6248646113934
 21
238.0441126582334
 31
0.0
  0
LINE
  5
1F7D
330
1A
100
AcDbEntity
  8
SEIHIN
100
AcDbLine
 10
248.7248646113934
 20
239.6441126582334
 30
0.0
 11
252.2248646113934
 21
239.6441126582334
 31
0.0
  0
ARC
  5
1F7F
330
1A
100
AcDbEntity
  8
SEIHIN
100
AcDbCircle
 10
248.7248646113934
 20
238.6441126582333
 30
0.0
 40
1.0
100
AcDbArc
 50
90.00000000000003
 51
179.9999999999983
  0
ARC
  5
1F81
330
1A
100
AcDbEntity
  8
SEIHIN
100
AcDbCircle
 10
252.2248646113934
 20
240.1441126582333
 30
0.0
 40
0.5
100
AcDbArc
 50
270.0000000000032
 51
0.0000000000032709
  0
ARC
  5
1F82
330
1A
100
AcDbEntity
  8
SEIHIN
100
AcDbCircle
 10
253.3248646113934
 20
239.0441126582333
 30
0.0
 40
1.0
100
AcDbArc
 50
270.0
 51
0.0000000000016425
  0
LINE
  5
1F85
330
1A
100
AcDbEntity
  8
SEIHIN
100
AcDbLine
 10
152.7625855960327
 20
238.0441126582333
 30
0.0
 11
152.7625855960327
 21
239.5441126582334
 31
0.0
  0
LINE
  5
1F86
330
1A
100
AcDbEntity
  8
SEIHIN
100
AcDbLine
 10
137.2380277330892
 20
238.0441126582334
 30
0.0
 11
137.2380277330892
 21
239.5441126582333
 31
0.0
  0
LINE
  5
1F87
330
1A
100
AcDbEntity
  8
SEIHIN
100
AcDbLine
 10
249.3248646113934
 20
237.5441126582334
 30
0.0
 11
253.8248646113934
 21
237.5441126582334
 31
0.0
  0
LINE
  5
1F88
330
1A
100
AcDbEntity
  8
SEIHIN
100
AcDbLine
 10
112.8244475113934
 20
81.17949182634442
 30
0.0
 11
135.2462728960732
 21
81.1794918263444
 31
0.0
  0
LINE
  5
1F89
330
1A
100
AcDbEntity
  8
SEIHIN
100
AcDbLine
 10
138.7818068158378
 20
82.64395793424354
 30
0.0
 11
150.92290191282
 21
94.78505312622365
 31
0.0
  0
ARC
  5
1F8B
330
1A
100
AcDbEntity
  8
SEIHIN
100
AcDbCircle
 10
154.4584358325846
 20
91.24951923412281
 30
0.0
 40
5.0
100
AcDbArc
 50
92.99999987887712
 51
135.0000002241552
  0
LINE
  5
1F8E
330
1A
100
AcDbEntity
  8
SEIHIN
100
AcDbLine
 10
252.7248646113934
 20
241.6441126582333
 30
0.0
 11
250.7248646113934
 21
239.6441126582334
 31
0.0
  0
LINE
  5
1F8F
330
1A
100
AcDbEntity
  8
SEIHIN
100
AcDbLine
 10
252.7248646113934
 20
213.4441126582334
 30
0.0
 11
250.7248646113934
 21
215.4441126582334
 31
0.0
  0
ARC
  5
1F91
330
1A
100
AcDbEntity
  8
SEIHIN
100
AcDbCircle
 10
249.6248646113934
 20
237.7441126582334
 30
0.0
 40
0.3
100
AcDbArc
 50
90.0
 51
180.0
  0
ARC
  5
1F92
330
1A
100
AcDbEntity
  8
SEIHIN
100
AcDbCircle
 10
249.6248646113934
 20
217.3441126582334
 30
0.0
 40
0.3
100
AcDbArc
 50
180.0
 51
270.0
  0
ARC
  5
1F93
330
1A
100
AcDbEntity
  8
SEIHIN
100
AcDbCircle
 10
135.2462728960732
 20
86.1794918263444
 30
0.0
 40
5.0
100
AcDbArc
 50
270.0
 51
315.0000002241551
  0
ARC
  5
1F94
330
1A
100
AcDbEntity
  8
SEIHIN
100
AcDbCircle
 10
134.6249525867028
 20
87.67949182634442
 30
0.0
 40
2.0
100
AcDbArc
 50
270.0
 51
315.0000002241553
  0
ARC
  5
1F95
330
1A
100
AcDbEntity
  8
SEIHIN
100
AcDbCircle
 10
134.6249525490759
 20
87.6794918263444
 30
0.0
 40
1.0
100
AcDbArc
 50
270.0
 51
315.0000002241551
  0
DIMENSION
  5
1F96
330
1A
100
AcDbEntity
  8
SUNPOU
100
AcDbDimension
  2
*D1
 10
33.49363474305572
 20
85.3794918263444
 30
0.0
 11
30.99363474305571
 21
113.7364809763444
 31
0.0
 70
    32
  3
STANDARD
100
AcDbAlignedDimension
 13
247.7248646113934
 23
142.0934701263444
 33
0.0
 14
60.32444751139343
 24
85.3794918263444
 34
0.0
 50
90.0
100
AcDbRotatedDimension
1001
ACAD
1000
DSTYLE
1002
{
1070
    41
1040
3.0
1070
    42
1040
3.0
1070
    43
1040
7.0
1070
    44
1040
1.5
1070
    73
1070
     0
1070
    74
1070
     0
1070
    77
1070
     3
1070
   140
1040
3.0
1070
   141
1040
3.0
1070
   147
1040
1.0
1070
   172
1070
     1
1070
   173
1070
     1
1070
   176
1070
   256
1070
   177
1070
   256
1070
   178
1070
   256
1070
   271
1070
     0
1070
   272
1070
     0
1070
   341
1005
B2
1070
     6
1000
OPEN
1070
     7
1000
OPEN
1002
}
  0
DIMENSION
  5
1FA3
330
1A
100
AcDbEntity
  8
SUNPOU
100
AcDbDimension
  2
*D2
 10
112.8244475113934
 20
165.6161172407696
 30
0.0
 11
183.5746560613934
 21
168.1161172407696
 31
0.0
 70
    32
  3
STANDARD
100
AcDbAlignedDimension
 13
254.3248646113934
 23
142.0934701263444
 33
0.0
 14
112.8244475113934
 24
86.67949182634442
 34
0.0
100
AcDbRotatedDimension
1001
ACAD
1000
DSTYLE
1002
{
1070
    41
1040
3.0
1070
    42
1040
3.0
1070
    43
1040
7.0
1070
    44
1040
1.5
1070
    73
1070
     0
1070
    74
1070
     0
1070
    77
1070
     3
1070
   140
1040
3.0
1070
   141
1040
3.0
1070
   147
1040
1.0
1070
   172
1070
     1
1070
   173
1070
     1
1070
   176
1070
   256
1070
   177
1070
   256
1070
   178
1070
   256
1070
   271
1070
     0
1070
   272
1070
     0
1070
   341
1005
B2
1070
     6
1000
OPEN
1070
     7
1000
OPEN
1002
}
  0
DIMENSION
  5
1FB0
330
1A
100
AcDbEntity
  8
SUNPOU
100
AcDbDimension
  2
*D3
 10
254.3248646113934
 20
175.0940097955034
 30
0.0
 11
157.3246560613934
 21
177.5940097955034
 31
0.0
 70
    32
  3
STANDARD
100
AcDbAlignedDimension
 13
60.32444751139343
 23
84.91406244568487
 33
0.0
 14
254.3248646113934
 24
142.0934701263444
 34
0.0
100
AcDbRotatedDimension
1001
ACAD
1000
DSTYLE
1002
{
1070
    41
1040
3.0
1070
    42
1040
3.0
1070
    43
1040
7.0
1070
    44
1040
1.5
1070
    73
1070
     0
1070
    74
1070
     0
1070
    77
1070
     3
1070
   140
1040
3.0
1070
   141
1040
3.0
1070
   147
1040
1.0
1070
   172
1070
     1
1070
   173
1070
     1
1070
   176
1070
   256
1070
   177
1070
   256
1070
   178
1070
   256
1070
   271
1070
     0
1070
   272
1070
     0
1070
   341
1005
B2
1070
     6
1000
OPEN
1070
     7
1000
OPEN
1002
}
  0
DIMENSION
  5
1FEA
330
1A
100
AcDbEntity
  8
SUNPOU
100
AcDbDimension
  2
*D4
 10
176.7833902346215
 20
155.2715605572404
 30
0.0
 11
215.5541274230074
 21
157.7715605572404
 31
0.0
 70
    32
  3
STANDARD
100
AcDbAlignedDimension
 13
254.3248646113934
 23
142.0934701263444
 33
0.0
 14
176.7833902346215
 24
89.40999182634435
 34
0.0
100
AcDbRotatedDimension
1001
ACAD
1000
DSTYLE
1002
{
1070
    41
1040
3.0
1070
    42
1040
3.0
1070
    43
1040
7.0
1070
    44
1040
1.5
1070
    73
1070
     0
1070
    74
1070
     0
1070
    77
1070
     3
1070
   140
1040
3.0
1070
   141
1040
3.0
1070
   147
1040
1.0
1070
   172
1070
     1
1070
   173
1070
     1
1070
   176
1070
   256
1070
   177
1070
   256
1070
   178
1070
   256
1070
   271
1070
     0
1070
   272
1070
     0
1070
   341
1005
B2
1070
     6
1000
OPEN
1070
     7
1000
OPEN
1002
}
  0
DIMENSION
  5
1FF7
330
1A
100
AcDbEntity
  8
SUNPOU
100
AcDbDimension
  2
*D5
 10
275.3763590723274
 20
107.0934701263444
 30
0.0
 11
272.8763590723274
 21
124.5934701263444
 31
0.0
 70
    32
  3
STANDARD
100
AcDbAlignedDimension
 13
254.3248646113934
 23
142.0934701263444
 33
0.0
 14
254.3248646113934
 24
107.0934701263444
 34
0.0
 50
90.0
100
AcDbRotatedDimension
1001
ACAD
1000
DSTYLE
1002
{
1070
    41
1040
3.0
1070
    42
1040
3.0
1070
    43
1040
7.0
1070
    44
1040
1.5
1070
    73
1070
     0
1070
    74
1070
     0
1070
    77
1070
     3
1070
   140
1040
3.0
1070
   141
1040
3.0
1070
   147
1040
1.0
1070
   172
1070
     1
1070
   173
1070
     1
1070
   176
1070
   256
1070
   177
1070
   256
1070
   178
1070
   256
1070
   271
1070
     0
1070
   272
1070
     0
1070
   341
1005
B2
1070
     6
1000
OPEN
1070
     7
1000
OPEN
1002
}
  0
LINE
  5
2004
330
1A
100
AcDbEntity
  8
SEIHIN
100
AcDbLine
 10
252.7248646113934
 20
117.0934701263444
 30
0.0
 11
250.2120146431204
 21
117.0934701263444
 31
0.0
  0
LINE
  5
2005
330
1A
100
AcDbEntity
  8
SEIHIN
100
AcDbLine
 10
252.7248646113934
 20
113.0934701263444
 30
0.0
 11
250.2120146431204
 21
113.0934701263443
 31
0.0
  0
DIMENSION
  5
2006
330
1A
100
AcDbEntity
  8
SUNPOU
100
AcDbDimension
  2
*D6
 10
310.5302252129825
 20
134.0934701263444
 30
0.0
 11
308.0302252129824
 21
138.0934701263444
 31
0.0
 70
    32
  3
STANDARD
100
AcDbAlignedDimension
 13
327.7482429775484
 23
142.0934701263444
 33
0.0
 14
327.6482429775483
 24
134.0934701263444
 34
0.0
 50
90.0
100
AcDbRotatedDimension
1001
ACAD
1000
DSTYLE
1002
{
1070
    41
1040
3.0
1070
    42
1040
3.0
1070
    43
1040
7.0
1070
    44
1040
1.5
1070
    73
1070
     0
1070
    74
1070
     0
1070
    77
1070
     3
1070
   140
1040
3.0
1070
   141
1040
3.0
1070
   147
1040
1.0
1070
   172
1070
     1
1070
   173
1070
     1
1070
   176
1070
   256
1070
   177
1070
   256
1070
   178
1070
   256
1070
   271
1070
     0
1070
   272
1070
     0
1070
   341
1005
B2
1070
     6
1000
OPEN
1070
     7
1000
OPEN
1002
}
  0
DIMENSION
  5
2015
330
1A
100
AcDbEntity
  8
SUNPOU
100
AcDbDimension
  2
*D7
 10
310.5302252129825
 20
107.0934701263444
 30
0.0
 11
308.0302252129825
 21
111.0934701263444
 31
0.0
 70
    32
  3
STANDARD
100
AcDbAlignedDimension
 13
327.6482429775483
 23
115.0934701263444
 33
0.0
 14
327.7482429775484
 24
107.0934701263444
 34
0.0
 50
90.0
100
AcDbRotatedDimension
1001
ACAD
1000
DSTYLE
1002
{
1070
    41
1040
3.0
1070
    42
1040
3.0
1070
    43
1040
7.0
1070
    44
1040
1.5
1070
    73
1070
     0
1070
    74
1070
     0
1070
    77
1070
     3
1070
   140
1040
3.0
1070
   141
1040
3.0
1070
   147
1040
1.0
1070
   172
1070
     1
1070
   173
1070
     1
1070
   176
1070
   256
1070
   177
1070
   256
1070
   178
1070
   256
1070
   271
1070
     0
1070
   272
1070
     0
1070
   341
1005
B2
1070
     6
1000
OPEN
1070
     7
1000
OPEN
1002
}
  0
DIMENSION
  5
2022
330
1A
100
AcDbEntity
  8
SUNPOU
100
AcDbDimension
  2
*D8
 10
300.5118461853026
 20
107.0934701263444
 30
0.0
 11
298.0118461853026
 21
124.5934701263444
 31
0.0
 70
    32
  3
STANDARD
100
AcDbAlignedDimension
 13
327.7482429775484
 23
142.0934701263444
 33
0.0
 14
327.7482429775484
 24
107.0934701263444
 34
0.0
 50
90.0
100
AcDbRotatedDimension
1001
ACAD
1000
DSTYLE
1002
{
1070
    41
1040
3.0
1070
    42
1040
3.0
1070
    43
1040
7.0
1070
    44
1040
1.5
1070
    73
1070
     0
1070
    74
1070
     0
1070
    77
1070
     3
1070
   140
1040
3.0
1070
   141
1040
3.0
1070
   147
1040
1.0
1070
   172
1070
     1
1070
   173
1070
     1
1070
   176
1070
   256
1070
   177
1070
   256
1070
   178
1070
   256
1070
   271
1070
     0
1070
   272
1070
     0
1070
   341
1005
B2
1070
     6
1000
OPEN
1070
     7
1000
OPEN
1002
}
  0
DIMENSION
  5
204C
330
1A
100
AcDbEntity
  8
SUNPOU
100
AcDbDimension
  2
*D9
 10
377.7482429775484
 20
155.2715605572404
 30
0.0
 11
355.7482429775483
 21
157.7715605572404
 31
0.0
 70
    32
  3
STANDARD
100
AcDbAlignedDimension
 13
333.7482429775484
 23
140.1934701263444
 33
0.0
 14
377.7482429775484
 24
140.1934701263444
 34
0.0
100
AcDbRotatedDimension
1001
ACAD
1000
DSTYLE
1002
{
1070
    41
1040
3.0
1070
    42
1040
3.0
1070
    43
1040
7.0
1070
    44
1040
1.5
1070
    73
1070
     0
1070
    74
1070
     0
1070
    77
1070
     3
1070
   140
1040
3.0
1070
   141
1040
3.0
1070
   147
1040
1.0
1070
   172
1070
     1
1070
   173
1070
     1
1070
   176
1070
   256
1070
   177
1070
   256
1070
   178
1070
   256
1070
   271
1070
     0
1070
   272
1070
     0
1070
   341
1005
B2
1070
     6
1000
OPEN
1070
     7
1000
OPEN
1002
}
  0
DIMENSION
  5
2059
330
1A
100
AcDbEntity
  8
SUNPOU
100
AcDbDimension
  2
*D10
 10
386.7482429775483
 20
165.6161172407696
 30
0.0
 11
355.7482429775483
 21
168.1161172407696
 31
0.0
 70
    32
  3
STANDARD
100
AcDbAlignedDimension
 13
324.7482429775483
 23
139.0934701263444
 33
0.0
 14
386.7482429775483
 24
139.0934701263444
 34
0.0
100
AcDbRotatedDimension
1001
ACAD
1000
DSTYLE
1002
{
1070
    41
1040
3.0
1070
    42
1040
3.0
1070
    43
1040
7.0
1070
    44
1040
1.5
1070
    73
1070
     0
1070
    74
1070
     0
1070
    77
1070
     3
1070
   140
1040
3.0
1070
   141
1040
3.0
1070
   147
1040
1.0
1070
   172
1070
     1
1070
   173
1070
     1
1070
   176
1070
   256
1070
   177
1070
   256
1070
   178
1070
   256
1070
   271
1070
     0
1070
   272
1070
     0
1070
   341
1005
B2
1070
     6
1000
OPEN
1070
     7
1000
OPEN
1002
}
  0
DIMENSION
  5
2066
330
1A
100
AcDbEntity
  8
SUNPOU
100
AcDbDimension
  2
*D11
 10
275.3763590723274
 20
196.5441126582334
 30
0.0
 11
272.8763590723273
 21
227.5441126582334
 31
0.0
 70
    32
  3
STANDARD
100
AcDbAlignedDimension
 13
254.3248646113934
 23
258.5441126582334
 33
0.0
 14
254.3248646113934
 24
196.5441126582334
 34
0.0
 50
90.0
100
AcDbRotatedDimension
1001
ACAD
1000
DSTYLE
1002
{
1070
    41
1040
3.0
1070
    42
1040
3.0
1070
    43
1040
7.0
1070
    44
1040
1.5
1070
    73
1070
     0
1070
    74
1070
     0
1070
    77
1070
     3
1070
   140
1040
3.0
1070
   141
1040
3.0
1070
   147
1040
1.0
1070
   172
1070
     1
1070
   173
1070
     1
1070
   176
1070
   256
1070
   177
1070
   256
1070
   178
1070
   256
1070
   271
1070
     0
1070
   272
1070
     0
1070
   341
1005
B2
1070
     6
1000
OPEN
1070
     7
1000
OPEN
1002
}
  0
DIMENSION
  5
2073
330
1A
100
AcDbEntity
  8
SUNPOU
100
AcDbDimension
  2
*D12
 10
33.49363474305575
 20
217.5441126582334
 30
0.0
 11
30.99363474305571
 21
227.5441126582334
 31
0.0
 70
    32
  3
STANDARD
100
AcDbAlignedDimension
 13
60.32444751139343
 23
237.5441126582334
 33
0.0
 14
60.32444751139343
 24
217.5441126582334
 34
0.0
 50
90.0
100
AcDbRotatedDimension
1001
ACAD
1000
DSTYLE
1002
{
1070
    41
1040
3.0
1070
    42
1040
3.0
1070
    43
1040
7.0
1070
    44
1040
1.5
1070
    73
1070
     0
1070
    74
1070
     0
1070
    77
1070
     3
1070
   140
1040
3.0
1070
   141
1040
3.0
1070
   147
1040
1.0
1070
   172
1070
     1
1070
   173
1070
     1
1070
   176
1070
   256
1070
   177
1070
   256
1070
   178
1070
   256
1070
   271
1070
     0
1070
   272
1070
     0
1070
   341
1005
B2
1070
     6
1000
OPEN
1070
     7
1000
OPEN
1002
}
  0
LEADER
  5
2081
330
1A
100
AcDbEntity
  8
SUNPOU
100
AcDbLeader
  3
STANDARD
 73
     0
 40
3.0
 41
15.59999999999999
 76
     3
 10
332.1846907018192
 20
135.4953632324913
 30
0.0
 10
317.5618671820011
 20
158.9968914333962
 30
0.0
 10
314.549311938825
 20
158.9968914333962
 30
0.0
340
2082
213
0.0
223
1.5
233
0.0
1001
ACAD
1000
DSTYLE
1002
{
1070
     6
1000
OPEN
1070
    41
1040
3.0
1070
    42
1040
3.0
1070
    43
1040
7.0
1070
    44
1040
1.5
1070
    73
1070
     0
1070
    74
1070
     0
1070
    77
1070
     0
1070
   140
1040
3.0
1070
   141
1040
3.0
1070
   147
1040
1.0
1070
   172
1070
     1
1070
   173
1070
     1
1070
   176
1070
   256
1070
   177
1070
   256
1070
   178
1070
   256
1070
   271
1070
     0
1070
   272
1070
     0
1070
   341
1005
B2
1070
   343
1005
B2
1070
   344
1005
B2
1002
}
  0
MTEXT
  5
2082
102
{ACAD_REACTORS
330
2081
102
}
330
1A
100
AcDbEntity
  8
SUNPOU
100
AcDbMText
 10
313.5493119388249
 20
157.4968914333962
 30
0.0
 40
3.0
 41
0.0
 71
     9
 72
     5
  1
\A1;4-φ4.2
1001
ACAD
1000
MTEXTBEGIN
1070
    73
1070
     1
1070
    44
1040
1.0
1070
    74
1070
     0
1000
MTEXTEND
1000
MTEXTBEGIN
1070
    73
1070
     1
1070
    44
1040
1.0
1070
    74
1070
     0
1000
MTEXTEND
1000
MTEXTBEGIN
1070
    73
1070
     1
1070
    44
1040
1.0
1070
    74
1070
     0
1000
MTEXTEND
1000
MTEXTBEGIN
1070
    73
1070
     1
1070
    44
1040
1.0
1070
    74
1070
     0
1000
MTEXTEND
1000
MTEXTBEGIN
1070
    73
1070
     1
1070
    44
1040
1.0
1070
    74
1070
     0
1000
MTEXTEND
1000
MTEXTBEGIN
1070
    73
1070
     1
1070
    44
1040
1.0
1070
    74
1070
     0
1000
MTEXTEND
1000
MTEXTBEGIN
1070
    73
1070
     1
1070
    44
1040
1.0
1070
    74
1070
     0
1000
MTEXTEND
1000
MTEXTBEGIN
1070
    73
1070
     1
1070
    44
1040
1.0
1070
    74
1070
     0
1000
MTEXTEND
  0
LINE
  5
2127
330
1A
100
AcDbEntity
  8
SEIHIN
100
AcDbLine
 10
136.1120468310366
 20
219.0441126582333
 30
0.0
 11
136.1120468310366
 21
218.0441126582334
 31
0.0
  0
LINE
  5
2128
330
1A
100
AcDbEntity
  8
SEIHIN
100
AcDbLine
 10
137.2380277330892
 20
217.0441126582333
 30
0.0
 11
137.2380277330892
 21
215.5441126582334
 31
0.0
  0
LINE
  5
2129
330
1A
100
AcDbEntity
  8
SEIHIN
100
AcDbLine
 10
149.1260171088088
 20
218.0441126582334
 30
0.0
 11
149.1260171088087
 21
219.0441126582334
 31
0.0
  0
LINE
  5
212A
330
1A
100
AcDbEntity
  8
SEIHIN
100
AcDbLine
 10
152.7625855960327
 20
217.0441126582334
 30
0.0
 11
152.7625855960327
 21
215.5441126582334
 31
0.0
  0
LINE
  5
226B
330
1A
100
AcDbEntity
  8
SEIHIN
100
AcDbLine
 10
345.7482429775483
 20
89.52032849108888
 30
0.0
 11
343.1482429775483
 21
89.52032849108888
 31
0.0
  0
LINE
  5
226C
330
1A
100
AcDbEntity
  8
SEIHIN
100
AcDbLine
 10
365.7482429775483
 20
89.52032849108888
 30
0.0
 11
368.3482429775484
 21
89.52032849108888
 31
0.0
  0
LINE
  5
226D
330
1A
100
AcDbEntity
  8
SEIHIN
100
AcDbLine
 10
358.9982429775484
 20
70.32260583425349
 30
0.0
 11
352.4982429775484
 21
70.32260583425349
 31
0.0
  0
LINE
  5
226E
330
1A
100
AcDbEntity
  8
SEIHIN
100
AcDbLine
 10
346.7482429775484
 20
72.5118638263444
 30
0.0
 11
346.7482429775484
 21
70.82260583425351
 31
0.0
  0
LINE
  5
226F
330
1A
100
AcDbEntity
  8
SEIHIN
100
AcDbLine
 10
364.7482429775483
 20
72.5118638263444
 30
0.0
 11
364.7482429775484
 21
70.82260583425351
 31
0.0
  0
LINE
  5
2272
330
1A
100
AcDbEntity
  8
SEIHIN
100
AcDbLine
 10
352.2482429775483
 20
72.5118638263444
 30
0.0
 11
352.2482429775483
 21
70.5726058342535
 31
0.0
  0
LINE
  5
2273
330
1A
100
AcDbEntity
  8
SEIHIN
100
AcDbLine
 10
359.2482429775484
 20
72.5118638263444
 30
0.0
 11
359.2482429775484
 21
70.5726058342535
 31
0.0
  0
LINE
  5
2274
330
1A
100
AcDbEntity
  8
SEIHIN
100
AcDbLine
 10
364.7482429775483
 20
70.82260583425349
 30
0.0
 11
359.4982429775483
 21
70.82260583425349
 31
0.0
  0
LINE
  5
2275
330
1A
100
AcDbEntity
  8
SEIHIN
100
AcDbLine
 10
351.9982429775483
 20
70.82260583425349
 30
0.0
 11
346.7482429775484
 21
70.82260583425349
 31
0.0
  0
ARC
  5
2276
330
1A
100
AcDbEntity
  8
SEIHIN
100
AcDbCircle
 10
351.9982429775483
 20
70.5726058342535
 30
0.0
 40
0.25
100
AcDbArc
 50
0.0
 51
90.0
  0
ARC
  5
2277
330
1A
100
AcDbEntity
  8
SEIHIN
100
AcDbCircle
 10
359.4982429775483
 20
70.5726058342535
 30
0.0
 40
0.25
100
AcDbArc
 50
90.0
 51
180.0
  0
ARC
  5
2278
330
1A
100
AcDbEntity
  8
SEIHIN
100
AcDbCircle
 10
352.4982429775484
 20
70.5726058342535
 30
0.0
 40
0.25
100
AcDbArc
 50
180.0
 51
270.0
  0
ARC
  5
2279
330
1A
100
AcDbEntity
  8
SEIHIN
100
AcDbCircle
 10
358.9982429775484
 20
70.5726058342535
 30
0.0
 40
0.25
100
AcDbArc
 50
270.0
 51
0.0
  0
LINE
  5
2318
330
1A
100
AcDbEntity
  8
SEIHIN
100
AcDbLine
 10
249.3248646113934
 20
217.5441126582334
 30
0.0
 11
253.8248646113934
 21
217.5441126582334
 31
0.0
  0
TEXT
  5
2B09
330
1A
100
AcDbEntity
  8
MOJI
100
AcDbText
 10
119.9136010211517
 20
9.002460288415193
 30
0.0
 40
2.799999999999999
  1
亜鉛メッキ金具正面打（吊）ストロング高強度金具（釣針型）
 41
0.9
  7
ｽﾀｲﾙ1
100
AcDbText
  0
LINE
  5
2B0A
330
1A
100
AcDbEntity
  8
ZUWAKU
100
AcDbLine
 10
104.3233003257602
 20
7.599999759711518
 30
0.0
 11
223.7121816662219
 21
7.599999759711515
 31
0.0
  0
LINE
  5
2B0B
330
1A
100
AcDbEntity
  8
ZUWAKU
100
AcDbLine
 10
104.3233003257602
 20
7.799999759711516
 30
0.0
 11
223.7121816662219
 21
7.79999975971152
 31
0.0
  0
LINE
  5
2B0C
330
1A
100
AcDbEntity
  8
ZUWAKU
100
AcDbLine
 10
104.3233003257602
 20
7.699999759711516
 30
0.0
 11
223.7121816662219
 21
7.699999759711516
 31
0.0
  0
LINE
  5
2B0D
330
1A
100
AcDbEntity
  8
ZUWAKU
100
AcDbLine
 10
-0.000000319273795
 20
15.3999997597115
 30
0.0
 11
398.6999996807261
 21
15.3999997597115
 31
0.0
  0
LINE
  5
2B0E
330
1A
100
AcDbEntity
  8
ZUWAKU
100
AcDbLine
 10
-0.000000319273795
 20
15.2999997597115
 30
0.0
 11
398.6999996807261
 21
15.2999997597115
 31
0.0
  0
LINE
  5
2B0F
330
1A
100
AcDbEntity
  8
ZUWAKU
100
AcDbLine
 10
-0.000000319273795
 20
15.1999997597115
 30
0.0
 11
398.6999996807261
 21
15.1999997597115
 31
0.0
  0
LINE
  5
2B10
330
1A
100
AcDbEntity
  8
ZUWAKU
100
AcDbLine
 10
-0.000000319273795
 20
15.0999997597115
 30
0.0
 11
398.6999996807261
 21
15.0999997597115
 31
0.0
  0
LINE
  5
2B11
330
1A
100
AcDbEntity
  8
ZUWAKU
100
AcDbLine
 10
-0.000000319273795
 20
14.99999975971149
 30
0.0
 11
398.6999996807261
 21
14.99999975971149
 31
0.0
  0
LWPOLYLINE
  5
2B12
330
1A
100
AcDbEntity
  8
ZUWAKU
100
AcDbPolyline
 90
        4
 70
     1
 43
0.0
 10
0.099999680726171
 20
275.6999997597115
 10
0.099999680726171
 20
0.0999997597115226
 10
398.6999996807261
 20
0.0999997597115341
 10
398.6999996807262
 20
275.6999997597115
  0
LWPOLYLINE
  5
2B13
330
1A
100
AcDbEntity
  8
ZUWAKU
100
AcDbPolyline
 90
        4
 70
     1
 43
0.0
 10
0.2999996807261596
 20
275.4999997597115
 10
0.2999996807261596
 20
0.2999997597115111
 10
398.4999996807263
 20
0.2999997597115342
 10
398.4999996807262
 20
275.4999997597115
  0
LWPOLYLINE
  5
2B14
330
1A
100
AcDbEntity
  8
ZUWAKU
100
AcDbPolyline
 90
        4
 70
     1
 43
0.0
 10
-0.000000319273795
 20
275.7999997597115
 10
-0.000000319273795
 20
-0.0000002402885002
 10
398.7999996807262
 20
-0.0000002402884665
 10
398.7999996807262
 20
275.7999997597115
  0
LWPOLYLINE
  5
2B15
330
1A
100
AcDbEntity
  8
ZUWAKU
100
AcDbPolyline
 90
        4
 70
     1
 43
0.0
 10
0.1999996807261937
 20
275.5999997597115
 10
0.1999996807261937
 20
0.1999997597115453
 10
398.5999996807262
 20
0.1999997597115337
 10
398.5999996807262
 20
275.5999997597115
  0
LWPOLYLINE
  5
2B16
330
1A
100
AcDbEntity
  8
ZUWAKU
100
AcDbPolyline
 90
        4
 70
     1
 43
0.0
 10
0.3999996807261823
 20
275.3999997597115
 10
0.3999996807261823
 20
0.3999997597115339
 10
398.3999996807261
 20
0.3999997597115339
 10
398.3999996807261
 20
275.3999997597115
  0
TEXT
  5
2B17
330
1A
100
AcDbEntity
  8
MOJI
100
AcDbText
 10
46.47889447481077
 20
6.37058882484888
 30
0.0
 40
3.0
  1
新・丸トップＲＶ１０５
 41
0.9
  7
ｽﾀｲﾙ1
100
AcDbText
  0
HATCH
  5
2B18
330
1A
100
AcDbEntity
  8
ZUWAKU
100
AcDbHatch
 10
0.0
 20
0.0
 30
0.0
210
0.0
220
0.0
230
1.0
  2
ANSI37
 70
     0
 71
     0
 91
        8
 92
        7
 72
     1
 73
     1
 93
       24
 10
7.251131011286133
 20
8.822424000203291
 42
-0.1989123673796348
 10
7.046105758116766
 20
9.317398747033816
 42
0.0
 10
7.046105758116766
 20
9.962499759711505
 42
-0.4142135623730912
 10
7.308605758116755
 20
10.2249997597115
 42
0.0
 10
8.796105758116709
 20
10.2249997597115
 42
0.4142135623731546
 10
9.058605758116755
 20
10.48749975971149
 42
0.0
 10
9.058605758116755
 20
11.3624997597115
 42
0.4142135623731586
 10
8.796105758116709
 20
11.6249997597115
 42
0.0
 10
7.046105758116766
 20
11.6249997597115
 42
0.4142135623730928
 10
5.646105758116789
 20
10.22499975971151
 42
0.0
 10
5.646105758116789
 20
9.31739874703388
 42
0.1989123673796619
 10
6.261181517625004
 20
7.832474506542077
 42
0.0
 10
7.716080504947342
 20
6.377575519219748
 42
-0.1989123673796613
 10
7.921105758116766
 20
5.882600772389155
 42
0.0
 10
7.921105758116766
 20
5.237499759711496
 42
-0.4142135623730911
 10
7.658605758116777
 20
4.974999759711501
 42
0.0
 10
6.171105758116823
 20
4.974999759711501
 42
0.4142135623731526
 10
5.908605758116777
 20
4.712499759711507
 42
0.0
 10
5.908605758116777
 20
3.837499759711496
 42
0.4142135623731526
 10
6.171105758116823
 20
3.574999759711502
 42
0.0
 10
7.921105758116766
 20
3.574999759711502
 42
0.4142135623731044
 10
9.3211057581168
 20
4.97499975971149
 42
0.0
 10
9.3211057581168
 20
5.882600772389126
 42
0.1989123673796604
 10
8.706029998608528
 20
7.367525012880896
 42
0.0
 97
        0
 92
        7
 72
     1
 73
     1
 93
       16
 10
11.77110575811678
 20
9.524999759711505
 42
-0.4142135623730935
 10
12.47110575811677
 20
10.2249997597115
 42
0.0
 10
13.43360575811675
 20
10.2249997597115
 42
0.4142135623731546
 10
13.6961057581168
 20
10.48749975971149
 42
0.0
 10
13.6961057581168
 20
11.3624997597115
 42
0.4142135623730951
 10
13.43360575811681
 20
11.6249997597115
 42
0.0
 10
12.47110575811672
 20
11.62499975971148
 42
0.4142135623730892
 10
10.37110575811675
 20
9.524999759711469
 42
0.0
 10
10.37110575811675
 20
5.674999759711514
 42
0.4142135623730969
 10
12.47110575811677
 20
3.574999759711502
 42
0.0
 10
13.43360575811675
 20
3.574999759711502
 42
0.4142135623731526
 10
13.6961057581168
 20
3.837499759711496
 42
0.0
 10
13.6961057581168
 20
4.712499759711507
 42
0.4142135623730891
 10
13.43360575811681
 20
4.974999759711501
 42
0.0
 10
12.47110575811677
 20
4.974999759711501
 42
-0.4142135623730928
 10
11.77110575811678
 20
5.674999759711495
 42
0.0
 97
        0
 92
        7
 72
     1
 73
     1
 93
        2
 10
12.12110575811675
 20
7.599999759711501
 42
1.0
 10
13.87110575811675
 20
7.599999759711501
 42
1.0
 97
        0
 92
        7
 72
     1
 73
     1
 93
       26
 10
18.65742899920576
 20
9.602523356493215
 42
0.0
 10
19.18824881577467
 20
11.28345277562801
 42
0.5069206636600134
 10
18.93793336617699
 20
11.6249997597115
 42
0.0
 10
18.08848867637237
 20
11.6249997597115
 42
0.3272098845218764
 10
17.8381732267747
 20
11.44154674379498
 42
0.0
 10
16.90403828945881
 20
8.483452775628041
 42
-0.3272098845219541
 10
16.65372283986107
 20
8.2999997597115
 42
0.0
 10
16.58360575811684
 20
8.2999997597115
 42
-0.4142135623731526
 10
16.3211057581168
 20
8.562499759711494
 42
0.0
 10
16.3211057581168
 20
11.3624997597115
 42
0.4142135623730951
 10
16.05860575811681
 20
11.6249997597115
 42
0.0
 10
15.18360575811675
 20
11.6249997597115
 42
0.4142135623730871
 10
14.92110575811676
 20
11.36249975971151
 42
0.0
 10
14.92110575811676
 20
3.837499759711496
 42
0.4142135623730891
 10
15.18360575811675
 20
3.574999759711502
 42
0.0
 10
16.05860575811675
 20
3.574999759711502
 42
0.4142135623731526
 10
16.3211057581168
 20
3.837499759711496
 42
0.0
 10
16.3211057581168
 20
6.637499759711507
 42
-0.4142135623731526
 10
16.58360575811684
 20
6.899999759711501
 42
0.0
 10
16.65372283986113
 20
6.899999759711501
 42
-0.3272098845218915
 10
16.90403828945881
 20
6.716546743794964
 42
0.0
 10
17.8381732267747
 20
3.758452775628038
 42
0.3272098845218902
 10
18.08848867637237
 20
3.574999759711502
 42
0.0
 10
18.93793336617699
 20
3.574999759711502
 42
0.5069206636600335
 10
19.18824881577467
 20
3.916546743795006
 42
0.0
 10
18.02505312653784
 20
7.59999975971157
 42
0.0
 97
        0
 92
        7
 72
     1
 73
     1
 93
        8
 10
21.74610575811675
 20
11.3624997597115
 42
0.4142135623731546
 10
21.48360575811671
 20
11.6249997597115
 42
0.0
 10
20.60860575811682
 20
11.6249997597115
 42
0.4142135623731507
 10
20.34610575811677
 20
11.36249975971151
 42
0.0
 10
20.34610575811677
 20
3.837499759711496
 42
0.4142135623731526
 10
20.60860575811682
 20
3.574999759711502
 42
0.0
 10
21.48360575811671
 20
3.574999759711502
 42
0.4142135623731526
 10
21.74610575811675
 20
3.837499759711496
 42
0.0
 97
        0
 92
        7
 72
     1
 73
     1
 93
       24
 10
24.1961057581168
 20
9.962499759711505
 42
-0.4142135623731546
 10
24.45860575811684
 20
10.2249997597115
 42
0.0
 10
25.9461057581168
 20
10.2249997597115
 42
0.4142135623730911
 10
26.20860575811679
 20
10.48749975971149
 42
0.0
 10
26.20860575811679
 20
11.3624997597115
 42
0.4142135623730952
 10
25.9461057581168
 20
11.6249997597115
 42
0.0
 10
24.1961057581168
 20
11.6249997597115
 42
0.4142135623731048
 10
22.79610575811676
 20
10.22499975971151
 42
0.0
 10
22.79610575811676
 20
9.31739874703388
 42
0.1989123673796613
 10
23.41118151762504
 20
7.832474506542105
 42
0.0
 10
24.86608050494737
 20
6.377575519219771
 42
-0.1989123673796402
 10
25.0711057581168
 20
5.882600772389235
 42
0.0
 10
25.0711057581168
 20
5.237499759711496
 42
-0.4142135623730911
 10
24.80860575811681
 20
4.974999759711501
 42
0.0
 10
23.3211057581168
 20
4.974999759711501
 42
0.4142135623731526
 10
23.05860575811675
 20
4.712499759711507
 42
0.0
 10
23.05860575811675
 20
3.837499759711496
 42
0.4142135623730891
 10
23.32110575811674
 20
3.574999759711502
 42
0.0
 10
25.0711057581168
 20
3.574999759711502
 42
0.4142135623730925
 10
26.47110575811677
 20
4.97499975971149
 42
0.0
 10
26.47110575811677
 20
5.882600772389126
 42
0.1989123673796675
 10
25.8560299986085
 20
7.367525012880953
 42
0.0
 10
24.40113101128622
 20
8.822424000203211
 42
-0.1989123673796652
 10
24.1961057581168
 20
9.317398747033795
 42
0.0
 97
        0
 92
        7
 72
     1
 73
     1
 93
       16
 10
28.92110575811676
 20
11.36249975971149
 42
0.414213562373103
 10
28.65860575811677
 20
11.6249997597115
 42
0.0
 10
27.78360575811678
 20
11.6249997597115
 42
0.4142135623730871
 10
27.52110575811679
 20
11.36249975971151
 42
0.0
 10
27.52110575811679
 20
4.97499975971149
 42
0.4142135623730926
 10
28.92110575811676
 20
3.574999759711502
 42
0.0
 10
30.67110575811677
 20
3.574999759711502
 42
0.4142135623731044
 10
32.0711057581168
 20
4.97499975971149
 42
0.0
 10
32.0711057581168
 20
11.3624997597115
 42
0.4142135623730951
 10
31.80860575811681
 20
11.6249997597115
 42
0.0
 10
30.93360575811675
 20
11.6249997597115
 42
0.4142135623730871
 10
30.67110575811677
 20
11.36249975971151
 42
0.0
 10
30.67110575811677
 20
5.499999759711489
 42
-0.414213562373088
 10
30.14610575811679
 20
4.974999759711501
 42
0.0
 10
29.4461057581168
 20
4.974999759711501
 42
-0.4142135623731197
 10
28.92110575811676
 20
5.499999759711489
 42
0.0
 97
        0
 92
        7
 72
     1
 73
     1
 93
        8
 10
34.52110575811679
 20
11.36249975971151
 42
0.4142135623730871
 10
34.2586057581168
 20
11.6249997597115
 42
0.0
 10
33.3836057581168
 20
11.6249997597115
 42
0.4142135623731507
 10
33.12110575811675
 20
11.36249975971151
 42
0.0
 10
33.12110575811675
 20
3.837499759711496
 42
0.4142135623730891
 10
33.38360575811674
 20
3.574999759711502
 42
0.0
 10
34.2586057581168
 20
3.574999759711502
 42
0.4142135623730891
 10
34.52110575811679
 20
3.837499759711496
 42
0.0
 97
        0
 75
     0
 76
     1
 52
0.0
 41
0.1
 77
     0
 78
     2
 53
45.0
 43
-450.4711524866133
 44
-6.600000240288466
 45
-0.2245064030267288
 46
0.2245064030267288
 79
     0
 53
135.0
 43
-450.4711524866133
 44
-6.600000240288466
 45
-0.2245064030267288
 46
-0.2245064030267288
 79
     0
 47
0.057451373970553
 98
        8
 10
8.039927162237859
 20
7.583586582654277
 10
11.20225718394578
 20
9.422030850937005
 10
12.58218362355603
 20
7.755940582746859
 10
15.45702967154477
 20
8.100648582932251
 10
20.91923569020457
 20
8.330454716703059
 10
23.44910012829097
 20
9.709287917915105
 10
28.27884266692638
 20
9.364578717259007
 10
33.91353949053757
 20
9.594384851029815
  0
LINE
  5
2B19
330
1A
100
AcDbEntity
  8
ZUWAKU
100
AcDbLine
 10
12.47110575811677
 20
11.62499975971148
 30
0.0
 11
13.43360575811675
 21
11.6249997597115
 31
0.0
  0
LINE
  5
2B1A
330
1A
100
AcDbEntity
  8
ZUWAKU
100
AcDbLine
 10
13.43360575811675
 20
10.2249997597115
 30
0.0
 11
12.47110575811677
 21
10.2249997597115
 31
0.0
  0
LINE
  5
2B1B
330
1A
100
AcDbEntity
  8
ZUWAKU
100
AcDbLine
 10
12.47110575811677
 20
4.974999759711501
 30
0.0
 11
13.43360575811675
 21
4.974999759711501
 31
0.0
  0
LINE
  5
2B1C
330
1A
100
AcDbEntity
  8
ZUWAKU
100
AcDbLine
 10
13.43360575811675
 20
3.574999759711502
 30
0.0
 11
12.47110575811677
 21
3.574999759711502
 31
0.0
  0
CIRCLE
  5
2B1D
330
1A
100
AcDbEntity
  8
ZUWAKU
100
AcDbCircle
 10
12.99610575811675
 20
7.599999759711501
 30
0.0
 40
0.875
  0
ARC
  5
2B1E
330
1A
100
AcDbEntity
  8
ZUWAKU
100
AcDbCircle
 10
7.746105758116755
 20
9.317398747033852
 30
0.0
 40
0.7
100
AcDbArc
 50
180.0000000000016
 51
224.9999999999988
  0
LINE
  5
2B1F
330
1A
100
AcDbEntity
  8
ZUWAKU
100
AcDbLine
 10
11.77110575811678
 20
9.524999759711501
 30
0.0
 11
11.77110575811678
 21
5.674999759711504
 31
0.0
  0
LINE
  5
2B20
330
1A
100
AcDbEntity
  8
ZUWAKU
100
AcDbLine
 10
10.37110575811675
 20
5.674999759711504
 30
0.0
 11
10.37110575811675
 21
9.52499975971148
 31
0.0
  0
ARC
  5
2B21
330
1A
100
AcDbEntity
  8
ZUWAKU
100
AcDbCircle
 10
7.746105758116755
 20
9.317398747033852
 30
0.0
 40
2.099999999999999
100
AcDbArc
 50
180.0
 51
225.0
  0
ARC
  5
2B22
330
1A
100
AcDbEntity
  8
ZUWAKU
100
AcDbCircle
 10
7.921105758116766
 20
4.974999759711501
 30
0.0
 40
1.399999999999999
100
AcDbArc
 50
270.0
 51
0.0
  0
ARC
  5
2B23
330
1A
100
AcDbEntity
  8
ZUWAKU
100
AcDbCircle
 10
12.47110575811677
 20
5.674999759711504
 30
0.0
 40
2.099999999999999
100
AcDbArc
 50
180.0
 51
270.0
  0
ARC
  5
2B24
330
1A
100
AcDbEntity
  8
ZUWAKU
100
AcDbCircle
 10
7.221105758116777
 20
5.882600772389153
 30
0.0
 40
2.099999999999999
100
AcDbArc
 50
0.0
 51
45.0
  0
LINE
  5
2B25
330
1A
100
AcDbEntity
  8
ZUWAKU
100
AcDbLine
 10
8.706029998608528
 20
7.367525012880914
 30
0.0
 11
7.25113101128619
 21
8.822424000203252
 31
0.0
  0
LINE
  5
2B26
330
1A
100
AcDbEntity
  8
ZUWAKU
100
AcDbLine
 10
7.921105758116766
 20
5.237499759711504
 30
0.0
 11
7.921105758116766
 21
5.882600772389174
 31
0.0
  0
ARC
  5
2B27
330
1A
100
AcDbEntity
  8
ZUWAKU
100
AcDbCircle
 10
7.658605758116777
 20
5.237499759711504
 30
0.0
 40
0.2625
100
AcDbArc
 50
270.0
 51
0.0
  0
ARC
  5
2B28
330
1A
100
AcDbEntity
  8
ZUWAKU
100
AcDbCircle
 10
7.221105758116777
 20
5.882600772389174
 30
0.0
 40
0.7
100
AcDbArc
 50
0.0
 51
45.0
  0
LINE
  5
2B29
330
1A
100
AcDbEntity
  8
ZUWAKU
100
AcDbLine
 10
5.908605758116777
 20
3.837499759711501
 30
0.0
 11
5.908605758116777
 21
4.712499759711501
 31
0.0
  0
ARC
  5
2B2A
330
1A
100
AcDbEntity
  8
ZUWAKU
100
AcDbCircle
 10
6.171105758116766
 20
3.837499759711501
 30
0.0
 40
0.2625
100
AcDbArc
 50
180.0
 51
270.0
  0
ARC
  5
2B2B
330
1A
100
AcDbEntity
  8
ZUWAKU
100
AcDbCircle
 10
6.171105758116766
 20
4.712499759711501
 30
0.0
 40
0.2625
100
AcDbArc
 50
90.0
 51
180.0
  0
LINE
  5
2B2C
330
1A
100
AcDbEntity
  8
ZUWAKU
100
AcDbLine
 10
6.171105758116766
 20
3.574999759711502
 30
0.0
 11
7.921105758116766
 21
3.574999759711502
 31
0.0
  0
LINE
  5
2B2D
330
1A
100
AcDbEntity
  8
ZUWAKU
100
AcDbLine
 10
6.171105758116766
 20
4.974999759711501
 30
0.0
 11
7.658605758116777
 21
4.974999759711501
 31
0.0
  0
LINE
  5
2B2E
330
1A
100
AcDbEntity
  8
ZUWAKU
100
AcDbLine
 10
6.261181517625004
 20
7.832474506542091
 30
0.0
 11
7.716080504947342
 21
6.37757551921976
 31
0.0
  0
LINE
  5
2B2F
330
1A
100
AcDbEntity
  8
ZUWAKU
100
AcDbLine
 10
9.3211057581168
 20
4.974999759711501
 30
0.0
 11
9.3211057581168
 21
5.882600772389174
 31
0.0
  0
ARC
  5
2B30
330
1A
100
AcDbEntity
  8
ZUWAKU
100
AcDbCircle
 10
12.47110575811677
 20
5.674999759711504
 30
0.0
 40
0.7
100
AcDbArc
 50
180.0
 51
270.0
  0
ARC
  5
2B31
330
1A
100
AcDbEntity
  8
ZUWAKU
100
AcDbCircle
 10
8.796105758116766
 20
11.3624997597115
 30
0.0
 40
0.2625
100
AcDbArc
 50
0.0
 51
90.0
  0
ARC
  5
2B32
330
1A
100
AcDbEntity
  8
ZUWAKU
100
AcDbCircle
 10
8.796105758116766
 20
10.4874997597115
 30
0.0
 40
0.2625
100
AcDbArc
 50
270.0
 51
0.0
  0
LINE
  5
2B33
330
1A
100
AcDbEntity
  8
ZUWAKU
100
AcDbLine
 10
7.046105758116766
 20
11.6249997597115
 30
0.0
 11
8.796105758116766
 21
11.6249997597115
 31
0.0
  0
ARC
  5
2B34
330
1A
100
AcDbEntity
  8
ZUWAKU
100
AcDbCircle
 10
7.308605758116755
 20
9.962499759711501
 30
0.0
 40
0.2625
100
AcDbArc
 50
90.0
 51
180.0
  0
LINE
  5
2B35
330
1A
100
AcDbEntity
  8
ZUWAKU
100
AcDbLine
 10
7.046105758116766
 20
9.962499759711501
 30
0.0
 11
7.046105758116766
 21
9.317398747033831
 31
0.0
  0
LINE
  5
2B36
330
1A
100
AcDbEntity
  8
ZUWAKU
100
AcDbLine
 10
8.796105758116766
 20
10.2249997597115
 30
0.0
 11
7.308605758116755
 21
10.2249997597115
 31
0.0
  0
LINE
  5
2B37
330
1A
100
AcDbEntity
  8
ZUWAKU
100
AcDbLine
 10
5.646105758116789
 20
10.2249997597115
 30
0.0
 11
5.646105758116789
 21
9.317398747033831
 31
0.0
  0
ARC
  5
2B38
330
1A
100
AcDbEntity
  8
ZUWAKU
100
AcDbCircle
 10
7.046105758116766
 20
10.2249997597115
 30
0.0
 40
1.399999999999999
100
AcDbArc
 50
90.0
 51
180.0
  0
LINE
  5
2B39
330
1A
100
AcDbEntity
  8
ZUWAKU
100
AcDbLine
 10
9.058605758116755
 20
11.3624997597115
 30
0.0
 11
9.058605758116755
 21
10.4874997597115
 31
0.0
  0
ARC
  5
2B3A
330
1A
100
AcDbEntity
  8
ZUWAKU
100
AcDbCircle
 10
12.47110575811677
 20
9.524999759711501
 30
0.0
 40
0.7
100
AcDbArc
 50
90.0
 51
180.0
  0
ARC
  5
2B3B
330
1A
100
AcDbEntity
  8
ZUWAKU
100
AcDbCircle
 10
12.47110575811677
 20
9.52499975971148
 30
0.0
 40
2.099999999999999
100
AcDbArc
 50
90.0
 51
180.0
  0
LINE
  5
2B3C
330
1A
100
AcDbEntity
  8
ZUWAKU
100
AcDbLine
 10
39.66331445472031
 20
14.99999975971149
 30
0.0
 11
39.66331445472042
 21
0.3999997597115339
 31
0.0
  0
LINE
  5
2B3D
330
1A
100
AcDbEntity
  8
ZUWAKU
100
AcDbLine
 10
39.76331445472033
 20
14.99999975971149
 30
0.0
 11
39.76331445472044
 21
0.3999997597115339
 31
0.0
  0
LINE
  5
2B3E
330
1A
100
AcDbEntity
  8
ZUWAKU
100
AcDbLine
 10
39.5633144547204
 20
14.99999975971149
 30
0.0
 11
39.5633144547204
 21
0.3999997597115339
 31
0.0
  0
LINE
  5
2B3F
330
1A
100
AcDbEntity
  8
ZUWAKU
100
AcDbLine
 10
32.0711057581168
 20
4.974999759711501
 30
0.0
 11
32.0711057581168
 21
11.3624997597115
 31
0.0
  0
LINE
  5
2B40
330
1A
100
AcDbEntity
  8
ZUWAKU
100
AcDbLine
 10
30.67110575811677
 20
11.3624997597115
 30
0.0
 11
30.67110575811677
 21
5.499999759711499
 31
0.0
  0
LINE
  5
2B41
330
1A
100
AcDbEntity
  8
ZUWAKU
100
AcDbLine
 10
34.52110575811679
 20
3.837499759711501
 30
0.0
 11
34.52110575811679
 21
11.3624997597115
 31
0.0
  0
LINE
  5
2B42
330
1A
100
AcDbEntity
  8
ZUWAKU
100
AcDbLine
 10
33.12110575811675
 20
11.3624997597115
 30
0.0
 11
33.12110575811675
 21
3.837499759711501
 31
0.0
  0
ARC
  5
2B43
330
1A
100
AcDbEntity
  8
ZUWAKU
100
AcDbCircle
 10
24.89610575811679
 20
9.317398747033852
 30
0.0
 40
0.7
100
AcDbArc
 50
180.0000000000016
 51
224.9999999999988
  0
ARC
  5
2B44
330
1A
100
AcDbEntity
  8
ZUWAKU
100
AcDbCircle
 10
24.89610575811679
 20
9.317398747033852
 30
0.0
 40
2.099999999999999
100
AcDbArc
 50
180.0
 51
225.0
  0
LINE
  5
2B45
330
1A
100
AcDbEntity
  8
ZUWAKU
100
AcDbLine
 10
18.65742899920576
 20
9.602523356493215
 30
0.0
 11
18.02505312653784
 21
7.599999759711511
 31
0.0
  0
LINE
  5
2B46
330
1A
100
AcDbEntity
  8
ZUWAKU
100
AcDbLine
 10
20.34610575811677
 20
11.3624997597115
 30
0.0
 11
20.34610575811677
 21
3.837499759711501
 31
0.0
  0
LINE
  5
2B47
330
1A
100
AcDbEntity
  8
ZUWAKU
100
AcDbLine
 10
21.74610575811675
 20
3.837499759711501
 30
0.0
 11
21.74610575811675
 21
11.3624997597115
 31
0.0
  0
LINE
  5
2B48
330
1A
100
AcDbEntity
  8
ZUWAKU
100
AcDbLine
 10
27.52110575811679
 20
11.3624997597115
 30
0.0
 11
27.52110575811679
 21
4.974999759711501
 31
0.0
  0
LINE
  5
2B49
330
1A
100
AcDbEntity
  8
ZUWAKU
100
AcDbLine
 10
28.92110575811676
 20
5.499999759711499
 30
0.0
 11
28.92110575811676
 21
11.3624997597115
 31
0.0
  0
LINE
  5
2B4A
330
1A
100
AcDbEntity
  8
ZUWAKU
100
AcDbLine
 10
16.3211057581168
 20
8.562499759711503
 30
0.0
 11
16.3211057581168
 21
11.3624997597115
 31
0.0
  0
LINE
  5
2B4B
330
1A
100
AcDbEntity
  8
ZUWAKU
100
AcDbLine
 10
14.92110575811676
 20
11.3624997597115
 30
0.0
 11
14.92110575811676
 21
3.837499759711501
 31
0.0
  0
LINE
  5
2B4C
330
1A
100
AcDbEntity
  8
ZUWAKU
100
AcDbLine
 10
17.8381732267747
 20
11.44154674379498
 30
0.0
 11
16.90403828945881
 21
8.483452775628016
 31
0.0
  0
LINE
  5
2B4D
330
1A
100
AcDbEntity
  8
ZUWAKU
100
AcDbLine
 10
30.14610575811679
 20
4.974999759711501
 30
0.0
 11
29.4461057581168
 21
4.974999759711501
 31
0.0
  0
LINE
  5
2B4E
330
1A
100
AcDbEntity
  8
ZUWAKU
100
AcDbLine
 10
28.92110575811676
 20
3.574999759711502
 30
0.0
 11
30.67110575811677
 21
3.574999759711502
 31
0.0
  0
LINE
  5
2B4F
330
1A
100
AcDbEntity
  8
ZUWAKU
100
AcDbLine
 10
20.60860575811676
 20
3.574999759711502
 30
0.0
 11
21.48360575811676
 21
3.574999759711502
 31
0.0
  0
LINE
  5
2B50
330
1A
100
AcDbEntity
  8
ZUWAKU
100
AcDbLine
 10
17.8381732267747
 20
3.758452775628015
 30
0.0
 11
16.90403828945881
 21
6.716546743794985
 31
0.0
  0
ARC
  5
2B51
330
1A
100
AcDbEntity
  8
ZUWAKU
100
AcDbCircle
 10
16.65372283986113
 20
8.562499759711503
 30
0.0
 40
0.2625
100
AcDbArc
 50
270.0
 51
342.4744316262769
  0
LINE
  5
2B52
330
1A
100
AcDbEntity
  8
ZUWAKU
100
AcDbLine
 10
16.65372283986113
 20
8.2999997597115
 30
0.0
 11
16.58360575811679
 21
8.2999997597115
 31
0.0
  0
LINE
  5
2B53
330
1A
100
AcDbEntity
  8
ZUWAKU
100
AcDbLine
 10
16.58360575811679
 20
6.899999759711501
 30
0.0
 11
16.65372283986113
 21
6.899999759711501
 31
0.0
  0
ARC
  5
2B54
330
1A
100
AcDbEntity
  8
ZUWAKU
100
AcDbCircle
 10
16.58360575811679
 20
8.562499759711503
 30
0.0
 40
0.2625
100
AcDbArc
 50
180.0
 51
270.0
  0
LINE
  5
2B55
330
1A
100
AcDbEntity
  8
ZUWAKU
100
AcDbLine
 10
15.18360575811675
 20
3.574999759711502
 30
0.0
 11
16.05860575811675
 21
3.574999759711502
 31
0.0
  0
ARC
  5
2B56
330
1A
100
AcDbEntity
  8
ZUWAKU
100
AcDbCircle
 10
16.05860575811675
 20
3.837499759711501
 30
0.0
 40
0.2625
100
AcDbArc
 50
270.0
 51
0.0
  0
LINE
  5
2B57
330
1A
100
AcDbEntity
  8
ZUWAKU
100
AcDbLine
 10
16.3211057581168
 20
3.837499759711501
 30
0.0
 11
16.3211057581168
 21
6.637499759711502
 31
0.0
  0
LINE
  5
2B58
330
1A
100
AcDbEntity
  8
ZUWAKU
100
AcDbLine
 10
13.6961057581168
 20
4.712499759711501
 30
0.0
 11
13.6961057581168
 21
3.837499759711501
 31
0.0
  0
ARC
  5
2B59
330
1A
100
AcDbEntity
  8
ZUWAKU
100
AcDbCircle
 10
13.43360575811675
 20
3.837499759711501
 30
0.0
 40
0.2625
100
AcDbArc
 50
270.0
 51
0.0
  0
ARC
  5
2B5A
330
1A
100
AcDbEntity
  8
ZUWAKU
100
AcDbCircle
 10
13.43360575811675
 20
4.712499759711501
 30
0.0
 40
0.2625
100
AcDbArc
 50
0.0
 51
90.0
  0
ARC
  5
2B5B
330
1A
100
AcDbEntity
  8
ZUWAKU
100
AcDbCircle
 10
15.18360575811675
 20
3.837499759711501
 30
0.0
 40
0.2625
100
AcDbArc
 50
180.0
 51
270.0
  0
ARC
  5
2B5C
330
1A
100
AcDbEntity
  8
ZUWAKU
100
AcDbCircle
 10
16.65372283986113
 20
6.637499759711502
 30
0.0
 40
0.2625
100
AcDbArc
 50
17.52556837372303
 51
90.0
  0
ARC
  5
2B5D
330
1A
100
AcDbEntity
  8
ZUWAKU
100
AcDbCircle
 10
16.58360575811679
 20
6.637499759711502
 30
0.0
 40
0.2625
100
AcDbArc
 50
90.0
 51
180.0
  0
ARC
  5
2B5E
330
1A
100
AcDbEntity
  8
ZUWAKU
100
AcDbCircle
 10
20.60860575811676
 20
3.837499759711501
 30
0.0
 40
0.2625
100
AcDbArc
 50
180.0
 51
270.0
  0
LINE
  5
2B5F
330
1A
100
AcDbEntity
  8
ZUWAKU
100
AcDbLine
 10
18.08848867637243
 20
3.574999759711502
 30
0.0
 11
18.93793336617693
 21
3.574999759711502
 31
0.0
  0
ARC
  5
2B60
330
1A
100
AcDbEntity
  8
ZUWAKU
100
AcDbCircle
 10
18.93793336617693
 20
3.837499759711501
 30
0.0
 40
0.2625
100
AcDbArc
 50
270.0
 51
17.52556837372303
  0
LINE
  5
2B61
330
1A
100
AcDbEntity
  8
ZUWAKU
100
AcDbLine
 10
19.18824881577467
 20
3.916546743794988
 30
0.0
 11
18.02505312653784
 21
7.599999759711511
 31
0.0
  0
ARC
  5
2B62
330
1A
100
AcDbEntity
  8
ZUWAKU
100
AcDbCircle
 10
18.08848867637243
 20
3.837499759711501
 30
0.0
 40
0.2625
100
AcDbArc
 50
197.525568373723
 51
270.0
  0
ARC
  5
2B63
330
1A
100
AcDbEntity
  8
ZUWAKU
100
AcDbCircle
 10
28.92110575811676
 20
4.974999759711501
 30
0.0
 40
1.399999999999999
100
AcDbArc
 50
180.0
 51
270.0
  0
ARC
  5
2B64
330
1A
100
AcDbEntity
  8
ZUWAKU
100
AcDbCircle
 10
25.0711057581168
 20
4.974999759711501
 30
0.0
 40
1.399999999999999
100
AcDbArc
 50
270.0
 51
0.0
  0
LINE
  5
2B65
330
1A
100
AcDbEntity
  8
ZUWAKU
100
AcDbLine
 10
25.85602999860856
 20
7.367525012880914
 30
0.0
 11
24.40113101128616
 21
8.822424000203252
 31
0.0
  0
LINE
  5
2B66
330
1A
100
AcDbEntity
  8
ZUWAKU
100
AcDbLine
 10
25.0711057581168
 20
5.237499759711504
 30
0.0
 11
25.0711057581168
 21
5.882600772389174
 31
0.0
  0
ARC
  5
2B67
330
1A
100
AcDbEntity
  8
ZUWAKU
100
AcDbCircle
 10
24.37110575811675
 20
5.882600772389174
 30
0.0
 40
0.7
100
AcDbArc
 50
0.0
 51
45.0
  0
ARC
  5
2B68
330
1A
100
AcDbEntity
  8
ZUWAKU
100
AcDbCircle
 10
24.80860575811675
 20
5.237499759711504
 30
0.0
 40
0.2625
100
AcDbArc
 50
270.0
 51
0.0
  0
LINE
  5
2B69
330
1A
100
AcDbEntity
  8
ZUWAKU
100
AcDbLine
 10
23.05860575811675
 20
3.837499759711501
 30
0.0
 11
23.05860575811675
 21
4.712499759711501
 31
0.0
  0
ARC
  5
2B6A
330
1A
100
AcDbEntity
  8
ZUWAKU
100
AcDbCircle
 10
23.3211057581168
 20
3.837499759711501
 30
0.0
 40
0.2625
100
AcDbArc
 50
180.0
 51
270.0
  0
ARC
  5
2B6B
330
1A
100
AcDbEntity
  8
ZUWAKU
100
AcDbCircle
 10
21.48360575811676
 20
3.837499759711501
 30
0.0
 40
0.2625
100
AcDbArc
 50
270.0
 51
0.0
  0
ARC
  5
2B6C
330
1A
100
AcDbEntity
  8
ZUWAKU
100
AcDbCircle
 10
23.3211057581168
 20
4.712499759711501
 30
0.0
 40
0.2625
100
AcDbArc
 50
90.0
 51
180.0
  0
LINE
  5
2B6D
330
1A
100
AcDbEntity
  8
ZUWAKU
100
AcDbLine
 10
23.3211057581168
 20
4.974999759711501
 30
0.0
 11
24.80860575811675
 21
4.974999759711501
 31
0.0
  0
LINE
  5
2B6E
330
1A
100
AcDbEntity
  8
ZUWAKU
100
AcDbLine
 10
23.3211057581168
 20
3.574999759711502
 30
0.0
 11
25.0711057581168
 21
3.574999759711502
 31
0.0
  0
LINE
  5
2B6F
330
1A
100
AcDbEntity
  8
ZUWAKU
100
AcDbLine
 10
23.41118151762504
 20
7.832474506542091
 30
0.0
 11
24.86608050494737
 21
6.37757551921976
 31
0.0
  0
LINE
  5
2B70
330
1A
100
AcDbEntity
  8
ZUWAKU
100
AcDbLine
 10
26.47110575811677
 20
4.974999759711501
 30
0.0
 11
26.47110575811677
 21
5.882600772389174
 31
0.0
  0
ARC
  5
2B71
330
1A
100
AcDbEntity
  8
ZUWAKU
100
AcDbCircle
 10
24.37110575811675
 20
5.882600772389153
 30
0.0
 40
2.099999999999999
100
AcDbArc
 50
0.0
 51
45.0
  0
ARC
  5
2B72
330
1A
100
AcDbEntity
  8
ZUWAKU
100
AcDbCircle
 10
29.4461057581168
 20
5.499999759711499
 30
0.0
 40
0.525
100
AcDbArc
 50
180.0
 51
270.0
  0
ARC
  5
2B73
330
1A
100
AcDbEntity
  8
ZUWAKU
100
AcDbCircle
 10
30.67110575811677
 20
4.974999759711501
 30
0.0
 40
1.399999999999999
100
AcDbArc
 50
270.0
 51
0.0
  0
LINE
  5
2B74
330
1A
100
AcDbEntity
  8
ZUWAKU
100
AcDbLine
 10
33.3836057581168
 20
3.574999759711502
 30
0.0
 11
34.2586057581168
 21
3.574999759711502
 31
0.0
  0
ARC
  5
2B75
330
1A
100
AcDbEntity
  8
ZUWAKU
100
AcDbCircle
 10
33.3836057581168
 20
3.837499759711501
 30
0.0
 40
0.2625
100
AcDbArc
 50
180.0
 51
270.0
  0
ARC
  5
2B76
330
1A
100
AcDbEntity
  8
ZUWAKU
100
AcDbCircle
 10
30.14610575811679
 20
5.499999759711499
 30
0.0
 40
0.525
100
AcDbArc
 50
270.0
 51
0.0
  0
ARC
  5
2B77
330
1A
100
AcDbEntity
  8
ZUWAKU
100
AcDbCircle
 10
34.2586057581168
 20
3.837499759711501
 30
0.0
 40
0.2625
100
AcDbArc
 50
270.0
 51
0.0
  0
LINE
  5
2B78
330
1A
100
AcDbEntity
  8
ZUWAKU
100
AcDbLine
 10
21.48360575811676
 20
11.6249997597115
 30
0.0
 11
20.60860575811676
 21
11.6249997597115
 31
0.0
  0
ARC
  5
2B79
330
1A
100
AcDbEntity
  8
ZUWAKU
100
AcDbCircle
 10
16.05860575811675
 20
11.3624997597115
 30
0.0
 40
0.2625
100
AcDbArc
 50
0.0
 51
90.0
  0
LINE
  5
2B7A
330
1A
100
AcDbEntity
  8
ZUWAKU
100
AcDbLine
 10
16.05860575811675
 20
11.6249997597115
 30
0.0
 11
15.18360575811675
 21
11.6249997597115
 31
0.0
  0
ARC
  5
2B7B
330
1A
100
AcDbEntity
  8
ZUWAKU
100
AcDbCircle
 10
13.43360575811675
 20
11.3624997597115
 30
0.0
 40
0.2625
100
AcDbArc
 50
0.0
 51
90.0
  0
ARC
  5
2B7C
330
1A
100
AcDbEntity
  8
ZUWAKU
100
AcDbCircle
 10
15.18360575811675
 20
11.3624997597115
 30
0.0
 40
0.2625
100
AcDbArc
 50
90.0
 51
180.0
  0
ARC
  5
2B7D
330
1A
100
AcDbEntity
  8
ZUWAKU
100
AcDbCircle
 10
13.43360575811675
 20
10.4874997597115
 30
0.0
 40
0.2625
100
AcDbArc
 50
270.0
 51
0.0
  0
LINE
  5
2B7E
330
1A
100
AcDbEntity
  8
ZUWAKU
100
AcDbLine
 10
13.6961057581168
 20
11.3624997597115
 30
0.0
 11
13.6961057581168
 21
10.4874997597115
 31
0.0
  0
ARC
  5
2B7F
330
1A
100
AcDbEntity
  8
ZUWAKU
100
AcDbCircle
 10
20.60860575811676
 20
11.3624997597115
 30
0.0
 40
0.2625
100
AcDbArc
 50
90.0
 51
180.0
  0
LINE
  5
2B80
330
1A
100
AcDbEntity
  8
ZUWAKU
100
AcDbLine
 10
18.08848867637243
 20
11.6249997597115
 30
0.0
 11
18.93793336617693
 21
11.6249997597115
 31
0.0
  0
ARC
  5
2B81
330
1A
100
AcDbEntity
  8
ZUWAKU
100
AcDbCircle
 10
18.93793336617693
 20
11.3624997597115
 30
0.0
 40
0.2625
100
AcDbArc
 50
342.4744316262769
 51
90.0
  0
LINE
  5
2B82
330
1A
100
AcDbEntity
  8
ZUWAKU
100
AcDbLine
 10
19.18824881577467
 20
11.28345277562801
 30
0.0
 11
18.65742899920576
 21
9.602523356493215
 31
0.0
  0
ARC
  5
2B83
330
1A
100
AcDbEntity
  8
ZUWAKU
100
AcDbCircle
 10
18.08848867637243
 20
11.3624997597115
 30
0.0
 40
0.2625
100
AcDbArc
 50
90.0
 51
162.4744316262769
  0
LINE
  5
2B84
330
1A
100
AcDbEntity
  8
ZUWAKU
100
AcDbLine
 10
24.1961057581168
 20
11.6249997597115
 30
0.0
 11
25.9461057581168
 21
11.6249997597115
 31
0.0
  0
LINE
  5
2B85
330
1A
100
AcDbEntity
  8
ZUWAKU
100
AcDbLine
 10
25.9461057581168
 20
10.2249997597115
 30
0.0
 11
24.45860575811678
 21
10.2249997597115
 31
0.0
  0
ARC
  5
2B86
330
1A
100
AcDbEntity
  8
ZUWAKU
100
AcDbCircle
 10
24.45860575811678
 20
9.962499759711501
 30
0.0
 40
0.2625
100
AcDbArc
 50
90.0
 51
180.0
  0
LINE
  5
2B87
330
1A
100
AcDbEntity
  8
ZUWAKU
100
AcDbLine
 10
24.1961057581168
 20
9.962499759711501
 30
0.0
 11
24.1961057581168
 21
9.317398747033831
 31
0.0
  0
ARC
  5
2B88
330
1A
100
AcDbEntity
  8
ZUWAKU
100
AcDbCircle
 10
21.48360575811676
 20
11.3624997597115
 30
0.0
 40
0.2625
100
AcDbArc
 50
0.0
 51
90.0
  0
LINE
  5
2B89
330
1A
100
AcDbEntity
  8
ZUWAKU
100
AcDbLine
 10
22.79610575811676
 20
10.2249997597115
 30
0.0
 11
22.79610575811676
 21
9.317398747033831
 31
0.0
  0
ARC
  5
2B8A
330
1A
100
AcDbEntity
  8
ZUWAKU
100
AcDbCircle
 10
24.1961057581168
 20
10.2249997597115
 30
0.0
 40
1.399999999999999
100
AcDbArc
 50
90.0
 51
180.0
  0
ARC
  5
2B8B
330
1A
100
AcDbEntity
  8
ZUWAKU
100
AcDbCircle
 10
28.65860575811677
 20
11.3624997597115
 30
0.0
 40
0.2625
100
AcDbArc
 50
0.0
 51
90.0
  0
ARC
  5
2B8C
330
1A
100
AcDbEntity
  8
ZUWAKU
100
AcDbCircle
 10
27.78360575811678
 20
11.3624997597115
 30
0.0
 40
0.2625
100
AcDbArc
 50
90.0
 51
180.0
  0
LINE
  5
2B8D
330
1A
100
AcDbEntity
  8
ZUWAKU
100
AcDbLine
 10
28.65860575811677
 20
11.6249997597115
 30
0.0
 11
27.78360575811678
 21
11.6249997597115
 31
0.0
  0
ARC
  5
2B8E
330
1A
100
AcDbEntity
  8
ZUWAKU
100
AcDbCircle
 10
25.9461057581168
 20
11.3624997597115
 30
0.0
 40
0.2625
100
AcDbArc
 50
0.0
 51
90.0
  0
ARC
  5
2B8F
330
1A
100
AcDbEntity
  8
ZUWAKU
100
AcDbCircle
 10
25.9461057581168
 20
10.4874997597115
 30
0.0
 40
0.2625
100
AcDbArc
 50
270.0
 51
0.0
  0
LINE
  5
2B90
330
1A
100
AcDbEntity
  8
ZUWAKU
100
AcDbLine
 10
26.20860575811679
 20
11.3624997597115
 30
0.0
 11
26.20860575811679
 21
10.4874997597115
 31
0.0
  0
LINE
  5
2B91
330
1A
100
AcDbEntity
  8
ZUWAKU
100
AcDbLine
 10
34.2586057581168
 20
11.6249997597115
 30
0.0
 11
33.3836057581168
 21
11.6249997597115
 31
0.0
  0
ARC
  5
2B92
330
1A
100
AcDbEntity
  8
ZUWAKU
100
AcDbCircle
 10
33.3836057581168
 20
11.3624997597115
 30
0.0
 40
0.2625
100
AcDbArc
 50
90.0
 51
180.0
  0
ARC
  5
2B93
330
1A
100
AcDbEntity
  8
ZUWAKU
100
AcDbCircle
 10
31.80860575811675
 20
11.3624997597115
 30
0.0
 40
0.2625
100
AcDbArc
 50
0.0
 51
90.0
  0
LINE
  5
2B94
330
1A
100
AcDbEntity
  8
ZUWAKU
100
AcDbLine
 10
31.80860575811675
 20
11.6249997597115
 30
0.0
 11
30.93360575811675
 21
11.6249997597115
 31
0.0
  0
ARC
  5
2B95
330
1A
100
AcDbEntity
  8
ZUWAKU
100
AcDbCircle
 10
30.93360575811675
 20
11.3624997597115
 30
0.0
 40
0.2625
100
AcDbArc
 50
90.0
 51
180.0
  0
ARC
  5
2B96
330
1A
100
AcDbEntity
  8
ZUWAKU
100
AcDbCircle
 10
34.2586057581168
 20
11.3624997597115
 30
0.0
 40
0.2625
100
AcDbArc
 50
0.0
 51
90.0
  0
TEXT
  5
2B97
330
1A
100
AcDbEntity
  8
MOJI
100
AcDbText
 10
119.9136010211517
 20
1.60246028841521
 30
0.0
 40
2.799999999999999
  1
ＲＶ１０５－０－７５
 41
0.9
  7
ｽﾀｲﾙ1
100
AcDbText
  0
LINE
  5
2B98
330
1A
100
AcDbEntity
  8
ZUWAKU
100
AcDbLine
 10
104.1233003257601
 20
14.99999975971149
 30
0.0
 11
104.1233003257601
 21
0.3999997597115339
 31
0.0
  0
LINE
  5
2B99
330
1A
100
AcDbEntity
  8
ZUWAKU
100
AcDbLine
 10
104.32330032576
 20
14.99999975971149
 30
0.0
 11
104.3233003257602
 21
0.3999997597115339
 31
0.0
  0
LINE
  5
2B9A
330
1A
100
AcDbEntity
  8
ZUWAKU
100
AcDbLine
 10
104.22330032576
 20
14.99999975971149
 30
0.0
 11
104.2233003257601
 21
0.3999997597115339
 31
0.0
  0
TEXT
  5
2B9B
330
1A
100
AcDbEntity
  8
ZUWAKU
100
AcDbText
 10
104.8620228368649
 20
4.827678028904308
 30
0.0
 40
2.0
  1
サイズ
 41
0.9
  7
ｽﾀｲﾙ1
100
AcDbText
  0
TEXT
  5
2B9C
330
1A
100
AcDbEntity
  8
ZUWAKU
100
AcDbText
 10
104.8620228368648
 20
12.02767802890429
 30
0.0
 40
2.0
  1
品名
 41
0.9
  7
ｽﾀｲﾙ1
100
AcDbText
  0
LINE
  5
2B9D
330
1A
100
AcDbEntity
  8
ZUWAKU
100
AcDbLine
 10
324.4086009358283
 20
7.599999759711515
 30
0.0
 11
348.6245049549968
 21
7.599999759711517
 31
0.0
  0
LINE
  5
2B9E
330
1A
100
AcDbEntity
  8
ZUWAKU
100
AcDbLine
 10
324.4086009358284
 20
7.699999759711518
 30
0.0
 11
348.6245049549968
 21
7.699999759711516
 31
0.0
  0
LINE
  5
2B9F
330
1A
100
AcDbEntity
  8
ZUWAKU
100
AcDbLine
 10
324.4086009358283
 20
7.799999759711516
 30
0.0
 11
348.6245049549968
 21
7.799999759711516
 31
0.0
  0
TEXT
  5
2BA0
330
1A
100
AcDbEntity
  8
ZUWAKU
100
AcDbText
 10
329.1019685243774
 20
9.002460288415193
 30
0.0
 40
2.799999999999999
  1
　　．　　．　　
 41
0.9
  7
ｽﾀｲﾙ1
100
AcDbText
  0
LINE
  5
2BA1
330
1A
100
AcDbEntity
  8
ZUWAKU
100
AcDbLine
 10
252.5995894297966
 20
7.599999759711518
 30
0.0
 11
276.2634775637824
 21
7.599999759711518
 31
0.0
  0
LINE
  5
2BA2
330
1A
100
AcDbEntity
  8
ZUWAKU
100
AcDbLine
 10
252.5995894297966
 20
7.699999759711516
 30
0.0
 11
276.2634775637824
 21
7.699999759711516
 31
0.0
  0
LINE
  5
2BA3
330
1A
100
AcDbEntity
  8
ZUWAKU
100
AcDbLine
 10
252.5995894297966
 20
7.799999759711516
 30
0.0
 11
276.2634775637824
 21
7.799999759711516
 31
0.0
  0
TEXT
  5
2BA4
330
1A
100
AcDbEntity
  8
MOJI
100
AcDbText
 10
231.2836388417205
 20
5.971308620541492
 30
0.0
 40
2.799999999999999
  1
ＬＪ７５□
 41
0.9
  7
ｽﾀｲﾙ1
100
AcDbText
  0
LINE
  5
2BA5
330
1A
100
AcDbEntity
  8
ZUWAKU
100
AcDbLine
 10
223.8121816662218
 20
14.99999975971149
 30
0.0
 11
223.8121816662219
 21
0.3999997597115339
 31
0.0
  0
LINE
  5
2BA6
330
1A
100
AcDbEntity
  8
ZUWAKU
100
AcDbLine
 10
223.9121816662218
 20
14.99999975971149
 30
0.0
 11
223.9121816662219
 21
0.3999997597115339
 31
0.0
  0
LINE
  5
2BA7
330
1A
100
AcDbEntity
  8
ZUWAKU
100
AcDbLine
 10
223.7121816662219
 20
14.99999975971149
 30
0.0
 11
223.7121816662219
 21
0.3999997597115339
 31
0.0
  0
TEXT
  5
2BA8
330
1A
100
AcDbEntity
  8
MOJI
100
AcDbText
 10
264.0204536668826
 20
9.002460288415193
 30
0.0
 40
2.799999999999999
  1
Ａ３
 41
0.9
  7
ｽﾀｲﾙ1
100
AcDbText
  0
LINE
  5
2BA9
330
1A
100
AcDbEntity
  8
ZUWAKU
100
AcDbLine
 10
252.4995894297966
 20
14.99999975971149
 30
0.0
 11
252.4995894297967
 21
0.3999997597115339
 31
0.0
  0
LINE
  5
2BAA
330
1A
100
AcDbEntity
  8
ZUWAKU
100
AcDbLine
 10
252.5995894297966
 20
14.99999975971149
 30
0.0
 11
252.5995894297967
 21
0.3999997597115339
 31
0.0
  0
LINE
  5
2BAB
330
1A
100
AcDbEntity
  8
ZUWAKU
100
AcDbLine
 10
252.3995894297967
 20
14.99999975971149
 30
0.0
 11
252.3995894297967
 21
0.3999997597115339
 31
0.0
  0
TEXT
  5
2BAC
330
1A
100
AcDbEntity
  8
ZUWAKU
100
AcDbText
 10
231.3468805084797
 20
1.307035215281246
 30
0.0
 40
1.5
  1
□には色品番が入ります
 41
0.9
  7
ｽﾀｲﾙ1
100
AcDbText
  0
TEXT
  5
2BAD
330
1A
100
AcDbEntity
  8
ZUWAKU
100
AcDbText
 10
253.3383119409015
 20
4.827678028904308
 30
0.0
 40
2.0
  1
縮尺
 41
0.9
  7
ｽﾀｲﾙ1
100
AcDbText
  0
TEXT
  5
2BAE
330
1A
100
AcDbEntity
  8
MOJI
100
AcDbText
 10
264.0204536668826
 20
1.60246028841521
 30
0.0
 40
2.799999999999999
  1
１/１
 41
0.9
  7
ｽﾀｲﾙ1
100
AcDbText
  0
TEXT
  5
2BAF
330
1A
100
AcDbEntity
  8
ZUWAKU
100
AcDbText
 10
224.6509041773266
 20
12.02767802890429
 30
0.0
 40
2.0
  1
品番
 41
0.9
  7
ｽﾀｲﾙ1
100
AcDbText
  0
TEXT
  5
2BB0
330
1A
100
AcDbEntity
  8
ZUWAKU
100
AcDbText
 10
253.3383119409014
 20
12.02767802890429
 30
0.0
 40
2.0
  1
用紙
 41
0.9
  7
ｽﾀｲﾙ1
100
AcDbText
  0
LINE
  5
2BB1
330
1A
100
AcDbEntity
  8
ZUWAKU
100
AcDbLine
 10
324.3086009358283
 20
14.99999975971149
 30
0.0
 11
324.3086009358285
 21
0.3999997597115339
 31
0.0
  0
LINE
  5
2BB2
330
1A
100
AcDbEntity
  8
ZUWAKU
100
AcDbLine
 10
324.4086009358284
 20
14.99999975971149
 30
0.0
 11
324.4086009358285
 21
0.3999997597115339
 31
0.0
  0
LINE
  5
2BB3
330
1A
100
AcDbEntity
  8
ZUWAKU
100
AcDbLine
 10
324.2086009358284
 20
14.99999975971149
 30
0.0
 11
324.2086009358284
 21
0.3999997597115339
 31
0.0
  0
LINE
  5
2BB4
330
1A
100
AcDbEntity
  8
ZUWAKU
100
AcDbLine
 10
276.3634775637823
 20
14.99999975971149
 30
0.0
 11
276.3634775637824
 21
0.3999997597115339
 31
0.0
  0
LINE
  5
2BB5
330
1A
100
AcDbEntity
  8
ZUWAKU
100
AcDbLine
 10
276.4634775637823
 20
14.99999975971149
 30
0.0
 11
276.4634775637824
 21
0.3999997597115339
 31
0.0
  0
LINE
  5
2BB6
330
1A
100
AcDbEntity
  8
ZUWAKU
100
AcDbLine
 10
276.2634775637824
 20
14.99999975971149
 30
0.0
 11
276.2634775637824
 21
0.3999997597115339
 31
0.0
  0
TEXT
  5
2BB7
330
1A
100
AcDbEntity
  8
ZUWAKU
100
AcDbText
 10
325.1473234469332
 20
12.02767802890429
 30
0.0
 40
2.0
  1
DATE
 41
0.9
  7
ｽﾀｲﾙ1
100
AcDbText
  0
LINE
  5
2BB8
330
1A
100
AcDbEntity
  8
ZUWAKU
100
AcDbLine
 10
348.6245049549968
 20
14.99999975971149
 30
0.0
 11
348.6245049549968
 21
0.3999997597115339
 31
0.0
  0
LINE
  5
2BB9
330
1A
100
AcDbEntity
  8
ZUWAKU
100
AcDbLine
 10
348.7245049549968
 20
14.99999975971149
 30
0.0
 11
348.7245049549968
 21
0.3999997597115339
 31
0.0
  0
LINE
  5
2BBA
330
1A
100
AcDbEntity
  8
ZUWAKU
100
AcDbLine
 10
348.8245049549967
 20
14.99999975971149
 30
0.0
 11
348.8245049549969
 21
0.3999997597115339
 31
0.0
  0
LINE
  5
2BBB
330
1A
100
AcDbEntity
  8
ZUWAKU
100
AcDbLine
 10
348.9245049549968
 20
14.99999975971149
 30
0.0
 11
348.9245049549968
 21
0.3999997597115339
 31
0.0
  0
TEXT
  5
2BBC
330
1A
100
AcDbEntity
  8
ZUWAKU
100
AcDbText
 10
354.2640417768481
 20
8.776919427554901
 30
0.0
 40
3.0
  1
積水化学工業株式会社
 41
0.9
  7
ｽﾀｲﾙ1
100
AcDbText
  0
TEXT
  5
2BBD
330
1A
100
AcDbEntity
  8
ZUWAKU
100
AcDbText
 10
354.2640417768481
 20
3.324419916638532
 30
0.0
 40
3.0
  1
建材事業部
 41
0.9
  7
ｽﾀｲﾙ1
100
AcDbText
  0
VIEWPORT
  5
22
330
17
100
AcDbEntity
 67
     1
  8
0
100
AcDbViewport
 10
313.6808219178082
 20
148.5
 30
0.0
 40
627.3616438356165
 41
297.0
 68
     2
 69
     1
1001
ACAD
1000
MVIEW
1002
{
1070
    16
1010
0.0
1020
0.0
1030
0.0
1010
0.0
1020
0.0
1030
1.0
1040
0.0
1040
297.0
1040
313.6808219178082
1040
148.5
1040
50.0
1040
0.0
1040
0.0
1070
     0
1070
   100
1070
     1
1070
     0
1070
     0
1070
     0
1070
     0
1070
     0
1040
0.0
1040
0.0
1040
0.0
1040
1.0
1040
1.0
1040
10.0
1040
10.0
1070
     0
1002
{
1002
}
1002
}
  0
VIEWPORT
  5
64
330
17
100
AcDbEntity
 67
     1
  8
VIEWPORT
100
AcDbViewport
 10
210.0
 20
148.5
 30
0.0
 40
420.0
 41
297.0
 68
     1
 69
     2
1001
ACAD
1000
MVIEW
1002
{
1070
    16
1010
0.0
1020
0.0
1030
0.0
1010
0.0
1020
0.0
1030
1.0
1040
0.0
1040
302.9399999999998
1040
210.0
1040
148.5
1040
50.0
1040
0.0
1040
0.0
1070
     0
1070
   100
1070
     1
1070
     0
1070
     0
1070
     0
1070
     0
1070
     0
1040
0.0
1040
0.0
1040
0.0
1040
5.0
1040
5.0
1040
0.0
1040
0.0
1070
     0
1002
{
1002
}
1002
}
  0
ENDSEC
  0
SECTION
  2
OBJECTS
  0
DICTIONARY
  5
C
330
0
100
AcDbDictionary
  3
ACAD_GROUP
350
D
  3
ACAD_LAYOUT
350
141
  3
ACAD_MLINESTYLE
350
E
  3
ACAD_PLOTSETTINGS
350
142
  3
ACAD_PLOTSTYLENAME
350
13F
  3
ACADDIM
350
1A14
  3
ACDBVARIABLEDICTIONARY
350
120D
  3
ACDBHEADERROUNDTRIPXREC
350
2C33
  0
DICTIONARY
  5
7A2
330
1A
100
AcDbDictionary
280
     1
  3
ACAD_LAYOUTSELFREF
360
2C55
  0
DICTIONARY
  5
7A0
330
17
100
AcDbDictionary
280
     1
  3
ACAD_LAYOUTSELFREF
360
2C54
  0
DICTIONARY
  5
D
102
{ACAD_REACTORS
330
C
102
}
330
C
100
AcDbDictionary
  0
DICTIONARY
  5
141
102
{ACAD_REACTORS
330
C
102
}
330
C
100
AcDbDictionary
  0
DICTIONARY
  5
E
102
{ACAD_REACTORS
330
C
102
}
330
C
100
AcDbDictionary
  3
STANDARD
350
13
  0
DICTIONARY
  5
142
102
{ACAD_REACTORS
330
C
102
}
330
C
100
AcDbDictionary
  0
ACDBDICTIONARYWDFLT
  5
13F
102
{ACAD_REACTORS
330
C
102
}
330
C
100
AcDbDictionary
281
     1
  3
Normal
350
140
100
AcDbDictionaryWithDefault
340
140
1001
ACAD
1000
TREAT_AS_HARD
1070
     0
1000
TREAT_AS_HARD
1070
     0
1000
TREAT_AS_HARD
1070
     0
1000
TREAT_AS_HARD
1070
     0
1000
TREAT_AS_HARD
1070
     0
1000
TREAT_AS_HARD
1070
     0
1000
TREAT_AS_HARD
1070
     0
1000
TREAT_AS_HARD
1070
     0
1000
TREAT_AS_HARD
1070
     0
1000
TREAT_AS_HARD
1070
     0
1000
TREAT_AS_HARD
1070
     0
1000
TREAT_AS_HARD
1070
     0
1000
TREAT_AS_HARD
1070
     0
1000
TREAT_AS_HARD
1070
     0
1000
TREAT_AS_HARD
1070
     0
  0
XRECORD
  5
1A14
102
{ACAD_REACTORS
330
C
102
}
330
C
100
AcDbXrecord
 90
   990106
  3

 60
     0
 61
     0
 62
     1
 63
     3
 64
     0
 65
     0
 66
     0
 67
     3
 68
     1
 69
     0
 70
     0
 71
     0
 72
     0
 40
0.0
170
     0
340
2082
  0
DICTIONARY
  5
120D
102
{ACAD_REACTORS
330
C
102
}
330
C
100
AcDbDictionary
  3
SORTENTS
350
120E
  0
DICTIONARY
  5
2C33
102
{ACAD_REACTORS
330
C
102
}
330
C
100
AcDbDictionary
  3
TSTACKALIGN
350
2C34
  3
TSTACKSIZE
350
2C35
  3
HYPERLINKBASE
350
2C36
  3
STYLESHEET
350
2C37
  3
LAYOUTDICT
350
2C38
  3
PLOTSETDICT
350
2C39
  3
PLOTSTYLNAMDICT
350
2C3A
  3
LWETCUNION
350
2C3B
  3
INSUNITS
350
2C3C
  3
CEPSNTYPE
350
2C3D
  3
FINGERPRINTGUID
350
2C3E
  3
VERSIONGUID
350
2C3F
  3
PSVPSCALE
350
2C40
  3
DIMSTYLEDATA
350
2C41
  3
PUCSORTHOREF
350
2C42
  3
PUCSORTHOVIEW
350
2C43
  3
PUCSBASE
350
2C44
  3
PUCSORGTOP
350
2C45
  3
PUCSORGBOTTOM
350
2C46
  3
PUCSORGLEFT
350
2C47
  3
PUCSORGRIGHT
350
2C48
  3
PUCSORGFRONT
350
2C49
  3
PUCSORGBACK
350
2C4A
  3
UCSORTHOREF
350
2C4B
  3
UCSORTHOVIEW
350
2C4C
  3
UCSBASE
350
2C4D
  3
UCSORGTOP
350
2C4E
  3
UCSORGBOTTOM
350
2C4F
  3
UCSORGLEFT
350
2C50
  3
UCSORGRIGHT
350
2C51
  3
UCSORGFRONT
350
2C52
  3
UCSORGBACK
350
2C53
  0
XRECORD
  5
2C55
102
{ACAD_REACTORS
330
7A2
102
}
330
7A2
100
AcDbXrecord
340
1A
  0
XRECORD
  5
2C54
102
{ACAD_REACTORS
330
7A0
102
}
330
7A0
100
AcDbXrecord
340
17
  0
MLINESTYLE
  5
13
102
{ACAD_REACTORS
330
E
102
}
330
E
100
AcDbMlineStyle
  2
STANDARD
 70
     0
  3

 62
     0
 51
90.0
 52
90.0
 71
     2
 49
0.5
 62
   256
  6
BYLAYER
 49
-0.5
 62
   256
  6
BYLAYER
  0
ACDBPLACEHOLDER
  5
140
102
{ACAD_REACTORS
330
13F
102
}
330
13F
100
AcDbPlaceHolder
280
     0
  0
DICTIONARYVAR
  5
120E
102
{ACAD_REACTORS
330
120D
102
}
330
120D
100
DictionaryVariables
280
     0
  1
96
  0
XRECORD
  5
2C34
102
{ACAD_REACTORS
330
2C33
102
}
330
2C33
100
AcDbXrecord
 90
        1
  0
XRECORD
  5
2C35
102
{ACAD_REACTORS
330
2C33
102
}
330
2C33
100
AcDbXrecord
 90
       70
  0
XRECORD
  5
2C36
102
{ACAD_REACTORS
330
2C33
102
}
330
2C33
100
AcDbXrecord
  1

  0
XRECORD
  5
2C37
102
{ACAD_REACTORS
330
2C33
102
}
330
2C33
100
AcDbXrecord
  1
systemprinter.ctb
  0
XRECORD
  5
2C38
102
{ACAD_REACTORS
330
2C33
102
}
330
2C33
100
AcDbXrecord
340
141
  0
XRECORD
  5
2C39
102
{ACAD_REACTORS
330
2C33
102
}
330
2C33
100
AcDbXrecord
340
142
  0
XRECORD
  5
2C3A
102
{ACAD_REACTORS
330
2C33
102
}
330
2C33
100
AcDbXrecord
340
13F
  0
XRECORD
  5
2C3B
102
{ACAD_REACTORS
330
2C33
102
}
330
2C33
100
AcDbXrecord
 90
    10781
  0
XRECORD
  5
2C3C
102
{ACAD_REACTORS
330
2C33
102
}
330
2C33
100
AcDbXrecord
 90
        0
  0
XRECORD
  5
2C3D
102
{ACAD_REACTORS
330
2C33
102
}
330
2C33
100
AcDbXrecord
 90
        0
  0
XRECORD
  5
2C3E
102
{ACAD_REACTORS
330
2C33
102
}
330
2C33
100
AcDbXrecord
  1
{4E8D0500-CDD1-11D3-932C-444553540000}
  0
XRECORD
  5
2C3F
102
{ACAD_REACTORS
330
2C33
102
}
330
2C33
100
AcDbXrecord
  1
{5A53C764-401E-4B6A-9FC6-487291508E15}
  0
XRECORD
  5
2C40
102
{ACAD_REACTORS
330
2C33
102
}
330
2C33
100
AcDbXrecord
 40
0.0
  0
XRECORD
  5
2C41
102
{ACAD_REACTORS
330
2C33
102
}
330
2C33
100
AcDbXrecord
1000
DSTYLE
1002
{
1070
   341
340
B2
1070
   343
340
B2
1070
   344
340
B2
1070
   371
 70
    -1
1070
   372
 70
    -1
1002
}
  0
XRECORD
  5
2C42
102
{ACAD_REACTORS
330
2C33
102
}
330
2C33
100
AcDbXrecord
340
0
  0
XRECORD
  5
2C43
102
{ACAD_REACTORS
330
2C33
102
}
330
2C33
100
AcDbXrecord
 70
     0
  0
XRECORD
  5
2C44
102
{ACAD_REACTORS
330
2C33
102
}
330
2C33
100
AcDbXrecord
340
0
  0
XRECORD
  5
2C45
102
{ACAD_REACTORS
330
2C33
102
}
330
2C33
100
AcDbXrecord
 10
0.0
 20
0.0
 30
0.0
  0
XRECORD
  5
2C46
102
{ACAD_REACTORS
330
2C33
102
}
330
2C33
100
AcDbXrecord
 10
0.0
 20
0.0
 30
0.0
  0
XRECORD
  5
2C47
102
{ACAD_REACTORS
330
2C33
102
}
330
2C33
100
AcDbXrecord
 10
0.0
 20
0.0
 30
0.0
  0
XRECORD
  5
2C48
102
{ACAD_REACTORS
330
2C33
102
}
330
2C33
100
AcDbXrecord
 10
0.0
 20
0.0
 30
0.0
  0
XRECORD
  5
2C49
102
{ACAD_REACTORS
330
2C33
102
}
330
2C33
100
AcDbXrecord
 10
0.0
 20
0.0
 30
0.0
  0
XRECORD
  5
2C4A
102
{ACAD_REACTORS
330
2C33
102
}
330
2C33
100
AcDbXrecord
 10
0.0
 20
0.0
 30
0.0
  0
XRECORD
  5
2C4B
102
{ACAD_REACTORS
330
2C33
102
}
330
2C33
100
AcDbXrecord
340
0
  0
XRECORD
  5
2C4C
102
{ACAD_REACTORS
330
2C33
102
}
330
2C33
100
AcDbXrecord
 70
     0
  0
XRECORD
  5
2C4D
102
{ACAD_REACTORS
330
2C33
102
}
330
2C33
100
AcDbXrecord
340
0
  0
XRECORD
  5
2C4E
102
{ACAD_REACTORS
330
2C33
102
}
330
2C33
100
AcDbXrecord
 10
0.0
 20
0.0
 30
0.0
  0
XRECORD
  5
2C4F
102
{ACAD_REACTORS
330
2C33
102
}
330
2C33
100
AcDbXrecord
 10
0.0
 20
0.0
 30
0.0
  0
XRECORD
  5
2C50
102
{ACAD_REACTORS
330
2C33
102
}
330
2C33
100
AcDbXrecord
 10
0.0
 20
0.0
 30
0.0
  0
XRECORD
  5
2C51
102
{ACAD_REACTORS
330
2C33
102
}
330
2C33
100
AcDbXrecord
 10
0.0
 20
0.0
 30
0.0
  0
XRECORD
  5
2C52
102
{ACAD_REACTORS
330
2C33
102
}
330
2C33
100
AcDbXrecord
 10
0.0
 20
0.0
 30
0.0
  0
XRECORD
  5
2C53
102
{ACAD_REACTORS
330
2C33
102
}
330
2C33
100
AcDbXrecord
 10
0.0
 20
0.0
 30
0.0
  0
ENDSEC
  0
EOF
