  0
SECTION
  2
HEADER
  9
$ACADVER
  1
AC1014
  9
$ACADMAINTVER
 70
     9
  9
$DWGCODEPAGE
  3
ANSI_932
  9
$INSBASE
 10
0.0
 20
0.0
 30
0.0
  9
$EXTMIN
 10
-0.0128167242222617
 20
-0.0090632695025761
 30
-0.0000000100021362
  9
$EXTMAX
 10
398.8000497652178
 20
275.822617226868
 30
0.0000000100021363
  9
$LIMMIN
 10
0.0
 20
0.0
  9
$LIMMAX
 10
420.0
 20
297.0
  9
$ORTHOMODE
 70
     0
  9
$REGENMODE
 70
     1
  9
$FILLMODE
 70
     1
  9
$QTEXTMODE
 70
     0
  9
$MIRRTEXT
 70
     1
  9
$DRAGMODE
 70
     2
  9
$LTSCALE
 40
5.0
  9
$OSMODE
 70
    35
  9
$ATTMODE
 70
     1
  9
$TEXTSIZE
 40
3.0
  9
$TRACEWID
 40
1.0
  9
$TEXTSTYLE
  7
STANDARD
  9
$CLAYER
  8
SUNPOU
  9
$CELTYPE
  6
BYLAYER
  9
$CECOLOR
 62
   256
  9
$CELTSCALE
 40
1.0
  9
$DELOBJ
 70
     1
  9
$DISPSILH
 70
     0
  9
$DIMSCALE
 40
1.0
  9
$DIMASZ
 40
3.0
  9
$DIMEXO
 40
3.0
  9
$DIMDLI
 40
7.0
  9
$DIMRND
 40
0.0
  9
$DIMDLE
 40
0.0
  9
$DIMEXE
 40
1.5
  9
$DIMTP
 40
0.0
  9
$DIMTM
 40
0.0
  9
$DIMTXT
 40
3.0
  9
$DIMCEN
 40
3.0
  9
$DIMTSZ
 40
0.0
  9
$DIMTOL
 70
     0
  9
$DIMLIM
 70
     0
  9
$DIMTIH
 70
     0
  9
$DIMTOH
 70
     0
  9
$DIMSE1
 70
     0
  9
$DIMSE2
 70
     0
  9
$DIMTAD
 70
     3
  9
$DIMZIN
 70
     0
  9
$DIMBLK
  1

  9
$DIMASO
 70
     1
  9
$DIMSHO
 70
     1
  9
$DIMPOST
  1

  9
$DIMAPOST
  1

  9
$DIMALT
 70
     0
  9
$DIMALTD
 70
     2
  9
$DIMALTF
 40
25.4
  9
$DIMLFAC
 40
1.0
  9
$DIMTOFL
 70
     1
  9
$DIMTVP
 40
0.0
  9
$DIMTIX
 70
     0
  9
$DIMSOXD
 70
     0
  9
$DIMSAH
 70
     1
  9
$DIMBLK1
  1
OPEN
  9
$DIMBLK2
  1
OPEN
  9
$DIMSTYLE
  2
STANDARD
  9
$DIMCLRD
 70
   256
  9
$DIMCLRE
 70
   256
  9
$DIMCLRT
 70
   256
  9
$DIMTFAC
 40
1.0
  9
$DIMGAP
 40
1.0
  9
$DIMJUST
 70
     0
  9
$DIMSD1
 70
     0
  9
$DIMSD2
 70
     0
  9
$DIMTOLJ
 70
     1
  9
$DIMTZIN
 70
     0
  9
$DIMALTZ
 70
     0
  9
$DIMALTTZ
 70
     0
  9
$DIMFIT
 70
     3
  9
$DIMUPT
 70
     0
  9
$DIMUNIT
 70
     2
  9
$DIMDEC
 70
     0
  9
$DIMTDEC
 70
     0
  9
$DIMALTU
 70
     2
  9
$DIMALTTD
 70
     2
  9
$DIMTXSTY
  7
STANDARD
  9
$DIMAUNIT
 70
     0
  9
$LUNITS
 70
     2
  9
$LUPREC
 70
     4
  9
$SKETCHINC
 40
1.0
  9
$FILLETRAD
 40
0.3
  9
$AUNITS
 70
     0
  9
$AUPREC
 70
     0
  9
$MENU
  1
.
  9
$ELEVATION
 40
0.0
  9
$PELEVATION
 40
0.0
  9
$THICKNESS
 40
0.0
  9
$LIMCHECK
 70
     0
  9
$BLIPMODE
 70
     0
  9
$CHAMFERA
 40
10.0
  9
$CHAMFERB
 40
10.0
  9
$CHAMFERC
 40
20.0
  9
$CHAMFERD
 40
0.0
  9
$SKPOLY
 70
     0
  9
$TDCREATE
 40
2451589.469382176
  9
$TDUPDATE
 40
2453802.575832603
  9
$TDINDWG
 40
0.5657375000
  9
$TDUSRTIMER
 40
0.5657375000
  9
$USRTIMER
 70
     1
  9
$ANGBASE
 50
0.0
  9
$ANGDIR
 70
     0
  9
$PDMODE
 70
     0
  9
$PDSIZE
 40
0.0
  9
$PLINEWID
 40
0.0
  9
$COORDS
 70
     1
  9
$SPLFRAME
 70
     0
  9
$SPLINETYPE
 70
     6
  9
$SPLINESEGS
 70
     8
  9
$ATTDIA
 70
     0
  9
$ATTREQ
 70
     1
  9
$HANDLING
 70
 10241
  9
$HANDSEED
  5
42B6
  9
$SURFTAB1
 70
     6
  9
$SURFTAB2
 70
     6
  9
$SURFTYPE
 70
     6
  9
$SURFU
 70
     6
  9
$SURFV
 70
     6
  9
$UCSNAME
  2

  9
$UCSORG
 10
0.0
 20
0.0
 30
0.0
  9
$UCSXDIR
 10
1.0
 20
0.0
 30
0.0
  9
$UCSYDIR
 10
0.0
 20
1.0
 30
0.0
  9
$PUCSNAME
  2

  9
$PUCSORG
 10
0.0
 20
0.0
 30
0.0
  9
$PUCSXDIR
 10
1.0
 20
0.0
 30
0.0
  9
$PUCSYDIR
 10
0.0
 20
1.0
 30
0.0
  9
$USERI1
 70
     0
  9
$USERI2
 70
     0
  9
$USERI3
 70
     0
  9
$USERI4
 70
     0
  9
$USERI5
 70
     0
  9
$USERR1
 40
0.0
  9
$USERR2
 40
0.0
  9
$USERR3
 40
0.0
  9
$USERR4
 40
0.0
  9
$USERR5
 40
0.0
  9
$WORLDVIEW
 70
     1
  9
$SHADEDGE
 70
     3
  9
$SHADEDIF
 70
    70
  9
$TILEMODE
 70
     1
  9
$MAXACTVP
 70
    16
  9
$PINSBASE
 10
0.0
 20
0.0
 30
0.0
  9
$PLIMCHECK
 70
     0
  9
$PEXTMIN
 10
0.0
 20
0.0
 30
0.0
  9
$PEXTMAX
 10
420.0
 20
297.0
 30
0.0
  9
$PLIMMIN
 10
0.0
 20
0.0
  9
$PLIMMAX
 10
420.0
 20
297.0
  9
$UNITMODE
 70
     0
  9
$VISRETAIN
 70
     0
  9
$PLINEGEN
 70
     0
  9
$PSLTSCALE
 70
     1
  9
$TREEDEPTH
 70
  3020
  9
$PICKSTYLE
 70
     1
  9
$CMLSTYLE
  2
STANDARD
  9
$CMLJUST
 70
     0
  9
$CMLSCALE
 40
1.0
  9
$PROXYGRAPHICS
 70
     1
  9
$MEASUREMENT
 70
     0
  0
ENDSEC
  0
SECTION
  2
CLASSES
  0
CLASS
  1
ACDBDICTIONARYWDFLT
  2
AcDbDictionaryWithDefault
  3
AutoCAD 2000
 90
        0
280
     0
281
     0
  0
CLASS
  1
ACDBPLACEHOLDER
  2
AcDbPlaceHolder
  3
AutoCAD 2000
 90
        0
280
     0
281
     0
  0
CLASS
  1
LAYOUT
  2
AcDbLayout
  3
AutoCAD 2000
 90
        0
280
     0
281
     0
  0
CLASS
  1
LONG_TRANSACTION
  2
AcDbLongTransaction
  3
AutoCAD 2000
 90
        0
280
     0
281
     0
  0
CLASS
  1
LWPOLYLINE
  2
AcDbPolyline
  3
AutoCAD 2000
 90
        0
280
     0
281
     1
  0
CLASS
  1
HATCH
  2
AcDbHatch
  3
AutoCAD 2000
 90
        0
280
     0
281
     1
  0
CLASS
  1
XRECORD
  2
AcDbXrecord
  3
AutoCAD 2000
 90
        0
280
     0
281
     0
  0
CLASS
  1
LONG_TRANSACTION
  2
AcDbLongTransaction
  3
AutoCAD 2000
 90
        0
280
     0
281
     0
  0
CLASS
  1
LWPOLYLINE
  2
AcDbPolyline
  3
AutoCAD 2000
 90
        0
280
     0
281
     1
  0
CLASS
  1
HATCH
  2
AcDbHatch
  3
AutoCAD 2000
 90
        0
280
     0
281
     1
  0
CLASS
  1
XRECORD
  2
AcDbXrecord
  3
AutoCAD 2000
 90
        0
280
     0
281
     0
  0
CLASS
  1
DICTIONARYVAR
  2
AcDbDictionaryVar
  3
AutoCAD 2000
 90
        0
280
     0
281
     0
  0
CLASS
  1
LONG_TRANSACTION
  2
AcDbLongTransaction
  3
AutoCAD 2000
 90
        0
280
     0
281
     0
  0
CLASS
  1
LWPOLYLINE
  2
AcDbPolyline
  3
AutoCAD 2000
 90
        0
280
     0
281
     1
  0
CLASS
  1
HATCH
  2
AcDbHatch
  3
AutoCAD 2000
 90
        0
280
     0
281
     1
  0
CLASS
  1
XRECORD
  2
AcDbXrecord
  3
AutoCAD 2000
 90
        0
280
     0
281
     0
  0
CLASS
  1
LONG_TRANSACTION
  2
AcDbLongTransaction
  3
AutoCAD 2000
 90
        0
280
     0
281
     0
  0
CLASS
  1
LWPOLYLINE
  2
AcDbPolyline
  3
AutoCAD 2000
 90
        0
280
     0
281
     1
  0
CLASS
  1
HATCH
  2
AcDbHatch
  3
AutoCAD 2000
 90
        0
280
     0
281
     1
  0
CLASS
  1
XRECORD
  2
AcDbXrecord
  3
AutoCAD 2000
 90
        0
280
     0
281
     0
  0
CLASS
  1
LONG_TRANSACTION
  2
AcDbLongTransaction
  3
AutoCAD 2000
 90
        0
280
     0
281
     0
  0
CLASS
  1
LWPOLYLINE
  2
AcDbPolyline
  3
AutoCAD 2000
 90
        0
280
     0
281
     1
  0
CLASS
  1
HATCH
  2
AcDbHatch
  3
AutoCAD 2000
 90
        0
280
     0
281
     1
  0
CLASS
  1
XRECORD
  2
AcDbXrecord
  3
AutoCAD 2000
 90
        0
280
     0
281
     0
  0
CLASS
  1
LONG_TRANSACTION
  2
AcDbLongTransaction
  3
AutoCAD 2000
 90
        0
280
     0
281
     0
  0
CLASS
  1
LWPOLYLINE
  2
AcDbPolyline
  3
AutoCAD 2000
 90
        0
280
     0
281
     1
  0
CLASS
  1
HATCH
  2
AcDbHatch
  3
AutoCAD 2000
 90
        0
280
     0
281
     1
  0
CLASS
  1
XRECORD
  2
AcDbXrecord
  3
AutoCAD 2000
 90
        0
280
     0
281
     0
  0
CLASS
  1
LONG_TRANSACTION
  2
AcDbLongTransaction
  3
AutoCAD 2000
 90
        0
280
     0
281
     0
  0
CLASS
  1
LWPOLYLINE
  2
AcDbPolyline
  3
AutoCAD 2000
 90
        0
280
     0
281
     1
  0
CLASS
  1
HATCH
  2
AcDbHatch
  3
AutoCAD 2000
 90
        0
280
     0
281
     1
  0
CLASS
  1
XRECORD
  2
AcDbXrecord
  3
AutoCAD 2000
 90
        0
280
     0
281
     0
  0
CLASS
  1
LONG_TRANSACTION
  2
AcDbLongTransaction
  3
AutoCAD 2000
 90
        0
280
     0
281
     0
  0
CLASS
  1
LWPOLYLINE
  2
AcDbPolyline
  3
AutoCAD 2000
 90
        0
280
     0
281
     1
  0
CLASS
  1
HATCH
  2
AcDbHatch
  3
AutoCAD 2000
 90
        0
280
     0
281
     1
  0
CLASS
  1
XRECORD
  2
AcDbXrecord
  3
AutoCAD 2000
 90
        0
280
     0
281
     0
  0
CLASS
  1
LONG_TRANSACTION
  2
AcDbLongTransaction
  3
AutoCAD 2000
 90
        0
280
     0
281
     0
  0
CLASS
  1
LWPOLYLINE
  2
AcDbPolyline
  3
AutoCAD 2000
 90
        0
280
     0
281
     1
  0
CLASS
  1
HATCH
  2
AcDbHatch
  3
AutoCAD 2000
 90
        0
280
     0
281
     1
  0
CLASS
  1
XRECORD
  2
AcDbXrecord
  3
AutoCAD 2000
 90
        0
280
     0
281
     0
  0
CLASS
  1
LONG_TRANSACTION
  2
AcDbLongTransaction
  3
AutoCAD 2000
 90
        0
280
     0
281
     0
  0
CLASS
  1
LWPOLYLINE
  2
AcDbPolyline
  3
AutoCAD 2000
 90
        0
280
     0
281
     1
  0
CLASS
  1
HATCH
  2
AcDbHatch
  3
AutoCAD 2000
 90
        0
280
     0
281
     1
  0
CLASS
  1
XRECORD
  2
AcDbXrecord
  3
AutoCAD 2000
 90
        0
280
     0
281
     0
  0
CLASS
  1
LONG_TRANSACTION
  2
AcDbLongTransaction
  3
AutoCAD 2000
 90
        0
280
     0
281
     0
  0
CLASS
  1
LWPOLYLINE
  2
AcDbPolyline
  3
AutoCAD 2000
 90
        0
280
     0
281
     1
  0
CLASS
  1
HATCH
  2
AcDbHatch
  3
AutoCAD 2000
 90
        0
280
     0
281
     1
  0
CLASS
  1
XRECORD
  2
AcDbXrecord
  3
AutoCAD 2000
 90
        0
280
     0
281
     0
  0
CLASS
  1
LONG_TRANSACTION
  2
AcDbLongTransaction
  3
AutoCAD 2000
 90
        0
280
     0
281
     0
  0
CLASS
  1
LWPOLYLINE
  2
AcDbPolyline
  3
AutoCAD 2000
 90
        0
280
     0
281
     1
  0
CLASS
  1
HATCH
  2
AcDbHatch
  3
AutoCAD 2000
 90
        0
280
     0
281
     1
  0
CLASS
  1
XRECORD
  2
AcDbXrecord
  3
AutoCAD 2000
 90
        0
280
     0
281
     0
  0
CLASS
  1
LONG_TRANSACTION
  2
AcDbLongTransaction
  3
AutoCAD 2000
 90
        0
280
     0
281
     0
  0
CLASS
  1
LWPOLYLINE
  2
AcDbPolyline
  3
AutoCAD 2000
 90
        0
280
     0
281
     1
  0
CLASS
  1
HATCH
  2
AcDbHatch
  3
AutoCAD 2000
 90
        0
280
     0
281
     1
  0
CLASS
  1
XRECORD
  2
AcDbXrecord
  3
AutoCAD 2000
 90
        0
280
     0
281
     0
  0
CLASS
  1
LONG_TRANSACTION
  2
AcDbLongTransaction
  3
AutoCAD 2000
 90
        0
280
     0
281
     0
  0
CLASS
  1
LWPOLYLINE
  2
AcDbPolyline
  3
AutoCAD 2000
 90
        0
280
     0
281
     1
  0
CLASS
  1
HATCH
  2
AcDbHatch
  3
AutoCAD 2000
 90
        0
280
     0
281
     1
  0
CLASS
  1
XRECORD
  2
AcDbXrecord
  3
AutoCAD 2000
 90
        0
280
     0
281
     0
  0
CLASS
  1
LONG_TRANSACTION
  2
AcDbLongTransaction
  3
AutoCAD 2000
 90
        0
280
     0
281
     0
  0
CLASS
  1
LWPOLYLINE
  2
AcDbPolyline
  3
AutoCAD 2000
 90
        0
280
     0
281
     1
  0
CLASS
  1
HATCH
  2
AcDbHatch
  3
AutoCAD 2000
 90
        0
280
     0
281
     1
  0
CLASS
  1
XRECORD
  2
AcDbXrecord
  3
AutoCAD 2000
 90
        0
280
     0
281
     0
  0
CLASS
  1
LONG_TRANSACTION
  2
AcDbLongTransaction
  3
AutoCAD 2000
 90
        0
280
     0
281
     0
  0
CLASS
  1
LWPOLYLINE
  2
AcDbPolyline
  3
AutoCAD 2000
 90
        0
280
     0
281
     1
  0
CLASS
  1
HATCH
  2
AcDbHatch
  3
AutoCAD 2000
 90
        0
280
     0
281
     1
  0
CLASS
  1
XRECORD
  2
AcDbXrecord
  3
AutoCAD 2000
 90
        0
280
     0
281
     0
  0
CLASS
  1
LONG_TRANSACTION
  2
AcDbLongTransaction
  3
AutoCAD 2000
 90
        0
280
     0
281
     0
  0
CLASS
  1
LWPOLYLINE
  2
AcDbPolyline
  3
AutoCAD 2000
 90
        0
280
     0
281
     1
  0
CLASS
  1
HATCH
  2
AcDbHatch
  3
AutoCAD 2000
 90
        0
280
     0
281
     1
  0
CLASS
  1
XRECORD
  2
AcDbXrecord
  3
AutoCAD 2000
 90
        0
280
     0
281
     0
  0
CLASS
  1
LONG_TRANSACTION
  2
AcDbLongTransaction
  3
AutoCAD 2000
 90
        0
280
     0
281
     0
  0
CLASS
  1
LWPOLYLINE
  2
AcDbPolyline
  3
AutoCAD 2000
 90
        0
280
     0
281
     1
  0
CLASS
  1
HATCH
  2
AcDbHatch
  3
AutoCAD 2000
 90
        0
280
     0
281
     1
  0
CLASS
  1
XRECORD
  2
AcDbXrecord
  3
AutoCAD 2000
 90
        0
280
     0
281
     0
  0
CLASS
  1
LONG_TRANSACTION
  2
AcDbLongTransaction
  3
AutoCAD 2000
 90
        0
280
     0
281
     0
  0
CLASS
  1
LWPOLYLINE
  2
AcDbPolyline
  3
AutoCAD 2000
 90
        0
280
     0
281
     1
  0
CLASS
  1
HATCH
  2
AcDbHatch
  3
AutoCAD 2000
 90
        0
280
     0
281
     1
  0
CLASS
  1
XRECORD
  2
AcDbXrecord
  3
AutoCAD 2000
 90
        0
280
     0
281
     0
  0
CLASS
  1
LONG_TRANSACTION
  2
AcDbLongTransaction
  3
AutoCAD 2000
 90
        0
280
     0
281
     0
  0
CLASS
  1
LWPOLYLINE
  2
AcDbPolyline
  3
AutoCAD 2000
 90
        0
280
     0
281
     1
  0
CLASS
  1
HATCH
  2
AcDbHatch
  3
AutoCAD 2000
 90
        0
280
     0
281
     1
  0
CLASS
  1
XRECORD
  2
AcDbXrecord
  3
AutoCAD 2000
 90
        0
280
     0
281
     0
  0
CLASS
  1
LONG_TRANSACTION
  2
AcDbLongTransaction
  3
AutoCAD 2000
 90
        0
280
     0
281
     0
  0
CLASS
  1
LWPOLYLINE
  2
AcDbPolyline
  3
AutoCAD 2000
 90
        0
280
     0
281
     1
  0
CLASS
  1
HATCH
  2
AcDbHatch
  3
AutoCAD 2000
 90
        0
280
     0
281
     1
  0
CLASS
  1
XRECORD
  2
AcDbXrecord
  3
AutoCAD 2000
 90
        0
280
     0
281
     0
  0
ENDSEC
  0
SECTION
  2
TABLES
  0
TABLE
  2
VPORT
  5
8
330
0
100
AcDbSymbolTable
 70
     2
  0
VPORT
  5
4292
330
8
100
AcDbSymbolTableRecord
100
AcDbViewportTableRecord
  2
*ACTIVE
 70
     0
 10
0.0
 20
0.0
 11
1.0
 21
1.0
 12
216.9310927273081
 22
138.6759589220312
 13
0.0
 23
0.0
 14
5.0
 24
5.0
 15
0.0
 25
0.0
 16
0.0
 26
0.0
 36
1.0
 17
0.0
 27
0.0
 37
0.0
 40
308.1434020819823
 41
1.795454545454545
 42
50.0
 43
0.0
 44
0.0
 50
0.0
 51
0.0
 71
     0
 72
   100
 73
     1
 74
     0
 75
     0
 76
     0
 77
     0
 78
     0
  0
ENDTAB
  0
TABLE
  2
LTYPE
  5
5
330
0
100
AcDbSymbolTable
 70
     3
  0
LTYPE
  5
14
330
5
100
AcDbSymbolTableRecord
100
AcDbLinetypeTableRecord
  2
BYBLOCK
 70
     0
  3

 72
    65
 73
     0
 40
0.0
  0
LTYPE
  5
15
330
5
100
AcDbSymbolTableRecord
100
AcDbLinetypeTableRecord
  2
BYLAYER
 70
     0
  3

 72
    65
 73
     0
 40
0.0
  0
LTYPE
  5
16
330
5
100
AcDbSymbolTableRecord
100
AcDbLinetypeTableRecord
  2
CONTINUOUS
 70
     0
  3
Solid line
 72
    65
 73
     0
 40
0.0
  0
LTYPE
  5
120
330
5
100
AcDbSymbolTableRecord
100
AcDbLinetypeTableRecord
  2
CENTER
 70
     0
  3
____ _ ____ _ ____ _ ____ _ ____ _ ____ _ ____ 
 72
    65
 73
     4
 40
2.0
 49
1.25
 74
     0
 49
-0.25
 74
     0
 49
0.25
 74
     0
 49
-0.25
 74
     0
  0
LTYPE
  5
122
330
5
100
AcDbSymbolTableRecord
100
AcDbLinetypeTableRecord
  2
PHANTOM
 70
     0
  3
______  __  __  ______  __  __  ______  __  __ 
 72
    65
 73
     6
 40
2.5
 49
1.25
 74
     0
 49
-0.25
 74
     0
 49
0.25
 74
     0
 49
-0.25
 74
     0
 49
0.25
 74
     0
 49
-0.25
 74
     0
  0
ENDTAB
  0
TABLE
  2
LAYER
  5
2
330
0
100
AcDbSymbolTable
 70
     9
  0
LAYER
  5
F
330
2
100
AcDbSymbolTableRecord
100
AcDbLayerTableRecord
  2
0
 70
     0
 62
     7
  6
CONTINUOUS
  0
LAYER
  5
62
330
2
100
AcDbSymbolTableRecord
100
AcDbLayerTableRecord
  2
VIEWPORT
 70
     0
 62
     7
  6
CONTINUOUS
  0
LAYER
  5
6B
330
2
100
AcDbSymbolTableRecord
100
AcDbLayerTableRecord
  2
ZUWAKU
 70
     0
 62
     7
  6
CONTINUOUS
  0
LAYER
  5
3EF
330
2
100
AcDbSymbolTableRecord
100
AcDbLayerTableRecord
  2
DEFPOINTS
 70
     0
 62
     7
  6
CONTINUOUS
  0
LAYER
  5
54D
330
2
100
AcDbSymbolTableRecord
100
AcDbLayerTableRecord
  2
SEIHIN
 70
     0
 62
     3
  6
CONTINUOUS
  0
LAYER
  5
54E
330
2
100
AcDbSymbolTableRecord
100
AcDbLayerTableRecord
  2
SUNPOU
 70
     0
 62
     4
  6
CONTINUOUS
  0
LAYER
  5
54F
330
2
100
AcDbSymbolTableRecord
100
AcDbLayerTableRecord
  2
CENTER_L
 70
     0
 62
     1
  6
CENTER
  0
LAYER
  5
550
330
2
100
AcDbSymbolTableRecord
100
AcDbLayerTableRecord
  2
NOKITOI
 70
     0
 62
     8
  6
PHANTOM
  0
LAYER
  5
40AD
330
2
100
AcDbSymbolTableRecord
100
AcDbLayerTableRecord
  2
MOJI
 70
     0
 62
     2
  6
CONTINUOUS
  0
ENDTAB
  0
TABLE
  2
STYLE
  5
3
330
0
100
AcDbSymbolTable
 70
     2
  0
STYLE
  5
10
330
3
100
AcDbSymbolTableRecord
100
AcDbTextStyleTableRecord
  2
STANDARD
 70
     0
 40
0.0
 41
1.0
 50
0.0
 71
     0
 42
3.0
  3
TXT
  4
c:\PROGRAM FILES\AUTOCAD LT\ms\bigfont.shx
  0
STYLE
  5
40AE
330
3
100
AcDbSymbolTableRecord
100
AcDbTextStyleTableRecord
  2
ｽﾀｲﾙ1
 70
     0
 40
0.0
 41
1.0
 50
0.0
 71
     0
 42
2.5
  3
MS PGothic.ttf
  4

1001
ACAD
1000
MS PGothic
1071
    32818
  0
ENDTAB
  0
TABLE
  2
VIEW
  5
6
330
0
100
AcDbSymbolTable
 70
     0
  0
ENDTAB
  0
TABLE
  2
UCS
  5
7
330
0
100
AcDbSymbolTable
 70
     0
  0
ENDTAB
  0
TABLE
  2
APPID
  5
9
330
0
100
AcDbSymbolTable
 70
     1
  0
APPID
  5
11
330
9
100
AcDbSymbolTableRecord
100
AcDbRegAppTableRecord
  2
ACAD
 70
     0
  0
ENDTAB
  0
TABLE
  2
DIMSTYLE
  5
A
330
0
100
AcDbSymbolTable
 70
     1
  0
DIMSTYLE
105
1D
102
{ACAD_REACTORS
330
2073
330
39FF
330
39FE
330
3A07
330
3A06
330
3A15
330
3A05
330
3C2E
330
3C48
330
3C55
330
3C62
330
3F88
102
}
330
A
100
AcDbSymbolTableRecord
100
AcDbDimStyleTableRecord
  2
STANDARD
 70
     0
  3

  4

  5

  6

  7

 40
1.0
 41
0.18
 42
0.0625
 43
0.38
 44
0.18
 45
0.0
 46
0.0
 47
0.0
 48
0.0
140
0.18
141
0.09
142
0.0
143
25.4
144
1.0
145
0.0
146
1.0
147
0.09
 71
     0
 72
     0
 73
     1
 74
     1
 75
     0
 76
     0
 77
     0
 78
     0
170
     0
171
     2
172
     0
173
     0
174
     0
175
     0
176
     0
177
     0
178
     0
270
     2
271
     4
272
     4
273
     2
274
     2
340
10
275
     0
280
     0
281
     0
282
     0
283
     1
284
     0
285
     0
286
     0
287
     3
288
     0
  0
ENDTAB
  0
TABLE
  2
BLOCK_RECORD
  5
1
330
0
100
AcDbSymbolTable
 70
    13
  0
BLOCK_RECORD
  5
1A
102
{ACAD_XDICTIONARY
360
7A2
102
}
330
1
100
AcDbSymbolTableRecord
100
AcDbBlockTableRecord
  2
*MODEL_SPACE
  0
BLOCK_RECORD
  5
17
102
{ACAD_XDICTIONARY
360
7A0
102
}
330
1
100
AcDbSymbolTableRecord
100
AcDbBlockTableRecord
  2
*PAPER_SPACE
  0
BLOCK_RECORD
  5
B2
330
1
100
AcDbSymbolTableRecord
100
AcDbBlockTableRecord
  2
_OPEN
  0
BLOCK_RECORD
  5
2074
330
1
100
AcDbSymbolTableRecord
100
AcDbBlockTableRecord
  2
*D1
  0
BLOCK_RECORD
  5
3A38
330
1
100
AcDbSymbolTableRecord
100
AcDbBlockTableRecord
  2
*D2
  0
BLOCK_RECORD
  5
3A44
330
1
100
AcDbSymbolTableRecord
100
AcDbBlockTableRecord
  2
*D3
  0
BLOCK_RECORD
  5
3A50
330
1
100
AcDbSymbolTableRecord
100
AcDbBlockTableRecord
  2
*D4
  0
BLOCK_RECORD
  5
3A5C
330
1
100
AcDbSymbolTableRecord
100
AcDbBlockTableRecord
  2
*D5
  0
BLOCK_RECORD
  5
3A68
330
1
100
AcDbSymbolTableRecord
100
AcDbBlockTableRecord
  2
*D6
  0
BLOCK_RECORD
  5
3A74
330
1
100
AcDbSymbolTableRecord
100
AcDbBlockTableRecord
  2
*D7
  0
BLOCK_RECORD
  5
3C2F
330
1
100
AcDbSymbolTableRecord
100
AcDbBlockTableRecord
  2
*D8
  0
BLOCK_RECORD
  5
3C49
330
1
100
AcDbSymbolTableRecord
100
AcDbBlockTableRecord
  2
*D9
  0
BLOCK_RECORD
  5
3C56
330
1
100
AcDbSymbolTableRecord
100
AcDbBlockTableRecord
  2
*D10
  0
BLOCK_RECORD
  5
3C63
330
1
100
AcDbSymbolTableRecord
100
AcDbBlockTableRecord
  2
*D11
  0
BLOCK_RECORD
  5
3F89
330
1
100
AcDbSymbolTableRecord
100
AcDbBlockTableRecord
  2
*D12
  0
ENDTAB
  0
ENDSEC
  0
SECTION
  2
BLOCKS
  0
BLOCK
  5
1B
330
1A
100
AcDbEntity
  8
0
100
AcDbBlockBegin
  2
*MODEL_SPACE
 70
     0
 10
0.0
 20
0.0
 30
0.0
  3
*MODEL_SPACE
  1

  0
ENDBLK
  5
1C
330
1A
100
AcDbEntity
  8
0
100
AcDbBlockEnd
  0
BLOCK
  5
18
330
17
100
AcDbEntity
 67
     1
  8
0
100
AcDbBlockBegin
  2
*PAPER_SPACE
 70
     0
 10
0.0
 20
0.0
 30
0.0
  3
*PAPER_SPACE
  1

  0
ENDBLK
  5
19
330
17
100
AcDbEntity
 67
     1
  8
0
100
AcDbBlockEnd
  0
BLOCK
  5
B3
330
B2
100
AcDbEntity
  8
0
100
AcDbBlockBegin
  2
_OPEN
 70
     0
 10
0.0
 20
0.0
 30
0.0
  3
_OPEN
  1

  0
LINE
  5
B4
330
B2
100
AcDbEntity
  8
0
  6
BYBLOCK
 62
     0
100
AcDbLine
 10
-1.0
 20
0.1666666666666666
 30
0.0
 11
0.0
 21
0.0
 31
0.0
  0
LINE
  5
B5
330
B2
100
AcDbEntity
  8
0
  6
BYBLOCK
 62
     0
100
AcDbLine
 10
0.0
 20
0.0
 30
0.0
 11
-1.0
 21
-0.1666666666666666
 31
0.0
  0
LINE
  5
B6
330
B2
100
AcDbEntity
  8
0
  6
BYBLOCK
 62
     0
100
AcDbLine
 10
0.0
 20
0.0
 30
0.0
 11
-1.0
 21
0.0
 31
0.0
  0
ENDBLK
  5
B7
330
B2
100
AcDbEntity
  8
0
100
AcDbBlockEnd
  0
BLOCK
  5
207E
330
2074
100
AcDbEntity
  8
0
100
AcDbBlockBegin
  2
*D1
 70
     1
 10
0.0
 20
0.0
 30
0.0
  3
*D1
  1

  0
LINE
  5
424B
330
2074
100
AcDbEntity
  8
SUNPOU
100
AcDbLine
 10
77.48029202940171
 20
241.2519052791079
 30
0.0
 11
52.14947926106404
 21
241.251905279108
 31
0.0
  0
LINE
  5
424C
330
2074
100
AcDbEntity
  8
SUNPOU
100
AcDbLine
 10
77.48029202940171
 20
221.2519052791079
 30
0.0
 11
52.14947926106403
 21
221.2519052791079
 31
0.0
  0
LINE
  5
424D
330
2074
100
AcDbEntity
  8
SUNPOU
100
AcDbLine
 10
53.64947926106403
 20
238.251905279108
 30
0.0
 11
53.64947926106403
 21
224.251905279108
 31
0.0
  0
INSERT
  5
424E
330
2074
100
AcDbEntity
  8
SUNPOU
100
AcDbBlockReference
  2
_OPEN
 10
53.64947926106403
 20
241.251905279108
 30
0.0
 41
3.0
 42
3.0
 43
3.0
 50
90.0
  0
INSERT
  5
424F
330
2074
100
AcDbEntity
  8
SUNPOU
100
AcDbBlockReference
  2
_OPEN
 10
53.64947926106403
 20
221.2519052791079
 30
0.0
 41
3.0
 42
3.0
 43
3.0
 50
270.0
  0
MTEXT
  5
4250
330
2074
100
AcDbEntity
  8
SUNPOU
100
AcDbMText
 10
51.14947926106399
 20
231.2519052791079
 30
0.0
 40
3.0
 41
0.0
 71
     5
 72
     1
  1
\A1;20
 11
0.0000000000000001
 21
1.0
 31
0.0
1001
ACAD
1000
MTEXTBEGIN
1070
    73
1070
     1
1070
    44
1040
1.0
1070
    74
1070
     0
1000
MTEXTEND
  0
POINT
  5
4251
330
2074
100
AcDbEntity
  8
DEFPOINTS
 62
     0
100
AcDbPoint
 10
80.4802920294017
 20
241.2519052791079
 30
0.0
  0
POINT
  5
4252
330
2074
100
AcDbEntity
  8
DEFPOINTS
 62
     0
100
AcDbPoint
 10
80.4802920294017
 20
221.2519052791079
 30
0.0
  0
POINT
  5
4253
330
2074
100
AcDbEntity
  8
DEFPOINTS
 62
     0
100
AcDbPoint
 10
53.64947926106403
 20
221.2519052791079
 30
0.0
  0
ENDBLK
  5
207F
330
2074
100
AcDbEntity
  8
0
100
AcDbBlockEnd
  0
BLOCK
  5
3A42
330
3A38
100
AcDbEntity
  8
0
100
AcDbBlockBegin
  2
*D2
 70
     1
 10
0.0
 20
0.0
 30
0.0
  3
*D2
  1

  0
LINE
  5
426F
330
3A38
100
AcDbEntity
  8
SUNPOU
100
AcDbLine
 10
282.7535420168014
 20
175.7253035817889
 30
0.0
 11
267.1265076045742
 21
214.7936993403135
 31
0.0
  0
LINE
  5
4270
330
3A38
100
AcDbEntity
  8
SUNPOU
100
AcDbLine
 10
340.3192614159795
 20
198.7511141007502
 30
0.0
 11
324.6922270037523
 21
237.8195098592748
 31
0.0
  0
LINE
  5
4271
330
3A38
100
AcDbEntity
  8
SUNPOU
100
AcDbLine
 10
270.4690217009608
 20
214.5151324444767
 30
0.0
 11
322.4638650292507
 21
235.3126387196675
 31
0.0
  0
INSERT
  5
4272
330
3A38
100
AcDbEntity
  8
SUNPOU
100
AcDbBlockReference
  2
_OPEN
 10
267.6835836655168
 20
213.4009803225915
 30
0.0
 41
3.0
 42
3.0
 43
3.0
 50
201.8009999999998
  0
INSERT
  5
4273
330
3A38
100
AcDbEntity
  8
SUNPOU
100
AcDbBlockReference
  2
_OPEN
 10
325.2493030646949
 20
236.4267908415527
 30
0.0
 41
3.0
 42
3.0
 43
3.0
 50
21.80099999999981
  0
MTEXT
  5
4274
330
3A38
100
AcDbEntity
  8
SUNPOU
100
AcDbMText
 10
295.5379832635348
 20
227.2350839449422
 30
0.0
 40
3.0
 41
0.0
 71
     5
 72
     1
  1
\A1;62
 11
0.9284793451480323
 21
0.3713840406284056
 31
0.0
1001
ACAD
1000
MTEXTBEGIN
1070
    73
1070
     1
1070
    44
1040
1.0
1070
    74
1070
     0
1000
MTEXTEND
  0
POINT
  5
4275
330
3A38
100
AcDbEntity
  8
DEFPOINTS
 62
     0
100
AcDbPoint
 10
283.8676941386866
 20
172.9398655463448
 30
0.0
  0
POINT
  5
4276
330
3A38
100
AcDbEntity
  8
DEFPOINTS
 62
     0
100
AcDbPoint
 10
341.4334135378647
 20
195.9656760653061
 30
0.0
  0
POINT
  5
4277
330
3A38
100
AcDbEntity
  8
DEFPOINTS
 62
     0
100
AcDbPoint
 10
325.2493030646949
 20
236.4267908415527
 30
0.0
  0
ENDBLK
  5
3A43
330
3A38
100
AcDbEntity
  8
0
100
AcDbBlockEnd
  0
BLOCK
  5
3A4E
330
3A44
100
AcDbEntity
  8
0
100
AcDbBlockBegin
  2
*D3
 70
     1
 10
0.0
 20
0.0
 30
0.0
  3
*D3
  1

  0
LINE
  5
4283
330
3A44
100
AcDbEntity
  8
SUNPOU
100
AcDbLine
 10
290.7013336784424
 20
180.0890872271074
 30
0.0
 11
279.3246249705451
 21
208.5314484905993
 31
0.0
  0
LINE
  5
4284
330
3A44
100
AcDbEntity
  8
SUNPOU
100
AcDbLine
 10
331.5544248649558
 20
196.4299850147574
 30
0.0
 11
320.1777161570585
 21
224.8723462782491
 31
0.0
  0
LINE
  5
4285
330
3A44
100
AcDbEntity
  8
SUNPOU
100
AcDbLine
 10
282.6671390669318
 20
208.2528815947624
 30
0.0
 11
317.949354182557
 21
222.3654751386419
 31
0.0
  0
INSERT
  5
4286
330
3A44
100
AcDbEntity
  8
SUNPOU
100
AcDbBlockReference
  2
_OPEN
 10
279.8817010314877
 20
207.1387294728773
 30
0.0
 41
3.0
 42
3.0
 43
3.0
 50
201.8009999999998
  0
INSERT
  5
4287
330
3A44
100
AcDbEntity
  8
SUNPOU
100
AcDbBlockReference
  2
_OPEN
 10
320.7347922180011
 20
223.4796272605271
 30
0.0
 41
3.0
 42
3.0
 43
3.0
 50
21.80099999999981
  0
MTEXT
  5
4288
330
3A44
100
AcDbEntity
  8
SUNPOU
100
AcDbMText
 10
299.3797865231734
 20
217.6303767295722
 30
0.0
 40
3.0
 41
0.0
 71
     5
 72
     1
  1
\A1;44
 11
0.9284793451480323
 21
0.3713840406284056
 31
0.0
1001
ACAD
1000
MTEXTBEGIN
1070
    73
1070
     1
1070
    44
1040
1.0
1070
    74
1070
     0
1000
MTEXTEND
  0
POINT
  5
4289
330
3A44
100
AcDbEntity
  8
DEFPOINTS
 62
     0
100
AcDbPoint
 10
291.8154858003276
 20
177.3036491916633
 30
0.0
  0
POINT
  5
428A
330
3A44
100
AcDbEntity
  8
DEFPOINTS
 62
     0
100
AcDbPoint
 10
332.668576986841
 20
193.6445469793133
 30
0.0
  0
POINT
  5
428B
330
3A44
100
AcDbEntity
  8
DEFPOINTS
 62
     0
100
AcDbPoint
 10
320.7347922180011
 20
223.4796272605271
 30
0.0
  0
ENDBLK
  5
3A4F
330
3A44
100
AcDbEntity
  8
0
100
AcDbBlockEnd
  0
BLOCK
  5
3A5A
330
3A50
100
AcDbEntity
  8
0
100
AcDbBlockBegin
  2
*D4
 70
     1
 10
0.0
 20
0.0
 30
0.0
  3
*D4
  1

  0
LINE
  5
425D
330
3A50
100
AcDbEntity
  8
SUNPOU
100
AcDbLine
 10
282.7535420168014
 20
175.7253035817889
 30
0.0
 11
258.8578291766675
 21
166.1672165498686
 31
0.0
  0
LINE
  5
425E
330
3A50
100
AcDbEntity
  8
SUNPOU
100
AcDbLine
 10
295.7519834387958
 20
143.2285265016078
 30
0.0
 11
271.856270598662
 21
133.6704394696876
 31
0.0
  0
LINE
  5
425F
330
3A50
100
AcDbEntity
  8
SUNPOU
100
AcDbLine
 10
261.3647003162747
 20
163.9388545753671
 30
0.0
 11
272.1348374944988
 21
137.0129535660743
 31
0.0
  0
INSERT
  5
4260
330
3A50
100
AcDbEntity
  8
SUNPOU
100
AcDbBlockReference
  2
_OPEN
 10
260.2505481943895
 20
166.7242926108112
 30
0.0
 41
3.0
 42
3.0
 43
3.0
 50
111.8010000000003
  0
INSERT
  5
4261
330
3A50
100
AcDbEntity
  8
SUNPOU
100
AcDbBlockReference
  2
_OPEN
 10
273.248989616384
 20
134.2275155306302
 30
0.0
 41
3.0
 42
3.0
 43
3.0
 50
291.8010000000003
  0
MTEXT
  5
4262
330
3A50
100
AcDbEntity
  8
SUNPOU
100
AcDbMText
 10
269.0709672682568
 20
151.4043641722918
 30
0.0
 40
3.0
 41
0.0
 71
     5
 72
     1
  1
\A1;35
 11
0.3713840406284137
 21
-0.9284793451480291
 31
0.0
1001
ACAD
1000
MTEXTBEGIN
1070
    73
1070
     1
1070
    44
1040
1.0
1070
    74
1070
     0
1000
MTEXTEND
  0
POINT
  5
4263
330
3A50
100
AcDbEntity
  8
DEFPOINTS
 62
     0
100
AcDbPoint
 10
285.5389800522455
 20
176.8394557036741
 30
0.0
  0
POINT
  5
4264
330
3A50
100
AcDbEntity
  8
DEFPOINTS
 62
     0
100
AcDbPoint
 10
298.5374214742399
 20
144.3426786234931
 30
0.0
  0
POINT
  5
4265
330
3A50
100
AcDbEntity
  8
DEFPOINTS
 62
     0
100
AcDbPoint
 10
273.248989616384
 20
134.2275155306302
 30
0.0
  0
ENDBLK
  5
3A5B
330
3A50
100
AcDbEntity
  8
0
100
AcDbBlockEnd
  0
BLOCK
  5
3A66
330
3A5C
100
AcDbEntity
  8
0
100
AcDbBlockBegin
  2
*D5
 70
     1
 10
0.0
 20
0.0
 30
0.0
  3
*D5
  1

  0
LINE
  5
4266
330
3A5C
100
AcDbEntity
  8
SUNPOU
100
AcDbLine
 10
262.0998010823055
 20
167.4639784350001
 30
0.0
 11
280.2529598560592
 21
174.725091448226
 31
0.0
  0
LINE
  5
4267
330
3A5C
100
AcDbEntity
  8
SUNPOU
100
AcDbLine
 10
275.0982425042999
 20
134.967201354819
 30
0.0
 11
293.2514012780538
 21
142.228314368045
 31
0.0
  0
LINE
  5
4268
330
3A5C
100
AcDbEntity
  8
SUNPOU
100
AcDbLine
 10
279.9743929602225
 20
171.3825773518393
 30
0.0
 11
290.7445301384465
 21
144.4566763425464
 31
0.0
  0
INSERT
  5
4269
330
3A5C
100
AcDbEntity
  8
SUNPOU
100
AcDbBlockReference
  2
_OPEN
 10
278.8602408383372
 20
174.1680153872834
 30
0.0
 41
3.0
 42
3.0
 43
3.0
 50
111.8010000000003
  0
INSERT
  5
426A
330
3A5C
100
AcDbEntity
  8
SUNPOU
100
AcDbBlockReference
  2
_OPEN
 10
291.8586822603318
 20
141.6712383071024
 30
0.0
 41
3.0
 42
3.0
 43
3.0
 50
291.8010000000003
  0
MTEXT
  5
426B
330
3A5C
100
AcDbEntity
  8
SUNPOU
100
AcDbMText
 10
287.6806599122045
 20
158.8480869487639
 30
0.0
 40
3.0
 41
0.0
 71
     5
 72
     1
  1
\A1;35
 11
0.3713840406284137
 21
-0.9284793451480291
 31
0.0
1001
ACAD
1000
MTEXTBEGIN
1070
    73
1070
     1
1070
    44
1040
1.0
1070
    74
1070
     0
1000
MTEXTEND
  0
POINT
  5
426C
330
3A5C
100
AcDbEntity
  8
DEFPOINTS
 62
     0
100
AcDbPoint
 10
259.3143630468615
 20
166.3498263131149
 30
0.0
  0
POINT
  5
426D
330
3A5C
100
AcDbEntity
  8
DEFPOINTS
 62
     0
100
AcDbPoint
 10
272.3128044688559
 20
133.8530492329338
 30
0.0
  0
POINT
  5
426E
330
3A5C
100
AcDbEntity
  8
DEFPOINTS
 62
     0
100
AcDbPoint
 10
291.8586822603318
 20
141.6712383071024
 30
0.0
  0
ENDBLK
  5
3A67
330
3A5C
100
AcDbEntity
  8
0
100
AcDbBlockEnd
  0
BLOCK
  5
3A72
330
3A68
100
AcDbEntity
  8
0
100
AcDbBlockBegin
  2
*D6
 70
     1
 10
0.0
 20
0.0
 30
0.0
  3
*D6
  1

  0
LINE
  5
4254
330
3A68
100
AcDbEntity
  8
SUNPOU
100
AcDbLine
 10
292.6880631792534
 20
150.6192228587292
 30
0.0
 11
278.1870562726993
 21
144.8189403147185
 31
0.0
  0
LINE
  5
4255
330
3A68
100
AcDbEntity
  8
SUNPOU
100
AcDbLine
 10
295.7519834387958
 20
143.2285265016078
 30
0.0
 11
281.1581285977267
 21
137.3911055535342
 31
0.0
  0
LINE
  5
4256
330
3A68
100
AcDbEntity
  8
SUNPOU
100
AcDbLine
 10
280.6939274123066
 20
142.590578340217
 30
0.0
 11
281.4366954935635
 21
140.7336196499209
 31
0.0
  0
INSERT
  5
4257
330
3A68
100
AcDbEntity
  8
SUNPOU
100
AcDbBlockReference
  2
_OPEN
 10
279.5797752904214
 20
145.3760163756611
 30
0.0
 41
3.0
 42
3.0
 43
3.0
 50
111.8010000000003
  0
INSERT
  5
4258
330
3A68
100
AcDbEntity
  8
SUNPOU
100
AcDbBlockReference
  2
_OPEN
 10
282.5508476154487
 20
137.9481816144768
 30
0.0
 41
3.0
 42
3.0
 43
3.0
 50
291.8010000000003
  0
MTEXT
  5
4259
330
3A68
100
AcDbEntity
  8
SUNPOU
100
AcDbMText
 10
283.3865098158051
 20
142.59055909664
 30
0.0
 40
3.0
 41
0.0
 71
     5
 72
     1
  1
\A1;8
 11
0.3713840406284137
 21
-0.9284793451480291
 31
0.0
1001
ACAD
1000
MTEXTBEGIN
1070
    73
1070
     1
1070
    44
1040
1.0
1070
    74
1070
     0
1000
MTEXTEND
  0
POINT
  5
425A
330
3A68
100
AcDbEntity
  8
DEFPOINTS
 62
     0
100
AcDbPoint
 10
295.4735012146975
 20
151.7333749806144
 30
0.0
  0
POINT
  5
425B
330
3A68
100
AcDbEntity
  8
DEFPOINTS
 62
     0
100
AcDbPoint
 10
298.5374214742399
 20
144.3426786234931
 30
0.0
  0
POINT
  5
425C
330
3A68
100
AcDbEntity
  8
DEFPOINTS
 62
     0
100
AcDbPoint
 10
282.5508476154487
 20
137.9481816144768
 30
0.0
  0
ENDBLK
  5
3A73
330
3A68
100
AcDbEntity
  8
0
100
AcDbBlockEnd
  0
BLOCK
  5
3A80
330
3A74
100
AcDbEntity
  8
0
100
AcDbBlockBegin
  2
*D7
 70
     1
 10
0.0
 20
0.0
 30
0.0
  3
*D7
  1

  0
LINE
  5
4278
330
3A74
100
AcDbEntity
  8
SUNPOU
100
AcDbLine
 10
282.7535420168014
 20
175.7253035817889
 30
0.0
 11
268.1596871757323
 21
169.8878826337153
 31
0.0
  0
LINE
  5
4279
330
3A74
100
AcDbEntity
  8
SUNPOU
100
AcDbLine
 10
285.6317664073138
 20
168.2603304165418
 30
0.0
 11
271.1307595007596
 21
162.460047872531
 31
0.0
  0
LINE
  5
427A
330
3A74
100
AcDbEntity
  8
SUNPOU
100
AcDbLine
 10
268.4382540715691
 20
173.230396730102
 30
0.0
 11
267.3241019496838
 21
176.0158347655461
 31
0.0
  0
LINE
  5
427B
330
3A74
100
AcDbEntity
  8
SUNPOU
100
AcDbLine
 10
273.6376306403669
 20
160.2316858980296
 30
0.0
 11
274.7517827622521
 21
157.4462478625855
 31
0.0
  0
LINE
  5
427C
330
3A74
100
AcDbEntity
  8
SUNPOU
100
AcDbLine
 10
269.5524061934543
 20
170.4449586946579
 30
0.0
 11
272.5234785184816
 21
163.0171239334737
 31
0.0
  0
INSERT
  5
427D
330
3A74
100
AcDbEntity
  8
SUNPOU
100
AcDbBlockReference
  2
_OPEN
 10
269.5524061934543
 20
170.4449586946579
 30
0.0
 41
3.0
 42
3.0
 43
3.0
 50
291.8010000000003
  0
INSERT
  5
427E
330
3A74
100
AcDbEntity
  8
SUNPOU
100
AcDbBlockReference
  2
_OPEN
 10
272.5234785184816
 20
163.0171239334737
 30
0.0
 41
3.0
 42
3.0
 43
3.0
 50
111.8010000000003
  0
MTEXT
  5
427F
330
3A74
100
AcDbEntity
  8
SUNPOU
100
AcDbMText
 10
273.359140718838
 20
167.6595014156369
 30
0.0
 40
3.0
 41
0.0
 71
     5
 72
     1
  1
\A1;8
 11
0.3713840406284137
 21
-0.9284793451480291
 31
0.0
1001
ACAD
1000
MTEXTBEGIN
1070
    73
1070
     1
1070
    44
1040
1.0
1070
    74
1070
     0
1000
MTEXTEND
  0
POINT
  5
4280
330
3A74
100
AcDbEntity
  8
DEFPOINTS
 62
     0
100
AcDbPoint
 10
285.5389800522455
 20
176.8394557036741
 30
0.0
  0
POINT
  5
4281
330
3A74
100
AcDbEntity
  8
DEFPOINTS
 62
     0
100
AcDbPoint
 10
288.4172044427578
 20
169.374482538427
 30
0.0
  0
POINT
  5
4282
330
3A74
100
AcDbEntity
  8
DEFPOINTS
 62
     0
100
AcDbPoint
 10
272.5234785184816
 20
163.0171239334737
 30
0.0
  0
ENDBLK
  5
3A81
330
3A74
100
AcDbEntity
  8
0
100
AcDbBlockEnd
  0
BLOCK
  5
3C39
330
3C2F
100
AcDbEntity
  8
0
100
AcDbBlockBegin
  2
*D8
 70
     1
 10
0.0
 20
0.0
 30
0.0
  3
*D8
  1

  0
LINE
  5
4239
330
3C2F
100
AcDbEntity
  8
SUNPOU
100
AcDbLine
 10
80.4802920294017
 20
85.36690899623337
 30
0.0
 11
80.4802920294017
 21
181.2547159597925
 31
0.0
  0
LINE
  5
423A
330
3C2F
100
AcDbEntity
  8
SUNPOU
100
AcDbLine
 10
209.4813105063459
 20
106.3969123962334
 30
0.0
 11
209.4813105063459
 21
181.2547159597925
 31
0.0
  0
LINE
  5
423B
330
3C2F
100
AcDbEntity
  8
SUNPOU
100
AcDbLine
 10
83.48029202940171
 20
179.7547159597925
 30
0.0
 11
206.4813105063458
 21
179.7547159597925
 31
0.0
  0
INSERT
  5
423C
330
3C2F
100
AcDbEntity
  8
SUNPOU
100
AcDbBlockReference
  2
_OPEN
 10
80.4802920294017
 20
179.7547159597925
 30
0.0
 41
3.0
 42
3.0
 43
3.0
 50
180.0
  0
INSERT
  5
423D
330
3C2F
100
AcDbEntity
  8
SUNPOU
100
AcDbBlockReference
  2
_OPEN
 10
209.4813105063459
 20
179.7547159597925
 30
0.0
 41
3.0
 42
3.0
 43
3.0
  0
MTEXT
  5
423E
330
3C2F
100
AcDbEntity
  8
SUNPOU
100
AcDbMText
 10
144.9808012678738
 20
182.2547159597925
 30
0.0
 40
3.0
 41
0.0
 71
     5
 72
     1
  1
\A1;129
1001
ACAD
1000
MTEXTBEGIN
1070
    73
1070
     1
1070
    44
1040
1.0
1070
    74
1070
     0
1000
MTEXTEND
  0
POINT
  5
423F
330
3C2F
100
AcDbEntity
  8
DEFPOINTS
 62
     0
100
AcDbPoint
 10
80.4802920294017
 20
82.36690899623338
 30
0.0
  0
POINT
  5
4240
330
3C2F
100
AcDbEntity
  8
DEFPOINTS
 62
     0
100
AcDbPoint
 10
209.4813105063459
 20
103.3969123962334
 30
0.0
  0
POINT
  5
4241
330
3C2F
100
AcDbEntity
  8
DEFPOINTS
 62
     0
100
AcDbPoint
 10
209.4813105063459
 20
179.7547159597925
 30
0.0
  0
ENDBLK
  5
3C3A
330
3C2F
100
AcDbEntity
  8
0
100
AcDbBlockEnd
  0
BLOCK
  5
3C53
330
3C49
100
AcDbEntity
  8
0
100
AcDbBlockBegin
  2
*D9
 70
     1
 10
0.0
 20
0.0
 30
0.0
  3
*D9
  1

  0
LINE
  5
4227
330
3C49
100
AcDbEntity
  8
SUNPOU
100
AcDbLine
 10
198.2619215627745
 20
141.9293558232968
 30
0.0
 11
220.0970687506116
 21
150.6632337242223
 31
0.0
  0
LINE
  5
4228
330
3C49
100
AcDbEntity
  8
SUNPOU
100
AcDbLine
 10
211.2603630627745
 20
109.4325787232968
 30
0.0
 11
233.0955102506115
 21
118.1664566242222
 31
0.0
  0
LINE
  5
4229
330
3C49
100
AcDbEntity
  8
SUNPOU
100
AcDbLine
 10
219.8185018609886
 20
147.3207196273177
 30
0.0
 11
230.5886391068617
 21
120.3948185940634
 31
0.0
  0
INSERT
  5
422A
330
3C49
100
AcDbEntity
  8
SUNPOU
100
AcDbBlockReference
  2
_OPEN
 10
218.7043497339252
 20
150.1061576606905
 30
0.0
 41
3.0
 42
3.0
 43
3.0
 50
111.8010001065149
  0
INSERT
  5
422B
330
3C49
100
AcDbEntity
  8
SUNPOU
100
AcDbBlockReference
  2
_OPEN
 10
231.7027912339252
 20
117.6093805606905
 30
0.0
 41
3.0
 42
3.0
 43
3.0
 50
291.8010001065148
  0
MTEXT
  5
422C
330
3C49
100
AcDbEntity
  8
SUNPOU
100
AcDbMText
 10
227.5247688450692
 20
134.7862292165767
 30
0.0
 40
3.0
 41
0.0
 71
     5
 72
     1
  1
\A1;35
 11
0.3713840423544848
 21
-0.9284793444576148
 31
0.0
1001
ACAD
1000
MTEXTBEGIN
1070
    73
1070
     1
1070
    44
1040
1.0
1070
    74
1070
     0
1000
MTEXTEND
  0
POINT
  5
422D
330
3C49
100
AcDbEntity
  8
DEFPOINTS
 62
     0
100
AcDbPoint
 10
195.4764835294017
 20
140.8152036962333
 30
0.0
  0
POINT
  5
422E
330
3C49
100
AcDbEntity
  8
DEFPOINTS
 62
     0
100
AcDbPoint
 10
208.4749250294017
 20
108.3184265962333
 30
0.0
  0
POINT
  5
422F
330
3C49
100
AcDbEntity
  8
DEFPOINTS
 62
     0
100
AcDbPoint
 10
231.7027912339252
 20
117.6093805606905
 30
0.0
  0
ENDBLK
  5
3C54
330
3C49
100
AcDbEntity
  8
0
100
AcDbBlockEnd
  0
BLOCK
  5
3C60
330
3C56
100
AcDbEntity
  8
0
100
AcDbBlockBegin
  2
*D10
 70
     1
 10
0.0
 20
0.0
 30
0.0
  3
*D10
  1

  0
LINE
  5
421E
330
3C56
100
AcDbEntity
  8
SUNPOU
100
AcDbLine
 10
210.360772882813
 20
262.2519052791079
 30
0.0
 11
232.9176820665988
 21
262.2519052791079
 31
0.0
  0
LINE
  5
421F
330
3C56
100
AcDbEntity
  8
SUNPOU
100
AcDbLine
 10
210.360772882813
 20
200.2519052791079
 30
0.0
 11
232.9176820665988
 21
200.2519052791079
 31
0.0
  0
LINE
  5
4220
330
3C56
100
AcDbEntity
  8
SUNPOU
100
AcDbLine
 10
231.4176820665989
 20
259.2519052791079
 30
0.0
 11
231.4176820665989
 21
203.2519052791079
 31
0.0
  0
INSERT
  5
4221
330
3C56
100
AcDbEntity
  8
SUNPOU
100
AcDbBlockReference
  2
_OPEN
 10
231.4176820665989
 20
262.2519052791079
 30
0.0
 41
3.0
 42
3.0
 43
3.0
 50
90.0
  0
INSERT
  5
4222
330
3C56
100
AcDbEntity
  8
SUNPOU
100
AcDbBlockReference
  2
_OPEN
 10
231.4176820665989
 20
200.2519052791079
 30
0.0
 41
3.0
 42
3.0
 43
3.0
 50
270.0
  0
MTEXT
  5
4223
330
3C56
100
AcDbEntity
  8
SUNPOU
100
AcDbMText
 10
228.9176820665988
 20
231.251905279108
 30
0.0
 40
3.0
 41
0.0
 71
     5
 72
     1
  1
\A1;62
 11
0.0000000000000001
 21
1.0
 31
0.0
1001
ACAD
1000
MTEXTBEGIN
1070
    73
1070
     1
1070
    44
1040
1.0
1070
    74
1070
     0
1000
MTEXTEND
  0
POINT
  5
4224
330
3C56
100
AcDbEntity
  8
DEFPOINTS
 62
     0
100
AcDbPoint
 10
207.3607728828131
 20
262.2519052791079
 30
0.0
  0
POINT
  5
4225
330
3C56
100
AcDbEntity
  8
DEFPOINTS
 62
     0
100
AcDbPoint
 10
207.3607728828131
 20
200.2519052791079
 30
0.0
  0
POINT
  5
4226
330
3C56
100
AcDbEntity
  8
DEFPOINTS
 62
     0
100
AcDbPoint
 10
231.4176820665989
 20
200.2519052791079
 30
0.0
  0
ENDBLK
  5
3C61
330
3C56
100
AcDbEntity
  8
0
100
AcDbBlockEnd
  0
BLOCK
  5
3C6D
330
3C63
100
AcDbEntity
  8
0
100
AcDbBlockBegin
  2
*D11
 70
     1
 10
0.0
 20
0.0
 30
0.0
  3
*D11
  1

  0
LINE
  5
4230
330
3C63
100
AcDbEntity
  8
SUNPOU
100
AcDbLine
 10
132.9802920294017
 20
86.6669089962334
 30
0.0
 11
132.9802920294017
 21
172.0859410694039
 31
0.0
  0
LINE
  5
4231
330
3C63
100
AcDbEntity
  8
SUNPOU
100
AcDbLine
 10
209.4813105063459
 20
106.3969123962334
 30
0.0
 11
209.4813105063459
 21
172.0859410694039
 31
0.0
  0
LINE
  5
4232
330
3C63
100
AcDbEntity
  8
SUNPOU
100
AcDbLine
 10
135.9802920294017
 20
170.5859410694039
 30
0.0
 11
206.4813105063458
 21
170.5859410694039
 31
0.0
  0
INSERT
  5
4233
330
3C63
100
AcDbEntity
  8
SUNPOU
100
AcDbBlockReference
  2
_OPEN
 10
132.9802920294017
 20
170.5859410694039
 30
0.0
 41
3.0
 42
3.0
 43
3.0
 50
180.0
  0
INSERT
  5
4234
330
3C63
100
AcDbEntity
  8
SUNPOU
100
AcDbBlockReference
  2
_OPEN
 10
209.4813105063459
 20
170.5859410694039
 30
0.0
 41
3.0
 42
3.0
 43
3.0
  0
MTEXT
  5
4235
330
3C63
100
AcDbEntity
  8
SUNPOU
100
AcDbMText
 10
171.2308012678738
 20
173.0859410694039
 30
0.0
 40
3.0
 41
0.0
 71
     5
 72
     1
  1
\A1;77
1001
ACAD
1000
MTEXTBEGIN
1070
    73
1070
     1
1070
    44
1040
1.0
1070
    74
1070
     0
1000
MTEXTEND
  0
POINT
  5
4236
330
3C63
100
AcDbEntity
  8
DEFPOINTS
 62
     0
100
AcDbPoint
 10
132.9802920294017
 20
83.66690899623341
 30
0.0
  0
POINT
  5
4237
330
3C63
100
AcDbEntity
  8
DEFPOINTS
 62
     0
100
AcDbPoint
 10
209.4813105063459
 20
103.3969123962334
 30
0.0
  0
POINT
  5
4238
330
3C63
100
AcDbEntity
  8
DEFPOINTS
 62
     0
100
AcDbPoint
 10
209.4813105063459
 20
170.5859410694039
 30
0.0
  0
ENDBLK
  5
3C6E
330
3C63
100
AcDbEntity
  8
0
100
AcDbBlockEnd
  0
BLOCK
  5
3F93
330
3F89
100
AcDbEntity
  8
0
100
AcDbBlockBegin
  2
*D12
 70
     1
 10
0.0
 20
0.0
 30
0.0
  3
*D12
  1

  0
LINE
  5
4242
330
3F89
100
AcDbEntity
  8
SUNPOU
100
AcDbLine
 10
192.4764121496838
 20
140.8151751449372
 30
0.0
 11
52.14947926106401
 21
140.8151751449373
 31
0.0
  0
LINE
  5
4243
330
3F89
100
AcDbEntity
  8
SUNPOU
100
AcDbLine
 10
77.48029202940171
 20
85.36690899623337
 30
0.0
 11
52.149479261064
 21
85.36690899623337
 31
0.0
  0
LINE
  5
4244
330
3F89
100
AcDbEntity
  8
SUNPOU
100
AcDbLine
 10
53.64947926106401
 20
137.8151751449373
 30
0.0
 11
53.649479261064
 21
88.36690899623338
 31
0.0
  0
INSERT
  5
4245
330
3F89
100
AcDbEntity
  8
SUNPOU
100
AcDbBlockReference
  2
_OPEN
 10
53.64947926106401
 20
140.8151751449373
 30
0.0
 41
3.0
 42
3.0
 43
3.0
 50
90.0
  0
INSERT
  5
4246
330
3F89
100
AcDbEntity
  8
SUNPOU
100
AcDbBlockReference
  2
_OPEN
 10
53.649479261064
 20
85.36690899623337
 30
0.0
 41
3.0
 42
3.0
 43
3.0
 50
270.0
  0
MTEXT
  5
4247
330
3F89
100
AcDbEntity
  8
SUNPOU
100
AcDbMText
 10
51.14947926106399
 20
113.0910420705853
 30
0.0
 40
3.0
 41
0.0
 71
     5
 72
     1
  1
\A1;55
 11
0.0000000000000001
 21
1.0
 31
0.0
1001
ACAD
1000
MTEXTBEGIN
1070
    73
1070
     1
1070
    44
1040
1.0
1070
    74
1070
     0
1000
MTEXTEND
  0
POINT
  5
4248
330
3F89
100
AcDbEntity
  8
DEFPOINTS
 62
     0
100
AcDbPoint
 10
195.4764121496838
 20
140.8151751449372
 30
0.0
  0
POINT
  5
4249
330
3F89
100
AcDbEntity
  8
DEFPOINTS
 62
     0
100
AcDbPoint
 10
80.4802920294017
 20
85.36690899623337
 30
0.0
  0
POINT
  5
424A
330
3F89
100
AcDbEntity
  8
DEFPOINTS
 62
     0
100
AcDbPoint
 10
53.649479261064
 20
85.36690899623337
 30
0.0
  0
ENDBLK
  5
3F94
330
3F89
100
AcDbEntity
  8
0
100
AcDbBlockEnd
  0
ENDSEC
  0
SECTION
  2
ENTITIES
  0
TEXT
  5
9D
330
1A
100
AcDbEntity
  8
ZUWAKU
 48
5.0
100
AcDbText
 10
327.1013476411085
 20
8.060146781246267
 30
0.0
 40
4.0
  1

100
AcDbText
  0
ARC
  5
5A7
330
1A
100
AcDbEntity
  8
NOKITOI
  6
PHANTOM
 62
     8
100
AcDbCircle
 10
128.8173185261721
 20
79.11600041763708
 30
0.0
 40
43.00001447645168
100
AcDbArc
 50
186.5249107071177
 51
269.9998883751437
  0
ARC
  5
5A8
330
1A
100
AcDbEntity
  8
NOKITOI
  6
PHANTOM
 62
     8
100
AcDbCircle
 10
128.8173408345974
 20
79.11598031661069
 30
0.0
 40
41.79999437547816
100
AcDbArc
 50
184.4742952125247
 51
269.999854592109
  0
LINE
  5
5A9
330
1A
100
AcDbEntity
  8
NOKITOI
  6
PHANTOM
 62
     8
100
AcDbLine
 10
78.60633475262921
 20
78.25358594126701
 30
0.0
 11
78.52083475262952
 21
80.99108594126695
 31
0.0
  0
LINE
  5
5AA
330
1A
100
AcDbEntity
  8
NOKITOI
  6
PHANTOM
 62
     8
100
AcDbLine
 10
77.06823475262945
 20
89.05348594126698
 30
0.0
 11
77.45843475262927
 21
76.56918594126691
 31
0.0
  0
LINE
  5
5AB
330
1A
100
AcDbEntity
  8
NOKITOI
  6
PHANTOM
 62
     8
100
AcDbLine
 10
86.64623475262988
 20
76.31598594126703
 30
0.0
 11
80.60533475262946
 21
76.31598594126703
 31
0.0
  0
ARC
  5
5AC
330
1A
100
AcDbEntity
  8
NOKITOI
  6
PHANTOM
 62
     8
100
AcDbCircle
 10
85.10232632846692
 20
74.11599345632348
 30
0.0
 40
0.9999924849789756
100
AcDbArc
 50
6.528264606673934
 51
89.99951732740965
  0
LINE
  5
5AD
330
1A
100
AcDbEntity
  8
NOKITOI
  6
PHANTOM
 62
     8
100
AcDbLine
 10
78.95763475262947
 20
75.11598594126699
 30
0.0
 11
85.1023347526293
 21
75.11598594126699
 31
0.0
  0
ARC
  5
5AE
330
1A
100
AcDbEntity
  8
NOKITOI
  6
PHANTOM
 62
     8
100
AcDbCircle
 10
80.60534832476788
 20
78.31597278618059
 30
0.0
 40
1.999986844959662
100
AcDbArc
 50
181.7875531852356
 51
269.9996111843215
  0
ARC
  5
5AF
330
1A
100
AcDbEntity
  8
NOKITOI
  6
PHANTOM
 62
     8
100
AcDbCircle
 10
78.95767071178034
 20
76.61595108712376
 30
0.0
 40
1.499965146287778
100
AcDbArc
 50
181.7866280217767
 51
269.9986264296971
  0
ARC
  5
5B0
330
1A
100
AcDbEntity
  8
NOKITOI
  6
PHANTOM
 62
     8
100
AcDbCircle
 10
86.64624732233779
 20
75.8159743165373
 30
0.0
 40
0.5000116248877111
100
AcDbArc
 50
4.474846808342103
 51
90.00144034898383
  0
ARC
  5
5B1
330
1A
100
AcDbEntity
  8
NOKITOI
  6
PHANTOM
 62
     8
100
AcDbCircle
 10
79.06724750347939
 20
89.11599909635341
 30
0.0
 40
1.999986844954076
100
AcDbArc
 50
90.00036528735451
 51
181.7883072882703
  0
LINE
  5
5B2
330
1A
100
AcDbEntity
  8
NOKITOI
  6
PHANTOM
 62
     8
100
AcDbLine
 10
85.34513475262929
 20
88.61598594126698
 30
0.0
 11
83.11363475262941
 21
88.61598594126698
 31
0.0
  0
ARC
  5
5B3
330
1A
100
AcDbEntity
  8
NOKITOI
  6
PHANTOM
 62
     8
100
AcDbCircle
 10
85.02932786563452
 20
82.11597940618148
 30
0.0
 40
0.499993464961963
100
AcDbArc
 50
270.0007892017869
 51
356.997036131742
  0
LINE
  5
5B4
330
1A
100
AcDbEntity
  8
NOKITOI
  6
PHANTOM
 62
     8
100
AcDbLine
 10
84.36523475262948
 20
82.81598594126704
 30
0.0
 11
84.54643475262946
 21
86.25748594126717
 31
0.0
  0
LINE
  5
5B5
330
1A
100
AcDbEntity
  8
NOKITOI
  6
PHANTOM
 62
     8
100
AcDbLine
 10
83.99143475262963
 20
85.6443859412669
 30
0.0
 11
84.54643475262946
 21
86.25748594126717
 31
0.0
  0
ARC
  5
5B6
330
1A
100
AcDbEntity
  8
NOKITOI
  6
PHANTOM
 62
     8
100
AcDbCircle
 10
82.51895496529868
 20
81.11604466964704
 30
0.0
 40
5.2000412730095
100
AcDbArc
 50
90.0013245430618
 51
142.0757990790548
  0
LINE
  5
5B7
330
1A
100
AcDbEntity
  8
NOKITOI
  6
PHANTOM
 62
     8
100
AcDbLine
 10
78.26763475262987
 20
89.09098594126689
 30
0.0
 11
78.41703475262921
 21
84.3120859412671
 31
0.0
  0
ARC
  5
5B8
330
1A
100
AcDbEntity
  8
NOKITOI
  6
PHANTOM
 62
     8
100
AcDbCircle
 10
82.51887263407615
 20
81.11602972379236
 30
0.0
 40
3.999989731271038
100
AcDbArc
 50
96.47731142013116
 51
181.7899836067311
  0
ARC
  5
5B9
330
1A
100
AcDbEntity
  8
NOKITOI
  6
PHANTOM
 62
     8
100
AcDbCircle
 10
82.12404897104489
 20
84.593671306966
 30
0.0
 40
0.5000073448410256
100
AcDbArc
 50
351.872947864124
 51
96.47829282996921
  0
LINE
  5
5BA
330
1A
100
AcDbEntity
  8
NOKITOI
  6
PHANTOM
 62
     8
100
AcDbLine
 10
83.58733475262988
 20
82.81598594126704
 30
0.0
 11
83.99143475262963
 21
85.6443859412669
 31
0.0
  0
LINE
  5
5BB
330
1A
100
AcDbEntity
  8
NOKITOI
  6
PHANTOM
 62
     8
100
AcDbLine
 10
84.36523475262948
 20
82.81598594126704
 30
0.0
 11
83.58733475262988
 21
82.81598594126704
 31
0.0
  0
ARC
  5
5BC
330
1A
100
AcDbEntity
  8
NOKITOI
  6
PHANTOM
 62
     8
100
AcDbCircle
 10
82.78026135322717
 20
82.11595526438495
 30
0.0
 40
0.4999693238254178
100
AcDbArc
 50
171.8555038770531
 51
269.9969516090356
  0
LINE
  5
5BD
330
1A
100
AcDbEntity
  8
NOKITOI
  6
PHANTOM
 62
     8
100
AcDbLine
 10
85.02933475262944
 20
81.61598594126699
 30
0.0
 11
82.78023475262944
 21
81.61598594126699
 31
0.0
  0
LINE
  5
5BE
330
1A
100
AcDbEntity
  8
NOKITOI
  6
PHANTOM
 62
     8
100
AcDbLine
 10
82.28533475262929
 20
82.18678594126718
 30
0.0
 11
82.61903475262943
 21
84.52298594126714
 31
0.0
  0
LINE
  5
5BF
330
1A
100
AcDbEntity
  8
NOKITOI
  6
PHANTOM
 62
     8
100
AcDbLine
 10
81.54003475262971
 20
89.91598594126717
 30
0.0
 11
81.0400347526297
 21
87.41598594126717
 31
0.0
  0
LINE
  5
5C0
330
1A
100
AcDbEntity
  8
NOKITOI
  6
PHANTOM
 62
     8
100
AcDbLine
 10
81.0400347526297
 20
87.41598594126717
 30
0.0
 11
83.9765347526295
 21
87.41598594126717
 31
0.0
  0
LINE
  5
5C1
330
1A
100
AcDbEntity
  8
NOKITOI
  6
PHANTOM
 62
     8
100
AcDbLine
 10
79.06723475262925
 20
91.11598594126698
 30
0.0
 11
82.39383475262958
 21
91.11598594126698
 31
0.0
  0
LINE
  5
5C2
330
1A
100
AcDbEntity
  8
NOKITOI
  6
PHANTOM
 62
     8
100
AcDbLine
 10
79.06723475262925
 20
89.91598594126717
 30
0.0
 11
81.54003475262971
 21
89.91598594126717
 31
0.0
  0
ARC
  5
5C3
330
1A
100
AcDbEntity
  8
NOKITOI
  6
PHANTOM
 62
     8
100
AcDbCircle
 10
79.06723924742755
 20
89.11599057879389
 30
0.0
 40
0.7999953624857498
100
AcDbArc
 50
90.00032191805264
 51
181.7911273464193
  0
ARC
  5
5C4
330
1A
100
AcDbEntity
  8
NOKITOI
  6
PHANTOM
 62
     8
100
AcDbCircle
 10
82.39383396962102
 20
90.61598689626871
 30
0.0
 40
0.4999990449987349
100
AcDbArc
 50
348.6967198015447
 51
89.99991027369492
  0
ARC
  5
5C5
330
1A
100
AcDbEntity
  8
NOKITOI
  6
PHANTOM
 62
     8
100
AcDbCircle
 10
83.11362749807404
 20
89.11599479111041
 30
0.0
 40
0.5000088498959383
100
AcDbArc
 50
168.6864043304892
 51
270.0008312961442
  0
LINE
  5
5C6
330
1A
100
AcDbEntity
  8
NOKITOI
  6
PHANTOM
 62
     8
100
AcDbLine
 10
82.62333475262948
 20
89.21408594126692
 30
0.0
 11
82.88413475262951
 21
90.51798594126703
 31
0.0
  0
LINE
  5
5C7
330
1A
100
AcDbEntity
  8
NOKITOI
  6
PHANTOM
 62
     8
100
AcDbLine
 10
82.98073475262981
 20
86.31598594126703
 30
0.0
 11
82.51883475262957
 21
86.31598594126703
 31
0.0
  0
LINE
  5
5C8
330
1A
100
AcDbEntity
  8
NOKITOI
  6
PHANTOM
 62
     8
100
AcDbLine
 10
82.98073475262981
 20
86.31598594126703
 30
0.0
 11
83.9765347526295
 21
87.41598594126717
 31
0.0
  0
LINE
  5
5C9
330
1A
100
AcDbEntity
  8
NOKITOI
  6
PHANTOM
 62
     8
100
AcDbLine
 10
85.52873475262959
 20
82.08978594126696
 30
0.0
 11
85.84453475262945
 21
88.08968594126699
 31
0.0
  0
ARC
  5
5CA
330
1A
100
AcDbEntity
  8
NOKITOI
  6
PHANTOM
 62
     8
100
AcDbCircle
 10
85.34512855147159
 20
88.11599247635227
 30
0.0
 40
0.4999934649531607
100
AcDbArc
 50
356.9955363203376
 51
89.99928939038076
  0
LINE
  5
5CB
330
1A
100
AcDbEntity
  8
NOKITOI
  6
PHANTOM
 62
     8
100
AcDbLine
 10
169.6467347526295
 20
36.115885941267
 30
0.0
 11
149.4888347526297
 21
36.115885941267
 31
0.0
  0
LINE
  5
5CC
330
1A
100
AcDbEntity
  8
NOKITOI
  6
PHANTOM
 62
     8
100
AcDbLine
 10
169.3969347526294
 20
37.31588594126705
 30
0.0
 11
149.4888347526297
 21
37.31588594126705
 31
0.0
  0
LINE
  5
5CD
330
1A
100
AcDbEntity
  8
NOKITOI
  6
PHANTOM
 62
     8
100
AcDbLine
 10
173.6467347526295
 20
36.115885941267
 30
0.0
 11
128.8173347526294
 21
36.11598594126698
 31
0.0
  0
LINE
  5
5CE
330
1A
100
AcDbEntity
  8
NOKITOI
  6
PHANTOM
 62
     8
100
AcDbLine
 10
128.8173347526294
 20
37.31598594126703
 30
0.0
 11
173.3969347526294
 21
37.31588594126705
 31
0.0
  0
LINE
  5
5CF
330
1A
100
AcDbEntity
  8
NOKITOI
  6
PHANTOM
 62
     8
100
AcDbLine
 10
195.4012347526295
 20
78.25338594126705
 30
0.0
 11
195.4867347526291
 21
80.99098594126699
 31
0.0
  0
LINE
  5
5D0
330
1A
100
AcDbEntity
  8
NOKITOI
  6
PHANTOM
 62
     8
100
AcDbLine
 10
196.9392347526295
 20
89.05348594126698
 30
0.0
 11
196.5491347526294
 21
76.56908594126694
 31
0.0
  0
LINE
  5
5D1
330
1A
100
AcDbEntity
  8
NOKITOI
  6
PHANTOM
 62
     8
100
AcDbLine
 10
195.0498347526295
 20
75.11598594126699
 30
0.0
 11
188.9087347526296
 21
75.11598594126699
 31
0.0
  0
LINE
  5
5D2
330
1A
100
AcDbEntity
  8
NOKITOI
  6
PHANTOM
 62
     8
100
AcDbLine
 10
187.3702347526291
 20
76.31598594126703
 30
0.0
 11
193.4021347526295
 21
76.31598594126703
 31
0.0
  0
LINE
  5
5D3
330
1A
100
AcDbEntity
  8
NOKITOI
  6
PHANTOM
 62
     8
100
AcDbLine
 10
187.9137347526297
 20
74.21548594126702
 30
0.0
 11
185.0449347526295
 21
45.52808594126699
 31
0.0
  0
LINE
  5
5D4
330
1A
100
AcDbEntity
  8
NOKITOI
  6
PHANTOM
 62
     8
100
AcDbLine
 10
186.8727347526296
 20
75.86578594126703
 30
0.0
 11
183.8797347526292
 21
45.93598594126691
 31
0.0
  0
LINE
  5
5D5
330
1A
100
AcDbEntity
  8
NOKITOI
  6
PHANTOM
 62
     8
100
AcDbLine
 10
184.6831347526294
 20
44.85358594126714
 30
0.0
 11
174.2800347526294
 21
36.34188594126712
 31
0.0
  0
LINE
  5
5D6
330
1A
100
AcDbEntity
  8
NOKITOI
  6
PHANTOM
 62
     8
100
AcDbLine
 10
183.6988347526298
 20
45.598685941267
 30
0.0
 11
173.7135347526295
 21
37.42888594126688
 31
0.0
  0
ARC
  5
5D7
330
1A
100
AcDbEntity
  8
NOKITOI
  6
PHANTOM
 62
     8
100
AcDbCircle
 10
173.646727820052
 20
37.11588346626089
 30
0.0
 40
0.9999975250179316
100
AcDbArc
 50
270.0003972084035
 51
309.2946416752299
  0
ARC
  5
5D8
330
1A
100
AcDbEntity
  8
NOKITOI
  6
PHANTOM
 62
     8
100
AcDbCircle
 10
173.3969411403781
 20
37.81588822125658
 30
0.0
 40
0.5000022800304047
100
AcDbArc
 50
269.9992680212791
 51
309.2854498596061
  0
ARC
  5
5D9
330
1A
100
AcDbEntity
  8
NOKITOI
  6
PHANTOM
 62
     8
100
AcDbCircle
 10
184.0499121797606
 20
45.6275438695944
 30
0.0
 40
0.9999908507640039
100
AcDbArc
 50
309.288709223069
 51
354.2862329477532
  0
ARC
  5
5DA
330
1A
100
AcDbEntity
  8
NOKITOI
  6
PHANTOM
 62
     8
100
AcDbCircle
 10
183.3822173267512
 20
45.98565345487904
 30
0.0
 40
0.4999904508696396
100
AcDbArc
 50
309.2900846377951
 51
354.2990110749239
  0
ARC
  5
5DB
330
1A
100
AcDbEntity
  8
NOKITOI
  6
PHANTOM
 62
     8
100
AcDbCircle
 10
188.9087554024704
 20
74.11600462911619
 30
0.0
 40
0.9999813123640345
100
AcDbArc
 50
90.00118317084911
 51
174.2905900333514
  0
ARC
  5
5DC
330
1A
100
AcDbEntity
  8
NOKITOI
  6
PHANTOM
 62
     8
100
AcDbCircle
 10
187.3702478236341
 20
75.81599777154687
 30
0.0
 40
0.499988169890889
100
AcDbArc
 50
90.00149786226634
 51
174.2966061377162
  0
ARC
  5
5DD
330
1A
100
AcDbEntity
  8
NOKITOI
  6
PHANTOM
 62
     8
100
AcDbCircle
 10
195.0498519658076
 20
76.61600262441479
 30
0.0
 40
1.500016683246579
100
AcDbArc
 50
269.9993425123344
 51
358.2076423244113
  0
ARC
  5
5DE
330
1A
100
AcDbEntity
  8
NOKITOI
  6
PHANTOM
 62
     8
100
AcDbCircle
 10
193.4021727404537
 20
78.31592276183923
 30
0.0
 40
2.000036820932882
100
AcDbArc
 50
269.9989117490344
 51
358.2110591274195
  0
LINE
  5
5DF
330
1A
100
AcDbEntity
  8
NOKITOI
  6
PHANTOM
 62
     8
100
AcDbLine
 10
194.9402347526297
 20
91.115885941267
 30
0.0
 11
191.6136347526293
 21
91.11598594126698
 31
0.0
  0
LINE
  5
5E0
330
1A
100
AcDbEntity
  8
NOKITOI
  6
PHANTOM
 62
     8
100
AcDbLine
 10
192.9675347526294
 20
87.41598594126717
 30
0.0
 11
190.0309347526294
 21
87.41598594126717
 31
0.0
  0
ARC
  5
5E1
330
1A
100
AcDbEntity
  8
NOKITOI
  6
PHANTOM
 62
     8
100
AcDbCircle
 10
191.8834641251291
 20
84.59361617376188
 30
0.0
 40
0.4999578477751074
100
AcDbArc
 50
83.52609071220754
 51
188.1330561712932
  0
ARC
  5
5E2
330
1A
100
AcDbEntity
  8
NOKITOI
  6
PHANTOM
 62
     8
100
AcDbCircle
 10
191.4887168862783
 20
81.11599466964694
 30
0.0
 40
5.199991271650611
100
AcDbArc
 50
37.92532860472995
 51
89.9998031407256
  0
LINE
  5
5E3
330
1A
100
AcDbEntity
  8
NOKITOI
  6
PHANTOM
 62
     8
100
AcDbLine
 10
189.6422347526294
 20
82.81598594126704
 30
0.0
 11
189.4611347526292
 21
86.25738594126696
 31
0.0
  0
LINE
  5
5E4
330
1A
100
AcDbEntity
  8
NOKITOI
  6
PHANTOM
 62
     8
100
AcDbLine
 10
190.0161347526295
 20
85.6443859412669
 30
0.0
 11
189.4611347526292
 21
86.25738594126696
 31
0.0
  0
LINE
  5
5E5
330
1A
100
AcDbEntity
  8
NOKITOI
  6
PHANTOM
 62
     8
100
AcDbLine
 10
188.4788347526295
 20
82.089685941267
 30
0.0
 11
188.1630347526292
 21
88.08968594126699
 31
0.0
  0
LINE
  5
5E6
330
1A
100
AcDbEntity
  8
NOKITOI
  6
PHANTOM
 62
     8
100
AcDbLine
 10
190.420134752629
 20
82.81598594126704
 30
0.0
 11
190.0161347526295
 21
85.6443859412669
 31
0.0
  0
LINE
  5
5E7
330
1A
100
AcDbEntity
  8
NOKITOI
  6
PHANTOM
 62
     8
100
AcDbLine
 10
189.6422347526294
 20
82.81598594126704
 30
0.0
 11
190.420134752629
 21
82.81598594126704
 31
0.0
  0
LINE
  5
5E8
330
1A
100
AcDbEntity
  8
NOKITOI
  6
PHANTOM
 62
     8
100
AcDbLine
 10
188.9781347526295
 20
81.61598594126699
 30
0.0
 11
191.227234752629
 21
81.61598594126699
 31
0.0
  0
ARC
  5
5E9
330
1A
100
AcDbEntity
  8
NOKITOI
  6
PHANTOM
 62
     8
100
AcDbCircle
 10
188.9781388740361
 20
82.11598203123648
 30
0.0
 40
0.4999960899864752
100
AcDbArc
 50
183.0147243791741
 51
269.9995277178593
  0
ARC
  5
5EA
330
1A
100
AcDbEntity
  8
NOKITOI
  6
PHANTOM
 62
     8
100
AcDbCircle
 10
191.2272449390656
 20
82.11599768599112
 30
0.0
 40
0.5000117448278309
100
AcDbArc
 50
269.9988327478016
 51
8.127314608715551
  0
LINE
  5
5EB
330
1A
100
AcDbEntity
  8
NOKITOI
  6
PHANTOM
 62
     8
100
AcDbLine
 10
191.7222347526294
 20
82.18668594126697
 30
0.0
 11
191.3884347526295
 21
84.52288594126716
 31
0.0
  0
LINE
  5
5EC
330
1A
100
AcDbEntity
  8
NOKITOI
  6
PHANTOM
 62
     8
100
AcDbLine
 10
188.6623347526296
 20
88.61598594126698
 30
0.0
 11
190.8938347526295
 21
88.61598594126698
 31
0.0
  0
ARC
  5
5ED
330
1A
100
AcDbEntity
  8
NOKITOI
  6
PHANTOM
 62
     8
100
AcDbCircle
 10
188.6623384621247
 20
88.11598985129771
 30
0.0
 40
0.4999960899831856
100
AcDbArc
 50
90.00042508015082
 51
183.0156217414647
  0
ARC
  5
5EE
330
1A
100
AcDbEntity
  8
NOKITOI
  6
PHANTOM
 62
     8
100
AcDbCircle
 10
191.613627498074
 20
90.61597709142356
 30
0.0
 40
0.500008849895925
100
AcDbArc
 50
89.99916870385415
 51
191.3135956695126
  0
ARC
  5
5EF
330
1A
100
AcDbEntity
  8
NOKITOI
  6
PHANTOM
 62
     8
100
AcDbCircle
 10
190.893833969621
 20
89.11598498626526
 30
0.0
 40
0.4999990449987399
100
AcDbArc
 50
270.000089726305
 51
11.30328019845521
  0
LINE
  5
5F0
330
1A
100
AcDbEntity
  8
NOKITOI
  6
PHANTOM
 62
     8
100
AcDbLine
 10
191.3841347526294
 20
89.21398594126717
 30
0.0
 11
191.1233347526294
 21
90.51798594126703
 31
0.0
  0
LINE
  5
5F1
330
1A
100
AcDbEntity
  8
NOKITOI
  6
PHANTOM
 62
     8
100
AcDbLine
 10
191.0267347526296
 20
86.31598594126703
 30
0.0
 11
191.4887347526295
 21
86.31598594126703
 31
0.0
  0
LINE
  5
5F2
330
1A
100
AcDbEntity
  8
NOKITOI
  6
PHANTOM
 62
     8
100
AcDbLine
 10
191.0267347526296
 20
86.31598594126703
 30
0.0
 11
190.0309347526294
 21
87.41598594126717
 31
0.0
  0
LINE
  5
5F3
330
1A
100
AcDbEntity
  8
NOKITOI
  6
PHANTOM
 62
     8
100
AcDbLine
 10
195.7398347526291
 20
89.09098594126689
 30
0.0
 11
195.5905347526295
 21
84.31198594126712
 31
0.0
  0
ARC
  5
5F4
330
1A
100
AcDbEntity
  8
NOKITOI
  6
PHANTOM
 62
     8
100
AcDbCircle
 10
191.4887038256933
 20
81.1160216859308
 30
0.0
 40
3.99998565374706
100
AcDbArc
 50
358.208696659101
 51
83.52422380468341
  0
ARC
  5
5F5
330
1A
100
AcDbEntity
  8
NOKITOI
  6
PHANTOM
 62
     8
100
AcDbCircle
 10
194.9402235156353
 20
89.11599753508411
 30
0.0
 40
1.999988406214315
100
AcDbArc
 50
358.2088726535936
 51
89.99967808195551
  0
LINE
  5
5F6
330
1A
100
AcDbEntity
  8
NOKITOI
  6
PHANTOM
 62
     8
100
AcDbLine
 10
194.9402347526297
 20
89.91588594126696
 30
0.0
 11
192.4675347526294
 21
89.91598594126717
 31
0.0
  0
LINE
  5
5F7
330
1A
100
AcDbEntity
  8
NOKITOI
  6
PHANTOM
 62
     8
100
AcDbLine
 10
192.4675347526294
 20
89.91598594126717
 30
0.0
 11
192.9675347526294
 21
87.41598594126717
 31
0.0
  0
ARC
  5
5F8
330
1A
100
AcDbEntity
  8
NOKITOI
  6
PHANTOM
 62
     8
100
AcDbCircle
 10
194.9402787189823
 20
89.11594057879401
 30
0.0
 40
0.7999453636812564
100
AcDbArc
 50
358.2123436447881
 51
90.00314907315425
  0
LINE
  5
1D19
330
1A
100
AcDbEntity
  8
SEIHIN
100
AcDbLine
 10
156.195010672617
 20
85.90877238442672
 30
0.0
 11
168.9824972294017
 21
98.69625904126706
 31
0.0
  0
ARC
  5
1D1B
330
1A
100
AcDbEntity
  8
SEIHIN
100
AcDbCircle
 10
155.4950106294017
 20
86.12298594126706
 30
0.0
 40
5.500000002456481
100
AcDbArc
 50
270.0
 51
315.0
  0
LINE
  5
1D1E
330
1A
100
AcDbEntity
  8
SEIHIN
100
AcDbLine
 10
90.38386522940175
 20
73.02298594126705
 30
0.0
 11
158.8087191294017
 21
73.02298594126705
 31
0.0
  0
LINE
  5
1D23
330
1A
100
AcDbEntity
  8
SEIHIN
100
AcDbLine
 10
155.4879038510371
 20
86.61587916284688
 30
0.0
 11
168.2753904294017
 21
99.40336584126704
 31
0.0
  0
LINE
  5
1D24
330
1A
100
AcDbEntity
  8
CENTER_L
100
AcDbLine
 10
142.9802920294017
 20
95.51358881537442
 30
0.0
 11
142.9802920294017
 21
70.57457136339213
 31
0.0
  0
LINE
  5
1D2A
330
1A
100
AcDbEntity
  8
SEIHIN
100
AcDbLine
 10
132.9802920294017
 20
86.32298594126707
 30
0.0
 11
132.9802920294017
 21
80.82298594126706
 31
0.0
  0
LINE
  5
1D2C
330
1A
100
AcDbEntity
  8
SEIHIN
100
AcDbLine
 10
82.78029202940173
 20
80.62298594126707
 30
0.0
 11
155.4951750111452
 21
80.62298594126707
 31
0.0
  0
ARC
  5
1D41
330
1A
100
AcDbEntity
  8
SEIHIN
100
AcDbCircle
 10
90.38386522940175
 20
74.62298594126707
 30
0.0
 40
1.599999992064534
100
AcDbArc
 50
185.0000004668387
 51
270.0
  0
LINE
  5
1D42
330
1A
100
AcDbEntity
  8
SEIHIN
100
AcDbLine
 10
83.58029202940167
 20
78.02298594126705
 30
0.0
 11
88.48029202940171
 21
78.02298594126705
 31
0.0
  0
ARC
  5
1D43
330
1A
100
AcDbEntity
  8
SEIHIN
100
AcDbCircle
 10
83.58029202940167
 20
81.12298594126706
 30
0.0
 40
3.100000000000008
100
AcDbArc
 50
180.0
 51
270.0
  0
LINE
  5
1D44
330
1A
100
AcDbEntity
  8
SEIHIN
100
AcDbLine
 10
80.4802920294017
 20
85.02298594126704
 30
0.0
 11
82.28029202940172
 21
85.02298594126704
 31
0.0
  0
ARC
  5
1D45
330
1A
100
AcDbEntity
  8
SEIHIN
100
AcDbCircle
 10
82.78029202940173
 20
81.12298594126706
 30
0.0
 40
0.5
100
AcDbArc
 50
180.0
 51
270.0
  0
LINE
  5
1D46
330
1A
100
AcDbEntity
  8
SEIHIN
100
AcDbLine
 10
80.4802920294017
 20
85.02298594126704
 30
0.0
 11
80.4802920294017
 21
81.12298594126706
 31
0.0
  0
LINE
  5
1D47
330
1A
100
AcDbEntity
  8
SEIHIN
100
AcDbLine
 10
82.28029202940172
 20
85.02298594126704
 30
0.0
 11
82.28029202940172
 21
81.12298594126706
 31
0.0
  0
LINE
  5
1D48
330
1A
100
AcDbEntity
  8
SEIHIN
100
AcDbLine
 10
88.7899537294017
 20
74.48353674126707
 30
0.0
 11
88.25282148963527
 21
80.62298594126705
 31
0.0
  0
LINE
  5
1D4B
330
1A
100
AcDbEntity
  8
SEIHIN
100
AcDbLine
 10
132.9802920294017
 20
85.32298594126705
 30
0.0
 11
154.7807971047111
 21
85.32298594126705
 31
0.0
  0
LINE
  5
1D4D
330
1A
100
AcDbEntity
  8
SEIHIN
100
AcDbLine
 10
132.9802920294017
 20
80.62298594126707
 30
0.0
 11
155.4950106294017
 21
80.62298594126707
 31
0.0
  0
ARC
  5
1D5C
330
1A
100
AcDbEntity
  8
SEIHIN
100
AcDbCircle
 10
142.9802920294017
 20
80.43236094126706
 30
0.0
 40
7.890625
100
AcDbArc
 50
48.29108392084388
 51
131.708916079156
  0
LINE
  5
1D5D
330
1A
100
AcDbEntity
  8
SEIHIN
100
AcDbLine
 10
132.9802920294017
 20
86.32298594126707
 30
0.0
 11
154.7807970670842
 21
86.32298594126705
 31
0.0
  0
LINE
  5
1D65
330
1A
100
AcDbEntity
  8
SEIHIN
100
AcDbLine
 10
202.4802920294017
 20
92.12298594126707
 30
0.0
 11
202.4802920294017
 21
75.09746826383889
 31
0.0
  0
LINE
  5
1D67
330
1A
100
AcDbEntity
  8
SEIHIN
100
AcDbLine
 10
198.8802920294017
 20
92.12298594126707
 30
0.0
 11
198.8802920294017
 21
75.14987604126708
 31
0.0
  0
LINE
  5
1D68
330
1A
100
AcDbEntity
  8
SEIHIN
100
AcDbLine
 10
201.4802920294016
 20
92.12298594126707
 30
0.0
 11
201.4802920294016
 21
75.14987604126708
 31
0.0
  0
LINE
  5
1D6C
330
1A
100
AcDbEntity
  8
SEIHIN
100
AcDbLine
 10
162.4149637294017
 20
74.51674134126704
 30
0.0
 11
176.8147936883904
 21
88.91657137749575
 31
0.0
  0
LINE
  5
1D6E
330
1A
100
AcDbEntity
  8
SEIHIN
100
AcDbLine
 10
159.3840979294017
 20
82.23389864126707
 30
0.0
 11
171.2146475243466
 21
94.064448236212
 31
0.0
  0
LINE
  5
1D79
330
1A
100
AcDbEntity
  8
SEIHIN
100
AcDbLine
 10
173.4615183294017
 20
71.61790884126702
 30
0.0
 11
185.4045647294017
 21
77.44292174126707
 31
0.0
  0
LINE
  5
1D7A
330
1A
100
AcDbEntity
  8
SEIHIN
100
AcDbLine
 10
174.1190749294017
 20
70.26971764126705
 30
0.0
 11
185.4045647294017
 21
75.77401884126704
 31
0.0
  0
LINE
  5
1D7B
330
1A
100
AcDbEntity
  8
SEIHIN
100
AcDbLine
 10
173.2861699294017
 20
71.97742644126702
 30
0.0
 11
185.1292162294017
 21
77.75366604126702
 31
0.0
  0
LINE
  5
1D7D
330
1A
100
AcDbEntity
  8
SEIHIN
100
AcDbLine
 10
162.4038199804756
 20
74.50563193790535
 30
0.0
 11
171.5361068294017
 21
70.24717664126706
 31
0.0
  0
ARC
  5
1D7E
330
1A
100
AcDbEntity
  8
SEIHIN
100
AcDbCircle
 10
158.8087191294017
 20
78.12298594126708
 30
0.0
 40
5.100000011277387
100
AcDbArc
 50
270.0
 51
315.0
  0
LINE
  5
1D7F
330
1A
100
AcDbEntity
  8
SEIHIN
100
AcDbLine
 10
163.8335693050198
 20
75.93534692449449
 30
0.0
 11
172.3390816294017
 21
71.96916144126703
 31
0.0
  0
LINE
  5
1D80
330
1A
100
AcDbEntity
  8
SEIHIN
100
AcDbLine
 10
163.5325743953353
 20
75.63435201319544
 30
0.0
 11
172.1700343294017
 21
71.60663834126705
 31
0.0
  0
ARC
  5
1D81
330
1A
100
AcDbEntity
  8
SEIHIN
100
AcDbCircle
 10
172.8039617294017
 20
72.96609994126703
 30
0.0
 40
1.499999997384386
100
AcDbArc
 50
244.9999984438223
 51
295.9999936879063
  0
ARC
  5
1D83
330
1A
100
AcDbEntity
  8
SEIHIN
100
AcDbCircle
 10
172.8039617294017
 20
72.96609994126703
 30
0.0
 40
1.099999981342675
100
AcDbArc
 50
244.9999979823536
 51
295.9999960018844
  0
ARC
  5
1D84
330
1A
100
AcDbEntity
  8
SEIHIN
100
AcDbCircle
 10
172.8039617294017
 20
72.96609994126703
 30
0.0
 40
2.9999999920909
100
AcDbArc
 50
244.9999949819811
 51
295.999994525133
  0
ARC
  5
1D86
330
1A
100
AcDbEntity
  8
SEIHIN
100
AcDbCircle
 10
183.4757316294017
 20
81.39761554126705
 30
0.0
 40
4.400000010194002
100
AcDbArc
 50
296.0000006547247
 51
359.9999934891161
  0
ARC
  5
1D87
330
1A
100
AcDbEntity
  8
SEIHIN
100
AcDbCircle
 10
183.3757316294017
 20
81.34884224126704
 30
0.0
 40
4.000000009467725
100
AcDbArc
 50
296.0000000723986
 51
0.0
  0
LINE
  5
1D88
330
1A
100
AcDbEntity
  8
SEIHIN
100
AcDbLine
 10
187.8757316294017
 20
79.72871214126705
 30
0.0
 11
187.8757316294017
 21
83.85694274126704
 31
0.0
  0
ARC
  5
1D8A
330
1A
100
AcDbEntity
  8
SEIHIN
100
AcDbCircle
 10
183.4757316294017
 20
79.72871264126705
 30
0.0
 40
4.400000010194002
100
AcDbArc
 50
296.0000006547247
 51
359.9999934891161
  0
LINE
  5
1D8B
330
1A
100
AcDbEntity
  8
SEIHIN
100
AcDbLine
 10
187.3757316294017
 20
83.85694274126704
 30
0.0
 11
187.8757316294017
 21
83.85694274126704
 31
0.0
  0
LINE
  5
1D8C
330
1A
100
AcDbEntity
  8
SEIHIN
100
AcDbLine
 10
187.3757316294017
 20
81.34884224126704
 30
0.0
 11
187.3757316294017
 21
83.85694274126704
 31
0.0
  0
LINE
  5
1D92
330
1A
100
AcDbEntity
  8
SEIHIN
100
AcDbLine
 10
191.9898852294017
 20
74.98933764126707
 30
0.0
 11
191.8590453716687
 21
72.49276384429271
 31
0.0
  0
ARC
  5
1D93
330
1A
100
AcDbEntity
  8
SEIHIN
100
AcDbCircle
 10
198.4802920294017
 20
75.14987604126708
 30
0.0
 40
2.999999998689364
100
AcDbArc
 50
266.9999993993207
 51
0.0
  0
LINE
  5
1D94
330
1A
100
AcDbEntity
  8
SEIHIN
100
AcDbLine
 10
199.3232841583723
 20
72.10157965969575
 30
0.0
 11
191.8590454294017
 21
72.49276384126705
 31
0.0
  0
LINE
  5
1D96
330
1A
100
AcDbEntity
  8
SEIHIN
100
AcDbLine
 10
198.4593576294017
 20
74.75042424126707
 30
0.0
 11
191.9951188294017
 21
75.08920064126704
 31
0.0
  0
ARC
  5
1D97
330
1A
100
AcDbEntity
  8
SEIHIN
100
AcDbCircle
 10
198.4802920294017
 20
75.14987604126708
 30
0.0
 40
0.3999999935166316
100
AcDbArc
 50
266.999997392128
 51
0.0
  0
LINE
  5
1DAE
330
1A
100
AcDbEntity
  8
SEIHIN
100
AcDbLine
 10
196.74495166753
 20
96.55969432595824
 30
0.0
 11
174.1609316294017
 21
95.37611604126704
 31
0.0
  0
LINE
  5
1DB3
330
1A
100
AcDbEntity
  8
SEIHIN
100
AcDbLine
 10
196.8808537294017
 20
93.96324854126703
 30
0.0
 11
182.4802920294017
 21
93.20854713110801
 31
0.0
  0
ARC
  5
1DB6
330
1A
100
AcDbEntity
  8
SEIHIN
100
AcDbCircle
 10
174.3964434294016
 20
90.88228314126707
 30
0.0
 40
4.499999985879004
100
AcDbArc
 50
92.99999996493296
 51
135.0
  0
ARC
  5
1DB8
330
1A
100
AcDbEntity
  8
SEIHIN
100
AcDbCircle
 10
172.8715847294017
 20
94.80717184126707
 30
0.0
 40
5.500000065643712
100
AcDbArc
 50
91.3361182741777
 51
135.0000022098678
  0
ARC
  5
1DB9
330
1A
100
AcDbEntity
  8
SEIHIN
100
AcDbCircle
 10
172.8715847294017
 20
94.80717184126707
 30
0.0
 40
6.500000024766264
100
AcDbArc
 50
91.33611865333142
 51
135.000002493184
  0
ARC
  5
1DBB
330
1A
100
AcDbEntity
  8
SEIHIN
100
AcDbCircle
 10
196.9802920294016
 20
92.06585244126705
 30
0.0
 40
4.499999996725646
100
AcDbArc
 50
0.0
 51
92.99781409385971
  0
ARC
  5
1DBC
330
1A
100
AcDbEntity
  8
SEIHIN
100
AcDbCircle
 10
196.9802920294016
 20
92.06585244126705
 30
0.0
 40
5.500000030448694
100
AcDbArc
 50
0.0
 51
79.77834973304488
  0
ARC
  5
1DBD
330
1A
100
AcDbEntity
  8
SEIHIN
100
AcDbCircle
 10
196.9802920294016
 20
92.06585244126705
 30
0.0
 40
1.899999991552915
100
AcDbArc
 50
0.0
 51
92.99999951753015
  0
LINE
  5
1EC3
330
1A
100
AcDbEntity
  8
SEIHIN
100
AcDbLine
 10
80.4802920294017
 20
241.2519052791079
 30
0.0
 11
88.25282148963522
 21
241.2519052791079
 31
0.0
  0
LINE
  5
1EC4
330
1A
100
AcDbEntity
  8
SEIHIN
100
AcDbLine
 10
207.6749250294017
 20
220.7519052791079
 30
0.0
 11
191.1340868434034
 21
220.7519052791079
 31
0.0
  0
LINE
  5
1EC5
330
1A
100
AcDbEntity
  8
SEIHIN
100
AcDbLine
 10
207.3607728828131
 20
200.2519052791079
 30
0.0
 11
195.1050687759902
 21
200.2519052791079
 31
0.0
  0
LINE
  5
1EC6
330
1A
100
AcDbEntity
  8
CENTER_L
100
AcDbLine
 10
216.2221792235107
 20
231.2519052791079
 30
0.0
 11
73.48029202940171
 21
231.2519052791079
 31
0.0
  0
LINE
  5
1ECB
330
1A
100
AcDbEntity
  8
SEIHIN
100
AcDbLine
 10
80.4802920294017
 20
221.2519052791079
 30
0.0
 11
88.25282148963527
 21
221.2519052791079
 31
0.0
  0
LINE
  5
1ECC
330
1A
100
AcDbEntity
  8
SEIHIN
100
AcDbLine
 10
190.1485199294017
 20
219.1519052791079
 30
0.0
 11
193.6909166294016
 21
219.1519052791079
 31
0.0
  0
LINE
  5
1ED1
330
1A
100
AcDbEntity
  8
CENTER_L
100
AcDbLine
 10
193.667514433563
 20
209.2519052791079
 30
0.0
 11
210.7644710590653
 21
209.2519052791079
 31
0.0
  0
LINE
  5
1ED8
330
1A
100
AcDbEntity
  8
CENTER_L
100
AcDbLine
 10
142.9802920294017
 20
216.2230335665567
 30
0.0
 11
142.9802920294017
 21
246.2807769916592
 31
0.0
  0
LINE
  5
1EDA
330
1A
100
AcDbEntity
  8
SEIHIN
100
AcDbLine
 10
132.9802920294017
 20
221.2519052791079
 30
0.0
 11
132.9802920294016
 21
241.251905279108
 31
0.0
  0
LINE
  5
1F11
330
1A
100
AcDbEntity
  8
SEIHIN
100
AcDbLine
 10
182.4802920294017
 20
95.81211526570681
 30
0.0
 11
182.4802920294017
 21
90.16245214065703
 31
0.0
  0
LINE
  5
1F12
330
1A
100
AcDbEntity
  8
SEIHIN
100
AcDbLine
 10
181.5326279877264
 20
89.16382260601155
 30
0.0
 11
176.8147936883904
 21
88.91657137749575
 31
0.0
  0
ARC
  5
1F13
330
1A
100
AcDbEntity
  8
SEIHIN
100
AcDbCircle
 10
181.4802920294017
 20
90.16245214065703
 30
0.0
 40
1.0
100
AcDbArc
 50
273.0000001194438
 51
0.0
  0
ARC
  5
1F15
330
1A
100
AcDbEntity
  8
SEIHIN
100
AcDbCircle
 10
199.4802920294017
 20
75.09746826383889
 30
0.0
 40
3.0
100
AcDbArc
 50
266.9999999560026
 51
0.0
  0
LINE
  5
1F61
330
1A
100
AcDbEntity
  8
SEIHIN
100
AcDbLine
 10
182.4802920294017
 20
218.7519052791079
 30
0.0
 11
88.25282148963527
 21
218.7519052791079
 31
0.0
  0
LINE
  5
1F62
330
1A
100
AcDbEntity
  8
SEIHIN
100
AcDbLine
 10
182.4802920294017
 20
218.7519052791079
 30
0.0
 11
182.4802920294017
 21
221.2519052791079
 31
0.0
  0
LINE
  5
1F63
330
1A
100
AcDbEntity
  8
SEIHIN
100
AcDbLine
 10
88.25282148963527
 20
218.7519052791079
 30
0.0
 11
88.25282148963527
 21
221.2519052791079
 31
0.0
  0
LINE
  5
1F64
330
1A
100
AcDbEntity
  8
SEIHIN
100
AcDbLine
 10
80.4802920294017
 20
221.2519052791079
 30
0.0
 11
80.4802920294017
 21
241.2519052791079
 31
0.0
  0
LINE
  5
1F67
330
1A
100
AcDbEntity
  8
SEIHIN
100
AcDbLine
 10
82.28029202940172
 20
221.2519052791079
 30
0.0
 11
82.28029202940172
 21
241.2519052791079
 31
0.0
  0
LINE
  5
1F68
330
1A
100
AcDbEntity
  8
SEIHIN
100
AcDbLine
 10
132.9802920294016
 20
221.2519052791079
 30
0.0
 11
189.3485199294017
 21
221.2519052791079
 31
0.0
  0
LINE
  5
1F69
330
1A
100
AcDbEntity
  8
SEIHIN
100
AcDbLine
 10
132.9802920294017
 20
223.2519052791079
 30
0.0
 11
189.3485199294017
 21
223.251905279108
 31
0.0
  0
CIRCLE
  5
1F6A
330
1A
100
AcDbEntity
  8
SEIHIN
100
AcDbCircle
 10
142.9802920294017
 20
231.2519052791079
 30
0.0
 40
5.0
  0
LINE
  5
1F6C
330
1A
100
AcDbEntity
  8
SEIHIN
100
AcDbLine
 10
155.3358748774232
 20
223.7519052791079
 30
0.0
 11
155.3358748774233
 21
238.751905279108
 31
0.0
  0
LINE
  5
1F6D
330
1A
100
AcDbEntity
  8
SEIHIN
100
AcDbLine
 10
170.120676083374
 20
223.7519052791079
 30
0.0
 11
170.120676083374
 21
238.7519052791079
 31
0.0
  0
LINE
  5
1F70
330
1A
100
AcDbEntity
  8
SEIHIN
100
AcDbLine
 10
132.9802920294016
 20
239.251905279108
 30
0.0
 11
189.3485199294017
 21
239.2519052791079
 31
0.0
  0
LINE
  5
1F71
330
1A
100
AcDbEntity
  8
SEIHIN
100
AcDbLine
 10
132.9802920294016
 20
241.251905279108
 30
0.0
 11
189.3485199294017
 21
241.251905279108
 31
0.0
  0
LINE
  5
1F72
330
1A
100
AcDbEntity
  8
SEIHIN
100
AcDbLine
 10
182.4802920294017
 20
243.7519052791079
 30
0.0
 11
88.25282148963527
 21
243.7519052791079
 31
0.0
  0
LINE
  5
1F73
330
1A
100
AcDbEntity
  8
SEIHIN
100
AcDbLine
 10
80.4802920294017
 20
241.2519052791079
 30
0.0
 11
88.25282148963527
 21
241.2519052791079
 31
0.0
  0
LINE
  5
1F74
330
1A
100
AcDbEntity
  8
SEIHIN
100
AcDbLine
 10
88.25282148963527
 20
243.7519052791079
 30
0.0
 11
88.25282148963527
 21
241.2519052791079
 31
0.0
  0
LINE
  5
1F75
330
1A
100
AcDbEntity
  8
SEIHIN
100
AcDbLine
 10
156.2678913490449
 20
239.751905279108
 30
0.0
 11
156.2678913490449
 21
240.7519052791079
 31
0.0
  0
LINE
  5
1F76
330
1A
100
AcDbEntity
  8
SEIHIN
100
AcDbLine
 10
169.281861626817
 20
240.751905279108
 30
0.0
 11
169.281861626817
 21
239.7519052791079
 31
0.0
  0
LINE
  5
1F77
330
1A
100
AcDbEntity
  8
SEIHIN
100
AcDbLine
 10
182.4802920294017
 20
243.7519052791079
 30
0.0
 11
182.4802920294017
 21
241.2519052791079
 31
0.0
  0
LINE
  5
1F85
330
1A
100
AcDbEntity
  8
SEIHIN
100
AcDbLine
 10
172.918430114041
 20
241.7519052791079
 30
0.0
 11
172.918430114041
 21
243.2519052791079
 31
0.0
  0
LINE
  5
1F86
330
1A
100
AcDbEntity
  8
SEIHIN
100
AcDbLine
 10
157.3938722510974
 20
241.7519052791079
 30
0.0
 11
157.3938722510974
 21
243.2519052791079
 31
0.0
  0
LINE
  5
1F88
330
1A
100
AcDbEntity
  8
SEIHIN
100
AcDbLine
 10
132.9802920294017
 20
80.82298594126706
 30
0.0
 11
155.4021174140815
 21
80.82298594126704
 31
0.0
  0
LINE
  5
1F89
330
1A
100
AcDbEntity
  8
SEIHIN
100
AcDbLine
 10
158.9376513338461
 20
82.28745204916618
 30
0.0
 11
171.0787464308283
 21
94.4285472411463
 31
0.0
  0
ARC
  5
1F8B
330
1A
100
AcDbEntity
  8
SEIHIN
100
AcDbCircle
 10
174.6142803505929
 20
90.89301334904545
 30
0.0
 40
5.0
100
AcDbArc
 50
92.99999987887712
 51
135.0000002241552
  0
ARC
  5
1F93
330
1A
100
AcDbEntity
  8
SEIHIN
100
AcDbCircle
 10
155.4021174140815
 20
85.82298594126704
 30
0.0
 40
5.0
100
AcDbArc
 50
270.0
 51
315.0000002241551
  0
ARC
  5
1F94
330
1A
100
AcDbEntity
  8
SEIHIN
100
AcDbCircle
 10
154.7807971047111
 20
87.32298594126707
 30
0.0
 40
2.0
100
AcDbArc
 50
270.0
 51
315.0000002241553
  0
ARC
  5
1F95
330
1A
100
AcDbEntity
  8
SEIHIN
100
AcDbCircle
 10
154.7807970670842
 20
87.32298594126705
 30
0.0
 40
1.0
100
AcDbArc
 50
270.0
 51
315.0000002241551
  0
DIMENSION
  5
2073
330
1A
100
AcDbEntity
  8
SUNPOU
100
AcDbDimension
  2
*D1
 10
53.64947926106403
 20
221.2519052791079
 30
0.0
 11
51.14947926106399
 21
231.2519052791079
 31
0.0
 70
    32
  3
STANDARD
100
AcDbAlignedDimension
 13
80.4802920294017
 23
241.2519052791079
 33
0.0
 14
80.4802920294017
 24
221.2519052791079
 34
0.0
 50
90.0
100
AcDbRotatedDimension
1001
ACAD
1000
DSTYLE
1002
{
1070
    41
1040
3.0
1070
    42
1040
3.0
1070
    43
1040
7.0
1070
    44
1040
1.5
1070
    73
1070
     0
1070
    74
1070
     0
1070
    77
1070
     3
1070
   140
1040
3.0
1070
   141
1040
3.0
1070
   147
1040
1.0
1070
   172
1070
     1
1070
   173
1070
     1
1070
   176
1070
   256
1070
   177
1070
   256
1070
   178
1070
   256
1070
   271
1070
     0
1070
   272
1070
     0
1070
   341
1005
B2
1070
     6
1000
OPEN
1070
     7
1000
OPEN
1002
}
  0
LINE
  5
2127
330
1A
100
AcDbEntity
  8
SEIHIN
100
AcDbLine
 10
156.2678913490449
 20
222.7519052791079
 30
0.0
 11
156.2678913490449
 21
221.7519052791079
 31
0.0
  0
LINE
  5
2128
330
1A
100
AcDbEntity
  8
SEIHIN
100
AcDbLine
 10
157.3938722510974
 20
220.7519052791079
 30
0.0
 11
157.3938722510974
 21
219.251905279108
 31
0.0
  0
LINE
  5
2129
330
1A
100
AcDbEntity
  8
SEIHIN
100
AcDbLine
 10
169.281861626817
 20
221.7519052791079
 30
0.0
 11
169.281861626817
 21
222.7519052791079
 31
0.0
  0
LINE
  5
212A
330
1A
100
AcDbEntity
  8
SEIHIN
100
AcDbLine
 10
172.918430114041
 20
220.7519052791079
 30
0.0
 11
172.918430114041
 21
219.2519052791079
 31
0.0
  0
LINE
  5
29B5
330
1A
100
AcDbEntity
  8
SEIHIN
100
AcDbLine
 10
208.9813105063459
 20
235.2519052791079
 30
0.0
 11
206.5366487778021
 21
235.2519052791079
 31
0.0
  0
LINE
  5
29B6
330
1A
100
AcDbEntity
  8
SEIHIN
100
AcDbLine
 10
208.9813105063459
 20
227.2519052791079
 30
0.0
 11
206.5366487778021
 21
227.2519052791079
 31
0.0
  0
LINE
  5
3947
330
1A
100
AcDbEntity
  8
SEIHIN
100
AcDbLine
 10
208.0106853294017
 20
108.1327345962334
 30
0.0
 11
209.0879469294017
 21
105.4395245962334
 31
0.0
  0
LINE
  5
3948
330
1A
100
AcDbEntity
  8
SEIHIN
100
AcDbLine
 10
208.4749250294017
 20
108.3184265962334
 30
0.0
 11
202.3469613294017
 21
105.8672918962334
 31
0.0
  0
LINE
  5
3949
330
1A
100
AcDbEntity
  8
SEIHIN
100
AcDbLine
 10
203.832528270764
 20
106.4615063624754
 30
0.0
 11
204.9097899294017
 21
103.7682963962334
 31
0.0
  0
LINE
  5
394D
330
1A
100
AcDbEntity
  8
SEIHIN
100
AcDbLine
 10
189.3485199294017
 20
138.3640689962334
 30
0.0
 11
202.3469613294017
 21
105.8672918962334
 31
0.0
  0
LINE
  5
395F
330
1A
100
AcDbEntity
  8
SEIHIN
100
AcDbLine
 10
204.3824009294016
 20
105.0867962962334
 30
0.0
 11
202.1145232294017
 21
103.2990781962334
 31
0.0
  0
ARC
  5
3960
330
1A
100
AcDbEntity
  8
SEIHIN
100
AcDbCircle
 10
203.9813105294017
 20
103.3969123962334
 30
0.0
 40
1.000000001711656
100
AcDbArc
 50
273.0000026078751
 51
21.80099667147166
  0
ARC
  5
3961
330
1A
100
AcDbEntity
  8
SEIHIN
100
AcDbCircle
 10
203.9813105294017
 20
103.3969123962334
 30
0.0
 40
5.499999976944204
100
AcDbArc
 50
273.0000004454678
 51
21.80099976660096
  0
LINE
  5
3989
330
1A
100
AcDbEntity
  8
SEIHIN
100
AcDbLine
 10
193.9909166294016
 20
140.2209891962334
 30
0.0
 11
206.9893580294017
 21
107.7242120962334
 31
0.0
  0
LINE
  5
398A
330
1A
100
AcDbEntity
  8
SEIHIN
100
AcDbLine
 10
195.4764835294017
 20
140.8152036962334
 30
0.0
 11
208.4749250294017
 21
108.3184265962334
 31
0.0
  0
MTEXT
  5
398E
330
1A
100
AcDbEntity
  8
SUNPOU
100
AcDbMText
 10
181.0446217966712
 20
151.6226842922927
 30
0.0
 40
3.0
 41
0.0
 71
     1
 72
     5
  1
{\W1.269841;10}
 11
-0.0000000002051034
 21
1.0
 31
0.0
1001
ACAD
1000
MTEXTBEGIN
1070
    73
1070
     1
1070
    44
1040
1.0
1070
    74
1070
     0
1000
MTEXTEND
1000
MTEXTBEGIN
1070
    73
1070
     1
1070
    44
1040
1.0
1070
    74
1070
     0
1000
MTEXTEND
1000
MTEXTBEGIN
1070
    73
1070
     1
1070
    44
1040
1.0
1070
    74
1070
     0
1000
MTEXTEND
1000
MTEXTBEGIN
1070
    73
1070
     1
1070
    44
1040
1.0
1070
    74
1070
     0
1000
MTEXTEND
1000
MTEXTBEGIN
1070
    73
1070
     1
1070
    44
1040
1.0
1070
    74
1070
     0
1000
MTEXTEND
  0
LINE
  5
398F
330
1A
100
AcDbEntity
  8
SUNPOU
100
AcDbLine
 10
191.5534896966712
 20
150.622684292908
 30
0.0
 11
195.4764121496838
 21
140.8151751449372
 31
0.0
  0
MTEXT
  5
3995
330
1A
100
AcDbEntity
  8
SUNPOU
100
AcDbMText
 10
187.5534896942099
 20
148.236632592908
 30
0.0
 40
3.0
 41
0.0
 71
     1
 72
     5
  1
{\W1.111111;4}
 11
1.0
 21
0.0000000008204137
 31
0.0
1001
ACAD
1000
MTEXTBEGIN
1070
    73
1070
     1
1070
    44
1040
1.0
1070
    74
1070
     0
1000
MTEXTEND
1000
MTEXTBEGIN
1070
    73
1070
     1
1070
    44
1040
1.0
1070
    74
1070
     0
1000
MTEXTEND
1000
MTEXTBEGIN
1070
    73
1070
     1
1070
    44
1040
1.0
1070
    74
1070
     0
1000
MTEXTEND
1000
MTEXTBEGIN
1070
    73
1070
     1
1070
    44
1040
1.0
1070
    74
1070
     0
1000
MTEXTEND
1000
MTEXTBEGIN
1070
    73
1070
     1
1070
    44
1040
1.0
1070
    74
1070
     0
1000
MTEXTEND
  0
LINE
  5
3998
330
1A
100
AcDbEntity
  8
SEIHIN
100
AcDbLine
 10
195.4764835294017
 20
140.8152036962334
 30
0.0
 11
189.3485199294017
 21
138.3640689962334
 31
0.0
  0
LINE
  5
399A
330
1A
100
AcDbEntity
  8
SUNPOU
100
AcDbLine
 10
187.5534896966712
 20
150.622684292908
 30
0.0
 11
187.5534896966712
 21
160.622684292908
 31
0.0
  0
LINE
  5
399B
330
1A
100
AcDbEntity
  8
SUNPOU
100
AcDbLine
 10
187.5534896966712
 20
160.622684292908
 30
0.0
 11
191.5534896966712
 21
150.622684292908
 31
0.0
  0
LINE
  5
399C
330
1A
100
AcDbEntity
  8
SUNPOU
100
AcDbLine
 10
191.5534896966712
 20
150.622684292908
 30
0.0
 11
187.5534896966712
 21
150.622684292908
 31
0.0
  0
MTEXT
  5
39FC
102
{ACAD_REACTORS
330
39FD
102
}
330
1A
100
AcDbEntity
  8
SUNPOU
100
AcDbMText
 10
264.8830751427357
 20
188.9109831866263
 30
0.0
 40
3.0
 41
0.0
 71
     9
 72
     5
  1
4-φ4.2
1001
ACAD
1000
MTEXTBEGIN
1070
    73
1070
     1
1070
    44
1040
1.0
1070
    74
1070
     0
1000
MTEXTEND
1000
MTEXTBEGIN
1070
    73
1070
     1
1070
    44
1040
1.0
1070
    74
1070
     0
1000
MTEXTEND
1000
MTEXTBEGIN
1070
    73
1070
     1
1070
    44
1040
1.0
1070
    74
1070
     0
1000
MTEXTEND
1000
MTEXTBEGIN
1070
    73
1070
     1
1070
    44
1040
1.0
1070
    74
1070
     0
1000
MTEXTEND
1000
MTEXTBEGIN
1070
    73
1070
     1
1070
    44
1040
1.0
1070
    74
1070
     0
1000
MTEXTEND
1000
MTEXTBEGIN
1070
    73
1070
     1
1070
    44
1040
1.0
1070
    74
1070
     0
1000
MTEXTEND
1000
MTEXTBEGIN
1070
    73
1070
     1
1070
    44
1040
1.0
1070
    74
1070
     0
1000
MTEXTEND
1000
MTEXTBEGIN
1070
    73
1070
     1
1070
    44
1040
1.0
1070
    74
1070
     0
1000
MTEXTEND
1000
MTEXTBEGIN
1070
    73
1070
     1
1070
    44
1040
1.0
1070
    74
1070
     0
1000
MTEXTEND
  0
LEADER
  5
39FD
330
1A
100
AcDbEntity
  8
SUNPOU
100
AcDbLeader
  3
STANDARD
 73
     0
 40
3.0
 41
15.59999999999999
 76
     3
 10
292.1085617287973
 20
172.360875617529
 30
0.0
 10
269.7402609005607
 20
190.4101897525643
 30
0.0
 10
265.8830751427357
 20
190.4109831866263
 30
0.0
340
39FC
213
0.0
223
1.5
233
0.0
1001
ACAD
1000
DSTYLE
1002
{
1070
     6
1000
OPEN
1070
    41
1040
3.0
1070
    42
1040
3.0
1070
    43
1040
7.0
1070
    44
1040
1.5
1070
    73
1070
     0
1070
    74
1070
     0
1070
    77
1070
     0
1070
   140
1040
3.0
1070
   141
1040
3.0
1070
   147
1040
1.0
1070
   172
1070
     1
1070
   173
1070
     1
1070
   176
1070
   256
1070
   177
1070
   256
1070
   178
1070
   256
1070
   271
1070
     0
1070
   272
1070
     0
1070
   341
1005
B2
1070
   343
1005
B2
1070
   344
1005
B2
1002
}
  0
DIMENSION
  5
39FE
330
1A
100
AcDbEntity
  8
SUNPOU
100
AcDbDimension
  2
*D3
 10
320.7347922180011
 20
223.4796272605271
 30
0.0
 11
299.3797865231734
 21
217.6303767295722
 31
0.0
 70
    32
  3
STANDARD
100
AcDbAlignedDimension
 13
291.8154858003277
 23
177.3036491916633
 33
0.0
 14
332.668576986841
 24
193.6445469793133
 34
0.0
 50
21.80099999999981
100
AcDbRotatedDimension
1001
ACAD
1000
DSTYLE
1002
{
1070
    41
1040
3.0
1070
    42
1040
3.0
1070
    43
1040
7.0
1070
    44
1040
1.5
1070
    73
1070
     0
1070
    74
1070
     0
1070
    77
1070
     3
1070
   140
1040
3.0
1070
   141
1040
3.0
1070
   147
1040
1.0
1070
   172
1070
     1
1070
   173
1070
     1
1070
   176
1070
   256
1070
   177
1070
   256
1070
   178
1070
   256
1070
   271
1070
     0
1070
   272
1070
     0
1070
   341
1005
B2
1070
     6
1000
OPEN
1070
     7
1000
OPEN
1002
}
  0
DIMENSION
  5
39FF
330
1A
100
AcDbEntity
  8
SUNPOU
100
AcDbDimension
  2
*D2
 10
325.2493030646949
 20
236.4267908415527
 30
0.0
 11
295.5379832635348
 21
227.2350839449422
 31
0.0
 70
    32
  3
STANDARD
100
AcDbAlignedDimension
 13
283.8676941386866
 23
172.9398655463448
 33
0.0
 14
341.4334135378647
 24
195.9656760653061
 34
0.0
 50
21.80099999999981
100
AcDbRotatedDimension
1001
ACAD
1000
DSTYLE
1002
{
1070
    41
1040
3.0
1070
    42
1040
3.0
1070
    43
1040
7.0
1070
    44
1040
1.5
1070
    73
1070
     0
1070
    74
1070
     0
1070
    77
1070
     3
1070
   140
1040
3.0
1070
   141
1040
3.0
1070
   147
1040
1.0
1070
   172
1070
     1
1070
   173
1070
     1
1070
   176
1070
   256
1070
   177
1070
   256
1070
   178
1070
   256
1070
   271
1070
     0
1070
   272
1070
     0
1070
   341
1005
B2
1070
     6
1000
OPEN
1070
     7
1000
OPEN
1002
}
  0
CIRCLE
  5
3A00
330
1A
100
AcDbEntity
  8
SEIHIN
100
AcDbCircle
 10
334.9340196346743
 20
187.9808229739103
 30
0.0
 40
2.100000000000022
  0
LINE
  5
3A01
330
1A
100
AcDbEntity
  8
CENTER_L
100
AcDbLine
 10
332.668576986841
 20
193.6445469793133
 30
0.0
 11
337.1994622825078
 21
182.3170989685073
 31
0.0
  0
LINE
  5
3A02
330
1A
100
AcDbEntity
  8
CENTER_L
100
AcDbLine
 10
340.5977436400774
 20
190.2462656217436
 30
0.0
 11
329.2702956292712
 21
185.715380326077
 31
0.0
  0
LINE
  5
3A03
330
1A
100
AcDbEntity
  8
SEIHIN
100
AcDbLine
 10
333.8196365898649
 20
158.4552721673725
 30
0.0
 11
350.5322648025294
 21
165.1401848986839
 31
0.0
  0
LINE
  5
3A04
330
1A
100
AcDbEntity
  8
SEIHIN
100
AcDbLine
 10
311.5364017163905
 20
187.2382088412696
 30
0.0
 11
337.5338233805353
 21
197.636961978865
 31
0.0
  0
DIMENSION
  5
3A05
330
1A
100
AcDbEntity
  8
SUNPOU
100
AcDbDimension
  2
*D7
 10
272.5234785184816
 20
163.0171239334737
 30
0.0
 11
273.359140718838
 21
167.6595014156369
 31
0.0
 70
    32
  3
STANDARD
100
AcDbAlignedDimension
 13
285.5389800522455
 23
176.8394557036741
 33
0.0
 14
288.4172044427578
 24
169.374482538427
 34
0.0
 50
111.8010000000003
100
AcDbRotatedDimension
1001
ACAD
1000
DSTYLE
1002
{
1070
    41
1040
3.0
1070
    42
1040
3.0
1070
    43
1040
7.0
1070
    44
1040
1.5
1070
    73
1070
     0
1070
    74
1070
     0
1070
    77
1070
     3
1070
   140
1040
3.0
1070
   141
1040
3.0
1070
   147
1040
1.0
1070
   172
1070
     1
1070
   173
1070
     1
1070
   176
1070
   256
1070
   177
1070
   256
1070
   178
1070
   256
1070
   271
1070
     0
1070
   272
1070
     0
1070
   341
1005
B2
1070
     6
1000
OPEN
1070
     7
1000
OPEN
1002
}
  0
DIMENSION
  5
3A06
330
1A
100
AcDbEntity
  8
SUNPOU
100
AcDbDimension
  2
*D5
 10
291.8586822603318
 20
141.6712383071024
 30
0.0
 11
287.6806599122045
 21
158.8480869487639
 31
0.0
 70
    32
  3
STANDARD
100
AcDbAlignedDimension
 13
259.3143630468615
 23
166.3498263131149
 33
0.0
 14
272.3128044688558
 24
133.8530492329338
 34
0.0
 50
111.8010000000003
100
AcDbRotatedDimension
1001
ACAD
1000
DSTYLE
1002
{
1070
    41
1040
3.0
1070
    42
1040
3.0
1070
    43
1040
7.0
1070
    44
1040
1.5
1070
    73
1070
     0
1070
    74
1070
     0
1070
    77
1070
     3
1070
   140
1040
3.0
1070
   141
1040
3.0
1070
   147
1040
1.0
1070
   172
1070
     1
1070
   173
1070
     1
1070
   176
1070
   256
1070
   177
1070
   256
1070
   178
1070
   256
1070
   271
1070
     0
1070
   272
1070
     0
1070
   341
1005
B2
1070
     6
1000
OPEN
1070
     7
1000
OPEN
1002
}
  0
DIMENSION
  5
3A07
330
1A
100
AcDbEntity
  8
SUNPOU
100
AcDbDimension
  2
*D4
 10
273.248989616384
 20
134.2275155306302
 30
0.0
 11
269.0709672682568
 21
151.4043641722918
 31
0.0
 70
    32
  3
STANDARD
100
AcDbAlignedDimension
 13
285.5389800522455
 23
176.8394557036741
 33
0.0
 14
298.5374214742399
 24
144.3426786234931
 34
0.0
 50
111.8010000000003
100
AcDbRotatedDimension
1001
ACAD
1000
DSTYLE
1002
{
1070
    41
1040
3.0
1070
    42
1040
3.0
1070
    43
1040
7.0
1070
    44
1040
1.5
1070
    73
1070
     0
1070
    74
1070
     0
1070
    77
1070
     3
1070
   140
1040
3.0
1070
   141
1040
3.0
1070
   147
1040
1.0
1070
   172
1070
     1
1070
   173
1070
     1
1070
   176
1070
   256
1070
   177
1070
   256
1070
   178
1070
   256
1070
   271
1070
     0
1070
   272
1070
     0
1070
   341
1005
B2
1070
     6
1000
OPEN
1070
     7
1000
OPEN
1002
}
  0
LINE
  5
3A08
330
1A
100
AcDbEntity
  8
SEIHIN
100
AcDbLine
 10
321.2854348404446
 20
191.1377412678679
 30
0.0
 11
334.283876262439
 21
158.6409641876867
 31
0.0
  0
CIRCLE
  5
3A09
330
1A
100
AcDbEntity
  8
SEIHIN
100
AcDbCircle
 10
294.080928448161
 20
171.6399251862603
 30
0.0
 40
2.100000000000022
  0
LINE
  5
3A0A
330
1A
100
AcDbEntity
  8
CENTER_L
100
AcDbLine
 10
288.4172044427578
 20
169.374482538427
 30
0.0
 11
299.744652453564
 21
173.9053678340936
 31
0.0
  0
LINE
  5
3A0B
330
1A
100
AcDbEntity
  8
CENTER_L
100
AcDbLine
 10
291.8154858003277
 20
177.3036491916633
 30
0.0
 11
296.3463710959943
 21
165.9762011808574
 31
0.0
  0
LINE
  5
3A0C
330
1A
100
AcDbEntity
  8
SEIHIN
100
AcDbLine
 10
302.2516082649101
 20
183.5243684349856
 30
0.0
 11
318.2609370747307
 21
143.500216873571
 31
0.0
  0
LINE
  5
3A0D
330
1A
100
AcDbEntity
  8
SEIHIN
100
AcDbLine
 10
283.8676941015483
 20
172.9398656391927
 30
0.0
 11
294.6378312426336
 21
146.0139647227478
 31
0.0
  0
LINE
  5
3A0E
330
1A
100
AcDbEntity
  8
SEIHIN
100
AcDbLine
 10
301.7873685923362
 20
183.3386764146713
 30
0.0
 11
314.7858100143305
 21
150.8418993344902
 31
0.0
  0
LINE
  5
3A0F
330
1A
100
AcDbEntity
  8
CENTER_L
100
AcDbLine
 10
305.83574110763
 20
201.4901557477039
 30
0.0
 11
330.1454187985709
 21
140.7147018939177
 31
0.0
  0
LINE
  5
3A10
330
1A
100
AcDbEntity
  8
SEIHIN
100
AcDbLine
 10
320.8211951678707
 20
190.9520492475537
 30
0.0
 11
336.830523953613
 21
150.9278977463367
 31
0.0
  0
CIRCLE
  5
3A11
330
1A
100
AcDbEntity
  8
SEIHIN
100
AcDbCircle
 10
301.1372252201007
 20
153.9988176284477
 30
0.0
 40
2.100000000000022
  0
LINE
  5
3A12
330
1A
100
AcDbEntity
  8
CENTER_L
100
AcDbLine
 10
295.4735012146975
 20
151.7333749806144
 30
0.0
 11
306.8009492255037
 21
156.264260276281
 31
0.0
  0
LINE
  5
3A13
330
1A
100
AcDbEntity
  8
CENTER_L
100
AcDbLine
 10
298.8717825722675
 20
159.6625416338508
 30
0.0
 11
303.4026678679341
 21
148.3350936230447
 31
0.0
  0
LINE
  5
3A14
330
1A
100
AcDbEntity
  8
SEIHIN
100
AcDbLine
 10
298.5374214742399
 20
144.3426786234931
 30
0.0
 11
315.2500496869042
 21
151.0275913548043
 31
0.0
  0
DIMENSION
  5
3A15
330
1A
100
AcDbEntity
  8
SUNPOU
100
AcDbDimension
  2
*D6
 10
282.5508476154487
 20
137.9481816144768
 30
0.0
 11
283.3865098158051
 21
142.59055909664
 31
0.0
 70
    32
  3
STANDARD
100
AcDbAlignedDimension
 13
295.4735012146975
 23
151.7333749806144
 33
0.0
 14
298.5374214742399
 24
144.3426786234931
 34
0.0
 50
111.8010000000003
100
AcDbRotatedDimension
1001
ACAD
1000
DSTYLE
1002
{
1070
    41
1040
3.0
1070
    42
1040
3.0
1070
    43
1040
7.0
1070
    44
1040
1.5
1070
    73
1070
     0
1070
    74
1070
     0
1070
    77
1070
     3
1070
   140
1040
3.0
1070
   141
1040
3.0
1070
   147
1040
1.0
1070
   172
1070
     1
1070
   173
1070
     1
1070
   176
1070
   256
1070
   177
1070
   256
1070
   178
1070
   256
1070
   271
1070
     0
1070
   272
1070
     0
1070
   341
1005
B2
1070
     6
1000
OPEN
1070
     7
1000
OPEN
1002
}
  0
ARC
  5
3A16
330
1A
100
AcDbEntity
  8
SEIHIN
100
AcDbCircle
 10
297.4232693523546
 20
147.1281166589371
 30
0.0
 40
3.000000000000003
100
AcDbArc
 50
201.800996180281
 51
291.8009999999999
  0
LINE
  5
3A17
330
1A
100
AcDbEntity
  8
SEIHIN
100
AcDbLine
 10
310.5148743035268
 20
158.8268294001941
 30
0.0
 11
308.6579156132307
 21
158.0840613189373
 31
0.0
  0
LINE
  5
3A18
330
1A
100
AcDbEntity
  8
SEIHIN
100
AcDbLine
 10
311.2576423847835
 20
156.969870709898
 30
0.0
 11
309.4006836944875
 21
156.2271026286412
 31
0.0
  0
ARC
  5
3A19
330
1A
100
AcDbEntity
  8
SEIHIN
100
AcDbCircle
 10
308.8436076335448
 20
157.6198216463632
 30
0.0
 40
0.5
100
AcDbArc
 50
111.8009999999999
 51
201.801
  0
LINE
  5
3A1A
330
1A
100
AcDbEntity
  8
SEIHIN
100
AcDbLine
 10
308.7507520015993
 20
156.505650280901
 30
0.0
 11
308.3793679609708
 21
157.434129626049
 31
0.0
  0
ARC
  5
3A1B
330
1A
100
AcDbEntity
  8
SEIHIN
100
AcDbCircle
 10
309.2149916741732
 20
156.6913423012152
 30
0.0
 40
0.5
100
AcDbArc
 50
201.801
 51
291.8010000000005
  0
ARC
  5
3A1C
330
1A
100
AcDbEntity
  8
SEIHIN
100
AcDbCircle
 10
333.9125499525417
 20
167.6471907433302
 30
0.0
 40
0.5
100
AcDbArc
 50
21.801
 51
111.8009999999999
  0
LINE
  5
3A1D
330
1A
100
AcDbEntity
  8
SEIHIN
100
AcDbLine
 10
331.8698992419313
 20
167.3686623346475
 30
0.0
 11
333.7268579322274
 21
168.1114304159043
 31
0.0
  0
ARC
  5
3A1E
330
1A
100
AcDbEntity
  8
SEIHIN
100
AcDbCircle
 10
334.2839339931701
 20
166.7187113981822
 30
0.0
 40
0.5
100
AcDbArc
 50
291.8009999999994
 51
21.801
  0
LINE
  5
3A1F
330
1A
100
AcDbEntity
  8
SEIHIN
100
AcDbLine
 10
332.6126673231882
 20
165.5117036443514
 30
0.0
 11
334.4696260134842
 21
166.2544717256082
 31
0.0
  0
LINE
  5
3A20
330
1A
100
AcDbEntity
  8
SEIHIN
100
AcDbLine
 10
334.748173665744
 20
166.9044034184964
 30
0.0
 11
334.3767896251157
 21
167.8328827636445
 31
0.0
  0
LINE
  5
3A22
330
1A
100
AcDbEntity
  8
SEIHIN
100
AcDbLine
 10
303.4585775315869
 20
176.4679369580067
 30
0.0
 11
301.6016188412908
 21
175.7251688767498
 31
0.0
  0
LINE
  5
3A23
330
1A
100
AcDbEntity
  8
SEIHIN
100
AcDbLine
 10
304.2013456128437
 20
174.6109782677106
 30
0.0
 11
302.3443869225477
 21
173.8682101864537
 31
0.0
  0
LINE
  5
3A24
330
1A
100
AcDbEntity
  8
SEIHIN
100
AcDbLine
 10
285.5389800522455
 20
176.8394557036741
 30
0.0
 11
311.5364017163905
 21
187.2382088412696
 31
0.0
  0
ARC
  5
3A25
330
1A
100
AcDbEntity
  8
SEIHIN
100
AcDbCircle
 10
286.6531321741307
 20
174.05401766823
 30
0.0
 40
3.0
100
AcDbArc
 50
111.8009999999999
 51
201.801
  0
LINE
  5
3A26
330
1A
100
AcDbEntity
  8
SEIHIN
100
AcDbLine
 10
301.6944552296594
 20
174.1467578387136
 30
0.0
 11
301.323071189031
 21
175.0752371838617
 31
0.0
  0
ARC
  5
3A27
330
1A
100
AcDbEntity
  8
SEIHIN
100
AcDbCircle
 10
302.1586949022334
 20
174.3324498590278
 30
0.0
 40
0.5
100
AcDbArc
 50
201.801
 51
291.8010000000005
  0
ARC
  5
3A28
330
1A
100
AcDbEntity
  8
SEIHIN
100
AcDbCircle
 10
301.787310861605
 20
175.2609292041758
 30
0.0
 40
0.5
100
AcDbArc
 50
111.8009999999999
 51
201.801
  0
LINE
  5
3A2A
330
1A
100
AcDbEntity
  8
SEIHIN
100
AcDbLine
 10
331.2596478947641
 20
148.6995934724675
 30
0.0
 11
329.3882829182848
 21
153.3781028800192
 31
0.0
  0
LINE
  5
3A2B
330
1A
100
AcDbEntity
  8
SEIHIN
100
AcDbLine
 10
323.8318131335797
 20
145.7285211474402
 30
0.0
 11
321.9604481571004
 21
150.4070305549919
 31
0.0
  0
ARC
  5
3A2C
330
1A
100
AcDbEntity
  8
SEIHIN
100
AcDbCircle
 10
326.8562531806019
 20
185.2882983011429
 30
0.0
 40
0.5
100
AcDbArc
 50
21.801
 51
111.8009999999999
  0
LINE
  5
3A2D
330
1A
100
AcDbEntity
  8
SEIHIN
100
AcDbLine
 10
325.5563705512484
 20
183.152811202164
 30
0.0
 11
327.4133292415445
 21
183.8955792834208
 31
0.0
  0
LINE
  5
3A2E
330
1A
100
AcDbEntity
  8
SEIHIN
100
AcDbLine
 10
324.8136024699916
 20
185.00976989246
 30
0.0
 11
326.6705611602877
 21
185.7525379737169
 31
0.0
  0
ARC
  5
3A2F
330
1A
100
AcDbEntity
  8
SEIHIN
100
AcDbCircle
 10
327.2276372212303
 20
184.3598189559948
 30
0.0
 40
0.5
100
AcDbArc
 50
291.8009999999994
 51
21.801
  0
LINE
  5
3A30
330
1A
100
AcDbEntity
  8
SEIHIN
100
AcDbLine
 10
327.6918768938042
 20
184.545510976309
 30
0.0
 11
327.3204928531759
 21
185.4739903214571
 31
0.0
  0
CIRCLE
  5
3A32
330
1A
100
AcDbEntity
  8
SEIHIN
100
AcDbCircle
 10
341.9903164066142
 20
170.3397154160977
 30
0.0
 40
2.100000000000022
  0
LINE
  5
3A33
330
1A
100
AcDbEntity
  8
CENTER_L
100
AcDbLine
 10
339.7248737587809
 20
176.0034394215007
 30
0.0
 11
344.2557590544475
 21
164.6759914106947
 31
0.0
  0
LINE
  5
3A34
330
1A
100
AcDbEntity
  8
CENTER_L
100
AcDbLine
 10
347.6540404120171
 20
172.605158063931
 30
0.0
 11
336.326592401211
 21
168.0742727682644
 31
0.0
  0
LINE
  5
3A35
330
1A
100
AcDbEntity
  8
SEIHIN
100
AcDbLine
 10
341.4334135007262
 20
195.9656761581541
 30
0.0
 11
352.2035506418117
 21
169.0397752417091
 31
0.0
  0
ARC
  5
3A36
330
1A
100
AcDbEntity
  8
SEIHIN
100
AcDbCircle
 10
349.4181126806443
 20
167.925622934128
 30
0.0
 40
3.000000000000003
100
AcDbArc
 50
291.8009999999999
 51
21.80100381971894
  0
ARC
  5
3A37
330
1A
100
AcDbEntity
  8
SEIHIN
100
AcDbCircle
 10
338.6479755024205
 20
194.8515239434209
 30
0.0
 40
3.0
100
AcDbArc
 50
21.80100190985947
 51
111.8009999999999
  0
LINE
  5
3B2A
330
1A
100
AcDbEntity
  8
CENTER_L
100
AcDbLine
 10
192.7838319270314
 20
131.1219262673969
 30
0.0
 11
204.1112799378376
 21
135.6528115630635
 31
0.0
  0
LINE
  5
3B2B
330
1A
100
AcDbEntity
  8
CENTER_L
100
AcDbLine
 10
199.8401286989712
 20
113.4808187095843
 30
0.0
 11
211.1675767097774
 21
118.0117040052509
 31
0.0
  0
LINE
  5
3B5C
330
1A
100
AcDbEntity
  8
SEIHIN
100
AcDbLine
 10
195.4764835294017
 20
219.9519052791079
 30
0.0
 11
195.4764835294017
 21
203.2519052791079
 31
0.0
  0
LINE
  5
3B5D
330
1A
100
AcDbEntity
  8
SEIHIN
100
AcDbLine
 10
193.9909166294016
 20
218.8519052791079
 30
0.0
 11
193.9909166294016
 21
203.2519052791079
 31
0.0
  0
LINE
  5
3B5E
330
1A
100
AcDbEntity
  8
SEIHIN
100
AcDbLine
 10
189.3485199294017
 20
219.9519052791079
 30
0.0
 11
189.3485199294017
 21
242.5519052791078
 31
0.0
  0
ARC
  5
3B5F
330
1A
100
AcDbEntity
  8
SEIHIN
100
AcDbCircle
 10
190.1485199294017
 20
219.951905279108
 30
0.0
 40
0.8
100
AcDbArc
 50
180.0000000000061
 51
269.9999999999979
  0
ARC
  5
3B60
330
1A
100
AcDbEntity
  8
SEIHIN
100
AcDbCircle
 10
194.6764835294017
 20
219.9519052791079
 30
0.0
 40
0.8
100
AcDbArc
 50
0.0
 51
90.00000000000204
  0
ARC
  5
3B61
330
1A
100
AcDbEntity
  8
SEIHIN
100
AcDbCircle
 10
193.6909166294017
 20
218.851905279108
 30
0.0
 40
0.3
100
AcDbArc
 50
359.9999999999891
 51
90.00000000001085
  0
LINE
  5
3B62
330
1A
100
AcDbEntity
  8
SEIHIN
100
AcDbLine
 10
190.8340868434035
 20
221.051905279108
 30
0.0
 11
190.8340868434035
 21
241.451905279108
 31
0.0
  0
ARC
  5
3B63
330
1A
100
AcDbEntity
  8
SEIHIN
100
AcDbCircle
 10
191.1340868434034
 20
221.0519052791079
 30
0.0
 40
0.3
100
AcDbArc
 50
179.9999999999837
 51
270.0000000000108
  0
LINE
  5
3B67
330
1A
100
AcDbEntity
  8
SEIHIN
100
AcDbLine
 10
195.0122439280435
 20
221.2519052791079
 30
0.0
 11
195.0122439280435
 21
241.2519052791079
 31
0.0
  0
LINE
  5
3B68
330
1A
100
AcDbEntity
  8
SEIHIN
100
AcDbLine
 10
208.4749250294017
 20
203.2519052791079
 30
0.0
 11
208.4749250294017
 21
219.9519052791079
 31
0.0
  0
ELLIPSE
  5
3B6D
330
1A
100
AcDbEntity
  8
SEIHIN
100
AcDbEllipse
 10
196.5906356759903
 20
203.2519052791079
 30
0.0
 11
-0.0000000000000155
 21
3.0
 31
0.0
210
0.0
220
0.0
230
1.0
 40
0.3713840488628743
 41
1.570796326794894
 42
3.141592653589778
  0
ELLIPSE
  5
3B6E
330
1A
100
AcDbEntity
  8
SEIHIN
100
AcDbEllipse
 10
207.3607728828131
 20
203.2519052791079
 30
0.0
 11
0.0000000000000157
 21
3.0
 31
0.0
210
0.0
220
0.0
230
1.0
 40
0.3713840488628743
 41
3.141592653589807
 42
4.712388980384691
  0
ELLIPSE
  5
3B70
330
1A
100
AcDbEntity
  8
SEIHIN
100
AcDbEllipse
 10
195.1050687759902
 20
203.2519052791079
 30
0.0
 11
-0.0000000000000155
 21
3.0
 31
0.0
210
0.0
220
0.0
230
1.0
 40
0.3713840488628743
 41
1.570796326794894
 42
3.141592653589778
  0
LINE
  5
3B71
330
1A
100
AcDbEntity
  8
CENTER_L
100
AcDbLine
 10
198.4475558858306
 20
215.3519052791079
 30
0.0
 11
198.4475558858306
 21
203.1520497295157
 31
0.0
  0
ELLIPSE
  5
3B77
330
1A
100
AcDbEntity
  8
SEIHIN
100
AcDbEllipse
 10
198.4475558858306
 20
209.2519052791079
 30
0.0
 11
0.0
 21
2.099999999999994
 31
0.0
210
0.0
220
0.0
230
1.0
 40
0.3713840423544865
 41
0.0
 42
6.283185307179586
  0
ELLIPSE
  5
3B78
330
1A
100
AcDbEntity
  8
SEIHIN
100
AcDbEllipse
 10
205.5038526905658
 20
209.2519052791079
 30
0.0
 11
0.0
 21
2.099999999999994
 31
0.0
210
0.0
220
0.0
230
1.0
 40
0.3713840423544865
 41
0.0
 42
6.283185307179586
  0
LINE
  5
3B7A
330
1A
100
AcDbEntity
  8
CENTER_L
100
AcDbLine
 10
205.5038526905658
 20
215.3519052791079
 30
0.0
 11
205.5038526905658
 21
203.1520497295157
 31
0.0
  0
LINE
  5
3B7C
330
1A
100
AcDbEntity
  8
SEIHIN
100
AcDbLine
 10
209.4813105063459
 20
221.2519052791079
 30
0.0
 11
190.8340868434035
 21
221.2519052791079
 31
0.0
  0
LINE
  5
3B7D
330
1A
100
AcDbEntity
  8
SEIHIN
100
AcDbLine
 10
209.4813105063459
 20
221.2519052791079
 30
0.0
 11
209.4813105063459
 21
226.7519052791079
 31
0.0
  0
LINE
  5
3B7E
330
1A
100
AcDbEntity
  8
SEIHIN
100
AcDbLine
 10
203.8325283434035
 20
221.051905279108
 30
0.0
 11
203.8325283434035
 21
221.2519052791079
 31
0.0
  0
ARC
  5
3B7F
330
1A
100
AcDbEntity
  8
SEIHIN
100
AcDbCircle
 10
207.6749250294017
 20
219.9519052791079
 30
0.0
 40
0.8
100
AcDbArc
 50
0.0
 51
90.00000000000204
  0
ARC
  5
3B80
330
1A
100
AcDbEntity
  8
SEIHIN
100
AcDbCircle
 10
204.1325283434034
 20
221.0519052791079
 30
0.0
 40
0.3
100
AcDbArc
 50
179.9999999999837
 51
270.0000000000108
  0
LINE
  5
3B81
330
1A
100
AcDbEntity
  8
SEIHIN
100
AcDbLine
 10
208.4749250294017
 20
259.2519052791079
 30
0.0
 11
208.4749250294017
 21
242.5519052791079
 31
0.0
  0
LINE
  5
3B82
330
1A
100
AcDbEntity
  8
CENTER_L
100
AcDbLine
 10
205.5038526905658
 20
247.1519052791079
 30
0.0
 11
205.5038526905658
 21
259.3517608287001
 31
0.0
  0
LINE
  5
3B83
330
1A
100
AcDbEntity
  8
CENTER_L
100
AcDbLine
 10
198.4475558858306
 20
247.1519052791079
 30
0.0
 11
198.4475558858306
 21
259.3517608287001
 31
0.0
  0
LINE
  5
3B84
330
1A
100
AcDbEntity
  8
SEIHIN
100
AcDbLine
 10
193.9909166294016
 20
243.651905279108
 30
0.0
 11
193.9909166294016
 21
259.2519052791079
 31
0.0
  0
LINE
  5
3B85
330
1A
100
AcDbEntity
  8
SEIHIN
100
AcDbLine
 10
195.4764835294017
 20
242.5519052791079
 30
0.0
 11
195.4764835294017
 21
259.2519052791079
 31
0.0
  0
LINE
  5
3B86
330
1A
100
AcDbEntity
  8
SEIHIN
100
AcDbLine
 10
207.3607728828131
 20
262.2519052791079
 30
0.0
 11
195.1050687759902
 21
262.2519052791079
 31
0.0
  0
ELLIPSE
  5
3B87
330
1A
100
AcDbEntity
  8
SEIHIN
100
AcDbEllipse
 10
195.1050687759902
 20
259.2519052791079
 30
0.0
 11
-0.0000000000000017
 21
3.0
 31
0.0
210
0.0
220
0.0
230
-1.0
 40
0.3713840488628743
 41
-1.570796326794896
 42
0.0000000000000018
  0
ELLIPSE
  5
3B88
330
1A
100
AcDbEntity
  8
SEIHIN
100
AcDbEllipse
 10
196.5906356759903
 20
259.2519052791079
 30
0.0
 11
-0.0000000000000017
 21
3.0
 31
0.0
210
0.0
220
0.0
230
-1.0
 40
0.3713840488628743
 41
-1.570796326794896
 42
0.0000000000000018
  0
ELLIPSE
  5
3B89
330
1A
100
AcDbEntity
  8
SEIHIN
100
AcDbEllipse
 10
207.3607728828131
 20
259.2519052791079
 30
0.0
 11
0.0000000000000019
 21
3.0
 31
0.0
210
0.0
220
0.0
230
-1.0
 40
0.3713840488628742
 41
-0.000000000000002
 42
1.570796326794896
  0
LINE
  5
3B8A
330
1A
100
AcDbEntity
  8
SEIHIN
100
AcDbLine
 10
209.4813105063459
 20
241.2519052791079
 30
0.0
 11
190.8340868434035
 21
241.2519052791079
 31
0.0
  0
LINE
  5
3B8B
330
1A
100
AcDbEntity
  8
SEIHIN
100
AcDbLine
 10
207.6749250294017
 20
241.7519052791079
 30
0.0
 11
191.1340868434034
 21
241.7519052791079
 31
0.0
  0
LINE
  5
3B8C
330
1A
100
AcDbEntity
  8
CENTER_L
100
AcDbLine
 10
193.667514433563
 20
253.2519052791079
 30
0.0
 11
210.7644710590653
 21
253.2519052791079
 31
0.0
  0
ELLIPSE
  5
3B8D
330
1A
100
AcDbEntity
  8
SEIHIN
100
AcDbEllipse
 10
198.4475558858306
 20
253.2519052791079
 30
0.0
 11
0.0
 21
-2.099999999999994
 31
0.0
210
0.0
220
0.0
230
-1.0
 40
0.3713840423544865
 41
0.0
 42
6.283185307179586
  0
ARC
  5
3B8E
330
1A
100
AcDbEntity
  8
SEIHIN
100
AcDbCircle
 10
194.6764835294017
 20
242.5519052791079
 30
0.0
 40
0.8
100
AcDbArc
 50
269.9999999999979
 51
0.0
  0
LINE
  5
3B8F
330
1A
100
AcDbEntity
  8
SEIHIN
100
AcDbLine
 10
190.1485199294017
 20
243.3519052791079
 30
0.0
 11
193.6909166294016
 21
243.3519052791079
 31
0.0
  0
ARC
  5
3B90
330
1A
100
AcDbEntity
  8
SEIHIN
100
AcDbCircle
 10
190.1485199294017
 20
242.5519052791078
 30
0.0
 40
0.8
100
AcDbArc
 50
90.00000000000204
 51
179.9999999999938
  0
ARC
  5
3B91
330
1A
100
AcDbEntity
  8
SEIHIN
100
AcDbCircle
 10
191.1340868434034
 20
241.451905279108
 30
0.0
 40
0.3
100
AcDbArc
 50
89.99999999998918
 51
180.0000000000162
  0
ARC
  5
3B92
330
1A
100
AcDbEntity
  8
SEIHIN
100
AcDbCircle
 10
193.6909166294017
 20
243.6519052791079
 30
0.0
 40
0.3
100
AcDbArc
 50
269.9999999999891
 51
0.0000000000108534
  0
ELLIPSE
  5
3B93
330
1A
100
AcDbEntity
  8
SEIHIN
100
AcDbEllipse
 10
205.5038526905658
 20
253.2519052791079
 30
0.0
 11
0.0
 21
-2.099999999999994
 31
0.0
210
0.0
220
0.0
230
-1.0
 40
0.3713840423544865
 41
0.0
 42
6.283185307179586
  0
LINE
  5
3B94
330
1A
100
AcDbEntity
  8
SEIHIN
100
AcDbLine
 10
203.8325283434035
 20
241.4519052791079
 30
0.0
 11
203.8325283434035
 21
241.2519052791079
 31
0.0
  0
ARC
  5
3B95
330
1A
100
AcDbEntity
  8
SEIHIN
100
AcDbCircle
 10
204.1325283434034
 20
241.451905279108
 30
0.0
 40
0.3
100
AcDbArc
 50
89.99999999998918
 51
180.0000000000162
  0
ARC
  5
3B96
330
1A
100
AcDbEntity
  8
SEIHIN
100
AcDbCircle
 10
207.6749250294017
 20
242.5519052791079
 30
0.0
 40
0.8
100
AcDbArc
 50
269.9999999999979
 51
0.0
  0
LINE
  5
3B98
330
1A
100
AcDbEntity
  8
SEIHIN
100
AcDbLine
 10
208.9813105063459
 20
227.2519052791079
 30
0.0
 11
208.9813105063459
 21
235.2519052791079
 31
0.0
  0
LINE
  5
3B9A
330
1A
100
AcDbEntity
  8
SEIHIN
100
AcDbLine
 10
209.4813105063459
 20
235.7519052791079
 30
0.0
 11
208.9813105063458
 21
235.2519052791079
 31
0.0
  0
LINE
  5
3B9B
330
1A
100
AcDbEntity
  8
SEIHIN
100
AcDbLine
 10
209.4813105063459
 20
226.7519052791079
 30
0.0
 11
208.9813105063458
 21
227.2519052791079
 31
0.0
  0
LINE
  5
3B9C
330
1A
100
AcDbEntity
  8
SEIHIN
100
AcDbLine
 10
209.4813105063459
 20
235.7519052791079
 30
0.0
 11
209.4813105063459
 21
241.2519052791079
 31
0.0
  0
LINE
  5
3BD8
330
1A
100
AcDbEntity
  8
SEIHIN
100
AcDbLine
 10
336.8305239536131
 20
150.9278977463367
 30
0.0
 11
318.2609370747306
 21
143.5002168735709
 31
0.0
  0
LINE
  5
3BDB
330
1A
100
AcDbEntity
  8
SEIHIN
100
AcDbLine
 10
193.4337828316274
 20
133.5359610058881
 30
0.0
 11
194.919318991193
 21
129.8220436241168
 31
0.0
  0
LINE
  5
3BDC
330
1A
100
AcDbEntity
  8
CENTER_L
100
AcDbLine
 10
193.4337828316274
 20
133.5359610058881
 30
0.0
 11
195.2907415219234
 21
134.2787290871449
 31
0.0
  0
LINE
  5
3BDD
330
1A
100
AcDbEntity
  8
SEIHIN
100
AcDbLine
 10
193.4337828316274
 20
133.5359610058881
 30
0.0
 11
195.2907415219234
 21
134.2787290871449
 31
0.0
  0
LINE
  5
3BDE
330
1A
100
AcDbEntity
  8
SEIHIN
100
AcDbLine
 10
194.919318991193
 20
129.8220436241168
 30
0.0
 11
196.7762776814891
 21
130.5648117053737
 31
0.0
  0
LINE
  5
3BE0
330
1A
100
AcDbEntity
  8
SEIHIN
100
AcDbLine
 10
200.4900796363626
 20
115.8948534611934
 30
0.0
 11
202.3470383266586
 21
116.6376215424502
 31
0.0
  0
LINE
  5
3BE1
330
1A
100
AcDbEntity
  8
SEIHIN
100
AcDbLine
 10
200.4900796363626
 20
115.8948534611934
 30
0.0
 11
201.9756157959283
 21
112.1809360794221
 31
0.0
  0
LINE
  5
3BE2
330
1A
100
AcDbEntity
  8
SEIHIN
100
AcDbLine
 10
200.4900796363626
 20
115.8948534611934
 30
0.0
 11
202.3470383266586
 21
116.6376215424502
 31
0.0
  0
LINE
  5
3BE3
330
1A
100
AcDbEntity
  8
SEIHIN
100
AcDbLine
 10
201.9756157959283
 20
112.1809360794221
 30
0.0
 11
203.8325744862243
 21
112.923704160679
 31
0.0
  0
LINE
  5
3BE6
330
1A
100
AcDbEntity
  8
SEIHIN
100
AcDbLine
 10
199.4475558858306
 20
218.7519052791079
 30
0.0
 11
197.4475558858306
 21
218.7519052791079
 31
0.0
  0
LINE
  5
3BE7
330
1A
100
AcDbEntity
  8
SEIHIN
100
AcDbLine
 10
197.4475558858306
 20
218.7519052791079
 30
0.0
 11
197.4475558858306
 21
219.9519052791079
 31
0.0
  0
LINE
  5
3BE8
330
1A
100
AcDbEntity
  8
SEIHIN
100
AcDbLine
 10
199.4475558858306
 20
218.7519052791079
 30
0.0
 11
199.4475558858306
 21
219.9519052791079
 31
0.0
  0
LINE
  5
3BEB
330
1A
100
AcDbEntity
  8
SEIHIN
100
AcDbLine
 10
206.5038526905658
 20
218.7519052791079
 30
0.0
 11
204.5038526905658
 21
218.7519052791079
 31
0.0
  0
LINE
  5
3BEC
330
1A
100
AcDbEntity
  8
SEIHIN
100
AcDbLine
 10
204.5038526905658
 20
218.7519052791079
 30
0.0
 11
204.5038526905658
 21
219.9519052791079
 31
0.0
  0
LINE
  5
3BED
330
1A
100
AcDbEntity
  8
SEIHIN
100
AcDbLine
 10
206.5038526905658
 20
218.7519052791079
 30
0.0
 11
206.5038526905658
 21
219.9519052791079
 31
0.0
  0
LINE
  5
3BEE
330
1A
100
AcDbEntity
  8
SEIHIN
100
AcDbLine
 10
199.4475558858306
 20
243.7519052791079
 30
0.0
 11
197.4475558858306
 21
243.7519052791079
 31
0.0
  0
LINE
  5
3BEF
330
1A
100
AcDbEntity
  8
SEIHIN
100
AcDbLine
 10
197.4475558858306
 20
243.7519052791079
 30
0.0
 11
197.4475558858306
 21
242.5519052791079
 31
0.0
  0
LINE
  5
3BF0
330
1A
100
AcDbEntity
  8
SEIHIN
100
AcDbLine
 10
199.4475558858306
 20
243.7519052791079
 30
0.0
 11
199.4475558858306
 21
242.5519052791079
 31
0.0
  0
LINE
  5
3BF1
330
1A
100
AcDbEntity
  8
SEIHIN
100
AcDbLine
 10
206.5038526905658
 20
243.7519052791079
 30
0.0
 11
206.5038526905658
 21
242.5519052791079
 31
0.0
  0
LINE
  5
3BF2
330
1A
100
AcDbEntity
  8
SEIHIN
100
AcDbLine
 10
204.5038526905658
 20
243.7519052791079
 30
0.0
 11
204.5038526905658
 21
242.5519052791079
 31
0.0
  0
LINE
  5
3BF3
330
1A
100
AcDbEntity
  8
SEIHIN
100
AcDbLine
 10
206.5038526905658
 20
243.7519052791079
 30
0.0
 11
204.5038526905658
 21
243.7519052791079
 31
0.0
  0
ARC
  5
3BF6
330
1A
100
AcDbEntity
  8
SEIHIN
100
AcDbCircle
 10
205.7038526905658
 20
219.9519052791079
 30
0.0
 40
0.8
100
AcDbArc
 50
0.0
 51
90.00000000000204
  0
ARC
  5
3BF7
330
1A
100
AcDbEntity
  8
SEIHIN
100
AcDbCircle
 10
203.7038526905658
 20
219.9519052791079
 30
0.0
 40
0.8
100
AcDbArc
 50
0.0
 51
90.00000000000204
  0
ARC
  5
3BF8
330
1A
100
AcDbEntity
  8
SEIHIN
100
AcDbCircle
 10
196.6475558858306
 20
219.9519052791079
 30
0.0
 40
0.8
100
AcDbArc
 50
0.0
 51
90.00000000000204
  0
ARC
  5
3BF9
330
1A
100
AcDbEntity
  8
SEIHIN
100
AcDbCircle
 10
198.6475558858306
 20
219.9519052791079
 30
0.0
 40
0.8
100
AcDbArc
 50
0.0
 51
90.00000000000204
  0
ARC
  5
3BFA
330
1A
100
AcDbEntity
  8
SEIHIN
100
AcDbCircle
 10
198.6475558858306
 20
242.5519052791079
 30
0.0
 40
0.8
100
AcDbArc
 50
269.9999999999979
 51
0.0
  0
ARC
  5
3BFB
330
1A
100
AcDbEntity
  8
SEIHIN
100
AcDbCircle
 10
196.6475558858306
 20
242.5519052791079
 30
0.0
 40
0.8
100
AcDbArc
 50
269.9999999999979
 51
0.0
  0
ARC
  5
3BFC
330
1A
100
AcDbEntity
  8
SEIHIN
100
AcDbCircle
 10
203.7038526905658
 20
242.5519052791079
 30
0.0
 40
0.8
100
AcDbArc
 50
269.9999999999979
 51
0.0
  0
ARC
  5
3BFD
330
1A
100
AcDbEntity
  8
SEIHIN
100
AcDbCircle
 10
205.7038526905658
 20
242.5519052791079
 30
0.0
 40
0.8
100
AcDbArc
 50
269.9999999999979
 51
0.0
  0
DIMENSION
  5
3C2E
330
1A
100
AcDbEntity
  8
SUNPOU
100
AcDbDimension
  2
*D8
 10
209.4813105063459
 20
179.7547159597925
 30
0.0
 11
144.9808012678738
 21
182.2547159597925
 31
0.0
 70
    32
  3
STANDARD
100
AcDbAlignedDimension
 13
80.4802920294017
 23
82.36690899623338
 33
0.0
 14
209.4813105063459
 24
103.3969123962334
 34
0.0
100
AcDbRotatedDimension
1001
ACAD
1000
DSTYLE
1002
{
1070
    41
1040
3.0
1070
    42
1040
3.0
1070
    43
1040
7.0
1070
    44
1040
1.5
1070
    73
1070
     0
1070
    74
1070
     0
1070
    77
1070
     3
1070
   140
1040
3.0
1070
   141
1040
3.0
1070
   147
1040
1.0
1070
   172
1070
     1
1070
   173
1070
     1
1070
   176
1070
   256
1070
   177
1070
   256
1070
   178
1070
   256
1070
   271
1070
     0
1070
   272
1070
     0
1070
   341
1005
B2
1070
     6
1000
OPEN
1070
     7
1000
OPEN
1002
}
  0
DIMENSION
  5
3C48
330
1A
100
AcDbEntity
  8
SUNPOU
100
AcDbDimension
  2
*D9
 10
231.7027912339252
 20
117.6093805606905
 30
0.0
 11
227.5247688450692
 21
134.7862292165767
 31
0.0
 70
    33
  3
STANDARD
100
AcDbAlignedDimension
 13
195.4764835294017
 23
140.8152036962334
 33
0.0
 14
208.4749250294017
 24
108.3184265962334
 34
0.0
1001
ACAD
1000
DSTYLE
1002
{
1070
    41
1040
3.0
1070
    42
1040
3.0
1070
    43
1040
7.0
1070
    44
1040
1.5
1070
    73
1070
     0
1070
    74
1070
     0
1070
    77
1070
     3
1070
   140
1040
3.0
1070
   141
1040
3.0
1070
   147
1040
1.0
1070
   172
1070
     1
1070
   173
1070
     1
1070
   176
1070
   256
1070
   177
1070
   256
1070
   178
1070
   256
1070
   271
1070
     0
1070
   272
1070
     0
1070
   341
1005
B2
1070
     6
1000
OPEN
1070
     7
1000
OPEN
1002
}
  0
DIMENSION
  5
3C55
330
1A
100
AcDbEntity
  8
SUNPOU
100
AcDbDimension
  2
*D10
 10
231.4176820665989
 20
200.2519052791079
 30
0.0
 11
228.9176820665988
 21
231.251905279108
 31
0.0
 70
    32
  3
STANDARD
100
AcDbAlignedDimension
 13
207.3607728828131
 23
262.2519052791079
 33
0.0
 14
207.3607728828131
 24
200.2519052791079
 34
0.0
 50
90.0
100
AcDbRotatedDimension
1001
ACAD
1000
DSTYLE
1002
{
1070
    41
1040
3.0
1070
    42
1040
3.0
1070
    43
1040
7.0
1070
    44
1040
1.5
1070
    73
1070
     0
1070
    74
1070
     0
1070
    77
1070
     3
1070
   140
1040
3.0
1070
   141
1040
3.0
1070
   147
1040
1.0
1070
   172
1070
     1
1070
   173
1070
     1
1070
   176
1070
   256
1070
   177
1070
   256
1070
   178
1070
   256
1070
   271
1070
     0
1070
   272
1070
     0
1070
   341
1005
B2
1070
     6
1000
OPEN
1070
     7
1000
OPEN
1002
}
  0
DIMENSION
  5
3C62
330
1A
100
AcDbEntity
  8
SUNPOU
100
AcDbDimension
  2
*D11
 10
209.4813105063459
 20
170.5859410694039
 30
0.0
 11
171.2308012678738
 21
173.0859410694039
 31
0.0
 70
    32
  3
STANDARD
100
AcDbAlignedDimension
 13
132.9802920294017
 23
83.66690899623341
 33
0.0
 14
209.4813105063459
 24
103.3969123962334
 34
0.0
100
AcDbRotatedDimension
1001
ACAD
1000
DSTYLE
1002
{
1070
    41
1040
3.0
1070
    42
1040
3.0
1070
    43
1040
7.0
1070
    44
1040
1.5
1070
    73
1070
     0
1070
    74
1070
     0
1070
    77
1070
     3
1070
   140
1040
3.0
1070
   141
1040
3.0
1070
   147
1040
1.0
1070
   172
1070
     1
1070
   173
1070
     1
1070
   176
1070
   256
1070
   177
1070
   256
1070
   178
1070
   256
1070
   271
1070
     0
1070
   272
1070
     0
1070
   341
1005
B2
1070
     6
1000
OPEN
1070
     7
1000
OPEN
1002
}
  0
LINE
  5
3F85
330
1A
100
AcDbEntity
  8
SEIHIN
100
AcDbLine
 10
172.7200206135968
 20
101.3054045733844
 30
0.0
 11
202.1145232294017
 21
103.2990781962334
 31
0.0
  0
LINE
  5
3F86
330
1A
100
AcDbEntity
  8
SEIHIN
100
AcDbLine
 10
172.7433382052187
 20
100.3056765062751
 30
0.0
 11
204.0336461854272
 21
102.3982828440311
 31
0.0
  0
LINE
  5
3F87
330
1A
100
AcDbEntity
  8
SEIHIN
100
AcDbLine
 10
174.3526005799336
 20
95.8861610233715
 30
0.0
 11
204.2691583302345
 21
97.90444998034544
 31
0.0
  0
DIMENSION
  5
3F88
330
1A
100
AcDbEntity
  8
SUNPOU
100
AcDbDimension
  2
*D12
 10
53.649479261064
 20
85.36690899623337
 30
0.0
 11
51.14947926106399
 21
113.0910420705853
 31
0.0
 70
    32
  3
STANDARD
100
AcDbAlignedDimension
 13
195.4764121496838
 23
140.8151751449372
 33
0.0
 14
80.4802920294017
 24
85.36690899623337
 34
0.0
 50
90.0
100
AcDbRotatedDimension
1001
ACAD
1000
DSTYLE
1002
{
1070
    41
1040
3.0
1070
    42
1040
3.0
1070
    43
1040
7.0
1070
    44
1040
1.5
1070
    73
1070
     0
1070
    74
1070
     0
1070
    77
1070
     3
1070
   140
1040
3.0
1070
   141
1040
3.0
1070
   147
1040
1.0
1070
   172
1070
     1
1070
   173
1070
     1
1070
   176
1070
   256
1070
   177
1070
   256
1070
   178
1070
   256
1070
   271
1070
     0
1070
   272
1070
     0
1070
   341
1005
B2
1070
     6
1000
OPEN
1070
     7
1000
OPEN
1002
}
  0
TEXT
  5
4169
330
1A
100
AcDbEntity
  8
MOJI
100
AcDbText
 10
119.9136010211517
 20
9.002460288415193
 30
0.0
 40
2.799999999999999
  1
亜鉛メッキ金具正面打（吊）ストロング高強度金具（釣針型）
 41
0.9
  7
ｽﾀｲﾙ1
100
AcDbText
  0
LINE
  5
416A
330
1A
100
AcDbEntity
  8
ZUWAKU
100
AcDbLine
 10
104.3233003257602
 20
7.599999759711518
 30
0.0
 11
223.7121816662219
 21
7.599999759711515
 31
0.0
  0
LINE
  5
416B
330
1A
100
AcDbEntity
  8
ZUWAKU
100
AcDbLine
 10
104.3233003257602
 20
7.799999759711516
 30
0.0
 11
223.7121816662219
 21
7.79999975971152
 31
0.0
  0
LINE
  5
416C
330
1A
100
AcDbEntity
  8
ZUWAKU
100
AcDbLine
 10
104.3233003257602
 20
7.699999759711516
 30
0.0
 11
223.7121816662219
 21
7.699999759711516
 31
0.0
  0
LINE
  5
416D
330
1A
100
AcDbEntity
  8
ZUWAKU
100
AcDbLine
 10
-0.000000319273795
 20
15.3999997597115
 30
0.0
 11
398.6999996807261
 21
15.3999997597115
 31
0.0
  0
LINE
  5
416E
330
1A
100
AcDbEntity
  8
ZUWAKU
100
AcDbLine
 10
-0.000000319273795
 20
15.2999997597115
 30
0.0
 11
398.6999996807261
 21
15.2999997597115
 31
0.0
  0
LINE
  5
416F
330
1A
100
AcDbEntity
  8
ZUWAKU
100
AcDbLine
 10
-0.000000319273795
 20
15.1999997597115
 30
0.0
 11
398.6999996807261
 21
15.1999997597115
 31
0.0
  0
LINE
  5
4170
330
1A
100
AcDbEntity
  8
ZUWAKU
100
AcDbLine
 10
-0.000000319273795
 20
15.0999997597115
 30
0.0
 11
398.6999996807261
 21
15.0999997597115
 31
0.0
  0
LINE
  5
4171
330
1A
100
AcDbEntity
  8
ZUWAKU
100
AcDbLine
 10
-0.000000319273795
 20
14.99999975971149
 30
0.0
 11
398.6999996807261
 21
14.99999975971149
 31
0.0
  0
LWPOLYLINE
  5
4172
330
1A
100
AcDbEntity
  8
ZUWAKU
100
AcDbPolyline
 90
        4
 70
     1
 43
0.0
 10
0.099999680726171
 20
275.6999997597115
 10
0.099999680726171
 20
0.0999997597115226
 10
398.6999996807261
 20
0.0999997597115341
 10
398.6999996807262
 20
275.6999997597115
  0
LWPOLYLINE
  5
4173
330
1A
100
AcDbEntity
  8
ZUWAKU
100
AcDbPolyline
 90
        4
 70
     1
 43
0.0
 10
0.2999996807261596
 20
275.4999997597115
 10
0.2999996807261596
 20
0.2999997597115111
 10
398.4999996807263
 20
0.2999997597115342
 10
398.4999996807262
 20
275.4999997597115
  0
LWPOLYLINE
  5
4174
330
1A
100
AcDbEntity
  8
ZUWAKU
100
AcDbPolyline
 90
        4
 70
     1
 43
0.0
 10
-0.000000319273795
 20
275.7999997597115
 10
-0.000000319273795
 20
-0.0000002402885002
 10
398.7999996807262
 20
-0.0000002402884665
 10
398.7999996807262
 20
275.7999997597115
  0
LWPOLYLINE
  5
4175
330
1A
100
AcDbEntity
  8
ZUWAKU
100
AcDbPolyline
 90
        4
 70
     1
 43
0.0
 10
0.1999996807261937
 20
275.5999997597115
 10
0.1999996807261937
 20
0.1999997597115453
 10
398.5999996807262
 20
0.1999997597115337
 10
398.5999996807262
 20
275.5999997597115
  0
LWPOLYLINE
  5
4176
330
1A
100
AcDbEntity
  8
ZUWAKU
100
AcDbPolyline
 90
        4
 70
     1
 43
0.0
 10
0.3999996807261823
 20
275.3999997597115
 10
0.3999996807261823
 20
0.3999997597115339
 10
398.3999996807261
 20
0.3999997597115339
 10
398.3999996807261
 20
275.3999997597115
  0
TEXT
  5
4177
330
1A
100
AcDbEntity
  8
MOJI
100
AcDbText
 10
46.47889447481077
 20
6.37058882484888
 30
0.0
 40
3.0
  1
新・丸トップＲＶ１０５
 41
0.9
  7
ｽﾀｲﾙ1
100
AcDbText
  0
HATCH
  5
4178
330
1A
100
AcDbEntity
  8
ZUWAKU
100
AcDbHatch
 10
0.0
 20
0.0
 30
0.0
210
0.0
220
0.0
230
1.0
  2
ANSI37
 70
     0
 71
     0
 91
        8
 92
        7
 72
     1
 73
     1
 93
       24
 10
7.251131011286133
 20
8.822424000203291
 42
-0.1989123673796348
 10
7.046105758116766
 20
9.317398747033816
 42
0.0
 10
7.046105758116766
 20
9.962499759711505
 42
-0.4142135623730912
 10
7.308605758116755
 20
10.2249997597115
 42
0.0
 10
8.796105758116709
 20
10.2249997597115
 42
0.4142135623731546
 10
9.058605758116755
 20
10.48749975971149
 42
0.0
 10
9.058605758116755
 20
11.3624997597115
 42
0.4142135623731586
 10
8.796105758116709
 20
11.6249997597115
 42
0.0
 10
7.046105758116766
 20
11.6249997597115
 42
0.4142135623730928
 10
5.646105758116789
 20
10.22499975971151
 42
0.0
 10
5.646105758116789
 20
9.31739874703388
 42
0.1989123673796619
 10
6.261181517625004
 20
7.832474506542077
 42
0.0
 10
7.716080504947342
 20
6.377575519219748
 42
-0.1989123673796613
 10
7.921105758116766
 20
5.882600772389155
 42
0.0
 10
7.921105758116766
 20
5.237499759711496
 42
-0.4142135623730911
 10
7.658605758116777
 20
4.974999759711501
 42
0.0
 10
6.171105758116823
 20
4.974999759711501
 42
0.4142135623731526
 10
5.908605758116777
 20
4.712499759711507
 42
0.0
 10
5.908605758116777
 20
3.837499759711496
 42
0.4142135623731526
 10
6.171105758116823
 20
3.574999759711502
 42
0.0
 10
7.921105758116766
 20
3.574999759711502
 42
0.4142135623731044
 10
9.3211057581168
 20
4.97499975971149
 42
0.0
 10
9.3211057581168
 20
5.882600772389126
 42
0.1989123673796604
 10
8.706029998608528
 20
7.367525012880896
 42
0.0
 97
        0
 92
        7
 72
     1
 73
     1
 93
       16
 10
11.77110575811678
 20
9.524999759711505
 42
-0.4142135623730935
 10
12.47110575811677
 20
10.2249997597115
 42
0.0
 10
13.43360575811675
 20
10.2249997597115
 42
0.4142135623731546
 10
13.6961057581168
 20
10.48749975971149
 42
0.0
 10
13.6961057581168
 20
11.3624997597115
 42
0.4142135623730951
 10
13.43360575811681
 20
11.6249997597115
 42
0.0
 10
12.47110575811672
 20
11.62499975971148
 42
0.4142135623730892
 10
10.37110575811675
 20
9.524999759711469
 42
0.0
 10
10.37110575811675
 20
5.674999759711514
 42
0.4142135623730969
 10
12.47110575811677
 20
3.574999759711502
 42
0.0
 10
13.43360575811675
 20
3.574999759711502
 42
0.4142135623731526
 10
13.6961057581168
 20
3.837499759711496
 42
0.0
 10
13.6961057581168
 20
4.712499759711507
 42
0.4142135623730891
 10
13.43360575811681
 20
4.974999759711501
 42
0.0
 10
12.47110575811677
 20
4.974999759711501
 42
-0.4142135623730928
 10
11.77110575811678
 20
5.674999759711495
 42
0.0
 97
        0
 92
        7
 72
     1
 73
     1
 93
        2
 10
12.12110575811675
 20
7.599999759711501
 42
1.0
 10
13.87110575811675
 20
7.599999759711501
 42
1.0
 97
        0
 92
        7
 72
     1
 73
     1
 93
       26
 10
18.65742899920576
 20
9.602523356493215
 42
0.0
 10
19.18824881577467
 20
11.28345277562801
 42
0.5069206636600134
 10
18.93793336617699
 20
11.6249997597115
 42
0.0
 10
18.08848867637237
 20
11.6249997597115
 42
0.3272098845218764
 10
17.8381732267747
 20
11.44154674379498
 42
0.0
 10
16.90403828945881
 20
8.483452775628041
 42
-0.3272098845219541
 10
16.65372283986107
 20
8.2999997597115
 42
0.0
 10
16.58360575811684
 20
8.2999997597115
 42
-0.4142135623731526
 10
16.3211057581168
 20
8.562499759711494
 42
0.0
 10
16.3211057581168
 20
11.3624997597115
 42
0.4142135623730951
 10
16.05860575811681
 20
11.6249997597115
 42
0.0
 10
15.18360575811675
 20
11.6249997597115
 42
0.4142135623730871
 10
14.92110575811676
 20
11.36249975971151
 42
0.0
 10
14.92110575811676
 20
3.837499759711496
 42
0.4142135623730891
 10
15.18360575811675
 20
3.574999759711502
 42
0.0
 10
16.05860575811675
 20
3.574999759711502
 42
0.4142135623731526
 10
16.3211057581168
 20
3.837499759711496
 42
0.0
 10
16.3211057581168
 20
6.637499759711507
 42
-0.4142135623731526
 10
16.58360575811684
 20
6.899999759711501
 42
0.0
 10
16.65372283986113
 20
6.899999759711501
 42
-0.3272098845218915
 10
16.90403828945881
 20
6.716546743794964
 42
0.0
 10
17.8381732267747
 20
3.758452775628038
 42
0.3272098845218902
 10
18.08848867637237
 20
3.574999759711502
 42
0.0
 10
18.93793336617699
 20
3.574999759711502
 42
0.5069206636600335
 10
19.18824881577467
 20
3.916546743795006
 42
0.0
 10
18.02505312653784
 20
7.59999975971157
 42
0.0
 97
        0
 92
        7
 72
     1
 73
     1
 93
        8
 10
21.74610575811675
 20
11.3624997597115
 42
0.4142135623731546
 10
21.48360575811671
 20
11.6249997597115
 42
0.0
 10
20.60860575811682
 20
11.6249997597115
 42
0.4142135623731507
 10
20.34610575811677
 20
11.36249975971151
 42
0.0
 10
20.34610575811677
 20
3.837499759711496
 42
0.4142135623731526
 10
20.60860575811682
 20
3.574999759711502
 42
0.0
 10
21.48360575811671
 20
3.574999759711502
 42
0.4142135623731526
 10
21.74610575811675
 20
3.837499759711496
 42
0.0
 97
        0
 92
        7
 72
     1
 73
     1
 93
       24
 10
24.1961057581168
 20
9.962499759711505
 42
-0.4142135623731546
 10
24.45860575811684
 20
10.2249997597115
 42
0.0
 10
25.9461057581168
 20
10.2249997597115
 42
0.4142135623730911
 10
26.20860575811679
 20
10.48749975971149
 42
0.0
 10
26.20860575811679
 20
11.3624997597115
 42
0.4142135623730952
 10
25.9461057581168
 20
11.6249997597115
 42
0.0
 10
24.1961057581168
 20
11.6249997597115
 42
0.4142135623731048
 10
22.79610575811676
 20
10.22499975971151
 42
0.0
 10
22.79610575811676
 20
9.31739874703388
 42
0.1989123673796613
 10
23.41118151762504
 20
7.832474506542105
 42
0.0
 10
24.86608050494737
 20
6.377575519219771
 42
-0.1989123673796402
 10
25.0711057581168
 20
5.882600772389235
 42
0.0
 10
25.0711057581168
 20
5.237499759711496
 42
-0.4142135623730911
 10
24.80860575811681
 20
4.974999759711501
 42
0.0
 10
23.3211057581168
 20
4.974999759711501
 42
0.4142135623731526
 10
23.05860575811675
 20
4.712499759711507
 42
0.0
 10
23.05860575811675
 20
3.837499759711496
 42
0.4142135623730891
 10
23.32110575811674
 20
3.574999759711502
 42
0.0
 10
25.0711057581168
 20
3.574999759711502
 42
0.4142135623730925
 10
26.47110575811677
 20
4.97499975971149
 42
0.0
 10
26.47110575811677
 20
5.882600772389126
 42
0.1989123673796675
 10
25.8560299986085
 20
7.367525012880953
 42
0.0
 10
24.40113101128622
 20
8.822424000203211
 42
-0.1989123673796652
 10
24.1961057581168
 20
9.317398747033795
 42
0.0
 97
        0
 92
        7
 72
     1
 73
     1
 93
       16
 10
28.92110575811676
 20
11.36249975971149
 42
0.414213562373103
 10
28.65860575811677
 20
11.6249997597115
 42
0.0
 10
27.78360575811678
 20
11.6249997597115
 42
0.4142135623730871
 10
27.52110575811679
 20
11.36249975971151
 42
0.0
 10
27.52110575811679
 20
4.97499975971149
 42
0.4142135623730926
 10
28.92110575811676
 20
3.574999759711502
 42
0.0
 10
30.67110575811677
 20
3.574999759711502
 42
0.4142135623731044
 10
32.0711057581168
 20
4.97499975971149
 42
0.0
 10
32.0711057581168
 20
11.3624997597115
 42
0.4142135623730951
 10
31.80860575811681
 20
11.6249997597115
 42
0.0
 10
30.93360575811675
 20
11.6249997597115
 42
0.4142135623730871
 10
30.67110575811677
 20
11.36249975971151
 42
0.0
 10
30.67110575811677
 20
5.499999759711489
 42
-0.414213562373088
 10
30.14610575811679
 20
4.974999759711501
 42
0.0
 10
29.4461057581168
 20
4.974999759711501
 42
-0.4142135623731197
 10
28.92110575811676
 20
5.499999759711489
 42
0.0
 97
        0
 92
        7
 72
     1
 73
     1
 93
        8
 10
34.52110575811679
 20
11.36249975971151
 42
0.4142135623730871
 10
34.2586057581168
 20
11.6249997597115
 42
0.0
 10
33.3836057581168
 20
11.6249997597115
 42
0.4142135623731507
 10
33.12110575811675
 20
11.36249975971151
 42
0.0
 10
33.12110575811675
 20
3.837499759711496
 42
0.4142135623730891
 10
33.38360575811674
 20
3.574999759711502
 42
0.0
 10
34.2586057581168
 20
3.574999759711502
 42
0.4142135623730891
 10
34.52110575811679
 20
3.837499759711496
 42
0.0
 97
        0
 75
     0
 76
     1
 52
0.0
 41
0.1
 77
     0
 78
     2
 53
45.0
 43
-450.4711524866133
 44
-6.600000240288466
 45
-0.2245064030267288
 46
0.2245064030267288
 79
     0
 53
135.0
 43
-450.4711524866133
 44
-6.600000240288466
 45
-0.2245064030267288
 46
-0.2245064030267288
 79
     0
 47
0.057451373970553
 98
        8
 10
8.039927162237859
 20
7.583586582654277
 10
11.20225718394578
 20
9.422030850937005
 10
12.58218362355603
 20
7.755940582746859
 10
15.45702967154477
 20
8.100648582932251
 10
20.91923569020457
 20
8.330454716703059
 10
23.44910012829097
 20
9.709287917915105
 10
28.27884266692638
 20
9.364578717259007
 10
33.91353949053757
 20
9.594384851029815
  0
LINE
  5
4179
330
1A
100
AcDbEntity
  8
ZUWAKU
100
AcDbLine
 10
12.47110575811677
 20
11.62499975971148
 30
0.0
 11
13.43360575811675
 21
11.6249997597115
 31
0.0
  0
LINE
  5
417A
330
1A
100
AcDbEntity
  8
ZUWAKU
100
AcDbLine
 10
13.43360575811675
 20
10.2249997597115
 30
0.0
 11
12.47110575811677
 21
10.2249997597115
 31
0.0
  0
LINE
  5
417B
330
1A
100
AcDbEntity
  8
ZUWAKU
100
AcDbLine
 10
12.47110575811677
 20
4.974999759711501
 30
0.0
 11
13.43360575811675
 21
4.974999759711501
 31
0.0
  0
LINE
  5
417C
330
1A
100
AcDbEntity
  8
ZUWAKU
100
AcDbLine
 10
13.43360575811675
 20
3.574999759711502
 30
0.0
 11
12.47110575811677
 21
3.574999759711502
 31
0.0
  0
CIRCLE
  5
417D
330
1A
100
AcDbEntity
  8
ZUWAKU
100
AcDbCircle
 10
12.99610575811675
 20
7.599999759711501
 30
0.0
 40
0.875
  0
ARC
  5
417E
330
1A
100
AcDbEntity
  8
ZUWAKU
100
AcDbCircle
 10
7.746105758116755
 20
9.317398747033852
 30
0.0
 40
0.7
100
AcDbArc
 50
180.0000000000016
 51
224.9999999999988
  0
LINE
  5
417F
330
1A
100
AcDbEntity
  8
ZUWAKU
100
AcDbLine
 10
11.77110575811678
 20
9.524999759711501
 30
0.0
 11
11.77110575811678
 21
5.674999759711504
 31
0.0
  0
LINE
  5
4180
330
1A
100
AcDbEntity
  8
ZUWAKU
100
AcDbLine
 10
10.37110575811675
 20
5.674999759711504
 30
0.0
 11
10.37110575811675
 21
9.52499975971148
 31
0.0
  0
ARC
  5
4181
330
1A
100
AcDbEntity
  8
ZUWAKU
100
AcDbCircle
 10
7.746105758116755
 20
9.317398747033852
 30
0.0
 40
2.099999999999999
100
AcDbArc
 50
180.0
 51
225.0
  0
ARC
  5
4182
330
1A
100
AcDbEntity
  8
ZUWAKU
100
AcDbCircle
 10
7.921105758116766
 20
4.974999759711501
 30
0.0
 40
1.399999999999999
100
AcDbArc
 50
270.0
 51
0.0
  0
ARC
  5
4183
330
1A
100
AcDbEntity
  8
ZUWAKU
100
AcDbCircle
 10
12.47110575811677
 20
5.674999759711504
 30
0.0
 40
2.099999999999999
100
AcDbArc
 50
180.0
 51
270.0
  0
ARC
  5
4184
330
1A
100
AcDbEntity
  8
ZUWAKU
100
AcDbCircle
 10
7.221105758116777
 20
5.882600772389153
 30
0.0
 40
2.099999999999999
100
AcDbArc
 50
0.0
 51
45.0
  0
LINE
  5
4185
330
1A
100
AcDbEntity
  8
ZUWAKU
100
AcDbLine
 10
8.706029998608528
 20
7.367525012880914
 30
0.0
 11
7.25113101128619
 21
8.822424000203252
 31
0.0
  0
LINE
  5
4186
330
1A
100
AcDbEntity
  8
ZUWAKU
100
AcDbLine
 10
7.921105758116766
 20
5.237499759711504
 30
0.0
 11
7.921105758116766
 21
5.882600772389174
 31
0.0
  0
ARC
  5
4187
330
1A
100
AcDbEntity
  8
ZUWAKU
100
AcDbCircle
 10
7.658605758116777
 20
5.237499759711504
 30
0.0
 40
0.2625
100
AcDbArc
 50
270.0
 51
0.0
  0
ARC
  5
4188
330
1A
100
AcDbEntity
  8
ZUWAKU
100
AcDbCircle
 10
7.221105758116777
 20
5.882600772389174
 30
0.0
 40
0.7
100
AcDbArc
 50
0.0
 51
45.0
  0
LINE
  5
4189
330
1A
100
AcDbEntity
  8
ZUWAKU
100
AcDbLine
 10
5.908605758116777
 20
3.837499759711501
 30
0.0
 11
5.908605758116777
 21
4.712499759711501
 31
0.0
  0
ARC
  5
418A
330
1A
100
AcDbEntity
  8
ZUWAKU
100
AcDbCircle
 10
6.171105758116766
 20
3.837499759711501
 30
0.0
 40
0.2625
100
AcDbArc
 50
180.0
 51
270.0
  0
ARC
  5
418B
330
1A
100
AcDbEntity
  8
ZUWAKU
100
AcDbCircle
 10
6.171105758116766
 20
4.712499759711501
 30
0.0
 40
0.2625
100
AcDbArc
 50
90.0
 51
180.0
  0
LINE
  5
418C
330
1A
100
AcDbEntity
  8
ZUWAKU
100
AcDbLine
 10
6.171105758116766
 20
3.574999759711502
 30
0.0
 11
7.921105758116766
 21
3.574999759711502
 31
0.0
  0
LINE
  5
418D
330
1A
100
AcDbEntity
  8
ZUWAKU
100
AcDbLine
 10
6.171105758116766
 20
4.974999759711501
 30
0.0
 11
7.658605758116777
 21
4.974999759711501
 31
0.0
  0
LINE
  5
418E
330
1A
100
AcDbEntity
  8
ZUWAKU
100
AcDbLine
 10
6.261181517625004
 20
7.832474506542091
 30
0.0
 11
7.716080504947342
 21
6.37757551921976
 31
0.0
  0
LINE
  5
418F
330
1A
100
AcDbEntity
  8
ZUWAKU
100
AcDbLine
 10
9.3211057581168
 20
4.974999759711501
 30
0.0
 11
9.3211057581168
 21
5.882600772389174
 31
0.0
  0
ARC
  5
4190
330
1A
100
AcDbEntity
  8
ZUWAKU
100
AcDbCircle
 10
12.47110575811677
 20
5.674999759711504
 30
0.0
 40
0.7
100
AcDbArc
 50
180.0
 51
270.0
  0
ARC
  5
4191
330
1A
100
AcDbEntity
  8
ZUWAKU
100
AcDbCircle
 10
8.796105758116766
 20
11.3624997597115
 30
0.0
 40
0.2625
100
AcDbArc
 50
0.0
 51
90.0
  0
ARC
  5
4192
330
1A
100
AcDbEntity
  8
ZUWAKU
100
AcDbCircle
 10
8.796105758116766
 20
10.4874997597115
 30
0.0
 40
0.2625
100
AcDbArc
 50
270.0
 51
0.0
  0
LINE
  5
4193
330
1A
100
AcDbEntity
  8
ZUWAKU
100
AcDbLine
 10
7.046105758116766
 20
11.6249997597115
 30
0.0
 11
8.796105758116766
 21
11.6249997597115
 31
0.0
  0
ARC
  5
4194
330
1A
100
AcDbEntity
  8
ZUWAKU
100
AcDbCircle
 10
7.308605758116755
 20
9.962499759711501
 30
0.0
 40
0.2625
100
AcDbArc
 50
90.0
 51
180.0
  0
LINE
  5
4195
330
1A
100
AcDbEntity
  8
ZUWAKU
100
AcDbLine
 10
7.046105758116766
 20
9.962499759711501
 30
0.0
 11
7.046105758116766
 21
9.317398747033831
 31
0.0
  0
LINE
  5
4196
330
1A
100
AcDbEntity
  8
ZUWAKU
100
AcDbLine
 10
8.796105758116766
 20
10.2249997597115
 30
0.0
 11
7.308605758116755
 21
10.2249997597115
 31
0.0
  0
LINE
  5
4197
330
1A
100
AcDbEntity
  8
ZUWAKU
100
AcDbLine
 10
5.646105758116789
 20
10.2249997597115
 30
0.0
 11
5.646105758116789
 21
9.317398747033831
 31
0.0
  0
ARC
  5
4198
330
1A
100
AcDbEntity
  8
ZUWAKU
100
AcDbCircle
 10
7.046105758116766
 20
10.2249997597115
 30
0.0
 40
1.399999999999999
100
AcDbArc
 50
90.0
 51
180.0
  0
LINE
  5
4199
330
1A
100
AcDbEntity
  8
ZUWAKU
100
AcDbLine
 10
9.058605758116755
 20
11.3624997597115
 30
0.0
 11
9.058605758116755
 21
10.4874997597115
 31
0.0
  0
ARC
  5
419A
330
1A
100
AcDbEntity
  8
ZUWAKU
100
AcDbCircle
 10
12.47110575811677
 20
9.524999759711501
 30
0.0
 40
0.7
100
AcDbArc
 50
90.0
 51
180.0
  0
ARC
  5
419B
330
1A
100
AcDbEntity
  8
ZUWAKU
100
AcDbCircle
 10
12.47110575811677
 20
9.52499975971148
 30
0.0
 40
2.099999999999999
100
AcDbArc
 50
90.0
 51
180.0
  0
LINE
  5
419C
330
1A
100
AcDbEntity
  8
ZUWAKU
100
AcDbLine
 10
39.66331445472031
 20
14.99999975971149
 30
0.0
 11
39.66331445472042
 21
0.3999997597115339
 31
0.0
  0
LINE
  5
419D
330
1A
100
AcDbEntity
  8
ZUWAKU
100
AcDbLine
 10
39.76331445472033
 20
14.99999975971149
 30
0.0
 11
39.76331445472044
 21
0.3999997597115339
 31
0.0
  0
LINE
  5
419E
330
1A
100
AcDbEntity
  8
ZUWAKU
100
AcDbLine
 10
39.5633144547204
 20
14.99999975971149
 30
0.0
 11
39.5633144547204
 21
0.3999997597115339
 31
0.0
  0
LINE
  5
419F
330
1A
100
AcDbEntity
  8
ZUWAKU
100
AcDbLine
 10
32.0711057581168
 20
4.974999759711501
 30
0.0
 11
32.0711057581168
 21
11.3624997597115
 31
0.0
  0
LINE
  5
41A0
330
1A
100
AcDbEntity
  8
ZUWAKU
100
AcDbLine
 10
30.67110575811677
 20
11.3624997597115
 30
0.0
 11
30.67110575811677
 21
5.499999759711499
 31
0.0
  0
LINE
  5
41A1
330
1A
100
AcDbEntity
  8
ZUWAKU
100
AcDbLine
 10
34.52110575811679
 20
3.837499759711501
 30
0.0
 11
34.52110575811679
 21
11.3624997597115
 31
0.0
  0
LINE
  5
41A2
330
1A
100
AcDbEntity
  8
ZUWAKU
100
AcDbLine
 10
33.12110575811675
 20
11.3624997597115
 30
0.0
 11
33.12110575811675
 21
3.837499759711501
 31
0.0
  0
ARC
  5
41A3
330
1A
100
AcDbEntity
  8
ZUWAKU
100
AcDbCircle
 10
24.89610575811679
 20
9.317398747033852
 30
0.0
 40
0.7
100
AcDbArc
 50
180.0000000000016
 51
224.9999999999988
  0
ARC
  5
41A4
330
1A
100
AcDbEntity
  8
ZUWAKU
100
AcDbCircle
 10
24.89610575811679
 20
9.317398747033852
 30
0.0
 40
2.099999999999999
100
AcDbArc
 50
180.0
 51
225.0
  0
LINE
  5
41A5
330
1A
100
AcDbEntity
  8
ZUWAKU
100
AcDbLine
 10
18.65742899920576
 20
9.602523356493215
 30
0.0
 11
18.02505312653784
 21
7.599999759711511
 31
0.0
  0
LINE
  5
41A6
330
1A
100
AcDbEntity
  8
ZUWAKU
100
AcDbLine
 10
20.34610575811677
 20
11.3624997597115
 30
0.0
 11
20.34610575811677
 21
3.837499759711501
 31
0.0
  0
LINE
  5
41A7
330
1A
100
AcDbEntity
  8
ZUWAKU
100
AcDbLine
 10
21.74610575811675
 20
3.837499759711501
 30
0.0
 11
21.74610575811675
 21
11.3624997597115
 31
0.0
  0
LINE
  5
41A8
330
1A
100
AcDbEntity
  8
ZUWAKU
100
AcDbLine
 10
27.52110575811679
 20
11.3624997597115
 30
0.0
 11
27.52110575811679
 21
4.974999759711501
 31
0.0
  0
LINE
  5
41A9
330
1A
100
AcDbEntity
  8
ZUWAKU
100
AcDbLine
 10
28.92110575811676
 20
5.499999759711499
 30
0.0
 11
28.92110575811676
 21
11.3624997597115
 31
0.0
  0
LINE
  5
41AA
330
1A
100
AcDbEntity
  8
ZUWAKU
100
AcDbLine
 10
16.3211057581168
 20
8.562499759711503
 30
0.0
 11
16.3211057581168
 21
11.3624997597115
 31
0.0
  0
LINE
  5
41AB
330
1A
100
AcDbEntity
  8
ZUWAKU
100
AcDbLine
 10
14.92110575811676
 20
11.3624997597115
 30
0.0
 11
14.92110575811676
 21
3.837499759711501
 31
0.0
  0
LINE
  5
41AC
330
1A
100
AcDbEntity
  8
ZUWAKU
100
AcDbLine
 10
17.8381732267747
 20
11.44154674379498
 30
0.0
 11
16.90403828945881
 21
8.483452775628016
 31
0.0
  0
LINE
  5
41AD
330
1A
100
AcDbEntity
  8
ZUWAKU
100
AcDbLine
 10
30.14610575811679
 20
4.974999759711501
 30
0.0
 11
29.4461057581168
 21
4.974999759711501
 31
0.0
  0
LINE
  5
41AE
330
1A
100
AcDbEntity
  8
ZUWAKU
100
AcDbLine
 10
28.92110575811676
 20
3.574999759711502
 30
0.0
 11
30.67110575811677
 21
3.574999759711502
 31
0.0
  0
LINE
  5
41AF
330
1A
100
AcDbEntity
  8
ZUWAKU
100
AcDbLine
 10
20.60860575811676
 20
3.574999759711502
 30
0.0
 11
21.48360575811676
 21
3.574999759711502
 31
0.0
  0
LINE
  5
41B0
330
1A
100
AcDbEntity
  8
ZUWAKU
100
AcDbLine
 10
17.8381732267747
 20
3.758452775628015
 30
0.0
 11
16.90403828945881
 21
6.716546743794985
 31
0.0
  0
ARC
  5
41B1
330
1A
100
AcDbEntity
  8
ZUWAKU
100
AcDbCircle
 10
16.65372283986113
 20
8.562499759711503
 30
0.0
 40
0.2625
100
AcDbArc
 50
270.0
 51
342.4744316262769
  0
LINE
  5
41B2
330
1A
100
AcDbEntity
  8
ZUWAKU
100
AcDbLine
 10
16.65372283986113
 20
8.2999997597115
 30
0.0
 11
16.58360575811679
 21
8.2999997597115
 31
0.0
  0
LINE
  5
41B3
330
1A
100
AcDbEntity
  8
ZUWAKU
100
AcDbLine
 10
16.58360575811679
 20
6.899999759711501
 30
0.0
 11
16.65372283986113
 21
6.899999759711501
 31
0.0
  0
ARC
  5
41B4
330
1A
100
AcDbEntity
  8
ZUWAKU
100
AcDbCircle
 10
16.58360575811679
 20
8.562499759711503
 30
0.0
 40
0.2625
100
AcDbArc
 50
180.0
 51
270.0
  0
LINE
  5
41B5
330
1A
100
AcDbEntity
  8
ZUWAKU
100
AcDbLine
 10
15.18360575811675
 20
3.574999759711502
 30
0.0
 11
16.05860575811675
 21
3.574999759711502
 31
0.0
  0
ARC
  5
41B6
330
1A
100
AcDbEntity
  8
ZUWAKU
100
AcDbCircle
 10
16.05860575811675
 20
3.837499759711501
 30
0.0
 40
0.2625
100
AcDbArc
 50
270.0
 51
0.0
  0
LINE
  5
41B7
330
1A
100
AcDbEntity
  8
ZUWAKU
100
AcDbLine
 10
16.3211057581168
 20
3.837499759711501
 30
0.0
 11
16.3211057581168
 21
6.637499759711502
 31
0.0
  0
LINE
  5
41B8
330
1A
100
AcDbEntity
  8
ZUWAKU
100
AcDbLine
 10
13.6961057581168
 20
4.712499759711501
 30
0.0
 11
13.6961057581168
 21
3.837499759711501
 31
0.0
  0
ARC
  5
41B9
330
1A
100
AcDbEntity
  8
ZUWAKU
100
AcDbCircle
 10
13.43360575811675
 20
3.837499759711501
 30
0.0
 40
0.2625
100
AcDbArc
 50
270.0
 51
0.0
  0
ARC
  5
41BA
330
1A
100
AcDbEntity
  8
ZUWAKU
100
AcDbCircle
 10
13.43360575811675
 20
4.712499759711501
 30
0.0
 40
0.2625
100
AcDbArc
 50
0.0
 51
90.0
  0
ARC
  5
41BB
330
1A
100
AcDbEntity
  8
ZUWAKU
100
AcDbCircle
 10
15.18360575811675
 20
3.837499759711501
 30
0.0
 40
0.2625
100
AcDbArc
 50
180.0
 51
270.0
  0
ARC
  5
41BC
330
1A
100
AcDbEntity
  8
ZUWAKU
100
AcDbCircle
 10
16.65372283986113
 20
6.637499759711502
 30
0.0
 40
0.2625
100
AcDbArc
 50
17.52556837372303
 51
90.0
  0
ARC
  5
41BD
330
1A
100
AcDbEntity
  8
ZUWAKU
100
AcDbCircle
 10
16.58360575811679
 20
6.637499759711502
 30
0.0
 40
0.2625
100
AcDbArc
 50
90.0
 51
180.0
  0
ARC
  5
41BE
330
1A
100
AcDbEntity
  8
ZUWAKU
100
AcDbCircle
 10
20.60860575811676
 20
3.837499759711501
 30
0.0
 40
0.2625
100
AcDbArc
 50
180.0
 51
270.0
  0
LINE
  5
41BF
330
1A
100
AcDbEntity
  8
ZUWAKU
100
AcDbLine
 10
18.08848867637243
 20
3.574999759711502
 30
0.0
 11
18.93793336617693
 21
3.574999759711502
 31
0.0
  0
ARC
  5
41C0
330
1A
100
AcDbEntity
  8
ZUWAKU
100
AcDbCircle
 10
18.93793336617693
 20
3.837499759711501
 30
0.0
 40
0.2625
100
AcDbArc
 50
270.0
 51
17.52556837372303
  0
LINE
  5
41C1
330
1A
100
AcDbEntity
  8
ZUWAKU
100
AcDbLine
 10
19.18824881577467
 20
3.916546743794988
 30
0.0
 11
18.02505312653784
 21
7.599999759711511
 31
0.0
  0
ARC
  5
41C2
330
1A
100
AcDbEntity
  8
ZUWAKU
100
AcDbCircle
 10
18.08848867637243
 20
3.837499759711501
 30
0.0
 40
0.2625
100
AcDbArc
 50
197.525568373723
 51
270.0
  0
ARC
  5
41C3
330
1A
100
AcDbEntity
  8
ZUWAKU
100
AcDbCircle
 10
28.92110575811676
 20
4.974999759711501
 30
0.0
 40
1.399999999999999
100
AcDbArc
 50
180.0
 51
270.0
  0
ARC
  5
41C4
330
1A
100
AcDbEntity
  8
ZUWAKU
100
AcDbCircle
 10
25.0711057581168
 20
4.974999759711501
 30
0.0
 40
1.399999999999999
100
AcDbArc
 50
270.0
 51
0.0
  0
LINE
  5
41C5
330
1A
100
AcDbEntity
  8
ZUWAKU
100
AcDbLine
 10
25.85602999860856
 20
7.367525012880914
 30
0.0
 11
24.40113101128616
 21
8.822424000203252
 31
0.0
  0
LINE
  5
41C6
330
1A
100
AcDbEntity
  8
ZUWAKU
100
AcDbLine
 10
25.0711057581168
 20
5.237499759711504
 30
0.0
 11
25.0711057581168
 21
5.882600772389174
 31
0.0
  0
ARC
  5
41C7
330
1A
100
AcDbEntity
  8
ZUWAKU
100
AcDbCircle
 10
24.37110575811675
 20
5.882600772389174
 30
0.0
 40
0.7
100
AcDbArc
 50
0.0
 51
45.0
  0
ARC
  5
41C8
330
1A
100
AcDbEntity
  8
ZUWAKU
100
AcDbCircle
 10
24.80860575811675
 20
5.237499759711504
 30
0.0
 40
0.2625
100
AcDbArc
 50
270.0
 51
0.0
  0
LINE
  5
41C9
330
1A
100
AcDbEntity
  8
ZUWAKU
100
AcDbLine
 10
23.05860575811675
 20
3.837499759711501
 30
0.0
 11
23.05860575811675
 21
4.712499759711501
 31
0.0
  0
ARC
  5
41CA
330
1A
100
AcDbEntity
  8
ZUWAKU
100
AcDbCircle
 10
23.3211057581168
 20
3.837499759711501
 30
0.0
 40
0.2625
100
AcDbArc
 50
180.0
 51
270.0
  0
ARC
  5
41CB
330
1A
100
AcDbEntity
  8
ZUWAKU
100
AcDbCircle
 10
21.48360575811676
 20
3.837499759711501
 30
0.0
 40
0.2625
100
AcDbArc
 50
270.0
 51
0.0
  0
ARC
  5
41CC
330
1A
100
AcDbEntity
  8
ZUWAKU
100
AcDbCircle
 10
23.3211057581168
 20
4.712499759711501
 30
0.0
 40
0.2625
100
AcDbArc
 50
90.0
 51
180.0
  0
LINE
  5
41CD
330
1A
100
AcDbEntity
  8
ZUWAKU
100
AcDbLine
 10
23.3211057581168
 20
4.974999759711501
 30
0.0
 11
24.80860575811675
 21
4.974999759711501
 31
0.0
  0
LINE
  5
41CE
330
1A
100
AcDbEntity
  8
ZUWAKU
100
AcDbLine
 10
23.3211057581168
 20
3.574999759711502
 30
0.0
 11
25.0711057581168
 21
3.574999759711502
 31
0.0
  0
LINE
  5
41CF
330
1A
100
AcDbEntity
  8
ZUWAKU
100
AcDbLine
 10
23.41118151762504
 20
7.832474506542091
 30
0.0
 11
24.86608050494737
 21
6.37757551921976
 31
0.0
  0
LINE
  5
41D0
330
1A
100
AcDbEntity
  8
ZUWAKU
100
AcDbLine
 10
26.47110575811677
 20
4.974999759711501
 30
0.0
 11
26.47110575811677
 21
5.882600772389174
 31
0.0
  0
ARC
  5
41D1
330
1A
100
AcDbEntity
  8
ZUWAKU
100
AcDbCircle
 10
24.37110575811675
 20
5.882600772389153
 30
0.0
 40
2.099999999999999
100
AcDbArc
 50
0.0
 51
45.0
  0
ARC
  5
41D2
330
1A
100
AcDbEntity
  8
ZUWAKU
100
AcDbCircle
 10
29.4461057581168
 20
5.499999759711499
 30
0.0
 40
0.525
100
AcDbArc
 50
180.0
 51
270.0
  0
ARC
  5
41D3
330
1A
100
AcDbEntity
  8
ZUWAKU
100
AcDbCircle
 10
30.67110575811677
 20
4.974999759711501
 30
0.0
 40
1.399999999999999
100
AcDbArc
 50
270.0
 51
0.0
  0
LINE
  5
41D4
330
1A
100
AcDbEntity
  8
ZUWAKU
100
AcDbLine
 10
33.3836057581168
 20
3.574999759711502
 30
0.0
 11
34.2586057581168
 21
3.574999759711502
 31
0.0
  0
ARC
  5
41D5
330
1A
100
AcDbEntity
  8
ZUWAKU
100
AcDbCircle
 10
33.3836057581168
 20
3.837499759711501
 30
0.0
 40
0.2625
100
AcDbArc
 50
180.0
 51
270.0
  0
ARC
  5
41D6
330
1A
100
AcDbEntity
  8
ZUWAKU
100
AcDbCircle
 10
30.14610575811679
 20
5.499999759711499
 30
0.0
 40
0.525
100
AcDbArc
 50
270.0
 51
0.0
  0
ARC
  5
41D7
330
1A
100
AcDbEntity
  8
ZUWAKU
100
AcDbCircle
 10
34.2586057581168
 20
3.837499759711501
 30
0.0
 40
0.2625
100
AcDbArc
 50
270.0
 51
0.0
  0
LINE
  5
41D8
330
1A
100
AcDbEntity
  8
ZUWAKU
100
AcDbLine
 10
21.48360575811676
 20
11.6249997597115
 30
0.0
 11
20.60860575811676
 21
11.6249997597115
 31
0.0
  0
ARC
  5
41D9
330
1A
100
AcDbEntity
  8
ZUWAKU
100
AcDbCircle
 10
16.05860575811675
 20
11.3624997597115
 30
0.0
 40
0.2625
100
AcDbArc
 50
0.0
 51
90.0
  0
LINE
  5
41DA
330
1A
100
AcDbEntity
  8
ZUWAKU
100
AcDbLine
 10
16.05860575811675
 20
11.6249997597115
 30
0.0
 11
15.18360575811675
 21
11.6249997597115
 31
0.0
  0
ARC
  5
41DB
330
1A
100
AcDbEntity
  8
ZUWAKU
100
AcDbCircle
 10
13.43360575811675
 20
11.3624997597115
 30
0.0
 40
0.2625
100
AcDbArc
 50
0.0
 51
90.0
  0
ARC
  5
41DC
330
1A
100
AcDbEntity
  8
ZUWAKU
100
AcDbCircle
 10
15.18360575811675
 20
11.3624997597115
 30
0.0
 40
0.2625
100
AcDbArc
 50
90.0
 51
180.0
  0
ARC
  5
41DD
330
1A
100
AcDbEntity
  8
ZUWAKU
100
AcDbCircle
 10
13.43360575811675
 20
10.4874997597115
 30
0.0
 40
0.2625
100
AcDbArc
 50
270.0
 51
0.0
  0
LINE
  5
41DE
330
1A
100
AcDbEntity
  8
ZUWAKU
100
AcDbLine
 10
13.6961057581168
 20
11.3624997597115
 30
0.0
 11
13.6961057581168
 21
10.4874997597115
 31
0.0
  0
ARC
  5
41DF
330
1A
100
AcDbEntity
  8
ZUWAKU
100
AcDbCircle
 10
20.60860575811676
 20
11.3624997597115
 30
0.0
 40
0.2625
100
AcDbArc
 50
90.0
 51
180.0
  0
LINE
  5
41E0
330
1A
100
AcDbEntity
  8
ZUWAKU
100
AcDbLine
 10
18.08848867637243
 20
11.6249997597115
 30
0.0
 11
18.93793336617693
 21
11.6249997597115
 31
0.0
  0
ARC
  5
41E1
330
1A
100
AcDbEntity
  8
ZUWAKU
100
AcDbCircle
 10
18.93793336617693
 20
11.3624997597115
 30
0.0
 40
0.2625
100
AcDbArc
 50
342.4744316262769
 51
90.0
  0
LINE
  5
41E2
330
1A
100
AcDbEntity
  8
ZUWAKU
100
AcDbLine
 10
19.18824881577467
 20
11.28345277562801
 30
0.0
 11
18.65742899920576
 21
9.602523356493215
 31
0.0
  0
ARC
  5
41E3
330
1A
100
AcDbEntity
  8
ZUWAKU
100
AcDbCircle
 10
18.08848867637243
 20
11.3624997597115
 30
0.0
 40
0.2625
100
AcDbArc
 50
90.0
 51
162.4744316262769
  0
LINE
  5
41E4
330
1A
100
AcDbEntity
  8
ZUWAKU
100
AcDbLine
 10
24.1961057581168
 20
11.6249997597115
 30
0.0
 11
25.9461057581168
 21
11.6249997597115
 31
0.0
  0
LINE
  5
41E5
330
1A
100
AcDbEntity
  8
ZUWAKU
100
AcDbLine
 10
25.9461057581168
 20
10.2249997597115
 30
0.0
 11
24.45860575811678
 21
10.2249997597115
 31
0.0
  0
ARC
  5
41E6
330
1A
100
AcDbEntity
  8
ZUWAKU
100
AcDbCircle
 10
24.45860575811678
 20
9.962499759711501
 30
0.0
 40
0.2625
100
AcDbArc
 50
90.0
 51
180.0
  0
LINE
  5
41E7
330
1A
100
AcDbEntity
  8
ZUWAKU
100
AcDbLine
 10
24.1961057581168
 20
9.962499759711501
 30
0.0
 11
24.1961057581168
 21
9.317398747033831
 31
0.0
  0
ARC
  5
41E8
330
1A
100
AcDbEntity
  8
ZUWAKU
100
AcDbCircle
 10
21.48360575811676
 20
11.3624997597115
 30
0.0
 40
0.2625
100
AcDbArc
 50
0.0
 51
90.0
  0
LINE
  5
41E9
330
1A
100
AcDbEntity
  8
ZUWAKU
100
AcDbLine
 10
22.79610575811676
 20
10.2249997597115
 30
0.0
 11
22.79610575811676
 21
9.317398747033831
 31
0.0
  0
ARC
  5
41EA
330
1A
100
AcDbEntity
  8
ZUWAKU
100
AcDbCircle
 10
24.1961057581168
 20
10.2249997597115
 30
0.0
 40
1.399999999999999
100
AcDbArc
 50
90.0
 51
180.0
  0
ARC
  5
41EB
330
1A
100
AcDbEntity
  8
ZUWAKU
100
AcDbCircle
 10
28.65860575811677
 20
11.3624997597115
 30
0.0
 40
0.2625
100
AcDbArc
 50
0.0
 51
90.0
  0
ARC
  5
41EC
330
1A
100
AcDbEntity
  8
ZUWAKU
100
AcDbCircle
 10
27.78360575811678
 20
11.3624997597115
 30
0.0
 40
0.2625
100
AcDbArc
 50
90.0
 51
180.0
  0
LINE
  5
41ED
330
1A
100
AcDbEntity
  8
ZUWAKU
100
AcDbLine
 10
28.65860575811677
 20
11.6249997597115
 30
0.0
 11
27.78360575811678
 21
11.6249997597115
 31
0.0
  0
ARC
  5
41EE
330
1A
100
AcDbEntity
  8
ZUWAKU
100
AcDbCircle
 10
25.9461057581168
 20
11.3624997597115
 30
0.0
 40
0.2625
100
AcDbArc
 50
0.0
 51
90.0
  0
ARC
  5
41EF
330
1A
100
AcDbEntity
  8
ZUWAKU
100
AcDbCircle
 10
25.9461057581168
 20
10.4874997597115
 30
0.0
 40
0.2625
100
AcDbArc
 50
270.0
 51
0.0
  0
LINE
  5
41F0
330
1A
100
AcDbEntity
  8
ZUWAKU
100
AcDbLine
 10
26.20860575811679
 20
11.3624997597115
 30
0.0
 11
26.20860575811679
 21
10.4874997597115
 31
0.0
  0
LINE
  5
41F1
330
1A
100
AcDbEntity
  8
ZUWAKU
100
AcDbLine
 10
34.2586057581168
 20
11.6249997597115
 30
0.0
 11
33.3836057581168
 21
11.6249997597115
 31
0.0
  0
ARC
  5
41F2
330
1A
100
AcDbEntity
  8
ZUWAKU
100
AcDbCircle
 10
33.3836057581168
 20
11.3624997597115
 30
0.0
 40
0.2625
100
AcDbArc
 50
90.0
 51
180.0
  0
ARC
  5
41F3
330
1A
100
AcDbEntity
  8
ZUWAKU
100
AcDbCircle
 10
31.80860575811675
 20
11.3624997597115
 30
0.0
 40
0.2625
100
AcDbArc
 50
0.0
 51
90.0
  0
LINE
  5
41F4
330
1A
100
AcDbEntity
  8
ZUWAKU
100
AcDbLine
 10
31.80860575811675
 20
11.6249997597115
 30
0.0
 11
30.93360575811675
 21
11.6249997597115
 31
0.0
  0
ARC
  5
41F5
330
1A
100
AcDbEntity
  8
ZUWAKU
100
AcDbCircle
 10
30.93360575811675
 20
11.3624997597115
 30
0.0
 40
0.2625
100
AcDbArc
 50
90.0
 51
180.0
  0
ARC
  5
41F6
330
1A
100
AcDbEntity
  8
ZUWAKU
100
AcDbCircle
 10
34.2586057581168
 20
11.3624997597115
 30
0.0
 40
0.2625
100
AcDbArc
 50
0.0
 51
90.0
  0
TEXT
  5
41F7
330
1A
100
AcDbEntity
  8
MOJI
100
AcDbText
 10
119.9136010211517
 20
1.60246028841521
 30
0.0
 40
2.799999999999999
  1
ＲＶ１０５－４－１０
 41
0.9
  7
ｽﾀｲﾙ1
100
AcDbText
  0
LINE
  5
41F8
330
1A
100
AcDbEntity
  8
ZUWAKU
100
AcDbLine
 10
104.1233003257601
 20
14.99999975971149
 30
0.0
 11
104.1233003257601
 21
0.3999997597115339
 31
0.0
  0
LINE
  5
41F9
330
1A
100
AcDbEntity
  8
ZUWAKU
100
AcDbLine
 10
104.32330032576
 20
14.99999975971149
 30
0.0
 11
104.3233003257602
 21
0.3999997597115339
 31
0.0
  0
LINE
  5
41FA
330
1A
100
AcDbEntity
  8
ZUWAKU
100
AcDbLine
 10
104.22330032576
 20
14.99999975971149
 30
0.0
 11
104.2233003257601
 21
0.3999997597115339
 31
0.0
  0
TEXT
  5
41FB
330
1A
100
AcDbEntity
  8
ZUWAKU
100
AcDbText
 10
104.8620228368649
 20
4.827678028904308
 30
0.0
 40
2.0
  1
サイズ
 41
0.9
  7
ｽﾀｲﾙ1
100
AcDbText
  0
TEXT
  5
41FC
330
1A
100
AcDbEntity
  8
ZUWAKU
100
AcDbText
 10
104.8620228368648
 20
12.02767802890429
 30
0.0
 40
2.0
  1
品名
 41
0.9
  7
ｽﾀｲﾙ1
100
AcDbText
  0
LINE
  5
41FD
330
1A
100
AcDbEntity
  8
ZUWAKU
100
AcDbLine
 10
324.4086009358283
 20
7.599999759711515
 30
0.0
 11
348.6245049549968
 21
7.599999759711517
 31
0.0
  0
LINE
  5
41FE
330
1A
100
AcDbEntity
  8
ZUWAKU
100
AcDbLine
 10
324.4086009358284
 20
7.699999759711518
 30
0.0
 11
348.6245049549968
 21
7.699999759711516
 31
0.0
  0
LINE
  5
41FF
330
1A
100
AcDbEntity
  8
ZUWAKU
100
AcDbLine
 10
324.4086009358283
 20
7.799999759711516
 30
0.0
 11
348.6245049549968
 21
7.799999759711516
 31
0.0
  0
TEXT
  5
4200
330
1A
100
AcDbEntity
  8
ZUWAKU
100
AcDbText
 10
329.1019685243774
 20
9.002460288415193
 30
0.0
 40
2.799999999999999
  1
　　．　　．　　
 41
0.9
  7
ｽﾀｲﾙ1
100
AcDbText
  0
LINE
  5
4201
330
1A
100
AcDbEntity
  8
ZUWAKU
100
AcDbLine
 10
252.5995894297966
 20
7.599999759711518
 30
0.0
 11
276.2634775637824
 21
7.599999759711518
 31
0.0
  0
LINE
  5
4202
330
1A
100
AcDbEntity
  8
ZUWAKU
100
AcDbLine
 10
252.5995894297966
 20
7.699999759711516
 30
0.0
 11
276.2634775637824
 21
7.699999759711516
 31
0.0
  0
LINE
  5
4203
330
1A
100
AcDbEntity
  8
ZUWAKU
100
AcDbLine
 10
252.5995894297966
 20
7.799999759711516
 30
0.0
 11
276.2634775637824
 21
7.799999759711516
 31
0.0
  0
TEXT
  5
4204
330
1A
100
AcDbEntity
  8
MOJI
100
AcDbText
 10
231.2836388417205
 20
5.971308620541492
 30
0.0
 40
2.799999999999999
  1
ＬＪ７６□
 41
0.9
  7
ｽﾀｲﾙ1
100
AcDbText
  0
LINE
  5
4205
330
1A
100
AcDbEntity
  8
ZUWAKU
100
AcDbLine
 10
223.8121816662218
 20
14.99999975971149
 30
0.0
 11
223.8121816662219
 21
0.3999997597115339
 31
0.0
  0
LINE
  5
4206
330
1A
100
AcDbEntity
  8
ZUWAKU
100
AcDbLine
 10
223.9121816662218
 20
14.99999975971149
 30
0.0
 11
223.9121816662219
 21
0.3999997597115339
 31
0.0
  0
LINE
  5
4207
330
1A
100
AcDbEntity
  8
ZUWAKU
100
AcDbLine
 10
223.7121816662219
 20
14.99999975971149
 30
0.0
 11
223.7121816662219
 21
0.3999997597115339
 31
0.0
  0
TEXT
  5
4208
330
1A
100
AcDbEntity
  8
MOJI
100
AcDbText
 10
264.0204536668826
 20
9.002460288415193
 30
0.0
 40
2.799999999999999
  1
Ａ３
 41
0.9
  7
ｽﾀｲﾙ1
100
AcDbText
  0
LINE
  5
4209
330
1A
100
AcDbEntity
  8
ZUWAKU
100
AcDbLine
 10
252.4995894297966
 20
14.99999975971149
 30
0.0
 11
252.4995894297967
 21
0.3999997597115339
 31
0.0
  0
LINE
  5
420A
330
1A
100
AcDbEntity
  8
ZUWAKU
100
AcDbLine
 10
252.5995894297966
 20
14.99999975971149
 30
0.0
 11
252.5995894297967
 21
0.3999997597115339
 31
0.0
  0
LINE
  5
420B
330
1A
100
AcDbEntity
  8
ZUWAKU
100
AcDbLine
 10
252.3995894297967
 20
14.99999975971149
 30
0.0
 11
252.3995894297967
 21
0.3999997597115339
 31
0.0
  0
TEXT
  5
420C
330
1A
100
AcDbEntity
  8
ZUWAKU
100
AcDbText
 10
231.3468805084797
 20
1.307035215281246
 30
0.0
 40
1.5
  1
□には色品番が入ります
 41
0.9
  7
ｽﾀｲﾙ1
100
AcDbText
  0
TEXT
  5
420D
330
1A
100
AcDbEntity
  8
ZUWAKU
100
AcDbText
 10
253.3383119409015
 20
4.827678028904308
 30
0.0
 40
2.0
  1
縮尺
 41
0.9
  7
ｽﾀｲﾙ1
100
AcDbText
  0
TEXT
  5
420E
330
1A
100
AcDbEntity
  8
MOJI
100
AcDbText
 10
264.0204536668826
 20
1.60246028841521
 30
0.0
 40
2.799999999999999
  1
１/１
 41
0.9
  7
ｽﾀｲﾙ1
100
AcDbText
  0
TEXT
  5
420F
330
1A
100
AcDbEntity
  8
ZUWAKU
100
AcDbText
 10
224.6509041773266
 20
12.02767802890429
 30
0.0
 40
2.0
  1
品番
 41
0.9
  7
ｽﾀｲﾙ1
100
AcDbText
  0
TEXT
  5
4210
330
1A
100
AcDbEntity
  8
ZUWAKU
100
AcDbText
 10
253.3383119409014
 20
12.02767802890429
 30
0.0
 40
2.0
  1
用紙
 41
0.9
  7
ｽﾀｲﾙ1
100
AcDbText
  0
LINE
  5
4211
330
1A
100
AcDbEntity
  8
ZUWAKU
100
AcDbLine
 10
324.3086009358283
 20
14.99999975971149
 30
0.0
 11
324.3086009358285
 21
0.3999997597115339
 31
0.0
  0
LINE
  5
4212
330
1A
100
AcDbEntity
  8
ZUWAKU
100
AcDbLine
 10
324.4086009358284
 20
14.99999975971149
 30
0.0
 11
324.4086009358285
 21
0.3999997597115339
 31
0.0
  0
LINE
  5
4213
330
1A
100
AcDbEntity
  8
ZUWAKU
100
AcDbLine
 10
324.2086009358284
 20
14.99999975971149
 30
0.0
 11
324.2086009358284
 21
0.3999997597115339
 31
0.0
  0
LINE
  5
4214
330
1A
100
AcDbEntity
  8
ZUWAKU
100
AcDbLine
 10
276.3634775637823
 20
14.99999975971149
 30
0.0
 11
276.3634775637824
 21
0.3999997597115339
 31
0.0
  0
LINE
  5
4215
330
1A
100
AcDbEntity
  8
ZUWAKU
100
AcDbLine
 10
276.4634775637823
 20
14.99999975971149
 30
0.0
 11
276.4634775637824
 21
0.3999997597115339
 31
0.0
  0
LINE
  5
4216
330
1A
100
AcDbEntity
  8
ZUWAKU
100
AcDbLine
 10
276.2634775637824
 20
14.99999975971149
 30
0.0
 11
276.2634775637824
 21
0.3999997597115339
 31
0.0
  0
TEXT
  5
4217
330
1A
100
AcDbEntity
  8
ZUWAKU
100
AcDbText
 10
325.1473234469332
 20
12.02767802890429
 30
0.0
 40
2.0
  1
DATE
 41
0.9
  7
ｽﾀｲﾙ1
100
AcDbText
  0
LINE
  5
4218
330
1A
100
AcDbEntity
  8
ZUWAKU
100
AcDbLine
 10
348.6245049549968
 20
14.99999975971149
 30
0.0
 11
348.6245049549968
 21
0.3999997597115339
 31
0.0
  0
LINE
  5
4219
330
1A
100
AcDbEntity
  8
ZUWAKU
100
AcDbLine
 10
348.7245049549968
 20
14.99999975971149
 30
0.0
 11
348.7245049549968
 21
0.3999997597115339
 31
0.0
  0
LINE
  5
421A
330
1A
100
AcDbEntity
  8
ZUWAKU
100
AcDbLine
 10
348.8245049549967
 20
14.99999975971149
 30
0.0
 11
348.8245049549969
 21
0.3999997597115339
 31
0.0
  0
LINE
  5
421B
330
1A
100
AcDbEntity
  8
ZUWAKU
100
AcDbLine
 10
348.9245049549968
 20
14.99999975971149
 30
0.0
 11
348.9245049549968
 21
0.3999997597115339
 31
0.0
  0
TEXT
  5
421C
330
1A
100
AcDbEntity
  8
ZUWAKU
100
AcDbText
 10
354.2640417768481
 20
8.776919427554901
 30
0.0
 40
3.0
  1
積水化学工業株式会社
 41
0.9
  7
ｽﾀｲﾙ1
100
AcDbText
  0
TEXT
  5
421D
330
1A
100
AcDbEntity
  8
ZUWAKU
100
AcDbText
 10
354.2640417768481
 20
3.324419916638532
 30
0.0
 40
3.0
  1
建材事業部
 41
0.9
  7
ｽﾀｲﾙ1
100
AcDbText
  0
VIEWPORT
  5
22
330
17
100
AcDbEntity
 67
     1
  8
0
100
AcDbViewport
 10
313.6808219178082
 20
148.5
 30
0.0
 40
627.3616438356165
 41
297.0
 68
     2
 69
     1
1001
ACAD
1000
MVIEW
1002
{
1070
    16
1010
0.0
1020
0.0
1030
0.0
1010
0.0
1020
0.0
1030
1.0
1040
0.0
1040
297.0
1040
313.6808219178082
1040
148.5
1040
50.0
1040
0.0
1040
0.0
1070
     0
1070
   100
1070
     1
1070
     0
1070
     0
1070
     0
1070
     0
1070
     0
1040
0.0
1040
0.0
1040
0.0
1040
1.0
1040
1.0
1040
10.0
1040
10.0
1070
     0
1002
{
1002
}
1002
}
  0
VIEWPORT
  5
64
330
17
100
AcDbEntity
 67
     1
  8
VIEWPORT
100
AcDbViewport
 10
210.0
 20
148.5
 30
0.0
 40
420.0
 41
297.0
 68
     1
 69
     2
1001
ACAD
1000
MVIEW
1002
{
1070
    16
1010
0.0
1020
0.0
1030
0.0
1010
0.0
1020
0.0
1030
1.0
1040
0.0
1040
302.9399999999998
1040
210.0
1040
148.5
1040
50.0
1040
0.0
1040
0.0
1070
     0
1070
   100
1070
     1
1070
     0
1070
     0
1070
     0
1070
     0
1070
     0
1040
0.0
1040
0.0
1040
0.0
1040
5.0
1040
5.0
1040
0.0
1040
0.0
1070
     0
1002
{
1002
}
1002
}
  0
ENDSEC
  0
SECTION
  2
OBJECTS
  0
DICTIONARY
  5
C
330
0
100
AcDbDictionary
  3
ACAD_GROUP
350
D
  3
ACAD_LAYOUT
350
141
  3
ACAD_MLINESTYLE
350
E
  3
ACAD_PLOTSETTINGS
350
142
  3
ACAD_PLOTSTYLENAME
350
13F
  3
ACADDIM
350
3023
  3
ACDBVARIABLEDICTIONARY
350
120D
  3
ACDBHEADERROUNDTRIPXREC
350
4293
  0
DICTIONARY
  5
7A2
330
1A
100
AcDbDictionary
280
     1
  3
ACAD_LAYOUTSELFREF
360
42B5
  0
DICTIONARY
  5
7A0
330
17
100
AcDbDictionary
280
     1
  3
ACAD_LAYOUTSELFREF
360
42B4
  0
DICTIONARY
  5
D
102
{ACAD_REACTORS
330
C
102
}
330
C
100
AcDbDictionary
  0
DICTIONARY
  5
141
102
{ACAD_REACTORS
330
C
102
}
330
C
100
AcDbDictionary
  0
DICTIONARY
  5
E
102
{ACAD_REACTORS
330
C
102
}
330
C
100
AcDbDictionary
  3
STANDARD
350
13
  0
DICTIONARY
  5
142
102
{ACAD_REACTORS
330
C
102
}
330
C
100
AcDbDictionary
  0
ACDBDICTIONARYWDFLT
  5
13F
102
{ACAD_REACTORS
330
C
102
}
330
C
100
AcDbDictionary
281
     1
  3
Normal
350
140
100
AcDbDictionaryWithDefault
340
140
1001
ACAD
1000
TREAT_AS_HARD
1070
     0
1000
TREAT_AS_HARD
1070
     0
1000
TREAT_AS_HARD
1070
     0
1000
TREAT_AS_HARD
1070
     0
1000
TREAT_AS_HARD
1070
     0
1000
TREAT_AS_HARD
1070
     0
1000
TREAT_AS_HARD
1070
     0
1000
TREAT_AS_HARD
1070
     0
1000
TREAT_AS_HARD
1070
     0
1000
TREAT_AS_HARD
1070
     0
1000
TREAT_AS_HARD
1070
     0
1000
TREAT_AS_HARD
1070
     0
1000
TREAT_AS_HARD
1070
     0
1000
TREAT_AS_HARD
1070
     0
1000
TREAT_AS_HARD
1070
     0
1000
TREAT_AS_HARD
1070
     0
1000
TREAT_AS_HARD
1070
     0
1000
TREAT_AS_HARD
1070
     0
1000
TREAT_AS_HARD
1070
     0
1000
TREAT_AS_HARD
1070
     0
  0
XRECORD
  5
3023
102
{ACAD_REACTORS
330
C
102
}
330
C
100
AcDbXrecord
 90
   990106
  3

 60
     0
 61
     0
 62
     1
 63
     3
 64
     0
 65
     0
 66
     0
 67
     3
 68
     1
 69
     0
 70
     0
 71
     0
 72
     0
 40
0.0
170
     0
340
0
  0
DICTIONARY
  5
120D
102
{ACAD_REACTORS
330
C
102
}
330
C
100
AcDbDictionary
  3
SORTENTS
350
120E
  0
DICTIONARY
  5
4293
102
{ACAD_REACTORS
330
C
102
}
330
C
100
AcDbDictionary
  3
TSTACKALIGN
350
4294
  3
TSTACKSIZE
350
4295
  3
HYPERLINKBASE
350
4296
  3
STYLESHEET
350
4297
  3
LAYOUTDICT
350
4298
  3
PLOTSETDICT
350
4299
  3
PLOTSTYLNAMDICT
350
429A
  3
LWETCUNION
350
429B
  3
INSUNITS
350
429C
  3
CEPSNTYPE
350
429D
  3
FINGERPRINTGUID
350
429E
  3
VERSIONGUID
350
429F
  3
PSVPSCALE
350
42A0
  3
DIMSTYLEDATA
350
42A1
  3
PUCSORTHOREF
350
42A2
  3
PUCSORTHOVIEW
350
42A3
  3
PUCSBASE
350
42A4
  3
PUCSORGTOP
350
42A5
  3
PUCSORGBOTTOM
350
42A6
  3
PUCSORGLEFT
350
42A7
  3
PUCSORGRIGHT
350
42A8
  3
PUCSORGFRONT
350
42A9
  3
PUCSORGBACK
350
42AA
  3
UCSORTHOREF
350
42AB
  3
UCSORTHOVIEW
350
42AC
  3
UCSBASE
350
42AD
  3
UCSORGTOP
350
42AE
  3
UCSORGBOTTOM
350
42AF
  3
UCSORGLEFT
350
42B0
  3
UCSORGRIGHT
350
42B1
  3
UCSORGFRONT
350
42B2
  3
UCSORGBACK
350
42B3
  0
XRECORD
  5
42B5
102
{ACAD_REACTORS
330
7A2
102
}
330
7A2
100
AcDbXrecord
340
1A
  0
XRECORD
  5
42B4
102
{ACAD_REACTORS
330
7A0
102
}
330
7A0
100
AcDbXrecord
340
17
  0
MLINESTYLE
  5
13
102
{ACAD_REACTORS
330
E
102
}
330
E
100
AcDbMlineStyle
  2
STANDARD
 70
     0
  3

 62
     0
 51
90.0
 52
90.0
 71
     2
 49
0.5
 62
   256
  6
BYLAYER
 49
-0.5
 62
   256
  6
BYLAYER
  0
ACDBPLACEHOLDER
  5
140
102
{ACAD_REACTORS
330
13F
102
}
330
13F
100
AcDbPlaceHolder
280
     0
  0
DICTIONARYVAR
  5
120E
102
{ACAD_REACTORS
330
120D
102
}
330
120D
100
DictionaryVariables
280
     0
  1
96
  0
XRECORD
  5
4294
102
{ACAD_REACTORS
330
4293
102
}
330
4293
100
AcDbXrecord
 90
        1
  0
XRECORD
  5
4295
102
{ACAD_REACTORS
330
4293
102
}
330
4293
100
AcDbXrecord
 90
       70
  0
XRECORD
  5
4296
102
{ACAD_REACTORS
330
4293
102
}
330
4293
100
AcDbXrecord
  1

  0
XRECORD
  5
4297
102
{ACAD_REACTORS
330
4293
102
}
330
4293
100
AcDbXrecord
  1
systemprinter.ctb
  0
XRECORD
  5
4298
102
{ACAD_REACTORS
330
4293
102
}
330
4293
100
AcDbXrecord
340
141
  0
XRECORD
  5
4299
102
{ACAD_REACTORS
330
4293
102
}
330
4293
100
AcDbXrecord
340
142
  0
XRECORD
  5
429A
102
{ACAD_REACTORS
330
4293
102
}
330
4293
100
AcDbXrecord
340
13F
  0
XRECORD
  5
429B
102
{ACAD_REACTORS
330
4293
102
}
330
4293
100
AcDbXrecord
 90
    10781
  0
XRECORD
  5
429C
102
{ACAD_REACTORS
330
4293
102
}
330
4293
100
AcDbXrecord
 90
        0
  0
XRECORD
  5
429D
102
{ACAD_REACTORS
330
4293
102
}
330
4293
100
AcDbXrecord
 90
        0
  0
XRECORD
  5
429E
102
{ACAD_REACTORS
330
4293
102
}
330
4293
100
AcDbXrecord
  1
{4E8D0500-CDD1-11D3-932C-444553540000}
  0
XRECORD
  5
429F
102
{ACAD_REACTORS
330
4293
102
}
330
4293
100
AcDbXrecord
  1
{E06698E8-C9EA-49A6-9CDD-7033EA6BE27E}
  0
XRECORD
  5
42A0
102
{ACAD_REACTORS
330
4293
102
}
330
4293
100
AcDbXrecord
 40
0.0
  0
XRECORD
  5
42A1
102
{ACAD_REACTORS
330
4293
102
}
330
4293
100
AcDbXrecord
1000
DSTYLE
1002
{
1070
   341
340
B2
1070
   343
340
B2
1070
   344
340
B2
1070
   371
 70
    -1
1070
   372
 70
    -1
1002
}
  0
XRECORD
  5
42A2
102
{ACAD_REACTORS
330
4293
102
}
330
4293
100
AcDbXrecord
340
0
  0
XRECORD
  5
42A3
102
{ACAD_REACTORS
330
4293
102
}
330
4293
100
AcDbXrecord
 70
     0
  0
XRECORD
  5
42A4
102
{ACAD_REACTORS
330
4293
102
}
330
4293
100
AcDbXrecord
340
0
  0
XRECORD
  5
42A5
102
{ACAD_REACTORS
330
4293
102
}
330
4293
100
AcDbXrecord
 10
0.0
 20
0.0
 30
0.0
  0
XRECORD
  5
42A6
102
{ACAD_REACTORS
330
4293
102
}
330
4293
100
AcDbXrecord
 10
0.0
 20
0.0
 30
0.0
  0
XRECORD
  5
42A7
102
{ACAD_REACTORS
330
4293
102
}
330
4293
100
AcDbXrecord
 10
0.0
 20
0.0
 30
0.0
  0
XRECORD
  5
42A8
102
{ACAD_REACTORS
330
4293
102
}
330
4293
100
AcDbXrecord
 10
0.0
 20
0.0
 30
0.0
  0
XRECORD
  5
42A9
102
{ACAD_REACTORS
330
4293
102
}
330
4293
100
AcDbXrecord
 10
0.0
 20
0.0
 30
0.0
  0
XRECORD
  5
42AA
102
{ACAD_REACTORS
330
4293
102
}
330
4293
100
AcDbXrecord
 10
0.0
 20
0.0
 30
0.0
  0
XRECORD
  5
42AB
102
{ACAD_REACTORS
330
4293
102
}
330
4293
100
AcDbXrecord
340
0
  0
XRECORD
  5
42AC
102
{ACAD_REACTORS
330
4293
102
}
330
4293
100
AcDbXrecord
 70
     0
  0
XRECORD
  5
42AD
102
{ACAD_REACTORS
330
4293
102
}
330
4293
100
AcDbXrecord
340
0
  0
XRECORD
  5
42AE
102
{ACAD_REACTORS
330
4293
102
}
330
4293
100
AcDbXrecord
 10
0.0
 20
0.0
 30
0.0
  0
XRECORD
  5
42AF
102
{ACAD_REACTORS
330
4293
102
}
330
4293
100
AcDbXrecord
 10
0.0
 20
0.0
 30
0.0
  0
XRECORD
  5
42B0
102
{ACAD_REACTORS
330
4293
102
}
330
4293
100
AcDbXrecord
 10
0.0
 20
0.0
 30
0.0
  0
XRECORD
  5
42B1
102
{ACAD_REACTORS
330
4293
102
}
330
4293
100
AcDbXrecord
 10
0.0
 20
0.0
 30
0.0
  0
XRECORD
  5
42B2
102
{ACAD_REACTORS
330
4293
102
}
330
4293
100
AcDbXrecord
 10
0.0
 20
0.0
 30
0.0
  0
XRECORD
  5
42B3
102
{ACAD_REACTORS
330
4293
102
}
330
4293
100
AcDbXrecord
 10
0.0
 20
0.0
 30
0.0
  0
ENDSEC
  0
EOF
