  0
SECTION
  2
HEADER
  9
$ACADVER
  1
AC1014
  9
$ACADMAINTVER
 70
     9
  9
$DWGCODEPAGE
  3
ANSI_932
  9
$INSBASE
 10
0.0
 20
0.0
 30
0.0
  9
$EXTMIN
 10
-0.0128167242222617
 20
-0.0090632695025761
 30
-0.0000000100021362
  9
$EXTMAX
 10
398.8000497652178
 20
275.822617226868
 30
0.0000000100021363
  9
$LIMMIN
 10
0.0
 20
0.0
  9
$LIMMAX
 10
420.0
 20
297.0
  9
$ORTHOMODE
 70
     0
  9
$REGENMODE
 70
     1
  9
$FILLMODE
 70
     1
  9
$QTEXTMODE
 70
     0
  9
$MIRRTEXT
 70
     1
  9
$DRAGMODE
 70
     2
  9
$LTSCALE
 40
5.0
  9
$OSMODE
 70
    35
  9
$ATTMODE
 70
     1
  9
$TEXTSIZE
 40
3.0
  9
$TRACEWID
 40
1.0
  9
$TEXTSTYLE
  7
STANDARD
  9
$CLAYER
  8
SUNPOU
  9
$CELTYPE
  6
BYLAYER
  9
$CECOLOR
 62
   256
  9
$CELTSCALE
 40
1.0
  9
$DELOBJ
 70
     1
  9
$DISPSILH
 70
     0
  9
$DIMSCALE
 40
1.0
  9
$DIMASZ
 40
3.0
  9
$DIMEXO
 40
3.0
  9
$DIMDLI
 40
7.0
  9
$DIMRND
 40
0.0
  9
$DIMDLE
 40
0.0
  9
$DIMEXE
 40
1.5
  9
$DIMTP
 40
0.0
  9
$DIMTM
 40
0.0
  9
$DIMTXT
 40
3.0
  9
$DIMCEN
 40
3.0
  9
$DIMTSZ
 40
0.0
  9
$DIMTOL
 70
     0
  9
$DIMLIM
 70
     0
  9
$DIMTIH
 70
     0
  9
$DIMTOH
 70
     0
  9
$DIMSE1
 70
     0
  9
$DIMSE2
 70
     0
  9
$DIMTAD
 70
     3
  9
$DIMZIN
 70
     0
  9
$DIMBLK
  1

  9
$DIMASO
 70
     1
  9
$DIMSHO
 70
     1
  9
$DIMPOST
  1

  9
$DIMAPOST
  1

  9
$DIMALT
 70
     0
  9
$DIMALTD
 70
     2
  9
$DIMALTF
 40
25.4
  9
$DIMLFAC
 40
1.0
  9
$DIMTOFL
 70
     1
  9
$DIMTVP
 40
0.0
  9
$DIMTIX
 70
     0
  9
$DIMSOXD
 70
     0
  9
$DIMSAH
 70
     1
  9
$DIMBLK1
  1
OPEN
  9
$DIMBLK2
  1
OPEN
  9
$DIMSTYLE
  2
STANDARD
  9
$DIMCLRD
 70
   256
  9
$DIMCLRE
 70
   256
  9
$DIMCLRT
 70
   256
  9
$DIMTFAC
 40
1.0
  9
$DIMGAP
 40
1.0
  9
$DIMJUST
 70
     0
  9
$DIMSD1
 70
     0
  9
$DIMSD2
 70
     0
  9
$DIMTOLJ
 70
     1
  9
$DIMTZIN
 70
     0
  9
$DIMALTZ
 70
     0
  9
$DIMALTTZ
 70
     0
  9
$DIMFIT
 70
     3
  9
$DIMUPT
 70
     0
  9
$DIMUNIT
 70
     2
  9
$DIMDEC
 70
     0
  9
$DIMTDEC
 70
     0
  9
$DIMALTU
 70
     2
  9
$DIMALTTD
 70
     2
  9
$DIMTXSTY
  7
STANDARD
  9
$DIMAUNIT
 70
     0
  9
$LUNITS
 70
     2
  9
$LUPREC
 70
     4
  9
$SKETCHINC
 40
1.0
  9
$FILLETRAD
 40
0.3
  9
$AUNITS
 70
     0
  9
$AUPREC
 70
     0
  9
$MENU
  1
.
  9
$ELEVATION
 40
0.0
  9
$PELEVATION
 40
0.0
  9
$THICKNESS
 40
0.0
  9
$LIMCHECK
 70
     0
  9
$BLIPMODE
 70
     0
  9
$CHAMFERA
 40
10.0
  9
$CHAMFERB
 40
10.0
  9
$CHAMFERC
 40
20.0
  9
$CHAMFERD
 40
0.0
  9
$SKPOLY
 70
     0
  9
$TDCREATE
 40
2451589.469382176
  9
$TDUPDATE
 40
2453802.576504259
  9
$TDINDWG
 40
0.5659285648
  9
$TDUSRTIMER
 40
0.5659285648
  9
$USRTIMER
 70
     1
  9
$ANGBASE
 50
0.0
  9
$ANGDIR
 70
     0
  9
$PDMODE
 70
     0
  9
$PDSIZE
 40
0.0
  9
$PLINEWID
 40
0.0
  9
$COORDS
 70
     1
  9
$SPLFRAME
 70
     0
  9
$SPLINETYPE
 70
     6
  9
$SPLINESEGS
 70
     8
  9
$ATTDIA
 70
     0
  9
$ATTREQ
 70
     1
  9
$HANDLING
 70
 10241
  9
$HANDSEED
  5
42FB
  9
$SURFTAB1
 70
     6
  9
$SURFTAB2
 70
     6
  9
$SURFTYPE
 70
     6
  9
$SURFU
 70
     6
  9
$SURFV
 70
     6
  9
$UCSNAME
  2

  9
$UCSORG
 10
0.0
 20
0.0
 30
0.0
  9
$UCSXDIR
 10
1.0
 20
0.0
 30
0.0
  9
$UCSYDIR
 10
0.0
 20
1.0
 30
0.0
  9
$PUCSNAME
  2

  9
$PUCSORG
 10
0.0
 20
0.0
 30
0.0
  9
$PUCSXDIR
 10
1.0
 20
0.0
 30
0.0
  9
$PUCSYDIR
 10
0.0
 20
1.0
 30
0.0
  9
$USERI1
 70
     0
  9
$USERI2
 70
     0
  9
$USERI3
 70
     0
  9
$USERI4
 70
     0
  9
$USERI5
 70
     0
  9
$USERR1
 40
0.0
  9
$USERR2
 40
0.0
  9
$USERR3
 40
0.0
  9
$USERR4
 40
0.0
  9
$USERR5
 40
0.0
  9
$WORLDVIEW
 70
     1
  9
$SHADEDGE
 70
     3
  9
$SHADEDIF
 70
    70
  9
$TILEMODE
 70
     1
  9
$MAXACTVP
 70
    16
  9
$PINSBASE
 10
0.0
 20
0.0
 30
0.0
  9
$PLIMCHECK
 70
     0
  9
$PEXTMIN
 10
0.0
 20
0.0
 30
0.0
  9
$PEXTMAX
 10
420.0
 20
297.0
 30
0.0
  9
$PLIMMIN
 10
0.0
 20
0.0
  9
$PLIMMAX
 10
420.0
 20
297.0
  9
$UNITMODE
 70
     0
  9
$VISRETAIN
 70
     0
  9
$PLINEGEN
 70
     0
  9
$PSLTSCALE
 70
     1
  9
$TREEDEPTH
 70
  3020
  9
$PICKSTYLE
 70
     1
  9
$CMLSTYLE
  2
STANDARD
  9
$CMLJUST
 70
     0
  9
$CMLSCALE
 40
1.0
  9
$PROXYGRAPHICS
 70
     1
  9
$MEASUREMENT
 70
     0
  0
ENDSEC
  0
SECTION
  2
CLASSES
  0
CLASS
  1
ACDBDICTIONARYWDFLT
  2
AcDbDictionaryWithDefault
  3
AutoCAD 2000
 90
        0
280
     0
281
     0
  0
CLASS
  1
ACDBPLACEHOLDER
  2
AcDbPlaceHolder
  3
AutoCAD 2000
 90
        0
280
     0
281
     0
  0
CLASS
  1
LAYOUT
  2
AcDbLayout
  3
AutoCAD 2000
 90
        0
280
     0
281
     0
  0
CLASS
  1
LONG_TRANSACTION
  2
AcDbLongTransaction
  3
AutoCAD 2000
 90
        0
280
     0
281
     0
  0
CLASS
  1
LWPOLYLINE
  2
AcDbPolyline
  3
AutoCAD 2000
 90
        0
280
     0
281
     1
  0
CLASS
  1
HATCH
  2
AcDbHatch
  3
AutoCAD 2000
 90
        0
280
     0
281
     1
  0
CLASS
  1
XRECORD
  2
AcDbXrecord
  3
AutoCAD 2000
 90
        0
280
     0
281
     0
  0
CLASS
  1
LONG_TRANSACTION
  2
AcDbLongTransaction
  3
AutoCAD 2000
 90
        0
280
     0
281
     0
  0
CLASS
  1
LWPOLYLINE
  2
AcDbPolyline
  3
AutoCAD 2000
 90
        0
280
     0
281
     1
  0
CLASS
  1
HATCH
  2
AcDbHatch
  3
AutoCAD 2000
 90
        0
280
     0
281
     1
  0
CLASS
  1
XRECORD
  2
AcDbXrecord
  3
AutoCAD 2000
 90
        0
280
     0
281
     0
  0
CLASS
  1
DICTIONARYVAR
  2
AcDbDictionaryVar
  3
AutoCAD 2000
 90
        0
280
     0
281
     0
  0
CLASS
  1
LONG_TRANSACTION
  2
AcDbLongTransaction
  3
AutoCAD 2000
 90
        0
280
     0
281
     0
  0
CLASS
  1
LWPOLYLINE
  2
AcDbPolyline
  3
AutoCAD 2000
 90
        0
280
     0
281
     1
  0
CLASS
  1
HATCH
  2
AcDbHatch
  3
AutoCAD 2000
 90
        0
280
     0
281
     1
  0
CLASS
  1
XRECORD
  2
AcDbXrecord
  3
AutoCAD 2000
 90
        0
280
     0
281
     0
  0
CLASS
  1
LONG_TRANSACTION
  2
AcDbLongTransaction
  3
AutoCAD 2000
 90
        0
280
     0
281
     0
  0
CLASS
  1
LWPOLYLINE
  2
AcDbPolyline
  3
AutoCAD 2000
 90
        0
280
     0
281
     1
  0
CLASS
  1
HATCH
  2
AcDbHatch
  3
AutoCAD 2000
 90
        0
280
     0
281
     1
  0
CLASS
  1
XRECORD
  2
AcDbXrecord
  3
AutoCAD 2000
 90
        0
280
     0
281
     0
  0
CLASS
  1
LONG_TRANSACTION
  2
AcDbLongTransaction
  3
AutoCAD 2000
 90
        0
280
     0
281
     0
  0
CLASS
  1
LWPOLYLINE
  2
AcDbPolyline
  3
AutoCAD 2000
 90
        0
280
     0
281
     1
  0
CLASS
  1
HATCH
  2
AcDbHatch
  3
AutoCAD 2000
 90
        0
280
     0
281
     1
  0
CLASS
  1
XRECORD
  2
AcDbXrecord
  3
AutoCAD 2000
 90
        0
280
     0
281
     0
  0
CLASS
  1
LONG_TRANSACTION
  2
AcDbLongTransaction
  3
AutoCAD 2000
 90
        0
280
     0
281
     0
  0
CLASS
  1
LWPOLYLINE
  2
AcDbPolyline
  3
AutoCAD 2000
 90
        0
280
     0
281
     1
  0
CLASS
  1
HATCH
  2
AcDbHatch
  3
AutoCAD 2000
 90
        0
280
     0
281
     1
  0
CLASS
  1
XRECORD
  2
AcDbXrecord
  3
AutoCAD 2000
 90
        0
280
     0
281
     0
  0
CLASS
  1
LONG_TRANSACTION
  2
AcDbLongTransaction
  3
AutoCAD 2000
 90
        0
280
     0
281
     0
  0
CLASS
  1
LWPOLYLINE
  2
AcDbPolyline
  3
AutoCAD 2000
 90
        0
280
     0
281
     1
  0
CLASS
  1
HATCH
  2
AcDbHatch
  3
AutoCAD 2000
 90
        0
280
     0
281
     1
  0
CLASS
  1
XRECORD
  2
AcDbXrecord
  3
AutoCAD 2000
 90
        0
280
     0
281
     0
  0
CLASS
  1
LONG_TRANSACTION
  2
AcDbLongTransaction
  3
AutoCAD 2000
 90
        0
280
     0
281
     0
  0
CLASS
  1
LWPOLYLINE
  2
AcDbPolyline
  3
AutoCAD 2000
 90
        0
280
     0
281
     1
  0
CLASS
  1
HATCH
  2
AcDbHatch
  3
AutoCAD 2000
 90
        0
280
     0
281
     1
  0
CLASS
  1
XRECORD
  2
AcDbXrecord
  3
AutoCAD 2000
 90
        0
280
     0
281
     0
  0
CLASS
  1
LONG_TRANSACTION
  2
AcDbLongTransaction
  3
AutoCAD 2000
 90
        0
280
     0
281
     0
  0
CLASS
  1
LWPOLYLINE
  2
AcDbPolyline
  3
AutoCAD 2000
 90
        0
280
     0
281
     1
  0
CLASS
  1
HATCH
  2
AcDbHatch
  3
AutoCAD 2000
 90
        0
280
     0
281
     1
  0
CLASS
  1
XRECORD
  2
AcDbXrecord
  3
AutoCAD 2000
 90
        0
280
     0
281
     0
  0
CLASS
  1
LONG_TRANSACTION
  2
AcDbLongTransaction
  3
AutoCAD 2000
 90
        0
280
     0
281
     0
  0
CLASS
  1
LWPOLYLINE
  2
AcDbPolyline
  3
AutoCAD 2000
 90
        0
280
     0
281
     1
  0
CLASS
  1
HATCH
  2
AcDbHatch
  3
AutoCAD 2000
 90
        0
280
     0
281
     1
  0
CLASS
  1
XRECORD
  2
AcDbXrecord
  3
AutoCAD 2000
 90
        0
280
     0
281
     0
  0
CLASS
  1
LONG_TRANSACTION
  2
AcDbLongTransaction
  3
AutoCAD 2000
 90
        0
280
     0
281
     0
  0
CLASS
  1
LWPOLYLINE
  2
AcDbPolyline
  3
AutoCAD 2000
 90
        0
280
     0
281
     1
  0
CLASS
  1
HATCH
  2
AcDbHatch
  3
AutoCAD 2000
 90
        0
280
     0
281
     1
  0
CLASS
  1
XRECORD
  2
AcDbXrecord
  3
AutoCAD 2000
 90
        0
280
     0
281
     0
  0
CLASS
  1
LONG_TRANSACTION
  2
AcDbLongTransaction
  3
AutoCAD 2000
 90
        0
280
     0
281
     0
  0
CLASS
  1
LWPOLYLINE
  2
AcDbPolyline
  3
AutoCAD 2000
 90
        0
280
     0
281
     1
  0
CLASS
  1
HATCH
  2
AcDbHatch
  3
AutoCAD 2000
 90
        0
280
     0
281
     1
  0
CLASS
  1
XRECORD
  2
AcDbXrecord
  3
AutoCAD 2000
 90
        0
280
     0
281
     0
  0
CLASS
  1
LONG_TRANSACTION
  2
AcDbLongTransaction
  3
AutoCAD 2000
 90
        0
280
     0
281
     0
  0
CLASS
  1
LWPOLYLINE
  2
AcDbPolyline
  3
AutoCAD 2000
 90
        0
280
     0
281
     1
  0
CLASS
  1
HATCH
  2
AcDbHatch
  3
AutoCAD 2000
 90
        0
280
     0
281
     1
  0
CLASS
  1
XRECORD
  2
AcDbXrecord
  3
AutoCAD 2000
 90
        0
280
     0
281
     0
  0
CLASS
  1
LONG_TRANSACTION
  2
AcDbLongTransaction
  3
AutoCAD 2000
 90
        0
280
     0
281
     0
  0
CLASS
  1
LWPOLYLINE
  2
AcDbPolyline
  3
AutoCAD 2000
 90
        0
280
     0
281
     1
  0
CLASS
  1
HATCH
  2
AcDbHatch
  3
AutoCAD 2000
 90
        0
280
     0
281
     1
  0
CLASS
  1
XRECORD
  2
AcDbXrecord
  3
AutoCAD 2000
 90
        0
280
     0
281
     0
  0
CLASS
  1
LONG_TRANSACTION
  2
AcDbLongTransaction
  3
AutoCAD 2000
 90
        0
280
     0
281
     0
  0
CLASS
  1
LWPOLYLINE
  2
AcDbPolyline
  3
AutoCAD 2000
 90
        0
280
     0
281
     1
  0
CLASS
  1
HATCH
  2
AcDbHatch
  3
AutoCAD 2000
 90
        0
280
     0
281
     1
  0
CLASS
  1
XRECORD
  2
AcDbXrecord
  3
AutoCAD 2000
 90
        0
280
     0
281
     0
  0
CLASS
  1
LONG_TRANSACTION
  2
AcDbLongTransaction
  3
AutoCAD 2000
 90
        0
280
     0
281
     0
  0
CLASS
  1
LWPOLYLINE
  2
AcDbPolyline
  3
AutoCAD 2000
 90
        0
280
     0
281
     1
  0
CLASS
  1
HATCH
  2
AcDbHatch
  3
AutoCAD 2000
 90
        0
280
     0
281
     1
  0
CLASS
  1
XRECORD
  2
AcDbXrecord
  3
AutoCAD 2000
 90
        0
280
     0
281
     0
  0
CLASS
  1
LONG_TRANSACTION
  2
AcDbLongTransaction
  3
AutoCAD 2000
 90
        0
280
     0
281
     0
  0
CLASS
  1
LWPOLYLINE
  2
AcDbPolyline
  3
AutoCAD 2000
 90
        0
280
     0
281
     1
  0
CLASS
  1
HATCH
  2
AcDbHatch
  3
AutoCAD 2000
 90
        0
280
     0
281
     1
  0
CLASS
  1
XRECORD
  2
AcDbXrecord
  3
AutoCAD 2000
 90
        0
280
     0
281
     0
  0
CLASS
  1
LONG_TRANSACTION
  2
AcDbLongTransaction
  3
AutoCAD 2000
 90
        0
280
     0
281
     0
  0
CLASS
  1
LWPOLYLINE
  2
AcDbPolyline
  3
AutoCAD 2000
 90
        0
280
     0
281
     1
  0
CLASS
  1
HATCH
  2
AcDbHatch
  3
AutoCAD 2000
 90
        0
280
     0
281
     1
  0
CLASS
  1
XRECORD
  2
AcDbXrecord
  3
AutoCAD 2000
 90
        0
280
     0
281
     0
  0
CLASS
  1
LONG_TRANSACTION
  2
AcDbLongTransaction
  3
AutoCAD 2000
 90
        0
280
     0
281
     0
  0
CLASS
  1
LWPOLYLINE
  2
AcDbPolyline
  3
AutoCAD 2000
 90
        0
280
     0
281
     1
  0
CLASS
  1
HATCH
  2
AcDbHatch
  3
AutoCAD 2000
 90
        0
280
     0
281
     1
  0
CLASS
  1
XRECORD
  2
AcDbXrecord
  3
AutoCAD 2000
 90
        0
280
     0
281
     0
  0
CLASS
  1
LONG_TRANSACTION
  2
AcDbLongTransaction
  3
AutoCAD 2000
 90
        0
280
     0
281
     0
  0
CLASS
  1
LWPOLYLINE
  2
AcDbPolyline
  3
AutoCAD 2000
 90
        0
280
     0
281
     1
  0
CLASS
  1
HATCH
  2
AcDbHatch
  3
AutoCAD 2000
 90
        0
280
     0
281
     1
  0
CLASS
  1
XRECORD
  2
AcDbXrecord
  3
AutoCAD 2000
 90
        0
280
     0
281
     0
  0
CLASS
  1
LONG_TRANSACTION
  2
AcDbLongTransaction
  3
AutoCAD 2000
 90
        0
280
     0
281
     0
  0
CLASS
  1
LWPOLYLINE
  2
AcDbPolyline
  3
AutoCAD 2000
 90
        0
280
     0
281
     1
  0
CLASS
  1
HATCH
  2
AcDbHatch
  3
AutoCAD 2000
 90
        0
280
     0
281
     1
  0
CLASS
  1
XRECORD
  2
AcDbXrecord
  3
AutoCAD 2000
 90
        0
280
     0
281
     0
  0
CLASS
  1
LONG_TRANSACTION
  2
AcDbLongTransaction
  3
AutoCAD 2000
 90
        0
280
     0
281
     0
  0
CLASS
  1
LWPOLYLINE
  2
AcDbPolyline
  3
AutoCAD 2000
 90
        0
280
     0
281
     1
  0
CLASS
  1
HATCH
  2
AcDbHatch
  3
AutoCAD 2000
 90
        0
280
     0
281
     1
  0
CLASS
  1
XRECORD
  2
AcDbXrecord
  3
AutoCAD 2000
 90
        0
280
     0
281
     0
  0
ENDSEC
  0
SECTION
  2
TABLES
  0
TABLE
  2
VPORT
  5
8
330
0
100
AcDbSymbolTable
 70
     2
  0
VPORT
  5
42D7
330
8
100
AcDbSymbolTableRecord
100
AcDbViewportTableRecord
  2
*ACTIVE
 70
     0
 10
0.0
 20
0.0
 11
1.0
 21
1.0
 12
230.6892637517581
 22
147.0781087905216
 13
0.0
 23
0.0
 14
5.0
 24
5.0
 15
0.0
 25
0.0
 16
0.0
 26
0.0
 36
1.0
 17
0.0
 27
0.0
 37
0.0
 40
340.6590127853668
 41
1.795454545454545
 42
50.0
 43
0.0
 44
0.0
 50
0.0
 51
0.0
 71
     0
 72
   100
 73
     1
 74
     0
 75
     0
 76
     0
 77
     0
 78
     0
  0
ENDTAB
  0
TABLE
  2
LTYPE
  5
5
330
0
100
AcDbSymbolTable
 70
     3
  0
LTYPE
  5
14
330
5
100
AcDbSymbolTableRecord
100
AcDbLinetypeTableRecord
  2
BYBLOCK
 70
     0
  3

 72
    65
 73
     0
 40
0.0
  0
LTYPE
  5
15
330
5
100
AcDbSymbolTableRecord
100
AcDbLinetypeTableRecord
  2
BYLAYER
 70
     0
  3

 72
    65
 73
     0
 40
0.0
  0
LTYPE
  5
16
330
5
100
AcDbSymbolTableRecord
100
AcDbLinetypeTableRecord
  2
CONTINUOUS
 70
     0
  3
Solid line
 72
    65
 73
     0
 40
0.0
  0
LTYPE
  5
120
330
5
100
AcDbSymbolTableRecord
100
AcDbLinetypeTableRecord
  2
CENTER
 70
     0
  3
____ _ ____ _ ____ _ ____ _ ____ _ ____ _ ____ 
 72
    65
 73
     4
 40
2.0
 49
1.25
 74
     0
 49
-0.25
 74
     0
 49
0.25
 74
     0
 49
-0.25
 74
     0
  0
LTYPE
  5
122
330
5
100
AcDbSymbolTableRecord
100
AcDbLinetypeTableRecord
  2
PHANTOM
 70
     0
  3
______  __  __  ______  __  __  ______  __  __ 
 72
    65
 73
     6
 40
2.5
 49
1.25
 74
     0
 49
-0.25
 74
     0
 49
0.25
 74
     0
 49
-0.25
 74
     0
 49
0.25
 74
     0
 49
-0.25
 74
     0
  0
ENDTAB
  0
TABLE
  2
LAYER
  5
2
330
0
100
AcDbSymbolTable
 70
     9
  0
LAYER
  5
F
330
2
100
AcDbSymbolTableRecord
100
AcDbLayerTableRecord
  2
0
 70
     0
 62
     7
  6
CONTINUOUS
  0
LAYER
  5
62
330
2
100
AcDbSymbolTableRecord
100
AcDbLayerTableRecord
  2
VIEWPORT
 70
     0
 62
     7
  6
CONTINUOUS
  0
LAYER
  5
6B
330
2
100
AcDbSymbolTableRecord
100
AcDbLayerTableRecord
  2
ZUWAKU
 70
     0
 62
     7
  6
CONTINUOUS
  0
LAYER
  5
3EF
330
2
100
AcDbSymbolTableRecord
100
AcDbLayerTableRecord
  2
DEFPOINTS
 70
     0
 62
     7
  6
CONTINUOUS
  0
LAYER
  5
54D
330
2
100
AcDbSymbolTableRecord
100
AcDbLayerTableRecord
  2
SEIHIN
 70
     0
 62
     3
  6
CONTINUOUS
  0
LAYER
  5
54E
330
2
100
AcDbSymbolTableRecord
100
AcDbLayerTableRecord
  2
SUNPOU
 70
     0
 62
     4
  6
CONTINUOUS
  0
LAYER
  5
54F
330
2
100
AcDbSymbolTableRecord
100
AcDbLayerTableRecord
  2
CENTER_L
 70
     0
 62
     1
  6
CENTER
  0
LAYER
  5
550
330
2
100
AcDbSymbolTableRecord
100
AcDbLayerTableRecord
  2
NOKITOI
 70
     0
 62
     8
  6
PHANTOM
  0
LAYER
  5
40F2
330
2
100
AcDbSymbolTableRecord
100
AcDbLayerTableRecord
  2
MOJI
 70
     0
 62
     2
  6
CONTINUOUS
  0
ENDTAB
  0
TABLE
  2
STYLE
  5
3
330
0
100
AcDbSymbolTable
 70
     2
  0
STYLE
  5
10
330
3
100
AcDbSymbolTableRecord
100
AcDbTextStyleTableRecord
  2
STANDARD
 70
     0
 40
0.0
 41
1.0
 50
0.0
 71
     0
 42
3.0
  3
TXT
  4
c:\PROGRAM FILES\AUTOCAD LT\ms\bigfont.shx
  0
STYLE
  5
40F3
330
3
100
AcDbSymbolTableRecord
100
AcDbTextStyleTableRecord
  2
ｽﾀｲﾙ1
 70
     0
 40
0.0
 41
1.0
 50
0.0
 71
     0
 42
2.5
  3
MS PGothic.ttf
  4

1001
ACAD
1000
MS PGothic
1071
    32818
  0
ENDTAB
  0
TABLE
  2
VIEW
  5
6
330
0
100
AcDbSymbolTable
 70
     0
  0
ENDTAB
  0
TABLE
  2
UCS
  5
7
330
0
100
AcDbSymbolTable
 70
     0
  0
ENDTAB
  0
TABLE
  2
APPID
  5
9
330
0
100
AcDbSymbolTable
 70
     1
  0
APPID
  5
11
330
9
100
AcDbSymbolTableRecord
100
AcDbRegAppTableRecord
  2
ACAD
 70
     0
  0
ENDTAB
  0
TABLE
  2
DIMSTYLE
  5
A
330
0
100
AcDbSymbolTable
 70
     1
  0
DIMSTYLE
105
1D
102
{ACAD_REACTORS
330
2073
330
39FF
330
39FE
330
3A07
330
3A06
330
3A15
330
3A05
330
3C2E
330
3C48
330
3C55
330
3C62
330
3FCD
102
}
330
A
100
AcDbSymbolTableRecord
100
AcDbDimStyleTableRecord
  2
STANDARD
 70
     0
  3

  4

  5

  6

  7

 40
1.0
 41
0.18
 42
0.0625
 43
0.38
 44
0.18
 45
0.0
 46
0.0
 47
0.0
 48
0.0
140
0.18
141
0.09
142
0.0
143
25.4
144
1.0
145
0.0
146
1.0
147
0.09
 71
     0
 72
     0
 73
     1
 74
     1
 75
     0
 76
     0
 77
     0
 78
     0
170
     0
171
     2
172
     0
173
     0
174
     0
175
     0
176
     0
177
     0
178
     0
270
     2
271
     4
272
     4
273
     2
274
     2
340
10
275
     0
280
     0
281
     0
282
     0
283
     1
284
     0
285
     0
286
     0
287
     3
288
     0
  0
ENDTAB
  0
TABLE
  2
BLOCK_RECORD
  5
1
330
0
100
AcDbSymbolTable
 70
    13
  0
BLOCK_RECORD
  5
1A
102
{ACAD_XDICTIONARY
360
7A2
102
}
330
1
100
AcDbSymbolTableRecord
100
AcDbBlockTableRecord
  2
*MODEL_SPACE
  0
BLOCK_RECORD
  5
17
102
{ACAD_XDICTIONARY
360
7A0
102
}
330
1
100
AcDbSymbolTableRecord
100
AcDbBlockTableRecord
  2
*PAPER_SPACE
  0
BLOCK_RECORD
  5
B2
330
1
100
AcDbSymbolTableRecord
100
AcDbBlockTableRecord
  2
_OPEN
  0
BLOCK_RECORD
  5
2074
330
1
100
AcDbSymbolTableRecord
100
AcDbBlockTableRecord
  2
*D1
  0
BLOCK_RECORD
  5
3A38
330
1
100
AcDbSymbolTableRecord
100
AcDbBlockTableRecord
  2
*D2
  0
BLOCK_RECORD
  5
3A44
330
1
100
AcDbSymbolTableRecord
100
AcDbBlockTableRecord
  2
*D3
  0
BLOCK_RECORD
  5
3A50
330
1
100
AcDbSymbolTableRecord
100
AcDbBlockTableRecord
  2
*D4
  0
BLOCK_RECORD
  5
3A5C
330
1
100
AcDbSymbolTableRecord
100
AcDbBlockTableRecord
  2
*D5
  0
BLOCK_RECORD
  5
3A68
330
1
100
AcDbSymbolTableRecord
100
AcDbBlockTableRecord
  2
*D6
  0
BLOCK_RECORD
  5
3A74
330
1
100
AcDbSymbolTableRecord
100
AcDbBlockTableRecord
  2
*D7
  0
BLOCK_RECORD
  5
3C2F
330
1
100
AcDbSymbolTableRecord
100
AcDbBlockTableRecord
  2
*D8
  0
BLOCK_RECORD
  5
3C49
330
1
100
AcDbSymbolTableRecord
100
AcDbBlockTableRecord
  2
*D9
  0
BLOCK_RECORD
  5
3C56
330
1
100
AcDbSymbolTableRecord
100
AcDbBlockTableRecord
  2
*D10
  0
BLOCK_RECORD
  5
3C63
330
1
100
AcDbSymbolTableRecord
100
AcDbBlockTableRecord
  2
*D11
  0
BLOCK_RECORD
  5
3FCE
330
1
100
AcDbSymbolTableRecord
100
AcDbBlockTableRecord
  2
*D12
  0
ENDTAB
  0
ENDSEC
  0
SECTION
  2
BLOCKS
  0
BLOCK
  5
1B
330
1A
100
AcDbEntity
  8
0
100
AcDbBlockBegin
  2
*MODEL_SPACE
 70
     0
 10
0.0
 20
0.0
 30
0.0
  3
*MODEL_SPACE
  1

  0
ENDBLK
  5
1C
330
1A
100
AcDbEntity
  8
0
100
AcDbBlockEnd
  0
BLOCK
  5
18
330
17
100
AcDbEntity
 67
     1
  8
0
100
AcDbBlockBegin
  2
*PAPER_SPACE
 70
     0
 10
0.0
 20
0.0
 30
0.0
  3
*PAPER_SPACE
  1

  0
ENDBLK
  5
19
330
17
100
AcDbEntity
 67
     1
  8
0
100
AcDbBlockEnd
  0
BLOCK
  5
B3
330
B2
100
AcDbEntity
  8
0
100
AcDbBlockBegin
  2
_OPEN
 70
     0
 10
0.0
 20
0.0
 30
0.0
  3
_OPEN
  1

  0
LINE
  5
B4
330
B2
100
AcDbEntity
  8
0
  6
BYBLOCK
 62
     0
100
AcDbLine
 10
-1.0
 20
0.1666666666666666
 30
0.0
 11
0.0
 21
0.0
 31
0.0
  0
LINE
  5
B5
330
B2
100
AcDbEntity
  8
0
  6
BYBLOCK
 62
     0
100
AcDbLine
 10
0.0
 20
0.0
 30
0.0
 11
-1.0
 21
-0.1666666666666666
 31
0.0
  0
LINE
  5
B6
330
B2
100
AcDbEntity
  8
0
  6
BYBLOCK
 62
     0
100
AcDbLine
 10
0.0
 20
0.0
 30
0.0
 11
-1.0
 21
0.0
 31
0.0
  0
ENDBLK
  5
B7
330
B2
100
AcDbEntity
  8
0
100
AcDbBlockEnd
  0
BLOCK
  5
207E
330
2074
100
AcDbEntity
  8
0
100
AcDbBlockBegin
  2
*D1
 70
     1
 10
0.0
 20
0.0
 30
0.0
  3
*D1
  1

  0
LINE
  5
4290
330
2074
100
AcDbEntity
  8
SUNPOU
100
AcDbLine
 10
74.02961457274665
 20
238.8746744800503
 30
0.0
 11
48.69880180440897
 21
238.8746744800503
 31
0.0
  0
LINE
  5
4291
330
2074
100
AcDbEntity
  8
SUNPOU
100
AcDbLine
 10
74.02961457274665
 20
218.8746744800503
 30
0.0
 11
48.69880180440897
 21
218.8746744800503
 31
0.0
  0
LINE
  5
4292
330
2074
100
AcDbEntity
  8
SUNPOU
100
AcDbLine
 10
50.19880180440897
 20
235.8746744800503
 30
0.0
 11
50.19880180440897
 21
221.8746744800503
 31
0.0
  0
INSERT
  5
4293
330
2074
100
AcDbEntity
  8
SUNPOU
100
AcDbBlockReference
  2
_OPEN
 10
50.19880180440897
 20
238.8746744800503
 30
0.0
 41
3.0
 42
3.0
 43
3.0
 50
90.0
  0
INSERT
  5
4294
330
2074
100
AcDbEntity
  8
SUNPOU
100
AcDbBlockReference
  2
_OPEN
 10
50.19880180440897
 20
218.8746744800503
 30
0.0
 41
3.0
 42
3.0
 43
3.0
 50
270.0
  0
MTEXT
  5
4295
330
2074
100
AcDbEntity
  8
SUNPOU
100
AcDbMText
 10
47.69880180440893
 20
228.8746744800503
 30
0.0
 40
3.0
 41
0.0
 71
     5
 72
     1
  1
\A1;20
 11
0.0000000000000001
 21
1.0
 31
0.0
1001
ACAD
1000
MTEXTBEGIN
1070
    73
1070
     1
1070
    44
1040
1.0
1070
    74
1070
     0
1000
MTEXTEND
  0
POINT
  5
4296
330
2074
100
AcDbEntity
  8
DEFPOINTS
 62
     0
100
AcDbPoint
 10
77.02961457274665
 20
238.8746744800503
 30
0.0
  0
POINT
  5
4297
330
2074
100
AcDbEntity
  8
DEFPOINTS
 62
     0
100
AcDbPoint
 10
77.02961457274665
 20
218.8746744800503
 30
0.0
  0
POINT
  5
4298
330
2074
100
AcDbEntity
  8
DEFPOINTS
 62
     0
100
AcDbPoint
 10
50.19880180440897
 20
218.8746744800503
 30
0.0
  0
ENDBLK
  5
207F
330
2074
100
AcDbEntity
  8
0
100
AcDbBlockEnd
  0
BLOCK
  5
3A42
330
3A38
100
AcDbEntity
  8
0
100
AcDbBlockBegin
  2
*D2
 70
     1
 10
0.0
 20
0.0
 30
0.0
  3
*D2
  1

  0
LINE
  5
42B4
330
3A38
100
AcDbEntity
  8
SUNPOU
100
AcDbLine
 10
289.3028645601463
 20
174.3197369624842
 30
0.0
 11
273.675830147919
 21
213.3881327210089
 31
0.0
  0
LINE
  5
42B5
330
3A38
100
AcDbEntity
  8
SUNPOU
100
AcDbLine
 10
346.8685839593244
 20
197.3455474814455
 30
0.0
 11
331.2415495470971
 21
236.4139432399701
 31
0.0
  0
LINE
  5
42B6
330
3A38
100
AcDbEntity
  8
SUNPOU
100
AcDbLine
 10
277.0183442443057
 20
213.109565825172
 30
0.0
 11
329.0131875725957
 21
233.9070721003628
 31
0.0
  0
INSERT
  5
42B7
330
3A38
100
AcDbEntity
  8
SUNPOU
100
AcDbBlockReference
  2
_OPEN
 10
274.2329062088616
 20
211.9954137032868
 30
0.0
 41
3.0
 42
3.0
 43
3.0
 50
201.8009999999998
  0
INSERT
  5
42B8
330
3A38
100
AcDbEntity
  8
SUNPOU
100
AcDbBlockReference
  2
_OPEN
 10
331.7986256080398
 20
235.0212242222481
 30
0.0
 41
3.0
 42
3.0
 43
3.0
 50
21.80099999999981
  0
MTEXT
  5
42B9
330
3A38
100
AcDbEntity
  8
SUNPOU
100
AcDbMText
 10
302.0873058068797
 20
225.8295173256375
 30
0.0
 40
3.0
 41
0.0
 71
     5
 72
     1
  1
\A1;62
 11
0.9284793451480323
 21
0.3713840406284056
 31
0.0
1001
ACAD
1000
MTEXTBEGIN
1070
    73
1070
     1
1070
    44
1040
1.0
1070
    74
1070
     0
1000
MTEXTEND
  0
POINT
  5
42BA
330
3A38
100
AcDbEntity
  8
DEFPOINTS
 62
     0
100
AcDbPoint
 10
290.4170166820316
 20
171.5342989270401
 30
0.0
  0
POINT
  5
42BB
330
3A38
100
AcDbEntity
  8
DEFPOINTS
 62
     0
100
AcDbPoint
 10
347.9827360812096
 20
194.5601094460014
 30
0.0
  0
POINT
  5
42BC
330
3A38
100
AcDbEntity
  8
DEFPOINTS
 62
     0
100
AcDbPoint
 10
331.7986256080398
 20
235.0212242222481
 30
0.0
  0
ENDBLK
  5
3A43
330
3A38
100
AcDbEntity
  8
0
100
AcDbBlockEnd
  0
BLOCK
  5
3A4E
330
3A44
100
AcDbEntity
  8
0
100
AcDbBlockBegin
  2
*D3
 70
     1
 10
0.0
 20
0.0
 30
0.0
  3
*D3
  1

  0
LINE
  5
42C8
330
3A44
100
AcDbEntity
  8
SUNPOU
100
AcDbLine
 10
297.2506562217874
 20
178.6835206078027
 30
0.0
 11
285.87394751389
 21
207.1258818712946
 31
0.0
  0
LINE
  5
42C9
330
3A44
100
AcDbEntity
  8
SUNPOU
100
AcDbLine
 10
338.1037474083007
 20
195.0244183954526
 30
0.0
 11
326.7270387004034
 21
223.4667796589444
 31
0.0
  0
LINE
  5
42CA
330
3A44
100
AcDbEntity
  8
SUNPOU
100
AcDbLine
 10
289.2164616102767
 20
206.8473149754578
 30
0.0
 11
324.4986767259019
 21
220.9599085193372
 31
0.0
  0
INSERT
  5
42CB
330
3A44
100
AcDbEntity
  8
SUNPOU
100
AcDbBlockReference
  2
_OPEN
 10
286.4310235748326
 20
205.7331628535726
 30
0.0
 41
3.0
 42
3.0
 43
3.0
 50
201.8009999999998
  0
INSERT
  5
42CC
330
3A44
100
AcDbEntity
  8
SUNPOU
100
AcDbBlockReference
  2
_OPEN
 10
327.284114761346
 20
222.0740606412224
 30
0.0
 41
3.0
 42
3.0
 43
3.0
 50
21.80099999999981
  0
MTEXT
  5
42CD
330
3A44
100
AcDbEntity
  8
SUNPOU
100
AcDbMText
 10
305.9291090665183
 20
216.2248101102675
 30
0.0
 40
3.0
 41
0.0
 71
     5
 72
     1
  1
\A1;44
 11
0.9284793451480323
 21
0.3713840406284056
 31
0.0
1001
ACAD
1000
MTEXTBEGIN
1070
    73
1070
     1
1070
    44
1040
1.0
1070
    74
1070
     0
1000
MTEXTEND
  0
POINT
  5
42CE
330
3A44
100
AcDbEntity
  8
DEFPOINTS
 62
     0
100
AcDbPoint
 10
298.3648083436726
 20
175.8980825723586
 30
0.0
  0
POINT
  5
42CF
330
3A44
100
AcDbEntity
  8
DEFPOINTS
 62
     0
100
AcDbPoint
 10
339.2178995301859
 20
192.2389803600085
 30
0.0
  0
POINT
  5
42D0
330
3A44
100
AcDbEntity
  8
DEFPOINTS
 62
     0
100
AcDbPoint
 10
327.284114761346
 20
222.0740606412224
 30
0.0
  0
ENDBLK
  5
3A4F
330
3A44
100
AcDbEntity
  8
0
100
AcDbBlockEnd
  0
BLOCK
  5
3A5A
330
3A50
100
AcDbEntity
  8
0
100
AcDbBlockBegin
  2
*D4
 70
     1
 10
0.0
 20
0.0
 30
0.0
  3
*D4
  1

  0
LINE
  5
42A2
330
3A50
100
AcDbEntity
  8
SUNPOU
100
AcDbLine
 10
289.3028645601465
 20
174.3197369624841
 30
0.0
 11
265.4071517200125
 21
164.7616499305639
 31
0.0
  0
LINE
  5
42A3
330
3A50
100
AcDbEntity
  8
SUNPOU
100
AcDbLine
 10
302.3013059821408
 20
141.8229598823031
 30
0.0
 11
278.405593142007
 21
132.2648728503829
 31
0.0
  0
LINE
  5
42A4
330
3A50
100
AcDbEntity
  8
SUNPOU
100
AcDbLine
 10
267.9140228596198
 20
162.5332879560624
 30
0.0
 11
278.6841600378438
 21
135.6073869467696
 31
0.0
  0
INSERT
  5
42A5
330
3A50
100
AcDbEntity
  8
SUNPOU
100
AcDbBlockReference
  2
_OPEN
 10
266.7998707377346
 20
165.3187259915065
 30
0.0
 41
3.0
 42
3.0
 43
3.0
 50
111.8010000000003
  0
INSERT
  5
42A6
330
3A50
100
AcDbEntity
  8
SUNPOU
100
AcDbBlockReference
  2
_OPEN
 10
279.7983121597291
 20
132.8219489113255
 30
0.0
 41
3.0
 42
3.0
 43
3.0
 50
291.8010000000003
  0
MTEXT
  5
42A7
330
3A50
100
AcDbEntity
  8
SUNPOU
100
AcDbMText
 10
275.6202898116018
 20
149.998797552987
 30
0.0
 40
3.0
 41
0.0
 71
     5
 72
     1
  1
\A1;35
 11
0.3713840406284137
 21
-0.9284793451480291
 31
0.0
1001
ACAD
1000
MTEXTBEGIN
1070
    73
1070
     1
1070
    44
1040
1.0
1070
    74
1070
     0
1000
MTEXTEND
  0
POINT
  5
42A8
330
3A50
100
AcDbEntity
  8
DEFPOINTS
 62
     0
100
AcDbPoint
 10
292.0883025955906
 20
175.4338890843694
 30
0.0
  0
POINT
  5
42A9
330
3A50
100
AcDbEntity
  8
DEFPOINTS
 62
     0
100
AcDbPoint
 10
305.0867440175849
 20
142.9371120041883
 30
0.0
  0
POINT
  5
42AA
330
3A50
100
AcDbEntity
  8
DEFPOINTS
 62
     0
100
AcDbPoint
 10
279.7983121597291
 20
132.8219489113255
 30
0.0
  0
ENDBLK
  5
3A5B
330
3A50
100
AcDbEntity
  8
0
100
AcDbBlockEnd
  0
BLOCK
  5
3A66
330
3A5C
100
AcDbEntity
  8
0
100
AcDbBlockBegin
  2
*D5
 70
     1
 10
0.0
 20
0.0
 30
0.0
  3
*D5
  1

  0
LINE
  5
42AB
330
3A5C
100
AcDbEntity
  8
SUNPOU
100
AcDbLine
 10
268.6491236256505
 20
166.0584118156954
 30
0.0
 11
286.8022823994042
 21
173.3195248289213
 31
0.0
  0
LINE
  5
42AC
330
3A5C
100
AcDbEntity
  8
SUNPOU
100
AcDbLine
 10
281.647565047645
 20
133.5616347355143
 30
0.0
 11
299.8007238213988
 21
140.8227477487402
 31
0.0
  0
LINE
  5
42AD
330
3A5C
100
AcDbEntity
  8
SUNPOU
100
AcDbLine
 10
286.5237155035675
 20
169.9770107325346
 30
0.0
 11
297.2938526817914
 21
143.0511097232417
 31
0.0
  0
INSERT
  5
42AE
330
3A5C
100
AcDbEntity
  8
SUNPOU
100
AcDbBlockReference
  2
_OPEN
 10
285.4095633816822
 20
172.7624487679787
 30
0.0
 41
3.0
 42
3.0
 43
3.0
 50
111.8010000000003
  0
INSERT
  5
42AF
330
3A5C
100
AcDbEntity
  8
SUNPOU
100
AcDbBlockReference
  2
_OPEN
 10
298.4080048036767
 20
140.2656716877976
 30
0.0
 41
3.0
 42
3.0
 43
3.0
 50
291.8010000000003
  0
MTEXT
  5
42B0
330
3A5C
100
AcDbEntity
  8
SUNPOU
100
AcDbMText
 10
294.2299824555494
 20
157.4425203294592
 30
0.0
 40
3.0
 41
0.0
 71
     5
 72
     1
  1
\A1;35
 11
0.3713840406284137
 21
-0.9284793451480291
 31
0.0
1001
ACAD
1000
MTEXTBEGIN
1070
    73
1070
     1
1070
    44
1040
1.0
1070
    74
1070
     0
1000
MTEXTEND
  0
POINT
  5
42B1
330
3A5C
100
AcDbEntity
  8
DEFPOINTS
 62
     0
100
AcDbPoint
 10
265.8636855902064
 20
164.9442596938101
 30
0.0
  0
POINT
  5
42B2
330
3A5C
100
AcDbEntity
  8
DEFPOINTS
 62
     0
100
AcDbPoint
 10
278.8621270122009
 20
132.4474826136291
 30
0.0
  0
POINT
  5
42B3
330
3A5C
100
AcDbEntity
  8
DEFPOINTS
 62
     0
100
AcDbPoint
 10
298.4080048036767
 20
140.2656716877976
 30
0.0
  0
ENDBLK
  5
3A67
330
3A5C
100
AcDbEntity
  8
0
100
AcDbBlockEnd
  0
BLOCK
  5
3A72
330
3A68
100
AcDbEntity
  8
0
100
AcDbBlockBegin
  2
*D6
 70
     1
 10
0.0
 20
0.0
 30
0.0
  3
*D6
  1

  0
LINE
  5
4299
330
3A68
100
AcDbEntity
  8
SUNPOU
100
AcDbLine
 10
299.2373857225985
 20
149.2136562394245
 30
0.0
 11
284.7363788160443
 21
143.4133736954137
 31
0.0
  0
LINE
  5
429A
330
3A68
100
AcDbEntity
  8
SUNPOU
100
AcDbLine
 10
302.3013059821408
 20
141.8229598823031
 30
0.0
 11
287.7074511410717
 21
135.9855389342294
 31
0.0
  0
LINE
  5
429B
330
3A68
100
AcDbEntity
  8
SUNPOU
100
AcDbLine
 10
287.2432499556516
 20
141.1850117209123
 30
0.0
 11
287.9860180369084
 21
139.3280530306161
 31
0.0
  0
INSERT
  5
429C
330
3A68
100
AcDbEntity
  8
SUNPOU
100
AcDbBlockReference
  2
_OPEN
 10
286.1290978337663
 20
143.9704497563564
 30
0.0
 41
3.0
 42
3.0
 43
3.0
 50
111.8010000000003
  0
INSERT
  5
429D
330
3A68
100
AcDbEntity
  8
SUNPOU
100
AcDbBlockReference
  2
_OPEN
 10
289.1001701587937
 20
136.5426149951721
 30
0.0
 41
3.0
 42
3.0
 43
3.0
 50
291.8010000000003
  0
MTEXT
  5
429E
330
3A68
100
AcDbEntity
  8
SUNPOU
100
AcDbMText
 10
289.9358323591501
 20
141.1849924773352
 30
0.0
 40
3.0
 41
0.0
 71
     5
 72
     1
  1
\A1;8
 11
0.3713840406284137
 21
-0.9284793451480291
 31
0.0
1001
ACAD
1000
MTEXTBEGIN
1070
    73
1070
     1
1070
    44
1040
1.0
1070
    74
1070
     0
1000
MTEXTEND
  0
POINT
  5
429F
330
3A68
100
AcDbEntity
  8
DEFPOINTS
 62
     0
100
AcDbPoint
 10
302.0228237580425
 20
150.3278083613097
 30
0.0
  0
POINT
  5
42A0
330
3A68
100
AcDbEntity
  8
DEFPOINTS
 62
     0
100
AcDbPoint
 10
305.0867440175849
 20
142.9371120041883
 30
0.0
  0
POINT
  5
42A1
330
3A68
100
AcDbEntity
  8
DEFPOINTS
 62
     0
100
AcDbPoint
 10
289.1001701587937
 20
136.5426149951721
 30
0.0
  0
ENDBLK
  5
3A73
330
3A68
100
AcDbEntity
  8
0
100
AcDbBlockEnd
  0
BLOCK
  5
3A80
330
3A74
100
AcDbEntity
  8
0
100
AcDbBlockBegin
  2
*D7
 70
     1
 10
0.0
 20
0.0
 30
0.0
  3
*D7
  1

  0
LINE
  5
42BD
330
3A74
100
AcDbEntity
  8
SUNPOU
100
AcDbLine
 10
289.3028645601465
 20
174.3197369624841
 30
0.0
 11
274.7090097190773
 21
168.4823160144105
 31
0.0
  0
LINE
  5
42BE
330
3A74
100
AcDbEntity
  8
SUNPOU
100
AcDbLine
 10
292.1810889506587
 20
166.854763797237
 30
0.0
 11
277.6800820441045
 21
161.0544812532263
 31
0.0
  0
LINE
  5
42BF
330
3A74
100
AcDbEntity
  8
SUNPOU
100
AcDbLine
 10
274.9875766149141
 20
171.8248301107972
 30
0.0
 11
273.8734244930288
 21
174.6102681462413
 31
0.0
  0
LINE
  5
42C0
330
3A74
100
AcDbEntity
  8
SUNPOU
100
AcDbLine
 10
280.1869531837118
 20
158.8261192787248
 30
0.0
 11
281.3011053055971
 21
156.0406812432808
 31
0.0
  0
LINE
  5
42C1
330
3A74
100
AcDbEntity
  8
SUNPOU
100
AcDbLine
 10
276.1017287367993
 20
169.0393920753531
 30
0.0
 11
279.0728010618266
 21
161.6115573141689
 31
0.0
  0
INSERT
  5
42C2
330
3A74
100
AcDbEntity
  8
SUNPOU
100
AcDbBlockReference
  2
_OPEN
 10
276.1017287367993
 20
169.0393920753531
 30
0.0
 41
3.0
 42
3.0
 43
3.0
 50
291.8010000000003
  0
INSERT
  5
42C3
330
3A74
100
AcDbEntity
  8
SUNPOU
100
AcDbBlockReference
  2
_OPEN
 10
279.0728010618266
 20
161.6115573141689
 30
0.0
 41
3.0
 42
3.0
 43
3.0
 50
111.8010000000003
  0
MTEXT
  5
42C4
330
3A74
100
AcDbEntity
  8
SUNPOU
100
AcDbMText
 10
279.908463262183
 20
166.2539347963321
 30
0.0
 40
3.0
 41
0.0
 71
     5
 72
     1
  1
\A1;8
 11
0.3713840406284137
 21
-0.9284793451480291
 31
0.0
1001
ACAD
1000
MTEXTBEGIN
1070
    73
1070
     1
1070
    44
1040
1.0
1070
    74
1070
     0
1000
MTEXTEND
  0
POINT
  5
42C5
330
3A74
100
AcDbEntity
  8
DEFPOINTS
 62
     0
100
AcDbPoint
 10
292.0883025955906
 20
175.4338890843694
 30
0.0
  0
POINT
  5
42C6
330
3A74
100
AcDbEntity
  8
DEFPOINTS
 62
     0
100
AcDbPoint
 10
294.9665269861028
 20
167.9689159191223
 30
0.0
  0
POINT
  5
42C7
330
3A74
100
AcDbEntity
  8
DEFPOINTS
 62
     0
100
AcDbPoint
 10
279.0728010618266
 20
161.6115573141689
 30
0.0
  0
ENDBLK
  5
3A81
330
3A74
100
AcDbEntity
  8
0
100
AcDbBlockEnd
  0
BLOCK
  5
3C39
330
3C2F
100
AcDbEntity
  8
0
100
AcDbBlockBegin
  2
*D8
 70
     1
 10
0.0
 20
0.0
 30
0.0
  3
*D8
  1

  0
LINE
  5
427E
330
3C2F
100
AcDbEntity
  8
SUNPOU
100
AcDbLine
 10
77.02961457274665
 20
83.96134237692866
 30
0.0
 11
77.02961457274665
 21
179.8491493404877
 31
0.0
  0
LINE
  5
427F
330
3C2F
100
AcDbEntity
  8
SUNPOU
100
AcDbLine
 10
216.0306330496908
 20
104.9913457769287
 30
0.0
 11
216.0306330496908
 21
179.8491493404877
 31
0.0
  0
LINE
  5
4280
330
3C2F
100
AcDbEntity
  8
SUNPOU
100
AcDbLine
 10
80.02961457274665
 20
178.3491493404877
 30
0.0
 11
213.0306330496908
 21
178.3491493404877
 31
0.0
  0
INSERT
  5
4281
330
3C2F
100
AcDbEntity
  8
SUNPOU
100
AcDbBlockReference
  2
_OPEN
 10
77.02961457274665
 20
178.3491493404877
 30
0.0
 41
3.0
 42
3.0
 43
3.0
 50
180.0
  0
INSERT
  5
4282
330
3C2F
100
AcDbEntity
  8
SUNPOU
100
AcDbBlockReference
  2
_OPEN
 10
216.0306330496908
 20
178.3491493404877
 30
0.0
 41
3.0
 42
3.0
 43
3.0
  0
MTEXT
  5
4283
330
3C2F
100
AcDbEntity
  8
SUNPOU
100
AcDbMText
 10
146.5301238112187
 20
180.8491493404877
 30
0.0
 40
3.0
 41
0.0
 71
     5
 72
     1
  1
\A1;139
1001
ACAD
1000
MTEXTBEGIN
1070
    73
1070
     1
1070
    44
1040
1.0
1070
    74
1070
     0
1000
MTEXTEND
  0
POINT
  5
4284
330
3C2F
100
AcDbEntity
  8
DEFPOINTS
 62
     0
100
AcDbPoint
 10
77.02961457274665
 20
80.96134237692865
 30
0.0
  0
POINT
  5
4285
330
3C2F
100
AcDbEntity
  8
DEFPOINTS
 62
     0
100
AcDbPoint
 10
216.0306330496908
 20
101.9913457769286
 30
0.0
  0
POINT
  5
4286
330
3C2F
100
AcDbEntity
  8
DEFPOINTS
 62
     0
100
AcDbPoint
 10
216.0306330496908
 20
178.3491493404877
 30
0.0
  0
ENDBLK
  5
3C3A
330
3C2F
100
AcDbEntity
  8
0
100
AcDbBlockEnd
  0
BLOCK
  5
3C53
330
3C49
100
AcDbEntity
  8
0
100
AcDbBlockBegin
  2
*D9
 70
     1
 10
0.0
 20
0.0
 30
0.0
  3
*D9
  1

  0
LINE
  5
426C
330
3C49
100
AcDbEntity
  8
SUNPOU
100
AcDbLine
 10
204.7899154127389
 20
138.891285869443
 30
0.0
 11
226.4538331059104
 21
148.0303822314253
 31
0.0
  0
LINE
  5
426D
330
3C49
100
AcDbEntity
  8
SUNPOU
100
AcDbLine
 10
217.7883569127389
 20
108.0789215347237
 30
0.0
 11
239.4522746059104
 21
117.218017896706
 31
0.0
  0
LINE
  5
426E
330
3C49
100
AcDbEntity
  8
SUNPOU
100
AcDbLine
 10
226.2378399937094
 20
144.6832421125355
 30
0.0
 11
236.9041583781192
 21
119.3990964578008
 31
0.0
  0
INSERT
  5
426F
330
3C49
100
AcDbEntity
  8
SUNPOU
100
AcDbBlockReference
  2
_OPEN
 10
225.0717784359143
 20
147.4473514525277
 30
0.0
 41
3.0
 42
3.0
 43
3.0
 50
112.872836910919
  0
INSERT
  5
4270
330
3C49
100
AcDbEntity
  8
SUNPOU
100
AcDbBlockReference
  2
_OPEN
 10
238.0702199359144
 20
116.6349871178085
 30
0.0
 41
3.0
 42
3.0
 43
3.0
 50
292.872836910919
  0
MTEXT
  5
4271
330
3C49
100
AcDbEntity
  8
SUNPOU
100
AcDbMText
 10
233.8744236359079
 20
133.0128872499974
 30
0.0
 40
3.0
 41
0.0
 71
     5
 72
     1
  1
\A1;33
 11
0.3886871859317015
 21
-0.9213697799974204
 31
0.0
1001
ACAD
1000
MTEXTBEGIN
1070
    73
1070
     1
1070
    44
1040
1.0
1070
    74
1070
     0
1000
MTEXTEND
  0
POINT
  5
4272
330
3C49
100
AcDbEntity
  8
DEFPOINTS
 62
     0
100
AcDbPoint
 10
202.0258060727466
 20
137.7252243116479
 30
0.0
  0
POINT
  5
4273
330
3C49
100
AcDbEntity
  8
DEFPOINTS
 62
     0
100
AcDbPoint
 10
215.0242475727467
 20
106.9128599769286
 30
0.0
  0
POINT
  5
4274
330
3C49
100
AcDbEntity
  8
DEFPOINTS
 62
     0
100
AcDbPoint
 10
238.0702199359144
 20
116.6349871178085
 30
0.0
  0
ENDBLK
  5
3C54
330
3C49
100
AcDbEntity
  8
0
100
AcDbBlockEnd
  0
BLOCK
  5
3C60
330
3C56
100
AcDbEntity
  8
0
100
AcDbBlockBegin
  2
*D10
 70
     1
 10
0.0
 20
0.0
 30
0.0
  3
*D10
  1

  0
LINE
  5
4263
330
3C56
100
AcDbEntity
  8
SUNPOU
100
AcDbLine
 10
216.910095426158
 20
259.8746744800503
 30
0.0
 11
239.4670046099438
 21
259.8746744800503
 31
0.0
  0
LINE
  5
4264
330
3C56
100
AcDbEntity
  8
SUNPOU
100
AcDbLine
 10
216.910095426158
 20
197.8746744800503
 30
0.0
 11
239.4670046099438
 21
197.8746744800503
 31
0.0
  0
LINE
  5
4265
330
3C56
100
AcDbEntity
  8
SUNPOU
100
AcDbLine
 10
237.9670046099438
 20
256.8746744800503
 30
0.0
 11
237.9670046099438
 21
200.8746744800503
 31
0.0
  0
INSERT
  5
4266
330
3C56
100
AcDbEntity
  8
SUNPOU
100
AcDbBlockReference
  2
_OPEN
 10
237.9670046099438
 20
259.8746744800503
 30
0.0
 41
3.0
 42
3.0
 43
3.0
 50
90.0
  0
INSERT
  5
4267
330
3C56
100
AcDbEntity
  8
SUNPOU
100
AcDbBlockReference
  2
_OPEN
 10
237.9670046099438
 20
197.8746744800503
 30
0.0
 41
3.0
 42
3.0
 43
3.0
 50
270.0
  0
MTEXT
  5
4268
330
3C56
100
AcDbEntity
  8
SUNPOU
100
AcDbMText
 10
235.4670046099438
 20
228.8746744800503
 30
0.0
 40
3.0
 41
0.0
 71
     5
 72
     1
  1
\A1;62
 11
0.0000000000000001
 21
1.0
 31
0.0
1001
ACAD
1000
MTEXTBEGIN
1070
    73
1070
     1
1070
    44
1040
1.0
1070
    74
1070
     0
1000
MTEXTEND
  0
POINT
  5
4269
330
3C56
100
AcDbEntity
  8
DEFPOINTS
 62
     0
100
AcDbPoint
 10
213.910095426158
 20
259.8746744800503
 30
0.0
  0
POINT
  5
426A
330
3C56
100
AcDbEntity
  8
DEFPOINTS
 62
     0
100
AcDbPoint
 10
213.910095426158
 20
197.8746744800503
 30
0.0
  0
POINT
  5
426B
330
3C56
100
AcDbEntity
  8
DEFPOINTS
 62
     0
100
AcDbPoint
 10
237.9670046099438
 20
197.8746744800503
 30
0.0
  0
ENDBLK
  5
3C61
330
3C56
100
AcDbEntity
  8
0
100
AcDbBlockEnd
  0
BLOCK
  5
3C6D
330
3C63
100
AcDbEntity
  8
0
100
AcDbBlockBegin
  2
*D11
 70
     1
 10
0.0
 20
0.0
 30
0.0
  3
*D11
  1

  0
LINE
  5
4275
330
3C63
100
AcDbEntity
  8
SUNPOU
100
AcDbLine
 10
129.5296145727466
 20
85.26134237692868
 30
0.0
 11
129.5296145727466
 21
170.6803744500991
 31
0.0
  0
LINE
  5
4276
330
3C63
100
AcDbEntity
  8
SUNPOU
100
AcDbLine
 10
216.0306330496908
 20
104.9913457769287
 30
0.0
 11
216.0306330496908
 21
170.6803744500991
 31
0.0
  0
LINE
  5
4277
330
3C63
100
AcDbEntity
  8
SUNPOU
100
AcDbLine
 10
132.5296145727466
 20
169.1803744500991
 30
0.0
 11
213.0306330496908
 21
169.1803744500991
 31
0.0
  0
INSERT
  5
4278
330
3C63
100
AcDbEntity
  8
SUNPOU
100
AcDbBlockReference
  2
_OPEN
 10
129.5296145727466
 20
169.1803744500991
 30
0.0
 41
3.0
 42
3.0
 43
3.0
 50
180.0
  0
INSERT
  5
4279
330
3C63
100
AcDbEntity
  8
SUNPOU
100
AcDbBlockReference
  2
_OPEN
 10
216.0306330496908
 20
169.1803744500991
 30
0.0
 41
3.0
 42
3.0
 43
3.0
  0
MTEXT
  5
427A
330
3C63
100
AcDbEntity
  8
SUNPOU
100
AcDbMText
 10
172.7801238112187
 20
171.6803744500991
 30
0.0
 40
3.0
 41
0.0
 71
     5
 72
     1
  1
\A1;87
1001
ACAD
1000
MTEXTBEGIN
1070
    73
1070
     1
1070
    44
1040
1.0
1070
    74
1070
     0
1000
MTEXTEND
  0
POINT
  5
427B
330
3C63
100
AcDbEntity
  8
DEFPOINTS
 62
     0
100
AcDbPoint
 10
129.5296145727466
 20
82.26134237692868
 30
0.0
  0
POINT
  5
427C
330
3C63
100
AcDbEntity
  8
DEFPOINTS
 62
     0
100
AcDbPoint
 10
216.0306330496908
 20
101.9913457769286
 30
0.0
  0
POINT
  5
427D
330
3C63
100
AcDbEntity
  8
DEFPOINTS
 62
     0
100
AcDbPoint
 10
216.0306330496908
 20
169.1803744500991
 30
0.0
  0
ENDBLK
  5
3C6E
330
3C63
100
AcDbEntity
  8
0
100
AcDbBlockEnd
  0
BLOCK
  5
3FD8
330
3FCE
100
AcDbEntity
  8
0
100
AcDbBlockBegin
  2
*D12
 70
     1
 10
0.0
 20
0.0
 30
0.0
  3
*D12
  1

  0
LINE
  5
4287
330
3FCE
100
AcDbEntity
  8
SUNPOU
100
AcDbLine
 10
74.02961457274665
 20
82.64575514220938
 30
0.0
 11
48.69880180440895
 21
82.64575514220938
 31
0.0
  0
LINE
  5
4288
330
3FCE
100
AcDbEntity
  8
SUNPOU
100
AcDbLine
 10
199.0257346930287
 20
137.7251957603518
 30
0.0
 11
48.69880180440896
 21
137.7251957603518
 31
0.0
  0
LINE
  5
4289
330
3FCE
100
AcDbEntity
  8
SUNPOU
100
AcDbLine
 10
50.19880180440895
 20
85.64575514220939
 30
0.0
 11
50.19880180440896
 21
134.7251957603518
 31
0.0
  0
INSERT
  5
428A
330
3FCE
100
AcDbEntity
  8
SUNPOU
100
AcDbBlockReference
  2
_OPEN
 10
50.19880180440895
 20
82.64575514220938
 30
0.0
 41
3.0
 42
3.0
 43
3.0
 50
270.0
  0
INSERT
  5
428B
330
3FCE
100
AcDbEntity
  8
SUNPOU
100
AcDbBlockReference
  2
_OPEN
 10
50.19880180440896
 20
137.7251957603518
 30
0.0
 41
3.0
 42
3.0
 43
3.0
 50
90.0
  0
MTEXT
  5
428C
330
3FCE
100
AcDbEntity
  8
SUNPOU
100
AcDbMText
 10
47.69880180440893
 20
110.1854754512806
 30
0.0
 40
3.0
 41
0.0
 71
     5
 72
     1
  1
\A1;55
 11
0.0000000000000001
 21
1.0
 31
0.0
1001
ACAD
1000
MTEXTBEGIN
1070
    73
1070
     1
1070
    44
1040
1.0
1070
    74
1070
     0
1000
MTEXTEND
  0
POINT
  5
428D
330
3FCE
100
AcDbEntity
  8
DEFPOINTS
 62
     0
100
AcDbPoint
 10
77.02961457274665
 20
82.64575514220938
 30
0.0
  0
POINT
  5
428E
330
3FCE
100
AcDbEntity
  8
DEFPOINTS
 62
     0
100
AcDbPoint
 10
202.0257346930287
 20
137.7251957603518
 30
0.0
  0
POINT
  5
428F
330
3FCE
100
AcDbEntity
  8
DEFPOINTS
 62
     0
100
AcDbPoint
 10
50.19880180440896
 20
137.7251957603518
 30
0.0
  0
ENDBLK
  5
3FD9
330
3FCE
100
AcDbEntity
  8
0
100
AcDbBlockEnd
  0
ENDSEC
  0
SECTION
  2
ENTITIES
  0
TEXT
  5
9D
330
1A
100
AcDbEntity
  8
ZUWAKU
 48
5.0
100
AcDbText
 10
327.1013476411085
 20
8.060146781246267
 30
0.0
 40
4.0
  1

100
AcDbText
  0
ARC
  5
5A7
330
1A
100
AcDbEntity
  8
NOKITOI
  6
PHANTOM
 62
     8
100
AcDbCircle
 10
125.366641069517
 20
76.73876961857942
 30
0.0
 40
43.00001447645168
100
AcDbArc
 50
186.5249107071177
 51
269.9998883751437
  0
ARC
  5
5A8
330
1A
100
AcDbEntity
  8
NOKITOI
  6
PHANTOM
 62
     8
100
AcDbCircle
 10
125.3666633779423
 20
76.73874951755303
 30
0.0
 40
41.79999437547816
100
AcDbArc
 50
184.4742952125247
 51
269.999854592109
  0
LINE
  5
5A9
330
1A
100
AcDbEntity
  8
NOKITOI
  6
PHANTOM
 62
     8
100
AcDbLine
 10
75.15565729597415
 20
75.87635514220934
 30
0.0
 11
75.07015729597447
 21
78.61385514220931
 31
0.0
  0
LINE
  5
5AA
330
1A
100
AcDbEntity
  8
NOKITOI
  6
PHANTOM
 62
     8
100
AcDbLine
 10
73.61755729597439
 20
86.67625514220933
 30
0.0
 11
74.00775729597421
 21
74.19195514220925
 31
0.0
  0
LINE
  5
5AB
330
1A
100
AcDbEntity
  8
NOKITOI
  6
PHANTOM
 62
     8
100
AcDbLine
 10
83.19555729597482
 20
73.93875514220937
 30
0.0
 11
77.1546572959744
 21
73.93875514220937
 31
0.0
  0
ARC
  5
5AC
330
1A
100
AcDbEntity
  8
NOKITOI
  6
PHANTOM
 62
     8
100
AcDbCircle
 10
81.65164887181186
 20
71.73876265726582
 30
0.0
 40
0.9999924849789756
100
AcDbArc
 50
6.528264606673934
 51
89.99951732740965
  0
LINE
  5
5AD
330
1A
100
AcDbEntity
  8
NOKITOI
  6
PHANTOM
 62
     8
100
AcDbLine
 10
75.50695729597442
 20
72.73875514220932
 30
0.0
 11
81.65165729597424
 21
72.73875514220932
 31
0.0
  0
ARC
  5
5AE
330
1A
100
AcDbEntity
  8
NOKITOI
  6
PHANTOM
 62
     8
100
AcDbCircle
 10
77.15467086811282
 20
75.93874198712294
 30
0.0
 40
1.999986844959662
100
AcDbArc
 50
181.7875531852356
 51
269.9996111843215
  0
ARC
  5
5AF
330
1A
100
AcDbEntity
  8
NOKITOI
  6
PHANTOM
 62
     8
100
AcDbCircle
 10
75.50699325512528
 20
74.2387202880661
 30
0.0
 40
1.499965146287778
100
AcDbArc
 50
181.7866280217767
 51
269.9986264296971
  0
ARC
  5
5B0
330
1A
100
AcDbEntity
  8
NOKITOI
  6
PHANTOM
 62
     8
100
AcDbCircle
 10
83.19556986568272
 20
73.43874351747965
 30
0.0
 40
0.5000116248877111
100
AcDbArc
 50
4.474846808342103
 51
90.00144034898383
  0
ARC
  5
5B1
330
1A
100
AcDbEntity
  8
NOKITOI
  6
PHANTOM
 62
     8
100
AcDbCircle
 10
75.61657004682434
 20
86.73876829729577
 30
0.0
 40
1.999986844954076
100
AcDbArc
 50
90.00036528735451
 51
181.7883072882703
  0
LINE
  5
5B2
330
1A
100
AcDbEntity
  8
NOKITOI
  6
PHANTOM
 62
     8
100
AcDbLine
 10
81.89445729597423
 20
86.23875514220932
 30
0.0
 11
79.66295729597437
 21
86.23875514220932
 31
0.0
  0
ARC
  5
5B3
330
1A
100
AcDbEntity
  8
NOKITOI
  6
PHANTOM
 62
     8
100
AcDbCircle
 10
81.57865040897945
 20
79.73874860712382
 30
0.0
 40
0.499993464961963
100
AcDbArc
 50
270.0007892017869
 51
356.997036131742
  0
LINE
  5
5B4
330
1A
100
AcDbEntity
  8
NOKITOI
  6
PHANTOM
 62
     8
100
AcDbLine
 10
80.91455729597441
 20
80.43875514220937
 30
0.0
 11
81.09575729597441
 21
83.8802551422095
 31
0.0
  0
LINE
  5
5B5
330
1A
100
AcDbEntity
  8
NOKITOI
  6
PHANTOM
 62
     8
100
AcDbLine
 10
80.54075729597457
 20
83.26715514220925
 30
0.0
 11
81.09575729597441
 21
83.8802551422095
 31
0.0
  0
ARC
  5
5B6
330
1A
100
AcDbEntity
  8
NOKITOI
  6
PHANTOM
 62
     8
100
AcDbCircle
 10
79.06827750864363
 20
78.73881387058938
 30
0.0
 40
5.2000412730095
100
AcDbArc
 50
90.0013245430618
 51
142.0757990790548
  0
LINE
  5
5B7
330
1A
100
AcDbEntity
  8
NOKITOI
  6
PHANTOM
 62
     8
100
AcDbLine
 10
74.81695729597482
 20
86.71375514220924
 30
0.0
 11
74.96635729597414
 21
81.93485514220943
 31
0.0
  0
ARC
  5
5B8
330
1A
100
AcDbEntity
  8
NOKITOI
  6
PHANTOM
 62
     8
100
AcDbCircle
 10
79.06819517742111
 20
78.73879892473471
 30
0.0
 40
3.999989731271038
100
AcDbArc
 50
96.47731142013116
 51
181.7899836067311
  0
ARC
  5
5B9
330
1A
100
AcDbEntity
  8
NOKITOI
  6
PHANTOM
 62
     8
100
AcDbCircle
 10
78.67337151438983
 20
82.21644050790834
 30
0.0
 40
0.5000073448410256
100
AcDbArc
 50
351.872947864124
 51
96.47829282996921
  0
LINE
  5
5BA
330
1A
100
AcDbEntity
  8
NOKITOI
  6
PHANTOM
 62
     8
100
AcDbLine
 10
80.13665729597482
 20
80.43875514220937
 30
0.0
 11
80.54075729597457
 21
83.26715514220925
 31
0.0
  0
LINE
  5
5BB
330
1A
100
AcDbEntity
  8
NOKITOI
  6
PHANTOM
 62
     8
100
AcDbLine
 10
80.91455729597441
 20
80.43875514220937
 30
0.0
 11
80.13665729597482
 21
80.43875514220937
 31
0.0
  0
ARC
  5
5BC
330
1A
100
AcDbEntity
  8
NOKITOI
  6
PHANTOM
 62
     8
100
AcDbCircle
 10
79.3295838965721
 20
79.73872446532729
 30
0.0
 40
0.4999693238254178
100
AcDbArc
 50
171.8555038770531
 51
269.9969516090356
  0
LINE
  5
5BD
330
1A
100
AcDbEntity
  8
NOKITOI
  6
PHANTOM
 62
     8
100
AcDbLine
 10
81.57865729597437
 20
79.23875514220933
 30
0.0
 11
79.32955729597438
 21
79.23875514220933
 31
0.0
  0
LINE
  5
5BE
330
1A
100
AcDbEntity
  8
NOKITOI
  6
PHANTOM
 62
     8
100
AcDbLine
 10
78.83465729597424
 20
79.80955514220951
 30
0.0
 11
79.16835729597437
 21
82.14575514220948
 31
0.0
  0
LINE
  5
5BF
330
1A
100
AcDbEntity
  8
NOKITOI
  6
PHANTOM
 62
     8
100
AcDbLine
 10
78.08935729597465
 20
87.53875514220951
 30
0.0
 11
77.58935729597465
 21
85.03875514220951
 31
0.0
  0
LINE
  5
5C0
330
1A
100
AcDbEntity
  8
NOKITOI
  6
PHANTOM
 62
     8
100
AcDbLine
 10
77.58935729597465
 20
85.03875514220951
 30
0.0
 11
80.52585729597444
 21
85.03875514220951
 31
0.0
  0
LINE
  5
5C1
330
1A
100
AcDbEntity
  8
NOKITOI
  6
PHANTOM
 62
     8
100
AcDbLine
 10
75.61655729597418
 20
88.73875514220932
 30
0.0
 11
78.94315729597451
 21
88.73875514220932
 31
0.0
  0
LINE
  5
5C2
330
1A
100
AcDbEntity
  8
NOKITOI
  6
PHANTOM
 62
     8
100
AcDbLine
 10
75.61655729597418
 20
87.53875514220951
 30
0.0
 11
78.08935729597465
 21
87.53875514220951
 31
0.0
  0
ARC
  5
5C3
330
1A
100
AcDbEntity
  8
NOKITOI
  6
PHANTOM
 62
     8
100
AcDbCircle
 10
75.6165617907725
 20
86.73875977973622
 30
0.0
 40
0.7999953624857498
100
AcDbArc
 50
90.00032191805264
 51
181.7911273464193
  0
ARC
  5
5C4
330
1A
100
AcDbEntity
  8
NOKITOI
  6
PHANTOM
 62
     8
100
AcDbCircle
 10
78.94315651296597
 20
88.23875609721104
 30
0.0
 40
0.4999990449987349
100
AcDbArc
 50
348.6967198015447
 51
89.99991027369492
  0
ARC
  5
5C5
330
1A
100
AcDbEntity
  8
NOKITOI
  6
PHANTOM
 62
     8
100
AcDbCircle
 10
79.66295004141898
 20
86.73876399205274
 30
0.0
 40
0.5000088498959383
100
AcDbArc
 50
168.6864043304892
 51
270.0008312961442
  0
LINE
  5
5C6
330
1A
100
AcDbEntity
  8
NOKITOI
  6
PHANTOM
 62
     8
100
AcDbLine
 10
79.17265729597443
 20
86.83685514220925
 30
0.0
 11
79.43345729597445
 21
88.14075514220936
 31
0.0
  0
LINE
  5
5C7
330
1A
100
AcDbEntity
  8
NOKITOI
  6
PHANTOM
 62
     8
100
AcDbLine
 10
79.53005729597475
 20
83.93875514220937
 30
0.0
 11
79.06815729597451
 21
83.93875514220937
 31
0.0
  0
LINE
  5
5C8
330
1A
100
AcDbEntity
  8
NOKITOI
  6
PHANTOM
 62
     8
100
AcDbLine
 10
79.53005729597475
 20
83.93875514220937
 30
0.0
 11
80.52585729597444
 21
85.03875514220951
 31
0.0
  0
LINE
  5
5C9
330
1A
100
AcDbEntity
  8
NOKITOI
  6
PHANTOM
 62
     8
100
AcDbLine
 10
82.07805729597453
 20
79.71255514220931
 30
0.0
 11
82.39385729597438
 21
85.71245514220933
 31
0.0
  0
ARC
  5
5CA
330
1A
100
AcDbEntity
  8
NOKITOI
  6
PHANTOM
 62
     8
100
AcDbCircle
 10
81.89445109481653
 20
85.7387616772946
 30
0.0
 40
0.4999934649531607
100
AcDbArc
 50
356.9955363203376
 51
89.99928939038076
  0
LINE
  5
5CB
330
1A
100
AcDbEntity
  8
NOKITOI
  6
PHANTOM
 62
     8
100
AcDbLine
 10
166.1960572959744
 20
33.73865514220935
 30
0.0
 11
146.0381572959747
 21
33.73865514220935
 31
0.0
  0
LINE
  5
5CC
330
1A
100
AcDbEntity
  8
NOKITOI
  6
PHANTOM
 62
     8
100
AcDbLine
 10
165.9462572959743
 20
34.9386551422094
 30
0.0
 11
146.0381572959747
 21
34.9386551422094
 31
0.0
  0
LINE
  5
5CD
330
1A
100
AcDbEntity
  8
NOKITOI
  6
PHANTOM
 62
     8
100
AcDbLine
 10
170.1960572959744
 20
33.73865514220935
 30
0.0
 11
125.3666572959744
 21
33.73875514220932
 31
0.0
  0
LINE
  5
5CE
330
1A
100
AcDbEntity
  8
NOKITOI
  6
PHANTOM
 62
     8
100
AcDbLine
 10
125.3666572959744
 20
34.93875514220937
 30
0.0
 11
169.9462572959743
 21
34.9386551422094
 31
0.0
  0
LINE
  5
5CF
330
1A
100
AcDbEntity
  8
NOKITOI
  6
PHANTOM
 62
     8
100
AcDbLine
 10
191.9505572959744
 20
75.8761551422094
 30
0.0
 11
192.0360572959741
 21
78.61375514220933
 31
0.0
  0
LINE
  5
5D0
330
1A
100
AcDbEntity
  8
NOKITOI
  6
PHANTOM
 62
     8
100
AcDbLine
 10
193.4885572959744
 20
86.67625514220933
 30
0.0
 11
193.0984572959743
 21
74.19185514220927
 31
0.0
  0
LINE
  5
5D1
330
1A
100
AcDbEntity
  8
NOKITOI
  6
PHANTOM
 62
     8
100
AcDbLine
 10
191.5991572959744
 20
72.73875514220932
 30
0.0
 11
185.4580572959746
 21
72.73875514220932
 31
0.0
  0
LINE
  5
5D2
330
1A
100
AcDbEntity
  8
NOKITOI
  6
PHANTOM
 62
     8
100
AcDbLine
 10
183.919557295974
 20
73.93875514220937
 30
0.0
 11
189.9514572959744
 21
73.93875514220937
 31
0.0
  0
LINE
  5
5D3
330
1A
100
AcDbEntity
  8
NOKITOI
  6
PHANTOM
 62
     8
100
AcDbLine
 10
184.4630572959747
 20
71.83825514220936
 30
0.0
 11
181.5942572959745
 21
43.15085514220934
 31
0.0
  0
LINE
  5
5D4
330
1A
100
AcDbEntity
  8
NOKITOI
  6
PHANTOM
 62
     8
100
AcDbLine
 10
183.4220572959745
 20
73.48855514220938
 30
0.0
 11
180.4290572959741
 21
43.55875514220926
 31
0.0
  0
LINE
  5
5D5
330
1A
100
AcDbEntity
  8
NOKITOI
  6
PHANTOM
 62
     8
100
AcDbLine
 10
181.2324572959743
 20
42.47635514220948
 30
0.0
 11
170.8293572959744
 21
33.96465514220946
 31
0.0
  0
LINE
  5
5D6
330
1A
100
AcDbEntity
  8
NOKITOI
  6
PHANTOM
 62
     8
100
AcDbLine
 10
180.2481572959747
 20
43.22145514220935
 30
0.0
 11
170.2628572959745
 21
35.05165514220923
 31
0.0
  0
ARC
  5
5D7
330
1A
100
AcDbEntity
  8
NOKITOI
  6
PHANTOM
 62
     8
100
AcDbCircle
 10
170.1960503633969
 20
34.73865266720324
 30
0.0
 40
0.9999975250179316
100
AcDbArc
 50
270.0003972084035
 51
309.2946416752299
  0
ARC
  5
5D8
330
1A
100
AcDbEntity
  8
NOKITOI
  6
PHANTOM
 62
     8
100
AcDbCircle
 10
169.9462636837231
 20
35.43865742219892
 30
0.0
 40
0.5000022800304047
100
AcDbArc
 50
269.9992680212791
 51
309.2854498596061
  0
ARC
  5
5D9
330
1A
100
AcDbEntity
  8
NOKITOI
  6
PHANTOM
 62
     8
100
AcDbCircle
 10
180.5992347231055
 20
43.25031307053675
 30
0.0
 40
0.9999908507640039
100
AcDbArc
 50
309.288709223069
 51
354.2862329477532
  0
ARC
  5
5DA
330
1A
100
AcDbEntity
  8
NOKITOI
  6
PHANTOM
 62
     8
100
AcDbCircle
 10
179.9315398700962
 20
43.60842265582138
 30
0.0
 40
0.4999904508696396
100
AcDbArc
 50
309.2900846377951
 51
354.2990110749239
  0
ARC
  5
5DB
330
1A
100
AcDbEntity
  8
NOKITOI
  6
PHANTOM
 62
     8
100
AcDbCircle
 10
185.4580779458153
 20
71.73877383005853
 30
0.0
 40
0.9999813123640345
100
AcDbArc
 50
90.00118317084911
 51
174.2905900333514
  0
ARC
  5
5DC
330
1A
100
AcDbEntity
  8
NOKITOI
  6
PHANTOM
 62
     8
100
AcDbCircle
 10
183.919570366979
 20
73.43876697248922
 30
0.0
 40
0.499988169890889
100
AcDbArc
 50
90.00149786226634
 51
174.2966061377162
  0
ARC
  5
5DD
330
1A
100
AcDbEntity
  8
NOKITOI
  6
PHANTOM
 62
     8
100
AcDbCircle
 10
191.5991745091525
 20
74.23877182535713
 30
0.0
 40
1.500016683246579
100
AcDbArc
 50
269.9993425123344
 51
358.2076423244113
  0
ARC
  5
5DE
330
1A
100
AcDbEntity
  8
NOKITOI
  6
PHANTOM
 62
     8
100
AcDbCircle
 10
189.9514952837987
 20
75.93869196278157
 30
0.0
 40
2.000036820932882
100
AcDbArc
 50
269.9989117490344
 51
358.2110591274195
  0
LINE
  5
5DF
330
1A
100
AcDbEntity
  8
NOKITOI
  6
PHANTOM
 62
     8
100
AcDbLine
 10
191.4895572959746
 20
88.73865514220936
 30
0.0
 11
188.1629572959743
 21
88.73875514220932
 31
0.0
  0
LINE
  5
5E0
330
1A
100
AcDbEntity
  8
NOKITOI
  6
PHANTOM
 62
     8
100
AcDbLine
 10
189.5168572959743
 20
85.03875514220951
 30
0.0
 11
186.5802572959744
 21
85.03875514220951
 31
0.0
  0
ARC
  5
5E1
330
1A
100
AcDbEntity
  8
NOKITOI
  6
PHANTOM
 62
     8
100
AcDbCircle
 10
188.4327866684741
 20
82.21638537470424
 30
0.0
 40
0.4999578477751074
100
AcDbArc
 50
83.52609071220754
 51
188.1330561712932
  0
ARC
  5
5E2
330
1A
100
AcDbEntity
  8
NOKITOI
  6
PHANTOM
 62
     8
100
AcDbCircle
 10
188.0380394296232
 20
78.73876387058928
 30
0.0
 40
5.199991271650611
100
AcDbArc
 50
37.92532860472995
 51
89.9998031407256
  0
LINE
  5
5E3
330
1A
100
AcDbEntity
  8
NOKITOI
  6
PHANTOM
 62
     8
100
AcDbLine
 10
186.1915572959744
 20
80.43875514220937
 30
0.0
 11
186.0104572959741
 21
83.8801551422093
 31
0.0
  0
LINE
  5
5E4
330
1A
100
AcDbEntity
  8
NOKITOI
  6
PHANTOM
 62
     8
100
AcDbLine
 10
186.5654572959744
 20
83.26715514220925
 30
0.0
 11
186.0104572959741
 21
83.8801551422093
 31
0.0
  0
LINE
  5
5E5
330
1A
100
AcDbEntity
  8
NOKITOI
  6
PHANTOM
 62
     8
100
AcDbLine
 10
185.0281572959745
 20
79.71245514220933
 30
0.0
 11
184.7123572959742
 21
85.71245514220933
 31
0.0
  0
LINE
  5
5E6
330
1A
100
AcDbEntity
  8
NOKITOI
  6
PHANTOM
 62
     8
100
AcDbLine
 10
186.969457295974
 20
80.43875514220937
 30
0.0
 11
186.5654572959744
 21
83.26715514220925
 31
0.0
  0
LINE
  5
5E7
330
1A
100
AcDbEntity
  8
NOKITOI
  6
PHANTOM
 62
     8
100
AcDbLine
 10
186.1915572959744
 20
80.43875514220937
 30
0.0
 11
186.969457295974
 21
80.43875514220937
 31
0.0
  0
LINE
  5
5E8
330
1A
100
AcDbEntity
  8
NOKITOI
  6
PHANTOM
 62
     8
100
AcDbLine
 10
185.5274572959744
 20
79.23875514220933
 30
0.0
 11
187.776557295974
 21
79.23875514220933
 31
0.0
  0
ARC
  5
5E9
330
1A
100
AcDbEntity
  8
NOKITOI
  6
PHANTOM
 62
     8
100
AcDbCircle
 10
185.5274614173811
 20
79.73875123217883
 30
0.0
 40
0.4999960899864752
100
AcDbArc
 50
183.0147243791741
 51
269.9995277178593
  0
ARC
  5
5EA
330
1A
100
AcDbEntity
  8
NOKITOI
  6
PHANTOM
 62
     8
100
AcDbCircle
 10
187.7765674824106
 20
79.73876688693346
 30
0.0
 40
0.5000117448278309
100
AcDbArc
 50
269.9988327478016
 51
8.127314608715551
  0
LINE
  5
5EB
330
1A
100
AcDbEntity
  8
NOKITOI
  6
PHANTOM
 62
     8
100
AcDbLine
 10
188.2715572959743
 20
79.80945514220931
 30
0.0
 11
187.9377572959744
 21
82.1456551422095
 31
0.0
  0
LINE
  5
5EC
330
1A
100
AcDbEntity
  8
NOKITOI
  6
PHANTOM
 62
     8
100
AcDbLine
 10
185.2116572959746
 20
86.23875514220932
 30
0.0
 11
187.4431572959744
 21
86.23875514220932
 31
0.0
  0
ARC
  5
5ED
330
1A
100
AcDbEntity
  8
NOKITOI
  6
PHANTOM
 62
     8
100
AcDbCircle
 10
185.2116610054697
 20
85.73875905224005
 30
0.0
 40
0.4999960899831856
100
AcDbArc
 50
90.00042508015082
 51
183.0156217414647
  0
ARC
  5
5EE
330
1A
100
AcDbEntity
  8
NOKITOI
  6
PHANTOM
 62
     8
100
AcDbCircle
 10
188.1629500414189
 20
88.23874629236589
 30
0.0
 40
0.500008849895925
100
AcDbArc
 50
89.99916870385415
 51
191.3135956695126
  0
ARC
  5
5EF
330
1A
100
AcDbEntity
  8
NOKITOI
  6
PHANTOM
 62
     8
100
AcDbCircle
 10
187.4431565129659
 20
86.7387541872076
 30
0.0
 40
0.4999990449987399
100
AcDbArc
 50
270.000089726305
 51
11.30328019845521
  0
LINE
  5
5F0
330
1A
100
AcDbEntity
  8
NOKITOI
  6
PHANTOM
 62
     8
100
AcDbLine
 10
187.9334572959744
 20
86.83675514220951
 30
0.0
 11
187.6726572959744
 21
88.14075514220936
 31
0.0
  0
LINE
  5
5F1
330
1A
100
AcDbEntity
  8
NOKITOI
  6
PHANTOM
 62
     8
100
AcDbLine
 10
187.5760572959745
 20
83.93875514220937
 30
0.0
 11
188.0380572959745
 21
83.93875514220937
 31
0.0
  0
LINE
  5
5F2
330
1A
100
AcDbEntity
  8
NOKITOI
  6
PHANTOM
 62
     8
100
AcDbLine
 10
187.5760572959745
 20
83.93875514220937
 30
0.0
 11
186.5802572959744
 21
85.03875514220951
 31
0.0
  0
LINE
  5
5F3
330
1A
100
AcDbEntity
  8
NOKITOI
  6
PHANTOM
 62
     8
100
AcDbLine
 10
192.289157295974
 20
86.71375514220924
 30
0.0
 11
192.1398572959744
 21
81.93475514220947
 31
0.0
  0
ARC
  5
5F4
330
1A
100
AcDbEntity
  8
NOKITOI
  6
PHANTOM
 62
     8
100
AcDbCircle
 10
188.0380263690383
 20
78.73879088687314
 30
0.0
 40
3.99998565374706
100
AcDbArc
 50
358.208696659101
 51
83.52422380468341
  0
ARC
  5
5F5
330
1A
100
AcDbEntity
  8
NOKITOI
  6
PHANTOM
 62
     8
100
AcDbCircle
 10
191.4895460589802
 20
86.73876673602647
 30
0.0
 40
1.999988406214315
100
AcDbArc
 50
358.2088726535936
 51
89.99967808195551
  0
LINE
  5
5F6
330
1A
100
AcDbEntity
  8
NOKITOI
  6
PHANTOM
 62
     8
100
AcDbLine
 10
191.4895572959746
 20
87.53865514220931
 30
0.0
 11
189.0168572959744
 21
87.53875514220951
 31
0.0
  0
LINE
  5
5F7
330
1A
100
AcDbEntity
  8
NOKITOI
  6
PHANTOM
 62
     8
100
AcDbLine
 10
189.0168572959744
 20
87.53875514220951
 30
0.0
 11
189.5168572959743
 21
85.03875514220951
 31
0.0
  0
ARC
  5
5F8
330
1A
100
AcDbEntity
  8
NOKITOI
  6
PHANTOM
 62
     8
100
AcDbCircle
 10
191.4896012623273
 20
86.73870977973635
 30
0.0
 40
0.7999453636812564
100
AcDbArc
 50
358.2123436447881
 51
90.00314907315425
  0
LINE
  5
1D19
330
1A
100
AcDbEntity
  8
SEIHIN
100
AcDbLine
 10
152.7443332159619
 20
83.53154158536908
 30
0.0
 11
165.5318197727466
 21
96.31902824220942
 31
0.0
  0
ARC
  5
1D1B
330
1A
100
AcDbEntity
  8
SEIHIN
100
AcDbCircle
 10
152.0443331727466
 20
83.74575514220941
 30
0.0
 40
5.500000002456481
100
AcDbArc
 50
270.0
 51
315.0
  0
LINE
  5
1D1E
330
1A
100
AcDbEntity
  8
SEIHIN
100
AcDbLine
 10
86.93318777274669
 20
70.64575514220938
 30
0.0
 11
155.3580416727466
 21
70.64575514220938
 31
0.0
  0
LINE
  5
1D23
330
1A
100
AcDbEntity
  8
SEIHIN
100
AcDbLine
 10
152.037226394382
 20
84.23864836378923
 30
0.0
 11
164.8247129727466
 21
97.02613504220938
 31
0.0
  0
LINE
  5
1D24
330
1A
100
AcDbEntity
  8
CENTER_L
100
AcDbLine
 10
139.5296145727466
 20
93.13635801631676
 30
0.0
 11
139.5296145727466
 21
68.19734056433445
 31
0.0
  0
LINE
  5
1D2A
330
1A
100
AcDbEntity
  8
SEIHIN
100
AcDbLine
 10
129.5296145727466
 20
83.94575514220941
 30
0.0
 11
129.5296145727466
 21
78.44575514220941
 31
0.0
  0
LINE
  5
1D2C
330
1A
100
AcDbEntity
  8
SEIHIN
100
AcDbLine
 10
79.32961457274666
 20
78.2457551422094
 30
0.0
 11
152.0444975544901
 21
78.2457551422094
 31
0.0
  0
ARC
  5
1D41
330
1A
100
AcDbEntity
  8
SEIHIN
100
AcDbCircle
 10
86.93318777274669
 20
72.24575514220941
 30
0.0
 40
1.599999992064534
100
AcDbArc
 50
185.0000004668387
 51
270.0
  0
LINE
  5
1D42
330
1A
100
AcDbEntity
  8
SEIHIN
100
AcDbLine
 10
80.12961457274661
 20
75.64575514220938
 30
0.0
 11
85.02961457274665
 21
75.64575514220938
 31
0.0
  0
ARC
  5
1D43
330
1A
100
AcDbEntity
  8
SEIHIN
100
AcDbCircle
 10
80.12961457274661
 20
78.7457551422094
 30
0.0
 40
3.100000000000008
100
AcDbArc
 50
180.0
 51
270.0
  0
LINE
  5
1D44
330
1A
100
AcDbEntity
  8
SEIHIN
100
AcDbLine
 10
77.02961457274665
 20
82.64575514220938
 30
0.0
 11
78.82961457274666
 21
82.64575514220938
 31
0.0
  0
ARC
  5
1D45
330
1A
100
AcDbEntity
  8
SEIHIN
100
AcDbCircle
 10
79.32961457274666
 20
78.7457551422094
 30
0.0
 40
0.5
100
AcDbArc
 50
180.0
 51
270.0
  0
LINE
  5
1D46
330
1A
100
AcDbEntity
  8
SEIHIN
100
AcDbLine
 10
77.02961457274665
 20
82.64575514220938
 30
0.0
 11
77.02961457274665
 21
78.7457551422094
 31
0.0
  0
LINE
  5
1D47
330
1A
100
AcDbEntity
  8
SEIHIN
100
AcDbLine
 10
78.82961457274666
 20
82.64575514220938
 30
0.0
 11
78.82961457274666
 21
78.7457551422094
 31
0.0
  0
LINE
  5
1D48
330
1A
100
AcDbEntity
  8
SEIHIN
100
AcDbLine
 10
85.33927627274664
 20
72.1063059422094
 30
0.0
 11
84.8021440329802
 21
78.24575514220938
 31
0.0
  0
LINE
  5
1D4B
330
1A
100
AcDbEntity
  8
SEIHIN
100
AcDbLine
 10
129.5296145727466
 20
82.94575514220941
 30
0.0
 11
151.330119648056
 21
82.94575514220941
 31
0.0
  0
LINE
  5
1D4D
330
1A
100
AcDbEntity
  8
SEIHIN
100
AcDbLine
 10
129.5296145727466
 20
78.2457551422094
 30
0.0
 11
152.0443331727466
 21
78.2457551422094
 31
0.0
  0
ARC
  5
1D5C
330
1A
100
AcDbEntity
  8
SEIHIN
100
AcDbCircle
 10
139.5296145727466
 20
78.05513014220941
 30
0.0
 40
7.890625
100
AcDbArc
 50
48.29108392084388
 51
131.708916079156
  0
LINE
  5
1D5D
330
1A
100
AcDbEntity
  8
SEIHIN
100
AcDbLine
 10
129.5296145727466
 20
83.94575514220941
 30
0.0
 11
151.3301196104291
 21
83.94575514220939
 31
0.0
  0
LINE
  5
1D65
330
1A
100
AcDbEntity
  8
SEIHIN
100
AcDbLine
 10
199.0296145727466
 20
89.74575514220942
 30
0.0
 11
199.0296145727466
 21
72.72023746478123
 31
0.0
  0
LINE
  5
1D67
330
1A
100
AcDbEntity
  8
SEIHIN
100
AcDbLine
 10
195.4296145727466
 20
89.74575514220942
 30
0.0
 11
195.4296145727466
 21
72.77264524220941
 31
0.0
  0
LINE
  5
1D68
330
1A
100
AcDbEntity
  8
SEIHIN
100
AcDbLine
 10
198.0296145727466
 20
89.74575514220942
 30
0.0
 11
198.0296145727466
 21
72.77264524220941
 31
0.0
  0
LINE
  5
1D6C
330
1A
100
AcDbEntity
  8
SEIHIN
100
AcDbLine
 10
158.9642862727466
 20
72.13951054220938
 30
0.0
 11
173.3641162317354
 21
86.53934057843811
 31
0.0
  0
LINE
  5
1D6E
330
1A
100
AcDbEntity
  8
SEIHIN
100
AcDbLine
 10
155.9334204727466
 20
79.8566678422094
 30
0.0
 11
167.7639700676915
 21
91.68721743715435
 31
0.0
  0
LINE
  5
1D79
330
1A
100
AcDbEntity
  8
SEIHIN
100
AcDbLine
 10
170.0108408727466
 20
69.24067804220938
 30
0.0
 11
181.9538872727466
 21
75.0656909422094
 31
0.0
  0
LINE
  5
1D7A
330
1A
100
AcDbEntity
  8
SEIHIN
100
AcDbLine
 10
170.6683974727466
 20
67.89248684220938
 30
0.0
 11
181.9538872727466
 21
73.39678804220939
 31
0.0
  0
LINE
  5
1D7B
330
1A
100
AcDbEntity
  8
SEIHIN
100
AcDbLine
 10
169.8354924727466
 20
69.60019564220939
 30
0.0
 11
181.6785387727466
 21
75.37643524220938
 31
0.0
  0
LINE
  5
1D7D
330
1A
100
AcDbEntity
  8
SEIHIN
100
AcDbLine
 10
158.9531425238205
 20
72.12840113884769
 30
0.0
 11
168.0854293727466
 21
67.86994584220939
 31
0.0
  0
ARC
  5
1D7E
330
1A
100
AcDbEntity
  8
SEIHIN
100
AcDbCircle
 10
155.3580416727466
 20
75.7457551422094
 30
0.0
 40
5.100000011277387
100
AcDbArc
 50
270.0
 51
315.0
  0
LINE
  5
1D7F
330
1A
100
AcDbEntity
  8
SEIHIN
100
AcDbLine
 10
160.3828918483647
 20
73.55811612543684
 30
0.0
 11
168.8884041727466
 21
69.59193064220939
 31
0.0
  0
LINE
  5
1D80
330
1A
100
AcDbEntity
  8
SEIHIN
100
AcDbLine
 10
160.0818969386802
 20
73.25712121413779
 30
0.0
 11
168.7193568727466
 21
69.22940754220938
 31
0.0
  0
ARC
  5
1D81
330
1A
100
AcDbEntity
  8
SEIHIN
100
AcDbCircle
 10
169.3532842727466
 20
70.58886914220939
 30
0.0
 40
1.499999997384386
100
AcDbArc
 50
244.9999984438223
 51
295.9999936879063
  0
ARC
  5
1D83
330
1A
100
AcDbEntity
  8
SEIHIN
100
AcDbCircle
 10
169.3532842727466
 20
70.58886914220939
 30
0.0
 40
1.099999981342675
100
AcDbArc
 50
244.9999979823536
 51
295.9999960018844
  0
ARC
  5
1D84
330
1A
100
AcDbEntity
  8
SEIHIN
100
AcDbCircle
 10
169.3532842727466
 20
70.58886914220939
 30
0.0
 40
2.9999999920909
100
AcDbArc
 50
244.9999949819811
 51
295.999994525133
  0
ARC
  5
1D86
330
1A
100
AcDbEntity
  8
SEIHIN
100
AcDbCircle
 10
180.0250541727466
 20
79.0203847422094
 30
0.0
 40
4.400000010194002
100
AcDbArc
 50
296.0000006547247
 51
359.9999934891161
  0
ARC
  5
1D87
330
1A
100
AcDbEntity
  8
SEIHIN
100
AcDbCircle
 10
179.9250541727466
 20
78.97161144220937
 30
0.0
 40
4.000000009467725
100
AcDbArc
 50
296.0000000723986
 51
0.0
  0
LINE
  5
1D88
330
1A
100
AcDbEntity
  8
SEIHIN
100
AcDbLine
 10
184.4250541727466
 20
77.35148134220939
 30
0.0
 11
184.4250541727466
 21
81.47971194220939
 31
0.0
  0
ARC
  5
1D8A
330
1A
100
AcDbEntity
  8
SEIHIN
100
AcDbCircle
 10
180.0250541727466
 20
77.35148184220939
 30
0.0
 40
4.400000010194002
100
AcDbArc
 50
296.0000006547247
 51
359.9999934891161
  0
LINE
  5
1D8B
330
1A
100
AcDbEntity
  8
SEIHIN
100
AcDbLine
 10
183.9250541727466
 20
81.47971194220939
 30
0.0
 11
184.4250541727466
 21
81.47971194220939
 31
0.0
  0
LINE
  5
1D8C
330
1A
100
AcDbEntity
  8
SEIHIN
100
AcDbLine
 10
183.9250541727466
 20
78.97161144220937
 30
0.0
 11
183.9250541727466
 21
81.47971194220939
 31
0.0
  0
LINE
  5
1D92
330
1A
100
AcDbEntity
  8
SEIHIN
100
AcDbLine
 10
188.5392077727466
 20
72.6121068422094
 30
0.0
 11
188.4083679150137
 21
70.11553304523507
 31
0.0
  0
ARC
  5
1D93
330
1A
100
AcDbEntity
  8
SEIHIN
100
AcDbCircle
 10
195.0296145727466
 20
72.77264524220941
 30
0.0
 40
2.999999998689364
100
AcDbArc
 50
266.9999993993207
 51
0.0
  0
LINE
  5
1D94
330
1A
100
AcDbEntity
  8
SEIHIN
100
AcDbLine
 10
195.8726067017172
 20
69.72434886063807
 30
0.0
 11
188.4083679727466
 21
70.11553304220941
 31
0.0
  0
LINE
  5
1D96
330
1A
100
AcDbEntity
  8
SEIHIN
100
AcDbLine
 10
195.0086801727466
 20
72.3731934422094
 30
0.0
 11
188.5444413727466
 21
72.7119698422094
 31
0.0
  0
ARC
  5
1D97
330
1A
100
AcDbEntity
  8
SEIHIN
100
AcDbCircle
 10
195.0296145727466
 20
72.77264524220941
 30
0.0
 40
0.3999999935166316
100
AcDbArc
 50
266.999997392128
 51
0.0
  0
LINE
  5
1DAE
330
1A
100
AcDbEntity
  8
SEIHIN
100
AcDbLine
 10
193.294274210875
 20
94.1824635269006
 30
0.0
 11
170.7102541727466
 21
92.99888524220937
 31
0.0
  0
LINE
  5
1DB3
330
1A
100
AcDbEntity
  8
SEIHIN
100
AcDbLine
 10
193.4301762727466
 20
91.58601774220938
 30
0.0
 11
179.0296145727466
 21
90.83131633205034
 31
0.0
  0
ARC
  5
1DB6
330
1A
100
AcDbEntity
  8
SEIHIN
100
AcDbCircle
 10
170.9457659727466
 20
88.50505234220941
 30
0.0
 40
4.499999985879004
100
AcDbArc
 50
92.99999996493296
 51
135.0
  0
ARC
  5
1DB8
330
1A
100
AcDbEntity
  8
SEIHIN
100
AcDbCircle
 10
169.4209072727466
 20
92.4299410422094
 30
0.0
 40
5.500000065643712
100
AcDbArc
 50
91.3361182741777
 51
135.0000022098678
  0
ARC
  5
1DB9
330
1A
100
AcDbEntity
  8
SEIHIN
100
AcDbCircle
 10
169.4209072727466
 20
92.4299410422094
 30
0.0
 40
6.500000024766264
100
AcDbArc
 50
91.33611865333142
 51
135.000002493184
  0
ARC
  5
1DBB
330
1A
100
AcDbEntity
  8
SEIHIN
100
AcDbCircle
 10
193.5296145727466
 20
89.6886216422094
 30
0.0
 40
4.499999996725646
100
AcDbArc
 50
0.0
 51
92.99781409385971
  0
ARC
  5
1DBC
330
1A
100
AcDbEntity
  8
SEIHIN
100
AcDbCircle
 10
193.5296145727466
 20
89.6886216422094
 30
0.0
 40
5.500000030448694
100
AcDbArc
 50
0.0
 51
93.83343242104492
  0
ARC
  5
1DBD
330
1A
100
AcDbEntity
  8
SEIHIN
100
AcDbCircle
 10
193.5296145727466
 20
89.6886216422094
 30
0.0
 40
1.899999991552915
100
AcDbArc
 50
0.0
 51
92.99999951753015
  0
LINE
  5
1EC3
330
1A
100
AcDbEntity
  8
SEIHIN
100
AcDbLine
 10
77.02961457274665
 20
238.8746744800503
 30
0.0
 11
84.80214403298015
 21
238.8746744800503
 31
0.0
  0
LINE
  5
1EC4
330
1A
100
AcDbEntity
  8
SEIHIN
100
AcDbLine
 10
214.2242475727466
 20
218.3746744800503
 30
0.0
 11
197.6834093867483
 21
218.3746744800503
 31
0.0
  0
LINE
  5
1EC5
330
1A
100
AcDbEntity
  8
SEIHIN
100
AcDbLine
 10
213.910095426158
 20
197.8746744800503
 30
0.0
 11
201.6543913193352
 21
197.8746744800503
 31
0.0
  0
LINE
  5
1EC6
330
1A
100
AcDbEntity
  8
CENTER_L
100
AcDbLine
 10
222.7715017668557
 20
228.8746744800503
 30
0.0
 11
70.02961457274665
 21
228.8746744800503
 31
0.0
  0
LINE
  5
1ECB
330
1A
100
AcDbEntity
  8
SEIHIN
100
AcDbLine
 10
77.02961457274665
 20
218.8746744800503
 30
0.0
 11
84.8021440329802
 21
218.8746744800503
 31
0.0
  0
LINE
  5
1ECC
330
1A
100
AcDbEntity
  8
SEIHIN
100
AcDbLine
 10
196.6978424727466
 20
216.7746744800503
 30
0.0
 11
200.2402391727466
 21
216.7746744800503
 31
0.0
  0
LINE
  5
1ED1
330
1A
100
AcDbEntity
  8
CENTER_L
100
AcDbLine
 10
200.216836976908
 20
206.8746744800503
 30
0.0
 11
217.3137936024103
 21
206.8746744800503
 31
0.0
  0
LINE
  5
1ED8
330
1A
100
AcDbEntity
  8
CENTER_L
100
AcDbLine
 10
139.5296145727466
 20
213.8458027674991
 30
0.0
 11
139.5296145727466
 21
243.9035461926015
 31
0.0
  0
LINE
  5
1EDA
330
1A
100
AcDbEntity
  8
SEIHIN
100
AcDbLine
 10
129.5296145727466
 20
218.8746744800503
 30
0.0
 11
129.5296145727465
 21
238.8746744800503
 31
0.0
  0
LINE
  5
1F11
330
1A
100
AcDbEntity
  8
SEIHIN
100
AcDbLine
 10
179.0296145727466
 20
93.43488446664917
 30
0.0
 11
179.0296145727466
 21
87.78522134159937
 31
0.0
  0
LINE
  5
1F12
330
1A
100
AcDbEntity
  8
SEIHIN
100
AcDbLine
 10
178.0819505310714
 20
86.78659180695388
 30
0.0
 11
173.3641162317354
 21
86.53934057843811
 31
0.0
  0
ARC
  5
1F13
330
1A
100
AcDbEntity
  8
SEIHIN
100
AcDbCircle
 10
178.0296145727466
 20
87.78522134159937
 30
0.0
 40
1.0
100
AcDbArc
 50
273.0000001194438
 51
0.0
  0
ARC
  5
1F15
330
1A
100
AcDbEntity
  8
SEIHIN
100
AcDbCircle
 10
196.0296145727466
 20
72.72023746478123
 30
0.0
 40
3.0
100
AcDbArc
 50
266.9999999560026
 51
0.0
  0
LINE
  5
1F61
330
1A
100
AcDbEntity
  8
SEIHIN
100
AcDbLine
 10
179.0296145727466
 20
216.3746744800503
 30
0.0
 11
84.8021440329802
 21
216.3746744800503
 31
0.0
  0
LINE
  5
1F62
330
1A
100
AcDbEntity
  8
SEIHIN
100
AcDbLine
 10
179.0296145727466
 20
216.3746744800503
 30
0.0
 11
179.0296145727466
 21
218.8746744800503
 31
0.0
  0
LINE
  5
1F63
330
1A
100
AcDbEntity
  8
SEIHIN
100
AcDbLine
 10
84.8021440329802
 20
216.3746744800503
 30
0.0
 11
84.8021440329802
 21
218.8746744800503
 31
0.0
  0
LINE
  5
1F64
330
1A
100
AcDbEntity
  8
SEIHIN
100
AcDbLine
 10
77.02961457274665
 20
218.8746744800503
 30
0.0
 11
77.02961457274665
 21
238.8746744800503
 31
0.0
  0
LINE
  5
1F67
330
1A
100
AcDbEntity
  8
SEIHIN
100
AcDbLine
 10
78.82961457274666
 20
218.8746744800503
 30
0.0
 11
78.82961457274666
 21
238.8746744800503
 31
0.0
  0
LINE
  5
1F68
330
1A
100
AcDbEntity
  8
SEIHIN
100
AcDbLine
 10
129.5296145727465
 20
218.8746744800503
 30
0.0
 11
195.8978424727466
 21
218.8746744800503
 31
0.0
  0
LINE
  5
1F69
330
1A
100
AcDbEntity
  8
SEIHIN
100
AcDbLine
 10
129.5296145727466
 20
220.8746744800503
 30
0.0
 11
195.8978424727466
 21
220.8746744800503
 31
0.0
  0
CIRCLE
  5
1F6A
330
1A
100
AcDbEntity
  8
SEIHIN
100
AcDbCircle
 10
139.5296145727466
 20
228.8746744800503
 30
0.0
 40
5.0
  0
LINE
  5
1F6C
330
1A
100
AcDbEntity
  8
SEIHIN
100
AcDbLine
 10
151.8851974207682
 20
221.3746744800503
 30
0.0
 11
151.8851974207682
 21
236.3746744800503
 31
0.0
  0
LINE
  5
1F6D
330
1A
100
AcDbEntity
  8
SEIHIN
100
AcDbLine
 10
166.669998626719
 20
221.3746744800503
 30
0.0
 11
166.669998626719
 21
236.3746744800502
 31
0.0
  0
LINE
  5
1F70
330
1A
100
AcDbEntity
  8
SEIHIN
100
AcDbLine
 10
129.5296145727465
 20
236.8746744800503
 30
0.0
 11
195.8978424727466
 21
236.8746744800502
 31
0.0
  0
LINE
  5
1F71
330
1A
100
AcDbEntity
  8
SEIHIN
100
AcDbLine
 10
129.5296145727465
 20
238.8746744800503
 30
0.0
 11
195.8978424727466
 21
238.8746744800503
 31
0.0
  0
LINE
  5
1F72
330
1A
100
AcDbEntity
  8
SEIHIN
100
AcDbLine
 10
179.0296145727466
 20
241.3746744800503
 30
0.0
 11
84.8021440329802
 21
241.3746744800503
 31
0.0
  0
LINE
  5
1F73
330
1A
100
AcDbEntity
  8
SEIHIN
100
AcDbLine
 10
77.02961457274665
 20
238.8746744800503
 30
0.0
 11
84.8021440329802
 21
238.8746744800503
 31
0.0
  0
LINE
  5
1F74
330
1A
100
AcDbEntity
  8
SEIHIN
100
AcDbLine
 10
84.8021440329802
 20
241.3746744800503
 30
0.0
 11
84.8021440329802
 21
238.8746744800503
 31
0.0
  0
LINE
  5
1F75
330
1A
100
AcDbEntity
  8
SEIHIN
100
AcDbLine
 10
152.8172138923898
 20
237.3746744800503
 30
0.0
 11
152.8172138923898
 21
238.3746744800503
 31
0.0
  0
LINE
  5
1F76
330
1A
100
AcDbEntity
  8
SEIHIN
100
AcDbLine
 10
165.831184170162
 20
238.3746744800503
 30
0.0
 11
165.831184170162
 21
237.3746744800503
 31
0.0
  0
LINE
  5
1F77
330
1A
100
AcDbEntity
  8
SEIHIN
100
AcDbLine
 10
179.0296145727466
 20
241.3746744800503
 30
0.0
 11
179.0296145727466
 21
238.8746744800503
 31
0.0
  0
LINE
  5
1F85
330
1A
100
AcDbEntity
  8
SEIHIN
100
AcDbLine
 10
169.4677526573859
 20
239.3746744800502
 30
0.0
 11
169.4677526573859
 21
240.8746744800503
 31
0.0
  0
LINE
  5
1F86
330
1A
100
AcDbEntity
  8
SEIHIN
100
AcDbLine
 10
153.9431947944424
 20
239.3746744800503
 30
0.0
 11
153.9431947944424
 21
240.8746744800502
 31
0.0
  0
LINE
  5
1F88
330
1A
100
AcDbEntity
  8
SEIHIN
100
AcDbLine
 10
129.5296145727466
 20
78.44575514220941
 30
0.0
 11
151.9514399574264
 21
78.44575514220939
 31
0.0
  0
LINE
  5
1F89
330
1A
100
AcDbEntity
  8
SEIHIN
100
AcDbLine
 10
155.486973877191
 20
79.91022125010854
 30
0.0
 11
167.6280689741732
 21
92.05131644208865
 31
0.0
  0
ARC
  5
1F8B
330
1A
100
AcDbEntity
  8
SEIHIN
100
AcDbCircle
 10
171.1636028939378
 20
88.51578254998779
 30
0.0
 40
5.0
100
AcDbArc
 50
92.99999987887712
 51
135.0000002241552
  0
ARC
  5
1F93
330
1A
100
AcDbEntity
  8
SEIHIN
100
AcDbCircle
 10
151.9514399574264
 20
83.4457551422094
 30
0.0
 40
5.0
100
AcDbArc
 50
270.0
 51
315.0000002241551
  0
ARC
  5
1F94
330
1A
100
AcDbEntity
  8
SEIHIN
100
AcDbCircle
 10
151.330119648056
 20
84.9457551422094
 30
0.0
 40
2.0
100
AcDbArc
 50
270.0
 51
315.0000002241553
  0
ARC
  5
1F95
330
1A
100
AcDbEntity
  8
SEIHIN
100
AcDbCircle
 10
151.3301196104291
 20
84.94575514220938
 30
0.0
 40
1.0
100
AcDbArc
 50
270.0
 51
315.0000002241551
  0
DIMENSION
  5
2073
330
1A
100
AcDbEntity
  8
SUNPOU
100
AcDbDimension
  2
*D1
 10
50.19880180440897
 20
218.8746744800503
 30
0.0
 11
47.69880180440893
 21
228.8746744800503
 31
0.0
 70
    32
  3
STANDARD
100
AcDbAlignedDimension
 13
77.02961457274665
 23
238.8746744800503
 33
0.0
 14
77.02961457274665
 24
218.8746744800503
 34
0.0
 50
90.0
100
AcDbRotatedDimension
1001
ACAD
1000
DSTYLE
1002
{
1070
    41
1040
3.0
1070
    42
1040
3.0
1070
    43
1040
7.0
1070
    44
1040
1.5
1070
    73
1070
     0
1070
    74
1070
     0
1070
    77
1070
     3
1070
   140
1040
3.0
1070
   141
1040
3.0
1070
   147
1040
1.0
1070
   172
1070
     1
1070
   173
1070
     1
1070
   176
1070
   256
1070
   177
1070
   256
1070
   178
1070
   256
1070
   271
1070
     0
1070
   272
1070
     0
1070
   341
1005
B2
1070
     6
1000
OPEN
1070
     7
1000
OPEN
1002
}
  0
LINE
  5
2127
330
1A
100
AcDbEntity
  8
SEIHIN
100
AcDbLine
 10
152.8172138923898
 20
220.3746744800502
 30
0.0
 11
152.8172138923898
 21
219.3746744800503
 31
0.0
  0
LINE
  5
2128
330
1A
100
AcDbEntity
  8
SEIHIN
100
AcDbLine
 10
153.9431947944424
 20
218.3746744800502
 30
0.0
 11
153.9431947944424
 21
216.8746744800504
 31
0.0
  0
LINE
  5
2129
330
1A
100
AcDbEntity
  8
SEIHIN
100
AcDbLine
 10
165.831184170162
 20
219.3746744800503
 30
0.0
 11
165.831184170162
 21
220.3746744800503
 31
0.0
  0
LINE
  5
212A
330
1A
100
AcDbEntity
  8
SEIHIN
100
AcDbLine
 10
169.4677526573859
 20
218.3746744800503
 30
0.0
 11
169.4677526573859
 21
216.8746744800503
 31
0.0
  0
LINE
  5
29B5
330
1A
100
AcDbEntity
  8
SEIHIN
100
AcDbLine
 10
215.5306330496908
 20
232.8746744800502
 30
0.0
 11
213.085971321147
 21
232.8746744800502
 31
0.0
  0
LINE
  5
29B6
330
1A
100
AcDbEntity
  8
SEIHIN
100
AcDbLine
 10
215.5306330496908
 20
224.8746744800502
 30
0.0
 11
213.085971321147
 21
224.8746744800502
 31
0.0
  0
LINE
  5
3947
330
1A
100
AcDbEntity
  8
SEIHIN
100
AcDbLine
 10
214.5600078727466
 20
106.7271679769286
 30
0.0
 11
215.6372694727466
 21
104.0339579769287
 31
0.0
  0
LINE
  5
3948
330
1A
100
AcDbEntity
  8
SEIHIN
100
AcDbLine
 10
215.0242475727466
 20
106.9128599769286
 30
0.0
 11
208.8962838727466
 21
104.4617252769286
 31
0.0
  0
LINE
  5
3949
330
1A
100
AcDbEntity
  8
SEIHIN
100
AcDbLine
 10
210.381850814109
 20
105.0559397431707
 30
0.0
 11
211.4591124727466
 21
102.3627297769287
 31
0.0
  0
LINE
  5
394D
330
1A
100
AcDbEntity
  8
SEIHIN
100
AcDbLine
 10
195.8978424727466
 20
135.2740896116479
 30
0.0
 11
208.8962838727466
 21
104.4617252769286
 31
0.0
  0
LINE
  5
395F
330
1A
100
AcDbEntity
  8
SEIHIN
100
AcDbLine
 10
210.9317234727466
 20
103.6812296769286
 30
0.0
 11
208.6638457727466
 21
101.8935115769286
 31
0.0
  0
ARC
  5
3960
330
1A
100
AcDbEntity
  8
SEIHIN
100
AcDbCircle
 10
210.5306330727466
 20
101.9913457769286
 30
0.0
 40
1.000000001711656
100
AcDbArc
 50
273.0000026078751
 51
21.80099667147166
  0
ARC
  5
3961
330
1A
100
AcDbEntity
  8
SEIHIN
100
AcDbCircle
 10
210.5306330727466
 20
101.9913457769286
 30
0.0
 40
5.499999976944204
100
AcDbArc
 50
273.0000004454678
 51
21.80099976660096
  0
LINE
  5
3989
330
1A
100
AcDbEntity
  8
SEIHIN
100
AcDbLine
 10
200.5402391727466
 20
137.1310098116479
 30
0.0
 11
213.5386805727466
 21
106.3186454769286
 31
0.0
  0
LINE
  5
398A
330
1A
100
AcDbEntity
  8
SEIHIN
100
AcDbLine
 10
202.0258060727466
 20
137.7252243116479
 30
0.0
 11
215.0242475727466
 21
106.9128599769286
 31
0.0
  0
MTEXT
  5
398E
330
1A
100
AcDbEntity
  8
SUNPOU
100
AcDbMText
 10
187.5939443400161
 20
148.5327049077072
 30
0.0
 40
3.0
 41
0.0
 71
     1
 72
     5
  1
{\W1.269841;10}
 11
-0.0000000002051034
 21
1.0
 31
0.0
1001
ACAD
1000
MTEXTBEGIN
1070
    73
1070
     1
1070
    44
1040
1.0
1070
    74
1070
     0
1000
MTEXTEND
1000
MTEXTBEGIN
1070
    73
1070
     1
1070
    44
1040
1.0
1070
    74
1070
     0
1000
MTEXTEND
1000
MTEXTBEGIN
1070
    73
1070
     1
1070
    44
1040
1.0
1070
    74
1070
     0
1000
MTEXTEND
1000
MTEXTBEGIN
1070
    73
1070
     1
1070
    44
1040
1.0
1070
    74
1070
     0
1000
MTEXTEND
1000
MTEXTBEGIN
1070
    73
1070
     1
1070
    44
1040
1.0
1070
    74
1070
     0
1000
MTEXTEND
1000
MTEXTBEGIN
1070
    73
1070
     1
1070
    44
1040
1.0
1070
    74
1070
     0
1000
MTEXTEND
  0
LINE
  5
398F
330
1A
100
AcDbEntity
  8
SUNPOU
100
AcDbLine
 10
198.1028122400161
 20
147.5327049083225
 30
0.0
 11
202.0257346930287
 21
137.7251957603518
 31
0.0
  0
MTEXT
  5
3995
330
1A
100
AcDbEntity
  8
SUNPOU
100
AcDbMText
 10
194.1028122375549
 20
145.1466532083225
 30
0.0
 40
3.0
 41
0.0
 71
     1
 72
     5
  1
{\W1.111111;4}
 11
1.0
 21
0.0000000008204137
 31
0.0
1001
ACAD
1000
MTEXTBEGIN
1070
    73
1070
     1
1070
    44
1040
1.0
1070
    74
1070
     0
1000
MTEXTEND
1000
MTEXTBEGIN
1070
    73
1070
     1
1070
    44
1040
1.0
1070
    74
1070
     0
1000
MTEXTEND
1000
MTEXTBEGIN
1070
    73
1070
     1
1070
    44
1040
1.0
1070
    74
1070
     0
1000
MTEXTEND
1000
MTEXTBEGIN
1070
    73
1070
     1
1070
    44
1040
1.0
1070
    74
1070
     0
1000
MTEXTEND
1000
MTEXTBEGIN
1070
    73
1070
     1
1070
    44
1040
1.0
1070
    74
1070
     0
1000
MTEXTEND
1000
MTEXTBEGIN
1070
    73
1070
     1
1070
    44
1040
1.0
1070
    74
1070
     0
1000
MTEXTEND
  0
LINE
  5
3998
330
1A
100
AcDbEntity
  8
SEIHIN
100
AcDbLine
 10
202.0258060727466
 20
137.7252243116479
 30
0.0
 11
195.8978424727466
 21
135.2740896116479
 31
0.0
  0
LINE
  5
399A
330
1A
100
AcDbEntity
  8
SUNPOU
100
AcDbLine
 10
194.1028122400161
 20
147.5327049083225
 30
0.0
 11
194.1028122400161
 21
157.5327049083225
 31
0.0
  0
LINE
  5
399B
330
1A
100
AcDbEntity
  8
SUNPOU
100
AcDbLine
 10
194.1028122400161
 20
157.5327049083225
 30
0.0
 11
198.1028122400161
 21
147.5327049083225
 31
0.0
  0
LINE
  5
399C
330
1A
100
AcDbEntity
  8
SUNPOU
100
AcDbLine
 10
198.1028122400161
 20
147.5327049083225
 30
0.0
 11
194.1028122400161
 21
147.5327049083225
 31
0.0
  0
MTEXT
  5
39FC
102
{ACAD_REACTORS
330
39FD
102
}
330
1A
100
AcDbEntity
  8
SUNPOU
100
AcDbMText
 10
271.4323976860806
 20
187.5054165673216
 30
0.0
 40
3.0
 41
0.0
 71
     9
 72
     5
  1
4-φ4.2
1001
ACAD
1000
MTEXTBEGIN
1070
    73
1070
     1
1070
    44
1040
1.0
1070
    74
1070
     0
1000
MTEXTEND
1000
MTEXTBEGIN
1070
    73
1070
     1
1070
    44
1040
1.0
1070
    74
1070
     0
1000
MTEXTEND
1000
MTEXTBEGIN
1070
    73
1070
     1
1070
    44
1040
1.0
1070
    74
1070
     0
1000
MTEXTEND
1000
MTEXTBEGIN
1070
    73
1070
     1
1070
    44
1040
1.0
1070
    74
1070
     0
1000
MTEXTEND
1000
MTEXTBEGIN
1070
    73
1070
     1
1070
    44
1040
1.0
1070
    74
1070
     0
1000
MTEXTEND
1000
MTEXTBEGIN
1070
    73
1070
     1
1070
    44
1040
1.0
1070
    74
1070
     0
1000
MTEXTEND
1000
MTEXTBEGIN
1070
    73
1070
     1
1070
    44
1040
1.0
1070
    74
1070
     0
1000
MTEXTEND
1000
MTEXTBEGIN
1070
    73
1070
     1
1070
    44
1040
1.0
1070
    74
1070
     0
1000
MTEXTEND
1000
MTEXTBEGIN
1070
    73
1070
     1
1070
    44
1040
1.0
1070
    74
1070
     0
1000
MTEXTEND
1000
MTEXTBEGIN
1070
    73
1070
     1
1070
    44
1040
1.0
1070
    74
1070
     0
1000
MTEXTEND
  0
LEADER
  5
39FD
330
1A
100
AcDbEntity
  8
SUNPOU
100
AcDbLeader
  3
STANDARD
 73
     0
 40
3.0
 41
15.59999999999999
 76
     3
 10
298.6578842721423
 20
170.9553089982243
 30
0.0
 10
276.2895834439056
 20
189.0046231332595
 30
0.0
 10
272.4323976860806
 20
189.0054165673216
 30
0.0
340
39FC
213
0.0
223
1.5
233
0.0
1001
ACAD
1000
DSTYLE
1002
{
1070
     6
1000
OPEN
1070
    41
1040
3.0
1070
    42
1040
3.0
1070
    43
1040
7.0
1070
    44
1040
1.5
1070
    73
1070
     0
1070
    74
1070
     0
1070
    77
1070
     0
1070
   140
1040
3.0
1070
   141
1040
3.0
1070
   147
1040
1.0
1070
   172
1070
     1
1070
   173
1070
     1
1070
   176
1070
   256
1070
   177
1070
   256
1070
   178
1070
   256
1070
   271
1070
     0
1070
   272
1070
     0
1070
   341
1005
B2
1070
   343
1005
B2
1070
   344
1005
B2
1002
}
  0
DIMENSION
  5
39FE
330
1A
100
AcDbEntity
  8
SUNPOU
100
AcDbDimension
  2
*D3
 10
327.284114761346
 20
222.0740606412224
 30
0.0
 11
305.9291090665183
 21
216.2248101102675
 31
0.0
 70
    32
  3
STANDARD
100
AcDbAlignedDimension
 13
298.3648083436726
 23
175.8980825723586
 33
0.0
 14
339.2178995301859
 24
192.2389803600086
 34
0.0
 50
21.80099999999981
100
AcDbRotatedDimension
1001
ACAD
1000
DSTYLE
1002
{
1070
    41
1040
3.0
1070
    42
1040
3.0
1070
    43
1040
7.0
1070
    44
1040
1.5
1070
    73
1070
     0
1070
    74
1070
     0
1070
    77
1070
     3
1070
   140
1040
3.0
1070
   141
1040
3.0
1070
   147
1040
1.0
1070
   172
1070
     1
1070
   173
1070
     1
1070
   176
1070
   256
1070
   177
1070
   256
1070
   178
1070
   256
1070
   271
1070
     0
1070
   272
1070
     0
1070
   341
1005
B2
1070
     6
1000
OPEN
1070
     7
1000
OPEN
1002
}
  0
DIMENSION
  5
39FF
330
1A
100
AcDbEntity
  8
SUNPOU
100
AcDbDimension
  2
*D2
 10
331.7986256080398
 20
235.0212242222481
 30
0.0
 11
302.0873058068797
 21
225.8295173256375
 31
0.0
 70
    32
  3
STANDARD
100
AcDbAlignedDimension
 13
290.4170166820316
 23
171.5342989270401
 33
0.0
 14
347.9827360812096
 24
194.5601094460014
 34
0.0
 50
21.80099999999981
100
AcDbRotatedDimension
1001
ACAD
1000
DSTYLE
1002
{
1070
    41
1040
3.0
1070
    42
1040
3.0
1070
    43
1040
7.0
1070
    44
1040
1.5
1070
    73
1070
     0
1070
    74
1070
     0
1070
    77
1070
     3
1070
   140
1040
3.0
1070
   141
1040
3.0
1070
   147
1040
1.0
1070
   172
1070
     1
1070
   173
1070
     1
1070
   176
1070
   256
1070
   177
1070
   256
1070
   178
1070
   256
1070
   271
1070
     0
1070
   272
1070
     0
1070
   341
1005
B2
1070
     6
1000
OPEN
1070
     7
1000
OPEN
1002
}
  0
CIRCLE
  5
3A00
330
1A
100
AcDbEntity
  8
SEIHIN
100
AcDbCircle
 10
341.4833421780193
 20
186.5752563546055
 30
0.0
 40
2.100000000000022
  0
LINE
  5
3A01
330
1A
100
AcDbEntity
  8
CENTER_L
100
AcDbLine
 10
339.2178995301859
 20
192.2389803600086
 30
0.0
 11
343.7487848258527
 21
180.9115323492026
 31
0.0
  0
LINE
  5
3A02
330
1A
100
AcDbEntity
  8
CENTER_L
100
AcDbLine
 10
347.1470661834223
 20
188.8406990024389
 30
0.0
 11
335.8196181726162
 21
184.3098137067722
 31
0.0
  0
LINE
  5
3A03
330
1A
100
AcDbEntity
  8
SEIHIN
100
AcDbLine
 10
340.3689591332099
 20
157.0497055480678
 30
0.0
 11
357.0815873458744
 21
163.7346182793792
 31
0.0
  0
LINE
  5
3A04
330
1A
100
AcDbEntity
  8
SEIHIN
100
AcDbLine
 10
318.0857242597355
 20
185.8326422219648
 30
0.0
 11
344.0831459238803
 21
196.2313953595603
 31
0.0
  0
DIMENSION
  5
3A05
330
1A
100
AcDbEntity
  8
SUNPOU
100
AcDbDimension
  2
*D7
 10
279.0728010618266
 20
161.6115573141689
 30
0.0
 11
279.908463262183
 21
166.2539347963321
 31
0.0
 70
    32
  3
STANDARD
100
AcDbAlignedDimension
 13
292.0883025955905
 23
175.4338890843694
 33
0.0
 14
294.9665269861028
 24
167.9689159191223
 34
0.0
 50
111.8010000000003
100
AcDbRotatedDimension
1001
ACAD
1000
DSTYLE
1002
{
1070
    41
1040
3.0
1070
    42
1040
3.0
1070
    43
1040
7.0
1070
    44
1040
1.5
1070
    73
1070
     0
1070
    74
1070
     0
1070
    77
1070
     3
1070
   140
1040
3.0
1070
   141
1040
3.0
1070
   147
1040
1.0
1070
   172
1070
     1
1070
   173
1070
     1
1070
   176
1070
   256
1070
   177
1070
   256
1070
   178
1070
   256
1070
   271
1070
     0
1070
   272
1070
     0
1070
   341
1005
B2
1070
     6
1000
OPEN
1070
     7
1000
OPEN
1002
}
  0
DIMENSION
  5
3A06
330
1A
100
AcDbEntity
  8
SUNPOU
100
AcDbDimension
  2
*D5
 10
298.4080048036767
 20
140.2656716877976
 30
0.0
 11
294.2299824555494
 21
157.4425203294592
 31
0.0
 70
    32
  3
STANDARD
100
AcDbAlignedDimension
 13
265.8636855902064
 23
164.9442596938101
 33
0.0
 14
278.8621270122007
 24
132.4474826136291
 34
0.0
 50
111.8010000000003
100
AcDbRotatedDimension
1001
ACAD
1000
DSTYLE
1002
{
1070
    41
1040
3.0
1070
    42
1040
3.0
1070
    43
1040
7.0
1070
    44
1040
1.5
1070
    73
1070
     0
1070
    74
1070
     0
1070
    77
1070
     3
1070
   140
1040
3.0
1070
   141
1040
3.0
1070
   147
1040
1.0
1070
   172
1070
     1
1070
   173
1070
     1
1070
   176
1070
   256
1070
   177
1070
   256
1070
   178
1070
   256
1070
   271
1070
     0
1070
   272
1070
     0
1070
   341
1005
B2
1070
     6
1000
OPEN
1070
     7
1000
OPEN
1002
}
  0
DIMENSION
  5
3A07
330
1A
100
AcDbEntity
  8
SUNPOU
100
AcDbDimension
  2
*D4
 10
279.7983121597291
 20
132.8219489113255
 30
0.0
 11
275.6202898116018
 21
149.998797552987
 31
0.0
 70
    32
  3
STANDARD
100
AcDbAlignedDimension
 13
292.0883025955905
 23
175.4338890843694
 33
0.0
 14
305.0867440175848
 24
142.9371120041883
 34
0.0
 50
111.8010000000003
100
AcDbRotatedDimension
1001
ACAD
1000
DSTYLE
1002
{
1070
    41
1040
3.0
1070
    42
1040
3.0
1070
    43
1040
7.0
1070
    44
1040
1.5
1070
    73
1070
     0
1070
    74
1070
     0
1070
    77
1070
     3
1070
   140
1040
3.0
1070
   141
1040
3.0
1070
   147
1040
1.0
1070
   172
1070
     1
1070
   173
1070
     1
1070
   176
1070
   256
1070
   177
1070
   256
1070
   178
1070
   256
1070
   271
1070
     0
1070
   272
1070
     0
1070
   341
1005
B2
1070
     6
1000
OPEN
1070
     7
1000
OPEN
1002
}
  0
LINE
  5
3A08
330
1A
100
AcDbEntity
  8
SEIHIN
100
AcDbLine
 10
327.8347573837896
 20
189.7321746485631
 30
0.0
 11
340.8331988057839
 21
157.235397568382
 31
0.0
  0
CIRCLE
  5
3A09
330
1A
100
AcDbEntity
  8
SEIHIN
100
AcDbCircle
 10
300.6302509915059
 20
170.2343585669556
 30
0.0
 40
2.100000000000022
  0
LINE
  5
3A0A
330
1A
100
AcDbEntity
  8
CENTER_L
100
AcDbLine
 10
294.9665269861028
 20
167.9689159191223
 30
0.0
 11
306.2939749969089
 21
172.4998012147889
 31
0.0
  0
LINE
  5
3A0B
330
1A
100
AcDbEntity
  8
CENTER_L
100
AcDbLine
 10
298.3648083436726
 20
175.8980825723586
 30
0.0
 11
302.8956936393393
 21
164.5706345615526
 31
0.0
  0
LINE
  5
3A0C
330
1A
100
AcDbEntity
  8
SEIHIN
100
AcDbLine
 10
308.8009308082551
 20
182.1188018156809
 30
0.0
 11
324.8102596180757
 21
142.0946502542663
 31
0.0
  0
LINE
  5
3A0D
330
1A
100
AcDbEntity
  8
SEIHIN
100
AcDbLine
 10
290.4170166448933
 20
171.534299019888
 30
0.0
 11
301.1871537859786
 21
144.608398103443
 31
0.0
  0
LINE
  5
3A0E
330
1A
100
AcDbEntity
  8
SEIHIN
100
AcDbLine
 10
308.3366911356812
 20
181.9331097953665
 30
0.0
 11
321.3351325576754
 21
149.4363327151854
 31
0.0
  0
LINE
  5
3A0F
330
1A
100
AcDbEntity
  8
CENTER_L
100
AcDbLine
 10
312.3850636509749
 20
200.0845891283992
 30
0.0
 11
336.6947413419158
 21
139.309135274613
 31
0.0
  0
LINE
  5
3A10
330
1A
100
AcDbEntity
  8
SEIHIN
100
AcDbLine
 10
327.3705177112156
 20
189.546482628249
 30
0.0
 11
343.379846496958
 21
149.522331127032
 31
0.0
  0
CIRCLE
  5
3A11
330
1A
100
AcDbEntity
  8
SEIHIN
100
AcDbCircle
 10
307.6865477634457
 20
152.5932510091429
 30
0.0
 40
2.100000000000022
  0
LINE
  5
3A12
330
1A
100
AcDbEntity
  8
CENTER_L
100
AcDbLine
 10
302.0228237580425
 20
150.3278083613097
 30
0.0
 11
313.3502717688486
 21
154.8586936569763
 31
0.0
  0
LINE
  5
3A13
330
1A
100
AcDbEntity
  8
CENTER_L
100
AcDbLine
 10
305.4211051156124
 20
158.256975014546
 30
0.0
 11
309.951990411279
 21
146.92952700374
 31
0.0
  0
LINE
  5
3A14
330
1A
100
AcDbEntity
  8
SEIHIN
100
AcDbLine
 10
305.0867440175848
 20
142.9371120041883
 30
0.0
 11
321.7993722302492
 21
149.6220247354996
 31
0.0
  0
DIMENSION
  5
3A15
330
1A
100
AcDbEntity
  8
SUNPOU
100
AcDbDimension
  2
*D6
 10
289.1001701587937
 20
136.5426149951721
 30
0.0
 11
289.9358323591501
 21
141.1849924773352
 31
0.0
 70
    32
  3
STANDARD
100
AcDbAlignedDimension
 13
302.0228237580425
 23
150.3278083613097
 33
0.0
 14
305.0867440175848
 24
142.9371120041883
 34
0.0
 50
111.8010000000003
100
AcDbRotatedDimension
1001
ACAD
1000
DSTYLE
1002
{
1070
    41
1040
3.0
1070
    42
1040
3.0
1070
    43
1040
7.0
1070
    44
1040
1.5
1070
    73
1070
     0
1070
    74
1070
     0
1070
    77
1070
     3
1070
   140
1040
3.0
1070
   141
1040
3.0
1070
   147
1040
1.0
1070
   172
1070
     1
1070
   173
1070
     1
1070
   176
1070
   256
1070
   177
1070
   256
1070
   178
1070
   256
1070
   271
1070
     0
1070
   272
1070
     0
1070
   341
1005
B2
1070
     6
1000
OPEN
1070
     7
1000
OPEN
1002
}
  0
ARC
  5
3A16
330
1A
100
AcDbEntity
  8
SEIHIN
100
AcDbCircle
 10
303.9725918956996
 20
145.7225500396323
 30
0.0
 40
3.000000000000003
100
AcDbArc
 50
201.800996180281
 51
291.8009999999999
  0
LINE
  5
3A17
330
1A
100
AcDbEntity
  8
SEIHIN
100
AcDbLine
 10
317.0641968468717
 20
157.4212627808893
 30
0.0
 11
315.2072381565756
 21
156.6784946996325
 31
0.0
  0
LINE
  5
3A18
330
1A
100
AcDbEntity
  8
SEIHIN
100
AcDbLine
 10
317.8069649281284
 20
155.5643040905932
 30
0.0
 11
315.9500062378325
 21
154.8215360093364
 31
0.0
  0
ARC
  5
3A19
330
1A
100
AcDbEntity
  8
SEIHIN
100
AcDbCircle
 10
315.3929301768898
 20
156.2142550270585
 30
0.0
 40
0.5
100
AcDbArc
 50
111.8009999999999
 51
201.801
  0
LINE
  5
3A1A
330
1A
100
AcDbEntity
  8
SEIHIN
100
AcDbLine
 10
315.3000745449442
 20
155.1000836615962
 30
0.0
 11
314.9286905043157
 21
156.0285630067443
 31
0.0
  0
ARC
  5
3A1B
330
1A
100
AcDbEntity
  8
SEIHIN
100
AcDbCircle
 10
315.7643142175182
 20
155.2857756819104
 30
0.0
 40
0.5
100
AcDbArc
 50
201.801
 51
291.8010000000005
  0
ARC
  5
3A1C
330
1A
100
AcDbEntity
  8
SEIHIN
100
AcDbCircle
 10
340.4618724958866
 20
166.2416241240255
 30
0.0
 40
0.5
100
AcDbArc
 50
21.801
 51
111.8009999999999
  0
LINE
  5
3A1D
330
1A
100
AcDbEntity
  8
SEIHIN
100
AcDbLine
 10
338.4192217852763
 20
165.9630957153427
 30
0.0
 11
340.2761804755724
 21
166.7058637965995
 31
0.0
  0
ARC
  5
3A1E
330
1A
100
AcDbEntity
  8
SEIHIN
100
AcDbCircle
 10
340.833256536515
 20
165.3131447788775
 30
0.0
 40
0.5
100
AcDbArc
 50
291.8009999999994
 51
21.801
  0
LINE
  5
3A1F
330
1A
100
AcDbEntity
  8
SEIHIN
100
AcDbLine
 10
339.1619898665331
 20
164.1061370250466
 30
0.0
 11
341.0189485568292
 21
164.8489051063035
 31
0.0
  0
LINE
  5
3A20
330
1A
100
AcDbEntity
  8
SEIHIN
100
AcDbLine
 10
341.297496209089
 20
165.4988367991917
 30
0.0
 11
340.9261121684606
 21
166.4273161443397
 31
0.0
  0
LINE
  5
3A22
330
1A
100
AcDbEntity
  8
SEIHIN
100
AcDbLine
 10
310.0079000749319
 20
175.0623703387019
 30
0.0
 11
308.1509413846358
 21
174.3196022574451
 31
0.0
  0
LINE
  5
3A23
330
1A
100
AcDbEntity
  8
SEIHIN
100
AcDbLine
 10
310.7506681561887
 20
173.2054116484059
 30
0.0
 11
308.8937094658926
 21
172.462643567149
 31
0.0
  0
LINE
  5
3A24
330
1A
100
AcDbEntity
  8
SEIHIN
100
AcDbLine
 10
292.0883025955905
 20
175.4338890843694
 30
0.0
 11
318.0857242597354
 21
185.8326422219649
 31
0.0
  0
ARC
  5
3A25
330
1A
100
AcDbEntity
  8
SEIHIN
100
AcDbCircle
 10
293.2024547174757
 20
172.6484510489253
 30
0.0
 40
3.0
100
AcDbArc
 50
111.8009999999999
 51
201.801
  0
LINE
  5
3A26
330
1A
100
AcDbEntity
  8
SEIHIN
100
AcDbLine
 10
308.2437777730044
 20
172.7411912194088
 30
0.0
 11
307.872393732376
 21
173.6696705645569
 31
0.0
  0
ARC
  5
3A27
330
1A
100
AcDbEntity
  8
SEIHIN
100
AcDbCircle
 10
308.7080174455783
 20
172.926883239723
 30
0.0
 40
0.5
100
AcDbArc
 50
201.801
 51
291.8010000000005
  0
ARC
  5
3A28
330
1A
100
AcDbEntity
  8
SEIHIN
100
AcDbCircle
 10
308.3366334049499
 20
173.8553625848711
 30
0.0
 40
0.5
100
AcDbArc
 50
111.8009999999999
 51
201.801
  0
LINE
  5
3A2A
330
1A
100
AcDbEntity
  8
SEIHIN
100
AcDbLine
 10
337.808970438109
 20
147.2940268531628
 30
0.0
 11
335.9376054616297
 21
151.9725362607145
 31
0.0
  0
LINE
  5
3A2B
330
1A
100
AcDbEntity
  8
SEIHIN
100
AcDbLine
 10
330.3811356769246
 20
144.3229545281355
 30
0.0
 11
328.5097707004453
 21
149.0014639356872
 31
0.0
  0
ARC
  5
3A2C
330
1A
100
AcDbEntity
  8
SEIHIN
100
AcDbCircle
 10
333.4055757239469
 20
183.8827316818381
 30
0.0
 40
0.5
100
AcDbArc
 50
21.801
 51
111.8009999999999
  0
LINE
  5
3A2D
330
1A
100
AcDbEntity
  8
SEIHIN
100
AcDbLine
 10
332.1056930945934
 20
181.7472445828593
 30
0.0
 11
333.9626517848894
 21
182.490012664116
 31
0.0
  0
LINE
  5
3A2E
330
1A
100
AcDbEntity
  8
SEIHIN
100
AcDbLine
 10
331.3629250133365
 20
183.6042032731553
 30
0.0
 11
333.2198837036326
 21
184.3469713544121
 31
0.0
  0
ARC
  5
3A2F
330
1A
100
AcDbEntity
  8
SEIHIN
100
AcDbCircle
 10
333.7769597645753
 20
182.9542523366901
 30
0.0
 40
0.5
100
AcDbArc
 50
291.8009999999994
 51
21.801
  0
LINE
  5
3A30
330
1A
100
AcDbEntity
  8
SEIHIN
100
AcDbLine
 10
334.2411994371492
 20
183.1399443570043
 30
0.0
 11
333.8698153965208
 21
184.0684237021523
 31
0.0
  0
CIRCLE
  5
3A32
330
1A
100
AcDbEntity
  8
SEIHIN
100
AcDbCircle
 10
348.5396389499591
 20
168.934148796793
 30
0.0
 40
2.100000000000022
  0
LINE
  5
3A33
330
1A
100
AcDbEntity
  8
CENTER_L
100
AcDbLine
 10
346.2741963021258
 20
174.597872802196
 30
0.0
 11
350.8050815977924
 21
163.2704247913899
 31
0.0
  0
LINE
  5
3A34
330
1A
100
AcDbEntity
  8
CENTER_L
100
AcDbLine
 10
354.2033629553621
 20
171.1995914446262
 30
0.0
 11
342.8759149445559
 21
166.6687061489596
 31
0.0
  0
LINE
  5
3A35
330
1A
100
AcDbEntity
  8
SEIHIN
100
AcDbLine
 10
347.9827360440711
 20
194.5601095388493
 30
0.0
 11
358.7528731851567
 21
167.6342086224044
 31
0.0
  0
ARC
  5
3A36
330
1A
100
AcDbEntity
  8
SEIHIN
100
AcDbCircle
 10
355.9674352239893
 20
166.5200563148233
 30
0.0
 40
3.000000000000003
100
AcDbArc
 50
291.8009999999999
 51
21.80100381971894
  0
ARC
  5
3A37
330
1A
100
AcDbEntity
  8
SEIHIN
100
AcDbCircle
 10
345.1972980457654
 20
193.4459573241161
 30
0.0
 40
3.0
100
AcDbArc
 50
21.80100190985947
 51
111.8009999999999
  0
LINE
  5
3B2A
330
1A
100
AcDbEntity
  8
CENTER_L
100
AcDbLine
 10
199.3331544703764
 20
128.0319468828114
 30
0.0
 11
210.6606024811826
 21
132.5628321784781
 31
0.0
  0
LINE
  5
3B2B
330
1A
100
AcDbEntity
  8
CENTER_L
100
AcDbLine
 10
206.3894512423161
 20
112.0752520902796
 30
0.0
 11
217.7168992531223
 21
116.6061373859462
 31
0.0
  0
LINE
  5
3B5C
330
1A
100
AcDbEntity
  8
SEIHIN
100
AcDbLine
 10
202.0258060727466
 20
217.5746744800503
 30
0.0
 11
202.0258060727466
 21
200.8746744800503
 31
0.0
  0
LINE
  5
3B5D
330
1A
100
AcDbEntity
  8
SEIHIN
100
AcDbLine
 10
200.5402391727466
 20
216.4746744800503
 30
0.0
 11
200.5402391727466
 21
200.8746744800503
 31
0.0
  0
LINE
  5
3B5E
330
1A
100
AcDbEntity
  8
SEIHIN
100
AcDbLine
 10
195.8978424727466
 20
217.5746744800503
 30
0.0
 11
195.8978424727466
 21
240.1746744800502
 31
0.0
  0
ARC
  5
3B5F
330
1A
100
AcDbEntity
  8
SEIHIN
100
AcDbCircle
 10
196.6978424727467
 20
217.5746744800504
 30
0.0
 40
0.8
100
AcDbArc
 50
180.0000000000061
 51
269.9999999999979
  0
ARC
  5
3B60
330
1A
100
AcDbEntity
  8
SEIHIN
100
AcDbCircle
 10
201.2258060727466
 20
217.5746744800503
 30
0.0
 40
0.8
100
AcDbArc
 50
0.0
 51
90.00000000000204
  0
ARC
  5
3B61
330
1A
100
AcDbEntity
  8
SEIHIN
100
AcDbCircle
 10
200.2402391727466
 20
216.4746744800503
 30
0.0
 40
0.3
100
AcDbArc
 50
359.9999999999891
 51
90.00000000001085
  0
LINE
  5
3B62
330
1A
100
AcDbEntity
  8
SEIHIN
100
AcDbLine
 10
197.3834093867484
 20
218.6746744800503
 30
0.0
 11
197.3834093867484
 21
239.0746744800503
 31
0.0
  0
ARC
  5
3B63
330
1A
100
AcDbEntity
  8
SEIHIN
100
AcDbCircle
 10
197.6834093867483
 20
218.6746744800502
 30
0.0
 40
0.3
100
AcDbArc
 50
179.9999999999837
 51
270.0000000000108
  0
LINE
  5
3B67
330
1A
100
AcDbEntity
  8
SEIHIN
100
AcDbLine
 10
201.5615664713884
 20
218.8746744800503
 30
0.0
 11
201.5615664713884
 21
238.8746744800503
 31
0.0
  0
LINE
  5
3B68
330
1A
100
AcDbEntity
  8
SEIHIN
100
AcDbLine
 10
215.0242475727466
 20
200.8746744800503
 30
0.0
 11
215.0242475727466
 21
217.5746744800503
 31
0.0
  0
ELLIPSE
  5
3B6D
330
1A
100
AcDbEntity
  8
SEIHIN
100
AcDbEllipse
 10
203.1399582193353
 20
200.8746744800503
 30
0.0
 11
-0.0000000000000155
 21
3.0
 31
0.0
210
0.0
220
0.0
230
1.0
 40
0.3713840488628743
 41
1.570796326794894
 42
3.141592653589778
  0
ELLIPSE
  5
3B6E
330
1A
100
AcDbEntity
  8
SEIHIN
100
AcDbEllipse
 10
213.910095426158
 20
200.8746744800503
 30
0.0
 11
0.0000000000000157
 21
3.0
 31
0.0
210
0.0
220
0.0
230
1.0
 40
0.3713840488628743
 41
3.141592653589807
 42
4.712388980384691
  0
ELLIPSE
  5
3B70
330
1A
100
AcDbEntity
  8
SEIHIN
100
AcDbEllipse
 10
201.6543913193352
 20
200.8746744800503
 30
0.0
 11
-0.0000000000000155
 21
3.0
 31
0.0
210
0.0
220
0.0
230
1.0
 40
0.3713840488628743
 41
1.570796326794894
 42
3.141592653589778
  0
LINE
  5
3B71
330
1A
100
AcDbEntity
  8
CENTER_L
100
AcDbLine
 10
204.9968784291755
 20
212.9746744800502
 30
0.0
 11
204.9968784291755
 21
200.774818930458
 31
0.0
  0
ELLIPSE
  5
3B77
330
1A
100
AcDbEntity
  8
SEIHIN
100
AcDbEllipse
 10
204.9968784291755
 20
206.8746744800503
 30
0.0
 11
0.0
 21
2.099999999999994
 31
0.0
210
0.0
220
0.0
230
1.0
 40
0.3713840423544865
 41
0.0
 42
6.283185307179586
  0
ELLIPSE
  5
3B78
330
1A
100
AcDbEntity
  8
SEIHIN
100
AcDbEllipse
 10
212.0531752339107
 20
206.8746744800503
 30
0.0
 11
0.0
 21
2.099999999999994
 31
0.0
210
0.0
220
0.0
230
1.0
 40
0.3713840423544865
 41
0.0
 42
6.283185307179586
  0
LINE
  5
3B7A
330
1A
100
AcDbEntity
  8
CENTER_L
100
AcDbLine
 10
212.0531752339107
 20
212.9746744800502
 30
0.0
 11
212.0531752339107
 21
200.774818930458
 31
0.0
  0
LINE
  5
3B7C
330
1A
100
AcDbEntity
  8
SEIHIN
100
AcDbLine
 10
216.0306330496908
 20
218.8746744800503
 30
0.0
 11
197.3834093867484
 21
218.8746744800503
 31
0.0
  0
LINE
  5
3B7D
330
1A
100
AcDbEntity
  8
SEIHIN
100
AcDbLine
 10
216.0306330496908
 20
218.8746744800503
 30
0.0
 11
216.0306330496908
 21
224.3746744800503
 31
0.0
  0
LINE
  5
3B7E
330
1A
100
AcDbEntity
  8
SEIHIN
100
AcDbLine
 10
210.3818508867484
 20
218.6746744800503
 30
0.0
 11
210.3818508867484
 21
218.8746744800503
 31
0.0
  0
ARC
  5
3B7F
330
1A
100
AcDbEntity
  8
SEIHIN
100
AcDbCircle
 10
214.2242475727467
 20
217.5746744800503
 30
0.0
 40
0.8
100
AcDbArc
 50
0.0
 51
90.00000000000204
  0
ARC
  5
3B80
330
1A
100
AcDbEntity
  8
SEIHIN
100
AcDbCircle
 10
210.6818508867484
 20
218.6746744800502
 30
0.0
 40
0.3
100
AcDbArc
 50
179.9999999999837
 51
270.0000000000108
  0
LINE
  5
3B81
330
1A
100
AcDbEntity
  8
SEIHIN
100
AcDbLine
 10
215.0242475727466
 20
256.8746744800503
 30
0.0
 11
215.0242475727466
 21
240.1746744800503
 31
0.0
  0
LINE
  5
3B82
330
1A
100
AcDbEntity
  8
CENTER_L
100
AcDbLine
 10
212.0531752339107
 20
244.7746744800503
 30
0.0
 11
212.0531752339107
 21
256.9745300296425
 31
0.0
  0
LINE
  5
3B83
330
1A
100
AcDbEntity
  8
CENTER_L
100
AcDbLine
 10
204.9968784291755
 20
244.7746744800503
 30
0.0
 11
204.9968784291755
 21
256.9745300296425
 31
0.0
  0
LINE
  5
3B84
330
1A
100
AcDbEntity
  8
SEIHIN
100
AcDbLine
 10
200.5402391727466
 20
241.2746744800503
 30
0.0
 11
200.5402391727466
 21
256.8746744800503
 31
0.0
  0
LINE
  5
3B85
330
1A
100
AcDbEntity
  8
SEIHIN
100
AcDbLine
 10
202.0258060727466
 20
240.1746744800503
 30
0.0
 11
202.0258060727466
 21
256.8746744800503
 31
0.0
  0
LINE
  5
3B86
330
1A
100
AcDbEntity
  8
SEIHIN
100
AcDbLine
 10
213.910095426158
 20
259.8746744800503
 30
0.0
 11
201.6543913193352
 21
259.8746744800503
 31
0.0
  0
ELLIPSE
  5
3B87
330
1A
100
AcDbEntity
  8
SEIHIN
100
AcDbEllipse
 10
201.6543913193352
 20
256.8746744800503
 30
0.0
 11
-0.0000000000000017
 21
3.0
 31
0.0
210
0.0
220
0.0
230
-1.0
 40
0.3713840488628743
 41
-1.570796326794896
 42
0.0000000000000018
  0
ELLIPSE
  5
3B88
330
1A
100
AcDbEntity
  8
SEIHIN
100
AcDbEllipse
 10
203.1399582193353
 20
256.8746744800503
 30
0.0
 11
-0.0000000000000017
 21
3.0
 31
0.0
210
0.0
220
0.0
230
-1.0
 40
0.3713840488628743
 41
-1.570796326794896
 42
0.0000000000000018
  0
ELLIPSE
  5
3B89
330
1A
100
AcDbEntity
  8
SEIHIN
100
AcDbEllipse
 10
213.910095426158
 20
256.8746744800503
 30
0.0
 11
0.0000000000000019
 21
3.0
 31
0.0
210
0.0
220
0.0
230
-1.0
 40
0.3713840488628742
 41
-0.000000000000002
 42
1.570796326794896
  0
LINE
  5
3B8A
330
1A
100
AcDbEntity
  8
SEIHIN
100
AcDbLine
 10
216.0306330496908
 20
238.8746744800502
 30
0.0
 11
197.3834093867484
 21
238.8746744800503
 31
0.0
  0
LINE
  5
3B8B
330
1A
100
AcDbEntity
  8
SEIHIN
100
AcDbLine
 10
214.2242475727466
 20
239.3746744800503
 30
0.0
 11
197.6834093867483
 21
239.3746744800503
 31
0.0
  0
LINE
  5
3B8C
330
1A
100
AcDbEntity
  8
CENTER_L
100
AcDbLine
 10
200.216836976908
 20
250.8746744800503
 30
0.0
 11
217.3137936024103
 21
250.8746744800503
 31
0.0
  0
ELLIPSE
  5
3B8D
330
1A
100
AcDbEntity
  8
SEIHIN
100
AcDbEllipse
 10
204.9968784291755
 20
250.8746744800503
 30
0.0
 11
0.0
 21
-2.099999999999994
 31
0.0
210
0.0
220
0.0
230
-1.0
 40
0.3713840423544865
 41
0.0
 42
6.283185307179586
  0
ARC
  5
3B8E
330
1A
100
AcDbEntity
  8
SEIHIN
100
AcDbCircle
 10
201.2258060727466
 20
240.1746744800503
 30
0.0
 40
0.8
100
AcDbArc
 50
269.9999999999979
 51
0.0
  0
LINE
  5
3B8F
330
1A
100
AcDbEntity
  8
SEIHIN
100
AcDbLine
 10
196.6978424727466
 20
240.9746744800503
 30
0.0
 11
200.2402391727466
 21
240.9746744800503
 31
0.0
  0
ARC
  5
3B90
330
1A
100
AcDbEntity
  8
SEIHIN
100
AcDbCircle
 10
196.6978424727467
 20
240.1746744800502
 30
0.0
 40
0.8
100
AcDbArc
 50
90.00000000000204
 51
179.9999999999938
  0
ARC
  5
3B91
330
1A
100
AcDbEntity
  8
SEIHIN
100
AcDbCircle
 10
197.6834093867483
 20
239.0746744800503
 30
0.0
 40
0.3
100
AcDbArc
 50
89.99999999998918
 51
180.0000000000162
  0
ARC
  5
3B92
330
1A
100
AcDbEntity
  8
SEIHIN
100
AcDbCircle
 10
200.2402391727466
 20
241.2746744800502
 30
0.0
 40
0.3
100
AcDbArc
 50
269.9999999999891
 51
0.0000000000108534
  0
ELLIPSE
  5
3B93
330
1A
100
AcDbEntity
  8
SEIHIN
100
AcDbEllipse
 10
212.0531752339107
 20
250.8746744800503
 30
0.0
 11
0.0
 21
-2.099999999999994
 31
0.0
210
0.0
220
0.0
230
-1.0
 40
0.3713840423544865
 41
0.0
 42
6.283185307179586
  0
LINE
  5
3B94
330
1A
100
AcDbEntity
  8
SEIHIN
100
AcDbLine
 10
210.3818508867484
 20
239.0746744800503
 30
0.0
 11
210.3818508867484
 21
238.8746744800502
 31
0.0
  0
ARC
  5
3B95
330
1A
100
AcDbEntity
  8
SEIHIN
100
AcDbCircle
 10
210.6818508867484
 20
239.0746744800503
 30
0.0
 40
0.3
100
AcDbArc
 50
89.99999999998918
 51
180.0000000000162
  0
ARC
  5
3B96
330
1A
100
AcDbEntity
  8
SEIHIN
100
AcDbCircle
 10
214.2242475727467
 20
240.1746744800503
 30
0.0
 40
0.8
100
AcDbArc
 50
269.9999999999979
 51
0.0
  0
LINE
  5
3B98
330
1A
100
AcDbEntity
  8
SEIHIN
100
AcDbLine
 10
215.5306330496908
 20
224.8746744800502
 30
0.0
 11
215.5306330496908
 21
232.8746744800502
 31
0.0
  0
LINE
  5
3B9A
330
1A
100
AcDbEntity
  8
SEIHIN
100
AcDbLine
 10
216.0306330496908
 20
233.3746744800503
 30
0.0
 11
215.5306330496908
 21
232.8746744800502
 31
0.0
  0
LINE
  5
3B9B
330
1A
100
AcDbEntity
  8
SEIHIN
100
AcDbLine
 10
216.0306330496908
 20
224.3746744800502
 30
0.0
 11
215.5306330496908
 21
224.8746744800503
 31
0.0
  0
LINE
  5
3B9C
330
1A
100
AcDbEntity
  8
SEIHIN
100
AcDbLine
 10
216.0306330496908
 20
233.3746744800503
 30
0.0
 11
216.0306330496908
 21
238.8746744800502
 31
0.0
  0
LINE
  5
3BD8
330
1A
100
AcDbEntity
  8
SEIHIN
100
AcDbLine
 10
343.379846496958
 20
149.522331127032
 30
0.0
 11
324.8102596180756
 21
142.0946502542663
 31
0.0
  0
LINE
  5
3BDB
330
1A
100
AcDbEntity
  8
SEIHIN
100
AcDbLine
 10
199.9831053749723
 20
130.4459816213026
 30
0.0
 11
201.468641534538
 21
126.7320642395313
 31
0.0
  0
LINE
  5
3BDC
330
1A
100
AcDbEntity
  8
CENTER_L
100
AcDbLine
 10
199.9831053749723
 20
130.4459816213026
 30
0.0
 11
201.8400640652683
 21
131.1887497025595
 31
0.0
  0
LINE
  5
3BDD
330
1A
100
AcDbEntity
  8
SEIHIN
100
AcDbLine
 10
199.9831053749723
 20
130.4459816213026
 30
0.0
 11
201.8400640652683
 21
131.1887497025595
 31
0.0
  0
LINE
  5
3BDE
330
1A
100
AcDbEntity
  8
SEIHIN
100
AcDbLine
 10
201.468641534538
 20
126.7320642395313
 30
0.0
 11
203.325600224834
 21
127.4748323207882
 31
0.0
  0
LINE
  5
3BE0
330
1A
100
AcDbEntity
  8
SEIHIN
100
AcDbLine
 10
207.0394021797075
 20
114.4892868418887
 30
0.0
 11
208.8963608700036
 21
115.2320549231455
 31
0.0
  0
LINE
  5
3BE1
330
1A
100
AcDbEntity
  8
SEIHIN
100
AcDbLine
 10
207.0394021797075
 20
114.4892868418887
 30
0.0
 11
208.5249383392732
 21
110.7753694601174
 31
0.0
  0
LINE
  5
3BE2
330
1A
100
AcDbEntity
  8
SEIHIN
100
AcDbLine
 10
207.0394021797075
 20
114.4892868418887
 30
0.0
 11
208.8963608700036
 21
115.2320549231455
 31
0.0
  0
LINE
  5
3BE3
330
1A
100
AcDbEntity
  8
SEIHIN
100
AcDbLine
 10
208.5249383392732
 20
110.7753694601174
 30
0.0
 11
210.3818970295692
 21
111.5181375413742
 31
0.0
  0
LINE
  5
3BE6
330
1A
100
AcDbEntity
  8
SEIHIN
100
AcDbLine
 10
205.9968784291755
 20
216.3746744800503
 30
0.0
 11
203.9968784291755
 21
216.3746744800503
 31
0.0
  0
LINE
  5
3BE7
330
1A
100
AcDbEntity
  8
SEIHIN
100
AcDbLine
 10
203.9968784291755
 20
216.3746744800503
 30
0.0
 11
203.9968784291755
 21
217.5746744800503
 31
0.0
  0
LINE
  5
3BE8
330
1A
100
AcDbEntity
  8
SEIHIN
100
AcDbLine
 10
205.9968784291755
 20
216.3746744800503
 30
0.0
 11
205.9968784291755
 21
217.5746744800503
 31
0.0
  0
LINE
  5
3BEB
330
1A
100
AcDbEntity
  8
SEIHIN
100
AcDbLine
 10
213.0531752339107
 20
216.3746744800503
 30
0.0
 11
211.0531752339107
 21
216.3746744800503
 31
0.0
  0
LINE
  5
3BEC
330
1A
100
AcDbEntity
  8
SEIHIN
100
AcDbLine
 10
211.0531752339107
 20
216.3746744800503
 30
0.0
 11
211.0531752339107
 21
217.5746744800503
 31
0.0
  0
LINE
  5
3BED
330
1A
100
AcDbEntity
  8
SEIHIN
100
AcDbLine
 10
213.0531752339107
 20
216.3746744800503
 30
0.0
 11
213.0531752339107
 21
217.5746744800503
 31
0.0
  0
LINE
  5
3BEE
330
1A
100
AcDbEntity
  8
SEIHIN
100
AcDbLine
 10
205.9968784291755
 20
241.3746744800503
 30
0.0
 11
203.9968784291755
 21
241.3746744800503
 31
0.0
  0
LINE
  5
3BEF
330
1A
100
AcDbEntity
  8
SEIHIN
100
AcDbLine
 10
203.9968784291755
 20
241.3746744800503
 30
0.0
 11
203.9968784291755
 21
240.1746744800503
 31
0.0
  0
LINE
  5
3BF0
330
1A
100
AcDbEntity
  8
SEIHIN
100
AcDbLine
 10
205.9968784291755
 20
241.3746744800503
 30
0.0
 11
205.9968784291755
 21
240.1746744800503
 31
0.0
  0
LINE
  5
3BF1
330
1A
100
AcDbEntity
  8
SEIHIN
100
AcDbLine
 10
213.0531752339107
 20
241.3746744800503
 30
0.0
 11
213.0531752339107
 21
240.1746744800503
 31
0.0
  0
LINE
  5
3BF2
330
1A
100
AcDbEntity
  8
SEIHIN
100
AcDbLine
 10
211.0531752339107
 20
241.3746744800503
 30
0.0
 11
211.0531752339107
 21
240.1746744800503
 31
0.0
  0
LINE
  5
3BF3
330
1A
100
AcDbEntity
  8
SEIHIN
100
AcDbLine
 10
213.0531752339107
 20
241.3746744800503
 30
0.0
 11
211.0531752339107
 21
241.3746744800503
 31
0.0
  0
ARC
  5
3BF6
330
1A
100
AcDbEntity
  8
SEIHIN
100
AcDbCircle
 10
212.2531752339107
 20
217.5746744800503
 30
0.0
 40
0.8
100
AcDbArc
 50
0.0
 51
90.00000000000204
  0
ARC
  5
3BF7
330
1A
100
AcDbEntity
  8
SEIHIN
100
AcDbCircle
 10
210.2531752339107
 20
217.5746744800503
 30
0.0
 40
0.8
100
AcDbArc
 50
0.0
 51
90.00000000000204
  0
ARC
  5
3BF8
330
1A
100
AcDbEntity
  8
SEIHIN
100
AcDbCircle
 10
203.1968784291755
 20
217.5746744800503
 30
0.0
 40
0.8
100
AcDbArc
 50
0.0
 51
90.00000000000204
  0
ARC
  5
3BF9
330
1A
100
AcDbEntity
  8
SEIHIN
100
AcDbCircle
 10
205.1968784291755
 20
217.5746744800503
 30
0.0
 40
0.8
100
AcDbArc
 50
0.0
 51
90.00000000000204
  0
ARC
  5
3BFA
330
1A
100
AcDbEntity
  8
SEIHIN
100
AcDbCircle
 10
205.1968784291755
 20
240.1746744800503
 30
0.0
 40
0.8
100
AcDbArc
 50
269.9999999999979
 51
0.0
  0
ARC
  5
3BFB
330
1A
100
AcDbEntity
  8
SEIHIN
100
AcDbCircle
 10
203.1968784291755
 20
240.1746744800503
 30
0.0
 40
0.8
100
AcDbArc
 50
269.9999999999979
 51
0.0
  0
ARC
  5
3BFC
330
1A
100
AcDbEntity
  8
SEIHIN
100
AcDbCircle
 10
210.2531752339107
 20
240.1746744800503
 30
0.0
 40
0.8
100
AcDbArc
 50
269.9999999999979
 51
0.0
  0
ARC
  5
3BFD
330
1A
100
AcDbEntity
  8
SEIHIN
100
AcDbCircle
 10
212.2531752339107
 20
240.1746744800503
 30
0.0
 40
0.8
100
AcDbArc
 50
269.9999999999979
 51
0.0
  0
DIMENSION
  5
3C2E
330
1A
100
AcDbEntity
  8
SUNPOU
100
AcDbDimension
  2
*D8
 10
216.0306330496908
 20
178.3491493404877
 30
0.0
 11
146.5301238112187
 21
180.8491493404877
 31
0.0
 70
    32
  3
STANDARD
100
AcDbAlignedDimension
 13
77.02961457274665
 23
80.96134237692865
 33
0.0
 14
216.0306330496908
 24
101.9913457769286
 34
0.0
100
AcDbRotatedDimension
1001
ACAD
1000
DSTYLE
1002
{
1070
    41
1040
3.0
1070
    42
1040
3.0
1070
    43
1040
7.0
1070
    44
1040
1.5
1070
    73
1070
     0
1070
    74
1070
     0
1070
    77
1070
     3
1070
   140
1040
3.0
1070
   141
1040
3.0
1070
   147
1040
1.0
1070
   172
1070
     1
1070
   173
1070
     1
1070
   176
1070
   256
1070
   177
1070
   256
1070
   178
1070
   256
1070
   271
1070
     0
1070
   272
1070
     0
1070
   341
1005
B2
1070
     6
1000
OPEN
1070
     7
1000
OPEN
1002
}
  0
DIMENSION
  5
3C48
330
1A
100
AcDbEntity
  8
SUNPOU
100
AcDbDimension
  2
*D9
 10
238.0702199359144
 20
116.6349871178085
 30
0.0
 11
233.8744236359079
 21
133.0128872499974
 31
0.0
 70
    33
  3
STANDARD
100
AcDbAlignedDimension
 13
202.0258060727466
 23
137.7252243116479
 33
0.0
 14
215.0242475727466
 24
106.9128599769286
 34
0.0
1001
ACAD
1000
DSTYLE
1002
{
1070
    41
1040
3.0
1070
    42
1040
3.0
1070
    43
1040
7.0
1070
    44
1040
1.5
1070
    73
1070
     0
1070
    74
1070
     0
1070
    77
1070
     3
1070
   140
1040
3.0
1070
   141
1040
3.0
1070
   147
1040
1.0
1070
   172
1070
     1
1070
   173
1070
     1
1070
   176
1070
   256
1070
   177
1070
   256
1070
   178
1070
   256
1070
   271
1070
     0
1070
   272
1070
     0
1070
   341
1005
B2
1070
     6
1000
OPEN
1070
     7
1000
OPEN
1002
}
  0
DIMENSION
  5
3C55
330
1A
100
AcDbEntity
  8
SUNPOU
100
AcDbDimension
  2
*D10
 10
237.9670046099438
 20
197.8746744800503
 30
0.0
 11
235.4670046099438
 21
228.8746744800503
 31
0.0
 70
    32
  3
STANDARD
100
AcDbAlignedDimension
 13
213.910095426158
 23
259.8746744800503
 33
0.0
 14
213.910095426158
 24
197.8746744800503
 34
0.0
 50
90.0
100
AcDbRotatedDimension
1001
ACAD
1000
DSTYLE
1002
{
1070
    41
1040
3.0
1070
    42
1040
3.0
1070
    43
1040
7.0
1070
    44
1040
1.5
1070
    73
1070
     0
1070
    74
1070
     0
1070
    77
1070
     3
1070
   140
1040
3.0
1070
   141
1040
3.0
1070
   147
1040
1.0
1070
   172
1070
     1
1070
   173
1070
     1
1070
   176
1070
   256
1070
   177
1070
   256
1070
   178
1070
   256
1070
   271
1070
     0
1070
   272
1070
     0
1070
   341
1005
B2
1070
     6
1000
OPEN
1070
     7
1000
OPEN
1002
}
  0
DIMENSION
  5
3C62
330
1A
100
AcDbEntity
  8
SUNPOU
100
AcDbDimension
  2
*D11
 10
216.0306330496908
 20
169.1803744500991
 30
0.0
 11
172.7801238112187
 21
171.6803744500991
 31
0.0
 70
    32
  3
STANDARD
100
AcDbAlignedDimension
 13
129.5296145727466
 23
82.26134237692868
 33
0.0
 14
216.0306330496908
 24
101.9913457769286
 34
0.0
100
AcDbRotatedDimension
1001
ACAD
1000
DSTYLE
1002
{
1070
    41
1040
3.0
1070
    42
1040
3.0
1070
    43
1040
7.0
1070
    44
1040
1.5
1070
    73
1070
     0
1070
    74
1070
     0
1070
    77
1070
     3
1070
   140
1040
3.0
1070
   141
1040
3.0
1070
   147
1040
1.0
1070
   172
1070
     1
1070
   173
1070
     1
1070
   176
1070
   256
1070
   177
1070
   256
1070
   178
1070
   256
1070
   271
1070
     0
1070
   272
1070
     0
1070
   341
1005
B2
1070
     6
1000
OPEN
1070
     7
1000
OPEN
1002
}
  0
LINE
  5
3FCA
330
1A
100
AcDbEntity
  8
SEIHIN
100
AcDbLine
 10
169.2693431569417
 20
98.92817377432679
 30
0.0
 11
208.6638457727466
 21
101.8935115769286
 31
0.0
  0
LINE
  5
3FCB
330
1A
100
AcDbEntity
  8
SEIHIN
100
AcDbLine
 10
169.2926607485636
 20
97.92844570721751
 30
0.0
 11
210.5829685268111
 21
100.9927162141421
 31
0.0
  0
LINE
  5
3FCC
330
1A
100
AcDbEntity
  8
SEIHIN
100
AcDbLine
 10
170.9019231232786
 20
93.50893022431383
 30
0.0
 11
210.8184808735793
 21
96.49888336104073
 31
0.0
  0
DIMENSION
  5
3FCD
330
1A
100
AcDbEntity
  8
SUNPOU
100
AcDbDimension
  2
*D12
 10
50.19880180440896
 20
137.7251957603518
 30
0.0
 11
47.69880180440893
 21
110.1854754512806
 31
0.0
 70
    32
  3
STANDARD
100
AcDbAlignedDimension
 13
77.02961457274665
 23
82.64575514220938
 33
0.0
 14
202.0257346930287
 24
137.7251957603518
 34
0.0
 50
90.0
100
AcDbRotatedDimension
1001
ACAD
1000
DSTYLE
1002
{
1070
    41
1040
3.0
1070
    42
1040
3.0
1070
    43
1040
7.0
1070
    44
1040
1.5
1070
    73
1070
     0
1070
    74
1070
     0
1070
    77
1070
     3
1070
   140
1040
3.0
1070
   141
1040
3.0
1070
   147
1040
1.0
1070
   172
1070
     1
1070
   173
1070
     1
1070
   176
1070
   256
1070
   177
1070
   256
1070
   178
1070
   256
1070
   271
1070
     0
1070
   272
1070
     0
1070
   341
1005
B2
1070
     6
1000
OPEN
1070
     7
1000
OPEN
1002
}
  0
TEXT
  5
41AE
330
1A
100
AcDbEntity
  8
MOJI
100
AcDbText
 10
119.9136010211517
 20
9.002460288415193
 30
0.0
 40
2.799999999999999
  1
亜鉛メッキ金具正面打（吊）ストロング高強度金具（釣針型）
 41
0.9
  7
ｽﾀｲﾙ1
100
AcDbText
  0
LINE
  5
41AF
330
1A
100
AcDbEntity
  8
ZUWAKU
100
AcDbLine
 10
104.3233003257602
 20
7.599999759711518
 30
0.0
 11
223.7121816662219
 21
7.599999759711515
 31
0.0
  0
LINE
  5
41B0
330
1A
100
AcDbEntity
  8
ZUWAKU
100
AcDbLine
 10
104.3233003257602
 20
7.799999759711516
 30
0.0
 11
223.7121816662219
 21
7.79999975971152
 31
0.0
  0
LINE
  5
41B1
330
1A
100
AcDbEntity
  8
ZUWAKU
100
AcDbLine
 10
104.3233003257602
 20
7.699999759711516
 30
0.0
 11
223.7121816662219
 21
7.699999759711516
 31
0.0
  0
LINE
  5
41B2
330
1A
100
AcDbEntity
  8
ZUWAKU
100
AcDbLine
 10
-0.000000319273795
 20
15.3999997597115
 30
0.0
 11
398.6999996807261
 21
15.3999997597115
 31
0.0
  0
LINE
  5
41B3
330
1A
100
AcDbEntity
  8
ZUWAKU
100
AcDbLine
 10
-0.000000319273795
 20
15.2999997597115
 30
0.0
 11
398.6999996807261
 21
15.2999997597115
 31
0.0
  0
LINE
  5
41B4
330
1A
100
AcDbEntity
  8
ZUWAKU
100
AcDbLine
 10
-0.000000319273795
 20
15.1999997597115
 30
0.0
 11
398.6999996807261
 21
15.1999997597115
 31
0.0
  0
LINE
  5
41B5
330
1A
100
AcDbEntity
  8
ZUWAKU
100
AcDbLine
 10
-0.000000319273795
 20
15.0999997597115
 30
0.0
 11
398.6999996807261
 21
15.0999997597115
 31
0.0
  0
LINE
  5
41B6
330
1A
100
AcDbEntity
  8
ZUWAKU
100
AcDbLine
 10
-0.000000319273795
 20
14.99999975971149
 30
0.0
 11
398.6999996807261
 21
14.99999975971149
 31
0.0
  0
LWPOLYLINE
  5
41B7
330
1A
100
AcDbEntity
  8
ZUWAKU
100
AcDbPolyline
 90
        4
 70
     1
 43
0.0
 10
0.099999680726171
 20
275.6999997597115
 10
0.099999680726171
 20
0.0999997597115226
 10
398.6999996807261
 20
0.0999997597115341
 10
398.6999996807262
 20
275.6999997597115
  0
LWPOLYLINE
  5
41B8
330
1A
100
AcDbEntity
  8
ZUWAKU
100
AcDbPolyline
 90
        4
 70
     1
 43
0.0
 10
0.2999996807261596
 20
275.4999997597115
 10
0.2999996807261596
 20
0.2999997597115111
 10
398.4999996807263
 20
0.2999997597115342
 10
398.4999996807262
 20
275.4999997597115
  0
LWPOLYLINE
  5
41B9
330
1A
100
AcDbEntity
  8
ZUWAKU
100
AcDbPolyline
 90
        4
 70
     1
 43
0.0
 10
-0.000000319273795
 20
275.7999997597115
 10
-0.000000319273795
 20
-0.0000002402885002
 10
398.7999996807262
 20
-0.0000002402884665
 10
398.7999996807262
 20
275.7999997597115
  0
LWPOLYLINE
  5
41BA
330
1A
100
AcDbEntity
  8
ZUWAKU
100
AcDbPolyline
 90
        4
 70
     1
 43
0.0
 10
0.1999996807261937
 20
275.5999997597115
 10
0.1999996807261937
 20
0.1999997597115453
 10
398.5999996807262
 20
0.1999997597115337
 10
398.5999996807262
 20
275.5999997597115
  0
LWPOLYLINE
  5
41BB
330
1A
100
AcDbEntity
  8
ZUWAKU
100
AcDbPolyline
 90
        4
 70
     1
 43
0.0
 10
0.3999996807261823
 20
275.3999997597115
 10
0.3999996807261823
 20
0.3999997597115339
 10
398.3999996807261
 20
0.3999997597115339
 10
398.3999996807261
 20
275.3999997597115
  0
TEXT
  5
41BC
330
1A
100
AcDbEntity
  8
MOJI
100
AcDbText
 10
46.47889447481077
 20
6.37058882484888
 30
0.0
 40
3.0
  1
新・丸トップＲＶ１０５
 41
0.9
  7
ｽﾀｲﾙ1
100
AcDbText
  0
HATCH
  5
41BD
330
1A
100
AcDbEntity
  8
ZUWAKU
100
AcDbHatch
 10
0.0
 20
0.0
 30
0.0
210
0.0
220
0.0
230
1.0
  2
ANSI37
 70
     0
 71
     0
 91
        8
 92
        7
 72
     1
 73
     1
 93
       24
 10
7.251131011286133
 20
8.822424000203291
 42
-0.1989123673796348
 10
7.046105758116766
 20
9.317398747033816
 42
0.0
 10
7.046105758116766
 20
9.962499759711505
 42
-0.4142135623730912
 10
7.308605758116755
 20
10.2249997597115
 42
0.0
 10
8.796105758116709
 20
10.2249997597115
 42
0.4142135623731546
 10
9.058605758116755
 20
10.48749975971149
 42
0.0
 10
9.058605758116755
 20
11.3624997597115
 42
0.4142135623731586
 10
8.796105758116709
 20
11.6249997597115
 42
0.0
 10
7.046105758116766
 20
11.6249997597115
 42
0.4142135623730928
 10
5.646105758116789
 20
10.22499975971151
 42
0.0
 10
5.646105758116789
 20
9.31739874703388
 42
0.1989123673796619
 10
6.261181517625004
 20
7.832474506542077
 42
0.0
 10
7.716080504947342
 20
6.377575519219748
 42
-0.1989123673796613
 10
7.921105758116766
 20
5.882600772389155
 42
0.0
 10
7.921105758116766
 20
5.237499759711496
 42
-0.4142135623730911
 10
7.658605758116777
 20
4.974999759711501
 42
0.0
 10
6.171105758116823
 20
4.974999759711501
 42
0.4142135623731526
 10
5.908605758116777
 20
4.712499759711507
 42
0.0
 10
5.908605758116777
 20
3.837499759711496
 42
0.4142135623731526
 10
6.171105758116823
 20
3.574999759711502
 42
0.0
 10
7.921105758116766
 20
3.574999759711502
 42
0.4142135623731044
 10
9.3211057581168
 20
4.97499975971149
 42
0.0
 10
9.3211057581168
 20
5.882600772389126
 42
0.1989123673796604
 10
8.706029998608528
 20
7.367525012880896
 42
0.0
 97
        0
 92
        7
 72
     1
 73
     1
 93
       16
 10
11.77110575811678
 20
9.524999759711505
 42
-0.4142135623730935
 10
12.47110575811677
 20
10.2249997597115
 42
0.0
 10
13.43360575811675
 20
10.2249997597115
 42
0.4142135623731546
 10
13.6961057581168
 20
10.48749975971149
 42
0.0
 10
13.6961057581168
 20
11.3624997597115
 42
0.4142135623730951
 10
13.43360575811681
 20
11.6249997597115
 42
0.0
 10
12.47110575811672
 20
11.62499975971148
 42
0.4142135623730892
 10
10.37110575811675
 20
9.524999759711469
 42
0.0
 10
10.37110575811675
 20
5.674999759711514
 42
0.4142135623730969
 10
12.47110575811677
 20
3.574999759711502
 42
0.0
 10
13.43360575811675
 20
3.574999759711502
 42
0.4142135623731526
 10
13.6961057581168
 20
3.837499759711496
 42
0.0
 10
13.6961057581168
 20
4.712499759711507
 42
0.4142135623730891
 10
13.43360575811681
 20
4.974999759711501
 42
0.0
 10
12.47110575811677
 20
4.974999759711501
 42
-0.4142135623730928
 10
11.77110575811678
 20
5.674999759711495
 42
0.0
 97
        0
 92
        7
 72
     1
 73
     1
 93
        2
 10
12.12110575811675
 20
7.599999759711501
 42
1.0
 10
13.87110575811675
 20
7.599999759711501
 42
1.0
 97
        0
 92
        7
 72
     1
 73
     1
 93
       26
 10
18.65742899920576
 20
9.602523356493215
 42
0.0
 10
19.18824881577467
 20
11.28345277562801
 42
0.5069206636600134
 10
18.93793336617699
 20
11.6249997597115
 42
0.0
 10
18.08848867637237
 20
11.6249997597115
 42
0.3272098845218764
 10
17.8381732267747
 20
11.44154674379498
 42
0.0
 10
16.90403828945881
 20
8.483452775628041
 42
-0.3272098845219541
 10
16.65372283986107
 20
8.2999997597115
 42
0.0
 10
16.58360575811684
 20
8.2999997597115
 42
-0.4142135623731526
 10
16.3211057581168
 20
8.562499759711494
 42
0.0
 10
16.3211057581168
 20
11.3624997597115
 42
0.4142135623730951
 10
16.05860575811681
 20
11.6249997597115
 42
0.0
 10
15.18360575811675
 20
11.6249997597115
 42
0.4142135623730871
 10
14.92110575811676
 20
11.36249975971151
 42
0.0
 10
14.92110575811676
 20
3.837499759711496
 42
0.4142135623730891
 10
15.18360575811675
 20
3.574999759711502
 42
0.0
 10
16.05860575811675
 20
3.574999759711502
 42
0.4142135623731526
 10
16.3211057581168
 20
3.837499759711496
 42
0.0
 10
16.3211057581168
 20
6.637499759711507
 42
-0.4142135623731526
 10
16.58360575811684
 20
6.899999759711501
 42
0.0
 10
16.65372283986113
 20
6.899999759711501
 42
-0.3272098845218915
 10
16.90403828945881
 20
6.716546743794964
 42
0.0
 10
17.8381732267747
 20
3.758452775628038
 42
0.3272098845218902
 10
18.08848867637237
 20
3.574999759711502
 42
0.0
 10
18.93793336617699
 20
3.574999759711502
 42
0.5069206636600335
 10
19.18824881577467
 20
3.916546743795006
 42
0.0
 10
18.02505312653784
 20
7.59999975971157
 42
0.0
 97
        0
 92
        7
 72
     1
 73
     1
 93
        8
 10
21.74610575811675
 20
11.3624997597115
 42
0.4142135623731546
 10
21.48360575811671
 20
11.6249997597115
 42
0.0
 10
20.60860575811682
 20
11.6249997597115
 42
0.4142135623731507
 10
20.34610575811677
 20
11.36249975971151
 42
0.0
 10
20.34610575811677
 20
3.837499759711496
 42
0.4142135623731526
 10
20.60860575811682
 20
3.574999759711502
 42
0.0
 10
21.48360575811671
 20
3.574999759711502
 42
0.4142135623731526
 10
21.74610575811675
 20
3.837499759711496
 42
0.0
 97
        0
 92
        7
 72
     1
 73
     1
 93
       24
 10
24.1961057581168
 20
9.962499759711505
 42
-0.4142135623731546
 10
24.45860575811684
 20
10.2249997597115
 42
0.0
 10
25.9461057581168
 20
10.2249997597115
 42
0.4142135623730911
 10
26.20860575811679
 20
10.48749975971149
 42
0.0
 10
26.20860575811679
 20
11.3624997597115
 42
0.4142135623730952
 10
25.9461057581168
 20
11.6249997597115
 42
0.0
 10
24.1961057581168
 20
11.6249997597115
 42
0.4142135623731048
 10
22.79610575811676
 20
10.22499975971151
 42
0.0
 10
22.79610575811676
 20
9.31739874703388
 42
0.1989123673796613
 10
23.41118151762504
 20
7.832474506542105
 42
0.0
 10
24.86608050494737
 20
6.377575519219771
 42
-0.1989123673796402
 10
25.0711057581168
 20
5.882600772389235
 42
0.0
 10
25.0711057581168
 20
5.237499759711496
 42
-0.4142135623730911
 10
24.80860575811681
 20
4.974999759711501
 42
0.0
 10
23.3211057581168
 20
4.974999759711501
 42
0.4142135623731526
 10
23.05860575811675
 20
4.712499759711507
 42
0.0
 10
23.05860575811675
 20
3.837499759711496
 42
0.4142135623730891
 10
23.32110575811674
 20
3.574999759711502
 42
0.0
 10
25.0711057581168
 20
3.574999759711502
 42
0.4142135623730925
 10
26.47110575811677
 20
4.97499975971149
 42
0.0
 10
26.47110575811677
 20
5.882600772389126
 42
0.1989123673796675
 10
25.8560299986085
 20
7.367525012880953
 42
0.0
 10
24.40113101128622
 20
8.822424000203211
 42
-0.1989123673796652
 10
24.1961057581168
 20
9.317398747033795
 42
0.0
 97
        0
 92
        7
 72
     1
 73
     1
 93
       16
 10
28.92110575811676
 20
11.36249975971149
 42
0.414213562373103
 10
28.65860575811677
 20
11.6249997597115
 42
0.0
 10
27.78360575811678
 20
11.6249997597115
 42
0.4142135623730871
 10
27.52110575811679
 20
11.36249975971151
 42
0.0
 10
27.52110575811679
 20
4.97499975971149
 42
0.4142135623730926
 10
28.92110575811676
 20
3.574999759711502
 42
0.0
 10
30.67110575811677
 20
3.574999759711502
 42
0.4142135623731044
 10
32.0711057581168
 20
4.97499975971149
 42
0.0
 10
32.0711057581168
 20
11.3624997597115
 42
0.4142135623730951
 10
31.80860575811681
 20
11.6249997597115
 42
0.0
 10
30.93360575811675
 20
11.6249997597115
 42
0.4142135623730871
 10
30.67110575811677
 20
11.36249975971151
 42
0.0
 10
30.67110575811677
 20
5.499999759711489
 42
-0.414213562373088
 10
30.14610575811679
 20
4.974999759711501
 42
0.0
 10
29.4461057581168
 20
4.974999759711501
 42
-0.4142135623731197
 10
28.92110575811676
 20
5.499999759711489
 42
0.0
 97
        0
 92
        7
 72
     1
 73
     1
 93
        8
 10
34.52110575811679
 20
11.36249975971151
 42
0.4142135623730871
 10
34.2586057581168
 20
11.6249997597115
 42
0.0
 10
33.3836057581168
 20
11.6249997597115
 42
0.4142135623731507
 10
33.12110575811675
 20
11.36249975971151
 42
0.0
 10
33.12110575811675
 20
3.837499759711496
 42
0.4142135623730891
 10
33.38360575811674
 20
3.574999759711502
 42
0.0
 10
34.2586057581168
 20
3.574999759711502
 42
0.4142135623730891
 10
34.52110575811679
 20
3.837499759711496
 42
0.0
 97
        0
 75
     0
 76
     1
 52
0.0
 41
0.1
 77
     0
 78
     2
 53
45.0
 43
-450.4711524866133
 44
-6.600000240288466
 45
-0.2245064030267288
 46
0.2245064030267288
 79
     0
 53
135.0
 43
-450.4711524866133
 44
-6.600000240288466
 45
-0.2245064030267288
 46
-0.2245064030267288
 79
     0
 47
0.057451373970553
 98
        8
 10
8.039927162237859
 20
7.583586582654277
 10
11.20225718394578
 20
9.422030850937005
 10
12.58218362355603
 20
7.755940582746859
 10
15.45702967154477
 20
8.100648582932251
 10
20.91923569020457
 20
8.330454716703059
 10
23.44910012829097
 20
9.709287917915105
 10
28.27884266692638
 20
9.364578717259007
 10
33.91353949053757
 20
9.594384851029815
  0
LINE
  5
41BE
330
1A
100
AcDbEntity
  8
ZUWAKU
100
AcDbLine
 10
12.47110575811677
 20
11.62499975971148
 30
0.0
 11
13.43360575811675
 21
11.6249997597115
 31
0.0
  0
LINE
  5
41BF
330
1A
100
AcDbEntity
  8
ZUWAKU
100
AcDbLine
 10
13.43360575811675
 20
10.2249997597115
 30
0.0
 11
12.47110575811677
 21
10.2249997597115
 31
0.0
  0
LINE
  5
41C0
330
1A
100
AcDbEntity
  8
ZUWAKU
100
AcDbLine
 10
12.47110575811677
 20
4.974999759711501
 30
0.0
 11
13.43360575811675
 21
4.974999759711501
 31
0.0
  0
LINE
  5
41C1
330
1A
100
AcDbEntity
  8
ZUWAKU
100
AcDbLine
 10
13.43360575811675
 20
3.574999759711502
 30
0.0
 11
12.47110575811677
 21
3.574999759711502
 31
0.0
  0
CIRCLE
  5
41C2
330
1A
100
AcDbEntity
  8
ZUWAKU
100
AcDbCircle
 10
12.99610575811675
 20
7.599999759711501
 30
0.0
 40
0.875
  0
ARC
  5
41C3
330
1A
100
AcDbEntity
  8
ZUWAKU
100
AcDbCircle
 10
7.746105758116755
 20
9.317398747033852
 30
0.0
 40
0.7
100
AcDbArc
 50
180.0000000000016
 51
224.9999999999988
  0
LINE
  5
41C4
330
1A
100
AcDbEntity
  8
ZUWAKU
100
AcDbLine
 10
11.77110575811678
 20
9.524999759711501
 30
0.0
 11
11.77110575811678
 21
5.674999759711504
 31
0.0
  0
LINE
  5
41C5
330
1A
100
AcDbEntity
  8
ZUWAKU
100
AcDbLine
 10
10.37110575811675
 20
5.674999759711504
 30
0.0
 11
10.37110575811675
 21
9.52499975971148
 31
0.0
  0
ARC
  5
41C6
330
1A
100
AcDbEntity
  8
ZUWAKU
100
AcDbCircle
 10
7.746105758116755
 20
9.317398747033852
 30
0.0
 40
2.099999999999999
100
AcDbArc
 50
180.0
 51
225.0
  0
ARC
  5
41C7
330
1A
100
AcDbEntity
  8
ZUWAKU
100
AcDbCircle
 10
7.921105758116766
 20
4.974999759711501
 30
0.0
 40
1.399999999999999
100
AcDbArc
 50
270.0
 51
0.0
  0
ARC
  5
41C8
330
1A
100
AcDbEntity
  8
ZUWAKU
100
AcDbCircle
 10
12.47110575811677
 20
5.674999759711504
 30
0.0
 40
2.099999999999999
100
AcDbArc
 50
180.0
 51
270.0
  0
ARC
  5
41C9
330
1A
100
AcDbEntity
  8
ZUWAKU
100
AcDbCircle
 10
7.221105758116777
 20
5.882600772389153
 30
0.0
 40
2.099999999999999
100
AcDbArc
 50
0.0
 51
45.0
  0
LINE
  5
41CA
330
1A
100
AcDbEntity
  8
ZUWAKU
100
AcDbLine
 10
8.706029998608528
 20
7.367525012880914
 30
0.0
 11
7.25113101128619
 21
8.822424000203252
 31
0.0
  0
LINE
  5
41CB
330
1A
100
AcDbEntity
  8
ZUWAKU
100
AcDbLine
 10
7.921105758116766
 20
5.237499759711504
 30
0.0
 11
7.921105758116766
 21
5.882600772389174
 31
0.0
  0
ARC
  5
41CC
330
1A
100
AcDbEntity
  8
ZUWAKU
100
AcDbCircle
 10
7.658605758116777
 20
5.237499759711504
 30
0.0
 40
0.2625
100
AcDbArc
 50
270.0
 51
0.0
  0
ARC
  5
41CD
330
1A
100
AcDbEntity
  8
ZUWAKU
100
AcDbCircle
 10
7.221105758116777
 20
5.882600772389174
 30
0.0
 40
0.7
100
AcDbArc
 50
0.0
 51
45.0
  0
LINE
  5
41CE
330
1A
100
AcDbEntity
  8
ZUWAKU
100
AcDbLine
 10
5.908605758116777
 20
3.837499759711501
 30
0.0
 11
5.908605758116777
 21
4.712499759711501
 31
0.0
  0
ARC
  5
41CF
330
1A
100
AcDbEntity
  8
ZUWAKU
100
AcDbCircle
 10
6.171105758116766
 20
3.837499759711501
 30
0.0
 40
0.2625
100
AcDbArc
 50
180.0
 51
270.0
  0
ARC
  5
41D0
330
1A
100
AcDbEntity
  8
ZUWAKU
100
AcDbCircle
 10
6.171105758116766
 20
4.712499759711501
 30
0.0
 40
0.2625
100
AcDbArc
 50
90.0
 51
180.0
  0
LINE
  5
41D1
330
1A
100
AcDbEntity
  8
ZUWAKU
100
AcDbLine
 10
6.171105758116766
 20
3.574999759711502
 30
0.0
 11
7.921105758116766
 21
3.574999759711502
 31
0.0
  0
LINE
  5
41D2
330
1A
100
AcDbEntity
  8
ZUWAKU
100
AcDbLine
 10
6.171105758116766
 20
4.974999759711501
 30
0.0
 11
7.658605758116777
 21
4.974999759711501
 31
0.0
  0
LINE
  5
41D3
330
1A
100
AcDbEntity
  8
ZUWAKU
100
AcDbLine
 10
6.261181517625004
 20
7.832474506542091
 30
0.0
 11
7.716080504947342
 21
6.37757551921976
 31
0.0
  0
LINE
  5
41D4
330
1A
100
AcDbEntity
  8
ZUWAKU
100
AcDbLine
 10
9.3211057581168
 20
4.974999759711501
 30
0.0
 11
9.3211057581168
 21
5.882600772389174
 31
0.0
  0
ARC
  5
41D5
330
1A
100
AcDbEntity
  8
ZUWAKU
100
AcDbCircle
 10
12.47110575811677
 20
5.674999759711504
 30
0.0
 40
0.7
100
AcDbArc
 50
180.0
 51
270.0
  0
ARC
  5
41D6
330
1A
100
AcDbEntity
  8
ZUWAKU
100
AcDbCircle
 10
8.796105758116766
 20
11.3624997597115
 30
0.0
 40
0.2625
100
AcDbArc
 50
0.0
 51
90.0
  0
ARC
  5
41D7
330
1A
100
AcDbEntity
  8
ZUWAKU
100
AcDbCircle
 10
8.796105758116766
 20
10.4874997597115
 30
0.0
 40
0.2625
100
AcDbArc
 50
270.0
 51
0.0
  0
LINE
  5
41D8
330
1A
100
AcDbEntity
  8
ZUWAKU
100
AcDbLine
 10
7.046105758116766
 20
11.6249997597115
 30
0.0
 11
8.796105758116766
 21
11.6249997597115
 31
0.0
  0
ARC
  5
41D9
330
1A
100
AcDbEntity
  8
ZUWAKU
100
AcDbCircle
 10
7.308605758116755
 20
9.962499759711501
 30
0.0
 40
0.2625
100
AcDbArc
 50
90.0
 51
180.0
  0
LINE
  5
41DA
330
1A
100
AcDbEntity
  8
ZUWAKU
100
AcDbLine
 10
7.046105758116766
 20
9.962499759711501
 30
0.0
 11
7.046105758116766
 21
9.317398747033831
 31
0.0
  0
LINE
  5
41DB
330
1A
100
AcDbEntity
  8
ZUWAKU
100
AcDbLine
 10
8.796105758116766
 20
10.2249997597115
 30
0.0
 11
7.308605758116755
 21
10.2249997597115
 31
0.0
  0
LINE
  5
41DC
330
1A
100
AcDbEntity
  8
ZUWAKU
100
AcDbLine
 10
5.646105758116789
 20
10.2249997597115
 30
0.0
 11
5.646105758116789
 21
9.317398747033831
 31
0.0
  0
ARC
  5
41DD
330
1A
100
AcDbEntity
  8
ZUWAKU
100
AcDbCircle
 10
7.046105758116766
 20
10.2249997597115
 30
0.0
 40
1.399999999999999
100
AcDbArc
 50
90.0
 51
180.0
  0
LINE
  5
41DE
330
1A
100
AcDbEntity
  8
ZUWAKU
100
AcDbLine
 10
9.058605758116755
 20
11.3624997597115
 30
0.0
 11
9.058605758116755
 21
10.4874997597115
 31
0.0
  0
ARC
  5
41DF
330
1A
100
AcDbEntity
  8
ZUWAKU
100
AcDbCircle
 10
12.47110575811677
 20
9.524999759711501
 30
0.0
 40
0.7
100
AcDbArc
 50
90.0
 51
180.0
  0
ARC
  5
41E0
330
1A
100
AcDbEntity
  8
ZUWAKU
100
AcDbCircle
 10
12.47110575811677
 20
9.52499975971148
 30
0.0
 40
2.099999999999999
100
AcDbArc
 50
90.0
 51
180.0
  0
LINE
  5
41E1
330
1A
100
AcDbEntity
  8
ZUWAKU
100
AcDbLine
 10
39.66331445472031
 20
14.99999975971149
 30
0.0
 11
39.66331445472042
 21
0.3999997597115339
 31
0.0
  0
LINE
  5
41E2
330
1A
100
AcDbEntity
  8
ZUWAKU
100
AcDbLine
 10
39.76331445472033
 20
14.99999975971149
 30
0.0
 11
39.76331445472044
 21
0.3999997597115339
 31
0.0
  0
LINE
  5
41E3
330
1A
100
AcDbEntity
  8
ZUWAKU
100
AcDbLine
 10
39.5633144547204
 20
14.99999975971149
 30
0.0
 11
39.5633144547204
 21
0.3999997597115339
 31
0.0
  0
LINE
  5
41E4
330
1A
100
AcDbEntity
  8
ZUWAKU
100
AcDbLine
 10
32.0711057581168
 20
4.974999759711501
 30
0.0
 11
32.0711057581168
 21
11.3624997597115
 31
0.0
  0
LINE
  5
41E5
330
1A
100
AcDbEntity
  8
ZUWAKU
100
AcDbLine
 10
30.67110575811677
 20
11.3624997597115
 30
0.0
 11
30.67110575811677
 21
5.499999759711499
 31
0.0
  0
LINE
  5
41E6
330
1A
100
AcDbEntity
  8
ZUWAKU
100
AcDbLine
 10
34.52110575811679
 20
3.837499759711501
 30
0.0
 11
34.52110575811679
 21
11.3624997597115
 31
0.0
  0
LINE
  5
41E7
330
1A
100
AcDbEntity
  8
ZUWAKU
100
AcDbLine
 10
33.12110575811675
 20
11.3624997597115
 30
0.0
 11
33.12110575811675
 21
3.837499759711501
 31
0.0
  0
ARC
  5
41E8
330
1A
100
AcDbEntity
  8
ZUWAKU
100
AcDbCircle
 10
24.89610575811679
 20
9.317398747033852
 30
0.0
 40
0.7
100
AcDbArc
 50
180.0000000000016
 51
224.9999999999988
  0
ARC
  5
41E9
330
1A
100
AcDbEntity
  8
ZUWAKU
100
AcDbCircle
 10
24.89610575811679
 20
9.317398747033852
 30
0.0
 40
2.099999999999999
100
AcDbArc
 50
180.0
 51
225.0
  0
LINE
  5
41EA
330
1A
100
AcDbEntity
  8
ZUWAKU
100
AcDbLine
 10
18.65742899920576
 20
9.602523356493215
 30
0.0
 11
18.02505312653784
 21
7.599999759711511
 31
0.0
  0
LINE
  5
41EB
330
1A
100
AcDbEntity
  8
ZUWAKU
100
AcDbLine
 10
20.34610575811677
 20
11.3624997597115
 30
0.0
 11
20.34610575811677
 21
3.837499759711501
 31
0.0
  0
LINE
  5
41EC
330
1A
100
AcDbEntity
  8
ZUWAKU
100
AcDbLine
 10
21.74610575811675
 20
3.837499759711501
 30
0.0
 11
21.74610575811675
 21
11.3624997597115
 31
0.0
  0
LINE
  5
41ED
330
1A
100
AcDbEntity
  8
ZUWAKU
100
AcDbLine
 10
27.52110575811679
 20
11.3624997597115
 30
0.0
 11
27.52110575811679
 21
4.974999759711501
 31
0.0
  0
LINE
  5
41EE
330
1A
100
AcDbEntity
  8
ZUWAKU
100
AcDbLine
 10
28.92110575811676
 20
5.499999759711499
 30
0.0
 11
28.92110575811676
 21
11.3624997597115
 31
0.0
  0
LINE
  5
41EF
330
1A
100
AcDbEntity
  8
ZUWAKU
100
AcDbLine
 10
16.3211057581168
 20
8.562499759711503
 30
0.0
 11
16.3211057581168
 21
11.3624997597115
 31
0.0
  0
LINE
  5
41F0
330
1A
100
AcDbEntity
  8
ZUWAKU
100
AcDbLine
 10
14.92110575811676
 20
11.3624997597115
 30
0.0
 11
14.92110575811676
 21
3.837499759711501
 31
0.0
  0
LINE
  5
41F1
330
1A
100
AcDbEntity
  8
ZUWAKU
100
AcDbLine
 10
17.8381732267747
 20
11.44154674379498
 30
0.0
 11
16.90403828945881
 21
8.483452775628016
 31
0.0
  0
LINE
  5
41F2
330
1A
100
AcDbEntity
  8
ZUWAKU
100
AcDbLine
 10
30.14610575811679
 20
4.974999759711501
 30
0.0
 11
29.4461057581168
 21
4.974999759711501
 31
0.0
  0
LINE
  5
41F3
330
1A
100
AcDbEntity
  8
ZUWAKU
100
AcDbLine
 10
28.92110575811676
 20
3.574999759711502
 30
0.0
 11
30.67110575811677
 21
3.574999759711502
 31
0.0
  0
LINE
  5
41F4
330
1A
100
AcDbEntity
  8
ZUWAKU
100
AcDbLine
 10
20.60860575811676
 20
3.574999759711502
 30
0.0
 11
21.48360575811676
 21
3.574999759711502
 31
0.0
  0
LINE
  5
41F5
330
1A
100
AcDbEntity
  8
ZUWAKU
100
AcDbLine
 10
17.8381732267747
 20
3.758452775628015
 30
0.0
 11
16.90403828945881
 21
6.716546743794985
 31
0.0
  0
ARC
  5
41F6
330
1A
100
AcDbEntity
  8
ZUWAKU
100
AcDbCircle
 10
16.65372283986113
 20
8.562499759711503
 30
0.0
 40
0.2625
100
AcDbArc
 50
270.0
 51
342.4744316262769
  0
LINE
  5
41F7
330
1A
100
AcDbEntity
  8
ZUWAKU
100
AcDbLine
 10
16.65372283986113
 20
8.2999997597115
 30
0.0
 11
16.58360575811679
 21
8.2999997597115
 31
0.0
  0
LINE
  5
41F8
330
1A
100
AcDbEntity
  8
ZUWAKU
100
AcDbLine
 10
16.58360575811679
 20
6.899999759711501
 30
0.0
 11
16.65372283986113
 21
6.899999759711501
 31
0.0
  0
ARC
  5
41F9
330
1A
100
AcDbEntity
  8
ZUWAKU
100
AcDbCircle
 10
16.58360575811679
 20
8.562499759711503
 30
0.0
 40
0.2625
100
AcDbArc
 50
180.0
 51
270.0
  0
LINE
  5
41FA
330
1A
100
AcDbEntity
  8
ZUWAKU
100
AcDbLine
 10
15.18360575811675
 20
3.574999759711502
 30
0.0
 11
16.05860575811675
 21
3.574999759711502
 31
0.0
  0
ARC
  5
41FB
330
1A
100
AcDbEntity
  8
ZUWAKU
100
AcDbCircle
 10
16.05860575811675
 20
3.837499759711501
 30
0.0
 40
0.2625
100
AcDbArc
 50
270.0
 51
0.0
  0
LINE
  5
41FC
330
1A
100
AcDbEntity
  8
ZUWAKU
100
AcDbLine
 10
16.3211057581168
 20
3.837499759711501
 30
0.0
 11
16.3211057581168
 21
6.637499759711502
 31
0.0
  0
LINE
  5
41FD
330
1A
100
AcDbEntity
  8
ZUWAKU
100
AcDbLine
 10
13.6961057581168
 20
4.712499759711501
 30
0.0
 11
13.6961057581168
 21
3.837499759711501
 31
0.0
  0
ARC
  5
41FE
330
1A
100
AcDbEntity
  8
ZUWAKU
100
AcDbCircle
 10
13.43360575811675
 20
3.837499759711501
 30
0.0
 40
0.2625
100
AcDbArc
 50
270.0
 51
0.0
  0
ARC
  5
41FF
330
1A
100
AcDbEntity
  8
ZUWAKU
100
AcDbCircle
 10
13.43360575811675
 20
4.712499759711501
 30
0.0
 40
0.2625
100
AcDbArc
 50
0.0
 51
90.0
  0
ARC
  5
4200
330
1A
100
AcDbEntity
  8
ZUWAKU
100
AcDbCircle
 10
15.18360575811675
 20
3.837499759711501
 30
0.0
 40
0.2625
100
AcDbArc
 50
180.0
 51
270.0
  0
ARC
  5
4201
330
1A
100
AcDbEntity
  8
ZUWAKU
100
AcDbCircle
 10
16.65372283986113
 20
6.637499759711502
 30
0.0
 40
0.2625
100
AcDbArc
 50
17.52556837372303
 51
90.0
  0
ARC
  5
4202
330
1A
100
AcDbEntity
  8
ZUWAKU
100
AcDbCircle
 10
16.58360575811679
 20
6.637499759711502
 30
0.0
 40
0.2625
100
AcDbArc
 50
90.0
 51
180.0
  0
ARC
  5
4203
330
1A
100
AcDbEntity
  8
ZUWAKU
100
AcDbCircle
 10
20.60860575811676
 20
3.837499759711501
 30
0.0
 40
0.2625
100
AcDbArc
 50
180.0
 51
270.0
  0
LINE
  5
4204
330
1A
100
AcDbEntity
  8
ZUWAKU
100
AcDbLine
 10
18.08848867637243
 20
3.574999759711502
 30
0.0
 11
18.93793336617693
 21
3.574999759711502
 31
0.0
  0
ARC
  5
4205
330
1A
100
AcDbEntity
  8
ZUWAKU
100
AcDbCircle
 10
18.93793336617693
 20
3.837499759711501
 30
0.0
 40
0.2625
100
AcDbArc
 50
270.0
 51
17.52556837372303
  0
LINE
  5
4206
330
1A
100
AcDbEntity
  8
ZUWAKU
100
AcDbLine
 10
19.18824881577467
 20
3.916546743794988
 30
0.0
 11
18.02505312653784
 21
7.599999759711511
 31
0.0
  0
ARC
  5
4207
330
1A
100
AcDbEntity
  8
ZUWAKU
100
AcDbCircle
 10
18.08848867637243
 20
3.837499759711501
 30
0.0
 40
0.2625
100
AcDbArc
 50
197.525568373723
 51
270.0
  0
ARC
  5
4208
330
1A
100
AcDbEntity
  8
ZUWAKU
100
AcDbCircle
 10
28.92110575811676
 20
4.974999759711501
 30
0.0
 40
1.399999999999999
100
AcDbArc
 50
180.0
 51
270.0
  0
ARC
  5
4209
330
1A
100
AcDbEntity
  8
ZUWAKU
100
AcDbCircle
 10
25.0711057581168
 20
4.974999759711501
 30
0.0
 40
1.399999999999999
100
AcDbArc
 50
270.0
 51
0.0
  0
LINE
  5
420A
330
1A
100
AcDbEntity
  8
ZUWAKU
100
AcDbLine
 10
25.85602999860856
 20
7.367525012880914
 30
0.0
 11
24.40113101128616
 21
8.822424000203252
 31
0.0
  0
LINE
  5
420B
330
1A
100
AcDbEntity
  8
ZUWAKU
100
AcDbLine
 10
25.0711057581168
 20
5.237499759711504
 30
0.0
 11
25.0711057581168
 21
5.882600772389174
 31
0.0
  0
ARC
  5
420C
330
1A
100
AcDbEntity
  8
ZUWAKU
100
AcDbCircle
 10
24.37110575811675
 20
5.882600772389174
 30
0.0
 40
0.7
100
AcDbArc
 50
0.0
 51
45.0
  0
ARC
  5
420D
330
1A
100
AcDbEntity
  8
ZUWAKU
100
AcDbCircle
 10
24.80860575811675
 20
5.237499759711504
 30
0.0
 40
0.2625
100
AcDbArc
 50
270.0
 51
0.0
  0
LINE
  5
420E
330
1A
100
AcDbEntity
  8
ZUWAKU
100
AcDbLine
 10
23.05860575811675
 20
3.837499759711501
 30
0.0
 11
23.05860575811675
 21
4.712499759711501
 31
0.0
  0
ARC
  5
420F
330
1A
100
AcDbEntity
  8
ZUWAKU
100
AcDbCircle
 10
23.3211057581168
 20
3.837499759711501
 30
0.0
 40
0.2625
100
AcDbArc
 50
180.0
 51
270.0
  0
ARC
  5
4210
330
1A
100
AcDbEntity
  8
ZUWAKU
100
AcDbCircle
 10
21.48360575811676
 20
3.837499759711501
 30
0.0
 40
0.2625
100
AcDbArc
 50
270.0
 51
0.0
  0
ARC
  5
4211
330
1A
100
AcDbEntity
  8
ZUWAKU
100
AcDbCircle
 10
23.3211057581168
 20
4.712499759711501
 30
0.0
 40
0.2625
100
AcDbArc
 50
90.0
 51
180.0
  0
LINE
  5
4212
330
1A
100
AcDbEntity
  8
ZUWAKU
100
AcDbLine
 10
23.3211057581168
 20
4.974999759711501
 30
0.0
 11
24.80860575811675
 21
4.974999759711501
 31
0.0
  0
LINE
  5
4213
330
1A
100
AcDbEntity
  8
ZUWAKU
100
AcDbLine
 10
23.3211057581168
 20
3.574999759711502
 30
0.0
 11
25.0711057581168
 21
3.574999759711502
 31
0.0
  0
LINE
  5
4214
330
1A
100
AcDbEntity
  8
ZUWAKU
100
AcDbLine
 10
23.41118151762504
 20
7.832474506542091
 30
0.0
 11
24.86608050494737
 21
6.37757551921976
 31
0.0
  0
LINE
  5
4215
330
1A
100
AcDbEntity
  8
ZUWAKU
100
AcDbLine
 10
26.47110575811677
 20
4.974999759711501
 30
0.0
 11
26.47110575811677
 21
5.882600772389174
 31
0.0
  0
ARC
  5
4216
330
1A
100
AcDbEntity
  8
ZUWAKU
100
AcDbCircle
 10
24.37110575811675
 20
5.882600772389153
 30
0.0
 40
2.099999999999999
100
AcDbArc
 50
0.0
 51
45.0
  0
ARC
  5
4217
330
1A
100
AcDbEntity
  8
ZUWAKU
100
AcDbCircle
 10
29.4461057581168
 20
5.499999759711499
 30
0.0
 40
0.525
100
AcDbArc
 50
180.0
 51
270.0
  0
ARC
  5
4218
330
1A
100
AcDbEntity
  8
ZUWAKU
100
AcDbCircle
 10
30.67110575811677
 20
4.974999759711501
 30
0.0
 40
1.399999999999999
100
AcDbArc
 50
270.0
 51
0.0
  0
LINE
  5
4219
330
1A
100
AcDbEntity
  8
ZUWAKU
100
AcDbLine
 10
33.3836057581168
 20
3.574999759711502
 30
0.0
 11
34.2586057581168
 21
3.574999759711502
 31
0.0
  0
ARC
  5
421A
330
1A
100
AcDbEntity
  8
ZUWAKU
100
AcDbCircle
 10
33.3836057581168
 20
3.837499759711501
 30
0.0
 40
0.2625
100
AcDbArc
 50
180.0
 51
270.0
  0
ARC
  5
421B
330
1A
100
AcDbEntity
  8
ZUWAKU
100
AcDbCircle
 10
30.14610575811679
 20
5.499999759711499
 30
0.0
 40
0.525
100
AcDbArc
 50
270.0
 51
0.0
  0
ARC
  5
421C
330
1A
100
AcDbEntity
  8
ZUWAKU
100
AcDbCircle
 10
34.2586057581168
 20
3.837499759711501
 30
0.0
 40
0.2625
100
AcDbArc
 50
270.0
 51
0.0
  0
LINE
  5
421D
330
1A
100
AcDbEntity
  8
ZUWAKU
100
AcDbLine
 10
21.48360575811676
 20
11.6249997597115
 30
0.0
 11
20.60860575811676
 21
11.6249997597115
 31
0.0
  0
ARC
  5
421E
330
1A
100
AcDbEntity
  8
ZUWAKU
100
AcDbCircle
 10
16.05860575811675
 20
11.3624997597115
 30
0.0
 40
0.2625
100
AcDbArc
 50
0.0
 51
90.0
  0
LINE
  5
421F
330
1A
100
AcDbEntity
  8
ZUWAKU
100
AcDbLine
 10
16.05860575811675
 20
11.6249997597115
 30
0.0
 11
15.18360575811675
 21
11.6249997597115
 31
0.0
  0
ARC
  5
4220
330
1A
100
AcDbEntity
  8
ZUWAKU
100
AcDbCircle
 10
13.43360575811675
 20
11.3624997597115
 30
0.0
 40
0.2625
100
AcDbArc
 50
0.0
 51
90.0
  0
ARC
  5
4221
330
1A
100
AcDbEntity
  8
ZUWAKU
100
AcDbCircle
 10
15.18360575811675
 20
11.3624997597115
 30
0.0
 40
0.2625
100
AcDbArc
 50
90.0
 51
180.0
  0
ARC
  5
4222
330
1A
100
AcDbEntity
  8
ZUWAKU
100
AcDbCircle
 10
13.43360575811675
 20
10.4874997597115
 30
0.0
 40
0.2625
100
AcDbArc
 50
270.0
 51
0.0
  0
LINE
  5
4223
330
1A
100
AcDbEntity
  8
ZUWAKU
100
AcDbLine
 10
13.6961057581168
 20
11.3624997597115
 30
0.0
 11
13.6961057581168
 21
10.4874997597115
 31
0.0
  0
ARC
  5
4224
330
1A
100
AcDbEntity
  8
ZUWAKU
100
AcDbCircle
 10
20.60860575811676
 20
11.3624997597115
 30
0.0
 40
0.2625
100
AcDbArc
 50
90.0
 51
180.0
  0
LINE
  5
4225
330
1A
100
AcDbEntity
  8
ZUWAKU
100
AcDbLine
 10
18.08848867637243
 20
11.6249997597115
 30
0.0
 11
18.93793336617693
 21
11.6249997597115
 31
0.0
  0
ARC
  5
4226
330
1A
100
AcDbEntity
  8
ZUWAKU
100
AcDbCircle
 10
18.93793336617693
 20
11.3624997597115
 30
0.0
 40
0.2625
100
AcDbArc
 50
342.4744316262769
 51
90.0
  0
LINE
  5
4227
330
1A
100
AcDbEntity
  8
ZUWAKU
100
AcDbLine
 10
19.18824881577467
 20
11.28345277562801
 30
0.0
 11
18.65742899920576
 21
9.602523356493215
 31
0.0
  0
ARC
  5
4228
330
1A
100
AcDbEntity
  8
ZUWAKU
100
AcDbCircle
 10
18.08848867637243
 20
11.3624997597115
 30
0.0
 40
0.2625
100
AcDbArc
 50
90.0
 51
162.4744316262769
  0
LINE
  5
4229
330
1A
100
AcDbEntity
  8
ZUWAKU
100
AcDbLine
 10
24.1961057581168
 20
11.6249997597115
 30
0.0
 11
25.9461057581168
 21
11.6249997597115
 31
0.0
  0
LINE
  5
422A
330
1A
100
AcDbEntity
  8
ZUWAKU
100
AcDbLine
 10
25.9461057581168
 20
10.2249997597115
 30
0.0
 11
24.45860575811678
 21
10.2249997597115
 31
0.0
  0
ARC
  5
422B
330
1A
100
AcDbEntity
  8
ZUWAKU
100
AcDbCircle
 10
24.45860575811678
 20
9.962499759711501
 30
0.0
 40
0.2625
100
AcDbArc
 50
90.0
 51
180.0
  0
LINE
  5
422C
330
1A
100
AcDbEntity
  8
ZUWAKU
100
AcDbLine
 10
24.1961057581168
 20
9.962499759711501
 30
0.0
 11
24.1961057581168
 21
9.317398747033831
 31
0.0
  0
ARC
  5
422D
330
1A
100
AcDbEntity
  8
ZUWAKU
100
AcDbCircle
 10
21.48360575811676
 20
11.3624997597115
 30
0.0
 40
0.2625
100
AcDbArc
 50
0.0
 51
90.0
  0
LINE
  5
422E
330
1A
100
AcDbEntity
  8
ZUWAKU
100
AcDbLine
 10
22.79610575811676
 20
10.2249997597115
 30
0.0
 11
22.79610575811676
 21
9.317398747033831
 31
0.0
  0
ARC
  5
422F
330
1A
100
AcDbEntity
  8
ZUWAKU
100
AcDbCircle
 10
24.1961057581168
 20
10.2249997597115
 30
0.0
 40
1.399999999999999
100
AcDbArc
 50
90.0
 51
180.0
  0
ARC
  5
4230
330
1A
100
AcDbEntity
  8
ZUWAKU
100
AcDbCircle
 10
28.65860575811677
 20
11.3624997597115
 30
0.0
 40
0.2625
100
AcDbArc
 50
0.0
 51
90.0
  0
ARC
  5
4231
330
1A
100
AcDbEntity
  8
ZUWAKU
100
AcDbCircle
 10
27.78360575811678
 20
11.3624997597115
 30
0.0
 40
0.2625
100
AcDbArc
 50
90.0
 51
180.0
  0
LINE
  5
4232
330
1A
100
AcDbEntity
  8
ZUWAKU
100
AcDbLine
 10
28.65860575811677
 20
11.6249997597115
 30
0.0
 11
27.78360575811678
 21
11.6249997597115
 31
0.0
  0
ARC
  5
4233
330
1A
100
AcDbEntity
  8
ZUWAKU
100
AcDbCircle
 10
25.9461057581168
 20
11.3624997597115
 30
0.0
 40
0.2625
100
AcDbArc
 50
0.0
 51
90.0
  0
ARC
  5
4234
330
1A
100
AcDbEntity
  8
ZUWAKU
100
AcDbCircle
 10
25.9461057581168
 20
10.4874997597115
 30
0.0
 40
0.2625
100
AcDbArc
 50
270.0
 51
0.0
  0
LINE
  5
4235
330
1A
100
AcDbEntity
  8
ZUWAKU
100
AcDbLine
 10
26.20860575811679
 20
11.3624997597115
 30
0.0
 11
26.20860575811679
 21
10.4874997597115
 31
0.0
  0
LINE
  5
4236
330
1A
100
AcDbEntity
  8
ZUWAKU
100
AcDbLine
 10
34.2586057581168
 20
11.6249997597115
 30
0.0
 11
33.3836057581168
 21
11.6249997597115
 31
0.0
  0
ARC
  5
4237
330
1A
100
AcDbEntity
  8
ZUWAKU
100
AcDbCircle
 10
33.3836057581168
 20
11.3624997597115
 30
0.0
 40
0.2625
100
AcDbArc
 50
90.0
 51
180.0
  0
ARC
  5
4238
330
1A
100
AcDbEntity
  8
ZUWAKU
100
AcDbCircle
 10
31.80860575811675
 20
11.3624997597115
 30
0.0
 40
0.2625
100
AcDbArc
 50
0.0
 51
90.0
  0
LINE
  5
4239
330
1A
100
AcDbEntity
  8
ZUWAKU
100
AcDbLine
 10
31.80860575811675
 20
11.6249997597115
 30
0.0
 11
30.93360575811675
 21
11.6249997597115
 31
0.0
  0
ARC
  5
423A
330
1A
100
AcDbEntity
  8
ZUWAKU
100
AcDbCircle
 10
30.93360575811675
 20
11.3624997597115
 30
0.0
 40
0.2625
100
AcDbArc
 50
90.0
 51
180.0
  0
ARC
  5
423B
330
1A
100
AcDbEntity
  8
ZUWAKU
100
AcDbCircle
 10
34.2586057581168
 20
11.3624997597115
 30
0.0
 40
0.2625
100
AcDbArc
 50
0.0
 51
90.0
  0
TEXT
  5
423C
330
1A
100
AcDbEntity
  8
MOJI
100
AcDbText
 10
119.9136010211517
 20
1.60246028841521
 30
0.0
 40
2.799999999999999
  1
ＲＶ１０５－４－２０
 41
0.9
  7
ｽﾀｲﾙ1
100
AcDbText
  0
LINE
  5
423D
330
1A
100
AcDbEntity
  8
ZUWAKU
100
AcDbLine
 10
104.1233003257601
 20
14.99999975971149
 30
0.0
 11
104.1233003257601
 21
0.3999997597115339
 31
0.0
  0
LINE
  5
423E
330
1A
100
AcDbEntity
  8
ZUWAKU
100
AcDbLine
 10
104.32330032576
 20
14.99999975971149
 30
0.0
 11
104.3233003257602
 21
0.3999997597115339
 31
0.0
  0
LINE
  5
423F
330
1A
100
AcDbEntity
  8
ZUWAKU
100
AcDbLine
 10
104.22330032576
 20
14.99999975971149
 30
0.0
 11
104.2233003257601
 21
0.3999997597115339
 31
0.0
  0
TEXT
  5
4240
330
1A
100
AcDbEntity
  8
ZUWAKU
100
AcDbText
 10
104.8620228368649
 20
4.827678028904308
 30
0.0
 40
2.0
  1
サイズ
 41
0.9
  7
ｽﾀｲﾙ1
100
AcDbText
  0
TEXT
  5
4241
330
1A
100
AcDbEntity
  8
ZUWAKU
100
AcDbText
 10
104.8620228368648
 20
12.02767802890429
 30
0.0
 40
2.0
  1
品名
 41
0.9
  7
ｽﾀｲﾙ1
100
AcDbText
  0
LINE
  5
4242
330
1A
100
AcDbEntity
  8
ZUWAKU
100
AcDbLine
 10
324.4086009358283
 20
7.599999759711515
 30
0.0
 11
348.6245049549968
 21
7.599999759711517
 31
0.0
  0
LINE
  5
4243
330
1A
100
AcDbEntity
  8
ZUWAKU
100
AcDbLine
 10
324.4086009358284
 20
7.699999759711518
 30
0.0
 11
348.6245049549968
 21
7.699999759711516
 31
0.0
  0
LINE
  5
4244
330
1A
100
AcDbEntity
  8
ZUWAKU
100
AcDbLine
 10
324.4086009358283
 20
7.799999759711516
 30
0.0
 11
348.6245049549968
 21
7.799999759711516
 31
0.0
  0
TEXT
  5
4245
330
1A
100
AcDbEntity
  8
ZUWAKU
100
AcDbText
 10
329.1019685243774
 20
9.002460288415193
 30
0.0
 40
2.799999999999999
  1
　　．　　．　　
 41
0.9
  7
ｽﾀｲﾙ1
100
AcDbText
  0
LINE
  5
4246
330
1A
100
AcDbEntity
  8
ZUWAKU
100
AcDbLine
 10
252.5995894297966
 20
7.599999759711518
 30
0.0
 11
276.2634775637824
 21
7.599999759711518
 31
0.0
  0
LINE
  5
4247
330
1A
100
AcDbEntity
  8
ZUWAKU
100
AcDbLine
 10
252.5995894297966
 20
7.699999759711516
 30
0.0
 11
276.2634775637824
 21
7.699999759711516
 31
0.0
  0
LINE
  5
4248
330
1A
100
AcDbEntity
  8
ZUWAKU
100
AcDbLine
 10
252.5995894297966
 20
7.799999759711516
 30
0.0
 11
276.2634775637824
 21
7.799999759711516
 31
0.0
  0
TEXT
  5
4249
330
1A
100
AcDbEntity
  8
MOJI
100
AcDbText
 10
231.2836388417205
 20
5.971308620541492
 30
0.0
 40
2.799999999999999
  1
ＬＪ７７□
 41
0.9
  7
ｽﾀｲﾙ1
100
AcDbText
  0
LINE
  5
424A
330
1A
100
AcDbEntity
  8
ZUWAKU
100
AcDbLine
 10
223.8121816662218
 20
14.99999975971149
 30
0.0
 11
223.8121816662219
 21
0.3999997597115339
 31
0.0
  0
LINE
  5
424B
330
1A
100
AcDbEntity
  8
ZUWAKU
100
AcDbLine
 10
223.9121816662218
 20
14.99999975971149
 30
0.0
 11
223.9121816662219
 21
0.3999997597115339
 31
0.0
  0
LINE
  5
424C
330
1A
100
AcDbEntity
  8
ZUWAKU
100
AcDbLine
 10
223.7121816662219
 20
14.99999975971149
 30
0.0
 11
223.7121816662219
 21
0.3999997597115339
 31
0.0
  0
TEXT
  5
424D
330
1A
100
AcDbEntity
  8
MOJI
100
AcDbText
 10
264.0204536668826
 20
9.002460288415193
 30
0.0
 40
2.799999999999999
  1
Ａ３
 41
0.9
  7
ｽﾀｲﾙ1
100
AcDbText
  0
LINE
  5
424E
330
1A
100
AcDbEntity
  8
ZUWAKU
100
AcDbLine
 10
252.4995894297966
 20
14.99999975971149
 30
0.0
 11
252.4995894297967
 21
0.3999997597115339
 31
0.0
  0
LINE
  5
424F
330
1A
100
AcDbEntity
  8
ZUWAKU
100
AcDbLine
 10
252.5995894297966
 20
14.99999975971149
 30
0.0
 11
252.5995894297967
 21
0.3999997597115339
 31
0.0
  0
LINE
  5
4250
330
1A
100
AcDbEntity
  8
ZUWAKU
100
AcDbLine
 10
252.3995894297967
 20
14.99999975971149
 30
0.0
 11
252.3995894297967
 21
0.3999997597115339
 31
0.0
  0
TEXT
  5
4251
330
1A
100
AcDbEntity
  8
ZUWAKU
100
AcDbText
 10
231.3468805084797
 20
1.307035215281246
 30
0.0
 40
1.5
  1
□には色品番が入ります
 41
0.9
  7
ｽﾀｲﾙ1
100
AcDbText
  0
TEXT
  5
4252
330
1A
100
AcDbEntity
  8
ZUWAKU
100
AcDbText
 10
253.3383119409015
 20
4.827678028904308
 30
0.0
 40
2.0
  1
縮尺
 41
0.9
  7
ｽﾀｲﾙ1
100
AcDbText
  0
TEXT
  5
4253
330
1A
100
AcDbEntity
  8
MOJI
100
AcDbText
 10
264.0204536668826
 20
1.60246028841521
 30
0.0
 40
2.799999999999999
  1
１/１
 41
0.9
  7
ｽﾀｲﾙ1
100
AcDbText
  0
TEXT
  5
4254
330
1A
100
AcDbEntity
  8
ZUWAKU
100
AcDbText
 10
224.6509041773266
 20
12.02767802890429
 30
0.0
 40
2.0
  1
品番
 41
0.9
  7
ｽﾀｲﾙ1
100
AcDbText
  0
TEXT
  5
4255
330
1A
100
AcDbEntity
  8
ZUWAKU
100
AcDbText
 10
253.3383119409014
 20
12.02767802890429
 30
0.0
 40
2.0
  1
用紙
 41
0.9
  7
ｽﾀｲﾙ1
100
AcDbText
  0
LINE
  5
4256
330
1A
100
AcDbEntity
  8
ZUWAKU
100
AcDbLine
 10
324.3086009358283
 20
14.99999975971149
 30
0.0
 11
324.3086009358285
 21
0.3999997597115339
 31
0.0
  0
LINE
  5
4257
330
1A
100
AcDbEntity
  8
ZUWAKU
100
AcDbLine
 10
324.4086009358284
 20
14.99999975971149
 30
0.0
 11
324.4086009358285
 21
0.3999997597115339
 31
0.0
  0
LINE
  5
4258
330
1A
100
AcDbEntity
  8
ZUWAKU
100
AcDbLine
 10
324.2086009358284
 20
14.99999975971149
 30
0.0
 11
324.2086009358284
 21
0.3999997597115339
 31
0.0
  0
LINE
  5
4259
330
1A
100
AcDbEntity
  8
ZUWAKU
100
AcDbLine
 10
276.3634775637823
 20
14.99999975971149
 30
0.0
 11
276.3634775637824
 21
0.3999997597115339
 31
0.0
  0
LINE
  5
425A
330
1A
100
AcDbEntity
  8
ZUWAKU
100
AcDbLine
 10
276.4634775637823
 20
14.99999975971149
 30
0.0
 11
276.4634775637824
 21
0.3999997597115339
 31
0.0
  0
LINE
  5
425B
330
1A
100
AcDbEntity
  8
ZUWAKU
100
AcDbLine
 10
276.2634775637824
 20
14.99999975971149
 30
0.0
 11
276.2634775637824
 21
0.3999997597115339
 31
0.0
  0
TEXT
  5
425C
330
1A
100
AcDbEntity
  8
ZUWAKU
100
AcDbText
 10
325.1473234469332
 20
12.02767802890429
 30
0.0
 40
2.0
  1
DATE
 41
0.9
  7
ｽﾀｲﾙ1
100
AcDbText
  0
LINE
  5
425D
330
1A
100
AcDbEntity
  8
ZUWAKU
100
AcDbLine
 10
348.6245049549968
 20
14.99999975971149
 30
0.0
 11
348.6245049549968
 21
0.3999997597115339
 31
0.0
  0
LINE
  5
425E
330
1A
100
AcDbEntity
  8
ZUWAKU
100
AcDbLine
 10
348.7245049549968
 20
14.99999975971149
 30
0.0
 11
348.7245049549968
 21
0.3999997597115339
 31
0.0
  0
LINE
  5
425F
330
1A
100
AcDbEntity
  8
ZUWAKU
100
AcDbLine
 10
348.8245049549967
 20
14.99999975971149
 30
0.0
 11
348.8245049549969
 21
0.3999997597115339
 31
0.0
  0
LINE
  5
4260
330
1A
100
AcDbEntity
  8
ZUWAKU
100
AcDbLine
 10
348.9245049549968
 20
14.99999975971149
 30
0.0
 11
348.9245049549968
 21
0.3999997597115339
 31
0.0
  0
TEXT
  5
4261
330
1A
100
AcDbEntity
  8
ZUWAKU
100
AcDbText
 10
354.2640417768481
 20
8.776919427554901
 30
0.0
 40
3.0
  1
積水化学工業株式会社
 41
0.9
  7
ｽﾀｲﾙ1
100
AcDbText
  0
TEXT
  5
4262
330
1A
100
AcDbEntity
  8
ZUWAKU
100
AcDbText
 10
354.2640417768481
 20
3.324419916638532
 30
0.0
 40
3.0
  1
建材事業部
 41
0.9
  7
ｽﾀｲﾙ1
100
AcDbText
  0
VIEWPORT
  5
22
330
17
100
AcDbEntity
 67
     1
  8
0
100
AcDbViewport
 10
313.6808219178082
 20
148.5
 30
0.0
 40
627.3616438356165
 41
297.0
 68
     2
 69
     1
1001
ACAD
1000
MVIEW
1002
{
1070
    16
1010
0.0
1020
0.0
1030
0.0
1010
0.0
1020
0.0
1030
1.0
1040
0.0
1040
297.0
1040
313.6808219178082
1040
148.5
1040
50.0
1040
0.0
1040
0.0
1070
     0
1070
   100
1070
     1
1070
     0
1070
     0
1070
     0
1070
     0
1070
     0
1040
0.0
1040
0.0
1040
0.0
1040
1.0
1040
1.0
1040
10.0
1040
10.0
1070
     0
1002
{
1002
}
1002
}
  0
VIEWPORT
  5
64
330
17
100
AcDbEntity
 67
     1
  8
VIEWPORT
100
AcDbViewport
 10
210.0
 20
148.5
 30
0.0
 40
420.0
 41
297.0
 68
     1
 69
     2
1001
ACAD
1000
MVIEW
1002
{
1070
    16
1010
0.0
1020
0.0
1030
0.0
1010
0.0
1020
0.0
1030
1.0
1040
0.0
1040
302.9399999999998
1040
210.0
1040
148.5
1040
50.0
1040
0.0
1040
0.0
1070
     0
1070
   100
1070
     1
1070
     0
1070
     0
1070
     0
1070
     0
1070
     0
1040
0.0
1040
0.0
1040
0.0
1040
5.0
1040
5.0
1040
0.0
1040
0.0
1070
     0
1002
{
1002
}
1002
}
  0
ENDSEC
  0
SECTION
  2
OBJECTS
  0
DICTIONARY
  5
C
330
0
100
AcDbDictionary
  3
ACAD_GROUP
350
D
  3
ACAD_LAYOUT
350
141
  3
ACAD_MLINESTYLE
350
E
  3
ACAD_PLOTSETTINGS
350
142
  3
ACAD_PLOTSTYLENAME
350
13F
  3
ACADDIM
350
3023
  3
ACDBVARIABLEDICTIONARY
350
120D
  3
ACDBHEADERROUNDTRIPXREC
350
42D8
  0
DICTIONARY
  5
7A2
330
1A
100
AcDbDictionary
280
     1
  3
ACAD_LAYOUTSELFREF
360
42FA
  0
DICTIONARY
  5
7A0
330
17
100
AcDbDictionary
280
     1
  3
ACAD_LAYOUTSELFREF
360
42F9
  0
DICTIONARY
  5
D
102
{ACAD_REACTORS
330
C
102
}
330
C
100
AcDbDictionary
  0
DICTIONARY
  5
141
102
{ACAD_REACTORS
330
C
102
}
330
C
100
AcDbDictionary
  0
DICTIONARY
  5
E
102
{ACAD_REACTORS
330
C
102
}
330
C
100
AcDbDictionary
  3
STANDARD
350
13
  0
DICTIONARY
  5
142
102
{ACAD_REACTORS
330
C
102
}
330
C
100
AcDbDictionary
  0
ACDBDICTIONARYWDFLT
  5
13F
102
{ACAD_REACTORS
330
C
102
}
330
C
100
AcDbDictionary
281
     1
  3
Normal
350
140
100
AcDbDictionaryWithDefault
340
140
1001
ACAD
1000
TREAT_AS_HARD
1070
     0
1000
TREAT_AS_HARD
1070
     0
1000
TREAT_AS_HARD
1070
     0
1000
TREAT_AS_HARD
1070
     0
1000
TREAT_AS_HARD
1070
     0
1000
TREAT_AS_HARD
1070
     0
1000
TREAT_AS_HARD
1070
     0
1000
TREAT_AS_HARD
1070
     0
1000
TREAT_AS_HARD
1070
     0
1000
TREAT_AS_HARD
1070
     0
1000
TREAT_AS_HARD
1070
     0
1000
TREAT_AS_HARD
1070
     0
1000
TREAT_AS_HARD
1070
     0
1000
TREAT_AS_HARD
1070
     0
1000
TREAT_AS_HARD
1070
     0
1000
TREAT_AS_HARD
1070
     0
1000
TREAT_AS_HARD
1070
     0
1000
TREAT_AS_HARD
1070
     0
1000
TREAT_AS_HARD
1070
     0
1000
TREAT_AS_HARD
1070
     0
1000
TREAT_AS_HARD
1070
     0
  0
XRECORD
  5
3023
102
{ACAD_REACTORS
330
C
102
}
330
C
100
AcDbXrecord
 90
   990106
  3

 60
     0
 61
     0
 62
     1
 63
     3
 64
     0
 65
     0
 66
     0
 67
     3
 68
     1
 69
     0
 70
     0
 71
     0
 72
     0
 40
0.0
170
     0
340
0
  0
DICTIONARY
  5
120D
102
{ACAD_REACTORS
330
C
102
}
330
C
100
AcDbDictionary
  3
SORTENTS
350
120E
  0
DICTIONARY
  5
42D8
102
{ACAD_REACTORS
330
C
102
}
330
C
100
AcDbDictionary
  3
TSTACKALIGN
350
42D9
  3
TSTACKSIZE
350
42DA
  3
HYPERLINKBASE
350
42DB
  3
STYLESHEET
350
42DC
  3
LAYOUTDICT
350
42DD
  3
PLOTSETDICT
350
42DE
  3
PLOTSTYLNAMDICT
350
42DF
  3
LWETCUNION
350
42E0
  3
INSUNITS
350
42E1
  3
CEPSNTYPE
350
42E2
  3
FINGERPRINTGUID
350
42E3
  3
VERSIONGUID
350
42E4
  3
PSVPSCALE
350
42E5
  3
DIMSTYLEDATA
350
42E6
  3
PUCSORTHOREF
350
42E7
  3
PUCSORTHOVIEW
350
42E8
  3
PUCSBASE
350
42E9
  3
PUCSORGTOP
350
42EA
  3
PUCSORGBOTTOM
350
42EB
  3
PUCSORGLEFT
350
42EC
  3
PUCSORGRIGHT
350
42ED
  3
PUCSORGFRONT
350
42EE
  3
PUCSORGBACK
350
42EF
  3
UCSORTHOREF
350
42F0
  3
UCSORTHOVIEW
350
42F1
  3
UCSBASE
350
42F2
  3
UCSORGTOP
350
42F3
  3
UCSORGBOTTOM
350
42F4
  3
UCSORGLEFT
350
42F5
  3
UCSORGRIGHT
350
42F6
  3
UCSORGFRONT
350
42F7
  3
UCSORGBACK
350
42F8
  0
XRECORD
  5
42FA
102
{ACAD_REACTORS
330
7A2
102
}
330
7A2
100
AcDbXrecord
340
1A
  0
XRECORD
  5
42F9
102
{ACAD_REACTORS
330
7A0
102
}
330
7A0
100
AcDbXrecord
340
17
  0
MLINESTYLE
  5
13
102
{ACAD_REACTORS
330
E
102
}
330
E
100
AcDbMlineStyle
  2
STANDARD
 70
     0
  3

 62
     0
 51
90.0
 52
90.0
 71
     2
 49
0.5
 62
   256
  6
BYLAYER
 49
-0.5
 62
   256
  6
BYLAYER
  0
ACDBPLACEHOLDER
  5
140
102
{ACAD_REACTORS
330
13F
102
}
330
13F
100
AcDbPlaceHolder
280
     0
  0
DICTIONARYVAR
  5
120E
102
{ACAD_REACTORS
330
120D
102
}
330
120D
100
DictionaryVariables
280
     0
  1
96
  0
XRECORD
  5
42D9
102
{ACAD_REACTORS
330
42D8
102
}
330
42D8
100
AcDbXrecord
 90
        1
  0
XRECORD
  5
42DA
102
{ACAD_REACTORS
330
42D8
102
}
330
42D8
100
AcDbXrecord
 90
       70
  0
XRECORD
  5
42DB
102
{ACAD_REACTORS
330
42D8
102
}
330
42D8
100
AcDbXrecord
  1

  0
XRECORD
  5
42DC
102
{ACAD_REACTORS
330
42D8
102
}
330
42D8
100
AcDbXrecord
  1
systemprinter.ctb
  0
XRECORD
  5
42DD
102
{ACAD_REACTORS
330
42D8
102
}
330
42D8
100
AcDbXrecord
340
141
  0
XRECORD
  5
42DE
102
{ACAD_REACTORS
330
42D8
102
}
330
42D8
100
AcDbXrecord
340
142
  0
XRECORD
  5
42DF
102
{ACAD_REACTORS
330
42D8
102
}
330
42D8
100
AcDbXrecord
340
13F
  0
XRECORD
  5
42E0
102
{ACAD_REACTORS
330
42D8
102
}
330
42D8
100
AcDbXrecord
 90
    10781
  0
XRECORD
  5
42E1
102
{ACAD_REACTORS
330
42D8
102
}
330
42D8
100
AcDbXrecord
 90
        0
  0
XRECORD
  5
42E2
102
{ACAD_REACTORS
330
42D8
102
}
330
42D8
100
AcDbXrecord
 90
        0
  0
XRECORD
  5
42E3
102
{ACAD_REACTORS
330
42D8
102
}
330
42D8
100
AcDbXrecord
  1
{4E8D0500-CDD1-11D3-932C-444553540000}
  0
XRECORD
  5
42E4
102
{ACAD_REACTORS
330
42D8
102
}
330
42D8
100
AcDbXrecord
  1
{97E69C5B-5989-4A10-8FF1-500384066D00}
  0
XRECORD
  5
42E5
102
{ACAD_REACTORS
330
42D8
102
}
330
42D8
100
AcDbXrecord
 40
0.0
  0
XRECORD
  5
42E6
102
{ACAD_REACTORS
330
42D8
102
}
330
42D8
100
AcDbXrecord
1000
DSTYLE
1002
{
1070
   341
340
B2
1070
   343
340
B2
1070
   344
340
B2
1070
   371
 70
    -1
1070
   372
 70
    -1
1002
}
  0
XRECORD
  5
42E7
102
{ACAD_REACTORS
330
42D8
102
}
330
42D8
100
AcDbXrecord
340
0
  0
XRECORD
  5
42E8
102
{ACAD_REACTORS
330
42D8
102
}
330
42D8
100
AcDbXrecord
 70
     0
  0
XRECORD
  5
42E9
102
{ACAD_REACTORS
330
42D8
102
}
330
42D8
100
AcDbXrecord
340
0
  0
XRECORD
  5
42EA
102
{ACAD_REACTORS
330
42D8
102
}
330
42D8
100
AcDbXrecord
 10
0.0
 20
0.0
 30
0.0
  0
XRECORD
  5
42EB
102
{ACAD_REACTORS
330
42D8
102
}
330
42D8
100
AcDbXrecord
 10
0.0
 20
0.0
 30
0.0
  0
XRECORD
  5
42EC
102
{ACAD_REACTORS
330
42D8
102
}
330
42D8
100
AcDbXrecord
 10
0.0
 20
0.0
 30
0.0
  0
XRECORD
  5
42ED
102
{ACAD_REACTORS
330
42D8
102
}
330
42D8
100
AcDbXrecord
 10
0.0
 20
0.0
 30
0.0
  0
XRECORD
  5
42EE
102
{ACAD_REACTORS
330
42D8
102
}
330
42D8
100
AcDbXrecord
 10
0.0
 20
0.0
 30
0.0
  0
XRECORD
  5
42EF
102
{ACAD_REACTORS
330
42D8
102
}
330
42D8
100
AcDbXrecord
 10
0.0
 20
0.0
 30
0.0
  0
XRECORD
  5
42F0
102
{ACAD_REACTORS
330
42D8
102
}
330
42D8
100
AcDbXrecord
340
0
  0
XRECORD
  5
42F1
102
{ACAD_REACTORS
330
42D8
102
}
330
42D8
100
AcDbXrecord
 70
     0
  0
XRECORD
  5
42F2
102
{ACAD_REACTORS
330
42D8
102
}
330
42D8
100
AcDbXrecord
340
0
  0
XRECORD
  5
42F3
102
{ACAD_REACTORS
330
42D8
102
}
330
42D8
100
AcDbXrecord
 10
0.0
 20
0.0
 30
0.0
  0
XRECORD
  5
42F4
102
{ACAD_REACTORS
330
42D8
102
}
330
42D8
100
AcDbXrecord
 10
0.0
 20
0.0
 30
0.0
  0
XRECORD
  5
42F5
102
{ACAD_REACTORS
330
42D8
102
}
330
42D8
100
AcDbXrecord
 10
0.0
 20
0.0
 30
0.0
  0
XRECORD
  5
42F6
102
{ACAD_REACTORS
330
42D8
102
}
330
42D8
100
AcDbXrecord
 10
0.0
 20
0.0
 30
0.0
  0
XRECORD
  5
42F7
102
{ACAD_REACTORS
330
42D8
102
}
330
42D8
100
AcDbXrecord
 10
0.0
 20
0.0
 30
0.0
  0
XRECORD
  5
42F8
102
{ACAD_REACTORS
330
42D8
102
}
330
42D8
100
AcDbXrecord
 10
0.0
 20
0.0
 30
0.0
  0
ENDSEC
  0
EOF
