  0
SECTION
  2
HEADER
  9
$ACADVER
  1
AC1014
  9
$ACADMAINTVER
 70
     9
  9
$DWGCODEPAGE
  3
ANSI_932
  9
$INSBASE
 10
0.0
 20
0.0
 30
0.0
  9
$EXTMIN
 10
-0.0128167242222617
 20
-0.0090632695025761
 30
-0.0000000100021362
  9
$EXTMAX
 10
398.8000497652178
 20
275.822617226868
 30
0.0000000100021363
  9
$LIMMIN
 10
0.0
 20
0.0
  9
$LIMMAX
 10
420.0
 20
297.0
  9
$ORTHOMODE
 70
     0
  9
$REGENMODE
 70
     1
  9
$FILLMODE
 70
     1
  9
$QTEXTMODE
 70
     0
  9
$MIRRTEXT
 70
     1
  9
$DRAGMODE
 70
     2
  9
$LTSCALE
 40
5.0
  9
$OSMODE
 70
    35
  9
$ATTMODE
 70
     1
  9
$TEXTSIZE
 40
3.0
  9
$TRACEWID
 40
1.0
  9
$TEXTSTYLE
  7
STANDARD
  9
$CLAYER
  8
SUNPOU
  9
$CELTYPE
  6
BYLAYER
  9
$CECOLOR
 62
   256
  9
$CELTSCALE
 40
1.0
  9
$DELOBJ
 70
     1
  9
$DISPSILH
 70
     0
  9
$DIMSCALE
 40
1.0
  9
$DIMASZ
 40
3.0
  9
$DIMEXO
 40
3.0
  9
$DIMDLI
 40
7.0
  9
$DIMRND
 40
0.0
  9
$DIMDLE
 40
0.0
  9
$DIMEXE
 40
1.5
  9
$DIMTP
 40
0.0
  9
$DIMTM
 40
0.0
  9
$DIMTXT
 40
3.0
  9
$DIMCEN
 40
3.0
  9
$DIMTSZ
 40
0.0
  9
$DIMTOL
 70
     0
  9
$DIMLIM
 70
     0
  9
$DIMTIH
 70
     0
  9
$DIMTOH
 70
     0
  9
$DIMSE1
 70
     0
  9
$DIMSE2
 70
     0
  9
$DIMTAD
 70
     3
  9
$DIMZIN
 70
     0
  9
$DIMBLK
  1

  9
$DIMASO
 70
     1
  9
$DIMSHO
 70
     1
  9
$DIMPOST
  1

  9
$DIMAPOST
  1

  9
$DIMALT
 70
     0
  9
$DIMALTD
 70
     2
  9
$DIMALTF
 40
25.4
  9
$DIMLFAC
 40
1.0
  9
$DIMTOFL
 70
     1
  9
$DIMTVP
 40
0.0
  9
$DIMTIX
 70
     0
  9
$DIMSOXD
 70
     0
  9
$DIMSAH
 70
     1
  9
$DIMBLK1
  1
OPEN
  9
$DIMBLK2
  1
OPEN
  9
$DIMSTYLE
  2
STANDARD
  9
$DIMCLRD
 70
   256
  9
$DIMCLRE
 70
   256
  9
$DIMCLRT
 70
   256
  9
$DIMTFAC
 40
1.0
  9
$DIMGAP
 40
1.0
  9
$DIMJUST
 70
     0
  9
$DIMSD1
 70
     0
  9
$DIMSD2
 70
     0
  9
$DIMTOLJ
 70
     1
  9
$DIMTZIN
 70
     0
  9
$DIMALTZ
 70
     0
  9
$DIMALTTZ
 70
     0
  9
$DIMFIT
 70
     3
  9
$DIMUPT
 70
     0
  9
$DIMUNIT
 70
     2
  9
$DIMDEC
 70
     0
  9
$DIMTDEC
 70
     0
  9
$DIMALTU
 70
     2
  9
$DIMALTTD
 70
     2
  9
$DIMTXSTY
  7
STANDARD
  9
$DIMAUNIT
 70
     0
  9
$LUNITS
 70
     2
  9
$LUPREC
 70
     4
  9
$SKETCHINC
 40
1.0
  9
$FILLETRAD
 40
0.3
  9
$AUNITS
 70
     0
  9
$AUPREC
 70
     0
  9
$MENU
  1
.
  9
$ELEVATION
 40
0.0
  9
$PELEVATION
 40
0.0
  9
$THICKNESS
 40
0.0
  9
$LIMCHECK
 70
     0
  9
$BLIPMODE
 70
     0
  9
$CHAMFERA
 40
10.0
  9
$CHAMFERB
 40
10.0
  9
$CHAMFERC
 40
20.0
  9
$CHAMFERD
 40
0.0
  9
$SKPOLY
 70
     0
  9
$TDCREATE
 40
2451589.469382176
  9
$TDUPDATE
 40
2453802.577540868
  9
$TDINDWG
 40
0.5661913194
  9
$TDUSRTIMER
 40
0.5661913194
  9
$USRTIMER
 70
     1
  9
$ANGBASE
 50
0.0
  9
$ANGDIR
 70
     0
  9
$PDMODE
 70
     0
  9
$PDSIZE
 40
0.0
  9
$PLINEWID
 40
0.0
  9
$COORDS
 70
     1
  9
$SPLFRAME
 70
     0
  9
$SPLINETYPE
 70
     6
  9
$SPLINESEGS
 70
     8
  9
$ATTDIA
 70
     0
  9
$ATTREQ
 70
     1
  9
$HANDLING
 70
 10241
  9
$HANDSEED
  5
4312
  9
$SURFTAB1
 70
     6
  9
$SURFTAB2
 70
     6
  9
$SURFTYPE
 70
     6
  9
$SURFU
 70
     6
  9
$SURFV
 70
     6
  9
$UCSNAME
  2

  9
$UCSORG
 10
0.0
 20
0.0
 30
0.0
  9
$UCSXDIR
 10
1.0
 20
0.0
 30
0.0
  9
$UCSYDIR
 10
0.0
 20
1.0
 30
0.0
  9
$PUCSNAME
  2

  9
$PUCSORG
 10
0.0
 20
0.0
 30
0.0
  9
$PUCSXDIR
 10
1.0
 20
0.0
 30
0.0
  9
$PUCSYDIR
 10
0.0
 20
1.0
 30
0.0
  9
$USERI1
 70
     0
  9
$USERI2
 70
     0
  9
$USERI3
 70
     0
  9
$USERI4
 70
     0
  9
$USERI5
 70
     0
  9
$USERR1
 40
0.0
  9
$USERR2
 40
0.0
  9
$USERR3
 40
0.0
  9
$USERR4
 40
0.0
  9
$USERR5
 40
0.0
  9
$WORLDVIEW
 70
     1
  9
$SHADEDGE
 70
     3
  9
$SHADEDIF
 70
    70
  9
$TILEMODE
 70
     1
  9
$MAXACTVP
 70
    16
  9
$PINSBASE
 10
0.0
 20
0.0
 30
0.0
  9
$PLIMCHECK
 70
     0
  9
$PEXTMIN
 10
0.0
 20
0.0
 30
0.0
  9
$PEXTMAX
 10
420.0
 20
297.0
 30
0.0
  9
$PLIMMIN
 10
0.0
 20
0.0
  9
$PLIMMAX
 10
420.0
 20
297.0
  9
$UNITMODE
 70
     0
  9
$VISRETAIN
 70
     0
  9
$PLINEGEN
 70
     0
  9
$PSLTSCALE
 70
     1
  9
$TREEDEPTH
 70
  3020
  9
$PICKSTYLE
 70
     1
  9
$CMLSTYLE
  2
STANDARD
  9
$CMLJUST
 70
     0
  9
$CMLSCALE
 40
1.0
  9
$PROXYGRAPHICS
 70
     1
  9
$MEASUREMENT
 70
     0
  0
ENDSEC
  0
SECTION
  2
CLASSES
  0
CLASS
  1
ACDBDICTIONARYWDFLT
  2
AcDbDictionaryWithDefault
  3
AutoCAD 2000
 90
        0
280
     0
281
     0
  0
CLASS
  1
ACDBPLACEHOLDER
  2
AcDbPlaceHolder
  3
AutoCAD 2000
 90
        0
280
     0
281
     0
  0
CLASS
  1
LAYOUT
  2
AcDbLayout
  3
AutoCAD 2000
 90
        0
280
     0
281
     0
  0
CLASS
  1
LONG_TRANSACTION
  2
AcDbLongTransaction
  3
AutoCAD 2000
 90
        0
280
     0
281
     0
  0
CLASS
  1
LWPOLYLINE
  2
AcDbPolyline
  3
AutoCAD 2000
 90
        0
280
     0
281
     1
  0
CLASS
  1
HATCH
  2
AcDbHatch
  3
AutoCAD 2000
 90
        0
280
     0
281
     1
  0
CLASS
  1
XRECORD
  2
AcDbXrecord
  3
AutoCAD 2000
 90
        0
280
     0
281
     0
  0
CLASS
  1
LONG_TRANSACTION
  2
AcDbLongTransaction
  3
AutoCAD 2000
 90
        0
280
     0
281
     0
  0
CLASS
  1
LWPOLYLINE
  2
AcDbPolyline
  3
AutoCAD 2000
 90
        0
280
     0
281
     1
  0
CLASS
  1
HATCH
  2
AcDbHatch
  3
AutoCAD 2000
 90
        0
280
     0
281
     1
  0
CLASS
  1
XRECORD
  2
AcDbXrecord
  3
AutoCAD 2000
 90
        0
280
     0
281
     0
  0
CLASS
  1
DICTIONARYVAR
  2
AcDbDictionaryVar
  3
AutoCAD 2000
 90
        0
280
     0
281
     0
  0
CLASS
  1
LONG_TRANSACTION
  2
AcDbLongTransaction
  3
AutoCAD 2000
 90
        0
280
     0
281
     0
  0
CLASS
  1
LWPOLYLINE
  2
AcDbPolyline
  3
AutoCAD 2000
 90
        0
280
     0
281
     1
  0
CLASS
  1
HATCH
  2
AcDbHatch
  3
AutoCAD 2000
 90
        0
280
     0
281
     1
  0
CLASS
  1
XRECORD
  2
AcDbXrecord
  3
AutoCAD 2000
 90
        0
280
     0
281
     0
  0
CLASS
  1
LONG_TRANSACTION
  2
AcDbLongTransaction
  3
AutoCAD 2000
 90
        0
280
     0
281
     0
  0
CLASS
  1
LWPOLYLINE
  2
AcDbPolyline
  3
AutoCAD 2000
 90
        0
280
     0
281
     1
  0
CLASS
  1
HATCH
  2
AcDbHatch
  3
AutoCAD 2000
 90
        0
280
     0
281
     1
  0
CLASS
  1
XRECORD
  2
AcDbXrecord
  3
AutoCAD 2000
 90
        0
280
     0
281
     0
  0
CLASS
  1
LONG_TRANSACTION
  2
AcDbLongTransaction
  3
AutoCAD 2000
 90
        0
280
     0
281
     0
  0
CLASS
  1
LWPOLYLINE
  2
AcDbPolyline
  3
AutoCAD 2000
 90
        0
280
     0
281
     1
  0
CLASS
  1
HATCH
  2
AcDbHatch
  3
AutoCAD 2000
 90
        0
280
     0
281
     1
  0
CLASS
  1
XRECORD
  2
AcDbXrecord
  3
AutoCAD 2000
 90
        0
280
     0
281
     0
  0
CLASS
  1
LONG_TRANSACTION
  2
AcDbLongTransaction
  3
AutoCAD 2000
 90
        0
280
     0
281
     0
  0
CLASS
  1
LWPOLYLINE
  2
AcDbPolyline
  3
AutoCAD 2000
 90
        0
280
     0
281
     1
  0
CLASS
  1
HATCH
  2
AcDbHatch
  3
AutoCAD 2000
 90
        0
280
     0
281
     1
  0
CLASS
  1
XRECORD
  2
AcDbXrecord
  3
AutoCAD 2000
 90
        0
280
     0
281
     0
  0
CLASS
  1
LONG_TRANSACTION
  2
AcDbLongTransaction
  3
AutoCAD 2000
 90
        0
280
     0
281
     0
  0
CLASS
  1
LWPOLYLINE
  2
AcDbPolyline
  3
AutoCAD 2000
 90
        0
280
     0
281
     1
  0
CLASS
  1
HATCH
  2
AcDbHatch
  3
AutoCAD 2000
 90
        0
280
     0
281
     1
  0
CLASS
  1
XRECORD
  2
AcDbXrecord
  3
AutoCAD 2000
 90
        0
280
     0
281
     0
  0
CLASS
  1
LONG_TRANSACTION
  2
AcDbLongTransaction
  3
AutoCAD 2000
 90
        0
280
     0
281
     0
  0
CLASS
  1
LWPOLYLINE
  2
AcDbPolyline
  3
AutoCAD 2000
 90
        0
280
     0
281
     1
  0
CLASS
  1
HATCH
  2
AcDbHatch
  3
AutoCAD 2000
 90
        0
280
     0
281
     1
  0
CLASS
  1
XRECORD
  2
AcDbXrecord
  3
AutoCAD 2000
 90
        0
280
     0
281
     0
  0
CLASS
  1
LONG_TRANSACTION
  2
AcDbLongTransaction
  3
AutoCAD 2000
 90
        0
280
     0
281
     0
  0
CLASS
  1
LWPOLYLINE
  2
AcDbPolyline
  3
AutoCAD 2000
 90
        0
280
     0
281
     1
  0
CLASS
  1
HATCH
  2
AcDbHatch
  3
AutoCAD 2000
 90
        0
280
     0
281
     1
  0
CLASS
  1
XRECORD
  2
AcDbXrecord
  3
AutoCAD 2000
 90
        0
280
     0
281
     0
  0
CLASS
  1
LONG_TRANSACTION
  2
AcDbLongTransaction
  3
AutoCAD 2000
 90
        0
280
     0
281
     0
  0
CLASS
  1
LWPOLYLINE
  2
AcDbPolyline
  3
AutoCAD 2000
 90
        0
280
     0
281
     1
  0
CLASS
  1
HATCH
  2
AcDbHatch
  3
AutoCAD 2000
 90
        0
280
     0
281
     1
  0
CLASS
  1
XRECORD
  2
AcDbXrecord
  3
AutoCAD 2000
 90
        0
280
     0
281
     0
  0
CLASS
  1
LONG_TRANSACTION
  2
AcDbLongTransaction
  3
AutoCAD 2000
 90
        0
280
     0
281
     0
  0
CLASS
  1
LWPOLYLINE
  2
AcDbPolyline
  3
AutoCAD 2000
 90
        0
280
     0
281
     1
  0
CLASS
  1
HATCH
  2
AcDbHatch
  3
AutoCAD 2000
 90
        0
280
     0
281
     1
  0
CLASS
  1
XRECORD
  2
AcDbXrecord
  3
AutoCAD 2000
 90
        0
280
     0
281
     0
  0
CLASS
  1
LONG_TRANSACTION
  2
AcDbLongTransaction
  3
AutoCAD 2000
 90
        0
280
     0
281
     0
  0
CLASS
  1
LWPOLYLINE
  2
AcDbPolyline
  3
AutoCAD 2000
 90
        0
280
     0
281
     1
  0
CLASS
  1
HATCH
  2
AcDbHatch
  3
AutoCAD 2000
 90
        0
280
     0
281
     1
  0
CLASS
  1
XRECORD
  2
AcDbXrecord
  3
AutoCAD 2000
 90
        0
280
     0
281
     0
  0
CLASS
  1
LONG_TRANSACTION
  2
AcDbLongTransaction
  3
AutoCAD 2000
 90
        0
280
     0
281
     0
  0
CLASS
  1
LWPOLYLINE
  2
AcDbPolyline
  3
AutoCAD 2000
 90
        0
280
     0
281
     1
  0
CLASS
  1
HATCH
  2
AcDbHatch
  3
AutoCAD 2000
 90
        0
280
     0
281
     1
  0
CLASS
  1
XRECORD
  2
AcDbXrecord
  3
AutoCAD 2000
 90
        0
280
     0
281
     0
  0
CLASS
  1
LONG_TRANSACTION
  2
AcDbLongTransaction
  3
AutoCAD 2000
 90
        0
280
     0
281
     0
  0
CLASS
  1
LWPOLYLINE
  2
AcDbPolyline
  3
AutoCAD 2000
 90
        0
280
     0
281
     1
  0
CLASS
  1
HATCH
  2
AcDbHatch
  3
AutoCAD 2000
 90
        0
280
     0
281
     1
  0
CLASS
  1
XRECORD
  2
AcDbXrecord
  3
AutoCAD 2000
 90
        0
280
     0
281
     0
  0
CLASS
  1
LONG_TRANSACTION
  2
AcDbLongTransaction
  3
AutoCAD 2000
 90
        0
280
     0
281
     0
  0
CLASS
  1
LWPOLYLINE
  2
AcDbPolyline
  3
AutoCAD 2000
 90
        0
280
     0
281
     1
  0
CLASS
  1
HATCH
  2
AcDbHatch
  3
AutoCAD 2000
 90
        0
280
     0
281
     1
  0
CLASS
  1
XRECORD
  2
AcDbXrecord
  3
AutoCAD 2000
 90
        0
280
     0
281
     0
  0
CLASS
  1
LONG_TRANSACTION
  2
AcDbLongTransaction
  3
AutoCAD 2000
 90
        0
280
     0
281
     0
  0
CLASS
  1
LWPOLYLINE
  2
AcDbPolyline
  3
AutoCAD 2000
 90
        0
280
     0
281
     1
  0
CLASS
  1
HATCH
  2
AcDbHatch
  3
AutoCAD 2000
 90
        0
280
     0
281
     1
  0
CLASS
  1
XRECORD
  2
AcDbXrecord
  3
AutoCAD 2000
 90
        0
280
     0
281
     0
  0
CLASS
  1
LONG_TRANSACTION
  2
AcDbLongTransaction
  3
AutoCAD 2000
 90
        0
280
     0
281
     0
  0
CLASS
  1
LWPOLYLINE
  2
AcDbPolyline
  3
AutoCAD 2000
 90
        0
280
     0
281
     1
  0
CLASS
  1
HATCH
  2
AcDbHatch
  3
AutoCAD 2000
 90
        0
280
     0
281
     1
  0
CLASS
  1
XRECORD
  2
AcDbXrecord
  3
AutoCAD 2000
 90
        0
280
     0
281
     0
  0
CLASS
  1
LONG_TRANSACTION
  2
AcDbLongTransaction
  3
AutoCAD 2000
 90
        0
280
     0
281
     0
  0
CLASS
  1
LWPOLYLINE
  2
AcDbPolyline
  3
AutoCAD 2000
 90
        0
280
     0
281
     1
  0
CLASS
  1
HATCH
  2
AcDbHatch
  3
AutoCAD 2000
 90
        0
280
     0
281
     1
  0
CLASS
  1
XRECORD
  2
AcDbXrecord
  3
AutoCAD 2000
 90
        0
280
     0
281
     0
  0
CLASS
  1
LONG_TRANSACTION
  2
AcDbLongTransaction
  3
AutoCAD 2000
 90
        0
280
     0
281
     0
  0
CLASS
  1
LWPOLYLINE
  2
AcDbPolyline
  3
AutoCAD 2000
 90
        0
280
     0
281
     1
  0
CLASS
  1
HATCH
  2
AcDbHatch
  3
AutoCAD 2000
 90
        0
280
     0
281
     1
  0
CLASS
  1
XRECORD
  2
AcDbXrecord
  3
AutoCAD 2000
 90
        0
280
     0
281
     0
  0
CLASS
  1
LONG_TRANSACTION
  2
AcDbLongTransaction
  3
AutoCAD 2000
 90
        0
280
     0
281
     0
  0
CLASS
  1
LWPOLYLINE
  2
AcDbPolyline
  3
AutoCAD 2000
 90
        0
280
     0
281
     1
  0
CLASS
  1
HATCH
  2
AcDbHatch
  3
AutoCAD 2000
 90
        0
280
     0
281
     1
  0
CLASS
  1
XRECORD
  2
AcDbXrecord
  3
AutoCAD 2000
 90
        0
280
     0
281
     0
  0
CLASS
  1
LONG_TRANSACTION
  2
AcDbLongTransaction
  3
AutoCAD 2000
 90
        0
280
     0
281
     0
  0
CLASS
  1
LWPOLYLINE
  2
AcDbPolyline
  3
AutoCAD 2000
 90
        0
280
     0
281
     1
  0
CLASS
  1
HATCH
  2
AcDbHatch
  3
AutoCAD 2000
 90
        0
280
     0
281
     1
  0
CLASS
  1
XRECORD
  2
AcDbXrecord
  3
AutoCAD 2000
 90
        0
280
     0
281
     0
  0
ENDSEC
  0
SECTION
  2
TABLES
  0
TABLE
  2
VPORT
  5
8
330
0
100
AcDbSymbolTable
 70
     2
  0
VPORT
  5
42EE
330
8
100
AcDbSymbolTableRecord
100
AcDbViewportTableRecord
  2
*ACTIVE
 70
     0
 10
0.0
 20
0.0
 11
1.0
 21
1.0
 12
225.457036266923
 22
133.0716297451133
 13
0.0
 23
0.0
 14
5.0
 24
5.0
 15
0.0
 25
0.0
 16
0.0
 26
0.0
 36
1.0
 17
0.0
 27
0.0
 37
0.0
 40
330.1620806708679
 41
1.795454545454545
 42
50.0
 43
0.0
 44
0.0
 50
0.0
 51
0.0
 71
     0
 72
   100
 73
     1
 74
     0
 75
     0
 76
     0
 77
     0
 78
     0
  0
ENDTAB
  0
TABLE
  2
LTYPE
  5
5
330
0
100
AcDbSymbolTable
 70
     3
  0
LTYPE
  5
14
330
5
100
AcDbSymbolTableRecord
100
AcDbLinetypeTableRecord
  2
BYBLOCK
 70
     0
  3

 72
    65
 73
     0
 40
0.0
  0
LTYPE
  5
15
330
5
100
AcDbSymbolTableRecord
100
AcDbLinetypeTableRecord
  2
BYLAYER
 70
     0
  3

 72
    65
 73
     0
 40
0.0
  0
LTYPE
  5
16
330
5
100
AcDbSymbolTableRecord
100
AcDbLinetypeTableRecord
  2
CONTINUOUS
 70
     0
  3
Solid line
 72
    65
 73
     0
 40
0.0
  0
LTYPE
  5
120
330
5
100
AcDbSymbolTableRecord
100
AcDbLinetypeTableRecord
  2
CENTER
 70
     0
  3
____ _ ____ _ ____ _ ____ _ ____ _ ____ _ ____ 
 72
    65
 73
     4
 40
2.0
 49
1.25
 74
     0
 49
-0.25
 74
     0
 49
0.25
 74
     0
 49
-0.25
 74
     0
  0
LTYPE
  5
122
330
5
100
AcDbSymbolTableRecord
100
AcDbLinetypeTableRecord
  2
PHANTOM
 70
     0
  3
______  __  __  ______  __  __  ______  __  __ 
 72
    65
 73
     6
 40
2.5
 49
1.25
 74
     0
 49
-0.25
 74
     0
 49
0.25
 74
     0
 49
-0.25
 74
     0
 49
0.25
 74
     0
 49
-0.25
 74
     0
  0
ENDTAB
  0
TABLE
  2
LAYER
  5
2
330
0
100
AcDbSymbolTable
 70
     9
  0
LAYER
  5
F
330
2
100
AcDbSymbolTableRecord
100
AcDbLayerTableRecord
  2
0
 70
     0
 62
     7
  6
CONTINUOUS
  0
LAYER
  5
62
330
2
100
AcDbSymbolTableRecord
100
AcDbLayerTableRecord
  2
VIEWPORT
 70
     0
 62
     7
  6
CONTINUOUS
  0
LAYER
  5
6B
330
2
100
AcDbSymbolTableRecord
100
AcDbLayerTableRecord
  2
ZUWAKU
 70
     0
 62
     7
  6
CONTINUOUS
  0
LAYER
  5
3EF
330
2
100
AcDbSymbolTableRecord
100
AcDbLayerTableRecord
  2
DEFPOINTS
 70
     0
 62
     7
  6
CONTINUOUS
  0
LAYER
  5
54D
330
2
100
AcDbSymbolTableRecord
100
AcDbLayerTableRecord
  2
SEIHIN
 70
     0
 62
     3
  6
CONTINUOUS
  0
LAYER
  5
54E
330
2
100
AcDbSymbolTableRecord
100
AcDbLayerTableRecord
  2
SUNPOU
 70
     0
 62
     4
  6
CONTINUOUS
  0
LAYER
  5
54F
330
2
100
AcDbSymbolTableRecord
100
AcDbLayerTableRecord
  2
CENTER_L
 70
     0
 62
     1
  6
CENTER
  0
LAYER
  5
550
330
2
100
AcDbSymbolTableRecord
100
AcDbLayerTableRecord
  2
NOKITOI
 70
     0
 62
     8
  6
PHANTOM
  0
LAYER
  5
4109
330
2
100
AcDbSymbolTableRecord
100
AcDbLayerTableRecord
  2
MOJI
 70
     0
 62
     2
  6
CONTINUOUS
  0
ENDTAB
  0
TABLE
  2
STYLE
  5
3
330
0
100
AcDbSymbolTable
 70
     2
  0
STYLE
  5
10
330
3
100
AcDbSymbolTableRecord
100
AcDbTextStyleTableRecord
  2
STANDARD
 70
     0
 40
0.0
 41
1.0
 50
0.0
 71
     0
 42
3.0
  3
TXT
  4
c:\PROGRAM FILES\AUTOCAD LT\ms\bigfont.shx
  0
STYLE
  5
410A
330
3
100
AcDbSymbolTableRecord
100
AcDbTextStyleTableRecord
  2
ｽﾀｲﾙ1
 70
     0
 40
0.0
 41
1.0
 50
0.0
 71
     0
 42
2.5
  3
MS PGothic.ttf
  4

1001
ACAD
1000
MS PGothic
1071
    32818
  0
ENDTAB
  0
TABLE
  2
VIEW
  5
6
330
0
100
AcDbSymbolTable
 70
     0
  0
ENDTAB
  0
TABLE
  2
UCS
  5
7
330
0
100
AcDbSymbolTable
 70
     0
  0
ENDTAB
  0
TABLE
  2
APPID
  5
9
330
0
100
AcDbSymbolTable
 70
     1
  0
APPID
  5
11
330
9
100
AcDbSymbolTableRecord
100
AcDbRegAppTableRecord
  2
ACAD
 70
     0
  0
ENDTAB
  0
TABLE
  2
DIMSTYLE
  5
A
330
0
100
AcDbSymbolTable
 70
     1
  0
DIMSTYLE
105
1D
102
{ACAD_REACTORS
330
2073
330
39FF
330
39FE
330
3A07
330
3A06
330
3A15
330
3A05
330
3C2E
330
3C48
330
3C55
330
3C62
330
3FE4
102
}
330
A
100
AcDbSymbolTableRecord
100
AcDbDimStyleTableRecord
  2
STANDARD
 70
     0
  3

  4

  5

  6

  7

 40
1.0
 41
0.18
 42
0.0625
 43
0.38
 44
0.18
 45
0.0
 46
0.0
 47
0.0
 48
0.0
140
0.18
141
0.09
142
0.0
143
25.4
144
1.0
145
0.0
146
1.0
147
0.09
 71
     0
 72
     0
 73
     1
 74
     1
 75
     0
 76
     0
 77
     0
 78
     0
170
     0
171
     2
172
     0
173
     0
174
     0
175
     0
176
     0
177
     0
178
     0
270
     2
271
     4
272
     4
273
     2
274
     2
340
10
275
     0
280
     0
281
     0
282
     0
283
     1
284
     0
285
     0
286
     0
287
     3
288
     0
  0
ENDTAB
  0
TABLE
  2
BLOCK_RECORD
  5
1
330
0
100
AcDbSymbolTable
 70
    13
  0
BLOCK_RECORD
  5
1A
102
{ACAD_XDICTIONARY
360
7A2
102
}
330
1
100
AcDbSymbolTableRecord
100
AcDbBlockTableRecord
  2
*MODEL_SPACE
  0
BLOCK_RECORD
  5
17
102
{ACAD_XDICTIONARY
360
7A0
102
}
330
1
100
AcDbSymbolTableRecord
100
AcDbBlockTableRecord
  2
*PAPER_SPACE
  0
BLOCK_RECORD
  5
B2
330
1
100
AcDbSymbolTableRecord
100
AcDbBlockTableRecord
  2
_OPEN
  0
BLOCK_RECORD
  5
2074
330
1
100
AcDbSymbolTableRecord
100
AcDbBlockTableRecord
  2
*D1
  0
BLOCK_RECORD
  5
3A38
330
1
100
AcDbSymbolTableRecord
100
AcDbBlockTableRecord
  2
*D2
  0
BLOCK_RECORD
  5
3A44
330
1
100
AcDbSymbolTableRecord
100
AcDbBlockTableRecord
  2
*D3
  0
BLOCK_RECORD
  5
3A50
330
1
100
AcDbSymbolTableRecord
100
AcDbBlockTableRecord
  2
*D4
  0
BLOCK_RECORD
  5
3A5C
330
1
100
AcDbSymbolTableRecord
100
AcDbBlockTableRecord
  2
*D5
  0
BLOCK_RECORD
  5
3A68
330
1
100
AcDbSymbolTableRecord
100
AcDbBlockTableRecord
  2
*D6
  0
BLOCK_RECORD
  5
3A74
330
1
100
AcDbSymbolTableRecord
100
AcDbBlockTableRecord
  2
*D7
  0
BLOCK_RECORD
  5
3C2F
330
1
100
AcDbSymbolTableRecord
100
AcDbBlockTableRecord
  2
*D8
  0
BLOCK_RECORD
  5
3C49
330
1
100
AcDbSymbolTableRecord
100
AcDbBlockTableRecord
  2
*D9
  0
BLOCK_RECORD
  5
3C56
330
1
100
AcDbSymbolTableRecord
100
AcDbBlockTableRecord
  2
*D10
  0
BLOCK_RECORD
  5
3C63
330
1
100
AcDbSymbolTableRecord
100
AcDbBlockTableRecord
  2
*D11
  0
BLOCK_RECORD
  5
3FE5
330
1
100
AcDbSymbolTableRecord
100
AcDbBlockTableRecord
  2
*D12
  0
ENDTAB
  0
ENDSEC
  0
SECTION
  2
BLOCKS
  0
BLOCK
  5
1B
330
1A
100
AcDbEntity
  8
0
100
AcDbBlockBegin
  2
*MODEL_SPACE
 70
     0
 10
0.0
 20
0.0
 30
0.0
  3
*MODEL_SPACE
  1

  0
ENDBLK
  5
1C
330
1A
100
AcDbEntity
  8
0
100
AcDbBlockEnd
  0
BLOCK
  5
18
330
17
100
AcDbEntity
 67
     1
  8
0
100
AcDbBlockBegin
  2
*PAPER_SPACE
 70
     0
 10
0.0
 20
0.0
 30
0.0
  3
*PAPER_SPACE
  1

  0
ENDBLK
  5
19
330
17
100
AcDbEntity
 67
     1
  8
0
100
AcDbBlockEnd
  0
BLOCK
  5
B3
330
B2
100
AcDbEntity
  8
0
100
AcDbBlockBegin
  2
_OPEN
 70
     0
 10
0.0
 20
0.0
 30
0.0
  3
_OPEN
  1

  0
LINE
  5
B4
330
B2
100
AcDbEntity
  8
0
  6
BYBLOCK
 62
     0
100
AcDbLine
 10
-1.0
 20
0.1666666666666666
 30
0.0
 11
0.0
 21
0.0
 31
0.0
  0
LINE
  5
B5
330
B2
100
AcDbEntity
  8
0
  6
BYBLOCK
 62
     0
100
AcDbLine
 10
0.0
 20
0.0
 30
0.0
 11
-1.0
 21
-0.1666666666666666
 31
0.0
  0
LINE
  5
B6
330
B2
100
AcDbEntity
  8
0
  6
BYBLOCK
 62
     0
100
AcDbLine
 10
0.0
 20
0.0
 30
0.0
 11
-1.0
 21
0.0
 31
0.0
  0
ENDBLK
  5
B7
330
B2
100
AcDbEntity
  8
0
100
AcDbBlockEnd
  0
BLOCK
  5
207E
330
2074
100
AcDbEntity
  8
0
100
AcDbBlockBegin
  2
*D1
 70
     1
 10
0.0
 20
0.0
 30
0.0
  3
*D1
  1

  0
LINE
  5
429E
330
2074
100
AcDbEntity
  8
SUNPOU
100
AcDbLine
 10
72.55596457947769
 20
239.2254510221884
 30
0.0
 11
47.22515181114
 21
239.2254510221884
 31
0.0
  0
LINE
  5
429F
330
2074
100
AcDbEntity
  8
SUNPOU
100
AcDbLine
 10
72.55596457947769
 20
219.2254510221884
 30
0.0
 11
47.22515181114
 21
219.2254510221884
 31
0.0
  0
LINE
  5
42A0
330
2074
100
AcDbEntity
  8
SUNPOU
100
AcDbLine
 10
48.72515181114001
 20
236.2254510221884
 30
0.0
 11
48.72515181114001
 21
222.2254510221884
 31
0.0
  0
INSERT
  5
42A1
330
2074
100
AcDbEntity
  8
SUNPOU
100
AcDbBlockReference
  2
_OPEN
 10
48.72515181114001
 20
239.2254510221884
 30
0.0
 41
3.0
 42
3.0
 43
3.0
 50
90.0
  0
INSERT
  5
42A2
330
2074
100
AcDbEntity
  8
SUNPOU
100
AcDbBlockReference
  2
_OPEN
 10
48.72515181114001
 20
219.2254510221884
 30
0.0
 41
3.0
 42
3.0
 43
3.0
 50
270.0
  0
MTEXT
  5
42A3
330
2074
100
AcDbEntity
  8
SUNPOU
100
AcDbMText
 10
46.22515181113997
 20
229.2254510221884
 30
0.0
 40
3.0
 41
0.0
 71
     5
 72
     1
  1
\A1;20
 11
0.0000000000000001
 21
1.0
 31
0.0
1001
ACAD
1000
MTEXTBEGIN
1070
    73
1070
     1
1070
    44
1040
1.0
1070
    74
1070
     0
1000
MTEXTEND
  0
POINT
  5
42A4
330
2074
100
AcDbEntity
  8
DEFPOINTS
 62
     0
100
AcDbPoint
 10
75.55596457947769
 20
239.2254510221884
 30
0.0
  0
POINT
  5
42A5
330
2074
100
AcDbEntity
  8
DEFPOINTS
 62
     0
100
AcDbPoint
 10
75.55596457947769
 20
219.2254510221884
 30
0.0
  0
POINT
  5
42A6
330
2074
100
AcDbEntity
  8
DEFPOINTS
 62
     0
100
AcDbPoint
 10
48.72515181114001
 20
219.2254510221884
 30
0.0
  0
ENDBLK
  5
207F
330
2074
100
AcDbEntity
  8
0
100
AcDbBlockEnd
  0
BLOCK
  5
3A42
330
3A38
100
AcDbEntity
  8
0
100
AcDbBlockBegin
  2
*D2
 70
     1
 10
0.0
 20
0.0
 30
0.0
  3
*D2
  1

  0
LINE
  5
42C2
330
3A38
100
AcDbEntity
  8
SUNPOU
100
AcDbLine
 10
297.8292145668774
 20
175.2528623054528
 30
0.0
 11
282.2021801546501
 21
214.3212580639775
 31
0.0
  0
LINE
  5
42C3
330
3A38
100
AcDbEntity
  8
SUNPOU
100
AcDbLine
 10
355.3949339660554
 20
198.2786728244141
 30
0.0
 11
339.7678995538281
 21
237.3470685829388
 31
0.0
  0
LINE
  5
42C4
330
3A38
100
AcDbEntity
  8
SUNPOU
100
AcDbLine
 10
285.5446942510368
 20
214.0426911681407
 30
0.0
 11
337.5395375793266
 21
234.8401974433315
 31
0.0
  0
INSERT
  5
42C5
330
3A38
100
AcDbEntity
  8
SUNPOU
100
AcDbBlockReference
  2
_OPEN
 10
282.7592562155927
 20
212.9285390462555
 30
0.0
 41
3.0
 42
3.0
 43
3.0
 50
201.8009999999998
  0
INSERT
  5
42C6
330
3A38
100
AcDbEntity
  8
SUNPOU
100
AcDbBlockReference
  2
_OPEN
 10
340.3249756147707
 20
235.9543495652167
 30
0.0
 41
3.0
 42
3.0
 43
3.0
 50
21.80099999999981
  0
MTEXT
  5
42C7
330
3A38
100
AcDbEntity
  8
SUNPOU
100
AcDbMText
 10
310.6136558136107
 20
226.7626426686062
 30
0.0
 40
3.0
 41
0.0
 71
     5
 72
     1
  1
\A1;62
 11
0.9284793451480323
 21
0.3713840406284056
 31
0.0
1001
ACAD
1000
MTEXTBEGIN
1070
    73
1070
     1
1070
    44
1040
1.0
1070
    74
1070
     0
1000
MTEXTEND
  0
POINT
  5
42C8
330
3A38
100
AcDbEntity
  8
DEFPOINTS
 62
     0
100
AcDbPoint
 10
298.9433666887626
 20
172.4674242700087
 30
0.0
  0
POINT
  5
42C9
330
3A38
100
AcDbEntity
  8
DEFPOINTS
 62
     0
100
AcDbPoint
 10
356.5090860879406
 20
195.49323478897
 30
0.0
  0
POINT
  5
42CA
330
3A38
100
AcDbEntity
  8
DEFPOINTS
 62
     0
100
AcDbPoint
 10
340.3249756147707
 20
235.9543495652167
 30
0.0
  0
ENDBLK
  5
3A43
330
3A38
100
AcDbEntity
  8
0
100
AcDbBlockEnd
  0
BLOCK
  5
3A4E
330
3A44
100
AcDbEntity
  8
0
100
AcDbBlockBegin
  2
*D3
 70
     1
 10
0.0
 20
0.0
 30
0.0
  3
*D3
  1

  0
LINE
  5
42D4
330
3A44
100
AcDbEntity
  8
SUNPOU
100
AcDbLine
 10
305.7770062285185
 20
179.6166459507713
 30
0.0
 11
294.4002975206211
 21
208.0590072142633
 31
0.0
  0
LINE
  5
42D5
330
3A44
100
AcDbEntity
  8
SUNPOU
100
AcDbLine
 10
346.6300974150318
 20
195.9575437384213
 30
0.0
 11
335.2533887071344
 21
224.3999050019131
 31
0.0
  0
LINE
  5
42D6
330
3A44
100
AcDbEntity
  8
SUNPOU
100
AcDbLine
 10
297.7428116170078
 20
207.7804403184265
 30
0.0
 11
333.0250267326329
 21
221.8930338623059
 31
0.0
  0
INSERT
  5
42D7
330
3A44
100
AcDbEntity
  8
SUNPOU
100
AcDbBlockReference
  2
_OPEN
 10
294.9573735815637
 20
206.6662881965413
 30
0.0
 41
3.0
 42
3.0
 43
3.0
 50
201.8009999999998
  0
INSERT
  5
42D8
330
3A44
100
AcDbEntity
  8
SUNPOU
100
AcDbBlockReference
  2
_OPEN
 10
335.810464768077
 20
223.0071859841911
 30
0.0
 41
3.0
 42
3.0
 43
3.0
 50
21.80099999999981
  0
MTEXT
  5
42D9
330
3A44
100
AcDbEntity
  8
SUNPOU
100
AcDbMText
 10
314.4554590732493
 20
217.1579354532363
 30
0.0
 40
3.0
 41
0.0
 71
     5
 72
     1
  1
\A1;44
 11
0.9284793451480323
 21
0.3713840406284056
 31
0.0
1001
ACAD
1000
MTEXTBEGIN
1070
    73
1070
     1
1070
    44
1040
1.0
1070
    74
1070
     0
1000
MTEXTEND
  0
POINT
  5
42DA
330
3A44
100
AcDbEntity
  8
DEFPOINTS
 62
     0
100
AcDbPoint
 10
306.8911583504037
 20
176.8312079153272
 30
0.0
  0
POINT
  5
42DB
330
3A44
100
AcDbEntity
  8
DEFPOINTS
 62
     0
100
AcDbPoint
 10
347.744249536917
 20
193.1721057029772
 30
0.0
  0
POINT
  5
42DC
330
3A44
100
AcDbEntity
  8
DEFPOINTS
 62
     0
100
AcDbPoint
 10
335.810464768077
 20
223.0071859841911
 30
0.0
  0
ENDBLK
  5
3A4F
330
3A44
100
AcDbEntity
  8
0
100
AcDbBlockEnd
  0
BLOCK
  5
3A5A
330
3A50
100
AcDbEntity
  8
0
100
AcDbBlockBegin
  2
*D4
 70
     1
 10
0.0
 20
0.0
 30
0.0
  3
*D4
  1

  0
LINE
  5
42B0
330
3A50
100
AcDbEntity
  8
SUNPOU
100
AcDbLine
 10
297.8292145668774
 20
175.2528623054528
 30
0.0
 11
273.9335017267435
 21
165.6947752735325
 31
0.0
  0
LINE
  5
42B1
330
3A50
100
AcDbEntity
  8
SUNPOU
100
AcDbLine
 10
310.8276559888718
 20
142.7560852252717
 30
0.0
 11
286.931943148738
 21
133.1979981933515
 31
0.0
  0
LINE
  5
42B2
330
3A50
100
AcDbEntity
  8
SUNPOU
100
AcDbLine
 10
276.4403728663507
 20
163.4664132990311
 30
0.0
 11
287.2105100445748
 21
136.5405122897382
 31
0.0
  0
INSERT
  5
42B3
330
3A50
100
AcDbEntity
  8
SUNPOU
100
AcDbBlockReference
  2
_OPEN
 10
275.3262207444655
 20
166.2518513344751
 30
0.0
 41
3.0
 42
3.0
 43
3.0
 50
111.8010000000003
  0
INSERT
  5
42B4
330
3A50
100
AcDbEntity
  8
SUNPOU
100
AcDbBlockReference
  2
_OPEN
 10
288.32466216646
 20
133.7550742542941
 30
0.0
 41
3.0
 42
3.0
 43
3.0
 50
291.8010000000003
  0
MTEXT
  5
42B5
330
3A50
100
AcDbEntity
  8
SUNPOU
100
AcDbMText
 10
284.1466398183328
 20
150.9319228959557
 30
0.0
 40
3.0
 41
0.0
 71
     5
 72
     1
  1
\A1;35
 11
0.3713840406284137
 21
-0.9284793451480291
 31
0.0
1001
ACAD
1000
MTEXTBEGIN
1070
    73
1070
     1
1070
    44
1040
1.0
1070
    74
1070
     0
1000
MTEXTEND
  0
POINT
  5
42B6
330
3A50
100
AcDbEntity
  8
DEFPOINTS
 62
     0
100
AcDbPoint
 10
300.6146526023215
 20
176.367014427338
 30
0.0
  0
POINT
  5
42B7
330
3A50
100
AcDbEntity
  8
DEFPOINTS
 62
     0
100
AcDbPoint
 10
313.6130940243158
 20
143.870237347157
 30
0.0
  0
POINT
  5
42B8
330
3A50
100
AcDbEntity
  8
DEFPOINTS
 62
     0
100
AcDbPoint
 10
288.32466216646
 20
133.7550742542941
 30
0.0
  0
ENDBLK
  5
3A5B
330
3A50
100
AcDbEntity
  8
0
100
AcDbBlockEnd
  0
BLOCK
  5
3A66
330
3A5C
100
AcDbEntity
  8
0
100
AcDbBlockBegin
  2
*D5
 70
     1
 10
0.0
 20
0.0
 30
0.0
  3
*D5
  1

  0
LINE
  5
42B9
330
3A5C
100
AcDbEntity
  8
SUNPOU
100
AcDbLine
 10
277.1754736323816
 20
166.9915371586641
 30
0.0
 11
295.3286324061352
 21
174.2526501718899
 31
0.0
  0
LINE
  5
42BA
330
3A5C
100
AcDbEntity
  8
SUNPOU
100
AcDbLine
 10
290.1739150543759
 20
134.494760078483
 30
0.0
 11
308.3270738281297
 21
141.7558730917089
 31
0.0
  0
LINE
  5
42BB
330
3A5C
100
AcDbEntity
  8
SUNPOU
100
AcDbLine
 10
295.0500655102984
 20
170.9101360755032
 30
0.0
 11
305.8202026885224
 21
143.9842350662103
 31
0.0
  0
INSERT
  5
42BC
330
3A5C
100
AcDbEntity
  8
SUNPOU
100
AcDbBlockReference
  2
_OPEN
 10
293.9359133884132
 20
173.6955741109473
 30
0.0
 41
3.0
 42
3.0
 43
3.0
 50
111.8010000000003
  0
INSERT
  5
42BD
330
3A5C
100
AcDbEntity
  8
SUNPOU
100
AcDbBlockReference
  2
_OPEN
 10
306.9343548104076
 20
141.1987970307662
 30
0.0
 41
3.0
 42
3.0
 43
3.0
 50
291.8010000000003
  0
MTEXT
  5
42BE
330
3A5C
100
AcDbEntity
  8
SUNPOU
100
AcDbMText
 10
302.7563324622805
 20
158.3756456724278
 30
0.0
 40
3.0
 41
0.0
 71
     5
 72
     1
  1
\A1;35
 11
0.3713840406284137
 21
-0.9284793451480291
 31
0.0
1001
ACAD
1000
MTEXTBEGIN
1070
    73
1070
     1
1070
    44
1040
1.0
1070
    74
1070
     0
1000
MTEXTEND
  0
POINT
  5
42BF
330
3A5C
100
AcDbEntity
  8
DEFPOINTS
 62
     0
100
AcDbPoint
 10
274.3900355969375
 20
165.8773850367788
 30
0.0
  0
POINT
  5
42C0
330
3A5C
100
AcDbEntity
  8
DEFPOINTS
 62
     0
100
AcDbPoint
 10
287.3884770189318
 20
133.3806079565977
 30
0.0
  0
POINT
  5
42C1
330
3A5C
100
AcDbEntity
  8
DEFPOINTS
 62
     0
100
AcDbPoint
 10
306.9343548104076
 20
141.1987970307662
 30
0.0
  0
ENDBLK
  5
3A67
330
3A5C
100
AcDbEntity
  8
0
100
AcDbBlockEnd
  0
BLOCK
  5
3A72
330
3A68
100
AcDbEntity
  8
0
100
AcDbBlockBegin
  2
*D6
 70
     1
 10
0.0
 20
0.0
 30
0.0
  3
*D6
  1

  0
LINE
  5
42A7
330
3A68
100
AcDbEntity
  8
SUNPOU
100
AcDbLine
 10
307.7637357293295
 20
150.1467815823931
 30
0.0
 11
293.2627288227754
 21
144.3464990383824
 31
0.0
  0
LINE
  5
42A8
330
3A68
100
AcDbEntity
  8
SUNPOU
100
AcDbLine
 10
310.8276559888718
 20
142.7560852252717
 30
0.0
 11
296.2338011478027
 21
136.9186642771981
 31
0.0
  0
LINE
  5
42A9
330
3A68
100
AcDbEntity
  8
SUNPOU
100
AcDbLine
 10
295.7695999623827
 20
142.1181370638809
 30
0.0
 11
296.5123680436395
 21
140.2611783735848
 31
0.0
  0
INSERT
  5
42AA
330
3A68
100
AcDbEntity
  8
SUNPOU
100
AcDbBlockReference
  2
_OPEN
 10
294.6554478404975
 20
144.903575099325
 30
0.0
 41
3.0
 42
3.0
 43
3.0
 50
111.8010000000003
  0
INSERT
  5
42AB
330
3A68
100
AcDbEntity
  8
SUNPOU
100
AcDbBlockReference
  2
_OPEN
 10
297.6265201655248
 20
137.4757403381407
 30
0.0
 41
3.0
 42
3.0
 43
3.0
 50
291.8010000000003
  0
MTEXT
  5
42AC
330
3A68
100
AcDbEntity
  8
SUNPOU
100
AcDbMText
 10
298.4621823658812
 20
142.1181178203039
 30
0.0
 40
3.0
 41
0.0
 71
     5
 72
     1
  1
\A1;8
 11
0.3713840406284137
 21
-0.9284793451480291
 31
0.0
1001
ACAD
1000
MTEXTBEGIN
1070
    73
1070
     1
1070
    44
1040
1.0
1070
    74
1070
     0
1000
MTEXTEND
  0
POINT
  5
42AD
330
3A68
100
AcDbEntity
  8
DEFPOINTS
 62
     0
100
AcDbPoint
 10
310.5491737647736
 20
151.2609337042784
 30
0.0
  0
POINT
  5
42AE
330
3A68
100
AcDbEntity
  8
DEFPOINTS
 62
     0
100
AcDbPoint
 10
313.6130940243158
 20
143.870237347157
 30
0.0
  0
POINT
  5
42AF
330
3A68
100
AcDbEntity
  8
DEFPOINTS
 62
     0
100
AcDbPoint
 10
297.6265201655248
 20
137.4757403381407
 30
0.0
  0
ENDBLK
  5
3A73
330
3A68
100
AcDbEntity
  8
0
100
AcDbBlockEnd
  0
BLOCK
  5
3A80
330
3A74
100
AcDbEntity
  8
0
100
AcDbBlockBegin
  2
*D7
 70
     1
 10
0.0
 20
0.0
 30
0.0
  3
*D7
  1

  0
LINE
  5
42DD
330
3A74
100
AcDbEntity
  8
SUNPOU
100
AcDbLine
 10
297.8292145668774
 20
175.2528623054528
 30
0.0
 11
283.2353597258083
 21
169.4154413573792
 31
0.0
  0
LINE
  5
42DE
330
3A74
100
AcDbEntity
  8
SUNPOU
100
AcDbLine
 10
300.7074389573897
 20
167.7878891402057
 30
0.0
 11
286.2064320508356
 21
161.987606596195
 31
0.0
  0
LINE
  5
42DF
330
3A74
100
AcDbEntity
  8
SUNPOU
100
AcDbLine
 10
283.5139266216451
 20
172.7579554537659
 30
0.0
 11
282.3997744997598
 21
175.54339348921
 31
0.0
  0
LINE
  5
42E0
330
3A74
100
AcDbEntity
  8
SUNPOU
100
AcDbLine
 10
288.7133031904429
 20
159.7592446216935
 30
0.0
 11
289.8274553123281
 21
156.9738065862494
 31
0.0
  0
LINE
  5
42E1
330
3A74
100
AcDbEntity
  8
SUNPOU
100
AcDbLine
 10
284.6280787435303
 20
169.9725174183218
 30
0.0
 11
287.5991510685576
 21
162.5446826571376
 31
0.0
  0
INSERT
  5
42E2
330
3A74
100
AcDbEntity
  8
SUNPOU
100
AcDbBlockReference
  2
_OPEN
 10
284.6280787435303
 20
169.9725174183218
 30
0.0
 41
3.0
 42
3.0
 43
3.0
 50
291.8010000000003
  0
INSERT
  5
42E3
330
3A74
100
AcDbEntity
  8
SUNPOU
100
AcDbBlockReference
  2
_OPEN
 10
287.5991510685576
 20
162.5446826571376
 30
0.0
 41
3.0
 42
3.0
 43
3.0
 50
111.8010000000003
  0
MTEXT
  5
42E4
330
3A74
100
AcDbEntity
  8
SUNPOU
100
AcDbMText
 10
288.434813268914
 20
167.1870601393008
 30
0.0
 40
3.0
 41
0.0
 71
     5
 72
     1
  1
\A1;8
 11
0.3713840406284137
 21
-0.9284793451480291
 31
0.0
1001
ACAD
1000
MTEXTBEGIN
1070
    73
1070
     1
1070
    44
1040
1.0
1070
    74
1070
     0
1000
MTEXTEND
  0
POINT
  5
42E5
330
3A74
100
AcDbEntity
  8
DEFPOINTS
 62
     0
100
AcDbPoint
 10
300.6146526023215
 20
176.367014427338
 30
0.0
  0
POINT
  5
42E6
330
3A74
100
AcDbEntity
  8
DEFPOINTS
 62
     0
100
AcDbPoint
 10
303.4928769928338
 20
168.9020412620909
 30
0.0
  0
POINT
  5
42E7
330
3A74
100
AcDbEntity
  8
DEFPOINTS
 62
     0
100
AcDbPoint
 10
287.5991510685576
 20
162.5446826571376
 30
0.0
  0
ENDBLK
  5
3A81
330
3A74
100
AcDbEntity
  8
0
100
AcDbBlockEnd
  0
BLOCK
  5
3C39
330
3C2F
100
AcDbEntity
  8
0
100
AcDbBlockBegin
  2
*D8
 70
     1
 10
0.0
 20
0.0
 30
0.0
  3
*D8
  1

  0
LINE
  5
428C
330
3C2F
100
AcDbEntity
  8
SUNPOU
100
AcDbLine
 10
75.55596457947769
 20
84.89446771989729
 30
0.0
 11
75.55596457947769
 21
180.7822746834564
 31
0.0
  0
LINE
  5
428D
330
3C2F
100
AcDbEntity
  8
SUNPOU
100
AcDbLine
 10
224.5569830564218
 20
105.9244711198973
 30
0.0
 11
224.5569830564218
 21
180.7822746834564
 31
0.0
  0
LINE
  5
428E
330
3C2F
100
AcDbEntity
  8
SUNPOU
100
AcDbLine
 10
78.55596457947768
 20
179.2822746834564
 30
0.0
 11
221.5569830564218
 21
179.2822746834564
 31
0.0
  0
INSERT
  5
428F
330
3C2F
100
AcDbEntity
  8
SUNPOU
100
AcDbBlockReference
  2
_OPEN
 10
75.55596457947769
 20
179.2822746834564
 30
0.0
 41
3.0
 42
3.0
 43
3.0
 50
180.0
  0
INSERT
  5
4290
330
3C2F
100
AcDbEntity
  8
SUNPOU
100
AcDbBlockReference
  2
_OPEN
 10
224.5569830564218
 20
179.2822746834564
 30
0.0
 41
3.0
 42
3.0
 43
3.0
  0
MTEXT
  5
4291
330
3C2F
100
AcDbEntity
  8
SUNPOU
100
AcDbMText
 10
150.0564738179497
 20
181.7822746834564
 30
0.0
 40
3.0
 41
0.0
 71
     5
 72
     1
  1
\A1;149
1001
ACAD
1000
MTEXTBEGIN
1070
    73
1070
     1
1070
    44
1040
1.0
1070
    74
1070
     0
1000
MTEXTEND
  0
POINT
  5
4292
330
3C2F
100
AcDbEntity
  8
DEFPOINTS
 62
     0
100
AcDbPoint
 10
75.55596457947769
 20
81.89446771989729
 30
0.0
  0
POINT
  5
4293
330
3C2F
100
AcDbEntity
  8
DEFPOINTS
 62
     0
100
AcDbPoint
 10
224.5569830564218
 20
102.9244711198973
 30
0.0
  0
POINT
  5
4294
330
3C2F
100
AcDbEntity
  8
DEFPOINTS
 62
     0
100
AcDbPoint
 10
224.5569830564218
 20
179.2822746834564
 30
0.0
  0
ENDBLK
  5
3C3A
330
3C2F
100
AcDbEntity
  8
0
100
AcDbBlockEnd
  0
BLOCK
  5
3C53
330
3C49
100
AcDbEntity
  8
0
100
AcDbBlockBegin
  2
*D9
 70
     1
 10
0.0
 20
0.0
 30
0.0
  3
*D9
  1

  0
LINE
  5
4283
330
3C49
100
AcDbEntity
  8
SUNPOU
100
AcDbLine
 10
213.3375941128505
 20
141.4569145469607
 30
0.0
 11
235.1727413006875
 21
150.1907924478862
 31
0.0
  0
LINE
  5
4284
330
3C49
100
AcDbEntity
  8
SUNPOU
100
AcDbLine
 10
226.3360356128505
 20
108.9601374469607
 30
0.0
 11
248.1711828006875
 21
117.6940153478862
 31
0.0
  0
LINE
  5
4285
330
3C49
100
AcDbEntity
  8
SUNPOU
100
AcDbLine
 10
234.8941744110645
 20
146.8482783509816
 30
0.0
 11
245.6643116569376
 21
119.9223773177273
 31
0.0
  0
INSERT
  5
4286
330
3C49
100
AcDbEntity
  8
SUNPOU
100
AcDbBlockReference
  2
_OPEN
 10
233.7800222840011
 20
149.6337163843544
 30
0.0
 41
3.0
 42
3.0
 43
3.0
 50
111.8010001065149
  0
INSERT
  5
4287
330
3C49
100
AcDbEntity
  8
SUNPOU
100
AcDbBlockReference
  2
_OPEN
 10
246.7784637840011
 20
117.1369392843544
 30
0.0
 41
3.0
 42
3.0
 43
3.0
 50
291.8010001065149
  0
MTEXT
  5
4288
330
3C49
100
AcDbEntity
  8
SUNPOU
100
AcDbMText
 10
242.6004413951452
 20
134.3137879402406
 30
0.0
 40
3.0
 41
0.0
 71
     5
 72
     1
  1
\A1;35
 11
0.3713840423544852
 21
-0.9284793444576147
 31
0.0
1001
ACAD
1000
MTEXTBEGIN
1070
    73
1070
     1
1070
    44
1040
1.0
1070
    74
1070
     0
1000
MTEXTEND
  0
POINT
  5
4289
330
3C49
100
AcDbEntity
  8
DEFPOINTS
 62
     0
100
AcDbPoint
 10
210.5521560794776
 20
140.3427624198972
 30
0.0
  0
POINT
  5
428A
330
3C49
100
AcDbEntity
  8
DEFPOINTS
 62
     0
100
AcDbPoint
 10
223.5505975794776
 20
107.8459853198973
 30
0.0
  0
POINT
  5
428B
330
3C49
100
AcDbEntity
  8
DEFPOINTS
 62
     0
100
AcDbPoint
 10
246.7784637840011
 20
117.1369392843544
 30
0.0
  0
ENDBLK
  5
3C54
330
3C49
100
AcDbEntity
  8
0
100
AcDbBlockEnd
  0
BLOCK
  5
3C60
330
3C56
100
AcDbEntity
  8
0
100
AcDbBlockBegin
  2
*D10
 70
     1
 10
0.0
 20
0.0
 30
0.0
  3
*D10
  1

  0
LINE
  5
42CB
330
3C56
100
AcDbEntity
  8
SUNPOU
100
AcDbLine
 10
225.436445432889
 20
260.2254510221884
 30
0.0
 11
247.9933546166748
 21
260.2254510221884
 31
0.0
  0
LINE
  5
42CC
330
3C56
100
AcDbEntity
  8
SUNPOU
100
AcDbLine
 10
225.436445432889
 20
198.2254510221883
 30
0.0
 11
247.9933546166748
 21
198.2254510221883
 31
0.0
  0
LINE
  5
42CD
330
3C56
100
AcDbEntity
  8
SUNPOU
100
AcDbLine
 10
246.4933546166748
 20
257.2254510221883
 30
0.0
 11
246.4933546166748
 21
201.2254510221883
 31
0.0
  0
INSERT
  5
42CE
330
3C56
100
AcDbEntity
  8
SUNPOU
100
AcDbBlockReference
  2
_OPEN
 10
246.4933546166748
 20
260.2254510221884
 30
0.0
 41
3.0
 42
3.0
 43
3.0
 50
90.0
  0
INSERT
  5
42CF
330
3C56
100
AcDbEntity
  8
SUNPOU
100
AcDbBlockReference
  2
_OPEN
 10
246.4933546166748
 20
198.2254510221883
 30
0.0
 41
3.0
 42
3.0
 43
3.0
 50
270.0
  0
MTEXT
  5
42D0
330
3C56
100
AcDbEntity
  8
SUNPOU
100
AcDbMText
 10
243.9933546166748
 20
229.2254510221884
 30
0.0
 40
3.0
 41
0.0
 71
     5
 72
     1
  1
\A1;62
 11
0.0000000000000001
 21
1.0
 31
0.0
1001
ACAD
1000
MTEXTBEGIN
1070
    73
1070
     1
1070
    44
1040
1.0
1070
    74
1070
     0
1000
MTEXTEND
  0
POINT
  5
42D1
330
3C56
100
AcDbEntity
  8
DEFPOINTS
 62
     0
100
AcDbPoint
 10
222.436445432889
 20
260.2254510221884
 30
0.0
  0
POINT
  5
42D2
330
3C56
100
AcDbEntity
  8
DEFPOINTS
 62
     0
100
AcDbPoint
 10
222.436445432889
 20
198.2254510221883
 30
0.0
  0
POINT
  5
42D3
330
3C56
100
AcDbEntity
  8
DEFPOINTS
 62
     0
100
AcDbPoint
 10
246.4933546166748
 20
198.2254510221883
 30
0.0
  0
ENDBLK
  5
3C61
330
3C56
100
AcDbEntity
  8
0
100
AcDbBlockEnd
  0
BLOCK
  5
3C6D
330
3C63
100
AcDbEntity
  8
0
100
AcDbBlockBegin
  2
*D11
 70
     1
 10
0.0
 20
0.0
 30
0.0
  3
*D11
  1

  0
LINE
  5
427A
330
3C63
100
AcDbEntity
  8
SUNPOU
100
AcDbLine
 10
128.0559645794776
 20
86.19446771989732
 30
0.0
 11
128.0559645794776
 21
171.6134997930678
 31
0.0
  0
LINE
  5
427B
330
3C63
100
AcDbEntity
  8
SUNPOU
100
AcDbLine
 10
224.5569830564218
 20
105.9244711198973
 30
0.0
 11
224.5569830564218
 21
171.6134997930678
 31
0.0
  0
LINE
  5
427C
330
3C63
100
AcDbEntity
  8
SUNPOU
100
AcDbLine
 10
131.0559645794777
 20
170.1134997930678
 30
0.0
 11
221.5569830564218
 21
170.1134997930678
 31
0.0
  0
INSERT
  5
427D
330
3C63
100
AcDbEntity
  8
SUNPOU
100
AcDbBlockReference
  2
_OPEN
 10
128.0559645794776
 20
170.1134997930678
 30
0.0
 41
3.0
 42
3.0
 43
3.0
 50
180.0
  0
INSERT
  5
427E
330
3C63
100
AcDbEntity
  8
SUNPOU
100
AcDbBlockReference
  2
_OPEN
 10
224.5569830564218
 20
170.1134997930678
 30
0.0
 41
3.0
 42
3.0
 43
3.0
  0
MTEXT
  5
427F
330
3C63
100
AcDbEntity
  8
SUNPOU
100
AcDbMText
 10
176.3064738179497
 20
172.6134997930678
 30
0.0
 40
3.0
 41
0.0
 71
     5
 72
     1
  1
\A1;97
1001
ACAD
1000
MTEXTBEGIN
1070
    73
1070
     1
1070
    44
1040
1.0
1070
    74
1070
     0
1000
MTEXTEND
  0
POINT
  5
4280
330
3C63
100
AcDbEntity
  8
DEFPOINTS
 62
     0
100
AcDbPoint
 10
128.0559645794776
 20
83.19446771989731
 30
0.0
  0
POINT
  5
4281
330
3C63
100
AcDbEntity
  8
DEFPOINTS
 62
     0
100
AcDbPoint
 10
224.5569830564218
 20
102.9244711198973
 30
0.0
  0
POINT
  5
4282
330
3C63
100
AcDbEntity
  8
DEFPOINTS
 62
     0
100
AcDbPoint
 10
224.5569830564218
 20
170.1134997930678
 30
0.0
  0
ENDBLK
  5
3C6E
330
3C63
100
AcDbEntity
  8
0
100
AcDbBlockEnd
  0
BLOCK
  5
3FEF
330
3FE5
100
AcDbEntity
  8
0
100
AcDbBlockBegin
  2
*D12
 70
     1
 10
0.0
 20
0.0
 30
0.0
  3
*D12
  1

  0
LINE
  5
4295
330
3FE5
100
AcDbEntity
  8
SUNPOU
100
AcDbLine
 10
72.55596457947769
 20
82.99653168434746
 30
0.0
 11
47.22515181113998
 21
82.99653168434746
 31
0.0
  0
LINE
  5
4296
330
3FE5
100
AcDbEntity
  8
SUNPOU
100
AcDbLine
 10
207.5521560794777
 20
140.3427624198973
 30
0.0
 11
47.22515181113999
 21
140.3427624198973
 31
0.0
  0
LINE
  5
4297
330
3FE5
100
AcDbEntity
  8
SUNPOU
100
AcDbLine
 10
48.72515181113999
 20
85.99653168434747
 30
0.0
 11
48.72515181114
 21
137.3427624198973
 31
0.0
  0
INSERT
  5
4298
330
3FE5
100
AcDbEntity
  8
SUNPOU
100
AcDbBlockReference
  2
_OPEN
 10
48.72515181113999
 20
82.99653168434746
 30
0.0
 41
3.0
 42
3.0
 43
3.0
 50
270.0
  0
INSERT
  5
4299
330
3FE5
100
AcDbEntity
  8
SUNPOU
100
AcDbBlockReference
  2
_OPEN
 10
48.72515181114
 20
140.3427624198973
 30
0.0
 41
3.0
 42
3.0
 43
3.0
 50
90.0
  0
MTEXT
  5
429A
330
3FE5
100
AcDbEntity
  8
SUNPOU
100
AcDbMText
 10
46.22515181113997
 20
111.6696470521224
 30
0.0
 40
3.0
 41
0.0
 71
     5
 72
     1
  1
\A1;57
 11
0.0000000000000001
 21
1.0
 31
0.0
1001
ACAD
1000
MTEXTBEGIN
1070
    73
1070
     1
1070
    44
1040
1.0
1070
    74
1070
     0
1000
MTEXTEND
  0
POINT
  5
429B
330
3FE5
100
AcDbEntity
  8
DEFPOINTS
 62
     0
100
AcDbPoint
 10
75.55596457947769
 20
82.99653168434746
 30
0.0
  0
POINT
  5
429C
330
3FE5
100
AcDbEntity
  8
DEFPOINTS
 62
     0
100
AcDbPoint
 10
210.5521560794776
 20
140.3427624198973
 30
0.0
  0
POINT
  5
429D
330
3FE5
100
AcDbEntity
  8
DEFPOINTS
 62
     0
100
AcDbPoint
 10
48.72515181114
 20
140.3427624198973
 30
0.0
  0
ENDBLK
  5
3FF0
330
3FE5
100
AcDbEntity
  8
0
100
AcDbBlockEnd
  0
ENDSEC
  0
SECTION
  2
ENTITIES
  0
TEXT
  5
9D
330
1A
100
AcDbEntity
  8
ZUWAKU
 48
5.0
100
AcDbText
 10
327.1013476411085
 20
8.060146781246267
 30
0.0
 40
4.0
  1

100
AcDbText
  0
ARC
  5
5A7
330
1A
100
AcDbEntity
  8
NOKITOI
  6
PHANTOM
 62
     8
100
AcDbCircle
 10
123.8929910762481
 20
77.0895461607175
 30
0.0
 40
43.00001447645168
100
AcDbArc
 50
186.5249107071177
 51
269.9998883751437
  0
ARC
  5
5A8
330
1A
100
AcDbEntity
  8
NOKITOI
  6
PHANTOM
 62
     8
100
AcDbCircle
 10
123.8930133846734
 20
77.08952605969111
 30
0.0
 40
41.79999437547816
100
AcDbArc
 50
184.4742952125247
 51
269.999854592109
  0
LINE
  5
5A9
330
1A
100
AcDbEntity
  8
NOKITOI
  6
PHANTOM
 62
     8
100
AcDbLine
 10
73.68200730270519
 20
76.22713168434742
 30
0.0
 11
73.5965073027055
 21
78.96463168434738
 31
0.0
  0
LINE
  5
5AA
330
1A
100
AcDbEntity
  8
NOKITOI
  6
PHANTOM
 62
     8
100
AcDbLine
 10
72.14390730270543
 20
87.02703168434741
 30
0.0
 11
72.53410730270525
 21
74.54273168434733
 31
0.0
  0
LINE
  5
5AB
330
1A
100
AcDbEntity
  8
NOKITOI
  6
PHANTOM
 62
     8
100
AcDbLine
 10
81.72190730270585
 20
74.28953168434745
 30
0.0
 11
75.68100730270543
 21
74.28953168434745
 31
0.0
  0
ARC
  5
5AC
330
1A
100
AcDbEntity
  8
NOKITOI
  6
PHANTOM
 62
     8
100
AcDbCircle
 10
80.17799887854289
 20
72.0895391994039
 30
0.0
 40
0.9999924849789756
100
AcDbArc
 50
6.528264606673934
 51
89.99951732740965
  0
LINE
  5
5AD
330
1A
100
AcDbEntity
  8
NOKITOI
  6
PHANTOM
 62
     8
100
AcDbLine
 10
74.03330730270545
 20
73.0895316843474
 30
0.0
 11
80.17800730270527
 21
73.0895316843474
 31
0.0
  0
ARC
  5
5AE
330
1A
100
AcDbEntity
  8
NOKITOI
  6
PHANTOM
 62
     8
100
AcDbCircle
 10
75.68102087484385
 20
76.28951852926102
 30
0.0
 40
1.999986844959662
100
AcDbArc
 50
181.7875531852356
 51
269.9996111843215
  0
ARC
  5
5AF
330
1A
100
AcDbEntity
  8
NOKITOI
  6
PHANTOM
 62
     8
100
AcDbCircle
 10
74.03334326185632
 20
74.58949683020418
 30
0.0
 40
1.499965146287778
100
AcDbArc
 50
181.7866280217767
 51
269.9986264296971
  0
ARC
  5
5B0
330
1A
100
AcDbEntity
  8
NOKITOI
  6
PHANTOM
 62
     8
100
AcDbCircle
 10
81.72191987241376
 20
73.78952005961773
 30
0.0
 40
0.5000116248877111
100
AcDbArc
 50
4.474846808342103
 51
90.00144034898383
  0
ARC
  5
5B1
330
1A
100
AcDbEntity
  8
NOKITOI
  6
PHANTOM
 62
     8
100
AcDbCircle
 10
74.14292005355537
 20
87.08954483943385
 30
0.0
 40
1.999986844954076
100
AcDbArc
 50
90.00036528735451
 51
181.7883072882703
  0
LINE
  5
5B2
330
1A
100
AcDbEntity
  8
NOKITOI
  6
PHANTOM
 62
     8
100
AcDbLine
 10
80.42080730270527
 20
86.5895316843474
 30
0.0
 11
78.1893073027054
 21
86.5895316843474
 31
0.0
  0
ARC
  5
5B3
330
1A
100
AcDbEntity
  8
NOKITOI
  6
PHANTOM
 62
     8
100
AcDbCircle
 10
80.10500041571049
 20
80.08952514926191
 30
0.0
 40
0.499993464961963
100
AcDbArc
 50
270.0007892017869
 51
356.997036131742
  0
LINE
  5
5B4
330
1A
100
AcDbEntity
  8
NOKITOI
  6
PHANTOM
 62
     8
100
AcDbLine
 10
79.44090730270545
 20
80.78953168434745
 30
0.0
 11
79.62210730270545
 21
84.23103168434758
 31
0.0
  0
LINE
  5
5B5
330
1A
100
AcDbEntity
  8
NOKITOI
  6
PHANTOM
 62
     8
100
AcDbLine
 10
79.0671073027056
 20
83.61793168434733
 30
0.0
 11
79.62210730270545
 21
84.23103168434758
 31
0.0
  0
ARC
  5
5B6
330
1A
100
AcDbEntity
  8
NOKITOI
  6
PHANTOM
 62
     8
100
AcDbCircle
 10
77.59462751537467
 20
79.08959041272746
 30
0.0
 40
5.2000412730095
100
AcDbArc
 50
90.0013245430618
 51
142.0757990790548
  0
LINE
  5
5B7
330
1A
100
AcDbEntity
  8
NOKITOI
  6
PHANTOM
 62
     8
100
AcDbLine
 10
73.34330730270585
 20
87.06453168434732
 30
0.0
 11
73.49270730270518
 21
82.28563168434751
 31
0.0
  0
ARC
  5
5B8
330
1A
100
AcDbEntity
  8
NOKITOI
  6
PHANTOM
 62
     8
100
AcDbCircle
 10
77.59454518415214
 20
79.08957546687279
 30
0.0
 40
3.999989731271038
100
AcDbArc
 50
96.47731142013116
 51
181.7899836067311
  0
ARC
  5
5B9
330
1A
100
AcDbEntity
  8
NOKITOI
  6
PHANTOM
 62
     8
100
AcDbCircle
 10
77.19972152112086
 20
82.56721705004641
 30
0.0
 40
0.5000073448410256
100
AcDbArc
 50
351.872947864124
 51
96.47829282996921
  0
LINE
  5
5BA
330
1A
100
AcDbEntity
  8
NOKITOI
  6
PHANTOM
 62
     8
100
AcDbLine
 10
78.66300730270586
 20
80.78953168434745
 30
0.0
 11
79.0671073027056
 21
83.61793168434733
 31
0.0
  0
LINE
  5
5BB
330
1A
100
AcDbEntity
  8
NOKITOI
  6
PHANTOM
 62
     8
100
AcDbLine
 10
79.44090730270545
 20
80.78953168434745
 30
0.0
 11
78.66300730270586
 21
80.78953168434745
 31
0.0
  0
ARC
  5
5BC
330
1A
100
AcDbEntity
  8
NOKITOI
  6
PHANTOM
 62
     8
100
AcDbCircle
 10
77.85593390330314
 20
80.08950100746536
 30
0.0
 40
0.4999693238254178
100
AcDbArc
 50
171.8555038770531
 51
269.9969516090356
  0
LINE
  5
5BD
330
1A
100
AcDbEntity
  8
NOKITOI
  6
PHANTOM
 62
     8
100
AcDbLine
 10
80.10500730270541
 20
79.5895316843474
 30
0.0
 11
77.85590730270541
 21
79.5895316843474
 31
0.0
  0
LINE
  5
5BE
330
1A
100
AcDbEntity
  8
NOKITOI
  6
PHANTOM
 62
     8
100
AcDbLine
 10
77.36100730270528
 20
80.16033168434759
 30
0.0
 11
77.69470730270541
 21
82.49653168434756
 31
0.0
  0
LINE
  5
5BF
330
1A
100
AcDbEntity
  8
NOKITOI
  6
PHANTOM
 62
     8
100
AcDbLine
 10
76.61570730270568
 20
87.88953168434758
 30
0.0
 11
76.11570730270568
 21
85.38953168434758
 31
0.0
  0
LINE
  5
5C0
330
1A
100
AcDbEntity
  8
NOKITOI
  6
PHANTOM
 62
     8
100
AcDbLine
 10
76.11570730270568
 20
85.38953168434758
 30
0.0
 11
79.05220730270548
 21
85.38953168434758
 31
0.0
  0
LINE
  5
5C1
330
1A
100
AcDbEntity
  8
NOKITOI
  6
PHANTOM
 62
     8
100
AcDbLine
 10
74.14290730270522
 20
89.0895316843474
 30
0.0
 11
77.46950730270555
 21
89.0895316843474
 31
0.0
  0
LINE
  5
5C2
330
1A
100
AcDbEntity
  8
NOKITOI
  6
PHANTOM
 62
     8
100
AcDbLine
 10
74.14290730270522
 20
87.88953168434758
 30
0.0
 11
76.61570730270568
 21
87.88953168434758
 31
0.0
  0
ARC
  5
5C3
330
1A
100
AcDbEntity
  8
NOKITOI
  6
PHANTOM
 62
     8
100
AcDbCircle
 10
74.14291179750353
 20
87.0895363218743
 30
0.0
 40
0.7999953624857498
100
AcDbArc
 50
90.00032191805264
 51
181.7911273464193
  0
ARC
  5
5C4
330
1A
100
AcDbEntity
  8
NOKITOI
  6
PHANTOM
 62
     8
100
AcDbCircle
 10
77.46950651969701
 20
88.58953263934912
 30
0.0
 40
0.4999990449987349
100
AcDbArc
 50
348.6967198015447
 51
89.99991027369492
  0
ARC
  5
5C5
330
1A
100
AcDbEntity
  8
NOKITOI
  6
PHANTOM
 62
     8
100
AcDbCircle
 10
78.18930004815001
 20
87.08954053419082
 30
0.0
 40
0.5000088498959383
100
AcDbArc
 50
168.6864043304892
 51
270.0008312961442
  0
LINE
  5
5C6
330
1A
100
AcDbEntity
  8
NOKITOI
  6
PHANTOM
 62
     8
100
AcDbLine
 10
77.69900730270546
 20
87.18763168434733
 30
0.0
 11
77.95980730270549
 21
88.49153168434744
 31
0.0
  0
LINE
  5
5C7
330
1A
100
AcDbEntity
  8
NOKITOI
  6
PHANTOM
 62
     8
100
AcDbLine
 10
78.05640730270579
 20
84.28953168434745
 30
0.0
 11
77.59450730270555
 21
84.28953168434745
 31
0.0
  0
LINE
  5
5C8
330
1A
100
AcDbEntity
  8
NOKITOI
  6
PHANTOM
 62
     8
100
AcDbLine
 10
78.05640730270579
 20
84.28953168434745
 30
0.0
 11
79.05220730270548
 21
85.38953168434758
 31
0.0
  0
LINE
  5
5C9
330
1A
100
AcDbEntity
  8
NOKITOI
  6
PHANTOM
 62
     8
100
AcDbLine
 10
80.60440730270556
 20
80.06333168434739
 30
0.0
 11
80.92020730270542
 21
86.06323168434741
 31
0.0
  0
ARC
  5
5CA
330
1A
100
AcDbEntity
  8
NOKITOI
  6
PHANTOM
 62
     8
100
AcDbCircle
 10
80.42080110154756
 20
86.08953821943268
 30
0.0
 40
0.4999934649531607
100
AcDbArc
 50
356.9955363203376
 51
89.99928939038076
  0
LINE
  5
5CB
330
1A
100
AcDbEntity
  8
NOKITOI
  6
PHANTOM
 62
     8
100
AcDbLine
 10
164.7224073027054
 20
34.08943168434743
 30
0.0
 11
144.5645073027057
 21
34.08943168434743
 31
0.0
  0
LINE
  5
5CC
330
1A
100
AcDbEntity
  8
NOKITOI
  6
PHANTOM
 62
     8
100
AcDbLine
 10
164.4726073027054
 20
35.28943168434747
 30
0.0
 11
144.5645073027057
 21
35.28943168434747
 31
0.0
  0
LINE
  5
5CD
330
1A
100
AcDbEntity
  8
NOKITOI
  6
PHANTOM
 62
     8
100
AcDbLine
 10
168.7224073027054
 20
34.08943168434743
 30
0.0
 11
123.8930073027054
 21
34.0895316843474
 31
0.0
  0
LINE
  5
5CE
330
1A
100
AcDbEntity
  8
NOKITOI
  6
PHANTOM
 62
     8
100
AcDbLine
 10
123.8930073027054
 20
35.28953168434745
 30
0.0
 11
168.4726073027054
 21
35.28943168434747
 31
0.0
  0
LINE
  5
5CF
330
1A
100
AcDbEntity
  8
NOKITOI
  6
PHANTOM
 62
     8
100
AcDbLine
 10
190.4769073027054
 20
76.22693168434747
 30
0.0
 11
190.5624073027051
 21
78.9645316843474
 31
0.0
  0
LINE
  5
5D0
330
1A
100
AcDbEntity
  8
NOKITOI
  6
PHANTOM
 62
     8
100
AcDbLine
 10
192.0149073027054
 20
87.02703168434741
 30
0.0
 11
191.6248073027054
 21
74.54263168434735
 31
0.0
  0
LINE
  5
5D1
330
1A
100
AcDbEntity
  8
NOKITOI
  6
PHANTOM
 62
     8
100
AcDbLine
 10
190.1255073027054
 20
73.0895316843474
 30
0.0
 11
183.9844073027056
 21
73.0895316843474
 31
0.0
  0
LINE
  5
5D2
330
1A
100
AcDbEntity
  8
NOKITOI
  6
PHANTOM
 62
     8
100
AcDbLine
 10
182.445907302705
 20
74.28953168434745
 30
0.0
 11
188.4778073027055
 21
74.28953168434745
 31
0.0
  0
LINE
  5
5D3
330
1A
100
AcDbEntity
  8
NOKITOI
  6
PHANTOM
 62
     8
100
AcDbLine
 10
182.9894073027057
 20
72.18903168434744
 30
0.0
 11
180.1206073027055
 21
43.50163168434741
 31
0.0
  0
LINE
  5
5D4
330
1A
100
AcDbEntity
  8
NOKITOI
  6
PHANTOM
 62
     8
100
AcDbLine
 10
181.9484073027055
 20
73.83933168434746
 30
0.0
 11
178.9554073027052
 21
43.90953168434734
 31
0.0
  0
LINE
  5
5D5
330
1A
100
AcDbEntity
  8
NOKITOI
  6
PHANTOM
 62
     8
100
AcDbLine
 10
179.7588073027054
 20
42.82713168434756
 30
0.0
 11
169.3557073027054
 21
34.31543168434754
 31
0.0
  0
LINE
  5
5D6
330
1A
100
AcDbEntity
  8
NOKITOI
  6
PHANTOM
 62
     8
100
AcDbLine
 10
178.7745073027058
 20
43.57223168434742
 30
0.0
 11
168.7892073027055
 21
35.4024316843473
 31
0.0
  0
ARC
  5
5D7
330
1A
100
AcDbEntity
  8
NOKITOI
  6
PHANTOM
 62
     8
100
AcDbCircle
 10
168.722400370128
 20
35.08942920934131
 30
0.0
 40
0.9999975250179316
100
AcDbArc
 50
270.0003972084035
 51
309.2946416752299
  0
ARC
  5
5D8
330
1A
100
AcDbEntity
  8
NOKITOI
  6
PHANTOM
 62
     8
100
AcDbCircle
 10
168.4726136904541
 20
35.789433964337
 30
0.0
 40
0.5000022800304047
100
AcDbArc
 50
269.9992680212791
 51
309.2854498596061
  0
ARC
  5
5D9
330
1A
100
AcDbEntity
  8
NOKITOI
  6
PHANTOM
 62
     8
100
AcDbCircle
 10
179.1255847298366
 20
43.60108961267482
 30
0.0
 40
0.9999908507640039
100
AcDbArc
 50
309.288709223069
 51
354.2862329477532
  0
ARC
  5
5DA
330
1A
100
AcDbEntity
  8
NOKITOI
  6
PHANTOM
 62
     8
100
AcDbCircle
 10
178.4578898768272
 20
43.95919919795946
 30
0.0
 40
0.4999904508696396
100
AcDbArc
 50
309.2900846377951
 51
354.2990110749239
  0
ARC
  5
5DB
330
1A
100
AcDbEntity
  8
NOKITOI
  6
PHANTOM
 62
     8
100
AcDbCircle
 10
183.9844279525463
 20
72.08955037219661
 30
0.0
 40
0.9999813123640345
100
AcDbArc
 50
90.00118317084911
 51
174.2905900333514
  0
ARC
  5
5DC
330
1A
100
AcDbEntity
  8
NOKITOI
  6
PHANTOM
 62
     8
100
AcDbCircle
 10
182.4459203737101
 20
73.7895435146273
 30
0.0
 40
0.499988169890889
100
AcDbArc
 50
90.00149786226634
 51
174.2966061377162
  0
ARC
  5
5DD
330
1A
100
AcDbEntity
  8
NOKITOI
  6
PHANTOM
 62
     8
100
AcDbCircle
 10
190.1255245158836
 20
74.58954836749521
 30
0.0
 40
1.500016683246579
100
AcDbArc
 50
269.9993425123344
 51
358.2076423244113
  0
ARC
  5
5DE
330
1A
100
AcDbEntity
  8
NOKITOI
  6
PHANTOM
 62
     8
100
AcDbCircle
 10
188.4778452905297
 20
76.28946850491965
 30
0.0
 40
2.000036820932882
100
AcDbArc
 50
269.9989117490344
 51
358.2110591274195
  0
LINE
  5
5DF
330
1A
100
AcDbEntity
  8
NOKITOI
  6
PHANTOM
 62
     8
100
AcDbLine
 10
190.0159073027056
 20
89.08943168434744
 30
0.0
 11
186.6893073027053
 21
89.0895316843474
 31
0.0
  0
LINE
  5
5E0
330
1A
100
AcDbEntity
  8
NOKITOI
  6
PHANTOM
 62
     8
100
AcDbLine
 10
188.0432073027054
 20
85.38953168434758
 30
0.0
 11
185.1066073027054
 21
85.38953168434758
 31
0.0
  0
ARC
  5
5E1
330
1A
100
AcDbEntity
  8
NOKITOI
  6
PHANTOM
 62
     8
100
AcDbCircle
 10
186.9591366752051
 20
82.56716191684231
 30
0.0
 40
0.4999578477751074
100
AcDbArc
 50
83.52609071220754
 51
188.1330561712932
  0
ARC
  5
5E2
330
1A
100
AcDbEntity
  8
NOKITOI
  6
PHANTOM
 62
     8
100
AcDbCircle
 10
186.5643894363542
 20
79.08954041272735
 30
0.0
 40
5.199991271650611
100
AcDbArc
 50
37.92532860472995
 51
89.9998031407256
  0
LINE
  5
5E3
330
1A
100
AcDbEntity
  8
NOKITOI
  6
PHANTOM
 62
     8
100
AcDbLine
 10
184.7179073027054
 20
80.78953168434745
 30
0.0
 11
184.5368073027052
 21
84.23093168434737
 31
0.0
  0
LINE
  5
5E4
330
1A
100
AcDbEntity
  8
NOKITOI
  6
PHANTOM
 62
     8
100
AcDbLine
 10
185.0918073027055
 20
83.61793168434733
 30
0.0
 11
184.5368073027052
 21
84.23093168434737
 31
0.0
  0
LINE
  5
5E5
330
1A
100
AcDbEntity
  8
NOKITOI
  6
PHANTOM
 62
     8
100
AcDbLine
 10
183.5545073027055
 20
80.06323168434741
 30
0.0
 11
183.2387073027052
 21
86.06323168434741
 31
0.0
  0
LINE
  5
5E6
330
1A
100
AcDbEntity
  8
NOKITOI
  6
PHANTOM
 62
     8
100
AcDbLine
 10
185.495807302705
 20
80.78953168434745
 30
0.0
 11
185.0918073027055
 21
83.61793168434733
 31
0.0
  0
LINE
  5
5E7
330
1A
100
AcDbEntity
  8
NOKITOI
  6
PHANTOM
 62
     8
100
AcDbLine
 10
184.7179073027054
 20
80.78953168434745
 30
0.0
 11
185.495807302705
 21
80.78953168434745
 31
0.0
  0
LINE
  5
5E8
330
1A
100
AcDbEntity
  8
NOKITOI
  6
PHANTOM
 62
     8
100
AcDbLine
 10
184.0538073027055
 20
79.5895316843474
 30
0.0
 11
186.302907302705
 21
79.5895316843474
 31
0.0
  0
ARC
  5
5E9
330
1A
100
AcDbEntity
  8
NOKITOI
  6
PHANTOM
 62
     8
100
AcDbCircle
 10
184.0538114241121
 20
80.08952777431691
 30
0.0
 40
0.4999960899864752
100
AcDbArc
 50
183.0147243791741
 51
269.9995277178593
  0
ARC
  5
5EA
330
1A
100
AcDbEntity
  8
NOKITOI
  6
PHANTOM
 62
     8
100
AcDbCircle
 10
186.3029174891416
 20
80.08954342907154
 30
0.0
 40
0.5000117448278309
100
AcDbArc
 50
269.9988327478016
 51
8.127314608715551
  0
LINE
  5
5EB
330
1A
100
AcDbEntity
  8
NOKITOI
  6
PHANTOM
 62
     8
100
AcDbLine
 10
186.7979073027053
 20
80.1602316843474
 30
0.0
 11
186.4641073027055
 21
82.49643168434758
 31
0.0
  0
LINE
  5
5EC
330
1A
100
AcDbEntity
  8
NOKITOI
  6
PHANTOM
 62
     8
100
AcDbLine
 10
183.7380073027056
 20
86.5895316843474
 30
0.0
 11
185.9695073027055
 21
86.5895316843474
 31
0.0
  0
ARC
  5
5ED
330
1A
100
AcDbEntity
  8
NOKITOI
  6
PHANTOM
 62
     8
100
AcDbCircle
 10
183.7380110122007
 20
86.08953559437813
 30
0.0
 40
0.4999960899831856
100
AcDbArc
 50
90.00042508015082
 51
183.0156217414647
  0
ARC
  5
5EE
330
1A
100
AcDbEntity
  8
NOKITOI
  6
PHANTOM
 62
     8
100
AcDbCircle
 10
186.6893000481499
 20
88.58952283450397
 30
0.0
 40
0.500008849895925
100
AcDbArc
 50
89.99916870385415
 51
191.3135956695126
  0
ARC
  5
5EF
330
1A
100
AcDbEntity
  8
NOKITOI
  6
PHANTOM
 62
     8
100
AcDbCircle
 10
185.9695065196969
 20
87.08953072934567
 30
0.0
 40
0.4999990449987399
100
AcDbArc
 50
270.000089726305
 51
11.30328019845521
  0
LINE
  5
5F0
330
1A
100
AcDbEntity
  8
NOKITOI
  6
PHANTOM
 62
     8
100
AcDbLine
 10
186.4598073027054
 20
87.18753168434759
 30
0.0
 11
186.1990073027054
 21
88.49153168434744
 31
0.0
  0
LINE
  5
5F1
330
1A
100
AcDbEntity
  8
NOKITOI
  6
PHANTOM
 62
     8
100
AcDbLine
 10
186.1024073027055
 20
84.28953168434745
 30
0.0
 11
186.5644073027055
 21
84.28953168434745
 31
0.0
  0
LINE
  5
5F2
330
1A
100
AcDbEntity
  8
NOKITOI
  6
PHANTOM
 62
     8
100
AcDbLine
 10
186.1024073027055
 20
84.28953168434745
 30
0.0
 11
185.1066073027054
 21
85.38953168434758
 31
0.0
  0
LINE
  5
5F3
330
1A
100
AcDbEntity
  8
NOKITOI
  6
PHANTOM
 62
     8
100
AcDbLine
 10
190.815507302705
 20
87.06453168434732
 30
0.0
 11
190.6662073027055
 21
82.28553168434755
 31
0.0
  0
ARC
  5
5F4
330
1A
100
AcDbEntity
  8
NOKITOI
  6
PHANTOM
 62
     8
100
AcDbCircle
 10
186.5643763757693
 20
79.08956742901122
 30
0.0
 40
3.99998565374706
100
AcDbArc
 50
358.208696659101
 51
83.52422380468341
  0
ARC
  5
5F5
330
1A
100
AcDbEntity
  8
NOKITOI
  6
PHANTOM
 62
     8
100
AcDbCircle
 10
190.0158960657113
 20
87.08954327816455
 30
0.0
 40
1.999988406214315
100
AcDbArc
 50
358.2088726535936
 51
89.99967808195551
  0
LINE
  5
5F6
330
1A
100
AcDbEntity
  8
NOKITOI
  6
PHANTOM
 62
     8
100
AcDbLine
 10
190.0159073027056
 20
87.88943168434739
 30
0.0
 11
187.5432073027054
 21
87.88953168434758
 31
0.0
  0
LINE
  5
5F7
330
1A
100
AcDbEntity
  8
NOKITOI
  6
PHANTOM
 62
     8
100
AcDbLine
 10
187.5432073027054
 20
87.88953168434758
 30
0.0
 11
188.0432073027054
 21
85.38953168434758
 31
0.0
  0
ARC
  5
5F8
330
1A
100
AcDbEntity
  8
NOKITOI
  6
PHANTOM
 62
     8
100
AcDbCircle
 10
190.0159512690583
 20
87.08948632187443
 30
0.0
 40
0.7999453636812564
100
AcDbArc
 50
358.2123436447881
 51
90.00314907315425
  0
LINE
  5
1D19
330
1A
100
AcDbEntity
  8
SEIHIN
100
AcDbLine
 10
151.2706832226929
 20
83.88231812750715
 30
0.0
 11
164.0581697794776
 21
96.6698047843475
 31
0.0
  0
ARC
  5
1D1B
330
1A
100
AcDbEntity
  8
SEIHIN
100
AcDbCircle
 10
150.5706831794777
 20
84.09653168434749
 30
0.0
 40
5.500000002456481
100
AcDbArc
 50
270.0
 51
315.0
  0
LINE
  5
1D1E
330
1A
100
AcDbEntity
  8
SEIHIN
100
AcDbLine
 10
85.45953777947772
 20
70.99653168434746
 30
0.0
 11
153.8843916794776
 21
70.99653168434746
 31
0.0
  0
LINE
  5
1D23
330
1A
100
AcDbEntity
  8
SEIHIN
100
AcDbLine
 10
150.5635764011131
 20
84.58942490592731
 30
0.0
 11
163.3510629794777
 21
97.37691158434746
 31
0.0
  0
LINE
  5
1D24
330
1A
100
AcDbEntity
  8
CENTER_L
100
AcDbLine
 10
138.0559645794776
 20
93.48713455845484
 30
0.0
 11
138.0559645794776
 21
68.54811710647254
 31
0.0
  0
LINE
  5
1D2A
330
1A
100
AcDbEntity
  8
SEIHIN
100
AcDbLine
 10
128.0559645794776
 20
84.29653168434748
 30
0.0
 11
128.0559645794776
 21
78.79653168434749
 31
0.0
  0
LINE
  5
1D2C
330
1A
100
AcDbEntity
  8
SEIHIN
100
AcDbLine
 10
77.8559645794777
 20
78.59653168434748
 30
0.0
 11
150.5708475612212
 21
78.59653168434748
 31
0.0
  0
ARC
  5
1D41
330
1A
100
AcDbEntity
  8
SEIHIN
100
AcDbCircle
 10
85.45953777947772
 20
72.59653168434748
 30
0.0
 40
1.599999992064534
100
AcDbArc
 50
185.0000004668387
 51
270.0
  0
LINE
  5
1D42
330
1A
100
AcDbEntity
  8
SEIHIN
100
AcDbLine
 10
78.65596457947765
 20
75.99653168434746
 30
0.0
 11
83.55596457947768
 21
75.99653168434746
 31
0.0
  0
ARC
  5
1D43
330
1A
100
AcDbEntity
  8
SEIHIN
100
AcDbCircle
 10
78.65596457947765
 20
79.09653168434748
 30
0.0
 40
3.100000000000008
100
AcDbArc
 50
180.0
 51
270.0
  0
LINE
  5
1D44
330
1A
100
AcDbEntity
  8
SEIHIN
100
AcDbLine
 10
75.55596457947769
 20
82.99653168434746
 30
0.0
 11
77.3559645794777
 21
82.99653168434746
 31
0.0
  0
ARC
  5
1D45
330
1A
100
AcDbEntity
  8
SEIHIN
100
AcDbCircle
 10
77.8559645794777
 20
79.09653168434748
 30
0.0
 40
0.5
100
AcDbArc
 50
180.0
 51
270.0
  0
LINE
  5
1D46
330
1A
100
AcDbEntity
  8
SEIHIN
100
AcDbLine
 10
75.55596457947769
 20
82.99653168434746
 30
0.0
 11
75.55596457947769
 21
79.09653168434748
 31
0.0
  0
LINE
  5
1D47
330
1A
100
AcDbEntity
  8
SEIHIN
100
AcDbLine
 10
77.3559645794777
 20
82.99653168434746
 30
0.0
 11
77.3559645794777
 21
79.09653168434748
 31
0.0
  0
LINE
  5
1D48
330
1A
100
AcDbEntity
  8
SEIHIN
100
AcDbLine
 10
83.86562627947768
 20
72.45708248434748
 30
0.0
 11
83.32849403971124
 21
78.59653168434746
 31
0.0
  0
LINE
  5
1D4B
330
1A
100
AcDbEntity
  8
SEIHIN
100
AcDbLine
 10
128.0559645794776
 20
83.29653168434749
 30
0.0
 11
149.8564696547871
 21
83.29653168434749
 31
0.0
  0
LINE
  5
1D4D
330
1A
100
AcDbEntity
  8
SEIHIN
100
AcDbLine
 10
128.0559645794776
 20
78.59653168434748
 30
0.0
 11
150.5706831794777
 21
78.59653168434748
 31
0.0
  0
ARC
  5
1D5C
330
1A
100
AcDbEntity
  8
SEIHIN
100
AcDbCircle
 10
138.0559645794776
 20
78.40590668434749
 30
0.0
 40
7.890625
100
AcDbArc
 50
48.29108392084388
 51
131.708916079156
  0
LINE
  5
1D5D
330
1A
100
AcDbEntity
  8
SEIHIN
100
AcDbLine
 10
128.0559645794776
 20
84.29653168434748
 30
0.0
 11
149.8564696171602
 21
84.29653168434747
 31
0.0
  0
LINE
  5
1D65
330
1A
100
AcDbEntity
  8
SEIHIN
100
AcDbLine
 10
197.5559645794776
 20
90.0965316843475
 30
0.0
 11
197.5559645794776
 21
73.07101400691931
 31
0.0
  0
LINE
  5
1D67
330
1A
100
AcDbEntity
  8
SEIHIN
100
AcDbLine
 10
193.9559645794776
 20
90.0965316843475
 30
0.0
 11
193.9559645794776
 21
73.12342178434748
 31
0.0
  0
LINE
  5
1D68
330
1A
100
AcDbEntity
  8
SEIHIN
100
AcDbLine
 10
196.5559645794776
 20
90.0965316843475
 30
0.0
 11
196.5559645794776
 21
73.12342178434748
 31
0.0
  0
LINE
  5
1D6C
330
1A
100
AcDbEntity
  8
SEIHIN
100
AcDbLine
 10
157.4906362794776
 20
72.49028708434746
 30
0.0
 11
171.8904662384664
 21
86.89011712057618
 31
0.0
  0
LINE
  5
1D6E
330
1A
100
AcDbEntity
  8
SEIHIN
100
AcDbLine
 10
154.4597704794776
 20
80.20744438434748
 30
0.0
 11
166.2903200744226
 21
92.03799397929243
 31
0.0
  0
LINE
  5
1D79
330
1A
100
AcDbEntity
  8
SEIHIN
100
AcDbLine
 10
168.5371908794776
 20
69.59145458434744
 30
0.0
 11
180.4802372794777
 21
75.41646748434748
 31
0.0
  0
LINE
  5
1D7A
330
1A
100
AcDbEntity
  8
SEIHIN
100
AcDbLine
 10
169.1947474794776
 20
68.24326338434747
 30
0.0
 11
180.4802372794777
 21
73.74756458434747
 31
0.0
  0
LINE
  5
1D7B
330
1A
100
AcDbEntity
  8
SEIHIN
100
AcDbLine
 10
168.3618424794777
 20
69.95097218434747
 30
0.0
 11
180.2048887794777
 21
75.72721178434746
 31
0.0
  0
LINE
  5
1D7D
330
1A
100
AcDbEntity
  8
SEIHIN
100
AcDbLine
 10
157.4794925305516
 20
72.47917768098577
 30
0.0
 11
166.6117793794777
 21
68.22072238434748
 31
0.0
  0
ARC
  5
1D7E
330
1A
100
AcDbEntity
  8
SEIHIN
100
AcDbCircle
 10
153.8843916794776
 20
76.09653168434748
 30
0.0
 40
5.100000011277387
100
AcDbArc
 50
270.0
 51
315.0
  0
LINE
  5
1D7F
330
1A
100
AcDbEntity
  8
SEIHIN
100
AcDbLine
 10
158.9092418550957
 20
73.90889266757492
 30
0.0
 11
167.4147541794776
 21
69.94270718434747
 31
0.0
  0
LINE
  5
1D80
330
1A
100
AcDbEntity
  8
SEIHIN
100
AcDbLine
 10
158.6082469454113
 20
73.60789775627587
 30
0.0
 11
167.2457068794777
 21
69.58018408434748
 31
0.0
  0
ARC
  5
1D81
330
1A
100
AcDbEntity
  8
SEIHIN
100
AcDbCircle
 10
167.8796342794776
 20
70.93964568434746
 30
0.0
 40
1.499999997384386
100
AcDbArc
 50
244.9999984438223
 51
295.9999936879063
  0
ARC
  5
1D83
330
1A
100
AcDbEntity
  8
SEIHIN
100
AcDbCircle
 10
167.8796342794776
 20
70.93964568434746
 30
0.0
 40
1.099999981342675
100
AcDbArc
 50
244.9999979823536
 51
295.9999960018844
  0
ARC
  5
1D84
330
1A
100
AcDbEntity
  8
SEIHIN
100
AcDbCircle
 10
167.8796342794776
 20
70.93964568434746
 30
0.0
 40
2.9999999920909
100
AcDbArc
 50
244.9999949819811
 51
295.999994525133
  0
ARC
  5
1D86
330
1A
100
AcDbEntity
  8
SEIHIN
100
AcDbCircle
 10
178.5514041794776
 20
79.37116128434748
 30
0.0
 40
4.400000010194002
100
AcDbArc
 50
296.0000006547247
 51
359.9999934891161
  0
ARC
  5
1D87
330
1A
100
AcDbEntity
  8
SEIHIN
100
AcDbCircle
 10
178.4514041794776
 20
79.32238798434745
 30
0.0
 40
4.000000009467725
100
AcDbArc
 50
296.0000000723986
 51
0.0
  0
LINE
  5
1D88
330
1A
100
AcDbEntity
  8
SEIHIN
100
AcDbLine
 10
182.9514041794777
 20
77.70225788434747
 30
0.0
 11
182.9514041794777
 21
81.83048848434747
 31
0.0
  0
ARC
  5
1D8A
330
1A
100
AcDbEntity
  8
SEIHIN
100
AcDbCircle
 10
178.5514041794776
 20
77.70225838434747
 30
0.0
 40
4.400000010194002
100
AcDbArc
 50
296.0000006547247
 51
359.9999934891161
  0
LINE
  5
1D8B
330
1A
100
AcDbEntity
  8
SEIHIN
100
AcDbLine
 10
182.4514041794776
 20
81.83048848434747
 30
0.0
 11
182.9514041794777
 21
81.83048848434747
 31
0.0
  0
LINE
  5
1D8C
330
1A
100
AcDbEntity
  8
SEIHIN
100
AcDbLine
 10
182.4514041794776
 20
79.32238798434745
 30
0.0
 11
182.4514041794776
 21
81.83048848434747
 31
0.0
  0
LINE
  5
1D92
330
1A
100
AcDbEntity
  8
SEIHIN
100
AcDbLine
 10
187.0655577794777
 20
72.96288338434748
 30
0.0
 11
186.9347179217447
 21
70.46630958737314
 31
0.0
  0
ARC
  5
1D93
330
1A
100
AcDbEntity
  8
SEIHIN
100
AcDbCircle
 10
193.5559645794777
 20
73.12342178434748
 30
0.0
 40
2.999999998689364
100
AcDbArc
 50
266.9999993993207
 51
0.0
  0
LINE
  5
1D94
330
1A
100
AcDbEntity
  8
SEIHIN
100
AcDbLine
 10
194.3989567084483
 20
70.07512540277615
 30
0.0
 11
186.9347179794776
 21
70.46630958434748
 31
0.0
  0
LINE
  5
1D96
330
1A
100
AcDbEntity
  8
SEIHIN
100
AcDbLine
 10
193.5350301794777
 20
72.72396998434747
 30
0.0
 11
187.0707913794777
 21
73.06274638434747
 31
0.0
  0
ARC
  5
1D97
330
1A
100
AcDbEntity
  8
SEIHIN
100
AcDbCircle
 10
193.5559645794777
 20
73.12342178434748
 30
0.0
 40
0.3999999935166316
100
AcDbArc
 50
266.999997392128
 51
0.0
  0
LINE
  5
1DAE
330
1A
100
AcDbEntity
  8
SEIHIN
100
AcDbLine
 10
191.820624217606
 20
94.53324006903867
 30
0.0
 11
169.2366041794777
 21
93.34966178434745
 31
0.0
  0
LINE
  5
1DB3
330
1A
100
AcDbEntity
  8
SEIHIN
100
AcDbLine
 10
191.9565262794776
 20
91.93679428434746
 30
0.0
 11
177.5559645794776
 21
91.18209287418842
 31
0.0
  0
ARC
  5
1DB6
330
1A
100
AcDbEntity
  8
SEIHIN
100
AcDbCircle
 10
169.4721159794776
 20
88.85582888434749
 30
0.0
 40
4.499999985879004
100
AcDbArc
 50
92.99999996493296
 51
135.0
  0
ARC
  5
1DB8
330
1A
100
AcDbEntity
  8
SEIHIN
100
AcDbCircle
 10
167.9472572794777
 20
92.78071758434748
 30
0.0
 40
5.500000065643712
100
AcDbArc
 50
91.3361182741777
 51
135.0000022098678
  0
ARC
  5
1DB9
330
1A
100
AcDbEntity
  8
SEIHIN
100
AcDbCircle
 10
167.9472572794777
 20
92.78071758434748
 30
0.0
 40
6.500000024766264
100
AcDbArc
 50
91.33611865333142
 51
135.000002493184
  0
ARC
  5
1DBB
330
1A
100
AcDbEntity
  8
SEIHIN
100
AcDbCircle
 10
192.0559645794776
 20
90.03939818434748
 30
0.0
 40
4.499999996725646
100
AcDbArc
 50
0.0
 51
92.99781409385971
  0
ARC
  5
1DBC
330
1A
100
AcDbEntity
  8
SEIHIN
100
AcDbCircle
 10
192.0559645794776
 20
90.03939818434748
 30
0.0
 40
5.500000030448694
100
AcDbArc
 50
0.0
 51
84.67089213616381
  0
ARC
  5
1DBD
330
1A
100
AcDbEntity
  8
SEIHIN
100
AcDbCircle
 10
192.0559645794776
 20
90.03939818434748
 30
0.0
 40
1.899999991552915
100
AcDbArc
 50
0.0
 51
92.99999951753015
  0
LINE
  5
1EC3
330
1A
100
AcDbEntity
  8
SEIHIN
100
AcDbLine
 10
75.55596457947769
 20
239.2254510221884
 30
0.0
 11
83.32849403971119
 21
239.2254510221884
 31
0.0
  0
LINE
  5
1EC4
330
1A
100
AcDbEntity
  8
SEIHIN
100
AcDbLine
 10
222.7505975794776
 20
218.7254510221884
 30
0.0
 11
206.2097593934794
 21
218.7254510221884
 31
0.0
  0
LINE
  5
1EC5
330
1A
100
AcDbEntity
  8
SEIHIN
100
AcDbLine
 10
222.436445432889
 20
198.2254510221883
 30
0.0
 11
210.1807413260663
 21
198.2254510221883
 31
0.0
  0
LINE
  5
1EC6
330
1A
100
AcDbEntity
  8
CENTER_L
100
AcDbLine
 10
231.2978517735867
 20
229.2254510221884
 30
0.0
 11
68.55596457947768
 21
229.2254510221884
 31
0.0
  0
LINE
  5
1ECB
330
1A
100
AcDbEntity
  8
SEIHIN
100
AcDbLine
 10
75.55596457947769
 20
219.2254510221884
 30
0.0
 11
83.32849403971124
 21
219.2254510221884
 31
0.0
  0
LINE
  5
1ECC
330
1A
100
AcDbEntity
  8
SEIHIN
100
AcDbLine
 10
205.2241924794777
 20
217.1254510221884
 30
0.0
 11
208.7665891794776
 21
217.1254510221884
 31
0.0
  0
LINE
  5
1ED1
330
1A
100
AcDbEntity
  8
CENTER_L
100
AcDbLine
 10
208.743186983639
 20
207.2254510221883
 30
0.0
 11
225.8401436091413
 21
207.2254510221883
 31
0.0
  0
LINE
  5
1ED8
330
1A
100
AcDbEntity
  8
CENTER_L
100
AcDbLine
 10
138.0559645794776
 20
214.1965793096371
 30
0.0
 11
138.0559645794776
 21
244.2543227347396
 31
0.0
  0
LINE
  5
1EDA
330
1A
100
AcDbEntity
  8
SEIHIN
100
AcDbLine
 10
128.0559645794776
 20
219.2254510221884
 30
0.0
 11
128.0559645794776
 21
239.2254510221884
 31
0.0
  0
LINE
  5
1F11
330
1A
100
AcDbEntity
  8
SEIHIN
100
AcDbLine
 10
177.5559645794776
 20
93.78566100878725
 30
0.0
 11
177.5559645794776
 21
88.13599788373744
 31
0.0
  0
LINE
  5
1F12
330
1A
100
AcDbEntity
  8
SEIHIN
100
AcDbLine
 10
176.6083005378024
 20
87.13736834909196
 30
0.0
 11
171.8904662384664
 21
86.89011712057618
 31
0.0
  0
ARC
  5
1F13
330
1A
100
AcDbEntity
  8
SEIHIN
100
AcDbCircle
 10
176.5559645794776
 20
88.13599788373744
 30
0.0
 40
1.0
100
AcDbArc
 50
273.0000001194438
 51
0.0
  0
ARC
  5
1F15
330
1A
100
AcDbEntity
  8
SEIHIN
100
AcDbCircle
 10
194.5559645794777
 20
73.07101400691931
 30
0.0
 40
3.0
100
AcDbArc
 50
266.9999999560026
 51
0.0
  0
LINE
  5
1F61
330
1A
100
AcDbEntity
  8
SEIHIN
100
AcDbLine
 10
177.5559645794776
 20
216.7254510221884
 30
0.0
 11
83.32849403971124
 21
216.7254510221884
 31
0.0
  0
LINE
  5
1F62
330
1A
100
AcDbEntity
  8
SEIHIN
100
AcDbLine
 10
177.5559645794776
 20
216.7254510221884
 30
0.0
 11
177.5559645794776
 21
219.2254510221884
 31
0.0
  0
LINE
  5
1F63
330
1A
100
AcDbEntity
  8
SEIHIN
100
AcDbLine
 10
83.32849403971124
 20
216.7254510221884
 30
0.0
 11
83.32849403971124
 21
219.2254510221884
 31
0.0
  0
LINE
  5
1F64
330
1A
100
AcDbEntity
  8
SEIHIN
100
AcDbLine
 10
75.55596457947769
 20
219.2254510221884
 30
0.0
 11
75.55596457947769
 21
239.2254510221884
 31
0.0
  0
LINE
  5
1F67
330
1A
100
AcDbEntity
  8
SEIHIN
100
AcDbLine
 10
77.3559645794777
 20
219.2254510221884
 30
0.0
 11
77.3559645794777
 21
239.2254510221884
 31
0.0
  0
LINE
  5
1F68
330
1A
100
AcDbEntity
  8
SEIHIN
100
AcDbLine
 10
128.0559645794776
 20
219.2254510221883
 30
0.0
 11
204.4241924794777
 21
219.2254510221884
 31
0.0
  0
LINE
  5
1F69
330
1A
100
AcDbEntity
  8
SEIHIN
100
AcDbLine
 10
128.0559645794776
 20
221.2254510221884
 30
0.0
 11
204.4241924794777
 21
221.2254510221884
 31
0.0
  0
CIRCLE
  5
1F6A
330
1A
100
AcDbEntity
  8
SEIHIN
100
AcDbCircle
 10
138.0559645794776
 20
229.2254510221884
 30
0.0
 40
5.0
  0
LINE
  5
1F6C
330
1A
100
AcDbEntity
  8
SEIHIN
100
AcDbLine
 10
150.4115474274992
 20
221.7254510221883
 30
0.0
 11
150.4115474274992
 21
236.7254510221884
 31
0.0
  0
LINE
  5
1F6D
330
1A
100
AcDbEntity
  8
SEIHIN
100
AcDbLine
 10
165.19634863345
 20
221.7254510221883
 30
0.0
 11
165.19634863345
 21
236.7254510221883
 31
0.0
  0
LINE
  5
1F70
330
1A
100
AcDbEntity
  8
SEIHIN
100
AcDbLine
 10
128.0559645794776
 20
237.2254510221884
 30
0.0
 11
204.4241924794777
 21
237.2254510221883
 31
0.0
  0
LINE
  5
1F71
330
1A
100
AcDbEntity
  8
SEIHIN
100
AcDbLine
 10
128.0559645794776
 20
239.2254510221884
 30
0.0
 11
204.4241924794777
 21
239.2254510221884
 31
0.0
  0
LINE
  5
1F72
330
1A
100
AcDbEntity
  8
SEIHIN
100
AcDbLine
 10
177.5559645794776
 20
241.7254510221884
 30
0.0
 11
83.32849403971124
 21
241.7254510221884
 31
0.0
  0
LINE
  5
1F73
330
1A
100
AcDbEntity
  8
SEIHIN
100
AcDbLine
 10
75.55596457947769
 20
239.2254510221884
 30
0.0
 11
83.32849403971124
 21
239.2254510221884
 31
0.0
  0
LINE
  5
1F74
330
1A
100
AcDbEntity
  8
SEIHIN
100
AcDbLine
 10
83.32849403971124
 20
241.7254510221884
 30
0.0
 11
83.32849403971124
 21
239.2254510221884
 31
0.0
  0
LINE
  5
1F75
330
1A
100
AcDbEntity
  8
SEIHIN
100
AcDbLine
 10
151.3435638991209
 20
237.7254510221884
 30
0.0
 11
151.3435638991209
 21
238.7254510221883
 31
0.0
  0
LINE
  5
1F76
330
1A
100
AcDbEntity
  8
SEIHIN
100
AcDbLine
 10
164.357534176893
 20
238.7254510221884
 30
0.0
 11
164.357534176893
 21
237.7254510221884
 31
0.0
  0
LINE
  5
1F77
330
1A
100
AcDbEntity
  8
SEIHIN
100
AcDbLine
 10
177.5559645794776
 20
241.7254510221884
 30
0.0
 11
177.5559645794776
 21
239.2254510221884
 31
0.0
  0
LINE
  5
1F85
330
1A
100
AcDbEntity
  8
SEIHIN
100
AcDbLine
 10
167.994102664117
 20
239.7254510221883
 30
0.0
 11
167.994102664117
 21
241.2254510221884
 31
0.0
  0
LINE
  5
1F86
330
1A
100
AcDbEntity
  8
SEIHIN
100
AcDbLine
 10
152.4695448011734
 20
239.7254510221884
 30
0.0
 11
152.4695448011734
 21
241.2254510221883
 31
0.0
  0
LINE
  5
1F88
330
1A
100
AcDbEntity
  8
SEIHIN
100
AcDbLine
 10
128.0559645794776
 20
78.79653168434749
 30
0.0
 11
150.4777899641574
 21
78.79653168434747
 31
0.0
  0
LINE
  5
1F89
330
1A
100
AcDbEntity
  8
SEIHIN
100
AcDbLine
 10
154.013323883922
 20
80.26099779224662
 30
0.0
 11
166.1544189809043
 21
92.40209298422673
 31
0.0
  0
ARC
  5
1F8B
330
1A
100
AcDbEntity
  8
SEIHIN
100
AcDbCircle
 10
169.6899529006689
 20
88.86655909212587
 30
0.0
 40
5.0
100
AcDbArc
 50
92.99999987887712
 51
135.0000002241552
  0
ARC
  5
1F93
330
1A
100
AcDbEntity
  8
SEIHIN
100
AcDbCircle
 10
150.4777899641574
 20
83.79653168434748
 30
0.0
 40
5.0
100
AcDbArc
 50
270.0
 51
315.0000002241551
  0
ARC
  5
1F94
330
1A
100
AcDbEntity
  8
SEIHIN
100
AcDbCircle
 10
149.8564696547871
 20
85.29653168434748
 30
0.0
 40
2.0
100
AcDbArc
 50
270.0
 51
315.0000002241553
  0
ARC
  5
1F95
330
1A
100
AcDbEntity
  8
SEIHIN
100
AcDbCircle
 10
149.8564696171602
 20
85.29653168434746
 30
0.0
 40
1.0
100
AcDbArc
 50
270.0
 51
315.0000002241551
  0
DIMENSION
  5
2073
330
1A
100
AcDbEntity
  8
SUNPOU
100
AcDbDimension
  2
*D1
 10
48.72515181114001
 20
219.2254510221884
 30
0.0
 11
46.22515181113997
 21
229.2254510221884
 31
0.0
 70
    32
  3
STANDARD
100
AcDbAlignedDimension
 13
75.55596457947769
 23
239.2254510221884
 33
0.0
 14
75.55596457947769
 24
219.2254510221884
 34
0.0
 50
90.0
100
AcDbRotatedDimension
1001
ACAD
1000
DSTYLE
1002
{
1070
    41
1040
3.0
1070
    42
1040
3.0
1070
    43
1040
7.0
1070
    44
1040
1.5
1070
    73
1070
     0
1070
    74
1070
     0
1070
    77
1070
     3
1070
   140
1040
3.0
1070
   141
1040
3.0
1070
   147
1040
1.0
1070
   172
1070
     1
1070
   173
1070
     1
1070
   176
1070
   256
1070
   177
1070
   256
1070
   178
1070
   256
1070
   271
1070
     0
1070
   272
1070
     0
1070
   341
1005
B2
1070
     6
1000
OPEN
1070
     7
1000
OPEN
1002
}
  0
LINE
  5
2127
330
1A
100
AcDbEntity
  8
SEIHIN
100
AcDbLine
 10
151.3435638991209
 20
220.7254510221883
 30
0.0
 11
151.3435638991209
 21
219.7254510221883
 31
0.0
  0
LINE
  5
2128
330
1A
100
AcDbEntity
  8
SEIHIN
100
AcDbLine
 10
152.4695448011734
 20
218.7254510221883
 30
0.0
 11
152.4695448011734
 21
217.2254510221884
 31
0.0
  0
LINE
  5
2129
330
1A
100
AcDbEntity
  8
SEIHIN
100
AcDbLine
 10
164.357534176893
 20
219.7254510221883
 30
0.0
 11
164.357534176893
 21
220.7254510221884
 31
0.0
  0
LINE
  5
212A
330
1A
100
AcDbEntity
  8
SEIHIN
100
AcDbLine
 10
167.994102664117
 20
218.7254510221884
 30
0.0
 11
167.994102664117
 21
217.2254510221883
 31
0.0
  0
LINE
  5
29B5
330
1A
100
AcDbEntity
  8
SEIHIN
100
AcDbLine
 10
224.0569830564218
 20
233.2254510221883
 30
0.0
 11
221.6123213278781
 21
233.2254510221883
 31
0.0
  0
LINE
  5
29B6
330
1A
100
AcDbEntity
  8
SEIHIN
100
AcDbLine
 10
224.0569830564218
 20
225.2254510221883
 30
0.0
 11
221.6123213278781
 21
225.2254510221883
 31
0.0
  0
LINE
  5
3947
330
1A
100
AcDbEntity
  8
SEIHIN
100
AcDbLine
 10
223.0863578794777
 20
107.6602933198973
 30
0.0
 11
224.1636194794776
 21
104.9670833198973
 31
0.0
  0
LINE
  5
3948
330
1A
100
AcDbEntity
  8
SEIHIN
100
AcDbLine
 10
223.5505975794777
 20
107.8459853198973
 30
0.0
 11
217.4226338794777
 21
105.3948506198973
 31
0.0
  0
LINE
  5
3949
330
1A
100
AcDbEntity
  8
SEIHIN
100
AcDbLine
 10
218.90820082084
 20
105.9890650861393
 30
0.0
 11
219.9854624794777
 21
103.2958551198973
 31
0.0
  0
LINE
  5
394D
330
1A
100
AcDbEntity
  8
SEIHIN
100
AcDbLine
 10
204.4241924794777
 20
137.8916277198973
 30
0.0
 11
217.4226338794777
 21
105.3948506198973
 31
0.0
  0
LINE
  5
395F
330
1A
100
AcDbEntity
  8
SEIHIN
100
AcDbLine
 10
219.4580734794776
 20
104.6143550198973
 30
0.0
 11
217.1901957794776
 21
102.8266369198973
 31
0.0
  0
ARC
  5
3960
330
1A
100
AcDbEntity
  8
SEIHIN
100
AcDbCircle
 10
219.0569830794776
 20
102.9244711198973
 30
0.0
 40
1.000000001711656
100
AcDbArc
 50
273.0000026078751
 51
21.80099667147166
  0
ARC
  5
3961
330
1A
100
AcDbEntity
  8
SEIHIN
100
AcDbCircle
 10
219.0569830794776
 20
102.9244711198973
 30
0.0
 40
5.499999976944204
100
AcDbArc
 50
273.0000004454678
 51
21.80099976660096
  0
LINE
  5
3989
330
1A
100
AcDbEntity
  8
SEIHIN
100
AcDbLine
 10
209.0665891794776
 20
139.7485479198973
 30
0.0
 11
222.0650305794777
 21
107.2517708198973
 31
0.0
  0
LINE
  5
398A
330
1A
100
AcDbEntity
  8
SEIHIN
100
AcDbLine
 10
210.5521560794776
 20
140.3427624198973
 30
0.0
 11
223.5505975794777
 21
107.8459853198973
 31
0.0
  0
MTEXT
  5
398E
330
1A
100
AcDbEntity
  8
SUNPOU
100
AcDbMText
 10
195.9333112334173
 20
155.2604322815568
 30
0.0
 40
3.0
 41
0.0
 71
     1
 72
     5
  1
{\W1.269841;10}
1001
ACAD
1000
MTEXTBEGIN
1070
    73
1070
     1
1070
    44
1040
1.0
1070
    74
1070
     0
1000
MTEXTEND
1000
MTEXTBEGIN
1070
    73
1070
     1
1070
    44
1040
1.0
1070
    74
1070
     0
1000
MTEXTEND
1000
MTEXTBEGIN
1070
    73
1070
     1
1070
    44
1040
1.0
1070
    74
1070
     0
1000
MTEXTEND
1000
MTEXTBEGIN
1070
    73
1070
     1
1070
    44
1040
1.0
1070
    74
1070
     0
1000
MTEXTEND
1000
MTEXTBEGIN
1070
    73
1070
     1
1070
    44
1040
1.0
1070
    74
1070
     0
1000
MTEXTEND
  0
LINE
  5
398F
330
1A
100
AcDbEntity
  8
SUNPOU
100
AcDbLine
 10
206.6291622467471
 20
150.1502430165719
 30
0.0
 11
210.5520846997598
 21
140.3427338686011
 31
0.0
  0
MTEXT
  5
3995
330
1A
100
AcDbEntity
  8
SUNPOU
100
AcDbMText
 10
202.6291622442859
 20
147.7641913165719
 30
0.0
 40
3.0
 41
0.0
 71
     1
 72
     5
  1
{\W1.111111;4}
 11
1.0
 21
0.0000000008204137
 31
0.0
1001
ACAD
1000
MTEXTBEGIN
1070
    73
1070
     1
1070
    44
1040
1.0
1070
    74
1070
     0
1000
MTEXTEND
1000
MTEXTBEGIN
1070
    73
1070
     1
1070
    44
1040
1.0
1070
    74
1070
     0
1000
MTEXTEND
1000
MTEXTBEGIN
1070
    73
1070
     1
1070
    44
1040
1.0
1070
    74
1070
     0
1000
MTEXTEND
1000
MTEXTBEGIN
1070
    73
1070
     1
1070
    44
1040
1.0
1070
    74
1070
     0
1000
MTEXTEND
1000
MTEXTBEGIN
1070
    73
1070
     1
1070
    44
1040
1.0
1070
    74
1070
     0
1000
MTEXTEND
  0
LINE
  5
3998
330
1A
100
AcDbEntity
  8
SEIHIN
100
AcDbLine
 10
210.5521560794776
 20
140.3427624198973
 30
0.0
 11
204.4241924794777
 21
137.8916277198973
 31
0.0
  0
LINE
  5
399A
330
1A
100
AcDbEntity
  8
SUNPOU
100
AcDbLine
 10
202.6291622467471
 20
150.1502430165719
 30
0.0
 11
202.6291622467471
 21
160.1502430165719
 31
0.0
  0
LINE
  5
399B
330
1A
100
AcDbEntity
  8
SUNPOU
100
AcDbLine
 10
202.6291622467471
 20
160.1502430165719
 30
0.0
 11
206.6291622467471
 21
150.1502430165719
 31
0.0
  0
LINE
  5
399C
330
1A
100
AcDbEntity
  8
SUNPOU
100
AcDbLine
 10
206.6291622467471
 20
150.1502430165719
 30
0.0
 11
202.6291622467471
 21
150.1502430165719
 31
0.0
  0
MTEXT
  5
39FC
102
{ACAD_REACTORS
330
39FD
102
}
330
1A
100
AcDbEntity
  8
SUNPOU
100
AcDbMText
 10
279.9587476928116
 20
188.4385419102902
 30
0.0
 40
3.0
 41
0.0
 71
     9
 72
     5
  1
4-φ4.2
1001
ACAD
1000
MTEXTBEGIN
1070
    73
1070
     1
1070
    44
1040
1.0
1070
    74
1070
     0
1000
MTEXTEND
1000
MTEXTBEGIN
1070
    73
1070
     1
1070
    44
1040
1.0
1070
    74
1070
     0
1000
MTEXTEND
1000
MTEXTBEGIN
1070
    73
1070
     1
1070
    44
1040
1.0
1070
    74
1070
     0
1000
MTEXTEND
1000
MTEXTBEGIN
1070
    73
1070
     1
1070
    44
1040
1.0
1070
    74
1070
     0
1000
MTEXTEND
1000
MTEXTBEGIN
1070
    73
1070
     1
1070
    44
1040
1.0
1070
    74
1070
     0
1000
MTEXTEND
1000
MTEXTBEGIN
1070
    73
1070
     1
1070
    44
1040
1.0
1070
    74
1070
     0
1000
MTEXTEND
1000
MTEXTBEGIN
1070
    73
1070
     1
1070
    44
1040
1.0
1070
    74
1070
     0
1000
MTEXTEND
1000
MTEXTBEGIN
1070
    73
1070
     1
1070
    44
1040
1.0
1070
    74
1070
     0
1000
MTEXTEND
1000
MTEXTBEGIN
1070
    73
1070
     1
1070
    44
1040
1.0
1070
    74
1070
     0
1000
MTEXTEND
  0
LEADER
  5
39FD
330
1A
100
AcDbEntity
  8
SUNPOU
100
AcDbLeader
  3
STANDARD
 73
     0
 40
3.0
 41
15.59999999999999
 76
     3
 10
307.1842342788733
 20
171.888434341193
 30
0.0
 10
284.8159334506366
 20
189.9377484762282
 30
0.0
 10
280.9587476928117
 20
189.9385419102902
 30
0.0
340
39FC
213
0.0
223
1.5
233
0.0
1001
ACAD
1000
DSTYLE
1002
{
1070
     6
1000
OPEN
1070
    41
1040
3.0
1070
    42
1040
3.0
1070
    43
1040
7.0
1070
    44
1040
1.5
1070
    73
1070
     0
1070
    74
1070
     0
1070
    77
1070
     0
1070
   140
1040
3.0
1070
   141
1040
3.0
1070
   147
1040
1.0
1070
   172
1070
     1
1070
   173
1070
     1
1070
   176
1070
   256
1070
   177
1070
   256
1070
   178
1070
   256
1070
   271
1070
     0
1070
   272
1070
     0
1070
   341
1005
B2
1070
   343
1005
B2
1070
   344
1005
B2
1002
}
  0
DIMENSION
  5
39FE
330
1A
100
AcDbEntity
  8
SUNPOU
100
AcDbDimension
  2
*D3
 10
335.810464768077
 20
223.0071859841911
 30
0.0
 11
314.4554590732493
 21
217.1579354532363
 31
0.0
 70
    32
  3
STANDARD
100
AcDbAlignedDimension
 13
306.8911583504037
 23
176.8312079153272
 33
0.0
 14
347.744249536917
 24
193.1721057029772
 34
0.0
 50
21.80099999999981
100
AcDbRotatedDimension
1001
ACAD
1000
DSTYLE
1002
{
1070
    41
1040
3.0
1070
    42
1040
3.0
1070
    43
1040
7.0
1070
    44
1040
1.5
1070
    73
1070
     0
1070
    74
1070
     0
1070
    77
1070
     3
1070
   140
1040
3.0
1070
   141
1040
3.0
1070
   147
1040
1.0
1070
   172
1070
     1
1070
   173
1070
     1
1070
   176
1070
   256
1070
   177
1070
   256
1070
   178
1070
   256
1070
   271
1070
     0
1070
   272
1070
     0
1070
   341
1005
B2
1070
     6
1000
OPEN
1070
     7
1000
OPEN
1002
}
  0
DIMENSION
  5
39FF
330
1A
100
AcDbEntity
  8
SUNPOU
100
AcDbDimension
  2
*D2
 10
340.3249756147707
 20
235.9543495652167
 30
0.0
 11
310.6136558136107
 21
226.7626426686062
 31
0.0
 70
    32
  3
STANDARD
100
AcDbAlignedDimension
 13
298.9433666887626
 23
172.4674242700087
 33
0.0
 14
356.5090860879407
 24
195.49323478897
 34
0.0
 50
21.80099999999981
100
AcDbRotatedDimension
1001
ACAD
1000
DSTYLE
1002
{
1070
    41
1040
3.0
1070
    42
1040
3.0
1070
    43
1040
7.0
1070
    44
1040
1.5
1070
    73
1070
     0
1070
    74
1070
     0
1070
    77
1070
     3
1070
   140
1040
3.0
1070
   141
1040
3.0
1070
   147
1040
1.0
1070
   172
1070
     1
1070
   173
1070
     1
1070
   176
1070
   256
1070
   177
1070
   256
1070
   178
1070
   256
1070
   271
1070
     0
1070
   272
1070
     0
1070
   341
1005
B2
1070
     6
1000
OPEN
1070
     7
1000
OPEN
1002
}
  0
CIRCLE
  5
3A00
330
1A
100
AcDbEntity
  8
SEIHIN
100
AcDbCircle
 10
350.0096921847503
 20
187.5083816975742
 30
0.0
 40
2.100000000000022
  0
LINE
  5
3A01
330
1A
100
AcDbEntity
  8
CENTER_L
100
AcDbLine
 10
347.744249536917
 20
193.1721057029772
 30
0.0
 11
352.2751348325837
 21
181.8446576921712
 31
0.0
  0
LINE
  5
3A02
330
1A
100
AcDbEntity
  8
CENTER_L
100
AcDbLine
 10
355.6734161901534
 20
189.7738243454075
 30
0.0
 11
344.3459681793472
 21
185.2429390497409
 31
0.0
  0
LINE
  5
3A03
330
1A
100
AcDbEntity
  8
SEIHIN
100
AcDbLine
 10
348.8953091399409
 20
157.9828308910364
 30
0.0
 11
365.6079373526054
 21
164.6677436223478
 31
0.0
  0
LINE
  5
3A04
330
1A
100
AcDbEntity
  8
SEIHIN
100
AcDbLine
 10
326.6120742664665
 20
186.7657675649335
 30
0.0
 11
352.6094959306113
 21
197.1645207025289
 31
0.0
  0
DIMENSION
  5
3A05
330
1A
100
AcDbEntity
  8
SUNPOU
100
AcDbDimension
  2
*D7
 10
287.5991510685576
 20
162.5446826571376
 30
0.0
 11
288.434813268914
 21
167.1870601393008
 31
0.0
 70
    32
  3
STANDARD
100
AcDbAlignedDimension
 13
300.6146526023215
 23
176.367014427338
 33
0.0
 14
303.4928769928338
 24
168.9020412620909
 34
0.0
 50
111.8010000000003
100
AcDbRotatedDimension
1001
ACAD
1000
DSTYLE
1002
{
1070
    41
1040
3.0
1070
    42
1040
3.0
1070
    43
1040
7.0
1070
    44
1040
1.5
1070
    73
1070
     0
1070
    74
1070
     0
1070
    77
1070
     3
1070
   140
1040
3.0
1070
   141
1040
3.0
1070
   147
1040
1.0
1070
   172
1070
     1
1070
   173
1070
     1
1070
   176
1070
   256
1070
   177
1070
   256
1070
   178
1070
   256
1070
   271
1070
     0
1070
   272
1070
     0
1070
   341
1005
B2
1070
     6
1000
OPEN
1070
     7
1000
OPEN
1002
}
  0
DIMENSION
  5
3A06
330
1A
100
AcDbEntity
  8
SUNPOU
100
AcDbDimension
  2
*D5
 10
306.9343548104076
 20
141.1987970307662
 30
0.0
 11
302.7563324622805
 21
158.3756456724278
 31
0.0
 70
    32
  3
STANDARD
100
AcDbAlignedDimension
 13
274.3900355969374
 23
165.8773850367788
 33
0.0
 14
287.3884770189318
 24
133.3806079565977
 34
0.0
 50
111.8010000000003
100
AcDbRotatedDimension
1001
ACAD
1000
DSTYLE
1002
{
1070
    41
1040
3.0
1070
    42
1040
3.0
1070
    43
1040
7.0
1070
    44
1040
1.5
1070
    73
1070
     0
1070
    74
1070
     0
1070
    77
1070
     3
1070
   140
1040
3.0
1070
   141
1040
3.0
1070
   147
1040
1.0
1070
   172
1070
     1
1070
   173
1070
     1
1070
   176
1070
   256
1070
   177
1070
   256
1070
   178
1070
   256
1070
   271
1070
     0
1070
   272
1070
     0
1070
   341
1005
B2
1070
     6
1000
OPEN
1070
     7
1000
OPEN
1002
}
  0
DIMENSION
  5
3A07
330
1A
100
AcDbEntity
  8
SUNPOU
100
AcDbDimension
  2
*D4
 10
288.32466216646
 20
133.7550742542941
 30
0.0
 11
284.1466398183328
 21
150.9319228959557
 31
0.0
 70
    32
  3
STANDARD
100
AcDbAlignedDimension
 13
300.6146526023215
 23
176.367014427338
 33
0.0
 14
313.6130940243158
 24
143.870237347157
 34
0.0
 50
111.8010000000003
100
AcDbRotatedDimension
1001
ACAD
1000
DSTYLE
1002
{
1070
    41
1040
3.0
1070
    42
1040
3.0
1070
    43
1040
7.0
1070
    44
1040
1.5
1070
    73
1070
     0
1070
    74
1070
     0
1070
    77
1070
     3
1070
   140
1040
3.0
1070
   141
1040
3.0
1070
   147
1040
1.0
1070
   172
1070
     1
1070
   173
1070
     1
1070
   176
1070
   256
1070
   177
1070
   256
1070
   178
1070
   256
1070
   271
1070
     0
1070
   272
1070
     0
1070
   341
1005
B2
1070
     6
1000
OPEN
1070
     7
1000
OPEN
1002
}
  0
LINE
  5
3A08
330
1A
100
AcDbEntity
  8
SEIHIN
100
AcDbLine
 10
336.3611073905206
 20
190.6652999915318
 30
0.0
 11
349.359548812515
 21
158.1685229113507
 31
0.0
  0
CIRCLE
  5
3A09
330
1A
100
AcDbEntity
  8
SEIHIN
100
AcDbCircle
 10
309.156600998237
 20
171.1674839099242
 30
0.0
 40
2.100000000000022
  0
LINE
  5
3A0A
330
1A
100
AcDbEntity
  8
CENTER_L
100
AcDbLine
 10
303.4928769928338
 20
168.9020412620909
 30
0.0
 11
314.82032500364
 21
173.4329265577575
 31
0.0
  0
LINE
  5
3A0B
330
1A
100
AcDbEntity
  8
CENTER_L
100
AcDbLine
 10
306.8911583504037
 20
176.8312079153272
 30
0.0
 11
311.4220436460703
 21
165.5037599045213
 31
0.0
  0
LINE
  5
3A0C
330
1A
100
AcDbEntity
  8
SEIHIN
100
AcDbLine
 10
317.3272808149861
 20
183.0519271586495
 30
0.0
 11
333.3366096248067
 21
143.0277755972349
 31
0.0
  0
LINE
  5
3A0D
330
1A
100
AcDbEntity
  8
SEIHIN
100
AcDbLine
 10
298.9433666516243
 20
172.4674243628566
 30
0.0
 11
309.7135037927096
 21
145.5415234464117
 31
0.0
  0
LINE
  5
3A0E
330
1A
100
AcDbEntity
  8
SEIHIN
100
AcDbLine
 10
316.8630411424122
 20
182.8662351383352
 30
0.0
 11
329.8614825644064
 21
150.3694580581541
 31
0.0
  0
LINE
  5
3A0F
330
1A
100
AcDbEntity
  8
CENTER_L
100
AcDbLine
 10
320.9114136577059
 20
201.0177144713678
 30
0.0
 11
345.2210913486469
 21
140.2422606175816
 31
0.0
  0
LINE
  5
3A10
330
1A
100
AcDbEntity
  8
SEIHIN
100
AcDbLine
 10
335.8968677179467
 20
190.4796079712177
 30
0.0
 11
351.906196503689
 21
150.4554564700006
 31
0.0
  0
CIRCLE
  5
3A11
330
1A
100
AcDbEntity
  8
SEIHIN
100
AcDbCircle
 10
316.2128977701767
 20
153.5263763521116
 30
0.0
 40
2.100000000000022
  0
LINE
  5
3A12
330
1A
100
AcDbEntity
  8
CENTER_L
100
AcDbLine
 10
310.5491737647735
 20
151.2609337042784
 30
0.0
 11
321.8766217755797
 21
155.7918189999449
 31
0.0
  0
LINE
  5
3A13
330
1A
100
AcDbEntity
  8
CENTER_L
100
AcDbLine
 10
313.9474551223434
 20
159.1901003575147
 30
0.0
 11
318.47834041801
 21
147.8626523467086
 31
0.0
  0
LINE
  5
3A14
330
1A
100
AcDbEntity
  8
SEIHIN
100
AcDbLine
 10
313.6130940243158
 20
143.870237347157
 30
0.0
 11
330.3257222369802
 21
150.5551500784682
 31
0.0
  0
DIMENSION
  5
3A15
330
1A
100
AcDbEntity
  8
SUNPOU
100
AcDbDimension
  2
*D6
 10
297.6265201655248
 20
137.4757403381407
 30
0.0
 11
298.4621823658812
 21
142.1181178203039
 31
0.0
 70
    32
  3
STANDARD
100
AcDbAlignedDimension
 13
310.5491737647735
 23
151.2609337042784
 33
0.0
 14
313.6130940243158
 24
143.870237347157
 34
0.0
 50
111.8010000000003
100
AcDbRotatedDimension
1001
ACAD
1000
DSTYLE
1002
{
1070
    41
1040
3.0
1070
    42
1040
3.0
1070
    43
1040
7.0
1070
    44
1040
1.5
1070
    73
1070
     0
1070
    74
1070
     0
1070
    77
1070
     3
1070
   140
1040
3.0
1070
   141
1040
3.0
1070
   147
1040
1.0
1070
   172
1070
     1
1070
   173
1070
     1
1070
   176
1070
   256
1070
   177
1070
   256
1070
   178
1070
   256
1070
   271
1070
     0
1070
   272
1070
     0
1070
   341
1005
B2
1070
     6
1000
OPEN
1070
     7
1000
OPEN
1002
}
  0
ARC
  5
3A16
330
1A
100
AcDbEntity
  8
SEIHIN
100
AcDbCircle
 10
312.4989419024306
 20
146.655675382601
 30
0.0
 40
3.000000000000003
100
AcDbArc
 50
201.800996180281
 51
291.8009999999999
  0
LINE
  5
3A17
330
1A
100
AcDbEntity
  8
SEIHIN
100
AcDbLine
 10
325.5905468536028
 20
158.354388123858
 30
0.0
 11
323.7335881633067
 21
157.6116200426012
 31
0.0
  0
LINE
  5
3A18
330
1A
100
AcDbEntity
  8
SEIHIN
100
AcDbLine
 10
326.3333149348595
 20
156.4974294335619
 30
0.0
 11
324.4763562445635
 21
155.7546613523051
 31
0.0
  0
ARC
  5
3A19
330
1A
100
AcDbEntity
  8
SEIHIN
100
AcDbCircle
 10
323.9192801836208
 20
157.1473803700271
 30
0.0
 40
0.5
100
AcDbArc
 50
111.8009999999999
 51
201.801
  0
LINE
  5
3A1A
330
1A
100
AcDbEntity
  8
SEIHIN
100
AcDbLine
 10
323.8264245516753
 20
156.0332090045649
 30
0.0
 11
323.4550405110467
 21
156.9616883497129
 31
0.0
  0
ARC
  5
3A1B
330
1A
100
AcDbEntity
  8
SEIHIN
100
AcDbCircle
 10
324.2906642242492
 20
156.2189010248791
 30
0.0
 40
0.5
100
AcDbArc
 50
201.801
 51
291.8010000000005
  0
ARC
  5
3A1C
330
1A
100
AcDbEntity
  8
SEIHIN
100
AcDbCircle
 10
348.9882225026176
 20
167.1747494669941
 30
0.0
 40
0.5
100
AcDbArc
 50
21.801
 51
111.8009999999999
  0
LINE
  5
3A1D
330
1A
100
AcDbEntity
  8
SEIHIN
100
AcDbLine
 10
346.9455717920073
 20
166.8962210583114
 30
0.0
 11
348.8025304823034
 21
167.6389891395682
 31
0.0
  0
ARC
  5
3A1E
330
1A
100
AcDbEntity
  8
SEIHIN
100
AcDbCircle
 10
349.3596065432461
 20
166.2462701218461
 30
0.0
 40
0.5
100
AcDbArc
 50
291.8009999999994
 51
21.801
  0
LINE
  5
3A1F
330
1A
100
AcDbEntity
  8
SEIHIN
100
AcDbLine
 10
347.6883398732641
 20
165.0392623680153
 30
0.0
 11
349.5452985635602
 21
165.7820304492721
 31
0.0
  0
LINE
  5
3A20
330
1A
100
AcDbEntity
  8
SEIHIN
100
AcDbLine
 10
349.82384621582
 20
166.4319621421603
 30
0.0
 11
349.4524621751916
 21
167.3604414873084
 31
0.0
  0
LINE
  5
3A22
330
1A
100
AcDbEntity
  8
SEIHIN
100
AcDbLine
 10
318.5342500816629
 20
175.9954956816706
 30
0.0
 11
316.6772913913668
 21
175.2527276004137
 31
0.0
  0
LINE
  5
3A23
330
1A
100
AcDbEntity
  8
SEIHIN
100
AcDbLine
 10
319.2770181629197
 20
174.1385369913745
 30
0.0
 11
317.4200594726237
 21
173.3957689101176
 31
0.0
  0
LINE
  5
3A24
330
1A
100
AcDbEntity
  8
SEIHIN
100
AcDbLine
 10
300.6146526023215
 20
176.367014427338
 30
0.0
 11
326.6120742664664
 21
186.7657675649336
 31
0.0
  0
ARC
  5
3A25
330
1A
100
AcDbEntity
  8
SEIHIN
100
AcDbCircle
 10
301.7288047242067
 20
173.5815763918939
 30
0.0
 40
3.0
100
AcDbArc
 50
111.8009999999999
 51
201.801
  0
LINE
  5
3A26
330
1A
100
AcDbEntity
  8
SEIHIN
100
AcDbLine
 10
316.7701277797354
 20
173.6743165623775
 30
0.0
 11
316.398743739107
 21
174.6027959075256
 31
0.0
  0
ARC
  5
3A27
330
1A
100
AcDbEntity
  8
SEIHIN
100
AcDbCircle
 10
317.2343674523094
 20
173.8600085826917
 30
0.0
 40
0.5
100
AcDbArc
 50
201.801
 51
291.8010000000005
  0
ARC
  5
3A28
330
1A
100
AcDbEntity
  8
SEIHIN
100
AcDbCircle
 10
316.8629834116809
 20
174.7884879278397
 30
0.0
 40
0.5
100
AcDbArc
 50
111.8009999999999
 51
201.801
  0
LINE
  5
3A2A
330
1A
100
AcDbEntity
  8
SEIHIN
100
AcDbLine
 10
346.3353204448401
 20
148.2271521961314
 30
0.0
 11
344.4639554683607
 21
152.9056616036831
 31
0.0
  0
LINE
  5
3A2B
330
1A
100
AcDbEntity
  8
SEIHIN
100
AcDbLine
 10
338.9074856836557
 20
145.2560798711041
 30
0.0
 11
337.0361207071764
 21
149.9345892786558
 31
0.0
  0
ARC
  5
3A2C
330
1A
100
AcDbEntity
  8
SEIHIN
100
AcDbCircle
 10
341.9319257306779
 20
184.8158570248068
 30
0.0
 40
0.5
100
AcDbArc
 50
21.801
 51
111.8009999999999
  0
LINE
  5
3A2D
330
1A
100
AcDbEntity
  8
SEIHIN
100
AcDbLine
 10
340.6320431013244
 20
182.6803699258279
 30
0.0
 11
342.4890017916205
 21
183.4231380070847
 31
0.0
  0
LINE
  5
3A2E
330
1A
100
AcDbEntity
  8
SEIHIN
100
AcDbLine
 10
339.8892750200676
 20
184.5373286161239
 30
0.0
 11
341.7462337103637
 21
185.2800966973808
 31
0.0
  0
ARC
  5
3A2F
330
1A
100
AcDbEntity
  8
SEIHIN
100
AcDbCircle
 10
342.3033097713063
 20
183.8873776796587
 30
0.0
 40
0.5
100
AcDbArc
 50
291.8009999999994
 51
21.801
  0
LINE
  5
3A30
330
1A
100
AcDbEntity
  8
SEIHIN
100
AcDbLine
 10
342.7675494438802
 20
184.0730696999729
 30
0.0
 11
342.3961654032519
 21
185.001549045121
 31
0.0
  0
CIRCLE
  5
3A32
330
1A
100
AcDbEntity
  8
SEIHIN
100
AcDbCircle
 10
357.0659889566901
 20
169.8672741397616
 30
0.0
 40
2.100000000000022
  0
LINE
  5
3A33
330
1A
100
AcDbEntity
  8
CENTER_L
100
AcDbLine
 10
354.8005463088569
 20
175.5309981451646
 30
0.0
 11
359.3314316045235
 21
164.2035501343586
 31
0.0
  0
LINE
  5
3A34
330
1A
100
AcDbEntity
  8
CENTER_L
100
AcDbLine
 10
362.7297129620931
 20
172.1327167875949
 30
0.0
 11
351.402264951287
 21
167.6018314919283
 31
0.0
  0
LINE
  5
3A35
330
1A
100
AcDbEntity
  8
SEIHIN
100
AcDbLine
 10
356.5090860508021
 20
195.493234881818
 30
0.0
 11
367.2792231918877
 21
168.567333965373
 31
0.0
  0
ARC
  5
3A36
330
1A
100
AcDbEntity
  8
SEIHIN
100
AcDbCircle
 10
364.4937852307203
 20
167.4531816577919
 30
0.0
 40
3.000000000000003
100
AcDbArc
 50
291.8009999999999
 51
21.80100381971894
  0
ARC
  5
3A37
330
1A
100
AcDbEntity
  8
SEIHIN
100
AcDbCircle
 10
353.7236480524965
 20
194.3790826670848
 30
0.0
 40
3.0
100
AcDbArc
 50
21.80100190985947
 51
111.8009999999999
  0
LINE
  5
3B2A
330
1A
100
AcDbEntity
  8
CENTER_L
100
AcDbLine
 10
207.8595044771074
 20
130.6494849910608
 30
0.0
 11
219.1869524879136
 21
135.1803702867274
 31
0.0
  0
LINE
  5
3B2B
330
1A
100
AcDbEntity
  8
CENTER_L
100
AcDbLine
 10
214.9158012490472
 20
113.0083774332482
 30
0.0
 11
226.2432492598533
 21
117.5392627289148
 31
0.0
  0
LINE
  5
3B5C
330
1A
100
AcDbEntity
  8
SEIHIN
100
AcDbLine
 10
210.5521560794776
 20
217.9254510221884
 30
0.0
 11
210.5521560794776
 21
201.2254510221883
 31
0.0
  0
LINE
  5
3B5D
330
1A
100
AcDbEntity
  8
SEIHIN
100
AcDbLine
 10
209.0665891794776
 20
216.8254510221883
 30
0.0
 11
209.0665891794776
 21
201.2254510221883
 31
0.0
  0
LINE
  5
3B5E
330
1A
100
AcDbEntity
  8
SEIHIN
100
AcDbLine
 10
204.4241924794777
 20
217.9254510221884
 30
0.0
 11
204.4241924794777
 21
240.5254510221883
 31
0.0
  0
ARC
  5
3B5F
330
1A
100
AcDbEntity
  8
SEIHIN
100
AcDbCircle
 10
205.2241924794777
 20
217.9254510221884
 30
0.0
 40
0.8
100
AcDbArc
 50
180.0000000000061
 51
269.9999999999979
  0
ARC
  5
3B60
330
1A
100
AcDbEntity
  8
SEIHIN
100
AcDbCircle
 10
209.7521560794777
 20
217.9254510221884
 30
0.0
 40
0.8
100
AcDbArc
 50
0.0
 51
90.00000000000204
  0
ARC
  5
3B61
330
1A
100
AcDbEntity
  8
SEIHIN
100
AcDbCircle
 10
208.7665891794777
 20
216.8254510221884
 30
0.0
 40
0.3
100
AcDbArc
 50
359.9999999999891
 51
90.00000000001085
  0
LINE
  5
3B62
330
1A
100
AcDbEntity
  8
SEIHIN
100
AcDbLine
 10
205.9097593934794
 20
219.0254510221884
 30
0.0
 11
205.9097593934794
 21
239.4254510221884
 31
0.0
  0
ARC
  5
3B63
330
1A
100
AcDbEntity
  8
SEIHIN
100
AcDbCircle
 10
206.2097593934794
 20
219.0254510221883
 30
0.0
 40
0.3
100
AcDbArc
 50
179.9999999999837
 51
270.0000000000108
  0
LINE
  5
3B67
330
1A
100
AcDbEntity
  8
SEIHIN
100
AcDbLine
 10
210.0879164781195
 20
219.2254510221884
 30
0.0
 11
210.0879164781195
 21
239.2254510221884
 31
0.0
  0
LINE
  5
3B68
330
1A
100
AcDbEntity
  8
SEIHIN
100
AcDbLine
 10
223.5505975794777
 20
201.2254510221883
 30
0.0
 11
223.5505975794777
 21
217.9254510221884
 31
0.0
  0
ELLIPSE
  5
3B6D
330
1A
100
AcDbEntity
  8
SEIHIN
100
AcDbEllipse
 10
211.6663082260663
 20
201.2254510221883
 30
0.0
 11
-0.0000000000000155
 21
3.0
 31
0.0
210
0.0
220
0.0
230
1.0
 40
0.3713840488628743
 41
1.570796326794894
 42
3.141592653589778
  0
ELLIPSE
  5
3B6E
330
1A
100
AcDbEntity
  8
SEIHIN
100
AcDbEllipse
 10
222.436445432889
 20
201.2254510221883
 30
0.0
 11
0.0000000000000157
 21
3.0
 31
0.0
210
0.0
220
0.0
230
1.0
 40
0.3713840488628743
 41
3.141592653589807
 42
4.712388980384691
  0
ELLIPSE
  5
3B70
330
1A
100
AcDbEntity
  8
SEIHIN
100
AcDbEllipse
 10
210.1807413260663
 20
201.2254510221883
 30
0.0
 11
-0.0000000000000155
 21
3.0
 31
0.0
210
0.0
220
0.0
230
1.0
 40
0.3713840488628743
 41
1.570796326794894
 42
3.141592653589778
  0
LINE
  5
3B71
330
1A
100
AcDbEntity
  8
CENTER_L
100
AcDbLine
 10
213.5232284359065
 20
213.3254510221883
 30
0.0
 11
213.5232284359065
 21
201.1255954725961
 31
0.0
  0
ELLIPSE
  5
3B77
330
1A
100
AcDbEntity
  8
SEIHIN
100
AcDbEllipse
 10
213.5232284359065
 20
207.2254510221883
 30
0.0
 11
0.0
 21
2.099999999999994
 31
0.0
210
0.0
220
0.0
230
1.0
 40
0.3713840423544865
 41
0.0
 42
6.283185307179586
  0
ELLIPSE
  5
3B78
330
1A
100
AcDbEntity
  8
SEIHIN
100
AcDbEllipse
 10
220.5795252406418
 20
207.2254510221883
 30
0.0
 11
0.0
 21
2.099999999999994
 31
0.0
210
0.0
220
0.0
230
1.0
 40
0.3713840423544865
 41
0.0
 42
6.283185307179586
  0
LINE
  5
3B7A
330
1A
100
AcDbEntity
  8
CENTER_L
100
AcDbLine
 10
220.5795252406418
 20
213.3254510221883
 30
0.0
 11
220.5795252406418
 21
201.1255954725961
 31
0.0
  0
LINE
  5
3B7C
330
1A
100
AcDbEntity
  8
SEIHIN
100
AcDbLine
 10
224.5569830564218
 20
219.2254510221884
 30
0.0
 11
205.9097593934794
 21
219.2254510221884
 31
0.0
  0
LINE
  5
3B7D
330
1A
100
AcDbEntity
  8
SEIHIN
100
AcDbLine
 10
224.5569830564218
 20
219.2254510221884
 30
0.0
 11
224.5569830564218
 21
224.7254510221884
 31
0.0
  0
LINE
  5
3B7E
330
1A
100
AcDbEntity
  8
SEIHIN
100
AcDbLine
 10
218.9082008934795
 20
219.0254510221884
 30
0.0
 11
218.9082008934795
 21
219.2254510221884
 31
0.0
  0
ARC
  5
3B7F
330
1A
100
AcDbEntity
  8
SEIHIN
100
AcDbCircle
 10
222.7505975794777
 20
217.9254510221884
 30
0.0
 40
0.8
100
AcDbArc
 50
0.0
 51
90.00000000000204
  0
ARC
  5
3B80
330
1A
100
AcDbEntity
  8
SEIHIN
100
AcDbCircle
 10
219.2082008934794
 20
219.0254510221883
 30
0.0
 40
0.3
100
AcDbArc
 50
179.9999999999837
 51
270.0000000000108
  0
LINE
  5
3B81
330
1A
100
AcDbEntity
  8
SEIHIN
100
AcDbLine
 10
223.5505975794777
 20
257.2254510221883
 30
0.0
 11
223.5505975794777
 21
240.5254510221884
 31
0.0
  0
LINE
  5
3B82
330
1A
100
AcDbEntity
  8
CENTER_L
100
AcDbLine
 10
220.5795252406418
 20
245.1254510221883
 30
0.0
 11
220.5795252406418
 21
257.3253065717806
 31
0.0
  0
LINE
  5
3B83
330
1A
100
AcDbEntity
  8
CENTER_L
100
AcDbLine
 10
213.5232284359065
 20
245.1254510221883
 30
0.0
 11
213.5232284359065
 21
257.3253065717806
 31
0.0
  0
LINE
  5
3B84
330
1A
100
AcDbEntity
  8
SEIHIN
100
AcDbLine
 10
209.0665891794776
 20
241.6254510221884
 30
0.0
 11
209.0665891794776
 21
257.2254510221883
 31
0.0
  0
LINE
  5
3B85
330
1A
100
AcDbEntity
  8
SEIHIN
100
AcDbLine
 10
210.5521560794776
 20
240.5254510221884
 30
0.0
 11
210.5521560794776
 21
257.2254510221883
 31
0.0
  0
LINE
  5
3B86
330
1A
100
AcDbEntity
  8
SEIHIN
100
AcDbLine
 10
222.436445432889
 20
260.2254510221884
 30
0.0
 11
210.1807413260663
 21
260.2254510221884
 31
0.0
  0
ELLIPSE
  5
3B87
330
1A
100
AcDbEntity
  8
SEIHIN
100
AcDbEllipse
 10
210.1807413260663
 20
257.2254510221883
 30
0.0
 11
-0.0000000000000017
 21
3.0
 31
0.0
210
0.0
220
0.0
230
-1.0
 40
0.3713840488628743
 41
-1.570796326794896
 42
0.0000000000000018
  0
ELLIPSE
  5
3B88
330
1A
100
AcDbEntity
  8
SEIHIN
100
AcDbEllipse
 10
211.6663082260663
 20
257.2254510221883
 30
0.0
 11
-0.0000000000000017
 21
3.0
 31
0.0
210
0.0
220
0.0
230
-1.0
 40
0.3713840488628743
 41
-1.570796326794896
 42
0.0000000000000018
  0
ELLIPSE
  5
3B89
330
1A
100
AcDbEntity
  8
SEIHIN
100
AcDbEllipse
 10
222.436445432889
 20
257.2254510221883
 30
0.0
 11
0.0000000000000019
 21
3.0
 31
0.0
210
0.0
220
0.0
230
-1.0
 40
0.3713840488628742
 41
-0.000000000000002
 42
1.570796326794896
  0
LINE
  5
3B8A
330
1A
100
AcDbEntity
  8
SEIHIN
100
AcDbLine
 10
224.5569830564218
 20
239.2254510221883
 30
0.0
 11
205.9097593934794
 21
239.2254510221884
 31
0.0
  0
LINE
  5
3B8B
330
1A
100
AcDbEntity
  8
SEIHIN
100
AcDbLine
 10
222.7505975794776
 20
239.7254510221884
 30
0.0
 11
206.2097593934794
 21
239.7254510221884
 31
0.0
  0
LINE
  5
3B8C
330
1A
100
AcDbEntity
  8
CENTER_L
100
AcDbLine
 10
208.743186983639
 20
251.2254510221883
 30
0.0
 11
225.8401436091413
 21
251.2254510221883
 31
0.0
  0
ELLIPSE
  5
3B8D
330
1A
100
AcDbEntity
  8
SEIHIN
100
AcDbEllipse
 10
213.5232284359065
 20
251.2254510221883
 30
0.0
 11
0.0
 21
-2.099999999999994
 31
0.0
210
0.0
220
0.0
230
-1.0
 40
0.3713840423544865
 41
0.0
 42
6.283185307179586
  0
ARC
  5
3B8E
330
1A
100
AcDbEntity
  8
SEIHIN
100
AcDbCircle
 10
209.7521560794777
 20
240.5254510221884
 30
0.0
 40
0.8
100
AcDbArc
 50
269.9999999999979
 51
0.0
  0
LINE
  5
3B8F
330
1A
100
AcDbEntity
  8
SEIHIN
100
AcDbLine
 10
205.2241924794777
 20
241.3254510221884
 30
0.0
 11
208.7665891794776
 21
241.3254510221884
 31
0.0
  0
ARC
  5
3B90
330
1A
100
AcDbEntity
  8
SEIHIN
100
AcDbCircle
 10
205.2241924794777
 20
240.5254510221883
 30
0.0
 40
0.8
100
AcDbArc
 50
90.00000000000204
 51
179.9999999999938
  0
ARC
  5
3B91
330
1A
100
AcDbEntity
  8
SEIHIN
100
AcDbCircle
 10
206.2097593934794
 20
239.4254510221884
 30
0.0
 40
0.3
100
AcDbArc
 50
89.99999999998918
 51
180.0000000000162
  0
ARC
  5
3B92
330
1A
100
AcDbEntity
  8
SEIHIN
100
AcDbCircle
 10
208.7665891794777
 20
241.6254510221883
 30
0.0
 40
0.3
100
AcDbArc
 50
269.9999999999891
 51
0.0000000000108534
  0
ELLIPSE
  5
3B93
330
1A
100
AcDbEntity
  8
SEIHIN
100
AcDbEllipse
 10
220.5795252406418
 20
251.2254510221883
 30
0.0
 11
0.0
 21
-2.099999999999994
 31
0.0
210
0.0
220
0.0
230
-1.0
 40
0.3713840423544865
 41
0.0
 42
6.283185307179586
  0
LINE
  5
3B94
330
1A
100
AcDbEntity
  8
SEIHIN
100
AcDbLine
 10
218.9082008934795
 20
239.4254510221883
 30
0.0
 11
218.9082008934795
 21
239.2254510221883
 31
0.0
  0
ARC
  5
3B95
330
1A
100
AcDbEntity
  8
SEIHIN
100
AcDbCircle
 10
219.2082008934794
 20
239.4254510221884
 30
0.0
 40
0.3
100
AcDbArc
 50
89.99999999998918
 51
180.0000000000162
  0
ARC
  5
3B96
330
1A
100
AcDbEntity
  8
SEIHIN
100
AcDbCircle
 10
222.7505975794777
 20
240.5254510221884
 30
0.0
 40
0.8
100
AcDbArc
 50
269.9999999999979
 51
0.0
  0
LINE
  5
3B98
330
1A
100
AcDbEntity
  8
SEIHIN
100
AcDbLine
 10
224.0569830564218
 20
225.2254510221883
 30
0.0
 11
224.0569830564218
 21
233.2254510221883
 31
0.0
  0
LINE
  5
3B9A
330
1A
100
AcDbEntity
  8
SEIHIN
100
AcDbLine
 10
224.5569830564218
 20
233.7254510221884
 30
0.0
 11
224.0569830564218
 21
233.2254510221883
 31
0.0
  0
LINE
  5
3B9B
330
1A
100
AcDbEntity
  8
SEIHIN
100
AcDbLine
 10
224.5569830564218
 20
224.7254510221883
 30
0.0
 11
224.0569830564218
 21
225.2254510221884
 31
0.0
  0
LINE
  5
3B9C
330
1A
100
AcDbEntity
  8
SEIHIN
100
AcDbLine
 10
224.5569830564218
 20
233.7254510221884
 30
0.0
 11
224.5569830564218
 21
239.2254510221883
 31
0.0
  0
LINE
  5
3BD8
330
1A
100
AcDbEntity
  8
SEIHIN
100
AcDbLine
 10
351.9061965036891
 20
150.4554564700007
 30
0.0
 11
333.3366096248066
 21
143.0277755972349
 31
0.0
  0
LINE
  5
3BDB
330
1A
100
AcDbEntity
  8
SEIHIN
100
AcDbLine
 10
208.5094553817033
 20
133.063519729552
 30
0.0
 11
209.994991541269
 21
129.3496023477807
 31
0.0
  0
LINE
  5
3BDC
330
1A
100
AcDbEntity
  8
CENTER_L
100
AcDbLine
 10
208.5094553817033
 20
133.063519729552
 30
0.0
 11
210.3664140719994
 21
133.8062878108088
 31
0.0
  0
LINE
  5
3BDD
330
1A
100
AcDbEntity
  8
SEIHIN
100
AcDbLine
 10
208.5094553817033
 20
133.063519729552
 30
0.0
 11
210.3664140719994
 21
133.8062878108088
 31
0.0
  0
LINE
  5
3BDE
330
1A
100
AcDbEntity
  8
SEIHIN
100
AcDbLine
 10
209.994991541269
 20
129.3496023477807
 30
0.0
 11
211.851950231565
 21
130.0923704290376
 31
0.0
  0
LINE
  5
3BE0
330
1A
100
AcDbEntity
  8
SEIHIN
100
AcDbLine
 10
215.5657521864386
 20
115.4224121848574
 30
0.0
 11
217.4227108767346
 21
116.1651802661141
 31
0.0
  0
LINE
  5
3BE1
330
1A
100
AcDbEntity
  8
SEIHIN
100
AcDbLine
 10
215.5657521864386
 20
115.4224121848574
 30
0.0
 11
217.0512883460042
 21
111.708494803086
 31
0.0
  0
LINE
  5
3BE2
330
1A
100
AcDbEntity
  8
SEIHIN
100
AcDbLine
 10
215.5657521864386
 20
115.4224121848574
 30
0.0
 11
217.4227108767346
 21
116.1651802661141
 31
0.0
  0
LINE
  5
3BE3
330
1A
100
AcDbEntity
  8
SEIHIN
100
AcDbLine
 10
217.0512883460042
 20
111.708494803086
 30
0.0
 11
218.9082470363003
 21
112.4512628843429
 31
0.0
  0
LINE
  5
3BE6
330
1A
100
AcDbEntity
  8
SEIHIN
100
AcDbLine
 10
214.5232284359066
 20
216.7254510221884
 30
0.0
 11
212.5232284359066
 21
216.7254510221884
 31
0.0
  0
LINE
  5
3BE7
330
1A
100
AcDbEntity
  8
SEIHIN
100
AcDbLine
 10
212.5232284359066
 20
216.7254510221884
 30
0.0
 11
212.5232284359066
 21
217.9254510221884
 31
0.0
  0
LINE
  5
3BE8
330
1A
100
AcDbEntity
  8
SEIHIN
100
AcDbLine
 10
214.5232284359066
 20
216.7254510221884
 30
0.0
 11
214.5232284359066
 21
217.9254510221884
 31
0.0
  0
LINE
  5
3BEB
330
1A
100
AcDbEntity
  8
SEIHIN
100
AcDbLine
 10
221.5795252406417
 20
216.7254510221884
 30
0.0
 11
219.5795252406417
 21
216.7254510221884
 31
0.0
  0
LINE
  5
3BEC
330
1A
100
AcDbEntity
  8
SEIHIN
100
AcDbLine
 10
219.5795252406417
 20
216.7254510221884
 30
0.0
 11
219.5795252406417
 21
217.9254510221884
 31
0.0
  0
LINE
  5
3BED
330
1A
100
AcDbEntity
  8
SEIHIN
100
AcDbLine
 10
221.5795252406417
 20
216.7254510221884
 30
0.0
 11
221.5795252406417
 21
217.9254510221884
 31
0.0
  0
LINE
  5
3BEE
330
1A
100
AcDbEntity
  8
SEIHIN
100
AcDbLine
 10
214.5232284359066
 20
241.7254510221884
 30
0.0
 11
212.5232284359066
 21
241.7254510221884
 31
0.0
  0
LINE
  5
3BEF
330
1A
100
AcDbEntity
  8
SEIHIN
100
AcDbLine
 10
212.5232284359066
 20
241.7254510221884
 30
0.0
 11
212.5232284359066
 21
240.5254510221884
 31
0.0
  0
LINE
  5
3BF0
330
1A
100
AcDbEntity
  8
SEIHIN
100
AcDbLine
 10
214.5232284359066
 20
241.7254510221884
 30
0.0
 11
214.5232284359066
 21
240.5254510221884
 31
0.0
  0
LINE
  5
3BF1
330
1A
100
AcDbEntity
  8
SEIHIN
100
AcDbLine
 10
221.5795252406417
 20
241.7254510221884
 30
0.0
 11
221.5795252406417
 21
240.5254510221884
 31
0.0
  0
LINE
  5
3BF2
330
1A
100
AcDbEntity
  8
SEIHIN
100
AcDbLine
 10
219.5795252406417
 20
241.7254510221884
 30
0.0
 11
219.5795252406417
 21
240.5254510221884
 31
0.0
  0
LINE
  5
3BF3
330
1A
100
AcDbEntity
  8
SEIHIN
100
AcDbLine
 10
221.5795252406417
 20
241.7254510221884
 30
0.0
 11
219.5795252406417
 21
241.7254510221884
 31
0.0
  0
ARC
  5
3BF6
330
1A
100
AcDbEntity
  8
SEIHIN
100
AcDbCircle
 10
220.7795252406418
 20
217.9254510221884
 30
0.0
 40
0.8
100
AcDbArc
 50
0.0
 51
90.00000000000204
  0
ARC
  5
3BF7
330
1A
100
AcDbEntity
  8
SEIHIN
100
AcDbCircle
 10
218.7795252406418
 20
217.9254510221884
 30
0.0
 40
0.8
100
AcDbArc
 50
0.0
 51
90.00000000000204
  0
ARC
  5
3BF8
330
1A
100
AcDbEntity
  8
SEIHIN
100
AcDbCircle
 10
211.7232284359065
 20
217.9254510221884
 30
0.0
 40
0.8
100
AcDbArc
 50
0.0
 51
90.00000000000204
  0
ARC
  5
3BF9
330
1A
100
AcDbEntity
  8
SEIHIN
100
AcDbCircle
 10
213.7232284359065
 20
217.9254510221884
 30
0.0
 40
0.8
100
AcDbArc
 50
0.0
 51
90.00000000000204
  0
ARC
  5
3BFA
330
1A
100
AcDbEntity
  8
SEIHIN
100
AcDbCircle
 10
213.7232284359065
 20
240.5254510221884
 30
0.0
 40
0.8
100
AcDbArc
 50
269.9999999999979
 51
0.0
  0
ARC
  5
3BFB
330
1A
100
AcDbEntity
  8
SEIHIN
100
AcDbCircle
 10
211.7232284359065
 20
240.5254510221884
 30
0.0
 40
0.8
100
AcDbArc
 50
269.9999999999979
 51
0.0
  0
ARC
  5
3BFC
330
1A
100
AcDbEntity
  8
SEIHIN
100
AcDbCircle
 10
218.7795252406418
 20
240.5254510221884
 30
0.0
 40
0.8
100
AcDbArc
 50
269.9999999999979
 51
0.0
  0
ARC
  5
3BFD
330
1A
100
AcDbEntity
  8
SEIHIN
100
AcDbCircle
 10
220.7795252406418
 20
240.5254510221884
 30
0.0
 40
0.8
100
AcDbArc
 50
269.9999999999979
 51
0.0
  0
DIMENSION
  5
3C2E
330
1A
100
AcDbEntity
  8
SUNPOU
100
AcDbDimension
  2
*D8
 10
224.5569830564218
 20
179.2822746834564
 30
0.0
 11
150.0564738179497
 21
181.7822746834564
 31
0.0
 70
    32
  3
STANDARD
100
AcDbAlignedDimension
 13
75.55596457947769
 23
81.89446771989729
 33
0.0
 14
224.5569830564218
 24
102.9244711198973
 34
0.0
100
AcDbRotatedDimension
1001
ACAD
1000
DSTYLE
1002
{
1070
    41
1040
3.0
1070
    42
1040
3.0
1070
    43
1040
7.0
1070
    44
1040
1.5
1070
    73
1070
     0
1070
    74
1070
     0
1070
    77
1070
     3
1070
   140
1040
3.0
1070
   141
1040
3.0
1070
   147
1040
1.0
1070
   172
1070
     1
1070
   173
1070
     1
1070
   176
1070
   256
1070
   177
1070
   256
1070
   178
1070
   256
1070
   271
1070
     0
1070
   272
1070
     0
1070
   341
1005
B2
1070
     6
1000
OPEN
1070
     7
1000
OPEN
1002
}
  0
DIMENSION
  5
3C48
330
1A
100
AcDbEntity
  8
SUNPOU
100
AcDbDimension
  2
*D9
 10
246.7784637840011
 20
117.1369392843544
 30
0.0
 11
242.6004413951452
 21
134.3137879402406
 31
0.0
 70
    33
  3
STANDARD
100
AcDbAlignedDimension
 13
210.5521560794776
 23
140.3427624198973
 33
0.0
 14
223.5505975794777
 24
107.8459853198973
 34
0.0
1001
ACAD
1000
DSTYLE
1002
{
1070
    41
1040
3.0
1070
    42
1040
3.0
1070
    43
1040
7.0
1070
    44
1040
1.5
1070
    73
1070
     0
1070
    74
1070
     0
1070
    77
1070
     3
1070
   140
1040
3.0
1070
   141
1040
3.0
1070
   147
1040
1.0
1070
   172
1070
     1
1070
   173
1070
     1
1070
   176
1070
   256
1070
   177
1070
   256
1070
   178
1070
   256
1070
   271
1070
     0
1070
   272
1070
     0
1070
   341
1005
B2
1070
     6
1000
OPEN
1070
     7
1000
OPEN
1002
}
  0
DIMENSION
  5
3C55
330
1A
100
AcDbEntity
  8
SUNPOU
100
AcDbDimension
  2
*D10
 10
246.4933546166748
 20
198.2254510221883
 30
0.0
 11
243.9933546166748
 21
229.2254510221884
 31
0.0
 70
    32
  3
STANDARD
100
AcDbAlignedDimension
 13
222.436445432889
 23
260.2254510221884
 33
0.0
 14
222.436445432889
 24
198.2254510221883
 34
0.0
 50
90.0
100
AcDbRotatedDimension
1001
ACAD
1000
DSTYLE
1002
{
1070
    41
1040
3.0
1070
    42
1040
3.0
1070
    43
1040
7.0
1070
    44
1040
1.5
1070
    73
1070
     0
1070
    74
1070
     0
1070
    77
1070
     3
1070
   140
1040
3.0
1070
   141
1040
3.0
1070
   147
1040
1.0
1070
   172
1070
     1
1070
   173
1070
     1
1070
   176
1070
   256
1070
   177
1070
   256
1070
   178
1070
   256
1070
   271
1070
     0
1070
   272
1070
     0
1070
   341
1005
B2
1070
     6
1000
OPEN
1070
     7
1000
OPEN
1002
}
  0
DIMENSION
  5
3C62
330
1A
100
AcDbEntity
  8
SUNPOU
100
AcDbDimension
  2
*D11
 10
224.5569830564218
 20
170.1134997930678
 30
0.0
 11
176.3064738179497
 21
172.6134997930678
 31
0.0
 70
    32
  3
STANDARD
100
AcDbAlignedDimension
 13
128.0559645794776
 23
83.19446771989731
 33
0.0
 14
224.5569830564218
 24
102.9244711198973
 34
0.0
100
AcDbRotatedDimension
1001
ACAD
1000
DSTYLE
1002
{
1070
    41
1040
3.0
1070
    42
1040
3.0
1070
    43
1040
7.0
1070
    44
1040
1.5
1070
    73
1070
     0
1070
    74
1070
     0
1070
    77
1070
     3
1070
   140
1040
3.0
1070
   141
1040
3.0
1070
   147
1040
1.0
1070
   172
1070
     1
1070
   173
1070
     1
1070
   176
1070
   256
1070
   177
1070
   256
1070
   178
1070
   256
1070
   271
1070
     0
1070
   272
1070
     0
1070
   341
1005
B2
1070
     6
1000
OPEN
1070
     7
1000
OPEN
1002
}
  0
LINE
  5
3FE1
330
1A
100
AcDbEntity
  8
SEIHIN
100
AcDbLine
 10
167.7956931636728
 20
99.27895031646487
 30
0.0
 11
217.1901957794776
 21
102.8266369198973
 31
0.0
  0
LINE
  5
3FE2
330
1A
100
AcDbEntity
  8
SEIHIN
100
AcDbLine
 10
167.8190107552947
 20
98.27922224935559
 30
0.0
 11
219.1093182288581
 21
101.9258415411432
 31
0.0
  0
LINE
  5
3FE3
330
1A
100
AcDbEntity
  8
SEIHIN
100
AcDbLine
 10
169.4282731300096
 20
93.85970676645191
 30
0.0
 11
219.3448308803104
 21
97.43200870400936
 31
0.0
  0
DIMENSION
  5
3FE4
330
1A
100
AcDbEntity
  8
SUNPOU
100
AcDbDimension
  2
*D12
 10
48.72515181114
 20
140.3427624198973
 30
0.0
 11
46.22515181113997
 21
111.6696470521224
 31
0.0
 70
    32
  3
STANDARD
100
AcDbAlignedDimension
 13
75.55596457947769
 23
82.99653168434746
 33
0.0
 14
210.5521560794776
 24
140.3427624198973
 34
0.0
 50
90.0
100
AcDbRotatedDimension
1001
ACAD
1000
DSTYLE
1002
{
1070
    41
1040
3.0
1070
    42
1040
3.0
1070
    43
1040
7.0
1070
    44
1040
1.5
1070
    73
1070
     0
1070
    74
1070
     0
1070
    77
1070
     3
1070
   140
1040
3.0
1070
   141
1040
3.0
1070
   147
1040
1.0
1070
   172
1070
     1
1070
   173
1070
     1
1070
   176
1070
   256
1070
   177
1070
   256
1070
   178
1070
   256
1070
   271
1070
     0
1070
   272
1070
     0
1070
   341
1005
B2
1070
     6
1000
OPEN
1070
     7
1000
OPEN
1002
}
  0
TEXT
  5
41C5
330
1A
100
AcDbEntity
  8
MOJI
100
AcDbText
 10
119.9136010211517
 20
9.002460288415193
 30
0.0
 40
2.799999999999999
  1
亜鉛メッキ金具正面打（吊）ストロング高強度金具（釣針型）
 41
0.9
  7
ｽﾀｲﾙ1
100
AcDbText
  0
LINE
  5
41C6
330
1A
100
AcDbEntity
  8
ZUWAKU
100
AcDbLine
 10
104.3233003257602
 20
7.599999759711518
 30
0.0
 11
223.7121816662219
 21
7.599999759711515
 31
0.0
  0
LINE
  5
41C7
330
1A
100
AcDbEntity
  8
ZUWAKU
100
AcDbLine
 10
104.3233003257602
 20
7.799999759711516
 30
0.0
 11
223.7121816662219
 21
7.79999975971152
 31
0.0
  0
LINE
  5
41C8
330
1A
100
AcDbEntity
  8
ZUWAKU
100
AcDbLine
 10
104.3233003257602
 20
7.699999759711516
 30
0.0
 11
223.7121816662219
 21
7.699999759711516
 31
0.0
  0
LINE
  5
41C9
330
1A
100
AcDbEntity
  8
ZUWAKU
100
AcDbLine
 10
-0.000000319273795
 20
15.3999997597115
 30
0.0
 11
398.6999996807261
 21
15.3999997597115
 31
0.0
  0
LINE
  5
41CA
330
1A
100
AcDbEntity
  8
ZUWAKU
100
AcDbLine
 10
-0.000000319273795
 20
15.2999997597115
 30
0.0
 11
398.6999996807261
 21
15.2999997597115
 31
0.0
  0
LINE
  5
41CB
330
1A
100
AcDbEntity
  8
ZUWAKU
100
AcDbLine
 10
-0.000000319273795
 20
15.1999997597115
 30
0.0
 11
398.6999996807261
 21
15.1999997597115
 31
0.0
  0
LINE
  5
41CC
330
1A
100
AcDbEntity
  8
ZUWAKU
100
AcDbLine
 10
-0.000000319273795
 20
15.0999997597115
 30
0.0
 11
398.6999996807261
 21
15.0999997597115
 31
0.0
  0
LINE
  5
41CD
330
1A
100
AcDbEntity
  8
ZUWAKU
100
AcDbLine
 10
-0.000000319273795
 20
14.99999975971149
 30
0.0
 11
398.6999996807261
 21
14.99999975971149
 31
0.0
  0
LWPOLYLINE
  5
41CE
330
1A
100
AcDbEntity
  8
ZUWAKU
100
AcDbPolyline
 90
        4
 70
     1
 43
0.0
 10
0.099999680726171
 20
275.6999997597115
 10
0.099999680726171
 20
0.0999997597115226
 10
398.6999996807261
 20
0.0999997597115341
 10
398.6999996807262
 20
275.6999997597115
  0
LWPOLYLINE
  5
41CF
330
1A
100
AcDbEntity
  8
ZUWAKU
100
AcDbPolyline
 90
        4
 70
     1
 43
0.0
 10
0.2999996807261596
 20
275.4999997597115
 10
0.2999996807261596
 20
0.2999997597115111
 10
398.4999996807263
 20
0.2999997597115342
 10
398.4999996807262
 20
275.4999997597115
  0
LWPOLYLINE
  5
41D0
330
1A
100
AcDbEntity
  8
ZUWAKU
100
AcDbPolyline
 90
        4
 70
     1
 43
0.0
 10
-0.000000319273795
 20
275.7999997597115
 10
-0.000000319273795
 20
-0.0000002402885002
 10
398.7999996807262
 20
-0.0000002402884665
 10
398.7999996807262
 20
275.7999997597115
  0
LWPOLYLINE
  5
41D1
330
1A
100
AcDbEntity
  8
ZUWAKU
100
AcDbPolyline
 90
        4
 70
     1
 43
0.0
 10
0.1999996807261937
 20
275.5999997597115
 10
0.1999996807261937
 20
0.1999997597115453
 10
398.5999996807262
 20
0.1999997597115337
 10
398.5999996807262
 20
275.5999997597115
  0
LWPOLYLINE
  5
41D2
330
1A
100
AcDbEntity
  8
ZUWAKU
100
AcDbPolyline
 90
        4
 70
     1
 43
0.0
 10
0.3999996807261823
 20
275.3999997597115
 10
0.3999996807261823
 20
0.3999997597115339
 10
398.3999996807261
 20
0.3999997597115339
 10
398.3999996807261
 20
275.3999997597115
  0
TEXT
  5
41D3
330
1A
100
AcDbEntity
  8
MOJI
100
AcDbText
 10
46.47889447481077
 20
6.37058882484888
 30
0.0
 40
3.0
  1
新・丸トップＲＶ１０５
 41
0.9
  7
ｽﾀｲﾙ1
100
AcDbText
  0
HATCH
  5
41D4
330
1A
100
AcDbEntity
  8
ZUWAKU
100
AcDbHatch
 10
0.0
 20
0.0
 30
0.0
210
0.0
220
0.0
230
1.0
  2
ANSI37
 70
     0
 71
     0
 91
        8
 92
        7
 72
     1
 73
     1
 93
       24
 10
7.251131011286133
 20
8.822424000203291
 42
-0.1989123673796348
 10
7.046105758116766
 20
9.317398747033816
 42
0.0
 10
7.046105758116766
 20
9.962499759711505
 42
-0.4142135623730912
 10
7.308605758116755
 20
10.2249997597115
 42
0.0
 10
8.796105758116709
 20
10.2249997597115
 42
0.4142135623731546
 10
9.058605758116755
 20
10.48749975971149
 42
0.0
 10
9.058605758116755
 20
11.3624997597115
 42
0.4142135623731586
 10
8.796105758116709
 20
11.6249997597115
 42
0.0
 10
7.046105758116766
 20
11.6249997597115
 42
0.4142135623730928
 10
5.646105758116789
 20
10.22499975971151
 42
0.0
 10
5.646105758116789
 20
9.31739874703388
 42
0.1989123673796619
 10
6.261181517625004
 20
7.832474506542077
 42
0.0
 10
7.716080504947342
 20
6.377575519219748
 42
-0.1989123673796613
 10
7.921105758116766
 20
5.882600772389155
 42
0.0
 10
7.921105758116766
 20
5.237499759711496
 42
-0.4142135623730911
 10
7.658605758116777
 20
4.974999759711501
 42
0.0
 10
6.171105758116823
 20
4.974999759711501
 42
0.4142135623731526
 10
5.908605758116777
 20
4.712499759711507
 42
0.0
 10
5.908605758116777
 20
3.837499759711496
 42
0.4142135623731526
 10
6.171105758116823
 20
3.574999759711502
 42
0.0
 10
7.921105758116766
 20
3.574999759711502
 42
0.4142135623731044
 10
9.3211057581168
 20
4.97499975971149
 42
0.0
 10
9.3211057581168
 20
5.882600772389126
 42
0.1989123673796604
 10
8.706029998608528
 20
7.367525012880896
 42
0.0
 97
        0
 92
        7
 72
     1
 73
     1
 93
       16
 10
11.77110575811678
 20
9.524999759711505
 42
-0.4142135623730935
 10
12.47110575811677
 20
10.2249997597115
 42
0.0
 10
13.43360575811675
 20
10.2249997597115
 42
0.4142135623731546
 10
13.6961057581168
 20
10.48749975971149
 42
0.0
 10
13.6961057581168
 20
11.3624997597115
 42
0.4142135623730951
 10
13.43360575811681
 20
11.6249997597115
 42
0.0
 10
12.47110575811672
 20
11.62499975971148
 42
0.4142135623730892
 10
10.37110575811675
 20
9.524999759711469
 42
0.0
 10
10.37110575811675
 20
5.674999759711514
 42
0.4142135623730969
 10
12.47110575811677
 20
3.574999759711502
 42
0.0
 10
13.43360575811675
 20
3.574999759711502
 42
0.4142135623731526
 10
13.6961057581168
 20
3.837499759711496
 42
0.0
 10
13.6961057581168
 20
4.712499759711507
 42
0.4142135623730891
 10
13.43360575811681
 20
4.974999759711501
 42
0.0
 10
12.47110575811677
 20
4.974999759711501
 42
-0.4142135623730928
 10
11.77110575811678
 20
5.674999759711495
 42
0.0
 97
        0
 92
        7
 72
     1
 73
     1
 93
        2
 10
12.12110575811675
 20
7.599999759711501
 42
1.0
 10
13.87110575811675
 20
7.599999759711501
 42
1.0
 97
        0
 92
        7
 72
     1
 73
     1
 93
       26
 10
18.65742899920576
 20
9.602523356493215
 42
0.0
 10
19.18824881577467
 20
11.28345277562801
 42
0.5069206636600134
 10
18.93793336617699
 20
11.6249997597115
 42
0.0
 10
18.08848867637237
 20
11.6249997597115
 42
0.3272098845218764
 10
17.8381732267747
 20
11.44154674379498
 42
0.0
 10
16.90403828945881
 20
8.483452775628041
 42
-0.3272098845219541
 10
16.65372283986107
 20
8.2999997597115
 42
0.0
 10
16.58360575811684
 20
8.2999997597115
 42
-0.4142135623731526
 10
16.3211057581168
 20
8.562499759711494
 42
0.0
 10
16.3211057581168
 20
11.3624997597115
 42
0.4142135623730951
 10
16.05860575811681
 20
11.6249997597115
 42
0.0
 10
15.18360575811675
 20
11.6249997597115
 42
0.4142135623730871
 10
14.92110575811676
 20
11.36249975971151
 42
0.0
 10
14.92110575811676
 20
3.837499759711496
 42
0.4142135623730891
 10
15.18360575811675
 20
3.574999759711502
 42
0.0
 10
16.05860575811675
 20
3.574999759711502
 42
0.4142135623731526
 10
16.3211057581168
 20
3.837499759711496
 42
0.0
 10
16.3211057581168
 20
6.637499759711507
 42
-0.4142135623731526
 10
16.58360575811684
 20
6.899999759711501
 42
0.0
 10
16.65372283986113
 20
6.899999759711501
 42
-0.3272098845218915
 10
16.90403828945881
 20
6.716546743794964
 42
0.0
 10
17.8381732267747
 20
3.758452775628038
 42
0.3272098845218902
 10
18.08848867637237
 20
3.574999759711502
 42
0.0
 10
18.93793336617699
 20
3.574999759711502
 42
0.5069206636600335
 10
19.18824881577467
 20
3.916546743795006
 42
0.0
 10
18.02505312653784
 20
7.59999975971157
 42
0.0
 97
        0
 92
        7
 72
     1
 73
     1
 93
        8
 10
21.74610575811675
 20
11.3624997597115
 42
0.4142135623731546
 10
21.48360575811671
 20
11.6249997597115
 42
0.0
 10
20.60860575811682
 20
11.6249997597115
 42
0.4142135623731507
 10
20.34610575811677
 20
11.36249975971151
 42
0.0
 10
20.34610575811677
 20
3.837499759711496
 42
0.4142135623731526
 10
20.60860575811682
 20
3.574999759711502
 42
0.0
 10
21.48360575811671
 20
3.574999759711502
 42
0.4142135623731526
 10
21.74610575811675
 20
3.837499759711496
 42
0.0
 97
        0
 92
        7
 72
     1
 73
     1
 93
       24
 10
24.1961057581168
 20
9.962499759711505
 42
-0.4142135623731546
 10
24.45860575811684
 20
10.2249997597115
 42
0.0
 10
25.9461057581168
 20
10.2249997597115
 42
0.4142135623730911
 10
26.20860575811679
 20
10.48749975971149
 42
0.0
 10
26.20860575811679
 20
11.3624997597115
 42
0.4142135623730952
 10
25.9461057581168
 20
11.6249997597115
 42
0.0
 10
24.1961057581168
 20
11.6249997597115
 42
0.4142135623731048
 10
22.79610575811676
 20
10.22499975971151
 42
0.0
 10
22.79610575811676
 20
9.31739874703388
 42
0.1989123673796613
 10
23.41118151762504
 20
7.832474506542105
 42
0.0
 10
24.86608050494737
 20
6.377575519219771
 42
-0.1989123673796402
 10
25.0711057581168
 20
5.882600772389235
 42
0.0
 10
25.0711057581168
 20
5.237499759711496
 42
-0.4142135623730911
 10
24.80860575811681
 20
4.974999759711501
 42
0.0
 10
23.3211057581168
 20
4.974999759711501
 42
0.4142135623731526
 10
23.05860575811675
 20
4.712499759711507
 42
0.0
 10
23.05860575811675
 20
3.837499759711496
 42
0.4142135623730891
 10
23.32110575811674
 20
3.574999759711502
 42
0.0
 10
25.0711057581168
 20
3.574999759711502
 42
0.4142135623730925
 10
26.47110575811677
 20
4.97499975971149
 42
0.0
 10
26.47110575811677
 20
5.882600772389126
 42
0.1989123673796675
 10
25.8560299986085
 20
7.367525012880953
 42
0.0
 10
24.40113101128622
 20
8.822424000203211
 42
-0.1989123673796652
 10
24.1961057581168
 20
9.317398747033795
 42
0.0
 97
        0
 92
        7
 72
     1
 73
     1
 93
       16
 10
28.92110575811676
 20
11.36249975971149
 42
0.414213562373103
 10
28.65860575811677
 20
11.6249997597115
 42
0.0
 10
27.78360575811678
 20
11.6249997597115
 42
0.4142135623730871
 10
27.52110575811679
 20
11.36249975971151
 42
0.0
 10
27.52110575811679
 20
4.97499975971149
 42
0.4142135623730926
 10
28.92110575811676
 20
3.574999759711502
 42
0.0
 10
30.67110575811677
 20
3.574999759711502
 42
0.4142135623731044
 10
32.0711057581168
 20
4.97499975971149
 42
0.0
 10
32.0711057581168
 20
11.3624997597115
 42
0.4142135623730951
 10
31.80860575811681
 20
11.6249997597115
 42
0.0
 10
30.93360575811675
 20
11.6249997597115
 42
0.4142135623730871
 10
30.67110575811677
 20
11.36249975971151
 42
0.0
 10
30.67110575811677
 20
5.499999759711489
 42
-0.414213562373088
 10
30.14610575811679
 20
4.974999759711501
 42
0.0
 10
29.4461057581168
 20
4.974999759711501
 42
-0.4142135623731197
 10
28.92110575811676
 20
5.499999759711489
 42
0.0
 97
        0
 92
        7
 72
     1
 73
     1
 93
        8
 10
34.52110575811679
 20
11.36249975971151
 42
0.4142135623730871
 10
34.2586057581168
 20
11.6249997597115
 42
0.0
 10
33.3836057581168
 20
11.6249997597115
 42
0.4142135623731507
 10
33.12110575811675
 20
11.36249975971151
 42
0.0
 10
33.12110575811675
 20
3.837499759711496
 42
0.4142135623730891
 10
33.38360575811674
 20
3.574999759711502
 42
0.0
 10
34.2586057581168
 20
3.574999759711502
 42
0.4142135623730891
 10
34.52110575811679
 20
3.837499759711496
 42
0.0
 97
        0
 75
     0
 76
     1
 52
0.0
 41
0.1
 77
     0
 78
     2
 53
45.0
 43
-450.4711524866133
 44
-6.600000240288466
 45
-0.2245064030267288
 46
0.2245064030267288
 79
     0
 53
135.0
 43
-450.4711524866133
 44
-6.600000240288466
 45
-0.2245064030267288
 46
-0.2245064030267288
 79
     0
 47
0.057451373970553
 98
        8
 10
8.039927162237859
 20
7.583586582654277
 10
11.20225718394578
 20
9.422030850937005
 10
12.58218362355603
 20
7.755940582746859
 10
15.45702967154477
 20
8.100648582932251
 10
20.91923569020457
 20
8.330454716703059
 10
23.44910012829097
 20
9.709287917915105
 10
28.27884266692638
 20
9.364578717259007
 10
33.91353949053757
 20
9.594384851029815
  0
LINE
  5
41D5
330
1A
100
AcDbEntity
  8
ZUWAKU
100
AcDbLine
 10
12.47110575811677
 20
11.62499975971148
 30
0.0
 11
13.43360575811675
 21
11.6249997597115
 31
0.0
  0
LINE
  5
41D6
330
1A
100
AcDbEntity
  8
ZUWAKU
100
AcDbLine
 10
13.43360575811675
 20
10.2249997597115
 30
0.0
 11
12.47110575811677
 21
10.2249997597115
 31
0.0
  0
LINE
  5
41D7
330
1A
100
AcDbEntity
  8
ZUWAKU
100
AcDbLine
 10
12.47110575811677
 20
4.974999759711501
 30
0.0
 11
13.43360575811675
 21
4.974999759711501
 31
0.0
  0
LINE
  5
41D8
330
1A
100
AcDbEntity
  8
ZUWAKU
100
AcDbLine
 10
13.43360575811675
 20
3.574999759711502
 30
0.0
 11
12.47110575811677
 21
3.574999759711502
 31
0.0
  0
CIRCLE
  5
41D9
330
1A
100
AcDbEntity
  8
ZUWAKU
100
AcDbCircle
 10
12.99610575811675
 20
7.599999759711501
 30
0.0
 40
0.875
  0
ARC
  5
41DA
330
1A
100
AcDbEntity
  8
ZUWAKU
100
AcDbCircle
 10
7.746105758116755
 20
9.317398747033852
 30
0.0
 40
0.7
100
AcDbArc
 50
180.0000000000016
 51
224.9999999999988
  0
LINE
  5
41DB
330
1A
100
AcDbEntity
  8
ZUWAKU
100
AcDbLine
 10
11.77110575811678
 20
9.524999759711501
 30
0.0
 11
11.77110575811678
 21
5.674999759711504
 31
0.0
  0
LINE
  5
41DC
330
1A
100
AcDbEntity
  8
ZUWAKU
100
AcDbLine
 10
10.37110575811675
 20
5.674999759711504
 30
0.0
 11
10.37110575811675
 21
9.52499975971148
 31
0.0
  0
ARC
  5
41DD
330
1A
100
AcDbEntity
  8
ZUWAKU
100
AcDbCircle
 10
7.746105758116755
 20
9.317398747033852
 30
0.0
 40
2.099999999999999
100
AcDbArc
 50
180.0
 51
225.0
  0
ARC
  5
41DE
330
1A
100
AcDbEntity
  8
ZUWAKU
100
AcDbCircle
 10
7.921105758116766
 20
4.974999759711501
 30
0.0
 40
1.399999999999999
100
AcDbArc
 50
270.0
 51
0.0
  0
ARC
  5
41DF
330
1A
100
AcDbEntity
  8
ZUWAKU
100
AcDbCircle
 10
12.47110575811677
 20
5.674999759711504
 30
0.0
 40
2.099999999999999
100
AcDbArc
 50
180.0
 51
270.0
  0
ARC
  5
41E0
330
1A
100
AcDbEntity
  8
ZUWAKU
100
AcDbCircle
 10
7.221105758116777
 20
5.882600772389153
 30
0.0
 40
2.099999999999999
100
AcDbArc
 50
0.0
 51
45.0
  0
LINE
  5
41E1
330
1A
100
AcDbEntity
  8
ZUWAKU
100
AcDbLine
 10
8.706029998608528
 20
7.367525012880914
 30
0.0
 11
7.25113101128619
 21
8.822424000203252
 31
0.0
  0
LINE
  5
41E2
330
1A
100
AcDbEntity
  8
ZUWAKU
100
AcDbLine
 10
7.921105758116766
 20
5.237499759711504
 30
0.0
 11
7.921105758116766
 21
5.882600772389174
 31
0.0
  0
ARC
  5
41E3
330
1A
100
AcDbEntity
  8
ZUWAKU
100
AcDbCircle
 10
7.658605758116777
 20
5.237499759711504
 30
0.0
 40
0.2625
100
AcDbArc
 50
270.0
 51
0.0
  0
ARC
  5
41E4
330
1A
100
AcDbEntity
  8
ZUWAKU
100
AcDbCircle
 10
7.221105758116777
 20
5.882600772389174
 30
0.0
 40
0.7
100
AcDbArc
 50
0.0
 51
45.0
  0
LINE
  5
41E5
330
1A
100
AcDbEntity
  8
ZUWAKU
100
AcDbLine
 10
5.908605758116777
 20
3.837499759711501
 30
0.0
 11
5.908605758116777
 21
4.712499759711501
 31
0.0
  0
ARC
  5
41E6
330
1A
100
AcDbEntity
  8
ZUWAKU
100
AcDbCircle
 10
6.171105758116766
 20
3.837499759711501
 30
0.0
 40
0.2625
100
AcDbArc
 50
180.0
 51
270.0
  0
ARC
  5
41E7
330
1A
100
AcDbEntity
  8
ZUWAKU
100
AcDbCircle
 10
6.171105758116766
 20
4.712499759711501
 30
0.0
 40
0.2625
100
AcDbArc
 50
90.0
 51
180.0
  0
LINE
  5
41E8
330
1A
100
AcDbEntity
  8
ZUWAKU
100
AcDbLine
 10
6.171105758116766
 20
3.574999759711502
 30
0.0
 11
7.921105758116766
 21
3.574999759711502
 31
0.0
  0
LINE
  5
41E9
330
1A
100
AcDbEntity
  8
ZUWAKU
100
AcDbLine
 10
6.171105758116766
 20
4.974999759711501
 30
0.0
 11
7.658605758116777
 21
4.974999759711501
 31
0.0
  0
LINE
  5
41EA
330
1A
100
AcDbEntity
  8
ZUWAKU
100
AcDbLine
 10
6.261181517625004
 20
7.832474506542091
 30
0.0
 11
7.716080504947342
 21
6.37757551921976
 31
0.0
  0
LINE
  5
41EB
330
1A
100
AcDbEntity
  8
ZUWAKU
100
AcDbLine
 10
9.3211057581168
 20
4.974999759711501
 30
0.0
 11
9.3211057581168
 21
5.882600772389174
 31
0.0
  0
ARC
  5
41EC
330
1A
100
AcDbEntity
  8
ZUWAKU
100
AcDbCircle
 10
12.47110575811677
 20
5.674999759711504
 30
0.0
 40
0.7
100
AcDbArc
 50
180.0
 51
270.0
  0
ARC
  5
41ED
330
1A
100
AcDbEntity
  8
ZUWAKU
100
AcDbCircle
 10
8.796105758116766
 20
11.3624997597115
 30
0.0
 40
0.2625
100
AcDbArc
 50
0.0
 51
90.0
  0
ARC
  5
41EE
330
1A
100
AcDbEntity
  8
ZUWAKU
100
AcDbCircle
 10
8.796105758116766
 20
10.4874997597115
 30
0.0
 40
0.2625
100
AcDbArc
 50
270.0
 51
0.0
  0
LINE
  5
41EF
330
1A
100
AcDbEntity
  8
ZUWAKU
100
AcDbLine
 10
7.046105758116766
 20
11.6249997597115
 30
0.0
 11
8.796105758116766
 21
11.6249997597115
 31
0.0
  0
ARC
  5
41F0
330
1A
100
AcDbEntity
  8
ZUWAKU
100
AcDbCircle
 10
7.308605758116755
 20
9.962499759711501
 30
0.0
 40
0.2625
100
AcDbArc
 50
90.0
 51
180.0
  0
LINE
  5
41F1
330
1A
100
AcDbEntity
  8
ZUWAKU
100
AcDbLine
 10
7.046105758116766
 20
9.962499759711501
 30
0.0
 11
7.046105758116766
 21
9.317398747033831
 31
0.0
  0
LINE
  5
41F2
330
1A
100
AcDbEntity
  8
ZUWAKU
100
AcDbLine
 10
8.796105758116766
 20
10.2249997597115
 30
0.0
 11
7.308605758116755
 21
10.2249997597115
 31
0.0
  0
LINE
  5
41F3
330
1A
100
AcDbEntity
  8
ZUWAKU
100
AcDbLine
 10
5.646105758116789
 20
10.2249997597115
 30
0.0
 11
5.646105758116789
 21
9.317398747033831
 31
0.0
  0
ARC
  5
41F4
330
1A
100
AcDbEntity
  8
ZUWAKU
100
AcDbCircle
 10
7.046105758116766
 20
10.2249997597115
 30
0.0
 40
1.399999999999999
100
AcDbArc
 50
90.0
 51
180.0
  0
LINE
  5
41F5
330
1A
100
AcDbEntity
  8
ZUWAKU
100
AcDbLine
 10
9.058605758116755
 20
11.3624997597115
 30
0.0
 11
9.058605758116755
 21
10.4874997597115
 31
0.0
  0
ARC
  5
41F6
330
1A
100
AcDbEntity
  8
ZUWAKU
100
AcDbCircle
 10
12.47110575811677
 20
9.524999759711501
 30
0.0
 40
0.7
100
AcDbArc
 50
90.0
 51
180.0
  0
ARC
  5
41F7
330
1A
100
AcDbEntity
  8
ZUWAKU
100
AcDbCircle
 10
12.47110575811677
 20
9.52499975971148
 30
0.0
 40
2.099999999999999
100
AcDbArc
 50
90.0
 51
180.0
  0
LINE
  5
41F8
330
1A
100
AcDbEntity
  8
ZUWAKU
100
AcDbLine
 10
39.66331445472031
 20
14.99999975971149
 30
0.0
 11
39.66331445472042
 21
0.3999997597115339
 31
0.0
  0
LINE
  5
41F9
330
1A
100
AcDbEntity
  8
ZUWAKU
100
AcDbLine
 10
39.76331445472033
 20
14.99999975971149
 30
0.0
 11
39.76331445472044
 21
0.3999997597115339
 31
0.0
  0
LINE
  5
41FA
330
1A
100
AcDbEntity
  8
ZUWAKU
100
AcDbLine
 10
39.5633144547204
 20
14.99999975971149
 30
0.0
 11
39.5633144547204
 21
0.3999997597115339
 31
0.0
  0
LINE
  5
41FB
330
1A
100
AcDbEntity
  8
ZUWAKU
100
AcDbLine
 10
32.0711057581168
 20
4.974999759711501
 30
0.0
 11
32.0711057581168
 21
11.3624997597115
 31
0.0
  0
LINE
  5
41FC
330
1A
100
AcDbEntity
  8
ZUWAKU
100
AcDbLine
 10
30.67110575811677
 20
11.3624997597115
 30
0.0
 11
30.67110575811677
 21
5.499999759711499
 31
0.0
  0
LINE
  5
41FD
330
1A
100
AcDbEntity
  8
ZUWAKU
100
AcDbLine
 10
34.52110575811679
 20
3.837499759711501
 30
0.0
 11
34.52110575811679
 21
11.3624997597115
 31
0.0
  0
LINE
  5
41FE
330
1A
100
AcDbEntity
  8
ZUWAKU
100
AcDbLine
 10
33.12110575811675
 20
11.3624997597115
 30
0.0
 11
33.12110575811675
 21
3.837499759711501
 31
0.0
  0
ARC
  5
41FF
330
1A
100
AcDbEntity
  8
ZUWAKU
100
AcDbCircle
 10
24.89610575811679
 20
9.317398747033852
 30
0.0
 40
0.7
100
AcDbArc
 50
180.0000000000016
 51
224.9999999999988
  0
ARC
  5
4200
330
1A
100
AcDbEntity
  8
ZUWAKU
100
AcDbCircle
 10
24.89610575811679
 20
9.317398747033852
 30
0.0
 40
2.099999999999999
100
AcDbArc
 50
180.0
 51
225.0
  0
LINE
  5
4201
330
1A
100
AcDbEntity
  8
ZUWAKU
100
AcDbLine
 10
18.65742899920576
 20
9.602523356493215
 30
0.0
 11
18.02505312653784
 21
7.599999759711511
 31
0.0
  0
LINE
  5
4202
330
1A
100
AcDbEntity
  8
ZUWAKU
100
AcDbLine
 10
20.34610575811677
 20
11.3624997597115
 30
0.0
 11
20.34610575811677
 21
3.837499759711501
 31
0.0
  0
LINE
  5
4203
330
1A
100
AcDbEntity
  8
ZUWAKU
100
AcDbLine
 10
21.74610575811675
 20
3.837499759711501
 30
0.0
 11
21.74610575811675
 21
11.3624997597115
 31
0.0
  0
LINE
  5
4204
330
1A
100
AcDbEntity
  8
ZUWAKU
100
AcDbLine
 10
27.52110575811679
 20
11.3624997597115
 30
0.0
 11
27.52110575811679
 21
4.974999759711501
 31
0.0
  0
LINE
  5
4205
330
1A
100
AcDbEntity
  8
ZUWAKU
100
AcDbLine
 10
28.92110575811676
 20
5.499999759711499
 30
0.0
 11
28.92110575811676
 21
11.3624997597115
 31
0.0
  0
LINE
  5
4206
330
1A
100
AcDbEntity
  8
ZUWAKU
100
AcDbLine
 10
16.3211057581168
 20
8.562499759711503
 30
0.0
 11
16.3211057581168
 21
11.3624997597115
 31
0.0
  0
LINE
  5
4207
330
1A
100
AcDbEntity
  8
ZUWAKU
100
AcDbLine
 10
14.92110575811676
 20
11.3624997597115
 30
0.0
 11
14.92110575811676
 21
3.837499759711501
 31
0.0
  0
LINE
  5
4208
330
1A
100
AcDbEntity
  8
ZUWAKU
100
AcDbLine
 10
17.8381732267747
 20
11.44154674379498
 30
0.0
 11
16.90403828945881
 21
8.483452775628016
 31
0.0
  0
LINE
  5
4209
330
1A
100
AcDbEntity
  8
ZUWAKU
100
AcDbLine
 10
30.14610575811679
 20
4.974999759711501
 30
0.0
 11
29.4461057581168
 21
4.974999759711501
 31
0.0
  0
LINE
  5
420A
330
1A
100
AcDbEntity
  8
ZUWAKU
100
AcDbLine
 10
28.92110575811676
 20
3.574999759711502
 30
0.0
 11
30.67110575811677
 21
3.574999759711502
 31
0.0
  0
LINE
  5
420B
330
1A
100
AcDbEntity
  8
ZUWAKU
100
AcDbLine
 10
20.60860575811676
 20
3.574999759711502
 30
0.0
 11
21.48360575811676
 21
3.574999759711502
 31
0.0
  0
LINE
  5
420C
330
1A
100
AcDbEntity
  8
ZUWAKU
100
AcDbLine
 10
17.8381732267747
 20
3.758452775628015
 30
0.0
 11
16.90403828945881
 21
6.716546743794985
 31
0.0
  0
ARC
  5
420D
330
1A
100
AcDbEntity
  8
ZUWAKU
100
AcDbCircle
 10
16.65372283986113
 20
8.562499759711503
 30
0.0
 40
0.2625
100
AcDbArc
 50
270.0
 51
342.4744316262769
  0
LINE
  5
420E
330
1A
100
AcDbEntity
  8
ZUWAKU
100
AcDbLine
 10
16.65372283986113
 20
8.2999997597115
 30
0.0
 11
16.58360575811679
 21
8.2999997597115
 31
0.0
  0
LINE
  5
420F
330
1A
100
AcDbEntity
  8
ZUWAKU
100
AcDbLine
 10
16.58360575811679
 20
6.899999759711501
 30
0.0
 11
16.65372283986113
 21
6.899999759711501
 31
0.0
  0
ARC
  5
4210
330
1A
100
AcDbEntity
  8
ZUWAKU
100
AcDbCircle
 10
16.58360575811679
 20
8.562499759711503
 30
0.0
 40
0.2625
100
AcDbArc
 50
180.0
 51
270.0
  0
LINE
  5
4211
330
1A
100
AcDbEntity
  8
ZUWAKU
100
AcDbLine
 10
15.18360575811675
 20
3.574999759711502
 30
0.0
 11
16.05860575811675
 21
3.574999759711502
 31
0.0
  0
ARC
  5
4212
330
1A
100
AcDbEntity
  8
ZUWAKU
100
AcDbCircle
 10
16.05860575811675
 20
3.837499759711501
 30
0.0
 40
0.2625
100
AcDbArc
 50
270.0
 51
0.0
  0
LINE
  5
4213
330
1A
100
AcDbEntity
  8
ZUWAKU
100
AcDbLine
 10
16.3211057581168
 20
3.837499759711501
 30
0.0
 11
16.3211057581168
 21
6.637499759711502
 31
0.0
  0
LINE
  5
4214
330
1A
100
AcDbEntity
  8
ZUWAKU
100
AcDbLine
 10
13.6961057581168
 20
4.712499759711501
 30
0.0
 11
13.6961057581168
 21
3.837499759711501
 31
0.0
  0
ARC
  5
4215
330
1A
100
AcDbEntity
  8
ZUWAKU
100
AcDbCircle
 10
13.43360575811675
 20
3.837499759711501
 30
0.0
 40
0.2625
100
AcDbArc
 50
270.0
 51
0.0
  0
ARC
  5
4216
330
1A
100
AcDbEntity
  8
ZUWAKU
100
AcDbCircle
 10
13.43360575811675
 20
4.712499759711501
 30
0.0
 40
0.2625
100
AcDbArc
 50
0.0
 51
90.0
  0
ARC
  5
4217
330
1A
100
AcDbEntity
  8
ZUWAKU
100
AcDbCircle
 10
15.18360575811675
 20
3.837499759711501
 30
0.0
 40
0.2625
100
AcDbArc
 50
180.0
 51
270.0
  0
ARC
  5
4218
330
1A
100
AcDbEntity
  8
ZUWAKU
100
AcDbCircle
 10
16.65372283986113
 20
6.637499759711502
 30
0.0
 40
0.2625
100
AcDbArc
 50
17.52556837372303
 51
90.0
  0
ARC
  5
4219
330
1A
100
AcDbEntity
  8
ZUWAKU
100
AcDbCircle
 10
16.58360575811679
 20
6.637499759711502
 30
0.0
 40
0.2625
100
AcDbArc
 50
90.0
 51
180.0
  0
ARC
  5
421A
330
1A
100
AcDbEntity
  8
ZUWAKU
100
AcDbCircle
 10
20.60860575811676
 20
3.837499759711501
 30
0.0
 40
0.2625
100
AcDbArc
 50
180.0
 51
270.0
  0
LINE
  5
421B
330
1A
100
AcDbEntity
  8
ZUWAKU
100
AcDbLine
 10
18.08848867637243
 20
3.574999759711502
 30
0.0
 11
18.93793336617693
 21
3.574999759711502
 31
0.0
  0
ARC
  5
421C
330
1A
100
AcDbEntity
  8
ZUWAKU
100
AcDbCircle
 10
18.93793336617693
 20
3.837499759711501
 30
0.0
 40
0.2625
100
AcDbArc
 50
270.0
 51
17.52556837372303
  0
LINE
  5
421D
330
1A
100
AcDbEntity
  8
ZUWAKU
100
AcDbLine
 10
19.18824881577467
 20
3.916546743794988
 30
0.0
 11
18.02505312653784
 21
7.599999759711511
 31
0.0
  0
ARC
  5
421E
330
1A
100
AcDbEntity
  8
ZUWAKU
100
AcDbCircle
 10
18.08848867637243
 20
3.837499759711501
 30
0.0
 40
0.2625
100
AcDbArc
 50
197.525568373723
 51
270.0
  0
ARC
  5
421F
330
1A
100
AcDbEntity
  8
ZUWAKU
100
AcDbCircle
 10
28.92110575811676
 20
4.974999759711501
 30
0.0
 40
1.399999999999999
100
AcDbArc
 50
180.0
 51
270.0
  0
ARC
  5
4220
330
1A
100
AcDbEntity
  8
ZUWAKU
100
AcDbCircle
 10
25.0711057581168
 20
4.974999759711501
 30
0.0
 40
1.399999999999999
100
AcDbArc
 50
270.0
 51
0.0
  0
LINE
  5
4221
330
1A
100
AcDbEntity
  8
ZUWAKU
100
AcDbLine
 10
25.85602999860856
 20
7.367525012880914
 30
0.0
 11
24.40113101128616
 21
8.822424000203252
 31
0.0
  0
LINE
  5
4222
330
1A
100
AcDbEntity
  8
ZUWAKU
100
AcDbLine
 10
25.0711057581168
 20
5.237499759711504
 30
0.0
 11
25.0711057581168
 21
5.882600772389174
 31
0.0
  0
ARC
  5
4223
330
1A
100
AcDbEntity
  8
ZUWAKU
100
AcDbCircle
 10
24.37110575811675
 20
5.882600772389174
 30
0.0
 40
0.7
100
AcDbArc
 50
0.0
 51
45.0
  0
ARC
  5
4224
330
1A
100
AcDbEntity
  8
ZUWAKU
100
AcDbCircle
 10
24.80860575811675
 20
5.237499759711504
 30
0.0
 40
0.2625
100
AcDbArc
 50
270.0
 51
0.0
  0
LINE
  5
4225
330
1A
100
AcDbEntity
  8
ZUWAKU
100
AcDbLine
 10
23.05860575811675
 20
3.837499759711501
 30
0.0
 11
23.05860575811675
 21
4.712499759711501
 31
0.0
  0
ARC
  5
4226
330
1A
100
AcDbEntity
  8
ZUWAKU
100
AcDbCircle
 10
23.3211057581168
 20
3.837499759711501
 30
0.0
 40
0.2625
100
AcDbArc
 50
180.0
 51
270.0
  0
ARC
  5
4227
330
1A
100
AcDbEntity
  8
ZUWAKU
100
AcDbCircle
 10
21.48360575811676
 20
3.837499759711501
 30
0.0
 40
0.2625
100
AcDbArc
 50
270.0
 51
0.0
  0
ARC
  5
4228
330
1A
100
AcDbEntity
  8
ZUWAKU
100
AcDbCircle
 10
23.3211057581168
 20
4.712499759711501
 30
0.0
 40
0.2625
100
AcDbArc
 50
90.0
 51
180.0
  0
LINE
  5
4229
330
1A
100
AcDbEntity
  8
ZUWAKU
100
AcDbLine
 10
23.3211057581168
 20
4.974999759711501
 30
0.0
 11
24.80860575811675
 21
4.974999759711501
 31
0.0
  0
LINE
  5
422A
330
1A
100
AcDbEntity
  8
ZUWAKU
100
AcDbLine
 10
23.3211057581168
 20
3.574999759711502
 30
0.0
 11
25.0711057581168
 21
3.574999759711502
 31
0.0
  0
LINE
  5
422B
330
1A
100
AcDbEntity
  8
ZUWAKU
100
AcDbLine
 10
23.41118151762504
 20
7.832474506542091
 30
0.0
 11
24.86608050494737
 21
6.37757551921976
 31
0.0
  0
LINE
  5
422C
330
1A
100
AcDbEntity
  8
ZUWAKU
100
AcDbLine
 10
26.47110575811677
 20
4.974999759711501
 30
0.0
 11
26.47110575811677
 21
5.882600772389174
 31
0.0
  0
ARC
  5
422D
330
1A
100
AcDbEntity
  8
ZUWAKU
100
AcDbCircle
 10
24.37110575811675
 20
5.882600772389153
 30
0.0
 40
2.099999999999999
100
AcDbArc
 50
0.0
 51
45.0
  0
ARC
  5
422E
330
1A
100
AcDbEntity
  8
ZUWAKU
100
AcDbCircle
 10
29.4461057581168
 20
5.499999759711499
 30
0.0
 40
0.525
100
AcDbArc
 50
180.0
 51
270.0
  0
ARC
  5
422F
330
1A
100
AcDbEntity
  8
ZUWAKU
100
AcDbCircle
 10
30.67110575811677
 20
4.974999759711501
 30
0.0
 40
1.399999999999999
100
AcDbArc
 50
270.0
 51
0.0
  0
LINE
  5
4230
330
1A
100
AcDbEntity
  8
ZUWAKU
100
AcDbLine
 10
33.3836057581168
 20
3.574999759711502
 30
0.0
 11
34.2586057581168
 21
3.574999759711502
 31
0.0
  0
ARC
  5
4231
330
1A
100
AcDbEntity
  8
ZUWAKU
100
AcDbCircle
 10
33.3836057581168
 20
3.837499759711501
 30
0.0
 40
0.2625
100
AcDbArc
 50
180.0
 51
270.0
  0
ARC
  5
4232
330
1A
100
AcDbEntity
  8
ZUWAKU
100
AcDbCircle
 10
30.14610575811679
 20
5.499999759711499
 30
0.0
 40
0.525
100
AcDbArc
 50
270.0
 51
0.0
  0
ARC
  5
4233
330
1A
100
AcDbEntity
  8
ZUWAKU
100
AcDbCircle
 10
34.2586057581168
 20
3.837499759711501
 30
0.0
 40
0.2625
100
AcDbArc
 50
270.0
 51
0.0
  0
LINE
  5
4234
330
1A
100
AcDbEntity
  8
ZUWAKU
100
AcDbLine
 10
21.48360575811676
 20
11.6249997597115
 30
0.0
 11
20.60860575811676
 21
11.6249997597115
 31
0.0
  0
ARC
  5
4235
330
1A
100
AcDbEntity
  8
ZUWAKU
100
AcDbCircle
 10
16.05860575811675
 20
11.3624997597115
 30
0.0
 40
0.2625
100
AcDbArc
 50
0.0
 51
90.0
  0
LINE
  5
4236
330
1A
100
AcDbEntity
  8
ZUWAKU
100
AcDbLine
 10
16.05860575811675
 20
11.6249997597115
 30
0.0
 11
15.18360575811675
 21
11.6249997597115
 31
0.0
  0
ARC
  5
4237
330
1A
100
AcDbEntity
  8
ZUWAKU
100
AcDbCircle
 10
13.43360575811675
 20
11.3624997597115
 30
0.0
 40
0.2625
100
AcDbArc
 50
0.0
 51
90.0
  0
ARC
  5
4238
330
1A
100
AcDbEntity
  8
ZUWAKU
100
AcDbCircle
 10
15.18360575811675
 20
11.3624997597115
 30
0.0
 40
0.2625
100
AcDbArc
 50
90.0
 51
180.0
  0
ARC
  5
4239
330
1A
100
AcDbEntity
  8
ZUWAKU
100
AcDbCircle
 10
13.43360575811675
 20
10.4874997597115
 30
0.0
 40
0.2625
100
AcDbArc
 50
270.0
 51
0.0
  0
LINE
  5
423A
330
1A
100
AcDbEntity
  8
ZUWAKU
100
AcDbLine
 10
13.6961057581168
 20
11.3624997597115
 30
0.0
 11
13.6961057581168
 21
10.4874997597115
 31
0.0
  0
ARC
  5
423B
330
1A
100
AcDbEntity
  8
ZUWAKU
100
AcDbCircle
 10
20.60860575811676
 20
11.3624997597115
 30
0.0
 40
0.2625
100
AcDbArc
 50
90.0
 51
180.0
  0
LINE
  5
423C
330
1A
100
AcDbEntity
  8
ZUWAKU
100
AcDbLine
 10
18.08848867637243
 20
11.6249997597115
 30
0.0
 11
18.93793336617693
 21
11.6249997597115
 31
0.0
  0
ARC
  5
423D
330
1A
100
AcDbEntity
  8
ZUWAKU
100
AcDbCircle
 10
18.93793336617693
 20
11.3624997597115
 30
0.0
 40
0.2625
100
AcDbArc
 50
342.4744316262769
 51
90.0
  0
LINE
  5
423E
330
1A
100
AcDbEntity
  8
ZUWAKU
100
AcDbLine
 10
19.18824881577467
 20
11.28345277562801
 30
0.0
 11
18.65742899920576
 21
9.602523356493215
 31
0.0
  0
ARC
  5
423F
330
1A
100
AcDbEntity
  8
ZUWAKU
100
AcDbCircle
 10
18.08848867637243
 20
11.3624997597115
 30
0.0
 40
0.2625
100
AcDbArc
 50
90.0
 51
162.4744316262769
  0
LINE
  5
4240
330
1A
100
AcDbEntity
  8
ZUWAKU
100
AcDbLine
 10
24.1961057581168
 20
11.6249997597115
 30
0.0
 11
25.9461057581168
 21
11.6249997597115
 31
0.0
  0
LINE
  5
4241
330
1A
100
AcDbEntity
  8
ZUWAKU
100
AcDbLine
 10
25.9461057581168
 20
10.2249997597115
 30
0.0
 11
24.45860575811678
 21
10.2249997597115
 31
0.0
  0
ARC
  5
4242
330
1A
100
AcDbEntity
  8
ZUWAKU
100
AcDbCircle
 10
24.45860575811678
 20
9.962499759711501
 30
0.0
 40
0.2625
100
AcDbArc
 50
90.0
 51
180.0
  0
LINE
  5
4243
330
1A
100
AcDbEntity
  8
ZUWAKU
100
AcDbLine
 10
24.1961057581168
 20
9.962499759711501
 30
0.0
 11
24.1961057581168
 21
9.317398747033831
 31
0.0
  0
ARC
  5
4244
330
1A
100
AcDbEntity
  8
ZUWAKU
100
AcDbCircle
 10
21.48360575811676
 20
11.3624997597115
 30
0.0
 40
0.2625
100
AcDbArc
 50
0.0
 51
90.0
  0
LINE
  5
4245
330
1A
100
AcDbEntity
  8
ZUWAKU
100
AcDbLine
 10
22.79610575811676
 20
10.2249997597115
 30
0.0
 11
22.79610575811676
 21
9.317398747033831
 31
0.0
  0
ARC
  5
4246
330
1A
100
AcDbEntity
  8
ZUWAKU
100
AcDbCircle
 10
24.1961057581168
 20
10.2249997597115
 30
0.0
 40
1.399999999999999
100
AcDbArc
 50
90.0
 51
180.0
  0
ARC
  5
4247
330
1A
100
AcDbEntity
  8
ZUWAKU
100
AcDbCircle
 10
28.65860575811677
 20
11.3624997597115
 30
0.0
 40
0.2625
100
AcDbArc
 50
0.0
 51
90.0
  0
ARC
  5
4248
330
1A
100
AcDbEntity
  8
ZUWAKU
100
AcDbCircle
 10
27.78360575811678
 20
11.3624997597115
 30
0.0
 40
0.2625
100
AcDbArc
 50
90.0
 51
180.0
  0
LINE
  5
4249
330
1A
100
AcDbEntity
  8
ZUWAKU
100
AcDbLine
 10
28.65860575811677
 20
11.6249997597115
 30
0.0
 11
27.78360575811678
 21
11.6249997597115
 31
0.0
  0
ARC
  5
424A
330
1A
100
AcDbEntity
  8
ZUWAKU
100
AcDbCircle
 10
25.9461057581168
 20
11.3624997597115
 30
0.0
 40
0.2625
100
AcDbArc
 50
0.0
 51
90.0
  0
ARC
  5
424B
330
1A
100
AcDbEntity
  8
ZUWAKU
100
AcDbCircle
 10
25.9461057581168
 20
10.4874997597115
 30
0.0
 40
0.2625
100
AcDbArc
 50
270.0
 51
0.0
  0
LINE
  5
424C
330
1A
100
AcDbEntity
  8
ZUWAKU
100
AcDbLine
 10
26.20860575811679
 20
11.3624997597115
 30
0.0
 11
26.20860575811679
 21
10.4874997597115
 31
0.0
  0
LINE
  5
424D
330
1A
100
AcDbEntity
  8
ZUWAKU
100
AcDbLine
 10
34.2586057581168
 20
11.6249997597115
 30
0.0
 11
33.3836057581168
 21
11.6249997597115
 31
0.0
  0
ARC
  5
424E
330
1A
100
AcDbEntity
  8
ZUWAKU
100
AcDbCircle
 10
33.3836057581168
 20
11.3624997597115
 30
0.0
 40
0.2625
100
AcDbArc
 50
90.0
 51
180.0
  0
ARC
  5
424F
330
1A
100
AcDbEntity
  8
ZUWAKU
100
AcDbCircle
 10
31.80860575811675
 20
11.3624997597115
 30
0.0
 40
0.2625
100
AcDbArc
 50
0.0
 51
90.0
  0
LINE
  5
4250
330
1A
100
AcDbEntity
  8
ZUWAKU
100
AcDbLine
 10
31.80860575811675
 20
11.6249997597115
 30
0.0
 11
30.93360575811675
 21
11.6249997597115
 31
0.0
  0
ARC
  5
4251
330
1A
100
AcDbEntity
  8
ZUWAKU
100
AcDbCircle
 10
30.93360575811675
 20
11.3624997597115
 30
0.0
 40
0.2625
100
AcDbArc
 50
90.0
 51
180.0
  0
ARC
  5
4252
330
1A
100
AcDbEntity
  8
ZUWAKU
100
AcDbCircle
 10
34.2586057581168
 20
11.3624997597115
 30
0.0
 40
0.2625
100
AcDbArc
 50
0.0
 51
90.0
  0
TEXT
  5
4253
330
1A
100
AcDbEntity
  8
MOJI
100
AcDbText
 10
119.9136010211517
 20
1.60246028841521
 30
0.0
 40
2.799999999999999
  1
ＲＶ１０５－４－３０
 41
0.9
  7
ｽﾀｲﾙ1
100
AcDbText
  0
LINE
  5
4254
330
1A
100
AcDbEntity
  8
ZUWAKU
100
AcDbLine
 10
104.1233003257601
 20
14.99999975971149
 30
0.0
 11
104.1233003257601
 21
0.3999997597115339
 31
0.0
  0
LINE
  5
4255
330
1A
100
AcDbEntity
  8
ZUWAKU
100
AcDbLine
 10
104.32330032576
 20
14.99999975971149
 30
0.0
 11
104.3233003257602
 21
0.3999997597115339
 31
0.0
  0
LINE
  5
4256
330
1A
100
AcDbEntity
  8
ZUWAKU
100
AcDbLine
 10
104.22330032576
 20
14.99999975971149
 30
0.0
 11
104.2233003257601
 21
0.3999997597115339
 31
0.0
  0
TEXT
  5
4257
330
1A
100
AcDbEntity
  8
ZUWAKU
100
AcDbText
 10
104.8620228368649
 20
4.827678028904308
 30
0.0
 40
2.0
  1
サイズ
 41
0.9
  7
ｽﾀｲﾙ1
100
AcDbText
  0
TEXT
  5
4258
330
1A
100
AcDbEntity
  8
ZUWAKU
100
AcDbText
 10
104.8620228368648
 20
12.02767802890429
 30
0.0
 40
2.0
  1
品名
 41
0.9
  7
ｽﾀｲﾙ1
100
AcDbText
  0
LINE
  5
4259
330
1A
100
AcDbEntity
  8
ZUWAKU
100
AcDbLine
 10
324.4086009358283
 20
7.599999759711515
 30
0.0
 11
348.6245049549968
 21
7.599999759711517
 31
0.0
  0
LINE
  5
425A
330
1A
100
AcDbEntity
  8
ZUWAKU
100
AcDbLine
 10
324.4086009358284
 20
7.699999759711518
 30
0.0
 11
348.6245049549968
 21
7.699999759711516
 31
0.0
  0
LINE
  5
425B
330
1A
100
AcDbEntity
  8
ZUWAKU
100
AcDbLine
 10
324.4086009358283
 20
7.799999759711516
 30
0.0
 11
348.6245049549968
 21
7.799999759711516
 31
0.0
  0
TEXT
  5
425C
330
1A
100
AcDbEntity
  8
ZUWAKU
100
AcDbText
 10
329.1019685243774
 20
9.002460288415193
 30
0.0
 40
2.799999999999999
  1
　　．　　．　　
 41
0.9
  7
ｽﾀｲﾙ1
100
AcDbText
  0
LINE
  5
425D
330
1A
100
AcDbEntity
  8
ZUWAKU
100
AcDbLine
 10
252.5995894297966
 20
7.599999759711518
 30
0.0
 11
276.2634775637824
 21
7.599999759711518
 31
0.0
  0
LINE
  5
425E
330
1A
100
AcDbEntity
  8
ZUWAKU
100
AcDbLine
 10
252.5995894297966
 20
7.699999759711516
 30
0.0
 11
276.2634775637824
 21
7.699999759711516
 31
0.0
  0
LINE
  5
425F
330
1A
100
AcDbEntity
  8
ZUWAKU
100
AcDbLine
 10
252.5995894297966
 20
7.799999759711516
 30
0.0
 11
276.2634775637824
 21
7.799999759711516
 31
0.0
  0
TEXT
  5
4260
330
1A
100
AcDbEntity
  8
MOJI
100
AcDbText
 10
231.2836388417205
 20
5.971308620541492
 30
0.0
 40
2.799999999999999
  1
ＬＪ７８□
 41
0.9
  7
ｽﾀｲﾙ1
100
AcDbText
  0
LINE
  5
4261
330
1A
100
AcDbEntity
  8
ZUWAKU
100
AcDbLine
 10
223.8121816662218
 20
14.99999975971149
 30
0.0
 11
223.8121816662219
 21
0.3999997597115339
 31
0.0
  0
LINE
  5
4262
330
1A
100
AcDbEntity
  8
ZUWAKU
100
AcDbLine
 10
223.9121816662218
 20
14.99999975971149
 30
0.0
 11
223.9121816662219
 21
0.3999997597115339
 31
0.0
  0
LINE
  5
4263
330
1A
100
AcDbEntity
  8
ZUWAKU
100
AcDbLine
 10
223.7121816662219
 20
14.99999975971149
 30
0.0
 11
223.7121816662219
 21
0.3999997597115339
 31
0.0
  0
TEXT
  5
4264
330
1A
100
AcDbEntity
  8
MOJI
100
AcDbText
 10
264.0204536668826
 20
9.002460288415193
 30
0.0
 40
2.799999999999999
  1
Ａ３
 41
0.9
  7
ｽﾀｲﾙ1
100
AcDbText
  0
LINE
  5
4265
330
1A
100
AcDbEntity
  8
ZUWAKU
100
AcDbLine
 10
252.4995894297966
 20
14.99999975971149
 30
0.0
 11
252.4995894297967
 21
0.3999997597115339
 31
0.0
  0
LINE
  5
4266
330
1A
100
AcDbEntity
  8
ZUWAKU
100
AcDbLine
 10
252.5995894297966
 20
14.99999975971149
 30
0.0
 11
252.5995894297967
 21
0.3999997597115339
 31
0.0
  0
LINE
  5
4267
330
1A
100
AcDbEntity
  8
ZUWAKU
100
AcDbLine
 10
252.3995894297967
 20
14.99999975971149
 30
0.0
 11
252.3995894297967
 21
0.3999997597115339
 31
0.0
  0
TEXT
  5
4268
330
1A
100
AcDbEntity
  8
ZUWAKU
100
AcDbText
 10
231.3468805084797
 20
1.307035215281246
 30
0.0
 40
1.5
  1
□には色品番が入ります
 41
0.9
  7
ｽﾀｲﾙ1
100
AcDbText
  0
TEXT
  5
4269
330
1A
100
AcDbEntity
  8
ZUWAKU
100
AcDbText
 10
253.3383119409015
 20
4.827678028904308
 30
0.0
 40
2.0
  1
縮尺
 41
0.9
  7
ｽﾀｲﾙ1
100
AcDbText
  0
TEXT
  5
426A
330
1A
100
AcDbEntity
  8
MOJI
100
AcDbText
 10
264.0204536668826
 20
1.60246028841521
 30
0.0
 40
2.799999999999999
  1
１/１
 41
0.9
  7
ｽﾀｲﾙ1
100
AcDbText
  0
TEXT
  5
426B
330
1A
100
AcDbEntity
  8
ZUWAKU
100
AcDbText
 10
224.6509041773266
 20
12.02767802890429
 30
0.0
 40
2.0
  1
品番
 41
0.9
  7
ｽﾀｲﾙ1
100
AcDbText
  0
TEXT
  5
426C
330
1A
100
AcDbEntity
  8
ZUWAKU
100
AcDbText
 10
253.3383119409014
 20
12.02767802890429
 30
0.0
 40
2.0
  1
用紙
 41
0.9
  7
ｽﾀｲﾙ1
100
AcDbText
  0
LINE
  5
426D
330
1A
100
AcDbEntity
  8
ZUWAKU
100
AcDbLine
 10
324.3086009358283
 20
14.99999975971149
 30
0.0
 11
324.3086009358285
 21
0.3999997597115339
 31
0.0
  0
LINE
  5
426E
330
1A
100
AcDbEntity
  8
ZUWAKU
100
AcDbLine
 10
324.4086009358284
 20
14.99999975971149
 30
0.0
 11
324.4086009358285
 21
0.3999997597115339
 31
0.0
  0
LINE
  5
426F
330
1A
100
AcDbEntity
  8
ZUWAKU
100
AcDbLine
 10
324.2086009358284
 20
14.99999975971149
 30
0.0
 11
324.2086009358284
 21
0.3999997597115339
 31
0.0
  0
LINE
  5
4270
330
1A
100
AcDbEntity
  8
ZUWAKU
100
AcDbLine
 10
276.3634775637823
 20
14.99999975971149
 30
0.0
 11
276.3634775637824
 21
0.3999997597115339
 31
0.0
  0
LINE
  5
4271
330
1A
100
AcDbEntity
  8
ZUWAKU
100
AcDbLine
 10
276.4634775637823
 20
14.99999975971149
 30
0.0
 11
276.4634775637824
 21
0.3999997597115339
 31
0.0
  0
LINE
  5
4272
330
1A
100
AcDbEntity
  8
ZUWAKU
100
AcDbLine
 10
276.2634775637824
 20
14.99999975971149
 30
0.0
 11
276.2634775637824
 21
0.3999997597115339
 31
0.0
  0
TEXT
  5
4273
330
1A
100
AcDbEntity
  8
ZUWAKU
100
AcDbText
 10
325.1473234469332
 20
12.02767802890429
 30
0.0
 40
2.0
  1
DATE
 41
0.9
  7
ｽﾀｲﾙ1
100
AcDbText
  0
LINE
  5
4274
330
1A
100
AcDbEntity
  8
ZUWAKU
100
AcDbLine
 10
348.6245049549968
 20
14.99999975971149
 30
0.0
 11
348.6245049549968
 21
0.3999997597115339
 31
0.0
  0
LINE
  5
4275
330
1A
100
AcDbEntity
  8
ZUWAKU
100
AcDbLine
 10
348.7245049549968
 20
14.99999975971149
 30
0.0
 11
348.7245049549968
 21
0.3999997597115339
 31
0.0
  0
LINE
  5
4276
330
1A
100
AcDbEntity
  8
ZUWAKU
100
AcDbLine
 10
348.8245049549967
 20
14.99999975971149
 30
0.0
 11
348.8245049549969
 21
0.3999997597115339
 31
0.0
  0
LINE
  5
4277
330
1A
100
AcDbEntity
  8
ZUWAKU
100
AcDbLine
 10
348.9245049549968
 20
14.99999975971149
 30
0.0
 11
348.9245049549968
 21
0.3999997597115339
 31
0.0
  0
TEXT
  5
4278
330
1A
100
AcDbEntity
  8
ZUWAKU
100
AcDbText
 10
354.2640417768481
 20
8.776919427554901
 30
0.0
 40
3.0
  1
積水化学工業株式会社
 41
0.9
  7
ｽﾀｲﾙ1
100
AcDbText
  0
TEXT
  5
4279
330
1A
100
AcDbEntity
  8
ZUWAKU
100
AcDbText
 10
354.2640417768481
 20
3.324419916638532
 30
0.0
 40
3.0
  1
建材事業部
 41
0.9
  7
ｽﾀｲﾙ1
100
AcDbText
  0
VIEWPORT
  5
22
330
17
100
AcDbEntity
 67
     1
  8
0
100
AcDbViewport
 10
313.6808219178082
 20
148.5
 30
0.0
 40
627.3616438356165
 41
297.0
 68
     2
 69
     1
1001
ACAD
1000
MVIEW
1002
{
1070
    16
1010
0.0
1020
0.0
1030
0.0
1010
0.0
1020
0.0
1030
1.0
1040
0.0
1040
297.0
1040
313.6808219178082
1040
148.5
1040
50.0
1040
0.0
1040
0.0
1070
     0
1070
   100
1070
     1
1070
     0
1070
     0
1070
     0
1070
     0
1070
     0
1040
0.0
1040
0.0
1040
0.0
1040
1.0
1040
1.0
1040
10.0
1040
10.0
1070
     0
1002
{
1002
}
1002
}
  0
VIEWPORT
  5
64
330
17
100
AcDbEntity
 67
     1
  8
VIEWPORT
100
AcDbViewport
 10
210.0
 20
148.5
 30
0.0
 40
420.0
 41
297.0
 68
     1
 69
     2
1001
ACAD
1000
MVIEW
1002
{
1070
    16
1010
0.0
1020
0.0
1030
0.0
1010
0.0
1020
0.0
1030
1.0
1040
0.0
1040
302.9399999999998
1040
210.0
1040
148.5
1040
50.0
1040
0.0
1040
0.0
1070
     0
1070
   100
1070
     1
1070
     0
1070
     0
1070
     0
1070
     0
1070
     0
1040
0.0
1040
0.0
1040
0.0
1040
5.0
1040
5.0
1040
0.0
1040
0.0
1070
     0
1002
{
1002
}
1002
}
  0
ENDSEC
  0
SECTION
  2
OBJECTS
  0
DICTIONARY
  5
C
330
0
100
AcDbDictionary
  3
ACAD_GROUP
350
D
  3
ACAD_LAYOUT
350
141
  3
ACAD_MLINESTYLE
350
E
  3
ACAD_PLOTSETTINGS
350
142
  3
ACAD_PLOTSTYLENAME
350
13F
  3
ACADDIM
350
3023
  3
ACDBVARIABLEDICTIONARY
350
120D
  3
ACDBHEADERROUNDTRIPXREC
350
42EF
  0
DICTIONARY
  5
7A2
330
1A
100
AcDbDictionary
280
     1
  3
ACAD_LAYOUTSELFREF
360
4311
  0
DICTIONARY
  5
7A0
330
17
100
AcDbDictionary
280
     1
  3
ACAD_LAYOUTSELFREF
360
4310
  0
DICTIONARY
  5
D
102
{ACAD_REACTORS
330
C
102
}
330
C
100
AcDbDictionary
  0
DICTIONARY
  5
141
102
{ACAD_REACTORS
330
C
102
}
330
C
100
AcDbDictionary
  0
DICTIONARY
  5
E
102
{ACAD_REACTORS
330
C
102
}
330
C
100
AcDbDictionary
  3
STANDARD
350
13
  0
DICTIONARY
  5
142
102
{ACAD_REACTORS
330
C
102
}
330
C
100
AcDbDictionary
  0
ACDBDICTIONARYWDFLT
  5
13F
102
{ACAD_REACTORS
330
C
102
}
330
C
100
AcDbDictionary
281
     1
  3
Normal
350
140
100
AcDbDictionaryWithDefault
340
140
1001
ACAD
1000
TREAT_AS_HARD
1070
     0
1000
TREAT_AS_HARD
1070
     0
1000
TREAT_AS_HARD
1070
     0
1000
TREAT_AS_HARD
1070
     0
1000
TREAT_AS_HARD
1070
     0
1000
TREAT_AS_HARD
1070
     0
1000
TREAT_AS_HARD
1070
     0
1000
TREAT_AS_HARD
1070
     0
1000
TREAT_AS_HARD
1070
     0
1000
TREAT_AS_HARD
1070
     0
1000
TREAT_AS_HARD
1070
     0
1000
TREAT_AS_HARD
1070
     0
1000
TREAT_AS_HARD
1070
     0
1000
TREAT_AS_HARD
1070
     0
1000
TREAT_AS_HARD
1070
     0
1000
TREAT_AS_HARD
1070
     0
1000
TREAT_AS_HARD
1070
     0
1000
TREAT_AS_HARD
1070
     0
1000
TREAT_AS_HARD
1070
     0
1000
TREAT_AS_HARD
1070
     0
  0
XRECORD
  5
3023
102
{ACAD_REACTORS
330
C
102
}
330
C
100
AcDbXrecord
 90
   990106
  3

 60
     0
 61
     0
 62
     1
 63
     3
 64
     0
 65
     0
 66
     0
 67
     3
 68
     1
 69
     0
 70
     0
 71
     0
 72
     0
 40
0.0
170
     0
340
0
  0
DICTIONARY
  5
120D
102
{ACAD_REACTORS
330
C
102
}
330
C
100
AcDbDictionary
  3
SORTENTS
350
120E
  0
DICTIONARY
  5
42EF
102
{ACAD_REACTORS
330
C
102
}
330
C
100
AcDbDictionary
  3
TSTACKALIGN
350
42F0
  3
TSTACKSIZE
350
42F1
  3
HYPERLINKBASE
350
42F2
  3
STYLESHEET
350
42F3
  3
LAYOUTDICT
350
42F4
  3
PLOTSETDICT
350
42F5
  3
PLOTSTYLNAMDICT
350
42F6
  3
LWETCUNION
350
42F7
  3
INSUNITS
350
42F8
  3
CEPSNTYPE
350
42F9
  3
FINGERPRINTGUID
350
42FA
  3
VERSIONGUID
350
42FB
  3
PSVPSCALE
350
42FC
  3
DIMSTYLEDATA
350
42FD
  3
PUCSORTHOREF
350
42FE
  3
PUCSORTHOVIEW
350
42FF
  3
PUCSBASE
350
4300
  3
PUCSORGTOP
350
4301
  3
PUCSORGBOTTOM
350
4302
  3
PUCSORGLEFT
350
4303
  3
PUCSORGRIGHT
350
4304
  3
PUCSORGFRONT
350
4305
  3
PUCSORGBACK
350
4306
  3
UCSORTHOREF
350
4307
  3
UCSORTHOVIEW
350
4308
  3
UCSBASE
350
4309
  3
UCSORGTOP
350
430A
  3
UCSORGBOTTOM
350
430B
  3
UCSORGLEFT
350
430C
  3
UCSORGRIGHT
350
430D
  3
UCSORGFRONT
350
430E
  3
UCSORGBACK
350
430F
  0
XRECORD
  5
4311
102
{ACAD_REACTORS
330
7A2
102
}
330
7A2
100
AcDbXrecord
340
1A
  0
XRECORD
  5
4310
102
{ACAD_REACTORS
330
7A0
102
}
330
7A0
100
AcDbXrecord
340
17
  0
MLINESTYLE
  5
13
102
{ACAD_REACTORS
330
E
102
}
330
E
100
AcDbMlineStyle
  2
STANDARD
 70
     0
  3

 62
     0
 51
90.0
 52
90.0
 71
     2
 49
0.5
 62
   256
  6
BYLAYER
 49
-0.5
 62
   256
  6
BYLAYER
  0
ACDBPLACEHOLDER
  5
140
102
{ACAD_REACTORS
330
13F
102
}
330
13F
100
AcDbPlaceHolder
280
     0
  0
DICTIONARYVAR
  5
120E
102
{ACAD_REACTORS
330
120D
102
}
330
120D
100
DictionaryVariables
280
     0
  1
96
  0
XRECORD
  5
42F0
102
{ACAD_REACTORS
330
42EF
102
}
330
42EF
100
AcDbXrecord
 90
        1
  0
XRECORD
  5
42F1
102
{ACAD_REACTORS
330
42EF
102
}
330
42EF
100
AcDbXrecord
 90
       70
  0
XRECORD
  5
42F2
102
{ACAD_REACTORS
330
42EF
102
}
330
42EF
100
AcDbXrecord
  1

  0
XRECORD
  5
42F3
102
{ACAD_REACTORS
330
42EF
102
}
330
42EF
100
AcDbXrecord
  1
systemprinter.ctb
  0
XRECORD
  5
42F4
102
{ACAD_REACTORS
330
42EF
102
}
330
42EF
100
AcDbXrecord
340
141
  0
XRECORD
  5
42F5
102
{ACAD_REACTORS
330
42EF
102
}
330
42EF
100
AcDbXrecord
340
142
  0
XRECORD
  5
42F6
102
{ACAD_REACTORS
330
42EF
102
}
330
42EF
100
AcDbXrecord
340
13F
  0
XRECORD
  5
42F7
102
{ACAD_REACTORS
330
42EF
102
}
330
42EF
100
AcDbXrecord
 90
    10781
  0
XRECORD
  5
42F8
102
{ACAD_REACTORS
330
42EF
102
}
330
42EF
100
AcDbXrecord
 90
        0
  0
XRECORD
  5
42F9
102
{ACAD_REACTORS
330
42EF
102
}
330
42EF
100
AcDbXrecord
 90
        0
  0
XRECORD
  5
42FA
102
{ACAD_REACTORS
330
42EF
102
}
330
42EF
100
AcDbXrecord
  1
{4E8D0500-CDD1-11D3-932C-444553540000}
  0
XRECORD
  5
42FB
102
{ACAD_REACTORS
330
42EF
102
}
330
42EF
100
AcDbXrecord
  1
{049A8181-84DC-4068-84C1-2F8AC425338C}
  0
XRECORD
  5
42FC
102
{ACAD_REACTORS
330
42EF
102
}
330
42EF
100
AcDbXrecord
 40
0.0
  0
XRECORD
  5
42FD
102
{ACAD_REACTORS
330
42EF
102
}
330
42EF
100
AcDbXrecord
1000
DSTYLE
1002
{
1070
   341
340
B2
1070
   343
340
B2
1070
   344
340
B2
1070
   371
 70
    -1
1070
   372
 70
    -1
1002
}
  0
XRECORD
  5
42FE
102
{ACAD_REACTORS
330
42EF
102
}
330
42EF
100
AcDbXrecord
340
0
  0
XRECORD
  5
42FF
102
{ACAD_REACTORS
330
42EF
102
}
330
42EF
100
AcDbXrecord
 70
     0
  0
XRECORD
  5
4300
102
{ACAD_REACTORS
330
42EF
102
}
330
42EF
100
AcDbXrecord
340
0
  0
XRECORD
  5
4301
102
{ACAD_REACTORS
330
42EF
102
}
330
42EF
100
AcDbXrecord
 10
0.0
 20
0.0
 30
0.0
  0
XRECORD
  5
4302
102
{ACAD_REACTORS
330
42EF
102
}
330
42EF
100
AcDbXrecord
 10
0.0
 20
0.0
 30
0.0
  0
XRECORD
  5
4303
102
{ACAD_REACTORS
330
42EF
102
}
330
42EF
100
AcDbXrecord
 10
0.0
 20
0.0
 30
0.0
  0
XRECORD
  5
4304
102
{ACAD_REACTORS
330
42EF
102
}
330
42EF
100
AcDbXrecord
 10
0.0
 20
0.0
 30
0.0
  0
XRECORD
  5
4305
102
{ACAD_REACTORS
330
42EF
102
}
330
42EF
100
AcDbXrecord
 10
0.0
 20
0.0
 30
0.0
  0
XRECORD
  5
4306
102
{ACAD_REACTORS
330
42EF
102
}
330
42EF
100
AcDbXrecord
 10
0.0
 20
0.0
 30
0.0
  0
XRECORD
  5
4307
102
{ACAD_REACTORS
330
42EF
102
}
330
42EF
100
AcDbXrecord
340
0
  0
XRECORD
  5
4308
102
{ACAD_REACTORS
330
42EF
102
}
330
42EF
100
AcDbXrecord
 70
     0
  0
XRECORD
  5
4309
102
{ACAD_REACTORS
330
42EF
102
}
330
42EF
100
AcDbXrecord
340
0
  0
XRECORD
  5
430A
102
{ACAD_REACTORS
330
42EF
102
}
330
42EF
100
AcDbXrecord
 10
0.0
 20
0.0
 30
0.0
  0
XRECORD
  5
430B
102
{ACAD_REACTORS
330
42EF
102
}
330
42EF
100
AcDbXrecord
 10
0.0
 20
0.0
 30
0.0
  0
XRECORD
  5
430C
102
{ACAD_REACTORS
330
42EF
102
}
330
42EF
100
AcDbXrecord
 10
0.0
 20
0.0
 30
0.0
  0
XRECORD
  5
430D
102
{ACAD_REACTORS
330
42EF
102
}
330
42EF
100
AcDbXrecord
 10
0.0
 20
0.0
 30
0.0
  0
XRECORD
  5
430E
102
{ACAD_REACTORS
330
42EF
102
}
330
42EF
100
AcDbXrecord
 10
0.0
 20
0.0
 30
0.0
  0
XRECORD
  5
430F
102
{ACAD_REACTORS
330
42EF
102
}
330
42EF
100
AcDbXrecord
 10
0.0
 20
0.0
 30
0.0
  0
ENDSEC
  0
EOF
