  0
SECTION
  2
HEADER
  9
$ACADVER
  1
AC1014
  9
$ACADMAINTVER
 70
     9
  9
$DWGCODEPAGE
  3
ANSI_932
  9
$INSBASE
 10
0.0
 20
0.0
 30
0.0
  9
$EXTMIN
 10
-0.0128164049386896
 20
-0.0090630292066862
 30
-0.0000000100021362
  9
$EXTMAX
 10
398.8000497813338
 20
275.8226172440017
 30
0.0000000100021363
  9
$LIMMIN
 10
0.0
 20
0.0
  9
$LIMMAX
 10
420.0
 20
297.0
  9
$ORTHOMODE
 70
     0
  9
$REGENMODE
 70
     1
  9
$FILLMODE
 70
     1
  9
$QTEXTMODE
 70
     0
  9
$MIRRTEXT
 70
     1
  9
$DRAGMODE
 70
     2
  9
$LTSCALE
 40
5.0
  9
$OSMODE
 70
    35
  9
$ATTMODE
 70
     1
  9
$TEXTSIZE
 40
3.0
  9
$TRACEWID
 40
1.0
  9
$TEXTSTYLE
  7
STANDARD
  9
$CLAYER
  8
SUNPOU
  9
$CELTYPE
  6
BYLAYER
  9
$CECOLOR
 62
   256
  9
$CELTSCALE
 40
1.0
  9
$DELOBJ
 70
     1
  9
$DISPSILH
 70
     0
  9
$DIMSCALE
 40
1.0
  9
$DIMASZ
 40
3.0
  9
$DIMEXO
 40
3.0
  9
$DIMDLI
 40
7.0
  9
$DIMRND
 40
0.0
  9
$DIMDLE
 40
0.0
  9
$DIMEXE
 40
1.5
  9
$DIMTP
 40
0.0
  9
$DIMTM
 40
0.0
  9
$DIMTXT
 40
3.0
  9
$DIMCEN
 40
3.0
  9
$DIMTSZ
 40
0.0
  9
$DIMTOL
 70
     0
  9
$DIMLIM
 70
     0
  9
$DIMTIH
 70
     0
  9
$DIMTOH
 70
     0
  9
$DIMSE1
 70
     0
  9
$DIMSE2
 70
     0
  9
$DIMTAD
 70
     3
  9
$DIMZIN
 70
     0
  9
$DIMBLK
  1

  9
$DIMASO
 70
     1
  9
$DIMSHO
 70
     1
  9
$DIMPOST
  1

  9
$DIMAPOST
  1

  9
$DIMALT
 70
     0
  9
$DIMALTD
 70
     2
  9
$DIMALTF
 40
25.4
  9
$DIMLFAC
 40
1.0
  9
$DIMTOFL
 70
     1
  9
$DIMTVP
 40
0.0
  9
$DIMTIX
 70
     0
  9
$DIMSOXD
 70
     0
  9
$DIMSAH
 70
     1
  9
$DIMBLK1
  1
OPEN
  9
$DIMBLK2
  1
OPEN
  9
$DIMSTYLE
  2
STANDARD
  9
$DIMCLRD
 70
   256
  9
$DIMCLRE
 70
   256
  9
$DIMCLRT
 70
   256
  9
$DIMTFAC
 40
1.0
  9
$DIMGAP
 40
1.0
  9
$DIMJUST
 70
     0
  9
$DIMSD1
 70
     0
  9
$DIMSD2
 70
     0
  9
$DIMTOLJ
 70
     1
  9
$DIMTZIN
 70
     0
  9
$DIMALTZ
 70
     0
  9
$DIMALTTZ
 70
     0
  9
$DIMFIT
 70
     3
  9
$DIMUPT
 70
     0
  9
$DIMUNIT
 70
     2
  9
$DIMDEC
 70
     0
  9
$DIMTDEC
 70
     0
  9
$DIMALTU
 70
     2
  9
$DIMALTTD
 70
     2
  9
$DIMTXSTY
  7
STANDARD
  9
$DIMAUNIT
 70
     0
  9
$LUNITS
 70
     2
  9
$LUPREC
 70
     4
  9
$SKETCHINC
 40
1.0
  9
$FILLETRAD
 40
0.3
  9
$AUNITS
 70
     0
  9
$AUPREC
 70
     0
  9
$MENU
  1
.
  9
$ELEVATION
 40
0.0
  9
$PELEVATION
 40
0.0
  9
$THICKNESS
 40
0.0
  9
$LIMCHECK
 70
     0
  9
$BLIPMODE
 70
     0
  9
$CHAMFERA
 40
10.0
  9
$CHAMFERB
 40
10.0
  9
$CHAMFERC
 40
20.0
  9
$CHAMFERD
 40
0.0
  9
$SKPOLY
 70
     0
  9
$TDCREATE
 40
2451589.469382176
  9
$TDUPDATE
 40
2453802.579482778
  9
$TDINDWG
 40
0.5632810417
  9
$TDUSRTIMER
 40
0.5632810417
  9
$USRTIMER
 70
     1
  9
$ANGBASE
 50
0.0
  9
$ANGDIR
 70
     0
  9
$PDMODE
 70
     0
  9
$PDSIZE
 40
0.0
  9
$PLINEWID
 40
0.0
  9
$COORDS
 70
     1
  9
$SPLFRAME
 70
     0
  9
$SPLINETYPE
 70
     6
  9
$SPLINESEGS
 70
     8
  9
$ATTDIA
 70
     0
  9
$ATTREQ
 70
     1
  9
$HANDLING
 70
 10241
  9
$HANDSEED
  5
4120
  9
$SURFTAB1
 70
     6
  9
$SURFTAB2
 70
     6
  9
$SURFTYPE
 70
     6
  9
$SURFU
 70
     6
  9
$SURFV
 70
     6
  9
$UCSNAME
  2

  9
$UCSORG
 10
0.0
 20
0.0
 30
0.0
  9
$UCSXDIR
 10
1.0
 20
0.0
 30
0.0
  9
$UCSYDIR
 10
0.0
 20
1.0
 30
0.0
  9
$PUCSNAME
  2

  9
$PUCSORG
 10
0.0
 20
0.0
 30
0.0
  9
$PUCSXDIR
 10
1.0
 20
0.0
 30
0.0
  9
$PUCSYDIR
 10
0.0
 20
1.0
 30
0.0
  9
$USERI1
 70
     0
  9
$USERI2
 70
     0
  9
$USERI3
 70
     0
  9
$USERI4
 70
     0
  9
$USERI5
 70
     0
  9
$USERR1
 40
0.0
  9
$USERR2
 40
0.0
  9
$USERR3
 40
0.0
  9
$USERR4
 40
0.0
  9
$USERR5
 40
0.0
  9
$WORLDVIEW
 70
     1
  9
$SHADEDGE
 70
     3
  9
$SHADEDIF
 70
    70
  9
$TILEMODE
 70
     1
  9
$MAXACTVP
 70
    16
  9
$PINSBASE
 10
0.0
 20
0.0
 30
0.0
  9
$PLIMCHECK
 70
     0
  9
$PEXTMIN
 10
0.0
 20
0.0
 30
0.0
  9
$PEXTMAX
 10
420.0
 20
297.0
 30
0.0
  9
$PLIMMIN
 10
0.0
 20
0.0
  9
$PLIMMAX
 10
420.0
 20
297.0
  9
$UNITMODE
 70
     0
  9
$VISRETAIN
 70
     0
  9
$PLINEGEN
 70
     0
  9
$PSLTSCALE
 70
     1
  9
$TREEDEPTH
 70
  3020
  9
$PICKSTYLE
 70
     1
  9
$CMLSTYLE
  2
STANDARD
  9
$CMLJUST
 70
     0
  9
$CMLSCALE
 40
1.0
  9
$PROXYGRAPHICS
 70
     1
  9
$MEASUREMENT
 70
     0
  0
ENDSEC
  0
SECTION
  2
CLASSES
  0
CLASS
  1
ACDBDICTIONARYWDFLT
  2
AcDbDictionaryWithDefault
  3
AutoCAD 2000
 90
        0
280
     0
281
     0
  0
CLASS
  1
ACDBPLACEHOLDER
  2
AcDbPlaceHolder
  3
AutoCAD 2000
 90
        0
280
     0
281
     0
  0
CLASS
  1
LAYOUT
  2
AcDbLayout
  3
AutoCAD 2000
 90
        0
280
     0
281
     0
  0
CLASS
  1
LONG_TRANSACTION
  2
AcDbLongTransaction
  3
AutoCAD 2000
 90
        0
280
     0
281
     0
  0
CLASS
  1
LWPOLYLINE
  2
AcDbPolyline
  3
AutoCAD 2000
 90
        0
280
     0
281
     1
  0
CLASS
  1
HATCH
  2
AcDbHatch
  3
AutoCAD 2000
 90
        0
280
     0
281
     1
  0
CLASS
  1
XRECORD
  2
AcDbXrecord
  3
AutoCAD 2000
 90
        0
280
     0
281
     0
  0
CLASS
  1
LONG_TRANSACTION
  2
AcDbLongTransaction
  3
AutoCAD 2000
 90
        0
280
     0
281
     0
  0
CLASS
  1
LWPOLYLINE
  2
AcDbPolyline
  3
AutoCAD 2000
 90
        0
280
     0
281
     1
  0
CLASS
  1
HATCH
  2
AcDbHatch
  3
AutoCAD 2000
 90
        0
280
     0
281
     1
  0
CLASS
  1
XRECORD
  2
AcDbXrecord
  3
AutoCAD 2000
 90
        0
280
     0
281
     0
  0
CLASS
  1
DICTIONARYVAR
  2
AcDbDictionaryVar
  3
AutoCAD 2000
 90
        0
280
     0
281
     0
  0
CLASS
  1
LONG_TRANSACTION
  2
AcDbLongTransaction
  3
AutoCAD 2000
 90
        0
280
     0
281
     0
  0
CLASS
  1
LWPOLYLINE
  2
AcDbPolyline
  3
AutoCAD 2000
 90
        0
280
     0
281
     1
  0
CLASS
  1
HATCH
  2
AcDbHatch
  3
AutoCAD 2000
 90
        0
280
     0
281
     1
  0
CLASS
  1
XRECORD
  2
AcDbXrecord
  3
AutoCAD 2000
 90
        0
280
     0
281
     0
  0
CLASS
  1
LONG_TRANSACTION
  2
AcDbLongTransaction
  3
AutoCAD 2000
 90
        0
280
     0
281
     0
  0
CLASS
  1
LWPOLYLINE
  2
AcDbPolyline
  3
AutoCAD 2000
 90
        0
280
     0
281
     1
  0
CLASS
  1
HATCH
  2
AcDbHatch
  3
AutoCAD 2000
 90
        0
280
     0
281
     1
  0
CLASS
  1
XRECORD
  2
AcDbXrecord
  3
AutoCAD 2000
 90
        0
280
     0
281
     0
  0
CLASS
  1
LONG_TRANSACTION
  2
AcDbLongTransaction
  3
AutoCAD 2000
 90
        0
280
     0
281
     0
  0
CLASS
  1
LWPOLYLINE
  2
AcDbPolyline
  3
AutoCAD 2000
 90
        0
280
     0
281
     1
  0
CLASS
  1
HATCH
  2
AcDbHatch
  3
AutoCAD 2000
 90
        0
280
     0
281
     1
  0
CLASS
  1
XRECORD
  2
AcDbXrecord
  3
AutoCAD 2000
 90
        0
280
     0
281
     0
  0
CLASS
  1
LONG_TRANSACTION
  2
AcDbLongTransaction
  3
AutoCAD 2000
 90
        0
280
     0
281
     0
  0
CLASS
  1
LWPOLYLINE
  2
AcDbPolyline
  3
AutoCAD 2000
 90
        0
280
     0
281
     1
  0
CLASS
  1
HATCH
  2
AcDbHatch
  3
AutoCAD 2000
 90
        0
280
     0
281
     1
  0
CLASS
  1
XRECORD
  2
AcDbXrecord
  3
AutoCAD 2000
 90
        0
280
     0
281
     0
  0
CLASS
  1
LONG_TRANSACTION
  2
AcDbLongTransaction
  3
AutoCAD 2000
 90
        0
280
     0
281
     0
  0
CLASS
  1
LWPOLYLINE
  2
AcDbPolyline
  3
AutoCAD 2000
 90
        0
280
     0
281
     1
  0
CLASS
  1
HATCH
  2
AcDbHatch
  3
AutoCAD 2000
 90
        0
280
     0
281
     1
  0
CLASS
  1
XRECORD
  2
AcDbXrecord
  3
AutoCAD 2000
 90
        0
280
     0
281
     0
  0
CLASS
  1
LONG_TRANSACTION
  2
AcDbLongTransaction
  3
AutoCAD 2000
 90
        0
280
     0
281
     0
  0
CLASS
  1
LWPOLYLINE
  2
AcDbPolyline
  3
AutoCAD 2000
 90
        0
280
     0
281
     1
  0
CLASS
  1
HATCH
  2
AcDbHatch
  3
AutoCAD 2000
 90
        0
280
     0
281
     1
  0
CLASS
  1
XRECORD
  2
AcDbXrecord
  3
AutoCAD 2000
 90
        0
280
     0
281
     0
  0
CLASS
  1
LONG_TRANSACTION
  2
AcDbLongTransaction
  3
AutoCAD 2000
 90
        0
280
     0
281
     0
  0
CLASS
  1
LWPOLYLINE
  2
AcDbPolyline
  3
AutoCAD 2000
 90
        0
280
     0
281
     1
  0
CLASS
  1
HATCH
  2
AcDbHatch
  3
AutoCAD 2000
 90
        0
280
     0
281
     1
  0
CLASS
  1
XRECORD
  2
AcDbXrecord
  3
AutoCAD 2000
 90
        0
280
     0
281
     0
  0
CLASS
  1
LONG_TRANSACTION
  2
AcDbLongTransaction
  3
AutoCAD 2000
 90
        0
280
     0
281
     0
  0
CLASS
  1
LWPOLYLINE
  2
AcDbPolyline
  3
AutoCAD 2000
 90
        0
280
     0
281
     1
  0
CLASS
  1
HATCH
  2
AcDbHatch
  3
AutoCAD 2000
 90
        0
280
     0
281
     1
  0
CLASS
  1
XRECORD
  2
AcDbXrecord
  3
AutoCAD 2000
 90
        0
280
     0
281
     0
  0
CLASS
  1
LONG_TRANSACTION
  2
AcDbLongTransaction
  3
AutoCAD 2000
 90
        0
280
     0
281
     0
  0
CLASS
  1
LWPOLYLINE
  2
AcDbPolyline
  3
AutoCAD 2000
 90
        0
280
     0
281
     1
  0
CLASS
  1
HATCH
  2
AcDbHatch
  3
AutoCAD 2000
 90
        0
280
     0
281
     1
  0
CLASS
  1
XRECORD
  2
AcDbXrecord
  3
AutoCAD 2000
 90
        0
280
     0
281
     0
  0
CLASS
  1
LONG_TRANSACTION
  2
AcDbLongTransaction
  3
AutoCAD 2000
 90
        0
280
     0
281
     0
  0
CLASS
  1
LWPOLYLINE
  2
AcDbPolyline
  3
AutoCAD 2000
 90
        0
280
     0
281
     1
  0
CLASS
  1
HATCH
  2
AcDbHatch
  3
AutoCAD 2000
 90
        0
280
     0
281
     1
  0
CLASS
  1
XRECORD
  2
AcDbXrecord
  3
AutoCAD 2000
 90
        0
280
     0
281
     0
  0
CLASS
  1
LONG_TRANSACTION
  2
AcDbLongTransaction
  3
AutoCAD 2000
 90
        0
280
     0
281
     0
  0
CLASS
  1
LWPOLYLINE
  2
AcDbPolyline
  3
AutoCAD 2000
 90
        0
280
     0
281
     1
  0
CLASS
  1
HATCH
  2
AcDbHatch
  3
AutoCAD 2000
 90
        0
280
     0
281
     1
  0
CLASS
  1
XRECORD
  2
AcDbXrecord
  3
AutoCAD 2000
 90
        0
280
     0
281
     0
  0
CLASS
  1
LONG_TRANSACTION
  2
AcDbLongTransaction
  3
AutoCAD 2000
 90
        0
280
     0
281
     0
  0
CLASS
  1
LWPOLYLINE
  2
AcDbPolyline
  3
AutoCAD 2000
 90
        0
280
     0
281
     1
  0
CLASS
  1
HATCH
  2
AcDbHatch
  3
AutoCAD 2000
 90
        0
280
     0
281
     1
  0
CLASS
  1
XRECORD
  2
AcDbXrecord
  3
AutoCAD 2000
 90
        0
280
     0
281
     0
  0
CLASS
  1
LONG_TRANSACTION
  2
AcDbLongTransaction
  3
AutoCAD 2000
 90
        0
280
     0
281
     0
  0
CLASS
  1
LWPOLYLINE
  2
AcDbPolyline
  3
AutoCAD 2000
 90
        0
280
     0
281
     1
  0
CLASS
  1
HATCH
  2
AcDbHatch
  3
AutoCAD 2000
 90
        0
280
     0
281
     1
  0
CLASS
  1
XRECORD
  2
AcDbXrecord
  3
AutoCAD 2000
 90
        0
280
     0
281
     0
  0
CLASS
  1
LONG_TRANSACTION
  2
AcDbLongTransaction
  3
AutoCAD 2000
 90
        0
280
     0
281
     0
  0
CLASS
  1
LWPOLYLINE
  2
AcDbPolyline
  3
AutoCAD 2000
 90
        0
280
     0
281
     1
  0
CLASS
  1
HATCH
  2
AcDbHatch
  3
AutoCAD 2000
 90
        0
280
     0
281
     1
  0
CLASS
  1
XRECORD
  2
AcDbXrecord
  3
AutoCAD 2000
 90
        0
280
     0
281
     0
  0
CLASS
  1
LONG_TRANSACTION
  2
AcDbLongTransaction
  3
AutoCAD 2000
 90
        0
280
     0
281
     0
  0
CLASS
  1
LWPOLYLINE
  2
AcDbPolyline
  3
AutoCAD 2000
 90
        0
280
     0
281
     1
  0
CLASS
  1
HATCH
  2
AcDbHatch
  3
AutoCAD 2000
 90
        0
280
     0
281
     1
  0
CLASS
  1
XRECORD
  2
AcDbXrecord
  3
AutoCAD 2000
 90
        0
280
     0
281
     0
  0
CLASS
  1
LONG_TRANSACTION
  2
AcDbLongTransaction
  3
AutoCAD 2000
 90
        0
280
     0
281
     0
  0
CLASS
  1
LWPOLYLINE
  2
AcDbPolyline
  3
AutoCAD 2000
 90
        0
280
     0
281
     1
  0
CLASS
  1
HATCH
  2
AcDbHatch
  3
AutoCAD 2000
 90
        0
280
     0
281
     1
  0
CLASS
  1
XRECORD
  2
AcDbXrecord
  3
AutoCAD 2000
 90
        0
280
     0
281
     0
  0
CLASS
  1
LONG_TRANSACTION
  2
AcDbLongTransaction
  3
AutoCAD 2000
 90
        0
280
     0
281
     0
  0
CLASS
  1
LWPOLYLINE
  2
AcDbPolyline
  3
AutoCAD 2000
 90
        0
280
     0
281
     1
  0
CLASS
  1
HATCH
  2
AcDbHatch
  3
AutoCAD 2000
 90
        0
280
     0
281
     1
  0
CLASS
  1
XRECORD
  2
AcDbXrecord
  3
AutoCAD 2000
 90
        0
280
     0
281
     0
  0
CLASS
  1
LONG_TRANSACTION
  2
AcDbLongTransaction
  3
AutoCAD 2000
 90
        0
280
     0
281
     0
  0
CLASS
  1
LWPOLYLINE
  2
AcDbPolyline
  3
AutoCAD 2000
 90
        0
280
     0
281
     1
  0
CLASS
  1
HATCH
  2
AcDbHatch
  3
AutoCAD 2000
 90
        0
280
     0
281
     1
  0
CLASS
  1
XRECORD
  2
AcDbXrecord
  3
AutoCAD 2000
 90
        0
280
     0
281
     0
  0
CLASS
  1
LONG_TRANSACTION
  2
AcDbLongTransaction
  3
AutoCAD 2000
 90
        0
280
     0
281
     0
  0
CLASS
  1
LWPOLYLINE
  2
AcDbPolyline
  3
AutoCAD 2000
 90
        0
280
     0
281
     1
  0
CLASS
  1
HATCH
  2
AcDbHatch
  3
AutoCAD 2000
 90
        0
280
     0
281
     1
  0
CLASS
  1
XRECORD
  2
AcDbXrecord
  3
AutoCAD 2000
 90
        0
280
     0
281
     0
  0
ENDSEC
  0
SECTION
  2
TABLES
  0
TABLE
  2
VPORT
  5
8
330
0
100
AcDbSymbolTable
 70
     2
  0
VPORT
  5
40FC
330
8
100
AcDbSymbolTableRecord
100
AcDbViewportTableRecord
  2
*ACTIVE
 70
     0
 10
0.0
 20
0.0
 11
1.0
 21
1.0
 12
214.427149547324
 22
138.7510018480558
 13
0.0
 23
0.0
 14
5.0
 24
5.0
 15
0.0
 25
0.0
 16
0.0
 26
0.0
 36
1.0
 17
0.0
 27
0.0
 37
0.0
 40
330.1620817195645
 41
1.795454545454545
 42
50.0
 43
0.0
 44
0.0
 50
0.0
 51
0.0
 71
     0
 72
   100
 73
     1
 74
     0
 75
     0
 76
     0
 77
     0
 78
     0
  0
ENDTAB
  0
TABLE
  2
LTYPE
  5
5
330
0
100
AcDbSymbolTable
 70
     3
  0
LTYPE
  5
14
330
5
100
AcDbSymbolTableRecord
100
AcDbLinetypeTableRecord
  2
BYBLOCK
 70
     0
  3

 72
    65
 73
     0
 40
0.0
  0
LTYPE
  5
15
330
5
100
AcDbSymbolTableRecord
100
AcDbLinetypeTableRecord
  2
BYLAYER
 70
     0
  3

 72
    65
 73
     0
 40
0.0
  0
LTYPE
  5
16
330
5
100
AcDbSymbolTableRecord
100
AcDbLinetypeTableRecord
  2
CONTINUOUS
 70
     0
  3
Solid line
 72
    65
 73
     0
 40
0.0
  0
LTYPE
  5
120
330
5
100
AcDbSymbolTableRecord
100
AcDbLinetypeTableRecord
  2
CENTER
 70
     0
  3
____ _ ____ _ ____ _ ____ _ ____ _ ____ _ ____ 
 72
    65
 73
     4
 40
2.0
 49
1.25
 74
     0
 49
-0.25
 74
     0
 49
0.25
 74
     0
 49
-0.25
 74
     0
  0
LTYPE
  5
122
330
5
100
AcDbSymbolTableRecord
100
AcDbLinetypeTableRecord
  2
PHANTOM
 70
     0
  3
______  __  __  ______  __  __  ______  __  __ 
 72
    65
 73
     6
 40
2.5
 49
1.25
 74
     0
 49
-0.25
 74
     0
 49
0.25
 74
     0
 49
-0.25
 74
     0
 49
0.25
 74
     0
 49
-0.25
 74
     0
  0
ENDTAB
  0
TABLE
  2
LAYER
  5
2
330
0
100
AcDbSymbolTable
 70
     9
  0
LAYER
  5
F
330
2
100
AcDbSymbolTableRecord
100
AcDbLayerTableRecord
  2
0
 70
     0
 62
     7
  6
CONTINUOUS
  0
LAYER
  5
62
330
2
100
AcDbSymbolTableRecord
100
AcDbLayerTableRecord
  2
VIEWPORT
 70
     0
 62
     7
  6
CONTINUOUS
  0
LAYER
  5
6B
330
2
100
AcDbSymbolTableRecord
100
AcDbLayerTableRecord
  2
ZUWAKU
 70
     0
 62
     7
  6
CONTINUOUS
  0
LAYER
  5
3EF
330
2
100
AcDbSymbolTableRecord
100
AcDbLayerTableRecord
  2
DEFPOINTS
 70
     0
 62
     7
  6
CONTINUOUS
  0
LAYER
  5
54D
330
2
100
AcDbSymbolTableRecord
100
AcDbLayerTableRecord
  2
SEIHIN
 70
     0
 62
     3
  6
CONTINUOUS
  0
LAYER
  5
54E
330
2
100
AcDbSymbolTableRecord
100
AcDbLayerTableRecord
  2
SUNPOU
 70
     0
 62
     4
  6
CONTINUOUS
  0
LAYER
  5
54F
330
2
100
AcDbSymbolTableRecord
100
AcDbLayerTableRecord
  2
CENTER_L
 70
     0
 62
     1
  6
CENTER
  0
LAYER
  5
550
330
2
100
AcDbSymbolTableRecord
100
AcDbLayerTableRecord
  2
NOKITOI
 70
     0
 62
     8
  6
PHANTOM
  0
LAYER
  5
3F17
330
2
100
AcDbSymbolTableRecord
100
AcDbLayerTableRecord
  2
MOJI
 70
     0
 62
     2
  6
CONTINUOUS
  0
ENDTAB
  0
TABLE
  2
STYLE
  5
3
330
0
100
AcDbSymbolTable
 70
     2
  0
STYLE
  5
10
330
3
100
AcDbSymbolTableRecord
100
AcDbTextStyleTableRecord
  2
STANDARD
 70
     0
 40
0.0
 41
1.0
 50
0.0
 71
     0
 42
3.0
  3
TXT
  4
c:\PROGRAM FILES\AUTOCAD LT\ms\bigfont.shx
  0
STYLE
  5
3F18
330
3
100
AcDbSymbolTableRecord
100
AcDbTextStyleTableRecord
  2
ｽﾀｲﾙ1
 70
     0
 40
0.0
 41
1.0
 50
0.0
 71
     0
 42
2.5
  3
MS PGothic.ttf
  4

1001
ACAD
1000
MS PGothic
1071
    32818
  0
ENDTAB
  0
TABLE
  2
VIEW
  5
6
330
0
100
AcDbSymbolTable
 70
     0
  0
ENDTAB
  0
TABLE
  2
UCS
  5
7
330
0
100
AcDbSymbolTable
 70
     0
  0
ENDTAB
  0
TABLE
  2
APPID
  5
9
330
0
100
AcDbSymbolTable
 70
     1
  0
APPID
  5
11
330
9
100
AcDbSymbolTableRecord
100
AcDbRegAppTableRecord
  2
ACAD
 70
     0
  0
ENDTAB
  0
TABLE
  2
DIMSTYLE
  5
A
330
0
100
AcDbSymbolTable
 70
     1
  0
DIMSTYLE
105
1D
102
{ACAD_REACTORS
330
2073
330
39FF
330
39FE
330
3A07
330
3A06
330
3A15
330
3A05
330
3C2E
330
3C48
330
3C55
330
3C62
330
3DF2
102
}
330
A
100
AcDbSymbolTableRecord
100
AcDbDimStyleTableRecord
  2
STANDARD
 70
     0
  3

  4

  5

  6

  7

 40
1.0
 41
0.18
 42
0.0625
 43
0.38
 44
0.18
 45
0.0
 46
0.0
 47
0.0
 48
0.0
140
0.18
141
0.09
142
0.0
143
25.4
144
1.0
145
0.0
146
1.0
147
0.09
 71
     0
 72
     0
 73
     1
 74
     1
 75
     0
 76
     0
 77
     0
 78
     0
170
     0
171
     2
172
     0
173
     0
174
     0
175
     0
176
     0
177
     0
178
     0
270
     2
271
     4
272
     4
273
     2
274
     2
340
10
275
     0
280
     0
281
     0
282
     0
283
     1
284
     0
285
     0
286
     0
287
     3
288
     0
  0
ENDTAB
  0
TABLE
  2
BLOCK_RECORD
  5
1
330
0
100
AcDbSymbolTable
 70
    13
  0
BLOCK_RECORD
  5
1A
102
{ACAD_XDICTIONARY
360
7A2
102
}
330
1
100
AcDbSymbolTableRecord
100
AcDbBlockTableRecord
  2
*MODEL_SPACE
  0
BLOCK_RECORD
  5
17
102
{ACAD_XDICTIONARY
360
7A0
102
}
330
1
100
AcDbSymbolTableRecord
100
AcDbBlockTableRecord
  2
*PAPER_SPACE
  0
BLOCK_RECORD
  5
B2
330
1
100
AcDbSymbolTableRecord
100
AcDbBlockTableRecord
  2
_OPEN
  0
BLOCK_RECORD
  5
2074
330
1
100
AcDbSymbolTableRecord
100
AcDbBlockTableRecord
  2
*D1
  0
BLOCK_RECORD
  5
3A38
330
1
100
AcDbSymbolTableRecord
100
AcDbBlockTableRecord
  2
*D2
  0
BLOCK_RECORD
  5
3A44
330
1
100
AcDbSymbolTableRecord
100
AcDbBlockTableRecord
  2
*D3
  0
BLOCK_RECORD
  5
3A50
330
1
100
AcDbSymbolTableRecord
100
AcDbBlockTableRecord
  2
*D4
  0
BLOCK_RECORD
  5
3A5C
330
1
100
AcDbSymbolTableRecord
100
AcDbBlockTableRecord
  2
*D5
  0
BLOCK_RECORD
  5
3A68
330
1
100
AcDbSymbolTableRecord
100
AcDbBlockTableRecord
  2
*D6
  0
BLOCK_RECORD
  5
3A74
330
1
100
AcDbSymbolTableRecord
100
AcDbBlockTableRecord
  2
*D7
  0
BLOCK_RECORD
  5
3C2F
330
1
100
AcDbSymbolTableRecord
100
AcDbBlockTableRecord
  2
*D8
  0
BLOCK_RECORD
  5
3C49
330
1
100
AcDbSymbolTableRecord
100
AcDbBlockTableRecord
  2
*D9
  0
BLOCK_RECORD
  5
3C56
330
1
100
AcDbSymbolTableRecord
100
AcDbBlockTableRecord
  2
*D10
  0
BLOCK_RECORD
  5
3C63
330
1
100
AcDbSymbolTableRecord
100
AcDbBlockTableRecord
  2
*D11
  0
BLOCK_RECORD
  5
3DF3
330
1
100
AcDbSymbolTableRecord
100
AcDbBlockTableRecord
  2
*D12
  0
ENDTAB
  0
ENDSEC
  0
SECTION
  2
BLOCKS
  0
BLOCK
  5
1B
330
1A
100
AcDbEntity
  8
0
100
AcDbBlockBegin
  2
*MODEL_SPACE
 70
     0
 10
0.0
 20
0.0
 30
0.0
  3
*MODEL_SPACE
  1

  0
ENDBLK
  5
1C
330
1A
100
AcDbEntity
  8
0
100
AcDbBlockEnd
  0
BLOCK
  5
18
330
17
100
AcDbEntity
 67
     1
  8
0
100
AcDbBlockBegin
  2
*PAPER_SPACE
 70
     0
 10
0.0
 20
0.0
 30
0.0
  3
*PAPER_SPACE
  1

  0
ENDBLK
  5
19
330
17
100
AcDbEntity
 67
     1
  8
0
100
AcDbBlockEnd
  0
BLOCK
  5
B3
330
B2
100
AcDbEntity
  8
0
100
AcDbBlockBegin
  2
_OPEN
 70
     0
 10
0.0
 20
0.0
 30
0.0
  3
_OPEN
  1

  0
LINE
  5
B4
330
B2
100
AcDbEntity
  8
0
  6
BYBLOCK
 62
     0
100
AcDbLine
 10
-1.0
 20
0.1666666666666666
 30
0.0
 11
0.0
 21
0.0
 31
0.0
  0
LINE
  5
B5
330
B2
100
AcDbEntity
  8
0
  6
BYBLOCK
 62
     0
100
AcDbLine
 10
0.0
 20
0.0
 30
0.0
 11
-1.0
 21
-0.1666666666666666
 31
0.0
  0
LINE
  5
B6
330
B2
100
AcDbEntity
  8
0
  6
BYBLOCK
 62
     0
100
AcDbLine
 10
0.0
 20
0.0
 30
0.0
 11
-1.0
 21
0.0
 31
0.0
  0
ENDBLK
  5
B7
330
B2
100
AcDbEntity
  8
0
100
AcDbBlockEnd
  0
BLOCK
  5
207E
330
2074
100
AcDbEntity
  8
0
100
AcDbBlockBegin
  2
*D1
 70
     1
 10
0.0
 20
0.0
 30
0.0
  3
*D1
  1

  0
LINE
  5
40A3
330
2074
100
AcDbEntity
  8
SUNPOU
100
AcDbLine
 10
56.466228060986
 20
240.6533486233106
 30
0.0
 11
31.13541529264832
 21
240.6533486233106
 31
0.0
  0
LINE
  5
40A4
330
2074
100
AcDbEntity
  8
SUNPOU
100
AcDbLine
 10
56.466228060986
 20
220.6533486233106
 30
0.0
 11
31.13541529264832
 21
220.6533486233106
 31
0.0
  0
LINE
  5
40A5
330
2074
100
AcDbEntity
  8
SUNPOU
100
AcDbLine
 10
32.63541529264831
 20
237.6533486233106
 30
0.0
 11
32.63541529264831
 21
223.6533486233106
 31
0.0
  0
INSERT
  5
40A6
330
2074
100
AcDbEntity
  8
SUNPOU
100
AcDbBlockReference
  2
_OPEN
 10
32.63541529264832
 20
240.6533486233106
 30
0.0
 41
3.0
 42
3.0
 43
3.0
 50
90.0
  0
INSERT
  5
40A7
330
2074
100
AcDbEntity
  8
SUNPOU
100
AcDbBlockReference
  2
_OPEN
 10
32.63541529264831
 20
220.6533486233106
 30
0.0
 41
3.0
 42
3.0
 43
3.0
 50
270.0
  0
MTEXT
  5
40A8
330
2074
100
AcDbEntity
  8
SUNPOU
100
AcDbMText
 10
30.13541529264828
 20
230.6533486233106
 30
0.0
 40
3.0
 41
0.0
 71
     5
 72
     1
  1
\A1;20
 11
0.0000000000000001
 21
1.0
 31
0.0
1001
ACAD
1000
MTEXTBEGIN
1070
    73
1070
     1
1070
    44
1040
1.0
1070
    74
1070
     0
1000
MTEXTEND
  0
POINT
  5
40A9
330
2074
100
AcDbEntity
  8
DEFPOINTS
 62
     0
100
AcDbPoint
 10
59.46622806098599
 20
240.6533486233106
 30
0.0
  0
POINT
  5
40AA
330
2074
100
AcDbEntity
  8
DEFPOINTS
 62
     0
100
AcDbPoint
 10
59.46622806098599
 20
220.6533486233106
 30
0.0
  0
POINT
  5
40AB
330
2074
100
AcDbEntity
  8
DEFPOINTS
 62
     0
100
AcDbPoint
 10
32.63541529264831
 20
220.6533486233106
 30
0.0
  0
ENDBLK
  5
207F
330
2074
100
AcDbEntity
  8
0
100
AcDbBlockEnd
  0
BLOCK
  5
3A42
330
3A38
100
AcDbEntity
  8
0
100
AcDbBlockBegin
  2
*D2
 70
     1
 10
0.0
 20
0.0
 30
0.0
  3
*D2
  1

  0
LINE
  5
40D0
330
3A38
100
AcDbEntity
  8
SUNPOU
100
AcDbLine
 10
311.7394780483856
 20
177.5533710472526
 30
0.0
 11
296.1124436361584
 21
216.6217668057774
 31
0.0
  0
LINE
  5
40D1
330
3A38
100
AcDbEntity
  8
SUNPOU
100
AcDbLine
 10
369.3051974475638
 20
200.5791815662139
 30
0.0
 11
353.6781630353365
 21
239.6475773247386
 31
0.0
  0
LINE
  5
40D2
330
3A38
100
AcDbEntity
  8
SUNPOU
100
AcDbLine
 10
299.454957732545
 20
216.3431999099405
 30
0.0
 11
351.4498010608349
 21
237.1407061851313
 31
0.0
  0
INSERT
  5
40D3
330
3A38
100
AcDbEntity
  8
SUNPOU
100
AcDbBlockReference
  2
_OPEN
 10
296.6695196971009
 20
215.2290477880553
 30
0.0
 41
3.0
 42
3.0
 43
3.0
 50
201.8009999999998
  0
INSERT
  5
40D4
330
3A38
100
AcDbEntity
  8
SUNPOU
100
AcDbBlockReference
  2
_OPEN
 10
354.235239096279
 20
238.2548583070165
 30
0.0
 41
3.0
 42
3.0
 43
3.0
 50
21.80099999999981
  0
MTEXT
  5
40D5
330
3A38
100
AcDbEntity
  8
SUNPOU
100
AcDbMText
 10
324.523919295119
 20
229.063151410406
 30
0.0
 40
3.0
 41
0.0
 71
     5
 72
     1
  1
\A1;62
 11
0.9284793451480323
 21
0.3713840406284056
 31
0.0
1001
ACAD
1000
MTEXTBEGIN
1070
    73
1070
     1
1070
    44
1040
1.0
1070
    74
1070
     0
1000
MTEXTEND
  0
POINT
  5
40D6
330
3A38
100
AcDbEntity
  8
DEFPOINTS
 62
     0
100
AcDbPoint
 10
312.8536301702709
 20
174.7679330118085
 30
0.0
  0
POINT
  5
40D7
330
3A38
100
AcDbEntity
  8
DEFPOINTS
 62
     0
100
AcDbPoint
 10
370.4193495694489
 20
197.7937435307698
 30
0.0
  0
POINT
  5
40D8
330
3A38
100
AcDbEntity
  8
DEFPOINTS
 62
     0
100
AcDbPoint
 10
354.235239096279
 20
238.2548583070165
 30
0.0
  0
ENDBLK
  5
3A43
330
3A38
100
AcDbEntity
  8
0
100
AcDbBlockEnd
  0
BLOCK
  5
3A4E
330
3A44
100
AcDbEntity
  8
0
100
AcDbBlockBegin
  2
*D3
 70
     1
 10
0.0
 20
0.0
 30
0.0
  3
*D3
  1

  0
LINE
  5
40D9
330
3A44
100
AcDbEntity
  8
SUNPOU
100
AcDbLine
 10
319.6872697100268
 20
181.9171546925712
 30
0.0
 11
308.3105610021294
 21
210.3595159560632
 31
0.0
  0
LINE
  5
40DA
330
3A44
100
AcDbEntity
  8
SUNPOU
100
AcDbLine
 10
360.54036089654
 20
198.2580524802212
 30
0.0
 11
349.1636521886427
 21
226.700413743713
 31
0.0
  0
LINE
  5
40DB
330
3A44
100
AcDbEntity
  8
SUNPOU
100
AcDbLine
 10
311.6530750985161
 20
210.0809490602263
 30
0.0
 11
346.9352902141412
 21
224.1935426041057
 31
0.0
  0
INSERT
  5
40DC
330
3A44
100
AcDbEntity
  8
SUNPOU
100
AcDbBlockReference
  2
_OPEN
 10
308.867637063072
 20
208.9667969383411
 30
0.0
 41
3.0
 42
3.0
 43
3.0
 50
201.8009999999998
  0
INSERT
  5
40DD
330
3A44
100
AcDbEntity
  8
SUNPOU
100
AcDbBlockReference
  2
_OPEN
 10
349.7207282495853
 20
225.3076947259909
 30
0.0
 41
3.0
 42
3.0
 43
3.0
 50
21.80099999999981
  0
MTEXT
  5
40DE
330
3A44
100
AcDbEntity
  8
SUNPOU
100
AcDbMText
 10
328.3657225547576
 20
219.4584441950361
 30
0.0
 40
3.0
 41
0.0
 71
     5
 72
     1
  1
\A1;44
 11
0.9284793451480323
 21
0.3713840406284056
 31
0.0
1001
ACAD
1000
MTEXTBEGIN
1070
    73
1070
     1
1070
    44
1040
1.0
1070
    74
1070
     0
1000
MTEXTEND
  0
POINT
  5
40DF
330
3A44
100
AcDbEntity
  8
DEFPOINTS
 62
     0
100
AcDbPoint
 10
320.801421831912
 20
179.1317166571271
 30
0.0
  0
POINT
  5
40E0
330
3A44
100
AcDbEntity
  8
DEFPOINTS
 62
     0
100
AcDbPoint
 10
361.6545130184253
 20
195.4726144447771
 30
0.0
  0
POINT
  5
40E1
330
3A44
100
AcDbEntity
  8
DEFPOINTS
 62
     0
100
AcDbPoint
 10
349.7207282495853
 20
225.3076947259909
 30
0.0
  0
ENDBLK
  5
3A4F
330
3A44
100
AcDbEntity
  8
0
100
AcDbBlockEnd
  0
BLOCK
  5
3A5A
330
3A50
100
AcDbEntity
  8
0
100
AcDbBlockBegin
  2
*D4
 70
     1
 10
0.0
 20
0.0
 30
0.0
  3
*D4
  1

  0
LINE
  5
40BE
330
3A50
100
AcDbEntity
  8
SUNPOU
100
AcDbLine
 10
311.7394780483857
 20
177.5533710472527
 30
0.0
 11
287.8437652082518
 21
167.9952840153324
 31
0.0
  0
LINE
  5
40BF
330
3A50
100
AcDbEntity
  8
SUNPOU
100
AcDbLine
 10
324.7379194703801
 20
145.0565939670716
 30
0.0
 11
300.8422066302463
 21
135.4985069351513
 31
0.0
  0
LINE
  5
40C0
330
3A50
100
AcDbEntity
  8
SUNPOU
100
AcDbLine
 10
290.3506363478591
 20
165.7669220408309
 30
0.0
 11
301.1207735260831
 21
138.8410210315381
 31
0.0
  0
INSERT
  5
40C1
330
3A50
100
AcDbEntity
  8
SUNPOU
100
AcDbBlockReference
  2
_OPEN
 10
289.2364842259738
 20
168.552360076275
 30
0.0
 41
3.0
 42
3.0
 43
3.0
 50
111.8010000000002
  0
INSERT
  5
40C2
330
3A50
100
AcDbEntity
  8
SUNPOU
100
AcDbBlockReference
  2
_OPEN
 10
302.2349256479683
 20
136.055582996094
 30
0.0
 41
3.0
 42
3.0
 43
3.0
 50
291.8010000000002
  0
MTEXT
  5
40C3
330
3A50
100
AcDbEntity
  8
SUNPOU
100
AcDbMText
 10
298.0569032998411
 20
153.2324316377555
 30
0.0
 40
3.0
 41
0.0
 71
     5
 72
     1
  1
\A1;35
 11
0.3713840406284128
 21
-0.9284793451480293
 31
0.0
1001
ACAD
1000
MTEXTBEGIN
1070
    73
1070
     1
1070
    44
1040
1.0
1070
    74
1070
     0
1000
MTEXTEND
  0
POINT
  5
40C4
330
3A50
100
AcDbEntity
  8
DEFPOINTS
 62
     0
100
AcDbPoint
 10
314.5249160838299
 20
178.6675231691379
 30
0.0
  0
POINT
  5
40C5
330
3A50
100
AcDbEntity
  8
DEFPOINTS
 62
     0
100
AcDbPoint
 10
327.5233575058241
 20
146.1707460889568
 30
0.0
  0
POINT
  5
40C6
330
3A50
100
AcDbEntity
  8
DEFPOINTS
 62
     0
100
AcDbPoint
 10
302.2349256479683
 20
136.055582996094
 30
0.0
  0
ENDBLK
  5
3A5B
330
3A50
100
AcDbEntity
  8
0
100
AcDbBlockEnd
  0
BLOCK
  5
3A66
330
3A5C
100
AcDbEntity
  8
0
100
AcDbBlockBegin
  2
*D5
 70
     1
 10
0.0
 20
0.0
 30
0.0
  3
*D5
  1

  0
LINE
  5
40C7
330
3A5C
100
AcDbEntity
  8
SUNPOU
100
AcDbLine
 10
291.08573711389
 20
169.2920459004639
 30
0.0
 11
309.2388958876437
 21
176.5531589136898
 31
0.0
  0
LINE
  5
40C8
330
3A5C
100
AcDbEntity
  8
SUNPOU
100
AcDbLine
 10
304.0841785358842
 20
136.7952688202828
 30
0.0
 11
322.2373373096381
 21
144.0563818335087
 31
0.0
  0
LINE
  5
40C9
330
3A5C
100
AcDbEntity
  8
SUNPOU
100
AcDbLine
 10
308.9603289918068
 20
173.2106448173031
 30
0.0
 11
319.7304661700308
 21
146.2847438080101
 31
0.0
  0
INSERT
  5
40CA
330
3A5C
100
AcDbEntity
  8
SUNPOU
100
AcDbBlockReference
  2
_OPEN
 10
307.8461768699215
 20
175.9960828527471
 30
0.0
 41
3.0
 42
3.0
 43
3.0
 50
111.8010000000002
  0
INSERT
  5
40CB
330
3A5C
100
AcDbEntity
  8
SUNPOU
100
AcDbBlockReference
  2
_OPEN
 10
320.844618291916
 20
143.4993057725661
 30
0.0
 41
3.0
 42
3.0
 43
3.0
 50
291.8010000000002
  0
MTEXT
  5
40CC
330
3A5C
100
AcDbEntity
  8
SUNPOU
100
AcDbMText
 10
316.6665959437888
 20
160.6761544142277
 30
0.0
 40
3.0
 41
0.0
 71
     5
 72
     1
  1
\A1;35
 11
0.3713840406284128
 21
-0.9284793451480293
 31
0.0
1001
ACAD
1000
MTEXTBEGIN
1070
    73
1070
     1
1070
    44
1040
1.0
1070
    74
1070
     0
1000
MTEXTEND
  0
POINT
  5
40CD
330
3A5C
100
AcDbEntity
  8
DEFPOINTS
 62
     0
100
AcDbPoint
 10
288.3002990784458
 20
168.1778937785787
 30
0.0
  0
POINT
  5
40CE
330
3A5C
100
AcDbEntity
  8
DEFPOINTS
 62
     0
100
AcDbPoint
 10
301.2987405004401
 20
135.6811166983975
 30
0.0
  0
POINT
  5
40CF
330
3A5C
100
AcDbEntity
  8
DEFPOINTS
 62
     0
100
AcDbPoint
 10
320.844618291916
 20
143.4993057725661
 30
0.0
  0
ENDBLK
  5
3A67
330
3A5C
100
AcDbEntity
  8
0
100
AcDbBlockEnd
  0
BLOCK
  5
3A72
330
3A68
100
AcDbEntity
  8
0
100
AcDbBlockBegin
  2
*D6
 70
     1
 10
0.0
 20
0.0
 30
0.0
  3
*D6
  1

  0
LINE
  5
40B5
330
3A68
100
AcDbEntity
  8
SUNPOU
100
AcDbLine
 10
321.6739992108378
 20
152.4472903241929
 30
0.0
 11
307.1729923042837
 21
146.6470077801823
 31
0.0
  0
LINE
  5
40B6
330
3A68
100
AcDbEntity
  8
SUNPOU
100
AcDbLine
 10
324.7379194703801
 20
145.0565939670716
 30
0.0
 11
310.144064629311
 21
139.219173018998
 31
0.0
  0
LINE
  5
40B7
330
3A68
100
AcDbEntity
  8
SUNPOU
100
AcDbLine
 10
309.679863443891
 20
144.4186458056808
 30
0.0
 11
310.4226315251478
 21
142.5616871153847
 31
0.0
  0
INSERT
  5
40B8
330
3A68
100
AcDbEntity
  8
SUNPOU
100
AcDbBlockReference
  2
_OPEN
 10
308.5657113220058
 20
147.2040838411249
 30
0.0
 41
3.0
 42
3.0
 43
3.0
 50
111.8010000000002
  0
INSERT
  5
40B9
330
3A68
100
AcDbEntity
  8
SUNPOU
100
AcDbBlockReference
  2
_OPEN
 10
311.5367836470331
 20
139.7762490799406
 30
0.0
 41
3.0
 42
3.0
 43
3.0
 50
291.8010000000002
  0
MTEXT
  5
40BA
330
3A68
100
AcDbEntity
  8
SUNPOU
100
AcDbMText
 10
312.3724458473895
 20
144.4186265621038
 30
0.0
 40
3.0
 41
0.0
 71
     5
 72
     1
  1
\A1;8
 11
0.3713840406284128
 21
-0.9284793451480293
 31
0.0
1001
ACAD
1000
MTEXTBEGIN
1070
    73
1070
     1
1070
    44
1040
1.0
1070
    74
1070
     0
1000
MTEXTEND
  0
POINT
  5
40BB
330
3A68
100
AcDbEntity
  8
DEFPOINTS
 62
     0
100
AcDbPoint
 10
324.4594372462819
 20
153.5614424460782
 30
0.0
  0
POINT
  5
40BC
330
3A68
100
AcDbEntity
  8
DEFPOINTS
 62
     0
100
AcDbPoint
 10
327.5233575058241
 20
146.1707460889568
 30
0.0
  0
POINT
  5
40BD
330
3A68
100
AcDbEntity
  8
DEFPOINTS
 62
     0
100
AcDbPoint
 10
311.5367836470331
 20
139.7762490799406
 30
0.0
  0
ENDBLK
  5
3A73
330
3A68
100
AcDbEntity
  8
0
100
AcDbBlockEnd
  0
BLOCK
  5
3A80
330
3A74
100
AcDbEntity
  8
0
100
AcDbBlockBegin
  2
*D7
 70
     1
 10
0.0
 20
0.0
 30
0.0
  3
*D7
  1

  0
LINE
  5
40EB
330
3A74
100
AcDbEntity
  8
SUNPOU
100
AcDbLine
 10
311.7394780483857
 20
177.5533710472527
 30
0.0
 11
297.1456232073165
 21
171.715950099179
 31
0.0
  0
LINE
  5
40EC
330
3A74
100
AcDbEntity
  8
SUNPOU
100
AcDbLine
 10
314.617702438898
 20
170.0883978820055
 30
0.0
 11
300.1166955323438
 21
164.2881153379948
 31
0.0
  0
LINE
  5
40ED
330
3A74
100
AcDbEntity
  8
SUNPOU
100
AcDbLine
 10
297.4241901031534
 20
175.0584641955657
 30
0.0
 11
296.3100379812681
 21
177.8439022310098
 31
0.0
  0
LINE
  5
40EE
330
3A74
100
AcDbEntity
  8
SUNPOU
100
AcDbLine
 10
302.6235666719511
 20
162.0597533634933
 30
0.0
 11
303.7377187938364
 21
159.2743153280492
 31
0.0
  0
LINE
  5
40EF
330
3A74
100
AcDbEntity
  8
SUNPOU
100
AcDbLine
 10
298.5383422250385
 20
172.2730261601216
 30
0.0
 11
301.5094145500659
 21
164.8451913989374
 31
0.0
  0
INSERT
  5
40F0
330
3A74
100
AcDbEntity
  8
SUNPOU
100
AcDbBlockReference
  2
_OPEN
 10
298.5383422250385
 20
172.2730261601216
 30
0.0
 41
3.0
 42
3.0
 43
3.0
 50
291.8010000000002
  0
INSERT
  5
40F1
330
3A74
100
AcDbEntity
  8
SUNPOU
100
AcDbBlockReference
  2
_OPEN
 10
301.5094145500659
 20
164.8451913989374
 30
0.0
 41
3.0
 42
3.0
 43
3.0
 50
111.8010000000002
  0
MTEXT
  5
40F2
330
3A74
100
AcDbEntity
  8
SUNPOU
100
AcDbMText
 10
302.3450767504222
 20
169.4875688811006
 30
0.0
 40
3.0
 41
0.0
 71
     5
 72
     1
  1
\A1;8
 11
0.3713840406284128
 21
-0.9284793451480293
 31
0.0
1001
ACAD
1000
MTEXTBEGIN
1070
    73
1070
     1
1070
    44
1040
1.0
1070
    74
1070
     0
1000
MTEXTEND
  0
POINT
  5
40F3
330
3A74
100
AcDbEntity
  8
DEFPOINTS
 62
     0
100
AcDbPoint
 10
314.5249160838299
 20
178.6675231691379
 30
0.0
  0
POINT
  5
40F4
330
3A74
100
AcDbEntity
  8
DEFPOINTS
 62
     0
100
AcDbPoint
 10
317.4031404743421
 20
171.2025500038907
 30
0.0
  0
POINT
  5
40F5
330
3A74
100
AcDbEntity
  8
DEFPOINTS
 62
     0
100
AcDbPoint
 10
301.5094145500659
 20
164.8451913989374
 30
0.0
  0
ENDBLK
  5
3A81
330
3A74
100
AcDbEntity
  8
0
100
AcDbBlockEnd
  0
BLOCK
  5
3C39
330
3C2F
100
AcDbEntity
  8
0
100
AcDbBlockBegin
  2
*D8
 70
     1
 10
0.0
 20
0.0
 30
0.0
  3
*D8
  1

  0
LINE
  5
409A
330
3C2F
100
AcDbEntity
  8
SUNPOU
100
AcDbLine
 10
59.46622806098599
 20
87.19497646169712
 30
0.0
 11
59.466228060986
 21
183.0827834252562
 31
0.0
  0
LINE
  5
409B
330
3C2F
100
AcDbEntity
  8
SUNPOU
100
AcDbLine
 10
238.4672465379301
 20
108.2249798616971
 30
0.0
 11
238.4672465379301
 21
183.0827834252562
 31
0.0
  0
LINE
  5
409C
330
3C2F
100
AcDbEntity
  8
SUNPOU
100
AcDbLine
 10
62.466228060986
 20
181.5827834252562
 30
0.0
 11
235.4672465379301
 21
181.5827834252562
 31
0.0
  0
INSERT
  5
409D
330
3C2F
100
AcDbEntity
  8
SUNPOU
100
AcDbBlockReference
  2
_OPEN
 10
59.466228060986
 20
181.5827834252562
 30
0.0
 41
3.0
 42
3.0
 43
3.0
 50
180.0
  0
INSERT
  5
409E
330
3C2F
100
AcDbEntity
  8
SUNPOU
100
AcDbBlockReference
  2
_OPEN
 10
238.4672465379301
 20
181.5827834252562
 30
0.0
 41
3.0
 42
3.0
 43
3.0
  0
MTEXT
  5
409F
330
3C2F
100
AcDbEntity
  8
SUNPOU
100
AcDbMText
 10
148.966737299458
 20
184.0827834252562
 30
0.0
 40
3.0
 41
0.0
 71
     5
 72
     1
  1
\A1;179
1001
ACAD
1000
MTEXTBEGIN
1070
    73
1070
     1
1070
    44
1040
1.0
1070
    74
1070
     0
1000
MTEXTEND
  0
POINT
  5
40A0
330
3C2F
100
AcDbEntity
  8
DEFPOINTS
 62
     0
100
AcDbPoint
 10
59.46622806098599
 20
84.19497646169711
 30
0.0
  0
POINT
  5
40A1
330
3C2F
100
AcDbEntity
  8
DEFPOINTS
 62
     0
100
AcDbPoint
 10
238.4672465379301
 20
105.2249798616971
 30
0.0
  0
POINT
  5
40A2
330
3C2F
100
AcDbEntity
  8
DEFPOINTS
 62
     0
100
AcDbPoint
 10
238.4672465379301
 20
181.5827834252562
 30
0.0
  0
ENDBLK
  5
3C3A
330
3C2F
100
AcDbEntity
  8
0
100
AcDbBlockEnd
  0
BLOCK
  5
3C53
330
3C49
100
AcDbEntity
  8
0
100
AcDbBlockBegin
  2
*D9
 70
     1
 10
0.0
 20
0.0
 30
0.0
  3
*D9
  1

  0
LINE
  5
40AC
330
3C49
100
AcDbEntity
  8
SUNPOU
100
AcDbLine
 10
227.2478575943588
 20
143.7574232887605
 30
0.0
 11
249.083004782196
 21
152.491301189686
 31
0.0
  0
LINE
  5
40AD
330
3C49
100
AcDbEntity
  8
SUNPOU
100
AcDbLine
 10
240.2462990943588
 20
111.2606461887605
 30
0.0
 11
262.081446282196
 21
119.994524089686
 31
0.0
  0
LINE
  5
40AE
330
3C49
100
AcDbEntity
  8
SUNPOU
100
AcDbLine
 10
248.8044378925729
 20
149.1487870927814
 30
0.0
 11
259.5745751384461
 21
122.2228860595271
 31
0.0
  0
INSERT
  5
40AF
330
3C49
100
AcDbEntity
  8
SUNPOU
100
AcDbBlockReference
  2
_OPEN
 10
247.6902857655095
 20
151.9342251261543
 30
0.0
 41
3.0
 42
3.0
 43
3.0
 50
111.8010001065149
  0
INSERT
  5
40B0
330
3C49
100
AcDbEntity
  8
SUNPOU
100
AcDbBlockReference
  2
_OPEN
 10
260.6887272655095
 20
119.4374480261543
 30
0.0
 41
3.0
 42
3.0
 43
3.0
 50
291.8010001065148
  0
MTEXT
  5
40B1
330
3C49
100
AcDbEntity
  8
SUNPOU
100
AcDbMText
 10
256.5107048766536
 20
136.6142966820405
 30
0.0
 40
3.0
 41
0.0
 71
     5
 72
     1
  1
\A1;35
 11
0.3713840423544848
 21
-0.9284793444576148
 31
0.0
1001
ACAD
1000
MTEXTBEGIN
1070
    73
1070
     1
1070
    44
1040
1.0
1070
    74
1070
     0
1000
MTEXTEND
  0
POINT
  5
40B2
330
3C49
100
AcDbEntity
  8
DEFPOINTS
 62
     0
100
AcDbPoint
 10
224.4624195609859
 20
142.6432711616971
 30
0.0
  0
POINT
  5
40B3
330
3C49
100
AcDbEntity
  8
DEFPOINTS
 62
     0
100
AcDbPoint
 10
237.4608610609859
 20
110.1464940616971
 30
0.0
  0
POINT
  5
40B4
330
3C49
100
AcDbEntity
  8
DEFPOINTS
 62
     0
100
AcDbPoint
 10
260.6887272655095
 20
119.4374480261543
 30
0.0
  0
ENDBLK
  5
3C54
330
3C49
100
AcDbEntity
  8
0
100
AcDbBlockEnd
  0
BLOCK
  5
3C60
330
3C56
100
AcDbEntity
  8
0
100
AcDbBlockBegin
  2
*D10
 70
     1
 10
0.0
 20
0.0
 30
0.0
  3
*D10
  1

  0
LINE
  5
40E2
330
3C56
100
AcDbEntity
  8
SUNPOU
100
AcDbLine
 10
239.3467089143974
 20
261.6533486233106
 30
0.0
 11
261.9036180981832
 21
261.6533486233106
 31
0.0
  0
LINE
  5
40E3
330
3C56
100
AcDbEntity
  8
SUNPOU
100
AcDbLine
 10
239.3467089143974
 20
199.6533486233106
 30
0.0
 11
261.9036180981832
 21
199.6533486233106
 31
0.0
  0
LINE
  5
40E4
330
3C56
100
AcDbEntity
  8
SUNPOU
100
AcDbLine
 10
260.4036180981831
 20
258.6533486233106
 30
0.0
 11
260.4036180981831
 21
202.6533486233106
 31
0.0
  0
INSERT
  5
40E5
330
3C56
100
AcDbEntity
  8
SUNPOU
100
AcDbBlockReference
  2
_OPEN
 10
260.4036180981831
 20
261.6533486233106
 30
0.0
 41
3.0
 42
3.0
 43
3.0
 50
90.0
  0
INSERT
  5
40E6
330
3C56
100
AcDbEntity
  8
SUNPOU
100
AcDbBlockReference
  2
_OPEN
 10
260.4036180981831
 20
199.6533486233106
 30
0.0
 41
3.0
 42
3.0
 43
3.0
 50
270.0
  0
MTEXT
  5
40E7
330
3C56
100
AcDbEntity
  8
SUNPOU
100
AcDbMText
 10
257.9036180981831
 20
230.6533486233106
 30
0.0
 40
3.0
 41
0.0
 71
     5
 72
     1
  1
\A1;62
 11
0.0000000000000001
 21
1.0
 31
0.0
1001
ACAD
1000
MTEXTBEGIN
1070
    73
1070
     1
1070
    44
1040
1.0
1070
    74
1070
     0
1000
MTEXTEND
  0
POINT
  5
40E8
330
3C56
100
AcDbEntity
  8
DEFPOINTS
 62
     0
100
AcDbPoint
 10
236.3467089143973
 20
261.6533486233106
 30
0.0
  0
POINT
  5
40E9
330
3C56
100
AcDbEntity
  8
DEFPOINTS
 62
     0
100
AcDbPoint
 10
236.3467089143973
 20
199.6533486233106
 30
0.0
  0
POINT
  5
40EA
330
3C56
100
AcDbEntity
  8
DEFPOINTS
 62
     0
100
AcDbPoint
 10
260.4036180981831
 20
199.6533486233106
 30
0.0
  0
ENDBLK
  5
3C61
330
3C56
100
AcDbEntity
  8
0
100
AcDbBlockEnd
  0
BLOCK
  5
3C6D
330
3C63
100
AcDbEntity
  8
0
100
AcDbBlockBegin
  2
*D11
 70
     1
 10
0.0
 20
0.0
 30
0.0
  3
*D11
  1

  0
LINE
  5
4091
330
3C63
100
AcDbEntity
  8
SUNPOU
100
AcDbLine
 10
111.9662280609859
 20
88.49497646169714
 30
0.0
 11
111.9662280609859
 21
173.9140085348676
 31
0.0
  0
LINE
  5
4092
330
3C63
100
AcDbEntity
  8
SUNPOU
100
AcDbLine
 10
238.4672465379301
 20
108.2249798616971
 30
0.0
 11
238.4672465379301
 21
173.9140085348676
 31
0.0
  0
LINE
  5
4093
330
3C63
100
AcDbEntity
  8
SUNPOU
100
AcDbLine
 10
114.9662280609859
 20
172.4140085348676
 30
0.0
 11
235.4672465379301
 21
172.4140085348676
 31
0.0
  0
INSERT
  5
4094
330
3C63
100
AcDbEntity
  8
SUNPOU
100
AcDbBlockReference
  2
_OPEN
 10
111.9662280609859
 20
172.4140085348676
 30
0.0
 41
3.0
 42
3.0
 43
3.0
 50
180.0
  0
INSERT
  5
4095
330
3C63
100
AcDbEntity
  8
SUNPOU
100
AcDbBlockReference
  2
_OPEN
 10
238.4672465379301
 20
172.4140085348676
 30
0.0
 41
3.0
 42
3.0
 43
3.0
  0
MTEXT
  5
4096
330
3C63
100
AcDbEntity
  8
SUNPOU
100
AcDbMText
 10
175.2167372994581
 20
174.9140085348676
 30
0.0
 40
3.0
 41
0.0
 71
     5
 72
     1
  1
\A1;127
1001
ACAD
1000
MTEXTBEGIN
1070
    73
1070
     1
1070
    44
1040
1.0
1070
    74
1070
     0
1000
MTEXTEND
  0
POINT
  5
4097
330
3C63
100
AcDbEntity
  8
DEFPOINTS
 62
     0
100
AcDbPoint
 10
111.9662280609859
 20
85.49497646169713
 30
0.0
  0
POINT
  5
4098
330
3C63
100
AcDbEntity
  8
DEFPOINTS
 62
     0
100
AcDbPoint
 10
238.4672465379301
 20
105.2249798616971
 30
0.0
  0
POINT
  5
4099
330
3C63
100
AcDbEntity
  8
DEFPOINTS
 62
     0
100
AcDbPoint
 10
238.4672465379301
 20
172.4140085348676
 30
0.0
  0
ENDBLK
  5
3C6E
330
3C63
100
AcDbEntity
  8
0
100
AcDbBlockEnd
  0
BLOCK
  5
3DFD
330
3DF3
100
AcDbEntity
  8
0
100
AcDbBlockBegin
  2
*D12
 70
     1
 10
0.0
 20
0.0
 30
0.0
  3
*D12
  1

  0
LINE
  5
4088
330
3DF3
100
AcDbEntity
  8
SUNPOU
100
AcDbLine
 10
56.466228060986
 20
84.42442928546972
 30
0.0
 11
31.13541529264829
 21
84.42442928546972
 31
0.0
  0
LINE
  5
4089
330
3DF3
100
AcDbEntity
  8
SUNPOU
100
AcDbLine
 10
221.462419560986
 20
142.6432711616971
 30
0.0
 11
31.1354152926483
 21
142.6432711616972
 31
0.0
  0
LINE
  5
408A
330
3DF3
100
AcDbEntity
  8
SUNPOU
100
AcDbLine
 10
32.63541529264829
 20
87.42442928546971
 30
0.0
 11
32.6354152926483
 21
139.6432711616972
 31
0.0
  0
INSERT
  5
408B
330
3DF3
100
AcDbEntity
  8
SUNPOU
100
AcDbBlockReference
  2
_OPEN
 10
32.63541529264829
 20
84.42442928546972
 30
0.0
 41
3.0
 42
3.0
 43
3.0
 50
270.0
  0
INSERT
  5
408C
330
3DF3
100
AcDbEntity
  8
SUNPOU
100
AcDbBlockReference
  2
_OPEN
 10
32.6354152926483
 20
142.6432711616972
 30
0.0
 41
3.0
 42
3.0
 43
3.0
 50
90.0
  0
MTEXT
  5
408D
330
3DF3
100
AcDbEntity
  8
SUNPOU
100
AcDbMText
 10
30.13541529264828
 20
113.5338502235834
 30
0.0
 40
3.0
 41
0.0
 71
     5
 72
     1
  1
\A1;58
 11
0.0000000000000001
 21
1.0
 31
0.0
1001
ACAD
1000
MTEXTBEGIN
1070
    73
1070
     1
1070
    44
1040
1.0
1070
    74
1070
     0
1000
MTEXTEND
  0
POINT
  5
408E
330
3DF3
100
AcDbEntity
  8
DEFPOINTS
 62
     0
100
AcDbPoint
 10
59.46622806098599
 20
84.42442928546972
 30
0.0
  0
POINT
  5
408F
330
3DF3
100
AcDbEntity
  8
DEFPOINTS
 62
     0
100
AcDbPoint
 10
224.462419560986
 20
142.6432711616971
 30
0.0
  0
POINT
  5
4090
330
3DF3
100
AcDbEntity
  8
DEFPOINTS
 62
     0
100
AcDbPoint
 10
32.6354152926483
 20
142.6432711616972
 30
0.0
  0
ENDBLK
  5
3DFE
330
3DF3
100
AcDbEntity
  8
0
100
AcDbBlockEnd
  0
ENDSEC
  0
SECTION
  2
ENTITIES
  0
TEXT
  5
9D
330
1A
100
AcDbEntity
  8
ZUWAKU
 48
5.0
100
AcDbText
 10
327.1013476411085
 20
8.060146781246267
 30
0.0
 40
4.0
  1

100
AcDbText
  0
ARC
  5
5A7
330
1A
100
AcDbEntity
  8
NOKITOI
  6
PHANTOM
 62
     8
100
AcDbCircle
 10
107.8032545577564
 20
78.51744376183976
 30
0.0
 40
43.00001447645168
100
AcDbArc
 50
186.5249107071177
 51
269.9998883751437
  0
ARC
  5
5A8
330
1A
100
AcDbEntity
  8
NOKITOI
  6
PHANTOM
 62
     8
100
AcDbCircle
 10
107.8032768661816
 20
78.51742366081336
 30
0.0
 40
41.79999437547816
100
AcDbArc
 50
184.4742952125247
 51
269.999854592109
  0
LINE
  5
5A9
330
1A
100
AcDbEntity
  8
NOKITOI
  6
PHANTOM
 62
     8
100
AcDbLine
 10
57.5922707842135
 20
77.65502928546968
 30
0.0
 11
57.50677078421381
 21
80.39252928546963
 31
0.0
  0
LINE
  5
5AA
330
1A
100
AcDbEntity
  8
NOKITOI
  6
PHANTOM
 62
     8
100
AcDbLine
 10
56.05417078421374
 20
88.45492928546965
 30
0.0
 11
56.44437078421356
 21
75.97062928546958
 31
0.0
  0
LINE
  5
5AB
330
1A
100
AcDbEntity
  8
NOKITOI
  6
PHANTOM
 62
     8
100
AcDbLine
 10
65.63217078421416
 20
75.71742928546971
 30
0.0
 11
59.59127078421374
 21
75.71742928546971
 31
0.0
  0
ARC
  5
5AC
330
1A
100
AcDbEntity
  8
NOKITOI
  6
PHANTOM
 62
     8
100
AcDbCircle
 10
64.0882623600512
 20
73.51743680052615
 30
0.0
 40
0.9999924849789756
100
AcDbArc
 50
6.528264606673934
 51
89.99951732740965
  0
LINE
  5
5AD
330
1A
100
AcDbEntity
  8
NOKITOI
  6
PHANTOM
 62
     8
100
AcDbLine
 10
57.94357078421376
 20
74.51742928546966
 30
0.0
 11
64.08827078421359
 21
74.51742928546966
 31
0.0
  0
ARC
  5
5AE
330
1A
100
AcDbEntity
  8
NOKITOI
  6
PHANTOM
 62
     8
100
AcDbCircle
 10
59.59128435635216
 20
77.71741613038327
 30
0.0
 40
1.999986844959662
100
AcDbArc
 50
181.7875531852356
 51
269.9996111843215
  0
ARC
  5
5AF
330
1A
100
AcDbEntity
  8
NOKITOI
  6
PHANTOM
 62
     8
100
AcDbCircle
 10
57.94360674336463
 20
76.01739443132643
 30
0.0
 40
1.499965146287778
100
AcDbArc
 50
181.7866280217767
 51
269.9986264296971
  0
ARC
  5
5B0
330
1A
100
AcDbEntity
  8
NOKITOI
  6
PHANTOM
 62
     8
100
AcDbCircle
 10
65.63218335392207
 20
75.21741766073998
 30
0.0
 40
0.5000116248877111
100
AcDbArc
 50
4.474846808342103
 51
90.00144034898383
  0
ARC
  5
5B1
330
1A
100
AcDbEntity
  8
NOKITOI
  6
PHANTOM
 62
     8
100
AcDbCircle
 10
58.05318353506368
 20
88.51744244055609
 30
0.0
 40
1.999986844954076
100
AcDbArc
 50
90.00036528735451
 51
181.7883072882703
  0
LINE
  5
5B2
330
1A
100
AcDbEntity
  8
NOKITOI
  6
PHANTOM
 62
     8
100
AcDbLine
 10
64.33107078421357
 20
88.01742928546966
 30
0.0
 11
62.09957078421371
 21
88.01742928546966
 31
0.0
  0
ARC
  5
5B3
330
1A
100
AcDbEntity
  8
NOKITOI
  6
PHANTOM
 62
     8
100
AcDbCircle
 10
64.0152638972188
 20
81.51742275038415
 30
0.0
 40
0.499993464961963
100
AcDbArc
 50
270.0007892017869
 51
356.997036131742
  0
LINE
  5
5B4
330
1A
100
AcDbEntity
  8
NOKITOI
  6
PHANTOM
 62
     8
100
AcDbLine
 10
63.35117078421376
 20
82.21742928546971
 30
0.0
 11
63.53237078421376
 21
85.65892928546984
 31
0.0
  0
LINE
  5
5B5
330
1A
100
AcDbEntity
  8
NOKITOI
  6
PHANTOM
 62
     8
100
AcDbLine
 10
62.97737078421391
 20
85.04582928546957
 30
0.0
 11
63.53237078421376
 21
85.65892928546984
 31
0.0
  0
ARC
  5
5B6
330
1A
100
AcDbEntity
  8
NOKITOI
  6
PHANTOM
 62
     8
100
AcDbCircle
 10
61.50489099688297
 20
80.51748801384972
 30
0.0
 40
5.2000412730095
100
AcDbArc
 50
90.0013245430618
 51
142.0757990790548
  0
LINE
  5
5B7
330
1A
100
AcDbEntity
  8
NOKITOI
  6
PHANTOM
 62
     8
100
AcDbLine
 10
57.25357078421416
 20
88.49242928546956
 30
0.0
 11
57.40297078421349
 21
83.71352928546977
 31
0.0
  0
ARC
  5
5B8
330
1A
100
AcDbEntity
  8
NOKITOI
  6
PHANTOM
 62
     8
100
AcDbCircle
 10
61.50480866566045
 20
80.51747306799503
 30
0.0
 40
3.999989731271038
100
AcDbArc
 50
96.47731142013116
 51
181.7899836067311
  0
ARC
  5
5B9
330
1A
100
AcDbEntity
  8
NOKITOI
  6
PHANTOM
 62
     8
100
AcDbCircle
 10
61.10998500262917
 20
83.99511465116868
 30
0.0
 40
0.5000073448410256
100
AcDbArc
 50
351.872947864124
 51
96.47829282996921
  0
LINE
  5
5BA
330
1A
100
AcDbEntity
  8
NOKITOI
  6
PHANTOM
 62
     8
100
AcDbLine
 10
62.57327078421417
 20
82.21742928546971
 30
0.0
 11
62.97737078421391
 21
85.04582928546957
 31
0.0
  0
LINE
  5
5BB
330
1A
100
AcDbEntity
  8
NOKITOI
  6
PHANTOM
 62
     8
100
AcDbLine
 10
63.35117078421376
 20
82.21742928546971
 30
0.0
 11
62.57327078421417
 21
82.21742928546971
 31
0.0
  0
ARC
  5
5BC
330
1A
100
AcDbEntity
  8
NOKITOI
  6
PHANTOM
 62
     8
100
AcDbCircle
 10
61.76619738481145
 20
81.51739860858763
 30
0.0
 40
0.4999693238254178
100
AcDbArc
 50
171.8555038770531
 51
269.9969516090356
  0
LINE
  5
5BD
330
1A
100
AcDbEntity
  8
NOKITOI
  6
PHANTOM
 62
     8
100
AcDbLine
 10
64.01527078421373
 20
81.01742928546967
 30
0.0
 11
61.76617078421372
 21
81.01742928546967
 31
0.0
  0
LINE
  5
5BE
330
1A
100
AcDbEntity
  8
NOKITOI
  6
PHANTOM
 62
     8
100
AcDbLine
 10
61.27127078421358
 20
81.58822928546985
 30
0.0
 11
61.60497078421371
 21
83.92442928546982
 31
0.0
  0
LINE
  5
5BF
330
1A
100
AcDbEntity
  8
NOKITOI
  6
PHANTOM
 62
     8
100
AcDbLine
 10
60.52597078421399
 20
89.31742928546984
 30
0.0
 11
60.02597078421399
 21
86.81742928546984
 31
0.0
  0
LINE
  5
5C0
330
1A
100
AcDbEntity
  8
NOKITOI
  6
PHANTOM
 62
     8
100
AcDbLine
 10
60.02597078421399
 20
86.81742928546984
 30
0.0
 11
62.96247078421379
 21
86.81742928546984
 31
0.0
  0
LINE
  5
5C1
330
1A
100
AcDbEntity
  8
NOKITOI
  6
PHANTOM
 62
     8
100
AcDbLine
 10
58.05317078421353
 20
90.51742928546966
 30
0.0
 11
61.37977078421386
 21
90.51742928546966
 31
0.0
  0
LINE
  5
5C2
330
1A
100
AcDbEntity
  8
NOKITOI
  6
PHANTOM
 62
     8
100
AcDbLine
 10
58.05317078421353
 20
89.31742928546984
 30
0.0
 11
60.52597078421399
 21
89.31742928546984
 31
0.0
  0
ARC
  5
5C3
330
1A
100
AcDbEntity
  8
NOKITOI
  6
PHANTOM
 62
     8
100
AcDbCircle
 10
58.05317527901184
 20
88.51743392299656
 30
0.0
 40
0.7999953624857498
100
AcDbArc
 50
90.00032191805264
 51
181.7911273464193
  0
ARC
  5
5C4
330
1A
100
AcDbEntity
  8
NOKITOI
  6
PHANTOM
 62
     8
100
AcDbCircle
 10
61.37977000120532
 20
90.01743024047138
 30
0.0
 40
0.4999990449987349
100
AcDbArc
 50
348.6967198015447
 51
89.99991027369492
  0
ARC
  5
5C5
330
1A
100
AcDbEntity
  8
NOKITOI
  6
PHANTOM
 62
     8
100
AcDbCircle
 10
62.09956352965832
 20
88.51743813531308
 30
0.0
 40
0.5000088498959383
100
AcDbArc
 50
168.6864043304892
 51
270.0008312961442
  0
LINE
  5
5C6
330
1A
100
AcDbEntity
  8
NOKITOI
  6
PHANTOM
 62
     8
100
AcDbLine
 10
61.60927078421377
 20
88.61552928546959
 30
0.0
 11
61.87007078421379
 21
89.9194292854697
 31
0.0
  0
LINE
  5
5C7
330
1A
100
AcDbEntity
  8
NOKITOI
  6
PHANTOM
 62
     8
100
AcDbLine
 10
61.9666707842141
 20
85.71742928546971
 30
0.0
 11
61.50477078421386
 21
85.71742928546971
 31
0.0
  0
LINE
  5
5C8
330
1A
100
AcDbEntity
  8
NOKITOI
  6
PHANTOM
 62
     8
100
AcDbLine
 10
61.9666707842141
 20
85.71742928546971
 30
0.0
 11
62.96247078421379
 21
86.81742928546984
 31
0.0
  0
LINE
  5
5C9
330
1A
100
AcDbEntity
  8
NOKITOI
  6
PHANTOM
 62
     8
100
AcDbLine
 10
64.51467078421387
 20
81.49122928546963
 30
0.0
 11
64.83047078421373
 21
87.49112928546967
 31
0.0
  0
ARC
  5
5CA
330
1A
100
AcDbEntity
  8
NOKITOI
  6
PHANTOM
 62
     8
100
AcDbCircle
 10
64.33106458305587
 20
87.51743582055494
 30
0.0
 40
0.4999934649531607
100
AcDbArc
 50
356.9955363203376
 51
89.99928939038076
  0
LINE
  5
5CB
330
1A
100
AcDbEntity
  8
NOKITOI
  6
PHANTOM
 62
     8
100
AcDbLine
 10
148.6326707842137
 20
35.51732928546968
 30
0.0
 11
128.474770784214
 21
35.51732928546968
 31
0.0
  0
LINE
  5
5CC
330
1A
100
AcDbEntity
  8
NOKITOI
  6
PHANTOM
 62
     8
100
AcDbLine
 10
148.3828707842137
 20
36.71732928546973
 30
0.0
 11
128.474770784214
 21
36.71732928546973
 31
0.0
  0
LINE
  5
5CD
330
1A
100
AcDbEntity
  8
NOKITOI
  6
PHANTOM
 62
     8
100
AcDbLine
 10
152.6326707842137
 20
35.51732928546968
 30
0.0
 11
107.8032707842137
 21
35.51742928546966
 31
0.0
  0
LINE
  5
5CE
330
1A
100
AcDbEntity
  8
NOKITOI
  6
PHANTOM
 62
     8
100
AcDbLine
 10
107.8032707842137
 20
36.7174292854697
 30
0.0
 11
152.3828707842137
 21
36.71732928546973
 31
0.0
  0
LINE
  5
5CF
330
1A
100
AcDbEntity
  8
NOKITOI
  6
PHANTOM
 62
     8
100
AcDbLine
 10
174.3871707842138
 20
77.65482928546973
 30
0.0
 11
174.4726707842134
 21
80.39242928546967
 31
0.0
  0
LINE
  5
5D0
330
1A
100
AcDbEntity
  8
NOKITOI
  6
PHANTOM
 62
     8
100
AcDbLine
 10
175.9251707842138
 20
88.45492928546965
 30
0.0
 11
175.5350707842137
 21
75.97052928546961
 31
0.0
  0
LINE
  5
5D1
330
1A
100
AcDbEntity
  8
NOKITOI
  6
PHANTOM
 62
     8
100
AcDbLine
 10
174.0357707842137
 20
74.51742928546966
 30
0.0
 11
167.8946707842139
 21
74.51742928546966
 31
0.0
  0
LINE
  5
5D2
330
1A
100
AcDbEntity
  8
NOKITOI
  6
PHANTOM
 62
     8
100
AcDbLine
 10
166.3561707842133
 20
75.71742928546971
 30
0.0
 11
172.3880707842138
 21
75.71742928546971
 31
0.0
  0
LINE
  5
5D3
330
1A
100
AcDbEntity
  8
NOKITOI
  6
PHANTOM
 62
     8
100
AcDbLine
 10
166.899670784214
 20
73.61692928546969
 30
0.0
 11
164.0308707842138
 21
44.92952928546967
 31
0.0
  0
LINE
  5
5D4
330
1A
100
AcDbEntity
  8
NOKITOI
  6
PHANTOM
 62
     8
100
AcDbLine
 10
165.8586707842139
 20
75.26722928546971
 30
0.0
 11
162.8656707842135
 21
45.33742928546959
 31
0.0
  0
LINE
  5
5D5
330
1A
100
AcDbEntity
  8
NOKITOI
  6
PHANTOM
 62
     8
100
AcDbLine
 10
163.6690707842137
 20
44.25502928546982
 30
0.0
 11
153.2659707842137
 21
35.74332928546979
 31
0.0
  0
LINE
  5
5D6
330
1A
100
AcDbEntity
  8
NOKITOI
  6
PHANTOM
 62
     8
100
AcDbLine
 10
162.6847707842141
 20
45.00012928546968
 30
0.0
 11
152.6994707842138
 21
36.83032928546956
 31
0.0
  0
ARC
  5
5D7
330
1A
100
AcDbEntity
  8
NOKITOI
  6
PHANTOM
 62
     8
100
AcDbCircle
 10
152.6326638516363
 20
36.51732681046357
 30
0.0
 40
0.9999975250179316
100
AcDbArc
 50
270.0003972084035
 51
309.2946416752299
  0
ARC
  5
5D8
330
1A
100
AcDbEntity
  8
NOKITOI
  6
PHANTOM
 62
     8
100
AcDbCircle
 10
152.3828771719624
 20
37.21733156545926
 30
0.0
 40
0.5000022800304047
100
AcDbArc
 50
269.9992680212791
 51
309.2854498596061
  0
ARC
  5
5D9
330
1A
100
AcDbEntity
  8
NOKITOI
  6
PHANTOM
 62
     8
100
AcDbCircle
 10
163.0358482113449
 20
45.02898721379708
 30
0.0
 40
0.9999908507640039
100
AcDbArc
 50
309.288709223069
 51
354.2862329477532
  0
ARC
  5
5DA
330
1A
100
AcDbEntity
  8
NOKITOI
  6
PHANTOM
 62
     8
100
AcDbCircle
 10
162.3681533583355
 20
45.38709679908172
 30
0.0
 40
0.4999904508696396
100
AcDbArc
 50
309.2900846377951
 51
354.2990110749239
  0
ARC
  5
5DB
330
1A
100
AcDbEntity
  8
NOKITOI
  6
PHANTOM
 62
     8
100
AcDbCircle
 10
167.8946914340546
 20
73.51744797331886
 30
0.0
 40
0.9999813123640345
100
AcDbArc
 50
90.00118317084911
 51
174.2905900333514
  0
ARC
  5
5DC
330
1A
100
AcDbEntity
  8
NOKITOI
  6
PHANTOM
 62
     8
100
AcDbCircle
 10
166.3561838552183
 20
75.21744111574955
 30
0.0
 40
0.499988169890889
100
AcDbArc
 50
90.00149786226634
 51
174.2966061377162
  0
ARC
  5
5DD
330
1A
100
AcDbEntity
  8
NOKITOI
  6
PHANTOM
 62
     8
100
AcDbCircle
 10
174.0357879973918
 20
76.01744596861746
 30
0.0
 40
1.500016683246579
100
AcDbArc
 50
269.9993425123344
 51
358.2076423244113
  0
ARC
  5
5DE
330
1A
100
AcDbEntity
  8
NOKITOI
  6
PHANTOM
 62
     8
100
AcDbCircle
 10
172.388108772038
 20
77.7173661060419
 30
0.0
 40
2.000036820932882
100
AcDbArc
 50
269.9989117490344
 51
358.2110591274195
  0
LINE
  5
5DF
330
1A
100
AcDbEntity
  8
NOKITOI
  6
PHANTOM
 62
     8
100
AcDbLine
 10
173.926170784214
 20
90.51732928546968
 30
0.0
 11
170.5995707842136
 21
90.51742928546966
 31
0.0
  0
LINE
  5
5E0
330
1A
100
AcDbEntity
  8
NOKITOI
  6
PHANTOM
 62
     8
100
AcDbLine
 10
171.9534707842137
 20
86.81742928546984
 30
0.0
 11
169.0168707842137
 21
86.81742928546984
 31
0.0
  0
ARC
  5
5E1
330
1A
100
AcDbEntity
  8
NOKITOI
  6
PHANTOM
 62
     8
100
AcDbCircle
 10
170.8694001567134
 20
83.99505951796456
 30
0.0
 40
0.4999578477751074
100
AcDbArc
 50
83.52609071220754
 51
188.1330561712932
  0
ARC
  5
5E2
330
1A
100
AcDbEntity
  8
NOKITOI
  6
PHANTOM
 62
     8
100
AcDbCircle
 10
170.4746529178625
 20
80.51743801384962
 30
0.0
 40
5.199991271650611
100
AcDbArc
 50
37.92532860472995
 51
89.9998031407256
  0
LINE
  5
5E3
330
1A
100
AcDbEntity
  8
NOKITOI
  6
PHANTOM
 62
     8
100
AcDbLine
 10
168.6281707842137
 20
82.21742928546971
 30
0.0
 11
168.4470707842135
 21
85.65882928546963
 31
0.0
  0
LINE
  5
5E4
330
1A
100
AcDbEntity
  8
NOKITOI
  6
PHANTOM
 62
     8
100
AcDbLine
 10
169.0020707842138
 20
85.04582928546957
 30
0.0
 11
168.4470707842135
 21
85.65882928546963
 31
0.0
  0
LINE
  5
5E5
330
1A
100
AcDbEntity
  8
NOKITOI
  6
PHANTOM
 62
     8
100
AcDbLine
 10
167.4647707842138
 20
81.49112928546967
 30
0.0
 11
167.1489707842135
 21
87.49112928546967
 31
0.0
  0
LINE
  5
5E6
330
1A
100
AcDbEntity
  8
NOKITOI
  6
PHANTOM
 62
     8
100
AcDbLine
 10
169.4060707842133
 20
82.21742928546971
 30
0.0
 11
169.0020707842138
 21
85.04582928546957
 31
0.0
  0
LINE
  5
5E7
330
1A
100
AcDbEntity
  8
NOKITOI
  6
PHANTOM
 62
     8
100
AcDbLine
 10
168.6281707842137
 20
82.21742928546971
 30
0.0
 11
169.4060707842133
 21
82.21742928546971
 31
0.0
  0
LINE
  5
5E8
330
1A
100
AcDbEntity
  8
NOKITOI
  6
PHANTOM
 62
     8
100
AcDbLine
 10
167.9640707842138
 20
81.01742928546967
 30
0.0
 11
170.2131707842133
 21
81.01742928546967
 31
0.0
  0
ARC
  5
5E9
330
1A
100
AcDbEntity
  8
NOKITOI
  6
PHANTOM
 62
     8
100
AcDbCircle
 10
167.9640749056204
 20
81.51742537543915
 30
0.0
 40
0.4999960899864752
100
AcDbArc
 50
183.0147243791741
 51
269.9995277178593
  0
ARC
  5
5EA
330
1A
100
AcDbEntity
  8
NOKITOI
  6
PHANTOM
 62
     8
100
AcDbCircle
 10
170.2131809706499
 20
81.5174410301938
 30
0.0
 40
0.5000117448278309
100
AcDbArc
 50
269.9988327478016
 51
8.127314608715551
  0
LINE
  5
5EB
330
1A
100
AcDbEntity
  8
NOKITOI
  6
PHANTOM
 62
     8
100
AcDbLine
 10
170.7081707842137
 20
81.58812928546964
 30
0.0
 11
170.3743707842138
 21
83.92432928546984
 31
0.0
  0
LINE
  5
5EC
330
1A
100
AcDbEntity
  8
NOKITOI
  6
PHANTOM
 62
     8
100
AcDbLine
 10
167.6482707842139
 20
88.01742928546966
 30
0.0
 11
169.8797707842138
 21
88.01742928546966
 31
0.0
  0
ARC
  5
5ED
330
1A
100
AcDbEntity
  8
NOKITOI
  6
PHANTOM
 62
     8
100
AcDbCircle
 10
167.648274493709
 20
87.51743319550039
 30
0.0
 40
0.4999960899831856
100
AcDbArc
 50
90.00042508015082
 51
183.0156217414647
  0
ARC
  5
5EE
330
1A
100
AcDbEntity
  8
NOKITOI
  6
PHANTOM
 62
     8
100
AcDbCircle
 10
170.5995635296583
 20
90.01742043562623
 30
0.0
 40
0.500008849895925
100
AcDbArc
 50
89.99916870385415
 51
191.3135956695126
  0
ARC
  5
5EF
330
1A
100
AcDbEntity
  8
NOKITOI
  6
PHANTOM
 62
     8
100
AcDbCircle
 10
169.8797700012052
 20
88.51742833046793
 30
0.0
 40
0.4999990449987399
100
AcDbArc
 50
270.000089726305
 51
11.30328019845521
  0
LINE
  5
5F0
330
1A
100
AcDbEntity
  8
NOKITOI
  6
PHANTOM
 62
     8
100
AcDbLine
 10
170.3700707842137
 20
88.61542928546985
 30
0.0
 11
170.1092707842137
 21
89.9194292854697
 31
0.0
  0
LINE
  5
5F1
330
1A
100
AcDbEntity
  8
NOKITOI
  6
PHANTOM
 62
     8
100
AcDbLine
 10
170.0126707842138
 20
85.71742928546971
 30
0.0
 11
170.4746707842138
 21
85.71742928546971
 31
0.0
  0
LINE
  5
5F2
330
1A
100
AcDbEntity
  8
NOKITOI
  6
PHANTOM
 62
     8
100
AcDbLine
 10
170.0126707842138
 20
85.71742928546971
 30
0.0
 11
169.0168707842137
 21
86.81742928546984
 31
0.0
  0
LINE
  5
5F3
330
1A
100
AcDbEntity
  8
NOKITOI
  6
PHANTOM
 62
     8
100
AcDbLine
 10
174.7257707842133
 20
88.49242928546956
 30
0.0
 11
174.5764707842138
 21
83.7134292854698
 31
0.0
  0
ARC
  5
5F4
330
1A
100
AcDbEntity
  8
NOKITOI
  6
PHANTOM
 62
     8
100
AcDbCircle
 10
170.4746398572776
 20
80.51746503013347
 30
0.0
 40
3.99998565374706
100
AcDbArc
 50
358.208696659101
 51
83.52422380468341
  0
ARC
  5
5F5
330
1A
100
AcDbEntity
  8
NOKITOI
  6
PHANTOM
 62
     8
100
AcDbCircle
 10
173.9261595472196
 20
88.51744087928679
 30
0.0
 40
1.999988406214315
100
AcDbArc
 50
358.2088726535936
 51
89.99967808195551
  0
LINE
  5
5F6
330
1A
100
AcDbEntity
  8
NOKITOI
  6
PHANTOM
 62
     8
100
AcDbLine
 10
173.926170784214
 20
89.31732928546963
 30
0.0
 11
171.4534707842137
 21
89.31742928546984
 31
0.0
  0
LINE
  5
5F7
330
1A
100
AcDbEntity
  8
NOKITOI
  6
PHANTOM
 62
     8
100
AcDbLine
 10
171.4534707842137
 20
89.31742928546984
 30
0.0
 11
171.9534707842137
 21
86.81742928546984
 31
0.0
  0
ARC
  5
5F8
330
1A
100
AcDbEntity
  8
NOKITOI
  6
PHANTOM
 62
     8
100
AcDbCircle
 10
173.9262147505666
 20
88.51738392299669
 30
0.0
 40
0.7999453636812564
100
AcDbArc
 50
358.2123436447881
 51
90.00314907315425
  0
LINE
  5
1D19
330
1A
100
AcDbEntity
  8
SEIHIN
100
AcDbLine
 10
135.1809467042012
 20
85.3102157286294
 30
0.0
 11
147.9684332609859
 21
98.09770238546974
 31
0.0
  0
ARC
  5
1D1B
330
1A
100
AcDbEntity
  8
SEIHIN
100
AcDbCircle
 10
134.480946660986
 20
85.52442928546973
 30
0.0
 40
5.500000002456481
100
AcDbArc
 50
270.0
 51
315.0
  0
LINE
  5
1D1E
330
1A
100
AcDbEntity
  8
SEIHIN
100
AcDbLine
 10
69.36980126098603
 20
72.42442928546971
 30
0.0
 11
137.7946551609859
 21
72.42442928546971
 31
0.0
  0
LINE
  5
1D23
330
1A
100
AcDbEntity
  8
SEIHIN
100
AcDbLine
 10
134.4738398826214
 20
86.01732250704955
 30
0.0
 11
147.261326460986
 21
98.80480918546972
 31
0.0
  0
LINE
  5
1D24
330
1A
100
AcDbEntity
  8
CENTER_L
100
AcDbLine
 10
121.966228060986
 20
94.9150321595771
 30
0.0
 11
121.966228060986
 21
69.97601470759478
 31
0.0
  0
LINE
  5
1D2A
330
1A
100
AcDbEntity
  8
SEIHIN
100
AcDbLine
 10
111.9662280609859
 20
85.72442928546974
 30
0.0
 11
111.9662280609859
 21
80.22442928546974
 31
0.0
  0
LINE
  5
1D2C
330
1A
100
AcDbEntity
  8
SEIHIN
100
AcDbLine
 10
61.76622806098601
 20
80.02442928546974
 30
0.0
 11
134.4811110427295
 21
80.02442928546974
 31
0.0
  0
ARC
  5
1D41
330
1A
100
AcDbEntity
  8
SEIHIN
100
AcDbCircle
 10
69.36980126098603
 20
74.02442928546974
 30
0.0
 40
1.599999992064534
100
AcDbArc
 50
185.0000004668387
 51
270.0
  0
LINE
  5
1D42
330
1A
100
AcDbEntity
  8
SEIHIN
100
AcDbLine
 10
62.56622806098596
 20
77.42442928546971
 30
0.0
 11
67.46622806098599
 21
77.42442928546971
 31
0.0
  0
ARC
  5
1D43
330
1A
100
AcDbEntity
  8
SEIHIN
100
AcDbCircle
 10
62.56622806098596
 20
80.52442928546973
 30
0.0
 40
3.100000000000008
100
AcDbArc
 50
180.0
 51
270.0
  0
LINE
  5
1D44
330
1A
100
AcDbEntity
  8
SEIHIN
100
AcDbLine
 10
59.46622806098599
 20
84.42442928546972
 30
0.0
 11
61.26622806098601
 21
84.42442928546972
 31
0.0
  0
ARC
  5
1D45
330
1A
100
AcDbEntity
  8
SEIHIN
100
AcDbCircle
 10
61.76622806098601
 20
80.52442928546973
 30
0.0
 40
0.5
100
AcDbArc
 50
180.0
 51
270.0
  0
LINE
  5
1D46
330
1A
100
AcDbEntity
  8
SEIHIN
100
AcDbLine
 10
59.46622806098599
 20
84.42442928546972
 30
0.0
 11
59.46622806098599
 21
80.52442928546973
 31
0.0
  0
LINE
  5
1D47
330
1A
100
AcDbEntity
  8
SEIHIN
100
AcDbLine
 10
61.26622806098601
 20
84.42442928546972
 30
0.0
 11
61.26622806098601
 21
80.52442928546973
 31
0.0
  0
LINE
  5
1D48
330
1A
100
AcDbEntity
  8
SEIHIN
100
AcDbLine
 10
67.77588976098599
 20
73.88498008546974
 30
0.0
 11
67.23875752121955
 21
80.02442928546972
 31
0.0
  0
LINE
  5
1D4B
330
1A
100
AcDbEntity
  8
SEIHIN
100
AcDbLine
 10
111.9662280609859
 20
84.72442928546973
 30
0.0
 11
133.7667331362954
 21
84.72442928546973
 31
0.0
  0
LINE
  5
1D4D
330
1A
100
AcDbEntity
  8
SEIHIN
100
AcDbLine
 10
111.9662280609859
 20
80.02442928546974
 30
0.0
 11
134.480946660986
 21
80.02442928546974
 31
0.0
  0
ARC
  5
1D5C
330
1A
100
AcDbEntity
  8
SEIHIN
100
AcDbCircle
 10
121.966228060986
 20
79.83380428546974
 30
0.0
 40
7.890625
100
AcDbArc
 50
48.29108392084388
 51
131.708916079156
  0
LINE
  5
1D5D
330
1A
100
AcDbEntity
  8
SEIHIN
100
AcDbLine
 10
111.9662280609859
 20
85.72442928546974
 30
0.0
 11
133.7667330986685
 21
85.72442928546973
 31
0.0
  0
LINE
  5
1D65
330
1A
100
AcDbEntity
  8
SEIHIN
100
AcDbLine
 10
181.466228060986
 20
91.52442928546975
 30
0.0
 11
181.466228060986
 21
74.49891160804156
 31
0.0
  0
LINE
  5
1D67
330
1A
100
AcDbEntity
  8
SEIHIN
100
AcDbLine
 10
177.8662280609859
 20
91.52442928546975
 30
0.0
 11
177.8662280609859
 21
74.55131938546974
 31
0.0
  0
LINE
  5
1D68
330
1A
100
AcDbEntity
  8
SEIHIN
100
AcDbLine
 10
180.466228060986
 20
91.52442928546975
 30
0.0
 11
180.466228060986
 21
74.55131938546974
 31
0.0
  0
LINE
  5
1D6C
330
1A
100
AcDbEntity
  8
SEIHIN
100
AcDbLine
 10
141.4008997609859
 20
73.91818468546971
 30
0.0
 11
155.8007297199747
 21
88.31801472169843
 31
0.0
  0
LINE
  5
1D6E
330
1A
100
AcDbEntity
  8
SEIHIN
100
AcDbLine
 10
138.370033960986
 20
81.63534198546974
 30
0.0
 11
150.2005835559309
 21
93.46589158041467
 31
0.0
  0
LINE
  5
1D79
330
1A
100
AcDbEntity
  8
SEIHIN
100
AcDbLine
 10
152.447454360986
 20
71.01935218546971
 30
0.0
 11
164.390500760986
 21
76.84436508546973
 31
0.0
  0
LINE
  5
1D7A
330
1A
100
AcDbEntity
  8
SEIHIN
100
AcDbLine
 10
153.1050109609859
 20
69.67116098546971
 30
0.0
 11
164.390500760986
 21
75.17546218546972
 31
0.0
  0
LINE
  5
1D7B
330
1A
100
AcDbEntity
  8
SEIHIN
100
AcDbLine
 10
152.272105960986
 20
71.37886978546972
 30
0.0
 11
164.115152260986
 21
77.15510938546971
 31
0.0
  0
LINE
  5
1D7D
330
1A
100
AcDbEntity
  8
SEIHIN
100
AcDbLine
 10
141.3897560120599
 20
73.90707528210803
 30
0.0
 11
150.522042860986
 21
69.64861998546972
 31
0.0
  0
ARC
  5
1D7E
330
1A
100
AcDbEntity
  8
SEIHIN
100
AcDbCircle
 10
137.7946551609859
 20
77.52442928546973
 30
0.0
 40
5.100000011277387
100
AcDbArc
 50
270.0
 51
315.0
  0
LINE
  5
1D7F
330
1A
100
AcDbEntity
  8
SEIHIN
100
AcDbLine
 10
142.8195053366041
 20
75.33679026869717
 30
0.0
 11
151.325017660986
 21
71.37060478546972
 31
0.0
  0
LINE
  5
1D80
330
1A
100
AcDbEntity
  8
SEIHIN
100
AcDbLine
 10
142.5185104269196
 20
75.03579535739813
 30
0.0
 11
151.155970360986
 21
71.00808168546972
 31
0.0
  0
ARC
  5
1D81
330
1A
100
AcDbEntity
  8
SEIHIN
100
AcDbCircle
 10
151.789897760986
 20
72.36754328546972
 30
0.0
 40
1.499999997384386
100
AcDbArc
 50
244.9999984438223
 51
295.9999936879063
  0
ARC
  5
1D83
330
1A
100
AcDbEntity
  8
SEIHIN
100
AcDbCircle
 10
151.789897760986
 20
72.36754328546972
 30
0.0
 40
1.099999981342675
100
AcDbArc
 50
244.9999979823536
 51
295.9999960018844
  0
ARC
  5
1D84
330
1A
100
AcDbEntity
  8
SEIHIN
100
AcDbCircle
 10
151.789897760986
 20
72.36754328546972
 30
0.0
 40
2.9999999920909
100
AcDbArc
 50
244.9999949819811
 51
295.999994525133
  0
ARC
  5
1D86
330
1A
100
AcDbEntity
  8
SEIHIN
100
AcDbCircle
 10
162.461667660986
 20
80.79905888546973
 30
0.0
 40
4.400000010194002
100
AcDbArc
 50
296.0000006547247
 51
359.9999934891161
  0
ARC
  5
1D87
330
1A
100
AcDbEntity
  8
SEIHIN
100
AcDbCircle
 10
162.361667660986
 20
80.75028558546971
 30
0.0
 40
4.000000009467725
100
AcDbArc
 50
296.0000000723986
 51
0.0
  0
LINE
  5
1D88
330
1A
100
AcDbEntity
  8
SEIHIN
100
AcDbLine
 10
166.8616676609859
 20
79.13015548546972
 30
0.0
 11
166.8616676609859
 21
83.25838608546971
 31
0.0
  0
ARC
  5
1D8A
330
1A
100
AcDbEntity
  8
SEIHIN
100
AcDbCircle
 10
162.461667660986
 20
79.13015598546973
 30
0.0
 40
4.400000010194002
100
AcDbArc
 50
296.0000006547247
 51
359.9999934891161
  0
LINE
  5
1D8B
330
1A
100
AcDbEntity
  8
SEIHIN
100
AcDbLine
 10
166.361667660986
 20
83.25838608546971
 30
0.0
 11
166.8616676609859
 21
83.25838608546971
 31
0.0
  0
LINE
  5
1D8C
330
1A
100
AcDbEntity
  8
SEIHIN
100
AcDbLine
 10
166.361667660986
 20
80.75028558546971
 30
0.0
 11
166.361667660986
 21
83.25838608546971
 31
0.0
  0
LINE
  5
1D92
330
1A
100
AcDbEntity
  8
SEIHIN
100
AcDbLine
 10
170.975821260986
 20
74.39078098546973
 30
0.0
 11
170.844981403253
 21
71.8942071884954
 31
0.0
  0
ARC
  5
1D93
330
1A
100
AcDbEntity
  8
SEIHIN
100
AcDbCircle
 10
177.4662280609859
 20
74.55131938546974
 30
0.0
 40
2.999999998689364
100
AcDbArc
 50
266.9999993993207
 51
0.0
  0
LINE
  5
1D94
330
1A
100
AcDbEntity
  8
SEIHIN
100
AcDbLine
 10
178.3092201899566
 20
71.5030230038984
 30
0.0
 11
170.8449814609859
 21
71.89420718546974
 31
0.0
  0
LINE
  5
1D96
330
1A
100
AcDbEntity
  8
SEIHIN
100
AcDbLine
 10
177.445293660986
 20
74.15186758546973
 30
0.0
 11
170.9810548609859
 21
74.49064398546973
 31
0.0
  0
ARC
  5
1D97
330
1A
100
AcDbEntity
  8
SEIHIN
100
AcDbCircle
 10
177.4662280609859
 20
74.55131938546974
 30
0.0
 40
0.3999999935166316
100
AcDbArc
 50
266.999997392128
 51
0.0
  0
LINE
  5
1DAE
330
1A
100
AcDbEntity
  8
SEIHIN
100
AcDbLine
 10
175.7308876991143
 20
95.96113767016092
 30
0.0
 11
153.1468676609859
 21
94.77755938546971
 31
0.0
  0
LINE
  5
1DB3
330
1A
100
AcDbEntity
  8
SEIHIN
100
AcDbLine
 10
175.866789760986
 20
93.36469188546971
 30
0.0
 11
161.466228060986
 21
92.60999047531068
 31
0.0
  0
ARC
  5
1DB6
330
1A
100
AcDbEntity
  8
SEIHIN
100
AcDbCircle
 10
153.3823794609859
 20
90.28372648546975
 30
0.0
 40
4.499999985879004
100
AcDbArc
 50
92.99999996493296
 51
135.0
  0
ARC
  5
1DB8
330
1A
100
AcDbEntity
  8
SEIHIN
100
AcDbCircle
 10
151.857520760986
 20
94.20861518546974
 30
0.0
 40
5.500000065643712
100
AcDbArc
 50
91.3361182741777
 51
135.0000022098678
  0
ARC
  5
1DB9
330
1A
100
AcDbEntity
  8
SEIHIN
100
AcDbCircle
 10
151.857520760986
 20
94.20861518546974
 30
0.0
 40
6.500000024766264
100
AcDbArc
 50
91.33611865333142
 51
135.000002493184
  0
ARC
  5
1DBB
330
1A
100
AcDbEntity
  8
SEIHIN
100
AcDbCircle
 10
175.966228060986
 20
91.46729578546972
 30
0.0
 40
4.499999996725646
100
AcDbArc
 50
0.0
 51
92.99781409385971
  0
ARC
  5
1DBC
330
1A
100
AcDbEntity
  8
SEIHIN
100
AcDbCircle
 10
175.966228060986
 20
91.46729578546972
 30
0.0
 40
5.500000030448694
100
AcDbArc
 50
0.0
 51
66.47258709537692
  0
ARC
  5
1DBD
330
1A
100
AcDbEntity
  8
SEIHIN
100
AcDbCircle
 10
175.966228060986
 20
91.46729578546972
 30
0.0
 40
1.899999991552915
100
AcDbArc
 50
0.0
 51
92.99999951753015
  0
LINE
  5
1EC3
330
1A
100
AcDbEntity
  8
SEIHIN
100
AcDbLine
 10
59.46622806098599
 20
240.6533486233106
 30
0.0
 11
67.2387575212195
 21
240.6533486233106
 31
0.0
  0
LINE
  5
1EC4
330
1A
100
AcDbEntity
  8
SEIHIN
100
AcDbLine
 10
236.660861060986
 20
220.1533486233106
 30
0.0
 11
220.1200228749877
 21
220.1533486233106
 31
0.0
  0
LINE
  5
1EC5
330
1A
100
AcDbEntity
  8
SEIHIN
100
AcDbLine
 10
236.3467089143973
 20
199.6533486233106
 30
0.0
 11
224.0910048075746
 21
199.6533486233106
 31
0.0
  0
LINE
  5
1EC6
330
1A
100
AcDbEntity
  8
CENTER_L
100
AcDbLine
 10
245.2081152550951
 20
230.6533486233106
 30
0.0
 11
52.46622806098599
 21
230.6533486233106
 31
0.0
  0
LINE
  5
1ECB
330
1A
100
AcDbEntity
  8
SEIHIN
100
AcDbLine
 10
59.46622806098599
 20
220.6533486233106
 30
0.0
 11
67.23875752121955
 21
220.6533486233106
 31
0.0
  0
LINE
  5
1ECC
330
1A
100
AcDbEntity
  8
SEIHIN
100
AcDbLine
 10
219.134455960986
 20
218.5533486233106
 30
0.0
 11
222.6768526609859
 21
218.5533486233106
 31
0.0
  0
LINE
  5
1ED1
330
1A
100
AcDbEntity
  8
CENTER_L
100
AcDbLine
 10
222.6534504651473
 20
208.6533486233106
 30
0.0
 11
239.7504070906496
 21
208.6533486233106
 31
0.0
  0
LINE
  5
1ED8
330
1A
100
AcDbEntity
  8
CENTER_L
100
AcDbLine
 10
121.966228060986
 20
215.6244769107594
 30
0.0
 11
121.966228060986
 21
245.6822203358618
 31
0.0
  0
LINE
  5
1EDA
330
1A
100
AcDbEntity
  8
SEIHIN
100
AcDbLine
 10
111.9662280609859
 20
220.6533486233106
 30
0.0
 11
111.9662280609859
 21
240.6533486233106
 31
0.0
  0
LINE
  5
1F11
330
1A
100
AcDbEntity
  8
SEIHIN
100
AcDbLine
 10
161.466228060986
 20
95.21355860990949
 30
0.0
 11
161.466228060986
 21
89.56389548485971
 31
0.0
  0
LINE
  5
1F12
330
1A
100
AcDbEntity
  8
SEIHIN
100
AcDbLine
 10
160.5185640193107
 20
88.56526595021422
 30
0.0
 11
155.8007297199747
 21
88.31801472169843
 31
0.0
  0
ARC
  5
1F13
330
1A
100
AcDbEntity
  8
SEIHIN
100
AcDbCircle
 10
160.466228060986
 20
89.56389548485971
 30
0.0
 40
1.0
100
AcDbArc
 50
273.0000001194438
 51
0.0
  0
ARC
  5
1F15
330
1A
100
AcDbEntity
  8
SEIHIN
100
AcDbCircle
 10
178.4662280609859
 20
74.49891160804156
 30
0.0
 40
3.0
100
AcDbArc
 50
266.9999999560026
 51
0.0
  0
LINE
  5
1F61
330
1A
100
AcDbEntity
  8
SEIHIN
100
AcDbLine
 10
161.466228060986
 20
218.1533486233106
 30
0.0
 11
67.23875752121955
 21
218.1533486233106
 31
0.0
  0
LINE
  5
1F62
330
1A
100
AcDbEntity
  8
SEIHIN
100
AcDbLine
 10
161.466228060986
 20
218.1533486233106
 30
0.0
 11
161.466228060986
 21
220.6533486233106
 31
0.0
  0
LINE
  5
1F63
330
1A
100
AcDbEntity
  8
SEIHIN
100
AcDbLine
 10
67.23875752121955
 20
218.1533486233106
 30
0.0
 11
67.23875752121955
 21
220.6533486233106
 31
0.0
  0
LINE
  5
1F64
330
1A
100
AcDbEntity
  8
SEIHIN
100
AcDbLine
 10
59.46622806098599
 20
220.6533486233106
 30
0.0
 11
59.46622806098599
 21
240.6533486233106
 31
0.0
  0
LINE
  5
1F67
330
1A
100
AcDbEntity
  8
SEIHIN
100
AcDbLine
 10
61.26622806098601
 20
220.6533486233106
 30
0.0
 11
61.26622806098601
 21
240.6533486233106
 31
0.0
  0
LINE
  5
1F68
330
1A
100
AcDbEntity
  8
SEIHIN
100
AcDbLine
 10
111.9662280609859
 20
220.6533486233106
 30
0.0
 11
218.334455960986
 21
220.6533486233106
 31
0.0
  0
LINE
  5
1F69
330
1A
100
AcDbEntity
  8
SEIHIN
100
AcDbLine
 10
111.9662280609859
 20
222.6533486233106
 30
0.0
 11
218.334455960986
 21
222.6533486233106
 31
0.0
  0
CIRCLE
  5
1F6A
330
1A
100
AcDbEntity
  8
SEIHIN
100
AcDbCircle
 10
121.966228060986
 20
230.6533486233106
 30
0.0
 40
5.0
  0
LINE
  5
1F6C
330
1A
100
AcDbEntity
  8
SEIHIN
100
AcDbLine
 10
134.3218109090075
 20
223.1533486233106
 30
0.0
 11
134.3218109090075
 21
238.1533486233106
 31
0.0
  0
LINE
  5
1F6D
330
1A
100
AcDbEntity
  8
SEIHIN
100
AcDbLine
 10
149.1066121149583
 20
223.1533486233106
 30
0.0
 11
149.1066121149583
 21
238.1533486233106
 31
0.0
  0
LINE
  5
1F70
330
1A
100
AcDbEntity
  8
SEIHIN
100
AcDbLine
 10
111.9662280609859
 20
238.6533486233107
 30
0.0
 11
218.334455960986
 21
238.6533486233106
 31
0.0
  0
LINE
  5
1F71
330
1A
100
AcDbEntity
  8
SEIHIN
100
AcDbLine
 10
111.9662280609859
 20
240.6533486233106
 30
0.0
 11
218.334455960986
 21
240.6533486233106
 31
0.0
  0
LINE
  5
1F72
330
1A
100
AcDbEntity
  8
SEIHIN
100
AcDbLine
 10
161.466228060986
 20
243.1533486233106
 30
0.0
 11
67.23875752121955
 21
243.1533486233106
 31
0.0
  0
LINE
  5
1F73
330
1A
100
AcDbEntity
  8
SEIHIN
100
AcDbLine
 10
59.46622806098599
 20
240.6533486233106
 30
0.0
 11
67.23875752121955
 21
240.6533486233106
 31
0.0
  0
LINE
  5
1F74
330
1A
100
AcDbEntity
  8
SEIHIN
100
AcDbLine
 10
67.23875752121955
 20
243.1533486233106
 30
0.0
 11
67.23875752121955
 21
240.6533486233106
 31
0.0
  0
LINE
  5
1F75
330
1A
100
AcDbEntity
  8
SEIHIN
100
AcDbLine
 10
135.2538273806292
 20
239.1533486233107
 30
0.0
 11
135.2538273806292
 21
240.1533486233106
 31
0.0
  0
LINE
  5
1F76
330
1A
100
AcDbEntity
  8
SEIHIN
100
AcDbLine
 10
148.2677976584013
 20
240.1533486233106
 30
0.0
 11
148.2677976584013
 21
239.1533486233106
 31
0.0
  0
LINE
  5
1F77
330
1A
100
AcDbEntity
  8
SEIHIN
100
AcDbLine
 10
161.466228060986
 20
243.1533486233106
 30
0.0
 11
161.466228060986
 21
240.6533486233106
 31
0.0
  0
LINE
  5
1F85
330
1A
100
AcDbEntity
  8
SEIHIN
100
AcDbLine
 10
151.9043661456253
 20
241.1533486233106
 30
0.0
 11
151.9043661456253
 21
242.6533486233106
 31
0.0
  0
LINE
  5
1F86
330
1A
100
AcDbEntity
  8
SEIHIN
100
AcDbLine
 10
136.3798082826817
 20
241.1533486233107
 30
0.0
 11
136.3798082826817
 21
242.6533486233105
 31
0.0
  0
LINE
  5
1F88
330
1A
100
AcDbEntity
  8
SEIHIN
100
AcDbLine
 10
111.9662280609859
 20
80.22442928546974
 30
0.0
 11
134.3880534456657
 21
80.22442928546972
 31
0.0
  0
LINE
  5
1F89
330
1A
100
AcDbEntity
  8
SEIHIN
100
AcDbLine
 10
137.9235873654304
 20
81.68889539336886
 30
0.0
 11
150.0646824624126
 21
93.82999058534897
 31
0.0
  0
ARC
  5
1F8B
330
1A
100
AcDbEntity
  8
SEIHIN
100
AcDbCircle
 10
153.6002163821772
 20
90.29445669324813
 30
0.0
 40
5.0
100
AcDbArc
 50
92.99999987887712
 51
135.0000002241552
  0
ARC
  5
1F93
330
1A
100
AcDbEntity
  8
SEIHIN
100
AcDbCircle
 10
134.3880534456657
 20
85.22442928546972
 30
0.0
 40
5.0
100
AcDbArc
 50
270.0
 51
315.0000002241551
  0
ARC
  5
1F94
330
1A
100
AcDbEntity
  8
SEIHIN
100
AcDbCircle
 10
133.7667331362954
 20
86.72442928546974
 30
0.0
 40
2.0
100
AcDbArc
 50
270.0
 51
315.0000002241553
  0
ARC
  5
1F95
330
1A
100
AcDbEntity
  8
SEIHIN
100
AcDbCircle
 10
133.7667330986685
 20
86.72442928546972
 30
0.0
 40
1.0
100
AcDbArc
 50
270.0
 51
315.0000002241551
  0
DIMENSION
  5
2073
330
1A
100
AcDbEntity
  8
SUNPOU
100
AcDbDimension
  2
*D1
 10
32.63541529264831
 20
220.6533486233106
 30
0.0
 11
30.13541529264828
 21
230.6533486233106
 31
0.0
 70
    32
  3
STANDARD
100
AcDbAlignedDimension
 13
59.46622806098599
 23
240.6533486233106
 33
0.0
 14
59.46622806098599
 24
220.6533486233106
 34
0.0
 50
90.0
100
AcDbRotatedDimension
1001
ACAD
1000
DSTYLE
1002
{
1070
    41
1040
3.0
1070
    42
1040
3.0
1070
    43
1040
7.0
1070
    44
1040
1.5
1070
    73
1070
     0
1070
    74
1070
     0
1070
    77
1070
     3
1070
   140
1040
3.0
1070
   141
1040
3.0
1070
   147
1040
1.0
1070
   172
1070
     1
1070
   173
1070
     1
1070
   176
1070
   256
1070
   177
1070
   256
1070
   178
1070
   256
1070
   271
1070
     0
1070
   272
1070
     0
1070
   341
1005
B2
1070
     6
1000
OPEN
1070
     7
1000
OPEN
1002
}
  0
LINE
  5
2127
330
1A
100
AcDbEntity
  8
SEIHIN
100
AcDbLine
 10
135.2538273806292
 20
222.1533486233105
 30
0.0
 11
135.2538273806292
 21
221.1533486233106
 31
0.0
  0
LINE
  5
2128
330
1A
100
AcDbEntity
  8
SEIHIN
100
AcDbLine
 10
136.3798082826817
 20
220.1533486233106
 30
0.0
 11
136.3798082826817
 21
218.6533486233106
 31
0.0
  0
LINE
  5
2129
330
1A
100
AcDbEntity
  8
SEIHIN
100
AcDbLine
 10
148.2677976584013
 20
221.1533486233106
 30
0.0
 11
148.2677976584013
 21
222.1533486233106
 31
0.0
  0
LINE
  5
212A
330
1A
100
AcDbEntity
  8
SEIHIN
100
AcDbLine
 10
151.9043661456253
 20
220.1533486233106
 30
0.0
 11
151.9043661456253
 21
218.6533486233106
 31
0.0
  0
LINE
  5
29B5
330
1A
100
AcDbEntity
  8
SEIHIN
100
AcDbLine
 10
237.9672465379301
 20
234.6533486233106
 30
0.0
 11
235.5225848093864
 21
234.6533486233106
 31
0.0
  0
LINE
  5
29B6
330
1A
100
AcDbEntity
  8
SEIHIN
100
AcDbLine
 10
237.9672465379301
 20
226.6533486233106
 30
0.0
 11
235.5225848093864
 21
226.6533486233106
 31
0.0
  0
LINE
  5
3947
330
1A
100
AcDbEntity
  8
SEIHIN
100
AcDbLine
 10
236.996621360986
 20
109.9608020616971
 30
0.0
 11
238.0738829609859
 21
107.2675920616971
 31
0.0
  0
LINE
  5
3948
330
1A
100
AcDbEntity
  8
SEIHIN
100
AcDbLine
 10
237.460861060986
 20
110.1464940616971
 30
0.0
 11
231.332897360986
 21
107.6953593616971
 31
0.0
  0
LINE
  5
3949
330
1A
100
AcDbEntity
  8
SEIHIN
100
AcDbLine
 10
232.8184643023483
 20
108.2895738279392
 30
0.0
 11
233.895725960986
 21
105.5963638616971
 31
0.0
  0
LINE
  5
394D
330
1A
100
AcDbEntity
  8
SEIHIN
100
AcDbLine
 10
218.334455960986
 20
140.1921364616971
 30
0.0
 11
231.332897360986
 21
107.6953593616971
 31
0.0
  0
LINE
  5
395F
330
1A
100
AcDbEntity
  8
SEIHIN
100
AcDbLine
 10
233.3683369609859
 20
106.9148637616971
 30
0.0
 11
231.1004592609859
 21
105.1271456616971
 31
0.0
  0
ARC
  5
3960
330
1A
100
AcDbEntity
  8
SEIHIN
100
AcDbCircle
 10
232.9672465609859
 20
105.2249798616971
 30
0.0
 40
1.000000001711656
100
AcDbArc
 50
273.0000026078751
 51
21.80099667147166
  0
ARC
  5
3961
330
1A
100
AcDbEntity
  8
SEIHIN
100
AcDbCircle
 10
232.9672465609859
 20
105.2249798616971
 30
0.0
 40
5.499999976944204
100
AcDbArc
 50
273.0000004454678
 51
21.80099976660096
  0
LINE
  5
3989
330
1A
100
AcDbEntity
  8
SEIHIN
100
AcDbLine
 10
222.9768526609859
 20
142.0490566616971
 30
0.0
 11
235.975294060986
 21
109.5522795616971
 31
0.0
  0
LINE
  5
398A
330
1A
100
AcDbEntity
  8
SEIHIN
100
AcDbLine
 10
224.462419560986
 20
142.6432711616971
 30
0.0
 11
237.460861060986
 21
110.1464940616971
 31
0.0
  0
MTEXT
  5
398E
330
1A
100
AcDbEntity
  8
SUNPOU
100
AcDbMText
 10
209.8348956101699
 20
158.1427265185009
 30
0.0
 40
3.0
 41
0.0
 71
     1
 72
     5
  1
{\W1.269841;10}
1001
ACAD
1000
MTEXTBEGIN
1070
    73
1070
     1
1070
    44
1040
1.0
1070
    74
1070
     0
1000
MTEXTEND
1000
MTEXTBEGIN
1070
    73
1070
     1
1070
    44
1040
1.0
1070
    74
1070
     0
1000
MTEXTEND
1000
MTEXTBEGIN
1070
    73
1070
     1
1070
    44
1040
1.0
1070
    74
1070
     0
1000
MTEXTEND
1000
MTEXTBEGIN
1070
    73
1070
     1
1070
    44
1040
1.0
1070
    74
1070
     0
1000
MTEXTEND
1000
MTEXTBEGIN
1070
    73
1070
     1
1070
    44
1040
1.0
1070
    74
1070
     0
1000
MTEXTEND
  0
LINE
  5
398F
330
1A
100
AcDbEntity
  8
SUNPOU
100
AcDbLine
 10
220.5394257282555
 20
152.4507517583717
 30
0.0
 11
224.4623481812681
 21
142.6432426104009
 31
0.0
  0
MTEXT
  5
3995
330
1A
100
AcDbEntity
  8
SUNPOU
100
AcDbMText
 10
216.5394257257942
 20
150.0647000583717
 30
0.0
 40
3.0
 41
0.0
 71
     1
 72
     5
  1
{\W1.111111;4}
 11
1.0
 21
0.0000000008204137
 31
0.0
1001
ACAD
1000
MTEXTBEGIN
1070
    73
1070
     1
1070
    44
1040
1.0
1070
    74
1070
     0
1000
MTEXTEND
1000
MTEXTBEGIN
1070
    73
1070
     1
1070
    44
1040
1.0
1070
    74
1070
     0
1000
MTEXTEND
1000
MTEXTBEGIN
1070
    73
1070
     1
1070
    44
1040
1.0
1070
    74
1070
     0
1000
MTEXTEND
1000
MTEXTBEGIN
1070
    73
1070
     1
1070
    44
1040
1.0
1070
    74
1070
     0
1000
MTEXTEND
1000
MTEXTBEGIN
1070
    73
1070
     1
1070
    44
1040
1.0
1070
    74
1070
     0
1000
MTEXTEND
  0
LINE
  5
3998
330
1A
100
AcDbEntity
  8
SEIHIN
100
AcDbLine
 10
224.462419560986
 20
142.6432711616971
 30
0.0
 11
218.334455960986
 21
140.1921364616971
 31
0.0
  0
LINE
  5
399A
330
1A
100
AcDbEntity
  8
SUNPOU
100
AcDbLine
 10
216.5394257282555
 20
152.4507517583717
 30
0.0
 11
216.5394257282555
 21
162.4507517583717
 31
0.0
  0
LINE
  5
399B
330
1A
100
AcDbEntity
  8
SUNPOU
100
AcDbLine
 10
216.5394257282555
 20
162.4507517583717
 30
0.0
 11
220.5394257282555
 21
152.4507517583717
 31
0.0
  0
LINE
  5
399C
330
1A
100
AcDbEntity
  8
SUNPOU
100
AcDbLine
 10
220.5394257282555
 20
152.4507517583717
 30
0.0
 11
216.5394257282555
 21
152.4507517583717
 31
0.0
  0
MTEXT
  5
39FC
102
{ACAD_REACTORS
330
39FD
102
}
330
1A
100
AcDbEntity
  8
SUNPOU
100
AcDbMText
 10
293.86901117432
 20
190.73905065209
 30
0.0
 40
3.0
 41
0.0
 71
     9
 72
     5
  1
4-φ4.2
1001
ACAD
1000
MTEXTBEGIN
1070
    73
1070
     1
1070
    44
1040
1.0
1070
    74
1070
     0
1000
MTEXTEND
1000
MTEXTBEGIN
1070
    73
1070
     1
1070
    44
1040
1.0
1070
    74
1070
     0
1000
MTEXTEND
1000
MTEXTBEGIN
1070
    73
1070
     1
1070
    44
1040
1.0
1070
    74
1070
     0
1000
MTEXTEND
1000
MTEXTBEGIN
1070
    73
1070
     1
1070
    44
1040
1.0
1070
    74
1070
     0
1000
MTEXTEND
1000
MTEXTBEGIN
1070
    73
1070
     1
1070
    44
1040
1.0
1070
    74
1070
     0
1000
MTEXTEND
1000
MTEXTBEGIN
1070
    73
1070
     1
1070
    44
1040
1.0
1070
    74
1070
     0
1000
MTEXTEND
1000
MTEXTBEGIN
1070
    73
1070
     1
1070
    44
1040
1.0
1070
    74
1070
     0
1000
MTEXTEND
1000
MTEXTBEGIN
1070
    73
1070
     1
1070
    44
1040
1.0
1070
    74
1070
     0
1000
MTEXTEND
1000
MTEXTBEGIN
1070
    73
1070
     1
1070
    44
1040
1.0
1070
    74
1070
     0
1000
MTEXTEND
  0
LEADER
  5
39FD
330
1A
100
AcDbEntity
  8
SUNPOU
100
AcDbLeader
  3
STANDARD
 73
     0
 40
3.0
 41
15.59999999999999
 76
     3
 10
321.0944977603816
 20
174.1889430829928
 30
0.0
 10
298.7261969321449
 20
192.238257218028
 30
0.0
 10
294.86901117432
 20
192.23905065209
 30
0.0
340
39FC
213
0.0
223
1.5
233
0.0
1001
ACAD
1000
DSTYLE
1002
{
1070
     6
1000
OPEN
1070
    41
1040
3.0
1070
    42
1040
3.0
1070
    43
1040
7.0
1070
    44
1040
1.5
1070
    73
1070
     0
1070
    74
1070
     0
1070
    77
1070
     0
1070
   140
1040
3.0
1070
   141
1040
3.0
1070
   147
1040
1.0
1070
   172
1070
     1
1070
   173
1070
     1
1070
   176
1070
   256
1070
   177
1070
   256
1070
   178
1070
   256
1070
   271
1070
     0
1070
   272
1070
     0
1070
   341
1005
B2
1070
   343
1005
B2
1070
   344
1005
B2
1002
}
  0
DIMENSION
  5
39FE
330
1A
100
AcDbEntity
  8
SUNPOU
100
AcDbDimension
  2
*D3
 10
349.7207282495853
 20
225.3076947259909
 30
0.0
 11
328.3657225547576
 21
219.4584441950361
 31
0.0
 70
    32
  3
STANDARD
100
AcDbAlignedDimension
 13
320.801421831912
 23
179.1317166571271
 33
0.0
 14
361.6545130184253
 24
195.4726144447771
 34
0.0
 50
21.80099999999981
100
AcDbRotatedDimension
1001
ACAD
1000
DSTYLE
1002
{
1070
    41
1040
3.0
1070
    42
1040
3.0
1070
    43
1040
7.0
1070
    44
1040
1.5
1070
    73
1070
     0
1070
    74
1070
     0
1070
    77
1070
     3
1070
   140
1040
3.0
1070
   141
1040
3.0
1070
   147
1040
1.0
1070
   172
1070
     1
1070
   173
1070
     1
1070
   176
1070
   256
1070
   177
1070
   256
1070
   178
1070
   256
1070
   271
1070
     0
1070
   272
1070
     0
1070
   341
1005
B2
1070
     6
1000
OPEN
1070
     7
1000
OPEN
1002
}
  0
DIMENSION
  5
39FF
330
1A
100
AcDbEntity
  8
SUNPOU
100
AcDbDimension
  2
*D2
 10
354.235239096279
 20
238.2548583070165
 30
0.0
 11
324.523919295119
 21
229.063151410406
 31
0.0
 70
    32
  3
STANDARD
100
AcDbAlignedDimension
 13
312.8536301702709
 23
174.7679330118086
 33
0.0
 14
370.419349569449
 24
197.7937435307699
 34
0.0
 50
21.80099999999981
100
AcDbRotatedDimension
1001
ACAD
1000
DSTYLE
1002
{
1070
    41
1040
3.0
1070
    42
1040
3.0
1070
    43
1040
7.0
1070
    44
1040
1.5
1070
    73
1070
     0
1070
    74
1070
     0
1070
    77
1070
     3
1070
   140
1040
3.0
1070
   141
1040
3.0
1070
   147
1040
1.0
1070
   172
1070
     1
1070
   173
1070
     1
1070
   176
1070
   256
1070
   177
1070
   256
1070
   178
1070
   256
1070
   271
1070
     0
1070
   272
1070
     0
1070
   341
1005
B2
1070
     6
1000
OPEN
1070
     7
1000
OPEN
1002
}
  0
CIRCLE
  5
3A00
330
1A
100
AcDbEntity
  8
SEIHIN
100
AcDbCircle
 10
363.9199556662586
 20
189.808890439374
 30
0.0
 40
2.100000000000022
  0
LINE
  5
3A01
330
1A
100
AcDbEntity
  8
CENTER_L
100
AcDbLine
 10
361.6545130184253
 20
195.4726144447771
 30
0.0
 11
366.185398314092
 21
184.1451664339711
 31
0.0
  0
LINE
  5
3A02
330
1A
100
AcDbEntity
  8
CENTER_L
100
AcDbLine
 10
369.5836796716617
 20
192.0743330872073
 30
0.0
 11
358.2562316608555
 21
187.5434477915407
 31
0.0
  0
LINE
  5
3A03
330
1A
100
AcDbEntity
  8
SEIHIN
100
AcDbLine
 10
362.8055726214492
 20
160.2833396328362
 30
0.0
 11
379.5182008341137
 21
166.9682523641476
 31
0.0
  0
LINE
  5
3A04
330
1A
100
AcDbEntity
  8
SEIHIN
100
AcDbLine
 10
340.5223377479748
 20
189.0662763067333
 30
0.0
 11
366.5197594121196
 21
199.4650294443288
 31
0.0
  0
DIMENSION
  5
3A05
330
1A
100
AcDbEntity
  8
SUNPOU
100
AcDbDimension
  2
*D7
 10
301.5094145500659
 20
164.8451913989374
 30
0.0
 11
302.3450767504222
 21
169.4875688811006
 31
0.0
 70
    32
  3
STANDARD
100
AcDbAlignedDimension
 13
314.5249160838298
 23
178.6675231691378
 33
0.0
 14
317.4031404743421
 24
171.2025500038907
 34
0.0
 50
111.8010000000002
100
AcDbRotatedDimension
1001
ACAD
1000
DSTYLE
1002
{
1070
    41
1040
3.0
1070
    42
1040
3.0
1070
    43
1040
7.0
1070
    44
1040
1.5
1070
    73
1070
     0
1070
    74
1070
     0
1070
    77
1070
     3
1070
   140
1040
3.0
1070
   141
1040
3.0
1070
   147
1040
1.0
1070
   172
1070
     1
1070
   173
1070
     1
1070
   176
1070
   256
1070
   177
1070
   256
1070
   178
1070
   256
1070
   271
1070
     0
1070
   272
1070
     0
1070
   341
1005
B2
1070
     6
1000
OPEN
1070
     7
1000
OPEN
1002
}
  0
DIMENSION
  5
3A06
330
1A
100
AcDbEntity
  8
SUNPOU
100
AcDbDimension
  2
*D5
 10
320.844618291916
 20
143.4993057725661
 30
0.0
 11
316.6665959437888
 21
160.6761544142277
 31
0.0
 70
    32
  3
STANDARD
100
AcDbAlignedDimension
 13
288.3002990784457
 23
168.1778937785786
 33
0.0
 14
301.2987405004401
 24
135.6811166983975
 34
0.0
 50
111.8010000000002
100
AcDbRotatedDimension
1001
ACAD
1000
DSTYLE
1002
{
1070
    41
1040
3.0
1070
    42
1040
3.0
1070
    43
1040
7.0
1070
    44
1040
1.5
1070
    73
1070
     0
1070
    74
1070
     0
1070
    77
1070
     3
1070
   140
1040
3.0
1070
   141
1040
3.0
1070
   147
1040
1.0
1070
   172
1070
     1
1070
   173
1070
     1
1070
   176
1070
   256
1070
   177
1070
   256
1070
   178
1070
   256
1070
   271
1070
     0
1070
   272
1070
     0
1070
   341
1005
B2
1070
     6
1000
OPEN
1070
     7
1000
OPEN
1002
}
  0
DIMENSION
  5
3A07
330
1A
100
AcDbEntity
  8
SUNPOU
100
AcDbDimension
  2
*D4
 10
302.2349256479683
 20
136.055582996094
 30
0.0
 11
298.0569032998411
 21
153.2324316377555
 31
0.0
 70
    32
  3
STANDARD
100
AcDbAlignedDimension
 13
314.5249160838298
 23
178.6675231691378
 33
0.0
 14
327.5233575058241
 24
146.1707460889568
 34
0.0
 50
111.8010000000002
100
AcDbRotatedDimension
1001
ACAD
1000
DSTYLE
1002
{
1070
    41
1040
3.0
1070
    42
1040
3.0
1070
    43
1040
7.0
1070
    44
1040
1.5
1070
    73
1070
     0
1070
    74
1070
     0
1070
    77
1070
     3
1070
   140
1040
3.0
1070
   141
1040
3.0
1070
   147
1040
1.0
1070
   172
1070
     1
1070
   173
1070
     1
1070
   176
1070
   256
1070
   177
1070
   256
1070
   178
1070
   256
1070
   271
1070
     0
1070
   272
1070
     0
1070
   341
1005
B2
1070
     6
1000
OPEN
1070
     7
1000
OPEN
1002
}
  0
LINE
  5
3A08
330
1A
100
AcDbEntity
  8
SEIHIN
100
AcDbLine
 10
350.2713708720289
 20
192.9658087333316
 30
0.0
 11
363.2698122940233
 21
160.4690316531505
 31
0.0
  0
CIRCLE
  5
3A09
330
1A
100
AcDbEntity
  8
SEIHIN
100
AcDbCircle
 10
323.0668644797453
 20
173.4679926517241
 30
0.0
 40
2.100000000000022
  0
LINE
  5
3A0A
330
1A
100
AcDbEntity
  8
CENTER_L
100
AcDbLine
 10
317.4031404743421
 20
171.2025500038907
 30
0.0
 11
328.7305884851483
 21
175.7334352995574
 31
0.0
  0
LINE
  5
3A0B
330
1A
100
AcDbEntity
  8
CENTER_L
100
AcDbLine
 10
320.801421831912
 20
179.1317166571271
 30
0.0
 11
325.3323071275786
 21
167.8042686463211
 31
0.0
  0
LINE
  5
3A0C
330
1A
100
AcDbEntity
  8
SEIHIN
100
AcDbLine
 10
331.2375442964944
 20
185.3524359004493
 30
0.0
 11
347.246873106315
 21
145.3282843390347
 31
0.0
  0
LINE
  5
3A0D
330
1A
100
AcDbEntity
  8
SEIHIN
100
AcDbLine
 10
312.8536301331326
 20
174.7679331046565
 30
0.0
 11
323.6237672742179
 21
147.8420321882115
 31
0.0
  0
LINE
  5
3A0E
330
1A
100
AcDbEntity
  8
SEIHIN
100
AcDbLine
 10
330.7733046239205
 20
185.166743880135
 30
0.0
 11
343.7717460459147
 21
152.6699667999539
 31
0.0
  0
LINE
  5
3A0F
330
1A
100
AcDbEntity
  8
CENTER_L
100
AcDbLine
 10
334.8216771392142
 20
203.3182232131677
 30
0.0
 11
359.1313548301552
 21
142.5427693593815
 31
0.0
  0
LINE
  5
3A10
330
1A
100
AcDbEntity
  8
SEIHIN
100
AcDbLine
 10
349.807131199455
 20
192.7801167130174
 30
0.0
 11
365.8164599851973
 21
152.7559652118005
 31
0.0
  0
CIRCLE
  5
3A11
330
1A
100
AcDbEntity
  8
SEIHIN
100
AcDbCircle
 10
330.1231612516851
 20
155.8268850939114
 30
0.0
 40
2.100000000000022
  0
LINE
  5
3A12
330
1A
100
AcDbEntity
  8
CENTER_L
100
AcDbLine
 10
324.4594372462819
 20
153.5614424460782
 30
0.0
 11
335.786885257088
 21
158.0923277417447
 31
0.0
  0
LINE
  5
3A13
330
1A
100
AcDbEntity
  8
CENTER_L
100
AcDbLine
 10
327.8577186038517
 20
161.4906090993145
 30
0.0
 11
332.3886038995183
 21
150.1631610885085
 31
0.0
  0
LINE
  5
3A14
330
1A
100
AcDbEntity
  8
SEIHIN
100
AcDbLine
 10
327.5233575058241
 20
146.1707460889568
 30
0.0
 11
344.2359857184885
 21
152.855658820268
 31
0.0
  0
DIMENSION
  5
3A15
330
1A
100
AcDbEntity
  8
SUNPOU
100
AcDbDimension
  2
*D6
 10
311.5367836470331
 20
139.7762490799406
 30
0.0
 11
312.3724458473895
 21
144.4186265621038
 31
0.0
 70
    32
  3
STANDARD
100
AcDbAlignedDimension
 13
324.4594372462819
 23
153.5614424460782
 33
0.0
 14
327.5233575058241
 24
146.1707460889568
 34
0.0
 50
111.8010000000002
100
AcDbRotatedDimension
1001
ACAD
1000
DSTYLE
1002
{
1070
    41
1040
3.0
1070
    42
1040
3.0
1070
    43
1040
7.0
1070
    44
1040
1.5
1070
    73
1070
     0
1070
    74
1070
     0
1070
    77
1070
     3
1070
   140
1040
3.0
1070
   141
1040
3.0
1070
   147
1040
1.0
1070
   172
1070
     1
1070
   173
1070
     1
1070
   176
1070
   256
1070
   177
1070
   256
1070
   178
1070
   256
1070
   271
1070
     0
1070
   272
1070
     0
1070
   341
1005
B2
1070
     6
1000
OPEN
1070
     7
1000
OPEN
1002
}
  0
ARC
  5
3A16
330
1A
100
AcDbEntity
  8
SEIHIN
100
AcDbCircle
 10
326.4092053839389
 20
148.9561841244008
 30
0.0
 40
3.000000000000003
100
AcDbArc
 50
201.800996180281
 51
291.8009999999999
  0
LINE
  5
3A17
330
1A
100
AcDbEntity
  8
SEIHIN
100
AcDbLine
 10
339.5008103351111
 20
160.6548968656578
 30
0.0
 11
337.643851644815
 21
159.912128784401
 31
0.0
  0
LINE
  5
3A18
330
1A
100
AcDbEntity
  8
SEIHIN
100
AcDbLine
 10
340.2435784163678
 20
158.7979381753617
 30
0.0
 11
338.3866197260718
 21
158.0551700941049
 31
0.0
  0
ARC
  5
3A19
330
1A
100
AcDbEntity
  8
SEIHIN
100
AcDbCircle
 10
337.8295436651291
 20
159.4478891118269
 30
0.0
 40
0.5
100
AcDbArc
 50
111.8009999999999
 51
201.801
  0
LINE
  5
3A1A
330
1A
100
AcDbEntity
  8
SEIHIN
100
AcDbLine
 10
337.7366880331836
 20
158.3337177463647
 30
0.0
 11
337.365303992555
 21
159.2621970915128
 31
0.0
  0
ARC
  5
3A1B
330
1A
100
AcDbEntity
  8
SEIHIN
100
AcDbCircle
 10
338.2009277057576
 20
158.5194097666789
 30
0.0
 40
0.5
100
AcDbArc
 50
201.801
 51
291.8010000000005
  0
ARC
  5
3A1C
330
1A
100
AcDbEntity
  8
SEIHIN
100
AcDbCircle
 10
362.898485984126
 20
169.475258208794
 30
0.0
 40
0.5
100
AcDbArc
 50
21.801
 51
111.8009999999999
  0
LINE
  5
3A1D
330
1A
100
AcDbEntity
  8
SEIHIN
100
AcDbLine
 10
360.8558352735156
 20
169.1967298001112
 30
0.0
 11
362.7127939638117
 21
169.939497881368
 31
0.0
  0
ARC
  5
3A1E
330
1A
100
AcDbEntity
  8
SEIHIN
100
AcDbCircle
 10
363.2698700247544
 20
168.5467788636459
 30
0.0
 40
0.5
100
AcDbArc
 50
291.8009999999994
 51
21.801
  0
LINE
  5
3A1F
330
1A
100
AcDbEntity
  8
SEIHIN
100
AcDbLine
 10
361.5986033547724
 20
167.3397711098151
 30
0.0
 11
363.4555620450685
 21
168.0825391910719
 31
0.0
  0
LINE
  5
3A20
330
1A
100
AcDbEntity
  8
SEIHIN
100
AcDbLine
 10
363.7341096973283
 20
168.7324708839602
 30
0.0
 11
363.3627256566999
 21
169.6609502291082
 31
0.0
  0
LINE
  5
3A22
330
1A
100
AcDbEntity
  8
SEIHIN
100
AcDbLine
 10
332.4445135631712
 20
178.2960044234704
 30
0.0
 11
330.5875548728751
 21
177.5532363422136
 31
0.0
  0
LINE
  5
3A23
330
1A
100
AcDbEntity
  8
SEIHIN
100
AcDbLine
 10
333.187281644428
 20
176.4390457331743
 30
0.0
 11
331.330322954132
 21
175.6962776519175
 31
0.0
  0
LINE
  5
3A24
330
1A
100
AcDbEntity
  8
SEIHIN
100
AcDbLine
 10
314.5249160838298
 20
178.6675231691378
 30
0.0
 11
340.5223377479748
 21
189.0662763067334
 31
0.0
  0
ARC
  5
3A25
330
1A
100
AcDbEntity
  8
SEIHIN
100
AcDbCircle
 10
315.639068205715
 20
175.8820851336938
 30
0.0
 40
3.0
100
AcDbArc
 50
111.8009999999999
 51
201.801
  0
LINE
  5
3A26
330
1A
100
AcDbEntity
  8
SEIHIN
100
AcDbLine
 10
330.6803912612437
 20
175.9748253041773
 30
0.0
 11
330.3090072206153
 21
176.9033046493254
 31
0.0
  0
ARC
  5
3A27
330
1A
100
AcDbEntity
  8
SEIHIN
100
AcDbCircle
 10
331.1446309338177
 20
176.1605173244915
 30
0.0
 40
0.5
100
AcDbArc
 50
201.801
 51
291.8010000000005
  0
ARC
  5
3A28
330
1A
100
AcDbEntity
  8
SEIHIN
100
AcDbCircle
 10
330.7732468931892
 20
177.0889966696396
 30
0.0
 40
0.5
100
AcDbArc
 50
111.8009999999999
 51
201.801
  0
LINE
  5
3A2A
330
1A
100
AcDbEntity
  8
SEIHIN
100
AcDbLine
 10
360.2455839263484
 20
150.5276609379312
 30
0.0
 11
358.374218949869
 21
155.2061703454829
 31
0.0
  0
LINE
  5
3A2B
330
1A
100
AcDbEntity
  8
SEIHIN
100
AcDbLine
 10
352.817749165164
 20
147.5565886129039
 30
0.0
 11
350.9463841886847
 21
152.2350980204556
 31
0.0
  0
ARC
  5
3A2C
330
1A
100
AcDbEntity
  8
SEIHIN
100
AcDbCircle
 10
355.8421892121862
 20
187.1163657666066
 30
0.0
 40
0.5
100
AcDbArc
 50
21.801
 51
111.8009999999999
  0
LINE
  5
3A2D
330
1A
100
AcDbEntity
  8
SEIHIN
100
AcDbLine
 10
354.5423065828327
 20
184.9808786676278
 30
0.0
 11
356.3992652731288
 21
185.7236467488845
 31
0.0
  0
LINE
  5
3A2E
330
1A
100
AcDbEntity
  8
SEIHIN
100
AcDbLine
 10
353.7995385015759
 20
186.8378373579238
 30
0.0
 11
355.656497191872
 21
187.5806054391806
 31
0.0
  0
ARC
  5
3A2F
330
1A
100
AcDbEntity
  8
SEIHIN
100
AcDbCircle
 10
356.2135732528147
 20
186.1878864214585
 30
0.0
 40
0.5
100
AcDbArc
 50
291.8009999999994
 51
21.801
  0
LINE
  5
3A30
330
1A
100
AcDbEntity
  8
SEIHIN
100
AcDbLine
 10
356.6778129253885
 20
186.3735784417728
 30
0.0
 11
356.3064288847602
 21
187.3020577869208
 31
0.0
  0
CIRCLE
  5
3A32
330
1A
100
AcDbEntity
  8
SEIHIN
100
AcDbCircle
 10
370.9762524381985
 20
172.1677828815614
 30
0.0
 40
2.100000000000022
  0
LINE
  5
3A33
330
1A
100
AcDbEntity
  8
CENTER_L
100
AcDbLine
 10
368.7108097903652
 20
177.8315068869645
 30
0.0
 11
373.2416950860318
 21
166.5040588761584
 31
0.0
  0
LINE
  5
3A34
330
1A
100
AcDbEntity
  8
CENTER_L
100
AcDbLine
 10
376.6399764436014
 20
174.4332255293947
 30
0.0
 11
365.3125284327953
 21
169.9023402337281
 31
0.0
  0
LINE
  5
3A35
330
1A
100
AcDbEntity
  8
SEIHIN
100
AcDbLine
 10
370.4193495323104
 20
197.7937436236178
 30
0.0
 11
381.189486673396
 21
170.8678427071728
 31
0.0
  0
ARC
  5
3A36
330
1A
100
AcDbEntity
  8
SEIHIN
100
AcDbCircle
 10
378.4040487122286
 20
169.7536903995917
 30
0.0
 40
3.000000000000003
100
AcDbArc
 50
291.8009999999999
 51
21.80100381971894
  0
ARC
  5
3A37
330
1A
100
AcDbEntity
  8
SEIHIN
100
AcDbCircle
 10
367.6339115340048
 20
196.6795914088846
 30
0.0
 40
3.0
100
AcDbArc
 50
21.80100190985947
 51
111.8009999999999
  0
LINE
  5
3B2A
330
1A
100
AcDbEntity
  8
CENTER_L
100
AcDbLine
 10
221.7697679586157
 20
132.9499937328606
 30
0.0
 11
233.0972159694219
 21
137.4808790285272
 31
0.0
  0
LINE
  5
3B2B
330
1A
100
AcDbEntity
  8
CENTER_L
100
AcDbLine
 10
228.8260647305555
 20
115.3088861750481
 30
0.0
 11
240.1535127413616
 21
119.8397714707146
 31
0.0
  0
LINE
  5
3B5C
330
1A
100
AcDbEntity
  8
SEIHIN
100
AcDbLine
 10
224.462419560986
 20
219.3533486233106
 30
0.0
 11
224.462419560986
 21
202.6533486233106
 31
0.0
  0
LINE
  5
3B5D
330
1A
100
AcDbEntity
  8
SEIHIN
100
AcDbLine
 10
222.9768526609859
 20
218.2533486233106
 30
0.0
 11
222.9768526609859
 21
202.6533486233106
 31
0.0
  0
LINE
  5
3B5E
330
1A
100
AcDbEntity
  8
SEIHIN
100
AcDbLine
 10
218.334455960986
 20
219.3533486233106
 30
0.0
 11
218.334455960986
 21
241.9533486233105
 31
0.0
  0
ARC
  5
3B5F
330
1A
100
AcDbEntity
  8
SEIHIN
100
AcDbCircle
 10
219.134455960986
 20
219.3533486233107
 30
0.0
 40
0.8
100
AcDbArc
 50
180.0000000000061
 51
269.9999999999979
  0
ARC
  5
3B60
330
1A
100
AcDbEntity
  8
SEIHIN
100
AcDbCircle
 10
223.662419560986
 20
219.3533486233106
 30
0.0
 40
0.8
100
AcDbArc
 50
0.0
 51
90.00000000000204
  0
ARC
  5
3B61
330
1A
100
AcDbEntity
  8
SEIHIN
100
AcDbCircle
 10
222.676852660986
 20
218.2533486233106
 30
0.0
 40
0.3
100
AcDbArc
 50
359.9999999999891
 51
90.00000000001085
  0
LINE
  5
3B62
330
1A
100
AcDbEntity
  8
SEIHIN
100
AcDbLine
 10
219.8200228749878
 20
220.4533486233106
 30
0.0
 11
219.8200228749878
 21
240.8533486233107
 31
0.0
  0
ARC
  5
3B63
330
1A
100
AcDbEntity
  8
SEIHIN
100
AcDbCircle
 10
220.1200228749877
 20
220.4533486233105
 30
0.0
 40
0.3
100
AcDbArc
 50
179.9999999999837
 51
270.0000000000108
  0
LINE
  5
3B67
330
1A
100
AcDbEntity
  8
SEIHIN
100
AcDbLine
 10
223.9981799596278
 20
220.6533486233106
 30
0.0
 11
223.9981799596278
 21
240.6533486233106
 31
0.0
  0
LINE
  5
3B68
330
1A
100
AcDbEntity
  8
SEIHIN
100
AcDbLine
 10
237.460861060986
 20
202.6533486233106
 30
0.0
 11
237.460861060986
 21
219.3533486233106
 31
0.0
  0
ELLIPSE
  5
3B6D
330
1A
100
AcDbEntity
  8
SEIHIN
100
AcDbEllipse
 10
225.5765717075746
 20
202.6533486233106
 30
0.0
 11
-0.0000000000000155
 21
3.0
 31
0.0
210
0.0
220
0.0
230
1.0
 40
0.3713840488628743
 41
1.570796326794894
 42
3.141592653589778
  0
ELLIPSE
  5
3B6E
330
1A
100
AcDbEntity
  8
SEIHIN
100
AcDbEllipse
 10
236.3467089143973
 20
202.6533486233106
 30
0.0
 11
0.0000000000000157
 21
3.0
 31
0.0
210
0.0
220
0.0
230
1.0
 40
0.3713840488628743
 41
3.141592653589807
 42
4.712388980384691
  0
ELLIPSE
  5
3B70
330
1A
100
AcDbEntity
  8
SEIHIN
100
AcDbEllipse
 10
224.0910048075746
 20
202.6533486233106
 30
0.0
 11
-0.0000000000000155
 21
3.0
 31
0.0
210
0.0
220
0.0
230
1.0
 40
0.3713840488628743
 41
1.570796326794894
 42
3.141592653589778
  0
LINE
  5
3B71
330
1A
100
AcDbEntity
  8
CENTER_L
100
AcDbLine
 10
227.4334919174148
 20
214.7533486233106
 30
0.0
 11
227.4334919174148
 21
202.5534930737183
 31
0.0
  0
ELLIPSE
  5
3B77
330
1A
100
AcDbEntity
  8
SEIHIN
100
AcDbEllipse
 10
227.4334919174148
 20
208.6533486233106
 30
0.0
 11
0.0
 21
2.099999999999994
 31
0.0
210
0.0
220
0.0
230
1.0
 40
0.3713840423544865
 41
0.0
 42
6.283185307179586
  0
ELLIPSE
  5
3B78
330
1A
100
AcDbEntity
  8
SEIHIN
100
AcDbEllipse
 10
234.4897887221501
 20
208.6533486233106
 30
0.0
 11
0.0
 21
2.099999999999994
 31
0.0
210
0.0
220
0.0
230
1.0
 40
0.3713840423544865
 41
0.0
 42
6.283185307179586
  0
LINE
  5
3B7A
330
1A
100
AcDbEntity
  8
CENTER_L
100
AcDbLine
 10
234.4897887221501
 20
214.7533486233106
 30
0.0
 11
234.4897887221501
 21
202.5534930737183
 31
0.0
  0
LINE
  5
3B7C
330
1A
100
AcDbEntity
  8
SEIHIN
100
AcDbLine
 10
238.4672465379301
 20
220.6533486233106
 30
0.0
 11
219.8200228749878
 21
220.6533486233106
 31
0.0
  0
LINE
  5
3B7D
330
1A
100
AcDbEntity
  8
SEIHIN
100
AcDbLine
 10
238.4672465379301
 20
220.6533486233106
 30
0.0
 11
238.4672465379301
 21
226.1533486233106
 31
0.0
  0
LINE
  5
3B7E
330
1A
100
AcDbEntity
  8
SEIHIN
100
AcDbLine
 10
232.8184643749878
 20
220.4533486233106
 30
0.0
 11
232.8184643749878
 21
220.6533486233106
 31
0.0
  0
ARC
  5
3B7F
330
1A
100
AcDbEntity
  8
SEIHIN
100
AcDbCircle
 10
236.660861060986
 20
219.3533486233106
 30
0.0
 40
0.8
100
AcDbArc
 50
0.0
 51
90.00000000000204
  0
ARC
  5
3B80
330
1A
100
AcDbEntity
  8
SEIHIN
100
AcDbCircle
 10
233.1184643749877
 20
220.4533486233105
 30
0.0
 40
0.3
100
AcDbArc
 50
179.9999999999837
 51
270.0000000000108
  0
LINE
  5
3B81
330
1A
100
AcDbEntity
  8
SEIHIN
100
AcDbLine
 10
237.460861060986
 20
258.6533486233106
 30
0.0
 11
237.460861060986
 21
241.9533486233106
 31
0.0
  0
LINE
  5
3B82
330
1A
100
AcDbEntity
  8
CENTER_L
100
AcDbLine
 10
234.4897887221501
 20
246.5533486233106
 30
0.0
 11
234.4897887221501
 21
258.7532041729029
 31
0.0
  0
LINE
  5
3B83
330
1A
100
AcDbEntity
  8
CENTER_L
100
AcDbLine
 10
227.4334919174148
 20
246.5533486233106
 30
0.0
 11
227.4334919174148
 21
258.7532041729029
 31
0.0
  0
LINE
  5
3B84
330
1A
100
AcDbEntity
  8
SEIHIN
100
AcDbLine
 10
222.9768526609859
 20
243.0533486233106
 30
0.0
 11
222.9768526609859
 21
258.6533486233106
 31
0.0
  0
LINE
  5
3B85
330
1A
100
AcDbEntity
  8
SEIHIN
100
AcDbLine
 10
224.462419560986
 20
241.9533486233106
 30
0.0
 11
224.462419560986
 21
258.6533486233106
 31
0.0
  0
LINE
  5
3B86
330
1A
100
AcDbEntity
  8
SEIHIN
100
AcDbLine
 10
236.3467089143973
 20
261.6533486233106
 30
0.0
 11
224.0910048075746
 21
261.6533486233106
 31
0.0
  0
ELLIPSE
  5
3B87
330
1A
100
AcDbEntity
  8
SEIHIN
100
AcDbEllipse
 10
224.0910048075746
 20
258.6533486233106
 30
0.0
 11
-0.0000000000000017
 21
3.0
 31
0.0
210
0.0
220
0.0
230
-1.0
 40
0.3713840488628743
 41
-1.570796326794896
 42
0.0000000000000018
  0
ELLIPSE
  5
3B88
330
1A
100
AcDbEntity
  8
SEIHIN
100
AcDbEllipse
 10
225.5765717075746
 20
258.6533486233106
 30
0.0
 11
-0.0000000000000017
 21
3.0
 31
0.0
210
0.0
220
0.0
230
-1.0
 40
0.3713840488628743
 41
-1.570796326794896
 42
0.0000000000000018
  0
ELLIPSE
  5
3B89
330
1A
100
AcDbEntity
  8
SEIHIN
100
AcDbEllipse
 10
236.3467089143973
 20
258.6533486233106
 30
0.0
 11
0.0000000000000019
 21
3.0
 31
0.0
210
0.0
220
0.0
230
-1.0
 40
0.3713840488628742
 41
-0.000000000000002
 42
1.570796326794896
  0
LINE
  5
3B8A
330
1A
100
AcDbEntity
  8
SEIHIN
100
AcDbLine
 10
238.4672465379301
 20
240.6533486233106
 30
0.0
 11
219.8200228749878
 21
240.6533486233106
 31
0.0
  0
LINE
  5
3B8B
330
1A
100
AcDbEntity
  8
SEIHIN
100
AcDbLine
 10
236.660861060986
 20
241.1533486233106
 30
0.0
 11
220.1200228749877
 21
241.1533486233106
 31
0.0
  0
LINE
  5
3B8C
330
1A
100
AcDbEntity
  8
CENTER_L
100
AcDbLine
 10
222.6534504651473
 20
252.6533486233106
 30
0.0
 11
239.7504070906496
 21
252.6533486233106
 31
0.0
  0
ELLIPSE
  5
3B8D
330
1A
100
AcDbEntity
  8
SEIHIN
100
AcDbEllipse
 10
227.4334919174148
 20
252.6533486233106
 30
0.0
 11
0.0
 21
-2.099999999999994
 31
0.0
210
0.0
220
0.0
230
-1.0
 40
0.3713840423544865
 41
0.0
 42
6.283185307179586
  0
ARC
  5
3B8E
330
1A
100
AcDbEntity
  8
SEIHIN
100
AcDbCircle
 10
223.662419560986
 20
241.9533486233106
 30
0.0
 40
0.8
100
AcDbArc
 50
269.9999999999979
 51
0.0
  0
LINE
  5
3B8F
330
1A
100
AcDbEntity
  8
SEIHIN
100
AcDbLine
 10
219.134455960986
 20
242.7533486233106
 30
0.0
 11
222.6768526609859
 21
242.7533486233106
 31
0.0
  0
ARC
  5
3B90
330
1A
100
AcDbEntity
  8
SEIHIN
100
AcDbCircle
 10
219.134455960986
 20
241.9533486233105
 30
0.0
 40
0.8
100
AcDbArc
 50
90.00000000000204
 51
179.9999999999938
  0
ARC
  5
3B91
330
1A
100
AcDbEntity
  8
SEIHIN
100
AcDbCircle
 10
220.1200228749877
 20
240.8533486233107
 30
0.0
 40
0.3
100
AcDbArc
 50
89.99999999998918
 51
180.0000000000162
  0
ARC
  5
3B92
330
1A
100
AcDbEntity
  8
SEIHIN
100
AcDbCircle
 10
222.676852660986
 20
243.0533486233105
 30
0.0
 40
0.3
100
AcDbArc
 50
269.9999999999891
 51
0.0000000000108534
  0
ELLIPSE
  5
3B93
330
1A
100
AcDbEntity
  8
SEIHIN
100
AcDbEllipse
 10
234.4897887221501
 20
252.6533486233106
 30
0.0
 11
0.0
 21
-2.099999999999994
 31
0.0
210
0.0
220
0.0
230
-1.0
 40
0.3713840423544865
 41
0.0
 42
6.283185307179586
  0
LINE
  5
3B94
330
1A
100
AcDbEntity
  8
SEIHIN
100
AcDbLine
 10
232.8184643749878
 20
240.8533486233106
 30
0.0
 11
232.8184643749878
 21
240.6533486233106
 31
0.0
  0
ARC
  5
3B95
330
1A
100
AcDbEntity
  8
SEIHIN
100
AcDbCircle
 10
233.1184643749877
 20
240.8533486233107
 30
0.0
 40
0.3
100
AcDbArc
 50
89.99999999998918
 51
180.0000000000162
  0
ARC
  5
3B96
330
1A
100
AcDbEntity
  8
SEIHIN
100
AcDbCircle
 10
236.660861060986
 20
241.9533486233106
 30
0.0
 40
0.8
100
AcDbArc
 50
269.9999999999979
 51
0.0
  0
LINE
  5
3B98
330
1A
100
AcDbEntity
  8
SEIHIN
100
AcDbLine
 10
237.9672465379301
 20
226.6533486233106
 30
0.0
 11
237.9672465379301
 21
234.6533486233106
 31
0.0
  0
LINE
  5
3B9A
330
1A
100
AcDbEntity
  8
SEIHIN
100
AcDbLine
 10
238.4672465379301
 20
235.1533486233106
 30
0.0
 11
237.9672465379301
 21
234.6533486233106
 31
0.0
  0
LINE
  5
3B9B
330
1A
100
AcDbEntity
  8
SEIHIN
100
AcDbLine
 10
238.4672465379301
 20
226.1533486233106
 30
0.0
 11
237.9672465379301
 21
226.6533486233107
 31
0.0
  0
LINE
  5
3B9C
330
1A
100
AcDbEntity
  8
SEIHIN
100
AcDbLine
 10
238.4672465379301
 20
235.1533486233106
 30
0.0
 11
238.4672465379301
 21
240.6533486233106
 31
0.0
  0
LINE
  5
3BD8
330
1A
100
AcDbEntity
  8
SEIHIN
100
AcDbLine
 10
365.8164599851974
 20
152.7559652118005
 30
0.0
 11
347.2468731063149
 21
145.3282843390347
 31
0.0
  0
LINE
  5
3BDB
330
1A
100
AcDbEntity
  8
SEIHIN
100
AcDbLine
 10
222.4197188632117
 20
135.3640284713518
 30
0.0
 11
223.9052550227773
 21
131.6501110895805
 31
0.0
  0
LINE
  5
3BDC
330
1A
100
AcDbEntity
  8
CENTER_L
100
AcDbLine
 10
222.4197188632117
 20
135.3640284713518
 30
0.0
 11
224.2766775535077
 21
136.1067965526086
 31
0.0
  0
LINE
  5
3BDD
330
1A
100
AcDbEntity
  8
SEIHIN
100
AcDbLine
 10
222.4197188632117
 20
135.3640284713518
 30
0.0
 11
224.2766775535077
 21
136.1067965526086
 31
0.0
  0
LINE
  5
3BDE
330
1A
100
AcDbEntity
  8
SEIHIN
100
AcDbLine
 10
223.9052550227773
 20
131.6501110895805
 30
0.0
 11
225.7622137130734
 21
132.3928791708374
 31
0.0
  0
LINE
  5
3BE0
330
1A
100
AcDbEntity
  8
SEIHIN
100
AcDbLine
 10
229.4760156679469
 20
117.7229209266572
 30
0.0
 11
231.3329743582429
 21
118.465689007914
 31
0.0
  0
LINE
  5
3BE1
330
1A
100
AcDbEntity
  8
SEIHIN
100
AcDbLine
 10
229.4760156679469
 20
117.7229209266572
 30
0.0
 11
230.9615518275125
 21
114.0090035448858
 31
0.0
  0
LINE
  5
3BE2
330
1A
100
AcDbEntity
  8
SEIHIN
100
AcDbLine
 10
229.4760156679469
 20
117.7229209266572
 30
0.0
 11
231.3329743582429
 21
118.465689007914
 31
0.0
  0
LINE
  5
3BE3
330
1A
100
AcDbEntity
  8
SEIHIN
100
AcDbLine
 10
230.9615518275125
 20
114.0090035448858
 30
0.0
 11
232.8185105178086
 21
114.7517716261427
 31
0.0
  0
LINE
  5
3BE6
330
1A
100
AcDbEntity
  8
SEIHIN
100
AcDbLine
 10
228.4334919174149
 20
218.1533486233106
 30
0.0
 11
226.4334919174149
 21
218.1533486233106
 31
0.0
  0
LINE
  5
3BE7
330
1A
100
AcDbEntity
  8
SEIHIN
100
AcDbLine
 10
226.4334919174149
 20
218.1533486233106
 30
0.0
 11
226.4334919174149
 21
219.3533486233106
 31
0.0
  0
LINE
  5
3BE8
330
1A
100
AcDbEntity
  8
SEIHIN
100
AcDbLine
 10
228.4334919174149
 20
218.1533486233106
 30
0.0
 11
228.4334919174149
 21
219.3533486233106
 31
0.0
  0
LINE
  5
3BEB
330
1A
100
AcDbEntity
  8
SEIHIN
100
AcDbLine
 10
235.48978872215
 20
218.1533486233106
 30
0.0
 11
233.48978872215
 21
218.1533486233106
 31
0.0
  0
LINE
  5
3BEC
330
1A
100
AcDbEntity
  8
SEIHIN
100
AcDbLine
 10
233.48978872215
 20
218.1533486233106
 30
0.0
 11
233.48978872215
 21
219.3533486233106
 31
0.0
  0
LINE
  5
3BED
330
1A
100
AcDbEntity
  8
SEIHIN
100
AcDbLine
 10
235.48978872215
 20
218.1533486233106
 30
0.0
 11
235.48978872215
 21
219.3533486233106
 31
0.0
  0
LINE
  5
3BEE
330
1A
100
AcDbEntity
  8
SEIHIN
100
AcDbLine
 10
228.4334919174149
 20
243.1533486233106
 30
0.0
 11
226.4334919174149
 21
243.1533486233106
 31
0.0
  0
LINE
  5
3BEF
330
1A
100
AcDbEntity
  8
SEIHIN
100
AcDbLine
 10
226.4334919174149
 20
243.1533486233106
 30
0.0
 11
226.4334919174149
 21
241.9533486233106
 31
0.0
  0
LINE
  5
3BF0
330
1A
100
AcDbEntity
  8
SEIHIN
100
AcDbLine
 10
228.4334919174149
 20
243.1533486233106
 30
0.0
 11
228.4334919174149
 21
241.9533486233106
 31
0.0
  0
LINE
  5
3BF1
330
1A
100
AcDbEntity
  8
SEIHIN
100
AcDbLine
 10
235.48978872215
 20
243.1533486233106
 30
0.0
 11
235.48978872215
 21
241.9533486233106
 31
0.0
  0
LINE
  5
3BF2
330
1A
100
AcDbEntity
  8
SEIHIN
100
AcDbLine
 10
233.48978872215
 20
243.1533486233106
 30
0.0
 11
233.48978872215
 21
241.9533486233106
 31
0.0
  0
LINE
  5
3BF3
330
1A
100
AcDbEntity
  8
SEIHIN
100
AcDbLine
 10
235.48978872215
 20
243.1533486233106
 30
0.0
 11
233.48978872215
 21
243.1533486233106
 31
0.0
  0
ARC
  5
3BF6
330
1A
100
AcDbEntity
  8
SEIHIN
100
AcDbCircle
 10
234.6897887221501
 20
219.3533486233106
 30
0.0
 40
0.8
100
AcDbArc
 50
0.0
 51
90.00000000000204
  0
ARC
  5
3BF7
330
1A
100
AcDbEntity
  8
SEIHIN
100
AcDbCircle
 10
232.6897887221501
 20
219.3533486233106
 30
0.0
 40
0.8
100
AcDbArc
 50
0.0
 51
90.00000000000204
  0
ARC
  5
3BF8
330
1A
100
AcDbEntity
  8
SEIHIN
100
AcDbCircle
 10
225.6334919174149
 20
219.3533486233106
 30
0.0
 40
0.8
100
AcDbArc
 50
0.0
 51
90.00000000000204
  0
ARC
  5
3BF9
330
1A
100
AcDbEntity
  8
SEIHIN
100
AcDbCircle
 10
227.6334919174149
 20
219.3533486233106
 30
0.0
 40
0.8
100
AcDbArc
 50
0.0
 51
90.00000000000204
  0
ARC
  5
3BFA
330
1A
100
AcDbEntity
  8
SEIHIN
100
AcDbCircle
 10
227.6334919174149
 20
241.9533486233106
 30
0.0
 40
0.8
100
AcDbArc
 50
269.9999999999979
 51
0.0
  0
ARC
  5
3BFB
330
1A
100
AcDbEntity
  8
SEIHIN
100
AcDbCircle
 10
225.6334919174149
 20
241.9533486233106
 30
0.0
 40
0.8
100
AcDbArc
 50
269.9999999999979
 51
0.0
  0
ARC
  5
3BFC
330
1A
100
AcDbEntity
  8
SEIHIN
100
AcDbCircle
 10
232.6897887221501
 20
241.9533486233106
 30
0.0
 40
0.8
100
AcDbArc
 50
269.9999999999979
 51
0.0
  0
ARC
  5
3BFD
330
1A
100
AcDbEntity
  8
SEIHIN
100
AcDbCircle
 10
234.6897887221501
 20
241.9533486233106
 30
0.0
 40
0.8
100
AcDbArc
 50
269.9999999999979
 51
0.0
  0
DIMENSION
  5
3C2E
330
1A
100
AcDbEntity
  8
SUNPOU
100
AcDbDimension
  2
*D8
 10
238.4672465379301
 20
181.5827834252562
 30
0.0
 11
148.966737299458
 21
184.0827834252562
 31
0.0
 70
    32
  3
STANDARD
100
AcDbAlignedDimension
 13
59.46622806098599
 23
84.19497646169711
 33
0.0
 14
238.4672465379301
 24
105.2249798616971
 34
0.0
100
AcDbRotatedDimension
1001
ACAD
1000
DSTYLE
1002
{
1070
    41
1040
3.0
1070
    42
1040
3.0
1070
    43
1040
7.0
1070
    44
1040
1.5
1070
    73
1070
     0
1070
    74
1070
     0
1070
    77
1070
     3
1070
   140
1040
3.0
1070
   141
1040
3.0
1070
   147
1040
1.0
1070
   172
1070
     1
1070
   173
1070
     1
1070
   176
1070
   256
1070
   177
1070
   256
1070
   178
1070
   256
1070
   271
1070
     0
1070
   272
1070
     0
1070
   341
1005
B2
1070
     6
1000
OPEN
1070
     7
1000
OPEN
1002
}
  0
DIMENSION
  5
3C48
330
1A
100
AcDbEntity
  8
SUNPOU
100
AcDbDimension
  2
*D9
 10
260.6887272655095
 20
119.4374480261543
 30
0.0
 11
256.5107048766536
 21
136.6142966820405
 31
0.0
 70
    33
  3
STANDARD
100
AcDbAlignedDimension
 13
224.462419560986
 23
142.6432711616971
 33
0.0
 14
237.460861060986
 24
110.1464940616971
 34
0.0
1001
ACAD
1000
DSTYLE
1002
{
1070
    41
1040
3.0
1070
    42
1040
3.0
1070
    43
1040
7.0
1070
    44
1040
1.5
1070
    73
1070
     0
1070
    74
1070
     0
1070
    77
1070
     3
1070
   140
1040
3.0
1070
   141
1040
3.0
1070
   147
1040
1.0
1070
   172
1070
     1
1070
   173
1070
     1
1070
   176
1070
   256
1070
   177
1070
   256
1070
   178
1070
   256
1070
   271
1070
     0
1070
   272
1070
     0
1070
   341
1005
B2
1070
     6
1000
OPEN
1070
     7
1000
OPEN
1002
}
  0
DIMENSION
  5
3C55
330
1A
100
AcDbEntity
  8
SUNPOU
100
AcDbDimension
  2
*D10
 10
260.4036180981831
 20
199.6533486233106
 30
0.0
 11
257.9036180981831
 21
230.6533486233106
 31
0.0
 70
    32
  3
STANDARD
100
AcDbAlignedDimension
 13
236.3467089143973
 23
261.6533486233106
 33
0.0
 14
236.3467089143973
 24
199.6533486233106
 34
0.0
 50
90.0
100
AcDbRotatedDimension
1001
ACAD
1000
DSTYLE
1002
{
1070
    41
1040
3.0
1070
    42
1040
3.0
1070
    43
1040
7.0
1070
    44
1040
1.5
1070
    73
1070
     0
1070
    74
1070
     0
1070
    77
1070
     3
1070
   140
1040
3.0
1070
   141
1040
3.0
1070
   147
1040
1.0
1070
   172
1070
     1
1070
   173
1070
     1
1070
   176
1070
   256
1070
   177
1070
   256
1070
   178
1070
   256
1070
   271
1070
     0
1070
   272
1070
     0
1070
   341
1005
B2
1070
     6
1000
OPEN
1070
     7
1000
OPEN
1002
}
  0
DIMENSION
  5
3C62
330
1A
100
AcDbEntity
  8
SUNPOU
100
AcDbDimension
  2
*D11
 10
238.4672465379301
 20
172.4140085348676
 30
0.0
 11
175.2167372994581
 21
174.9140085348676
 31
0.0
 70
    32
  3
STANDARD
100
AcDbAlignedDimension
 13
111.9662280609859
 23
85.49497646169713
 33
0.0
 14
238.4672465379301
 24
105.2249798616971
 34
0.0
100
AcDbRotatedDimension
1001
ACAD
1000
DSTYLE
1002
{
1070
    41
1040
3.0
1070
    42
1040
3.0
1070
    43
1040
7.0
1070
    44
1040
1.5
1070
    73
1070
     0
1070
    74
1070
     0
1070
    77
1070
     3
1070
   140
1040
3.0
1070
   141
1040
3.0
1070
   147
1040
1.0
1070
   172
1070
     1
1070
   173
1070
     1
1070
   176
1070
   256
1070
   177
1070
   256
1070
   178
1070
   256
1070
   271
1070
     0
1070
   272
1070
     0
1070
   341
1005
B2
1070
     6
1000
OPEN
1070
     7
1000
OPEN
1002
}
  0
LINE
  5
3DEF
330
1A
100
AcDbEntity
  8
SEIHIN
100
AcDbLine
 10
151.7059566451811
 20
100.7068479175871
 30
0.0
 11
231.1004592609859
 21
105.1271456616971
 31
0.0
  0
LINE
  5
3DF0
330
1A
100
AcDbEntity
  8
SEIHIN
100
AcDbLine
 10
151.729274236803
 20
99.70711985047785
 30
0.0
 11
233.0195825627721
 21
104.2263503276154
 31
0.0
  0
LINE
  5
3DF1
330
1A
100
AcDbEntity
  8
SEIHIN
100
AcDbLine
 10
153.3385366115179
 20
95.28760436757417
 30
0.0
 11
233.2550943618187
 21
99.73251744580919
 31
0.0
  0
DIMENSION
  5
3DF2
330
1A
100
AcDbEntity
  8
SUNPOU
100
AcDbDimension
  2
*D12
 10
32.6354152926483
 20
142.6432711616972
 30
0.0
 11
30.13541529264828
 21
113.5338502235834
 31
0.0
 70
    32
  3
STANDARD
100
AcDbAlignedDimension
 13
59.46622806098599
 23
84.42442928546972
 33
0.0
 14
224.462419560986
 24
142.6432711616971
 34
0.0
 50
90.0
100
AcDbRotatedDimension
1001
ACAD
1000
DSTYLE
1002
{
1070
    41
1040
3.0
1070
    42
1040
3.0
1070
    43
1040
7.0
1070
    44
1040
1.5
1070
    73
1070
     0
1070
    74
1070
     0
1070
    77
1070
     3
1070
   140
1040
3.0
1070
   141
1040
3.0
1070
   147
1040
1.0
1070
   172
1070
     1
1070
   173
1070
     1
1070
   176
1070
   256
1070
   177
1070
   256
1070
   178
1070
   256
1070
   271
1070
     0
1070
   272
1070
     0
1070
   341
1005
B2
1070
     6
1000
OPEN
1070
     7
1000
OPEN
1002
}
  0
LWPOLYLINE
  5
3FD3
330
1A
100
AcDbEntity
  8
ZUWAKU
100
AcDbPolyline
 90
        4
 70
     1
 43
0.0
 10
0.4000000586257784
 20
275.4000001587328
 10
0.4000000586257784
 20
0.4000001587327802
 10
398.4000000586257
 20
0.4000001587327802
 10
398.4000000586257
 20
275.4000001587328
  0
LWPOLYLINE
  5
3FD4
330
1A
100
AcDbEntity
  8
ZUWAKU
100
AcDbPolyline
 90
        4
 70
     1
 43
0.0
 10
0.2000000586257897
 20
275.6000001587327
 10
0.2000000586257897
 20
0.2000001587327915
 10
398.6000000586258
 20
0.20000015873278
 10
398.6000000586258
 20
275.6000001587327
  0
LWPOLYLINE
  5
3FD5
330
1A
100
AcDbEntity
  8
ZUWAKU
100
AcDbPolyline
 90
        4
 70
     1
 43
0.0
 10
0.0000000586258011
 20
275.8000001587327
 10
0.0000000586258011
 20
0.0000001587327461
 10
398.8000000586258
 20
0.0000001587327798
 10
398.8000000586258
 20
275.8000001587328
  0
LWPOLYLINE
  5
3FD6
330
1A
100
AcDbEntity
  8
ZUWAKU
100
AcDbPolyline
 90
        4
 70
     1
 43
0.0
 10
0.3000000586257556
 20
275.5000001587327
 10
0.3000000586257556
 20
0.3000001587327574
 10
398.5000000586259
 20
0.3000001587327805
 10
398.5000000586257
 20
275.5000001587327
  0
LWPOLYLINE
  5
3FD7
330
1A
100
AcDbEntity
  8
ZUWAKU
100
AcDbPolyline
 90
        4
 70
     1
 43
0.0
 10
0.100000058625767
 20
275.7000001587328
 10
0.100000058625767
 20
0.1000001587327688
 10
398.7000000586257
 20
0.1000001587327803
 10
398.7000000586258
 20
275.7000001587328
  0
LINE
  5
3FD8
330
1A
100
AcDbEntity
  8
ZUWAKU
100
AcDbLine
 10
0.0000000586258011
 20
15.00000015873274
 30
0.0
 11
398.7000000586257
 21
15.00000015873274
 31
0.0
  0
LINE
  5
3FD9
330
1A
100
AcDbEntity
  8
ZUWAKU
100
AcDbLine
 10
0.0000000586258011
 20
15.10000015873274
 30
0.0
 11
398.7000000586257
 21
15.10000015873274
 31
0.0
  0
LINE
  5
3FDA
330
1A
100
AcDbEntity
  8
ZUWAKU
100
AcDbLine
 10
0.0000000586258011
 20
15.20000015873274
 30
0.0
 11
398.7000000586257
 21
15.20000015873274
 31
0.0
  0
LINE
  5
3FDB
330
1A
100
AcDbEntity
  8
ZUWAKU
100
AcDbLine
 10
0.0000000586258011
 20
15.30000015873275
 30
0.0
 11
398.7000000586257
 21
15.30000015873275
 31
0.0
  0
LINE
  5
3FDC
330
1A
100
AcDbEntity
  8
ZUWAKU
100
AcDbLine
 10
0.0000000586258011
 20
15.40000015873275
 30
0.0
 11
398.7000000586257
 21
15.40000015873275
 31
0.0
  0
LINE
  5
3FDD
330
1A
100
AcDbEntity
  8
ZUWAKU
100
AcDbLine
 10
104.3233007036598
 20
7.700000158732763
 30
0.0
 11
223.7121820441215
 21
7.700000158732763
 31
0.0
  0
LINE
  5
3FDE
330
1A
100
AcDbEntity
  8
ZUWAKU
100
AcDbLine
 10
104.3233007036598
 20
7.800000158732762
 30
0.0
 11
223.7121820441215
 21
7.800000158732766
 31
0.0
  0
LINE
  5
3FDF
330
1A
100
AcDbEntity
  8
ZUWAKU
100
AcDbLine
 10
104.3233007036598
 20
7.600000158732765
 30
0.0
 11
223.7121820441215
 21
7.600000158732761
 31
0.0
  0
TEXT
  5
3FE0
330
1A
100
AcDbEntity
  8
MOJI
100
AcDbText
 10
119.9136013990513
 20
9.002460687436439
 30
0.0
 40
2.799999999999999
  1
亜鉛メッキ金具正面打（吊）ストロング高強度金具（釣針型）
 41
0.9
  7
ｽﾀｲﾙ1
100
AcDbText
  0
TEXT
  5
3FE1
330
1A
100
AcDbEntity
  8
MOJI
100
AcDbText
 10
46.47889485271036
 20
6.370589223870126
 30
0.0
 40
3.0
  1
新・丸トップＲＶ１０５
 41
0.9
  7
ｽﾀｲﾙ1
100
AcDbText
  0
CIRCLE
  5
3FE2
330
1A
100
AcDbEntity
  8
ZUWAKU
100
AcDbCircle
 10
12.99610613601635
 20
7.600000158732747
 30
0.0
 40
0.875
  0
LINE
  5
3FE3
330
1A
100
AcDbEntity
  8
ZUWAKU
100
AcDbLine
 10
13.43360613601635
 20
3.575000158732748
 30
0.0
 11
12.47110613601637
 21
3.575000158732748
 31
0.0
  0
LINE
  5
3FE4
330
1A
100
AcDbEntity
  8
ZUWAKU
100
AcDbLine
 10
12.47110613601637
 20
4.975000158732747
 30
0.0
 11
13.43360613601635
 21
4.975000158732747
 31
0.0
  0
LINE
  5
3FE5
330
1A
100
AcDbEntity
  8
ZUWAKU
100
AcDbLine
 10
13.43360613601635
 20
10.22500015873274
 30
0.0
 11
12.47110613601637
 21
10.22500015873274
 31
0.0
  0
LINE
  5
3FE6
330
1A
100
AcDbEntity
  8
ZUWAKU
100
AcDbLine
 10
12.47110613601637
 20
11.62500015873272
 30
0.0
 11
13.43360613601635
 21
11.62500015873275
 31
0.0
  0
HATCH
  5
3FE7
330
1A
100
AcDbEntity
  8
ZUWAKU
100
AcDbHatch
 10
0.0
 20
0.0
 30
0.0
210
0.0
220
0.0
230
1.0
  2
ANSI37
 70
     0
 71
     0
 91
        8
 92
        7
 72
     1
 73
     1
 93
       24
 10
7.251131389185729
 20
8.822424399224537
 42
-0.1989123673796348
 10
7.046106136016362
 20
9.317399146055063
 42
0.0
 10
7.046106136016362
 20
9.962500158732751
 42
-0.4142135623730912
 10
7.308606136016351
 20
10.22500015873274
 42
0.0
 10
8.796106136016305
 20
10.22500015873274
 42
0.4142135623731546
 10
9.058606136016351
 20
10.48750015873274
 42
0.0
 10
9.058606136016351
 20
11.36250015873275
 42
0.4142135623731586
 10
8.796106136016305
 20
11.62500015873275
 42
0.0
 10
7.046106136016362
 20
11.62500015873275
 42
0.4142135623730928
 10
5.646106136016385
 20
10.22500015873276
 42
0.0
 10
5.646106136016385
 20
9.317399146055127
 42
0.1989123673796619
 10
6.2611818955246
 20
7.832474905563323
 42
0.0
 10
7.716080882846938
 20
6.377575918240994
 42
-0.1989123673796613
 10
7.921106136016362
 20
5.882601171410401
 42
0.0
 10
7.921106136016362
 20
5.237500158732743
 42
-0.4142135623730911
 10
7.658606136016373
 20
4.975000158732747
 42
0.0
 10
6.171106136016419
 20
4.975000158732747
 42
0.4142135623731526
 10
5.908606136016373
 20
4.712500158732753
 42
0.0
 10
5.908606136016373
 20
3.837500158732742
 42
0.4142135623731526
 10
6.171106136016419
 20
3.575000158732748
 42
0.0
 10
7.921106136016362
 20
3.575000158732748
 42
0.4142135623731044
 10
9.321106136016396
 20
4.975000158732736
 42
0.0
 10
9.321106136016396
 20
5.882601171410373
 42
0.1989123673796604
 10
8.706030376508124
 20
7.367525411902143
 42
0.0
 97
        0
 92
        7
 72
     1
 73
     1
 93
       16
 10
11.77110613601638
 20
9.525000158732751
 42
-0.4142135623730935
 10
12.47110613601637
 20
10.22500015873274
 42
0.0
 10
13.43360613601635
 20
10.22500015873274
 42
0.4142135623731546
 10
13.69610613601639
 20
10.48750015873274
 42
0.0
 10
13.69610613601639
 20
11.36250015873275
 42
0.4142135623730951
 10
13.4336061360164
 20
11.62500015873275
 42
0.0
 10
12.47110613601631
 20
11.62500015873272
 42
0.4142135623730892
 10
10.37110613601635
 20
9.525000158732716
 42
0.0
 10
10.37110613601635
 20
5.67500015873276
 42
0.4142135623730969
 10
12.47110613601637
 20
3.575000158732748
 42
0.0
 10
13.43360613601635
 20
3.575000158732748
 42
0.4142135623731526
 10
13.69610613601639
 20
3.837500158732742
 42
0.0
 10
13.69610613601639
 20
4.712500158732753
 42
0.4142135623730891
 10
13.4336061360164
 20
4.975000158732747
 42
0.0
 10
12.47110613601637
 20
4.975000158732747
 42
-0.4142135623730928
 10
11.77110613601638
 20
5.675000158732741
 42
0.0
 97
        0
 92
        7
 72
     1
 73
     1
 93
        2
 10
12.12110613601635
 20
7.600000158732747
 42
1.0
 10
13.87110613601635
 20
7.600000158732747
 42
1.0
 97
        0
 92
        7
 72
     1
 73
     1
 93
       26
 10
18.65742937710535
 20
9.602523755514461
 42
0.0
 10
19.18824919367426
 20
11.28345317464925
 42
0.5069206636600134
 10
18.93793374407658
 20
11.62500015873275
 42
0.0
 10
18.08848905427197
 20
11.62500015873275
 42
0.3272098845218764
 10
17.83817360467429
 20
11.44154714281623
 42
0.0
 10
16.9040386673584
 20
8.483453174649287
 42
-0.3272098845219541
 10
16.65372321776067
 20
8.300000158732746
 42
0.0
 10
16.58360613601644
 20
8.300000158732746
 42
-0.4142135623731526
 10
16.32110613601639
 20
8.56250015873274
 42
0.0
 10
16.32110613601639
 20
11.36250015873275
 42
0.4142135623730951
 10
16.0586061360164
 20
11.62500015873275
 42
0.0
 10
15.18360613601635
 20
11.62500015873275
 42
0.4142135623730871
 10
14.92110613601636
 20
11.36250015873275
 42
0.0
 10
14.92110613601636
 20
3.837500158732742
 42
0.4142135623730891
 10
15.18360613601635
 20
3.575000158732748
 42
0.0
 10
16.05860613601635
 20
3.575000158732748
 42
0.4142135623731526
 10
16.32110613601639
 20
3.837500158732742
 42
0.0
 10
16.32110613601639
 20
6.637500158732754
 42
-0.4142135623731526
 10
16.58360613601644
 20
6.900000158732748
 42
0.0
 10
16.65372321776072
 20
6.900000158732748
 42
-0.3272098845218915
 10
16.9040386673584
 20
6.71654714281621
 42
0.0
 10
17.83817360467429
 20
3.758453174649284
 42
0.3272098845218902
 10
18.08848905427197
 20
3.575000158732748
 42
0.0
 10
18.93793374407658
 20
3.575000158732748
 42
0.5069206636600335
 10
19.18824919367426
 20
3.916547142816252
 42
0.0
 10
18.02505350443743
 20
7.600000158732816
 42
0.0
 97
        0
 92
        7
 72
     1
 73
     1
 93
        8
 10
21.74610613601635
 20
11.36250015873275
 42
0.4142135623731546
 10
21.4836061360163
 20
11.62500015873275
 42
0.0
 10
20.60860613601641
 20
11.62500015873275
 42
0.4142135623731507
 10
20.34610613601637
 20
11.36250015873275
 42
0.0
 10
20.34610613601637
 20
3.837500158732742
 42
0.4142135623731526
 10
20.60860613601641
 20
3.575000158732748
 42
0.0
 10
21.4836061360163
 20
3.575000158732748
 42
0.4142135623731526
 10
21.74610613601635
 20
3.837500158732742
 42
0.0
 97
        0
 92
        7
 72
     1
 73
     1
 93
       24
 10
24.19610613601639
 20
9.962500158732751
 42
-0.4142135623731546
 10
24.45860613601644
 20
10.22500015873274
 42
0.0
 10
25.9461061360164
 20
10.22500015873274
 42
0.4142135623730911
 10
26.20860613601638
 20
10.48750015873274
 42
0.0
 10
26.20860613601638
 20
11.36250015873275
 42
0.4142135623730952
 10
25.9461061360164
 20
11.62500015873275
 42
0.0
 10
24.19610613601639
 20
11.62500015873275
 42
0.4142135623731048
 10
22.79610613601636
 20
10.22500015873276
 42
0.0
 10
22.79610613601636
 20
9.317399146055127
 42
0.1989123673796613
 10
23.41118189552463
 20
7.832474905563351
 42
0.0
 10
24.86608088284697
 20
6.377575918241017
 42
-0.1989123673796402
 10
25.07110613601639
 20
5.882601171410481
 42
0.0
 10
25.07110613601639
 20
5.237500158732743
 42
-0.4142135623730911
 10
24.8086061360164
 20
4.975000158732747
 42
0.0
 10
23.32110613601639
 20
4.975000158732747
 42
0.4142135623731526
 10
23.05860613601635
 20
4.712500158732753
 42
0.0
 10
23.05860613601635
 20
3.837500158732742
 42
0.4142135623730891
 10
23.32110613601634
 20
3.575000158732748
 42
0.0
 10
25.07110613601639
 20
3.575000158732748
 42
0.4142135623730925
 10
26.47110613601637
 20
4.975000158732736
 42
0.0
 10
26.47110613601637
 20
5.882601171410373
 42
0.1989123673796675
 10
25.8560303765081
 20
7.3675254119022
 42
0.0
 10
24.40113138918582
 20
8.822424399224457
 42
-0.1989123673796652
 10
24.19610613601639
 20
9.317399146055041
 42
0.0
 97
        0
 92
        7
 72
     1
 73
     1
 93
       16
 10
28.92110613601636
 20
11.36250015873274
 42
0.414213562373103
 10
28.65860613601637
 20
11.62500015873275
 42
0.0
 10
27.78360613601637
 20
11.62500015873275
 42
0.4142135623730871
 10
27.52110613601638
 20
11.36250015873275
 42
0.0
 10
27.52110613601638
 20
4.975000158732736
 42
0.4142135623730926
 10
28.92110613601636
 20
3.575000158732748
 42
0.0
 10
30.67110613601636
 20
3.575000158732748
 42
0.4142135623731044
 10
32.07110613601639
 20
4.975000158732736
 42
0.0
 10
32.07110613601639
 20
11.36250015873275
 42
0.4142135623730951
 10
31.80860613601641
 20
11.62500015873275
 42
0.0
 10
30.93360613601635
 20
11.62500015873275
 42
0.4142135623730871
 10
30.67110613601636
 20
11.36250015873275
 42
0.0
 10
30.67110613601636
 20
5.500000158732735
 42
-0.414213562373088
 10
30.14610613601638
 20
4.975000158732747
 42
0.0
 10
29.44610613601639
 20
4.975000158732747
 42
-0.4142135623731197
 10
28.92110613601636
 20
5.500000158732735
 42
0.0
 97
        0
 92
        7
 72
     1
 73
     1
 93
        8
 10
34.52110613601638
 20
11.36250015873275
 42
0.4142135623730871
 10
34.25860613601639
 20
11.62500015873275
 42
0.0
 10
33.38360613601639
 20
11.62500015873275
 42
0.4142135623731507
 10
33.12110613601635
 20
11.36250015873275
 42
0.0
 10
33.12110613601635
 20
3.837500158732742
 42
0.4142135623730891
 10
33.38360613601634
 20
3.575000158732748
 42
0.0
 10
34.25860613601639
 20
3.575000158732748
 42
0.4142135623730891
 10
34.52110613601638
 20
3.837500158732742
 42
0.0
 97
        0
 75
     0
 76
     1
 52
0.0
 41
0.1
 77
     0
 78
     2
 53
45.0
 43
-450.4711521087137
 44
-6.599999841267219
 45
-0.2245064030267288
 46
0.2245064030267288
 79
     0
 53
135.0
 43
-450.4711521087137
 44
-6.599999841267219
 45
-0.2245064030267288
 46
-0.2245064030267288
 79
     0
 47
0.057451373970553
 98
        8
 10
8.039927540137455
 20
7.583586981675523
 10
11.20225756184538
 20
9.422031249958251
 10
12.58218400145563
 20
7.755940981768105
 10
15.45703004944437
 20
8.100648981953497
 10
20.91923606810417
 20
8.330455115724305
 10
23.44910050619057
 20
9.709288316936351
 10
28.27884304482597
 20
9.364579116280253
 10
33.91353986843717
 20
9.594385250051061
  0
ARC
  5
3FE8
330
1A
100
AcDbEntity
  8
ZUWAKU
100
AcDbCircle
 10
7.746106136016351
 20
9.317399146055098
 30
0.0
 40
2.099999999999999
100
AcDbArc
 50
180.0
 51
225.0
  0
LINE
  5
3FE9
330
1A
100
AcDbEntity
  8
ZUWAKU
100
AcDbLine
 10
10.37110613601635
 20
5.67500015873275
 30
0.0
 11
10.37110613601635
 21
9.525000158732726
 31
0.0
  0
LINE
  5
3FEA
330
1A
100
AcDbEntity
  8
ZUWAKU
100
AcDbLine
 10
11.77110613601638
 20
9.525000158732748
 30
0.0
 11
11.77110613601638
 21
5.67500015873275
 31
0.0
  0
ARC
  5
3FEB
330
1A
100
AcDbEntity
  8
ZUWAKU
100
AcDbCircle
 10
7.746106136016351
 20
9.317399146055098
 30
0.0
 40
0.7
100
AcDbArc
 50
180.0000000000016
 51
224.9999999999988
  0
ARC
  5
3FEC
330
1A
100
AcDbEntity
  8
ZUWAKU
100
AcDbCircle
 10
12.47110613601637
 20
5.67500015873275
 30
0.0
 40
2.099999999999999
100
AcDbArc
 50
180.0
 51
270.0
  0
ARC
  5
3FED
330
1A
100
AcDbEntity
  8
ZUWAKU
100
AcDbCircle
 10
7.921106136016362
 20
4.975000158732747
 30
0.0
 40
1.399999999999999
100
AcDbArc
 50
270.0
 51
0.0
  0
ARC
  5
3FEE
330
1A
100
AcDbEntity
  8
ZUWAKU
100
AcDbCircle
 10
7.221106136016373
 20
5.882601171410399
 30
0.0
 40
2.099999999999999
100
AcDbArc
 50
0.0
 51
45.0
  0
LINE
  5
3FEF
330
1A
100
AcDbEntity
  8
ZUWAKU
100
AcDbLine
 10
6.2611818955246
 20
7.832474905563337
 30
0.0
 11
7.716080882846938
 21
6.377575918241007
 31
0.0
  0
LINE
  5
3FF0
330
1A
100
AcDbEntity
  8
ZUWAKU
100
AcDbLine
 10
6.171106136016362
 20
4.975000158732747
 30
0.0
 11
7.658606136016373
 21
4.975000158732747
 31
0.0
  0
LINE
  5
3FF1
330
1A
100
AcDbEntity
  8
ZUWAKU
100
AcDbLine
 10
6.171106136016362
 20
3.575000158732748
 30
0.0
 11
7.921106136016362
 21
3.575000158732748
 31
0.0
  0
ARC
  5
3FF2
330
1A
100
AcDbEntity
  8
ZUWAKU
100
AcDbCircle
 10
6.171106136016362
 20
4.712500158732748
 30
0.0
 40
0.2625
100
AcDbArc
 50
90.0
 51
180.0
  0
ARC
  5
3FF3
330
1A
100
AcDbEntity
  8
ZUWAKU
100
AcDbCircle
 10
6.171106136016362
 20
3.837500158732748
 30
0.0
 40
0.2625
100
AcDbArc
 50
180.0
 51
270.0
  0
LINE
  5
3FF4
330
1A
100
AcDbEntity
  8
ZUWAKU
100
AcDbLine
 10
5.908606136016373
 20
3.837500158732748
 30
0.0
 11
5.908606136016373
 21
4.712500158732748
 31
0.0
  0
ARC
  5
3FF5
330
1A
100
AcDbEntity
  8
ZUWAKU
100
AcDbCircle
 10
7.221106136016373
 20
5.882601171410421
 30
0.0
 40
0.7
100
AcDbArc
 50
0.0
 51
45.0
  0
ARC
  5
3FF6
330
1A
100
AcDbEntity
  8
ZUWAKU
100
AcDbCircle
 10
7.658606136016373
 20
5.23750015873275
 30
0.0
 40
0.2625
100
AcDbArc
 50
270.0
 51
0.0
  0
LINE
  5
3FF7
330
1A
100
AcDbEntity
  8
ZUWAKU
100
AcDbLine
 10
7.921106136016362
 20
5.23750015873275
 30
0.0
 11
7.921106136016362
 21
5.882601171410421
 31
0.0
  0
LINE
  5
3FF8
330
1A
100
AcDbEntity
  8
ZUWAKU
100
AcDbLine
 10
8.706030376508124
 20
7.36752541190216
 30
0.0
 11
7.251131389185786
 21
8.822424399224498
 31
0.0
  0
ARC
  5
3FF9
330
1A
100
AcDbEntity
  8
ZUWAKU
100
AcDbCircle
 10
12.47110613601637
 20
5.67500015873275
 30
0.0
 40
0.7
100
AcDbArc
 50
180.0
 51
270.0
  0
LINE
  5
3FFA
330
1A
100
AcDbEntity
  8
ZUWAKU
100
AcDbLine
 10
9.321106136016396
 20
4.975000158732747
 30
0.0
 11
9.321106136016396
 21
5.882601171410421
 31
0.0
  0
ARC
  5
3FFB
330
1A
100
AcDbEntity
  8
ZUWAKU
100
AcDbCircle
 10
8.796106136016362
 20
10.48750015873274
 30
0.0
 40
0.2625
100
AcDbArc
 50
270.0
 51
0.0
  0
ARC
  5
3FFC
330
1A
100
AcDbEntity
  8
ZUWAKU
100
AcDbCircle
 10
8.796106136016362
 20
11.36250015873274
 30
0.0
 40
0.2625
100
AcDbArc
 50
0.0
 51
90.0
  0
ARC
  5
3FFD
330
1A
100
AcDbEntity
  8
ZUWAKU
100
AcDbCircle
 10
7.046106136016362
 20
10.22500015873274
 30
0.0
 40
1.399999999999999
100
AcDbArc
 50
90.0
 51
180.0
  0
LINE
  5
3FFE
330
1A
100
AcDbEntity
  8
ZUWAKU
100
AcDbLine
 10
5.646106136016385
 20
10.22500015873274
 30
0.0
 11
5.646106136016385
 21
9.317399146055077
 31
0.0
  0
LINE
  5
3FFF
330
1A
100
AcDbEntity
  8
ZUWAKU
100
AcDbLine
 10
8.796106136016362
 20
10.22500015873274
 30
0.0
 11
7.308606136016351
 21
10.22500015873274
 31
0.0
  0
LINE
  5
4000
330
1A
100
AcDbEntity
  8
ZUWAKU
100
AcDbLine
 10
7.046106136016362
 20
9.962500158732748
 30
0.0
 11
7.046106136016362
 21
9.317399146055077
 31
0.0
  0
ARC
  5
4001
330
1A
100
AcDbEntity
  8
ZUWAKU
100
AcDbCircle
 10
7.308606136016351
 20
9.962500158732748
 30
0.0
 40
0.2625
100
AcDbArc
 50
90.0
 51
180.0
  0
LINE
  5
4002
330
1A
100
AcDbEntity
  8
ZUWAKU
100
AcDbLine
 10
7.046106136016362
 20
11.62500015873275
 30
0.0
 11
8.796106136016362
 21
11.62500015873275
 31
0.0
  0
ARC
  5
4003
330
1A
100
AcDbEntity
  8
ZUWAKU
100
AcDbCircle
 10
12.47110613601637
 20
9.525000158732726
 30
0.0
 40
2.099999999999999
100
AcDbArc
 50
90.0
 51
180.0
  0
ARC
  5
4004
330
1A
100
AcDbEntity
  8
ZUWAKU
100
AcDbCircle
 10
12.47110613601637
 20
9.525000158732748
 30
0.0
 40
0.7
100
AcDbArc
 50
90.0
 51
180.0
  0
LINE
  5
4005
330
1A
100
AcDbEntity
  8
ZUWAKU
100
AcDbLine
 10
9.058606136016351
 20
11.36250015873274
 30
0.0
 11
9.058606136016351
 21
10.48750015873274
 31
0.0
  0
LINE
  5
4006
330
1A
100
AcDbEntity
  8
ZUWAKU
100
AcDbLine
 10
17.83817360467429
 20
11.44154714281623
 30
0.0
 11
16.9040386673584
 21
8.483453174649262
 31
0.0
  0
LINE
  5
4007
330
1A
100
AcDbEntity
  8
ZUWAKU
100
AcDbLine
 10
14.92110613601636
 20
11.36250015873274
 30
0.0
 11
14.92110613601636
 21
3.837500158732748
 31
0.0
  0
LINE
  5
4008
330
1A
100
AcDbEntity
  8
ZUWAKU
100
AcDbLine
 10
16.32110613601639
 20
8.562500158732749
 30
0.0
 11
16.32110613601639
 21
11.36250015873274
 31
0.0
  0
LINE
  5
4009
330
1A
100
AcDbEntity
  8
ZUWAKU
100
AcDbLine
 10
28.92110613601636
 20
5.500000158732746
 30
0.0
 11
28.92110613601636
 21
11.36250015873274
 31
0.0
  0
LINE
  5
400A
330
1A
100
AcDbEntity
  8
ZUWAKU
100
AcDbLine
 10
27.52110613601638
 20
11.36250015873274
 30
0.0
 11
27.52110613601638
 21
4.975000158732747
 31
0.0
  0
LINE
  5
400B
330
1A
100
AcDbEntity
  8
ZUWAKU
100
AcDbLine
 10
21.74610613601635
 20
3.837500158732748
 30
0.0
 11
21.74610613601635
 21
11.36250015873274
 31
0.0
  0
LINE
  5
400C
330
1A
100
AcDbEntity
  8
ZUWAKU
100
AcDbLine
 10
20.34610613601637
 20
11.36250015873274
 30
0.0
 11
20.34610613601637
 21
3.837500158732748
 31
0.0
  0
LINE
  5
400D
330
1A
100
AcDbEntity
  8
ZUWAKU
100
AcDbLine
 10
18.65742937710535
 20
9.602523755514461
 30
0.0
 11
18.02505350443743
 21
7.600000158732758
 31
0.0
  0
ARC
  5
400E
330
1A
100
AcDbEntity
  8
ZUWAKU
100
AcDbCircle
 10
24.89610613601638
 20
9.317399146055098
 30
0.0
 40
2.099999999999999
100
AcDbArc
 50
180.0
 51
225.0
  0
ARC
  5
400F
330
1A
100
AcDbEntity
  8
ZUWAKU
100
AcDbCircle
 10
24.89610613601638
 20
9.317399146055098
 30
0.0
 40
0.7
100
AcDbArc
 50
180.0000000000016
 51
224.9999999999988
  0
LINE
  5
4010
330
1A
100
AcDbEntity
  8
ZUWAKU
100
AcDbLine
 10
33.12110613601635
 20
11.36250015873274
 30
0.0
 11
33.12110613601635
 21
3.837500158732748
 31
0.0
  0
LINE
  5
4011
330
1A
100
AcDbEntity
  8
ZUWAKU
100
AcDbLine
 10
34.52110613601638
 20
3.837500158732748
 30
0.0
 11
34.52110613601638
 21
11.36250015873274
 31
0.0
  0
LINE
  5
4012
330
1A
100
AcDbEntity
  8
ZUWAKU
100
AcDbLine
 10
30.67110613601636
 20
11.36250015873274
 30
0.0
 11
30.67110613601636
 21
5.500000158732746
 31
0.0
  0
LINE
  5
4013
330
1A
100
AcDbEntity
  8
ZUWAKU
100
AcDbLine
 10
32.07110613601639
 20
4.975000158732747
 30
0.0
 11
32.07110613601639
 21
11.36250015873274
 31
0.0
  0
LINE
  5
4014
330
1A
100
AcDbEntity
  8
ZUWAKU
100
AcDbLine
 10
39.56331483261999
 20
15.00000015873274
 30
0.0
 11
39.56331483261999
 21
0.4000001587327802
 31
0.0
  0
LINE
  5
4015
330
1A
100
AcDbEntity
  8
ZUWAKU
100
AcDbLine
 10
39.76331483261992
 20
15.00000015873274
 30
0.0
 11
39.76331483262004
 21
0.4000001587327802
 31
0.0
  0
LINE
  5
4016
330
1A
100
AcDbEntity
  8
ZUWAKU
100
AcDbLine
 10
39.6633148326199
 20
15.00000015873274
 30
0.0
 11
39.66331483262001
 21
0.4000001587327802
 31
0.0
  0
LINE
  5
4017
330
1A
100
AcDbEntity
  8
ZUWAKU
100
AcDbLine
 10
28.92110613601636
 20
3.575000158732748
 30
0.0
 11
30.67110613601636
 21
3.575000158732748
 31
0.0
  0
LINE
  5
4018
330
1A
100
AcDbEntity
  8
ZUWAKU
100
AcDbLine
 10
30.14610613601638
 20
4.975000158732747
 30
0.0
 11
29.44610613601639
 21
4.975000158732747
 31
0.0
  0
LINE
  5
4019
330
1A
100
AcDbEntity
  8
ZUWAKU
100
AcDbLine
 10
20.60860613601636
 20
3.575000158732748
 30
0.0
 11
21.48360613601636
 21
3.575000158732748
 31
0.0
  0
LINE
  5
401A
330
1A
100
AcDbEntity
  8
ZUWAKU
100
AcDbLine
 10
17.83817360467429
 20
3.758453174649261
 30
0.0
 11
16.9040386673584
 21
6.716547142816231
 31
0.0
  0
ARC
  5
401B
330
1A
100
AcDbEntity
  8
ZUWAKU
100
AcDbCircle
 10
16.58360613601638
 20
6.637500158732748
 30
0.0
 40
0.2625
100
AcDbArc
 50
90.0
 51
180.0
  0
ARC
  5
401C
330
1A
100
AcDbEntity
  8
ZUWAKU
100
AcDbCircle
 10
16.65372321776072
 20
6.637500158732748
 30
0.0
 40
0.2625
100
AcDbArc
 50
17.52556837372303
 51
90.0
  0
ARC
  5
401D
330
1A
100
AcDbEntity
  8
ZUWAKU
100
AcDbCircle
 10
15.18360613601635
 20
3.837500158732748
 30
0.0
 40
0.2625
100
AcDbArc
 50
180.0
 51
270.0
  0
ARC
  5
401E
330
1A
100
AcDbEntity
  8
ZUWAKU
100
AcDbCircle
 10
13.43360613601635
 20
4.712500158732748
 30
0.0
 40
0.2625
100
AcDbArc
 50
0.0
 51
90.0
  0
ARC
  5
401F
330
1A
100
AcDbEntity
  8
ZUWAKU
100
AcDbCircle
 10
13.43360613601635
 20
3.837500158732748
 30
0.0
 40
0.2625
100
AcDbArc
 50
270.0
 51
0.0
  0
LINE
  5
4020
330
1A
100
AcDbEntity
  8
ZUWAKU
100
AcDbLine
 10
13.69610613601639
 20
4.712500158732748
 30
0.0
 11
13.69610613601639
 21
3.837500158732748
 31
0.0
  0
LINE
  5
4021
330
1A
100
AcDbEntity
  8
ZUWAKU
100
AcDbLine
 10
16.32110613601639
 20
3.837500158732748
 30
0.0
 11
16.32110613601639
 21
6.637500158732748
 31
0.0
  0
ARC
  5
4022
330
1A
100
AcDbEntity
  8
ZUWAKU
100
AcDbCircle
 10
16.05860613601635
 20
3.837500158732748
 30
0.0
 40
0.2625
100
AcDbArc
 50
270.0
 51
0.0
  0
LINE
  5
4023
330
1A
100
AcDbEntity
  8
ZUWAKU
100
AcDbLine
 10
15.18360613601635
 20
3.575000158732748
 30
0.0
 11
16.05860613601635
 21
3.575000158732748
 31
0.0
  0
ARC
  5
4024
330
1A
100
AcDbEntity
  8
ZUWAKU
100
AcDbCircle
 10
16.58360613601638
 20
8.562500158732749
 30
0.0
 40
0.2625
100
AcDbArc
 50
180.0
 51
270.0
  0
LINE
  5
4025
330
1A
100
AcDbEntity
  8
ZUWAKU
100
AcDbLine
 10
16.58360613601638
 20
6.900000158732748
 30
0.0
 11
16.65372321776072
 21
6.900000158732748
 31
0.0
  0
LINE
  5
4026
330
1A
100
AcDbEntity
  8
ZUWAKU
100
AcDbLine
 10
16.65372321776072
 20
8.300000158732746
 30
0.0
 11
16.58360613601638
 21
8.300000158732746
 31
0.0
  0
ARC
  5
4027
330
1A
100
AcDbEntity
  8
ZUWAKU
100
AcDbCircle
 10
16.65372321776072
 20
8.562500158732749
 30
0.0
 40
0.2625
100
AcDbArc
 50
270.0
 51
342.4744316262769
  0
ARC
  5
4028
330
1A
100
AcDbEntity
  8
ZUWAKU
100
AcDbCircle
 10
18.08848905427203
 20
3.837500158732748
 30
0.0
 40
0.2625
100
AcDbArc
 50
197.525568373723
 51
270.0
  0
LINE
  5
4029
330
1A
100
AcDbEntity
  8
ZUWAKU
100
AcDbLine
 10
19.18824919367426
 20
3.916547142816234
 30
0.0
 11
18.02505350443743
 21
7.600000158732758
 31
0.0
  0
ARC
  5
402A
330
1A
100
AcDbEntity
  8
ZUWAKU
100
AcDbCircle
 10
18.93793374407653
 20
3.837500158732748
 30
0.0
 40
0.2625
100
AcDbArc
 50
270.0
 51
17.52556837372303
  0
LINE
  5
402B
330
1A
100
AcDbEntity
  8
ZUWAKU
100
AcDbLine
 10
18.08848905427203
 20
3.575000158732748
 30
0.0
 11
18.93793374407653
 21
3.575000158732748
 31
0.0
  0
ARC
  5
402C
330
1A
100
AcDbEntity
  8
ZUWAKU
100
AcDbCircle
 10
20.60860613601636
 20
3.837500158732748
 30
0.0
 40
0.2625
100
AcDbArc
 50
180.0
 51
270.0
  0
ARC
  5
402D
330
1A
100
AcDbEntity
  8
ZUWAKU
100
AcDbCircle
 10
25.07110613601639
 20
4.975000158732747
 30
0.0
 40
1.399999999999999
100
AcDbArc
 50
270.0
 51
0.0
  0
ARC
  5
402E
330
1A
100
AcDbEntity
  8
ZUWAKU
100
AcDbCircle
 10
28.92110613601636
 20
4.975000158732747
 30
0.0
 40
1.399999999999999
100
AcDbArc
 50
180.0
 51
270.0
  0
LINE
  5
402F
330
1A
100
AcDbEntity
  8
ZUWAKU
100
AcDbLine
 10
25.85603037650816
 20
7.36752541190216
 30
0.0
 11
24.40113138918576
 21
8.822424399224498
 31
0.0
  0
LINE
  5
4030
330
1A
100
AcDbEntity
  8
ZUWAKU
100
AcDbLine
 10
23.41118189552463
 20
7.832474905563337
 30
0.0
 11
24.86608088284697
 21
6.377575918241007
 31
0.0
  0
LINE
  5
4031
330
1A
100
AcDbEntity
  8
ZUWAKU
100
AcDbLine
 10
23.32110613601639
 20
3.575000158732748
 30
0.0
 11
25.07110613601639
 21
3.575000158732748
 31
0.0
  0
LINE
  5
4032
330
1A
100
AcDbEntity
  8
ZUWAKU
100
AcDbLine
 10
23.32110613601639
 20
4.975000158732747
 30
0.0
 11
24.80860613601635
 21
4.975000158732747
 31
0.0
  0
ARC
  5
4033
330
1A
100
AcDbEntity
  8
ZUWAKU
100
AcDbCircle
 10
23.32110613601639
 20
4.712500158732748
 30
0.0
 40
0.2625
100
AcDbArc
 50
90.0
 51
180.0
  0
ARC
  5
4034
330
1A
100
AcDbEntity
  8
ZUWAKU
100
AcDbCircle
 10
21.48360613601636
 20
3.837500158732748
 30
0.0
 40
0.2625
100
AcDbArc
 50
270.0
 51
0.0
  0
ARC
  5
4035
330
1A
100
AcDbEntity
  8
ZUWAKU
100
AcDbCircle
 10
23.32110613601639
 20
3.837500158732748
 30
0.0
 40
0.2625
100
AcDbArc
 50
180.0
 51
270.0
  0
LINE
  5
4036
330
1A
100
AcDbEntity
  8
ZUWAKU
100
AcDbLine
 10
23.05860613601635
 20
3.837500158732748
 30
0.0
 11
23.05860613601635
 21
4.712500158732748
 31
0.0
  0
ARC
  5
4037
330
1A
100
AcDbEntity
  8
ZUWAKU
100
AcDbCircle
 10
24.80860613601635
 20
5.23750015873275
 30
0.0
 40
0.2625
100
AcDbArc
 50
270.0
 51
0.0
  0
ARC
  5
4038
330
1A
100
AcDbEntity
  8
ZUWAKU
100
AcDbCircle
 10
24.37110613601635
 20
5.882601171410421
 30
0.0
 40
0.7
100
AcDbArc
 50
0.0
 51
45.0
  0
LINE
  5
4039
330
1A
100
AcDbEntity
  8
ZUWAKU
100
AcDbLine
 10
25.07110613601639
 20
5.23750015873275
 30
0.0
 11
25.07110613601639
 21
5.882601171410421
 31
0.0
  0
ARC
  5
403A
330
1A
100
AcDbEntity
  8
ZUWAKU
100
AcDbCircle
 10
29.44610613601639
 20
5.500000158732746
 30
0.0
 40
0.525
100
AcDbArc
 50
180.0
 51
270.0
  0
ARC
  5
403B
330
1A
100
AcDbEntity
  8
ZUWAKU
100
AcDbCircle
 10
24.37110613601635
 20
5.882601171410399
 30
0.0
 40
2.099999999999999
100
AcDbArc
 50
0.0
 51
45.0
  0
LINE
  5
403C
330
1A
100
AcDbEntity
  8
ZUWAKU
100
AcDbLine
 10
26.47110613601637
 20
4.975000158732747
 30
0.0
 11
26.47110613601637
 21
5.882601171410421
 31
0.0
  0
ARC
  5
403D
330
1A
100
AcDbEntity
  8
ZUWAKU
100
AcDbCircle
 10
30.67110613601636
 20
4.975000158732747
 30
0.0
 40
1.399999999999999
100
AcDbArc
 50
270.0
 51
0.0
  0
LINE
  5
403E
330
1A
100
AcDbEntity
  8
ZUWAKU
100
AcDbLine
 10
33.38360613601639
 20
3.575000158732748
 30
0.0
 11
34.25860613601639
 21
3.575000158732748
 31
0.0
  0
ARC
  5
403F
330
1A
100
AcDbEntity
  8
ZUWAKU
100
AcDbCircle
 10
30.14610613601638
 20
5.500000158732746
 30
0.0
 40
0.525
100
AcDbArc
 50
270.0
 51
0.0
  0
ARC
  5
4040
330
1A
100
AcDbEntity
  8
ZUWAKU
100
AcDbCircle
 10
33.38360613601639
 20
3.837500158732748
 30
0.0
 40
0.2625
100
AcDbArc
 50
180.0
 51
270.0
  0
ARC
  5
4041
330
1A
100
AcDbEntity
  8
ZUWAKU
100
AcDbCircle
 10
34.25860613601639
 20
3.837500158732748
 30
0.0
 40
0.2625
100
AcDbArc
 50
270.0
 51
0.0
  0
LINE
  5
4042
330
1A
100
AcDbEntity
  8
ZUWAKU
100
AcDbLine
 10
21.48360613601636
 20
11.62500015873275
 30
0.0
 11
20.60860613601636
 21
11.62500015873275
 31
0.0
  0
LINE
  5
4043
330
1A
100
AcDbEntity
  8
ZUWAKU
100
AcDbLine
 10
13.69610613601639
 20
11.36250015873274
 30
0.0
 11
13.69610613601639
 21
10.48750015873274
 31
0.0
  0
ARC
  5
4044
330
1A
100
AcDbEntity
  8
ZUWAKU
100
AcDbCircle
 10
13.43360613601635
 20
10.48750015873274
 30
0.0
 40
0.2625
100
AcDbArc
 50
270.0
 51
0.0
  0
ARC
  5
4045
330
1A
100
AcDbEntity
  8
ZUWAKU
100
AcDbCircle
 10
15.18360613601635
 20
11.36250015873274
 30
0.0
 40
0.2625
100
AcDbArc
 50
90.0
 51
180.0
  0
ARC
  5
4046
330
1A
100
AcDbEntity
  8
ZUWAKU
100
AcDbCircle
 10
13.43360613601635
 20
11.36250015873274
 30
0.0
 40
0.2625
100
AcDbArc
 50
0.0
 51
90.0
  0
LINE
  5
4047
330
1A
100
AcDbEntity
  8
ZUWAKU
100
AcDbLine
 10
16.05860613601635
 20
11.62500015873275
 30
0.0
 11
15.18360613601635
 21
11.62500015873275
 31
0.0
  0
ARC
  5
4048
330
1A
100
AcDbEntity
  8
ZUWAKU
100
AcDbCircle
 10
16.05860613601635
 20
11.36250015873274
 30
0.0
 40
0.2625
100
AcDbArc
 50
0.0
 51
90.0
  0
ARC
  5
4049
330
1A
100
AcDbEntity
  8
ZUWAKU
100
AcDbCircle
 10
18.08848905427203
 20
11.36250015873274
 30
0.0
 40
0.2625
100
AcDbArc
 50
90.0
 51
162.4744316262769
  0
LINE
  5
404A
330
1A
100
AcDbEntity
  8
ZUWAKU
100
AcDbLine
 10
19.18824919367426
 20
11.28345317464926
 30
0.0
 11
18.65742937710535
 21
9.602523755514461
 31
0.0
  0
ARC
  5
404B
330
1A
100
AcDbEntity
  8
ZUWAKU
100
AcDbCircle
 10
18.93793374407653
 20
11.36250015873274
 30
0.0
 40
0.2625
100
AcDbArc
 50
342.4744316262769
 51
90.0
  0
LINE
  5
404C
330
1A
100
AcDbEntity
  8
ZUWAKU
100
AcDbLine
 10
18.08848905427203
 20
11.62500015873275
 30
0.0
 11
18.93793374407653
 21
11.62500015873275
 31
0.0
  0
ARC
  5
404D
330
1A
100
AcDbEntity
  8
ZUWAKU
100
AcDbCircle
 10
20.60860613601636
 20
11.36250015873274
 30
0.0
 40
0.2625
100
AcDbArc
 50
90.0
 51
180.0
  0
LINE
  5
404E
330
1A
100
AcDbEntity
  8
ZUWAKU
100
AcDbLine
 10
25.9461061360164
 20
10.22500015873274
 30
0.0
 11
24.45860613601638
 21
10.22500015873274
 31
0.0
  0
LINE
  5
404F
330
1A
100
AcDbEntity
  8
ZUWAKU
100
AcDbLine
 10
24.19610613601639
 20
11.62500015873275
 30
0.0
 11
25.9461061360164
 21
11.62500015873275
 31
0.0
  0
ARC
  5
4050
330
1A
100
AcDbEntity
  8
ZUWAKU
100
AcDbCircle
 10
24.19610613601639
 20
10.22500015873274
 30
0.0
 40
1.399999999999999
100
AcDbArc
 50
90.0
 51
180.0
  0
LINE
  5
4051
330
1A
100
AcDbEntity
  8
ZUWAKU
100
AcDbLine
 10
22.79610613601636
 20
10.22500015873274
 30
0.0
 11
22.79610613601636
 21
9.317399146055077
 31
0.0
  0
ARC
  5
4052
330
1A
100
AcDbEntity
  8
ZUWAKU
100
AcDbCircle
 10
21.48360613601636
 20
11.36250015873274
 30
0.0
 40
0.2625
100
AcDbArc
 50
0.0
 51
90.0
  0
LINE
  5
4053
330
1A
100
AcDbEntity
  8
ZUWAKU
100
AcDbLine
 10
24.19610613601639
 20
9.962500158732748
 30
0.0
 11
24.19610613601639
 21
9.317399146055077
 31
0.0
  0
ARC
  5
4054
330
1A
100
AcDbEntity
  8
ZUWAKU
100
AcDbCircle
 10
24.45860613601638
 20
9.962500158732748
 30
0.0
 40
0.2625
100
AcDbArc
 50
90.0
 51
180.0
  0
LINE
  5
4055
330
1A
100
AcDbEntity
  8
ZUWAKU
100
AcDbLine
 10
26.20860613601638
 20
11.36250015873274
 30
0.0
 11
26.20860613601638
 21
10.48750015873274
 31
0.0
  0
ARC
  5
4056
330
1A
100
AcDbEntity
  8
ZUWAKU
100
AcDbCircle
 10
25.9461061360164
 20
10.48750015873274
 30
0.0
 40
0.2625
100
AcDbArc
 50
270.0
 51
0.0
  0
ARC
  5
4057
330
1A
100
AcDbEntity
  8
ZUWAKU
100
AcDbCircle
 10
25.9461061360164
 20
11.36250015873274
 30
0.0
 40
0.2625
100
AcDbArc
 50
0.0
 51
90.0
  0
LINE
  5
4058
330
1A
100
AcDbEntity
  8
ZUWAKU
100
AcDbLine
 10
28.65860613601637
 20
11.62500015873275
 30
0.0
 11
27.78360613601637
 21
11.62500015873275
 31
0.0
  0
ARC
  5
4059
330
1A
100
AcDbEntity
  8
ZUWAKU
100
AcDbCircle
 10
27.78360613601637
 20
11.36250015873274
 30
0.0
 40
0.2625
100
AcDbArc
 50
90.0
 51
180.0
  0
ARC
  5
405A
330
1A
100
AcDbEntity
  8
ZUWAKU
100
AcDbCircle
 10
28.65860613601637
 20
11.36250015873274
 30
0.0
 40
0.2625
100
AcDbArc
 50
0.0
 51
90.0
  0
LINE
  5
405B
330
1A
100
AcDbEntity
  8
ZUWAKU
100
AcDbLine
 10
34.25860613601639
 20
11.62500015873275
 30
0.0
 11
33.38360613601639
 21
11.62500015873275
 31
0.0
  0
ARC
  5
405C
330
1A
100
AcDbEntity
  8
ZUWAKU
100
AcDbCircle
 10
30.93360613601635
 20
11.36250015873274
 30
0.0
 40
0.2625
100
AcDbArc
 50
90.0
 51
180.0
  0
LINE
  5
405D
330
1A
100
AcDbEntity
  8
ZUWAKU
100
AcDbLine
 10
31.80860613601635
 20
11.62500015873275
 30
0.0
 11
30.93360613601635
 21
11.62500015873275
 31
0.0
  0
ARC
  5
405E
330
1A
100
AcDbEntity
  8
ZUWAKU
100
AcDbCircle
 10
31.80860613601635
 20
11.36250015873274
 30
0.0
 40
0.2625
100
AcDbArc
 50
0.0
 51
90.0
  0
ARC
  5
405F
330
1A
100
AcDbEntity
  8
ZUWAKU
100
AcDbCircle
 10
33.38360613601639
 20
11.36250015873274
 30
0.0
 40
0.2625
100
AcDbArc
 50
90.0
 51
180.0
  0
ARC
  5
4060
330
1A
100
AcDbEntity
  8
ZUWAKU
100
AcDbCircle
 10
34.25860613601639
 20
11.36250015873274
 30
0.0
 40
0.2625
100
AcDbArc
 50
0.0
 51
90.0
  0
TEXT
  5
4061
330
1A
100
AcDbEntity
  8
MOJI
100
AcDbText
 10
119.9136013990513
 20
1.602460687436456
 30
0.0
 40
2.799999999999999
  1
ＲＶ１０５－４－６０
 41
0.9
  7
ｽﾀｲﾙ1
100
AcDbText
  0
LINE
  5
4062
330
1A
100
AcDbEntity
  8
ZUWAKU
100
AcDbLine
 10
104.2233007036596
 20
15.00000015873274
 30
0.0
 11
104.2233007036597
 21
0.4000001587327802
 31
0.0
  0
LINE
  5
4063
330
1A
100
AcDbEntity
  8
ZUWAKU
100
AcDbLine
 10
104.3233007036596
 20
15.00000015873274
 30
0.0
 11
104.3233007036598
 21
0.4000001587327802
 31
0.0
  0
LINE
  5
4064
330
1A
100
AcDbEntity
  8
ZUWAKU
100
AcDbLine
 10
104.1233007036597
 20
15.00000015873274
 30
0.0
 11
104.1233007036597
 21
0.4000001587327802
 31
0.0
  0
TEXT
  5
4065
330
1A
100
AcDbEntity
  8
ZUWAKU
100
AcDbText
 10
104.8620232147645
 20
4.827678427925555
 30
0.0
 40
2.0
  1
サイズ
 41
0.9
  7
ｽﾀｲﾙ1
100
AcDbText
  0
TEXT
  5
4066
330
1A
100
AcDbEntity
  8
ZUWAKU
100
AcDbText
 10
104.8620232147644
 20
12.02767842792553
 30
0.0
 40
2.0
  1
品名
 41
0.9
  7
ｽﾀｲﾙ1
100
AcDbText
  0
TEXT
  5
4067
330
1A
100
AcDbEntity
  8
ZUWAKU
100
AcDbText
 10
329.101968902277
 20
9.002460687436439
 30
0.0
 40
2.799999999999999
  1
　　．　　．　　
 41
0.9
  7
ｽﾀｲﾙ1
100
AcDbText
  0
LINE
  5
4068
330
1A
100
AcDbEntity
  8
ZUWAKU
100
AcDbLine
 10
324.4086013137279
 20
7.800000158732762
 30
0.0
 11
348.6245053328964
 21
7.800000158732762
 31
0.0
  0
LINE
  5
4069
330
1A
100
AcDbEntity
  8
ZUWAKU
100
AcDbLine
 10
324.408601313728
 20
7.700000158732764
 30
0.0
 11
348.6245053328964
 21
7.700000158732763
 31
0.0
  0
LINE
  5
406A
330
1A
100
AcDbEntity
  8
ZUWAKU
100
AcDbLine
 10
324.4086013137279
 20
7.600000158732761
 30
0.0
 11
348.6245053328964
 21
7.600000158732763
 31
0.0
  0
LINE
  5
406B
330
1A
100
AcDbEntity
  8
ZUWAKU
100
AcDbLine
 10
252.5995898076962
 20
7.800000158732762
 30
0.0
 11
276.263477941682
 21
7.800000158732762
 31
0.0
  0
LINE
  5
406C
330
1A
100
AcDbEntity
  8
ZUWAKU
100
AcDbLine
 10
252.5995898076962
 20
7.700000158732763
 30
0.0
 11
276.263477941682
 21
7.700000158732763
 31
0.0
  0
LINE
  5
406D
330
1A
100
AcDbEntity
  8
ZUWAKU
100
AcDbLine
 10
252.5995898076962
 20
7.600000158732765
 30
0.0
 11
276.263477941682
 21
7.600000158732765
 31
0.0
  0
LINE
  5
406E
330
1A
100
AcDbEntity
  8
ZUWAKU
100
AcDbLine
 10
252.3995898076963
 20
15.00000015873274
 30
0.0
 11
252.3995898076963
 21
0.4000001587327802
 31
0.0
  0
LINE
  5
406F
330
1A
100
AcDbEntity
  8
ZUWAKU
100
AcDbLine
 10
252.5995898076962
 20
15.00000015873274
 30
0.0
 11
252.5995898076963
 21
0.4000001587327802
 31
0.0
  0
LINE
  5
4070
330
1A
100
AcDbEntity
  8
ZUWAKU
100
AcDbLine
 10
252.4995898076962
 20
15.00000015873274
 30
0.0
 11
252.4995898076963
 21
0.4000001587327802
 31
0.0
  0
TEXT
  5
4071
330
1A
100
AcDbEntity
  8
MOJI
100
AcDbText
 10
264.0204540447822
 20
9.002460687436439
 30
0.0
 40
2.799999999999999
  1
Ａ３
 41
0.9
  7
ｽﾀｲﾙ1
100
AcDbText
  0
LINE
  5
4072
330
1A
100
AcDbEntity
  8
ZUWAKU
100
AcDbLine
 10
223.7121820441215
 20
15.00000015873274
 30
0.0
 11
223.7121820441215
 21
0.4000001587327802
 31
0.0
  0
LINE
  5
4073
330
1A
100
AcDbEntity
  8
ZUWAKU
100
AcDbLine
 10
223.9121820441214
 20
15.00000015873274
 30
0.0
 11
223.9121820441215
 21
0.4000001587327802
 31
0.0
  0
LINE
  5
4074
330
1A
100
AcDbEntity
  8
ZUWAKU
100
AcDbLine
 10
223.8121820441214
 20
15.00000015873274
 30
0.0
 11
223.8121820441215
 21
0.4000001587327802
 31
0.0
  0
TEXT
  5
4075
330
1A
100
AcDbEntity
  8
MOJI
100
AcDbText
 10
231.2836392196201
 20
5.971309019562738
 30
0.0
 40
2.799999999999999
  1
ＬＪ８０□
 41
0.9
  7
ｽﾀｲﾙ1
100
AcDbText
  0
TEXT
  5
4076
330
1A
100
AcDbEntity
  8
ZUWAKU
100
AcDbText
 10
231.3468808863794
 20
1.307035614302492
 30
0.0
 40
1.5
  1
□には色品番が入ります
 41
0.9
  7
ｽﾀｲﾙ1
100
AcDbText
  0
TEXT
  5
4077
330
1A
100
AcDbEntity
  8
ZUWAKU
100
AcDbText
 10
253.3383123188011
 20
4.827678427925555
 30
0.0
 40
2.0
  1
縮尺
 41
0.9
  7
ｽﾀｲﾙ1
100
AcDbText
  0
TEXT
  5
4078
330
1A
100
AcDbEntity
  8
MOJI
100
AcDbText
 10
264.0204540447822
 20
1.602460687436456
 30
0.0
 40
2.799999999999999
  1
１/１
 41
0.9
  7
ｽﾀｲﾙ1
100
AcDbText
  0
TEXT
  5
4079
330
1A
100
AcDbEntity
  8
ZUWAKU
100
AcDbText
 10
224.6509045552262
 20
12.02767842792553
 30
0.0
 40
2.0
  1
品番
 41
0.9
  7
ｽﾀｲﾙ1
100
AcDbText
  0
TEXT
  5
407A
330
1A
100
AcDbEntity
  8
ZUWAKU
100
AcDbText
 10
253.338312318801
 20
12.02767842792553
 30
0.0
 40
2.0
  1
用紙
 41
0.9
  7
ｽﾀｲﾙ1
100
AcDbText
  0
LINE
  5
407B
330
1A
100
AcDbEntity
  8
ZUWAKU
100
AcDbLine
 10
276.263477941682
 20
15.00000015873274
 30
0.0
 11
276.263477941682
 21
0.4000001587327802
 31
0.0
  0
LINE
  5
407C
330
1A
100
AcDbEntity
  8
ZUWAKU
100
AcDbLine
 10
276.4634779416819
 20
15.00000015873274
 30
0.0
 11
276.463477941682
 21
0.4000001587327802
 31
0.0
  0
LINE
  5
407D
330
1A
100
AcDbEntity
  8
ZUWAKU
100
AcDbLine
 10
276.3634779416819
 20
15.00000015873274
 30
0.0
 11
276.363477941682
 21
0.4000001587327802
 31
0.0
  0
LINE
  5
407E
330
1A
100
AcDbEntity
  8
ZUWAKU
100
AcDbLine
 10
324.2086013137281
 20
15.00000015873274
 30
0.0
 11
324.2086013137281
 21
0.4000001587327802
 31
0.0
  0
LINE
  5
407F
330
1A
100
AcDbEntity
  8
ZUWAKU
100
AcDbLine
 10
324.408601313728
 20
15.00000015873274
 30
0.0
 11
324.4086013137281
 21
0.4000001587327802
 31
0.0
  0
LINE
  5
4080
330
1A
100
AcDbEntity
  8
ZUWAKU
100
AcDbLine
 10
324.308601313728
 20
15.00000015873274
 30
0.0
 11
324.308601313728
 21
0.4000001587327802
 31
0.0
  0
TEXT
  5
4081
330
1A
100
AcDbEntity
  8
ZUWAKU
100
AcDbText
 10
325.1473238248328
 20
12.02767842792553
 30
0.0
 40
2.0
  1
DATE
 41
0.9
  7
ｽﾀｲﾙ1
100
AcDbText
  0
TEXT
  5
4082
330
1A
100
AcDbEntity
  8
ZUWAKU
100
AcDbText
 10
354.2640421547476
 20
8.776919826576147
 30
0.0
 40
3.0
  1
積水化学工業株式会社
 41
0.9
  7
ｽﾀｲﾙ1
100
AcDbText
  0
LINE
  5
4083
330
1A
100
AcDbEntity
  8
ZUWAKU
100
AcDbLine
 10
348.9245053328963
 20
15.00000015873274
 30
0.0
 11
348.9245053328965
 21
0.4000001587327802
 31
0.0
  0
LINE
  5
4084
330
1A
100
AcDbEntity
  8
ZUWAKU
100
AcDbLine
 10
348.8245053328963
 20
15.00000015873274
 30
0.0
 11
348.8245053328964
 21
0.4000001587327802
 31
0.0
  0
LINE
  5
4085
330
1A
100
AcDbEntity
  8
ZUWAKU
100
AcDbLine
 10
348.7245053328964
 20
15.00000015873274
 30
0.0
 11
348.7245053328964
 21
0.4000001587327802
 31
0.0
  0
LINE
  5
4086
330
1A
100
AcDbEntity
  8
ZUWAKU
100
AcDbLine
 10
348.6245053328964
 20
15.00000015873274
 30
0.0
 11
348.6245053328964
 21
0.4000001587327802
 31
0.0
  0
TEXT
  5
4087
330
1A
100
AcDbEntity
  8
ZUWAKU
100
AcDbText
 10
354.2640421547476
 20
3.324420315659779
 30
0.0
 40
3.0
  1
建材事業部
 41
0.9
  7
ｽﾀｲﾙ1
100
AcDbText
  0
VIEWPORT
  5
22
330
17
100
AcDbEntity
 67
     1
  8
0
100
AcDbViewport
 10
313.6808219178082
 20
148.5
 30
0.0
 40
627.3616438356165
 41
297.0
 68
     2
 69
     1
1001
ACAD
1000
MVIEW
1002
{
1070
    16
1010
0.0
1020
0.0
1030
0.0
1010
0.0
1020
0.0
1030
1.0
1040
0.0
1040
297.0
1040
313.6808219178082
1040
148.5
1040
50.0
1040
0.0
1040
0.0
1070
     0
1070
   100
1070
     1
1070
     0
1070
     0
1070
     0
1070
     0
1070
     0
1040
0.0
1040
0.0
1040
0.0
1040
1.0
1040
1.0
1040
10.0
1040
10.0
1070
     0
1002
{
1002
}
1002
}
  0
VIEWPORT
  5
64
330
17
100
AcDbEntity
 67
     1
  8
VIEWPORT
100
AcDbViewport
 10
210.0
 20
148.5
 30
0.0
 40
420.0
 41
297.0
 68
     1
 69
     2
1001
ACAD
1000
MVIEW
1002
{
1070
    16
1010
0.0
1020
0.0
1030
0.0
1010
0.0
1020
0.0
1030
1.0
1040
0.0
1040
302.9399999999998
1040
210.0
1040
148.5
1040
50.0
1040
0.0
1040
0.0
1070
     0
1070
   100
1070
     1
1070
     0
1070
     0
1070
     0
1070
     0
1070
     0
1040
0.0
1040
0.0
1040
0.0
1040
5.0
1040
5.0
1040
0.0
1040
0.0
1070
     0
1002
{
1002
}
1002
}
  0
ENDSEC
  0
SECTION
  2
OBJECTS
  0
DICTIONARY
  5
C
330
0
100
AcDbDictionary
  3
ACAD_GROUP
350
D
  3
ACAD_LAYOUT
350
141
  3
ACAD_MLINESTYLE
350
E
  3
ACAD_PLOTSETTINGS
350
142
  3
ACAD_PLOTSTYLENAME
350
13F
  3
ACADDIM
350
3023
  3
ACDBVARIABLEDICTIONARY
350
120D
  3
ACDBHEADERROUNDTRIPXREC
350
40FD
  0
DICTIONARY
  5
7A2
330
1A
100
AcDbDictionary
280
     1
  3
ACAD_LAYOUTSELFREF
360
411F
  0
DICTIONARY
  5
7A0
330
17
100
AcDbDictionary
280
     1
  3
ACAD_LAYOUTSELFREF
360
411E
  0
DICTIONARY
  5
D
102
{ACAD_REACTORS
330
C
102
}
330
C
100
AcDbDictionary
  0
DICTIONARY
  5
141
102
{ACAD_REACTORS
330
C
102
}
330
C
100
AcDbDictionary
  0
DICTIONARY
  5
E
102
{ACAD_REACTORS
330
C
102
}
330
C
100
AcDbDictionary
  3
STANDARD
350
13
  0
DICTIONARY
  5
142
102
{ACAD_REACTORS
330
C
102
}
330
C
100
AcDbDictionary
  0
ACDBDICTIONARYWDFLT
  5
13F
102
{ACAD_REACTORS
330
C
102
}
330
C
100
AcDbDictionary
281
     1
  3
Normal
350
140
100
AcDbDictionaryWithDefault
340
140
1001
ACAD
1000
TREAT_AS_HARD
1070
     0
1000
TREAT_AS_HARD
1070
     0
1000
TREAT_AS_HARD
1070
     0
1000
TREAT_AS_HARD
1070
     0
1000
TREAT_AS_HARD
1070
     0
1000
TREAT_AS_HARD
1070
     0
1000
TREAT_AS_HARD
1070
     0
1000
TREAT_AS_HARD
1070
     0
1000
TREAT_AS_HARD
1070
     0
1000
TREAT_AS_HARD
1070
     0
1000
TREAT_AS_HARD
1070
     0
1000
TREAT_AS_HARD
1070
     0
1000
TREAT_AS_HARD
1070
     0
1000
TREAT_AS_HARD
1070
     0
1000
TREAT_AS_HARD
1070
     0
1000
TREAT_AS_HARD
1070
     0
1000
TREAT_AS_HARD
1070
     0
1000
TREAT_AS_HARD
1070
     0
1000
TREAT_AS_HARD
1070
     0
1000
TREAT_AS_HARD
1070
     0
  0
XRECORD
  5
3023
102
{ACAD_REACTORS
330
C
102
}
330
C
100
AcDbXrecord
 90
   990106
  3

 60
     0
 61
     0
 62
     1
 63
     3
 64
     0
 65
     0
 66
     0
 67
     3
 68
     1
 69
     0
 70
     0
 71
     0
 72
     0
 40
0.0
170
     0
340
0
  0
DICTIONARY
  5
120D
102
{ACAD_REACTORS
330
C
102
}
330
C
100
AcDbDictionary
  3
SORTENTS
350
120E
  0
DICTIONARY
  5
40FD
102
{ACAD_REACTORS
330
C
102
}
330
C
100
AcDbDictionary
  3
TSTACKALIGN
350
40FE
  3
TSTACKSIZE
350
40FF
  3
HYPERLINKBASE
350
4100
  3
STYLESHEET
350
4101
  3
LAYOUTDICT
350
4102
  3
PLOTSETDICT
350
4103
  3
PLOTSTYLNAMDICT
350
4104
  3
LWETCUNION
350
4105
  3
INSUNITS
350
4106
  3
CEPSNTYPE
350
4107
  3
FINGERPRINTGUID
350
4108
  3
VERSIONGUID
350
4109
  3
PSVPSCALE
350
410A
  3
DIMSTYLEDATA
350
410B
  3
PUCSORTHOREF
350
410C
  3
PUCSORTHOVIEW
350
410D
  3
PUCSBASE
350
410E
  3
PUCSORGTOP
350
410F
  3
PUCSORGBOTTOM
350
4110
  3
PUCSORGLEFT
350
4111
  3
PUCSORGRIGHT
350
4112
  3
PUCSORGFRONT
350
4113
  3
PUCSORGBACK
350
4114
  3
UCSORTHOREF
350
4115
  3
UCSORTHOVIEW
350
4116
  3
UCSBASE
350
4117
  3
UCSORGTOP
350
4118
  3
UCSORGBOTTOM
350
4119
  3
UCSORGLEFT
350
411A
  3
UCSORGRIGHT
350
411B
  3
UCSORGFRONT
350
411C
  3
UCSORGBACK
350
411D
  0
XRECORD
  5
411F
102
{ACAD_REACTORS
330
7A2
102
}
330
7A2
100
AcDbXrecord
340
1A
  0
XRECORD
  5
411E
102
{ACAD_REACTORS
330
7A0
102
}
330
7A0
100
AcDbXrecord
340
17
  0
MLINESTYLE
  5
13
102
{ACAD_REACTORS
330
E
102
}
330
E
100
AcDbMlineStyle
  2
STANDARD
 70
     0
  3

 62
     0
 51
90.0
 52
90.0
 71
     2
 49
0.5
 62
   256
  6
BYLAYER
 49
-0.5
 62
   256
  6
BYLAYER
  0
ACDBPLACEHOLDER
  5
140
102
{ACAD_REACTORS
330
13F
102
}
330
13F
100
AcDbPlaceHolder
280
     0
  0
DICTIONARYVAR
  5
120E
102
{ACAD_REACTORS
330
120D
102
}
330
120D
100
DictionaryVariables
280
     0
  1
96
  0
XRECORD
  5
40FE
102
{ACAD_REACTORS
330
40FD
102
}
330
40FD
100
AcDbXrecord
 90
        1
  0
XRECORD
  5
40FF
102
{ACAD_REACTORS
330
40FD
102
}
330
40FD
100
AcDbXrecord
 90
       70
  0
XRECORD
  5
4100
102
{ACAD_REACTORS
330
40FD
102
}
330
40FD
100
AcDbXrecord
  1

  0
XRECORD
  5
4101
102
{ACAD_REACTORS
330
40FD
102
}
330
40FD
100
AcDbXrecord
  1
systemprinter.ctb
  0
XRECORD
  5
4102
102
{ACAD_REACTORS
330
40FD
102
}
330
40FD
100
AcDbXrecord
340
141
  0
XRECORD
  5
4103
102
{ACAD_REACTORS
330
40FD
102
}
330
40FD
100
AcDbXrecord
340
142
  0
XRECORD
  5
4104
102
{ACAD_REACTORS
330
40FD
102
}
330
40FD
100
AcDbXrecord
340
13F
  0
XRECORD
  5
4105
102
{ACAD_REACTORS
330
40FD
102
}
330
40FD
100
AcDbXrecord
 90
    10781
  0
XRECORD
  5
4106
102
{ACAD_REACTORS
330
40FD
102
}
330
40FD
100
AcDbXrecord
 90
        0
  0
XRECORD
  5
4107
102
{ACAD_REACTORS
330
40FD
102
}
330
40FD
100
AcDbXrecord
 90
        0
  0
XRECORD
  5
4108
102
{ACAD_REACTORS
330
40FD
102
}
330
40FD
100
AcDbXrecord
  1
{4E8D0500-CDD1-11D3-932C-444553540000}
  0
XRECORD
  5
4109
102
{ACAD_REACTORS
330
40FD
102
}
330
40FD
100
AcDbXrecord
  1
{C2C972F7-0A71-4070-8FE9-8861DB8B8598}
  0
XRECORD
  5
410A
102
{ACAD_REACTORS
330
40FD
102
}
330
40FD
100
AcDbXrecord
 40
0.0
  0
XRECORD
  5
410B
102
{ACAD_REACTORS
330
40FD
102
}
330
40FD
100
AcDbXrecord
1000
DSTYLE
1002
{
1070
   341
340
B2
1070
   343
340
B2
1070
   344
340
B2
1070
   371
 70
    -1
1070
   372
 70
    -1
1002
}
  0
XRECORD
  5
410C
102
{ACAD_REACTORS
330
40FD
102
}
330
40FD
100
AcDbXrecord
340
0
  0
XRECORD
  5
410D
102
{ACAD_REACTORS
330
40FD
102
}
330
40FD
100
AcDbXrecord
 70
     0
  0
XRECORD
  5
410E
102
{ACAD_REACTORS
330
40FD
102
}
330
40FD
100
AcDbXrecord
340
0
  0
XRECORD
  5
410F
102
{ACAD_REACTORS
330
40FD
102
}
330
40FD
100
AcDbXrecord
 10
0.0
 20
0.0
 30
0.0
  0
XRECORD
  5
4110
102
{ACAD_REACTORS
330
40FD
102
}
330
40FD
100
AcDbXrecord
 10
0.0
 20
0.0
 30
0.0
  0
XRECORD
  5
4111
102
{ACAD_REACTORS
330
40FD
102
}
330
40FD
100
AcDbXrecord
 10
0.0
 20
0.0
 30
0.0
  0
XRECORD
  5
4112
102
{ACAD_REACTORS
330
40FD
102
}
330
40FD
100
AcDbXrecord
 10
0.0
 20
0.0
 30
0.0
  0
XRECORD
  5
4113
102
{ACAD_REACTORS
330
40FD
102
}
330
40FD
100
AcDbXrecord
 10
0.0
 20
0.0
 30
0.0
  0
XRECORD
  5
4114
102
{ACAD_REACTORS
330
40FD
102
}
330
40FD
100
AcDbXrecord
 10
0.0
 20
0.0
 30
0.0
  0
XRECORD
  5
4115
102
{ACAD_REACTORS
330
40FD
102
}
330
40FD
100
AcDbXrecord
340
0
  0
XRECORD
  5
4116
102
{ACAD_REACTORS
330
40FD
102
}
330
40FD
100
AcDbXrecord
 70
     0
  0
XRECORD
  5
4117
102
{ACAD_REACTORS
330
40FD
102
}
330
40FD
100
AcDbXrecord
340
0
  0
XRECORD
  5
4118
102
{ACAD_REACTORS
330
40FD
102
}
330
40FD
100
AcDbXrecord
 10
0.0
 20
0.0
 30
0.0
  0
XRECORD
  5
4119
102
{ACAD_REACTORS
330
40FD
102
}
330
40FD
100
AcDbXrecord
 10
0.0
 20
0.0
 30
0.0
  0
XRECORD
  5
411A
102
{ACAD_REACTORS
330
40FD
102
}
330
40FD
100
AcDbXrecord
 10
0.0
 20
0.0
 30
0.0
  0
XRECORD
  5
411B
102
{ACAD_REACTORS
330
40FD
102
}
330
40FD
100
AcDbXrecord
 10
0.0
 20
0.0
 30
0.0
  0
XRECORD
  5
411C
102
{ACAD_REACTORS
330
40FD
102
}
330
40FD
100
AcDbXrecord
 10
0.0
 20
0.0
 30
0.0
  0
XRECORD
  5
411D
102
{ACAD_REACTORS
330
40FD
102
}
330
40FD
100
AcDbXrecord
 10
0.0
 20
0.0
 30
0.0
  0
ENDSEC
  0
EOF
