  0
SECTION
  2
HEADER
  9
$ACADVER
  1
AC1014
  9
$ACADMAINTVER
 70
     9
  9
$DWGCODEPAGE
  3
ANSI_932
  9
$INSBASE
 10
0.0
 20
0.0
 30
0.0
  9
$EXTMIN
 10
-0.0128164049386896
 20
-0.0090630292066862
 30
-0.0000000100021362
  9
$EXTMAX
 10
398.8000497813338
 20
275.8226172440017
 30
0.0000000100021363
  9
$LIMMIN
 10
0.0
 20
0.0
  9
$LIMMAX
 10
420.0
 20
297.0
  9
$ORTHOMODE
 70
     0
  9
$REGENMODE
 70
     1
  9
$FILLMODE
 70
     1
  9
$QTEXTMODE
 70
     0
  9
$MIRRTEXT
 70
     1
  9
$DRAGMODE
 70
     2
  9
$LTSCALE
 40
5.0
  9
$OSMODE
 70
    35
  9
$ATTMODE
 70
     1
  9
$TEXTSIZE
 40
3.0
  9
$TRACEWID
 40
1.0
  9
$TEXTSTYLE
  7
STANDARD
  9
$CLAYER
  8
CENTER_L
  9
$CELTYPE
  6
BYLAYER
  9
$CECOLOR
 62
   256
  9
$CELTSCALE
 40
1.0
  9
$DELOBJ
 70
     1
  9
$DISPSILH
 70
     0
  9
$DIMSCALE
 40
1.0
  9
$DIMASZ
 40
3.0
  9
$DIMEXO
 40
3.0
  9
$DIMDLI
 40
7.0
  9
$DIMRND
 40
0.0
  9
$DIMDLE
 40
0.0
  9
$DIMEXE
 40
1.5
  9
$DIMTP
 40
0.0
  9
$DIMTM
 40
0.0
  9
$DIMTXT
 40
3.0
  9
$DIMCEN
 40
3.0
  9
$DIMTSZ
 40
0.0
  9
$DIMTOL
 70
     0
  9
$DIMLIM
 70
     0
  9
$DIMTIH
 70
     0
  9
$DIMTOH
 70
     0
  9
$DIMSE1
 70
     0
  9
$DIMSE2
 70
     0
  9
$DIMTAD
 70
     3
  9
$DIMZIN
 70
     0
  9
$DIMBLK
  1

  9
$DIMASO
 70
     1
  9
$DIMSHO
 70
     1
  9
$DIMPOST
  1

  9
$DIMAPOST
  1

  9
$DIMALT
 70
     0
  9
$DIMALTD
 70
     2
  9
$DIMALTF
 40
25.4
  9
$DIMLFAC
 40
1.0
  9
$DIMTOFL
 70
     1
  9
$DIMTVP
 40
0.0
  9
$DIMTIX
 70
     0
  9
$DIMSOXD
 70
     0
  9
$DIMSAH
 70
     1
  9
$DIMBLK1
  1
OPEN
  9
$DIMBLK2
  1
OPEN
  9
$DIMSTYLE
  2
STANDARD
  9
$DIMCLRD
 70
   256
  9
$DIMCLRE
 70
   256
  9
$DIMCLRT
 70
   256
  9
$DIMTFAC
 40
1.0
  9
$DIMGAP
 40
1.0
  9
$DIMJUST
 70
     0
  9
$DIMSD1
 70
     0
  9
$DIMSD2
 70
     0
  9
$DIMTOLJ
 70
     1
  9
$DIMTZIN
 70
     0
  9
$DIMALTZ
 70
     0
  9
$DIMALTTZ
 70
     0
  9
$DIMFIT
 70
     3
  9
$DIMUPT
 70
     0
  9
$DIMUNIT
 70
     2
  9
$DIMDEC
 70
     0
  9
$DIMTDEC
 70
     0
  9
$DIMALTU
 70
     2
  9
$DIMALTTD
 70
     2
  9
$DIMTXSTY
  7
STANDARD
  9
$DIMAUNIT
 70
     0
  9
$LUNITS
 70
     2
  9
$LUPREC
 70
     4
  9
$SKETCHINC
 40
1.0
  9
$FILLETRAD
 40
0.3
  9
$AUNITS
 70
     0
  9
$AUPREC
 70
     0
  9
$MENU
  1
.
  9
$ELEVATION
 40
0.0
  9
$PELEVATION
 40
0.0
  9
$THICKNESS
 40
0.0
  9
$LIMCHECK
 70
     0
  9
$BLIPMODE
 70
     0
  9
$CHAMFERA
 40
10.0
  9
$CHAMFERB
 40
10.0
  9
$CHAMFERC
 40
20.0
  9
$CHAMFERD
 40
0.0
  9
$SKPOLY
 70
     0
  9
$TDCREATE
 40
2451589.469382176
  9
$TDUPDATE
 40
2453802.580538368
  9
$TDINDWG
 40
0.5601256944
  9
$TDUSRTIMER
 40
0.5601256944
  9
$USRTIMER
 70
     1
  9
$ANGBASE
 50
0.0
  9
$ANGDIR
 70
     0
  9
$PDMODE
 70
     0
  9
$PDSIZE
 40
0.0
  9
$PLINEWID
 40
0.0
  9
$COORDS
 70
     1
  9
$SPLFRAME
 70
     0
  9
$SPLINETYPE
 70
     6
  9
$SPLINESEGS
 70
     8
  9
$ATTDIA
 70
     0
  9
$ATTREQ
 70
     1
  9
$HANDLING
 70
 10241
  9
$HANDSEED
  5
3FB4
  9
$SURFTAB1
 70
     6
  9
$SURFTAB2
 70
     6
  9
$SURFTYPE
 70
     6
  9
$SURFU
 70
     6
  9
$SURFV
 70
     6
  9
$UCSNAME
  2

  9
$UCSORG
 10
0.0
 20
0.0
 30
0.0
  9
$UCSXDIR
 10
1.0
 20
0.0
 30
0.0
  9
$UCSYDIR
 10
0.0
 20
1.0
 30
0.0
  9
$PUCSNAME
  2

  9
$PUCSORG
 10
0.0
 20
0.0
 30
0.0
  9
$PUCSXDIR
 10
1.0
 20
0.0
 30
0.0
  9
$PUCSYDIR
 10
0.0
 20
1.0
 30
0.0
  9
$USERI1
 70
     0
  9
$USERI2
 70
     0
  9
$USERI3
 70
     0
  9
$USERI4
 70
     0
  9
$USERI5
 70
     0
  9
$USERR1
 40
0.0
  9
$USERR2
 40
0.0
  9
$USERR3
 40
0.0
  9
$USERR4
 40
0.0
  9
$USERR5
 40
0.0
  9
$WORLDVIEW
 70
     1
  9
$SHADEDGE
 70
     3
  9
$SHADEDIF
 70
    70
  9
$TILEMODE
 70
     1
  9
$MAXACTVP
 70
    16
  9
$PINSBASE
 10
0.0
 20
0.0
 30
0.0
  9
$PLIMCHECK
 70
     0
  9
$PEXTMIN
 10
0.0
 20
0.0
 30
0.0
  9
$PEXTMAX
 10
420.0
 20
297.0
 30
0.0
  9
$PLIMMIN
 10
0.0
 20
0.0
  9
$PLIMMAX
 10
420.0
 20
297.0
  9
$UNITMODE
 70
     0
  9
$VISRETAIN
 70
     0
  9
$PLINEGEN
 70
     0
  9
$PSLTSCALE
 70
     1
  9
$TREEDEPTH
 70
  3020
  9
$PICKSTYLE
 70
     1
  9
$CMLSTYLE
  2
STANDARD
  9
$CMLJUST
 70
     0
  9
$CMLSCALE
 40
1.0
  9
$PROXYGRAPHICS
 70
     1
  9
$MEASUREMENT
 70
     0
  0
ENDSEC
  0
SECTION
  2
CLASSES
  0
CLASS
  1
ACDBDICTIONARYWDFLT
  2
AcDbDictionaryWithDefault
  3
AutoCAD 2000
 90
        0
280
     0
281
     0
  0
CLASS
  1
ACDBPLACEHOLDER
  2
AcDbPlaceHolder
  3
AutoCAD 2000
 90
        0
280
     0
281
     0
  0
CLASS
  1
LAYOUT
  2
AcDbLayout
  3
AutoCAD 2000
 90
        0
280
     0
281
     0
  0
CLASS
  1
LONG_TRANSACTION
  2
AcDbLongTransaction
  3
AutoCAD 2000
 90
        0
280
     0
281
     0
  0
CLASS
  1
LWPOLYLINE
  2
AcDbPolyline
  3
AutoCAD 2000
 90
        0
280
     0
281
     1
  0
CLASS
  1
HATCH
  2
AcDbHatch
  3
AutoCAD 2000
 90
        0
280
     0
281
     1
  0
CLASS
  1
XRECORD
  2
AcDbXrecord
  3
AutoCAD 2000
 90
        0
280
     0
281
     0
  0
CLASS
  1
LONG_TRANSACTION
  2
AcDbLongTransaction
  3
AutoCAD 2000
 90
        0
280
     0
281
     0
  0
CLASS
  1
LWPOLYLINE
  2
AcDbPolyline
  3
AutoCAD 2000
 90
        0
280
     0
281
     1
  0
CLASS
  1
HATCH
  2
AcDbHatch
  3
AutoCAD 2000
 90
        0
280
     0
281
     1
  0
CLASS
  1
XRECORD
  2
AcDbXrecord
  3
AutoCAD 2000
 90
        0
280
     0
281
     0
  0
CLASS
  1
DICTIONARYVAR
  2
AcDbDictionaryVar
  3
AutoCAD 2000
 90
        0
280
     0
281
     0
  0
CLASS
  1
LONG_TRANSACTION
  2
AcDbLongTransaction
  3
AutoCAD 2000
 90
        0
280
     0
281
     0
  0
CLASS
  1
LWPOLYLINE
  2
AcDbPolyline
  3
AutoCAD 2000
 90
        0
280
     0
281
     1
  0
CLASS
  1
HATCH
  2
AcDbHatch
  3
AutoCAD 2000
 90
        0
280
     0
281
     1
  0
CLASS
  1
XRECORD
  2
AcDbXrecord
  3
AutoCAD 2000
 90
        0
280
     0
281
     0
  0
CLASS
  1
LONG_TRANSACTION
  2
AcDbLongTransaction
  3
AutoCAD 2000
 90
        0
280
     0
281
     0
  0
CLASS
  1
LWPOLYLINE
  2
AcDbPolyline
  3
AutoCAD 2000
 90
        0
280
     0
281
     1
  0
CLASS
  1
HATCH
  2
AcDbHatch
  3
AutoCAD 2000
 90
        0
280
     0
281
     1
  0
CLASS
  1
XRECORD
  2
AcDbXrecord
  3
AutoCAD 2000
 90
        0
280
     0
281
     0
  0
CLASS
  1
LONG_TRANSACTION
  2
AcDbLongTransaction
  3
AutoCAD 2000
 90
        0
280
     0
281
     0
  0
CLASS
  1
LWPOLYLINE
  2
AcDbPolyline
  3
AutoCAD 2000
 90
        0
280
     0
281
     1
  0
CLASS
  1
HATCH
  2
AcDbHatch
  3
AutoCAD 2000
 90
        0
280
     0
281
     1
  0
CLASS
  1
XRECORD
  2
AcDbXrecord
  3
AutoCAD 2000
 90
        0
280
     0
281
     0
  0
CLASS
  1
LONG_TRANSACTION
  2
AcDbLongTransaction
  3
AutoCAD 2000
 90
        0
280
     0
281
     0
  0
CLASS
  1
LWPOLYLINE
  2
AcDbPolyline
  3
AutoCAD 2000
 90
        0
280
     0
281
     1
  0
CLASS
  1
HATCH
  2
AcDbHatch
  3
AutoCAD 2000
 90
        0
280
     0
281
     1
  0
CLASS
  1
XRECORD
  2
AcDbXrecord
  3
AutoCAD 2000
 90
        0
280
     0
281
     0
  0
CLASS
  1
LONG_TRANSACTION
  2
AcDbLongTransaction
  3
AutoCAD 2000
 90
        0
280
     0
281
     0
  0
CLASS
  1
LWPOLYLINE
  2
AcDbPolyline
  3
AutoCAD 2000
 90
        0
280
     0
281
     1
  0
CLASS
  1
HATCH
  2
AcDbHatch
  3
AutoCAD 2000
 90
        0
280
     0
281
     1
  0
CLASS
  1
XRECORD
  2
AcDbXrecord
  3
AutoCAD 2000
 90
        0
280
     0
281
     0
  0
CLASS
  1
LONG_TRANSACTION
  2
AcDbLongTransaction
  3
AutoCAD 2000
 90
        0
280
     0
281
     0
  0
CLASS
  1
LWPOLYLINE
  2
AcDbPolyline
  3
AutoCAD 2000
 90
        0
280
     0
281
     1
  0
CLASS
  1
HATCH
  2
AcDbHatch
  3
AutoCAD 2000
 90
        0
280
     0
281
     1
  0
CLASS
  1
XRECORD
  2
AcDbXrecord
  3
AutoCAD 2000
 90
        0
280
     0
281
     0
  0
CLASS
  1
LONG_TRANSACTION
  2
AcDbLongTransaction
  3
AutoCAD 2000
 90
        0
280
     0
281
     0
  0
CLASS
  1
LWPOLYLINE
  2
AcDbPolyline
  3
AutoCAD 2000
 90
        0
280
     0
281
     1
  0
CLASS
  1
HATCH
  2
AcDbHatch
  3
AutoCAD 2000
 90
        0
280
     0
281
     1
  0
CLASS
  1
XRECORD
  2
AcDbXrecord
  3
AutoCAD 2000
 90
        0
280
     0
281
     0
  0
CLASS
  1
LONG_TRANSACTION
  2
AcDbLongTransaction
  3
AutoCAD 2000
 90
        0
280
     0
281
     0
  0
CLASS
  1
LWPOLYLINE
  2
AcDbPolyline
  3
AutoCAD 2000
 90
        0
280
     0
281
     1
  0
CLASS
  1
HATCH
  2
AcDbHatch
  3
AutoCAD 2000
 90
        0
280
     0
281
     1
  0
CLASS
  1
XRECORD
  2
AcDbXrecord
  3
AutoCAD 2000
 90
        0
280
     0
281
     0
  0
CLASS
  1
LONG_TRANSACTION
  2
AcDbLongTransaction
  3
AutoCAD 2000
 90
        0
280
     0
281
     0
  0
CLASS
  1
LWPOLYLINE
  2
AcDbPolyline
  3
AutoCAD 2000
 90
        0
280
     0
281
     1
  0
CLASS
  1
HATCH
  2
AcDbHatch
  3
AutoCAD 2000
 90
        0
280
     0
281
     1
  0
CLASS
  1
XRECORD
  2
AcDbXrecord
  3
AutoCAD 2000
 90
        0
280
     0
281
     0
  0
CLASS
  1
LONG_TRANSACTION
  2
AcDbLongTransaction
  3
AutoCAD 2000
 90
        0
280
     0
281
     0
  0
CLASS
  1
LWPOLYLINE
  2
AcDbPolyline
  3
AutoCAD 2000
 90
        0
280
     0
281
     1
  0
CLASS
  1
HATCH
  2
AcDbHatch
  3
AutoCAD 2000
 90
        0
280
     0
281
     1
  0
CLASS
  1
XRECORD
  2
AcDbXrecord
  3
AutoCAD 2000
 90
        0
280
     0
281
     0
  0
CLASS
  1
LONG_TRANSACTION
  2
AcDbLongTransaction
  3
AutoCAD 2000
 90
        0
280
     0
281
     0
  0
CLASS
  1
LWPOLYLINE
  2
AcDbPolyline
  3
AutoCAD 2000
 90
        0
280
     0
281
     1
  0
CLASS
  1
HATCH
  2
AcDbHatch
  3
AutoCAD 2000
 90
        0
280
     0
281
     1
  0
CLASS
  1
XRECORD
  2
AcDbXrecord
  3
AutoCAD 2000
 90
        0
280
     0
281
     0
  0
CLASS
  1
LONG_TRANSACTION
  2
AcDbLongTransaction
  3
AutoCAD 2000
 90
        0
280
     0
281
     0
  0
CLASS
  1
LWPOLYLINE
  2
AcDbPolyline
  3
AutoCAD 2000
 90
        0
280
     0
281
     1
  0
CLASS
  1
HATCH
  2
AcDbHatch
  3
AutoCAD 2000
 90
        0
280
     0
281
     1
  0
CLASS
  1
XRECORD
  2
AcDbXrecord
  3
AutoCAD 2000
 90
        0
280
     0
281
     0
  0
CLASS
  1
LONG_TRANSACTION
  2
AcDbLongTransaction
  3
AutoCAD 2000
 90
        0
280
     0
281
     0
  0
CLASS
  1
LWPOLYLINE
  2
AcDbPolyline
  3
AutoCAD 2000
 90
        0
280
     0
281
     1
  0
CLASS
  1
HATCH
  2
AcDbHatch
  3
AutoCAD 2000
 90
        0
280
     0
281
     1
  0
CLASS
  1
XRECORD
  2
AcDbXrecord
  3
AutoCAD 2000
 90
        0
280
     0
281
     0
  0
CLASS
  1
LONG_TRANSACTION
  2
AcDbLongTransaction
  3
AutoCAD 2000
 90
        0
280
     0
281
     0
  0
CLASS
  1
LWPOLYLINE
  2
AcDbPolyline
  3
AutoCAD 2000
 90
        0
280
     0
281
     1
  0
CLASS
  1
HATCH
  2
AcDbHatch
  3
AutoCAD 2000
 90
        0
280
     0
281
     1
  0
CLASS
  1
XRECORD
  2
AcDbXrecord
  3
AutoCAD 2000
 90
        0
280
     0
281
     0
  0
CLASS
  1
LONG_TRANSACTION
  2
AcDbLongTransaction
  3
AutoCAD 2000
 90
        0
280
     0
281
     0
  0
CLASS
  1
LWPOLYLINE
  2
AcDbPolyline
  3
AutoCAD 2000
 90
        0
280
     0
281
     1
  0
CLASS
  1
HATCH
  2
AcDbHatch
  3
AutoCAD 2000
 90
        0
280
     0
281
     1
  0
CLASS
  1
XRECORD
  2
AcDbXrecord
  3
AutoCAD 2000
 90
        0
280
     0
281
     0
  0
CLASS
  1
LONG_TRANSACTION
  2
AcDbLongTransaction
  3
AutoCAD 2000
 90
        0
280
     0
281
     0
  0
CLASS
  1
LWPOLYLINE
  2
AcDbPolyline
  3
AutoCAD 2000
 90
        0
280
     0
281
     1
  0
CLASS
  1
HATCH
  2
AcDbHatch
  3
AutoCAD 2000
 90
        0
280
     0
281
     1
  0
CLASS
  1
XRECORD
  2
AcDbXrecord
  3
AutoCAD 2000
 90
        0
280
     0
281
     0
  0
CLASS
  1
LONG_TRANSACTION
  2
AcDbLongTransaction
  3
AutoCAD 2000
 90
        0
280
     0
281
     0
  0
CLASS
  1
LWPOLYLINE
  2
AcDbPolyline
  3
AutoCAD 2000
 90
        0
280
     0
281
     1
  0
CLASS
  1
HATCH
  2
AcDbHatch
  3
AutoCAD 2000
 90
        0
280
     0
281
     1
  0
CLASS
  1
XRECORD
  2
AcDbXrecord
  3
AutoCAD 2000
 90
        0
280
     0
281
     0
  0
CLASS
  1
LONG_TRANSACTION
  2
AcDbLongTransaction
  3
AutoCAD 2000
 90
        0
280
     0
281
     0
  0
CLASS
  1
LWPOLYLINE
  2
AcDbPolyline
  3
AutoCAD 2000
 90
        0
280
     0
281
     1
  0
CLASS
  1
HATCH
  2
AcDbHatch
  3
AutoCAD 2000
 90
        0
280
     0
281
     1
  0
CLASS
  1
XRECORD
  2
AcDbXrecord
  3
AutoCAD 2000
 90
        0
280
     0
281
     0
  0
ENDSEC
  0
SECTION
  2
TABLES
  0
TABLE
  2
VPORT
  5
8
330
0
100
AcDbSymbolTable
 70
     2
  0
VPORT
  5
3F90
330
8
100
AcDbSymbolTableRecord
100
AcDbViewportTableRecord
  2
*ACTIVE
 70
     0
 10
0.0
 20
0.0
 11
1.0
 21
1.0
 12
234.1038192120353
 22
143.310058015942
 13
0.0
 23
0.0
 14
5.0
 24
5.0
 15
0.0
 25
0.0
 16
0.0
 26
0.0
 36
1.0
 17
0.0
 27
0.0
 37
0.0
 40
312.2728286522177
 41
1.795454545454545
 42
50.0
 43
0.0
 44
0.0
 50
0.0
 51
0.0
 71
     0
 72
   100
 73
     1
 74
     0
 75
     0
 76
     0
 77
     0
 78
     0
  0
ENDTAB
  0
TABLE
  2
LTYPE
  5
5
330
0
100
AcDbSymbolTable
 70
     3
  0
LTYPE
  5
14
330
5
100
AcDbSymbolTableRecord
100
AcDbLinetypeTableRecord
  2
BYBLOCK
 70
     0
  3

 72
    65
 73
     0
 40
0.0
  0
LTYPE
  5
15
330
5
100
AcDbSymbolTableRecord
100
AcDbLinetypeTableRecord
  2
BYLAYER
 70
     0
  3

 72
    65
 73
     0
 40
0.0
  0
LTYPE
  5
16
330
5
100
AcDbSymbolTableRecord
100
AcDbLinetypeTableRecord
  2
CONTINUOUS
 70
     0
  3
Solid line
 72
    65
 73
     0
 40
0.0
  0
LTYPE
  5
120
330
5
100
AcDbSymbolTableRecord
100
AcDbLinetypeTableRecord
  2
CENTER
 70
     0
  3
____ _ ____ _ ____ _ ____ _ ____ _ ____ _ ____ 
 72
    65
 73
     4
 40
2.0
 49
1.25
 74
     0
 49
-0.25
 74
     0
 49
0.25
 74
     0
 49
-0.25
 74
     0
  0
LTYPE
  5
122
330
5
100
AcDbSymbolTableRecord
100
AcDbLinetypeTableRecord
  2
PHANTOM
 70
     0
  3
______  __  __  ______  __  __  ______  __  __ 
 72
    65
 73
     6
 40
2.5
 49
1.25
 74
     0
 49
-0.25
 74
     0
 49
0.25
 74
     0
 49
-0.25
 74
     0
 49
0.25
 74
     0
 49
-0.25
 74
     0
  0
ENDTAB
  0
TABLE
  2
LAYER
  5
2
330
0
100
AcDbSymbolTable
 70
     9
  0
LAYER
  5
F
330
2
100
AcDbSymbolTableRecord
100
AcDbLayerTableRecord
  2
0
 70
     0
 62
     7
  6
CONTINUOUS
  0
LAYER
  5
62
330
2
100
AcDbSymbolTableRecord
100
AcDbLayerTableRecord
  2
VIEWPORT
 70
     0
 62
     7
  6
CONTINUOUS
  0
LAYER
  5
6B
330
2
100
AcDbSymbolTableRecord
100
AcDbLayerTableRecord
  2
ZUWAKU
 70
     0
 62
     7
  6
CONTINUOUS
  0
LAYER
  5
3EF
330
2
100
AcDbSymbolTableRecord
100
AcDbLayerTableRecord
  2
DEFPOINTS
 70
     0
 62
     7
  6
CONTINUOUS
  0
LAYER
  5
54D
330
2
100
AcDbSymbolTableRecord
100
AcDbLayerTableRecord
  2
SEIHIN
 70
     0
 62
     3
  6
CONTINUOUS
  0
LAYER
  5
54E
330
2
100
AcDbSymbolTableRecord
100
AcDbLayerTableRecord
  2
SUNPOU
 70
     0
 62
     4
  6
CONTINUOUS
  0
LAYER
  5
54F
330
2
100
AcDbSymbolTableRecord
100
AcDbLayerTableRecord
  2
CENTER_L
 70
     0
 62
     1
  6
CENTER
  0
LAYER
  5
550
330
2
100
AcDbSymbolTableRecord
100
AcDbLayerTableRecord
  2
NOKITOI
 70
     0
 62
     8
  6
PHANTOM
  0
LAYER
  5
3DAB
330
2
100
AcDbSymbolTableRecord
100
AcDbLayerTableRecord
  2
MOJI
 70
     0
 62
     2
  6
CONTINUOUS
  0
ENDTAB
  0
TABLE
  2
STYLE
  5
3
330
0
100
AcDbSymbolTable
 70
     2
  0
STYLE
  5
10
330
3
100
AcDbSymbolTableRecord
100
AcDbTextStyleTableRecord
  2
STANDARD
 70
     0
 40
0.0
 41
1.0
 50
0.0
 71
     0
 42
3.0
  3
TXT
  4
c:\PROGRAM FILES\AUTOCAD LT\ms\bigfont.shx
  0
STYLE
  5
3DAC
330
3
100
AcDbSymbolTableRecord
100
AcDbTextStyleTableRecord
  2
ｽﾀｲﾙ1
 70
     0
 40
0.0
 41
1.0
 50
0.0
 71
     0
 42
2.5
  3
MS PGothic.ttf
  4

1001
ACAD
1000
MS PGothic
1071
    32818
  0
ENDTAB
  0
TABLE
  2
VIEW
  5
6
330
0
100
AcDbSymbolTable
 70
     0
  0
ENDTAB
  0
TABLE
  2
UCS
  5
7
330
0
100
AcDbSymbolTable
 70
     0
  0
ENDTAB
  0
TABLE
  2
APPID
  5
9
330
0
100
AcDbSymbolTable
 70
     1
  0
APPID
  5
11
330
9
100
AcDbSymbolTableRecord
100
AcDbRegAppTableRecord
  2
ACAD
 70
     0
  0
ENDTAB
  0
TABLE
  2
DIMSTYLE
  5
A
330
0
100
AcDbSymbolTable
 70
     1
  0
DIMSTYLE
105
1D
102
{ACAD_REACTORS
330
2073
330
39FF
330
39FE
330
3A07
330
3A06
330
3A15
330
3A05
330
3C2E
330
3C3B
330
3C48
330
3C55
330
3C62
102
}
330
A
100
AcDbSymbolTableRecord
100
AcDbDimStyleTableRecord
  2
STANDARD
 70
     0
  3

  4

  5

  6

  7

 40
1.0
 41
0.18
 42
0.0625
 43
0.38
 44
0.18
 45
0.0
 46
0.0
 47
0.0
 48
0.0
140
0.18
141
0.09
142
0.0
143
25.4
144
1.0
145
0.0
146
1.0
147
0.09
 71
     0
 72
     0
 73
     1
 74
     1
 75
     0
 76
     0
 77
     0
 78
     0
170
     0
171
     2
172
     0
173
     0
174
     0
175
     0
176
     0
177
     0
178
     0
270
     2
271
     4
272
     4
273
     2
274
     2
340
10
275
     0
280
     0
281
     0
282
     0
283
     1
284
     0
285
     0
286
     0
287
     3
288
     0
  0
ENDTAB
  0
TABLE
  2
BLOCK_RECORD
  5
1
330
0
100
AcDbSymbolTable
 70
    13
  0
BLOCK_RECORD
  5
1A
102
{ACAD_XDICTIONARY
360
7A2
102
}
330
1
100
AcDbSymbolTableRecord
100
AcDbBlockTableRecord
  2
*MODEL_SPACE
  0
BLOCK_RECORD
  5
17
102
{ACAD_XDICTIONARY
360
7A0
102
}
330
1
100
AcDbSymbolTableRecord
100
AcDbBlockTableRecord
  2
*PAPER_SPACE
  0
BLOCK_RECORD
  5
B2
330
1
100
AcDbSymbolTableRecord
100
AcDbBlockTableRecord
  2
_OPEN
  0
BLOCK_RECORD
  5
2074
330
1
100
AcDbSymbolTableRecord
100
AcDbBlockTableRecord
  2
*D1
  0
BLOCK_RECORD
  5
3A38
330
1
100
AcDbSymbolTableRecord
100
AcDbBlockTableRecord
  2
*D2
  0
BLOCK_RECORD
  5
3A44
330
1
100
AcDbSymbolTableRecord
100
AcDbBlockTableRecord
  2
*D3
  0
BLOCK_RECORD
  5
3A50
330
1
100
AcDbSymbolTableRecord
100
AcDbBlockTableRecord
  2
*D4
  0
BLOCK_RECORD
  5
3A5C
330
1
100
AcDbSymbolTableRecord
100
AcDbBlockTableRecord
  2
*D5
  0
BLOCK_RECORD
  5
3A68
330
1
100
AcDbSymbolTableRecord
100
AcDbBlockTableRecord
  2
*D6
  0
BLOCK_RECORD
  5
3A74
330
1
100
AcDbSymbolTableRecord
100
AcDbBlockTableRecord
  2
*D7
  0
BLOCK_RECORD
  5
3C2F
330
1
100
AcDbSymbolTableRecord
100
AcDbBlockTableRecord
  2
*D8
  0
BLOCK_RECORD
  5
3C3C
330
1
100
AcDbSymbolTableRecord
100
AcDbBlockTableRecord
  2
*D9
  0
BLOCK_RECORD
  5
3C49
330
1
100
AcDbSymbolTableRecord
100
AcDbBlockTableRecord
  2
*D10
  0
BLOCK_RECORD
  5
3C56
330
1
100
AcDbSymbolTableRecord
100
AcDbBlockTableRecord
  2
*D11
  0
BLOCK_RECORD
  5
3C63
330
1
100
AcDbSymbolTableRecord
100
AcDbBlockTableRecord
  2
*D12
  0
ENDTAB
  0
ENDSEC
  0
SECTION
  2
BLOCKS
  0
BLOCK
  5
1B
330
1A
100
AcDbEntity
  8
0
100
AcDbBlockBegin
  2
*MODEL_SPACE
 70
     0
 10
0.0
 20
0.0
 30
0.0
  3
*MODEL_SPACE
  1

  0
ENDBLK
  5
1C
330
1A
100
AcDbEntity
  8
0
100
AcDbBlockEnd
  0
BLOCK
  5
18
330
17
100
AcDbEntity
 67
     1
  8
0
100
AcDbBlockBegin
  2
*PAPER_SPACE
 70
     0
 10
0.0
 20
0.0
 30
0.0
  3
*PAPER_SPACE
  1

  0
ENDBLK
  5
19
330
17
100
AcDbEntity
 67
     1
  8
0
100
AcDbBlockEnd
  0
BLOCK
  5
B3
330
B2
100
AcDbEntity
  8
0
100
AcDbBlockBegin
  2
_OPEN
 70
     0
 10
0.0
 20
0.0
 30
0.0
  3
_OPEN
  1

  0
LINE
  5
B4
330
B2
100
AcDbEntity
  8
0
  6
BYBLOCK
 62
     0
100
AcDbLine
 10
-1.0
 20
0.1666666666666666
 30
0.0
 11
0.0
 21
0.0
 31
0.0
  0
LINE
  5
B5
330
B2
100
AcDbEntity
  8
0
  6
BYBLOCK
 62
     0
100
AcDbLine
 10
0.0
 20
0.0
 30
0.0
 11
-1.0
 21
-0.1666666666666666
 31
0.0
  0
LINE
  5
B6
330
B2
100
AcDbEntity
  8
0
  6
BYBLOCK
 62
     0
100
AcDbLine
 10
0.0
 20
0.0
 30
0.0
 11
-1.0
 21
0.0
 31
0.0
  0
ENDBLK
  5
B7
330
B2
100
AcDbEntity
  8
0
100
AcDbBlockEnd
  0
BLOCK
  5
207E
330
2074
100
AcDbEntity
  8
0
100
AcDbBlockBegin
  2
*D1
 70
     1
 10
0.0
 20
0.0
 30
0.0
  3
*D1
  1

  0
LINE
  5
3F37
330
2074
100
AcDbEntity
  8
SUNPOU
100
AcDbLine
 10
49.42106095064883
 20
238.2223041816491
 30
0.0
 11
24.09024818231116
 21
238.2223041816491
 31
0.0
  0
LINE
  5
3F38
330
2074
100
AcDbEntity
  8
SUNPOU
100
AcDbLine
 10
49.42106095064883
 20
218.2223041816491
 30
0.0
 11
24.09024818231115
 21
218.2223041816491
 31
0.0
  0
LINE
  5
3F39
330
2074
100
AcDbEntity
  8
SUNPOU
100
AcDbLine
 10
25.59024818231116
 20
235.2223041816491
 30
0.0
 11
25.59024818231115
 21
221.2223041816491
 31
0.0
  0
INSERT
  5
3F3A
330
2074
100
AcDbEntity
  8
SUNPOU
100
AcDbBlockReference
  2
_OPEN
 10
25.59024818231116
 20
238.2223041816491
 30
0.0
 41
3.0
 42
3.0
 43
3.0
 50
90.0
  0
INSERT
  5
3F3B
330
2074
100
AcDbEntity
  8
SUNPOU
100
AcDbBlockReference
  2
_OPEN
 10
25.59024818231115
 20
218.2223041816491
 30
0.0
 41
3.0
 42
3.0
 43
3.0
 50
270.0
  0
MTEXT
  5
3F3C
330
2074
100
AcDbEntity
  8
SUNPOU
100
AcDbMText
 10
23.09024818231112
 20
228.2223041816491
 30
0.0
 40
3.0
 41
0.0
 71
     5
 72
     1
  1
\A1;20
 11
0.0000000000000001
 21
1.0
 31
0.0
1001
ACAD
1000
MTEXTBEGIN
1070
    73
1070
     1
1070
    44
1040
1.0
1070
    74
1070
     0
1000
MTEXTEND
  0
POINT
  5
3F3D
330
2074
100
AcDbEntity
  8
DEFPOINTS
 62
     0
100
AcDbPoint
 10
52.42106095064883
 20
238.2223041816491
 30
0.0
  0
POINT
  5
3F3E
330
2074
100
AcDbEntity
  8
DEFPOINTS
 62
     0
100
AcDbPoint
 10
52.42106095064883
 20
218.2223041816491
 30
0.0
  0
POINT
  5
3F3F
330
2074
100
AcDbEntity
  8
DEFPOINTS
 62
     0
100
AcDbPoint
 10
25.59024818231115
 20
218.2223041816491
 30
0.0
  0
ENDBLK
  5
207F
330
2074
100
AcDbEntity
  8
0
100
AcDbBlockEnd
  0
BLOCK
  5
3A42
330
3A38
100
AcDbEntity
  8
0
100
AcDbBlockBegin
  2
*D2
 70
     1
 10
0.0
 20
0.0
 30
0.0
  3
*D2
  1

  0
LINE
  5
3F64
330
3A38
100
AcDbEntity
  8
SUNPOU
100
AcDbLine
 10
319.6943109380486
 20
175.3517794293638
 30
0.0
 11
304.0672765258213
 21
214.4201751878885
 31
0.0
  0
LINE
  5
3F65
330
3A38
100
AcDbEntity
  8
SUNPOU
100
AcDbLine
 10
377.2600303372266
 20
198.3775899483251
 30
0.0
 11
361.6329959249993
 21
237.4459857068497
 31
0.0
  0
LINE
  5
3F66
330
3A38
100
AcDbEntity
  8
SUNPOU
100
AcDbLine
 10
307.409790622208
 20
214.1416082920516
 30
0.0
 11
359.4046339504978
 21
234.9391145672424
 31
0.0
  0
INSERT
  5
3F67
330
3A38
100
AcDbEntity
  8
SUNPOU
100
AcDbBlockReference
  2
_OPEN
 10
304.6243525867638
 20
213.0274561701664
 30
0.0
 41
3.0
 42
3.0
 43
3.0
 50
201.8009999999998
  0
INSERT
  5
3F68
330
3A38
100
AcDbEntity
  8
SUNPOU
100
AcDbBlockReference
  2
_OPEN
 10
362.1900719859419
 20
236.0532666891276
 30
0.0
 41
3.0
 42
3.0
 43
3.0
 50
21.80099999999984
  0
MTEXT
  5
3F69
330
3A38
100
AcDbEntity
  8
SUNPOU
100
AcDbMText
 10
332.4787521847819
 20
226.8615597925172
 30
0.0
 40
3.0
 41
0.0
 71
     5
 72
     1
  1
\A1;62
 11
0.9284793451480322
 21
0.3713840406284063
 31
0.0
1001
ACAD
1000
MTEXTBEGIN
1070
    73
1070
     1
1070
    44
1040
1.0
1070
    74
1070
     0
1000
MTEXTEND
  0
POINT
  5
3F6A
330
3A38
100
AcDbEntity
  8
DEFPOINTS
 62
     0
100
AcDbPoint
 10
320.8084630599338
 20
172.5663413939197
 30
0.0
  0
POINT
  5
3F6B
330
3A38
100
AcDbEntity
  8
DEFPOINTS
 62
     0
100
AcDbPoint
 10
378.3741824591118
 20
195.592151912881
 30
0.0
  0
POINT
  5
3F6C
330
3A38
100
AcDbEntity
  8
DEFPOINTS
 62
     0
100
AcDbPoint
 10
362.1900719859419
 20
236.0532666891276
 30
0.0
  0
ENDBLK
  5
3A43
330
3A38
100
AcDbEntity
  8
0
100
AcDbBlockEnd
  0
BLOCK
  5
3A4E
330
3A44
100
AcDbEntity
  8
0
100
AcDbBlockBegin
  2
*D3
 70
     1
 10
0.0
 20
0.0
 30
0.0
  3
*D3
  1

  0
LINE
  5
3F6D
330
3A44
100
AcDbEntity
  8
SUNPOU
100
AcDbLine
 10
327.6421025996896
 20
179.7155630746823
 30
0.0
 11
316.2653938917922
 21
208.1579243381742
 31
0.0
  0
LINE
  5
3F6E
330
3A44
100
AcDbEntity
  8
SUNPOU
100
AcDbLine
 10
368.4951937862029
 20
196.0564608623323
 30
0.0
 11
357.1184850783055
 21
224.4988221258241
 31
0.0
  0
LINE
  5
3F6F
330
3A44
100
AcDbEntity
  8
SUNPOU
100
AcDbLine
 10
319.6079079881789
 20
207.8793574423374
 30
0.0
 11
354.8901231038041
 21
221.9919509862168
 31
0.0
  0
INSERT
  5
3F70
330
3A44
100
AcDbEntity
  8
SUNPOU
100
AcDbBlockReference
  2
_OPEN
 10
316.8224699527348
 20
206.7652053204521
 30
0.0
 41
3.0
 42
3.0
 43
3.0
 50
201.8009999999998
  0
INSERT
  5
3F71
330
3A44
100
AcDbEntity
  8
SUNPOU
100
AcDbBlockReference
  2
_OPEN
 10
357.6755611392481
 20
223.106103108102
 30
0.0
 41
3.0
 42
3.0
 43
3.0
 50
21.80099999999984
  0
MTEXT
  5
3F72
330
3A44
100
AcDbEntity
  8
SUNPOU
100
AcDbMText
 10
336.3205554444204
 20
217.2568525771472
 30
0.0
 40
3.0
 41
0.0
 71
     5
 72
     1
  1
\A1;44
 11
0.9284793451480322
 21
0.3713840406284063
 31
0.0
1001
ACAD
1000
MTEXTBEGIN
1070
    73
1070
     1
1070
    44
1040
1.0
1070
    74
1070
     0
1000
MTEXTEND
  0
POINT
  5
3F73
330
3A44
100
AcDbEntity
  8
DEFPOINTS
 62
     0
100
AcDbPoint
 10
328.7562547215748
 20
176.9301250392382
 30
0.0
  0
POINT
  5
3F74
330
3A44
100
AcDbEntity
  8
DEFPOINTS
 62
     0
100
AcDbPoint
 10
369.6093459080881
 20
193.2710228268882
 30
0.0
  0
POINT
  5
3F75
330
3A44
100
AcDbEntity
  8
DEFPOINTS
 62
     0
100
AcDbPoint
 10
357.6755611392481
 20
223.106103108102
 30
0.0
  0
ENDBLK
  5
3A4F
330
3A44
100
AcDbEntity
  8
0
100
AcDbBlockEnd
  0
BLOCK
  5
3A5A
330
3A50
100
AcDbEntity
  8
0
100
AcDbBlockBegin
  2
*D4
 70
     1
 10
0.0
 20
0.0
 30
0.0
  3
*D4
  1

  0
LINE
  5
3F52
330
3A50
100
AcDbEntity
  8
SUNPOU
100
AcDbLine
 10
319.6943109380486
 20
175.3517794293637
 30
0.0
 11
295.7985980979145
 21
165.7936923974435
 31
0.0
  0
LINE
  5
3F53
330
3A50
100
AcDbEntity
  8
SUNPOU
100
AcDbLine
 10
332.6927523600429
 20
142.8550023491827
 30
0.0
 11
308.7970395199089
 21
133.2969153172624
 31
0.0
  0
LINE
  5
3F54
330
3A50
100
AcDbEntity
  8
SUNPOU
100
AcDbLine
 10
298.3054692375218
 20
163.565330422942
 30
0.0
 11
309.0756064157457
 21
136.6394294136491
 31
0.0
  0
INSERT
  5
3F55
330
3A50
100
AcDbEntity
  8
SUNPOU
100
AcDbBlockReference
  2
_OPEN
 10
297.1913171156365
 20
166.3507684583861
 30
0.0
 41
3.0
 42
3.0
 43
3.0
 50
111.8010000000002
  0
INSERT
  5
3F56
330
3A50
100
AcDbEntity
  8
SUNPOU
100
AcDbBlockReference
  2
_OPEN
 10
310.189758537631
 20
133.853991378205
 30
0.0
 41
3.0
 42
3.0
 43
3.0
 50
291.8010000000002
  0
MTEXT
  5
3F57
330
3A50
100
AcDbEntity
  8
SUNPOU
100
AcDbMText
 10
306.0117361895038
 20
151.0308400198666
 30
0.0
 40
3.0
 41
0.0
 71
     5
 72
     1
  1
\A1;35
 11
0.3713840406284128
 21
-0.9284793451480293
 31
0.0
1001
ACAD
1000
MTEXTBEGIN
1070
    73
1070
     1
1070
    44
1040
1.0
1070
    74
1070
     0
1000
MTEXTEND
  0
POINT
  5
3F58
330
3A50
100
AcDbEntity
  8
DEFPOINTS
 62
     0
100
AcDbPoint
 10
322.4797489734927
 20
176.465931551249
 30
0.0
  0
POINT
  5
3F59
330
3A50
100
AcDbEntity
  8
DEFPOINTS
 62
     0
100
AcDbPoint
 10
335.478190395487
 20
143.9691544710679
 30
0.0
  0
POINT
  5
3F5A
330
3A50
100
AcDbEntity
  8
DEFPOINTS
 62
     0
100
AcDbPoint
 10
310.189758537631
 20
133.853991378205
 30
0.0
  0
ENDBLK
  5
3A5B
330
3A50
100
AcDbEntity
  8
0
100
AcDbBlockEnd
  0
BLOCK
  5
3A66
330
3A5C
100
AcDbEntity
  8
0
100
AcDbBlockBegin
  2
*D5
 70
     1
 10
0.0
 20
0.0
 30
0.0
  3
*D5
  1

  0
LINE
  5
3F5B
330
3A5C
100
AcDbEntity
  8
SUNPOU
100
AcDbLine
 10
299.0405700035527
 20
167.090454282575
 30
0.0
 11
317.1937287773064
 21
174.3515672958008
 31
0.0
  0
LINE
  5
3F5C
330
3A5C
100
AcDbEntity
  8
SUNPOU
100
AcDbLine
 10
312.039011425547
 20
134.5936772023939
 30
0.0
 11
330.1921701993008
 21
141.8547902156197
 31
0.0
  0
LINE
  5
3F5D
330
3A5C
100
AcDbEntity
  8
SUNPOU
100
AcDbLine
 10
316.9151618814696
 20
171.0090531994141
 30
0.0
 11
327.6852990596935
 21
144.0831521901212
 31
0.0
  0
INSERT
  5
3F5E
330
3A5C
100
AcDbEntity
  8
SUNPOU
100
AcDbBlockReference
  2
_OPEN
 10
315.8010097595843
 20
173.7944912348582
 30
0.0
 41
3.0
 42
3.0
 43
3.0
 50
111.8010000000002
  0
INSERT
  5
3F5F
330
3A5C
100
AcDbEntity
  8
SUNPOU
100
AcDbBlockReference
  2
_OPEN
 10
328.7994511815787
 20
141.2977141546771
 30
0.0
 41
3.0
 42
3.0
 43
3.0
 50
291.8010000000002
  0
MTEXT
  5
3F60
330
3A5C
100
AcDbEntity
  8
SUNPOU
100
AcDbMText
 10
324.6214288334516
 20
158.4745627963387
 30
0.0
 40
3.0
 41
0.0
 71
     5
 72
     1
  1
\A1;35
 11
0.3713840406284128
 21
-0.9284793451480293
 31
0.0
1001
ACAD
1000
MTEXTBEGIN
1070
    73
1070
     1
1070
    44
1040
1.0
1070
    74
1070
     0
1000
MTEXTEND
  0
POINT
  5
3F61
330
3A5C
100
AcDbEntity
  8
DEFPOINTS
 62
     0
100
AcDbPoint
 10
296.2551319681086
 20
165.9763021606897
 30
0.0
  0
POINT
  5
3F62
330
3A5C
100
AcDbEntity
  8
DEFPOINTS
 62
     0
100
AcDbPoint
 10
309.2535733901029
 20
133.4795250805087
 30
0.0
  0
POINT
  5
3F63
330
3A5C
100
AcDbEntity
  8
DEFPOINTS
 62
     0
100
AcDbPoint
 10
328.7994511815787
 20
141.2977141546771
 30
0.0
  0
ENDBLK
  5
3A67
330
3A5C
100
AcDbEntity
  8
0
100
AcDbBlockEnd
  0
BLOCK
  5
3A72
330
3A68
100
AcDbEntity
  8
0
100
AcDbBlockBegin
  2
*D6
 70
     1
 10
0.0
 20
0.0
 30
0.0
  3
*D6
  1

  0
LINE
  5
3F49
330
3A68
100
AcDbEntity
  8
SUNPOU
100
AcDbLine
 10
329.6288321005007
 20
150.2456987063041
 30
0.0
 11
315.1278251939464
 21
144.4454161622934
 31
0.0
  0
LINE
  5
3F4A
330
3A68
100
AcDbEntity
  8
SUNPOU
100
AcDbLine
 10
332.6927523600429
 20
142.8550023491827
 30
0.0
 11
318.0988975189737
 21
137.0175814011091
 31
0.0
  0
LINE
  5
3F4B
330
3A68
100
AcDbEntity
  8
SUNPOU
100
AcDbLine
 10
317.6346963335538
 20
142.2170541877919
 30
0.0
 11
318.3774644148106
 21
140.3600954974958
 31
0.0
  0
INSERT
  5
3F4C
330
3A68
100
AcDbEntity
  8
SUNPOU
100
AcDbBlockReference
  2
_OPEN
 10
316.5205442116685
 20
145.002492223236
 30
0.0
 41
3.0
 42
3.0
 43
3.0
 50
111.8010000000002
  0
INSERT
  5
3F4D
330
3A68
100
AcDbEntity
  8
SUNPOU
100
AcDbBlockReference
  2
_OPEN
 10
319.4916165366958
 20
137.5746574620517
 30
0.0
 41
3.0
 42
3.0
 43
3.0
 50
291.8010000000002
  0
MTEXT
  5
3F4E
330
3A68
100
AcDbEntity
  8
SUNPOU
100
AcDbMText
 10
320.3272787370522
 20
142.2170349442149
 30
0.0
 40
3.0
 41
0.0
 71
     5
 72
     1
  1
\A1;8
 11
0.3713840406284128
 21
-0.9284793451480293
 31
0.0
1001
ACAD
1000
MTEXTBEGIN
1070
    73
1070
     1
1070
    44
1040
1.0
1070
    74
1070
     0
1000
MTEXTEND
  0
POINT
  5
3F4F
330
3A68
100
AcDbEntity
  8
DEFPOINTS
 62
     0
100
AcDbPoint
 10
332.4142701359448
 20
151.3598508281893
 30
0.0
  0
POINT
  5
3F50
330
3A68
100
AcDbEntity
  8
DEFPOINTS
 62
     0
100
AcDbPoint
 10
335.478190395487
 20
143.9691544710679
 30
0.0
  0
POINT
  5
3F51
330
3A68
100
AcDbEntity
  8
DEFPOINTS
 62
     0
100
AcDbPoint
 10
319.4916165366958
 20
137.5746574620517
 30
0.0
  0
ENDBLK
  5
3A73
330
3A68
100
AcDbEntity
  8
0
100
AcDbBlockEnd
  0
BLOCK
  5
3A80
330
3A74
100
AcDbEntity
  8
0
100
AcDbBlockBegin
  2
*D7
 70
     1
 10
0.0
 20
0.0
 30
0.0
  3
*D7
  1

  0
LINE
  5
3F7F
330
3A74
100
AcDbEntity
  8
SUNPOU
100
AcDbLine
 10
319.6943109380486
 20
175.3517794293637
 30
0.0
 11
305.1004560969793
 21
169.5143584812901
 31
0.0
  0
LINE
  5
3F80
330
3A74
100
AcDbEntity
  8
SUNPOU
100
AcDbLine
 10
322.5725353285609
 20
167.8868062641166
 30
0.0
 11
308.0715284220065
 21
162.0865237201059
 31
0.0
  0
LINE
  5
3F81
330
3A74
100
AcDbEntity
  8
SUNPOU
100
AcDbLine
 10
305.3790229928161
 20
172.8568725776768
 30
0.0
 11
304.2648708709309
 21
175.6423106131209
 31
0.0
  0
LINE
  5
3F82
330
3A74
100
AcDbEntity
  8
SUNPOU
100
AcDbLine
 10
310.5783995616139
 20
159.8581617456044
 30
0.0
 11
311.6925516834991
 21
157.0727237101603
 31
0.0
  0
LINE
  5
3F83
330
3A74
100
AcDbEntity
  8
SUNPOU
100
AcDbLine
 10
306.4931751147013
 20
170.0714345422327
 30
0.0
 11
309.4642474397286
 21
162.6435997810485
 31
0.0
  0
INSERT
  5
3F84
330
3A74
100
AcDbEntity
  8
SUNPOU
100
AcDbBlockReference
  2
_OPEN
 10
306.4931751147013
 20
170.0714345422327
 30
0.0
 41
3.0
 42
3.0
 43
3.0
 50
291.8010000000002
  0
INSERT
  5
3F85
330
3A74
100
AcDbEntity
  8
SUNPOU
100
AcDbBlockReference
  2
_OPEN
 10
309.4642474397286
 20
162.6435997810485
 30
0.0
 41
3.0
 42
3.0
 43
3.0
 50
111.8010000000002
  0
MTEXT
  5
3F86
330
3A74
100
AcDbEntity
  8
SUNPOU
100
AcDbMText
 10
310.299909640085
 20
167.2859772632116
 30
0.0
 40
3.0
 41
0.0
 71
     5
 72
     1
  1
\A1;8
 11
0.3713840406284128
 21
-0.9284793451480293
 31
0.0
1001
ACAD
1000
MTEXTBEGIN
1070
    73
1070
     1
1070
    44
1040
1.0
1070
    74
1070
     0
1000
MTEXTEND
  0
POINT
  5
3F87
330
3A74
100
AcDbEntity
  8
DEFPOINTS
 62
     0
100
AcDbPoint
 10
322.4797489734927
 20
176.465931551249
 30
0.0
  0
POINT
  5
3F88
330
3A74
100
AcDbEntity
  8
DEFPOINTS
 62
     0
100
AcDbPoint
 10
325.357973364005
 20
169.0009583860019
 30
0.0
  0
POINT
  5
3F89
330
3A74
100
AcDbEntity
  8
DEFPOINTS
 62
     0
100
AcDbPoint
 10
309.4642474397286
 20
162.6435997810485
 30
0.0
  0
ENDBLK
  5
3A81
330
3A74
100
AcDbEntity
  8
0
100
AcDbBlockEnd
  0
BLOCK
  5
3C39
330
3C2F
100
AcDbEntity
  8
0
100
AcDbBlockBegin
  2
*D8
 70
     1
 10
0.0
 20
0.0
 30
0.0
  3
*D8
  1

  0
LINE
  5
3F2E
330
3C2F
100
AcDbEntity
  8
SUNPOU
100
AcDbLine
 10
52.42106095064883
 20
84.99338484380825
 30
0.0
 11
52.42106095064884
 21
180.8811918073673
 31
0.0
  0
LINE
  5
3F2F
330
3C2F
100
AcDbEntity
  8
SUNPOU
100
AcDbLine
 10
246.422079427593
 20
106.0233882438082
 30
0.0
 11
246.422079427593
 21
180.8811918073673
 31
0.0
  0
LINE
  5
3F30
330
3C2F
100
AcDbEntity
  8
SUNPOU
100
AcDbLine
 10
55.42106095064884
 20
179.3811918073673
 30
0.0
 11
243.422079427593
 21
179.3811918073673
 31
0.0
  0
INSERT
  5
3F31
330
3C2F
100
AcDbEntity
  8
SUNPOU
100
AcDbBlockReference
  2
_OPEN
 10
52.42106095064884
 20
179.3811918073673
 30
0.0
 41
3.0
 42
3.0
 43
3.0
 50
180.0
  0
INSERT
  5
3F32
330
3C2F
100
AcDbEntity
  8
SUNPOU
100
AcDbBlockReference
  2
_OPEN
 10
246.422079427593
 20
179.3811918073673
 30
0.0
 41
3.0
 42
3.0
 43
3.0
  0
MTEXT
  5
3F33
330
3C2F
100
AcDbEntity
  8
SUNPOU
100
AcDbMText
 10
149.4215701891209
 20
181.8811918073673
 30
0.0
 40
3.0
 41
0.0
 71
     5
 72
     1
  1
\A1;194
1001
ACAD
1000
MTEXTBEGIN
1070
    73
1070
     1
1070
    44
1040
1.0
1070
    74
1070
     0
1000
MTEXTEND
  0
POINT
  5
3F34
330
3C2F
100
AcDbEntity
  8
DEFPOINTS
 62
     0
100
AcDbPoint
 10
52.42106095064883
 20
81.99338484380824
 30
0.0
  0
POINT
  5
3F35
330
3C2F
100
AcDbEntity
  8
DEFPOINTS
 62
     0
100
AcDbPoint
 10
246.422079427593
 20
103.0233882438082
 30
0.0
  0
POINT
  5
3F36
330
3C2F
100
AcDbEntity
  8
DEFPOINTS
 62
     0
100
AcDbPoint
 10
246.422079427593
 20
179.3811918073673
 30
0.0
  0
ENDBLK
  5
3C3A
330
3C2F
100
AcDbEntity
  8
0
100
AcDbBlockEnd
  0
BLOCK
  5
3C46
330
3C3C
100
AcDbEntity
  8
0
100
AcDbBlockBegin
  2
*D9
 70
     1
 10
0.0
 20
0.0
 30
0.0
  3
*D9
  1

  0
LINE
  5
3F25
330
3C3C
100
AcDbEntity
  8
SUNPOU
100
AcDbLine
 10
229.4172524506488
 20
140.4416795438082
 30
0.0
 11
24.09024818231114
 21
140.4416795438083
 31
0.0
  0
LINE
  5
3F26
330
3C3C
100
AcDbEntity
  8
SUNPOU
100
AcDbLine
 10
49.42106095064883
 20
81.99338484380824
 30
0.0
 11
24.09024818231113
 21
81.99338484380826
 31
0.0
  0
LINE
  5
3F27
330
3C3C
100
AcDbEntity
  8
SUNPOU
100
AcDbLine
 10
25.59024818231114
 20
137.4416795438083
 30
0.0
 11
25.59024818231113
 21
84.99338484380826
 31
0.0
  0
INSERT
  5
3F28
330
3C3C
100
AcDbEntity
  8
SUNPOU
100
AcDbBlockReference
  2
_OPEN
 10
25.59024818231114
 20
140.4416795438083
 30
0.0
 41
3.0
 42
3.0
 43
3.0
 50
90.0
  0
INSERT
  5
3F29
330
3C3C
100
AcDbEntity
  8
SUNPOU
100
AcDbBlockReference
  2
_OPEN
 10
25.59024818231113
 20
81.99338484380826
 30
0.0
 41
3.0
 42
3.0
 43
3.0
 50
270.0
  0
MTEXT
  5
3F2A
330
3C3C
100
AcDbEntity
  8
SUNPOU
100
AcDbMText
 10
23.09024818231111
 20
111.2175321938082
 30
0.0
 40
3.0
 41
0.0
 71
     5
 72
     1
  1
\A1;58
 11
0.0000000000000001
 21
1.0
 31
0.0
1001
ACAD
1000
MTEXTBEGIN
1070
    73
1070
     1
1070
    44
1040
1.0
1070
    74
1070
     0
1000
MTEXTEND
  0
POINT
  5
3F2B
330
3C3C
100
AcDbEntity
  8
DEFPOINTS
 62
     0
100
AcDbPoint
 10
232.4172524506488
 20
140.4416795438082
 30
0.0
  0
POINT
  5
3F2C
330
3C3C
100
AcDbEntity
  8
DEFPOINTS
 62
     0
100
AcDbPoint
 10
52.42106095064883
 20
81.99338484380824
 30
0.0
  0
POINT
  5
3F2D
330
3C3C
100
AcDbEntity
  8
DEFPOINTS
 62
     0
100
AcDbPoint
 10
25.59024818231113
 20
81.99338484380826
 30
0.0
  0
ENDBLK
  5
3C47
330
3C3C
100
AcDbEntity
  8
0
100
AcDbBlockEnd
  0
BLOCK
  5
3C53
330
3C49
100
AcDbEntity
  8
0
100
AcDbBlockBegin
  2
*D10
 70
     1
 10
0.0
 20
0.0
 30
0.0
  3
*D10
  1

  0
LINE
  5
3F40
330
3C49
100
AcDbEntity
  8
SUNPOU
100
AcDbLine
 10
235.2026904840216
 20
141.5558316708716
 30
0.0
 11
257.0378376718588
 21
150.2897095717972
 31
0.0
  0
LINE
  5
3F41
330
3C49
100
AcDbEntity
  8
SUNPOU
100
AcDbLine
 10
248.2011319840217
 20
109.0590545708717
 30
0.0
 11
270.0362791718588
 21
117.7929324717972
 31
0.0
  0
LINE
  5
3F42
330
3C49
100
AcDbEntity
  8
SUNPOU
100
AcDbLine
 10
256.7592707822358
 20
146.9471954748926
 30
0.0
 11
267.5294080281089
 21
120.0212944416383
 31
0.0
  0
INSERT
  5
3F43
330
3C49
100
AcDbEntity
  8
SUNPOU
100
AcDbBlockReference
  2
_OPEN
 10
255.6451186551724
 20
149.7326335082654
 30
0.0
 41
3.0
 42
3.0
 43
3.0
 50
111.8010001065149
  0
INSERT
  5
3F44
330
3C49
100
AcDbEntity
  8
SUNPOU
100
AcDbBlockReference
  2
_OPEN
 10
268.6435601551723
 20
117.2358564082654
 30
0.0
 41
3.0
 42
3.0
 43
3.0
 50
291.8010001065149
  0
MTEXT
  5
3F45
330
3C49
100
AcDbEntity
  8
SUNPOU
100
AcDbMText
 10
264.4655377663164
 20
134.4127050641516
 30
0.0
 40
3.0
 41
0.0
 71
     5
 72
     1
  1
\A1;35
 11
0.3713840423544852
 21
-0.9284793444576147
 31
0.0
1001
ACAD
1000
MTEXTBEGIN
1070
    73
1070
     1
1070
    44
1040
1.0
1070
    74
1070
     0
1000
MTEXTEND
  0
POINT
  5
3F46
330
3C49
100
AcDbEntity
  8
DEFPOINTS
 62
     0
100
AcDbPoint
 10
232.4172524506487
 20
140.4416795438082
 30
0.0
  0
POINT
  5
3F47
330
3C49
100
AcDbEntity
  8
DEFPOINTS
 62
     0
100
AcDbPoint
 10
245.4156939506488
 20
107.9449024438082
 30
0.0
  0
POINT
  5
3F48
330
3C49
100
AcDbEntity
  8
DEFPOINTS
 62
     0
100
AcDbPoint
 10
268.6435601551723
 20
117.2358564082654
 30
0.0
  0
ENDBLK
  5
3C54
330
3C49
100
AcDbEntity
  8
0
100
AcDbBlockEnd
  0
BLOCK
  5
3C60
330
3C56
100
AcDbEntity
  8
0
100
AcDbBlockBegin
  2
*D11
 70
     1
 10
0.0
 20
0.0
 30
0.0
  3
*D11
  1

  0
LINE
  5
3F76
330
3C56
100
AcDbEntity
  8
SUNPOU
100
AcDbLine
 10
247.3015418040602
 20
259.2223041816491
 30
0.0
 11
269.858450987846
 21
259.2223041816491
 31
0.0
  0
LINE
  5
3F77
330
3C56
100
AcDbEntity
  8
SUNPOU
100
AcDbLine
 10
247.3015418040602
 20
197.2223041816491
 30
0.0
 11
269.858450987846
 21
197.2223041816491
 31
0.0
  0
LINE
  5
3F78
330
3C56
100
AcDbEntity
  8
SUNPOU
100
AcDbLine
 10
268.358450987846
 20
256.2223041816491
 30
0.0
 11
268.358450987846
 21
200.2223041816491
 31
0.0
  0
INSERT
  5
3F79
330
3C56
100
AcDbEntity
  8
SUNPOU
100
AcDbBlockReference
  2
_OPEN
 10
268.358450987846
 20
259.2223041816491
 30
0.0
 41
3.0
 42
3.0
 43
3.0
 50
90.0
  0
INSERT
  5
3F7A
330
3C56
100
AcDbEntity
  8
SUNPOU
100
AcDbBlockReference
  2
_OPEN
 10
268.358450987846
 20
197.2223041816491
 30
0.0
 41
3.0
 42
3.0
 43
3.0
 50
270.0
  0
MTEXT
  5
3F7B
330
3C56
100
AcDbEntity
  8
SUNPOU
100
AcDbMText
 10
265.8584509878459
 20
228.2223041816492
 30
0.0
 40
3.0
 41
0.0
 71
     5
 72
     1
  1
\A1;62
 11
0.0000000000000001
 21
1.0
 31
0.0
1001
ACAD
1000
MTEXTBEGIN
1070
    73
1070
     1
1070
    44
1040
1.0
1070
    74
1070
     0
1000
MTEXTEND
  0
POINT
  5
3F7C
330
3C56
100
AcDbEntity
  8
DEFPOINTS
 62
     0
100
AcDbPoint
 10
244.3015418040602
 20
259.2223041816491
 30
0.0
  0
POINT
  5
3F7D
330
3C56
100
AcDbEntity
  8
DEFPOINTS
 62
     0
100
AcDbPoint
 10
244.3015418040602
 20
197.2223041816491
 30
0.0
  0
POINT
  5
3F7E
330
3C56
100
AcDbEntity
  8
DEFPOINTS
 62
     0
100
AcDbPoint
 10
268.358450987846
 20
197.2223041816491
 30
0.0
  0
ENDBLK
  5
3C61
330
3C56
100
AcDbEntity
  8
0
100
AcDbBlockEnd
  0
BLOCK
  5
3C6D
330
3C63
100
AcDbEntity
  8
0
100
AcDbBlockBegin
  2
*D12
 70
     1
 10
0.0
 20
0.0
 30
0.0
  3
*D12
  1

  0
LINE
  5
3F1C
330
3C63
100
AcDbEntity
  8
SUNPOU
100
AcDbLine
 10
104.9210609506488
 20
86.29338484380827
 30
0.0
 11
104.9210609506488
 21
171.7124169169787
 31
0.0
  0
LINE
  5
3F1D
330
3C63
100
AcDbEntity
  8
SUNPOU
100
AcDbLine
 10
246.422079427593
 20
106.0233882438082
 30
0.0
 11
246.422079427593
 21
171.7124169169787
 31
0.0
  0
LINE
  5
3F1E
330
3C63
100
AcDbEntity
  8
SUNPOU
100
AcDbLine
 10
107.9210609506488
 20
170.2124169169787
 30
0.0
 11
243.422079427593
 21
170.2124169169787
 31
0.0
  0
INSERT
  5
3F1F
330
3C63
100
AcDbEntity
  8
SUNPOU
100
AcDbBlockReference
  2
_OPEN
 10
104.9210609506488
 20
170.2124169169787
 30
0.0
 41
3.0
 42
3.0
 43
3.0
 50
180.0
  0
INSERT
  5
3F20
330
3C63
100
AcDbEntity
  8
SUNPOU
100
AcDbBlockReference
  2
_OPEN
 10
246.422079427593
 20
170.2124169169787
 30
0.0
 41
3.0
 42
3.0
 43
3.0
  0
MTEXT
  5
3F21
330
3C63
100
AcDbEntity
  8
SUNPOU
100
AcDbMText
 10
175.6715701891209
 20
172.7124169169787
 30
0.0
 40
3.0
 41
0.0
 71
     5
 72
     1
  1
\A1;142
1001
ACAD
1000
MTEXTBEGIN
1070
    73
1070
     1
1070
    44
1040
1.0
1070
    74
1070
     0
1000
MTEXTEND
  0
POINT
  5
3F22
330
3C63
100
AcDbEntity
  8
DEFPOINTS
 62
     0
100
AcDbPoint
 10
104.9210609506488
 20
83.29338484380826
 30
0.0
  0
POINT
  5
3F23
330
3C63
100
AcDbEntity
  8
DEFPOINTS
 62
     0
100
AcDbPoint
 10
246.422079427593
 20
103.0233882438082
 30
0.0
  0
POINT
  5
3F24
330
3C63
100
AcDbEntity
  8
DEFPOINTS
 62
     0
100
AcDbPoint
 10
246.422079427593
 20
170.2124169169787
 30
0.0
  0
ENDBLK
  5
3C6E
330
3C63
100
AcDbEntity
  8
0
100
AcDbBlockEnd
  0
ENDSEC
  0
SECTION
  2
ENTITIES
  0
TEXT
  5
9D
330
1A
100
AcDbEntity
  8
ZUWAKU
 48
5.0
100
AcDbText
 10
327.1013476411085
 20
8.060146781246267
 30
0.0
 40
4.0
  1

100
AcDbText
  0
ARC
  5
5A7
330
1A
100
AcDbEntity
  8
NOKITOI
  6
PHANTOM
 62
     8
100
AcDbCircle
 10
100.7580874474192
 20
76.08639932017829
 30
0.0
 40
43.00001447645168
100
AcDbArc
 50
186.5249107071177
 51
269.9998883751437
  0
ARC
  5
5A8
330
1A
100
AcDbEntity
  8
NOKITOI
  6
PHANTOM
 62
     8
100
AcDbCircle
 10
100.7581097558445
 20
76.08637921915189
 30
0.0
 40
41.79999437547816
100
AcDbArc
 50
184.4742952125247
 51
269.999854592109
  0
LINE
  5
5A9
330
1A
100
AcDbEntity
  8
NOKITOI
  6
PHANTOM
 62
     8
100
AcDbLine
 10
50.54710367387634
 20
75.22398484380821
 30
0.0
 11
50.46160367387665
 21
77.96148484380816
 31
0.0
  0
LINE
  5
5AA
330
1A
100
AcDbEntity
  8
NOKITOI
  6
PHANTOM
 62
     8
100
AcDbLine
 10
49.00900367387658
 20
86.02388484380819
 30
0.0
 11
49.3992036738764
 21
73.53958484380811
 31
0.0
  0
LINE
  5
5AB
330
1A
100
AcDbEntity
  8
NOKITOI
  6
PHANTOM
 62
     8
100
AcDbLine
 10
58.58700367387701
 20
73.28638484380824
 30
0.0
 11
52.54610367387659
 21
73.28638484380824
 31
0.0
  0
ARC
  5
5AC
330
1A
100
AcDbEntity
  8
NOKITOI
  6
PHANTOM
 62
     8
100
AcDbCircle
 10
57.04309524971404
 20
71.08639235886468
 30
0.0
 40
0.9999924849789756
100
AcDbArc
 50
6.528264606673934
 51
89.99951732740965
  0
LINE
  5
5AD
330
1A
100
AcDbEntity
  8
NOKITOI
  6
PHANTOM
 62
     8
100
AcDbLine
 10
50.8984036738766
 20
72.08638484380819
 30
0.0
 11
57.04310367387643
 21
72.08638484380819
 31
0.0
  0
ARC
  5
5AE
330
1A
100
AcDbEntity
  8
NOKITOI
  6
PHANTOM
 62
     8
100
AcDbCircle
 10
52.546117246015
 20
75.2863716887218
 30
0.0
 40
1.999986844959662
100
AcDbArc
 50
181.7875531852356
 51
269.9996111843215
  0
ARC
  5
5AF
330
1A
100
AcDbEntity
  8
NOKITOI
  6
PHANTOM
 62
     8
100
AcDbCircle
 10
50.89843963302747
 20
73.58634998966497
 30
0.0
 40
1.499965146287778
100
AcDbArc
 50
181.7866280217767
 51
269.9986264296971
  0
ARC
  5
5B0
330
1A
100
AcDbEntity
  8
NOKITOI
  6
PHANTOM
 62
     8
100
AcDbCircle
 10
58.58701624358491
 20
72.78637321907851
 30
0.0
 40
0.5000116248877111
100
AcDbArc
 50
4.474846808342103
 51
90.00144034898383
  0
ARC
  5
5B1
330
1A
100
AcDbEntity
  8
NOKITOI
  6
PHANTOM
 62
     8
100
AcDbCircle
 10
51.00801642472652
 20
86.08639799889463
 30
0.0
 40
1.999986844954076
100
AcDbArc
 50
90.00036528735451
 51
181.7883072882703
  0
LINE
  5
5B2
330
1A
100
AcDbEntity
  8
NOKITOI
  6
PHANTOM
 62
     8
100
AcDbLine
 10
57.28590367387642
 20
85.5863848438082
 30
0.0
 11
55.05440367387655
 21
85.5863848438082
 31
0.0
  0
ARC
  5
5B3
330
1A
100
AcDbEntity
  8
NOKITOI
  6
PHANTOM
 62
     8
100
AcDbCircle
 10
56.97009678688164
 20
79.08637830872269
 30
0.0
 40
0.499993464961963
100
AcDbArc
 50
270.0007892017869
 51
356.997036131742
  0
LINE
  5
5B4
330
1A
100
AcDbEntity
  8
NOKITOI
  6
PHANTOM
 62
     8
100
AcDbLine
 10
56.30600367387661
 20
79.78638484380823
 30
0.0
 11
56.48720367387659
 21
83.22788484380836
 31
0.0
  0
LINE
  5
5B5
330
1A
100
AcDbEntity
  8
NOKITOI
  6
PHANTOM
 62
     8
100
AcDbLine
 10
55.93220367387676
 20
82.61478484380811
 30
0.0
 11
56.48720367387659
 21
83.22788484380836
 31
0.0
  0
ARC
  5
5B6
330
1A
100
AcDbEntity
  8
NOKITOI
  6
PHANTOM
 62
     8
100
AcDbCircle
 10
54.45972388654581
 20
78.08644357218824
 30
0.0
 40
5.2000412730095
100
AcDbArc
 50
90.0013245430618
 51
142.0757990790548
  0
LINE
  5
5B7
330
1A
100
AcDbEntity
  8
NOKITOI
  6
PHANTOM
 62
     8
100
AcDbLine
 10
50.208403673877
 20
86.0613848438081
 30
0.0
 11
50.35780367387634
 21
81.28248484380831
 31
0.0
  0
ARC
  5
5B8
330
1A
100
AcDbEntity
  8
NOKITOI
  6
PHANTOM
 62
     8
100
AcDbCircle
 10
54.45964155532329
 20
78.08642862633357
 30
0.0
 40
3.999989731271038
100
AcDbArc
 50
96.47731142013116
 51
181.7899836067311
  0
ARC
  5
5B9
330
1A
100
AcDbEntity
  8
NOKITOI
  6
PHANTOM
 62
     8
100
AcDbCircle
 10
54.06481789229201
 20
81.56407020950721
 30
0.0
 40
0.5000073448410256
100
AcDbArc
 50
351.872947864124
 51
96.47829282996921
  0
LINE
  5
5BA
330
1A
100
AcDbEntity
  8
NOKITOI
  6
PHANTOM
 62
     8
100
AcDbLine
 10
55.52810367387701
 20
79.78638484380823
 30
0.0
 11
55.93220367387676
 21
82.61478484380811
 31
0.0
  0
LINE
  5
5BB
330
1A
100
AcDbEntity
  8
NOKITOI
  6
PHANTOM
 62
     8
100
AcDbLine
 10
56.30600367387661
 20
79.78638484380823
 30
0.0
 11
55.52810367387701
 21
79.78638484380823
 31
0.0
  0
ARC
  5
5BC
330
1A
100
AcDbEntity
  8
NOKITOI
  6
PHANTOM
 62
     8
100
AcDbCircle
 10
54.72103027447428
 20
79.08635416692615
 30
0.0
 40
0.4999693238254178
100
AcDbArc
 50
171.8555038770531
 51
269.9969516090356
  0
LINE
  5
5BD
330
1A
100
AcDbEntity
  8
NOKITOI
  6
PHANTOM
 62
     8
100
AcDbLine
 10
56.97010367387656
 20
78.58638484380819
 30
0.0
 11
54.72100367387657
 21
78.58638484380819
 31
0.0
  0
LINE
  5
5BE
330
1A
100
AcDbEntity
  8
NOKITOI
  6
PHANTOM
 62
     8
100
AcDbLine
 10
54.22610367387642
 20
79.15718484380838
 30
0.0
 11
54.55980367387656
 21
81.49338484380834
 31
0.0
  0
LINE
  5
5BF
330
1A
100
AcDbEntity
  8
NOKITOI
  6
PHANTOM
 62
     8
100
AcDbLine
 10
53.48080367387684
 20
86.88638484380836
 30
0.0
 11
52.98080367387683
 21
84.38638484380836
 31
0.0
  0
LINE
  5
5C0
330
1A
100
AcDbEntity
  8
NOKITOI
  6
PHANTOM
 62
     8
100
AcDbLine
 10
52.98080367387683
 20
84.38638484380836
 30
0.0
 11
55.91730367387663
 21
84.38638484380836
 31
0.0
  0
LINE
  5
5C1
330
1A
100
AcDbEntity
  8
NOKITOI
  6
PHANTOM
 62
     8
100
AcDbLine
 10
51.00800367387638
 20
88.0863848438082
 30
0.0
 11
54.3346036738767
 21
88.0863848438082
 31
0.0
  0
LINE
  5
5C2
330
1A
100
AcDbEntity
  8
NOKITOI
  6
PHANTOM
 62
     8
100
AcDbLine
 10
51.00800367387638
 20
86.88638484380836
 30
0.0
 11
53.48080367387684
 21
86.88638484380836
 31
0.0
  0
ARC
  5
5C3
330
1A
100
AcDbEntity
  8
NOKITOI
  6
PHANTOM
 62
     8
100
AcDbCircle
 10
51.00800816867468
 20
86.08638948133508
 30
0.0
 40
0.7999953624857498
100
AcDbArc
 50
90.00032191805264
 51
181.7911273464193
  0
ARC
  5
5C4
330
1A
100
AcDbEntity
  8
NOKITOI
  6
PHANTOM
 62
     8
100
AcDbCircle
 10
54.33460289086815
 20
87.58638579880992
 30
0.0
 40
0.4999990449987349
100
AcDbArc
 50
348.6967198015447
 51
89.99991027369492
  0
ARC
  5
5C5
330
1A
100
AcDbEntity
  8
NOKITOI
  6
PHANTOM
 62
     8
100
AcDbCircle
 10
55.05439641932117
 20
86.08639369365162
 30
0.0
 40
0.5000088498959383
100
AcDbArc
 50
168.6864043304892
 51
270.0008312961442
  0
LINE
  5
5C6
330
1A
100
AcDbEntity
  8
NOKITOI
  6
PHANTOM
 62
     8
100
AcDbLine
 10
54.56410367387661
 20
86.18448484380811
 30
0.0
 11
54.82490367387663
 21
87.48838484380824
 31
0.0
  0
LINE
  5
5C7
330
1A
100
AcDbEntity
  8
NOKITOI
  6
PHANTOM
 62
     8
100
AcDbLine
 10
54.92150367387694
 20
83.28638484380823
 30
0.0
 11
54.45960367387669
 21
83.28638484380823
 31
0.0
  0
LINE
  5
5C8
330
1A
100
AcDbEntity
  8
NOKITOI
  6
PHANTOM
 62
     8
100
AcDbLine
 10
54.92150367387694
 20
83.28638484380823
 30
0.0
 11
55.91730367387663
 21
84.38638484380836
 31
0.0
  0
LINE
  5
5C9
330
1A
100
AcDbEntity
  8
NOKITOI
  6
PHANTOM
 62
     8
100
AcDbLine
 10
57.46950367387672
 20
79.06018484380817
 30
0.0
 11
57.78530367387657
 21
85.06008484380819
 31
0.0
  0
ARC
  5
5CA
330
1A
100
AcDbEntity
  8
NOKITOI
  6
PHANTOM
 62
     8
100
AcDbCircle
 10
57.28589747271872
 20
85.08639137889346
 30
0.0
 40
0.4999934649531607
100
AcDbArc
 50
356.9955363203376
 51
89.99928939038076
  0
LINE
  5
5CB
330
1A
100
AcDbEntity
  8
NOKITOI
  6
PHANTOM
 62
     8
100
AcDbLine
 10
141.5875036738766
 20
33.08628484380821
 30
0.0
 11
121.4296036738769
 21
33.08628484380821
 31
0.0
  0
LINE
  5
5CC
330
1A
100
AcDbEntity
  8
NOKITOI
  6
PHANTOM
 62
     8
100
AcDbLine
 10
141.3377036738765
 20
34.28628484380826
 30
0.0
 11
121.4296036738769
 21
34.28628484380826
 31
0.0
  0
LINE
  5
5CD
330
1A
100
AcDbEntity
  8
NOKITOI
  6
PHANTOM
 62
     8
100
AcDbLine
 10
145.5875036738766
 20
33.08628484380821
 30
0.0
 11
100.7581036738765
 21
33.08638484380819
 31
0.0
  0
LINE
  5
5CE
330
1A
100
AcDbEntity
  8
NOKITOI
  6
PHANTOM
 62
     8
100
AcDbLine
 10
100.7581036738765
 20
34.28638484380823
 30
0.0
 11
145.3377036738765
 21
34.28628484380826
 31
0.0
  0
LINE
  5
5CF
330
1A
100
AcDbEntity
  8
NOKITOI
  6
PHANTOM
 62
     8
100
AcDbLine
 10
167.3420036738766
 20
75.22378484380826
 30
0.0
 11
167.4275036738763
 21
77.96138484380819
 31
0.0
  0
LINE
  5
5D0
330
1A
100
AcDbEntity
  8
NOKITOI
  6
PHANTOM
 62
     8
100
AcDbLine
 10
168.8800036738766
 20
86.02388484380819
 30
0.0
 11
168.4899036738765
 21
73.53948484380814
 31
0.0
  0
LINE
  5
5D1
330
1A
100
AcDbEntity
  8
NOKITOI
  6
PHANTOM
 62
     8
100
AcDbLine
 10
166.9906036738766
 20
72.08638484380819
 30
0.0
 11
160.8495036738768
 21
72.08638484380819
 31
0.0
  0
LINE
  5
5D2
330
1A
100
AcDbEntity
  8
NOKITOI
  6
PHANTOM
 62
     8
100
AcDbLine
 10
159.3110036738762
 20
73.28638484380824
 30
0.0
 11
165.3429036738766
 21
73.28638484380824
 31
0.0
  0
LINE
  5
5D3
330
1A
100
AcDbEntity
  8
NOKITOI
  6
PHANTOM
 62
     8
100
AcDbLine
 10
159.8545036738769
 20
71.18588484380822
 30
0.0
 11
156.9857036738767
 21
42.49848484380819
 31
0.0
  0
LINE
  5
5D4
330
1A
100
AcDbEntity
  8
NOKITOI
  6
PHANTOM
 62
     8
100
AcDbLine
 10
158.8135036738767
 20
72.83618484380824
 30
0.0
 11
155.8205036738763
 21
42.90638484380813
 31
0.0
  0
LINE
  5
5D5
330
1A
100
AcDbEntity
  8
NOKITOI
  6
PHANTOM
 62
     8
100
AcDbLine
 10
156.6239036738766
 20
41.82398484380835
 30
0.0
 11
146.2208036738766
 21
33.31228484380833
 31
0.0
  0
LINE
  5
5D6
330
1A
100
AcDbEntity
  8
NOKITOI
  6
PHANTOM
 62
     8
100
AcDbLine
 10
155.6396036738769
 20
42.56908484380821
 30
0.0
 11
145.6543036738766
 21
34.39928484380809
 31
0.0
  0
ARC
  5
5D7
330
1A
100
AcDbEntity
  8
NOKITOI
  6
PHANTOM
 62
     8
100
AcDbCircle
 10
145.5874967412991
 20
34.0862823688021
 30
0.0
 40
0.9999975250179316
100
AcDbArc
 50
270.0003972084035
 51
309.2946416752299
  0
ARC
  5
5D8
330
1A
100
AcDbEntity
  8
NOKITOI
  6
PHANTOM
 62
     8
100
AcDbCircle
 10
145.3377100616252
 20
34.78628712379779
 30
0.0
 40
0.5000022800304047
100
AcDbArc
 50
269.9992680212791
 51
309.2854498596061
  0
ARC
  5
5D9
330
1A
100
AcDbEntity
  8
NOKITOI
  6
PHANTOM
 62
     8
100
AcDbCircle
 10
155.9906811010077
 20
42.5979427721356
 30
0.0
 40
0.9999908507640039
100
AcDbArc
 50
309.288709223069
 51
354.2862329477532
  0
ARC
  5
5DA
330
1A
100
AcDbEntity
  8
NOKITOI
  6
PHANTOM
 62
     8
100
AcDbCircle
 10
155.3229862479983
 20
42.95605235742025
 30
0.0
 40
0.4999904508696396
100
AcDbArc
 50
309.2900846377951
 51
354.2990110749239
  0
ARC
  5
5DB
330
1A
100
AcDbEntity
  8
NOKITOI
  6
PHANTOM
 62
     8
100
AcDbCircle
 10
160.8495243237175
 20
71.08640353165739
 30
0.0
 40
0.9999813123640345
100
AcDbArc
 50
90.00118317084911
 51
174.2905900333514
  0
ARC
  5
5DC
330
1A
100
AcDbEntity
  8
NOKITOI
  6
PHANTOM
 62
     8
100
AcDbCircle
 10
159.3110167448812
 20
72.78639667408808
 30
0.0
 40
0.499988169890889
100
AcDbArc
 50
90.00149786226634
 51
174.2966061377162
  0
ARC
  5
5DD
330
1A
100
AcDbEntity
  8
NOKITOI
  6
PHANTOM
 62
     8
100
AcDbCircle
 10
166.9906208870547
 20
73.58640152695599
 30
0.0
 40
1.500016683246579
100
AcDbArc
 50
269.9993425123344
 51
358.2076423244113
  0
ARC
  5
5DE
330
1A
100
AcDbEntity
  8
NOKITOI
  6
PHANTOM
 62
     8
100
AcDbCircle
 10
165.3429416617009
 20
75.28632166438043
 30
0.0
 40
2.000036820932882
100
AcDbArc
 50
269.9989117490344
 51
358.2110591274195
  0
LINE
  5
5DF
330
1A
100
AcDbEntity
  8
NOKITOI
  6
PHANTOM
 62
     8
100
AcDbLine
 10
166.8810036738768
 20
88.08628484380822
 30
0.0
 11
163.5544036738765
 21
88.0863848438082
 31
0.0
  0
LINE
  5
5E0
330
1A
100
AcDbEntity
  8
NOKITOI
  6
PHANTOM
 62
     8
100
AcDbLine
 10
164.9083036738765
 20
84.38638484380836
 30
0.0
 11
161.9717036738765
 21
84.38638484380836
 31
0.0
  0
ARC
  5
5E1
330
1A
100
AcDbEntity
  8
NOKITOI
  6
PHANTOM
 62
     8
100
AcDbCircle
 10
163.8242330463762
 20
81.5640150763031
 30
0.0
 40
0.4999578477751074
100
AcDbArc
 50
83.52609071220754
 51
188.1330561712932
  0
ARC
  5
5E2
330
1A
100
AcDbEntity
  8
NOKITOI
  6
PHANTOM
 62
     8
100
AcDbCircle
 10
163.4294858075254
 20
78.08639357218814
 30
0.0
 40
5.199991271650611
100
AcDbArc
 50
37.92532860472995
 51
89.9998031407256
  0
LINE
  5
5E3
330
1A
100
AcDbEntity
  8
NOKITOI
  6
PHANTOM
 62
     8
100
AcDbLine
 10
161.5830036738766
 20
79.78638484380823
 30
0.0
 11
161.4019036738763
 21
83.22778484380817
 31
0.0
  0
LINE
  5
5E4
330
1A
100
AcDbEntity
  8
NOKITOI
  6
PHANTOM
 62
     8
100
AcDbLine
 10
161.9569036738766
 20
82.61478484380811
 30
0.0
 11
161.4019036738763
 21
83.22778484380817
 31
0.0
  0
LINE
  5
5E5
330
1A
100
AcDbEntity
  8
NOKITOI
  6
PHANTOM
 62
     8
100
AcDbLine
 10
160.4196036738767
 20
79.06008484380819
 30
0.0
 11
160.1038036738763
 21
85.06008484380819
 31
0.0
  0
LINE
  5
5E6
330
1A
100
AcDbEntity
  8
NOKITOI
  6
PHANTOM
 62
     8
100
AcDbLine
 10
162.3609036738762
 20
79.78638484380823
 30
0.0
 11
161.9569036738766
 21
82.61478484380811
 31
0.0
  0
LINE
  5
5E7
330
1A
100
AcDbEntity
  8
NOKITOI
  6
PHANTOM
 62
     8
100
AcDbLine
 10
161.5830036738766
 20
79.78638484380823
 30
0.0
 11
162.3609036738762
 21
79.78638484380823
 31
0.0
  0
LINE
  5
5E8
330
1A
100
AcDbEntity
  8
NOKITOI
  6
PHANTOM
 62
     8
100
AcDbLine
 10
160.9189036738766
 20
78.58638484380819
 30
0.0
 11
163.1680036738762
 21
78.58638484380819
 31
0.0
  0
ARC
  5
5E9
330
1A
100
AcDbEntity
  8
NOKITOI
  6
PHANTOM
 62
     8
100
AcDbCircle
 10
160.9189077952832
 20
79.08638093377769
 30
0.0
 40
0.4999960899864752
100
AcDbArc
 50
183.0147243791741
 51
269.9995277178593
  0
ARC
  5
5EA
330
1A
100
AcDbEntity
  8
NOKITOI
  6
PHANTOM
 62
     8
100
AcDbCircle
 10
163.1680138603128
 20
79.08639658853232
 30
0.0
 40
0.5000117448278309
100
AcDbArc
 50
269.9988327478016
 51
8.127314608715551
  0
LINE
  5
5EB
330
1A
100
AcDbEntity
  8
NOKITOI
  6
PHANTOM
 62
     8
100
AcDbLine
 10
163.6630036738765
 20
79.15708484380818
 30
0.0
 11
163.3292036738766
 21
81.49328484380836
 31
0.0
  0
LINE
  5
5EC
330
1A
100
AcDbEntity
  8
NOKITOI
  6
PHANTOM
 62
     8
100
AcDbLine
 10
160.6031036738768
 20
85.5863848438082
 30
0.0
 11
162.8346036738766
 21
85.5863848438082
 31
0.0
  0
ARC
  5
5ED
330
1A
100
AcDbEntity
  8
NOKITOI
  6
PHANTOM
 62
     8
100
AcDbCircle
 10
160.6031073833719
 20
85.08638875383892
 30
0.0
 40
0.4999960899831856
100
AcDbArc
 50
90.00042508015082
 51
183.0156217414647
  0
ARC
  5
5EE
330
1A
100
AcDbEntity
  8
NOKITOI
  6
PHANTOM
 62
     8
100
AcDbCircle
 10
163.5543964193211
 20
87.58637599396477
 30
0.0
 40
0.500008849895925
100
AcDbArc
 50
89.99916870385415
 51
191.3135956695126
  0
ARC
  5
5EF
330
1A
100
AcDbEntity
  8
NOKITOI
  6
PHANTOM
 62
     8
100
AcDbCircle
 10
162.8346028908681
 20
86.08638388880647
 30
0.0
 40
0.4999990449987399
100
AcDbArc
 50
270.000089726305
 51
11.30328019845521
  0
LINE
  5
5F0
330
1A
100
AcDbEntity
  8
NOKITOI
  6
PHANTOM
 62
     8
100
AcDbLine
 10
163.3249036738765
 20
86.18438484380837
 30
0.0
 11
163.0641036738765
 21
87.48838484380824
 31
0.0
  0
LINE
  5
5F1
330
1A
100
AcDbEntity
  8
NOKITOI
  6
PHANTOM
 62
     8
100
AcDbLine
 10
162.9675036738767
 20
83.28638484380823
 30
0.0
 11
163.4295036738767
 21
83.28638484380823
 31
0.0
  0
LINE
  5
5F2
330
1A
100
AcDbEntity
  8
NOKITOI
  6
PHANTOM
 62
     8
100
AcDbLine
 10
162.9675036738767
 20
83.28638484380823
 30
0.0
 11
161.9717036738765
 21
84.38638484380836
 31
0.0
  0
LINE
  5
5F3
330
1A
100
AcDbEntity
  8
NOKITOI
  6
PHANTOM
 62
     8
100
AcDbLine
 10
167.6806036738762
 20
86.0613848438081
 30
0.0
 11
167.5313036738766
 21
81.28238484380833
 31
0.0
  0
ARC
  5
5F4
330
1A
100
AcDbEntity
  8
NOKITOI
  6
PHANTOM
 62
     8
100
AcDbCircle
 10
163.4294727469404
 20
78.08642058847201
 30
0.0
 40
3.99998565374706
100
AcDbArc
 50
358.208696659101
 51
83.52422380468341
  0
ARC
  5
5F5
330
1A
100
AcDbEntity
  8
NOKITOI
  6
PHANTOM
 62
     8
100
AcDbCircle
 10
166.8809924368824
 20
86.08639643762533
 30
0.0
 40
1.999988406214315
100
AcDbArc
 50
358.2088726535936
 51
89.99967808195551
  0
LINE
  5
5F6
330
1A
100
AcDbEntity
  8
NOKITOI
  6
PHANTOM
 62
     8
100
AcDbLine
 10
166.8810036738768
 20
86.88628484380817
 30
0.0
 11
164.4083036738765
 21
86.88638484380836
 31
0.0
  0
LINE
  5
5F7
330
1A
100
AcDbEntity
  8
NOKITOI
  6
PHANTOM
 62
     8
100
AcDbLine
 10
164.4083036738765
 20
86.88638484380836
 30
0.0
 11
164.9083036738765
 21
84.38638484380836
 31
0.0
  0
ARC
  5
5F8
330
1A
100
AcDbEntity
  8
NOKITOI
  6
PHANTOM
 62
     8
100
AcDbCircle
 10
166.8810476402295
 20
86.08633948133521
 30
0.0
 40
0.7999453636812564
100
AcDbArc
 50
358.2123436447881
 51
90.00314907315425
  0
LINE
  5
1D19
330
1A
100
AcDbEntity
  8
SEIHIN
100
AcDbLine
 10
128.1357795938641
 20
82.87917128696793
 30
0.0
 11
140.9232661506488
 21
95.66665794380828
 31
0.0
  0
ARC
  5
1D1B
330
1A
100
AcDbEntity
  8
SEIHIN
100
AcDbCircle
 10
127.4357795506488
 20
83.09338484380827
 30
0.0
 40
5.500000002456481
100
AcDbArc
 50
270.0
 51
315.0
  0
LINE
  5
1D1E
330
1A
100
AcDbEntity
  8
SEIHIN
100
AcDbLine
 10
62.32463415064888
 20
69.99338484380825
 30
0.0
 11
130.7494880506488
 21
69.99338484380825
 31
0.0
  0
LINE
  5
1D23
330
1A
100
AcDbEntity
  8
SEIHIN
100
AcDbLine
 10
127.4286727722842
 20
83.58627806538809
 30
0.0
 11
140.2161593506488
 21
96.37376474380824
 31
0.0
  0
LINE
  5
1D24
330
1A
100
AcDbEntity
  8
CENTER_L
100
AcDbLine
 10
114.9210609506488
 20
92.48398771791562
 30
0.0
 11
114.9210609506488
 21
67.54497026593333
 31
0.0
  0
LINE
  5
1D2A
330
1A
100
AcDbEntity
  8
SEIHIN
100
AcDbLine
 10
104.9210609506488
 20
83.29338484380826
 30
0.0
 11
104.9210609506488
 21
77.79338484380827
 31
0.0
  0
LINE
  5
1D2C
330
1A
100
AcDbEntity
  8
SEIHIN
100
AcDbLine
 10
54.72106095064884
 20
77.59338484380828
 30
0.0
 11
127.4359439323923
 21
77.59338484380828
 31
0.0
  0
ARC
  5
1D41
330
1A
100
AcDbEntity
  8
SEIHIN
100
AcDbCircle
 10
62.32463415064888
 20
71.59338484380828
 30
0.0
 40
1.599999992064534
100
AcDbArc
 50
185.0000004668387
 51
270.0
  0
LINE
  5
1D42
330
1A
100
AcDbEntity
  8
SEIHIN
100
AcDbLine
 10
55.5210609506488
 20
74.99338484380825
 30
0.0
 11
60.42106095064884
 21
74.99338484380825
 31
0.0
  0
ARC
  5
1D43
330
1A
100
AcDbEntity
  8
SEIHIN
100
AcDbCircle
 10
55.5210609506488
 20
78.09338484380828
 30
0.0
 40
3.100000000000008
100
AcDbArc
 50
180.0
 51
270.0
  0
LINE
  5
1D44
330
1A
100
AcDbEntity
  8
SEIHIN
100
AcDbLine
 10
52.42106095064883
 20
81.99338484380824
 30
0.0
 11
54.22106095064885
 21
81.99338484380824
 31
0.0
  0
ARC
  5
1D45
330
1A
100
AcDbEntity
  8
SEIHIN
100
AcDbCircle
 10
54.72106095064884
 20
78.09338484380828
 30
0.0
 40
0.5
100
AcDbArc
 50
180.0
 51
270.0
  0
LINE
  5
1D46
330
1A
100
AcDbEntity
  8
SEIHIN
100
AcDbLine
 10
52.42106095064883
 20
81.99338484380824
 30
0.0
 11
52.42106095064883
 21
78.09338484380828
 31
0.0
  0
LINE
  5
1D47
330
1A
100
AcDbEntity
  8
SEIHIN
100
AcDbLine
 10
54.22106095064885
 20
81.99338484380824
 30
0.0
 11
54.22106095064885
 21
78.09338484380828
 31
0.0
  0
LINE
  5
1D48
330
1A
100
AcDbEntity
  8
SEIHIN
100
AcDbLine
 10
60.73072265064883
 20
71.45393564380828
 30
0.0
 11
60.1935904108824
 21
77.59338484380825
 31
0.0
  0
LINE
  5
1D4B
330
1A
100
AcDbEntity
  8
SEIHIN
100
AcDbLine
 10
104.9210609506488
 20
82.29338484380827
 30
0.0
 11
126.7215660259582
 21
82.29338484380827
 31
0.0
  0
LINE
  5
1D4D
330
1A
100
AcDbEntity
  8
SEIHIN
100
AcDbLine
 10
104.9210609506488
 20
77.59338484380828
 30
0.0
 11
127.4357795506488
 21
77.59338484380828
 31
0.0
  0
ARC
  5
1D5C
330
1A
100
AcDbEntity
  8
SEIHIN
100
AcDbCircle
 10
114.9210609506488
 20
77.40275984380827
 30
0.0
 40
7.890625
100
AcDbArc
 50
48.29108392084388
 51
131.708916079156
  0
LINE
  5
1D5D
330
1A
100
AcDbEntity
  8
SEIHIN
100
AcDbLine
 10
104.9210609506488
 20
83.29338484380826
 30
0.0
 11
126.7215659883313
 21
83.29338484380825
 31
0.0
  0
LINE
  5
1D65
330
1A
100
AcDbEntity
  8
SEIHIN
100
AcDbLine
 10
174.4210609506488
 20
89.09338484380828
 30
0.0
 11
174.4210609506488
 21
72.0678671663801
 31
0.0
  0
LINE
  5
1D67
330
1A
100
AcDbEntity
  8
SEIHIN
100
AcDbLine
 10
170.8210609506488
 20
89.09338484380828
 30
0.0
 11
170.8210609506488
 21
72.12027494380828
 31
0.0
  0
LINE
  5
1D68
330
1A
100
AcDbEntity
  8
SEIHIN
100
AcDbLine
 10
173.4210609506488
 20
89.09338484380828
 30
0.0
 11
173.4210609506488
 21
72.12027494380828
 31
0.0
  0
LINE
  5
1D6C
330
1A
100
AcDbEntity
  8
SEIHIN
100
AcDbLine
 10
134.3557326506488
 20
71.48714024380826
 30
0.0
 11
148.7555626096376
 21
85.88697028003696
 31
0.0
  0
LINE
  5
1D6E
330
1A
100
AcDbEntity
  8
SEIHIN
100
AcDbLine
 10
131.3248668506488
 20
79.20429754380825
 30
0.0
 11
143.1554164455937
 21
91.03484713875321
 31
0.0
  0
LINE
  5
1D79
330
1A
100
AcDbEntity
  8
SEIHIN
100
AcDbLine
 10
145.4022872506488
 20
68.58830774380823
 30
0.0
 11
157.3453336506488
 21
74.41332064380827
 31
0.0
  0
LINE
  5
1D7A
330
1A
100
AcDbEntity
  8
SEIHIN
100
AcDbLine
 10
146.0598438506488
 20
67.24011654380825
 30
0.0
 11
157.3453336506488
 21
72.74441774380824
 31
0.0
  0
LINE
  5
1D7B
330
1A
100
AcDbEntity
  8
SEIHIN
100
AcDbLine
 10
145.2269388506488
 20
68.94782534380823
 30
0.0
 11
157.0699851506488
 21
74.72406494380823
 31
0.0
  0
LINE
  5
1D7D
330
1A
100
AcDbEntity
  8
SEIHIN
100
AcDbLine
 10
134.3445889017227
 20
71.47603084044655
 30
0.0
 11
143.4768757506488
 21
67.21757554380826
 31
0.0
  0
ARC
  5
1D7E
330
1A
100
AcDbEntity
  8
SEIHIN
100
AcDbCircle
 10
130.7494880506488
 20
75.09338484380828
 30
0.0
 40
5.100000011277387
100
AcDbArc
 50
270.0
 51
315.0
  0
LINE
  5
1D7F
330
1A
100
AcDbEntity
  8
SEIHIN
100
AcDbLine
 10
135.7743382262669
 20
72.9057458270357
 30
0.0
 11
144.2798505506488
 21
68.93956034380824
 31
0.0
  0
LINE
  5
1D80
330
1A
100
AcDbEntity
  8
SEIHIN
100
AcDbLine
 10
135.4733433165824
 20
72.60475091573664
 30
0.0
 11
144.1108032506488
 21
68.57703724380826
 31
0.0
  0
ARC
  5
1D81
330
1A
100
AcDbEntity
  8
SEIHIN
100
AcDbCircle
 10
144.7447306506488
 20
69.93649884380824
 30
0.0
 40
1.499999997384386
100
AcDbArc
 50
244.9999984438223
 51
295.9999936879063
  0
ARC
  5
1D83
330
1A
100
AcDbEntity
  8
SEIHIN
100
AcDbCircle
 10
144.7447306506488
 20
69.93649884380824
 30
0.0
 40
1.099999981342675
100
AcDbArc
 50
244.9999979823536
 51
295.9999960018844
  0
ARC
  5
1D84
330
1A
100
AcDbEntity
  8
SEIHIN
100
AcDbCircle
 10
144.7447306506488
 20
69.93649884380824
 30
0.0
 40
2.9999999920909
100
AcDbArc
 50
244.9999949819811
 51
295.999994525133
  0
ARC
  5
1D86
330
1A
100
AcDbEntity
  8
SEIHIN
100
AcDbCircle
 10
155.4165005506488
 20
78.36801444380824
 30
0.0
 40
4.400000010194002
100
AcDbArc
 50
296.0000006547247
 51
359.9999934891161
  0
ARC
  5
1D87
330
1A
100
AcDbEntity
  8
SEIHIN
100
AcDbCircle
 10
155.3165005506488
 20
78.31924114380825
 30
0.0
 40
4.000000009467725
100
AcDbArc
 50
296.0000000723986
 51
0.0
  0
LINE
  5
1D88
330
1A
100
AcDbEntity
  8
SEIHIN
100
AcDbLine
 10
159.8165005506488
 20
76.69911104380827
 30
0.0
 11
159.8165005506488
 21
80.82734164380825
 31
0.0
  0
ARC
  5
1D8A
330
1A
100
AcDbEntity
  8
SEIHIN
100
AcDbCircle
 10
155.4165005506488
 20
76.69911154380827
 30
0.0
 40
4.400000010194002
100
AcDbArc
 50
296.0000006547247
 51
359.9999934891161
  0
LINE
  5
1D8B
330
1A
100
AcDbEntity
  8
SEIHIN
100
AcDbLine
 10
159.3165005506488
 20
80.82734164380825
 30
0.0
 11
159.8165005506488
 21
80.82734164380825
 31
0.0
  0
LINE
  5
1D8C
330
1A
100
AcDbEntity
  8
SEIHIN
100
AcDbLine
 10
159.3165005506488
 20
78.31924114380825
 30
0.0
 11
159.3165005506488
 21
80.82734164380825
 31
0.0
  0
LINE
  5
1D92
330
1A
100
AcDbEntity
  8
SEIHIN
100
AcDbLine
 10
163.9306541506488
 20
71.95973654380828
 30
0.0
 11
163.7998142929158
 21
69.46316274683391
 31
0.0
  0
ARC
  5
1D93
330
1A
100
AcDbEntity
  8
SEIHIN
100
AcDbCircle
 10
170.4210609506488
 20
72.12027494380828
 30
0.0
 40
2.999999998689364
100
AcDbArc
 50
266.9999993993207
 51
0.0
  0
LINE
  5
1D94
330
1A
100
AcDbEntity
  8
SEIHIN
100
AcDbLine
 10
171.2640530796194
 20
69.07197856223695
 30
0.0
 11
163.7998143506488
 21
69.46316274380825
 31
0.0
  0
LINE
  5
1D96
330
1A
100
AcDbEntity
  8
SEIHIN
100
AcDbLine
 10
170.4001265506488
 20
71.72082314380827
 30
0.0
 11
163.9358877506488
 21
72.05959954380825
 31
0.0
  0
ARC
  5
1D97
330
1A
100
AcDbEntity
  8
SEIHIN
100
AcDbCircle
 10
170.4210609506488
 20
72.12027494380828
 30
0.0
 40
0.3999999935166316
100
AcDbArc
 50
266.999997392128
 51
0.0
  0
LINE
  5
1DAE
330
1A
100
AcDbEntity
  8
SEIHIN
100
AcDbLine
 10
168.6857205887771
 20
93.53009322849946
 30
0.0
 11
146.1017005506488
 21
92.34651494380825
 31
0.0
  0
LINE
  5
1DB3
330
1A
100
AcDbEntity
  8
SEIHIN
100
AcDbLine
 10
168.8216226506488
 20
90.93364744380824
 30
0.0
 11
154.4210609506488
 21
90.1789460336492
 31
0.0
  0
ARC
  5
1DB6
330
1A
100
AcDbEntity
  8
SEIHIN
100
AcDbCircle
 10
146.3372123506488
 20
87.85268204380827
 30
0.0
 40
4.499999985879004
100
AcDbArc
 50
92.99999996493296
 51
135.0
  0
ARC
  5
1DB8
330
1A
100
AcDbEntity
  8
SEIHIN
100
AcDbCircle
 10
144.8123536506488
 20
91.77757074380826
 30
0.0
 40
5.500000065643712
100
AcDbArc
 50
91.3361182741777
 51
135.0000022098678
  0
ARC
  5
1DB9
330
1A
100
AcDbEntity
  8
SEIHIN
100
AcDbCircle
 10
144.8123536506488
 20
91.77757074380826
 30
0.0
 40
6.500000024766264
100
AcDbArc
 50
91.33611865333142
 51
135.000002493184
  0
ARC
  5
1DBB
330
1A
100
AcDbEntity
  8
SEIHIN
100
AcDbCircle
 10
168.9210609506488
 20
89.03625134380826
 30
0.0
 40
4.499999996725646
100
AcDbArc
 50
0.0
 51
92.99781409385971
  0
ARC
  5
1DBC
330
1A
100
AcDbEntity
  8
SEIHIN
100
AcDbCircle
 10
168.9210609506488
 20
89.03625134380826
 30
0.0
 40
5.500000030448694
100
AcDbArc
 50
0.0
 51
66.47258709537692
  0
ARC
  5
1DBD
330
1A
100
AcDbEntity
  8
SEIHIN
100
AcDbCircle
 10
168.9210609506488
 20
89.03625134380826
 30
0.0
 40
1.899999991552915
100
AcDbArc
 50
0.0
 51
92.99999951753015
  0
LINE
  5
1EC3
330
1A
100
AcDbEntity
  8
SEIHIN
100
AcDbLine
 10
52.42106095064883
 20
238.2223041816491
 30
0.0
 11
60.19359041088233
 21
238.2223041816491
 31
0.0
  0
LINE
  5
1EC4
330
1A
100
AcDbEntity
  8
SEIHIN
100
AcDbLine
 10
244.6156939506488
 20
217.7223041816491
 30
0.0
 11
228.0748557646505
 21
217.7223041816491
 31
0.0
  0
LINE
  5
1EC5
330
1A
100
AcDbEntity
  8
SEIHIN
100
AcDbLine
 10
244.3015418040602
 20
197.2223041816491
 30
0.0
 11
232.0458376972374
 21
197.2223041816491
 31
0.0
  0
LINE
  5
1EC6
330
1A
100
AcDbEntity
  8
CENTER_L
100
AcDbLine
 10
253.1629481447579
 20
228.2223041816491
 30
0.0
 11
45.42106095064883
 21
228.2223041816491
 31
0.0
  0
LINE
  5
1ECB
330
1A
100
AcDbEntity
  8
SEIHIN
100
AcDbLine
 10
52.42106095064883
 20
218.2223041816491
 30
0.0
 11
60.1935904108824
 21
218.2223041816491
 31
0.0
  0
LINE
  5
1ECC
330
1A
100
AcDbEntity
  8
SEIHIN
100
AcDbLine
 10
227.0892888506488
 20
216.1223041816491
 30
0.0
 11
230.6316855506488
 21
216.1223041816491
 31
0.0
  0
LINE
  5
1ED1
330
1A
100
AcDbEntity
  8
CENTER_L
100
AcDbLine
 10
230.6082833548102
 20
206.2223041816491
 30
0.0
 11
247.7052399803125
 21
206.2223041816491
 31
0.0
  0
LINE
  5
1ED8
330
1A
100
AcDbEntity
  8
CENTER_L
100
AcDbLine
 10
114.9210609506488
 20
213.1934324690979
 30
0.0
 11
114.9210609506488
 21
243.2511758942004
 31
0.0
  0
LINE
  5
1EDA
330
1A
100
AcDbEntity
  8
SEIHIN
100
AcDbLine
 10
104.9210609506488
 20
218.2223041816491
 30
0.0
 11
104.9210609506487
 21
238.2223041816492
 31
0.0
  0
LINE
  5
1F11
330
1A
100
AcDbEntity
  8
SEIHIN
100
AcDbLine
 10
154.4210609506488
 20
92.78251416824803
 30
0.0
 11
154.4210609506488
 21
87.13285104319822
 31
0.0
  0
LINE
  5
1F12
330
1A
100
AcDbEntity
  8
SEIHIN
100
AcDbLine
 10
153.4733969089735
 20
86.13422150855276
 30
0.0
 11
148.7555626096376
 21
85.88697028003696
 31
0.0
  0
ARC
  5
1F13
330
1A
100
AcDbEntity
  8
SEIHIN
100
AcDbCircle
 10
153.4210609506488
 20
87.13285104319822
 30
0.0
 40
1.0
100
AcDbArc
 50
273.0000001194438
 51
0.0
  0
ARC
  5
1F15
330
1A
100
AcDbEntity
  8
SEIHIN
100
AcDbCircle
 10
171.4210609506488
 20
72.0678671663801
 30
0.0
 40
3.0
100
AcDbArc
 50
266.9999999560026
 51
0.0
  0
LINE
  5
1F61
330
1A
100
AcDbEntity
  8
SEIHIN
100
AcDbLine
 10
154.4210609506488
 20
215.7223041816491
 30
0.0
 11
60.1935904108824
 21
215.7223041816491
 31
0.0
  0
LINE
  5
1F62
330
1A
100
AcDbEntity
  8
SEIHIN
100
AcDbLine
 10
154.4210609506488
 20
215.7223041816491
 30
0.0
 11
154.4210609506488
 21
218.2223041816491
 31
0.0
  0
LINE
  5
1F63
330
1A
100
AcDbEntity
  8
SEIHIN
100
AcDbLine
 10
60.1935904108824
 20
215.7223041816491
 30
0.0
 11
60.1935904108824
 21
218.2223041816491
 31
0.0
  0
LINE
  5
1F64
330
1A
100
AcDbEntity
  8
SEIHIN
100
AcDbLine
 10
52.42106095064883
 20
218.2223041816491
 30
0.0
 11
52.42106095064883
 21
238.2223041816491
 31
0.0
  0
LINE
  5
1F67
330
1A
100
AcDbEntity
  8
SEIHIN
100
AcDbLine
 10
54.22106095064885
 20
218.2223041816491
 30
0.0
 11
54.22106095064885
 21
238.2223041816491
 31
0.0
  0
LINE
  5
1F68
330
1A
100
AcDbEntity
  8
SEIHIN
100
AcDbLine
 10
104.9210609506487
 20
218.2223041816491
 30
0.0
 11
226.2892888506488
 21
218.2223041816491
 31
0.0
  0
LINE
  5
1F69
330
1A
100
AcDbEntity
  8
SEIHIN
100
AcDbLine
 10
104.9210609506488
 20
220.2223041816492
 30
0.0
 11
226.2892888506488
 21
220.2223041816492
 31
0.0
  0
CIRCLE
  5
1F6A
330
1A
100
AcDbEntity
  8
SEIHIN
100
AcDbCircle
 10
114.9210609506488
 20
228.2223041816491
 30
0.0
 40
5.0
  0
LINE
  5
1F6C
330
1A
100
AcDbEntity
  8
SEIHIN
100
AcDbLine
 10
127.2766437986703
 20
220.7223041816491
 30
0.0
 11
127.2766437986704
 21
235.7223041816492
 31
0.0
  0
LINE
  5
1F6D
330
1A
100
AcDbEntity
  8
SEIHIN
100
AcDbLine
 10
142.0614450046211
 20
220.7223041816491
 30
0.0
 11
142.0614450046211
 21
235.7223041816491
 31
0.0
  0
LINE
  5
1F70
330
1A
100
AcDbEntity
  8
SEIHIN
100
AcDbLine
 10
104.9210609506487
 20
236.2223041816492
 30
0.0
 11
226.2892888506488
 21
236.2223041816491
 31
0.0
  0
LINE
  5
1F71
330
1A
100
AcDbEntity
  8
SEIHIN
100
AcDbLine
 10
104.9210609506487
 20
238.2223041816492
 30
0.0
 11
226.2892888506488
 21
238.2223041816492
 31
0.0
  0
LINE
  5
1F72
330
1A
100
AcDbEntity
  8
SEIHIN
100
AcDbLine
 10
154.4210609506488
 20
240.7223041816491
 30
0.0
 11
60.1935904108824
 21
240.7223041816491
 31
0.0
  0
LINE
  5
1F73
330
1A
100
AcDbEntity
  8
SEIHIN
100
AcDbLine
 10
52.42106095064883
 20
238.2223041816491
 30
0.0
 11
60.1935904108824
 21
238.2223041816491
 31
0.0
  0
LINE
  5
1F74
330
1A
100
AcDbEntity
  8
SEIHIN
100
AcDbLine
 10
60.1935904108824
 20
240.7223041816491
 30
0.0
 11
60.1935904108824
 21
238.2223041816491
 31
0.0
  0
LINE
  5
1F75
330
1A
100
AcDbEntity
  8
SEIHIN
100
AcDbLine
 10
128.208660270292
 20
236.7223041816492
 30
0.0
 11
128.208660270292
 21
237.7223041816491
 31
0.0
  0
LINE
  5
1F76
330
1A
100
AcDbEntity
  8
SEIHIN
100
AcDbLine
 10
141.2226305480642
 20
237.7223041816491
 30
0.0
 11
141.2226305480641
 21
236.7223041816491
 31
0.0
  0
LINE
  5
1F77
330
1A
100
AcDbEntity
  8
SEIHIN
100
AcDbLine
 10
154.4210609506488
 20
240.7223041816491
 30
0.0
 11
154.4210609506488
 21
238.2223041816491
 31
0.0
  0
LINE
  5
1F85
330
1A
100
AcDbEntity
  8
SEIHIN
100
AcDbLine
 10
144.8591990352881
 20
238.7223041816491
 30
0.0
 11
144.8591990352881
 21
240.2223041816491
 31
0.0
  0
LINE
  5
1F86
330
1A
100
AcDbEntity
  8
SEIHIN
100
AcDbLine
 10
129.3346411723446
 20
238.7223041816492
 30
0.0
 11
129.3346411723446
 21
240.2223041816491
 31
0.0
  0
LINE
  5
1F88
330
1A
100
AcDbEntity
  8
SEIHIN
100
AcDbLine
 10
104.9210609506488
 20
77.79338484380827
 30
0.0
 11
127.3428863353286
 21
77.79338484380827
 31
0.0
  0
LINE
  5
1F89
330
1A
100
AcDbEntity
  8
SEIHIN
100
AcDbLine
 10
130.8784202550932
 20
79.25785095170738
 30
0.0
 11
143.0195153520754
 21
91.39894614368751
 31
0.0
  0
ARC
  5
1F8B
330
1A
100
AcDbEntity
  8
SEIHIN
100
AcDbCircle
 10
146.55504927184
 20
87.86341225158665
 30
0.0
 40
5.0
100
AcDbArc
 50
92.99999987887712
 51
135.0000002241552
  0
ARC
  5
1F93
330
1A
100
AcDbEntity
  8
SEIHIN
100
AcDbCircle
 10
127.3428863353286
 20
82.79338484380826
 30
0.0
 40
5.0
100
AcDbArc
 50
270.0
 51
315.0000002241551
  0
ARC
  5
1F94
330
1A
100
AcDbEntity
  8
SEIHIN
100
AcDbCircle
 10
126.7215660259582
 20
84.29338484380826
 30
0.0
 40
2.0
100
AcDbArc
 50
270.0
 51
315.0000002241553
  0
ARC
  5
1F95
330
1A
100
AcDbEntity
  8
SEIHIN
100
AcDbCircle
 10
126.7215659883313
 20
84.29338484380826
 30
0.0
 40
1.0
100
AcDbArc
 50
270.0
 51
315.0000002241551
  0
DIMENSION
  5
2073
330
1A
100
AcDbEntity
  8
SUNPOU
100
AcDbDimension
  2
*D1
 10
25.59024818231115
 20
218.2223041816491
 30
0.0
 11
23.09024818231112
 21
228.2223041816491
 31
0.0
 70
    32
  3
STANDARD
100
AcDbAlignedDimension
 13
52.42106095064883
 23
238.2223041816491
 33
0.0
 14
52.42106095064883
 24
218.2223041816491
 34
0.0
 50
90.0
100
AcDbRotatedDimension
1001
ACAD
1000
DSTYLE
1002
{
1070
    41
1040
3.0
1070
    42
1040
3.0
1070
    43
1040
7.0
1070
    44
1040
1.5
1070
    73
1070
     0
1070
    74
1070
     0
1070
    77
1070
     3
1070
   140
1040
3.0
1070
   141
1040
3.0
1070
   147
1040
1.0
1070
   172
1070
     1
1070
   173
1070
     1
1070
   176
1070
   256
1070
   177
1070
   256
1070
   178
1070
   256
1070
   271
1070
     0
1070
   272
1070
     0
1070
   341
1005
B2
1070
     6
1000
OPEN
1070
     7
1000
OPEN
1002
}
  0
LINE
  5
2127
330
1A
100
AcDbEntity
  8
SEIHIN
100
AcDbLine
 10
128.208660270292
 20
219.7223041816491
 30
0.0
 11
128.208660270292
 21
218.7223041816491
 31
0.0
  0
LINE
  5
2128
330
1A
100
AcDbEntity
  8
SEIHIN
100
AcDbLine
 10
129.3346411723446
 20
217.7223041816491
 30
0.0
 11
129.3346411723446
 21
216.2223041816492
 31
0.0
  0
LINE
  5
2129
330
1A
100
AcDbEntity
  8
SEIHIN
100
AcDbLine
 10
141.2226305480642
 20
218.7223041816491
 30
0.0
 11
141.2226305480641
 21
219.7223041816491
 31
0.0
  0
LINE
  5
212A
330
1A
100
AcDbEntity
  8
SEIHIN
100
AcDbLine
 10
144.8591990352881
 20
217.7223041816492
 30
0.0
 11
144.8591990352881
 21
216.2223041816492
 31
0.0
  0
LINE
  5
29B5
330
1A
100
AcDbEntity
  8
SEIHIN
100
AcDbLine
 10
245.922079427593
 20
232.2223041816491
 30
0.0
 11
243.4774176990492
 21
232.2223041816491
 31
0.0
  0
LINE
  5
29B6
330
1A
100
AcDbEntity
  8
SEIHIN
100
AcDbLine
 10
245.922079427593
 20
224.2223041816491
 30
0.0
 11
243.4774176990492
 21
224.2223041816491
 31
0.0
  0
LINE
  5
3947
330
1A
100
AcDbEntity
  8
SEIHIN
100
AcDbLine
 10
244.9514542506488
 20
107.7592104438082
 30
0.0
 11
246.0287158506488
 21
105.0660004438082
 31
0.0
  0
LINE
  5
3948
330
1A
100
AcDbEntity
  8
SEIHIN
100
AcDbLine
 10
245.4156939506488
 20
107.9449024438082
 30
0.0
 11
239.2877302506488
 21
105.4937677438082
 31
0.0
  0
LINE
  5
3949
330
1A
100
AcDbEntity
  8
SEIHIN
100
AcDbLine
 10
240.7732971920111
 20
106.0879822100503
 30
0.0
 11
241.8505588506488
 21
103.3947722438082
 31
0.0
  0
LINE
  5
394D
330
1A
100
AcDbEntity
  8
SEIHIN
100
AcDbLine
 10
226.2892888506488
 20
137.9905448438082
 30
0.0
 11
239.2877302506488
 21
105.4937677438082
 31
0.0
  0
LINE
  5
395F
330
1A
100
AcDbEntity
  8
SEIHIN
100
AcDbLine
 10
241.3231698506488
 20
104.7132721438082
 30
0.0
 11
239.0552921506488
 21
102.9255540438082
 31
0.0
  0
ARC
  5
3960
330
1A
100
AcDbEntity
  8
SEIHIN
100
AcDbCircle
 10
240.9220794506488
 20
103.0233882438082
 30
0.0
 40
1.000000001711656
100
AcDbArc
 50
273.0000026078751
 51
21.80099667147166
  0
ARC
  5
3961
330
1A
100
AcDbEntity
  8
SEIHIN
100
AcDbCircle
 10
240.9220794506488
 20
103.0233882438082
 30
0.0
 40
5.499999976944204
100
AcDbArc
 50
273.0000004454678
 51
21.80099976660096
  0
LINE
  5
3989
330
1A
100
AcDbEntity
  8
SEIHIN
100
AcDbLine
 10
230.9316855506488
 20
139.8474650438082
 30
0.0
 11
243.9301269506488
 21
107.3506879438082
 31
0.0
  0
LINE
  5
398A
330
1A
100
AcDbEntity
  8
SEIHIN
100
AcDbLine
 10
232.4172524506488
 20
140.4416795438082
 30
0.0
 11
245.4156939506488
 21
107.9449024438082
 31
0.0
  0
MTEXT
  5
398E
330
1A
100
AcDbEntity
  8
SUNPOU
100
AcDbMText
 10
217.9853907179183
 20
151.2491601398675
 30
0.0
 40
3.0
 41
0.0
 71
     1
 72
     5
  1
{\W1.269841;10}
 11
-0.0000000002051034
 21
1.0
 31
0.0
1001
ACAD
1000
MTEXTBEGIN
1070
    73
1070
     1
1070
    44
1040
1.0
1070
    74
1070
     0
1000
MTEXTEND
1000
MTEXTBEGIN
1070
    73
1070
     1
1070
    44
1040
1.0
1070
    74
1070
     0
1000
MTEXTEND
1000
MTEXTBEGIN
1070
    73
1070
     1
1070
    44
1040
1.0
1070
    74
1070
     0
1000
MTEXTEND
1000
MTEXTBEGIN
1070
    73
1070
     1
1070
    44
1040
1.0
1070
    74
1070
     0
1000
MTEXTEND
  0
LINE
  5
398F
330
1A
100
AcDbEntity
  8
SUNPOU
100
AcDbLine
 10
228.4942586179183
 20
150.2491601404829
 30
0.0
 11
232.4171810709309
 21
140.4416509925121
 31
0.0
  0
MTEXT
  5
3995
330
1A
100
AcDbEntity
  8
SUNPOU
100
AcDbMText
 10
224.4942586154571
 20
147.8631084404829
 30
0.0
 40
3.0
 41
0.0
 71
     1
 72
     5
  1
{\W1.111111;4}
 11
1.0
 21
0.0000000008204137
 31
0.0
1001
ACAD
1000
MTEXTBEGIN
1070
    73
1070
     1
1070
    44
1040
1.0
1070
    74
1070
     0
1000
MTEXTEND
1000
MTEXTBEGIN
1070
    73
1070
     1
1070
    44
1040
1.0
1070
    74
1070
     0
1000
MTEXTEND
1000
MTEXTBEGIN
1070
    73
1070
     1
1070
    44
1040
1.0
1070
    74
1070
     0
1000
MTEXTEND
1000
MTEXTBEGIN
1070
    73
1070
     1
1070
    44
1040
1.0
1070
    74
1070
     0
1000
MTEXTEND
  0
LINE
  5
3998
330
1A
100
AcDbEntity
  8
SEIHIN
100
AcDbLine
 10
232.4172524506488
 20
140.4416795438082
 30
0.0
 11
226.2892888506488
 21
137.9905448438082
 31
0.0
  0
LINE
  5
399A
330
1A
100
AcDbEntity
  8
SUNPOU
100
AcDbLine
 10
224.4942586179183
 20
150.2491601404829
 30
0.0
 11
224.4942586179183
 21
160.2491601404828
 31
0.0
  0
LINE
  5
399B
330
1A
100
AcDbEntity
  8
SUNPOU
100
AcDbLine
 10
224.4942586179183
 20
160.2491601404828
 30
0.0
 11
228.4942586179183
 21
150.2491601404829
 31
0.0
  0
LINE
  5
399C
330
1A
100
AcDbEntity
  8
SUNPOU
100
AcDbLine
 10
228.4942586179183
 20
150.2491601404829
 30
0.0
 11
224.4942586179183
 21
150.2491601404829
 31
0.0
  0
LINE
  5
39C8
330
1A
100
AcDbEntity
  8
SEIHIN
100
AcDbLine
 10
146.2933695011808
 20
92.85655992591271
 30
0.0
 11
241.2099272514816
 21
97.53092582792032
 31
0.0
  0
LINE
  5
39C9
330
1A
100
AcDbEntity
  8
SEIHIN
100
AcDbLine
 10
144.6841071264658
 20
97.27607540881637
 30
0.0
 11
240.9744154506488
 21
102.0247587438082
 31
0.0
  0
LINE
  5
39CA
330
1A
100
AcDbEntity
  8
SEIHIN
100
AcDbLine
 10
144.6607895348439
 20
98.27580347592565
 30
0.0
 11
239.0552921506488
 21
102.9255540438082
 31
0.0
  0
MTEXT
  5
39FC
102
{ACAD_REACTORS
330
39FD
102
}
330
1A
100
AcDbEntity
  8
SUNPOU
100
AcDbMText
 10
301.8238440639828
 20
188.5374590342012
 30
0.0
 40
3.0
 41
0.0
 71
     9
 72
     5
  1
4-φ4.2
1001
ACAD
1000
MTEXTBEGIN
1070
    73
1070
     1
1070
    44
1040
1.0
1070
    74
1070
     0
1000
MTEXTEND
1000
MTEXTBEGIN
1070
    73
1070
     1
1070
    44
1040
1.0
1070
    74
1070
     0
1000
MTEXTEND
1000
MTEXTBEGIN
1070
    73
1070
     1
1070
    44
1040
1.0
1070
    74
1070
     0
1000
MTEXTEND
1000
MTEXTBEGIN
1070
    73
1070
     1
1070
    44
1040
1.0
1070
    74
1070
     0
1000
MTEXTEND
1000
MTEXTBEGIN
1070
    73
1070
     1
1070
    44
1040
1.0
1070
    74
1070
     0
1000
MTEXTEND
1000
MTEXTBEGIN
1070
    73
1070
     1
1070
    44
1040
1.0
1070
    74
1070
     0
1000
MTEXTEND
1000
MTEXTBEGIN
1070
    73
1070
     1
1070
    44
1040
1.0
1070
    74
1070
     0
1000
MTEXTEND
1000
MTEXTBEGIN
1070
    73
1070
     1
1070
    44
1040
1.0
1070
    74
1070
     0
1000
MTEXTEND
  0
LEADER
  5
39FD
330
1A
100
AcDbEntity
  8
SUNPOU
100
AcDbLeader
  3
STANDARD
 73
     0
 40
3.0
 41
15.59999999999999
 76
     3
 10
329.0493306500445
 20
171.9873514651039
 30
0.0
 10
306.6810298218078
 20
190.0366656001392
 30
0.0
 10
302.8238440639828
 20
190.0374590342011
 30
0.0
340
39FC
213
0.0
223
1.5
233
0.0
1001
ACAD
1000
DSTYLE
1002
{
1070
     6
1000
OPEN
1070
    41
1040
3.0
1070
    42
1040
3.0
1070
    43
1040
7.0
1070
    44
1040
1.5
1070
    73
1070
     0
1070
    74
1070
     0
1070
    77
1070
     0
1070
   140
1040
3.0
1070
   141
1040
3.0
1070
   147
1040
1.0
1070
   172
1070
     1
1070
   173
1070
     1
1070
   176
1070
   256
1070
   177
1070
   256
1070
   178
1070
   256
1070
   271
1070
     0
1070
   272
1070
     0
1070
   341
1005
B2
1070
   343
1005
B2
1070
   344
1005
B2
1002
}
  0
DIMENSION
  5
39FE
330
1A
100
AcDbEntity
  8
SUNPOU
100
AcDbDimension
  2
*D3
 10
357.6755611392481
 20
223.106103108102
 30
0.0
 11
336.3205554444204
 21
217.2568525771472
 31
0.0
 70
    32
  3
STANDARD
100
AcDbAlignedDimension
 13
328.7562547215748
 23
176.9301250392382
 33
0.0
 14
369.6093459080882
 24
193.2710228268882
 34
0.0
 50
21.80099999999985
100
AcDbRotatedDimension
1001
ACAD
1000
DSTYLE
1002
{
1070
    41
1040
3.0
1070
    42
1040
3.0
1070
    43
1040
7.0
1070
    44
1040
1.5
1070
    73
1070
     0
1070
    74
1070
     0
1070
    77
1070
     3
1070
   140
1040
3.0
1070
   141
1040
3.0
1070
   147
1040
1.0
1070
   172
1070
     1
1070
   173
1070
     1
1070
   176
1070
   256
1070
   177
1070
   256
1070
   178
1070
   256
1070
   271
1070
     0
1070
   272
1070
     0
1070
   341
1005
B2
1070
     6
1000
OPEN
1070
     7
1000
OPEN
1002
}
  0
DIMENSION
  5
39FF
330
1A
100
AcDbEntity
  8
SUNPOU
100
AcDbDimension
  2
*D2
 10
362.1900719859419
 20
236.0532666891276
 30
0.0
 11
332.4787521847819
 21
226.8615597925172
 31
0.0
 70
    32
  3
STANDARD
100
AcDbAlignedDimension
 13
320.8084630599338
 23
172.5663413939197
 33
0.0
 14
378.3741824591118
 24
195.592151912881
 34
0.0
 50
21.80099999999985
100
AcDbRotatedDimension
1001
ACAD
1000
DSTYLE
1002
{
1070
    41
1040
3.0
1070
    42
1040
3.0
1070
    43
1040
7.0
1070
    44
1040
1.5
1070
    73
1070
     0
1070
    74
1070
     0
1070
    77
1070
     3
1070
   140
1040
3.0
1070
   141
1040
3.0
1070
   147
1040
1.0
1070
   172
1070
     1
1070
   173
1070
     1
1070
   176
1070
   256
1070
   177
1070
   256
1070
   178
1070
   256
1070
   271
1070
     0
1070
   272
1070
     0
1070
   341
1005
B2
1070
     6
1000
OPEN
1070
     7
1000
OPEN
1002
}
  0
CIRCLE
  5
3A00
330
1A
100
AcDbEntity
  8
SEIHIN
100
AcDbCircle
 10
371.8747885559214
 20
187.6072988214851
 30
0.0
 40
2.100000000000022
  0
LINE
  5
3A01
330
1A
100
AcDbEntity
  8
CENTER_L
100
AcDbLine
 10
369.6093459080882
 20
193.2710228268882
 30
0.0
 11
374.1402312037549
 21
181.9435748160822
 31
0.0
  0
LINE
  5
3A02
330
1A
100
AcDbEntity
  8
CENTER_L
100
AcDbLine
 10
377.5385125613246
 20
189.8727414693184
 30
0.0
 11
366.2110645505184
 21
185.3418561736518
 31
0.0
  0
LINE
  5
3A03
330
1A
100
AcDbEntity
  8
SEIHIN
100
AcDbLine
 10
370.760405511112
 20
158.0817480149474
 30
0.0
 11
387.4730337237766
 21
164.7666607462588
 31
0.0
  0
LINE
  5
3A04
330
1A
100
AcDbEntity
  8
SEIHIN
100
AcDbLine
 10
348.4771706376377
 20
186.8646846888444
 30
0.0
 11
374.4745923017824
 21
197.2634378264399
 31
0.0
  0
DIMENSION
  5
3A05
330
1A
100
AcDbEntity
  8
SUNPOU
100
AcDbDimension
  2
*D7
 10
309.4642474397286
 20
162.6435997810485
 30
0.0
 11
310.299909640085
 21
167.2859772632116
 31
0.0
 70
    32
  3
STANDARD
100
AcDbAlignedDimension
 13
322.4797489734926
 23
176.465931551249
 33
0.0
 14
325.3579733640049
 24
169.0009583860019
 34
0.0
 50
111.8010000000002
100
AcDbRotatedDimension
1001
ACAD
1000
DSTYLE
1002
{
1070
    41
1040
3.0
1070
    42
1040
3.0
1070
    43
1040
7.0
1070
    44
1040
1.5
1070
    73
1070
     0
1070
    74
1070
     0
1070
    77
1070
     3
1070
   140
1040
3.0
1070
   141
1040
3.0
1070
   147
1040
1.0
1070
   172
1070
     1
1070
   173
1070
     1
1070
   176
1070
   256
1070
   177
1070
   256
1070
   178
1070
   256
1070
   271
1070
     0
1070
   272
1070
     0
1070
   341
1005
B2
1070
     6
1000
OPEN
1070
     7
1000
OPEN
1002
}
  0
DIMENSION
  5
3A06
330
1A
100
AcDbEntity
  8
SUNPOU
100
AcDbDimension
  2
*D5
 10
328.7994511815787
 20
141.2977141546771
 30
0.0
 11
324.6214288334516
 21
158.4745627963387
 31
0.0
 70
    32
  3
STANDARD
100
AcDbAlignedDimension
 13
296.2551319681086
 23
165.9763021606897
 33
0.0
 14
309.2535733901029
 24
133.4795250805086
 34
0.0
 50
111.8010000000002
100
AcDbRotatedDimension
1001
ACAD
1000
DSTYLE
1002
{
1070
    41
1040
3.0
1070
    42
1040
3.0
1070
    43
1040
7.0
1070
    44
1040
1.5
1070
    73
1070
     0
1070
    74
1070
     0
1070
    77
1070
     3
1070
   140
1040
3.0
1070
   141
1040
3.0
1070
   147
1040
1.0
1070
   172
1070
     1
1070
   173
1070
     1
1070
   176
1070
   256
1070
   177
1070
   256
1070
   178
1070
   256
1070
   271
1070
     0
1070
   272
1070
     0
1070
   341
1005
B2
1070
     6
1000
OPEN
1070
     7
1000
OPEN
1002
}
  0
DIMENSION
  5
3A07
330
1A
100
AcDbEntity
  8
SUNPOU
100
AcDbDimension
  2
*D4
 10
310.189758537631
 20
133.853991378205
 30
0.0
 11
306.0117361895038
 21
151.0308400198666
 31
0.0
 70
    32
  3
STANDARD
100
AcDbAlignedDimension
 13
322.4797489734926
 23
176.465931551249
 33
0.0
 14
335.478190395487
 24
143.9691544710679
 34
0.0
 50
111.8010000000002
100
AcDbRotatedDimension
1001
ACAD
1000
DSTYLE
1002
{
1070
    41
1040
3.0
1070
    42
1040
3.0
1070
    43
1040
7.0
1070
    44
1040
1.5
1070
    73
1070
     0
1070
    74
1070
     0
1070
    77
1070
     3
1070
   140
1040
3.0
1070
   141
1040
3.0
1070
   147
1040
1.0
1070
   172
1070
     1
1070
   173
1070
     1
1070
   176
1070
   256
1070
   177
1070
   256
1070
   178
1070
   256
1070
   271
1070
     0
1070
   272
1070
     0
1070
   341
1005
B2
1070
     6
1000
OPEN
1070
     7
1000
OPEN
1002
}
  0
LINE
  5
3A08
330
1A
100
AcDbEntity
  8
SEIHIN
100
AcDbLine
 10
358.2262037616918
 20
190.7642171154427
 30
0.0
 11
371.2246451836861
 21
158.2674400352616
 31
0.0
  0
CIRCLE
  5
3A09
330
1A
100
AcDbEntity
  8
SEIHIN
100
AcDbCircle
 10
331.0216973694081
 20
171.2664010338352
 30
0.0
 40
2.100000000000022
  0
LINE
  5
3A0A
330
1A
100
AcDbEntity
  8
CENTER_L
100
AcDbLine
 10
325.3579733640049
 20
169.0009583860019
 30
0.0
 11
336.6854213748111
 21
173.5318436816685
 31
0.0
  0
LINE
  5
3A0B
330
1A
100
AcDbEntity
  8
CENTER_L
100
AcDbLine
 10
328.7562547215748
 20
176.9301250392382
 30
0.0
 11
333.2871400172415
 21
165.6026770284322
 31
0.0
  0
LINE
  5
3A0C
330
1A
100
AcDbEntity
  8
SEIHIN
100
AcDbLine
 10
339.1923771861572
 20
183.1508442825604
 30
0.0
 11
355.2017059959778
 21
143.1266927211459
 31
0.0
  0
LINE
  5
3A0D
330
1A
100
AcDbEntity
  8
SEIHIN
100
AcDbLine
 10
320.8084630227954
 20
172.5663414867676
 30
0.0
 11
331.5786001638808
 21
145.6404405703226
 31
0.0
  0
LINE
  5
3A0E
330
1A
100
AcDbEntity
  8
SEIHIN
100
AcDbLine
 10
338.7281375135833
 20
182.9651522622461
 30
0.0
 11
351.7265789355775
 21
150.468375182065
 31
0.0
  0
LINE
  5
3A0F
330
1A
100
AcDbEntity
  8
CENTER_L
100
AcDbLine
 10
342.7765100288771
 20
201.1166315952788
 30
0.0
 11
367.086187719818
 21
140.3411777414926
 31
0.0
  0
LINE
  5
3A10
330
1A
100
AcDbEntity
  8
SEIHIN
100
AcDbLine
 10
357.7619640891178
 20
190.5785250951286
 30
0.0
 11
373.7712928748602
 21
150.5543735939116
 31
0.0
  0
CIRCLE
  5
3A11
330
1A
100
AcDbEntity
  8
SEIHIN
100
AcDbCircle
 10
338.0779941413479
 20
153.6252934760225
 30
0.0
 40
2.100000000000022
  0
LINE
  5
3A12
330
1A
100
AcDbEntity
  8
CENTER_L
100
AcDbLine
 10
332.4142701359447
 20
151.3598508281893
 30
0.0
 11
343.7417181467508
 21
155.8907361238559
 31
0.0
  0
LINE
  5
3A13
330
1A
100
AcDbEntity
  8
CENTER_L
100
AcDbLine
 10
335.8125514935146
 20
159.2890174814256
 30
0.0
 11
340.3434367891812
 21
147.9615694706196
 31
0.0
  0
LINE
  5
3A14
330
1A
100
AcDbEntity
  8
SEIHIN
100
AcDbLine
 10
335.478190395487
 20
143.9691544710679
 30
0.0
 11
352.1908186081514
 21
150.6540672023791
 31
0.0
  0
DIMENSION
  5
3A15
330
1A
100
AcDbEntity
  8
SUNPOU
100
AcDbDimension
  2
*D6
 10
319.4916165366958
 20
137.5746574620517
 30
0.0
 11
320.3272787370522
 21
142.2170349442149
 31
0.0
 70
    32
  3
STANDARD
100
AcDbAlignedDimension
 13
332.4142701359447
 23
151.3598508281893
 33
0.0
 14
335.478190395487
 24
143.9691544710679
 34
0.0
 50
111.8010000000002
100
AcDbRotatedDimension
1001
ACAD
1000
DSTYLE
1002
{
1070
    41
1040
3.0
1070
    42
1040
3.0
1070
    43
1040
7.0
1070
    44
1040
1.5
1070
    73
1070
     0
1070
    74
1070
     0
1070
    77
1070
     3
1070
   140
1040
3.0
1070
   141
1040
3.0
1070
   147
1040
1.0
1070
   172
1070
     1
1070
   173
1070
     1
1070
   176
1070
   256
1070
   177
1070
   256
1070
   178
1070
   256
1070
   271
1070
     0
1070
   272
1070
     0
1070
   341
1005
B2
1070
     6
1000
OPEN
1070
     7
1000
OPEN
1002
}
  0
ARC
  5
3A16
330
1A
100
AcDbEntity
  8
SEIHIN
100
AcDbCircle
 10
334.3640382736018
 20
146.7545925065119
 30
0.0
 40
3.000000000000003
100
AcDbArc
 50
201.800996180281
 51
291.8009999999999
  0
LINE
  5
3A17
330
1A
100
AcDbEntity
  8
SEIHIN
100
AcDbLine
 10
347.4556432247739
 20
158.4533052477689
 30
0.0
 11
345.5986845344778
 21
157.7105371665121
 31
0.0
  0
LINE
  5
3A18
330
1A
100
AcDbEntity
  8
SEIHIN
100
AcDbLine
 10
348.1984113060306
 20
156.5963465574728
 30
0.0
 11
346.3414526157346
 21
155.853578476216
 31
0.0
  0
ARC
  5
3A19
330
1A
100
AcDbEntity
  8
SEIHIN
100
AcDbCircle
 10
345.784376554792
 20
157.2462974939381
 30
0.0
 40
0.5
100
AcDbArc
 50
111.8009999999999
 51
201.801
  0
LINE
  5
3A1A
330
1A
100
AcDbEntity
  8
SEIHIN
100
AcDbLine
 10
345.6915209228464
 20
156.1321261284758
 30
0.0
 11
345.3201368822179
 21
157.0606054736239
 31
0.0
  0
ARC
  5
3A1B
330
1A
100
AcDbEntity
  8
SEIHIN
100
AcDbCircle
 10
346.1557605954204
 20
156.31781814879
 30
0.0
 40
0.5
100
AcDbArc
 50
201.801
 51
291.8010000000005
  0
ARC
  5
3A1C
330
1A
100
AcDbEntity
  8
SEIHIN
100
AcDbCircle
 10
370.8533188737888
 20
167.2736665909051
 30
0.0
 40
0.5
100
AcDbArc
 50
21.801
 51
111.8009999999999
  0
LINE
  5
3A1D
330
1A
100
AcDbEntity
  8
SEIHIN
100
AcDbLine
 10
368.8106681631785
 20
166.9951381822223
 30
0.0
 11
370.6676268534745
 21
167.7379062634791
 31
0.0
  0
ARC
  5
3A1E
330
1A
100
AcDbEntity
  8
SEIHIN
100
AcDbCircle
 10
371.2247029144172
 20
166.3451872457571
 30
0.0
 40
0.5
100
AcDbArc
 50
291.8009999999994
 51
21.801
  0
LINE
  5
3A1F
330
1A
100
AcDbEntity
  8
SEIHIN
100
AcDbLine
 10
369.5534362444353
 20
165.1381794919262
 30
0.0
 11
371.4103949347314
 21
165.8809475731831
 31
0.0
  0
LINE
  5
3A20
330
1A
100
AcDbEntity
  8
SEIHIN
100
AcDbLine
 10
371.6889425869912
 20
166.5308792660713
 30
0.0
 11
371.3175585463628
 21
167.4593586112193
 31
0.0
  0
LINE
  5
3A22
330
1A
100
AcDbEntity
  8
SEIHIN
100
AcDbLine
 10
340.399346452834
 20
176.0944128055815
 30
0.0
 11
338.542387762538
 21
175.3516447243247
 31
0.0
  0
LINE
  5
3A23
330
1A
100
AcDbEntity
  8
SEIHIN
100
AcDbLine
 10
341.1421145340909
 20
174.2374541152855
 30
0.0
 11
339.2851558437948
 21
173.4946860340286
 31
0.0
  0
LINE
  5
3A24
330
1A
100
AcDbEntity
  8
SEIHIN
100
AcDbLine
 10
322.4797489734926
 20
176.465931551249
 30
0.0
 11
348.4771706376376
 21
186.8646846888445
 31
0.0
  0
ARC
  5
3A25
330
1A
100
AcDbEntity
  8
SEIHIN
100
AcDbCircle
 10
323.5939010953779
 20
173.6804935158049
 30
0.0
 40
3.0
100
AcDbArc
 50
111.8009999999999
 51
201.801
  0
LINE
  5
3A26
330
1A
100
AcDbEntity
  8
SEIHIN
100
AcDbLine
 10
338.6352241509066
 20
173.7732336862884
 30
0.0
 11
338.2638401102781
 21
174.7017130314365
 31
0.0
  0
ARC
  5
3A27
330
1A
100
AcDbEntity
  8
SEIHIN
100
AcDbCircle
 10
339.0994638234805
 20
173.9589257066026
 30
0.0
 40
0.5
100
AcDbArc
 50
201.801
 51
291.8010000000005
  0
ARC
  5
3A28
330
1A
100
AcDbEntity
  8
SEIHIN
100
AcDbCircle
 10
338.7280797828521
 20
174.8874050517507
 30
0.0
 40
0.5
100
AcDbArc
 50
111.8009999999999
 51
201.801
  0
LINE
  5
3A2A
330
1A
100
AcDbEntity
  8
SEIHIN
100
AcDbLine
 10
368.2004168160112
 20
148.3260693200424
 30
0.0
 11
366.3290518395319
 21
153.0045787275941
 31
0.0
  0
LINE
  5
3A2B
330
1A
100
AcDbEntity
  8
SEIHIN
100
AcDbLine
 10
360.7725820548268
 20
145.3549969950151
 30
0.0
 11
358.9012170783475
 21
150.0335064025668
 31
0.0
  0
ARC
  5
3A2C
330
1A
100
AcDbEntity
  8
SEIHIN
100
AcDbCircle
 10
363.7970221018491
 20
184.9147741487177
 30
0.0
 40
0.5
100
AcDbArc
 50
21.801
 51
111.8009999999999
  0
LINE
  5
3A2D
330
1A
100
AcDbEntity
  8
SEIHIN
100
AcDbLine
 10
362.4971394724955
 20
182.7792870497389
 30
0.0
 11
364.3540981627916
 21
183.5220551309956
 31
0.0
  0
LINE
  5
3A2E
330
1A
100
AcDbEntity
  8
SEIHIN
100
AcDbLine
 10
361.7543713912387
 20
184.6362457400349
 30
0.0
 11
363.6113300815348
 21
185.3790138212917
 31
0.0
  0
ARC
  5
3A2F
330
1A
100
AcDbEntity
  8
SEIHIN
100
AcDbCircle
 10
364.1684061424775
 20
183.9862948035697
 30
0.0
 40
0.5
100
AcDbArc
 50
291.8009999999994
 51
21.801
  0
LINE
  5
3A30
330
1A
100
AcDbEntity
  8
SEIHIN
100
AcDbLine
 10
364.6326458150513
 20
184.1719868238839
 30
0.0
 11
364.261261774423
 21
185.1004661690319
 31
0.0
  0
CIRCLE
  5
3A32
330
1A
100
AcDbEntity
  8
SEIHIN
100
AcDbCircle
 10
378.9310853278613
 20
169.9661912636725
 30
0.0
 40
2.100000000000022
  0
LINE
  5
3A33
330
1A
100
AcDbEntity
  8
CENTER_L
100
AcDbLine
 10
376.665642680028
 20
175.6299152690756
 30
0.0
 11
381.1965279756946
 21
164.3024672582695
 31
0.0
  0
LINE
  5
3A34
330
1A
100
AcDbEntity
  8
CENTER_L
100
AcDbLine
 10
384.5948093332643
 20
172.2316339115058
 30
0.0
 11
373.2673613224581
 21
167.7007486158393
 31
0.0
  0
LINE
  5
3A35
330
1A
100
AcDbEntity
  8
SEIHIN
100
AcDbLine
 10
378.3741824219733
 20
195.5921520057289
 30
0.0
 11
389.1443195630589
 21
168.666251089284
 31
0.0
  0
ARC
  5
3A36
330
1A
100
AcDbEntity
  8
SEIHIN
100
AcDbCircle
 10
386.3588816018915
 20
167.5520987817028
 30
0.0
 40
3.000000000000003
100
AcDbArc
 50
291.8009999999999
 51
21.80100381971894
  0
ARC
  5
3A37
330
1A
100
AcDbEntity
  8
SEIHIN
100
AcDbCircle
 10
375.5887444236676
 20
194.4779997909957
 30
0.0
 40
3.0
100
AcDbArc
 50
21.80100190985947
 51
111.8009999999999
  0
LINE
  5
3B2A
330
1A
100
AcDbEntity
  8
CENTER_L
100
AcDbLine
 10
229.7246008482786
 20
130.7484021149718
 30
0.0
 11
241.0520488590847
 21
135.2792874106384
 31
0.0
  0
LINE
  5
3B2B
330
1A
100
AcDbEntity
  8
CENTER_L
100
AcDbLine
 10
236.7808976202183
 20
113.1072945571592
 30
0.0
 11
248.1083456310245
 21
117.6381798528258
 31
0.0
  0
LINE
  5
3B5C
330
1A
100
AcDbEntity
  8
SEIHIN
100
AcDbLine
 10
232.4172524506488
 20
216.9223041816491
 30
0.0
 11
232.4172524506488
 21
200.2223041816491
 31
0.0
  0
LINE
  5
3B5D
330
1A
100
AcDbEntity
  8
SEIHIN
100
AcDbLine
 10
230.9316855506488
 20
215.8223041816491
 30
0.0
 11
230.9316855506488
 21
200.2223041816491
 31
0.0
  0
LINE
  5
3B5E
330
1A
100
AcDbEntity
  8
SEIHIN
100
AcDbLine
 10
226.2892888506488
 20
216.9223041816492
 30
0.0
 11
226.2892888506488
 21
239.522304181649
 31
0.0
  0
ARC
  5
3B5F
330
1A
100
AcDbEntity
  8
SEIHIN
100
AcDbCircle
 10
227.0892888506489
 20
216.9223041816493
 30
0.0
 40
0.8
100
AcDbArc
 50
180.0000000000061
 51
269.9999999999979
  0
ARC
  5
3B60
330
1A
100
AcDbEntity
  8
SEIHIN
100
AcDbCircle
 10
231.6172524506488
 20
216.9223041816491
 30
0.0
 40
0.8
100
AcDbArc
 50
0.0
 51
90.00000000000204
  0
ARC
  5
3B61
330
1A
100
AcDbEntity
  8
SEIHIN
100
AcDbCircle
 10
230.6316855506488
 20
215.8223041816492
 30
0.0
 40
0.3
100
AcDbArc
 50
359.9999999999891
 51
90.00000000001085
  0
LINE
  5
3B62
330
1A
100
AcDbEntity
  8
SEIHIN
100
AcDbLine
 10
227.7748557646506
 20
218.0223041816491
 30
0.0
 11
227.7748557646506
 21
238.4223041816492
 31
0.0
  0
ARC
  5
3B63
330
1A
100
AcDbEntity
  8
SEIHIN
100
AcDbCircle
 10
228.0748557646505
 20
218.022304181649
 30
0.0
 40
0.3
100
AcDbArc
 50
179.9999999999837
 51
270.0000000000108
  0
LINE
  5
3B67
330
1A
100
AcDbEntity
  8
SEIHIN
100
AcDbLine
 10
231.9530128492906
 20
218.2223041816491
 30
0.0
 11
231.9530128492906
 21
238.2223041816491
 31
0.0
  0
LINE
  5
3B68
330
1A
100
AcDbEntity
  8
SEIHIN
100
AcDbLine
 10
245.4156939506488
 20
200.2223041816491
 30
0.0
 11
245.4156939506488
 21
216.9223041816491
 31
0.0
  0
ELLIPSE
  5
3B6D
330
1A
100
AcDbEntity
  8
SEIHIN
100
AcDbEllipse
 10
233.5314045972374
 20
200.2223041816491
 30
0.0
 11
0.0
 21
3.0
 31
0.0
210
0.0
220
0.0
230
1.0
 40
0.3713840488628743
 41
1.570796326794896
 42
3.141592653589793
  0
ELLIPSE
  5
3B6E
330
1A
100
AcDbEntity
  8
SEIHIN
100
AcDbEllipse
 10
244.3015418040602
 20
200.2223041816491
 30
0.0
 11
0.0
 21
3.0
 31
0.0
210
0.0
220
0.0
230
1.0
 40
0.3713840488628743
 41
3.141592653589793
 42
4.712388980384689
  0
ELLIPSE
  5
3B70
330
1A
100
AcDbEntity
  8
SEIHIN
100
AcDbEllipse
 10
232.0458376972374
 20
200.2223041816491
 30
0.0
 11
0.0
 21
3.0
 31
0.0
210
0.0
220
0.0
230
1.0
 40
0.3713840488628743
 41
1.570796326794896
 42
3.141592653589793
  0
LINE
  5
3B71
330
1A
100
AcDbEntity
  8
CENTER_L
100
AcDbLine
 10
235.3883248070777
 20
212.3223041816491
 30
0.0
 11
235.3883248070777
 21
200.1224486320569
 31
0.0
  0
ELLIPSE
  5
3B77
330
1A
100
AcDbEntity
  8
SEIHIN
100
AcDbEllipse
 10
235.3883248070777
 20
206.2223041816491
 30
0.0
 11
0.0
 21
2.099999999999994
 31
0.0
210
0.0
220
0.0
230
1.0
 40
0.3713840423544865
 41
0.0
 42
6.283185307179586
  0
ELLIPSE
  5
3B78
330
1A
100
AcDbEntity
  8
SEIHIN
100
AcDbEllipse
 10
242.4446216118129
 20
206.2223041816491
 30
0.0
 11
0.0
 21
2.099999999999994
 31
0.0
210
0.0
220
0.0
230
1.0
 40
0.3713840423544865
 41
0.0
 42
6.283185307179586
  0
LINE
  5
3B7A
330
1A
100
AcDbEntity
  8
CENTER_L
100
AcDbLine
 10
242.4446216118129
 20
212.3223041816491
 30
0.0
 11
242.4446216118129
 21
200.1224486320569
 31
0.0
  0
LINE
  5
3B7C
330
1A
100
AcDbEntity
  8
SEIHIN
100
AcDbLine
 10
246.422079427593
 20
218.2223041816492
 30
0.0
 11
227.7748557646506
 21
218.2223041816491
 31
0.0
  0
LINE
  5
3B7D
330
1A
100
AcDbEntity
  8
SEIHIN
100
AcDbLine
 10
246.422079427593
 20
218.2223041816492
 30
0.0
 11
246.422079427593
 21
223.7223041816491
 31
0.0
  0
LINE
  5
3B7E
330
1A
100
AcDbEntity
  8
SEIHIN
100
AcDbLine
 10
240.7732972646506
 20
218.0223041816491
 30
0.0
 11
240.7732972646506
 21
218.2223041816492
 31
0.0
  0
ARC
  5
3B7F
330
1A
100
AcDbEntity
  8
SEIHIN
100
AcDbCircle
 10
244.6156939506488
 20
216.9223041816491
 30
0.0
 40
0.8
100
AcDbArc
 50
0.0
 51
90.00000000000204
  0
ARC
  5
3B80
330
1A
100
AcDbEntity
  8
SEIHIN
100
AcDbCircle
 10
241.0732972646505
 20
218.022304181649
 30
0.0
 40
0.3
100
AcDbArc
 50
179.9999999999837
 51
270.0000000000108
  0
LINE
  5
3B81
330
1A
100
AcDbEntity
  8
SEIHIN
100
AcDbLine
 10
245.4156939506488
 20
256.2223041816491
 30
0.0
 11
245.4156939506488
 21
239.5223041816492
 31
0.0
  0
LINE
  5
3B82
330
1A
100
AcDbEntity
  8
CENTER_L
100
AcDbLine
 10
242.4446216118129
 20
244.1223041816491
 30
0.0
 11
242.4446216118129
 21
256.3221597312414
 31
0.0
  0
LINE
  5
3B83
330
1A
100
AcDbEntity
  8
CENTER_L
100
AcDbLine
 10
235.3883248070777
 20
244.1223041816491
 30
0.0
 11
235.3883248070777
 21
256.3221597312414
 31
0.0
  0
LINE
  5
3B84
330
1A
100
AcDbEntity
  8
SEIHIN
100
AcDbLine
 10
230.9316855506488
 20
240.6223041816491
 30
0.0
 11
230.9316855506488
 21
256.2223041816491
 31
0.0
  0
LINE
  5
3B85
330
1A
100
AcDbEntity
  8
SEIHIN
100
AcDbLine
 10
232.4172524506488
 20
239.5223041816492
 30
0.0
 11
232.4172524506488
 21
256.2223041816491
 31
0.0
  0
LINE
  5
3B86
330
1A
100
AcDbEntity
  8
SEIHIN
100
AcDbLine
 10
244.3015418040602
 20
259.2223041816491
 30
0.0
 11
232.0458376972374
 21
259.2223041816491
 31
0.0
  0
ELLIPSE
  5
3B87
330
1A
100
AcDbEntity
  8
SEIHIN
100
AcDbEllipse
 10
232.0458376972374
 20
256.2223041816491
 30
0.0
 11
0.0
 21
-3.0
 31
0.0
210
0.0
220
0.0
230
-1.0
 40
0.3713840488628743
 41
1.570796326794896
 42
3.141592653589793
  0
ELLIPSE
  5
3B88
330
1A
100
AcDbEntity
  8
SEIHIN
100
AcDbEllipse
 10
233.5314045972374
 20
256.2223041816491
 30
0.0
 11
0.0
 21
-3.0
 31
0.0
210
0.0
220
0.0
230
-1.0
 40
0.3713840488628743
 41
1.570796326794896
 42
3.141592653589793
  0
ELLIPSE
  5
3B89
330
1A
100
AcDbEntity
  8
SEIHIN
100
AcDbEllipse
 10
244.3015418040602
 20
256.2223041816491
 30
0.0
 11
0.0
 21
-3.0
 31
0.0
210
0.0
220
0.0
230
-1.0
 40
0.3713840488628743
 41
3.141592653589793
 42
4.712388980384689
  0
LINE
  5
3B8A
330
1A
100
AcDbEntity
  8
SEIHIN
100
AcDbLine
 10
246.422079427593
 20
238.2223041816491
 30
0.0
 11
227.7748557646506
 21
238.2223041816491
 31
0.0
  0
LINE
  5
3B8B
330
1A
100
AcDbEntity
  8
SEIHIN
100
AcDbLine
 10
244.6156939506488
 20
238.7223041816491
 30
0.0
 11
228.0748557646505
 21
238.7223041816491
 31
0.0
  0
LINE
  5
3B8C
330
1A
100
AcDbEntity
  8
CENTER_L
100
AcDbLine
 10
230.6082833548102
 20
250.2223041816491
 30
0.0
 11
247.7052399803125
 21
250.2223041816491
 31
0.0
  0
ELLIPSE
  5
3B8D
330
1A
100
AcDbEntity
  8
SEIHIN
100
AcDbEllipse
 10
235.3883248070777
 20
250.2223041816491
 30
0.0
 11
0.0
 21
-2.099999999999994
 31
0.0
210
0.0
220
0.0
230
-1.0
 40
0.3713840423544865
 41
0.0
 42
6.283185307179586
  0
ARC
  5
3B8E
330
1A
100
AcDbEntity
  8
SEIHIN
100
AcDbCircle
 10
231.6172524506488
 20
239.5223041816492
 30
0.0
 40
0.8
100
AcDbArc
 50
269.9999999999979
 51
0.0
  0
LINE
  5
3B8F
330
1A
100
AcDbEntity
  8
SEIHIN
100
AcDbLine
 10
227.0892888506488
 20
240.3223041816491
 30
0.0
 11
230.6316855506488
 21
240.3223041816491
 31
0.0
  0
ARC
  5
3B90
330
1A
100
AcDbEntity
  8
SEIHIN
100
AcDbCircle
 10
227.0892888506489
 20
239.522304181649
 30
0.0
 40
0.8
100
AcDbArc
 50
90.00000000000204
 51
179.9999999999938
  0
ARC
  5
3B91
330
1A
100
AcDbEntity
  8
SEIHIN
100
AcDbCircle
 10
228.0748557646505
 20
238.4223041816492
 30
0.0
 40
0.3
100
AcDbArc
 50
89.99999999998918
 51
180.0000000000162
  0
ARC
  5
3B92
330
1A
100
AcDbEntity
  8
SEIHIN
100
AcDbCircle
 10
230.6316855506488
 20
240.6223041816491
 30
0.0
 40
0.3
100
AcDbArc
 50
269.9999999999891
 51
0.0000000000108534
  0
ELLIPSE
  5
3B93
330
1A
100
AcDbEntity
  8
SEIHIN
100
AcDbEllipse
 10
242.4446216118129
 20
250.2223041816491
 30
0.0
 11
0.0
 21
-2.099999999999994
 31
0.0
210
0.0
220
0.0
230
-1.0
 40
0.3713840423544865
 41
0.0
 42
6.283185307179586
  0
LINE
  5
3B94
330
1A
100
AcDbEntity
  8
SEIHIN
100
AcDbLine
 10
240.7732972646506
 20
238.4223041816491
 30
0.0
 11
240.7732972646506
 21
238.2223041816491
 31
0.0
  0
ARC
  5
3B95
330
1A
100
AcDbEntity
  8
SEIHIN
100
AcDbCircle
 10
241.0732972646505
 20
238.4223041816492
 30
0.0
 40
0.3
100
AcDbArc
 50
89.99999999998918
 51
180.0000000000162
  0
ARC
  5
3B96
330
1A
100
AcDbEntity
  8
SEIHIN
100
AcDbCircle
 10
244.6156939506488
 20
239.5223041816492
 30
0.0
 40
0.8
100
AcDbArc
 50
269.9999999999979
 51
0.0
  0
LINE
  5
3B98
330
1A
100
AcDbEntity
  8
SEIHIN
100
AcDbLine
 10
245.922079427593
 20
224.2223041816491
 30
0.0
 11
245.922079427593
 21
232.2223041816491
 31
0.0
  0
LINE
  5
3B9A
330
1A
100
AcDbEntity
  8
SEIHIN
100
AcDbLine
 10
246.422079427593
 20
232.7223041816492
 30
0.0
 11
245.9220794275929
 21
232.2223041816491
 31
0.0
  0
LINE
  5
3B9B
330
1A
100
AcDbEntity
  8
SEIHIN
100
AcDbLine
 10
246.422079427593
 20
223.7223041816491
 30
0.0
 11
245.9220794275929
 21
224.2223041816492
 31
0.0
  0
LINE
  5
3B9C
330
1A
100
AcDbEntity
  8
SEIHIN
100
AcDbLine
 10
246.422079427593
 20
232.7223041816492
 30
0.0
 11
246.422079427593
 21
238.2223041816491
 31
0.0
  0
LINE
  5
3BD8
330
1A
100
AcDbEntity
  8
SEIHIN
100
AcDbLine
 10
373.7712928748602
 20
150.5543735939116
 30
0.0
 11
355.2017059959778
 21
143.1266927211458
 31
0.0
  0
LINE
  5
3BDB
330
1A
100
AcDbEntity
  8
SEIHIN
100
AcDbLine
 10
230.3745517528745
 20
133.162436853463
 30
0.0
 11
231.8600879124402
 21
129.4485194716916
 31
0.0
  0
LINE
  5
3BDC
330
1A
100
AcDbEntity
  8
CENTER_L
100
AcDbLine
 10
230.3745517528745
 20
133.162436853463
 30
0.0
 11
232.2315104431705
 21
133.9052049347198
 31
0.0
  0
LINE
  5
3BDD
330
1A
100
AcDbEntity
  8
SEIHIN
100
AcDbLine
 10
230.3745517528745
 20
133.162436853463
 30
0.0
 11
232.2315104431705
 21
133.9052049347198
 31
0.0
  0
LINE
  5
3BDE
330
1A
100
AcDbEntity
  8
SEIHIN
100
AcDbLine
 10
231.8600879124402
 20
129.4485194716916
 30
0.0
 11
233.7170466027362
 21
130.1912875529485
 31
0.0
  0
LINE
  5
3BE0
330
1A
100
AcDbEntity
  8
SEIHIN
100
AcDbLine
 10
237.4308485576097
 20
115.5213293087683
 30
0.0
 11
239.2878072479057
 21
116.2640973900251
 31
0.0
  0
LINE
  5
3BE1
330
1A
100
AcDbEntity
  8
SEIHIN
100
AcDbLine
 10
237.4308485576097
 20
115.5213293087683
 30
0.0
 11
238.9163847171754
 21
111.807411926997
 31
0.0
  0
LINE
  5
3BE2
330
1A
100
AcDbEntity
  8
SEIHIN
100
AcDbLine
 10
237.4308485576097
 20
115.5213293087683
 30
0.0
 11
239.2878072479057
 21
116.2640973900251
 31
0.0
  0
LINE
  5
3BE3
330
1A
100
AcDbEntity
  8
SEIHIN
100
AcDbLine
 10
238.9163847171754
 20
111.807411926997
 30
0.0
 11
240.7733434074714
 21
112.5501800082538
 31
0.0
  0
LINE
  5
3BE6
330
1A
100
AcDbEntity
  8
SEIHIN
100
AcDbLine
 10
236.3883248070777
 20
215.7223041816491
 30
0.0
 11
234.3883248070777
 21
215.7223041816491
 31
0.0
  0
LINE
  5
3BE7
330
1A
100
AcDbEntity
  8
SEIHIN
100
AcDbLine
 10
234.3883248070777
 20
215.7223041816491
 30
0.0
 11
234.3883248070777
 21
216.9223041816491
 31
0.0
  0
LINE
  5
3BE8
330
1A
100
AcDbEntity
  8
SEIHIN
100
AcDbLine
 10
236.3883248070777
 20
215.7223041816491
 30
0.0
 11
236.3883248070777
 21
216.9223041816491
 31
0.0
  0
LINE
  5
3BEB
330
1A
100
AcDbEntity
  8
SEIHIN
100
AcDbLine
 10
243.4446216118129
 20
215.7223041816491
 30
0.0
 11
241.4446216118129
 21
215.7223041816491
 31
0.0
  0
LINE
  5
3BEC
330
1A
100
AcDbEntity
  8
SEIHIN
100
AcDbLine
 10
241.4446216118129
 20
215.7223041816491
 30
0.0
 11
241.4446216118129
 21
216.9223041816491
 31
0.0
  0
LINE
  5
3BED
330
1A
100
AcDbEntity
  8
SEIHIN
100
AcDbLine
 10
243.4446216118129
 20
215.7223041816491
 30
0.0
 11
243.4446216118129
 21
216.9223041816491
 31
0.0
  0
LINE
  5
3BEE
330
1A
100
AcDbEntity
  8
SEIHIN
100
AcDbLine
 10
236.3883248070777
 20
240.7223041816491
 30
0.0
 11
234.3883248070777
 21
240.7223041816491
 31
0.0
  0
LINE
  5
3BEF
330
1A
100
AcDbEntity
  8
SEIHIN
100
AcDbLine
 10
234.3883248070777
 20
240.7223041816491
 30
0.0
 11
234.3883248070777
 21
239.5223041816492
 31
0.0
  0
LINE
  5
3BF0
330
1A
100
AcDbEntity
  8
SEIHIN
100
AcDbLine
 10
236.3883248070777
 20
240.7223041816491
 30
0.0
 11
236.3883248070777
 21
239.5223041816492
 31
0.0
  0
LINE
  5
3BF1
330
1A
100
AcDbEntity
  8
SEIHIN
100
AcDbLine
 10
243.4446216118129
 20
240.7223041816491
 30
0.0
 11
243.4446216118129
 21
239.5223041816492
 31
0.0
  0
LINE
  5
3BF2
330
1A
100
AcDbEntity
  8
SEIHIN
100
AcDbLine
 10
241.4446216118129
 20
240.7223041816491
 30
0.0
 11
241.4446216118129
 21
239.5223041816492
 31
0.0
  0
LINE
  5
3BF3
330
1A
100
AcDbEntity
  8
SEIHIN
100
AcDbLine
 10
243.4446216118129
 20
240.7223041816491
 30
0.0
 11
241.4446216118129
 21
240.7223041816491
 31
0.0
  0
ARC
  5
3BF6
330
1A
100
AcDbEntity
  8
SEIHIN
100
AcDbCircle
 10
242.6446216118129
 20
216.9223041816491
 30
0.0
 40
0.8
100
AcDbArc
 50
0.0
 51
90.00000000000204
  0
ARC
  5
3BF7
330
1A
100
AcDbEntity
  8
SEIHIN
100
AcDbCircle
 10
240.6446216118129
 20
216.9223041816491
 30
0.0
 40
0.8
100
AcDbArc
 50
0.0
 51
90.00000000000204
  0
ARC
  5
3BF8
330
1A
100
AcDbEntity
  8
SEIHIN
100
AcDbCircle
 10
233.5883248070777
 20
216.9223041816491
 30
0.0
 40
0.8
100
AcDbArc
 50
0.0
 51
90.00000000000204
  0
ARC
  5
3BF9
330
1A
100
AcDbEntity
  8
SEIHIN
100
AcDbCircle
 10
235.5883248070777
 20
216.9223041816491
 30
0.0
 40
0.8
100
AcDbArc
 50
0.0
 51
90.00000000000204
  0
ARC
  5
3BFA
330
1A
100
AcDbEntity
  8
SEIHIN
100
AcDbCircle
 10
235.5883248070777
 20
239.5223041816492
 30
0.0
 40
0.8
100
AcDbArc
 50
269.9999999999979
 51
0.0
  0
ARC
  5
3BFB
330
1A
100
AcDbEntity
  8
SEIHIN
100
AcDbCircle
 10
233.5883248070777
 20
239.5223041816492
 30
0.0
 40
0.8
100
AcDbArc
 50
269.9999999999979
 51
0.0
  0
ARC
  5
3BFC
330
1A
100
AcDbEntity
  8
SEIHIN
100
AcDbCircle
 10
240.6446216118129
 20
239.5223041816492
 30
0.0
 40
0.8
100
AcDbArc
 50
269.9999999999979
 51
0.0
  0
ARC
  5
3BFD
330
1A
100
AcDbEntity
  8
SEIHIN
100
AcDbCircle
 10
242.6446216118129
 20
239.5223041816492
 30
0.0
 40
0.8
100
AcDbArc
 50
269.9999999999979
 51
0.0
  0
DIMENSION
  5
3C2E
330
1A
100
AcDbEntity
  8
SUNPOU
100
AcDbDimension
  2
*D8
 10
246.422079427593
 20
179.3811918073673
 30
0.0
 11
149.4215701891209
 21
181.8811918073673
 31
0.0
 70
    32
  3
STANDARD
100
AcDbAlignedDimension
 13
52.42106095064883
 23
81.99338484380824
 33
0.0
 14
246.422079427593
 24
103.0233882438082
 34
0.0
100
AcDbRotatedDimension
1001
ACAD
1000
DSTYLE
1002
{
1070
    41
1040
3.0
1070
    42
1040
3.0
1070
    43
1040
7.0
1070
    44
1040
1.5
1070
    73
1070
     0
1070
    74
1070
     0
1070
    77
1070
     3
1070
   140
1040
3.0
1070
   141
1040
3.0
1070
   147
1040
1.0
1070
   172
1070
     1
1070
   173
1070
     1
1070
   176
1070
   256
1070
   177
1070
   256
1070
   178
1070
   256
1070
   271
1070
     0
1070
   272
1070
     0
1070
   341
1005
B2
1070
     6
1000
OPEN
1070
     7
1000
OPEN
1002
}
  0
DIMENSION
  5
3C3B
330
1A
100
AcDbEntity
  8
SUNPOU
100
AcDbDimension
  2
*D9
 10
25.59024818231113
 20
81.99338484380826
 30
0.0
 11
23.09024818231111
 21
111.2175321938082
 31
0.0
 70
    32
  3
STANDARD
100
AcDbAlignedDimension
 13
232.4172524506488
 23
140.4416795438082
 33
0.0
 14
52.42106095064883
 24
81.99338484380824
 34
0.0
 50
90.0
100
AcDbRotatedDimension
1001
ACAD
1000
DSTYLE
1002
{
1070
    41
1040
3.0
1070
    42
1040
3.0
1070
    43
1040
7.0
1070
    44
1040
1.5
1070
    73
1070
     0
1070
    74
1070
     0
1070
    77
1070
     3
1070
   140
1040
3.0
1070
   141
1040
3.0
1070
   147
1040
1.0
1070
   172
1070
     1
1070
   173
1070
     1
1070
   176
1070
   256
1070
   177
1070
   256
1070
   178
1070
   256
1070
   271
1070
     0
1070
   272
1070
     0
1070
   341
1005
B2
1070
     6
1000
OPEN
1070
     7
1000
OPEN
1002
}
  0
DIMENSION
  5
3C48
330
1A
100
AcDbEntity
  8
SUNPOU
100
AcDbDimension
  2
*D10
 10
268.6435601551723
 20
117.2358564082654
 30
0.0
 11
264.4655377663164
 21
134.4127050641516
 31
0.0
 70
    33
  3
STANDARD
100
AcDbAlignedDimension
 13
232.4172524506488
 23
140.4416795438082
 33
0.0
 14
245.4156939506488
 24
107.9449024438082
 34
0.0
1001
ACAD
1000
DSTYLE
1002
{
1070
    41
1040
3.0
1070
    42
1040
3.0
1070
    43
1040
7.0
1070
    44
1040
1.5
1070
    73
1070
     0
1070
    74
1070
     0
1070
    77
1070
     3
1070
   140
1040
3.0
1070
   141
1040
3.0
1070
   147
1040
1.0
1070
   172
1070
     1
1070
   173
1070
     1
1070
   176
1070
   256
1070
   177
1070
   256
1070
   178
1070
   256
1070
   271
1070
     0
1070
   272
1070
     0
1070
   341
1005
B2
1070
     6
1000
OPEN
1070
     7
1000
OPEN
1002
}
  0
DIMENSION
  5
3C55
330
1A
100
AcDbEntity
  8
SUNPOU
100
AcDbDimension
  2
*D11
 10
268.358450987846
 20
197.2223041816491
 30
0.0
 11
265.8584509878459
 21
228.2223041816492
 31
0.0
 70
    32
  3
STANDARD
100
AcDbAlignedDimension
 13
244.3015418040602
 23
259.2223041816491
 33
0.0
 14
244.3015418040602
 24
197.2223041816491
 34
0.0
 50
90.0
100
AcDbRotatedDimension
1001
ACAD
1000
DSTYLE
1002
{
1070
    41
1040
3.0
1070
    42
1040
3.0
1070
    43
1040
7.0
1070
    44
1040
1.5
1070
    73
1070
     0
1070
    74
1070
     0
1070
    77
1070
     3
1070
   140
1040
3.0
1070
   141
1040
3.0
1070
   147
1040
1.0
1070
   172
1070
     1
1070
   173
1070
     1
1070
   176
1070
   256
1070
   177
1070
   256
1070
   178
1070
   256
1070
   271
1070
     0
1070
   272
1070
     0
1070
   341
1005
B2
1070
     6
1000
OPEN
1070
     7
1000
OPEN
1002
}
  0
DIMENSION
  5
3C62
330
1A
100
AcDbEntity
  8
SUNPOU
100
AcDbDimension
  2
*D12
 10
246.422079427593
 20
170.2124169169787
 30
0.0
 11
175.6715701891209
 21
172.7124169169787
 31
0.0
 70
    32
  3
STANDARD
100
AcDbAlignedDimension
 13
104.9210609506488
 23
83.29338484380826
 33
0.0
 14
246.422079427593
 24
103.0233882438082
 34
0.0
100
AcDbRotatedDimension
1001
ACAD
1000
DSTYLE
1002
{
1070
    41
1040
3.0
1070
    42
1040
3.0
1070
    43
1040
7.0
1070
    44
1040
1.5
1070
    73
1070
     0
1070
    74
1070
     0
1070
    77
1070
     3
1070
   140
1040
3.0
1070
   141
1040
3.0
1070
   147
1040
1.0
1070
   172
1070
     1
1070
   173
1070
     1
1070
   176
1070
   256
1070
   177
1070
   256
1070
   178
1070
   256
1070
   271
1070
     0
1070
   272
1070
     0
1070
   341
1005
B2
1070
     6
1000
OPEN
1070
     7
1000
OPEN
1002
}
  0
LWPOLYLINE
  5
3E67
330
1A
100
AcDbEntity
  8
ZUWAKU
100
AcDbPolyline
 90
        4
 70
     1
 43
0.0
 10
0.4000000586257784
 20
275.4000001587328
 10
0.4000000586257784
 20
0.4000001587327802
 10
398.4000000586257
 20
0.4000001587327802
 10
398.4000000586257
 20
275.4000001587328
  0
LWPOLYLINE
  5
3E68
330
1A
100
AcDbEntity
  8
ZUWAKU
100
AcDbPolyline
 90
        4
 70
     1
 43
0.0
 10
0.2000000586257897
 20
275.6000001587327
 10
0.2000000586257897
 20
0.2000001587327915
 10
398.6000000586258
 20
0.20000015873278
 10
398.6000000586258
 20
275.6000001587327
  0
LWPOLYLINE
  5
3E69
330
1A
100
AcDbEntity
  8
ZUWAKU
100
AcDbPolyline
 90
        4
 70
     1
 43
0.0
 10
0.0000000586258011
 20
275.8000001587327
 10
0.0000000586258011
 20
0.0000001587327461
 10
398.8000000586258
 20
0.0000001587327798
 10
398.8000000586258
 20
275.8000001587328
  0
LWPOLYLINE
  5
3E6A
330
1A
100
AcDbEntity
  8
ZUWAKU
100
AcDbPolyline
 90
        4
 70
     1
 43
0.0
 10
0.3000000586257556
 20
275.5000001587327
 10
0.3000000586257556
 20
0.3000001587327574
 10
398.5000000586259
 20
0.3000001587327805
 10
398.5000000586257
 20
275.5000001587327
  0
LWPOLYLINE
  5
3E6B
330
1A
100
AcDbEntity
  8
ZUWAKU
100
AcDbPolyline
 90
        4
 70
     1
 43
0.0
 10
0.100000058625767
 20
275.7000001587328
 10
0.100000058625767
 20
0.1000001587327688
 10
398.7000000586257
 20
0.1000001587327803
 10
398.7000000586258
 20
275.7000001587328
  0
LINE
  5
3E6C
330
1A
100
AcDbEntity
  8
ZUWAKU
100
AcDbLine
 10
0.0000000586258011
 20
15.00000015873274
 30
0.0
 11
398.7000000586257
 21
15.00000015873274
 31
0.0
  0
LINE
  5
3E6D
330
1A
100
AcDbEntity
  8
ZUWAKU
100
AcDbLine
 10
0.0000000586258011
 20
15.10000015873274
 30
0.0
 11
398.7000000586257
 21
15.10000015873274
 31
0.0
  0
LINE
  5
3E6E
330
1A
100
AcDbEntity
  8
ZUWAKU
100
AcDbLine
 10
0.0000000586258011
 20
15.20000015873274
 30
0.0
 11
398.7000000586257
 21
15.20000015873274
 31
0.0
  0
LINE
  5
3E6F
330
1A
100
AcDbEntity
  8
ZUWAKU
100
AcDbLine
 10
0.0000000586258011
 20
15.30000015873275
 30
0.0
 11
398.7000000586257
 21
15.30000015873275
 31
0.0
  0
LINE
  5
3E70
330
1A
100
AcDbEntity
  8
ZUWAKU
100
AcDbLine
 10
0.0000000586258011
 20
15.40000015873275
 30
0.0
 11
398.7000000586257
 21
15.40000015873275
 31
0.0
  0
LINE
  5
3E71
330
1A
100
AcDbEntity
  8
ZUWAKU
100
AcDbLine
 10
104.3233007036598
 20
7.700000158732763
 30
0.0
 11
223.7121820441215
 21
7.700000158732763
 31
0.0
  0
LINE
  5
3E72
330
1A
100
AcDbEntity
  8
ZUWAKU
100
AcDbLine
 10
104.3233007036598
 20
7.800000158732762
 30
0.0
 11
223.7121820441215
 21
7.800000158732766
 31
0.0
  0
LINE
  5
3E73
330
1A
100
AcDbEntity
  8
ZUWAKU
100
AcDbLine
 10
104.3233007036598
 20
7.600000158732765
 30
0.0
 11
223.7121820441215
 21
7.600000158732761
 31
0.0
  0
TEXT
  5
3E74
330
1A
100
AcDbEntity
  8
MOJI
100
AcDbText
 10
119.9136013990513
 20
9.002460687436439
 30
0.0
 40
2.799999999999999
  1
亜鉛メッキ金具正面打（吊）ストロング高強度金具（釣針型）
 41
0.9
  7
ｽﾀｲﾙ1
100
AcDbText
  0
TEXT
  5
3E75
330
1A
100
AcDbEntity
  8
MOJI
100
AcDbText
 10
46.47889485271036
 20
6.370589223870126
 30
0.0
 40
3.0
  1
新・丸トップＲＶ１０５
 41
0.9
  7
ｽﾀｲﾙ1
100
AcDbText
  0
CIRCLE
  5
3E76
330
1A
100
AcDbEntity
  8
ZUWAKU
100
AcDbCircle
 10
12.99610613601635
 20
7.600000158732747
 30
0.0
 40
0.875
  0
LINE
  5
3E77
330
1A
100
AcDbEntity
  8
ZUWAKU
100
AcDbLine
 10
13.43360613601635
 20
3.575000158732748
 30
0.0
 11
12.47110613601637
 21
3.575000158732748
 31
0.0
  0
LINE
  5
3E78
330
1A
100
AcDbEntity
  8
ZUWAKU
100
AcDbLine
 10
12.47110613601637
 20
4.975000158732747
 30
0.0
 11
13.43360613601635
 21
4.975000158732747
 31
0.0
  0
LINE
  5
3E79
330
1A
100
AcDbEntity
  8
ZUWAKU
100
AcDbLine
 10
13.43360613601635
 20
10.22500015873274
 30
0.0
 11
12.47110613601637
 21
10.22500015873274
 31
0.0
  0
LINE
  5
3E7A
330
1A
100
AcDbEntity
  8
ZUWAKU
100
AcDbLine
 10
12.47110613601637
 20
11.62500015873272
 30
0.0
 11
13.43360613601635
 21
11.62500015873275
 31
0.0
  0
HATCH
  5
3E7B
330
1A
100
AcDbEntity
  8
ZUWAKU
100
AcDbHatch
 10
0.0
 20
0.0
 30
0.0
210
0.0
220
0.0
230
1.0
  2
ANSI37
 70
     0
 71
     0
 91
        8
 92
        7
 72
     1
 73
     1
 93
       24
 10
7.251131389185729
 20
8.822424399224537
 42
-0.1989123673796348
 10
7.046106136016362
 20
9.317399146055063
 42
0.0
 10
7.046106136016362
 20
9.962500158732751
 42
-0.4142135623730912
 10
7.308606136016351
 20
10.22500015873274
 42
0.0
 10
8.796106136016305
 20
10.22500015873274
 42
0.4142135623731546
 10
9.058606136016351
 20
10.48750015873274
 42
0.0
 10
9.058606136016351
 20
11.36250015873275
 42
0.4142135623731586
 10
8.796106136016305
 20
11.62500015873275
 42
0.0
 10
7.046106136016362
 20
11.62500015873275
 42
0.4142135623730928
 10
5.646106136016385
 20
10.22500015873276
 42
0.0
 10
5.646106136016385
 20
9.317399146055127
 42
0.1989123673796619
 10
6.2611818955246
 20
7.832474905563323
 42
0.0
 10
7.716080882846938
 20
6.377575918240994
 42
-0.1989123673796613
 10
7.921106136016362
 20
5.882601171410401
 42
0.0
 10
7.921106136016362
 20
5.237500158732743
 42
-0.4142135623730911
 10
7.658606136016373
 20
4.975000158732747
 42
0.0
 10
6.171106136016419
 20
4.975000158732747
 42
0.4142135623731526
 10
5.908606136016373
 20
4.712500158732753
 42
0.0
 10
5.908606136016373
 20
3.837500158732742
 42
0.4142135623731526
 10
6.171106136016419
 20
3.575000158732748
 42
0.0
 10
7.921106136016362
 20
3.575000158732748
 42
0.4142135623731044
 10
9.321106136016396
 20
4.975000158732736
 42
0.0
 10
9.321106136016396
 20
5.882601171410373
 42
0.1989123673796604
 10
8.706030376508124
 20
7.367525411902143
 42
0.0
 97
        0
 92
        7
 72
     1
 73
     1
 93
       16
 10
11.77110613601638
 20
9.525000158732751
 42
-0.4142135623730935
 10
12.47110613601637
 20
10.22500015873274
 42
0.0
 10
13.43360613601635
 20
10.22500015873274
 42
0.4142135623731546
 10
13.69610613601639
 20
10.48750015873274
 42
0.0
 10
13.69610613601639
 20
11.36250015873275
 42
0.4142135623730951
 10
13.4336061360164
 20
11.62500015873275
 42
0.0
 10
12.47110613601631
 20
11.62500015873272
 42
0.4142135623730892
 10
10.37110613601635
 20
9.525000158732716
 42
0.0
 10
10.37110613601635
 20
5.67500015873276
 42
0.4142135623730969
 10
12.47110613601637
 20
3.575000158732748
 42
0.0
 10
13.43360613601635
 20
3.575000158732748
 42
0.4142135623731526
 10
13.69610613601639
 20
3.837500158732742
 42
0.0
 10
13.69610613601639
 20
4.712500158732753
 42
0.4142135623730891
 10
13.4336061360164
 20
4.975000158732747
 42
0.0
 10
12.47110613601637
 20
4.975000158732747
 42
-0.4142135623730928
 10
11.77110613601638
 20
5.675000158732741
 42
0.0
 97
        0
 92
        7
 72
     1
 73
     1
 93
        2
 10
12.12110613601635
 20
7.600000158732747
 42
1.0
 10
13.87110613601635
 20
7.600000158732747
 42
1.0
 97
        0
 92
        7
 72
     1
 73
     1
 93
       26
 10
18.65742937710535
 20
9.602523755514461
 42
0.0
 10
19.18824919367426
 20
11.28345317464925
 42
0.5069206636600134
 10
18.93793374407658
 20
11.62500015873275
 42
0.0
 10
18.08848905427197
 20
11.62500015873275
 42
0.3272098845218764
 10
17.83817360467429
 20
11.44154714281623
 42
0.0
 10
16.9040386673584
 20
8.483453174649287
 42
-0.3272098845219541
 10
16.65372321776067
 20
8.300000158732746
 42
0.0
 10
16.58360613601644
 20
8.300000158732746
 42
-0.4142135623731526
 10
16.32110613601639
 20
8.56250015873274
 42
0.0
 10
16.32110613601639
 20
11.36250015873275
 42
0.4142135623730951
 10
16.0586061360164
 20
11.62500015873275
 42
0.0
 10
15.18360613601635
 20
11.62500015873275
 42
0.4142135623730871
 10
14.92110613601636
 20
11.36250015873275
 42
0.0
 10
14.92110613601636
 20
3.837500158732742
 42
0.4142135623730891
 10
15.18360613601635
 20
3.575000158732748
 42
0.0
 10
16.05860613601635
 20
3.575000158732748
 42
0.4142135623731526
 10
16.32110613601639
 20
3.837500158732742
 42
0.0
 10
16.32110613601639
 20
6.637500158732754
 42
-0.4142135623731526
 10
16.58360613601644
 20
6.900000158732748
 42
0.0
 10
16.65372321776072
 20
6.900000158732748
 42
-0.3272098845218915
 10
16.9040386673584
 20
6.71654714281621
 42
0.0
 10
17.83817360467429
 20
3.758453174649284
 42
0.3272098845218902
 10
18.08848905427197
 20
3.575000158732748
 42
0.0
 10
18.93793374407658
 20
3.575000158732748
 42
0.5069206636600335
 10
19.18824919367426
 20
3.916547142816252
 42
0.0
 10
18.02505350443743
 20
7.600000158732816
 42
0.0
 97
        0
 92
        7
 72
     1
 73
     1
 93
        8
 10
21.74610613601635
 20
11.36250015873275
 42
0.4142135623731546
 10
21.4836061360163
 20
11.62500015873275
 42
0.0
 10
20.60860613601641
 20
11.62500015873275
 42
0.4142135623731507
 10
20.34610613601637
 20
11.36250015873275
 42
0.0
 10
20.34610613601637
 20
3.837500158732742
 42
0.4142135623731526
 10
20.60860613601641
 20
3.575000158732748
 42
0.0
 10
21.4836061360163
 20
3.575000158732748
 42
0.4142135623731526
 10
21.74610613601635
 20
3.837500158732742
 42
0.0
 97
        0
 92
        7
 72
     1
 73
     1
 93
       24
 10
24.19610613601639
 20
9.962500158732751
 42
-0.4142135623731546
 10
24.45860613601644
 20
10.22500015873274
 42
0.0
 10
25.9461061360164
 20
10.22500015873274
 42
0.4142135623730911
 10
26.20860613601638
 20
10.48750015873274
 42
0.0
 10
26.20860613601638
 20
11.36250015873275
 42
0.4142135623730952
 10
25.9461061360164
 20
11.62500015873275
 42
0.0
 10
24.19610613601639
 20
11.62500015873275
 42
0.4142135623731048
 10
22.79610613601636
 20
10.22500015873276
 42
0.0
 10
22.79610613601636
 20
9.317399146055127
 42
0.1989123673796613
 10
23.41118189552463
 20
7.832474905563351
 42
0.0
 10
24.86608088284697
 20
6.377575918241017
 42
-0.1989123673796402
 10
25.07110613601639
 20
5.882601171410481
 42
0.0
 10
25.07110613601639
 20
5.237500158732743
 42
-0.4142135623730911
 10
24.8086061360164
 20
4.975000158732747
 42
0.0
 10
23.32110613601639
 20
4.975000158732747
 42
0.4142135623731526
 10
23.05860613601635
 20
4.712500158732753
 42
0.0
 10
23.05860613601635
 20
3.837500158732742
 42
0.4142135623730891
 10
23.32110613601634
 20
3.575000158732748
 42
0.0
 10
25.07110613601639
 20
3.575000158732748
 42
0.4142135623730925
 10
26.47110613601637
 20
4.975000158732736
 42
0.0
 10
26.47110613601637
 20
5.882601171410373
 42
0.1989123673796675
 10
25.8560303765081
 20
7.3675254119022
 42
0.0
 10
24.40113138918582
 20
8.822424399224457
 42
-0.1989123673796652
 10
24.19610613601639
 20
9.317399146055041
 42
0.0
 97
        0
 92
        7
 72
     1
 73
     1
 93
       16
 10
28.92110613601636
 20
11.36250015873274
 42
0.414213562373103
 10
28.65860613601637
 20
11.62500015873275
 42
0.0
 10
27.78360613601637
 20
11.62500015873275
 42
0.4142135623730871
 10
27.52110613601638
 20
11.36250015873275
 42
0.0
 10
27.52110613601638
 20
4.975000158732736
 42
0.4142135623730926
 10
28.92110613601636
 20
3.575000158732748
 42
0.0
 10
30.67110613601636
 20
3.575000158732748
 42
0.4142135623731044
 10
32.07110613601639
 20
4.975000158732736
 42
0.0
 10
32.07110613601639
 20
11.36250015873275
 42
0.4142135623730951
 10
31.80860613601641
 20
11.62500015873275
 42
0.0
 10
30.93360613601635
 20
11.62500015873275
 42
0.4142135623730871
 10
30.67110613601636
 20
11.36250015873275
 42
0.0
 10
30.67110613601636
 20
5.500000158732735
 42
-0.414213562373088
 10
30.14610613601638
 20
4.975000158732747
 42
0.0
 10
29.44610613601639
 20
4.975000158732747
 42
-0.4142135623731197
 10
28.92110613601636
 20
5.500000158732735
 42
0.0
 97
        0
 92
        7
 72
     1
 73
     1
 93
        8
 10
34.52110613601638
 20
11.36250015873275
 42
0.4142135623730871
 10
34.25860613601639
 20
11.62500015873275
 42
0.0
 10
33.38360613601639
 20
11.62500015873275
 42
0.4142135623731507
 10
33.12110613601635
 20
11.36250015873275
 42
0.0
 10
33.12110613601635
 20
3.837500158732742
 42
0.4142135623730891
 10
33.38360613601634
 20
3.575000158732748
 42
0.0
 10
34.25860613601639
 20
3.575000158732748
 42
0.4142135623730891
 10
34.52110613601638
 20
3.837500158732742
 42
0.0
 97
        0
 75
     0
 76
     1
 52
0.0
 41
0.1
 77
     0
 78
     2
 53
45.0
 43
-450.4711521087137
 44
-6.599999841267219
 45
-0.2245064030267288
 46
0.2245064030267288
 79
     0
 53
135.0
 43
-450.4711521087137
 44
-6.599999841267219
 45
-0.2245064030267288
 46
-0.2245064030267288
 79
     0
 47
0.057451373970553
 98
        8
 10
8.039927540137455
 20
7.583586981675523
 10
11.20225756184538
 20
9.422031249958251
 10
12.58218400145563
 20
7.755940981768105
 10
15.45703004944437
 20
8.100648981953497
 10
20.91923606810417
 20
8.330455115724305
 10
23.44910050619057
 20
9.709288316936351
 10
28.27884304482597
 20
9.364579116280253
 10
33.91353986843717
 20
9.594385250051061
  0
ARC
  5
3E7C
330
1A
100
AcDbEntity
  8
ZUWAKU
100
AcDbCircle
 10
7.746106136016351
 20
9.317399146055098
 30
0.0
 40
2.099999999999999
100
AcDbArc
 50
180.0
 51
225.0
  0
LINE
  5
3E7D
330
1A
100
AcDbEntity
  8
ZUWAKU
100
AcDbLine
 10
10.37110613601635
 20
5.67500015873275
 30
0.0
 11
10.37110613601635
 21
9.525000158732726
 31
0.0
  0
LINE
  5
3E7E
330
1A
100
AcDbEntity
  8
ZUWAKU
100
AcDbLine
 10
11.77110613601638
 20
9.525000158732748
 30
0.0
 11
11.77110613601638
 21
5.67500015873275
 31
0.0
  0
ARC
  5
3E7F
330
1A
100
AcDbEntity
  8
ZUWAKU
100
AcDbCircle
 10
7.746106136016351
 20
9.317399146055098
 30
0.0
 40
0.7
100
AcDbArc
 50
180.0000000000016
 51
224.9999999999988
  0
ARC
  5
3E80
330
1A
100
AcDbEntity
  8
ZUWAKU
100
AcDbCircle
 10
12.47110613601637
 20
5.67500015873275
 30
0.0
 40
2.099999999999999
100
AcDbArc
 50
180.0
 51
270.0
  0
ARC
  5
3E81
330
1A
100
AcDbEntity
  8
ZUWAKU
100
AcDbCircle
 10
7.921106136016362
 20
4.975000158732747
 30
0.0
 40
1.399999999999999
100
AcDbArc
 50
270.0
 51
0.0
  0
ARC
  5
3E82
330
1A
100
AcDbEntity
  8
ZUWAKU
100
AcDbCircle
 10
7.221106136016373
 20
5.882601171410399
 30
0.0
 40
2.099999999999999
100
AcDbArc
 50
0.0
 51
45.0
  0
LINE
  5
3E83
330
1A
100
AcDbEntity
  8
ZUWAKU
100
AcDbLine
 10
6.2611818955246
 20
7.832474905563337
 30
0.0
 11
7.716080882846938
 21
6.377575918241007
 31
0.0
  0
LINE
  5
3E84
330
1A
100
AcDbEntity
  8
ZUWAKU
100
AcDbLine
 10
6.171106136016362
 20
4.975000158732747
 30
0.0
 11
7.658606136016373
 21
4.975000158732747
 31
0.0
  0
LINE
  5
3E85
330
1A
100
AcDbEntity
  8
ZUWAKU
100
AcDbLine
 10
6.171106136016362
 20
3.575000158732748
 30
0.0
 11
7.921106136016362
 21
3.575000158732748
 31
0.0
  0
ARC
  5
3E86
330
1A
100
AcDbEntity
  8
ZUWAKU
100
AcDbCircle
 10
6.171106136016362
 20
4.712500158732748
 30
0.0
 40
0.2625
100
AcDbArc
 50
90.0
 51
180.0
  0
ARC
  5
3E87
330
1A
100
AcDbEntity
  8
ZUWAKU
100
AcDbCircle
 10
6.171106136016362
 20
3.837500158732748
 30
0.0
 40
0.2625
100
AcDbArc
 50
180.0
 51
270.0
  0
LINE
  5
3E88
330
1A
100
AcDbEntity
  8
ZUWAKU
100
AcDbLine
 10
5.908606136016373
 20
3.837500158732748
 30
0.0
 11
5.908606136016373
 21
4.712500158732748
 31
0.0
  0
ARC
  5
3E89
330
1A
100
AcDbEntity
  8
ZUWAKU
100
AcDbCircle
 10
7.221106136016373
 20
5.882601171410421
 30
0.0
 40
0.7
100
AcDbArc
 50
0.0
 51
45.0
  0
ARC
  5
3E8A
330
1A
100
AcDbEntity
  8
ZUWAKU
100
AcDbCircle
 10
7.658606136016373
 20
5.23750015873275
 30
0.0
 40
0.2625
100
AcDbArc
 50
270.0
 51
0.0
  0
LINE
  5
3E8B
330
1A
100
AcDbEntity
  8
ZUWAKU
100
AcDbLine
 10
7.921106136016362
 20
5.23750015873275
 30
0.0
 11
7.921106136016362
 21
5.882601171410421
 31
0.0
  0
LINE
  5
3E8C
330
1A
100
AcDbEntity
  8
ZUWAKU
100
AcDbLine
 10
8.706030376508124
 20
7.36752541190216
 30
0.0
 11
7.251131389185786
 21
8.822424399224498
 31
0.0
  0
ARC
  5
3E8D
330
1A
100
AcDbEntity
  8
ZUWAKU
100
AcDbCircle
 10
12.47110613601637
 20
5.67500015873275
 30
0.0
 40
0.7
100
AcDbArc
 50
180.0
 51
270.0
  0
LINE
  5
3E8E
330
1A
100
AcDbEntity
  8
ZUWAKU
100
AcDbLine
 10
9.321106136016396
 20
4.975000158732747
 30
0.0
 11
9.321106136016396
 21
5.882601171410421
 31
0.0
  0
ARC
  5
3E8F
330
1A
100
AcDbEntity
  8
ZUWAKU
100
AcDbCircle
 10
8.796106136016362
 20
10.48750015873274
 30
0.0
 40
0.2625
100
AcDbArc
 50
270.0
 51
0.0
  0
ARC
  5
3E90
330
1A
100
AcDbEntity
  8
ZUWAKU
100
AcDbCircle
 10
8.796106136016362
 20
11.36250015873274
 30
0.0
 40
0.2625
100
AcDbArc
 50
0.0
 51
90.0
  0
ARC
  5
3E91
330
1A
100
AcDbEntity
  8
ZUWAKU
100
AcDbCircle
 10
7.046106136016362
 20
10.22500015873274
 30
0.0
 40
1.399999999999999
100
AcDbArc
 50
90.0
 51
180.0
  0
LINE
  5
3E92
330
1A
100
AcDbEntity
  8
ZUWAKU
100
AcDbLine
 10
5.646106136016385
 20
10.22500015873274
 30
0.0
 11
5.646106136016385
 21
9.317399146055077
 31
0.0
  0
LINE
  5
3E93
330
1A
100
AcDbEntity
  8
ZUWAKU
100
AcDbLine
 10
8.796106136016362
 20
10.22500015873274
 30
0.0
 11
7.308606136016351
 21
10.22500015873274
 31
0.0
  0
LINE
  5
3E94
330
1A
100
AcDbEntity
  8
ZUWAKU
100
AcDbLine
 10
7.046106136016362
 20
9.962500158732748
 30
0.0
 11
7.046106136016362
 21
9.317399146055077
 31
0.0
  0
ARC
  5
3E95
330
1A
100
AcDbEntity
  8
ZUWAKU
100
AcDbCircle
 10
7.308606136016351
 20
9.962500158732748
 30
0.0
 40
0.2625
100
AcDbArc
 50
90.0
 51
180.0
  0
LINE
  5
3E96
330
1A
100
AcDbEntity
  8
ZUWAKU
100
AcDbLine
 10
7.046106136016362
 20
11.62500015873275
 30
0.0
 11
8.796106136016362
 21
11.62500015873275
 31
0.0
  0
ARC
  5
3E97
330
1A
100
AcDbEntity
  8
ZUWAKU
100
AcDbCircle
 10
12.47110613601637
 20
9.525000158732726
 30
0.0
 40
2.099999999999999
100
AcDbArc
 50
90.0
 51
180.0
  0
ARC
  5
3E98
330
1A
100
AcDbEntity
  8
ZUWAKU
100
AcDbCircle
 10
12.47110613601637
 20
9.525000158732748
 30
0.0
 40
0.7
100
AcDbArc
 50
90.0
 51
180.0
  0
LINE
  5
3E99
330
1A
100
AcDbEntity
  8
ZUWAKU
100
AcDbLine
 10
9.058606136016351
 20
11.36250015873274
 30
0.0
 11
9.058606136016351
 21
10.48750015873274
 31
0.0
  0
LINE
  5
3E9A
330
1A
100
AcDbEntity
  8
ZUWAKU
100
AcDbLine
 10
17.83817360467429
 20
11.44154714281623
 30
0.0
 11
16.9040386673584
 21
8.483453174649262
 31
0.0
  0
LINE
  5
3E9B
330
1A
100
AcDbEntity
  8
ZUWAKU
100
AcDbLine
 10
14.92110613601636
 20
11.36250015873274
 30
0.0
 11
14.92110613601636
 21
3.837500158732748
 31
0.0
  0
LINE
  5
3E9C
330
1A
100
AcDbEntity
  8
ZUWAKU
100
AcDbLine
 10
16.32110613601639
 20
8.562500158732749
 30
0.0
 11
16.32110613601639
 21
11.36250015873274
 31
0.0
  0
LINE
  5
3E9D
330
1A
100
AcDbEntity
  8
ZUWAKU
100
AcDbLine
 10
28.92110613601636
 20
5.500000158732746
 30
0.0
 11
28.92110613601636
 21
11.36250015873274
 31
0.0
  0
LINE
  5
3E9E
330
1A
100
AcDbEntity
  8
ZUWAKU
100
AcDbLine
 10
27.52110613601638
 20
11.36250015873274
 30
0.0
 11
27.52110613601638
 21
4.975000158732747
 31
0.0
  0
LINE
  5
3E9F
330
1A
100
AcDbEntity
  8
ZUWAKU
100
AcDbLine
 10
21.74610613601635
 20
3.837500158732748
 30
0.0
 11
21.74610613601635
 21
11.36250015873274
 31
0.0
  0
LINE
  5
3EA0
330
1A
100
AcDbEntity
  8
ZUWAKU
100
AcDbLine
 10
20.34610613601637
 20
11.36250015873274
 30
0.0
 11
20.34610613601637
 21
3.837500158732748
 31
0.0
  0
LINE
  5
3EA1
330
1A
100
AcDbEntity
  8
ZUWAKU
100
AcDbLine
 10
18.65742937710535
 20
9.602523755514461
 30
0.0
 11
18.02505350443743
 21
7.600000158732758
 31
0.0
  0
ARC
  5
3EA2
330
1A
100
AcDbEntity
  8
ZUWAKU
100
AcDbCircle
 10
24.89610613601638
 20
9.317399146055098
 30
0.0
 40
2.099999999999999
100
AcDbArc
 50
180.0
 51
225.0
  0
ARC
  5
3EA3
330
1A
100
AcDbEntity
  8
ZUWAKU
100
AcDbCircle
 10
24.89610613601638
 20
9.317399146055098
 30
0.0
 40
0.7
100
AcDbArc
 50
180.0000000000016
 51
224.9999999999988
  0
LINE
  5
3EA4
330
1A
100
AcDbEntity
  8
ZUWAKU
100
AcDbLine
 10
33.12110613601635
 20
11.36250015873274
 30
0.0
 11
33.12110613601635
 21
3.837500158732748
 31
0.0
  0
LINE
  5
3EA5
330
1A
100
AcDbEntity
  8
ZUWAKU
100
AcDbLine
 10
34.52110613601638
 20
3.837500158732748
 30
0.0
 11
34.52110613601638
 21
11.36250015873274
 31
0.0
  0
LINE
  5
3EA6
330
1A
100
AcDbEntity
  8
ZUWAKU
100
AcDbLine
 10
30.67110613601636
 20
11.36250015873274
 30
0.0
 11
30.67110613601636
 21
5.500000158732746
 31
0.0
  0
LINE
  5
3EA7
330
1A
100
AcDbEntity
  8
ZUWAKU
100
AcDbLine
 10
32.07110613601639
 20
4.975000158732747
 30
0.0
 11
32.07110613601639
 21
11.36250015873274
 31
0.0
  0
LINE
  5
3EA8
330
1A
100
AcDbEntity
  8
ZUWAKU
100
AcDbLine
 10
39.56331483261999
 20
15.00000015873274
 30
0.0
 11
39.56331483261999
 21
0.4000001587327802
 31
0.0
  0
LINE
  5
3EA9
330
1A
100
AcDbEntity
  8
ZUWAKU
100
AcDbLine
 10
39.76331483261992
 20
15.00000015873274
 30
0.0
 11
39.76331483262004
 21
0.4000001587327802
 31
0.0
  0
LINE
  5
3EAA
330
1A
100
AcDbEntity
  8
ZUWAKU
100
AcDbLine
 10
39.6633148326199
 20
15.00000015873274
 30
0.0
 11
39.66331483262001
 21
0.4000001587327802
 31
0.0
  0
LINE
  5
3EAB
330
1A
100
AcDbEntity
  8
ZUWAKU
100
AcDbLine
 10
28.92110613601636
 20
3.575000158732748
 30
0.0
 11
30.67110613601636
 21
3.575000158732748
 31
0.0
  0
LINE
  5
3EAC
330
1A
100
AcDbEntity
  8
ZUWAKU
100
AcDbLine
 10
30.14610613601638
 20
4.975000158732747
 30
0.0
 11
29.44610613601639
 21
4.975000158732747
 31
0.0
  0
LINE
  5
3EAD
330
1A
100
AcDbEntity
  8
ZUWAKU
100
AcDbLine
 10
20.60860613601636
 20
3.575000158732748
 30
0.0
 11
21.48360613601636
 21
3.575000158732748
 31
0.0
  0
LINE
  5
3EAE
330
1A
100
AcDbEntity
  8
ZUWAKU
100
AcDbLine
 10
17.83817360467429
 20
3.758453174649261
 30
0.0
 11
16.9040386673584
 21
6.716547142816231
 31
0.0
  0
ARC
  5
3EAF
330
1A
100
AcDbEntity
  8
ZUWAKU
100
AcDbCircle
 10
16.58360613601638
 20
6.637500158732748
 30
0.0
 40
0.2625
100
AcDbArc
 50
90.0
 51
180.0
  0
ARC
  5
3EB0
330
1A
100
AcDbEntity
  8
ZUWAKU
100
AcDbCircle
 10
16.65372321776072
 20
6.637500158732748
 30
0.0
 40
0.2625
100
AcDbArc
 50
17.52556837372303
 51
90.0
  0
ARC
  5
3EB1
330
1A
100
AcDbEntity
  8
ZUWAKU
100
AcDbCircle
 10
15.18360613601635
 20
3.837500158732748
 30
0.0
 40
0.2625
100
AcDbArc
 50
180.0
 51
270.0
  0
ARC
  5
3EB2
330
1A
100
AcDbEntity
  8
ZUWAKU
100
AcDbCircle
 10
13.43360613601635
 20
4.712500158732748
 30
0.0
 40
0.2625
100
AcDbArc
 50
0.0
 51
90.0
  0
ARC
  5
3EB3
330
1A
100
AcDbEntity
  8
ZUWAKU
100
AcDbCircle
 10
13.43360613601635
 20
3.837500158732748
 30
0.0
 40
0.2625
100
AcDbArc
 50
270.0
 51
0.0
  0
LINE
  5
3EB4
330
1A
100
AcDbEntity
  8
ZUWAKU
100
AcDbLine
 10
13.69610613601639
 20
4.712500158732748
 30
0.0
 11
13.69610613601639
 21
3.837500158732748
 31
0.0
  0
LINE
  5
3EB5
330
1A
100
AcDbEntity
  8
ZUWAKU
100
AcDbLine
 10
16.32110613601639
 20
3.837500158732748
 30
0.0
 11
16.32110613601639
 21
6.637500158732748
 31
0.0
  0
ARC
  5
3EB6
330
1A
100
AcDbEntity
  8
ZUWAKU
100
AcDbCircle
 10
16.05860613601635
 20
3.837500158732748
 30
0.0
 40
0.2625
100
AcDbArc
 50
270.0
 51
0.0
  0
LINE
  5
3EB7
330
1A
100
AcDbEntity
  8
ZUWAKU
100
AcDbLine
 10
15.18360613601635
 20
3.575000158732748
 30
0.0
 11
16.05860613601635
 21
3.575000158732748
 31
0.0
  0
ARC
  5
3EB8
330
1A
100
AcDbEntity
  8
ZUWAKU
100
AcDbCircle
 10
16.58360613601638
 20
8.562500158732749
 30
0.0
 40
0.2625
100
AcDbArc
 50
180.0
 51
270.0
  0
LINE
  5
3EB9
330
1A
100
AcDbEntity
  8
ZUWAKU
100
AcDbLine
 10
16.58360613601638
 20
6.900000158732748
 30
0.0
 11
16.65372321776072
 21
6.900000158732748
 31
0.0
  0
LINE
  5
3EBA
330
1A
100
AcDbEntity
  8
ZUWAKU
100
AcDbLine
 10
16.65372321776072
 20
8.300000158732746
 30
0.0
 11
16.58360613601638
 21
8.300000158732746
 31
0.0
  0
ARC
  5
3EBB
330
1A
100
AcDbEntity
  8
ZUWAKU
100
AcDbCircle
 10
16.65372321776072
 20
8.562500158732749
 30
0.0
 40
0.2625
100
AcDbArc
 50
270.0
 51
342.4744316262769
  0
ARC
  5
3EBC
330
1A
100
AcDbEntity
  8
ZUWAKU
100
AcDbCircle
 10
18.08848905427203
 20
3.837500158732748
 30
0.0
 40
0.2625
100
AcDbArc
 50
197.525568373723
 51
270.0
  0
LINE
  5
3EBD
330
1A
100
AcDbEntity
  8
ZUWAKU
100
AcDbLine
 10
19.18824919367426
 20
3.916547142816234
 30
0.0
 11
18.02505350443743
 21
7.600000158732758
 31
0.0
  0
ARC
  5
3EBE
330
1A
100
AcDbEntity
  8
ZUWAKU
100
AcDbCircle
 10
18.93793374407653
 20
3.837500158732748
 30
0.0
 40
0.2625
100
AcDbArc
 50
270.0
 51
17.52556837372303
  0
LINE
  5
3EBF
330
1A
100
AcDbEntity
  8
ZUWAKU
100
AcDbLine
 10
18.08848905427203
 20
3.575000158732748
 30
0.0
 11
18.93793374407653
 21
3.575000158732748
 31
0.0
  0
ARC
  5
3EC0
330
1A
100
AcDbEntity
  8
ZUWAKU
100
AcDbCircle
 10
20.60860613601636
 20
3.837500158732748
 30
0.0
 40
0.2625
100
AcDbArc
 50
180.0
 51
270.0
  0
ARC
  5
3EC1
330
1A
100
AcDbEntity
  8
ZUWAKU
100
AcDbCircle
 10
25.07110613601639
 20
4.975000158732747
 30
0.0
 40
1.399999999999999
100
AcDbArc
 50
270.0
 51
0.0
  0
ARC
  5
3EC2
330
1A
100
AcDbEntity
  8
ZUWAKU
100
AcDbCircle
 10
28.92110613601636
 20
4.975000158732747
 30
0.0
 40
1.399999999999999
100
AcDbArc
 50
180.0
 51
270.0
  0
LINE
  5
3EC3
330
1A
100
AcDbEntity
  8
ZUWAKU
100
AcDbLine
 10
25.85603037650816
 20
7.36752541190216
 30
0.0
 11
24.40113138918576
 21
8.822424399224498
 31
0.0
  0
LINE
  5
3EC4
330
1A
100
AcDbEntity
  8
ZUWAKU
100
AcDbLine
 10
23.41118189552463
 20
7.832474905563337
 30
0.0
 11
24.86608088284697
 21
6.377575918241007
 31
0.0
  0
LINE
  5
3EC5
330
1A
100
AcDbEntity
  8
ZUWAKU
100
AcDbLine
 10
23.32110613601639
 20
3.575000158732748
 30
0.0
 11
25.07110613601639
 21
3.575000158732748
 31
0.0
  0
LINE
  5
3EC6
330
1A
100
AcDbEntity
  8
ZUWAKU
100
AcDbLine
 10
23.32110613601639
 20
4.975000158732747
 30
0.0
 11
24.80860613601635
 21
4.975000158732747
 31
0.0
  0
ARC
  5
3EC7
330
1A
100
AcDbEntity
  8
ZUWAKU
100
AcDbCircle
 10
23.32110613601639
 20
4.712500158732748
 30
0.0
 40
0.2625
100
AcDbArc
 50
90.0
 51
180.0
  0
ARC
  5
3EC8
330
1A
100
AcDbEntity
  8
ZUWAKU
100
AcDbCircle
 10
21.48360613601636
 20
3.837500158732748
 30
0.0
 40
0.2625
100
AcDbArc
 50
270.0
 51
0.0
  0
ARC
  5
3EC9
330
1A
100
AcDbEntity
  8
ZUWAKU
100
AcDbCircle
 10
23.32110613601639
 20
3.837500158732748
 30
0.0
 40
0.2625
100
AcDbArc
 50
180.0
 51
270.0
  0
LINE
  5
3ECA
330
1A
100
AcDbEntity
  8
ZUWAKU
100
AcDbLine
 10
23.05860613601635
 20
3.837500158732748
 30
0.0
 11
23.05860613601635
 21
4.712500158732748
 31
0.0
  0
ARC
  5
3ECB
330
1A
100
AcDbEntity
  8
ZUWAKU
100
AcDbCircle
 10
24.80860613601635
 20
5.23750015873275
 30
0.0
 40
0.2625
100
AcDbArc
 50
270.0
 51
0.0
  0
ARC
  5
3ECC
330
1A
100
AcDbEntity
  8
ZUWAKU
100
AcDbCircle
 10
24.37110613601635
 20
5.882601171410421
 30
0.0
 40
0.7
100
AcDbArc
 50
0.0
 51
45.0
  0
LINE
  5
3ECD
330
1A
100
AcDbEntity
  8
ZUWAKU
100
AcDbLine
 10
25.07110613601639
 20
5.23750015873275
 30
0.0
 11
25.07110613601639
 21
5.882601171410421
 31
0.0
  0
ARC
  5
3ECE
330
1A
100
AcDbEntity
  8
ZUWAKU
100
AcDbCircle
 10
29.44610613601639
 20
5.500000158732746
 30
0.0
 40
0.525
100
AcDbArc
 50
180.0
 51
270.0
  0
ARC
  5
3ECF
330
1A
100
AcDbEntity
  8
ZUWAKU
100
AcDbCircle
 10
24.37110613601635
 20
5.882601171410399
 30
0.0
 40
2.099999999999999
100
AcDbArc
 50
0.0
 51
45.0
  0
LINE
  5
3ED0
330
1A
100
AcDbEntity
  8
ZUWAKU
100
AcDbLine
 10
26.47110613601637
 20
4.975000158732747
 30
0.0
 11
26.47110613601637
 21
5.882601171410421
 31
0.0
  0
ARC
  5
3ED1
330
1A
100
AcDbEntity
  8
ZUWAKU
100
AcDbCircle
 10
30.67110613601636
 20
4.975000158732747
 30
0.0
 40
1.399999999999999
100
AcDbArc
 50
270.0
 51
0.0
  0
LINE
  5
3ED2
330
1A
100
AcDbEntity
  8
ZUWAKU
100
AcDbLine
 10
33.38360613601639
 20
3.575000158732748
 30
0.0
 11
34.25860613601639
 21
3.575000158732748
 31
0.0
  0
ARC
  5
3ED3
330
1A
100
AcDbEntity
  8
ZUWAKU
100
AcDbCircle
 10
30.14610613601638
 20
5.500000158732746
 30
0.0
 40
0.525
100
AcDbArc
 50
270.0
 51
0.0
  0
ARC
  5
3ED4
330
1A
100
AcDbEntity
  8
ZUWAKU
100
AcDbCircle
 10
33.38360613601639
 20
3.837500158732748
 30
0.0
 40
0.2625
100
AcDbArc
 50
180.0
 51
270.0
  0
ARC
  5
3ED5
330
1A
100
AcDbEntity
  8
ZUWAKU
100
AcDbCircle
 10
34.25860613601639
 20
3.837500158732748
 30
0.0
 40
0.2625
100
AcDbArc
 50
270.0
 51
0.0
  0
LINE
  5
3ED6
330
1A
100
AcDbEntity
  8
ZUWAKU
100
AcDbLine
 10
21.48360613601636
 20
11.62500015873275
 30
0.0
 11
20.60860613601636
 21
11.62500015873275
 31
0.0
  0
LINE
  5
3ED7
330
1A
100
AcDbEntity
  8
ZUWAKU
100
AcDbLine
 10
13.69610613601639
 20
11.36250015873274
 30
0.0
 11
13.69610613601639
 21
10.48750015873274
 31
0.0
  0
ARC
  5
3ED8
330
1A
100
AcDbEntity
  8
ZUWAKU
100
AcDbCircle
 10
13.43360613601635
 20
10.48750015873274
 30
0.0
 40
0.2625
100
AcDbArc
 50
270.0
 51
0.0
  0
ARC
  5
3ED9
330
1A
100
AcDbEntity
  8
ZUWAKU
100
AcDbCircle
 10
15.18360613601635
 20
11.36250015873274
 30
0.0
 40
0.2625
100
AcDbArc
 50
90.0
 51
180.0
  0
ARC
  5
3EDA
330
1A
100
AcDbEntity
  8
ZUWAKU
100
AcDbCircle
 10
13.43360613601635
 20
11.36250015873274
 30
0.0
 40
0.2625
100
AcDbArc
 50
0.0
 51
90.0
  0
LINE
  5
3EDB
330
1A
100
AcDbEntity
  8
ZUWAKU
100
AcDbLine
 10
16.05860613601635
 20
11.62500015873275
 30
0.0
 11
15.18360613601635
 21
11.62500015873275
 31
0.0
  0
ARC
  5
3EDC
330
1A
100
AcDbEntity
  8
ZUWAKU
100
AcDbCircle
 10
16.05860613601635
 20
11.36250015873274
 30
0.0
 40
0.2625
100
AcDbArc
 50
0.0
 51
90.0
  0
ARC
  5
3EDD
330
1A
100
AcDbEntity
  8
ZUWAKU
100
AcDbCircle
 10
18.08848905427203
 20
11.36250015873274
 30
0.0
 40
0.2625
100
AcDbArc
 50
90.0
 51
162.4744316262769
  0
LINE
  5
3EDE
330
1A
100
AcDbEntity
  8
ZUWAKU
100
AcDbLine
 10
19.18824919367426
 20
11.28345317464926
 30
0.0
 11
18.65742937710535
 21
9.602523755514461
 31
0.0
  0
ARC
  5
3EDF
330
1A
100
AcDbEntity
  8
ZUWAKU
100
AcDbCircle
 10
18.93793374407653
 20
11.36250015873274
 30
0.0
 40
0.2625
100
AcDbArc
 50
342.4744316262769
 51
90.0
  0
LINE
  5
3EE0
330
1A
100
AcDbEntity
  8
ZUWAKU
100
AcDbLine
 10
18.08848905427203
 20
11.62500015873275
 30
0.0
 11
18.93793374407653
 21
11.62500015873275
 31
0.0
  0
ARC
  5
3EE1
330
1A
100
AcDbEntity
  8
ZUWAKU
100
AcDbCircle
 10
20.60860613601636
 20
11.36250015873274
 30
0.0
 40
0.2625
100
AcDbArc
 50
90.0
 51
180.0
  0
LINE
  5
3EE2
330
1A
100
AcDbEntity
  8
ZUWAKU
100
AcDbLine
 10
25.9461061360164
 20
10.22500015873274
 30
0.0
 11
24.45860613601638
 21
10.22500015873274
 31
0.0
  0
LINE
  5
3EE3
330
1A
100
AcDbEntity
  8
ZUWAKU
100
AcDbLine
 10
24.19610613601639
 20
11.62500015873275
 30
0.0
 11
25.9461061360164
 21
11.62500015873275
 31
0.0
  0
ARC
  5
3EE4
330
1A
100
AcDbEntity
  8
ZUWAKU
100
AcDbCircle
 10
24.19610613601639
 20
10.22500015873274
 30
0.0
 40
1.399999999999999
100
AcDbArc
 50
90.0
 51
180.0
  0
LINE
  5
3EE5
330
1A
100
AcDbEntity
  8
ZUWAKU
100
AcDbLine
 10
22.79610613601636
 20
10.22500015873274
 30
0.0
 11
22.79610613601636
 21
9.317399146055077
 31
0.0
  0
ARC
  5
3EE6
330
1A
100
AcDbEntity
  8
ZUWAKU
100
AcDbCircle
 10
21.48360613601636
 20
11.36250015873274
 30
0.0
 40
0.2625
100
AcDbArc
 50
0.0
 51
90.0
  0
LINE
  5
3EE7
330
1A
100
AcDbEntity
  8
ZUWAKU
100
AcDbLine
 10
24.19610613601639
 20
9.962500158732748
 30
0.0
 11
24.19610613601639
 21
9.317399146055077
 31
0.0
  0
ARC
  5
3EE8
330
1A
100
AcDbEntity
  8
ZUWAKU
100
AcDbCircle
 10
24.45860613601638
 20
9.962500158732748
 30
0.0
 40
0.2625
100
AcDbArc
 50
90.0
 51
180.0
  0
LINE
  5
3EE9
330
1A
100
AcDbEntity
  8
ZUWAKU
100
AcDbLine
 10
26.20860613601638
 20
11.36250015873274
 30
0.0
 11
26.20860613601638
 21
10.48750015873274
 31
0.0
  0
ARC
  5
3EEA
330
1A
100
AcDbEntity
  8
ZUWAKU
100
AcDbCircle
 10
25.9461061360164
 20
10.48750015873274
 30
0.0
 40
0.2625
100
AcDbArc
 50
270.0
 51
0.0
  0
ARC
  5
3EEB
330
1A
100
AcDbEntity
  8
ZUWAKU
100
AcDbCircle
 10
25.9461061360164
 20
11.36250015873274
 30
0.0
 40
0.2625
100
AcDbArc
 50
0.0
 51
90.0
  0
LINE
  5
3EEC
330
1A
100
AcDbEntity
  8
ZUWAKU
100
AcDbLine
 10
28.65860613601637
 20
11.62500015873275
 30
0.0
 11
27.78360613601637
 21
11.62500015873275
 31
0.0
  0
ARC
  5
3EED
330
1A
100
AcDbEntity
  8
ZUWAKU
100
AcDbCircle
 10
27.78360613601637
 20
11.36250015873274
 30
0.0
 40
0.2625
100
AcDbArc
 50
90.0
 51
180.0
  0
ARC
  5
3EEE
330
1A
100
AcDbEntity
  8
ZUWAKU
100
AcDbCircle
 10
28.65860613601637
 20
11.36250015873274
 30
0.0
 40
0.2625
100
AcDbArc
 50
0.0
 51
90.0
  0
LINE
  5
3EEF
330
1A
100
AcDbEntity
  8
ZUWAKU
100
AcDbLine
 10
34.25860613601639
 20
11.62500015873275
 30
0.0
 11
33.38360613601639
 21
11.62500015873275
 31
0.0
  0
ARC
  5
3EF0
330
1A
100
AcDbEntity
  8
ZUWAKU
100
AcDbCircle
 10
30.93360613601635
 20
11.36250015873274
 30
0.0
 40
0.2625
100
AcDbArc
 50
90.0
 51
180.0
  0
LINE
  5
3EF1
330
1A
100
AcDbEntity
  8
ZUWAKU
100
AcDbLine
 10
31.80860613601635
 20
11.62500015873275
 30
0.0
 11
30.93360613601635
 21
11.62500015873275
 31
0.0
  0
ARC
  5
3EF2
330
1A
100
AcDbEntity
  8
ZUWAKU
100
AcDbCircle
 10
31.80860613601635
 20
11.36250015873274
 30
0.0
 40
0.2625
100
AcDbArc
 50
0.0
 51
90.0
  0
ARC
  5
3EF3
330
1A
100
AcDbEntity
  8
ZUWAKU
100
AcDbCircle
 10
33.38360613601639
 20
11.36250015873274
 30
0.0
 40
0.2625
100
AcDbArc
 50
90.0
 51
180.0
  0
ARC
  5
3EF4
330
1A
100
AcDbEntity
  8
ZUWAKU
100
AcDbCircle
 10
34.25860613601639
 20
11.36250015873274
 30
0.0
 40
0.2625
100
AcDbArc
 50
0.0
 51
90.0
  0
TEXT
  5
3EF5
330
1A
100
AcDbEntity
  8
MOJI
100
AcDbText
 10
119.9136013990513
 20
1.602460687436456
 30
0.0
 40
2.799999999999999
  1
ＲＶ１０５－４－７５
 41
0.9
  7
ｽﾀｲﾙ1
100
AcDbText
  0
LINE
  5
3EF6
330
1A
100
AcDbEntity
  8
ZUWAKU
100
AcDbLine
 10
104.2233007036596
 20
15.00000015873274
 30
0.0
 11
104.2233007036597
 21
0.4000001587327802
 31
0.0
  0
LINE
  5
3EF7
330
1A
100
AcDbEntity
  8
ZUWAKU
100
AcDbLine
 10
104.3233007036596
 20
15.00000015873274
 30
0.0
 11
104.3233007036598
 21
0.4000001587327802
 31
0.0
  0
LINE
  5
3EF8
330
1A
100
AcDbEntity
  8
ZUWAKU
100
AcDbLine
 10
104.1233007036597
 20
15.00000015873274
 30
0.0
 11
104.1233007036597
 21
0.4000001587327802
 31
0.0
  0
TEXT
  5
3EF9
330
1A
100
AcDbEntity
  8
ZUWAKU
100
AcDbText
 10
104.8620232147645
 20
4.827678427925555
 30
0.0
 40
2.0
  1
サイズ
 41
0.9
  7
ｽﾀｲﾙ1
100
AcDbText
  0
TEXT
  5
3EFA
330
1A
100
AcDbEntity
  8
ZUWAKU
100
AcDbText
 10
104.8620232147644
 20
12.02767842792553
 30
0.0
 40
2.0
  1
品名
 41
0.9
  7
ｽﾀｲﾙ1
100
AcDbText
  0
TEXT
  5
3EFB
330
1A
100
AcDbEntity
  8
ZUWAKU
100
AcDbText
 10
329.101968902277
 20
9.002460687436439
 30
0.0
 40
2.799999999999999
  1
　　．　　．　　
 41
0.9
  7
ｽﾀｲﾙ1
100
AcDbText
  0
LINE
  5
3EFC
330
1A
100
AcDbEntity
  8
ZUWAKU
100
AcDbLine
 10
324.4086013137279
 20
7.800000158732762
 30
0.0
 11
348.6245053328964
 21
7.800000158732762
 31
0.0
  0
LINE
  5
3EFD
330
1A
100
AcDbEntity
  8
ZUWAKU
100
AcDbLine
 10
324.408601313728
 20
7.700000158732764
 30
0.0
 11
348.6245053328964
 21
7.700000158732763
 31
0.0
  0
LINE
  5
3EFE
330
1A
100
AcDbEntity
  8
ZUWAKU
100
AcDbLine
 10
324.4086013137279
 20
7.600000158732761
 30
0.0
 11
348.6245053328964
 21
7.600000158732763
 31
0.0
  0
LINE
  5
3EFF
330
1A
100
AcDbEntity
  8
ZUWAKU
100
AcDbLine
 10
252.5995898076962
 20
7.800000158732762
 30
0.0
 11
276.263477941682
 21
7.800000158732762
 31
0.0
  0
LINE
  5
3F00
330
1A
100
AcDbEntity
  8
ZUWAKU
100
AcDbLine
 10
252.5995898076962
 20
7.700000158732763
 30
0.0
 11
276.263477941682
 21
7.700000158732763
 31
0.0
  0
LINE
  5
3F01
330
1A
100
AcDbEntity
  8
ZUWAKU
100
AcDbLine
 10
252.5995898076962
 20
7.600000158732765
 30
0.0
 11
276.263477941682
 21
7.600000158732765
 31
0.0
  0
LINE
  5
3F02
330
1A
100
AcDbEntity
  8
ZUWAKU
100
AcDbLine
 10
252.3995898076963
 20
15.00000015873274
 30
0.0
 11
252.3995898076963
 21
0.4000001587327802
 31
0.0
  0
LINE
  5
3F03
330
1A
100
AcDbEntity
  8
ZUWAKU
100
AcDbLine
 10
252.5995898076962
 20
15.00000015873274
 30
0.0
 11
252.5995898076963
 21
0.4000001587327802
 31
0.0
  0
LINE
  5
3F04
330
1A
100
AcDbEntity
  8
ZUWAKU
100
AcDbLine
 10
252.4995898076962
 20
15.00000015873274
 30
0.0
 11
252.4995898076963
 21
0.4000001587327802
 31
0.0
  0
TEXT
  5
3F05
330
1A
100
AcDbEntity
  8
MOJI
100
AcDbText
 10
264.0204540447822
 20
9.002460687436439
 30
0.0
 40
2.799999999999999
  1
Ａ３
 41
0.9
  7
ｽﾀｲﾙ1
100
AcDbText
  0
LINE
  5
3F06
330
1A
100
AcDbEntity
  8
ZUWAKU
100
AcDbLine
 10
223.7121820441215
 20
15.00000015873274
 30
0.0
 11
223.7121820441215
 21
0.4000001587327802
 31
0.0
  0
LINE
  5
3F07
330
1A
100
AcDbEntity
  8
ZUWAKU
100
AcDbLine
 10
223.9121820441214
 20
15.00000015873274
 30
0.0
 11
223.9121820441215
 21
0.4000001587327802
 31
0.0
  0
LINE
  5
3F08
330
1A
100
AcDbEntity
  8
ZUWAKU
100
AcDbLine
 10
223.8121820441214
 20
15.00000015873274
 30
0.0
 11
223.8121820441215
 21
0.4000001587327802
 31
0.0
  0
TEXT
  5
3F09
330
1A
100
AcDbEntity
  8
MOJI
100
AcDbText
 10
231.2836392196201
 20
5.971309019562738
 30
0.0
 40
2.799999999999999
  1
ＬＪ８１□
 41
0.9
  7
ｽﾀｲﾙ1
100
AcDbText
  0
TEXT
  5
3F0A
330
1A
100
AcDbEntity
  8
ZUWAKU
100
AcDbText
 10
231.3468808863794
 20
1.307035614302492
 30
0.0
 40
1.5
  1
□には色品番が入ります
 41
0.9
  7
ｽﾀｲﾙ1
100
AcDbText
  0
TEXT
  5
3F0B
330
1A
100
AcDbEntity
  8
ZUWAKU
100
AcDbText
 10
253.3383123188011
 20
4.827678427925555
 30
0.0
 40
2.0
  1
縮尺
 41
0.9
  7
ｽﾀｲﾙ1
100
AcDbText
  0
TEXT
  5
3F0C
330
1A
100
AcDbEntity
  8
MOJI
100
AcDbText
 10
264.0204540447822
 20
1.602460687436456
 30
0.0
 40
2.799999999999999
  1
１/１
 41
0.9
  7
ｽﾀｲﾙ1
100
AcDbText
  0
TEXT
  5
3F0D
330
1A
100
AcDbEntity
  8
ZUWAKU
100
AcDbText
 10
224.6509045552262
 20
12.02767842792553
 30
0.0
 40
2.0
  1
品番
 41
0.9
  7
ｽﾀｲﾙ1
100
AcDbText
  0
TEXT
  5
3F0E
330
1A
100
AcDbEntity
  8
ZUWAKU
100
AcDbText
 10
253.338312318801
 20
12.02767842792553
 30
0.0
 40
2.0
  1
用紙
 41
0.9
  7
ｽﾀｲﾙ1
100
AcDbText
  0
LINE
  5
3F0F
330
1A
100
AcDbEntity
  8
ZUWAKU
100
AcDbLine
 10
276.263477941682
 20
15.00000015873274
 30
0.0
 11
276.263477941682
 21
0.4000001587327802
 31
0.0
  0
LINE
  5
3F10
330
1A
100
AcDbEntity
  8
ZUWAKU
100
AcDbLine
 10
276.4634779416819
 20
15.00000015873274
 30
0.0
 11
276.463477941682
 21
0.4000001587327802
 31
0.0
  0
LINE
  5
3F11
330
1A
100
AcDbEntity
  8
ZUWAKU
100
AcDbLine
 10
276.3634779416819
 20
15.00000015873274
 30
0.0
 11
276.363477941682
 21
0.4000001587327802
 31
0.0
  0
LINE
  5
3F12
330
1A
100
AcDbEntity
  8
ZUWAKU
100
AcDbLine
 10
324.2086013137281
 20
15.00000015873274
 30
0.0
 11
324.2086013137281
 21
0.4000001587327802
 31
0.0
  0
LINE
  5
3F13
330
1A
100
AcDbEntity
  8
ZUWAKU
100
AcDbLine
 10
324.408601313728
 20
15.00000015873274
 30
0.0
 11
324.4086013137281
 21
0.4000001587327802
 31
0.0
  0
LINE
  5
3F14
330
1A
100
AcDbEntity
  8
ZUWAKU
100
AcDbLine
 10
324.308601313728
 20
15.00000015873274
 30
0.0
 11
324.308601313728
 21
0.4000001587327802
 31
0.0
  0
TEXT
  5
3F15
330
1A
100
AcDbEntity
  8
ZUWAKU
100
AcDbText
 10
325.1473238248328
 20
12.02767842792553
 30
0.0
 40
2.0
  1
DATE
 41
0.9
  7
ｽﾀｲﾙ1
100
AcDbText
  0
TEXT
  5
3F16
330
1A
100
AcDbEntity
  8
ZUWAKU
100
AcDbText
 10
354.2640421547476
 20
8.776919826576147
 30
0.0
 40
3.0
  1
積水化学工業株式会社
 41
0.9
  7
ｽﾀｲﾙ1
100
AcDbText
  0
LINE
  5
3F17
330
1A
100
AcDbEntity
  8
ZUWAKU
100
AcDbLine
 10
348.9245053328963
 20
15.00000015873274
 30
0.0
 11
348.9245053328965
 21
0.4000001587327802
 31
0.0
  0
LINE
  5
3F18
330
1A
100
AcDbEntity
  8
ZUWAKU
100
AcDbLine
 10
348.8245053328963
 20
15.00000015873274
 30
0.0
 11
348.8245053328964
 21
0.4000001587327802
 31
0.0
  0
LINE
  5
3F19
330
1A
100
AcDbEntity
  8
ZUWAKU
100
AcDbLine
 10
348.7245053328964
 20
15.00000015873274
 30
0.0
 11
348.7245053328964
 21
0.4000001587327802
 31
0.0
  0
LINE
  5
3F1A
330
1A
100
AcDbEntity
  8
ZUWAKU
100
AcDbLine
 10
348.6245053328964
 20
15.00000015873274
 30
0.0
 11
348.6245053328964
 21
0.4000001587327802
 31
0.0
  0
TEXT
  5
3F1B
330
1A
100
AcDbEntity
  8
ZUWAKU
100
AcDbText
 10
354.2640421547476
 20
3.324420315659779
 30
0.0
 40
3.0
  1
建材事業部
 41
0.9
  7
ｽﾀｲﾙ1
100
AcDbText
  0
VIEWPORT
  5
22
330
17
100
AcDbEntity
 67
     1
  8
0
100
AcDbViewport
 10
313.6808219178082
 20
148.5
 30
0.0
 40
627.3616438356165
 41
297.0
 68
     2
 69
     1
1001
ACAD
1000
MVIEW
1002
{
1070
    16
1010
0.0
1020
0.0
1030
0.0
1010
0.0
1020
0.0
1030
1.0
1040
0.0
1040
297.0
1040
313.6808219178082
1040
148.5
1040
50.0
1040
0.0
1040
0.0
1070
     0
1070
   100
1070
     1
1070
     0
1070
     0
1070
     0
1070
     0
1070
     0
1040
0.0
1040
0.0
1040
0.0
1040
1.0
1040
1.0
1040
10.0
1040
10.0
1070
     0
1002
{
1002
}
1002
}
  0
VIEWPORT
  5
64
330
17
100
AcDbEntity
 67
     1
  8
VIEWPORT
100
AcDbViewport
 10
210.0
 20
148.5
 30
0.0
 40
420.0
 41
297.0
 68
     1
 69
     2
1001
ACAD
1000
MVIEW
1002
{
1070
    16
1010
0.0
1020
0.0
1030
0.0
1010
0.0
1020
0.0
1030
1.0
1040
0.0
1040
302.9399999999998
1040
210.0
1040
148.5
1040
50.0
1040
0.0
1040
0.0
1070
     0
1070
   100
1070
     1
1070
     0
1070
     0
1070
     0
1070
     0
1070
     0
1040
0.0
1040
0.0
1040
0.0
1040
5.0
1040
5.0
1040
0.0
1040
0.0
1070
     0
1002
{
1002
}
1002
}
  0
ENDSEC
  0
SECTION
  2
OBJECTS
  0
DICTIONARY
  5
C
330
0
100
AcDbDictionary
  3
ACAD_GROUP
350
D
  3
ACAD_LAYOUT
350
141
  3
ACAD_MLINESTYLE
350
E
  3
ACAD_PLOTSETTINGS
350
142
  3
ACAD_PLOTSTYLENAME
350
13F
  3
ACADDIM
350
3023
  3
ACDBVARIABLEDICTIONARY
350
120D
  3
ACDBHEADERROUNDTRIPXREC
350
3F91
  0
DICTIONARY
  5
7A2
330
1A
100
AcDbDictionary
280
     1
  3
ACAD_LAYOUTSELFREF
360
3FB3
  0
DICTIONARY
  5
7A0
330
17
100
AcDbDictionary
280
     1
  3
ACAD_LAYOUTSELFREF
360
3FB2
  0
DICTIONARY
  5
D
102
{ACAD_REACTORS
330
C
102
}
330
C
100
AcDbDictionary
  0
DICTIONARY
  5
141
102
{ACAD_REACTORS
330
C
102
}
330
C
100
AcDbDictionary
  0
DICTIONARY
  5
E
102
{ACAD_REACTORS
330
C
102
}
330
C
100
AcDbDictionary
  3
STANDARD
350
13
  0
DICTIONARY
  5
142
102
{ACAD_REACTORS
330
C
102
}
330
C
100
AcDbDictionary
  0
ACDBDICTIONARYWDFLT
  5
13F
102
{ACAD_REACTORS
330
C
102
}
330
C
100
AcDbDictionary
281
     1
  3
Normal
350
140
100
AcDbDictionaryWithDefault
340
140
1001
ACAD
1000
TREAT_AS_HARD
1070
     0
1000
TREAT_AS_HARD
1070
     0
1000
TREAT_AS_HARD
1070
     0
1000
TREAT_AS_HARD
1070
     0
1000
TREAT_AS_HARD
1070
     0
1000
TREAT_AS_HARD
1070
     0
1000
TREAT_AS_HARD
1070
     0
1000
TREAT_AS_HARD
1070
     0
1000
TREAT_AS_HARD
1070
     0
1000
TREAT_AS_HARD
1070
     0
1000
TREAT_AS_HARD
1070
     0
1000
TREAT_AS_HARD
1070
     0
1000
TREAT_AS_HARD
1070
     0
1000
TREAT_AS_HARD
1070
     0
1000
TREAT_AS_HARD
1070
     0
1000
TREAT_AS_HARD
1070
     0
1000
TREAT_AS_HARD
1070
     0
1000
TREAT_AS_HARD
1070
     0
1000
TREAT_AS_HARD
1070
     0
  0
XRECORD
  5
3023
102
{ACAD_REACTORS
330
C
102
}
330
C
100
AcDbXrecord
 90
   990106
  3

 60
     0
 61
     0
 62
     1
 63
     3
 64
     0
 65
     0
 66
     0
 67
     3
 68
     1
 69
     0
 70
     0
 71
     0
 72
     0
 40
0.0
170
     0
340
0
  0
DICTIONARY
  5
120D
102
{ACAD_REACTORS
330
C
102
}
330
C
100
AcDbDictionary
  3
SORTENTS
350
120E
  0
DICTIONARY
  5
3F91
102
{ACAD_REACTORS
330
C
102
}
330
C
100
AcDbDictionary
  3
TSTACKALIGN
350
3F92
  3
TSTACKSIZE
350
3F93
  3
HYPERLINKBASE
350
3F94
  3
STYLESHEET
350
3F95
  3
LAYOUTDICT
350
3F96
  3
PLOTSETDICT
350
3F97
  3
PLOTSTYLNAMDICT
350
3F98
  3
LWETCUNION
350
3F99
  3
INSUNITS
350
3F9A
  3
CEPSNTYPE
350
3F9B
  3
FINGERPRINTGUID
350
3F9C
  3
VERSIONGUID
350
3F9D
  3
PSVPSCALE
350
3F9E
  3
DIMSTYLEDATA
350
3F9F
  3
PUCSORTHOREF
350
3FA0
  3
PUCSORTHOVIEW
350
3FA1
  3
PUCSBASE
350
3FA2
  3
PUCSORGTOP
350
3FA3
  3
PUCSORGBOTTOM
350
3FA4
  3
PUCSORGLEFT
350
3FA5
  3
PUCSORGRIGHT
350
3FA6
  3
PUCSORGFRONT
350
3FA7
  3
PUCSORGBACK
350
3FA8
  3
UCSORTHOREF
350
3FA9
  3
UCSORTHOVIEW
350
3FAA
  3
UCSBASE
350
3FAB
  3
UCSORGTOP
350
3FAC
  3
UCSORGBOTTOM
350
3FAD
  3
UCSORGLEFT
350
3FAE
  3
UCSORGRIGHT
350
3FAF
  3
UCSORGFRONT
350
3FB0
  3
UCSORGBACK
350
3FB1
  0
XRECORD
  5
3FB3
102
{ACAD_REACTORS
330
7A2
102
}
330
7A2
100
AcDbXrecord
340
1A
  0
XRECORD
  5
3FB2
102
{ACAD_REACTORS
330
7A0
102
}
330
7A0
100
AcDbXrecord
340
17
  0
MLINESTYLE
  5
13
102
{ACAD_REACTORS
330
E
102
}
330
E
100
AcDbMlineStyle
  2
STANDARD
 70
     0
  3

 62
     0
 51
90.0
 52
90.0
 71
     2
 49
0.5
 62
   256
  6
BYLAYER
 49
-0.5
 62
   256
  6
BYLAYER
  0
ACDBPLACEHOLDER
  5
140
102
{ACAD_REACTORS
330
13F
102
}
330
13F
100
AcDbPlaceHolder
280
     0
  0
DICTIONARYVAR
  5
120E
102
{ACAD_REACTORS
330
120D
102
}
330
120D
100
DictionaryVariables
280
     0
  1
96
  0
XRECORD
  5
3F92
102
{ACAD_REACTORS
330
3F91
102
}
330
3F91
100
AcDbXrecord
 90
        1
  0
XRECORD
  5
3F93
102
{ACAD_REACTORS
330
3F91
102
}
330
3F91
100
AcDbXrecord
 90
       70
  0
XRECORD
  5
3F94
102
{ACAD_REACTORS
330
3F91
102
}
330
3F91
100
AcDbXrecord
  1

  0
XRECORD
  5
3F95
102
{ACAD_REACTORS
330
3F91
102
}
330
3F91
100
AcDbXrecord
  1
systemprinter.ctb
  0
XRECORD
  5
3F96
102
{ACAD_REACTORS
330
3F91
102
}
330
3F91
100
AcDbXrecord
340
141
  0
XRECORD
  5
3F97
102
{ACAD_REACTORS
330
3F91
102
}
330
3F91
100
AcDbXrecord
340
142
  0
XRECORD
  5
3F98
102
{ACAD_REACTORS
330
3F91
102
}
330
3F91
100
AcDbXrecord
340
13F
  0
XRECORD
  5
3F99
102
{ACAD_REACTORS
330
3F91
102
}
330
3F91
100
AcDbXrecord
 90
    10781
  0
XRECORD
  5
3F9A
102
{ACAD_REACTORS
330
3F91
102
}
330
3F91
100
AcDbXrecord
 90
        0
  0
XRECORD
  5
3F9B
102
{ACAD_REACTORS
330
3F91
102
}
330
3F91
100
AcDbXrecord
 90
        0
  0
XRECORD
  5
3F9C
102
{ACAD_REACTORS
330
3F91
102
}
330
3F91
100
AcDbXrecord
  1
{4E8D0500-CDD1-11D3-932C-444553540000}
  0
XRECORD
  5
3F9D
102
{ACAD_REACTORS
330
3F91
102
}
330
3F91
100
AcDbXrecord
  1
{02E92CBF-B8AB-4945-9038-732485EC2EEF}
  0
XRECORD
  5
3F9E
102
{ACAD_REACTORS
330
3F91
102
}
330
3F91
100
AcDbXrecord
 40
0.0
  0
XRECORD
  5
3F9F
102
{ACAD_REACTORS
330
3F91
102
}
330
3F91
100
AcDbXrecord
1000
DSTYLE
1002
{
1070
   341
340
B2
1070
   343
340
B2
1070
   344
340
B2
1070
   371
 70
    -1
1070
   372
 70
    -1
1002
}
  0
XRECORD
  5
3FA0
102
{ACAD_REACTORS
330
3F91
102
}
330
3F91
100
AcDbXrecord
340
0
  0
XRECORD
  5
3FA1
102
{ACAD_REACTORS
330
3F91
102
}
330
3F91
100
AcDbXrecord
 70
     0
  0
XRECORD
  5
3FA2
102
{ACAD_REACTORS
330
3F91
102
}
330
3F91
100
AcDbXrecord
340
0
  0
XRECORD
  5
3FA3
102
{ACAD_REACTORS
330
3F91
102
}
330
3F91
100
AcDbXrecord
 10
0.0
 20
0.0
 30
0.0
  0
XRECORD
  5
3FA4
102
{ACAD_REACTORS
330
3F91
102
}
330
3F91
100
AcDbXrecord
 10
0.0
 20
0.0
 30
0.0
  0
XRECORD
  5
3FA5
102
{ACAD_REACTORS
330
3F91
102
}
330
3F91
100
AcDbXrecord
 10
0.0
 20
0.0
 30
0.0
  0
XRECORD
  5
3FA6
102
{ACAD_REACTORS
330
3F91
102
}
330
3F91
100
AcDbXrecord
 10
0.0
 20
0.0
 30
0.0
  0
XRECORD
  5
3FA7
102
{ACAD_REACTORS
330
3F91
102
}
330
3F91
100
AcDbXrecord
 10
0.0
 20
0.0
 30
0.0
  0
XRECORD
  5
3FA8
102
{ACAD_REACTORS
330
3F91
102
}
330
3F91
100
AcDbXrecord
 10
0.0
 20
0.0
 30
0.0
  0
XRECORD
  5
3FA9
102
{ACAD_REACTORS
330
3F91
102
}
330
3F91
100
AcDbXrecord
340
0
  0
XRECORD
  5
3FAA
102
{ACAD_REACTORS
330
3F91
102
}
330
3F91
100
AcDbXrecord
 70
     0
  0
XRECORD
  5
3FAB
102
{ACAD_REACTORS
330
3F91
102
}
330
3F91
100
AcDbXrecord
340
0
  0
XRECORD
  5
3FAC
102
{ACAD_REACTORS
330
3F91
102
}
330
3F91
100
AcDbXrecord
 10
0.0
 20
0.0
 30
0.0
  0
XRECORD
  5
3FAD
102
{ACAD_REACTORS
330
3F91
102
}
330
3F91
100
AcDbXrecord
 10
0.0
 20
0.0
 30
0.0
  0
XRECORD
  5
3FAE
102
{ACAD_REACTORS
330
3F91
102
}
330
3F91
100
AcDbXrecord
 10
0.0
 20
0.0
 30
0.0
  0
XRECORD
  5
3FAF
102
{ACAD_REACTORS
330
3F91
102
}
330
3F91
100
AcDbXrecord
 10
0.0
 20
0.0
 30
0.0
  0
XRECORD
  5
3FB0
102
{ACAD_REACTORS
330
3F91
102
}
330
3F91
100
AcDbXrecord
 10
0.0
 20
0.0
 30
0.0
  0
XRECORD
  5
3FB1
102
{ACAD_REACTORS
330
3F91
102
}
330
3F91
100
AcDbXrecord
 10
0.0
 20
0.0
 30
0.0
  0
ENDSEC
  0
EOF
