  0
SECTION
  2
HEADER
  9
$ACADVER
  1
AC1014
  9
$ACADMAINTVER
 70
     9
  9
$DWGCODEPAGE
  3
ANSI_932
  9
$INSBASE
 10
0.0
 20
0.0
 30
0.0
  9
$EXTMIN
 10
401.1350191920342
 20
-950.9903907085817
 30
0.0
  9
$EXTMAX
 10
1198.735019192034
 20
-399.3903907085815
 30
0.0
  9
$LIMMIN
 10
0.0
 20
0.0
  9
$LIMMAX
 10
840.0
 20
594.0
  9
$ORTHOMODE
 70
     0
  9
$REGENMODE
 70
     1
  9
$FILLMODE
 70
     1
  9
$QTEXTMODE
 70
     0
  9
$MIRRTEXT
 70
     1
  9
$DRAGMODE
 70
     2
  9
$LTSCALE
 40
2.0
  9
$OSMODE
 70
    37
  9
$ATTMODE
 70
     1
  9
$TEXTSIZE
 40
5.0
  9
$TRACEWID
 40
1.0
  9
$TEXTSTYLE
  7
STANDARD
  9
$CLAYER
  8
KEIJYO
  9
$CELTYPE
  6
BYLAYER
  9
$CECOLOR
 62
   256
  9
$CELTSCALE
 40
1.0
  9
$DELOBJ
 70
     1
  9
$DISPSILH
 70
     0
  9
$DIMSCALE
 40
1.0
  9
$DIMASZ
 40
7.0
  9
$DIMEXO
 40
6.0
  9
$DIMDLI
 40
14.0
  9
$DIMRND
 40
0.0
  9
$DIMDLE
 40
0.0
  9
$DIMEXE
 40
3.0
  9
$DIMTP
 40
0.0
  9
$DIMTM
 40
0.0
  9
$DIMTXT
 40
6.0
  9
$DIMCEN
 40
150.0
  9
$DIMTSZ
 40
0.0
  9
$DIMTOL
 70
     0
  9
$DIMLIM
 70
     0
  9
$DIMTIH
 70
     0
  9
$DIMTOH
 70
     0
  9
$DIMSE1
 70
     0
  9
$DIMSE2
 70
     0
  9
$DIMTAD
 70
     3
  9
$DIMZIN
 70
     0
  9
$DIMBLK
  1

  9
$DIMASO
 70
     1
  9
$DIMSHO
 70
     1
  9
$DIMPOST
  1

  9
$DIMAPOST
  1

  9
$DIMALT
 70
     0
  9
$DIMALTD
 70
     2
  9
$DIMALTF
 40
25.4
  9
$DIMLFAC
 40
1.0
  9
$DIMTOFL
 70
     1
  9
$DIMTVP
 40
0.0
  9
$DIMTIX
 70
     0
  9
$DIMSOXD
 70
     0
  9
$DIMSAH
 70
     1
  9
$DIMBLK1
  1
OPEN
  9
$DIMBLK2
  1
OPEN
  9
$DIMSTYLE
  2
STANDARD
  9
$DIMCLRD
 70
   256
  9
$DIMCLRE
 70
   256
  9
$DIMCLRT
 70
   256
  9
$DIMTFAC
 40
1.0
  9
$DIMGAP
 40
2.0
  9
$DIMJUST
 70
     0
  9
$DIMSD1
 70
     0
  9
$DIMSD2
 70
     0
  9
$DIMTOLJ
 70
     1
  9
$DIMTZIN
 70
     0
  9
$DIMALTZ
 70
     0
  9
$DIMALTTZ
 70
     0
  9
$DIMFIT
 70
     3
  9
$DIMUPT
 70
     0
  9
$DIMUNIT
 70
     2
  9
$DIMDEC
 70
     0
  9
$DIMTDEC
 70
     0
  9
$DIMALTU
 70
     2
  9
$DIMALTTD
 70
     2
  9
$DIMTXSTY
  7
STANDARD
  9
$DIMAUNIT
 70
     0
  9
$LUNITS
 70
     2
  9
$LUPREC
 70
     4
  9
$SKETCHINC
 40
1.0
  9
$FILLETRAD
 40
0.1
  9
$AUNITS
 70
     0
  9
$AUPREC
 70
     0
  9
$MENU
  1
.
  9
$ELEVATION
 40
0.0
  9
$PELEVATION
 40
0.0
  9
$THICKNESS
 40
0.0
  9
$LIMCHECK
 70
     0
  9
$BLIPMODE
 70
     0
  9
$CHAMFERA
 40
0.0
  9
$CHAMFERB
 40
0.0
  9
$CHAMFERC
 40
40.0
  9
$CHAMFERD
 40
0.0
  9
$SKPOLY
 70
     0
  9
$TDCREATE
 40
2451029.942521990
  9
$TDUPDATE
 40
2454484.373859259
  9
$TDINDWG
 40
0.2041159838
  9
$TDUSRTIMER
 40
0.2041154398
  9
$USRTIMER
 70
     1
  9
$ANGBASE
 50
0.0
  9
$ANGDIR
 70
     0
  9
$PDMODE
 70
     0
  9
$PDSIZE
 40
0.0
  9
$PLINEWID
 40
0.0
  9
$COORDS
 70
     1
  9
$SPLFRAME
 70
     0
  9
$SPLINETYPE
 70
     6
  9
$SPLINESEGS
 70
     8
  9
$ATTDIA
 70
     0
  9
$ATTREQ
 70
     1
  9
$HANDLING
 70
 10241
  9
$HANDSEED
  5
5D2F
  9
$SURFTAB1
 70
     6
  9
$SURFTAB2
 70
     6
  9
$SURFTYPE
 70
     6
  9
$SURFU
 70
     6
  9
$SURFV
 70
     6
  9
$UCSNAME
  2

  9
$UCSORG
 10
0.0
 20
0.0
 30
0.0
  9
$UCSXDIR
 10
1.0
 20
0.0
 30
0.0
  9
$UCSYDIR
 10
0.0
 20
1.0
 30
0.0
  9
$PUCSNAME
  2

  9
$PUCSORG
 10
0.0
 20
0.0
 30
0.0
  9
$PUCSXDIR
 10
1.0
 20
0.0
 30
0.0
  9
$PUCSYDIR
 10
0.0
 20
1.0
 30
0.0
  9
$USERI1
 70
     0
  9
$USERI2
 70
     0
  9
$USERI3
 70
     0
  9
$USERI4
 70
     0
  9
$USERI5
 70
     0
  9
$USERR1
 40
0.0
  9
$USERR2
 40
0.0
  9
$USERR3
 40
0.0
  9
$USERR4
 40
0.0
  9
$USERR5
 40
0.0
  9
$WORLDVIEW
 70
     1
  9
$SHADEDGE
 70
     3
  9
$SHADEDIF
 70
    70
  9
$TILEMODE
 70
     1
  9
$MAXACTVP
 70
    16
  9
$PINSBASE
 10
0.0
 20
0.0
 30
0.0
  9
$PLIMCHECK
 70
     0
  9
$PEXTMIN
 10
0.0
 20
0.0
 30
0.0
  9
$PEXTMAX
 10
420.0
 20
297.0
 30
0.0
  9
$PLIMMIN
 10
0.0
 20
0.0
  9
$PLIMMAX
 10
420.0
 20
297.0
  9
$UNITMODE
 70
     0
  9
$VISRETAIN
 70
     0
  9
$PLINEGEN
 70
     0
  9
$PSLTSCALE
 70
     1
  9
$TREEDEPTH
 70
  3020
  9
$PICKSTYLE
 70
     1
  9
$CMLSTYLE
  2
STANDARD
  9
$CMLJUST
 70
     0
  9
$CMLSCALE
 40
1.0
  9
$PROXYGRAPHICS
 70
     1
  9
$MEASUREMENT
 70
     1
  0
ENDSEC
  0
SECTION
  2
CLASSES
  0
CLASS
  1
ACDBDICTIONARYWDFLT
  2
AcDbDictionaryWithDefault
  3
AutoCAD 2000
 90
        0
280
     0
281
     0
  0
CLASS
  1
ACDBPLACEHOLDER
  2
AcDbPlaceHolder
  3
AutoCAD 2000
 90
        0
280
     0
281
     0
  0
CLASS
  1
LAYOUT
  2
AcDbLayout
  3
AutoCAD 2000
 90
        0
280
     0
281
     0
  0
CLASS
  1
LONG_TRANSACTION
  2
AcDbLongTransaction
  3
AutoCAD 2000
 90
        0
280
     0
281
     0
  0
CLASS
  1
LWPOLYLINE
  2
AcDbPolyline
  3
AutoCAD 2000
 90
        0
280
     0
281
     1
  0
CLASS
  1
HATCH
  2
AcDbHatch
  3
AutoCAD 2000
 90
        0
280
     0
281
     1
  0
CLASS
  1
XRECORD
  2
AcDbXrecord
  3
AutoCAD 2000
 90
        0
280
     0
281
     0
  0
CLASS
  1
LONG_TRANSACTION
  2
AcDbLongTransaction
  3
AutoCAD 2000
 90
        0
280
     0
281
     0
  0
CLASS
  1
LWPOLYLINE
  2
AcDbPolyline
  3
AutoCAD 2000
 90
        0
280
     0
281
     1
  0
CLASS
  1
HATCH
  2
AcDbHatch
  3
AutoCAD 2000
 90
        0
280
     0
281
     1
  0
CLASS
  1
XRECORD
  2
AcDbXrecord
  3
AutoCAD 2000
 90
        0
280
     0
281
     0
  0
CLASS
  1
LONG_TRANSACTION
  2
AcDbLongTransaction
  3
AutoCAD 2000
 90
        0
280
     0
281
     0
  0
CLASS
  1
LWPOLYLINE
  2
AcDbPolyline
  3
AutoCAD 2000
 90
        0
280
     0
281
     1
  0
CLASS
  1
HATCH
  2
AcDbHatch
  3
AutoCAD 2000
 90
        0
280
     0
281
     1
  0
CLASS
  1
XRECORD
  2
AcDbXrecord
  3
AutoCAD 2000
 90
        0
280
     0
281
     0
  0
CLASS
  1
LONG_TRANSACTION
  2
AcDbLongTransaction
  3
AutoCAD 2000
 90
        0
280
     0
281
     0
  0
CLASS
  1
LWPOLYLINE
  2
AcDbPolyline
  3
AutoCAD 2000
 90
        0
280
     0
281
     1
  0
CLASS
  1
HATCH
  2
AcDbHatch
  3
AutoCAD 2000
 90
        0
280
     0
281
     1
  0
CLASS
  1
XRECORD
  2
AcDbXrecord
  3
AutoCAD 2000
 90
        0
280
     0
281
     0
  0
CLASS
  1
LONG_TRANSACTION
  2
AcDbLongTransaction
  3
AutoCAD 2000
 90
        0
280
     0
281
     0
  0
CLASS
  1
LWPOLYLINE
  2
AcDbPolyline
  3
AutoCAD 2000
 90
        0
280
     0
281
     1
  0
CLASS
  1
HATCH
  2
AcDbHatch
  3
AutoCAD 2000
 90
        0
280
     0
281
     1
  0
CLASS
  1
XRECORD
  2
AcDbXrecord
  3
AutoCAD 2000
 90
        0
280
     0
281
     0
  0
CLASS
  1
LONG_TRANSACTION
  2
AcDbLongTransaction
  3
AutoCAD 2000
 90
        0
280
     0
281
     0
  0
CLASS
  1
LWPOLYLINE
  2
AcDbPolyline
  3
AutoCAD 2000
 90
        0
280
     0
281
     1
  0
CLASS
  1
HATCH
  2
AcDbHatch
  3
AutoCAD 2000
 90
        0
280
     0
281
     1
  0
CLASS
  1
XRECORD
  2
AcDbXrecord
  3
AutoCAD 2000
 90
        0
280
     0
281
     0
  0
CLASS
  1
LONG_TRANSACTION
  2
AcDbLongTransaction
  3
AutoCAD 2000
 90
        0
280
     0
281
     0
  0
CLASS
  1
LWPOLYLINE
  2
AcDbPolyline
  3
AutoCAD 2000
 90
        0
280
     0
281
     1
  0
CLASS
  1
HATCH
  2
AcDbHatch
  3
AutoCAD 2000
 90
        0
280
     0
281
     1
  0
CLASS
  1
XRECORD
  2
AcDbXrecord
  3
AutoCAD 2000
 90
        0
280
     0
281
     0
  0
CLASS
  1
LONG_TRANSACTION
  2
AcDbLongTransaction
  3
AutoCAD 2000
 90
        0
280
     0
281
     0
  0
CLASS
  1
LWPOLYLINE
  2
AcDbPolyline
  3
AutoCAD 2000
 90
        0
280
     0
281
     1
  0
CLASS
  1
HATCH
  2
AcDbHatch
  3
AutoCAD 2000
 90
        0
280
     0
281
     1
  0
CLASS
  1
XRECORD
  2
AcDbXrecord
  3
AutoCAD 2000
 90
        0
280
     0
281
     0
  0
CLASS
  1
LONG_TRANSACTION
  2
AcDbLongTransaction
  3
AutoCAD 2000
 90
        0
280
     0
281
     0
  0
CLASS
  1
LWPOLYLINE
  2
AcDbPolyline
  3
AutoCAD 2000
 90
        0
280
     0
281
     1
  0
CLASS
  1
HATCH
  2
AcDbHatch
  3
AutoCAD 2000
 90
        0
280
     0
281
     1
  0
CLASS
  1
XRECORD
  2
AcDbXrecord
  3
AutoCAD 2000
 90
        0
280
     0
281
     0
  0
CLASS
  1
LONG_TRANSACTION
  2
AcDbLongTransaction
  3
AutoCAD 2000
 90
        0
280
     0
281
     0
  0
CLASS
  1
LWPOLYLINE
  2
AcDbPolyline
  3
AutoCAD 2000
 90
        0
280
     0
281
     1
  0
CLASS
  1
HATCH
  2
AcDbHatch
  3
AutoCAD 2000
 90
        0
280
     0
281
     1
  0
CLASS
  1
XRECORD
  2
AcDbXrecord
  3
AutoCAD 2000
 90
        0
280
     0
281
     0
  0
CLASS
  1
LONG_TRANSACTION
  2
AcDbLongTransaction
  3
AutoCAD 2000
 90
        0
280
     0
281
     0
  0
CLASS
  1
LWPOLYLINE
  2
AcDbPolyline
  3
AutoCAD 2000
 90
        0
280
     0
281
     1
  0
CLASS
  1
HATCH
  2
AcDbHatch
  3
AutoCAD 2000
 90
        0
280
     0
281
     1
  0
CLASS
  1
XRECORD
  2
AcDbXrecord
  3
AutoCAD 2000
 90
        0
280
     0
281
     0
  0
ENDSEC
  0
SECTION
  2
TABLES
  0
TABLE
  2
VPORT
  5
8
330
0
100
AcDbSymbolTable
 70
     2
  0
VPORT
  5
5C98
330
8
100
AcDbSymbolTableRecord
100
AcDbViewportTableRecord
  2
*ACTIVE
 70
     0
 10
0.0
 20
0.0
 11
1.0
 21
1.0
 12
880.6782056827049
 22
-658.0046956381009
 13
0.0
 23
0.0
 14
5.0
 24
5.0
 15
0.0
 25
0.0
 16
0.0
 26
0.0
 36
1.0
 17
0.0
 27
0.0
 37
0.0
 40
719.6093653809379
 41
1.570153061224489
 42
50.0
 43
0.0
 44
0.0
 50
0.0
 51
0.0
 71
     0
 72
   100
 73
     1
 74
     0
 75
     0
 76
     0
 77
     0
 78
     0
  0
ENDTAB
  0
TABLE
  2
LTYPE
  5
5
330
0
100
AcDbSymbolTable
 70
     2
  0
LTYPE
  5
14
330
5
100
AcDbSymbolTableRecord
100
AcDbLinetypeTableRecord
  2
BYBLOCK
 70
     0
  3

 72
    65
 73
     0
 40
0.0
  0
LTYPE
  5
15
330
5
100
AcDbSymbolTableRecord
100
AcDbLinetypeTableRecord
  2
BYLAYER
 70
     0
  3

 72
    65
 73
     0
 40
0.0
  0
LTYPE
  5
16
330
5
100
AcDbSymbolTableRecord
100
AcDbLinetypeTableRecord
  2
CONTINUOUS
 70
     0
  3
Solid line
 72
    65
 73
     0
 40
0.0
  0
LTYPE
  5
135
330
5
100
AcDbSymbolTableRecord
100
AcDbLinetypeTableRecord
  2
CENTER
 70
     0
  3
____ _ ____ _ ____ _ ____ _ ____ _ ____ _ ____ 
 72
    65
 73
     4
 40
2.0
 49
1.25
 74
     0
 49
-0.25
 74
     0
 49
0.25
 74
     0
 49
-0.25
 74
     0
  0
ENDTAB
  0
TABLE
  2
LAYER
  5
2
102
{ACAD_XDICTIONARY
360
4C3C
102
}
330
0
100
AcDbSymbolTable
 70
     9
  0
LAYER
  5
F
330
2
100
AcDbSymbolTableRecord
100
AcDbLayerTableRecord
  2
0
 70
     0
 62
     7
  6
CONTINUOUS
  0
LAYER
  5
62
330
2
100
AcDbSymbolTableRecord
100
AcDbLayerTableRecord
  2
VIEWPORT
 70
     0
 62
     7
  6
CONTINUOUS
  0
LAYER
  5
65
330
2
100
AcDbSymbolTableRecord
100
AcDbLayerTableRecord
  2
ZUWAKU
 70
     0
 62
     7
  6
CONTINUOUS
  0
LAYER
  5
145
330
2
100
AcDbSymbolTableRecord
100
AcDbLayerTableRecord
  2
SEIHIN
 70
     0
 62
     3
  6
CONTINUOUS
  0
LAYER
  5
146
330
2
100
AcDbSymbolTableRecord
100
AcDbLayerTableRecord
  2
SUNPOU
 70
     0
 62
     4
  6
CONTINUOUS
  0
LAYER
  5
381
330
2
100
AcDbSymbolTableRecord
100
AcDbLayerTableRecord
  2
DEFPOINTS
 70
     0
 62
     7
  6
CONTINUOUS
  0
LAYER
  5
3AB9
330
2
100
AcDbSymbolTableRecord
100
AcDbLayerTableRecord
  2
MOJI
 70
     0
 62
     2
  6
CONTINUOUS
  0
LAYER
  5
3D7D
330
2
100
AcDbSymbolTableRecord
100
AcDbLayerTableRecord
  2
CENTER_L
 70
     0
 62
     1
  6
CENTER
  0
LAYER
  5
4C3F
330
2
100
AcDbSymbolTableRecord
100
AcDbLayerTableRecord
  2
KEIJYO
 70
     0
 62
    -7
  6
CONTINUOUS
  0
ENDTAB
  0
TABLE
  2
STYLE
  5
3
330
0
100
AcDbSymbolTable
 70
     3
  0
STYLE
  5
10
330
3
100
AcDbSymbolTableRecord
100
AcDbTextStyleTableRecord
  2
STANDARD
 70
     0
 40
0.0
 41
1.0
 50
0.0
 71
     0
 42
5.0
  3
TXT
  4
bigfont.shx
  0
STYLE
  5
3ABA
330
3
100
AcDbSymbolTableRecord
100
AcDbTextStyleTableRecord
  2
ｽﾀｲﾙ1
 70
     0
 40
0.0
 41
1.0
 50
0.0
 71
     0
 42
2.5
  3
MS PGothic.ttf
  4

1001
ACAD
1000
MS PGothic
1071
    32818
  0
STYLE
  5
4304
330
3
100
AcDbSymbolTableRecord
100
AcDbTextStyleTableRecord
  2
GO
 70
     0
 40
0.0
 41
1.0
 50
0.0
 71
     0
 42
3.0
  3
MS Gothic.ttf
  4

1001
ACAD
1000
MS Gothic
1071
    32817
  0
ENDTAB
  0
TABLE
  2
VIEW
  5
6
330
0
100
AcDbSymbolTable
 70
     0
  0
ENDTAB
  0
TABLE
  2
UCS
  5
7
330
0
100
AcDbSymbolTable
 70
     0
  0
ENDTAB
  0
TABLE
  2
APPID
  5
9
330
0
100
AcDbSymbolTable
 70
     1
  0
APPID
  5
11
330
9
100
AcDbSymbolTableRecord
100
AcDbRegAppTableRecord
  2
ACAD
 70
     0
  0
ENDTAB
  0
TABLE
  2
DIMSTYLE
  5
A
330
0
100
AcDbSymbolTable
 70
     1
  0
DIMSTYLE
105
1D
102
{ACAD_REACTORS
330
5961
330
5962
330
5963
330
5971
330
59FE
330
5A58
330
5A5F
330
5A79
330
5A7B
330
5A9B
330
5A9E
330
5A9F
330
5AA4
102
}
330
A
100
AcDbSymbolTableRecord
100
AcDbDimStyleTableRecord
  2
STANDARD
 70
     0
  3

  4

  5

  6

  7

 40
1.0
 41
0.18
 42
0.0625
 43
0.38
 44
0.18
 45
0.0
 46
0.0
 47
0.0
 48
0.0
140
0.18
141
0.09
142
0.0
143
25.4
144
1.0
145
0.0
146
1.0
147
0.09
 71
     0
 72
     0
 73
     1
 74
     1
 75
     0
 76
     0
 77
     0
 78
     0
170
     0
171
     2
172
     0
173
     0
174
     0
175
     0
176
     0
177
     0
178
     0
270
     2
271
     4
272
     4
273
     2
274
     2
340
10
275
     0
280
     0
281
     0
282
     0
283
     1
284
     0
285
     0
286
     0
287
     3
288
     0
  0
ENDTAB
  0
TABLE
  2
BLOCK_RECORD
  5
1
330
0
100
AcDbSymbolTable
 70
    30
  0
BLOCK_RECORD
  5
1A
102
{ACAD_XDICTIONARY
360
88E
102
}
330
1
100
AcDbSymbolTableRecord
100
AcDbBlockTableRecord
  2
*MODEL_SPACE
  0
BLOCK_RECORD
  5
17
102
{ACAD_XDICTIONARY
360
88C
102
}
330
1
100
AcDbSymbolTableRecord
100
AcDbBlockTableRecord
  2
*PAPER_SPACE
  0
BLOCK_RECORD
  5
6D
330
1
100
AcDbSymbolTableRecord
100
AcDbBlockTableRecord
  2
_OPEN
  0
BLOCK_RECORD
  5
5476
330
1
100
AcDbSymbolTableRecord
100
AcDbBlockTableRecord
  2
*D1
  0
BLOCK_RECORD
  5
5482
330
1
100
AcDbSymbolTableRecord
100
AcDbBlockTableRecord
  2
*D2
  0
BLOCK_RECORD
  5
5490
330
1
100
AcDbSymbolTableRecord
100
AcDbBlockTableRecord
  2
*D3
  0
BLOCK_RECORD
  5
549C
330
1
100
AcDbSymbolTableRecord
100
AcDbBlockTableRecord
  2
*D4
  0
BLOCK_RECORD
  5
54A8
330
1
100
AcDbSymbolTableRecord
100
AcDbBlockTableRecord
  2
*D5
  0
BLOCK_RECORD
  5
54B4
330
1
100
AcDbSymbolTableRecord
100
AcDbBlockTableRecord
  2
*D6
  0
BLOCK_RECORD
  5
54C2
330
1
100
AcDbSymbolTableRecord
100
AcDbBlockTableRecord
  2
*D7
  0
BLOCK_RECORD
  5
54D0
330
1
100
AcDbSymbolTableRecord
100
AcDbBlockTableRecord
  2
*D8
  0
BLOCK_RECORD
  5
54DC
330
1
100
AcDbSymbolTableRecord
100
AcDbBlockTableRecord
  2
*D9
  0
BLOCK_RECORD
  5
54E8
330
1
100
AcDbSymbolTableRecord
100
AcDbBlockTableRecord
  2
*D10
  0
BLOCK_RECORD
  5
54F4
330
1
100
AcDbSymbolTableRecord
100
AcDbBlockTableRecord
  2
*D11
  0
BLOCK_RECORD
  5
5500
330
1
100
AcDbSymbolTableRecord
100
AcDbBlockTableRecord
  2
*D12
  0
BLOCK_RECORD
  5
550C
330
1
100
AcDbSymbolTableRecord
100
AcDbBlockTableRecord
  2
*D13
  0
BLOCK_RECORD
  5
551A
330
1
100
AcDbSymbolTableRecord
100
AcDbBlockTableRecord
  2
*D14
  0
BLOCK_RECORD
  5
5526
330
1
100
AcDbSymbolTableRecord
100
AcDbBlockTableRecord
  2
*D15
  0
BLOCK_RECORD
  5
5532
330
1
100
AcDbSymbolTableRecord
100
AcDbBlockTableRecord
  2
A$C3897793F
  0
BLOCK_RECORD
  5
5AFB
330
1
100
AcDbSymbolTableRecord
100
AcDbBlockTableRecord
  2
*D17
  0
BLOCK_RECORD
  5
5B07
330
1
100
AcDbSymbolTableRecord
100
AcDbBlockTableRecord
  2
*D18
  0
BLOCK_RECORD
  5
5B13
330
1
100
AcDbSymbolTableRecord
100
AcDbBlockTableRecord
  2
*D19
  0
BLOCK_RECORD
  5
5B1F
330
1
100
AcDbSymbolTableRecord
100
AcDbBlockTableRecord
  2
*D20
  0
BLOCK_RECORD
  5
5B2B
330
1
100
AcDbSymbolTableRecord
100
AcDbBlockTableRecord
  2
*D21
  0
BLOCK_RECORD
  5
5B37
330
1
100
AcDbSymbolTableRecord
100
AcDbBlockTableRecord
  2
*D22
  0
BLOCK_RECORD
  5
5B3F
330
1
100
AcDbSymbolTableRecord
100
AcDbBlockTableRecord
  2
*D23
  0
BLOCK_RECORD
  5
5B4B
330
1
100
AcDbSymbolTableRecord
100
AcDbBlockTableRecord
  2
*D24
  0
BLOCK_RECORD
  5
5B57
330
1
100
AcDbSymbolTableRecord
100
AcDbBlockTableRecord
  2
*D25
  0
BLOCK_RECORD
  5
5B63
330
1
100
AcDbSymbolTableRecord
100
AcDbBlockTableRecord
  2
*D26
  0
BLOCK_RECORD
  5
5B6F
330
1
100
AcDbSymbolTableRecord
100
AcDbBlockTableRecord
  2
*D27
  0
BLOCK_RECORD
  5
5B7D
330
1
100
AcDbSymbolTableRecord
100
AcDbBlockTableRecord
  2
*D28
  0
BLOCK_RECORD
  5
5B89
330
1
100
AcDbSymbolTableRecord
100
AcDbBlockTableRecord
  2
*D29
  0
ENDTAB
  0
ENDSEC
  0
SECTION
  2
BLOCKS
  0
BLOCK
  5
1B
330
1A
100
AcDbEntity
  8
0
100
AcDbBlockBegin
  2
*MODEL_SPACE
 70
     0
 10
0.0
 20
0.0
 30
0.0
  3
*MODEL_SPACE
  1

  0
ENDBLK
  5
1C
330
1A
100
AcDbEntity
  8
0
100
AcDbBlockEnd
  0
BLOCK
  5
18
330
17
100
AcDbEntity
 67
     1
  8
0
100
AcDbBlockBegin
  2
*PAPER_SPACE
 70
     0
 10
0.0
 20
0.0
 30
0.0
  3
*PAPER_SPACE
  1

  0
ENDBLK
  5
19
330
17
100
AcDbEntity
 67
     1
  8
0
100
AcDbBlockEnd
  0
BLOCK
  5
6E
330
6D
100
AcDbEntity
  8
0
100
AcDbBlockBegin
  2
_OPEN
 70
     0
 10
0.0
 20
0.0
 30
0.0
  3
_OPEN
  1

  0
LINE
  5
6F
330
6D
100
AcDbEntity
  8
0
  6
BYBLOCK
 62
     0
100
AcDbLine
 10
-1.0
 20
0.1666666666666666
 30
0.0
 11
0.0
 21
0.0
 31
0.0
  0
LINE
  5
70
330
6D
100
AcDbEntity
  8
0
  6
BYBLOCK
 62
     0
100
AcDbLine
 10
0.0
 20
0.0
 30
0.0
 11
-1.0
 21
-0.1666666666666666
 31
0.0
  0
LINE
  5
71
330
6D
100
AcDbEntity
  8
0
  6
BYBLOCK
 62
     0
100
AcDbLine
 10
0.0
 20
0.0
 30
0.0
 11
-1.0
 21
0.0
 31
0.0
  0
ENDBLK
  5
72
330
6D
100
AcDbEntity
  8
0
100
AcDbBlockEnd
  0
BLOCK
  5
5480
330
5476
100
AcDbEntity
  8
0
100
AcDbBlockBegin
  2
*D1
 70
     1
 10
0.0
 20
0.0
 30
0.0
  3
*D1
  1

  0
LINE
  5
5477
330
5476
100
AcDbEntity
  8
SUNPOU
100
AcDbLine
 10
379.894771355498
 20
426.6949193041482
 30
0.0
 11
399.4368932902962
 21
426.6949193041482
 31
0.0
  0
LINE
  5
5478
330
5476
100
AcDbEntity
  8
SUNPOU
100
AcDbLine
 10
379.894771355498
 20
346.6949193041482
 30
0.0
 11
399.4368932902962
 21
346.6949193041482
 31
0.0
  0
LINE
  5
5479
330
5476
100
AcDbEntity
  8
SUNPOU
100
AcDbLine
 10
396.4368932902962
 20
419.6949193041482
 30
0.0
 11
396.4368932902962
 21
353.6949193041482
 31
0.0
  0
INSERT
  5
547A
330
5476
100
AcDbEntity
  8
SUNPOU
100
AcDbBlockReference
  2
_OPEN
 10
396.4368932902962
 20
426.6949193041482
 30
0.0
 41
7.0
 42
7.0
 43
7.0
 50
90.0
  0
INSERT
  5
547B
330
5476
100
AcDbEntity
  8
SUNPOU
100
AcDbBlockReference
  2
_OPEN
 10
396.4368932902962
 20
346.6949193041482
 30
0.0
 41
7.0
 42
7.0
 43
7.0
 50
270.0
  0
MTEXT
  5
547C
330
5476
100
AcDbEntity
  8
SUNPOU
100
AcDbMText
 10
391.4368932902961
 20
386.6949193041483
 30
0.0
 40
6.0
 41
0.0
 71
     5
 72
     1
  1
\A1;80
 11
0.0000000000000001
 21
1.0
 31
0.0
1001
ACAD
1000
MTEXTBEGIN
1070
    73
1070
     1
1070
    44
1040
1.0
1070
    74
1070
     0
1000
MTEXTEND
  0
POINT
  5
547D
330
5476
100
AcDbEntity
  8
DEFPOINTS
 62
     0
100
AcDbPoint
 10
373.894771355498
 20
426.6949193041482
 30
0.0
  0
POINT
  5
547E
330
5476
100
AcDbEntity
  8
DEFPOINTS
 62
     0
100
AcDbPoint
 10
373.894771355498
 20
346.6949193041482
 30
0.0
  0
POINT
  5
547F
330
5476
100
AcDbEntity
  8
DEFPOINTS
 62
     0
100
AcDbPoint
 10
396.4368932902962
 20
346.6949193041482
 30
0.0
  0
ENDBLK
  5
5481
330
5476
100
AcDbEntity
  8
0
100
AcDbBlockEnd
  0
BLOCK
  5
548E
330
5482
100
AcDbEntity
  8
0
100
AcDbBlockBegin
  2
*D2
 70
     1
 10
0.0
 20
0.0
 30
0.0
  3
*D2
  1

  0
LINE
  5
5483
330
5482
100
AcDbEntity
  8
SUNPOU
100
AcDbLine
 10
373.894771355498
 20
282.9881724091483
 30
0.0
 11
373.894771355498
 21
305.9991344930618
 31
0.0
  0
LINE
  5
5484
330
5482
100
AcDbEntity
  8
SUNPOU
100
AcDbLine
 10
364.1022811408979
 20
279.6887668230482
 30
0.0
 11
364.1022811408979
 21
305.9991344930618
 31
0.0
  0
LINE
  5
5485
330
5482
100
AcDbEntity
  8
SUNPOU
100
AcDbLine
 10
380.894771355498
 20
302.9991344930619
 30
0.0
 11
387.894771355498
 21
302.9991344930619
 31
0.0
  0
LINE
  5
5486
330
5482
100
AcDbEntity
  8
SUNPOU
100
AcDbLine
 10
357.1022811408979
 20
302.9991344930619
 30
0.0
 11
339.1022811408979
 21
302.9991344930619
 31
0.0
  0
LINE
  5
5487
330
5482
100
AcDbEntity
  8
SUNPOU
100
AcDbLine
 10
373.894771355498
 20
302.9991344930619
 30
0.0
 11
364.1022811408979
 21
302.9991344930619
 31
0.0
  0
INSERT
  5
5488
330
5482
100
AcDbEntity
  8
SUNPOU
100
AcDbBlockReference
  2
_OPEN
 10
373.894771355498
 20
302.9991344930619
 30
0.0
 41
7.0
 42
7.0
 43
7.0
 50
180.0
  0
INSERT
  5
5489
330
5482
100
AcDbEntity
  8
SUNPOU
100
AcDbBlockReference
  2
_OPEN
 10
364.1022811408979
 20
302.9991344930619
 30
0.0
 41
7.0
 42
7.0
 43
7.0
  0
MTEXT
  5
548A
330
5482
100
AcDbEntity
  8
SUNPOU
100
AcDbMText
 10
344.6022811408979
 20
307.9991344930618
 30
0.0
 40
6.0
 41
0.0
 71
     5
 72
     1
  1
\A1;10
1001
ACAD
1000
MTEXTBEGIN
1070
    73
1070
     1
1070
    44
1040
1.0
1070
    74
1070
     0
1000
MTEXTEND
  0
POINT
  5
548B
330
5482
100
AcDbEntity
  8
DEFPOINTS
 62
     0
100
AcDbPoint
 10
373.894771355498
 20
276.9881724091483
 30
0.0
  0
POINT
  5
548C
330
5482
100
AcDbEntity
  8
DEFPOINTS
 62
     0
100
AcDbPoint
 10
364.1022811408979
 20
273.6887668230483
 30
0.0
  0
POINT
  5
548D
330
5482
100
AcDbEntity
  8
DEFPOINTS
 62
     0
100
AcDbPoint
 10
364.1022811408979
 20
302.9991344930619
 30
0.0
  0
ENDBLK
  5
548F
330
5482
100
AcDbEntity
  8
0
100
AcDbBlockEnd
  0
BLOCK
  5
549A
330
5490
100
AcDbEntity
  8
0
100
AcDbBlockBegin
  2
*D3
 70
     1
 10
0.0
 20
0.0
 30
0.0
  3
*D3
  1

  0
LINE
  5
5491
330
5490
100
AcDbEntity
  8
SUNPOU
100
AcDbLine
 10
373.894771355498
 20
282.9881724091483
 30
0.0
 11
373.894771355498
 21
321.8559367111044
 31
0.0
  0
LINE
  5
5492
330
5490
100
AcDbEntity
  8
SUNPOU
100
AcDbLine
 10
229.2948376349636
 20
276.0082597296575
 30
0.0
 11
229.2948376349636
 21
321.8559367111044
 31
0.0
  0
LINE
  5
5493
330
5490
100
AcDbEntity
  8
SUNPOU
100
AcDbLine
 10
366.894771355498
 20
318.8559367111043
 30
0.0
 11
236.2948376349636
 21
318.8559367111043
 31
0.0
  0
INSERT
  5
5494
330
5490
100
AcDbEntity
  8
SUNPOU
100
AcDbBlockReference
  2
_OPEN
 10
373.894771355498
 20
318.8559367111043
 30
0.0
 41
7.0
 42
7.0
 43
7.0
  0
INSERT
  5
5495
330
5490
100
AcDbEntity
  8
SUNPOU
100
AcDbBlockReference
  2
_OPEN
 10
229.2948376349636
 20
318.8559367111043
 30
0.0
 41
7.0
 42
7.0
 43
7.0
 50
180.0
  0
MTEXT
  5
5496
330
5490
100
AcDbEntity
  8
SUNPOU
100
AcDbMText
 10
301.5948044952308
 20
323.8559367111044
 30
0.0
 40
6.0
 41
0.0
 71
     5
 72
     1
  1
\A1;145
1001
ACAD
1000
MTEXTBEGIN
1070
    73
1070
     1
1070
    44
1040
1.0
1070
    74
1070
     0
1000
MTEXTEND
  0
POINT
  5
5497
330
5490
100
AcDbEntity
  8
DEFPOINTS
 62
     0
100
AcDbPoint
 10
373.894771355498
 20
276.9881724091483
 30
0.0
  0
POINT
  5
5498
330
5490
100
AcDbEntity
  8
DEFPOINTS
 62
     0
100
AcDbPoint
 10
229.2948376349636
 20
270.0082597296574
 30
0.0
  0
POINT
  5
5499
330
5490
100
AcDbEntity
  8
DEFPOINTS
 62
     0
100
AcDbPoint
 10
229.2948376349636
 20
318.8559367111043
 30
0.0
  0
ENDBLK
  5
549B
330
5490
100
AcDbEntity
  8
0
100
AcDbBlockEnd
  0
BLOCK
  5
54A6
330
549C
100
AcDbEntity
  8
0
100
AcDbBlockBegin
  2
*D4
 70
     1
 10
0.0
 20
0.0
 30
0.0
  3
*D4
  1

  0
LINE
  5
549D
330
549C
100
AcDbEntity
  8
SUNPOU
100
AcDbLine
 10
227.9228050667979
 20
276.2881724091482
 30
0.0
 11
204.493023810216
 21
276.2881724091482
 31
0.0
  0
LINE
  5
549E
330
549C
100
AcDbEntity
  8
SUNPOU
100
AcDbLine
 10
360.894771355498
 20
199.2881724091483
 30
0.0
 11
204.493023810216
 21
199.2881724091483
 31
0.0
  0
LINE
  5
549F
330
549C
100
AcDbEntity
  8
SUNPOU
100
AcDbLine
 10
207.493023810216
 20
269.2881724091482
 30
0.0
 11
207.493023810216
 21
206.2881724091483
 31
0.0
  0
INSERT
  5
54A0
330
549C
100
AcDbEntity
  8
SUNPOU
100
AcDbBlockReference
  2
_OPEN
 10
207.493023810216
 20
276.2881724091482
 30
0.0
 41
7.0
 42
7.0
 43
7.0
 50
90.0
  0
INSERT
  5
54A1
330
549C
100
AcDbEntity
  8
SUNPOU
100
AcDbBlockReference
  2
_OPEN
 10
207.493023810216
 20
199.2881724091483
 30
0.0
 41
7.0
 42
7.0
 43
7.0
 50
270.0
  0
MTEXT
  5
54A2
330
549C
100
AcDbEntity
  8
SUNPOU
100
AcDbMText
 10
202.493023810216
 20
237.7881724091483
 30
0.0
 40
6.0
 41
0.0
 71
     5
 72
     1
  1
\A1;77
 11
0.0000000000000001
 21
1.0
 31
0.0
1001
ACAD
1000
MTEXTBEGIN
1070
    73
1070
     1
1070
    44
1040
1.0
1070
    74
1070
     0
1000
MTEXTEND
  0
POINT
  5
54A3
330
549C
100
AcDbEntity
  8
DEFPOINTS
 62
     0
100
AcDbPoint
 10
233.9228050667979
 20
276.2881724091482
 30
0.0
  0
POINT
  5
54A4
330
549C
100
AcDbEntity
  8
DEFPOINTS
 62
     0
100
AcDbPoint
 10
366.894771355498
 20
199.2881724091483
 30
0.0
  0
POINT
  5
54A5
330
549C
100
AcDbEntity
  8
DEFPOINTS
 62
     0
100
AcDbPoint
 10
207.493023810216
 20
199.2881724091483
 30
0.0
  0
ENDBLK
  5
54A7
330
549C
100
AcDbEntity
  8
0
100
AcDbBlockEnd
  0
BLOCK
  5
54B2
330
54A8
100
AcDbEntity
  8
0
100
AcDbBlockBegin
  2
*D5
 70
     1
 10
0.0
 20
0.0
 30
0.0
  3
*D5
  1

  0
LINE
  5
54A9
330
54A8
100
AcDbEntity
  8
SUNPOU
100
AcDbLine
 10
379.894771355498
 20
276.9881724091483
 30
0.0
 11
416.2815774688024
 21
276.9881724091482
 31
0.0
  0
LINE
  5
54AA
330
54A8
100
AcDbEntity
  8
SUNPOU
100
AcDbLine
 10
374.894771355498
 20
199.2881724091483
 30
0.0
 11
416.2815774688024
 21
199.2881724091483
 31
0.0
  0
LINE
  5
54AB
330
54A8
100
AcDbEntity
  8
SUNPOU
100
AcDbLine
 10
413.2815774688024
 20
269.9881724091482
 30
0.0
 11
413.2815774688024
 21
206.2881724091483
 31
0.0
  0
INSERT
  5
54AC
330
54A8
100
AcDbEntity
  8
SUNPOU
100
AcDbBlockReference
  2
_OPEN
 10
413.2815774688024
 20
276.9881724091482
 30
0.0
 41
7.0
 42
7.0
 43
7.0
 50
90.0
  0
INSERT
  5
54AD
330
54A8
100
AcDbEntity
  8
SUNPOU
100
AcDbBlockReference
  2
_OPEN
 10
413.2815774688024
 20
199.2881724091483
 30
0.0
 41
7.0
 42
7.0
 43
7.0
 50
270.0
  0
MTEXT
  5
54AE
330
54A8
100
AcDbEntity
  8
SUNPOU
100
AcDbMText
 10
408.2815774688024
 20
238.1381724091483
 30
0.0
 40
6.0
 41
0.0
 71
     5
 72
     1
  1
\A1;78
 11
0.0000000000000001
 21
1.0
 31
0.0
1001
ACAD
1000
MTEXTBEGIN
1070
    73
1070
     1
1070
    44
1040
1.0
1070
    74
1070
     0
1000
MTEXTEND
  0
POINT
  5
54AF
330
54A8
100
AcDbEntity
  8
DEFPOINTS
 62
     0
100
AcDbPoint
 10
373.894771355498
 20
276.9881724091483
 30
0.0
  0
POINT
  5
54B0
330
54A8
100
AcDbEntity
  8
DEFPOINTS
 62
     0
100
AcDbPoint
 10
368.894771355498
 20
199.2881724091483
 30
0.0
  0
POINT
  5
54B1
330
54A8
100
AcDbEntity
  8
DEFPOINTS
 62
     0
100
AcDbPoint
 10
413.2815774688024
 20
199.2881724091483
 30
0.0
  0
ENDBLK
  5
54B3
330
54A8
100
AcDbEntity
  8
0
100
AcDbBlockEnd
  0
BLOCK
  5
54C0
330
54B4
100
AcDbEntity
  8
0
100
AcDbBlockBegin
  2
*D6
 70
     1
 10
0.0
 20
0.0
 30
0.0
  3
*D6
  1

  0
LINE
  5
54B5
330
54B4
100
AcDbEntity
  8
SUNPOU
100
AcDbLine
 10
373.894771355498
 20
197.2881724091482
 30
0.0
 11
373.894771355498
 21
171.6044320219968
 31
0.0
  0
LINE
  5
54B6
330
54B4
100
AcDbEntity
  8
SUNPOU
100
AcDbLine
 10
366.894771355498
 20
193.6245615747482
 30
0.0
 11
366.894771355498
 21
171.6044320219968
 31
0.0
  0
LINE
  5
54B7
330
54B4
100
AcDbEntity
  8
SUNPOU
100
AcDbLine
 10
380.894771355498
 20
174.6044320219968
 30
0.0
 11
387.894771355498
 21
174.6044320219968
 31
0.0
  0
LINE
  5
54B8
330
54B4
100
AcDbEntity
  8
SUNPOU
100
AcDbLine
 10
359.894771355498
 20
174.6044320219968
 30
0.0
 11
344.894771355498
 21
174.6044320219968
 31
0.0
  0
LINE
  5
54B9
330
54B4
100
AcDbEntity
  8
SUNPOU
100
AcDbLine
 10
373.894771355498
 20
174.6044320219968
 30
0.0
 11
366.894771355498
 21
174.6044320219968
 31
0.0
  0
INSERT
  5
54BA
330
54B4
100
AcDbEntity
  8
SUNPOU
100
AcDbBlockReference
  2
_OPEN
 10
373.894771355498
 20
174.6044320219968
 30
0.0
 41
7.0
 42
7.0
 43
7.0
 50
180.0
  0
INSERT
  5
54BB
330
54B4
100
AcDbEntity
  8
SUNPOU
100
AcDbBlockReference
  2
_OPEN
 10
366.894771355498
 20
174.6044320219968
 30
0.0
 41
7.0
 42
7.0
 43
7.0
  0
MTEXT
  5
54BC
330
54B4
100
AcDbEntity
  8
SUNPOU
100
AcDbMText
 10
348.894771355498
 20
179.6044320219968
 30
0.0
 40
6.0
 41
0.0
 71
     5
 72
     1
  1
\A1;7
1001
ACAD
1000
MTEXTBEGIN
1070
    73
1070
     1
1070
    44
1040
1.0
1070
    74
1070
     0
1000
MTEXTEND
  0
POINT
  5
54BD
330
54B4
100
AcDbEntity
  8
DEFPOINTS
 62
     0
100
AcDbPoint
 10
373.894771355498
 20
203.2881724091482
 30
0.0
  0
POINT
  5
54BE
330
54B4
100
AcDbEntity
  8
DEFPOINTS
 62
     0
100
AcDbPoint
 10
366.894771355498
 20
199.6245615747483
 30
0.0
  0
POINT
  5
54BF
330
54B4
100
AcDbEntity
  8
DEFPOINTS
 62
     0
100
AcDbPoint
 10
366.894771355498
 20
174.6044320219968
 30
0.0
  0
ENDBLK
  5
54C1
330
54B4
100
AcDbEntity
  8
0
100
AcDbBlockEnd
  0
BLOCK
  5
54CE
330
54C2
100
AcDbEntity
  8
0
100
AcDbBlockBegin
  2
*D7
 70
     1
 10
0.0
 20
0.0
 30
0.0
  3
*D7
  1

  0
LINE
  5
54C3
330
54C2
100
AcDbEntity
  8
SUNPOU
100
AcDbLine
 10
386.894771355498
 20
207.2881724091483
 30
0.0
 11
399.4368932902959
 21
207.2881724091483
 31
0.0
  0
LINE
  5
54C4
330
54C2
100
AcDbEntity
  8
SUNPOU
100
AcDbLine
 10
374.894771355498
 20
199.2881724091483
 30
0.0
 11
399.4368932902959
 21
199.2881724091483
 31
0.0
  0
LINE
  5
54C5
330
54C2
100
AcDbEntity
  8
SUNPOU
100
AcDbLine
 10
396.436893290296
 20
214.2881724091483
 30
0.0
 11
396.436893290296
 21
221.2881724091483
 31
0.0
  0
LINE
  5
54C6
330
54C2
100
AcDbEntity
  8
SUNPOU
100
AcDbLine
 10
396.436893290296
 20
192.2881724091483
 30
0.0
 11
396.436893290296
 21
185.2881724091482
 31
0.0
  0
LINE
  5
54C7
330
54C2
100
AcDbEntity
  8
SUNPOU
100
AcDbLine
 10
396.436893290296
 20
207.2881724091483
 30
0.0
 11
396.436893290296
 21
199.2881724091483
 31
0.0
  0
INSERT
  5
54C8
330
54C2
100
AcDbEntity
  8
SUNPOU
100
AcDbBlockReference
  2
_OPEN
 10
396.436893290296
 20
207.2881724091483
 30
0.0
 41
7.0
 42
7.0
 43
7.0
 50
270.0
  0
INSERT
  5
54C9
330
54C2
100
AcDbEntity
  8
SUNPOU
100
AcDbBlockReference
  2
_OPEN
 10
396.436893290296
 20
199.2881724091483
 30
0.0
 41
7.0
 42
7.0
 43
7.0
 50
90.0
  0
MTEXT
  5
54CA
330
54C2
100
AcDbEntity
  8
SUNPOU
100
AcDbMText
 10
391.4368932902959
 20
203.2881724091483
 30
0.0
 40
6.0
 41
0.0
 71
     5
 72
     1
  1
\A1;8
 11
0.0000000000000001
 21
1.0
 31
0.0
1001
ACAD
1000
MTEXTBEGIN
1070
    73
1070
     1
1070
    44
1040
1.0
1070
    74
1070
     0
1000
MTEXTEND
  0
POINT
  5
54CB
330
54C2
100
AcDbEntity
  8
DEFPOINTS
 62
     0
100
AcDbPoint
 10
380.894771355498
 20
207.2881724091483
 30
0.0
  0
POINT
  5
54CC
330
54C2
100
AcDbEntity
  8
DEFPOINTS
 62
     0
100
AcDbPoint
 10
368.894771355498
 20
199.2881724091483
 30
0.0
  0
POINT
  5
54CD
330
54C2
100
AcDbEntity
  8
DEFPOINTS
 62
     0
100
AcDbPoint
 10
396.436893290296
 20
199.2881724091483
 30
0.0
  0
ENDBLK
  5
54CF
330
54C2
100
AcDbEntity
  8
0
100
AcDbBlockEnd
  0
BLOCK
  5
54DA
330
54D0
100
AcDbEntity
  8
0
100
AcDbBlockBegin
  2
*D8
 70
     1
 10
0.0
 20
0.0
 30
0.0
  3
*D8
  1

  0
LINE
  5
54D1
330
54D0
100
AcDbEntity
  8
SUNPOU
100
AcDbLine
 10
379.894771355498
 20
276.9881724091483
 30
0.0
 11
399.4368932902959
 21
276.9881724091482
 31
0.0
  0
LINE
  5
54D2
330
54D0
100
AcDbEntity
  8
SUNPOU
100
AcDbLine
 10
386.894771355498
 20
257.2881724091482
 30
0.0
 11
399.4368932902959
 21
257.2881724091482
 31
0.0
  0
LINE
  5
54D3
330
54D0
100
AcDbEntity
  8
SUNPOU
100
AcDbLine
 10
396.436893290296
 20
269.9881724091482
 30
0.0
 11
396.436893290296
 21
264.2881724091482
 31
0.0
  0
INSERT
  5
54D4
330
54D0
100
AcDbEntity
  8
SUNPOU
100
AcDbBlockReference
  2
_OPEN
 10
396.436893290296
 20
276.9881724091482
 30
0.0
 41
7.0
 42
7.0
 43
7.0
 50
90.0
  0
INSERT
  5
54D5
330
54D0
100
AcDbEntity
  8
SUNPOU
100
AcDbBlockReference
  2
_OPEN
 10
396.436893290296
 20
257.2881724091482
 30
0.0
 41
7.0
 42
7.0
 43
7.0
 50
270.0
  0
MTEXT
  5
54D6
330
54D0
100
AcDbEntity
  8
SUNPOU
100
AcDbMText
 10
391.4368932902959
 20
267.1381724091483
 30
0.0
 40
6.0
 41
0.0
 71
     5
 72
     1
  1
\A1;20
 11
0.0000000000000001
 21
1.0
 31
0.0
1001
ACAD
1000
MTEXTBEGIN
1070
    73
1070
     1
1070
    44
1040
1.0
1070
    74
1070
     0
1000
MTEXTEND
  0
POINT
  5
54D7
330
54D0
100
AcDbEntity
  8
DEFPOINTS
 62
     0
100
AcDbPoint
 10
373.894771355498
 20
276.9881724091483
 30
0.0
  0
POINT
  5
54D8
330
54D0
100
AcDbEntity
  8
DEFPOINTS
 62
     0
100
AcDbPoint
 10
380.894771355498
 20
257.2881724091482
 30
0.0
  0
POINT
  5
54D9
330
54D0
100
AcDbEntity
  8
DEFPOINTS
 62
     0
100
AcDbPoint
 10
396.436893290296
 20
257.2881724091482
 30
0.0
  0
ENDBLK
  5
54DB
330
54D0
100
AcDbEntity
  8
0
100
AcDbBlockEnd
  0
BLOCK
  5
54E6
330
54DC
100
AcDbEntity
  8
0
100
AcDbBlockBegin
  2
*D9
 70
     1
 10
0.0
 20
0.0
 30
0.0
  3
*D9
  1

  0
LINE
  5
54DD
330
54DC
100
AcDbEntity
  8
SUNPOU
100
AcDbLine
 10
230.090999246898
 20
400.6949193041482
 30
0.0
 11
204.493023810216
 21
400.6949193041482
 31
0.0
  0
LINE
  5
54DE
330
54DC
100
AcDbEntity
  8
SUNPOU
100
AcDbLine
 10
228.8465348684981
 20
372.6949193041483
 30
0.0
 11
204.493023810216
 21
372.6949193041483
 31
0.0
  0
LINE
  5
54DF
330
54DC
100
AcDbEntity
  8
SUNPOU
100
AcDbLine
 10
207.493023810216
 20
393.6949193041483
 30
0.0
 11
207.493023810216
 21
379.6949193041482
 31
0.0
  0
INSERT
  5
54E0
330
54DC
100
AcDbEntity
  8
SUNPOU
100
AcDbBlockReference
  2
_OPEN
 10
207.493023810216
 20
400.6949193041482
 30
0.0
 41
7.0
 42
7.0
 43
7.0
 50
90.0
  0
INSERT
  5
54E1
330
54DC
100
AcDbEntity
  8
SUNPOU
100
AcDbBlockReference
  2
_OPEN
 10
207.493023810216
 20
372.6949193041483
 30
0.0
 41
7.0
 42
7.0
 43
7.0
 50
270.0
  0
MTEXT
  5
54E2
330
54DC
100
AcDbEntity
  8
SUNPOU
100
AcDbMText
 10
202.493023810216
 20
386.6949193041483
 30
0.0
 40
6.0
 41
0.0
 71
     5
 72
     1
  1
\A1;28
 11
0.0000000000000001
 21
1.0
 31
0.0
1001
ACAD
1000
MTEXTBEGIN
1070
    73
1070
     1
1070
    44
1040
1.0
1070
    74
1070
     0
1000
MTEXTEND
  0
POINT
  5
54E3
330
54DC
100
AcDbEntity
  8
DEFPOINTS
 62
     0
100
AcDbPoint
 10
236.090999246898
 20
400.6949193041482
 30
0.0
  0
POINT
  5
54E4
330
54DC
100
AcDbEntity
  8
DEFPOINTS
 62
     0
100
AcDbPoint
 10
234.8465348684981
 20
372.6949193041483
 30
0.0
  0
POINT
  5
54E5
330
54DC
100
AcDbEntity
  8
DEFPOINTS
 62
     0
100
AcDbPoint
 10
207.493023810216
 20
372.6949193041483
 30
0.0
  0
ENDBLK
  5
54E7
330
54DC
100
AcDbEntity
  8
0
100
AcDbBlockEnd
  0
BLOCK
  5
54F2
330
54E8
100
AcDbEntity
  8
0
100
AcDbBlockBegin
  2
*D10
 70
     1
 10
0.0
 20
0.0
 30
0.0
  3
*D10
  1

  0
LINE
  5
54E9
330
54E8
100
AcDbEntity
  8
SUNPOU
100
AcDbLine
 10
530.8769374353223
 20
271.9344538813483
 30
0.0
 11
530.8769374353223
 21
321.8559367111044
 31
0.0
  0
LINE
  5
54EA
330
54E8
100
AcDbEntity
  8
SUNPOU
100
AcDbLine
 10
610.8769374353223
 20
271.4022155706483
 30
0.0
 11
610.8769374353223
 21
321.8559367111044
 31
0.0
  0
LINE
  5
54EB
330
54E8
100
AcDbEntity
  8
SUNPOU
100
AcDbLine
 10
537.8769374353224
 20
318.8559367111043
 30
0.0
 11
603.8769374353223
 21
318.8559367111043
 31
0.0
  0
INSERT
  5
54EC
330
54E8
100
AcDbEntity
  8
SUNPOU
100
AcDbBlockReference
  2
_OPEN
 10
530.8769374353223
 20
318.8559367111043
 30
0.0
 41
7.0
 42
7.0
 43
7.0
 50
180.0
  0
INSERT
  5
54ED
330
54E8
100
AcDbEntity
  8
SUNPOU
100
AcDbBlockReference
  2
_OPEN
 10
610.8769374353223
 20
318.8559367111043
 30
0.0
 41
7.0
 42
7.0
 43
7.0
  0
MTEXT
  5
54EE
330
54E8
100
AcDbEntity
  8
SUNPOU
100
AcDbMText
 10
570.8769374353223
 20
323.8559367111044
 30
0.0
 40
6.0
 41
0.0
 71
     5
 72
     1
  1
\A1;80
1001
ACAD
1000
MTEXTBEGIN
1070
    73
1070
     1
1070
    44
1040
1.0
1070
    74
1070
     0
1000
MTEXTEND
  0
POINT
  5
54EF
330
54E8
100
AcDbEntity
  8
DEFPOINTS
 62
     0
100
AcDbPoint
 10
530.8769374353223
 20
265.9344538813483
 30
0.0
  0
POINT
  5
54F0
330
54E8
100
AcDbEntity
  8
DEFPOINTS
 62
     0
100
AcDbPoint
 10
610.8769374353223
 20
265.4022155706483
 30
0.0
  0
POINT
  5
54F1
330
54E8
100
AcDbEntity
  8
DEFPOINTS
 62
     0
100
AcDbPoint
 10
610.8769374353223
 20
318.8559367111043
 30
0.0
  0
ENDBLK
  5
54F3
330
54E8
100
AcDbEntity
  8
0
100
AcDbBlockEnd
  0
BLOCK
  5
54FE
330
54F4
100
AcDbEntity
  8
0
100
AcDbBlockBegin
  2
*D11
 70
     1
 10
0.0
 20
0.0
 30
0.0
  3
*D11
  1

  0
LINE
  5
54F5
330
54F4
100
AcDbEntity
  8
SUNPOU
100
AcDbLine
 10
538.8769374353223
 20
268.9398724091483
 30
0.0
 11
538.8769374353223
 21
305.9991344930618
 31
0.0
  0
LINE
  5
54F6
330
54F4
100
AcDbEntity
  8
SUNPOU
100
AcDbLine
 10
602.8769374353223
 20
268.9398724091483
 30
0.0
 11
602.8769374353223
 21
305.9991344930618
 31
0.0
  0
LINE
  5
54F7
330
54F4
100
AcDbEntity
  8
SUNPOU
100
AcDbLine
 10
545.8769374353223
 20
302.9991344930619
 30
0.0
 11
595.8769374353223
 21
302.9991344930619
 31
0.0
  0
INSERT
  5
54F8
330
54F4
100
AcDbEntity
  8
SUNPOU
100
AcDbBlockReference
  2
_OPEN
 10
538.8769374353223
 20
302.9991344930619
 30
0.0
 41
7.0
 42
7.0
 43
7.0
 50
180.0
  0
INSERT
  5
54F9
330
54F4
100
AcDbEntity
  8
SUNPOU
100
AcDbBlockReference
  2
_OPEN
 10
602.8769374353223
 20
302.9991344930619
 30
0.0
 41
7.0
 42
7.0
 43
7.0
  0
MTEXT
  5
54FA
330
54F4
100
AcDbEntity
  8
SUNPOU
100
AcDbMText
 10
570.8769374353223
 20
307.9991344930618
 30
0.0
 40
6.0
 41
0.0
 71
     5
 72
     1
  1
\A1;64
1001
ACAD
1000
MTEXTBEGIN
1070
    73
1070
     1
1070
    44
1040
1.0
1070
    74
1070
     0
1000
MTEXTEND
  0
POINT
  5
54FB
330
54F4
100
AcDbEntity
  8
DEFPOINTS
 62
     0
100
AcDbPoint
 10
538.8769374353223
 20
262.9398724091483
 30
0.0
  0
POINT
  5
54FC
330
54F4
100
AcDbEntity
  8
DEFPOINTS
 62
     0
100
AcDbPoint
 10
602.8769374353223
 20
262.9398724091483
 30
0.0
  0
POINT
  5
54FD
330
54F4
100
AcDbEntity
  8
DEFPOINTS
 62
     0
100
AcDbPoint
 10
602.8769374353223
 20
302.9991344930619
 30
0.0
  0
ENDBLK
  5
54FF
330
54F4
100
AcDbEntity
  8
0
100
AcDbBlockEnd
  0
BLOCK
  5
550A
330
5500
100
AcDbEntity
  8
0
100
AcDbBlockBegin
  2
*D12
 70
     1
 10
0.0
 20
0.0
 30
0.0
  3
*D12
  1

  0
LINE
  5
5501
330
5500
100
AcDbEntity
  8
SUNPOU
100
AcDbLine
 10
564.8770332991493
 20
276.988167385138
 30
0.0
 11
486.3122667886423
 21
276.988167385138
 31
0.0
  0
LINE
  5
5502
330
5500
100
AcDbEntity
  8
SUNPOU
100
AcDbLine
 10
564.8769374353223
 20
199.2881724091483
 30
0.0
 11
486.3122667886423
 21
199.2881724091483
 31
0.0
  0
LINE
  5
5503
330
5500
100
AcDbEntity
  8
SUNPOU
100
AcDbLine
 10
489.3122667886423
 20
269.988167385138
 30
0.0
 11
489.3122667886423
 21
206.2881724091483
 31
0.0
  0
INSERT
  5
5504
330
5500
100
AcDbEntity
  8
SUNPOU
100
AcDbBlockReference
  2
_OPEN
 10
489.3122667886423
 20
276.988167385138
 30
0.0
 41
7.0
 42
7.0
 43
7.0
 50
90.0
  0
INSERT
  5
5505
330
5500
100
AcDbEntity
  8
SUNPOU
100
AcDbBlockReference
  2
_OPEN
 10
489.3122667886423
 20
199.2881724091483
 30
0.0
 41
7.0
 42
7.0
 43
7.0
 50
270.0
  0
MTEXT
  5
5506
330
5500
100
AcDbEntity
  8
SUNPOU
100
AcDbMText
 10
484.3122667886422
 20
238.1381698971432
 30
0.0
 40
6.0
 41
0.0
 71
     5
 72
     1
  1
\A1;78
 11
0.0000000000000001
 21
1.0
 31
0.0
1001
ACAD
1000
MTEXTBEGIN
1070
    73
1070
     1
1070
    44
1040
1.0
1070
    74
1070
     0
1000
MTEXTEND
  0
POINT
  5
5507
330
5500
100
AcDbEntity
  8
DEFPOINTS
 62
     0
100
AcDbPoint
 10
570.8770332991494
 20
276.988167385138
 30
0.0
  0
POINT
  5
5508
330
5500
100
AcDbEntity
  8
DEFPOINTS
 62
     0
100
AcDbPoint
 10
570.8769374353223
 20
199.2881724091483
 30
0.0
  0
POINT
  5
5509
330
5500
100
AcDbEntity
  8
DEFPOINTS
 62
     0
100
AcDbPoint
 10
489.3122667886423
 20
199.2881724091483
 30
0.0
  0
ENDBLK
  5
550B
330
5500
100
AcDbEntity
  8
0
100
AcDbBlockEnd
  0
BLOCK
  5
5518
330
550C
100
AcDbEntity
  8
0
100
AcDbBlockBegin
  2
*D13
 70
     1
 10
0.0
 20
0.0
 30
0.0
  3
*D13
  1

  0
LINE
  5
550D
330
550C
100
AcDbEntity
  8
SUNPOU
100
AcDbLine
 10
564.8769430212805
 20
199.2881726042142
 30
0.0
 11
507.4221430837351
 21
199.2881726042142
 31
0.0
  0
LINE
  5
550E
330
550C
100
AcDbEntity
  8
SUNPOU
100
AcDbLine
 10
557.6576011393528
 20
207.2881724091482
 30
0.0
 11
507.4221430837351
 21
207.2881724091482
 31
0.0
  0
LINE
  5
550F
330
550C
100
AcDbEntity
  8
SUNPOU
100
AcDbLine
 10
510.4221430837351
 20
192.2881726042142
 30
0.0
 11
510.4221430837351
 21
185.2881726042142
 31
0.0
  0
LINE
  5
5510
330
550C
100
AcDbEntity
  8
SUNPOU
100
AcDbLine
 10
510.4221430837351
 20
214.2881724091483
 30
0.0
 11
510.4221430837351
 21
229.2881724091483
 31
0.0
  0
LINE
  5
5511
330
550C
100
AcDbEntity
  8
SUNPOU
100
AcDbLine
 10
510.4221430837351
 20
199.2881726042142
 30
0.0
 11
510.4221430837351
 21
207.2881724091482
 31
0.0
  0
INSERT
  5
5512
330
550C
100
AcDbEntity
  8
SUNPOU
100
AcDbBlockReference
  2
_OPEN
 10
510.4221430837351
 20
199.2881726042142
 30
0.0
 41
7.0
 42
7.0
 43
7.0
 50
90.0
  0
INSERT
  5
5513
330
550C
100
AcDbEntity
  8
SUNPOU
100
AcDbBlockReference
  2
_OPEN
 10
510.4221430837351
 20
207.2881724091482
 30
0.0
 41
7.0
 42
7.0
 43
7.0
 50
270.0
  0
MTEXT
  5
5514
330
550C
100
AcDbEntity
  8
SUNPOU
100
AcDbMText
 10
505.422143083735
 20
225.2881724091484
 30
0.0
 40
6.0
 41
0.0
 71
     5
 72
     1
  1
\A1;8
 11
0.0000000000000001
 21
1.0
 31
0.0
1001
ACAD
1000
MTEXTBEGIN
1070
    73
1070
     1
1070
    44
1040
1.0
1070
    74
1070
     0
1000
MTEXTEND
  0
POINT
  5
5515
330
550C
100
AcDbEntity
  8
DEFPOINTS
 62
     0
100
AcDbPoint
 10
570.8769430212806
 20
199.2881726042142
 30
0.0
  0
POINT
  5
5516
330
550C
100
AcDbEntity
  8
DEFPOINTS
 62
     0
100
AcDbPoint
 10
563.6576011393528
 20
207.2881724091482
 30
0.0
  0
POINT
  5
5517
330
550C
100
AcDbEntity
  8
DEFPOINTS
 62
     0
100
AcDbPoint
 10
510.4221430837351
 20
207.2881724091482
 30
0.0
  0
ENDBLK
  5
5519
330
550C
100
AcDbEntity
  8
0
100
AcDbBlockEnd
  0
BLOCK
  5
5524
330
551A
100
AcDbEntity
  8
0
100
AcDbBlockBegin
  2
*D14
 70
     1
 10
0.0
 20
0.0
 30
0.0
  3
*D14
  1

  0
LINE
  5
551B
330
551A
100
AcDbEntity
  8
SUNPOU
100
AcDbLine
 10
556.8769374354224
 20
201.6135978528482
 30
0.0
 11
556.8769374354224
 21
171.6044320219968
 31
0.0
  0
LINE
  5
551C
330
551A
100
AcDbEntity
  8
SUNPOU
100
AcDbLine
 10
584.8769374353223
 20
201.5025733804483
 30
0.0
 11
584.8769374353223
 21
171.6044320219968
 31
0.0
  0
LINE
  5
551D
330
551A
100
AcDbEntity
  8
SUNPOU
100
AcDbLine
 10
563.8769374354223
 20
174.6044320219968
 30
0.0
 11
577.8769374353223
 21
174.6044320219968
 31
0.0
  0
INSERT
  5
551E
330
551A
100
AcDbEntity
  8
SUNPOU
100
AcDbBlockReference
  2
_OPEN
 10
556.8769374354224
 20
174.6044320219968
 30
0.0
 41
7.0
 42
7.0
 43
7.0
 50
180.0
  0
INSERT
  5
551F
330
551A
100
AcDbEntity
  8
SUNPOU
100
AcDbBlockReference
  2
_OPEN
 10
584.8769374353223
 20
174.6044320219968
 30
0.0
 41
7.0
 42
7.0
 43
7.0
  0
MTEXT
  5
5520
330
551A
100
AcDbEntity
  8
SUNPOU
100
AcDbMText
 10
570.8769374353724
 20
179.6044320219968
 30
0.0
 40
6.0
 41
0.0
 71
     5
 72
     1
  1
\A1;28
1001
ACAD
1000
MTEXTBEGIN
1070
    73
1070
     1
1070
    44
1040
1.0
1070
    74
1070
     0
1000
MTEXTEND
  0
POINT
  5
5521
330
551A
100
AcDbEntity
  8
DEFPOINTS
 62
     0
100
AcDbPoint
 10
556.8769374354224
 20
207.6135978528482
 30
0.0
  0
POINT
  5
5522
330
551A
100
AcDbEntity
  8
DEFPOINTS
 62
     0
100
AcDbPoint
 10
584.8769374353223
 20
207.5025733804483
 30
0.0
  0
POINT
  5
5523
330
551A
100
AcDbEntity
  8
DEFPOINTS
 62
     0
100
AcDbPoint
 10
584.8769374353223
 20
174.6044320219968
 30
0.0
  0
ENDBLK
  5
5525
330
551A
100
AcDbEntity
  8
0
100
AcDbBlockEnd
  0
BLOCK
  5
5530
330
5526
100
AcDbEntity
  8
0
100
AcDbBlockBegin
  2
*D15
 70
     1
 10
0.0
 20
0.0
 30
0.0
  3
*D15
  1

  0
LINE
  5
5527
330
5526
100
AcDbEntity
  8
SUNPOU
100
AcDbLine
 10
564.8770332991493
 20
276.988167385138
 30
0.0
 11
507.4221430837351
 21
276.988167385138
 31
0.0
  0
LINE
  5
5528
330
5526
100
AcDbEntity
  8
SUNPOU
100
AcDbLine
 10
526.7798374353223
 20
257.2881724091482
 30
0.0
 11
507.4221430837351
 21
257.2881724091482
 31
0.0
  0
LINE
  5
5529
330
5526
100
AcDbEntity
  8
SUNPOU
100
AcDbLine
 10
510.4221430837351
 20
269.988167385138
 30
0.0
 11
510.4221430837351
 21
264.2881724091482
 31
0.0
  0
INSERT
  5
552A
330
5526
100
AcDbEntity
  8
SUNPOU
100
AcDbBlockReference
  2
_OPEN
 10
510.4221430837351
 20
276.988167385138
 30
0.0
 41
7.0
 42
7.0
 43
7.0
 50
90.0
  0
INSERT
  5
552B
330
5526
100
AcDbEntity
  8
SUNPOU
100
AcDbBlockReference
  2
_OPEN
 10
510.4221430837351
 20
257.2881724091482
 30
0.0
 41
7.0
 42
7.0
 43
7.0
 50
270.0
  0
MTEXT
  5
552C
330
5526
100
AcDbEntity
  8
SUNPOU
100
AcDbMText
 10
505.422143083735
 20
267.1381698971432
 30
0.0
 40
6.0
 41
0.0
 71
     5
 72
     1
  1
\A1;20
 11
0.0000000000000001
 21
1.0
 31
0.0
1001
ACAD
1000
MTEXTBEGIN
1070
    73
1070
     1
1070
    44
1040
1.0
1070
    74
1070
     0
1000
MTEXTEND
  0
POINT
  5
552D
330
5526
100
AcDbEntity
  8
DEFPOINTS
 62
     0
100
AcDbPoint
 10
570.8770332991494
 20
276.988167385138
 30
0.0
  0
POINT
  5
552E
330
5526
100
AcDbEntity
  8
DEFPOINTS
 62
     0
100
AcDbPoint
 10
532.7798374353224
 20
257.2881724091482
 30
0.0
  0
POINT
  5
552F
330
5526
100
AcDbEntity
  8
DEFPOINTS
 62
     0
100
AcDbPoint
 10
510.4221430837351
 20
257.2881724091482
 30
0.0
  0
ENDBLK
  5
5531
330
5526
100
AcDbEntity
  8
0
100
AcDbBlockEnd
  0
BLOCK
  5
570E
330
5532
100
AcDbEntity
  8
0
100
AcDbBlockBegin
  2
A$C3897793F
 70
     0
 10
0.0
 20
0.0
 30
0.0
  3
A$C3897793F
  1

  0
TEXT
  5
5533
330
5532
100
AcDbEntity
  8
ZUWAKU
100
AcDbText
 10
708.5280832282746
 20
17.55383746775862
 30
0.0
 40
6.0
  1
積水化学工業株式会社
 41
0.9
  7
ｽﾀｲﾙ1
100
AcDbText
  0
LINE
  5
5534
330
5532
100
AcDbEntity
  8
ZUWAKU
100
AcDbLine
 10
-0.0000009639691143
 20
30.79999813207189
 30
0.0
 11
797.3999990360307
 21
30.79999813207189
 31
0.0
  0
LINE
  5
5535
330
5532
100
AcDbEntity
  8
ZUWAKU
100
AcDbLine
 10
-0.0000009639691143
 20
30.59999813207184
 30
0.0
 11
797.3999990360307
 21
30.59999813207184
 31
0.0
  0
LINE
  5
5536
330
5532
100
AcDbEntity
  8
ZUWAKU
100
AcDbLine
 10
-0.0000009639691143
 20
30.3999981320718
 30
0.0
 11
797.3999990360307
 21
30.3999981320718
 31
0.0
  0
LINE
  5
5537
330
5532
100
AcDbEntity
  8
ZUWAKU
100
AcDbLine
 10
-0.0000009639691143
 20
30.19999813207187
 30
0.0
 11
797.3999990360307
 21
30.19999813207187
 31
0.0
  0
LINE
  5
5538
330
5532
100
AcDbEntity
  8
ZUWAKU
100
AcDbLine
 10
-0.0000009639691143
 20
29.99999813207182
 30
0.0
 11
797.3999990360307
 21
29.99999813207182
 31
0.0
  0
LWPOLYLINE
  5
5539
330
5532
100
AcDbEntity
  8
ZUWAKU
100
AcDbPolyline
 90
        4
 70
     1
 43
0.0
 10
0.1999990360308175
 20
551.3999981320718
 10
0.1999990360308175
 20
0.1999981320718689
 10
797.3999990360307
 20
0.1999981320718902
 10
797.399999036031
 20
551.3999981320718
  0
LWPOLYLINE
  5
553A
330
5532
100
AcDbEntity
  8
ZUWAKU
100
AcDbPolyline
 90
        4
 70
     1
 43
0.0
 10
0.5999990360307948
 20
550.9999981320719
 10
0.5999990360307948
 20
0.5999981320718462
 10
796.9999990360311
 20
0.5999981320718959
 10
796.9999990360308
 20
550.9999981320719
  0
LWPOLYLINE
  5
553B
330
5532
100
AcDbEntity
  8
ZUWAKU
100
AcDbPolyline
 90
        4
 70
     1
 43
0.0
 10
-0.0000009639691143
 20
551.5999981320718
 10
-0.0000009639691143
 20
-0.0000018679281766
 10
797.599999036031
 20
-0.0000018679281055
 10
797.599999036031
 20
551.5999981320719
  0
LWPOLYLINE
  5
553C
330
5532
100
AcDbEntity
  8
ZUWAKU
100
AcDbPolyline
 90
        4
 70
     1
 43
0.0
 10
0.3999990360308629
 20
551.1999981320717
 10
0.3999990360308629
 20
0.3999981320719144
 10
797.1999990360309
 20
0.399998132071893
 10
797.1999990360309
 20
551.1999981320717
  0
LWPOLYLINE
  5
553D
330
5532
100
AcDbEntity
  8
ZUWAKU
100
AcDbPolyline
 90
        4
 70
     1
 43
0.0
 10
0.7999990360308403
 20
550.7999981320717
 10
0.7999990360308403
 20
0.7999981320718917
 10
796.7999990360308
 20
0.7999981320718917
 10
796.7999990360308
 20
550.7999981320717
  0
DIMENSION
  5
553E
330
5532
100
AcDbEntity
  8
SUNPOU
100
AcDbDimension
  2
*D4
 10
206.693023279603
 20
200.0881699009231
 30
0.0
 11
201.693023279603
 21
238.5881699009231
 31
0.0
 12
-0.8000005306130333
 22
0.799997491774775
 32
0.0
  3
STANDARD
100
AcDbAlignedDimension
 13
233.1228045361849
 23
277.088169900923
 33
0.0
 14
366.094770824885
 24
200.088169900923
 34
0.0
 50
90.0
100
AcDbRotatedDimension
1001
ACAD
1000
DSTYLE
1002
{
1070
    41
1040
7.0
1070
    42
1040
6.0
1070
    43
1040
14.0
1070
    44
1040
3.0
1070
    73
1070
     0
1070
    74
1070
     0
1070
    77
1070
     3
1070
   140
1040
6.0
1070
   141
1040
150.0
1070
   147
1040
2.0
1070
   172
1070
     1
1070
   173
1070
     1
1070
   176
1070
   256
1070
   177
1070
   256
1070
   178
1070
   256
1070
   271
1070
     0
1070
   272
1070
     0
1070
   341
1005
6D
1070
     6
1000
OPEN
1070
     7
1000
OPEN
1070
   371
1070
    -1
1070
   372
1070
    -1
1002
}
  0
LINE
  5
553F
330
5532
100
AcDbEntity
  8
ZUWAKU
100
AcDbLine
 10
208.6466003260988
 20
15.19999813207187
 30
0.0
 11
447.4243630070223
 21
15.19999813207187
 31
0.0
  0
LINE
  5
5540
330
5532
100
AcDbEntity
  8
ZUWAKU
100
AcDbLine
 10
208.6466003260988
 20
15.59999813207184
 30
0.0
 11
447.4243630070223
 21
15.59999813207184
 31
0.0
  0
LINE
  5
5541
330
5532
100
AcDbEntity
  8
ZUWAKU
100
AcDbLine
 10
208.6466003260988
 20
15.3999981320718
 30
0.0
 11
447.4243630070223
 21
15.3999981320718
 31
0.0
  0
LINE
  5
5542
330
5532
100
AcDbEntity
  8
ZUWAKU
100
AcDbLine
 10
208.2466003260988
 20
29.99999813207182
 30
0.0
 11
208.2466003260988
 21
0.7999981320718917
 31
0.0
  0
LINE
  5
5543
330
5532
100
AcDbEntity
  8
ZUWAKU
100
AcDbLine
 10
208.6466003260986
 20
29.99999813207182
 30
0.0
 11
208.6466003260988
 21
0.7999981320718917
 31
0.0
  0
LINE
  5
5544
330
5532
100
AcDbEntity
  8
ZUWAKU
100
AcDbLine
 10
208.4466003260986
 20
29.99999813207182
 30
0.0
 11
208.4466003260988
 21
0.7999981320718917
 31
0.0
  0
LINE
  5
5545
330
5532
100
AcDbEntity
  8
ZUWAKU
100
AcDbLine
 10
79.32662858401909
 20
29.99999813207182
 30
0.0
 11
79.32662858401932
 21
0.7999981320718917
 31
0.0
  0
LINE
  5
5546
330
5532
100
AcDbEntity
  8
ZUWAKU
100
AcDbLine
 10
79.52662858401914
 20
29.99999813207182
 30
0.0
 11
79.52662858401936
 21
0.7999981320718917
 31
0.0
  0
LINE
  5
5547
330
5532
100
AcDbEntity
  8
ZUWAKU
100
AcDbLine
 10
79.12662858401927
 20
29.99999813207182
 30
0.0
 11
79.12662858401927
 21
0.7999981320718917
 31
0.0
  0
LINE
  5
5548
330
5532
100
AcDbEntity
  8
ZUWAKU
100
AcDbLine
 10
64.14221119081208
 20
9.949998132071868
 30
0.0
 11
64.14221119081208
 21
22.72499813207184
 31
0.0
  0
LINE
  5
5549
330
5532
100
AcDbEntity
  8
ZUWAKU
100
AcDbLine
 10
61.34221119081201
 20
22.72499813207184
 30
0.0
 11
61.34221119081201
 21
10.99999813207182
 31
0.0
  0
LINE
  5
554A
330
5532
100
AcDbEntity
  8
ZUWAKU
100
AcDbLine
 10
69.04221119081205
 20
7.674998132071777
 30
0.0
 11
69.04221119081205
 21
22.72499813207184
 31
0.0
  0
LINE
  5
554B
330
5532
100
AcDbEntity
  8
ZUWAKU
100
AcDbLine
 10
66.24221119081198
 20
22.72499813207184
 30
0.0
 11
66.24221119081198
 21
7.674998132071777
 31
0.0
  0
LINE
  5
554C
330
5532
100
AcDbEntity
  8
ZUWAKU
100
AcDbLine
 10
57.84221119081201
 20
10.99999813207182
 30
0.0
 11
57.84221119081201
 21
22.72499813207184
 31
0.0
  0
ARC
  5
554D
330
5532
100
AcDbEntity
  8
ZUWAKU
100
AcDbCircle
 10
49.79221119081206
 20
18.63479610671652
 30
0.0
 40
4.199999999999998
100
AcDbArc
 50
180.0
 51
224.9999999999996
  0
LINE
  5
554E
330
5532
100
AcDbEntity
  8
ZUWAKU
100
AcDbLine
 10
37.31485767299
 20
19.20504532563529
 30
0.0
 11
36.05010592765415
 21
15.19999813207187
 31
0.0
  0
ARC
  5
554F
330
5532
100
AcDbEntity
  8
ZUWAKU
100
AcDbCircle
 10
15.49221119081198
 20
18.63479610671652
 30
0.0
 40
4.199999999999998
100
AcDbArc
 50
180.0
 51
224.9999999999996
  0
CIRCLE
  5
5550
330
5532
100
AcDbEntity
  8
ZUWAKU
100
AcDbCircle
 10
25.99221119081198
 20
15.19999813207187
 30
0.0
 40
1.75
  0
LINE
  5
5551
330
5532
100
AcDbEntity
  8
ZUWAKU
100
AcDbLine
 10
23.54221119081205
 20
19.04999813207177
 30
0.0
 11
23.54221119081205
 21
11.34999813207184
 31
0.0
  0
LINE
  5
5552
330
5532
100
AcDbEntity
  8
ZUWAKU
100
AcDbLine
 10
20.74221119081198
 20
11.34999813207184
 30
0.0
 11
20.74221119081198
 21
19.04999813207177
 31
0.0
  0
LINE
  5
5553
330
5532
100
AcDbEntity
  8
ZUWAKU
100
AcDbLine
 10
17.41205967179553
 20
14.7350486384106
 30
0.0
 11
14.50226169715085
 21
17.64484661305528
 31
0.0
  0
LINE
  5
5554
330
5532
100
AcDbEntity
  8
ZUWAKU
100
AcDbLine
 10
40.69221119081203
 20
22.72499813207184
 30
0.0
 11
40.69221119081203
 21
7.674998132071777
 31
0.0
  0
LINE
  5
5555
330
5532
100
AcDbEntity
  8
ZUWAKU
100
AcDbLine
 10
43.49221119081199
 20
7.674998132071777
 30
0.0
 11
43.49221119081199
 21
22.72499813207184
 31
0.0
  0
LINE
  5
5556
330
5532
100
AcDbEntity
  8
ZUWAKU
100
AcDbLine
 10
55.04221119081205
 20
22.72499813207184
 30
0.0
 11
55.04221119081205
 21
9.949998132071868
 31
0.0
  0
LINE
  5
5557
330
5532
100
AcDbEntity
  8
ZUWAKU
100
AcDbLine
 10
29.84221119081201
 20
22.72499813207184
 30
0.0
 11
29.84221119081201
 21
7.674998132071777
 31
0.0
  0
LINE
  5
5558
330
5532
100
AcDbEntity
  8
ZUWAKU
100
AcDbLine
 10
51.7120596717956
 20
14.7350486384106
 30
0.0
 11
48.80226169715081
 21
17.64484661305528
 31
0.0
  0
HATCH
  5
5559
330
5532
100
AcDbEntity
  8
ZUWAKU
100
AcDbHatch
 10
0.0
 20
0.0
 30
0.0
210
0.0
220
0.0
230
1.0
  2
ANSI37
 70
     0
 71
     0
 91
        8
 92
        7
 72
     1
 73
     1
 93
       24
 10
14.50226169715074
 20
17.6448466130554
 42
-0.1989123673796348
 10
14.092211190812
 20
18.63479610671645
 42
0.0
 10
14.092211190812
 20
19.92499813207183
 42
-0.4142135623730912
 10
14.61721119081198
 20
20.44999813207181
 42
0.0
 10
17.59221119081189
 20
20.44999813207181
 42
0.4142135623731546
 10
18.11721119081198
 20
20.97499813207181
 42
0.0
 10
18.11721119081198
 20
22.72499813207183
 42
0.4142135623731586
 10
17.59221119081189
 20
23.24999813207182
 42
0.0
 10
14.092211190812
 20
23.24999813207182
 42
0.4142135623730928
 10
11.29221119081205
 20
20.44999813207185
 42
0.0
 10
11.29221119081205
 20
18.63479610671658
 42
0.1989123673796619
 10
12.52236270982848
 20
15.66494762573297
 42
0.0
 10
15.43216068447316
 20
12.75514965108831
 42
-0.1989123673796613
 10
15.84221119081201
 20
11.76520015742713
 42
0.0
 10
15.84221119081201
 20
10.47499813207181
 42
-0.4142135623730911
 10
15.31721119081203
 20
9.949998132071826
 42
0.0
 10
12.34221119081212
 20
9.949998132071826
 42
0.4142135623731526
 10
11.81721119081203
 20
9.424998132071834
 42
0.0
 10
11.81721119081203
 20
7.674998132071813
 42
0.4142135623731526
 10
12.34221119081212
 20
7.149998132071829
 42
0.0
 10
15.84221119081201
 20
7.149998132071829
 42
0.4142135623731045
 10
18.64221119081207
 20
9.949998132071804
 42
0.0
 10
18.64221119081207
 20
11.76520015742707
 42
0.1989123673796604
 10
17.41205967179553
 20
14.73504863841061
 42
0.0
 97
        0
 92
        7
 72
     1
 73
     1
 93
       16
 10
23.54221119081205
 20
19.04999813207183
 42
-0.4142135623730935
 10
24.94221119081203
 20
20.44999813207181
 42
0.0
 10
26.86721119081198
 20
20.44999813207181
 42
0.4142135623731546
 10
27.39221119081207
 20
20.97499813207181
 42
0.0
 10
27.39221119081207
 20
22.72499813207183
 42
0.4142135623730951
 10
26.8672111908121
 20
23.24999813207182
 42
0.0
 10
24.94221119081192
 20
23.24999813207178
 42
0.4142135623730893
 10
20.74221119081198
 20
19.04999813207176
 42
0.0
 10
20.74221119081198
 20
11.34999813207185
 42
0.4142135623730969
 10
24.94221119081203
 20
7.149998132071829
 42
0.0
 10
26.86721119081198
 20
7.149998132071829
 42
0.4142135623731526
 10
27.39221119081207
 20
7.674998132071813
 42
0.0
 10
27.39221119081207
 20
9.424998132071834
 42
0.4142135623730891
 10
26.8672111908121
 20
9.949998132071826
 42
0.0
 10
24.94221119081203
 20
9.949998132071826
 42
-0.4142135623730928
 10
23.54221119081205
 20
11.34999813207181
 42
0.0
 97
        0
 92
        7
 72
     1
 73
     1
 93
        2
 10
24.24221119081198
 20
15.19999813207181
 42
1.0
 10
27.74221119081198
 20
15.19999813207181
 42
1.0
 97
        0
 92
        7
 72
     1
 73
     1
 93
       26
 10
37.31485767299
 20
19.20504532563525
 42
0.0
 10
38.37649730612781
 20
22.56690416390484
 42
0.5069206636600134
 10
37.87586640693246
 20
23.24999813207182
 42
0.0
 10
36.17697702732323
 20
23.24999813207182
 42
0.3272098845218764
 10
35.67634612812787
 20
22.88309210023879
 42
0.0
 10
33.80807625349609
 20
16.9669041639049
 42
-0.3272098845219541
 10
33.30744535430062
 20
16.59999813207181
 42
0.0
 10
33.16721119081217
 20
16.59999813207181
 42
-0.4142135623731526
 10
32.64221119081208
 20
17.1249981320718
 42
0.0
 10
32.64221119081208
 20
22.72499813207183
 42
0.4142135623730951
 10
32.1172111908121
 20
23.24999813207182
 42
0.0
 10
30.36721119081198
 20
23.24999813207182
 42
0.4142135623730871
 10
29.84221119081201
 20
22.72499813207184
 42
0.0
 10
29.84221119081201
 20
7.674998132071813
 42
0.4142135623730891
 10
30.36721119081198
 20
7.149998132071829
 42
0.0
 10
32.11721119081198
 20
7.149998132071829
 42
0.4142135623731526
 10
32.64221119081208
 20
7.674998132071813
 42
0.0
 10
32.64221119081208
 20
13.27499813207182
 42
-0.4142135623731526
 10
33.16721119081217
 20
13.79999813207182
 42
0.0
 10
33.30744535430074
 20
13.79999813207182
 42
-0.3272098845218915
 10
33.80807625349609
 20
13.43309210023875
 42
0.0
 10
35.67634612812787
 20
7.516904163904897
 42
0.3272098845218902
 10
36.17697702732323
 20
7.149998132071829
 42
0.0
 10
37.87586640693246
 20
7.149998132071829
 42
0.5069206636600336
 10
38.37649730612781
 20
7.833092100238836
 42
0.0
 10
36.05010592765415
 20
15.19999813207196
 42
0.0
 97
        0
 92
        7
 72
     1
 73
     1
 93
        8
 10
43.49221119081199
 20
22.72499813207184
 42
0.4142135623731546
 10
42.9672111908119
 20
23.24999813207182
 42
0.0
 10
41.21721119081212
 20
23.24999813207182
 42
0.4142135623731507
 10
40.69221119081203
 20
22.72499813207184
 42
0.0
 10
40.69221119081203
 20
7.674998132071813
 42
0.4142135623731526
 10
41.21721119081212
 20
7.149998132071829
 42
0.0
 10
42.9672111908119
 20
7.149998132071829
 42
0.4142135623731526
 10
43.49221119081199
 20
7.674998132071813
 42
0.0
 97
        0
 92
        7
 72
     1
 73
     1
 93
       24
 10
48.39221119081208
 20
19.92499813207183
 42
-0.4142135623731546
 10
48.91721119081217
 20
20.44999813207181
 42
0.0
 10
51.89221119081207
 20
20.44999813207181
 42
0.4142135623730911
 10
52.41721119081205
 20
20.97499813207181
 42
0.0
 10
52.41721119081205
 20
22.72499813207183
 42
0.4142135623730952
 10
51.89221119081207
 20
23.24999813207182
 42
0.0
 10
48.39221119081208
 20
23.24999813207182
 42
0.4142135623731048
 10
45.592211190812
 20
20.44999813207185
 42
0.0
 10
45.592211190812
 20
18.63479610671658
 42
0.1989123673796613
 10
46.82236270982855
 20
15.66494762573303
 42
0.0
 10
49.73216068447323
 20
12.75514965108835
 42
-0.1989123673796402
 10
50.14221119081208
 20
11.76520015742728
 42
0.0
 10
50.14221119081208
 20
10.47499813207181
 42
-0.4142135623730911
 10
49.6172111908121
 20
9.949998132071826
 42
0.0
 10
46.64221119081207
 20
9.949998132071826
 42
0.4142135623731526
 10
46.11721119081198
 20
9.424998132071834
 42
0.0
 10
46.11721119081198
 20
7.674998132071813
 42
0.4142135623730891
 10
46.64221119081196
 20
7.149998132071829
 42
0.0
 10
50.14221119081208
 20
7.149998132071829
 42
0.4142135623730925
 10
52.94221119081203
 20
9.949998132071804
 42
0.0
 10
52.94221119081203
 20
11.76520015742707
 42
0.1989123673796675
 10
51.71205967179549
 20
14.73504863841073
 42
0.0
 10
48.80226169715093
 20
17.64484661305524
 42
-0.1989123673796652
 10
48.39221119081208
 20
18.6347961067164
 42
0.0
 97
        0
 92
        7
 72
     1
 73
     1
 93
       16
 10
57.84221119081201
 20
22.7249981320718
 42
0.414213562373103
 10
57.31721119081203
 20
23.24999813207182
 42
0.0
 10
55.56721119081203
 20
23.24999813207182
 42
0.4142135623730871
 10
55.04221119081205
 20
22.72499813207184
 42
0.0
 10
55.04221119081205
 20
9.949998132071804
 42
0.4142135623730927
 10
57.84221119081201
 20
7.149998132071829
 42
0.0
 10
61.34221119081201
 20
7.149998132071829
 42
0.4142135623731045
 10
64.14221119081208
 20
9.949998132071804
 42
0.0
 10
64.14221119081208
 20
22.72499813207183
 42
0.4142135623730951
 10
63.61721119081209
 20
23.24999813207182
 42
0.0
 10
61.86721119081198
 20
23.24999813207182
 42
0.4142135623730871
 10
61.34221119081201
 20
22.72499813207184
 42
0.0
 10
61.34221119081201
 20
10.9999981320718
 42
-0.4142135623730879
 10
60.29221119081205
 20
9.949998132071826
 42
0.0
 10
58.89221119081208
 20
9.949998132071826
 42
-0.4142135623731197
 10
57.84221119081201
 20
10.9999981320718
 42
0.0
 97
        0
 92
        7
 72
     1
 73
     1
 93
        8
 10
69.04221119081205
 20
22.72499813207184
 42
0.4142135623730871
 10
68.51721119081208
 20
23.24999813207182
 42
0.0
 10
66.76721119081207
 20
23.24999813207182
 42
0.4142135623731507
 10
66.24221119081198
 20
22.72499813207184
 42
0.0
 10
66.24221119081198
 20
7.674998132071813
 42
0.4142135623730891
 10
66.76721119081197
 20
7.149998132071829
 42
0.0
 10
68.51721119081208
 20
7.149998132071829
 42
0.4142135623730891
 10
69.04221119081205
 20
7.674998132071813
 42
0.0
 97
        0
 75
     0
 76
     1
 52
0.0
 41
0.2
 77
     0
 78
     2
 53
45.0
 43
-900.9423052986482
 44
-13.20000186792809
 45
-0.4490128060534576
 46
0.4490128060534577
 79
     0
 53
135.0
 43
-900.9423052986482
 44
-13.20000186792809
 45
-0.4490128060534577
 46
-0.4490128060534576
 79
     0
 47
0.057451373970553
 98
        8
 10
16.07985399905419
 20
15.16717177795737
 10
22.40451404247005
 20
18.84406031452283
 10
25.16436692169054
 20
15.51187977814254
 10
30.91405901766802
 20
16.20129577851332
 10
41.83847105498762
 20
16.66090804605494
 10
46.89819993116043
 20
19.41857444847903
 10
56.55768500843123
 20
18.72915604716683
 10
67.82707865565362
 20
19.18876831470845
  0
LINE
  5
555A
330
5532
100
AcDbEntity
  8
ZUWAKU
100
AcDbLine
 10
35.67634612812787
 20
7.516904163904882
 30
0.0
 11
33.80807625349609
 21
13.43309210023881
 31
0.0
  0
ARC
  5
555B
330
5532
100
AcDbEntity
  8
ZUWAKU
100
AcDbCircle
 10
15.84221119081201
 20
9.949998132071868
 30
0.0
 40
2.799999999999998
100
AcDbArc
 50
270.0
 51
0.0
  0
LINE
  5
555C
330
5532
100
AcDbEntity
  8
ZUWAKU
100
AcDbLine
 10
11.81721119081203
 20
7.674998132071777
 30
0.0
 11
11.81721119081203
 21
9.424998132071777
 31
0.0
  0
LINE
  5
555D
330
5532
100
AcDbEntity
  8
ZUWAKU
100
AcDbLine
 10
12.342211190812
 20
7.1499981320718
 30
0.0
 11
15.84221119081201
 21
7.1499981320718
 31
0.0
  0
ARC
  5
555E
330
5532
100
AcDbEntity
  8
ZUWAKU
100
AcDbCircle
 10
12.342211190812
 20
7.674998132071777
 30
0.0
 40
0.525
100
AcDbArc
 50
180.0
 51
270.0
  0
ARC
  5
555F
330
5532
100
AcDbEntity
  8
ZUWAKU
100
AcDbCircle
 10
15.31721119081203
 20
10.47499813207184
 30
0.0
 40
0.525
100
AcDbArc
 50
270.0
 51
0.0
  0
ARC
  5
5560
330
5532
100
AcDbEntity
  8
ZUWAKU
100
AcDbCircle
 10
12.342211190812
 20
9.424998132071777
 30
0.0
 40
0.525
100
AcDbArc
 50
90.0
 51
180.0
  0
LINE
  5
5561
330
5532
100
AcDbEntity
  8
ZUWAKU
100
AcDbLine
 10
12.342211190812
 20
9.949998132071868
 30
0.0
 11
15.31721119081203
 21
9.949998132071868
 31
0.0
  0
LINE
  5
5562
330
5532
100
AcDbEntity
  8
ZUWAKU
100
AcDbLine
 10
15.84221119081201
 20
10.47499813207184
 30
0.0
 11
15.84221119081201
 21
11.76520015742721
 31
0.0
  0
ARC
  5
5563
330
5532
100
AcDbEntity
  8
ZUWAKU
100
AcDbCircle
 10
14.44221119081203
 20
11.76520015742721
 30
0.0
 40
1.399999999999999
100
AcDbArc
 50
0.0
 51
44.99999999999964
  0
LINE
  5
5564
330
5532
100
AcDbEntity
  8
ZUWAKU
100
AcDbLine
 10
12.52236270982848
 20
15.66494762573302
 30
0.0
 11
15.43216068447316
 21
12.75514965108834
 31
0.0
  0
LINE
  5
5565
330
5532
100
AcDbEntity
  8
ZUWAKU
100
AcDbLine
 10
27.39221119081207
 20
9.424998132071777
 30
0.0
 11
27.39221119081207
 21
7.674998132071777
 31
0.0
  0
LINE
  5
5566
330
5532
100
AcDbEntity
  8
ZUWAKU
100
AcDbLine
 10
26.86721119081198
 20
7.1499981320718
 30
0.0
 11
24.94221119081203
 21
7.1499981320718
 31
0.0
  0
ARC
  5
5567
330
5532
100
AcDbEntity
  8
ZUWAKU
100
AcDbCircle
 10
26.86721119081198
 20
7.674998132071777
 30
0.0
 40
0.525
100
AcDbArc
 50
270.0
 51
0.0
  0
ARC
  5
5568
330
5532
100
AcDbEntity
  8
ZUWAKU
100
AcDbCircle
 10
24.94221119081203
 20
11.34999813207184
 30
0.0
 40
1.399999999999999
100
AcDbArc
 50
180.0
 51
270.0
  0
LINE
  5
5569
330
5532
100
AcDbEntity
  8
ZUWAKU
100
AcDbLine
 10
24.94221119081203
 20
9.949998132071868
 30
0.0
 11
26.86721119081198
 21
9.949998132071868
 31
0.0
  0
ARC
  5
556A
330
5532
100
AcDbEntity
  8
ZUWAKU
100
AcDbCircle
 10
26.86721119081198
 20
9.424998132071777
 30
0.0
 40
0.525
100
AcDbArc
 50
0.0
 51
90.0
  0
LINE
  5
556B
330
5532
100
AcDbEntity
  8
ZUWAKU
100
AcDbLine
 10
32.64221119081208
 20
7.674998132071777
 30
0.0
 11
32.64221119081208
 21
13.2749981320718
 31
0.0
  0
LINE
  5
556C
330
5532
100
AcDbEntity
  8
ZUWAKU
100
AcDbLine
 10
30.36721119081198
 20
7.1499981320718
 30
0.0
 11
32.11721119081198
 21
7.1499981320718
 31
0.0
  0
ARC
  5
556D
330
5532
100
AcDbEntity
  8
ZUWAKU
100
AcDbCircle
 10
30.36721119081198
 20
7.674998132071777
 30
0.0
 40
0.525
100
AcDbArc
 50
180.0
 51
270.0
  0
ARC
  5
556E
330
5532
100
AcDbEntity
  8
ZUWAKU
100
AcDbCircle
 10
32.11721119081198
 20
7.674998132071777
 30
0.0
 40
0.525
100
AcDbArc
 50
270.0
 51
0.0
  0
LINE
  5
556F
330
5532
100
AcDbEntity
  8
ZUWAKU
100
AcDbLine
 10
33.16721119081205
 20
13.79999813207177
 30
0.0
 11
33.30744535430074
 21
13.79999813207177
 31
0.0
  0
ARC
  5
5570
330
5532
100
AcDbEntity
  8
ZUWAKU
100
AcDbCircle
 10
33.30744535430074
 20
13.2749981320718
 30
0.0
 40
0.525
100
AcDbArc
 50
17.52556837372287
 51
90.0
  0
ARC
  5
5571
330
5532
100
AcDbEntity
  8
ZUWAKU
100
AcDbCircle
 10
33.16721119081205
 20
13.2749981320718
 30
0.0
 40
0.525
100
AcDbArc
 50
90.0
 51
180.0
  0
ARC
  5
5572
330
5532
100
AcDbEntity
  8
ZUWAKU
100
AcDbCircle
 10
14.44221119081203
 20
11.7652001574271
 30
0.0
 40
4.199999999999998
100
AcDbArc
 50
0.0
 51
44.99999999999964
  0
LINE
  5
5573
330
5532
100
AcDbEntity
  8
ZUWAKU
100
AcDbLine
 10
18.64221119081207
 20
9.949998132071868
 30
0.0
 11
18.64221119081207
 21
11.76520015742721
 31
0.0
  0
ARC
  5
5574
330
5532
100
AcDbEntity
  8
ZUWAKU
100
AcDbCircle
 10
24.94221119081203
 20
11.34999813207184
 30
0.0
 40
4.199999999999998
100
AcDbArc
 50
180.0
 51
270.0
  0
ARC
  5
5575
330
5532
100
AcDbEntity
  8
ZUWAKU
100
AcDbCircle
 10
50.14221119081208
 20
9.949998132071868
 30
0.0
 40
2.799999999999998
100
AcDbArc
 50
270.0
 51
0.0
  0
ARC
  5
5576
330
5532
100
AcDbEntity
  8
ZUWAKU
100
AcDbCircle
 10
48.74221119081198
 20
11.7652001574271
 30
0.0
 40
4.199999999999998
100
AcDbArc
 50
0.0
 51
44.99999999999964
  0
LINE
  5
5577
330
5532
100
AcDbEntity
  8
ZUWAKU
100
AcDbLine
 10
41.217211190812
 20
7.1499981320718
 30
0.0
 11
42.967211190812
 21
7.1499981320718
 31
0.0
  0
ARC
  5
5578
330
5532
100
AcDbEntity
  8
ZUWAKU
100
AcDbCircle
 10
41.217211190812
 20
7.674998132071777
 30
0.0
 40
0.525
100
AcDbArc
 50
180.0
 51
270.0
  0
ARC
  5
5579
330
5532
100
AcDbEntity
  8
ZUWAKU
100
AcDbCircle
 10
42.967211190812
 20
7.674998132071777
 30
0.0
 40
0.525
100
AcDbArc
 50
270.0
 51
0.0
  0
LINE
  5
557A
330
5532
100
AcDbEntity
  8
ZUWAKU
100
AcDbLine
 10
46.11721119081198
 20
7.674998132071777
 30
0.0
 11
46.11721119081198
 21
9.424998132071777
 31
0.0
  0
LINE
  5
557B
330
5532
100
AcDbEntity
  8
ZUWAKU
100
AcDbLine
 10
46.64221119081207
 20
7.1499981320718
 30
0.0
 11
50.14221119081208
 21
7.1499981320718
 31
0.0
  0
ARC
  5
557C
330
5532
100
AcDbEntity
  8
ZUWAKU
100
AcDbCircle
 10
46.64221119081207
 20
7.674998132071777
 30
0.0
 40
0.525
100
AcDbArc
 50
180.0
 51
270.0
  0
LINE
  5
557D
330
5532
100
AcDbEntity
  8
ZUWAKU
100
AcDbLine
 10
46.64221119081207
 20
9.949998132071868
 30
0.0
 11
49.61721119081198
 21
9.949998132071868
 31
0.0
  0
ARC
  5
557E
330
5532
100
AcDbEntity
  8
ZUWAKU
100
AcDbCircle
 10
46.64221119081207
 20
9.424998132071777
 30
0.0
 40
0.525
100
AcDbArc
 50
90.0
 51
180.0
  0
LINE
  5
557F
330
5532
100
AcDbEntity
  8
ZUWAKU
100
AcDbLine
 10
50.14221119081208
 20
10.47499813207184
 30
0.0
 11
50.14221119081208
 21
11.76520015742721
 31
0.0
  0
ARC
  5
5580
330
5532
100
AcDbEntity
  8
ZUWAKU
100
AcDbCircle
 10
48.74221119081198
 20
11.76520015742721
 30
0.0
 40
1.399999999999999
100
AcDbArc
 50
0.0
 51
44.99999999999964
  0
ARC
  5
5581
330
5532
100
AcDbEntity
  8
ZUWAKU
100
AcDbCircle
 10
49.61721119081198
 20
10.47499813207184
 30
0.0
 40
0.525
100
AcDbArc
 50
270.0
 51
0.0
  0
ARC
  5
5582
330
5532
100
AcDbEntity
  8
ZUWAKU
100
AcDbCircle
 10
36.17697702732334
 20
7.674998132071777
 30
0.0
 40
0.525
100
AcDbArc
 50
197.5255683737229
 51
270.0
  0
LINE
  5
5583
330
5532
100
AcDbEntity
  8
ZUWAKU
100
AcDbLine
 10
36.17697702732334
 20
7.1499981320718
 30
0.0
 11
37.87586640693234
 21
7.1499981320718
 31
0.0
  0
ARC
  5
5584
330
5532
100
AcDbEntity
  8
ZUWAKU
100
AcDbCircle
 10
37.87586640693234
 20
7.674998132071777
 30
0.0
 40
0.525
100
AcDbArc
 50
270.0
 51
17.52556837372287
  0
LINE
  5
5585
330
5532
100
AcDbEntity
  8
ZUWAKU
100
AcDbLine
 10
38.37649730612781
 20
7.833092100238786
 30
0.0
 11
36.05010592765415
 21
15.19999813207187
 31
0.0
  0
LINE
  5
5586
330
5532
100
AcDbEntity
  8
ZUWAKU
100
AcDbLine
 10
46.82236270982855
 20
15.66494762573302
 30
0.0
 11
49.73216068447323
 21
12.75514965108834
 31
0.0
  0
LINE
  5
5587
330
5532
100
AcDbEntity
  8
ZUWAKU
100
AcDbLine
 10
57.84221119081201
 20
7.1499981320718
 30
0.0
 11
61.34221119081201
 21
7.1499981320718
 31
0.0
  0
ARC
  5
5588
330
5532
100
AcDbEntity
  8
ZUWAKU
100
AcDbCircle
 10
60.29221119081205
 20
10.99999813207182
 30
0.0
 40
1.049999999999998
100
AcDbArc
 50
270.0
 51
0.0
  0
LINE
  5
5589
330
5532
100
AcDbEntity
  8
ZUWAKU
100
AcDbLine
 10
60.29221119081205
 20
9.949998132071868
 30
0.0
 11
58.89221119081208
 21
9.949998132071868
 31
0.0
  0
ARC
  5
558A
330
5532
100
AcDbEntity
  8
ZUWAKU
100
AcDbCircle
 10
58.89221119081208
 20
10.99999813207182
 30
0.0
 40
1.049999999999998
100
AcDbArc
 50
180.0
 51
270.0
  0
ARC
  5
558B
330
5532
100
AcDbEntity
  8
ZUWAKU
100
AcDbCircle
 10
68.51721119081208
 20
7.674998132071777
 30
0.0
 40
0.525
100
AcDbArc
 50
270.0
 51
0.0
  0
ARC
  5
558C
330
5532
100
AcDbEntity
  8
ZUWAKU
100
AcDbCircle
 10
61.34221119081201
 20
9.949998132071868
 30
0.0
 40
2.799999999999998
100
AcDbArc
 50
270.0
 51
0.0
  0
LINE
  5
558D
330
5532
100
AcDbEntity
  8
ZUWAKU
100
AcDbLine
 10
66.76721119081207
 20
7.1499981320718
 30
0.0
 11
68.51721119081208
 21
7.1499981320718
 31
0.0
  0
ARC
  5
558E
330
5532
100
AcDbEntity
  8
ZUWAKU
100
AcDbCircle
 10
66.76721119081207
 20
7.674998132071777
 30
0.0
 40
0.525
100
AcDbArc
 50
180.0
 51
270.0
  0
LINE
  5
558F
330
5532
100
AcDbEntity
  8
ZUWAKU
100
AcDbLine
 10
52.94221119081203
 20
9.949998132071868
 30
0.0
 11
52.94221119081203
 21
11.76520015742721
 31
0.0
  0
ARC
  5
5590
330
5532
100
AcDbEntity
  8
ZUWAKU
100
AcDbCircle
 10
57.84221119081201
 20
9.949998132071868
 30
0.0
 40
2.799999999999998
100
AcDbArc
 50
180.0
 51
270.0
  0
TEXT
  5
5591
330
5532
100
AcDbEntity
  8
MOJI
100
AcDbText
 10
129.580999678862
 20
8.554221547602196
 30
0.0
 40
5.799999999999999
  1
Ｓ１２０Ｈ・Ｍ１２０Ｈ
 41
0.9
  7
ｽﾀｲﾙ1
100
AcDbText
  0
LINE
  5
5592
330
5532
100
AcDbEntity
  8
ZUWAKU
100
AcDbLine
 10
35.67634612812787
 20
22.88309210023874
 30
0.0
 11
33.80807625349609
 21
16.96690416390481
 31
0.0
  0
LINE
  5
5593
330
5532
100
AcDbEntity
  8
ZUWAKU
100
AcDbLine
 10
17.59221119081201
 20
20.44999813207187
 30
0.0
 11
14.61721119081198
 21
20.44999813207187
 31
0.0
  0
LINE
  5
5594
330
5532
100
AcDbEntity
  8
ZUWAKU
100
AcDbLine
 10
14.092211190812
 20
23.24999813207182
 30
0.0
 11
17.59221119081201
 21
23.24999813207182
 31
0.0
  0
ARC
  5
5595
330
5532
100
AcDbEntity
  8
ZUWAKU
100
AcDbCircle
 10
14.092211190812
 20
20.44999813207187
 30
0.0
 40
2.799999999999998
100
AcDbArc
 50
90.0
 51
180.0
  0
ARC
  5
5596
330
5532
100
AcDbEntity
  8
ZUWAKU
100
AcDbCircle
 10
15.49221119081198
 20
18.63479610671652
 30
0.0
 40
1.399999999999999
100
AcDbArc
 50
180.0000000000016
 51
224.9999999999995
  0
ARC
  5
5597
330
5532
100
AcDbEntity
  8
ZUWAKU
100
AcDbCircle
 10
14.61721119081198
 20
19.92499813207177
 30
0.0
 40
0.525
100
AcDbArc
 50
90.0
 51
180.0
  0
LINE
  5
5598
330
5532
100
AcDbEntity
  8
ZUWAKU
100
AcDbLine
 10
14.092211190812
 20
19.92499813207177
 30
0.0
 11
14.092211190812
 21
18.63479610671652
 31
0.0
  0
LINE
  5
5599
330
5532
100
AcDbEntity
  8
ZUWAKU
100
AcDbLine
 10
11.29221119081205
 20
20.44999813207187
 30
0.0
 11
11.29221119081205
 21
18.63479610671652
 31
0.0
  0
ARC
  5
559A
330
5532
100
AcDbEntity
  8
ZUWAKU
100
AcDbCircle
 10
26.86721119081198
 20
20.97499813207184
 30
0.0
 40
0.525
100
AcDbArc
 50
270.0
 51
0.0
  0
ARC
  5
559B
330
5532
100
AcDbEntity
  8
ZUWAKU
100
AcDbCircle
 10
24.94221119081203
 20
19.04999813207177
 30
0.0
 40
1.399999999999999
100
AcDbArc
 50
90.0
 51
180.0
  0
LINE
  5
559C
330
5532
100
AcDbEntity
  8
ZUWAKU
100
AcDbLine
 10
26.86721119081198
 20
20.44999813207187
 30
0.0
 11
24.94221119081203
 21
20.44999813207187
 31
0.0
  0
LINE
  5
559D
330
5532
100
AcDbEntity
  8
ZUWAKU
100
AcDbLine
 10
24.94221119081203
 20
23.24999813207182
 30
0.0
 11
26.86721119081198
 21
23.24999813207182
 31
0.0
  0
ARC
  5
559E
330
5532
100
AcDbEntity
  8
ZUWAKU
100
AcDbCircle
 10
26.86721119081198
 20
22.72499813207184
 30
0.0
 40
0.525
100
AcDbArc
 50
0.0
 51
90.0
  0
LINE
  5
559F
330
5532
100
AcDbEntity
  8
ZUWAKU
100
AcDbLine
 10
27.39221119081207
 20
22.72499813207184
 30
0.0
 11
27.39221119081207
 21
20.97499813207184
 31
0.0
  0
LINE
  5
55A0
330
5532
100
AcDbEntity
  8
ZUWAKU
100
AcDbLine
 10
32.64221119081208
 20
17.12499813207182
 30
0.0
 11
32.64221119081208
 21
22.72499813207184
 31
0.0
  0
ARC
  5
55A1
330
5532
100
AcDbEntity
  8
ZUWAKU
100
AcDbCircle
 10
33.30744535430074
 20
17.12499813207182
 30
0.0
 40
0.525
100
AcDbArc
 50
270.0
 51
342.4744316262771
  0
LINE
  5
55A2
330
5532
100
AcDbEntity
  8
ZUWAKU
100
AcDbLine
 10
33.30744535430074
 20
16.59999813207184
 30
0.0
 11
33.16721119081205
 21
16.59999813207184
 31
0.0
  0
ARC
  5
55A3
330
5532
100
AcDbEntity
  8
ZUWAKU
100
AcDbCircle
 10
33.16721119081205
 20
17.12499813207182
 30
0.0
 40
0.525
100
AcDbArc
 50
180.0
 51
270.0
  0
LINE
  5
55A4
330
5532
100
AcDbEntity
  8
ZUWAKU
100
AcDbLine
 10
32.11721119081198
 20
23.24999813207182
 30
0.0
 11
30.36721119081198
 21
23.24999813207182
 31
0.0
  0
ARC
  5
55A5
330
5532
100
AcDbEntity
  8
ZUWAKU
100
AcDbCircle
 10
30.36721119081198
 20
22.72499813207184
 30
0.0
 40
0.525
100
AcDbArc
 50
90.0
 51
180.0
  0
ARC
  5
55A6
330
5532
100
AcDbEntity
  8
ZUWAKU
100
AcDbCircle
 10
32.11721119081198
 20
22.72499813207184
 30
0.0
 40
0.525
100
AcDbArc
 50
0.0
 51
90.0
  0
ARC
  5
55A7
330
5532
100
AcDbEntity
  8
ZUWAKU
100
AcDbCircle
 10
17.59221119081201
 20
20.97499813207184
 30
0.0
 40
0.525
100
AcDbArc
 50
270.0
 51
0.0
  0
ARC
  5
55A8
330
5532
100
AcDbEntity
  8
ZUWAKU
100
AcDbCircle
 10
17.59221119081201
 20
22.72499813207184
 30
0.0
 40
0.525
100
AcDbArc
 50
0.0
 51
90.0
  0
LINE
  5
55A9
330
5532
100
AcDbEntity
  8
ZUWAKU
100
AcDbLine
 10
18.11721119081198
 20
22.72499813207184
 30
0.0
 11
18.11721119081198
 21
20.97499813207184
 31
0.0
  0
ARC
  5
55AA
330
5532
100
AcDbEntity
  8
ZUWAKU
100
AcDbCircle
 10
24.94221119081203
 20
19.04999813207177
 30
0.0
 40
4.199999999999998
100
AcDbArc
 50
90.0
 51
180.0
  0
ARC
  5
55AB
330
5532
100
AcDbEntity
  8
ZUWAKU
100
AcDbCircle
 10
51.89221119081207
 20
22.72499813207184
 30
0.0
 40
0.525
100
AcDbArc
 50
0.0
 51
90.0
  0
ARC
  5
55AC
330
5532
100
AcDbEntity
  8
ZUWAKU
100
AcDbCircle
 10
51.89221119081207
 20
20.97499813207184
 30
0.0
 40
0.525
100
AcDbArc
 50
270.0
 51
0.0
  0
LINE
  5
55AD
330
5532
100
AcDbEntity
  8
ZUWAKU
100
AcDbLine
 10
42.967211190812
 20
23.24999813207182
 30
0.0
 11
41.217211190812
 21
23.24999813207182
 31
0.0
  0
ARC
  5
55AE
330
5532
100
AcDbEntity
  8
ZUWAKU
100
AcDbCircle
 10
41.217211190812
 20
22.72499813207184
 30
0.0
 40
0.525
100
AcDbArc
 50
90.0
 51
180.0
  0
ARC
  5
55AF
330
5532
100
AcDbEntity
  8
ZUWAKU
100
AcDbCircle
 10
42.967211190812
 20
22.72499813207184
 30
0.0
 40
0.525
100
AcDbArc
 50
0.0
 51
90.0
  0
ARC
  5
55B0
330
5532
100
AcDbEntity
  8
ZUWAKU
100
AcDbCircle
 10
48.39221119081208
 20
20.44999813207187
 30
0.0
 40
2.799999999999998
100
AcDbArc
 50
90.0
 51
180.0
  0
LINE
  5
55B1
330
5532
100
AcDbEntity
  8
ZUWAKU
100
AcDbLine
 10
45.592211190812
 20
20.44999813207187
 30
0.0
 11
45.592211190812
 21
18.63479610671652
 31
0.0
  0
ARC
  5
55B2
330
5532
100
AcDbEntity
  8
ZUWAKU
100
AcDbCircle
 10
49.79221119081206
 20
18.63479610671652
 30
0.0
 40
1.399999999999999
100
AcDbArc
 50
180.0000000000016
 51
224.9999999999995
  0
LINE
  5
55B3
330
5532
100
AcDbEntity
  8
ZUWAKU
100
AcDbLine
 10
51.89221119081207
 20
20.44999813207187
 30
0.0
 11
48.91721119081205
 21
20.44999813207187
 31
0.0
  0
ARC
  5
55B4
330
5532
100
AcDbEntity
  8
ZUWAKU
100
AcDbCircle
 10
48.91721119081205
 20
19.92499813207177
 30
0.0
 40
0.525
100
AcDbArc
 50
90.0
 51
180.0
  0
LINE
  5
55B5
330
5532
100
AcDbEntity
  8
ZUWAKU
100
AcDbLine
 10
48.39221119081208
 20
19.92499813207177
 30
0.0
 11
48.39221119081208
 21
18.63479610671652
 31
0.0
  0
LINE
  5
55B6
330
5532
100
AcDbEntity
  8
ZUWAKU
100
AcDbLine
 10
48.39221119081208
 20
23.24999813207182
 30
0.0
 11
51.89221119081207
 21
23.24999813207182
 31
0.0
  0
ARC
  5
55B7
330
5532
100
AcDbEntity
  8
ZUWAKU
100
AcDbCircle
 10
36.17697702732334
 20
22.72499813207184
 30
0.0
 40
0.525
100
AcDbArc
 50
90.0
 51
162.4744316262771
  0
LINE
  5
55B8
330
5532
100
AcDbEntity
  8
ZUWAKU
100
AcDbLine
 10
38.37649730612781
 20
22.56690416390483
 30
0.0
 11
37.31485767299
 21
19.20504532563529
 31
0.0
  0
LINE
  5
55B9
330
5532
100
AcDbEntity
  8
ZUWAKU
100
AcDbLine
 10
36.17697702732334
 20
23.24999813207182
 30
0.0
 11
37.87586640693234
 21
23.24999813207182
 31
0.0
  0
ARC
  5
55BA
330
5532
100
AcDbEntity
  8
ZUWAKU
100
AcDbCircle
 10
37.87586640693234
 20
22.72499813207184
 30
0.0
 40
0.525
100
AcDbArc
 50
342.4744316262771
 51
90.0
  0
ARC
  5
55BB
330
5532
100
AcDbEntity
  8
ZUWAKU
100
AcDbCircle
 10
68.51721119081208
 20
22.72499813207184
 30
0.0
 40
0.525
100
AcDbArc
 50
0.0
 51
90.0
  0
ARC
  5
55BC
330
5532
100
AcDbEntity
  8
ZUWAKU
100
AcDbCircle
 10
63.61721119081199
 20
22.72499813207184
 30
0.0
 40
0.525
100
AcDbArc
 50
0.0
 51
90.0
  0
LINE
  5
55BD
330
5532
100
AcDbEntity
  8
ZUWAKU
100
AcDbLine
 10
63.61721119081199
 20
23.24999813207182
 30
0.0
 11
61.86721119081198
 21
23.24999813207182
 31
0.0
  0
ARC
  5
55BE
330
5532
100
AcDbEntity
  8
ZUWAKU
100
AcDbCircle
 10
61.86721119081198
 20
22.72499813207184
 30
0.0
 40
0.525
100
AcDbArc
 50
90.0
 51
180.0
  0
LINE
  5
55BF
330
5532
100
AcDbEntity
  8
ZUWAKU
100
AcDbLine
 10
68.51721119081208
 20
23.24999813207182
 30
0.0
 11
66.76721119081207
 21
23.24999813207182
 31
0.0
  0
ARC
  5
55C0
330
5532
100
AcDbEntity
  8
ZUWAKU
100
AcDbCircle
 10
66.76721119081207
 20
22.72499813207184
 30
0.0
 40
0.525
100
AcDbArc
 50
90.0
 51
180.0
  0
LINE
  5
55C1
330
5532
100
AcDbEntity
  8
ZUWAKU
100
AcDbLine
 10
57.31721119081203
 20
23.24999813207182
 30
0.0
 11
55.56721119081203
 21
23.24999813207182
 31
0.0
  0
ARC
  5
55C2
330
5532
100
AcDbEntity
  8
ZUWAKU
100
AcDbCircle
 10
55.56721119081203
 20
22.72499813207184
 30
0.0
 40
0.525
100
AcDbArc
 50
90.0
 51
180.0
  0
LINE
  5
55C3
330
5532
100
AcDbEntity
  8
ZUWAKU
100
AcDbLine
 10
52.41721119081205
 20
22.72499813207184
 30
0.0
 11
52.41721119081205
 21
20.97499813207184
 31
0.0
  0
ARC
  5
55C4
330
5532
100
AcDbEntity
  8
ZUWAKU
100
AcDbCircle
 10
57.31721119081203
 20
22.72499813207184
 30
0.0
 40
0.525
100
AcDbArc
 50
0.0
 51
90.0
  0
TEXT
  5
55C5
330
5532
100
AcDbEntity
  8
MOJI
100
AcDbText
 10
81.66226299019626
 20
17.85856608099823
 30
0.0
 40
5.799999999999999
  1
アートフェイスＴ１２０・Ｈ１２０・
 41
0.9
  7
ｽﾀｲﾙ1
100
AcDbText
  0
TEXT
  5
55C6
330
5532
100
AcDbEntity
  8
MOJI
100
AcDbText
 10
463.2464310270329
 20
11.9426158537318
 30
0.0
 40
5.599999999999998
  1
ＬＭ０１Ｔ
 41
0.9
  7
ｽﾀｲﾙ1
100
AcDbText
  0
LINE
  5
55C7
330
5532
100
AcDbEntity
  8
ZUWAKU
100
AcDbLine
 10
447.6243630070221
 20
29.99999813207182
 30
0.0
 11
447.6243630070221
 21
0.7999981320718917
 31
0.0
  0
LINE
  5
55C8
330
5532
100
AcDbEntity
  8
ZUWAKU
100
AcDbLine
 10
447.8243630070219
 20
29.99999813207182
 30
0.0
 11
447.8243630070223
 21
0.7999981320718917
 31
0.0
  0
LINE
  5
55C9
330
5532
100
AcDbEntity
  8
ZUWAKU
100
AcDbLine
 10
447.4243630070223
 20
29.99999813207182
 30
0.0
 11
447.4243630070223
 21
0.7999981320718917
 31
0.0
  0
TEXT
  5
55CA
330
5532
100
AcDbEntity
  8
MOJI
100
AcDbText
 10
239.8272017168819
 20
3.204919189479255
 30
0.0
 40
5.599999999999998
  1
１２０－０－１０
 41
0.9
  7
ｽﾀｲﾙ1
100
AcDbText
  0
TEXT
  5
55CB
330
5532
100
AcDbEntity
  8
ZUWAKU
100
AcDbText
 10
209.7240453483084
 20
9.655354670457427
 30
0.0
 40
4.0
  1
サイズ
 41
0.9
  7
ｽﾀｲﾙ1
100
AcDbText
  0
TEXT
  5
55CC
330
5532
100
AcDbEntity
  8
MOJI
100
AcDbText
 10
239.8272017168819
 20
18.00491918947921
 30
0.0
 40
5.599999999999998
  1
ブラケット正面打（吊）固定式
 41
0.9
  7
ｽﾀｲﾙ1
100
AcDbText
  0
TEXT
  5
55CD
330
5532
100
AcDbEntity
  8
ZUWAKU
100
AcDbText
 10
209.7240453483081
 20
24.0553546704574
 30
0.0
 40
4.0
  1
品名
 41
0.9
  7
ｽﾀｲﾙ1
100
AcDbText
  0
TEXT
  5
55CE
330
5532
100
AcDbEntity
  8
ZUWAKU
100
AcDbText
 10
449.3018080292317
 20
24.0553546704574
 30
0.0
 40
4.0
  1
品番
 41
0.9
  7
ｽﾀｲﾙ1
100
AcDbText
  0
LINE
  5
55CF
330
5532
100
AcDbEntity
  8
ZUWAKU
100
AcDbLine
 10
697.2490095845721
 20
29.99999813207182
 30
0.0
 11
697.2490095845721
 21
0.7999981320718917
 31
0.0
  0
LINE
  5
55D0
330
5532
100
AcDbEntity
  8
ZUWAKU
100
AcDbLine
 10
697.4490095845721
 20
29.99999813207182
 30
0.0
 11
697.4490095845721
 21
0.7999981320718917
 31
0.0
  0
LINE
  5
55D1
330
5532
100
AcDbEntity
  8
ZUWAKU
100
AcDbLine
 10
697.6490095845719
 20
29.99999813207182
 30
0.0
 11
697.6490095845722
 21
0.7999981320718917
 31
0.0
  0
LINE
  5
55D2
330
5532
100
AcDbEntity
  8
ZUWAKU
100
AcDbLine
 10
697.8490095845723
 20
29.99999813207182
 30
0.0
 11
697.8490095845723
 21
0.7999981320718917
 31
0.0
  0
LINE
  5
55D3
330
5532
100
AcDbEntity
  8
ZUWAKU
100
AcDbLine
 10
648.617201546235
 20
29.99999813207182
 30
0.0
 11
648.6172015462354
 21
0.7999981320718917
 31
0.0
  0
LINE
  5
55D4
330
5532
100
AcDbEntity
  8
ZUWAKU
100
AcDbLine
 10
648.8172015462351
 20
29.99999813207182
 30
0.0
 11
648.8172015462355
 21
0.7999981320718917
 31
0.0
  0
LINE
  5
55D5
330
5532
100
AcDbEntity
  8
ZUWAKU
100
AcDbLine
 10
648.4172015462354
 20
29.99999813207182
 30
0.0
 11
648.4172015462354
 21
0.7999981320718917
 31
0.0
  0
LINE
  5
55D6
330
5532
100
AcDbEntity
  8
ZUWAKU
100
AcDbLine
 10
552.7269548021431
 20
29.99999813207182
 30
0.0
 11
552.7269548021431
 21
0.7999981320718917
 31
0.0
  0
LINE
  5
55D7
330
5532
100
AcDbEntity
  8
ZUWAKU
100
AcDbLine
 10
552.9269548021432
 20
29.99999813207182
 30
0.0
 11
552.9269548021434
 21
0.7999981320718917
 31
0.0
  0
LINE
  5
55D8
330
5532
100
AcDbEntity
  8
ZUWAKU
100
AcDbLine
 10
552.5269548021433
 20
29.99999813207182
 30
0.0
 11
552.5269548021433
 21
0.7999981320718917
 31
0.0
  0
LINE
  5
55D9
330
5532
100
AcDbEntity
  8
ZUWAKU
100
AcDbLine
 10
504.9991785341717
 20
29.99999813207182
 30
0.0
 11
504.9991785341717
 21
0.7999981320718917
 31
0.0
  0
LINE
  5
55DA
330
5532
100
AcDbEntity
  8
ZUWAKU
100
AcDbLine
 10
505.1991785341715
 20
29.99999813207182
 30
0.0
 11
505.1991785341719
 21
0.7999981320718917
 31
0.0
  0
LINE
  5
55DB
330
5532
100
AcDbEntity
  8
ZUWAKU
100
AcDbLine
 10
504.7991785341719
 20
29.99999813207182
 30
0.0
 11
504.7991785341719
 21
0.7999981320718917
 31
0.0
  0
LINE
  5
55DC
330
5532
100
AcDbEntity
  8
ZUWAKU
100
AcDbLine
 10
505.1991785341715
 20
15.19999813207187
 30
0.0
 11
552.5269548021433
 21
15.19999813207187
 31
0.0
  0
LINE
  5
55DD
330
5532
100
AcDbEntity
  8
ZUWAKU
100
AcDbLine
 10
505.1991785341715
 20
15.3999981320718
 30
0.0
 11
552.5269548021433
 21
15.3999981320718
 31
0.0
  0
LINE
  5
55DE
330
5532
100
AcDbEntity
  8
ZUWAKU
100
AcDbLine
 10
505.1991785341715
 20
15.59999813207184
 30
0.0
 11
552.5269548021433
 21
15.59999813207184
 31
0.0
  0
TEXT
  5
55DF
330
5532
100
AcDbEntity
  8
ZUWAKU
100
AcDbText
 10
506.6766235563816
 20
9.655354670457427
 30
0.0
 40
4.0
  1
縮尺
 41
0.9
  7
ｽﾀｲﾙ1
100
AcDbText
  0
TEXT
  5
55E0
330
5532
100
AcDbEntity
  8
MOJI
100
AcDbText
 10
528.0409070083437
 20
3.204919189479255
 30
0.0
 40
5.599999999999998
  1
１/２
 41
0.9
  7
ｽﾀｲﾙ1
100
AcDbText
  0
LINE
  5
55E1
330
5532
100
AcDbEntity
  8
ZUWAKU
100
AcDbLine
 10
648.8172015462351
 20
15.19999813207187
 30
0.0
 11
697.2490095845721
 21
15.19999813207187
 31
0.0
  0
LINE
  5
55E2
330
5532
100
AcDbEntity
  8
ZUWAKU
100
AcDbLine
 10
648.8172015462351
 20
15.3999981320718
 30
0.0
 11
697.2490095845721
 21
15.3999981320718
 31
0.0
  0
LINE
  5
55E3
330
5532
100
AcDbEntity
  8
ZUWAKU
100
AcDbLine
 10
648.8172015462351
 20
15.59999813207184
 30
0.0
 11
697.2490095845721
 21
15.59999813207184
 31
0.0
  0
TEXT
  5
55E4
330
5532
100
AcDbEntity
  8
ZUWAKU
100
AcDbText
 10
708.5280832282746
 20
6.648838445925889
 30
0.0
 40
6.0
  1
建材事業部
 41
0.9
  7
ｽﾀｲﾙ1
100
AcDbText
  0
TEXT
  5
55E5
330
5532
100
AcDbEntity
  8
ZUWAKU
100
AcDbText
 10
506.6766235563814
 20
24.0553546704574
 30
0.0
 40
4.0
  1
用紙
 41
0.9
  7
ｽﾀｲﾙ1
100
AcDbText
  0
TEXT
  5
55E6
330
5532
100
AcDbEntity
  8
MOJI
100
AcDbText
 10
528.0409070083437
 20
18.00491918947921
 30
0.0
 40
5.599999999999998
  1
Ａ３
 41
0.9
  7
ｽﾀｲﾙ1
100
AcDbText
  0
TEXT
  5
55E7
330
5532
100
AcDbEntity
  8
ZUWAKU
100
AcDbText
 10
654.5120750357177
 20
18.00491918947921
 30
0.0
 40
5.599999999999998
  1
　　．　．　　
 41
0.9
  7
ｽﾀｲﾙ1
100
AcDbText
  0
TEXT
  5
55E8
330
5532
100
AcDbEntity
  8
ZUWAKU
100
AcDbText
 10
650.2946465684449
 20
24.0553546704574
 30
0.0
 40
4.0
  1
DATE
 41
0.9
  7
ｽﾀｲﾙ1
100
AcDbText
  0
TEXT
  5
55E9
330
5532
100
AcDbEntity
  8
SUNPOU
100
AcDbText
 10
476.5951638652891
 20
306.9202331468175
 30
0.0
 40
6.0
  1
3-φ4.2
100
AcDbText
  0
DIMENSION
  5
55EA
330
5532
100
AcDbEntity
  8
SUNPOU
100
AcDbDimension
  2
*D12
 10
488.5122662580292
 20
200.088169900923
 30
0.0
 11
483.5122662580292
 21
238.938167388918
 31
0.0
 12
-0.8000005306130333
 22
0.799997491774775
 32
0.0
  3
STANDARD
100
AcDbAlignedDimension
 13
570.0770327685363
 23
277.7881648769128
 33
0.0
 14
570.0769369047093
 24
200.088169900923
 34
0.0
 50
90.0
100
AcDbRotatedDimension
1001
ACAD
1000
DSTYLE
1002
{
1070
    41
1040
7.0
1070
    42
1040
6.0
1070
    43
1040
14.0
1070
    44
1040
3.0
1070
    73
1070
     0
1070
    74
1070
     0
1070
    77
1070
     3
1070
   140
1040
6.0
1070
   141
1040
150.0
1070
   147
1040
2.0
1070
   172
1070
     1
1070
   173
1070
     1
1070
   176
1070
   256
1070
   177
1070
   256
1070
   178
1070
   256
1070
   271
1070
     0
1070
   272
1070
     0
1070
   341
1005
6D
1070
     6
1000
OPEN
1070
     7
1000
OPEN
1070
   371
1070
    -1
1070
   372
1070
    -1
1002
}
  0
LEADER
  5
55EB
330
5532
100
AcDbEntity
  8
SUNPOU
100
AcDbLeader
  3
STANDARD
 40
6.0
 41
31.19999999999999
 76
     3
 10
536.8615664737348
 20
259.7262232656353
 30
0.0
 10
510.7301220762026
 20
304.7784290766844
 30
0.0
 10
474.9837186775887
 20
304.7784290766844
 30
0.0
213
0.0
223
3.0
233
0.0
1001
ACAD
1000
DSTYLE
1002
{
1070
     6
1000
OPEN
1070
    41
1040
7.0
1070
    42
1040
6.0
1070
    43
1040
14.0
1070
    44
1040
3.0
1070
    73
1070
     0
1070
    74
1070
     0
1070
    77
1070
     0
1070
   140
1040
6.0
1070
   141
1040
150.0
1070
   147
1040
2.0
1070
   172
1070
     1
1070
   173
1070
     1
1070
   176
1070
   256
1070
   177
1070
   256
1070
   178
1070
   256
1070
   271
1070
     0
1070
   272
1070
     0
1070
   341
1005
6D
1070
   343
1005
6D
1070
   344
1005
6D
1070
   371
1070
    -1
1070
   372
1070
    -1
1002
}
  0
LINE
  5
55EC
330
5532
100
AcDbEntity
  8
SEIHIN
100
AcDbLine
 10
353.1617581228849
 20
230.038169900823
 30
0.0
 11
351.574044882785
 21
227.288169901023
 31
0.0
  0
LINE
  5
55ED
330
5532
100
AcDbEntity
  8
SEIHIN
100
AcDbLine
 10
365.330405638985
 20
229.170931677923
 30
0.0
 11
364.290106986085
 21
227.922573294323
 31
0.0
  0
ARC
  5
55EE
330
5532
100
AcDbEntity
  8
SEIHIN
100
AcDbCircle
 10
340.5341042243849
 20
229.288169900923
 30
0.0
 40
1.0
100
AcDbArc
 50
270.0
 51
344.9999999997007
  0
LINE
  5
55EF
330
5532
100
AcDbEntity
  8
SEIHIN
100
AcDbLine
 10
373.094770824885
 20
204.088169900923
 30
0.0
 11
373.094770824885
 21
277.7881699009231
 31
0.0
  0
LINE
  5
55F0
330
5532
100
AcDbEntity
  8
SEIHIN
100
AcDbLine
 10
366.094770824885
 20
203.143456547823
 30
0.0
 11
366.094770824885
 21
230.088199454923
 31
0.0
  0
DIMENSION
  5
55F1
330
5532
100
AcDbEntity
  8
SUNPOU
100
AcDbDimension
  2
*D5
 10
412.4815769381894
 20
200.088169900923
 30
0.0
 11
407.4815769381893
 21
238.9381699009231
 31
0.0
 12
-0.8000005306130333
 22
0.799997491774775
 32
0.0
  3
STANDARD
100
AcDbAlignedDimension
 13
373.094770824885
 23
277.7881699009231
 33
0.0
 14
368.094770824885
 24
200.088169900923
 34
0.0
 50
90.0
100
AcDbRotatedDimension
1001
ACAD
1000
DSTYLE
1002
{
1070
    41
1040
7.0
1070
    42
1040
6.0
1070
    43
1040
14.0
1070
    44
1040
3.0
1070
    73
1070
     0
1070
    74
1070
     0
1070
    77
1070
     3
1070
   140
1040
6.0
1070
   141
1040
150.0
1070
   147
1040
2.0
1070
   172
1070
     1
1070
   173
1070
     1
1070
   176
1070
   256
1070
   177
1070
   256
1070
   178
1070
   256
1070
   271
1070
     0
1070
   272
1070
     0
1070
   341
1005
6D
1070
     6
1000
OPEN
1070
     7
1000
OPEN
1070
   371
1070
    -1
1070
   372
1070
    -1
1002
}
  0
LINE
  5
55F2
330
5532
100
AcDbEntity
  8
SEIHIN
100
AcDbLine
 10
369.094770824885
 20
208.0414496536005
 30
0.0
 11
369.094770824885
 21
238.1481488659603
 31
0.0
  0
ARC
  5
55F3
330
5532
100
AcDbEntity
  8
SEIHIN
100
AcDbCircle
 10
328.594770824885
 20
344.7881699009231
 30
0.0
 40
116.5
100
AcDbArc
 50
225.0204654645004
 51
269.9999985406015
  0
ARC
  5
55F4
330
5532
100
AcDbEntity
  8
SEIHIN
100
AcDbCircle
 10
328.594770824885
 20
344.7881699009231
 30
0.0
 40
120.0
100
AcDbArc
 50
224.8321080703962
 51
269.9999985406015
  0
DIMENSION
  5
55F5
330
5532
100
AcDbEntity
  8
SUNPOU
100
AcDbDimension
  2
*D6
 10
366.094770824885
 20
175.4044295137716
 30
0.0
 11
348.094770824885
 21
180.4044295137716
 31
0.0
 12
-0.8000005306130333
 22
0.799997491774775
 32
0.0
  3
STANDARD
100
AcDbAlignedDimension
 13
373.094770824885
 23
204.088169900923
 33
0.0
 14
366.094770824885
 24
200.424559066523
 34
0.0
100
AcDbRotatedDimension
1001
ACAD
1000
DSTYLE
1002
{
1070
    41
1040
7.0
1070
    42
1040
6.0
1070
    43
1040
14.0
1070
    44
1040
3.0
1070
    73
1070
     0
1070
    74
1070
     0
1070
    77
1070
     3
1070
   140
1040
6.0
1070
   141
1040
150.0
1070
   147
1040
2.0
1070
   172
1070
     1
1070
   173
1070
     1
1070
   176
1070
   256
1070
   177
1070
   256
1070
   178
1070
   256
1070
   271
1070
     0
1070
   272
1070
     0
1070
   341
1005
6D
1070
     6
1000
OPEN
1070
     7
1000
OPEN
1070
   371
1070
    -1
1070
   372
1070
    -1
1002
}
  0
ARC
  5
55F6
330
5532
100
AcDbEntity
  8
SEIHIN
100
AcDbCircle
 10
347.2439178637851
 20
229.788169900923
 30
0.0
 40
5.0
100
AcDbArc
 50
270.0
 51
330.0000000010006
  0
LINE
  5
55F7
330
5532
100
AcDbEntity
  8
SEIHIN
100
AcDbLine
 10
328.594767768285
 20
224.788169900923
 30
0.0
 11
347.2439178637851
 21
224.788169900923
 31
0.0
  0
LINE
  5
55F8
330
5532
100
AcDbEntity
  8
SEIHIN
100
AcDbLine
 10
328.594767768285
 20
228.2881699009231
 30
0.0
 11
340.5341042243849
 21
228.2881699009231
 31
0.0
  0
LINE
  5
55F9
330
5532
100
AcDbEntity
  8
SEIHIN
100
AcDbLine
 10
366.094770824885
 20
200.4245590665231
 30
0.0
 11
366.094770824885
 21
203.143456547823
 31
0.0
  0
LINE
  5
55FA
330
5532
100
AcDbEntity
  8
SEIHIN
100
AcDbLine
 10
373.094770824885
 20
204.088169900923
 30
0.0
 11
368.094770824885
 21
201.088169900923
 31
0.0
  0
DIMENSION
  5
55FB
330
5532
100
AcDbEntity
  8
SUNPOU
100
AcDbDimension
  2
*D7
 10
395.6368927596829
 20
200.088169900923
 30
0.0
 11
390.6368927596829
 21
204.0881699009231
 31
0.0
 12
-0.8000005306130333
 22
0.799997491774775
 32
0.0
  3
STANDARD
100
AcDbAlignedDimension
 13
380.094770824885
 23
208.0881699009231
 33
0.0
 14
368.094770824885
 24
200.088169900923
 34
0.0
 50
90.0
100
AcDbRotatedDimension
1001
ACAD
1000
DSTYLE
1002
{
1070
    41
1040
7.0
1070
    42
1040
6.0
1070
    43
1040
14.0
1070
    44
1040
3.0
1070
    73
1070
     0
1070
    74
1070
     0
1070
    77
1070
     3
1070
   140
1040
6.0
1070
   141
1040
150.0
1070
   147
1040
2.0
1070
   172
1070
     1
1070
   173
1070
     1
1070
   176
1070
   256
1070
   177
1070
   256
1070
   178
1070
   256
1070
   271
1070
     0
1070
   272
1070
     0
1070
   341
1005
6D
1070
     6
1000
OPEN
1070
     7
1000
OPEN
1070
   371
1070
    -1
1070
   372
1070
    -1
1002
}
  0
LINE
  5
55FC
330
5532
100
AcDbEntity
  8
SEIHIN
100
AcDbLine
 10
368.094770824885
 20
200.088169900923
 30
0.0
 11
366.094770824885
 21
200.088169900923
 31
0.0
  0
LINE
  5
55FD
330
5532
100
AcDbEntity
  8
SEIHIN
100
AcDbLine
 10
366.094770824885
 20
200.4245590665231
 30
0.0
 11
366.094770824885
 21
200.088169900923
 31
0.0
  0
LINE
  5
55FE
330
5532
100
AcDbEntity
  8
SEIHIN
100
AcDbLine
 10
368.094770824885
 20
201.088169900923
 30
0.0
 11
368.094770824885
 21
200.088169900923
 31
0.0
  0
ARC
  5
55FF
330
5532
100
AcDbEntity
  8
SEIHIN
100
AcDbCircle
 10
363.558242172649
 20
208.0648097772503
 30
0.0
 40
5.536577933381693
100
AcDbArc
 50
297.2671598356301
 51
0.2417450783892399
  0
LINE
  5
5600
330
5532
100
AcDbEntity
  8
CENTER_L
  6
CENTER
 62
     1
 48
5.0
100
AcDbLine
 10
359.094770824885
 20
208.088169900923
 30
0.0
 11
380.094770824885
 21
208.0881699009231
 31
0.0
  0
LINE
  5
5601
330
5532
100
AcDbEntity
  8
SEIHIN
100
AcDbLine
 10
373.094770824885
 20
204.893951923723
 30
0.0
 11
373.094770824885
 21
208.4135953446231
 31
0.0
  0
LINE
  5
5602
330
5532
100
AcDbEntity
  8
SEIHIN
100
AcDbLine
 10
373.094770824885
 20
204.088169900923
 30
0.0
 11
373.094770824885
 21
204.893951923723
 31
0.0
  0
ARC
  5
5603
330
5532
100
AcDbEntity
  8
SEIHIN
100
AcDbCircle
 10
366.594770824885
 20
224.174319706423
 30
0.0
 40
3.0
100
AcDbArc
 50
179.9999964821001
 51
219.8055623932019
  0
LINE
  5
5604
330
5532
100
AcDbEntity
  8
SEIHIN
100
AcDbLine
 10
364.290106694485
 20
222.253766857323
 30
0.0
 11
365.399434940185
 21
220.922572962623
 31
0.0
  0
LINE
  5
5605
330
5532
100
AcDbEntity
  8
SEIHIN
100
AcDbLine
 10
363.594770824885
 20
226.002020673423
 30
0.0
 11
363.594770824885
 21
224.174319890623
 31
0.0
  0
ARC
  5
5606
330
5532
100
AcDbEntity
  8
SEIHIN
100
AcDbCircle
 10
363.094770824885
 20
219.002020095423
 30
0.0
 40
3.0
100
AcDbArc
 50
0.0
 51
39.8055628427985
  0
ARC
  5
5607
330
5532
100
AcDbEntity
  8
SEIHIN
100
AcDbCircle
 10
366.594770824885
 20
226.002020095423
 30
0.0
 40
3.0
100
AcDbArc
 50
140.1944289077021
 51
179.9999889610989
  0
ARC
  5
5608
330
5532
100
AcDbEntity
  8
SEIHIN
100
AcDbCircle
 10
360.3719389031851
 20
247.788169900923
 30
0.0
 40
30.0
100
AcDbArc
 50
90.0
 51
134.6746095643968
  0
ARC
  5
5609
330
5532
100
AcDbEntity
  8
SEIHIN
100
AcDbCircle
 10
360.3719389031851
 20
247.788169900923
 30
0.0
 40
26.5
100
AcDbArc
 50
104.1873164804007
 51
134.6746095644974
  0
ARC
  5
560A
330
5532
100
AcDbEntity
  8
SEIHIN
100
AcDbCircle
 10
353.986542036185
 20
242.788169900823
 30
0.0
 40
8.5
100
AcDbArc
 50
90.0
 51
164.9999999997012
  0
ARC
  5
560B
330
5532
100
AcDbEntity
  8
SEIHIN
100
AcDbCircle
 10
353.986542036185
 20
242.788169900823
 30
0.0
 40
5.0
100
AcDbArc
 50
90.0
 51
164.9999999997012
  0
LINE
  5
560C
330
5532
100
AcDbEntity
  8
SEIHIN
100
AcDbLine
 10
352.728745420985
 20
230.788169900823
 30
0.0
 11
342.3549676873849
 21
230.788169900823
 31
0.0
  0
DIMENSION
  5
560D
330
5532
100
AcDbEntity
  8
SUNPOU
100
AcDbDimension
  2
*D3
 10
228.4948371043506
 20
319.6559342028791
 30
0.0
 11
300.7948039646178
 21
324.6559342028791
 31
0.0
 12
-0.8000005306130333
 22
0.799997491774775
 32
0.0
  3
STANDARD
100
AcDbAlignedDimension
 13
373.094770824885
 23
277.7881699009231
 33
0.0
 14
228.4948371043506
 24
270.8082572214322
 34
0.0
100
AcDbRotatedDimension
1001
ACAD
1000
DSTYLE
1002
{
1070
    41
1040
7.0
1070
    42
1040
6.0
1070
    43
1040
14.0
1070
    44
1040
3.0
1070
    73
1070
     0
1070
    74
1070
     0
1070
    77
1070
     3
1070
   140
1040
6.0
1070
   141
1040
150.0
1070
   147
1040
2.0
1070
   172
1070
     1
1070
   173
1070
     1
1070
   176
1070
   256
1070
   177
1070
   256
1070
   178
1070
   256
1070
   271
1070
     0
1070
   272
1070
     0
1070
   341
1005
6D
1070
     6
1000
OPEN
1070
     7
1000
OPEN
1070
   371
1070
    -1
1070
   372
1070
    -1
1002
}
  0
DIMENSION
  5
560E
330
5532
100
AcDbEntity
  8
SUNPOU
100
AcDbDimension
  2
*D2
 10
363.3022806102849
 20
303.7991319848366
 30
0.0
 11
343.8022806102849
 21
308.7991319848366
 31
0.0
 12
-0.8000005306130333
 22
0.799997491774775
 32
0.0
  3
STANDARD
100
AcDbAlignedDimension
 13
373.094770824885
 23
277.7881699009231
 33
0.0
 14
363.3022806102849
 24
274.488764314823
 34
0.0
100
AcDbRotatedDimension
1001
ACAD
1000
DSTYLE
1002
{
1070
    41
1040
7.0
1070
    42
1040
6.0
1070
    43
1040
14.0
1070
    44
1040
3.0
1070
    73
1070
     0
1070
    74
1070
     0
1070
    77
1070
     3
1070
   140
1040
6.0
1070
   141
1040
150.0
1070
   147
1040
2.0
1070
   172
1070
     1
1070
   173
1070
     1
1070
   176
1070
   256
1070
   177
1070
   256
1070
   178
1070
   256
1070
   271
1070
     0
1070
   272
1070
     0
1070
   341
1005
6D
1070
     6
1000
OPEN
1070
     7
1000
OPEN
1070
   371
1070
    -1
1070
   372
1070
    -1
1002
}
  0
ARC
  5
560F
330
5532
100
AcDbEntity
  8
SEIHIN
100
AcDbCircle
 10
297.094770824885
 20
311.7881699009231
 30
0.0
 40
60.0
100
AcDbArc
 50
228.6788462656025
 51
314.6746095643968
  0
ARC
  5
5610
330
5532
100
AcDbEntity
  8
SEIHIN
100
AcDbCircle
 10
297.094770824885
 20
311.7881699009231
 30
0.0
 40
63.5
100
AcDbArc
 50
231.723824213897
 51
314.6746095643968
  0
LINE
  5
5611
330
5532
100
AcDbEntity
  8
SEIHIN
100
AcDbLine
 10
242.5557216059851
 20
257.513099791623
 30
0.0
 11
238.4468649324849
 21
252.678588722423
 31
0.0
  0
LINE
  5
5612
330
5532
100
AcDbEntity
  8
SEIHIN
100
AcDbLine
 10
241.4947708248851
 20
246.088169900923
 30
0.0
 11
259.1058508447849
 21
246.088169900923
 31
0.0
  0
ARC
  5
5613
330
5532
100
AcDbEntity
  8
SEIHIN
100
AcDbCircle
 10
241.4947708248851
 20
250.088169900923
 30
0.0
 40
4.0
100
AcDbArc
 50
139.6387505755017
 51
270.0
  0
ARC
  5
5614
330
5532
100
AcDbEntity
  8
SEIHIN
100
AcDbCircle
 10
259.1058508447849
 20
242.088169900923
 30
0.0
 40
4.0
100
AcDbArc
 50
55.9169144584996
 51
90.0
  0
LINE
  5
5615
330
5532
100
AcDbEntity
  8
SEIHIN
100
AcDbLine
 10
235.2447718852849
 20
264.088169900923
 30
0.0
 11
251.5649999873849
 21
264.088169900923
 31
0.0
  0
LINE
  5
5616
330
5532
100
AcDbEntity
  8
SEIHIN
100
AcDbLine
 10
248.5642649548849
 20
270.088169900923
 30
0.0
 11
236.6137328349216
 21
270.088169900923
 31
0.0
  0
ARC
  5
5617
330
5532
100
AcDbEntity
  8
SEIHIN
100
AcDbCircle
 10
235.2447708248851
 20
270.838169900923
 30
0.0
 40
6.75
100
AcDbArc
 50
180.2539075404997
 51
270.0000090010027
  0
ARC
  5
5618
330
5532
100
AcDbEntity
  8
SEIHIN
100
AcDbCircle
 10
238.030373846785
 20
260.088169900923
 30
0.0
 40
4.0
100
AcDbArc
 50
43.0835817764983
 51
90.0
  0
ARC
  5
5619
330
5532
100
AcDbEntity
  8
SEIHIN
100
AcDbCircle
 10
239.4948371043849
 20
260.088169900923
 30
0.0
 40
4.0
100
AcDbArc
 50
319.9266683214971
 51
1.377975881900074
  0
ARC
  5
561A
330
5532
100
AcDbEntity
  8
SEIHIN
100
AcDbCircle
 10
239.4948371043849
 20
260.088169900923
 30
0.0
 40
4.0
100
AcDbArc
 50
319.3508328298971
 51
319.9266683214971
  0
ARC
  5
561B
330
5532
100
AcDbEntity
  8
SEIHIN
100
AcDbCircle
 10
328.594770824885
 20
344.7881699009231
 30
0.0
 40
120.0
100
AcDbArc
 50
223.0835817764982
 51
224.8321080703962
  0
ARC
  5
561C
330
5532
100
AcDbEntity
  8
SEIHIN
100
AcDbCircle
 10
243.4936801907849
 20
256.184361491823
 30
0.0
 40
4.0
100
AcDbArc
 50
89.99999794360091
 51
90.00000464929879
  0
ARC
  5
561D
330
5532
100
AcDbEntity
  8
SEIHIN
100
AcDbCircle
 10
233.123450481285
 20
275.088169900923
 30
0.0
 40
2.0
100
AcDbArc
 50
90.0
 51
116.5253520166007
  0
ARC
  5
561E
330
5532
100
AcDbEntity
  8
SEIHIN
100
AcDbCircle
 10
235.2447708248851
 20
270.838169900923
 30
0.0
 40
6.75
100
AcDbArc
 50
116.5175626991003
 51
116.5218888107022
  0
LINE
  5
561F
330
5532
100
AcDbEntity
  8
SEIHIN
100
AcDbLine
 10
233.123163333885
 20
277.088169900923
 30
0.0
 11
233.1228045361849
 21
277.088169900923
 31
0.0
  0
ARC
  5
5620
330
5532
100
AcDbEntity
  8
SEIHIN
100
AcDbCircle
 10
235.5400302620537
 20
276.5881697286918
 30
0.0
 40
0.5
100
AcDbArc
 50
340.7099537812961
 51
89.99999591649428
  0
LINE
  5
5621
330
5532
100
AcDbEntity
  8
SEIHIN
100
AcDbLine
 10
234.7260161221838
 20
272.7488707503631
 30
0.0
 11
236.0119594402381
 21
276.4229945163317
 31
0.0
  0
LINE
  5
5622
330
5532
100
AcDbEntity
  8
SEIHIN
100
AcDbLine
 10
235.5400302976891
 20
277.0881697286918
 30
0.0
 11
233.123450481285
 21
277.088169900923
 31
0.0
  0
ARC
  5
5623
330
5532
100
AcDbEntity
  8
SEIHIN
100
AcDbCircle
 10
236.6137328349216
 20
272.088169900923
 30
0.0
 40
2.0
100
AcDbArc
 50
160.7099537812993
 51
270.0
  0
LINE
  5
5624
330
5532
100
AcDbEntity
  8
SEIHIN
100
AcDbLine
 10
228.4948371043849
 20
270.8082572214231
 30
0.0
 11
228.4948371043849
 21
270.868082580323
 31
0.0
  0
ARC
  5
5625
330
5532
100
AcDbEntity
  8
SEIHIN
100
AcDbCircle
 10
235.2447708248851
 20
270.838169900923
 30
0.0
 40
6.75
100
AcDbArc
 50
116.5253520166007
 51
179.7460924595995
  0
ARC
  5
5626
330
5532
100
AcDbEntity
  8
SEIHIN
100
AcDbCircle
 10
248.5642649548849
 20
256.588169900923
 30
0.0
 40
13.5
100
AcDbArc
 50
48.67884626560253
 51
90.0
  0
ARC
  5
5627
330
5532
100
AcDbEntity
  8
SEIHIN
100
AcDbCircle
 10
251.565000344485
 20
254.088169900923
 30
0.0
 40
10.0
100
AcDbArc
 50
51.72382421389702
 51
90.00000204599656
  0
ARC
  5
5628
330
5532
100
AcDbEntity
  8
SEIHIN
100
AcDbCircle
 10
246.953114790685
 20
263.088169900923
 30
0.0
 40
1.0
100
AcDbArc
 50
90.0
 51
225.0204654645004
  0
LINE
  5
5629
330
5532
100
AcDbEntity
  8
SEIHIN
100
AcDbLine
 10
345.9320703714849
 20
232.046988945923
 30
0.0
 11
349.156912904785
 21
244.082265126323
 31
0.0
  0
LINE
  5
562A
330
5532
100
AcDbEntity
  8
SEIHIN
100
AcDbLine
 10
341.5000300506849
 20
229.029350855823
 30
0.0
 11
345.776172512785
 21
244.988131784223
 31
0.0
  0
ARC
  5
562B
330
5532
100
AcDbEntity
  8
SEIHIN
100
AcDbCircle
 10
342.3549676873849
 20
230.288169900823
 30
0.0
 40
0.5
100
AcDbArc
 50
90.0
 51
164.9999999997012
  0
ARC
  5
562C
330
5532
100
AcDbEntity
  8
SEIHIN
100
AcDbCircle
 10
346.8979961976849
 20
231.788169900823
 30
0.0
 40
1.0
100
AcDbArc
 50
164.9999999997012
 51
270.0
  0
LINE
  5
562D
330
5532
100
AcDbEntity
  8
SEIHIN
100
AcDbLine
 10
345.931864897685
 20
232.046222107423
 30
0.0
 11
345.931608333085
 21
232.0452634557231
 31
0.0
  0
LINE
  5
562E
330
5532
100
AcDbEntity
  8
SEIHIN
100
AcDbLine
 10
346.896209917885
 20
230.788170195823
 30
0.0
 11
346.897202308085
 21
230.788169900823
 31
0.0
  0
LINE
  5
562F
330
5532
100
AcDbEntity
  8
SEIHIN
100
AcDbLine
 10
366.0947689660849
 20
230.088199454923
 30
0.0
 11
363.3022806102849
 21
274.488764314823
 31
0.0
  0
ARC
  5
5630
330
5532
100
AcDbEntity
  8
SEIHIN
100
AcDbCircle
 10
359.4370929930851
 20
256.288169900823
 30
0.0
 40
5.0
100
AcDbArc
 50
270.0
 51
3.598768116600047
  0
LINE
  5
5631
330
5532
100
AcDbEntity
  8
SEIHIN
100
AcDbLine
 10
369.094770824885
 20
238.1481488659611
 30
0.0
 11
366.6016861963851
 21
277.7881699009231
 31
0.0
  0
ARC
  5
5632
330
5532
100
AcDbEntity
  8
SEIHIN
100
AcDbCircle
 10
364.594770824885
 20
242.6860531014231
 30
0.0
 40
3.0
100
AcDbArc
 50
180.0
 51
233.0653994738027
  0
ARC
  5
5633
330
5532
100
AcDbEntity
  8
SEIHIN
100
AcDbCircle
 10
352.728745420985
 20
230.288169900823
 30
0.0
 40
0.5
100
AcDbArc
 50
330.0000000010006
 51
90.0
  0
LINE
  5
5634
330
5532
100
AcDbEntity
  8
SEIHIN
100
AcDbLine
 10
353.161494108785
 20
230.037712614923
 30
0.0
 11
353.069801455985
 21
229.878896281623
 31
0.0
  0
LINE
  5
5635
330
5532
100
AcDbEntity
  8
SEIHIN
100
AcDbLine
 10
352.729141023585
 20
230.788169900823
 30
0.0
 11
352.728921274185
 21
230.788169900823
 31
0.0
  0
LINE
  5
5636
330
5532
100
AcDbEntity
  8
SEIHIN
100
AcDbLine
 10
362.792061705285
 20
240.2880873322231
 30
0.0
 11
364.480704236585
 21
239.018623301423
 31
0.0
  0
ARC
  5
5637
330
5532
100
AcDbEntity
  8
SEIHIN
100
AcDbCircle
 10
363.0257418002849
 20
231.091484876923
 30
0.0
 40
3.0
100
AcDbArc
 50
320.1944289077021
 51
3.598768116799192
  0
ARC
  5
5638
330
5532
100
AcDbEntity
  8
SEIHIN
100
AcDbCircle
 10
362.677995091085
 20
236.620657551723
 30
0.0
 40
3.0
100
AcDbArc
 50
3.598768116600047
 51
53.06539885499889
  0
ARC
  5
5639
330
5532
100
AcDbEntity
  8
SEIHIN
100
AcDbCircle
 10
358.594770824885
 20
244.788169900823
 30
0.0
 40
3.0
100
AcDbArc
 50
0.0
 51
90.0
  0
LINE
  5
563A
330
5532
100
AcDbEntity
  8
SEIHIN
100
AcDbLine
 10
361.594770824885
 20
244.788169900823
 30
0.0
 11
361.594770824885
 21
242.6860531014231
 31
0.0
  0
LINE
  5
563B
330
5532
100
AcDbEntity
  8
SEIHIN
100
AcDbLine
 10
353.986542036185
 20
251.288169900823
 30
0.0
 11
359.4370929930851
 21
251.288169900823
 31
0.0
  0
LINE
  5
563C
330
5532
100
AcDbEntity
  8
SEIHIN
100
AcDbLine
 10
353.986542036185
 20
247.788169900823
 30
0.0
 11
360.2861495967849
 21
247.788169900823
 31
0.0
  0
LINE
  5
563D
330
5532
100
AcDbEntity
  8
SEIHIN
100
AcDbLine
 10
353.984204861885
 20
247.788169900823
 30
0.0
 11
353.9812838008849
 21
247.788169388923
 31
0.0
  0
ARC
  5
563E
330
5532
100
AcDbEntity
  8
SEIHIN
100
AcDbCircle
 10
360.2861495967849
 20
242.788169900823
 30
0.0
 40
5.0
100
AcDbArc
 50
3.598768116600047
 51
90.0
  0
LINE
  5
563F
330
5532
100
AcDbEntity
  8
SEIHIN
100
AcDbLine
 10
373.094770824885
 20
243.2130431124669
 30
0.0
 11
368.7762238195793
 21
243.2130431124669
 31
0.0
  0
DIMENSION
  5
5640
330
5532
100
AcDbEntity
  8
SUNPOU
100
AcDbDimension
  2
*D8
 10
395.6368927596829
 20
258.0881699009229
 30
0.0
 11
390.6368927596829
 21
267.9381699009231
 31
0.0
 12
-0.8000005306130333
 22
0.799997491774775
 32
0.0
  3
STANDARD
100
AcDbAlignedDimension
 13
373.094770824885
 23
277.7881699009231
 33
0.0
 14
380.094770824885
 24
258.088169900923
 34
0.0
 50
90.0
100
AcDbRotatedDimension
1001
ACAD
1000
DSTYLE
1002
{
1070
    41
1040
7.0
1070
    42
1040
6.0
1070
    43
1040
14.0
1070
    44
1040
3.0
1070
    73
1070
     0
1070
    74
1070
     0
1070
    77
1070
     3
1070
   140
1040
6.0
1070
   141
1040
150.0
1070
   147
1040
2.0
1070
   172
1070
     1
1070
   173
1070
     1
1070
   176
1070
   256
1070
   177
1070
   256
1070
   178
1070
   256
1070
   271
1070
     0
1070
   272
1070
     0
1070
   341
1005
6D
1070
     6
1000
OPEN
1070
     7
1000
OPEN
1070
   371
1070
    -1
1070
   372
1070
    -1
1002
}
  0
ARC
  5
5641
330
5532
100
AcDbEntity
  8
SEIHIN
100
AcDbCircle
 10
355.837722573985
 20
265.723913049223
 30
0.0
 40
8.0
100
AcDbArc
 50
3.598768116600047
 51
104.1873164804007
  0
LINE
  5
5642
330
5532
100
AcDbEntity
  8
CENTER_L
  6
CENTER
 62
     1
 48
5.0
100
AcDbLine
 10
359.094770824885
 20
258.0881699009229
 30
0.0
 11
380.094770824885
 21
258.088169900923
 31
0.0
  0
LINE
  5
5643
330
5532
100
AcDbEntity
  8
SEIHIN
100
AcDbLine
 10
373.094770824885
 20
277.7881699009231
 30
0.0
 11
360.3719389031851
 21
277.7881699009231
 31
0.0
  0
LINE
  5
5644
330
5532
100
AcDbEntity
  8
SEIHIN
100
AcDbLine
 10
363.3022806102849
 20
274.488764314823
 30
0.0
 11
358.553190991885
 21
277.3505352398231
 31
0.0
  0
LINE
  5
5645
330
5532
100
AcDbEntity
  8
SEIHIN
100
AcDbLine
 10
366.6016861963851
 20
277.7881699009231
 30
0.0
 11
363.3022806102849
 21
274.488764314823
 31
0.0
  0
LINE
  5
5646
330
5532
100
AcDbEntity
  8
CENTER_L
  6
CENTER
 62
     1
 48
5.0
100
AcDbLine
 10
570.0769343463641
 20
193.0785636130173
 30
0.0
 11
570.0770409066458
 21
284.7924403428422
 31
0.0
  0
LINE
  5
5647
330
5532
100
AcDbEntity
  8
SEIHIN
100
AcDbLine
 10
559.0769369048094
 20
260.188169900923
 30
0.0
 11
559.0769369048094
 21
208.706808102223
 31
0.0
  0
LINE
  5
5648
330
5532
100
AcDbEntity
  8
SEIHIN
100
AcDbLine
 10
572.5769369047092
 20
260.188169900923
 30
0.0
 11
572.5769369047092
 21
215.3929628480231
 31
0.0
  0
LINE
  5
5649
330
5532
100
AcDbEntity
  8
SEIHIN
100
AcDbLine
 10
567.5769369047093
 20
215.3929628480231
 30
0.0
 11
567.5769369047093
 21
260.188169900923
 31
0.0
  0
LINE
  5
564A
330
5532
100
AcDbEntity
  8
SEIHIN
100
AcDbLine
 10
581.0769369047092
 20
208.498728112423
 30
0.0
 11
581.0769369047092
 21
260.188169900923
 31
0.0
  0
LINE
  5
564B
330
5532
100
AcDbEntity
  8
SEIHIN
100
AcDbLine
 10
556.0769369048093
 20
208.4135953446231
 30
0.0
 11
556.0769369048093
 21
230.088169900923
 31
0.0
  0
LINE
  5
564C
330
5532
100
AcDbEntity
  8
SEIHIN
100
AcDbLine
 10
584.0769369047093
 20
230.088169900923
 30
0.0
 11
584.0769369047093
 21
208.3025708722231
 31
0.0
  0
DIMENSION
  5
564D
330
5532
100
AcDbEntity
  8
SUNPOU
100
AcDbDimension
  2
*D13
 10
509.622142553122
 20
208.088169900923
 30
0.0
 11
504.622142553122
 21
226.0881699009231
 31
0.0
 12
-0.8000005306130333
 22
0.799997491774775
 32
0.0
  3
STANDARD
100
AcDbAlignedDimension
 13
570.0769424906675
 23
200.088170095989
 33
0.0
 14
562.8576006087398
 24
208.088169900923
 34
0.0
 50
90.0
100
AcDbRotatedDimension
1001
ACAD
1000
DSTYLE
1002
{
1070
    41
1040
7.0
1070
    42
1040
6.0
1070
    43
1040
14.0
1070
    44
1040
3.0
1070
    73
1070
     0
1070
    74
1070
     0
1070
    77
1070
     3
1070
   140
1040
6.0
1070
   141
1040
150.0
1070
   147
1040
2.0
1070
   172
1070
     1
1070
   173
1070
     1
1070
   176
1070
   256
1070
   177
1070
   256
1070
   178
1070
   256
1070
   271
1070
     0
1070
   272
1070
     0
1070
   341
1005
6D
1070
     6
1000
OPEN
1070
     7
1000
OPEN
1070
   371
1070
    -1
1070
   372
1070
    -1
1002
}
  0
DIMENSION
  5
564E
330
5532
100
AcDbEntity
  8
SUNPOU
100
AcDbDimension
  2
*D14
 10
584.0769369047093
 20
175.4044295137716
 30
0.0
 11
570.0769369047593
 21
180.4044295137716
 31
0.0
 12
-0.8000005306130333
 22
0.799997491774775
 32
0.0
  3
STANDARD
100
AcDbAlignedDimension
 13
556.0769369048093
 23
208.413595344623
 33
0.0
 14
584.0769369047093
 24
208.302570872223
 34
0.0
100
AcDbRotatedDimension
1001
ACAD
1000
DSTYLE
1002
{
1070
    41
1040
7.0
1070
    42
1040
6.0
1070
    43
1040
14.0
1070
    44
1040
3.0
1070
    73
1070
     0
1070
    74
1070
     0
1070
    77
1070
     3
1070
   140
1040
6.0
1070
   141
1040
150.0
1070
   147
1040
2.0
1070
   172
1070
     1
1070
   173
1070
     1
1070
   176
1070
   256
1070
   177
1070
   256
1070
   178
1070
   256
1070
   271
1070
     0
1070
   272
1070
     0
1070
   341
1005
6D
1070
     6
1000
OPEN
1070
     7
1000
OPEN
1070
   371
1070
    -1
1070
   372
1070
    -1
1002
}
  0
LINE
  5
564F
330
5532
100
AcDbEntity
  8
SEIHIN
100
AcDbLine
 10
570.0769369047093
 20
204.088169900923
 30
0.0
 11
556.8927800169092
 21
204.893951923723
 31
0.0
  0
LINE
  5
5650
330
5532
100
AcDbEntity
  8
SEIHIN
100
AcDbLine
 10
559.4274220792092
 20
201.903448503923
 30
0.0
 11
558.6593170603094
 21
202.5272216544231
 31
0.0
  0
ARC
  5
5651
330
5532
100
AcDbEntity
  8
SEIHIN
100
AcDbCircle
 10
560.0769369048093
 20
208.706808102223
 30
0.0
 40
1.0
100
AcDbArc
 50
180.0
 51
266.5025785356003
  0
ARC
  5
5652
330
5532
100
AcDbEntity
  8
SEIHIN
100
AcDbCircle
 10
564.0769369048094
 20
208.4135953446231
 30
0.0
 40
8.0
100
AcDbArc
 50
180.0
 51
206.1010372787014
  0
LINE
  5
5653
330
5532
100
AcDbEntity
  8
SEIHIN
100
AcDbLine
 10
557.3822275087093
 20
204.0339987762231
 30
0.0
 11
556.8927800169092
 21
204.893951923723
 31
0.0
  0
LINE
  5
5654
330
5532
100
AcDbEntity
  8
SEIHIN
100
AcDbLine
 10
558.6593170603094
 20
202.5272216544231
 30
0.0
 11
557.9740913200094
 21
203.2410451255231
 31
0.0
  0
LINE
  5
5655
330
5532
100
AcDbEntity
  8
SEIHIN
100
AcDbLine
 10
557.9740913200094
 20
203.2410451255231
 30
0.0
 11
557.3822275087093
 21
204.0339987762231
 31
0.0
  0
LINE
  5
5656
330
5532
100
AcDbEntity
  8
SEIHIN
100
AcDbLine
 10
580.7167132455092
 20
201.785479841223
 30
0.0
 11
581.4546367351092
 21
202.379704629123
 31
0.0
  0
LINE
  5
5657
330
5532
100
AcDbEntity
  8
SEIHIN
100
AcDbLine
 10
570.0769369047093
 20
204.088169900923
 30
0.0
 11
570.0769369047093
 21
201.088169900923
 31
0.0
  0
LINE
  5
5658
330
5532
100
AcDbEntity
  8
SEIHIN
100
AcDbLine
 10
576.3561328783094
 20
200.307444256123
 30
0.0
 11
577.5878310431092
 21
200.446541410623
 31
0.0
  0
LINE
  5
5659
330
5532
100
AcDbEntity
  8
SEIHIN
100
AcDbLine
 10
579.9137144152093
 20
201.282660735023
 30
0.0
 11
570.0769369047093
 21
201.088169900923
 31
0.0
  0
LINE
  5
565A
330
5532
100
AcDbEntity
  8
SEIHIN
100
AcDbLine
 10
562.4845905137092
 20
200.573669772823
 30
0.0
 11
561.3457571057092
 21
200.894243184623
 31
0.0
  0
LINE
  5
565B
330
5532
100
AcDbEntity
  8
SEIHIN
100
AcDbLine
 10
570.0769369047093
 20
201.088169900923
 30
0.0
 11
570.0769369047093
 21
200.088169900923
 31
0.0
  0
LINE
  5
565C
330
5532
100
AcDbEntity
  8
SEIHIN
100
AcDbLine
 10
563.6582492548093
 20
200.4245590665231
 30
0.0
 11
570.0769369047093
 21
200.088169900923
 31
0.0
  0
LINE
  5
565D
330
5532
100
AcDbEntity
  8
SEIHIN
100
AcDbLine
 10
563.6582492548093
 20
200.4245590665231
 30
0.0
 11
562.4845905137092
 21
200.573669772823
 31
0.0
  0
LINE
  5
565E
330
5532
100
AcDbEntity
  8
SEIHIN
100
AcDbLine
 10
560.2666558309092
 20
201.379268217023
 30
0.0
 11
570.0769369047093
 21
201.088169900923
 31
0.0
  0
LINE
  5
565F
330
5532
100
AcDbEntity
  8
SEIHIN
100
AcDbLine
 10
561.3457571057092
 20
200.894243184623
 30
0.0
 11
560.2666558309092
 21
201.379268217023
 31
0.0
  0
LINE
  5
5660
330
5532
100
AcDbEntity
  8
SEIHIN
100
AcDbLine
 10
560.2666558309092
 20
201.379268217023
 30
0.0
 11
559.4274220792092
 21
201.903448503923
 31
0.0
  0
LINE
  5
5661
330
5532
100
AcDbEntity
  8
SEIHIN
100
AcDbLine
 10
576.3561328783094
 20
200.307444256123
 30
0.0
 11
570.0769369047093
 21
200.088169900923
 31
0.0
  0
LINE
  5
5662
330
5532
100
AcDbEntity
  8
SEIHIN
100
AcDbLine
 10
577.5878310431092
 20
200.446541410623
 30
0.0
 11
578.7832576354092
 21
200.774235856923
 31
0.0
  0
LINE
  5
5663
330
5532
100
AcDbEntity
  8
SEIHIN
100
AcDbLine
 10
578.7832576354092
 20
200.774235856923
 30
0.0
 11
579.9137144152093
 21
201.282660735023
 31
0.0
  0
LINE
  5
5664
330
5532
100
AcDbEntity
  8
SEIHIN
100
AcDbLine
 10
579.9137144152093
 20
201.282660735023
 30
0.0
 11
580.7167132455092
 21
201.785479841223
 31
0.0
  0
ARC
  5
5665
330
5532
100
AcDbEntity
  8
SEIHIN
100
AcDbCircle
 10
570.0769369047093
 20
208.088169900923
 30
0.0
 40
7.099999999999999
100
AcDbArc
 50
2.35547324710087
 51
64.39917301660042
  0
LINE
  5
5666
330
5532
100
AcDbEntity
  8
CENTER_L
  6
CENTER
 62
     1
 48
5.0
100
AcDbLine
 10
560.9769369047094
 20
208.088169900923
 30
0.0
 11
579.1769369047092
 21
208.088169900923
 31
0.0
  0
LINE
  5
5667
330
5532
100
AcDbEntity
  8
SEIHIN
100
AcDbLine
 10
570.0769369047093
 20
204.088169900923
 30
0.0
 11
583.1798771607093
 21
204.621777517523
 31
0.0
  0
ARC
  5
5668
330
5532
100
AcDbEntity
  8
SEIHIN
100
AcDbCircle
 10
573.5769369047093
 20
215.3929628480231
 30
0.0
 40
1.0
100
AcDbArc
 50
180.0
 51
244.3991730166003
  0
ARC
  5
5669
330
5532
100
AcDbEntity
  8
SEIHIN
100
AcDbCircle
 10
566.5769369047093
 20
215.3929628480231
 30
0.0
 40
1.0
100
AcDbArc
 50
295.6008269833996
 51
0.0
  0
LINE
  5
566A
330
5532
100
AcDbEntity
  8
SEIHIN
100
AcDbLine
 10
560.0159332853093
 20
207.708670557423
 30
0.0
 11
561.9314770576092
 21
207.591597410523
 31
0.0
  0
ARC
  5
566B
330
5532
100
AcDbEntity
  8
SEIHIN
100
AcDbCircle
 10
561.9924806771093
 20
208.589734955423
 30
0.0
 40
1.0
100
AcDbArc
 50
266.5025785356982
 51
356.4498818264997
  0
ARC
  5
566C
330
5532
100
AcDbEntity
  8
SEIHIN
100
AcDbCircle
 10
570.0769369047093
 20
208.088169900923
 30
0.0
 40
7.099999999999999
100
AcDbArc
 50
115.6008269833995
 51
176.4498818264996
  0
CIRCLE
  5
566D
330
5532
100
AcDbEntity
  8
SEIHIN
100
AcDbCircle
 10
570.0769369047093
 20
208.088169900923
 30
0.0
 40
2.1
  0
ARC
  5
566E
330
5532
100
AcDbEntity
  8
SEIHIN
100
AcDbCircle
 10
578.1700929844094
 20
208.421073294523
 30
0.0
 40
1.0
100
AcDbArc
 50
182.3554732470991
 51
272.3320398984995
  0
ARC
  5
566F
330
5532
100
AcDbEntity
  8
SEIHIN
100
AcDbCircle
 10
576.0769369047093
 20
208.3025708722231
 30
0.0
 40
8.0
100
AcDbArc
 50
332.6064930964012
 51
0.0
  0
LINE
  5
5670
330
5532
100
AcDbEntity
  8
SEIHIN
100
AcDbLine
 10
582.6949164856094
 20
203.807868850223
 30
0.0
 11
583.1798771607093
 21
204.621777517523
 31
0.0
  0
LINE
  5
5671
330
5532
100
AcDbEntity
  8
SEIHIN
100
AcDbLine
 10
581.4546367351092
 20
202.379704629123
 30
0.0
 11
582.1171351130094
 21
203.057000778923
 31
0.0
  0
LINE
  5
5672
330
5532
100
AcDbEntity
  8
SEIHIN
100
AcDbLine
 10
582.1171351130094
 20
203.057000778923
 30
0.0
 11
582.6949164856094
 21
203.807868850223
 31
0.0
  0
LINE
  5
5673
330
5532
100
AcDbEntity
  8
SEIHIN
100
AcDbLine
 10
578.2107835219091
 20
207.421901497423
 30
0.0
 11
580.1176274422093
 21
207.499556315323
 31
0.0
  0
ARC
  5
5674
330
5532
100
AcDbEntity
  8
SEIHIN
100
AcDbCircle
 10
580.0769369047093
 20
208.498728112423
 30
0.0
 40
1.0
100
AcDbArc
 50
272.3320398984995
 51
0.0
  0
DIMENSION
  5
5675
330
5532
100
AcDbEntity
  8
SUNPOU
100
AcDbDimension
  2
*D11
 10
602.0769369047093
 20
303.7991319848366
 30
0.0
 11
570.0769369047093
 21
308.7991319848366
 31
0.0
 12
-0.8000005306130333
 22
0.799997491774775
 32
0.0
  3
STANDARD
100
AcDbAlignedDimension
 13
538.0769369047093
 23
263.7398699009231
 33
0.0
 14
602.0769369047093
 24
263.7398699009231
 34
0.0
100
AcDbRotatedDimension
1001
ACAD
1000
DSTYLE
1002
{
1070
    41
1040
7.0
1070
    42
1040
6.0
1070
    43
1040
14.0
1070
    44
1040
3.0
1070
    73
1070
     0
1070
    74
1070
     0
1070
    77
1070
     3
1070
   140
1040
6.0
1070
   141
1040
150.0
1070
   147
1040
2.0
1070
   172
1070
     1
1070
   173
1070
     1
1070
   176
1070
   256
1070
   177
1070
   256
1070
   178
1070
   256
1070
   271
1070
     0
1070
   272
1070
     0
1070
   341
1005
6D
1070
     6
1000
OPEN
1070
     7
1000
OPEN
1070
   371
1070
    -1
1070
   372
1070
    -1
1002
}
  0
DIMENSION
  5
5676
330
5532
100
AcDbEntity
  8
SUNPOU
100
AcDbDimension
  2
*D10
 10
610.0769369047092
 20
319.6559342028791
 30
0.0
 11
570.0769369047093
 21
324.6559342028791
 31
0.0
 12
-0.8000005306130333
 22
0.799997491774775
 32
0.0
  3
STANDARD
100
AcDbAlignedDimension
 13
530.0769369047093
 23
266.734451373123
 33
0.0
 14
610.0769369047092
 24
266.202213062423
 34
0.0
100
AcDbRotatedDimension
1001
ACAD
1000
DSTYLE
1002
{
1070
    41
1040
7.0
1070
    42
1040
6.0
1070
    43
1040
14.0
1070
    44
1040
3.0
1070
    73
1070
     0
1070
    74
1070
     0
1070
    77
1070
     3
1070
   140
1040
6.0
1070
   141
1040
150.0
1070
   147
1040
2.0
1070
   172
1070
     1
1070
   173
1070
     1
1070
   176
1070
   256
1070
   177
1070
   256
1070
   178
1070
   256
1070
   271
1070
     0
1070
   272
1070
     0
1070
   341
1005
6D
1070
     6
1000
OPEN
1070
     7
1000
OPEN
1070
   371
1070
    -1
1070
   372
1070
    -1
1002
}
  0
LINE
  5
5677
330
5532
100
AcDbEntity
  8
SEIHIN
100
AcDbLine
 10
539.7279475279094
 20
276.728359838623
 30
0.0
 11
570.0769369047093
 21
277.7881699009231
 31
0.0
  0
ARC
  5
5678
330
5532
100
AcDbEntity
  8
SEIHIN
100
AcDbCircle
 10
561.0769369048093
 20
260.188169900923
 30
0.0
 40
2.0
100
AcDbArc
 50
90.0
 51
180.0
  0
ARC
  5
5679
330
5532
100
AcDbEntity
  8
SEIHIN
100
AcDbCircle
 10
561.0769369048093
 20
267.188169900923
 30
0.0
 40
2.0
100
AcDbArc
 50
180.0
 51
270.0
  0
ARC
  5
567A
330
5532
100
AcDbEntity
  8
SEIHIN
100
AcDbCircle
 10
561.0769369048093
 20
270.469616165423
 30
0.0
 40
2.0
100
AcDbArc
 50
91.99999999999715
 51
180.0
  0
DIMENSION
  5
567B
330
5532
100
AcDbEntity
  8
SUNPOU
100
AcDbDimension
  2
*D15
 10
509.622142553122
 20
258.088169900923
 30
0.0
 11
504.622142553122
 21
267.9381673889179
 31
0.0
 12
-0.8000005306130333
 22
0.799997491774775
 32
0.0
  3
STANDARD
100
AcDbAlignedDimension
 13
570.0770327685363
 23
277.7881648769128
 33
0.0
 14
531.9798369047093
 24
258.088169900923
 34
0.0
 50
90.0
100
AcDbRotatedDimension
1001
ACAD
1000
DSTYLE
1002
{
1070
    41
1040
7.0
1070
    42
1040
6.0
1070
    43
1040
14.0
1070
    44
1040
3.0
1070
    73
1070
     0
1070
    74
1070
     0
1070
    77
1070
     3
1070
   140
1040
6.0
1070
   141
1040
150.0
1070
   147
1040
2.0
1070
   172
1070
     1
1070
   173
1070
     1
1070
   176
1070
   256
1070
   177
1070
   256
1070
   178
1070
   256
1070
   271
1070
     0
1070
   272
1070
     0
1070
   341
1005
6D
1070
     6
1000
OPEN
1070
     7
1000
OPEN
1070
   371
1070
    -1
1070
   372
1070
    -1
1002
}
  0
LINE
  5
567C
330
5532
100
AcDbEntity
  8
SEIHIN
100
AcDbLine
 10
556.0769369048093
 20
242.129764479623
 30
0.0
 11
556.0769369048093
 21
260.188169900923
 31
0.0
  0
LINE
  5
567D
330
5532
100
AcDbEntity
  8
CENTER_L
  6
CENTER
 62
     1
 48
5.0
100
AcDbLine
 10
538.0769369047093
 20
263.7398699009231
 30
0.0
 11
538.0769369047093
 21
251.8033699009231
 31
0.0
  0
LINE
  5
567E
330
5532
100
AcDbEntity
  8
SEIHIN
100
AcDbLine
 10
530.0769369047093
 20
253.206950420923
 30
0.0
 11
530.0769369047093
 21
266.734452262823
 31
0.0
  0
ARC
  5
567F
330
5532
100
AcDbEntity
  8
SEIHIN
100
AcDbCircle
 10
538.0769369047093
 20
258.088169900923
 30
0.0
 40
7.099999999999999
100
AcDbArc
 50
244.5110969290966
 51
22.50202280819717
  0
ARC
  5
5680
330
5532
100
AcDbEntity
  8
SEIHIN
100
AcDbCircle
 10
543.0769369048094
 20
230.088169900923
 30
0.0
 40
16.0
100
AcDbArc
 50
45.09912784399673
 51
88.00000000000286
  0
ARC
  5
5681
330
5532
100
AcDbEntity
  8
SEIHIN
100
AcDbCircle
 10
543.0769369048094
 20
230.088169900923
 30
0.0
 40
13.0
100
AcDbArc
 50
0.0
 51
87.99984215870036
  0
ARC
  5
5682
330
5532
100
AcDbEntity
  8
SEIHIN
100
AcDbCircle
 10
555.0769369048094
 20
242.129764479623
 30
0.0
 40
1.0
100
AcDbArc
 50
225.0991278439967
 51
0.0
  0
ARC
  5
5683
330
5532
100
AcDbEntity
  8
SEIHIN
100
AcDbCircle
 10
540.0769369047093
 20
253.206951728223
 30
0.0
 40
10.0
100
AcDbArc
 50
180.0000074901991
 51
268.0000567334975
  0
LINE
  5
5684
330
5532
100
AcDbEntity
  8
SEIHIN
100
AcDbLine
 10
539.8326404278093
 20
246.2112159391231
 30
0.0
 11
543.6353288520092
 21
246.078423133223
 31
0.0
  0
LINE
  5
5685
330
5532
100
AcDbEntity
  8
SEIHIN
100
AcDbLine
 10
543.5306661532092
 20
243.0802494022231
 30
0.0
 11
539.7279518335092
 21
243.213043112423
 31
0.0
  0
ARC
  5
5686
330
5532
100
AcDbEntity
  8
SEIHIN
100
AcDbCircle
 10
534.5912130540093
 20
250.776553852623
 30
0.0
 40
1.0
100
AcDbArc
 50
64.51109692909669
 51
203.8952826952004
  0
ARC
  5
5687
330
5532
100
AcDbEntity
  8
SEIHIN
100
AcDbCircle
 10
540.0769369047093
 20
253.206951728223
 30
0.0
 40
7.0
100
AcDbArc
 50
203.8952826952004
 51
268.0000000000029
  0
LINE
  5
5688
330
5532
100
AcDbEntity
  8
SEIHIN
100
AcDbLine
 10
556.0769369048093
 20
267.188169900923
 30
0.0
 11
556.0769369048093
 21
270.225170778923
 31
0.0
  0
ARC
  5
5689
330
5532
100
AcDbEntity
  8
SEIHIN
100
AcDbCircle
 10
540.0769369047093
 20
266.734451373123
 30
0.0
 40
7.0
100
AcDbArc
 50
145.1301023538007
 51
180.0
  0
ARC
  5
568A
330
5532
100
AcDbEntity
  8
SEIHIN
100
AcDbCircle
 10
540.0769369047093
 20
266.734451373123
 30
0.0
 40
10.0
100
AcDbArc
 50
91.99996795099989
 51
179.999994902099
  0
LINE
  5
568B
330
5532
100
AcDbEntity
  8
SEIHIN
100
AcDbLine
 10
538.0769369047093
 20
265.188169900923
 30
0.0
 11
554.0769369048093
 21
265.188169900923
 31
0.0
  0
LINE
  5
568C
330
5532
100
AcDbEntity
  8
CENTER_L
  6
CENTER
 62
     1
 48
5.0
100
AcDbLine
 10
531.9798369047093
 20
258.088169900923
 30
0.0
 11
544.7689369047093
 21
258.088169900923
 31
0.0
  0
ARC
  5
568D
330
5532
100
AcDbEntity
  8
SEIHIN
100
AcDbCircle
 10
534.0769369047093
 20
265.1316065620231
 30
0.0
 40
1.0
100
AcDbArc
 50
180.0
 51
299.5924416712982
  0
LINE
  5
568E
330
5532
100
AcDbEntity
  8
SEIHIN
100
AcDbLine
 10
533.0769369047093
 20
266.734451373123
 30
0.0
 11
533.0769369047093
 21
265.1316065620231
 31
0.0
  0
ARC
  5
568F
330
5532
100
AcDbEntity
  8
SEIHIN
100
AcDbCircle
 10
538.0769369047093
 20
258.088169900923
 30
0.0
 40
7.099999999999999
100
AcDbArc
 50
90.0
 51
119.5924416712982
  0
CIRCLE
  5
5690
330
5532
100
AcDbEntity
  8
SEIHIN
100
AcDbCircle
 10
538.0769369047093
 20
258.088169900923
 30
0.0
 40
2.1
  0
LINE
  5
5691
330
5532
100
AcDbEntity
  8
SEIHIN
100
AcDbLine
 10
554.0769369048093
 20
262.188169900923
 30
0.0
 11
545.5602516782094
 21
262.188169900923
 31
0.0
  0
ARC
  5
5692
330
5532
100
AcDbEntity
  8
SEIHIN
100
AcDbCircle
 10
545.5602516782094
 20
261.188169900923
 30
0.0
 40
1.0
100
AcDbArc
 50
90.0
 51
202.5020228081972
  0
ARC
  5
5693
330
5532
100
AcDbEntity
  8
SEIHIN
100
AcDbCircle
 10
554.0769369048093
 20
260.188169900923
 30
0.0
 40
2.0
100
AcDbArc
 50
0.0
 51
90.0
  0
ARC
  5
5694
330
5532
100
AcDbEntity
  8
SEIHIN
100
AcDbCircle
 10
554.0769369048093
 20
267.188169900923
 30
0.0
 40
2.0
100
AcDbArc
 50
270.0
 51
0.0
  0
LINE
  5
5695
330
5532
100
AcDbEntity
  8
SEIHIN
100
AcDbLine
 10
554.0071379114092
 20
272.223952433023
 30
0.0
 11
535.9048761131093
 21
271.5918075214231
 31
0.0
  0
ARC
  5
5696
330
5532
100
AcDbEntity
  8
SEIHIN
100
AcDbCircle
 10
535.9746751065093
 20
269.593025867423
 30
0.0
 40
2.0
100
AcDbArc
 50
91.99999999999715
 51
145.1301023538007
  0
ARC
  5
5697
330
5532
100
AcDbEntity
  8
SEIHIN
100
AcDbCircle
 10
554.0769369048093
 20
270.225170778923
 30
0.0
 40
2.0
100
AcDbArc
 50
0.0
 51
91.99999999999715
  0
LINE
  5
5698
330
5532
100
AcDbEntity
  8
SEIHIN
100
AcDbLine
 10
610.0769369047092
 20
254.374126739323
 30
0.0
 11
610.0769369047092
 21
266.202213062423
 31
0.0
  0
LINE
  5
5699
330
5532
100
AcDbEntity
  8
SEIHIN
100
AcDbLine
 10
584.0769369047093
 20
260.188169900923
 30
0.0
 11
584.0769369047093
 21
242.621898877723
 31
0.0
  0
ARC
  5
569A
330
5532
100
AcDbEntity
  8
SEIHIN
100
AcDbCircle
 10
602.0769369047093
 20
258.088169900923
 30
0.0
 40
7.099999999999999
100
AcDbArc
 50
157.4979771918024
 51
287.775094675002
  0
LINE
  5
569B
330
5532
100
AcDbEntity
  8
CENTER_L
  6
CENTER
 62
     1
 48
5.0
100
AcDbLine
 10
602.0769369047093
 20
263.7398699009231
 30
0.0
 11
602.0769369047093
 21
251.8033699009231
 31
0.0
  0
ARC
  5
569C
330
5532
100
AcDbEntity
  8
SEIHIN
100
AcDbCircle
 10
598.2863731112092
 20
230.088169900923
 30
0.0
 40
17.2094362065
100
AcDbArc
 50
97.38926037350184
 51
136.5035557899984
  0
ARC
  5
569D
330
5532
100
AcDbEntity
  8
SEIHIN
100
AcDbCircle
 10
598.2863731112092
 20
230.088169900923
 30
0.0
 40
14.2094362065
100
AcDbArc
 50
97.83068455660135
 51
180.0
  0
ARC
  5
569E
330
5532
100
AcDbEntity
  8
SEIHIN
100
AcDbCircle
 10
585.0769369047092
 20
242.621898877723
 30
0.0
 40
1.0
100
AcDbArc
 50
180.0
 51
316.5035557899983
  0
ARC
  5
569F
330
5532
100
AcDbEntity
  8
SEIHIN
100
AcDbCircle
 10
600.0769369047093
 20
254.374126739323
 30
0.0
 40
10.0
100
AcDbArc
 50
272.9999999999991
 51
0.0
  0
ARC
  5
56A0
330
5532
100
AcDbEntity
  8
SEIHIN
100
AcDbCircle
 10
600.0769369047093
 20
254.374126739323
 30
0.0
 40
7.0
100
AcDbArc
 50
272.9999999999991
 51
318.198902274199
  0
LINE
  5
56A1
330
5532
100
AcDbEntity
  8
SEIHIN
100
AcDbLine
 10
600.6002964671092
 20
244.387831391823
 30
0.0
 11
596.3503922122092
 21
244.165103347623
 31
0.0
  0
LINE
  5
56A2
330
5532
100
AcDbEntity
  8
SEIHIN
100
AcDbLine
 10
596.0730724487093
 20
247.154686672623
 30
0.0
 11
600.4432885984092
 21
247.383719996023
 31
0.0
  0
ARC
  5
56A3
330
5532
100
AcDbEntity
  8
SEIHIN
100
AcDbCircle
 10
604.5497162817094
 20
250.3748462234231
 30
0.0
 40
1.0
100
AcDbArc
 50
318.198902274199
 51
107.775094675002
  0
LINE
  5
56A4
330
5532
100
AcDbEntity
  8
SEIHIN
100
AcDbLine
 10
586.0769369047093
 20
265.188169900923
 30
0.0
 11
602.0769369047093
 21
265.188169900923
 31
0.0
  0
LINE
  5
56A5
330
5532
100
AcDbEntity
  8
SEIHIN
100
AcDbLine
 10
594.5936221312092
 20
262.188169900923
 30
0.0
 11
586.0769369047093
 21
262.188169900923
 31
0.0
  0
LINE
  5
56A6
330
5532
100
AcDbEntity
  8
SEIHIN
100
AcDbLine
 10
605.2308822904095
 20
270.938967960223
 30
0.0
 11
586.1816088172092
 21
271.937298079923
 31
0.0
  0
LINE
  5
56A7
330
5532
100
AcDbEntity
  8
SEIHIN
100
AcDbLine
 10
570.0769369047093
 20
277.7881699009231
 30
0.0
 11
600.6002964671092
 21
276.1885084099231
 31
0.0
  0
LINE
  5
56A8
330
5532
100
AcDbEntity
  8
SEIHIN
100
AcDbLine
 10
572.5769369047092
 20
270.542728472123
 30
0.0
 11
572.5769369047092
 21
267.188169900923
 31
0.0
  0
LINE
  5
56A9
330
5532
100
AcDbEntity
  8
SEIHIN
100
AcDbLine
 10
581.0769369047092
 20
267.188169900923
 30
0.0
 11
581.0769369047092
 21
270.306893465423
 31
0.0
  0
LINE
  5
56AA
330
5532
100
AcDbEntity
  8
SEIHIN
100
AcDbLine
 10
584.0769369047093
 20
269.940039010423
 30
0.0
 11
584.0769369047093
 21
267.188169900923
 31
0.0
  0
LINE
  5
56AB
330
5532
100
AcDbEntity
  8
SEIHIN
100
AcDbLine
 10
559.0769369048094
 20
270.469616165423
 30
0.0
 11
559.0769369048094
 21
267.188169900923
 31
0.0
  0
LINE
  5
56AC
330
5532
100
AcDbEntity
  8
SEIHIN
100
AcDbLine
 10
567.5769369047093
 20
267.188169900923
 30
0.0
 11
567.5769369047093
 21
270.626759628123
 31
0.0
  0
LINE
  5
56AD
330
5532
100
AcDbEntity
  8
SEIHIN
100
AcDbLine
 10
579.0769369047093
 20
262.188169900923
 30
0.0
 11
574.5769369047093
 21
262.188169900923
 31
0.0
  0
LINE
  5
56AE
330
5532
100
AcDbEntity
  8
SEIHIN
100
AcDbLine
 10
574.5769369047093
 20
265.188169900923
 30
0.0
 11
579.0769369047093
 21
265.188169900923
 31
0.0
  0
ARC
  5
56AF
330
5532
100
AcDbEntity
  8
SEIHIN
100
AcDbCircle
 10
574.5769369047093
 20
260.188169900923
 30
0.0
 40
2.0
100
AcDbArc
 50
90.0
 51
180.0
  0
ARC
  5
56B0
330
5532
100
AcDbEntity
  8
SEIHIN
100
AcDbCircle
 10
574.5769369047093
 20
267.188169900923
 30
0.0
 40
2.0
100
AcDbArc
 50
180.0
 51
270.0
  0
LINE
  5
56B1
330
5532
100
AcDbEntity
  8
SEIHIN
100
AcDbLine
 10
565.5769369047093
 20
262.188169900923
 30
0.0
 11
561.0769369048093
 21
262.188169900923
 31
0.0
  0
ARC
  5
56B2
330
5532
100
AcDbEntity
  8
SEIHIN
100
AcDbCircle
 10
565.5769369047093
 20
260.188169900923
 30
0.0
 40
2.0
100
AcDbArc
 50
0.0
 51
90.0
  0
LINE
  5
56B3
330
5532
100
AcDbEntity
  8
SEIHIN
100
AcDbLine
 10
561.0769369048093
 20
265.188169900923
 30
0.0
 11
565.5769369047093
 21
265.188169900923
 31
0.0
  0
ARC
  5
56B4
330
5532
100
AcDbEntity
  8
SEIHIN
100
AcDbCircle
 10
565.5769369047093
 20
267.188169900923
 30
0.0
 40
2.0
100
AcDbArc
 50
270.0
 51
0.0
  0
ARC
  5
56B5
330
5532
100
AcDbEntity
  8
SEIHIN
100
AcDbCircle
 10
586.0769369047093
 20
267.188169900923
 30
0.0
 40
2.0
100
AcDbArc
 50
180.0
 51
270.0
  0
ARC
  5
56B6
330
5532
100
AcDbEntity
  8
SEIHIN
100
AcDbCircle
 10
586.0769369047093
 20
260.188169900923
 30
0.0
 40
2.0
100
AcDbArc
 50
90.0
 51
180.0
  0
ARC
  5
56B7
330
5532
100
AcDbEntity
  8
SEIHIN
100
AcDbCircle
 10
579.0769369047093
 20
260.188169900923
 30
0.0
 40
2.0
100
AcDbArc
 50
0.0
 51
90.0
  0
ARC
  5
56B8
330
5532
100
AcDbEntity
  8
SEIHIN
100
AcDbCircle
 10
579.0769369047093
 20
267.188169900923
 30
0.0
 40
2.0
100
AcDbArc
 50
270.0
 51
0.0
  0
LINE
  5
56B9
330
5532
100
AcDbEntity
  8
SEIHIN
100
AcDbLine
 10
579.1816088172092
 20
272.3041525349231
 30
0.0
 11
574.6816088172092
 21
272.539987541623
 31
0.0
  0
ARC
  5
56BA
330
5532
100
AcDbEntity
  8
SEIHIN
100
AcDbCircle
 10
574.5769369047093
 20
270.542728472123
 30
0.0
 40
2.0
100
AcDbArc
 50
86.99999999990309
 51
180.0
  0
LINE
  5
56BB
330
5532
100
AcDbEntity
  8
SEIHIN
100
AcDbLine
 10
565.5071379113094
 20
272.6255412821231
 30
0.0
 11
561.0071379114092
 21
272.4683978194231
 31
0.0
  0
ARC
  5
56BC
330
5532
100
AcDbEntity
  8
SEIHIN
100
AcDbCircle
 10
565.5769369047093
 20
270.626759628123
 30
0.0
 40
2.0
100
AcDbArc
 50
0.0
 51
91.99999999999715
  0
ARC
  5
56BD
330
5532
100
AcDbEntity
  8
SEIHIN
100
AcDbCircle
 10
586.0769369047093
 20
269.940039010423
 30
0.0
 40
2.0
100
AcDbArc
 50
86.99999999990309
 51
180.0
  0
ARC
  5
56BE
330
5532
100
AcDbEntity
  8
SEIHIN
100
AcDbCircle
 10
579.0769369047093
 20
270.306893465423
 30
0.0
 40
2.0
100
AcDbArc
 50
0.0
 51
86.99999999990309
  0
ARC
  5
56BF
330
5532
100
AcDbEntity
  8
SEIHIN
100
AcDbCircle
 10
600.0769369047093
 20
266.202213062423
 30
0.0
 40
10.0
100
AcDbArc
 50
0.0
 51
87.00000000000093
  0
ARC
  5
56C0
330
5532
100
AcDbEntity
  8
SEIHIN
100
AcDbCircle
 10
600.0769369047093
 20
266.202213062423
 30
0.0
 40
7.0
100
AcDbArc
 50
0.0
 51
42.5846914026972
  0
LINE
  5
56C1
330
5532
100
AcDbEntity
  8
SEIHIN
100
AcDbLine
 10
607.0769369047093
 20
265.1316065620231
 30
0.0
 11
607.0769369047093
 21
266.202213062423
 31
0.0
  0
ARC
  5
56C2
330
5532
100
AcDbEntity
  8
SEIHIN
100
AcDbCircle
 10
594.5936221312092
 20
261.188169900923
 30
0.0
 40
1.0
100
AcDbArc
 50
337.4979771918028
 51
90.0
  0
ARC
  5
56C3
330
5532
100
AcDbEntity
  8
SEIHIN
100
AcDbCircle
 10
602.0769369047093
 20
258.088169900923
 30
0.0
 40
7.099999999999999
100
AcDbArc
 50
60.40755832889653
 51
90.0
  0
CIRCLE
  5
56C4
330
5532
100
AcDbEntity
  8
SEIHIN
100
AcDbCircle
 10
602.0769369047093
 20
258.088169900923
 30
0.0
 40
2.1
  0
LINE
  5
56C5
330
5532
100
AcDbEntity
  8
CENTER_L
  6
CENTER
 62
     1
 48
5.0
100
AcDbLine
 10
595.9798369047093
 20
258.088169900923
 30
0.0
 11
608.7689369047093
 21
258.088169900923
 31
0.0
  0
ARC
  5
56C6
330
5532
100
AcDbEntity
  8
SEIHIN
100
AcDbCircle
 10
606.0769369047093
 20
265.1316065620231
 30
0.0
 40
1.0
100
AcDbArc
 50
240.4075583288965
 51
0.0
  0
DIMENSION
  5
56C7
330
5532
100
AcDbEntity
  8
SUNPOU
100
AcDbDimension
  2
*D9
 10
206.693023279603
 20
373.494916795923
 30
0.0
 11
201.6930232796029
 21
387.4949167959231
 31
0.0
 12
-0.8000005306130333
 22
0.799997491774775
 32
0.0
  3
STANDARD
100
AcDbAlignedDimension
 13
235.290998716285
 23
401.4949167959231
 33
0.0
 14
234.046534337885
 24
373.494916795923
 34
0.0
 50
90.0
100
AcDbRotatedDimension
1001
ACAD
1000
DSTYLE
1002
{
1070
    41
1040
7.0
1070
    42
1040
6.0
1070
    43
1040
14.0
1070
    44
1040
3.0
1070
    73
1070
     0
1070
    74
1070
     0
1070
    77
1070
     3
1070
   140
1040
6.0
1070
   141
1040
150.0
1070
   147
1040
2.0
1070
   172
1070
     1
1070
   173
1070
     1
1070
   176
1070
   256
1070
   177
1070
   256
1070
   178
1070
   256
1070
   271
1070
     0
1070
   272
1070
     0
1070
   341
1005
6D
1070
     6
1000
OPEN
1070
     7
1000
OPEN
1070
   371
1070
    -1
1070
   372
1070
    -1
1002
}
  0
LINE
  5
56C8
330
5532
100
AcDbEntity
  8
CENTER_L
  6
CENTER
 62
     1
 48
5.0
100
AcDbLine
 10
223.9474708248849
 20
387.4948167959231
 30
0.0
 11
379.4438708248849
 21
387.4948167959231
 31
0.0
  0
LINE
  5
56C9
330
5532
100
AcDbEntity
  8
SEIHIN
100
AcDbLine
 10
361.157385564285
 20
401.4949167959231
 30
0.0
 11
235.5757207736851
 21
401.4949167959231
 31
0.0
  0
LINE
  5
56CA
330
5532
100
AcDbEntity
  8
SEIHIN
100
AcDbLine
 10
361.1364952138849
 20
373.494916795923
 30
0.0
 11
235.922933341485
 21
373.494916795923
 31
0.0
  0
LINE
  5
56CB
330
5532
100
AcDbEntity
  8
SEIHIN
100
AcDbLine
 10
235.5757207736851
 20
401.4949167959231
 30
0.0
 11
236.6098705161848
 21
387.4949036550231
 31
0.0
  0
ARC
  5
56CC
330
5532
100
AcDbEntity
  8
SEIHIN
100
AcDbCircle
 10
258.4948371043851
 20
387.4949167959231
 30
0.0
 40
30.0
100
AcDbArc
 50
154.6230664748017
 51
205.3769335251982
  0
LINE
  5
56CD
330
5532
100
AcDbEntity
  8
SEIHIN
100
AcDbLine
 10
236.6120155993848
 20
387.4949167959231
 30
0.0
 11
235.922933341485
 21
373.494916795923
 31
0.0
  0
ARC
  5
56CE
330
5532
100
AcDbEntity
  8
SEIHIN
100
AcDbCircle
 10
233.196615823085
 20
375.494916795923
 30
0.0
 40
2.0
100
AcDbArc
 50
205.3769335251982
 51
270.0
  0
LINE
  5
56CF
330
5532
100
AcDbEntity
  8
SEIHIN
100
AcDbLine
 10
235.351123783585
 20
373.494916795923
 30
0.0
 11
234.851377373285
 21
373.494916795923
 31
0.0
  0
LINE
  5
56D0
330
5532
100
AcDbEntity
  8
SEIHIN
100
AcDbLine
 10
235.922933341485
 20
373.494916795923
 30
0.0
 11
235.351123783585
 21
373.494916795923
 31
0.0
  0
LINE
  5
56D1
330
5532
100
AcDbEntity
  8
SEIHIN
100
AcDbLine
 10
233.2416913024849
 20
373.494916795923
 30
0.0
 11
233.130668503785
 21
373.494916795923
 31
0.0
  0
LINE
  5
56D2
330
5532
100
AcDbEntity
  8
SEIHIN
100
AcDbLine
 10
234.851377373285
 20
373.494916795923
 30
0.0
 11
233.2416913024849
 21
373.494916795923
 31
0.0
  0
ARC
  5
56D3
330
5532
100
AcDbEntity
  8
SEIHIN
100
AcDbCircle
 10
233.196615823085
 20
399.494916795923
 30
0.0
 40
2.0
100
AcDbArc
 50
90.0
 51
154.6230664748017
  0
LINE
  5
56D4
330
5532
100
AcDbEntity
  8
SEIHIN
100
AcDbLine
 10
235.0062766588848
 20
401.4949167959231
 30
0.0
 11
235.5757207736851
 21
401.4949167959231
 31
0.0
  0
LINE
  5
56D5
330
5532
100
AcDbEntity
  8
SEIHIN
100
AcDbLine
 10
233.262856097785
 20
401.4949167959231
 30
0.0
 11
233.3033713243849
 21
401.4949167959231
 31
0.0
  0
LINE
  5
56D6
330
5532
100
AcDbEntity
  8
SEIHIN
100
AcDbLine
 10
234.5068473728849
 20
401.4949167959231
 30
0.0
 11
233.196615823085
 21
401.4949167959231
 31
0.0
  0
LINE
  5
56D7
330
5532
100
AcDbEntity
  8
SEIHIN
100
AcDbLine
 10
234.5068473728849
 20
401.4949167959231
 30
0.0
 11
235.0062766588848
 21
401.4949167959231
 31
0.0
  0
LINE
  5
56D8
330
5532
100
AcDbEntity
  8
SEIHIN
100
AcDbLine
 10
373.094770824885
 20
347.4949167959231
 30
0.0
 11
373.094770824885
 21
427.494916795923
 31
0.0
  0
DIMENSION
  5
56D9
330
5532
100
AcDbEntity
  8
SUNPOU
100
AcDbDimension
  2
*D1
 10
395.6368927596831
 20
347.494916795923
 30
0.0
 11
390.6368927596831
 21
387.4949167959231
 31
0.0
 12
-0.8000005306130333
 22
0.799997491774775
 32
0.0
  3
STANDARD
100
AcDbAlignedDimension
 13
373.094770824885
 23
427.494916795923
 33
0.0
 14
373.094770824885
 24
347.4949167959231
 34
0.0
 50
90.0
100
AcDbRotatedDimension
1001
ACAD
1000
DSTYLE
1002
{
1070
    41
1040
7.0
1070
    42
1040
6.0
1070
    43
1040
14.0
1070
    44
1040
3.0
1070
    73
1070
     0
1070
    74
1070
     0
1070
    77
1070
     3
1070
   140
1040
6.0
1070
   141
1040
150.0
1070
   147
1040
2.0
1070
   172
1070
     1
1070
   173
1070
     1
1070
   176
1070
   256
1070
   177
1070
   256
1070
   178
1070
   256
1070
   271
1070
     0
1070
   272
1070
     0
1070
   341
1005
6D
1070
     6
1000
OPEN
1070
     7
1000
OPEN
1070
   371
1070
    -1
1070
   372
1070
    -1
1002
}
  0
LINE
  5
56DA
330
5532
100
AcDbEntity
  8
SEIHIN
100
AcDbLine
 10
366.136483154785
 20
368.5058981435231
 30
0.0
 11
366.161432784685
 21
357.145921828923
 31
0.0
  0
LINE
  5
56DB
330
5532
100
AcDbEntity
  8
SEIHIN
100
AcDbLine
 10
363.3388522324851
 20
357.238237094723
 30
0.0
 11
363.3141053522849
 21
368.5058981435231
 31
0.0
  0
LINE
  5
56DC
330
5532
100
AcDbEntity
  8
SEIHIN
100
AcDbLine
 10
366.426159938185
 20
348.470588756523
 30
0.0
 11
366.515715420485
 21
347.776959581223
 31
0.0
  0
LINE
  5
56DD
330
5532
100
AcDbEntity
  8
SEIHIN
100
AcDbLine
 10
363.7736329854849
 20
350.152155593223
 30
0.0
 11
366.6030621157849
 21
347.503757092923
 31
0.0
  0
LINE
  5
56DE
330
5532
100
AcDbEntity
  8
SEIHIN
100
AcDbLine
 10
366.623718629685
 20
347.4949167959231
 30
0.0
 11
373.094770824885
 21
347.4949167959231
 31
0.0
  0
LINE
  5
56DF
330
5532
100
AcDbEntity
  8
SEIHIN
100
AcDbLine
 10
366.515715420485
 20
347.776959581223
 30
0.0
 11
366.623718629685
 21
347.4949167959231
 31
0.0
  0
LINE
  5
56E0
330
5532
100
AcDbEntity
  8
CENTER_L
  6
CENTER
 62
     1
 48
5.0
100
AcDbLine
 10
356.1778243237413
 20
355.4948167959231
 30
0.0
 11
379.4438708248849
 21
355.494816795923
 31
0.0
  0
LINE
  5
56E1
330
5532
100
AcDbEntity
  8
SEIHIN
100
AcDbLine
 10
366.253306268685
 20
351.510505671323
 30
0.0
 11
366.2765433357849
 21
350.888142000323
 31
0.0
  0
LINE
  5
56E2
330
5532
100
AcDbEntity
  8
SEIHIN
100
AcDbLine
 10
366.2765433357849
 20
350.888142000323
 30
0.0
 11
366.302392154485
 21
350.301518792523
 31
0.0
  0
LINE
  5
56E3
330
5532
100
AcDbEntity
  8
SEIHIN
100
AcDbLine
 10
366.302392154485
 20
350.301518792523
 30
0.0
 11
366.3550521828849
 21
349.367996947323
 31
0.0
  0
LINE
  5
56E4
330
5532
100
AcDbEntity
  8
SEIHIN
100
AcDbLine
 10
366.3550521828849
 20
349.367996947323
 30
0.0
 11
366.426159938185
 21
348.470588756523
 31
0.0
  0
LINE
  5
56E5
330
5532
100
AcDbEntity
  8
SEIHIN
100
AcDbLine
 10
366.172187456885
 20
355.3335162743231
 30
0.0
 11
366.199265575985
 21
353.537875883623
 31
0.0
  0
LINE
  5
56E6
330
5532
100
AcDbEntity
  8
SEIHIN
100
AcDbLine
 10
366.199265575985
 20
353.537875883623
 30
0.0
 11
366.214667388685
 21
352.840702768823
 31
0.0
  0
LINE
  5
56E7
330
5532
100
AcDbEntity
  8
SEIHIN
100
AcDbLine
 10
366.2326809528849
 20
352.163154715323
 30
0.0
 11
366.253306268685
 21
351.510505671323
 31
0.0
  0
LINE
  5
56E8
330
5532
100
AcDbEntity
  8
SEIHIN
100
AcDbLine
 10
366.214667388685
 20
352.840702768823
 30
0.0
 11
366.2326809528849
 21
352.163154715323
 31
0.0
  0
LINE
  5
56E9
330
5532
100
AcDbEntity
  8
SEIHIN
100
AcDbLine
 10
366.161432784685
 20
357.145921828923
 30
0.0
 11
366.172187456885
 21
355.3335162743231
 31
0.0
  0
LINE
  5
56EA
330
5532
100
AcDbEntity
  8
SEIHIN
100
AcDbLine
 10
363.548938799385
 20
351.330379311523
 30
0.0
 11
363.479811602285
 21
352.204298235123
 31
0.0
  0
LINE
  5
56EB
330
5532
100
AcDbEntity
  8
SEIHIN
100
AcDbLine
 10
363.7739501098849
 20
350.181039945023
 30
0.0
 11
363.7134939366849
 21
350.272094428723
 31
0.0
  0
LINE
  5
56EC
330
5532
100
AcDbEntity
  8
SEIHIN
100
AcDbLine
 10
363.7134939366849
 20
350.272094428723
 30
0.0
 11
363.627996927885
 21
350.678442283323
 31
0.0
  0
LINE
  5
56ED
330
5532
100
AcDbEntity
  8
SEIHIN
100
AcDbLine
 10
363.627996927885
 20
350.678442283323
 30
0.0
 11
363.548938799385
 21
351.330379311523
 31
0.0
  0
LINE
  5
56EE
330
5532
100
AcDbEntity
  8
SEIHIN
100
AcDbLine
 10
363.378732685685
 20
354.505758005523
 30
0.0
 11
363.3502089154849
 21
355.849676362823
 31
0.0
  0
LINE
  5
56EF
330
5532
100
AcDbEntity
  8
SEIHIN
100
AcDbLine
 10
363.422503549985
 20
353.271465066523
 30
0.0
 11
363.378732685685
 21
354.505758005523
 31
0.0
  0
LINE
  5
56F0
330
5532
100
AcDbEntity
  8
SEIHIN
100
AcDbLine
 10
363.479811602285
 20
352.204298235123
 30
0.0
 11
363.422503549985
 21
353.271465066523
 31
0.0
  0
LINE
  5
56F1
330
5532
100
AcDbEntity
  8
SEIHIN
100
AcDbLine
 10
363.3502089154849
 20
355.849676362823
 30
0.0
 11
363.3388522324851
 21
357.238237094723
 31
0.0
  0
ARC
  5
56F2
330
5532
100
AcDbEntity
  8
SEIHIN
100
AcDbCircle
 10
361.1364952138849
 20
368.494916795923
 30
0.0
 40
5.0
100
AcDbArc
 50
0.1258370751010428
 51
90.0
  0
ARC
  5
56F3
330
5532
100
AcDbEntity
  8
SEIHIN
100
AcDbCircle
 10
358.314117411385
 20
368.494916795923
 30
0.0
 40
5.0
100
AcDbArc
 50
0.1258370751010428
 51
90.0
  0
LINE
  5
56F4
330
5532
100
AcDbEntity
  8
SEIHIN
100
AcDbLine
 10
366.1953947173849
 20
418.018276358323
 30
0.0
 11
366.157358404085
 21
406.478436451723
 31
0.0
  0
LINE
  5
56F5
330
5532
100
AcDbEntity
  8
SEIHIN
100
AcDbLine
 10
363.345908781185
 20
406.478436451723
 30
0.0
 11
363.383459066385
 21
417.8708202452231
 31
0.0
  0
ARC
  5
56F6
330
5532
100
AcDbEntity
  8
SEIHIN
100
AcDbCircle
 10
358.345935941385
 20
406.494916795923
 30
0.0
 40
5.0
100
AcDbArc
 50
270.0
 51
359.8111488244
  0
ARC
  5
56F7
330
5532
100
AcDbEntity
  8
SEIHIN
100
AcDbCircle
 10
361.157385564285
 20
406.494916795923
 30
0.0
 40
5.0
100
AcDbArc
 50
270.0
 51
359.8111488246003
  0
LINE
  5
56F8
330
5532
100
AcDbEntity
  8
SEIHIN
100
AcDbLine
 10
366.6465057298851
 20
427.494916795923
 30
0.0
 11
373.094770824885
 21
427.494916795923
 31
0.0
  0
LINE
  5
56F9
330
5532
100
AcDbEntity
  8
CENTER_L
  6
CENTER
 62
     1
 48
5.0
100
AcDbLine
 10
356.2021027916776
 20
419.494816795923
 30
0.0
 11
379.4438708248849
 21
419.494816795923
 31
0.0
  0
LINE
  5
56FA
330
5532
100
AcDbEntity
  8
SEIHIN
100
AcDbLine
 10
366.5421771697849
 20
427.219169368223
 30
0.0
 11
366.455575903685
 21
426.540816672123
 31
0.0
  0
LINE
  5
56FB
330
5532
100
AcDbEntity
  8
SEIHIN
100
AcDbLine
 10
366.3355552534849
 20
424.748660506023
 30
0.0
 11
366.277167449085
 21
423.245528580923
 31
0.0
  0
LINE
  5
56FC
330
5532
100
AcDbEntity
  8
SEIHIN
100
AcDbLine
 10
366.353886649485
 20
425.109906477223
 30
0.0
 11
366.3355552534849
 21
424.748660506023
 31
0.0
  0
LINE
  5
56FD
330
5532
100
AcDbEntity
  8
SEIHIN
100
AcDbLine
 10
366.455575903685
 20
426.540816672123
 30
0.0
 11
366.4258990395849
 21
426.2034019849231
 31
0.0
  0
LINE
  5
56FE
330
5532
100
AcDbEntity
  8
SEIHIN
100
AcDbLine
 10
366.4258990395849
 20
426.2034019849231
 30
0.0
 11
366.3990585424849
 21
425.8458175797231
 31
0.0
  0
LINE
  5
56FF
330
5532
100
AcDbEntity
  8
SEIHIN
100
AcDbLine
 10
366.3990585424849
 20
425.8458175797231
 30
0.0
 11
366.375054412485
 21
425.478287392023
 31
0.0
  0
LINE
  5
5700
330
5532
100
AcDbEntity
  8
SEIHIN
100
AcDbLine
 10
366.375054412485
 20
425.478287392023
 30
0.0
 11
366.353886649485
 21
425.109906477223
 31
0.0
  0
LINE
  5
5701
330
5532
100
AcDbEntity
  8
SEIHIN
100
AcDbLine
 10
366.6465057298851
 20
427.494916795923
 30
0.0
 11
366.5421771697849
 21
427.219169368223
 31
0.0
  0
LINE
  5
5702
330
5532
100
AcDbEntity
  8
SEIHIN
100
AcDbLine
 10
366.234344758285
 20
421.571086176823
 30
0.0
 11
366.2070871810849
 21
419.8045709898231
 31
0.0
  0
LINE
  5
5703
330
5532
100
AcDbEntity
  8
SEIHIN
100
AcDbLine
 10
366.2070871810849
 20
419.8045709898231
 30
0.0
 11
366.1953947173849
 21
418.018276358323
 31
0.0
  0
LINE
  5
5704
330
5532
100
AcDbEntity
  8
SEIHIN
100
AcDbLine
 10
366.277167449085
 20
423.245528580923
 30
0.0
 11
366.234344758285
 21
421.571086176823
 31
0.0
  0
LINE
  5
5705
330
5532
100
AcDbEntity
  8
SEIHIN
100
AcDbLine
 10
363.749897764985
 20
424.5513471465231
 30
0.0
 11
363.8063013969849
 21
424.635332854123
 31
0.0
  0
LINE
  5
5706
330
5532
100
AcDbEntity
  8
SEIHIN
100
AcDbLine
 10
363.5907213534849
 20
423.540144025323
 30
0.0
 11
363.667307430685
 21
424.163466986023
 31
0.0
  0
LINE
  5
5707
330
5532
100
AcDbEntity
  8
SEIHIN
100
AcDbLine
 10
363.667307430685
 20
424.163466986023
 30
0.0
 11
363.749897764985
 21
424.5513471465231
 31
0.0
  0
LINE
  5
5708
330
5532
100
AcDbEntity
  8
SEIHIN
100
AcDbLine
 10
363.5236196023849
 20
422.704924364023
 30
0.0
 11
363.5907213534849
 21
423.540144025323
 31
0.0
  0
LINE
  5
5709
330
5532
100
AcDbEntity
  8
SEIHIN
100
AcDbLine
 10
363.424493037985
 20
420.499753131523
 30
0.0
 11
363.4676152238851
 21
421.6823994231231
 31
0.0
  0
LINE
  5
570A
330
5532
100
AcDbEntity
  8
SEIHIN
100
AcDbLine
 10
363.383459066385
 20
417.8708202452231
 30
0.0
 11
363.3958075887851
 21
419.2081918037231
 31
0.0
  0
LINE
  5
570B
330
5532
100
AcDbEntity
  8
SEIHIN
100
AcDbLine
 10
363.3958075887851
 20
419.2081918037231
 30
0.0
 11
363.424493037985
 21
420.499753131523
 31
0.0
  0
LINE
  5
570C
330
5532
100
AcDbEntity
  8
SEIHIN
100
AcDbLine
 10
363.4676152238851
 20
421.6823994231231
 30
0.0
 11
363.5236196023849
 21
422.704924364023
 31
0.0
  0
LINE
  5
570D
330
5532
100
AcDbEntity
  8
SEIHIN
100
AcDbLine
 10
366.6255425302849
 20
427.485257876023
 30
0.0
 11
363.805983384185
 21
424.6639347158231
 31
0.0
  0
ENDBLK
  5
570F
330
5532
100
AcDbEntity
  8
0
100
AcDbBlockEnd
  0
BLOCK
  5
5B05
330
5AFB
100
AcDbEntity
  8
0
100
AcDbBlockBegin
  2
*D17
 70
     1
 10
0.0
 20
0.0
 30
0.0
  3
*D17
  1

  0
LINE
  5
5CBC
330
5AFB
100
AcDbEntity
  8
SUNPOU
 62
     4
100
AcDbLine
 10
804.9995957598129
 20
-673.8629550107548
 30
0.0
 11
829.534623092246
 21
-673.8629550107548
 31
0.0
  0
LINE
  5
5CBD
330
5AFB
100
AcDbEntity
  8
SUNPOU
 62
     4
100
AcDbLine
 10
801.9996769598128
 20
-737.8629579107547
 30
0.0
 11
829.534623092246
 21
-737.8629579107547
 31
0.0
  0
LINE
  5
5CBE
330
5AFB
100
AcDbEntity
  8
SUNPOU
 62
     4
100
AcDbLine
 10
826.5346230922459
 20
-680.8629550107548
 30
0.0
 11
826.5346230922459
 21
-730.8629579107547
 31
0.0
  0
INSERT
  5
5CBF
330
5AFB
100
AcDbEntity
  8
SUNPOU
 62
     4
100
AcDbBlockReference
  2
_OPEN
 10
826.5346230922459
 20
-673.8629550107548
 30
0.0
 41
7.0
 42
7.0
 43
7.0
 50
90.0
  0
INSERT
  5
5CC0
330
5AFB
100
AcDbEntity
  8
SUNPOU
 62
     4
100
AcDbBlockReference
  2
_OPEN
 10
826.5346230922459
 20
-737.8629579107547
 30
0.0
 41
7.0
 42
7.0
 43
7.0
 50
270.0
  0
MTEXT
  5
5CC1
330
5AFB
100
AcDbEntity
  8
SUNPOU
 62
     4
100
AcDbMText
 10
821.534623092246
 20
-705.8629564607545
 30
0.0
 40
6.0
 41
0.0
 71
     5
 72
     1
  1
\A1;64
 11
0.0000000000000001
 21
1.0
 31
0.0
  0
POINT
  5
5CC2
330
5AFB
100
AcDbEntity
  8
DEFPOINTS
 62
     0
100
AcDbPoint
 10
798.999595759813
 20
-673.8629550107548
 30
0.0
  0
POINT
  5
5CC3
330
5AFB
100
AcDbEntity
  8
DEFPOINTS
 62
     0
100
AcDbPoint
 10
795.9996769598128
 20
-737.8629579107547
 30
0.0
  0
POINT
  5
5CC4
330
5AFB
100
AcDbEntity
  8
DEFPOINTS
 62
     0
100
AcDbPoint
 10
826.5346230922459
 20
-737.8629579107547
 30
0.0
  0
ENDBLK
  5
5B06
330
5AFB
100
AcDbEntity
  8
0
100
AcDbBlockEnd
  0
BLOCK
  5
5B11
330
5B07
100
AcDbEntity
  8
0
100
AcDbBlockBegin
  2
*D18
 70
     1
 10
0.0
 20
0.0
 30
0.0
  3
*D18
  1

  0
LINE
  5
5CC5
330
5B07
100
AcDbEntity
  8
SUNPOU
 62
     4
100
AcDbLine
 10
804.9995957598129
 20
-673.8629550107548
 30
0.0
 11
847.2276993885065
 21
-673.8629550107548
 31
0.0
  0
LINE
  5
5CC6
330
5B07
100
AcDbEntity
  8
SUNPOU
 62
     4
100
AcDbLine
 10
800.9996769598128
 20
-761.8630550107548
 30
0.0
 11
847.2276993885065
 21
-761.8630550107548
 31
0.0
  0
LINE
  5
5CC7
330
5B07
100
AcDbEntity
  8
SUNPOU
 62
     4
100
AcDbLine
 10
844.2276993885066
 20
-680.8629550107548
 30
0.0
 11
844.2276993885066
 21
-754.8630550107548
 31
0.0
  0
INSERT
  5
5CC8
330
5B07
100
AcDbEntity
  8
SUNPOU
 62
     4
100
AcDbBlockReference
  2
_OPEN
 10
844.2276993885066
 20
-673.8629550107548
 30
0.0
 41
7.0
 42
7.0
 43
7.0
 50
90.0
  0
INSERT
  5
5CC9
330
5B07
100
AcDbEntity
  8
SUNPOU
 62
     4
100
AcDbBlockReference
  2
_OPEN
 10
844.2276993885066
 20
-761.8630550107548
 30
0.0
 41
7.0
 42
7.0
 43
7.0
 50
270.0
  0
MTEXT
  5
5CCA
330
5B07
100
AcDbEntity
  8
SUNPOU
 62
     4
100
AcDbMText
 10
839.2276993885067
 20
-717.8630050107545
 30
0.0
 40
6.0
 41
0.0
 71
     5
 72
     1
  1
\A1;88
 11
0.0000000000000001
 21
1.0
 31
0.0
  0
POINT
  5
5CCB
330
5B07
100
AcDbEntity
  8
DEFPOINTS
 62
     0
100
AcDbPoint
 10
798.999595759813
 20
-673.8629550107548
 30
0.0
  0
POINT
  5
5CCC
330
5B07
100
AcDbEntity
  8
DEFPOINTS
 62
     0
100
AcDbPoint
 10
794.9996769598128
 20
-761.8630550107548
 30
0.0
  0
POINT
  5
5CCD
330
5B07
100
AcDbEntity
  8
DEFPOINTS
 62
     0
100
AcDbPoint
 10
844.2276993885066
 20
-761.8630550107548
 30
0.0
  0
ENDBLK
  5
5B12
330
5B07
100
AcDbEntity
  8
0
100
AcDbBlockEnd
  0
BLOCK
  5
5B1D
330
5B13
100
AcDbEntity
  8
0
100
AcDbBlockBegin
  2
*D19
 70
     1
 10
0.0
 20
0.0
 30
0.0
  3
*D19
  1

  0
LINE
  5
5CCE
330
5B13
100
AcDbEntity
  8
SUNPOU
 62
     4
100
AcDbLine
 10
804.9996769598129
 20
-519.2989007722074
 30
0.0
 11
829.5346230922458
 21
-519.2989007722074
 31
0.0
  0
LINE
  5
5CCF
330
5B13
100
AcDbEntity
  8
SUNPOU
 62
     4
100
AcDbLine
 10
804.9996769598129
 20
-599.2989007722074
 30
0.0
 11
829.5346230922458
 21
-599.2989007722074
 31
0.0
  0
LINE
  5
5CD0
330
5B13
100
AcDbEntity
  8
SUNPOU
 62
     4
100
AcDbLine
 10
826.5346230922459
 20
-526.2989007722073
 30
0.0
 11
826.5346230922459
 21
-592.2989007722073
 31
0.0
  0
INSERT
  5
5CD1
330
5B13
100
AcDbEntity
  8
SUNPOU
 62
     4
100
AcDbBlockReference
  2
_OPEN
 10
826.5346230922459
 20
-519.2989007722074
 30
0.0
 41
7.0
 42
7.0
 43
7.0
 50
90.0
  0
INSERT
  5
5CD2
330
5B13
100
AcDbEntity
  8
SUNPOU
 62
     4
100
AcDbBlockReference
  2
_OPEN
 10
826.5346230922459
 20
-599.2989007722074
 30
0.0
 41
7.0
 42
7.0
 43
7.0
 50
270.0
  0
MTEXT
  5
5CD3
330
5B13
100
AcDbEntity
  8
SUNPOU
 62
     4
100
AcDbMText
 10
821.534623092246
 20
-559.2989007722073
 30
0.0
 40
6.0
 41
0.0
 71
     5
 72
     1
  1
\A1;80
 11
0.0000000000000001
 21
1.0
 31
0.0
  0
POINT
  5
5CD4
330
5B13
100
AcDbEntity
  8
DEFPOINTS
 62
     0
100
AcDbPoint
 10
798.9996769598128
 20
-519.2989007722074
 30
0.0
  0
POINT
  5
5CD5
330
5B13
100
AcDbEntity
  8
DEFPOINTS
 62
     0
100
AcDbPoint
 10
798.9996769598128
 20
-599.2989007722074
 30
0.0
  0
POINT
  5
5CD6
330
5B13
100
AcDbEntity
  8
DEFPOINTS
 62
     0
100
AcDbPoint
 10
826.5346230922459
 20
-599.2989007722074
 30
0.0
  0
ENDBLK
  5
5B1E
330
5B13
100
AcDbEntity
  8
0
100
AcDbBlockEnd
  0
BLOCK
  5
5B29
330
5B1F
100
AcDbEntity
  8
0
100
AcDbBlockBegin
  2
*D20
 70
     1
 10
0.0
 20
0.0
 30
0.0
  3
*D20
  1

  0
LINE
  5
5CD7
330
5B1F
100
AcDbEntity
  8
SUNPOU
 62
     4
100
AcDbLine
 10
654.399671859813
 20
-688.1128351107547
 30
0.0
 11
654.399671859813
 21
-650.9070195039393
 31
0.0
  0
LINE
  5
5CD8
330
5B1F
100
AcDbEntity
  8
SUNPOU
 62
     4
100
AcDbLine
 10
798.999595759813
 20
-667.8629550107548
 30
0.0
 11
798.999595759813
 21
-650.9070195039393
 31
0.0
  0
LINE
  5
5CD9
330
5B1F
100
AcDbEntity
  8
SUNPOU
 62
     4
100
AcDbLine
 10
661.399671859813
 20
-653.9070195039394
 30
0.0
 11
791.999595759813
 21
-653.9070195039394
 31
0.0
  0
INSERT
  5
5CDA
330
5B1F
100
AcDbEntity
  8
SUNPOU
 62
     4
100
AcDbBlockReference
  2
_OPEN
 10
654.399671859813
 20
-653.9070195039394
 30
0.0
 41
7.0
 42
7.0
 43
7.0
 50
180.0
  0
INSERT
  5
5CDB
330
5B1F
100
AcDbEntity
  8
SUNPOU
 62
     4
100
AcDbBlockReference
  2
_OPEN
 10
798.999595759813
 20
-653.9070195039394
 30
0.0
 41
7.0
 42
7.0
 43
7.0
  0
MTEXT
  5
5CDC
330
5B1F
100
AcDbEntity
  8
SUNPOU
 62
     4
100
AcDbMText
 10
726.699633809813
 20
-648.9070195039394
 30
0.0
 40
6.0
 41
0.0
 71
     5
 72
     1
  1
\A1;145
  0
POINT
  5
5CDD
330
5B1F
100
AcDbEntity
  8
DEFPOINTS
 62
     0
100
AcDbPoint
 10
654.399671859813
 20
-694.1128351107547
 30
0.0
  0
POINT
  5
5CDE
330
5B1F
100
AcDbEntity
  8
DEFPOINTS
 62
     0
100
AcDbPoint
 10
798.999595759813
 20
-673.8629550107548
 30
0.0
  0
POINT
  5
5CDF
330
5B1F
100
AcDbEntity
  8
DEFPOINTS
 62
     0
100
AcDbPoint
 10
798.999595759813
 20
-653.9070195039394
 30
0.0
  0
ENDBLK
  5
5B2A
330
5B1F
100
AcDbEntity
  8
0
100
AcDbBlockEnd
  0
BLOCK
  5
5B35
330
5B2B
100
AcDbEntity
  8
0
100
AcDbBlockBegin
  2
*D21
 70
     1
 10
0.0
 20
0.0
 30
0.0
  3
*D21
  1

  0
LINE
  5
5CE0
330
5B2B
100
AcDbEntity
  8
SUNPOU
 62
     4
100
AcDbLine
 10
655.149671859813
 20
-687.3628351107547
 30
0.0
 11
627.5712224961712
 21
-687.3628351107547
 31
0.0
  0
LINE
  5
5CE1
330
5B2B
100
AcDbEntity
  8
SUNPOU
 62
     4
100
AcDbLine
 10
787.9996769598128
 20
-737.8629579107547
 30
0.0
 11
627.5712224961712
 21
-737.8629579107546
 31
0.0
  0
LINE
  5
5CE2
330
5B2B
100
AcDbEntity
  8
SUNPOU
 62
     4
100
AcDbLine
 10
630.5712224961712
 20
-694.3628351107547
 30
0.0
 11
630.5712224961712
 21
-730.8629579107546
 31
0.0
  0
INSERT
  5
5CE3
330
5B2B
100
AcDbEntity
  8
SUNPOU
 62
     4
100
AcDbBlockReference
  2
_OPEN
 10
630.5712224961712
 20
-687.3628351107547
 30
0.0
 41
7.0
 42
7.0
 43
7.0
 50
90.0
  0
INSERT
  5
5CE4
330
5B2B
100
AcDbEntity
  8
SUNPOU
 62
     4
100
AcDbBlockReference
  2
_OPEN
 10
630.5712224961712
 20
-737.8629579107546
 30
0.0
 41
7.0
 42
7.0
 43
7.0
 50
270.0
  0
MTEXT
  5
5CE5
330
5B2B
100
AcDbEntity
  8
SUNPOU
 62
     4
100
AcDbMText
 10
625.5712224961713
 20
-712.6128965107546
 30
0.0
 40
6.0
 41
0.0
 71
     5
 72
     1
  1
\A1;51
 11
0.0000000000000001
 21
1.0
 31
0.0
  0
POINT
  5
5CE6
330
5B2B
100
AcDbEntity
  8
DEFPOINTS
 62
     0
100
AcDbPoint
 10
661.149671859813
 20
-687.3628351107547
 30
0.0
  0
POINT
  5
5CE7
330
5B2B
100
AcDbEntity
  8
DEFPOINTS
 62
     0
100
AcDbPoint
 10
793.9996769598129
 20
-737.8629579107547
 30
0.0
  0
POINT
  5
5CE8
330
5B2B
100
AcDbEntity
  8
DEFPOINTS
 62
     0
100
AcDbPoint
 10
630.5712224961712
 20
-737.8629579107546
 30
0.0
  0
ENDBLK
  5
5B36
330
5B2B
100
AcDbEntity
  8
0
100
AcDbBlockEnd
  0
BLOCK
  5
5B3D
330
5B37
100
AcDbEntity
  8
0
100
AcDbBlockBegin
  2
*D22
 70
     1
 10
0.0
 20
0.0
 30
0.0
  3
*D22
  1

  0
LINE
  5
5CE9
330
5B37
100
AcDbEntity
  8
SUNPOU
 62
     4
100
AcDbLine
 10
690.6508636735812
 20
-559.6995282542446
 30
0.0
 11
662.1049733896903
 21
-553.0749016788145
 31
0.0
  0
MTEXT
  5
5CEA
330
5B37
100
AcDbEntity
  8
SUNPOU
 62
     4
100
AcDbMText
 10
682.0400428779112
 20
-552.5683456577284
 30
0.0
 40
6.0
 41
0.0
 71
     5
 72
     1
  1
\A1;R35
 11
0.9741129675142522
 21
-0.2260617758945048
 31
0.0
  0
INSERT
  5
5CEB
330
5B37
100
AcDbEntity
  8
SUNPOU
 62
     4
100
AcDbBlockReference
  2
_OPEN
 10
655.2861826170905
 20
-551.4924692475529
 30
0.0
 41
7.0
 42
7.0
 43
7.0
 50
166.934677747645
  0
POINT
  5
5CEC
330
5B37
100
AcDbEntity
  8
DEFPOINTS
 62
     0
100
AcDbPoint
 10
655.2861826170905
 20
-551.4924692475529
 30
0.0
  0
POINT
  5
5CED
330
5B37
100
AcDbEntity
  8
DEFPOINTS
 62
     0
100
AcDbPoint
 10
688.9245372132544
 20
-559.2989007722072
 30
0.0
  0
ENDBLK
  5
5B3E
330
5B37
100
AcDbEntity
  8
0
100
AcDbBlockEnd
  0
BLOCK
  5
5B49
330
5B3F
100
AcDbEntity
  8
0
100
AcDbBlockBegin
  2
*D23
 70
     1
 10
0.0
 20
0.0
 30
0.0
  3
*D23
  1

  0
LINE
  5
5CEE
330
5B3F
100
AcDbEntity
  8
SUNPOU
 62
     4
100
AcDbLine
 10
653.101521958013
 20
-544.2989007722074
 30
0.0
 11
627.5712224961712
 21
-544.2989007722074
 31
0.0
  0
LINE
  5
5CEF
330
5B3F
100
AcDbEntity
  8
SUNPOU
 62
     4
100
AcDbLine
 10
653.101521958013
 20
-574.2989007722074
 30
0.0
 11
627.5712224961712
 21
-574.2989007722074
 31
0.0
  0
LINE
  5
5CF0
330
5B3F
100
AcDbEntity
  8
SUNPOU
 62
     4
100
AcDbLine
 10
630.5712224961712
 20
-551.2989007722073
 30
0.0
 11
630.5712224961712
 21
-567.2989007722073
 31
0.0
  0
INSERT
  5
5CF1
330
5B3F
100
AcDbEntity
  8
SUNPOU
 62
     4
100
AcDbBlockReference
  2
_OPEN
 10
630.5712224961712
 20
-544.2989007722074
 30
0.0
 41
7.0
 42
7.0
 43
7.0
 50
90.0
  0
INSERT
  5
5CF2
330
5B3F
100
AcDbEntity
  8
SUNPOU
 62
     4
100
AcDbBlockReference
  2
_OPEN
 10
630.5712224961712
 20
-574.2989007722074
 30
0.0
 41
7.0
 42
7.0
 43
7.0
 50
270.0
  0
MTEXT
  5
5CF3
330
5B3F
100
AcDbEntity
  8
SUNPOU
 62
     4
100
AcDbMText
 10
625.5712224961713
 20
-559.2989007722072
 30
0.0
 40
6.0
 41
0.0
 71
     5
 72
     1
  1
\A1;30
 11
0.0000000000000001
 21
1.0
 31
0.0
  0
POINT
  5
5CF4
330
5B3F
100
AcDbEntity
  8
DEFPOINTS
 62
     0
100
AcDbPoint
 10
659.1015219580131
 20
-544.2989007722074
 30
0.0
  0
POINT
  5
5CF5
330
5B3F
100
AcDbEntity
  8
DEFPOINTS
 62
     0
100
AcDbPoint
 10
659.1015219580131
 20
-574.2989007722074
 30
0.0
  0
POINT
  5
5CF6
330
5B3F
100
AcDbEntity
  8
DEFPOINTS
 62
     0
100
AcDbPoint
 10
630.5712224961712
 20
-574.2989007722074
 30
0.0
  0
ENDBLK
  5
5B4A
330
5B3F
100
AcDbEntity
  8
0
100
AcDbBlockEnd
  0
BLOCK
  5
5B55
330
5B4B
100
AcDbEntity
  8
0
100
AcDbBlockBegin
  2
*D24
 70
     1
 10
0.0
 20
0.0
 30
0.0
  3
*D24
  1

  0
LINE
  5
5CF7
330
5B4B
100
AcDbEntity
  8
SUNPOU
 62
     4
100
AcDbLine
 10
932.5221629748394
 20
-672.8629028107548
 30
0.0
 11
932.5221629748394
 21
-650.9070195039393
 31
0.0
  0
LINE
  5
5CF8
330
5B4B
100
AcDbEntity
  8
SUNPOU
 62
     4
100
AcDbLine
 10
996.5221629748393
 20
-672.8629956107547
 30
0.0
 11
996.5221629748393
 21
-650.9070195039393
 31
0.0
  0
LINE
  5
5CF9
330
5B4B
100
AcDbEntity
  8
SUNPOU
 62
     4
100
AcDbLine
 10
939.5221629748393
 20
-653.9070195039394
 30
0.0
 11
989.5221629748393
 21
-653.9070195039394
 31
0.0
  0
INSERT
  5
5CFA
330
5B4B
100
AcDbEntity
  8
SUNPOU
 62
     4
100
AcDbBlockReference
  2
_OPEN
 10
932.5221629748394
 20
-653.9070195039394
 30
0.0
 41
7.0
 42
7.0
 43
7.0
 50
180.0
  0
INSERT
  5
5CFB
330
5B4B
100
AcDbEntity
  8
SUNPOU
 62
     4
100
AcDbBlockReference
  2
_OPEN
 10
996.5221629748393
 20
-653.9070195039394
 30
0.0
 41
7.0
 42
7.0
 43
7.0
  0
MTEXT
  5
5CFC
330
5B4B
100
AcDbEntity
  8
SUNPOU
 62
     4
100
AcDbMText
 10
964.5221629748393
 20
-648.9070195039394
 30
0.0
 40
6.0
 41
0.0
 71
     5
 72
     1
  1
\A1;64
  0
POINT
  5
5CFD
330
5B4B
100
AcDbEntity
  8
DEFPOINTS
 62
     0
100
AcDbPoint
 10
932.5221629748394
 20
-678.8629028107548
 30
0.0
  0
POINT
  5
5CFE
330
5B4B
100
AcDbEntity
  8
DEFPOINTS
 62
     0
100
AcDbPoint
 10
996.5221629748393
 20
-678.8629956107548
 30
0.0
  0
POINT
  5
5CFF
330
5B4B
100
AcDbEntity
  8
DEFPOINTS
 62
     0
100
AcDbPoint
 10
996.5221629748393
 20
-653.9070195039394
 30
0.0
  0
ENDBLK
  5
5B56
330
5B4B
100
AcDbEntity
  8
0
100
AcDbBlockEnd
  0
BLOCK
  5
5B61
330
5B57
100
AcDbEntity
  8
0
100
AcDbBlockBegin
  2
*D25
 70
     1
 10
0.0
 20
0.0
 30
0.0
  3
*D25
  1

  0
LINE
  5
5D00
330
5B57
100
AcDbEntity
  8
SUNPOU
 62
     4
100
AcDbLine
 10
924.5222008748394
 20
-674.7202337107547
 30
0.0
 11
924.5222008748394
 21
-642.0634207179009
 31
0.0
  0
LINE
  5
5D01
330
5B57
100
AcDbEntity
  8
SUNPOU
 62
     4
100
AcDbLine
 10
1004.522175482472
 20
-674.0896898107568
 30
0.0
 11
1004.522175482472
 21
-642.0634207179009
 31
0.0
  0
LINE
  5
5D02
330
5B57
100
AcDbEntity
  8
SUNPOU
 62
     4
100
AcDbLine
 10
931.5222008748394
 20
-645.0634207179009
 30
0.0
 11
997.5221754824726
 21
-645.0634207179009
 31
0.0
  0
INSERT
  5
5D03
330
5B57
100
AcDbEntity
  8
SUNPOU
 62
     4
100
AcDbBlockReference
  2
_OPEN
 10
924.5222008748394
 20
-645.0634207179009
 30
0.0
 41
7.0
 42
7.0
 43
7.0
 50
180.0
  0
INSERT
  5
5D04
330
5B57
100
AcDbEntity
  8
SUNPOU
 62
     4
100
AcDbBlockReference
  2
_OPEN
 10
1004.522175482472
 20
-645.0634207179009
 30
0.0
 41
7.0
 42
7.0
 43
7.0
  0
MTEXT
  5
5D05
330
5B57
100
AcDbEntity
  8
SUNPOU
 62
     4
100
AcDbMText
 10
964.5221881786561
 20
-640.063420717901
 30
0.0
 40
6.0
 41
0.0
 71
     5
 72
     1
  1
\A1;80
  0
POINT
  5
5D06
330
5B57
100
AcDbEntity
  8
DEFPOINTS
 62
     0
100
AcDbPoint
 10
924.5222008748394
 20
-680.7202337107547
 30
0.0
  0
POINT
  5
5D07
330
5B57
100
AcDbEntity
  8
DEFPOINTS
 62
     0
100
AcDbPoint
 10
1004.522175482472
 20
-680.0896898107567
 30
0.0
  0
POINT
  5
5D08
330
5B57
100
AcDbEntity
  8
DEFPOINTS
 62
     0
100
AcDbPoint
 10
1004.522175482472
 20
-645.0634207179009
 30
0.0
  0
ENDBLK
  5
5B62
330
5B57
100
AcDbEntity
  8
0
100
AcDbBlockEnd
  0
BLOCK
  5
5B6D
330
5B63
100
AcDbEntity
  8
0
100
AcDbBlockBegin
  2
*D26
 70
     1
 10
0.0
 20
0.0
 30
0.0
  3
*D26
  1

  0
LINE
  5
5D09
330
5B63
100
AcDbEntity
  8
SUNPOU
 62
     4
100
AcDbLine
 10
949.5221846748394
 20
-764.2300446107547
 30
0.0
 11
949.5221846748394
 21
-780.9111649758529
 31
0.0
  0
LINE
  5
5D0A
330
5B63
100
AcDbEntity
  8
SUNPOU
 62
     4
100
AcDbLine
 10
979.522184634508
 20
-764.4421772107548
 30
0.0
 11
979.522184634508
 21
-780.9111649758529
 31
0.0
  0
LINE
  5
5D0B
330
5B63
100
AcDbEntity
  8
SUNPOU
 62
     4
100
AcDbLine
 10
956.5221846748395
 20
-777.9111649758529
 30
0.0
 11
972.522184634508
 21
-777.9111649758529
 31
0.0
  0
INSERT
  5
5D0C
330
5B63
100
AcDbEntity
  8
SUNPOU
 62
     4
100
AcDbBlockReference
  2
_OPEN
 10
949.5221846748394
 20
-777.9111649758529
 30
0.0
 41
7.0
 42
7.0
 43
7.0
 50
180.0
  0
INSERT
  5
5D0D
330
5B63
100
AcDbEntity
  8
SUNPOU
 62
     4
100
AcDbBlockReference
  2
_OPEN
 10
979.522184634508
 20
-777.9111649758529
 30
0.0
 41
7.0
 42
7.0
 43
7.0
  0
MTEXT
  5
5D0E
330
5B63
100
AcDbEntity
  8
SUNPOU
 62
     4
100
AcDbMText
 10
964.5221846546737
 20
-772.9111649758529
 30
0.0
 40
6.0
 41
0.0
 71
     5
 72
     1
  1
\A1;30
  0
POINT
  5
5D0F
330
5B63
100
AcDbEntity
  8
DEFPOINTS
 62
     0
100
AcDbPoint
 10
949.5221846748394
 20
-758.2300446107548
 30
0.0
  0
POINT
  5
5D10
330
5B63
100
AcDbEntity
  8
DEFPOINTS
 62
     0
100
AcDbPoint
 10
979.522184634508
 20
-758.4421772107548
 30
0.0
  0
POINT
  5
5D11
330
5B63
100
AcDbEntity
  8
DEFPOINTS
 62
     0
100
AcDbPoint
 10
979.522184634508
 20
-777.9111649758529
 30
0.0
  0
ENDBLK
  5
5B6E
330
5B63
100
AcDbEntity
  8
0
100
AcDbBlockEnd
  0
BLOCK
  5
5B7B
330
5B6F
100
AcDbEntity
  8
0
100
AcDbBlockBegin
  2
*D27
 70
     1
 10
0.0
 20
0.0
 30
0.0
  3
*D27
  1

  0
LINE
  5
5D12
330
5B6F
100
AcDbEntity
  8
SUNPOU
100
AcDbLine
 10
958.5221846748394
 20
-673.8629550107548
 30
0.0
 11
899.2392719209052
 21
-673.8629550107548
 31
0.0
  0
LINE
  5
5D13
330
5B6F
100
AcDbEntity
  8
SUNPOU
100
AcDbLine
 10
921.5221629748393
 20
-683.8629028107548
 30
0.0
 11
899.2392719209052
 21
-683.8629028107548
 31
0.0
  0
LINE
  5
5D14
330
5B6F
100
AcDbEntity
  8
SUNPOU
100
AcDbLine
 10
902.2392719209051
 20
-666.8629550107548
 30
0.0
 11
902.2392719209051
 21
-659.8629550107548
 31
0.0
  0
LINE
  5
5D15
330
5B6F
100
AcDbEntity
  8
SUNPOU
100
AcDbLine
 10
902.2392719209051
 20
-690.8629028107547
 30
0.0
 11
902.2392719209051
 21
-697.8629028107548
 31
0.0
  0
MTEXT
  5
5D16
330
5B6F
100
AcDbEntity
  8
SUNPOU
100
AcDbMText
 10
893.2392719209051
 20
-682.9405983694462
 30
0.0
 40
6.0
 41
0.0
 71
     5
 72
     1
  1
\A1;10
 11
0.0000000000000001
 21
1.0
 31
0.0
  0
LINE
  5
5D17
330
5B6F
100
AcDbEntity
  8
SUNPOU
100
AcDbLine
 10
902.2392719209051
 20
-673.8629550107548
 30
0.0
 11
902.2392719209051
 21
-683.8629028107548
 31
0.0
  0
INSERT
  5
5D18
330
5B6F
100
AcDbEntity
  8
SUNPOU
100
AcDbBlockReference
  2
_OPEN
 10
902.2392719209051
 20
-673.8629550107548
 30
0.0
 41
7.0
 42
7.0
 43
7.0
 50
270.0
  0
INSERT
  5
5D19
330
5B6F
100
AcDbEntity
  8
SUNPOU
100
AcDbBlockReference
  2
_OPEN
 10
902.2392719209051
 20
-683.8629028107548
 30
0.0
 41
7.0
 42
7.0
 43
7.0
 50
90.0
  0
POINT
  5
5D1A
330
5B6F
100
AcDbEntity
  8
DEFPOINTS
 62
     0
100
AcDbPoint
 10
964.5221846748395
 20
-673.8629550107548
 30
0.0
  0
POINT
  5
5D1B
330
5B6F
100
AcDbEntity
  8
DEFPOINTS
 62
     0
100
AcDbPoint
 10
927.5221629748394
 20
-683.8629028107548
 30
0.0
  0
POINT
  5
5D1C
330
5B6F
100
AcDbEntity
  8
DEFPOINTS
 62
     0
100
AcDbPoint
 10
902.2392719209051
 20
-683.8629028107548
 30
0.0
  0
ENDBLK
  5
5B7C
330
5B6F
100
AcDbEntity
  8
0
100
AcDbBlockEnd
  0
BLOCK
  5
5B87
330
5B7D
100
AcDbEntity
  8
0
100
AcDbBlockBegin
  2
*D28
 70
     1
 10
0.0
 20
0.0
 30
0.0
  3
*D28
  1

  0
LINE
  5
5D1D
330
5B7D
100
AcDbEntity
  8
SUNPOU
 62
     4
100
AcDbLine
 10
958.5221846748394
 20
-673.8629550107548
 30
0.0
 11
880.5876546356948
 21
-673.8629550107548
 31
0.0
  0
LINE
  5
5D1E
330
5B7D
100
AcDbEntity
  8
SUNPOU
 62
     4
100
AcDbLine
 10
958.5221846748394
 20
-761.8630550107548
 30
0.0
 11
880.5876546356948
 21
-761.8630550107548
 31
0.0
  0
LINE
  5
5D1F
330
5B7D
100
AcDbEntity
  8
SUNPOU
 62
     4
100
AcDbLine
 10
883.5876546356949
 20
-680.8629550107548
 30
0.0
 11
883.5876546356949
 21
-754.8630550107548
 31
0.0
  0
INSERT
  5
5D20
330
5B7D
100
AcDbEntity
  8
SUNPOU
 62
     4
100
AcDbBlockReference
  2
_OPEN
 10
883.5876546356949
 20
-673.8629550107548
 30
0.0
 41
7.0
 42
7.0
 43
7.0
 50
90.0
  0
INSERT
  5
5D21
330
5B7D
100
AcDbEntity
  8
SUNPOU
 62
     4
100
AcDbBlockReference
  2
_OPEN
 10
883.5876546356949
 20
-761.8630550107548
 30
0.0
 41
7.0
 42
7.0
 43
7.0
 50
270.0
  0
MTEXT
  5
5D22
330
5B7D
100
AcDbEntity
  8
SUNPOU
 62
     4
100
AcDbMText
 10
878.587654635695
 20
-717.8630050107545
 30
0.0
 40
6.0
 41
0.0
 71
     5
 72
     1
  1
\A1;88
 11
0.0000000000000001
 21
1.0
 31
0.0
  0
POINT
  5
5D23
330
5B7D
100
AcDbEntity
  8
DEFPOINTS
 62
     0
100
AcDbPoint
 10
964.5221846748395
 20
-673.8629550107548
 30
0.0
  0
POINT
  5
5D24
330
5B7D
100
AcDbEntity
  8
DEFPOINTS
 62
     0
100
AcDbPoint
 10
964.5221846748395
 20
-761.8630550107548
 30
0.0
  0
POINT
  5
5D25
330
5B7D
100
AcDbEntity
  8
DEFPOINTS
 62
     0
100
AcDbPoint
 10
883.5876546356949
 20
-761.8630550107548
 30
0.0
  0
ENDBLK
  5
5B88
330
5B7D
100
AcDbEntity
  8
0
100
AcDbBlockEnd
  0
BLOCK
  5
5B93
330
5B89
100
AcDbEntity
  8
0
100
AcDbBlockBegin
  2
*D29
 70
     1
 10
0.0
 20
0.0
 30
0.0
  3
*D29
  1

  0
LINE
  5
5D26
330
5B89
100
AcDbEntity
  8
SUNPOU
100
AcDbLine
 10
943.5221846748396
 20
-737.8629550107548
 30
0.0
 11
900.6383701902167
 21
-737.8629550107548
 31
0.0
  0
LINE
  5
5D27
330
5B89
100
AcDbEntity
  8
SUNPOU
100
AcDbLine
 10
921.5221092748393
 20
-716.8629550107548
 30
0.0
 11
900.6383701902167
 21
-716.8629550107548
 31
0.0
  0
LINE
  5
5D28
330
5B89
100
AcDbEntity
  8
SUNPOU
100
AcDbLine
 10
903.6383701902169
 20
-730.8629550107548
 30
0.0
 11
903.6383701902169
 21
-723.8629550107548
 31
0.0
  0
MTEXT
  5
5D29
330
5B89
100
AcDbEntity
  8
SUNPOU
100
AcDbMText
 10
895.2437831565175
 20
-727.3629550107547
 30
0.0
 40
6.0
 41
0.0
 71
     5
 72
     1
  1
\A1;21
 11
0.0000000000000001
 21
1.0
 31
0.0
  0
INSERT
  5
5D2A
330
5B89
100
AcDbEntity
  8
SUNPOU
100
AcDbBlockReference
  2
_OPEN
 10
903.6383701902169
 20
-737.8629550107548
 30
0.0
 41
7.0
 42
7.0
 43
7.0
 50
270.0
  0
INSERT
  5
5D2B
330
5B89
100
AcDbEntity
  8
SUNPOU
100
AcDbBlockReference
  2
_OPEN
 10
903.6383701902169
 20
-716.8629550107548
 30
0.0
 41
7.0
 42
7.0
 43
7.0
 50
90.0
  0
POINT
  5
5D2C
330
5B89
100
AcDbEntity
  8
DEFPOINTS
 62
     0
100
AcDbPoint
 10
949.5221846748394
 20
-737.8629550107548
 30
0.0
  0
POINT
  5
5D2D
330
5B89
100
AcDbEntity
  8
DEFPOINTS
 62
     0
100
AcDbPoint
 10
927.5221092748394
 20
-716.8629550107548
 30
0.0
  0
POINT
  5
5D2E
330
5B89
100
AcDbEntity
  8
DEFPOINTS
 62
     0
100
AcDbPoint
 10
903.6383701902169
 20
-716.8629550107548
 30
0.0
  0
ENDBLK
  5
5B94
330
5B89
100
AcDbEntity
  8
0
100
AcDbBlockEnd
  0
ENDSEC
  0
SECTION
  2
ENTITIES
  0
DIMENSION
  5
5961
330
1A
100
AcDbEntity
  8
SUNPOU
100
AcDbDimension
  2
*D17
 10
826.5346230922459
 20
-737.8629579107547
 30
0.0
 11
821.534623092246
 21
-705.8629564607545
 31
0.0
 70
    32
  3
STANDARD
100
AcDbAlignedDimension
 13
798.999595759813
 23
-673.8629550107548
 33
0.0
 14
795.9996769598128
 24
-737.8629579107547
 34
0.0
 50
90.0
100
AcDbRotatedDimension
1001
ACAD
1000
DSTYLE
1002
{
1070
    41
1040
7.0
1070
    42
1040
6.0
1070
    43
1040
14.0
1070
    44
1040
3.0
1070
    73
1070
     0
1070
    74
1070
     0
1070
    77
1070
     3
1070
   140
1040
6.0
1070
   141
1040
150.0
1070
   147
1040
2.0
1070
   172
1070
     1
1070
   173
1070
     1
1070
   176
1070
     4
1070
   177
1070
     4
1070
   178
1070
     4
1070
   271
1070
     0
1070
   272
1070
     0
1070
   341
1005
6D
1070
     6
1000
OPEN
1070
     7
1000
OPEN
1002
}
  0
DIMENSION
  5
5962
330
1A
100
AcDbEntity
  8
SUNPOU
100
AcDbDimension
  2
*D18
 10
844.2276993885066
 20
-761.8630550107548
 30
0.0
 11
839.2276993885067
 21
-717.8630050107545
 31
0.0
 70
    32
  3
STANDARD
100
AcDbAlignedDimension
 13
798.999595759813
 23
-673.8629550107548
 33
0.0
 14
794.9996769598128
 24
-761.8630550107548
 34
0.0
 50
90.0
100
AcDbRotatedDimension
1001
ACAD
1000
DSTYLE
1002
{
1070
    41
1040
7.0
1070
    42
1040
6.0
1070
    43
1040
14.0
1070
    44
1040
3.0
1070
    73
1070
     0
1070
    74
1070
     0
1070
    77
1070
     3
1070
   140
1040
6.0
1070
   141
1040
150.0
1070
   147
1040
2.0
1070
   172
1070
     1
1070
   173
1070
     1
1070
   176
1070
     4
1070
   177
1070
     4
1070
   178
1070
     4
1070
   271
1070
     0
1070
   272
1070
     0
1070
   341
1005
6D
1070
     6
1000
OPEN
1070
     7
1000
OPEN
1002
}
  0
DIMENSION
  5
5963
330
1A
100
AcDbEntity
  8
SUNPOU
100
AcDbDimension
  2
*D19
 10
826.5346230922459
 20
-599.2989007722074
 30
0.0
 11
826.5346230922459
 21
-559.2989007722073
 31
0.0
 70
   160
  3
STANDARD
100
AcDbAlignedDimension
 13
798.9996769598128
 23
-519.2989007722074
 33
0.0
 14
798.9996769598128
 24
-599.2989007722074
 34
0.0
 50
90.0
100
AcDbRotatedDimension
1001
ACAD
1000
DSTYLE
1002
{
1070
    41
1040
7.0
1070
    42
1040
6.0
1070
    43
1040
14.0
1070
    44
1040
3.0
1070
    73
1070
     0
1070
    74
1070
     0
1070
    77
1070
     3
1070
   140
1040
6.0
1070
   141
1040
150.0
1070
   147
1040
2.0
1070
   172
1070
     1
1070
   173
1070
     1
1070
   176
1070
     4
1070
   177
1070
     4
1070
   178
1070
     4
1070
   271
1070
     0
1070
   272
1070
     0
1070
   341
1005
6D
1070
     6
1000
OPEN
1070
     7
1000
OPEN
1002
}
  0
LWPOLYLINE
  5
5964
330
1A
100
AcDbEntity
  8
ZUWAKU
100
AcDbPolyline
 90
        4
 70
     1
 43
0.0
 10
401.9350191920341
 20
-400.1903907085817
 10
401.9350191920341
 20
-950.1903907085816
 10
1197.935019192033
 20
-950.1903907085816
 10
1197.935019192033
 20
-400.1903907085817
  0
LWPOLYLINE
  5
5965
330
1A
100
AcDbEntity
  8
ZUWAKU
100
AcDbPolyline
 90
        4
 70
     1
 43
0.0
 10
401.5350191920342
 20
-399.7903907085817
 10
401.5350191920342
 20
-950.5903907085816
 10
1198.335019192034
 20
-950.5903907085816
 10
1198.335019192034
 20
-399.7903907085817
  0
LWPOLYLINE
  5
5966
330
1A
100
AcDbEntity
  8
ZUWAKU
100
AcDbPolyline
 90
        4
 70
     1
 43
0.0
 10
401.1350191920342
 20
-399.3903907085816
 10
401.1350191920342
 20
-950.9903907085817
 10
1198.735019192034
 20
-950.9903907085815
 10
1198.735019192034
 20
-399.3903907085815
  0
LWPOLYLINE
  5
5967
330
1A
100
AcDbEntity
  8
ZUWAKU
100
AcDbPolyline
 90
        4
 70
     1
 43
0.0
 10
401.7350191920341
 20
-399.9903907085816
 10
401.7350191920341
 20
-950.3903907085817
 10
1198.135019192034
 20
-950.3903907085817
 10
1198.135019192034
 20
-399.9903907085816
  0
LWPOLYLINE
  5
5968
330
1A
100
AcDbEntity
  8
ZUWAKU
100
AcDbPolyline
 90
        4
 70
     1
 43
0.0
 10
401.335019192034
 20
-399.5903907085817
 10
401.335019192034
 20
-950.7903907085816
 10
1198.535019192034
 20
-950.7903907085816
 10
1198.535019192034
 20
-399.5903907085817
  0
LINE
  5
5969
330
1A
100
AcDbEntity
  8
ZUWAKU
100
AcDbLine
 10
401.1350191920342
 20
-920.9903907085816
 30
0.0
 11
1198.535019192034
 21
-920.9903907085816
 31
0.0
  0
LINE
  5
596A
330
1A
100
AcDbEntity
  8
ZUWAKU
100
AcDbLine
 10
401.1350191920342
 20
-920.7903907085816
 30
0.0
 11
1198.535019192034
 21
-920.7903907085816
 31
0.0
  0
LINE
  5
596B
330
1A
100
AcDbEntity
  8
ZUWAKU
100
AcDbLine
 10
401.1350191920342
 20
-920.5903907085817
 30
0.0
 11
1198.535019192034
 21
-920.5903907085817
 31
0.0
  0
LINE
  5
596C
330
1A
100
AcDbEntity
  8
ZUWAKU
100
AcDbLine
 10
401.1350191920342
 20
-920.3903907085816
 30
0.0
 11
1198.535019192034
 21
-920.3903907085816
 31
0.0
  0
LINE
  5
596D
330
1A
100
AcDbEntity
  8
ZUWAKU
100
AcDbLine
 10
401.1350191920342
 20
-920.1903907085815
 30
0.0
 11
1198.535019192034
 21
-920.1903907085815
 31
0.0
  0
LINE
  5
596E
330
1A
100
AcDbEntity
  8
ZUWAKU
100
AcDbLine
 10
609.7816204821022
 20
-935.5903907085817
 30
0.0
 11
848.5593831630255
 21
-935.5903907085817
 31
0.0
  0
LINE
  5
596F
330
1A
100
AcDbEntity
  8
ZUWAKU
100
AcDbLine
 10
609.7816204821022
 20
-935.3903907085816
 30
0.0
 11
848.5593831630255
 21
-935.3903907085816
 31
0.0
  0
LINE
  5
5970
330
1A
100
AcDbEntity
  8
ZUWAKU
100
AcDbLine
 10
609.7816204821022
 20
-935.7903907085816
 30
0.0
 11
848.5593831630255
 21
-935.7903907085816
 31
0.0
  0
DIMENSION
  5
5971
330
1A
100
AcDbEntity
  8
SUNPOU
100
AcDbDimension
  2
*D20
 10
798.999595759813
 20
-653.9070195039394
 30
0.0
 11
726.699633809813
 21
-648.9070195039394
 31
0.0
 70
    32
  3
STANDARD
100
AcDbAlignedDimension
 13
654.399671859813
 23
-694.1128351107547
 33
0.0
 14
798.999595759813
 24
-673.8629550107548
 34
0.0
100
AcDbRotatedDimension
1001
ACAD
1000
DSTYLE
1002
{
1070
    41
1040
7.0
1070
    42
1040
6.0
1070
    43
1040
14.0
1070
    44
1040
3.0
1070
    73
1070
     0
1070
    74
1070
     0
1070
    77
1070
     3
1070
   140
1040
6.0
1070
   141
1040
150.0
1070
   147
1040
2.0
1070
   172
1070
     1
1070
   173
1070
     1
1070
   176
1070
     4
1070
   177
1070
     4
1070
   178
1070
     4
1070
   271
1070
     0
1070
   272
1070
     0
1070
   341
1005
6D
1070
     6
1000
OPEN
1070
     7
1000
OPEN
1002
}
  0
TEXT
  5
5972
330
1A
100
AcDbEntity
  8
MOJI
100
AcDbText
 10
482.7972831461996
 20
-933.1318227596552
 30
0.0
 40
5.799999999999999
  1
アートフェイスＴ１２０・Ｈ１２０・
 41
0.9
  7
ｽﾀｲﾙ1
100
AcDbText
  0
TEXT
  5
5973
330
1A
100
AcDbEntity
  8
MOJI
100
AcDbText
 10
530.7160198348653
 20
-942.4361672930514
 30
0.0
 40
5.799999999999999
  1
Ｓ１２０Ｈ・Ｍ１２０Ｈ
 41
0.9
  7
ｽﾀｲﾙ1
100
AcDbText
  0
CIRCLE
  5
5974
330
1A
100
AcDbEntity
  8
ZUWAKU
100
AcDbCircle
 10
427.1272313468152
 20
-935.7903907085816
 30
0.0
 40
1.75
  0
LINE
  5
5975
330
1A
100
AcDbEntity
  8
ZUWAKU
100
AcDbLine
 10
428.0022313468152
 20
-943.8403907085817
 30
0.0
 11
426.0772313468152
 21
-943.8403907085817
 31
0.0
  0
LINE
  5
5976
330
1A
100
AcDbEntity
  8
ZUWAKU
100
AcDbLine
 10
426.0772313468152
 20
-941.0403907085816
 30
0.0
 11
428.0022313468152
 21
-941.0403907085816
 31
0.0
  0
LINE
  5
5977
330
1A
100
AcDbEntity
  8
ZUWAKU
100
AcDbLine
 10
428.0022313468152
 20
-930.5403907085816
 30
0.0
 11
426.0772313468152
 21
-930.5403907085816
 31
0.0
  0
LINE
  5
5978
330
1A
100
AcDbEntity
  8
ZUWAKU
100
AcDbLine
 10
426.0772313468152
 20
-927.7403907085817
 30
0.0
 11
428.0022313468152
 21
-927.7403907085817
 31
0.0
  0
HATCH
  5
5979
330
1A
100
AcDbEntity
  8
ZUWAKU
100
AcDbHatch
 10
0.0
 20
0.0
 30
0.0
210
0.0
220
0.0
230
1.0
  2
ANSI37
 70
     0
 71
     0
 91
        8
 92
        7
 72
     1
 73
     1
 93
       24
 10
415.637281853154
 20
-933.3455422275982
 42
-0.1989123673796348
 10
415.2272313468151
 20
-932.355592733937
 42
0.0
 10
415.2272313468151
 20
-931.0653907085818
 42
-0.4142135623730912
 10
415.7522313468152
 20
-930.5403907085816
 42
0.0
 10
418.7272313468151
 20
-930.5403907085816
 42
0.4142135623731546
 10
419.2522313468153
 20
-930.0153907085816
 42
0.0
 10
419.2522313468153
 20
-928.2653907085816
 42
0.4142135623731586
 10
418.7272313468151
 20
-927.7403907085817
 42
0.0
 10
415.2272313468151
 20
-927.7403907085817
 42
0.4142135623730928
 10
412.4272313468152
 20
-930.5403907085816
 42
0.0
 10
412.4272313468152
 20
-932.3555927339368
 42
0.1989123673796619
 10
413.6573828658318
 20
-935.3254412149205
 42
0.0
 10
416.5671808404763
 20
-938.2352391895651
 42
-0.1989123673796613
 10
416.9772313468151
 20
-939.2251886832264
 42
0.0
 10
416.9772313468151
 20
-940.5153907085816
 42
-0.4142135623730911
 10
416.4522313468153
 20
-941.0403907085816
 42
0.0
 10
413.4772313468154
 20
-941.0403907085816
 42
0.4142135623731526
 10
412.9522313468153
 20
-941.5653907085816
 42
0.0
 10
412.9522313468153
 20
-943.3153907085817
 42
0.4142135623731526
 10
413.4772313468154
 20
-943.8403907085817
 42
0.0
 10
416.9772313468151
 20
-943.8403907085817
 42
0.4142135623731045
 10
419.7772313468154
 20
-941.0403907085818
 42
0.0
 10
419.7772313468154
 20
-939.2251886832264
 42
0.1989123673796604
 10
418.5470798277988
 20
-936.2553402022429
 42
0.0
 97
        0
 92
        7
 72
     1
 73
     1
 93
       16
 10
424.6772313468152
 20
-931.9403907085817
 42
-0.4142135623730935
 10
426.0772313468152
 20
-930.5403907085816
 42
0.0
 10
428.0022313468152
 20
-930.5403907085816
 42
0.4142135623731546
 10
428.5272313468153
 20
-930.0153907085816
 42
0.0
 10
428.5272313468153
 20
-928.2653907085816
 42
0.4142135623730951
 10
428.0022313468152
 20
-927.7403907085817
 42
0.0
 10
426.0772313468151
 20
-927.7403907085817
 42
0.4142135623730893
 10
421.8772313468153
 20
-931.9403907085817
 42
0.0
 10
421.8772313468153
 20
-939.6403907085817
 42
0.4142135623730969
 10
426.0772313468152
 20
-943.8403907085817
 42
0.0
 10
428.0022313468152
 20
-943.8403907085817
 42
0.4142135623731526
 10
428.5272313468153
 20
-943.3153907085817
 42
0.0
 10
428.5272313468153
 20
-941.5653907085816
 42
0.4142135623730891
 10
428.0022313468152
 20
-941.0403907085816
 42
0.0
 10
426.0772313468152
 20
-941.0403907085816
 42
-0.4142135623730928
 10
424.6772313468152
 20
-939.6403907085817
 42
0.0
 97
        0
 92
        7
 72
     1
 73
     1
 93
        2
 10
425.3772313468152
 20
-935.7903907085816
 42
1.0
 10
428.8772313468152
 20
-935.7903907085816
 42
1.0
 97
        0
 92
        7
 72
     1
 73
     1
 93
       26
 10
438.4498778289932
 20
-931.7853435150182
 42
0.0
 10
439.5115174621312
 20
-928.4234846767487
 42
0.5069206636600134
 10
439.0108865629358
 20
-927.7403907085817
 42
0.0
 10
437.3119971833264
 20
-927.7403907085817
 42
0.3272098845218764
 10
436.811366284131
 20
-928.1072967404147
 42
0.0
 10
434.9430964094993
 20
-934.0234846767485
 42
-0.3272098845219541
 10
434.4424655103039
 20
-934.3903907085817
 42
0.0
 10
434.3022313468154
 20
-934.3903907085817
 42
-0.4142135623731526
 10
433.7772313468153
 20
-933.8653907085816
 42
0.0
 10
433.7772313468153
 20
-928.2653907085816
 42
0.4142135623730951
 10
433.2522313468152
 20
-927.7403907085817
 42
0.0
 10
431.5022313468152
 20
-927.7403907085817
 42
0.4142135623730871
 10
430.9772313468151
 20
-928.2653907085816
 42
0.0
 10
430.9772313468151
 20
-943.3153907085817
 42
0.4142135623730891
 10
431.5022313468152
 20
-943.8403907085817
 42
0.0
 10
433.2522313468152
 20
-943.8403907085817
 42
0.4142135623731526
 10
433.7772313468153
 20
-943.3153907085817
 42
0.0
 10
433.7772313468153
 20
-937.7153907085817
 42
-0.4142135623731526
 10
434.3022313468154
 20
-937.1903907085817
 42
0.0
 10
434.4424655103039
 20
-937.1903907085817
 42
-0.3272098845218915
 10
434.9430964094993
 20
-937.5572967404147
 42
0.0
 10
436.811366284131
 20
-943.4734846767486
 42
0.3272098845218902
 10
437.3119971833264
 20
-943.8403907085817
 42
0.0
 10
439.0108865629358
 20
-943.8403907085817
 42
0.5069206636600336
 10
439.5115174621312
 20
-943.1572967404147
 42
0.0
 10
437.1851260836574
 20
-935.7903907085814
 42
0.0
 97
        0
 92
        7
 72
     1
 73
     1
 93
        8
 10
444.6272313468153
 20
-928.2653907085816
 42
0.4142135623731546
 10
444.1022313468152
 20
-927.7403907085817
 42
0.0
 10
442.3522313468153
 20
-927.7403907085817
 42
0.4142135623731507
 10
441.8272313468153
 20
-928.2653907085816
 42
0.0
 10
441.8272313468153
 20
-943.3153907085817
 42
0.4142135623731526
 10
442.3522313468153
 20
-943.8403907085817
 42
0.0
 10
444.1022313468152
 20
-943.8403907085817
 42
0.4142135623731526
 10
444.6272313468153
 20
-943.3153907085817
 42
0.0
 97
        0
 92
        7
 72
     1
 73
     1
 93
       24
 10
449.5272313468153
 20
-931.0653907085818
 42
-0.4142135623731546
 10
450.0522313468154
 20
-930.5403907085816
 42
0.0
 10
453.0272313468153
 20
-930.5403907085816
 42
0.4142135623730911
 10
453.5522313468152
 20
-930.0153907085816
 42
0.0
 10
453.5522313468152
 20
-928.2653907085816
 42
0.4142135623730952
 10
453.0272313468153
 20
-927.7403907085817
 42
0.0
 10
449.5272313468153
 20
-927.7403907085817
 42
0.4142135623731048
 10
446.7272313468152
 20
-930.5403907085816
 42
0.0
 10
446.7272313468152
 20
-932.3555927339368
 42
0.1989123673796613
 10
447.9573828658317
 20
-935.3254412149205
 42
0.0
 10
450.8671808404765
 20
-938.2352391895651
 42
-0.1989123673796402
 10
451.2772313468153
 20
-939.2251886832262
 42
0.0
 10
451.2772313468153
 20
-940.5153907085816
 42
-0.4142135623730911
 10
450.7522313468152
 20
-941.0403907085816
 42
0.0
 10
447.7772313468153
 20
-941.0403907085816
 42
0.4142135623731526
 10
447.2522313468153
 20
-941.5653907085816
 42
0.0
 10
447.2522313468153
 20
-943.3153907085817
 42
0.4142135623730891
 10
447.7772313468153
 20
-943.8403907085817
 42
0.0
 10
451.2772313468153
 20
-943.8403907085817
 42
0.4142135623730925
 10
454.0772313468153
 20
-941.0403907085818
 42
0.0
 10
454.0772313468153
 20
-939.2251886832264
 42
0.1989123673796675
 10
452.8470798277988
 20
-936.2553402022427
 42
0.0
 10
449.9372818531542
 20
-933.3455422275982
 42
-0.1989123673796652
 10
449.5272313468153
 20
-932.355592733937
 42
0.0
 97
        0
 92
        7
 72
     1
 73
     1
 93
       16
 10
458.9772313468151
 20
-928.2653907085816
 42
0.414213562373103
 10
458.4522313468153
 20
-927.7403907085817
 42
0.0
 10
456.7022313468153
 20
-927.7403907085817
 42
0.4142135623730871
 10
456.1772313468152
 20
-928.2653907085816
 42
0.0
 10
456.1772313468152
 20
-941.0403907085818
 42
0.4142135623730927
 10
458.9772313468151
 20
-943.8403907085817
 42
0.0
 10
462.4772313468151
 20
-943.8403907085817
 42
0.4142135623731045
 10
465.2772313468154
 20
-941.0403907085818
 42
0.0
 10
465.2772313468154
 20
-928.2653907085816
 42
0.4142135623730951
 10
464.7522313468153
 20
-927.7403907085817
 42
0.0
 10
463.0022313468153
 20
-927.7403907085817
 42
0.4142135623730871
 10
462.4772313468151
 20
-928.2653907085816
 42
0.0
 10
462.4772313468151
 20
-939.9903907085816
 42
-0.4142135623730879
 10
461.4272313468152
 20
-941.0403907085816
 42
0.0
 10
460.0272313468154
 20
-941.0403907085816
 42
-0.4142135623731197
 10
458.9772313468151
 20
-939.9903907085816
 42
0.0
 97
        0
 92
        7
 72
     1
 73
     1
 93
        8
 10
470.1772313468154
 20
-928.2653907085816
 42
0.4142135623730871
 10
469.6522313468153
 20
-927.7403907085817
 42
0.0
 10
467.9022313468153
 20
-927.7403907085817
 42
0.4142135623731507
 10
467.3772313468153
 20
-928.2653907085816
 42
0.0
 10
467.3772313468153
 20
-943.3153907085817
 42
0.4142135623730891
 10
467.9022313468153
 20
-943.8403907085817
 42
0.0
 10
469.6522313468153
 20
-943.8403907085817
 42
0.4142135623730891
 10
470.1772313468154
 20
-943.3153907085817
 42
0.0
 97
        0
 75
     0
 76
     1
 52
0.0
 41
0.2
 77
     0
 78
     2
 53
45.0
 43
-499.8072851426448
 44
-964.1903907085817
 45
-0.4490128060534576
 46
0.4490128060534577
 79
     0
 53
135.0
 43
-499.8072851426448
 44
-964.1903907085817
 45
-0.4490128060534577
 46
-0.4490128060534576
 79
     0
 47
0.057451373970553
 98
        8
 10
417.2148741550574
 20
-935.823217062696
 10
423.5395341984733
 20
-932.1463285261307
 10
426.2993870776938
 20
-935.478509062511
 10
432.0490791736713
 20
-934.7890930621401
 10
442.9734912109909
 20
-934.3294807945985
 10
448.0332200871637
 20
-931.5718143921744
 10
457.6927051644345
 20
-932.2612327934866
 10
468.9620988116569
 20
-931.801620525945
  0
ARC
  5
597A
330
1A
100
AcDbEntity
  8
ZUWAKU
100
AcDbCircle
 10
416.6272313468152
 20
-932.355592733937
 30
0.0
 40
4.199999999999998
100
AcDbArc
 50
180.0
 51
225.0000000000046
  0
LINE
  5
597B
330
1A
100
AcDbEntity
  8
ZUWAKU
100
AcDbLine
 10
421.8772313468153
 20
-939.6403907085817
 30
0.0
 11
421.8772313468153
 21
-931.9403907085817
 31
0.0
  0
LINE
  5
597C
330
1A
100
AcDbEntity
  8
ZUWAKU
100
AcDbLine
 10
424.6772313468152
 20
-931.9403907085817
 30
0.0
 11
424.6772313468152
 21
-939.6403907085817
 31
0.0
  0
ARC
  5
597D
330
1A
100
AcDbEntity
  8
ZUWAKU
100
AcDbCircle
 10
416.6272313468152
 20
-932.355592733937
 30
0.0
 40
1.399999999999999
100
AcDbArc
 50
180.0
 51
224.9999999999953
  0
ARC
  5
597E
330
1A
100
AcDbEntity
  8
ZUWAKU
100
AcDbCircle
 10
426.0772313468152
 20
-939.6403907085817
 30
0.0
 40
4.199999999999998
100
AcDbArc
 50
180.0
 51
270.0
  0
ARC
  5
597F
330
1A
100
AcDbEntity
  8
ZUWAKU
100
AcDbCircle
 10
416.9772313468151
 20
-941.0403907085816
 30
0.0
 40
2.799999999999998
100
AcDbArc
 50
270.0
 51
0.0
  0
ARC
  5
5980
330
1A
100
AcDbEntity
  8
ZUWAKU
100
AcDbCircle
 10
415.5772313468153
 20
-939.2251886832264
 30
0.0
 40
4.199999999999998
100
AcDbArc
 50
0.0
 51
45.0000000000046
  0
LINE
  5
5981
330
1A
100
AcDbEntity
  8
ZUWAKU
100
AcDbLine
 10
413.6573828658318
 20
-935.3254412149205
 30
0.0
 11
416.5671808404763
 21
-938.2352391895651
 31
0.0
  0
LINE
  5
5982
330
1A
100
AcDbEntity
  8
ZUWAKU
100
AcDbLine
 10
413.4772313468151
 20
-941.0403907085816
 30
0.0
 11
416.4522313468153
 21
-941.0403907085816
 31
0.0
  0
LINE
  5
5983
330
1A
100
AcDbEntity
  8
ZUWAKU
100
AcDbLine
 10
413.4772313468151
 20
-943.8403907085817
 30
0.0
 11
416.9772313468151
 21
-943.8403907085817
 31
0.0
  0
ARC
  5
5984
330
1A
100
AcDbEntity
  8
ZUWAKU
100
AcDbCircle
 10
413.4772313468151
 20
-941.5653907085816
 30
0.0
 40
0.525
100
AcDbArc
 50
90.0
 51
180.0
  0
ARC
  5
5985
330
1A
100
AcDbEntity
  8
ZUWAKU
100
AcDbCircle
 10
413.4772313468151
 20
-943.3153907085817
 30
0.0
 40
0.525
100
AcDbArc
 50
180.0
 51
270.0
  0
LINE
  5
5986
330
1A
100
AcDbEntity
  8
ZUWAKU
100
AcDbLine
 10
412.9522313468153
 20
-943.3153907085817
 30
0.0
 11
412.9522313468153
 21
-941.5653907085816
 31
0.0
  0
ARC
  5
5987
330
1A
100
AcDbEntity
  8
ZUWAKU
100
AcDbCircle
 10
415.5772313468153
 20
-939.2251886832262
 30
0.0
 40
1.399999999999999
100
AcDbArc
 50
0.0
 51
45.0000000000046
  0
ARC
  5
5988
330
1A
100
AcDbEntity
  8
ZUWAKU
100
AcDbCircle
 10
416.4522313468153
 20
-940.5153907085816
 30
0.0
 40
0.525
100
AcDbArc
 50
270.0
 51
0.0
  0
LINE
  5
5989
330
1A
100
AcDbEntity
  8
ZUWAKU
100
AcDbLine
 10
416.9772313468151
 20
-940.5153907085816
 30
0.0
 11
416.9772313468151
 21
-939.2251886832262
 31
0.0
  0
LINE
  5
598A
330
1A
100
AcDbEntity
  8
ZUWAKU
100
AcDbLine
 10
418.5470798277988
 20
-936.2553402022429
 30
0.0
 11
415.637281853154
 21
-933.3455422275982
 31
0.0
  0
ARC
  5
598B
330
1A
100
AcDbEntity
  8
ZUWAKU
100
AcDbCircle
 10
426.0772313468152
 20
-939.6403907085817
 30
0.0
 40
1.399999999999999
100
AcDbArc
 50
180.0
 51
270.0
  0
LINE
  5
598C
330
1A
100
AcDbEntity
  8
ZUWAKU
100
AcDbLine
 10
419.7772313468154
 20
-941.0403907085816
 30
0.0
 11
419.7772313468154
 21
-939.2251886832262
 31
0.0
  0
ARC
  5
598D
330
1A
100
AcDbEntity
  8
ZUWAKU
100
AcDbCircle
 10
418.7272313468151
 20
-930.0153907085816
 30
0.0
 40
0.525
100
AcDbArc
 50
270.0
 51
0.0
  0
ARC
  5
598E
330
1A
100
AcDbEntity
  8
ZUWAKU
100
AcDbCircle
 10
418.7272313468151
 20
-928.2653907085816
 30
0.0
 40
0.525
100
AcDbArc
 50
0.0
 51
90.0
  0
ARC
  5
598F
330
1A
100
AcDbEntity
  8
ZUWAKU
100
AcDbCircle
 10
415.2272313468151
 20
-930.5403907085816
 30
0.0
 40
2.799999999999998
100
AcDbArc
 50
90.0
 51
180.0
  0
LINE
  5
5990
330
1A
100
AcDbEntity
  8
ZUWAKU
100
AcDbLine
 10
412.4272313468152
 20
-930.5403907085816
 30
0.0
 11
412.4272313468152
 21
-932.355592733937
 31
0.0
  0
LINE
  5
5991
330
1A
100
AcDbEntity
  8
ZUWAKU
100
AcDbLine
 10
418.7272313468151
 20
-930.5403907085816
 30
0.0
 11
415.7522313468152
 21
-930.5403907085816
 31
0.0
  0
LINE
  5
5992
330
1A
100
AcDbEntity
  8
ZUWAKU
100
AcDbLine
 10
415.2272313468151
 20
-931.0653907085818
 30
0.0
 11
415.2272313468151
 21
-932.355592733937
 31
0.0
  0
ARC
  5
5993
330
1A
100
AcDbEntity
  8
ZUWAKU
100
AcDbCircle
 10
415.7522313468152
 20
-931.0653907085818
 30
0.0
 40
0.525
100
AcDbArc
 50
90.0
 51
180.0
  0
LINE
  5
5994
330
1A
100
AcDbEntity
  8
ZUWAKU
100
AcDbLine
 10
415.2272313468151
 20
-927.7403907085817
 30
0.0
 11
418.7272313468151
 21
-927.7403907085817
 31
0.0
  0
ARC
  5
5995
330
1A
100
AcDbEntity
  8
ZUWAKU
100
AcDbCircle
 10
426.0772313468152
 20
-931.9403907085817
 30
0.0
 40
4.199999999999998
100
AcDbArc
 50
90.0
 51
180.0
  0
ARC
  5
5996
330
1A
100
AcDbEntity
  8
ZUWAKU
100
AcDbCircle
 10
426.0772313468152
 20
-931.9403907085817
 30
0.0
 40
1.399999999999999
100
AcDbArc
 50
90.0
 51
180.0
  0
LINE
  5
5997
330
1A
100
AcDbEntity
  8
ZUWAKU
100
AcDbLine
 10
419.2522313468153
 20
-928.2653907085816
 30
0.0
 11
419.2522313468153
 21
-930.0153907085816
 31
0.0
  0
LINE
  5
5998
330
1A
100
AcDbEntity
  8
ZUWAKU
100
AcDbLine
 10
436.811366284131
 20
-928.1072967404147
 30
0.0
 11
434.9430964094993
 21
-934.0234846767486
 31
0.0
  0
LINE
  5
5999
330
1A
100
AcDbEntity
  8
ZUWAKU
100
AcDbLine
 10
430.9772313468151
 20
-928.2653907085816
 30
0.0
 11
430.9772313468151
 21
-943.3153907085817
 31
0.0
  0
LINE
  5
599A
330
1A
100
AcDbEntity
  8
ZUWAKU
100
AcDbLine
 10
433.7772313468153
 20
-933.8653907085816
 30
0.0
 11
433.7772313468153
 21
-928.2653907085816
 31
0.0
  0
LINE
  5
599B
330
1A
100
AcDbEntity
  8
ZUWAKU
100
AcDbLine
 10
458.9772313468151
 20
-939.9903907085816
 30
0.0
 11
458.9772313468151
 21
-928.2653907085816
 31
0.0
  0
LINE
  5
599C
330
1A
100
AcDbEntity
  8
ZUWAKU
100
AcDbLine
 10
456.1772313468152
 20
-928.2653907085816
 30
0.0
 11
456.1772313468152
 21
-941.0403907085816
 31
0.0
  0
LINE
  5
599D
330
1A
100
AcDbEntity
  8
ZUWAKU
100
AcDbLine
 10
444.6272313468153
 20
-943.3153907085817
 30
0.0
 11
444.6272313468153
 21
-928.2653907085816
 31
0.0
  0
LINE
  5
599E
330
1A
100
AcDbEntity
  8
ZUWAKU
100
AcDbLine
 10
441.8272313468153
 20
-928.2653907085816
 30
0.0
 11
441.8272313468153
 21
-943.3153907085817
 31
0.0
  0
LINE
  5
599F
330
1A
100
AcDbEntity
  8
ZUWAKU
100
AcDbLine
 10
438.4498778289932
 20
-931.7853435150182
 30
0.0
 11
437.1851260836574
 21
-935.7903907085816
 31
0.0
  0
ARC
  5
59A0
330
1A
100
AcDbEntity
  8
ZUWAKU
100
AcDbCircle
 10
450.9272313468152
 20
-932.355592733937
 30
0.0
 40
4.199999999999998
100
AcDbArc
 50
180.0
 51
225.0000000000046
  0
ARC
  5
59A1
330
1A
100
AcDbEntity
  8
ZUWAKU
100
AcDbCircle
 10
450.9272313468152
 20
-932.355592733937
 30
0.0
 40
1.399999999999999
100
AcDbArc
 50
180.0
 51
224.9999999999953
  0
LINE
  5
59A2
330
1A
100
AcDbEntity
  8
ZUWAKU
100
AcDbLine
 10
467.3772313468153
 20
-928.2653907085816
 30
0.0
 11
467.3772313468153
 21
-943.3153907085817
 31
0.0
  0
LINE
  5
59A3
330
1A
100
AcDbEntity
  8
ZUWAKU
100
AcDbLine
 10
470.1772313468154
 20
-943.3153907085817
 30
0.0
 11
470.1772313468154
 21
-928.2653907085816
 31
0.0
  0
LINE
  5
59A4
330
1A
100
AcDbEntity
  8
ZUWAKU
100
AcDbLine
 10
462.4772313468151
 20
-928.2653907085816
 30
0.0
 11
462.4772313468151
 21
-939.9903907085816
 31
0.0
  0
LINE
  5
59A5
330
1A
100
AcDbEntity
  8
ZUWAKU
100
AcDbLine
 10
465.2772313468154
 20
-941.0403907085816
 30
0.0
 11
465.2772313468154
 21
-928.2653907085816
 31
0.0
  0
LINE
  5
59A6
330
1A
100
AcDbEntity
  8
ZUWAKU
100
AcDbLine
 10
480.2616487400225
 20
-920.9903907085816
 30
0.0
 11
480.2616487400225
 21
-950.1903907085816
 31
0.0
  0
LINE
  5
59A7
330
1A
100
AcDbEntity
  8
ZUWAKU
100
AcDbLine
 10
480.6616487400224
 20
-920.9903907085816
 30
0.0
 11
480.6616487400226
 21
-950.1903907085816
 31
0.0
  0
LINE
  5
59A8
330
1A
100
AcDbEntity
  8
ZUWAKU
100
AcDbLine
 10
480.4616487400223
 20
-920.9903907085816
 30
0.0
 11
480.4616487400226
 21
-950.1903907085816
 31
0.0
  0
LINE
  5
59A9
330
1A
100
AcDbEntity
  8
ZUWAKU
100
AcDbLine
 10
458.9772313468151
 20
-943.8403907085817
 30
0.0
 11
462.4772313468151
 21
-943.8403907085817
 31
0.0
  0
LINE
  5
59AA
330
1A
100
AcDbEntity
  8
ZUWAKU
100
AcDbLine
 10
461.4272313468152
 20
-941.0403907085816
 30
0.0
 11
460.0272313468154
 21
-941.0403907085816
 31
0.0
  0
LINE
  5
59AB
330
1A
100
AcDbEntity
  8
ZUWAKU
100
AcDbLine
 10
442.3522313468152
 20
-943.8403907085817
 30
0.0
 11
444.1022313468152
 21
-943.8403907085817
 31
0.0
  0
LINE
  5
59AC
330
1A
100
AcDbEntity
  8
ZUWAKU
100
AcDbLine
 10
436.811366284131
 20
-943.4734846767486
 30
0.0
 11
434.9430964094993
 21
-937.5572967404147
 31
0.0
  0
ARC
  5
59AD
330
1A
100
AcDbEntity
  8
ZUWAKU
100
AcDbCircle
 10
434.3022313468152
 20
-937.7153907085817
 30
0.0
 40
0.525
100
AcDbArc
 50
90.0
 51
180.0
  0
ARC
  5
59AE
330
1A
100
AcDbEntity
  8
ZUWAKU
100
AcDbCircle
 10
434.4424655103039
 20
-937.7153907085817
 30
0.0
 40
0.525
100
AcDbArc
 50
17.52556837372188
 51
90.0
  0
ARC
  5
59AF
330
1A
100
AcDbEntity
  8
ZUWAKU
100
AcDbCircle
 10
431.5022313468152
 20
-943.3153907085817
 30
0.0
 40
0.525
100
AcDbArc
 50
180.0
 51
270.0
  0
ARC
  5
59B0
330
1A
100
AcDbEntity
  8
ZUWAKU
100
AcDbCircle
 10
428.0022313468152
 20
-941.5653907085816
 30
0.0
 40
0.525
100
AcDbArc
 50
0.0
 51
90.0
  0
ARC
  5
59B1
330
1A
100
AcDbEntity
  8
ZUWAKU
100
AcDbCircle
 10
428.0022313468152
 20
-943.3153907085817
 30
0.0
 40
0.525
100
AcDbArc
 50
270.0
 51
0.0
  0
LINE
  5
59B2
330
1A
100
AcDbEntity
  8
ZUWAKU
100
AcDbLine
 10
428.5272313468153
 20
-941.5653907085816
 30
0.0
 11
428.5272313468153
 21
-943.3153907085817
 31
0.0
  0
LINE
  5
59B3
330
1A
100
AcDbEntity
  8
ZUWAKU
100
AcDbLine
 10
433.7772313468153
 20
-943.3153907085817
 30
0.0
 11
433.7772313468153
 21
-937.7153907085817
 31
0.0
  0
ARC
  5
59B4
330
1A
100
AcDbEntity
  8
ZUWAKU
100
AcDbCircle
 10
433.2522313468152
 20
-943.3153907085817
 30
0.0
 40
0.525
100
AcDbArc
 50
270.0
 51
0.0
  0
LINE
  5
59B5
330
1A
100
AcDbEntity
  8
ZUWAKU
100
AcDbLine
 10
431.5022313468152
 20
-943.8403907085817
 30
0.0
 11
433.2522313468152
 21
-943.8403907085817
 31
0.0
  0
ARC
  5
59B6
330
1A
100
AcDbEntity
  8
ZUWAKU
100
AcDbCircle
 10
434.3022313468152
 20
-933.8653907085816
 30
0.0
 40
0.525
100
AcDbArc
 50
180.0
 51
270.0
  0
LINE
  5
59B7
330
1A
100
AcDbEntity
  8
ZUWAKU
100
AcDbLine
 10
434.3022313468152
 20
-937.1903907085817
 30
0.0
 11
434.4424655103039
 21
-937.1903907085817
 31
0.0
  0
LINE
  5
59B8
330
1A
100
AcDbEntity
  8
ZUWAKU
100
AcDbLine
 10
434.4424655103039
 20
-934.3903907085817
 30
0.0
 11
434.3022313468152
 21
-934.3903907085817
 31
0.0
  0
ARC
  5
59B9
330
1A
100
AcDbEntity
  8
ZUWAKU
100
AcDbCircle
 10
434.4424655103039
 20
-933.8653907085816
 30
0.0
 40
0.525
100
AcDbArc
 50
270.0
 51
342.474431626278
  0
ARC
  5
59BA
330
1A
100
AcDbEntity
  8
ZUWAKU
100
AcDbCircle
 10
437.3119971833266
 20
-943.3153907085817
 30
0.0
 40
0.525
100
AcDbArc
 50
197.5255683737218
 51
270.0
  0
LINE
  5
59BB
330
1A
100
AcDbEntity
  8
ZUWAKU
100
AcDbLine
 10
439.5115174621312
 20
-943.1572967404147
 30
0.0
 11
437.1851260836574
 21
-935.7903907085816
 31
0.0
  0
ARC
  5
59BC
330
1A
100
AcDbEntity
  8
ZUWAKU
100
AcDbCircle
 10
439.0108865629356
 20
-943.3153907085817
 30
0.0
 40
0.525
100
AcDbArc
 50
270.0
 51
17.52556837372188
  0
LINE
  5
59BD
330
1A
100
AcDbEntity
  8
ZUWAKU
100
AcDbLine
 10
437.3119971833266
 20
-943.8403907085817
 30
0.0
 11
439.0108865629356
 21
-943.8403907085817
 31
0.0
  0
ARC
  5
59BE
330
1A
100
AcDbEntity
  8
ZUWAKU
100
AcDbCircle
 10
442.3522313468152
 20
-943.3153907085817
 30
0.0
 40
0.525
100
AcDbArc
 50
180.0
 51
270.0
  0
ARC
  5
59BF
330
1A
100
AcDbEntity
  8
ZUWAKU
100
AcDbCircle
 10
451.2772313468153
 20
-941.0403907085816
 30
0.0
 40
2.799999999999998
100
AcDbArc
 50
270.0
 51
0.0
  0
ARC
  5
59C0
330
1A
100
AcDbEntity
  8
ZUWAKU
100
AcDbCircle
 10
458.9772313468151
 20
-941.0403907085816
 30
0.0
 40
2.799999999999998
100
AcDbArc
 50
180.0
 51
270.0
  0
LINE
  5
59C1
330
1A
100
AcDbEntity
  8
ZUWAKU
100
AcDbLine
 10
452.8470798277988
 20
-936.2553402022429
 30
0.0
 11
449.9372818531542
 21
-933.3455422275982
 31
0.0
  0
LINE
  5
59C2
330
1A
100
AcDbEntity
  8
ZUWAKU
100
AcDbLine
 10
447.9573828658317
 20
-935.3254412149205
 30
0.0
 11
450.8671808404765
 21
-938.2352391895651
 31
0.0
  0
LINE
  5
59C3
330
1A
100
AcDbEntity
  8
ZUWAKU
100
AcDbLine
 10
447.7772313468153
 20
-943.8403907085817
 30
0.0
 11
451.2772313468153
 21
-943.8403907085817
 31
0.0
  0
LINE
  5
59C4
330
1A
100
AcDbEntity
  8
ZUWAKU
100
AcDbLine
 10
447.7772313468153
 20
-941.0403907085816
 30
0.0
 11
450.7522313468152
 21
-941.0403907085816
 31
0.0
  0
ARC
  5
59C5
330
1A
100
AcDbEntity
  8
ZUWAKU
100
AcDbCircle
 10
447.7772313468153
 20
-941.5653907085816
 30
0.0
 40
0.525
100
AcDbArc
 50
90.0
 51
180.0
  0
ARC
  5
59C6
330
1A
100
AcDbEntity
  8
ZUWAKU
100
AcDbCircle
 10
444.1022313468152
 20
-943.3153907085817
 30
0.0
 40
0.525
100
AcDbArc
 50
270.0
 51
0.0
  0
ARC
  5
59C7
330
1A
100
AcDbEntity
  8
ZUWAKU
100
AcDbCircle
 10
447.7772313468153
 20
-943.3153907085817
 30
0.0
 40
0.525
100
AcDbArc
 50
180.0
 51
270.0
  0
LINE
  5
59C8
330
1A
100
AcDbEntity
  8
ZUWAKU
100
AcDbLine
 10
447.2522313468153
 20
-943.3153907085817
 30
0.0
 11
447.2522313468153
 21
-941.5653907085816
 31
0.0
  0
ARC
  5
59C9
330
1A
100
AcDbEntity
  8
ZUWAKU
100
AcDbCircle
 10
450.7522313468152
 20
-940.5153907085816
 30
0.0
 40
0.525
100
AcDbArc
 50
270.0
 51
0.0
  0
ARC
  5
59CA
330
1A
100
AcDbEntity
  8
ZUWAKU
100
AcDbCircle
 10
449.8772313468152
 20
-939.2251886832262
 30
0.0
 40
1.399999999999999
100
AcDbArc
 50
0.0
 51
45.0000000000046
  0
LINE
  5
59CB
330
1A
100
AcDbEntity
  8
ZUWAKU
100
AcDbLine
 10
451.2772313468153
 20
-940.5153907085816
 30
0.0
 11
451.2772313468153
 21
-939.2251886832262
 31
0.0
  0
ARC
  5
59CC
330
1A
100
AcDbEntity
  8
ZUWAKU
100
AcDbCircle
 10
460.0272313468154
 20
-939.9903907085816
 30
0.0
 40
1.049999999999998
100
AcDbArc
 50
180.0
 51
270.0
  0
ARC
  5
59CD
330
1A
100
AcDbEntity
  8
ZUWAKU
100
AcDbCircle
 10
449.8772313468152
 20
-939.2251886832264
 30
0.0
 40
4.199999999999998
100
AcDbArc
 50
0.0
 51
45.0000000000046
  0
LINE
  5
59CE
330
1A
100
AcDbEntity
  8
ZUWAKU
100
AcDbLine
 10
454.0772313468153
 20
-941.0403907085816
 30
0.0
 11
454.0772313468153
 21
-939.2251886832262
 31
0.0
  0
ARC
  5
59CF
330
1A
100
AcDbEntity
  8
ZUWAKU
100
AcDbCircle
 10
462.4772313468151
 20
-941.0403907085816
 30
0.0
 40
2.799999999999998
100
AcDbArc
 50
270.0
 51
0.0
  0
LINE
  5
59D0
330
1A
100
AcDbEntity
  8
ZUWAKU
100
AcDbLine
 10
467.9022313468153
 20
-943.8403907085817
 30
0.0
 11
469.6522313468153
 21
-943.8403907085817
 31
0.0
  0
ARC
  5
59D1
330
1A
100
AcDbEntity
  8
ZUWAKU
100
AcDbCircle
 10
461.4272313468152
 20
-939.9903907085816
 30
0.0
 40
1.049999999999998
100
AcDbArc
 50
270.0
 51
0.0
  0
ARC
  5
59D2
330
1A
100
AcDbEntity
  8
ZUWAKU
100
AcDbCircle
 10
467.9022313468153
 20
-943.3153907085817
 30
0.0
 40
0.525
100
AcDbArc
 50
180.0
 51
270.0
  0
ARC
  5
59D3
330
1A
100
AcDbEntity
  8
ZUWAKU
100
AcDbCircle
 10
469.6522313468153
 20
-943.3153907085817
 30
0.0
 40
0.525
100
AcDbArc
 50
270.0
 51
0.0
  0
LINE
  5
59D4
330
1A
100
AcDbEntity
  8
ZUWAKU
100
AcDbLine
 10
444.1022313468152
 20
-927.7403907085817
 30
0.0
 11
442.3522313468152
 21
-927.7403907085817
 31
0.0
  0
LINE
  5
59D5
330
1A
100
AcDbEntity
  8
ZUWAKU
100
AcDbLine
 10
428.5272313468153
 20
-928.2653907085816
 30
0.0
 11
428.5272313468153
 21
-930.0153907085816
 31
0.0
  0
ARC
  5
59D6
330
1A
100
AcDbEntity
  8
ZUWAKU
100
AcDbCircle
 10
428.0022313468152
 20
-930.0153907085816
 30
0.0
 40
0.525
100
AcDbArc
 50
270.0
 51
0.0
  0
ARC
  5
59D7
330
1A
100
AcDbEntity
  8
ZUWAKU
100
AcDbCircle
 10
431.5022313468152
 20
-928.2653907085816
 30
0.0
 40
0.525
100
AcDbArc
 50
90.0
 51
180.0
  0
ARC
  5
59D8
330
1A
100
AcDbEntity
  8
ZUWAKU
100
AcDbCircle
 10
428.0022313468152
 20
-928.2653907085816
 30
0.0
 40
0.525
100
AcDbArc
 50
0.0
 51
90.0
  0
LINE
  5
59D9
330
1A
100
AcDbEntity
  8
ZUWAKU
100
AcDbLine
 10
433.2522313468152
 20
-927.7403907085817
 30
0.0
 11
431.5022313468152
 21
-927.7403907085817
 31
0.0
  0
ARC
  5
59DA
330
1A
100
AcDbEntity
  8
ZUWAKU
100
AcDbCircle
 10
433.2522313468152
 20
-928.2653907085816
 30
0.0
 40
0.525
100
AcDbArc
 50
0.0
 51
90.0
  0
ARC
  5
59DB
330
1A
100
AcDbEntity
  8
ZUWAKU
100
AcDbCircle
 10
437.3119971833266
 20
-928.2653907085816
 30
0.0
 40
0.525
100
AcDbArc
 50
90.0
 51
162.4744316262781
  0
LINE
  5
59DC
330
1A
100
AcDbEntity
  8
ZUWAKU
100
AcDbLine
 10
439.5115174621312
 20
-928.4234846767487
 30
0.0
 11
438.4498778289932
 21
-931.7853435150182
 31
0.0
  0
ARC
  5
59DD
330
1A
100
AcDbEntity
  8
ZUWAKU
100
AcDbCircle
 10
439.0108865629356
 20
-928.2653907085816
 30
0.0
 40
0.525
100
AcDbArc
 50
342.474431626278
 51
90.0
  0
LINE
  5
59DE
330
1A
100
AcDbEntity
  8
ZUWAKU
100
AcDbLine
 10
437.3119971833266
 20
-927.7403907085817
 30
0.0
 11
439.0108865629356
 21
-927.7403907085817
 31
0.0
  0
ARC
  5
59DF
330
1A
100
AcDbEntity
  8
ZUWAKU
100
AcDbCircle
 10
442.3522313468152
 20
-928.2653907085816
 30
0.0
 40
0.525
100
AcDbArc
 50
90.0
 51
180.0
  0
LINE
  5
59E0
330
1A
100
AcDbEntity
  8
ZUWAKU
100
AcDbLine
 10
453.0272313468153
 20
-930.5403907085816
 30
0.0
 11
450.0522313468152
 21
-930.5403907085816
 31
0.0
  0
LINE
  5
59E1
330
1A
100
AcDbEntity
  8
ZUWAKU
100
AcDbLine
 10
449.5272313468153
 20
-927.7403907085817
 30
0.0
 11
453.0272313468153
 21
-927.7403907085817
 31
0.0
  0
ARC
  5
59E2
330
1A
100
AcDbEntity
  8
ZUWAKU
100
AcDbCircle
 10
449.5272313468153
 20
-930.5403907085816
 30
0.0
 40
2.799999999999998
100
AcDbArc
 50
90.0
 51
180.0
  0
LINE
  5
59E3
330
1A
100
AcDbEntity
  8
ZUWAKU
100
AcDbLine
 10
446.7272313468152
 20
-930.5403907085816
 30
0.0
 11
446.7272313468152
 21
-932.355592733937
 31
0.0
  0
ARC
  5
59E4
330
1A
100
AcDbEntity
  8
ZUWAKU
100
AcDbCircle
 10
444.1022313468152
 20
-928.2653907085816
 30
0.0
 40
0.525
100
AcDbArc
 50
0.0
 51
90.0
  0
LINE
  5
59E5
330
1A
100
AcDbEntity
  8
ZUWAKU
100
AcDbLine
 10
449.5272313468153
 20
-931.0653907085818
 30
0.0
 11
449.5272313468153
 21
-932.355592733937
 31
0.0
  0
ARC
  5
59E6
330
1A
100
AcDbEntity
  8
ZUWAKU
100
AcDbCircle
 10
450.0522313468152
 20
-931.0653907085818
 30
0.0
 40
0.525
100
AcDbArc
 50
90.0
 51
180.0
  0
LINE
  5
59E7
330
1A
100
AcDbEntity
  8
ZUWAKU
100
AcDbLine
 10
453.5522313468152
 20
-928.2653907085816
 30
0.0
 11
453.5522313468152
 21
-930.0153907085816
 31
0.0
  0
ARC
  5
59E8
330
1A
100
AcDbEntity
  8
ZUWAKU
100
AcDbCircle
 10
453.0272313468153
 20
-930.0153907085816
 30
0.0
 40
0.525
100
AcDbArc
 50
270.0
 51
0.0
  0
ARC
  5
59E9
330
1A
100
AcDbEntity
  8
ZUWAKU
100
AcDbCircle
 10
453.0272313468153
 20
-928.2653907085816
 30
0.0
 40
0.525
100
AcDbArc
 50
0.0
 51
90.0
  0
LINE
  5
59EA
330
1A
100
AcDbEntity
  8
ZUWAKU
100
AcDbLine
 10
458.4522313468153
 20
-927.7403907085817
 30
0.0
 11
456.7022313468153
 21
-927.7403907085817
 31
0.0
  0
ARC
  5
59EB
330
1A
100
AcDbEntity
  8
ZUWAKU
100
AcDbCircle
 10
456.7022313468153
 20
-928.2653907085816
 30
0.0
 40
0.525
100
AcDbArc
 50
90.0
 51
180.0
  0
ARC
  5
59EC
330
1A
100
AcDbEntity
  8
ZUWAKU
100
AcDbCircle
 10
458.4522313468153
 20
-928.2653907085816
 30
0.0
 40
0.525
100
AcDbArc
 50
0.0
 51
90.0
  0
LINE
  5
59ED
330
1A
100
AcDbEntity
  8
ZUWAKU
100
AcDbLine
 10
469.6522313468153
 20
-927.7403907085817
 30
0.0
 11
467.9022313468153
 21
-927.7403907085817
 31
0.0
  0
ARC
  5
59EE
330
1A
100
AcDbEntity
  8
ZUWAKU
100
AcDbCircle
 10
463.0022313468153
 20
-928.2653907085816
 30
0.0
 40
0.525
100
AcDbArc
 50
90.0
 51
180.0
  0
LINE
  5
59EF
330
1A
100
AcDbEntity
  8
ZUWAKU
100
AcDbLine
 10
464.7522313468153
 20
-927.7403907085817
 30
0.0
 11
463.0022313468153
 21
-927.7403907085817
 31
0.0
  0
ARC
  5
59F0
330
1A
100
AcDbEntity
  8
ZUWAKU
100
AcDbCircle
 10
464.7522313468153
 20
-928.2653907085816
 30
0.0
 40
0.525
100
AcDbArc
 50
0.0
 51
90.0
  0
ARC
  5
59F1
330
1A
100
AcDbEntity
  8
ZUWAKU
100
AcDbCircle
 10
467.9022313468153
 20
-928.2653907085816
 30
0.0
 40
0.525
100
AcDbArc
 50
90.0
 51
180.0
  0
ARC
  5
59F2
330
1A
100
AcDbEntity
  8
ZUWAKU
100
AcDbCircle
 10
469.6522313468153
 20
-928.2653907085816
 30
0.0
 40
0.525
100
AcDbArc
 50
0.0
 51
90.0
  0
TEXT
  5
59F3
330
1A
100
AcDbEntity
  8
MOJI
100
AcDbText
 10
640.962221872885
 20
-947.7854696511743
 30
0.0
 40
5.599999999999998
  1
１２０－０－１０（Ｕ）
 41
0.9
  7
ｽﾀｲﾙ1
100
AcDbText
  0
TEXT
  5
59F4
330
1A
100
AcDbEntity
  8
MOJI
100
AcDbText
 10
640.962221872885
 20
-932.9854696511743
 30
0.0
 40
5.599999999999998
  1
ブラケット正面打（吊）固定式
 41
0.9
  7
ｽﾀｲﾙ1
100
AcDbText
  0
LINE
  5
59F5
330
1A
100
AcDbEntity
  8
ZUWAKU
100
AcDbLine
 10
609.5816204821019
 20
-920.9903907085816
 30
0.0
 11
609.5816204821021
 21
-950.1903907085816
 31
0.0
  0
LINE
  5
59F6
330
1A
100
AcDbEntity
  8
ZUWAKU
100
AcDbLine
 10
609.7816204821019
 20
-920.9903907085816
 30
0.0
 11
609.7816204821022
 21
-950.1903907085816
 31
0.0
  0
LINE
  5
59F7
330
1A
100
AcDbEntity
  8
ZUWAKU
100
AcDbLine
 10
609.381620482102
 20
-920.9903907085816
 30
0.0
 11
609.381620482102
 21
-950.1903907085816
 31
0.0
  0
TEXT
  5
59F8
330
1A
100
AcDbEntity
  8
ZUWAKU
100
AcDbText
 10
610.8590655043117
 20
-941.335034170196
 30
0.0
 40
4.0
  1
サイズ
 41
0.9
  7
ｽﾀｲﾙ1
100
AcDbText
  0
TEXT
  5
59F9
330
1A
100
AcDbEntity
  8
ZUWAKU
100
AcDbText
 10
610.8590655043115
 20
-926.9350341701962
 30
0.0
 40
4.0
  1
品名
 41
0.9
  7
ｽﾀｲﾙ1
100
AcDbText
  0
ARC
  5
59FA
330
1A
100
AcDbEntity
  8
SEIHIN
100
AcDbCircle
 10
719.2996870598131
 20
-684.8628937107547
 30
0.0
 40
37.9999999621277
100
AcDbArc
 50
211.7533304376355
 51
322.9461836114418
  0
ARC
  5
59FB
330
1A
100
AcDbEntity
  8
SEIHIN
100
AcDbCircle
 10
713.9930666598129
 20
-704.1460408107548
 30
0.0
 40
38.00000003265383
100
AcDbArc
 50
204.8282500950414
 51
254.6133764957835
  0
ARC
  5
59FC
330
1A
100
AcDbEntity
  8
SEIHIN
100
AcDbCircle
 10
713.9930666598129
 20
-704.1460408107548
 30
0.0
 40
33.00000000072407
100
AcDbArc
 50
203.3137343321869
 51
254.6133765798014
  0
ARC
  5
59FD
330
1A
100
AcDbEntity
  8
SEIHIN
100
AcDbCircle
 10
719.2996870598131
 20
-684.8628937107547
 30
0.0
 40
42.99999998695902
100
AcDbArc
 50
211.7533237087021
 51
305.7172656493573
  0
DIMENSION
  5
59FE
330
1A
100
AcDbEntity
  8
SUNPOU
100
AcDbDimension
  2
*D21
 10
630.5712224961712
 20
-737.8629579107546
 30
0.0
 11
625.5712224961713
 21
-712.6128965107546
 31
0.0
 70
    32
  3
STANDARD
100
AcDbAlignedDimension
 13
661.149671859813
 23
-687.3628351107547
 33
0.0
 14
793.9996769598129
 24
-737.8629579107547
 34
0.0
 50
90.0
100
AcDbRotatedDimension
1001
ACAD
1000
DSTYLE
1002
{
1070
    41
1040
7.0
1070
    42
1040
6.0
1070
    43
1040
14.0
1070
    44
1040
3.0
1070
    73
1070
     0
1070
    74
1070
     0
1070
    77
1070
     3
1070
   140
1040
6.0
1070
   141
1040
150.0
1070
   147
1040
2.0
1070
   172
1070
     1
1070
   173
1070
     1
1070
   176
1070
     4
1070
   177
1070
     4
1070
   178
1070
     4
1070
   271
1070
     0
1070
   272
1070
     0
1070
   341
1005
6D
1070
     6
1000
OPEN
1070
     7
1000
OPEN
1002
}
  0
ARC
  5
59FF
330
1A
100
AcDbEntity
  8
SEIHIN
100
AcDbCircle
 10
661.149671859813
 20
-694.1128351107547
 30
0.0
 40
6.750000000000017
100
AcDbArc
 50
90.0
 51
269.9999940582117
  0
ARC
  5
5A00
330
1A
100
AcDbEntity
  8
SEIHIN
 62
     3
100
AcDbCircle
 10
663.8230306082164
 20
-704.8628351107547
 30
0.0
 40
4.000000020652752
100
AcDbArc
 50
330.2159705597457
 51
90.0000243506963
  0
LINE
  5
5A01
330
1A
100
AcDbEntity
  8
SEIHIN
100
AcDbLine
 10
682.2656479598129
 20
-697.2315189107547
 30
0.0
 11
686.9874625598129
 21
-704.8608972107548
 31
0.0
  0
LINE
  5
5A02
330
1A
100
AcDbEntity
  8
SEIHIN
 62
     3
100
AcDbLine
 10
667.3996769598129
 20
-718.9420255300369
 30
0.0
 11
677.6902444565469
 21
-718.9420255300369
 31
0.0
  0
LINE
  5
5A03
330
1A
100
AcDbEntity
  8
SEIHIN
100
AcDbLine
 10
671.7204641598129
 20
-702.0713038107547
 30
0.0
 11
679.4207128394841
 21
-719.9392896846346
 31
0.0
  0
LINE
  5
5A04
330
1A
100
AcDbEntity
  8
SEIHIN
 62
     3
100
AcDbLine
 10
667.2946464085698
 20
-706.8497633681306
 30
0.0
 11
663.9762877085404
 21
-712.8731113137701
 31
0.0
  0
ARC
  5
5A05
330
1A
100
AcDbEntity
  8
SEIHIN
 62
     3
100
AcDbCircle
 10
667.3996769598129
 20
-714.942025530037
 30
0.0
 40
4.0
100
AcDbArc
 50
148.8534686845178
 51
270.0
  0
LINE
  5
5A06
330
1A
100
AcDbEntity
  8
SEIHIN
100
AcDbLine
 10
661.1496711598128
 20
-700.8628351107547
 30
0.0
 11
669.883761159813
 21
-700.8628351107547
 31
0.0
  0
ARC
  5
5A07
330
1A
100
AcDbEntity
  8
SEIHIN
100
AcDbCircle
 10
669.883761159813
 20
-702.8628351107547
 30
0.0
 40
1.999999992827478
100
AcDbArc
 50
23.31381865122899
 51
90.00001718873447
  0
LINE
  5
5A08
330
1A
100
AcDbEntity
  8
SEIHIN
100
AcDbLine
 10
677.4480895598131
 20
-702.7281914107548
 30
0.0
 11
683.6874660598129
 21
-717.2063071107547
 31
0.0
  0
ARC
  5
5A09
330
1A
100
AcDbEntity
  8
SEIHIN
100
AcDbCircle
 10
677.6902444565469
 20
-720.9420255300369
 30
0.0
 40
2.0
100
AcDbArc
 50
24.82825009504149
 51
90.0
  0
LINE
  5
5A0A
330
1A
100
AcDbEntity
  8
SEIHIN
100
AcDbLine
 10
679.2167628598129
 20
-701.8061625107548
 30
0.0
 11
682.7358540598129
 21
-707.4922135107548
 31
0.0
  0
ARC
  5
5A0B
330
1A
100
AcDbEntity
  8
SEIHIN
100
AcDbCircle
 10
678.3664411598128
 20
-702.3324258107548
 30
0.0
 40
1.000000031445915
100
AcDbArc
 50
31.75332601791029
 51
203.3137302472908
  0
CIRCLE
  5
5A0C
102
{ACAD_REACTORS
330
5C7B
102
}
330
1A
100
AcDbEntity
  8
KEIJYO
 62
   251
100
AcDbCircle
 10
662.2477177821597
 20
-688.0377122190976
 30
0.0
 40
0.7788173943287319
  0
LINE
  5
5A0D
102
{ACAD_REACTORS
330
5C7B
102
}
330
1A
100
AcDbEntity
  8
KEIJYO
 62
   251
100
AcDbLine
 10
662.2477177821597
 20
-687.2588948247688
 30
0.0
 11
662.2477177821597
 21
-688.8165296134263
 31
0.0
  0
LINE
  5
5A0E
330
1A
100
AcDbEntity
  8
SEIHIN
100
AcDbLine
 10
662.5811713598129
 20
-694.8628351107547
 30
0.0
 11
678.0140394598129
 21
-694.8628351107547
 31
0.0
  0
LINE
  5
5A0F
330
1A
100
AcDbEntity
  8
SEIHIN
100
AcDbLine
 10
662.2477177598129
 20
-688.0377122107547
 30
0.0
 11
660.7074883598129
 21
-692.1633268107548
 31
0.0
  0
ARC
  5
5A10
330
1A
100
AcDbEntity
  8
SEIHIN
100
AcDbCircle
 10
662.5811713598129
 20
-692.8628351107548
 30
0.0
 40
2.000000004515706
100
AcDbArc
 50
159.5277337563847
 51
269.9999713521005
  0
ARC
  5
5A11
330
1A
100
AcDbEntity
  8
SEIHIN
100
AcDbCircle
 10
661.7792970598129
 20
-687.8628351107547
 30
0.0
 40
0.4999999761464608
100
AcDbArc
 50
339.5277163292297
 51
90.0
  0
LINE
  5
5A12
330
1A
100
AcDbEntity
  8
SEIHIN
100
AcDbLine
 10
661.7792970598129
 20
-687.3628351107547
 30
0.0
 11
661.149671859813
 21
-687.3628351107547
 31
0.0
  0
ARC
  5
5A13
330
1A
100
AcDbEntity
  8
SEIHIN
100
AcDbCircle
 10
678.0140394598129
 20
-699.8628351107547
 30
0.0
 40
4.999999978972496
100
AcDbArc
 50
31.75332054288022
 51
89.999995416334
  0
LINE
  5
5A14
102
{ACAD_REACTORS
330
5C7B
102
}
330
1A
100
AcDbEntity
  8
KEIJYO
 62
   251
100
AcDbLine
 10
661.4689003878311
 20
-688.0377122190976
 30
0.0
 11
663.0265351764887
 21
-688.0377122190976
 31
0.0
  0
LINE
  5
5A15
330
1A
100
AcDbEntity
  8
SEIHIN
100
AcDbLine
 10
791.9996769598131
 20
-734.8630550107547
 30
0.0
 11
791.9996769598131
 21
-761.3630550107548
 31
0.0
  0
LINE
  5
5A16
330
1A
100
AcDbEntity
  8
SEIHIN
100
AcDbLine
 10
794.999676959813
 20
-761.8630550107548
 30
0.0
 11
794.999676959813
 21
-737.8629579107547
 31
0.0
  0
LINE
  5
5A17
330
1A
100
AcDbEntity
  8
SEIHIN
100
AcDbLine
 10
789.610570059813
 20
-745.3258627107548
 30
0.0
 11
791.9996769598131
 21
-753.8630550107548
 31
0.0
  0
LINE
  5
5A18
330
1A
100
AcDbEntity
  8
SEIHIN
100
AcDbLine
 10
798.999595759813
 20
-759.8630550107547
 30
0.0
 11
798.999595759813
 21
-673.8629550107548
 31
0.0
  0
LINE
  5
5A19
330
1A
100
AcDbEntity
  8
SEIHIN
100
AcDbLine
 10
798.999595759813
 20
-759.8630550107547
 30
0.0
 11
794.999676959813
 21
-761.8630550107548
 31
0.0
  0
ARC
  5
5A1A
330
1A
100
AcDbEntity
  8
SEIHIN
100
AcDbCircle
 10
792.4996769598131
 20
-761.3630550107548
 30
0.0
 40
0.5
100
AcDbArc
 50
180.0
 51
270.0
  0
LINE
  5
5A1B
330
1A
100
AcDbEntity
  8
SEIHIN
100
AcDbLine
 10
794.999676959813
 20
-761.8630550107548
 30
0.0
 11
792.4996769598131
 21
-761.8630550107548
 31
0.0
  0
LINE
  5
5A1C
330
1A
100
AcDbEntity
  8
SEIHIN
100
AcDbLine
 10
750.4283762598129
 20
-737.8629410107548
 30
0.0
 11
758.1278914598128
 21
-736.9256087107547
 31
0.0
  0
LINE
  5
5A1D
330
1A
100
AcDbEntity
  8
SEIHIN
100
AcDbLine
 10
745.748779759813
 20
-719.9398573107547
 30
0.0
 11
758.769557659813
 21
-735.2859648107547
 31
0.0
  0
ARC
  5
5A1E
330
1A
100
AcDbEntity
  8
SEIHIN
100
AcDbCircle
 10
781.549138059813
 20
-731.8629553107548
 30
0.0
 40
35.00000002024044
100
AcDbArc
 50
90.00000049109962
 51
142.9461834702693
  0
ARC
  5
5A1F
330
1A
100
AcDbEntity
  8
SEIHIN
100
AcDbCircle
 10
781.549138059813
 20
-731.8629553107548
 30
0.0
 40
39.99999998020622
100
AcDbArc
 50
90.00000042971381
 51
142.9461835312751
  0
LINE
  5
5A20
330
1A
100
AcDbEntity
  8
SEIHIN
100
AcDbLine
 10
749.564033359813
 20
-716.7081616107548
 30
0.0
 11
762.7802850598129
 21
-732.2846518107548
 31
0.0
  0
LINE
  5
5A21
330
1A
100
AcDbEntity
  8
SEIHIN
100
AcDbLine
 10
754.8690149598128
 20
-742.8629478107548
 30
0.0
 11
775.603811559813
 21
-740.3387117107548
 31
0.0
  0
LINE
  5
5A22
330
1A
100
AcDbEntity
  8
SEIHIN
100
AcDbLine
 10
754.8690149598128
 20
-742.8629478107548
 30
0.0
 11
719.2995988598129
 21
-742.8628937107547
 31
0.0
  0
LINE
  5
5A23
330
1A
100
AcDbEntity
  8
SEIHIN
100
AcDbLine
 10
750.4283762598129
 20
-737.8629410107548
 30
0.0
 11
719.299606459813
 21
-737.8628937107547
 31
0.0
  0
ARC
  5
5A24
330
1A
100
AcDbEntity
  8
SEIHIN
100
AcDbCircle
 10
719.2996870598131
 20
-684.8628937107547
 30
0.0
 40
52.99999999017543
100
AcDbArc
 50
254.6133765186057
 51
269.9999128671727
  0
ARC
  5
5A25
330
1A
100
AcDbEntity
  8
SEIHIN
100
AcDbCircle
 10
719.2996870598131
 20
-684.8628937107547
 30
0.0
 40
57.9999999946558
100
AcDbArc
 50
254.6133765640856
 51
269.9999140563276
  0
ARC
  5
5A26
330
1A
100
AcDbEntity
  8
SEIHIN
100
AcDbCircle
 10
719.2996870598131
 20
-684.8628937107547
 30
0.0
 40
43.0000000024102
100
AcDbArc
 50
314.8421450374817
 51
322.946183545423
  0
ARC
  5
5A27
330
1A
100
AcDbEntity
  8
SEIHIN
100
AcDbCircle
 10
719.2996870598131
 20
-684.8628937107547
 30
0.0
 40
43.00000000068138
100
AcDbArc
 50
305.7172656493573
 51
314.8421456027933
  0
ARC
  5
5A28
330
1A
100
AcDbEntity
  8
SEIHIN
100
AcDbCircle
 10
744.986266659813
 20
-720.5868301107548
 30
0.0
 40
1.000000030492406
100
AcDbArc
 50
40.31375012250842
 51
125.7172637824662
  0
ARC
  5
5A29
330
1A
100
AcDbEntity
  8
SEIHIN
100
AcDbCircle
 10
750.326549259813
 20
-716.0611921107547
 30
0.0
 40
1.000000010170451
100
AcDbArc
 50
134.8421239329929
 51
220.3135021568646
  0
ARC
  5
5A2A
330
1A
100
AcDbEntity
  8
SEIHIN
100
AcDbCircle
 10
785.3713456598129
 20
-701.8629553107548
 30
0.0
 40
4.999999968791364
100
AcDbArc
 50
2.816868130596912
 51
90.0
  0
LINE
  5
5A2B
330
1A
100
AcDbEntity
  8
SEIHIN
100
AcDbLine
 10
791.9996769598131
 20
-734.8630550107547
 30
0.0
 11
789.0936081598129
 21
-675.7714694107548
 31
0.0
  0
LINE
  5
5A2C
330
1A
100
AcDbEntity
  8
SEIHIN
100
AcDbLine
 10
794.002110859813
 20
-734.8342859107548
 30
0.0
 11
791.0021225598129
 21
-673.8629550107548
 31
0.0
  0
ARC
  5
5A2D
330
1A
100
AcDbEntity
  8
SEIHIN
100
AcDbCircle
 10
785.556514259813
 20
-705.6408657107548
 30
0.0
 40
4.999999990175512
100
AcDbArc
 50
274.8740065102776
 51
2.815484447338424
  0
ARC
  5
5A2E
330
1A
100
AcDbEntity
  8
SEIHIN
100
AcDbCircle
 10
788.2583616598128
 20
-719.8629550107548
 30
0.0
 40
3.000000001513865
100
AcDbArc
 50
2.815484447338424
 51
90.0
  0
LINE
  5
5A2F
330
1A
100
AcDbEntity
  8
SEIHIN
100
AcDbLine
 10
790.743769259813
 20
-716.8629550107548
 30
0.0
 11
787.9457769598129
 21
-716.8629550107548
 31
0.0
  0
ARC
  5
5A30
330
1A
100
AcDbEntity
  8
SEIHIN
100
AcDbCircle
 10
790.4995769598128
 20
-722.3062235107548
 30
0.0
 40
2.999999998074809
100
AcDbArc
 50
180.0
 51
233.4253702037164
  0
LINE
  5
5A31
330
1A
100
AcDbEntity
  8
CENTER_L
  6
CENTER
 48
5.0
100
AcDbLine
 10
803.9995957598129
 20
-716.8629550107548
 30
0.0
 11
783.999595759813
 21
-716.8629550107548
 31
0.0
  0
LINE
  5
5A32
330
1A
100
AcDbEntity
  8
SEIHIN
100
AcDbLine
 10
773.835712159813
 20
-720.2291372107547
 30
0.0
 11
768.7611107598129
 21
-734.9065284107548
 31
0.0
  0
LINE
  5
5A33
330
1A
100
AcDbEntity
  8
SEIHIN
100
AcDbLine
 10
769.313648459813
 20
-718.0068269107547
 30
0.0
 11
764.4879038598128
 21
-731.9644438107547
 31
0.0
  0
LINE
  5
5A34
330
1A
100
AcDbEntity
  8
SEIHIN
100
AcDbLine
 10
769.2940872598128
 20
-735.5662458107548
 30
0.0
 11
779.439153459813
 21
-734.3311942107548
 31
0.0
  0
ARC
  5
5A35
330
1A
100
AcDbEntity
  8
SEIHIN
100
AcDbCircle
 10
769.2336637598129
 20
-735.0699102107547
 30
0.0
 40
0.4999999887799412
100
AcDbArc
 50
160.927541585394
 51
276.9409874842267
  0
LINE
  5
5A36
330
1A
100
AcDbEntity
  8
SEIHIN
100
AcDbLine
 10
764.4879038598128
 20
-731.9644438107547
 30
0.0
 11
762.9767057598128
 21
-736.3353183107548
 31
0.0
  0
ARC
  5
5A37
330
1A
100
AcDbEntity
  8
SEIHIN
100
AcDbCircle
 10
758.007044559813
 20
-735.9329376107548
 30
0.0
 40
0.99999999753361
100
AcDbArc
 50
276.9409995518149
 51
40.31375012250842
  0
LINE
  5
5A38
330
1A
100
AcDbEntity
  8
SEIHIN
100
AcDbLine
 10
758.1278917598129
 20
-736.9256087107547
 30
0.0
 11
762.9767057598128
 21
-736.3353183107548
 31
0.0
  0
LINE
  5
5A39
330
1A
100
AcDbEntity
  8
SEIHIN
100
AcDbLine
 10
768.733663771033
 20
-735.0699102107547
 30
0.0
 11
768.733663771033
 21
-741.1750775259262
 31
0.0
  0
ARC
  5
5A3A
330
1A
100
AcDbEntity
  8
SEIHIN
100
AcDbCircle
 10
763.5427981598129
 20
-731.6376790107548
 30
0.0
 40
1.000000012575719
100
AcDbArc
 50
220.3137501225084
 51
340.9274709880198
  0
LINE
  5
5A3B
330
1A
100
AcDbEntity
  8
SEIHIN
100
AcDbLine
 10
779.9995769598131
 20
-734.8275298107547
 30
0.0
 11
779.9995769598131
 21
-735.3753559107548
 31
0.0
  0
ARC
  5
5A3C
330
1A
100
AcDbEntity
  8
SEIHIN
100
AcDbCircle
 10
774.9995769598131
 20
-735.3753559107548
 30
0.0
 40
5.000000012461504
100
AcDbArc
 50
276.9409832111386
 51
0.0
  0
ARC
  5
5A3D
330
1A
100
AcDbEntity
  8
SEIHIN
100
AcDbCircle
 10
779.4995769598131
 20
-734.8275298107547
 30
0.0
 40
0.4999999760409623
100
AcDbArc
 50
0.0
 51
96.94101161939009
  0
ARC
  5
5A3E
330
1A
100
AcDbEntity
  8
SEIHIN
100
AcDbCircle
 10
778.764709659813
 20
-721.2744626107547
 30
0.0
 40
9.99999999715634
100
AcDbArc
 50
94.87400651027764
 51
160.9275454565592
  0
LINE
  5
5A3F
330
1A
100
AcDbEntity
  8
SEIHIN
100
AcDbLine
 10
788.2583616598128
 20
-716.8629550107548
 30
0.0
 11
778.561243959813
 21
-716.8629550107548
 31
0.0
  0
ARC
  5
5A40
330
1A
100
AcDbEntity
  8
SEIHIN
100
AcDbCircle
 10
778.5612426598129
 20
-721.8629550107548
 30
0.0
 40
4.999999978876629
100
AcDbArc
 50
89.99998510309854
 51
160.9275300466952
  0
LINE
  5
5A41
330
1A
100
AcDbEntity
  8
SEIHIN
100
AcDbLine
 10
787.4995769598129
 20
-719.8629550107548
 30
0.0
 11
787.4995769598129
 21
-722.3062235107548
 31
0.0
  0
ARC
  5
5A42
330
1A
100
AcDbEntity
  8
SEIHIN
100
AcDbCircle
 10
784.4995769598129
 20
-719.8629550107548
 30
0.0
 40
3.0
100
AcDbArc
 50
0.0
 51
90.0
  0
LINE
  5
5A43
330
1A
100
AcDbEntity
  8
SEIHIN
100
AcDbLine
 10
785.9813387598131
 20
-710.6227854107547
 30
0.0
 11
777.915060659813
 21
-711.3106232107547
 31
0.0
  0
LINE
  5
5A44
330
1A
100
AcDbEntity
  8
SEIHIN
100
AcDbLine
 10
798.999595759813
 20
-733.8629423107548
 30
0.0
 11
795.9996769598131
 21
-735.6629579107548
 31
0.0
  0
LINE
  5
5A45
330
1A
100
AcDbEntity
  8
SEIHIN
100
AcDbLine
 10
793.999676959813
 20
-734.7933675107547
 30
0.0
 11
793.999676959813
 21
-737.8629579107547
 31
0.0
  0
LINE
  5
5A46
330
1A
100
AcDbEntity
  8
SEIHIN
100
AcDbLine
 10
791.9996769598131
 20
-734.8630550107547
 30
0.0
 11
790.194930559813
 21
-737.0287107107547
 31
0.0
  0
LINE
  5
5A47
330
1A
100
AcDbEntity
  8
SEIHIN
100
AcDbLine
 10
793.999676959813
 20
-737.8629579107547
 30
0.0
 11
795.9996769598131
 21
-737.8629579107547
 31
0.0
  0
LINE
  5
5A48
330
1A
100
AcDbEntity
  8
SEIHIN
100
AcDbLine
 10
795.9996769598131
 20
-735.6629579107548
 30
0.0
 11
795.9996769598131
 21
-737.8629579107547
 31
0.0
  0
LINE
  5
5A49
330
1A
100
AcDbEntity
  8
SEIHIN
100
AcDbLine
 10
789.4995769598128
 20
-738.9492848107547
 30
0.0
 11
789.4995769598128
 21
-744.5173831107548
 31
0.0
  0
LINE
  5
5A4A
330
1A
100
AcDbEntity
  8
SEIHIN
100
AcDbLine
 10
789.610570059813
 20
-745.3258627107548
 30
0.0
 11
789.6105699914365
 21
-745.3258624256443
 31
0.0
  0
LINE
  5
5A4B
330
1A
100
AcDbEntity
  8
SEIHIN
100
AcDbLine
 10
789.4995769598128
 20
-744.5176398828638
 30
0.0
 11
789.4995769598128
 21
-744.5173831107548
 31
0.0
  0
ARC
  5
5A4C
330
1A
100
AcDbEntity
  8
SEIHIN
100
AcDbCircle
 10
792.4995769598129
 20
-744.5173831107548
 30
0.0
 40
3.000000010988652
100
AcDbArc
 50
180.0
 51
195.634111415286
  0
ARC
  5
5A4D
330
1A
100
AcDbEntity
  8
SEIHIN
100
AcDbCircle
 10
792.4995769598129
 20
-738.9492848107547
 30
0.0
 40
2.999999991885308
100
AcDbArc
 50
140.1939090317878
 51
180.0
  0
LINE
  5
5A4E
330
1A
100
AcDbEntity
  8
SEIHIN
100
AcDbLine
 10
791.9996769598131
 20
-735.8629579107547
 30
0.0
 11
793.999676959813
 21
-737.8629579107547
 31
0.0
  0
LINE
  5
5A4F
330
1A
100
AcDbEntity
  8
SEIHIN
100
AcDbLine
 10
788.711968959813
 20
-724.7154677107547
 30
0.0
 11
791.606239559813
 21
-726.8629550107548
 31
0.0
  0
LINE
  5
5A50
330
1A
100
AcDbEntity
  8
SEIHIN
100
AcDbLine
 10
781.549137759813
 20
-691.8629550107548
 30
0.0
 11
789.8853617598128
 21
-691.8629550107548
 31
0.0
  0
LINE
  5
5A51
330
1A
100
AcDbEntity
  8
SEIHIN
100
AcDbLine
 10
789.0936081598129
 20
-675.7714694107548
 30
0.0
 11
775.087285659813
 21
-691.3705550107547
 31
0.0
  0
LINE
  5
5A52
330
1A
100
AcDbEntity
  8
CENTER_L
  6
CENTER
 48
5.0
100
AcDbLine
 10
803.9995957598129
 20
-683.8629550107548
 30
0.0
 11
783.499595759813
 21
-683.8629550107548
 31
0.0
  0
LINE
  5
5A53
330
1A
100
AcDbEntity
  8
SEIHIN
100
AcDbLine
 10
775.087285659813
 20
-691.3705550107547
 30
0.0
 11
773.9996759598129
 21
-692.5818450107548
 31
0.0
  0
LINE
  5
5A54
330
1A
100
AcDbEntity
  8
SEIHIN
100
AcDbLine
 10
781.549137759813
 20
-696.8629550107548
 30
0.0
 11
784.685029759813
 21
-696.8629550107548
 31
0.0
  0
LINE
  5
5A55
330
1A
100
AcDbEntity
  8
SEIHIN
100
AcDbLine
 10
781.549137759813
 20
-696.8629553107548
 30
0.0
 11
785.3713456598129
 21
-696.8629553107548
 31
0.0
  0
LINE
  5
5A56
330
1A
100
AcDbEntity
  8
SEIHIN
100
AcDbLine
 10
791.0021225598129
 20
-673.8629550107548
 30
0.0
 11
798.999703059813
 21
-673.8629550107548
 31
0.0
  0
LINE
  5
5A57
330
1A
100
AcDbEntity
  8
SEIHIN
100
AcDbLine
 10
789.0936081598129
 20
-675.7714694107548
 30
0.0
 11
791.0021225598129
 21
-673.8629550107548
 31
0.0
  0
DIMENSION
  5
5A58
330
1A
100
AcDbEntity
  8
SUNPOU
100
AcDbDimension
  2
*D22
 10
688.9245372132544
 20
-559.2989007722072
 30
0.0
 11
680.9097339984386
 21
-557.4389104952996
 31
0.0
 70
   164
  3
STANDARD
100
AcDbRadialDimension
 15
655.2861826170905
 25
-551.4924692475529
 35
0.0
 40
0.0
1001
ACAD
1000
DSTYLE
1002
{
1070
    41
1040
7.0
1070
    42
1040
6.0
1070
    43
1040
14.0
1070
    44
1040
3.0
1070
    73
1070
     0
1070
    74
1070
     0
1070
    77
1070
     3
1070
   140
1040
6.0
1070
   141
1040
150.0
1070
   147
1040
2.0
1070
   172
1070
     1
1070
   173
1070
     1
1070
   176
1070
     4
1070
   177
1070
     4
1070
   178
1070
     4
1070
   271
1070
     0
1070
   272
1070
     0
1070
   341
1005
6D
1070
     6
1000
OPEN
1070
     7
1000
OPEN
1002
}
  0
LINE
  5
5A59
330
1A
100
AcDbEntity
  8
CENTER_L
  6
CENTER
 48
5.0
100
AcDbLine
 10
647.3996718598128
 20
-559.2989007722073
 30
0.0
 11
805.9996769598129
 21
-559.2989007722073
 31
0.0
  0
LINE
  5
5A5A
330
1A
100
AcDbEntity
  8
SEIHIN
100
AcDbLine
 10
783.9996761598126
 20
-574.2989007722074
 30
0.0
 11
659.1015219580131
 21
-574.2989007722074
 31
0.0
  0
LINE
  5
5A5B
330
1A
100
AcDbEntity
  8
SEIHIN
100
AcDbLine
 10
783.9996761598126
 20
-544.2989007722074
 30
0.0
 11
659.1015219580131
 21
-544.2989007722074
 31
0.0
  0
LINE
  5
5A5C
330
1A
100
AcDbEntity
  8
SEIHIN
100
AcDbLine
 10
661.480626908613
 20
-574.2989007722074
 30
0.0
 11
662.5147766511129
 21
-559.2989876313074
 31
0.0
  0
LINE
  5
5A5D
330
1A
100
AcDbEntity
  8
SEIHIN
100
AcDbLine
 10
680.7996718598128
 20
-544.2989007722075
 30
0.0
 11
680.7996718598128
 21
-574.2989007722074
 31
0.0
  0
ARC
  5
5A5E
330
1A
100
AcDbEntity
  8
SEIHIN
100
AcDbCircle
 10
688.9245372132547
 20
-559.2989007722073
 30
0.0
 40
34.53229319182835
100
AcDbArc
 50
156.3417342052507
 51
203.6582657947492
  0
DIMENSION
  5
5A5F
330
1A
100
AcDbEntity
  8
SUNPOU
100
AcDbDimension
  2
*D23
 10
630.5712224961712
 20
-574.2989007722074
 30
0.0
 11
625.5712224961713
 21
-559.2989007722072
 31
0.0
 70
    32
  3
STANDARD
100
AcDbAlignedDimension
 13
659.1015219580131
 23
-544.2989007722074
 33
0.0
 14
659.1015219580131
 24
-574.2989007722074
 34
0.0
 50
90.0
100
AcDbRotatedDimension
1001
ACAD
1000
DSTYLE
1002
{
1070
    41
1040
7.0
1070
    42
1040
6.0
1070
    43
1040
14.0
1070
    44
1040
3.0
1070
    73
1070
     0
1070
    74
1070
     0
1070
    77
1070
     3
1070
   140
1040
6.0
1070
   141
1040
150.0
1070
   147
1040
2.0
1070
   172
1070
     1
1070
   173
1070
     1
1070
   176
1070
     4
1070
   177
1070
     4
1070
   178
1070
     4
1070
   271
1070
     0
1070
   272
1070
     0
1070
   341
1005
6D
1070
     6
1000
OPEN
1070
     7
1000
OPEN
1002
}
  0
ARC
  5
5A60
330
1A
100
AcDbEntity
  8
SEIHIN
100
AcDbCircle
 10
659.1015219580131
 20
-572.2989007722073
 30
0.0
 40
2.0
100
AcDbArc
 50
205.3769335251959
 51
270.0
  0
LINE
  5
5A61
330
1A
100
AcDbEntity
  8
SEIHIN
100
AcDbLine
 10
661.480626908613
 20
-544.2989007722074
 30
0.0
 11
662.5147766511129
 21
-559.2988139131074
 31
0.0
  0
ARC
  5
5A62
330
1A
100
AcDbEntity
  8
SEIHIN
100
AcDbCircle
 10
659.1015219580131
 20
-546.2989007722073
 30
0.0
 40
2.0
100
AcDbArc
 50
90.0
 51
154.6230664748041
  0
LINE
  5
5A63
330
1A
100
AcDbEntity
  8
SEIHIN
100
AcDbLine
 10
773.9996759598129
 20
-562.7989005722073
 30
0.0
 11
773.9996759598129
 21
-559.2989007722073
 31
0.0
  0
LINE
  5
5A64
330
1A
100
AcDbEntity
  8
SEIHIN
100
AcDbLine
 10
798.9996769598128
 20
-519.2989007722074
 30
0.0
 11
798.9996769598128
 21
-599.2989007722074
 31
0.0
  0
LINE
  5
5A65
330
1A
100
AcDbEntity
  8
SEIHIN
100
AcDbLine
 10
790.9996769598128
 20
-519.2989007722074
 30
0.0
 11
790.9996769598128
 21
-599.2989007722074
 31
0.0
  0
ARC
  5
5A66
330
1A
100
AcDbEntity
  8
SEIHIN
100
AcDbCircle
 10
787.9996769598128
 20
-562.7989007722073
 30
0.0
 40
1.0
100
AcDbArc
 50
0.0
 51
90.0
  0
ARC
  5
5A67
330
1A
100
AcDbEntity
  8
SEIHIN
100
AcDbCircle
 10
783.9996769598128
 20
-579.2989007722074
 30
0.0
 40
5.000000000000031
100
AcDbArc
 50
0.0
 51
90.00000916731897
  0
LINE
  5
5A68
330
1A
100
AcDbEntity
  8
SEIHIN
100
AcDbLine
 10
774.9996759598129
 20
-561.7989007722074
 30
0.0
 11
789.9996767598127
 21
-561.7989007722074
 31
0.0
  0
LINE
  5
5A69
330
1A
100
AcDbEntity
  8
CENTER_L
  6
CENTER
 48
5.0
100
AcDbLine
 10
781.9996769598128
 20
-591.2989007722074
 30
0.0
 11
805.9996769598129
 21
-591.2989007722074
 31
0.0
  0
ARC
  5
5A6A
330
1A
100
AcDbEntity
  8
SEIHIN
100
AcDbCircle
 10
774.9996759598129
 20
-562.7989007722073
 30
0.0
 40
1.000000000000009
100
AcDbArc
 50
90.0
 51
179.9999885408415
  0
LINE
  5
5A6B
330
1A
100
AcDbEntity
  8
SEIHIN
100
AcDbLine
 10
788.9996769598128
 20
-562.7989007722073
 30
0.0
 11
788.9996769598128
 21
-597.2989007722073
 31
0.0
  0
LINE
  5
5A6C
330
1A
100
AcDbEntity
  8
SEIHIN
100
AcDbLine
 10
798.9996769598128
 20
-599.2989007722074
 30
0.0
 11
790.9996769598128
 21
-599.2989007722074
 31
0.0
  0
LINE
  5
5A6D
330
1A
100
AcDbEntity
  8
SEIHIN
100
AcDbLine
 10
790.9996769598128
 20
-599.2989007722074
 30
0.0
 11
788.9996769598128
 21
-597.2989007722073
 31
0.0
  0
ARC
  5
5A6E
330
1A
100
AcDbEntity
  8
SEIHIN
100
AcDbCircle
 10
789.9996769598129
 20
-562.7989007722073
 30
0.0
 40
1.000000000000009
100
AcDbArc
 50
0.0
 51
90.00001145915197
  0
LINE
  5
5A6F
330
1A
100
AcDbEntity
  8
CENTER_L
  6
CENTER
 48
5.0
100
AcDbLine
 10
781.9996769598128
 20
-527.2989007722073
 30
0.0
 11
805.9996769598129
 21
-527.2989007722073
 31
0.0
  0
ARC
  5
5A70
330
1A
100
AcDbEntity
  8
SEIHIN
100
AcDbCircle
 10
783.9996769598128
 20
-539.2989007722073
 30
0.0
 40
5.000000000000031
100
AcDbArc
 50
269.999990832668
 51
0.0
  0
ARC
  5
5A71
330
1A
100
AcDbEntity
  8
SEIHIN
100
AcDbCircle
 10
787.9996769598128
 20
-555.7989007722073
 30
0.0
 40
1.0
100
AcDbArc
 50
270.0
 51
0.0
  0
LINE
  5
5A72
330
1A
100
AcDbEntity
  8
SEIHIN
100
AcDbLine
 10
774.9996759598129
 20
-556.7989007722074
 30
0.0
 11
789.9996767598127
 21
-556.7989007722074
 31
0.0
  0
ARC
  5
5A73
330
1A
100
AcDbEntity
  8
SEIHIN
100
AcDbCircle
 10
774.9996759598129
 20
-555.7989007722073
 30
0.0
 40
1.000000000000009
100
AcDbArc
 50
180.0000114591584
 51
270.0
  0
LINE
  5
5A74
330
1A
100
AcDbEntity
  8
SEIHIN
100
AcDbLine
 10
773.9996759598129
 20
-555.7989009722074
 30
0.0
 11
773.9996759598129
 21
-559.2989007722073
 31
0.0
  0
LINE
  5
5A75
330
1A
100
AcDbEntity
  8
SEIHIN
100
AcDbLine
 10
788.9996769598128
 20
-555.7989007722073
 30
0.0
 11
788.9996769598128
 21
-521.2989007722073
 31
0.0
  0
ARC
  5
5A76
330
1A
100
AcDbEntity
  8
SEIHIN
100
AcDbCircle
 10
789.9996769598129
 20
-555.7989007722073
 30
0.0
 40
1.000000000000009
100
AcDbArc
 50
269.999988540835
 51
0.0
  0
LINE
  5
5A77
330
1A
100
AcDbEntity
  8
SEIHIN
100
AcDbLine
 10
798.9996769598128
 20
-519.2989007722074
 30
0.0
 11
790.9996769598128
 21
-519.2989007722074
 31
0.0
  0
LINE
  5
5A78
330
1A
100
AcDbEntity
  8
SEIHIN
100
AcDbLine
 10
790.9996769598128
 20
-519.2989007722074
 30
0.0
 11
788.9996769598128
 21
-521.2989007722073
 31
0.0
  0
DIMENSION
  5
5A79
330
1A
100
AcDbEntity
  8
SUNPOU
100
AcDbDimension
  2
*D24
 10
996.5221629748393
 20
-653.9070195039394
 30
0.0
 11
964.5221629748393
 21
-648.9070195039394
 31
0.0
 70
    32
  3
STANDARD
100
AcDbAlignedDimension
 13
932.5221629748394
 23
-678.8629028107548
 33
0.0
 14
996.5221629748393
 24
-678.8629956107548
 34
0.0
100
AcDbRotatedDimension
1001
ACAD
1000
DSTYLE
1002
{
1070
    41
1040
7.0
1070
    42
1040
6.0
1070
    43
1040
14.0
1070
    44
1040
3.0
1070
    73
1070
     0
1070
    74
1070
     0
1070
    77
1070
     3
1070
   140
1040
6.0
1070
   141
1040
150.0
1070
   147
1040
2.0
1070
   172
1070
     1
1070
   173
1070
     1
1070
   176
1070
     4
1070
   177
1070
     4
1070
   178
1070
     4
1070
   271
1070
     0
1070
   272
1070
     0
1070
   341
1005
6D
1070
     6
1000
OPEN
1070
     7
1000
OPEN
1002
}
  0
LWPOLYLINE
  5
5A7A
330
1A
100
AcDbEntity
  8
SUNPOU
100
AcDbPolyline
 90
        3
 70
     0
 43
0.0
 10
927.9119567038142
 20
-677.1555703877095
 10
902.651969722247
 20
-632.987224541016
 10
868.6371978187931
 20
-632.987224541016
1001
ACAD
1000
DSTYLE
1002
{
1070
    41
1040
3.0
1070
    42
1040
3.0
1070
    43
1040
7.0
1070
    44
1040
1.5
1070
    73
1070
     0
1070
    74
1070
     0
1070
    77
1070
     0
1070
   140
1040
3.0
1070
   141
1040
3.0
1070
   147
1040
1.0
1070
   172
1070
     1
1070
   173
1070
     1
1070
   176
1070
   256
1070
   177
1070
   256
1070
   178
1070
   256
1070
   271
1070
     0
1070
   272
1070
     0
1070
   341
1005
6D
1070
   343
1005
6D
1070
   344
1005
6D
1002
}
  0
DIMENSION
  5
5A7B
330
1A
100
AcDbEntity
  8
SUNPOU
100
AcDbDimension
  2
*D25
 10
1004.522175482472
 20
-645.0634207179009
 30
0.0
 11
964.5221881786561
 21
-640.063420717901
 31
0.0
 70
    32
  3
STANDARD
100
AcDbAlignedDimension
 13
924.5222008748394
 23
-680.7202337107547
 33
0.0
 14
1004.522175482472
 24
-680.0896898107567
 34
0.0
100
AcDbRotatedDimension
1001
ACAD
1000
DSTYLE
1002
{
1070
    41
1040
7.0
1070
    42
1040
6.0
1070
    43
1040
14.0
1070
    44
1040
3.0
1070
    73
1070
     0
1070
    74
1070
     0
1070
    77
1070
     3
1070
   140
1040
6.0
1070
   141
1040
150.0
1070
   147
1040
2.0
1070
   172
1070
     1
1070
   173
1070
     1
1070
   176
1070
     4
1070
   177
1070
     4
1070
   178
1070
     4
1070
   271
1070
     0
1070
   272
1070
     0
1070
   341
1005
6D
1070
     6
1000
OPEN
1070
     7
1000
OPEN
1002
}
  0
LINE
  5
5A7C
330
1A
100
AcDbEntity
  8
ZUWAKU
100
AcDbLine
 10
1049.952221702238
 20
-935.3903907085816
 30
0.0
 11
1098.384029740575
 21
-935.3903907085816
 31
0.0
  0
LINE
  5
5A7D
330
1A
100
AcDbEntity
  8
ZUWAKU
100
AcDbLine
 10
1049.952221702238
 20
-935.5903907085815
 30
0.0
 11
1098.384029740575
 21
-935.5903907085817
 31
0.0
  0
LINE
  5
5A7E
330
1A
100
AcDbEntity
  8
ZUWAKU
100
AcDbLine
 10
1049.952221702238
 20
-935.7903907085816
 30
0.0
 11
1098.384029740575
 21
-935.7903907085816
 31
0.0
  0
TEXT
  5
5A7F
330
1A
100
AcDbEntity
  8
ZUWAKU
100
AcDbText
 10
1055.647095191721
 20
-932.9854696511743
 30
0.0
 40
5.599999999999998
  1
　　．　．　　
 41
0.9
  7
ｽﾀｲﾙ1
100
AcDbText
  0
LINE
  5
5A80
330
1A
100
AcDbEntity
  8
ZUWAKU
100
AcDbLine
 10
906.334198690175
 20
-935.3903907085816
 30
0.0
 11
953.6619749581467
 21
-935.3903907085816
 31
0.0
  0
LINE
  5
5A81
330
1A
100
AcDbEntity
  8
ZUWAKU
100
AcDbLine
 10
906.334198690175
 20
-935.5903907085817
 30
0.0
 11
953.6619749581467
 21
-935.5903907085817
 31
0.0
  0
LINE
  5
5A82
330
1A
100
AcDbEntity
  8
ZUWAKU
100
AcDbLine
 10
906.334198690175
 20
-935.7903907085816
 30
0.0
 11
953.6619749581467
 21
-935.7903907085816
 31
0.0
  0
TEXT
  5
5A83
330
1A
100
AcDbEntity
  8
MOJI
100
AcDbText
 10
864.3814511830361
 20
-939.0477729869216
 30
0.0
 40
5.599999999999998
  1
ＬＪ８２Ｔ
 41
0.9
  7
ｽﾀｲﾙ1
100
AcDbText
  0
LINE
  5
5A84
330
1A
100
AcDbEntity
  8
ZUWAKU
100
AcDbLine
 10
905.9341986901753
 20
-920.9903907085816
 30
0.0
 11
905.9341986901753
 21
-950.1903907085816
 31
0.0
  0
LINE
  5
5A85
330
1A
100
AcDbEntity
  8
ZUWAKU
100
AcDbLine
 10
906.334198690175
 20
-920.9903907085816
 30
0.0
 11
906.3341986901752
 21
-950.1903907085816
 31
0.0
  0
LINE
  5
5A86
330
1A
100
AcDbEntity
  8
ZUWAKU
100
AcDbLine
 10
906.134198690175
 20
-920.9903907085816
 30
0.0
 11
906.1341986901751
 21
-950.1903907085816
 31
0.0
  0
TEXT
  5
5A87
330
1A
100
AcDbEntity
  8
MOJI
100
AcDbText
 10
929.1759271643471
 20
-932.9854696511743
 30
0.0
 40
5.599999999999998
  1
Ａ３
 41
0.9
  7
ｽﾀｲﾙ1
100
AcDbText
  0
LINE
  5
5A88
330
1A
100
AcDbEntity
  8
ZUWAKU
100
AcDbLine
 10
848.5593831630255
 20
-920.9903907085816
 30
0.0
 11
848.5593831630255
 21
-950.1903907085816
 31
0.0
  0
LINE
  5
5A89
330
1A
100
AcDbEntity
  8
ZUWAKU
100
AcDbLine
 10
848.9593831630255
 20
-920.9903907085816
 30
0.0
 11
848.9593831630257
 21
-950.1903907085816
 31
0.0
  0
LINE
  5
5A8A
330
1A
100
AcDbEntity
  8
ZUWAKU
100
AcDbLine
 10
848.7593831630254
 20
-920.9903907085816
 30
0.0
 11
848.7593831630256
 21
-950.1903907085816
 31
0.0
  0
TEXT
  5
5A8B
330
1A
100
AcDbEntity
  8
ZUWAKU
100
AcDbText
 10
907.8116437123849
 20
-941.335034170196
 30
0.0
 40
4.0
  1
縮尺
 41
0.9
  7
ｽﾀｲﾙ1
100
AcDbText
  0
TEXT
  5
5A8C
330
1A
100
AcDbEntity
  8
MOJI
100
AcDbText
 10
929.1759271643471
 20
-947.7854696511743
 30
0.0
 40
5.599999999999998
  1
１/２
 41
0.9
  7
ｽﾀｲﾙ1
100
AcDbText
  0
TEXT
  5
5A8D
330
1A
100
AcDbEntity
  8
ZUWAKU
100
AcDbText
 10
850.436828185235
 20
-926.9350341701962
 30
0.0
 40
4.0
  1
品番
 41
0.9
  7
ｽﾀｲﾙ1
100
AcDbText
  0
TEXT
  5
5A8E
330
1A
100
AcDbEntity
  8
ZUWAKU
100
AcDbText
 10
907.8116437123847
 20
-926.9350341701962
 30
0.0
 40
4.0
  1
用紙
 41
0.9
  7
ｽﾀｲﾙ1
100
AcDbText
  0
LINE
  5
5A8F
330
1A
100
AcDbEntity
  8
ZUWAKU
100
AcDbLine
 10
953.6619749581467
 20
-920.9903907085816
 30
0.0
 11
953.6619749581467
 21
-950.1903907085816
 31
0.0
  0
LINE
  5
5A90
330
1A
100
AcDbEntity
  8
ZUWAKU
100
AcDbLine
 10
954.0619749581464
 20
-920.9903907085816
 30
0.0
 11
954.0619749581464
 21
-950.1903907085816
 31
0.0
  0
LINE
  5
5A91
330
1A
100
AcDbEntity
  8
ZUWAKU
100
AcDbLine
 10
953.8619749581467
 20
-920.9903907085816
 30
0.0
 11
953.8619749581467
 21
-950.1903907085816
 31
0.0
  0
LINE
  5
5A92
330
1A
100
AcDbEntity
  8
ZUWAKU
100
AcDbLine
 10
1049.552221702238
 20
-920.9903907085816
 30
0.0
 11
1049.552221702238
 21
-950.1903907085816
 31
0.0
  0
LINE
  5
5A93
330
1A
100
AcDbEntity
  8
ZUWAKU
100
AcDbLine
 10
1049.952221702238
 20
-920.9903907085816
 30
0.0
 11
1049.952221702239
 21
-950.1903907085816
 31
0.0
  0
LINE
  5
5A94
330
1A
100
AcDbEntity
  8
ZUWAKU
100
AcDbLine
 10
1049.752221702238
 20
-920.9903907085816
 30
0.0
 11
1049.752221702238
 21
-950.1903907085816
 31
0.0
  0
TEXT
  5
5A95
330
1A
100
AcDbEntity
  8
ZUWAKU
100
AcDbText
 10
1051.429666724448
 20
-926.9350341701962
 30
0.0
 40
4.0
  1
DATE
 41
0.9
  7
ｽﾀｲﾙ1
100
AcDbText
  0
LINE
  5
5A96
330
1A
100
AcDbEntity
  8
SEIHIN
100
AcDbLine
 10
943.0221484748395
 20
-693.8629550107548
 30
0.0
 11
986.0221484748395
 21
-693.8629550107548
 31
0.0
  0
LINE
  5
5A97
330
1A
100
AcDbEntity
  8
SEIHIN
100
AcDbLine
 10
943.0221629748393
 20
-678.8629550107548
 30
0.0
 11
986.0221629748393
 21
-678.8629550107548
 31
0.0
  0
LINE
  5
5A98
330
1A
100
AcDbEntity
  8
SEIHIN
100
AcDbLine
 10
952.0221846748395
 20
-718.8629550107548
 30
0.0
 11
959.5398401748393
 21
-718.8629550107548
 31
0.0
  0
LINE
  5
5A99
330
1A
100
AcDbEntity
  8
SEIHIN
100
AcDbLine
 10
964.5221846748395
 20
-761.8630550107548
 30
0.0
 11
952.3651767748392
 21
-761.2259332107547
 31
0.0
  0
LINE
  5
5A9A
330
1A
100
AcDbEntity
  8
SEIHIN
100
AcDbLine
 10
950.0055843748393
 20
-759.8630550107547
 30
0.0
 11
979.1643629748394
 21
-759.8630550107547
 31
0.0
  0
DIMENSION
  5
5A9B
330
1A
100
AcDbEntity
  8
SUNPOU
100
AcDbDimension
  2
*D26
 10
979.522184634508
 20
-777.9111649758529
 30
0.0
 11
964.5221846546737
 21
-772.9111649758529
 31
0.0
 70
    32
  3
STANDARD
100
AcDbAlignedDimension
 13
949.5221846748394
 23
-758.2300446107548
 33
0.0
 14
979.522184634508
 24
-758.4421772107548
 34
0.0
100
AcDbRotatedDimension
1001
ACAD
1000
DSTYLE
1002
{
1070
    41
1040
7.0
1070
    42
1040
6.0
1070
    43
1040
14.0
1070
    44
1040
3.0
1070
    73
1070
     0
1070
    74
1070
     0
1070
    77
1070
     3
1070
   140
1040
6.0
1070
   141
1040
150.0
1070
   147
1040
2.0
1070
   172
1070
     1
1070
   173
1070
     1
1070
   176
1070
     4
1070
   177
1070
     4
1070
   178
1070
     4
1070
   271
1070
     0
1070
   272
1070
     0
1070
   341
1005
6D
1070
     6
1000
OPEN
1070
     7
1000
OPEN
1002
}
  0
LINE
  5
5A9C
330
1A
100
AcDbEntity
  8
SEIHIN
100
AcDbLine
 10
932.0221757748395
 20
-698.8629550107548
 30
0.0
 11
959.5492405748396
 21
-698.8629550107548
 31
0.0
  0
LINE
  5
5A9D
330
1A
100
AcDbEntity
  8
SEIHIN
100
AcDbLine
 10
964.5221846748395
 20
-673.8629550107548
 30
0.0
 11
929.2604949748392
 21
-675.7109419107547
 31
0.0
  0
DIMENSION
  5
5A9E
330
1A
100
AcDbEntity
  8
SUNPOU
100
AcDbDimension
  2
*D27
 10
902.2392719209051
 20
-683.8629028107548
 30
0.0
 11
893.2392719209051
 21
-682.9405983694462
 31
0.0
 70
   160
  3
STANDARD
100
AcDbAlignedDimension
 13
964.5221846748395
 23
-673.8629550107548
 33
0.0
 14
927.5221629748394
 24
-683.8629028107548
 34
0.0
 50
90.0
100
AcDbRotatedDimension
1001
ACAD
1000
DSTYLE
1002
{
1070
   287
1070
     5
1070
    41
1040
7.0
1070
    42
1040
6.0
1070
    43
1040
14.0
1070
    44
1040
3.0
1070
    73
1070
     0
1070
    74
1070
     0
1070
    77
1070
     3
1070
   140
1040
6.0
1070
   141
1040
150.0
1070
   147
1040
2.0
1070
   172
1070
     1
1070
   173
1070
     1
1070
   176
1070
   256
1070
   177
1070
   256
1070
   178
1070
   256
1070
   271
1070
     0
1070
   272
1070
     0
1070
   279
1070
     2
1070
   341
1005
6D
1070
     6
1000
OPEN
1070
     7
1000
OPEN
1070
   371
1070
    -1
1070
   372
1070
    -1
1002
}
  0
DIMENSION
  5
5A9F
330
1A
100
AcDbEntity
  8
SUNPOU
100
AcDbDimension
  2
*D28
 10
883.5876546356949
 20
-761.8630550107548
 30
0.0
 11
878.587654635695
 21
-717.8630050107545
 31
0.0
 70
    32
  3
STANDARD
100
AcDbAlignedDimension
 13
964.5221846748395
 23
-673.8629550107548
 33
0.0
 14
964.5221846748395
 24
-761.8630550107548
 34
0.0
 50
90.0
100
AcDbRotatedDimension
1001
ACAD
1000
DSTYLE
1002
{
1070
    41
1040
7.0
1070
    42
1040
6.0
1070
    43
1040
14.0
1070
    44
1040
3.0
1070
    73
1070
     0
1070
    74
1070
     0
1070
    77
1070
     3
1070
   140
1040
6.0
1070
   141
1040
150.0
1070
   147
1040
2.0
1070
   172
1070
     1
1070
   173
1070
     1
1070
   176
1070
     4
1070
   177
1070
     4
1070
   178
1070
     4
1070
   271
1070
     0
1070
   272
1070
     0
1070
   341
1005
6D
1070
     6
1000
OPEN
1070
     7
1000
OPEN
1002
}
  0
LINE
  5
5AA0
330
1A
100
AcDbEntity
  8
SEIHIN
100
AcDbLine
 10
949.5221846748394
 20
-736.8629550107548
 30
0.0
 11
949.5221846748394
 21
-758.2300446107548
 31
0.0
  0
ARC
  5
5AA1
330
1A
100
AcDbEntity
  8
SEIHIN
100
AcDbCircle
 10
952.5221846748396
 20
-758.2300446107548
 30
0.0
 40
2.999999998689337
100
AcDbArc
 50
180.0
 51
266.9999993993174
  0
ARC
  5
5AA2
330
1A
100
AcDbEntity
  8
SEIHIN
100
AcDbCircle
 10
932.0221745748394
 20
-701.3629550107548
 30
0.0
 40
2.500000037569136
100
AcDbArc
 50
89.99997249801705
 51
179.7619628604887
  0
LINE
  5
5AA3
330
1A
100
AcDbEntity
  8
SEIHIN
100
AcDbLine
 10
924.5222008748394
 20
-680.7202337107547
 30
0.0
 11
924.5221267748393
 21
-731.8079274107548
 31
0.0
  0
DIMENSION
  5
5AA4
330
1A
100
AcDbEntity
  8
SUNPOU
100
AcDbDimension
  2
*D29
 10
903.6383701902169
 20
-716.8629550107548
 30
0.0
 11
895.2437831565175
 21
-727.3629550107547
 31
0.0
 70
   160
  3
STANDARD
100
AcDbAlignedDimension
 13
949.5221846748394
 23
-737.8629550107548
 33
0.0
 14
927.5221092748394
 24
-716.8629550107548
 34
0.0
 50
90.0
100
AcDbRotatedDimension
1001
ACAD
1000
DSTYLE
1002
{
1070
   287
1070
     5
1070
    41
1040
7.0
1070
    42
1040
6.0
1070
    43
1040
14.0
1070
    44
1040
3.0
1070
    73
1070
     0
1070
    74
1070
     0
1070
    77
1070
     3
1070
   140
1040
6.0
1070
   141
1040
150.0
1070
   147
1040
2.0
1070
   172
1070
     1
1070
   173
1070
     1
1070
   176
1070
   256
1070
   177
1070
   256
1070
   178
1070
   256
1070
   271
1070
     0
1070
   272
1070
     0
1070
   279
1070
     2
1070
   341
1005
6D
1070
     6
1000
OPEN
1070
     7
1000
OPEN
1070
   371
1070
    -1
1070
   372
1070
    -1
1002
}
  0
LINE
  5
5AA5
330
1A
100
AcDbEntity
  8
SEIHIN
100
AcDbLine
 10
949.5221846748394
 20
-721.3629550107548
 30
0.0
 11
949.5221846748394
 21
-726.3629550107548
 31
0.0
  0
LINE
  5
5AA6
330
1A
100
AcDbEntity
  8
SEIHIN
100
AcDbLine
 10
940.5221339748395
 20
-711.3629586107548
 30
0.0
 11
940.5221122748393
 21
-726.3534341107548
 31
0.0
  0
LINE
  5
5AA7
330
1A
100
AcDbEntity
  8
SEIHIN
100
AcDbLine
 10
925.0913597748395
 20
-733.8629550107548
 30
0.0
 11
946.5221846748395
 21
-733.8629550107548
 31
0.0
  0
LINE
  5
5AA8
330
1A
100
AcDbEntity
  8
SEIHIN
100
AcDbLine
 10
926.6847609748392
 20
-735.6629550107547
 30
0.0
 11
949.2717300748395
 21
-735.6629550107547
 31
0.0
  0
LINE
  5
5AA9
330
1A
100
AcDbEntity
  8
SEIHIN
100
AcDbLine
 10
949.5221846748394
 20
-737.8629550107548
 30
0.0
 11
929.2604469748393
 21
-736.8010823107548
 31
0.0
  0
ARC
  5
5AAA
330
1A
100
AcDbEntity
  8
SEIHIN
100
AcDbCircle
 10
929.5221267748393
 20
-731.8079347107548
 30
0.0
 40
4.999999963658376
100
AcDbArc
 50
179.9999163481607
 51
266.9999997407817
  0
ARC
  5
5AAB
330
1A
100
AcDbEntity
  8
SEIHIN
100
AcDbCircle
 10
946.5221846748395
 20
-736.8629550107548
 30
0.0
 40
3.0
100
AcDbArc
 50
0.0
 51
90.0
  0
LINE
  5
5AAC
330
1A
100
AcDbEntity
  8
SEIHIN
100
AcDbLine
 10
943.0220936748394
 20
-728.8629550107548
 30
0.0
 11
947.0221846748396
 21
-728.8629550107548
 31
0.0
  0
ARC
  5
5AAD
330
1A
100
AcDbEntity
  8
SEIHIN
100
AcDbCircle
 10
943.0220940748395
 20
-726.3629550107548
 30
0.0
 40
2.49999996478682
100
AcDbArc
 50
179.7817965115265
 51
269.999990832668
  0
ARC
  5
5AAE
330
1A
100
AcDbEntity
  8
SEIHIN
100
AcDbCircle
 10
947.0221846748396
 20
-726.3629550107548
 30
0.0
 40
2.5
100
AcDbArc
 50
270.0
 51
0.0
  0
LINE
  5
5AAF
330
1A
100
AcDbEntity
  8
CENTER_L
100
AcDbLine
 10
927.5221092748394
 20
-716.8629550107548
 30
0.0
 11
937.5221092748393
 21
-716.8629550107548
 31
0.0
  0
LINE
  5
5AB0
330
1A
100
AcDbEntity
  8
SEIHIN
100
AcDbLine
 10
932.0221636748394
 20
-708.8629550107548
 30
0.0
 11
938.0221339748395
 21
-708.8629550107548
 31
0.0
  0
LINE
  5
5AB1
330
1A
100
AcDbEntity
  8
CENTER_L
100
AcDbLine
 10
932.5221092748392
 20
-721.8629550107548
 30
0.0
 11
932.5221092748392
 21
-711.8629550107548
 31
0.0
  0
CIRCLE
  5
5AB2
330
1A
100
AcDbEntity
  8
SEIHIN
100
AcDbCircle
 10
932.5221092748392
 20
-716.8629550107548
 30
0.0
 40
2.149999999999977
  0
ARC
  5
5AB3
330
1A
100
AcDbEntity
  8
SEIHIN
100
AcDbCircle
 10
932.0221636748394
 20
-706.3629550107548
 30
0.0
 40
2.500000000001295
100
AcDbArc
 50
179.9999174940771
 51
270.0
  0
LINE
  5
5AB4
330
1A
100
AcDbEntity
  8
SEIHIN
100
AcDbLine
 10
929.5221708748394
 20
-701.3525686107548
 30
0.0
 11
929.5221636748394
 21
-706.3629514107548
 31
0.0
  0
ARC
  5
5AB5
330
1A
100
AcDbEntity
  8
SEIHIN
100
AcDbCircle
 10
952.0221846748395
 20
-721.3629550107548
 30
0.0
 40
2.5
100
AcDbArc
 50
90.0
 51
180.0
  0
ARC
  5
5AB6
330
1A
100
AcDbEntity
  8
SEIHIN
100
AcDbCircle
 10
938.0221339748395
 20
-711.3629550107548
 30
0.0
 40
2.500000000001295
100
AcDbArc
 50
359.9999174940772
 51
90.0
  0
ARC
  5
5AB7
330
1A
100
AcDbEntity
  8
SEIHIN
100
AcDbCircle
 10
929.5221747748394
 20
-680.7040895107547
 30
0.0
 40
4.999999995182159
100
AcDbArc
 50
93.00003007216224
 51
179.8478611927739
  0
INSERT
  5
5AB8
330
1A
100
AcDbEntity
  8
SUNPOU
100
AcDbBlockReference
  2
_OPEN
 10
930.8906509052762
 20
-682.3639656160094
 30
0.0
 41
5.999999999999948
 42
6.0
 43
6.0
 50
299.7653467175953
1001
ACAD
1000
DSTYLE
1002
{
1070
    41
1040
3.0
1070
    42
1040
3.0
1070
    43
1040
7.0
1070
    44
1040
1.5
1070
    73
1070
     0
1070
    74
1070
     0
1070
    77
1070
     0
1070
   140
1040
3.0
1070
   141
1040
3.0
1070
   147
1040
1.0
1070
   172
1070
     1
1070
   173
1070
     1
1070
   176
1070
   256
1070
   177
1070
   256
1070
   178
1070
   256
1070
   271
1070
     0
1070
   272
1070
     0
1070
   341
1005
6D
1070
   343
1005
6D
1070
   344
1005
6D
1002
}
  0
LINE
  5
5AB9
330
1A
100
AcDbEntity
  8
CENTER_L
100
AcDbLine
 10
927.5221629748394
 20
-683.8629028107548
 30
0.0
 11
937.5221629748393
 21
-683.8629028107548
 31
0.0
  0
LINE
  5
5ABA
330
1A
100
AcDbEntity
  8
CENTER_L
100
AcDbLine
 10
932.5221629748394
 20
-688.8629028107548
 30
0.0
 11
932.5221629748394
 21
-678.8629028107548
 31
0.0
  0
CIRCLE
  5
5ABB
330
1A
100
AcDbEntity
  8
SEIHIN
100
AcDbCircle
 10
932.5221629748394
 20
-683.8629028107548
 30
0.0
 40
2.15000000000009
  0
LINE
  5
5ABC
330
1A
100
AcDbEntity
  8
SEIHIN
100
AcDbLine
 10
940.5221629748394
 20
-681.3629514107548
 30
0.0
 11
940.5221484748395
 21
-691.3629515107547
 31
0.0
  0
ARC
  5
5ABD
330
1A
100
AcDbEntity
  8
SEIHIN
100
AcDbCircle
 10
943.0221484748395
 20
-691.3629550107548
 30
0.0
 40
2.500000000001224
100
AcDbArc
 50
179.9999197859036
 51
270.0
  0
ARC
  5
5ABE
330
1A
100
AcDbEntity
  8
SEIHIN
100
AcDbCircle
 10
943.0221629748393
 20
-681.3629550107548
 30
0.0
 40
2.500000000001295
100
AcDbArc
 50
90.0
 51
179.9999174940771
  0
LINE
  5
5ABF
330
1A
100
AcDbEntity
  8
SEIHIN
100
AcDbLine
 10
979.5221846748395
 20
-736.8629550107548
 30
0.0
 11
979.5221846748395
 21
-758.4421772107548
 31
0.0
  0
LINE
  5
5AC0
330
1A
100
AcDbEntity
  8
SEIHIN
100
AcDbLine
 10
959.5221846748396
 20
-751.8630550107547
 30
0.0
 11
959.5221846748396
 21
-723.8630550107548
 31
0.0
  0
LINE
  5
5AC1
330
1A
100
AcDbEntity
  8
SEIHIN
100
AcDbLine
 10
954.5221846748395
 20
-725.8630552107547
 30
0.0
 11
954.5221846748395
 21
-754.8630550107548
 31
0.0
  0
LINE
  5
5AC2
330
1A
100
AcDbEntity
  8
SEIHIN
100
AcDbLine
 10
969.5221846748395
 20
-751.8630550107547
 30
0.0
 11
969.5221846748395
 21
-723.8630550107548
 31
0.0
  0
LINE
  5
5AC3
330
1A
100
AcDbEntity
  8
SEIHIN
100
AcDbLine
 10
974.5221846748394
 20
-725.8630551107548
 30
0.0
 11
974.5221846748394
 21
-754.8630550107548
 31
0.0
  0
LINE
  5
5AC4
330
1A
100
AcDbEntity
  8
CENTER_L
100
AcDbLine
 10
964.5221846748395
 20
-768.872661433139
 30
0.0
 11
964.5221846748395
 21
-666.8533485882597
 31
0.0
  0
ARC
  5
5AC5
330
1A
100
AcDbEntity
  8
SEIHIN
100
AcDbCircle
 10
967.5221846748396
 20
-751.8630550107547
 30
0.0
 40
2.0
100
AcDbArc
 50
270.0
 51
0.0
  0
LINE
  5
5AC6
330
1A
100
AcDbEntity
  8
SEIHIN
100
AcDbLine
 10
964.5221846748395
 20
-761.8630550107548
 30
0.0
 11
976.6268831748392
 21
-761.4403496107548
 31
0.0
  0
LINE
  5
5AC7
330
1A
100
AcDbEntity
  8
SEIHIN
100
AcDbLine
 10
956.5221846748395
 20
-756.8630550107548
 30
0.0
 11
972.5221846748395
 21
-756.8630550107548
 31
0.0
  0
ARC
  5
5AC8
330
1A
100
AcDbEntity
  8
SEIHIN
100
AcDbCircle
 10
961.5221846748395
 20
-751.8630550107547
 30
0.0
 40
2.0
100
AcDbArc
 50
180.0
 51
270.0
  0
ARC
  5
5AC9
330
1A
100
AcDbEntity
  8
SEIHIN
100
AcDbCircle
 10
956.5221846748395
 20
-754.8630550107548
 30
0.0
 40
2.0
100
AcDbArc
 50
180.0
 51
270.0
  0
LINE
  5
5ACA
330
1A
100
AcDbEntity
  8
SEIHIN
100
AcDbLine
 10
961.5221846748395
 20
-753.8630550107548
 30
0.0
 11
967.5221846748396
 21
-753.8630550107548
 31
0.0
  0
ARC
  5
5ACB
330
1A
100
AcDbEntity
  8
SEIHIN
100
AcDbCircle
 10
976.5221846748396
 20
-758.4421772107548
 30
0.0
 40
2.999999959668632
100
AcDbArc
 50
272.0000002428418
 51
0.0
  0
ARC
  5
5ACC
330
1A
100
AcDbEntity
  8
SEIHIN
100
AcDbCircle
 10
972.5221846748395
 20
-754.8630550107548
 30
0.0
 40
2.0
100
AcDbArc
 50
270.0
 51
0.0
  0
ARC
  5
5ACD
330
1A
100
AcDbEntity
  8
SEIHIN
100
AcDbCircle
 10
969.5221701748394
 20
-701.3629550107548
 30
0.0
 40
2.500000000001779
100
AcDbArc
 50
89.99994957971312
 51
179.9999174940771
  0
ARC
  5
5ACE
330
1A
100
AcDbEntity
  8
SEIHIN
100
AcDbCircle
 10
959.5221846748396
 20
-701.3630173107547
 30
0.0
 40
2.499999991871987
100
AcDbArc
 50
359.9999152022442
 51
89.37996505392368
  0
ARC
  5
5ACF
330
1A
100
AcDbEntity
  8
SEIHIN
100
AcDbCircle
 10
997.0221745748395
 20
-701.3630173107547
 30
0.0
 40
2.499999958792499
100
AcDbArc
 50
0.0974647548552847
 51
91.17635812200107
  0
LINE
  5
5AD0
330
1A
100
AcDbEntity
  8
SEIHIN
100
AcDbLine
 10
1004.522201874839
 20
-679.9935336107547
 30
0.0
 11
1004.522126274839
 21
-732.1615012107547
 31
0.0
  0
LINE
  5
5AD1
330
1A
100
AcDbEntity
  8
SEIHIN
100
AcDbLine
 10
986.0222344748395
 20
-728.8629358107548
 30
0.0
 11
982.0221434748393
 21
-728.8629394107548
 31
0.0
  0
LINE
  5
5AD2
330
1A
100
AcDbEntity
  8
SEIHIN
100
AcDbLine
 10
979.5221846748395
 20
-737.8629550107548
 30
0.0
 11
999.6966237748393
 21
-737.1584481107547
 31
0.0
  0
LINE
  5
5AD3
330
1A
100
AcDbEntity
  8
SEIHIN
100
AcDbLine
 10
979.7726392748396
 20
-735.6629550107547
 30
0.0
 11
1002.911415774839
 21
-735.6629550107547
 31
0.0
  0
LINE
  5
5AD4
330
1A
100
AcDbEntity
  8
SEIHIN
100
AcDbLine
 10
982.5221846748394
 20
-733.8629550107548
 30
0.0
 11
1004.156860174839
 21
-733.8629550107548
 31
0.0
  0
LINE
  5
5AD5
330
1A
100
AcDbEntity
  8
SEIHIN
100
AcDbLine
 10
979.5221367748395
 20
-721.3629416107547
 30
0.0
 11
979.5221412748395
 21
-726.3629416107548
 31
0.0
  0
ARC
  5
5AD6
330
1A
100
AcDbEntity
  8
SEIHIN
100
AcDbCircle
 10
972.5221846748395
 20
-725.8630550107548
 30
0.0
 40
2.0
100
AcDbArc
 50
359.9999971352087
 51
90.0
  0
ARC
  5
5AD7
330
1A
100
AcDbEntity
  8
SEIHIN
100
AcDbCircle
 10
956.5221846748395
 20
-725.8630550107548
 30
0.0
 40
2.000000000000004
100
AcDbArc
 50
90.0
 51
180.0000057295759
  0
LINE
  5
5AD8
330
1A
100
AcDbEntity
  8
SEIHIN
100
AcDbLine
 10
956.5221846748395
 20
-723.8630550107548
 30
0.0
 11
972.5221846748395
 21
-723.8630550107548
 31
0.0
  0
ARC
  5
5AD9
330
1A
100
AcDbEntity
  8
SEIHIN
100
AcDbCircle
 10
982.5221846748394
 20
-736.8629550107548
 30
0.0
 40
3.0
100
AcDbArc
 50
90.0
 51
180.0
  0
ARC
  5
5ADA
330
1A
100
AcDbEntity
  8
SEIHIN
100
AcDbCircle
 10
982.0221412748393
 20
-726.3629394107548
 30
0.0
 40
2.500000000000968
100
AcDbArc
 50
180.0000504202803
 51
270.0000504202868
  0
ARC
  5
5ADB
330
1A
100
AcDbEntity
  8
SEIHIN
100
AcDbCircle
 10
969.5221701748394
 20
-716.3629550107548
 30
0.0
 40
2.49999998916117
100
AcDbArc
 50
179.236126074761
 51
269.999981665349
  0
LINE
  5
5ADC
330
1A
100
AcDbEntity
  8
SEIHIN
100
AcDbLine
 10
962.0221846748394
 20
-701.3630210107548
 30
0.0
 11
962.0221628748394
 21
-716.3742820107548
 31
0.0
  0
LINE
  5
5ADD
330
1A
100
AcDbEntity
  8
SEIHIN
100
AcDbLine
 10
967.0221701748394
 20
-701.3629514107548
 30
0.0
 11
967.0221484748394
 21
-716.3296224107548
 31
0.0
  0
ARC
  5
5ADE
330
1A
100
AcDbEntity
  8
SEIHIN
100
AcDbCircle
 10
959.5221882748393
 20
-716.3630173107548
 30
0.0
 40
2.499999998756617
100
AcDbArc
 50
270.4045551066539
 51
359.7418312172151
  0
LINE
  5
5ADF
330
1A
100
AcDbEntity
  8
SEIHIN
100
AcDbLine
 10
969.5221693748393
 20
-718.8629550107548
 30
0.0
 11
977.0296143748394
 21
-718.8629550107548
 31
0.0
  0
ARC
  5
5AE0
330
1A
100
AcDbEntity
  8
SEIHIN
100
AcDbCircle
 10
977.0221367748394
 20
-721.3629438107548
 30
0.0
 40
2.499999991463195
100
AcDbArc
 50
0.0000504202868864
 51
89.82862577493838
  0
LINE
  5
5AE1
330
1A
100
AcDbEntity
  8
SEIHIN
100
AcDbLine
 10
988.5221339748396
 20
-711.3629514107548
 30
0.0
 11
988.5221122748394
 21
-726.3384801107547
 31
0.0
  0
ARC
  5
5AE2
330
1A
100
AcDbEntity
  8
SEIHIN
100
AcDbCircle
 10
999.5221262748394
 20
-732.1614940107548
 30
0.0
 40
4.999999982753208
100
AcDbArc
 50
272.0000002028488
 51
359.9999174940772
  0
ARC
  5
5AE3
330
1A
100
AcDbEntity
  8
SEIHIN
100
AcDbCircle
 10
986.0222318748395
 20
-726.3629358107548
 30
0.0
 40
2.50000000955731
100
AcDbArc
 50
270.0000595876058
 51
0.5604922931744262
  0
LINE
  5
5AE4
330
1A
100
AcDbEntity
  8
CENTER_L
100
AcDbLine
 10
996.5221092748393
 20
-721.8630478107548
 30
0.0
 11
996.5221092748393
 21
-711.8630478107547
 31
0.0
  0
LINE
  5
5AE5
330
1A
100
AcDbEntity
  8
CENTER_L
100
AcDbLine
 10
991.5221092748392
 20
-716.8630478107547
 30
0.0
 11
1001.522109274839
 21
-716.8630478107547
 31
0.0
  0
CIRCLE
  5
5AE6
330
1A
100
AcDbEntity
  8
SEIHIN
100
AcDbCircle
 10
996.5221092748393
 20
-716.8630478107547
 30
0.0
 40
2.150000000009207
  0
LINE
  5
5AE7
330
1A
100
AcDbEntity
  8
SEIHIN
100
AcDbLine
 10
991.0221339748396
 20
-708.8629550107548
 30
0.0
 11
997.0221636748394
 21
-708.8629550107548
 31
0.0
  0
ARC
  5
5AE8
330
1A
100
AcDbEntity
  8
SEIHIN
100
AcDbCircle
 10
991.0221339748396
 20
-711.3629550107548
 30
0.0
 40
2.500000000001295
100
AcDbArc
 50
90.0
 51
179.9999174940771
  0
ARC
  5
5AE9
330
1A
100
AcDbEntity
  8
SEIHIN
100
AcDbCircle
 10
997.0221636748394
 20
-706.3629550107548
 30
0.0
 40
2.500000000001295
100
AcDbArc
 50
270.0
 51
359.9999174940772
  0
LINE
  5
5AEA
330
1A
100
AcDbEntity
  8
SEIHIN
100
AcDbLine
 10
999.5221708748395
 20
-701.3587646107547
 30
0.0
 11
999.5221636748395
 21
-706.3629586107548
 31
0.0
  0
LINE
  5
5AEB
330
1A
100
AcDbEntity
  8
SEIHIN
100
AcDbLine
 10
969.5221723748396
 20
-698.8629550107548
 30
0.0
 11
996.9708377748393
 21
-698.8629550107548
 31
0.0
  0
LINE
  5
5AEC
330
1A
100
AcDbEntity
  8
SEIHIN
100
AcDbLine
 10
964.5221846748395
 20
-673.8629550107548
 30
0.0
 11
999.6966875748395
 21
-675.0913778107547
 31
0.0
  0
ARC
  5
5AED
330
1A
100
AcDbEntity
  8
SEIHIN
100
AcDbCircle
 10
999.5221756748394
 20
-680.0883314107547
 30
0.0
 40
4.999999992158339
100
AcDbArc
 50
359.98443388238
 51
87.99982437890555
  0
LINE
  5
5AEE
330
1A
100
AcDbEntity
  8
SEIHIN
100
AcDbLine
 10
988.5221629748393
 20
-681.3630210107548
 30
0.0
 11
988.5221484748395
 21
-691.3630221107547
 31
0.0
  0
LINE
  5
5AEF
330
1A
100
AcDbEntity
  8
CENTER_L
100
AcDbLine
 10
996.5221629748393
 20
-688.8629956107547
 30
0.0
 11
996.5221629748393
 21
-678.8629956107548
 31
0.0
  0
ARC
  5
5AF0
330
1A
100
AcDbEntity
  8
SEIHIN
100
AcDbCircle
 10
986.0221484748395
 20
-691.3630173107548
 30
0.0
 40
2.500000000002303
100
AcDbArc
 50
270.0
 51
359.9998899921007
  0
LINE
  5
5AF1
330
1A
100
AcDbEntity
  8
CENTER_L
100
AcDbLine
 10
991.5221629748394
 20
-683.8629956107547
 30
0.0
 11
1001.522162974839
 21
-683.8629956107547
 31
0.0
  0
ARC
  5
5AF2
330
1A
100
AcDbEntity
  8
SEIHIN
100
AcDbCircle
 10
986.0221629748393
 20
-681.3630173107547
 30
0.0
 40
2.500000000001369
100
AcDbArc
 50
359.9999152022442
 51
90.0
  0
CIRCLE
  5
5AF3
330
1A
100
AcDbEntity
  8
SEIHIN
100
AcDbCircle
 10
996.5221629748393
 20
-683.8629956107547
 30
0.0
 40
2.150000000008916
  0
TEXT
  5
5AF4
330
1A
100
AcDbEntity
  8
ZUWAKU
100
AcDbText
 10
1109.663103384277
 20
-933.4365513728949
 30
0.0
 40
6.0
  1
積水化学工業株式会社
 41
0.9
  7
ｽﾀｲﾙ1
100
AcDbText
  0
LINE
  5
5AF5
330
1A
100
AcDbEntity
  8
ZUWAKU
100
AcDbLine
 10
1098.984029740575
 20
-920.9903907085816
 30
0.0
 11
1098.984029740575
 21
-950.1903907085816
 31
0.0
  0
LINE
  5
5AF6
330
1A
100
AcDbEntity
  8
ZUWAKU
100
AcDbLine
 10
1098.784029740575
 20
-920.9903907085816
 30
0.0
 11
1098.784029740575
 21
-950.1903907085816
 31
0.0
  0
LINE
  5
5AF7
330
1A
100
AcDbEntity
  8
ZUWAKU
100
AcDbLine
 10
1098.584029740575
 20
-920.9903907085816
 30
0.0
 11
1098.584029740575
 21
-950.1903907085816
 31
0.0
  0
LINE
  5
5AF8
330
1A
100
AcDbEntity
  8
ZUWAKU
100
AcDbLine
 10
1098.384029740575
 20
-920.9903907085816
 30
0.0
 11
1098.384029740575
 21
-950.1903907085816
 31
0.0
  0
TEXT
  5
5AF9
330
1A
100
AcDbEntity
  8
ZUWAKU
100
AcDbText
 10
1109.663103384277
 20
-944.3415503947276
 30
0.0
 40
6.0
  1
建材事業部
 41
0.9
  7
ｽﾀｲﾙ1
100
AcDbText
  0
TEXT
  5
5AFA
330
1A
100
AcDbEntity
  8
SUNPOU
100
AcDbText
 10
869.1420218503765
 20
-630.8717460500002
 30
0.0
 40
6.0
  1
4-φ4.2
100
AcDbText
  0
VIEWPORT
  5
22
330
17
100
AcDbEntity
 67
     1
  8
0
100
AcDbViewport
 10
313.6808219178082
 20
148.5
 30
0.0
 40
627.3616438356165
 41
297.0
 68
     2
 69
     1
1001
ACAD
1000
MVIEW
1002
{
1070
    16
1010
0.0
1020
0.0
1030
0.0
1010
0.0
1020
0.0
1030
1.0
1040
0.0
1040
297.0
1040
313.6808219178082
1040
148.5
1040
50.0
1040
0.0
1040
0.0
1070
     0
1070
   100
1070
     1
1070
     0
1070
     0
1070
     0
1070
     0
1070
     0
1040
0.0
1040
0.0
1040
0.0
1040
1.0
1040
1.0
1040
10.0
1040
10.0
1070
     0
1002
{
1002
}
1002
}
  0
VIEWPORT
  5
64
330
17
100
AcDbEntity
 67
     1
  8
VIEWPORT
100
AcDbViewport
 10
210.0
 20
148.5
 30
0.0
 40
420.0
 41
297.0
 68
     1
 69
     2
1001
ACAD
1000
MVIEW
1002
{
1070
    16
1010
0.0
1020
0.0
1030
0.0
1010
0.0
1020
0.0
1030
1.0
1040
0.0
1040
605.8799999999997
1040
420.0
1040
297.0
1040
50.0
1040
0.0
1040
0.0
1070
     0
1070
   100
1070
     1
1070
     0
1070
     0
1070
     0
1070
     0
1070
     0
1040
0.0
1040
0.0
1040
0.0
1040
10.0
1040
10.0
1040
0.0
1040
0.0
1070
     0
1002
{
1002
}
1002
}
  0
ENDSEC
  0
SECTION
  2
OBJECTS
  0
DICTIONARY
  5
C
330
0
100
AcDbDictionary
  3
ACAD_GROUP
350
D
  3
ACAD_LAYOUT
350
85F
  3
ACAD_MLINESTYLE
350
E
  3
ACAD_PLOTSETTINGS
350
860
  3
ACAD_PLOTSTYLENAME
350
85D
  3
ACDBHEADERROUNDTRIPXREC
350
5C99
  0
DICTIONARY
  5
4C3C
330
2
100
AcDbDictionary
280
     1
  3
ACAD_LAYERFILTERS
360
4C3D
  0
DICTIONARY
  5
88E
330
1A
100
AcDbDictionary
280
     1
  3
ACAD_LAYOUTSELFREF
360
5CBB
  0
DICTIONARY
  5
88C
330
17
100
AcDbDictionary
280
     1
  3
ACAD_LAYOUTSELFREF
360
5CBA
  0
DICTIONARY
  5
D
102
{ACAD_REACTORS
330
C
102
}
330
C
100
AcDbDictionary
  3
*A1
350
2006
  3
*A2
350
356D
  3
*A3
350
35A3
  3
*A4
350
4E20
  3
*A5
350
5721
  3
*A6
350
5C7B
  0
DICTIONARY
  5
85F
102
{ACAD_REACTORS
330
C
102
}
330
C
100
AcDbDictionary
  0
DICTIONARY
  5
E
102
{ACAD_REACTORS
330
C
102
}
330
C
100
AcDbDictionary
  3
STANDARD
350
13
  0
DICTIONARY
  5
860
102
{ACAD_REACTORS
330
C
102
}
330
C
100
AcDbDictionary
  0
ACDBDICTIONARYWDFLT
  5
85D
102
{ACAD_REACTORS
330
C
102
}
330
C
100
AcDbDictionary
281
     1
  3
Normal
350
85E
100
AcDbDictionaryWithDefault
340
85E
1001
ACAD
1000
TREAT_AS_HARD
1070
     0
1000
TREAT_AS_HARD
1070
     0
1000
TREAT_AS_HARD
1070
     0
1000
TREAT_AS_HARD
1070
     0
1000
TREAT_AS_HARD
1070
     0
1000
TREAT_AS_HARD
1070
     0
1000
TREAT_AS_HARD
1070
     0
1000
TREAT_AS_HARD
1070
     0
1000
TREAT_AS_HARD
1070
     0
  0
DICTIONARY
  5
5C99
102
{ACAD_REACTORS
330
C
102
}
330
C
100
AcDbDictionary
  3
TSTACKALIGN
350
5C9A
  3
TSTACKSIZE
350
5C9B
  3
HYPERLINKBASE
350
5C9C
  3
STYLESHEET
350
5C9D
  3
LAYOUTDICT
350
5C9E
  3
PLOTSETDICT
350
5C9F
  3
PLOTSTYLNAMDICT
350
5CA0
  3
LWETCUNION
350
5CA1
  3
INSUNITS
350
5CA2
  3
CEPSNTYPE
350
5CA3
  3
FINGERPRINTGUID
350
5CA4
  3
VERSIONGUID
350
5CA5
  3
PSVPSCALE
350
5CA6
  3
DIMSTYLEDATA
350
5CA7
  3
PUCSORTHOREF
350
5CA8
  3
PUCSORTHOVIEW
350
5CA9
  3
PUCSBASE
350
5CAA
  3
PUCSORGTOP
350
5CAB
  3
PUCSORGBOTTOM
350
5CAC
  3
PUCSORGLEFT
350
5CAD
  3
PUCSORGRIGHT
350
5CAE
  3
PUCSORGFRONT
350
5CAF
  3
PUCSORGBACK
350
5CB0
  3
UCSORTHOREF
350
5CB1
  3
UCSORTHOVIEW
350
5CB2
  3
UCSBASE
350
5CB3
  3
UCSORGTOP
350
5CB4
  3
UCSORGBOTTOM
350
5CB5
  3
UCSORGLEFT
350
5CB6
  3
UCSORGRIGHT
350
5CB7
  3
UCSORGFRONT
350
5CB8
  3
UCSORGBACK
350
5CB9
  0
DICTIONARY
  5
4C3D
102
{ACAD_REACTORS
330
4C3C
102
}
330
4C3C
100
AcDbDictionary
280
     1
  3
50
360
4C3E
  0
XRECORD
  5
5CBB
102
{ACAD_REACTORS
330
88E
102
}
330
88E
100
AcDbXrecord
340
1A
  0
XRECORD
  5
5CBA
102
{ACAD_REACTORS
330
88C
102
}
330
88C
100
AcDbXrecord
340
17
  0
GROUP
  5
2006
102
{ACAD_REACTORS
330
D
102
}
330
D
100
AcDbGroup
300

 70
     1
 71
     1
  0
GROUP
  5
356D
102
{ACAD_REACTORS
330
D
102
}
330
D
100
AcDbGroup
300

 70
     1
 71
     1
  0
GROUP
  5
35A3
102
{ACAD_REACTORS
330
D
102
}
330
D
100
AcDbGroup
300

 70
     1
 71
     1
  0
GROUP
  5
4E20
102
{ACAD_REACTORS
330
D
102
}
330
D
100
AcDbGroup
300

 70
     1
 71
     1
  0
GROUP
  5
5721
102
{ACAD_REACTORS
330
D
102
}
330
D
100
AcDbGroup
300

 70
     1
 71
     1
  0
GROUP
  5
5C7B
102
{ACAD_REACTORS
330
D
102
}
330
D
100
AcDbGroup
300

 70
     1
 71
     1
340
5A0D
340
5A0C
340
5A14
  0
MLINESTYLE
  5
13
102
{ACAD_REACTORS
330
E
102
}
330
E
100
AcDbMlineStyle
  2
STANDARD
 70
     0
  3

 62
     0
 51
90.0
 52
90.0
 71
     2
 49
0.5
 62
   256
  6
BYLAYER
 49
-0.5
 62
   256
  6
BYLAYER
  0
ACDBPLACEHOLDER
  5
85E
102
{ACAD_REACTORS
330
85D
102
}
330
85D
100
AcDbPlaceHolder
280
     0
  0
XRECORD
  5
5C9A
102
{ACAD_REACTORS
330
5C99
102
}
330
5C99
100
AcDbXrecord
 90
        1
  0
XRECORD
  5
5C9B
102
{ACAD_REACTORS
330
5C99
102
}
330
5C99
100
AcDbXrecord
 90
       70
  0
XRECORD
  5
5C9C
102
{ACAD_REACTORS
330
5C99
102
}
330
5C99
100
AcDbXrecord
  1

  0
XRECORD
  5
5C9D
102
{ACAD_REACTORS
330
5C99
102
}
330
5C99
100
AcDbXrecord
  1
systemprinter.ctb
  0
XRECORD
  5
5C9E
102
{ACAD_REACTORS
330
5C99
102
}
330
5C99
100
AcDbXrecord
340
85F
  0
XRECORD
  5
5C9F
102
{ACAD_REACTORS
330
5C99
102
}
330
5C99
100
AcDbXrecord
340
860
  0
XRECORD
  5
5CA0
102
{ACAD_REACTORS
330
5C99
102
}
330
5C99
100
AcDbXrecord
340
85D
  0
XRECORD
  5
5CA1
102
{ACAD_REACTORS
330
5C99
102
}
330
5C99
100
AcDbXrecord
 90
    10781
  0
XRECORD
  5
5CA2
102
{ACAD_REACTORS
330
5C99
102
}
330
5C99
100
AcDbXrecord
 90
        0
  0
XRECORD
  5
5CA3
102
{ACAD_REACTORS
330
5C99
102
}
330
5C99
100
AcDbXrecord
 90
        0
  0
XRECORD
  5
5CA4
102
{ACAD_REACTORS
330
5C99
102
}
330
5C99
100
AcDbXrecord
  1
{FF3C30AF-89FB-45B1-9067-596B98B489D4}
  0
XRECORD
  5
5CA5
102
{ACAD_REACTORS
330
5C99
102
}
330
5C99
100
AcDbXrecord
  1
{AF423AD6-20C6-448E-A2B7-0BC8F633CA32}
  0
XRECORD
  5
5CA6
102
{ACAD_REACTORS
330
5C99
102
}
330
5C99
100
AcDbXrecord
 40
0.0
  0
XRECORD
  5
5CA7
102
{ACAD_REACTORS
330
5C99
102
}
330
5C99
100
AcDbXrecord
1000
DSTYLE
1002
{
1070
   341
340
6D
1070
   343
340
6D
1070
   344
340
6D
1070
   371
 70
    -1
1070
   372
 70
    -1
1002
}
  0
XRECORD
  5
5CA8
102
{ACAD_REACTORS
330
5C99
102
}
330
5C99
100
AcDbXrecord
340
0
  0
XRECORD
  5
5CA9
102
{ACAD_REACTORS
330
5C99
102
}
330
5C99
100
AcDbXrecord
 70
     0
  0
XRECORD
  5
5CAA
102
{ACAD_REACTORS
330
5C99
102
}
330
5C99
100
AcDbXrecord
340
0
  0
XRECORD
  5
5CAB
102
{ACAD_REACTORS
330
5C99
102
}
330
5C99
100
AcDbXrecord
 10
0.0
 20
0.0
 30
0.0
  0
XRECORD
  5
5CAC
102
{ACAD_REACTORS
330
5C99
102
}
330
5C99
100
AcDbXrecord
 10
0.0
 20
0.0
 30
0.0
  0
XRECORD
  5
5CAD
102
{ACAD_REACTORS
330
5C99
102
}
330
5C99
100
AcDbXrecord
 10
0.0
 20
0.0
 30
0.0
  0
XRECORD
  5
5CAE
102
{ACAD_REACTORS
330
5C99
102
}
330
5C99
100
AcDbXrecord
 10
0.0
 20
0.0
 30
0.0
  0
XRECORD
  5
5CAF
102
{ACAD_REACTORS
330
5C99
102
}
330
5C99
100
AcDbXrecord
 10
0.0
 20
0.0
 30
0.0
  0
XRECORD
  5
5CB0
102
{ACAD_REACTORS
330
5C99
102
}
330
5C99
100
AcDbXrecord
 10
0.0
 20
0.0
 30
0.0
  0
XRECORD
  5
5CB1
102
{ACAD_REACTORS
330
5C99
102
}
330
5C99
100
AcDbXrecord
340
0
  0
XRECORD
  5
5CB2
102
{ACAD_REACTORS
330
5C99
102
}
330
5C99
100
AcDbXrecord
 70
     0
  0
XRECORD
  5
5CB3
102
{ACAD_REACTORS
330
5C99
102
}
330
5C99
100
AcDbXrecord
340
0
  0
XRECORD
  5
5CB4
102
{ACAD_REACTORS
330
5C99
102
}
330
5C99
100
AcDbXrecord
 10
0.0
 20
0.0
 30
0.0
  0
XRECORD
  5
5CB5
102
{ACAD_REACTORS
330
5C99
102
}
330
5C99
100
AcDbXrecord
 10
0.0
 20
0.0
 30
0.0
  0
XRECORD
  5
5CB6
102
{ACAD_REACTORS
330
5C99
102
}
330
5C99
100
AcDbXrecord
 10
0.0
 20
0.0
 30
0.0
  0
XRECORD
  5
5CB7
102
{ACAD_REACTORS
330
5C99
102
}
330
5C99
100
AcDbXrecord
 10
0.0
 20
0.0
 30
0.0
  0
XRECORD
  5
5CB8
102
{ACAD_REACTORS
330
5C99
102
}
330
5C99
100
AcDbXrecord
 10
0.0
 20
0.0
 30
0.0
  0
XRECORD
  5
5CB9
102
{ACAD_REACTORS
330
5C99
102
}
330
5C99
100
AcDbXrecord
 10
0.0
 20
0.0
 30
0.0
  0
XRECORD
  5
4C3E
102
{ACAD_REACTORS
330
4C3D
102
}
330
4C3D
100
AcDbXrecord
  1
50
  1
*-50
  1
*
  1
*
 70
     0
  1
*
  1
*
  0
ENDSEC
  0
EOF
