  0
SECTION
  2
HEADER
  9
$ACADVER
  1
AC1014
  9
$ACADMAINTVER
 70
     9
  9
$DWGCODEPAGE
  3
ANSI_932
  9
$INSBASE
 10
0.0
 20
0.0
 30
0.0
  9
$EXTMIN
 10
-0.0128164049386896
 20
-0.0090630292066862
 30
-0.0000000100021362
  9
$EXTMAX
 10
398.8000497813338
 20
275.8226172440017
 30
0.0000000100021363
  9
$LIMMIN
 10
0.0
 20
0.0
  9
$LIMMAX
 10
420.0
 20
297.0
  9
$ORTHOMODE
 70
     0
  9
$REGENMODE
 70
     1
  9
$FILLMODE
 70
     1
  9
$QTEXTMODE
 70
     0
  9
$MIRRTEXT
 70
     1
  9
$DRAGMODE
 70
     2
  9
$LTSCALE
 40
5.0
  9
$OSMODE
 70
    35
  9
$ATTMODE
 70
     1
  9
$TEXTSIZE
 40
3.0
  9
$TRACEWID
 40
1.0
  9
$TEXTSTYLE
  7
STANDARD
  9
$CLAYER
  8
SEIHIN
  9
$CELTYPE
  6
BYLAYER
  9
$CECOLOR
 62
   256
  9
$CELTSCALE
 40
1.0
  9
$DELOBJ
 70
     1
  9
$DISPSILH
 70
     0
  9
$DIMSCALE
 40
1.0
  9
$DIMASZ
 40
3.0
  9
$DIMEXO
 40
3.0
  9
$DIMDLI
 40
7.0
  9
$DIMRND
 40
0.0
  9
$DIMDLE
 40
0.0
  9
$DIMEXE
 40
1.5
  9
$DIMTP
 40
0.0
  9
$DIMTM
 40
0.0
  9
$DIMTXT
 40
3.0
  9
$DIMCEN
 40
3.0
  9
$DIMTSZ
 40
0.0
  9
$DIMTOL
 70
     0
  9
$DIMLIM
 70
     0
  9
$DIMTIH
 70
     0
  9
$DIMTOH
 70
     0
  9
$DIMSE1
 70
     0
  9
$DIMSE2
 70
     0
  9
$DIMTAD
 70
     3
  9
$DIMZIN
 70
     0
  9
$DIMBLK
  1

  9
$DIMASO
 70
     1
  9
$DIMSHO
 70
     1
  9
$DIMPOST
  1

  9
$DIMAPOST
  1

  9
$DIMALT
 70
     0
  9
$DIMALTD
 70
     2
  9
$DIMALTF
 40
25.4
  9
$DIMLFAC
 40
1.0
  9
$DIMTOFL
 70
     1
  9
$DIMTVP
 40
0.0
  9
$DIMTIX
 70
     0
  9
$DIMSOXD
 70
     0
  9
$DIMSAH
 70
     1
  9
$DIMBLK1
  1
OPEN
  9
$DIMBLK2
  1
OPEN
  9
$DIMSTYLE
  2
STANDARD
  9
$DIMCLRD
 70
   256
  9
$DIMCLRE
 70
   256
  9
$DIMCLRT
 70
   256
  9
$DIMTFAC
 40
1.0
  9
$DIMGAP
 40
1.0
  9
$DIMJUST
 70
     0
  9
$DIMSD1
 70
     0
  9
$DIMSD2
 70
     0
  9
$DIMTOLJ
 70
     1
  9
$DIMTZIN
 70
     0
  9
$DIMALTZ
 70
     0
  9
$DIMALTTZ
 70
     0
  9
$DIMFIT
 70
     3
  9
$DIMUPT
 70
     0
  9
$DIMUNIT
 70
     2
  9
$DIMDEC
 70
     0
  9
$DIMTDEC
 70
     0
  9
$DIMALTU
 70
     2
  9
$DIMALTTD
 70
     2
  9
$DIMTXSTY
  7
STANDARD
  9
$DIMAUNIT
 70
     0
  9
$LUNITS
 70
     2
  9
$LUPREC
 70
     4
  9
$SKETCHINC
 40
1.0
  9
$FILLETRAD
 40
0.3
  9
$AUNITS
 70
     0
  9
$AUPREC
 70
     0
  9
$MENU
  1
.
  9
$ELEVATION
 40
0.0
  9
$PELEVATION
 40
0.0
  9
$THICKNESS
 40
0.0
  9
$LIMCHECK
 70
     0
  9
$BLIPMODE
 70
     0
  9
$CHAMFERA
 40
10.0
  9
$CHAMFERB
 40
10.0
  9
$CHAMFERC
 40
20.0
  9
$CHAMFERD
 40
0.0
  9
$SKPOLY
 70
     0
  9
$TDCREATE
 40
2451589.469382176
  9
$TDUPDATE
 40
2453802.581297743
  9
$TDINDWG
 40
0.5867897454
  9
$TDUSRTIMER
 40
0.5867897454
  9
$USRTIMER
 70
     1
  9
$ANGBASE
 50
0.0
  9
$ANGDIR
 70
     0
  9
$PDMODE
 70
     0
  9
$PDSIZE
 40
0.0
  9
$PLINEWID
 40
0.0
  9
$COORDS
 70
     1
  9
$SPLFRAME
 70
     0
  9
$SPLINETYPE
 70
     6
  9
$SPLINESEGS
 70
     8
  9
$ATTDIA
 70
     0
  9
$ATTREQ
 70
     1
  9
$HANDLING
 70
 10241
  9
$HANDSEED
  5
4432
  9
$SURFTAB1
 70
     6
  9
$SURFTAB2
 70
     6
  9
$SURFTYPE
 70
     6
  9
$SURFU
 70
     6
  9
$SURFV
 70
     6
  9
$UCSNAME
  2

  9
$UCSORG
 10
0.0
 20
0.0
 30
0.0
  9
$UCSXDIR
 10
1.0
 20
0.0
 30
0.0
  9
$UCSYDIR
 10
0.0
 20
1.0
 30
0.0
  9
$PUCSNAME
  2

  9
$PUCSORG
 10
0.0
 20
0.0
 30
0.0
  9
$PUCSXDIR
 10
1.0
 20
0.0
 30
0.0
  9
$PUCSYDIR
 10
0.0
 20
1.0
 30
0.0
  9
$USERI1
 70
     0
  9
$USERI2
 70
     0
  9
$USERI3
 70
     0
  9
$USERI4
 70
     0
  9
$USERI5
 70
     0
  9
$USERR1
 40
0.0
  9
$USERR2
 40
0.0
  9
$USERR3
 40
0.0
  9
$USERR4
 40
0.0
  9
$USERR5
 40
0.0
  9
$WORLDVIEW
 70
     1
  9
$SHADEDGE
 70
     3
  9
$SHADEDIF
 70
    70
  9
$TILEMODE
 70
     1
  9
$MAXACTVP
 70
    16
  9
$PINSBASE
 10
0.0
 20
0.0
 30
0.0
  9
$PLIMCHECK
 70
     0
  9
$PEXTMIN
 10
0.0
 20
0.0
 30
0.0
  9
$PEXTMAX
 10
420.0
 20
297.0
 30
0.0
  9
$PLIMMIN
 10
0.0
 20
0.0
  9
$PLIMMAX
 10
420.0
 20
297.0
  9
$UNITMODE
 70
     0
  9
$VISRETAIN
 70
     0
  9
$PLINEGEN
 70
     0
  9
$PSLTSCALE
 70
     1
  9
$TREEDEPTH
 70
  3020
  9
$PICKSTYLE
 70
     1
  9
$CMLSTYLE
  2
STANDARD
  9
$CMLJUST
 70
     0
  9
$CMLSCALE
 40
1.0
  9
$PROXYGRAPHICS
 70
     1
  9
$MEASUREMENT
 70
     0
  0
ENDSEC
  0
SECTION
  2
CLASSES
  0
CLASS
  1
ACDBDICTIONARYWDFLT
  2
AcDbDictionaryWithDefault
  3
AutoCAD 2000
 90
        0
280
     0
281
     0
  0
CLASS
  1
ACDBPLACEHOLDER
  2
AcDbPlaceHolder
  3
AutoCAD 2000
 90
        0
280
     0
281
     0
  0
CLASS
  1
LAYOUT
  2
AcDbLayout
  3
AutoCAD 2000
 90
        0
280
     0
281
     0
  0
CLASS
  1
LONG_TRANSACTION
  2
AcDbLongTransaction
  3
AutoCAD 2000
 90
        0
280
     0
281
     0
  0
CLASS
  1
LWPOLYLINE
  2
AcDbPolyline
  3
AutoCAD 2000
 90
        0
280
     0
281
     1
  0
CLASS
  1
HATCH
  2
AcDbHatch
  3
AutoCAD 2000
 90
        0
280
     0
281
     1
  0
CLASS
  1
XRECORD
  2
AcDbXrecord
  3
AutoCAD 2000
 90
        0
280
     0
281
     0
  0
CLASS
  1
LONG_TRANSACTION
  2
AcDbLongTransaction
  3
AutoCAD 2000
 90
        0
280
     0
281
     0
  0
CLASS
  1
LWPOLYLINE
  2
AcDbPolyline
  3
AutoCAD 2000
 90
        0
280
     0
281
     1
  0
CLASS
  1
HATCH
  2
AcDbHatch
  3
AutoCAD 2000
 90
        0
280
     0
281
     1
  0
CLASS
  1
XRECORD
  2
AcDbXrecord
  3
AutoCAD 2000
 90
        0
280
     0
281
     0
  0
CLASS
  1
DICTIONARYVAR
  2
AcDbDictionaryVar
  3
AutoCAD 2000
 90
        0
280
     0
281
     0
  0
CLASS
  1
LONG_TRANSACTION
  2
AcDbLongTransaction
  3
AutoCAD 2000
 90
        0
280
     0
281
     0
  0
CLASS
  1
LWPOLYLINE
  2
AcDbPolyline
  3
AutoCAD 2000
 90
        0
280
     0
281
     1
  0
CLASS
  1
HATCH
  2
AcDbHatch
  3
AutoCAD 2000
 90
        0
280
     0
281
     1
  0
CLASS
  1
XRECORD
  2
AcDbXrecord
  3
AutoCAD 2000
 90
        0
280
     0
281
     0
  0
CLASS
  1
LONG_TRANSACTION
  2
AcDbLongTransaction
  3
AutoCAD 2000
 90
        0
280
     0
281
     0
  0
CLASS
  1
LWPOLYLINE
  2
AcDbPolyline
  3
AutoCAD 2000
 90
        0
280
     0
281
     1
  0
CLASS
  1
HATCH
  2
AcDbHatch
  3
AutoCAD 2000
 90
        0
280
     0
281
     1
  0
CLASS
  1
XRECORD
  2
AcDbXrecord
  3
AutoCAD 2000
 90
        0
280
     0
281
     0
  0
CLASS
  1
LONG_TRANSACTION
  2
AcDbLongTransaction
  3
AutoCAD 2000
 90
        0
280
     0
281
     0
  0
CLASS
  1
LWPOLYLINE
  2
AcDbPolyline
  3
AutoCAD 2000
 90
        0
280
     0
281
     1
  0
CLASS
  1
HATCH
  2
AcDbHatch
  3
AutoCAD 2000
 90
        0
280
     0
281
     1
  0
CLASS
  1
XRECORD
  2
AcDbXrecord
  3
AutoCAD 2000
 90
        0
280
     0
281
     0
  0
CLASS
  1
LONG_TRANSACTION
  2
AcDbLongTransaction
  3
AutoCAD 2000
 90
        0
280
     0
281
     0
  0
CLASS
  1
LWPOLYLINE
  2
AcDbPolyline
  3
AutoCAD 2000
 90
        0
280
     0
281
     1
  0
CLASS
  1
HATCH
  2
AcDbHatch
  3
AutoCAD 2000
 90
        0
280
     0
281
     1
  0
CLASS
  1
XRECORD
  2
AcDbXrecord
  3
AutoCAD 2000
 90
        0
280
     0
281
     0
  0
CLASS
  1
LONG_TRANSACTION
  2
AcDbLongTransaction
  3
AutoCAD 2000
 90
        0
280
     0
281
     0
  0
CLASS
  1
LWPOLYLINE
  2
AcDbPolyline
  3
AutoCAD 2000
 90
        0
280
     0
281
     1
  0
CLASS
  1
HATCH
  2
AcDbHatch
  3
AutoCAD 2000
 90
        0
280
     0
281
     1
  0
CLASS
  1
XRECORD
  2
AcDbXrecord
  3
AutoCAD 2000
 90
        0
280
     0
281
     0
  0
CLASS
  1
LONG_TRANSACTION
  2
AcDbLongTransaction
  3
AutoCAD 2000
 90
        0
280
     0
281
     0
  0
CLASS
  1
LWPOLYLINE
  2
AcDbPolyline
  3
AutoCAD 2000
 90
        0
280
     0
281
     1
  0
CLASS
  1
HATCH
  2
AcDbHatch
  3
AutoCAD 2000
 90
        0
280
     0
281
     1
  0
CLASS
  1
XRECORD
  2
AcDbXrecord
  3
AutoCAD 2000
 90
        0
280
     0
281
     0
  0
CLASS
  1
LONG_TRANSACTION
  2
AcDbLongTransaction
  3
AutoCAD 2000
 90
        0
280
     0
281
     0
  0
CLASS
  1
LWPOLYLINE
  2
AcDbPolyline
  3
AutoCAD 2000
 90
        0
280
     0
281
     1
  0
CLASS
  1
HATCH
  2
AcDbHatch
  3
AutoCAD 2000
 90
        0
280
     0
281
     1
  0
CLASS
  1
XRECORD
  2
AcDbXrecord
  3
AutoCAD 2000
 90
        0
280
     0
281
     0
  0
CLASS
  1
LONG_TRANSACTION
  2
AcDbLongTransaction
  3
AutoCAD 2000
 90
        0
280
     0
281
     0
  0
CLASS
  1
LWPOLYLINE
  2
AcDbPolyline
  3
AutoCAD 2000
 90
        0
280
     0
281
     1
  0
CLASS
  1
HATCH
  2
AcDbHatch
  3
AutoCAD 2000
 90
        0
280
     0
281
     1
  0
CLASS
  1
XRECORD
  2
AcDbXrecord
  3
AutoCAD 2000
 90
        0
280
     0
281
     0
  0
CLASS
  1
LONG_TRANSACTION
  2
AcDbLongTransaction
  3
AutoCAD 2000
 90
        0
280
     0
281
     0
  0
CLASS
  1
LWPOLYLINE
  2
AcDbPolyline
  3
AutoCAD 2000
 90
        0
280
     0
281
     1
  0
CLASS
  1
HATCH
  2
AcDbHatch
  3
AutoCAD 2000
 90
        0
280
     0
281
     1
  0
CLASS
  1
XRECORD
  2
AcDbXrecord
  3
AutoCAD 2000
 90
        0
280
     0
281
     0
  0
CLASS
  1
LONG_TRANSACTION
  2
AcDbLongTransaction
  3
AutoCAD 2000
 90
        0
280
     0
281
     0
  0
CLASS
  1
LWPOLYLINE
  2
AcDbPolyline
  3
AutoCAD 2000
 90
        0
280
     0
281
     1
  0
CLASS
  1
HATCH
  2
AcDbHatch
  3
AutoCAD 2000
 90
        0
280
     0
281
     1
  0
CLASS
  1
XRECORD
  2
AcDbXrecord
  3
AutoCAD 2000
 90
        0
280
     0
281
     0
  0
CLASS
  1
LONG_TRANSACTION
  2
AcDbLongTransaction
  3
AutoCAD 2000
 90
        0
280
     0
281
     0
  0
CLASS
  1
LWPOLYLINE
  2
AcDbPolyline
  3
AutoCAD 2000
 90
        0
280
     0
281
     1
  0
CLASS
  1
HATCH
  2
AcDbHatch
  3
AutoCAD 2000
 90
        0
280
     0
281
     1
  0
CLASS
  1
XRECORD
  2
AcDbXrecord
  3
AutoCAD 2000
 90
        0
280
     0
281
     0
  0
CLASS
  1
LONG_TRANSACTION
  2
AcDbLongTransaction
  3
AutoCAD 2000
 90
        0
280
     0
281
     0
  0
CLASS
  1
LWPOLYLINE
  2
AcDbPolyline
  3
AutoCAD 2000
 90
        0
280
     0
281
     1
  0
CLASS
  1
HATCH
  2
AcDbHatch
  3
AutoCAD 2000
 90
        0
280
     0
281
     1
  0
CLASS
  1
XRECORD
  2
AcDbXrecord
  3
AutoCAD 2000
 90
        0
280
     0
281
     0
  0
CLASS
  1
LONG_TRANSACTION
  2
AcDbLongTransaction
  3
AutoCAD 2000
 90
        0
280
     0
281
     0
  0
CLASS
  1
LWPOLYLINE
  2
AcDbPolyline
  3
AutoCAD 2000
 90
        0
280
     0
281
     1
  0
CLASS
  1
HATCH
  2
AcDbHatch
  3
AutoCAD 2000
 90
        0
280
     0
281
     1
  0
CLASS
  1
XRECORD
  2
AcDbXrecord
  3
AutoCAD 2000
 90
        0
280
     0
281
     0
  0
CLASS
  1
LONG_TRANSACTION
  2
AcDbLongTransaction
  3
AutoCAD 2000
 90
        0
280
     0
281
     0
  0
CLASS
  1
LWPOLYLINE
  2
AcDbPolyline
  3
AutoCAD 2000
 90
        0
280
     0
281
     1
  0
CLASS
  1
HATCH
  2
AcDbHatch
  3
AutoCAD 2000
 90
        0
280
     0
281
     1
  0
CLASS
  1
XRECORD
  2
AcDbXrecord
  3
AutoCAD 2000
 90
        0
280
     0
281
     0
  0
CLASS
  1
LONG_TRANSACTION
  2
AcDbLongTransaction
  3
AutoCAD 2000
 90
        0
280
     0
281
     0
  0
CLASS
  1
LWPOLYLINE
  2
AcDbPolyline
  3
AutoCAD 2000
 90
        0
280
     0
281
     1
  0
CLASS
  1
HATCH
  2
AcDbHatch
  3
AutoCAD 2000
 90
        0
280
     0
281
     1
  0
CLASS
  1
XRECORD
  2
AcDbXrecord
  3
AutoCAD 2000
 90
        0
280
     0
281
     0
  0
CLASS
  1
LONG_TRANSACTION
  2
AcDbLongTransaction
  3
AutoCAD 2000
 90
        0
280
     0
281
     0
  0
CLASS
  1
LWPOLYLINE
  2
AcDbPolyline
  3
AutoCAD 2000
 90
        0
280
     0
281
     1
  0
CLASS
  1
HATCH
  2
AcDbHatch
  3
AutoCAD 2000
 90
        0
280
     0
281
     1
  0
CLASS
  1
XRECORD
  2
AcDbXrecord
  3
AutoCAD 2000
 90
        0
280
     0
281
     0
  0
CLASS
  1
LONG_TRANSACTION
  2
AcDbLongTransaction
  3
AutoCAD 2000
 90
        0
280
     0
281
     0
  0
CLASS
  1
LWPOLYLINE
  2
AcDbPolyline
  3
AutoCAD 2000
 90
        0
280
     0
281
     1
  0
CLASS
  1
HATCH
  2
AcDbHatch
  3
AutoCAD 2000
 90
        0
280
     0
281
     1
  0
CLASS
  1
XRECORD
  2
AcDbXrecord
  3
AutoCAD 2000
 90
        0
280
     0
281
     0
  0
CLASS
  1
LONG_TRANSACTION
  2
AcDbLongTransaction
  3
AutoCAD 2000
 90
        0
280
     0
281
     0
  0
CLASS
  1
LWPOLYLINE
  2
AcDbPolyline
  3
AutoCAD 2000
 90
        0
280
     0
281
     1
  0
CLASS
  1
HATCH
  2
AcDbHatch
  3
AutoCAD 2000
 90
        0
280
     0
281
     1
  0
CLASS
  1
XRECORD
  2
AcDbXrecord
  3
AutoCAD 2000
 90
        0
280
     0
281
     0
  0
CLASS
  1
LONG_TRANSACTION
  2
AcDbLongTransaction
  3
AutoCAD 2000
 90
        0
280
     0
281
     0
  0
CLASS
  1
LWPOLYLINE
  2
AcDbPolyline
  3
AutoCAD 2000
 90
        0
280
     0
281
     1
  0
CLASS
  1
HATCH
  2
AcDbHatch
  3
AutoCAD 2000
 90
        0
280
     0
281
     1
  0
CLASS
  1
XRECORD
  2
AcDbXrecord
  3
AutoCAD 2000
 90
        0
280
     0
281
     0
  0
CLASS
  1
LONG_TRANSACTION
  2
AcDbLongTransaction
  3
AutoCAD 2000
 90
        0
280
     0
281
     0
  0
CLASS
  1
LWPOLYLINE
  2
AcDbPolyline
  3
AutoCAD 2000
 90
        0
280
     0
281
     1
  0
CLASS
  1
HATCH
  2
AcDbHatch
  3
AutoCAD 2000
 90
        0
280
     0
281
     1
  0
CLASS
  1
XRECORD
  2
AcDbXrecord
  3
AutoCAD 2000
 90
        0
280
     0
281
     0
  0
ENDSEC
  0
SECTION
  2
TABLES
  0
TABLE
  2
VPORT
  5
8
330
0
100
AcDbSymbolTable
 70
     3
  0
VPORT
  5
440E
330
8
100
AcDbSymbolTableRecord
100
AcDbViewportTableRecord
  2
*ACTIVE
 70
     0
 10
0.0
 20
0.0
 11
1.0
 21
1.0
 12
239.7622061670708
 22
144.2203231202336
 13
0.0
 23
0.0
 14
5.0
 24
5.0
 15
0.0
 25
0.0
 16
0.0
 26
0.0
 36
1.0
 17
0.0
 27
0.0
 37
0.0
 40
324.5486682466903
 41
1.795454545454545
 42
50.0
 43
0.0
 44
0.0
 50
0.0
 51
0.0
 71
     0
 72
   100
 73
     1
 74
     0
 75
     0
 76
     0
 77
     0
 78
     0
  0
ENDTAB
  0
TABLE
  2
LTYPE
  5
5
330
0
100
AcDbSymbolTable
 70
     3
  0
LTYPE
  5
14
330
5
100
AcDbSymbolTableRecord
100
AcDbLinetypeTableRecord
  2
BYBLOCK
 70
     0
  3

 72
    65
 73
     0
 40
0.0
  0
LTYPE
  5
15
330
5
100
AcDbSymbolTableRecord
100
AcDbLinetypeTableRecord
  2
BYLAYER
 70
     0
  3

 72
    65
 73
     0
 40
0.0
  0
LTYPE
  5
16
330
5
100
AcDbSymbolTableRecord
100
AcDbLinetypeTableRecord
  2
CONTINUOUS
 70
     0
  3
Solid line
 72
    65
 73
     0
 40
0.0
  0
LTYPE
  5
120
330
5
100
AcDbSymbolTableRecord
100
AcDbLinetypeTableRecord
  2
CENTER
 70
     0
  3
____ _ ____ _ ____ _ ____ _ ____ _ ____ _ ____ 
 72
    65
 73
     4
 40
2.0
 49
1.25
 74
     0
 49
-0.25
 74
     0
 49
0.25
 74
     0
 49
-0.25
 74
     0
  0
LTYPE
  5
122
330
5
100
AcDbSymbolTableRecord
100
AcDbLinetypeTableRecord
  2
PHANTOM
 70
     0
  3
______  __  __  ______  __  __  ______  __  __ 
 72
    65
 73
     6
 40
2.5
 49
1.25
 74
     0
 49
-0.25
 74
     0
 49
0.25
 74
     0
 49
-0.25
 74
     0
 49
0.25
 74
     0
 49
-0.25
 74
     0
  0
ENDTAB
  0
TABLE
  2
LAYER
  5
2
330
0
100
AcDbSymbolTable
 70
     9
  0
LAYER
  5
F
330
2
100
AcDbSymbolTableRecord
100
AcDbLayerTableRecord
  2
0
 70
     0
 62
     7
  6
CONTINUOUS
  0
LAYER
  5
62
330
2
100
AcDbSymbolTableRecord
100
AcDbLayerTableRecord
  2
VIEWPORT
 70
     0
 62
     7
  6
CONTINUOUS
  0
LAYER
  5
6B
330
2
100
AcDbSymbolTableRecord
100
AcDbLayerTableRecord
  2
ZUWAKU
 70
     0
 62
     7
  6
CONTINUOUS
  0
LAYER
  5
3EF
330
2
100
AcDbSymbolTableRecord
100
AcDbLayerTableRecord
  2
DEFPOINTS
 70
     0
 62
     7
  6
CONTINUOUS
  0
LAYER
  5
54D
330
2
100
AcDbSymbolTableRecord
100
AcDbLayerTableRecord
  2
SEIHIN
 70
     0
 62
     3
  6
CONTINUOUS
  0
LAYER
  5
54E
330
2
100
AcDbSymbolTableRecord
100
AcDbLayerTableRecord
  2
SUNPOU
 70
     0
 62
     4
  6
CONTINUOUS
  0
LAYER
  5
54F
330
2
100
AcDbSymbolTableRecord
100
AcDbLayerTableRecord
  2
CENTER_L
 70
     0
 62
     1
  6
CENTER
  0
LAYER
  5
550
330
2
100
AcDbSymbolTableRecord
100
AcDbLayerTableRecord
  2
NOKITOI
 70
     0
 62
     8
  6
PHANTOM
  0
LAYER
  5
4228
330
2
100
AcDbSymbolTableRecord
100
AcDbLayerTableRecord
  2
MOJI
 70
     0
 62
     2
  6
CONTINUOUS
  0
ENDTAB
  0
TABLE
  2
STYLE
  5
3
330
0
100
AcDbSymbolTable
 70
     2
  0
STYLE
  5
10
330
3
100
AcDbSymbolTableRecord
100
AcDbTextStyleTableRecord
  2
STANDARD
 70
     0
 40
0.0
 41
1.0
 50
0.0
 71
     0
 42
3.0
  3
TXT
  4
c:\PROGRAM FILES\AUTOCAD LT\ms\bigfont.shx
  0
STYLE
  5
4229
330
3
100
AcDbSymbolTableRecord
100
AcDbTextStyleTableRecord
  2
ｽﾀｲﾙ1
 70
     0
 40
0.0
 41
1.0
 50
0.0
 71
     0
 42
2.5
  3
MS PGothic.ttf
  4

1001
ACAD
1000
MS PGothic
1071
    32818
  0
ENDTAB
  0
TABLE
  2
VIEW
  5
6
330
0
100
AcDbSymbolTable
 70
     0
  0
ENDTAB
  0
TABLE
  2
UCS
  5
7
330
0
100
AcDbSymbolTable
 70
     0
  0
ENDTAB
  0
TABLE
  2
APPID
  5
9
330
0
100
AcDbSymbolTable
 70
     1
  0
APPID
  5
11
330
9
100
AcDbSymbolTableRecord
100
AcDbRegAppTableRecord
  2
ACAD
 70
     0
  0
ENDTAB
  0
TABLE
  2
DIMSTYLE
  5
A
330
0
100
AcDbSymbolTable
 70
     1
  0
DIMSTYLE
105
1D
102
{ACAD_REACTORS
330
2073
330
39FF
330
39FE
330
3A07
330
3A06
330
3A15
330
3A05
330
3C2E
330
3C48
330
3C55
330
3C62
330
3F88
102
}
330
A
100
AcDbSymbolTableRecord
100
AcDbDimStyleTableRecord
  2
STANDARD
 70
     0
  3

  4

  5

  6

  7

 40
1.0
 41
0.18
 42
0.0625
 43
0.38
 44
0.18
 45
0.0
 46
0.0
 47
0.0
 48
0.0
140
0.18
141
0.09
142
0.0
143
25.4
144
1.0
145
0.0
146
1.0
147
0.09
 71
     0
 72
     0
 73
     1
 74
     1
 75
     0
 76
     0
 77
     0
 78
     0
170
     0
171
     2
172
     0
173
     0
174
     0
175
     0
176
     0
177
     0
178
     0
270
     2
271
     4
272
     4
273
     2
274
     2
340
10
275
     0
280
     0
281
     0
282
     0
283
     1
284
     0
285
     0
286
     0
287
     3
288
     0
  0
ENDTAB
  0
TABLE
  2
BLOCK_RECORD
  5
1
330
0
100
AcDbSymbolTable
 70
    13
  0
BLOCK_RECORD
  5
1A
102
{ACAD_XDICTIONARY
360
7A2
102
}
330
1
100
AcDbSymbolTableRecord
100
AcDbBlockTableRecord
  2
*MODEL_SPACE
  0
BLOCK_RECORD
  5
17
102
{ACAD_XDICTIONARY
360
7A0
102
}
330
1
100
AcDbSymbolTableRecord
100
AcDbBlockTableRecord
  2
*PAPER_SPACE
  0
BLOCK_RECORD
  5
B2
330
1
100
AcDbSymbolTableRecord
100
AcDbBlockTableRecord
  2
_OPEN
  0
BLOCK_RECORD
  5
2074
330
1
100
AcDbSymbolTableRecord
100
AcDbBlockTableRecord
  2
*D1
  0
BLOCK_RECORD
  5
3A38
330
1
100
AcDbSymbolTableRecord
100
AcDbBlockTableRecord
  2
*D2
  0
BLOCK_RECORD
  5
3A44
330
1
100
AcDbSymbolTableRecord
100
AcDbBlockTableRecord
  2
*D3
  0
BLOCK_RECORD
  5
3A50
330
1
100
AcDbSymbolTableRecord
100
AcDbBlockTableRecord
  2
*D4
  0
BLOCK_RECORD
  5
3A5C
330
1
100
AcDbSymbolTableRecord
100
AcDbBlockTableRecord
  2
*D5
  0
BLOCK_RECORD
  5
3A68
330
1
100
AcDbSymbolTableRecord
100
AcDbBlockTableRecord
  2
*D6
  0
BLOCK_RECORD
  5
3A74
330
1
100
AcDbSymbolTableRecord
100
AcDbBlockTableRecord
  2
*D7
  0
BLOCK_RECORD
  5
3C2F
330
1
100
AcDbSymbolTableRecord
100
AcDbBlockTableRecord
  2
*D8
  0
BLOCK_RECORD
  5
3C49
330
1
100
AcDbSymbolTableRecord
100
AcDbBlockTableRecord
  2
*D9
  0
BLOCK_RECORD
  5
3C56
330
1
100
AcDbSymbolTableRecord
100
AcDbBlockTableRecord
  2
*D10
  0
BLOCK_RECORD
  5
3C63
330
1
100
AcDbSymbolTableRecord
100
AcDbBlockTableRecord
  2
*D11
  0
BLOCK_RECORD
  5
3F89
330
1
100
AcDbSymbolTableRecord
100
AcDbBlockTableRecord
  2
*D12
  0
ENDTAB
  0
ENDSEC
  0
SECTION
  2
BLOCKS
  0
BLOCK
  5
1B
330
1A
100
AcDbEntity
  8
0
100
AcDbBlockBegin
  2
*MODEL_SPACE
 70
     0
 10
0.0
 20
0.0
 30
0.0
  3
*MODEL_SPACE
  1

  0
ENDBLK
  5
1C
330
1A
100
AcDbEntity
  8
0
100
AcDbBlockEnd
  0
BLOCK
  5
18
330
17
100
AcDbEntity
 67
     1
  8
0
100
AcDbBlockBegin
  2
*PAPER_SPACE
 70
     0
 10
0.0
 20
0.0
 30
0.0
  3
*PAPER_SPACE
  1

  0
ENDBLK
  5
19
330
17
100
AcDbEntity
 67
     1
  8
0
100
AcDbBlockEnd
  0
BLOCK
  5
B3
330
B2
100
AcDbEntity
  8
0
100
AcDbBlockBegin
  2
_OPEN
 70
     0
 10
0.0
 20
0.0
 30
0.0
  3
_OPEN
  1

  0
LINE
  5
B4
330
B2
100
AcDbEntity
  8
0
  6
BYBLOCK
 62
     0
100
AcDbLine
 10
-1.0
 20
0.1666666666666666
 30
0.0
 11
0.0
 21
0.0
 31
0.0
  0
LINE
  5
B5
330
B2
100
AcDbEntity
  8
0
  6
BYBLOCK
 62
     0
100
AcDbLine
 10
0.0
 20
0.0
 30
0.0
 11
-1.0
 21
-0.1666666666666666
 31
0.0
  0
LINE
  5
B6
330
B2
100
AcDbEntity
  8
0
  6
BYBLOCK
 62
     0
100
AcDbLine
 10
0.0
 20
0.0
 30
0.0
 11
-1.0
 21
0.0
 31
0.0
  0
ENDBLK
  5
B7
330
B2
100
AcDbEntity
  8
0
100
AcDbBlockEnd
  0
BLOCK
  5
207E
330
2074
100
AcDbEntity
  8
0
100
AcDbBlockBegin
  2
*D1
 70
     1
 10
0.0
 20
0.0
 30
0.0
  3
*D1
  1

  0
LINE
  5
43C6
330
2074
100
AcDbEntity
  8
SUNPOU
100
AcDbLine
 10
72.52412045174725
 20
238.1462371810213
 30
0.0
 11
47.19330768340957
 21
238.1462371810213
 31
0.0
  0
LINE
  5
43C7
330
2074
100
AcDbEntity
  8
SUNPOU
100
AcDbLine
 10
72.52412045174725
 20
218.1462371810213
 30
0.0
 11
47.19330768340957
 21
218.1462371810213
 31
0.0
  0
LINE
  5
43C8
330
2074
100
AcDbEntity
  8
SUNPOU
100
AcDbLine
 10
48.69330768340957
 20
235.1462371810213
 30
0.0
 11
48.69330768340957
 21
221.1462371810213
 31
0.0
  0
INSERT
  5
43C9
330
2074
100
AcDbEntity
  8
SUNPOU
100
AcDbBlockReference
  2
_OPEN
 10
48.69330768340957
 20
238.1462371810213
 30
0.0
 41
3.0
 42
3.0
 43
3.0
 50
90.0
  0
INSERT
  5
43CA
330
2074
100
AcDbEntity
  8
SUNPOU
100
AcDbBlockReference
  2
_OPEN
 10
48.69330768340957
 20
218.1462371810213
 30
0.0
 41
3.0
 42
3.0
 43
3.0
 50
270.0
  0
MTEXT
  5
43CB
330
2074
100
AcDbEntity
  8
SUNPOU
100
AcDbMText
 10
46.19330768340954
 20
228.1462371810213
 30
0.0
 40
3.0
 41
0.0
 71
     5
 72
     1
  1
\A1;20
 11
0.0000000000000001
 21
1.0
 31
0.0
1001
ACAD
1000
MTEXTBEGIN
1070
    73
1070
     1
1070
    44
1040
1.0
1070
    74
1070
     0
1000
MTEXTEND
  0
POINT
  5
43CC
330
2074
100
AcDbEntity
  8
DEFPOINTS
 62
     0
100
AcDbPoint
 10
75.52412045174725
 20
238.1462371810213
 30
0.0
  0
POINT
  5
43CD
330
2074
100
AcDbEntity
  8
DEFPOINTS
 62
     0
100
AcDbPoint
 10
75.52412045174725
 20
218.1462371810213
 30
0.0
  0
POINT
  5
43CE
330
2074
100
AcDbEntity
  8
DEFPOINTS
 62
     0
100
AcDbPoint
 10
48.69330768340957
 20
218.1462371810213
 30
0.0
  0
ENDBLK
  5
207F
330
2074
100
AcDbEntity
  8
0
100
AcDbBlockEnd
  0
BLOCK
  5
3A42
330
3A38
100
AcDbEntity
  8
0
100
AcDbBlockBegin
  2
*D2
 70
     1
 10
0.0
 20
0.0
 30
0.0
  3
*D2
  1

  0
LINE
  5
43E1
330
3A38
100
AcDbEntity
  8
SUNPOU
100
AcDbLine
 10
271.1374207326507
 20
178.1935673730218
 30
0.0
 11
252.3199119991646
 21
215.8292567745835
 31
0.0
  0
LINE
  5
43E2
330
3A38
100
AcDbEntity
  8
SUNPOU
100
AcDbLine
 10
326.5921045869828
 20
205.9204142658094
 30
0.0
 11
307.7745958534969
 21
243.556103667371
 31
0.0
  0
LINE
  5
43E3
330
3A38
100
AcDbEntity
  8
SUNPOU
100
AcDbLine
 10
255.6740139653288
 20
215.8292328213071
 30
0.0
 11
305.7621155111772
 21
240.8728364664055
 31
0.0
  0
INSERT
  5
43E4
330
3A38
100
AcDbEntity
  8
SUNPOU
100
AcDbBlockReference
  2
_OPEN
 10
252.9907228110869
 20
214.4876111974626
 30
0.0
 41
3.0
 42
3.0
 43
3.0
 50
206.5646419999997
  0
INSERT
  5
43E5
330
3A38
100
AcDbEntity
  8
SUNPOU
100
AcDbBlockReference
  2
_OPEN
 10
308.4454066654192
 20
242.2144580902501
 30
0.0
 41
3.0
 42
3.0
 43
3.0
 50
26.56464199999978
  0
MTEXT
  5
43E6
330
3A38
100
AcDbEntity
  8
SUNPOU
100
AcDbMText
 10
279.6000467183826
 20
230.5871106057245
 30
0.0
 40
3.0
 41
0.0
 71
     5
 72
     1
  1
\A1;62
 11
0.8944303847472927
 21
0.4472072079481836
 31
0.0
1001
ACAD
1000
MTEXTBEGIN
1070
    73
1070
     1
1070
    44
1040
1.0
1070
    74
1070
     0
1000
MTEXTEND
  0
POINT
  5
43E7
330
3A38
100
AcDbEntity
  8
DEFPOINTS
 62
     0
100
AcDbPoint
 10
272.4790423564952
 20
175.51027621878
 30
0.0
  0
POINT
  5
43E8
330
3A38
100
AcDbEntity
  8
DEFPOINTS
 62
     0
100
AcDbPoint
 10
327.9337262108274
 20
203.2371231115675
 30
0.0
  0
POINT
  5
43E9
330
3A38
100
AcDbEntity
  8
DEFPOINTS
 62
     0
100
AcDbPoint
 10
308.4454066654192
 20
242.2144580902501
 30
0.0
  0
ENDBLK
  5
3A43
330
3A38
100
AcDbEntity
  8
0
100
AcDbBlockEnd
  0
BLOCK
  5
3A4E
330
3A44
100
AcDbEntity
  8
0
100
AcDbBlockBegin
  2
*D3
 70
     1
 10
0.0
 20
0.0
 30
0.0
  3
*D3
  1

  0
LINE
  5
43F3
330
3A44
100
AcDbEntity
  8
SUNPOU
100
AcDbLine
 10
278.6953662666332
 20
183.2023056677775
 30
0.0
 11
264.995945773793
 21
210.6016358316279
 31
0.0
  0
LINE
  5
43F4
330
3A44
100
AcDbEntity
  8
SUNPOU
100
AcDbLine
 10
318.050303195514
 20
202.8794228174978
 30
0.0
 11
304.3508827026739
 21
230.278752981348
 31
0.0
  0
LINE
  5
43F5
330
3A44
100
AcDbEntity
  8
SUNPOU
100
AcDbLine
 10
268.3500477399572
 20
210.6016118783516
 30
0.0
 11
302.3384023603543
 21
227.5954857803825
 31
0.0
  0
INSERT
  5
43F6
330
3A44
100
AcDbEntity
  8
SUNPOU
100
AcDbBlockReference
  2
_OPEN
 10
265.6667565857153
 20
209.259990254507
 30
0.0
 41
3.0
 42
3.0
 43
3.0
 50
206.5646419999997
  0
INSERT
  5
43F7
330
3A44
100
AcDbEntity
  8
SUNPOU
100
AcDbBlockReference
  2
_OPEN
 10
305.0216935145962
 20
228.9371074042271
 30
0.0
 41
3.0
 42
3.0
 43
3.0
 50
26.56464199999978
  0
MTEXT
  5
43F8
330
3A44
100
AcDbEntity
  8
SUNPOU
100
AcDbMText
 10
284.2262070302853
 20
221.3346247912352
 30
0.0
 40
3.0
 41
0.0
 71
     5
 72
     1
  1
\A1;44
 11
0.8944303847472927
 21
0.4472072079481836
 31
0.0
1001
ACAD
1000
MTEXTBEGIN
1070
    73
1070
     1
1070
    44
1040
1.0
1070
    74
1070
     0
1000
MTEXTEND
  0
POINT
  5
43F9
330
3A44
100
AcDbEntity
  8
DEFPOINTS
 62
     0
100
AcDbPoint
 10
280.0369878904778
 20
180.5190145135356
 30
0.0
  0
POINT
  5
43FA
330
3A44
100
AcDbEntity
  8
DEFPOINTS
 62
     0
100
AcDbPoint
 10
319.3919248193585
 20
200.1961316632558
 30
0.0
  0
POINT
  5
43FB
330
3A44
100
AcDbEntity
  8
DEFPOINTS
 62
     0
100
AcDbPoint
 10
305.0216935145962
 20
228.9371074042271
 30
0.0
  0
ENDBLK
  5
3A4F
330
3A44
100
AcDbEntity
  8
0
100
AcDbBlockEnd
  0
BLOCK
  5
3A5A
330
3A50
100
AcDbEntity
  8
0
100
AcDbBlockBegin
  2
*D4
 70
     1
 10
0.0
 20
0.0
 30
0.0
  3
*D4
  1

  0
LINE
  5
43CF
330
3A50
100
AcDbEntity
  8
SUNPOU
100
AcDbLine
 10
271.1374207326506
 20
178.1935673730218
 30
0.0
 11
248.1180054477536
 21
166.6840652209148
 31
0.0
  0
LINE
  5
43D0
330
3A50
100
AcDbEntity
  8
SUNPOU
100
AcDbLine
 10
286.7896730108373
 20
146.8885039068666
 30
0.0
 11
263.7702577259403
 21
135.3790017547597
 31
0.0
  0
LINE
  5
43D1
330
3A50
100
AcDbEntity
  8
SUNPOU
100
AcDbLine
 10
250.8012726487191
 20
164.6715848785953
 30
0.0
 11
263.7702816792166
 21
138.7331037209239
 31
0.0
  0
INSERT
  5
43D2
330
3A50
100
AcDbEntity
  8
SUNPOU
100
AcDbBlockReference
  2
_OPEN
 10
249.4596510248745
 20
167.3548760328371
 30
0.0
 41
3.0
 42
3.0
 43
3.0
 50
116.5646420000002
  0
INSERT
  5
43D3
330
3A50
100
AcDbEntity
  8
SUNPOU
100
AcDbBlockReference
  2
_OPEN
 10
265.1119033030612
 20
136.049812566682
 30
0.0
 41
3.0
 42
3.0
 43
3.0
 50
296.5646420000002
  0
MTEXT
  5
43D4
330
3A50
100
AcDbEntity
  8
SUNPOU
100
AcDbMText
 10
259.5218531258361
 20
152.8203623196301
 30
0.0
 40
3.0
 41
0.0
 71
     5
 72
     1
  1
\A1;35
 11
0.4472072079481913
 21
-0.8944303847472887
 31
0.0
1001
ACAD
1000
MTEXTBEGIN
1070
    73
1070
     1
1070
    44
1040
1.0
1070
    74
1070
     0
1000
MTEXTEND
  0
POINT
  5
43D5
330
3A50
100
AcDbEntity
  8
DEFPOINTS
 62
     0
100
AcDbPoint
 10
273.8207118868925
 20
179.5351889968664
 30
0.0
  0
POINT
  5
43D6
330
3A50
100
AcDbEntity
  8
DEFPOINTS
 62
     0
100
AcDbPoint
 10
289.4729641650792
 20
148.2301255307112
 30
0.0
  0
POINT
  5
43D7
330
3A50
100
AcDbEntity
  8
DEFPOINTS
 62
     0
100
AcDbPoint
 10
265.1119033030612
 20
136.049812566682
 30
0.0
  0
ENDBLK
  5
3A5B
330
3A50
100
AcDbEntity
  8
0
100
AcDbBlockEnd
  0
BLOCK
  5
3A66
330
3A5C
100
AcDbEntity
  8
0
100
AcDbBlockBegin
  2
*D5
 70
     1
 10
0.0
 20
0.0
 30
0.0
  3
*D5
  1

  0
LINE
  5
43D8
330
3A5C
100
AcDbEntity
  8
SUNPOU
100
AcDbLine
 10
251.2410885772307
 20
168.2455789064302
 30
0.0
 11
268.7285392903087
 21
176.9891481555193
 31
0.0
  0
LINE
  5
43D9
330
3A5C
100
AcDbEntity
  8
SUNPOU
100
AcDbLine
 10
266.8933408554173
 20
136.9405154402751
 30
0.0
 11
284.3807915684955
 21
145.6840846893642
 31
0.0
  0
LINE
  5
43DA
330
3A5C
100
AcDbEntity
  8
SUNPOU
100
AcDbLine
 10
268.7285153370323
 20
173.6350461893551
 30
0.0
 11
281.6975243675299
 21
147.6965650316837
 31
0.0
  0
INSERT
  5
43DB
330
3A5C
100
AcDbEntity
  8
SUNPOU
100
AcDbBlockReference
  2
_OPEN
 10
267.3868937131878
 20
176.318337343597
 30
0.0
 41
3.0
 42
3.0
 43
3.0
 50
116.5646420000002
  0
INSERT
  5
43DC
330
3A5C
100
AcDbEntity
  8
SUNPOU
100
AcDbBlockReference
  2
_OPEN
 10
283.0391459913745
 20
145.0132738774419
 30
0.0
 41
3.0
 42
3.0
 43
3.0
 50
296.5646420000002
  0
MTEXT
  5
43DD
330
3A5C
100
AcDbEntity
  8
SUNPOU
100
AcDbMText
 10
277.4490958141494
 20
161.7838236303899
 30
0.0
 40
3.0
 41
0.0
 71
     5
 72
     1
  1
\A1;35
 11
0.4472072079481913
 21
-0.8944303847472887
 31
0.0
1001
ACAD
1000
MTEXTBEGIN
1070
    73
1070
     1
1070
    44
1040
1.0
1070
    74
1070
     0
1000
MTEXTEND
  0
POINT
  5
43DE
330
3A5C
100
AcDbEntity
  8
DEFPOINTS
 62
     0
100
AcDbPoint
 10
248.5577974229888
 20
166.9039572825857
 30
0.0
  0
POINT
  5
43DF
330
3A5C
100
AcDbEntity
  8
DEFPOINTS
 62
     0
100
AcDbPoint
 10
264.2100497011754
 20
135.5988938164305
 30
0.0
  0
POINT
  5
43E0
330
3A5C
100
AcDbEntity
  8
DEFPOINTS
 62
     0
100
AcDbPoint
 10
283.0391459913745
 20
145.0132738774419
 30
0.0
  0
ENDBLK
  5
3A67
330
3A5C
100
AcDbEntity
  8
0
100
AcDbBlockEnd
  0
BLOCK
  5
3A72
330
3A68
100
AcDbEntity
  8
0
100
AcDbBlockBegin
  2
*D6
 70
     1
 10
0.0
 20
0.0
 30
0.0
  3
*D6
  1

  0
LINE
  5
43EA
330
3A68
100
AcDbEntity
  8
SUNPOU
100
AcDbLine
 10
283.1225723087768
 20
153.9992262640501
 30
0.0
 11
269.1533426706264
 21
147.0147361458735
 31
0.0
  0
LINE
  5
43EB
330
3A68
100
AcDbEntity
  8
SUNPOU
100
AcDbLine
 10
286.7896730108373
 20
146.8885039068666
 30
0.0
 11
272.731000334212
 21
139.8592930678951
 31
0.0
  0
LINE
  5
43EC
330
3A68
100
AcDbEntity
  8
SUNPOU
100
AcDbLine
 10
271.8366098715919
 20
145.0022558035539
 30
0.0
 11
272.7310242874883
 21
143.2133950340593
 31
0.0
  0
INSERT
  5
43ED
330
3A68
100
AcDbEntity
  8
SUNPOU
100
AcDbBlockReference
  2
_OPEN
 10
270.4949882477473
 20
147.6855469577957
 30
0.0
 41
3.0
 42
3.0
 43
3.0
 50
116.5646420000002
  0
INSERT
  5
43EE
330
3A68
100
AcDbEntity
  8
SUNPOU
100
AcDbBlockReference
  2
_OPEN
 10
274.0726459113329
 20
140.5301038798174
 30
0.0
 41
3.0
 42
3.0
 43
3.0
 50
296.5646420000002
  0
MTEXT
  5
43EF
330
3A68
100
AcDbEntity
  8
SUNPOU
100
AcDbMText
 10
274.5198930414083
 20
145.225843438677
 30
0.0
 40
3.0
 41
0.0
 71
     5
 72
     1
  1
\A1;8
 11
0.4472072079481913
 21
-0.8944303847472887
 31
0.0
1001
ACAD
1000
MTEXTBEGIN
1070
    73
1070
     1
1070
    44
1040
1.0
1070
    74
1070
     0
1000
MTEXTEND
  0
POINT
  5
43F0
330
3A68
100
AcDbEntity
  8
DEFPOINTS
 62
     0
100
AcDbPoint
 10
285.8058634630186
 20
155.3408478878947
 30
0.0
  0
POINT
  5
43F1
330
3A68
100
AcDbEntity
  8
DEFPOINTS
 62
     0
100
AcDbPoint
 10
289.4729641650792
 20
148.2301255307112
 30
0.0
  0
POINT
  5
43F2
330
3A68
100
AcDbEntity
  8
DEFPOINTS
 62
     0
100
AcDbPoint
 10
274.0726459113329
 20
140.5301038798174
 30
0.0
  0
ENDBLK
  5
3A73
330
3A68
100
AcDbEntity
  8
0
100
AcDbBlockEnd
  0
BLOCK
  5
3A80
330
3A74
100
AcDbEntity
  8
0
100
AcDbBlockBegin
  2
*D7
 70
     1
 10
0.0
 20
0.0
 30
0.0
  3
*D7
  1

  0
LINE
  5
43FC
330
3A74
100
AcDbEntity
  8
SUNPOU
100
AcDbLine
 10
271.1374207326506
 20
178.1935673730218
 30
0.0
 11
257.0787480560253
 21
171.1643565340502
 31
0.0
  0
LINE
  5
43FD
330
3A74
100
AcDbEntity
  8
SUNPOU
100
AcDbLine
 10
274.6256353577612
 20
170.9934035742486
 30
0.0
 11
260.6564057196107
 21
164.0089134560719
 31
0.0
  0
LINE
  5
43FE
330
3A74
100
AcDbEntity
  8
SUNPOU
100
AcDbLine
 10
257.0787720093016
 20
174.5184585002143
 30
0.0
 11
255.737150385457
 21
177.2017496544562
 31
0.0
  0
LINE
  5
43FF
330
3A74
100
AcDbEntity
  8
SUNPOU
100
AcDbLine
 10
263.3396729205762
 20
161.9964331137524
 30
0.0
 11
264.6812945444208
 21
159.3131419595105
 31
0.0
  0
LINE
  5
4400
330
3A74
100
AcDbEntity
  8
SUNPOU
100
AcDbLine
 10
258.4203936331462
 20
171.8351673459725
 30
0.0
 11
261.9980512967317
 21
164.6797242679942
 31
0.0
  0
INSERT
  5
4401
330
3A74
100
AcDbEntity
  8
SUNPOU
100
AcDbBlockReference
  2
_OPEN
 10
258.4203936331462
 20
171.8351673459725
 30
0.0
 41
3.0
 42
3.0
 43
3.0
 50
296.5646420000002
  0
INSERT
  5
4402
330
3A74
100
AcDbEntity
  8
SUNPOU
100
AcDbBlockReference
  2
_OPEN
 10
261.9980512967317
 20
164.6797242679942
 30
0.0
 41
3.0
 42
3.0
 43
3.0
 50
116.5646420000002
  0
MTEXT
  5
4403
330
3A74
100
AcDbEntity
  8
SUNPOU
100
AcDbMText
 10
262.4452984268072
 20
169.3754638268538
 30
0.0
 40
3.0
 41
0.0
 71
     5
 72
     1
  1
\A1;8
 11
0.4472072079481913
 21
-0.8944303847472887
 31
0.0
1001
ACAD
1000
MTEXTBEGIN
1070
    73
1070
     1
1070
    44
1040
1.0
1070
    74
1070
     0
1000
MTEXTEND
  0
POINT
  5
4404
330
3A74
100
AcDbEntity
  8
DEFPOINTS
 62
     0
100
AcDbPoint
 10
273.8207118868925
 20
179.5351889968664
 30
0.0
  0
POINT
  5
4405
330
3A74
100
AcDbEntity
  8
DEFPOINTS
 62
     0
100
AcDbPoint
 10
277.3089265120031
 20
172.3350251980932
 30
0.0
  0
POINT
  5
4406
330
3A74
100
AcDbEntity
  8
DEFPOINTS
 62
     0
100
AcDbPoint
 10
261.9980512967317
 20
164.6797242679942
 30
0.0
  0
ENDBLK
  5
3A81
330
3A74
100
AcDbEntity
  8
0
100
AcDbBlockEnd
  0
BLOCK
  5
3C39
330
3C2F
100
AcDbEntity
  8
0
100
AcDbBlockBegin
  2
*D8
 70
     1
 10
0.0
 20
0.0
 30
0.0
  3
*D8
  1

  0
LINE
  5
43B4
330
3C2F
100
AcDbEntity
  8
SUNPOU
100
AcDbLine
 10
75.52412045174725
 20
82.26124089814673
 30
0.0
 11
75.52412045174725
 21
178.1490478617058
 31
0.0
  0
LINE
  5
43B5
330
3C2F
100
AcDbEntity
  8
SUNPOU
100
AcDbLine
 10
204.5251389286914
 20
103.2912442981467
 30
0.0
 11
204.5251389286914
 21
178.1490478617058
 31
0.0
  0
LINE
  5
43B6
330
3C2F
100
AcDbEntity
  8
SUNPOU
100
AcDbLine
 10
78.52412045174725
 20
176.6490478617058
 30
0.0
 11
201.5251389286914
 21
176.6490478617058
 31
0.0
  0
INSERT
  5
43B7
330
3C2F
100
AcDbEntity
  8
SUNPOU
100
AcDbBlockReference
  2
_OPEN
 10
75.52412045174725
 20
176.6490478617058
 30
0.0
 41
3.0
 42
3.0
 43
3.0
 50
180.0
  0
INSERT
  5
43B8
330
3C2F
100
AcDbEntity
  8
SUNPOU
100
AcDbBlockReference
  2
_OPEN
 10
204.5251389286914
 20
176.6490478617058
 30
0.0
 41
3.0
 42
3.0
 43
3.0
  0
MTEXT
  5
43B9
330
3C2F
100
AcDbEntity
  8
SUNPOU
100
AcDbMText
 10
140.0246296902193
 20
179.1490478617058
 30
0.0
 40
3.0
 41
0.0
 71
     5
 72
     1
  1
\A1;129
1001
ACAD
1000
MTEXTBEGIN
1070
    73
1070
     1
1070
    44
1040
1.0
1070
    74
1070
     0
1000
MTEXTEND
  0
POINT
  5
43BA
330
3C2F
100
AcDbEntity
  8
DEFPOINTS
 62
     0
100
AcDbPoint
 10
75.52412045174725
 20
79.26124089814672
 30
0.0
  0
POINT
  5
43BB
330
3C2F
100
AcDbEntity
  8
DEFPOINTS
 62
     0
100
AcDbPoint
 10
204.5251389286914
 20
100.2912442981467
 30
0.0
  0
POINT
  5
43BC
330
3C2F
100
AcDbEntity
  8
DEFPOINTS
 62
     0
100
AcDbPoint
 10
204.5251389286914
 20
176.6490478617058
 30
0.0
  0
ENDBLK
  5
3C3A
330
3C2F
100
AcDbEntity
  8
0
100
AcDbBlockEnd
  0
BLOCK
  5
3C53
330
3C49
100
AcDbEntity
  8
0
100
AcDbBlockBegin
  2
*D9
 70
     1
 10
0.0
 20
0.0
 30
0.0
  3
*D9
  1

  0
LINE
  5
43A2
330
3C49
100
AcDbEntity
  8
SUNPOU
100
AcDbLine
 10
189.7442556803397
 20
137.4977113848584
 30
0.0
 11
210.7786698529958
 21
148.0147307494859
 31
0.0
  0
LINE
  5
43A3
330
3C49
100
AcDbEntity
  8
SUNPOU
100
AcDbLine
 10
205.3965080379084
 20
106.1926479054308
 30
0.0
 11
226.4309222105645
 21
116.7096672700583
 31
0.0
  0
LINE
  5
43A4
330
3C49
100
AcDbEntity
  8
SUNPOU
100
AcDbLine
 10
210.7786459059548
 20
144.6606287833217
 30
0.0
 11
223.7476550058577
 21
118.7221476073896
 31
0.0
  0
INSERT
  5
43A5
330
3C49
100
AcDbEntity
  8
SUNPOU
100
AcDbBlockReference
  2
_OPEN
 10
209.4370242771219
 20
147.3439199350695
 30
0.0
 41
3.0
 42
3.0
 43
3.0
 50
116.5646421065149
  0
INSERT
  5
43A6
330
3C49
100
AcDbEntity
  8
SUNPOU
100
AcDbBlockReference
  2
_OPEN
 10
225.0892766346906
 20
116.0388564556418
 30
0.0
 41
3.0
 42
3.0
 43
3.0
 50
296.5646421065149
  0
MTEXT
  5
43A7
330
3C49
100
AcDbEntity
  8
SUNPOU
100
AcDbMText
 10
219.4992264156961
 20
132.809406219383
 30
0.0
 40
3.0
 41
0.0
 71
     5
 72
     1
  1
\A1;35
 11
0.4472072096109656
 21
-0.8944303839159164
 31
0.0
1001
ACAD
1000
MTEXTBEGIN
1070
    73
1070
     1
1070
    44
1040
1.0
1070
    74
1070
     0
1000
MTEXTEND
  0
POINT
  5
43A8
330
3C49
100
AcDbEntity
  8
DEFPOINTS
 62
     0
100
AcDbPoint
 10
187.060964528592
 20
136.1560897560255
 30
0.0
  0
POINT
  5
43A9
330
3C49
100
AcDbEntity
  8
DEFPOINTS
 62
     0
100
AcDbPoint
 10
202.7132168861607
 20
104.8510262765979
 30
0.0
  0
POINT
  5
43AA
330
3C49
100
AcDbEntity
  8
DEFPOINTS
 62
     0
100
AcDbPoint
 10
225.0892766346906
 20
116.0388564556418
 30
0.0
  0
ENDBLK
  5
3C54
330
3C49
100
AcDbEntity
  8
0
100
AcDbBlockEnd
  0
BLOCK
  5
3C60
330
3C56
100
AcDbEntity
  8
0
100
AcDbBlockBegin
  2
*D10
 70
     1
 10
0.0
 20
0.0
 30
0.0
  3
*D10
  1

  0
LINE
  5
4399
330
3C56
100
AcDbEntity
  8
SUNPOU
100
AcDbLine
 10
205.4046013051586
 20
259.1462371810213
 30
0.0
 11
227.9615104889444
 21
259.1462371810213
 31
0.0
  0
LINE
  5
439A
330
3C56
100
AcDbEntity
  8
SUNPOU
100
AcDbLine
 10
205.4046013051586
 20
197.189671479213
 30
0.0
 11
227.9615104889444
 21
197.189671479213
 31
0.0
  0
LINE
  5
439B
330
3C56
100
AcDbEntity
  8
SUNPOU
100
AcDbLine
 10
226.4615104889444
 20
256.1462371810213
 30
0.0
 11
226.4615104889444
 21
200.189671479213
 31
0.0
  0
INSERT
  5
439C
330
3C56
100
AcDbEntity
  8
SUNPOU
100
AcDbBlockReference
  2
_OPEN
 10
226.4615104889444
 20
259.1462371810213
 30
0.0
 41
3.0
 42
3.0
 43
3.0
 50
90.0
  0
INSERT
  5
439D
330
3C56
100
AcDbEntity
  8
SUNPOU
100
AcDbBlockReference
  2
_OPEN
 10
226.4615104889444
 20
197.189671479213
 30
0.0
 41
3.0
 42
3.0
 43
3.0
 50
270.0
  0
MTEXT
  5
439E
330
3C56
100
AcDbEntity
  8
SUNPOU
100
AcDbMText
 10
223.9615104889443
 20
228.1679543301172
 30
0.0
 40
3.0
 41
0.0
 71
     5
 72
     1
  1
\A1;62
 11
0.0000000000000001
 21
1.0
 31
0.0
1001
ACAD
1000
MTEXTBEGIN
1070
    73
1070
     1
1070
    44
1040
1.0
1070
    74
1070
     0
1000
MTEXTEND
  0
POINT
  5
439F
330
3C56
100
AcDbEntity
  8
DEFPOINTS
 62
     0
100
AcDbPoint
 10
202.4046013051586
 20
259.1462371810213
 30
0.0
  0
POINT
  5
43A0
330
3C56
100
AcDbEntity
  8
DEFPOINTS
 62
     0
100
AcDbPoint
 10
202.4046013051586
 20
197.189671479213
 30
0.0
  0
POINT
  5
43A1
330
3C56
100
AcDbEntity
  8
DEFPOINTS
 62
     0
100
AcDbPoint
 10
226.4615104889444
 20
197.189671479213
 30
0.0
  0
ENDBLK
  5
3C61
330
3C56
100
AcDbEntity
  8
0
100
AcDbBlockEnd
  0
BLOCK
  5
3C6D
330
3C63
100
AcDbEntity
  8
0
100
AcDbBlockBegin
  2
*D11
 70
     1
 10
0.0
 20
0.0
 30
0.0
  3
*D11
  1

  0
LINE
  5
43AB
330
3C63
100
AcDbEntity
  8
SUNPOU
100
AcDbLine
 10
128.0241204517472
 20
83.56124089814676
 30
0.0
 11
128.0241204517472
 21
168.9802729713172
 31
0.0
  0
LINE
  5
43AC
330
3C63
100
AcDbEntity
  8
SUNPOU
100
AcDbLine
 10
204.5251389286914
 20
103.2912442981467
 30
0.0
 11
204.5251389286914
 21
168.9802729713172
 31
0.0
  0
LINE
  5
43AD
330
3C63
100
AcDbEntity
  8
SUNPOU
100
AcDbLine
 10
131.0241204517472
 20
167.4802729713172
 30
0.0
 11
201.5251389286914
 21
167.4802729713172
 31
0.0
  0
INSERT
  5
43AE
330
3C63
100
AcDbEntity
  8
SUNPOU
100
AcDbBlockReference
  2
_OPEN
 10
128.0241204517472
 20
167.4802729713172
 30
0.0
 41
3.0
 42
3.0
 43
3.0
 50
180.0
  0
INSERT
  5
43AF
330
3C63
100
AcDbEntity
  8
SUNPOU
100
AcDbBlockReference
  2
_OPEN
 10
204.5251389286914
 20
167.4802729713172
 30
0.0
 41
3.0
 42
3.0
 43
3.0
  0
MTEXT
  5
43B0
330
3C63
100
AcDbEntity
  8
SUNPOU
100
AcDbMText
 10
166.2746296902193
 20
169.9802729713172
 30
0.0
 40
3.0
 41
0.0
 71
     5
 72
     1
  1
\A1;77
1001
ACAD
1000
MTEXTBEGIN
1070
    73
1070
     1
1070
    44
1040
1.0
1070
    74
1070
     0
1000
MTEXTEND
  0
POINT
  5
43B1
330
3C63
100
AcDbEntity
  8
DEFPOINTS
 62
     0
100
AcDbPoint
 10
128.0241204517472
 20
80.56124089814675
 30
0.0
  0
POINT
  5
43B2
330
3C63
100
AcDbEntity
  8
DEFPOINTS
 62
     0
100
AcDbPoint
 10
204.5251389286914
 20
100.2912442981467
 30
0.0
  0
POINT
  5
43B3
330
3C63
100
AcDbEntity
  8
DEFPOINTS
 62
     0
100
AcDbPoint
 10
204.5251389286914
 20
167.4802729713172
 30
0.0
  0
ENDBLK
  5
3C6E
330
3C63
100
AcDbEntity
  8
0
100
AcDbBlockEnd
  0
BLOCK
  5
3F93
330
3F89
100
AcDbEntity
  8
0
100
AcDbBlockBegin
  2
*D12
 70
     1
 10
0.0
 20
0.0
 30
0.0
  3
*D12
  1

  0
LINE
  5
43BD
330
3F89
100
AcDbEntity
  8
SUNPOU
100
AcDbLine
 10
184.060964528592
 20
136.1560897560255
 30
0.0
 11
47.19330768340955
 21
136.1560897560256
 31
0.0
  0
LINE
  5
43BE
330
3F89
100
AcDbEntity
  8
SUNPOU
100
AcDbLine
 10
72.52412045174725
 20
82.26124089814673
 30
0.0
 11
47.19330768340954
 21
82.26124089814673
 31
0.0
  0
LINE
  5
43BF
330
3F89
100
AcDbEntity
  8
SUNPOU
100
AcDbLine
 10
48.69330768340955
 20
133.1560897560256
 30
0.0
 11
48.69330768340955
 21
85.26124089814672
 31
0.0
  0
INSERT
  5
43C0
330
3F89
100
AcDbEntity
  8
SUNPOU
100
AcDbBlockReference
  2
_OPEN
 10
48.69330768340955
 20
136.1560897560256
 30
0.0
 41
3.0
 42
3.0
 43
3.0
 50
90.0
  0
INSERT
  5
43C1
330
3F89
100
AcDbEntity
  8
SUNPOU
100
AcDbBlockReference
  2
_OPEN
 10
48.69330768340955
 20
82.26124089814673
 30
0.0
 41
3.0
 42
3.0
 43
3.0
 50
270.0
  0
MTEXT
  5
43C2
330
3F89
100
AcDbEntity
  8
SUNPOU
100
AcDbMText
 10
46.19330768340953
 20
109.2086653270861
 30
0.0
 40
3.0
 41
0.0
 71
     5
 72
     1
  1
\A1;54
 11
0.0000000000000001
 21
1.0
 31
0.0
1001
ACAD
1000
MTEXTBEGIN
1070
    73
1070
     1
1070
    44
1040
1.0
1070
    74
1070
     0
1000
MTEXTEND
  0
POINT
  5
43C3
330
3F89
100
AcDbEntity
  8
DEFPOINTS
 62
     0
100
AcDbPoint
 10
187.060964528592
 20
136.1560897560255
 30
0.0
  0
POINT
  5
43C4
330
3F89
100
AcDbEntity
  8
DEFPOINTS
 62
     0
100
AcDbPoint
 10
75.52412045174725
 20
82.26124089814673
 30
0.0
  0
POINT
  5
43C5
330
3F89
100
AcDbEntity
  8
DEFPOINTS
 62
     0
100
AcDbPoint
 10
48.69330768340955
 20
82.26124089814673
 30
0.0
  0
ENDBLK
  5
3F94
330
3F89
100
AcDbEntity
  8
0
100
AcDbBlockEnd
  0
ENDSEC
  0
SECTION
  2
ENTITIES
  0
TEXT
  5
9D
330
1A
100
AcDbEntity
  8
ZUWAKU
 48
5.0
100
AcDbText
 10
327.1013476411085
 20
8.060146781246267
 30
0.0
 40
4.0
  1

100
AcDbText
  0
ARC
  5
5A7
330
1A
100
AcDbEntity
  8
NOKITOI
  6
PHANTOM
 62
     8
100
AcDbCircle
 10
123.8611469485176
 20
76.01033231955042
 30
0.0
 40
43.00001447645168
100
AcDbArc
 50
186.5249107071177
 51
269.9998883751437
  0
ARC
  5
5A8
330
1A
100
AcDbEntity
  8
NOKITOI
  6
PHANTOM
 62
     8
100
AcDbCircle
 10
123.8611692569429
 20
76.01031221852403
 30
0.0
 40
41.79999437547816
100
AcDbArc
 50
184.4742952125247
 51
269.999854592109
  0
LINE
  5
5A9
330
1A
100
AcDbEntity
  8
NOKITOI
  6
PHANTOM
 62
     8
100
AcDbLine
 10
73.65016317497475
 20
75.14791784318035
 30
0.0
 11
73.56466317497506
 21
77.88541784318031
 31
0.0
  0
LINE
  5
5AA
330
1A
100
AcDbEntity
  8
NOKITOI
  6
PHANTOM
 62
     8
100
AcDbLine
 10
72.11206317497499
 20
85.94781784318033
 30
0.0
 11
72.50226317497482
 21
73.46351784318025
 31
0.0
  0
LINE
  5
5AB
330
1A
100
AcDbEntity
  8
NOKITOI
  6
PHANTOM
 62
     8
100
AcDbLine
 10
81.69006317497542
 20
73.21031784318037
 30
0.0
 11
75.649163174975
 21
73.21031784318037
 31
0.0
  0
ARC
  5
5AC
330
1A
100
AcDbEntity
  8
NOKITOI
  6
PHANTOM
 62
     8
100
AcDbCircle
 10
80.14615475081246
 20
71.01032535823683
 30
0.0
 40
0.9999924849789756
100
AcDbArc
 50
6.528264606673934
 51
89.99951732740965
  0
LINE
  5
5AD
330
1A
100
AcDbEntity
  8
NOKITOI
  6
PHANTOM
 62
     8
100
AcDbLine
 10
74.00146317497501
 20
72.01031784318033
 30
0.0
 11
80.14616317497484
 21
72.01031784318033
 31
0.0
  0
ARC
  5
5AE
330
1A
100
AcDbEntity
  8
NOKITOI
  6
PHANTOM
 62
     8
100
AcDbCircle
 10
75.64917674711342
 20
75.21030468809394
 30
0.0
 40
1.999986844959662
100
AcDbArc
 50
181.7875531852356
 51
269.9996111843215
  0
ARC
  5
5AF
330
1A
100
AcDbEntity
  8
NOKITOI
  6
PHANTOM
 62
     8
100
AcDbCircle
 10
74.00149913412588
 20
73.51028298903711
 30
0.0
 40
1.499965146287778
100
AcDbArc
 50
181.7866280217767
 51
269.9986264296971
  0
ARC
  5
5B0
330
1A
100
AcDbEntity
  8
NOKITOI
  6
PHANTOM
 62
     8
100
AcDbCircle
 10
81.69007574468333
 20
72.71030621845065
 30
0.0
 40
0.5000116248877111
100
AcDbArc
 50
4.474846808342103
 51
90.00144034898383
  0
ARC
  5
5B1
330
1A
100
AcDbEntity
  8
NOKITOI
  6
PHANTOM
 62
     8
100
AcDbCircle
 10
74.11107592582493
 20
86.01033099826677
 30
0.0
 40
1.999986844954076
100
AcDbArc
 50
90.00036528735451
 51
181.7883072882703
  0
LINE
  5
5B2
330
1A
100
AcDbEntity
  8
NOKITOI
  6
PHANTOM
 62
     8
100
AcDbLine
 10
80.38896317497483
 20
85.51031784318032
 30
0.0
 11
78.15746317497496
 21
85.51031784318032
 31
0.0
  0
ARC
  5
5B3
330
1A
100
AcDbEntity
  8
NOKITOI
  6
PHANTOM
 62
     8
100
AcDbCircle
 10
80.07315628798005
 20
79.01031130809482
 30
0.0
 40
0.499993464961963
100
AcDbArc
 50
270.0007892017869
 51
356.997036131742
  0
LINE
  5
5B4
330
1A
100
AcDbEntity
  8
NOKITOI
  6
PHANTOM
 62
     8
100
AcDbLine
 10
79.40906317497502
 20
79.71031784318038
 30
0.0
 11
79.590263174975
 21
83.15181784318051
 31
0.0
  0
LINE
  5
5B5
330
1A
100
AcDbEntity
  8
NOKITOI
  6
PHANTOM
 62
     8
100
AcDbLine
 10
79.03526317497517
 20
82.53871784318025
 30
0.0
 11
79.590263174975
 21
83.15181784318051
 31
0.0
  0
ARC
  5
5B6
330
1A
100
AcDbEntity
  8
NOKITOI
  6
PHANTOM
 62
     8
100
AcDbCircle
 10
77.56278338764423
 20
78.01037657156038
 30
0.0
 40
5.2000412730095
100
AcDbArc
 50
90.0013245430618
 51
142.0757990790548
  0
LINE
  5
5B7
330
1A
100
AcDbEntity
  8
NOKITOI
  6
PHANTOM
 62
     8
100
AcDbLine
 10
73.31146317497541
 20
85.98531784318025
 30
0.0
 11
73.46086317497475
 21
81.20641784318044
 31
0.0
  0
ARC
  5
5B8
330
1A
100
AcDbEntity
  8
NOKITOI
  6
PHANTOM
 62
     8
100
AcDbCircle
 10
77.5627010564217
 20
78.01036162570571
 30
0.0
 40
3.999989731271038
100
AcDbArc
 50
96.47731142013116
 51
181.7899836067311
  0
ARC
  5
5B9
330
1A
100
AcDbEntity
  8
NOKITOI
  6
PHANTOM
 62
     8
100
AcDbCircle
 10
77.16787739339043
 20
81.48800320887934
 30
0.0
 40
0.5000073448410256
100
AcDbArc
 50
351.872947864124
 51
96.47829282996921
  0
LINE
  5
5BA
330
1A
100
AcDbEntity
  8
NOKITOI
  6
PHANTOM
 62
     8
100
AcDbLine
 10
78.63116317497542
 20
79.71031784318038
 30
0.0
 11
79.03526317497517
 21
82.53871784318025
 31
0.0
  0
LINE
  5
5BB
330
1A
100
AcDbEntity
  8
NOKITOI
  6
PHANTOM
 62
     8
100
AcDbLine
 10
79.40906317497502
 20
79.71031784318038
 30
0.0
 11
78.63116317497542
 21
79.71031784318038
 31
0.0
  0
ARC
  5
5BC
330
1A
100
AcDbEntity
  8
NOKITOI
  6
PHANTOM
 62
     8
100
AcDbCircle
 10
77.8240897755727
 20
79.0102871662983
 30
0.0
 40
0.4999693238254178
100
AcDbArc
 50
171.8555038770531
 51
269.9969516090356
  0
LINE
  5
5BD
330
1A
100
AcDbEntity
  8
NOKITOI
  6
PHANTOM
 62
     8
100
AcDbLine
 10
80.07316317497497
 20
78.51031784318033
 30
0.0
 11
77.82406317497498
 21
78.51031784318033
 31
0.0
  0
LINE
  5
5BE
330
1A
100
AcDbEntity
  8
NOKITOI
  6
PHANTOM
 62
     8
100
AcDbLine
 10
77.32916317497483
 20
79.08111784318052
 30
0.0
 11
77.66286317497497
 21
81.41731784318048
 31
0.0
  0
LINE
  5
5BF
330
1A
100
AcDbEntity
  8
NOKITOI
  6
PHANTOM
 62
     8
100
AcDbLine
 10
76.58386317497525
 20
86.81031784318051
 30
0.0
 11
76.08386317497525
 21
84.31031784318051
 31
0.0
  0
LINE
  5
5C0
330
1A
100
AcDbEntity
  8
NOKITOI
  6
PHANTOM
 62
     8
100
AcDbLine
 10
76.08386317497525
 20
84.31031784318051
 30
0.0
 11
79.02036317497504
 21
84.31031784318051
 31
0.0
  0
LINE
  5
5C1
330
1A
100
AcDbEntity
  8
NOKITOI
  6
PHANTOM
 62
     8
100
AcDbLine
 10
74.11106317497479
 20
88.01031784318032
 30
0.0
 11
77.43766317497511
 21
88.01031784318032
 31
0.0
  0
LINE
  5
5C2
330
1A
100
AcDbEntity
  8
NOKITOI
  6
PHANTOM
 62
     8
100
AcDbLine
 10
74.11106317497479
 20
86.81031784318051
 30
0.0
 11
76.58386317497525
 21
86.81031784318051
 31
0.0
  0
ARC
  5
5C3
330
1A
100
AcDbEntity
  8
NOKITOI
  6
PHANTOM
 62
     8
100
AcDbCircle
 10
74.11106766977309
 20
86.01032248070723
 30
0.0
 40
0.7999953624857498
100
AcDbArc
 50
90.00032191805264
 51
181.7911273464193
  0
ARC
  5
5C4
330
1A
100
AcDbEntity
  8
NOKITOI
  6
PHANTOM
 62
     8
100
AcDbCircle
 10
77.43766239196657
 20
87.51031879818205
 30
0.0
 40
0.4999990449987349
100
AcDbArc
 50
348.6967198015447
 51
89.99991027369492
  0
ARC
  5
5C5
330
1A
100
AcDbEntity
  8
NOKITOI
  6
PHANTOM
 62
     8
100
AcDbCircle
 10
78.15745592041958
 20
86.01032669302375
 30
0.0
 40
0.5000088498959383
100
AcDbArc
 50
168.6864043304892
 51
270.0008312961442
  0
LINE
  5
5C6
330
1A
100
AcDbEntity
  8
NOKITOI
  6
PHANTOM
 62
     8
100
AcDbLine
 10
77.66716317497503
 20
86.10841784318026
 30
0.0
 11
77.92796317497504
 21
87.41231784318037
 31
0.0
  0
LINE
  5
5C7
330
1A
100
AcDbEntity
  8
NOKITOI
  6
PHANTOM
 62
     8
100
AcDbLine
 10
78.02456317497536
 20
83.21031784318037
 30
0.0
 11
77.56266317497511
 21
83.21031784318037
 31
0.0
  0
LINE
  5
5C8
330
1A
100
AcDbEntity
  8
NOKITOI
  6
PHANTOM
 62
     8
100
AcDbLine
 10
78.02456317497536
 20
83.21031784318037
 30
0.0
 11
79.02036317497504
 21
84.31031784318051
 31
0.0
  0
LINE
  5
5C9
330
1A
100
AcDbEntity
  8
NOKITOI
  6
PHANTOM
 62
     8
100
AcDbLine
 10
80.57256317497513
 20
78.98411784318032
 30
0.0
 11
80.88836317497499
 21
84.98401784318033
 31
0.0
  0
ARC
  5
5CA
330
1A
100
AcDbEntity
  8
NOKITOI
  6
PHANTOM
 62
     8
100
AcDbCircle
 10
80.38895697381713
 20
85.01032437826561
 30
0.0
 40
0.4999934649531607
100
AcDbArc
 50
356.9955363203376
 51
89.99928939038076
  0
LINE
  5
5CB
330
1A
100
AcDbEntity
  8
NOKITOI
  6
PHANTOM
 62
     8
100
AcDbLine
 10
164.690563174975
 20
33.01021784318035
 30
0.0
 11
144.5326631749753
 21
33.01021784318035
 31
0.0
  0
LINE
  5
5CC
330
1A
100
AcDbEntity
  8
NOKITOI
  6
PHANTOM
 62
     8
100
AcDbLine
 10
164.440763174975
 20
34.2102178431804
 30
0.0
 11
144.5326631749753
 21
34.2102178431804
 31
0.0
  0
LINE
  5
5CD
330
1A
100
AcDbEntity
  8
NOKITOI
  6
PHANTOM
 62
     8
100
AcDbLine
 10
168.690563174975
 20
33.01021784318035
 30
0.0
 11
123.8611631749749
 21
33.01031784318033
 31
0.0
  0
LINE
  5
5CE
330
1A
100
AcDbEntity
  8
NOKITOI
  6
PHANTOM
 62
     8
100
AcDbLine
 10
123.8611631749749
 20
34.21031784318037
 30
0.0
 11
168.4407631749749
 21
34.2102178431804
 31
0.0
  0
LINE
  5
5CF
330
1A
100
AcDbEntity
  8
NOKITOI
  6
PHANTOM
 62
     8
100
AcDbLine
 10
190.445063174975
 20
75.1477178431804
 30
0.0
 11
190.5305631749747
 21
77.88531784318033
 31
0.0
  0
LINE
  5
5D0
330
1A
100
AcDbEntity
  8
NOKITOI
  6
PHANTOM
 62
     8
100
AcDbLine
 10
191.983063174975
 20
85.94781784318033
 30
0.0
 11
191.5929631749749
 21
73.46341784318028
 31
0.0
  0
LINE
  5
5D1
330
1A
100
AcDbEntity
  8
NOKITOI
  6
PHANTOM
 62
     8
100
AcDbLine
 10
190.093663174975
 20
72.01031784318033
 30
0.0
 11
183.9525631749752
 21
72.01031784318033
 31
0.0
  0
LINE
  5
5D2
330
1A
100
AcDbEntity
  8
NOKITOI
  6
PHANTOM
 62
     8
100
AcDbLine
 10
182.4140631749746
 20
73.21031784318037
 30
0.0
 11
188.445963174975
 21
73.21031784318037
 31
0.0
  0
LINE
  5
5D3
330
1A
100
AcDbEntity
  8
NOKITOI
  6
PHANTOM
 62
     8
100
AcDbLine
 10
182.9575631749753
 20
71.10981784318036
 30
0.0
 11
180.0887631749751
 21
42.42241784318034
 31
0.0
  0
LINE
  5
5D4
330
1A
100
AcDbEntity
  8
NOKITOI
  6
PHANTOM
 62
     8
100
AcDbLine
 10
181.9165631749751
 20
72.76011784318038
 30
0.0
 11
178.9235631749747
 21
42.83031784318026
 31
0.0
  0
LINE
  5
5D5
330
1A
100
AcDbEntity
  8
NOKITOI
  6
PHANTOM
 62
     8
100
AcDbLine
 10
179.726963174975
 20
41.74791784318048
 30
0.0
 11
169.323863174975
 21
33.23621784318047
 31
0.0
  0
LINE
  5
5D6
330
1A
100
AcDbEntity
  8
NOKITOI
  6
PHANTOM
 62
     8
100
AcDbLine
 10
178.7426631749753
 20
42.49301784318035
 30
0.0
 11
168.757363174975
 21
34.32321784318023
 31
0.0
  0
ARC
  5
5D7
330
1A
100
AcDbEntity
  8
NOKITOI
  6
PHANTOM
 62
     8
100
AcDbCircle
 10
168.6905562423976
 20
34.01021536817424
 30
0.0
 40
0.9999975250179316
100
AcDbArc
 50
270.0003972084035
 51
309.2946416752299
  0
ARC
  5
5D8
330
1A
100
AcDbEntity
  8
NOKITOI
  6
PHANTOM
 62
     8
100
AcDbCircle
 10
168.4407695627237
 20
34.71022012316993
 30
0.0
 40
0.5000022800304047
100
AcDbArc
 50
269.9992680212791
 51
309.2854498596061
  0
ARC
  5
5D9
330
1A
100
AcDbEntity
  8
NOKITOI
  6
PHANTOM
 62
     8
100
AcDbCircle
 10
179.0937406021061
 20
42.52187577150775
 30
0.0
 40
0.9999908507640039
100
AcDbArc
 50
309.288709223069
 51
354.2862329477532
  0
ARC
  5
5DA
330
1A
100
AcDbEntity
  8
NOKITOI
  6
PHANTOM
 62
     8
100
AcDbCircle
 10
178.4260457490967
 20
42.87998535679238
 30
0.0
 40
0.4999904508696396
100
AcDbArc
 50
309.2900846377951
 51
354.2990110749239
  0
ARC
  5
5DB
330
1A
100
AcDbEntity
  8
NOKITOI
  6
PHANTOM
 62
     8
100
AcDbCircle
 10
183.9525838248159
 20
71.01033653102954
 30
0.0
 40
0.9999813123640345
100
AcDbArc
 50
90.00118317084911
 51
174.2905900333514
  0
ARC
  5
5DC
330
1A
100
AcDbEntity
  8
NOKITOI
  6
PHANTOM
 62
     8
100
AcDbCircle
 10
182.4140762459796
 20
72.71032967346022
 30
0.0
 40
0.499988169890889
100
AcDbArc
 50
90.00149786226634
 51
174.2966061377162
  0
ARC
  5
5DD
330
1A
100
AcDbEntity
  8
NOKITOI
  6
PHANTOM
 62
     8
100
AcDbCircle
 10
190.0936803881531
 20
73.51033452632814
 30
0.0
 40
1.500016683246579
100
AcDbArc
 50
269.9993425123344
 51
358.2076423244113
  0
ARC
  5
5DE
330
1A
100
AcDbEntity
  8
NOKITOI
  6
PHANTOM
 62
     8
100
AcDbCircle
 10
188.4460011627993
 20
75.21025466375258
 30
0.0
 40
2.000036820932882
100
AcDbArc
 50
269.9989117490344
 51
358.2110591274195
  0
LINE
  5
5DF
330
1A
100
AcDbEntity
  8
NOKITOI
  6
PHANTOM
 62
     8
100
AcDbLine
 10
189.9840631749752
 20
88.01021784318036
 30
0.0
 11
186.6574631749749
 21
88.01031784318032
 31
0.0
  0
LINE
  5
5E0
330
1A
100
AcDbEntity
  8
NOKITOI
  6
PHANTOM
 62
     8
100
AcDbLine
 10
188.0113631749749
 20
84.31031784318051
 30
0.0
 11
185.0747631749749
 21
84.31031784318051
 31
0.0
  0
ARC
  5
5E1
330
1A
100
AcDbEntity
  8
NOKITOI
  6
PHANTOM
 62
     8
100
AcDbCircle
 10
186.9272925474747
 20
81.48794807567524
 30
0.0
 40
0.4999578477751074
100
AcDbArc
 50
83.52609071220754
 51
188.1330561712932
  0
ARC
  5
5E2
330
1A
100
AcDbEntity
  8
NOKITOI
  6
PHANTOM
 62
     8
100
AcDbCircle
 10
186.5325453086238
 20
78.01032657156028
 30
0.0
 40
5.199991271650611
100
AcDbArc
 50
37.92532860472995
 51
89.9998031407256
  0
LINE
  5
5E3
330
1A
100
AcDbEntity
  8
NOKITOI
  6
PHANTOM
 62
     8
100
AcDbLine
 10
184.686063174975
 20
79.71031784318038
 30
0.0
 11
184.5049631749748
 21
83.1517178431803
 31
0.0
  0
LINE
  5
5E4
330
1A
100
AcDbEntity
  8
NOKITOI
  6
PHANTOM
 62
     8
100
AcDbLine
 10
185.059963174975
 20
82.53871784318025
 30
0.0
 11
184.5049631749748
 21
83.1517178431803
 31
0.0
  0
LINE
  5
5E5
330
1A
100
AcDbEntity
  8
NOKITOI
  6
PHANTOM
 62
     8
100
AcDbLine
 10
183.5226631749751
 20
78.98401784318034
 30
0.0
 11
183.2068631749748
 21
84.98401784318033
 31
0.0
  0
LINE
  5
5E6
330
1A
100
AcDbEntity
  8
NOKITOI
  6
PHANTOM
 62
     8
100
AcDbLine
 10
185.4639631749746
 20
79.71031784318038
 30
0.0
 11
185.059963174975
 21
82.53871784318025
 31
0.0
  0
LINE
  5
5E7
330
1A
100
AcDbEntity
  8
NOKITOI
  6
PHANTOM
 62
     8
100
AcDbLine
 10
184.686063174975
 20
79.71031784318038
 30
0.0
 11
185.4639631749746
 21
79.71031784318038
 31
0.0
  0
LINE
  5
5E8
330
1A
100
AcDbEntity
  8
NOKITOI
  6
PHANTOM
 62
     8
100
AcDbLine
 10
184.021963174975
 20
78.51031784318033
 30
0.0
 11
186.2710631749746
 21
78.51031784318033
 31
0.0
  0
ARC
  5
5E9
330
1A
100
AcDbEntity
  8
NOKITOI
  6
PHANTOM
 62
     8
100
AcDbCircle
 10
184.0219672963817
 20
79.01031393314983
 30
0.0
 40
0.4999960899864752
100
AcDbArc
 50
183.0147243791741
 51
269.9995277178593
  0
ARC
  5
5EA
330
1A
100
AcDbEntity
  8
NOKITOI
  6
PHANTOM
 62
     8
100
AcDbCircle
 10
186.2710733614112
 20
79.01032958790446
 30
0.0
 40
0.5000117448278309
100
AcDbArc
 50
269.9988327478016
 51
8.127314608715551
  0
LINE
  5
5EB
330
1A
100
AcDbEntity
  8
NOKITOI
  6
PHANTOM
 62
     8
100
AcDbLine
 10
186.7660631749749
 20
79.08101784318032
 30
0.0
 11
186.432263174975
 21
81.4172178431805
 31
0.0
  0
LINE
  5
5EC
330
1A
100
AcDbEntity
  8
NOKITOI
  6
PHANTOM
 62
     8
100
AcDbLine
 10
183.7061631749752
 20
85.51031784318032
 30
0.0
 11
185.937663174975
 21
85.51031784318032
 31
0.0
  0
ARC
  5
5ED
330
1A
100
AcDbEntity
  8
NOKITOI
  6
PHANTOM
 62
     8
100
AcDbCircle
 10
183.7061668844703
 20
85.01032175321105
 30
0.0
 40
0.4999960899831856
100
AcDbArc
 50
90.00042508015082
 51
183.0156217414647
  0
ARC
  5
5EE
330
1A
100
AcDbEntity
  8
NOKITOI
  6
PHANTOM
 62
     8
100
AcDbCircle
 10
186.6574559204195
 20
87.5103089933369
 30
0.0
 40
0.500008849895925
100
AcDbArc
 50
89.99916870385415
 51
191.3135956695126
  0
ARC
  5
5EF
330
1A
100
AcDbEntity
  8
NOKITOI
  6
PHANTOM
 62
     8
100
AcDbCircle
 10
185.9376623919665
 20
86.0103168881786
 30
0.0
 40
0.4999990449987399
100
AcDbArc
 50
270.000089726305
 51
11.30328019845521
  0
LINE
  5
5F0
330
1A
100
AcDbEntity
  8
NOKITOI
  6
PHANTOM
 62
     8
100
AcDbLine
 10
186.427963174975
 20
86.10831784318051
 30
0.0
 11
186.167163174975
 21
87.41231784318037
 31
0.0
  0
LINE
  5
5F1
330
1A
100
AcDbEntity
  8
NOKITOI
  6
PHANTOM
 62
     8
100
AcDbLine
 10
186.0705631749751
 20
83.21031784318037
 30
0.0
 11
186.5325631749751
 21
83.21031784318037
 31
0.0
  0
LINE
  5
5F2
330
1A
100
AcDbEntity
  8
NOKITOI
  6
PHANTOM
 62
     8
100
AcDbLine
 10
186.0705631749751
 20
83.21031784318037
 30
0.0
 11
185.0747631749749
 21
84.31031784318051
 31
0.0
  0
LINE
  5
5F3
330
1A
100
AcDbEntity
  8
NOKITOI
  6
PHANTOM
 62
     8
100
AcDbLine
 10
190.7836631749746
 20
85.98531784318025
 30
0.0
 11
190.634363174975
 21
81.20631784318048
 31
0.0
  0
ARC
  5
5F4
330
1A
100
AcDbEntity
  8
NOKITOI
  6
PHANTOM
 62
     8
100
AcDbCircle
 10
186.5325322480389
 20
78.01035358784415
 30
0.0
 40
3.99998565374706
100
AcDbArc
 50
358.208696659101
 51
83.52422380468341
  0
ARC
  5
5F5
330
1A
100
AcDbEntity
  8
NOKITOI
  6
PHANTOM
 62
     8
100
AcDbCircle
 10
189.9840519379808
 20
86.01032943699747
 30
0.0
 40
1.999988406214315
100
AcDbArc
 50
358.2088726535936
 51
89.99967808195551
  0
LINE
  5
5F6
330
1A
100
AcDbEntity
  8
NOKITOI
  6
PHANTOM
 62
     8
100
AcDbLine
 10
189.9840631749752
 20
86.81021784318032
 30
0.0
 11
187.511363174975
 21
86.81031784318051
 31
0.0
  0
LINE
  5
5F7
330
1A
100
AcDbEntity
  8
NOKITOI
  6
PHANTOM
 62
     8
100
AcDbLine
 10
187.511363174975
 20
86.81031784318051
 30
0.0
 11
188.0113631749749
 21
84.31031784318051
 31
0.0
  0
ARC
  5
5F8
330
1A
100
AcDbEntity
  8
NOKITOI
  6
PHANTOM
 62
     8
100
AcDbCircle
 10
189.9841071413279
 20
86.01027248070735
 30
0.0
 40
0.7999453636812564
100
AcDbArc
 50
358.2123436447881
 51
90.00314907315425
  0
LINE
  5
1D19
330
1A
100
AcDbEntity
  8
SEIHIN
100
AcDbLine
 10
151.2388390949625
 20
82.80310428634008
 30
0.0
 11
164.0263256517472
 21
95.59059094318042
 31
0.0
  0
ARC
  5
1D1B
330
1A
100
AcDbEntity
  8
SEIHIN
100
AcDbCircle
 10
150.5388390517472
 20
83.01731784318041
 30
0.0
 40
5.500000002456481
100
AcDbArc
 50
270.0
 51
315.0
  0
LINE
  5
1D1E
330
1A
100
AcDbEntity
  8
SEIHIN
100
AcDbLine
 10
85.42769365174729
 20
69.91731784318038
 30
0.0
 11
153.8525475517472
 21
69.91731784318038
 31
0.0
  0
LINE
  5
1D23
330
1A
100
AcDbEntity
  8
SEIHIN
100
AcDbLine
 10
150.5317322733827
 20
83.51021106476023
 30
0.0
 11
163.3192188517472
 21
96.29769774318038
 31
0.0
  0
LINE
  5
1D24
330
1A
100
AcDbEntity
  8
CENTER_L
100
AcDbLine
 10
138.0241204517472
 20
92.40792071728776
 30
0.0
 11
138.0241204517472
 21
67.46890326530546
 31
0.0
  0
LINE
  5
1D2A
330
1A
100
AcDbEntity
  8
SEIHIN
100
AcDbLine
 10
128.0241204517472
 20
83.21731784318041
 30
0.0
 11
128.0241204517472
 21
77.71731784318041
 31
0.0
  0
LINE
  5
1D2C
330
1A
100
AcDbEntity
  8
SEIHIN
100
AcDbLine
 10
77.82412045174726
 20
77.51731784318041
 30
0.0
 11
150.5390034334907
 21
77.51731784318041
 31
0.0
  0
ARC
  5
1D41
330
1A
100
AcDbEntity
  8
SEIHIN
100
AcDbCircle
 10
85.42769365174729
 20
71.51731784318041
 30
0.0
 40
1.599999992064534
100
AcDbArc
 50
185.0000004668387
 51
270.0
  0
LINE
  5
1D42
330
1A
100
AcDbEntity
  8
SEIHIN
100
AcDbLine
 10
78.62412045174721
 20
74.91731784318038
 30
0.0
 11
83.52412045174725
 21
74.91731784318038
 31
0.0
  0
ARC
  5
1D43
330
1A
100
AcDbEntity
  8
SEIHIN
100
AcDbCircle
 10
78.62412045174721
 20
78.0173178431804
 30
0.0
 40
3.100000000000008
100
AcDbArc
 50
180.0
 51
270.0
  0
LINE
  5
1D44
330
1A
100
AcDbEntity
  8
SEIHIN
100
AcDbLine
 10
75.52412045174725
 20
81.91731784318038
 30
0.0
 11
77.32412045174726
 21
81.91731784318038
 31
0.0
  0
ARC
  5
1D45
330
1A
100
AcDbEntity
  8
SEIHIN
100
AcDbCircle
 10
77.82412045174726
 20
78.0173178431804
 30
0.0
 40
0.5
100
AcDbArc
 50
180.0
 51
270.0
  0
LINE
  5
1D46
330
1A
100
AcDbEntity
  8
SEIHIN
100
AcDbLine
 10
75.52412045174725
 20
81.91731784318038
 30
0.0
 11
75.52412045174725
 21
78.0173178431804
 31
0.0
  0
LINE
  5
1D47
330
1A
100
AcDbEntity
  8
SEIHIN
100
AcDbLine
 10
77.32412045174726
 20
81.91731784318038
 30
0.0
 11
77.32412045174726
 21
78.0173178431804
 31
0.0
  0
LINE
  5
1D48
330
1A
100
AcDbEntity
  8
SEIHIN
100
AcDbLine
 10
83.83378215174724
 20
71.37786864318041
 30
0.0
 11
83.29664991198081
 21
77.51731784318039
 31
0.0
  0
LINE
  5
1D4B
330
1A
100
AcDbEntity
  8
SEIHIN
100
AcDbLine
 10
128.0241204517472
 20
82.21731784318041
 30
0.0
 11
149.8246255270567
 21
82.21731784318041
 31
0.0
  0
LINE
  5
1D4D
330
1A
100
AcDbEntity
  8
SEIHIN
100
AcDbLine
 10
128.0241204517472
 20
77.51731784318041
 30
0.0
 11
150.5388390517472
 21
77.51731784318041
 31
0.0
  0
ARC
  5
1D5C
330
1A
100
AcDbEntity
  8
SEIHIN
100
AcDbCircle
 10
138.0241204517472
 20
77.32669284318041
 30
0.0
 40
7.890625
100
AcDbArc
 50
48.29108392084388
 51
131.708916079156
  0
LINE
  5
1D5D
330
1A
100
AcDbEntity
  8
SEIHIN
100
AcDbLine
 10
128.0241204517472
 20
83.21731784318041
 30
0.0
 11
149.8246254894297
 21
83.21731784318039
 31
0.0
  0
LINE
  5
1D65
330
1A
100
AcDbEntity
  8
SEIHIN
100
AcDbLine
 10
197.5241204517472
 20
89.01731784318043
 30
0.0
 11
197.5241204517472
 21
71.99180016575223
 31
0.0
  0
LINE
  5
1D67
330
1A
100
AcDbEntity
  8
SEIHIN
100
AcDbLine
 10
193.9241204517472
 20
89.01731784318043
 30
0.0
 11
193.9241204517472
 21
72.04420794318041
 31
0.0
  0
LINE
  5
1D68
330
1A
100
AcDbEntity
  8
SEIHIN
100
AcDbLine
 10
196.5241204517472
 20
89.01731784318043
 30
0.0
 11
196.5241204517472
 21
72.04420794318041
 31
0.0
  0
LINE
  5
1D6C
330
1A
100
AcDbEntity
  8
SEIHIN
100
AcDbLine
 10
157.4587921517472
 20
71.41107324318038
 30
0.0
 11
171.858622110736
 21
85.81090327940911
 31
0.0
  0
LINE
  5
1D6E
330
1A
100
AcDbEntity
  8
SEIHIN
100
AcDbLine
 10
154.4279263517472
 20
79.12823054318041
 30
0.0
 11
166.2584759466921
 21
90.95878013812535
 31
0.0
  0
LINE
  5
1D79
330
1A
100
AcDbEntity
  8
SEIHIN
100
AcDbLine
 10
168.5053467517472
 20
68.51224074318039
 30
0.0
 11
180.4483931517472
 21
74.3372536431804
 31
0.0
  0
LINE
  5
1D7A
330
1A
100
AcDbEntity
  8
SEIHIN
100
AcDbLine
 10
169.1629033517472
 20
67.16404954318038
 30
0.0
 11
180.4483931517472
 21
72.6683507431804
 31
0.0
  0
LINE
  5
1D7B
330
1A
100
AcDbEntity
  8
SEIHIN
100
AcDbLine
 10
168.3299983517472
 20
68.87175834318039
 30
0.0
 11
180.1730446517472
 21
74.64799794318039
 31
0.0
  0
LINE
  5
1D7D
330
1A
100
AcDbEntity
  8
SEIHIN
100
AcDbLine
 10
157.4476484028211
 20
71.3999638398187
 30
0.0
 11
166.5799352517472
 21
67.14150854318039
 31
0.0
  0
ARC
  5
1D7E
330
1A
100
AcDbEntity
  8
SEIHIN
100
AcDbCircle
 10
153.8525475517472
 20
75.01731784318041
 30
0.0
 40
5.100000011277387
100
AcDbArc
 50
270.0
 51
315.0
  0
LINE
  5
1D7F
330
1A
100
AcDbEntity
  8
SEIHIN
100
AcDbLine
 10
158.8773977273653
 20
72.82967882640784
 30
0.0
 11
167.3829100517472
 21
68.86349334318039
 31
0.0
  0
LINE
  5
1D80
330
1A
100
AcDbEntity
  8
SEIHIN
100
AcDbLine
 10
158.5764028176808
 20
72.5286839151088
 30
0.0
 11
167.2138627517472
 21
68.50097024318039
 31
0.0
  0
ARC
  5
1D81
330
1A
100
AcDbEntity
  8
SEIHIN
100
AcDbCircle
 10
167.8477901517472
 20
69.86043184318039
 30
0.0
 40
1.499999997384386
100
AcDbArc
 50
244.9999984438223
 51
295.9999936879063
  0
ARC
  5
1D83
330
1A
100
AcDbEntity
  8
SEIHIN
100
AcDbCircle
 10
167.8477901517472
 20
69.86043184318039
 30
0.0
 40
1.099999981342675
100
AcDbArc
 50
244.9999979823536
 51
295.9999960018844
  0
ARC
  5
1D84
330
1A
100
AcDbEntity
  8
SEIHIN
100
AcDbCircle
 10
167.8477901517472
 20
69.86043184318039
 30
0.0
 40
2.9999999920909
100
AcDbArc
 50
244.9999949819811
 51
295.999994525133
  0
ARC
  5
1D86
330
1A
100
AcDbEntity
  8
SEIHIN
100
AcDbCircle
 10
178.5195600517472
 20
78.29194744318041
 30
0.0
 40
4.400000010194002
100
AcDbArc
 50
296.0000006547247
 51
359.9999934891161
  0
ARC
  5
1D87
330
1A
100
AcDbEntity
  8
SEIHIN
100
AcDbCircle
 10
178.4195600517472
 20
78.24317414318038
 30
0.0
 40
4.000000009467725
100
AcDbArc
 50
296.0000000723986
 51
0.0
  0
LINE
  5
1D88
330
1A
100
AcDbEntity
  8
SEIHIN
100
AcDbLine
 10
182.9195600517472
 20
76.6230440431804
 30
0.0
 11
182.9195600517472
 21
80.7512746431804
 31
0.0
  0
ARC
  5
1D8A
330
1A
100
AcDbEntity
  8
SEIHIN
100
AcDbCircle
 10
178.5195600517472
 20
76.62304454318039
 30
0.0
 40
4.400000010194002
100
AcDbArc
 50
296.0000006547247
 51
359.9999934891161
  0
LINE
  5
1D8B
330
1A
100
AcDbEntity
  8
SEIHIN
100
AcDbLine
 10
182.4195600517472
 20
80.7512746431804
 30
0.0
 11
182.9195600517472
 21
80.7512746431804
 31
0.0
  0
LINE
  5
1D8C
330
1A
100
AcDbEntity
  8
SEIHIN
100
AcDbLine
 10
182.4195600517472
 20
78.24317414318038
 30
0.0
 11
182.4195600517472
 21
80.7512746431804
 31
0.0
  0
LINE
  5
1D92
330
1A
100
AcDbEntity
  8
SEIHIN
100
AcDbLine
 10
187.0337136517472
 20
71.8836695431804
 30
0.0
 11
186.9028737940143
 21
69.38709574620607
 31
0.0
  0
ARC
  5
1D93
330
1A
100
AcDbEntity
  8
SEIHIN
100
AcDbCircle
 10
193.5241204517472
 20
72.04420794318041
 30
0.0
 40
2.999999998689364
100
AcDbArc
 50
266.9999993993207
 51
0.0
  0
LINE
  5
1D94
330
1A
100
AcDbEntity
  8
SEIHIN
100
AcDbLine
 10
194.3671125807178
 20
68.99591156160908
 30
0.0
 11
186.9028738517472
 21
69.38709574318041
 31
0.0
  0
LINE
  5
1D96
330
1A
100
AcDbEntity
  8
SEIHIN
100
AcDbLine
 10
193.5031860517472
 20
71.6447561431804
 30
0.0
 11
187.0389472517472
 21
71.9835325431804
 31
0.0
  0
ARC
  5
1D97
330
1A
100
AcDbEntity
  8
SEIHIN
100
AcDbCircle
 10
193.5241204517472
 20
72.04420794318041
 30
0.0
 40
0.3999999935166316
100
AcDbArc
 50
266.999997392128
 51
0.0
  0
LINE
  5
1DAE
330
1A
100
AcDbEntity
  8
SEIHIN
100
AcDbLine
 10
191.7887800898756
 20
93.4540262278716
 30
0.0
 11
169.2047600517472
 21
92.27044794318038
 31
0.0
  0
LINE
  5
1DB3
330
1A
100
AcDbEntity
  8
SEIHIN
100
AcDbLine
 10
191.9246821517472
 20
90.85758044318039
 30
0.0
 11
177.5241204517472
 21
90.10287903302135
 31
0.0
  0
ARC
  5
1DB6
330
1A
100
AcDbEntity
  8
SEIHIN
100
AcDbCircle
 10
169.4402718517472
 20
87.77661504318041
 30
0.0
 40
4.499999985879004
100
AcDbArc
 50
92.99999996493296
 51
135.0
  0
ARC
  5
1DB8
330
1A
100
AcDbEntity
  8
SEIHIN
100
AcDbCircle
 10
167.9154131517472
 20
91.70150374318041
 30
0.0
 40
5.500000065643712
100
AcDbArc
 50
91.3361182741777
 51
135.0000022098678
  0
ARC
  5
1DB9
330
1A
100
AcDbEntity
  8
SEIHIN
100
AcDbCircle
 10
167.9154131517472
 20
91.70150374318041
 30
0.0
 40
6.500000024766264
100
AcDbArc
 50
91.33611865333142
 51
135.000002493184
  0
ARC
  5
1DBB
330
1A
100
AcDbEntity
  8
SEIHIN
100
AcDbCircle
 10
192.0241204517472
 20
88.9601843431804
 30
0.0
 40
4.499999996725646
100
AcDbArc
 50
0.0
 51
92.99781409385971
  0
ARC
  5
1DBC
330
1A
100
AcDbEntity
  8
SEIHIN
100
AcDbCircle
 10
192.0241204517472
 20
88.9601843431804
 30
0.0
 40
5.500000030448694
100
AcDbArc
 50
0.0
 51
79.77834973304488
  0
ARC
  5
1DBD
330
1A
100
AcDbEntity
  8
SEIHIN
100
AcDbCircle
 10
192.0241204517472
 20
88.9601843431804
 30
0.0
 40
1.899999991552915
100
AcDbArc
 50
0.0
 51
92.99999951753015
  0
LINE
  5
1EC3
330
1A
100
AcDbEntity
  8
SEIHIN
100
AcDbLine
 10
75.52412045174725
 20
238.1462371810213
 30
0.0
 11
83.29664991198075
 21
238.1462371810213
 31
0.0
  0
LINE
  5
1EC4
330
1A
100
AcDbEntity
  8
SEIHIN
100
AcDbLine
 10
201.9132168861606
 20
217.6462371810213
 30
0.0
 11
182.8888126857763
 21
217.6462371810213
 31
0.0
  0
LINE
  5
1EC5
330
1A
100
AcDbEntity
  8
SEIHIN
100
AcDbLine
 10
201.3715952385186
 20
197.1462371810213
 30
0.0
 11
187.060964528592
 21
197.1462371810213
 31
0.0
  0
LINE
  5
1EC6
330
1A
100
AcDbEntity
  8
CENTER_L
100
AcDbLine
 10
211.2660076458563
 20
228.1462371810213
 30
0.0
 11
68.52412045174725
 21
228.1462371810213
 31
0.0
  0
LINE
  5
1ECB
330
1A
100
AcDbEntity
  8
SEIHIN
100
AcDbLine
 10
75.52412045174725
 20
218.1462371810213
 30
0.0
 11
83.29664991198081
 21
218.1462371810213
 31
0.0
  0
LINE
  5
1ECC
330
1A
100
AcDbEntity
  8
SEIHIN
100
AcDbLine
 10
181.9577240696127
 20
216.0462371810213
 30
0.0
 11
185.3298759679588
 21
216.0462371810213
 31
0.0
  0
LINE
  5
1ED1
330
1A
100
AcDbEntity
  8
CENTER_L
100
AcDbLine
 10
187.1804876052744
 20
206.1462371810213
 30
0.0
 11
204.2774442307767
 21
206.1462371810213
 31
0.0
  0
LINE
  5
1ED8
330
1A
100
AcDbEntity
  8
CENTER_L
100
AcDbLine
 10
138.0241204517472
 20
213.1173654684701
 30
0.0
 11
138.0241204517472
 21
243.1751088935725
 31
0.0
  0
LINE
  5
1EDA
330
1A
100
AcDbEntity
  8
SEIHIN
100
AcDbLine
 10
128.0241204517472
 20
218.1462371810213
 30
0.0
 11
128.0241204517472
 21
238.1462371810213
 31
0.0
  0
LINE
  5
1F11
330
1A
100
AcDbEntity
  8
SEIHIN
100
AcDbLine
 10
177.5241204517472
 20
92.70644716762017
 30
0.0
 11
177.5241204517472
 21
87.05678404257037
 31
0.0
  0
LINE
  5
1F12
330
1A
100
AcDbEntity
  8
SEIHIN
100
AcDbLine
 10
176.576456410072
 20
86.05815450792489
 30
0.0
 11
171.858622110736
 21
85.81090327940911
 31
0.0
  0
ARC
  5
1F13
330
1A
100
AcDbEntity
  8
SEIHIN
100
AcDbCircle
 10
176.5241204517472
 20
87.05678404257037
 30
0.0
 40
1.0
100
AcDbArc
 50
273.0000001194438
 51
0.0
  0
ARC
  5
1F15
330
1A
100
AcDbEntity
  8
SEIHIN
100
AcDbCircle
 10
194.5241204517472
 20
71.99180016575223
 30
0.0
 40
3.0
100
AcDbArc
 50
266.9999999560026
 51
0.0
  0
LINE
  5
1F61
330
1A
100
AcDbEntity
  8
SEIHIN
100
AcDbLine
 10
177.5241204517472
 20
215.6462371810213
 30
0.0
 11
83.29664991198081
 21
215.6462371810213
 31
0.0
  0
LINE
  5
1F62
330
1A
100
AcDbEntity
  8
SEIHIN
100
AcDbLine
 10
177.5241204517472
 20
215.6462371810213
 30
0.0
 11
177.5241204517472
 21
218.1462371810213
 31
0.0
  0
LINE
  5
1F63
330
1A
100
AcDbEntity
  8
SEIHIN
100
AcDbLine
 10
83.29664991198081
 20
215.6462371810213
 30
0.0
 11
83.29664991198081
 21
218.1462371810213
 31
0.0
  0
LINE
  5
1F64
330
1A
100
AcDbEntity
  8
SEIHIN
100
AcDbLine
 10
75.52412045174725
 20
218.1462371810213
 30
0.0
 11
75.52412045174725
 21
238.1462371810213
 31
0.0
  0
LINE
  5
1F67
330
1A
100
AcDbEntity
  8
SEIHIN
100
AcDbLine
 10
77.32412045174726
 20
218.1462371810213
 30
0.0
 11
77.32412045174726
 21
238.1462371810213
 31
0.0
  0
LINE
  5
1F68
330
1A
100
AcDbEntity
  8
SEIHIN
100
AcDbLine
 10
128.0241204517472
 20
218.1462371810213
 30
0.0
 11
181.1577240696127
 21
218.1462371810213
 31
0.0
  0
LINE
  5
1F69
330
1A
100
AcDbEntity
  8
SEIHIN
100
AcDbLine
 10
128.0241204517472
 20
220.1462371810213
 30
0.0
 11
181.1577240696127
 21
220.1462371810213
 31
0.0
  0
CIRCLE
  5
1F6A
330
1A
100
AcDbEntity
  8
SEIHIN
100
AcDbCircle
 10
138.0241204517472
 20
228.1462371810213
 30
0.0
 40
5.0
  0
LINE
  5
1F6C
330
1A
100
AcDbEntity
  8
SEIHIN
100
AcDbLine
 10
150.3797032997688
 20
220.6462371810213
 30
0.0
 11
150.3797032997688
 21
235.6462371810213
 31
0.0
  0
LINE
  5
1F6D
330
1A
100
AcDbEntity
  8
SEIHIN
100
AcDbLine
 10
165.1645045057196
 20
220.6462371810213
 30
0.0
 11
165.1645045057196
 21
235.6462371810212
 31
0.0
  0
LINE
  5
1F70
330
1A
100
AcDbEntity
  8
SEIHIN
100
AcDbLine
 10
128.0241204517472
 20
236.1462371810213
 30
0.0
 11
181.1577240696127
 21
236.1462371810212
 31
0.0
  0
LINE
  5
1F71
330
1A
100
AcDbEntity
  8
SEIHIN
100
AcDbLine
 10
128.0241204517472
 20
238.1462371810213
 30
0.0
 11
181.1577240696127
 21
238.1462371810213
 31
0.0
  0
LINE
  5
1F72
330
1A
100
AcDbEntity
  8
SEIHIN
100
AcDbLine
 10
177.5241204517472
 20
240.6462371810213
 30
0.0
 11
83.29664991198081
 21
240.6462371810213
 31
0.0
  0
LINE
  5
1F73
330
1A
100
AcDbEntity
  8
SEIHIN
100
AcDbLine
 10
75.52412045174725
 20
238.1462371810213
 30
0.0
 11
83.29664991198081
 21
238.1462371810213
 31
0.0
  0
LINE
  5
1F74
330
1A
100
AcDbEntity
  8
SEIHIN
100
AcDbLine
 10
83.29664991198081
 20
240.6462371810213
 30
0.0
 11
83.29664991198081
 21
238.1462371810213
 31
0.0
  0
LINE
  5
1F75
330
1A
100
AcDbEntity
  8
SEIHIN
100
AcDbLine
 10
151.3117197713904
 20
236.6462371810214
 30
0.0
 11
151.3117197713904
 21
237.6462371810213
 31
0.0
  0
LINE
  5
1F76
330
1A
100
AcDbEntity
  8
SEIHIN
100
AcDbLine
 10
164.3256900491626
 20
237.6462371810213
 30
0.0
 11
164.3256900491626
 21
236.6462371810213
 31
0.0
  0
LINE
  5
1F77
330
1A
100
AcDbEntity
  8
SEIHIN
100
AcDbLine
 10
177.5241204517472
 20
240.6462371810213
 30
0.0
 11
177.5241204517472
 21
238.1462371810213
 31
0.0
  0
LINE
  5
1F85
330
1A
100
AcDbEntity
  8
SEIHIN
100
AcDbLine
 10
167.9622585363865
 20
238.6462371810213
 30
0.0
 11
167.9622585363865
 21
240.1462371810213
 31
0.0
  0
LINE
  5
1F86
330
1A
100
AcDbEntity
  8
SEIHIN
100
AcDbLine
 10
152.437700673443
 20
238.6462371810213
 30
0.0
 11
152.437700673443
 21
240.1462371810212
 31
0.0
  0
LINE
  5
1F88
330
1A
100
AcDbEntity
  8
SEIHIN
100
AcDbLine
 10
128.0241204517472
 20
77.71731784318041
 30
0.0
 11
150.445945836427
 21
77.71731784318039
 31
0.0
  0
LINE
  5
1F89
330
1A
100
AcDbEntity
  8
SEIHIN
100
AcDbLine
 10
153.9814797561916
 20
79.18178395107954
 30
0.0
 11
166.1225748531738
 21
91.32287914305965
 31
0.0
  0
ARC
  5
1F8B
330
1A
100
AcDbEntity
  8
SEIHIN
100
AcDbCircle
 10
169.6581087729384
 20
87.78734525095879
 30
0.0
 40
5.0
100
AcDbArc
 50
92.99999987887712
 51
135.0000002241552
  0
ARC
  5
1F93
330
1A
100
AcDbEntity
  8
SEIHIN
100
AcDbCircle
 10
150.445945836427
 20
82.7173178431804
 30
0.0
 40
5.0
100
AcDbArc
 50
270.0
 51
315.0000002241551
  0
ARC
  5
1F94
330
1A
100
AcDbEntity
  8
SEIHIN
100
AcDbCircle
 10
149.8246255270567
 20
84.21731784318041
 30
0.0
 40
2.0
100
AcDbArc
 50
270.0
 51
315.0000002241553
  0
ARC
  5
1F95
330
1A
100
AcDbEntity
  8
SEIHIN
100
AcDbCircle
 10
149.8246254894297
 20
84.21731784318039
 30
0.0
 40
1.0
100
AcDbArc
 50
270.0
 51
315.0000002241551
  0
DIMENSION
  5
2073
330
1A
100
AcDbEntity
  8
SUNPOU
100
AcDbDimension
  2
*D1
 10
48.69330768340957
 20
218.1462371810213
 30
0.0
 11
46.19330768340954
 21
228.1462371810213
 31
0.0
 70
    32
  3
STANDARD
100
AcDbAlignedDimension
 13
75.52412045174725
 23
238.1462371810213
 33
0.0
 14
75.52412045174725
 24
218.1462371810213
 34
0.0
 50
90.0
100
AcDbRotatedDimension
1001
ACAD
1000
DSTYLE
1002
{
1070
    41
1040
3.0
1070
    42
1040
3.0
1070
    43
1040
7.0
1070
    44
1040
1.5
1070
    73
1070
     0
1070
    74
1070
     0
1070
    77
1070
     3
1070
   140
1040
3.0
1070
   141
1040
3.0
1070
   147
1040
1.0
1070
   172
1070
     1
1070
   173
1070
     1
1070
   176
1070
   256
1070
   177
1070
   256
1070
   178
1070
   256
1070
   271
1070
     0
1070
   272
1070
     0
1070
   341
1005
B2
1070
     6
1000
OPEN
1070
     7
1000
OPEN
1002
}
  0
LINE
  5
2127
330
1A
100
AcDbEntity
  8
SEIHIN
100
AcDbLine
 10
151.3117197713904
 20
219.6462371810212
 30
0.0
 11
151.3117197713904
 21
218.6462371810213
 31
0.0
  0
LINE
  5
2128
330
1A
100
AcDbEntity
  8
SEIHIN
100
AcDbLine
 10
152.437700673443
 20
217.6462371810213
 30
0.0
 11
152.437700673443
 21
216.1462371810213
 31
0.0
  0
LINE
  5
2129
330
1A
100
AcDbEntity
  8
SEIHIN
100
AcDbLine
 10
164.3256900491626
 20
218.6462371810212
 30
0.0
 11
164.3256900491626
 21
219.6462371810213
 31
0.0
  0
LINE
  5
212A
330
1A
100
AcDbEntity
  8
SEIHIN
100
AcDbLine
 10
167.9622585363865
 20
217.6462371810213
 30
0.0
 11
167.9622585363865
 21
216.1462371810213
 31
0.0
  0
LINE
  5
29B5
330
1A
100
AcDbEntity
  8
SEIHIN
100
AcDbLine
 10
204.0251389286914
 20
232.1462371810212
 30
0.0
 11
201.5804772001477
 21
232.1462371810212
 31
0.0
  0
LINE
  5
29B6
330
1A
100
AcDbEntity
  8
SEIHIN
100
AcDbLine
 10
204.0251389286914
 20
224.1462371810213
 30
0.0
 11
201.5804772001477
 21
224.1462371810213
 31
0.0
  0
LINE
  5
3947
330
1A
100
AcDbEntity
  8
SEIHIN
100
AcDbLine
 10
202.2660016647687
 20
104.6274226905902
 30
0.0
 11
203.2281091783907
 21
102.7031731971137
 31
0.0
  0
LINE
  5
3948
330
1A
100
AcDbEntity
  8
SEIHIN
100
AcDbLine
 10
202.7132168861606
 20
104.8510262765979
 30
0.0
 11
196.8099763275268
 21
101.8994586705685
 31
0.0
  0
LINE
  5
3949
330
1A
100
AcDbEntity
  8
SEIHIN
100
AcDbLine
 10
198.2410649321828
 20
102.6149902036148
 30
0.0
 11
199.203218756985
 21
100.6906481972104
 31
0.0
  0
LINE
  5
394D
330
1A
100
AcDbEntity
  8
SEIHIN
100
AcDbLine
 10
181.1577240696127
 20
133.2045221583006
 30
0.0
 11
196.8099763275268
 21
101.8994586705685
 31
0.0
  0
LINE
  5
3989
330
1A
100
AcDbEntity
  8
SEIHIN
100
AcDbLine
 10
185.6298759679588
 20
135.4405581927728
 30
0.0
 11
201.2821282258729
 21
104.1354947050406
 31
0.0
  0
LINE
  5
398A
330
1A
100
AcDbEntity
  8
SEIHIN
100
AcDbLine
 10
187.060964528592
 20
136.1560897560255
 30
0.0
 11
202.7132168861606
 21
104.8510262765979
 31
0.0
  0
MTEXT
  5
398E
330
1A
100
AcDbEntity
  8
SUNPOU
100
AcDbMText
 10
171.1149790342856
 20
146.0303249440229
 30
0.0
 40
3.0
 41
0.0
 71
     1
 72
     5
  1
{\W1.269841;10}
 11
-0.0000000002051034
 21
1.0
 31
0.0
1001
ACAD
1000
MTEXTBEGIN
1070
    73
1070
     1
1070
    44
1040
1.0
1070
    74
1070
     0
1000
MTEXTEND
1000
MTEXTBEGIN
1070
    73
1070
     1
1070
    44
1040
1.0
1070
    74
1070
     0
1000
MTEXTEND
1000
MTEXTBEGIN
1070
    73
1070
     1
1070
    44
1040
1.0
1070
    74
1070
     0
1000
MTEXTEND
1000
MTEXTBEGIN
1070
    73
1070
     1
1070
    44
1040
1.0
1070
    74
1070
     0
1000
MTEXTEND
1000
MTEXTBEGIN
1070
    73
1070
     1
1070
    44
1040
1.0
1070
    74
1070
     0
1000
MTEXTEND
1000
MTEXTBEGIN
1070
    73
1070
     1
1070
    44
1040
1.0
1070
    74
1070
     0
1000
MTEXTEND
  0
MTEXT
  5
3995
330
1A
100
AcDbEntity
  8
SUNPOU
100
AcDbMText
 10
179.927327232982
 20
142.6442732446382
 30
0.0
 40
3.0
 41
0.0
 71
     1
 72
     5
  1
\W1.11111;5
1001
ACAD
1000
MTEXTBEGIN
1070
    73
1070
     1
1070
    44
1040
1.0
1070
    74
1070
     0
1000
MTEXTEND
1000
MTEXTBEGIN
1070
    73
1070
     1
1070
    44
1040
1.0
1070
    74
1070
     0
1000
MTEXTEND
1000
MTEXTBEGIN
1070
    73
1070
     1
1070
    44
1040
1.0
1070
    74
1070
     0
1000
MTEXTEND
1000
MTEXTBEGIN
1070
    73
1070
     1
1070
    44
1040
1.0
1070
    74
1070
     0
1000
MTEXTEND
1000
MTEXTBEGIN
1070
    73
1070
     1
1070
    44
1040
1.0
1070
    74
1070
     0
1000
MTEXTEND
1000
MTEXTBEGIN
1070
    73
1070
     1
1070
    44
1040
1.0
1070
    74
1070
     0
1000
MTEXTEND
  0
LINE
  5
3998
330
1A
100
AcDbEntity
  8
SEIHIN
100
AcDbLine
 10
187.060964528592
 20
136.1560897560255
 30
0.0
 11
181.1577240696127
 21
133.2045221583006
 31
0.0
  0
LINE
  5
399A
330
1A
100
AcDbEntity
  8
SUNPOU
100
AcDbLine
 10
177.6238469342856
 20
145.0303249446382
 30
0.0
 11
177.6238469342856
 21
155.0303249446382
 31
0.0
  0
LINE
  5
399C
330
1A
100
AcDbEntity
  8
SUNPOU
100
AcDbLine
 10
182.6238469342857
 20
145.0303249446382
 30
0.0
 11
177.6238469342856
 21
145.0303249446382
 31
0.0
  0
MTEXT
  5
39FC
102
{ACAD_REACTORS
330
39FD
102
}
330
1A
100
AcDbEntity
  8
SUNPOU
100
AcDbMText
 10
252.2336716185457
 20
189.8496388539918
 30
0.0
 40
2.999999999999999
 41
0.0
 71
     9
 72
     5
  1
4-φ4.2
 11
0.9965457577966127
 21
0.083045485232941
 31
0.0
1001
ACAD
1000
MTEXTBEGIN
1070
    73
1070
     1
1070
    44
1040
1.0
1070
    74
1070
     0
1000
MTEXTEND
1000
MTEXTBEGIN
1070
    73
1070
     1
1070
    44
1040
1.0
1070
    74
1070
     0
1000
MTEXTEND
1000
MTEXTBEGIN
1070
    73
1070
     1
1070
    44
1040
1.0
1070
    74
1070
     0
1000
MTEXTEND
1000
MTEXTBEGIN
1070
    73
1070
     1
1070
    44
1040
1.0
1070
    74
1070
     0
1000
MTEXTEND
1000
MTEXTBEGIN
1070
    73
1070
     1
1070
    44
1040
1.0
1070
    74
1070
     0
1000
MTEXTEND
1000
MTEXTBEGIN
1070
    73
1070
     1
1070
    44
1040
1.0
1070
    74
1070
     0
1000
MTEXTEND
1000
MTEXTBEGIN
1070
    73
1070
     1
1070
    44
1040
1.0
1070
    74
1070
     0
1000
MTEXTEND
1000
MTEXTBEGIN
1070
    73
1070
     1
1070
    44
1040
1.0
1070
    74
1070
     0
1000
MTEXTEND
1000
MTEXTBEGIN
1070
    73
1070
     1
1070
    44
1040
1.0
1070
    74
1070
     0
1000
MTEXTEND
1000
MTEXTBEGIN
1070
    73
1070
     1
1070
    44
1040
1.0
1070
    74
1070
     0
1000
MTEXTEND
  0
LEADER
  5
39FD
330
1A
100
AcDbEntity
  8
SUNPOU
100
AcDbLeader
  3
STANDARD
 73
     0
 40
2.999999999999999
 41
15.59999999999999
 76
     3
 10
280.7395264935671
 20
175.6176531091728
 30
0.0
 10
256.9495771436036
 20
191.7470341454633
 30
0.0
 10
253.1056491484929
 20
191.4275029759197
 30
0.0
340
39FC
211
0.996545757796613
221
0.083045485232941
231
0.0
213
-0.1245682278494115
223
1.494818636694919
233
0.0
1001
ACAD
1000
DSTYLE
1002
{
1070
     6
1000
OPEN
1070
    41
1040
3.0
1070
    42
1040
3.0
1070
    43
1040
7.0
1070
    44
1040
1.5
1070
    73
1070
     0
1070
    74
1070
     0
1070
    77
1070
     0
1070
   140
1040
3.0
1070
   141
1040
3.0
1070
   147
1040
1.0
1070
   172
1070
     1
1070
   173
1070
     1
1070
   176
1070
   256
1070
   177
1070
   256
1070
   178
1070
   256
1070
   271
1070
     0
1070
   272
1070
     0
1070
   341
1005
B2
1070
   343
1005
B2
1070
   344
1005
B2
1002
}
  0
DIMENSION
  5
39FE
330
1A
100
AcDbEntity
  8
SUNPOU
100
AcDbDimension
  2
*D3
 10
305.0216935145962
 20
228.9371074042271
 30
0.0
 11
284.2262070302853
 21
221.3346247912352
 31
0.0
 70
    32
  3
STANDARD
100
AcDbAlignedDimension
 13
280.0369878904778
 23
180.5190145135356
 33
0.0
 14
319.3919248193586
 24
200.1961316632559
 34
0.0
 50
26.56464199999978
100
AcDbRotatedDimension
1001
ACAD
1000
DSTYLE
1002
{
1070
    41
1040
3.0
1070
    42
1040
3.0
1070
    43
1040
7.0
1070
    44
1040
1.5
1070
    73
1070
     0
1070
    74
1070
     0
1070
    77
1070
     3
1070
   140
1040
3.0
1070
   141
1040
3.0
1070
   147
1040
1.0
1070
   172
1070
     1
1070
   173
1070
     1
1070
   176
1070
   256
1070
   177
1070
   256
1070
   178
1070
   256
1070
   271
1070
     0
1070
   272
1070
     0
1070
   341
1005
B2
1070
     6
1000
OPEN
1070
     7
1000
OPEN
1002
}
  0
DIMENSION
  5
39FF
330
1A
100
AcDbEntity
  8
SUNPOU
100
AcDbDimension
  2
*D2
 10
308.4454066654192
 20
242.2144580902501
 30
0.0
 11
279.6000467183826
 21
230.5871106057245
 31
0.0
 70
    32
  3
STANDARD
100
AcDbAlignedDimension
 13
272.4790423564952
 23
175.51027621878
 33
0.0
 14
327.9337262108274
 24
203.2371231115675
 34
0.0
 50
26.56464199999978
100
AcDbRotatedDimension
1001
ACAD
1000
DSTYLE
1002
{
1070
    41
1040
3.0
1070
    42
1040
3.0
1070
    43
1040
7.0
1070
    44
1040
1.5
1070
    73
1070
     0
1070
    74
1070
     0
1070
    77
1070
     3
1070
   140
1040
3.0
1070
   141
1040
3.0
1070
   147
1040
1.0
1070
   172
1070
     1
1070
   173
1070
     1
1070
   176
1070
   256
1070
   177
1070
   256
1070
   178
1070
   256
1070
   271
1070
     0
1070
   272
1070
     0
1070
   341
1005
B2
1070
     6
1000
OPEN
1070
     7
1000
OPEN
1002
}
  0
CIRCLE
  5
3A00
330
1A
100
AcDbEntity
  8
SEIHIN
100
AcDbCircle
 10
322.1198887878425
 20
194.7401063162974
 30
0.0
 40
2.100000000000022
  0
LINE
  5
3A01
330
1A
100
AcDbEntity
  8
CENTER_L
100
AcDbLine
 10
319.3919248193586
 20
200.1961316632559
 30
0.0
 11
324.8478527563266
 21
189.2840809693389
 31
0.0
  0
LINE
  5
3A02
330
1A
100
AcDbEntity
  8
CENTER_L
100
AcDbLine
 10
327.5759141348011
 20
197.4680702847813
 30
0.0
 11
316.663863440884
 21
192.0121423478134
 31
0.0
  0
LINE
  5
3A03
330
1A
100
AcDbEntity
  8
SEIHIN
100
AcDbLine
 10
323.4613187854761
 20
165.2239994327422
 30
0.0
 11
339.5610657109273
 21
173.2737291758096
 31
0.0
  0
LINE
  5
3A04
330
1A
100
AcDbEntity
  8
SEIHIN
100
AcDbLine
 10
298.8647626598168
 20
192.0569908194156
 30
0.0
 11
323.9088134327408
 21
204.5787926419649
 31
0.0
  0
DIMENSION
  5
3A05
330
1A
100
AcDbEntity
  8
SUNPOU
100
AcDbDimension
  2
*D7
 10
261.9980512967317
 20
164.6797242679942
 30
0.0
 11
262.4452984268072
 21
169.3754638268538
 31
0.0
 70
    32
  3
STANDARD
100
AcDbAlignedDimension
 13
273.8207118868925
 23
179.5351889968664
 33
0.0
 14
277.3089265120031
 24
172.3350251980932
 34
0.0
 50
116.5646420000002
100
AcDbRotatedDimension
1001
ACAD
1000
DSTYLE
1002
{
1070
    41
1040
3.0
1070
    42
1040
3.0
1070
    43
1040
7.0
1070
    44
1040
1.5
1070
    73
1070
     0
1070
    74
1070
     0
1070
    77
1070
     3
1070
   140
1040
3.0
1070
   141
1040
3.0
1070
   147
1040
1.0
1070
   172
1070
     1
1070
   173
1070
     1
1070
   176
1070
   256
1070
   177
1070
   256
1070
   178
1070
   256
1070
   271
1070
     0
1070
   272
1070
     0
1070
   341
1005
B2
1070
     6
1000
OPEN
1070
     7
1000
OPEN
1002
}
  0
DIMENSION
  5
3A06
330
1A
100
AcDbEntity
  8
SUNPOU
100
AcDbDimension
  2
*D5
 10
283.0391459913745
 20
145.0132738774419
 30
0.0
 11
277.4490958141494
 21
161.7838236303899
 31
0.0
 70
    32
  3
STANDARD
100
AcDbAlignedDimension
 13
248.5577974229888
 23
166.9039572825857
 33
0.0
 14
264.2100497011754
 24
135.5988938164305
 34
0.0
 50
116.5646420000002
100
AcDbRotatedDimension
1001
ACAD
1000
DSTYLE
1002
{
1070
    41
1040
3.0
1070
    42
1040
3.0
1070
    43
1040
7.0
1070
    44
1040
1.5
1070
    73
1070
     0
1070
    74
1070
     0
1070
    77
1070
     3
1070
   140
1040
3.0
1070
   141
1040
3.0
1070
   147
1040
1.0
1070
   172
1070
     1
1070
   173
1070
     1
1070
   176
1070
   256
1070
   177
1070
   256
1070
   178
1070
   256
1070
   271
1070
     0
1070
   272
1070
     0
1070
   341
1005
B2
1070
     6
1000
OPEN
1070
     7
1000
OPEN
1002
}
  0
DIMENSION
  5
3A07
330
1A
100
AcDbEntity
  8
SUNPOU
100
AcDbDimension
  2
*D4
 10
265.1119033030612
 20
136.049812566682
 30
0.0
 11
259.5218531258361
 21
152.8203623196301
 31
0.0
 70
    32
  3
STANDARD
100
AcDbAlignedDimension
 13
273.8207118868925
 23
179.5351889968664
 33
0.0
 14
289.4729641650791
 24
148.2301255307112
 34
0.0
 50
116.5646420000002
100
AcDbRotatedDimension
1001
ACAD
1000
DSTYLE
1002
{
1070
    41
1040
3.0
1070
    42
1040
3.0
1070
    43
1040
7.0
1070
    44
1040
1.5
1070
    73
1070
     0
1070
    74
1070
     0
1070
    77
1070
     3
1070
   140
1040
3.0
1070
   141
1040
3.0
1070
   147
1040
1.0
1070
   172
1070
     1
1070
   173
1070
     1
1070
   176
1070
   256
1070
   177
1070
   256
1070
   178
1070
   256
1070
   271
1070
     0
1070
   272
1070
     0
1070
   341
1005
B2
1070
     6
1000
OPEN
1070
     7
1000
OPEN
1002
}
  0
LINE
  5
3A08
330
1A
100
AcDbEntity
  8
SEIHIN
100
AcDbLine
 10
308.2562816996631
 20
196.7526665028716
 30
0.0
 11
323.9085339778497
 21
165.4476030367163
 31
0.0
  0
CIRCLE
  5
3A09
330
1A
100
AcDbEntity
  8
SEIHIN
100
AcDbCircle
 10
282.7649518589618
 20
175.0629891665771
 30
0.0
 40
2.100000000000022
  0
LINE
  5
3A0A
330
1A
100
AcDbEntity
  8
CENTER_L
100
AcDbLine
 10
277.3089265120031
 20
172.3350251980932
 30
0.0
 11
288.2209772059202
 21
177.7909531350611
 31
0.0
  0
LINE
  5
3A0B
330
1A
100
AcDbEntity
  8
CENTER_L
100
AcDbLine
 10
280.0369878904778
 20
180.5190145135356
 30
0.0
 11
285.4929158274458
 21
169.6069638196187
 31
0.0
  0
LINE
  5
3A0C
330
1A
100
AcDbEntity
  8
SEIHIN
100
AcDbLine
 10
289.9204588123438
 20
187.5849187399338
 30
0.0
 11
309.198312610396
 21
149.0285227712627
 31
0.0
  0
LINE
  5
3A0D
330
1A
100
AcDbEntity
  8
SEIHIN
100
AcDbLine
 10
272.4790423117746
 20
175.510276308223
 30
0.0
 11
285.4480512975511
 21
149.5717952399945
 31
0.0
  0
LINE
  5
3A0E
330
1A
100
AcDbEntity
  8
SEIHIN
100
AcDbLine
 10
289.4732436199702
 20
187.3613151359597
 30
0.0
 11
305.1254958981567
 21
156.0562516698044
 31
0.0
  0
LINE
  5
3A0F
330
1A
100
AcDbEntity
  8
CENTER_L
100
AcDbLine
 10
292.0002336671593
 20
205.7862939229625
 30
0.0
 11
321.2730668990092
 21
147.2395821865086
 31
0.0
  0
LINE
  5
3A10
330
1A
100
AcDbEntity
  8
SEIHIN
100
AcDbLine
 10
307.8090665072895
 20
196.5290628988975
 30
0.0
 11
327.0869202763476
 21
157.9726669882165
 31
0.0
  0
CIRCLE
  5
3A11
330
1A
100
AcDbEntity
  8
SEIHIN
100
AcDbCircle
 10
291.2618888099773
 20
158.0688118563785
 30
0.0
 40
2.100000000000022
  0
LINE
  5
3A12
330
1A
100
AcDbEntity
  8
CENTER_L
100
AcDbLine
 10
285.8058634630186
 20
155.3408478878947
 30
0.0
 11
296.7179141569358
 21
160.7967758248626
 31
0.0
  0
LINE
  5
3A13
330
1A
100
AcDbEntity
  8
CENTER_L
100
AcDbLine
 10
288.5339248414934
 20
163.5248372033371
 30
0.0
 11
293.9898527784613
 21
152.6127865094201
 31
0.0
  0
LINE
  5
3A14
330
1A
100
AcDbEntity
  8
SEIHIN
100
AcDbLine
 10
289.4729641650791
 20
148.2301255307112
 30
0.0
 11
305.5727110905302
 21
156.2798552737784
 31
0.0
  0
DIMENSION
  5
3A15
330
1A
100
AcDbEntity
  8
SUNPOU
100
AcDbDimension
  2
*D6
 10
274.0726459113329
 20
140.5301038798174
 30
0.0
 11
274.5198930414083
 21
145.225843438677
 31
0.0
 70
    32
  3
STANDARD
100
AcDbAlignedDimension
 13
285.8058634630186
 23
155.3408478878947
 33
0.0
 14
289.4729641650791
 24
148.2301255307112
 34
0.0
 50
116.5646420000002
100
AcDbRotatedDimension
1001
ACAD
1000
DSTYLE
1002
{
1070
    41
1040
3.0
1070
    42
1040
3.0
1070
    43
1040
7.0
1070
    44
1040
1.5
1070
    73
1070
     0
1070
    74
1070
     0
1070
    77
1070
     3
1070
   140
1040
3.0
1070
   141
1040
3.0
1070
   147
1040
1.0
1070
   172
1070
     1
1070
   173
1070
     1
1070
   176
1070
   256
1070
   177
1070
   256
1070
   178
1070
   256
1070
   271
1070
     0
1070
   272
1070
     0
1070
   341
1005
B2
1070
     6
1000
OPEN
1070
     7
1000
OPEN
1002
}
  0
ARC
  5
3A16
330
1A
100
AcDbEntity
  8
SEIHIN
100
AcDbCircle
 10
288.1313425412345
 20
150.913416684953
 30
0.0
 40
3.000000000000003
100
AcDbArc
 50
206.564638180281
 51
296.564642
  0
LINE
  5
3A17
330
1A
100
AcDbEntity
  8
SEIHIN
100
AcDbLine
 10
300.2062006418758
 20
163.6589179245819
 30
0.0
 11
298.4173398723811
 21
162.7645035086855
 31
0.0
  0
LINE
  5
3A18
330
1A
100
AcDbEntity
  8
SEIHIN
100
AcDbLine
 10
301.1006150577721
 20
161.8700571550873
 30
0.0
 11
299.3117542882775
 21
160.9756427391909
 31
0.0
  0
ARC
  5
3A19
330
1A
100
AcDbEntity
  8
SEIHIN
100
AcDbCircle
 10
298.6409434763552
 20
162.3172883163118
 30
0.0
 40
0.5
100
AcDbArc
 50
116.564642
 51
206.564642
  0
LINE
  5
3A1A
330
1A
100
AcDbEntity
  8
SEIHIN
100
AcDbLine
 10
298.6409354919298
 20
161.1992543275905
 30
0.0
 11
298.1937282839815
 21
162.0936847123378
 31
0.0
  0
ARC
  5
3A1B
330
1A
100
AcDbEntity
  8
SEIHIN
100
AcDbCircle
 10
299.0881506843034
 20
161.4228579315645
 30
0.0
 40
0.5
100
AcDbArc
 50
206.564642
 51
296.5646420000005
  0
ARC
  5
3A1C
330
1A
100
AcDbEntity
  8
SEIHIN
100
AcDbCircle
 10
322.790563864532
 20
174.3918829309129
 30
0.0
 40
0.5
100
AcDbArc
 50
26.564642
 51
116.564642
  0
LINE
  5
3A1D
330
1A
100
AcDbEntity
  8
SEIHIN
100
AcDbLine
 10
320.7780994910633
 20
173.9446837073902
 30
0.0
 11
322.5669602605579
 21
174.8390981232866
 31
0.0
  0
ARC
  5
3A1E
330
1A
100
AcDbEntity
  8
SEIHIN
100
AcDbCircle
 10
323.2377710724803
 20
173.4974525461655
 30
0.0
 40
0.5
100
AcDbArc
 50
296.5646419999994
 51
26.564642
  0
LINE
  5
3A1F
330
1A
100
AcDbEntity
  8
SEIHIN
100
AcDbLine
 10
321.6725139069597
 20
172.1558229378956
 30
0.0
 11
323.4613746764543
 21
173.050237353792
 31
0.0
  0
LINE
  5
3A20
330
1A
100
AcDbEntity
  8
SEIHIN
100
AcDbLine
 10
323.6849862648539
 20
173.7210561501397
 30
0.0
 11
323.2377790569057
 21
174.615486534887
 31
0.0
  0
LINE
  5
3A22
330
1A
100
AcDbEntity
  8
SEIHIN
100
AcDbLine
 10
291.7092636908602
 20
180.6530952347804
 30
0.0
 11
289.9204029213656
 21
179.7586808188841
 31
0.0
  0
LINE
  5
3A23
330
1A
100
AcDbEntity
  8
SEIHIN
100
AcDbLine
 10
292.6036781067565
 20
178.8642344652858
 30
0.0
 11
290.8148173372619
 21
177.9698200493894
 31
0.0
  0
LINE
  5
3A24
330
1A
100
AcDbEntity
  8
SEIHIN
100
AcDbLine
 10
273.8207118868925
 20
179.5351889968664
 30
0.0
 11
298.8647626598167
 21
192.0569908194157
 31
0.0
  0
ARC
  5
3A25
330
1A
100
AcDbEntity
  8
SEIHIN
100
AcDbCircle
 10
275.1623335107371
 20
176.8518978426245
 30
0.0
 40
3.0
100
AcDbArc
 50
116.564642
 51
206.564642
  0
LINE
  5
3A26
330
1A
100
AcDbEntity
  8
SEIHIN
100
AcDbLine
 10
290.1439985409142
 20
178.193431637789
 30
0.0
 11
289.696791332966
 21
179.0878620225363
 31
0.0
  0
ARC
  5
3A27
330
1A
100
AcDbEntity
  8
SEIHIN
100
AcDbCircle
 10
290.5912137332878
 20
178.4170352417631
 30
0.0
 40
0.5
100
AcDbArc
 50
206.564642
 51
296.5646420000005
  0
ARC
  5
3A28
330
1A
100
AcDbEntity
  8
SEIHIN
100
AcDbCircle
 10
290.1440065253396
 20
179.3114656265104
 30
0.0
 40
0.5
100
AcDbArc
 50
116.564642
 51
206.564642
  0
LINE
  5
3A2A
330
1A
100
AcDbEntity
  8
SEIHIN
100
AcDbLine
 10
321.720337982361
 20
155.2894237115323
 30
0.0
 11
319.4669080698445
 21
159.7963640019199
 31
0.0
  0
LINE
  5
3A2B
330
1A
100
AcDbEntity
  8
SEIHIN
100
AcDbLine
 10
314.5648949043826
 20
151.7117660479468
 30
0.0
 11
312.3114649918659
 21
156.2187063383343
 31
0.0
  0
ARC
  5
3A2C
330
1A
100
AcDbEntity
  8
SEIHIN
100
AcDbCircle
 10
314.2936269135165
 20
191.3860602411114
 30
0.0
 40
0.5
100
AcDbArc
 50
26.564642
 51
116.564642
  0
LINE
  5
3A2D
330
1A
100
AcDbEntity
  8
SEIHIN
100
AcDbLine
 10
313.1755769559442
 20
189.1500002480941
 30
0.0
 11
314.9644377254388
 21
190.0444146639905
 31
0.0
  0
LINE
  5
3A2E
330
1A
100
AcDbEntity
  8
SEIHIN
100
AcDbLine
 10
312.2811625400478
 20
190.9388610175887
 30
0.0
 11
314.0700233095425
 21
191.8332754334851
 31
0.0
  0
ARC
  5
3A2F
330
1A
100
AcDbEntity
  8
SEIHIN
100
AcDbCircle
 10
314.7408341214648
 20
190.4916298563641
 30
0.0
 40
0.5
100
AcDbArc
 50
296.5646419999994
 51
26.564642
  0
LINE
  5
3A30
330
1A
100
AcDbEntity
  8
SEIHIN
100
AcDbLine
 10
315.1880493138382
 20
190.7152334603383
 30
0.0
 11
314.7408421058901
 21
191.6096638450855
 31
0.0
  0
CIRCLE
  5
3A32
330
1A
100
AcDbEntity
  8
SEIHIN
100
AcDbCircle
 10
330.6168257388581
 20
177.7459290060988
 30
0.0
 40
2.100000000000022
  0
LINE
  5
3A33
330
1A
100
AcDbEntity
  8
CENTER_L
100
AcDbLine
 10
327.8888617703742
 20
183.2019543530574
 30
0.0
 11
333.3447897073422
 21
172.2899036591403
 31
0.0
  0
LINE
  5
3A34
330
1A
100
AcDbEntity
  8
CENTER_L
100
AcDbLine
 10
336.0728510858166
 20
180.4738929745827
 30
0.0
 11
325.1608003918995
 21
175.0179650376149
 31
0.0
  0
LINE
  5
3A35
330
1A
100
AcDbEntity
  8
SEIHIN
100
AcDbLine
 10
327.9337261661065
 20
203.2371232010105
 30
0.0
 11
340.9027351518833
 21
177.2986421327822
 31
0.0
  0
ARC
  5
3A36
330
1A
100
AcDbEntity
  8
SEIHIN
100
AcDbCircle
 10
338.2194440870828
 20
175.9570203300514
 30
0.0
 40
3.000000000000003
100
AcDbArc
 50
296.564642
 51
26.56464581971894
  0
ARC
  5
3A37
330
1A
100
AcDbEntity
  8
SEIHIN
100
AcDbCircle
 10
325.2504350565853
 20
201.8955014877229
 30
0.0
 40
3.0
100
AcDbArc
 50
26.56464390985947
 51
116.564642
  0
LINE
  5
3B2A
330
1A
100
AcDbEntity
  8
CENTER_L
100
AcDbLine
 10
185.1825969246009
 20
126.2726826962908
 30
0.0
 11
196.094647618518
 21
131.7286106332587
 31
0.0
  0
LINE
  5
3B2B
330
1A
100
AcDbEntity
  8
CENTER_L
100
AcDbLine
 10
193.6795338756164
 20
109.2785053860923
 30
0.0
 11
204.5915845695335
 21
114.7344333230602
 31
0.0
  0
ARC
  5
3B5F
330
1A
100
AcDbEntity
  8
SEIHIN
100
AcDbCircle
 10
181.9577240696127
 20
216.8462371810214
 30
0.0
 40
0.8
100
AcDbArc
 50
180.0000000000061
 51
269.9999999999979
  0
LINE
  5
3B62
330
1A
100
AcDbEntity
  8
SEIHIN
100
AcDbLine
 10
185.877915265749
 20
218.1462371810213
 30
0.0
 11
185.877915265749
 21
238.1462371810213
 31
0.0
  0
ARC
  5
3B63
330
1A
100
AcDbEntity
  8
SEIHIN
100
AcDbCircle
 10
182.8888126857763
 20
217.9462371810212
 30
0.0
 40
0.3
100
AcDbArc
 50
179.9999999999837
 51
270.0000000000108
  0
LINE
  5
3B71
330
1A
100
AcDbEntity
  8
CENTER_L
100
AcDbLine
 10
190.6386222266646
 20
212.2462371810213
 30
0.0
 11
190.6386222266646
 21
200.046381631429
 31
0.0
  0
LINE
  5
3B7A
330
1A
100
AcDbEntity
  8
CENTER_L
100
AcDbLine
 10
199.1355592092729
 20
212.2462371810213
 30
0.0
 11
199.1355592092729
 21
200.046381631429
 31
0.0
  0
LINE
  5
3B7D
330
1A
100
AcDbEntity
  8
SEIHIN
100
AcDbLine
 10
204.5251389286914
 20
218.1462371810213
 30
0.0
 11
204.5251389286914
 21
223.6462371810213
 31
0.0
  0
ARC
  5
3B7F
330
1A
100
AcDbEntity
  8
SEIHIN
100
AcDbCircle
 10
201.9132168861606
 20
216.8462371810213
 30
0.0
 40
0.8
100
AcDbArc
 50
0.0
 51
90.00000000000204
  0
LINE
  5
3B98
330
1A
100
AcDbEntity
  8
SEIHIN
100
AcDbLine
 10
204.0251389286914
 20
224.1462371810213
 30
0.0
 11
204.0251389286914
 21
232.1462371810212
 31
0.0
  0
LINE
  5
3B9A
330
1A
100
AcDbEntity
  8
SEIHIN
100
AcDbLine
 10
204.5251389286914
 20
232.6462371810213
 30
0.0
 11
204.0251389286913
 21
232.1462371810212
 31
0.0
  0
LINE
  5
3B9B
330
1A
100
AcDbEntity
  8
SEIHIN
100
AcDbLine
 10
204.5251389286914
 20
223.6462371810212
 30
0.0
 11
204.0251389286913
 21
224.1462371810213
 31
0.0
  0
LINE
  5
3B9C
330
1A
100
AcDbEntity
  8
SEIHIN
100
AcDbLine
 10
204.5251389286914
 20
232.6462371810213
 30
0.0
 11
204.5251389286914
 21
238.1462371810212
 31
0.0
  0
LINE
  5
3BD8
330
1A
100
AcDbEntity
  8
SEIHIN
100
AcDbLine
 10
327.0869202763477
 20
157.9726669882165
 30
0.0
 11
309.198312610396
 21
149.0285227712626
 31
0.0
  0
LINE
  5
3BDB
330
1A
100
AcDbEntity
  8
SEIHIN
100
AcDbLine
 10
185.6298280551249
 20
128.7323542623576
 30
0.0
 11
187.4186568840777
 21
125.1546327219485
 31
0.0
  0
LINE
  5
3BDD
330
1A
100
AcDbEntity
  8
SEIHIN
100
AcDbLine
 10
185.6298280551249
 20
128.7323542623576
 30
0.0
 11
187.4186888246194
 21
129.626768678254
 31
0.0
  0
LINE
  5
3BDE
330
1A
100
AcDbEntity
  8
SEIHIN
100
AcDbLine
 10
187.4186568840777
 20
125.1546327219485
 30
0.0
 11
189.2075176535723
 21
126.0490471378449
 31
0.0
  0
LINE
  5
3BE0
330
1A
100
AcDbEntity
  8
SEIHIN
100
AcDbLine
 10
194.1267650377332
 20
111.7381769679552
 30
0.0
 11
195.9156258072278
 21
112.6325913838516
 31
0.0
  0
LINE
  5
3BE1
330
1A
100
AcDbEntity
  8
SEIHIN
100
AcDbLine
 10
194.1267650377332
 20
111.7381769679552
 30
0.0
 11
195.9155938666861
 21
108.1604554275461
 31
0.0
  0
LINE
  5
3BE2
330
1A
100
AcDbEntity
  8
SEIHIN
100
AcDbLine
 10
194.1267650377332
 20
111.7381769679552
 30
0.0
 11
195.9156258072278
 21
112.6325913838516
 31
0.0
  0
LINE
  5
3BE3
330
1A
100
AcDbEntity
  8
SEIHIN
100
AcDbLine
 10
195.9155938666861
 20
108.1604554275461
 30
0.0
 11
197.7044546361806
 21
109.0548698434425
 31
0.0
  0
LINE
  5
3BE6
330
1A
100
AcDbEntity
  8
SEIHIN
100
AcDbLine
 10
191.6386222266646
 20
215.6462371810213
 30
0.0
 11
189.6386222266646
 21
215.6462371810213
 31
0.0
  0
LINE
  5
3BE7
330
1A
100
AcDbEntity
  8
SEIHIN
100
AcDbLine
 10
189.6386222266646
 20
215.6462371810213
 30
0.0
 11
189.6386222266646
 21
216.8462371810213
 31
0.0
  0
LINE
  5
3BE8
330
1A
100
AcDbEntity
  8
SEIHIN
100
AcDbLine
 10
191.6386222266646
 20
215.6462371810213
 30
0.0
 11
191.6386222266646
 21
216.8462371810213
 31
0.0
  0
ARC
  5
3BF8
330
1A
100
AcDbEntity
  8
SEIHIN
100
AcDbCircle
 10
188.8386222266646
 20
216.8462371810213
 30
0.0
 40
0.8
100
AcDbArc
 50
0.0
 51
90.00000000000204
  0
ARC
  5
3BF9
330
1A
100
AcDbEntity
  8
SEIHIN
100
AcDbCircle
 10
190.8386222266646
 20
216.8462371810213
 30
0.0
 40
0.8
100
AcDbArc
 50
0.0
 51
90.00000000000204
  0
DIMENSION
  5
3C2E
330
1A
100
AcDbEntity
  8
SUNPOU
100
AcDbDimension
  2
*D8
 10
204.5251389286914
 20
176.6490478617058
 30
0.0
 11
140.0246296902193
 21
179.1490478617058
 31
0.0
 70
    32
  3
STANDARD
100
AcDbAlignedDimension
 13
75.52412045174725
 23
79.26124089814672
 33
0.0
 14
204.5251389286914
 24
100.2912442981467
 34
0.0
100
AcDbRotatedDimension
1001
ACAD
1000
DSTYLE
1002
{
1070
    41
1040
3.0
1070
    42
1040
3.0
1070
    43
1040
7.0
1070
    44
1040
1.5
1070
    73
1070
     0
1070
    74
1070
     0
1070
    77
1070
     3
1070
   140
1040
3.0
1070
   141
1040
3.0
1070
   147
1040
1.0
1070
   172
1070
     1
1070
   173
1070
     1
1070
   176
1070
   256
1070
   177
1070
   256
1070
   178
1070
   256
1070
   271
1070
     0
1070
   272
1070
     0
1070
   341
1005
B2
1070
     6
1000
OPEN
1070
     7
1000
OPEN
1002
}
  0
DIMENSION
  5
3C48
330
1A
100
AcDbEntity
  8
SUNPOU
100
AcDbDimension
  2
*D9
 10
225.0892766346906
 20
116.0388564556418
 30
0.0
 11
219.4992264156961
 21
132.809406219383
 31
0.0
 70
    33
  3
STANDARD
100
AcDbAlignedDimension
 13
187.060964528592
 23
136.1560897560255
 33
0.0
 14
202.7132168861606
 24
104.8510262765979
 34
0.0
1001
ACAD
1000
DSTYLE
1002
{
1070
    41
1040
3.0
1070
    42
1040
3.0
1070
    43
1040
7.0
1070
    44
1040
1.5
1070
    73
1070
     0
1070
    74
1070
     0
1070
    77
1070
     3
1070
   140
1040
3.0
1070
   141
1040
3.0
1070
   147
1040
1.0
1070
   172
1070
     1
1070
   173
1070
     1
1070
   176
1070
   256
1070
   177
1070
   256
1070
   178
1070
   256
1070
   271
1070
     0
1070
   272
1070
     0
1070
   341
1005
B2
1070
     6
1000
OPEN
1070
     7
1000
OPEN
1002
}
  0
DIMENSION
  5
3C55
330
1A
100
AcDbEntity
  8
SUNPOU
100
AcDbDimension
  2
*D10
 10
226.4615104889444
 20
197.189671479213
 30
0.0
 11
223.9615104889443
 21
228.1679543301172
 31
0.0
 70
    32
  3
STANDARD
100
AcDbAlignedDimension
 13
202.4046013051586
 23
259.1462371810213
 33
0.0
 14
202.4046013051586
 24
197.189671479213
 34
0.0
 50
90.0
100
AcDbRotatedDimension
1001
ACAD
1000
DSTYLE
1002
{
1070
    41
1040
3.0
1070
    42
1040
3.0
1070
    43
1040
7.0
1070
    44
1040
1.5
1070
    73
1070
     0
1070
    74
1070
     0
1070
    77
1070
     3
1070
   140
1040
3.0
1070
   141
1040
3.0
1070
   147
1040
1.0
1070
   172
1070
     1
1070
   173
1070
     1
1070
   176
1070
   256
1070
   177
1070
   256
1070
   178
1070
   256
1070
   271
1070
     0
1070
   272
1070
     0
1070
   341
1005
B2
1070
     6
1000
OPEN
1070
     7
1000
OPEN
1002
}
  0
DIMENSION
  5
3C62
330
1A
100
AcDbEntity
  8
SUNPOU
100
AcDbDimension
  2
*D11
 10
204.5251389286914
 20
167.4802729713172
 30
0.0
 11
166.2746296902193
 21
169.9802729713172
 31
0.0
 70
    32
  3
STANDARD
100
AcDbAlignedDimension
 13
128.0241204517472
 23
80.56124089814675
 33
0.0
 14
204.5251389286914
 24
100.2912442981467
 34
0.0
100
AcDbRotatedDimension
1001
ACAD
1000
DSTYLE
1002
{
1070
    41
1040
3.0
1070
    42
1040
3.0
1070
    43
1040
7.0
1070
    44
1040
1.5
1070
    73
1070
     0
1070
    74
1070
     0
1070
    77
1070
     3
1070
   140
1040
3.0
1070
   141
1040
3.0
1070
   147
1040
1.0
1070
   172
1070
     1
1070
   173
1070
     1
1070
   176
1070
   256
1070
   177
1070
   256
1070
   178
1070
   256
1070
   271
1070
     0
1070
   272
1070
     0
1070
   341
1005
B2
1070
     6
1000
OPEN
1070
     7
1000
OPEN
1002
}
  0
LINE
  5
3F85
330
1A
100
AcDbEntity
  8
SEIHIN
100
AcDbLine
 10
167.7638490359423
 20
98.1997364752978
 30
0.0
 11
197.8782157642904
 21
100.2422346729991
 31
0.0
  0
LINE
  5
3F86
330
1A
100
AcDbEntity
  8
SEIHIN
100
AcDbLine
 10
167.7871666275643
 20
97.20000840818851
 30
0.0
 11
198.3755164572468
 21
99.24566979175743
 31
0.0
  0
LINE
  5
3F87
330
1A
100
AcDbEntity
  8
SEIHIN
100
AcDbLine
 10
169.3964290022792
 20
92.78049292528484
 30
0.0
 11
198.6789521659211
 21
94.75600740882924
 31
0.0
  0
DIMENSION
  5
3F88
330
1A
100
AcDbEntity
  8
SUNPOU
100
AcDbDimension
  2
*D12
 10
48.69330768340955
 20
82.26124089814673
 30
0.0
 11
46.19330768340953
 21
109.2086653270861
 31
0.0
 70
    32
  3
STANDARD
100
AcDbAlignedDimension
 13
187.060964528592
 23
136.1560897560255
 33
0.0
 14
75.52412045174725
 24
82.26124089814673
 34
0.0
 50
90.0
100
AcDbRotatedDimension
1001
ACAD
1000
DSTYLE
1002
{
1070
    41
1040
3.0
1070
    42
1040
3.0
1070
    43
1040
7.0
1070
    44
1040
1.5
1070
    73
1070
     0
1070
    74
1070
     0
1070
    77
1070
     3
1070
   140
1040
3.0
1070
   141
1040
3.0
1070
   147
1040
1.0
1070
   172
1070
     1
1070
   173
1070
     1
1070
   176
1070
   256
1070
   177
1070
   256
1070
   178
1070
   256
1070
   271
1070
     0
1070
   272
1070
     0
1070
   341
1005
B2
1070
     6
1000
OPEN
1070
     7
1000
OPEN
1002
}
  0
LINE
  5
3FD3
330
1A
100
AcDbEntity
  8
SUNPOU
100
AcDbLine
 10
177.6238469342856
 20
155.0303249446382
 30
0.0
 11
187.060964528592
 21
136.1560897560255
 31
0.0
  0
ARC
  5
4056
330
1A
100
AcDbEntity
  8
SEIHIN
100
AcDbCircle
 10
198.3087420053491
 20
100.2435336672638
 30
0.0
 40
5.5
100
AcDbArc
 50
273.8595508802528
 51
26.56464067381481
  0
ARC
  5
4057
330
1A
100
AcDbEntity
  8
SEIHIN
100
AcDbCircle
 10
198.3087883722132
 20
100.2434409893111
 30
0.0
 40
1.0
100
AcDbArc
 50
273.8260805959328
 51
26.56464199686505
  0
ARC
  5
4058
330
1A
100
AcDbEntity
  8
SEIHIN
100
AcDbCircle
 10
197.8105465211837
 20
101.2399424826996
 30
0.0
 40
1.0
100
AcDbArc
 50
273.8801271494168
 51
26.56464199686474
  0
LINE
  5
409C
330
1A
100
AcDbEntity
  8
SEIHIN
100
AcDbLine
 10
185.6298759679588
 20
200.1462371810213
 30
0.0
 11
185.6298759679588
 21
215.7462371810213
 31
0.0
  0
ELLIPSE
  5
40A2
330
1A
100
AcDbEntity
  8
SEIHIN
100
AcDbEllipse
 10
188.402586176234
 20
200.1462371810213
 30
0.0
 11
0.0
 21
-3.0
 31
0.0
210
0.0
220
0.0
230
1.0
 40
0.4472072158806764
 41
4.712388980384689
 42
6.283185307179586
  0
ELLIPSE
  5
40A3
330
1A
100
AcDbEntity
  8
SEIHIN
100
AcDbEllipse
 10
201.3715952385186
 20
200.1462371810213
 30
0.0
 11
0.0
 21
-3.0
 31
0.0
210
0.0
220
0.0
230
1.0
 40
0.4472072158806764
 41
0.0
 42
1.570796326794896
  0
ELLIPSE
  5
40AD
330
1A
100
AcDbEntity
  8
SEIHIN
100
AcDbEllipse
 10
186.9714976156009
 20
200.1462371810213
 30
0.0
 11
0.0
 21
-3.0
 31
0.0
210
0.0
220
0.0
230
1.0
 40
0.4472072158806764
 41
4.712388980384689
 42
6.283185307179586
  0
LINE
  5
40AE
330
1A
100
AcDbEntity
  8
SEIHIN
100
AcDbLine
 10
187.060964528592
 20
200.1462371810213
 30
0.0
 11
187.060964528592
 21
216.8462371810213
 31
0.0
  0
ARC
  5
40B1
330
1A
100
AcDbEntity
  8
SEIHIN
100
AcDbCircle
 10
186.260964528592
 20
216.8462371810213
 30
0.0
 40
0.8
100
AcDbArc
 50
0.0
 51
90.0
  0
ARC
  5
40B2
330
1A
100
AcDbEntity
  8
SEIHIN
100
AcDbCircle
 10
185.3298759679589
 20
215.7462371810213
 30
0.0
 40
0.3
100
AcDbArc
 50
359.9999999999837
 51
90.00000000001085
  0
LINE
  5
40B3
330
1A
100
AcDbEntity
  8
SEIHIN
100
AcDbLine
 10
202.7132168861606
 20
200.1462371810213
 30
0.0
 11
202.7132168861606
 21
216.8462371810213
 31
0.0
  0
ARC
  5
40B6
330
1A
100
AcDbEntity
  8
SEIHIN
100
AcDbCircle
 10
198.541065043345
 20
217.9462371810212
 30
0.0
 40
0.3
100
AcDbArc
 50
179.9999999999837
 51
270.0000000000108
  0
LINE
  5
40B7
330
1A
100
AcDbEntity
  8
SEIHIN
100
AcDbLine
 10
198.2410650433449
 20
217.9462371810213
 30
0.0
 11
198.2410650433449
 21
218.1462371810213
 31
0.0
  0
ELLIPSE
  5
40BE
330
1A
100
AcDbEntity
  8
SEIHIN
100
AcDbEllipse
 10
190.6386222266646
 20
206.1462371810213
 30
0.0
 11
0.0
 21
2.099999999999994
 31
0.0
210
0.0
220
0.0
230
1.0
 40
0.4472072096109662
 41
0.0
 42
6.283185307179586
  0
ELLIPSE
  5
40C0
330
1A
100
AcDbEntity
  8
SEIHIN
100
AcDbEllipse
 10
199.1355592092729
 20
206.1462371810213
 30
0.0
 11
0.0
 21
2.099999999999994
 31
0.0
210
0.0
220
0.0
230
1.0
 40
0.4472072096109662
 41
0.0
 42
6.283185307179586
  0
LINE
  5
40C1
330
1A
100
AcDbEntity
  8
SEIHIN
100
AcDbLine
 10
200.1355592092729
 20
215.6462371810213
 30
0.0
 11
198.1355592092729
 21
215.6462371810213
 31
0.0
  0
LINE
  5
40C2
330
1A
100
AcDbEntity
  8
SEIHIN
100
AcDbLine
 10
200.1355592092729
 20
215.6462371810213
 30
0.0
 11
200.1355592092729
 21
216.8462371810213
 31
0.0
  0
ARC
  5
40C3
330
1A
100
AcDbEntity
  8
SEIHIN
100
AcDbCircle
 10
199.3355592092729
 20
216.8462371810213
 30
0.0
 40
0.8
100
AcDbArc
 50
0.0
 51
90.00000000000204
  0
LINE
  5
40C4
330
1A
100
AcDbEntity
  8
SEIHIN
100
AcDbLine
 10
198.1355592092729
 20
215.6462371810213
 30
0.0
 11
198.1355592092729
 21
216.8462371810213
 31
0.0
  0
ARC
  5
40C5
330
1A
100
AcDbEntity
  8
SEIHIN
100
AcDbCircle
 10
197.3355592092729
 20
216.8462371810213
 30
0.0
 40
0.8
100
AcDbArc
 50
0.0
 51
90.00000000000204
  0
ELLIPSE
  5
40C6
330
1A
100
AcDbEntity
  8
SEIHIN
100
AcDbEllipse
 10
199.1355592092729
 20
250.1462371810213
 30
0.0
 11
0.0
 21
-2.099999999999994
 31
0.0
210
0.0
220
0.0
230
-1.0
 40
0.4472072096109662
 41
0.0
 42
6.283185307179586
  0
ELLIPSE
  5
40C7
330
1A
100
AcDbEntity
  8
SEIHIN
100
AcDbEllipse
 10
190.6386222266646
 20
250.1462371810213
 30
0.0
 11
0.0
 21
-2.099999999999994
 31
0.0
210
0.0
220
0.0
230
-1.0
 40
0.4472072096109662
 41
0.0
 42
6.283185307179586
  0
ELLIPSE
  5
40C8
330
1A
100
AcDbEntity
  8
SEIHIN
100
AcDbEllipse
 10
201.3715952385186
 20
256.1462371810213
 30
0.0
 11
0.0
 21
3.0
 31
0.0
210
0.0
220
0.0
230
-1.0
 40
0.4472072158806764
 41
0.0
 42
1.570796326794896
  0
ELLIPSE
  5
40C9
330
1A
100
AcDbEntity
  8
SEIHIN
100
AcDbEllipse
 10
186.9714976156009
 20
256.1462371810213
 30
0.0
 11
0.0
 21
3.0
 31
0.0
210
0.0
220
0.0
230
-1.0
 40
0.4472072158806764
 41
4.712388980384689
 42
6.283185307179586
  0
ELLIPSE
  5
40CA
330
1A
100
AcDbEntity
  8
SEIHIN
100
AcDbEllipse
 10
188.402586176234
 20
256.1462371810213
 30
0.0
 11
0.0
 21
3.0
 31
0.0
210
0.0
220
0.0
230
-1.0
 40
0.4472072158806764
 41
4.712388980384689
 42
6.283185307179586
  0
LINE
  5
40CB
330
1A
100
AcDbEntity
  8
SEIHIN
100
AcDbLine
 10
201.9132168861606
 20
238.6462371810213
 30
0.0
 11
182.8888126857763
 21
238.6462371810213
 31
0.0
  0
LINE
  5
40CC
330
1A
100
AcDbEntity
  8
SEIHIN
100
AcDbLine
 10
181.9577240696127
 20
240.2462371810212
 30
0.0
 11
185.3298759679588
 21
240.2462371810212
 31
0.0
  0
LINE
  5
40CD
330
1A
100
AcDbEntity
  8
SEIHIN
100
AcDbLine
 10
181.1577240696127
 20
239.4462371810212
 30
0.0
 11
181.1577240696127
 21
216.8462371810214
 31
0.0
  0
LINE
  5
40CE
330
1A
100
AcDbEntity
  8
SEIHIN
100
AcDbLine
 10
182.5888126857764
 20
238.3462371810213
 30
0.0
 11
182.5888126857763
 21
217.9462371810212
 31
0.0
  0
ARC
  5
40CF
330
1A
100
AcDbEntity
  8
SEIHIN
100
AcDbCircle
 10
182.8888126857763
 20
238.3462371810213
 30
0.0
 40
0.3
100
AcDbArc
 50
89.99999999998918
 51
180.0000000000162
  0
ARC
  5
40D0
330
1A
100
AcDbEntity
  8
SEIHIN
100
AcDbCircle
 10
181.9577240696127
 20
239.4462371810212
 30
0.0
 40
0.8
100
AcDbArc
 50
90.00000000000204
 51
179.9999999999938
  0
LINE
  5
40D1
330
1A
100
AcDbEntity
  8
CENTER_L
100
AcDbLine
 10
190.6386222266646
 20
244.0462371810213
 30
0.0
 11
190.6386222266646
 21
256.2460927306135
 31
0.0
  0
LINE
  5
40D2
330
1A
100
AcDbEntity
  8
CENTER_L
100
AcDbLine
 10
199.1355592092729
 20
244.0462371810213
 30
0.0
 11
199.1355592092729
 21
256.2460927306135
 31
0.0
  0
LINE
  5
40D3
330
1A
100
AcDbEntity
  8
SEIHIN
100
AcDbLine
 10
202.7132168861606
 20
256.1462371810213
 30
0.0
 11
202.7132168861606
 21
239.4462371810213
 31
0.0
  0
LINE
  5
40D4
330
1A
100
AcDbEntity
  8
SEIHIN
100
AcDbLine
 10
185.6298759679588
 20
256.1462371810213
 30
0.0
 11
185.6298759679588
 21
240.5462371810213
 31
0.0
  0
LINE
  5
40D5
330
1A
100
AcDbEntity
  8
SEIHIN
100
AcDbLine
 10
187.060964528592
 20
256.1462371810213
 30
0.0
 11
187.060964528592
 21
239.4462371810213
 31
0.0
  0
LINE
  5
40D6
330
1A
100
AcDbEntity
  8
CENTER_L
100
AcDbLine
 10
187.1804876052744
 20
250.1462371810213
 30
0.0
 11
204.2774442307767
 21
250.1462371810213
 31
0.0
  0
LINE
  5
40D7
330
1A
100
AcDbEntity
  8
SEIHIN
100
AcDbLine
 10
201.3715952385186
 20
259.1462371810213
 30
0.0
 11
187.060964528592
 21
259.1462371810213
 31
0.0
  0
ARC
  5
40D8
330
1A
100
AcDbEntity
  8
SEIHIN
100
AcDbCircle
 10
199.3355592092729
 20
239.4462371810213
 30
0.0
 40
0.8
100
AcDbArc
 50
269.9999999999979
 51
0.0
  0
ARC
  5
40D9
330
1A
100
AcDbEntity
  8
SEIHIN
100
AcDbCircle
 10
185.3298759679589
 20
240.5462371810212
 30
0.0
 40
0.3
100
AcDbArc
 50
269.9999999999891
 51
0.0000000000162985
  0
ARC
  5
40DA
330
1A
100
AcDbEntity
  8
SEIHIN
100
AcDbCircle
 10
186.260964528592
 20
239.4462371810213
 30
0.0
 40
0.8
100
AcDbArc
 50
270.0
 51
0.0
  0
LINE
  5
40DB
330
1A
100
AcDbEntity
  8
SEIHIN
100
AcDbLine
 10
191.6386222266646
 20
240.6462371810213
 30
0.0
 11
189.6386222266646
 21
240.6462371810213
 31
0.0
  0
LINE
  5
40DC
330
1A
100
AcDbEntity
  8
SEIHIN
100
AcDbLine
 10
191.6386222266646
 20
240.6462371810213
 30
0.0
 11
191.6386222266646
 21
239.4462371810213
 31
0.0
  0
ARC
  5
40DD
330
1A
100
AcDbEntity
  8
SEIHIN
100
AcDbCircle
 10
190.8386222266646
 20
239.4462371810213
 30
0.0
 40
0.8
100
AcDbArc
 50
269.9999999999979
 51
0.0
  0
LINE
  5
40DE
330
1A
100
AcDbEntity
  8
SEIHIN
100
AcDbLine
 10
189.6386222266646
 20
240.6462371810213
 30
0.0
 11
189.6386222266646
 21
239.4462371810213
 31
0.0
  0
ARC
  5
40DF
330
1A
100
AcDbEntity
  8
SEIHIN
100
AcDbCircle
 10
188.8386222266646
 20
239.4462371810213
 30
0.0
 40
0.8
100
AcDbArc
 50
269.9999999999979
 51
0.0
  0
ARC
  5
40E0
330
1A
100
AcDbEntity
  8
SEIHIN
100
AcDbCircle
 10
197.3355592092729
 20
239.4462371810213
 30
0.0
 40
0.8
100
AcDbArc
 50
269.9999999999979
 51
0.0
  0
LINE
  5
40E1
330
1A
100
AcDbEntity
  8
SEIHIN
100
AcDbLine
 10
198.1355592092729
 20
240.6462371810213
 30
0.0
 11
198.1355592092729
 21
239.4462371810213
 31
0.0
  0
LINE
  5
40E2
330
1A
100
AcDbEntity
  8
SEIHIN
100
AcDbLine
 10
200.1355592092729
 20
240.6462371810213
 30
0.0
 11
200.1355592092729
 21
239.4462371810213
 31
0.0
  0
LINE
  5
40E3
330
1A
100
AcDbEntity
  8
SEIHIN
100
AcDbLine
 10
200.1355592092729
 20
240.6462371810213
 30
0.0
 11
198.1355592092729
 21
240.6462371810213
 31
0.0
  0
LINE
  5
40E4
330
1A
100
AcDbEntity
  8
SEIHIN
100
AcDbLine
 10
198.2410650433449
 20
238.3462371810213
 30
0.0
 11
198.2410650433449
 21
238.1462371810212
 31
0.0
  0
ARC
  5
40E5
330
1A
100
AcDbEntity
  8
SEIHIN
100
AcDbCircle
 10
198.541065043345
 20
238.3462371810213
 30
0.0
 40
0.3
100
AcDbArc
 50
89.99999999998918
 51
180.0000000000162
  0
ARC
  5
40E6
330
1A
100
AcDbEntity
  8
SEIHIN
100
AcDbCircle
 10
201.9132168861606
 20
239.4462371810213
 30
0.0
 40
0.8
100
AcDbArc
 50
269.9999999999979
 51
0.0
  0
LINE
  5
40E7
330
1A
100
AcDbEntity
  8
SEIHIN
100
AcDbLine
 10
182.5888126857763
 20
218.1462371810212
 30
0.0
 11
204.5251389286914
 21
218.1462371810213
 31
0.0
  0
LINE
  5
40E8
330
1A
100
AcDbEntity
  8
SEIHIN
100
AcDbLine
 10
182.5888126857764
 20
238.1462371810213
 30
0.0
 11
204.5251389286914
 21
238.1462371810213
 31
0.0
  0
LWPOLYLINE
  5
42E4
330
1A
100
AcDbEntity
  8
ZUWAKU
100
AcDbPolyline
 90
        4
 70
     1
 43
0.0
 10
0.4000000586257784
 20
275.4000001587328
 10
0.4000000586257784
 20
0.4000001587327802
 10
398.4000000586257
 20
0.4000001587327802
 10
398.4000000586257
 20
275.4000001587328
  0
LWPOLYLINE
  5
42E5
330
1A
100
AcDbEntity
  8
ZUWAKU
100
AcDbPolyline
 90
        4
 70
     1
 43
0.0
 10
0.2000000586257897
 20
275.6000001587327
 10
0.2000000586257897
 20
0.2000001587327915
 10
398.6000000586258
 20
0.20000015873278
 10
398.6000000586258
 20
275.6000001587327
  0
LWPOLYLINE
  5
42E6
330
1A
100
AcDbEntity
  8
ZUWAKU
100
AcDbPolyline
 90
        4
 70
     1
 43
0.0
 10
0.0000000586258011
 20
275.8000001587327
 10
0.0000000586258011
 20
0.0000001587327461
 10
398.8000000586258
 20
0.0000001587327798
 10
398.8000000586258
 20
275.8000001587328
  0
LWPOLYLINE
  5
42E7
330
1A
100
AcDbEntity
  8
ZUWAKU
100
AcDbPolyline
 90
        4
 70
     1
 43
0.0
 10
0.3000000586257556
 20
275.5000001587327
 10
0.3000000586257556
 20
0.3000001587327574
 10
398.5000000586259
 20
0.3000001587327805
 10
398.5000000586257
 20
275.5000001587327
  0
LWPOLYLINE
  5
42E8
330
1A
100
AcDbEntity
  8
ZUWAKU
100
AcDbPolyline
 90
        4
 70
     1
 43
0.0
 10
0.100000058625767
 20
275.7000001587328
 10
0.100000058625767
 20
0.1000001587327688
 10
398.7000000586257
 20
0.1000001587327803
 10
398.7000000586258
 20
275.7000001587328
  0
LINE
  5
42E9
330
1A
100
AcDbEntity
  8
ZUWAKU
100
AcDbLine
 10
0.0000000586258011
 20
15.00000015873274
 30
0.0
 11
398.7000000586257
 21
15.00000015873274
 31
0.0
  0
LINE
  5
42EA
330
1A
100
AcDbEntity
  8
ZUWAKU
100
AcDbLine
 10
0.0000000586258011
 20
15.10000015873274
 30
0.0
 11
398.7000000586257
 21
15.10000015873274
 31
0.0
  0
LINE
  5
42EB
330
1A
100
AcDbEntity
  8
ZUWAKU
100
AcDbLine
 10
0.0000000586258011
 20
15.20000015873274
 30
0.0
 11
398.7000000586257
 21
15.20000015873274
 31
0.0
  0
LINE
  5
42EC
330
1A
100
AcDbEntity
  8
ZUWAKU
100
AcDbLine
 10
0.0000000586258011
 20
15.30000015873275
 30
0.0
 11
398.7000000586257
 21
15.30000015873275
 31
0.0
  0
LINE
  5
42ED
330
1A
100
AcDbEntity
  8
ZUWAKU
100
AcDbLine
 10
0.0000000586258011
 20
15.40000015873275
 30
0.0
 11
398.7000000586257
 21
15.40000015873275
 31
0.0
  0
LINE
  5
42EE
330
1A
100
AcDbEntity
  8
ZUWAKU
100
AcDbLine
 10
104.3233007036598
 20
7.700000158732763
 30
0.0
 11
223.7121820441215
 21
7.700000158732763
 31
0.0
  0
LINE
  5
42EF
330
1A
100
AcDbEntity
  8
ZUWAKU
100
AcDbLine
 10
104.3233007036598
 20
7.800000158732762
 30
0.0
 11
223.7121820441215
 21
7.800000158732766
 31
0.0
  0
LINE
  5
42F0
330
1A
100
AcDbEntity
  8
ZUWAKU
100
AcDbLine
 10
104.3233007036598
 20
7.600000158732765
 30
0.0
 11
223.7121820441215
 21
7.600000158732761
 31
0.0
  0
TEXT
  5
42F1
330
1A
100
AcDbEntity
  8
MOJI
100
AcDbText
 10
119.9136013990513
 20
9.002460687436439
 30
0.0
 40
2.799999999999999
  1
亜鉛メッキ金具正面打（吊）ストロング高強度金具（釣針型）
 41
0.9
  7
ｽﾀｲﾙ1
100
AcDbText
  0
TEXT
  5
42F2
330
1A
100
AcDbEntity
  8
MOJI
100
AcDbText
 10
46.47889485271036
 20
6.370589223870126
 30
0.0
 40
3.0
  1
新・丸トップＲＶ１０５
 41
0.9
  7
ｽﾀｲﾙ1
100
AcDbText
  0
CIRCLE
  5
42F3
330
1A
100
AcDbEntity
  8
ZUWAKU
100
AcDbCircle
 10
12.99610613601635
 20
7.600000158732747
 30
0.0
 40
0.875
  0
LINE
  5
42F4
330
1A
100
AcDbEntity
  8
ZUWAKU
100
AcDbLine
 10
13.43360613601635
 20
3.575000158732748
 30
0.0
 11
12.47110613601637
 21
3.575000158732748
 31
0.0
  0
LINE
  5
42F5
330
1A
100
AcDbEntity
  8
ZUWAKU
100
AcDbLine
 10
12.47110613601637
 20
4.975000158732747
 30
0.0
 11
13.43360613601635
 21
4.975000158732747
 31
0.0
  0
LINE
  5
42F6
330
1A
100
AcDbEntity
  8
ZUWAKU
100
AcDbLine
 10
13.43360613601635
 20
10.22500015873274
 30
0.0
 11
12.47110613601637
 21
10.22500015873274
 31
0.0
  0
LINE
  5
42F7
330
1A
100
AcDbEntity
  8
ZUWAKU
100
AcDbLine
 10
12.47110613601637
 20
11.62500015873272
 30
0.0
 11
13.43360613601635
 21
11.62500015873275
 31
0.0
  0
HATCH
  5
42F8
330
1A
100
AcDbEntity
  8
ZUWAKU
100
AcDbHatch
 10
0.0
 20
0.0
 30
0.0
210
0.0
220
0.0
230
1.0
  2
ANSI37
 70
     0
 71
     0
 91
        8
 92
        7
 72
     1
 73
     1
 93
       24
 10
7.251131389185729
 20
8.822424399224537
 42
-0.1989123673796348
 10
7.046106136016362
 20
9.317399146055063
 42
0.0
 10
7.046106136016362
 20
9.962500158732751
 42
-0.4142135623730912
 10
7.308606136016351
 20
10.22500015873274
 42
0.0
 10
8.796106136016305
 20
10.22500015873274
 42
0.4142135623731546
 10
9.058606136016351
 20
10.48750015873274
 42
0.0
 10
9.058606136016351
 20
11.36250015873275
 42
0.4142135623731586
 10
8.796106136016305
 20
11.62500015873275
 42
0.0
 10
7.046106136016362
 20
11.62500015873275
 42
0.4142135623730928
 10
5.646106136016385
 20
10.22500015873276
 42
0.0
 10
5.646106136016385
 20
9.317399146055127
 42
0.1989123673796619
 10
6.2611818955246
 20
7.832474905563323
 42
0.0
 10
7.716080882846938
 20
6.377575918240994
 42
-0.1989123673796613
 10
7.921106136016362
 20
5.882601171410401
 42
0.0
 10
7.921106136016362
 20
5.237500158732743
 42
-0.4142135623730911
 10
7.658606136016373
 20
4.975000158732747
 42
0.0
 10
6.171106136016419
 20
4.975000158732747
 42
0.4142135623731526
 10
5.908606136016373
 20
4.712500158732753
 42
0.0
 10
5.908606136016373
 20
3.837500158732742
 42
0.4142135623731526
 10
6.171106136016419
 20
3.575000158732748
 42
0.0
 10
7.921106136016362
 20
3.575000158732748
 42
0.4142135623731044
 10
9.321106136016396
 20
4.975000158732736
 42
0.0
 10
9.321106136016396
 20
5.882601171410373
 42
0.1989123673796604
 10
8.706030376508124
 20
7.367525411902143
 42
0.0
 97
        0
 92
        7
 72
     1
 73
     1
 93
       16
 10
11.77110613601638
 20
9.525000158732751
 42
-0.4142135623730935
 10
12.47110613601637
 20
10.22500015873274
 42
0.0
 10
13.43360613601635
 20
10.22500015873274
 42
0.4142135623731546
 10
13.69610613601639
 20
10.48750015873274
 42
0.0
 10
13.69610613601639
 20
11.36250015873275
 42
0.4142135623730951
 10
13.4336061360164
 20
11.62500015873275
 42
0.0
 10
12.47110613601631
 20
11.62500015873272
 42
0.4142135623730892
 10
10.37110613601635
 20
9.525000158732716
 42
0.0
 10
10.37110613601635
 20
5.67500015873276
 42
0.4142135623730969
 10
12.47110613601637
 20
3.575000158732748
 42
0.0
 10
13.43360613601635
 20
3.575000158732748
 42
0.4142135623731526
 10
13.69610613601639
 20
3.837500158732742
 42
0.0
 10
13.69610613601639
 20
4.712500158732753
 42
0.4142135623730891
 10
13.4336061360164
 20
4.975000158732747
 42
0.0
 10
12.47110613601637
 20
4.975000158732747
 42
-0.4142135623730928
 10
11.77110613601638
 20
5.675000158732741
 42
0.0
 97
        0
 92
        7
 72
     1
 73
     1
 93
        2
 10
12.12110613601635
 20
7.600000158732747
 42
1.0
 10
13.87110613601635
 20
7.600000158732747
 42
1.0
 97
        0
 92
        7
 72
     1
 73
     1
 93
       26
 10
18.65742937710535
 20
9.602523755514461
 42
0.0
 10
19.18824919367426
 20
11.28345317464925
 42
0.5069206636600134
 10
18.93793374407658
 20
11.62500015873275
 42
0.0
 10
18.08848905427197
 20
11.62500015873275
 42
0.3272098845218764
 10
17.83817360467429
 20
11.44154714281623
 42
0.0
 10
16.9040386673584
 20
8.483453174649287
 42
-0.3272098845219541
 10
16.65372321776067
 20
8.300000158732746
 42
0.0
 10
16.58360613601644
 20
8.300000158732746
 42
-0.4142135623731526
 10
16.32110613601639
 20
8.56250015873274
 42
0.0
 10
16.32110613601639
 20
11.36250015873275
 42
0.4142135623730951
 10
16.0586061360164
 20
11.62500015873275
 42
0.0
 10
15.18360613601635
 20
11.62500015873275
 42
0.4142135623730871
 10
14.92110613601636
 20
11.36250015873275
 42
0.0
 10
14.92110613601636
 20
3.837500158732742
 42
0.4142135623730891
 10
15.18360613601635
 20
3.575000158732748
 42
0.0
 10
16.05860613601635
 20
3.575000158732748
 42
0.4142135623731526
 10
16.32110613601639
 20
3.837500158732742
 42
0.0
 10
16.32110613601639
 20
6.637500158732754
 42
-0.4142135623731526
 10
16.58360613601644
 20
6.900000158732748
 42
0.0
 10
16.65372321776072
 20
6.900000158732748
 42
-0.3272098845218915
 10
16.9040386673584
 20
6.71654714281621
 42
0.0
 10
17.83817360467429
 20
3.758453174649284
 42
0.3272098845218902
 10
18.08848905427197
 20
3.575000158732748
 42
0.0
 10
18.93793374407658
 20
3.575000158732748
 42
0.5069206636600335
 10
19.18824919367426
 20
3.916547142816252
 42
0.0
 10
18.02505350443743
 20
7.600000158732816
 42
0.0
 97
        0
 92
        7
 72
     1
 73
     1
 93
        8
 10
21.74610613601635
 20
11.36250015873275
 42
0.4142135623731546
 10
21.4836061360163
 20
11.62500015873275
 42
0.0
 10
20.60860613601641
 20
11.62500015873275
 42
0.4142135623731507
 10
20.34610613601637
 20
11.36250015873275
 42
0.0
 10
20.34610613601637
 20
3.837500158732742
 42
0.4142135623731526
 10
20.60860613601641
 20
3.575000158732748
 42
0.0
 10
21.4836061360163
 20
3.575000158732748
 42
0.4142135623731526
 10
21.74610613601635
 20
3.837500158732742
 42
0.0
 97
        0
 92
        7
 72
     1
 73
     1
 93
       24
 10
24.19610613601639
 20
9.962500158732751
 42
-0.4142135623731546
 10
24.45860613601644
 20
10.22500015873274
 42
0.0
 10
25.9461061360164
 20
10.22500015873274
 42
0.4142135623730911
 10
26.20860613601638
 20
10.48750015873274
 42
0.0
 10
26.20860613601638
 20
11.36250015873275
 42
0.4142135623730952
 10
25.9461061360164
 20
11.62500015873275
 42
0.0
 10
24.19610613601639
 20
11.62500015873275
 42
0.4142135623731048
 10
22.79610613601636
 20
10.22500015873276
 42
0.0
 10
22.79610613601636
 20
9.317399146055127
 42
0.1989123673796613
 10
23.41118189552463
 20
7.832474905563351
 42
0.0
 10
24.86608088284697
 20
6.377575918241017
 42
-0.1989123673796402
 10
25.07110613601639
 20
5.882601171410481
 42
0.0
 10
25.07110613601639
 20
5.237500158732743
 42
-0.4142135623730911
 10
24.8086061360164
 20
4.975000158732747
 42
0.0
 10
23.32110613601639
 20
4.975000158732747
 42
0.4142135623731526
 10
23.05860613601635
 20
4.712500158732753
 42
0.0
 10
23.05860613601635
 20
3.837500158732742
 42
0.4142135623730891
 10
23.32110613601634
 20
3.575000158732748
 42
0.0
 10
25.07110613601639
 20
3.575000158732748
 42
0.4142135623730925
 10
26.47110613601637
 20
4.975000158732736
 42
0.0
 10
26.47110613601637
 20
5.882601171410373
 42
0.1989123673796675
 10
25.8560303765081
 20
7.3675254119022
 42
0.0
 10
24.40113138918582
 20
8.822424399224457
 42
-0.1989123673796652
 10
24.19610613601639
 20
9.317399146055041
 42
0.0
 97
        0
 92
        7
 72
     1
 73
     1
 93
       16
 10
28.92110613601636
 20
11.36250015873274
 42
0.414213562373103
 10
28.65860613601637
 20
11.62500015873275
 42
0.0
 10
27.78360613601637
 20
11.62500015873275
 42
0.4142135623730871
 10
27.52110613601638
 20
11.36250015873275
 42
0.0
 10
27.52110613601638
 20
4.975000158732736
 42
0.4142135623730926
 10
28.92110613601636
 20
3.575000158732748
 42
0.0
 10
30.67110613601636
 20
3.575000158732748
 42
0.4142135623731044
 10
32.07110613601639
 20
4.975000158732736
 42
0.0
 10
32.07110613601639
 20
11.36250015873275
 42
0.4142135623730951
 10
31.80860613601641
 20
11.62500015873275
 42
0.0
 10
30.93360613601635
 20
11.62500015873275
 42
0.4142135623730871
 10
30.67110613601636
 20
11.36250015873275
 42
0.0
 10
30.67110613601636
 20
5.500000158732735
 42
-0.414213562373088
 10
30.14610613601638
 20
4.975000158732747
 42
0.0
 10
29.44610613601639
 20
4.975000158732747
 42
-0.4142135623731197
 10
28.92110613601636
 20
5.500000158732735
 42
0.0
 97
        0
 92
        7
 72
     1
 73
     1
 93
        8
 10
34.52110613601638
 20
11.36250015873275
 42
0.4142135623730871
 10
34.25860613601639
 20
11.62500015873275
 42
0.0
 10
33.38360613601639
 20
11.62500015873275
 42
0.4142135623731507
 10
33.12110613601635
 20
11.36250015873275
 42
0.0
 10
33.12110613601635
 20
3.837500158732742
 42
0.4142135623730891
 10
33.38360613601634
 20
3.575000158732748
 42
0.0
 10
34.25860613601639
 20
3.575000158732748
 42
0.4142135623730891
 10
34.52110613601638
 20
3.837500158732742
 42
0.0
 97
        0
 75
     0
 76
     1
 52
0.0
 41
0.1
 77
     0
 78
     2
 53
45.0
 43
-450.4711521087137
 44
-6.599999841267219
 45
-0.2245064030267288
 46
0.2245064030267288
 79
     0
 53
135.0
 43
-450.4711521087137
 44
-6.599999841267219
 45
-0.2245064030267288
 46
-0.2245064030267288
 79
     0
 47
0.057451373970553
 98
        8
 10
8.039927540137455
 20
7.583586981675523
 10
11.20225756184538
 20
9.422031249958251
 10
12.58218400145563
 20
7.755940981768105
 10
15.45703004944437
 20
8.100648981953497
 10
20.91923606810417
 20
8.330455115724305
 10
23.44910050619057
 20
9.709288316936351
 10
28.27884304482597
 20
9.364579116280253
 10
33.91353986843717
 20
9.594385250051061
  0
ARC
  5
42F9
330
1A
100
AcDbEntity
  8
ZUWAKU
100
AcDbCircle
 10
7.746106136016351
 20
9.317399146055098
 30
0.0
 40
2.099999999999999
100
AcDbArc
 50
180.0
 51
225.0
  0
LINE
  5
42FA
330
1A
100
AcDbEntity
  8
ZUWAKU
100
AcDbLine
 10
10.37110613601635
 20
5.67500015873275
 30
0.0
 11
10.37110613601635
 21
9.525000158732726
 31
0.0
  0
LINE
  5
42FB
330
1A
100
AcDbEntity
  8
ZUWAKU
100
AcDbLine
 10
11.77110613601638
 20
9.525000158732748
 30
0.0
 11
11.77110613601638
 21
5.67500015873275
 31
0.0
  0
ARC
  5
42FC
330
1A
100
AcDbEntity
  8
ZUWAKU
100
AcDbCircle
 10
7.746106136016351
 20
9.317399146055098
 30
0.0
 40
0.7
100
AcDbArc
 50
180.0000000000016
 51
224.9999999999988
  0
ARC
  5
42FD
330
1A
100
AcDbEntity
  8
ZUWAKU
100
AcDbCircle
 10
12.47110613601637
 20
5.67500015873275
 30
0.0
 40
2.099999999999999
100
AcDbArc
 50
180.0
 51
270.0
  0
ARC
  5
42FE
330
1A
100
AcDbEntity
  8
ZUWAKU
100
AcDbCircle
 10
7.921106136016362
 20
4.975000158732747
 30
0.0
 40
1.399999999999999
100
AcDbArc
 50
270.0
 51
0.0
  0
ARC
  5
42FF
330
1A
100
AcDbEntity
  8
ZUWAKU
100
AcDbCircle
 10
7.221106136016373
 20
5.882601171410399
 30
0.0
 40
2.099999999999999
100
AcDbArc
 50
0.0
 51
45.0
  0
LINE
  5
4300
330
1A
100
AcDbEntity
  8
ZUWAKU
100
AcDbLine
 10
6.2611818955246
 20
7.832474905563337
 30
0.0
 11
7.716080882846938
 21
6.377575918241007
 31
0.0
  0
LINE
  5
4301
330
1A
100
AcDbEntity
  8
ZUWAKU
100
AcDbLine
 10
6.171106136016362
 20
4.975000158732747
 30
0.0
 11
7.658606136016373
 21
4.975000158732747
 31
0.0
  0
LINE
  5
4302
330
1A
100
AcDbEntity
  8
ZUWAKU
100
AcDbLine
 10
6.171106136016362
 20
3.575000158732748
 30
0.0
 11
7.921106136016362
 21
3.575000158732748
 31
0.0
  0
ARC
  5
4303
330
1A
100
AcDbEntity
  8
ZUWAKU
100
AcDbCircle
 10
6.171106136016362
 20
4.712500158732748
 30
0.0
 40
0.2625
100
AcDbArc
 50
90.0
 51
180.0
  0
ARC
  5
4304
330
1A
100
AcDbEntity
  8
ZUWAKU
100
AcDbCircle
 10
6.171106136016362
 20
3.837500158732748
 30
0.0
 40
0.2625
100
AcDbArc
 50
180.0
 51
270.0
  0
LINE
  5
4305
330
1A
100
AcDbEntity
  8
ZUWAKU
100
AcDbLine
 10
5.908606136016373
 20
3.837500158732748
 30
0.0
 11
5.908606136016373
 21
4.712500158732748
 31
0.0
  0
ARC
  5
4306
330
1A
100
AcDbEntity
  8
ZUWAKU
100
AcDbCircle
 10
7.221106136016373
 20
5.882601171410421
 30
0.0
 40
0.7
100
AcDbArc
 50
0.0
 51
45.0
  0
ARC
  5
4307
330
1A
100
AcDbEntity
  8
ZUWAKU
100
AcDbCircle
 10
7.658606136016373
 20
5.23750015873275
 30
0.0
 40
0.2625
100
AcDbArc
 50
270.0
 51
0.0
  0
LINE
  5
4308
330
1A
100
AcDbEntity
  8
ZUWAKU
100
AcDbLine
 10
7.921106136016362
 20
5.23750015873275
 30
0.0
 11
7.921106136016362
 21
5.882601171410421
 31
0.0
  0
LINE
  5
4309
330
1A
100
AcDbEntity
  8
ZUWAKU
100
AcDbLine
 10
8.706030376508124
 20
7.36752541190216
 30
0.0
 11
7.251131389185786
 21
8.822424399224498
 31
0.0
  0
ARC
  5
430A
330
1A
100
AcDbEntity
  8
ZUWAKU
100
AcDbCircle
 10
12.47110613601637
 20
5.67500015873275
 30
0.0
 40
0.7
100
AcDbArc
 50
180.0
 51
270.0
  0
LINE
  5
430B
330
1A
100
AcDbEntity
  8
ZUWAKU
100
AcDbLine
 10
9.321106136016396
 20
4.975000158732747
 30
0.0
 11
9.321106136016396
 21
5.882601171410421
 31
0.0
  0
ARC
  5
430C
330
1A
100
AcDbEntity
  8
ZUWAKU
100
AcDbCircle
 10
8.796106136016362
 20
10.48750015873274
 30
0.0
 40
0.2625
100
AcDbArc
 50
270.0
 51
0.0
  0
ARC
  5
430D
330
1A
100
AcDbEntity
  8
ZUWAKU
100
AcDbCircle
 10
8.796106136016362
 20
11.36250015873274
 30
0.0
 40
0.2625
100
AcDbArc
 50
0.0
 51
90.0
  0
ARC
  5
430E
330
1A
100
AcDbEntity
  8
ZUWAKU
100
AcDbCircle
 10
7.046106136016362
 20
10.22500015873274
 30
0.0
 40
1.399999999999999
100
AcDbArc
 50
90.0
 51
180.0
  0
LINE
  5
430F
330
1A
100
AcDbEntity
  8
ZUWAKU
100
AcDbLine
 10
5.646106136016385
 20
10.22500015873274
 30
0.0
 11
5.646106136016385
 21
9.317399146055077
 31
0.0
  0
LINE
  5
4310
330
1A
100
AcDbEntity
  8
ZUWAKU
100
AcDbLine
 10
8.796106136016362
 20
10.22500015873274
 30
0.0
 11
7.308606136016351
 21
10.22500015873274
 31
0.0
  0
LINE
  5
4311
330
1A
100
AcDbEntity
  8
ZUWAKU
100
AcDbLine
 10
7.046106136016362
 20
9.962500158732748
 30
0.0
 11
7.046106136016362
 21
9.317399146055077
 31
0.0
  0
ARC
  5
4312
330
1A
100
AcDbEntity
  8
ZUWAKU
100
AcDbCircle
 10
7.308606136016351
 20
9.962500158732748
 30
0.0
 40
0.2625
100
AcDbArc
 50
90.0
 51
180.0
  0
LINE
  5
4313
330
1A
100
AcDbEntity
  8
ZUWAKU
100
AcDbLine
 10
7.046106136016362
 20
11.62500015873275
 30
0.0
 11
8.796106136016362
 21
11.62500015873275
 31
0.0
  0
ARC
  5
4314
330
1A
100
AcDbEntity
  8
ZUWAKU
100
AcDbCircle
 10
12.47110613601637
 20
9.525000158732726
 30
0.0
 40
2.099999999999999
100
AcDbArc
 50
90.0
 51
180.0
  0
ARC
  5
4315
330
1A
100
AcDbEntity
  8
ZUWAKU
100
AcDbCircle
 10
12.47110613601637
 20
9.525000158732748
 30
0.0
 40
0.7
100
AcDbArc
 50
90.0
 51
180.0
  0
LINE
  5
4316
330
1A
100
AcDbEntity
  8
ZUWAKU
100
AcDbLine
 10
9.058606136016351
 20
11.36250015873274
 30
0.0
 11
9.058606136016351
 21
10.48750015873274
 31
0.0
  0
LINE
  5
4317
330
1A
100
AcDbEntity
  8
ZUWAKU
100
AcDbLine
 10
17.83817360467429
 20
11.44154714281623
 30
0.0
 11
16.9040386673584
 21
8.483453174649262
 31
0.0
  0
LINE
  5
4318
330
1A
100
AcDbEntity
  8
ZUWAKU
100
AcDbLine
 10
14.92110613601636
 20
11.36250015873274
 30
0.0
 11
14.92110613601636
 21
3.837500158732748
 31
0.0
  0
LINE
  5
4319
330
1A
100
AcDbEntity
  8
ZUWAKU
100
AcDbLine
 10
16.32110613601639
 20
8.562500158732749
 30
0.0
 11
16.32110613601639
 21
11.36250015873274
 31
0.0
  0
LINE
  5
431A
330
1A
100
AcDbEntity
  8
ZUWAKU
100
AcDbLine
 10
28.92110613601636
 20
5.500000158732746
 30
0.0
 11
28.92110613601636
 21
11.36250015873274
 31
0.0
  0
LINE
  5
431B
330
1A
100
AcDbEntity
  8
ZUWAKU
100
AcDbLine
 10
27.52110613601638
 20
11.36250015873274
 30
0.0
 11
27.52110613601638
 21
4.975000158732747
 31
0.0
  0
LINE
  5
431C
330
1A
100
AcDbEntity
  8
ZUWAKU
100
AcDbLine
 10
21.74610613601635
 20
3.837500158732748
 30
0.0
 11
21.74610613601635
 21
11.36250015873274
 31
0.0
  0
LINE
  5
431D
330
1A
100
AcDbEntity
  8
ZUWAKU
100
AcDbLine
 10
20.34610613601637
 20
11.36250015873274
 30
0.0
 11
20.34610613601637
 21
3.837500158732748
 31
0.0
  0
LINE
  5
431E
330
1A
100
AcDbEntity
  8
ZUWAKU
100
AcDbLine
 10
18.65742937710535
 20
9.602523755514461
 30
0.0
 11
18.02505350443743
 21
7.600000158732758
 31
0.0
  0
ARC
  5
431F
330
1A
100
AcDbEntity
  8
ZUWAKU
100
AcDbCircle
 10
24.89610613601638
 20
9.317399146055098
 30
0.0
 40
2.099999999999999
100
AcDbArc
 50
180.0
 51
225.0
  0
ARC
  5
4320
330
1A
100
AcDbEntity
  8
ZUWAKU
100
AcDbCircle
 10
24.89610613601638
 20
9.317399146055098
 30
0.0
 40
0.7
100
AcDbArc
 50
180.0000000000016
 51
224.9999999999988
  0
LINE
  5
4321
330
1A
100
AcDbEntity
  8
ZUWAKU
100
AcDbLine
 10
33.12110613601635
 20
11.36250015873274
 30
0.0
 11
33.12110613601635
 21
3.837500158732748
 31
0.0
  0
LINE
  5
4322
330
1A
100
AcDbEntity
  8
ZUWAKU
100
AcDbLine
 10
34.52110613601638
 20
3.837500158732748
 30
0.0
 11
34.52110613601638
 21
11.36250015873274
 31
0.0
  0
LINE
  5
4323
330
1A
100
AcDbEntity
  8
ZUWAKU
100
AcDbLine
 10
30.67110613601636
 20
11.36250015873274
 30
0.0
 11
30.67110613601636
 21
5.500000158732746
 31
0.0
  0
LINE
  5
4324
330
1A
100
AcDbEntity
  8
ZUWAKU
100
AcDbLine
 10
32.07110613601639
 20
4.975000158732747
 30
0.0
 11
32.07110613601639
 21
11.36250015873274
 31
0.0
  0
LINE
  5
4325
330
1A
100
AcDbEntity
  8
ZUWAKU
100
AcDbLine
 10
39.56331483261999
 20
15.00000015873274
 30
0.0
 11
39.56331483261999
 21
0.4000001587327802
 31
0.0
  0
LINE
  5
4326
330
1A
100
AcDbEntity
  8
ZUWAKU
100
AcDbLine
 10
39.76331483261992
 20
15.00000015873274
 30
0.0
 11
39.76331483262004
 21
0.4000001587327802
 31
0.0
  0
LINE
  5
4327
330
1A
100
AcDbEntity
  8
ZUWAKU
100
AcDbLine
 10
39.6633148326199
 20
15.00000015873274
 30
0.0
 11
39.66331483262001
 21
0.4000001587327802
 31
0.0
  0
LINE
  5
4328
330
1A
100
AcDbEntity
  8
ZUWAKU
100
AcDbLine
 10
28.92110613601636
 20
3.575000158732748
 30
0.0
 11
30.67110613601636
 21
3.575000158732748
 31
0.0
  0
LINE
  5
4329
330
1A
100
AcDbEntity
  8
ZUWAKU
100
AcDbLine
 10
30.14610613601638
 20
4.975000158732747
 30
0.0
 11
29.44610613601639
 21
4.975000158732747
 31
0.0
  0
LINE
  5
432A
330
1A
100
AcDbEntity
  8
ZUWAKU
100
AcDbLine
 10
20.60860613601636
 20
3.575000158732748
 30
0.0
 11
21.48360613601636
 21
3.575000158732748
 31
0.0
  0
LINE
  5
432B
330
1A
100
AcDbEntity
  8
ZUWAKU
100
AcDbLine
 10
17.83817360467429
 20
3.758453174649261
 30
0.0
 11
16.9040386673584
 21
6.716547142816231
 31
0.0
  0
ARC
  5
432C
330
1A
100
AcDbEntity
  8
ZUWAKU
100
AcDbCircle
 10
16.58360613601638
 20
6.637500158732748
 30
0.0
 40
0.2625
100
AcDbArc
 50
90.0
 51
180.0
  0
ARC
  5
432D
330
1A
100
AcDbEntity
  8
ZUWAKU
100
AcDbCircle
 10
16.65372321776072
 20
6.637500158732748
 30
0.0
 40
0.2625
100
AcDbArc
 50
17.52556837372303
 51
90.0
  0
ARC
  5
432E
330
1A
100
AcDbEntity
  8
ZUWAKU
100
AcDbCircle
 10
15.18360613601635
 20
3.837500158732748
 30
0.0
 40
0.2625
100
AcDbArc
 50
180.0
 51
270.0
  0
ARC
  5
432F
330
1A
100
AcDbEntity
  8
ZUWAKU
100
AcDbCircle
 10
13.43360613601635
 20
4.712500158732748
 30
0.0
 40
0.2625
100
AcDbArc
 50
0.0
 51
90.0
  0
ARC
  5
4330
330
1A
100
AcDbEntity
  8
ZUWAKU
100
AcDbCircle
 10
13.43360613601635
 20
3.837500158732748
 30
0.0
 40
0.2625
100
AcDbArc
 50
270.0
 51
0.0
  0
LINE
  5
4331
330
1A
100
AcDbEntity
  8
ZUWAKU
100
AcDbLine
 10
13.69610613601639
 20
4.712500158732748
 30
0.0
 11
13.69610613601639
 21
3.837500158732748
 31
0.0
  0
LINE
  5
4332
330
1A
100
AcDbEntity
  8
ZUWAKU
100
AcDbLine
 10
16.32110613601639
 20
3.837500158732748
 30
0.0
 11
16.32110613601639
 21
6.637500158732748
 31
0.0
  0
ARC
  5
4333
330
1A
100
AcDbEntity
  8
ZUWAKU
100
AcDbCircle
 10
16.05860613601635
 20
3.837500158732748
 30
0.0
 40
0.2625
100
AcDbArc
 50
270.0
 51
0.0
  0
LINE
  5
4334
330
1A
100
AcDbEntity
  8
ZUWAKU
100
AcDbLine
 10
15.18360613601635
 20
3.575000158732748
 30
0.0
 11
16.05860613601635
 21
3.575000158732748
 31
0.0
  0
ARC
  5
4335
330
1A
100
AcDbEntity
  8
ZUWAKU
100
AcDbCircle
 10
16.58360613601638
 20
8.562500158732749
 30
0.0
 40
0.2625
100
AcDbArc
 50
180.0
 51
270.0
  0
LINE
  5
4336
330
1A
100
AcDbEntity
  8
ZUWAKU
100
AcDbLine
 10
16.58360613601638
 20
6.900000158732748
 30
0.0
 11
16.65372321776072
 21
6.900000158732748
 31
0.0
  0
LINE
  5
4337
330
1A
100
AcDbEntity
  8
ZUWAKU
100
AcDbLine
 10
16.65372321776072
 20
8.300000158732746
 30
0.0
 11
16.58360613601638
 21
8.300000158732746
 31
0.0
  0
ARC
  5
4338
330
1A
100
AcDbEntity
  8
ZUWAKU
100
AcDbCircle
 10
16.65372321776072
 20
8.562500158732749
 30
0.0
 40
0.2625
100
AcDbArc
 50
270.0
 51
342.4744316262769
  0
ARC
  5
4339
330
1A
100
AcDbEntity
  8
ZUWAKU
100
AcDbCircle
 10
18.08848905427203
 20
3.837500158732748
 30
0.0
 40
0.2625
100
AcDbArc
 50
197.525568373723
 51
270.0
  0
LINE
  5
433A
330
1A
100
AcDbEntity
  8
ZUWAKU
100
AcDbLine
 10
19.18824919367426
 20
3.916547142816234
 30
0.0
 11
18.02505350443743
 21
7.600000158732758
 31
0.0
  0
ARC
  5
433B
330
1A
100
AcDbEntity
  8
ZUWAKU
100
AcDbCircle
 10
18.93793374407653
 20
3.837500158732748
 30
0.0
 40
0.2625
100
AcDbArc
 50
270.0
 51
17.52556837372303
  0
LINE
  5
433C
330
1A
100
AcDbEntity
  8
ZUWAKU
100
AcDbLine
 10
18.08848905427203
 20
3.575000158732748
 30
0.0
 11
18.93793374407653
 21
3.575000158732748
 31
0.0
  0
ARC
  5
433D
330
1A
100
AcDbEntity
  8
ZUWAKU
100
AcDbCircle
 10
20.60860613601636
 20
3.837500158732748
 30
0.0
 40
0.2625
100
AcDbArc
 50
180.0
 51
270.0
  0
ARC
  5
433E
330
1A
100
AcDbEntity
  8
ZUWAKU
100
AcDbCircle
 10
25.07110613601639
 20
4.975000158732747
 30
0.0
 40
1.399999999999999
100
AcDbArc
 50
270.0
 51
0.0
  0
ARC
  5
433F
330
1A
100
AcDbEntity
  8
ZUWAKU
100
AcDbCircle
 10
28.92110613601636
 20
4.975000158732747
 30
0.0
 40
1.399999999999999
100
AcDbArc
 50
180.0
 51
270.0
  0
LINE
  5
4340
330
1A
100
AcDbEntity
  8
ZUWAKU
100
AcDbLine
 10
25.85603037650816
 20
7.36752541190216
 30
0.0
 11
24.40113138918576
 21
8.822424399224498
 31
0.0
  0
LINE
  5
4341
330
1A
100
AcDbEntity
  8
ZUWAKU
100
AcDbLine
 10
23.41118189552463
 20
7.832474905563337
 30
0.0
 11
24.86608088284697
 21
6.377575918241007
 31
0.0
  0
LINE
  5
4342
330
1A
100
AcDbEntity
  8
ZUWAKU
100
AcDbLine
 10
23.32110613601639
 20
3.575000158732748
 30
0.0
 11
25.07110613601639
 21
3.575000158732748
 31
0.0
  0
LINE
  5
4343
330
1A
100
AcDbEntity
  8
ZUWAKU
100
AcDbLine
 10
23.32110613601639
 20
4.975000158732747
 30
0.0
 11
24.80860613601635
 21
4.975000158732747
 31
0.0
  0
ARC
  5
4344
330
1A
100
AcDbEntity
  8
ZUWAKU
100
AcDbCircle
 10
23.32110613601639
 20
4.712500158732748
 30
0.0
 40
0.2625
100
AcDbArc
 50
90.0
 51
180.0
  0
ARC
  5
4345
330
1A
100
AcDbEntity
  8
ZUWAKU
100
AcDbCircle
 10
21.48360613601636
 20
3.837500158732748
 30
0.0
 40
0.2625
100
AcDbArc
 50
270.0
 51
0.0
  0
ARC
  5
4346
330
1A
100
AcDbEntity
  8
ZUWAKU
100
AcDbCircle
 10
23.32110613601639
 20
3.837500158732748
 30
0.0
 40
0.2625
100
AcDbArc
 50
180.0
 51
270.0
  0
LINE
  5
4347
330
1A
100
AcDbEntity
  8
ZUWAKU
100
AcDbLine
 10
23.05860613601635
 20
3.837500158732748
 30
0.0
 11
23.05860613601635
 21
4.712500158732748
 31
0.0
  0
ARC
  5
4348
330
1A
100
AcDbEntity
  8
ZUWAKU
100
AcDbCircle
 10
24.80860613601635
 20
5.23750015873275
 30
0.0
 40
0.2625
100
AcDbArc
 50
270.0
 51
0.0
  0
ARC
  5
4349
330
1A
100
AcDbEntity
  8
ZUWAKU
100
AcDbCircle
 10
24.37110613601635
 20
5.882601171410421
 30
0.0
 40
0.7
100
AcDbArc
 50
0.0
 51
45.0
  0
LINE
  5
434A
330
1A
100
AcDbEntity
  8
ZUWAKU
100
AcDbLine
 10
25.07110613601639
 20
5.23750015873275
 30
0.0
 11
25.07110613601639
 21
5.882601171410421
 31
0.0
  0
ARC
  5
434B
330
1A
100
AcDbEntity
  8
ZUWAKU
100
AcDbCircle
 10
29.44610613601639
 20
5.500000158732746
 30
0.0
 40
0.525
100
AcDbArc
 50
180.0
 51
270.0
  0
ARC
  5
434C
330
1A
100
AcDbEntity
  8
ZUWAKU
100
AcDbCircle
 10
24.37110613601635
 20
5.882601171410399
 30
0.0
 40
2.099999999999999
100
AcDbArc
 50
0.0
 51
45.0
  0
LINE
  5
434D
330
1A
100
AcDbEntity
  8
ZUWAKU
100
AcDbLine
 10
26.47110613601637
 20
4.975000158732747
 30
0.0
 11
26.47110613601637
 21
5.882601171410421
 31
0.0
  0
ARC
  5
434E
330
1A
100
AcDbEntity
  8
ZUWAKU
100
AcDbCircle
 10
30.67110613601636
 20
4.975000158732747
 30
0.0
 40
1.399999999999999
100
AcDbArc
 50
270.0
 51
0.0
  0
LINE
  5
434F
330
1A
100
AcDbEntity
  8
ZUWAKU
100
AcDbLine
 10
33.38360613601639
 20
3.575000158732748
 30
0.0
 11
34.25860613601639
 21
3.575000158732748
 31
0.0
  0
ARC
  5
4350
330
1A
100
AcDbEntity
  8
ZUWAKU
100
AcDbCircle
 10
30.14610613601638
 20
5.500000158732746
 30
0.0
 40
0.525
100
AcDbArc
 50
270.0
 51
0.0
  0
ARC
  5
4351
330
1A
100
AcDbEntity
  8
ZUWAKU
100
AcDbCircle
 10
33.38360613601639
 20
3.837500158732748
 30
0.0
 40
0.2625
100
AcDbArc
 50
180.0
 51
270.0
  0
ARC
  5
4352
330
1A
100
AcDbEntity
  8
ZUWAKU
100
AcDbCircle
 10
34.25860613601639
 20
3.837500158732748
 30
0.0
 40
0.2625
100
AcDbArc
 50
270.0
 51
0.0
  0
LINE
  5
4353
330
1A
100
AcDbEntity
  8
ZUWAKU
100
AcDbLine
 10
21.48360613601636
 20
11.62500015873275
 30
0.0
 11
20.60860613601636
 21
11.62500015873275
 31
0.0
  0
LINE
  5
4354
330
1A
100
AcDbEntity
  8
ZUWAKU
100
AcDbLine
 10
13.69610613601639
 20
11.36250015873274
 30
0.0
 11
13.69610613601639
 21
10.48750015873274
 31
0.0
  0
ARC
  5
4355
330
1A
100
AcDbEntity
  8
ZUWAKU
100
AcDbCircle
 10
13.43360613601635
 20
10.48750015873274
 30
0.0
 40
0.2625
100
AcDbArc
 50
270.0
 51
0.0
  0
ARC
  5
4356
330
1A
100
AcDbEntity
  8
ZUWAKU
100
AcDbCircle
 10
15.18360613601635
 20
11.36250015873274
 30
0.0
 40
0.2625
100
AcDbArc
 50
90.0
 51
180.0
  0
ARC
  5
4357
330
1A
100
AcDbEntity
  8
ZUWAKU
100
AcDbCircle
 10
13.43360613601635
 20
11.36250015873274
 30
0.0
 40
0.2625
100
AcDbArc
 50
0.0
 51
90.0
  0
LINE
  5
4358
330
1A
100
AcDbEntity
  8
ZUWAKU
100
AcDbLine
 10
16.05860613601635
 20
11.62500015873275
 30
0.0
 11
15.18360613601635
 21
11.62500015873275
 31
0.0
  0
ARC
  5
4359
330
1A
100
AcDbEntity
  8
ZUWAKU
100
AcDbCircle
 10
16.05860613601635
 20
11.36250015873274
 30
0.0
 40
0.2625
100
AcDbArc
 50
0.0
 51
90.0
  0
ARC
  5
435A
330
1A
100
AcDbEntity
  8
ZUWAKU
100
AcDbCircle
 10
18.08848905427203
 20
11.36250015873274
 30
0.0
 40
0.2625
100
AcDbArc
 50
90.0
 51
162.4744316262769
  0
LINE
  5
435B
330
1A
100
AcDbEntity
  8
ZUWAKU
100
AcDbLine
 10
19.18824919367426
 20
11.28345317464926
 30
0.0
 11
18.65742937710535
 21
9.602523755514461
 31
0.0
  0
ARC
  5
435C
330
1A
100
AcDbEntity
  8
ZUWAKU
100
AcDbCircle
 10
18.93793374407653
 20
11.36250015873274
 30
0.0
 40
0.2625
100
AcDbArc
 50
342.4744316262769
 51
90.0
  0
LINE
  5
435D
330
1A
100
AcDbEntity
  8
ZUWAKU
100
AcDbLine
 10
18.08848905427203
 20
11.62500015873275
 30
0.0
 11
18.93793374407653
 21
11.62500015873275
 31
0.0
  0
ARC
  5
435E
330
1A
100
AcDbEntity
  8
ZUWAKU
100
AcDbCircle
 10
20.60860613601636
 20
11.36250015873274
 30
0.0
 40
0.2625
100
AcDbArc
 50
90.0
 51
180.0
  0
LINE
  5
435F
330
1A
100
AcDbEntity
  8
ZUWAKU
100
AcDbLine
 10
25.9461061360164
 20
10.22500015873274
 30
0.0
 11
24.45860613601638
 21
10.22500015873274
 31
0.0
  0
LINE
  5
4360
330
1A
100
AcDbEntity
  8
ZUWAKU
100
AcDbLine
 10
24.19610613601639
 20
11.62500015873275
 30
0.0
 11
25.9461061360164
 21
11.62500015873275
 31
0.0
  0
ARC
  5
4361
330
1A
100
AcDbEntity
  8
ZUWAKU
100
AcDbCircle
 10
24.19610613601639
 20
10.22500015873274
 30
0.0
 40
1.399999999999999
100
AcDbArc
 50
90.0
 51
180.0
  0
LINE
  5
4362
330
1A
100
AcDbEntity
  8
ZUWAKU
100
AcDbLine
 10
22.79610613601636
 20
10.22500015873274
 30
0.0
 11
22.79610613601636
 21
9.317399146055077
 31
0.0
  0
ARC
  5
4363
330
1A
100
AcDbEntity
  8
ZUWAKU
100
AcDbCircle
 10
21.48360613601636
 20
11.36250015873274
 30
0.0
 40
0.2625
100
AcDbArc
 50
0.0
 51
90.0
  0
LINE
  5
4364
330
1A
100
AcDbEntity
  8
ZUWAKU
100
AcDbLine
 10
24.19610613601639
 20
9.962500158732748
 30
0.0
 11
24.19610613601639
 21
9.317399146055077
 31
0.0
  0
ARC
  5
4365
330
1A
100
AcDbEntity
  8
ZUWAKU
100
AcDbCircle
 10
24.45860613601638
 20
9.962500158732748
 30
0.0
 40
0.2625
100
AcDbArc
 50
90.0
 51
180.0
  0
LINE
  5
4366
330
1A
100
AcDbEntity
  8
ZUWAKU
100
AcDbLine
 10
26.20860613601638
 20
11.36250015873274
 30
0.0
 11
26.20860613601638
 21
10.48750015873274
 31
0.0
  0
ARC
  5
4367
330
1A
100
AcDbEntity
  8
ZUWAKU
100
AcDbCircle
 10
25.9461061360164
 20
10.48750015873274
 30
0.0
 40
0.2625
100
AcDbArc
 50
270.0
 51
0.0
  0
ARC
  5
4368
330
1A
100
AcDbEntity
  8
ZUWAKU
100
AcDbCircle
 10
25.9461061360164
 20
11.36250015873274
 30
0.0
 40
0.2625
100
AcDbArc
 50
0.0
 51
90.0
  0
LINE
  5
4369
330
1A
100
AcDbEntity
  8
ZUWAKU
100
AcDbLine
 10
28.65860613601637
 20
11.62500015873275
 30
0.0
 11
27.78360613601637
 21
11.62500015873275
 31
0.0
  0
ARC
  5
436A
330
1A
100
AcDbEntity
  8
ZUWAKU
100
AcDbCircle
 10
27.78360613601637
 20
11.36250015873274
 30
0.0
 40
0.2625
100
AcDbArc
 50
90.0
 51
180.0
  0
ARC
  5
436B
330
1A
100
AcDbEntity
  8
ZUWAKU
100
AcDbCircle
 10
28.65860613601637
 20
11.36250015873274
 30
0.0
 40
0.2625
100
AcDbArc
 50
0.0
 51
90.0
  0
LINE
  5
436C
330
1A
100
AcDbEntity
  8
ZUWAKU
100
AcDbLine
 10
34.25860613601639
 20
11.62500015873275
 30
0.0
 11
33.38360613601639
 21
11.62500015873275
 31
0.0
  0
ARC
  5
436D
330
1A
100
AcDbEntity
  8
ZUWAKU
100
AcDbCircle
 10
30.93360613601635
 20
11.36250015873274
 30
0.0
 40
0.2625
100
AcDbArc
 50
90.0
 51
180.0
  0
LINE
  5
436E
330
1A
100
AcDbEntity
  8
ZUWAKU
100
AcDbLine
 10
31.80860613601635
 20
11.62500015873275
 30
0.0
 11
30.93360613601635
 21
11.62500015873275
 31
0.0
  0
ARC
  5
436F
330
1A
100
AcDbEntity
  8
ZUWAKU
100
AcDbCircle
 10
31.80860613601635
 20
11.36250015873274
 30
0.0
 40
0.2625
100
AcDbArc
 50
0.0
 51
90.0
  0
ARC
  5
4370
330
1A
100
AcDbEntity
  8
ZUWAKU
100
AcDbCircle
 10
33.38360613601639
 20
11.36250015873274
 30
0.0
 40
0.2625
100
AcDbArc
 50
90.0
 51
180.0
  0
ARC
  5
4371
330
1A
100
AcDbEntity
  8
ZUWAKU
100
AcDbCircle
 10
34.25860613601639
 20
11.36250015873274
 30
0.0
 40
0.2625
100
AcDbArc
 50
0.0
 51
90.0
  0
TEXT
  5
4372
330
1A
100
AcDbEntity
  8
MOJI
100
AcDbText
 10
119.9136013990513
 20
1.602460687436456
 30
0.0
 40
2.799999999999999
  1
ＲＶ１０５－５－１０
 41
0.9
  7
ｽﾀｲﾙ1
100
AcDbText
  0
LINE
  5
4373
330
1A
100
AcDbEntity
  8
ZUWAKU
100
AcDbLine
 10
104.2233007036596
 20
15.00000015873274
 30
0.0
 11
104.2233007036597
 21
0.4000001587327802
 31
0.0
  0
LINE
  5
4374
330
1A
100
AcDbEntity
  8
ZUWAKU
100
AcDbLine
 10
104.3233007036596
 20
15.00000015873274
 30
0.0
 11
104.3233007036598
 21
0.4000001587327802
 31
0.0
  0
LINE
  5
4375
330
1A
100
AcDbEntity
  8
ZUWAKU
100
AcDbLine
 10
104.1233007036597
 20
15.00000015873274
 30
0.0
 11
104.1233007036597
 21
0.4000001587327802
 31
0.0
  0
TEXT
  5
4376
330
1A
100
AcDbEntity
  8
ZUWAKU
100
AcDbText
 10
104.8620232147645
 20
4.827678427925555
 30
0.0
 40
2.0
  1
サイズ
 41
0.9
  7
ｽﾀｲﾙ1
100
AcDbText
  0
TEXT
  5
4377
330
1A
100
AcDbEntity
  8
ZUWAKU
100
AcDbText
 10
104.8620232147644
 20
12.02767842792553
 30
0.0
 40
2.0
  1
品名
 41
0.9
  7
ｽﾀｲﾙ1
100
AcDbText
  0
TEXT
  5
4378
330
1A
100
AcDbEntity
  8
ZUWAKU
100
AcDbText
 10
329.101968902277
 20
9.002460687436439
 30
0.0
 40
2.799999999999999
  1
　　．　　．　　
 41
0.9
  7
ｽﾀｲﾙ1
100
AcDbText
  0
LINE
  5
4379
330
1A
100
AcDbEntity
  8
ZUWAKU
100
AcDbLine
 10
324.4086013137279
 20
7.800000158732762
 30
0.0
 11
348.6245053328964
 21
7.800000158732762
 31
0.0
  0
LINE
  5
437A
330
1A
100
AcDbEntity
  8
ZUWAKU
100
AcDbLine
 10
324.408601313728
 20
7.700000158732764
 30
0.0
 11
348.6245053328964
 21
7.700000158732763
 31
0.0
  0
LINE
  5
437B
330
1A
100
AcDbEntity
  8
ZUWAKU
100
AcDbLine
 10
324.4086013137279
 20
7.600000158732761
 30
0.0
 11
348.6245053328964
 21
7.600000158732763
 31
0.0
  0
LINE
  5
437C
330
1A
100
AcDbEntity
  8
ZUWAKU
100
AcDbLine
 10
252.5995898076962
 20
7.800000158732762
 30
0.0
 11
276.263477941682
 21
7.800000158732762
 31
0.0
  0
LINE
  5
437D
330
1A
100
AcDbEntity
  8
ZUWAKU
100
AcDbLine
 10
252.5995898076962
 20
7.700000158732763
 30
0.0
 11
276.263477941682
 21
7.700000158732763
 31
0.0
  0
LINE
  5
437E
330
1A
100
AcDbEntity
  8
ZUWAKU
100
AcDbLine
 10
252.5995898076962
 20
7.600000158732765
 30
0.0
 11
276.263477941682
 21
7.600000158732765
 31
0.0
  0
LINE
  5
437F
330
1A
100
AcDbEntity
  8
ZUWAKU
100
AcDbLine
 10
252.3995898076963
 20
15.00000015873274
 30
0.0
 11
252.3995898076963
 21
0.4000001587327802
 31
0.0
  0
LINE
  5
4380
330
1A
100
AcDbEntity
  8
ZUWAKU
100
AcDbLine
 10
252.5995898076962
 20
15.00000015873274
 30
0.0
 11
252.5995898076963
 21
0.4000001587327802
 31
0.0
  0
LINE
  5
4381
330
1A
100
AcDbEntity
  8
ZUWAKU
100
AcDbLine
 10
252.4995898076962
 20
15.00000015873274
 30
0.0
 11
252.4995898076963
 21
0.4000001587327802
 31
0.0
  0
TEXT
  5
4382
330
1A
100
AcDbEntity
  8
MOJI
100
AcDbText
 10
264.0204540447822
 20
9.002460687436439
 30
0.0
 40
2.799999999999999
  1
Ａ３
 41
0.9
  7
ｽﾀｲﾙ1
100
AcDbText
  0
LINE
  5
4383
330
1A
100
AcDbEntity
  8
ZUWAKU
100
AcDbLine
 10
223.7121820441215
 20
15.00000015873274
 30
0.0
 11
223.7121820441215
 21
0.4000001587327802
 31
0.0
  0
LINE
  5
4384
330
1A
100
AcDbEntity
  8
ZUWAKU
100
AcDbLine
 10
223.9121820441214
 20
15.00000015873274
 30
0.0
 11
223.9121820441215
 21
0.4000001587327802
 31
0.0
  0
LINE
  5
4385
330
1A
100
AcDbEntity
  8
ZUWAKU
100
AcDbLine
 10
223.8121820441214
 20
15.00000015873274
 30
0.0
 11
223.8121820441215
 21
0.4000001587327802
 31
0.0
  0
TEXT
  5
4386
330
1A
100
AcDbEntity
  8
MOJI
100
AcDbText
 10
231.2836392196201
 20
5.971309019562738
 30
0.0
 40
2.799999999999999
  1
ＬＪ８４□
 41
0.9
  7
ｽﾀｲﾙ1
100
AcDbText
  0
TEXT
  5
4387
330
1A
100
AcDbEntity
  8
ZUWAKU
100
AcDbText
 10
231.3468808863794
 20
1.307035614302492
 30
0.0
 40
1.5
  1
□には色品番が入ります
 41
0.9
  7
ｽﾀｲﾙ1
100
AcDbText
  0
TEXT
  5
4388
330
1A
100
AcDbEntity
  8
ZUWAKU
100
AcDbText
 10
253.3383123188011
 20
4.827678427925555
 30
0.0
 40
2.0
  1
縮尺
 41
0.9
  7
ｽﾀｲﾙ1
100
AcDbText
  0
TEXT
  5
4389
330
1A
100
AcDbEntity
  8
MOJI
100
AcDbText
 10
264.0204540447822
 20
1.602460687436456
 30
0.0
 40
2.799999999999999
  1
１/１
 41
0.9
  7
ｽﾀｲﾙ1
100
AcDbText
  0
TEXT
  5
438A
330
1A
100
AcDbEntity
  8
ZUWAKU
100
AcDbText
 10
224.6509045552262
 20
12.02767842792553
 30
0.0
 40
2.0
  1
品番
 41
0.9
  7
ｽﾀｲﾙ1
100
AcDbText
  0
TEXT
  5
438B
330
1A
100
AcDbEntity
  8
ZUWAKU
100
AcDbText
 10
253.338312318801
 20
12.02767842792553
 30
0.0
 40
2.0
  1
用紙
 41
0.9
  7
ｽﾀｲﾙ1
100
AcDbText
  0
LINE
  5
438C
330
1A
100
AcDbEntity
  8
ZUWAKU
100
AcDbLine
 10
276.263477941682
 20
15.00000015873274
 30
0.0
 11
276.263477941682
 21
0.4000001587327802
 31
0.0
  0
LINE
  5
438D
330
1A
100
AcDbEntity
  8
ZUWAKU
100
AcDbLine
 10
276.4634779416819
 20
15.00000015873274
 30
0.0
 11
276.463477941682
 21
0.4000001587327802
 31
0.0
  0
LINE
  5
438E
330
1A
100
AcDbEntity
  8
ZUWAKU
100
AcDbLine
 10
276.3634779416819
 20
15.00000015873274
 30
0.0
 11
276.363477941682
 21
0.4000001587327802
 31
0.0
  0
LINE
  5
438F
330
1A
100
AcDbEntity
  8
ZUWAKU
100
AcDbLine
 10
324.2086013137281
 20
15.00000015873274
 30
0.0
 11
324.2086013137281
 21
0.4000001587327802
 31
0.0
  0
LINE
  5
4390
330
1A
100
AcDbEntity
  8
ZUWAKU
100
AcDbLine
 10
324.408601313728
 20
15.00000015873274
 30
0.0
 11
324.4086013137281
 21
0.4000001587327802
 31
0.0
  0
LINE
  5
4391
330
1A
100
AcDbEntity
  8
ZUWAKU
100
AcDbLine
 10
324.308601313728
 20
15.00000015873274
 30
0.0
 11
324.308601313728
 21
0.4000001587327802
 31
0.0
  0
TEXT
  5
4392
330
1A
100
AcDbEntity
  8
ZUWAKU
100
AcDbText
 10
325.1473238248328
 20
12.02767842792553
 30
0.0
 40
2.0
  1
DATE
 41
0.9
  7
ｽﾀｲﾙ1
100
AcDbText
  0
TEXT
  5
4393
330
1A
100
AcDbEntity
  8
ZUWAKU
100
AcDbText
 10
354.2640421547476
 20
8.776919826576147
 30
0.0
 40
3.0
  1
積水化学工業株式会社
 41
0.9
  7
ｽﾀｲﾙ1
100
AcDbText
  0
LINE
  5
4394
330
1A
100
AcDbEntity
  8
ZUWAKU
100
AcDbLine
 10
348.9245053328963
 20
15.00000015873274
 30
0.0
 11
348.9245053328965
 21
0.4000001587327802
 31
0.0
  0
LINE
  5
4395
330
1A
100
AcDbEntity
  8
ZUWAKU
100
AcDbLine
 10
348.8245053328963
 20
15.00000015873274
 30
0.0
 11
348.8245053328964
 21
0.4000001587327802
 31
0.0
  0
LINE
  5
4396
330
1A
100
AcDbEntity
  8
ZUWAKU
100
AcDbLine
 10
348.7245053328964
 20
15.00000015873274
 30
0.0
 11
348.7245053328964
 21
0.4000001587327802
 31
0.0
  0
LINE
  5
4397
330
1A
100
AcDbEntity
  8
ZUWAKU
100
AcDbLine
 10
348.6245053328964
 20
15.00000015873274
 30
0.0
 11
348.6245053328964
 21
0.4000001587327802
 31
0.0
  0
TEXT
  5
4398
330
1A
100
AcDbEntity
  8
ZUWAKU
100
AcDbText
 10
354.2640421547476
 20
3.324420315659779
 30
0.0
 40
3.0
  1
建材事業部
 41
0.9
  7
ｽﾀｲﾙ1
100
AcDbText
  0
VIEWPORT
  5
22
330
17
100
AcDbEntity
 67
     1
  8
0
100
AcDbViewport
 10
313.6808219178082
 20
148.5
 30
0.0
 40
627.3616438356165
 41
297.0
 68
     2
 69
     1
1001
ACAD
1000
MVIEW
1002
{
1070
    16
1010
0.0
1020
0.0
1030
0.0
1010
0.0
1020
0.0
1030
1.0
1040
0.0
1040
297.0
1040
313.6808219178082
1040
148.5
1040
50.0
1040
0.0
1040
0.0
1070
     0
1070
   100
1070
     1
1070
     0
1070
     0
1070
     0
1070
     0
1070
     0
1040
0.0
1040
0.0
1040
0.0
1040
1.0
1040
1.0
1040
10.0
1040
10.0
1070
     0
1002
{
1002
}
1002
}
  0
VIEWPORT
  5
64
330
17
100
AcDbEntity
 67
     1
  8
VIEWPORT
100
AcDbViewport
 10
210.0
 20
148.5
 30
0.0
 40
420.0
 41
297.0
 68
     1
 69
     2
1001
ACAD
1000
MVIEW
1002
{
1070
    16
1010
0.0
1020
0.0
1030
0.0
1010
0.0
1020
0.0
1030
1.0
1040
0.0
1040
302.9399999999998
1040
210.0
1040
148.5
1040
50.0
1040
0.0
1040
0.0
1070
     0
1070
   100
1070
     1
1070
     0
1070
     0
1070
     0
1070
     0
1070
     0
1040
0.0
1040
0.0
1040
0.0
1040
5.0
1040
5.0
1040
0.0
1040
0.0
1070
     0
1002
{
1002
}
1002
}
  0
ENDSEC
  0
SECTION
  2
OBJECTS
  0
DICTIONARY
  5
C
330
0
100
AcDbDictionary
  3
ACAD_GROUP
350
D
  3
ACAD_LAYOUT
350
141
  3
ACAD_MLINESTYLE
350
E
  3
ACAD_PLOTSETTINGS
350
142
  3
ACAD_PLOTSTYLENAME
350
13F
  3
ACADDIM
350
3023
  3
ACDBVARIABLEDICTIONARY
350
120D
  3
ACDBHEADERROUNDTRIPXREC
350
440F
  0
DICTIONARY
  5
7A2
330
1A
100
AcDbDictionary
280
     1
  3
ACAD_LAYOUTSELFREF
360
4431
  0
DICTIONARY
  5
7A0
330
17
100
AcDbDictionary
280
     1
  3
ACAD_LAYOUTSELFREF
360
4430
  0
DICTIONARY
  5
D
102
{ACAD_REACTORS
330
C
102
}
330
C
100
AcDbDictionary
  0
DICTIONARY
  5
141
102
{ACAD_REACTORS
330
C
102
}
330
C
100
AcDbDictionary
  0
DICTIONARY
  5
E
102
{ACAD_REACTORS
330
C
102
}
330
C
100
AcDbDictionary
  3
STANDARD
350
13
  0
DICTIONARY
  5
142
102
{ACAD_REACTORS
330
C
102
}
330
C
100
AcDbDictionary
  0
ACDBDICTIONARYWDFLT
  5
13F
102
{ACAD_REACTORS
330
C
102
}
330
C
100
AcDbDictionary
281
     1
  3
Normal
350
140
100
AcDbDictionaryWithDefault
340
140
1001
ACAD
1000
TREAT_AS_HARD
1070
     0
1000
TREAT_AS_HARD
1070
     0
1000
TREAT_AS_HARD
1070
     0
1000
TREAT_AS_HARD
1070
     0
1000
TREAT_AS_HARD
1070
     0
1000
TREAT_AS_HARD
1070
     0
1000
TREAT_AS_HARD
1070
     0
1000
TREAT_AS_HARD
1070
     0
1000
TREAT_AS_HARD
1070
     0
1000
TREAT_AS_HARD
1070
     0
1000
TREAT_AS_HARD
1070
     0
1000
TREAT_AS_HARD
1070
     0
1000
TREAT_AS_HARD
1070
     0
1000
TREAT_AS_HARD
1070
     0
1000
TREAT_AS_HARD
1070
     0
1000
TREAT_AS_HARD
1070
     0
1000
TREAT_AS_HARD
1070
     0
1000
TREAT_AS_HARD
1070
     0
1000
TREAT_AS_HARD
1070
     0
1000
TREAT_AS_HARD
1070
     0
1000
TREAT_AS_HARD
1070
     0
  0
XRECORD
  5
3023
102
{ACAD_REACTORS
330
C
102
}
330
C
100
AcDbXrecord
 90
   990106
  3

 60
     0
 61
     0
 62
     1
 63
     3
 64
     0
 65
     0
 66
     0
 67
     3
 68
     1
 69
     0
 70
     0
 71
     0
 72
     0
 40
0.0
170
     0
340
0
  0
DICTIONARY
  5
120D
102
{ACAD_REACTORS
330
C
102
}
330
C
100
AcDbDictionary
  3
SORTENTS
350
120E
  0
DICTIONARY
  5
440F
102
{ACAD_REACTORS
330
C
102
}
330
C
100
AcDbDictionary
  3
TSTACKALIGN
350
4410
  3
TSTACKSIZE
350
4411
  3
HYPERLINKBASE
350
4412
  3
STYLESHEET
350
4413
  3
LAYOUTDICT
350
4414
  3
PLOTSETDICT
350
4415
  3
PLOTSTYLNAMDICT
350
4416
  3
LWETCUNION
350
4417
  3
INSUNITS
350
4418
  3
CEPSNTYPE
350
4419
  3
FINGERPRINTGUID
350
441A
  3
VERSIONGUID
350
441B
  3
PSVPSCALE
350
441C
  3
DIMSTYLEDATA
350
441D
  3
PUCSORTHOREF
350
441E
  3
PUCSORTHOVIEW
350
441F
  3
PUCSBASE
350
4420
  3
PUCSORGTOP
350
4421
  3
PUCSORGBOTTOM
350
4422
  3
PUCSORGLEFT
350
4423
  3
PUCSORGRIGHT
350
4424
  3
PUCSORGFRONT
350
4425
  3
PUCSORGBACK
350
4426
  3
UCSORTHOREF
350
4427
  3
UCSORTHOVIEW
350
4428
  3
UCSBASE
350
4429
  3
UCSORGTOP
350
442A
  3
UCSORGBOTTOM
350
442B
  3
UCSORGLEFT
350
442C
  3
UCSORGRIGHT
350
442D
  3
UCSORGFRONT
350
442E
  3
UCSORGBACK
350
442F
  0
XRECORD
  5
4431
102
{ACAD_REACTORS
330
7A2
102
}
330
7A2
100
AcDbXrecord
340
1A
  0
XRECORD
  5
4430
102
{ACAD_REACTORS
330
7A0
102
}
330
7A0
100
AcDbXrecord
340
17
  0
MLINESTYLE
  5
13
102
{ACAD_REACTORS
330
E
102
}
330
E
100
AcDbMlineStyle
  2
STANDARD
 70
     0
  3

 62
     0
 51
90.0
 52
90.0
 71
     2
 49
0.5
 62
   256
  6
BYLAYER
 49
-0.5
 62
   256
  6
BYLAYER
  0
ACDBPLACEHOLDER
  5
140
102
{ACAD_REACTORS
330
13F
102
}
330
13F
100
AcDbPlaceHolder
280
     0
  0
DICTIONARYVAR
  5
120E
102
{ACAD_REACTORS
330
120D
102
}
330
120D
100
DictionaryVariables
280
     0
  1
96
  0
XRECORD
  5
4410
102
{ACAD_REACTORS
330
440F
102
}
330
440F
100
AcDbXrecord
 90
        1
  0
XRECORD
  5
4411
102
{ACAD_REACTORS
330
440F
102
}
330
440F
100
AcDbXrecord
 90
       70
  0
XRECORD
  5
4412
102
{ACAD_REACTORS
330
440F
102
}
330
440F
100
AcDbXrecord
  1

  0
XRECORD
  5
4413
102
{ACAD_REACTORS
330
440F
102
}
330
440F
100
AcDbXrecord
  1
systemprinter.ctb
  0
XRECORD
  5
4414
102
{ACAD_REACTORS
330
440F
102
}
330
440F
100
AcDbXrecord
340
141
  0
XRECORD
  5
4415
102
{ACAD_REACTORS
330
440F
102
}
330
440F
100
AcDbXrecord
340
142
  0
XRECORD
  5
4416
102
{ACAD_REACTORS
330
440F
102
}
330
440F
100
AcDbXrecord
340
13F
  0
XRECORD
  5
4417
102
{ACAD_REACTORS
330
440F
102
}
330
440F
100
AcDbXrecord
 90
    10781
  0
XRECORD
  5
4418
102
{ACAD_REACTORS
330
440F
102
}
330
440F
100
AcDbXrecord
 90
        0
  0
XRECORD
  5
4419
102
{ACAD_REACTORS
330
440F
102
}
330
440F
100
AcDbXrecord
 90
        0
  0
XRECORD
  5
441A
102
{ACAD_REACTORS
330
440F
102
}
330
440F
100
AcDbXrecord
  1
{4E8D0500-CDD1-11D3-932C-444553540000}
  0
XRECORD
  5
441B
102
{ACAD_REACTORS
330
440F
102
}
330
440F
100
AcDbXrecord
  1
{561E9971-31E4-4B1A-B81D-65CED98C70BE}
  0
XRECORD
  5
441C
102
{ACAD_REACTORS
330
440F
102
}
330
440F
100
AcDbXrecord
 40
0.0
  0
XRECORD
  5
441D
102
{ACAD_REACTORS
330
440F
102
}
330
440F
100
AcDbXrecord
1000
DSTYLE
1002
{
1070
   341
340
B2
1070
   343
340
B2
1070
   344
340
B2
1070
   371
 70
    -1
1070
   372
 70
    -1
1002
}
  0
XRECORD
  5
441E
102
{ACAD_REACTORS
330
440F
102
}
330
440F
100
AcDbXrecord
340
0
  0
XRECORD
  5
441F
102
{ACAD_REACTORS
330
440F
102
}
330
440F
100
AcDbXrecord
 70
     0
  0
XRECORD
  5
4420
102
{ACAD_REACTORS
330
440F
102
}
330
440F
100
AcDbXrecord
340
0
  0
XRECORD
  5
4421
102
{ACAD_REACTORS
330
440F
102
}
330
440F
100
AcDbXrecord
 10
0.0
 20
0.0
 30
0.0
  0
XRECORD
  5
4422
102
{ACAD_REACTORS
330
440F
102
}
330
440F
100
AcDbXrecord
 10
0.0
 20
0.0
 30
0.0
  0
XRECORD
  5
4423
102
{ACAD_REACTORS
330
440F
102
}
330
440F
100
AcDbXrecord
 10
0.0
 20
0.0
 30
0.0
  0
XRECORD
  5
4424
102
{ACAD_REACTORS
330
440F
102
}
330
440F
100
AcDbXrecord
 10
0.0
 20
0.0
 30
0.0
  0
XRECORD
  5
4425
102
{ACAD_REACTORS
330
440F
102
}
330
440F
100
AcDbXrecord
 10
0.0
 20
0.0
 30
0.0
  0
XRECORD
  5
4426
102
{ACAD_REACTORS
330
440F
102
}
330
440F
100
AcDbXrecord
 10
0.0
 20
0.0
 30
0.0
  0
XRECORD
  5
4427
102
{ACAD_REACTORS
330
440F
102
}
330
440F
100
AcDbXrecord
340
0
  0
XRECORD
  5
4428
102
{ACAD_REACTORS
330
440F
102
}
330
440F
100
AcDbXrecord
 70
     0
  0
XRECORD
  5
4429
102
{ACAD_REACTORS
330
440F
102
}
330
440F
100
AcDbXrecord
340
0
  0
XRECORD
  5
442A
102
{ACAD_REACTORS
330
440F
102
}
330
440F
100
AcDbXrecord
 10
0.0
 20
0.0
 30
0.0
  0
XRECORD
  5
442B
102
{ACAD_REACTORS
330
440F
102
}
330
440F
100
AcDbXrecord
 10
0.0
 20
0.0
 30
0.0
  0
XRECORD
  5
442C
102
{ACAD_REACTORS
330
440F
102
}
330
440F
100
AcDbXrecord
 10
0.0
 20
0.0
 30
0.0
  0
XRECORD
  5
442D
102
{ACAD_REACTORS
330
440F
102
}
330
440F
100
AcDbXrecord
 10
0.0
 20
0.0
 30
0.0
  0
XRECORD
  5
442E
102
{ACAD_REACTORS
330
440F
102
}
330
440F
100
AcDbXrecord
 10
0.0
 20
0.0
 30
0.0
  0
XRECORD
  5
442F
102
{ACAD_REACTORS
330
440F
102
}
330
440F
100
AcDbXrecord
 10
0.0
 20
0.0
 30
0.0
  0
ENDSEC
  0
EOF
