  0
SECTION
  2
HEADER
  9
$ACADVER
  1
AC1015
  9
$ACADMAINTVER
 70
     6
  9
$DWGCODEPAGE
  3
ANSI_932
  9
$INSBASE
 10
0.0
 20
0.0
 30
0.0
  9
$EXTMIN
 10
0.0000000135560185
 20
-0.0000001317113174
 30
0.0
  9
$EXTMAX
 10
797.6000000135562
 20
551.5999998682888
 30
0.0
  9
$LIMMIN
 10
0.0
 20
0.0
  9
$LIMMAX
 10
840.0
 20
594.0
  9
$ORTHOMODE
 70
     0
  9
$REGENMODE
 70
     1
  9
$FILLMODE
 70
     1
  9
$QTEXTMODE
 70
     0
  9
$MIRRTEXT
 70
     1
  9
$LTSCALE
 40
2.0
  9
$ATTMODE
 70
     1
  9
$TEXTSIZE
 40
6.0
  9
$TRACEWID
 40
1.0
  9
$TEXTSTYLE
  7
STANDARD
  9
$CLAYER
  8
SEIHIN
  9
$CELTYPE
  6
BYLAYER
  9
$CECOLOR
 62
   256
  9
$CELTSCALE
 40
1.0
  9
$DISPSILH
 70
     0
  9
$DIMSCALE
 40
1.0
  9
$DIMASZ
 40
7.0
  9
$DIMEXO
 40
6.0
  9
$DIMDLI
 40
14.0
  9
$DIMRND
 40
0.0
  9
$DIMDLE
 40
0.0
  9
$DIMEXE
 40
3.0
  9
$DIMTP
 40
0.0
  9
$DIMTM
 40
0.0
  9
$DIMTXT
 40
6.0
  9
$DIMCEN
 40
150.0
  9
$DIMTSZ
 40
0.0
  9
$DIMTOL
 70
     0
  9
$DIMLIM
 70
     0
  9
$DIMTIH
 70
     0
  9
$DIMTOH
 70
     0
  9
$DIMSE1
 70
     0
  9
$DIMSE2
 70
     0
  9
$DIMTAD
 70
     3
  9
$DIMZIN
 70
     0
  9
$DIMBLK
  1

  9
$DIMASO
 70
     1
  9
$DIMSHO
 70
     1
  9
$DIMPOST
  1

  9
$DIMAPOST
  1

  9
$DIMALT
 70
     0
  9
$DIMALTD
 70
     2
  9
$DIMALTF
 40
25.4
  9
$DIMLFAC
 40
1.0
  9
$DIMTOFL
 70
     1
  9
$DIMTVP
 40
0.0
  9
$DIMTIX
 70
     0
  9
$DIMSOXD
 70
     0
  9
$DIMSAH
 70
     1
  9
$DIMBLK1
  1
OPEN
  9
$DIMBLK2
  1
OPEN
  9
$DIMSTYLE
  2
STANDARD
  9
$DIMCLRD
 70
   256
  9
$DIMCLRE
 70
   256
  9
$DIMCLRT
 70
   256
  9
$DIMTFAC
 40
1.0
  9
$DIMGAP
 40
2.0
  9
$DIMJUST
 70
     0
  9
$DIMSD1
 70
     0
  9
$DIMSD2
 70
     0
  9
$DIMTOLJ
 70
     1
  9
$DIMTZIN
 70
     0
  9
$DIMALTZ
 70
     0
  9
$DIMALTTZ
 70
     0
  9
$DIMUPT
 70
     0
  9
$DIMDEC
 70
     0
  9
$DIMTDEC
 70
     0
  9
$DIMALTU
 70
     2
  9
$DIMALTTD
 70
     2
  9
$DIMTXSTY
  7
STANDARD
  9
$DIMAUNIT
 70
     0
  9
$DIMADEC
 70
     0
  9
$DIMALTRND
 40
0.0
  9
$DIMAZIN
 70
     0
  9
$DIMDSEP
 70
    46
  9
$DIMATFIT
 70
     3
  9
$DIMFRAC
 70
     0
  9
$DIMLDRBLK
  1
OPEN
  9
$DIMLUNIT
 70
     2
  9
$DIMLWD
 70
    -1
  9
$DIMLWE
 70
    -1
  9
$DIMTMOVE
 70
     0
  9
$LUNITS
 70
     2
  9
$LUPREC
 70
     4
  9
$SKETCHINC
 40
1.0
  9
$FILLETRAD
 40
10.0
  9
$AUNITS
 70
     0
  9
$AUPREC
 70
     0
  9
$MENU
  1
.
  9
$ELEVATION
 40
0.0
  9
$PELEVATION
 40
0.0
  9
$THICKNESS
 40
0.0
  9
$LIMCHECK
 70
     0
  9
$CHAMFERA
 40
0.0
  9
$CHAMFERB
 40
0.0
  9
$CHAMFERC
 40
40.0
  9
$CHAMFERD
 40
0.0
  9
$SKPOLY
 70
     0
  9
$TDCREATE
 40
2451030.614786227
  9
$TDUCREATE
 40
2451030.239786227
  9
$TDUPDATE
 40
2455609.406013009
  9
$TDUUPDATE
 40
2455609.031013009
  9
$TDINDWG
 40
0.3015788426
  9
$TDUSRTIMER
 40
0.3015788426
  9
$USRTIMER
 70
     1
  9
$ANGBASE
 50
0.0
  9
$ANGDIR
 70
     0
  9
$PDMODE
 70
     0
  9
$PDSIZE
 40
0.0
  9
$PLINEWID
 40
0.0
  9
$SPLFRAME
 70
     0
  9
$SPLINETYPE
 70
     6
  9
$SPLINESEGS
 70
     8
  9
$HANDSEED
  5
6DED
  9
$SURFTAB1
 70
     6
  9
$SURFTAB2
 70
     6
  9
$SURFTYPE
 70
     6
  9
$SURFU
 70
     6
  9
$SURFV
 70
     6
  9
$UCSBASE
  2

  9
$UCSNAME
  2

  9
$UCSORG
 10
0.0
 20
0.0
 30
0.0
  9
$UCSXDIR
 10
1.0
 20
0.0
 30
0.0
  9
$UCSYDIR
 10
0.0
 20
1.0
 30
0.0
  9
$UCSORTHOREF
  2

  9
$UCSORTHOVIEW
 70
     0
  9
$UCSORGTOP
 10
0.0
 20
0.0
 30
0.0
  9
$UCSORGBOTTOM
 10
0.0
 20
0.0
 30
0.0
  9
$UCSORGLEFT
 10
0.0
 20
0.0
 30
0.0
  9
$UCSORGRIGHT
 10
0.0
 20
0.0
 30
0.0
  9
$UCSORGFRONT
 10
0.0
 20
0.0
 30
0.0
  9
$UCSORGBACK
 10
0.0
 20
0.0
 30
0.0
  9
$PUCSBASE
  2

  9
$PUCSNAME
  2

  9
$PUCSORG
 10
0.0
 20
0.0
 30
0.0
  9
$PUCSXDIR
 10
1.0
 20
0.0
 30
0.0
  9
$PUCSYDIR
 10
0.0
 20
1.0
 30
0.0
  9
$PUCSORTHOREF
  2

  9
$PUCSORTHOVIEW
 70
     0
  9
$PUCSORGTOP
 10
0.0
 20
0.0
 30
0.0
  9
$PUCSORGBOTTOM
 10
0.0
 20
0.0
 30
0.0
  9
$PUCSORGLEFT
 10
0.0
 20
0.0
 30
0.0
  9
$PUCSORGRIGHT
 10
0.0
 20
0.0
 30
0.0
  9
$PUCSORGFRONT
 10
0.0
 20
0.0
 30
0.0
  9
$PUCSORGBACK
 10
0.0
 20
0.0
 30
0.0
  9
$USERI1
 70
     0
  9
$USERI2
 70
     0
  9
$USERI3
 70
     0
  9
$USERI4
 70
     0
  9
$USERI5
 70
     0
  9
$USERR1
 40
0.0
  9
$USERR2
 40
0.0
  9
$USERR3
 40
0.0
  9
$USERR4
 40
0.0
  9
$USERR5
 40
0.0
  9
$WORLDVIEW
 70
     1
  9
$SHADEDGE
 70
     3
  9
$SHADEDIF
 70
    70
  9
$TILEMODE
 70
     1
  9
$MAXACTVP
 70
    16
  9
$PINSBASE
 10
0.0
 20
0.0
 30
0.0
  9
$PLIMCHECK
 70
     0
  9
$PEXTMIN
 10
-0.0128164049386896
 20
-0.0090630292066862
 30
-0.0015258207003583
  9
$PEXTMAX
 10
420.0128183607162
 20
297.0090644122207
 30
0.0000000349246037
  9
$PLIMMIN
 10
-30.66685116754002
 20
-9.990190459854741
  9
$PLIMMAX
 10
450.6668334081172
 20
361.9494725043409
  9
$UNITMODE
 70
     0
  9
$VISRETAIN
 70
     0
  9
$PLINEGEN
 70
     0
  9
$PSLTSCALE
 70
     1
  9
$TREEDEPTH
 70
  3020
  9
$CMLSTYLE
  2
STANDARD
  9
$CMLJUST
 70
     0
  9
$CMLSCALE
 40
1.0
  9
$PROXYGRAPHICS
 70
     1
  9
$MEASUREMENT
 70
     0
  9
$CELWEIGHT
370
    -1
  9
$ENDCAPS
280
     0
  9
$JOINSTYLE
280
     0
  9
$LWDISPLAY
290
     0
  9
$INSUNITS
 70
     0
  9
$HYPERLINKBASE
  1

  9
$STYLESHEET
  1
systemprinter.ctb
  9
$XEDIT
290
     1
  9
$CEPSNTYPE
380
     0
  9
$PSTYLEMODE
290
     1
  9
$FINGERPRINTGUID
  2
{91E25F26-0CBF-4C93-982E-B5F00895E654}
  9
$VERSIONGUID
  2
{4685EF62-F69A-45F5-A769-D49CD4D2D62A}
  9
$EXTNAMES
290
     1
  9
$PSVPSCALE
 40
0.0
  9
$OLESTARTUP
290
     0
  0
ENDSEC
  0
SECTION
  2
CLASSES
  0
CLASS
  1
ACDBDICTIONARYWDFLT
  2
AcDbDictionaryWithDefault
  3
ObjectDBX Classes
 90
        0
280
     0
281
     0
  0
CLASS
  1
ACDBPLACEHOLDER
  2
AcDbPlaceHolder
  3
ObjectDBX Classes
 90
        0
280
     0
281
     0
  0
CLASS
  1
LAYOUT
  2
AcDbLayout
  3
ObjectDBX Classes
 90
        0
280
     0
281
     0
  0
CLASS
  1
DUMMY
  2
AcDbLongTransaction
  3
DUMMY
 90
        0
280
     0
281
     0
  0
CLASS
  1
LWPOLYLINE
  2
AcDbPolyline
  3
AutoCAD 2000
 90
        0
280
     0
281
     1
  0
CLASS
  1
HATCH
  2
AcDbHatch
  3
AutoCAD 2000
 90
        0
280
     0
281
     1
  0
CLASS
  1
XRECORD
  2
AcDbXrecord
  3
AutoCAD 2000
 90
        0
280
     0
281
     0
  0
CLASS
  1
DUMMY
  2
AcDbLongTransaction
  3
DUMMY
 90
        0
280
     0
281
     0
  0
CLASS
  1
LWPOLYLINE
  2
AcDbPolyline
  3
AutoCAD 2000
 90
        0
280
     0
281
     1
  0
CLASS
  1
HATCH
  2
AcDbHatch
  3
AutoCAD 2000
 90
        0
280
     0
281
     1
  0
CLASS
  1
XRECORD
  2
AcDbXrecord
  3
AutoCAD 2000
 90
        0
280
     0
281
     0
  0
CLASS
  1
DUMMY
  2
AcDbLongTransaction
  3
DUMMY
 90
        0
280
     0
281
     0
  0
CLASS
  1
LWPOLYLINE
  2
AcDbPolyline
  3
AutoCAD 2000
 90
        0
280
     0
281
     1
  0
CLASS
  1
HATCH
  2
AcDbHatch
  3
AutoCAD 2000
 90
        0
280
     0
281
     1
  0
CLASS
  1
XRECORD
  2
AcDbXrecord
  3
AutoCAD 2000
 90
        0
280
     0
281
     0
  0
CLASS
  1
DUMMY
  2
AcDbLongTransaction
  3
DUMMY
 90
        0
280
     0
281
     0
  0
CLASS
  1
LWPOLYLINE
  2
AcDbPolyline
  3
AutoCAD 2000
 90
        0
280
     0
281
     1
  0
CLASS
  1
HATCH
  2
AcDbHatch
  3
AutoCAD 2000
 90
        0
280
     0
281
     1
  0
CLASS
  1
XRECORD
  2
AcDbXrecord
  3
AutoCAD 2000
 90
        0
280
     0
281
     0
  0
CLASS
  1
DUMMY
  2
AcDbLongTransaction
  3
DUMMY
 90
        0
280
     0
281
     0
  0
CLASS
  1
LWPOLYLINE
  2
AcDbPolyline
  3
AutoCAD 2000
 90
        0
280
     0
281
     1
  0
CLASS
  1
HATCH
  2
AcDbHatch
  3
AutoCAD 2000
 90
        0
280
     0
281
     1
  0
CLASS
  1
XRECORD
  2
AcDbXrecord
  3
AutoCAD 2000
 90
        0
280
     0
281
     0
  0
ENDSEC
  0
SECTION
  2
TABLES
  0
TABLE
  2
VPORT
  5
8
330
0
100
AcDbSymbolTable
 70
     2
  0
VPORT
  5
6DEC
330
8
100
AcDbSymbolTableRecord
100
AcDbViewportTableRecord
  2
*Active
 70
     0
 10
0.0
 20
0.0
 11
1.0
 21
1.0
 12
408.8856313693188
 22
286.4503681351549
 13
0.0
 23
0.0
 14
5.0
 24
5.0
 15
0.0
 25
0.0
 16
0.0
 26
0.0
 36
1.0
 17
0.0
 27
0.0
 37
0.0
 40
637.240905962002
 41
1.651537335285505
 42
50.0
 43
0.0
 44
0.0
 50
0.0
 51
0.0
 71
     0
 72
   100
 73
     1
 74
     0
 75
     0
 76
     0
 77
     0
 78
     0
281
     0
 65
     1
110
0.0
120
0.0
130
0.0
111
1.0
121
0.0
131
0.0
112
0.0
122
1.0
132
0.0
 79
     0
146
0.0
  0
ENDTAB
  0
TABLE
  2
LTYPE
  5
5
330
0
100
AcDbSymbolTable
 70
     2
  0
LTYPE
  5
14
330
5
100
AcDbSymbolTableRecord
100
AcDbLinetypeTableRecord
  2
BYBLOCK
 70
     0
  3

 72
    65
 73
     0
 40
0.0
  0
LTYPE
  5
15
330
5
100
AcDbSymbolTableRecord
100
AcDbLinetypeTableRecord
  2
BYLAYER
 70
     0
  3

 72
    65
 73
     0
 40
0.0
  0
LTYPE
  5
16
330
5
100
AcDbSymbolTableRecord
100
AcDbLinetypeTableRecord
  2
CONTINUOUS
 70
     0
  3
Solid line
 72
    65
 73
     0
 40
0.0
  0
LTYPE
  5
135
330
5
100
AcDbSymbolTableRecord
100
AcDbLinetypeTableRecord
  2
CENTER
 70
     0
  3
____ _ ____ _ ____ _ ____ _ ____ _ ____ _ ____ 
 72
    65
 73
     4
 40
2.0
 49
1.25
 74
     0
 49
-0.25
 74
     0
 49
0.25
 74
     0
 49
-0.25
 74
     0
  0
ENDTAB
  0
TABLE
  2
LAYER
  5
2
330
0
100
AcDbSymbolTable
 70
     8
  0
LAYER
  5
F
330
2
100
AcDbSymbolTableRecord
100
AcDbLayerTableRecord
  2
0
 70
     0
 62
     7
  6
CONTINUOUS
370
    -3
390
A97
  0
LAYER
  5
62
330
2
100
AcDbSymbolTableRecord
100
AcDbLayerTableRecord
  2
VIEWPORT
 70
     0
 62
     7
  6
CONTINUOUS
370
    -3
390
A97
  0
LAYER
  5
143
330
2
100
AcDbSymbolTableRecord
100
AcDbLayerTableRecord
  2
SEIHIN
 70
     0
 62
     3
  6
CONTINUOUS
370
    -3
390
A97
  0
LAYER
  5
444
330
2
100
AcDbSymbolTableRecord
100
AcDbLayerTableRecord
  2
DEFPOINTS
 70
     0
 62
     7
  6
CONTINUOUS
290
     0
370
    -3
390
A97
  0
LAYER
  5
482
330
2
100
AcDbSymbolTableRecord
100
AcDbLayerTableRecord
  2
SUNPOU
 70
     0
 62
     4
  6
CONTINUOUS
370
    -3
390
A97
  0
LAYER
  5
5D4
330
2
100
AcDbSymbolTableRecord
100
AcDbLayerTableRecord
  2
CENTER L
 70
     0
 62
     1
  6
CENTER
370
    -3
390
A97
  0
LAYER
  5
3D95
330
2
100
AcDbSymbolTableRecord
100
AcDbLayerTableRecord
  2
ZUWAKU
 70
     0
 62
     7
  6
CONTINUOUS
370
    -3
390
A97
  0
LAYER
  5
3D96
330
2
100
AcDbSymbolTableRecord
100
AcDbLayerTableRecord
  2
moji
 70
     0
 62
     2
  6
CONTINUOUS
370
    -3
390
A97
  0
ENDTAB
  0
TABLE
  2
STYLE
  5
3
330
0
100
AcDbSymbolTable
 70
     2
  0
STYLE
  5
10
330
3
100
AcDbSymbolTableRecord
100
AcDbTextStyleTableRecord
  2
STANDARD
 70
     0
 40
0.0
 41
1.0
 50
0.0
 71
     0
 42
6.0
  3
TXT
  4
bigfont.shx
  0
STYLE
  5
3D97
330
3
100
AcDbSymbolTableRecord
100
AcDbTextStyleTableRecord
  2
ｽﾀｲﾙ1
 70
     0
 40
0.0
 41
1.0
 50
0.0
 71
     0
 42
2.5
  3
MS PGothic.ttf
  4

1001
ACAD
1000
MS PGothic
1071
    32818
  0
ENDTAB
  0
TABLE
  2
VIEW
  5
6
330
0
100
AcDbSymbolTable
 70
     0
  0
ENDTAB
  0
TABLE
  2
UCS
  5
7
330
0
100
AcDbSymbolTable
 70
     0
  0
ENDTAB
  0
TABLE
  2
APPID
  5
9
330
0
100
AcDbSymbolTable
 70
     1
  0
APPID
  5
11
330
9
100
AcDbSymbolTableRecord
100
AcDbRegAppTableRecord
  2
ACAD
 70
     0
  0
ENDTAB
  0
TABLE
  2
DIMSTYLE
  5
A
330
0
100
AcDbSymbolTable
 70
     1
100
AcDbDimStyleTable
  0
DIMSTYLE
105
1D
102
{ACAD_REACTORS
330
6B06
330
6B07
330
6B13
330
6B8F
330
6BAD
330
6BAE
330
6BAF
330
6BF0
330
6BF2
330
6C1A
330
6C34
330
6C38
102
}
330
A
100
AcDbSymbolTableRecord
100
AcDbDimStyleTableRecord
  2
STANDARD
 70
     0
340
10
  0
ENDTAB
  0
TABLE
  2
BLOCK_RECORD
  5
1
330
0
100
AcDbSymbolTable
 70
    13
  0
BLOCK_RECORD
  5
1A
330
1
100
AcDbSymbolTableRecord
100
AcDbBlockTableRecord
  2
*MODEL_SPACE
340
A9A
  0
BLOCK_RECORD
  5
17
330
1
100
AcDbSymbolTableRecord
100
AcDbBlockTableRecord
  2
*PAPER_SPACE
340
A9B
  0
BLOCK_RECORD
  5
6D
330
1
100
AcDbSymbolTableRecord
100
AcDbBlockTableRecord
  2
_OPEN
340
0
102
{BLKREFS
331
6CD4
331
6CD5
331
6CDD
331
6CDE
331
6CE6
331
6CE7
331
6CEF
331
6CF0
331
6CF8
331
6CF9
331
6D03
331
6D04
331
6D0C
331
6D0D
331
6D15
331
6D16
331
6D20
331
6D21
331
6D2B
331
6D2C
331
6D36
331
6D37
331
6D3F
331
6D40
102
}
  0
BLOCK_RECORD
  5
6C39
330
1
100
AcDbSymbolTableRecord
100
AcDbBlockTableRecord
  2
*D1
340
0
  0
BLOCK_RECORD
  5
6C45
330
1
100
AcDbSymbolTableRecord
100
AcDbBlockTableRecord
  2
*D2
340
0
  0
BLOCK_RECORD
  5
6C51
330
1
100
AcDbSymbolTableRecord
100
AcDbBlockTableRecord
  2
*D3
340
0
  0
BLOCK_RECORD
  5
6C5D
330
1
100
AcDbSymbolTableRecord
100
AcDbBlockTableRecord
  2
*D4
340
0
  0
BLOCK_RECORD
  5
6C69
330
1
100
AcDbSymbolTableRecord
100
AcDbBlockTableRecord
  2
*D5
340
0
  0
BLOCK_RECORD
  5
6C75
330
1
100
AcDbSymbolTableRecord
100
AcDbBlockTableRecord
  2
*D6
340
0
  0
BLOCK_RECORD
  5
6C83
330
1
100
AcDbSymbolTableRecord
100
AcDbBlockTableRecord
  2
*D7
340
0
  0
BLOCK_RECORD
  5
6C8F
330
1
100
AcDbSymbolTableRecord
100
AcDbBlockTableRecord
  2
*D8
340
0
  0
BLOCK_RECORD
  5
6C9B
330
1
100
AcDbSymbolTableRecord
100
AcDbBlockTableRecord
  2
*D9
340
0
  0
BLOCK_RECORD
  5
6CA9
330
1
100
AcDbSymbolTableRecord
100
AcDbBlockTableRecord
  2
*D10
340
0
  0
BLOCK_RECORD
  5
6CB7
330
1
100
AcDbSymbolTableRecord
100
AcDbBlockTableRecord
  2
*D11
340
0
  0
BLOCK_RECORD
  5
6CC5
330
1
100
AcDbSymbolTableRecord
100
AcDbBlockTableRecord
  2
*D12
340
0
  0
ENDTAB
  0
ENDSEC
  0
SECTION
  2
BLOCKS
  0
BLOCK
  5
1B
330
1A
100
AcDbEntity
  8
0
100
AcDbBlockBegin
  2
*MODEL_SPACE
 70
     0
 71
     0
 10
0.0
 20
0.0
 30
0.0
  3
*MODEL_SPACE
  1

  0
ENDBLK
  5
1C
330
1A
100
AcDbEntity
  8
0
100
AcDbBlockEnd
  0
BLOCK
  5
18
330
17
100
AcDbEntity
 67
     1
  8
0
100
AcDbBlockBegin
  2
*PAPER_SPACE
 70
     0
 71
     0
 10
0.0
 20
0.0
 30
0.0
  3
*PAPER_SPACE
  1

  0
ENDBLK
  5
19
330
17
100
AcDbEntity
 67
     1
  8
0
100
AcDbBlockEnd
  0
BLOCK
  5
6E
330
6D
100
AcDbEntity
  8
0
100
AcDbBlockBegin
  2
_OPEN
 70
     0
 71
     0
 10
0.0
 20
0.0
 30
0.0
  3
_OPEN
  1

  0
LINE
  5
6F
330
6D
100
AcDbEntity
  8
0
  6
ByBlock
 62
     0
100
AcDbLine
 10
-1.0
 20
0.1666666666666667
 30
0.0
 11
0.0
 21
0.0
 31
0.0
  0
LINE
  5
70
330
6D
100
AcDbEntity
  8
0
  6
ByBlock
 62
     0
100
AcDbLine
 10
0.0
 20
0.0
 30
0.0
 11
-1.0
 21
-0.1666666666666667
 31
0.0
  0
LINE
  5
71
330
6D
100
AcDbEntity
  8
0
  6
ByBlock
 62
     0
100
AcDbLine
 10
0.0
 20
0.0
 30
0.0
 11
-1.0
 21
0.0
 31
0.0
  0
ENDBLK
  5
72
330
6D
100
AcDbEntity
  8
0
100
AcDbBlockEnd
  0
BLOCK
  5
6C43
330
6C39
100
AcDbEntity
  8
0
100
AcDbBlockBegin
  2
*D1
 70
     1
 71
     0
 10
0.0
 20
0.0
 30
0.0
  3
*D1
  1

  0
LINE
  5
6CD1
330
6C39
100
AcDbEntity
  8
SUNPOU
370
    -2
100
AcDbLine
 10
418.944760355886
 20
260.29824826808
 30
0.0
 11
397.606220962201
 21
260.29824826808
 31
0.0
  0
LINE
  5
6CD2
330
6C39
100
AcDbEntity
  8
SUNPOU
370
    -2
100
AcDbLine
 10
416.824083455886
 20
197.4567963641852
 30
0.0
 11
397.606220962201
 21
197.4567963641852
 31
0.0
  0
LINE
  5
6CD3
330
6C39
100
AcDbEntity
  8
SUNPOU
370
    -2
100
AcDbLine
 10
400.606220962201
 20
254.29824826808
 30
0.0
 11
400.606220962201
 21
203.4567963641852
 31
0.0
  0
INSERT
  5
6CD4
330
6C39
100
AcDbEntity
  8
SUNPOU
370
    -2
100
AcDbBlockReference
  2
_OPEN
 10
400.606220962201
 20
260.29824826808
 30
0.0
 41
6.0
 42
6.0
 43
6.0
 50
90.0
  0
INSERT
  5
6CD5
330
6C39
100
AcDbEntity
  8
SUNPOU
370
    -2
100
AcDbBlockReference
  2
_OPEN
 10
400.606220962201
 20
197.4567963641852
 30
0.0
 41
6.0
 42
6.0
 43
6.0
 50
270.0
  0
MTEXT
  5
6CD6
330
6C39
100
AcDbEntity
  8
SUNPOU
100
AcDbMText
 10
395.6062209622009
 20
228.8775223161327
 30
0.0
 40
6.0
 41
0.0
 71
     5
 72
     1
  1
\A1;63
 11
6.123031769111886E-17
 21
1.0
 31
0.0
 73
     1
 44
1.0
  0
POINT
  5
6CD7
330
6C39
100
AcDbEntity
  8
DEFPOINTS
 62
     0
100
AcDbPoint
 10
424.944760355886
 20
260.29824826808
 30
0.0
  0
POINT
  5
6CD8
330
6C39
100
AcDbEntity
  8
DEFPOINTS
 62
     0
100
AcDbPoint
 10
422.824083455886
 20
197.4567963641852
 30
0.0
  0
POINT
  5
6CD9
330
6C39
100
AcDbEntity
  8
DEFPOINTS
 62
     0
100
AcDbPoint
 10
400.606220962201
 20
197.4567963641852
 30
0.0
  0
ENDBLK
  5
6C44
330
6C39
100
AcDbEntity
  8
0
100
AcDbBlockEnd
  0
BLOCK
  5
6C4F
330
6C45
100
AcDbEntity
  8
0
100
AcDbBlockBegin
  2
*D2
 70
     1
 71
     0
 10
0.0
 20
0.0
 30
0.0
  3
*D2
  1

  0
LINE
  5
6CDA
330
6C45
100
AcDbEntity
  8
SUNPOU
370
    -2
100
AcDbLine
 10
294.277812955886
 20
317.83949856808
 30
0.0
 11
294.277812955886
 21
374.756704877756
 31
0.0
  0
LINE
  5
6CDB
330
6C45
100
AcDbEntity
  8
SUNPOU
370
    -2
100
AcDbLine
 10
433.037653555886
 20
264.99824826808
 30
0.0
 11
433.037653555886
 21
374.756704877756
 31
0.0
  0
LINE
  5
6CDC
330
6C45
100
AcDbEntity
  8
SUNPOU
370
    -2
100
AcDbLine
 10
300.277812955886
 20
371.756704877756
 30
0.0
 11
427.037653555886
 21
371.756704877756
 31
0.0
  0
INSERT
  5
6CDD
330
6C45
100
AcDbEntity
  8
SUNPOU
370
    -2
100
AcDbBlockReference
  2
_OPEN
 10
294.277812955886
 20
371.756704877756
 30
0.0
 41
6.0
 42
6.0
 43
6.0
 50
180.0
  0
INSERT
  5
6CDE
330
6C45
100
AcDbEntity
  8
SUNPOU
370
    -2
100
AcDbBlockReference
  2
_OPEN
 10
433.037653555886
 20
371.756704877756
 30
0.0
 41
6.0
 42
6.0
 43
6.0
  0
MTEXT
  5
6CDF
330
6C45
100
AcDbEntity
  8
SUNPOU
100
AcDbMText
 10
363.657733255886
 20
376.756704877756
 30
0.0
 40
6.0
 41
0.0
 71
     5
 72
     1
  1
\A1;139
 73
     1
 44
1.0
  0
POINT
  5
6CE0
330
6C45
100
AcDbEntity
  8
DEFPOINTS
 62
     0
100
AcDbPoint
 10
294.277812955886
 20
311.83949856808
 30
0.0
  0
POINT
  5
6CE1
330
6C45
100
AcDbEntity
  8
DEFPOINTS
 62
     0
100
AcDbPoint
 10
433.037653555886
 20
258.99824826808
 30
0.0
  0
POINT
  5
6CE2
330
6C45
100
AcDbEntity
  8
DEFPOINTS
 62
     0
100
AcDbPoint
 10
433.037653555886
 20
371.756704877756
 30
0.0
  0
ENDBLK
  5
6C50
330
6C45
100
AcDbEntity
  8
0
100
AcDbBlockEnd
  0
BLOCK
  5
6C5B
330
6C51
100
AcDbEntity
  8
0
100
AcDbBlockBegin
  2
*D3
 70
     1
 71
     0
 10
0.0
 20
0.0
 30
0.0
  3
*D3
  1

  0
LINE
  5
6CE3
330
6C51
100
AcDbEntity
  8
SUNPOU
370
    -2
100
AcDbLine
 10
288.277812955886
 20
311.83949856808
 30
0.0
 11
256.5288121173671
 21
311.83949856808
 31
0.0
  0
LINE
  5
6CE4
330
6C51
100
AcDbEntity
  8
SUNPOU
370
    -2
100
AcDbLine
 10
327.733229255886
 20
197.45679636808
 30
0.0
 11
256.5288121173671
 21
197.45679636808
 31
0.0
  0
LINE
  5
6CE5
330
6C51
100
AcDbEntity
  8
SUNPOU
370
    -2
100
AcDbLine
 10
259.5288121173671
 20
305.83949856808
 30
0.0
 11
259.5288121173671
 21
203.45679636808
 31
0.0
  0
INSERT
  5
6CE6
330
6C51
100
AcDbEntity
  8
SUNPOU
370
    -2
100
AcDbBlockReference
  2
_OPEN
 10
259.5288121173671
 20
311.83949856808
 30
0.0
 41
6.0
 42
6.0
 43
6.0
 50
90.0
  0
INSERT
  5
6CE7
330
6C51
100
AcDbEntity
  8
SUNPOU
370
    -2
100
AcDbBlockReference
  2
_OPEN
 10
259.5288121173671
 20
197.45679636808
 30
0.0
 41
6.0
 42
6.0
 43
6.0
 50
270.0
  0
MTEXT
  5
6CE8
330
6C51
100
AcDbEntity
  8
SUNPOU
100
AcDbMText
 10
254.5288121173671
 20
254.6481474680801
 30
0.0
 40
6.0
 41
0.0
 71
     5
 72
     1
  1
\A1;114
 11
6.123031769111886E-17
 21
1.0
 31
0.0
 73
     1
 44
1.0
  0
POINT
  5
6CE9
330
6C51
100
AcDbEntity
  8
DEFPOINTS
 62
     0
100
AcDbPoint
 10
294.277812955886
 20
311.83949856808
 30
0.0
  0
POINT
  5
6CEA
330
6C51
100
AcDbEntity
  8
DEFPOINTS
 62
     0
100
AcDbPoint
 10
333.733229255886
 20
197.45679636808
 30
0.0
  0
POINT
  5
6CEB
330
6C51
100
AcDbEntity
  8
DEFPOINTS
 62
     0
100
AcDbPoint
 10
259.5288121173671
 20
197.45679636808
 30
0.0
  0
ENDBLK
  5
6C5C
330
6C51
100
AcDbEntity
  8
0
100
AcDbBlockEnd
  0
BLOCK
  5
6C67
330
6C5D
100
AcDbEntity
  8
0
100
AcDbBlockBegin
  2
*D4
 70
     1
 71
     0
 10
0.0
 20
0.0
 30
0.0
  3
*D4
  1

  0
LINE
  5
6CEC
330
6C5D
100
AcDbEntity
  8
SUNPOU
370
    -2
100
AcDbLine
 10
372.2786563558859
 20
197.45679636808
 30
0.0
 11
347.1113726960584
 21
197.45679636808
 31
0.0
  0
LINE
  5
6CED
330
6C5D
100
AcDbEntity
  8
SUNPOU
370
    -2
100
AcDbLine
 10
402.2785640630925
 20
154.6567873907519
 30
0.0
 11
347.1113726960584
 21
154.6567873907519
 31
0.0
  0
LINE
  5
6CEE
330
6C5D
100
AcDbEntity
  8
SUNPOU
370
    -2
100
AcDbLine
 10
350.1113726960584
 20
191.45679636808
 30
0.0
 11
350.1113726960584
 21
160.6567873907519
 31
0.0
  0
INSERT
  5
6CEF
330
6C5D
100
AcDbEntity
  8
SUNPOU
370
    -2
100
AcDbBlockReference
  2
_OPEN
 10
350.1113726960584
 20
197.45679636808
 30
0.0
 41
6.0
 42
6.0
 43
6.0
 50
90.0
  0
INSERT
  5
6CF0
330
6C5D
100
AcDbEntity
  8
SUNPOU
370
    -2
100
AcDbBlockReference
  2
_OPEN
 10
350.1113726960584
 20
154.6567873907519
 30
0.0
 41
6.0
 42
6.0
 43
6.0
 50
270.0
  0
MTEXT
  5
6CF1
330
6C5D
100
AcDbEntity
  8
SUNPOU
100
AcDbMText
 10
345.1113726960584
 20
176.056791879416
 30
0.0
 40
6.0
 41
0.0
 71
     5
 72
     1
  1
\A1;H
 11
6.123031769111886E-17
 21
1.0
 31
0.0
 73
     1
 44
1.0
  0
POINT
  5
6CF2
330
6C5D
100
AcDbEntity
  8
DEFPOINTS
 62
     0
100
AcDbPoint
 10
378.2786563558859
 20
197.45679636808
 30
0.0
  0
POINT
  5
6CF3
330
6C5D
100
AcDbEntity
  8
DEFPOINTS
 62
     0
100
AcDbPoint
 10
408.2785640630925
 20
154.6567873907519
 30
0.0
  0
POINT
  5
6CF4
330
6C5D
100
AcDbEntity
  8
DEFPOINTS
 62
     0
100
AcDbPoint
 10
350.1113726960584
 20
154.6567873907519
 30
0.0
  0
ENDBLK
  5
6C68
330
6C5D
100
AcDbEntity
  8
0
100
AcDbBlockEnd
  0
BLOCK
  5
6C73
330
6C69
100
AcDbEntity
  8
0
100
AcDbBlockBegin
  2
*D5
 70
     1
 71
     0
 10
0.0
 20
0.0
 30
0.0
  3
*D5
  1

  0
LINE
  5
6CF5
330
6C69
100
AcDbEntity
  8
SUNPOU
370
    -2
100
AcDbLine
 10
288.777812955886
 20
436.1365556066067
 30
0.0
 11
256.5288121173672
 21
436.1365556066067
 31
0.0
  0
LINE
  5
6CF6
330
6C69
100
AcDbEntity
  8
SUNPOU
370
    -2
100
AcDbLine
 10
288.777812955886
 20
411.1364802066068
 30
0.0
 11
256.5288121173672
 21
411.1364802066068
 31
0.0
  0
LINE
  5
6CF7
330
6C69
100
AcDbEntity
  8
SUNPOU
370
    -2
100
AcDbLine
 10
259.5288121173672
 20
430.1365556066067
 30
0.0
 11
259.5288121173672
 21
417.1364802066068
 31
0.0
  0
INSERT
  5
6CF8
330
6C69
100
AcDbEntity
  8
SUNPOU
370
    -2
100
AcDbBlockReference
  2
_OPEN
 10
259.5288121173672
 20
436.1365556066067
 30
0.0
 41
6.0
 42
6.0
 43
6.0
 50
90.0
  0
INSERT
  5
6CF9
330
6C69
100
AcDbEntity
  8
SUNPOU
370
    -2
100
AcDbBlockReference
  2
_OPEN
 10
259.5288121173672
 20
411.1364802066068
 30
0.0
 41
6.0
 42
6.0
 43
6.0
 50
270.0
  0
MTEXT
  5
6CFA
330
6C69
100
AcDbEntity
  8
SUNPOU
100
AcDbMText
 10
254.5288121173671
 20
423.6365179066068
 30
0.0
 40
6.0
 41
0.0
 71
     5
 72
     1
  1
\A1;25
 11
6.123031769111886E-17
 21
1.0
 31
0.0
 73
     1
 44
1.0
  0
POINT
  5
6CFB
330
6C69
100
AcDbEntity
  8
DEFPOINTS
 62
     0
100
AcDbPoint
 10
294.777812955886
 20
436.1365556066067
 30
0.0
  0
POINT
  5
6CFC
330
6C69
100
AcDbEntity
  8
DEFPOINTS
 62
     0
100
AcDbPoint
 10
294.777812955886
 20
411.1364802066068
 30
0.0
  0
POINT
  5
6CFD
330
6C69
100
AcDbEntity
  8
DEFPOINTS
 62
     0
100
AcDbPoint
 10
259.5288121173672
 20
411.1364802066068
 30
0.0
  0
ENDBLK
  5
6C74
330
6C69
100
AcDbEntity
  8
0
100
AcDbBlockEnd
  0
BLOCK
  5
6C81
330
6C75
100
AcDbEntity
  8
0
100
AcDbBlockBegin
  2
*D6
 70
     1
 71
     0
 10
0.0
 20
0.0
 30
0.0
  3
*D6
  1

  0
LINE
  5
6CFE
330
6C75
100
AcDbEntity
  8
SUNPOU
370
    -2
100
AcDbLine
 10
294.2352223519052
 20
317.8924471022809
 30
0.0
 11
290.5041951807924
 21
344.4475208676112
 31
0.0
  0
LINE
  5
6CFF
330
6C75
100
AcDbEntity
  8
SUNPOU
370
    -2
100
AcDbLine
 10
293.4430036519053
 20
317.7811392022809
 30
0.0
 11
289.7119764807924
 21
344.3362129676112
 31
0.0
  0
LINE
  5
6D00
330
6C75
100
AcDbEntity
  8
SUNPOU
370
    -2
100
AcDbLine
 10
293.8924201498832
 20
341.8941052025011
 30
0.0
 11
296.8632404669836
 21
342.3115098544914
 31
0.0
  0
LINE
  5
6D01
330
6C75
100
AcDbEntity
  8
SUNPOU
370
    -2
100
AcDbLine
 10
287.1585608156823
 20
340.9479879985204
 30
0.0
 11
263.3919982788788
 21
337.6087507825976
 31
0.0
  0
LINE
  5
6D02
330
6C75
100
AcDbEntity
  8
SUNPOU
370
    -2
100
AcDbLine
 10
290.9215998327827
 20
341.4767005505107
 30
0.0
 11
290.1293811327828
 21
341.3653926505107
 31
0.0
  0
INSERT
  5
6D03
330
6C75
100
AcDbEntity
  8
SUNPOU
370
    -2
100
AcDbBlockReference
  2
_OPEN
 10
290.9215998327827
 20
341.4767005505107
 30
0.0
 41
3.0
 42
3.0
 43
3.0
 50
187.9977888161466
  0
INSERT
  5
6D04
330
6C75
100
AcDbEntity
  8
SUNPOU
370
    -2
100
AcDbBlockReference
  2
_OPEN
 10
290.1293811327828
 20
341.3653926505107
 30
0.0
 41
3.0
 42
3.0
 43
3.0
 50
7.997788816146583
  0
MTEXT
  5
6D05
330
6C75
100
AcDbEntity
  8
SUNPOU
100
AcDbMText
 10
273.0941949687464
 20
344.0210342597312
 30
0.0
 40
6.0
 41
0.0
 71
     5
 72
     1
  1
\A1;t0.8
 11
0.9902734390334829
 21
0.139134883996785
 31
0.0
 73
     1
 44
1.0
  0
POINT
  5
6D06
330
6C75
100
AcDbEntity
  8
DEFPOINTS
 62
     0
100
AcDbPoint
 10
295.0700316558859
 20
311.95080646808
 30
0.0
  0
POINT
  5
6D07
330
6C75
100
AcDbEntity
  8
DEFPOINTS
 62
     0
100
AcDbPoint
 10
294.277812955886
 20
311.83949856808
 30
0.0
  0
POINT
  5
6D08
330
6C75
100
AcDbEntity
  8
DEFPOINTS
 62
     0
100
AcDbPoint
 10
290.1293811327828
 20
341.3653926505107
 30
0.0
  0
ENDBLK
  5
6C82
330
6C75
100
AcDbEntity
  8
0
100
AcDbBlockEnd
  0
BLOCK
  5
6C8D
330
6C83
100
AcDbEntity
  8
0
100
AcDbBlockBegin
  2
*D7
 70
     1
 71
     0
 10
0.0
 20
0.0
 30
0.0
  3
*D7
  1

  0
LINE
  5
6D09
330
6C83
100
AcDbEntity
  8
SUNPOU
370
    -2
100
AcDbLine
 10
166.6571286702014
 20
316.83949816808
 30
0.0
 11
166.6571286702014
 21
361.6359356996488
 31
0.0
  0
LINE
  5
6D0A
330
6C83
100
AcDbEntity
  8
SUNPOU
370
    -2
100
AcDbLine
 10
191.6572040702014
 20
316.83949816808
 30
0.0
 11
191.6572040702014
 21
361.6359356996488
 31
0.0
  0
LINE
  5
6D0B
330
6C83
100
AcDbEntity
  8
SUNPOU
370
    -2
100
AcDbLine
 10
172.6571286702014
 20
358.6359356996488
 30
0.0
 11
185.6572040702014
 21
358.6359356996488
 31
0.0
  0
INSERT
  5
6D0C
330
6C83
100
AcDbEntity
  8
SUNPOU
370
    -2
100
AcDbBlockReference
  2
_OPEN
 10
166.6571286702014
 20
358.6359356996488
 30
0.0
 41
6.0
 42
6.0
 43
6.0
 50
180.0
  0
INSERT
  5
6D0D
330
6C83
100
AcDbEntity
  8
SUNPOU
370
    -2
100
AcDbBlockReference
  2
_OPEN
 10
191.6572040702014
 20
358.6359356996488
 30
0.0
 41
6.0
 42
6.0
 43
6.0
  0
MTEXT
  5
6D0E
330
6C83
100
AcDbEntity
  8
SUNPOU
100
AcDbMText
 10
179.1571663702014
 20
363.6359356996488
 30
0.0
 40
6.0
 41
0.0
 71
     5
 72
     1
  1
\A1;25
 73
     1
 44
1.0
  0
POINT
  5
6D0F
330
6C83
100
AcDbEntity
  8
DEFPOINTS
 62
     0
100
AcDbPoint
 10
166.6571286702014
 20
310.83949816808
 30
0.0
  0
POINT
  5
6D10
330
6C83
100
AcDbEntity
  8
DEFPOINTS
 62
     0
100
AcDbPoint
 10
191.6572040702014
 20
310.83949816808
 30
0.0
  0
POINT
  5
6D11
330
6C83
100
AcDbEntity
  8
DEFPOINTS
 62
     0
100
AcDbPoint
 10
191.6572040702014
 20
358.6359356996488
 30
0.0
  0
ENDBLK
  5
6C8E
330
6C83
100
AcDbEntity
  8
0
100
AcDbBlockEnd
  0
BLOCK
  5
6C99
330
6C8F
100
AcDbEntity
  8
0
100
AcDbBlockBegin
  2
*D8
 70
     1
 71
     0
 10
0.0
 20
0.0
 30
0.0
  3
*D8
  1

  0
LINE
  5
6D12
330
6C8F
100
AcDbEntity
  8
SUNPOU
  6
Continuous
 62
     4
370
    -2
100
AcDbLine
 10
518.1458350904679
 20
247.4870751899982
 30
0.0
 11
506.7175944851845
 21
276.0598730937547
 31
0.0
  0
LINE
  5
6D13
330
6C8F
100
AcDbEntity
  8
SUNPOU
  6
Continuous
 62
     4
370
    -2
100
AcDbLine
 10
573.8549585185795
 20
269.7690116174487
 30
0.0
 11
562.426717913296
 21
298.3418095212052
 31
0.0
  0
LINE
  5
6D14
330
6C8F
100
AcDbEntity
  8
SUNPOU
  6
Continuous
 62
     4
370
    -2
100
AcDbLine
 10
514.3310984255105
 20
275.8739759430505
 30
0.0
 11
557.0414103625611
 21
292.9567874614547
 31
0.0
  0
INSERT
  5
6D15
330
6C8F
100
AcDbEntity
  8
SUNPOU
  6
Continuous
 62
     4
370
    -2
100
AcDbBlockReference
  2
_OPEN
 10
507.8316926799801
 20
273.2744134885274
 30
0.0
 41
7.0
 42
7.0
 43
7.0
 50
201.7998907372442
  0
INSERT
  5
6D16
330
6C8F
100
AcDbEntity
  8
SUNPOU
  6
Continuous
 62
     4
370
    -2
100
AcDbBlockReference
  2
_OPEN
 10
563.5408161080916
 20
295.5563499159779
 30
0.0
 41
7.0
 42
7.0
 43
7.0
 50
21.79989073724417
  0
MTEXT
  5
6D17
330
6C8F
100
AcDbEntity
  8
SUNPOU
  6
Continuous
 62
     4
100
AcDbMText
 10
535.5312084469721
 20
289.7384758022139
 30
0.0
 40
6.0
 41
0.0
 71
     5
 72
     1
  1
\A1;60
 11
0.9284865350757711
 21
0.3713660649318795
 31
0.0
 73
     1
 44
1.0
  0
POINT
  5
6D18
330
6C8F
100
AcDbEntity
  8
DEFPOINTS
  6
Continuous
 62
     0
100
AcDbPoint
 10
520.3740314800592
 20
241.9161559795436
 30
0.0
  0
POINT
  5
6D19
330
6C8F
100
AcDbEntity
  8
DEFPOINTS
  6
Continuous
 62
     0
100
AcDbPoint
 10
576.0831549081707
 20
264.1980924069941
 30
0.0
  0
POINT
  5
6D1A
330
6C8F
100
AcDbEntity
  8
DEFPOINTS
  6
Continuous
 62
     0
100
AcDbPoint
 10
563.5408161080916
 20
295.5563499159779
 30
0.0
  0
ENDBLK
  5
6C9A
330
6C8F
100
AcDbEntity
  8
0
100
AcDbBlockEnd
  0
BLOCK
  5
6CA7
330
6C9B
100
AcDbEntity
  8
0
100
AcDbBlockBegin
  2
*D9
 70
     1
 71
     0
 10
0.0
 20
0.0
 30
0.0
  3
*D9
  1

  0
LINE
  5
6D1B
330
6C9B
100
AcDbEntity
  8
SUNPOU
  6
Continuous
 62
     4
370
    -2
100
AcDbLine
 10
573.8549585185789
 20
269.7690116174485
 30
0.0
 11
562.4267179132952
 21
298.3418095212048
 31
0.0
  0
LINE
  5
6D1C
330
6C9B
100
AcDbEntity
  8
SUNPOU
  6
Continuous
 62
     4
370
    -2
100
AcDbLine
 10
583.1398750644881
 20
273.4826927432539
 30
0.0
 11
571.7116344592045
 21
302.0554906470102
 31
0.0
  0
LINE
  5
6D1D
330
6C9B
100
AcDbEntity
  8
SUNPOU
  6
Continuous
 62
     4
370
    -2
100
AcDbLine
 10
557.0414103625606
 20
292.9567874614543
 30
0.0
 11
550.5420046170301
 21
290.3572250069311
 31
0.0
  0
LINE
  5
6D1E
330
6C9B
100
AcDbEntity
  8
SUNPOU
  6
Continuous
 62
     4
370
    -2
100
AcDbLine
 10
579.3251383995306
 20
301.8695934963061
 30
0.0
 11
596.0378960308944
 21
308.5541826650801
 31
0.0
  0
LINE
  5
6D1F
330
6C9B
100
AcDbEntity
  8
SUNPOU
  6
Continuous
 62
     4
370
    -2
100
AcDbLine
 10
563.5408161080909
 20
295.5563499159775
 30
0.0
 11
572.8257326540002
 21
299.2700310417829
 31
0.0
  0
INSERT
  5
6D20
330
6C9B
100
AcDbEntity
  8
SUNPOU
  6
Continuous
 62
     4
370
    -2
100
AcDbBlockReference
  2
_OPEN
 10
563.5408161080909
 20
295.5563499159775
 30
0.0
 41
7.0
 42
7.0
 43
7.0
 50
21.79989073724465
  0
INSERT
  5
6D21
330
6C9B
100
AcDbEntity
  8
SUNPOU
  6
Continuous
 62
     4
370
    -2
100
AcDbBlockReference
  2
_OPEN
 10
572.8257326540002
 20
299.2700310417829
 30
0.0
 41
7.0
 42
7.0
 43
7.0
 50
201.7998907372446
  0
MTEXT
  5
6D22
330
6C9B
100
AcDbEntity
  8
SUNPOU
  6
Continuous
 62
     4
100
AcDbMText
 10
589.0743897633182
 20
311.1541019833335
 30
0.0
 40
6.0
 41
0.0
 71
     5
 72
     1
  1
\A1;10
 11
0.9284865350757681
 21
0.371366064931887
 31
0.0
 73
     1
 44
1.0
  0
POINT
  5
6D23
330
6C9B
100
AcDbEntity
  8
DEFPOINTS
  6
Continuous
 62
     0
100
AcDbPoint
 10
576.0831549081703
 20
264.1980924069939
 30
0.0
  0
POINT
  5
6D24
330
6C9B
100
AcDbEntity
  8
DEFPOINTS
  6
Continuous
 62
     0
100
AcDbPoint
 10
585.3680714540795
 20
267.9117735327993
 30
0.0
  0
POINT
  5
6D25
330
6C9B
100
AcDbEntity
  8
DEFPOINTS
  6
Continuous
 62
     0
100
AcDbPoint
 10
572.8257326540002
 20
299.2700310417829
 30
0.0
  0
ENDBLK
  5
6CA8
330
6C9B
100
AcDbEntity
  8
0
100
AcDbBlockEnd
  0
BLOCK
  5
6CB5
330
6CA9
100
AcDbEntity
  8
0
100
AcDbBlockBegin
  2
*D10
 70
     1
 71
     0
 10
0.0
 20
0.0
 30
0.0
  3
*D10
  1

  0
LINE
  5
6D26
330
6CA9
100
AcDbEntity
  8
SUNPOU
  6
Continuous
 62
     4
370
    -2
100
AcDbLine
 10
590.9389917857652
 20
270.139967119097
 30
0.0
 11
620.6508636407514
 21
282.0237849377858
 31
0.0
  0
LINE
  5
6D27
330
6CA9
100
AcDbEntity
  8
SUNPOU
  6
Continuous
 62
     4
370
    -2
100
AcDbLine
 10
595.0239917857651
 20
259.9266671190965
 30
0.0
 11
624.7358636407514
 21
271.8104849377854
 31
0.0
  0
LINE
  5
6D28
330
6CA9
100
AcDbEntity
  8
SUNPOU
  6
Continuous
 62
     4
370
    -2
100
AcDbLine
 10
615.265844290895
 20
287.4090951982697
 30
0.0
 11
612.6662851068811
 21
293.9085022519023
 31
0.0
  0
LINE
  5
6D29
330
6CA9
100
AcDbEntity
  8
SUNPOU
  6
Continuous
 62
     4
370
    -2
100
AcDbLine
 10
624.5499626589226
 20
264.196981091004
 30
0.0
 11
627.1495218429365
 21
257.6975740373714
 31
0.0
  0
LINE
  5
6D2A
330
6CA9
100
AcDbEntity
  8
SUNPOU
  6
Continuous
 62
     4
370
    -2
100
AcDbLine
 10
617.8654034749088
 20
280.909688144637
 30
0.0
 11
621.9504034749089
 21
270.6963881446366
 31
0.0
  0
INSERT
  5
6D2B
330
6CA9
100
AcDbEntity
  8
SUNPOU
  6
Continuous
 62
     4
370
    -2
100
AcDbBlockReference
  2
_OPEN
 10
617.8654034749088
 20
280.909688144637
 30
0.0
 41
7.0
 42
7.0
 43
7.0
 50
291.7998619059371
  0
INSERT
  5
6D2C
330
6CA9
100
AcDbEntity
  8
SUNPOU
  6
Continuous
 62
     4
370
    -2
100
AcDbBlockReference
  2
_OPEN
 10
621.9504034749089
 20
270.6963881446366
 30
0.0
 41
7.0
 42
7.0
 43
7.0
 50
111.7998619059372
  0
MTEXT
  5
6D2D
330
6CA9
100
AcDbEntity
  8
SUNPOU
  6
Continuous
 62
     4
100
AcDbMText
 10
624.5503370846465
 20
277.6598661332182
 30
0.0
 40
6.0
 41
0.0
 71
     5
 72
     1
  1
\A1;11
 11
0.3713655977162611
 21
-0.9284867219475161
 31
0.0
 73
     1
 44
1.0
  0
POINT
  5
6D2E
330
6CA9
100
AcDbEntity
  8
DEFPOINTS
  6
Continuous
 62
     0
100
AcDbPoint
 10
585.3680714540801
 20
267.9117735327994
 30
0.0
  0
POINT
  5
6D2F
330
6CA9
100
AcDbEntity
  8
DEFPOINTS
  6
Continuous
 62
     0
100
AcDbPoint
 10
589.45307145408
 20
257.698473532799
 30
0.0
  0
POINT
  5
6D30
330
6CA9
100
AcDbEntity
  8
DEFPOINTS
  6
Continuous
 62
     0
100
AcDbPoint
 10
621.9504034749089
 20
270.6963881446366
 30
0.0
  0
ENDBLK
  5
6CB6
330
6CA9
100
AcDbEntity
  8
0
100
AcDbBlockEnd
  0
BLOCK
  5
6CC3
330
6CB7
100
AcDbEntity
  8
0
100
AcDbBlockBegin
  2
*D11
 70
     1
 71
     0
 10
0.0
 20
0.0
 30
0.0
  3
*D11
  1

  0
LINE
  5
6D31
330
6CB7
100
AcDbEntity
  8
SUNPOU
  6
Continuous
 62
     4
370
    -2
100
AcDbLine
 10
592.270079798982
 20
425.3865179066069
 30
0.0
 11
616.0286911286663
 21
425.3865179066069
 31
0.0
  0
LINE
  5
6D32
330
6CB7
100
AcDbEntity
  8
SUNPOU
  6
Continuous
 62
     4
370
    -2
100
AcDbLine
 10
592.270079798982
 20
421.886517906607
 30
0.0
 11
616.0286911286663
 21
421.886517906607
 31
0.0
  0
LINE
  5
6D33
330
6CB7
100
AcDbEntity
  8
SUNPOU
  6
Continuous
 62
     4
370
    -2
100
AcDbLine
 10
613.0286911286663
 20
432.3865179066069
 30
0.0
 11
613.0286911286663
 21
439.3865179066069
 31
0.0
  0
LINE
  5
6D34
330
6CB7
100
AcDbEntity
  8
SUNPOU
  6
Continuous
 62
     4
370
    -2
100
AcDbLine
 10
613.0286911286663
 20
414.886517906607
 30
0.0
 11
613.0286911286663
 21
385.886517906607
 31
0.0
  0
LINE
  5
6D35
330
6CB7
100
AcDbEntity
  8
SUNPOU
  6
Continuous
 62
     4
370
    -2
100
AcDbLine
 10
613.0286911286663
 20
425.3865179066069
 30
0.0
 11
613.0286911286663
 21
421.886517906607
 31
0.0
  0
INSERT
  5
6D36
330
6CB7
100
AcDbEntity
  8
SUNPOU
  6
Continuous
 62
     4
370
    -2
100
AcDbBlockReference
  2
_OPEN
 10
613.0286911286663
 20
425.3865179066069
 30
0.0
 41
7.0
 42
7.0
 43
7.0
 50
270.0
  0
INSERT
  5
6D37
330
6CB7
100
AcDbEntity
  8
SUNPOU
  6
Continuous
 62
     4
370
    -2
100
AcDbBlockReference
  2
_OPEN
 10
613.0286911286663
 20
421.886517906607
 30
0.0
 41
7.0
 42
7.0
 43
7.0
 50
90.0
  0
MTEXT
  5
6D38
330
6CB7
100
AcDbEntity
  8
SUNPOU
  6
Continuous
 62
     4
100
AcDbMText
 10
608.0286911286662
 20
396.886517906607
 30
0.0
 40
6.0
 41
0.0
 71
     5
 72
     1
  1
\A1;{t3.5}
 11
6.123031769111886E-17
 21
1.0
 31
0.0
 73
     1
 44
1.0
  0
POINT
  5
6D39
330
6CB7
100
AcDbEntity
  8
DEFPOINTS
  6
Continuous
 62
     0
100
AcDbPoint
 10
586.270079798982
 20
425.3865179066069
 30
0.0
  0
POINT
  5
6D3A
330
6CB7
100
AcDbEntity
  8
DEFPOINTS
  6
Continuous
 62
     0
100
AcDbPoint
 10
586.270079798982
 20
421.886517906607
 30
0.0
  0
POINT
  5
6D3B
330
6CB7
100
AcDbEntity
  8
DEFPOINTS
  6
Continuous
 62
     0
100
AcDbPoint
 10
613.0286911286663
 20
421.886517906607
 30
0.0
  0
ENDBLK
  5
6CC4
330
6CB7
100
AcDbEntity
  8
0
100
AcDbBlockEnd
  0
BLOCK
  5
6CCF
330
6CC5
100
AcDbEntity
  8
0
100
AcDbBlockBegin
  2
*D12
 70
     1
 71
     0
 10
0.0
 20
0.0
 30
0.0
  3
*D12
  1

  0
LINE
  5
6D3C
330
6CC5
100
AcDbEntity
  8
SUNPOU
370
    -2
100
AcDbLine
 10
591.6812690000043
 20
252.1275547848421
 30
0.0
 11
613.7788166125368
 21
196.8794720896129
 31
0.0
  0
LINE
  5
6D3D
330
6CC5
100
AcDbEntity
  8
SUNPOU
370
    -2
100
AcDbLine
 10
387.4142581042106
 20
170.4269820457035
 30
0.0
 11
409.5118057167431
 21
115.1788993504744
 31
0.0
  0
LINE
  5
6D3E
330
6CC5
100
AcDbEntity
  8
SUNPOU
370
    -2
100
AcDbLine
 10
607.0937990916179
 20
197.4367339176671
 30
0.0
 11
413.9686256917379
 21
120.1925562703771
 31
0.0
  0
INSERT
  5
6D3F
330
6CC5
100
AcDbEntity
  8
SUNPOU
370
    -2
100
AcDbBlockReference
  2
_OPEN
 10
612.6647178395748
 20
199.6649314635913
 30
0.0
 41
6.0
 42
6.0
 43
6.0
 50
21.79990262989543
  0
INSERT
  5
6D40
330
6CC5
100
AcDbEntity
  8
SUNPOU
370
    -2
100
AcDbBlockReference
  2
_OPEN
 10
408.397706943781
 20
117.9643587244529
 30
0.0
 41
6.0
 42
6.0
 43
6.0
 50
201.7999026298954
  0
MTEXT
  5
6D41
330
6CC5
100
AcDbEntity
  8
SUNPOU
100
AcDbMText
 10
508.6743811034077
 20
163.4570773839861
 30
0.0
 40
6.0
 41
0.0
 71
     5
 72
     1
  1
\A1;220
 11
0.9284864579928118
 21
0.3713662576540343
 31
0.0
 73
     1
 44
1.0
  0
POINT
  5
6D42
330
6CC5
100
AcDbEntity
  8
DEFPOINTS
 62
     0
100
AcDbPoint
 10
589.45307145408
 20
257.698473532799
 30
0.0
  0
POINT
  5
6D43
330
6CC5
100
AcDbEntity
  8
DEFPOINTS
 62
     0
100
AcDbPoint
 10
385.1860605582864
 20
175.9979007936604
 30
0.0
  0
POINT
  5
6D44
330
6CC5
100
AcDbEntity
  8
DEFPOINTS
 62
     0
100
AcDbPoint
 10
408.397706943781
 20
117.9643587244529
 30
0.0
  0
ENDBLK
  5
6CD0
330
6CC5
100
AcDbEntity
  8
0
100
AcDbBlockEnd
  0
ENDSEC
  0
SECTION
  2
ENTITIES
  0
LINE
  5
3EF3
330
1A
100
AcDbEntity
  8
ZUWAKU
100
AcDbLine
 10
208.646601303624
 20
15.19999986828872
 30
0.0
 11
447.4243639845474
 21
15.19999986828871
 31
0.0
  0
LINE
  5
3EF4
330
1A
100
AcDbEntity
  8
ZUWAKU
100
AcDbLine
 10
208.646601303624
 20
15.59999986828872
 30
0.0
 11
447.4243639845474
 21
15.59999986828872
 31
0.0
  0
LINE
  5
3EF5
330
1A
100
AcDbEntity
  8
ZUWAKU
100
AcDbLine
 10
208.646601303624
 20
15.39999986828872
 30
0.0
 11
447.4243639845474
 21
15.39999986828872
 31
0.0
  0
LINE
  5
3EF6
330
1A
100
AcDbEntity
  8
ZUWAKU
100
AcDbLine
 10
0.0000000135560185
 20
30.79999986828869
 30
0.0
 11
797.4000000135559
 21
30.79999986828869
 31
0.0
  0
LINE
  5
3EF7
330
1A
100
AcDbEntity
  8
ZUWAKU
100
AcDbLine
 10
0.0000000135560185
 20
30.59999986828869
 30
0.0
 11
797.4000000135559
 21
30.59999986828869
 31
0.0
  0
LINE
  5
3EF8
330
1A
100
AcDbEntity
  8
ZUWAKU
100
AcDbLine
 10
0.0000000135560185
 20
30.39999986828869
 30
0.0
 11
797.4000000135559
 21
30.39999986828869
 31
0.0
  0
LINE
  5
3EF9
330
1A
100
AcDbEntity
  8
ZUWAKU
100
AcDbLine
 10
0.0000000135560185
 20
30.19999986828869
 30
0.0
 11
797.4000000135559
 21
30.19999986828869
 31
0.0
  0
LINE
  5
3EFA
330
1A
100
AcDbEntity
  8
ZUWAKU
100
AcDbLine
 10
0.0000000135560185
 20
29.99999986828868
 30
0.0
 11
797.4000000135559
 21
29.99999986828868
 31
0.0
  0
LWPOLYLINE
  5
3EFB
330
1A
100
AcDbEntity
  8
ZUWAKU
100
AcDbPolyline
 90
        4
 70
     1
 43
0.0
 10
0.2000000135559503
 20
551.3999998682888
 10
0.2000000135559503
 20
0.1999998682887281
 10
797.4000000135559
 20
0.1999998682887512
 10
797.4000000135561
 20
551.3999998682888
  0
LWPOLYLINE
  5
3EFC
330
1A
100
AcDbEntity
  8
ZUWAKU
100
AcDbPolyline
 90
        4
 70
     1
 43
0.0
 10
0.6000000135559276
 20
550.9999998682888
 10
0.6000000135559276
 20
0.5999998682887053
 10
797.0000000135563
 20
0.5999998682887515
 10
797.000000013556
 20
550.9999998682888
  0
LWPOLYLINE
  5
3EFD
330
1A
100
AcDbEntity
  8
ZUWAKU
100
AcDbPolyline
 90
        4
 70
     1
 43
0.0
 10
0.0000000135560185
 20
551.5999998682887
 10
0.0000000135560185
 20
-0.0000001317113174
 10
797.6000000135562
 20
-0.0000001317112499
 10
797.6000000135562
 20
551.5999998682888
  0
LWPOLYLINE
  5
3EFE
330
1A
100
AcDbEntity
  8
ZUWAKU
100
AcDbPolyline
 90
        4
 70
     1
 43
0.0
 10
0.4000000135559958
 20
551.1999998682887
 10
0.4000000135559958
 20
0.3999998682887735
 10
797.2000000135561
 20
0.3999998682887505
 10
797.2000000135561
 20
551.1999998682887
  0
LWPOLYLINE
  5
3EFF
330
1A
100
AcDbEntity
  8
ZUWAKU
100
AcDbPolyline
 90
        4
 70
     1
 43
0.0
 10
0.8000000135559731
 20
550.7999998682888
 10
0.8000000135559731
 20
0.7999998682887508
 10
796.800000013556
 20
0.7999998682887508
 10
796.800000013556
 20
550.7999998682888
  0
TEXT
  5
3F00
330
1A
100
AcDbEntity
  8
moji
100
AcDbText
 10
92.95778960172515
 20
12.74117799856344
 30
0.0
 40
6.0
  1
アーバントップΣ９０
 41
0.9
  7
ｽﾀｲﾙ1
100
AcDbText
  0
HATCH
  5
3F01
330
1A
100
AcDbEntity
  8
ZUWAKU
100
AcDbHatch
 10
0.0
 20
0.0
 30
0.0
210
0.0
220
0.0
230
1.0
  2
ANSI37
 70
     0
 71
     0
 91
        8
 92
        7
 72
     1
 73
     1
 93
       24
 10
14.50226267467588
 20
17.64484834927227
 42
-0.1989123673796348
 10
14.09221216833714
 20
18.63479784293332
 42
0.0
 10
14.09221216833714
 20
19.92499986828869
 42
-0.4142135623730912
 10
14.61721216833712
 20
20.44999986828869
 42
0.0
 10
17.59221216833703
 20
20.44999986828869
 42
0.4142135623731546
 10
18.11721216833712
 20
20.97499986828868
 42
0.0
 10
18.11721216833712
 20
22.72499986828869
 42
0.4142135623731586
 10
17.59221216833703
 20
23.24999986828869
 42
0.0
 10
14.09221216833714
 20
23.24999986828869
 42
0.4142135623730928
 10
11.29221216833719
 20
20.44999986828871
 42
0.0
 10
11.29221216833719
 20
18.63479784293345
 42
0.1989123673796619
 10
12.52236368735362
 20
15.66494936194984
 42
0.0
 10
15.43216166199829
 20
12.75515138730518
 42
-0.1989123673796613
 10
15.84221216833714
 20
11.76520189364399
 42
0.0
 10
15.84221216833714
 20
10.47499986828868
 42
-0.4142135623730911
 10
15.31721216833716
 20
9.949999868288685
 42
0.0
 10
12.34221216833726
 20
9.949999868288685
 42
0.4142135623731526
 10
11.81721216833716
 20
9.424999868288698
 42
0.0
 10
11.81721216833716
 20
7.674999868288676
 42
0.4142135623731526
 10
12.34221216833726
 20
7.149999868288688
 42
0.0
 10
15.84221216833714
 20
7.149999868288688
 42
0.4142135623731044
 10
18.64221216833721
 20
9.949999868288664
 42
0.0
 10
18.64221216833721
 20
11.76520189364394
 42
0.1989123673796604
 10
17.41206064932067
 20
14.73505037462748
 42
0.0
 97
        0
 92
        7
 72
     1
 73
     1
 93
       16
 10
23.54221216833719
 20
19.04999986828869
 42
-0.4142135623730935
 10
24.94221216833716
 20
20.44999986828869
 42
0.0
 10
26.86721216833712
 20
20.44999986828869
 42
0.4142135623731546
 10
27.39221216833721
 20
20.97499986828868
 42
0.0
 10
27.39221216833721
 20
22.72499986828869
 42
0.4142135623730952
 10
26.86721216833723
 20
23.24999986828869
 42
0.0
 10
24.94221216833705
 20
23.24999986828865
 42
0.4142135623730892
 10
20.74221216833712
 20
19.04999986828862
 42
0.0
 10
20.74221216833712
 20
11.34999986828871
 42
0.4142135623730969
 10
24.94221216833716
 20
7.149999868288688
 42
0.0
 10
26.86721216833712
 20
7.149999868288688
 42
0.4142135623731526
 10
27.39221216833721
 20
7.674999868288676
 42
0.0
 10
27.39221216833721
 20
9.424999868288698
 42
0.414213562373089
 10
26.86721216833723
 20
9.949999868288685
 42
0.0
 10
24.94221216833716
 20
9.949999868288685
 42
-0.4142135623730928
 10
23.54221216833719
 20
11.34999986828867
 42
0.0
 97
        0
 92
        7
 72
     1
 73
     1
 93
        2
 10
24.24221216833712
 20
15.19999986828869
 42
1.0
 10
27.74221216833712
 20
15.19999986828869
 42
1.0
 97
        0
 92
        7
 72
     1
 73
     1
 93
       26
 10
37.31485865051513
 20
19.20504706185211
 42
0.0
 10
38.37649828365295
 20
22.5669059001217
 42
0.5069206636600134
 10
37.87586738445759
 20
23.24999986828869
 42
0.0
 10
36.17697800484837
 20
23.24999986828869
 42
0.3272098845218764
 10
35.67634710565301
 20
22.88309383645566
 42
0.0
 10
33.80807723102123
 20
16.96690590012177
 42
-0.3272098845219541
 10
33.30744633182576
 20
16.59999986828868
 42
0.0
 10
33.1672121683373
 20
16.59999986828868
 42
-0.4142135623731526
 10
32.64221216833721
 20
17.12499986828867
 42
0.0
 10
32.64221216833721
 20
22.72499986828869
 42
0.4142135623730952
 10
32.11721216833723
 20
23.24999986828869
 42
0.0
 10
30.36721216833712
 20
23.24999986828869
 42
0.4142135623730872
 10
29.84221216833714
 20
22.72499986828871
 42
0.0
 10
29.84221216833714
 20
7.674999868288676
 42
0.414213562373089
 10
30.36721216833712
 20
7.149999868288688
 42
0.0
 10
32.11721216833712
 20
7.149999868288688
 42
0.4142135623731526
 10
32.64221216833721
 20
7.674999868288676
 42
0.0
 10
32.64221216833721
 20
13.2749998682887
 42
-0.4142135623731526
 10
33.1672121683373
 20
13.79999986828869
 42
0.0
 10
33.30744633182587
 20
13.79999986828869
 42
-0.3272098845218915
 10
33.80807723102123
 20
13.43309383645561
 42
0.0
 10
35.67634710565301
 20
7.51690590012176
 42
0.3272098845218902
 10
36.17697800484837
 20
7.149999868288688
 42
0.0
 10
37.87586738445759
 20
7.149999868288688
 42
0.5069206636600334
 10
38.37649828365295
 20
7.833093836455696
 42
0.0
 10
36.05010690517929
 20
15.19999986828882
 42
0.0
 97
        0
 92
        7
 72
     1
 73
     1
 93
        8
 10
43.49221216833712
 20
22.7249998682887
 42
0.4142135623731546
 10
42.96721216833703
 20
23.24999986828869
 42
0.0
 10
41.21721216833726
 20
23.24999986828869
 42
0.4142135623731506
 10
40.69221216833716
 20
22.72499986828871
 42
0.0
 10
40.69221216833716
 20
7.674999868288676
 42
0.4142135623731526
 10
41.21721216833726
 20
7.149999868288688
 42
0.0
 10
42.96721216833703
 20
7.149999868288688
 42
0.4142135623731526
 10
43.49221216833712
 20
7.674999868288676
 42
0.0
 97
        0
 92
        7
 72
     1
 73
     1
 93
       24
 10
48.39221216833721
 20
19.92499986828869
 42
-0.4142135623731547
 10
48.9172121683373
 20
20.44999986828869
 42
0.0
 10
51.89221216833721
 20
20.44999986828869
 42
0.4142135623730911
 10
52.41721216833719
 20
20.97499986828868
 42
0.0
 10
52.41721216833719
 20
22.72499986828869
 42
0.4142135623730952
 10
51.89221216833721
 20
23.24999986828869
 42
0.0
 10
48.39221216833721
 20
23.24999986828869
 42
0.4142135623731048
 10
45.59221216833714
 20
20.44999986828871
 42
0.0
 10
45.59221216833714
 20
18.63479784293345
 42
0.1989123673796613
 10
46.82236368735369
 20
15.66494936194989
 42
0.0
 10
49.73216166199836
 20
12.75515138730523
 42
-0.1989123673796402
 10
50.14221216833721
 20
11.76520189364415
 42
0.0
 10
50.14221216833721
 20
10.47499986828868
 42
-0.4142135623730911
 10
49.61721216833723
 20
9.949999868288685
 42
0.0
 10
46.64221216833721
 20
9.949999868288685
 42
0.4142135623731526
 10
46.11721216833712
 20
9.424999868288698
 42
0.0
 10
46.11721216833712
 20
7.674999868288676
 42
0.414213562373089
 10
46.6422121683371
 20
7.149999868288688
 42
0.0
 10
50.14221216833721
 20
7.149999868288688
 42
0.4142135623730925
 10
52.94221216833716
 20
9.949999868288664
 42
0.0
 10
52.94221216833716
 20
11.76520189364394
 42
0.1989123673796675
 10
51.71206064932062
 20
14.73505037462759
 42
0.0
 10
48.80226267467606
 20
17.64484834927211
 42
-0.1989123673796653
 10
48.39221216833721
 20
18.63479784293327
 42
0.0
 97
        0
 92
        7
 72
     1
 73
     1
 93
       16
 10
57.84221216833714
 20
22.72499986828868
 42
0.414213562373103
 10
57.31721216833716
 20
23.24999986828869
 42
0.0
 10
55.56721216833716
 20
23.24999986828869
 42
0.4142135623730872
 10
55.04221216833719
 20
22.72499986828871
 42
0.0
 10
55.04221216833719
 20
9.949999868288664
 42
0.4142135623730925
 10
57.84221216833714
 20
7.149999868288688
 42
0.0
 10
61.34221216833714
 20
7.149999868288688
 42
0.4142135623731044
 10
64.14221216833721
 20
9.949999868288664
 42
0.0
 10
64.14221216833721
 20
22.72499986828869
 42
0.4142135623730952
 10
63.61721216833723
 20
23.24999986828869
 42
0.0
 10
61.86721216833712
 20
23.24999986828869
 42
0.4142135623730872
 10
61.34221216833714
 20
22.72499986828871
 42
0.0
 10
61.34221216833714
 20
10.99999986828866
 42
-0.414213562373088
 10
60.29221216833719
 20
9.949999868288685
 42
0.0
 10
58.89221216833721
 20
9.949999868288685
 42
-0.4142135623731197
 10
57.84221216833714
 20
10.99999986828866
 42
0.0
 97
        0
 92
        7
 72
     1
 73
     1
 93
        8
 10
69.04221216833719
 20
22.72499986828871
 42
0.4142135623730872
 10
68.51721216833721
 20
23.24999986828869
 42
0.0
 10
66.76721216833721
 20
23.24999986828869
 42
0.4142135623731506
 10
66.24221216833712
 20
22.72499986828871
 42
0.0
 10
66.24221216833712
 20
7.674999868288676
 42
0.414213562373089
 10
66.7672121683371
 20
7.149999868288688
 42
0.0
 10
68.51721216833721
 20
7.149999868288688
 42
0.414213562373089
 10
69.04221216833719
 20
7.674999868288676
 42
0.0
 97
        0
 75
     0
 76
     1
 52
0.0
 41
0.2
 77
     0
 78
     2
 53
45.0
 43
-900.942304321123
 44
-13.20000013171125
 45
-0.4490128060534576
 46
0.4490128060534577
 79
     0
 53
135.0
 43
-900.942304321123
 44
-13.20000013171125
 45
-0.4490128060534577
 46
-0.4490128060534576
 79
     0
 47
0.057451373970553
 98
        8
 10
16.07985497657933
 20
15.16717351417424
 10
22.40451501999519
 20
18.84406205073969
 10
25.16436789921568
 20
15.5118815143594
 10
30.91405999519316
 20
16.20129751473019
 10
41.83847203251276
 20
16.6609097822718
 10
46.89820090868557
 20
19.41857618469589
 10
56.55768598595637
 20
18.7291577833837
 10
67.82707963317876
 20
19.18877005092531
  0
LINE
  5
3F02
330
1A
100
AcDbEntity
  8
ZUWAKU
100
AcDbLine
 10
24.94221216833716
 20
23.24999986828865
 30
0.0
 11
26.86721216833712
 21
23.24999986828869
 31
0.0
  0
LINE
  5
3F03
330
1A
100
AcDbEntity
  8
ZUWAKU
100
AcDbLine
 10
26.86721216833712
 20
20.44999986828869
 30
0.0
 11
24.94221216833716
 21
20.44999986828869
 31
0.0
  0
LINE
  5
3F04
330
1A
100
AcDbEntity
  8
ZUWAKU
100
AcDbLine
 10
24.94221216833716
 20
9.949999868288685
 30
0.0
 11
26.86721216833712
 21
9.949999868288685
 31
0.0
  0
LINE
  5
3F05
330
1A
100
AcDbEntity
  8
ZUWAKU
100
AcDbLine
 10
26.86721216833712
 20
7.149999868288688
 30
0.0
 11
24.94221216833716
 21
7.149999868288688
 31
0.0
  0
CIRCLE
  5
3F06
330
1A
100
AcDbEntity
  8
ZUWAKU
100
AcDbCircle
 10
25.99221216833712
 20
15.19999986828869
 30
0.0
 40
1.75
  0
ARC
  5
3F07
330
1A
100
AcDbEntity
  8
ZUWAKU
100
AcDbCircle
 10
15.49221216833712
 20
18.63479784293339
 30
0.0
 40
1.4
100
AcDbArc
 50
180.0000000000016
 51
224.9999999999988
  0
LINE
  5
3F08
330
1A
100
AcDbEntity
  8
ZUWAKU
100
AcDbLine
 10
23.54221216833719
 20
19.04999986828869
 30
0.0
 11
23.54221216833719
 21
11.34999986828869
 31
0.0
  0
LINE
  5
3F09
330
1A
100
AcDbEntity
  8
ZUWAKU
100
AcDbLine
 10
20.74221216833712
 20
11.34999986828869
 30
0.0
 11
20.74221216833712
 21
19.04999986828864
 31
0.0
  0
ARC
  5
3F0A
330
1A
100
AcDbEntity
  8
ZUWAKU
100
AcDbCircle
 10
15.49221216833712
 20
18.63479784293339
 30
0.0
 40
4.199999999999999
100
AcDbArc
 50
180.0
 51
225.0
  0
ARC
  5
3F0B
330
1A
100
AcDbEntity
  8
ZUWAKU
100
AcDbCircle
 10
15.84221216833714
 20
9.949999868288685
 30
0.0
 40
2.8
100
AcDbArc
 50
270.0
 51
0.0
  0
ARC
  5
3F0C
330
1A
100
AcDbEntity
  8
ZUWAKU
100
AcDbCircle
 10
24.94221216833716
 20
11.34999986828869
 30
0.0
 40
4.199999999999999
100
AcDbArc
 50
180.0
 51
270.0
  0
ARC
  5
3F0D
330
1A
100
AcDbEntity
  8
ZUWAKU
100
AcDbCircle
 10
14.44221216833716
 20
11.76520189364399
 30
0.0
 40
4.199999999999999
100
AcDbArc
 50
0.0
 51
45.0
  0
LINE
  5
3F0E
330
1A
100
AcDbEntity
  8
ZUWAKU
100
AcDbLine
 10
17.41206064932067
 20
14.73505037462751
 30
0.0
 11
14.50226267467599
 21
17.64484834927219
 31
0.0
  0
LINE
  5
3F0F
330
1A
100
AcDbEntity
  8
ZUWAKU
100
AcDbLine
 10
15.84221216833714
 20
10.47499986828869
 30
0.0
 11
15.84221216833714
 21
11.76520189364403
 31
0.0
  0
ARC
  5
3F10
330
1A
100
AcDbEntity
  8
ZUWAKU
100
AcDbCircle
 10
15.31721216833716
 20
10.47499986828869
 30
0.0
 40
0.5249999999999999
100
AcDbArc
 50
270.0
 51
0.0
  0
ARC
  5
3F11
330
1A
100
AcDbEntity
  8
ZUWAKU
100
AcDbCircle
 10
14.44221216833716
 20
11.76520189364403
 30
0.0
 40
1.4
100
AcDbArc
 50
0.0
 51
45.0
  0
LINE
  5
3F12
330
1A
100
AcDbEntity
  8
ZUWAKU
100
AcDbLine
 10
11.81721216833716
 20
7.674999868288687
 30
0.0
 11
11.81721216833716
 21
9.424999868288687
 31
0.0
  0
ARC
  5
3F13
330
1A
100
AcDbEntity
  8
ZUWAKU
100
AcDbCircle
 10
12.34221216833714
 20
7.674999868288687
 30
0.0
 40
0.5249999999999999
100
AcDbArc
 50
180.0
 51
270.0
  0
ARC
  5
3F14
330
1A
100
AcDbEntity
  8
ZUWAKU
100
AcDbCircle
 10
12.34221216833714
 20
9.424999868288687
 30
0.0
 40
0.5249999999999999
100
AcDbArc
 50
90.0
 51
180.0
  0
LINE
  5
3F15
330
1A
100
AcDbEntity
  8
ZUWAKU
100
AcDbLine
 10
12.34221216833714
 20
7.149999868288688
 30
0.0
 11
15.84221216833714
 21
7.149999868288688
 31
0.0
  0
LINE
  5
3F16
330
1A
100
AcDbEntity
  8
ZUWAKU
100
AcDbLine
 10
12.34221216833714
 20
9.949999868288685
 30
0.0
 11
15.31721216833716
 21
9.949999868288685
 31
0.0
  0
LINE
  5
3F17
330
1A
100
AcDbEntity
  8
ZUWAKU
100
AcDbLine
 10
12.52236368735362
 20
15.66494936194987
 30
0.0
 11
15.43216166199829
 21
12.7551513873052
 31
0.0
  0
LINE
  5
3F18
330
1A
100
AcDbEntity
  8
ZUWAKU
100
AcDbLine
 10
18.64221216833721
 20
9.949999868288685
 30
0.0
 11
18.64221216833721
 21
11.76520189364403
 31
0.0
  0
ARC
  5
3F19
330
1A
100
AcDbEntity
  8
ZUWAKU
100
AcDbCircle
 10
24.94221216833716
 20
11.34999986828869
 30
0.0
 40
1.4
100
AcDbArc
 50
180.0
 51
270.0
  0
ARC
  5
3F1A
330
1A
100
AcDbEntity
  8
ZUWAKU
100
AcDbCircle
 10
17.59221216833714
 20
22.72499986828868
 30
0.0
 40
0.5249999999999999
100
AcDbArc
 50
0.0
 51
90.0
  0
ARC
  5
3F1B
330
1A
100
AcDbEntity
  8
ZUWAKU
100
AcDbCircle
 10
17.59221216833714
 20
20.97499986828868
 30
0.0
 40
0.5249999999999999
100
AcDbArc
 50
270.0
 51
0.0
  0
LINE
  5
3F1C
330
1A
100
AcDbEntity
  8
ZUWAKU
100
AcDbLine
 10
14.09221216833714
 20
23.24999986828869
 30
0.0
 11
17.59221216833714
 21
23.24999986828869
 31
0.0
  0
ARC
  5
3F1D
330
1A
100
AcDbEntity
  8
ZUWAKU
100
AcDbCircle
 10
14.61721216833712
 20
19.92499986828869
 30
0.0
 40
0.5249999999999999
100
AcDbArc
 50
90.0
 51
180.0
  0
LINE
  5
3F1E
330
1A
100
AcDbEntity
  8
ZUWAKU
100
AcDbLine
 10
14.09221216833714
 20
19.92499986828869
 30
0.0
 11
14.09221216833714
 21
18.63479784293335
 31
0.0
  0
LINE
  5
3F1F
330
1A
100
AcDbEntity
  8
ZUWAKU
100
AcDbLine
 10
17.59221216833714
 20
20.44999986828869
 30
0.0
 11
14.61721216833712
 21
20.44999986828869
 31
0.0
  0
LINE
  5
3F20
330
1A
100
AcDbEntity
  8
ZUWAKU
100
AcDbLine
 10
11.29221216833719
 20
20.44999986828869
 30
0.0
 11
11.29221216833719
 21
18.63479784293335
 31
0.0
  0
ARC
  5
3F21
330
1A
100
AcDbEntity
  8
ZUWAKU
100
AcDbCircle
 10
14.09221216833714
 20
20.44999986828869
 30
0.0
 40
2.8
100
AcDbArc
 50
90.0
 51
180.0
  0
LINE
  5
3F22
330
1A
100
AcDbEntity
  8
ZUWAKU
100
AcDbLine
 10
18.11721216833712
 20
22.72499986828868
 30
0.0
 11
18.11721216833712
 21
20.97499986828868
 31
0.0
  0
ARC
  5
3F23
330
1A
100
AcDbEntity
  8
ZUWAKU
100
AcDbCircle
 10
24.94221216833716
 20
19.04999986828869
 30
0.0
 40
1.4
100
AcDbArc
 50
90.0
 51
180.0
  0
ARC
  5
3F24
330
1A
100
AcDbEntity
  8
ZUWAKU
100
AcDbCircle
 10
24.94221216833716
 20
19.04999986828864
 30
0.0
 40
4.199999999999999
100
AcDbArc
 50
90.0
 51
180.0
  0
LINE
  5
3F25
330
1A
100
AcDbEntity
  8
ZUWAKU
100
AcDbLine
 10
79.32662956154422
 20
29.99999986828868
 30
0.0
 11
79.32662956154445
 21
0.7999998682887508
 31
0.0
  0
LINE
  5
3F26
330
1A
100
AcDbEntity
  8
ZUWAKU
100
AcDbLine
 10
79.52662956154427
 20
29.99999986828868
 30
0.0
 11
79.5266295615445
 21
0.7999998682887508
 31
0.0
  0
LINE
  5
3F27
330
1A
100
AcDbEntity
  8
ZUWAKU
100
AcDbLine
 10
79.12662956154441
 20
29.99999986828868
 30
0.0
 11
79.12662956154441
 21
0.7999998682887508
 31
0.0
  0
LINE
  5
3F28
330
1A
100
AcDbEntity
  8
ZUWAKU
100
AcDbLine
 10
64.14221216833721
 20
9.949999868288685
 30
0.0
 11
64.14221216833721
 21
22.72499986828868
 31
0.0
  0
LINE
  5
3F29
330
1A
100
AcDbEntity
  8
ZUWAKU
100
AcDbLine
 10
61.34221216833714
 20
22.72499986828868
 30
0.0
 11
61.34221216833714
 21
10.99999986828868
 31
0.0
  0
LINE
  5
3F2A
330
1A
100
AcDbEntity
  8
ZUWAKU
100
AcDbLine
 10
69.04221216833719
 20
7.674999868288687
 30
0.0
 11
69.04221216833719
 21
22.72499986828868
 31
0.0
  0
LINE
  5
3F2B
330
1A
100
AcDbEntity
  8
ZUWAKU
100
AcDbLine
 10
66.24221216833712
 20
22.72499986828868
 30
0.0
 11
66.24221216833712
 21
7.674999868288687
 31
0.0
  0
ARC
  5
3F2C
330
1A
100
AcDbEntity
  8
ZUWAKU
100
AcDbCircle
 10
49.79221216833719
 20
18.63479784293339
 30
0.0
 40
1.4
100
AcDbArc
 50
180.0000000000016
 51
224.9999999999988
  0
ARC
  5
3F2D
330
1A
100
AcDbEntity
  8
ZUWAKU
100
AcDbCircle
 10
49.79221216833719
 20
18.63479784293339
 30
0.0
 40
4.199999999999999
100
AcDbArc
 50
180.0
 51
225.0
  0
LINE
  5
3F2E
330
1A
100
AcDbEntity
  8
ZUWAKU
100
AcDbLine
 10
37.31485865051513
 20
19.20504706185211
 30
0.0
 11
36.05010690517929
 21
15.19999986828871
 31
0.0
  0
LINE
  5
3F2F
330
1A
100
AcDbEntity
  8
ZUWAKU
100
AcDbLine
 10
40.69221216833716
 20
22.72499986828868
 30
0.0
 11
40.69221216833716
 21
7.674999868288687
 31
0.0
  0
LINE
  5
3F30
330
1A
100
AcDbEntity
  8
ZUWAKU
100
AcDbLine
 10
43.49221216833712
 20
7.674999868288687
 30
0.0
 11
43.49221216833712
 21
22.72499986828868
 31
0.0
  0
LINE
  5
3F31
330
1A
100
AcDbEntity
  8
ZUWAKU
100
AcDbLine
 10
55.04221216833719
 20
22.72499986828868
 30
0.0
 11
55.04221216833719
 21
9.949999868288685
 31
0.0
  0
LINE
  5
3F32
330
1A
100
AcDbEntity
  8
ZUWAKU
100
AcDbLine
 10
57.84221216833714
 20
10.99999986828868
 30
0.0
 11
57.84221216833714
 21
22.72499986828868
 31
0.0
  0
LINE
  5
3F33
330
1A
100
AcDbEntity
  8
ZUWAKU
100
AcDbLine
 10
32.64221216833721
 20
17.12499986828869
 30
0.0
 11
32.64221216833721
 21
22.72499986828868
 31
0.0
  0
LINE
  5
3F34
330
1A
100
AcDbEntity
  8
ZUWAKU
100
AcDbLine
 10
29.84221216833714
 20
22.72499986828868
 30
0.0
 11
29.84221216833714
 21
7.674999868288687
 31
0.0
  0
LINE
  5
3F35
330
1A
100
AcDbEntity
  8
ZUWAKU
100
AcDbLine
 10
35.67634710565301
 20
22.88309383645566
 30
0.0
 11
33.80807723102123
 21
16.96690590012172
 31
0.0
  0
LINE
  5
3F36
330
1A
100
AcDbEntity
  8
ZUWAKU
100
AcDbLine
 10
60.29221216833719
 20
9.949999868288685
 30
0.0
 11
58.89221216833721
 21
9.949999868288685
 31
0.0
  0
LINE
  5
3F37
330
1A
100
AcDbEntity
  8
ZUWAKU
100
AcDbLine
 10
57.84221216833714
 20
7.149999868288688
 30
0.0
 11
61.34221216833714
 21
7.149999868288688
 31
0.0
  0
LINE
  5
3F38
330
1A
100
AcDbEntity
  8
ZUWAKU
100
AcDbLine
 10
41.21721216833714
 20
7.149999868288688
 30
0.0
 11
42.96721216833714
 21
7.149999868288688
 31
0.0
  0
LINE
  5
3F39
330
1A
100
AcDbEntity
  8
ZUWAKU
100
AcDbLine
 10
35.67634710565301
 20
7.516905900121714
 30
0.0
 11
33.80807723102123
 21
13.43309383645565
 31
0.0
  0
ARC
  5
3F3A
330
1A
100
AcDbEntity
  8
ZUWAKU
100
AcDbCircle
 10
33.30744633182587
 20
17.12499986828869
 30
0.0
 40
0.5249999999999999
100
AcDbArc
 50
270.0
 51
342.474431626277
  0
LINE
  5
3F3B
330
1A
100
AcDbEntity
  8
ZUWAKU
100
AcDbLine
 10
33.30744633182587
 20
16.59999986828868
 30
0.0
 11
33.16721216833719
 21
16.59999986828868
 31
0.0
  0
LINE
  5
3F3C
330
1A
100
AcDbEntity
  8
ZUWAKU
100
AcDbLine
 10
33.16721216833719
 20
13.79999986828869
 30
0.0
 11
33.30744633182587
 21
13.79999986828869
 31
0.0
  0
ARC
  5
3F3D
330
1A
100
AcDbEntity
  8
ZUWAKU
100
AcDbCircle
 10
33.16721216833719
 20
17.12499986828869
 30
0.0
 40
0.5249999999999999
100
AcDbArc
 50
180.0
 51
270.0
  0
LINE
  5
3F3E
330
1A
100
AcDbEntity
  8
ZUWAKU
100
AcDbLine
 10
30.36721216833712
 20
7.149999868288688
 30
0.0
 11
32.11721216833712
 21
7.149999868288688
 31
0.0
  0
ARC
  5
3F3F
330
1A
100
AcDbEntity
  8
ZUWAKU
100
AcDbCircle
 10
32.11721216833712
 20
7.674999868288687
 30
0.0
 40
0.5249999999999999
100
AcDbArc
 50
270.0
 51
0.0
  0
LINE
  5
3F40
330
1A
100
AcDbEntity
  8
ZUWAKU
100
AcDbLine
 10
32.64221216833721
 20
7.674999868288687
 30
0.0
 11
32.64221216833721
 21
13.27499986828869
 31
0.0
  0
LINE
  5
3F41
330
1A
100
AcDbEntity
  8
ZUWAKU
100
AcDbLine
 10
27.39221216833721
 20
9.424999868288687
 30
0.0
 11
27.39221216833721
 21
7.674999868288687
 31
0.0
  0
ARC
  5
3F42
330
1A
100
AcDbEntity
  8
ZUWAKU
100
AcDbCircle
 10
26.86721216833712
 20
7.674999868288687
 30
0.0
 40
0.5249999999999999
100
AcDbArc
 50
270.0
 51
0.0
  0
ARC
  5
3F43
330
1A
100
AcDbEntity
  8
ZUWAKU
100
AcDbCircle
 10
26.86721216833712
 20
9.424999868288687
 30
0.0
 40
0.5249999999999999
100
AcDbArc
 50
0.0
 51
90.0
  0
ARC
  5
3F44
330
1A
100
AcDbEntity
  8
ZUWAKU
100
AcDbCircle
 10
30.36721216833712
 20
7.674999868288687
 30
0.0
 40
0.5249999999999999
100
AcDbArc
 50
180.0
 51
270.0
  0
ARC
  5
3F45
330
1A
100
AcDbEntity
  8
ZUWAKU
100
AcDbCircle
 10
33.30744633182587
 20
13.27499986828869
 30
0.0
 40
0.5249999999999999
100
AcDbArc
 50
17.52556837372303
 51
90.0
  0
ARC
  5
3F46
330
1A
100
AcDbEntity
  8
ZUWAKU
100
AcDbCircle
 10
33.16721216833719
 20
13.27499986828869
 30
0.0
 40
0.5249999999999999
100
AcDbArc
 50
90.0
 51
180.0
  0
ARC
  5
3F47
330
1A
100
AcDbEntity
  8
ZUWAKU
100
AcDbCircle
 10
41.21721216833714
 20
7.674999868288687
 30
0.0
 40
0.5249999999999999
100
AcDbArc
 50
180.0
 51
270.0
  0
LINE
  5
3F48
330
1A
100
AcDbEntity
  8
ZUWAKU
100
AcDbLine
 10
36.17697800484848
 20
7.149999868288688
 30
0.0
 11
37.87586738445748
 21
7.149999868288688
 31
0.0
  0
ARC
  5
3F49
330
1A
100
AcDbEntity
  8
ZUWAKU
100
AcDbCircle
 10
37.87586738445748
 20
7.674999868288687
 30
0.0
 40
0.5249999999999999
100
AcDbArc
 50
270.0
 51
17.52556837372303
  0
LINE
  5
3F4A
330
1A
100
AcDbEntity
  8
ZUWAKU
100
AcDbLine
 10
38.37649828365295
 20
7.83309383645566
 30
0.0
 11
36.05010690517929
 21
15.19999986828871
 31
0.0
  0
ARC
  5
3F4B
330
1A
100
AcDbEntity
  8
ZUWAKU
100
AcDbCircle
 10
36.17697800484848
 20
7.674999868288687
 30
0.0
 40
0.5249999999999999
100
AcDbArc
 50
197.525568373723
 51
270.0
  0
ARC
  5
3F4C
330
1A
100
AcDbEntity
  8
ZUWAKU
100
AcDbCircle
 10
57.84221216833714
 20
9.949999868288685
 30
0.0
 40
2.8
100
AcDbArc
 50
180.0
 51
270.0
  0
ARC
  5
3F4D
330
1A
100
AcDbEntity
  8
ZUWAKU
100
AcDbCircle
 10
50.14221216833721
 20
9.949999868288685
 30
0.0
 40
2.8
100
AcDbArc
 50
270.0
 51
0.0
  0
LINE
  5
3F4E
330
1A
100
AcDbEntity
  8
ZUWAKU
100
AcDbLine
 10
51.71206064932073
 20
14.73505037462751
 30
0.0
 11
48.80226267467594
 21
17.64484834927219
 31
0.0
  0
LINE
  5
3F4F
330
1A
100
AcDbEntity
  8
ZUWAKU
100
AcDbLine
 10
50.14221216833721
 20
10.47499986828869
 30
0.0
 11
50.14221216833721
 21
11.76520189364403
 31
0.0
  0
ARC
  5
3F50
330
1A
100
AcDbEntity
  8
ZUWAKU
100
AcDbCircle
 10
48.74221216833712
 20
11.76520189364403
 30
0.0
 40
1.4
100
AcDbArc
 50
0.0
 51
45.0
  0
ARC
  5
3F51
330
1A
100
AcDbEntity
  8
ZUWAKU
100
AcDbCircle
 10
49.61721216833712
 20
10.47499986828869
 30
0.0
 40
0.5249999999999999
100
AcDbArc
 50
270.0
 51
0.0
  0
LINE
  5
3F52
330
1A
100
AcDbEntity
  8
ZUWAKU
100
AcDbLine
 10
46.11721216833712
 20
7.674999868288687
 30
0.0
 11
46.11721216833712
 21
9.424999868288687
 31
0.0
  0
ARC
  5
3F53
330
1A
100
AcDbEntity
  8
ZUWAKU
100
AcDbCircle
 10
46.64221216833721
 20
7.674999868288687
 30
0.0
 40
0.5249999999999999
100
AcDbArc
 50
180.0
 51
270.0
  0
ARC
  5
3F54
330
1A
100
AcDbEntity
  8
ZUWAKU
100
AcDbCircle
 10
42.96721216833714
 20
7.674999868288687
 30
0.0
 40
0.5249999999999999
100
AcDbArc
 50
270.0
 51
0.0
  0
ARC
  5
3F55
330
1A
100
AcDbEntity
  8
ZUWAKU
100
AcDbCircle
 10
46.64221216833721
 20
9.424999868288687
 30
0.0
 40
0.5249999999999999
100
AcDbArc
 50
90.0
 51
180.0
  0
LINE
  5
3F56
330
1A
100
AcDbEntity
  8
ZUWAKU
100
AcDbLine
 10
46.64221216833721
 20
9.949999868288685
 30
0.0
 11
49.61721216833712
 21
9.949999868288685
 31
0.0
  0
LINE
  5
3F57
330
1A
100
AcDbEntity
  8
ZUWAKU
100
AcDbLine
 10
46.64221216833721
 20
7.149999868288688
 30
0.0
 11
50.14221216833721
 21
7.149999868288688
 31
0.0
  0
LINE
  5
3F58
330
1A
100
AcDbEntity
  8
ZUWAKU
100
AcDbLine
 10
46.82236368735369
 20
15.66494936194987
 30
0.0
 11
49.73216166199836
 21
12.7551513873052
 31
0.0
  0
LINE
  5
3F59
330
1A
100
AcDbEntity
  8
ZUWAKU
100
AcDbLine
 10
52.94221216833716
 20
9.949999868288685
 30
0.0
 11
52.94221216833716
 21
11.76520189364403
 31
0.0
  0
ARC
  5
3F5A
330
1A
100
AcDbEntity
  8
ZUWAKU
100
AcDbCircle
 10
48.74221216833712
 20
11.76520189364399
 30
0.0
 40
4.199999999999999
100
AcDbArc
 50
0.0
 51
45.0
  0
ARC
  5
3F5B
330
1A
100
AcDbEntity
  8
ZUWAKU
100
AcDbCircle
 10
58.89221216833721
 20
10.99999986828868
 30
0.0
 40
1.05
100
AcDbArc
 50
180.0
 51
270.0
  0
ARC
  5
3F5C
330
1A
100
AcDbEntity
  8
ZUWAKU
100
AcDbCircle
 10
61.34221216833714
 20
9.949999868288685
 30
0.0
 40
2.8
100
AcDbArc
 50
270.0
 51
0.0
  0
LINE
  5
3F5D
330
1A
100
AcDbEntity
  8
ZUWAKU
100
AcDbLine
 10
66.76721216833721
 20
7.149999868288688
 30
0.0
 11
68.51721216833721
 21
7.149999868288688
 31
0.0
  0
ARC
  5
3F5E
330
1A
100
AcDbEntity
  8
ZUWAKU
100
AcDbCircle
 10
66.76721216833721
 20
7.674999868288687
 30
0.0
 40
0.5249999999999999
100
AcDbArc
 50
180.0
 51
270.0
  0
ARC
  5
3F5F
330
1A
100
AcDbEntity
  8
ZUWAKU
100
AcDbCircle
 10
60.29221216833719
 20
10.99999986828868
 30
0.0
 40
1.05
100
AcDbArc
 50
270.0
 51
0.0
  0
ARC
  5
3F60
330
1A
100
AcDbEntity
  8
ZUWAKU
100
AcDbCircle
 10
68.51721216833721
 20
7.674999868288687
 30
0.0
 40
0.5249999999999999
100
AcDbArc
 50
270.0
 51
0.0
  0
LINE
  5
3F61
330
1A
100
AcDbEntity
  8
ZUWAKU
100
AcDbLine
 10
42.96721216833714
 20
23.24999986828869
 30
0.0
 11
41.21721216833714
 21
23.24999986828869
 31
0.0
  0
ARC
  5
3F62
330
1A
100
AcDbEntity
  8
ZUWAKU
100
AcDbCircle
 10
32.11721216833712
 20
22.72499986828868
 30
0.0
 40
0.5249999999999999
100
AcDbArc
 50
0.0
 51
90.0
  0
LINE
  5
3F63
330
1A
100
AcDbEntity
  8
ZUWAKU
100
AcDbLine
 10
32.11721216833712
 20
23.24999986828869
 30
0.0
 11
30.36721216833712
 21
23.24999986828869
 31
0.0
  0
ARC
  5
3F64
330
1A
100
AcDbEntity
  8
ZUWAKU
100
AcDbCircle
 10
26.86721216833712
 20
22.72499986828868
 30
0.0
 40
0.5249999999999999
100
AcDbArc
 50
0.0
 51
90.0
  0
ARC
  5
3F65
330
1A
100
AcDbEntity
  8
ZUWAKU
100
AcDbCircle
 10
30.36721216833712
 20
22.72499986828868
 30
0.0
 40
0.5249999999999999
100
AcDbArc
 50
90.0
 51
180.0
  0
ARC
  5
3F66
330
1A
100
AcDbEntity
  8
ZUWAKU
100
AcDbCircle
 10
26.86721216833712
 20
20.97499986828868
 30
0.0
 40
0.5249999999999999
100
AcDbArc
 50
270.0
 51
0.0
  0
LINE
  5
3F67
330
1A
100
AcDbEntity
  8
ZUWAKU
100
AcDbLine
 10
27.39221216833721
 20
22.72499986828868
 30
0.0
 11
27.39221216833721
 21
20.97499986828868
 31
0.0
  0
ARC
  5
3F68
330
1A
100
AcDbEntity
  8
ZUWAKU
100
AcDbCircle
 10
41.21721216833714
 20
22.72499986828868
 30
0.0
 40
0.5249999999999999
100
AcDbArc
 50
90.0
 51
180.0
  0
LINE
  5
3F69
330
1A
100
AcDbEntity
  8
ZUWAKU
100
AcDbLine
 10
36.17697800484848
 20
23.24999986828869
 30
0.0
 11
37.87586738445748
 21
23.24999986828869
 31
0.0
  0
ARC
  5
3F6A
330
1A
100
AcDbEntity
  8
ZUWAKU
100
AcDbCircle
 10
37.87586738445748
 20
22.72499986828868
 30
0.0
 40
0.5249999999999999
100
AcDbArc
 50
342.474431626277
 51
90.0
  0
LINE
  5
3F6B
330
1A
100
AcDbEntity
  8
ZUWAKU
100
AcDbLine
 10
38.37649828365295
 20
22.56690590012172
 30
0.0
 11
37.31485865051513
 21
19.20504706185211
 31
0.0
  0
ARC
  5
3F6C
330
1A
100
AcDbEntity
  8
ZUWAKU
100
AcDbCircle
 10
36.17697800484848
 20
22.72499986828868
 30
0.0
 40
0.5249999999999999
100
AcDbArc
 50
90.0
 51
162.474431626277
  0
LINE
  5
3F6D
330
1A
100
AcDbEntity
  8
ZUWAKU
100
AcDbLine
 10
48.39221216833721
 20
23.24999986828869
 30
0.0
 11
51.89221216833721
 21
23.24999986828869
 31
0.0
  0
LINE
  5
3F6E
330
1A
100
AcDbEntity
  8
ZUWAKU
100
AcDbLine
 10
51.89221216833721
 20
20.44999986828869
 30
0.0
 11
48.91721216833719
 21
20.44999986828869
 31
0.0
  0
ARC
  5
3F6F
330
1A
100
AcDbEntity
  8
ZUWAKU
100
AcDbCircle
 10
48.91721216833719
 20
19.92499986828869
 30
0.0
 40
0.5249999999999999
100
AcDbArc
 50
90.0
 51
180.0
  0
LINE
  5
3F70
330
1A
100
AcDbEntity
  8
ZUWAKU
100
AcDbLine
 10
48.39221216833721
 20
19.92499986828869
 30
0.0
 11
48.39221216833721
 21
18.63479784293335
 31
0.0
  0
ARC
  5
3F71
330
1A
100
AcDbEntity
  8
ZUWAKU
100
AcDbCircle
 10
42.96721216833714
 20
22.72499986828868
 30
0.0
 40
0.5249999999999999
100
AcDbArc
 50
0.0
 51
90.0
  0
LINE
  5
3F72
330
1A
100
AcDbEntity
  8
ZUWAKU
100
AcDbLine
 10
45.59221216833714
 20
20.44999986828869
 30
0.0
 11
45.59221216833714
 21
18.63479784293335
 31
0.0
  0
ARC
  5
3F73
330
1A
100
AcDbEntity
  8
ZUWAKU
100
AcDbCircle
 10
48.39221216833721
 20
20.44999986828869
 30
0.0
 40
2.8
100
AcDbArc
 50
90.0
 51
180.0
  0
ARC
  5
3F74
330
1A
100
AcDbEntity
  8
ZUWAKU
100
AcDbCircle
 10
57.31721216833716
 20
22.72499986828868
 30
0.0
 40
0.5249999999999999
100
AcDbArc
 50
0.0
 51
90.0
  0
ARC
  5
3F75
330
1A
100
AcDbEntity
  8
ZUWAKU
100
AcDbCircle
 10
55.56721216833716
 20
22.72499986828868
 30
0.0
 40
0.5249999999999999
100
AcDbArc
 50
90.0
 51
180.0
  0
LINE
  5
3F76
330
1A
100
AcDbEntity
  8
ZUWAKU
100
AcDbLine
 10
57.31721216833716
 20
23.24999986828869
 30
0.0
 11
55.56721216833716
 21
23.24999986828869
 31
0.0
  0
ARC
  5
3F77
330
1A
100
AcDbEntity
  8
ZUWAKU
100
AcDbCircle
 10
51.89221216833721
 20
22.72499986828868
 30
0.0
 40
0.5249999999999999
100
AcDbArc
 50
0.0
 51
90.0
  0
ARC
  5
3F78
330
1A
100
AcDbEntity
  8
ZUWAKU
100
AcDbCircle
 10
51.89221216833721
 20
20.97499986828868
 30
0.0
 40
0.5249999999999999
100
AcDbArc
 50
270.0
 51
0.0
  0
LINE
  5
3F79
330
1A
100
AcDbEntity
  8
ZUWAKU
100
AcDbLine
 10
52.41721216833719
 20
22.72499986828868
 30
0.0
 11
52.41721216833719
 21
20.97499986828868
 31
0.0
  0
LINE
  5
3F7A
330
1A
100
AcDbEntity
  8
ZUWAKU
100
AcDbLine
 10
68.51721216833721
 20
23.24999986828869
 30
0.0
 11
66.76721216833721
 21
23.24999986828869
 31
0.0
  0
ARC
  5
3F7B
330
1A
100
AcDbEntity
  8
ZUWAKU
100
AcDbCircle
 10
66.76721216833721
 20
22.72499986828868
 30
0.0
 40
0.5249999999999999
100
AcDbArc
 50
90.0
 51
180.0
  0
ARC
  5
3F7C
330
1A
100
AcDbEntity
  8
ZUWAKU
100
AcDbCircle
 10
63.61721216833712
 20
22.72499986828868
 30
0.0
 40
0.5249999999999999
100
AcDbArc
 50
0.0
 51
90.0
  0
LINE
  5
3F7D
330
1A
100
AcDbEntity
  8
ZUWAKU
100
AcDbLine
 10
63.61721216833712
 20
23.24999986828869
 30
0.0
 11
61.86721216833712
 21
23.24999986828869
 31
0.0
  0
ARC
  5
3F7E
330
1A
100
AcDbEntity
  8
ZUWAKU
100
AcDbCircle
 10
61.86721216833712
 20
22.72499986828868
 30
0.0
 40
0.5249999999999999
100
AcDbArc
 50
90.0
 51
180.0
  0
ARC
  5
3F7F
330
1A
100
AcDbEntity
  8
ZUWAKU
100
AcDbCircle
 10
68.51721216833721
 20
22.72499986828868
 30
0.0
 40
0.5249999999999999
100
AcDbArc
 50
0.0
 51
90.0
  0
TEXT
  5
3F80
330
1A
100
AcDbEntity
  8
moji
100
AcDbText
 10
239.8272026944071
 20
18.00492092569607
 30
0.0
 40
5.6
  1
ステンレス金具横打鶴首（受）
 41
0.9
  7
ｽﾀｲﾙ1
100
AcDbText
  0
TEXT
  5
3F81
330
1A
100
AcDbEntity
  8
moji
100
AcDbText
 10
239.8272026944071
 20
3.204920925696104
 30
0.0
 40
5.6
  1
Σ９０－Ｌ２２０
 41
0.9
  7
ｽﾀｲﾙ1
100
AcDbText
  0
LINE
  5
3F82
330
1A
100
AcDbEntity
  8
ZUWAKU
100
AcDbLine
 10
208.246601303624
 20
29.99999986828868
 30
0.0
 11
208.246601303624
 21
0.7999998682887508
 31
0.0
  0
LINE
  5
3F83
330
1A
100
AcDbEntity
  8
ZUWAKU
100
AcDbLine
 10
208.6466013036238
 20
29.99999986828868
 30
0.0
 11
208.646601303624
 21
0.7999998682887508
 31
0.0
  0
LINE
  5
3F84
330
1A
100
AcDbEntity
  8
ZUWAKU
100
AcDbLine
 10
208.4466013036238
 20
29.99999986828868
 30
0.0
 11
208.446601303624
 21
0.7999998682887508
 31
0.0
  0
TEXT
  5
3F85
330
1A
100
AcDbEntity
  8
ZUWAKU
100
AcDbText
 10
209.7240463258336
 20
9.655356406674301
 30
0.0
 40
4.0
  1
サイズ
 41
0.9
  7
ｽﾀｲﾙ1
100
AcDbText
  0
TEXT
  5
3F86
330
1A
100
AcDbEntity
  8
ZUWAKU
100
AcDbText
 10
209.7240463258333
 20
24.05535640667426
 30
0.0
 40
4.0
  1
品名
 41
0.9
  7
ｽﾀｲﾙ1
100
AcDbText
  0
LINE
  5
3F87
330
1A
100
AcDbEntity
  8
ZUWAKU
100
AcDbLine
 10
648.8172025237602
 20
15.19999986828871
 30
0.0
 11
697.2490105620973
 21
15.19999986828872
 31
0.0
  0
LINE
  5
3F88
330
1A
100
AcDbEntity
  8
ZUWAKU
100
AcDbLine
 10
648.8172025237604
 20
15.39999986828872
 30
0.0
 11
697.2490105620973
 21
15.39999986828872
 31
0.0
  0
LINE
  5
3F89
330
1A
100
AcDbEntity
  8
ZUWAKU
100
AcDbLine
 10
648.8172025237602
 20
15.59999986828872
 30
0.0
 11
697.2490105620973
 21
15.59999986828872
 31
0.0
  0
TEXT
  5
3F8A
330
1A
100
AcDbEntity
  8
ZUWAKU
100
AcDbText
 10
658.2039377008584
 20
18.00492092569607
 30
0.0
 40
5.6
  1
　　．　　．　　
 41
0.9
  7
ｽﾀｲﾙ1
100
AcDbText
  0
LINE
  5
3F8B
330
1A
100
AcDbEntity
  8
ZUWAKU
100
AcDbLine
 10
505.1991795116969
 20
15.19999986828872
 30
0.0
 11
552.5269557796685
 21
15.19999986828872
 31
0.0
  0
LINE
  5
3F8C
330
1A
100
AcDbEntity
  8
ZUWAKU
100
AcDbLine
 10
505.1991795116969
 20
15.39999986828872
 30
0.0
 11
552.5269557796685
 21
15.39999986828872
 31
0.0
  0
LINE
  5
3F8D
330
1A
100
AcDbEntity
  8
ZUWAKU
100
AcDbLine
 10
505.1991795116969
 20
15.59999986828872
 30
0.0
 11
552.5269557796685
 21
15.59999986828872
 31
0.0
  0
TEXT
  5
3F8E
330
1A
100
AcDbEntity
  8
moji
100
AcDbText
 10
463.2464320045581
 20
11.94261758994867
 30
0.0
 40
5.6
  1
ＬＪ８５□
 41
0.9
  7
ｽﾀｲﾙ1
100
AcDbText
  0
LINE
  5
3F8F
330
1A
100
AcDbEntity
  8
ZUWAKU
100
AcDbLine
 10
447.6243639845472
 20
29.99999986828868
 30
0.0
 11
447.6243639845475
 21
0.7999998682887508
 31
0.0
  0
LINE
  5
3F90
330
1A
100
AcDbEntity
  8
ZUWAKU
100
AcDbLine
 10
447.8243639845473
 20
29.99999986828868
 30
0.0
 11
447.8243639845475
 21
0.7999998682887508
 31
0.0
  0
LINE
  5
3F91
330
1A
100
AcDbEntity
  8
ZUWAKU
100
AcDbLine
 10
447.4243639845474
 20
29.99999986828868
 30
0.0
 11
447.4243639845474
 21
0.7999998682887508
 31
0.0
  0
TEXT
  5
3F92
330
1A
100
AcDbEntity
  8
moji
100
AcDbText
 10
528.0409079858689
 20
18.00492092569607
 30
0.0
 40
5.6
  1
Ａ３
 41
0.9
  7
ｽﾀｲﾙ1
100
AcDbText
  0
LINE
  5
3F93
330
1A
100
AcDbEntity
  8
ZUWAKU
100
AcDbLine
 10
504.9991795116969
 20
29.99999986828868
 30
0.0
 11
504.9991795116971
 21
0.7999998682887508
 31
0.0
  0
LINE
  5
3F94
330
1A
100
AcDbEntity
  8
ZUWAKU
100
AcDbLine
 10
505.1991795116969
 20
29.99999986828868
 30
0.0
 11
505.1991795116971
 21
0.7999998682887508
 31
0.0
  0
LINE
  5
3F95
330
1A
100
AcDbEntity
  8
ZUWAKU
100
AcDbLine
 10
504.7991795116971
 20
29.99999986828868
 30
0.0
 11
504.7991795116971
 21
0.7999998682887508
 31
0.0
  0
TEXT
  5
3F97
330
1A
100
AcDbEntity
  8
ZUWAKU
100
AcDbText
 10
506.6766245339068
 20
9.655356406674301
 30
0.0
 40
4.0
  1
縮尺
 41
0.9
  7
ｽﾀｲﾙ1
100
AcDbText
  0
TEXT
  5
3F98
330
1A
100
AcDbEntity
  8
moji
100
AcDbText
 10
528.0409079858689
 20
3.204920925696104
 30
0.0
 40
5.6
  1
１/２
 41
0.9
  7
ｽﾀｲﾙ1
100
AcDbText
  0
TEXT
  5
3F99
330
1A
100
AcDbEntity
  8
ZUWAKU
100
AcDbText
 10
449.3018090067569
 20
24.05535640667426
 30
0.0
 40
4.0
  1
品番
 41
0.9
  7
ｽﾀｲﾙ1
100
AcDbText
  0
TEXT
  5
3F9A
330
1A
100
AcDbEntity
  8
ZUWAKU
100
AcDbText
 10
506.6766245339065
 20
24.05535640667426
 30
0.0
 40
4.0
  1
用紙
 41
0.9
  7
ｽﾀｲﾙ1
100
AcDbText
  0
LINE
  5
3F9B
330
1A
100
AcDbEntity
  8
ZUWAKU
100
AcDbLine
 10
648.6172025237604
 20
29.99999986828868
 30
0.0
 11
648.6172025237606
 21
0.7999998682887508
 31
0.0
  0
LINE
  5
3F9C
330
1A
100
AcDbEntity
  8
ZUWAKU
100
AcDbLine
 10
648.8172025237604
 20
29.99999986828868
 30
0.0
 11
648.8172025237607
 21
0.7999998682887508
 31
0.0
  0
LINE
  5
3F9D
330
1A
100
AcDbEntity
  8
ZUWAKU
100
AcDbLine
 10
648.4172025237606
 20
29.99999986828868
 30
0.0
 11
648.4172025237606
 21
0.7999998682887508
 31
0.0
  0
LINE
  5
3F9E
330
1A
100
AcDbEntity
  8
ZUWAKU
100
AcDbLine
 10
552.7269557796683
 20
29.99999986828868
 30
0.0
 11
552.7269557796685
 21
0.7999998682887508
 31
0.0
  0
LINE
  5
3F9F
330
1A
100
AcDbEntity
  8
ZUWAKU
100
AcDbLine
 10
552.9269557796683
 20
29.99999986828868
 30
0.0
 11
552.9269557796686
 21
0.7999998682887508
 31
0.0
  0
LINE
  5
3FA0
330
1A
100
AcDbEntity
  8
ZUWAKU
100
AcDbLine
 10
552.5269557796685
 20
29.99999986828868
 30
0.0
 11
552.5269557796685
 21
0.7999998682887508
 31
0.0
  0
TEXT
  5
3FA1
330
1A
100
AcDbEntity
  8
ZUWAKU
100
AcDbText
 10
650.2946475459701
 20
24.05535640667426
 30
0.0
 40
4.0
  1
DATE
 41
0.9
  7
ｽﾀｲﾙ1
100
AcDbText
  0
LINE
  5
3FA2
330
1A
100
AcDbEntity
  8
ZUWAKU
100
AcDbLine
 10
697.2490105620973
 20
29.99999986828868
 30
0.0
 11
697.2490105620973
 21
0.7999998682887508
 31
0.0
  0
LINE
  5
3FA3
330
1A
100
AcDbEntity
  8
ZUWAKU
100
AcDbLine
 10
697.4490105620973
 20
29.99999986828868
 30
0.0
 11
697.4490105620973
 21
0.7999998682887508
 31
0.0
  0
LINE
  5
3FA4
330
1A
100
AcDbEntity
  8
ZUWAKU
100
AcDbLine
 10
697.6490105620972
 20
29.99999986828868
 30
0.0
 11
697.6490105620974
 21
0.7999998682887508
 31
0.0
  0
LINE
  5
3FA5
330
1A
100
AcDbEntity
  8
ZUWAKU
100
AcDbLine
 10
697.8490105620972
 20
29.99999986828868
 30
0.0
 11
697.8490105620974
 21
0.7999998682887508
 31
0.0
  0
TEXT
  5
3FA6
330
1A
100
AcDbEntity
  8
ZUWAKU
100
AcDbText
 10
708.5280842057998
 20
17.55383920397549
 30
0.0
 40
6.0
  1
積水化学工業株式会社
 41
0.9
  7
ｽﾀｲﾙ1
100
AcDbText
  0
TEXT
  5
3FA7
330
1A
100
AcDbEntity
  8
ZUWAKU
100
AcDbText
 10
708.5280842057998
 20
6.648840182142749
 30
0.0
 40
6.0
  1
建材事業部
 41
0.9
  7
ｽﾀｲﾙ1
100
AcDbText
  0
LINE
  5
6B03
330
1A
100
AcDbEntity
  8
CENTER L
  6
CENTER
 48
5.0
100
AcDbLine
 10
574.9428092647623
 20
414.886517906607
 30
0.0
 11
574.9428092647623
 21
432.3865179066069
 31
0.0
  0
ARC
  5
6B04
330
1A
100
AcDbEntity
  8
SEIHIN
  6
Continuous
 62
     3
 48
16.0
100
AcDbCircle
 10
408.2785640630925
 20
176.1567950979583
 30
0.0
 40
21.50000770720647
100
AcDbArc
 50
179.9999966152287
 51
341.283914909655
  0
ARC
  5
6B05
330
1A
100
AcDbEntity
  8
SEIHIN
  6
Continuous
 62
     3
 48
16.0
100
AcDbCircle
 10
408.2785700903198
 20
176.1567941047032
 30
0.0
 40
18.00001373443419
100
AcDbArc
 50
179.9999927954527
 51
341.2840049540719
  0
DIMENSION
  5
6B06
330
1A
100
AcDbEntity
  8
SUNPOU
100
AcDbDimension
  2
*D1
 10
400.606220962201
 20
197.4567963641852
 30
0.0
 11
395.6062209622009
 21
228.8775223161327
 31
0.0
 70
    32
 71
     5
 42
-1.0
  3
STANDARD
100
AcDbAlignedDimension
 13
424.944760355886
 23
260.29824826808
 33
0.0
 14
422.824083455886
 24
197.4567963641852
 34
0.0
 50
90.0
100
AcDbRotatedDimension
1001
ACAD
1000
DSTYLE
1002
{
1070
    41
1040
6.0
1070
    42
1040
6.0
1070
    43
1040
14.0
1070
    44
1040
3.0
1070
    73
1070
     0
1070
    74
1070
     0
1070
    77
1070
     3
1070
   140
1040
6.0
1070
   141
1040
10.0
1070
   147
1040
2.0
1070
   172
1070
     1
1070
   173
1070
     1
1070
   176
1070
   256
1070
   177
1070
   256
1070
   178
1070
   256
1070
   271
1070
     0
1070
   272
1070
     0
1070
   341
1005
6D
1070
     6
1000
OPEN
1070
     7
1000
OPEN
1002
}
  0
DIMENSION
  5
6B07
330
1A
100
AcDbEntity
  8
SUNPOU
100
AcDbDimension
  2
*D2
 10
433.037653555886
 20
371.756704877756
 30
0.0
 11
363.657733255886
 21
376.756704877756
 31
0.0
 70
    32
 71
     5
 42
-1.0
  3
STANDARD
100
AcDbAlignedDimension
 13
294.277812955886
 23
311.83949856808
 33
0.0
 14
433.037653555886
 24
258.99824826808
 34
0.0
100
AcDbRotatedDimension
1001
ACAD
1000
DSTYLE
1002
{
1070
    41
1040
6.0
1070
    42
1040
6.0
1070
    43
1040
14.0
1070
    44
1040
3.0
1070
    73
1070
     0
1070
    74
1070
     0
1070
    77
1070
     3
1070
   140
1040
6.0
1070
   141
1040
10.0
1070
   147
1040
2.0
1070
   172
1070
     1
1070
   173
1070
     1
1070
   176
1070
   256
1070
   177
1070
   256
1070
   178
1070
   256
1070
   271
1070
     0
1070
   272
1070
     0
1070
   341
1005
6D
1070
     6
1000
OPEN
1070
     7
1000
OPEN
1002
}
  0
LINE
  5
6B08
330
1A
100
AcDbEntity
  8
SEIHIN
100
AcDbLine
 10
384.9599380352458
 20
421.5481259977615
 30
0.0
 11
418.4932411915244
 21
421.5481259977615
 31
0.0
  0
LINE
  5
6B09
330
1A
100
AcDbEntity
  8
SEIHIN
100
AcDbLine
 10
384.9599229745153
 20
425.724909815452
 30
0.0
 11
418.5015953398724
 21
425.724909815452
 31
0.0
  0
LINE
  5
6B0A
330
1A
100
AcDbEntity
  8
SEIHIN
100
AcDbLine
 10
317.6542971092563
 20
415.7249852129522
 30
0.0
 11
418.2484060572818
 21
415.7249852129522
 31
0.0
  0
LINE
  5
6B0B
330
1A
100
AcDbEntity
  8
SEIHIN
100
AcDbLine
 10
317.6542971092563
 20
431.5480506002613
 30
0.0
 11
418.2801135350392
 21
431.5480506002613
 31
0.0
  0
LINE
  5
6B0C
330
1A
100
AcDbEntity
  8
SEIHIN
100
AcDbLine
 10
294.777812955886
 20
411.1364802066068
 30
0.0
 11
433.037653555886
 21
411.1364802066067
 31
0.0
  0
LINE
  5
6B0D
330
1A
100
AcDbEntity
  8
CENTER L
100
AcDbLine
 10
593.270079798982
 20
423.6365179066069
 30
0.0
 11
287.2778129558861
 21
423.6365179066067
 31
0.0
  0
LINE
  5
6B0E
330
1A
100
AcDbEntity
  8
SEIHIN
100
AcDbLine
 10
294.777812955886
 20
436.1365556066067
 30
0.0
 11
433.037653555886
 21
436.1365556066068
 31
0.0
  0
LINE
  5
6B0F
330
1A
100
AcDbEntity
  8
SEIHIN
  6
Continuous
100
AcDbLine
 10
422.8241458640703
 20
197.45679636808
 30
0.0
 11
388.867197055886
 21
197.45679636808
 31
0.0
  0
LINE
  5
6B10
330
1A
100
AcDbEntity
  8
SEIHIN
  6
Continuous
100
AcDbLine
 10
422.824083455886
 20
197.45679636808
 30
0.0
 11
333.733229255886
 21
197.45679636808
 31
0.0
  0
LINE
  5
6B11
330
1A
100
AcDbEntity
  8
SEIHIN
  6
Continuous
100
AcDbLine
 10
422.824097055886
 20
196.65679636808
 30
0.0
 11
333.733197055886
 21
196.65679636808
 31
0.0
  0
LINE
  5
6B12
330
1A
100
AcDbEntity
  8
SEIHIN
  6
Continuous
100
AcDbLine
 10
422.824083455886
 20
193.15679636808
 30
0.0
 11
333.733229255886
 21
193.15679636808
 31
0.0
  0
DIMENSION
  5
6B13
330
1A
100
AcDbEntity
  8
SUNPOU
100
AcDbDimension
  2
*D3
 10
259.5288121173671
 20
197.45679636808
 30
0.0
 11
254.5288121173671
 21
254.6481474680801
 31
0.0
 70
    32
 71
     5
 42
-1.0
  3
STANDARD
100
AcDbAlignedDimension
 13
294.277812955886
 23
311.83949856808
 33
0.0
 14
333.733229255886
 24
197.45679636808
 34
0.0
 50
90.0
100
AcDbRotatedDimension
1001
ACAD
1000
DSTYLE
1002
{
1070
    41
1040
6.0
1070
    42
1040
6.0
1070
    43
1040
14.0
1070
    44
1040
3.0
1070
    73
1070
     0
1070
    74
1070
     0
1070
    77
1070
     3
1070
   140
1040
6.0
1070
   141
1040
10.0
1070
   147
1040
2.0
1070
   172
1070
     1
1070
   173
1070
     1
1070
   176
1070
   256
1070
   177
1070
   256
1070
   178
1070
   256
1070
   271
1070
     0
1070
   272
1070
     0
1070
   341
1005
6D
1070
     6
1000
OPEN
1070
     7
1000
OPEN
1002
}
  0
LINE
  5
6B14
330
1A
100
AcDbEntity
  8
CENTER L
100
AcDbLine
 10
179.1572040702014
 20
147.6569509092568
 30
0.0
 11
179.1572040702014
 21
318.83949816808
 31
0.0
  0
LINE
  5
6B15
330
1A
100
AcDbEntity
  8
SEIHIN
  6
Continuous
100
AcDbLine
 10
302.246409055886
 20
260.88721116808
 30
0.0
 11
295.070031655886
 21
311.95080646808
 31
0.0
  0
LINE
  5
6B16
330
1A
100
AcDbEntity
  8
SEIHIN
  6
Continuous
100
AcDbLine
 10
301.454182355886
 20
260.77596006808
 30
0.0
 11
294.277812955886
 21
311.83949856808
 31
0.0
  0
LINE
  5
6B17
330
1A
100
AcDbEntity
  8
SEIHIN
  6
Continuous
100
AcDbLine
 10
169.6571286702014
 20
305.37539656808
 30
0.0
 11
169.6571286702014
 21
277.98003436808
 31
0.0
  0
LINE
  5
6B18
330
1A
100
AcDbEntity
  8
SEIHIN
  6
Continuous
100
AcDbLine
 10
188.6572040702014
 20
305.37539656808
 30
0.0
 11
188.6572040702014
 21
277.98003436808
 31
0.0
  0
LINE
  5
6B19
330
1A
100
AcDbEntity
  8
SEIHIN
  6
Continuous
100
AcDbLine
 10
191.6572040702014
 20
310.83949816808
 30
0.0
 11
191.6572040702014
 21
259.65679596808
 31
0.0
  0
LINE
  5
6B1A
330
1A
100
AcDbEntity
  8
SEIHIN
  6
Continuous
100
AcDbLine
 10
191.6572040702014
 20
310.83949816808
 30
0.0
 11
191.6572040702014
 21
259.65679596808
 31
0.0
  0
LINE
  5
6B1B
330
1A
100
AcDbEntity
  8
SEIHIN
  6
Continuous
100
AcDbLine
 10
188.6572040702014
 20
305.37539656808
 30
0.0
 11
188.6572040702014
 21
277.98003436808
 31
0.0
  0
LINE
  5
6B1C
330
1A
100
AcDbEntity
  8
SEIHIN
  6
Continuous
100
AcDbLine
 10
166.6571286702014
 20
310.83949816808
 30
0.0
 11
166.6571286702014
 21
259.65679596808
 31
0.0
  0
LINE
  5
6B1D
330
1A
100
AcDbEntity
  8
SEIHIN
  6
Continuous
100
AcDbLine
 10
166.6571286702014
 20
310.83949816808
 30
0.0
 11
166.6571286702014
 21
259.65679596808
 31
0.0
  0
LINE
  5
6B1E
330
1A
100
AcDbEntity
  8
SEIHIN
  6
Continuous
100
AcDbLine
 10
178.1572040702014
 20
251.73725136808
 30
0.0
 11
178.1572040702014
 21
196.65679636808
 31
0.0
  0
LINE
  5
6B1F
330
1A
100
AcDbEntity
  8
SEIHIN
  6
Continuous
100
AcDbLine
 10
178.1572040702014
 20
251.73725136808
 30
0.0
 11
178.1572040702014
 21
196.65679636808
 31
0.0
  0
LINE
  5
6B20
330
1A
100
AcDbEntity
  8
SEIHIN
  6
Continuous
100
AcDbLine
 10
170.6572040702014
 20
251.94291586808
 30
0.0
 11
170.6572040702014
 21
196.65679636808
 31
0.0
  0
LINE
  5
6B21
330
1A
100
AcDbEntity
  8
SEIHIN
  6
Continuous
100
AcDbLine
 10
180.1572040702014
 20
251.73725096808
 30
0.0
 11
180.1572040702014
 21
196.65679636808
 31
0.0
  0
LINE
  5
6B22
330
1A
100
AcDbEntity
  8
SEIHIN
  6
Continuous
100
AcDbLine
 10
187.6572040702014
 20
251.73725096808
 30
0.0
 11
187.6572040702014
 21
196.91572486808
 31
0.0
  0
LINE
  5
6B23
330
1A
100
AcDbEntity
  8
SEIHIN
  6
Continuous
100
AcDbLine
 10
190.1572040702014
 20
251.73725016808
 30
0.0
 11
190.1572040702014
 21
196.65679636808
 31
0.0
  0
LINE
  5
6B24
330
1A
100
AcDbEntity
  8
SEIHIN
  6
Continuous
100
AcDbLine
 10
168.1572040702014
 20
251.73709696808
 30
0.0
 11
168.1572040702014
 21
196.65679636808
 31
0.0
  0
LINE
  5
6B25
330
1A
100
AcDbEntity
  8
SEIHIN
  6
Continuous
100
AcDbLine
 10
168.1572040702014
 20
251.73709696808
 30
0.0
 11
168.1572040702014
 21
196.65679636808
 31
0.0
  0
LINE
  5
6B26
330
1A
100
AcDbEntity
  8
SEIHIN
  6
Continuous
100
AcDbLine
 10
190.1572040702014
 20
251.73725016808
 30
0.0
 11
190.1572040702014
 21
196.65679636808
 31
0.0
  0
LINE
  5
6B27
330
1A
100
AcDbEntity
  8
SEIHIN
  6
Continuous
100
AcDbLine
 10
187.6572040702014
 20
251.73725096808
 30
0.0
 11
187.6572040702014
 21
196.91572486808
 31
0.0
  0
LINE
  5
6B28
330
1A
100
AcDbEntity
  8
SEIHIN
  6
Continuous
100
AcDbLine
 10
180.1572040702014
 20
251.73725096808
 30
0.0
 11
180.1572040702014
 21
196.65679636808
 31
0.0
  0
LINE
  5
6B29
330
1A
100
AcDbEntity
  8
SEIHIN
  6
Continuous
100
AcDbLine
 10
170.6572040702014
 20
251.94291586808
 30
0.0
 11
170.6572040702014
 21
196.65679636808
 31
0.0
  0
LINE
  5
6B2A
330
1A
100
AcDbEntity
  8
SEIHIN
  6
Continuous
 62
     3
 48
16.0
100
AcDbLine
 10
184.6572763410235
 20
154.6566509092568
 30
0.0
 11
184.6572763410235
 21
193.1566509092569
 31
0.0
  0
LINE
  5
6B2B
330
1A
100
AcDbEntity
  8
SEIHIN
  6
Continuous
 62
     3
 48
16.0
100
AcDbLine
 10
173.6572763410235
 20
154.6567509092568
 30
0.0
 11
173.6572763410235
 21
193.1566509092569
 31
0.0
  0
LINE
  5
6B2C
330
1A
100
AcDbEntity
  8
SEIHIN
  6
Continuous
 62
     3
 48
16.0
100
AcDbLine
 10
184.6572763410235
 20
154.6569509092568
 30
0.0
 11
173.6572763410235
 21
154.6569509092568
 31
0.0
  0
LINE
  5
6B2D
330
1A
100
AcDbEntity
  8
SEIHIN
  6
Continuous
 62
     3
 48
16.0
100
AcDbLine
 10
179.1571763410235
 20
189.6567509092569
 30
0.0
 11
184.6571763410235
 21
189.6567509092569
 31
0.0
  0
LINE
  5
6B2E
330
1A
100
AcDbEntity
  8
SEIHIN
  6
Continuous
 62
     3
 48
16.0
100
AcDbLine
 10
179.1571763410235
 20
188.1567509092567
 30
0.0
 11
184.1572763410237
 21
188.1567509092567
 31
0.0
  0
ARC
  5
6B2F
330
1A
100
AcDbEntity
  8
SEIHIN
  6
Continuous
100
AcDbCircle
 10
179.7164403702014
 20
196.15679636808
 30
0.0
 40
0.4999999921545041
100
AcDbArc
 50
10.26475806179492
 51
90.0
  0
ARC
  5
6B30
330
1A
100
AcDbEntity
  8
SEIHIN
  6
Continuous
100
AcDbCircle
 10
179.7164403702014
 20
196.15679636808
 30
0.0
 40
0.4999999921545041
100
AcDbArc
 50
10.26475806179492
 51
90.0
  0
LINE
  5
6B31
330
1A
100
AcDbEntity
  8
SEIHIN
  6
Continuous
100
AcDbLine
 10
174.1572040702014
 20
193.15679636808
 30
0.0
 11
184.1572040702014
 21
193.15679636808
 31
0.0
  0
LINE
  5
6B32
330
1A
100
AcDbEntity
  8
SEIHIN
  6
Continuous
100
AcDbLine
 10
176.5572040702014
 20
193.15679636808
 30
0.0
 11
181.7572040702014
 21
193.15679636808
 31
0.0
  0
LINE
  5
6B33
330
1A
100
AcDbEntity
  8
SEIHIN
  6
Continuous
100
AcDbLine
 10
174.4072040702014
 20
193.15679636808
 30
0.0
 11
183.9072040702014
 21
193.15679636808
 31
0.0
  0
LINE
  5
6B34
330
1A
100
AcDbEntity
  8
SEIHIN
  6
Continuous
 62
     3
 48
16.0
100
AcDbLine
 10
174.1572763410235
 20
188.1565509092568
 30
0.0
 11
174.1572763410235
 21
189.6565509092568
 31
0.0
  0
LINE
  5
6B35
330
1A
100
AcDbEntity
  8
SEIHIN
  6
Continuous
 62
     3
 48
16.0
100
AcDbLine
 10
179.1573763410235
 20
189.6567509092569
 30
0.0
 11
173.6573763410235
 21
189.6567509092569
 31
0.0
  0
LINE
  5
6B36
330
1A
100
AcDbEntity
  8
SEIHIN
  6
Continuous
 62
     3
 48
16.0
100
AcDbLine
 10
179.1573763410235
 20
188.1567509092567
 30
0.0
 11
174.1572763410235
 21
188.1567509092567
 31
0.0
  0
ARC
  5
6B37
330
1A
100
AcDbEntity
  8
SEIHIN
  6
Continuous
100
AcDbCircle
 10
174.4072040702014
 20
196.91572486808
 30
0.0
 40
3.758928570888132
100
AcDbArc
 50
190.2647607829472
 51
349.7352389454338
  0
ARC
  5
6B38
330
1A
100
AcDbEntity
  8
SEIHIN
  6
Continuous
100
AcDbCircle
 10
174.4072040702014
 20
196.91572486808
 30
0.0
 40
3.758928570888132
100
AcDbArc
 50
190.2647607829472
 51
349.7352389454338
  0
ARC
  5
6B39
330
1A
100
AcDbEntity
  8
SEIHIN
  6
Continuous
100
AcDbCircle
 10
170.2164403702014
 20
196.15679636808
 30
0.0
 40
0.4999999921545041
100
AcDbArc
 50
10.26475806179492
 51
90.0
  0
LINE
  5
6B3A
330
1A
100
AcDbEntity
  8
SEIHIN
  6
Continuous
100
AcDbLine
 10
168.1572040702014
 20
196.65679636808
 30
0.0
 11
170.2164403702014
 21
196.65679636808
 31
0.0
  0
ARC
  5
6B3B
330
1A
100
AcDbEntity
  8
SEIHIN
  6
Continuous
100
AcDbCircle
 10
170.2164403702014
 20
196.15679636808
 30
0.0
 40
0.4999999921545041
100
AcDbArc
 50
10.26475806179492
 51
90.0
  0
LINE
  5
6B3C
330
1A
100
AcDbEntity
  8
SEIHIN
  6
Continuous
100
AcDbLine
 10
168.1572040702014
 20
196.65679636808
 30
0.0
 11
170.2164403702014
 21
196.65679636808
 31
0.0
  0
ARC
  5
6B3D
330
1A
100
AcDbEntity
  8
SEIHIN
  6
Continuous
100
AcDbCircle
 10
178.5979676702014
 20
196.15679636808
 30
0.0
 40
0.4999999921545041
100
AcDbArc
 50
90.0
 51
169.7352419382051
  0
ARC
  5
6B3E
330
1A
100
AcDbEntity
  8
SEIHIN
  6
Continuous
100
AcDbCircle
 10
178.5979676702014
 20
196.15679636808
 30
0.0
 40
0.4999999921545041
100
AcDbArc
 50
90.0
 51
169.7352419382051
  0
LINE
  5
6B3F
330
1A
100
AcDbEntity
  8
SEIHIN
  6
Continuous
100
AcDbLine
 10
178.5979676702014
 20
196.65679636808
 30
0.0
 11
179.7164403702014
 21
196.65679636808
 31
0.0
  0
LINE
  5
6B40
330
1A
100
AcDbEntity
  8
SEIHIN
  6
Continuous
100
AcDbLine
 10
178.5979676702014
 20
196.65679636808
 30
0.0
 11
179.7164403702014
 21
196.65679636808
 31
0.0
  0
LINE
  5
6B41
330
1A
100
AcDbEntity
  8
SEIHIN
  6
Continuous
 62
     3
 48
16.0
100
AcDbLine
 10
184.1572763410237
 20
188.1565509092568
 30
0.0
 11
184.1572763410237
 21
189.6565509092568
 31
0.0
  0
LINE
  5
6B42
330
1A
100
AcDbEntity
  8
SEIHIN
  6
Continuous
100
AcDbLine
 10
188.0979676702014
 20
196.65679636808
 30
0.0
 11
190.1572040702014
 21
196.65679636808
 31
0.0
  0
LINE
  5
6B43
330
1A
100
AcDbEntity
  8
SEIHIN
  6
Continuous
100
AcDbLine
 10
188.0979676702014
 20
196.65679636808
 30
0.0
 11
190.1572040702014
 21
196.65679636808
 31
0.0
  0
ARC
  5
6B44
330
1A
100
AcDbEntity
  8
SEIHIN
  6
Continuous
100
AcDbCircle
 10
188.0979676702014
 20
196.15679636808
 30
0.0
 40
0.4999999921545041
100
AcDbArc
 50
90.0
 51
169.7352419382051
  0
ARC
  5
6B45
330
1A
100
AcDbEntity
  8
SEIHIN
  6
Continuous
100
AcDbCircle
 10
188.0979676702014
 20
196.15679636808
 30
0.0
 40
0.4999999921545041
100
AcDbArc
 50
90.0
 51
169.7352419382051
  0
ARC
  5
6B46
330
1A
100
AcDbEntity
  8
SEIHIN
  6
Continuous
100
AcDbCircle
 10
183.9072040702014
 20
196.91572486808
 30
0.0
 40
3.758928570888132
100
AcDbArc
 50
190.2647607829472
 51
349.7352389454338
  0
ARC
  5
6B47
330
1A
100
AcDbEntity
  8
SEIHIN
  6
Continuous
100
AcDbCircle
 10
183.9072040702014
 20
196.91572486808
 30
0.0
 40
3.758928570888132
100
AcDbArc
 50
190.2647607829472
 51
349.7352389454338
  0
ARC
  5
6B48
330
1A
100
AcDbEntity
  8
SEIHIN
  6
Continuous
100
AcDbCircle
 10
179.7164403702014
 20
209.06305676808
 30
0.0
 40
0.4999999921545041
100
AcDbArc
 50
10.26475806179492
 51
90.0
  0
ARC
  5
6B49
330
1A
100
AcDbEntity
  8
SEIHIN
  6
Continuous
100
AcDbCircle
 10
179.7164403702014
 20
209.06305676808
 30
0.0
 40
0.4999999921545041
100
AcDbArc
 50
10.26475806179492
 51
90.0
  0
ARC
  5
6B4A
330
1A
100
AcDbEntity
  8
SEIHIN
  6
Continuous
100
AcDbCircle
 10
174.4072040702014
 20
209.82198526808
 30
0.0
 40
3.758928570888132
100
AcDbArc
 50
190.2647607829472
 51
349.7352389454338
  0
LINE
  5
6B4B
330
1A
100
AcDbEntity
  8
SEIHIN
  6
Continuous
100
AcDbLine
 10
168.1572040702014
 20
209.56305676808
 30
0.0
 11
170.2164403702014
 21
209.56305676808
 31
0.0
  0
ARC
  5
6B4C
330
1A
100
AcDbEntity
  8
SEIHIN
  6
Continuous
100
AcDbCircle
 10
170.2164403702014
 20
209.06305676808
 30
0.0
 40
0.4999999921545041
100
AcDbArc
 50
10.26475806179492
 51
90.0
  0
LINE
  5
6B4D
330
1A
100
AcDbEntity
  8
SEIHIN
  6
Continuous
100
AcDbLine
 10
168.1572040702014
 20
209.56305676808
 30
0.0
 11
170.2164403702014
 21
209.56305676808
 31
0.0
  0
ARC
  5
6B4E
330
1A
100
AcDbEntity
  8
SEIHIN
  6
Continuous
100
AcDbCircle
 10
170.2164403702014
 20
209.06305676808
 30
0.0
 40
0.4999999921545041
100
AcDbArc
 50
10.26475806179492
 51
90.0
  0
LINE
  5
6B4F
330
1A
100
AcDbEntity
  8
SEIHIN
  6
Continuous
100
AcDbLine
 10
178.5979676702014
 20
209.56305676808
 30
0.0
 11
179.7164403702014
 21
209.56305676808
 31
0.0
  0
LINE
  5
6B50
330
1A
100
AcDbEntity
  8
SEIHIN
  6
Continuous
100
AcDbLine
 10
178.5979676702014
 20
209.56305676808
 30
0.0
 11
179.7164403702014
 21
209.56305676808
 31
0.0
  0
ARC
  5
6B51
330
1A
100
AcDbEntity
  8
SEIHIN
  6
Continuous
100
AcDbCircle
 10
178.5979676702014
 20
209.06305676808
 30
0.0
 40
0.4999999921545041
100
AcDbArc
 50
90.0
 51
169.7352419382051
  0
ARC
  5
6B52
330
1A
100
AcDbEntity
  8
SEIHIN
  6
Continuous
100
AcDbCircle
 10
178.5979676702014
 20
209.06305676808
 30
0.0
 40
0.4999999921545041
100
AcDbArc
 50
90.0
 51
169.7352419382051
  0
LINE
  5
6B53
330
1A
100
AcDbEntity
  8
SEIHIN
  6
Continuous
100
AcDbLine
 10
188.0979676702014
 20
209.56305676808
 30
0.0
 11
190.1572040702014
 21
209.56305676808
 31
0.0
  0
LINE
  5
6B54
330
1A
100
AcDbEntity
  8
SEIHIN
  6
Continuous
100
AcDbLine
 10
188.0979676702014
 20
209.56305676808
 30
0.0
 11
190.1572040702014
 21
209.56305676808
 31
0.0
  0
ARC
  5
6B55
330
1A
100
AcDbEntity
  8
SEIHIN
  6
Continuous
100
AcDbCircle
 10
183.9072040702014
 20
209.82198526808
 30
0.0
 40
3.758928570888132
100
AcDbArc
 50
190.2647607829472
 51
349.7352389454338
  0
ARC
  5
6B56
330
1A
100
AcDbEntity
  8
SEIHIN
  6
Continuous
100
AcDbCircle
 10
188.0979676702014
 20
209.06305676808
 30
0.0
 40
0.4999999921545041
100
AcDbArc
 50
90.0
 51
169.7352419382051
  0
ARC
  5
6B57
330
1A
100
AcDbEntity
  8
SEIHIN
  6
Continuous
100
AcDbCircle
 10
188.0979676702014
 20
209.06305676808
 30
0.0
 40
0.4999999921545041
100
AcDbArc
 50
90.0
 51
169.7352419382051
  0
ARC
  5
6B58
330
1A
100
AcDbEntity
  8
SEIHIN
  6
Continuous
100
AcDbCircle
 10
187.9534509702014
 20
251.73725096808
 30
0.0
 40
7.796246895617172
100
AcDbArc
 50
126.5386498155053
 51
180.0
  0
ARC
  5
6B59
330
1A
100
AcDbEntity
  8
SEIHIN
  6
Continuous
100
AcDbCircle
 10
187.9534509702014
 20
251.73725096808
 30
0.0
 40
7.796246895617172
100
AcDbArc
 50
126.5386498155053
 51
180.0
  0
LINE
  5
6B5A
330
1A
100
AcDbEntity
  8
SEIHIN
  6
Continuous
100
AcDbLine
 10
175.3642731702014
 20
273.41841516808
 30
0.0
 11
182.9500595702014
 21
273.41841516808
 31
0.0
  0
CIRCLE
  5
6B5B
330
1A
100
AcDbEntity
  8
SEIHIN
  6
Continuous
100
AcDbCircle
 10
179.1571663702014
 20
268.41841516808
 30
0.0
 40
1.499999969198628
  0
LINE
  5
6B5C
330
1A
100
AcDbEntity
  8
SEIHIN
  6
Continuous
100
AcDbLine
 10
175.3642731702014
 20
263.41841516808
 30
0.0
 11
182.9500595702014
 21
263.41841516808
 31
0.0
  0
LINE
  5
6B5D
330
1A
100
AcDbEntity
  8
SEIHIN
  6
Continuous
100
AcDbLine
 10
187.8572040702014
 20
277.18003436808
 30
0.0
 11
170.4571286702014
 21
277.18003436808
 31
0.0
  0
LINE
  5
6B5E
330
1A
100
AcDbEntity
  8
SEIHIN
  6
Continuous
100
AcDbLine
 10
187.8572040702014
 20
277.18003436808
 30
0.0
 11
170.4571286702014
 21
277.18003436808
 31
0.0
  0
CIRCLE
  5
6B5F
330
1A
100
AcDbEntity
  8
SEIHIN
  6
Continuous
100
AcDbCircle
 10
179.1571663702014
 20
268.41841516808
 30
0.0
 40
1.499999969198669
  0
LINE
  5
6B60
330
1A
100
AcDbEntity
  8
SEIHIN
  6
Continuous
100
AcDbLine
 10
170.9116806702014
 20
275.41841516808
 30
0.0
 11
187.4026520702014
 21
275.41841516808
 31
0.0
  0
LINE
  5
6B61
330
1A
100
AcDbEntity
  8
SEIHIN
  6
Continuous
100
AcDbLine
 10
191.6572040702014
 20
259.65679596808
 30
0.0
 11
166.6571286702014
 21
259.65679596808
 31
0.0
  0
LINE
  5
6B62
330
1A
100
AcDbEntity
  8
SEIHIN
  6
Continuous
100
AcDbLine
 10
191.6572040702014
 20
259.65679596808
 30
0.0
 11
166.6571286702014
 21
259.65679596808
 31
0.0
  0
LINE
  5
6B63
330
1A
100
AcDbEntity
  8
SEIHIN
  6
Continuous
100
AcDbLine
 10
170.9116806702014
 20
261.41841516808
 30
0.0
 11
187.4026520702014
 21
261.41841516808
 31
0.0
  0
ARC
  5
6B64
330
1A
100
AcDbEntity
  8
SEIHIN
  6
Continuous
100
AcDbCircle
 10
175.3642731702014
 20
272.91841516808
 30
0.0
 40
0.5000000066515669
100
AcDbArc
 50
90.0
 51
225.0
  0
ARC
  5
6B65
330
1A
100
AcDbEntity
  8
SEIHIN
  6
Continuous
100
AcDbCircle
 10
170.9116806702014
 20
273.91841516808
 30
0.0
 40
1.500000010372941
100
AcDbArc
 50
90.0
 51
245.0000000581049
  0
ARC
  5
6B66
330
1A
100
AcDbEntity
  8
SEIHIN
  6
Continuous
100
AcDbCircle
 10
170.9116806702014
 20
262.91841516808
 30
0.0
 40
1.500000010372941
100
AcDbArc
 50
114.9999999418951
 51
270.0
  0
ARC
  5
6B67
330
1A
100
AcDbEntity
  8
SEIHIN
  6
Continuous
100
AcDbCircle
 10
178.4534509702014
 20
251.73724916808
 30
0.0
 40
7.796246918174752
100
AcDbArc
 50
126.5387959209415
 51
180.0001462480639
  0
ARC
  5
6B68
330
1A
100
AcDbEntity
  8
SEIHIN
  6
Continuous
100
AcDbCircle
 10
178.4534509702014
 20
251.73724916808
 30
0.0
 40
7.796246918174752
100
AcDbArc
 50
126.5387959209415
 51
180.0001462480639
  0
ARC
  5
6B69
330
1A
100
AcDbEntity
  8
SEIHIN
  6
Continuous
100
AcDbCircle
 10
146.5008020702014
 20
251.73716676808
 30
0.0
 40
21.65640201247671
100
AcDbArc
 50
359.999815331956
 51
21.45024492816287
  0
ARC
  5
6B6A
330
1A
100
AcDbEntity
  8
SEIHIN
  6
Continuous
100
AcDbCircle
 10
146.5008020702014
 20
251.73716676808
 30
0.0
 40
21.65640201247671
100
AcDbArc
 50
359.999815331956
 51
21.45024492816287
  0
ARC
  5
6B6B
330
1A
100
AcDbEntity
  8
SEIHIN
  6
Continuous
100
AcDbCircle
 10
174.4071901702014
 20
257.19772036808
 30
0.0
 40
0.9999999719739241
100
AcDbArc
 50
53.4614972852457
 51
126.5387983957878
  0
ARC
  5
6B6C
330
1A
100
AcDbEntity
  8
SEIHIN
  6
Continuous
100
AcDbCircle
 10
174.4071901702014
 20
257.19772036808
 30
0.0
 40
0.9999999719739241
100
AcDbArc
 50
53.4614972852457
 51
126.5387983957878
  0
ARC
  5
6B6D
330
1A
100
AcDbEntity
  8
SEIHIN
  6
Continuous
100
AcDbCircle
 10
170.3609571702014
 20
251.73722856808
 30
0.0
 40
7.796246873110315
100
AcDbArc
 50
0.0001462480638433
 51
53.46149628993401
  0
ARC
  5
6B6E
330
1A
100
AcDbEntity
  8
SEIHIN
  6
Continuous
100
AcDbCircle
 10
170.3609571702014
 20
251.73722856808
 30
0.0
 40
7.796246873110315
100
AcDbArc
 50
0.0001462480638433
 51
53.46149628993401
  0
LINE
  5
6B6F
330
1A
100
AcDbEntity
  8
SEIHIN
  6
Continuous
100
AcDbLine
 10
170.2777532702014
 20
272.55895346808
 30
0.0
 11
176.0732103702014
 21
269.85648746808
 31
0.0
  0
LINE
  5
6B70
330
1A
100
AcDbEntity
  8
SEIHIN
  6
Continuous
100
AcDbLine
 10
170.2777532702014
 20
264.27787686808
 30
0.0
 11
176.0732104702014
 21
266.98034296808
 31
0.0
  0
ARC
  5
6B71
330
1A
100
AcDbEntity
  8
SEIHIN
  6
Continuous
100
AcDbCircle
 10
176.3267811702014
 20
266.43655816808
 30
0.0
 40
0.5999999903559889
100
AcDbArc
 50
315.0000202571182
 51
114.9999725970816
  0
ARC
  5
6B72
330
1A
100
AcDbEntity
  8
SEIHIN
  6
Continuous
100
AcDbCircle
 10
176.3267811702014
 20
270.40027216808
 30
0.0
 40
0.6000000015268324
100
AcDbArc
 50
245.0000147126121
 51
45.00002700949
  0
ARC
  5
6B73
330
1A
100
AcDbEntity
  8
SEIHIN
  6
Continuous
100
AcDbCircle
 10
175.3642731702014
 20
263.91841516808
 30
0.0
 40
0.5000000066515467
100
AcDbArc
 50
135.0000000000046
 51
270.0
  0
LINE
  5
6B74
330
1A
100
AcDbEntity
  8
SEIHIN
  6
Continuous
100
AcDbLine
 10
176.7510453702014
 20
266.01229426808
 30
0.0
 11
175.0107197702014
 21
264.27196856808
 31
0.0
  0
LINE
  5
6B75
330
1A
100
AcDbEntity
  8
SEIHIN
  6
Continuous
100
AcDbLine
 10
176.7510450702014
 20
270.82453646808
 30
0.0
 11
175.0107197702014
 21
272.56486176808
 31
0.0
  0
ARC
  5
6B76
330
1A
100
AcDbEntity
  8
SEIHIN
  6
Continuous
100
AcDbCircle
 10
170.4571286702014
 20
277.98003436808
 30
0.0
 40
0.799999999999983
100
AcDbArc
 50
180.0
 51
270.0
  0
ARC
  5
6B77
330
1A
100
AcDbEntity
  8
SEIHIN
  6
Continuous
100
AcDbCircle
 10
170.4571286702014
 20
277.98003436808
 30
0.0
 40
0.799999999999983
100
AcDbArc
 50
180.0
 51
270.0
  0
ARC
  5
6B78
330
1A
100
AcDbEntity
  8
SEIHIN
  6
Continuous
100
AcDbCircle
 10
187.4026520702014
 20
273.91841516808
 30
0.0
 40
1.500000010372941
100
AcDbArc
 50
294.9999999418951
 51
90.0
  0
ARC
  5
6B79
330
1A
100
AcDbEntity
  8
SEIHIN
  6
Continuous
100
AcDbCircle
 10
182.9500595702014
 20
272.91841516808
 30
0.0
 40
0.5000000066515669
100
AcDbArc
 50
315.0
 51
90.0
  0
ARC
  5
6B7A
330
1A
100
AcDbEntity
  8
SEIHIN
  6
Continuous
100
AcDbCircle
 10
187.4026520702014
 20
262.91841516808
 30
0.0
 40
1.500000010372941
100
AcDbArc
 50
270.0
 51
65.0000000581049
  0
ARC
  5
6B7B
330
1A
100
AcDbEntity
  8
SEIHIN
  6
Continuous
100
AcDbCircle
 10
179.8609571702014
 20
251.73725096808
 30
0.0
 40
7.796246895617144
100
AcDbArc
 50
0.0
 51
53.4613501844947
  0
ARC
  5
6B7C
330
1A
100
AcDbEntity
  8
SEIHIN
  6
Continuous
100
AcDbCircle
 10
179.8609571702014
 20
251.73725096808
 30
0.0
 40
7.796246895617144
100
AcDbArc
 50
0.0
 51
53.4613501844947
  0
ARC
  5
6B7D
330
1A
100
AcDbEntity
  8
SEIHIN
  6
Continuous
100
AcDbCircle
 10
183.9072040702014
 20
257.19773246808
 30
0.0
 40
0.9999999719705663
100
AcDbArc
 50
53.46134944471606
 51
126.5386505552794
  0
ARC
  5
6B7E
330
1A
100
AcDbEntity
  8
SEIHIN
  6
Continuous
100
AcDbCircle
 10
183.9072040702014
 20
257.19773246808
 30
0.0
 40
0.9999999719705663
100
AcDbArc
 50
53.46134944471606
 51
126.5386505552794
  0
ARC
  5
6B7F
330
1A
100
AcDbEntity
  8
SEIHIN
  6
Continuous
100
AcDbCircle
 10
211.8136059702014
 20
251.73725016808
 30
0.0
 40
21.65640189974951
100
AcDbArc
 50
158.5499013334508
 51
180.0
  0
ARC
  5
6B80
330
1A
100
AcDbEntity
  8
SEIHIN
  6
Continuous
100
AcDbCircle
 10
211.8136059702014
 20
251.73725016808
 30
0.0
 40
21.65640189974951
100
AcDbArc
 50
158.5499013334508
 51
180.0
  0
ARC
  5
6B81
330
1A
100
AcDbEntity
  8
SEIHIN
  6
Continuous
100
AcDbCircle
 10
181.9875514702014
 20
266.43655816808
 30
0.0
 40
0.5999999873023638
100
AcDbArc
 50
65.0000060580077
 51
225.0000067523695
  0
ARC
  5
6B82
330
1A
100
AcDbEntity
  8
SEIHIN
  6
Continuous
100
AcDbCircle
 10
181.9875514702014
 20
270.40027216808
 30
0.0
 40
0.5999999631179249
100
AcDbArc
 50
135.0000202571182
 51
295.0000066323043
  0
ARC
  5
6B83
330
1A
100
AcDbEntity
  8
SEIHIN
  6
Continuous
100
AcDbCircle
 10
182.9500595702014
 20
263.91841516808
 30
0.0
 40
0.5000000066515467
100
AcDbArc
 50
270.0
 51
44.9999999999954
  0
LINE
  5
6B84
330
1A
100
AcDbEntity
  8
SEIHIN
  6
Continuous
100
AcDbLine
 10
181.5632874702014
 20
266.01229406808
 30
0.0
 11
183.3036129702014
 21
264.27196856808
 31
0.0
  0
LINE
  5
6B85
330
1A
100
AcDbEntity
  8
SEIHIN
  6
Continuous
100
AcDbLine
 10
181.5632872702014
 20
270.82453606808
 30
0.0
 11
183.3036129702014
 21
272.56486176808
 31
0.0
  0
LINE
  5
6B86
330
1A
100
AcDbEntity
  8
SEIHIN
  6
Continuous
100
AcDbLine
 10
182.2411223702014
 20
266.98034286808
 30
0.0
 11
188.0365794702014
 21
264.27787686808
 31
0.0
  0
LINE
  5
6B87
330
1A
100
AcDbEntity
  8
SEIHIN
  6
Continuous
100
AcDbLine
 10
182.2411224702014
 20
269.85648756808
 30
0.0
 11
188.0365794702014
 21
272.55895346808
 31
0.0
  0
ARC
  5
6B88
330
1A
100
AcDbEntity
  8
SEIHIN
  6
Continuous
100
AcDbCircle
 10
187.8572040702014
 20
277.98003436808
 30
0.0
 40
0.799999999999983
100
AcDbArc
 50
270.0
 51
0.0
  0
ARC
  5
6B89
330
1A
100
AcDbEntity
  8
SEIHIN
  6
Continuous
100
AcDbCircle
 10
187.8572040702014
 20
277.98003436808
 30
0.0
 40
0.799999999999983
100
AcDbArc
 50
270.0
 51
0.0
  0
LINE
  5
6B8A
330
1A
100
AcDbEntity
  8
CENTER L
  6
CENTER
 62
     1
 48
5.0
100
AcDbLine
 10
378.2786563558859
 20
181.68169636808
 30
0.0
 11
378.2786563558859
 21
204.20129636808
 31
0.0
  0
LINE
  5
6B8B
330
1A
100
AcDbEntity
  8
CENTER L
100
AcDbLine
 10
378.2786563558859
 20
161.1607045958477
 30
0.0
 11
378.2786563558859
 21
205.7567963680801
 31
0.0
  0
LINE
  5
6B8C
330
1A
100
AcDbEntity
  8
SEIHIN
  6
Continuous
100
AcDbLine
 10
328.979943455886
 20
197.28875866808
 30
0.0
 11
327.603109355886
 21
207.08534156808
 31
0.0
  0
LINE
  5
6B8D
330
1A
100
AcDbEntity
  8
SEIHIN
  6
Continuous
100
AcDbLine
 10
333.238095355886
 20
197.88720906808
 30
0.0
 11
331.5814931558861
 21
209.67442446808
 31
0.0
  0
LINE
  5
6B8E
330
1A
100
AcDbEntity
  8
SEIHIN
  6
Continuous
100
AcDbLine
 10
332.445782855886
 20
197.77585676808
 30
0.0
 11
330.789282855886
 21
209.56305676808
 31
0.0
  0
DIMENSION
  5
6B8F
330
1A
100
AcDbEntity
  8
SUNPOU
100
AcDbDimension
  2
*D4
 10
350.1113726960584
 20
154.6567873907519
 30
0.0
 11
345.1113726960584
 21
176.056791879416
 31
0.0
 70
    32
  1
H
 71
     5
 42
-1.0
  3
STANDARD
100
AcDbAlignedDimension
 13
378.2786563558859
 23
197.45679636808
 33
0.0
 14
408.2785640630925
 24
154.6567873907519
 34
0.0
 50
90.0
100
AcDbRotatedDimension
1001
ACAD
1000
DSTYLE
1002
{
1070
    41
1040
6.0
1070
    42
1040
6.0
1070
    43
1040
14.0
1070
    44
1040
3.0
1070
    73
1070
     0
1070
    74
1070
     0
1070
    77
1070
     3
1070
   140
1040
6.0
1070
   141
1040
10.0
1070
   147
1040
2.0
1070
   172
1070
     1
1070
   173
1070
     1
1070
   176
1070
   256
1070
   177
1070
   256
1070
   178
1070
   256
1070
   271
1070
     0
1070
   272
1070
     0
1070
   341
1005
6D
1070
     6
1000
OPEN
1070
     7
1000
OPEN
1002
}
  0
ARC
  5
6B90
330
1A
100
AcDbEntity
  8
SEIHIN
  6
Continuous
100
AcDbCircle
 10
333.733158455886
 20
197.95682996808
 30
0.0
 40
0.5000336162955443
100
AcDbArc
 50
188.0049040435018
 51
270.0044292900057
  0
ARC
  5
6B91
330
1A
100
AcDbEntity
  8
SEIHIN
  6
Continuous
100
AcDbCircle
 10
333.733158455886
 20
197.95682996808
 30
0.0
 40
1.300033616295544
100
AcDbArc
 50
188.0049040435018
 51
270.0044292900057
  0
ARC
  5
6B92
330
1A
100
AcDbEntity
  8
SEIHIN
  6
Continuous
100
AcDbCircle
 10
333.733229255886
 20
197.95679636808
 30
0.0
 40
4.800000013807458
100
AcDbArc
 50
188.0000821059267
 51
270.0
  0
LINE
  5
6B93
330
1A
100
AcDbEntity
  8
SEIHIN
  6
Continuous
 62
     3
 48
16.0
100
AcDbLine
 10
383.2786563558859
 20
188.15679636808
 30
0.0
 11
373.2785563558857
 21
188.15679636808
 31
0.0
  0
LINE
  5
6B94
330
1A
100
AcDbEntity
  8
SEIHIN
  6
Continuous
 62
     3
 48
16.0
100
AcDbLine
 10
386.2785563558857
 20
189.6567963680799
 30
0.0
 11
371.2786563558859
 21
189.6567963680799
 31
0.0
  0
LINE
  5
6B95
330
1A
100
AcDbEntity
  8
SEIHIN
  6
Continuous
100
AcDbLine
 10
371.2786563558859
 20
189.6567963680799
 30
0.0
 11
371.2786563558859
 21
193.1567569020032
 31
0.0
  0
LINE
  5
6B96
330
1A
100
AcDbEntity
  8
SEIHIN
  6
Continuous
 62
     3
 48
16.0
100
AcDbLine
 10
373.2785563558857
 20
189.6567963680799
 30
0.0
 11
373.2785563558857
 21
188.15679636808
 31
0.0
  0
LINE
  5
6B97
330
1A
100
AcDbEntity
  8
SEIHIN
  6
Continuous
 62
     3
 48
16.0
100
AcDbLine
 10
390.2785563558857
 20
176.15679636808
 30
0.0
 11
390.2786563558859
 21
189.15679636808
 31
0.0
  0
LINE
  5
6B98
330
1A
100
AcDbEntity
  8
SEIHIN
  6
Continuous
 62
     3
 48
16.0
100
AcDbLine
 10
386.7785563558857
 20
176.15679636808
 30
0.0
 11
386.7785563558857
 21
189.15679636808
 31
0.0
  0
ARC
  5
6B99
330
1A
100
AcDbEntity
  8
SEIHIN
  6
Continuous
 62
     3
 48
16.0
100
AcDbCircle
 10
386.2786563565107
 20
189.1567963674549
 30
0.0
 40
4.000000000625048
100
AcDbArc
 50
359.9985676144639
 51
90.00000000894991
  0
LINE
  5
6B9A
330
1A
100
AcDbEntity
  8
SEIHIN
  6
Continuous
 62
     3
 48
16.0
100
AcDbLine
 10
383.2786563558859
 20
188.15679636808
 30
0.0
 11
383.2786563558859
 21
189.6567963680799
 31
0.0
  0
ARC
  5
6B9B
330
1A
100
AcDbEntity
  8
SEIHIN
  6
Continuous
 62
     3
 48
16.0
100
AcDbCircle
 10
386.2785563558862
 20
189.1567963680799
 30
0.0
 40
0.4999999999999574
100
AcDbArc
 50
0.0000000000048853
 51
90.00000000000651
  0
LINE
  5
6B9C
330
1A
100
AcDbEntity
  8
SEIHIN
  6
Continuous
100
AcDbLine
 10
321.517797055886
 20
224.35799636808
 30
0.0
 11
317.654297055886
 21
251.84859636808
 31
0.0
  0
LINE
  5
6B9D
330
1A
100
AcDbEntity
  8
SEIHIN
  6
Continuous
100
AcDbLine
 10
320.725582455886
 20
224.24675936808
 30
0.0
 11
316.862082455886
 21
251.73725936808
 31
0.0
  0
LINE
  5
6B9E
330
1A
100
AcDbEntity
  8
SEIHIN
  6
Continuous
100
AcDbLine
 10
317.259643255886
 20
223.75955986808
 30
0.0
 11
312.391131655886
 21
258.40128556808
 31
0.0
  0
ARC
  5
6B9F
330
1A
100
AcDbEntity
  8
SEIHIN
  6
Continuous
100
AcDbCircle
 10
325.127439655886
 20
206.73740526808
 30
0.0
 40
2.500000040575564
100
AcDbArc
 50
8.000082018775951
 51
55.62472081819308
  0
ARC
  5
6BA0
330
1A
100
AcDbEntity
  8
SEIHIN
  6
Continuous
100
AcDbCircle
 10
338.847495255886
 20
226.79359896808
 30
0.0
 40
17.50000317328302
100
AcDbArc
 50
187.9999103531443
 51
240.8509310814461
  0
ARC
  5
6BA1
330
1A
100
AcDbEntity
  8
SEIHIN
  6
Continuous
100
AcDbCircle
 10
338.847495255886
 20
226.79359896808
 30
0.0
 40
18.30000320645417
100
AcDbArc
 50
187.9999105480376
 51
240.8507993450859
  0
ARC
  5
6BA2
330
1A
100
AcDbEntity
  8
SEIHIN
  6
Continuous
100
AcDbCircle
 10
338.847495255886
 20
226.79359896808
 30
0.0
 40
21.80001707982018
100
AcDbArc
 50
188.0001707052629
 51
235.6247210942734
  0
ARC
  5
6BA3
330
1A
100
AcDbEntity
  8
SEIHIN
  6
Continuous
100
AcDbCircle
 10
329.105809255886
 20
209.32647856808
 30
0.0
 40
1.700015386814822
100
AcDbArc
 50
7.999604691897575
 51
60.85167818265157
  0
ARC
  5
6BA4
330
1A
100
AcDbEntity
  8
SEIHIN
  6
Continuous
100
AcDbCircle
 10
329.105823455886
 20
209.32648826808
 30
0.0
 40
2.500000012629856
100
AcDbArc
 50
8.000079749248522
 51
60.85093077883162
  0
ARC
  5
6BA5
330
1A
100
AcDbEntity
  8
SEIHIN
  6
Continuous
100
AcDbCircle
 10
307.751613655886
 20
250.45678196808
 30
0.0
 40
10.00001434611889
100
AcDbArc
 50
8.00047097826041
 51
90.00009511085774
  0
ARC
  5
6BA6
330
1A
100
AcDbEntity
  8
SEIHIN
  6
Continuous
100
AcDbCircle
 10
307.751613655886
 20
250.45678196808
 30
0.0
 40
9.200014365303503
100
AcDbArc
 50
8.000470899790729
 51
90.00009466244288
  0
LINE
  5
6BA7
330
1A
100
AcDbEntity
  8
SEIHIN
  6
Continuous
100
AcDbLine
 10
302.741543255886
 20
260.45679636808
 30
0.0
 11
307.751597055886
 21
260.45679636808
 31
0.0
  0
LINE
  5
6BA8
330
1A
100
AcDbEntity
  8
SEIHIN
  6
Continuous
100
AcDbLine
 10
302.741597055886
 20
259.65679636808
 30
0.0
 11
307.751597055886
 21
259.65679636808
 31
0.0
  0
ARC
  5
6BA9
330
1A
100
AcDbEntity
  8
SEIHIN
  6
Continuous
100
AcDbCircle
 10
302.741543255886
 20
260.95679636808
 30
0.0
 40
0.4999999880343379
100
AcDbArc
 50
187.9998441109668
 51
270.0
  0
ARC
  5
6BAA
330
1A
100
AcDbEntity
  8
SEIHIN
  6
Continuous
100
AcDbCircle
 10
302.741566455886
 20
260.95682296808
 30
0.0
 40
1.300026616183319
100
AcDbArc
 50
187.9926371249738
 51
270.0035126001435
  0
ELLIPSE
  5
6BAB
330
1A
100
AcDbEntity
  8
SEIHIN
100
AcDbEllipse
 10
317.6542971092564
 20
418.6365556053569
 30
0.0
 11
-4.470950792111069
 21
0.0
 31
0.0
210
0.0
220
0.0
230
-1.0
 40
0.6512195118635799
 41
4.71238898038469
 42
7.853981633974483
  0
ELLIPSE
  5
6BAC
330
1A
100
AcDbEntity
  8
SEIHIN
100
AcDbEllipse
 10
317.6542971092564
 20
428.6364802078566
 30
0.0
 11
-4.470950792111069
 21
0.0
 31
0.0
210
0.0
220
0.0
230
1.0
 40
0.6512195118635799
 41
4.71238898038469
 42
7.853981633974483
  0
DIMENSION
  5
6BAD
330
1A
100
AcDbEntity
  8
SUNPOU
100
AcDbDimension
  2
*D5
 10
259.5288121173672
 20
411.1364802066068
 30
0.0
 11
254.5288121173671
 21
423.6365179066068
 31
0.0
 70
    32
 71
     5
 42
-1.0
  3
STANDARD
100
AcDbAlignedDimension
 13
294.777812955886
 23
436.1365556066067
 33
0.0
 14
294.777812955886
 24
411.1364802066068
 34
0.0
 50
90.0
100
AcDbRotatedDimension
1001
ACAD
1000
DSTYLE
1002
{
1070
    41
1040
6.0
1070
    42
1040
6.0
1070
    43
1040
14.0
1070
    44
1040
3.0
1070
    73
1070
     0
1070
    74
1070
     0
1070
    77
1070
     3
1070
   140
1040
6.0
1070
   141
1040
10.0
1070
   147
1040
2.0
1070
   172
1070
     1
1070
   173
1070
     1
1070
   176
1070
   256
1070
   177
1070
   256
1070
   178
1070
   256
1070
   271
1070
     0
1070
   272
1070
     0
1070
   341
1005
6D
1070
     6
1000
OPEN
1070
     7
1000
OPEN
1002
}
  0
DIMENSION
  5
6BAE
330
1A
100
AcDbEntity
  8
SUNPOU
100
AcDbDimension
  2
*D6
 10
290.1293811327828
 20
341.3653926505107
 30
0.0
 11
273.0941949687464
 21
344.0210342597312
 31
0.0
 70
    33
  1
t0.8
 71
     5
 42
-1.0
  3
STANDARD
100
AcDbAlignedDimension
 13
295.070031655886
 23
311.95080646808
 33
0.0
 14
294.277812955886
 24
311.83949856808
 34
0.0
1001
ACAD
1000
DSTYLE
1002
{
1070
    41
1040
3.0
1070
    42
1040
6.0
1070
    43
1040
14.0
1070
    44
1040
3.0
1070
    73
1070
     0
1070
    74
1070
     0
1070
    77
1070
     3
1070
   140
1040
6.0
1070
   141
1040
10.0
1070
   147
1040
2.0
1070
   172
1070
     1
1070
   173
1070
     1
1070
   176
1070
   256
1070
   177
1070
   256
1070
   178
1070
   256
1070
   271
1070
     2
1070
   272
1070
     0
1070
   341
1005
6D
1070
     6
1000
OPEN
1070
     7
1000
OPEN
1002
}
  0
DIMENSION
  5
6BAF
330
1A
100
AcDbEntity
  8
SUNPOU
100
AcDbDimension
  2
*D7
 10
191.6572040702014
 20
358.6359356996488
 30
0.0
 11
179.1571663702014
 21
363.6359356996488
 31
0.0
 70
    32
 71
     5
 42
-1.0
  3
STANDARD
100
AcDbAlignedDimension
 13
166.6571286702014
 23
310.83949816808
 33
0.0
 14
191.6572040702014
 24
310.83949816808
 34
0.0
100
AcDbRotatedDimension
1001
ACAD
1000
DSTYLE
1002
{
1070
    41
1040
6.0
1070
    42
1040
6.0
1070
    43
1040
14.0
1070
    44
1040
3.0
1070
    73
1070
     0
1070
    74
1070
     0
1070
    77
1070
     3
1070
   140
1040
6.0
1070
   141
1040
10.0
1070
   147
1040
2.0
1070
   172
1070
     1
1070
   173
1070
     1
1070
   176
1070
   256
1070
   177
1070
   256
1070
   178
1070
   256
1070
   271
1070
     0
1070
   272
1070
     0
1070
   341
1005
6D
1070
     6
1000
OPEN
1070
     7
1000
OPEN
1002
}
  0
ARC
  5
6BB0
330
1A
100
AcDbEntity
  8
SEIHIN
  6
Continuous
100
AcDbCircle
 10
169.6571286702014
 20
308.83949816808
 30
0.0
 40
2.999999970329328
100
AcDbArc
 50
278.2132103139904
 51
89.99999045070344
  0
ARC
  5
6BB1
330
1A
100
AcDbEntity
  8
SEIHIN
  6
Continuous
100
AcDbCircle
 10
169.6571286702014
 20
308.83949816808
 30
0.0
 40
2.999999970329328
100
AcDbArc
 50
278.2132103139904
 51
89.99999045070344
  0
ARC
  5
6BB2
330
1A
100
AcDbEntity
  8
SEIHIN
  6
Continuous
100
AcDbCircle
 10
170.1571286702014
 20
305.37539656808
 30
0.0
 40
0.5000000221794436
100
AcDbArc
 50
98.21321327602622
 51
180.0
  0
ARC
  5
6BB3
330
1A
100
AcDbEntity
  8
SEIHIN
  6
Continuous
100
AcDbCircle
 10
167.6571286702014
 20
310.83949816808
 30
0.0
 40
1.0
100
AcDbArc
 50
90.0
 51
180.0
  0
ARC
  5
6BB4
330
1A
100
AcDbEntity
  8
SEIHIN
  6
Continuous
100
AcDbCircle
 10
167.6571286702014
 20
310.83949816808
 30
0.0
 40
1.0
100
AcDbArc
 50
90.0
 51
180.0
  0
LINE
  5
6BB5
330
1A
100
AcDbEntity
  8
SEIHIN
  6
Continuous
100
AcDbLine
 10
169.6571291702014
 20
311.83949816808
 30
0.0
 11
167.6571286702014
 21
311.83949816808
 31
0.0
  0
LINE
  5
6BB6
330
1A
100
AcDbEntity
  8
SEIHIN
  6
Continuous
100
AcDbLine
 10
169.6571291702014
 20
311.83949816808
 30
0.0
 11
167.6571286702014
 21
311.83949816808
 31
0.0
  0
ARC
  5
6BB7
330
1A
100
AcDbEntity
  8
SEIHIN
  6
Continuous
100
AcDbCircle
 10
188.6572040702014
 20
308.83949816808
 30
0.0
 40
2.999999970329307
100
AcDbArc
 50
90.0
 51
261.7867896860096
  0
ARC
  5
6BB8
330
1A
100
AcDbEntity
  8
SEIHIN
  6
Continuous
100
AcDbCircle
 10
188.6572040702014
 20
308.83949816808
 30
0.0
 40
2.999999970329307
100
AcDbArc
 50
90.0
 51
261.7867896860096
  0
ARC
  5
6BB9
330
1A
100
AcDbEntity
  8
SEIHIN
  6
Continuous
100
AcDbCircle
 10
188.1572040702014
 20
305.37539656808
 30
0.0
 40
0.5000000221794436
100
AcDbArc
 50
0.0
 51
81.78678672397376
  0
ARC
  5
6BBA
330
1A
100
AcDbEntity
  8
SEIHIN
  6
Continuous
100
AcDbCircle
 10
188.1572040702014
 20
305.37539656808
 30
0.0
 40
0.5000000221794436
100
AcDbArc
 50
0.0
 51
81.78678672397376
  0
ARC
  5
6BBB
330
1A
100
AcDbEntity
  8
SEIHIN
  6
Continuous
100
AcDbCircle
 10
190.6572040702014
 20
310.83949816808
 30
0.0
 40
1.0
100
AcDbArc
 50
0.0
 51
90.0
  0
ARC
  5
6BBC
330
1A
100
AcDbEntity
  8
SEIHIN
  6
Continuous
100
AcDbCircle
 10
190.6572040702014
 20
310.83949816808
 30
0.0
 40
1.0
100
AcDbArc
 50
0.0
 51
90.0
  0
LINE
  5
6BBD
330
1A
100
AcDbEntity
  8
SEIHIN
  6
Continuous
100
AcDbLine
 10
188.6572040702014
 20
311.83949816808
 30
0.0
 11
190.6572040702014
 21
311.83949816808
 31
0.0
  0
LINE
  5
6BBE
330
1A
100
AcDbEntity
  8
SEIHIN
  6
Continuous
100
AcDbLine
 10
188.6572040702014
 20
311.83949816808
 30
0.0
 11
190.6572040702014
 21
311.83949816808
 31
0.0
  0
LINE
  5
6BBF
330
1A
100
AcDbEntity
  8
SEIHIN
  6
Continuous
100
AcDbLine
 10
295.070031655886
 20
311.95080646808
 30
0.0
 11
294.277812955886
 21
311.83949856808
 31
0.0
  0
LINE
  5
6BC0
330
1A
100
AcDbEntity
  8
SEIHIN
100
AcDbLine
 10
317.6542971092564
 20
421.5481259977615
 30
0.0
 11
371.5976060626149
 21
421.5481259977614
 31
0.0
  0
LINE
  5
6BC1
330
1A
100
AcDbEntity
  8
SEIHIN
100
AcDbLine
 10
317.6542971092564
 20
425.724909815452
 30
0.0
 11
371.5975919271302
 21
425.724909815452
 31
0.0
  0
LINE
  5
6BC2
330
1A
100
AcDbEntity
  8
SEIHIN
100
AcDbLine
 10
333.2985865407445
 20
431.5480506002612
 30
0.0
 11
333.2985865407445
 21
436.1365556066067
 31
0.0
  0
LINE
  5
6BC3
330
1A
100
AcDbEntity
  8
SEIHIN
100
AcDbLine
 10
302.3068987065892
 20
411.1364802066067
 30
0.0
 11
302.3068987065892
 21
436.1365556066068
 31
0.0
  0
LINE
  5
6BC4
330
1A
100
AcDbEntity
  8
SEIHIN
100
AcDbLine
 10
316.4445096849301
 20
431.4394348514697
 30
0.0
 11
316.4445096849301
 21
436.1365556066068
 31
0.0
  0
LINE
  5
6BC5
330
1A
100
AcDbEntity
  8
SEIHIN
100
AcDbLine
 10
331.4012631094967
 20
431.5480506002613
 30
0.0
 11
331.4012631094967
 21
436.1365556066068
 31
0.0
  0
ARC
  5
6BC6
330
1A
100
AcDbEntity
  8
SEIHIN
100
AcDbCircle
 10
294.777812955886
 20
435.6365556066067
 30
0.0
 40
0.5
100
AcDbArc
 50
90.0
 51
180.0
  0
ARC
  5
6BC7
330
1A
100
AcDbEntity
  8
SEIHIN
100
AcDbCircle
 10
295.5700316558859
 20
435.6365556066067
 30
0.0
 40
0.5
100
AcDbArc
 50
90.0
 51
180.0
  0
LINE
  5
6BC8
330
1A
100
AcDbEntity
  8
SEIHIN
100
AcDbLine
 10
295.0700316558861
 20
416.4492230187322
 30
0.0
 11
295.0700316558859
 21
411.6364802066068
 31
0.0
  0
LINE
  5
6BC9
330
1A
100
AcDbEntity
  8
SEIHIN
100
AcDbLine
 10
294.277812955886
 20
416.4492230187322
 30
0.0
 11
294.277812955886
 21
411.6364802066068
 31
0.0
  0
ARC
  5
6BCA
330
1A
100
AcDbEntity
  8
SEIHIN
100
AcDbCircle
 10
294.777812955886
 20
411.6364802066068
 30
0.0
 40
0.5
100
AcDbArc
 50
180.0
 51
270.0
  0
ARC
  5
6BCB
330
1A
100
AcDbEntity
  8
SEIHIN
100
AcDbCircle
 10
295.5700316558859
 20
411.6364802066068
 30
0.0
 40
0.5
100
AcDbArc
 50
180.0
 51
270.0
  0
LINE
  5
6BCC
330
1A
100
AcDbEntity
  8
SEIHIN
100
AcDbLine
 10
294.7150701140899
 20
416.8864801769361
 30
0.0
 11
295.5072888140899
 21
416.886480176936
 31
0.0
  0
LINE
  5
6BCD
330
1A
100
AcDbEntity
  8
SEIHIN
100
AcDbLine
 10
294.7150701140899
 20
430.3865556362774
 30
0.0
 11
295.5072888140899
 21
430.3865556362775
 31
0.0
  0
ARC
  5
6BCE
330
1A
100
AcDbEntity
  8
SEIHIN
100
AcDbCircle
 10
294.7150701140899
 20
416.4492230187322
 30
0.0
 40
0.43725715820392
100
AcDbArc
 50
90.0
 51
180.0
  0
ARC
  5
6BCF
330
1A
100
AcDbEntity
  8
SEIHIN
100
AcDbCircle
 10
294.7150701140899
 20
430.8238127944813
 30
0.0
 40
0.43725715820392
100
AcDbArc
 50
180.0
 51
270.0
  0
LINE
  5
6BD0
330
1A
100
AcDbEntity
  8
SEIHIN
100
AcDbLine
 10
294.277812955886
 20
430.8238127944813
 30
0.0
 11
294.277812955886
 21
435.6365556066067
 31
0.0
  0
LINE
  5
6BD1
330
1A
100
AcDbEntity
  8
SEIHIN
100
AcDbLine
 10
299.9566476807273
 20
414.3864802066068
 30
0.0
 11
299.9566476807274
 21
432.8865556066066
 31
0.0
  0
ARC
  5
6BD2
330
1A
100
AcDbEntity
  8
SEIHIN
100
AcDbCircle
 10
295.5072888140899
 20
416.3996421411987
 30
0.0
 40
0.4868380357374349
100
AcDbArc
 50
0.0
 51
90.0
  0
ARC
  5
6BD3
330
1A
100
AcDbEntity
  8
SEIHIN
100
AcDbCircle
 10
295.5072888140899
 20
416.4492230187322
 30
0.0
 40
0.43725715820392
100
AcDbArc
 50
90.0
 51
180.0
  0
ARC
  5
6BD4
330
1A
100
AcDbEntity
  8
SEIHIN
100
AcDbCircle
 10
296.4941268498274
 20
414.3864802066069
 30
0.0
 40
0.5
100
AcDbArc
 50
180.0
 51
270.0
  0
ARC
  5
6BD5
330
1A
100
AcDbEntity
  8
SEIHIN
100
AcDbCircle
 10
299.4566476807274
 20
414.3864802066069
 30
0.0
 40
0.5
100
AcDbArc
 50
270.0
 51
0.0
  0
LINE
  5
6BD6
330
1A
100
AcDbEntity
  8
SEIHIN
100
AcDbLine
 10
296.4941268498274
 20
413.8864802066069
 30
0.0
 11
299.4566476807274
 21
413.8864802066069
 31
0.0
  0
LINE
  5
6BD7
330
1A
100
AcDbEntity
  8
SEIHIN
100
AcDbLine
 10
295.9941268498274
 20
416.3996421411987
 30
0.0
 11
295.9941268498274
 21
414.3864802066069
 31
0.0
  0
ARC
  5
6BD8
330
1A
100
AcDbEntity
  8
SEIHIN
100
AcDbCircle
 10
299.4566476807274
 20
432.8865556066066
 30
0.0
 40
0.5
100
AcDbArc
 50
0.0
 51
90.0
  0
ARC
  5
6BD9
330
1A
100
AcDbEntity
  8
SEIHIN
100
AcDbCircle
 10
296.4941268498274
 20
432.8865556066066
 30
0.0
 40
0.5
100
AcDbArc
 50
90.0
 51
180.0
  0
ARC
  5
6BDA
330
1A
100
AcDbEntity
  8
SEIHIN
100
AcDbCircle
 10
295.5072888140899
 20
430.8733936720148
 30
0.0
 40
0.4868380357374349
100
AcDbArc
 50
270.0
 51
0.0
  0
ARC
  5
6BDB
330
1A
100
AcDbEntity
  8
SEIHIN
100
AcDbCircle
 10
295.5072888140899
 20
430.8238127944813
 30
0.0
 40
0.43725715820392
100
AcDbArc
 50
180.0
 51
270.0
  0
LINE
  5
6BDC
330
1A
100
AcDbEntity
  8
SEIHIN
100
AcDbLine
 10
295.9941268498274
 20
430.8733936720148
 30
0.0
 11
295.9941268498274
 21
432.8865556066066
 31
0.0
  0
LINE
  5
6BDD
330
1A
100
AcDbEntity
  8
SEIHIN
100
AcDbLine
 10
296.4941268498274
 20
433.3865556066066
 30
0.0
 11
299.4566476807274
 21
433.3865556066066
 31
0.0
  0
LINE
  5
6BDE
330
1A
100
AcDbEntity
  8
SEIHIN
100
AcDbLine
 10
295.0700316558861
 20
430.8238127944813
 30
0.0
 11
295.0700316558859
 21
435.6365556066067
 31
0.0
  0
LINE
  5
6BDF
330
1A
100
AcDbEntity
  8
SEIHIN
100
AcDbLine
 10
333.2985865407446
 20
411.1364802066067
 30
0.0
 11
333.2985865407445
 21
415.7249852129522
 31
0.0
  0
LINE
  5
6BE0
330
1A
100
AcDbEntity
  8
SEIHIN
100
AcDbLine
 10
316.4445096849301
 20
411.1364802066067
 30
0.0
 11
316.4445096849301
 21
415.8336009617437
 31
0.0
  0
LINE
  5
6BE1
330
1A
100
AcDbEntity
  8
SEIHIN
100
AcDbLine
 10
331.4012631094968
 20
411.1364802066067
 30
0.0
 11
331.4012631094967
 21
415.7249852129522
 31
0.0
  0
LINE
  5
6BE2
330
1A
100
AcDbEntity
  8
SEIHIN
100
AcDbLine
 10
316.4445096849301
 20
421.43951024897
 30
0.0
 11
316.4445096849301
 21
425.8335255642435
 31
0.0
  0
LINE
  5
6BE3
330
1A
100
AcDbEntity
  8
SEIHIN
100
AcDbLine
 10
333.2985865407445
 20
421.5481259977614
 30
0.0
 11
333.2985865407445
 21
425.7249098154519
 31
0.0
  0
LINE
  5
6BE4
330
1A
100
AcDbEntity
  8
SEIHIN
100
AcDbLine
 10
331.4012631094967
 20
421.5481259977614
 30
0.0
 11
331.4012631094967
 21
425.724909815452
 31
0.0
  0
ARC
  5
6BE5
330
1A
100
AcDbEntity
  8
SEIHIN
100
AcDbCircle
 10
333.007122249893
 20
418.6365556053568
 30
0.0
 40
2.926122619229873
100
AcDbArc
 50
84.28342049197542
 51
275.7165795080246
  0
ARC
  5
6BE6
330
1A
100
AcDbEntity
  8
SEIHIN
100
AcDbCircle
 10
331.1097988186452
 20
418.6365556053569
 30
0.0
 40
2.926122619229873
100
AcDbArc
 50
84.28342049197542
 51
275.7165795080246
  0
ARC
  5
6BE7
330
1A
100
AcDbEntity
  8
SEIHIN
100
AcDbCircle
 10
333.0071222498928
 20
428.6364802078564
 30
0.0
 40
2.92612261923006
100
AcDbArc
 50
84.28342049197218
 51
275.7165795080278
  0
ARC
  5
6BE8
330
1A
100
AcDbEntity
  8
SEIHIN
100
AcDbCircle
 10
331.109798818645
 20
428.6364802078565
 30
0.0
 40
2.92612261923006
100
AcDbArc
 50
84.28342049197218
 51
275.7165795080278
  0
LINE
  5
6BE9
330
1A
100
AcDbEntity
  8
CENTER L
100
AcDbLine
 10
378.278656355886
 20
404.1364802066067
 30
0.0
 11
378.2786563558859
 21
443.1365556066066
 31
0.0
  0
ARC
  5
6BEA
330
1A
100
AcDbEntity
  8
SEIHIN
  6
Continuous
 62
     3
 48
16.0
100
AcDbCircle
 10
378.2786563558859
 20
423.6365179066068
 30
0.0
 40
3.5
100
AcDbArc
 50
0.0
 51
180.0
  0
ARC
  5
6BEB
330
1A
100
AcDbEntity
  8
SEIHIN
  6
Continuous
 62
     3
 48
16.0
100
AcDbCircle
 10
378.2786563558859
 20
423.6365179066068
 30
0.0
 40
5.0
100
AcDbArc
 50
0.0
 51
180.0
  0
ARC
  5
6BEC
330
1A
100
AcDbEntity
  8
SEIHIN
  6
Continuous
 62
     3
 48
16.0
100
AcDbCircle
 10
378.278789209204
 20
423.636540517751
 30
0.0
 40
6.999977388932751
100
AcDbArc
 50
17.35789299744776
 51
162.6421070025523
  0
ARC
  5
6BED
330
1A
100
AcDbEntity
  8
SEIHIN
  6
Continuous
 62
     3
 48
16.0
100
AcDbCircle
 10
378.2787213520712
 20
423.6365419979523
 30
0.0
 40
7.000024091433149
100
AcDbArc
 50
197.3581740146051
 51
342.6418259853957
  0
ARC
  5
6BEE
330
1A
100
AcDbEntity
  8
SEIHIN
  6
Continuous
 62
     3
 48
16.0
100
AcDbCircle
 10
378.2786563558859
 20
423.6365179066068
 30
0.0
 40
3.5
100
AcDbArc
 50
180.0
 51
0.0
  0
ARC
  5
6BEF
330
1A
100
AcDbEntity
  8
SEIHIN
  6
Continuous
 62
     3
 48
16.0
100
AcDbCircle
 10
378.2786563558859
 20
423.6365179066068
 30
0.0
 40
5.0
100
AcDbArc
 50
180.0
 51
0.0
  0
DIMENSION
  5
6BF0
330
1A
100
AcDbEntity
  8
SUNPOU
  6
Continuous
100
AcDbDimension
  2
*D8
 10
563.5408161080916
 20
295.5563499159779
 30
0.0
 11
537.3880387716314
 21
285.096043126835
 31
0.0
 70
   161
 71
     5
 42
-1.0
  3
STANDARD
100
AcDbAlignedDimension
 13
520.3740314800592
 23
241.9161559795435
 33
0.0
 14
576.0831549081707
 24
264.1980924069941
 34
0.0
1001
ACAD
1000
DSTYLE
1002
{
1070
   140
1040
6.0
1070
    74
1070
     0
1070
   172
1070
     1
1070
    73
1070
     0
1070
   272
1070
     2
1070
    77
1070
     3
1070
   173
1070
     1
1070
   147
1040
2.0
1070
    42
1040
6.0
1070
    44
1040
3.0
1070
    43
1040
14.0
1070
   271
1070
     0
1070
   178
1070
     4
1070
   177
1070
     4
1070
   176
1070
     4
1070
   141
1040
150.0
1070
     7
1000
_OPEN
1070
     6
1000
_OPEN
1070
    41
1040
7.0
1002
}
  0
LEADER
  5
6BF1
330
1A
100
AcDbEntity
  8
SUNPOU
  6
Continuous
 62
     4
100
AcDbLeader
  3
STANDARD
 74
     0
 40
6.0
 41
30.2
 76
     3
 10
578.1256719553443
 20
261.0916222991238
 30
0.0
 10
608.5409234984876
 20
303.4645317245532
 30
0.0
 10
612.0546912811486
 20
303.4645317245532
 30
0.0
1001
ACAD
1000
DSTYLE
1002
{
1070
     6
1000
OPEN
1070
    41
1040
7.0
1070
    42
1040
6.0
1070
    43
1040
14.0
1070
    44
1040
3.0
1070
    73
1070
     0
1070
    74
1070
     0
1070
    77
1070
     3
1070
   140
1040
6.0
1070
   141
1040
150.0
1070
   147
1040
2.0
1070
   172
1070
     1
1070
   173
1070
     1
1070
   176
1070
     4
1070
   177
1070
     4
1070
   178
1070
     4
1070
   271
1070
     0
1070
   272
1070
     2
1070
   341
1005
6D
1070
   343
1005
6D
1070
   344
1005
6D
1002
}
  0
DIMENSION
  5
6BF2
330
1A
100
AcDbEntity
  8
SUNPOU
  6
Continuous
100
AcDbDimension
  2
*D9
 10
572.8257326540002
 20
299.2700310417829
 30
0.0
 11
589.0743897633182
 21
311.1541019833335
 31
0.0
 70
    33
 71
     5
 42
-1.0
  3
STANDARD
100
AcDbAlignedDimension
 13
576.0831549081703
 23
264.1980924069939
 33
0.0
 14
585.3680714540795
 24
267.9117735327993
 34
0.0
1001
ACAD
1000
DSTYLE
1002
{
1070
   140
1040
6.0
1070
    74
1070
     0
1070
   172
1070
     1
1070
    73
1070
     0
1070
   272
1070
     2
1070
    77
1070
     3
1070
   173
1070
     1
1070
   147
1040
2.0
1070
    42
1040
6.0
1070
    44
1040
3.0
1070
    43
1040
14.0
1070
   271
1070
     0
1070
   178
1070
     4
1070
   177
1070
     4
1070
   176
1070
     4
1070
   141
1040
150.0
1070
     7
1000
_OPEN
1070
     6
1000
_OPEN
1070
    41
1040
7.0
1002
}
  0
LINE
  5
6BF3
330
1A
100
AcDbEntity
  8
SEIHIN
  6
Continuous
 62
     3
 48
16.0
100
AcDbLine
 10
589.4530884123049
 20
257.698431133916
 30
0.0
 11
456.1742563558858
 21
204.39099636808
 31
0.0
  0
LINE
  5
6BF4
330
1A
100
AcDbEntity
  8
SEIHIN
  6
Continuous
 62
     3
 48
16.0
100
AcDbLine
 10
585.3680884123045
 20
267.9117311339163
 30
0.0
 11
452.0892563558857
 21
214.6042963680799
 31
0.0
  0
LINE
  5
6BF5
330
1A
100
AcDbEntity
  8
CENTER L
  6
CENTER
 62
     1
100
AcDbLine
 10
430.1095480920653
 20
199.8894964980333
 30
0.0
 11
601.8433446379684
 21
268.57786772729
 31
0.0
  0
ARC
  5
6BF6
330
1A
100
AcDbEntity
  8
SEIHIN
  6
Continuous
 62
     3
 48
16.0
100
AcDbCircle
 10
452.460584060407
 20
213.6757982909761
 30
0.0
 40
9.999945433132169
100
AcDbArc
 50
256.1403669768801
 51
291.8000876539341
  0
ARC
  5
6BF7
330
1A
100
AcDbEntity
  8
SEIHIN
  6
Continuous
 62
     3
 48
16.0
100
AcDbCircle
 10
447.669848828097
 20
194.2580920866137
 30
0.0
 40
9.999942889837124
100
AcDbArc
 50
76.14048245304541
 51
163.1179701078653
  0
ARC
  5
6BF8
330
1A
100
AcDbEntity
  8
SEIHIN
  6
Continuous
 62
     3
 48
16.0
100
AcDbCircle
 10
447.6698431894095
 20
194.2580904140805
 30
0.0
 40
13.49996792255348
100
AcDbArc
 50
65.54771535924343
 51
163.1180273241067
  0
LINE
  5
6BF9
330
1A
100
AcDbEntity
  8
SEIHIN
  6
Continuous
100
AcDbLine
 10
423.323398155886
 20
197.93062836808
 30
0.0
 11
425.223445455886
 21
234.18569056808
 31
0.0
  0
LINE
  5
6BFA
330
1A
100
AcDbEntity
  8
SEIHIN
  6
Continuous
100
AcDbLine
 10
424.122301855886
 20
197.88875956808
 30
0.0
 11
426.008141055886
 21
233.87271596808
 31
0.0
  0
LINE
  5
6BFB
330
1A
100
AcDbEntity
  8
SEIHIN
  6
Continuous
100
AcDbLine
 10
427.617505155886
 20
197.70558376808
 30
0.0
 11
429.627983455886
 21
236.06779406808
 31
0.0
  0
LINE
  5
6BFC
330
1A
100
AcDbEntity
  8
SEIHIN
  6
Continuous
 62
     3
 48
16.0
100
AcDbLine
 10
434.8836563558859
 20
198.58989636808
 30
0.0
 11
425.3268563558861
 21
170.38099636808
 31
0.0
  0
LINE
  5
6BFD
330
1A
100
AcDbEntity
  8
SEIHIN
  6
Continuous
 62
     3
 48
16.0
100
AcDbLine
 10
438.198656355886
 20
197.4667963680799
 30
0.0
 11
428.641756355886
 21
169.2578963680799
 31
0.0
  0
ARC
  5
6BFE
330
1A
100
AcDbEntity
  8
SEIHIN
  6
Continuous
100
AcDbCircle
 10
422.824083455886
 20
197.95679636808
 30
0.0
 40
4.799999966897381
100
AcDbArc
 50
270.0
 51
356.9999998386485
  0
ARC
  5
6BFF
330
1A
100
AcDbEntity
  8
SEIHIN
  6
Continuous
100
AcDbCircle
 10
422.824083455886
 20
197.95679636808
 30
0.0
 40
0.5000000038947732
100
AcDbArc
 50
270.0
 51
356.9999975074562
  0
ARC
  5
6C00
330
1A
100
AcDbEntity
  8
SEIHIN
  6
Continuous
100
AcDbCircle
 10
422.824083455886
 20
197.95679636808
 30
0.0
 40
1.300000003894773
100
AcDbArc
 50
270.0
 51
356.9999975074562
  0
LINE
  5
6C01
330
1A
100
AcDbEntity
  8
SEIHIN
  6
Continuous
100
AcDbLine
 10
432.237653555886
 20
258.99824826808
 30
0.0
 11
432.237653555886
 21
238.78692336808
 31
0.0
  0
LINE
  5
6C02
330
1A
100
AcDbEntity
  8
SEIHIN
  6
Continuous
100
AcDbLine
 10
433.037653555886
 20
258.99824826808
 30
0.0
 11
433.037653555886
 21
238.78692336808
 31
0.0
  0
ARC
  5
6C03
330
1A
100
AcDbEntity
  8
SEIHIN
  6
Continuous
100
AcDbCircle
 10
426.207866955886
 20
233.86224876808
 30
0.0
 40
0.2000000050908014
100
AcDbArc
 50
119.9999972436328
 51
176.9999973921265
  0
LINE
  5
6C04
330
1A
100
AcDbEntity
  8
SEIHIN
  6
Continuous
100
AcDbLine
 10
425.472760255886
 20
234.59253526808
 30
0.0
 11
431.987653555886
 21
238.35391066808
 31
0.0
  0
ARC
  5
6C05
330
1A
100
AcDbEntity
  8
SEIHIN
  6
Continuous
100
AcDbCircle
 10
425.722760255886
 20
234.15952256808
 30
0.0
 40
0.5000000160421705
100
AcDbArc
 50
120.0000001084143
 51
176.9999976919904
  0
ARC
  5
6C06
330
1A
100
AcDbEntity
  8
SEIHIN
  6
Continuous
100
AcDbCircle
 10
431.737653555886
 20
238.78692336808
 30
0.0
 40
0.499999999180623
100
AcDbArc
 50
300.000000108418
 51
0.0
  0
ARC
  5
6C07
330
1A
100
AcDbEntity
  8
SEIHIN
  6
Continuous
100
AcDbCircle
 10
431.737653555886
 20
238.78692336808
 30
0.0
 40
1.299999989209419
100
AcDbArc
 50
300.000000549153
 51
0.0
  0
LINE
  5
6C08
330
1A
100
AcDbEntity
  8
SEIHIN
  6
Continuous
100
AcDbLine
 10
426.107866955886
 20
234.03545386808
 30
0.0
 11
432.387653555886
 21
237.66109036808
 31
0.0
  0
ARC
  5
6C09
330
1A
100
AcDbEntity
  8
SEIHIN
  6
Continuous
 62
     3
 48
16.0
100
AcDbCircle
 10
457.397082832925
 20
215.6502980697262
 30
0.0
 40
9.999982820922154
100
AcDbArc
 50
245.5484664594024
 51
291.8006266384947
  0
ARC
  5
6C0A
330
1A
100
AcDbEntity
  8
SEIHIN
  6
Continuous
 62
     3
 48
16.0
100
AcDbCircle
 10
455.8030009217212
 20
205.3193332749886
 30
0.0
 40
10.00002906784378
100
AcDbArc
 50
111.8003419618347
 51
147.459560257253
  0
ARC
  5
6C0B
330
1A
100
AcDbEntity
  8
SEIHIN
  6
Continuous
 62
     3
 48
16.0
100
AcDbCircle
 10
438.942779442478
 20
216.0774154869282
 30
0.0
 40
10.00005596288012
100
AcDbArc
 50
291.7998628535166
 51
327.4585981434773
  0
LINE
  5
6C0C
330
1A
100
AcDbEntity
  8
SEIHIN
  6
Continuous
100
AcDbLine
 10
424.944760355886
 20
259.49824826808
 30
0.0
 11
431.737653555886
 21
259.49824826808
 31
0.0
  0
LINE
  5
6C0D
330
1A
100
AcDbEntity
  8
SEIHIN
  6
Continuous
100
AcDbLine
 10
424.944760355886
 20
260.29824826808
 30
0.0
 11
431.737653555886
 21
260.29824826808
 31
0.0
  0
LINE
  5
6C0E
330
1A
100
AcDbEntity
  8
SEIHIN
  6
Continuous
100
AcDbLine
 10
424.0255215360697
 20
259.9174869981621
 30
0.0
 11
418.5151138360697
 21
254.4070793981621
 31
0.0
  0
ARC
  5
6C0F
330
1A
100
AcDbEntity
  8
SEIHIN
  6
Continuous
100
AcDbCircle
 10
424.944760355886
 20
258.99824826808
 30
0.0
 40
0.4999999712962173
100
AcDbArc
 50
90.0
 51
135.0000081028493
  0
ARC
  5
6C10
330
1A
100
AcDbEntity
  8
SEIHIN
  6
Continuous
100
AcDbCircle
 10
424.944760355886
 20
258.99824826808
 30
0.0
 40
1.299999989009792
100
AcDbArc
 50
90.0
 51
135.0
  0
LINE
  5
6C11
330
1A
100
AcDbEntity
  8
SEIHIN
  6
Continuous
100
AcDbLine
 10
418.373692555886
 20
254.54850076808
 30
0.0
 11
417.888585055886
 21
255.17643616808
 31
0.0
  0
LINE
  5
6C12
330
1A
100
AcDbEntity
  8
SEIHIN
  6
Continuous
100
AcDbLine
 10
419.080799255886
 20
253.84139396808
 30
0.0
 11
418.373692555886
 21
254.54850076808
 31
0.0
  0
LINE
  5
6C13
330
1A
100
AcDbEntity
  8
SEIHIN
  6
Continuous
100
AcDbLine
 10
424.025521555886
 20
259.91748706808
 30
0.0
 11
417.888585055886
 21
255.17643616808
 31
0.0
  0
LINE
  5
6C14
330
1A
100
AcDbEntity
  8
SEIHIN
  6
Continuous
100
AcDbLine
 10
418.373692555886
 20
254.54850076808
 30
0.0
 11
424.591206955886
 21
259.35180156808
 31
0.0
  0
LINE
  5
6C15
330
1A
100
AcDbEntity
  8
SEIHIN
  6
Continuous
100
AcDbLine
 10
424.591206955886
 20
259.35180156808
 30
0.0
 11
419.080799255886
 21
253.84139396808
 31
0.0
  0
ARC
  5
6C16
330
1A
100
AcDbEntity
  8
SEIHIN
  6
Continuous
100
AcDbCircle
 10
431.737653555886
 20
258.99824826808
 30
0.0
 40
0.5
100
AcDbArc
 50
0.0
 51
90.0
  0
ARC
  5
6C17
330
1A
100
AcDbEntity
  8
SEIHIN
  6
Continuous
100
AcDbCircle
 10
431.737653555886
 20
258.99824826808
 30
0.0
 40
1.300000000000004
100
AcDbArc
 50
0.0
 51
90.0
  0
CIRCLE
  5
6C18
330
1A
100
AcDbEntity
  8
SEIHIN
100
AcDbCircle
 10
522.4165402231089
 20
236.8095266265145
 30
0.0
 40
1.75
  0
LINE
  5
6C19
330
1A
100
AcDbEntity
  8
CENTER L
  6
CENTER
 62
     1
 48
5.0
100
AcDbLine
 10
520.559671955344
 20
241.4520222991238
 30
0.0
 11
524.2733719553443
 21
232.1671222991238
 31
0.0
  0
DIMENSION
  5
6C1A
330
1A
100
AcDbEntity
  8
SUNPOU
  6
Continuous
100
AcDbDimension
  2
*D10
 10
621.9504034749089
 20
270.6963881446366
 30
0.0
 11
624.5503370846465
 21
277.6598661332182
 31
0.0
 70
    33
 71
     5
 42
-1.0
  3
STANDARD
100
AcDbAlignedDimension
 13
585.36807145408
 23
267.9117735327994
 33
0.0
 14
589.45307145408
 24
257.698473532799
 34
0.0
1001
ACAD
1000
DSTYLE
1002
{
1070
   140
1040
6.0
1070
    74
1070
     0
1070
   172
1070
     1
1070
    73
1070
     0
1070
   272
1070
     2
1070
    77
1070
     3
1070
   173
1070
     1
1070
   147
1040
2.0
1070
    42
1040
6.0
1070
    44
1040
3.0
1070
    43
1040
14.0
1070
   271
1070
     0
1070
   178
1070
     4
1070
   177
1070
     4
1070
   176
1070
     4
1070
   141
1040
150.0
1070
     7
1000
_OPEN
1070
     6
1000
_OPEN
1070
    41
1040
7.0
1002
}
  0
LINE
  5
6C1B
330
1A
100
AcDbEntity
  8
CENTER L
  6
CENTER
 62
     1
 48
5.0
100
AcDbLine
 10
576.2687719553441
 20
263.7340222991239
 30
0.0
 11
579.9824719553443
 21
254.4492222991239
 31
0.0
  0
LINE
  5
6C1C
330
1A
100
AcDbEntity
  8
SEIHIN
  6
Continuous
 62
     3
 48
16.0
100
AcDbLine
 10
585.3679719553442
 20
267.9120222991239
 30
0.0
 11
589.45307145408
 21
257.698473532799
 31
0.0
  0
CIRCLE
  5
6C1D
330
1A
100
AcDbEntity
  8
SEIHIN
100
AcDbCircle
 10
578.1256677300042
 20
259.0915078556944
 30
0.0
 40
1.75
  0
LINE
  5
6C1E
330
1A
100
AcDbEntity
  8
SUNPOU
  6
Continuous
 62
     4
 48
16.0
100
AcDbLine
 10
663.119705954149
 20
293.0872314512055
 30
0.0
 11
643.1197059541495
 21
285.0872314512055
 31
0.0
  0
LINE
  5
6C1F
330
1A
100
AcDbEntity
  8
SUNPOU
  6
Continuous
 62
     4
 48
16.0
100
AcDbLine
 10
643.1197059541495
 20
285.0872314512055
 30
0.0
 11
663.119705954149
 21
285.0872314512055
 31
0.0
  0
TEXT
  5
6C20
330
1A
100
AcDbEntity
  8
SUNPOU
  6
Continuous
 62
     4
 48
16.0
100
AcDbText
 10
651.2552717710527
 20
275.2017683325843
 30
0.0
 40
6.0
  1
10
100
AcDbText
  0
LINE
  5
6C21
330
1A
100
AcDbEntity
  8
SUNPOU
  6
Continuous
 62
     4
 48
16.0
100
AcDbLine
 10
663.119705954149
 20
285.0872314512055
 30
0.0
 11
663.119705954149
 21
293.0872314512055
 31
0.0
  0
TEXT
  5
6C22
330
1A
100
AcDbEntity
  8
SUNPOU
  6
Continuous
 62
     4
 48
16.0
100
AcDbText
 10
667.8855059541492
 20
286.7951314512055
 30
0.0
 40
6.0
  1
4
100
AcDbText
  0
LINE
  5
6C23
330
1A
100
AcDbEntity
  8
SEIHIN
  6
Continuous
 62
     3
 48
16.0
100
AcDbLine
 10
586.270079798982
 20
421.886517906607
 30
0.0
 11
456.4801535558857
 21
421.886517906607
 31
0.0
  0
LINE
  5
6C24
330
1A
100
AcDbEntity
  8
SEIHIN
  6
Continuous
 62
     3
 48
16.0
100
AcDbLine
 10
586.270079798982
 20
425.3865179066069
 30
0.0
 11
456.8080535558859
 21
425.3865179066069
 31
0.0
  0
ARC
  5
6C25
330
1A
100
AcDbEntity
  8
SEIHIN
100
AcDbCircle
 10
298.444043900772
 20
423.8865179066073
 30
0.0
 40
120.0710699352977
100
AcDbArc
 50
353.9044165160067
 51
5.855688673102089
  0
LINE
  5
6C26
330
1A
100
AcDbEntity
  8
SEIHIN
100
AcDbLine
 10
424.5183885078237
 20
411.1364802066067
 30
0.0
 11
424.5183885078237
 21
436.1365556066068
 31
0.0
  0
LINE
  5
6C27
330
1A
100
AcDbEntity
  8
SEIHIN
100
AcDbLine
 10
433.0376535558861
 20
411.1364802066067
 30
0.0
 11
433.037653555886
 21
436.1365556066068
 31
0.0
  0
ARC
  5
6C28
330
1A
100
AcDbEntity
  8
SEIHIN
  6
Continuous
 62
     3
 48
16.0
100
AcDbCircle
 10
440.4120423823018
 20
424.1365225606111
 30
0.0
 40
4.999995346008266
100
AcDbArc
 50
44.77461181808874
 51
89.99987196004074
  0
LINE
  5
6C29
330
1A
100
AcDbEntity
  8
SEIHIN
  6
Continuous
 62
     3
 48
16.0
100
AcDbLine
 10
443.3817535558861
 20
429.1365179066069
 30
0.0
 11
433.037653555886
 21
429.1365179066069
 31
0.0
  0
LINE
  5
6C2A
330
1A
100
AcDbEntity
  8
SEIHIN
  6
Continuous
 62
     3
 48
16.0
100
AcDbLine
 10
443.3817535558861
 20
418.136517906607
 30
0.0
 11
433.037653555886
 21
418.136517906607
 31
0.0
  0
ARC
  5
6C2B
330
1A
100
AcDbEntity
  8
SEIHIN
  6
Continuous
 62
     3
 48
16.0
100
AcDbCircle
 10
458.1591566281507
 20
441.7445163109834
 30
0.0
 40
20.00003481334507
100
AcDbArc
 50
224.774528641259
 51
260.3339744485022
  0
ARC
  5
6C2C
330
1A
100
AcDbEntity
  8
SEIHIN
  6
Continuous
 62
     3
 48
16.0
100
AcDbCircle
 10
458.1590865599399
 20
405.528392519152
 30
0.0
 40
16.49999667241999
100
AcDbArc
 50
101.996772305301
 51
119.5101579315682
  0
ARC
  5
6C2D
330
1A
100
AcDbEntity
  8
SEIHIN
  6
Continuous
 62
     3
 48
16.0
100
AcDbCircle
 10
443.3818795381238
 20
431.6365510867106
 30
0.0
 40
13.50003318069146
100
AcDbArc
 50
269.9994653160923
 51
299.5094586112987
  0
ARC
  5
6C2E
330
1A
100
AcDbEntity
  8
SEIHIN
  6
Continuous
 62
     3
 48
16.0
100
AcDbCircle
 10
456.479706384954
 20
431.8865557169629
 30
0.0
 40
10.00003782035402
100
AcDbArc
 50
260.336311674563
 51
270.002562091021
  0
ARC
  5
6C2F
330
1A
100
AcDbEntity
  8
SEIHIN
  6
Continuous
 62
     3
 48
16.0
100
AcDbCircle
 10
456.8084532090709
 20
411.8865599015333
 30
0.0
 40
9.999958013059889
100
AcDbArc
 50
90.00228985369067
 51
101.9993643017546
  0
ARC
  5
6C30
330
1A
100
AcDbEntity
  8
SEIHIN
  6
Continuous
 62
     3
 48
16.0
100
AcDbCircle
 10
458.1590865599406
 20
441.7445432940618
 30
0.0
 40
16.49999667242034
100
AcDbArc
 50
240.4898420684282
 51
258.0032276946958
  0
ARC
  5
6C31
330
1A
100
AcDbEntity
  8
SEIHIN
  6
Continuous
 62
     3
 48
16.0
100
AcDbCircle
 10
443.3817143212949
 20
415.6365282399481
 30
0.0
 40
13.49998966671572
100
AcDbArc
 50
60.48963113209143
 51
89.99983348309432
  0
ARC
  5
6C32
330
1A
100
AcDbEntity
  8
SEIHIN
  6
Continuous
 62
     3
 48
16.0
100
AcDbCircle
 10
456.8079877663154
 20
435.3865248196021
 30
0.0
 40
10.00000691321163
100
AcDbArc
 50
258.0034215939901
 51
270.0003769462107
  0
LINE
  5
6C33
330
1A
100
AcDbEntity
  8
CENTER L
  6
CENTER
 48
5.0
100
AcDbLine
 10
519.2337092647623
 20
414.886517906607
 30
0.0
 11
519.2337092647623
 21
432.3865179066069
 31
0.0
  0
DIMENSION
  5
6C34
330
1A
100
AcDbEntity
  8
SUNPOU
  6
Continuous
 62
     4
100
AcDbDimension
  2
*D11
 10
613.0286911286663
 20
421.886517906607
 30
0.0
 11
608.0286911286662
 21
396.886517906607
 31
0.0
 70
    32
  1
{t<>}
 71
     5
 42
-1.0
  3
STANDARD
100
AcDbAlignedDimension
 13
586.270079798982
 23
425.3865179066069
 33
0.0
 14
586.270079798982
 24
421.886517906607
 34
0.0
 50
90.0
100
AcDbRotatedDimension
1001
ACAD
1000
DSTYLE
1002
{
1070
   140
1040
6.0
1070
    74
1070
     0
1070
   172
1070
     1
1070
    73
1070
     0
1070
   272
1070
     2
1070
    77
1070
     3
1070
   173
1070
     1
1070
   147
1040
2.0
1070
    42
1040
6.0
1070
    44
1040
3.0
1070
    43
1040
14.0
1070
   271
1070
     1
1070
   178
1070
     4
1070
   177
1070
     4
1070
   176
1070
     4
1070
   141
1040
150.0
1070
     7
1000
_OPEN
1070
     6
1000
_OPEN
1070
    41
1040
7.0
1002
}
  0
MTEXT
  5
6C35
330
1A
100
AcDbEntity
  8
SUNPOU
  6
Continuous
 62
     4
100
AcDbMText
 10
614.0546912811486
 20
305.4645317245532
 30
0.0
 40
6.0
 41
0.0
 71
     7
 72
     5
  1
2-φ3.5
 73
     1
 44
1.0
  0
LINE
  5
6C36
330
1A
100
AcDbEntity
  8
SEIHIN
  6
Continuous
 62
     3
 48
16.0
100
AcDbLine
 10
586.270079798982
 20
421.886517906607
 30
0.0
 11
586.270079798982
 21
425.3865179066069
 31
0.0
  0
LINE
  5
6C37
330
1A
100
AcDbEntity
  8
SEIHIN
  6
Continuous
 62
     3
 48
16.0
100
AcDbLine
 10
582.185079798982
 20
421.886517906607
 30
0.0
 11
582.185079798982
 21
425.3865179066069
 31
0.0
  0
DIMENSION
  5
6C38
330
1A
100
AcDbEntity
  8
SUNPOU
100
AcDbDimension
  2
*D12
 10
408.397706943781
 20
117.9643587244529
 30
0.0
 11
508.6743811034077
 21
163.4570773839861
 31
0.0
 70
    33
 71
     5
 42
-1.0
  3
STANDARD
100
AcDbAlignedDimension
 13
589.45307145408
 23
257.698473532799
 33
0.0
 14
385.1860605582864
 24
175.9979007936604
 34
0.0
1001
ACAD
1000
DSTYLE
1002
{
1070
    41
1040
6.0
1070
    42
1040
6.0
1070
    43
1040
14.0
1070
    44
1040
3.0
1070
    73
1070
     0
1070
    74
1070
     0
1070
    77
1070
     3
1070
   140
1040
6.0
1070
   141
1040
10.0
1070
   147
1040
2.0
1070
   172
1070
     1
1070
   173
1070
     1
1070
   176
1070
   256
1070
   177
1070
   256
1070
   178
1070
   256
1070
   271
1070
     0
1070
   272
1070
     0
1070
   341
1005
6D
1070
     6
1000
OPEN
1070
     7
1000
OPEN
1002
}
  0
LINE
  5
6D61
330
1A
100
AcDbEntity
  8
SUNPOU
100
AcDbLine
 10
738.8147409356503
 20
41.01742645184447
 30
0.0
 11
738.8147784356504
 21
108.5174714518444
 31
0.0
  0
LINE
  5
6D62
330
1A
100
AcDbEntity
  8
SUNPOU
100
AcDbLine
 10
783.8147109356503
 20
119.7674714518444
 30
0.0
 11
783.8147859356504
 21
41.01742645184447
 31
0.0
  0
LINE
  5
6D63
330
1A
100
AcDbEntity
  8
SUNPOU
100
AcDbLine
 10
693.5467226695478
 20
119.7674714518444
 30
0.0
 11
693.5467151695477
 21
41.01742645184447
 31
0.0
  0
LINE
  5
6D64
330
1A
100
AcDbEntity
  8
SUNPOU
100
AcDbLine
 10
693.5467226695478
 20
41.01742645184447
 30
0.0
 11
783.8147859356504
 21
41.01742645184447
 31
0.0
  0
LINE
  5
6D65
330
1A
100
AcDbEntity
  8
SUNPOU
100
AcDbLine
 10
693.5467226695478
 20
52.26742645184447
 30
0.0
 11
783.8147859356504
 21
52.26742645184447
 31
0.0
  0
LINE
  5
6D66
330
1A
100
AcDbEntity
  8
SUNPOU
100
AcDbLine
 10
693.5467226695478
 20
63.51742645184447
 30
0.0
 11
783.8147859356504
 21
63.51742645184447
 31
0.0
  0
LINE
  5
6D67
330
1A
100
AcDbEntity
  8
SUNPOU
100
AcDbLine
 10
693.5467226695478
 20
74.76742645184447
 30
0.0
 11
783.8147859356504
 21
74.76742645184447
 31
0.0
  0
LINE
  5
6D68
330
1A
100
AcDbEntity
  8
SUNPOU
100
AcDbLine
 10
693.5467226695478
 20
86.01742645184447
 30
0.0
 11
783.8147859356504
 21
86.01742645184447
 31
0.0
  0
LINE
  5
6D69
330
1A
100
AcDbEntity
  8
SUNPOU
100
AcDbLine
 10
693.5467226695478
 20
97.26747145184444
 30
0.0
 11
783.8147859356504
 21
97.26747145184444
 31
0.0
  0
TEXT
  5
6D6A
330
1A
100
AcDbEntity
  8
SUNPOU
100
AcDbText
 10
707.877200540555
 20
43.82991895184441
 30
0.0
 40
5.6
  1
＃１
 41
0.984421610871727
  7
ｽﾀｲﾙ1
 72
     5
 11
721.377200540555
 21
43.82991895184441
 31
0.0
100
AcDbText
  0
TEXT
  5
6D6B
330
1A
100
AcDbEntity
  8
SUNPOU
100
AcDbText
 10
707.8771941119829
 20
55.07991895184441
 30
0.0
 40
5.6
  1
＃２
 41
0.984421610871727
  7
ｽﾀｲﾙ1
 72
     5
 11
721.3771941119829
 21
55.07991895184441
 31
0.0
100
AcDbText
  0
TEXT
  5
6D6C
330
1A
100
AcDbEntity
  8
SUNPOU
100
AcDbText
 10
707.8771908976947
 20
66.32991895184441
 30
0.0
 40
5.6
  1
＃３
 41
0.984421610871727
  7
ｽﾀｲﾙ1
 72
     5
 11
721.3771908976947
 21
66.32991895184441
 31
0.0
100
AcDbText
  0
TEXT
  5
6D6D
330
1A
100
AcDbEntity
  8
SUNPOU
100
AcDbText
 10
707.8771941119829
 20
77.57991895184441
 30
0.0
 40
5.6
  1
＃４
 41
0.984421610871727
  7
ｽﾀｲﾙ1
 72
     5
 11
721.3771941119829
 21
77.57991895184441
 31
0.0
100
AcDbText
  0
TEXT
  5
6D6E
330
1A
100
AcDbEntity
  8
SUNPOU
100
AcDbText
 10
707.877155540555
 20
100.0799639518445
 30
0.0
 40
5.6
  1
呼び
 41
0.8451906659077973
  7
ｽﾀｲﾙ1
 72
     5
 11
721.377155540555
 21
100.0799639518445
 31
0.0
100
AcDbText
  0
TEXT
  5
6D6F
330
1A
100
AcDbEntity
  8
SUNPOU
100
AcDbText
 10
707.8771908976947
 20
88.82991895184441
 30
0.0
 40
5.6
  1
＃５
 41
0.984421610871727
  7
ｽﾀｲﾙ1
 72
     5
 11
721.3771908976947
 21
88.82991895184441
 31
0.0
100
AcDbText
  0
TEXT
  5
6D70
330
1A
100
AcDbEntity
  8
SUNPOU
100
AcDbText
 10
752.8772109356503
 20
43.82994145184443
 30
0.0
 40
5.6
  1
51
 41
1.657366071428586
  7
ｽﾀｲﾙ1
 72
     5
 11
766.3772109356504
 21
43.82994145184443
 31
0.0
100
AcDbText
  0
TEXT
  5
6D71
330
1A
100
AcDbEntity
  8
SUNPOU
100
AcDbText
 10
752.8771359356502
 20
55.07985145184441
 30
0.0
 40
5.6
  1
46
 41
1.657366071428572
  7
ｽﾀｲﾙ1
 72
     5
 11
766.3771359356502
 21
55.07985145184441
 31
0.0
100
AcDbText
  0
TEXT
  5
6D72
330
1A
100
AcDbEntity
  8
SUNPOU
100
AcDbText
 10
752.8771359356502
 20
66.32985145184441
 30
0.0
 40
5.6
  1
41
 41
1.657366071428572
  7
ｽﾀｲﾙ1
 72
     5
 11
766.3771359356502
 21
66.32985145184441
 31
0.0
100
AcDbText
  0
TEXT
  5
6D73
330
1A
100
AcDbEntity
  8
SUNPOU
100
AcDbText
 10
752.8772109356503
 20
77.57985145184441
 30
0.0
 40
5.6
  1
36
 41
1.657366071428586
  7
ｽﾀｲﾙ1
 72
     5
 11
766.3772109356504
 21
77.57985145184441
 31
0.0
100
AcDbText
  0
TEXT
  5
6D74
330
1A
100
AcDbEntity
  8
SUNPOU
100
AcDbText
 10
752.8772109356503
 20
88.82985895184447
 30
0.0
 40
5.6
  1
31
 41
1.657366071428586
  7
ｽﾀｲﾙ1
 72
     5
 11
766.3772109356504
 21
88.82985895184447
 31
0.0
100
AcDbText
  0
TEXT
  5
6D75
330
1A
100
AcDbEntity
  8
SUNPOU
100
AcDbText
 10
752.8772130785104
 20
100.0798964518445
 30
0.0
 40
5.6
  1
寸法
 41
0.8286830357142928
  7
ｽﾀｲﾙ1
 72
     5
 11
766.3772130785105
 21
100.0798964518445
 31
0.0
100
AcDbText
  0
TEXT
  5
6D76
330
1A
100
AcDbEntity
  8
SUNPOU
100
AcDbText
 10
723.5262182302104
 20
111.2896896802198
 30
0.0
 40
5.6
  1
Ｈ　寸　法
 41
0.9
  7
ｽﾀｲﾙ1
 72
     4
 11
738.5459909574831
 21
114.1374169529471
 31
0.0
100
AcDbText
  0
LINE
  5
6D77
330
1A
100
AcDbEntity
  8
SUNPOU
100
AcDbLine
 10
693.5467226695478
 20
108.5174714518444
 30
0.0
 11
783.8147859356504
 21
108.5174714518444
 31
0.0
  0
LINE
  5
6D78
330
1A
100
AcDbEntity
  8
SUNPOU
100
AcDbLine
 10
693.5467226695478
 20
119.7674714518444
 30
0.0
 11
783.8147109356503
 21
119.7674714518444
 31
0.0
  0
TEXT
  5
6DB4
330
1A
100
AcDbEntity
  8
ZUWAKU
100
AcDbText
 10
462.1716760137121
 20
2.614070779428175
 30
0.0
 40
3.0
  1
□には色品番が入ります
 41
0.9
  7
ｽﾀｲﾙ1
100
AcDbText
  0
VIEWPORT
  5
22
330
17
100
AcDbEntity
 67
     1
  8
0
100
AcDbViewport
 10
313.6808219178082
 20
286.420032064001
 30
0.0
 40
627.3616438356164
 41
572.840064128002
 68
     2
 69
     1
 12
313.6808219178082
 22
286.420032064001
 13
0.0
 23
0.0
 14
1.0
 24
1.0
 15
10.0
 25
10.0
 16
0.0
 26
0.0
 36
1.0
 17
0.0
 27
0.0
 37
0.0
 42
50.0
 43
0.0
 44
0.0
 45
572.840064128002
 50
0.0
 51
0.0
 72
   100
 90
    32768
  1

281
     0
 71
     1
 74
     0
110
0.0
120
0.0
130
0.0
111
1.0
121
0.0
131
0.0
112
0.0
122
1.0
132
0.0
 79
     0
146
0.0
  0
VIEWPORT
  5
64
330
17
100
AcDbEntity
 67
     1
  8
VIEWPORT
100
AcDbViewport
 10
210.0
 20
148.5
 30
0.0
 40
420.0
 41
297.0
 68
     1
 69
     2
 12
420.0
 22
297.0
 13
0.0
 23
0.0
 14
10.0
 24
10.0
 15
0.0
 25
0.0
 16
0.0
 26
0.0
 36
1.0
 17
0.0
 27
0.0
 37
0.0
 42
50.0
 43
0.0
 44
0.0
 45
605.8799999999999
 50
0.0
 51
0.0
 72
   100
 90
    32768
  1

281
     0
 71
     1
 74
     0
110
0.0
120
0.0
130
0.0
111
1.0
121
0.0
131
0.0
112
0.0
122
1.0
132
0.0
 79
     0
146
0.0
  0
ENDSEC
  0
SECTION
  2
OBJECTS
  0
DICTIONARY
  5
C
330
0
100
AcDbDictionary
281
     1
  3
ACAD_GROUP
350
D
  3
ACAD_LAYOUT
350
A98
  3
ACAD_MLINESTYLE
350
E
  3
ACAD_PLOTSETTINGS
350
A99
  3
ACAD_PLOTSTYLENAME
350
A96
  0
DICTIONARY
  5
D
102
{ACAD_REACTORS
330
C
102
}
330
C
100
AcDbDictionary
281
     1
  3
*A1
350
FA3
  3
*A2
350
1597
  3
*A3
350
179D
  3
*A4
350
3390
  3
*A5
350
3A0A
  0
DICTIONARY
  5
A98
102
{ACAD_REACTORS
330
C
102
}
330
C
100
AcDbDictionary
281
     1
  3
Model
350
A9A
  3
ﾚｲｱｳﾄ1
350
A9B
  0
DICTIONARY
  5
E
102
{ACAD_REACTORS
330
C
102
}
330
C
100
AcDbDictionary
281
     1
  3
STANDARD
350
13
  0
DICTIONARY
  5
A99
102
{ACAD_REACTORS
330
C
102
}
330
C
100
AcDbDictionary
281
     1
  0
ACDBDICTIONARYWDFLT
  5
A96
102
{ACAD_REACTORS
330
C
102
}
330
C
100
AcDbDictionary
281
     1
  3
Normal
350
A97
100
AcDbDictionaryWithDefault
340
A97
1001
ACAD
1000
TREAT_AS_HARD
1070
     0
1000
TREAT_AS_HARD
1070
     0
1000
TREAT_AS_HARD
1070
     0
1000
TREAT_AS_HARD
1070
     0
  0
GROUP
  5
FA3
102
{ACAD_REACTORS
330
D
102
}
330
D
100
AcDbGroup
300

 70
     1
 71
     1
  0
GROUP
  5
1597
102
{ACAD_REACTORS
330
D
102
}
330
D
100
AcDbGroup
300

 70
     1
 71
     1
  0
GROUP
  5
179D
102
{ACAD_REACTORS
330
D
102
}
330
D
100
AcDbGroup
300

 70
     1
 71
     1
  0
GROUP
  5
3390
102
{ACAD_REACTORS
330
D
102
}
330
D
100
AcDbGroup
300

 70
     1
 71
     1
  0
GROUP
  5
3A0A
102
{ACAD_REACTORS
330
D
102
}
330
D
100
AcDbGroup
300

 70
     1
 71
     1
  0
LAYOUT
  5
A9A
102
{ACAD_REACTORS
330
A98
102
}
330
A98
100
AcDbPlotSettings
  1

  2
Adobe PDF
  4
A3
  6

 40
3.174999952316284
 41
3.174999952316284
 42
3.17498779296875
 43
3.17498779296875
 44
297.0318298339844
 45
420.1583251953125
 46
2.67
 47
2.85
 48
-8.09872987394283
 49
-9.441603207410708
140
808.114529312747
141
561.2334822198422
142
1.0
143
2.0
 70
 28340
 72
     1
 73
     1
 74
     4
  7
systemprinter.ctb
 75
    17
147
0.5
148
8.09872987394283
149
9.441603207410708
100
AcDbLayout
  1
Model
 70
     1
 71
     0
 10
0.0
 20
0.0
 11
12.0
 21
9.0
 12
0.0
 22
0.0
 32
0.0
 14
0.0
 24
0.0
 34
0.0
 15
0.0
 25
0.0
 35
0.0
146
0.0
 13
0.0
 23
0.0
 33
0.0
 16
1.0
 26
0.0
 36
0.0
 17
0.0
 27
1.0
 37
0.0
 76
     0
330
1A
  0
LAYOUT
  5
A9B
102
{ACAD_REACTORS
330
A98
102
}
330
A98
100
AcDbPlotSettings
  1

  2
C:\PROGRAM FILES\ACAD LT 2000\plotters\DWF ePlot.pc3
  4
ANSI_A_(8.50_x_11.00_Inches)
  6

 40
5.793749809265137
 41
17.79375076293945
 42
5.793746948242188
 43
17.79376220703125
 44
215.8999938964844
 45
279.3999938964844
 46
0.0
 47
0.0
 48
0.0
 49
0.0
140
0.0
141
0.0
142
1.0
143
43.75760864458461
 70
   688
 72
     0
 73
     1
 74
     1
  7
systemprinter.ctb
 75
     0
147
0.0228531684197454
148
0.3255366854427166
149
0.2302009418498301
100
AcDbLayout
  1
ﾚｲｱｳﾄ1
 70
     1
 71
     1
 10
-30.66685116754002
 20
-9.990190459854741
 11
450.6668334081172
 21
361.9494725043409
 12
0.0
 22
0.0
 32
0.0
 14
-0.0128164049386896
 24
-0.0090630292066862
 34
-0.0015258207003583
 15
420.0128183607162
 25
297.0090644122207
 35
0.0000000349246037
146
0.0
 13
0.0
 23
0.0
 33
0.0
 16
1.0
 26
0.0
 36
0.0
 17
0.0
 27
1.0
 37
0.0
 76
     0
330
17
331
64
  0
MLINESTYLE
  5
13
102
{ACAD_REACTORS
330
E
102
}
330
E
100
AcDbMlineStyle
  2
STANDARD
 70
     0
  3

 62
     0
 51
90.0
 52
90.0
 71
     2
 49
0.5
 62
   256
  6
BYLAYER
 49
-0.5
 62
   256
  6
BYLAYER
  0
ACDBPLACEHOLDER
  5
A97
102
{ACAD_REACTORS
330
A96
102
}
330
A96
  0
ENDSEC
  0
EOF
