  0
SECTION
  2
HEADER
  9
$ACADVER
  1
AC1015
  9
$ACADMAINTVER
 70
     6
  9
$DWGCODEPAGE
  3
ANSI_932
  9
$INSBASE
 10
0.0
 20
0.0
 30
0.0
  9
$EXTMIN
 10
0.0000000135560185
 20
-0.0000001317113174
 30
0.0
  9
$EXTMAX
 10
797.6000000135562
 20
551.5999998682888
 30
0.0
  9
$LIMMIN
 10
0.0
 20
0.0
  9
$LIMMAX
 10
840.0
 20
594.0
  9
$ORTHOMODE
 70
     0
  9
$REGENMODE
 70
     1
  9
$FILLMODE
 70
     1
  9
$QTEXTMODE
 70
     0
  9
$MIRRTEXT
 70
     1
  9
$LTSCALE
 40
2.0
  9
$ATTMODE
 70
     1
  9
$TEXTSIZE
 40
6.0
  9
$TRACEWID
 40
1.0
  9
$TEXTSTYLE
  7
STANDARD
  9
$CLAYER
  8
SEIHIN
  9
$CELTYPE
  6
BYLAYER
  9
$CECOLOR
 62
   256
  9
$CELTSCALE
 40
1.0
  9
$DISPSILH
 70
     0
  9
$DIMSCALE
 40
1.0
  9
$DIMASZ
 40
7.0
  9
$DIMEXO
 40
6.0
  9
$DIMDLI
 40
14.0
  9
$DIMRND
 40
0.0
  9
$DIMDLE
 40
0.0
  9
$DIMEXE
 40
3.0
  9
$DIMTP
 40
0.0
  9
$DIMTM
 40
0.0
  9
$DIMTXT
 40
6.0
  9
$DIMCEN
 40
150.0
  9
$DIMTSZ
 40
0.0
  9
$DIMTOL
 70
     0
  9
$DIMLIM
 70
     0
  9
$DIMTIH
 70
     0
  9
$DIMTOH
 70
     0
  9
$DIMSE1
 70
     0
  9
$DIMSE2
 70
     0
  9
$DIMTAD
 70
     3
  9
$DIMZIN
 70
     0
  9
$DIMBLK
  1

  9
$DIMASO
 70
     1
  9
$DIMSHO
 70
     1
  9
$DIMPOST
  1

  9
$DIMAPOST
  1

  9
$DIMALT
 70
     0
  9
$DIMALTD
 70
     2
  9
$DIMALTF
 40
25.4
  9
$DIMLFAC
 40
1.0
  9
$DIMTOFL
 70
     1
  9
$DIMTVP
 40
0.0
  9
$DIMTIX
 70
     0
  9
$DIMSOXD
 70
     0
  9
$DIMSAH
 70
     1
  9
$DIMBLK1
  1
OPEN
  9
$DIMBLK2
  1
OPEN
  9
$DIMSTYLE
  2
STANDARD
  9
$DIMCLRD
 70
   256
  9
$DIMCLRE
 70
   256
  9
$DIMCLRT
 70
   256
  9
$DIMTFAC
 40
1.0
  9
$DIMGAP
 40
2.0
  9
$DIMJUST
 70
     0
  9
$DIMSD1
 70
     0
  9
$DIMSD2
 70
     0
  9
$DIMTOLJ
 70
     1
  9
$DIMTZIN
 70
     0
  9
$DIMALTZ
 70
     0
  9
$DIMALTTZ
 70
     0
  9
$DIMUPT
 70
     0
  9
$DIMDEC
 70
     0
  9
$DIMTDEC
 70
     0
  9
$DIMALTU
 70
     2
  9
$DIMALTTD
 70
     2
  9
$DIMTXSTY
  7
STANDARD
  9
$DIMAUNIT
 70
     0
  9
$DIMADEC
 70
     0
  9
$DIMALTRND
 40
0.0
  9
$DIMAZIN
 70
     0
  9
$DIMDSEP
 70
    46
  9
$DIMATFIT
 70
     3
  9
$DIMFRAC
 70
     0
  9
$DIMLDRBLK
  1
OPEN
  9
$DIMLUNIT
 70
     2
  9
$DIMLWD
 70
    -1
  9
$DIMLWE
 70
    -1
  9
$DIMTMOVE
 70
     0
  9
$LUNITS
 70
     2
  9
$LUPREC
 70
     4
  9
$SKETCHINC
 40
1.0
  9
$FILLETRAD
 40
10.0
  9
$AUNITS
 70
     0
  9
$AUPREC
 70
     0
  9
$MENU
  1
.
  9
$ELEVATION
 40
0.0
  9
$PELEVATION
 40
0.0
  9
$THICKNESS
 40
0.0
  9
$LIMCHECK
 70
     0
  9
$CHAMFERA
 40
0.0
  9
$CHAMFERB
 40
0.0
  9
$CHAMFERC
 40
40.0
  9
$CHAMFERD
 40
0.0
  9
$SKPOLY
 70
     0
  9
$TDCREATE
 40
2451030.614786227
  9
$TDUCREATE
 40
2451030.239786227
  9
$TDUPDATE
 40
2455609.406130729
  9
$TDUUPDATE
 40
2455609.031130729
  9
$TDINDWG
 40
0.3240887847
  9
$TDUSRTIMER
 40
0.3240887847
  9
$USRTIMER
 70
     1
  9
$ANGBASE
 50
0.0
  9
$ANGDIR
 70
     0
  9
$PDMODE
 70
     0
  9
$PDSIZE
 40
0.0
  9
$PLINEWID
 40
0.0
  9
$SPLFRAME
 70
     0
  9
$SPLINETYPE
 70
     6
  9
$SPLINESEGS
 70
     8
  9
$HANDSEED
  5
72A0
  9
$SURFTAB1
 70
     6
  9
$SURFTAB2
 70
     6
  9
$SURFTYPE
 70
     6
  9
$SURFU
 70
     6
  9
$SURFV
 70
     6
  9
$UCSBASE
  2

  9
$UCSNAME
  2

  9
$UCSORG
 10
0.0
 20
0.0
 30
0.0
  9
$UCSXDIR
 10
1.0
 20
0.0
 30
0.0
  9
$UCSYDIR
 10
0.0
 20
1.0
 30
0.0
  9
$UCSORTHOREF
  2

  9
$UCSORTHOVIEW
 70
     0
  9
$UCSORGTOP
 10
0.0
 20
0.0
 30
0.0
  9
$UCSORGBOTTOM
 10
0.0
 20
0.0
 30
0.0
  9
$UCSORGLEFT
 10
0.0
 20
0.0
 30
0.0
  9
$UCSORGRIGHT
 10
0.0
 20
0.0
 30
0.0
  9
$UCSORGFRONT
 10
0.0
 20
0.0
 30
0.0
  9
$UCSORGBACK
 10
0.0
 20
0.0
 30
0.0
  9
$PUCSBASE
  2

  9
$PUCSNAME
  2

  9
$PUCSORG
 10
0.0
 20
0.0
 30
0.0
  9
$PUCSXDIR
 10
1.0
 20
0.0
 30
0.0
  9
$PUCSYDIR
 10
0.0
 20
1.0
 30
0.0
  9
$PUCSORTHOREF
  2

  9
$PUCSORTHOVIEW
 70
     0
  9
$PUCSORGTOP
 10
0.0
 20
0.0
 30
0.0
  9
$PUCSORGBOTTOM
 10
0.0
 20
0.0
 30
0.0
  9
$PUCSORGLEFT
 10
0.0
 20
0.0
 30
0.0
  9
$PUCSORGRIGHT
 10
0.0
 20
0.0
 30
0.0
  9
$PUCSORGFRONT
 10
0.0
 20
0.0
 30
0.0
  9
$PUCSORGBACK
 10
0.0
 20
0.0
 30
0.0
  9
$USERI1
 70
     0
  9
$USERI2
 70
     0
  9
$USERI3
 70
     0
  9
$USERI4
 70
     0
  9
$USERI5
 70
     0
  9
$USERR1
 40
0.0
  9
$USERR2
 40
0.0
  9
$USERR3
 40
0.0
  9
$USERR4
 40
0.0
  9
$USERR5
 40
0.0
  9
$WORLDVIEW
 70
     1
  9
$SHADEDGE
 70
     3
  9
$SHADEDIF
 70
    70
  9
$TILEMODE
 70
     1
  9
$MAXACTVP
 70
    16
  9
$PINSBASE
 10
0.0
 20
0.0
 30
0.0
  9
$PLIMCHECK
 70
     0
  9
$PEXTMIN
 10
-0.0128164049386896
 20
-0.0090630292066862
 30
-0.0015258207003583
  9
$PEXTMAX
 10
420.0128183607162
 20
297.0090644122207
 30
0.0000000349246037
  9
$PLIMMIN
 10
-30.66685116754002
 20
-9.990190459854741
  9
$PLIMMAX
 10
450.6668334081172
 20
361.9494725043409
  9
$UNITMODE
 70
     0
  9
$VISRETAIN
 70
     0
  9
$PLINEGEN
 70
     0
  9
$PSLTSCALE
 70
     1
  9
$TREEDEPTH
 70
  3020
  9
$CMLSTYLE
  2
STANDARD
  9
$CMLJUST
 70
     0
  9
$CMLSCALE
 40
1.0
  9
$PROXYGRAPHICS
 70
     1
  9
$MEASUREMENT
 70
     0
  9
$CELWEIGHT
370
    -1
  9
$ENDCAPS
280
     0
  9
$JOINSTYLE
280
     0
  9
$LWDISPLAY
290
     0
  9
$INSUNITS
 70
     0
  9
$HYPERLINKBASE
  1

  9
$STYLESHEET
  1
systemprinter.ctb
  9
$XEDIT
290
     1
  9
$CEPSNTYPE
380
     0
  9
$PSTYLEMODE
290
     1
  9
$FINGERPRINTGUID
  2
{91E25F26-0CBF-4C93-982E-B5F00895E654}
  9
$VERSIONGUID
  2
{EE39B09E-463B-429C-9CDC-5B5FCFFC2A0F}
  9
$EXTNAMES
290
     1
  9
$PSVPSCALE
 40
0.0
  9
$OLESTARTUP
290
     0
  0
ENDSEC
  0
SECTION
  2
CLASSES
  0
CLASS
  1
ACDBDICTIONARYWDFLT
  2
AcDbDictionaryWithDefault
  3
ObjectDBX Classes
 90
        0
280
     0
281
     0
  0
CLASS
  1
ACDBPLACEHOLDER
  2
AcDbPlaceHolder
  3
ObjectDBX Classes
 90
        0
280
     0
281
     0
  0
CLASS
  1
LAYOUT
  2
AcDbLayout
  3
ObjectDBX Classes
 90
        0
280
     0
281
     0
  0
CLASS
  1
DUMMY
  2
AcDbLongTransaction
  3
DUMMY
 90
        0
280
     0
281
     0
  0
CLASS
  1
LWPOLYLINE
  2
AcDbPolyline
  3
AutoCAD 2000
 90
        0
280
     0
281
     1
  0
CLASS
  1
HATCH
  2
AcDbHatch
  3
AutoCAD 2000
 90
        0
280
     0
281
     1
  0
CLASS
  1
XRECORD
  2
AcDbXrecord
  3
AutoCAD 2000
 90
        0
280
     0
281
     0
  0
CLASS
  1
DUMMY
  2
AcDbLongTransaction
  3
DUMMY
 90
        0
280
     0
281
     0
  0
CLASS
  1
LWPOLYLINE
  2
AcDbPolyline
  3
AutoCAD 2000
 90
        0
280
     0
281
     1
  0
CLASS
  1
HATCH
  2
AcDbHatch
  3
AutoCAD 2000
 90
        0
280
     0
281
     1
  0
CLASS
  1
XRECORD
  2
AcDbXrecord
  3
AutoCAD 2000
 90
        0
280
     0
281
     0
  0
CLASS
  1
DUMMY
  2
AcDbLongTransaction
  3
DUMMY
 90
        0
280
     0
281
     0
  0
CLASS
  1
LWPOLYLINE
  2
AcDbPolyline
  3
AutoCAD 2000
 90
        0
280
     0
281
     1
  0
CLASS
  1
HATCH
  2
AcDbHatch
  3
AutoCAD 2000
 90
        0
280
     0
281
     1
  0
CLASS
  1
XRECORD
  2
AcDbXrecord
  3
AutoCAD 2000
 90
        0
280
     0
281
     0
  0
CLASS
  1
DUMMY
  2
AcDbLongTransaction
  3
DUMMY
 90
        0
280
     0
281
     0
  0
CLASS
  1
LWPOLYLINE
  2
AcDbPolyline
  3
AutoCAD 2000
 90
        0
280
     0
281
     1
  0
CLASS
  1
HATCH
  2
AcDbHatch
  3
AutoCAD 2000
 90
        0
280
     0
281
     1
  0
CLASS
  1
XRECORD
  2
AcDbXrecord
  3
AutoCAD 2000
 90
        0
280
     0
281
     0
  0
CLASS
  1
DUMMY
  2
AcDbLongTransaction
  3
DUMMY
 90
        0
280
     0
281
     0
  0
CLASS
  1
LWPOLYLINE
  2
AcDbPolyline
  3
AutoCAD 2000
 90
        0
280
     0
281
     1
  0
CLASS
  1
HATCH
  2
AcDbHatch
  3
AutoCAD 2000
 90
        0
280
     0
281
     1
  0
CLASS
  1
XRECORD
  2
AcDbXrecord
  3
AutoCAD 2000
 90
        0
280
     0
281
     0
  0
ENDSEC
  0
SECTION
  2
TABLES
  0
TABLE
  2
VPORT
  5
8
330
0
100
AcDbSymbolTable
 70
     2
  0
VPORT
  5
729F
330
8
100
AcDbSymbolTableRecord
100
AcDbViewportTableRecord
  2
*Active
 70
     0
 10
0.0
 20
0.0
 11
1.0
 21
1.0
 12
419.9871835950612
 22
315.3144030727386
 13
0.0
 23
0.0
 14
5.0
 24
5.0
 15
0.0
 25
0.0
 16
0.0
 26
0.0
 36
1.0
 17
0.0
 27
0.0
 37
0.0
 40
637.240904941124
 41
1.651537335285505
 42
50.0
 43
0.0
 44
0.0
 50
0.0
 51
0.0
 71
     0
 72
   100
 73
     1
 74
     0
 75
     0
 76
     0
 77
     0
 78
     0
281
     0
 65
     1
110
0.0
120
0.0
130
0.0
111
1.0
121
0.0
131
0.0
112
0.0
122
1.0
132
0.0
 79
     0
146
0.0
  0
ENDTAB
  0
TABLE
  2
LTYPE
  5
5
330
0
100
AcDbSymbolTable
 70
     2
  0
LTYPE
  5
14
330
5
100
AcDbSymbolTableRecord
100
AcDbLinetypeTableRecord
  2
BYBLOCK
 70
     0
  3

 72
    65
 73
     0
 40
0.0
  0
LTYPE
  5
15
330
5
100
AcDbSymbolTableRecord
100
AcDbLinetypeTableRecord
  2
BYLAYER
 70
     0
  3

 72
    65
 73
     0
 40
0.0
  0
LTYPE
  5
16
330
5
100
AcDbSymbolTableRecord
100
AcDbLinetypeTableRecord
  2
CONTINUOUS
 70
     0
  3
Solid line
 72
    65
 73
     0
 40
0.0
  0
LTYPE
  5
135
330
5
100
AcDbSymbolTableRecord
100
AcDbLinetypeTableRecord
  2
CENTER
 70
     0
  3
____ _ ____ _ ____ _ ____ _ ____ _ ____ _ ____ 
 72
    65
 73
     4
 40
2.0
 49
1.25
 74
     0
 49
-0.25
 74
     0
 49
0.25
 74
     0
 49
-0.25
 74
     0
  0
ENDTAB
  0
TABLE
  2
LAYER
  5
2
330
0
100
AcDbSymbolTable
 70
     8
  0
LAYER
  5
F
330
2
100
AcDbSymbolTableRecord
100
AcDbLayerTableRecord
  2
0
 70
     0
 62
     7
  6
CONTINUOUS
370
    -3
390
A97
  0
LAYER
  5
62
330
2
100
AcDbSymbolTableRecord
100
AcDbLayerTableRecord
  2
VIEWPORT
 70
     0
 62
     7
  6
CONTINUOUS
370
    -3
390
A97
  0
LAYER
  5
143
330
2
100
AcDbSymbolTableRecord
100
AcDbLayerTableRecord
  2
SEIHIN
 70
     0
 62
     3
  6
CONTINUOUS
370
    -3
390
A97
  0
LAYER
  5
444
330
2
100
AcDbSymbolTableRecord
100
AcDbLayerTableRecord
  2
DEFPOINTS
 70
     0
 62
     7
  6
CONTINUOUS
290
     0
370
    -3
390
A97
  0
LAYER
  5
482
330
2
100
AcDbSymbolTableRecord
100
AcDbLayerTableRecord
  2
SUNPOU
 70
     0
 62
     4
  6
CONTINUOUS
370
    -3
390
A97
  0
LAYER
  5
5D4
330
2
100
AcDbSymbolTableRecord
100
AcDbLayerTableRecord
  2
CENTER L
 70
     0
 62
     1
  6
CENTER
370
    -3
390
A97
  0
LAYER
  5
3D95
330
2
100
AcDbSymbolTableRecord
100
AcDbLayerTableRecord
  2
ZUWAKU
 70
     0
 62
     7
  6
CONTINUOUS
370
    -3
390
A97
  0
LAYER
  5
3D96
330
2
100
AcDbSymbolTableRecord
100
AcDbLayerTableRecord
  2
moji
 70
     0
 62
     2
  6
CONTINUOUS
370
    -3
390
A97
  0
ENDTAB
  0
TABLE
  2
STYLE
  5
3
330
0
100
AcDbSymbolTable
 70
     2
  0
STYLE
  5
10
330
3
100
AcDbSymbolTableRecord
100
AcDbTextStyleTableRecord
  2
STANDARD
 70
     0
 40
0.0
 41
1.0
 50
0.0
 71
     0
 42
6.0
  3
TXT
  4
bigfont.shx
  0
STYLE
  5
3D97
330
3
100
AcDbSymbolTableRecord
100
AcDbTextStyleTableRecord
  2
ｽﾀｲﾙ1
 70
     0
 40
0.0
 41
1.0
 50
0.0
 71
     0
 42
2.5
  3
MS PGothic.ttf
  4

1001
ACAD
1000
MS PGothic
1071
    32818
  0
ENDTAB
  0
TABLE
  2
VIEW
  5
6
330
0
100
AcDbSymbolTable
 70
     0
  0
ENDTAB
  0
TABLE
  2
UCS
  5
7
330
0
100
AcDbSymbolTable
 70
     0
  0
ENDTAB
  0
TABLE
  2
APPID
  5
9
330
0
100
AcDbSymbolTable
 70
     1
  0
APPID
  5
11
330
9
100
AcDbSymbolTableRecord
100
AcDbRegAppTableRecord
  2
ACAD
 70
     0
  0
ENDTAB
  0
TABLE
  2
DIMSTYLE
  5
A
330
0
100
AcDbSymbolTable
 70
     1
100
AcDbDimStyleTable
  0
DIMSTYLE
105
1D
102
{ACAD_REACTORS
330
6FBF
330
6FC0
330
6FCC
330
704A
330
7067
330
7068
330
7069
330
70AA
330
70AE
330
70DA
330
70F2
330
70F7
102
}
330
A
100
AcDbSymbolTableRecord
100
AcDbDimStyleTableRecord
  2
STANDARD
 70
     0
340
10
  0
ENDTAB
  0
TABLE
  2
BLOCK_RECORD
  5
1
330
0
100
AcDbSymbolTable
 70
    13
  0
BLOCK_RECORD
  5
1A
330
1
100
AcDbSymbolTableRecord
100
AcDbBlockTableRecord
  2
*MODEL_SPACE
340
A9A
  0
BLOCK_RECORD
  5
17
330
1
100
AcDbSymbolTableRecord
100
AcDbBlockTableRecord
  2
*PAPER_SPACE
340
A9B
  0
BLOCK_RECORD
  5
6D
330
1
100
AcDbSymbolTableRecord
100
AcDbBlockTableRecord
  2
_OPEN
340
0
102
{BLKREFS
331
7192
331
7193
331
719B
331
719C
331
71A4
331
71A5
331
71AD
331
71AE
331
71B6
331
71B7
331
71C1
331
71C2
331
71CA
331
71CB
331
71D4
331
71D5
331
71DD
331
71DE
331
71E8
331
71E9
331
71F3
331
71F4
331
71FC
331
71FD
102
}
  0
BLOCK_RECORD
  5
70F8
330
1
100
AcDbSymbolTableRecord
100
AcDbBlockTableRecord
  2
*D1
340
0
  0
BLOCK_RECORD
  5
7104
330
1
100
AcDbSymbolTableRecord
100
AcDbBlockTableRecord
  2
*D2
340
0
  0
BLOCK_RECORD
  5
7110
330
1
100
AcDbSymbolTableRecord
100
AcDbBlockTableRecord
  2
*D3
340
0
  0
BLOCK_RECORD
  5
711C
330
1
100
AcDbSymbolTableRecord
100
AcDbBlockTableRecord
  2
*D4
340
0
  0
BLOCK_RECORD
  5
7128
330
1
100
AcDbSymbolTableRecord
100
AcDbBlockTableRecord
  2
*D5
340
0
  0
BLOCK_RECORD
  5
7134
330
1
100
AcDbSymbolTableRecord
100
AcDbBlockTableRecord
  2
*D6
340
0
  0
BLOCK_RECORD
  5
7142
330
1
100
AcDbSymbolTableRecord
100
AcDbBlockTableRecord
  2
*D7
340
0
  0
BLOCK_RECORD
  5
714E
330
1
100
AcDbSymbolTableRecord
100
AcDbBlockTableRecord
  2
*D8
340
0
  0
BLOCK_RECORD
  5
715B
330
1
100
AcDbSymbolTableRecord
100
AcDbBlockTableRecord
  2
*D9
340
0
  0
BLOCK_RECORD
  5
7167
330
1
100
AcDbSymbolTableRecord
100
AcDbBlockTableRecord
  2
*D10
340
0
  0
BLOCK_RECORD
  5
7175
330
1
100
AcDbSymbolTableRecord
100
AcDbBlockTableRecord
  2
*D11
340
0
  0
BLOCK_RECORD
  5
7183
330
1
100
AcDbSymbolTableRecord
100
AcDbBlockTableRecord
  2
*D12
340
0
  0
ENDTAB
  0
ENDSEC
  0
SECTION
  2
BLOCKS
  0
BLOCK
  5
1B
330
1A
100
AcDbEntity
  8
0
100
AcDbBlockBegin
  2
*MODEL_SPACE
 70
     0
 71
     0
 10
0.0
 20
0.0
 30
0.0
  3
*MODEL_SPACE
  1

  0
ENDBLK
  5
1C
330
1A
100
AcDbEntity
  8
0
100
AcDbBlockEnd
  0
BLOCK
  5
18
330
17
100
AcDbEntity
 67
     1
  8
0
100
AcDbBlockBegin
  2
*PAPER_SPACE
 70
     0
 71
     0
 10
0.0
 20
0.0
 30
0.0
  3
*PAPER_SPACE
  1

  0
ENDBLK
  5
19
330
17
100
AcDbEntity
 67
     1
  8
0
100
AcDbBlockEnd
  0
BLOCK
  5
6E
330
6D
100
AcDbEntity
  8
0
100
AcDbBlockBegin
  2
_OPEN
 70
     0
 71
     0
 10
0.0
 20
0.0
 30
0.0
  3
_OPEN
  1

  0
LINE
  5
6F
330
6D
100
AcDbEntity
  8
0
  6
ByBlock
 62
     0
100
AcDbLine
 10
-1.0
 20
0.1666666666666667
 30
0.0
 11
0.0
 21
0.0
 31
0.0
  0
LINE
  5
70
330
6D
100
AcDbEntity
  8
0
  6
ByBlock
 62
     0
100
AcDbLine
 10
0.0
 20
0.0
 30
0.0
 11
-1.0
 21
-0.1666666666666667
 31
0.0
  0
LINE
  5
71
330
6D
100
AcDbEntity
  8
0
  6
ByBlock
 62
     0
100
AcDbLine
 10
0.0
 20
0.0
 30
0.0
 11
-1.0
 21
0.0
 31
0.0
  0
ENDBLK
  5
72
330
6D
100
AcDbEntity
  8
0
100
AcDbBlockEnd
  0
BLOCK
  5
7102
330
70F8
100
AcDbEntity
  8
0
100
AcDbBlockBegin
  2
*D1
 70
     1
 71
     0
 10
0.0
 20
0.0
 30
0.0
  3
*D1
  1

  0
LINE
  5
718F
330
70F8
100
AcDbEntity
  8
SUNPOU
370
    -2
100
AcDbLine
 10
396.4020316820233
 20
253.405052118653
 30
0.0
 11
375.0634922883382
 21
253.405052118653
 31
0.0
  0
LINE
  5
7190
330
70F8
100
AcDbEntity
  8
SUNPOU
370
    -2
100
AcDbLine
 10
394.2813547820233
 20
190.5636002147582
 30
0.0
 11
375.0634922883382
 21
190.5636002147582
 31
0.0
  0
LINE
  5
7191
330
70F8
100
AcDbEntity
  8
SUNPOU
370
    -2
100
AcDbLine
 10
378.0634922883382
 20
247.405052118653
 30
0.0
 11
378.0634922883382
 21
196.5636002147582
 31
0.0
  0
INSERT
  5
7192
330
70F8
100
AcDbEntity
  8
SUNPOU
370
    -2
100
AcDbBlockReference
  2
_OPEN
 10
378.0634922883382
 20
253.405052118653
 30
0.0
 41
6.0
 42
6.0
 43
6.0
 50
90.0
  0
INSERT
  5
7193
330
70F8
100
AcDbEntity
  8
SUNPOU
370
    -2
100
AcDbBlockReference
  2
_OPEN
 10
378.0634922883382
 20
190.5636002147582
 30
0.0
 41
6.0
 42
6.0
 43
6.0
 50
270.0
  0
MTEXT
  5
7194
330
70F8
100
AcDbEntity
  8
SUNPOU
100
AcDbMText
 10
373.0634922883382
 20
221.9843261667056
 30
0.0
 40
6.0
 41
0.0
 71
     5
 72
     1
  1
\A1;63
 11
6.123031769111886E-17
 21
1.0
 31
0.0
 73
     1
 44
1.0
  0
POINT
  5
7195
330
70F8
100
AcDbEntity
  8
DEFPOINTS
 62
     0
100
AcDbPoint
 10
402.4020316820233
 20
253.405052118653
 30
0.0
  0
POINT
  5
7196
330
70F8
100
AcDbEntity
  8
DEFPOINTS
 62
     0
100
AcDbPoint
 10
400.2813547820233
 20
190.5636002147582
 30
0.0
  0
POINT
  5
7197
330
70F8
100
AcDbEntity
  8
DEFPOINTS
 62
     0
100
AcDbPoint
 10
378.0634922883382
 20
190.5636002147582
 30
0.0
  0
ENDBLK
  5
7103
330
70F8
100
AcDbEntity
  8
0
100
AcDbBlockEnd
  0
BLOCK
  5
710E
330
7104
100
AcDbEntity
  8
0
100
AcDbBlockBegin
  2
*D2
 70
     1
 71
     0
 10
0.0
 20
0.0
 30
0.0
  3
*D2
  1

  0
LINE
  5
7198
330
7104
100
AcDbEntity
  8
SUNPOU
370
    -2
100
AcDbLine
 10
271.7350842820233
 20
310.946302418653
 30
0.0
 11
271.7350842820233
 21
367.863508728329
 31
0.0
  0
LINE
  5
7199
330
7104
100
AcDbEntity
  8
SUNPOU
370
    -2
100
AcDbLine
 10
410.4949248820233
 20
258.105052118653
 30
0.0
 11
410.4949248820233
 21
367.863508728329
 31
0.0
  0
LINE
  5
719A
330
7104
100
AcDbEntity
  8
SUNPOU
370
    -2
100
AcDbLine
 10
277.7350842820233
 20
364.863508728329
 30
0.0
 11
404.4949248820233
 21
364.863508728329
 31
0.0
  0
INSERT
  5
719B
330
7104
100
AcDbEntity
  8
SUNPOU
370
    -2
100
AcDbBlockReference
  2
_OPEN
 10
271.7350842820233
 20
364.863508728329
 30
0.0
 41
6.0
 42
6.0
 43
6.0
 50
180.0
  0
INSERT
  5
719C
330
7104
100
AcDbEntity
  8
SUNPOU
370
    -2
100
AcDbBlockReference
  2
_OPEN
 10
410.4949248820233
 20
364.863508728329
 30
0.0
 41
6.0
 42
6.0
 43
6.0
  0
MTEXT
  5
719D
330
7104
100
AcDbEntity
  8
SUNPOU
100
AcDbMText
 10
341.1150045820233
 20
369.863508728329
 30
0.0
 40
6.0
 41
0.0
 71
     5
 72
     1
  1
\A1;139
 73
     1
 44
1.0
  0
POINT
  5
719E
330
7104
100
AcDbEntity
  8
DEFPOINTS
 62
     0
100
AcDbPoint
 10
271.7350842820233
 20
304.946302418653
 30
0.0
  0
POINT
  5
719F
330
7104
100
AcDbEntity
  8
DEFPOINTS
 62
     0
100
AcDbPoint
 10
410.4949248820233
 20
252.105052118653
 30
0.0
  0
POINT
  5
71A0
330
7104
100
AcDbEntity
  8
DEFPOINTS
 62
     0
100
AcDbPoint
 10
410.4949248820233
 20
364.863508728329
 30
0.0
  0
ENDBLK
  5
710F
330
7104
100
AcDbEntity
  8
0
100
AcDbBlockEnd
  0
BLOCK
  5
711A
330
7110
100
AcDbEntity
  8
0
100
AcDbBlockBegin
  2
*D3
 70
     1
 71
     0
 10
0.0
 20
0.0
 30
0.0
  3
*D3
  1

  0
LINE
  5
71A1
330
7110
100
AcDbEntity
  8
SUNPOU
370
    -2
100
AcDbLine
 10
265.7350842820233
 20
304.946302418653
 30
0.0
 11
233.9860834435044
 21
304.946302418653
 31
0.0
  0
LINE
  5
71A2
330
7110
100
AcDbEntity
  8
SUNPOU
370
    -2
100
AcDbLine
 10
305.1905005820233
 20
190.563600218653
 30
0.0
 11
233.9860834435044
 21
190.563600218653
 31
0.0
  0
LINE
  5
71A3
330
7110
100
AcDbEntity
  8
SUNPOU
370
    -2
100
AcDbLine
 10
236.9860834435044
 20
298.946302418653
 30
0.0
 11
236.9860834435044
 21
196.563600218653
 31
0.0
  0
INSERT
  5
71A4
330
7110
100
AcDbEntity
  8
SUNPOU
370
    -2
100
AcDbBlockReference
  2
_OPEN
 10
236.9860834435044
 20
304.946302418653
 30
0.0
 41
6.0
 42
6.0
 43
6.0
 50
90.0
  0
INSERT
  5
71A5
330
7110
100
AcDbEntity
  8
SUNPOU
370
    -2
100
AcDbBlockReference
  2
_OPEN
 10
236.9860834435044
 20
190.563600218653
 30
0.0
 41
6.0
 42
6.0
 43
6.0
 50
270.0
  0
MTEXT
  5
71A6
330
7110
100
AcDbEntity
  8
SUNPOU
100
AcDbMText
 10
231.9860834435044
 20
247.754951318653
 30
0.0
 40
6.0
 41
0.0
 71
     5
 72
     1
  1
\A1;114
 11
6.123031769111886E-17
 21
1.0
 31
0.0
 73
     1
 44
1.0
  0
POINT
  5
71A7
330
7110
100
AcDbEntity
  8
DEFPOINTS
 62
     0
100
AcDbPoint
 10
271.7350842820233
 20
304.946302418653
 30
0.0
  0
POINT
  5
71A8
330
7110
100
AcDbEntity
  8
DEFPOINTS
 62
     0
100
AcDbPoint
 10
311.1905005820233
 20
190.563600218653
 30
0.0
  0
POINT
  5
71A9
330
7110
100
AcDbEntity
  8
DEFPOINTS
 62
     0
100
AcDbPoint
 10
236.9860834435044
 20
190.563600218653
 30
0.0
  0
ENDBLK
  5
711B
330
7110
100
AcDbEntity
  8
0
100
AcDbBlockEnd
  0
BLOCK
  5
7126
330
711C
100
AcDbEntity
  8
0
100
AcDbBlockBegin
  2
*D4
 70
     1
 71
     0
 10
0.0
 20
0.0
 30
0.0
  3
*D4
  1

  0
LINE
  5
71AA
330
711C
100
AcDbEntity
  8
SUNPOU
370
    -2
100
AcDbLine
 10
349.7359276820232
 20
190.563600218653
 30
0.0
 11
327.4680726624333
 21
190.563600218653
 31
0.0
  0
LINE
  5
71AB
330
711C
100
AcDbEntity
  8
SUNPOU
370
    -2
100
AcDbLine
 10
379.7359276821394
 20
157.7636002185367
 30
0.0
 11
327.4680726624333
 21
157.7636002185367
 31
0.0
  0
LINE
  5
71AC
330
711C
100
AcDbEntity
  8
SUNPOU
370
    -2
100
AcDbLine
 10
330.4680726624333
 20
184.563600218653
 30
0.0
 11
330.4680726624333
 21
163.7636002185367
 31
0.0
  0
INSERT
  5
71AD
330
711C
100
AcDbEntity
  8
SUNPOU
370
    -2
100
AcDbBlockReference
  2
_OPEN
 10
330.4680726624333
 20
190.563600218653
 30
0.0
 41
6.0
 42
6.0
 43
6.0
 50
90.0
  0
INSERT
  5
71AE
330
711C
100
AcDbEntity
  8
SUNPOU
370
    -2
100
AcDbBlockReference
  2
_OPEN
 10
330.4680726624333
 20
157.7636002185367
 30
0.0
 41
6.0
 42
6.0
 43
6.0
 50
270.0
  0
MTEXT
  5
71AF
330
711C
100
AcDbEntity
  8
SUNPOU
100
AcDbMText
 10
325.4680726624333
 20
174.1636002185949
 30
0.0
 40
6.0
 41
0.0
 71
     5
 72
     1
  1
\A1;H
 11
6.123031769111886E-17
 21
1.0
 31
0.0
 73
     1
 44
1.0
  0
POINT
  5
71B0
330
711C
100
AcDbEntity
  8
DEFPOINTS
 62
     0
100
AcDbPoint
 10
355.7359276820232
 20
190.563600218653
 30
0.0
  0
POINT
  5
71B1
330
711C
100
AcDbEntity
  8
DEFPOINTS
 62
     0
100
AcDbPoint
 10
385.7359276821394
 20
157.7636002185367
 30
0.0
  0
POINT
  5
71B2
330
711C
100
AcDbEntity
  8
DEFPOINTS
 62
     0
100
AcDbPoint
 10
330.4680726624333
 20
157.7636002185367
 30
0.0
  0
ENDBLK
  5
7127
330
711C
100
AcDbEntity
  8
0
100
AcDbBlockEnd
  0
BLOCK
  5
7132
330
7128
100
AcDbEntity
  8
0
100
AcDbBlockBegin
  2
*D5
 70
     1
 71
     0
 10
0.0
 20
0.0
 30
0.0
  3
*D5
  1

  0
LINE
  5
71B3
330
7128
100
AcDbEntity
  8
SUNPOU
370
    -2
100
AcDbLine
 10
266.2350842820233
 20
429.2433594571797
 30
0.0
 11
233.9860834435045
 21
429.2433594571797
 31
0.0
  0
LINE
  5
71B4
330
7128
100
AcDbEntity
  8
SUNPOU
370
    -2
100
AcDbLine
 10
266.2350842820233
 20
404.2432840571798
 30
0.0
 11
233.9860834435045
 21
404.2432840571798
 31
0.0
  0
LINE
  5
71B5
330
7128
100
AcDbEntity
  8
SUNPOU
370
    -2
100
AcDbLine
 10
236.9860834435045
 20
423.2433594571797
 30
0.0
 11
236.9860834435045
 21
410.2432840571798
 31
0.0
  0
INSERT
  5
71B6
330
7128
100
AcDbEntity
  8
SUNPOU
370
    -2
100
AcDbBlockReference
  2
_OPEN
 10
236.9860834435045
 20
429.2433594571797
 30
0.0
 41
6.0
 42
6.0
 43
6.0
 50
90.0
  0
INSERT
  5
71B7
330
7128
100
AcDbEntity
  8
SUNPOU
370
    -2
100
AcDbBlockReference
  2
_OPEN
 10
236.9860834435045
 20
404.2432840571798
 30
0.0
 41
6.0
 42
6.0
 43
6.0
 50
270.0
  0
MTEXT
  5
71B8
330
7128
100
AcDbEntity
  8
SUNPOU
100
AcDbMText
 10
231.9860834435044
 20
416.7433217571798
 30
0.0
 40
6.0
 41
0.0
 71
     5
 72
     1
  1
\A1;25
 11
6.123031769111886E-17
 21
1.0
 31
0.0
 73
     1
 44
1.0
  0
POINT
  5
71B9
330
7128
100
AcDbEntity
  8
DEFPOINTS
 62
     0
100
AcDbPoint
 10
272.2350842820233
 20
429.2433594571797
 30
0.0
  0
POINT
  5
71BA
330
7128
100
AcDbEntity
  8
DEFPOINTS
 62
     0
100
AcDbPoint
 10
272.2350842820233
 20
404.2432840571798
 30
0.0
  0
POINT
  5
71BB
330
7128
100
AcDbEntity
  8
DEFPOINTS
 62
     0
100
AcDbPoint
 10
236.9860834435045
 20
404.2432840571798
 30
0.0
  0
ENDBLK
  5
7133
330
7128
100
AcDbEntity
  8
0
100
AcDbBlockEnd
  0
BLOCK
  5
7140
330
7134
100
AcDbEntity
  8
0
100
AcDbBlockBegin
  2
*D6
 70
     1
 71
     0
 10
0.0
 20
0.0
 30
0.0
  3
*D6
  1

  0
LINE
  5
71BC
330
7134
100
AcDbEntity
  8
SUNPOU
370
    -2
100
AcDbLine
 10
271.6924936780425
 20
310.9992509528538
 30
0.0
 11
267.9614665069297
 21
337.554324718184
 31
0.0
  0
LINE
  5
71BD
330
7134
100
AcDbEntity
  8
SUNPOU
370
    -2
100
AcDbLine
 10
270.9002749780426
 20
310.8879430528538
 30
0.0
 11
267.1692478069297
 21
337.4430168181841
 31
0.0
  0
LINE
  5
71BE
330
7134
100
AcDbEntity
  8
SUNPOU
370
    -2
100
AcDbLine
 10
271.3496914760206
 20
335.0009090530739
 30
0.0
 11
274.320511793121
 21
335.4183137050642
 31
0.0
  0
LINE
  5
71BF
330
7134
100
AcDbEntity
  8
SUNPOU
370
    -2
100
AcDbLine
 10
264.6158321418196
 20
334.0547918490932
 30
0.0
 11
240.849269605016
 21
330.7155546331704
 31
0.0
  0
LINE
  5
71C0
330
7134
100
AcDbEntity
  8
SUNPOU
370
    -2
100
AcDbLine
 10
268.3788711589201
 20
334.5835044010835
 30
0.0
 11
267.5866524589201
 21
334.4721965010835
 31
0.0
  0
INSERT
  5
71C1
330
7134
100
AcDbEntity
  8
SUNPOU
370
    -2
100
AcDbBlockReference
  2
_OPEN
 10
268.3788711589201
 20
334.5835044010835
 30
0.0
 41
3.0
 42
3.0
 43
3.0
 50
187.9977888161466
  0
INSERT
  5
71C2
330
7134
100
AcDbEntity
  8
SUNPOU
370
    -2
100
AcDbBlockReference
  2
_OPEN
 10
267.5866524589201
 20
334.4721965010835
 30
0.0
 41
3.0
 42
3.0
 43
3.0
 50
7.997788816146583
  0
MTEXT
  5
71C3
330
7134
100
AcDbEntity
  8
SUNPOU
100
AcDbMText
 10
250.5514662948837
 20
337.1278381103041
 30
0.0
 40
6.0
 41
0.0
 71
     5
 72
     1
  1
\A1;t0.8
 11
0.9902734390334829
 21
0.139134883996785
 31
0.0
 73
     1
 44
1.0
  0
POINT
  5
71C4
330
7134
100
AcDbEntity
  8
DEFPOINTS
 62
     0
100
AcDbPoint
 10
272.5273029820232
 20
305.0576103186529
 30
0.0
  0
POINT
  5
71C5
330
7134
100
AcDbEntity
  8
DEFPOINTS
 62
     0
100
AcDbPoint
 10
271.7350842820233
 20
304.9463024186529
 30
0.0
  0
POINT
  5
71C6
330
7134
100
AcDbEntity
  8
DEFPOINTS
 62
     0
100
AcDbPoint
 10
267.5866524589201
 20
334.4721965010835
 30
0.0
  0
ENDBLK
  5
7141
330
7134
100
AcDbEntity
  8
0
100
AcDbBlockEnd
  0
BLOCK
  5
714C
330
7142
100
AcDbEntity
  8
0
100
AcDbBlockBegin
  2
*D7
 70
     1
 71
     0
 10
0.0
 20
0.0
 30
0.0
  3
*D7
  1

  0
LINE
  5
71C7
330
7142
100
AcDbEntity
  8
SUNPOU
370
    -2
100
AcDbLine
 10
144.1143999963387
 20
309.9463020186529
 30
0.0
 11
144.1143999963387
 21
354.7427395502218
 31
0.0
  0
LINE
  5
71C8
330
7142
100
AcDbEntity
  8
SUNPOU
370
    -2
100
AcDbLine
 10
169.1144753963387
 20
309.9463020186529
 30
0.0
 11
169.1144753963387
 21
354.7427395502218
 31
0.0
  0
LINE
  5
71C9
330
7142
100
AcDbEntity
  8
SUNPOU
370
    -2
100
AcDbLine
 10
150.1143999963387
 20
351.7427395502218
 30
0.0
 11
163.1144753963387
 21
351.7427395502218
 31
0.0
  0
INSERT
  5
71CA
330
7142
100
AcDbEntity
  8
SUNPOU
370
    -2
100
AcDbBlockReference
  2
_OPEN
 10
144.1143999963387
 20
351.7427395502218
 30
0.0
 41
6.0
 42
6.0
 43
6.0
 50
180.0
  0
INSERT
  5
71CB
330
7142
100
AcDbEntity
  8
SUNPOU
370
    -2
100
AcDbBlockReference
  2
_OPEN
 10
169.1144753963387
 20
351.7427395502218
 30
0.0
 41
6.0
 42
6.0
 43
6.0
  0
MTEXT
  5
71CC
330
7142
100
AcDbEntity
  8
SUNPOU
100
AcDbMText
 10
156.6144376963387
 20
356.7427395502218
 30
0.0
 40
6.0
 41
0.0
 71
     5
 72
     1
  1
\A1;25
 73
     1
 44
1.0
  0
POINT
  5
71CD
330
7142
100
AcDbEntity
  8
DEFPOINTS
 62
     0
100
AcDbPoint
 10
144.1143999963387
 20
303.9463020186529
 30
0.0
  0
POINT
  5
71CE
330
7142
100
AcDbEntity
  8
DEFPOINTS
 62
     0
100
AcDbPoint
 10
169.1144753963387
 20
303.9463020186529
 30
0.0
  0
POINT
  5
71CF
330
7142
100
AcDbEntity
  8
DEFPOINTS
 62
     0
100
AcDbPoint
 10
169.1144753963387
 20
351.7427395502218
 30
0.0
  0
ENDBLK
  5
714D
330
7142
100
AcDbEntity
  8
0
100
AcDbBlockEnd
  0
BLOCK
  5
7159
330
714E
100
AcDbEntity
  8
0
100
AcDbBlockBegin
  2
*D8
 70
     1
 71
     0
 10
0.0
 20
0.0
 30
0.0
  3
*D8
  1

  0
LINE
  5
71D0
330
714E
100
AcDbEntity
  8
SUNPOU
  6
Continuous
 62
     4
370
    -2
100
AcDbLine
 10
567.4139693237661
 20
260.4162794679536
 30
0.0
 11
555.1734834408173
 21
291.0194639992473
 31
0.0
  0
LINE
  5
71D1
330
714E
100
AcDbEntity
  8
SUNPOU
  6
Continuous
 62
     4
370
    -2
100
AcDbLine
 10
540.5033347769905
 20
281.9207120420655
 30
0.0
 11
534.003940239755
 21
279.3211215648263
 31
0.0
  0
LINE
  5
71D2
330
714E
100
AcDbEntity
  8
SUNPOU
  6
Continuous
 62
     4
370
    -2
100
AcDbLine
 10
562.786988182584
 20
290.8335996748141
 30
0.0
 11
579.4997169926182
 21
297.5182609020006
 31
0.0
  0
LINE
  5
71D3
330
714E
100
AcDbEntity
  8
SUNPOU
  6
Continuous
 62
     4
370
    -2
100
AcDbLine
 10
547.0027293142261
 20
284.5203025193048
 30
0.0
 11
556.2875936453485
 21
288.2340091975748
 31
0.0
  0
INSERT
  5
71D4
330
714E
100
AcDbEntity
  8
SUNPOU
  6
Continuous
 62
     4
370
    -2
100
AcDbBlockReference
  2
_OPEN
 10
547.0027293142261
 20
284.5203025193048
 30
0.0
 41
7.0
 42
7.0
 43
7.0
 50
21.80013777286685
  0
INSERT
  5
71D5
330
714E
100
AcDbEntity
  8
SUNPOU
  6
Continuous
 62
     4
370
    -2
100
AcDbBlockReference
  2
_OPEN
 10
556.2875936453485
 20
288.2340091975748
 30
0.0
 41
7.0
 42
7.0
 43
7.0
 50
201.8001377728668
  0
MTEXT
  5
71D6
330
714E
100
AcDbEntity
  8
SUNPOU
  6
Continuous
 62
     4
100
AcDbMText
 10
572.5361995153337
 20
300.1181501964809
 30
0.0
 40
6.0
 41
0.0
 71
     5
 72
     1
  1
\A1;10
 11
0.9284849338907913
 21
0.3713700681770312
 31
0.0
 73
     1
 44
1.0
  0
POINT
  5
71D7
330
714E
100
AcDbEntity
  8
DEFPOINTS
  6
Continuous
 62
     0
100
AcDbPoint
 10
560.3573254017057
 20
251.1316631863394
 30
0.0
  0
POINT
  5
71D8
330
714E
100
AcDbEntity
  8
DEFPOINTS
  6
Continuous
 62
     0
100
AcDbPoint
 10
569.6421897328282
 20
254.8453698646088
 30
0.0
  0
POINT
  5
71D9
330
714E
100
AcDbEntity
  8
DEFPOINTS
  6
Continuous
 62
     0
100
AcDbPoint
 10
556.2875936453485
 20
288.2340091975748
 30
0.0
  0
ENDBLK
  5
715A
330
714E
100
AcDbEntity
  8
0
100
AcDbBlockEnd
  0
BLOCK
  5
7165
330
715B
100
AcDbEntity
  8
0
100
AcDbBlockBegin
  2
*D9
 70
     1
 71
     0
 10
0.0
 20
0.0
 30
0.0
  3
*D9
  1

  0
LINE
  5
71DA
330
715B
100
AcDbEntity
  8
SUNPOU
  6
Continuous
 62
     4
370
    -2
100
AcDbLine
 10
502.4200397065282
 20
234.4203809972074
 30
0.0
 11
490.1795538235813
 21
265.0235655285019
 31
0.0
  0
LINE
  5
71DB
330
715B
100
AcDbEntity
  8
SUNPOU
  6
Continuous
 62
     4
370
    -2
100
AcDbLine
 10
558.1291049926437
 20
256.7025727896842
 30
0.0
 11
545.8886191096967
 21
287.3057573209787
 31
0.0
  0
LINE
  5
71DC
330
715B
100
AcDbEntity
  8
SUNPOU
  6
Continuous
 62
     4
370
    -2
100
AcDbLine
 10
497.7930585653478
 20
264.8377012040683
 30
0.0
 11
540.5033347769919
 21
281.9207120420674
 31
0.0
  0
INSERT
  5
71DD
330
715B
100
AcDbEntity
  8
SUNPOU
  6
Continuous
 62
     4
370
    -2
100
AcDbBlockReference
  2
_OPEN
 10
491.2936640281122
 20
262.2381107268294
 30
0.0
 41
7.0
 42
7.0
 43
7.0
 50
201.8001377728634
  0
INSERT
  5
71DE
330
715B
100
AcDbEntity
  8
SUNPOU
  6
Continuous
 62
     4
370
    -2
100
AcDbBlockReference
  2
_OPEN
 10
547.0027293142276
 20
284.5203025193062
 30
0.0
 41
7.0
 42
7.0
 43
7.0
 50
21.80013777286336
  0
MTEXT
  5
71DF
330
715B
100
AcDbEntity
  8
SUNPOU
  6
Continuous
 62
     4
100
AcDbMText
 10
517.291346330285
 20
278.0216312925219
 30
0.0
 40
6.0
 41
0.0
 71
     5
 72
     1
  1
\A1;60
 11
0.9284849338908138
 21
0.3713700681769751
 31
0.0
 73
     1
 44
1.0
  0
POINT
  5
71E0
330
715B
100
AcDbEntity
  8
DEFPOINTS
  6
Continuous
 62
     0
100
AcDbPoint
 10
504.64826011559
 20
228.8494713938625
 30
0.0
  0
POINT
  5
71E1
330
715B
100
AcDbEntity
  8
DEFPOINTS
  6
Continuous
 62
     0
100
AcDbPoint
 10
560.3573254017055
 20
251.1316631863393
 30
0.0
  0
POINT
  5
71E2
330
715B
100
AcDbEntity
  8
DEFPOINTS
  6
Continuous
 62
     0
100
AcDbPoint
 10
547.0027293142276
 20
284.5203025193062
 30
0.0
  0
ENDBLK
  5
7166
330
715B
100
AcDbEntity
  8
0
100
AcDbBlockEnd
  0
BLOCK
  5
7173
330
7167
100
AcDbEntity
  8
0
100
AcDbBlockBegin
  2
*D10
 70
     1
 71
     0
 10
0.0
 20
0.0
 30
0.0
  3
*D10
  1

  0
LINE
  5
71E3
330
7167
100
AcDbEntity
  8
SUNPOU
  6
Continuous
 62
     4
370
    -2
100
AcDbLine
 10
575.2131100645132
 20
257.0735634509065
 30
0.0
 11
602.9813907828678
 21
268.1800057109479
 31
0.0
  0
LINE
  5
71E4
330
7167
100
AcDbEntity
  8
SUNPOU
  6
Continuous
 62
     4
370
    -2
100
AcDbLine
 10
579.298198725297
 20
246.8600417815844
 30
0.0
 11
607.0664794436515
 21
257.9664840416258
 31
0.0
  0
LINE
  5
71E5
330
7167
100
AcDbEntity
  8
SUNPOU
  6
Continuous
 62
     4
370
    -2
100
AcDbLine
 10
597.5963714330113
 20
273.5653159714316
 30
0.0
 11
594.9968122489973
 21
280.0647230250642
 31
0.0
  0
LINE
  5
71E6
330
7167
100
AcDbEntity
  8
SUNPOU
  6
Continuous
 62
     4
370
    -2
100
AcDbLine
 10
606.8805784618228
 20
250.3529801948444
 30
0.0
 11
609.4801376458368
 21
243.8535731412119
 31
0.0
  0
LINE
  5
71E7
330
7167
100
AcDbEntity
  8
SUNPOU
  6
Continuous
 62
     4
370
    -2
100
AcDbLine
 10
600.1959306170253
 20
267.0659089177991
 30
0.0
 11
604.2810192778089
 21
256.852387248477
 31
0.0
  0
INSERT
  5
71E8
330
7167
100
AcDbEntity
  8
SUNPOU
  6
Continuous
 62
     4
370
    -2
100
AcDbBlockReference
  2
_OPEN
 10
600.1959306170253
 20
267.0659089177991
 30
0.0
 41
7.0
 42
7.0
 43
7.0
 50
291.7998619059381
  0
INSERT
  5
71E9
330
7167
100
AcDbEntity
  8
SUNPOU
  6
Continuous
 62
     4
370
    -2
100
AcDbBlockReference
  2
_OPEN
 10
604.2810192778089
 20
256.852387248477
 30
0.0
 41
7.0
 42
7.0
 43
7.0
 50
111.7998619059382
  0
MTEXT
  5
71EA
330
7167
100
AcDbEntity
  8
SUNPOU
  6
Continuous
 62
     4
100
AcDbMText
 10
606.8809085571546
 20
263.8159760717193
 30
0.0
 40
6.0
 41
0.0
 71
     5
 72
     1
  1
\A1;11
 11
0.3713655977162776
 21
-0.9284867219475095
 31
0.0
 73
     1
 44
1.0
  0
POINT
  5
71EB
330
7167
100
AcDbEntity
  8
DEFPOINTS
  6
Continuous
 62
     0
100
AcDbPoint
 10
569.6421897328281
 20
254.8453698646088
 30
0.0
  0
POINT
  5
71EC
330
7167
100
AcDbEntity
  8
DEFPOINTS
  6
Continuous
 62
     0
100
AcDbPoint
 10
573.7272783936119
 20
244.6318481952868
 30
0.0
  0
POINT
  5
71ED
330
7167
100
AcDbEntity
  8
DEFPOINTS
  6
Continuous
 62
     0
100
AcDbPoint
 10
604.2810192778089
 20
256.852387248477
 30
0.0
  0
ENDBLK
  5
7174
330
7167
100
AcDbEntity
  8
0
100
AcDbBlockEnd
  0
BLOCK
  5
7181
330
7175
100
AcDbEntity
  8
0
100
AcDbBlockBegin
  2
*D11
 70
     1
 71
     0
 10
0.0
 20
0.0
 30
0.0
  3
*D11
  1

  0
LINE
  5
71EE
330
7175
100
AcDbEntity
  8
SUNPOU
  6
Continuous
 62
     4
370
    -2
100
AcDbLine
 10
579.7273511251193
 20
418.4933217571798
 30
0.0
 11
603.4859624548036
 21
418.4933217571798
 31
0.0
  0
LINE
  5
71EF
330
7175
100
AcDbEntity
  8
SUNPOU
  6
Continuous
 62
     4
370
    -2
100
AcDbLine
 10
579.7273511251193
 20
414.99332175718
 30
0.0
 11
603.4859624548036
 21
414.99332175718
 31
0.0
  0
LINE
  5
71F0
330
7175
100
AcDbEntity
  8
SUNPOU
  6
Continuous
 62
     4
370
    -2
100
AcDbLine
 10
600.4859624548036
 20
425.4933217571798
 30
0.0
 11
600.4859624548036
 21
432.4933217571798
 31
0.0
  0
LINE
  5
71F1
330
7175
100
AcDbEntity
  8
SUNPOU
  6
Continuous
 62
     4
370
    -2
100
AcDbLine
 10
600.4859624548036
 20
407.99332175718
 30
0.0
 11
600.4859624548036
 21
378.99332175718
 31
0.0
  0
LINE
  5
71F2
330
7175
100
AcDbEntity
  8
SUNPOU
  6
Continuous
 62
     4
370
    -2
100
AcDbLine
 10
600.4859624548036
 20
418.4933217571798
 30
0.0
 11
600.4859624548036
 21
414.99332175718
 31
0.0
  0
INSERT
  5
71F3
330
7175
100
AcDbEntity
  8
SUNPOU
  6
Continuous
 62
     4
370
    -2
100
AcDbBlockReference
  2
_OPEN
 10
600.4859624548036
 20
418.4933217571798
 30
0.0
 41
7.0
 42
7.0
 43
7.0
 50
270.0
  0
INSERT
  5
71F4
330
7175
100
AcDbEntity
  8
SUNPOU
  6
Continuous
 62
     4
370
    -2
100
AcDbBlockReference
  2
_OPEN
 10
600.4859624548036
 20
414.99332175718
 30
0.0
 41
7.0
 42
7.0
 43
7.0
 50
90.0
  0
MTEXT
  5
71F5
330
7175
100
AcDbEntity
  8
SUNPOU
  6
Continuous
 62
     4
100
AcDbMText
 10
595.4859624548035
 20
389.99332175718
 30
0.0
 40
6.0
 41
0.0
 71
     5
 72
     1
  1
\A1;{t3.5}
 11
6.123031769111886E-17
 21
1.0
 31
0.0
 73
     1
 44
1.0
  0
POINT
  5
71F6
330
7175
100
AcDbEntity
  8
DEFPOINTS
  6
Continuous
 62
     0
100
AcDbPoint
 10
573.7273511251193
 20
418.4933217571798
 30
0.0
  0
POINT
  5
71F7
330
7175
100
AcDbEntity
  8
DEFPOINTS
  6
Continuous
 62
     0
100
AcDbPoint
 10
573.7273511251193
 20
414.99332175718
 30
0.0
  0
POINT
  5
71F8
330
7175
100
AcDbEntity
  8
DEFPOINTS
  6
Continuous
 62
     0
100
AcDbPoint
 10
600.4859624548036
 20
414.99332175718
 30
0.0
  0
ENDBLK
  5
7182
330
7175
100
AcDbEntity
  8
0
100
AcDbBlockEnd
  0
BLOCK
  5
718D
330
7183
100
AcDbEntity
  8
0
100
AcDbBlockBegin
  2
*D12
 70
     1
 71
     0
 10
0.0
 20
0.0
 30
0.0
  3
*D12
  1

  0
LINE
  5
71F9
330
7183
100
AcDbEntity
  8
SUNPOU
370
    -2
100
AcDbLine
 10
371.4756461682514
 20
157.4906729778514
 30
0.0
 11
387.8762983519131
 21
116.3775088094783
 31
0.0
  0
LINE
  5
71FA
330
7183
100
AcDbEntity
  8
SUNPOU
370
    -2
100
AcDbLine
 10
575.9504809179429
 20
239.0587233304712
 30
0.0
 11
592.3511331016044
 21
197.945559162098
 31
0.0
  0
LINE
  5
71FB
330
7183
100
AcDbEntity
  8
SUNPOU
370
    -2
100
AcDbLine
 10
392.3376764773042
 20
121.3871101132032
 30
0.0
 11
585.6666251833899
 21
198.508900880176
 31
0.0
  0
INSERT
  5
71FC
330
7183
100
AcDbEntity
  8
SUNPOU
370
    -2
100
AcDbBlockReference
  2
_OPEN
 10
386.7647334555014
 20
119.1639803203797
 30
0.0
 41
6.0
 42
6.0
 43
6.0
 50
201.7477912792218
  0
INSERT
  5
71FD
330
7183
100
AcDbEntity
  8
SUNPOU
370
    -2
100
AcDbBlockReference
  2
_OPEN
 10
591.2395682051928
 20
200.7320306729994
 30
0.0
 41
6.0
 42
6.0
 43
6.0
 50
21.74779127922183
  0
MTEXT
  5
71FE
330
7183
100
AcDbEntity
  8
SUNPOU
100
AcDbMText
 10
487.1495426696608
 20
164.5921246815253
 30
0.0
 40
6.0
 41
0.0
 71
     5
 72
     1
  1
\A1;220
 11
0.9288238369671361
 21
0.3705216321372438
 31
0.0
 73
     1
 44
1.0
  0
POINT
  5
71FF
330
7183
100
AcDbEntity
  8
DEFPOINTS
 62
     0
100
AcDbPoint
 10
369.252516375428
 20
163.0636159996543
 30
0.0
  0
POINT
  5
7200
330
7183
100
AcDbEntity
  8
DEFPOINTS
 62
     0
100
AcDbPoint
 10
573.7273511251194
 20
244.631666352274
 30
0.0
  0
POINT
  5
7201
330
7183
100
AcDbEntity
  8
DEFPOINTS
 62
     0
100
AcDbPoint
 10
591.2395682051928
 20
200.7320306729994
 30
0.0
  0
ENDBLK
  5
718E
330
7183
100
AcDbEntity
  8
0
100
AcDbBlockEnd
  0
ENDSEC
  0
SECTION
  2
ENTITIES
  0
LINE
  5
3EF3
330
1A
100
AcDbEntity
  8
ZUWAKU
100
AcDbLine
 10
208.646601303624
 20
15.19999986828872
 30
0.0
 11
447.4243639845474
 21
15.19999986828871
 31
0.0
  0
LINE
  5
3EF4
330
1A
100
AcDbEntity
  8
ZUWAKU
100
AcDbLine
 10
208.646601303624
 20
15.59999986828872
 30
0.0
 11
447.4243639845474
 21
15.59999986828872
 31
0.0
  0
LINE
  5
3EF5
330
1A
100
AcDbEntity
  8
ZUWAKU
100
AcDbLine
 10
208.646601303624
 20
15.39999986828872
 30
0.0
 11
447.4243639845474
 21
15.39999986828872
 31
0.0
  0
LINE
  5
3EF6
330
1A
100
AcDbEntity
  8
ZUWAKU
100
AcDbLine
 10
0.0000000135560185
 20
30.79999986828869
 30
0.0
 11
797.4000000135559
 21
30.79999986828869
 31
0.0
  0
LINE
  5
3EF7
330
1A
100
AcDbEntity
  8
ZUWAKU
100
AcDbLine
 10
0.0000000135560185
 20
30.59999986828869
 30
0.0
 11
797.4000000135559
 21
30.59999986828869
 31
0.0
  0
LINE
  5
3EF8
330
1A
100
AcDbEntity
  8
ZUWAKU
100
AcDbLine
 10
0.0000000135560185
 20
30.39999986828869
 30
0.0
 11
797.4000000135559
 21
30.39999986828869
 31
0.0
  0
LINE
  5
3EF9
330
1A
100
AcDbEntity
  8
ZUWAKU
100
AcDbLine
 10
0.0000000135560185
 20
30.19999986828869
 30
0.0
 11
797.4000000135559
 21
30.19999986828869
 31
0.0
  0
LINE
  5
3EFA
330
1A
100
AcDbEntity
  8
ZUWAKU
100
AcDbLine
 10
0.0000000135560185
 20
29.99999986828868
 30
0.0
 11
797.4000000135559
 21
29.99999986828868
 31
0.0
  0
LWPOLYLINE
  5
3EFB
330
1A
100
AcDbEntity
  8
ZUWAKU
100
AcDbPolyline
 90
        4
 70
     1
 43
0.0
 10
0.2000000135559503
 20
551.3999998682888
 10
0.2000000135559503
 20
0.1999998682887281
 10
797.4000000135559
 20
0.1999998682887512
 10
797.4000000135561
 20
551.3999998682888
  0
LWPOLYLINE
  5
3EFC
330
1A
100
AcDbEntity
  8
ZUWAKU
100
AcDbPolyline
 90
        4
 70
     1
 43
0.0
 10
0.6000000135559276
 20
550.9999998682888
 10
0.6000000135559276
 20
0.5999998682887053
 10
797.0000000135563
 20
0.5999998682887515
 10
797.000000013556
 20
550.9999998682888
  0
LWPOLYLINE
  5
3EFD
330
1A
100
AcDbEntity
  8
ZUWAKU
100
AcDbPolyline
 90
        4
 70
     1
 43
0.0
 10
0.0000000135560185
 20
551.5999998682887
 10
0.0000000135560185
 20
-0.0000001317113174
 10
797.6000000135562
 20
-0.0000001317112499
 10
797.6000000135562
 20
551.5999998682888
  0
LWPOLYLINE
  5
3EFE
330
1A
100
AcDbEntity
  8
ZUWAKU
100
AcDbPolyline
 90
        4
 70
     1
 43
0.0
 10
0.4000000135559958
 20
551.1999998682887
 10
0.4000000135559958
 20
0.3999998682887735
 10
797.2000000135561
 20
0.3999998682887505
 10
797.2000000135561
 20
551.1999998682887
  0
LWPOLYLINE
  5
3EFF
330
1A
100
AcDbEntity
  8
ZUWAKU
100
AcDbPolyline
 90
        4
 70
     1
 43
0.0
 10
0.8000000135559731
 20
550.7999998682888
 10
0.8000000135559731
 20
0.7999998682887508
 10
796.800000013556
 20
0.7999998682887508
 10
796.800000013556
 20
550.7999998682888
  0
TEXT
  5
3F00
330
1A
100
AcDbEntity
  8
moji
100
AcDbText
 10
92.95778960172515
 20
12.74117799856344
 30
0.0
 40
6.0
  1
アーバントップΣ９０
 41
0.9
  7
ｽﾀｲﾙ1
100
AcDbText
  0
HATCH
  5
3F01
330
1A
100
AcDbEntity
  8
ZUWAKU
100
AcDbHatch
 10
0.0
 20
0.0
 30
0.0
210
0.0
220
0.0
230
1.0
  2
ANSI37
 70
     0
 71
     0
 91
        8
 92
        7
 72
     1
 73
     1
 93
       24
 10
14.50226267467588
 20
17.64484834927227
 42
-0.1989123673796348
 10
14.09221216833714
 20
18.63479784293332
 42
0.0
 10
14.09221216833714
 20
19.92499986828869
 42
-0.4142135623730912
 10
14.61721216833712
 20
20.44999986828869
 42
0.0
 10
17.59221216833703
 20
20.44999986828869
 42
0.4142135623731546
 10
18.11721216833712
 20
20.97499986828868
 42
0.0
 10
18.11721216833712
 20
22.72499986828869
 42
0.4142135623731586
 10
17.59221216833703
 20
23.24999986828869
 42
0.0
 10
14.09221216833714
 20
23.24999986828869
 42
0.4142135623730928
 10
11.29221216833719
 20
20.44999986828871
 42
0.0
 10
11.29221216833719
 20
18.63479784293345
 42
0.1989123673796619
 10
12.52236368735362
 20
15.66494936194984
 42
0.0
 10
15.43216166199829
 20
12.75515138730518
 42
-0.1989123673796613
 10
15.84221216833714
 20
11.76520189364399
 42
0.0
 10
15.84221216833714
 20
10.47499986828868
 42
-0.4142135623730911
 10
15.31721216833716
 20
9.949999868288685
 42
0.0
 10
12.34221216833726
 20
9.949999868288685
 42
0.4142135623731526
 10
11.81721216833716
 20
9.424999868288698
 42
0.0
 10
11.81721216833716
 20
7.674999868288676
 42
0.4142135623731526
 10
12.34221216833726
 20
7.149999868288688
 42
0.0
 10
15.84221216833714
 20
7.149999868288688
 42
0.4142135623731044
 10
18.64221216833721
 20
9.949999868288664
 42
0.0
 10
18.64221216833721
 20
11.76520189364394
 42
0.1989123673796604
 10
17.41206064932067
 20
14.73505037462748
 42
0.0
 97
        0
 92
        7
 72
     1
 73
     1
 93
       16
 10
23.54221216833719
 20
19.04999986828869
 42
-0.4142135623730935
 10
24.94221216833716
 20
20.44999986828869
 42
0.0
 10
26.86721216833712
 20
20.44999986828869
 42
0.4142135623731546
 10
27.39221216833721
 20
20.97499986828868
 42
0.0
 10
27.39221216833721
 20
22.72499986828869
 42
0.4142135623730952
 10
26.86721216833723
 20
23.24999986828869
 42
0.0
 10
24.94221216833705
 20
23.24999986828865
 42
0.4142135623730892
 10
20.74221216833712
 20
19.04999986828862
 42
0.0
 10
20.74221216833712
 20
11.34999986828871
 42
0.4142135623730969
 10
24.94221216833716
 20
7.149999868288688
 42
0.0
 10
26.86721216833712
 20
7.149999868288688
 42
0.4142135623731526
 10
27.39221216833721
 20
7.674999868288676
 42
0.0
 10
27.39221216833721
 20
9.424999868288698
 42
0.414213562373089
 10
26.86721216833723
 20
9.949999868288685
 42
0.0
 10
24.94221216833716
 20
9.949999868288685
 42
-0.4142135623730928
 10
23.54221216833719
 20
11.34999986828867
 42
0.0
 97
        0
 92
        7
 72
     1
 73
     1
 93
        2
 10
24.24221216833712
 20
15.19999986828869
 42
1.0
 10
27.74221216833712
 20
15.19999986828869
 42
1.0
 97
        0
 92
        7
 72
     1
 73
     1
 93
       26
 10
37.31485865051513
 20
19.20504706185211
 42
0.0
 10
38.37649828365295
 20
22.5669059001217
 42
0.5069206636600134
 10
37.87586738445759
 20
23.24999986828869
 42
0.0
 10
36.17697800484837
 20
23.24999986828869
 42
0.3272098845218764
 10
35.67634710565301
 20
22.88309383645566
 42
0.0
 10
33.80807723102123
 20
16.96690590012177
 42
-0.3272098845219541
 10
33.30744633182576
 20
16.59999986828868
 42
0.0
 10
33.1672121683373
 20
16.59999986828868
 42
-0.4142135623731526
 10
32.64221216833721
 20
17.12499986828867
 42
0.0
 10
32.64221216833721
 20
22.72499986828869
 42
0.4142135623730952
 10
32.11721216833723
 20
23.24999986828869
 42
0.0
 10
30.36721216833712
 20
23.24999986828869
 42
0.4142135623730872
 10
29.84221216833714
 20
22.72499986828871
 42
0.0
 10
29.84221216833714
 20
7.674999868288676
 42
0.414213562373089
 10
30.36721216833712
 20
7.149999868288688
 42
0.0
 10
32.11721216833712
 20
7.149999868288688
 42
0.4142135623731526
 10
32.64221216833721
 20
7.674999868288676
 42
0.0
 10
32.64221216833721
 20
13.2749998682887
 42
-0.4142135623731526
 10
33.1672121683373
 20
13.79999986828869
 42
0.0
 10
33.30744633182587
 20
13.79999986828869
 42
-0.3272098845218915
 10
33.80807723102123
 20
13.43309383645561
 42
0.0
 10
35.67634710565301
 20
7.51690590012176
 42
0.3272098845218902
 10
36.17697800484837
 20
7.149999868288688
 42
0.0
 10
37.87586738445759
 20
7.149999868288688
 42
0.5069206636600334
 10
38.37649828365295
 20
7.833093836455696
 42
0.0
 10
36.05010690517929
 20
15.19999986828882
 42
0.0
 97
        0
 92
        7
 72
     1
 73
     1
 93
        8
 10
43.49221216833712
 20
22.7249998682887
 42
0.4142135623731546
 10
42.96721216833703
 20
23.24999986828869
 42
0.0
 10
41.21721216833726
 20
23.24999986828869
 42
0.4142135623731506
 10
40.69221216833716
 20
22.72499986828871
 42
0.0
 10
40.69221216833716
 20
7.674999868288676
 42
0.4142135623731526
 10
41.21721216833726
 20
7.149999868288688
 42
0.0
 10
42.96721216833703
 20
7.149999868288688
 42
0.4142135623731526
 10
43.49221216833712
 20
7.674999868288676
 42
0.0
 97
        0
 92
        7
 72
     1
 73
     1
 93
       24
 10
48.39221216833721
 20
19.92499986828869
 42
-0.4142135623731547
 10
48.9172121683373
 20
20.44999986828869
 42
0.0
 10
51.89221216833721
 20
20.44999986828869
 42
0.4142135623730911
 10
52.41721216833719
 20
20.97499986828868
 42
0.0
 10
52.41721216833719
 20
22.72499986828869
 42
0.4142135623730952
 10
51.89221216833721
 20
23.24999986828869
 42
0.0
 10
48.39221216833721
 20
23.24999986828869
 42
0.4142135623731048
 10
45.59221216833714
 20
20.44999986828871
 42
0.0
 10
45.59221216833714
 20
18.63479784293345
 42
0.1989123673796613
 10
46.82236368735369
 20
15.66494936194989
 42
0.0
 10
49.73216166199836
 20
12.75515138730523
 42
-0.1989123673796402
 10
50.14221216833721
 20
11.76520189364415
 42
0.0
 10
50.14221216833721
 20
10.47499986828868
 42
-0.4142135623730911
 10
49.61721216833723
 20
9.949999868288685
 42
0.0
 10
46.64221216833721
 20
9.949999868288685
 42
0.4142135623731526
 10
46.11721216833712
 20
9.424999868288698
 42
0.0
 10
46.11721216833712
 20
7.674999868288676
 42
0.414213562373089
 10
46.6422121683371
 20
7.149999868288688
 42
0.0
 10
50.14221216833721
 20
7.149999868288688
 42
0.4142135623730925
 10
52.94221216833716
 20
9.949999868288664
 42
0.0
 10
52.94221216833716
 20
11.76520189364394
 42
0.1989123673796675
 10
51.71206064932062
 20
14.73505037462759
 42
0.0
 10
48.80226267467606
 20
17.64484834927211
 42
-0.1989123673796653
 10
48.39221216833721
 20
18.63479784293327
 42
0.0
 97
        0
 92
        7
 72
     1
 73
     1
 93
       16
 10
57.84221216833714
 20
22.72499986828868
 42
0.414213562373103
 10
57.31721216833716
 20
23.24999986828869
 42
0.0
 10
55.56721216833716
 20
23.24999986828869
 42
0.4142135623730872
 10
55.04221216833719
 20
22.72499986828871
 42
0.0
 10
55.04221216833719
 20
9.949999868288664
 42
0.4142135623730925
 10
57.84221216833714
 20
7.149999868288688
 42
0.0
 10
61.34221216833714
 20
7.149999868288688
 42
0.4142135623731044
 10
64.14221216833721
 20
9.949999868288664
 42
0.0
 10
64.14221216833721
 20
22.72499986828869
 42
0.4142135623730952
 10
63.61721216833723
 20
23.24999986828869
 42
0.0
 10
61.86721216833712
 20
23.24999986828869
 42
0.4142135623730872
 10
61.34221216833714
 20
22.72499986828871
 42
0.0
 10
61.34221216833714
 20
10.99999986828866
 42
-0.414213562373088
 10
60.29221216833719
 20
9.949999868288685
 42
0.0
 10
58.89221216833721
 20
9.949999868288685
 42
-0.4142135623731197
 10
57.84221216833714
 20
10.99999986828866
 42
0.0
 97
        0
 92
        7
 72
     1
 73
     1
 93
        8
 10
69.04221216833719
 20
22.72499986828871
 42
0.4142135623730872
 10
68.51721216833721
 20
23.24999986828869
 42
0.0
 10
66.76721216833721
 20
23.24999986828869
 42
0.4142135623731506
 10
66.24221216833712
 20
22.72499986828871
 42
0.0
 10
66.24221216833712
 20
7.674999868288676
 42
0.414213562373089
 10
66.7672121683371
 20
7.149999868288688
 42
0.0
 10
68.51721216833721
 20
7.149999868288688
 42
0.414213562373089
 10
69.04221216833719
 20
7.674999868288676
 42
0.0
 97
        0
 75
     0
 76
     1
 52
0.0
 41
0.2
 77
     0
 78
     2
 53
45.0
 43
-900.942304321123
 44
-13.20000013171125
 45
-0.4490128060534576
 46
0.4490128060534577
 79
     0
 53
135.0
 43
-900.942304321123
 44
-13.20000013171125
 45
-0.4490128060534577
 46
-0.4490128060534576
 79
     0
 47
0.057451373970553
 98
        8
 10
16.07985497657933
 20
15.16717351417424
 10
22.40451501999519
 20
18.84406205073969
 10
25.16436789921568
 20
15.5118815143594
 10
30.91405999519316
 20
16.20129751473019
 10
41.83847203251276
 20
16.6609097822718
 10
46.89820090868557
 20
19.41857618469589
 10
56.55768598595637
 20
18.7291577833837
 10
67.82707963317876
 20
19.18877005092531
  0
LINE
  5
3F02
330
1A
100
AcDbEntity
  8
ZUWAKU
100
AcDbLine
 10
24.94221216833716
 20
23.24999986828865
 30
0.0
 11
26.86721216833712
 21
23.24999986828869
 31
0.0
  0
LINE
  5
3F03
330
1A
100
AcDbEntity
  8
ZUWAKU
100
AcDbLine
 10
26.86721216833712
 20
20.44999986828869
 30
0.0
 11
24.94221216833716
 21
20.44999986828869
 31
0.0
  0
LINE
  5
3F04
330
1A
100
AcDbEntity
  8
ZUWAKU
100
AcDbLine
 10
24.94221216833716
 20
9.949999868288685
 30
0.0
 11
26.86721216833712
 21
9.949999868288685
 31
0.0
  0
LINE
  5
3F05
330
1A
100
AcDbEntity
  8
ZUWAKU
100
AcDbLine
 10
26.86721216833712
 20
7.149999868288688
 30
0.0
 11
24.94221216833716
 21
7.149999868288688
 31
0.0
  0
CIRCLE
  5
3F06
330
1A
100
AcDbEntity
  8
ZUWAKU
100
AcDbCircle
 10
25.99221216833712
 20
15.19999986828869
 30
0.0
 40
1.75
  0
ARC
  5
3F07
330
1A
100
AcDbEntity
  8
ZUWAKU
100
AcDbCircle
 10
15.49221216833712
 20
18.63479784293339
 30
0.0
 40
1.4
100
AcDbArc
 50
180.0000000000016
 51
224.9999999999988
  0
LINE
  5
3F08
330
1A
100
AcDbEntity
  8
ZUWAKU
100
AcDbLine
 10
23.54221216833719
 20
19.04999986828869
 30
0.0
 11
23.54221216833719
 21
11.34999986828869
 31
0.0
  0
LINE
  5
3F09
330
1A
100
AcDbEntity
  8
ZUWAKU
100
AcDbLine
 10
20.74221216833712
 20
11.34999986828869
 30
0.0
 11
20.74221216833712
 21
19.04999986828864
 31
0.0
  0
ARC
  5
3F0A
330
1A
100
AcDbEntity
  8
ZUWAKU
100
AcDbCircle
 10
15.49221216833712
 20
18.63479784293339
 30
0.0
 40
4.199999999999999
100
AcDbArc
 50
180.0
 51
225.0
  0
ARC
  5
3F0B
330
1A
100
AcDbEntity
  8
ZUWAKU
100
AcDbCircle
 10
15.84221216833714
 20
9.949999868288685
 30
0.0
 40
2.8
100
AcDbArc
 50
270.0
 51
0.0
  0
ARC
  5
3F0C
330
1A
100
AcDbEntity
  8
ZUWAKU
100
AcDbCircle
 10
24.94221216833716
 20
11.34999986828869
 30
0.0
 40
4.199999999999999
100
AcDbArc
 50
180.0
 51
270.0
  0
ARC
  5
3F0D
330
1A
100
AcDbEntity
  8
ZUWAKU
100
AcDbCircle
 10
14.44221216833716
 20
11.76520189364399
 30
0.0
 40
4.199999999999999
100
AcDbArc
 50
0.0
 51
45.0
  0
LINE
  5
3F0E
330
1A
100
AcDbEntity
  8
ZUWAKU
100
AcDbLine
 10
17.41206064932067
 20
14.73505037462751
 30
0.0
 11
14.50226267467599
 21
17.64484834927219
 31
0.0
  0
LINE
  5
3F0F
330
1A
100
AcDbEntity
  8
ZUWAKU
100
AcDbLine
 10
15.84221216833714
 20
10.47499986828869
 30
0.0
 11
15.84221216833714
 21
11.76520189364403
 31
0.0
  0
ARC
  5
3F10
330
1A
100
AcDbEntity
  8
ZUWAKU
100
AcDbCircle
 10
15.31721216833716
 20
10.47499986828869
 30
0.0
 40
0.5249999999999999
100
AcDbArc
 50
270.0
 51
0.0
  0
ARC
  5
3F11
330
1A
100
AcDbEntity
  8
ZUWAKU
100
AcDbCircle
 10
14.44221216833716
 20
11.76520189364403
 30
0.0
 40
1.4
100
AcDbArc
 50
0.0
 51
45.0
  0
LINE
  5
3F12
330
1A
100
AcDbEntity
  8
ZUWAKU
100
AcDbLine
 10
11.81721216833716
 20
7.674999868288687
 30
0.0
 11
11.81721216833716
 21
9.424999868288687
 31
0.0
  0
ARC
  5
3F13
330
1A
100
AcDbEntity
  8
ZUWAKU
100
AcDbCircle
 10
12.34221216833714
 20
7.674999868288687
 30
0.0
 40
0.5249999999999999
100
AcDbArc
 50
180.0
 51
270.0
  0
ARC
  5
3F14
330
1A
100
AcDbEntity
  8
ZUWAKU
100
AcDbCircle
 10
12.34221216833714
 20
9.424999868288687
 30
0.0
 40
0.5249999999999999
100
AcDbArc
 50
90.0
 51
180.0
  0
LINE
  5
3F15
330
1A
100
AcDbEntity
  8
ZUWAKU
100
AcDbLine
 10
12.34221216833714
 20
7.149999868288688
 30
0.0
 11
15.84221216833714
 21
7.149999868288688
 31
0.0
  0
LINE
  5
3F16
330
1A
100
AcDbEntity
  8
ZUWAKU
100
AcDbLine
 10
12.34221216833714
 20
9.949999868288685
 30
0.0
 11
15.31721216833716
 21
9.949999868288685
 31
0.0
  0
LINE
  5
3F17
330
1A
100
AcDbEntity
  8
ZUWAKU
100
AcDbLine
 10
12.52236368735362
 20
15.66494936194987
 30
0.0
 11
15.43216166199829
 21
12.7551513873052
 31
0.0
  0
LINE
  5
3F18
330
1A
100
AcDbEntity
  8
ZUWAKU
100
AcDbLine
 10
18.64221216833721
 20
9.949999868288685
 30
0.0
 11
18.64221216833721
 21
11.76520189364403
 31
0.0
  0
ARC
  5
3F19
330
1A
100
AcDbEntity
  8
ZUWAKU
100
AcDbCircle
 10
24.94221216833716
 20
11.34999986828869
 30
0.0
 40
1.4
100
AcDbArc
 50
180.0
 51
270.0
  0
ARC
  5
3F1A
330
1A
100
AcDbEntity
  8
ZUWAKU
100
AcDbCircle
 10
17.59221216833714
 20
22.72499986828868
 30
0.0
 40
0.5249999999999999
100
AcDbArc
 50
0.0
 51
90.0
  0
ARC
  5
3F1B
330
1A
100
AcDbEntity
  8
ZUWAKU
100
AcDbCircle
 10
17.59221216833714
 20
20.97499986828868
 30
0.0
 40
0.5249999999999999
100
AcDbArc
 50
270.0
 51
0.0
  0
LINE
  5
3F1C
330
1A
100
AcDbEntity
  8
ZUWAKU
100
AcDbLine
 10
14.09221216833714
 20
23.24999986828869
 30
0.0
 11
17.59221216833714
 21
23.24999986828869
 31
0.0
  0
ARC
  5
3F1D
330
1A
100
AcDbEntity
  8
ZUWAKU
100
AcDbCircle
 10
14.61721216833712
 20
19.92499986828869
 30
0.0
 40
0.5249999999999999
100
AcDbArc
 50
90.0
 51
180.0
  0
LINE
  5
3F1E
330
1A
100
AcDbEntity
  8
ZUWAKU
100
AcDbLine
 10
14.09221216833714
 20
19.92499986828869
 30
0.0
 11
14.09221216833714
 21
18.63479784293335
 31
0.0
  0
LINE
  5
3F1F
330
1A
100
AcDbEntity
  8
ZUWAKU
100
AcDbLine
 10
17.59221216833714
 20
20.44999986828869
 30
0.0
 11
14.61721216833712
 21
20.44999986828869
 31
0.0
  0
LINE
  5
3F20
330
1A
100
AcDbEntity
  8
ZUWAKU
100
AcDbLine
 10
11.29221216833719
 20
20.44999986828869
 30
0.0
 11
11.29221216833719
 21
18.63479784293335
 31
0.0
  0
ARC
  5
3F21
330
1A
100
AcDbEntity
  8
ZUWAKU
100
AcDbCircle
 10
14.09221216833714
 20
20.44999986828869
 30
0.0
 40
2.8
100
AcDbArc
 50
90.0
 51
180.0
  0
LINE
  5
3F22
330
1A
100
AcDbEntity
  8
ZUWAKU
100
AcDbLine
 10
18.11721216833712
 20
22.72499986828868
 30
0.0
 11
18.11721216833712
 21
20.97499986828868
 31
0.0
  0
ARC
  5
3F23
330
1A
100
AcDbEntity
  8
ZUWAKU
100
AcDbCircle
 10
24.94221216833716
 20
19.04999986828869
 30
0.0
 40
1.4
100
AcDbArc
 50
90.0
 51
180.0
  0
ARC
  5
3F24
330
1A
100
AcDbEntity
  8
ZUWAKU
100
AcDbCircle
 10
24.94221216833716
 20
19.04999986828864
 30
0.0
 40
4.199999999999999
100
AcDbArc
 50
90.0
 51
180.0
  0
LINE
  5
3F25
330
1A
100
AcDbEntity
  8
ZUWAKU
100
AcDbLine
 10
79.32662956154422
 20
29.99999986828868
 30
0.0
 11
79.32662956154445
 21
0.7999998682887508
 31
0.0
  0
LINE
  5
3F26
330
1A
100
AcDbEntity
  8
ZUWAKU
100
AcDbLine
 10
79.52662956154427
 20
29.99999986828868
 30
0.0
 11
79.5266295615445
 21
0.7999998682887508
 31
0.0
  0
LINE
  5
3F27
330
1A
100
AcDbEntity
  8
ZUWAKU
100
AcDbLine
 10
79.12662956154441
 20
29.99999986828868
 30
0.0
 11
79.12662956154441
 21
0.7999998682887508
 31
0.0
  0
LINE
  5
3F28
330
1A
100
AcDbEntity
  8
ZUWAKU
100
AcDbLine
 10
64.14221216833721
 20
9.949999868288685
 30
0.0
 11
64.14221216833721
 21
22.72499986828868
 31
0.0
  0
LINE
  5
3F29
330
1A
100
AcDbEntity
  8
ZUWAKU
100
AcDbLine
 10
61.34221216833714
 20
22.72499986828868
 30
0.0
 11
61.34221216833714
 21
10.99999986828868
 31
0.0
  0
LINE
  5
3F2A
330
1A
100
AcDbEntity
  8
ZUWAKU
100
AcDbLine
 10
69.04221216833719
 20
7.674999868288687
 30
0.0
 11
69.04221216833719
 21
22.72499986828868
 31
0.0
  0
LINE
  5
3F2B
330
1A
100
AcDbEntity
  8
ZUWAKU
100
AcDbLine
 10
66.24221216833712
 20
22.72499986828868
 30
0.0
 11
66.24221216833712
 21
7.674999868288687
 31
0.0
  0
ARC
  5
3F2C
330
1A
100
AcDbEntity
  8
ZUWAKU
100
AcDbCircle
 10
49.79221216833719
 20
18.63479784293339
 30
0.0
 40
1.4
100
AcDbArc
 50
180.0000000000016
 51
224.9999999999988
  0
ARC
  5
3F2D
330
1A
100
AcDbEntity
  8
ZUWAKU
100
AcDbCircle
 10
49.79221216833719
 20
18.63479784293339
 30
0.0
 40
4.199999999999999
100
AcDbArc
 50
180.0
 51
225.0
  0
LINE
  5
3F2E
330
1A
100
AcDbEntity
  8
ZUWAKU
100
AcDbLine
 10
37.31485865051513
 20
19.20504706185211
 30
0.0
 11
36.05010690517929
 21
15.19999986828871
 31
0.0
  0
LINE
  5
3F2F
330
1A
100
AcDbEntity
  8
ZUWAKU
100
AcDbLine
 10
40.69221216833716
 20
22.72499986828868
 30
0.0
 11
40.69221216833716
 21
7.674999868288687
 31
0.0
  0
LINE
  5
3F30
330
1A
100
AcDbEntity
  8
ZUWAKU
100
AcDbLine
 10
43.49221216833712
 20
7.674999868288687
 30
0.0
 11
43.49221216833712
 21
22.72499986828868
 31
0.0
  0
LINE
  5
3F31
330
1A
100
AcDbEntity
  8
ZUWAKU
100
AcDbLine
 10
55.04221216833719
 20
22.72499986828868
 30
0.0
 11
55.04221216833719
 21
9.949999868288685
 31
0.0
  0
LINE
  5
3F32
330
1A
100
AcDbEntity
  8
ZUWAKU
100
AcDbLine
 10
57.84221216833714
 20
10.99999986828868
 30
0.0
 11
57.84221216833714
 21
22.72499986828868
 31
0.0
  0
LINE
  5
3F33
330
1A
100
AcDbEntity
  8
ZUWAKU
100
AcDbLine
 10
32.64221216833721
 20
17.12499986828869
 30
0.0
 11
32.64221216833721
 21
22.72499986828868
 31
0.0
  0
LINE
  5
3F34
330
1A
100
AcDbEntity
  8
ZUWAKU
100
AcDbLine
 10
29.84221216833714
 20
22.72499986828868
 30
0.0
 11
29.84221216833714
 21
7.674999868288687
 31
0.0
  0
LINE
  5
3F35
330
1A
100
AcDbEntity
  8
ZUWAKU
100
AcDbLine
 10
35.67634710565301
 20
22.88309383645566
 30
0.0
 11
33.80807723102123
 21
16.96690590012172
 31
0.0
  0
LINE
  5
3F36
330
1A
100
AcDbEntity
  8
ZUWAKU
100
AcDbLine
 10
60.29221216833719
 20
9.949999868288685
 30
0.0
 11
58.89221216833721
 21
9.949999868288685
 31
0.0
  0
LINE
  5
3F37
330
1A
100
AcDbEntity
  8
ZUWAKU
100
AcDbLine
 10
57.84221216833714
 20
7.149999868288688
 30
0.0
 11
61.34221216833714
 21
7.149999868288688
 31
0.0
  0
LINE
  5
3F38
330
1A
100
AcDbEntity
  8
ZUWAKU
100
AcDbLine
 10
41.21721216833714
 20
7.149999868288688
 30
0.0
 11
42.96721216833714
 21
7.149999868288688
 31
0.0
  0
LINE
  5
3F39
330
1A
100
AcDbEntity
  8
ZUWAKU
100
AcDbLine
 10
35.67634710565301
 20
7.516905900121714
 30
0.0
 11
33.80807723102123
 21
13.43309383645565
 31
0.0
  0
ARC
  5
3F3A
330
1A
100
AcDbEntity
  8
ZUWAKU
100
AcDbCircle
 10
33.30744633182587
 20
17.12499986828869
 30
0.0
 40
0.5249999999999999
100
AcDbArc
 50
270.0
 51
342.474431626277
  0
LINE
  5
3F3B
330
1A
100
AcDbEntity
  8
ZUWAKU
100
AcDbLine
 10
33.30744633182587
 20
16.59999986828868
 30
0.0
 11
33.16721216833719
 21
16.59999986828868
 31
0.0
  0
LINE
  5
3F3C
330
1A
100
AcDbEntity
  8
ZUWAKU
100
AcDbLine
 10
33.16721216833719
 20
13.79999986828869
 30
0.0
 11
33.30744633182587
 21
13.79999986828869
 31
0.0
  0
ARC
  5
3F3D
330
1A
100
AcDbEntity
  8
ZUWAKU
100
AcDbCircle
 10
33.16721216833719
 20
17.12499986828869
 30
0.0
 40
0.5249999999999999
100
AcDbArc
 50
180.0
 51
270.0
  0
LINE
  5
3F3E
330
1A
100
AcDbEntity
  8
ZUWAKU
100
AcDbLine
 10
30.36721216833712
 20
7.149999868288688
 30
0.0
 11
32.11721216833712
 21
7.149999868288688
 31
0.0
  0
ARC
  5
3F3F
330
1A
100
AcDbEntity
  8
ZUWAKU
100
AcDbCircle
 10
32.11721216833712
 20
7.674999868288687
 30
0.0
 40
0.5249999999999999
100
AcDbArc
 50
270.0
 51
0.0
  0
LINE
  5
3F40
330
1A
100
AcDbEntity
  8
ZUWAKU
100
AcDbLine
 10
32.64221216833721
 20
7.674999868288687
 30
0.0
 11
32.64221216833721
 21
13.27499986828869
 31
0.0
  0
LINE
  5
3F41
330
1A
100
AcDbEntity
  8
ZUWAKU
100
AcDbLine
 10
27.39221216833721
 20
9.424999868288687
 30
0.0
 11
27.39221216833721
 21
7.674999868288687
 31
0.0
  0
ARC
  5
3F42
330
1A
100
AcDbEntity
  8
ZUWAKU
100
AcDbCircle
 10
26.86721216833712
 20
7.674999868288687
 30
0.0
 40
0.5249999999999999
100
AcDbArc
 50
270.0
 51
0.0
  0
ARC
  5
3F43
330
1A
100
AcDbEntity
  8
ZUWAKU
100
AcDbCircle
 10
26.86721216833712
 20
9.424999868288687
 30
0.0
 40
0.5249999999999999
100
AcDbArc
 50
0.0
 51
90.0
  0
ARC
  5
3F44
330
1A
100
AcDbEntity
  8
ZUWAKU
100
AcDbCircle
 10
30.36721216833712
 20
7.674999868288687
 30
0.0
 40
0.5249999999999999
100
AcDbArc
 50
180.0
 51
270.0
  0
ARC
  5
3F45
330
1A
100
AcDbEntity
  8
ZUWAKU
100
AcDbCircle
 10
33.30744633182587
 20
13.27499986828869
 30
0.0
 40
0.5249999999999999
100
AcDbArc
 50
17.52556837372303
 51
90.0
  0
ARC
  5
3F46
330
1A
100
AcDbEntity
  8
ZUWAKU
100
AcDbCircle
 10
33.16721216833719
 20
13.27499986828869
 30
0.0
 40
0.5249999999999999
100
AcDbArc
 50
90.0
 51
180.0
  0
ARC
  5
3F47
330
1A
100
AcDbEntity
  8
ZUWAKU
100
AcDbCircle
 10
41.21721216833714
 20
7.674999868288687
 30
0.0
 40
0.5249999999999999
100
AcDbArc
 50
180.0
 51
270.0
  0
LINE
  5
3F48
330
1A
100
AcDbEntity
  8
ZUWAKU
100
AcDbLine
 10
36.17697800484848
 20
7.149999868288688
 30
0.0
 11
37.87586738445748
 21
7.149999868288688
 31
0.0
  0
ARC
  5
3F49
330
1A
100
AcDbEntity
  8
ZUWAKU
100
AcDbCircle
 10
37.87586738445748
 20
7.674999868288687
 30
0.0
 40
0.5249999999999999
100
AcDbArc
 50
270.0
 51
17.52556837372303
  0
LINE
  5
3F4A
330
1A
100
AcDbEntity
  8
ZUWAKU
100
AcDbLine
 10
38.37649828365295
 20
7.83309383645566
 30
0.0
 11
36.05010690517929
 21
15.19999986828871
 31
0.0
  0
ARC
  5
3F4B
330
1A
100
AcDbEntity
  8
ZUWAKU
100
AcDbCircle
 10
36.17697800484848
 20
7.674999868288687
 30
0.0
 40
0.5249999999999999
100
AcDbArc
 50
197.525568373723
 51
270.0
  0
ARC
  5
3F4C
330
1A
100
AcDbEntity
  8
ZUWAKU
100
AcDbCircle
 10
57.84221216833714
 20
9.949999868288685
 30
0.0
 40
2.8
100
AcDbArc
 50
180.0
 51
270.0
  0
ARC
  5
3F4D
330
1A
100
AcDbEntity
  8
ZUWAKU
100
AcDbCircle
 10
50.14221216833721
 20
9.949999868288685
 30
0.0
 40
2.8
100
AcDbArc
 50
270.0
 51
0.0
  0
LINE
  5
3F4E
330
1A
100
AcDbEntity
  8
ZUWAKU
100
AcDbLine
 10
51.71206064932073
 20
14.73505037462751
 30
0.0
 11
48.80226267467594
 21
17.64484834927219
 31
0.0
  0
LINE
  5
3F4F
330
1A
100
AcDbEntity
  8
ZUWAKU
100
AcDbLine
 10
50.14221216833721
 20
10.47499986828869
 30
0.0
 11
50.14221216833721
 21
11.76520189364403
 31
0.0
  0
ARC
  5
3F50
330
1A
100
AcDbEntity
  8
ZUWAKU
100
AcDbCircle
 10
48.74221216833712
 20
11.76520189364403
 30
0.0
 40
1.4
100
AcDbArc
 50
0.0
 51
45.0
  0
ARC
  5
3F51
330
1A
100
AcDbEntity
  8
ZUWAKU
100
AcDbCircle
 10
49.61721216833712
 20
10.47499986828869
 30
0.0
 40
0.5249999999999999
100
AcDbArc
 50
270.0
 51
0.0
  0
LINE
  5
3F52
330
1A
100
AcDbEntity
  8
ZUWAKU
100
AcDbLine
 10
46.11721216833712
 20
7.674999868288687
 30
0.0
 11
46.11721216833712
 21
9.424999868288687
 31
0.0
  0
ARC
  5
3F53
330
1A
100
AcDbEntity
  8
ZUWAKU
100
AcDbCircle
 10
46.64221216833721
 20
7.674999868288687
 30
0.0
 40
0.5249999999999999
100
AcDbArc
 50
180.0
 51
270.0
  0
ARC
  5
3F54
330
1A
100
AcDbEntity
  8
ZUWAKU
100
AcDbCircle
 10
42.96721216833714
 20
7.674999868288687
 30
0.0
 40
0.5249999999999999
100
AcDbArc
 50
270.0
 51
0.0
  0
ARC
  5
3F55
330
1A
100
AcDbEntity
  8
ZUWAKU
100
AcDbCircle
 10
46.64221216833721
 20
9.424999868288687
 30
0.0
 40
0.5249999999999999
100
AcDbArc
 50
90.0
 51
180.0
  0
LINE
  5
3F56
330
1A
100
AcDbEntity
  8
ZUWAKU
100
AcDbLine
 10
46.64221216833721
 20
9.949999868288685
 30
0.0
 11
49.61721216833712
 21
9.949999868288685
 31
0.0
  0
LINE
  5
3F57
330
1A
100
AcDbEntity
  8
ZUWAKU
100
AcDbLine
 10
46.64221216833721
 20
7.149999868288688
 30
0.0
 11
50.14221216833721
 21
7.149999868288688
 31
0.0
  0
LINE
  5
3F58
330
1A
100
AcDbEntity
  8
ZUWAKU
100
AcDbLine
 10
46.82236368735369
 20
15.66494936194987
 30
0.0
 11
49.73216166199836
 21
12.7551513873052
 31
0.0
  0
LINE
  5
3F59
330
1A
100
AcDbEntity
  8
ZUWAKU
100
AcDbLine
 10
52.94221216833716
 20
9.949999868288685
 30
0.0
 11
52.94221216833716
 21
11.76520189364403
 31
0.0
  0
ARC
  5
3F5A
330
1A
100
AcDbEntity
  8
ZUWAKU
100
AcDbCircle
 10
48.74221216833712
 20
11.76520189364399
 30
0.0
 40
4.199999999999999
100
AcDbArc
 50
0.0
 51
45.0
  0
ARC
  5
3F5B
330
1A
100
AcDbEntity
  8
ZUWAKU
100
AcDbCircle
 10
58.89221216833721
 20
10.99999986828868
 30
0.0
 40
1.05
100
AcDbArc
 50
180.0
 51
270.0
  0
ARC
  5
3F5C
330
1A
100
AcDbEntity
  8
ZUWAKU
100
AcDbCircle
 10
61.34221216833714
 20
9.949999868288685
 30
0.0
 40
2.8
100
AcDbArc
 50
270.0
 51
0.0
  0
LINE
  5
3F5D
330
1A
100
AcDbEntity
  8
ZUWAKU
100
AcDbLine
 10
66.76721216833721
 20
7.149999868288688
 30
0.0
 11
68.51721216833721
 21
7.149999868288688
 31
0.0
  0
ARC
  5
3F5E
330
1A
100
AcDbEntity
  8
ZUWAKU
100
AcDbCircle
 10
66.76721216833721
 20
7.674999868288687
 30
0.0
 40
0.5249999999999999
100
AcDbArc
 50
180.0
 51
270.0
  0
ARC
  5
3F5F
330
1A
100
AcDbEntity
  8
ZUWAKU
100
AcDbCircle
 10
60.29221216833719
 20
10.99999986828868
 30
0.0
 40
1.05
100
AcDbArc
 50
270.0
 51
0.0
  0
ARC
  5
3F60
330
1A
100
AcDbEntity
  8
ZUWAKU
100
AcDbCircle
 10
68.51721216833721
 20
7.674999868288687
 30
0.0
 40
0.5249999999999999
100
AcDbArc
 50
270.0
 51
0.0
  0
LINE
  5
3F61
330
1A
100
AcDbEntity
  8
ZUWAKU
100
AcDbLine
 10
42.96721216833714
 20
23.24999986828869
 30
0.0
 11
41.21721216833714
 21
23.24999986828869
 31
0.0
  0
ARC
  5
3F62
330
1A
100
AcDbEntity
  8
ZUWAKU
100
AcDbCircle
 10
32.11721216833712
 20
22.72499986828868
 30
0.0
 40
0.5249999999999999
100
AcDbArc
 50
0.0
 51
90.0
  0
LINE
  5
3F63
330
1A
100
AcDbEntity
  8
ZUWAKU
100
AcDbLine
 10
32.11721216833712
 20
23.24999986828869
 30
0.0
 11
30.36721216833712
 21
23.24999986828869
 31
0.0
  0
ARC
  5
3F64
330
1A
100
AcDbEntity
  8
ZUWAKU
100
AcDbCircle
 10
26.86721216833712
 20
22.72499986828868
 30
0.0
 40
0.5249999999999999
100
AcDbArc
 50
0.0
 51
90.0
  0
ARC
  5
3F65
330
1A
100
AcDbEntity
  8
ZUWAKU
100
AcDbCircle
 10
30.36721216833712
 20
22.72499986828868
 30
0.0
 40
0.5249999999999999
100
AcDbArc
 50
90.0
 51
180.0
  0
ARC
  5
3F66
330
1A
100
AcDbEntity
  8
ZUWAKU
100
AcDbCircle
 10
26.86721216833712
 20
20.97499986828868
 30
0.0
 40
0.5249999999999999
100
AcDbArc
 50
270.0
 51
0.0
  0
LINE
  5
3F67
330
1A
100
AcDbEntity
  8
ZUWAKU
100
AcDbLine
 10
27.39221216833721
 20
22.72499986828868
 30
0.0
 11
27.39221216833721
 21
20.97499986828868
 31
0.0
  0
ARC
  5
3F68
330
1A
100
AcDbEntity
  8
ZUWAKU
100
AcDbCircle
 10
41.21721216833714
 20
22.72499986828868
 30
0.0
 40
0.5249999999999999
100
AcDbArc
 50
90.0
 51
180.0
  0
LINE
  5
3F69
330
1A
100
AcDbEntity
  8
ZUWAKU
100
AcDbLine
 10
36.17697800484848
 20
23.24999986828869
 30
0.0
 11
37.87586738445748
 21
23.24999986828869
 31
0.0
  0
ARC
  5
3F6A
330
1A
100
AcDbEntity
  8
ZUWAKU
100
AcDbCircle
 10
37.87586738445748
 20
22.72499986828868
 30
0.0
 40
0.5249999999999999
100
AcDbArc
 50
342.474431626277
 51
90.0
  0
LINE
  5
3F6B
330
1A
100
AcDbEntity
  8
ZUWAKU
100
AcDbLine
 10
38.37649828365295
 20
22.56690590012172
 30
0.0
 11
37.31485865051513
 21
19.20504706185211
 31
0.0
  0
ARC
  5
3F6C
330
1A
100
AcDbEntity
  8
ZUWAKU
100
AcDbCircle
 10
36.17697800484848
 20
22.72499986828868
 30
0.0
 40
0.5249999999999999
100
AcDbArc
 50
90.0
 51
162.474431626277
  0
LINE
  5
3F6D
330
1A
100
AcDbEntity
  8
ZUWAKU
100
AcDbLine
 10
48.39221216833721
 20
23.24999986828869
 30
0.0
 11
51.89221216833721
 21
23.24999986828869
 31
0.0
  0
LINE
  5
3F6E
330
1A
100
AcDbEntity
  8
ZUWAKU
100
AcDbLine
 10
51.89221216833721
 20
20.44999986828869
 30
0.0
 11
48.91721216833719
 21
20.44999986828869
 31
0.0
  0
ARC
  5
3F6F
330
1A
100
AcDbEntity
  8
ZUWAKU
100
AcDbCircle
 10
48.91721216833719
 20
19.92499986828869
 30
0.0
 40
0.5249999999999999
100
AcDbArc
 50
90.0
 51
180.0
  0
LINE
  5
3F70
330
1A
100
AcDbEntity
  8
ZUWAKU
100
AcDbLine
 10
48.39221216833721
 20
19.92499986828869
 30
0.0
 11
48.39221216833721
 21
18.63479784293335
 31
0.0
  0
ARC
  5
3F71
330
1A
100
AcDbEntity
  8
ZUWAKU
100
AcDbCircle
 10
42.96721216833714
 20
22.72499986828868
 30
0.0
 40
0.5249999999999999
100
AcDbArc
 50
0.0
 51
90.0
  0
LINE
  5
3F72
330
1A
100
AcDbEntity
  8
ZUWAKU
100
AcDbLine
 10
45.59221216833714
 20
20.44999986828869
 30
0.0
 11
45.59221216833714
 21
18.63479784293335
 31
0.0
  0
ARC
  5
3F73
330
1A
100
AcDbEntity
  8
ZUWAKU
100
AcDbCircle
 10
48.39221216833721
 20
20.44999986828869
 30
0.0
 40
2.8
100
AcDbArc
 50
90.0
 51
180.0
  0
ARC
  5
3F74
330
1A
100
AcDbEntity
  8
ZUWAKU
100
AcDbCircle
 10
57.31721216833716
 20
22.72499986828868
 30
0.0
 40
0.5249999999999999
100
AcDbArc
 50
0.0
 51
90.0
  0
ARC
  5
3F75
330
1A
100
AcDbEntity
  8
ZUWAKU
100
AcDbCircle
 10
55.56721216833716
 20
22.72499986828868
 30
0.0
 40
0.5249999999999999
100
AcDbArc
 50
90.0
 51
180.0
  0
LINE
  5
3F76
330
1A
100
AcDbEntity
  8
ZUWAKU
100
AcDbLine
 10
57.31721216833716
 20
23.24999986828869
 30
0.0
 11
55.56721216833716
 21
23.24999986828869
 31
0.0
  0
ARC
  5
3F77
330
1A
100
AcDbEntity
  8
ZUWAKU
100
AcDbCircle
 10
51.89221216833721
 20
22.72499986828868
 30
0.0
 40
0.5249999999999999
100
AcDbArc
 50
0.0
 51
90.0
  0
ARC
  5
3F78
330
1A
100
AcDbEntity
  8
ZUWAKU
100
AcDbCircle
 10
51.89221216833721
 20
20.97499986828868
 30
0.0
 40
0.5249999999999999
100
AcDbArc
 50
270.0
 51
0.0
  0
LINE
  5
3F79
330
1A
100
AcDbEntity
  8
ZUWAKU
100
AcDbLine
 10
52.41721216833719
 20
22.72499986828868
 30
0.0
 11
52.41721216833719
 21
20.97499986828868
 31
0.0
  0
LINE
  5
3F7A
330
1A
100
AcDbEntity
  8
ZUWAKU
100
AcDbLine
 10
68.51721216833721
 20
23.24999986828869
 30
0.0
 11
66.76721216833721
 21
23.24999986828869
 31
0.0
  0
ARC
  5
3F7B
330
1A
100
AcDbEntity
  8
ZUWAKU
100
AcDbCircle
 10
66.76721216833721
 20
22.72499986828868
 30
0.0
 40
0.5249999999999999
100
AcDbArc
 50
90.0
 51
180.0
  0
ARC
  5
3F7C
330
1A
100
AcDbEntity
  8
ZUWAKU
100
AcDbCircle
 10
63.61721216833712
 20
22.72499986828868
 30
0.0
 40
0.5249999999999999
100
AcDbArc
 50
0.0
 51
90.0
  0
LINE
  5
3F7D
330
1A
100
AcDbEntity
  8
ZUWAKU
100
AcDbLine
 10
63.61721216833712
 20
23.24999986828869
 30
0.0
 11
61.86721216833712
 21
23.24999986828869
 31
0.0
  0
ARC
  5
3F7E
330
1A
100
AcDbEntity
  8
ZUWAKU
100
AcDbCircle
 10
61.86721216833712
 20
22.72499986828868
 30
0.0
 40
0.5249999999999999
100
AcDbArc
 50
90.0
 51
180.0
  0
ARC
  5
3F7F
330
1A
100
AcDbEntity
  8
ZUWAKU
100
AcDbCircle
 10
68.51721216833721
 20
22.72499986828868
 30
0.0
 40
0.5249999999999999
100
AcDbArc
 50
0.0
 51
90.0
  0
TEXT
  5
3F80
330
1A
100
AcDbEntity
  8
moji
100
AcDbText
 10
239.8272026944071
 20
18.00492092569607
 30
0.0
 40
5.6
  1
ステンレス金具横打瓦下（受）
 41
0.9
  7
ｽﾀｲﾙ1
100
AcDbText
  0
TEXT
  5
3F81
330
1A
100
AcDbEntity
  8
moji
100
AcDbText
 10
239.8272026944071
 20
3.204920925696104
 30
0.0
 40
5.6
  1
Σ９０－Ｌ２２０
 41
0.9
  7
ｽﾀｲﾙ1
100
AcDbText
  0
LINE
  5
3F82
330
1A
100
AcDbEntity
  8
ZUWAKU
100
AcDbLine
 10
208.246601303624
 20
29.99999986828868
 30
0.0
 11
208.246601303624
 21
0.7999998682887508
 31
0.0
  0
LINE
  5
3F83
330
1A
100
AcDbEntity
  8
ZUWAKU
100
AcDbLine
 10
208.6466013036238
 20
29.99999986828868
 30
0.0
 11
208.646601303624
 21
0.7999998682887508
 31
0.0
  0
LINE
  5
3F84
330
1A
100
AcDbEntity
  8
ZUWAKU
100
AcDbLine
 10
208.4466013036238
 20
29.99999986828868
 30
0.0
 11
208.446601303624
 21
0.7999998682887508
 31
0.0
  0
TEXT
  5
3F85
330
1A
100
AcDbEntity
  8
ZUWAKU
100
AcDbText
 10
209.7240463258336
 20
9.655356406674301
 30
0.0
 40
4.0
  1
サイズ
 41
0.9
  7
ｽﾀｲﾙ1
100
AcDbText
  0
TEXT
  5
3F86
330
1A
100
AcDbEntity
  8
ZUWAKU
100
AcDbText
 10
209.7240463258333
 20
24.05535640667426
 30
0.0
 40
4.0
  1
品名
 41
0.9
  7
ｽﾀｲﾙ1
100
AcDbText
  0
LINE
  5
3F87
330
1A
100
AcDbEntity
  8
ZUWAKU
100
AcDbLine
 10
648.8172025237602
 20
15.19999986828871
 30
0.0
 11
697.2490105620973
 21
15.19999986828872
 31
0.0
  0
LINE
  5
3F88
330
1A
100
AcDbEntity
  8
ZUWAKU
100
AcDbLine
 10
648.8172025237604
 20
15.39999986828872
 30
0.0
 11
697.2490105620973
 21
15.39999986828872
 31
0.0
  0
LINE
  5
3F89
330
1A
100
AcDbEntity
  8
ZUWAKU
100
AcDbLine
 10
648.8172025237602
 20
15.59999986828872
 30
0.0
 11
697.2490105620973
 21
15.59999986828872
 31
0.0
  0
TEXT
  5
3F8A
330
1A
100
AcDbEntity
  8
ZUWAKU
100
AcDbText
 10
658.2039377008584
 20
18.00492092569607
 30
0.0
 40
5.6
  1
　　．　　．　　
 41
0.9
  7
ｽﾀｲﾙ1
100
AcDbText
  0
LINE
  5
3F8B
330
1A
100
AcDbEntity
  8
ZUWAKU
100
AcDbLine
 10
505.1991795116969
 20
15.19999986828872
 30
0.0
 11
552.5269557796685
 21
15.19999986828872
 31
0.0
  0
LINE
  5
3F8C
330
1A
100
AcDbEntity
  8
ZUWAKU
100
AcDbLine
 10
505.1991795116969
 20
15.39999986828872
 30
0.0
 11
552.5269557796685
 21
15.39999986828872
 31
0.0
  0
LINE
  5
3F8D
330
1A
100
AcDbEntity
  8
ZUWAKU
100
AcDbLine
 10
505.1991795116969
 20
15.59999986828872
 30
0.0
 11
552.5269557796685
 21
15.59999986828872
 31
0.0
  0
TEXT
  5
3F8E
330
1A
100
AcDbEntity
  8
moji
100
AcDbText
 10
463.2464320045581
 20
11.94261758994867
 30
0.0
 40
5.6
  1
ＬＪ８６□
 41
0.9
  7
ｽﾀｲﾙ1
100
AcDbText
  0
LINE
  5
3F8F
330
1A
100
AcDbEntity
  8
ZUWAKU
100
AcDbLine
 10
447.6243639845472
 20
29.99999986828868
 30
0.0
 11
447.6243639845475
 21
0.7999998682887508
 31
0.0
  0
LINE
  5
3F90
330
1A
100
AcDbEntity
  8
ZUWAKU
100
AcDbLine
 10
447.8243639845473
 20
29.99999986828868
 30
0.0
 11
447.8243639845475
 21
0.7999998682887508
 31
0.0
  0
LINE
  5
3F91
330
1A
100
AcDbEntity
  8
ZUWAKU
100
AcDbLine
 10
447.4243639845474
 20
29.99999986828868
 30
0.0
 11
447.4243639845474
 21
0.7999998682887508
 31
0.0
  0
TEXT
  5
3F92
330
1A
100
AcDbEntity
  8
moji
100
AcDbText
 10
528.0409079858689
 20
18.00492092569607
 30
0.0
 40
5.6
  1
Ａ３
 41
0.9
  7
ｽﾀｲﾙ1
100
AcDbText
  0
LINE
  5
3F93
330
1A
100
AcDbEntity
  8
ZUWAKU
100
AcDbLine
 10
504.9991795116969
 20
29.99999986828868
 30
0.0
 11
504.9991795116971
 21
0.7999998682887508
 31
0.0
  0
LINE
  5
3F94
330
1A
100
AcDbEntity
  8
ZUWAKU
100
AcDbLine
 10
505.1991795116969
 20
29.99999986828868
 30
0.0
 11
505.1991795116971
 21
0.7999998682887508
 31
0.0
  0
LINE
  5
3F95
330
1A
100
AcDbEntity
  8
ZUWAKU
100
AcDbLine
 10
504.7991795116971
 20
29.99999986828868
 30
0.0
 11
504.7991795116971
 21
0.7999998682887508
 31
0.0
  0
TEXT
  5
3F97
330
1A
100
AcDbEntity
  8
ZUWAKU
100
AcDbText
 10
506.6766245339068
 20
9.655356406674301
 30
0.0
 40
4.0
  1
縮尺
 41
0.9
  7
ｽﾀｲﾙ1
100
AcDbText
  0
TEXT
  5
3F98
330
1A
100
AcDbEntity
  8
moji
100
AcDbText
 10
528.0409079858689
 20
3.204920925696104
 30
0.0
 40
5.6
  1
１/２
 41
0.9
  7
ｽﾀｲﾙ1
100
AcDbText
  0
TEXT
  5
3F99
330
1A
100
AcDbEntity
  8
ZUWAKU
100
AcDbText
 10
449.3018090067569
 20
24.05535640667426
 30
0.0
 40
4.0
  1
品番
 41
0.9
  7
ｽﾀｲﾙ1
100
AcDbText
  0
TEXT
  5
3F9A
330
1A
100
AcDbEntity
  8
ZUWAKU
100
AcDbText
 10
506.6766245339065
 20
24.05535640667426
 30
0.0
 40
4.0
  1
用紙
 41
0.9
  7
ｽﾀｲﾙ1
100
AcDbText
  0
LINE
  5
3F9B
330
1A
100
AcDbEntity
  8
ZUWAKU
100
AcDbLine
 10
648.6172025237604
 20
29.99999986828868
 30
0.0
 11
648.6172025237606
 21
0.7999998682887508
 31
0.0
  0
LINE
  5
3F9C
330
1A
100
AcDbEntity
  8
ZUWAKU
100
AcDbLine
 10
648.8172025237604
 20
29.99999986828868
 30
0.0
 11
648.8172025237607
 21
0.7999998682887508
 31
0.0
  0
LINE
  5
3F9D
330
1A
100
AcDbEntity
  8
ZUWAKU
100
AcDbLine
 10
648.4172025237606
 20
29.99999986828868
 30
0.0
 11
648.4172025237606
 21
0.7999998682887508
 31
0.0
  0
LINE
  5
3F9E
330
1A
100
AcDbEntity
  8
ZUWAKU
100
AcDbLine
 10
552.7269557796683
 20
29.99999986828868
 30
0.0
 11
552.7269557796685
 21
0.7999998682887508
 31
0.0
  0
LINE
  5
3F9F
330
1A
100
AcDbEntity
  8
ZUWAKU
100
AcDbLine
 10
552.9269557796683
 20
29.99999986828868
 30
0.0
 11
552.9269557796686
 21
0.7999998682887508
 31
0.0
  0
LINE
  5
3FA0
330
1A
100
AcDbEntity
  8
ZUWAKU
100
AcDbLine
 10
552.5269557796685
 20
29.99999986828868
 30
0.0
 11
552.5269557796685
 21
0.7999998682887508
 31
0.0
  0
TEXT
  5
3FA1
330
1A
100
AcDbEntity
  8
ZUWAKU
100
AcDbText
 10
650.2946475459701
 20
24.05535640667426
 30
0.0
 40
4.0
  1
DATE
 41
0.9
  7
ｽﾀｲﾙ1
100
AcDbText
  0
LINE
  5
3FA2
330
1A
100
AcDbEntity
  8
ZUWAKU
100
AcDbLine
 10
697.2490105620973
 20
29.99999986828868
 30
0.0
 11
697.2490105620973
 21
0.7999998682887508
 31
0.0
  0
LINE
  5
3FA3
330
1A
100
AcDbEntity
  8
ZUWAKU
100
AcDbLine
 10
697.4490105620973
 20
29.99999986828868
 30
0.0
 11
697.4490105620973
 21
0.7999998682887508
 31
0.0
  0
LINE
  5
3FA4
330
1A
100
AcDbEntity
  8
ZUWAKU
100
AcDbLine
 10
697.6490105620972
 20
29.99999986828868
 30
0.0
 11
697.6490105620974
 21
0.7999998682887508
 31
0.0
  0
LINE
  5
3FA5
330
1A
100
AcDbEntity
  8
ZUWAKU
100
AcDbLine
 10
697.8490105620972
 20
29.99999986828868
 30
0.0
 11
697.8490105620974
 21
0.7999998682887508
 31
0.0
  0
TEXT
  5
3FA6
330
1A
100
AcDbEntity
  8
ZUWAKU
100
AcDbText
 10
708.5280842057998
 20
17.55383920397549
 30
0.0
 40
6.0
  1
積水化学工業株式会社
 41
0.9
  7
ｽﾀｲﾙ1
100
AcDbText
  0
TEXT
  5
3FA7
330
1A
100
AcDbEntity
  8
ZUWAKU
100
AcDbText
 10
708.5280842057998
 20
6.648840182142749
 30
0.0
 40
6.0
  1
建材事業部
 41
0.9
  7
ｽﾀｲﾙ1
100
AcDbText
  0
LINE
  5
6D61
330
1A
100
AcDbEntity
  8
SUNPOU
100
AcDbLine
 10
738.8147409356503
 20
41.01742645184447
 30
0.0
 11
738.8147784356504
 21
108.5174714518444
 31
0.0
  0
LINE
  5
6D62
330
1A
100
AcDbEntity
  8
SUNPOU
100
AcDbLine
 10
783.8147109356503
 20
119.7674714518444
 30
0.0
 11
783.8147859356504
 21
41.01742645184447
 31
0.0
  0
LINE
  5
6D63
330
1A
100
AcDbEntity
  8
SUNPOU
100
AcDbLine
 10
693.5467226695478
 20
119.7674714518444
 30
0.0
 11
693.5467151695477
 21
41.01742645184447
 31
0.0
  0
LINE
  5
6D64
330
1A
100
AcDbEntity
  8
SUNPOU
100
AcDbLine
 10
693.5467226695478
 20
41.01742645184447
 30
0.0
 11
783.8147859356504
 21
41.01742645184447
 31
0.0
  0
LINE
  5
6D65
330
1A
100
AcDbEntity
  8
SUNPOU
100
AcDbLine
 10
693.5467226695478
 20
52.26742645184447
 30
0.0
 11
783.8147859356504
 21
52.26742645184447
 31
0.0
  0
LINE
  5
6D66
330
1A
100
AcDbEntity
  8
SUNPOU
100
AcDbLine
 10
693.5467226695478
 20
63.51742645184447
 30
0.0
 11
783.8147859356504
 21
63.51742645184447
 31
0.0
  0
LINE
  5
6D67
330
1A
100
AcDbEntity
  8
SUNPOU
100
AcDbLine
 10
693.5467226695478
 20
74.76742645184447
 30
0.0
 11
783.8147859356504
 21
74.76742645184447
 31
0.0
  0
LINE
  5
6D68
330
1A
100
AcDbEntity
  8
SUNPOU
100
AcDbLine
 10
693.5467226695478
 20
86.01742645184447
 30
0.0
 11
783.8147859356504
 21
86.01742645184447
 31
0.0
  0
LINE
  5
6D69
330
1A
100
AcDbEntity
  8
SUNPOU
100
AcDbLine
 10
693.5467226695478
 20
97.26747145184444
 30
0.0
 11
783.8147859356504
 21
97.26747145184444
 31
0.0
  0
TEXT
  5
6D6A
330
1A
100
AcDbEntity
  8
SUNPOU
100
AcDbText
 10
707.877200540555
 20
43.82991895184441
 30
0.0
 40
5.6
  1
＃１
 41
0.984421610871727
  7
ｽﾀｲﾙ1
 72
     5
 11
721.377200540555
 21
43.82991895184441
 31
0.0
100
AcDbText
  0
TEXT
  5
6D6B
330
1A
100
AcDbEntity
  8
SUNPOU
100
AcDbText
 10
707.8771941119829
 20
55.07991895184441
 30
0.0
 40
5.6
  1
＃２
 41
0.984421610871727
  7
ｽﾀｲﾙ1
 72
     5
 11
721.3771941119829
 21
55.07991895184441
 31
0.0
100
AcDbText
  0
TEXT
  5
6D6C
330
1A
100
AcDbEntity
  8
SUNPOU
100
AcDbText
 10
707.8771908976947
 20
66.32991895184441
 30
0.0
 40
5.6
  1
＃３
 41
0.984421610871727
  7
ｽﾀｲﾙ1
 72
     5
 11
721.3771908976947
 21
66.32991895184441
 31
0.0
100
AcDbText
  0
TEXT
  5
6D6D
330
1A
100
AcDbEntity
  8
SUNPOU
100
AcDbText
 10
707.8771941119829
 20
77.57991895184441
 30
0.0
 40
5.6
  1
＃４
 41
0.984421610871727
  7
ｽﾀｲﾙ1
 72
     5
 11
721.3771941119829
 21
77.57991895184441
 31
0.0
100
AcDbText
  0
TEXT
  5
6D6E
330
1A
100
AcDbEntity
  8
SUNPOU
100
AcDbText
 10
707.877155540555
 20
100.0799639518445
 30
0.0
 40
5.6
  1
呼び
 41
0.8451906659077973
  7
ｽﾀｲﾙ1
 72
     5
 11
721.377155540555
 21
100.0799639518445
 31
0.0
100
AcDbText
  0
TEXT
  5
6D6F
330
1A
100
AcDbEntity
  8
SUNPOU
100
AcDbText
 10
707.8771908976947
 20
88.82991895184441
 30
0.0
 40
5.6
  1
＃５
 41
0.984421610871727
  7
ｽﾀｲﾙ1
 72
     5
 11
721.3771908976947
 21
88.82991895184441
 31
0.0
100
AcDbText
  0
TEXT
  5
6D70
330
1A
100
AcDbEntity
  8
SUNPOU
100
AcDbText
 10
752.8772109356503
 20
43.82994145184443
 30
0.0
 40
5.6
  1
41
 41
1.657366071428586
  7
ｽﾀｲﾙ1
 72
     5
 11
766.3772109356504
 21
43.82994145184443
 31
0.0
100
AcDbText
  0
TEXT
  5
6D71
330
1A
100
AcDbEntity
  8
SUNPOU
100
AcDbText
 10
752.8771359356502
 20
55.07985145184441
 30
0.0
 40
5.6
  1
36
 41
1.657366071428572
  7
ｽﾀｲﾙ1
 72
     5
 11
766.3771359356502
 21
55.07985145184441
 31
0.0
100
AcDbText
  0
TEXT
  5
6D72
330
1A
100
AcDbEntity
  8
SUNPOU
100
AcDbText
 10
752.8771359356502
 20
66.32985145184441
 30
0.0
 40
5.6
  1
31
 41
1.657366071428572
  7
ｽﾀｲﾙ1
 72
     5
 11
766.3771359356502
 21
66.32985145184441
 31
0.0
100
AcDbText
  0
TEXT
  5
6D73
330
1A
100
AcDbEntity
  8
SUNPOU
100
AcDbText
 10
752.8772109356503
 20
77.57985145184441
 30
0.0
 40
5.6
  1
26
 41
1.657366071428586
  7
ｽﾀｲﾙ1
 72
     5
 11
766.3772109356504
 21
77.57985145184441
 31
0.0
100
AcDbText
  0
TEXT
  5
6D74
330
1A
100
AcDbEntity
  8
SUNPOU
100
AcDbText
 10
752.8772109356503
 20
88.82985895184447
 30
0.0
 40
5.6
  1
21
 41
1.657366071428586
  7
ｽﾀｲﾙ1
 72
     5
 11
766.3772109356504
 21
88.82985895184447
 31
0.0
100
AcDbText
  0
TEXT
  5
6D75
330
1A
100
AcDbEntity
  8
SUNPOU
100
AcDbText
 10
752.8772130785104
 20
100.0798964518445
 30
0.0
 40
5.6
  1
寸法
 41
0.8286830357142928
  7
ｽﾀｲﾙ1
 72
     5
 11
766.3772130785105
 21
100.0798964518445
 31
0.0
100
AcDbText
  0
TEXT
  5
6D76
330
1A
100
AcDbEntity
  8
SUNPOU
100
AcDbText
 10
723.5262182302104
 20
111.2896896802198
 30
0.0
 40
5.6
  1
Ｈ　寸　法
 41
0.9
  7
ｽﾀｲﾙ1
 72
     4
 11
738.5459909574831
 21
114.1374169529471
 31
0.0
100
AcDbText
  0
LINE
  5
6D77
330
1A
100
AcDbEntity
  8
SUNPOU
100
AcDbLine
 10
693.5467226695478
 20
108.5174714518444
 30
0.0
 11
783.8147859356504
 21
108.5174714518444
 31
0.0
  0
LINE
  5
6D78
330
1A
100
AcDbEntity
  8
SUNPOU
100
AcDbLine
 10
693.5467226695478
 20
119.7674714518444
 30
0.0
 11
783.8147109356503
 21
119.7674714518444
 31
0.0
  0
TEXT
  5
6DB4
330
1A
100
AcDbEntity
  8
ZUWAKU
100
AcDbText
 10
462.1716760137121
 20
2.614070779428175
 30
0.0
 40
3.0
  1
□には色品番が入ります
 41
0.9
  7
ｽﾀｲﾙ1
100
AcDbText
  0
ARC
  5
6FBD
330
1A
100
AcDbEntity
  8
SEIHIN
  6
Continuous
 62
     3
 48
16.0
100
AcDbCircle
 10
385.7359276821621
 20
179.263600218653
 30
0.0
 40
18.0000000001389
100
AcDbArc
 50
180.0
 51
359.9996816901135
  0
ARC
  5
6FBE
330
1A
100
AcDbEntity
  8
SEIHIN
  6
Continuous
 62
     3
 48
16.0
100
AcDbCircle
 10
385.7359276821394
 20
179.263600218653
 30
0.0
 40
21.50000000011627
100
AcDbArc
 50
180.0
 51
359.9997335080027
  0
DIMENSION
  5
6FBF
330
1A
100
AcDbEntity
  8
SUNPOU
100
AcDbDimension
  2
*D1
 10
378.0634922883382
 20
190.5636002147582
 30
0.0
 11
373.0634922883382
 21
221.9843261667056
 31
0.0
 70
    32
 71
     5
 42
-1.0
  3
STANDARD
100
AcDbAlignedDimension
 13
402.4020316820233
 23
253.405052118653
 33
0.0
 14
400.2813547820233
 24
190.5636002147582
 34
0.0
 50
90.0
100
AcDbRotatedDimension
1001
ACAD
1000
DSTYLE
1002
{
1070
    41
1040
6.0
1070
    42
1040
6.0
1070
    43
1040
14.0
1070
    44
1040
3.0
1070
    73
1070
     0
1070
    74
1070
     0
1070
    77
1070
     3
1070
   140
1040
6.0
1070
   141
1040
10.0
1070
   147
1040
2.0
1070
   172
1070
     1
1070
   173
1070
     1
1070
   176
1070
   256
1070
   177
1070
   256
1070
   178
1070
   256
1070
   271
1070
     0
1070
   272
1070
     0
1070
   341
1005
6D
1070
     6
1000
OPEN
1070
     7
1000
OPEN
1002
}
  0
DIMENSION
  5
6FC0
330
1A
100
AcDbEntity
  8
SUNPOU
100
AcDbDimension
  2
*D2
 10
410.4949248820233
 20
364.863508728329
 30
0.0
 11
341.1150045820233
 21
369.863508728329
 31
0.0
 70
    32
 71
     5
 42
-1.0
  3
STANDARD
100
AcDbAlignedDimension
 13
271.7350842820233
 23
304.946302418653
 33
0.0
 14
410.4949248820233
 24
252.105052118653
 34
0.0
100
AcDbRotatedDimension
1001
ACAD
1000
DSTYLE
1002
{
1070
    41
1040
6.0
1070
    42
1040
6.0
1070
    43
1040
14.0
1070
    44
1040
3.0
1070
    73
1070
     0
1070
    74
1070
     0
1070
    77
1070
     3
1070
   140
1040
6.0
1070
   141
1040
10.0
1070
   147
1040
2.0
1070
   172
1070
     1
1070
   173
1070
     1
1070
   176
1070
   256
1070
   177
1070
   256
1070
   178
1070
   256
1070
   271
1070
     0
1070
   272
1070
     0
1070
   341
1005
6D
1070
     6
1000
OPEN
1070
     7
1000
OPEN
1002
}
  0
LINE
  5
6FC1
330
1A
100
AcDbEntity
  8
SEIHIN
100
AcDbLine
 10
362.4172093613831
 20
414.6549298483345
 30
0.0
 11
395.9505125176617
 21
414.6549298483345
 31
0.0
  0
LINE
  5
6FC2
330
1A
100
AcDbEntity
  8
SEIHIN
100
AcDbLine
 10
362.4171943006526
 20
418.8317136660249
 30
0.0
 11
395.9588666660097
 21
418.8317136660249
 31
0.0
  0
LINE
  5
6FC3
330
1A
100
AcDbEntity
  8
SEIHIN
100
AcDbLine
 10
295.1115684353936
 20
408.8317890635252
 30
0.0
 11
395.7056773834191
 21
408.8317890635252
 31
0.0
  0
LINE
  5
6FC4
330
1A
100
AcDbEntity
  8
SEIHIN
100
AcDbLine
 10
295.1115684353936
 20
424.6548544508343
 30
0.0
 11
395.7373848611765
 21
424.6548544508343
 31
0.0
  0
LINE
  5
6FC5
330
1A
100
AcDbEntity
  8
SEIHIN
100
AcDbLine
 10
272.2350842820233
 20
404.2432840571798
 30
0.0
 11
410.4949248820233
 21
404.2432840571797
 31
0.0
  0
LINE
  5
6FC6
330
1A
100
AcDbEntity
  8
CENTER L
100
AcDbLine
 10
580.7273511251193
 20
416.7433217571799
 30
0.0
 11
264.7350842820234
 21
416.7433217571797
 31
0.0
  0
LINE
  5
6FC7
330
1A
100
AcDbEntity
  8
SEIHIN
100
AcDbLine
 10
272.2350842820233
 20
429.2433594571797
 30
0.0
 11
410.4949248820233
 21
429.2433594571797
 31
0.0
  0
LINE
  5
6FC8
330
1A
100
AcDbEntity
  8
SEIHIN
  6
Continuous
100
AcDbLine
 10
400.2814171902076
 20
190.563600218653
 30
0.0
 11
366.3244683820233
 21
190.563600218653
 31
0.0
  0
LINE
  5
6FC9
330
1A
100
AcDbEntity
  8
SEIHIN
  6
Continuous
100
AcDbLine
 10
400.2813547820233
 20
190.563600218653
 30
0.0
 11
311.1905005820233
 21
190.563600218653
 31
0.0
  0
LINE
  5
6FCA
330
1A
100
AcDbEntity
  8
SEIHIN
  6
Continuous
100
AcDbLine
 10
400.2813683820233
 20
189.763600218653
 30
0.0
 11
311.1904683820233
 21
189.763600218653
 31
0.0
  0
LINE
  5
6FCB
330
1A
100
AcDbEntity
  8
SEIHIN
  6
Continuous
100
AcDbLine
 10
400.2813547820233
 20
186.263600218653
 30
0.0
 11
311.1905005820233
 21
186.263600218653
 31
0.0
  0
DIMENSION
  5
6FCC
330
1A
100
AcDbEntity
  8
SUNPOU
100
AcDbDimension
  2
*D3
 10
236.9860834435044
 20
190.563600218653
 30
0.0
 11
231.9860834435044
 21
247.754951318653
 31
0.0
 70
    32
 71
     5
 42
-1.0
  3
STANDARD
100
AcDbAlignedDimension
 13
271.7350842820233
 23
304.946302418653
 33
0.0
 14
311.1905005820233
 24
190.563600218653
 34
0.0
 50
90.0
100
AcDbRotatedDimension
1001
ACAD
1000
DSTYLE
1002
{
1070
    41
1040
6.0
1070
    42
1040
6.0
1070
    43
1040
14.0
1070
    44
1040
3.0
1070
    73
1070
     0
1070
    74
1070
     0
1070
    77
1070
     3
1070
   140
1040
6.0
1070
   141
1040
10.0
1070
   147
1040
2.0
1070
   172
1070
     1
1070
   173
1070
     1
1070
   176
1070
   256
1070
   177
1070
   256
1070
   178
1070
   256
1070
   271
1070
     0
1070
   272
1070
     0
1070
   341
1005
6D
1070
     6
1000
OPEN
1070
     7
1000
OPEN
1002
}
  0
LINE
  5
6FCD
330
1A
100
AcDbEntity
  8
CENTER L
100
AcDbLine
 10
156.6144753963387
 20
147.7637547598297
 30
0.0
 11
156.6144753963387
 21
311.9463020186529
 31
0.0
  0
LINE
  5
6FCE
330
1A
100
AcDbEntity
  8
SEIHIN
  6
Continuous
100
AcDbLine
 10
279.7036803820233
 20
253.994015018653
 30
0.0
 11
272.5273029820233
 21
305.057610318653
 31
0.0
  0
LINE
  5
6FCF
330
1A
100
AcDbEntity
  8
SEIHIN
  6
Continuous
100
AcDbLine
 10
278.9114536820233
 20
253.882763918653
 30
0.0
 11
271.7350842820233
 21
304.946302418653
 31
0.0
  0
LINE
  5
6FD0
330
1A
100
AcDbEntity
  8
SEIHIN
  6
Continuous
100
AcDbLine
 10
147.1143999963387
 20
298.482200418653
 30
0.0
 11
147.1143999963387
 21
271.086838218653
 31
0.0
  0
LINE
  5
6FD1
330
1A
100
AcDbEntity
  8
SEIHIN
  6
Continuous
100
AcDbLine
 10
166.1144753963387
 20
298.482200418653
 30
0.0
 11
166.1144753963387
 21
271.086838218653
 31
0.0
  0
LINE
  5
6FD2
330
1A
100
AcDbEntity
  8
SEIHIN
  6
Continuous
100
AcDbLine
 10
169.1144753963387
 20
303.9463020186529
 30
0.0
 11
169.1144753963387
 21
252.763599818653
 31
0.0
  0
LINE
  5
6FD3
330
1A
100
AcDbEntity
  8
SEIHIN
  6
Continuous
100
AcDbLine
 10
169.1144753963387
 20
303.9463020186529
 30
0.0
 11
169.1144753963387
 21
252.763599818653
 31
0.0
  0
LINE
  5
6FD4
330
1A
100
AcDbEntity
  8
SEIHIN
  6
Continuous
100
AcDbLine
 10
166.1144753963387
 20
298.482200418653
 30
0.0
 11
166.1144753963387
 21
271.086838218653
 31
0.0
  0
LINE
  5
6FD5
330
1A
100
AcDbEntity
  8
SEIHIN
  6
Continuous
100
AcDbLine
 10
144.1143999963387
 20
303.9463020186529
 30
0.0
 11
144.1143999963387
 21
252.763599818653
 31
0.0
  0
LINE
  5
6FD6
330
1A
100
AcDbEntity
  8
SEIHIN
  6
Continuous
100
AcDbLine
 10
144.1143999963387
 20
303.9463020186529
 30
0.0
 11
144.1143999963387
 21
252.763599818653
 31
0.0
  0
LINE
  5
6FD7
330
1A
100
AcDbEntity
  8
SEIHIN
  6
Continuous
100
AcDbLine
 10
155.6144753963387
 20
244.844055218653
 30
0.0
 11
155.6144753963387
 21
189.763600218653
 31
0.0
  0
LINE
  5
6FD8
330
1A
100
AcDbEntity
  8
SEIHIN
  6
Continuous
100
AcDbLine
 10
155.6144753963387
 20
244.844055218653
 30
0.0
 11
155.6144753963387
 21
189.763600218653
 31
0.0
  0
LINE
  5
6FD9
330
1A
100
AcDbEntity
  8
SEIHIN
  6
Continuous
100
AcDbLine
 10
148.1144753963387
 20
245.049719718653
 30
0.0
 11
148.1144753963387
 21
189.763600218653
 31
0.0
  0
LINE
  5
6FDA
330
1A
100
AcDbEntity
  8
SEIHIN
  6
Continuous
100
AcDbLine
 10
157.6144753963387
 20
244.844054818653
 30
0.0
 11
157.6144753963387
 21
189.763600218653
 31
0.0
  0
LINE
  5
6FDB
330
1A
100
AcDbEntity
  8
SEIHIN
  6
Continuous
100
AcDbLine
 10
165.1144753963387
 20
244.844054818653
 30
0.0
 11
165.1144753963387
 21
190.022528718653
 31
0.0
  0
LINE
  5
6FDC
330
1A
100
AcDbEntity
  8
SEIHIN
  6
Continuous
100
AcDbLine
 10
167.6144753963387
 20
244.844054018653
 30
0.0
 11
167.6144753963387
 21
189.763600218653
 31
0.0
  0
LINE
  5
6FDD
330
1A
100
AcDbEntity
  8
SEIHIN
  6
Continuous
100
AcDbLine
 10
145.6144753963387
 20
244.843900818653
 30
0.0
 11
145.6144753963387
 21
189.763600218653
 31
0.0
  0
LINE
  5
6FDE
330
1A
100
AcDbEntity
  8
SEIHIN
  6
Continuous
100
AcDbLine
 10
145.6144753963387
 20
244.843900818653
 30
0.0
 11
145.6144753963387
 21
189.763600218653
 31
0.0
  0
LINE
  5
6FDF
330
1A
100
AcDbEntity
  8
SEIHIN
  6
Continuous
100
AcDbLine
 10
167.6144753963387
 20
244.844054018653
 30
0.0
 11
167.6144753963387
 21
189.763600218653
 31
0.0
  0
LINE
  5
6FE0
330
1A
100
AcDbEntity
  8
SEIHIN
  6
Continuous
100
AcDbLine
 10
165.1144753963387
 20
244.844054818653
 30
0.0
 11
165.1144753963387
 21
190.022528718653
 31
0.0
  0
LINE
  5
6FE1
330
1A
100
AcDbEntity
  8
SEIHIN
  6
Continuous
100
AcDbLine
 10
157.6144753963387
 20
244.844054818653
 30
0.0
 11
157.6144753963387
 21
189.763600218653
 31
0.0
  0
LINE
  5
6FE2
330
1A
100
AcDbEntity
  8
SEIHIN
  6
Continuous
100
AcDbLine
 10
148.1144753963387
 20
245.049719718653
 30
0.0
 11
148.1144753963387
 21
189.763600218653
 31
0.0
  0
LINE
  5
6FE3
330
1A
100
AcDbEntity
  8
SEIHIN
100
AcDbLine
 10
162.1145476671607
 20
157.7636002185367
 30
0.0
 11
151.1145476671607
 21
157.7636002185367
 31
0.0
  0
LINE
  5
6FE4
330
1A
100
AcDbEntity
  8
SEIHIN
  6
Continuous
 62
     3
 48
16.0
100
AcDbLine
 10
156.6144476671608
 20
182.7635547598298
 30
0.0
 11
162.1144476671608
 21
182.7635547598298
 31
0.0
  0
LINE
  5
6FE5
330
1A
100
AcDbEntity
  8
SEIHIN
  6
Continuous
 62
     3
 48
16.0
100
AcDbLine
 10
156.6144476671608
 20
181.2635547598297
 30
0.0
 11
161.614547667161
 21
181.2635547598297
 31
0.0
  0
ARC
  5
6FE6
330
1A
100
AcDbEntity
  8
SEIHIN
  6
Continuous
100
AcDbCircle
 10
157.1737116963387
 20
189.263600218653
 30
0.0
 40
0.4999999921545041
100
AcDbArc
 50
10.26475806179492
 51
90.0
  0
ARC
  5
6FE7
330
1A
100
AcDbEntity
  8
SEIHIN
  6
Continuous
100
AcDbCircle
 10
157.1737116963387
 20
189.263600218653
 30
0.0
 40
0.4999999921545041
100
AcDbArc
 50
10.26475806179492
 51
90.0
  0
LINE
  5
6FE8
330
1A
100
AcDbEntity
  8
SEIHIN
  6
Continuous
100
AcDbLine
 10
151.6144753963387
 20
186.263600218653
 30
0.0
 11
161.6144753963387
 21
186.263600218653
 31
0.0
  0
LINE
  5
6FE9
330
1A
100
AcDbEntity
  8
SEIHIN
  6
Continuous
100
AcDbLine
 10
154.0144753963387
 20
186.263600218653
 30
0.0
 11
159.2144753963387
 21
186.263600218653
 31
0.0
  0
LINE
  5
6FEA
330
1A
100
AcDbEntity
  8
SEIHIN
  6
Continuous
100
AcDbLine
 10
151.8644753963387
 20
186.263600218653
 30
0.0
 11
161.3644753963387
 21
186.263600218653
 31
0.0
  0
LINE
  5
6FEB
330
1A
100
AcDbEntity
  8
SEIHIN
  6
Continuous
 62
     3
 48
16.0
100
AcDbLine
 10
151.1145476671607
 20
157.7636002185367
 30
0.0
 11
151.1145476671607
 21
186.2634547598299
 31
0.0
  0
LINE
  5
6FEC
330
1A
100
AcDbEntity
  8
SEIHIN
  6
Continuous
 62
     3
 48
16.0
100
AcDbLine
 10
151.6145476671607
 20
181.2633547598298
 30
0.0
 11
151.6145476671607
 21
182.7633547598298
 31
0.0
  0
LINE
  5
6FED
330
1A
100
AcDbEntity
  8
SEIHIN
  6
Continuous
 62
     3
 48
16.0
100
AcDbLine
 10
156.6146476671607
 20
182.7635547598298
 30
0.0
 11
151.1146476671607
 21
182.7635547598298
 31
0.0
  0
LINE
  5
6FEE
330
1A
100
AcDbEntity
  8
SEIHIN
  6
Continuous
 62
     3
 48
16.0
100
AcDbLine
 10
156.6146476671607
 20
181.2635547598297
 30
0.0
 11
151.6145476671607
 21
181.2635547598297
 31
0.0
  0
ARC
  5
6FEF
330
1A
100
AcDbEntity
  8
SEIHIN
  6
Continuous
100
AcDbCircle
 10
151.8644753963387
 20
190.022528718653
 30
0.0
 40
3.758928570888132
100
AcDbArc
 50
190.2647607829472
 51
349.7352389454338
  0
ARC
  5
6FF0
330
1A
100
AcDbEntity
  8
SEIHIN
  6
Continuous
100
AcDbCircle
 10
151.8644753963387
 20
190.022528718653
 30
0.0
 40
3.758928570888132
100
AcDbArc
 50
190.2647607829472
 51
349.7352389454338
  0
ARC
  5
6FF1
330
1A
100
AcDbEntity
  8
SEIHIN
  6
Continuous
100
AcDbCircle
 10
147.6737116963387
 20
189.263600218653
 30
0.0
 40
0.4999999921545041
100
AcDbArc
 50
10.26475806179492
 51
90.0
  0
LINE
  5
6FF2
330
1A
100
AcDbEntity
  8
SEIHIN
  6
Continuous
100
AcDbLine
 10
145.6144753963387
 20
189.763600218653
 30
0.0
 11
147.6737116963387
 21
189.763600218653
 31
0.0
  0
ARC
  5
6FF3
330
1A
100
AcDbEntity
  8
SEIHIN
  6
Continuous
100
AcDbCircle
 10
147.6737116963387
 20
189.263600218653
 30
0.0
 40
0.4999999921545041
100
AcDbArc
 50
10.26475806179492
 51
90.0
  0
LINE
  5
6FF4
330
1A
100
AcDbEntity
  8
SEIHIN
  6
Continuous
100
AcDbLine
 10
145.6144753963387
 20
189.763600218653
 30
0.0
 11
147.6737116963387
 21
189.763600218653
 31
0.0
  0
ARC
  5
6FF5
330
1A
100
AcDbEntity
  8
SEIHIN
  6
Continuous
100
AcDbCircle
 10
156.0552389963387
 20
189.263600218653
 30
0.0
 40
0.4999999921545041
100
AcDbArc
 50
90.0
 51
169.7352419382051
  0
ARC
  5
6FF6
330
1A
100
AcDbEntity
  8
SEIHIN
  6
Continuous
100
AcDbCircle
 10
156.0552389963387
 20
189.263600218653
 30
0.0
 40
0.4999999921545041
100
AcDbArc
 50
90.0
 51
169.7352419382051
  0
LINE
  5
6FF7
330
1A
100
AcDbEntity
  8
SEIHIN
  6
Continuous
100
AcDbLine
 10
156.0552389963387
 20
189.763600218653
 30
0.0
 11
157.1737116963387
 21
189.763600218653
 31
0.0
  0
LINE
  5
6FF8
330
1A
100
AcDbEntity
  8
SEIHIN
  6
Continuous
100
AcDbLine
 10
156.0552389963387
 20
189.763600218653
 30
0.0
 11
157.1737116963387
 21
189.763600218653
 31
0.0
  0
LINE
  5
6FF9
330
1A
100
AcDbEntity
  8
SEIHIN
  6
Continuous
 62
     3
 48
16.0
100
AcDbLine
 10
162.1145476671607
 20
157.7636002185367
 30
0.0
 11
162.1145476671607
 21
186.2634547598299
 31
0.0
  0
LINE
  5
6FFA
330
1A
100
AcDbEntity
  8
SEIHIN
  6
Continuous
 62
     3
 48
16.0
100
AcDbLine
 10
161.614547667161
 20
181.2633547598298
 30
0.0
 11
161.614547667161
 21
182.7633547598298
 31
0.0
  0
LINE
  5
6FFB
330
1A
100
AcDbEntity
  8
SEIHIN
  6
Continuous
100
AcDbLine
 10
165.5552389963387
 20
189.763600218653
 30
0.0
 11
167.6144753963387
 21
189.763600218653
 31
0.0
  0
LINE
  5
6FFC
330
1A
100
AcDbEntity
  8
SEIHIN
  6
Continuous
100
AcDbLine
 10
165.5552389963387
 20
189.763600218653
 30
0.0
 11
167.6144753963387
 21
189.763600218653
 31
0.0
  0
ARC
  5
6FFD
330
1A
100
AcDbEntity
  8
SEIHIN
  6
Continuous
100
AcDbCircle
 10
165.5552389963387
 20
189.263600218653
 30
0.0
 40
0.4999999921545041
100
AcDbArc
 50
90.0
 51
169.7352419382051
  0
ARC
  5
6FFE
330
1A
100
AcDbEntity
  8
SEIHIN
  6
Continuous
100
AcDbCircle
 10
165.5552389963387
 20
189.263600218653
 30
0.0
 40
0.4999999921545041
100
AcDbArc
 50
90.0
 51
169.7352419382051
  0
ARC
  5
6FFF
330
1A
100
AcDbEntity
  8
SEIHIN
  6
Continuous
100
AcDbCircle
 10
161.3644753963387
 20
190.022528718653
 30
0.0
 40
3.758928570888132
100
AcDbArc
 50
190.2647607829472
 51
349.7352389454338
  0
ARC
  5
7000
330
1A
100
AcDbEntity
  8
SEIHIN
  6
Continuous
100
AcDbCircle
 10
161.3644753963387
 20
190.022528718653
 30
0.0
 40
3.758928570888132
100
AcDbArc
 50
190.2647607829472
 51
349.7352389454338
  0
ARC
  5
7001
330
1A
100
AcDbEntity
  8
SEIHIN
  6
Continuous
100
AcDbCircle
 10
157.1737116963387
 20
202.169860618653
 30
0.0
 40
0.4999999921545041
100
AcDbArc
 50
10.26475806179492
 51
90.0
  0
ARC
  5
7002
330
1A
100
AcDbEntity
  8
SEIHIN
  6
Continuous
100
AcDbCircle
 10
157.1737116963387
 20
202.169860618653
 30
0.0
 40
0.4999999921545041
100
AcDbArc
 50
10.26475806179492
 51
90.0
  0
ARC
  5
7003
330
1A
100
AcDbEntity
  8
SEIHIN
  6
Continuous
100
AcDbCircle
 10
151.8644753963387
 20
202.928789118653
 30
0.0
 40
3.758928570888132
100
AcDbArc
 50
190.2647607829472
 51
349.7352389454338
  0
LINE
  5
7004
330
1A
100
AcDbEntity
  8
SEIHIN
  6
Continuous
100
AcDbLine
 10
145.6144753963387
 20
202.669860618653
 30
0.0
 11
147.6737116963387
 21
202.669860618653
 31
0.0
  0
ARC
  5
7005
330
1A
100
AcDbEntity
  8
SEIHIN
  6
Continuous
100
AcDbCircle
 10
147.6737116963387
 20
202.169860618653
 30
0.0
 40
0.4999999921545041
100
AcDbArc
 50
10.26475806179492
 51
90.0
  0
LINE
  5
7006
330
1A
100
AcDbEntity
  8
SEIHIN
  6
Continuous
100
AcDbLine
 10
145.6144753963387
 20
202.669860618653
 30
0.0
 11
147.6737116963387
 21
202.669860618653
 31
0.0
  0
ARC
  5
7007
330
1A
100
AcDbEntity
  8
SEIHIN
  6
Continuous
100
AcDbCircle
 10
147.6737116963387
 20
202.169860618653
 30
0.0
 40
0.4999999921545041
100
AcDbArc
 50
10.26475806179492
 51
90.0
  0
LINE
  5
7008
330
1A
100
AcDbEntity
  8
SEIHIN
  6
Continuous
100
AcDbLine
 10
156.0552389963387
 20
202.669860618653
 30
0.0
 11
157.1737116963387
 21
202.669860618653
 31
0.0
  0
LINE
  5
7009
330
1A
100
AcDbEntity
  8
SEIHIN
  6
Continuous
100
AcDbLine
 10
156.0552389963387
 20
202.669860618653
 30
0.0
 11
157.1737116963387
 21
202.669860618653
 31
0.0
  0
ARC
  5
700A
330
1A
100
AcDbEntity
  8
SEIHIN
  6
Continuous
100
AcDbCircle
 10
156.0552389963387
 20
202.169860618653
 30
0.0
 40
0.4999999921545041
100
AcDbArc
 50
90.0
 51
169.7352419382051
  0
ARC
  5
700B
330
1A
100
AcDbEntity
  8
SEIHIN
  6
Continuous
100
AcDbCircle
 10
156.0552389963387
 20
202.169860618653
 30
0.0
 40
0.4999999921545041
100
AcDbArc
 50
90.0
 51
169.7352419382051
  0
LINE
  5
700C
330
1A
100
AcDbEntity
  8
SEIHIN
  6
Continuous
100
AcDbLine
 10
165.5552389963387
 20
202.669860618653
 30
0.0
 11
167.6144753963387
 21
202.669860618653
 31
0.0
  0
LINE
  5
700D
330
1A
100
AcDbEntity
  8
SEIHIN
  6
Continuous
100
AcDbLine
 10
165.5552389963387
 20
202.669860618653
 30
0.0
 11
167.6144753963387
 21
202.669860618653
 31
0.0
  0
ARC
  5
700E
330
1A
100
AcDbEntity
  8
SEIHIN
  6
Continuous
100
AcDbCircle
 10
161.3644753963387
 20
202.928789118653
 30
0.0
 40
3.758928570888132
100
AcDbArc
 50
190.2647607829472
 51
349.7352389454338
  0
ARC
  5
700F
330
1A
100
AcDbEntity
  8
SEIHIN
  6
Continuous
100
AcDbCircle
 10
165.5552389963387
 20
202.169860618653
 30
0.0
 40
0.4999999921545041
100
AcDbArc
 50
90.0
 51
169.7352419382051
  0
ARC
  5
7010
330
1A
100
AcDbEntity
  8
SEIHIN
  6
Continuous
100
AcDbCircle
 10
165.5552389963387
 20
202.169860618653
 30
0.0
 40
0.4999999921545041
100
AcDbArc
 50
90.0
 51
169.7352419382051
  0
ARC
  5
7011
330
1A
100
AcDbEntity
  8
SEIHIN
  6
Continuous
100
AcDbCircle
 10
165.4107222963387
 20
244.844054818653
 30
0.0
 40
7.796246895617172
100
AcDbArc
 50
126.5386498155053
 51
180.0
  0
ARC
  5
7012
330
1A
100
AcDbEntity
  8
SEIHIN
  6
Continuous
100
AcDbCircle
 10
165.4107222963387
 20
244.844054818653
 30
0.0
 40
7.796246895617172
100
AcDbArc
 50
126.5386498155053
 51
180.0
  0
LINE
  5
7013
330
1A
100
AcDbEntity
  8
SEIHIN
  6
Continuous
100
AcDbLine
 10
152.8215444963387
 20
266.525219018653
 30
0.0
 11
160.4073308963387
 21
266.525219018653
 31
0.0
  0
CIRCLE
  5
7014
330
1A
100
AcDbEntity
  8
SEIHIN
  6
Continuous
100
AcDbCircle
 10
156.6144376963387
 20
261.525219018653
 30
0.0
 40
1.499999969198628
  0
LINE
  5
7015
330
1A
100
AcDbEntity
  8
SEIHIN
  6
Continuous
100
AcDbLine
 10
152.8215444963387
 20
256.525219018653
 30
0.0
 11
160.4073308963387
 21
256.525219018653
 31
0.0
  0
LINE
  5
7016
330
1A
100
AcDbEntity
  8
SEIHIN
  6
Continuous
100
AcDbLine
 10
165.3144753963387
 20
270.286838218653
 30
0.0
 11
147.9143999963387
 21
270.286838218653
 31
0.0
  0
LINE
  5
7017
330
1A
100
AcDbEntity
  8
SEIHIN
  6
Continuous
100
AcDbLine
 10
165.3144753963387
 20
270.286838218653
 30
0.0
 11
147.9143999963387
 21
270.286838218653
 31
0.0
  0
CIRCLE
  5
7018
330
1A
100
AcDbEntity
  8
SEIHIN
  6
Continuous
100
AcDbCircle
 10
156.6144376963387
 20
261.525219018653
 30
0.0
 40
1.499999969198669
  0
LINE
  5
7019
330
1A
100
AcDbEntity
  8
SEIHIN
  6
Continuous
100
AcDbLine
 10
148.3689519963387
 20
268.525219018653
 30
0.0
 11
164.8599233963387
 21
268.525219018653
 31
0.0
  0
LINE
  5
701A
330
1A
100
AcDbEntity
  8
SEIHIN
  6
Continuous
100
AcDbLine
 10
169.1144753963387
 20
252.763599818653
 30
0.0
 11
144.1143999963387
 21
252.763599818653
 31
0.0
  0
LINE
  5
701B
330
1A
100
AcDbEntity
  8
SEIHIN
  6
Continuous
100
AcDbLine
 10
169.1144753963387
 20
252.763599818653
 30
0.0
 11
144.1143999963387
 21
252.763599818653
 31
0.0
  0
LINE
  5
701C
330
1A
100
AcDbEntity
  8
SEIHIN
  6
Continuous
100
AcDbLine
 10
148.3689519963387
 20
254.525219018653
 30
0.0
 11
164.8599233963387
 21
254.525219018653
 31
0.0
  0
ARC
  5
701D
330
1A
100
AcDbEntity
  8
SEIHIN
  6
Continuous
100
AcDbCircle
 10
152.8215444963387
 20
266.025219018653
 30
0.0
 40
0.5000000066515669
100
AcDbArc
 50
90.0
 51
225.0
  0
ARC
  5
701E
330
1A
100
AcDbEntity
  8
SEIHIN
  6
Continuous
100
AcDbCircle
 10
148.3689519963387
 20
267.025219018653
 30
0.0
 40
1.500000010372941
100
AcDbArc
 50
90.0
 51
245.0000000581049
  0
ARC
  5
701F
330
1A
100
AcDbEntity
  8
SEIHIN
  6
Continuous
100
AcDbCircle
 10
148.3689519963387
 20
256.025219018653
 30
0.0
 40
1.500000010372941
100
AcDbArc
 50
114.9999999418951
 51
270.0
  0
ARC
  5
7020
330
1A
100
AcDbEntity
  8
SEIHIN
  6
Continuous
100
AcDbCircle
 10
155.9107222963387
 20
244.844053018653
 30
0.0
 40
7.796246918174752
100
AcDbArc
 50
126.5387959209415
 51
180.0001462480639
  0
ARC
  5
7021
330
1A
100
AcDbEntity
  8
SEIHIN
  6
Continuous
100
AcDbCircle
 10
155.9107222963387
 20
244.844053018653
 30
0.0
 40
7.796246918174752
100
AcDbArc
 50
126.5387959209415
 51
180.0001462480639
  0
ARC
  5
7022
330
1A
100
AcDbEntity
  8
SEIHIN
  6
Continuous
100
AcDbCircle
 10
123.9580733963387
 20
244.843970618653
 30
0.0
 40
21.65640201247671
100
AcDbArc
 50
359.999815331956
 51
21.45024492816287
  0
ARC
  5
7023
330
1A
100
AcDbEntity
  8
SEIHIN
  6
Continuous
100
AcDbCircle
 10
123.9580733963387
 20
244.843970618653
 30
0.0
 40
21.65640201247671
100
AcDbArc
 50
359.999815331956
 51
21.45024492816287
  0
ARC
  5
7024
330
1A
100
AcDbEntity
  8
SEIHIN
  6
Continuous
100
AcDbCircle
 10
151.8644614963387
 20
250.3045242186529
 30
0.0
 40
0.9999999719739241
100
AcDbArc
 50
53.4614972852457
 51
126.5387983957878
  0
ARC
  5
7025
330
1A
100
AcDbEntity
  8
SEIHIN
  6
Continuous
100
AcDbCircle
 10
151.8644614963387
 20
250.3045242186529
 30
0.0
 40
0.9999999719739241
100
AcDbArc
 50
53.4614972852457
 51
126.5387983957878
  0
ARC
  5
7026
330
1A
100
AcDbEntity
  8
SEIHIN
  6
Continuous
100
AcDbCircle
 10
147.8182284963387
 20
244.8440324186529
 30
0.0
 40
7.796246873110315
100
AcDbArc
 50
0.0001462480638433
 51
53.46149628993401
  0
ARC
  5
7027
330
1A
100
AcDbEntity
  8
SEIHIN
  6
Continuous
100
AcDbCircle
 10
147.8182284963387
 20
244.8440324186529
 30
0.0
 40
7.796246873110315
100
AcDbArc
 50
0.0001462480638433
 51
53.46149628993401
  0
LINE
  5
7028
330
1A
100
AcDbEntity
  8
SEIHIN
  6
Continuous
100
AcDbLine
 10
147.7350245963387
 20
265.665757318653
 30
0.0
 11
153.5304816963387
 21
262.963291318653
 31
0.0
  0
LINE
  5
7029
330
1A
100
AcDbEntity
  8
SEIHIN
  6
Continuous
100
AcDbLine
 10
147.7350245963387
 20
257.384680718653
 30
0.0
 11
153.5304817963387
 21
260.087146818653
 31
0.0
  0
ARC
  5
702A
330
1A
100
AcDbEntity
  8
SEIHIN
  6
Continuous
100
AcDbCircle
 10
153.7840524963387
 20
259.5433620186529
 30
0.0
 40
0.5999999903559889
100
AcDbArc
 50
315.0000202571182
 51
114.9999725970816
  0
ARC
  5
702B
330
1A
100
AcDbEntity
  8
SEIHIN
  6
Continuous
100
AcDbCircle
 10
153.7840524963387
 20
263.507076018653
 30
0.0
 40
0.6000000015268324
100
AcDbArc
 50
245.0000147126121
 51
45.00002700949
  0
ARC
  5
702C
330
1A
100
AcDbEntity
  8
SEIHIN
  6
Continuous
100
AcDbCircle
 10
152.8215444963387
 20
257.025219018653
 30
0.0
 40
0.5000000066515467
100
AcDbArc
 50
135.0000000000046
 51
270.0
  0
LINE
  5
702D
330
1A
100
AcDbEntity
  8
SEIHIN
  6
Continuous
100
AcDbLine
 10
154.2083166963387
 20
259.119098118653
 30
0.0
 11
152.4679910963387
 21
257.3787724186529
 31
0.0
  0
LINE
  5
702E
330
1A
100
AcDbEntity
  8
SEIHIN
  6
Continuous
100
AcDbLine
 10
154.2083163963387
 20
263.931340318653
 30
0.0
 11
152.4679910963387
 21
265.671665618653
 31
0.0
  0
ARC
  5
702F
330
1A
100
AcDbEntity
  8
SEIHIN
  6
Continuous
100
AcDbCircle
 10
147.9143999963387
 20
271.086838218653
 30
0.0
 40
0.799999999999983
100
AcDbArc
 50
180.0
 51
270.0
  0
ARC
  5
7030
330
1A
100
AcDbEntity
  8
SEIHIN
  6
Continuous
100
AcDbCircle
 10
147.9143999963387
 20
271.086838218653
 30
0.0
 40
0.799999999999983
100
AcDbArc
 50
180.0
 51
270.0
  0
ARC
  5
7031
330
1A
100
AcDbEntity
  8
SEIHIN
  6
Continuous
100
AcDbCircle
 10
164.8599233963387
 20
267.025219018653
 30
0.0
 40
1.500000010372941
100
AcDbArc
 50
294.9999999418951
 51
90.0
  0
ARC
  5
7032
330
1A
100
AcDbEntity
  8
SEIHIN
  6
Continuous
100
AcDbCircle
 10
160.4073308963387
 20
266.025219018653
 30
0.0
 40
0.5000000066515669
100
AcDbArc
 50
315.0
 51
90.0
  0
ARC
  5
7033
330
1A
100
AcDbEntity
  8
SEIHIN
  6
Continuous
100
AcDbCircle
 10
164.8599233963387
 20
256.025219018653
 30
0.0
 40
1.500000010372941
100
AcDbArc
 50
270.0
 51
65.0000000581049
  0
ARC
  5
7034
330
1A
100
AcDbEntity
  8
SEIHIN
  6
Continuous
100
AcDbCircle
 10
157.3182284963387
 20
244.844054818653
 30
0.0
 40
7.796246895617144
100
AcDbArc
 50
0.0
 51
53.4613501844947
  0
ARC
  5
7035
330
1A
100
AcDbEntity
  8
SEIHIN
  6
Continuous
100
AcDbCircle
 10
157.3182284963387
 20
244.844054818653
 30
0.0
 40
7.796246895617144
100
AcDbArc
 50
0.0
 51
53.4613501844947
  0
ARC
  5
7036
330
1A
100
AcDbEntity
  8
SEIHIN
  6
Continuous
100
AcDbCircle
 10
161.3644753963387
 20
250.304536318653
 30
0.0
 40
0.9999999719705663
100
AcDbArc
 50
53.46134944471606
 51
126.5386505552794
  0
ARC
  5
7037
330
1A
100
AcDbEntity
  8
SEIHIN
  6
Continuous
100
AcDbCircle
 10
161.3644753963387
 20
250.304536318653
 30
0.0
 40
0.9999999719705663
100
AcDbArc
 50
53.46134944471606
 51
126.5386505552794
  0
ARC
  5
7038
330
1A
100
AcDbEntity
  8
SEIHIN
  6
Continuous
100
AcDbCircle
 10
189.2708772963387
 20
244.844054018653
 30
0.0
 40
21.65640189974951
100
AcDbArc
 50
158.5499013334508
 51
180.0
  0
ARC
  5
7039
330
1A
100
AcDbEntity
  8
SEIHIN
  6
Continuous
100
AcDbCircle
 10
189.2708772963387
 20
244.844054018653
 30
0.0
 40
21.65640189974951
100
AcDbArc
 50
158.5499013334508
 51
180.0
  0
ARC
  5
703A
330
1A
100
AcDbEntity
  8
SEIHIN
  6
Continuous
100
AcDbCircle
 10
159.4448227963387
 20
259.5433620186529
 30
0.0
 40
0.5999999873023638
100
AcDbArc
 50
65.0000060580077
 51
225.0000067523695
  0
ARC
  5
703B
330
1A
100
AcDbEntity
  8
SEIHIN
  6
Continuous
100
AcDbCircle
 10
159.4448227963387
 20
263.507076018653
 30
0.0
 40
0.5999999631179249
100
AcDbArc
 50
135.0000202571182
 51
295.0000066323043
  0
ARC
  5
703C
330
1A
100
AcDbEntity
  8
SEIHIN
  6
Continuous
100
AcDbCircle
 10
160.4073308963387
 20
257.025219018653
 30
0.0
 40
0.5000000066515467
100
AcDbArc
 50
270.0
 51
44.9999999999954
  0
LINE
  5
703D
330
1A
100
AcDbEntity
  8
SEIHIN
  6
Continuous
100
AcDbLine
 10
159.0205587963387
 20
259.119097918653
 30
0.0
 11
160.7608842963387
 21
257.3787724186529
 31
0.0
  0
LINE
  5
703E
330
1A
100
AcDbEntity
  8
SEIHIN
  6
Continuous
100
AcDbLine
 10
159.0205585963387
 20
263.931339918653
 30
0.0
 11
160.7608842963387
 21
265.671665618653
 31
0.0
  0
LINE
  5
703F
330
1A
100
AcDbEntity
  8
SEIHIN
  6
Continuous
100
AcDbLine
 10
159.6983936963387
 20
260.087146718653
 30
0.0
 11
165.4938507963387
 21
257.384680718653
 31
0.0
  0
LINE
  5
7040
330
1A
100
AcDbEntity
  8
SEIHIN
  6
Continuous
100
AcDbLine
 10
159.6983937963387
 20
262.9632914186529
 30
0.0
 11
165.4938507963387
 21
265.665757318653
 31
0.0
  0
ARC
  5
7041
330
1A
100
AcDbEntity
  8
SEIHIN
  6
Continuous
100
AcDbCircle
 10
165.3144753963387
 20
271.086838218653
 30
0.0
 40
0.799999999999983
100
AcDbArc
 50
270.0
 51
0.0
  0
ARC
  5
7042
330
1A
100
AcDbEntity
  8
SEIHIN
  6
Continuous
100
AcDbCircle
 10
165.3144753963387
 20
271.086838218653
 30
0.0
 40
0.799999999999983
100
AcDbArc
 50
270.0
 51
0.0
  0
LINE
  5
7043
330
1A
100
AcDbEntity
  8
CENTER L
100
AcDbLine
 10
355.7359276820232
 20
154.2675084464207
 30
0.0
 11
355.7359276820232
 21
198.863600218653
 31
0.0
  0
LINE
  5
7044
330
1A
100
AcDbEntity
  8
SEIHIN
  6
Continuous
100
AcDbLine
 10
306.4372147820233
 20
190.395562518653
 30
0.0
 11
305.0603806820233
 21
200.192145418653
 31
0.0
  0
LINE
  5
7045
330
1A
100
AcDbEntity
  8
SEIHIN
  6
Continuous
100
AcDbLine
 10
310.6953666820233
 20
190.994012918653
 30
0.0
 11
309.0387644820233
 21
202.781228318653
 31
0.0
  0
LINE
  5
7046
330
1A
100
AcDbEntity
  8
SEIHIN
  6
Continuous
100
AcDbLine
 10
309.9030541820233
 20
190.882660618653
 30
0.0
 11
308.2465541820233
 21
202.669860618653
 31
0.0
  0
ARC
  5
7047
330
1A
100
AcDbEntity
  8
SEIHIN
  6
Continuous
100
AcDbCircle
 10
311.1904297820233
 20
191.063633818653
 30
0.0
 40
0.5000336162955443
100
AcDbArc
 50
188.0049040435018
 51
270.0044292900057
  0
ARC
  5
7048
330
1A
100
AcDbEntity
  8
SEIHIN
  6
Continuous
100
AcDbCircle
 10
311.1904297820233
 20
191.063633818653
 30
0.0
 40
1.300033616295544
100
AcDbArc
 50
188.0049040435018
 51
270.0044292900057
  0
ARC
  5
7049
330
1A
100
AcDbEntity
  8
SEIHIN
  6
Continuous
100
AcDbCircle
 10
311.1905005820233
 20
191.063600218653
 30
0.0
 40
4.800000013807458
100
AcDbArc
 50
188.0000821059267
 51
270.0
  0
DIMENSION
  5
704A
330
1A
100
AcDbEntity
  8
SUNPOU
100
AcDbDimension
  2
*D4
 10
330.4680726624333
 20
157.7636002185367
 30
0.0
 11
325.4680726624333
 21
174.1636002185949
 31
0.0
 70
    32
  1
H
 71
     5
 42
-1.0
  3
STANDARD
100
AcDbAlignedDimension
 13
355.7359276820232
 23
190.563600218653
 33
0.0
 14
385.7359276821394
 24
157.7636002185367
 34
0.0
 50
90.0
100
AcDbRotatedDimension
1001
ACAD
1000
DSTYLE
1002
{
1070
    41
1040
6.0
1070
    42
1040
6.0
1070
    43
1040
14.0
1070
    44
1040
3.0
1070
    73
1070
     0
1070
    74
1070
     0
1070
    77
1070
     3
1070
   140
1040
6.0
1070
   141
1040
10.0
1070
   147
1040
2.0
1070
   172
1070
     1
1070
   173
1070
     1
1070
   176
1070
   256
1070
   177
1070
   256
1070
   178
1070
   256
1070
   271
1070
     0
1070
   272
1070
     0
1070
   341
1005
6D
1070
     6
1000
OPEN
1070
     7
1000
OPEN
1002
}
  0
LINE
  5
704B
330
1A
100
AcDbEntity
  8
SEIHIN
  6
Continuous
 62
     3
 48
16.0
100
AcDbLine
 10
360.7359276820232
 20
181.263600218653
 30
0.0
 11
350.7359276820232
 21
181.263600218653
 31
0.0
  0
LINE
  5
704C
330
1A
100
AcDbEntity
  8
SEIHIN
  6
Continuous
 62
     3
 48
16.0
100
AcDbLine
 10
363.7359276820232
 20
182.763600218653
 30
0.0
 11
348.7359276820232
 21
182.763600218653
 31
0.0
  0
LINE
  5
704D
330
1A
100
AcDbEntity
  8
SEIHIN
  6
Continuous
 62
     3
 48
16.0
100
AcDbLine
 10
348.7359276820232
 20
182.763600218653
 30
0.0
 11
348.7359276820232
 21
186.263600218653
 31
0.0
  0
LINE
  5
704E
330
1A
100
AcDbEntity
  8
SEIHIN
  6
Continuous
 62
     3
 48
16.0
100
AcDbLine
 10
350.7359276820232
 20
182.763600218653
 30
0.0
 11
350.7359276820232
 21
181.263600218653
 31
0.0
  0
POINT
  5
704F
330
1A
100
AcDbEntity
  8
DEFPOINTS
  6
ByBlock
 62
     0
100
AcDbPoint
 10
369.2525163754279
 20
163.0636159996543
 30
0.0
  0
POINT
  5
7050
330
1A
100
AcDbEntity
  8
DEFPOINTS
  6
ByBlock
 62
     0
100
AcDbPoint
 10
385.7359276821394
 20
157.763600218653
 30
0.0
  0
ARC
  5
7051
330
1A
100
AcDbEntity
  8
SEIHIN
  6
Continuous
 62
     3
 48
16.0
100
AcDbCircle
 10
363.7359276820232
 20
182.263600218653
 30
0.0
 40
4.0
100
AcDbArc
 50
0.0
 51
90.0
  0
LINE
  5
7052
330
1A
100
AcDbEntity
  8
SEIHIN
  6
Continuous
 62
     3
 48
16.0
100
AcDbLine
 10
360.7359276820232
 20
181.263600218653
 30
0.0
 11
360.7359276820232
 21
182.763600218653
 31
0.0
  0
LINE
  5
7053
330
1A
100
AcDbEntity
  8
SEIHIN
  6
Continuous
 62
     3
 48
16.0
100
AcDbLine
 10
367.7359276820232
 20
179.263600218653
 30
0.0
 11
367.7359276820232
 21
182.263600218653
 31
0.0
  0
LINE
  5
7054
330
1A
100
AcDbEntity
  8
SEIHIN
  6
Continuous
 62
     3
 48
16.0
100
AcDbLine
 10
364.2359276820232
 20
179.263600218653
 30
0.0
 11
364.2359276820232
 21
182.263600218653
 31
0.0
  0
ARC
  5
7055
330
1A
100
AcDbEntity
  8
SEIHIN
  6
Continuous
 62
     3
 48
16.0
100
AcDbCircle
 10
363.7359276820232
 20
182.263600218653
 30
0.0
 40
0.5
100
AcDbArc
 50
0.0
 51
90.0
  0
LINE
  5
7056
330
1A
100
AcDbEntity
  8
SEIHIN
  6
Continuous
100
AcDbLine
 10
298.9750683820233
 20
217.464800218653
 30
0.0
 11
295.1115683820233
 21
244.955400218653
 31
0.0
  0
LINE
  5
7057
330
1A
100
AcDbEntity
  8
SEIHIN
  6
Continuous
100
AcDbLine
 10
298.1828537820233
 20
217.353563218653
 30
0.0
 11
294.3193537820233
 21
244.844063218653
 31
0.0
  0
LINE
  5
7058
330
1A
100
AcDbEntity
  8
SEIHIN
  6
Continuous
100
AcDbLine
 10
294.7169145820233
 20
216.866363718653
 30
0.0
 11
289.8484029820233
 21
251.508089418653
 31
0.0
  0
ARC
  5
7059
330
1A
100
AcDbEntity
  8
SEIHIN
  6
Continuous
100
AcDbCircle
 10
302.5847109820233
 20
199.8442091186529
 30
0.0
 40
2.500000040575564
100
AcDbArc
 50
8.000082018775951
 51
55.62472081819308
  0
ARC
  5
705A
330
1A
100
AcDbEntity
  8
SEIHIN
  6
Continuous
100
AcDbCircle
 10
316.3047665820233
 20
219.900402818653
 30
0.0
 40
17.50000317328302
100
AcDbArc
 50
187.9999103531443
 51
240.8509310814461
  0
ARC
  5
705B
330
1A
100
AcDbEntity
  8
SEIHIN
  6
Continuous
100
AcDbCircle
 10
316.3047665820233
 20
219.900402818653
 30
0.0
 40
18.30000320645417
100
AcDbArc
 50
187.9999105480376
 51
240.8507993450859
  0
ARC
  5
705C
330
1A
100
AcDbEntity
  8
SEIHIN
  6
Continuous
100
AcDbCircle
 10
316.3047665820233
 20
219.900402818653
 30
0.0
 40
21.80001707982018
100
AcDbArc
 50
188.0001707052629
 51
235.6247210942734
  0
ARC
  5
705D
330
1A
100
AcDbEntity
  8
SEIHIN
  6
Continuous
100
AcDbCircle
 10
306.5630805820233
 20
202.433282418653
 30
0.0
 40
1.700015386814822
100
AcDbArc
 50
7.999604691897575
 51
60.85167818265157
  0
ARC
  5
705E
330
1A
100
AcDbEntity
  8
SEIHIN
  6
Continuous
100
AcDbCircle
 10
306.5630947820233
 20
202.433292118653
 30
0.0
 40
2.500000012629856
100
AcDbArc
 50
8.000079749248522
 51
60.85093077883162
  0
ARC
  5
705F
330
1A
100
AcDbEntity
  8
SEIHIN
  6
Continuous
100
AcDbCircle
 10
285.2088849820233
 20
243.5635858186529
 30
0.0
 40
10.00001434611889
100
AcDbArc
 50
8.00047097826041
 51
90.00009511085774
  0
ARC
  5
7060
330
1A
100
AcDbEntity
  8
SEIHIN
  6
Continuous
100
AcDbCircle
 10
285.2088849820233
 20
243.5635858186529
 30
0.0
 40
9.200014365303503
100
AcDbArc
 50
8.000470899790729
 51
90.00009466244288
  0
LINE
  5
7061
330
1A
100
AcDbEntity
  8
SEIHIN
  6
Continuous
100
AcDbLine
 10
280.1988145820233
 20
253.563600218653
 30
0.0
 11
285.2088683820233
 21
253.563600218653
 31
0.0
  0
LINE
  5
7062
330
1A
100
AcDbEntity
  8
SEIHIN
  6
Continuous
100
AcDbLine
 10
280.1988683820233
 20
252.763600218653
 30
0.0
 11
285.2088683820233
 21
252.763600218653
 31
0.0
  0
ARC
  5
7063
330
1A
100
AcDbEntity
  8
SEIHIN
  6
Continuous
100
AcDbCircle
 10
280.1988145820233
 20
254.063600218653
 30
0.0
 40
0.4999999880343379
100
AcDbArc
 50
187.9998441109668
 51
270.0
  0
ARC
  5
7064
330
1A
100
AcDbEntity
  8
SEIHIN
  6
Continuous
100
AcDbCircle
 10
280.1988377820233
 20
254.063626818653
 30
0.0
 40
1.300026616183319
100
AcDbArc
 50
187.9926371249738
 51
270.0035126001435
  0
ELLIPSE
  5
7065
330
1A
100
AcDbEntity
  8
SEIHIN
100
AcDbEllipse
 10
295.1115684353937
 20
411.7433594559299
 30
0.0
 11
-4.470950792111069
 21
0.0
 31
0.0
210
0.0
220
0.0
230
-1.0
 40
0.6512195118635799
 41
4.71238898038469
 42
7.853981633974483
  0
ELLIPSE
  5
7066
330
1A
100
AcDbEntity
  8
SEIHIN
100
AcDbEllipse
 10
295.1115684353937
 20
421.7432840584296
 30
0.0
 11
-4.470950792111069
 21
0.0
 31
0.0
210
0.0
220
0.0
230
1.0
 40
0.6512195118635799
 41
4.71238898038469
 42
7.853981633974483
  0
DIMENSION
  5
7067
330
1A
100
AcDbEntity
  8
SUNPOU
100
AcDbDimension
  2
*D5
 10
236.9860834435045
 20
404.2432840571798
 30
0.0
 11
231.9860834435044
 21
416.7433217571798
 31
0.0
 70
    32
 71
     5
 42
-1.0
  3
STANDARD
100
AcDbAlignedDimension
 13
272.2350842820233
 23
429.2433594571797
 33
0.0
 14
272.2350842820233
 24
404.2432840571798
 34
0.0
 50
90.0
100
AcDbRotatedDimension
1001
ACAD
1000
DSTYLE
1002
{
1070
    41
1040
6.0
1070
    42
1040
6.0
1070
    43
1040
14.0
1070
    44
1040
3.0
1070
    73
1070
     0
1070
    74
1070
     0
1070
    77
1070
     3
1070
   140
1040
6.0
1070
   141
1040
10.0
1070
   147
1040
2.0
1070
   172
1070
     1
1070
   173
1070
     1
1070
   176
1070
   256
1070
   177
1070
   256
1070
   178
1070
   256
1070
   271
1070
     0
1070
   272
1070
     0
1070
   341
1005
6D
1070
     6
1000
OPEN
1070
     7
1000
OPEN
1002
}
  0
DIMENSION
  5
7068
330
1A
100
AcDbEntity
  8
SUNPOU
100
AcDbDimension
  2
*D6
 10
267.5866524589201
 20
334.4721965010835
 30
0.0
 11
250.5514662948837
 21
337.1278381103041
 31
0.0
 70
    33
  1
t0.8
 71
     5
 42
-1.0
  3
STANDARD
100
AcDbAlignedDimension
 13
272.5273029820233
 23
305.057610318653
 33
0.0
 14
271.7350842820233
 24
304.946302418653
 34
0.0
1001
ACAD
1000
DSTYLE
1002
{
1070
    41
1040
3.0
1070
    42
1040
6.0
1070
    43
1040
14.0
1070
    44
1040
3.0
1070
    73
1070
     0
1070
    74
1070
     0
1070
    77
1070
     3
1070
   140
1040
6.0
1070
   141
1040
10.0
1070
   147
1040
2.0
1070
   172
1070
     1
1070
   173
1070
     1
1070
   176
1070
   256
1070
   177
1070
   256
1070
   178
1070
   256
1070
   271
1070
     2
1070
   272
1070
     0
1070
   341
1005
6D
1070
     6
1000
OPEN
1070
     7
1000
OPEN
1002
}
  0
DIMENSION
  5
7069
330
1A
100
AcDbEntity
  8
SUNPOU
100
AcDbDimension
  2
*D7
 10
169.1144753963387
 20
351.7427395502218
 30
0.0
 11
156.6144376963387
 21
356.7427395502218
 31
0.0
 70
    32
 71
     5
 42
-1.0
  3
STANDARD
100
AcDbAlignedDimension
 13
144.1143999963387
 23
303.9463020186529
 33
0.0
 14
169.1144753963387
 24
303.9463020186529
 34
0.0
100
AcDbRotatedDimension
1001
ACAD
1000
DSTYLE
1002
{
1070
    41
1040
6.0
1070
    42
1040
6.0
1070
    43
1040
14.0
1070
    44
1040
3.0
1070
    73
1070
     0
1070
    74
1070
     0
1070
    77
1070
     3
1070
   140
1040
6.0
1070
   141
1040
10.0
1070
   147
1040
2.0
1070
   172
1070
     1
1070
   173
1070
     1
1070
   176
1070
   256
1070
   177
1070
   256
1070
   178
1070
   256
1070
   271
1070
     0
1070
   272
1070
     0
1070
   341
1005
6D
1070
     6
1000
OPEN
1070
     7
1000
OPEN
1002
}
  0
ARC
  5
706A
330
1A
100
AcDbEntity
  8
SEIHIN
  6
Continuous
100
AcDbCircle
 10
147.1143999963387
 20
301.9463020186529
 30
0.0
 40
2.999999970329328
100
AcDbArc
 50
278.2132103139904
 51
89.99999045070344
  0
ARC
  5
706B
330
1A
100
AcDbEntity
  8
SEIHIN
  6
Continuous
100
AcDbCircle
 10
147.1143999963387
 20
301.9463020186529
 30
0.0
 40
2.999999970329328
100
AcDbArc
 50
278.2132103139904
 51
89.99999045070344
  0
ARC
  5
706C
330
1A
100
AcDbEntity
  8
SEIHIN
  6
Continuous
100
AcDbCircle
 10
147.6143999963387
 20
298.482200418653
 30
0.0
 40
0.5000000221794436
100
AcDbArc
 50
98.21321327602622
 51
180.0
  0
ARC
  5
706D
330
1A
100
AcDbEntity
  8
SEIHIN
  6
Continuous
100
AcDbCircle
 10
145.1143999963387
 20
303.9463020186529
 30
0.0
 40
1.0
100
AcDbArc
 50
90.0
 51
180.0
  0
ARC
  5
706E
330
1A
100
AcDbEntity
  8
SEIHIN
  6
Continuous
100
AcDbCircle
 10
145.1143999963387
 20
303.9463020186529
 30
0.0
 40
1.0
100
AcDbArc
 50
90.0
 51
180.0
  0
LINE
  5
706F
330
1A
100
AcDbEntity
  8
SEIHIN
  6
Continuous
100
AcDbLine
 10
147.1144004963387
 20
304.9463020186529
 30
0.0
 11
145.1143999963387
 21
304.9463020186529
 31
0.0
  0
LINE
  5
7070
330
1A
100
AcDbEntity
  8
SEIHIN
  6
Continuous
100
AcDbLine
 10
147.1144004963387
 20
304.9463020186529
 30
0.0
 11
145.1143999963387
 21
304.9463020186529
 31
0.0
  0
ARC
  5
7071
330
1A
100
AcDbEntity
  8
SEIHIN
  6
Continuous
100
AcDbCircle
 10
166.1144753963387
 20
301.9463020186529
 30
0.0
 40
2.999999970329307
100
AcDbArc
 50
90.0
 51
261.7867896860096
  0
ARC
  5
7072
330
1A
100
AcDbEntity
  8
SEIHIN
  6
Continuous
100
AcDbCircle
 10
166.1144753963387
 20
301.9463020186529
 30
0.0
 40
2.999999970329307
100
AcDbArc
 50
90.0
 51
261.7867896860096
  0
ARC
  5
7073
330
1A
100
AcDbEntity
  8
SEIHIN
  6
Continuous
100
AcDbCircle
 10
165.6144753963387
 20
298.482200418653
 30
0.0
 40
0.5000000221794436
100
AcDbArc
 50
0.0
 51
81.78678672397376
  0
ARC
  5
7074
330
1A
100
AcDbEntity
  8
SEIHIN
  6
Continuous
100
AcDbCircle
 10
165.6144753963387
 20
298.482200418653
 30
0.0
 40
0.5000000221794436
100
AcDbArc
 50
0.0
 51
81.78678672397376
  0
ARC
  5
7075
330
1A
100
AcDbEntity
  8
SEIHIN
  6
Continuous
100
AcDbCircle
 10
168.1144753963387
 20
303.9463020186529
 30
0.0
 40
1.0
100
AcDbArc
 50
0.0
 51
90.0
  0
ARC
  5
7076
330
1A
100
AcDbEntity
  8
SEIHIN
  6
Continuous
100
AcDbCircle
 10
168.1144753963387
 20
303.9463020186529
 30
0.0
 40
1.0
100
AcDbArc
 50
0.0
 51
90.0
  0
LINE
  5
7077
330
1A
100
AcDbEntity
  8
SEIHIN
  6
Continuous
100
AcDbLine
 10
166.1144753963387
 20
304.9463020186529
 30
0.0
 11
168.1144753963387
 21
304.9463020186529
 31
0.0
  0
LINE
  5
7078
330
1A
100
AcDbEntity
  8
SEIHIN
  6
Continuous
100
AcDbLine
 10
166.1144753963387
 20
304.9463020186529
 30
0.0
 11
168.1144753963387
 21
304.9463020186529
 31
0.0
  0
LINE
  5
7079
330
1A
100
AcDbEntity
  8
SEIHIN
  6
Continuous
100
AcDbLine
 10
272.5273029820233
 20
305.057610318653
 30
0.0
 11
271.7350842820233
 21
304.946302418653
 31
0.0
  0
LINE
  5
707A
330
1A
100
AcDbEntity
  8
SEIHIN
100
AcDbLine
 10
295.1115684353937
 20
414.6549298483345
 30
0.0
 11
349.0548773887522
 21
414.6549298483344
 31
0.0
  0
LINE
  5
707B
330
1A
100
AcDbEntity
  8
SEIHIN
100
AcDbLine
 10
295.1115684353937
 20
418.831713666025
 30
0.0
 11
349.0548632532675
 21
418.8317136660249
 31
0.0
  0
LINE
  5
707C
330
1A
100
AcDbEntity
  8
SEIHIN
100
AcDbLine
 10
310.7558578668818
 20
424.6548544508342
 30
0.0
 11
310.7558578668818
 21
429.2433594571797
 31
0.0
  0
LINE
  5
707D
330
1A
100
AcDbEntity
  8
SEIHIN
100
AcDbLine
 10
279.7641700327265
 20
404.2432840571797
 30
0.0
 11
279.7641700327265
 21
429.2433594571797
 31
0.0
  0
LINE
  5
707E
330
1A
100
AcDbEntity
  8
SEIHIN
100
AcDbLine
 10
293.9017810110674
 20
424.5462387020427
 30
0.0
 11
293.9017810110674
 21
429.2433594571797
 31
0.0
  0
LINE
  5
707F
330
1A
100
AcDbEntity
  8
SEIHIN
100
AcDbLine
 10
308.858534435634
 20
424.6548544508343
 30
0.0
 11
308.858534435634
 21
429.2433594571797
 31
0.0
  0
ARC
  5
7080
330
1A
100
AcDbEntity
  8
SEIHIN
100
AcDbCircle
 10
272.2350842820233
 20
428.7433594571797
 30
0.0
 40
0.5
100
AcDbArc
 50
90.0
 51
180.0
  0
ARC
  5
7081
330
1A
100
AcDbEntity
  8
SEIHIN
100
AcDbCircle
 10
273.0273029820232
 20
428.7433594571797
 30
0.0
 40
0.5
100
AcDbArc
 50
90.0
 51
180.0
  0
LINE
  5
7082
330
1A
100
AcDbEntity
  8
SEIHIN
100
AcDbLine
 10
272.5273029820233
 20
409.5560268693052
 30
0.0
 11
272.5273029820232
 21
404.7432840571798
 31
0.0
  0
LINE
  5
7083
330
1A
100
AcDbEntity
  8
SEIHIN
100
AcDbLine
 10
271.7350842820233
 20
409.5560268693052
 30
0.0
 11
271.7350842820233
 21
404.7432840571798
 31
0.0
  0
ARC
  5
7084
330
1A
100
AcDbEntity
  8
SEIHIN
100
AcDbCircle
 10
272.2350842820233
 20
404.7432840571798
 30
0.0
 40
0.5
100
AcDbArc
 50
180.0
 51
270.0
  0
ARC
  5
7085
330
1A
100
AcDbEntity
  8
SEIHIN
100
AcDbCircle
 10
273.0273029820232
 20
404.7432840571798
 30
0.0
 40
0.5
100
AcDbArc
 50
180.0
 51
270.0
  0
LINE
  5
7086
330
1A
100
AcDbEntity
  8
SEIHIN
100
AcDbLine
 10
272.1723414402272
 20
409.9932840275091
 30
0.0
 11
272.9645601402272
 21
409.993284027509
 31
0.0
  0
LINE
  5
7087
330
1A
100
AcDbEntity
  8
SEIHIN
100
AcDbLine
 10
272.1723414402272
 20
423.4933594868504
 30
0.0
 11
272.9645601402272
 21
423.4933594868505
 31
0.0
  0
ARC
  5
7088
330
1A
100
AcDbEntity
  8
SEIHIN
100
AcDbCircle
 10
272.1723414402272
 20
409.5560268693052
 30
0.0
 40
0.43725715820392
100
AcDbArc
 50
90.0
 51
180.0
  0
ARC
  5
7089
330
1A
100
AcDbEntity
  8
SEIHIN
100
AcDbCircle
 10
272.1723414402272
 20
423.9306166450543
 30
0.0
 40
0.43725715820392
100
AcDbArc
 50
180.0
 51
270.0
  0
LINE
  5
708A
330
1A
100
AcDbEntity
  8
SEIHIN
100
AcDbLine
 10
271.7350842820233
 20
423.9306166450543
 30
0.0
 11
271.7350842820233
 21
428.7433594571797
 31
0.0
  0
LINE
  5
708B
330
1A
100
AcDbEntity
  8
SEIHIN
100
AcDbLine
 10
277.4139190068646
 20
407.4932840571798
 30
0.0
 11
277.4139190068647
 21
425.9933594571796
 31
0.0
  0
ARC
  5
708C
330
1A
100
AcDbEntity
  8
SEIHIN
100
AcDbCircle
 10
272.9645601402272
 20
409.5064459917717
 30
0.0
 40
0.4868380357374349
100
AcDbArc
 50
0.0
 51
90.0
  0
ARC
  5
708D
330
1A
100
AcDbEntity
  8
SEIHIN
100
AcDbCircle
 10
272.9645601402272
 20
409.5560268693052
 30
0.0
 40
0.43725715820392
100
AcDbArc
 50
90.0
 51
180.0
  0
ARC
  5
708E
330
1A
100
AcDbEntity
  8
SEIHIN
100
AcDbCircle
 10
273.9513981759646
 20
407.4932840571799
 30
0.0
 40
0.5
100
AcDbArc
 50
180.0
 51
270.0
  0
ARC
  5
708F
330
1A
100
AcDbEntity
  8
SEIHIN
100
AcDbCircle
 10
276.9139190068647
 20
407.4932840571798
 30
0.0
 40
0.5
100
AcDbArc
 50
270.0
 51
0.0
  0
LINE
  5
7090
330
1A
100
AcDbEntity
  8
SEIHIN
100
AcDbLine
 10
273.9513981759646
 20
406.9932840571799
 30
0.0
 11
276.9139190068647
 21
406.9932840571798
 31
0.0
  0
LINE
  5
7091
330
1A
100
AcDbEntity
  8
SEIHIN
100
AcDbLine
 10
273.4513981759646
 20
409.5064459917717
 30
0.0
 11
273.4513981759646
 21
407.4932840571799
 31
0.0
  0
ARC
  5
7092
330
1A
100
AcDbEntity
  8
SEIHIN
100
AcDbCircle
 10
276.9139190068647
 20
425.9933594571796
 30
0.0
 40
0.5
100
AcDbArc
 50
0.0
 51
90.0
  0
ARC
  5
7093
330
1A
100
AcDbEntity
  8
SEIHIN
100
AcDbCircle
 10
273.9513981759646
 20
425.9933594571796
 30
0.0
 40
0.5
100
AcDbArc
 50
90.0
 51
180.0
  0
ARC
  5
7094
330
1A
100
AcDbEntity
  8
SEIHIN
100
AcDbCircle
 10
272.9645601402272
 20
423.9801975225878
 30
0.0
 40
0.4868380357374349
100
AcDbArc
 50
270.0
 51
0.0
  0
ARC
  5
7095
330
1A
100
AcDbEntity
  8
SEIHIN
100
AcDbCircle
 10
272.9645601402272
 20
423.9306166450543
 30
0.0
 40
0.43725715820392
100
AcDbArc
 50
180.0
 51
270.0
  0
LINE
  5
7096
330
1A
100
AcDbEntity
  8
SEIHIN
100
AcDbLine
 10
273.4513981759646
 20
423.9801975225878
 30
0.0
 11
273.4513981759646
 21
425.9933594571796
 31
0.0
  0
LINE
  5
7097
330
1A
100
AcDbEntity
  8
SEIHIN
100
AcDbLine
 10
273.9513981759646
 20
426.4933594571796
 30
0.0
 11
276.9139190068647
 21
426.4933594571796
 31
0.0
  0
LINE
  5
7098
330
1A
100
AcDbEntity
  8
SEIHIN
100
AcDbLine
 10
272.5273029820233
 20
423.9306166450543
 30
0.0
 11
272.5273029820232
 21
428.7433594571797
 31
0.0
  0
LINE
  5
7099
330
1A
100
AcDbEntity
  8
SEIHIN
100
AcDbLine
 10
310.7558578668819
 20
404.2432840571797
 30
0.0
 11
310.7558578668818
 21
408.8317890635252
 31
0.0
  0
LINE
  5
709A
330
1A
100
AcDbEntity
  8
SEIHIN
100
AcDbLine
 10
293.9017810110674
 20
404.2432840571797
 30
0.0
 11
293.9017810110674
 21
408.9404048123167
 31
0.0
  0
LINE
  5
709B
330
1A
100
AcDbEntity
  8
SEIHIN
100
AcDbLine
 10
308.8585344356341
 20
404.2432840571797
 30
0.0
 11
308.858534435634
 21
408.8317890635252
 31
0.0
  0
LINE
  5
709C
330
1A
100
AcDbEntity
  8
SEIHIN
100
AcDbLine
 10
293.9017810110674
 20
414.546314099543
 30
0.0
 11
293.9017810110674
 21
418.9403294148165
 31
0.0
  0
LINE
  5
709D
330
1A
100
AcDbEntity
  8
SEIHIN
100
AcDbLine
 10
310.7558578668818
 20
414.6549298483344
 30
0.0
 11
310.7558578668817
 21
418.8317136660249
 31
0.0
  0
LINE
  5
709E
330
1A
100
AcDbEntity
  8
SEIHIN
100
AcDbLine
 10
308.858534435634
 20
414.6549298483344
 30
0.0
 11
308.8585344356339
 21
418.8317136660249
 31
0.0
  0
ARC
  5
709F
330
1A
100
AcDbEntity
  8
SEIHIN
100
AcDbCircle
 10
310.4643935760303
 20
411.7433594559298
 30
0.0
 40
2.926122619229873
100
AcDbArc
 50
84.28342049197542
 51
275.7165795080246
  0
ARC
  5
70A0
330
1A
100
AcDbEntity
  8
SEIHIN
100
AcDbCircle
 10
308.5670701447825
 20
411.7433594559299
 30
0.0
 40
2.926122619229873
100
AcDbArc
 50
84.28342049197542
 51
275.7165795080246
  0
ARC
  5
70A1
330
1A
100
AcDbEntity
  8
SEIHIN
100
AcDbCircle
 10
310.4643935760301
 20
421.7432840584294
 30
0.0
 40
2.92612261923006
100
AcDbArc
 50
84.28342049197218
 51
275.7165795080278
  0
ARC
  5
70A2
330
1A
100
AcDbEntity
  8
SEIHIN
100
AcDbCircle
 10
308.5670701447823
 20
421.7432840584295
 30
0.0
 40
2.92612261923006
100
AcDbArc
 50
84.28342049197218
 51
275.7165795080278
  0
LINE
  5
70A3
330
1A
100
AcDbEntity
  8
CENTER L
100
AcDbLine
 10
355.7359276820233
 20
397.2432840571797
 30
0.0
 11
355.7359276820232
 21
436.2433594571796
 31
0.0
  0
ARC
  5
70A4
330
1A
100
AcDbEntity
  8
SEIHIN
  6
Continuous
 62
     3
 48
16.0
100
AcDbCircle
 10
355.7359276820232
 20
416.7433217571798
 30
0.0
 40
3.5
100
AcDbArc
 50
0.0
 51
180.0
  0
ARC
  5
70A5
330
1A
100
AcDbEntity
  8
SEIHIN
  6
Continuous
 62
     3
 48
16.0
100
AcDbCircle
 10
355.7359276820232
 20
416.7433217571798
 30
0.0
 40
5.0
100
AcDbArc
 50
0.0
 51
180.0
  0
ARC
  5
70A6
330
1A
100
AcDbEntity
  8
SEIHIN
  6
Continuous
 62
     3
 48
16.0
100
AcDbCircle
 10
355.7360605353413
 20
416.743344368324
 30
0.0
 40
6.999977388932751
100
AcDbArc
 50
17.35789299744776
 51
162.6421070025523
  0
ARC
  5
70A7
330
1A
100
AcDbEntity
  8
SEIHIN
  6
Continuous
 62
     3
 48
16.0
100
AcDbCircle
 10
355.7359926782085
 20
416.7433458485253
 30
0.0
 40
7.000024091433149
100
AcDbArc
 50
197.3581740146051
 51
342.6418259853957
  0
ARC
  5
70A8
330
1A
100
AcDbEntity
  8
SEIHIN
  6
Continuous
 62
     3
 48
16.0
100
AcDbCircle
 10
355.7359276820232
 20
416.7433217571798
 30
0.0
 40
3.5
100
AcDbArc
 50
180.0
 51
0.0
  0
ARC
  5
70A9
330
1A
100
AcDbEntity
  8
SEIHIN
  6
Continuous
 62
     3
 48
16.0
100
AcDbCircle
 10
355.7359276820232
 20
416.7433217571798
 30
0.0
 40
5.0
100
AcDbArc
 50
180.0
 51
0.0
  0
DIMENSION
  5
70AA
330
1A
100
AcDbEntity
  8
SUNPOU
  6
Continuous
 62
     4
100
AcDbDimension
  2
*D8
 10
556.2875936453485
 20
288.2340091975748
 30
0.0
 11
572.5361995153337
 21
300.1181501964809
 31
0.0
 70
    32
 71
     5
 42
-1.0
  3
STANDARD
100
AcDbAlignedDimension
 13
560.3573254017057
 23
251.1316631863394
 33
0.0
 14
569.6421897328283
 24
254.8453698646089
 34
0.0
 50
21.80013777286683
100
AcDbRotatedDimension
1001
ACAD
1000
DSTYLE
1002
{
1070
   140
1040
6.0
1070
    74
1070
     0
1070
   172
1070
     1
1070
    73
1070
     0
1070
   272
1070
     2
1070
    77
1070
     3
1070
    75
1070
     1
1070
   173
1070
     1
1070
   147
1040
2.0
1070
    42
1040
6.0
1070
    44
1040
3.0
1070
    43
1040
14.0
1070
   271
1070
     0
1070
   178
1070
     4
1070
   177
1070
     4
1070
   176
1070
     4
1070
   141
1040
150.0
1070
     7
1000
_OPEN
1070
     6
1000
_OPEN
1070
    41
1040
7.0
1002
}
  0
LEADER
  5
70AB
330
1A
100
AcDbEntity
  8
SUNPOU
  6
Continuous
 62
     4
100
AcDbLeader
  3
STANDARD
 74
     0
 40
6.0
 41
30.2
 76
     3
 10
563.0470365043249
 20
247.9172210719021
 30
0.0
 10
588.5874082439228
 20
289.7576352738399
 30
0.0
 10
590.9624398031702
 20
289.7576352738399
 30
0.0
1001
ACAD
1000
DSTYLE
1002
{
1070
     6
1000
OPEN
1070
    41
1040
7.0
1070
    42
1040
6.0
1070
    43
1040
14.0
1070
    44
1040
3.0
1070
    73
1070
     0
1070
    74
1070
     0
1070
    77
1070
     3
1070
   140
1040
6.0
1070
   141
1040
150.0
1070
   147
1040
2.0
1070
   172
1070
     1
1070
   173
1070
     1
1070
   176
1070
     4
1070
   177
1070
     4
1070
   178
1070
     4
1070
   271
1070
     0
1070
   272
1070
     2
1070
   341
1005
6D
1070
   343
1005
6D
1070
   344
1005
6D
1002
}
  0
LINE
  5
70AC
330
1A
100
AcDbEntity
  8
SUNPOU
  6
Continuous
 62
     4
 48
16.0
100
AcDbLine
 10
634.1663143992639
 20
274.7292120464098
 30
0.0
 11
654.1663143992637
 21
274.7292120464098
 31
0.0
  0
LINE
  5
70AD
330
1A
100
AcDbEntity
  8
SUNPOU
  6
Continuous
 62
     4
 48
16.0
100
AcDbLine
 10
654.1663143992637
 20
282.7292120464098
 30
0.0
 11
634.1663143992639
 21
274.7292120464098
 31
0.0
  0
DIMENSION
  5
70AE
330
1A
100
AcDbEntity
  8
SUNPOU
  6
Continuous
 62
     4
100
AcDbDimension
  2
*D9
 10
547.0027293142276
 20
284.5203025193062
 30
0.0
 11
517.291346330285
 21
278.0216312925219
 31
0.0
 70
    33
 71
     5
 42
-1.0
  3
STANDARD
100
AcDbAlignedDimension
 13
504.64826011559
 23
228.8494713938625
 33
0.0
 14
560.3573254017055
 24
251.1316631863393
 34
0.0
1001
ACAD
1000
DSTYLE
1002
{
1070
   140
1040
6.0
1070
    74
1070
     0
1070
   172
1070
     1
1070
    73
1070
     0
1070
   272
1070
     2
1070
    77
1070
     3
1070
   173
1070
     1
1070
   147
1040
2.0
1070
    42
1040
6.0
1070
    44
1040
3.0
1070
    43
1040
14.0
1070
   271
1070
     0
1070
   178
1070
     4
1070
   177
1070
     4
1070
   176
1070
     4
1070
   141
1040
150.0
1070
     7
1000
_OPEN
1070
     6
1000
_OPEN
1070
    41
1040
7.0
1002
}
  0
LINE
  5
70AF
330
1A
100
AcDbEntity
  8
SEIHIN
  6
Continuous
 62
     3
 48
16.0
100
AcDbLine
 10
569.6421897328281
 20
254.8453698646088
 30
0.0
 11
424.2332276820232
 21
196.6855288383667
 31
0.0
  0
LINE
  5
70B0
330
1A
100
AcDbEntity
  8
SEIHIN
  6
Continuous
 62
     3
 48
16.0
100
AcDbLine
 10
573.7272783936118
 20
244.6318481952866
 30
0.0
 11
420.7783928500041
 21
183.4565366269997
 31
0.0
  0
LINE
  5
70B1
330
1A
100
AcDbEntity
  8
CENTER L
  6
CENTER
 62
     1
100
AcDbLine
 10
405.0968217421097
 20
183.1080188416256
 30
0.0
 11
575.8618697183644
 21
251.409115036366
 31
0.0
  0
ARC
  5
70B2
330
1A
100
AcDbEntity
  8
SEIHIN
100
AcDbCircle
 10
428.2044106967831
 20
187.0055758145555
 30
0.0
 40
10.46287652034121
100
AcDbArc
 50
112.3058009439246
 51
157.5737460515303
  0
LINE
  5
70B3
330
1A
100
AcDbEntity
  8
SEIHIN
  6
Continuous
100
AcDbLine
 10
400.7806694820233
 20
191.037432218653
 30
0.0
 11
402.6807167820233
 21
227.292494418653
 31
0.0
  0
LINE
  5
70B4
330
1A
100
AcDbEntity
  8
SEIHIN
  6
Continuous
100
AcDbLine
 10
401.5795731820233
 20
190.995563418653
 30
0.0
 11
403.4654123820233
 21
226.979519818653
 31
0.0
  0
LINE
  5
70B5
330
1A
100
AcDbEntity
  8
SEIHIN
  6
Continuous
100
AcDbLine
 10
405.0747764820233
 20
190.812387618653
 30
0.0
 11
407.0852547820233
 21
229.174597918653
 31
0.0
  0
ARC
  5
70B6
330
1A
100
AcDbEntity
  8
SEIHIN
  6
Continuous
 62
     3
 48
16.0
100
AcDbCircle
 10
419.3009597132752
 20
187.1737258168723
 30
0.0
 40
4.00003801817068
100
AcDbArc
 50
270.1427794256156
 51
291.7981874522994
  0
ARC
  5
70B7
330
1A
100
AcDbEntity
  8
SEIHIN
  6
Continuous
 62
     3
 48
16.0
100
AcDbCircle
 10
419.3778218063451
 20
156.6738197911179
 30
0.0
 40
29.99997331704212
100
AcDbArc
 50
88.30072731868745
 51
115.1933022317378
  0
ARC
  5
70B8
330
1A
100
AcDbEntity
  8
SEIHIN
  6
Continuous
 62
     3
 48
16.0
100
AcDbCircle
 10
408.7359417779835
 20
179.2957224275736
 30
0.0
 40
5.000014096009591
100
AcDbArc
 50
115.1938153071989
 51
180.0002544947651
  0
ARC
  5
70B9
330
1A
100
AcDbEntity
  8
SEIHIN
  6
Continuous
100
AcDbCircle
 10
400.2813547820233
 20
191.063600218653
 30
0.0
 40
4.799999966897381
100
AcDbArc
 50
270.0
 51
356.9999998386485
  0
ARC
  5
70BA
330
1A
100
AcDbEntity
  8
SEIHIN
  6
Continuous
100
AcDbCircle
 10
400.2813547820233
 20
191.063600218653
 30
0.0
 40
0.5000000038947732
100
AcDbArc
 50
270.0
 51
356.9999975074562
  0
ARC
  5
70BB
330
1A
100
AcDbEntity
  8
SEIHIN
  6
Continuous
100
AcDbCircle
 10
400.2813547820233
 20
191.063600218653
 30
0.0
 40
1.300000003894773
100
AcDbArc
 50
270.0
 51
356.9999975074562
  0
ARC
  5
70BC
330
1A
100
AcDbEntity
  8
SEIHIN
  6
Continuous
 62
     3
 48
16.0
100
AcDbCircle
 10
419.3777016679746
 20
156.673794200226
 30
0.0
 40
26.499990146237
100
AcDbArc
 50
90.14437256782846
 51
115.9082465232005
  0
LINE
  5
70BD
330
1A
100
AcDbEntity
  8
SEIHIN
  6
Continuous
 62
     3
 48
16.0
100
AcDbLine
 10
407.2359276820232
 20
179.263600218653
 30
0.0
 11
407.2359276820232
 21
179.6109002186529
 31
0.0
  0
ARC
  5
70BE
330
1A
100
AcDbEntity
  8
SEIHIN
  6
Continuous
 62
     3
 48
16.0
100
AcDbCircle
 10
408.2359231470025
 20
179.6108929742618
 30
0.0
 40
0.9999954650055812
100
AcDbArc
 50
115.906092924597
 51
179.9995849250791
  0
LINE
  5
70BF
330
1A
100
AcDbEntity
  8
SEIHIN
  6
Continuous
 62
     3
 48
16.0
100
AcDbLine
 10
403.7359276820232
 20
179.263600218653
 30
0.0
 11
403.7359276820232
 21
179.2957002186529
 31
0.0
  0
ARC
  5
70C0
330
1A
100
AcDbEntity
  8
SEIHIN
  6
Continuous
 62
     3
 48
16.0
100
AcDbCircle
 10
397.2092153324725
 20
212.0992649391838
 30
0.0
 40
29.9999633254162
100
AcDbArc
 50
297.5843729122049
 51
315.2990610939124
  0
ARC
  5
70C1
330
1A
100
AcDbEntity
  8
SEIHIN
  6
Continuous
 62
     3
 48
16.0
100
AcDbCircle
 10
417.8221816575892
 20
191.7006806708888
 30
0.0
 40
0.9999512581728337
100
AcDbArc
 50
315.2903230635689
 51
315.296088715675
  0
ARC
  5
70C2
330
1A
100
AcDbEntity
  8
SEIHIN
  6
Continuous
 62
     3
 48
16.0
100
AcDbCircle
 10
424.6045061280083
 20
195.7571005177377
 30
0.0
 40
9.999925081735734
100
AcDbArc
 50
246.6104299547353
 51
291.7998211711687
  0
ARC
  5
70C3
330
1A
100
AcDbEntity
  8
SEIHIN
  6
Continuous
 62
     3
 48
16.0
100
AcDbCircle
 10
420.2378147941111
 20
185.6609808339518
 30
0.0
 40
1.000057917023228
100
AcDbArc
 50
66.61610539990392
 51
88.3031567321039
  0
LINE
  5
70C4
330
1A
100
AcDbEntity
  8
SEIHIN
  6
Continuous
100
AcDbLine
 10
409.6949248820233
 20
252.105052118653
 30
0.0
 11
409.6949248820233
 21
231.8937272186529
 31
0.0
  0
LINE
  5
70C5
330
1A
100
AcDbEntity
  8
SEIHIN
  6
Continuous
100
AcDbLine
 10
410.4949248820233
 20
252.105052118653
 30
0.0
 11
410.4949248820233
 21
231.8937272186529
 31
0.0
  0
ARC
  5
70C6
330
1A
100
AcDbEntity
  8
SEIHIN
  6
Continuous
100
AcDbCircle
 10
403.6651382820233
 20
226.969052618653
 30
0.0
 40
0.2000000050908014
100
AcDbArc
 50
119.9999972436328
 51
176.9999973921265
  0
LINE
  5
70C7
330
1A
100
AcDbEntity
  8
SEIHIN
  6
Continuous
100
AcDbLine
 10
402.9300315820233
 20
227.699339118653
 30
0.0
 11
409.4449248820233
 21
231.460714518653
 31
0.0
  0
ARC
  5
70C8
330
1A
100
AcDbEntity
  8
SEIHIN
  6
Continuous
100
AcDbCircle
 10
403.1800315820233
 20
227.266326418653
 30
0.0
 40
0.5000000160421705
100
AcDbArc
 50
120.0000001084143
 51
176.9999976919904
  0
ARC
  5
70C9
330
1A
100
AcDbEntity
  8
SEIHIN
  6
Continuous
100
AcDbCircle
 10
409.1949248820233
 20
231.8937272186529
 30
0.0
 40
0.499999999180623
100
AcDbArc
 50
300.000000108418
 51
0.0
  0
ARC
  5
70CA
330
1A
100
AcDbEntity
  8
SEIHIN
  6
Continuous
100
AcDbCircle
 10
409.1949248820233
 20
231.8937272186529
 30
0.0
 40
1.299999989209419
100
AcDbArc
 50
300.000000549153
 51
0.0
  0
LINE
  5
70CB
330
1A
100
AcDbEntity
  8
SEIHIN
  6
Continuous
100
AcDbLine
 10
403.5651382820233
 20
227.142257718653
 30
0.0
 11
409.8449248820233
 21
230.7678942186529
 31
0.0
  0
LINE
  5
70CC
330
1A
100
AcDbEntity
  8
SEIHIN
  6
Continuous
100
AcDbLine
 10
402.4020316820233
 20
252.605052118653
 30
0.0
 11
409.1949248820233
 21
252.605052118653
 31
0.0
  0
LINE
  5
70CD
330
1A
100
AcDbEntity
  8
SEIHIN
  6
Continuous
100
AcDbLine
 10
402.4020316820233
 20
253.405052118653
 30
0.0
 11
409.1949248820233
 21
253.405052118653
 31
0.0
  0
LINE
  5
70CE
330
1A
100
AcDbEntity
  8
SEIHIN
  6
Continuous
100
AcDbLine
 10
401.482792862207
 20
253.0242908487351
 30
0.0
 11
395.9723851622069
 21
247.5138832487351
 31
0.0
  0
ARC
  5
70CF
330
1A
100
AcDbEntity
  8
SEIHIN
  6
Continuous
100
AcDbCircle
 10
402.4020316820233
 20
252.105052118653
 30
0.0
 40
0.4999999712962173
100
AcDbArc
 50
90.0
 51
135.0000081028493
  0
ARC
  5
70D0
330
1A
100
AcDbEntity
  8
SEIHIN
  6
Continuous
100
AcDbCircle
 10
402.4020316820233
 20
252.105052118653
 30
0.0
 40
1.299999989009792
100
AcDbArc
 50
90.0
 51
135.0
  0
LINE
  5
70D1
330
1A
100
AcDbEntity
  8
SEIHIN
  6
Continuous
100
AcDbLine
 10
395.8309638820233
 20
247.655304618653
 30
0.0
 11
395.3458563820233
 21
248.283240018653
 31
0.0
  0
LINE
  5
70D2
330
1A
100
AcDbEntity
  8
SEIHIN
  6
Continuous
100
AcDbLine
 10
396.5380705820233
 20
246.9481978186529
 30
0.0
 11
395.8309638820233
 21
247.655304618653
 31
0.0
  0
LINE
  5
70D3
330
1A
100
AcDbEntity
  8
SEIHIN
  6
Continuous
100
AcDbLine
 10
401.4827928820233
 20
253.024290918653
 30
0.0
 11
395.3458563820233
 21
248.283240018653
 31
0.0
  0
LINE
  5
70D4
330
1A
100
AcDbEntity
  8
SEIHIN
  6
Continuous
100
AcDbLine
 10
395.8309638820233
 20
247.655304618653
 30
0.0
 11
402.0484782820233
 21
252.458605418653
 31
0.0
  0
LINE
  5
70D5
330
1A
100
AcDbEntity
  8
SEIHIN
  6
Continuous
100
AcDbLine
 10
402.0484782820233
 20
252.458605418653
 30
0.0
 11
396.5380705820233
 21
246.9481978186529
 31
0.0
  0
ARC
  5
70D6
330
1A
100
AcDbEntity
  8
SEIHIN
  6
Continuous
100
AcDbCircle
 10
409.1949248820233
 20
252.105052118653
 30
0.0
 40
0.5
100
AcDbArc
 50
0.0
 51
90.0
  0
ARC
  5
70D7
330
1A
100
AcDbEntity
  8
SEIHIN
  6
Continuous
100
AcDbCircle
 10
409.1949248820233
 20
252.105052118653
 30
0.0
 40
1.300000000000004
100
AcDbArc
 50
0.0
 51
90.0
  0
LINE
  5
70D8
330
1A
100
AcDbEntity
  8
CENTER L
  6
CENTER
 62
     1
 48
5.0
100
AcDbLine
 10
504.8340078593921
 20
228.3850745250647
 30
0.0
 11
508.5477078593923
 21
219.1002745250648
 31
0.0
  0
CIRCLE
  5
70D9
330
1A
100
AcDbEntity
  8
SEIHIN
100
AcDbCircle
 10
506.6908475484569
 20
223.7427003039301
 30
0.0
 40
1.75
  0
DIMENSION
  5
70DA
330
1A
100
AcDbEntity
  8
SUNPOU
  6
Continuous
 62
     4
100
AcDbDimension
  2
*D10
 10
604.2810192778089
 20
256.852387248477
 30
0.0
 11
606.8809085571546
 21
263.8159760717193
 31
0.0
 70
    33
 71
     5
 42
-1.0
  3
STANDARD
100
AcDbAlignedDimension
 13
569.6421897328281
 23
254.8453698646088
 33
0.0
 14
573.7272783936118
 24
244.6318481952868
 34
0.0
1001
ACAD
1000
DSTYLE
1002
{
1070
   140
1040
6.0
1070
    74
1070
     0
1070
   172
1070
     1
1070
    73
1070
     0
1070
   272
1070
     2
1070
    77
1070
     3
1070
   173
1070
     1
1070
   147
1040
2.0
1070
    42
1040
6.0
1070
    44
1040
3.0
1070
    43
1040
14.0
1070
   271
1070
     0
1070
   178
1070
     4
1070
   177
1070
     4
1070
   176
1070
     4
1070
   141
1040
150.0
1070
     7
1000
_OPEN
1070
     6
1000
_OPEN
1070
    41
1040
7.0
1002
}
  0
LINE
  5
70DB
330
1A
100
AcDbEntity
  8
CENTER L
  6
CENTER
 62
     1
 48
5.0
100
AcDbLine
 10
560.5431078593921
 20
250.6671745250649
 30
0.0
 11
564.2568078593923
 21
241.3822745250648
 31
0.0
  0
CIRCLE
  5
70DC
330
1A
100
AcDbEntity
  8
SEIHIN
100
AcDbCircle
 10
562.3999530796425
 20
246.0247364752756
 30
0.0
 40
1.75
  0
LINE
  5
70DD
330
1A
100
AcDbEntity
  8
SEIHIN
  6
Continuous
 62
     3
 48
16.0
100
AcDbLine
 10
569.6421897328281
 20
254.8453698646088
 30
0.0
 11
573.7273511251193
 21
244.631666352274
 31
0.0
  0
TEXT
  5
70DE
330
1A
100
AcDbEntity
  8
SUNPOU
  6
Continuous
 62
     4
 48
16.0
100
AcDbText
 10
642.3018802161671
 20
264.8437489277886
 30
0.0
 40
6.0
  1
10
100
AcDbText
  0
LINE
  5
70DF
330
1A
100
AcDbEntity
  8
SUNPOU
  6
Continuous
 62
     4
 48
16.0
100
AcDbLine
 10
654.1663143992637
 20
274.7292120464098
 30
0.0
 11
654.1663143992637
 21
282.7292120464098
 31
0.0
  0
TEXT
  5
70E0
330
1A
100
AcDbEntity
  8
SUNPOU
  6
Continuous
 62
     4
 48
16.0
100
AcDbText
 10
658.9321143992638
 20
276.4371120464098
 30
0.0
 40
6.0
  1
4
100
AcDbText
  0
LINE
  5
70E1
330
1A
100
AcDbEntity
  8
SEIHIN
  6
Continuous
 62
     3
 48
16.0
100
AcDbLine
 10
573.7273511251193
 20
414.99332175718
 30
0.0
 11
433.937424882023
 21
414.99332175718
 31
0.0
  0
LINE
  5
70E2
330
1A
100
AcDbEntity
  8
SEIHIN
  6
Continuous
 62
     3
 48
16.0
100
AcDbLine
 10
573.7273511251193
 20
418.4933217571798
 30
0.0
 11
434.2653248820232
 21
418.4933217571798
 31
0.0
  0
ARC
  5
70E3
330
1A
100
AcDbEntity
  8
SEIHIN
100
AcDbCircle
 10
275.9013152269093
 20
416.9933217571803
 30
0.0
 40
120.0710699352977
100
AcDbArc
 50
353.9044165160067
 51
5.855688673102089
  0
LINE
  5
70E4
330
1A
100
AcDbEntity
  8
SEIHIN
100
AcDbLine
 10
401.975659833961
 20
404.2432840571797
 30
0.0
 11
401.975659833961
 21
429.2433594571797
 31
0.0
  0
LINE
  5
70E5
330
1A
100
AcDbEntity
  8
SEIHIN
100
AcDbLine
 10
410.4949248820234
 20
404.2432840571797
 30
0.0
 11
410.4949248820233
 21
429.2433594571797
 31
0.0
  0
ARC
  5
70E6
330
1A
100
AcDbEntity
  8
SEIHIN
  6
Continuous
 62
     3
 48
16.0
100
AcDbCircle
 10
417.8693137084391
 20
417.2433264111841
 30
0.0
 40
4.999995346008266
100
AcDbArc
 50
44.77461181808874
 51
89.99987196004074
  0
LINE
  5
70E7
330
1A
100
AcDbEntity
  8
SEIHIN
  6
Continuous
 62
     3
 48
16.0
100
AcDbLine
 10
420.8390248820234
 20
422.2433217571798
 30
0.0
 11
410.4949248820233
 21
422.2433217571798
 31
0.0
  0
LINE
  5
70E8
330
1A
100
AcDbEntity
  8
SEIHIN
  6
Continuous
 62
     3
 48
16.0
100
AcDbLine
 10
420.8390248820234
 20
411.24332175718
 30
0.0
 11
410.4949248820233
 21
411.24332175718
 31
0.0
  0
ARC
  5
70E9
330
1A
100
AcDbEntity
  8
SEIHIN
  6
Continuous
 62
     3
 48
16.0
100
AcDbCircle
 10
435.616427954288
 20
434.8513201615564
 30
0.0
 40
20.00003481334507
100
AcDbArc
 50
224.774528641259
 51
260.3339744485022
  0
ARC
  5
70EA
330
1A
100
AcDbEntity
  8
SEIHIN
  6
Continuous
 62
     3
 48
16.0
100
AcDbCircle
 10
435.6163578860772
 20
398.635196369725
 30
0.0
 40
16.49999667241999
100
AcDbArc
 50
101.996772305301
 51
119.5101579315682
  0
ARC
  5
70EB
330
1A
100
AcDbEntity
  8
SEIHIN
  6
Continuous
 62
     3
 48
16.0
100
AcDbCircle
 10
420.8391508642611
 20
424.7433549372836
 30
0.0
 40
13.50003318069146
100
AcDbArc
 50
269.9994653160923
 51
299.5094586112987
  0
ARC
  5
70EC
330
1A
100
AcDbEntity
  8
SEIHIN
  6
Continuous
 62
     3
 48
16.0
100
AcDbCircle
 10
433.9369777110913
 20
424.9933595675359
 30
0.0
 40
10.00003782035402
100
AcDbArc
 50
260.336311674563
 51
270.002562091021
  0
ARC
  5
70ED
330
1A
100
AcDbEntity
  8
SEIHIN
  6
Continuous
 62
     3
 48
16.0
100
AcDbCircle
 10
434.2657245352082
 20
404.9933637521062
 30
0.0
 40
9.999958013059889
100
AcDbArc
 50
90.00228985369067
 51
101.9993643017546
  0
ARC
  5
70EE
330
1A
100
AcDbEntity
  8
SEIHIN
  6
Continuous
 62
     3
 48
16.0
100
AcDbCircle
 10
435.6163578860779
 20
434.8513471446348
 30
0.0
 40
16.49999667242034
100
AcDbArc
 50
240.4898420684282
 51
258.0032276946958
  0
ARC
  5
70EF
330
1A
100
AcDbEntity
  8
SEIHIN
  6
Continuous
 62
     3
 48
16.0
100
AcDbCircle
 10
420.8389856474321
 20
408.7433320905211
 30
0.0
 40
13.49998966671572
100
AcDbArc
 50
60.48963113209143
 51
89.99983348309432
  0
ARC
  5
70F0
330
1A
100
AcDbEntity
  8
SEIHIN
  6
Continuous
 62
     3
 48
16.0
100
AcDbCircle
 10
434.2652590924527
 20
428.4933286701751
 30
0.0
 40
10.00000691321163
100
AcDbArc
 50
258.0034215939901
 51
270.0003769462107
  0
LINE
  5
70F1
330
1A
100
AcDbEntity
  8
CENTER L
  6
CENTER
 48
5.0
100
AcDbLine
 10
506.6909805908996
 20
407.99332175718
 30
0.0
 11
506.6909805908996
 21
425.4933217571798
 31
0.0
  0
DIMENSION
  5
70F2
330
1A
100
AcDbEntity
  8
SUNPOU
  6
Continuous
 62
     4
100
AcDbDimension
  2
*D11
 10
600.4859624548036
 20
414.99332175718
 30
0.0
 11
595.4859624548035
 21
389.99332175718
 31
0.0
 70
    32
  1
{t<>}
 71
     5
 42
-1.0
  3
STANDARD
100
AcDbAlignedDimension
 13
573.7273511251193
 23
418.4933217571798
 33
0.0
 14
573.7273511251193
 24
414.99332175718
 34
0.0
 50
90.0
100
AcDbRotatedDimension
1001
ACAD
1000
DSTYLE
1002
{
1070
   140
1040
6.0
1070
    74
1070
     0
1070
   172
1070
     1
1070
    73
1070
     0
1070
   272
1070
     2
1070
    77
1070
     3
1070
   173
1070
     1
1070
   147
1040
2.0
1070
    42
1040
6.0
1070
    44
1040
3.0
1070
    43
1040
14.0
1070
   271
1070
     1
1070
   178
1070
     4
1070
   177
1070
     4
1070
   176
1070
     4
1070
   141
1040
150.0
1070
     7
1000
_OPEN
1070
     6
1000
_OPEN
1070
    41
1040
7.0
1002
}
  0
MTEXT
  5
70F3
330
1A
100
AcDbEntity
  8
SUNPOU
  6
Continuous
 62
     4
100
AcDbMText
 10
592.9624398031702
 20
291.7576352738399
 30
0.0
 40
6.0
 41
0.0
 71
     7
 72
     5
  1
2-φ3.5
 73
     1
 44
1.0
  0
LINE
  5
70F4
330
1A
100
AcDbEntity
  8
CENTER L
  6
CENTER
 48
5.0
100
AcDbLine
 10
562.4000805908996
 20
407.99332175718
 30
0.0
 11
562.4000805908996
 21
425.4933217571798
 31
0.0
  0
LINE
  5
70F5
330
1A
100
AcDbEntity
  8
SEIHIN
  6
Continuous
 62
     3
 48
16.0
100
AcDbLine
 10
573.7273511251193
 20
414.99332175718
 30
0.0
 11
573.7273511251193
 21
418.4933217571798
 31
0.0
  0
LINE
  5
70F6
330
1A
100
AcDbEntity
  8
SEIHIN
  6
Continuous
 62
     3
 48
16.0
100
AcDbLine
 10
569.6423511251193
 20
414.99332175718
 30
0.0
 11
569.6423511251193
 21
418.4933217571798
 31
0.0
  0
DIMENSION
  5
70F7
330
1A
100
AcDbEntity
  8
SUNPOU
100
AcDbDimension
  2
*D12
 10
591.2395682051928
 20
200.7320306729994
 30
0.0
 11
487.1495426696608
 21
164.5921246815253
 31
0.0
 70
    33
 71
     5
 42
-1.0
  3
STANDARD
100
AcDbAlignedDimension
 13
369.2525163754279
 23
163.0636159996543
 33
0.0
 14
573.7273511251193
 24
244.631666352274
 34
0.0
1001
ACAD
1000
DSTYLE
1002
{
1070
    41
1040
6.0
1070
    42
1040
6.0
1070
    43
1040
14.0
1070
    44
1040
3.0
1070
    73
1070
     0
1070
    74
1070
     0
1070
    77
1070
     3
1070
   140
1040
6.0
1070
   141
1040
10.0
1070
   147
1040
2.0
1070
   172
1070
     1
1070
   173
1070
     1
1070
   176
1070
   256
1070
   177
1070
   256
1070
   178
1070
   256
1070
   271
1070
     0
1070
   272
1070
     0
1070
   341
1005
6D
1070
     6
1000
OPEN
1070
     7
1000
OPEN
1002
}
  0
VIEWPORT
  5
22
330
17
100
AcDbEntity
 67
     1
  8
0
100
AcDbViewport
 10
313.6808219178082
 20
286.420032064001
 30
0.0
 40
627.3616438356164
 41
572.840064128002
 68
     2
 69
     1
 12
313.6808219178082
 22
286.420032064001
 13
0.0
 23
0.0
 14
1.0
 24
1.0
 15
10.0
 25
10.0
 16
0.0
 26
0.0
 36
1.0
 17
0.0
 27
0.0
 37
0.0
 42
50.0
 43
0.0
 44
0.0
 45
572.840064128002
 50
0.0
 51
0.0
 72
   100
 90
    32768
  1

281
     0
 71
     1
 74
     0
110
0.0
120
0.0
130
0.0
111
1.0
121
0.0
131
0.0
112
0.0
122
1.0
132
0.0
 79
     0
146
0.0
  0
VIEWPORT
  5
64
330
17
100
AcDbEntity
 67
     1
  8
VIEWPORT
100
AcDbViewport
 10
210.0
 20
148.5
 30
0.0
 40
420.0
 41
297.0
 68
     1
 69
     2
 12
420.0
 22
297.0
 13
0.0
 23
0.0
 14
10.0
 24
10.0
 15
0.0
 25
0.0
 16
0.0
 26
0.0
 36
1.0
 17
0.0
 27
0.0
 37
0.0
 42
50.0
 43
0.0
 44
0.0
 45
605.8799999999999
 50
0.0
 51
0.0
 72
   100
 90
    32768
  1

281
     0
 71
     1
 74
     0
110
0.0
120
0.0
130
0.0
111
1.0
121
0.0
131
0.0
112
0.0
122
1.0
132
0.0
 79
     0
146
0.0
  0
ENDSEC
  0
SECTION
  2
OBJECTS
  0
DICTIONARY
  5
C
330
0
100
AcDbDictionary
281
     1
  3
ACAD_GROUP
350
D
  3
ACAD_LAYOUT
350
A98
  3
ACAD_MLINESTYLE
350
E
  3
ACAD_PLOTSETTINGS
350
A99
  3
ACAD_PLOTSTYLENAME
350
A96
  0
DICTIONARY
  5
D
102
{ACAD_REACTORS
330
C
102
}
330
C
100
AcDbDictionary
281
     1
  3
*A1
350
FA3
  3
*A2
350
1597
  3
*A3
350
179D
  3
*A4
350
3390
  3
*A5
350
3A0A
  0
DICTIONARY
  5
A98
102
{ACAD_REACTORS
330
C
102
}
330
C
100
AcDbDictionary
281
     1
  3
Model
350
A9A
  3
ﾚｲｱｳﾄ1
350
A9B
  0
DICTIONARY
  5
E
102
{ACAD_REACTORS
330
C
102
}
330
C
100
AcDbDictionary
281
     1
  3
STANDARD
350
13
  0
DICTIONARY
  5
A99
102
{ACAD_REACTORS
330
C
102
}
330
C
100
AcDbDictionary
281
     1
  0
ACDBDICTIONARYWDFLT
  5
A96
102
{ACAD_REACTORS
330
C
102
}
330
C
100
AcDbDictionary
281
     1
  3
Normal
350
A97
100
AcDbDictionaryWithDefault
340
A97
1001
ACAD
1000
TREAT_AS_HARD
1070
     0
1000
TREAT_AS_HARD
1070
     0
1000
TREAT_AS_HARD
1070
     0
1000
TREAT_AS_HARD
1070
     0
  0
GROUP
  5
FA3
102
{ACAD_REACTORS
330
D
102
}
330
D
100
AcDbGroup
300

 70
     1
 71
     1
  0
GROUP
  5
1597
102
{ACAD_REACTORS
330
D
102
}
330
D
100
AcDbGroup
300

 70
     1
 71
     1
  0
GROUP
  5
179D
102
{ACAD_REACTORS
330
D
102
}
330
D
100
AcDbGroup
300

 70
     1
 71
     1
  0
GROUP
  5
3390
102
{ACAD_REACTORS
330
D
102
}
330
D
100
AcDbGroup
300

 70
     1
 71
     1
  0
GROUP
  5
3A0A
102
{ACAD_REACTORS
330
D
102
}
330
D
100
AcDbGroup
300

 70
     1
 71
     1
  0
LAYOUT
  5
A9A
102
{ACAD_REACTORS
330
A98
102
}
330
A98
100
AcDbPlotSettings
  1

  2
Adobe PDF
  4
A3
  6

 40
3.174999952316284
 41
3.174999952316284
 42
3.17498779296875
 43
3.17498779296875
 44
297.0318298339844
 45
420.1583251953125
 46
2.67
 47
2.85
 48
-8.09872987394283
 49
-9.441603207410708
140
808.114529312747
141
561.2334822198422
142
1.0
143
2.0
 70
 28340
 72
     1
 73
     1
 74
     4
  7
systemprinter.ctb
 75
    17
147
0.5
148
8.09872987394283
149
9.441603207410708
100
AcDbLayout
  1
Model
 70
     1
 71
     0
 10
0.0
 20
0.0
 11
12.0
 21
9.0
 12
0.0
 22
0.0
 32
0.0
 14
0.0
 24
0.0
 34
0.0
 15
0.0
 25
0.0
 35
0.0
146
0.0
 13
0.0
 23
0.0
 33
0.0
 16
1.0
 26
0.0
 36
0.0
 17
0.0
 27
1.0
 37
0.0
 76
     0
330
1A
  0
LAYOUT
  5
A9B
102
{ACAD_REACTORS
330
A98
102
}
330
A98
100
AcDbPlotSettings
  1

  2
C:\PROGRAM FILES\ACAD LT 2000\plotters\DWF ePlot.pc3
  4
ANSI_A_(8.50_x_11.00_Inches)
  6

 40
5.793749809265137
 41
17.79375076293945
 42
5.793746948242188
 43
17.79376220703125
 44
215.8999938964844
 45
279.3999938964844
 46
0.0
 47
0.0
 48
0.0
 49
0.0
140
0.0
141
0.0
142
1.0
143
43.75760864458461
 70
   688
 72
     0
 73
     1
 74
     1
  7
systemprinter.ctb
 75
     0
147
0.0228531684197454
148
0.3255366854427166
149
0.2302009418498301
100
AcDbLayout
  1
ﾚｲｱｳﾄ1
 70
     1
 71
     1
 10
-30.66685116754002
 20
-9.990190459854741
 11
450.6668334081172
 21
361.9494725043409
 12
0.0
 22
0.0
 32
0.0
 14
-0.0128164049386896
 24
-0.0090630292066862
 34
-0.0015258207003583
 15
420.0128183607162
 25
297.0090644122207
 35
0.0000000349246037
146
0.0
 13
0.0
 23
0.0
 33
0.0
 16
1.0
 26
0.0
 36
0.0
 17
0.0
 27
1.0
 37
0.0
 76
     0
330
17
331
64
  0
MLINESTYLE
  5
13
102
{ACAD_REACTORS
330
E
102
}
330
E
100
AcDbMlineStyle
  2
STANDARD
 70
     0
  3

 62
     0
 51
90.0
 52
90.0
 71
     2
 49
0.5
 62
   256
  6
BYLAYER
 49
-0.5
 62
   256
  6
BYLAYER
  0
ACDBPLACEHOLDER
  5
A97
102
{ACAD_REACTORS
330
A96
102
}
330
A96
  0
ENDSEC
  0
EOF
