  0
SECTION
  2
HEADER
  9
$ACADVER
  1
AC1014
  9
$ACADMAINTVER
 70
     9
  9
$DWGCODEPAGE
  3
ANSI_932
  9
$INSBASE
 10
0.0
 20
0.0
 30
0.0
  9
$EXTMIN
 10
-0.0256328098773793
 20
-0.0181260584133725
 30
-0.0000000100021362
  9
$EXTMAX
 10
797.6000995626677
 20
551.6452344880035
 30
0.0000000100021363
  9
$LIMMIN
 10
0.0
 20
0.0
  9
$LIMMAX
 10
840.0
 20
594.0
  9
$ORTHOMODE
 70
     0
  9
$REGENMODE
 70
     1
  9
$FILLMODE
 70
     1
  9
$QTEXTMODE
 70
     0
  9
$MIRRTEXT
 70
     1
  9
$DRAGMODE
 70
     2
  9
$LTSCALE
 40
2.0
  9
$OSMODE
 70
    35
  9
$ATTMODE
 70
     1
  9
$TEXTSIZE
 40
6.0
  9
$TRACEWID
 40
1.0
  9
$TEXTSTYLE
  7
STANDARD
  9
$CLAYER
  8
SEIHIN
  9
$CELTYPE
  6
BYLAYER
  9
$CECOLOR
 62
   256
  9
$CELTSCALE
 40
5.0
  9
$DELOBJ
 70
     1
  9
$DISPSILH
 70
     0
  9
$DIMSCALE
 40
1.0
  9
$DIMASZ
 40
7.0
  9
$DIMEXO
 40
6.0
  9
$DIMDLI
 40
14.0
  9
$DIMRND
 40
0.0
  9
$DIMDLE
 40
0.0
  9
$DIMEXE
 40
3.0
  9
$DIMTP
 40
0.0
  9
$DIMTM
 40
0.0
  9
$DIMTXT
 40
6.0
  9
$DIMCEN
 40
150.0
  9
$DIMTSZ
 40
0.0
  9
$DIMTOL
 70
     0
  9
$DIMLIM
 70
     0
  9
$DIMTIH
 70
     0
  9
$DIMTOH
 70
     0
  9
$DIMSE1
 70
     0
  9
$DIMSE2
 70
     0
  9
$DIMTAD
 70
     3
  9
$DIMZIN
 70
     0
  9
$DIMBLK
  1

  9
$DIMASO
 70
     1
  9
$DIMSHO
 70
     1
  9
$DIMPOST
  1

  9
$DIMAPOST
  1

  9
$DIMALT
 70
     0
  9
$DIMALTD
 70
     2
  9
$DIMALTF
 40
25.4
  9
$DIMLFAC
 40
1.0
  9
$DIMTOFL
 70
     1
  9
$DIMTVP
 40
0.0
  9
$DIMTIX
 70
     0
  9
$DIMSOXD
 70
     0
  9
$DIMSAH
 70
     1
  9
$DIMBLK1
  1
OPEN
  9
$DIMBLK2
  1
OPEN
  9
$DIMSTYLE
  2
STANDARD
  9
$DIMCLRD
 70
   256
  9
$DIMCLRE
 70
   256
  9
$DIMCLRT
 70
   256
  9
$DIMTFAC
 40
1.0
  9
$DIMGAP
 40
2.0
  9
$DIMJUST
 70
     0
  9
$DIMSD1
 70
     0
  9
$DIMSD2
 70
     0
  9
$DIMTOLJ
 70
     1
  9
$DIMTZIN
 70
     0
  9
$DIMALTZ
 70
     0
  9
$DIMALTTZ
 70
     0
  9
$DIMFIT
 70
     3
  9
$DIMUPT
 70
     0
  9
$DIMUNIT
 70
     2
  9
$DIMDEC
 70
     0
  9
$DIMTDEC
 70
     0
  9
$DIMALTU
 70
     2
  9
$DIMALTTD
 70
     2
  9
$DIMTXSTY
  7
STANDARD
  9
$DIMAUNIT
 70
     0
  9
$LUNITS
 70
     2
  9
$LUPREC
 70
     4
  9
$SKETCHINC
 40
1.0
  9
$FILLETRAD
 40
1.0
  9
$AUNITS
 70
     0
  9
$AUPREC
 70
     0
  9
$MENU
  1
.
  9
$ELEVATION
 40
0.0
  9
$PELEVATION
 40
0.0
  9
$THICKNESS
 40
0.0
  9
$LIMCHECK
 70
     0
  9
$BLIPMODE
 70
     0
  9
$CHAMFERA
 40
1.0
  9
$CHAMFERB
 40
1.0
  9
$CHAMFERC
 40
40.0
  9
$CHAMFERD
 40
0.0
  9
$SKPOLY
 70
     0
  9
$TDCREATE
 40
2451199.484270833
  9
$TDUPDATE
 40
2453802.478357928
  9
$TDINDWG
 40
0.3514091898
  9
$TDUSRTIMER
 40
0.3514091898
  9
$USRTIMER
 70
     1
  9
$ANGBASE
 50
0.0
  9
$ANGDIR
 70
     0
  9
$PDMODE
 70
     0
  9
$PDSIZE
 40
0.0
  9
$PLINEWID
 40
0.0
  9
$COORDS
 70
     1
  9
$SPLFRAME
 70
     0
  9
$SPLINETYPE
 70
     6
  9
$SPLINESEGS
 70
     8
  9
$ATTDIA
 70
     0
  9
$ATTREQ
 70
     1
  9
$HANDLING
 70
 10241
  9
$HANDSEED
  5
6C95
  9
$SURFTAB1
 70
     6
  9
$SURFTAB2
 70
     6
  9
$SURFTYPE
 70
     6
  9
$SURFU
 70
     6
  9
$SURFV
 70
     6
  9
$UCSNAME
  2

  9
$UCSORG
 10
0.0
 20
0.0
 30
0.0
  9
$UCSXDIR
 10
1.0
 20
0.0
 30
0.0
  9
$UCSYDIR
 10
0.0
 20
1.0
 30
0.0
  9
$PUCSNAME
  2

  9
$PUCSORG
 10
0.0
 20
0.0
 30
0.0
  9
$PUCSXDIR
 10
1.0
 20
0.0
 30
0.0
  9
$PUCSYDIR
 10
0.0
 20
1.0
 30
0.0
  9
$USERI1
 70
     0
  9
$USERI2
 70
     0
  9
$USERI3
 70
     0
  9
$USERI4
 70
     0
  9
$USERI5
 70
     0
  9
$USERR1
 40
0.0
  9
$USERR2
 40
0.0
  9
$USERR3
 40
0.0
  9
$USERR4
 40
0.0
  9
$USERR5
 40
0.0
  9
$WORLDVIEW
 70
     1
  9
$SHADEDGE
 70
     3
  9
$SHADEDIF
 70
    70
  9
$TILEMODE
 70
     1
  9
$MAXACTVP
 70
    16
  9
$PINSBASE
 10
0.0
 20
0.0
 30
0.0
  9
$PLIMCHECK
 70
     0
  9
$PEXTMIN
 10
0.0
 20
0.0
 30
0.0
  9
$PEXTMAX
 10
420.0
 20
297.0
 30
0.0
  9
$PLIMMIN
 10
0.0
 20
0.0
  9
$PLIMMAX
 10
420.0
 20
297.0
  9
$UNITMODE
 70
     0
  9
$VISRETAIN
 70
     0
  9
$PLINEGEN
 70
     0
  9
$PSLTSCALE
 70
     1
  9
$TREEDEPTH
 70
  3020
  9
$PICKSTYLE
 70
     1
  9
$CMLSTYLE
  2
STANDARD
  9
$CMLJUST
 70
     0
  9
$CMLSCALE
 40
1.0
  9
$PROXYGRAPHICS
 70
     1
  9
$MEASUREMENT
 70
     1
  0
ENDSEC
  0
SECTION
  2
CLASSES
  0
CLASS
  1
ACDBDICTIONARYWDFLT
  2
AcDbDictionaryWithDefault
  3
AutoCAD 2000
 90
        0
280
     0
281
     0
  0
CLASS
  1
ACDBPLACEHOLDER
  2
AcDbPlaceHolder
  3
AutoCAD 2000
 90
        0
280
     0
281
     0
  0
CLASS
  1
LAYOUT
  2
AcDbLayout
  3
AutoCAD 2000
 90
        0
280
     0
281
     0
  0
CLASS
  1
LONG_TRANSACTION
  2
AcDbLongTransaction
  3
AutoCAD 2000
 90
        0
280
     0
281
     0
  0
CLASS
  1
LWPOLYLINE
  2
AcDbPolyline
  3
AutoCAD 2000
 90
        0
280
     0
281
     1
  0
CLASS
  1
HATCH
  2
AcDbHatch
  3
AutoCAD 2000
 90
        0
280
     0
281
     1
  0
CLASS
  1
XRECORD
  2
AcDbXrecord
  3
AutoCAD 2000
 90
        0
280
     0
281
     0
  0
CLASS
  1
LONG_TRANSACTION
  2
AcDbLongTransaction
  3
AutoCAD 2000
 90
        0
280
     0
281
     0
  0
CLASS
  1
LWPOLYLINE
  2
AcDbPolyline
  3
AutoCAD 2000
 90
        0
280
     0
281
     1
  0
CLASS
  1
HATCH
  2
AcDbHatch
  3
AutoCAD 2000
 90
        0
280
     0
281
     1
  0
CLASS
  1
XRECORD
  2
AcDbXrecord
  3
AutoCAD 2000
 90
        0
280
     0
281
     0
  0
CLASS
  1
LONG_TRANSACTION
  2
AcDbLongTransaction
  3
AutoCAD 2000
 90
        0
280
     0
281
     0
  0
CLASS
  1
LWPOLYLINE
  2
AcDbPolyline
  3
AutoCAD 2000
 90
        0
280
     0
281
     1
  0
CLASS
  1
HATCH
  2
AcDbHatch
  3
AutoCAD 2000
 90
        0
280
     0
281
     1
  0
CLASS
  1
XRECORD
  2
AcDbXrecord
  3
AutoCAD 2000
 90
        0
280
     0
281
     0
  0
CLASS
  1
LONG_TRANSACTION
  2
AcDbLongTransaction
  3
AutoCAD 2000
 90
        0
280
     0
281
     0
  0
CLASS
  1
LWPOLYLINE
  2
AcDbPolyline
  3
AutoCAD 2000
 90
        0
280
     0
281
     1
  0
CLASS
  1
HATCH
  2
AcDbHatch
  3
AutoCAD 2000
 90
        0
280
     0
281
     1
  0
CLASS
  1
XRECORD
  2
AcDbXrecord
  3
AutoCAD 2000
 90
        0
280
     0
281
     0
  0
CLASS
  1
LONG_TRANSACTION
  2
AcDbLongTransaction
  3
AutoCAD 2000
 90
        0
280
     0
281
     0
  0
CLASS
  1
LWPOLYLINE
  2
AcDbPolyline
  3
AutoCAD 2000
 90
        0
280
     0
281
     1
  0
CLASS
  1
HATCH
  2
AcDbHatch
  3
AutoCAD 2000
 90
        0
280
     0
281
     1
  0
CLASS
  1
XRECORD
  2
AcDbXrecord
  3
AutoCAD 2000
 90
        0
280
     0
281
     0
  0
CLASS
  1
LONG_TRANSACTION
  2
AcDbLongTransaction
  3
AutoCAD 2000
 90
        0
280
     0
281
     0
  0
CLASS
  1
LWPOLYLINE
  2
AcDbPolyline
  3
AutoCAD 2000
 90
        0
280
     0
281
     1
  0
CLASS
  1
HATCH
  2
AcDbHatch
  3
AutoCAD 2000
 90
        0
280
     0
281
     1
  0
CLASS
  1
XRECORD
  2
AcDbXrecord
  3
AutoCAD 2000
 90
        0
280
     0
281
     0
  0
CLASS
  1
LONG_TRANSACTION
  2
AcDbLongTransaction
  3
AutoCAD 2000
 90
        0
280
     0
281
     0
  0
CLASS
  1
LWPOLYLINE
  2
AcDbPolyline
  3
AutoCAD 2000
 90
        0
280
     0
281
     1
  0
CLASS
  1
HATCH
  2
AcDbHatch
  3
AutoCAD 2000
 90
        0
280
     0
281
     1
  0
CLASS
  1
XRECORD
  2
AcDbXrecord
  3
AutoCAD 2000
 90
        0
280
     0
281
     0
  0
CLASS
  1
LONG_TRANSACTION
  2
AcDbLongTransaction
  3
AutoCAD 2000
 90
        0
280
     0
281
     0
  0
CLASS
  1
LWPOLYLINE
  2
AcDbPolyline
  3
AutoCAD 2000
 90
        0
280
     0
281
     1
  0
CLASS
  1
HATCH
  2
AcDbHatch
  3
AutoCAD 2000
 90
        0
280
     0
281
     1
  0
CLASS
  1
XRECORD
  2
AcDbXrecord
  3
AutoCAD 2000
 90
        0
280
     0
281
     0
  0
CLASS
  1
LONG_TRANSACTION
  2
AcDbLongTransaction
  3
AutoCAD 2000
 90
        0
280
     0
281
     0
  0
CLASS
  1
LWPOLYLINE
  2
AcDbPolyline
  3
AutoCAD 2000
 90
        0
280
     0
281
     1
  0
CLASS
  1
HATCH
  2
AcDbHatch
  3
AutoCAD 2000
 90
        0
280
     0
281
     1
  0
CLASS
  1
XRECORD
  2
AcDbXrecord
  3
AutoCAD 2000
 90
        0
280
     0
281
     0
  0
CLASS
  1
LONG_TRANSACTION
  2
AcDbLongTransaction
  3
AutoCAD 2000
 90
        0
280
     0
281
     0
  0
CLASS
  1
LWPOLYLINE
  2
AcDbPolyline
  3
AutoCAD 2000
 90
        0
280
     0
281
     1
  0
CLASS
  1
HATCH
  2
AcDbHatch
  3
AutoCAD 2000
 90
        0
280
     0
281
     1
  0
CLASS
  1
XRECORD
  2
AcDbXrecord
  3
AutoCAD 2000
 90
        0
280
     0
281
     0
  0
CLASS
  1
LONG_TRANSACTION
  2
AcDbLongTransaction
  3
AutoCAD 2000
 90
        0
280
     0
281
     0
  0
CLASS
  1
LWPOLYLINE
  2
AcDbPolyline
  3
AutoCAD 2000
 90
        0
280
     0
281
     1
  0
CLASS
  1
HATCH
  2
AcDbHatch
  3
AutoCAD 2000
 90
        0
280
     0
281
     1
  0
CLASS
  1
XRECORD
  2
AcDbXrecord
  3
AutoCAD 2000
 90
        0
280
     0
281
     0
  0
CLASS
  1
LONG_TRANSACTION
  2
AcDbLongTransaction
  3
AutoCAD 2000
 90
        0
280
     0
281
     0
  0
CLASS
  1
LWPOLYLINE
  2
AcDbPolyline
  3
AutoCAD 2000
 90
        0
280
     0
281
     1
  0
CLASS
  1
HATCH
  2
AcDbHatch
  3
AutoCAD 2000
 90
        0
280
     0
281
     1
  0
CLASS
  1
XRECORD
  2
AcDbXrecord
  3
AutoCAD 2000
 90
        0
280
     0
281
     0
  0
CLASS
  1
LONG_TRANSACTION
  2
AcDbLongTransaction
  3
AutoCAD 2000
 90
        0
280
     0
281
     0
  0
CLASS
  1
LWPOLYLINE
  2
AcDbPolyline
  3
AutoCAD 2000
 90
        0
280
     0
281
     1
  0
CLASS
  1
HATCH
  2
AcDbHatch
  3
AutoCAD 2000
 90
        0
280
     0
281
     1
  0
CLASS
  1
XRECORD
  2
AcDbXrecord
  3
AutoCAD 2000
 90
        0
280
     0
281
     0
  0
CLASS
  1
LONG_TRANSACTION
  2
AcDbLongTransaction
  3
AutoCAD 2000
 90
        0
280
     0
281
     0
  0
CLASS
  1
LWPOLYLINE
  2
AcDbPolyline
  3
AutoCAD 2000
 90
        0
280
     0
281
     1
  0
CLASS
  1
HATCH
  2
AcDbHatch
  3
AutoCAD 2000
 90
        0
280
     0
281
     1
  0
CLASS
  1
XRECORD
  2
AcDbXrecord
  3
AutoCAD 2000
 90
        0
280
     0
281
     0
  0
CLASS
  1
LONG_TRANSACTION
  2
AcDbLongTransaction
  3
AutoCAD 2000
 90
        0
280
     0
281
     0
  0
CLASS
  1
LWPOLYLINE
  2
AcDbPolyline
  3
AutoCAD 2000
 90
        0
280
     0
281
     1
  0
CLASS
  1
HATCH
  2
AcDbHatch
  3
AutoCAD 2000
 90
        0
280
     0
281
     1
  0
CLASS
  1
XRECORD
  2
AcDbXrecord
  3
AutoCAD 2000
 90
        0
280
     0
281
     0
  0
CLASS
  1
LONG_TRANSACTION
  2
AcDbLongTransaction
  3
AutoCAD 2000
 90
        0
280
     0
281
     0
  0
CLASS
  1
LWPOLYLINE
  2
AcDbPolyline
  3
AutoCAD 2000
 90
        0
280
     0
281
     1
  0
CLASS
  1
HATCH
  2
AcDbHatch
  3
AutoCAD 2000
 90
        0
280
     0
281
     1
  0
CLASS
  1
XRECORD
  2
AcDbXrecord
  3
AutoCAD 2000
 90
        0
280
     0
281
     0
  0
ENDSEC
  0
SECTION
  2
TABLES
  0
TABLE
  2
VPORT
  5
8
330
0
100
AcDbSymbolTable
 70
     2
  0
VPORT
  5
6C71
330
8
100
AcDbSymbolTableRecord
100
AcDbViewportTableRecord
  2
*ACTIVE
 70
     0
 10
0.0
 20
0.0
 11
1.0
 21
1.0
 12
418.5855565599176
 22
309.7133109497006
 13
0.0
 23
0.0
 14
5.0
 24
5.0
 15
0.0
 25
0.0
 16
0.0
 26
0.0
 36
1.0
 17
0.0
 27
0.0
 37
0.0
 40
660.113083960272
 41
1.795454545454545
 42
50.0
 43
0.0
 44
0.0
 50
0.0
 51
0.0
 71
     0
 72
   100
 73
     1
 74
     0
 75
     0
 76
     0
 77
     0
 78
     0
  0
ENDTAB
  0
TABLE
  2
LTYPE
  5
5
330
0
100
AcDbSymbolTable
 70
     3
  0
LTYPE
  5
14
330
5
100
AcDbSymbolTableRecord
100
AcDbLinetypeTableRecord
  2
BYBLOCK
 70
     0
  3

 72
    65
 73
     0
 40
0.0
  0
LTYPE
  5
15
330
5
100
AcDbSymbolTableRecord
100
AcDbLinetypeTableRecord
  2
BYLAYER
 70
     0
  3

 72
    65
 73
     0
 40
0.0
  0
LTYPE
  5
16
330
5
100
AcDbSymbolTableRecord
100
AcDbLinetypeTableRecord
  2
CONTINUOUS
 70
     0
  3
Solid line
 72
    65
 73
     0
 40
0.0
  0
LTYPE
  5
115
330
5
100
AcDbSymbolTableRecord
100
AcDbLinetypeTableRecord
  2
PHANTOM
 70
     0
  3
______  __  __  ______  __  __  ______  __  __ 
 72
    65
 73
     6
 40
2.5
 49
1.25
 74
     0
 49
-0.25
 74
     0
 49
0.25
 74
     0
 49
-0.25
 74
     0
 49
0.25
 74
     0
 49
-0.25
 74
     0
  0
LTYPE
  5
135
330
5
100
AcDbSymbolTableRecord
100
AcDbLinetypeTableRecord
  2
CENTER
 70
     0
  3
____ _ ____ _ ____ _ ____ _ ____ _ ____ _ ____ 
 72
    65
 73
     4
 40
2.0
 49
1.25
 74
     0
 49
-0.25
 74
     0
 49
0.25
 74
     0
 49
-0.25
 74
     0
  0
ENDTAB
  0
TABLE
  2
LAYER
  5
2
330
0
100
AcDbSymbolTable
 70
     9
  0
LAYER
  5
F
330
2
100
AcDbSymbolTableRecord
100
AcDbLayerTableRecord
  2
0
 70
     0
 62
     7
  6
CONTINUOUS
  0
LAYER
  5
62
330
2
100
AcDbSymbolTableRecord
100
AcDbLayerTableRecord
  2
VIEWPORT
 70
     0
 62
     7
  6
CONTINUOUS
  0
LAYER
  5
65
330
2
100
AcDbSymbolTableRecord
100
AcDbLayerTableRecord
  2
ZUWAKU
 70
     0
 62
     7
  6
CONTINUOUS
  0
LAYER
  5
143
330
2
100
AcDbSymbolTableRecord
100
AcDbLayerTableRecord
  2
SEIHIN
 70
     0
 62
     3
  6
CONTINUOUS
  0
LAYER
  5
144
330
2
100
AcDbSymbolTableRecord
100
AcDbLayerTableRecord
  2
SUNPOU
 70
     0
 62
     4
  6
CONTINUOUS
  0
LAYER
  5
145
330
2
100
AcDbSymbolTableRecord
100
AcDbLayerTableRecord
  2
CENTER_L
 70
     0
 62
     1
  6
CENTER
  0
LAYER
  5
146
330
2
100
AcDbSymbolTableRecord
100
AcDbLayerTableRecord
  2
NOKITOI
 70
     0
 62
     8
  6
PHANTOM
  0
LAYER
  5
532
330
2
100
AcDbSymbolTableRecord
100
AcDbLayerTableRecord
  2
DEFPOINTS
 70
     0
 62
     7
  6
CONTINUOUS
  0
LAYER
  5
6A88
330
2
100
AcDbSymbolTableRecord
100
AcDbLayerTableRecord
  2
MOJI
 70
     0
 62
     2
  6
CONTINUOUS
  0
ENDTAB
  0
TABLE
  2
STYLE
  5
3
330
0
100
AcDbSymbolTable
 70
     2
  0
STYLE
  5
10
330
3
100
AcDbSymbolTableRecord
100
AcDbTextStyleTableRecord
  2
STANDARD
 70
     0
 40
0.0
 41
1.0
 50
0.0
 71
     0
 42
6.0
  3
TXT
  4
bigfont.shx
  0
STYLE
  5
6A89
330
3
100
AcDbSymbolTableRecord
100
AcDbTextStyleTableRecord
  2
ｽﾀｲﾙ1
 70
     0
 40
0.0
 41
1.0
 50
0.0
 71
     0
 42
2.5
  3
MS PGothic.ttf
  4

1001
ACAD
1000
MS PGothic
1071
    32818
  0
ENDTAB
  0
TABLE
  2
VIEW
  5
6
330
0
100
AcDbSymbolTable
 70
     0
  0
ENDTAB
  0
TABLE
  2
UCS
  5
7
330
0
100
AcDbSymbolTable
 70
     0
  0
ENDTAB
  0
TABLE
  2
APPID
  5
9
330
0
100
AcDbSymbolTable
 70
     1
  0
APPID
  5
11
330
9
100
AcDbSymbolTableRecord
100
AcDbRegAppTableRecord
  2
ACAD
 70
     0
  0
ENDTAB
  0
TABLE
  2
DIMSTYLE
  5
A
330
0
100
AcDbSymbolTable
 70
     1
  0
DIMSTYLE
105
1D
102
{ACAD_REACTORS
330
689A
330
68A7
330
6958
330
6965
330
6972
330
697F
330
698C
330
6999
330
69AA
330
69B7
330
69C6
330
69D5
102
}
330
A
100
AcDbSymbolTableRecord
100
AcDbDimStyleTableRecord
  2
STANDARD
 70
     0
  3

  4

  5

  6

  7

 40
1.0
 41
0.18
 42
0.0625
 43
0.38
 44
0.18
 45
0.0
 46
0.0
 47
0.0
 48
0.0
140
0.18
141
0.09
142
0.0
143
25.4
144
1.0
145
0.0
146
1.0
147
0.09
 71
     0
 72
     0
 73
     1
 74
     1
 75
     0
 76
     0
 77
     0
 78
     0
170
     0
171
     2
172
     0
173
     0
174
     0
175
     0
176
     0
177
     0
178
     0
270
     2
271
     4
272
     4
273
     2
274
     2
340
10
275
     0
280
     0
281
     0
282
     0
283
     1
284
     0
285
     0
286
     0
287
     3
288
     0
  0
ENDTAB
  0
TABLE
  2
BLOCK_RECORD
  5
1
330
0
100
AcDbSymbolTable
 70
    13
  0
BLOCK_RECORD
  5
1A
102
{ACAD_XDICTIONARY
360
94A
102
}
330
1
100
AcDbSymbolTableRecord
100
AcDbBlockTableRecord
  2
*MODEL_SPACE
  0
BLOCK_RECORD
  5
17
102
{ACAD_XDICTIONARY
360
948
102
}
330
1
100
AcDbSymbolTableRecord
100
AcDbBlockTableRecord
  2
*PAPER_SPACE
  0
BLOCK_RECORD
  5
6D
330
1
100
AcDbSymbolTableRecord
100
AcDbBlockTableRecord
  2
_OPEN
  0
BLOCK_RECORD
  5
689B
330
1
100
AcDbSymbolTableRecord
100
AcDbBlockTableRecord
  2
*D1
  0
BLOCK_RECORD
  5
68A8
330
1
100
AcDbSymbolTableRecord
100
AcDbBlockTableRecord
  2
*D2
  0
BLOCK_RECORD
  5
6959
330
1
100
AcDbSymbolTableRecord
100
AcDbBlockTableRecord
  2
*D3
  0
BLOCK_RECORD
  5
6966
330
1
100
AcDbSymbolTableRecord
100
AcDbBlockTableRecord
  2
*D4
  0
BLOCK_RECORD
  5
6973
330
1
100
AcDbSymbolTableRecord
100
AcDbBlockTableRecord
  2
*D5
  0
BLOCK_RECORD
  5
6980
330
1
100
AcDbSymbolTableRecord
100
AcDbBlockTableRecord
  2
*D6
  0
BLOCK_RECORD
  5
698D
330
1
100
AcDbSymbolTableRecord
100
AcDbBlockTableRecord
  2
*D7
  0
BLOCK_RECORD
  5
699A
330
1
100
AcDbSymbolTableRecord
100
AcDbBlockTableRecord
  2
*D8
  0
BLOCK_RECORD
  5
69AB
330
1
100
AcDbSymbolTableRecord
100
AcDbBlockTableRecord
  2
*D9
  0
BLOCK_RECORD
  5
69B8
330
1
100
AcDbSymbolTableRecord
100
AcDbBlockTableRecord
  2
*D10
  0
BLOCK_RECORD
  5
69C7
330
1
100
AcDbSymbolTableRecord
100
AcDbBlockTableRecord
  2
*D11
  0
BLOCK_RECORD
  5
69D6
330
1
100
AcDbSymbolTableRecord
100
AcDbBlockTableRecord
  2
*D12
  0
ENDTAB
  0
ENDSEC
  0
SECTION
  2
BLOCKS
  0
BLOCK
  5
1B
330
1A
100
AcDbEntity
  8
0
100
AcDbBlockBegin
  2
*MODEL_SPACE
 70
     0
 10
0.0
 20
0.0
 30
0.0
  3
*MODEL_SPACE
  1

  0
ENDBLK
  5
1C
330
1A
100
AcDbEntity
  8
0
100
AcDbBlockEnd
  0
BLOCK
  5
18
330
17
100
AcDbEntity
 67
     1
  8
0
100
AcDbBlockBegin
  2
*PAPER_SPACE
 70
     0
 10
0.0
 20
0.0
 30
0.0
  3
*PAPER_SPACE
  1

  0
ENDBLK
  5
19
330
17
100
AcDbEntity
 67
     1
  8
0
100
AcDbBlockEnd
  0
BLOCK
  5
6E
330
6D
100
AcDbEntity
  8
0
100
AcDbBlockBegin
  2
_OPEN
 70
     0
 10
0.0
 20
0.0
 30
0.0
  3
_OPEN
  1

  0
LINE
  5
6F
330
6D
100
AcDbEntity
  8
0
  6
BYBLOCK
 62
     0
100
AcDbLine
 10
-1.0
 20
0.1666666666666666
 30
0.0
 11
0.0
 21
0.0
 31
0.0
  0
LINE
  5
70
330
6D
100
AcDbEntity
  8
0
  6
BYBLOCK
 62
     0
100
AcDbLine
 10
0.0
 20
0.0
 30
0.0
 11
-1.0
 21
-0.1666666666666666
 31
0.0
  0
LINE
  5
71
330
6D
100
AcDbEntity
  8
0
  6
BYBLOCK
 62
     0
100
AcDbLine
 10
0.0
 20
0.0
 30
0.0
 11
-1.0
 21
0.0
 31
0.0
  0
ENDBLK
  5
72
330
6D
100
AcDbEntity
  8
0
100
AcDbBlockEnd
  0
BLOCK
  5
68A5
330
689B
100
AcDbEntity
  8
0
 48
5.0
100
AcDbBlockBegin
  2
*D1
 70
     1
 10
0.0
 20
0.0
 30
0.0
  3
*D1
  1

  0
LINE
  5
6C31
330
689B
100
AcDbEntity
  8
SUNPOU
 48
5.0
100
AcDbLine
 10
304.7937032317117
 20
454.1325012236229
 30
0.0
 11
265.359925897309
 21
454.1325012236229
 31
0.0
  0
LINE
  5
6C32
330
689B
100
AcDbEntity
  8
SUNPOU
 48
5.0
100
AcDbLine
 10
304.7937032317117
 20
430.132501223623
 30
0.0
 11
265.359925897309
 21
430.132501223623
 31
0.0
  0
LINE
  5
6C33
330
689B
100
AcDbEntity
  8
SUNPOU
 48
5.0
100
AcDbLine
 10
268.359925897309
 20
447.132501223623
 30
0.0
 11
268.359925897309
 21
437.1325012236229
 31
0.0
  0
INSERT
  5
6C34
330
689B
100
AcDbEntity
  8
SUNPOU
 48
5.0
100
AcDbBlockReference
  2
_OPEN
 10
268.359925897309
 20
454.1325012236229
 30
0.0
 41
7.0
 42
7.0
 43
7.0
 50
90.0
  0
INSERT
  5
6C35
330
689B
100
AcDbEntity
  8
SUNPOU
 48
5.0
100
AcDbBlockReference
  2
_OPEN
 10
268.359925897309
 20
430.132501223623
 30
0.0
 41
7.0
 42
7.0
 43
7.0
 50
270.0
  0
MTEXT
  5
6C36
330
689B
100
AcDbEntity
  8
SUNPOU
 48
5.0
100
AcDbMText
 10
263.3599258973089
 20
442.132501223623
 30
0.0
 40
6.0
 41
0.0
 71
     5
 72
     1
  1
\A1;24
 11
0.0000000000000001
 21
1.0
 31
0.0
1001
ACAD
1000
MTEXTBEGIN
1070
    73
1070
     1
1070
    44
1040
1.0
1070
    74
1070
     0
1000
MTEXTEND
  0
POINT
  5
6C37
330
689B
100
AcDbEntity
  8
DEFPOINTS
 62
     0
 48
5.0
100
AcDbPoint
 10
310.7937032317118
 20
454.1325012236229
 30
0.0
  0
POINT
  5
6C38
330
689B
100
AcDbEntity
  8
DEFPOINTS
 62
     0
 48
5.0
100
AcDbPoint
 10
310.7937032317118
 20
430.132501223623
 30
0.0
  0
POINT
  5
6C39
330
689B
100
AcDbEntity
  8
DEFPOINTS
 62
     0
 48
5.0
100
AcDbPoint
 10
268.359925897309
 20
430.132501223623
 30
0.0
  0
ENDBLK
  5
68A6
330
689B
100
AcDbEntity
  8
0
 48
5.0
100
AcDbBlockEnd
  0
BLOCK
  5
68B2
330
68A8
100
AcDbEntity
  8
0
 48
5.0
100
AcDbBlockBegin
  2
*D2
 70
     1
 10
0.0
 20
0.0
 30
0.0
  3
*D2
  1

  0
LINE
  5
6C0B
330
68A8
100
AcDbEntity
  8
SUNPOU
 48
5.0
100
AcDbLine
 10
460.2391278225946
 20
473.6325012236229
 30
0.0
 11
493.0085796517032
 21
473.6325012236229
 31
0.0
  0
LINE
  5
6C0C
330
68A8
100
AcDbEntity
  8
SUNPOU
 48
5.0
100
AcDbLine
 10
460.2391278225946
 20
410.6325012236229
 30
0.0
 11
493.0085796517032
 21
410.6325012236229
 31
0.0
  0
LINE
  5
6C0D
330
68A8
100
AcDbEntity
  8
SUNPOU
 48
5.0
100
AcDbLine
 10
490.0085796517032
 20
466.6325012236229
 30
0.0
 11
490.0085796517032
 21
417.632501223623
 31
0.0
  0
INSERT
  5
6C0E
330
68A8
100
AcDbEntity
  8
SUNPOU
 48
5.0
100
AcDbBlockReference
  2
_OPEN
 10
490.0085796517032
 20
473.6325012236229
 30
0.0
 41
7.0
 42
7.0
 43
7.0
 50
90.0
  0
INSERT
  5
6C0F
330
68A8
100
AcDbEntity
  8
SUNPOU
 48
5.0
100
AcDbBlockReference
  2
_OPEN
 10
490.0085796517032
 20
410.6325012236229
 30
0.0
 41
7.0
 42
7.0
 43
7.0
 50
270.0
  0
MTEXT
  5
6C10
330
68A8
100
AcDbEntity
  8
SUNPOU
 48
5.0
100
AcDbMText
 10
485.0085796517031
 20
442.132501223623
 30
0.0
 40
6.0
 41
0.0
 71
     5
 72
     1
  1
\A1;63
 11
0.0000000000000001
 21
1.0
 31
0.0
1001
ACAD
1000
MTEXTBEGIN
1070
    73
1070
     1
1070
    44
1040
1.0
1070
    74
1070
     0
1000
MTEXTEND
  0
POINT
  5
6C11
330
68A8
100
AcDbEntity
  8
DEFPOINTS
 62
     0
 48
5.0
100
AcDbPoint
 10
454.2391278225945
 20
473.6325012236229
 30
0.0
  0
POINT
  5
6C12
330
68A8
100
AcDbEntity
  8
DEFPOINTS
 62
     0
 48
5.0
100
AcDbPoint
 10
454.2391278225945
 20
410.6325012236229
 30
0.0
  0
POINT
  5
6C13
330
68A8
100
AcDbEntity
  8
DEFPOINTS
 62
     0
 48
5.0
100
AcDbPoint
 10
490.0085796517032
 20
410.6325012236229
 30
0.0
  0
ENDBLK
  5
68B3
330
68A8
100
AcDbEntity
  8
0
 48
5.0
100
AcDbBlockEnd
  0
BLOCK
  5
6963
330
6959
100
AcDbEntity
  8
0
 48
5.0
100
AcDbBlockBegin
  2
*D3
 70
     1
 10
0.0
 20
0.0
 30
0.0
  3
*D3
  1

  0
LINE
  5
6C62
330
6959
100
AcDbEntity
  8
SUNPOU
 48
5.0
100
AcDbLine
 10
523.2343922198777
 20
376.2223302002743
 30
0.0
 11
513.93223306182
 21
399.4777280954187
 31
0.0
  0
LINE
  5
6C63
330
6959
100
AcDbEntity
  8
SUNPOU
 48
5.0
100
AcDbLine
 10
566.8726667198777
 20
393.6776400002742
 30
0.0
 11
557.57050756182
 21
416.9330378954186
 31
0.0
  0
LINE
  5
6C64
330
6959
100
AcDbEntity
  8
SUNPOU
 48
5.0
100
AcDbLine
 10
521.5457419270792
 20
399.2920327572416
 30
0.0
 11
552.1853427546856
 21
411.5478730882841
 31
0.0
  0
INSERT
  5
6C65
330
6959
100
AcDbEntity
  8
SUNPOU
 48
5.0
100
AcDbBlockReference
  2
_OPEN
 10
515.0464050908824
 20
396.6922980227629
 30
0.0
 41
7.0
 42
7.0
 43
7.0
 50
201.8014094863518
  0
INSERT
  5
6C66
330
6959
100
AcDbEntity
  8
SUNPOU
 48
5.0
100
AcDbBlockReference
  2
_OPEN
 10
558.6846795908824
 20
414.1476078227628
 30
0.0
 41
7.0
 42
7.0
 43
7.0
 50
21.80140948635178
  0
MTEXT
  5
6C67
330
6959
100
AcDbEntity
  8
SUNPOU
 48
5.0
100
AcDbMText
 10
535.0085889591118
 20
410.0623363771892
 30
0.0
 40
6.0
 41
0.0
 71
     5
 72
     1
  1
\A1;47
 11
0.9284766908852596
 21
0.3713906763541033
 31
0.0
1001
ACAD
1000
MTEXTBEGIN
1070
    73
1070
     1
1070
    44
1040
1.0
1070
    74
1070
     0
1000
MTEXTEND
  0
POINT
  5
6C68
330
6959
100
AcDbEntity
  8
DEFPOINTS
 62
     0
 48
5.0
100
AcDbPoint
 10
525.4627362780024
 20
370.6514700549627
 30
0.0
  0
POINT
  5
6C69
330
6959
100
AcDbEntity
  8
DEFPOINTS
 62
     0
 48
5.0
100
AcDbPoint
 10
569.1010107780024
 20
388.1067798549627
 30
0.0
  0
POINT
  5
6C6A
330
6959
100
AcDbEntity
  8
DEFPOINTS
 62
     0
 48
5.0
100
AcDbPoint
 10
558.6846795908824
 20
414.1476078227628
 30
0.0
  0
ENDBLK
  5
6964
330
6959
100
AcDbEntity
  8
0
 48
5.0
100
AcDbBlockEnd
  0
BLOCK
  5
6970
330
6966
100
AcDbEntity
  8
0
 48
5.0
100
AcDbBlockBegin
  2
*D4
 70
     1
 10
0.0
 20
0.0
 30
0.0
  3
*D4
  1

  0
LINE
  5
6C4E
330
6966
100
AcDbEntity
  8
SUNPOU
 48
5.0
100
AcDbLine
 10
518.4803204675275
 20
366.4683479620641
 30
0.0
 11
501.1286532465477
 21
409.0929710569123
 31
0.0
  0
LINE
  5
6C4F
330
6966
100
AcDbEntity
  8
SUNPOU
 48
5.0
100
AcDbLine
 10
576.8318761675276
 20
390.2221480620641
 30
0.0
 11
559.4802089465478
 21
432.8467711569122
 31
0.0
  0
LINE
  5
6C50
330
6966
100
AcDbEntity
  8
SUNPOU
 48
5.0
100
AcDbLine
 10
508.7431516967334
 20
408.9536392510657
 30
0.0
 11
554.1279352594273
 21
427.4289149039134
 31
0.0
  0
INSERT
  5
6C51
330
6966
100
AcDbEntity
  8
SUNPOU
 48
5.0
100
AcDbBlockReference
  2
_OPEN
 10
502.2597656280804
 20
406.3143770274896
 30
0.0
 41
7.0
 42
7.0
 43
7.0
 50
202.1502964369201
  0
INSERT
  5
6C52
330
6966
100
AcDbEntity
  8
SUNPOU
 48
5.0
100
AcDbBlockReference
  2
_OPEN
 10
560.6113213280804
 20
430.0681771274895
 30
0.0
 41
7.0
 42
7.0
 43
7.0
 50
22.15029643692016
  0
MTEXT
  5
6C53
330
6966
100
AcDbEntity
  8
SUNPOU
 48
5.0
100
AcDbMText
 10
529.5503561755261
 20
422.8222671265275
 30
0.0
 40
6.0
 41
0.0
 71
     5
 72
     1
  1
\A1;63
 11
0.9261980098075735
 21
0.3770374605108755
 31
0.0
1001
ACAD
1000
MTEXTBEGIN
1070
    73
1070
     1
1070
    44
1040
1.0
1070
    74
1070
     0
1000
MTEXTEND
  0
POINT
  5
6C54
330
6966
100
AcDbEntity
  8
DEFPOINTS
 62
     0
 48
5.0
100
AcDbPoint
 10
520.7425452305927
 20
360.9111599032186
 30
0.0
  0
POINT
  5
6C55
330
6966
100
AcDbEntity
  8
DEFPOINTS
 62
     0
 48
5.0
100
AcDbPoint
 10
579.0941009305928
 20
384.6649600032186
 30
0.0
  0
POINT
  5
6C56
330
6966
100
AcDbEntity
  8
DEFPOINTS
 62
     0
 48
5.0
100
AcDbPoint
 10
560.6113213280804
 20
430.0681771274895
 30
0.0
  0
ENDBLK
  5
6971
330
6966
100
AcDbEntity
  8
0
 48
5.0
100
AcDbBlockEnd
  0
BLOCK
  5
697D
330
6973
100
AcDbEntity
  8
0
 48
5.0
100
AcDbBlockBegin
  2
*D5
 70
     1
 10
0.0
 20
0.0
 30
0.0
  3
*D5
  1

  0
LINE
  5
6C02
330
6973
100
AcDbEntity
  8
SUNPOU
 48
5.0
100
AcDbLine
 10
445.3778633778509
 20
342.7640126796785
 30
0.0
 11
462.9968451392634
 21
349.811605376653
 31
0.0
  0
LINE
  5
6C03
330
6973
100
AcDbEntity
  8
SUNPOU
 48
5.0
100
AcDbLine
 10
463.9473971778508
 20
296.3401781296785
 30
0.0
 11
481.5663789392632
 21
303.387770826653
 31
0.0
  0
LINE
  5
6C04
330
6973
100
AcDbEntity
  8
SUNPOU
 48
5.0
100
AcDbLine
 10
462.8111497982588
 20
342.1980965114629
 30
0.0
 11
476.1812141341287
 21
308.7729356357876
 31
0.0
  0
INSERT
  5
6C05
330
6973
100
AcDbEntity
  8
SUNPOU
 48
5.0
100
AcDbBlockReference
  2
_OPEN
 10
460.2114150661939
 20
348.6974333486252
 30
0.0
 41
7.0
 42
7.0
 43
7.0
 50
111.8014094650725
  0
INSERT
  5
6C06
330
6973
100
AcDbEntity
  8
SUNPOU
 48
5.0
100
AcDbBlockReference
  2
_OPEN
 10
478.7809488661937
 20
302.2735987986252
 30
0.0
 41
7.0
 42
7.0
 43
7.0
 50
291.8014094650725
  0
MTEXT
  5
6C07
330
6973
100
AcDbEntity
  8
SUNPOU
 48
5.0
100
AcDbMText
 10
474.1385654213097
 20
327.3424694536715
 30
0.0
 40
6.0
 41
0.0
 71
     5
 72
     1
  1
\A1;50
 11
0.371390676009274
 21
-0.9284766910231914
 31
0.0
1001
ACAD
1000
MTEXTBEGIN
1070
    73
1070
     1
1070
    44
1040
1.0
1070
    74
1070
     0
1000
MTEXTEND
  0
POINT
  5
6C08
330
6973
100
AcDbEntity
  8
DEFPOINTS
 62
     0
 48
5.0
100
AcDbPoint
 10
439.8070032317118
 20
340.5356686236229
 30
0.0
  0
POINT
  5
6C09
330
6973
100
AcDbEntity
  8
DEFPOINTS
 62
     0
 48
5.0
100
AcDbPoint
 10
458.3765370317117
 20
294.1118340736229
 30
0.0
  0
POINT
  5
6C0A
330
6973
100
AcDbEntity
  8
DEFPOINTS
 62
     0
 48
5.0
100
AcDbPoint
 10
478.7809488661937
 20
302.2735987986252
 30
0.0
  0
ENDBLK
  5
697E
330
6973
100
AcDbEntity
  8
0
 48
5.0
100
AcDbBlockEnd
  0
BLOCK
  5
698A
330
6980
100
AcDbEntity
  8
0
 48
5.0
100
AcDbBlockBegin
  2
*D6
 70
     1
 10
0.0
 20
0.0
 30
0.0
  3
*D6
  1

  0
LINE
  5
6C28
330
6980
100
AcDbEntity
  8
SUNPOU
 48
5.0
100
AcDbLine
 10
433.8070032317118
 20
340.5356686236229
 30
0.0
 11
295.8100024062105
 21
340.5356686236229
 31
0.0
  0
LINE
  5
6C29
330
6980
100
AcDbEntity
  8
SUNPOU
 48
5.0
100
AcDbLine
 10
304.8069032317117
 20
310.2356686236229
 30
0.0
 11
295.8100024062105
 21
310.2356686236229
 31
0.0
  0
LINE
  5
6C2A
330
6980
100
AcDbEntity
  8
SUNPOU
 48
5.0
100
AcDbLine
 10
298.8100024062105
 20
333.535668623623
 30
0.0
 11
298.8100024062105
 21
317.2356686236229
 31
0.0
  0
INSERT
  5
6C2B
330
6980
100
AcDbEntity
  8
SUNPOU
 48
5.0
100
AcDbBlockReference
  2
_OPEN
 10
298.8100024062105
 20
340.5356686236229
 30
0.0
 41
7.0
 42
7.0
 43
7.0
 50
90.0
  0
INSERT
  5
6C2C
330
6980
100
AcDbEntity
  8
SUNPOU
 48
5.0
100
AcDbBlockReference
  2
_OPEN
 10
298.8100024062105
 20
310.2356686236229
 30
0.0
 41
7.0
 42
7.0
 43
7.0
 50
270.0
  0
MTEXT
  5
6C2D
330
6980
100
AcDbEntity
  8
SUNPOU
 48
5.0
100
AcDbMText
 10
293.8100024062104
 20
325.385668623623
 30
0.0
 40
6.0
 41
0.0
 71
     5
 72
     1
  1
\A1;30
 11
0.0000000000000001
 21
1.0
 31
0.0
1001
ACAD
1000
MTEXTBEGIN
1070
    73
1070
     1
1070
    44
1040
1.0
1070
    74
1070
     0
1000
MTEXTEND
  0
POINT
  5
6C2E
330
6980
100
AcDbEntity
  8
DEFPOINTS
 62
     0
 48
5.0
100
AcDbPoint
 10
439.8070032317118
 20
340.5356686236229
 30
0.0
  0
POINT
  5
6C2F
330
6980
100
AcDbEntity
  8
DEFPOINTS
 62
     0
 48
5.0
100
AcDbPoint
 10
310.8069032317117
 20
310.2356686236229
 30
0.0
  0
POINT
  5
6C30
330
6980
100
AcDbEntity
  8
DEFPOINTS
 62
     0
 48
5.0
100
AcDbPoint
 10
298.8100024062105
 20
310.2356686236229
 30
0.0
  0
ENDBLK
  5
698B
330
6980
100
AcDbEntity
  8
0
 48
5.0
100
AcDbBlockEnd
  0
BLOCK
  5
6997
330
698D
100
AcDbEntity
  8
0
 48
5.0
100
AcDbBlockBegin
  2
*D7
 70
     1
 10
0.0
 20
0.0
 30
0.0
  3
*D7
  1

  0
LINE
  5
6C1F
330
698D
100
AcDbEntity
  8
SUNPOU
 48
5.0
100
AcDbLine
 10
310.8069032317117
 20
317.5356686236229
 30
0.0
 11
310.8069032317117
 21
378.8713878575326
 31
0.0
  0
LINE
  5
6C20
330
698D
100
AcDbEntity
  8
SUNPOU
 48
5.0
100
AcDbLine
 10
439.8070032317118
 20
346.5356686236229
 30
0.0
 11
439.8070032317118
 21
378.8713878575326
 31
0.0
  0
LINE
  5
6C21
330
698D
100
AcDbEntity
  8
SUNPOU
 48
5.0
100
AcDbLine
 10
317.8069032317117
 20
375.8713878575326
 30
0.0
 11
432.8070032317119
 21
375.8713878575326
 31
0.0
  0
INSERT
  5
6C22
330
698D
100
AcDbEntity
  8
SUNPOU
 48
5.0
100
AcDbBlockReference
  2
_OPEN
 10
310.8069032317117
 20
375.8713878575326
 30
0.0
 41
7.0
 42
7.0
 43
7.0
 50
180.0
  0
INSERT
  5
6C23
330
698D
100
AcDbEntity
  8
SUNPOU
 48
5.0
100
AcDbBlockReference
  2
_OPEN
 10
439.8070032317118
 20
375.8713878575326
 30
0.0
 41
7.0
 42
7.0
 43
7.0
  0
MTEXT
  5
6C24
330
698D
100
AcDbEntity
  8
SUNPOU
 48
5.0
100
AcDbMText
 10
375.3069532317118
 20
380.8713878575326
 30
0.0
 40
6.0
 41
0.0
 71
     5
 72
     1
  1
\A1;129
1001
ACAD
1000
MTEXTBEGIN
1070
    73
1070
     1
1070
    44
1040
1.0
1070
    74
1070
     0
1000
MTEXTEND
  0
POINT
  5
6C25
330
698D
100
AcDbEntity
  8
DEFPOINTS
 62
     0
 48
5.0
100
AcDbPoint
 10
310.8069032317117
 20
311.5356686236229
 30
0.0
  0
POINT
  5
6C26
330
698D
100
AcDbEntity
  8
DEFPOINTS
 62
     0
 48
5.0
100
AcDbPoint
 10
439.8070032317118
 20
340.5356686236229
 30
0.0
  0
POINT
  5
6C27
330
698D
100
AcDbEntity
  8
DEFPOINTS
 62
     0
 48
5.0
100
AcDbPoint
 10
439.8070032317118
 20
375.8713878575326
 30
0.0
  0
ENDBLK
  5
6998
330
698D
100
AcDbEntity
  8
0
 48
5.0
100
AcDbBlockEnd
  0
BLOCK
  5
69A6
330
699A
100
AcDbEntity
  8
0
 48
5.0
100
AcDbBlockBegin
  2
*D8
 70
     1
 10
0.0
 20
0.0
 30
0.0
  3
*D8
  1

  0
LINE
  5
6C14
330
699A
100
AcDbEntity
  8
SUNPOU
 48
5.0
100
AcDbLine
 10
460.6048810639743
 20
288.5409739179666
 30
0.0
 11
468.5697324201135
 21
268.6288452595441
 31
0.0
  0
LINE
  5
6C15
330
699A
100
AcDbEntity
  8
SUNPOU
 48
5.0
100
AcDbLine
 10
455.0340209085122
 20
286.3126298857817
 30
0.0
 11
462.9988722646514
 21
266.4005012273592
 31
0.0
  0
LINE
  5
6C16
330
699A
100
AcDbEntity
  8
SUNPOU
 48
5.0
100
AcDbLine
 10
473.9548972522479
 20
274.0140100416787
 30
0.0
 11
480.4542341005136
 21
276.6137447459851
 31
0.0
  0
LINE
  5
6C17
330
699A
100
AcDbEntity
  8
SUNPOU
 48
5.0
100
AcDbLine
 10
455.3853634002543
 20
266.586196600881
 30
0.0
 11
441.4582130111135
 21
261.0153365202244
 31
0.0
  0
LINE
  5
6C18
330
699A
100
AcDbEntity
  8
SUNPOU
 48
5.0
100
AcDbLine
 10
467.4555604039822
 20
271.4142753373723
 30
0.0
 11
461.8847002485201
 21
269.1859313051874
 31
0.0
  0
INSERT
  5
6C19
330
699A
100
AcDbEntity
  8
SUNPOU
 48
5.0
100
AcDbBlockReference
  2
_OPEN
 10
467.4555604039822
 20
271.4142753373723
 30
0.0
 41
7.0
 42
7.0
 43
7.0
 50
201.8014092203634
  0
INSERT
  5
6C1A
330
699A
100
AcDbEntity
  8
SUNPOU
 48
5.0
100
AcDbBlockReference
  2
_OPEN
 10
461.8847002485201
 20
269.1859313051874
 30
0.0
 41
7.0
 42
7.0
 43
7.0
 50
21.8014092203635
  0
MTEXT
  5
6C1B
330
699A
100
AcDbEntity
  8
SUNPOU
 48
5.0
100
AcDbMText
 10
443.3151664213323
 20
267.1432826714465
 30
0.0
 40
6.0
 41
0.0
 71
     5
 72
     1
  1
\A1;6
 11
0.9284766926093929
 21
0.3713906720437697
 31
0.0
1001
ACAD
1000
MTEXTBEGIN
1070
    73
1070
     1
1070
    44
1040
1.0
1070
    74
1070
     0
1000
MTEXTEND
  0
POINT
  5
6C1C
330
699A
100
AcDbEntity
  8
DEFPOINTS
 62
     0
 48
5.0
100
AcDbPoint
 10
458.3765370317117
 20
294.1118340736229
 30
0.0
  0
POINT
  5
6C1D
330
699A
100
AcDbEntity
  8
DEFPOINTS
 62
     0
 48
5.0
100
AcDbPoint
 10
452.8056768762496
 20
291.8834900414381
 30
0.0
  0
POINT
  5
6C1E
330
699A
100
AcDbEntity
  8
DEFPOINTS
 62
     0
 48
5.0
100
AcDbPoint
 10
461.8847002485201
 20
269.1859313051874
 30
0.0
  0
ENDBLK
  5
69A7
330
699A
100
AcDbEntity
  8
0
 48
5.0
100
AcDbBlockEnd
  0
BLOCK
  5
69B5
330
69AB
100
AcDbEntity
  8
0
 48
5.0
100
AcDbBlockBegin
  2
*D9
 70
     1
 10
0.0
 20
0.0
 30
0.0
  3
*D9
  1

  0
LINE
  5
6C3A
330
69AB
100
AcDbEntity
  8
SUNPOU
 48
5.0
100
AcDbLine
 10
573.2420219491086
 20
393.9097547924309
 30
0.0
 11
606.2253874736772
 21
407.1031009554296
 31
0.0
  0
LINE
  5
6C3B
330
69AB
100
AcDbEntity
  8
SUNPOU
 48
5.0
100
AcDbLine
 10
580.4655683786318
 20
375.8508886545249
 30
0.0
 11
613.4489339032003
 21
389.0442348175236
 31
0.0
  0
LINE
  5
6C3C
330
69AB
100
AcDbEntity
  8
SUNPOU
 48
5.0
100
AcDbLine
 10
606.0396921261817
 20
399.4895920903977
 30
0.0
 11
608.0637691026569
 21
394.4293996312491
 31
0.0
  0
INSERT
  5
6C3D
330
69AB
100
AcDbEntity
  8
SUNPOU
 48
5.0
100
AcDbBlockReference
  2
_OPEN
 10
603.4399573996578
 20
405.9889289297765
 30
0.0
 41
7.0
 42
7.0
 43
7.0
 50
111.8014094162252
  0
INSERT
  5
6C3E
330
69AB
100
AcDbEntity
  8
SUNPOU
 48
5.0
100
AcDbBlockReference
  2
_OPEN
 10
610.6635038291808
 20
387.9300627918704
 30
0.0
 41
7.0
 42
7.0
 43
7.0
 50
291.8014094162253
  0
MTEXT
  5
6C3F
330
69AB
100
AcDbEntity
  8
SUNPOU
 48
5.0
100
AcDbMText
 10
611.6941140711185
 20
398.8164492369119
 30
0.0
 40
6.0
 41
0.0
 71
     5
 72
     1
  1
\A1;19
 11
0.3713906752177052
 21
-0.9284766913398186
 31
0.0
1001
ACAD
1000
MTEXTBEGIN
1070
    73
1070
     1
1070
    44
1040
1.0
1070
    74
1070
     0
1000
MTEXTEND
  0
POINT
  5
6C40
330
69AB
100
AcDbEntity
  8
DEFPOINTS
 62
     0
 48
5.0
100
AcDbPoint
 10
567.6711618010698
 20
391.6814107411247
 30
0.0
  0
POINT
  5
6C41
330
69AB
100
AcDbEntity
  8
DEFPOINTS
 62
     0
 48
5.0
100
AcDbPoint
 10
574.894708230593
 20
373.6225446032186
 30
0.0
  0
POINT
  5
6C42
330
69AB
100
AcDbEntity
  8
DEFPOINTS
 62
     0
 48
5.0
100
AcDbPoint
 10
610.6635038291808
 20
387.9300627918704
 30
0.0
  0
ENDBLK
  5
69B6
330
69AB
100
AcDbEntity
  8
0
 48
5.0
100
AcDbBlockEnd
  0
BLOCK
  5
69C4
330
69B8
100
AcDbEntity
  8
0
 48
5.0
100
AcDbBlockBegin
  2
*D10
 70
     1
 10
0.0
 20
0.0
 30
0.0
  3
*D10
  1

  0
LINE
  5
6C43
330
69B8
100
AcDbEntity
  8
SUNPOU
 48
5.0
100
AcDbLine
 10
522.1759176308816
 20
362.7130222312954
 30
0.0
 11
495.6944568797038
 21
352.1205916987387
 31
0.0
  0
LINE
  5
6C44
330
69B8
100
AcDbEntity
  8
SUNPOU
 48
5.0
100
AcDbLine
 10
518.4620945036179
 20
371.9977148312772
 30
0.0
 11
491.9806337524401
 21
361.4052842987206
 31
0.0
  0
LINE
  5
6C45
330
69B8
100
AcDbEntity
  8
SUNPOU
 48
5.0
100
AcDbLine
 10
501.0795947301367
 20
346.7353999350375
 30
0.0
 11
503.6792969307139
 21
340.2360500853745
 31
0.0
  0
LINE
  5
6C46
330
69B8
100
AcDbEntity
  8
SUNPOU
 48
5.0
100
AcDbLine
 10
492.1663672017184
 20
369.0187922343452
 30
0.0
 11
485.4814186859484
 21
385.7314061334785
 31
0.0
  0
LINE
  5
6C47
330
69B8
100
AcDbEntity
  8
SUNPOU
 48
5.0
100
AcDbLine
 10
498.4798925295594
 20
353.2347497847004
 30
0.0
 11
494.7660694022957
 21
362.5194423846822
 31
0.0
  0
INSERT
  5
6C48
330
69B8
100
AcDbEntity
  8
SUNPOU
 48
5.0
100
AcDbBlockReference
  2
_OPEN
 10
498.4798925295594
 20
353.2347497847004
 30
0.0
 41
7.0
 42
7.0
 43
7.0
 50
111.8011226796472
  0
INSERT
  5
6C49
330
69B8
100
AcDbEntity
  8
SUNPOU
 48
5.0
100
AcDbBlockReference
  2
_OPEN
 10
494.7660694022957
 20
362.5194423846822
 30
0.0
 41
7.0
 42
7.0
 43
7.0
 50
291.8011226796472
  0
MTEXT
  5
6C4A
330
69B8
100
AcDbEntity
  8
SUNPOU
 48
5.0
100
AcDbMText
 10
492.1664345933039
 20
382.4817042520129
 30
0.0
 40
6.0
 41
0.0
 71
     5
 72
     1
  1
\A1;10
 11
0.3713860286538923
 21
-0.9284785499518502
 31
0.0
1001
ACAD
1000
MTEXTBEGIN
1070
    73
1070
     1
1070
    44
1040
1.0
1070
    74
1070
     0
1000
MTEXTEND
  0
POINT
  5
6C4B
330
69B8
100
AcDbEntity
  8
DEFPOINTS
 62
     0
 48
5.0
100
AcDbPoint
 10
527.7467889305927
 20
364.9413384032187
 30
0.0
  0
POINT
  5
6C4C
330
69B8
100
AcDbEntity
  8
DEFPOINTS
 62
     0
 48
5.0
100
AcDbPoint
 10
524.032965803329
 20
374.2260310032006
 30
0.0
  0
POINT
  5
6C4D
330
69B8
100
AcDbEntity
  8
DEFPOINTS
 62
     0
 48
5.0
100
AcDbPoint
 10
494.7660694022957
 20
362.5194423846822
 30
0.0
  0
ENDBLK
  5
69C5
330
69B8
100
AcDbEntity
  8
0
 48
5.0
100
AcDbBlockEnd
  0
BLOCK
  5
69D3
330
69C7
100
AcDbEntity
  8
0
 48
5.0
100
AcDbBlockBegin
  2
*D11
 70
     1
 10
0.0
 20
0.0
 30
0.0
  3
*D11
  1

  0
LINE
  5
6C57
330
69C7
100
AcDbEntity
  8
SUNPOU
 48
5.0
100
AcDbLine
 10
533.3177348825538
 20
334.8586137519122
 30
0.0
 11
506.8362806767389
 21
324.2660321071831
 31
0.0
  0
LINE
  5
6C58
330
69C7
100
AcDbEntity
  8
SUNPOU
 48
5.0
100
AcDbLine
 10
537.0316394324425
 20
325.5738523442354
 30
0.0
 11
510.5501852266276
 21
314.9812706995063
 31
0.0
  0
LINE
  5
6C59
330
69C7
100
AcDbEntity
  8
SUNPOU
 48
5.0
100
AcDbLine
 10
507.0219760242343
 20
331.879540972215
 30
0.0
 11
504.4222412977102
 21
338.3788778115937
 31
0.0
  0
LINE
  5
6C5A
330
69C7
100
AcDbEntity
  8
SUNPOU
 48
5.0
100
AcDbLine
 10
515.9353500271712
 20
309.5961058857808
 30
0.0
 11
522.6203821810902
 21
292.8835254416642
 31
0.0
  0
LINE
  5
6C5B
330
69C7
100
AcDbEntity
  8
SUNPOU
 48
5.0
100
AcDbLine
 10
509.6217107507583
 20
325.3802041328363
 30
0.0
 11
513.335615300647
 21
316.0954427251595
 31
0.0
  0
INSERT
  5
6C5C
330
69C7
100
AcDbEntity
  8
SUNPOU
 48
5.0
100
AcDbBlockReference
  2
_OPEN
 10
509.6217107507583
 20
325.3802041328363
 30
0.0
 41
7.0
 42
7.0
 43
7.0
 50
291.8014094162264
  0
INSERT
  5
6C5D
330
69C7
100
AcDbEntity
  8
SUNPOU
 48
5.0
100
AcDbBlockReference
  2
_OPEN
 10
513.335615300647
 20
316.0954427251595
 30
0.0
 41
7.0
 42
7.0
 43
7.0
 50
111.8014094162264
  0
MTEXT
  5
6C5E
330
69C7
100
AcDbEntity
  8
SUNPOU
 48
5.0
100
AcDbMText
 10
525.2201169240918
 20
299.8471006201218
 30
0.0
 40
6.0
 41
0.0
 71
     5
 72
     1
  1
\A1;10
 11
0.3713906752177246
 21
-0.9284766913398108
 31
0.0
1001
ACAD
1000
MTEXTBEGIN
1070
    73
1070
     1
1070
    44
1040
1.0
1070
    74
1070
     0
1000
MTEXTEND
  0
POINT
  5
6C5F
330
69C7
100
AcDbEntity
  8
DEFPOINTS
 62
     0
 48
5.0
100
AcDbPoint
 10
538.8885950305926
 20
337.0869578032186
 30
0.0
  0
POINT
  5
6C60
330
69C7
100
AcDbEntity
  8
DEFPOINTS
 62
     0
 48
5.0
100
AcDbPoint
 10
542.6024995804813
 20
327.8021963955418
 30
0.0
  0
POINT
  5
6C61
330
69C7
100
AcDbEntity
  8
DEFPOINTS
 62
     0
 48
5.0
100
AcDbPoint
 10
513.335615300647
 20
316.0954427251595
 30
0.0
  0
ENDBLK
  5
69D4
330
69C7
100
AcDbEntity
  8
0
 48
5.0
100
AcDbBlockEnd
  0
BLOCK
  5
69E0
330
69D6
100
AcDbEntity
  8
0
 48
5.0
100
AcDbBlockBegin
  2
*D12
 70
     1
 10
0.0
 20
0.0
 30
0.0
  3
*D12
  1

  0
LINE
  5
6BF9
330
69D6
100
AcDbEntity
  8
SUNPOU
 48
5.0
100
AcDbLine
 10
518.46210565529
 20
371.9976869518942
 30
0.0
 11
476.3568901179865
 21
355.1556007967525
 31
0.0
  0
LINE
  5
6BFA
330
69D6
100
AcDbEntity
  8
SUNPOU
 48
5.0
100
AcDbLine
 10
537.0316394324425
 20
325.5738523442355
 30
0.0
 11
494.9264238951389
 21
308.7317661890938
 31
0.0
  0
LINE
  5
6BFB
330
69D6
100
AcDbEntity
  8
SUNPOU
 48
5.0
100
AcDbLine
 10
481.7420549185299
 20
349.7704359830269
 30
0.0
 11
495.1121192426344
 21
316.3452750541256
 31
0.0
  0
INSERT
  5
6BFC
330
69D6
100
AcDbEntity
  8
SUNPOU
 48
5.0
100
AcDbBlockReference
  2
_OPEN
 10
479.142320192006
 20
356.2697728224057
 30
0.0
 41
7.0
 42
7.0
 43
7.0
 50
111.8014094162252
  0
INSERT
  5
6BFD
330
69D6
100
AcDbEntity
  8
SUNPOU
 48
5.0
100
AcDbBlockReference
  2
_OPEN
 10
497.7118539691584
 20
309.8459382147469
 30
0.0
 41
7.0
 42
7.0
 43
7.0
 50
291.8014094162253
  0
MTEXT
  5
6BFE
330
69D6
100
AcDbEntity
  8
SUNPOU
 48
5.0
100
AcDbMText
 10
493.0694705372813
 20
334.9148088946647
 30
0.0
 40
6.0
 41
0.0
 71
     5
 72
     1
  1
\A1;50
 11
0.3713906752177052
 21
-0.9284766913398186
 31
0.0
1001
ACAD
1000
MTEXTBEGIN
1070
    73
1070
     1
1070
    44
1040
1.0
1070
    74
1070
     0
1000
MTEXTEND
  0
POINT
  5
6BFF
330
69D6
100
AcDbEntity
  8
DEFPOINTS
 62
     0
 48
5.0
100
AcDbPoint
 10
524.032965803329
 20
374.2260310032005
 30
0.0
  0
POINT
  5
6C00
330
69D6
100
AcDbEntity
  8
DEFPOINTS
 62
     0
 48
5.0
100
AcDbPoint
 10
542.6024995804813
 20
327.8021963955418
 30
0.0
  0
POINT
  5
6C01
330
69D6
100
AcDbEntity
  8
DEFPOINTS
 62
     0
 48
5.0
100
AcDbPoint
 10
497.7118539691584
 20
309.8459382147469
 30
0.0
  0
ENDBLK
  5
69E1
330
69D6
100
AcDbEntity
  8
0
 48
5.0
100
AcDbBlockEnd
  0
ENDSEC
  0
SECTION
  2
ENTITIES
  0
TEXT
  5
7D7
330
1A
100
AcDbEntity
  8
SUNPOU
 62
     4
100
AcDbText
 10
345.4400125476481
 20
48.18435938075822
 30
0.0
 40
8.0
  1
軒樋の差し替え
100
AcDbText
  0
LINE
  5
6420
330
1A
100
AcDbEntity
  8
CENTER_L
 48
5.0
100
AcDbLine
 10
440.4136546940085
 20
465.6326129972867
 30
0.0
 11
457.7692952692993
 21
465.632799789471
 31
0.0
  0
LINE
  5
6421
330
1A
100
AcDbEntity
  8
CENTER_L
 48
5.0
100
AcDbLine
 10
440.4139076178489
 20
418.6321961236229
 30
0.0
 11
457.7695481941447
 21
418.6321961236229
 31
0.0
  0
ELLIPSE
  5
6422
330
1A
100
AcDbEntity
  8
SEIHIN
100
AcDbEllipse
 10
454.6626499557905
 20
465.6328063236229
 30
0.0
 11
0.0
 21
2.100017342893687
 31
0.0
210
0.0
220
0.0
230
1.0
 40
0.5270900462321757
 41
-1.570796326794896
 42
4.712388980384689
  0
LINE
  5
6423
330
1A
100
AcDbEntity
  8
SEIHIN
100
AcDbLine
 10
448.7094664217547
 20
444.6325012236229
 30
0.0
 11
455.7878310960011
 21
444.6325012236229
 31
0.0
  0
ARC
  5
6424
330
1A
100
AcDbEntity
  8
SEIHIN
100
AcDbCircle
 10
460.2332051389182
 20
465.4890393150532
 30
0.0
 40
8.171503226503281
100
AcDbArc
 50
178.9919030058092
 51
237.0430089228382
  0
ARC
  5
6425
330
1A
100
AcDbEntity
  8
SEIHIN
100
AcDbCircle
 10
459.3047291928606
 20
465.4890393150532
 30
0.0
 40
8.171503226503281
100
AcDbArc
 50
178.9919030058092
 51
237.0430089228382
  0
ELLIPSE
  5
6426
330
1A
100
AcDbEntity
  8
SEIHIN
100
AcDbEllipse
 10
454.2391278225945
 20
463.632501223623
 30
0.0
 11
0.0
 21
-10.0
 31
0.0
210
0.0
220
0.0
230
-1.0
 40
0.4137409209117209
 41
3.141592653589793
 42
4.712388980384689
  0
ELLIPSE
  5
6427
330
1A
100
AcDbEntity
  8
SEIHIN
100
AcDbEllipse
 10
454.2391278225945
 20
420.6325012236229
 30
0.0
 11
0.0
 21
10.0
 31
0.0
210
0.0
220
0.0
230
1.0
 40
0.4137409209117209
 41
3.141592653589793
 42
4.712388980384689
  0
ARC
  5
6428
330
1A
100
AcDbEntity
  8
SEIHIN
100
AcDbCircle
 10
459.3047291928606
 20
418.7759631321926
 30
0.0
 40
8.171503226503281
100
AcDbArc
 50
122.9569910771617
 51
181.0080969941908
  0
ARC
  5
6429
330
1A
100
AcDbEntity
  8
SEIHIN
100
AcDbCircle
 10
460.2332051389182
 20
418.7759631321926
 30
0.0
 40
8.171503226503281
100
AcDbArc
 50
122.9569910771617
 51
181.0080969941908
  0
LINE
  5
642A
330
1A
100
AcDbEntity
  8
SEIHIN
100
AcDbLine
 10
448.7094664217547
 20
439.6325012236229
 30
0.0
 11
455.7878310960011
 21
439.6325012236229
 31
0.0
  0
LINE
  5
642B
330
1A
100
AcDbEntity
  8
CENTER_L
 48
5.0
100
AcDbLine
 10
442.5924529665678
 20
298.5684729948733
 30
0.0
 11
461.1619867951694
 21
305.9962864999495
 31
0.0
  0
ELLIPSE
  5
642C
330
1A
100
AcDbEntity
  8
SEIHIN
100
AcDbEllipse
 10
454.6626499557905
 20
418.6321961236229
 30
0.0
 11
0.0
 21
-2.100017342893687
 31
0.0
210
0.0
220
0.0
230
-1.0
 40
0.5270900462321757
 41
-1.570796326794896
 42
4.712388980384689
  0
LINE
  5
642D
330
1A
100
AcDbEntity
  8
SEIHIN
100
AcDbLine
 10
452.0628955317118
 20
293.7404434036229
 30
0.0
 11
454.6626302317117
 21
292.6262713736229
 31
0.0
  0
LINE
  5
642E
330
1A
100
AcDbEntity
  8
SEIHIN
100
AcDbLine
 10
439.8070032317118
 20
340.5356686236229
 30
0.0
 11
458.3765370317117
 21
294.1118340736229
 31
0.0
  0
LINE
  5
642F
330
1A
100
AcDbEntity
  8
SEIHIN
100
AcDbLine
 10
454.6626302317117
 20
292.6262713736229
 30
0.0
 11
435.4988713317118
 21
340.5356686236229
 31
0.0
  0
LINE
  5
6430
330
1A
100
AcDbEntity
  8
CENTER_L
 48
5.0
100
AcDbLine
 10
303.8757564317118
 20
442.132501223623
 30
0.0
 11
465.3765370317116
 21
442.132501223623
 31
0.0
  0
ARC
  5
6436
330
1A
100
AcDbEntity
  8
NOKITOI
  6
PHANTOM
 62
     8
 48
5.0
100
AcDbCircle
 10
360.5231875136796
 20
309.2912869089666
 30
0.0
 40
41.79999437547816
100
AcDbArc
 50
184.474295212525
 51
269.9998545921058
  0
ARC
  5
6437
330
1A
100
AcDbEntity
  8
NOKITOI
  6
PHANTOM
 62
     8
 48
5.0
100
AcDbCircle
 10
360.5231652052543
 20
309.291307009993
 30
0.0
 40
43.00001447645168
100
AcDbArc
 50
186.5249107071174
 51
269.9998883751405
  0
LINE
  5
6438
330
1A
100
AcDbEntity
  8
SEIHIN
100
AcDbLine
 10
317.5070032317118
 20
311.5356686236229
 30
0.0
 11
383.7010766335491
 21
311.5356686236229
 31
0.0
  0
LINE
  5
6439
330
1A
100
AcDbEntity
  8
SEIHIN
100
AcDbLine
 10
318.8069032317117
 20
307.2356686236229
 30
0.0
 11
393.8069032317118
 21
298.0356686236229
 31
0.0
  0
LINE
  5
643D
330
1A
100
AcDbEntity
  8
NOKITOI
  6
PHANTOM
 62
     8
 48
5.0
100
AcDbLine
 10
317.2345814317118
 20
312.2650925336229
 30
0.0
 11
317.5503814317116
 21
318.2649925336229
 31
0.0
  0
LINE
  5
643E
330
1A
100
AcDbEntity
  8
NOKITOI
  6
PHANTOM
 62
     8
 48
5.0
100
AcDbLine
 10
315.2931814317121
 20
312.9912925336229
 30
0.0
 11
315.6972814317118
 21
315.8196925336228
 31
0.0
  0
ARC
  5
643F
330
1A
100
AcDbEntity
  8
NOKITOI
  6
PHANTOM
 62
     8
 48
5.0
100
AcDbCircle
 10
313.8298956501271
 20
314.7689778993219
 30
0.0
 40
0.5000073448410256
100
AcDbArc
 50
351.8729478641243
 51
96.47829282997079
  0
ARC
  5
6440
330
1A
100
AcDbEntity
  8
NOKITOI
  6
PHANTOM
 62
     8
 48
5.0
100
AcDbCircle
 10
314.2247193131584
 20
311.2913363161483
 30
0.0
 40
3.999989731271038
100
AcDbArc
 50
96.47731142013274
 51
181.7899836067311
  0
LINE
  5
6441
330
1A
100
AcDbEntity
  8
NOKITOI
  6
PHANTOM
 62
     8
 48
5.0
100
AcDbLine
 10
309.9734814317121
 20
319.2662925336228
 30
0.0
 11
310.1228814317114
 21
314.487392533623
 31
0.0
  0
ARC
  5
6442
330
1A
100
AcDbEntity
  8
NOKITOI
  6
PHANTOM
 62
     8
 48
5.0
100
AcDbCircle
 10
314.2248016443809
 20
311.2913512620029
 30
0.0
 40
5.2000412730095
100
AcDbArc
 50
90.0013245430618
 51
142.0757990790565
  0
LINE
  5
6443
330
1A
100
AcDbEntity
  8
NOKITOI
  6
PHANTOM
 62
     8
 48
5.0
100
AcDbLine
 10
316.0710814317117
 20
312.9912925336229
 30
0.0
 11
316.2522814317117
 21
316.4327925336231
 31
0.0
  0
LINE
  5
6444
330
1A
100
AcDbEntity
  8
NOKITOI
  6
PHANTOM
 62
     8
 48
5.0
100
AcDbLine
 10
308.7740814317116
 20
319.2287925336229
 30
0.0
 11
309.1642814317115
 21
306.7444925336228
 31
0.0
  0
ARC
  5
6445
330
1A
100
AcDbEntity
  8
SEIHIN
100
AcDbCircle
 10
313.8441239317117
 20
314.5356686236229
 30
0.0
 40
0.4999999819549718
100
AcDbArc
 50
344.0527525602594
 51
90.0
  0
ARC
  5
6446
330
1A
100
AcDbEntity
  8
SEIHIN
100
AcDbCircle
 10
314.3056700317117
 20
311.6280256536229
 30
0.0
 40
3.499985586412125
100
AcDbArc
 50
103.1906183451954
 51
181.5120869038279
  0
LINE
  5
6447
330
1A
100
AcDbEntity
  8
NOKITOI
  6
PHANTOM
 62
     8
 48
5.0
100
AcDbLine
 10
316.7351814317116
 20
311.7912925336229
 30
0.0
 11
314.4860814317116
 21
311.7912925336229
 31
0.0
  0
LINE
  5
6448
330
1A
100
AcDbEntity
  8
NOKITOI
  6
PHANTOM
 62
     8
 48
5.0
100
AcDbLine
 10
310.6634814317117
 20
305.2912925336229
 30
0.0
 11
316.8081814317115
 21
305.2912925336229
 31
0.0
  0
LINE
  5
6449
330
1A
100
AcDbEntity
  8
NOKITOI
  6
PHANTOM
 62
     8
 48
5.0
100
AcDbLine
 10
318.3520814317121
 20
306.4912925336229
 30
0.0
 11
312.3111814317117
 21
306.4912925336229
 31
0.0
  0
ARC
  5
644A
330
1A
100
AcDbEntity
  8
SEIHIN
100
AcDbCircle
 10
315.5070159317117
 20
315.2854693036229
 30
0.0
 40
4.249771090849538
100
AcDbArc
 50
248.0384870086003
 51
298.0724108493039
  0
LINE
  5
644B
330
1A
100
AcDbEntity
  8
SEIHIN
100
AcDbLine
 10
313.8069032317117
 20
307.2356686236229
 30
0.0
 11
318.8069032317117
 21
307.2356686236229
 31
0.0
  0
LINE
  5
644C
330
1A
100
AcDbEntity
  8
NOKITOI
  6
PHANTOM
 62
     8
 48
5.0
100
AcDbLine
 10
310.3121814317114
 20
308.4288925336229
 30
0.0
 11
310.2266814317117
 21
311.1663925336229
 31
0.0
  0
ARC
  5
644D
330
1A
100
AcDbEntity
  8
SEIHIN
100
AcDbCircle
 10
313.8069032317117
 20
310.2356686236229
 30
0.0
 40
3.0
100
AcDbArc
 50
180.0
 51
270.0
  0
ARC
  5
644E
330
1A
100
AcDbEntity
  8
NOKITOI
  6
PHANTOM
 62
     8
 48
5.0
100
AcDbCircle
 10
312.3111950038501
 20
308.4912793785365
 30
0.0
 40
1.999986844959662
100
AcDbArc
 50
181.7875531852355
 51
269.9996111843215
  0
ARC
  5
644F
330
1A
100
AcDbEntity
  8
NOKITOI
  6
PHANTOM
 62
     8
 48
5.0
100
AcDbCircle
 10
310.6635173908625
 20
306.7912576794797
 30
0.0
 40
1.499965146287778
100
AcDbArc
 50
181.7866280217767
 51
269.9986264297005
  0
LINE
  5
6450
330
1A
100
AcDbEntity
  8
NOKITOI
  6
PHANTOM
 62
     8
 48
5.0
100
AcDbLine
 10
313.9911814317115
 20
312.3620925336231
 30
0.0
 11
314.3248814317116
 21
314.6982925336231
 31
0.0
  0
ARC
  5
6451
330
1A
100
AcDbEntity
  8
NOKITOI
  6
PHANTOM
 62
     8
 48
5.0
100
AcDbCircle
 10
314.4861080323094
 20
312.2912618567409
 30
0.0
 40
0.4999693238254178
100
AcDbArc
 50
171.8555038770536
 51
269.9969516090372
  0
LINE
  5
6452
330
1A
100
AcDbEntity
  8
SEIHIN
100
AcDbLine
 10
310.8069032317117
 20
311.5356686236229
 30
0.0
 11
310.8069032317117
 21
310.2356686236229
 31
0.0
  0
ARC
  5
6453
330
1A
100
AcDbEntity
  8
SEIHIN
100
AcDbCircle
 10
314.1046626317117
 20
311.8077993136229
 30
0.0
 40
0.4999999747859474
100
AcDbArc
 50
164.052751458443
 51
248.0384921718607
  0
LINE
  5
6454
330
1A
100
AcDbEntity
  8
SEIHIN
100
AcDbLine
 10
314.3248814317118
 20
314.3982925336229
 30
0.0
 11
313.6239051317118
 21
311.9451754136229
 31
0.0
  0
LINE
  5
6455
330
1A
100
AcDbEntity
  8
SEIHIN
100
AcDbLine
 10
317.5069032317117
 20
307.2356686236229
 30
0.0
 11
317.5069032317117
 21
311.5356686236229
 31
0.0
  0
ARC
  5
6456
330
1A
100
AcDbEntity
  8
NOKITOI
  6
PHANTOM
 62
     8
 48
5.0
100
AcDbCircle
 10
318.35209400142
 20
305.9912809088932
 30
0.0
 40
0.5000116248877111
100
AcDbArc
 50
4.474846808341977
 51
90.00144034898383
  0
ARC
  5
6457
330
1A
100
AcDbEntity
  8
NOKITOI
  6
PHANTOM
 62
     8
 48
5.0
100
AcDbCircle
 10
316.8081730075491
 20
304.2913000486794
 30
0.0
 40
0.9999924849789756
100
AcDbArc
 50
6.528264606673562
 51
89.99951732740802
  0
LINE
  5
6458
330
1A
100
AcDbEntity
  8
NOKITOI
  6
PHANTOM
 62
     8
 48
5.0
100
AcDbLine
 10
316.0710814317117
 20
312.9912925336229
 30
0.0
 11
315.2931814317121
 21
312.9912925336229
 31
0.0
  0
ARC
  5
6459
330
1A
100
AcDbEntity
  8
NOKITOI
  6
PHANTOM
 62
     8
 48
5.0
100
AcDbCircle
 10
316.7351745447167
 20
312.2912859985374
 30
0.0
 40
0.499993464961963
100
AcDbArc
 50
270.0007892017836
 51
356.997036131742
  0
LINE
  5
645A
330
1A
100
AcDbEntity
  8
NOKITOI
  6
PHANTOM
 62
     8
 48
5.0
100
AcDbLine
 10
314.686581431712
 20
316.491292533623
 30
0.0
 11
315.6823814317117
 21
317.5912925336231
 31
0.0
  0
LINE
  5
645B
330
1A
100
AcDbEntity
  8
NOKITOI
  6
PHANTOM
 62
     8
 48
5.0
100
AcDbLine
 10
312.7458814317119
 20
317.5912925336231
 30
0.0
 11
315.6823814317117
 21
317.5912925336231
 31
0.0
  0
LINE
  5
645C
330
1A
100
AcDbEntity
  8
NOKITOI
  6
PHANTOM
 62
     8
 48
5.0
100
AcDbLine
 10
317.0509814317115
 20
318.7912925336229
 30
0.0
 11
314.8194814317116
 21
318.7912925336229
 31
0.0
  0
LINE
  5
645D
330
1A
100
AcDbEntity
  8
NOKITOI
  6
PHANTOM
 62
     8
 48
5.0
100
AcDbLine
 10
314.3291814317117
 20
319.3893925336228
 30
0.0
 11
314.5899814317117
 21
320.6932925336229
 31
0.0
  0
ARC
  5
645E
330
1A
100
AcDbEntity
  8
NOKITOI
  6
PHANTOM
 62
     8
 48
5.0
100
AcDbCircle
 10
310.7730941825616
 20
319.2913056887093
 30
0.0
 40
1.999986844954076
100
AcDbArc
 50
90.00036528735288
 51
181.7883072882702
  0
ARC
  5
645F
330
1A
100
AcDbEntity
  8
NOKITOI
  6
PHANTOM
 62
     8
 48
5.0
100
AcDbCircle
 10
310.7730859265097
 20
319.2912971711498
 30
0.0
 40
0.7999953624857498
100
AcDbArc
 50
90.00032191805264
 51
181.7911273464192
  0
LINE
  5
6460
330
1A
100
AcDbEntity
  8
NOKITOI
  6
PHANTOM
 62
     8
 48
5.0
100
AcDbLine
 10
314.686581431712
 20
316.491292533623
 30
0.0
 11
314.2246814317118
 21
316.491292533623
 31
0.0
  0
ARC
  5
6461
330
1A
100
AcDbEntity
  8
NOKITOI
  6
PHANTOM
 62
     8
 48
5.0
100
AcDbCircle
 10
314.8194741771562
 20
319.2913013834663
 30
0.0
 40
0.5000088498959383
100
AcDbArc
 50
168.6864043304889
 51
270.0008312961425
  0
LINE
  5
6462
330
1A
100
AcDbEntity
  8
NOKITOI
  6
PHANTOM
 62
     8
 48
5.0
100
AcDbLine
 10
310.7730814317115
 20
320.0912925336231
 30
0.0
 11
313.2458814317119
 21
320.0912925336231
 31
0.0
  0
LINE
  5
6463
330
1A
100
AcDbEntity
  8
NOKITOI
  6
PHANTOM
 62
     8
 48
5.0
100
AcDbLine
 10
313.2458814317119
 20
320.0912925336231
 30
0.0
 11
312.7458814317119
 21
317.5912925336231
 31
0.0
  0
LINE
  5
6464
330
1A
100
AcDbEntity
  8
SEIHIN
100
AcDbLine
 10
313.5069032317117
 20
315.0356686236229
 30
0.0
 11
313.8441239317117
 21
315.0356686236229
 31
0.0
  0
ARC
  5
6465
330
1A
100
AcDbEntity
  8
NOKITOI
  6
PHANTOM
 62
     8
 48
5.0
100
AcDbCircle
 10
314.0996806487032
 20
320.7912934886246
 30
0.0
 40
0.4999990449987349
100
AcDbArc
 50
348.6967198015444
 51
89.99991027369329
  0
LINE
  5
6466
330
1A
100
AcDbEntity
  8
NOKITOI
  6
PHANTOM
 62
     8
 48
5.0
100
AcDbLine
 10
310.7730814317115
 20
321.2912925336229
 30
0.0
 11
314.0996814317118
 21
321.2912925336229
 31
0.0
  0
ARC
  5
6467
330
1A
100
AcDbEntity
  8
NOKITOI
  6
PHANTOM
 62
     8
 48
5.0
100
AcDbCircle
 10
317.0509752305538
 20
318.2912990687082
 30
0.0
 40
0.4999934649531607
100
AcDbArc
 50
356.9955363203377
 51
89.99928939038239
  0
LINE
  5
6468
330
1A
100
AcDbEntity
  8
NOKITOI
  6
PHANTOM
 62
     8
 48
5.0
100
AcDbLine
 10
315.6972814317118
 20
315.8196925336228
 30
0.0
 11
316.2522814317117
 21
316.4327925336231
 31
0.0
  0
LINE
  5
6469
330
1A
100
AcDbEntity
  8
NOKITOI
  6
PHANTOM
 62
     8
 48
5.0
100
AcDbLine
 10
415.4046814317121
 20
275.7739925336229
 30
0.0
 11
405.4193814317118
 21
267.6041925336228
 31
0.0
  0
LINE
  5
646A
330
1A
100
AcDbEntity
  8
NOKITOI
  6
PHANTOM
 62
     8
 48
5.0
100
AcDbLine
 10
416.3889814317117
 20
275.0288925336231
 30
0.0
 11
405.9858814317117
 21
266.517192533623
 31
0.0
  0
LINE
  5
646B
330
1A
100
AcDbEntity
  8
NOKITOI
  6
PHANTOM
 62
     8
 48
5.0
100
AcDbLine
 10
360.5231814317117
 20
267.4912925336229
 30
0.0
 11
405.1027814317117
 21
267.491192533623
 31
0.0
  0
LINE
  5
646C
330
1A
100
AcDbEntity
  8
NOKITOI
  6
PHANTOM
 62
     8
 48
5.0
100
AcDbLine
 10
405.3525814317117
 20
266.2911925336229
 30
0.0
 11
360.5231814317117
 21
266.2912925336229
 31
0.0
  0
LINE
  5
646D
330
1A
100
AcDbEntity
  8
NOKITOI
  6
PHANTOM
 62
     8
 48
5.0
100
AcDbLine
 10
401.1027814317117
 20
267.491192533623
 30
0.0
 11
381.194681431712
 21
267.491192533623
 31
0.0
  0
LINE
  5
646E
330
1A
100
AcDbEntity
  8
NOKITOI
  6
PHANTOM
 62
     8
 48
5.0
100
AcDbLine
 10
401.3525814317118
 20
266.2911925336229
 30
0.0
 11
381.194681431712
 21
266.2911925336229
 31
0.0
  0
ARC
  5
6472
330
1A
100
AcDbEntity
  8
NOKITOI
  6
PHANTOM
 62
     8
 48
5.0
100
AcDbCircle
 10
405.1027878194604
 20
267.9911948136125
 30
0.0
 40
0.5000022800304047
100
AcDbArc
 50
269.9992680212823
 51
309.2854498596061
  0
ARC
  5
6473
330
1A
100
AcDbEntity
  8
NOKITOI
  6
PHANTOM
 62
     8
 48
5.0
100
AcDbCircle
 10
405.3525744991343
 20
267.2911900586168
 30
0.0
 40
0.9999975250179316
100
AcDbArc
 50
270.0003972084052
 51
309.2946416752289
  0
LINE
  5
6474
330
1A
100
AcDbEntity
  8
SEIHIN
100
AcDbLine
 10
393.0282480317117
 20
320.6108034236229
 30
0.0
 11
387.6954304735243
 21
313.5281551322025
 31
0.0
  0
LINE
  5
6475
330
1A
100
AcDbEntity
  8
SEIHIN
100
AcDbLine
 10
397.9552307317117
 20
309.0356686236229
 30
0.0
 11
341.0177983317117
 21
309.0356686236229
 31
0.0
  0
LINE
  5
6476
330
1A
100
AcDbEntity
  8
SEIHIN
100
AcDbLine
 10
393.0164533317118
 20
300.6456097536229
 30
0.0
 11
340.8959680317117
 21
307.0431176736229
 31
0.0
  0
ARC
  5
6477
330
1A
100
AcDbEntity
  8
SEIHIN
100
AcDbCircle
 10
341.0177983317117
 20
308.0356686236229
 30
0.0
 40
1.000000002585995
100
AcDbArc
 50
90.0
 51
263.0022538529114
  0
ARC
  5
6478
330
1A
100
AcDbEntity
  8
SEIHIN
100
AcDbCircle
 10
383.7010766335491
 20
316.5356686236229
 30
0.0
 40
5.0
100
AcDbArc
 50
270.0
 51
323.0224035383008
  0
ARC
  5
6479
330
1A
100
AcDbEntity
  8
NOKITOI
  6
PHANTOM
 62
     8
 48
5.0
100
AcDbCircle
 10
423.1945505047756
 20
311.2913282782867
 30
0.0
 40
3.99998565374706
100
AcDbArc
 50
358.208696659101
 51
83.52422380468341
  0
LINE
  5
647A
330
1A
100
AcDbEntity
  8
NOKITOI
  6
PHANTOM
 62
     8
 48
5.0
100
AcDbLine
 10
427.4456814317113
 20
319.2662925336228
 30
0.0
 11
427.2963814317117
 21
314.487292533623
 31
0.0
  0
LINE
  5
647B
330
1A
100
AcDbEntity
  8
NOKITOI
  6
PHANTOM
 62
     8
 48
5.0
100
AcDbLine
 10
422.1259814317113
 20
312.9912925336229
 30
0.0
 11
421.7219814317117
 21
315.8196925336228
 31
0.0
  0
LINE
  5
647C
330
1A
100
AcDbEntity
  8
NOKITOI
  6
PHANTOM
 62
     8
 48
5.0
100
AcDbLine
 10
420.1846814317118
 20
312.2649925336229
 30
0.0
 11
419.8688814317115
 21
318.2649925336229
 31
0.0
  0
LINE
  5
647D
330
1A
100
AcDbEntity
  8
NOKITOI
  6
PHANTOM
 62
     8
 48
5.0
100
AcDbLine
 10
421.3480814317117
 20
312.9912925336229
 30
0.0
 11
421.1669814317115
 21
316.4326925336229
 31
0.0
  0
ARC
  5
647E
330
1A
100
AcDbEntity
  8
NOKITOI
  6
PHANTOM
 62
     8
 48
5.0
100
AcDbCircle
 10
423.1945635653605
 20
311.2913012620028
 30
0.0
 40
5.199991271650611
100
AcDbArc
 50
37.92532860472895
 51
89.99980314072724
  0
ARC
  5
647F
330
1A
100
AcDbEntity
  8
NOKITOI
  6
PHANTOM
 62
     8
 48
5.0
100
AcDbCircle
 10
423.5893108042114
 20
314.7689227661178
 30
0.0
 40
0.4999578477751074
100
AcDbArc
 50
83.52609071220436
 51
188.1330561712928
  0
LINE
  5
6480
330
1A
100
AcDbEntity
  8
NOKITOI
  6
PHANTOM
 62
     8
 48
5.0
100
AcDbLine
 10
428.6450814317118
 20
319.2287925336229
 30
0.0
 11
428.2549814317117
 21
306.7443925336228
 31
0.0
  0
LINE
  5
6481
330
1A
100
AcDbEntity
  8
SEIHIN
100
AcDbLine
 10
395.0254257317117
 20
319.1070477236229
 30
0.0
 11
390.5304599317116
 21
313.1371713236229
 31
0.0
  0
LINE
  5
6482
330
1A
100
AcDbEntity
  8
SEIHIN
100
AcDbLine
 10
418.6994039317117
 20
333.9240207236229
 30
0.0
 11
402.1423368317117
 21
311.9341659236229
 31
0.0
  0
LINE
  5
6483
330
1A
100
AcDbEntity
  8
SEIHIN
100
AcDbLine
 10
408.6061927317117
 20
316.3627171236229
 30
0.0
 11
397.1139163317118
 21
301.0995376336229
 31
0.0
  0
LINE
  5
6484
330
1A
100
AcDbEntity
  8
SEIHIN
100
AcDbLine
 10
434.3846993317117
 20
337.9359339236229
 30
0.0
 11
452.0628955317118
 21
293.7404434036229
 31
0.0
  0
LINE
  5
6485
330
1A
100
AcDbEntity
  8
SEIHIN
100
AcDbLine
 10
428.8070032317119
 20
320.5356686236229
 30
0.0
 11
428.8070032317119
 21
302.3941305736229
 31
0.0
  0
LINE
  5
6486
330
1A
100
AcDbEntity
  8
SEIHIN
100
AcDbLine
 10
429.0517740317118
 20
321.6498406236229
 30
0.0
 11
438.7488866317116
 21
297.407059303623
 31
0.0
  0
LINE
  5
6487
330
1A
100
AcDbEntity
  8
SEIHIN
100
AcDbLine
 10
431.5385815317117
 20
322.1642779236229
 30
0.0
 11
441.7385815317118
 21
296.6642779436229
 31
0.0
  0
LINE
  5
6488
330
1A
100
AcDbEntity
  8
NOKITOI
  6
PHANTOM
 62
     8
 48
5.0
100
AcDbLine
 10
420.6839814317118
 20
311.7912925336229
 30
0.0
 11
422.9330814317113
 21
311.7912925336229
 31
0.0
  0
LINE
  5
6489
330
1A
100
AcDbEntity
  8
NOKITOI
  6
PHANTOM
 62
     8
 48
5.0
100
AcDbLine
 10
421.3480814317117
 20
312.9912925336229
 30
0.0
 11
422.1259814317113
 21
312.9912925336229
 31
0.0
  0
LINE
  5
648A
330
1A
100
AcDbEntity
  8
NOKITOI
  6
PHANTOM
 62
     8
 48
5.0
100
AcDbLine
 10
419.0760814317114
 20
306.4912925336229
 30
0.0
 11
425.1079814317117
 21
306.4912925336229
 31
0.0
  0
LINE
  5
648B
330
1A
100
AcDbEntity
  8
NOKITOI
  6
PHANTOM
 62
     8
 48
5.0
100
AcDbLine
 10
426.7556814317117
 20
305.2912925336229
 30
0.0
 11
420.6145814317119
 21
305.2912925336229
 31
0.0
  0
LINE
  5
648C
330
1A
100
AcDbEntity
  8
NOKITOI
  6
PHANTOM
 62
     8
 48
5.0
100
AcDbLine
 10
418.5785814317118
 20
306.0410925336229
 30
0.0
 11
415.5855814317114
 21
276.1112925336228
 31
0.0
  0
LINE
  5
648D
330
1A
100
AcDbEntity
  8
NOKITOI
  6
PHANTOM
 62
     8
 48
5.0
100
AcDbLine
 10
419.619581431712
 20
304.3907925336229
 30
0.0
 11
416.7507814317118
 21
275.7033925336229
 31
0.0
  0
ARC
  5
648E
330
1A
100
AcDbEntity
  8
NOKITOI
  6
PHANTOM
 62
     8
 48
5.0
100
AcDbCircle
 10
415.0880640058335
 20
276.160960047235
 30
0.0
 40
0.4999904508696396
100
AcDbArc
 50
309.2900846377951
 51
354.2990110749239
  0
ARC
  5
648F
330
1A
100
AcDbEntity
  8
NOKITOI
  6
PHANTOM
 62
     8
 48
5.0
100
AcDbCircle
 10
415.7557588588429
 20
275.8028504619503
 30
0.0
 40
0.9999908507640039
100
AcDbArc
 50
309.2887092230664
 51
354.286232947753
  0
LINE
  5
6490
330
1A
100
AcDbEntity
  8
SEIHIN
100
AcDbLine
 10
393.8069032317118
 20
298.0356686236229
 30
0.0
 11
413.2308684317117
 21
294.235327613623
 31
0.0
  0
LINE
  5
6491
330
1A
100
AcDbEntity
  8
SEIHIN
100
AcDbLine
 10
397.6603652317117
 20
299.530417663623
 30
0.0
 11
411.8177948317118
 21
295.8371751636229
 31
0.0
  0
LINE
  5
6492
330
1A
100
AcDbEntity
  8
SEIHIN
100
AcDbLine
 10
398.7541015317117
 20
307.4341659236229
 30
0.0
 11
393.9371544317117
 21
301.0366580036229
 31
0.0
  0
ARC
  5
6493
330
1A
100
AcDbEntity
  8
SEIHIN
100
AcDbCircle
 10
397.9127871317117
 20
300.4980349336229
 30
0.0
 40
1.000000012500439
100
AcDbArc
 50
143.0224045627638
 51
255.3791258185317
  0
ARC
  5
6494
330
1A
100
AcDbEntity
  8
SEIHIN
100
AcDbCircle
 10
393.1382836317118
 20
301.6381607036229
 30
0.0
 40
1.000000015885966
100
AcDbArc
 50
263.0022538529114
 51
323.0224045627638
  0
LINE
  5
6495
330
1A
100
AcDbEntity
  8
SEIHIN
100
AcDbLine
 10
391.3293307317116
 20
311.5356686236229
 30
0.0
 11
401.3434660317117
 21
311.5356686236229
 31
0.0
  0
ARC
  5
6496
330
1A
100
AcDbEntity
  8
SEIHIN
100
AcDbCircle
 10
391.3293307317116
 20
312.5356686236229
 30
0.0
 40
1.000000013299998
100
AcDbArc
 50
143.0224045627645
 51
270.0
  0
ARC
  5
6497
330
1A
100
AcDbEntity
  8
SEIHIN
100
AcDbCircle
 10
397.9552307317117
 20
308.0356686236229
 30
0.0
 40
1.000000013299971
100
AcDbArc
 50
323.0224045627638
 51
90.0
  0
ARC
  5
6498
330
1A
100
AcDbEntity
  8
SEIHIN
100
AcDbCircle
 10
401.3434660317117
 20
312.5356686236229
 30
0.0
 40
1.000000013299993
100
AcDbArc
 50
270.0
 51
323.0224045627652
  0
LINE
  5
6499
330
1A
100
AcDbEntity
  8
SEIHIN
100
AcDbLine
 10
415.3069032317116
 20
303.7856686236229
 30
0.0
 11
415.3069032317116
 21
298.8807921936229
 31
0.0
  0
LINE
  5
649A
330
1A
100
AcDbEntity
  8
SEIHIN
100
AcDbLine
 10
416.8069032317117
 20
297.1795055736229
 30
0.0
 11
416.8069032317117
 21
303.7856686236229
 31
0.0
  0
ARC
  5
649B
330
1A
100
AcDbEntity
  8
SEIHIN
100
AcDbCircle
 10
414.4425086317117
 20
296.4074914536229
 30
0.0
 40
2.000000006371225
100
AcDbArc
 50
81.61883576217576
 51
181.9830051328352
  0
ARC
  5
649C
330
1A
100
AcDbEntity
  8
SEIHIN
100
AcDbCircle
 10
413.8069032317116
 20
297.1795055736229
 30
0.0
 40
2.999999995913402
100
AcDbArc
 50
258.9297977643304
 51
0.0
  0
ARC
  5
649D
330
1A
100
AcDbEntity
  8
SEIHIN
100
AcDbCircle
 10
411.9440057317117
 20
296.3209838036229
 30
0.0
 40
0.5000000119990663
100
AcDbArc
 50
255.3791315071996
 51
1.983005033706972
  0
ARC
  5
649E
330
1A
100
AcDbEntity
  8
SEIHIN
100
AcDbCircle
 10
414.8069032317116
 20
298.8807921936229
 30
0.0
 40
0.500000006319505
100
AcDbArc
 50
261.618824467159
 51
0.0
  0
ARC
  5
649F
330
1A
100
AcDbEntity
  8
SEIHIN
100
AcDbCircle
 10
416.0569032317116
 20
303.7856686236229
 30
0.0
 40
0.75
100
AcDbArc
 50
0.0
 51
90.0
  0
ARC
  5
64A0
330
1A
100
AcDbEntity
  8
SEIHIN
100
AcDbCircle
 10
416.0569032317116
 20
303.7856686236229
 30
0.0
 40
0.75
100
AcDbArc
 50
90.0
 51
180.0
  0
ARC
  5
64A1
330
1A
100
AcDbEntity
  8
NOKITOI
  6
PHANTOM
 62
     8
 48
5.0
100
AcDbCircle
 10
419.0760945027164
 20
305.9913043639028
 30
0.0
 40
0.499988169890889
100
AcDbArc
 50
90.00149786226472
 51
174.2966061377164
  0
ARC
  5
64A2
330
1A
100
AcDbEntity
  8
NOKITOI
  6
PHANTOM
 62
     8
 48
5.0
100
AcDbCircle
 10
420.6146020815526
 20
304.2913112214721
 30
0.0
 40
0.9999813123640345
100
AcDbArc
 50
90.00118317084911
 51
174.2905900333514
  0
ARC
  5
64A3
330
1A
100
AcDbEntity
  8
NOKITOI
  6
PHANTOM
 62
     8
 48
5.0
100
AcDbCircle
 10
420.6839855531184
 20
312.2912886235924
 30
0.0
 40
0.4999960899864752
100
AcDbArc
 50
183.0147243791742
 51
269.9995277178578
  0
ARC
  5
64A4
330
1A
100
AcDbEntity
  8
SEIHIN
100
AcDbCircle
 10
437.8204099317117
 20
297.0356686236229
 30
0.0
 40
1.000000004908427
100
AcDbArc
 50
270.0
 51
21.8014094863512
  0
LINE
  5
64A5
330
1A
100
AcDbEntity
  8
SEIHIN
100
AcDbLine
 10
430.3115298317118
 20
293.5356686236229
 30
0.0
 11
451.3583761317118
 21
293.5356686236229
 31
0.0
  0
LINE
  5
64A6
330
1A
100
AcDbEntity
  8
SEIHIN
100
AcDbLine
 10
422.4443552317118
 20
303.5296933836229
 30
0.0
 11
427.2926118317118
 21
295.2647552836229
 31
0.0
  0
LINE
  5
64A7
330
1A
100
AcDbEntity
  8
SEIHIN
100
AcDbLine
 10
424.0105359317117
 20
304.7462324836229
 30
0.0
 11
432.5146159317118
 21
296.3251047636229
 31
0.0
  0
ARC
  5
64A8
330
1A
100
AcDbEntity
  8
SEIHIN
100
AcDbCircle
 10
430.3115298317118
 20
297.0356686236229
 30
0.0
 40
3.499999996322441
100
AcDbArc
 50
210.3961124587318
 51
270.0
  0
ARC
  5
64A9
330
1A
100
AcDbEntity
  8
SEIHIN
100
AcDbCircle
 10
427.8070032317118
 20
302.3941305736229
 30
0.0
 40
0.999999993911855
100
AcDbArc
 50
225.2808117673386
 51
0.0
  0
LINE
  5
64AA
330
1A
100
AcDbEntity
  8
SEIHIN
100
AcDbLine
 10
433.2182487317118
 20
296.0356686236229
 30
0.0
 11
437.8204099317117
 21
296.0356686236229
 31
0.0
  0
ARC
  5
64AB
330
1A
100
AcDbEntity
  8
SEIHIN
100
AcDbCircle
 10
433.2182487317118
 20
297.0356686236229
 30
0.0
 40
1.000000029093474
100
AcDbArc
 50
225.2808076961064
 51
270.0
  0
LINE
  5
64AC
330
1A
100
AcDbEntity
  8
NOKITOI
  6
PHANTOM
 62
     8
 48
5.0
100
AcDbLine
 10
427.1070814317117
 20
308.4286925336229
 30
0.0
 11
427.1925814317114
 21
311.1662925336229
 31
0.0
  0
ARC
  5
64AD
330
1A
100
AcDbEntity
  8
NOKITOI
  6
PHANTOM
 62
     8
 48
5.0
100
AcDbCircle
 10
425.108019419536
 20
308.4912293541951
 30
0.0
 40
2.000036820932882
100
AcDbArc
 50
269.9989117490344
 51
358.2110591274196
  0
ARC
  5
64AE
330
1A
100
AcDbEntity
  8
SEIHIN
100
AcDbCircle
 10
423.3069032317116
 20
304.0356686236229
 30
0.0
 40
1.000000000797301
100
AcDbArc
 50
45.28081987008772
 51
210.3961139413397
  0
ARC
  5
64AF
330
1A
100
AcDbEntity
  8
NOKITOI
  6
PHANTOM
 62
     8
 48
5.0
100
AcDbCircle
 10
426.7556986448899
 20
306.7913092167707
 30
0.0
 40
1.500016683246579
100
AcDbArc
 50
269.999342512336
 51
358.2076423244112
  0
LINE
  5
64B0
330
1A
100
AcDbEntity
  8
NOKITOI
  6
PHANTOM
 62
     8
 48
5.0
100
AcDbLine
 10
423.4280814317116
 20
312.3619925336229
 30
0.0
 11
423.0942814317118
 21
314.6981925336231
 31
0.0
  0
ARC
  5
64B1
330
1A
100
AcDbEntity
  8
NOKITOI
  6
PHANTOM
 62
     8
 48
5.0
100
AcDbCircle
 10
422.933091618148
 20
312.291304278347
 30
0.0
 40
0.5000117448278309
100
AcDbArc
 50
269.9988327478032
 51
8.127314608715781
  0
LINE
  5
64B2
330
1A
100
AcDbEntity
  8
SEIHIN
100
AcDbLine
 10
442.6670582317117
 20
296.0356686236229
 30
0.0
 11
449.6677724317116
 21
296.0356686236229
 31
0.0
  0
ARC
  5
64B3
330
1A
100
AcDbEntity
  8
SEIHIN
100
AcDbCircle
 10
442.6670582317117
 20
297.0356686236229
 30
0.0
 40
1.000000004908425
100
AcDbArc
 50
201.8014094863512
 51
270.0
  0
ARC
  5
64B4
330
1A
100
AcDbEntity
  8
SEIHIN
100
AcDbCircle
 10
449.6677724317116
 20
297.0356686236229
 30
0.0
 40
1.000000004908454
100
AcDbArc
 50
270.0
 51
21.80140948635045
  0
LINE
  5
64B5
330
1A
100
AcDbEntity
  8
SEIHIN
100
AcDbLine
 10
452.0628955317118
 20
293.7404434036229
 30
0.0
 11
451.7297668317117
 21
293.6071919336229
 31
0.0
  0
ARC
  5
64B6
330
1A
100
AcDbEntity
  8
SEIHIN
100
AcDbCircle
 10
451.3583761317118
 20
294.5356686236229
 30
0.0
 40
1.000000003979961
100
AcDbArc
 50
270.0
 51
291.8014107631017
  0
LINE
  5
64B7
330
1A
100
AcDbEntity
  8
NOKITOI
  6
PHANTOM
 62
     8
 48
5.0
100
AcDbLine
 10
420.3681814317119
 20
318.7912925336229
 30
0.0
 11
422.5996814317118
 21
318.7912925336229
 31
0.0
  0
LINE
  5
64B8
330
1A
100
AcDbEntity
  8
NOKITOI
  6
PHANTOM
 62
     8
 48
5.0
100
AcDbLine
 10
421.7219814317117
 20
315.8196925336228
 30
0.0
 11
421.1669814317115
 21
316.4326925336229
 31
0.0
  0
ARC
  5
64B9
330
1A
100
AcDbEntity
  8
SEIHIN
100
AcDbCircle
 10
422.9858665317117
 20
305.5356686236229
 30
0.0
 40
17.9999999696633
100
AcDbArc
 50
90.0
 51
143.0224036682703
  0
LINE
  5
64BA
330
1A
100
AcDbEntity
  8
SEIHIN
100
AcDbLine
 10
424.0918436317117
 20
336.9295972236229
 30
0.0
 11
417.0951934317117
 21
327.6371713236229
 31
0.0
  0
LINE
  5
64BB
330
1A
100
AcDbEntity
  8
SEIHIN
100
AcDbLine
 10
417.8940642317118
 20
326.0356686236229
 30
0.0
 11
437.6677724317117
 21
326.0356686236229
 31
0.0
  0
ARC
  5
64BC
330
1A
100
AcDbEntity
  8
SEIHIN
100
AcDbCircle
 10
432.9717865317117
 20
290.5356686236229
 30
0.0
 40
50.00000000569577
100
AcDbArc
 50
90.0000013750972
 51
143.0224037119466
  0
ARC
  5
64BD
330
1A
100
AcDbEntity
  8
SEIHIN
100
AcDbCircle
 10
432.9717865317117
 20
290.5356686236229
 30
0.0
 40
47.50000002840709
100
AcDbArc
 50
108.9118434825498
 51
143.0224021474801
  0
ARC
  5
64BE
330
1A
100
AcDbEntity
  8
SEIHIN
100
AcDbCircle
 10
417.8940642317118
 20
327.0356686236229
 30
0.0
 40
1.000000013299975
100
AcDbArc
 50
143.0224045627638
 51
270.0
  0
ARC
  5
64BF
330
1A
100
AcDbEntity
  8
NOKITOI
  6
PHANTOM
 62
     8
 48
5.0
100
AcDbCircle
 10
420.368185141207
 20
318.2912964436536
 30
0.0
 40
0.4999960899831856
100
AcDbArc
 50
90.00042508014919
 51
183.0156217414646
  0
ARC
  5
64C0
330
1A
100
AcDbEntity
  8
SEIHIN
100
AcDbCircle
 10
417.9005332317117
 20
334.5255234236229
 30
0.0
 40
0.9999999858333294
100
AcDbArc
 50
323.02240111641
 51
108.9118445391177
  0
ARC
  5
64C1
330
1A
100
AcDbEntity
  8
SEIHIN
100
AcDbCircle
 10
432.3156416317117
 20
335.0308310236229
 30
0.0
 40
2.999999927323406
100
AcDbArc
 50
21.8014094863512
 51
90.84484735346727
  0
ARC
  5
64C2
330
1A
100
AcDbEntity
  8
SEIHIN
100
AcDbCircle
 10
432.9717865317117
 20
290.5356686236229
 30
0.0
 40
47.4999999948513
100
AcDbArc
 50
90.84484711396877
 51
100.0080475800432
  0
LINE
  5
64C3
330
1A
100
AcDbEntity
  8
CENTER_L
 48
5.0
100
AcDbLine
 10
431.4506933019488
 20
326.4228721690256
 30
0.0
 11
450.0202271365488
 21
333.8506856765011
 31
0.0
  0
LINE
  5
64C4
330
1A
100
AcDbEntity
  8
CENTER_L
 48
5.0
100
AcDbLine
 10
434.960335204028
 20
317.6487674098573
 30
0.0
 11
453.5298690367382
 21
325.076580916577
 31
0.0
  0
ARC
  5
64C5
330
1A
100
AcDbEntity
  8
SEIHIN
100
AcDbCircle
 10
437.6677724317117
 20
327.0356686236229
 30
0.0
 40
1.000000008622361
100
AcDbArc
 50
270.0
 51
21.8014105503069
  0
LINE
  5
64C6
330
1A
100
AcDbEntity
  8
SEIHIN
100
AcDbLine
 10
432.4670582317117
 20
323.5356686236229
 30
0.0
 11
438.1137065317115
 21
323.5356686236229
 31
0.0
  0
LINE
  5
64C7
330
1A
100
AcDbEntity
  8
SEIHIN
100
AcDbLine
 10
426.9983056317117
 20
323.5356686236229
 30
0.0
 11
434.8502634317116
 21
323.5356686236229
 31
0.0
  0
ARC
  5
64C8
330
1A
100
AcDbEntity
  8
NOKITOI
  6
PHANTOM
 62
     8
 48
5.0
100
AcDbCircle
 10
426.6460701947176
 20
319.29130412744
 30
0.0
 40
1.999988406214315
100
AcDbArc
 50
358.2088726535938
 51
89.99967808195389
  0
LINE
  5
64C9
330
1A
100
AcDbEntity
  8
NOKITOI
  6
PHANTOM
 62
     8
 48
5.0
100
AcDbLine
 10
423.0899814317117
 20
319.3892925336231
 30
0.0
 11
422.8291814317117
 21
320.6932925336229
 31
0.0
  0
LINE
  5
64CA
330
1A
100
AcDbEntity
  8
NOKITOI
  6
PHANTOM
 62
     8
 48
5.0
100
AcDbLine
 10
426.6460814317119
 20
320.0911925336229
 30
0.0
 11
424.1733814317117
 21
320.0912925336231
 31
0.0
  0
LINE
  5
64CB
330
1A
100
AcDbEntity
  8
NOKITOI
  6
PHANTOM
 62
     8
 48
5.0
100
AcDbLine
 10
424.1733814317117
 20
320.0912925336231
 30
0.0
 11
424.6733814317117
 21
317.5912925336231
 31
0.0
  0
LINE
  5
64CC
330
1A
100
AcDbEntity
  8
NOKITOI
  6
PHANTOM
 62
     8
 48
5.0
100
AcDbLine
 10
422.7325814317119
 20
316.491292533623
 30
0.0
 11
421.7367814317117
 21
317.5912925336231
 31
0.0
  0
LINE
  5
64CD
330
1A
100
AcDbEntity
  8
NOKITOI
  6
PHANTOM
 62
     8
 48
5.0
100
AcDbLine
 10
422.7325814317119
 20
316.491292533623
 30
0.0
 11
423.1945814317119
 21
316.491292533623
 31
0.0
  0
ARC
  5
64CE
330
1A
100
AcDbEntity
  8
NOKITOI
  6
PHANTOM
 62
     8
 48
5.0
100
AcDbCircle
 10
422.5996806487033
 20
319.2912915786212
 30
0.0
 40
0.4999990449987399
100
AcDbArc
 50
270.0000897263067
 51
11.30328019845552
  0
LINE
  5
64CF
330
1A
100
AcDbEntity
  8
NOKITOI
  6
PHANTOM
 62
     8
 48
5.0
100
AcDbLine
 10
424.6733814317117
 20
317.5912925336231
 30
0.0
 11
421.7367814317117
 21
317.5912925336231
 31
0.0
  0
ARC
  5
64D0
330
1A
100
AcDbEntity
  8
NOKITOI
  6
PHANTOM
 62
     8
 48
5.0
100
AcDbCircle
 10
426.6461253980646
 20
319.2912471711499
 30
0.0
 40
0.7999453636812564
100
AcDbArc
 50
358.2123436447881
 51
90.00314907315425
  0
LINE
  5
64D1
330
1A
100
AcDbEntity
  8
NOKITOI
  6
PHANTOM
 62
     8
 48
5.0
100
AcDbLine
 10
426.6460814317119
 20
321.2911925336229
 30
0.0
 11
423.3194814317116
 21
321.2912925336229
 31
0.0
  0
LINE
  5
64D2
330
1A
100
AcDbEntity
  8
SEIHIN
100
AcDbLine
 10
422.9858665317117
 20
323.5356686236229
 30
0.0
 11
426.9983056317117
 21
323.5356686236229
 31
0.0
  0
ARC
  5
64D3
330
1A
100
AcDbEntity
  8
NOKITOI
  6
PHANTOM
 62
     8
 48
5.0
100
AcDbCircle
 10
423.3194741771562
 20
320.7912836837795
 30
0.0
 40
0.500008849895925
100
AcDbArc
 50
89.99916870385741
 51
191.3135956695126
  0
ARC
  5
64D4
330
1A
100
AcDbEntity
  8
SEIHIN
100
AcDbCircle
 10
425.8070032317118
 20
320.5356686236229
 30
0.0
 40
3.0
100
AcDbArc
 50
0.0
 51
90.0
  0
ARC
  5
64D5
330
1A
100
AcDbEntity
  8
SEIHIN
100
AcDbCircle
 10
426.2663439317115
 20
320.5356686236229
 30
0.0
 40
3.000000007297522
100
AcDbArc
 50
21.80140877704856
 51
90.0
  0
ARC
  5
64D6
330
1A
100
AcDbEntity
  8
SEIHIN
100
AcDbCircle
 10
432.4670582317117
 20
322.5356686236229
 30
0.0
 40
1.000000008622332
100
AcDbArc
 50
90.0
 51
201.8014105503076
  0
ARC
  5
64D7
330
1A
100
AcDbEntity
  8
SEIHIN
100
AcDbCircle
 10
424.8907143317117
 20
336.3280945236229
 30
0.0
 40
0.9999999964809097
100
AcDbArc
 50
100.0080471782631
 51
143.0224011164094
  0
ARC
  5
64D8
330
1A
100
AcDbEntity
  8
SEIHIN
100
AcDbCircle
 10
438.1137065317115
 20
320.5356686236229
 30
0.0
 40
3.000000007297522
100
AcDbArc
 50
21.80140877704856
 51
90.0
  0
LINE
  5
64D9
330
1A
100
AcDbEntity
  8
SEIHIN
100
AcDbLine
 10
432.9717853317117
 20
340.5356686236229
 30
0.0
 11
439.8070032317118
 21
340.5356686236229
 31
0.0
  0
LINE
  5
64DA
330
1A
100
AcDbEntity
  8
SEIHIN
100
AcDbLine
 10
435.4988713317118
 20
340.5356686236229
 30
0.0
 11
434.3846993317117
 21
337.9359339236229
 31
0.0
  0
ELLIPSE
  5
64DB
330
1A
100
AcDbEntity
  8
SEIHIN
100
AcDbEllipse
 10
443.5208902971701
 20
465.6328063236229
 30
0.0
 11
0.0
 21
2.100017342893687
 31
0.0
210
0.0
220
0.0
230
1.0
 40
0.5270900462321757
 41
-1.570796326794896
 42
4.712388980384689
  0
ELLIPSE
  5
64DC
330
1A
100
AcDbEntity
  8
SEIHIN
100
AcDbEllipse
 10
447.0305321973596
 20
465.6328063236229
 30
0.0
 11
0.0
 21
3.299973402712441
 31
0.0
210
0.0
220
0.0
230
-1.0
 40
0.5144285670877982
 41
-1.570796326794896
 42
4.712388980384689
  0
ELLIPSE
  5
64DD
330
1A
100
AcDbEntity
  8
SEIHIN
100
AcDbEllipse
 10
443.9311124408289
 20
463.632501223623
 30
0.0
 11
0.0
 21
-10.0
 31
0.0
210
0.0
220
0.0
230
-1.0
 40
0.4137409209117209
 41
1.570796326794896
 42
3.141592653589793
  0
ELLIPSE
  5
64DE
330
1A
100
AcDbEntity
  8
SEIHIN
100
AcDbEllipse
 10
439.6362805408289
 20
463.632501223623
 30
0.0
 11
0.0
 21
-10.0
 31
0.0
210
0.0
220
0.0
230
-1.0
 40
0.4137409209117209
 41
1.570796326794896
 42
3.182867559275397
  0
ELLIPSE
  5
64DF
330
1A
100
AcDbEntity
  8
SEIHIN
100
AcDbEllipse
 10
448.7203998285658
 20
446.6324713385535
 30
0.0
 11
0.0109334068110675
 21
1.999970114930596
 31
0.0
210
0.0
220
0.0
230
1.0
 40
0.3713906582773347
 41
7.853981633974482
 42
9.424777960769379
  0
ELLIPSE
  5
64E0
330
1A
100
AcDbEntity
  8
SEIHIN
100
AcDbEllipse
 10
449.9738749106527
 20
465.6328063236229
 30
0.0
 11
0.0
 21
2.982065487962188
 31
0.0
210
0.0
220
0.0
230
-1.0
 40
0.3891986461618436
 41
6.694694287254683
 42
7.853981633974482
  0
ELLIPSE
  5
64E1
330
1A
100
AcDbEntity
  8
SEIHIN
100
AcDbEllipse
 10
450.9023508567103
 20
465.6328063236229
 30
0.0
 11
0.0
 21
2.982065487962188
 31
0.0
210
0.0
220
0.0
230
-1.0
 40
0.3891986461618436
 41
4.712388980384689
 42
7.853981633974482
  0
ELLIPSE
  5
64E2
330
1A
100
AcDbEntity
  8
SEIHIN
100
AcDbEllipse
 10
439.6362805408289
 20
420.6325012236229
 30
0.0
 11
0.0
 21
10.0
 31
0.0
210
0.0
220
0.0
230
1.0
 40
0.4137409209117209
 41
1.570796326794896
 42
3.182867559275397
  0
ELLIPSE
  5
64E3
330
1A
100
AcDbEntity
  8
SEIHIN
100
AcDbEllipse
 10
443.9311124408289
 20
420.6325012236229
 30
0.0
 11
0.0
 21
10.0
 31
0.0
210
0.0
220
0.0
230
1.0
 40
0.4137409209117209
 41
1.570796326794896
 42
3.141592653589793
  0
ELLIPSE
  5
64E4
330
1A
100
AcDbEntity
  8
SEIHIN
100
AcDbEllipse
 10
449.9738749106527
 20
418.6321961236229
 30
0.0
 11
0.0
 21
-2.982065487962188
 31
0.0
210
0.0
220
0.0
230
1.0
 40
0.3891986461618436
 41
6.694694287254683
 42
7.853981633974482
  0
ELLIPSE
  5
64E5
330
1A
100
AcDbEntity
  8
SEIHIN
100
AcDbEllipse
 10
450.9023508567103
 20
418.6321961236229
 30
0.0
 11
0.0
 21
-2.982065487962188
 31
0.0
210
0.0
220
0.0
230
1.0
 40
0.3891986461618436
 41
4.712388980384689
 42
7.853981633974482
  0
ELLIPSE
  5
64E6
330
1A
100
AcDbEntity
  8
SEIHIN
100
AcDbEllipse
 10
448.7203998285658
 20
437.6325311086923
 30
0.0
 11
0.0109334068110675
 21
-1.999970114930596
 31
0.0
210
0.0
220
0.0
230
-1.0
 40
0.3713906582773347
 41
7.853981633974482
 42
9.424777960769379
  0
ELLIPSE
  5
64E7
330
1A
100
AcDbEntity
  8
SEIHIN
100
AcDbEllipse
 10
444.820809653351
 20
455.1324752236229
 30
0.0
 11
0.0
 21
-2.0
 31
0.0
210
0.0
220
0.0
230
-1.0
 40
0.3713906582773347
 41
3.141592653589793
 42
4.712388980384689
  0
ELLIPSE
  5
64E8
330
1A
100
AcDbEntity
  8
SEIHIN
100
AcDbEllipse
 10
442.4067694404295
 20
455.132501223623
 30
0.0
 11
0.0
 21
-2.0
 31
0.0
210
0.0
220
0.0
230
-1.0
 40
0.3713906582773347
 41
7.853981633974482
 42
9.424777960769379
  0
ELLIPSE
  5
64E9
330
1A
100
AcDbEntity
  8
SEIHIN
100
AcDbEllipse
 10
445.7492855994087
 20
455.132501223623
 30
0.0
 11
0.0
 21
-2.0
 31
0.0
210
0.0
220
0.0
230
-1.0
 40
0.3713906582773347
 41
3.141592653589793
 42
4.712388980384689
  0
ELLIPSE
  5
64EA
330
1A
100
AcDbEntity
  8
SEIHIN
100
AcDbEllipse
 10
444.820809653351
 20
429.132527223623
 30
0.0
 11
0.0
 21
2.0
 31
0.0
210
0.0
220
0.0
230
1.0
 40
0.3713906582773347
 41
3.141592653589793
 42
4.712388980384689
  0
ELLIPSE
  5
64EB
330
1A
100
AcDbEntity
  8
SEIHIN
100
AcDbEllipse
 10
445.7492855994087
 20
429.1325012236229
 30
0.0
 11
0.0
 21
2.0
 31
0.0
210
0.0
220
0.0
230
1.0
 40
0.3713906582773347
 41
3.141592653589793
 42
4.712388980384689
  0
ELLIPSE
  5
64EC
330
1A
100
AcDbEntity
  8
SEIHIN
100
AcDbEllipse
 10
442.4067694404295
 20
429.1325012236229
 30
0.0
 11
0.0
 21
2.0
 31
0.0
210
0.0
220
0.0
230
1.0
 40
0.3713906582773347
 41
7.853981633974482
 42
9.424777960769379
  0
ELLIPSE
  5
64ED
330
1A
100
AcDbEntity
  8
SEIHIN
100
AcDbEllipse
 10
443.5208902971701
 20
418.6321961236229
 30
0.0
 11
0.0
 21
-2.100017342893687
 31
0.0
210
0.0
220
0.0
230
-1.0
 40
0.5270900462321757
 41
-1.570796326794896
 42
4.712388980384689
  0
ELLIPSE
  5
64EE
330
1A
100
AcDbEntity
  8
SEIHIN
100
AcDbEllipse
 10
447.0305321973596
 20
418.6321961236229
 30
0.0
 11
0.0
 21
-3.299973402712441
 31
0.0
210
0.0
220
0.0
230
1.0
 40
0.5144285670877982
 41
-1.570796326794896
 42
4.712388980384689
  0
LINE
  5
64EF
330
1A
100
AcDbEntity
  8
SEIHIN
100
AcDbLine
 10
318.4937032317117
 20
452.1325012236229
 30
0.0
 11
430.7937032317117
 21
452.1325012236229
 31
0.0
  0
LINE
  5
64F0
330
1A
100
AcDbEntity
  8
SEIHIN
100
AcDbLine
 10
318.4937032317117
 20
432.1325012236229
 30
0.0
 11
430.4988713317118
 21
432.1325012236229
 31
0.0
  0
LINE
  5
64F2
330
1A
100
AcDbEntity
  8
SEIHIN
100
AcDbLine
 10
317.4937032317117
 20
454.1325012236229
 30
0.0
 11
317.4937032317117
 21
453.1325012236229
 31
0.0
  0
LINE
  5
64F3
330
1A
100
AcDbEntity
  8
SEIHIN
100
AcDbLine
 10
317.4937032317117
 20
454.1325012236229
 30
0.0
 11
317.4937032317117
 21
453.1325012236229
 31
0.0
  0
LINE
  5
64F4
330
1A
100
AcDbEntity
  8
SEIHIN
100
AcDbLine
 10
314.4937032317117
 20
430.132501223623
 30
0.0
 11
314.4937032317117
 21
454.1325012236229
 31
0.0
  0
LINE
  5
64F5
330
1A
100
AcDbEntity
  8
SEIHIN
100
AcDbLine
 10
310.7937032317118
 20
430.1324012236229
 30
0.0
 11
310.7937032317118
 21
454.1325012236229
 31
0.0
  0
LINE
  5
64F6
330
1A
100
AcDbEntity
  8
SEIHIN
100
AcDbLine
 10
317.4937032317117
 20
430.132501223623
 30
0.0
 11
317.4937032317117
 21
431.1325012236229
 31
0.0
  0
LINE
  5
64F7
330
1A
100
AcDbEntity
  8
SEIHIN
100
AcDbLine
 10
317.4937032317117
 20
430.1324012236229
 30
0.0
 11
317.4937032317117
 21
431.1325012236229
 31
0.0
  0
LINE
  5
64F8
330
1A
100
AcDbEntity
  8
SEIHIN
100
AcDbLine
 10
310.7937032317118
 20
430.132501223623
 30
0.0
 11
317.4937032317117
 21
430.132501223623
 31
0.0
  0
ARC
  5
64F9
330
1A
100
AcDbEntity
  8
SEIHIN
100
AcDbCircle
 10
318.4937032317117
 20
431.1325012236229
 30
0.0
 40
1.0
100
AcDbArc
 50
90.0
 51
180.0
  0
ARC
  5
64FA
330
1A
100
AcDbEntity
  8
SEIHIN
100
AcDbCircle
 10
318.4937032317117
 20
453.1325012236229
 30
0.0
 40
1.0
100
AcDbArc
 50
180.0
 51
270.0
  0
LINE
  5
64FB
330
1A
100
AcDbEntity
  8
SEIHIN
100
AcDbLine
 10
310.7937032317118
 20
454.1325012236229
 30
0.0
 11
317.4937032317117
 21
454.1325012236229
 31
0.0
  0
ARC
  5
64FC
330
1A
100
AcDbEntity
  8
SEIHIN
100
AcDbCircle
 10
429.3846993317117
 20
457.1325012236228
 30
0.0
 40
5.0
100
AcDbArc
 50
270.0
 51
0.0000000000008142
  0
ARC
  5
64FD
330
1A
100
AcDbEntity
  8
SEIHIN
100
AcDbCircle
 10
430.4988713317118
 20
457.1325012236228
 30
0.0
 40
5.0
100
AcDbArc
 50
270.0
 51
0.0000000000008142
  0
LINE
  5
64FE
330
1A
100
AcDbEntity
  8
SEIHIN
100
AcDbLine
 10
447.9776296110467
 20
446.6365319037063
 30
0.0
 11
447.9776296110467
 21
458.6325012236229
 31
0.0
  0
LINE
  5
64FF
330
1A
100
AcDbEntity
  8
SEIHIN
100
AcDbLine
 10
439.8070032317118
 20
419.8313264221546
 30
0.0
 11
439.8070032317118
 21
464.4336760250912
 31
0.0
  0
LINE
  5
6500
330
1A
100
AcDbEntity
  8
SEIHIN
100
AcDbLine
 10
445.5635909699055
 20
429.1325012236229
 30
0.0
 11
445.5635909699055
 21
455.132501223623
 31
0.0
  0
LINE
  5
6501
330
1A
100
AcDbEntity
  8
SEIHIN
100
AcDbLine
 10
439.7933585317118
 20
464.1323024236229
 30
0.0
 11
439.7937032317117
 21
442.132401223623
 31
0.0
  0
LINE
  5
6502
330
1A
100
AcDbEntity
  8
SEIHIN
100
AcDbLine
 10
446.4920669159632
 20
429.1324752236229
 30
0.0
 11
446.4920669159632
 21
455.1324752236229
 31
0.0
  0
LINE
  5
6503
330
1A
100
AcDbEntity
  8
SEIHIN
100
AcDbLine
 10
441.6639881239982
 20
429.1325012236229
 30
0.0
 11
441.6639881239982
 21
455.132501223623
 31
0.0
  0
LINE
  5
6504
330
1A
100
AcDbEntity
  8
SEIHIN
100
AcDbLine
 10
386.1814032317117
 20
433.1325012236229
 30
0.0
 11
386.1814032317117
 21
451.132501223623
 31
0.0
  0
ARC
  5
6505
330
1A
100
AcDbEntity
  8
SEIHIN
100
AcDbCircle
 10
430.4988713317118
 20
427.132501223623
 30
0.0
 40
5.0
100
AcDbArc
 50
359.9999999999992
 51
90.0
  0
ARC
  5
6506
330
1A
100
AcDbEntity
  8
SEIHIN
100
AcDbCircle
 10
429.3846993317117
 20
427.132501223623
 30
0.0
 40
5.0
100
AcDbArc
 50
359.9999999999992
 51
90.0
  0
LINE
  5
6507
330
1A
100
AcDbEntity
  8
SEIHIN
100
AcDbLine
 10
447.9776296110467
 20
437.6284705435396
 30
0.0
 11
447.9776296110467
 21
425.632501223623
 31
0.0
  0
LINE
  5
6508
330
1A
100
AcDbEntity
  8
SEIHIN
100
AcDbLine
 10
439.7937032317117
 20
420.1325001236229
 30
0.0
 11
439.7937032317117
 21
442.132401223623
 31
0.0
  0
LINE
  5
6509
330
1A
100
AcDbEntity
  8
SEIHIN
100
AcDbLine
 10
434.3846993317117
 20
420.632501123623
 30
0.0
 11
436.376661356317
 21
414.4737099370858
 31
0.0
  0
LINE
  5
650A
330
1A
100
AcDbEntity
  8
SEIHIN
100
AcDbLine
 10
434.3846993317117
 20
420.632501123623
 30
0.0
 11
434.3846993317117
 21
427.1325012236229
 31
0.0
  0
LINE
  5
650B
330
1A
100
AcDbEntity
  8
SEIHIN
100
AcDbLine
 10
435.4988713317118
 20
420.6325012236229
 30
0.0
 11
435.4988713317118
 21
427.1325012236229
 31
0.0
  0
ARC
  5
650C
330
1A
100
AcDbEntity
  8
SEIHIN
100
AcDbCircle
 10
420.3575759172247
 20
414.9497017839477
 30
0.0
 40
29.61400968997507
100
AcDbArc
 50
7.14320551991976
 51
21.14532028438155
  0
LINE
  5
650D
330
1A
100
AcDbEntity
  8
CENTER_L
 48
5.0
100
AcDbLine
 10
447.0305321973596
 20
423.9321329498236
 30
0.0
 11
447.0305321973596
 21
413.3326232650928
 31
0.0
  0
LINE
  5
650E
330
1A
100
AcDbEntity
  8
CENTER_L
 48
5.0
100
AcDbLine
 10
443.5208902971701
 20
421.6321961236229
 30
0.0
 11
443.5208902971701
 21
415.6321961236229
 31
0.0
  0
LINE
  5
650F
330
1A
100
AcDbEntity
  8
SEIHIN
100
AcDbLine
 10
439.6362805408289
 20
410.6325012236229
 30
0.0
 11
454.2391278225945
 21
410.6325012236229
 31
0.0
  0
LINE
  5
6510
330
1A
100
AcDbEntity
  8
SEIHIN
100
AcDbLine
 10
442.4067694404295
 20
427.1325012236229
 30
0.0
 11
445.7439090972939
 21
427.132553617844
 31
0.0
  0
LINE
  5
6511
330
1A
100
AcDbEntity
  8
SEIHIN
100
AcDbLine
 10
434.3846993317117
 20
463.6325013236229
 30
0.0
 11
436.376661356317
 21
469.7912925101601
 31
0.0
  0
LINE
  5
6512
330
1A
100
AcDbEntity
  8
SEIHIN
100
AcDbLine
 10
434.3846993317117
 20
463.6325013236229
 30
0.0
 11
434.3846993317117
 21
457.1325012236229
 31
0.0
  0
LINE
  5
6513
330
1A
100
AcDbEntity
  8
SEIHIN
100
AcDbLine
 10
435.4988713317118
 20
463.632501223623
 30
0.0
 11
435.4988713317118
 21
457.1325012236229
 31
0.0
  0
LINE
  5
6514
330
1A
100
AcDbEntity
  8
CENTER_L
 48
5.0
100
AcDbLine
 10
447.0303363143484
 20
460.3327473836166
 30
0.0
 11
447.0302222358413
 21
470.9322570677335
 31
0.0
  0
LINE
  5
6515
330
1A
100
AcDbEntity
  8
CENTER_L
 48
5.0
100
AcDbLine
 10
443.5208902971701
 20
462.6328063236229
 30
0.0
 11
443.5208902971701
 21
468.632806323623
 31
0.0
  0
ARC
  5
6516
330
1A
100
AcDbEntity
  8
SEIHIN
100
AcDbCircle
 10
420.3575759172247
 20
469.3153006632981
 30
0.0
 40
29.61400968997507
100
AcDbArc
 50
338.8546797156176
 51
352.8567944800802
  0
LINE
  5
6517
330
1A
100
AcDbEntity
  8
SEIHIN
100
AcDbLine
 10
442.4067694404295
 20
457.1325012236229
 30
0.0
 11
445.7439090972939
 21
457.1324488294019
 31
0.0
  0
LINE
  5
6518
330
1A
100
AcDbEntity
  8
SEIHIN
100
AcDbLine
 10
439.6362805408289
 20
473.6325012236229
 30
0.0
 11
454.2391278225945
 21
473.6325012236229
 31
0.0
  0
LEADER
  5
6519
330
1A
100
AcDbEntity
  8
SUNPOU
100
AcDbLeader
  3
STANDARD
 73
     0
 40
6.000000000000001
 41
31.19999999999999
 76
     3
 10
577.8792800492559
 20
372.2146021411642
 30
0.0
 10
602.949858255616
 20
353.4145419462369
 30
0.0
 10
608.2159302401677
 20
353.4145419462369
 30
0.0
340
651A
213
0.0
223
-3.0
233
0.0
1001
ACAD
1000
DSTYLE
1002
{
1070
     6
1000
OPEN
1070
    41
1040
3.0
1070
    42
1040
3.0
1070
    43
1040
7.0
1070
    44
1040
1.5
1070
    73
1070
     0
1070
    74
1070
     0
1070
    77
1070
     0
1070
   140
1040
3.0
1070
   141
1040
3.0
1070
   147
1040
1.0
1070
   172
1070
     1
1070
   173
1070
     1
1070
   176
1070
   256
1070
   177
1070
   256
1070
   178
1070
   256
1070
   271
1070
     0
1070
   272
1070
     0
1070
   341
1005
6D
1070
   343
1005
6D
1070
   344
1005
6D
1002
}
  0
MTEXT
  5
651A
102
{ACAD_REACTORS
330
6519
102
}
330
1A
100
AcDbEntity
  8
SUNPOU
100
AcDbMText
 10
609.2159302401677
 20
356.4145419462369
 30
0.0
 40
6.0
 41
0.0
 71
     1
 72
     5
  1
\A1;2-φ6.6
1001
ACAD
1000
MTEXTBEGIN
1070
    73
1070
     1
1070
    44
1040
1.0
1070
    74
1070
     0
1000
MTEXTEND
1000
MTEXTBEGIN
1070
    73
1070
     1
1070
    44
1040
1.0
1070
    74
1070
     0
1000
MTEXTEND
1000
MTEXTBEGIN
1070
    73
1070
     1
1070
    44
1040
1.0
1070
    74
1070
     0
1000
MTEXTEND
1000
MTEXTBEGIN
1070
    73
1070
     1
1070
    44
1040
1.0
1070
    74
1070
     0
1000
MTEXTEND
  0
LEADER
  5
651B
330
1A
100
AcDbEntity
  8
SUNPOU
100
AcDbLeader
  3
STANDARD
 73
     0
 40
6.0
 41
31.19999999999999
 76
     3
 10
525.7350975785612
 20
365.7000200915306
 30
0.0
 10
500.5924192120973
 20
391.6649827209191
 30
0.0
 10
495.1485963493546
 20
391.6649827209191
 30
0.0
340
651C
213
0.0
223
3.0
233
0.0
1001
ACAD
1000
DSTYLE
1002
{
1070
     6
1000
OPEN
1070
    41
1040
3.0
1070
    42
1040
3.0
1070
    43
1040
7.0
1070
    44
1040
1.5
1070
    73
1070
     0
1070
    74
1070
     0
1070
    77
1070
     0
1070
   140
1040
3.0
1070
   141
1040
3.0
1070
   147
1040
1.0
1070
   172
1070
     1
1070
   173
1070
     1
1070
   176
1070
   256
1070
   177
1070
   256
1070
   178
1070
   256
1070
   271
1070
     0
1070
   272
1070
     0
1070
   341
1005
6D
1070
   343
1005
6D
1070
   344
1005
6D
1002
}
  0
MTEXT
  5
651C
102
{ACAD_REACTORS
330
651B
102
}
330
1A
100
AcDbEntity
  8
SUNPOU
100
AcDbMText
 10
494.1485963493546
 20
388.6649827209191
 30
0.0
 40
6.0
 41
0.0
 71
     9
 72
     5
  1
\A1;4-φ4.2
1001
ACAD
1000
MTEXTBEGIN
1070
    73
1070
     1
1070
    44
1040
1.0
1070
    74
1070
     0
1000
MTEXTEND
1000
MTEXTBEGIN
1070
    73
1070
     1
1070
    44
1040
1.0
1070
    74
1070
     0
1000
MTEXTEND
1000
MTEXTBEGIN
1070
    73
1070
     1
1070
    44
1040
1.0
1070
    74
1070
     0
1000
MTEXTEND
1000
MTEXTBEGIN
1070
    73
1070
     1
1070
    44
1040
1.0
1070
    74
1070
     0
1000
MTEXTEND
  0
LINE
  5
6520
330
1A
100
AcDbEntity
  8
CENTER_L
 48
5.0
100
AcDbLine
 10
572.1835563015011
 20
380.4004244500054
 30
0.0
 11
577.6058601596845
 21
366.8446647564318
 31
0.0
  0
LINE
  5
6521
330
1A
100
AcDbEntity
  8
CENTER_L
 48
5.0
100
AcDbLine
 10
525.4627362780023
 20
370.6514700549627
 30
0.0
 11
530.0308415831834
 21
359.2312067514746
 31
0.0
  0
LINE
  5
6522
330
1A
100
AcDbEntity
  8
SEIHIN
100
AcDbLine
 10
534.5246104305927
 20
370.8835842032186
 30
0.0
 11
537.8671432305928
 21
362.5273007032186
 31
0.0
  0
LINE
  5
6523
330
1A
100
AcDbEntity
  8
SEIHIN
100
AcDbLine
 10
540.4668802305929
 20
361.4131338032186
 30
0.0
 11
564.6072548305929
 21
371.0693397032186
 31
0.0
  0
ARC
  5
6524
330
1A
100
AcDbEntity
  8
SEIHIN
100
AcDbCircle
 10
530.0273051305929
 20
364.6250862032186
 30
0.0
 40
10.00000078825524
100
AcDbArc
 50
114.8011861426514
 51
201.8015283302185
  0
LINE
  5
6525
330
1A
100
AcDbEntity
  8
SEIHIN
100
AcDbLine
 10
579.0941009305928
 20
384.6649600032186
 30
0.0
 11
589.6736257305928
 21
358.2163013032186
 31
0.0
  0
LINE
  5
6526
330
1A
100
AcDbEntity
  8
CENTER_L
 48
5.0
100
AcDbLine
 10
543.8823731305927
 20
387.8778760032186
 30
0.0
 11
566.4212535305929
 21
331.5306748032186
 31
0.0
  0
LINE
  5
6529
330
1A
100
AcDbEntity
  8
SUNPOU
100
AcDbLine
 10
468.738610383554
 20
268.2066506140177
 30
0.0
 11
488.9886067835539
 21
217.5816595540177
 31
0.0
  0
LINE
  5
652A
330
1A
100
AcDbEntity
  8
SUNPOU
100
AcDbLine
 10
488.9886067835539
 20
217.5816595540177
 30
0.0
 11
479.4150143835538
 21
217.5816595540177
 31
0.0
  0
MTEXT
  5
652B
330
1A
100
AcDbEntity
  8
SUNPOU
100
AcDbMText
 10
480.9753739835539
 20
216.0303224200176
 30
0.0
 40
6.349999666
 41
0.0
 71
     1
 72
     5
  1
{\W1.111111;4}
1001
ACAD
1000
MTEXTBEGIN
1070
    73
1070
     1
1070
    44
1040
1.0
1070
    74
1070
     0
1000
MTEXTEND
1000
MTEXTBEGIN
1070
    73
1070
     1
1070
    44
1040
1.0
1070
    74
1070
     0
1000
MTEXTEND
1000
MTEXTBEGIN
1070
    73
1070
     1
1070
    44
1040
1.0
1070
    74
1070
     0
1000
MTEXTEND
1000
MTEXTBEGIN
1070
    73
1070
     1
1070
    44
1040
1.0
1070
    74
1070
     0
1000
MTEXTEND
  0
LINE
  5
652C
330
1A
100
AcDbEntity
  8
SUNPOU
100
AcDbLine
 10
479.4150143835538
 20
241.5156405540177
 30
0.0
 11
479.4150143835538
 21
217.5816595540177
 31
0.0
  0
MTEXT
  5
652D
330
1A
100
AcDbEntity
  8
SUNPOU
100
AcDbMText
 10
467.5780473835541
 20
234.6821747200177
 30
0.0
 40
6.349999666
 41
0.0
 71
     1
 72
     5
  1
{\W1.269841;10}
1001
ACAD
1000
MTEXTBEGIN
1070
    73
1070
     1
1070
    44
1040
1.0
1070
    74
1070
     0
1000
MTEXTEND
1000
MTEXTBEGIN
1070
    73
1070
     1
1070
    44
1040
1.0
1070
    74
1070
     0
1000
MTEXTEND
1000
MTEXTBEGIN
1070
    73
1070
     1
1070
    44
1040
1.0
1070
    74
1070
     0
1000
MTEXTEND
1000
MTEXTBEGIN
1070
    73
1070
     1
1070
    44
1040
1.0
1070
    74
1070
     0
1000
MTEXTEND
  0
CIRCLE
  5
6532
330
1A
100
AcDbEntity
  8
SEIHIN
100
AcDbCircle
 10
538.8885950305926
 20
337.0869578032186
 30
0.0
 40
2.150000000004479
  0
LINE
  5
6533
330
1A
100
AcDbEntity
  8
CENTER_L
 48
5.0
100
AcDbLine
 10
536.6045401460052
 20
342.7970950349554
 30
0.0
 11
541.172645460008
 21
331.3768317094128
 31
0.0
  0
LINE
  5
6534
330
1A
100
AcDbEntity
  8
CENTER_L
 48
5.0
100
AcDbLine
 10
533.1784261952894
 20
334.8028902772044
 30
0.0
 11
544.5986895210686
 21
339.3709955913019
 31
0.0
  0
ARC
  5
6535
330
1A
100
AcDbEntity
  8
SEIHIN
100
AcDbCircle
 10
539.7240951305929
 20
363.2700857032186
 30
0.0
 40
1.999999997354288
100
AcDbArc
 50
201.8015222656805
 51
291.8015249255682
  0
ARC
  5
6536
330
1A
100
AcDbEntity
  8
SEIHIN
100
AcDbCircle
 10
538.8885950305929
 20
337.0869578032186
 30
0.0
 40
6.99999997217051
100
AcDbArc
 50
21.8012947311052
 51
111.8012954910773
  0
ARC
  5
6537
330
1A
100
AcDbEntity
  8
SEIHIN
100
AcDbCircle
 10
540.3219353305927
 20
338.8886599032186
 30
0.0
 40
10.00000075476658
100
AcDbArc
 50
201.8015190738027
 51
288.8018617677614
  0
LINE
  5
6538
330
1A
100
AcDbEntity
  8
SEIHIN
100
AcDbLine
 10
539.7343061305929
 20
356.8119672032186
 30
0.0
 11
549.8444513305927
 21
360.8560487032186
 31
0.0
  0
LINE
  5
6539
330
1A
100
AcDbEntity
  8
SEIHIN
100
AcDbLine
 10
454.6626302317117
 20
292.6262713736229
 30
0.0
 11
458.3765370317117
 21
294.1118340736229
 31
0.0
  0
LINE
  5
653A
330
1A
100
AcDbEntity
  8
SEIHIN
100
AcDbLine
 10
531.9248143305927
 20
346.4181844032186
 30
0.0
 11
532.7604776305928
 21
344.3290140032186
 31
0.0
  0
LINE
  5
653B
330
1A
100
AcDbEntity
  8
SEIHIN
100
AcDbLine
 10
520.7425452305927
 20
360.9111599032186
 30
0.0
 11
531.0371748305928
 21
335.1747351032186
 31
0.0
  0
LINE
  5
653C
330
1A
100
AcDbEntity
  8
SEIHIN
100
AcDbLine
 10
536.288780430593
 20
343.5862627032186
 30
0.0
 11
535.3603030305927
 21
343.2148739032186
 31
0.0
  0
ARC
  5
653D
330
1A
100
AcDbEntity
  8
SEIHIN
100
AcDbCircle
 10
534.617432530593
 20
345.0717916032186
 30
0.0
 40
2.000000015923948
100
AcDbArc
 50
201.8012935151584
 51
291.8012935151563
  0
LINE
  5
653E
330
1A
100
AcDbEntity
  8
CENTER_L
 48
5.0
100
AcDbLine
 10
522.0366572788488
 20
362.6572857506281
 30
0.0
 11
533.4569205823369
 21
367.2253910558092
 31
0.0
  0
LINE
  5
653F
330
1A
100
AcDbEntity
  8
CENTER_L
 48
5.0
100
AcDbLine
 10
524.478553883806
 20
353.4560828741269
 30
0.0
 11
538.0343135773797
 21
358.8783867323103
 31
0.0
  0
LINE
  5
6540
330
1A
100
AcDbEntity
  8
CENTER_L
 48
5.0
100
AcDbLine
 10
528.5452818015011
 20
362.9451146500054
 30
0.0
 11
533.9675856596844
 21
349.3893549564318
 31
0.0
  0
CIRCLE
  5
6541
330
1A
100
AcDbEntity
  8
SEIHIN
100
AcDbCircle
 10
531.2564337305929
 20
356.1672348032186
 30
0.0
 40
3.300000000006611
  0
ARC
  5
6542
330
1A
100
AcDbEntity
  8
SEIHIN
100
AcDbCircle
 10
533.7817691305928
 20
347.1609621032186
 30
0.0
 40
1.999999950928434
100
AcDbArc
 50
111.8014270416241
 51
201.8012972390007
  0
ARC
  5
6543
330
1A
100
AcDbEntity
  8
SEIHIN
100
AcDbCircle
 10
531.2564337305929
 20
356.1672348032186
 30
0.0
 40
7.299999997810784
100
AcDbArc
 50
291.8014379070937
 51
352.5103989614369
  0
LINE
  5
6544
330
1A
100
AcDbEntity
  8
SEIHIN
100
AcDbLine
 10
533.9675890305929
 20
349.3893563032187
 30
0.0
 11
533.0389872305928
 21
349.0179152032186
 31
0.0
  0
ARC
  5
6545
330
1A
100
AcDbEntity
  8
SEIHIN
100
AcDbCircle
 10
531.2564337305929
 20
356.1672348032186
 30
0.0
 40
7.299999978550619
100
AcDbArc
 50
352.5103989614369
 51
352.5104068455173
  0
ARC
  5
6546
330
1A
100
AcDbEntity
  8
SEIHIN
100
AcDbCircle
 10
540.4770912305929
 20
354.9550153032186
 30
0.0
 40
2.000000016708722
100
AcDbArc
 50
111.8015249255682
 51
172.5104017248914
  0
CIRCLE
  5
6547
330
1A
100
AcDbEntity
  8
SEIHIN
100
AcDbCircle
 10
527.7467889305927
 20
364.9413384032186
 30
0.0
 40
2.150000000004479
  0
ARC
  5
6548
330
1A
100
AcDbEntity
  8
SEIHIN
100
AcDbCircle
 10
574.8947023305928
 20
373.6225423032186
 30
0.0
 40
7.299999996430107
100
AcDbArc
 50
231.0924206065247
 51
291.8013812113574
  0
LINE
  5
6549
330
1A
100
AcDbEntity
  8
SEIHIN
100
AcDbLine
 10
564.4215729305927
 20
336.5298764032186
 30
0.0
 11
584.4245642305928
 21
345.3528962032186
 31
0.0
  0
LINE
  5
654A
330
1A
100
AcDbEntity
  8
SEIHIN
100
AcDbLine
 10
566.7427464305927
 20
342.8435203032186
 30
0.0
 11
576.0274557305928
 21
346.5573179032186
 31
0.0
  0
LINE
  5
654B
330
1A
100
AcDbEntity
  8
SEIHIN
100
AcDbLine
 10
564.1430265305928
 20
343.9576983032186
 30
0.0
 11
557.086573230593
 21
361.5988316032186
 31
0.0
  0
LINE
  5
654C
330
1A
100
AcDbEntity
  8
SEIHIN
100
AcDbLine
 10
559.5006431305929
 20
342.1007449032186
 30
0.0
 11
552.4441898305927
 21
359.7418782032186
 31
0.0
  0
LINE
  5
654D
330
1A
100
AcDbEntity
  8
SEIHIN
100
AcDbLine
 10
564.4215729305927
 20
336.5298764032186
 30
0.0
 11
543.5449001305929
 21
329.4222713032187
 31
0.0
  0
LINE
  5
654E
330
1A
100
AcDbEntity
  8
SEIHIN
100
AcDbLine
 10
558.3864859305927
 20
339.5010161032186
 30
0.0
 11
549.1018360305928
 21
335.7870700032187
 31
0.0
  0
ARC
  5
654F
330
1A
100
AcDbEntity
  8
SEIHIN
100
AcDbCircle
 10
548.3590583305928
 20
337.6440249032186
 30
0.0
 40
2.000000006638934
100
AcDbArc
 50
201.8012972390007
 51
291.8012961750509
  0
LINE
  5
6550
330
1A
100
AcDbEntity
  8
SEIHIN
100
AcDbLine
 10
545.3879370305927
 20
339.6866795032186
 30
0.0
 11
546.5021035305928
 21
336.9012472032186
 31
0.0
  0
ARC
  5
6551
330
1A
100
AcDbEntity
  8
SEIHIN
100
AcDbCircle
 10
565.9999799305929
 20
344.7004797032186
 30
0.0
 40
2.000000053091018
100
AcDbArc
 50
201.8014105503076
 51
291.8009503893908
  0
ARC
  5
6552
330
1A
100
AcDbEntity
  8
SEIHIN
100
AcDbCircle
 10
557.6436897305929
 20
341.3579636032186
 30
0.0
 40
2.000000025236463
100
AcDbArc
 50
291.8018669873809
 51
21.80140789041773
  0
ARC
  5
6553
330
1A
100
AcDbEntity
  8
SEIHIN
100
AcDbCircle
 10
558.9435266305928
 20
362.3416129032186
 30
0.0
 40
2.000000006637133
100
AcDbArc
 50
111.8012935151563
 51
201.8014078904169
  0
ARC
  5
6554
330
1A
100
AcDbEntity
  8
SEIHIN
100
AcDbCircle
 10
550.5872364305929
 20
358.9990968032186
 30
0.0
 40
2.000000025206634
100
AcDbArc
 50
21.8014105503069
 51
111.8015249255682
  0
LINE
  5
6555
330
1A
100
AcDbEntity
  8
SEIHIN
100
AcDbLine
 10
568.3109104305928
 20
368.2426089032186
 30
0.0
 11
558.2007490305929
 21
364.1985678032186
 31
0.0
  0
ARC
  5
6556
330
1A
100
AcDbEntity
  8
SEIHIN
100
AcDbCircle
 10
569.0536880305927
 20
366.3856540032186
 30
0.0
 40
2.000000021251276
100
AcDbArc
 50
51.09241771177242
 51
111.8012935151563
  0
ARC
  5
6557
330
1A
100
AcDbEntity
  8
SEIHIN
100
AcDbCircle
 10
580.3888694305929
 20
354.5023837032186
 30
0.0
 40
9.999994230705658
100
AcDbArc
 50
293.8009477240064
 51
21.80148970867377
  0
LINE
  5
6558
330
1A
100
AcDbEntity
  8
CENTER_L
 48
5.0
100
AcDbLine
 10
580.2428146460052
 20
360.2524048349554
 30
0.0
 11
584.8109199600081
 21
348.8321415094128
 31
0.0
  0
ARC
  5
6559
330
1A
100
AcDbEntity
  8
SEIHIN
100
AcDbCircle
 10
582.526776630593
 20
354.5422305032186
 30
0.0
 40
6.999999972170618
100
AcDbArc
 50
111.8015239376095
 51
201.8015246975781
  0
LINE
  5
655A
330
1A
100
AcDbEntity
  8
CENTER_L
 48
5.0
100
AcDbLine
 10
576.8167006952896
 20
352.2582000772044
 30
0.0
 11
588.2369640210687
 21
356.8263053913019
 31
0.0
  0
CIRCLE
  5
655B
330
1A
100
AcDbEntity
  8
SEIHIN
100
AcDbCircle
 10
582.5268695305927
 20
354.5422676032186
 30
0.0
 40
2.150000000004479
  0
LINE
  5
655C
330
1A
100
AcDbEntity
  8
SEIHIN
100
AcDbLine
 10
576.0274450305929
 20
351.9424827032186
 30
0.0
 11
577.1416226305928
 21
349.1570549032186
 31
0.0
  0
ARC
  5
655D
330
1A
100
AcDbEntity
  8
SEIHIN
100
AcDbCircle
 10
575.2846707305929
 20
348.4142698032186
 30
0.0
 40
1.999999997354287
100
AcDbArc
 50
291.8015222656827
 51
21.80152492556751
  0
ARC
  5
655E
330
1A
100
AcDbEntity
  8
SEIHIN
100
AcDbCircle
 10
580.1129055305929
 20
363.2699808032186
 30
0.0
 40
1.999999997354293
100
AcDbArc
 50
291.8015222656827
 51
21.80152492556751
  0
LINE
  5
655F
330
1A
100
AcDbEntity
  8
SEIHIN
100
AcDbLine
 10
581.1341857305928
 20
366.1019330032186
 30
0.0
 11
581.9698574305929
 21
364.0127659032186
 31
0.0
  0
LINE
  5
6560
330
1A
100
AcDbEntity
  8
SEIHIN
100
AcDbLine
 10
579.9271217305927
 20
361.0415992032186
 30
0.0
 11
580.8555977305928
 21
361.4129918032186
 31
0.0
  0
LINE
  5
6561
330
1A
100
AcDbEntity
  8
SEIHIN
100
AcDbLine
 10
577.6058509305927
 20
366.8446611032186
 30
0.0
 11
578.534453030593
 21
367.2161016032186
 31
0.0
  0
ARC
  5
6562
330
1A
100
AcDbEntity
  8
SEIHIN
100
AcDbCircle
 10
579.2772338305927
 20
365.3591479032186
 30
0.0
 40
2.000000053060964
100
AcDbArc
 50
21.80152492556751
 51
111.8013913991008
  0
ELLIPSE
  5
6568
330
1A
100
AcDbEntity
  8
SEIHIN
100
AcDbEllipse
 10
455.7768976891889
 20
446.6324713385535
 30
0.0
 11
-0.0109334068110675
 21
1.999970114930596
 31
0.0
210
0.0
220
0.0
230
-1.0
 40
0.3713906582773347
 41
7.853981633974482
 42
9.424777960769379
  0
ELLIPSE
  5
6569
330
1A
100
AcDbEntity
  8
SEIHIN
100
AcDbEllipse
 10
454.8484217431312
 20
446.6324713385535
 30
0.0
 11
-0.0109334068110675
 21
1.999970114930596
 31
0.0
210
0.0
220
0.0
230
-1.0
 40
0.3713906582773347
 41
7.853981633974482
 42
9.424777960769379
  0
ELLIPSE
  5
656A
330
1A
100
AcDbEntity
  8
SEIHIN
100
AcDbEllipse
 10
455.7768976891853
 20
456.6325311086923
 30
0.0
 11
-0.0109334068110675
 21
-1.999970114930596
 31
0.0
210
0.0
220
0.0
230
1.0
 40
0.3713906582773347
 41
7.853981633974482
 42
9.424777960769379
  0
ELLIPSE
  5
656B
330
1A
100
AcDbEntity
  8
SEIHIN
100
AcDbEllipse
 10
454.8484217431275
 20
456.6325311086923
 30
0.0
 11
-0.0109334068110675
 21
-1.999970114930596
 31
0.0
210
0.0
220
0.0
230
1.0
 40
0.3713906582773347
 41
7.853981633974482
 42
9.424777960769379
  0
ELLIPSE
  5
656C
330
1A
100
AcDbEntity
  8
SEIHIN
100
AcDbEllipse
 10
454.8484217431275
 20
427.6324713385536
 30
0.0
 11
-0.0109334068110675
 21
1.999970114930596
 31
0.0
210
0.0
220
0.0
230
-1.0
 40
0.3713906582773347
 41
7.853981633974482
 42
9.424777960769379
  0
ELLIPSE
  5
656D
330
1A
100
AcDbEntity
  8
SEIHIN
100
AcDbEllipse
 10
454.8484217431312
 20
437.6325311086923
 30
0.0
 11
-0.0109334068110675
 21
-1.999970114930596
 31
0.0
210
0.0
220
0.0
230
1.0
 40
0.3713906582773347
 41
7.853981633974482
 42
9.424777960769379
  0
ELLIPSE
  5
656E
330
1A
100
AcDbEntity
  8
SEIHIN
100
AcDbEllipse
 10
455.7768976891853
 20
427.6324713385536
 30
0.0
 11
-0.0109334068110675
 21
1.999970114930596
 31
0.0
210
0.0
220
0.0
230
-1.0
 40
0.3713906582773347
 41
7.853981633974482
 42
9.424777960769379
  0
ELLIPSE
  5
656F
330
1A
100
AcDbEntity
  8
SEIHIN
100
AcDbEllipse
 10
455.7768976891889
 20
437.6325311086923
 30
0.0
 11
-0.0109334068110675
 21
-1.999970114930596
 31
0.0
210
0.0
220
0.0
230
1.0
 40
0.3713906582773347
 41
7.853981633974482
 42
9.424777960769379
  0
LINE
  5
6570
330
1A
100
AcDbEntity
  8
SEIHIN
100
AcDbLine
 10
456.519667906708
 20
446.6365319037063
 30
0.0
 11
456.5196679067043
 21
456.6284705435395
 31
0.0
  0
LINE
  5
6571
330
1A
100
AcDbEntity
  8
SEIHIN
100
AcDbLine
 10
455.5911919606503
 20
446.6365319037063
 30
0.0
 11
455.5911919606467
 21
456.6284705435395
 31
0.0
  0
LINE
  5
6572
330
1A
100
AcDbEntity
  8
SEIHIN
100
AcDbLine
 10
458.3765370317117
 20
420.6325012236229
 30
0.0
 11
458.3765370317117
 21
464.6917128236229
 31
0.0
  0
LINE
  5
6574
330
1A
100
AcDbEntity
  8
SEIHIN
100
AcDbLine
 10
535.6387773305929
 20
373.4833211032186
 30
0.0
 11
547.7089646305927
 21
378.3114241032186
 31
0.0
  0
LINE
  5
6575
330
1A
100
AcDbEntity
  8
SEIHIN
100
AcDbLine
 10
545.8520391305929
 20
382.9537110032186
 30
0.0
 11
525.832596030593
 21
373.7027749032186
 31
0.0
  0
ARC
  5
6576
330
1A
100
AcDbEntity
  8
SEIHIN
100
AcDbCircle
 10
536.3815623305928
 20
371.6263693032186
 30
0.0
 40
1.99999995093049
100
AcDbArc
 50
111.8015233296412
 51
201.8015249255674
  0
LINE
  5
6577
330
1A
100
AcDbEntity
  8
SEIHIN
100
AcDbLine
 10
455.5911919606503
 20
437.6284705435396
 30
0.0
 11
455.5911919606467
 21
427.6365319037063
 31
0.0
  0
LINE
  5
6578
330
1A
100
AcDbEntity
  8
SEIHIN
100
AcDbLine
 10
456.519667906708
 20
437.6284705435396
 30
0.0
 11
456.5196679067043
 21
427.6365319037063
 31
0.0
  0
LINE
  5
6579
330
1A
100
AcDbEntity
  8
CENTER_L
 48
5.0
100
AcDbLine
 10
454.6626499557905
 20
421.6321961236229
 30
0.0
 11
454.6626499557905
 21
415.6321961236229
 31
0.0
  0
LINE
  5
657B
330
1A
100
AcDbEntity
  8
CENTER_L
 48
5.0
100
AcDbLine
 10
569.1010107780024
 20
388.1067798549627
 30
0.0
 11
573.6691160831834
 21
376.6865165514746
 31
0.0
  0
LINE
  5
657C
330
1A
100
AcDbEntity
  8
CENTER_L
 48
5.0
100
AcDbLine
 10
565.6749317788488
 20
380.1125955506281
 30
0.0
 11
577.095195082337
 21
384.6807008558092
 31
0.0
  0
LINE
  5
657D
330
1A
100
AcDbEntity
  8
CENTER_L
 48
5.0
100
AcDbLine
 10
568.1168283838061
 20
370.9113926741269
 30
0.0
 11
581.6725880773796
 21
376.3336965323103
 31
0.0
  0
CIRCLE
  5
657E
330
1A
100
AcDbEntity
  8
SEIHIN
100
AcDbCircle
 10
571.3850634305928
 20
382.3966482032186
 30
0.0
 40
2.150000055176801
  0
CIRCLE
  5
657F
330
1A
100
AcDbEntity
  8
SEIHIN
100
AcDbCircle
 10
574.8947023305928
 20
373.6225423032186
 30
0.0
 40
3.299999948282725
  0
ARC
  5
6580
330
1A
100
AcDbEntity
  8
SEIHIN
100
AcDbCircle
 10
569.8092811305929
 20
380.9510618032187
 30
0.0
 40
10.00004590489821
100
AcDbArc
 50
21.80125138322832
 51
109.8012407870555
  0
LINE
  5
6581
330
1A
100
AcDbEntity
  8
SEIHIN
100
AcDbLine
 10
545.8520391305929
 20
382.9537110032186
 30
0.0
 11
566.421682630593
 21
390.3598393032186
 31
0.0
  0
LINE
  5
6582
330
1A
100
AcDbEntity
  8
SEIHIN
100
AcDbLine
 10
559.7791891305929
 20
383.1394342032186
 30
0.0
 11
547.7089646305927
 21
378.3114241032186
 31
0.0
  0
LINE
  5
6583
330
1A
100
AcDbEntity
  8
SEIHIN
100
AcDbLine
 10
562.3789260305929
 20
382.0252673032186
 30
0.0
 11
565.7214217305928
 21
373.6690767032186
 31
0.0
  0
ARC
  5
6584
330
1A
100
AcDbEntity
  8
SEIHIN
100
AcDbCircle
 10
563.8644698305928
 20
372.9262916032186
 30
0.0
 40
1.999999997354293
100
AcDbArc
 50
291.8015222656827
 51
21.80152492556751
  0
ARC
  5
6585
330
1A
100
AcDbEntity
  8
SEIHIN
100
AcDbCircle
 10
560.5219741305928
 20
381.2824823032186
 30
0.0
 40
1.999999978784673
100
AcDbArc
 50
21.80152226568135
 51
111.8015222656827
  0
LINE
  5
6586
330
1A
100
AcDbEntity
  8
CENTER_L
 48
5.0
100
AcDbLine
 10
454.6626499557905
 20
462.6328063236229
 30
0.0
 11
454.6626499557905
 21
468.632806323623
 31
0.0
  0
LINE
  5
67B1
330
1A
100
AcDbEntity
  8
NOKITOI
  6
PHANTOM
 62
     8
 48
5.0
100
AcDbLine
 10
322.0144814317118
 20
113.5973614354704
 30
0.0
 11
331.9997814317121
 21
105.4275614354703
 31
0.0
  0
LINE
  5
67B2
330
1A
100
AcDbEntity
  8
NOKITOI
  6
PHANTOM
 62
     8
 48
5.0
100
AcDbLine
 10
321.0301814317122
 20
112.8522614354706
 30
0.0
 11
331.4332814317122
 21
104.3405614354705
 31
0.0
  0
ARC
  5
67B3
330
1A
100
AcDbEntity
  8
NOKITOI
  6
PHANTOM
 62
     8
 48
5.0
100
AcDbCircle
 10
376.8959753497442
 20
147.1146558108141
 30
0.0
 40
41.79999437547816
100
AcDbArc
 50
270.0001454078941
 51
355.525704787475
  0
ARC
  5
67B4
330
1A
100
AcDbEntity
  8
NOKITOI
  6
PHANTOM
 62
     8
 48
5.0
100
AcDbCircle
 10
376.8959976581695
 20
147.1146759118405
 30
0.0
 40
43.00001447645168
100
AcDbArc
 50
270.0001116248594
 51
353.4750892928824
  0
LINE
  5
67B5
330
1A
100
AcDbEntity
  8
NOKITOI
  6
PHANTOM
 62
     8
 48
5.0
100
AcDbLine
 10
376.8959814317122
 20
105.3146614354705
 30
0.0
 11
332.3163814317122
 21
105.3145614354705
 31
0.0
  0
LINE
  5
67B6
330
1A
100
AcDbEntity
  8
NOKITOI
  6
PHANTOM
 62
     8
 48
5.0
100
AcDbLine
 10
332.0665814317121
 20
104.1145614354704
 30
0.0
 11
376.8959814317122
 21
104.1146614354704
 31
0.0
  0
LINE
  5
67B7
330
1A
100
AcDbEntity
  8
NOKITOI
  6
PHANTOM
 62
     8
 48
5.0
100
AcDbLine
 10
336.3163814317122
 20
105.3145614354705
 30
0.0
 11
356.2244814317118
 21
105.3145614354705
 31
0.0
  0
LINE
  5
67B8
330
1A
100
AcDbEntity
  8
NOKITOI
  6
PHANTOM
 62
     8
 48
5.0
100
AcDbLine
 10
336.0665814317121
 20
104.1145614354704
 30
0.0
 11
356.2244814317118
 21
104.1145614354704
 31
0.0
  0
ARC
  5
67B9
330
1A
100
AcDbEntity
  8
NOKITOI
  6
PHANTOM
 62
     8
 48
5.0
100
AcDbCircle
 10
332.3163750439634
 20
105.81456371546
 30
0.0
 40
0.5000022800304047
100
AcDbArc
 50
230.7145501403939
 51
270.0007319787176
  0
ARC
  5
67BA
330
1A
100
AcDbEntity
  8
NOKITOI
  6
PHANTOM
 62
     8
 48
5.0
100
AcDbCircle
 10
332.0665883642896
 20
105.1145589604643
 30
0.0
 40
0.9999975250179316
100
AcDbArc
 50
230.705358324771
 51
269.9996027915947
  0
LINE
  5
67BC
330
1A
100
AcDbEntity
  8
SEIHIN
100
AcDbLine
 10
393.0164533317118
 20
138.4689786554704
 30
0.0
 11
340.8959680317117
 21
144.8664865754705
 31
0.0
  0
LINE
  5
67BD
330
1A
100
AcDbEntity
  8
SEIHIN
100
AcDbLine
 10
397.9552307317117
 20
146.8590375254704
 30
0.0
 11
341.0177983317117
 21
146.8590375254704
 31
0.0
  0
LINE
  5
67C0
330
1A
100
AcDbEntity
  8
SEIHIN
100
AcDbLine
 10
317.5070032317118
 20
149.3590375254704
 30
0.0
 11
383.7010766335491
 21
149.3590375254704
 31
0.0
  0
LINE
  5
67C1
330
1A
100
AcDbEntity
  8
SEIHIN
100
AcDbLine
 10
318.8069032317117
 20
145.0590375254704
 30
0.0
 11
393.8069032317118
 21
135.8590375254704
 31
0.0
  0
LINE
  5
67C2
330
1A
100
AcDbEntity
  8
NOKITOI
  6
PHANTOM
 62
     8
 48
5.0
100
AcDbLine
 10
420.184581431712
 20
150.0884614354704
 30
0.0
 11
419.8687814317122
 21
156.0883614354704
 31
0.0
  0
LINE
  5
67C3
330
1A
100
AcDbEntity
  8
NOKITOI
  6
PHANTOM
 62
     8
 48
5.0
100
AcDbLine
 10
421.3480814317121
 20
150.8146614354705
 30
0.0
 11
421.1668814317122
 21
154.2561614354706
 31
0.0
  0
LINE
  5
67C4
330
1A
100
AcDbEntity
  8
NOKITOI
  6
PHANTOM
 62
     8
 48
5.0
100
AcDbLine
 10
421.721881431712
 20
153.6430614354703
 30
0.0
 11
421.1668814317122
 21
154.2561614354706
 31
0.0
  0
LINE
  5
67C5
330
1A
100
AcDbEntity
  8
NOKITOI
  6
PHANTOM
 62
     8
 48
5.0
100
AcDbLine
 10
427.4456814317118
 20
157.0896614354703
 30
0.0
 11
427.2962814317124
 21
152.3107614354705
 31
0.0
  0
LINE
  5
67C6
330
1A
100
AcDbEntity
  8
NOKITOI
  6
PHANTOM
 62
     8
 48
5.0
100
AcDbLine
 10
428.6450814317122
 20
157.0521614354704
 30
0.0
 11
428.2548814317124
 21
144.5678614354703
 31
0.0
  0
ARC
  5
67C7
330
1A
100
AcDbEntity
  8
NOKITOI
  6
PHANTOM
 62
     8
 48
5.0
100
AcDbCircle
 10
423.1944435502655
 20
149.1147052179958
 30
0.0
 40
3.999989731271038
100
AcDbArc
 50
358.2100163932688
 51
83.52268857986727
  0
ARC
  5
67C8
330
1A
100
AcDbEntity
  8
NOKITOI
  6
PHANTOM
 62
     8
 48
5.0
100
AcDbCircle
 10
423.194361219043
 20
149.1147201638504
 30
0.0
 40
5.2000412730095
100
AcDbArc
 50
37.9242009209435
 51
89.9986754569382
  0
ARC
  5
67C9
330
1A
100
AcDbEntity
  8
NOKITOI
  6
PHANTOM
 62
     8
 48
5.0
100
AcDbCircle
 10
420.6839883187071
 20
150.1146549003849
 30
0.0
 40
0.499993464961963
100
AcDbArc
 50
183.0029638682579
 51
269.9992107982163
  0
LINE
  5
67CA
330
1A
100
AcDbEntity
  8
SEIHIN
100
AcDbLine
 10
313.8069032317117
 20
145.0590375254704
 30
0.0
 11
318.8069032317117
 21
145.0590375254704
 31
0.0
  0
ARC
  5
67CB
330
1A
100
AcDbEntity
  8
NOKITOI
  6
PHANTOM
 62
     8
 48
5.0
100
AcDbCircle
 10
420.6109898558747
 20
142.1146689505269
 30
0.0
 40
0.9999924849789756
100
AcDbArc
 50
90.00048267259197
 51
173.4717353933264
  0
ARC
  5
67CC
330
1A
100
AcDbEntity
  8
SEIHIN
100
AcDbCircle
 10
315.5070159317117
 20
153.1088382054704
 30
0.0
 40
4.249771090849538
100
AcDbArc
 50
248.0384870086003
 51
298.0724108493039
  0
LINE
  5
67CD
330
1A
100
AcDbEntity
  8
NOKITOI
  6
PHANTOM
 62
     8
 48
5.0
100
AcDbLine
 10
419.0670814317118
 20
144.3146614354704
 30
0.0
 11
425.1079814317122
 21
144.3146614354704
 31
0.0
  0
ARC
  5
67CE
330
1A
100
AcDbEntity
  8
NOKITOI
  6
PHANTOM
 62
     8
 48
5.0
100
AcDbCircle
 10
426.7556454725613
 20
144.6146265813272
 30
0.0
 40
1.499965146287778
100
AcDbArc
 50
270.0013735702995
 51
358.2133719782232
  0
LINE
  5
67CF
330
1A
100
AcDbEntity
  8
NOKITOI
  6
PHANTOM
 62
     8
 48
5.0
100
AcDbLine
 10
422.1259814317118
 20
150.8146614354705
 30
0.0
 11
421.721881431712
 21
153.6430614354703
 31
0.0
  0
ARC
  5
67D0
330
1A
100
AcDbEntity
  8
NOKITOI
  6
PHANTOM
 62
     8
 48
5.0
100
AcDbCircle
 10
423.5892672132967
 20
152.5923468011694
 30
0.0
 40
0.5000073448410256
100
AcDbArc
 50
83.52170717002923
 51
188.1270521358757
  0
ARC
  5
67D1
330
1A
100
AcDbEntity
  8
SEIHIN
100
AcDbCircle
 10
313.8441239317117
 20
152.3590375254704
 30
0.0
 40
0.4999999819549718
100
AcDbArc
 50
344.0527525602594
 51
90.0
  0
LINE
  5
67D2
330
1A
100
AcDbEntity
  8
NOKITOI
  6
PHANTOM
 62
     8
 48
5.0
100
AcDbLine
 10
420.6839814317122
 20
149.6146614354704
 30
0.0
 11
422.9330814317122
 21
149.6146614354704
 31
0.0
  0
LINE
  5
67D3
330
1A
100
AcDbEntity
  8
NOKITOI
  6
PHANTOM
 62
     8
 48
5.0
100
AcDbLine
 10
423.4279814317123
 20
150.1854614354706
 30
0.0
 11
423.0942814317122
 21
152.5216614354706
 31
0.0
  0
ARC
  5
67D4
330
1A
100
AcDbEntity
  8
NOKITOI
  6
PHANTOM
 62
     8
 48
5.0
100
AcDbCircle
 10
422.9330548311144
 20
150.1146307585884
 30
0.0
 40
0.4999693238254178
100
AcDbArc
 50
270.0030483909627
 51
8.144496122946378
  0
ARC
  5
67D5
330
1A
100
AcDbEntity
  8
SEIHIN
100
AcDbCircle
 10
314.1046626317117
 20
149.6311682154704
 30
0.0
 40
0.4999999747859474
100
AcDbArc
 50
164.052751458443
 51
248.0384921718607
  0
LINE
  5
67D6
330
1A
100
AcDbEntity
  8
SEIHIN
100
AcDbLine
 10
314.3248814317118
 20
152.2216614354704
 30
0.0
 11
313.6239051317118
 21
149.7685443154704
 31
0.0
  0
LINE
  5
67D7
330
1A
100
AcDbEntity
  8
NOKITOI
  6
PHANTOM
 62
     8
 48
5.0
100
AcDbLine
 10
421.3480814317121
 20
150.8146614354705
 30
0.0
 11
422.1259814317118
 21
150.8146614354705
 31
0.0
  0
LINE
  5
67D8
330
1A
100
AcDbEntity
  8
SEIHIN
100
AcDbLine
 10
313.5069032317117
 20
152.8590375254704
 30
0.0
 11
313.8441239317117
 21
152.8590375254704
 31
0.0
  0
ARC
  5
67D9
330
1A
100
AcDbEntity
  8
NOKITOI
  6
PHANTOM
 62
     8
 48
5.0
100
AcDbCircle
 10
425.1079678595738
 20
146.314648280384
 30
0.0
 40
1.999986844959662
100
AcDbArc
 50
270.0003888156784
 51
358.2124468147644
  0
LINE
  5
67DA
330
1A
100
AcDbEntity
  8
NOKITOI
  6
PHANTOM
 62
     8
 48
5.0
100
AcDbLine
 10
427.1069814317124
 20
146.2522614354704
 30
0.0
 11
427.1924814317121
 21
148.9897614354704
 31
0.0
  0
LINE
  5
67DB
330
1A
100
AcDbEntity
  8
SEIHIN
100
AcDbLine
 10
310.8069032317117
 20
149.3590375254704
 30
0.0
 11
310.8069032317117
 21
148.0590375254704
 31
0.0
  0
ARC
  5
67DC
330
1A
100
AcDbEntity
  8
SEIHIN
100
AcDbCircle
 10
314.3056700317117
 20
149.4513945554704
 30
0.0
 40
3.499985586412125
100
AcDbArc
 50
103.1906183451954
 51
181.5120869038279
  0
LINE
  5
67DD
330
1A
100
AcDbEntity
  8
NOKITOI
  6
PHANTOM
 62
     8
 48
5.0
100
AcDbLine
 10
426.7556814317122
 20
143.1146614354704
 30
0.0
 11
420.6109814317123
 21
143.1146614354704
 31
0.0
  0
ARC
  5
67DE
330
1A
100
AcDbEntity
  8
SEIHIN
100
AcDbCircle
 10
313.8069032317117
 20
148.0590375254704
 30
0.0
 40
3.0
100
AcDbArc
 50
180.0
 51
270.0
  0
ARC
  5
67DF
330
1A
100
AcDbEntity
  8
NOKITOI
  6
PHANTOM
 62
     8
 48
5.0
100
AcDbCircle
 10
419.0670688620039
 20
143.8146498107407
 30
0.0
 40
0.5000116248877111
100
AcDbArc
 50
89.99855965101618
 51
175.525153191658
  0
LINE
  5
67E0
330
1A
100
AcDbEntity
  8
SEIHIN
100
AcDbLine
 10
317.5069032317117
 20
145.0590375254704
 30
0.0
 11
317.5069032317117
 21
149.3590375254704
 31
0.0
  0
ARC
  5
67E1
330
1A
100
AcDbEntity
  8
SEIHIN
100
AcDbCircle
 10
341.0177983317117
 20
145.8590375254704
 30
0.0
 40
1.000000002585995
100
AcDbArc
 50
90.0
 51
263.0022538529114
  0
ARC
  5
67E2
330
1A
100
AcDbEntity
  8
NOKITOI
  6
PHANTOM
 62
     8
 48
5.0
100
AcDbCircle
 10
420.36818763287
 20
156.1146679705557
 30
0.0
 40
0.4999934649531607
100
AcDbArc
 50
90.00071060961758
 51
183.0044636796623
  0
ARC
  5
67E3
330
1A
100
AcDbEntity
  8
NOKITOI
  6
PHANTOM
 62
     8
 48
5.0
100
AcDbCircle
 10
426.6460686808622
 20
157.1146745905569
 30
0.0
 40
1.999986844954076
100
AcDbArc
 50
358.2116927117297
 51
89.99963471264713
  0
LINE
  5
67E4
330
1A
100
AcDbEntity
  8
NOKITOI
  6
PHANTOM
 62
     8
 48
5.0
100
AcDbLine
 10
422.7325814317119
 20
154.3146614354705
 30
0.0
 11
421.7367814317121
 21
155.4146614354706
 31
0.0
  0
LINE
  5
67E5
330
1A
100
AcDbEntity
  8
NOKITOI
  6
PHANTOM
 62
     8
 48
5.0
100
AcDbLine
 10
420.3681814317124
 20
156.6146614354704
 30
0.0
 11
422.5996814317122
 21
156.6146614354704
 31
0.0
  0
LINE
  5
67E6
330
1A
100
AcDbEntity
  8
NOKITOI
  6
PHANTOM
 62
     8
 48
5.0
100
AcDbLine
 10
423.0899814317122
 20
157.2127614354703
 30
0.0
 11
422.8291814317121
 21
158.5166614354704
 31
0.0
  0
LINE
  5
67E7
330
1A
100
AcDbEntity
  8
NOKITOI
  6
PHANTOM
 62
     8
 48
5.0
100
AcDbLine
 10
422.7325814317119
 20
154.3146614354705
 30
0.0
 11
423.1944814317121
 21
154.3146614354705
 31
0.0
  0
ARC
  5
67E8
330
1A
100
AcDbEntity
  8
NOKITOI
  6
PHANTOM
 62
     8
 48
5.0
100
AcDbCircle
 10
422.5996886862676
 20
157.1146702853138
 30
0.0
 40
0.5000088498959383
100
AcDbArc
 50
269.9991687038574
 51
11.31359566951104
  0
ARC
  5
67E9
330
1A
100
AcDbEntity
  8
NOKITOI
  6
PHANTOM
 62
     8
 48
5.0
100
AcDbCircle
 10
423.3194822147206
 20
158.6146623904721
 30
0.0
 40
0.4999990449987349
100
AcDbArc
 50
90.0000897263067
 51
191.3032801984555
  0
ARC
  5
67EA
330
1A
100
AcDbEntity
  8
NOKITOI
  6
PHANTOM
 62
     8
 48
5.0
100
AcDbCircle
 10
426.6460769369141
 20
157.1146660729973
 30
0.0
 40
0.7999953624857498
100
AcDbArc
 50
358.2088726535808
 51
89.99967808194737
  0
LINE
  5
67EB
330
1A
100
AcDbEntity
  8
NOKITOI
  6
PHANTOM
 62
     8
 48
5.0
100
AcDbLine
 10
426.6460814317124
 20
157.9146614354706
 30
0.0
 11
424.173281431712
 21
157.9146614354706
 31
0.0
  0
LINE
  5
67EC
330
1A
100
AcDbEntity
  8
NOKITOI
  6
PHANTOM
 62
     8
 48
5.0
100
AcDbLine
 10
424.173281431712
 20
157.9146614354706
 30
0.0
 11
424.673281431712
 21
155.4146614354706
 31
0.0
  0
LINE
  5
67ED
330
1A
100
AcDbEntity
  8
NOKITOI
  6
PHANTOM
 62
     8
 48
5.0
100
AcDbLine
 10
424.673281431712
 20
155.4146614354706
 30
0.0
 11
421.7367814317121
 21
155.4146614354706
 31
0.0
  0
LINE
  5
67EE
330
1A
100
AcDbEntity
  8
NOKITOI
  6
PHANTOM
 62
     8
 48
5.0
100
AcDbLine
 10
426.6460814317124
 20
159.1146614354704
 30
0.0
 11
423.3194814317121
 21
159.1146614354704
 31
0.0
  0
ARC
  5
67F0
330
1A
100
AcDbEntity
  8
SEIHIN
100
AcDbCircle
 10
416.0569032317116
 20
141.6090375254704
 30
0.0
 40
0.75
100
AcDbArc
 50
90.0
 51
180.0
  0
ARC
  5
67F1
330
1A
100
AcDbEntity
  8
SEIHIN
100
AcDbCircle
 10
413.8069032317116
 20
135.0028744754705
 30
0.0
 40
2.999999995913402
100
AcDbArc
 50
258.9297977643304
 51
0.0
  0
ARC
  5
67F2
330
1A
100
AcDbEntity
  8
NOKITOI
  6
PHANTOM
 62
     8
 48
5.0
100
AcDbCircle
 10
322.3310988575903
 20
113.9843289490825
 30
0.0
 40
0.4999904508696396
100
AcDbArc
 50
185.700988925076
 51
230.7099153622048
  0
LINE
  5
67F3
330
1A
100
AcDbEntity
  8
SEIHIN
100
AcDbLine
 10
418.6994039317117
 20
171.7473896254704
 30
0.0
 11
402.1423368317117
 21
149.7575348254704
 31
0.0
  0
ARC
  5
67F4
330
1A
100
AcDbEntity
  8
SEIHIN
100
AcDbCircle
 10
422.9858665317117
 20
143.3590375254704
 30
0.0
 40
17.9999999696633
100
AcDbArc
 50
90.0
 51
143.0224036682703
  0
ARC
  5
67F5
330
1A
100
AcDbEntity
  8
SEIHIN
100
AcDbCircle
 10
432.9717865317117
 20
128.3590375254704
 30
0.0
 40
50.00000000569577
100
AcDbArc
 50
90.0000013750972
 51
143.0224037119466
  0
ARC
  5
67F6
330
1A
100
AcDbEntity
  8
SEIHIN
100
AcDbCircle
 10
432.9717865317117
 20
128.3590375254704
 30
0.0
 40
47.50000002840709
100
AcDbArc
 50
108.9118434825498
 51
143.0224021474801
  0
LINE
  5
67F7
330
1A
100
AcDbEntity
  8
SEIHIN
100
AcDbLine
 10
408.6061927317117
 20
154.1860860254704
 30
0.0
 11
397.1139163317118
 21
138.9229065354704
 31
0.0
  0
LINE
  5
67F8
330
1A
100
AcDbEntity
  8
SEIHIN
100
AcDbLine
 10
393.0282480317117
 20
158.4341723254704
 30
0.0
 11
387.6954304735243
 21
151.35152403405
 31
0.0
  0
LINE
  5
67F9
330
1A
100
AcDbEntity
  8
SEIHIN
100
AcDbLine
 10
395.0254257317117
 20
156.9304166254704
 30
0.0
 11
390.5304599317116
 21
150.9605402254704
 31
0.0
  0
ARC
  5
67FA
330
1A
100
AcDbEntity
  8
SEIHIN
100
AcDbCircle
 10
397.9552307317117
 20
145.8590375254704
 30
0.0
 40
1.000000013299971
100
AcDbArc
 50
323.0224045627638
 51
90.0
  0
LINE
  5
67FB
330
1A
100
AcDbEntity
  8
SEIHIN
100
AcDbLine
 10
397.6603652317117
 20
137.3537865654705
 30
0.0
 11
411.8177948317118
 21
133.6605440654704
 31
0.0
  0
LINE
  5
67FC
330
1A
100
AcDbEntity
  8
SEIHIN
100
AcDbLine
 10
393.8069032317118
 20
135.8590375254704
 30
0.0
 11
413.2308684317117
 21
132.0586965154705
 31
0.0
  0
LINE
  5
67FD
330
1A
100
AcDbEntity
  8
SEIHIN
100
AcDbLine
 10
391.3293307317116
 20
149.3590375254704
 30
0.0
 11
401.3434660317117
 21
149.3590375254704
 31
0.0
  0
LINE
  5
67FE
330
1A
100
AcDbEntity
  8
SEIHIN
100
AcDbLine
 10
398.7541015317117
 20
145.2575348254704
 30
0.0
 11
393.9371544317117
 21
138.8600269054704
 31
0.0
  0
ARC
  5
67FF
330
1A
100
AcDbEntity
  8
SEIHIN
100
AcDbCircle
 10
397.9127871317117
 20
138.3214038354705
 30
0.0
 40
1.000000012500439
100
AcDbArc
 50
143.0224045627638
 51
255.3791258185317
  0
ARC
  5
6800
330
1A
100
AcDbEntity
  8
SEIHIN
100
AcDbCircle
 10
393.1382836317118
 20
139.4615296054704
 30
0.0
 40
1.000000015885966
100
AcDbArc
 50
263.0022538529114
 51
323.0224045627638
  0
ARC
  5
6801
330
1A
100
AcDbEntity
  8
SEIHIN
100
AcDbCircle
 10
391.3293307317116
 20
150.3590375254704
 30
0.0
 40
1.000000013299998
100
AcDbArc
 50
143.0224045627645
 51
270.0
  0
ARC
  5
6802
330
1A
100
AcDbEntity
  8
SEIHIN
100
AcDbCircle
 10
383.7010766335491
 20
154.3590375254704
 30
0.0
 40
5.0
100
AcDbArc
 50
270.0
 51
323.0224035383008
  0
ARC
  5
6803
330
1A
100
AcDbEntity
  8
SEIHIN
100
AcDbCircle
 10
414.4425086317117
 20
134.2308603554704
 30
0.0
 40
2.000000006371225
100
AcDbArc
 50
81.61883576217576
 51
181.9830051328352
  0
ARC
  5
6804
330
1A
100
AcDbEntity
  8
SEIHIN
100
AcDbCircle
 10
414.8069032317116
 20
136.7041610954704
 30
0.0
 40
0.500000006319505
100
AcDbArc
 50
261.618824467159
 51
0.0
  0
ARC
  5
6805
330
1A
100
AcDbEntity
  8
SEIHIN
100
AcDbCircle
 10
411.9440057317117
 20
134.1443527054704
 30
0.0
 40
0.5000000119990663
100
AcDbArc
 50
255.3791315071996
 51
1.983005033706972
  0
LINE
  5
6806
330
1A
100
AcDbEntity
  8
SEIHIN
100
AcDbLine
 10
415.3069032317116
 20
141.6090375254704
 30
0.0
 11
415.3069032317116
 21
136.7041610954704
 31
0.0
  0
ARC
  5
6807
330
1A
100
AcDbEntity
  8
SEIHIN
100
AcDbCircle
 10
401.3434660317117
 20
150.3590375254704
 30
0.0
 40
1.000000013299993
100
AcDbArc
 50
270.0
 51
323.0224045627652
  0
LINE
  5
6808
330
1A
100
AcDbEntity
  8
SEIHIN
100
AcDbLine
 10
428.8070032317119
 20
158.3590375254704
 30
0.0
 11
428.8070032317119
 21
140.2174994754705
 31
0.0
  0
LINE
  5
6809
330
1A
100
AcDbEntity
  8
SEIHIN
100
AcDbLine
 10
429.0517740317118
 20
159.4732095254704
 30
0.0
 11
438.7488866317116
 21
135.2304282054705
 31
0.0
  0
LINE
  5
680A
330
1A
100
AcDbEntity
  8
SEIHIN
100
AcDbLine
 10
431.5385815317117
 20
159.9876468254705
 30
0.0
 11
441.7385815317118
 21
134.4876468454704
 31
0.0
  0
ARC
  5
680B
330
1A
100
AcDbEntity
  8
NOKITOI
  6
PHANTOM
 62
     8
 48
5.0
100
AcDbCircle
 10
314.2246123586482
 20
149.1146971801342
 30
0.0
 40
3.99998565374706
100
AcDbArc
 50
96.47577619531659
 51
181.791303340899
  0
LINE
  5
680C
330
1A
100
AcDbEntity
  8
NOKITOI
  6
PHANTOM
 62
     8
 48
5.0
100
AcDbLine
 10
309.9734814317125
 20
157.0896614354703
 30
0.0
 11
310.1227814317121
 21
152.3106614354706
 31
0.0
  0
LINE
  5
680D
330
1A
100
AcDbEntity
  8
NOKITOI
  6
PHANTOM
 62
     8
 48
5.0
100
AcDbLine
 10
316.0710814317121
 20
150.8146614354705
 30
0.0
 11
316.2521814317124
 21
154.2560614354704
 31
0.0
  0
ARC
  5
680E
330
1A
100
AcDbEntity
  8
NOKITOI
  6
PHANTOM
 62
     8
 48
5.0
100
AcDbCircle
 10
314.2245992980633
 20
149.1146701638504
 30
0.0
 40
5.199991271650611
100
AcDbArc
 50
90.00019685927275
 51
142.074671395271
  0
LINE
  5
680F
330
1A
100
AcDbEntity
  8
NOKITOI
  6
PHANTOM
 62
     8
 48
5.0
100
AcDbLine
 10
315.6971814317121
 20
153.6430614354703
 30
0.0
 11
316.2521814317124
 21
154.2560614354704
 31
0.0
  0
LINE
  5
6810
330
1A
100
AcDbEntity
  8
NOKITOI
  6
PHANTOM
 62
     8
 48
5.0
100
AcDbLine
 10
317.2344814317121
 20
150.0883614354704
 30
0.0
 11
317.5502814317123
 21
156.0883614354704
 31
0.0
  0
LINE
  5
6811
330
1A
100
AcDbEntity
  8
NOKITOI
  6
PHANTOM
 62
     8
 48
5.0
100
AcDbLine
 10
308.7740814317121
 20
157.0521614354704
 30
0.0
 11
309.1641814317122
 21
144.5677614354704
 31
0.0
  0
LINE
  5
6812
330
1A
100
AcDbEntity
  8
SEIHIN
100
AcDbLine
 10
439.8070032317118
 20
178.3590375254704
 30
0.0
 11
458.3765370317117
 21
131.9352029754704
 31
0.0
  0
LINE
  5
6813
330
1A
100
AcDbEntity
  8
SEIHIN
100
AcDbLine
 10
454.6626302317117
 20
130.4496402754704
 30
0.0
 11
435.4988713317118
 21
178.3590375254704
 31
0.0
  0
LINE
  5
6814
330
1A
100
AcDbEntity
  8
SEIHIN
100
AcDbLine
 10
434.3846993317117
 20
175.7593028254704
 30
0.0
 11
452.0628955317118
 21
131.5638123054704
 31
0.0
  0
LINE
  5
6815
330
1A
100
AcDbEntity
  8
SEIHIN
100
AcDbLine
 10
430.3115298317118
 20
131.3590375254704
 30
0.0
 11
451.3583761317118
 21
131.3590375254704
 31
0.0
  0
LINE
  5
6816
330
1A
100
AcDbEntity
  8
SEIHIN
100
AcDbLine
 10
442.6670582317117
 20
133.8590375254704
 30
0.0
 11
449.6677724317116
 21
133.8590375254704
 31
0.0
  0
LINE
  5
6817
330
1A
100
AcDbEntity
  8
CENTER_L
 48
5.0
100
AcDbLine
 10
442.5924529665678
 20
136.3918418967208
 30
0.0
 11
461.1619867951694
 21
143.819655401797
 31
0.0
  0
LINE
  5
6818
330
1A
100
AcDbEntity
  8
NOKITOI
  6
PHANTOM
 62
     8
 48
5.0
100
AcDbLine
 10
318.840581431712
 20
143.8644614354705
 30
0.0
 11
321.8335814317124
 21
113.9346614354703
 31
0.0
  0
LINE
  5
6819
330
1A
100
AcDbEntity
  8
NOKITOI
  6
PHANTOM
 62
     8
 48
5.0
100
AcDbLine
 10
317.7995814317118
 20
142.2141614354704
 30
0.0
 11
320.668381431712
 21
113.5267614354704
 31
0.0
  0
ARC
  5
681A
330
1A
100
AcDbEntity
  8
NOKITOI
  6
PHANTOM
 62
     8
 48
5.0
100
AcDbCircle
 10
321.663404004581
 20
113.6262193637978
 30
0.0
 40
0.9999908507640039
100
AcDbArc
 50
185.713767052247
 51
230.7112907769335
  0
LINE
  5
681B
330
1A
100
AcDbEntity
  8
SEIHIN
100
AcDbLine
 10
424.0105359317117
 20
142.5696013854705
 30
0.0
 11
432.5146159317118
 21
134.1484736654704
 31
0.0
  0
ARC
  5
681C
330
1A
100
AcDbEntity
  8
SEIHIN
100
AcDbCircle
 10
423.3069032317116
 20
141.8590375254704
 30
0.0
 40
1.000000000797301
100
AcDbArc
 50
45.28081987008772
 51
210.3961139413397
  0
ARC
  5
681D
330
1A
100
AcDbEntity
  8
SEIHIN
100
AcDbCircle
 10
416.0569032317116
 20
141.6090375254704
 30
0.0
 40
0.75
100
AcDbArc
 50
0.0
 51
90.0
  0
LINE
  5
681E
330
1A
100
AcDbEntity
  8
SEIHIN
100
AcDbLine
 10
422.4443552317118
 20
141.3530622854704
 30
0.0
 11
427.2926118317118
 21
133.0881241854704
 31
0.0
  0
LINE
  5
681F
330
1A
100
AcDbEntity
  8
SEIHIN
100
AcDbLine
 10
416.8069032317117
 20
135.0028744754705
 30
0.0
 11
416.8069032317117
 21
141.6090375254704
 31
0.0
  0
ARC
  5
6820
330
1A
100
AcDbEntity
  8
SEIHIN
100
AcDbCircle
 10
430.3115298317118
 20
134.8590375254704
 30
0.0
 40
3.499999996322441
100
AcDbArc
 50
210.3961124587318
 51
270.0
  0
ARC
  5
6821
330
1A
100
AcDbEntity
  8
SEIHIN
100
AcDbCircle
 10
427.8070032317118
 20
140.2174994754705
 30
0.0
 40
0.999999993911855
100
AcDbArc
 50
225.2808117673386
 51
0.0
  0
LINE
  5
6822
330
1A
100
AcDbEntity
  8
NOKITOI
  6
PHANTOM
 62
     8
 48
5.0
100
AcDbLine
 10
310.6634814317121
 20
143.1146614354704
 30
0.0
 11
316.804581431712
 21
143.1146614354704
 31
0.0
  0
LINE
  5
6823
330
1A
100
AcDbEntity
  8
NOKITOI
  6
PHANTOM
 62
     8
 48
5.0
100
AcDbLine
 10
318.3430814317125
 20
144.3146614354704
 30
0.0
 11
312.3111814317121
 21
144.3146614354704
 31
0.0
  0
LINE
  5
6824
330
1A
100
AcDbEntity
  8
NOKITOI
  6
PHANTOM
 62
     8
 48
5.0
100
AcDbLine
 10
315.2931814317125
 20
150.8146614354705
 30
0.0
 11
315.6971814317121
 21
153.6430614354703
 31
0.0
  0
ARC
  5
6825
330
1A
100
AcDbEntity
  8
NOKITOI
  6
PHANTOM
 62
     8
 48
5.0
100
AcDbCircle
 10
313.8298520592125
 20
152.5922916679653
 30
0.0
 40
0.4999578477751074
100
AcDbArc
 50
351.8669438287072
 51
96.47390928779564
  0
LINE
  5
6826
330
1A
100
AcDbEntity
  8
NOKITOI
  6
PHANTOM
 62
     8
 48
5.0
100
AcDbLine
 10
316.7351814317121
 20
149.6146614354704
 30
0.0
 11
314.4860814317126
 21
149.6146614354704
 31
0.0
  0
LINE
  5
6827
330
1A
100
AcDbEntity
  8
NOKITOI
  6
PHANTOM
 62
     8
 48
5.0
100
AcDbLine
 10
316.0710814317121
 20
150.8146614354705
 30
0.0
 11
315.2931814317125
 21
150.8146614354705
 31
0.0
  0
LINE
  5
6828
330
1A
100
AcDbEntity
  8
NOKITOI
  6
PHANTOM
 62
     8
 48
5.0
100
AcDbLine
 10
313.9910814317122
 20
150.1853614354704
 30
0.0
 11
314.3248814317121
 21
152.5215614354706
 31
0.0
  0
ARC
  5
6829
330
1A
100
AcDbEntity
  8
NOKITOI
  6
PHANTOM
 62
     8
 48
5.0
100
AcDbCircle
 10
314.4860712452759
 20
150.1146731801945
 30
0.0
 40
0.5000117448278309
100
AcDbArc
 50
171.8726853912841
 51
270.0011672521967
  0
ARC
  5
682A
330
1A
100
AcDbEntity
  8
NOKITOI
  6
PHANTOM
 62
     8
 48
5.0
100
AcDbCircle
 10
316.7351773103055
 20
150.1146575254399
 30
0.0
 40
0.4999960899864752
100
AcDbArc
 50
270.0004722821422
 51
356.9852756208257
  0
ARC
  5
682B
330
1A
100
AcDbEntity
  8
NOKITOI
  6
PHANTOM
 62
     8
 48
5.0
100
AcDbCircle
 10
318.3430683607075
 20
143.8146732657503
 30
0.0
 40
0.499988169890889
100
AcDbArc
 50
5.703393862283578
 51
89.99850213773529
  0
ARC
  5
682C
330
1A
100
AcDbEntity
  8
NOKITOI
  6
PHANTOM
 62
     8
 48
5.0
100
AcDbCircle
 10
316.8045607818712
 20
142.1146801233196
 30
0.0
 40
0.9999813123640345
100
AcDbArc
 50
5.709409966648592
 51
89.9988168291509
  0
ARC
  5
682D
330
1A
100
AcDbEntity
  8
NOKITOI
  6
PHANTOM
 62
     8
 48
5.0
100
AcDbCircle
 10
312.3111434438878
 20
146.3145982560426
 30
0.0
 40
2.000036820932882
100
AcDbArc
 50
181.7889408725804
 51
270.0010882509654
  0
LINE
  5
682E
330
1A
100
AcDbEntity
  8
NOKITOI
  6
PHANTOM
 62
     8
 48
5.0
100
AcDbLine
 10
310.3120814317121
 20
146.2520614354705
 30
0.0
 11
310.2265814317124
 21
148.9896614354704
 31
0.0
  0
ARC
  5
682F
330
1A
100
AcDbEntity
  8
NOKITOI
  6
PHANTOM
 62
     8
 48
5.0
100
AcDbCircle
 10
310.663464218534
 20
144.6146781186182
 30
0.0
 40
1.500016683246579
100
AcDbArc
 50
181.7923576755887
 51
270.0006574876639
  0
ARC
  5
6830
330
1A
100
AcDbEntity
  8
SEIHIN
100
AcDbCircle
 10
437.8204099317117
 20
134.8590375254704
 30
0.0
 40
1.000000004908427
100
AcDbArc
 50
270.0
 51
21.8014094863512
  0
ARC
  5
6831
330
1A
100
AcDbEntity
  8
SEIHIN
100
AcDbCircle
 10
433.2182487317118
 20
134.8590375254704
 30
0.0
 40
1.000000029093474
100
AcDbArc
 50
225.2808076961064
 51
270.0
  0
LINE
  5
6832
330
1A
100
AcDbEntity
  8
SEIHIN
100
AcDbLine
 10
433.2182487317118
 20
133.8590375254704
 30
0.0
 11
437.8204099317117
 21
133.8590375254704
 31
0.0
  0
ARC
  5
6833
330
1A
100
AcDbEntity
  8
SEIHIN
100
AcDbCircle
 10
442.6670582317117
 20
134.8590375254704
 30
0.0
 40
1.000000004908425
100
AcDbArc
 50
201.8014094863512
 51
270.0
  0
LINE
  5
6834
330
1A
100
AcDbEntity
  8
SEIHIN
100
AcDbLine
 10
454.6626302317117
 20
130.4496402754704
 30
0.0
 11
458.3765370317117
 21
131.9352029754704
 31
0.0
  0
LINE
  5
6835
330
1A
100
AcDbEntity
  8
SEIHIN
100
AcDbLine
 10
452.0628955317118
 20
131.5638123054704
 30
0.0
 11
454.6626302317117
 21
130.4496402754704
 31
0.0
  0
ARC
  5
6836
330
1A
100
AcDbEntity
  8
SEIHIN
100
AcDbCircle
 10
449.6677724317116
 20
134.8590375254704
 30
0.0
 40
1.000000004908454
100
AcDbArc
 50
270.0
 51
21.80140948635045
  0
LINE
  5
6837
330
1A
100
AcDbEntity
  8
SEIHIN
100
AcDbLine
 10
452.0628955317118
 20
131.5638123054704
 30
0.0
 11
451.7297668317117
 21
131.4305608354704
 31
0.0
  0
ARC
  5
6838
330
1A
100
AcDbEntity
  8
SEIHIN
100
AcDbCircle
 10
451.3583761317118
 20
132.3590375254704
 30
0.0
 40
1.000000003979961
100
AcDbArc
 50
270.0
 51
291.8014107631017
  0
LINE
  5
6839
330
1A
100
AcDbEntity
  8
CENTER_L
 48
5.0
100
AcDbLine
 10
431.4506933019488
 20
164.2462410708731
 30
0.0
 11
450.0202271365488
 21
171.6740545783486
 31
0.0
  0
LINE
  5
683A
330
1A
100
AcDbEntity
  8
CENTER_L
 48
5.0
100
AcDbLine
 10
434.960335204028
 20
155.4721363117048
 30
0.0
 11
453.5298690367382
 21
162.8999498184246
 31
0.0
  0
LINE
  5
683B
330
1A
100
AcDbEntity
  8
SEIHIN
100
AcDbLine
 10
435.4988713317118
 20
178.3590375254704
 30
0.0
 11
434.3846993317117
 21
175.7593028254704
 31
0.0
  0
LINE
  5
683C
330
1A
100
AcDbEntity
  8
SEIHIN
100
AcDbLine
 10
417.8940642317118
 20
163.8590375254704
 30
0.0
 11
437.6677724317117
 21
163.8590375254704
 31
0.0
  0
ARC
  5
683D
330
1A
100
AcDbEntity
  8
SEIHIN
100
AcDbCircle
 10
432.9717865317117
 20
128.3590375254704
 30
0.0
 40
47.4999999948513
100
AcDbArc
 50
90.84484711396877
 51
100.0080475800432
  0
LINE
  5
683E
330
1A
100
AcDbEntity
  8
SEIHIN
100
AcDbLine
 10
426.9983056317117
 20
161.3590375254704
 30
0.0
 11
434.8502634317116
 21
161.3590375254704
 31
0.0
  0
ARC
  5
683F
330
1A
100
AcDbEntity
  8
SEIHIN
100
AcDbCircle
 10
432.4670582317117
 20
160.3590375254704
 30
0.0
 40
1.000000008622332
100
AcDbArc
 50
90.0
 51
201.8014105503076
  0
ARC
  5
6840
330
1A
100
AcDbEntity
  8
SEIHIN
100
AcDbCircle
 10
417.8940642317118
 20
164.8590375254704
 30
0.0
 40
1.000000013299975
100
AcDbArc
 50
143.0224045627638
 51
270.0
  0
LINE
  5
6841
330
1A
100
AcDbEntity
  8
SEIHIN
100
AcDbLine
 10
422.9858665317117
 20
161.3590375254704
 30
0.0
 11
426.9983056317117
 21
161.3590375254704
 31
0.0
  0
LINE
  5
6842
330
1A
100
AcDbEntity
  8
NOKITOI
  6
PHANTOM
 62
     8
 48
5.0
100
AcDbLine
 10
312.7457814317121
 20
155.4146614354706
 30
0.0
 11
315.6823814317121
 21
155.4146614354706
 31
0.0
  0
LINE
  5
6843
330
1A
100
AcDbEntity
  8
NOKITOI
  6
PHANTOM
 62
     8
 48
5.0
100
AcDbLine
 10
310.7730814317119
 20
159.1145614354704
 30
0.0
 11
314.0996814317122
 21
159.1146614354704
 31
0.0
  0
LINE
  5
6844
330
1A
100
AcDbEntity
  8
NOKITOI
  6
PHANTOM
 62
     8
 48
5.0
100
AcDbLine
 10
317.0509814317119
 20
156.6146614354704
 30
0.0
 11
314.8194814317121
 21
156.6146614354704
 31
0.0
  0
LINE
  5
6845
330
1A
100
AcDbEntity
  8
NOKITOI
  6
PHANTOM
 62
     8
 48
5.0
100
AcDbLine
 10
314.3291814317121
 20
157.2126614354706
 30
0.0
 11
314.5899814317122
 21
158.5166614354704
 31
0.0
  0
LINE
  5
6846
330
1A
100
AcDbEntity
  8
NOKITOI
  6
PHANTOM
 62
     8
 48
5.0
100
AcDbLine
 10
314.686581431712
 20
154.3146614354705
 30
0.0
 11
315.6823814317121
 21
155.4146614354706
 31
0.0
  0
LINE
  5
6847
330
1A
100
AcDbEntity
  8
NOKITOI
  6
PHANTOM
 62
     8
 48
5.0
100
AcDbLine
 10
314.686581431712
 20
154.3146614354705
 30
0.0
 11
314.224581431712
 21
154.3146614354705
 31
0.0
  0
ARC
  5
6848
330
1A
100
AcDbEntity
  8
NOKITOI
  6
PHANTOM
 62
     8
 48
5.0
100
AcDbCircle
 10
314.8194822147206
 20
157.1146604804687
 30
0.0
 40
0.4999990449987399
100
AcDbArc
 50
168.6967198015444
 51
269.9999102736932
  0
ARC
  5
6849
330
1A
100
AcDbEntity
  8
NOKITOI
  6
PHANTOM
 62
     8
 48
5.0
100
AcDbCircle
 10
314.0996886862676
 20
158.614652585627
 30
0.0
 40
0.500008849895925
100
AcDbArc
 50
348.6864043304874
 51
90.0008312961426
  0
ARC
  5
684A
330
1A
100
AcDbEntity
  8
NOKITOI
  6
PHANTOM
 62
     8
 48
5.0
100
AcDbCircle
 10
317.0509777222168
 20
156.1146653455011
 30
0.0
 40
0.4999960899831856
100
AcDbArc
 50
356.9843782585353
 51
89.99957491985082
  0
LINE
  5
684B
330
1A
100
AcDbEntity
  8
NOKITOI
  6
PHANTOM
 62
     8
 48
5.0
100
AcDbLine
 10
310.7730814317119
 20
157.9145614354704
 30
0.0
 11
313.2457814317122
 21
157.9146614354706
 31
0.0
  0
LINE
  5
684C
330
1A
100
AcDbEntity
  8
NOKITOI
  6
PHANTOM
 62
     8
 48
5.0
100
AcDbLine
 10
313.2457814317122
 20
157.9146614354706
 30
0.0
 11
312.7457814317121
 21
155.4146614354706
 31
0.0
  0
ARC
  5
684D
330
1A
100
AcDbEntity
  8
NOKITOI
  6
PHANTOM
 62
     8
 48
5.0
100
AcDbCircle
 10
310.7730374653592
 20
157.1146160729974
 30
0.0
 40
0.7999453636812564
100
AcDbArc
 50
89.99685092684577
 51
181.7876563552118
  0
ARC
  5
684E
330
1A
100
AcDbEntity
  8
NOKITOI
  6
PHANTOM
 62
     8
 48
5.0
100
AcDbCircle
 10
310.7730926687063
 20
157.1146730292875
 30
0.0
 40
1.999988406214315
100
AcDbArc
 50
90.00032191804612
 51
181.7911273464062
  0
ARC
  5
684F
330
1A
100
AcDbEntity
  8
SEIHIN
100
AcDbCircle
 10
425.8070032317118
 20
158.3590375254704
 30
0.0
 40
3.0
100
AcDbArc
 50
0.0
 51
90.0
  0
ARC
  5
6850
330
1A
100
AcDbEntity
  8
SEIHIN
100
AcDbCircle
 10
426.2663439317115
 20
158.3590375254704
 30
0.0
 40
3.000000007297522
100
AcDbArc
 50
21.80140877704856
 51
90.0
  0
LINE
  5
6851
330
1A
100
AcDbEntity
  8
SEIHIN
100
AcDbLine
 10
424.0918436317117
 20
174.7529661254704
 30
0.0
 11
417.0951934317117
 21
165.4605402254704
 31
0.0
  0
ARC
  5
6852
330
1A
100
AcDbEntity
  8
SEIHIN
100
AcDbCircle
 10
417.9005332317117
 20
172.3488923254705
 30
0.0
 40
0.9999999858333294
100
AcDbArc
 50
323.02240111641
 51
108.9118445391177
  0
ARC
  5
6853
330
1A
100
AcDbEntity
  8
SEIHIN
100
AcDbCircle
 10
424.8907143317117
 20
174.1514634254704
 30
0.0
 40
0.9999999964809097
100
AcDbArc
 50
100.0080471782631
 51
143.0224011164094
  0
ARC
  5
6854
330
1A
100
AcDbEntity
  8
SEIHIN
100
AcDbCircle
 10
438.1137065317115
 20
158.3590375254704
 30
0.0
 40
3.000000007297522
100
AcDbArc
 50
21.80140877704856
 51
90.0
  0
ARC
  5
6855
330
1A
100
AcDbEntity
  8
SEIHIN
100
AcDbCircle
 10
437.6677724317117
 20
164.8590375254704
 30
0.0
 40
1.000000008622361
100
AcDbArc
 50
270.0
 51
21.8014105503069
  0
LINE
  5
6856
330
1A
100
AcDbEntity
  8
SEIHIN
100
AcDbLine
 10
432.4670582317117
 20
161.3590375254704
 30
0.0
 11
438.1137065317115
 21
161.3590375254704
 31
0.0
  0
ARC
  5
6857
330
1A
100
AcDbEntity
  8
SEIHIN
100
AcDbCircle
 10
432.3156416317117
 20
172.8541999254704
 30
0.0
 40
2.999999927323406
100
AcDbArc
 50
21.8014094863512
 51
90.84484735346727
  0
LINE
  5
6858
330
1A
100
AcDbEntity
  8
SEIHIN
100
AcDbLine
 10
432.9717853317117
 20
178.3590375254704
 30
0.0
 11
439.8070032317118
 21
178.3590375254704
 31
0.0
  0
DIMENSION
  5
689A
330
1A
100
AcDbEntity
  8
SUNPOU
 48
5.0
100
AcDbDimension
  2
*D1
 10
268.359925897309
 20
430.132501223623
 30
0.0
 11
263.3599258973089
 21
442.132501223623
 31
0.0
 70
    32
  3
STANDARD
100
AcDbAlignedDimension
 13
310.7937032317118
 23
454.1325012236229
 33
0.0
 14
310.7937032317118
 24
430.132501223623
 34
0.0
 50
90.0
100
AcDbRotatedDimension
1001
ACAD
1000
DSTYLE
1002
{
1070
    41
1040
7.0
1070
    42
1040
6.0
1070
    43
1040
14.0
1070
    44
1040
3.0
1070
    73
1070
     0
1070
    74
1070
     0
1070
    77
1070
     3
1070
   140
1040
6.0
1070
   141
1040
150.0
1070
   147
1040
2.0
1070
   172
1070
     1
1070
   173
1070
     1
1070
   176
1070
   256
1070
   177
1070
   256
1070
   178
1070
   256
1070
   271
1070
     0
1070
   272
1070
     0
1070
   341
1005
6D
1070
     6
1000
OPEN
1070
     7
1000
OPEN
1070
   371
1070
    -1
1070
   372
1070
    -1
1002
}
  0
DIMENSION
  5
68A7
330
1A
100
AcDbEntity
  8
SUNPOU
 48
5.0
100
AcDbDimension
  2
*D2
 10
490.0085796517032
 20
410.6325012236229
 30
0.0
 11
485.0085796517031
 21
442.132501223623
 31
0.0
 70
    32
  3
STANDARD
100
AcDbAlignedDimension
 13
454.2391278225945
 23
473.6325012236229
 33
0.0
 14
454.2391278225945
 24
410.6325012236229
 34
0.0
 50
90.0
100
AcDbRotatedDimension
1001
ACAD
1000
DSTYLE
1002
{
1070
    41
1040
7.0
1070
    42
1040
6.0
1070
    43
1040
14.0
1070
    44
1040
3.0
1070
    73
1070
     0
1070
    74
1070
     0
1070
    77
1070
     3
1070
   140
1040
6.0
1070
   141
1040
150.0
1070
   147
1040
2.0
1070
   172
1070
     1
1070
   173
1070
     1
1070
   176
1070
   256
1070
   177
1070
   256
1070
   178
1070
   256
1070
   271
1070
     0
1070
   272
1070
     0
1070
   341
1005
6D
1070
     6
1000
OPEN
1070
     7
1000
OPEN
1070
   371
1070
    -1
1070
   372
1070
    -1
1002
}
  0
DIMENSION
  5
6958
330
1A
100
AcDbEntity
  8
SUNPOU
 48
5.0
100
AcDbDimension
  2
*D3
 10
558.6846795908824
 20
414.1476078227628
 30
0.0
 11
535.0085889591118
 21
410.0623363771892
 31
0.0
 70
    33
  3
STANDARD
100
AcDbAlignedDimension
 13
525.4627362780023
 23
370.6514700549627
 33
0.0
 14
569.1010107780024
 24
388.1067798549627
 34
0.0
1001
ACAD
1000
DSTYLE
1002
{
1070
    41
1040
7.0
1070
    42
1040
6.0
1070
    43
1040
14.0
1070
    44
1040
3.0
1070
    73
1070
     0
1070
    74
1070
     0
1070
    77
1070
     3
1070
   140
1040
6.0
1070
   141
1040
150.0
1070
   147
1040
2.0
1070
   172
1070
     1
1070
   173
1070
     1
1070
   176
1070
   256
1070
   177
1070
   256
1070
   178
1070
   256
1070
   271
1070
     0
1070
   272
1070
     0
1070
   341
1005
6D
1070
     6
1000
OPEN
1070
     7
1000
OPEN
1070
   371
1070
    -1
1070
   372
1070
    -1
1002
}
  0
DIMENSION
  5
6965
330
1A
100
AcDbEntity
  8
SUNPOU
 48
5.0
100
AcDbDimension
  2
*D4
 10
560.6113213280804
 20
430.0681771274895
 30
0.0
 11
529.5503561755261
 21
422.8222671265275
 31
0.0
 70
    33
  3
STANDARD
100
AcDbAlignedDimension
 13
520.7425452305927
 23
360.9111599032186
 33
0.0
 14
579.0941009305928
 24
384.6649600032186
 34
0.0
1001
ACAD
1000
DSTYLE
1002
{
1070
    41
1040
7.0
1070
    42
1040
6.0
1070
    43
1040
14.0
1070
    44
1040
3.0
1070
    73
1070
     0
1070
    74
1070
     0
1070
    77
1070
     3
1070
   140
1040
6.0
1070
   141
1040
150.0
1070
   147
1040
2.0
1070
   172
1070
     1
1070
   173
1070
     1
1070
   176
1070
   256
1070
   177
1070
   256
1070
   178
1070
   256
1070
   271
1070
     0
1070
   272
1070
     0
1070
   341
1005
6D
1070
     6
1000
OPEN
1070
     7
1000
OPEN
1070
   371
1070
    -1
1070
   372
1070
    -1
1002
}
  0
DIMENSION
  5
6972
330
1A
100
AcDbEntity
  8
SUNPOU
 48
5.0
100
AcDbDimension
  2
*D5
 10
478.7809488661937
 20
302.2735987986252
 30
0.0
 11
474.1385654213097
 21
327.3424694536715
 31
0.0
 70
    33
  3
STANDARD
100
AcDbAlignedDimension
 13
439.8070032317118
 23
340.5356686236229
 33
0.0
 14
458.3765370317117
 24
294.1118340736229
 34
0.0
1001
ACAD
1000
DSTYLE
1002
{
1070
    41
1040
7.0
1070
    42
1040
6.0
1070
    43
1040
14.0
1070
    44
1040
3.0
1070
    73
1070
     0
1070
    74
1070
     0
1070
    77
1070
     3
1070
   140
1040
6.0
1070
   141
1040
150.0
1070
   147
1040
2.0
1070
   172
1070
     1
1070
   173
1070
     1
1070
   176
1070
   256
1070
   177
1070
   256
1070
   178
1070
   256
1070
   271
1070
     0
1070
   272
1070
     0
1070
   341
1005
6D
1070
     6
1000
OPEN
1070
     7
1000
OPEN
1070
   371
1070
    -1
1070
   372
1070
    -1
1002
}
  0
DIMENSION
  5
697F
330
1A
100
AcDbEntity
  8
SUNPOU
 48
5.0
100
AcDbDimension
  2
*D6
 10
298.8100024062105
 20
310.2356686236229
 30
0.0
 11
293.8100024062104
 21
325.385668623623
 31
0.0
 70
    32
  3
STANDARD
100
AcDbAlignedDimension
 13
439.8070032317118
 23
340.5356686236229
 33
0.0
 14
310.8069032317117
 24
310.2356686236229
 34
0.0
 50
90.0
100
AcDbRotatedDimension
1001
ACAD
1000
DSTYLE
1002
{
1070
    41
1040
7.0
1070
    42
1040
6.0
1070
    43
1040
14.0
1070
    44
1040
3.0
1070
    73
1070
     0
1070
    74
1070
     0
1070
    77
1070
     3
1070
   140
1040
6.0
1070
   141
1040
150.0
1070
   147
1040
2.0
1070
   172
1070
     1
1070
   173
1070
     1
1070
   176
1070
   256
1070
   177
1070
   256
1070
   178
1070
   256
1070
   271
1070
     0
1070
   272
1070
     0
1070
   341
1005
6D
1070
     6
1000
OPEN
1070
     7
1000
OPEN
1070
   371
1070
    -1
1070
   372
1070
    -1
1002
}
  0
DIMENSION
  5
698C
330
1A
100
AcDbEntity
  8
SUNPOU
 48
5.0
100
AcDbDimension
  2
*D7
 10
439.8070032317118
 20
375.8713878575326
 30
0.0
 11
375.3069532317118
 21
380.8713878575326
 31
0.0
 70
    32
  3
STANDARD
100
AcDbAlignedDimension
 13
310.8069032317117
 23
311.5356686236229
 33
0.0
 14
439.8070032317118
 24
340.5356686236229
 34
0.0
100
AcDbRotatedDimension
1001
ACAD
1000
DSTYLE
1002
{
1070
    41
1040
7.0
1070
    42
1040
6.0
1070
    43
1040
14.0
1070
    44
1040
3.0
1070
    73
1070
     0
1070
    74
1070
     0
1070
    77
1070
     3
1070
   140
1040
6.0
1070
   141
1040
150.0
1070
   147
1040
2.0
1070
   172
1070
     1
1070
   173
1070
     1
1070
   176
1070
   256
1070
   177
1070
   256
1070
   178
1070
   256
1070
   271
1070
     0
1070
   272
1070
     0
1070
   341
1005
6D
1070
     6
1000
OPEN
1070
     7
1000
OPEN
1070
   371
1070
    -1
1070
   372
1070
    -1
1002
}
  0
DIMENSION
  5
6999
330
1A
100
AcDbEntity
  8
SUNPOU
 48
5.0
100
AcDbDimension
  2
*D8
 10
461.8847002485201
 20
269.1859313051874
 30
0.0
 11
443.3151664213323
 21
267.1432826714465
 31
0.0
 70
    33
  3
STANDARD
100
AcDbAlignedDimension
 13
458.3765370317117
 23
294.1118340736229
 33
0.0
 14
452.8056768762495
 24
291.883490041438
 34
0.0
1001
ACAD
1000
DSTYLE
1002
{
1070
    41
1040
7.0
1070
    42
1040
6.0
1070
    43
1040
14.0
1070
    44
1040
3.0
1070
    73
1070
     0
1070
    74
1070
     0
1070
    77
1070
     3
1070
   140
1040
6.0
1070
   141
1040
150.0
1070
   147
1040
2.0
1070
   172
1070
     1
1070
   173
1070
     1
1070
   176
1070
   256
1070
   177
1070
   256
1070
   178
1070
   256
1070
   271
1070
     0
1070
   272
1070
     0
1070
   341
1005
6D
1070
     6
1000
OPEN
1070
     7
1000
OPEN
1070
   371
1070
    -1
1070
   372
1070
    -1
1002
}
  0
LINE
  5
69A8
330
1A
100
AcDbEntity
  8
SEIHIN
100
AcDbLine
 10
524.032965803329
 20
374.2260310032005
 30
0.0
 11
567.6711618010698
 21
391.6814107411247
 31
0.0
  0
LINE
  5
69A9
330
1A
100
AcDbEntity
  8
SEIHIN
100
AcDbLine
 10
542.6024995804814
 20
327.8021963955418
 30
0.0
 11
576.4917935901585
 21
341.3579926988468
 31
0.0
  0
DIMENSION
  5
69AA
330
1A
100
AcDbEntity
  8
SUNPOU
 48
5.0
100
AcDbDimension
  2
*D9
 10
610.6635038291808
 20
387.9300627918704
 30
0.0
 11
611.6941140711185
 21
398.8164492369119
 31
0.0
 70
    33
  3
STANDARD
100
AcDbAlignedDimension
 13
567.6711618010698
 23
391.6814107411247
 33
0.0
 14
574.8947082305928
 24
373.6225446032186
 34
0.0
1001
ACAD
1000
DSTYLE
1002
{
1070
    41
1040
7.0
1070
    42
1040
6.0
1070
    43
1040
14.0
1070
    44
1040
3.0
1070
    73
1070
     0
1070
    74
1070
     0
1070
    77
1070
     3
1070
   140
1040
6.0
1070
   141
1040
150.0
1070
   147
1040
2.0
1070
   172
1070
     1
1070
   173
1070
     1
1070
   176
1070
   256
1070
   177
1070
   256
1070
   178
1070
   256
1070
   271
1070
     0
1070
   272
1070
     0
1070
   341
1005
6D
1070
     6
1000
OPEN
1070
     7
1000
OPEN
1070
   371
1070
    -1
1070
   372
1070
    -1
1002
}
  0
DIMENSION
  5
69B7
330
1A
100
AcDbEntity
  8
SUNPOU
 48
5.0
100
AcDbDimension
  2
*D10
 10
494.7660694022957
 20
362.5194423846822
 30
0.0
 11
492.1664345933039
 21
382.4817042520129
 31
0.0
 70
    33
  3
STANDARD
100
AcDbAlignedDimension
 13
527.7467889305927
 23
364.9413384032186
 33
0.0
 14
524.032965803329
 24
374.2260310032005
 34
0.0
1001
ACAD
1000
DSTYLE
1002
{
1070
    41
1040
7.0
1070
    42
1040
6.0
1070
    43
1040
14.0
1070
    44
1040
3.0
1070
    73
1070
     0
1070
    74
1070
     0
1070
    77
1070
     3
1070
   140
1040
6.0
1070
   141
1040
150.0
1070
   147
1040
2.0
1070
   172
1070
     1
1070
   173
1070
     1
1070
   176
1070
   256
1070
   177
1070
   256
1070
   178
1070
   256
1070
   271
1070
     0
1070
   272
1070
     0
1070
   341
1005
6D
1070
     6
1000
OPEN
1070
     7
1000
OPEN
1070
   371
1070
    -1
1070
   372
1070
    -1
1002
}
  0
DIMENSION
  5
69C6
330
1A
100
AcDbEntity
  8
SUNPOU
 48
5.0
100
AcDbDimension
  2
*D11
 10
513.335615300647
 20
316.0954427251595
 30
0.0
 11
525.2201169240918
 21
299.8471006201218
 31
0.0
 70
    33
  3
STANDARD
100
AcDbAlignedDimension
 13
538.8885950305926
 23
337.0869578032186
 33
0.0
 14
542.6024995804814
 24
327.8021963955418
 34
0.0
1001
ACAD
1000
DSTYLE
1002
{
1070
    41
1040
7.0
1070
    42
1040
6.0
1070
    43
1040
14.0
1070
    44
1040
3.0
1070
    73
1070
     0
1070
    74
1070
     0
1070
    77
1070
     3
1070
   140
1040
6.0
1070
   141
1040
150.0
1070
   147
1040
2.0
1070
   172
1070
     1
1070
   173
1070
     1
1070
   176
1070
   256
1070
   177
1070
   256
1070
   178
1070
   256
1070
   271
1070
     0
1070
   272
1070
     0
1070
   341
1005
6D
1070
     6
1000
OPEN
1070
     7
1000
OPEN
1070
   371
1070
    -1
1070
   372
1070
    -1
1002
}
  0
DIMENSION
  5
69D5
330
1A
100
AcDbEntity
  8
SUNPOU
 48
5.0
100
AcDbDimension
  2
*D12
 10
497.7118539691584
 20
309.8459382147469
 30
0.0
 11
493.0694705372813
 21
334.9148088946647
 31
0.0
 70
    33
  3
STANDARD
100
AcDbAlignedDimension
 13
524.032965803329
 23
374.2260310032005
 33
0.0
 14
542.6024995804814
 24
327.8021963955418
 34
0.0
1001
ACAD
1000
DSTYLE
1002
{
1070
    41
1040
7.0
1070
    42
1040
6.0
1070
    43
1040
14.0
1070
    44
1040
3.0
1070
    73
1070
     0
1070
    74
1070
     0
1070
    77
1070
     3
1070
   140
1040
6.0
1070
   141
1040
150.0
1070
   147
1040
2.0
1070
   172
1070
     1
1070
   173
1070
     1
1070
   176
1070
   256
1070
   177
1070
   256
1070
   178
1070
   256
1070
   271
1070
     0
1070
   272
1070
     0
1070
   341
1005
6D
1070
     6
1000
OPEN
1070
     7
1000
OPEN
1070
   371
1070
    -1
1070
   372
1070
    -1
1002
}
  0
LINE
  5
6B44
330
1A
100
AcDbEntity
  8
ZUWAKU
100
AcDbLine
 10
208.6466021508235
 20
15.20000025521687
 30
0.0
 11
447.4243648317469
 21
15.20000025521686
 31
0.0
  0
LINE
  5
6B45
330
1A
100
AcDbEntity
  8
ZUWAKU
100
AcDbLine
 10
208.6466021508235
 20
15.60000025521686
 30
0.0
 11
447.4243648317469
 21
15.60000025521687
 31
0.0
  0
LINE
  5
6B46
330
1A
100
AcDbEntity
  8
ZUWAKU
100
AcDbLine
 10
208.6466021508235
 20
15.40000025521686
 30
0.0
 11
447.4243648317469
 21
15.40000025521686
 31
0.0
  0
LINE
  5
6B47
330
1A
100
AcDbEntity
  8
ZUWAKU
100
AcDbLine
 10
0.0000008607555628
 20
30.80000025521684
 30
0.0
 11
797.4000008607554
 21
30.80000025521684
 31
0.0
  0
LINE
  5
6B48
330
1A
100
AcDbEntity
  8
ZUWAKU
100
AcDbLine
 10
0.0000008607555628
 20
30.60000025521684
 30
0.0
 11
797.4000008607554
 21
30.60000025521684
 31
0.0
  0
LINE
  5
6B49
330
1A
100
AcDbEntity
  8
ZUWAKU
100
AcDbLine
 10
0.0000008607555628
 20
30.40000025521683
 30
0.0
 11
797.4000008607554
 21
30.40000025521683
 31
0.0
  0
LINE
  5
6B4A
330
1A
100
AcDbEntity
  8
ZUWAKU
100
AcDbLine
 10
0.0000008607555628
 20
30.20000025521683
 30
0.0
 11
797.4000008607554
 21
30.20000025521683
 31
0.0
  0
LINE
  5
6B4B
330
1A
100
AcDbEntity
  8
ZUWAKU
100
AcDbLine
 10
0.0000008607555628
 20
30.00000025521683
 30
0.0
 11
797.4000008607554
 21
30.00000025521683
 31
0.0
  0
LWPOLYLINE
  5
6B4C
330
1A
100
AcDbEntity
  8
ZUWAKU
100
AcDbPolyline
 90
        4
 70
     1
 43
0.0
 10
0.2000008607554946
 20
551.4000002552169
 10
0.2000008607554946
 20
0.200000255216878
 10
797.4000008607554
 20
0.2000002552169011
 10
797.4000008607556
 20
551.4000002552169
  0
LWPOLYLINE
  5
6B4D
330
1A
100
AcDbEntity
  8
ZUWAKU
100
AcDbPolyline
 90
        4
 70
     1
 43
0.0
 10
0.6000008607554719
 20
551.0000002552169
 10
0.6000008607554719
 20
0.6000002552168553
 10
797.0000008607557
 20
0.6000002552169015
 10
797.0000008607556
 20
551.0000002552169
  0
LWPOLYLINE
  5
6B4E
330
1A
100
AcDbEntity
  8
ZUWAKU
100
AcDbPolyline
 90
        4
 70
     1
 43
0.0
 10
0.0000008607555628
 20
551.6000002552168
 10
0.0000008607555628
 20
0.0000002552168326
 10
797.6000008607557
 20
0.0000002552169001
 10
797.6000008607557
 20
551.600000255217
  0
LWPOLYLINE
  5
6B4F
330
1A
100
AcDbEntity
  8
ZUWAKU
100
AcDbPolyline
 90
        4
 70
     1
 43
0.0
 10
0.4000008607555401
 20
551.2000002552168
 10
0.4000008607555401
 20
0.4000002552169235
 10
797.2000008607555
 20
0.4000002552169005
 10
797.2000008607555
 20
551.2000002552168
  0
LWPOLYLINE
  5
6B50
330
1A
100
AcDbEntity
  8
ZUWAKU
100
AcDbPolyline
 90
        4
 70
     1
 43
0.0
 10
0.8000008607555173
 20
550.8000002552169
 10
0.8000008607555173
 20
0.8000002552169007
 10
796.8000008607555
 20
0.8000002552169007
 10
796.8000008607555
 20
550.8000002552169
  0
TEXT
  5
6B51
330
1A
100
AcDbEntity
  8
MOJI
100
AcDbText
 10
92.95779044892469
 20
12.74117838549159
 30
0.0
 40
6.0
  1
新・丸トップＲＶ１０５
 41
0.9
  7
ｽﾀｲﾙ1
100
AcDbText
  0
HATCH
  5
6B52
330
1A
100
AcDbEntity
  8
ZUWAKU
100
AcDbHatch
 10
0.0
 20
0.0
 30
0.0
210
0.0
220
0.0
230
1.0
  2
ANSI37
 70
     0
 71
     0
 91
        8
 92
        7
 72
     1
 73
     1
 93
       24
 10
14.50226352187542
 20
17.64484873620041
 42
-0.1989123673796348
 10
14.09221301553668
 20
18.63479822986146
 42
0.0
 10
14.09221301553668
 20
19.92500025521684
 42
-0.4142135623730912
 10
14.61721301553666
 20
20.45000025521683
 42
0.0
 10
17.59221301553657
 20
20.45000025521683
 42
0.4142135623731546
 10
18.11721301553666
 20
20.97500025521682
 42
0.0
 10
18.11721301553666
 20
22.72500025521684
 42
0.4142135623731586
 10
17.59221301553657
 20
23.25000025521684
 42
0.0
 10
14.09221301553668
 20
23.25000025521684
 42
0.4142135623730928
 10
11.29221301553673
 20
20.45000025521686
 42
0.0
 10
11.29221301553673
 20
18.63479822986159
 42
0.1989123673796619
 10
12.52236453455316
 20
15.66494974887798
 42
0.0
 10
15.43216250919783
 20
12.75515177423333
 42
-0.1989123673796613
 10
15.84221301553668
 20
11.76520228057214
 42
0.0
 10
15.84221301553668
 20
10.47500025521682
 42
-0.4142135623730911
 10
15.31721301553671
 20
9.950000255216835
 42
0.0
 10
12.3422130155368
 20
9.950000255216835
 42
0.4142135623731526
 10
11.8172130155367
 20
9.425000255216847
 42
0.0
 10
11.8172130155367
 20
7.675000255216826
 42
0.4142135623731526
 10
12.3422130155368
 20
7.150000255216838
 42
0.0
 10
15.84221301553668
 20
7.150000255216838
 42
0.4142135623731044
 10
18.64221301553675
 20
9.950000255216814
 42
0.0
 10
18.64221301553675
 20
11.76520228057208
 42
0.1989123673796604
 10
17.41206149652021
 20
14.73505076155562
 42
0.0
 97
        0
 92
        7
 72
     1
 73
     1
 93
       16
 10
23.54221301553673
 20
19.05000025521684
 42
-0.4142135623730935
 10
24.9422130155367
 20
20.45000025521683
 42
0.0
 10
26.86721301553666
 20
20.45000025521683
 42
0.4142135623731546
 10
27.39221301553675
 20
20.97500025521682
 42
0.0
 10
27.39221301553675
 20
22.72500025521684
 42
0.4142135623730951
 10
26.86721301553677
 20
23.25000025521684
 42
0.0
 10
24.94221301553659
 20
23.25000025521679
 42
0.4142135623730892
 10
20.74221301553666
 20
19.05000025521677
 42
0.0
 10
20.74221301553666
 20
11.35000025521686
 42
0.4142135623730969
 10
24.9422130155367
 20
7.150000255216838
 42
0.0
 10
26.86721301553666
 20
7.150000255216838
 42
0.4142135623731526
 10
27.39221301553675
 20
7.675000255216826
 42
0.0
 10
27.39221301553675
 20
9.425000255216847
 42
0.4142135623730891
 10
26.86721301553677
 20
9.950000255216835
 42
0.0
 10
24.9422130155367
 20
9.950000255216835
 42
-0.4142135623730928
 10
23.54221301553673
 20
11.35000025521682
 42
0.0
 97
        0
 92
        7
 72
     1
 73
     1
 93
        2
 10
24.24221301553666
 20
15.20000025521683
 42
1.0
 10
27.74221301553666
 20
15.20000025521683
 42
1.0
 97
        0
 92
        7
 72
     1
 73
     1
 93
       26
 10
37.31485949771467
 20
19.20504744878026
 42
0.0
 10
38.37649913085249
 20
22.56690628704985
 42
0.5069206636600134
 10
37.87586823165713
 20
23.25000025521684
 42
0.0
 10
36.1769788520479
 20
23.25000025521684
 42
0.3272098845218764
 10
35.67634795285255
 20
22.8830942233838
 42
0.0
 10
33.80807807822077
 20
16.96690628704991
 42
-0.3272098845219541
 10
33.3074471790253
 20
16.60000025521683
 42
0.0
 10
33.16721301553684
 20
16.60000025521683
 42
-0.4142135623731526
 10
32.64221301553675
 20
17.12500025521682
 42
0.0
 10
32.64221301553675
 20
22.72500025521684
 42
0.4142135623730951
 10
32.11721301553677
 20
23.25000025521684
 42
0.0
 10
30.36721301553666
 20
23.25000025521684
 42
0.4142135623730871
 10
29.84221301553668
 20
22.72500025521685
 42
0.0
 10
29.84221301553668
 20
7.675000255216826
 42
0.4142135623730891
 10
30.36721301553666
 20
7.150000255216838
 42
0.0
 10
32.11721301553666
 20
7.150000255216838
 42
0.4142135623731526
 10
32.64221301553675
 20
7.675000255216826
 42
0.0
 10
32.64221301553675
 20
13.27500025521684
 42
-0.4142135623731526
 10
33.16721301553684
 20
13.80000025521683
 42
0.0
 10
33.30744717902542
 20
13.80000025521683
 42
-0.3272098845218915
 10
33.80807807822077
 20
13.43309422338376
 42
0.0
 10
35.67634795285255
 20
7.516906287049909
 42
0.3272098845218902
 10
36.1769788520479
 20
7.150000255216838
 42
0.0
 10
37.87586823165713
 20
7.150000255216838
 42
0.5069206636600335
 10
38.37649913085249
 20
7.833094223383845
 42
0.0
 10
36.05010775237883
 20
15.20000025521697
 42
0.0
 97
        0
 92
        7
 72
     1
 73
     1
 93
        8
 10
43.49221301553666
 20
22.72500025521684
 42
0.4142135623731546
 10
42.96721301553657
 20
23.25000025521684
 42
0.0
 10
41.21721301553679
 20
23.25000025521684
 42
0.4142135623731507
 10
40.6922130155367
 20
22.72500025521685
 42
0.0
 10
40.6922130155367
 20
7.675000255216826
 42
0.4142135623731526
 10
41.21721301553679
 20
7.150000255216838
 42
0.0
 10
42.96721301553657
 20
7.150000255216838
 42
0.4142135623731526
 10
43.49221301553666
 20
7.675000255216826
 42
0.0
 97
        0
 92
        7
 72
     1
 73
     1
 93
       24
 10
48.39221301553675
 20
19.92500025521684
 42
-0.4142135623731546
 10
48.91721301553684
 20
20.45000025521683
 42
0.0
 10
51.89221301553676
 20
20.45000025521683
 42
0.4142135623730911
 10
52.41721301553673
 20
20.97500025521682
 42
0.0
 10
52.41721301553673
 20
22.72500025521684
 42
0.4142135623730952
 10
51.89221301553676
 20
23.25000025521684
 42
0.0
 10
48.39221301553675
 20
23.25000025521684
 42
0.4142135623731048
 10
45.59221301553669
 20
20.45000025521686
 42
0.0
 10
45.59221301553669
 20
18.63479822986159
 42
0.1989123673796613
 10
46.82236453455323
 20
15.66494974887804
 42
0.0
 10
49.7321625091979
 20
12.75515177423337
 42
-0.1989123673796402
 10
50.14221301553675
 20
11.7652022805723
 42
0.0
 10
50.14221301553675
 20
10.47500025521682
 42
-0.4142135623730911
 10
49.61721301553677
 20
9.950000255216835
 42
0.0
 10
46.64221301553675
 20
9.950000255216835
 42
0.4142135623731526
 10
46.11721301553666
 20
9.425000255216847
 42
0.0
 10
46.11721301553666
 20
7.675000255216826
 42
0.4142135623730891
 10
46.64221301553664
 20
7.150000255216838
 42
0.0
 10
50.14221301553675
 20
7.150000255216838
 42
0.4142135623730925
 10
52.94221301553671
 20
9.950000255216814
 42
0.0
 10
52.94221301553671
 20
11.76520228057208
 42
0.1989123673796675
 10
51.71206149652016
 20
14.73505076155574
 42
0.0
 10
48.8022635218756
 20
17.64484873620025
 42
-0.1989123673796652
 10
48.39221301553675
 20
18.63479822986142
 42
0.0
 97
        0
 92
        7
 72
     1
 73
     1
 93
       16
 10
57.84221301553668
 20
22.72500025521682
 42
0.414213562373103
 10
57.31721301553671
 20
23.25000025521684
 42
0.0
 10
55.56721301553671
 20
23.25000025521684
 42
0.4142135623730871
 10
55.04221301553673
 20
22.72500025521685
 42
0.0
 10
55.04221301553673
 20
9.950000255216814
 42
0.4142135623730926
 10
57.84221301553668
 20
7.150000255216838
 42
0.0
 10
61.34221301553669
 20
7.150000255216838
 42
0.4142135623731044
 10
64.14221301553675
 20
9.950000255216814
 42
0.0
 10
64.14221301553675
 20
22.72500025521684
 42
0.4142135623730951
 10
63.61721301553678
 20
23.25000025521684
 42
0.0
 10
61.86721301553666
 20
23.25000025521684
 42
0.4142135623730871
 10
61.34221301553669
 20
22.72500025521685
 42
0.0
 10
61.34221301553669
 20
11.00000025521681
 42
-0.414213562373088
 10
60.29221301553673
 20
9.950000255216835
 42
0.0
 10
58.89221301553675
 20
9.950000255216835
 42
-0.4142135623731197
 10
57.84221301553668
 20
11.00000025521681
 42
0.0
 97
        0
 92
        7
 72
     1
 73
     1
 93
        8
 10
69.04221301553673
 20
22.72500025521685
 42
0.4142135623730871
 10
68.51721301553675
 20
23.25000025521684
 42
0.0
 10
66.76721301553675
 20
23.25000025521684
 42
0.4142135623731507
 10
66.24221301553666
 20
22.72500025521685
 42
0.0
 10
66.24221301553666
 20
7.675000255216826
 42
0.4142135623730891
 10
66.76721301553664
 20
7.150000255216838
 42
0.0
 10
68.51721301553675
 20
7.150000255216838
 42
0.4142135623730891
 10
69.04221301553673
 20
7.675000255216826
 42
0.0
 97
        0
 75
     0
 76
     1
 52
0.0
 41
0.2
 77
     0
 78
     2
 53
45.0
 43
-900.9423034739233
 44
-13.19999974478309
 45
-0.4490128060534576
 46
0.4490128060534577
 79
     0
 53
135.0
 43
-900.9423034739233
 44
-13.19999974478309
 45
-0.4490128060534577
 46
-0.4490128060534576
 79
     0
 47
0.057451373970553
 98
        8
 10
16.07985582377887
 20
15.16717390110238
 10
22.40451586719473
 20
18.84406243766784
 10
25.16436874641522
 20
15.51188190128755
 10
30.9140608423927
 20
16.20129790165833
 10
41.8384728797123
 20
16.66091016919995
 10
46.8982017558851
 20
19.41857657162404
 10
56.55768683315591
 20
18.72915817031184
 10
67.8270804803783
 20
19.18877043785346
  0
LINE
  5
6B53
330
1A
100
AcDbEntity
  8
ZUWAKU
100
AcDbLine
 10
24.9422130155367
 20
23.25000025521679
 30
0.0
 11
26.86721301553666
 21
23.25000025521684
 31
0.0
  0
LINE
  5
6B54
330
1A
100
AcDbEntity
  8
ZUWAKU
100
AcDbLine
 10
26.86721301553666
 20
20.45000025521683
 30
0.0
 11
24.9422130155367
 21
20.45000025521683
 31
0.0
  0
LINE
  5
6B55
330
1A
100
AcDbEntity
  8
ZUWAKU
100
AcDbLine
 10
24.9422130155367
 20
9.950000255216835
 30
0.0
 11
26.86721301553666
 21
9.950000255216835
 31
0.0
  0
LINE
  5
6B56
330
1A
100
AcDbEntity
  8
ZUWAKU
100
AcDbLine
 10
26.86721301553666
 20
7.150000255216838
 30
0.0
 11
24.9422130155367
 21
7.150000255216838
 31
0.0
  0
CIRCLE
  5
6B57
330
1A
100
AcDbEntity
  8
ZUWAKU
100
AcDbCircle
 10
25.99221301553666
 20
15.20000025521683
 30
0.0
 40
1.75
  0
ARC
  5
6B58
330
1A
100
AcDbEntity
  8
ZUWAKU
100
AcDbCircle
 10
15.49221301553666
 20
18.63479822986153
 30
0.0
 40
1.399999999999999
100
AcDbArc
 50
180.0000000000016
 51
224.9999999999988
  0
LINE
  5
6B59
330
1A
100
AcDbEntity
  8
ZUWAKU
100
AcDbLine
 10
23.54221301553673
 20
19.05000025521683
 30
0.0
 11
23.54221301553673
 21
11.35000025521684
 31
0.0
  0
LINE
  5
6B5A
330
1A
100
AcDbEntity
  8
ZUWAKU
100
AcDbLine
 10
20.74221301553666
 20
11.35000025521684
 30
0.0
 11
20.74221301553666
 21
19.05000025521679
 31
0.0
  0
ARC
  5
6B5B
330
1A
100
AcDbEntity
  8
ZUWAKU
100
AcDbCircle
 10
15.49221301553666
 20
18.63479822986153
 30
0.0
 40
4.199999999999999
100
AcDbArc
 50
180.0
 51
225.0
  0
ARC
  5
6B5C
330
1A
100
AcDbEntity
  8
ZUWAKU
100
AcDbCircle
 10
15.84221301553668
 20
9.950000255216835
 30
0.0
 40
2.799999999999999
100
AcDbArc
 50
270.0
 51
0.0
  0
ARC
  5
6B5D
330
1A
100
AcDbEntity
  8
ZUWAKU
100
AcDbCircle
 10
24.9422130155367
 20
11.35000025521684
 30
0.0
 40
4.199999999999999
100
AcDbArc
 50
180.0
 51
270.0
  0
ARC
  5
6B5E
330
1A
100
AcDbEntity
  8
ZUWAKU
100
AcDbCircle
 10
14.4422130155367
 20
11.76520228057214
 30
0.0
 40
4.199999999999999
100
AcDbArc
 50
0.0
 51
45.0
  0
LINE
  5
6B5F
330
1A
100
AcDbEntity
  8
ZUWAKU
100
AcDbLine
 10
17.41206149652021
 20
14.73505076155566
 30
0.0
 11
14.50226352187553
 21
17.64484873620033
 31
0.0
  0
LINE
  5
6B60
330
1A
100
AcDbEntity
  8
ZUWAKU
100
AcDbLine
 10
15.84221301553668
 20
10.47500025521684
 30
0.0
 11
15.84221301553668
 21
11.76520228057218
 31
0.0
  0
ARC
  5
6B61
330
1A
100
AcDbEntity
  8
ZUWAKU
100
AcDbCircle
 10
15.31721301553671
 20
10.47500025521684
 30
0.0
 40
0.525
100
AcDbArc
 50
270.0
 51
0.0
  0
ARC
  5
6B62
330
1A
100
AcDbEntity
  8
ZUWAKU
100
AcDbCircle
 10
14.4422130155367
 20
11.76520228057218
 30
0.0
 40
1.399999999999999
100
AcDbArc
 50
0.0
 51
45.0
  0
LINE
  5
6B63
330
1A
100
AcDbEntity
  8
ZUWAKU
100
AcDbLine
 10
11.8172130155367
 20
7.675000255216836
 30
0.0
 11
11.8172130155367
 21
9.425000255216836
 31
0.0
  0
ARC
  5
6B64
330
1A
100
AcDbEntity
  8
ZUWAKU
100
AcDbCircle
 10
12.34221301553668
 20
7.675000255216836
 30
0.0
 40
0.525
100
AcDbArc
 50
180.0
 51
270.0
  0
ARC
  5
6B65
330
1A
100
AcDbEntity
  8
ZUWAKU
100
AcDbCircle
 10
12.34221301553668
 20
9.425000255216836
 30
0.0
 40
0.525
100
AcDbArc
 50
90.0
 51
180.0
  0
LINE
  5
6B66
330
1A
100
AcDbEntity
  8
ZUWAKU
100
AcDbLine
 10
12.34221301553668
 20
7.150000255216838
 30
0.0
 11
15.84221301553668
 21
7.150000255216838
 31
0.0
  0
LINE
  5
6B67
330
1A
100
AcDbEntity
  8
ZUWAKU
100
AcDbLine
 10
12.34221301553668
 20
9.950000255216835
 30
0.0
 11
15.31721301553671
 21
9.950000255216835
 31
0.0
  0
LINE
  5
6B68
330
1A
100
AcDbEntity
  8
ZUWAKU
100
AcDbLine
 10
12.52236453455316
 20
15.66494974887801
 30
0.0
 11
15.43216250919783
 21
12.75515177423335
 31
0.0
  0
LINE
  5
6B69
330
1A
100
AcDbEntity
  8
ZUWAKU
100
AcDbLine
 10
18.64221301553675
 20
9.950000255216835
 30
0.0
 11
18.64221301553675
 21
11.76520228057218
 31
0.0
  0
ARC
  5
6B6A
330
1A
100
AcDbEntity
  8
ZUWAKU
100
AcDbCircle
 10
24.9422130155367
 20
11.35000025521684
 30
0.0
 40
1.399999999999999
100
AcDbArc
 50
180.0
 51
270.0
  0
ARC
  5
6B6B
330
1A
100
AcDbEntity
  8
ZUWAKU
100
AcDbCircle
 10
17.59221301553668
 20
22.72500025521683
 30
0.0
 40
0.525
100
AcDbArc
 50
0.0
 51
90.0
  0
ARC
  5
6B6C
330
1A
100
AcDbEntity
  8
ZUWAKU
100
AcDbCircle
 10
17.59221301553668
 20
20.97500025521683
 30
0.0
 40
0.525
100
AcDbArc
 50
270.0
 51
0.0
  0
LINE
  5
6B6D
330
1A
100
AcDbEntity
  8
ZUWAKU
100
AcDbLine
 10
14.09221301553668
 20
23.25000025521684
 30
0.0
 11
17.59221301553668
 21
23.25000025521684
 31
0.0
  0
ARC
  5
6B6E
330
1A
100
AcDbEntity
  8
ZUWAKU
100
AcDbCircle
 10
14.61721301553666
 20
19.92500025521683
 30
0.0
 40
0.525
100
AcDbArc
 50
90.0
 51
180.0
  0
LINE
  5
6B6F
330
1A
100
AcDbEntity
  8
ZUWAKU
100
AcDbLine
 10
14.09221301553668
 20
19.92500025521683
 30
0.0
 11
14.09221301553668
 21
18.63479822986149
 31
0.0
  0
LINE
  5
6B70
330
1A
100
AcDbEntity
  8
ZUWAKU
100
AcDbLine
 10
17.59221301553668
 20
20.45000025521683
 30
0.0
 11
14.61721301553666
 21
20.45000025521683
 31
0.0
  0
LINE
  5
6B71
330
1A
100
AcDbEntity
  8
ZUWAKU
100
AcDbLine
 10
11.29221301553673
 20
20.45000025521683
 30
0.0
 11
11.29221301553673
 21
18.63479822986149
 31
0.0
  0
ARC
  5
6B72
330
1A
100
AcDbEntity
  8
ZUWAKU
100
AcDbCircle
 10
14.09221301553668
 20
20.45000025521683
 30
0.0
 40
2.799999999999999
100
AcDbArc
 50
90.0
 51
180.0
  0
LINE
  5
6B73
330
1A
100
AcDbEntity
  8
ZUWAKU
100
AcDbLine
 10
18.11721301553666
 20
22.72500025521683
 30
0.0
 11
18.11721301553666
 21
20.97500025521683
 31
0.0
  0
ARC
  5
6B74
330
1A
100
AcDbEntity
  8
ZUWAKU
100
AcDbCircle
 10
24.9422130155367
 20
19.05000025521683
 30
0.0
 40
1.399999999999999
100
AcDbArc
 50
90.0
 51
180.0
  0
ARC
  5
6B75
330
1A
100
AcDbEntity
  8
ZUWAKU
100
AcDbCircle
 10
24.9422130155367
 20
19.05000025521679
 30
0.0
 40
4.199999999999999
100
AcDbArc
 50
90.0
 51
180.0
  0
LINE
  5
6B76
330
1A
100
AcDbEntity
  8
ZUWAKU
100
AcDbLine
 10
79.32663040874377
 20
30.00000025521683
 30
0.0
 11
79.32663040874399
 21
0.8000002552169007
 31
0.0
  0
LINE
  5
6B77
330
1A
100
AcDbEntity
  8
ZUWAKU
100
AcDbLine
 10
79.52663040874381
 20
30.00000025521683
 30
0.0
 11
79.52663040874404
 21
0.8000002552169007
 31
0.0
  0
LINE
  5
6B78
330
1A
100
AcDbEntity
  8
ZUWAKU
100
AcDbLine
 10
79.12663040874395
 20
30.00000025521683
 30
0.0
 11
79.12663040874395
 21
0.8000002552169007
 31
0.0
  0
LINE
  5
6B79
330
1A
100
AcDbEntity
  8
ZUWAKU
100
AcDbLine
 10
64.14221301553675
 20
9.950000255216835
 30
0.0
 11
64.14221301553675
 21
22.72500025521683
 31
0.0
  0
LINE
  5
6B7A
330
1A
100
AcDbEntity
  8
ZUWAKU
100
AcDbLine
 10
61.34221301553669
 20
22.72500025521683
 30
0.0
 11
61.34221301553669
 21
11.00000025521683
 31
0.0
  0
LINE
  5
6B7B
330
1A
100
AcDbEntity
  8
ZUWAKU
100
AcDbLine
 10
69.04221301553673
 20
7.675000255216836
 30
0.0
 11
69.04221301553673
 21
22.72500025521683
 31
0.0
  0
LINE
  5
6B7C
330
1A
100
AcDbEntity
  8
ZUWAKU
100
AcDbLine
 10
66.24221301553666
 20
22.72500025521683
 30
0.0
 11
66.24221301553666
 21
7.675000255216836
 31
0.0
  0
ARC
  5
6B7D
330
1A
100
AcDbEntity
  8
ZUWAKU
100
AcDbCircle
 10
49.79221301553673
 20
18.63479822986153
 30
0.0
 40
1.399999999999999
100
AcDbArc
 50
180.0000000000016
 51
224.9999999999988
  0
ARC
  5
6B7E
330
1A
100
AcDbEntity
  8
ZUWAKU
100
AcDbCircle
 10
49.79221301553673
 20
18.63479822986153
 30
0.0
 40
4.199999999999999
100
AcDbArc
 50
180.0
 51
225.0
  0
LINE
  5
6B7F
330
1A
100
AcDbEntity
  8
ZUWAKU
100
AcDbLine
 10
37.31485949771467
 20
19.20504744878026
 30
0.0
 11
36.05010775237883
 21
15.20000025521685
 31
0.0
  0
LINE
  5
6B80
330
1A
100
AcDbEntity
  8
ZUWAKU
100
AcDbLine
 10
40.6922130155367
 20
22.72500025521683
 30
0.0
 11
40.6922130155367
 21
7.675000255216836
 31
0.0
  0
LINE
  5
6B81
330
1A
100
AcDbEntity
  8
ZUWAKU
100
AcDbLine
 10
43.49221301553666
 20
7.675000255216836
 30
0.0
 11
43.49221301553666
 21
22.72500025521683
 31
0.0
  0
LINE
  5
6B82
330
1A
100
AcDbEntity
  8
ZUWAKU
100
AcDbLine
 10
55.04221301553673
 20
22.72500025521683
 30
0.0
 11
55.04221301553673
 21
9.950000255216835
 31
0.0
  0
LINE
  5
6B83
330
1A
100
AcDbEntity
  8
ZUWAKU
100
AcDbLine
 10
57.84221301553668
 20
11.00000025521683
 30
0.0
 11
57.84221301553668
 21
22.72500025521683
 31
0.0
  0
LINE
  5
6B84
330
1A
100
AcDbEntity
  8
ZUWAKU
100
AcDbLine
 10
32.64221301553675
 20
17.12500025521683
 30
0.0
 11
32.64221301553675
 21
22.72500025521683
 31
0.0
  0
LINE
  5
6B85
330
1A
100
AcDbEntity
  8
ZUWAKU
100
AcDbLine
 10
29.84221301553668
 20
22.72500025521683
 30
0.0
 11
29.84221301553668
 21
7.675000255216836
 31
0.0
  0
LINE
  5
6B86
330
1A
100
AcDbEntity
  8
ZUWAKU
100
AcDbLine
 10
35.67634795285255
 20
22.8830942233838
 30
0.0
 11
33.80807807822077
 21
16.96690628704986
 31
0.0
  0
LINE
  5
6B87
330
1A
100
AcDbEntity
  8
ZUWAKU
100
AcDbLine
 10
60.29221301553673
 20
9.950000255216835
 30
0.0
 11
58.89221301553675
 21
9.950000255216835
 31
0.0
  0
LINE
  5
6B88
330
1A
100
AcDbEntity
  8
ZUWAKU
100
AcDbLine
 10
57.84221301553668
 20
7.150000255216838
 30
0.0
 11
61.34221301553669
 21
7.150000255216838
 31
0.0
  0
LINE
  5
6B89
330
1A
100
AcDbEntity
  8
ZUWAKU
100
AcDbLine
 10
41.21721301553669
 20
7.150000255216838
 30
0.0
 11
42.96721301553668
 21
7.150000255216838
 31
0.0
  0
LINE
  5
6B8A
330
1A
100
AcDbEntity
  8
ZUWAKU
100
AcDbLine
 10
35.67634795285255
 20
7.516906287049863
 30
0.0
 11
33.80807807822077
 21
13.4330942233838
 31
0.0
  0
ARC
  5
6B8B
330
1A
100
AcDbEntity
  8
ZUWAKU
100
AcDbCircle
 10
33.30744717902542
 20
17.12500025521683
 30
0.0
 40
0.525
100
AcDbArc
 50
270.0
 51
342.4744316262769
  0
LINE
  5
6B8C
330
1A
100
AcDbEntity
  8
ZUWAKU
100
AcDbLine
 10
33.30744717902542
 20
16.60000025521683
 30
0.0
 11
33.16721301553673
 21
16.60000025521683
 31
0.0
  0
LINE
  5
6B8D
330
1A
100
AcDbEntity
  8
ZUWAKU
100
AcDbLine
 10
33.16721301553673
 20
13.80000025521683
 30
0.0
 11
33.30744717902542
 21
13.80000025521683
 31
0.0
  0
ARC
  5
6B8E
330
1A
100
AcDbEntity
  8
ZUWAKU
100
AcDbCircle
 10
33.16721301553673
 20
17.12500025521683
 30
0.0
 40
0.525
100
AcDbArc
 50
180.0
 51
270.0
  0
LINE
  5
6B8F
330
1A
100
AcDbEntity
  8
ZUWAKU
100
AcDbLine
 10
30.36721301553666
 20
7.150000255216838
 30
0.0
 11
32.11721301553666
 21
7.150000255216838
 31
0.0
  0
ARC
  5
6B90
330
1A
100
AcDbEntity
  8
ZUWAKU
100
AcDbCircle
 10
32.11721301553666
 20
7.675000255216836
 30
0.0
 40
0.525
100
AcDbArc
 50
270.0
 51
0.0
  0
LINE
  5
6B91
330
1A
100
AcDbEntity
  8
ZUWAKU
100
AcDbLine
 10
32.64221301553675
 20
7.675000255216836
 30
0.0
 11
32.64221301553675
 21
13.27500025521684
 31
0.0
  0
LINE
  5
6B92
330
1A
100
AcDbEntity
  8
ZUWAKU
100
AcDbLine
 10
27.39221301553675
 20
9.425000255216836
 30
0.0
 11
27.39221301553675
 21
7.675000255216836
 31
0.0
  0
ARC
  5
6B93
330
1A
100
AcDbEntity
  8
ZUWAKU
100
AcDbCircle
 10
26.86721301553666
 20
7.675000255216836
 30
0.0
 40
0.525
100
AcDbArc
 50
270.0
 51
0.0
  0
ARC
  5
6B94
330
1A
100
AcDbEntity
  8
ZUWAKU
100
AcDbCircle
 10
26.86721301553666
 20
9.425000255216836
 30
0.0
 40
0.525
100
AcDbArc
 50
0.0
 51
90.0
  0
ARC
  5
6B95
330
1A
100
AcDbEntity
  8
ZUWAKU
100
AcDbCircle
 10
30.36721301553666
 20
7.675000255216836
 30
0.0
 40
0.525
100
AcDbArc
 50
180.0
 51
270.0
  0
ARC
  5
6B96
330
1A
100
AcDbEntity
  8
ZUWAKU
100
AcDbCircle
 10
33.30744717902542
 20
13.27500025521684
 30
0.0
 40
0.525
100
AcDbArc
 50
17.52556837372303
 51
90.0
  0
ARC
  5
6B97
330
1A
100
AcDbEntity
  8
ZUWAKU
100
AcDbCircle
 10
33.16721301553673
 20
13.27500025521684
 30
0.0
 40
0.525
100
AcDbArc
 50
90.0
 51
180.0
  0
ARC
  5
6B98
330
1A
100
AcDbEntity
  8
ZUWAKU
100
AcDbCircle
 10
41.21721301553669
 20
7.675000255216836
 30
0.0
 40
0.525
100
AcDbArc
 50
180.0
 51
270.0
  0
LINE
  5
6B99
330
1A
100
AcDbEntity
  8
ZUWAKU
100
AcDbLine
 10
36.17697885204802
 20
7.150000255216838
 30
0.0
 11
37.87586823165702
 21
7.150000255216838
 31
0.0
  0
ARC
  5
6B9A
330
1A
100
AcDbEntity
  8
ZUWAKU
100
AcDbCircle
 10
37.87586823165702
 20
7.675000255216836
 30
0.0
 40
0.525
100
AcDbArc
 50
270.0
 51
17.52556837372303
  0
LINE
  5
6B9B
330
1A
100
AcDbEntity
  8
ZUWAKU
100
AcDbLine
 10
38.37649913085249
 20
7.83309422338381
 30
0.0
 11
36.05010775237883
 21
15.20000025521685
 31
0.0
  0
ARC
  5
6B9C
330
1A
100
AcDbEntity
  8
ZUWAKU
100
AcDbCircle
 10
36.17697885204802
 20
7.675000255216836
 30
0.0
 40
0.525
100
AcDbArc
 50
197.525568373723
 51
270.0
  0
ARC
  5
6B9D
330
1A
100
AcDbEntity
  8
ZUWAKU
100
AcDbCircle
 10
57.84221301553668
 20
9.950000255216835
 30
0.0
 40
2.799999999999999
100
AcDbArc
 50
180.0
 51
270.0
  0
ARC
  5
6B9E
330
1A
100
AcDbEntity
  8
ZUWAKU
100
AcDbCircle
 10
50.14221301553675
 20
9.950000255216835
 30
0.0
 40
2.799999999999999
100
AcDbArc
 50
270.0
 51
0.0
  0
LINE
  5
6B9F
330
1A
100
AcDbEntity
  8
ZUWAKU
100
AcDbLine
 10
51.71206149652028
 20
14.73505076155566
 30
0.0
 11
48.80226352187548
 21
17.64484873620033
 31
0.0
  0
LINE
  5
6BA0
330
1A
100
AcDbEntity
  8
ZUWAKU
100
AcDbLine
 10
50.14221301553675
 20
10.47500025521684
 30
0.0
 11
50.14221301553675
 21
11.76520228057218
 31
0.0
  0
ARC
  5
6BA1
330
1A
100
AcDbEntity
  8
ZUWAKU
100
AcDbCircle
 10
48.74221301553666
 20
11.76520228057218
 30
0.0
 40
1.399999999999999
100
AcDbArc
 50
0.0
 51
45.0
  0
ARC
  5
6BA2
330
1A
100
AcDbEntity
  8
ZUWAKU
100
AcDbCircle
 10
49.61721301553666
 20
10.47500025521684
 30
0.0
 40
0.525
100
AcDbArc
 50
270.0
 51
0.0
  0
LINE
  5
6BA3
330
1A
100
AcDbEntity
  8
ZUWAKU
100
AcDbLine
 10
46.11721301553666
 20
7.675000255216836
 30
0.0
 11
46.11721301553666
 21
9.425000255216836
 31
0.0
  0
ARC
  5
6BA4
330
1A
100
AcDbEntity
  8
ZUWAKU
100
AcDbCircle
 10
46.64221301553675
 20
7.675000255216836
 30
0.0
 40
0.525
100
AcDbArc
 50
180.0
 51
270.0
  0
ARC
  5
6BA5
330
1A
100
AcDbEntity
  8
ZUWAKU
100
AcDbCircle
 10
42.96721301553668
 20
7.675000255216836
 30
0.0
 40
0.525
100
AcDbArc
 50
270.0
 51
0.0
  0
ARC
  5
6BA6
330
1A
100
AcDbEntity
  8
ZUWAKU
100
AcDbCircle
 10
46.64221301553675
 20
9.425000255216836
 30
0.0
 40
0.525
100
AcDbArc
 50
90.0
 51
180.0
  0
LINE
  5
6BA7
330
1A
100
AcDbEntity
  8
ZUWAKU
100
AcDbLine
 10
46.64221301553675
 20
9.950000255216835
 30
0.0
 11
49.61721301553666
 21
9.950000255216835
 31
0.0
  0
LINE
  5
6BA8
330
1A
100
AcDbEntity
  8
ZUWAKU
100
AcDbLine
 10
46.64221301553675
 20
7.150000255216838
 30
0.0
 11
50.14221301553675
 21
7.150000255216838
 31
0.0
  0
LINE
  5
6BA9
330
1A
100
AcDbEntity
  8
ZUWAKU
100
AcDbLine
 10
46.82236453455323
 20
15.66494974887801
 30
0.0
 11
49.7321625091979
 21
12.75515177423335
 31
0.0
  0
LINE
  5
6BAA
330
1A
100
AcDbEntity
  8
ZUWAKU
100
AcDbLine
 10
52.94221301553671
 20
9.950000255216835
 30
0.0
 11
52.94221301553671
 21
11.76520228057218
 31
0.0
  0
ARC
  5
6BAB
330
1A
100
AcDbEntity
  8
ZUWAKU
100
AcDbCircle
 10
48.74221301553666
 20
11.76520228057214
 30
0.0
 40
4.199999999999999
100
AcDbArc
 50
0.0
 51
45.0
  0
ARC
  5
6BAC
330
1A
100
AcDbEntity
  8
ZUWAKU
100
AcDbCircle
 10
58.89221301553675
 20
11.00000025521683
 30
0.0
 40
1.049999999999999
100
AcDbArc
 50
180.0
 51
270.0
  0
ARC
  5
6BAD
330
1A
100
AcDbEntity
  8
ZUWAKU
100
AcDbCircle
 10
61.34221301553669
 20
9.950000255216835
 30
0.0
 40
2.799999999999999
100
AcDbArc
 50
270.0
 51
0.0
  0
LINE
  5
6BAE
330
1A
100
AcDbEntity
  8
ZUWAKU
100
AcDbLine
 10
66.76721301553675
 20
7.150000255216838
 30
0.0
 11
68.51721301553675
 21
7.150000255216838
 31
0.0
  0
ARC
  5
6BAF
330
1A
100
AcDbEntity
  8
ZUWAKU
100
AcDbCircle
 10
66.76721301553675
 20
7.675000255216836
 30
0.0
 40
0.525
100
AcDbArc
 50
180.0
 51
270.0
  0
ARC
  5
6BB0
330
1A
100
AcDbEntity
  8
ZUWAKU
100
AcDbCircle
 10
60.29221301553673
 20
11.00000025521683
 30
0.0
 40
1.049999999999999
100
AcDbArc
 50
270.0
 51
0.0
  0
ARC
  5
6BB1
330
1A
100
AcDbEntity
  8
ZUWAKU
100
AcDbCircle
 10
68.51721301553675
 20
7.675000255216836
 30
0.0
 40
0.525
100
AcDbArc
 50
270.0
 51
0.0
  0
LINE
  5
6BB2
330
1A
100
AcDbEntity
  8
ZUWAKU
100
AcDbLine
 10
42.96721301553668
 20
23.25000025521684
 30
0.0
 11
41.21721301553669
 21
23.25000025521684
 31
0.0
  0
ARC
  5
6BB3
330
1A
100
AcDbEntity
  8
ZUWAKU
100
AcDbCircle
 10
32.11721301553666
 20
22.72500025521683
 30
0.0
 40
0.525
100
AcDbArc
 50
0.0
 51
90.0
  0
LINE
  5
6BB4
330
1A
100
AcDbEntity
  8
ZUWAKU
100
AcDbLine
 10
32.11721301553666
 20
23.25000025521684
 30
0.0
 11
30.36721301553666
 21
23.25000025521684
 31
0.0
  0
ARC
  5
6BB5
330
1A
100
AcDbEntity
  8
ZUWAKU
100
AcDbCircle
 10
26.86721301553666
 20
22.72500025521683
 30
0.0
 40
0.525
100
AcDbArc
 50
0.0
 51
90.0
  0
ARC
  5
6BB6
330
1A
100
AcDbEntity
  8
ZUWAKU
100
AcDbCircle
 10
30.36721301553666
 20
22.72500025521683
 30
0.0
 40
0.525
100
AcDbArc
 50
90.0
 51
180.0
  0
ARC
  5
6BB7
330
1A
100
AcDbEntity
  8
ZUWAKU
100
AcDbCircle
 10
26.86721301553666
 20
20.97500025521683
 30
0.0
 40
0.525
100
AcDbArc
 50
270.0
 51
0.0
  0
LINE
  5
6BB8
330
1A
100
AcDbEntity
  8
ZUWAKU
100
AcDbLine
 10
27.39221301553675
 20
22.72500025521683
 30
0.0
 11
27.39221301553675
 21
20.97500025521683
 31
0.0
  0
ARC
  5
6BB9
330
1A
100
AcDbEntity
  8
ZUWAKU
100
AcDbCircle
 10
41.21721301553669
 20
22.72500025521683
 30
0.0
 40
0.525
100
AcDbArc
 50
90.0
 51
180.0
  0
LINE
  5
6BBA
330
1A
100
AcDbEntity
  8
ZUWAKU
100
AcDbLine
 10
36.17697885204802
 20
23.25000025521684
 30
0.0
 11
37.87586823165702
 21
23.25000025521684
 31
0.0
  0
ARC
  5
6BBB
330
1A
100
AcDbEntity
  8
ZUWAKU
100
AcDbCircle
 10
37.87586823165702
 20
22.72500025521683
 30
0.0
 40
0.525
100
AcDbArc
 50
342.4744316262769
 51
90.0
  0
LINE
  5
6BBC
330
1A
100
AcDbEntity
  8
ZUWAKU
100
AcDbLine
 10
38.37649913085249
 20
22.56690628704987
 30
0.0
 11
37.31485949771467
 21
19.20504744878026
 31
0.0
  0
ARC
  5
6BBD
330
1A
100
AcDbEntity
  8
ZUWAKU
100
AcDbCircle
 10
36.17697885204802
 20
22.72500025521683
 30
0.0
 40
0.525
100
AcDbArc
 50
90.0
 51
162.4744316262769
  0
LINE
  5
6BBE
330
1A
100
AcDbEntity
  8
ZUWAKU
100
AcDbLine
 10
48.39221301553675
 20
23.25000025521684
 30
0.0
 11
51.89221301553676
 21
23.25000025521684
 31
0.0
  0
LINE
  5
6BBF
330
1A
100
AcDbEntity
  8
ZUWAKU
100
AcDbLine
 10
51.89221301553676
 20
20.45000025521683
 30
0.0
 11
48.91721301553673
 21
20.45000025521683
 31
0.0
  0
ARC
  5
6BC0
330
1A
100
AcDbEntity
  8
ZUWAKU
100
AcDbCircle
 10
48.91721301553673
 20
19.92500025521683
 30
0.0
 40
0.525
100
AcDbArc
 50
90.0
 51
180.0
  0
LINE
  5
6BC1
330
1A
100
AcDbEntity
  8
ZUWAKU
100
AcDbLine
 10
48.39221301553675
 20
19.92500025521683
 30
0.0
 11
48.39221301553675
 21
18.63479822986149
 31
0.0
  0
ARC
  5
6BC2
330
1A
100
AcDbEntity
  8
ZUWAKU
100
AcDbCircle
 10
42.96721301553668
 20
22.72500025521683
 30
0.0
 40
0.525
100
AcDbArc
 50
0.0
 51
90.0
  0
LINE
  5
6BC3
330
1A
100
AcDbEntity
  8
ZUWAKU
100
AcDbLine
 10
45.59221301553669
 20
20.45000025521683
 30
0.0
 11
45.59221301553669
 21
18.63479822986149
 31
0.0
  0
ARC
  5
6BC4
330
1A
100
AcDbEntity
  8
ZUWAKU
100
AcDbCircle
 10
48.39221301553675
 20
20.45000025521683
 30
0.0
 40
2.799999999999999
100
AcDbArc
 50
90.0
 51
180.0
  0
ARC
  5
6BC5
330
1A
100
AcDbEntity
  8
ZUWAKU
100
AcDbCircle
 10
57.31721301553671
 20
22.72500025521683
 30
0.0
 40
0.525
100
AcDbArc
 50
0.0
 51
90.0
  0
ARC
  5
6BC6
330
1A
100
AcDbEntity
  8
ZUWAKU
100
AcDbCircle
 10
55.56721301553671
 20
22.72500025521683
 30
0.0
 40
0.525
100
AcDbArc
 50
90.0
 51
180.0
  0
LINE
  5
6BC7
330
1A
100
AcDbEntity
  8
ZUWAKU
100
AcDbLine
 10
57.31721301553671
 20
23.25000025521684
 30
0.0
 11
55.56721301553671
 21
23.25000025521684
 31
0.0
  0
ARC
  5
6BC8
330
1A
100
AcDbEntity
  8
ZUWAKU
100
AcDbCircle
 10
51.89221301553676
 20
22.72500025521683
 30
0.0
 40
0.525
100
AcDbArc
 50
0.0
 51
90.0
  0
ARC
  5
6BC9
330
1A
100
AcDbEntity
  8
ZUWAKU
100
AcDbCircle
 10
51.89221301553676
 20
20.97500025521683
 30
0.0
 40
0.525
100
AcDbArc
 50
270.0
 51
0.0
  0
LINE
  5
6BCA
330
1A
100
AcDbEntity
  8
ZUWAKU
100
AcDbLine
 10
52.41721301553673
 20
22.72500025521683
 30
0.0
 11
52.41721301553673
 21
20.97500025521683
 31
0.0
  0
LINE
  5
6BCB
330
1A
100
AcDbEntity
  8
ZUWAKU
100
AcDbLine
 10
68.51721301553675
 20
23.25000025521684
 30
0.0
 11
66.76721301553675
 21
23.25000025521684
 31
0.0
  0
ARC
  5
6BCC
330
1A
100
AcDbEntity
  8
ZUWAKU
100
AcDbCircle
 10
66.76721301553675
 20
22.72500025521683
 30
0.0
 40
0.525
100
AcDbArc
 50
90.0
 51
180.0
  0
ARC
  5
6BCD
330
1A
100
AcDbEntity
  8
ZUWAKU
100
AcDbCircle
 10
63.61721301553666
 20
22.72500025521683
 30
0.0
 40
0.525
100
AcDbArc
 50
0.0
 51
90.0
  0
LINE
  5
6BCE
330
1A
100
AcDbEntity
  8
ZUWAKU
100
AcDbLine
 10
63.61721301553666
 20
23.25000025521684
 30
0.0
 11
61.86721301553666
 21
23.25000025521684
 31
0.0
  0
ARC
  5
6BCF
330
1A
100
AcDbEntity
  8
ZUWAKU
100
AcDbCircle
 10
61.86721301553666
 20
22.72500025521683
 30
0.0
 40
0.525
100
AcDbArc
 50
90.0
 51
180.0
  0
ARC
  5
6BD0
330
1A
100
AcDbEntity
  8
ZUWAKU
100
AcDbCircle
 10
68.51721301553675
 20
22.72500025521683
 30
0.0
 40
0.525
100
AcDbArc
 50
0.0
 51
90.0
  0
TEXT
  5
6BD1
330
1A
100
AcDbEntity
  8
MOJI
100
AcDbText
 10
239.8272035416066
 20
3.204921312624254
 30
0.0
 40
5.599999999999999
  1
ＲＶ１０５－４－１０
 41
0.9
  7
ｽﾀｲﾙ1
100
AcDbText
  0
TEXT
  5
6BD2
330
1A
100
AcDbEntity
  8
MOJI
100
AcDbText
 10
239.8272035416066
 20
18.00492131262421
 30
0.0
 40
5.599999999999999
  1
ブラケット正面打（吊）固定式
 41
0.9
  7
ｽﾀｲﾙ1
100
AcDbText
  0
LINE
  5
6BD3
330
1A
100
AcDbEntity
  8
ZUWAKU
100
AcDbLine
 10
208.2466021508234
 20
30.00000025521683
 30
0.0
 11
208.2466021508234
 21
0.8000002552169007
 31
0.0
  0
LINE
  5
6BD4
330
1A
100
AcDbEntity
  8
ZUWAKU
100
AcDbLine
 10
208.6466021508233
 20
30.00000025521683
 30
0.0
 11
208.6466021508235
 21
0.8000002552169007
 31
0.0
  0
LINE
  5
6BD5
330
1A
100
AcDbEntity
  8
ZUWAKU
100
AcDbLine
 10
208.4466021508233
 20
30.00000025521683
 30
0.0
 11
208.4466021508235
 21
0.8000002552169007
 31
0.0
  0
TEXT
  5
6BD6
330
1A
100
AcDbEntity
  8
ZUWAKU
100
AcDbText
 10
209.7240471730331
 20
9.65535679360245
 30
0.0
 40
4.0
  1
サイズ
 41
0.9
  7
ｽﾀｲﾙ1
100
AcDbText
  0
TEXT
  5
6BD7
330
1A
100
AcDbEntity
  8
ZUWAKU
100
AcDbText
 10
209.7240471730328
 20
24.05535679360241
 30
0.0
 40
4.0
  1
品名
 41
0.9
  7
ｽﾀｲﾙ1
100
AcDbText
  0
LINE
  5
6BD8
330
1A
100
AcDbEntity
  8
ZUWAKU
100
AcDbLine
 10
648.8172033709597
 20
15.20000025521686
 30
0.0
 11
697.2490114092968
 21
15.20000025521686
 31
0.0
  0
LINE
  5
6BD9
330
1A
100
AcDbEntity
  8
ZUWAKU
100
AcDbLine
 10
648.81720337096
 20
15.40000025521687
 30
0.0
 11
697.2490114092968
 21
15.40000025521686
 31
0.0
  0
LINE
  5
6BDA
330
1A
100
AcDbEntity
  8
ZUWAKU
100
AcDbLine
 10
648.8172033709597
 20
15.60000025521686
 30
0.0
 11
697.2490114092968
 21
15.60000025521686
 31
0.0
  0
TEXT
  5
6BDB
330
1A
100
AcDbEntity
  8
ZUWAKU
100
AcDbText
 10
658.2039385480579
 20
18.00492131262421
 30
0.0
 40
5.599999999999999
  1
　　．　　．　　
 41
0.9
  7
ｽﾀｲﾙ1
100
AcDbText
  0
LINE
  5
6BDC
330
1A
100
AcDbEntity
  8
ZUWAKU
100
AcDbLine
 10
505.1991803588964
 20
15.20000025521687
 30
0.0
 11
552.526956626868
 21
15.20000025521687
 31
0.0
  0
LINE
  5
6BDD
330
1A
100
AcDbEntity
  8
ZUWAKU
100
AcDbLine
 10
505.1991803588964
 20
15.40000025521686
 30
0.0
 11
552.526956626868
 21
15.40000025521686
 31
0.0
  0
LINE
  5
6BDE
330
1A
100
AcDbEntity
  8
ZUWAKU
100
AcDbLine
 10
505.1991803588964
 20
15.60000025521686
 30
0.0
 11
552.526956626868
 21
15.60000025521686
 31
0.0
  0
TEXT
  5
6BDF
330
1A
100
AcDbEntity
  8
MOJI
100
AcDbText
 10
464.5946268639945
 20
11.94261797687681
 30
0.0
 40
5.599999999999999
  1
ＬＪ９６□
 41
0.9
  7
ｽﾀｲﾙ1
100
AcDbText
  0
LINE
  5
6BE0
330
1A
100
AcDbEntity
  8
ZUWAKU
100
AcDbLine
 10
447.6243648317468
 20
30.00000025521683
 30
0.0
 11
447.624364831747
 21
0.8000002552169007
 31
0.0
  0
LINE
  5
6BE1
330
1A
100
AcDbEntity
  8
ZUWAKU
100
AcDbLine
 10
447.8243648317468
 20
30.00000025521683
 30
0.0
 11
447.824364831747
 21
0.8000002552169007
 31
0.0
  0
LINE
  5
6BE2
330
1A
100
AcDbEntity
  8
ZUWAKU
100
AcDbLine
 10
447.4243648317469
 20
30.00000025521683
 30
0.0
 11
447.4243648317469
 21
0.8000002552169007
 31
0.0
  0
TEXT
  5
6BE3
330
1A
100
AcDbEntity
  8
MOJI
100
AcDbText
 10
528.0409088330684
 20
18.00492131262421
 30
0.0
 40
5.599999999999999
  1
Ａ３
 41
0.9
  7
ｽﾀｲﾙ1
100
AcDbText
  0
LINE
  5
6BE4
330
1A
100
AcDbEntity
  8
ZUWAKU
100
AcDbLine
 10
504.9991803588964
 20
30.00000025521683
 30
0.0
 11
504.9991803588966
 21
0.8000002552169007
 31
0.0
  0
LINE
  5
6BE5
330
1A
100
AcDbEntity
  8
ZUWAKU
100
AcDbLine
 10
505.1991803588964
 20
30.00000025521683
 30
0.0
 11
505.1991803588967
 21
0.8000002552169007
 31
0.0
  0
LINE
  5
6BE6
330
1A
100
AcDbEntity
  8
ZUWAKU
100
AcDbLine
 10
504.7991803588965
 20
30.00000025521683
 30
0.0
 11
504.7991803588965
 21
0.8000002552169007
 31
0.0
  0
TEXT
  5
6BE7
330
1A
100
AcDbEntity
  8
ZUWAKU
100
AcDbText
 10
462.6937625162627
 20
2.614071166356325
 30
0.0
 40
3.0
  1
□には色品番が入ります
 41
0.9
  7
ｽﾀｲﾙ1
100
AcDbText
  0
TEXT
  5
6BE8
330
1A
100
AcDbEntity
  8
ZUWAKU
100
AcDbText
 10
506.6766253811063
 20
9.65535679360245
 30
0.0
 40
4.0
  1
縮尺
 41
0.9
  7
ｽﾀｲﾙ1
100
AcDbText
  0
TEXT
  5
6BE9
330
1A
100
AcDbEntity
  8
MOJI
100
AcDbText
 10
528.0409088330684
 20
3.204921312624254
 30
0.0
 40
5.599999999999999
  1
１/２
 41
0.9
  7
ｽﾀｲﾙ1
100
AcDbText
  0
TEXT
  5
6BEA
330
1A
100
AcDbEntity
  8
ZUWAKU
100
AcDbText
 10
449.3018098539564
 20
24.05535679360241
 30
0.0
 40
4.0
  1
品番
 41
0.9
  7
ｽﾀｲﾙ1
100
AcDbText
  0
TEXT
  5
6BEB
330
1A
100
AcDbEntity
  8
ZUWAKU
100
AcDbText
 10
506.676625381106
 20
24.05535679360241
 30
0.0
 40
4.0
  1
用紙
 41
0.9
  7
ｽﾀｲﾙ1
100
AcDbText
  0
LINE
  5
6BEC
330
1A
100
AcDbEntity
  8
ZUWAKU
100
AcDbLine
 10
648.6172033709599
 20
30.00000025521683
 30
0.0
 11
648.6172033709602
 21
0.8000002552169007
 31
0.0
  0
LINE
  5
6BED
330
1A
100
AcDbEntity
  8
ZUWAKU
100
AcDbLine
 10
648.81720337096
 20
30.00000025521683
 30
0.0
 11
648.8172033709602
 21
0.8000002552169007
 31
0.0
  0
LINE
  5
6BEE
330
1A
100
AcDbEntity
  8
ZUWAKU
100
AcDbLine
 10
648.4172033709601
 20
30.00000025521683
 30
0.0
 11
648.4172033709601
 21
0.8000002552169007
 31
0.0
  0
LINE
  5
6BEF
330
1A
100
AcDbEntity
  8
ZUWAKU
100
AcDbLine
 10
552.7269566268678
 20
30.00000025521683
 30
0.0
 11
552.726956626868
 21
0.8000002552169007
 31
0.0
  0
LINE
  5
6BF0
330
1A
100
AcDbEntity
  8
ZUWAKU
100
AcDbLine
 10
552.9269566268679
 20
30.00000025521683
 30
0.0
 11
552.9269566268681
 21
0.8000002552169007
 31
0.0
  0
LINE
  5
6BF1
330
1A
100
AcDbEntity
  8
ZUWAKU
100
AcDbLine
 10
552.526956626868
 20
30.00000025521683
 30
0.0
 11
552.526956626868
 21
0.8000002552169007
 31
0.0
  0
TEXT
  5
6BF2
330
1A
100
AcDbEntity
  8
ZUWAKU
100
AcDbText
 10
650.2946483931696
 20
24.05535679360241
 30
0.0
 40
4.0
  1
DATE
 41
0.9
  7
ｽﾀｲﾙ1
100
AcDbText
  0
LINE
  5
6BF3
330
1A
100
AcDbEntity
  8
ZUWAKU
100
AcDbLine
 10
697.2490114092968
 20
30.00000025521683
 30
0.0
 11
697.2490114092968
 21
0.8000002552169007
 31
0.0
  0
LINE
  5
6BF4
330
1A
100
AcDbEntity
  8
ZUWAKU
100
AcDbLine
 10
697.4490114092969
 20
30.00000025521683
 30
0.0
 11
697.4490114092969
 21
0.8000002552169007
 31
0.0
  0
LINE
  5
6BF5
330
1A
100
AcDbEntity
  8
ZUWAKU
100
AcDbLine
 10
697.6490114092967
 20
30.00000025521683
 30
0.0
 11
697.6490114092968
 21
0.8000002552169007
 31
0.0
  0
LINE
  5
6BF6
330
1A
100
AcDbEntity
  8
ZUWAKU
100
AcDbLine
 10
697.8490114092967
 20
30.00000025521683
 30
0.0
 11
697.8490114092969
 21
0.8000002552169007
 31
0.0
  0
TEXT
  5
6BF7
330
1A
100
AcDbEntity
  8
ZUWAKU
100
AcDbText
 10
708.5280850529994
 20
17.55383959090363
 30
0.0
 40
6.0
  1
積水化学工業株式会社
 41
0.9
  7
ｽﾀｲﾙ1
100
AcDbText
  0
TEXT
  5
6BF8
330
1A
100
AcDbEntity
  8
ZUWAKU
100
AcDbText
 10
708.5280850529994
 20
6.648840569070898
 30
0.0
 40
6.0
  1
建材事業部
 41
0.9
  7
ｽﾀｲﾙ1
100
AcDbText
  0
VIEWPORT
  5
22
330
17
100
AcDbEntity
 67
     1
  8
0
100
AcDbViewport
 10
313.6808219178082
 20
148.5
 30
0.0
 40
627.3616438356165
 41
297.0
 68
     2
 69
     1
1001
ACAD
1000
MVIEW
1002
{
1070
    16
1010
0.0
1020
0.0
1030
0.0
1010
0.0
1020
0.0
1030
1.0
1040
0.0
1040
297.0
1040
313.6808219178082
1040
148.5
1040
50.0
1040
0.0
1040
0.0
1070
     0
1070
   100
1070
     1
1070
     0
1070
     0
1070
     0
1070
     0
1070
     0
1040
0.0
1040
0.0
1040
0.0
1040
1.0
1040
1.0
1040
10.0
1040
10.0
1070
     0
1002
{
1002
}
1002
}
  0
VIEWPORT
  5
64
330
17
100
AcDbEntity
 67
     1
  8
VIEWPORT
100
AcDbViewport
 10
210.0
 20
148.5
 30
0.0
 40
420.0
 41
297.0
 68
     1
 69
     2
1001
ACAD
1000
MVIEW
1002
{
1070
    16
1010
0.0
1020
0.0
1030
0.0
1010
0.0
1020
0.0
1030
1.0
1040
0.0
1040
605.8799999999998
1040
420.0
1040
297.0
1040
50.0
1040
0.0
1040
0.0
1070
     0
1070
   100
1070
     1
1070
     0
1070
     0
1070
     0
1070
     0
1070
     0
1040
0.0
1040
0.0
1040
0.0
1040
10.0
1040
10.0
1040
0.0
1040
0.0
1070
     0
1002
{
1002
}
1002
}
  0
ENDSEC
  0
SECTION
  2
OBJECTS
  0
DICTIONARY
  5
C
330
0
100
AcDbDictionary
  3
ACAD_GROUP
350
D
  3
ACAD_LAYOUT
350
911
  3
ACAD_MLINESTYLE
350
E
  3
ACAD_PLOTSETTINGS
350
912
  3
ACAD_PLOTSTYLENAME
350
90F
  3
ACDBHEADERROUNDTRIPXREC
350
6C72
  0
DICTIONARY
  5
94A
330
1A
100
AcDbDictionary
280
     1
  3
ACAD_LAYOUTSELFREF
360
6C94
  0
DICTIONARY
  5
948
330
17
100
AcDbDictionary
280
     1
  3
ACAD_LAYOUTSELFREF
360
6C93
  0
DICTIONARY
  5
D
102
{ACAD_REACTORS
330
C
102
}
330
C
100
AcDbDictionary
  0
DICTIONARY
  5
911
102
{ACAD_REACTORS
330
C
102
}
330
C
100
AcDbDictionary
  0
DICTIONARY
  5
E
102
{ACAD_REACTORS
330
C
102
}
330
C
100
AcDbDictionary
  3
STANDARD
350
13
  0
DICTIONARY
  5
912
102
{ACAD_REACTORS
330
C
102
}
330
C
100
AcDbDictionary
  0
ACDBDICTIONARYWDFLT
  5
90F
102
{ACAD_REACTORS
330
C
102
}
330
C
100
AcDbDictionary
281
     1
  3
Normal
350
910
100
AcDbDictionaryWithDefault
340
910
1001
ACAD
1000
TREAT_AS_HARD
1070
     0
1000
TREAT_AS_HARD
1070
     0
1000
TREAT_AS_HARD
1070
     0
1000
TREAT_AS_HARD
1070
     0
1000
TREAT_AS_HARD
1070
     0
1000
TREAT_AS_HARD
1070
     0
1000
TREAT_AS_HARD
1070
     0
1000
TREAT_AS_HARD
1070
     0
1000
TREAT_AS_HARD
1070
     0
1000
TREAT_AS_HARD
1070
     0
1000
TREAT_AS_HARD
1070
     0
1000
TREAT_AS_HARD
1070
     0
1000
TREAT_AS_HARD
1070
     0
1000
TREAT_AS_HARD
1070
     0
1000
TREAT_AS_HARD
1070
     0
  0
DICTIONARY
  5
6C72
102
{ACAD_REACTORS
330
C
102
}
330
C
100
AcDbDictionary
  3
TSTACKALIGN
350
6C73
  3
TSTACKSIZE
350
6C74
  3
HYPERLINKBASE
350
6C75
  3
STYLESHEET
350
6C76
  3
LAYOUTDICT
350
6C77
  3
PLOTSETDICT
350
6C78
  3
PLOTSTYLNAMDICT
350
6C79
  3
LWETCUNION
350
6C7A
  3
INSUNITS
350
6C7B
  3
CEPSNTYPE
350
6C7C
  3
FINGERPRINTGUID
350
6C7D
  3
VERSIONGUID
350
6C7E
  3
PSVPSCALE
350
6C7F
  3
DIMSTYLEDATA
350
6C80
  3
PUCSORTHOREF
350
6C81
  3
PUCSORTHOVIEW
350
6C82
  3
PUCSBASE
350
6C83
  3
PUCSORGTOP
350
6C84
  3
PUCSORGBOTTOM
350
6C85
  3
PUCSORGLEFT
350
6C86
  3
PUCSORGRIGHT
350
6C87
  3
PUCSORGFRONT
350
6C88
  3
PUCSORGBACK
350
6C89
  3
UCSORTHOREF
350
6C8A
  3
UCSORTHOVIEW
350
6C8B
  3
UCSBASE
350
6C8C
  3
UCSORGTOP
350
6C8D
  3
UCSORGBOTTOM
350
6C8E
  3
UCSORGLEFT
350
6C8F
  3
UCSORGRIGHT
350
6C90
  3
UCSORGFRONT
350
6C91
  3
UCSORGBACK
350
6C92
  0
XRECORD
  5
6C94
102
{ACAD_REACTORS
330
94A
102
}
330
94A
100
AcDbXrecord
340
1A
  0
XRECORD
  5
6C93
102
{ACAD_REACTORS
330
948
102
}
330
948
100
AcDbXrecord
340
17
  0
MLINESTYLE
  5
13
102
{ACAD_REACTORS
330
E
102
}
330
E
100
AcDbMlineStyle
  2
STANDARD
 70
     0
  3

 62
     0
 51
90.0
 52
90.0
 71
     2
 49
0.5
 62
   256
  6
BYLAYER
 49
-0.5
 62
   256
  6
BYLAYER
  0
ACDBPLACEHOLDER
  5
910
102
{ACAD_REACTORS
330
90F
102
}
330
90F
100
AcDbPlaceHolder
280
     0
  0
XRECORD
  5
6C73
102
{ACAD_REACTORS
330
6C72
102
}
330
6C72
100
AcDbXrecord
 90
        1
  0
XRECORD
  5
6C74
102
{ACAD_REACTORS
330
6C72
102
}
330
6C72
100
AcDbXrecord
 90
       70
  0
XRECORD
  5
6C75
102
{ACAD_REACTORS
330
6C72
102
}
330
6C72
100
AcDbXrecord
  1

  0
XRECORD
  5
6C76
102
{ACAD_REACTORS
330
6C72
102
}
330
6C72
100
AcDbXrecord
  1
systemprinter.ctb
  0
XRECORD
  5
6C77
102
{ACAD_REACTORS
330
6C72
102
}
330
6C72
100
AcDbXrecord
340
911
  0
XRECORD
  5
6C78
102
{ACAD_REACTORS
330
6C72
102
}
330
6C72
100
AcDbXrecord
340
912
  0
XRECORD
  5
6C79
102
{ACAD_REACTORS
330
6C72
102
}
330
6C72
100
AcDbXrecord
340
90F
  0
XRECORD
  5
6C7A
102
{ACAD_REACTORS
330
6C72
102
}
330
6C72
100
AcDbXrecord
 90
    10781
  0
XRECORD
  5
6C7B
102
{ACAD_REACTORS
330
6C72
102
}
330
6C72
100
AcDbXrecord
 90
        0
  0
XRECORD
  5
6C7C
102
{ACAD_REACTORS
330
6C72
102
}
330
6C72
100
AcDbXrecord
 90
        0
  0
XRECORD
  5
6C7D
102
{ACAD_REACTORS
330
6C72
102
}
330
6C72
100
AcDbXrecord
  1
{E41105DB-D30E-11D3-932C-444553540000}
  0
XRECORD
  5
6C7E
102
{ACAD_REACTORS
330
6C72
102
}
330
6C72
100
AcDbXrecord
  1
{845D9598-8C1A-4BCD-8BC5-365FA640B771}
  0
XRECORD
  5
6C7F
102
{ACAD_REACTORS
330
6C72
102
}
330
6C72
100
AcDbXrecord
 40
0.0
  0
XRECORD
  5
6C80
102
{ACAD_REACTORS
330
6C72
102
}
330
6C72
100
AcDbXrecord
1000
DSTYLE
1002
{
1070
   341
340
6D
1070
   343
340
6D
1070
   344
340
6D
1070
   371
 70
    -1
1070
   372
 70
    -1
1002
}
  0
XRECORD
  5
6C81
102
{ACAD_REACTORS
330
6C72
102
}
330
6C72
100
AcDbXrecord
340
0
  0
XRECORD
  5
6C82
102
{ACAD_REACTORS
330
6C72
102
}
330
6C72
100
AcDbXrecord
 70
     0
  0
XRECORD
  5
6C83
102
{ACAD_REACTORS
330
6C72
102
}
330
6C72
100
AcDbXrecord
340
0
  0
XRECORD
  5
6C84
102
{ACAD_REACTORS
330
6C72
102
}
330
6C72
100
AcDbXrecord
 10
0.0
 20
0.0
 30
0.0
  0
XRECORD
  5
6C85
102
{ACAD_REACTORS
330
6C72
102
}
330
6C72
100
AcDbXrecord
 10
0.0
 20
0.0
 30
0.0
  0
XRECORD
  5
6C86
102
{ACAD_REACTORS
330
6C72
102
}
330
6C72
100
AcDbXrecord
 10
0.0
 20
0.0
 30
0.0
  0
XRECORD
  5
6C87
102
{ACAD_REACTORS
330
6C72
102
}
330
6C72
100
AcDbXrecord
 10
0.0
 20
0.0
 30
0.0
  0
XRECORD
  5
6C88
102
{ACAD_REACTORS
330
6C72
102
}
330
6C72
100
AcDbXrecord
 10
0.0
 20
0.0
 30
0.0
  0
XRECORD
  5
6C89
102
{ACAD_REACTORS
330
6C72
102
}
330
6C72
100
AcDbXrecord
 10
0.0
 20
0.0
 30
0.0
  0
XRECORD
  5
6C8A
102
{ACAD_REACTORS
330
6C72
102
}
330
6C72
100
AcDbXrecord
340
0
  0
XRECORD
  5
6C8B
102
{ACAD_REACTORS
330
6C72
102
}
330
6C72
100
AcDbXrecord
 70
     0
  0
XRECORD
  5
6C8C
102
{ACAD_REACTORS
330
6C72
102
}
330
6C72
100
AcDbXrecord
340
0
  0
XRECORD
  5
6C8D
102
{ACAD_REACTORS
330
6C72
102
}
330
6C72
100
AcDbXrecord
 10
0.0
 20
0.0
 30
0.0
  0
XRECORD
  5
6C8E
102
{ACAD_REACTORS
330
6C72
102
}
330
6C72
100
AcDbXrecord
 10
0.0
 20
0.0
 30
0.0
  0
XRECORD
  5
6C8F
102
{ACAD_REACTORS
330
6C72
102
}
330
6C72
100
AcDbXrecord
 10
0.0
 20
0.0
 30
0.0
  0
XRECORD
  5
6C90
102
{ACAD_REACTORS
330
6C72
102
}
330
6C72
100
AcDbXrecord
 10
0.0
 20
0.0
 30
0.0
  0
XRECORD
  5
6C91
102
{ACAD_REACTORS
330
6C72
102
}
330
6C72
100
AcDbXrecord
 10
0.0
 20
0.0
 30
0.0
  0
XRECORD
  5
6C92
102
{ACAD_REACTORS
330
6C72
102
}
330
6C72
100
AcDbXrecord
 10
0.0
 20
0.0
 30
0.0
  0
ENDSEC
  0
EOF
