  0
SECTION
  2
HEADER
  9
$ACADVER
  1
AC1014
  9
$ACADMAINTVER
 70
     9
  9
$DWGCODEPAGE
  3
ANSI_932
  9
$INSBASE
 10
0.0
 20
0.0
 30
0.0
  9
$EXTMIN
 10
-0.0256328098773793
 20
-0.0181260584133725
 30
-0.0000000100021362
  9
$EXTMAX
 10
797.6000995626677
 20
551.6452344880035
 30
0.0000000100021363
  9
$LIMMIN
 10
0.0
 20
0.0
  9
$LIMMAX
 10
840.0
 20
594.0
  9
$ORTHOMODE
 70
     0
  9
$REGENMODE
 70
     1
  9
$FILLMODE
 70
     1
  9
$QTEXTMODE
 70
     0
  9
$MIRRTEXT
 70
     1
  9
$DRAGMODE
 70
     2
  9
$LTSCALE
 40
2.0
  9
$OSMODE
 70
    35
  9
$ATTMODE
 70
     1
  9
$TEXTSIZE
 40
6.0
  9
$TRACEWID
 40
1.0
  9
$TEXTSTYLE
  7
STANDARD
  9
$CLAYER
  8
SEIHIN
  9
$CELTYPE
  6
BYLAYER
  9
$CECOLOR
 62
   256
  9
$CELTSCALE
 40
5.0
  9
$DELOBJ
 70
     1
  9
$DISPSILH
 70
     0
  9
$DIMSCALE
 40
1.0
  9
$DIMASZ
 40
7.0
  9
$DIMEXO
 40
6.0
  9
$DIMDLI
 40
14.0
  9
$DIMRND
 40
0.0
  9
$DIMDLE
 40
0.0
  9
$DIMEXE
 40
3.0
  9
$DIMTP
 40
0.0
  9
$DIMTM
 40
0.0
  9
$DIMTXT
 40
6.0
  9
$DIMCEN
 40
150.0
  9
$DIMTSZ
 40
0.0
  9
$DIMTOL
 70
     0
  9
$DIMLIM
 70
     0
  9
$DIMTIH
 70
     0
  9
$DIMTOH
 70
     0
  9
$DIMSE1
 70
     0
  9
$DIMSE2
 70
     0
  9
$DIMTAD
 70
     3
  9
$DIMZIN
 70
     0
  9
$DIMBLK
  1

  9
$DIMASO
 70
     1
  9
$DIMSHO
 70
     1
  9
$DIMPOST
  1

  9
$DIMAPOST
  1

  9
$DIMALT
 70
     0
  9
$DIMALTD
 70
     2
  9
$DIMALTF
 40
25.4
  9
$DIMLFAC
 40
1.0
  9
$DIMTOFL
 70
     1
  9
$DIMTVP
 40
0.0
  9
$DIMTIX
 70
     0
  9
$DIMSOXD
 70
     0
  9
$DIMSAH
 70
     1
  9
$DIMBLK1
  1
OPEN
  9
$DIMBLK2
  1
OPEN
  9
$DIMSTYLE
  2
STANDARD
  9
$DIMCLRD
 70
   256
  9
$DIMCLRE
 70
   256
  9
$DIMCLRT
 70
   256
  9
$DIMTFAC
 40
1.0
  9
$DIMGAP
 40
2.0
  9
$DIMJUST
 70
     0
  9
$DIMSD1
 70
     0
  9
$DIMSD2
 70
     0
  9
$DIMTOLJ
 70
     1
  9
$DIMTZIN
 70
     0
  9
$DIMALTZ
 70
     0
  9
$DIMALTTZ
 70
     0
  9
$DIMFIT
 70
     3
  9
$DIMUPT
 70
     0
  9
$DIMUNIT
 70
     2
  9
$DIMDEC
 70
     0
  9
$DIMTDEC
 70
     0
  9
$DIMALTU
 70
     2
  9
$DIMALTTD
 70
     2
  9
$DIMTXSTY
  7
STANDARD
  9
$DIMAUNIT
 70
     0
  9
$LUNITS
 70
     2
  9
$LUPREC
 70
     4
  9
$SKETCHINC
 40
1.0
  9
$FILLETRAD
 40
1.0
  9
$AUNITS
 70
     0
  9
$AUPREC
 70
     0
  9
$MENU
  1
.
  9
$ELEVATION
 40
0.0
  9
$PELEVATION
 40
0.0
  9
$THICKNESS
 40
0.0
  9
$LIMCHECK
 70
     0
  9
$BLIPMODE
 70
     0
  9
$CHAMFERA
 40
1.0
  9
$CHAMFERB
 40
1.0
  9
$CHAMFERC
 40
40.0
  9
$CHAMFERD
 40
0.0
  9
$SKPOLY
 70
     0
  9
$TDCREATE
 40
2451199.484270833
  9
$TDUPDATE
 40
2453802.479304641
  9
$TDINDWG
 40
0.3659789352
  9
$TDUSRTIMER
 40
0.3659789352
  9
$USRTIMER
 70
     1
  9
$ANGBASE
 50
0.0
  9
$ANGDIR
 70
     0
  9
$PDMODE
 70
     0
  9
$PDSIZE
 40
0.0
  9
$PLINEWID
 40
0.0
  9
$COORDS
 70
     1
  9
$SPLFRAME
 70
     0
  9
$SPLINETYPE
 70
     6
  9
$SPLINESEGS
 70
     8
  9
$ATTDIA
 70
     0
  9
$ATTREQ
 70
     1
  9
$HANDLING
 70
 10241
  9
$HANDSEED
  5
765A
  9
$SURFTAB1
 70
     6
  9
$SURFTAB2
 70
     6
  9
$SURFTYPE
 70
     6
  9
$SURFU
 70
     6
  9
$SURFV
 70
     6
  9
$UCSNAME
  2

  9
$UCSORG
 10
0.0
 20
0.0
 30
0.0
  9
$UCSXDIR
 10
1.0
 20
0.0
 30
0.0
  9
$UCSYDIR
 10
0.0
 20
1.0
 30
0.0
  9
$PUCSNAME
  2

  9
$PUCSORG
 10
0.0
 20
0.0
 30
0.0
  9
$PUCSXDIR
 10
1.0
 20
0.0
 30
0.0
  9
$PUCSYDIR
 10
0.0
 20
1.0
 30
0.0
  9
$USERI1
 70
     0
  9
$USERI2
 70
     0
  9
$USERI3
 70
     0
  9
$USERI4
 70
     0
  9
$USERI5
 70
     0
  9
$USERR1
 40
0.0
  9
$USERR2
 40
0.0
  9
$USERR3
 40
0.0
  9
$USERR4
 40
0.0
  9
$USERR5
 40
0.0
  9
$WORLDVIEW
 70
     1
  9
$SHADEDGE
 70
     3
  9
$SHADEDIF
 70
    70
  9
$TILEMODE
 70
     1
  9
$MAXACTVP
 70
    16
  9
$PINSBASE
 10
0.0
 20
0.0
 30
0.0
  9
$PLIMCHECK
 70
     0
  9
$PEXTMIN
 10
0.0
 20
0.0
 30
0.0
  9
$PEXTMAX
 10
420.0
 20
297.0
 30
0.0
  9
$PLIMMIN
 10
0.0
 20
0.0
  9
$PLIMMAX
 10
420.0
 20
297.0
  9
$UNITMODE
 70
     0
  9
$VISRETAIN
 70
     0
  9
$PLINEGEN
 70
     0
  9
$PSLTSCALE
 70
     1
  9
$TREEDEPTH
 70
  3020
  9
$PICKSTYLE
 70
     1
  9
$CMLSTYLE
  2
STANDARD
  9
$CMLJUST
 70
     0
  9
$CMLSCALE
 40
1.0
  9
$PROXYGRAPHICS
 70
     1
  9
$MEASUREMENT
 70
     1
  0
ENDSEC
  0
SECTION
  2
CLASSES
  0
CLASS
  1
ACDBDICTIONARYWDFLT
  2
AcDbDictionaryWithDefault
  3
AutoCAD 2000
 90
        0
280
     0
281
     0
  0
CLASS
  1
ACDBPLACEHOLDER
  2
AcDbPlaceHolder
  3
AutoCAD 2000
 90
        0
280
     0
281
     0
  0
CLASS
  1
LAYOUT
  2
AcDbLayout
  3
AutoCAD 2000
 90
        0
280
     0
281
     0
  0
CLASS
  1
LONG_TRANSACTION
  2
AcDbLongTransaction
  3
AutoCAD 2000
 90
        0
280
     0
281
     0
  0
CLASS
  1
LWPOLYLINE
  2
AcDbPolyline
  3
AutoCAD 2000
 90
        0
280
     0
281
     1
  0
CLASS
  1
HATCH
  2
AcDbHatch
  3
AutoCAD 2000
 90
        0
280
     0
281
     1
  0
CLASS
  1
XRECORD
  2
AcDbXrecord
  3
AutoCAD 2000
 90
        0
280
     0
281
     0
  0
CLASS
  1
LONG_TRANSACTION
  2
AcDbLongTransaction
  3
AutoCAD 2000
 90
        0
280
     0
281
     0
  0
CLASS
  1
LWPOLYLINE
  2
AcDbPolyline
  3
AutoCAD 2000
 90
        0
280
     0
281
     1
  0
CLASS
  1
HATCH
  2
AcDbHatch
  3
AutoCAD 2000
 90
        0
280
     0
281
     1
  0
CLASS
  1
XRECORD
  2
AcDbXrecord
  3
AutoCAD 2000
 90
        0
280
     0
281
     0
  0
CLASS
  1
LONG_TRANSACTION
  2
AcDbLongTransaction
  3
AutoCAD 2000
 90
        0
280
     0
281
     0
  0
CLASS
  1
LWPOLYLINE
  2
AcDbPolyline
  3
AutoCAD 2000
 90
        0
280
     0
281
     1
  0
CLASS
  1
HATCH
  2
AcDbHatch
  3
AutoCAD 2000
 90
        0
280
     0
281
     1
  0
CLASS
  1
XRECORD
  2
AcDbXrecord
  3
AutoCAD 2000
 90
        0
280
     0
281
     0
  0
CLASS
  1
LONG_TRANSACTION
  2
AcDbLongTransaction
  3
AutoCAD 2000
 90
        0
280
     0
281
     0
  0
CLASS
  1
LWPOLYLINE
  2
AcDbPolyline
  3
AutoCAD 2000
 90
        0
280
     0
281
     1
  0
CLASS
  1
HATCH
  2
AcDbHatch
  3
AutoCAD 2000
 90
        0
280
     0
281
     1
  0
CLASS
  1
XRECORD
  2
AcDbXrecord
  3
AutoCAD 2000
 90
        0
280
     0
281
     0
  0
CLASS
  1
LONG_TRANSACTION
  2
AcDbLongTransaction
  3
AutoCAD 2000
 90
        0
280
     0
281
     0
  0
CLASS
  1
LWPOLYLINE
  2
AcDbPolyline
  3
AutoCAD 2000
 90
        0
280
     0
281
     1
  0
CLASS
  1
HATCH
  2
AcDbHatch
  3
AutoCAD 2000
 90
        0
280
     0
281
     1
  0
CLASS
  1
XRECORD
  2
AcDbXrecord
  3
AutoCAD 2000
 90
        0
280
     0
281
     0
  0
CLASS
  1
LONG_TRANSACTION
  2
AcDbLongTransaction
  3
AutoCAD 2000
 90
        0
280
     0
281
     0
  0
CLASS
  1
LWPOLYLINE
  2
AcDbPolyline
  3
AutoCAD 2000
 90
        0
280
     0
281
     1
  0
CLASS
  1
HATCH
  2
AcDbHatch
  3
AutoCAD 2000
 90
        0
280
     0
281
     1
  0
CLASS
  1
XRECORD
  2
AcDbXrecord
  3
AutoCAD 2000
 90
        0
280
     0
281
     0
  0
CLASS
  1
LONG_TRANSACTION
  2
AcDbLongTransaction
  3
AutoCAD 2000
 90
        0
280
     0
281
     0
  0
CLASS
  1
LWPOLYLINE
  2
AcDbPolyline
  3
AutoCAD 2000
 90
        0
280
     0
281
     1
  0
CLASS
  1
HATCH
  2
AcDbHatch
  3
AutoCAD 2000
 90
        0
280
     0
281
     1
  0
CLASS
  1
XRECORD
  2
AcDbXrecord
  3
AutoCAD 2000
 90
        0
280
     0
281
     0
  0
CLASS
  1
LONG_TRANSACTION
  2
AcDbLongTransaction
  3
AutoCAD 2000
 90
        0
280
     0
281
     0
  0
CLASS
  1
LWPOLYLINE
  2
AcDbPolyline
  3
AutoCAD 2000
 90
        0
280
     0
281
     1
  0
CLASS
  1
HATCH
  2
AcDbHatch
  3
AutoCAD 2000
 90
        0
280
     0
281
     1
  0
CLASS
  1
XRECORD
  2
AcDbXrecord
  3
AutoCAD 2000
 90
        0
280
     0
281
     0
  0
CLASS
  1
LONG_TRANSACTION
  2
AcDbLongTransaction
  3
AutoCAD 2000
 90
        0
280
     0
281
     0
  0
CLASS
  1
LWPOLYLINE
  2
AcDbPolyline
  3
AutoCAD 2000
 90
        0
280
     0
281
     1
  0
CLASS
  1
HATCH
  2
AcDbHatch
  3
AutoCAD 2000
 90
        0
280
     0
281
     1
  0
CLASS
  1
XRECORD
  2
AcDbXrecord
  3
AutoCAD 2000
 90
        0
280
     0
281
     0
  0
CLASS
  1
LONG_TRANSACTION
  2
AcDbLongTransaction
  3
AutoCAD 2000
 90
        0
280
     0
281
     0
  0
CLASS
  1
LWPOLYLINE
  2
AcDbPolyline
  3
AutoCAD 2000
 90
        0
280
     0
281
     1
  0
CLASS
  1
HATCH
  2
AcDbHatch
  3
AutoCAD 2000
 90
        0
280
     0
281
     1
  0
CLASS
  1
XRECORD
  2
AcDbXrecord
  3
AutoCAD 2000
 90
        0
280
     0
281
     0
  0
CLASS
  1
LONG_TRANSACTION
  2
AcDbLongTransaction
  3
AutoCAD 2000
 90
        0
280
     0
281
     0
  0
CLASS
  1
LWPOLYLINE
  2
AcDbPolyline
  3
AutoCAD 2000
 90
        0
280
     0
281
     1
  0
CLASS
  1
HATCH
  2
AcDbHatch
  3
AutoCAD 2000
 90
        0
280
     0
281
     1
  0
CLASS
  1
XRECORD
  2
AcDbXrecord
  3
AutoCAD 2000
 90
        0
280
     0
281
     0
  0
CLASS
  1
LONG_TRANSACTION
  2
AcDbLongTransaction
  3
AutoCAD 2000
 90
        0
280
     0
281
     0
  0
CLASS
  1
LWPOLYLINE
  2
AcDbPolyline
  3
AutoCAD 2000
 90
        0
280
     0
281
     1
  0
CLASS
  1
HATCH
  2
AcDbHatch
  3
AutoCAD 2000
 90
        0
280
     0
281
     1
  0
CLASS
  1
XRECORD
  2
AcDbXrecord
  3
AutoCAD 2000
 90
        0
280
     0
281
     0
  0
CLASS
  1
LONG_TRANSACTION
  2
AcDbLongTransaction
  3
AutoCAD 2000
 90
        0
280
     0
281
     0
  0
CLASS
  1
LWPOLYLINE
  2
AcDbPolyline
  3
AutoCAD 2000
 90
        0
280
     0
281
     1
  0
CLASS
  1
HATCH
  2
AcDbHatch
  3
AutoCAD 2000
 90
        0
280
     0
281
     1
  0
CLASS
  1
XRECORD
  2
AcDbXrecord
  3
AutoCAD 2000
 90
        0
280
     0
281
     0
  0
CLASS
  1
LONG_TRANSACTION
  2
AcDbLongTransaction
  3
AutoCAD 2000
 90
        0
280
     0
281
     0
  0
CLASS
  1
LWPOLYLINE
  2
AcDbPolyline
  3
AutoCAD 2000
 90
        0
280
     0
281
     1
  0
CLASS
  1
HATCH
  2
AcDbHatch
  3
AutoCAD 2000
 90
        0
280
     0
281
     1
  0
CLASS
  1
XRECORD
  2
AcDbXrecord
  3
AutoCAD 2000
 90
        0
280
     0
281
     0
  0
CLASS
  1
LONG_TRANSACTION
  2
AcDbLongTransaction
  3
AutoCAD 2000
 90
        0
280
     0
281
     0
  0
CLASS
  1
LWPOLYLINE
  2
AcDbPolyline
  3
AutoCAD 2000
 90
        0
280
     0
281
     1
  0
CLASS
  1
HATCH
  2
AcDbHatch
  3
AutoCAD 2000
 90
        0
280
     0
281
     1
  0
CLASS
  1
XRECORD
  2
AcDbXrecord
  3
AutoCAD 2000
 90
        0
280
     0
281
     0
  0
CLASS
  1
LONG_TRANSACTION
  2
AcDbLongTransaction
  3
AutoCAD 2000
 90
        0
280
     0
281
     0
  0
CLASS
  1
LWPOLYLINE
  2
AcDbPolyline
  3
AutoCAD 2000
 90
        0
280
     0
281
     1
  0
CLASS
  1
HATCH
  2
AcDbHatch
  3
AutoCAD 2000
 90
        0
280
     0
281
     1
  0
CLASS
  1
XRECORD
  2
AcDbXrecord
  3
AutoCAD 2000
 90
        0
280
     0
281
     0
  0
CLASS
  1
LONG_TRANSACTION
  2
AcDbLongTransaction
  3
AutoCAD 2000
 90
        0
280
     0
281
     0
  0
CLASS
  1
LWPOLYLINE
  2
AcDbPolyline
  3
AutoCAD 2000
 90
        0
280
     0
281
     1
  0
CLASS
  1
HATCH
  2
AcDbHatch
  3
AutoCAD 2000
 90
        0
280
     0
281
     1
  0
CLASS
  1
XRECORD
  2
AcDbXrecord
  3
AutoCAD 2000
 90
        0
280
     0
281
     0
  0
ENDSEC
  0
SECTION
  2
TABLES
  0
TABLE
  2
VPORT
  5
8
330
0
100
AcDbSymbolTable
 70
     2
  0
VPORT
  5
7636
330
8
100
AcDbSymbolTableRecord
100
AcDbViewportTableRecord
  2
*ACTIVE
 70
     0
 10
0.0
 20
0.0
 11
1.0
 21
1.0
 12
424.2727109859247
 22
302.8887248249377
 13
0.0
 23
0.0
 14
5.0
 24
5.0
 15
0.0
 25
0.0
 16
0.0
 26
0.0
 36
1.0
 17
0.0
 27
0.0
 37
0.0
 40
660.113083960272
 41
1.795454545454545
 42
50.0
 43
0.0
 44
0.0
 50
0.0
 51
0.0
 71
     0
 72
   100
 73
     1
 74
     0
 75
     0
 76
     0
 77
     0
 78
     0
  0
ENDTAB
  0
TABLE
  2
LTYPE
  5
5
330
0
100
AcDbSymbolTable
 70
     3
  0
LTYPE
  5
14
330
5
100
AcDbSymbolTableRecord
100
AcDbLinetypeTableRecord
  2
BYBLOCK
 70
     0
  3

 72
    65
 73
     0
 40
0.0
  0
LTYPE
  5
15
330
5
100
AcDbSymbolTableRecord
100
AcDbLinetypeTableRecord
  2
BYLAYER
 70
     0
  3

 72
    65
 73
     0
 40
0.0
  0
LTYPE
  5
16
330
5
100
AcDbSymbolTableRecord
100
AcDbLinetypeTableRecord
  2
CONTINUOUS
 70
     0
  3
Solid line
 72
    65
 73
     0
 40
0.0
  0
LTYPE
  5
115
330
5
100
AcDbSymbolTableRecord
100
AcDbLinetypeTableRecord
  2
PHANTOM
 70
     0
  3
______  __  __  ______  __  __  ______  __  __ 
 72
    65
 73
     6
 40
2.5
 49
1.25
 74
     0
 49
-0.25
 74
     0
 49
0.25
 74
     0
 49
-0.25
 74
     0
 49
0.25
 74
     0
 49
-0.25
 74
     0
  0
LTYPE
  5
135
330
5
100
AcDbSymbolTableRecord
100
AcDbLinetypeTableRecord
  2
CENTER
 70
     0
  3
____ _ ____ _ ____ _ ____ _ ____ _ ____ _ ____ 
 72
    65
 73
     4
 40
2.0
 49
1.25
 74
     0
 49
-0.25
 74
     0
 49
0.25
 74
     0
 49
-0.25
 74
     0
  0
ENDTAB
  0
TABLE
  2
LAYER
  5
2
330
0
100
AcDbSymbolTable
 70
     9
  0
LAYER
  5
F
330
2
100
AcDbSymbolTableRecord
100
AcDbLayerTableRecord
  2
0
 70
     0
 62
     7
  6
CONTINUOUS
  0
LAYER
  5
62
330
2
100
AcDbSymbolTableRecord
100
AcDbLayerTableRecord
  2
VIEWPORT
 70
     0
 62
     7
  6
CONTINUOUS
  0
LAYER
  5
65
330
2
100
AcDbSymbolTableRecord
100
AcDbLayerTableRecord
  2
ZUWAKU
 70
     0
 62
     7
  6
CONTINUOUS
  0
LAYER
  5
143
330
2
100
AcDbSymbolTableRecord
100
AcDbLayerTableRecord
  2
SEIHIN
 70
     0
 62
     3
  6
CONTINUOUS
  0
LAYER
  5
144
330
2
100
AcDbSymbolTableRecord
100
AcDbLayerTableRecord
  2
SUNPOU
 70
     0
 62
     4
  6
CONTINUOUS
  0
LAYER
  5
145
330
2
100
AcDbSymbolTableRecord
100
AcDbLayerTableRecord
  2
CENTER_L
 70
     0
 62
     1
  6
CENTER
  0
LAYER
  5
146
330
2
100
AcDbSymbolTableRecord
100
AcDbLayerTableRecord
  2
NOKITOI
 70
     0
 62
     8
  6
PHANTOM
  0
LAYER
  5
532
330
2
100
AcDbSymbolTableRecord
100
AcDbLayerTableRecord
  2
DEFPOINTS
 70
     0
 62
     7
  6
CONTINUOUS
  0
LAYER
  5
7442
330
2
100
AcDbSymbolTableRecord
100
AcDbLayerTableRecord
  2
MOJI
 70
     0
 62
     2
  6
CONTINUOUS
  0
ENDTAB
  0
TABLE
  2
STYLE
  5
3
330
0
100
AcDbSymbolTable
 70
     2
  0
STYLE
  5
10
330
3
100
AcDbSymbolTableRecord
100
AcDbTextStyleTableRecord
  2
STANDARD
 70
     0
 40
0.0
 41
1.0
 50
0.0
 71
     0
 42
6.0
  3
TXT
  4
bigfont.shx
  0
STYLE
  5
7443
330
3
100
AcDbSymbolTableRecord
100
AcDbTextStyleTableRecord
  2
ｽﾀｲﾙ1
 70
     0
 40
0.0
 41
1.0
 50
0.0
 71
     0
 42
2.5
  3
MS PGothic.ttf
  4

1001
ACAD
1000
MS PGothic
1071
    32818
  0
ENDTAB
  0
TABLE
  2
VIEW
  5
6
330
0
100
AcDbSymbolTable
 70
     0
  0
ENDTAB
  0
TABLE
  2
UCS
  5
7
330
0
100
AcDbSymbolTable
 70
     0
  0
ENDTAB
  0
TABLE
  2
APPID
  5
9
330
0
100
AcDbSymbolTable
 70
     1
  0
APPID
  5
11
330
9
100
AcDbSymbolTableRecord
100
AcDbRegAppTableRecord
  2
ACAD
 70
     0
  0
ENDTAB
  0
TABLE
  2
DIMSTYLE
  5
A
330
0
100
AcDbSymbolTable
 70
     1
  0
DIMSTYLE
105
1D
102
{ACAD_REACTORS
330
70E1
330
70EE
330
70FB
330
710A
330
7117
330
7124
330
7131
330
71F6
330
7203
330
7212
330
7221
330
722E
330
723B
102
}
330
A
100
AcDbSymbolTableRecord
100
AcDbDimStyleTableRecord
  2
STANDARD
 70
     0
  3

  4

  5

  6

  7

 40
1.0
 41
0.18
 42
0.0625
 43
0.38
 44
0.18
 45
0.0
 46
0.0
 47
0.0
 48
0.0
140
0.18
141
0.09
142
0.0
143
25.4
144
1.0
145
0.0
146
1.0
147
0.09
 71
     0
 72
     0
 73
     1
 74
     1
 75
     0
 76
     0
 77
     0
 78
     0
170
     0
171
     2
172
     0
173
     0
174
     0
175
     0
176
     0
177
     0
178
     0
270
     2
271
     4
272
     4
273
     2
274
     2
340
10
275
     0
280
     0
281
     0
282
     0
283
     1
284
     0
285
     0
286
     0
287
     3
288
     0
  0
ENDTAB
  0
TABLE
  2
BLOCK_RECORD
  5
1
330
0
100
AcDbSymbolTable
 70
    14
  0
BLOCK_RECORD
  5
1A
102
{ACAD_XDICTIONARY
360
94A
102
}
330
1
100
AcDbSymbolTableRecord
100
AcDbBlockTableRecord
  2
*MODEL_SPACE
  0
BLOCK_RECORD
  5
17
102
{ACAD_XDICTIONARY
360
948
102
}
330
1
100
AcDbSymbolTableRecord
100
AcDbBlockTableRecord
  2
*PAPER_SPACE
  0
BLOCK_RECORD
  5
6D
330
1
100
AcDbSymbolTableRecord
100
AcDbBlockTableRecord
  2
_OPEN
  0
BLOCK_RECORD
  5
70E2
330
1
100
AcDbSymbolTableRecord
100
AcDbBlockTableRecord
  2
*D1
  0
BLOCK_RECORD
  5
70EF
330
1
100
AcDbSymbolTableRecord
100
AcDbBlockTableRecord
  2
*D2
  0
BLOCK_RECORD
  5
70FC
330
1
100
AcDbSymbolTableRecord
100
AcDbBlockTableRecord
  2
*D3
  0
BLOCK_RECORD
  5
710B
330
1
100
AcDbSymbolTableRecord
100
AcDbBlockTableRecord
  2
*D4
  0
BLOCK_RECORD
  5
7118
330
1
100
AcDbSymbolTableRecord
100
AcDbBlockTableRecord
  2
*D5
  0
BLOCK_RECORD
  5
7125
330
1
100
AcDbSymbolTableRecord
100
AcDbBlockTableRecord
  2
*D6
  0
BLOCK_RECORD
  5
7132
330
1
100
AcDbSymbolTableRecord
100
AcDbBlockTableRecord
  2
*D7
  0
BLOCK_RECORD
  5
71F7
330
1
100
AcDbSymbolTableRecord
100
AcDbBlockTableRecord
  2
*D8
  0
BLOCK_RECORD
  5
7204
330
1
100
AcDbSymbolTableRecord
100
AcDbBlockTableRecord
  2
*D9
  0
BLOCK_RECORD
  5
7213
330
1
100
AcDbSymbolTableRecord
100
AcDbBlockTableRecord
  2
*D10
  0
BLOCK_RECORD
  5
7222
330
1
100
AcDbSymbolTableRecord
100
AcDbBlockTableRecord
  2
*D11
  0
BLOCK_RECORD
  5
722F
330
1
100
AcDbSymbolTableRecord
100
AcDbBlockTableRecord
  2
*D12
  0
BLOCK_RECORD
  5
723C
330
1
100
AcDbSymbolTableRecord
100
AcDbBlockTableRecord
  2
*D13
  0
ENDTAB
  0
ENDSEC
  0
SECTION
  2
BLOCKS
  0
BLOCK
  5
1B
330
1A
100
AcDbEntity
  8
0
100
AcDbBlockBegin
  2
*MODEL_SPACE
 70
     0
 10
0.0
 20
0.0
 30
0.0
  3
*MODEL_SPACE
  1

  0
ENDBLK
  5
1C
330
1A
100
AcDbEntity
  8
0
100
AcDbBlockEnd
  0
BLOCK
  5
18
330
17
100
AcDbEntity
 67
     1
  8
0
100
AcDbBlockBegin
  2
*PAPER_SPACE
 70
     0
 10
0.0
 20
0.0
 30
0.0
  3
*PAPER_SPACE
  1

  0
ENDBLK
  5
19
330
17
100
AcDbEntity
 67
     1
  8
0
100
AcDbBlockEnd
  0
BLOCK
  5
6E
330
6D
100
AcDbEntity
  8
0
100
AcDbBlockBegin
  2
_OPEN
 70
     0
 10
0.0
 20
0.0
 30
0.0
  3
_OPEN
  1

  0
LINE
  5
6F
330
6D
100
AcDbEntity
  8
0
  6
BYBLOCK
 62
     0
100
AcDbLine
 10
-1.0
 20
0.1666666666666666
 30
0.0
 11
0.0
 21
0.0
 31
0.0
  0
LINE
  5
70
330
6D
100
AcDbEntity
  8
0
  6
BYBLOCK
 62
     0
100
AcDbLine
 10
0.0
 20
0.0
 30
0.0
 11
-1.0
 21
-0.1666666666666666
 31
0.0
  0
LINE
  5
71
330
6D
100
AcDbEntity
  8
0
  6
BYBLOCK
 62
     0
100
AcDbLine
 10
0.0
 20
0.0
 30
0.0
 11
-1.0
 21
0.0
 31
0.0
  0
ENDBLK
  5
72
330
6D
100
AcDbEntity
  8
0
100
AcDbBlockEnd
  0
BLOCK
  5
70EC
330
70E2
100
AcDbEntity
  8
0
 48
5.0
100
AcDbBlockBegin
  2
*D1
 70
     1
 10
0.0
 20
0.0
 30
0.0
  3
*D1
  1

  0
LINE
  5
75B3
330
70E2
100
AcDbEntity
  8
SUNPOU
 48
5.0
100
AcDbLine
 10
423.2937516307912
 20
491.1961342463278
 30
0.0
 11
454.2436624079505
 21
491.1961342463278
 31
0.0
  0
LINE
  5
75B4
330
70E2
100
AcDbEntity
  8
SUNPOU
 48
5.0
100
AcDbLine
 10
423.2940332076766
 20
428.1961787828451
 30
0.0
 11
454.2436624079505
 21
428.1961787828451
 31
0.0
  0
LINE
  5
75B5
330
70E2
100
AcDbEntity
  8
SUNPOU
 48
5.0
100
AcDbLine
 10
451.2436624079505
 20
484.1961342463279
 30
0.0
 11
451.2436624079505
 21
435.196178782845
 31
0.0
  0
INSERT
  5
75B6
330
70E2
100
AcDbEntity
  8
SUNPOU
 48
5.0
100
AcDbBlockReference
  2
_OPEN
 10
451.2436624079505
 20
491.1961342463278
 30
0.0
 41
7.0
 42
7.0
 43
7.0
 50
90.0
  0
INSERT
  5
75B7
330
70E2
100
AcDbEntity
  8
SUNPOU
 48
5.0
100
AcDbBlockReference
  2
_OPEN
 10
451.2436624079505
 20
428.1961787828451
 30
0.0
 41
7.0
 42
7.0
 43
7.0
 50
270.0
  0
MTEXT
  5
75B8
330
70E2
100
AcDbEntity
  8
SUNPOU
 48
5.0
100
AcDbMText
 10
446.2436624079503
 20
459.6961565145866
 30
0.0
 40
6.0
 41
0.0
 71
     5
 72
     1
  1
\A1;63
 11
0.0000000000000001
 21
1.0
 31
0.0
1001
ACAD
1000
MTEXTBEGIN
1070
    73
1070
     1
1070
    44
1040
1.0
1070
    74
1070
     0
1000
MTEXTEND
  0
POINT
  5
75B9
330
70E2
100
AcDbEntity
  8
DEFPOINTS
 62
     0
 48
5.0
100
AcDbPoint
 10
417.2937516307912
 20
491.1961342463278
 30
0.0
  0
POINT
  5
75BA
330
70E2
100
AcDbEntity
  8
DEFPOINTS
 62
     0
 48
5.0
100
AcDbPoint
 10
417.2940332076766
 20
428.1961787828451
 30
0.0
  0
POINT
  5
75BB
330
70E2
100
AcDbEntity
  8
DEFPOINTS
 62
     0
 48
5.0
100
AcDbPoint
 10
451.2436624079505
 20
428.1961787828451
 30
0.0
  0
ENDBLK
  5
70ED
330
70E2
100
AcDbEntity
  8
0
 48
5.0
100
AcDbBlockEnd
  0
BLOCK
  5
70F9
330
70EF
100
AcDbEntity
  8
0
 48
5.0
100
AcDbBlockBegin
  2
*D2
 70
     1
 10
0.0
 20
0.0
 30
0.0
  3
*D2
  1

  0
LINE
  5
75C7
330
70EF
100
AcDbEntity
  8
SUNPOU
 48
5.0
100
AcDbLine
 10
264.9022082981102
 20
471.696178782845
 30
0.0
 11
229.7016613767751
 21
471.696178782845
 31
0.0
  0
LINE
  5
75C8
330
70EF
100
AcDbEntity
  8
SUNPOU
 48
5.0
100
AcDbLine
 10
264.9022082981102
 20
447.696178782845
 30
0.0
 11
229.701661376775
 21
447.696178782845
 31
0.0
  0
LINE
  5
75C9
330
70EF
100
AcDbEntity
  8
SUNPOU
 48
5.0
100
AcDbLine
 10
232.701661376775
 20
464.6961787828451
 30
0.0
 11
232.701661376775
 21
454.696178782845
 31
0.0
  0
INSERT
  5
75CA
330
70EF
100
AcDbEntity
  8
SUNPOU
 48
5.0
100
AcDbBlockReference
  2
_OPEN
 10
232.701661376775
 20
471.696178782845
 30
0.0
 41
7.0
 42
7.0
 43
7.0
 50
90.0
  0
INSERT
  5
75CB
330
70EF
100
AcDbEntity
  8
SUNPOU
 48
5.0
100
AcDbBlockReference
  2
_OPEN
 10
232.701661376775
 20
447.696178782845
 30
0.0
 41
7.0
 42
7.0
 43
7.0
 50
270.0
  0
MTEXT
  5
75CC
330
70EF
100
AcDbEntity
  8
SUNPOU
 48
5.0
100
AcDbMText
 10
227.701661376775
 20
459.6961787828451
 30
0.0
 40
6.0
 41
0.0
 71
     5
 72
     1
  1
\A1;24
 11
0.0000000000000001
 21
1.0
 31
0.0
1001
ACAD
1000
MTEXTBEGIN
1070
    73
1070
     1
1070
    44
1040
1.0
1070
    74
1070
     0
1000
MTEXTEND
  0
POINT
  5
75CD
330
70EF
100
AcDbEntity
  8
DEFPOINTS
 62
     0
 48
5.0
100
AcDbPoint
 10
270.9022082981102
 20
471.696178782845
 30
0.0
  0
POINT
  5
75CE
330
70EF
100
AcDbEntity
  8
DEFPOINTS
 62
     0
 48
5.0
100
AcDbPoint
 10
270.9022082981102
 20
447.696178782845
 30
0.0
  0
POINT
  5
75CF
330
70EF
100
AcDbEntity
  8
DEFPOINTS
 62
     0
 48
5.0
100
AcDbPoint
 10
232.701661376775
 20
447.696178782845
 30
0.0
  0
ENDBLK
  5
70FA
330
70EF
100
AcDbEntity
  8
0
 48
5.0
100
AcDbBlockEnd
  0
BLOCK
  5
7108
330
70FC
100
AcDbEntity
  8
0
 48
5.0
100
AcDbBlockBegin
  2
*D3
 70
     1
 10
0.0
 20
0.0
 30
0.0
  3
*D3
  1

  0
LINE
  5
75E2
330
70FC
100
AcDbEntity
  8
SUNPOU
 48
5.0
100
AcDbLine
 10
399.9155082981103
 20
340.1245693725657
 30
0.0
 11
399.9155082981103
 21
359.791124772268
 31
0.0
  0
LINE
  5
75E3
330
70FC
100
AcDbEntity
  8
SUNPOU
 48
5.0
100
AcDbLine
 10
388.9155082981103
 20
320.1245693525657
 30
0.0
 11
388.9155082981103
 21
359.791124772268
 31
0.0
  0
LINE
  5
75E4
330
70FC
100
AcDbEntity
  8
SUNPOU
 48
5.0
100
AcDbLine
 10
406.9155082981103
 20
356.791124772268
 30
0.0
 11
413.9155082981103
 21
356.791124772268
 31
0.0
  0
LINE
  5
75E5
330
70FC
100
AcDbEntity
  8
SUNPOU
 48
5.0
100
AcDbLine
 10
381.9155082981103
 20
356.791124772268
 30
0.0
 11
374.9155082981103
 21
356.791124772268
 31
0.0
  0
LINE
  5
75E6
330
70FC
100
AcDbEntity
  8
SUNPOU
 48
5.0
100
AcDbLine
 10
399.9155082981103
 20
356.791124772268
 30
0.0
 11
388.9155082981103
 21
356.791124772268
 31
0.0
  0
INSERT
  5
75E7
330
70FC
100
AcDbEntity
  8
SUNPOU
 48
5.0
100
AcDbBlockReference
  2
_OPEN
 10
399.9155082981103
 20
356.791124772268
 30
0.0
 41
7.0
 42
7.0
 43
7.0
 50
180.0
  0
INSERT
  5
75E8
330
70FC
100
AcDbEntity
  8
SUNPOU
 48
5.0
100
AcDbBlockReference
  2
_OPEN
 10
388.9155082981103
 20
356.791124772268
 30
0.0
 41
7.0
 42
7.0
 43
7.0
  0
MTEXT
  5
75E9
330
70FC
100
AcDbEntity
  8
SUNPOU
 48
5.0
100
AcDbMText
 10
394.4155082981103
 20
361.791124772268
 30
0.0
 40
6.0
 41
0.0
 71
     5
 72
     1
  1
\A1;11
1001
ACAD
1000
MTEXTBEGIN
1070
    73
1070
     1
1070
    44
1040
1.0
1070
    74
1070
     0
1000
MTEXTEND
  0
POINT
  5
75EA
330
70FC
100
AcDbEntity
  8
DEFPOINTS
 62
     0
 48
5.0
100
AcDbPoint
 10
399.9155082981103
 20
334.1245693725657
 30
0.0
  0
POINT
  5
75EB
330
70FC
100
AcDbEntity
  8
DEFPOINTS
 62
     0
 48
5.0
100
AcDbPoint
 10
388.9155082981103
 20
314.1245693525657
 30
0.0
  0
POINT
  5
75EC
330
70FC
100
AcDbEntity
  8
DEFPOINTS
 62
     0
 48
5.0
100
AcDbPoint
 10
388.9155082981103
 20
356.791124772268
 30
0.0
  0
ENDBLK
  5
7109
330
70FC
100
AcDbEntity
  8
0
 48
5.0
100
AcDbBlockEnd
  0
BLOCK
  5
7115
330
710B
100
AcDbEntity
  8
0
 48
5.0
100
AcDbBlockBegin
  2
*D4
 70
     1
 10
0.0
 20
0.0
 30
0.0
  3
*D4
  1

  0
LINE
  5
75D9
330
710B
100
AcDbEntity
  8
SUNPOU
 48
5.0
100
AcDbLine
 10
399.9155082981103
 20
340.1245693725657
 30
0.0
 11
399.9155082981103
 21
369.2818196458288
 31
0.0
  0
LINE
  5
75DA
330
710B
100
AcDbEntity
  8
SUNPOU
 48
5.0
100
AcDbLine
 10
270.9154083133465
 20
311.1245693529679
 30
0.0
 11
270.9154083133465
 21
369.2818196458288
 31
0.0
  0
LINE
  5
75DB
330
710B
100
AcDbEntity
  8
SUNPOU
 48
5.0
100
AcDbLine
 10
392.9155082981103
 20
366.2818196458288
 30
0.0
 11
277.9154083133465
 21
366.2818196458288
 31
0.0
  0
INSERT
  5
75DC
330
710B
100
AcDbEntity
  8
SUNPOU
 48
5.0
100
AcDbBlockReference
  2
_OPEN
 10
399.9155082981103
 20
366.2818196458288
 30
0.0
 41
7.0
 42
7.0
 43
7.0
  0
INSERT
  5
75DD
330
710B
100
AcDbEntity
  8
SUNPOU
 48
5.0
100
AcDbBlockReference
  2
_OPEN
 10
270.9154083133465
 20
366.2818196458288
 30
0.0
 41
7.0
 42
7.0
 43
7.0
 50
180.0
  0
MTEXT
  5
75DE
330
710B
100
AcDbEntity
  8
SUNPOU
 48
5.0
100
AcDbMText
 10
335.4154583057284
 20
371.2818196458288
 30
0.0
 40
6.0
 41
0.0
 71
     5
 72
     1
  1
\A1;129
1001
ACAD
1000
MTEXTBEGIN
1070
    73
1070
     1
1070
    44
1040
1.0
1070
    74
1070
     0
1000
MTEXTEND
  0
POINT
  5
75DF
330
710B
100
AcDbEntity
  8
DEFPOINTS
 62
     0
 48
5.0
100
AcDbPoint
 10
399.9155082981103
 20
334.1245693725657
 30
0.0
  0
POINT
  5
75E0
330
710B
100
AcDbEntity
  8
DEFPOINTS
 62
     0
 48
5.0
100
AcDbPoint
 10
270.9154083133465
 20
305.1245693529679
 30
0.0
  0
POINT
  5
75E1
330
710B
100
AcDbEntity
  8
DEFPOINTS
 62
     0
 48
5.0
100
AcDbPoint
 10
270.9154083133465
 20
366.2818196458288
 30
0.0
  0
ENDBLK
  5
7116
330
710B
100
AcDbEntity
  8
0
 48
5.0
100
AcDbBlockEnd
  0
BLOCK
  5
7122
330
7118
100
AcDbEntity
  8
0
 48
5.0
100
AcDbBlockBegin
  2
*D5
 70
     1
 10
0.0
 20
0.0
 30
0.0
  3
*D5
  1

  0
LINE
  5
75D0
330
7118
100
AcDbEntity
  8
SUNPOU
 48
5.0
100
AcDbLine
 10
267.8819864981102
 20
308.8546932625656
 30
0.0
 11
223.5740854582959
 21
308.8546932625656
 31
0.0
  0
LINE
  5
75D1
330
7118
100
AcDbEntity
  8
SUNPOU
 48
5.0
100
AcDbLine
 10
416.2761880981102
 20
289.4032098025657
 30
0.0
 11
223.5740854582959
 21
289.4032098025657
 31
0.0
  0
LINE
  5
75D2
330
7118
100
AcDbEntity
  8
SUNPOU
 48
5.0
100
AcDbLine
 10
226.5740854582959
 20
301.8546932625656
 30
0.0
 11
226.5740854582959
 21
296.4032098025658
 31
0.0
  0
INSERT
  5
75D3
330
7118
100
AcDbEntity
  8
SUNPOU
 48
5.0
100
AcDbBlockReference
  2
_OPEN
 10
226.5740854582959
 20
308.8546932625656
 30
0.0
 41
7.0
 42
7.0
 43
7.0
 50
90.0
  0
INSERT
  5
75D4
330
7118
100
AcDbEntity
  8
SUNPOU
 48
5.0
100
AcDbBlockReference
  2
_OPEN
 10
226.5740854582959
 20
289.4032098025657
 30
0.0
 41
7.0
 42
7.0
 43
7.0
 50
270.0
  0
MTEXT
  5
75D5
330
7118
100
AcDbEntity
  8
SUNPOU
 48
5.0
100
AcDbMText
 10
221.5740854582958
 20
299.1289515325657
 30
0.0
 40
6.0
 41
0.0
 71
     5
 72
     1
  1
\A1;19
 11
0.0000000000000001
 21
1.0
 31
0.0
1001
ACAD
1000
MTEXTBEGIN
1070
    73
1070
     1
1070
    44
1040
1.0
1070
    74
1070
     0
1000
MTEXTEND
  0
POINT
  5
75D6
330
7118
100
AcDbEntity
  8
DEFPOINTS
 62
     0
 48
5.0
100
AcDbPoint
 10
273.8819864981102
 20
308.8546932625656
 30
0.0
  0
POINT
  5
75D7
330
7118
100
AcDbEntity
  8
DEFPOINTS
 62
     0
 48
5.0
100
AcDbPoint
 10
422.2761880981101
 20
289.4032098025657
 30
0.0
  0
POINT
  5
75D8
330
7118
100
AcDbEntity
  8
DEFPOINTS
 62
     0
 48
5.0
100
AcDbPoint
 10
226.5740854582959
 20
289.4032098025657
 30
0.0
  0
ENDBLK
  5
7123
330
7118
100
AcDbEntity
  8
0
 48
5.0
100
AcDbBlockEnd
  0
BLOCK
  5
712F
330
7125
100
AcDbEntity
  8
0
 48
5.0
100
AcDbBlockBegin
  2
*D6
 70
     1
 10
0.0
 20
0.0
 30
0.0
  3
*D6
  1

  0
LINE
  5
75ED
330
7125
100
AcDbEntity
  8
SUNPOU
 48
5.0
100
AcDbLine
 10
405.2820714450771
 20
336.8078509436308
 30
0.0
 11
417.1645965206133
 21
342.7491134760443
 31
0.0
  0
LINE
  5
75EE
330
7125
100
AcDbEntity
  8
SUNPOU
 48
5.0
100
AcDbLine
 10
427.642751216955
 20
292.0864913595698
 30
0.0
 11
439.525276292491
 21
298.0277538919833
 31
0.0
  0
LINE
  5
75EF
330
7125
100
AcDbEntity
  8
SUNPOU
 48
5.0
100
AcDbLine
 10
417.6118101133725
 20
335.1464823523838
 30
0.0
 11
433.7114995527651
 21
302.9471034445787
 31
0.0
  0
INSERT
  5
75F0
330
7125
100
AcDbEntity
  8
SUNPOU
 48
5.0
100
AcDbBlockReference
  2
_OPEN
 10
414.4813149471298
 20
341.4074726905117
 30
0.0
 41
7.0
 42
7.0
 43
7.0
 50
116.5650511564227
  0
INSERT
  5
75F1
330
7125
100
AcDbEntity
  8
SUNPOU
 48
5.0
100
AcDbBlockReference
  2
_OPEN
 10
436.8419947190076
 20
296.6861131064507
 30
0.0
 41
7.0
 42
7.0
 43
7.0
 50
296.5650511564227
  0
MTEXT
  5
75F2
330
7125
100
AcDbEntity
  8
SUNPOU
 48
5.0
100
AcDbMText
 10
430.1337907888744
 20
321.2828608743687
 30
0.0
 40
6.0
 41
0.0
 71
     5
 72
     1
  1
\A1;50
 11
0.4472135951775146
 21
-0.8944271911611375
 31
0.0
1001
ACAD
1000
MTEXTBEGIN
1070
    73
1070
     1
1070
    44
1040
1.0
1070
    74
1070
     0
1000
MTEXTEND
  0
POINT
  5
75F3
330
7125
100
AcDbEntity
  8
DEFPOINTS
 62
     0
 48
5.0
100
AcDbPoint
 10
399.9155082981104
 20
334.1245693725658
 30
0.0
  0
POINT
  5
75F4
330
7125
100
AcDbEntity
  8
DEFPOINTS
 62
     0
 48
5.0
100
AcDbPoint
 10
422.2761880699882
 20
289.4032097885047
 30
0.0
  0
POINT
  5
75F5
330
7125
100
AcDbEntity
  8
DEFPOINTS
 62
     0
 48
5.0
100
AcDbPoint
 10
436.8419947190076
 20
296.6861131064507
 30
0.0
  0
ENDBLK
  5
7130
330
7125
100
AcDbEntity
  8
0
 48
5.0
100
AcDbBlockEnd
  0
BLOCK
  5
713E
330
7132
100
AcDbEntity
  8
0
 48
5.0
100
AcDbBlockBegin
  2
*D7
 70
     1
 10
0.0
 20
0.0
 30
0.0
  3
*D7
  1

  0
LINE
  5
75BC
330
7132
100
AcDbEntity
  8
SUNPOU
 48
5.0
100
AcDbLine
 10
424.9594696309879
 20
284.0366466365052
 30
0.0
 11
433.7858543222402
 21
266.3838771553187
 31
0.0
  0
LINE
  5
75BD
330
7132
100
AcDbEntity
  8
SUNPOU
 48
5.0
100
AcDbLine
 10
419.5929065336101
 20
281.3533651028163
 30
0.0
 11
428.4192912248625
 21
263.7005956216297
 31
0.0
  0
LINE
  5
75BE
330
7132
100
AcDbEntity
  8
SUNPOU
 48
5.0
100
AcDbLine
 10
438.7052038857398
 20
272.1976538858181
 30
0.0
 11
444.9661942297392
 21
275.3281490403178
 31
0.0
  0
LINE
  5
75BF
330
7132
100
AcDbEntity
  8
SUNPOU
 48
5.0
100
AcDbLine
 10
420.8166601003632
 20
263.2533820431298
 30
0.0
 11
407.4002522203645
 21
256.5451781406304
 31
0.0
  0
LINE
  5
75C0
330
7132
100
AcDbEntity
  8
SUNPOU
 48
5.0
100
AcDbLine
 10
432.4442135417404
 20
269.0671587313184
 30
0.0
 11
427.0776504443626
 21
266.3838771976295
 31
0.0
  0
INSERT
  5
75C1
330
7132
100
AcDbEntity
  8
SUNPOU
 48
5.0
100
AcDbBlockReference
  2
_OPEN
 10
432.4442135417404
 20
269.0671587313184
 30
0.0
 41
7.0
 42
7.0
 43
7.0
 50
206.5650510489608
  0
INSERT
  5
75C2
330
7132
100
AcDbEntity
  8
SUNPOU
 48
5.0
100
AcDbBlockReference
  2
_OPEN
 10
427.0776504443626
 20
266.3838771976295
 30
0.0
 41
7.0
 42
7.0
 43
7.0
 50
26.56505104896087
  0
MTEXT
  5
75C3
330
7132
100
AcDbEntity
  8
SUNPOU
 48
5.0
100
AcDbMText
 10
408.7418930208644
 20
262.8061684746298
 30
0.0
 40
6.0
 41
0.0
 71
     5
 72
     1
  1
\A1;6
 11
0.8944271919999147
 21
0.4472135934999601
 31
0.0
1001
ACAD
1000
MTEXTBEGIN
1070
    73
1070
     1
1070
    44
1040
1.0
1070
    74
1070
     0
1000
MTEXTEND
  0
POINT
  5
75C4
330
7132
100
AcDbEntity
  8
DEFPOINTS
 62
     0
 48
5.0
100
AcDbPoint
 10
422.2761880699882
 20
289.4032097885047
 30
0.0
  0
POINT
  5
75C5
330
7132
100
AcDbEntity
  8
DEFPOINTS
 62
     0
 48
5.0
100
AcDbPoint
 10
416.9096249726104
 20
286.7199282548158
 30
0.0
  0
POINT
  5
75C6
330
7132
100
AcDbEntity
  8
DEFPOINTS
 62
     0
 48
5.0
100
AcDbPoint
 10
427.0776504443626
 20
266.3838771976295
 30
0.0
  0
ENDBLK
  5
713F
330
7132
100
AcDbEntity
  8
0
 48
5.0
100
AcDbBlockEnd
  0
BLOCK
  5
7201
330
71F7
100
AcDbEntity
  8
0
 48
5.0
100
AcDbBlockBegin
  2
*D8
 70
     1
 10
0.0
 20
0.0
 30
0.0
  3
*D8
  1

  0
LINE
  5
75F6
330
71F7
100
AcDbEntity
  8
SUNPOU
 48
5.0
100
AcDbLine
 10
553.0940655106002
 20
410.713885512584
 30
0.0
 11
590.0535184627377
 21
429.1936045527948
 31
0.0
  0
LINE
  5
75F7
330
71F7
100
AcDbEntity
  8
SUNPOU
 48
5.0
100
AcDbLine
 10
561.7923240259561
 20
393.3173614818723
 30
0.0
 11
598.7517769780937
 21
411.7970805220831
 31
0.0
  0
LINE
  5
75F8
330
71F7
100
AcDbEntity
  8
SUNPOU
 48
5.0
100
AcDbLine
 10
590.5007308345813
 20
421.5909733573158
 30
0.0
 11
592.938001028372
 21
416.7164310083198
 31
0.0
  0
INSERT
  5
75F9
330
71F7
100
AcDbEntity
  8
SUNPOU
 48
5.0
100
AcDbBlockReference
  2
_OPEN
 10
587.3702366737986
 20
427.8519641981737
 30
0.0
 41
7.0
 42
7.0
 43
7.0
 50
116.5650419552248
  0
INSERT
  5
75FA
330
71F7
100
AcDbEntity
  8
SUNPOU
 48
5.0
100
AcDbBlockReference
  2
_OPEN
 10
596.0684951891546
 20
410.455440167462
 30
0.0
 41
7.0
 42
7.0
 43
7.0
 50
296.5650419552248
  0
MTEXT
  5
75FB
330
71F7
100
AcDbEntity
  8
SUNPOU
 48
5.0
100
AcDbMText
 10
596.1915022463752
 20
421.3897694405197
 30
0.0
 40
6.0
 41
0.0
 71
     5
 72
     1
  1
\A1;19
 11
0.4472134515403746
 21
-0.894427262979693
 31
0.0
1001
ACAD
1000
MTEXTBEGIN
1070
    73
1070
     1
1070
    44
1040
1.0
1070
    74
1070
     0
1000
MTEXTEND
  0
POINT
  5
75FC
330
71F7
100
AcDbEntity
  8
DEFPOINTS
 62
     0
 48
5.0
100
AcDbPoint
 10
547.7275019327221
 20
408.0306048033417
 30
0.0
  0
POINT
  5
75FD
330
71F7
100
AcDbEntity
  8
DEFPOINTS
 62
     0
 48
5.0
100
AcDbPoint
 10
556.4257604480781
 20
390.6340807726301
 30
0.0
  0
POINT
  5
75FE
330
71F7
100
AcDbEntity
  8
DEFPOINTS
 62
     0
 48
5.0
100
AcDbPoint
 10
596.0684951891546
 20
410.455440167462
 30
0.0
  0
ENDBLK
  5
7202
330
71F7
100
AcDbEntity
  8
0
 48
5.0
100
AcDbBlockEnd
  0
BLOCK
  5
7210
330
7204
100
AcDbEntity
  8
0
 48
5.0
100
AcDbBlockBegin
  2
*D9
 70
     1
 10
0.0
 20
0.0
 30
0.0
  3
*D9
  1

  0
LINE
  5
7608
330
7204
100
AcDbEntity
  8
SUNPOU
 48
5.0
100
AcDbLine
 10
504.795078050078
 20
375.3841629036321
 30
0.0
 11
481.2248359309349
 21
363.5990511991459
 31
0.0
  0
LINE
  5
7609
330
7204
100
AcDbEntity
  8
SUNPOU
 48
5.0
100
AcDbLine
 10
500.3229492075331
 20
384.3284276887223
 30
0.0
 11
476.7527070883899
 21
372.5433159842361
 31
0.0
  0
LINE
  5
760A
330
7204
100
AcDbEntity
  8
SUNPOU
 48
5.0
100
AcDbLine
 10
487.0386111104327
 20
358.6796998026449
 30
0.0
 11
490.1691042909304
 21
352.4187084716448
 31
0.0
  0
LINE
  5
760B
330
7204
100
AcDbEntity
  8
SUNPOU
 48
5.0
100
AcDbLine
 10
476.3054959068925
 20
380.1459472497351
 30
0.0
 11
468.2556562998986
 21
396.2456392437353
 31
0.0
  0
LINE
  5
760C
330
7204
100
AcDbEntity
  8
SUNPOU
 48
5.0
100
AcDbLine
 10
483.908117929935
 20
364.9406911336449
 30
0.0
 11
479.43598908739
 21
373.8849559187351
 31
0.0
  0
INSERT
  5
760D
330
7204
100
AcDbEntity
  8
SUNPOU
 48
5.0
100
AcDbBlockReference
  2
_OPEN
 10
483.908117929935
 20
364.9406911336449
 30
0.0
 41
7.0
 42
7.0
 43
7.0
 50
116.5650329844096
  0
INSERT
  5
760E
330
7204
100
AcDbEntity
  8
SUNPOU
 48
5.0
100
AcDbBlockReference
  2
_OPEN
 10
479.43598908739
 20
373.8849559187351
 30
0.0
 41
7.0
 42
7.0
 43
7.0
 50
296.5650329844097
  0
MTEXT
  5
760F
330
7204
100
AcDbEntity
  8
SUNPOU
 48
5.0
100
AcDbMText
 10
475.1874661781468
 20
393.5623554697335
 30
0.0
 40
6.0
 41
0.0
 71
     5
 72
     1
  1
\A1;10
 11
0.4472133114996593
 21
-0.8944273330000088
 31
0.0
1001
ACAD
1000
MTEXTBEGIN
1070
    73
1070
     1
1070
    44
1040
1.0
1070
    74
1070
     0
1000
MTEXTEND
  0
POINT
  5
7610
330
7204
100
AcDbEntity
  8
DEFPOINTS
 62
     0
 48
5.0
100
AcDbPoint
 10
510.161642048078
 20
378.06744277263
 30
0.0
  0
POINT
  5
7611
330
7204
100
AcDbEntity
  8
DEFPOINTS
 62
     0
 48
5.0
100
AcDbPoint
 10
505.6895132055331
 20
387.0117075577202
 30
0.0
  0
POINT
  5
7612
330
7204
100
AcDbEntity
  8
DEFPOINTS
 62
     0
 48
5.0
100
AcDbPoint
 10
479.43598908739
 20
373.8849559187351
 30
0.0
  0
ENDBLK
  5
7211
330
7204
100
AcDbEntity
  8
0
 48
5.0
100
AcDbBlockEnd
  0
BLOCK
  5
721F
330
7213
100
AcDbEntity
  8
0
 48
5.0
100
AcDbBlockBegin
  2
*D10
 70
     1
 10
0.0
 20
0.0
 30
0.0
  3
*D10
  1

  0
LINE
  5
7613
330
7213
100
AcDbEntity
  8
SUNPOU
 48
5.0
100
AcDbLine
 10
518.2115343220785
 20
348.5512574596305
 30
0.0
 11
494.6412931049698
 21
336.7661368510764
 31
0.0
  0
LINE
  5
7614
330
7213
100
AcDbEntity
  8
SUNPOU
 48
5.0
100
AcDbLine
 10
522.683629818485
 20
339.6070664668169
 30
0.0
 11
499.1133886013765
 21
327.8219458582629
 31
0.0
  0
LINE
  5
7615
330
7213
100
AcDbEntity
  8
SUNPOU
 48
5.0
100
AcDbLine
 10
494.19407950947
 20
344.3687679745757
 30
0.0
 11
491.0635843409703
 21
350.6297583115751
 31
0.0
  0
LINE
  5
7616
330
7213
100
AcDbEntity
  8
SUNPOU
 48
5.0
100
AcDbLine
 10
504.9271653428759
 20
322.9025963077633
 30
0.0
 11
512.977010061875
 21
306.8029068697647
 31
0.0
  0
LINE
  5
7617
330
7213
100
AcDbEntity
  8
SUNPOU
 48
5.0
100
AcDbLine
 10
497.3245746779696
 20
338.1077776375762
 30
0.0
 11
501.7966701743763
 21
329.1635866447627
 31
0.0
  0
INSERT
  5
7618
330
7213
100
AcDbEntity
  8
SUNPOU
 48
5.0
100
AcDbBlockReference
  2
_OPEN
 10
497.3245746779696
 20
338.1077776375762
 30
0.0
 41
7.0
 42
7.0
 43
7.0
 50
296.5650511770774
  0
INSERT
  5
7619
330
7213
100
AcDbEntity
  8
SUNPOU
 48
5.0
100
AcDbBlockReference
  2
_OPEN
 10
501.7966701743763
 20
329.1635866447627
 30
0.0
 41
7.0
 42
7.0
 43
7.0
 50
116.5650511770774
  0
MTEXT
  5
761A
330
7213
100
AcDbEntity
  8
SUNPOU
 48
5.0
100
AcDbMText
 10
514.9894712416248
 20
313.958324397764
 30
0.0
 40
6.0
 41
0.0
 71
     5
 72
     1
  1
\A1;10
 11
0.4472135954999493
 21
-0.8944271909999201
 31
0.0
1001
ACAD
1000
MTEXTBEGIN
1070
    73
1070
     1
1070
    44
1040
1.0
1070
    74
1070
     0
1000
MTEXTEND
  0
POINT
  5
761B
330
7213
100
AcDbEntity
  8
DEFPOINTS
 62
     0
 48
5.0
100
AcDbPoint
 10
523.5780974680781
 20
351.2345390326302
 30
0.0
  0
POINT
  5
761C
330
7213
100
AcDbEntity
  8
DEFPOINTS
 62
     0
 48
5.0
100
AcDbPoint
 10
528.0501929644846
 20
342.2903480398166
 30
0.0
  0
POINT
  5
761D
330
7213
100
AcDbEntity
  8
DEFPOINTS
 62
     0
 48
5.0
100
AcDbPoint
 10
501.7966701743763
 20
329.1635866447627
 30
0.0
  0
ENDBLK
  5
7220
330
7213
100
AcDbEntity
  8
0
 48
5.0
100
AcDbBlockEnd
  0
BLOCK
  5
722C
330
7222
100
AcDbEntity
  8
0
 48
5.0
100
AcDbBlockBegin
  2
*D11
 70
     1
 10
0.0
 20
0.0
 30
0.0
  3
*D11
  1

  0
LINE
  5
75FF
330
7222
100
AcDbEntity
  8
SUNPOU
 48
5.0
100
AcDbLine
 10
500.3229500595336
 20
384.3284259847204
 30
0.0
 11
459.5029818367415
 21
363.9184418733246
 31
0.0
  0
LINE
  5
7600
330
7222
100
AcDbEntity
  8
SUNPOU
 48
5.0
100
AcDbLine
 10
522.6836298184852
 20
339.6070664668169
 30
0.0
 11
481.8636615956931
 21
319.1970823554211
 31
0.0
  0
LINE
  5
7601
330
7222
100
AcDbEntity
  8
SUNPOU
 48
5.0
100
AcDbLine
 10
465.316758578241
 20
358.999092322825
 30
0.0
 11
481.4164480001933
 21
326.7997134789204
 31
0.0
  0
INSERT
  5
7602
330
7222
100
AcDbEntity
  8
SUNPOU
 48
5.0
100
AcDbBlockReference
  2
_OPEN
 10
462.1862634097413
 20
365.2600826598245
 30
0.0
 41
7.0
 42
7.0
 43
7.0
 50
116.5650511770777
  0
INSERT
  5
7603
330
7222
100
AcDbEntity
  8
SUNPOU
 48
5.0
100
AcDbBlockReference
  2
_OPEN
 10
484.5469431686929
 20
320.5387231419209
 30
0.0
 41
7.0
 42
7.0
 43
7.0
 50
296.5650511770777
  0
MTEXT
  5
7604
330
7222
100
AcDbEntity
  8
SUNPOU
 48
5.0
100
AcDbMText
 10
477.8387392442167
 20
345.1354708783725
 30
0.0
 40
6.0
 41
0.0
 71
     5
 72
     1
  1
\A1;50
 11
0.4472135954999541
 21
-0.8944271909999178
 31
0.0
1001
ACAD
1000
MTEXTBEGIN
1070
    73
1070
     1
1070
    44
1040
1.0
1070
    74
1070
     0
1000
MTEXTEND
  0
POINT
  5
7605
330
7222
100
AcDbEntity
  8
DEFPOINTS
 62
     0
 48
5.0
100
AcDbPoint
 10
505.6895132055331
 20
387.0117075577202
 30
0.0
  0
POINT
  5
7606
330
7222
100
AcDbEntity
  8
DEFPOINTS
 62
     0
 48
5.0
100
AcDbPoint
 10
528.0501929644847
 20
342.2903480398167
 30
0.0
  0
POINT
  5
7607
330
7222
100
AcDbEntity
  8
DEFPOINTS
 62
     0
 48
5.0
100
AcDbPoint
 10
484.5469431686929
 20
320.5387231419209
 30
0.0
  0
ENDBLK
  5
722D
330
7222
100
AcDbEntity
  8
0
 48
5.0
100
AcDbBlockEnd
  0
BLOCK
  5
7239
330
722F
100
AcDbEntity
  8
0
 48
5.0
100
AcDbBlockBegin
  2
*D12
 70
     1
 10
0.0
 20
0.0
 30
0.0
  3
*D12
  1

  0
LINE
  5
7627
330
722F
100
AcDbEntity
  8
SUNPOU
 48
5.0
100
AcDbLine
 10
505.1752133096505
 20
388.0403073367195
 30
0.0
 11
490.4774565692255
 21
417.4358207476433
 31
0.0
  0
LINE
  5
7628
330
722F
100
AcDbEntity
  8
SUNPOU
 48
5.0
100
AcDbLine
 10
547.2131631696502
 20
409.0592823167195
 30
0.0
 11
532.5154064292251
 21
438.4547957276432
 31
0.0
  0
LINE
  5
7629
330
722F
100
AcDbEntity
  8
SUNPOU
 48
5.0
100
AcDbLine
 10
498.0800876922992
 20
417.8830343503773
 30
0.0
 11
527.5960568842577
 21
432.6410189814629
 31
0.0
  0
INSERT
  5
762A
330
722F
100
AcDbEntity
  8
SUNPOU
 48
5.0
100
AcDbBlockReference
  2
_OPEN
 10
491.8190973582786
 20
414.75253917592
 30
0.0
 41
7.0
 42
7.0
 43
7.0
 50
206.5650512315962
  0
INSERT
  5
762B
330
722F
100
AcDbEntity
  8
SUNPOU
 48
5.0
100
AcDbBlockReference
  2
_OPEN
 10
533.8570472182783
 20
435.7715141559201
 30
0.0
 41
7.0
 42
7.0
 43
7.0
 50
26.56505123159624
  0
MTEXT
  5
762C
330
722F
100
AcDbEntity
  8
SUNPOU
 48
5.0
100
AcDbMText
 10
510.6020043065233
 20
429.7341626187921
 30
0.0
 40
6.0
 41
0.0
 71
     5
 72
     1
  1
\A1;47
 11
0.8944271905743818
 21
0.4472135963510261
 31
0.0
1001
ACAD
1000
MTEXTBEGIN
1070
    73
1070
     1
1070
    44
1040
1.0
1070
    74
1070
     0
1000
MTEXTEND
  0
POINT
  5
762D
330
722F
100
AcDbEntity
  8
DEFPOINTS
 62
     0
 48
5.0
100
AcDbPoint
 10
507.8584948877566
 20
382.6737441932732
 30
0.0
  0
POINT
  5
762E
330
722F
100
AcDbEntity
  8
DEFPOINTS
 62
     0
 48
5.0
100
AcDbPoint
 10
549.8964447477564
 20
403.6927191732732
 30
0.0
  0
POINT
  5
762F
330
722F
100
AcDbEntity
  8
DEFPOINTS
 62
     0
 48
5.0
100
AcDbPoint
 10
533.8570472182783
 20
435.7715141559201
 30
0.0
  0
ENDBLK
  5
723A
330
722F
100
AcDbEntity
  8
0
 48
5.0
100
AcDbBlockEnd
  0
BLOCK
  5
7246
330
723C
100
AcDbEntity
  8
0
 48
5.0
100
AcDbBlockBegin
  2
*D13
 70
     1
 10
0.0
 20
0.0
 30
0.0
  3
*D13
  1

  0
LINE
  5
761E
330
723C
100
AcDbEntity
  8
SUNPOU
 48
5.0
100
AcDbLine
 10
500.8003709056853
 20
378.8196393186541
 30
0.0
 11
475.9246061423296
 21
427.8229015299935
 31
0.0
  0
LINE
  5
761F
330
723C
100
AcDbEntity
  8
SUNPOU
 48
5.0
100
AcDbLine
 10
556.9777205056854
 20
407.3372210186541
 30
0.0
 11
532.1019557423297
 21
456.3404832299935
 31
0.0
  0
LINE
  5
7620
330
723C
100
AcDbEntity
  8
SUNPOU
 48
5.0
100
AcDbLine
 10
483.5243731505541
 20
428.3164006897729
 30
0.0
 11
527.218098576498
 21
450.4968594241899
 31
0.0
  0
INSERT
  5
7621
330
723C
100
AcDbEntity
  8
SUNPOU
 48
5.0
100
AcDbBlockReference
  2
_OPEN
 10
477.282561063526
 20
425.1478392069814
 30
0.0
 41
7.0
 42
7.0
 43
7.0
 50
206.9139381445583
  0
INSERT
  5
7622
330
723C
100
AcDbEntity
  8
SUNPOU
 48
5.0
100
AcDbBlockReference
  2
_OPEN
 10
533.4599106635262
 20
453.6654209069815
 30
0.0
 41
7.0
 42
7.0
 43
7.0
 50
26.91393814455837
  0
MTEXT
  5
7623
330
723C
100
AcDbEntity
  8
SUNPOU
 48
5.0
100
AcDbMText
 10
503.1079776615322
 20
443.8650672620016
 30
0.0
 40
6.0
 41
0.0
 71
     5
 72
     1
  1
\A1;63
 11
0.8916874410040161
 21
0.4526516403987831
 31
0.0
1001
ACAD
1000
MTEXTBEGIN
1070
    73
1070
     1
1070
    44
1040
1.0
1070
    74
1070
     0
1000
MTEXTEND
  0
POINT
  5
7624
330
723C
100
AcDbEntity
  8
DEFPOINTS
 62
     0
 48
5.0
100
AcDbPoint
 10
503.516280748078
 20
373.46951467263
 30
0.0
  0
POINT
  5
7625
330
723C
100
AcDbEntity
  8
DEFPOINTS
 62
     0
 48
5.0
100
AcDbPoint
 10
559.6936303480781
 20
401.9870963726301
 30
0.0
  0
POINT
  5
7626
330
723C
100
AcDbEntity
  8
DEFPOINTS
 62
     0
 48
5.0
100
AcDbPoint
 10
533.4599106635262
 20
453.6654209069815
 30
0.0
  0
ENDBLK
  5
7247
330
723C
100
AcDbEntity
  8
0
 48
5.0
100
AcDbBlockEnd
  0
ENDSEC
  0
SECTION
  2
ENTITIES
  0
TEXT
  5
7D7
330
1A
100
AcDbEntity
  8
SUNPOU
100
AcDbText
 10
309.2220046184525
 20
53.17576273877648
 30
0.0
 40
8.0
  1
軒樋の差し替え
100
AcDbText
  0
LINE
  5
6C95
330
1A
100
AcDbEntity
  8
SEIHIN
100
AcDbLine
 10
410.648617072414
 20
462.19607484461
 30
0.0
 11
419.145666519079
 21
462.1961507993533
 31
0.0
  0
ELLIPSE
  5
6C96
330
1A
100
AcDbEntity
  8
SEIHIN
100
AcDbEllipse
 10
413.2758040776061
 20
483.1964034297556
 30
0.0
 11
-0.0000266565493905
 21
2.982065487843017
 31
0.0
210
0.0
220
0.0
230
-1.0
 40
0.4686569565874931
 41
4.712388980384689
 42
7.853981633974482
  0
LINE
  5
6C97
330
1A
100
AcDbEntity
  8
SEIHIN
100
AcDbLine
 10
400.4252457123324
 20
491.1959834595115
 30
0.0
 11
417.2937516307911
 21
491.1961342463277
 31
0.0
  0
LINE
  5
6C98
330
1A
100
AcDbEntity
  8
CENTER_L
 48
5.0
100
AcDbLine
 10
400.4258773209221
 20
483.1960885648378
 30
0.0
 11
421.7657578552866
 21
483.1962793210709
 31
0.0
  0
ARC
  5
6C99
330
1A
100
AcDbEntity
  8
SEIHIN
100
AcDbCircle
 10
423.6757424168358
 20
484.0099733083419
 30
0.0
 40
9.039059027885262
100
AcDbArc
 50
185.1638748671399
 51
239.9218617561369
  0
ARC
  5
6C9A
330
1A
100
AcDbEntity
  8
SEIHIN
100
AcDbCircle
 10
422.7813152258716
 20
484.0099653130975
 30
0.0
 40
9.039059027885262
100
AcDbArc
 50
185.1638748671399
 51
239.9218617561369
  0
LINE
  5
6C9B
330
1A
100
AcDbEntity
  8
CENTER_L
 48
5.0
100
AcDbLine
 10
400.4260873864327
 20
436.196073682845
 30
0.0
 11
421.7659679216496
 21
436.196073682845
 31
0.0
  0
LINE
  5
6C9C
330
1A
100
AcDbEntity
  8
CENTER_L
 48
5.0
100
AcDbLine
 10
396.9862355859734
 20
310.9142311664972
 30
0.0
 11
414.8747793688382
 21
319.8585030579296
 31
0.0
  0
LINE
  5
6C9D
330
1A
100
AcDbEntity
  8
CENTER_L
 48
5.0
100
AcDbLine
 10
406.1765197111108
 20
292.533662929066
 30
0.0
 11
424.065063482212
 21
301.4779348146166
 31
0.0
  0
ARC
  5
6C9E
330
1A
100
AcDbEntity
  8
SEIHIN
100
AcDbCircle
 10
422.7815325656965
 20
435.3823967688727
 30
0.0
 40
9.039059027885262
100
AcDbArc
 50
120.0786504082661
 51
174.8366372972584
  0
ARC
  5
6C9F
330
1A
100
AcDbEntity
  8
SEIHIN
100
AcDbCircle
 10
423.6759597566965
 20
435.3823967688727
 30
0.0
 40
9.039059027885262
100
AcDbArc
 50
120.0786504082661
 51
174.8366372972584
  0
ELLIPSE
  5
6CA0
330
1A
100
AcDbEntity
  8
SEIHIN
100
AcDbEllipse
 10
413.276014145418
 20
436.195873682845
 30
0.0
 11
0.0
 21
-2.982065487962159
 31
0.0
210
0.0
220
0.0
230
1.0
 40
0.4686569565874931
 41
4.712388980384689
 42
7.853981633974482
  0
LINE
  5
6CA1
330
1A
100
AcDbEntity
  8
SEIHIN
100
AcDbLine
 10
410.648639419337
 20
457.1961787828451
 30
0.0
 11
419.1456888663415
 21
457.1961787828451
 31
0.0
  0
LINE
  5
6CA2
330
1A
100
AcDbEntity
  8
SEIHIN
100
AcDbLine
 10
400.4255272885439
 20
428.1961787828451
 30
0.0
 11
417.2940332076766
 21
428.1961787828451
 31
0.0
  0
LINE
  5
6CA3
330
1A
100
AcDbEntity
  8
SEIHIN
100
AcDbLine
 10
416.0151977981104
 20
288.5087826025657
 30
0.0
 11
413.9857808981103
 21
287.4940741825657
 31
0.0
  0
ARC
  5
6CA4
330
1A
100
AcDbEntity
  8
SEIHIN
100
AcDbCircle
 10
413.5555229981102
 20
291.1920641825657
 30
0.0
 40
1.000000003354195
100
AcDbArc
 50
296.5650514333118
 51
26.56505066460819
  0
LINE
  5
6CA5
330
1A
100
AcDbEntity
  8
SEIHIN
100
AcDbLine
 10
394.5489451981102
 20
331.4412877725657
 30
0.0
 11
416.0151977981104
 21
288.5087826025657
 31
0.0
  0
LINE
  5
6CA6
330
1A
100
AcDbEntity
  8
SEIHIN
100
AcDbLine
 10
399.9155082981103
 20
334.1245693725657
 30
0.0
 11
422.2761880699882
 21
289.4032097885047
 31
0.0
  0
LINE
  5
6CA7
330
1A
100
AcDbEntity
  8
SEIHIN
100
AcDbLine
 10
395.4433723981103
 20
334.1245693725657
 30
0.0
 11
418.6984792981101
 21
287.6143554125657
 31
0.0
  0
LINE
  5
6CA8
330
1A
100
AcDbEntity
  8
CENTER_L
 48
5.0
100
AcDbLine
 10
263.9842614981103
 20
459.696178782845
 30
0.0
 11
429.2760920044133
 21
459.696178782845
 31
0.0
  0
LINE
  5
6CAE
330
1A
100
AcDbEntity
  8
SEIHIN
100
AcDbLine
 10
278.9154082981102
 20
300.8245693525657
 30
0.0
 11
353.9154082981103
 21
291.6245693525657
 31
0.0
  0
LINE
  5
6CAF
330
1A
100
AcDbEntity
  8
SEIHIN
100
AcDbLine
 10
277.6155082981103
 20
305.1245693525657
 30
0.0
 11
346.3037103981103
 21
305.1245693525657
 31
0.0
  0
ARC
  5
6CB0
330
1A
100
AcDbEntity
  8
NOKITOI
 48
5.0
100
AcDbCircle
 10
320.6316925800781
 20
302.8801876379094
 30
0.0
 40
41.79999437547816
100
AcDbArc
 50
184.474295212525
 51
269.9998545921058
  0
ARC
  5
6CB1
330
1A
100
AcDbEntity
  8
NOKITOI
 48
5.0
100
AcDbCircle
 10
320.6316702716528
 20
302.8802077389358
 30
0.0
 40
43.00001447645168
100
AcDbArc
 50
186.5249107071174
 51
269.9998883751405
  0
ARC
  5
6CB5
330
1A
100
AcDbEntity
  8
SEIHIN
100
AcDbCircle
 10
273.9526289981103
 20
308.1245693525657
 30
0.0
 40
0.5000000314044846
100
AcDbArc
 50
344.0527546068721
 51
90.0
  0
ARC
  5
6CB6
330
1A
100
AcDbEntity
  8
SEIHIN
100
AcDbCircle
 10
274.4141751981103
 20
305.2169263825657
 30
0.0
 40
3.499985647804287
100
AcDbArc
 50
103.1906199390367
 51
181.5120868606307
  0
LINE
  5
6CB7
330
1A
100
AcDbEntity
  8
NOKITOI
 48
5.0
100
AcDbLine
 10
277.3430864981103
 20
305.8539932625657
 30
0.0
 11
277.6588864981101
 21
311.8538932625657
 31
0.0
  0
LINE
  5
6CB8
330
1A
100
AcDbEntity
  8
NOKITOI
 48
5.0
100
AcDbLine
 10
275.4016864981106
 20
306.5801932625658
 30
0.0
 11
275.8057864981103
 21
309.4085932625656
 31
0.0
  0
ARC
  5
6CB9
330
1A
100
AcDbEntity
  8
NOKITOI
 48
5.0
100
AcDbCircle
 10
273.9384007165256
 20
308.3578786282647
 30
0.0
 40
0.5000073448410256
100
AcDbArc
 50
351.8729478641243
 51
96.47829282997079
  0
ARC
  5
6CBA
330
1A
100
AcDbEntity
  8
NOKITOI
 48
5.0
100
AcDbCircle
 10
274.3332243795569
 20
304.8802370450911
 30
0.0
 40
3.999989731271038
100
AcDbArc
 50
96.47731142013277
 51
181.7899836067311
  0
LINE
  5
6CBB
330
1A
100
AcDbEntity
  8
NOKITOI
 48
5.0
100
AcDbLine
 10
270.0819864981105
 20
312.8551932625656
 30
0.0
 11
270.2313864981099
 21
308.0762932625658
 31
0.0
  0
ARC
  5
6CBC
330
1A
100
AcDbEntity
  8
NOKITOI
 48
5.0
100
AcDbCircle
 10
274.3333067107794
 20
304.8802519909457
 30
0.0
 40
5.2000412730095
100
AcDbArc
 50
90.0013245430618
 51
142.0757990790568
  0
LINE
  5
6CBD
330
1A
100
AcDbEntity
  8
NOKITOI
 48
5.0
100
AcDbLine
 10
276.1795864981102
 20
306.5801932625658
 30
0.0
 11
276.3607864981102
 21
310.0216932625659
 31
0.0
  0
LINE
  5
6CBE
330
1A
100
AcDbEntity
  8
NOKITOI
 48
5.0
100
AcDbLine
 10
268.8825864981101
 20
312.8176932625657
 30
0.0
 11
269.27278649811
 21
300.3333932625656
 31
0.0
  0
ARC
  5
6CBF
330
1A
100
AcDbEntity
  8
SEIHIN
100
AcDbCircle
 10
275.6155209981102
 20
308.8743700325657
 30
0.0
 40
4.249771090849538
100
AcDbArc
 50
248.0384870086001
 51
298.0724108493037
  0
LINE
  5
6CC0
330
1A
100
AcDbEntity
  8
SEIHIN
100
AcDbLine
 10
273.9154082981102
 20
300.8245693525657
 30
0.0
 11
278.9154082981102
 21
300.8245693525657
 31
0.0
  0
LINE
  5
6CC1
330
1A
100
AcDbEntity
  8
NOKITOI
 48
5.0
100
AcDbLine
 10
276.8436864981101
 20
305.3801932625657
 30
0.0
 11
274.5945864981101
 21
305.3801932625657
 31
0.0
  0
LINE
  5
6CC2
330
1A
100
AcDbEntity
  8
NOKITOI
 48
5.0
100
AcDbLine
 10
270.7719864981102
 20
298.8801932625657
 30
0.0
 11
276.91668649811
 21
298.8801932625657
 31
0.0
  0
LINE
  5
6CC3
330
1A
100
AcDbEntity
  8
NOKITOI
 48
5.0
100
AcDbLine
 10
278.4605864981106
 20
300.0801932625658
 30
0.0
 11
272.4196864981101
 21
300.0801932625658
 31
0.0
  0
ARC
  5
6CC4
330
1A
100
AcDbEntity
  8
SEIHIN
100
AcDbCircle
 10
273.9154082981102
 20
303.8245693525657
 30
0.0
 40
3.0
100
AcDbArc
 50
180.0
 51
270.0
  0
LINE
  5
6CC5
330
1A
100
AcDbEntity
  8
NOKITOI
 48
5.0
100
AcDbLine
 10
270.4206864981099
 20
302.0177932625657
 30
0.0
 11
270.3351864981102
 21
304.7552932625657
 31
0.0
  0
ARC
  5
6CC6
330
1A
100
AcDbEntity
  8
NOKITOI
 48
5.0
100
AcDbCircle
 10
272.4197000702486
 20
302.0801801074793
 30
0.0
 40
1.999986844959662
100
AcDbArc
 50
181.7875531852355
 51
269.9996111843215
  0
ARC
  5
6CC7
330
1A
100
AcDbEntity
  8
NOKITOI
 48
5.0
100
AcDbCircle
 10
270.772022457261
 20
300.3801584084225
 30
0.0
 40
1.499965146287778
100
AcDbArc
 50
181.7866280217767
 51
269.9986264297005
  0
LINE
  5
6CC8
330
1A
100
AcDbEntity
  8
SEIHIN
100
AcDbLine
 10
270.9154082981102
 20
305.1245693525657
 30
0.0
 11
270.9154082981102
 21
303.8245693525657
 31
0.0
  0
ARC
  5
6CC9
330
1A
100
AcDbEntity
  8
SEIHIN
100
AcDbCircle
 10
274.2131677981103
 20
305.3967000425657
 30
0.0
 40
0.4999999921113645
100
AcDbArc
 50
164.0527525602575
 51
248.0384815442387
  0
LINE
  5
6CCA
330
1A
100
AcDbEntity
  8
SEIHIN
100
AcDbLine
 10
274.4333865981102
 20
307.9871932525657
 30
0.0
 11
273.7324102981102
 21
305.5340761325657
 31
0.0
  0
LINE
  5
6CCB
330
1A
100
AcDbEntity
  8
NOKITOI
 48
5.0
100
AcDbLine
 10
274.09968649811
 20
305.9509932625659
 30
0.0
 11
274.4333864981101
 21
308.2871932625658
 31
0.0
  0
ARC
  5
6CCC
330
1A
100
AcDbEntity
  8
NOKITOI
 48
5.0
100
AcDbCircle
 10
274.5946130987078
 20
305.8801625856837
 30
0.0
 40
0.4999693238254178
100
AcDbArc
 50
171.8555038770536
 51
269.9969516090372
  0
LINE
  5
6CCD
330
1A
100
AcDbEntity
  8
SEIHIN
100
AcDbLine
 10
277.6154082981103
 20
300.8245693525657
 30
0.0
 11
277.6154082981103
 21
305.1245693525657
 31
0.0
  0
ARC
  5
6CCE
330
1A
100
AcDbEntity
  8
NOKITOI
 48
5.0
100
AcDbCircle
 10
278.4605990678185
 20
299.580181637836
 30
0.0
 40
0.5000116248877111
100
AcDbArc
 50
4.474846808341977
 51
90.00144034898383
  0
ARC
  5
6CCF
330
1A
100
AcDbEntity
  8
NOKITOI
 48
5.0
100
AcDbCircle
 10
276.9166780739476
 20
297.8802007776222
 30
0.0
 40
0.9999924849789756
100
AcDbArc
 50
6.528264606673562
 51
89.99951732740802
  0
LINE
  5
6CD0
330
1A
100
AcDbEntity
  8
NOKITOI
 48
5.0
100
AcDbLine
 10
276.1795864981102
 20
306.5801932625658
 30
0.0
 11
275.4016864981106
 21
306.5801932625658
 31
0.0
  0
ARC
  5
6CD1
330
1A
100
AcDbEntity
  8
NOKITOI
 48
5.0
100
AcDbCircle
 10
276.8436796111152
 20
305.8801867274802
 30
0.0
 40
0.499993464961963
100
AcDbArc
 50
270.0007892017836
 51
356.997036131742
  0
LINE
  5
6CD2
330
1A
100
AcDbEntity
  8
NOKITOI
 48
5.0
100
AcDbLine
 10
274.7950864981105
 20
310.0801932625657
 30
0.0
 11
275.7908864981102
 21
311.1801932625659
 31
0.0
  0
LINE
  5
6CD3
330
1A
100
AcDbEntity
  8
NOKITOI
 48
5.0
100
AcDbLine
 10
272.8543864981104
 20
311.1801932625659
 30
0.0
 11
275.7908864981102
 21
311.1801932625659
 31
0.0
  0
LINE
  5
6CD4
330
1A
100
AcDbEntity
  8
NOKITOI
 48
5.0
100
AcDbLine
 10
277.15948649811
 20
312.3801932625657
 30
0.0
 11
274.9279864981101
 21
312.3801932625657
 31
0.0
  0
LINE
  5
6CD5
330
1A
100
AcDbEntity
  8
NOKITOI
 48
5.0
100
AcDbLine
 10
274.4376864981102
 20
312.9782932625656
 30
0.0
 11
274.6984864981102
 21
314.2821932625658
 31
0.0
  0
ARC
  5
6CD6
330
1A
100
AcDbEntity
  8
NOKITOI
 48
5.0
100
AcDbCircle
 10
270.8815992489601
 20
312.8802064176521
 30
0.0
 40
1.999986844954076
100
AcDbArc
 50
90.00036528735288
 51
181.7883072882702
  0
ARC
  5
6CD7
330
1A
100
AcDbEntity
  8
NOKITOI
 48
5.0
100
AcDbCircle
 10
270.8815909929082
 20
312.8801979000926
 30
0.0
 40
0.7999953624857498
100
AcDbArc
 50
90.00032191805264
 51
181.7911273464192
  0
LINE
  5
6CD8
330
1A
100
AcDbEntity
  8
SEIHIN
100
AcDbLine
 10
273.6154082981103
 20
308.6245693525657
 30
0.0
 11
273.9526289981103
 21
308.6245693525657
 31
0.0
  0
LINE
  5
6CD9
330
1A
100
AcDbEntity
  8
NOKITOI
 48
5.0
100
AcDbLine
 10
274.7950864981105
 20
310.0801932625657
 30
0.0
 11
274.3331864981103
 21
310.0801932625657
 31
0.0
  0
ARC
  5
6CDA
330
1A
100
AcDbEntity
  8
NOKITOI
 48
5.0
100
AcDbCircle
 10
274.9279792435547
 20
312.8802021124091
 30
0.0
 40
0.5000088498959383
100
AcDbArc
 50
168.6864043304889
 51
270.0008312961425
  0
LINE
  5
6CDB
330
1A
100
AcDbEntity
  8
NOKITOI
 48
5.0
100
AcDbLine
 10
270.88158649811
 20
313.6801932625659
 30
0.0
 11
273.3543864981104
 21
313.6801932625659
 31
0.0
  0
LINE
  5
6CDC
330
1A
100
AcDbEntity
  8
NOKITOI
 48
5.0
100
AcDbLine
 10
273.3543864981104
 20
313.6801932625659
 30
0.0
 11
272.8543864981104
 21
311.1801932625659
 31
0.0
  0
ARC
  5
6CDD
330
1A
100
AcDbEntity
  8
NOKITOI
 48
5.0
100
AcDbCircle
 10
274.2081857151017
 20
314.3801942175674
 30
0.0
 40
0.4999990449987349
100
AcDbArc
 50
348.6967198015444
 51
89.99991027369329
  0
LINE
  5
6CDE
330
1A
100
AcDbEntity
  8
NOKITOI
 48
5.0
100
AcDbLine
 10
270.88158649811
 20
314.8801932625657
 30
0.0
 11
274.2081864981102
 21
314.8801932625657
 31
0.0
  0
ARC
  5
6CDF
330
1A
100
AcDbEntity
  8
NOKITOI
 48
5.0
100
AcDbCircle
 10
277.1594802969523
 20
311.880199797651
 30
0.0
 40
0.4999934649531607
100
AcDbArc
 50
356.9955363203377
 51
89.99928939038239
  0
LINE
  5
6CE0
330
1A
100
AcDbEntity
  8
NOKITOI
 48
5.0
100
AcDbLine
 10
275.8057864981103
 20
309.4085932625656
 30
0.0
 11
276.3607864981102
 21
310.0216932625659
 31
0.0
  0
LINE
  5
6CE1
330
1A
100
AcDbEntity
  8
NOKITOI
 48
5.0
100
AcDbLine
 10
375.5131864981105
 20
269.3628932625657
 30
0.0
 11
365.5278864981103
 21
261.1930932625656
 31
0.0
  0
LINE
  5
6CE2
330
1A
100
AcDbEntity
  8
NOKITOI
 48
5.0
100
AcDbLine
 10
376.4974864981102
 20
268.6177932625659
 30
0.0
 11
366.0943864981102
 21
260.1060932625658
 31
0.0
  0
LINE
  5
6CE3
330
1A
100
AcDbEntity
  8
NOKITOI
 48
5.0
100
AcDbLine
 10
320.6316864981102
 20
261.0801932625657
 30
0.0
 11
365.2112864981102
 21
261.0800932625658
 31
0.0
  0
LINE
  5
6CE4
330
1A
100
AcDbEntity
  8
NOKITOI
 48
5.0
100
AcDbLine
 10
365.4610864981102
 20
259.8800932625657
 30
0.0
 11
320.6316864981102
 21
259.8801932625657
 31
0.0
  0
LINE
  5
6CE5
330
1A
100
AcDbEntity
  8
NOKITOI
 48
5.0
100
AcDbLine
 10
361.2112864981102
 20
261.0800932625658
 30
0.0
 11
341.3031864981105
 21
261.0800932625658
 31
0.0
  0
LINE
  5
6CE6
330
1A
100
AcDbEntity
  8
NOKITOI
 48
5.0
100
AcDbLine
 10
361.4610864981102
 20
259.8800932625657
 30
0.0
 11
341.3031864981105
 21
259.8800932625657
 31
0.0
  0
ARC
  5
6CEA
330
1A
100
AcDbEntity
  8
NOKITOI
 48
5.0
100
AcDbCircle
 10
365.2112928858589
 20
261.5800955425553
 30
0.0
 40
0.5000022800304047
100
AcDbArc
 50
269.9992680212823
 51
309.2854498596061
  0
ARC
  5
6CEB
330
1A
100
AcDbEntity
  8
NOKITOI
 48
5.0
100
AcDbCircle
 10
365.4610795655328
 20
260.8800907875596
 30
0.0
 40
0.9999975250179316
100
AcDbArc
 50
270.0003972084052
 51
309.2946416752287
  0
LINE
  5
6CEC
330
1A
100
AcDbEntity
  8
SEIHIN
100
AcDbLine
 10
353.1367530981103
 20
314.1997041825657
 30
0.0
 11
346.3037103981103
 21
305.1245693525657
 31
0.0
  0
LINE
  5
6CED
330
1A
100
AcDbEntity
  8
SEIHIN
100
AcDbLine
 10
358.0637358981102
 20
302.6245693525657
 30
0.0
 11
301.1263033981102
 21
302.6245693525657
 31
0.0
  0
LINE
  5
6CEE
330
1A
100
AcDbEntity
  8
SEIHIN
100
AcDbLine
 10
353.1249584981103
 20
294.2345104825657
 30
0.0
 11
301.0044730981103
 21
300.6320184025657
 31
0.0
  0
ARC
  5
6CEF
330
1A
100
AcDbEntity
  8
SEIHIN
100
AcDbCircle
 10
301.1263033981102
 20
301.6245693525657
 30
0.0
 40
1.000000002585995
100
AcDbArc
 50
90.0
 51
263.0022538529113
  0
ARC
  5
6CF0
330
1A
100
AcDbEntity
  8
SEIHIN
100
AcDbCircle
 10
343.8095816981103
 20
310.1245693525657
 30
0.0
 40
5.000000023548842
100
AcDbArc
 50
270.0
 51
323.0224039650379
  0
LINE
  5
6CF1
330
1A
100
AcDbEntity
  8
SEIHIN
100
AcDbLine
 10
368.7146977981103
 20
309.9516178925657
 30
0.0
 11
357.2224213981103
 21
294.6884383625657
 31
0.0
  0
LINE
  5
6CF2
330
1A
100
AcDbEntity
  8
SEIHIN
100
AcDbLine
 10
355.1339307981102
 20
312.6959484725657
 30
0.0
 11
350.6389650981102
 21
306.7260720425657
 31
0.0
  0
LINE
  5
6CF3
330
1A
100
AcDbEntity
  8
SEIHIN
100
AcDbLine
 10
378.8079090981102
 20
327.5129214725657
 30
0.0
 11
362.2508418981103
 21
305.5230666525657
 31
0.0
  0
LINE
  5
6CF4
330
1A
100
AcDbEntity
  8
SEIHIN
100
AcDbLine
 10
392.9276222981102
 20
315.6773557725657
 30
0.0
 11
405.6776222981102
 21
290.1773557525657
 31
0.0
  0
LINE
  5
6CF5
330
1A
100
AcDbEntity
  8
SEIHIN
100
AcDbLine
 10
390.2381100981102
 20
315.4662101325657
 30
0.0
 11
402.4353236981103
 21
291.0717829425657
 31
0.0
  0
LINE
  5
6CF6
330
1A
100
AcDbEntity
  8
SEIHIN
100
AcDbLine
 10
388.9155082981103
 20
314.1245693525657
 30
0.0
 11
388.9155082981103
 21
295.9830312925658
 31
0.0
  0
ARC
  5
6CF7
330
1A
100
AcDbEntity
  8
NOKITOI
 48
5.0
100
AcDbCircle
 10
383.3030555711741
 20
304.8802290072295
 30
0.0
 40
3.99998565374706
100
AcDbArc
 50
358.208696659101
 51
83.52422380468341
  0
LINE
  5
6CF8
330
1A
100
AcDbEntity
  8
NOKITOI
 48
5.0
100
AcDbLine
 10
387.5541864981098
 20
312.8551932625656
 30
0.0
 11
387.4048864981102
 21
308.0761932625658
 31
0.0
  0
LINE
  5
6CF9
330
1A
100
AcDbEntity
  8
NOKITOI
 48
5.0
100
AcDbLine
 10
382.2344864981098
 20
306.5801932625658
 30
0.0
 11
381.8304864981103
 21
309.4085932625656
 31
0.0
  0
LINE
  5
6CFA
330
1A
100
AcDbEntity
  8
NOKITOI
 48
5.0
100
AcDbLine
 10
380.2931864981103
 20
305.8538932625657
 30
0.0
 11
379.97738649811
 21
311.8538932625657
 31
0.0
  0
LINE
  5
6CFB
330
1A
100
AcDbEntity
  8
NOKITOI
 48
5.0
100
AcDbLine
 10
381.4565864981102
 20
306.5801932625658
 30
0.0
 11
381.27548649811
 21
310.0215932625657
 31
0.0
  0
ARC
  5
6CFC
330
1A
100
AcDbEntity
  8
NOKITOI
 48
5.0
100
AcDbCircle
 10
383.303068631759
 20
304.8802019909456
 30
0.0
 40
5.199991271650611
100
AcDbArc
 50
37.92532860472895
 51
89.99980314072724
  0
ARC
  5
6CFD
330
1A
100
AcDbEntity
  8
NOKITOI
 48
5.0
100
AcDbCircle
 10
383.6978158706099
 20
308.3578234950606
 30
0.0
 40
0.4999578477751074
100
AcDbArc
 50
83.52609071220431
 51
188.1330561712928
  0
LINE
  5
6CFE
330
1A
100
AcDbEntity
  8
NOKITOI
 48
5.0
100
AcDbLine
 10
388.7535864981103
 20
312.8176932625657
 30
0.0
 11
388.3634864981102
 21
300.3332932625657
 31
0.0
  0
LINE
  5
6CFF
330
1A
100
AcDbEntity
  8
NOKITOI
 48
5.0
100
AcDbLine
 10
380.7924864981103
 20
305.3801932625657
 30
0.0
 11
383.0415864981098
 21
305.3801932625657
 31
0.0
  0
LINE
  5
6D00
330
1A
100
AcDbEntity
  8
NOKITOI
 48
5.0
100
AcDbLine
 10
381.4565864981102
 20
306.5801932625658
 30
0.0
 11
382.2344864981098
 21
306.5801932625658
 31
0.0
  0
LINE
  5
6D01
330
1A
100
AcDbEntity
  8
NOKITOI
 48
5.0
100
AcDbLine
 10
379.1845864981098
 20
300.0801932625658
 30
0.0
 11
385.2164864981102
 21
300.0801932625658
 31
0.0
  0
LINE
  5
6D02
330
1A
100
AcDbEntity
  8
NOKITOI
 48
5.0
100
AcDbLine
 10
386.8641864981102
 20
298.8801932625657
 30
0.0
 11
380.7230864981104
 21
298.8801932625657
 31
0.0
  0
LINE
  5
6D03
330
1A
100
AcDbEntity
  8
NOKITOI
 48
5.0
100
AcDbLine
 10
378.6870864981104
 20
299.6299932625658
 30
0.0
 11
375.6940864981099
 21
269.7001932625656
 31
0.0
  0
LINE
  5
6D04
330
1A
100
AcDbEntity
  8
NOKITOI
 48
5.0
100
AcDbLine
 10
379.7280864981105
 20
297.9796932625657
 30
0.0
 11
376.8592864981103
 21
269.2922932625657
 31
0.0
  0
ARC
  5
6D05
330
1A
100
AcDbEntity
  8
NOKITOI
 48
5.0
100
AcDbCircle
 10
375.196569072232
 20
269.7498607761778
 30
0.0
 40
0.4999904508696396
100
AcDbArc
 50
309.2900846377951
 51
354.2990110749239
  0
ARC
  5
6D06
330
1A
100
AcDbEntity
  8
NOKITOI
 48
5.0
100
AcDbCircle
 10
375.8642639252414
 20
269.3917511908931
 30
0.0
 40
0.9999908507640039
100
AcDbArc
 50
309.2887092230664
 51
354.286232947753
  0
LINE
  5
6D07
330
1A
100
AcDbEntity
  8
SEIHIN
100
AcDbLine
 10
357.7688702981102
 20
293.1193183925657
 30
0.0
 11
371.9262998981103
 21
289.4260758925657
 31
0.0
  0
LINE
  5
6D08
330
1A
100
AcDbEntity
  8
SEIHIN
100
AcDbLine
 10
353.9154082981103
 20
291.6245693525657
 30
0.0
 11
373.3393734981102
 21
287.8242283325657
 31
0.0
  0
LINE
  5
6D09
330
1A
100
AcDbEntity
  8
SEIHIN
100
AcDbLine
 10
358.8626065981102
 20
301.0230666525657
 30
0.0
 11
354.0456594981103
 21
294.6255587325657
 31
0.0
  0
ARC
  5
6D0A
330
1A
100
AcDbEntity
  8
SEIHIN
100
AcDbCircle
 10
358.0212921981103
 20
294.0869356625658
 30
0.0
 40
1.000000012500462
100
AcDbArc
 50
143.0224045627655
 51
255.3791258185317
  0
ARC
  5
6D0B
330
1A
100
AcDbEntity
  8
SEIHIN
100
AcDbCircle
 10
353.2467886981103
 20
295.2270614325657
 30
0.0
 40
1.000000009794456
100
AcDbArc
 50
263.0022595398054
 51
323.0224045627648
  0
LINE
  5
6D0C
330
1A
100
AcDbEntity
  8
SEIHIN
100
AcDbLine
 10
351.4378357981103
 20
305.1245693525657
 30
0.0
 11
361.4519711981103
 21
305.1245693525657
 31
0.0
  0
ARC
  5
6D0D
330
1A
100
AcDbEntity
  8
SEIHIN
100
AcDbCircle
 10
351.4378357981103
 20
306.1245693525657
 30
0.0
 40
0.9999999703489354
100
AcDbArc
 50
143.022401574128
 51
270.0
  0
ARC
  5
6D0E
330
1A
100
AcDbEntity
  8
SEIHIN
100
AcDbCircle
 10
358.0637358981102
 20
301.6245693525657
 30
0.0
 40
0.999999973356447
100
AcDbArc
 50
323.02240111641
 51
90.0
  0
ARC
  5
6D0F
330
1A
100
AcDbEntity
  8
SEIHIN
100
AcDbCircle
 10
361.4519711981103
 20
306.1245693525657
 30
0.0
 40
0.999999973356447
100
AcDbArc
 50
270.0
 51
323.02240111641
  0
LINE
  5
6D10
330
1A
100
AcDbEntity
  8
SEIHIN
100
AcDbLine
 10
375.4154082981103
 20
297.3745693525657
 30
0.0
 11
375.4154082981103
 21
292.4696929225657
 31
0.0
  0
LINE
  5
6D11
330
1A
100
AcDbEntity
  8
SEIHIN
100
AcDbLine
 10
376.9154082981103
 20
290.7684063025657
 30
0.0
 11
376.9154082981103
 21
297.3745693525657
 31
0.0
  0
ARC
  5
6D12
330
1A
100
AcDbEntity
  8
SEIHIN
100
AcDbCircle
 10
374.5510136981103
 20
289.9963921825657
 30
0.0
 40
2.000000013832122
100
AcDbArc
 50
81.61883292798746
 51
181.983005419143
  0
ARC
  5
6D13
330
1A
100
AcDbEntity
  8
SEIHIN
100
AcDbCircle
 10
373.9154082981103
 20
290.7684063025657
 30
0.0
 40
3.000000000820362
100
AcDbArc
 50
258.9297978010013
 51
0.0
  0
ARC
  5
6D14
330
1A
100
AcDbEntity
  8
SEIHIN
100
AcDbCircle
 10
372.0525108981103
 20
289.9098845225657
 30
0.0
 40
0.4999999698120126
100
AcDbArc
 50
255.3791201298638
 51
1.983005430227223
  0
ARC
  5
6D15
330
1A
100
AcDbEntity
  8
SEIHIN
100
AcDbCircle
 10
374.9154082981103
 20
292.4696929225657
 30
0.0
 40
0.4999999990316195
100
AcDbArc
 50
261.618835803932
 51
0.0
  0
ARC
  5
6D16
330
1A
100
AcDbEntity
  8
SEIHIN
100
AcDbCircle
 10
376.1654082981103
 20
297.3745693525657
 30
0.0
 40
0.75
100
AcDbArc
 50
0.0
 51
90.0
  0
ARC
  5
6D17
330
1A
100
AcDbEntity
  8
SEIHIN
100
AcDbCircle
 10
376.1654082981103
 20
297.3745693525657
 30
0.0
 40
0.75
100
AcDbArc
 50
90.0
 51
180.0
  0
ARC
  5
6D18
330
1A
100
AcDbEntity
  8
NOKITOI
 48
5.0
100
AcDbCircle
 10
379.1845995691148
 20
299.5802050928456
 30
0.0
 40
0.499988169890889
100
AcDbArc
 50
90.00149786226472
 51
174.2966061377164
  0
ARC
  5
6D19
330
1A
100
AcDbEntity
  8
NOKITOI
 48
5.0
100
AcDbCircle
 10
380.7231071479511
 20
297.8802119504149
 30
0.0
 40
0.9999813123640345
100
AcDbArc
 50
90.00118317084911
 51
174.2905900333514
  0
ARC
  5
6D1A
330
1A
100
AcDbEntity
  8
NOKITOI
 48
5.0
100
AcDbCircle
 10
380.7924906195168
 20
305.8801893525352
 30
0.0
 40
0.4999960899864752
100
AcDbArc
 50
183.0147243791742
 51
269.9995277178578
  0
LINE
  5
6D1B
330
1A
100
AcDbEntity
  8
SEIHIN
100
AcDbLine
 10
393.3267537981103
 20
289.6245693525657
 30
0.0
 11
401.5408964981102
 21
289.6245693525657
 31
0.0
  0
LINE
  5
6D1C
330
1A
100
AcDbEntity
  8
SEIHIN
100
AcDbLine
 10
390.4200348981103
 20
287.1245693525657
 30
0.0
 11
412.4205332981103
 21
287.1245693525657
 31
0.0
  0
LINE
  5
6D1D
330
1A
100
AcDbEntity
  8
SEIHIN
100
AcDbLine
 10
382.5528602981103
 20
297.1185941125657
 30
0.0
 11
387.4011168981103
 21
288.8536560125657
 31
0.0
  0
LINE
  5
6D1E
330
1A
100
AcDbEntity
  8
SEIHIN
100
AcDbLine
 10
384.1190409981102
 20
298.3351332025657
 30
0.0
 11
392.6231210981102
 21
289.9140054925657
 31
0.0
  0
ARC
  5
6D1F
330
1A
100
AcDbEntity
  8
SEIHIN
100
AcDbCircle
 10
390.4200348981103
 20
290.6245693525657
 30
0.0
 40
3.499999996322441
100
AcDbArc
 50
210.3961124587318
 51
270.0
  0
ARC
  5
6D20
330
1A
100
AcDbEntity
  8
SEIHIN
100
AcDbCircle
 10
387.9155082981103
 20
295.9830312925658
 30
0.0
 40
0.999999990359033
100
AcDbArc
 50
225.2808113641842
 51
0.0
  0
ARC
  5
6D21
330
1A
100
AcDbEntity
  8
SEIHIN
100
AcDbCircle
 10
393.3267537981103
 20
290.6245693525657
 30
0.0
 40
0.9999999939118499
100
AcDbArc
 50
225.280811767338
 51
270.0
  0
LINE
  5
6D22
330
1A
100
AcDbEntity
  8
NOKITOI
 48
5.0
100
AcDbLine
 10
387.2155864981102
 20
302.0175932625658
 30
0.0
 11
387.3010864981099
 21
304.7551932625657
 31
0.0
  0
ARC
  5
6D23
330
1A
100
AcDbEntity
  8
NOKITOI
 48
5.0
100
AcDbCircle
 10
385.2165244859345
 20
302.0801300831379
 30
0.0
 40
2.000036820932882
100
AcDbArc
 50
269.9989117490344
 51
358.2110591274196
  0
ARC
  5
6D24
330
1A
100
AcDbEntity
  8
SEIHIN
100
AcDbCircle
 10
383.4154082981104
 20
297.6245693525657
 30
0.0
 40
1.000000000797301
100
AcDbArc
 50
45.28081987008772
 51
210.39611394134
  0
ARC
  5
6D25
330
1A
100
AcDbEntity
  8
NOKITOI
 48
5.0
100
AcDbCircle
 10
386.8642037112883
 20
300.3802099457135
 30
0.0
 40
1.500016683246579
100
AcDbArc
 50
269.999342512336
 51
358.2076423244112
  0
LINE
  5
6D26
330
1A
100
AcDbEntity
  8
NOKITOI
 48
5.0
100
AcDbLine
 10
383.5365864981101
 20
305.9508932625657
 30
0.0
 11
383.2027864981103
 21
308.2870932625659
 31
0.0
  0
ARC
  5
6D27
330
1A
100
AcDbEntity
  8
NOKITOI
 48
5.0
100
AcDbCircle
 10
383.0415966845464
 20
305.8802050072898
 30
0.0
 40
0.5000117448278309
100
AcDbArc
 50
269.9988327478032
 51
8.127314608715781
  0
ARC
  5
6D28
330
1A
100
AcDbEntity
  8
SEIHIN
100
AcDbCircle
 10
406.5720494981103
 20
290.6245693525657
 30
0.0
 40
1.000000005031197
100
AcDbArc
 50
206.5650511770794
 51
270.0
  0
ARC
  5
6D29
330
1A
100
AcDbEntity
  8
SEIHIN
100
AcDbCircle
 10
401.5408964981102
 20
290.6245693525657
 30
0.0
 40
1.000000002795156
100
AcDbArc
 50
270.0
 51
26.56505066460709
  0
LINE
  5
6D2A
330
1A
100
AcDbEntity
  8
SEIHIN
100
AcDbLine
 10
406.5720494981103
 20
289.6245693525657
 30
0.0
 11
412.4205332981103
 21
289.6245693525657
 31
0.0
  0
ARC
  5
6D2B
330
1A
100
AcDbEntity
  8
SEIHIN
100
AcDbCircle
 10
412.4205332981103
 20
290.6245693525657
 30
0.0
 40
1.000000005031197
100
AcDbArc
 50
270.0
 51
296.5650511770797
  0
ARC
  5
6D2C
330
1A
100
AcDbEntity
  8
SEIHIN
100
AcDbCircle
 10
412.4205332981103
 20
290.6245693525657
 30
0.0
 40
3.500000004192798
100
AcDbArc
 50
270.0
 51
296.5650513967091
  0
LINE
  5
6D2D
330
1A
100
AcDbEntity
  8
SEIHIN
100
AcDbLine
 10
414.0027365981102
 20
290.2976369925657
 30
0.0
 11
412.8677468981102
 21
289.7301421525657
 31
0.0
  0
LINE
  5
6D2E
330
1A
100
AcDbEntity
  8
SEIHIN
100
AcDbLine
 10
378.0025692981102
 20
319.6245693725657
 30
0.0
 11
398.8392703981103
 21
319.6245693725657
 31
0.0
  0
LINE
  5
6D2F
330
1A
100
AcDbEntity
  8
SEIHIN
100
AcDbLine
 10
384.2003486981102
 20
330.5184979725657
 30
0.0
 11
377.2036985981103
 21
321.2260720725657
 31
0.0
  0
ARC
  5
6D30
330
1A
100
AcDbEntity
  8
SEIHIN
100
AcDbCircle
 10
393.0802915981103
 20
284.1245693525657
 30
0.0
 40
50.00000002471831
100
AcDbArc
 50
90.0000013750972
 51
143.0224036844838
  0
ARC
  5
6D31
330
1A
100
AcDbEntity
  8
SEIHIN
100
AcDbCircle
 10
383.0943715981102
 20
299.1245693525657
 30
0.0
 40
17.99999999169336
100
AcDbArc
 50
90.00000063661738
 51
143.0224035665539
  0
LINE
  5
6D32
330
1A
100
AcDbEntity
  8
NOKITOI
 48
5.0
100
AcDbLine
 10
380.4766864981104
 20
312.3801932625657
 30
0.0
 11
382.7081864981103
 21
312.3801932625657
 31
0.0
  0
LINE
  5
6D33
330
1A
100
AcDbEntity
  8
NOKITOI
 48
5.0
100
AcDbLine
 10
381.8304864981103
 20
309.4085932625656
 30
0.0
 11
381.27548649811
 21
310.0215932625657
 31
0.0
  0
ARC
  5
6D34
330
1A
100
AcDbEntity
  8
SEIHIN
100
AcDbCircle
 10
393.0802915981103
 20
284.1245693525657
 30
0.0
 40
47.49999999658141
100
AcDbArc
 50
108.9118435138239
 51
143.0224021282104
  0
ARC
  5
6D35
330
1A
100
AcDbEntity
  8
SEIHIN
100
AcDbCircle
 10
378.0025692981102
 20
320.6245693725657
 30
0.0
 40
0.999999973356447
100
AcDbArc
 50
143.0224011164101
 51
270.0
  0
ARC
  5
6D36
330
1A
100
AcDbEntity
  8
NOKITOI
 48
5.0
100
AcDbCircle
 10
380.4766902076055
 20
311.8801971725964
 30
0.0
 40
0.4999960899831856
100
AcDbArc
 50
90.00042508014919
 51
183.0156217414646
  0
ARC
  5
6D37
330
1A
100
AcDbEntity
  8
SEIHIN
100
AcDbCircle
 10
378.0090382981102
 20
328.1144241725657
 30
0.0
 40
0.9999999784759632
100
AcDbArc
 50
323.0224045627655
 51
108.9118463961546
  0
LINE
  5
6D38
330
1A
100
AcDbEntity
  8
SEIHIN
100
AcDbLine
 10
395.4433723981103
 20
334.1245693725657
 30
0.0
 11
394.5489451981102
 21
331.4412877725657
 31
0.0
  0
ARC
  5
6D39
330
1A
100
AcDbEntity
  8
SEIHIN
100
AcDbCircle
 10
392.6044743981103
 20
328.6220254725658
 30
0.0
 40
2.999999948164375
100
AcDbArc
 50
26.56505032296323
 51
90.6126487066642
  0
ARC
  5
6D3A
330
1A
100
AcDbEntity
  8
SEIHIN
100
AcDbCircle
 10
393.0802915981103
 20
284.1245693525657
 30
0.0
 40
47.50000002986444
100
AcDbArc
 50
90.61264806290997
 51
100.0080474570677
  0
LINE
  5
6D3B
330
1A
100
AcDbEntity
  8
CENTER_L
 48
5.0
100
AcDbLine
 10
392.7600671236108
 20
319.3665680853161
 30
0.0
 11
410.6486109118852
 21
328.3108399794532
 31
0.0
  0
LINE
  5
6D3C
330
1A
100
AcDbEntity
  8
SEIHIN
100
AcDbLine
 10
383.0943713981103
 20
317.1245693725657
 30
0.0
 11
399.8532023981102
 21
317.1245693725657
 31
0.0
  0
ARC
  5
6D3D
330
1A
100
AcDbEntity
  8
SEIHIN
100
AcDbCircle
 10
387.5548284981102
 20
314.1245693525657
 30
0.0
 40
3.00000002062146
100
AcDbArc
 50
26.56505083543157
 51
90.0
  0
ARC
  5
6D3E
330
1A
100
AcDbEntity
  8
NOKITOI
 48
5.0
100
AcDbCircle
 10
386.7545752611161
 20
312.8802048563828
 30
0.0
 40
1.999988406214315
100
AcDbArc
 50
358.2088726535938
 51
89.99967808195389
  0
LINE
  5
6D3F
330
1A
100
AcDbEntity
  8
NOKITOI
 48
5.0
100
AcDbLine
 10
383.1984864981102
 20
312.9781932625659
 30
0.0
 11
382.9376864981102
 21
314.2821932625658
 31
0.0
  0
LINE
  5
6D40
330
1A
100
AcDbEntity
  8
NOKITOI
 48
5.0
100
AcDbLine
 10
386.7545864981104
 20
313.6800932625657
 30
0.0
 11
384.2818864981102
 21
313.6801932625659
 31
0.0
  0
LINE
  5
6D41
330
1A
100
AcDbEntity
  8
NOKITOI
 48
5.0
100
AcDbLine
 10
384.2818864981102
 20
313.6801932625659
 30
0.0
 11
384.7818864981102
 21
311.1801932625659
 31
0.0
  0
LINE
  5
6D42
330
1A
100
AcDbEntity
  8
NOKITOI
 48
5.0
100
AcDbLine
 10
382.8410864981103
 20
310.0801932625657
 30
0.0
 11
381.8452864981102
 21
311.1801932625659
 31
0.0
  0
LINE
  5
6D43
330
1A
100
AcDbEntity
  8
NOKITOI
 48
5.0
100
AcDbLine
 10
382.8410864981103
 20
310.0801932625657
 30
0.0
 11
383.3030864981103
 21
310.0801932625657
 31
0.0
  0
ARC
  5
6D44
330
1A
100
AcDbEntity
  8
NOKITOI
 48
5.0
100
AcDbCircle
 10
382.7081857151017
 20
312.880192307564
 30
0.0
 40
0.4999990449987399
100
AcDbArc
 50
270.0000897263067
 51
11.30328019845552
  0
LINE
  5
6D45
330
1A
100
AcDbEntity
  8
NOKITOI
 48
5.0
100
AcDbLine
 10
384.7818864981102
 20
311.1801932625659
 30
0.0
 11
381.8452864981102
 21
311.1801932625659
 31
0.0
  0
ARC
  5
6D46
330
1A
100
AcDbEntity
  8
NOKITOI
 48
5.0
100
AcDbCircle
 10
386.7546304644631
 20
312.8801479000927
 30
0.0
 40
0.7999453636812564
100
AcDbArc
 50
358.2123436447881
 51
90.00314907315425
  0
LINE
  5
6D47
330
1A
100
AcDbEntity
  8
NOKITOI
 48
5.0
100
AcDbLine
 10
386.7545864981104
 20
314.8800932625657
 30
0.0
 11
383.4279864981101
 21
314.8801932625657
 31
0.0
  0
ARC
  5
6D48
330
1A
100
AcDbEntity
  8
NOKITOI
 48
5.0
100
AcDbCircle
 10
383.4279792435547
 20
314.3801844127223
 30
0.0
 40
0.500008849895925
100
AcDbArc
 50
89.99916870385741
 51
191.3135956695126
  0
ARC
  5
6D49
330
1A
100
AcDbEntity
  8
SEIHIN
100
AcDbCircle
 10
385.9155082981103
 20
314.1245693525657
 30
0.0
 40
3.00000001
100
AcDbArc
 50
0.0
 51
90.0
  0
ARC
  5
6D4A
330
1A
100
AcDbEntity
  8
SEIHIN
100
AcDbCircle
 10
393.8220494981103
 20
316.1245693725657
 30
0.0
 40
1.000000005031197
100
AcDbArc
 50
90.0
 51
206.5650511770794
  0
ARC
  5
6D4B
330
1A
100
AcDbEntity
  8
SEIHIN
100
AcDbCircle
 10
384.9992194981102
 20
329.9169952725657
 30
0.0
 40
1.000000036424422
100
AcDbArc
 50
100.0080471782631
 51
143.0224045627648
  0
ARC
  5
6D4C
330
1A
100
AcDbEntity
  8
SEIHIN
100
AcDbCircle
 10
398.8392703981103
 20
320.6245693725657
 30
0.0
 40
1.000000005031222
100
AcDbArc
 50
270.0
 51
26.56505117707507
  0
ARC
  5
6D4D
330
1A
100
AcDbEntity
  8
SEIHIN
100
AcDbCircle
 10
399.8532023981102
 20
314.1245693525657
 30
0.0
 40
3.00000002062146
100
AcDbArc
 50
26.56505083543157
 51
90.0
  0
LINE
  5
6D4E
330
1A
100
AcDbEntity
  8
SEIHIN
100
AcDbLine
 10
393.0802903981102
 20
334.1245693725657
 30
0.0
 11
399.9155082981103
 21
334.1245693725657
 31
0.0
  0
LINE
  5
6D4F
330
1A
100
AcDbEntity
  8
SEIHIN
100
AcDbLine
 10
395.4433723981103
 20
334.1245693725657
 30
0.0
 11
395.4433723981103
 21
334.1245693725657
 31
0.0
  0
ELLIPSE
  5
6D50
330
1A
100
AcDbEntity
  8
SEIHIN
100
AcDbEllipse
 10
410.648599194504
 20
464.1960748445301
 30
0.0
 11
-0.0000178779101251
 21
1.999999999920067
 31
0.0
210
0.0
220
0.0
230
-1.0
 40
0.447231489677555
 41
3.141592653589793
 42
4.712388980384689
  0
ELLIPSE
  5
6D51
330
1A
100
AcDbEntity
  8
SEIHIN
100
AcDbEllipse
 10
410.6477348027818
 20
474.1880134770358
 30
0.0
 11
0.0000178779101251
 21
-1.999999999920067
 31
0.0
210
0.0
220
0.0
230
-1.0
 40
0.447231489677555
 41
1.570796326794896
 42
2.591444082176193
  0
ELLIPSE
  5
6D52
330
1A
100
AcDbEntity
  8
SEIHIN
100
AcDbEllipse
 10
412.3813768866421
 20
483.1963954345112
 30
0.0
 11
-0.0000266565493905
 21
2.982065487843017
 31
0.0
210
0.0
220
0.0
230
-1.0
 40
0.4686569565874931
 41
6.608909175477555
 42
7.853981633974482
  0
ELLIPSE
  5
6D53
330
1A
100
AcDbEntity
  8
SEIHIN
100
AcDbEllipse
 10
404.387410509217
 20
483.1961239768049
 30
0.0
 11
0.0000187718056314
 21
-2.099999999916065
 31
0.0
210
0.0
220
0.0
230
1.0
 40
0.4578615300608432
 41
0.0
 42
6.283185307179586
  0
ELLIPSE
  5
6D54
330
1A
100
AcDbEntity
  8
SEIHIN
100
AcDbEllipse
 10
400.4253351018831
 20
481.195983459911
 30
0.0
 11
-0.0000893895506255
 21
9.999999999600476
 31
0.0
210
0.0
220
0.0
230
-1.0
 40
0.4982154890433663
 41
4.712388980384689
 42
6.283185307179586
  0
ELLIPSE
  5
6D55
330
1A
100
AcDbEntity
  8
SEIHIN
100
AcDbEllipse
 10
404.8974710982126
 20
481.1960234361337
 30
0.0
 11
-0.0000893895506255
 21
9.999999999600476
 31
0.0
210
0.0
220
0.0
230
-1.0
 40
0.4982154890433663
 41
4.712388980384689
 42
6.283185307179586
  0
ELLIPSE
  5
6D56
330
1A
100
AcDbEntity
  8
SEIHIN
100
AcDbEllipse
 10
408.613578966001
 20
483.1961617543349
 30
0.0
 11
0.0000294985517064
 21
-3.299999999868167
 31
0.0
210
0.0
220
0.0
230
1.0
 40
0.4472135871877411
 41
0.0
 42
6.283185307179586
  0
ELLIPSE
  5
6D57
330
1A
100
AcDbEntity
  8
SEIHIN
100
AcDbEllipse
 10
408.6137890318388
 20
436.196073682845
 30
0.0
 11
0.0
 21
3.300000000000011
 31
0.0
210
0.0
220
0.0
230
-1.0
 40
0.4472135871877411
 41
0.0
 42
6.283185307179586
  0
ELLIPSE
  5
6D58
330
1A
100
AcDbEntity
  8
SEIHIN
100
AcDbEllipse
 10
404.3876205748858
 20
436.196073682845
 30
0.0
 11
0.0
 21
2.099999999999965
 31
0.0
210
0.0
220
0.0
230
-1.0
 40
0.4578615300608432
 41
0.0
 42
6.283185307179586
  0
ELLIPSE
  5
6D59
330
1A
100
AcDbEntity
  8
SEIHIN
100
AcDbEllipse
 10
412.381586954418
 20
436.195873682845
 30
0.0
 11
0.0
 21
-2.982065487962159
 31
0.0
210
0.0
220
0.0
230
1.0
 40
0.4686569565874931
 41
6.608909175477555
 42
7.853981633974482
  0
ELLIPSE
  5
6D5A
330
1A
100
AcDbEntity
  8
SEIHIN
100
AcDbEllipse
 10
410.648639419337
 20
455.196178782845
 30
0.0
 11
0.0
 21
-1.999999999999971
 31
0.0
210
0.0
220
0.0
230
1.0
 40
0.447231489677555
 41
3.141592653589793
 42
4.712388980384689
  0
ELLIPSE
  5
6D5B
330
1A
100
AcDbEntity
  8
SEIHIN
100
AcDbEllipse
 10
410.6478643451055
 20
445.2042401430118
 30
0.0
 11
0.0
 21
1.999999999999971
 31
0.0
210
0.0
220
0.0
230
1.0
 40
0.447231489677555
 41
1.570796326794896
 42
2.591444082176193
  0
ELLIPSE
  5
6D5C
330
1A
100
AcDbEntity
  8
SEIHIN
100
AcDbEllipse
 10
403.0459703657514
 20
472.6961787828449
 30
0.0
 11
0.0
 21
2.000000000000028
 31
0.0
210
0.0
220
0.0
230
-1.0
 40
0.4472135954999538
 41
4.712388980384689
 42
6.283185307179586
  0
ELLIPSE
  5
6D5D
330
1A
100
AcDbEntity
  8
SEIHIN
100
AcDbEllipse
 10
406.1764655503066
 20
472.6961787828449
 30
0.0
 11
0.0
 21
2.000000000000028
 31
0.0
210
0.0
220
0.0
230
-1.0
 40
0.4472135954999538
 41
6.283185307179586
 42
7.853981633974482
  0
ELLIPSE
  5
6D5E
330
1A
100
AcDbEntity
  8
SEIHIN
100
AcDbEllipse
 10
407.0708927413066
 20
472.6961787828449
 30
0.0
 11
0.0
 21
2.000000000000028
 31
0.0
210
0.0
220
0.0
230
-1.0
 40
0.4472135954999538
 41
6.283185307179586
 42
7.853981633974482
  0
ELLIPSE
  5
6D5F
330
1A
100
AcDbEntity
  8
SEIHIN
100
AcDbEllipse
 10
406.1764655503066
 20
446.6961787828451
 30
0.0
 11
0.0
 21
-2.000000000000028
 31
0.0
210
0.0
220
0.0
230
1.0
 40
0.4472135954999538
 41
6.283185307179586
 42
7.853981633974482
  0
ELLIPSE
  5
6D60
330
1A
100
AcDbEntity
  8
SEIHIN
100
AcDbEllipse
 10
403.0459703657514
 20
446.696178782845
 30
0.0
 11
0.0
 21
-2.000000000000028
 31
0.0
210
0.0
220
0.0
230
1.0
 40
0.4472135954999538
 41
4.712388980384689
 42
6.283185307179586
  0
ELLIPSE
  5
6D61
330
1A
100
AcDbEntity
  8
SEIHIN
100
AcDbEllipse
 10
407.0708927413066
 20
446.6961787828451
 30
0.0
 11
0.0
 21
-2.000000000000028
 31
0.0
210
0.0
220
0.0
230
1.0
 40
0.4472135954999538
 41
6.283185307179586
 42
7.853981633974482
  0
ELLIPSE
  5
6D62
330
1A
100
AcDbEntity
  8
SEIHIN
100
AcDbEllipse
 10
400.4255272885439
 20
438.196178782845
 30
0.0
 11
0.0
 21
-10.0
 31
0.0
210
0.0
220
0.0
230
1.0
 40
0.4982154890433663
 41
4.712388980384689
 42
6.283185307179586
  0
ELLIPSE
  5
6D63
330
1A
100
AcDbEntity
  8
SEIHIN
100
AcDbEllipse
 10
404.8976632850521
 20
438.196178782845
 30
0.0
 11
0.0
 21
-10.0
 31
0.0
210
0.0
220
0.0
230
1.0
 40
0.4982154890433663
 41
4.712388980384689
 42
6.283185307179586
  0
LINE
  5
6D64
330
1A
100
AcDbEntity
  8
SEIHIN
100
AcDbLine
 10
278.6022082981103
 20
449.6961787828451
 30
0.0
 11
390.4433723981103
 21
449.6961787828451
 31
0.0
  0
LINE
  5
6D65
330
1A
100
AcDbEntity
  8
SEIHIN
100
AcDbLine
 10
278.6022082981103
 20
469.6961787828451
 30
0.0
 11
390.9022082981103
 21
469.6961787828451
 31
0.0
  0
LINE
  5
6D67
330
1A
100
AcDbEntity
  8
SEIHIN
100
AcDbLine
 10
277.6022082981103
 20
471.696178782845
 30
0.0
 11
277.6022082981103
 21
470.6961787828451
 31
0.0
  0
LINE
  5
6D68
330
1A
100
AcDbEntity
  8
SEIHIN
100
AcDbLine
 10
274.6022082981103
 20
447.696178782845
 30
0.0
 11
274.6022082981103
 21
471.696178782845
 31
0.0
  0
LINE
  5
6D69
330
1A
100
AcDbEntity
  8
SEIHIN
100
AcDbLine
 10
270.9022082981102
 20
447.696078782845
 30
0.0
 11
270.9022082981102
 21
471.696178782845
 31
0.0
  0
LINE
  5
6D6A
330
1A
100
AcDbEntity
  8
SEIHIN
100
AcDbLine
 10
277.6022082981103
 20
471.696178782845
 30
0.0
 11
277.6022082981103
 21
470.6961787828451
 31
0.0
  0
LINE
  5
6D6B
330
1A
100
AcDbEntity
  8
SEIHIN
100
AcDbLine
 10
277.6022082981103
 20
447.696178782845
 30
0.0
 11
277.6022082981103
 21
448.6961787828451
 31
0.0
  0
LINE
  5
6D6C
330
1A
100
AcDbEntity
  8
SEIHIN
100
AcDbLine
 10
277.6022082981103
 20
447.696078782845
 30
0.0
 11
277.6022082981103
 21
448.6961787828451
 31
0.0
  0
LINE
  5
6D6D
330
1A
100
AcDbEntity
  8
SEIHIN
100
AcDbLine
 10
270.9022082981102
 20
447.696178782845
 30
0.0
 11
277.6022082981103
 21
447.696178782845
 31
0.0
  0
ARC
  5
6D6E
330
1A
100
AcDbEntity
  8
SEIHIN
100
AcDbCircle
 10
278.6022082981103
 20
448.6961787828451
 30
0.0
 40
1.0
100
AcDbArc
 50
90.0
 51
180.0
  0
ARC
  5
6D6F
330
1A
100
AcDbEntity
  8
SEIHIN
100
AcDbCircle
 10
278.6022082981103
 20
470.6961787828451
 30
0.0
 40
1.0
100
AcDbArc
 50
180.0
 51
270.0
  0
LINE
  5
6D70
330
1A
100
AcDbEntity
  8
SEIHIN
100
AcDbLine
 10
270.9022082981102
 20
471.696178782845
 30
0.0
 11
277.6022082981103
 21
471.696178782845
 31
0.0
  0
LINE
  5
6D71
330
1A
100
AcDbEntity
  8
SEIHIN
100
AcDbLine
 10
399.915316207978
 20
481.195978900875
 30
0.0
 11
399.9155083946184
 21
438.196178782845
 31
0.0
  0
LINE
  5
6D72
330
1A
100
AcDbEntity
  8
SEIHIN
100
AcDbLine
 10
409.7541362151844
 20
464.1960668489657
 30
0.0
 11
409.7532718234624
 21
474.1880054814714
 31
0.0
  0
ARC
  5
6D73
330
1A
100
AcDbEntity
  8
SEIHIN
100
AcDbCircle
 10
389.5488111150918
 20
474.6958862348922
 30
0.0
 40
5.0
100
AcDbArc
 50
270.0005121643966
 51
0.0005121643983381
  0
ARC
  5
6D74
330
1A
100
AcDbEntity
  8
SEIHIN
100
AcDbCircle
 10
390.443238315056
 20
474.6958942301366
 30
0.0
 40
5.0
100
AcDbArc
 50
270.0005121643966
 51
0.0005121643983381
  0
LINE
  5
6D75
330
1A
100
AcDbEntity
  8
SEIHIN
100
AcDbLine
 10
407.0708927413066
 20
446.6961787828451
 30
0.0
 11
407.0708927413066
 21
472.6961787828449
 31
0.0
  0
LINE
  5
6D76
330
1A
100
AcDbEntity
  8
SEIHIN
100
AcDbLine
 10
407.9653199323063
 20
446.6961787828451
 30
0.0
 11
407.9653199323063
 21
472.6961787828449
 31
0.0
  0
LINE
  5
6D77
330
1A
100
AcDbEntity
  8
SEIHIN
100
AcDbLine
 10
402.1515431747515
 20
446.696178782845
 30
0.0
 11
402.1515431747515
 21
472.6961787828449
 31
0.0
  0
LINE
  5
6D78
330
1A
100
AcDbEntity
  8
SEIHIN
100
AcDbLine
 10
346.2899082981103
 20
468.696178782845
 30
0.0
 11
346.2899082981103
 21
459.696178782845
 31
0.0
  0
LINE
  5
6D79
330
1A
100
AcDbEntity
  8
SEIHIN
100
AcDbLine
 10
346.2899082981103
 20
450.696178782845
 30
0.0
 11
346.2899082981103
 21
459.6960787828449
 31
0.0
  0
ARC
  5
6D7A
330
1A
100
AcDbEntity
  8
SEIHIN
100
AcDbCircle
 10
390.4433723981103
 20
444.6961787828451
 30
0.0
 40
5.0
100
AcDbArc
 50
0.0
 51
90.0
  0
ARC
  5
6D7B
330
1A
100
AcDbEntity
  8
SEIHIN
100
AcDbCircle
 10
389.5489451981102
 20
444.6961787828451
 30
0.0
 40
5.0
100
AcDbArc
 50
0.0
 51
90.0
  0
LINE
  5
6D7C
330
1A
100
AcDbEntity
  8
SEIHIN
100
AcDbLine
 10
409.754176439982
 20
455.196178782845
 30
0.0
 11
409.7534013657504
 21
445.2042401430118
 31
0.0
  0
LINE
  5
6D7D
330
1A
100
AcDbEntity
  8
SEIHIN
100
AcDbLine
 10
394.5489451981102
 20
438.196178782845
 30
0.0
 11
396.2016660422798
 21
432.8929868102697
 31
0.0
  0
LINE
  5
6D7E
330
1A
100
AcDbEntity
  8
SEIHIN
100
AcDbLine
 10
394.5489451981102
 20
438.196178782845
 30
0.0
 11
394.5489451981102
 21
444.6961787828451
 31
0.0
  0
LINE
  5
6D7F
330
1A
100
AcDbEntity
  8
SEIHIN
100
AcDbLine
 10
395.4433723981103
 20
438.196178782845
 30
0.0
 11
395.4433723981103
 21
444.6961787828451
 31
0.0
  0
LINE
  5
6D80
330
1A
100
AcDbEntity
  8
CENTER_L
 48
5.0
100
AcDbLine
 10
408.6137890318388
 20
442.4960736828451
 30
0.0
 11
408.6137890318388
 21
429.8965967706947
 31
0.0
  0
LINE
  5
6D81
330
1A
100
AcDbEntity
  8
CENTER_L
 48
5.0
100
AcDbLine
 10
404.3876205748858
 20
431.0964233949934
 30
0.0
 11
404.3876205748858
 21
441.296073682845
 31
0.0
  0
ARC
  5
6D82
330
1A
100
AcDbEntity
  8
SEIHIN
100
AcDbCircle
 10
397.7718412731909
 20
436.7649439039163
 30
0.0
 40
14.11808081200316
100
AcDbArc
 50
357.6899014863211
 51
28.49000996679034
  0
LINE
  5
6D83
330
1A
100
AcDbEntity
  8
SEIHIN
100
AcDbLine
 10
403.0459703657514
 20
444.6961787828451
 30
0.0
 11
407.0708927413066
 21
444.6961787828451
 31
0.0
  0
LINE
  5
6D84
330
1A
100
AcDbEntity
  8
SEIHIN
100
AcDbLine
 10
394.5487530116841
 20
481.1959309294077
 30
0.0
 11
396.201426450793
 21
486.4991376753685
 31
0.0
  0
LINE
  5
6D85
330
1A
100
AcDbEntity
  8
SEIHIN
100
AcDbLine
 10
395.4431802116485
 20
481.1959389246523
 30
0.0
 11
395.4432383148564
 21
474.695938924912
 31
0.0
  0
LINE
  5
6D86
330
1A
100
AcDbEntity
  8
SEIHIN
100
AcDbLine
 10
394.5487530116841
 20
481.1959309294077
 30
0.0
 11
394.5488111148921
 21
474.6959309296674
 31
0.0
  0
ARC
  5
6D87
330
1A
100
AcDbEntity
  8
SEIHIN
100
AcDbCircle
 10
397.7716362928919
 20
482.6271946176025
 30
0.0
 40
14.11808081200316
100
AcDbArc
 50
331.510502197607
 51
2.310610678077088
  0
LINE
  5
6D88
330
1A
100
AcDbEntity
  8
CENTER_L
 48
5.0
100
AcDbLine
 10
404.3873649236722
 20
488.2957742644529
 30
0.0
 11
404.3874560978879
 21
478.0961239770087
 31
0.0
  0
LINE
  5
6D89
330
1A
100
AcDbEntity
  8
CENTER_L
 48
5.0
100
AcDbLine
 10
408.613635281418
 20
476.8961617545866
 30
0.0
 11
408.6135226552601
 21
489.4956386662335
 31
0.0
  0
LINE
  5
6D8A
330
1A
100
AcDbEntity
  8
SEIHIN
100
AcDbLine
 10
403.0459703657514
 20
474.696178782845
 30
0.0
 11
407.0708927413066
 21
474.696178782845
 31
0.0
  0
LINE
  5
6D8D
330
1A
100
AcDbEntity
  8
CENTER_L
 48
5.0
100
AcDbLine
 10
563.312897327756
 20
376.859814013274
 30
0.0
 11
567.9191973284
 21
367.6472140119861
 31
0.0
  0
LINE
  5
6D8E
330
1A
100
AcDbEntity
  8
CENTER_L
 48
5.0
100
AcDbLine
 10
561.0097473274342
 20
369.9503640123081
 30
0.0
 11
570.222347328722
 21
374.5566640129521
 31
0.0
  0
CIRCLE
  5
6D8F
330
1A
100
AcDbEntity
  8
SEIHIN
100
AcDbCircle
 10
565.6160473280781
 20
372.2535140126301
 30
0.0
 40
2.149999963098603
  0
LINE
  5
6D90
330
1A
100
AcDbEntity
  8
CENTER_L
 48
5.0
100
AcDbLine
 10
508.7529220975111
 20
366.7976616473466
 30
0.0
 11
520.0227045986451
 21
372.4325528979136
 31
0.0
  0
LINE
  5
6D91
330
1A
100
AcDbEntity
  8
CENTER_L
 48
5.0
100
AcDbLine
 10
507.8584948877566
 20
382.6737441932732
 30
0.0
 11
517.2052589733616
 21
363.9802160220631
 31
0.0
  0
ARC
  5
6D92
330
1A
100
AcDbEntity
  8
SEIHIN
100
AcDbCircle
 10
565.6160053480782
 20
372.2534862726301
 30
0.0
 40
7.000000025729447
100
AcDbArc
 50
116.5651657505082
 51
206.565165750512
  0
LINE
  5
6D93
330
1A
100
AcDbEntity
  8
SEIHIN
100
AcDbLine
 10
522.7828589480782
 20
370.9616615726301
 30
0.0
 11
532.5222386480781
 21
375.8313756726301
 31
0.0
  0
LINE
  5
6D94
330
1A
100
AcDbEntity
  8
CENTER_L
 48
5.0
100
AcDbLine
 10
524.3367141480782
 20
402.2647393726301
 30
0.0
 11
551.4771202480781
 21
347.9839271726301
 31
0.0
  0
ARC
  5
6D95
330
1A
100
AcDbEntity
  8
SEIHIN
100
AcDbCircle
 10
563.488792048078
 20
372.0362335726301
 30
0.0
 40
9.999994203777333
100
AcDbArc
 50
298.5645896357784
 51
26.56513137852861
  0
LINE
  5
6D96
330
1A
100
AcDbEntity
  8
SEIHIN
100
AcDbLine
 10
548.174754648078
 20
360.1788282726301
 30
0.0
 11
539.6776597480782
 21
377.1730182726301
 31
0.0
  0
LINE
  5
6D97
330
1A
100
AcDbEntity
  8
SEIHIN
100
AcDbLine
 10
543.702618748078
 20
357.9427603726301
 30
0.0
 11
535.2055237480781
 21
374.9369502726301
 31
0.0
  0
CIRCLE
  5
6D98
330
1A
100
AcDbEntity
  8
SEIHIN
100
AcDbCircle
 10
514.3878133480781
 20
369.6151072726301
 30
0.0
 40
3.299999941043272
  0
LINE
  5
6D99
330
1A
100
AcDbEntity
  8
SEIHIN
100
AcDbLine
 10
503.516280748078
 20
373.4695146726301
 30
0.0
 11
515.9126440480782
 21
348.6769121726301
 31
0.0
  0
LINE
  5
6D9C
330
1A
100
AcDbEntity
  8
SUNPOU
100
AcDbLine
 10
428.3588907977669
 20
277.5446992245258
 30
0.0
 11
454.465947197767
 21
225.3305864445257
 31
0.0
  0
LINE
  5
6D9D
330
1A
100
AcDbEntity
  8
SUNPOU
100
AcDbLine
 10
443.3229057977668
 20
247.6166692245257
 30
0.0
 11
443.3229057977668
 21
225.3305864445257
 31
0.0
  0
MTEXT
  5
6D9E
330
1A
100
AcDbEntity
  8
SUNPOU
100
AcDbMText
 10
429.2397215977667
 20
238.1099227305257
 30
0.0
 40
6.349999666
 41
0.0
 71
     1
 72
     5
  1
{\W1.269841;10}
1001
ACAD
1000
MTEXTBEGIN
1070
    73
1070
     1
1070
    44
1040
1.0
1070
    74
1070
     0
1000
MTEXTEND
1000
MTEXTBEGIN
1070
    73
1070
     1
1070
    44
1040
1.0
1070
    74
1070
     0
1000
MTEXTEND
1000
MTEXTBEGIN
1070
    73
1070
     1
1070
    44
1040
1.0
1070
    74
1070
     0
1000
MTEXTEND
1000
MTEXTBEGIN
1070
    73
1070
     1
1070
    44
1040
1.0
1070
    74
1070
     0
1000
MTEXTEND
  0
MTEXT
  5
6D9F
330
1A
100
AcDbEntity
  8
SUNPOU
100
AcDbMText
 10
445.878016797767
 20
222.3388214705257
 30
0.0
 40
6.349999666
 41
0.0
 71
     1
 72
     5
  1
{\W1.111111;5}
1001
ACAD
1000
MTEXTBEGIN
1070
    73
1070
     1
1070
    44
1040
1.0
1070
    74
1070
     0
1000
MTEXTEND
1000
MTEXTBEGIN
1070
    73
1070
     1
1070
    44
1040
1.0
1070
    74
1070
     0
1000
MTEXTEND
1000
MTEXTBEGIN
1070
    73
1070
     1
1070
    44
1040
1.0
1070
    74
1070
     0
1000
MTEXTEND
1000
MTEXTBEGIN
1070
    73
1070
     1
1070
    44
1040
1.0
1070
    74
1070
     0
1000
MTEXTEND
  0
LINE
  5
6DA0
330
1A
100
AcDbEntity
  8
SUNPOU
100
AcDbLine
 10
454.465947197767
 20
225.3305864445257
 30
0.0
 11
443.3229057977668
 21
225.3305864445257
 31
0.0
  0
LINE
  5
6DA6
330
1A
100
AcDbEntity
  8
SEIHIN
100
AcDbLine
 10
416.0151977981104
 20
288.5087826025657
 30
0.0
 11
418.6984792981101
 21
287.6143554125657
 31
0.0
  0
LINE
  5
6DA7
330
1A
100
AcDbEntity
  8
SEIHIN
100
AcDbLine
 10
422.2761880981101
 20
289.4032098025657
 30
0.0
 11
418.6984792981101
 21
287.6143554125657
 31
0.0
  0
LINE
  5
6DA8
330
1A
100
AcDbEntity
  8
SEIHIN
100
AcDbLine
 10
549.0691859480782
 20
352.7997959726301
 30
0.0
 11
528.8548807480781
 21
343.9830288726301
 31
0.0
  0
LINE
  5
6DA9
330
1A
100
AcDbEntity
  8
CENTER_L
 48
5.0
100
AcDbLine
 10
521.2749474677561
 20
355.8408390332741
 30
0.0
 11
525.8812474684
 21
346.6282390319861
 31
0.0
  0
LINE
  5
6DAA
330
1A
100
AcDbEntity
  8
CENTER_L
 48
5.0
100
AcDbLine
 10
518.9717974674342
 20
348.9313890323082
 30
0.0
 11
528.1843974687221
 21
353.5376890329521
 31
0.0
  0
ARC
  5
6DAB
330
1A
100
AcDbEntity
  8
SEIHIN
100
AcDbCircle
 10
524.8569080480781
 20
353.1490656726301
 30
0.0
 40
10.00000079395389
100
AcDbArc
 50
206.5651613579128
 51
293.5655034198376
  0
ARC
  5
6DAC
330
1A
100
AcDbEntity
  8
SEIHIN
100
AcDbCircle
 10
532.969630148078
 20
352.5761765726301
 30
0.0
 40
1.999999953046623
100
AcDbArc
 50
206.5649371527143
 51
296.5649397150606
  0
ARC
  5
6DAD
330
1A
100
AcDbEntity
  8
SEIHIN
100
AcDbCircle
 10
517.6523558480782
 20
360.8496620726301
 30
0.0
 40
2.000000020126909
100
AcDbArc
 50
116.5650703946642
 51
206.5649358715476
  0
CIRCLE
  5
6DAE
330
1A
100
AcDbEntity
  8
SEIHIN
100
AcDbCircle
 10
523.5780974680781
 20
351.2345390326301
 30
0.0
 40
2.149999963098603
  0
ARC
  5
6DAF
330
1A
100
AcDbEntity
  8
SEIHIN
100
AcDbCircle
 10
523.5781420480782
 20
351.2345545726301
 30
0.0
 40
7.000000025729336
100
AcDbArc
 50
26.56493696969551
 51
116.5649369696958
  0
ARC
  5
6DB0
330
1A
100
AcDbEntity
  8
SEIHIN
100
AcDbCircle
 10
518.6586287480781
 20
358.8371061726301
 30
0.0
 40
1.999999997768044
100
AcDbArc
 50
206.5649397150604
 51
296.5649358715442
  0
LINE
  5
6DB1
330
1A
100
AcDbEntity
  8
SEIHIN
100
AcDbLine
 10
515.8634996480779
 20
359.9552384726301
 30
0.0
 11
516.8697726480782
 21
357.9426824726301
 31
0.0
  0
LINE
  5
6DB2
330
1A
100
AcDbEntity
  8
SEIHIN
100
AcDbLine
 10
520.4475699480781
 20
357.4955064726301
 30
0.0
 11
519.5531418480782
 21
357.0482946726301
 31
0.0
  0
LINE
  5
6DB3
330
1A
100
AcDbEntity
  8
SEIHIN
100
AcDbLine
 10
529.8391386480782
 20
354.36503727263
 30
0.0
 11
531.180774048078
 21
351.6817529726301
 31
0.0
  0
ARC
  5
6DB4
330
1A
100
AcDbEntity
  8
SEIHIN
100
AcDbCircle
 10
514.3878133480781
 20
369.6151072726301
 30
0.0
 40
7.299999975335047
100
AcDbArc
 50
296.5650789065659
 51
357.2740401568549
  0
LINE
  5
6DB5
330
1A
100
AcDbEntity
  8
SEIHIN
100
AcDbLine
 10
517.6524757480781
 20
363.0857903726301
 30
0.0
 11
516.7579280480781
 21
362.6385161726301
 31
0.0
  0
ARC
  5
6DB6
330
1A
100
AcDbEntity
  8
SEIHIN
100
AcDbCircle
 10
523.677289748078
 20
369.1728089726301
 30
0.0
 40
2.000000027129662
100
AcDbArc
 50
116.5651664826084
 51
177.2740446554296
  0
LINE
  5
6DB7
330
1A
100
AcDbEntity
  8
SEIHIN
100
AcDbLine
 10
542.8082058480781
 20
355.2594858726301
 30
0.0
 11
533.8640538480781
 21
350.7873204726301
 31
0.0
  0
ARC
  5
6DB8
330
1A
100
AcDbEntity
  8
SEIHIN
100
AcDbCircle
 10
541.913764348078
 20
357.0483331726301
 30
0.0
 40
2.000000042517343
100
AcDbArc
 50
296.5655085556703
 51
26.56505117707944
  0
LINE
  5
6DB9
330
1A
100
AcDbEntity
  8
SEIHIN
100
AcDbLine
 10
549.0691859480782
 20
352.7997959726301
 30
0.0
 11
568.2703701480781
 21
363.2534968726301
 31
0.0
  0
LINE
  5
6DBA
330
1A
100
AcDbEntity
  8
SEIHIN
100
AcDbLine
 10
550.8580219480782
 20
359.2843939726301
 30
0.0
 11
559.8022455480782
 21
363.7564163726301
 31
0.0
  0
ARC
  5
6DBB
330
1A
100
AcDbEntity
  8
SEIHIN
100
AcDbCircle
 10
549.963609048078
 20
361.0732554726301
 30
0.0
 40
1.999999997795979
100
AcDbArc
 50
206.5650511770794
 51
296.5645937984594
  0
ARC
  5
6DBC
330
1A
100
AcDbEntity
  8
SEIHIN
100
AcDbCircle
 10
558.9078148480782
 20
365.5452688726301
 30
0.0
 40
1.999999908325454
100
AcDbArc
 50
296.5651652014415
 51
26.56516776378806
  0
LINE
  5
6DBD
330
1A
100
AcDbEntity
  8
SEIHIN
100
AcDbLine
 10
559.3550212480781
 20
369.1229785726301
 30
0.0
 11
560.6966673480781
 21
366.4396996726301
 31
0.0
  0
ELLIPSE
  5
6DC3
330
1A
100
AcDbEntity
  8
SEIHIN
100
AcDbEllipse
 10
419.1456486411689
 20
464.1961507992732
 30
0.0
 11
-0.0000178779101251
 21
1.999999999920067
 31
0.0
210
0.0
220
0.0
230
-1.0
 40
0.447231489677555
 41
1.570796326794896
 42
3.141592653589793
  0
ELLIPSE
  5
6DC4
330
1A
100
AcDbEntity
  8
SEIHIN
100
AcDbEllipse
 10
418.2512214502046
 20
464.1961428040287
 30
0.0
 11
-0.0000178779101251
 21
1.999999999920067
 31
0.0
210
0.0
220
0.0
230
-1.0
 40
0.447231489677555
 41
1.570796326794896
 42
3.141592653589793
  0
ELLIPSE
  5
6DC5
330
1A
100
AcDbEntity
  8
SEIHIN
100
AcDbEllipse
 10
419.1455593236746
 20
474.1880894387073
 30
0.0
 11
0.0000178779101251
 21
-1.999999999920067
 31
0.0
210
0.0
220
0.0
230
1.0
 40
0.447231489677555
 41
1.570796326794896
 42
3.141592653589793
  0
ELLIPSE
  5
6DC6
330
1A
100
AcDbEntity
  8
SEIHIN
100
AcDbEllipse
 10
418.2511321327106
 20
474.1880814434629
 30
0.0
 11
0.0000178779101251
 21
-1.999999999920067
 31
0.0
210
0.0
220
0.0
230
1.0
 40
0.447231489677555
 41
1.570796326794896
 42
3.141592653589793
  0
ELLIPSE
  5
6DC7
330
1A
100
AcDbEntity
  8
SEIHIN
100
AcDbEllipse
 10
417.8038630790078
 20
483.1962439058716
 30
0.0
 11
0.0000187718056314
 21
-2.099999999916065
 31
0.0
210
0.0
220
0.0
230
1.0
 40
0.4578615300608432
 41
0.0
 42
6.283185307179586
  0
ELLIPSE
  5
6DC8
330
1A
100
AcDbEntity
  8
SEIHIN
100
AcDbEllipse
 10
417.2938410203419
 20
481.1961342467274
 30
0.0
 11
-0.0000893895506255
 21
9.999999999600476
 31
0.0
210
0.0
220
0.0
230
-1.0
 40
0.4982154890433663
 41
6.283185307179586
 42
7.853981633974482
  0
ELLIPSE
  5
6DC9
330
1A
100
AcDbEntity
  8
SEIHIN
100
AcDbEllipse
 10
417.8040731452126
 20
436.196073682845
 30
0.0
 11
0.0
 21
2.099999999999965
 31
0.0
210
0.0
220
0.0
230
-1.0
 40
0.4578615300608432
 41
0.0
 42
6.283185307179586
  0
ELLIPSE
  5
6DCA
330
1A
100
AcDbEntity
  8
SEIHIN
100
AcDbEllipse
 10
418.2512616753418
 20
455.196178782845
 30
0.0
 11
0.0
 21
-1.999999999999971
 31
0.0
210
0.0
220
0.0
230
1.0
 40
0.447231489677555
 41
1.570796326794896
 42
3.141592653589793
  0
ELLIPSE
  5
6DCB
330
1A
100
AcDbEntity
  8
SEIHIN
100
AcDbEllipse
 10
418.2512616753379
 20
445.2042401430118
 30
0.0
 11
0.0
 21
1.999999999999971
 31
0.0
210
0.0
220
0.0
230
-1.0
 40
0.447231489677555
 41
1.570796326794896
 42
3.141592653589793
  0
ELLIPSE
  5
6DCC
330
1A
100
AcDbEntity
  8
SEIHIN
100
AcDbEllipse
 10
419.1456888663378
 20
445.2042401430118
 30
0.0
 11
0.0
 21
1.999999999999971
 31
0.0
210
0.0
220
0.0
230
-1.0
 40
0.447231489677555
 41
1.570796326794896
 42
3.141592653589793
  0
ELLIPSE
  5
6DCD
330
1A
100
AcDbEntity
  8
SEIHIN
100
AcDbEllipse
 10
419.1456888663415
 20
455.196178782845
 30
0.0
 11
0.0
 21
-1.999999999999971
 31
0.0
210
0.0
220
0.0
230
1.0
 40
0.447231489677555
 41
1.570796326794896
 42
3.141592653589793
  0
ELLIPSE
  5
6DCE
330
1A
100
AcDbEntity
  8
SEIHIN
100
AcDbEllipse
 10
417.2940332076766
 20
438.196178782845
 30
0.0
 11
0.0
 21
-10.0
 31
0.0
210
0.0
220
0.0
230
1.0
 40
0.4982154890433663
 41
6.283185307179586
 42
7.853981633974482
  0
LEADER
  5
6DCF
330
1A
100
AcDbEntity
  8
SUNPOU
100
AcDbLeader
  3
STANDARD
 40
6.000000000000001
 41
31.19999999999999
 76
     3
 10
559.5745691392157
 20
389.6466581213249
 30
0.0
 10
590.6977932656495
 20
370.6794976079441
 30
0.0
 10
629.9205578933956
 20
370.6794976079441
 30
0.0
213
0.0
223
-3.0
233
0.0
1001
ACAD
1000
DSTYLE
1002
{
1070
     6
1000
OPEN
1070
    41
1040
3.0
1070
    42
1040
3.0
1070
    43
1040
7.0
1070
    44
1040
1.5
1070
    73
1070
     0
1070
    74
1070
     0
1070
    77
1070
     0
1070
   140
1040
3.0
1070
   141
1040
3.0
1070
   147
1040
1.0
1070
   172
1070
     1
1070
   173
1070
     1
1070
   176
1070
   256
1070
   177
1070
   256
1070
   178
1070
   256
1070
   271
1070
     0
1070
   272
1070
     0
1070
   341
1005
6D
1070
   343
1005
6D
1070
   344
1005
6D
1002
}
  0
LINE
  5
6DD2
330
1A
100
AcDbEntity
  8
SEIHIN
100
AcDbLine
 10
422.2759959105765
 20
481.1961787819861
 30
0.0
 11
422.2761880981101
 21
438.196178782845
 31
0.0
  0
LINE
  5
6DD3
330
1A
100
AcDbEntity
  8
SEIHIN
100
AcDbLine
 10
420.0401116204882
 20
464.1961587948376
 30
0.0
 11
420.0400217767865
 21
474.2469646388042
 31
0.0
  0
LINE
  5
6DD4
330
1A
100
AcDbEntity
  8
SEIHIN
100
AcDbLine
 10
419.1456844295239
 20
464.1961507995931
 30
0.0
 11
419.1455945858222
 21
474.2469566435597
 31
0.0
  0
LINE
  5
6DD5
330
1A
100
AcDbEntity
  8
SEIHIN
100
AcDbLine
 10
507.5264634244233
 20
386.6396501143299
 30
0.0
 11
526.7085061480782
 21
397.5211554726301
 31
0.0
  0
LEADER
  5
6DD8
330
1A
100
AcDbEntity
  8
SUNPOU
100
AcDbLeader
  3
STANDARD
 40
6.0
 41
31.19999999999999
 76
     3
 10
508.2796287816869
 20
379.1069262532359
 30
0.0
 10
470.1728328700761
 20
410.6057131554115
 30
0.0
 10
432.7205656079287
 20
410.6057131554115
 30
0.0
213
0.0
223
3.0
233
0.0
1001
ACAD
1000
DSTYLE
1002
{
1070
     6
1000
OPEN
1070
    41
1040
3.0
1070
    42
1040
3.0
1070
    43
1040
7.0
1070
    44
1040
1.5
1070
    73
1070
     0
1070
    74
1070
     0
1070
    77
1070
     0
1070
   140
1040
3.0
1070
   141
1040
3.0
1070
   147
1040
1.0
1070
   172
1070
     1
1070
   173
1070
     1
1070
   176
1070
   256
1070
   177
1070
   256
1070
   178
1070
   256
1070
   271
1070
     0
1070
   272
1070
     0
1070
   341
1005
6D
1070
   343
1005
6D
1070
   344
1005
6D
1002
}
  0
ARC
  5
6DDA
330
1A
100
AcDbEntity
  8
SEIHIN
100
AcDbCircle
 10
512.4605440480782
 20
377.9416696726301
 30
0.0
 40
10.00000076824578
100
AcDbArc
 50
119.5648283511256
 51
206.5651708385876
  0
LINE
  5
6DDB
330
1A
100
AcDbEntity
  8
CENTER_L
 48
5.0
100
AcDbLine
 10
505.5553420474341
 20
375.7642927723082
 30
0.0
 11
514.767942048722
 21
380.3705927729521
 31
0.0
  0
CIRCLE
  5
6DDC
330
1A
100
AcDbEntity
  8
SEIHIN
100
AcDbCircle
 10
510.1616420480781
 20
378.0674427726301
 30
0.0
 40
2.149999963098603
  0
LINE
  5
6DDD
330
1A
100
AcDbEntity
  8
SEIHIN
100
AcDbLine
 10
419.1457246546967
 20
455.196178782845
 30
0.0
 11
419.1457246546967
 21
445.1453729384771
 31
0.0
  0
LINE
  5
6DDE
330
1A
100
AcDbEntity
  8
SEIHIN
100
AcDbLine
 10
420.0401518456967
 20
455.196178782845
 30
0.0
 11
420.0401518456967
 21
445.1453729384771
 31
0.0
  0
LINE
  5
6DDF
330
1A
100
AcDbEntity
  8
CENTER_L
 48
5.0
100
AcDbLine
 10
417.8040731452126
 20
431.0964233949933
 30
0.0
 11
417.8040731452126
 21
441.296073682845
 31
0.0
  0
LINE
  5
6DE1
330
1A
100
AcDbEntity
  8
CENTER_L
 48
5.0
100
AcDbLine
 10
547.5932919074341
 20
396.7832677523081
 30
0.0
 11
556.805891908722
 21
401.3895677529521
 31
0.0
  0
ARC
  5
6DE2
330
1A
100
AcDbEntity
  8
SEIHIN
100
AcDbCircle
 10
550.7493050480782
 20
397.5149645726301
 30
0.0
 40
10.00004591331584
100
AcDbArc
 50
26.56489308110886
 51
114.5648826123516
  0
ARC
  5
6DE3
330
1A
100
AcDbEntity
  8
SEIHIN
100
AcDbCircle
 10
545.4914494480781
 20
389.0242241726301
 30
0.0
 40
1.999999997768104
100
AcDbArc
 50
296.5651639202661
 51
26.56516648260792
  0
LINE
  5
6DE4
330
1A
100
AcDbEntity
  8
SEIHIN
100
AcDbLine
 10
550.3114896480781
 20
384.7259768726301
 30
0.0
 11
540.5720904480781
 21
379.8563016726301
 31
0.0
  0
LINE
  5
6DE5
330
1A
100
AcDbEntity
  8
SEIHIN
100
AcDbLine
 10
517.3169964480782
 20
387.2353134726301
 30
0.0
 11
540.5721249380781
 21
398.8628239926301
 31
0.0
  0
LINE
  5
6DE6
330
1A
100
AcDbEntity
  8
SEIHIN
100
AcDbLine
 10
543.255408248078
 20
397.9684021726301
 30
0.0
 11
547.280302048078
 21
389.9186549726301
 31
0.0
  0
LINE
  5
6DE7
330
1A
100
AcDbEntity
  8
SEIHIN
100
AcDbLine
 10
523.1307964480781
 20
375.6077715726301
 30
0.0
 11
546.385880148078
 21
387.2353715726301
 31
0.0
  0
LINE
  5
6DE8
330
1A
100
AcDbEntity
  8
SEIHIN
100
AcDbLine
 10
516.4225746480781
 20
384.5520300726301
 30
0.0
 11
520.4475131480781
 21
376.5021933726301
 31
0.0
  0
ARC
  5
6DE9
330
1A
100
AcDbEntity
  8
SEIHIN
100
AcDbCircle
 10
522.236365748078
 20
377.3966241726301
 30
0.0
 40
1.999999997768072
100
AcDbArc
 50
206.5651664826079
 51
296.5651639202661
  0
ARC
  5
6DEA
330
1A
100
AcDbEntity
  8
SEIHIN
100
AcDbCircle
 10
518.2114272480783
 20
385.4464608726301
 30
0.0
 40
2.000000020128865
100
AcDbArc
 50
116.5651664826086
 51
206.5651664826079
  0
ARC
  5
6DEB
330
1A
100
AcDbEntity
  8
SEIHIN
100
AcDbCircle
 10
541.4665140480781
 20
378.0674454726301
 30
0.0
 40
1.999999975405445
100
AcDbArc
 50
116.5649358715442
 51
206.5650524582494
  0
ARC
  5
6DEC
330
1A
100
AcDbEntity
  8
SEIHIN
100
AcDbCircle
 10
533.416669348078
 20
374.0425230726301
 30
0.0
 40
1.999999997766041
100
AcDbArc
 50
26.56505117707944
 51
116.565163920266
  0
LINE
  5
6DED
330
1A
100
AcDbEntity
  8
SEIHIN
100
AcDbLine
 10
526.7085061480782
 20
397.5211554726301
 30
0.0
 11
546.592051648078
 21
406.6099171726301
 31
0.0
  0
ARC
  5
6DEE
330
1A
100
AcDbEntity
  8
SEIHIN
100
AcDbCircle
 10
541.4665556480781
 20
397.0739713726301
 30
0.0
 40
1.999999997768059
100
AcDbArc
 50
26.56516648260792
 51
116.565163920266
  0
LINE
  5
6DEF
330
1A
100
AcDbEntity
  8
CENTER_L
 48
5.0
100
AcDbLine
 10
549.8964447477565
 20
403.6927191732732
 30
0.0
 11
559.2432088333616
 21
384.9991910020631
 31
0.0
  0
LINE
  5
6DF0
330
1A
100
AcDbEntity
  8
SEIHIN
100
AcDbLine
 10
559.6936303480781
 20
401.9870963726301
 30
0.0
 11
572.4330525480781
 21
376.5083794726301
 31
0.0
  0
LINE
  5
6DF1
330
1A
100
AcDbEntity
  8
SEIHIN
100
AcDbLine
 10
563.2682436480782
 20
383.6576104726301
 30
0.0
 11
564.2745246480781
 21
381.6450585726301
 31
0.0
  0
ARC
  5
6DF2
330
1A
100
AcDbEntity
  8
SEIHIN
100
AcDbCircle
 10
562.4856720480782
 20
380.7506277726301
 30
0.0
 40
2.000000020128865
100
AcDbArc
 50
296.5651664826084
 51
26.56516648260792
  0
ARC
  5
6DF3
330
1A
100
AcDbEntity
  8
SEIHIN
100
AcDbCircle
 10
561.4793910480782
 20
382.7631796726301
 30
0.0
 40
2.000000020126896
100
AcDbArc
 50
26.56516648260792
 51
116.5650319594915
  0
ARC
  5
6DF4
330
1A
100
AcDbEntity
  8
SEIHIN
100
AcDbCircle
 10
556.4257604480781
 20
390.6340807726301
 30
0.0
 40
7.299999992458942
100
AcDbArc
 50
235.8560612415855
 51
296.5650227455778
  0
LINE
  5
6DF5
330
1A
100
AcDbEntity
  8
SEIHIN
100
AcDbLine
 10
562.485587048078
 20
378.5145150726301
 30
0.0
 11
563.3800133480781
 21
378.9617304726301
 31
0.0
  0
LINE
  5
6DF6
330
1A
100
AcDbEntity
  8
CENTER_L
 48
5.0
100
AcDbLine
 10
550.7908719575111
 20
387.8166366273466
 30
0.0
 11
562.0606544586451
 21
393.4515278779136
 31
0.0
  0
CIRCLE
  5
6DF7
330
1A
100
AcDbEntity
  8
SEIHIN
100
AcDbCircle
 10
556.4257604480781
 20
390.6340807726301
 30
0.0
 40
3.299999949347657
  0
ARC
  5
6DF8
330
1A
100
AcDbEntity
  8
SEIHIN
100
AcDbCircle
 10
551.205913248078
 20
382.9371206726301
 30
0.0
 40
2.000000038069542
100
AcDbArc
 50
55.85605881609409
 51
116.5649358715502
  0
LINE
  5
6DF9
330
1A
100
AcDbEntity
  8
SEIHIN
100
AcDbLine
 10
559.6904164480782
 20
384.1047606726301
 30
0.0
 11
560.5849644480781
 21
384.5520343726301
 31
0.0
  0
CIRCLE
  5
6DFA
330
1A
100
AcDbEntity
  8
SEIHIN
100
AcDbCircle
 10
552.1995947480782
 20
399.0864191726301
 30
0.0
 40
2.149999979707777
  0
LINE
  5
6DFB
330
1A
100
AcDbEntity
  8
CENTER_L
 48
5.0
100
AcDbLine
 10
417.8038174934632
 20
488.2958941935196
 30
0.0
 11
417.8039086676785
 21
478.0962439060754
 31
0.0
  0
LINE
  5
6FFA
330
1A
100
AcDbEntity
  8
NOKITOI
 48
5.0
100
AcDbLine
 10
278.9490864981105
 20
147.6880122362207
 30
0.0
 11
281.9420864981109
 21
117.7582122362206
 31
0.0
  0
LINE
  5
6FFB
330
1A
100
AcDbEntity
  8
NOKITOI
 48
5.0
100
AcDbLine
 10
277.9080864981103
 20
146.0377122362207
 30
0.0
 11
280.7768864981105
 21
117.3503122362206
 31
0.0
  0
ARC
  5
6FFC
330
1A
100
AcDbEntity
  8
NOKITOI
 48
5.0
100
AcDbCircle
 10
337.0044804161427
 20
150.9382066115644
 30
0.0
 40
41.79999437547816
100
AcDbArc
 50
270.0001454078941
 51
355.525704787475
  0
ARC
  5
6FFD
330
1A
100
AcDbEntity
  8
NOKITOI
 48
5.0
100
AcDbCircle
 10
337.004502724568
 20
150.9382267125907
 30
0.0
 40
43.00001447645168
100
AcDbArc
 50
270.0001116248594
 51
353.4750892928824
  0
LINE
  5
6FFE
330
1A
100
AcDbEntity
  8
NOKITOI
 48
5.0
100
AcDbLine
 10
296.4248864981107
 20
109.1381122362207
 30
0.0
 11
316.3329864981103
 21
109.1381122362207
 31
0.0
  0
LINE
  5
6FFF
330
1A
100
AcDbEntity
  8
NOKITOI
 48
5.0
100
AcDbLine
 10
296.1750864981106
 20
107.9381122362207
 30
0.0
 11
316.3329864981103
 21
107.9381122362207
 31
0.0
  0
LINE
  5
7000
330
1A
100
AcDbEntity
  8
NOKITOI
 48
5.0
100
AcDbLine
 10
337.0044864981107
 20
109.1382122362207
 30
0.0
 11
292.4248864981107
 21
109.1381122362207
 31
0.0
  0
LINE
  5
7001
330
1A
100
AcDbEntity
  8
NOKITOI
 48
5.0
100
AcDbLine
 10
292.1750864981106
 20
107.9381122362207
 30
0.0
 11
337.0044864981107
 21
107.9382122362206
 31
0.0
  0
LINE
  5
7002
330
1A
100
AcDbEntity
  8
NOKITOI
 48
5.0
100
AcDbLine
 10
282.1229864981103
 20
117.4209122362207
 30
0.0
 11
292.1082864981105
 21
109.2511122362205
 31
0.0
  0
LINE
  5
7003
330
1A
100
AcDbEntity
  8
NOKITOI
 48
5.0
100
AcDbLine
 10
281.1386864981106
 20
116.6758122362208
 30
0.0
 11
291.5417864981106
 21
108.1641122362208
 31
0.0
  0
ARC
  5
7004
330
1A
100
AcDbEntity
  8
NOKITOI
 48
5.0
100
AcDbCircle
 10
292.4248801103619
 20
109.6381145162103
 30
0.0
 40
0.5000022800304047
100
AcDbArc
 50
230.7145501403939
 51
270.0007319787176
  0
ARC
  5
7005
330
1A
100
AcDbEntity
  8
NOKITOI
 48
5.0
100
AcDbCircle
 10
292.1750934306881
 20
108.9381097612146
 30
0.0
 40
0.9999975250179316
100
AcDbArc
 50
230.7053583247713
 51
269.9996027915947
  0
ARC
  5
7006
330
1A
100
AcDbEntity
  8
NOKITOI
 48
5.0
100
AcDbCircle
 10
282.4396039239889
 20
117.8078797498327
 30
0.0
 40
0.4999904508696396
100
AcDbArc
 50
185.700988925076
 51
230.7099153622048
  0
ARC
  5
7007
330
1A
100
AcDbEntity
  8
NOKITOI
 48
5.0
100
AcDbCircle
 10
281.7719090709795
 20
117.4497701645481
 30
0.0
 40
0.9999908507640039
100
AcDbArc
 50
185.713767052247
 51
230.7112907769335
  0
LINE
  5
700A
330
1A
100
AcDbEntity
  8
SEIHIN
100
AcDbLine
 10
278.9154082981102
 20
148.8825883262206
 30
0.0
 11
353.9154082981103
 21
139.6825883262206
 31
0.0
  0
LINE
  5
700B
330
1A
100
AcDbEntity
  8
SEIHIN
100
AcDbLine
 10
277.6155082981103
 20
153.1825883262206
 30
0.0
 11
346.3037103981103
 21
153.1825883262206
 31
0.0
  0
LINE
  5
700C
330
1A
100
AcDbEntity
  8
SEIHIN
100
AcDbLine
 10
358.0637358981102
 20
150.6825883262207
 30
0.0
 11
301.1263033981102
 21
150.6825883262207
 31
0.0
  0
LINE
  5
700D
330
1A
100
AcDbEntity
  8
SEIHIN
100
AcDbLine
 10
353.1249584981103
 20
142.2925294562207
 30
0.0
 11
301.0044730981103
 21
148.6900373762207
 31
0.0
  0
LINE
  5
700E
330
1A
100
AcDbEntity
  8
NOKITOI
 48
5.0
100
AcDbLine
 10
380.2930864981106
 20
153.9120122362206
 30
0.0
 11
379.9772864981107
 21
159.9119122362206
 31
0.0
  0
LINE
  5
700F
330
1A
100
AcDbEntity
  8
NOKITOI
 48
5.0
100
AcDbLine
 10
382.2344864981102
 20
154.6382122362207
 30
0.0
 11
381.8303864981105
 21
157.4666122362206
 31
0.0
  0
LINE
  5
7010
330
1A
100
AcDbEntity
  8
NOKITOI
 48
5.0
100
AcDbLine
 10
381.4565864981107
 20
154.6382122362207
 30
0.0
 11
381.2753864981107
 21
158.0797122362208
 31
0.0
  0
ARC
  5
7011
330
1A
100
AcDbEntity
  8
NOKITOI
 48
5.0
100
AcDbCircle
 10
383.302948616664
 20
152.938256018746
 30
0.0
 40
3.999989731271038
100
AcDbArc
 50
358.2100163932688
 51
83.52268857986723
  0
LINE
  5
7012
330
1A
100
AcDbEntity
  8
NOKITOI
 48
5.0
100
AcDbLine
 10
387.5541864981103
 20
160.9132122362206
 30
0.0
 11
387.4047864981109
 21
156.1343122362208
 31
0.0
  0
LINE
  5
7013
330
1A
100
AcDbEntity
  8
NOKITOI
 48
5.0
100
AcDbLine
 10
388.7535864981107
 20
160.8757122362207
 30
0.0
 11
388.3633864981108
 21
148.3914122362206
 31
0.0
  0
ARC
  5
7014
330
1A
100
AcDbEntity
  8
NOKITOI
 48
5.0
100
AcDbCircle
 10
383.3028662854415
 20
152.9382709646007
 30
0.0
 40
5.2000412730095
100
AcDbArc
 50
37.92420092094317
 51
89.9986754569382
  0
ARC
  5
7015
330
1A
100
AcDbEntity
  8
SEIHIN
100
AcDbCircle
 10
274.4141751981103
 20
153.2749453562207
 30
0.0
 40
3.499985647804287
100
AcDbArc
 50
103.1906199390367
 51
181.5120868606307
  0
ARC
  5
7016
330
1A
100
AcDbEntity
  8
SEIHIN
100
AcDbCircle
 10
273.9154082981102
 20
151.8825883262206
 30
0.0
 40
3.0
100
AcDbArc
 50
180.0
 51
270.0
  0
LINE
  5
7017
330
1A
100
AcDbEntity
  8
NOKITOI
 48
5.0
100
AcDbLine
 10
386.8641864981107
 20
146.9382122362206
 30
0.0
 11
380.7194864981108
 21
146.9382122362206
 31
0.0
  0
LINE
  5
7018
330
1A
100
AcDbEntity
  8
NOKITOI
 48
5.0
100
AcDbLine
 10
379.1755864981102
 20
148.1382122362207
 30
0.0
 11
385.2164864981107
 21
148.1382122362207
 31
0.0
  0
LINE
  5
7019
330
1A
100
AcDbEntity
  8
SEIHIN
100
AcDbLine
 10
270.9154082981102
 20
153.1825883262206
 30
0.0
 11
270.9154082981102
 21
151.8825883262206
 31
0.0
  0
ARC
  5
701A
330
1A
100
AcDbEntity
  8
NOKITOI
 48
5.0
100
AcDbCircle
 10
385.2164729259723
 20
150.1381990811343
 30
0.0
 40
1.999986844959662
100
AcDbArc
 50
270.0003888156784
 51
358.2124468147644
  0
ARC
  5
701B
330
1A
100
AcDbEntity
  8
NOKITOI
 48
5.0
100
AcDbCircle
 10
386.8641505389598
 20
148.4381773820774
 30
0.0
 40
1.499965146287778
100
AcDbArc
 50
270.0013735702995
 51
358.2133719782232
  0
LINE
  5
701C
330
1A
100
AcDbEntity
  8
NOKITOI
 48
5.0
100
AcDbLine
 10
387.2154864981109
 20
150.0758122362207
 30
0.0
 11
387.3009864981106
 21
152.8133122362206
 31
0.0
  0
ARC
  5
701D
330
1A
100
AcDbEntity
  8
SEIHIN
100
AcDbCircle
 10
275.6155209981102
 20
156.9323890062207
 30
0.0
 40
4.249771090849538
100
AcDbArc
 50
248.0384870086001
 51
298.0724108493037
  0
LINE
  5
701E
330
1A
100
AcDbEntity
  8
NOKITOI
 48
5.0
100
AcDbLine
 10
380.7924864981107
 20
153.4382122362206
 30
0.0
 11
383.0415864981107
 21
153.4382122362206
 31
0.0
  0
LINE
  5
701F
330
1A
100
AcDbEntity
  8
NOKITOI
 48
5.0
100
AcDbLine
 10
383.5364864981109
 20
154.0090122362208
 30
0.0
 11
383.2027864981107
 21
156.3452122362208
 31
0.0
  0
LINE
  5
7020
330
1A
100
AcDbEntity
  8
NOKITOI
 48
5.0
100
AcDbLine
 10
381.4565864981107
 20
154.6382122362207
 30
0.0
 11
382.2344864981102
 21
154.6382122362207
 31
0.0
  0
ARC
  5
7021
330
1A
100
AcDbEntity
  8
NOKITOI
 48
5.0
100
AcDbCircle
 10
380.7924933851056
 20
153.9382057011351
 30
0.0
 40
0.499993464961963
100
AcDbArc
 50
183.0029638682579
 51
269.9992107982163
  0
ARC
  5
7022
330
1A
100
AcDbEntity
  8
NOKITOI
 48
5.0
100
AcDbCircle
 10
379.1755739284023
 20
147.638200611491
 30
0.0
 40
0.5000116248877111
100
AcDbArc
 50
89.99855965101618
 51
175.525153191658
  0
ARC
  5
7023
330
1A
100
AcDbEntity
  8
NOKITOI
 48
5.0
100
AcDbCircle
 10
380.7194949222732
 20
145.9382197512771
 30
0.0
 40
0.9999924849789756
100
AcDbArc
 50
90.00048267259197
 51
173.4717353933264
  0
LINE
  5
7024
330
1A
100
AcDbEntity
  8
SEIHIN
100
AcDbLine
 10
277.6154082981103
 20
148.8825883262206
 30
0.0
 11
277.6154082981103
 21
153.1825883262206
 31
0.0
  0
LINE
  5
7025
330
1A
100
AcDbEntity
  8
SEIHIN
100
AcDbLine
 10
273.6154082981103
 20
156.6825883262207
 30
0.0
 11
273.9526289981103
 21
156.6825883262207
 31
0.0
  0
ARC
  5
7026
330
1A
100
AcDbEntity
  8
SEIHIN
100
AcDbCircle
 10
273.9526289981103
 20
156.1825883262206
 30
0.0
 40
0.5000000314044846
100
AcDbArc
 50
344.0527546068721
 51
90.0
  0
ARC
  5
7027
330
1A
100
AcDbEntity
  8
NOKITOI
 48
5.0
100
AcDbCircle
 10
383.6977722796953
 20
156.4158976019197
 30
0.0
 40
0.5000073448410256
100
AcDbArc
 50
83.52170717002922
 51
188.1270521358757
  0
LINE
  5
7028
330
1A
100
AcDbEntity
  8
SEIHIN
100
AcDbLine
 10
273.9154082981102
 20
148.8825883262206
 30
0.0
 11
278.9154082981102
 21
148.8825883262206
 31
0.0
  0
ARC
  5
7029
330
1A
100
AcDbEntity
  8
SEIHIN
100
AcDbCircle
 10
274.2131677981103
 20
153.4547190162206
 30
0.0
 40
0.4999999921113645
100
AcDbArc
 50
164.0527525602575
 51
248.0384815442387
  0
LINE
  5
702A
330
1A
100
AcDbEntity
  8
SEIHIN
100
AcDbLine
 10
274.4333865981102
 20
156.0452122262207
 30
0.0
 11
273.7324102981102
 21
153.5920951062207
 31
0.0
  0
ARC
  5
702B
330
1A
100
AcDbEntity
  8
NOKITOI
 48
5.0
100
AcDbCircle
 10
383.041559897513
 20
153.9381815593386
 30
0.0
 40
0.4999693238254178
100
AcDbArc
 50
270.0030483909627
 51
8.144496122946378
  0
LINE
  5
702C
330
1A
100
AcDbEntity
  8
NOKITOI
 48
5.0
100
AcDbLine
 10
386.7545864981109
 20
162.9382122362206
 30
0.0
 11
383.4279864981106
 21
162.9382122362206
 31
0.0
  0
LINE
  5
702D
330
1A
100
AcDbEntity
  8
NOKITOI
 48
5.0
100
AcDbLine
 10
386.7545864981109
 20
161.7382122362208
 30
0.0
 11
384.2817864981104
 21
161.7382122362208
 31
0.0
  0
ARC
  5
702E
330
1A
100
AcDbEntity
  8
NOKITOI
 48
5.0
100
AcDbCircle
 10
386.7545820033126
 20
160.9382168737475
 30
0.0
 40
0.7999953624857498
100
AcDbArc
 50
358.2088726535808
 51
89.99967808194737
  0
ARC
  5
702F
330
1A
100
AcDbEntity
  8
NOKITOI
 48
5.0
100
AcDbCircle
 10
386.7545737472608
 20
160.9382253913071
 30
0.0
 40
1.999986844954076
100
AcDbArc
 50
358.2116927117297
 51
89.99963471264713
  0
ARC
  5
7030
330
1A
100
AcDbEntity
  8
NOKITOI
 48
5.0
100
AcDbCircle
 10
383.4279872811191
 20
162.4382131912224
 30
0.0
 40
0.4999990449987349
100
AcDbArc
 50
90.0000897263067
 51
191.3032801984555
  0
LINE
  5
7031
330
1A
100
AcDbEntity
  8
NOKITOI
 48
5.0
100
AcDbLine
 10
382.8410864981103
 20
158.1382122362207
 30
0.0
 11
381.8452864981106
 21
159.2382122362208
 31
0.0
  0
LINE
  5
7032
330
1A
100
AcDbEntity
  8
NOKITOI
 48
5.0
100
AcDbLine
 10
380.4766864981108
 20
160.4382122362206
 30
0.0
 11
382.7081864981107
 21
160.4382122362206
 31
0.0
  0
LINE
  5
7033
330
1A
100
AcDbEntity
  8
NOKITOI
 48
5.0
100
AcDbLine
 10
382.8410864981103
 20
158.1382122362207
 30
0.0
 11
383.3029864981106
 21
158.1382122362207
 31
0.0
  0
ARC
  5
7034
330
1A
100
AcDbEntity
  8
NOKITOI
 48
5.0
100
AcDbCircle
 10
382.7081937526661
 20
160.9382210860641
 30
0.0
 40
0.5000088498959383
100
AcDbArc
 50
269.9991687038574
 51
11.31359566951104
  0
ARC
  5
7035
330
1A
100
AcDbEntity
  8
NOKITOI
 48
5.0
100
AcDbCircle
 10
380.4766926992686
 20
159.9382187713059
 30
0.0
 40
0.4999934649531607
100
AcDbArc
 50
90.00071060961758
 51
183.0044636796623
  0
LINE
  5
7036
330
1A
100
AcDbEntity
  8
NOKITOI
 48
5.0
100
AcDbLine
 10
381.8303864981105
 20
157.4666122362206
 30
0.0
 11
381.2753864981107
 21
158.0797122362208
 31
0.0
  0
LINE
  5
7037
330
1A
100
AcDbEntity
  8
NOKITOI
 48
5.0
100
AcDbLine
 10
384.2817864981104
 20
161.7382122362208
 30
0.0
 11
384.7817864981104
 21
159.2382122362208
 31
0.0
  0
LINE
  5
7038
330
1A
100
AcDbEntity
  8
NOKITOI
 48
5.0
100
AcDbLine
 10
384.7817864981104
 20
159.2382122362208
 30
0.0
 11
381.8452864981106
 21
159.2382122362208
 31
0.0
  0
LINE
  5
7039
330
1A
100
AcDbEntity
  8
NOKITOI
 48
5.0
100
AcDbLine
 10
383.1984864981107
 20
161.0363122362206
 30
0.0
 11
382.9376864981107
 21
162.3402122362207
 31
0.0
  0
ARC
  5
703A
330
1A
100
AcDbEntity
  8
SEIHIN
100
AcDbCircle
 10
301.1263033981102
 20
149.6825883262206
 30
0.0
 40
1.000000002585995
100
AcDbArc
 50
90.0
 51
263.0022538529113
  0
ARC
  5
703B
330
1A
100
AcDbEntity
  8
SEIHIN
100
AcDbCircle
 10
378.0090382981102
 20
176.1724431462207
 30
0.0
 40
0.9999999784759632
100
AcDbArc
 50
323.0224045627655
 51
108.9118463961546
  0
LINE
  5
703C
330
1A
100
AcDbEntity
  8
SEIHIN
100
AcDbLine
 10
384.2003486981102
 20
178.5765169462206
 30
0.0
 11
377.2036985981103
 21
169.2840910462207
 31
0.0
  0
LINE
  5
703D
330
1A
100
AcDbEntity
  8
NOKITOI
 48
5.0
100
AcDbLine
 10
278.451586498111
 20
148.1382122362207
 30
0.0
 11
272.4196864981106
 21
148.1382122362207
 31
0.0
  0
ARC
  5
703E
330
1A
100
AcDbEntity
  8
SEIHIN
100
AcDbCircle
 10
383.0943715981102
 20
147.1825883262207
 30
0.0
 40
17.99999999169336
100
AcDbArc
 50
90.00000063661738
 51
143.0224035665539
  0
LINE
  5
703F
330
1A
100
AcDbEntity
  8
SEIHIN
100
AcDbLine
 10
378.0025692981102
 20
167.6825883462207
 30
0.0
 11
398.8392703981103
 21
167.6825883462207
 31
0.0
  0
ARC
  5
7040
330
1A
100
AcDbEntity
  8
SEIHIN
100
AcDbCircle
 10
393.0802915981103
 20
132.1825883262206
 30
0.0
 40
50.00000002471831
100
AcDbArc
 50
90.0000013750972
 51
143.0224036844838
  0
ARC
  5
7041
330
1A
100
AcDbEntity
  8
SEIHIN
100
AcDbCircle
 10
378.0025692981102
 20
168.6825883462207
 30
0.0
 40
0.999999973356447
100
AcDbArc
 50
143.0224011164101
 51
270.0
  0
LINE
  5
7042
330
1A
100
AcDbEntity
  8
SEIHIN
100
AcDbLine
 10
378.8079090981102
 20
175.5709404462207
 30
0.0
 11
362.2508418981103
 21
153.5810856262207
 31
0.0
  0
ARC
  5
7043
330
1A
100
AcDbEntity
  8
SEIHIN
100
AcDbCircle
 10
393.0802915981103
 20
132.1825883262206
 30
0.0
 40
47.49999999658141
100
AcDbArc
 50
108.9118435138239
 51
143.0224021282104
  0
ARC
  5
7044
330
1A
100
AcDbEntity
  8
SEIHIN
100
AcDbCircle
 10
343.8095816981103
 20
158.1825883262206
 30
0.0
 40
5.000000023548842
100
AcDbArc
 50
270.0
 51
323.0224039650379
  0
LINE
  5
7045
330
1A
100
AcDbEntity
  8
SEIHIN
100
AcDbLine
 10
353.1367530981103
 20
162.2577231562207
 30
0.0
 11
346.3037103981103
 21
153.1825883262206
 31
0.0
  0
ARC
  5
7046
330
1A
100
AcDbEntity
  8
SEIHIN
100
AcDbCircle
 10
376.1654082981103
 20
145.4325883262207
 30
0.0
 40
0.75
100
AcDbArc
 50
0.0
 51
90.0
  0
ARC
  5
7047
330
1A
100
AcDbEntity
  8
SEIHIN
100
AcDbCircle
 10
376.1654082981103
 20
145.4325883262207
 30
0.0
 40
0.75
100
AcDbArc
 50
90.0
 51
180.0
  0
LINE
  5
7048
330
1A
100
AcDbEntity
  8
SEIHIN
100
AcDbLine
 10
368.7146977981103
 20
158.0096368662207
 30
0.0
 11
357.2224213981103
 21
142.7464573362207
 31
0.0
  0
LINE
  5
7049
330
1A
100
AcDbEntity
  8
SEIHIN
100
AcDbLine
 10
358.8626065981102
 20
149.0810856262207
 30
0.0
 11
354.0456594981103
 21
142.6835777062207
 31
0.0
  0
LINE
  5
704A
330
1A
100
AcDbEntity
  8
SEIHIN
100
AcDbLine
 10
357.7688702981102
 20
141.1773373662207
 30
0.0
 11
371.9262998981103
 21
137.4840948662207
 31
0.0
  0
LINE
  5
704B
330
1A
100
AcDbEntity
  8
SEIHIN
100
AcDbLine
 10
353.9154082981103
 20
139.6825883262206
 30
0.0
 11
373.3393734981102
 21
135.8822473062207
 31
0.0
  0
ARC
  5
704C
330
1A
100
AcDbEntity
  8
SEIHIN
100
AcDbCircle
 10
353.2467886981103
 20
143.2850804062207
 30
0.0
 40
1.000000009794456
100
AcDbArc
 50
263.0022595398054
 51
323.0224045627648
  0
ARC
  5
704D
330
1A
100
AcDbEntity
  8
SEIHIN
100
AcDbCircle
 10
358.0212921981103
 20
142.1449546362207
 30
0.0
 40
1.000000012500462
100
AcDbArc
 50
143.0224045627655
 51
255.3791258185317
  0
LINE
  5
704E
330
1A
100
AcDbEntity
  8
SEIHIN
100
AcDbLine
 10
375.4154082981103
 20
145.4325883262207
 30
0.0
 11
375.4154082981103
 21
140.5277118962206
 31
0.0
  0
LINE
  5
704F
330
1A
100
AcDbEntity
  8
SEIHIN
100
AcDbLine
 10
376.9154082981103
 20
138.8264252762207
 30
0.0
 11
376.9154082981103
 21
145.4325883262207
 31
0.0
  0
ARC
  5
7050
330
1A
100
AcDbEntity
  8
SEIHIN
100
AcDbCircle
 10
374.9154082981103
 20
140.5277118962206
 30
0.0
 40
0.4999999990316195
100
AcDbArc
 50
261.618835803932
 51
0.0
  0
ARC
  5
7051
330
1A
100
AcDbEntity
  8
SEIHIN
100
AcDbCircle
 10
372.0525108981103
 20
137.9679034962207
 30
0.0
 40
0.4999999698120126
100
AcDbArc
 50
255.3791201298638
 51
1.983005430227223
  0
ARC
  5
7052
330
1A
100
AcDbEntity
  8
SEIHIN
100
AcDbCircle
 10
374.5510136981103
 20
138.0544111562206
 30
0.0
 40
2.000000013832122
100
AcDbArc
 50
81.61883292798746
 51
181.983005419143
  0
ARC
  5
7053
330
1A
100
AcDbEntity
  8
SEIHIN
100
AcDbCircle
 10
373.9154082981103
 20
138.8264252762207
 30
0.0
 40
3.000000000820362
100
AcDbArc
 50
258.9297978010013
 51
0.0
  0
LINE
  5
7054
330
1A
100
AcDbEntity
  8
SEIHIN
100
AcDbLine
 10
355.1339307981102
 20
160.7539674462207
 30
0.0
 11
350.6389650981102
 21
154.7840910162207
 31
0.0
  0
LINE
  5
7055
330
1A
100
AcDbEntity
  8
SEIHIN
100
AcDbLine
 10
351.4378357981103
 20
153.1825883262206
 30
0.0
 11
361.4519711981103
 21
153.1825883262206
 31
0.0
  0
ARC
  5
7056
330
1A
100
AcDbEntity
  8
SEIHIN
100
AcDbCircle
 10
351.4378357981103
 20
154.1825883262206
 30
0.0
 40
0.9999999703489354
100
AcDbArc
 50
143.022401574128
 51
270.0
  0
ARC
  5
7057
330
1A
100
AcDbEntity
  8
SEIHIN
100
AcDbCircle
 10
361.4519711981103
 20
154.1825883262206
 30
0.0
 40
0.999999973356447
100
AcDbArc
 50
270.0
 51
323.02240111641
  0
ARC
  5
7058
330
1A
100
AcDbEntity
  8
SEIHIN
100
AcDbCircle
 10
358.0637358981102
 20
149.6825883262206
 30
0.0
 40
0.999999973356447
100
AcDbArc
 50
323.02240111641
 51
90.0
  0
ARC
  5
7059
330
1A
100
AcDbEntity
  8
NOKITOI
 48
5.0
100
AcDbCircle
 10
278.451573427106
 20
147.6382240665005
 30
0.0
 40
0.499988169890889
100
AcDbArc
 50
5.703393862283578
 51
89.99850213773529
  0
ARC
  5
705A
330
1A
100
AcDbEntity
  8
SEIHIN
100
AcDbCircle
 10
398.8392703981103
 20
168.6825883462207
 30
0.0
 40
1.000000005031222
100
AcDbArc
 50
270.0
 51
26.56505117707507
  0
LINE
  5
705B
330
1A
100
AcDbEntity
  8
CENTER_L
 48
5.0
100
AcDbLine
 10
392.7600671236108
 20
167.424587058971
 30
0.0
 11
410.6486109118852
 21
176.3688589531082
 31
0.0
  0
LINE
  5
705C
330
1A
100
AcDbEntity
  8
SEIHIN
100
AcDbLine
 10
394.5489451981102
 20
179.4993067462207
 30
0.0
 11
416.0151977981104
 21
136.5668015762207
 31
0.0
  0
LINE
  5
705D
330
1A
100
AcDbEntity
  8
SEIHIN
100
AcDbLine
 10
399.9155082981103
 20
182.1825883462207
 30
0.0
 11
422.2761880699882
 21
137.4612287621596
 31
0.0
  0
LINE
  5
705E
330
1A
100
AcDbEntity
  8
SEIHIN
100
AcDbLine
 10
395.4433723981103
 20
182.1825883462207
 30
0.0
 11
418.6984792981101
 21
135.6723743862207
 31
0.0
  0
LINE
  5
7060
330
1A
100
AcDbEntity
  8
SEIHIN
100
AcDbLine
 10
406.5720494981103
 20
137.6825883262206
 30
0.0
 11
412.4205332981103
 21
137.6825883262206
 31
0.0
  0
LINE
  5
7061
330
1A
100
AcDbEntity
  8
SEIHIN
100
AcDbLine
 10
390.4200348981103
 20
135.1825883262206
 30
0.0
 11
412.4205332981103
 21
135.1825883262206
 31
0.0
  0
LINE
  5
7062
330
1A
100
AcDbEntity
  8
CENTER_L
 48
5.0
100
AcDbLine
 10
406.1765197111108
 20
140.5916819027209
 30
0.0
 11
424.065063482212
 21
149.5359537882715
 31
0.0
  0
LINE
  5
7063
330
1A
100
AcDbEntity
  8
CENTER_L
 48
5.0
100
AcDbLine
 10
396.9862355859734
 20
158.9722501401521
 30
0.0
 11
414.8747793688382
 21
167.9165220315846
 31
0.0
  0
LINE
  5
7064
330
1A
100
AcDbEntity
  8
SEIHIN
100
AcDbLine
 10
392.9276222981102
 20
163.7353747462207
 30
0.0
 11
405.6776222981102
 21
138.2353747262206
 31
0.0
  0
LINE
  5
7065
330
1A
100
AcDbEntity
  8
SEIHIN
100
AcDbLine
 10
390.2381100981102
 20
163.5242291062207
 30
0.0
 11
402.4353236981103
 21
139.1298019162206
 31
0.0
  0
LINE
  5
7066
330
1A
100
AcDbEntity
  8
SEIHIN
100
AcDbLine
 10
388.9155082981103
 20
162.1825883262206
 30
0.0
 11
388.9155082981103
 21
144.0410502662207
 31
0.0
  0
ARC
  5
7067
330
1A
100
AcDbEntity
  8
SEIHIN
100
AcDbCircle
 10
383.4154082981104
 20
145.6825883262206
 30
0.0
 40
1.000000000797301
100
AcDbArc
 50
45.28081987008772
 51
210.39611394134
  0
LINE
  5
7068
330
1A
100
AcDbEntity
  8
SEIHIN
100
AcDbLine
 10
384.1190409981102
 20
146.3931521762207
 30
0.0
 11
392.6231210981102
 21
137.9720244662207
 31
0.0
  0
LINE
  5
7069
330
1A
100
AcDbEntity
  8
SEIHIN
100
AcDbLine
 10
393.3267537981103
 20
137.6825883262206
 30
0.0
 11
401.5408964981102
 21
137.6825883262206
 31
0.0
  0
ARC
  5
706A
330
1A
100
AcDbEntity
  8
SEIHIN
100
AcDbCircle
 10
390.4200348981103
 20
138.6825883262206
 30
0.0
 40
3.499999996322441
100
AcDbArc
 50
210.3961124587318
 51
270.0
  0
ARC
  5
706B
330
1A
100
AcDbEntity
  8
SEIHIN
100
AcDbCircle
 10
387.9155082981103
 20
144.0410502662207
 30
0.0
 40
0.999999990359033
100
AcDbArc
 50
225.2808113641842
 51
0.0
  0
LINE
  5
706C
330
1A
100
AcDbEntity
  8
SEIHIN
100
AcDbLine
 10
382.5528602981103
 20
145.1766130862206
 30
0.0
 11
387.4011168981103
 21
136.9116749862206
 31
0.0
  0
ARC
  5
706D
330
1A
100
AcDbEntity
  8
SEIHIN
100
AcDbCircle
 10
393.3267537981103
 20
138.6825883262206
 30
0.0
 40
0.9999999939118499
100
AcDbArc
 50
225.280811767338
 51
270.0
  0
ARC
  5
706E
330
1A
100
AcDbEntity
  8
SEIHIN
100
AcDbCircle
 10
401.5408964981102
 20
138.6825883262206
 30
0.0
 40
1.000000002795156
100
AcDbArc
 50
270.0
 51
26.56505066460709
  0
ARC
  5
706F
330
1A
100
AcDbEntity
  8
SEIHIN
100
AcDbCircle
 10
406.5720494981103
 20
138.6825883262206
 30
0.0
 40
1.000000005031197
100
AcDbArc
 50
206.5650511770794
 51
270.0
  0
LINE
  5
7070
330
1A
100
AcDbEntity
  8
SEIHIN
100
AcDbLine
 10
383.0943713981103
 20
165.1825883462207
 30
0.0
 11
399.8532023981102
 21
165.1825883462207
 31
0.0
  0
ARC
  5
7071
330
1A
100
AcDbEntity
  8
NOKITOI
 48
5.0
100
AcDbCircle
 10
274.3331174250467
 20
152.9382479808845
 30
0.0
 40
3.99998565374706
100
AcDbArc
 50
96.47577619531659
 51
181.791303340899
  0
LINE
  5
7072
330
1A
100
AcDbEntity
  8
NOKITOI
 48
5.0
100
AcDbLine
 10
270.081986498111
 20
160.9132122362206
 30
0.0
 11
270.2312864981106
 21
156.1342122362208
 31
0.0
  0
LINE
  5
7073
330
1A
100
AcDbEntity
  8
NOKITOI
 48
5.0
100
AcDbLine
 10
275.401686498111
 20
154.6382122362207
 30
0.0
 11
275.8056864981106
 21
157.4666122362206
 31
0.0
  0
LINE
  5
7074
330
1A
100
AcDbEntity
  8
NOKITOI
 48
5.0
100
AcDbLine
 10
276.1795864981106
 20
154.6382122362207
 30
0.0
 11
276.3606864981109
 21
158.0796122362206
 31
0.0
  0
ARC
  5
7075
330
1A
100
AcDbEntity
  8
NOKITOI
 48
5.0
100
AcDbCircle
 10
274.3331043644618
 20
152.9382209646006
 30
0.0
 40
5.199991271650611
100
AcDbArc
 50
90.00019685927275
 51
142.074671395271
  0
LINE
  5
7076
330
1A
100
AcDbEntity
  8
NOKITOI
 48
5.0
100
AcDbLine
 10
277.3429864981105
 20
153.9119122362206
 30
0.0
 11
277.6587864981109
 21
159.9119122362206
 31
0.0
  0
LINE
  5
7077
330
1A
100
AcDbEntity
  8
NOKITOI
 48
5.0
100
AcDbLine
 10
268.8825864981106
 20
160.8757122362207
 30
0.0
 11
269.2726864981107
 21
148.3913122362206
 31
0.0
  0
ARC
  5
7078
330
1A
100
AcDbEntity
  8
NOKITOI
 48
5.0
100
AcDbCircle
 10
272.4196485102863
 20
150.1381490567929
 30
0.0
 40
2.000036820932882
100
AcDbArc
 50
181.7889408725804
 51
270.0010882509654
  0
ARC
  5
7079
330
1A
100
AcDbEntity
  8
NOKITOI
 48
5.0
100
AcDbCircle
 10
270.7719692849325
 20
148.4382289193685
 30
0.0
 40
1.500016683246579
100
AcDbArc
 50
181.7923576755887
 51
270.0006574876639
  0
ARC
  5
707A
330
1A
100
AcDbEntity
  8
NOKITOI
 48
5.0
100
AcDbCircle
 10
273.938357125611
 20
156.4158424687156
 30
0.0
 40
0.4999578477751074
100
AcDbArc
 50
351.8669438287072
 51
96.47390928779568
  0
LINE
  5
707B
330
1A
100
AcDbEntity
  8
NOKITOI
 48
5.0
100
AcDbLine
 10
276.8436864981106
 20
153.4382122362206
 30
0.0
 11
274.5945864981111
 21
153.4382122362206
 31
0.0
  0
LINE
  5
707C
330
1A
100
AcDbEntity
  8
NOKITOI
 48
5.0
100
AcDbLine
 10
276.1795864981106
 20
154.6382122362207
 30
0.0
 11
275.401686498111
 21
154.6382122362207
 31
0.0
  0
LINE
  5
707D
330
1A
100
AcDbEntity
  8
NOKITOI
 48
5.0
100
AcDbLine
 10
274.0995864981107
 20
154.0089122362206
 30
0.0
 11
274.4333864981106
 21
156.3451122362208
 31
0.0
  0
ARC
  5
707E
330
1A
100
AcDbEntity
  8
NOKITOI
 48
5.0
100
AcDbCircle
 10
274.5945763116744
 20
153.9382239809448
 30
0.0
 40
0.5000117448278309
100
AcDbArc
 50
171.8726853912841
 51
270.0011672521967
  0
ARC
  5
707F
330
1A
100
AcDbEntity
  8
NOKITOI
 48
5.0
100
AcDbCircle
 10
276.843682376704
 20
153.9382083261902
 30
0.0
 40
0.4999960899864752
100
AcDbArc
 50
270.0004722821422
 51
356.9852756208257
  0
LINE
  5
7080
330
1A
100
AcDbEntity
  8
NOKITOI
 48
5.0
100
AcDbLine
 10
270.7719864981106
 20
146.9382122362206
 30
0.0
 11
276.9130864981105
 21
146.9382122362206
 31
0.0
  0
ARC
  5
7081
330
1A
100
AcDbEntity
  8
NOKITOI
 48
5.0
100
AcDbCircle
 10
276.9130658482697
 20
145.9382309240699
 30
0.0
 40
0.9999813123640345
100
AcDbArc
 50
5.709409966648592
 51
89.9988168291509
  0
LINE
  5
7082
330
1A
100
AcDbEntity
  8
NOKITOI
 48
5.0
100
AcDbLine
 10
270.4205864981106
 20
150.0756122362207
 30
0.0
 11
270.3350864981109
 21
152.8132122362206
 31
0.0
  0
ARC
  5
7083
330
1A
100
AcDbEntity
  8
NOKITOI
 48
5.0
100
AcDbCircle
 10
270.8815425317577
 20
160.9381668737477
 30
0.0
 40
0.7999453636812564
100
AcDbArc
 50
89.99685092684577
 51
181.7876563552118
  0
ARC
  5
7084
330
1A
100
AcDbEntity
  8
SEIHIN
100
AcDbCircle
 10
387.5548284981102
 20
162.1825883262206
 30
0.0
 40
3.00000002062146
100
AcDbArc
 50
26.56505083543157
 51
90.0
  0
ARC
  5
7085
330
1A
100
AcDbEntity
  8
NOKITOI
 48
5.0
100
AcDbCircle
 10
270.8815977351048
 20
160.9382238300378
 30
0.0
 40
1.999988406214315
100
AcDbArc
 50
90.00032191804612
 51
181.7911273464062
  0
ARC
  5
7086
330
1A
100
AcDbEntity
  8
SEIHIN
100
AcDbCircle
 10
385.9155082981103
 20
162.1825883262206
 30
0.0
 40
3.00000001
100
AcDbArc
 50
0.0
 51
90.0
  0
LINE
  5
7087
330
1A
100
AcDbEntity
  8
NOKITOI
 48
5.0
100
AcDbLine
 10
270.8815864981104
 20
162.9381122362207
 30
0.0
 11
274.2081864981107
 21
162.9382122362206
 31
0.0
  0
ARC
  5
7088
330
1A
100
AcDbEntity
  8
NOKITOI
 48
5.0
100
AcDbCircle
 10
274.2081937526661
 20
162.4382033863772
 30
0.0
 40
0.500008849895925
100
AcDbArc
 50
348.6864043304874
 51
90.0008312961426
  0
LINE
  5
7089
330
1A
100
AcDbEntity
  8
NOKITOI
 48
5.0
100
AcDbLine
 10
275.8056864981106
 20
157.4666122362206
 30
0.0
 11
276.3606864981109
 21
158.0796122362206
 31
0.0
  0
LINE
  5
708A
330
1A
100
AcDbEntity
  8
NOKITOI
 48
5.0
100
AcDbLine
 10
270.8815864981104
 20
161.7381122362206
 30
0.0
 11
273.3542864981107
 21
161.7382122362208
 31
0.0
  0
LINE
  5
708B
330
1A
100
AcDbEntity
  8
NOKITOI
 48
5.0
100
AcDbLine
 10
273.3542864981107
 20
161.7382122362208
 30
0.0
 11
272.8542864981107
 21
159.2382122362208
 31
0.0
  0
LINE
  5
708C
330
1A
100
AcDbEntity
  8
NOKITOI
 48
5.0
100
AcDbLine
 10
274.7950864981105
 20
158.1382122362207
 30
0.0
 11
275.7908864981107
 21
159.2382122362208
 31
0.0
  0
LINE
  5
708D
330
1A
100
AcDbEntity
  8
NOKITOI
 48
5.0
100
AcDbLine
 10
274.7950864981105
 20
158.1382122362207
 30
0.0
 11
274.3330864981105
 21
158.1382122362207
 31
0.0
  0
ARC
  5
708E
330
1A
100
AcDbEntity
  8
NOKITOI
 48
5.0
100
AcDbCircle
 10
274.9279872811191
 20
160.9382112812189
 30
0.0
 40
0.4999990449987399
100
AcDbArc
 50
168.6967198015444
 51
269.9999102736932
  0
LINE
  5
708F
330
1A
100
AcDbEntity
  8
NOKITOI
 48
5.0
100
AcDbLine
 10
272.8542864981107
 20
159.2382122362208
 30
0.0
 11
275.7908864981107
 21
159.2382122362208
 31
0.0
  0
ARC
  5
7090
330
1A
100
AcDbEntity
  8
NOKITOI
 48
5.0
100
AcDbCircle
 10
277.1594827886153
 20
159.9382161462514
 30
0.0
 40
0.4999960899831856
100
AcDbArc
 50
356.9843782585353
 51
89.99957491985082
  0
LINE
  5
7091
330
1A
100
AcDbEntity
  8
NOKITOI
 48
5.0
100
AcDbLine
 10
277.1594864981104
 20
160.4382122362206
 30
0.0
 11
274.9279864981106
 21
160.4382122362206
 31
0.0
  0
LINE
  5
7092
330
1A
100
AcDbEntity
  8
NOKITOI
 48
5.0
100
AcDbLine
 10
274.4376864981106
 20
161.0362122362208
 30
0.0
 11
274.6984864981107
 21
162.3402122362207
 31
0.0
  0
ARC
  5
7093
330
1A
100
AcDbEntity
  8
SEIHIN
100
AcDbCircle
 10
393.8220494981103
 20
164.1825883462207
 30
0.0
 40
1.000000005031197
100
AcDbArc
 50
90.0
 51
206.5650511770794
  0
ARC
  5
7094
330
1A
100
AcDbEntity
  8
SEIHIN
100
AcDbCircle
 10
399.8532023981102
 20
162.1825883262206
 30
0.0
 40
3.00000002062146
100
AcDbArc
 50
26.56505083543157
 51
90.0
  0
LINE
  5
7095
330
1A
100
AcDbEntity
  8
SEIHIN
100
AcDbLine
 10
422.2761880981101
 20
137.4612287762207
 30
0.0
 11
418.6984792981101
 21
135.6723743862207
 31
0.0
  0
LINE
  5
7096
330
1A
100
AcDbEntity
  8
SEIHIN
100
AcDbLine
 10
416.0151977981104
 20
136.5668015762207
 30
0.0
 11
413.9857808981103
 21
135.5520931562207
 31
0.0
  0
LINE
  5
7097
330
1A
100
AcDbEntity
  8
SEIHIN
100
AcDbLine
 10
416.0151977981104
 20
136.5668015762207
 30
0.0
 11
418.6984792981101
 21
135.6723743862207
 31
0.0
  0
ARC
  5
7098
330
1A
100
AcDbEntity
  8
SEIHIN
100
AcDbCircle
 10
412.4205332981103
 20
138.6825883262206
 30
0.0
 40
1.000000005031197
100
AcDbArc
 50
270.0
 51
296.5650511770797
  0
ARC
  5
7099
330
1A
100
AcDbEntity
  8
SEIHIN
100
AcDbCircle
 10
412.4205332981103
 20
138.6825883262206
 30
0.0
 40
3.500000004192798
100
AcDbArc
 50
270.0
 51
296.5650513967091
  0
LINE
  5
709A
330
1A
100
AcDbEntity
  8
SEIHIN
100
AcDbLine
 10
414.0027365981102
 20
138.3556559662207
 30
0.0
 11
412.8677468981102
 21
137.7881611262206
 31
0.0
  0
ARC
  5
709B
330
1A
100
AcDbEntity
  8
SEIHIN
100
AcDbCircle
 10
413.5555229981102
 20
139.2500831562207
 30
0.0
 40
1.000000003354195
100
AcDbArc
 50
296.5650514333118
 51
26.56505066460819
  0
LINE
  5
709C
330
1A
100
AcDbEntity
  8
SEIHIN
100
AcDbLine
 10
393.0802903981102
 20
182.1825883462207
 30
0.0
 11
399.9155082981103
 21
182.1825883462207
 31
0.0
  0
LINE
  5
709D
330
1A
100
AcDbEntity
  8
SEIHIN
100
AcDbLine
 10
395.4433723981103
 20
182.1825883462207
 30
0.0
 11
394.5489451981102
 21
179.4993067462207
 31
0.0
  0
ARC
  5
709E
330
1A
100
AcDbEntity
  8
SEIHIN
100
AcDbCircle
 10
393.0802915981103
 20
132.1825883262206
 30
0.0
 40
47.50000002986444
100
AcDbArc
 50
90.61264806290997
 51
100.0080474570677
  0
ARC
  5
709F
330
1A
100
AcDbEntity
  8
SEIHIN
100
AcDbCircle
 10
384.9992194981102
 20
177.9750142462207
 30
0.0
 40
1.000000036424422
100
AcDbArc
 50
100.0080471782631
 51
143.0224045627648
  0
ARC
  5
70A0
330
1A
100
AcDbEntity
  8
SEIHIN
100
AcDbCircle
 10
392.6044743981103
 20
176.6800444462207
 30
0.0
 40
2.999999948164375
100
AcDbArc
 50
26.56505032296323
 51
90.6126487066642
  0
LINE
  5
70A1
330
1A
100
AcDbEntity
  8
SEIHIN
100
AcDbLine
 10
395.4433723981103
 20
182.1825883462207
 30
0.0
 11
395.4433723981103
 21
182.1825883462207
 31
0.0
  0
DIMENSION
  5
70E1
330
1A
100
AcDbEntity
  8
SUNPOU
 48
5.0
100
AcDbDimension
  2
*D1
 10
451.2436624079505
 20
428.1961787828451
 30
0.0
 11
446.2436624079503
 21
459.6961565145866
 31
0.0
 70
    32
  3
STANDARD
100
AcDbAlignedDimension
 13
417.2937516307912
 23
491.1961342463278
 33
0.0
 14
417.2940332076766
 24
428.1961787828451
 34
0.0
 50
90.0
100
AcDbRotatedDimension
1001
ACAD
1000
DSTYLE
1002
{
1070
    41
1040
7.0
1070
    42
1040
6.0
1070
    43
1040
14.0
1070
    44
1040
3.0
1070
    73
1070
     0
1070
    74
1070
     0
1070
    77
1070
     3
1070
   140
1040
6.0
1070
   141
1040
150.0
1070
   147
1040
2.0
1070
   172
1070
     1
1070
   173
1070
     1
1070
   176
1070
   256
1070
   177
1070
   256
1070
   178
1070
   256
1070
   271
1070
     0
1070
   272
1070
     0
1070
   341
1005
6D
1070
     6
1000
OPEN
1070
     7
1000
OPEN
1070
   371
1070
    -1
1070
   372
1070
    -1
1002
}
  0
DIMENSION
  5
70EE
330
1A
100
AcDbEntity
  8
SUNPOU
 48
5.0
100
AcDbDimension
  2
*D2
 10
232.701661376775
 20
447.696178782845
 30
0.0
 11
227.701661376775
 21
459.6961787828451
 31
0.0
 70
    32
  3
STANDARD
100
AcDbAlignedDimension
 13
270.9022082981102
 23
471.696178782845
 33
0.0
 14
270.9022082981102
 24
447.696178782845
 34
0.0
 50
90.0
100
AcDbRotatedDimension
1001
ACAD
1000
DSTYLE
1002
{
1070
    41
1040
7.0
1070
    42
1040
6.0
1070
    43
1040
14.0
1070
    44
1040
3.0
1070
    73
1070
     0
1070
    74
1070
     0
1070
    77
1070
     3
1070
   140
1040
6.0
1070
   141
1040
150.0
1070
   147
1040
2.0
1070
   172
1070
     1
1070
   173
1070
     1
1070
   176
1070
   256
1070
   177
1070
   256
1070
   178
1070
   256
1070
   271
1070
     0
1070
   272
1070
     0
1070
   341
1005
6D
1070
     6
1000
OPEN
1070
     7
1000
OPEN
1070
   371
1070
    -1
1070
   372
1070
    -1
1002
}
  0
DIMENSION
  5
70FB
330
1A
100
AcDbEntity
  8
SUNPOU
 48
5.0
100
AcDbDimension
  2
*D3
 10
388.9155082981103
 20
356.791124772268
 30
0.0
 11
394.4155082981103
 21
361.791124772268
 31
0.0
 70
    32
  3
STANDARD
100
AcDbAlignedDimension
 13
399.9155082981103
 23
334.1245693725657
 33
0.0
 14
388.9155082981103
 24
314.1245693525657
 34
0.0
100
AcDbRotatedDimension
1001
ACAD
1000
DSTYLE
1002
{
1070
    41
1040
7.0
1070
    42
1040
6.0
1070
    43
1040
14.0
1070
    44
1040
3.0
1070
    73
1070
     0
1070
    74
1070
     0
1070
    77
1070
     3
1070
   140
1040
6.0
1070
   141
1040
150.0
1070
   147
1040
2.0
1070
   172
1070
     1
1070
   173
1070
     1
1070
   176
1070
   256
1070
   177
1070
   256
1070
   178
1070
   256
1070
   271
1070
     0
1070
   272
1070
     0
1070
   341
1005
6D
1070
     6
1000
OPEN
1070
     7
1000
OPEN
1070
   371
1070
    -1
1070
   372
1070
    -1
1002
}
  0
DIMENSION
  5
710A
330
1A
100
AcDbEntity
  8
SUNPOU
 48
5.0
100
AcDbDimension
  2
*D4
 10
270.9154083133465
 20
366.2818196458288
 30
0.0
 11
335.4154583057284
 21
371.2818196458288
 31
0.0
 70
    32
  3
STANDARD
100
AcDbAlignedDimension
 13
399.9155082981103
 23
334.1245693725657
 33
0.0
 14
270.9154083133465
 24
305.1245693529679
 34
0.0
100
AcDbRotatedDimension
1001
ACAD
1000
DSTYLE
1002
{
1070
    41
1040
7.0
1070
    42
1040
6.0
1070
    43
1040
14.0
1070
    44
1040
3.0
1070
    73
1070
     0
1070
    74
1070
     0
1070
    77
1070
     3
1070
   140
1040
6.0
1070
   141
1040
150.0
1070
   147
1040
2.0
1070
   172
1070
     1
1070
   173
1070
     1
1070
   176
1070
   256
1070
   177
1070
   256
1070
   178
1070
   256
1070
   271
1070
     0
1070
   272
1070
     0
1070
   341
1005
6D
1070
     6
1000
OPEN
1070
     7
1000
OPEN
1070
   371
1070
    -1
1070
   372
1070
    -1
1002
}
  0
DIMENSION
  5
7117
330
1A
100
AcDbEntity
  8
SUNPOU
 48
5.0
100
AcDbDimension
  2
*D5
 10
226.5740854582959
 20
289.4032098025657
 30
0.0
 11
221.5740854582958
 21
299.1289515325657
 31
0.0
 70
    32
  3
STANDARD
100
AcDbAlignedDimension
 13
273.8819864981102
 23
308.8546932625656
 33
0.0
 14
422.2761880981101
 24
289.4032098025657
 34
0.0
 50
90.0
100
AcDbRotatedDimension
1001
ACAD
1000
DSTYLE
1002
{
1070
    41
1040
7.0
1070
    42
1040
6.0
1070
    43
1040
14.0
1070
    44
1040
3.0
1070
    73
1070
     0
1070
    74
1070
     0
1070
    77
1070
     3
1070
   140
1040
6.0
1070
   141
1040
150.0
1070
   147
1040
2.0
1070
   172
1070
     1
1070
   173
1070
     1
1070
   176
1070
   256
1070
   177
1070
   256
1070
   178
1070
   256
1070
   271
1070
     0
1070
   272
1070
     0
1070
   341
1005
6D
1070
     6
1000
OPEN
1070
     7
1000
OPEN
1070
   371
1070
    -1
1070
   372
1070
    -1
1002
}
  0
DIMENSION
  5
7124
330
1A
100
AcDbEntity
  8
SUNPOU
 48
5.0
100
AcDbDimension
  2
*D6
 10
436.8419947190076
 20
296.6861131064507
 30
0.0
 11
430.1337907888744
 21
321.2828608743687
 31
0.0
 70
    33
  3
STANDARD
100
AcDbAlignedDimension
 13
399.9155082981103
 23
334.1245693725657
 33
0.0
 14
422.2761880699882
 24
289.4032097885047
 34
0.0
1001
ACAD
1000
DSTYLE
1002
{
1070
    41
1040
7.0
1070
    42
1040
6.0
1070
    43
1040
14.0
1070
    44
1040
3.0
1070
    73
1070
     0
1070
    74
1070
     0
1070
    77
1070
     3
1070
   140
1040
6.0
1070
   141
1040
150.0
1070
   147
1040
2.0
1070
   172
1070
     1
1070
   173
1070
     1
1070
   176
1070
   256
1070
   177
1070
   256
1070
   178
1070
   256
1070
   271
1070
     0
1070
   272
1070
     0
1070
   341
1005
6D
1070
     6
1000
OPEN
1070
     7
1000
OPEN
1070
   371
1070
    -1
1070
   372
1070
    -1
1002
}
  0
DIMENSION
  5
7131
330
1A
100
AcDbEntity
  8
SUNPOU
 48
5.0
100
AcDbDimension
  2
*D7
 10
427.0776504443626
 20
266.3838771976295
 30
0.0
 11
408.7418930208644
 21
262.8061684746298
 31
0.0
 70
    33
  3
STANDARD
100
AcDbAlignedDimension
 13
422.2761880699882
 23
289.4032097885047
 33
0.0
 14
416.9096249726104
 24
286.7199282548158
 34
0.0
1001
ACAD
1000
DSTYLE
1002
{
1070
    41
1040
7.0
1070
    42
1040
6.0
1070
    43
1040
14.0
1070
    44
1040
3.0
1070
    73
1070
     0
1070
    74
1070
     0
1070
    77
1070
     3
1070
   140
1040
6.0
1070
   141
1040
150.0
1070
   147
1040
2.0
1070
   172
1070
     1
1070
   173
1070
     1
1070
   176
1070
   256
1070
   177
1070
   256
1070
   178
1070
   256
1070
   271
1070
     0
1070
   272
1070
     0
1070
   341
1005
6D
1070
     6
1000
OPEN
1070
     7
1000
OPEN
1070
   371
1070
    -1
1070
   372
1070
    -1
1002
}
  0
MTEXT
  5
71EC
330
1A
100
AcDbEntity
  8
SUNPOU
100
AcDbMText
 10
594.2432855346287
 20
379.3511481733976
 30
0.0
 40
6.0
 41
0.0
 71
     1
 72
     5
  1
\A1;2-φ6.6
1001
ACAD
1000
MTEXTBEGIN
1070
    73
1070
     1
1070
    44
1040
1.0
1070
    74
1070
     0
1000
MTEXTEND
1000
MTEXTBEGIN
1070
    73
1070
     1
1070
    44
1040
1.0
1070
    74
1070
     0
1000
MTEXTEND
1000
MTEXTBEGIN
1070
    73
1070
     1
1070
    44
1040
1.0
1070
    74
1070
     0
1000
MTEXTEND
1000
MTEXTBEGIN
1070
    73
1070
     1
1070
    44
1040
1.0
1070
    74
1070
     0
1000
MTEXTEND
  0
MTEXT
  5
71F3
330
1A
100
AcDbEntity
  8
SUNPOU
100
AcDbMText
 10
467.772096998324
 20
412.8275319145491
 30
0.0
 40
6.0
 41
0.0
 71
     9
 72
     5
  1
\A1;4-φ4.2
1001
ACAD
1000
MTEXTBEGIN
1070
    73
1070
     1
1070
    44
1040
1.0
1070
    74
1070
     0
1000
MTEXTEND
1000
MTEXTBEGIN
1070
    73
1070
     1
1070
    44
1040
1.0
1070
    74
1070
     0
1000
MTEXTEND
1000
MTEXTBEGIN
1070
    73
1070
     1
1070
    44
1040
1.0
1070
    74
1070
     0
1000
MTEXTEND
1000
MTEXTBEGIN
1070
    73
1070
     1
1070
    44
1040
1.0
1070
    74
1070
     0
1000
MTEXTEND
  0
DIMENSION
  5
71F6
330
1A
100
AcDbEntity
  8
SUNPOU
 48
5.0
100
AcDbDimension
  2
*D8
 10
596.0684951891546
 20
410.455440167462
 30
0.0
 11
596.1915022463752
 21
421.3897694405197
 31
0.0
 70
    33
  3
STANDARD
100
AcDbAlignedDimension
 13
547.7275019327221
 23
408.0306048033418
 33
0.0
 14
556.4257604480781
 24
390.6340807726301
 34
0.0
1001
ACAD
1000
DSTYLE
1002
{
1070
    41
1040
7.0
1070
    42
1040
6.0
1070
    43
1040
14.0
1070
    44
1040
3.0
1070
    73
1070
     0
1070
    74
1070
     0
1070
    77
1070
     3
1070
   140
1040
6.0
1070
   141
1040
150.0
1070
   147
1040
2.0
1070
   172
1070
     1
1070
   173
1070
     1
1070
   176
1070
   256
1070
   177
1070
   256
1070
   178
1070
   256
1070
   271
1070
     0
1070
   272
1070
     0
1070
   341
1005
6D
1070
     6
1000
OPEN
1070
     7
1000
OPEN
1070
   371
1070
    -1
1070
   372
1070
    -1
1002
}
  0
DIMENSION
  5
7203
330
1A
100
AcDbEntity
  8
SUNPOU
 48
5.0
100
AcDbDimension
  2
*D9
 10
479.43598908739
 20
373.8849559187351
 30
0.0
 11
475.1874661781468
 21
393.5623554697335
 31
0.0
 70
    33
  3
STANDARD
100
AcDbAlignedDimension
 13
510.1616420480781
 23
378.0674427726301
 33
0.0
 14
505.6895132055331
 24
387.0117075577202
 34
0.0
1001
ACAD
1000
DSTYLE
1002
{
1070
    41
1040
7.0
1070
    42
1040
6.0
1070
    43
1040
14.0
1070
    44
1040
3.0
1070
    73
1070
     0
1070
    74
1070
     0
1070
    77
1070
     3
1070
   140
1040
6.0
1070
   141
1040
150.0
1070
   147
1040
2.0
1070
   172
1070
     1
1070
   173
1070
     1
1070
   176
1070
   256
1070
   177
1070
   256
1070
   178
1070
   256
1070
   271
1070
     0
1070
   272
1070
     0
1070
   341
1005
6D
1070
     6
1000
OPEN
1070
     7
1000
OPEN
1070
   371
1070
    -1
1070
   372
1070
    -1
1002
}
  0
DIMENSION
  5
7212
330
1A
100
AcDbEntity
  8
SUNPOU
 48
5.0
100
AcDbDimension
  2
*D10
 10
501.7966701743763
 20
329.1635866447627
 30
0.0
 11
514.9894712416248
 21
313.958324397764
 31
0.0
 70
    33
  3
STANDARD
100
AcDbAlignedDimension
 13
523.5780974680781
 23
351.2345390326301
 33
0.0
 14
528.0501929644847
 24
342.2903480398167
 34
0.0
1001
ACAD
1000
DSTYLE
1002
{
1070
    41
1040
7.0
1070
    42
1040
6.0
1070
    43
1040
14.0
1070
    44
1040
3.0
1070
    73
1070
     0
1070
    74
1070
     0
1070
    77
1070
     3
1070
   140
1040
6.0
1070
   141
1040
150.0
1070
   147
1040
2.0
1070
   172
1070
     1
1070
   173
1070
     1
1070
   176
1070
   256
1070
   177
1070
   256
1070
   178
1070
   256
1070
   271
1070
     0
1070
   272
1070
     0
1070
   341
1005
6D
1070
     6
1000
OPEN
1070
     7
1000
OPEN
1070
   371
1070
    -1
1070
   372
1070
    -1
1002
}
  0
DIMENSION
  5
7221
330
1A
100
AcDbEntity
  8
SUNPOU
 48
5.0
100
AcDbDimension
  2
*D11
 10
484.5469431686929
 20
320.5387231419209
 30
0.0
 11
477.8387392442167
 21
345.1354708783725
 31
0.0
 70
    33
  3
STANDARD
100
AcDbAlignedDimension
 13
505.6895132055331
 23
387.0117075577202
 33
0.0
 14
528.0501929644847
 24
342.2903480398167
 34
0.0
1001
ACAD
1000
DSTYLE
1002
{
1070
    41
1040
7.0
1070
    42
1040
6.0
1070
    43
1040
14.0
1070
    44
1040
3.0
1070
    73
1070
     0
1070
    74
1070
     0
1070
    77
1070
     3
1070
   140
1040
6.0
1070
   141
1040
150.0
1070
   147
1040
2.0
1070
   172
1070
     1
1070
   173
1070
     1
1070
   176
1070
   256
1070
   177
1070
   256
1070
   178
1070
   256
1070
   271
1070
     0
1070
   272
1070
     0
1070
   341
1005
6D
1070
     6
1000
OPEN
1070
     7
1000
OPEN
1070
   371
1070
    -1
1070
   372
1070
    -1
1002
}
  0
DIMENSION
  5
722E
330
1A
100
AcDbEntity
  8
SUNPOU
 48
5.0
100
AcDbDimension
  2
*D12
 10
533.8570472182783
 20
435.7715141559201
 30
0.0
 11
510.6020043065233
 21
429.7341626187921
 31
0.0
 70
    33
  3
STANDARD
100
AcDbAlignedDimension
 13
507.8584948877566
 23
382.6737441932732
 33
0.0
 14
549.8964447477565
 24
403.6927191732732
 34
0.0
1001
ACAD
1000
DSTYLE
1002
{
1070
    41
1040
7.0
1070
    42
1040
6.0
1070
    43
1040
14.0
1070
    44
1040
3.0
1070
    73
1070
     0
1070
    74
1070
     0
1070
    77
1070
     3
1070
   140
1040
6.0
1070
   141
1040
150.0
1070
   147
1040
2.0
1070
   172
1070
     1
1070
   173
1070
     1
1070
   176
1070
   256
1070
   177
1070
   256
1070
   178
1070
   256
1070
   271
1070
     0
1070
   272
1070
     0
1070
   341
1005
6D
1070
     6
1000
OPEN
1070
     7
1000
OPEN
1070
   371
1070
    -1
1070
   372
1070
    -1
1002
}
  0
DIMENSION
  5
723B
330
1A
100
AcDbEntity
  8
SUNPOU
 48
5.0
100
AcDbDimension
  2
*D13
 10
533.4599106635262
 20
453.6654209069815
 30
0.0
 11
503.1079776615322
 21
443.8650672620016
 31
0.0
 70
    33
  3
STANDARD
100
AcDbAlignedDimension
 13
503.516280748078
 23
373.4695146726301
 33
0.0
 14
559.6936303480781
 24
401.9870963726301
 34
0.0
1001
ACAD
1000
DSTYLE
1002
{
1070
    41
1040
7.0
1070
    42
1040
6.0
1070
    43
1040
14.0
1070
    44
1040
3.0
1070
    73
1070
     0
1070
    74
1070
     0
1070
    77
1070
     3
1070
   140
1040
6.0
1070
   141
1040
150.0
1070
   147
1040
2.0
1070
   172
1070
     1
1070
   173
1070
     1
1070
   176
1070
   256
1070
   177
1070
   256
1070
   178
1070
   256
1070
   271
1070
     0
1070
   272
1070
     0
1070
   341
1005
6D
1070
     6
1000
OPEN
1070
     7
1000
OPEN
1070
   371
1070
    -1
1070
   372
1070
    -1
1002
}
  0
LINE
  5
74FE
330
1A
100
AcDbEntity
  8
ZUWAKU
100
AcDbLine
 10
208.6466021508235
 20
15.20000025521687
 30
0.0
 11
447.4243648317469
 21
15.20000025521686
 31
0.0
  0
LINE
  5
74FF
330
1A
100
AcDbEntity
  8
ZUWAKU
100
AcDbLine
 10
208.6466021508235
 20
15.60000025521686
 30
0.0
 11
447.4243648317469
 21
15.60000025521687
 31
0.0
  0
LINE
  5
7500
330
1A
100
AcDbEntity
  8
ZUWAKU
100
AcDbLine
 10
208.6466021508235
 20
15.40000025521686
 30
0.0
 11
447.4243648317469
 21
15.40000025521686
 31
0.0
  0
LINE
  5
7501
330
1A
100
AcDbEntity
  8
ZUWAKU
100
AcDbLine
 10
0.0000008607555628
 20
30.80000025521684
 30
0.0
 11
797.4000008607554
 21
30.80000025521684
 31
0.0
  0
LINE
  5
7502
330
1A
100
AcDbEntity
  8
ZUWAKU
100
AcDbLine
 10
0.0000008607555628
 20
30.60000025521684
 30
0.0
 11
797.4000008607554
 21
30.60000025521684
 31
0.0
  0
LINE
  5
7503
330
1A
100
AcDbEntity
  8
ZUWAKU
100
AcDbLine
 10
0.0000008607555628
 20
30.40000025521683
 30
0.0
 11
797.4000008607554
 21
30.40000025521683
 31
0.0
  0
LINE
  5
7504
330
1A
100
AcDbEntity
  8
ZUWAKU
100
AcDbLine
 10
0.0000008607555628
 20
30.20000025521683
 30
0.0
 11
797.4000008607554
 21
30.20000025521683
 31
0.0
  0
LINE
  5
7505
330
1A
100
AcDbEntity
  8
ZUWAKU
100
AcDbLine
 10
0.0000008607555628
 20
30.00000025521683
 30
0.0
 11
797.4000008607554
 21
30.00000025521683
 31
0.0
  0
LWPOLYLINE
  5
7506
330
1A
100
AcDbEntity
  8
ZUWAKU
100
AcDbPolyline
 90
        4
 70
     1
 43
0.0
 10
0.2000008607554946
 20
551.4000002552169
 10
0.2000008607554946
 20
0.200000255216878
 10
797.4000008607554
 20
0.2000002552169011
 10
797.4000008607556
 20
551.4000002552169
  0
LWPOLYLINE
  5
7507
330
1A
100
AcDbEntity
  8
ZUWAKU
100
AcDbPolyline
 90
        4
 70
     1
 43
0.0
 10
0.6000008607554719
 20
551.0000002552169
 10
0.6000008607554719
 20
0.6000002552168553
 10
797.0000008607557
 20
0.6000002552169015
 10
797.0000008607556
 20
551.0000002552169
  0
LWPOLYLINE
  5
7508
330
1A
100
AcDbEntity
  8
ZUWAKU
100
AcDbPolyline
 90
        4
 70
     1
 43
0.0
 10
0.0000008607555628
 20
551.6000002552168
 10
0.0000008607555628
 20
0.0000002552168326
 10
797.6000008607557
 20
0.0000002552169001
 10
797.6000008607557
 20
551.600000255217
  0
LWPOLYLINE
  5
7509
330
1A
100
AcDbEntity
  8
ZUWAKU
100
AcDbPolyline
 90
        4
 70
     1
 43
0.0
 10
0.4000008607555401
 20
551.2000002552168
 10
0.4000008607555401
 20
0.4000002552169235
 10
797.2000008607555
 20
0.4000002552169005
 10
797.2000008607555
 20
551.2000002552168
  0
LWPOLYLINE
  5
750A
330
1A
100
AcDbEntity
  8
ZUWAKU
100
AcDbPolyline
 90
        4
 70
     1
 43
0.0
 10
0.8000008607555173
 20
550.8000002552169
 10
0.8000008607555173
 20
0.8000002552169007
 10
796.8000008607555
 20
0.8000002552169007
 10
796.8000008607555
 20
550.8000002552169
  0
TEXT
  5
750B
330
1A
100
AcDbEntity
  8
MOJI
100
AcDbText
 10
92.95779044892469
 20
12.74117838549159
 30
0.0
 40
6.0
  1
新・丸トップＲＶ１０５
 41
0.9
  7
ｽﾀｲﾙ1
100
AcDbText
  0
HATCH
  5
750C
330
1A
100
AcDbEntity
  8
ZUWAKU
100
AcDbHatch
 10
0.0
 20
0.0
 30
0.0
210
0.0
220
0.0
230
1.0
  2
ANSI37
 70
     0
 71
     0
 91
        8
 92
        7
 72
     1
 73
     1
 93
       24
 10
14.50226352187542
 20
17.64484873620041
 42
-0.1989123673796348
 10
14.09221301553668
 20
18.63479822986146
 42
0.0
 10
14.09221301553668
 20
19.92500025521684
 42
-0.4142135623730912
 10
14.61721301553666
 20
20.45000025521683
 42
0.0
 10
17.59221301553657
 20
20.45000025521683
 42
0.4142135623731546
 10
18.11721301553666
 20
20.97500025521682
 42
0.0
 10
18.11721301553666
 20
22.72500025521684
 42
0.4142135623731586
 10
17.59221301553657
 20
23.25000025521684
 42
0.0
 10
14.09221301553668
 20
23.25000025521684
 42
0.4142135623730928
 10
11.29221301553673
 20
20.45000025521686
 42
0.0
 10
11.29221301553673
 20
18.63479822986159
 42
0.1989123673796619
 10
12.52236453455316
 20
15.66494974887798
 42
0.0
 10
15.43216250919783
 20
12.75515177423333
 42
-0.1989123673796613
 10
15.84221301553668
 20
11.76520228057214
 42
0.0
 10
15.84221301553668
 20
10.47500025521682
 42
-0.4142135623730911
 10
15.31721301553671
 20
9.950000255216835
 42
0.0
 10
12.3422130155368
 20
9.950000255216835
 42
0.4142135623731526
 10
11.8172130155367
 20
9.425000255216847
 42
0.0
 10
11.8172130155367
 20
7.675000255216826
 42
0.4142135623731526
 10
12.3422130155368
 20
7.150000255216838
 42
0.0
 10
15.84221301553668
 20
7.150000255216838
 42
0.4142135623731044
 10
18.64221301553675
 20
9.950000255216814
 42
0.0
 10
18.64221301553675
 20
11.76520228057208
 42
0.1989123673796604
 10
17.41206149652021
 20
14.73505076155562
 42
0.0
 97
        0
 92
        7
 72
     1
 73
     1
 93
       16
 10
23.54221301553673
 20
19.05000025521684
 42
-0.4142135623730935
 10
24.9422130155367
 20
20.45000025521683
 42
0.0
 10
26.86721301553666
 20
20.45000025521683
 42
0.4142135623731546
 10
27.39221301553675
 20
20.97500025521682
 42
0.0
 10
27.39221301553675
 20
22.72500025521684
 42
0.4142135623730951
 10
26.86721301553677
 20
23.25000025521684
 42
0.0
 10
24.94221301553659
 20
23.25000025521679
 42
0.4142135623730892
 10
20.74221301553666
 20
19.05000025521677
 42
0.0
 10
20.74221301553666
 20
11.35000025521686
 42
0.4142135623730969
 10
24.9422130155367
 20
7.150000255216838
 42
0.0
 10
26.86721301553666
 20
7.150000255216838
 42
0.4142135623731526
 10
27.39221301553675
 20
7.675000255216826
 42
0.0
 10
27.39221301553675
 20
9.425000255216847
 42
0.4142135623730891
 10
26.86721301553677
 20
9.950000255216835
 42
0.0
 10
24.9422130155367
 20
9.950000255216835
 42
-0.4142135623730928
 10
23.54221301553673
 20
11.35000025521682
 42
0.0
 97
        0
 92
        7
 72
     1
 73
     1
 93
        2
 10
24.24221301553666
 20
15.20000025521683
 42
1.0
 10
27.74221301553666
 20
15.20000025521683
 42
1.0
 97
        0
 92
        7
 72
     1
 73
     1
 93
       26
 10
37.31485949771467
 20
19.20504744878026
 42
0.0
 10
38.37649913085249
 20
22.56690628704985
 42
0.5069206636600134
 10
37.87586823165713
 20
23.25000025521684
 42
0.0
 10
36.1769788520479
 20
23.25000025521684
 42
0.3272098845218764
 10
35.67634795285255
 20
22.8830942233838
 42
0.0
 10
33.80807807822077
 20
16.96690628704991
 42
-0.3272098845219541
 10
33.3074471790253
 20
16.60000025521683
 42
0.0
 10
33.16721301553684
 20
16.60000025521683
 42
-0.4142135623731526
 10
32.64221301553675
 20
17.12500025521682
 42
0.0
 10
32.64221301553675
 20
22.72500025521684
 42
0.4142135623730951
 10
32.11721301553677
 20
23.25000025521684
 42
0.0
 10
30.36721301553666
 20
23.25000025521684
 42
0.4142135623730871
 10
29.84221301553668
 20
22.72500025521685
 42
0.0
 10
29.84221301553668
 20
7.675000255216826
 42
0.4142135623730891
 10
30.36721301553666
 20
7.150000255216838
 42
0.0
 10
32.11721301553666
 20
7.150000255216838
 42
0.4142135623731526
 10
32.64221301553675
 20
7.675000255216826
 42
0.0
 10
32.64221301553675
 20
13.27500025521684
 42
-0.4142135623731526
 10
33.16721301553684
 20
13.80000025521683
 42
0.0
 10
33.30744717902542
 20
13.80000025521683
 42
-0.3272098845218915
 10
33.80807807822077
 20
13.43309422338376
 42
0.0
 10
35.67634795285255
 20
7.516906287049909
 42
0.3272098845218902
 10
36.1769788520479
 20
7.150000255216838
 42
0.0
 10
37.87586823165713
 20
7.150000255216838
 42
0.5069206636600335
 10
38.37649913085249
 20
7.833094223383845
 42
0.0
 10
36.05010775237883
 20
15.20000025521697
 42
0.0
 97
        0
 92
        7
 72
     1
 73
     1
 93
        8
 10
43.49221301553666
 20
22.72500025521684
 42
0.4142135623731546
 10
42.96721301553657
 20
23.25000025521684
 42
0.0
 10
41.21721301553679
 20
23.25000025521684
 42
0.4142135623731507
 10
40.6922130155367
 20
22.72500025521685
 42
0.0
 10
40.6922130155367
 20
7.675000255216826
 42
0.4142135623731526
 10
41.21721301553679
 20
7.150000255216838
 42
0.0
 10
42.96721301553657
 20
7.150000255216838
 42
0.4142135623731526
 10
43.49221301553666
 20
7.675000255216826
 42
0.0
 97
        0
 92
        7
 72
     1
 73
     1
 93
       24
 10
48.39221301553675
 20
19.92500025521684
 42
-0.4142135623731546
 10
48.91721301553684
 20
20.45000025521683
 42
0.0
 10
51.89221301553676
 20
20.45000025521683
 42
0.4142135623730911
 10
52.41721301553673
 20
20.97500025521682
 42
0.0
 10
52.41721301553673
 20
22.72500025521684
 42
0.4142135623730952
 10
51.89221301553676
 20
23.25000025521684
 42
0.0
 10
48.39221301553675
 20
23.25000025521684
 42
0.4142135623731048
 10
45.59221301553669
 20
20.45000025521686
 42
0.0
 10
45.59221301553669
 20
18.63479822986159
 42
0.1989123673796613
 10
46.82236453455323
 20
15.66494974887804
 42
0.0
 10
49.7321625091979
 20
12.75515177423337
 42
-0.1989123673796402
 10
50.14221301553675
 20
11.7652022805723
 42
0.0
 10
50.14221301553675
 20
10.47500025521682
 42
-0.4142135623730911
 10
49.61721301553677
 20
9.950000255216835
 42
0.0
 10
46.64221301553675
 20
9.950000255216835
 42
0.4142135623731526
 10
46.11721301553666
 20
9.425000255216847
 42
0.0
 10
46.11721301553666
 20
7.675000255216826
 42
0.4142135623730891
 10
46.64221301553664
 20
7.150000255216838
 42
0.0
 10
50.14221301553675
 20
7.150000255216838
 42
0.4142135623730925
 10
52.94221301553671
 20
9.950000255216814
 42
0.0
 10
52.94221301553671
 20
11.76520228057208
 42
0.1989123673796675
 10
51.71206149652016
 20
14.73505076155574
 42
0.0
 10
48.8022635218756
 20
17.64484873620025
 42
-0.1989123673796652
 10
48.39221301553675
 20
18.63479822986142
 42
0.0
 97
        0
 92
        7
 72
     1
 73
     1
 93
       16
 10
57.84221301553668
 20
22.72500025521682
 42
0.414213562373103
 10
57.31721301553671
 20
23.25000025521684
 42
0.0
 10
55.56721301553671
 20
23.25000025521684
 42
0.4142135623730871
 10
55.04221301553673
 20
22.72500025521685
 42
0.0
 10
55.04221301553673
 20
9.950000255216814
 42
0.4142135623730926
 10
57.84221301553668
 20
7.150000255216838
 42
0.0
 10
61.34221301553669
 20
7.150000255216838
 42
0.4142135623731044
 10
64.14221301553675
 20
9.950000255216814
 42
0.0
 10
64.14221301553675
 20
22.72500025521684
 42
0.4142135623730951
 10
63.61721301553678
 20
23.25000025521684
 42
0.0
 10
61.86721301553666
 20
23.25000025521684
 42
0.4142135623730871
 10
61.34221301553669
 20
22.72500025521685
 42
0.0
 10
61.34221301553669
 20
11.00000025521681
 42
-0.414213562373088
 10
60.29221301553673
 20
9.950000255216835
 42
0.0
 10
58.89221301553675
 20
9.950000255216835
 42
-0.4142135623731197
 10
57.84221301553668
 20
11.00000025521681
 42
0.0
 97
        0
 92
        7
 72
     1
 73
     1
 93
        8
 10
69.04221301553673
 20
22.72500025521685
 42
0.4142135623730871
 10
68.51721301553675
 20
23.25000025521684
 42
0.0
 10
66.76721301553675
 20
23.25000025521684
 42
0.4142135623731507
 10
66.24221301553666
 20
22.72500025521685
 42
0.0
 10
66.24221301553666
 20
7.675000255216826
 42
0.4142135623730891
 10
66.76721301553664
 20
7.150000255216838
 42
0.0
 10
68.51721301553675
 20
7.150000255216838
 42
0.4142135623730891
 10
69.04221301553673
 20
7.675000255216826
 42
0.0
 97
        0
 75
     0
 76
     1
 52
0.0
 41
0.2
 77
     0
 78
     2
 53
45.0
 43
-900.9423034739233
 44
-13.19999974478309
 45
-0.4490128060534576
 46
0.4490128060534577
 79
     0
 53
135.0
 43
-900.9423034739233
 44
-13.19999974478309
 45
-0.4490128060534577
 46
-0.4490128060534576
 79
     0
 47
0.057451373970553
 98
        8
 10
16.07985582377887
 20
15.16717390110238
 10
22.40451586719473
 20
18.84406243766784
 10
25.16436874641522
 20
15.51188190128755
 10
30.9140608423927
 20
16.20129790165833
 10
41.8384728797123
 20
16.66091016919995
 10
46.8982017558851
 20
19.41857657162404
 10
56.55768683315591
 20
18.72915817031184
 10
67.8270804803783
 20
19.18877043785346
  0
LINE
  5
750D
330
1A
100
AcDbEntity
  8
ZUWAKU
100
AcDbLine
 10
24.9422130155367
 20
23.25000025521679
 30
0.0
 11
26.86721301553666
 21
23.25000025521684
 31
0.0
  0
LINE
  5
750E
330
1A
100
AcDbEntity
  8
ZUWAKU
100
AcDbLine
 10
26.86721301553666
 20
20.45000025521683
 30
0.0
 11
24.9422130155367
 21
20.45000025521683
 31
0.0
  0
LINE
  5
750F
330
1A
100
AcDbEntity
  8
ZUWAKU
100
AcDbLine
 10
24.9422130155367
 20
9.950000255216835
 30
0.0
 11
26.86721301553666
 21
9.950000255216835
 31
0.0
  0
LINE
  5
7510
330
1A
100
AcDbEntity
  8
ZUWAKU
100
AcDbLine
 10
26.86721301553666
 20
7.150000255216838
 30
0.0
 11
24.9422130155367
 21
7.150000255216838
 31
0.0
  0
CIRCLE
  5
7511
330
1A
100
AcDbEntity
  8
ZUWAKU
100
AcDbCircle
 10
25.99221301553666
 20
15.20000025521683
 30
0.0
 40
1.75
  0
ARC
  5
7512
330
1A
100
AcDbEntity
  8
ZUWAKU
100
AcDbCircle
 10
15.49221301553666
 20
18.63479822986153
 30
0.0
 40
1.399999999999999
100
AcDbArc
 50
180.0000000000016
 51
224.9999999999988
  0
LINE
  5
7513
330
1A
100
AcDbEntity
  8
ZUWAKU
100
AcDbLine
 10
23.54221301553673
 20
19.05000025521683
 30
0.0
 11
23.54221301553673
 21
11.35000025521684
 31
0.0
  0
LINE
  5
7514
330
1A
100
AcDbEntity
  8
ZUWAKU
100
AcDbLine
 10
20.74221301553666
 20
11.35000025521684
 30
0.0
 11
20.74221301553666
 21
19.05000025521679
 31
0.0
  0
ARC
  5
7515
330
1A
100
AcDbEntity
  8
ZUWAKU
100
AcDbCircle
 10
15.49221301553666
 20
18.63479822986153
 30
0.0
 40
4.199999999999999
100
AcDbArc
 50
180.0
 51
225.0
  0
ARC
  5
7516
330
1A
100
AcDbEntity
  8
ZUWAKU
100
AcDbCircle
 10
15.84221301553668
 20
9.950000255216835
 30
0.0
 40
2.799999999999999
100
AcDbArc
 50
270.0
 51
0.0
  0
ARC
  5
7517
330
1A
100
AcDbEntity
  8
ZUWAKU
100
AcDbCircle
 10
24.9422130155367
 20
11.35000025521684
 30
0.0
 40
4.199999999999999
100
AcDbArc
 50
180.0
 51
270.0
  0
ARC
  5
7518
330
1A
100
AcDbEntity
  8
ZUWAKU
100
AcDbCircle
 10
14.4422130155367
 20
11.76520228057214
 30
0.0
 40
4.199999999999999
100
AcDbArc
 50
0.0
 51
45.0
  0
LINE
  5
7519
330
1A
100
AcDbEntity
  8
ZUWAKU
100
AcDbLine
 10
17.41206149652021
 20
14.73505076155566
 30
0.0
 11
14.50226352187553
 21
17.64484873620033
 31
0.0
  0
LINE
  5
751A
330
1A
100
AcDbEntity
  8
ZUWAKU
100
AcDbLine
 10
15.84221301553668
 20
10.47500025521684
 30
0.0
 11
15.84221301553668
 21
11.76520228057218
 31
0.0
  0
ARC
  5
751B
330
1A
100
AcDbEntity
  8
ZUWAKU
100
AcDbCircle
 10
15.31721301553671
 20
10.47500025521684
 30
0.0
 40
0.525
100
AcDbArc
 50
270.0
 51
0.0
  0
ARC
  5
751C
330
1A
100
AcDbEntity
  8
ZUWAKU
100
AcDbCircle
 10
14.4422130155367
 20
11.76520228057218
 30
0.0
 40
1.399999999999999
100
AcDbArc
 50
0.0
 51
45.0
  0
LINE
  5
751D
330
1A
100
AcDbEntity
  8
ZUWAKU
100
AcDbLine
 10
11.8172130155367
 20
7.675000255216836
 30
0.0
 11
11.8172130155367
 21
9.425000255216836
 31
0.0
  0
ARC
  5
751E
330
1A
100
AcDbEntity
  8
ZUWAKU
100
AcDbCircle
 10
12.34221301553668
 20
7.675000255216836
 30
0.0
 40
0.525
100
AcDbArc
 50
180.0
 51
270.0
  0
ARC
  5
751F
330
1A
100
AcDbEntity
  8
ZUWAKU
100
AcDbCircle
 10
12.34221301553668
 20
9.425000255216836
 30
0.0
 40
0.525
100
AcDbArc
 50
90.0
 51
180.0
  0
LINE
  5
7520
330
1A
100
AcDbEntity
  8
ZUWAKU
100
AcDbLine
 10
12.34221301553668
 20
7.150000255216838
 30
0.0
 11
15.84221301553668
 21
7.150000255216838
 31
0.0
  0
LINE
  5
7521
330
1A
100
AcDbEntity
  8
ZUWAKU
100
AcDbLine
 10
12.34221301553668
 20
9.950000255216835
 30
0.0
 11
15.31721301553671
 21
9.950000255216835
 31
0.0
  0
LINE
  5
7522
330
1A
100
AcDbEntity
  8
ZUWAKU
100
AcDbLine
 10
12.52236453455316
 20
15.66494974887801
 30
0.0
 11
15.43216250919783
 21
12.75515177423335
 31
0.0
  0
LINE
  5
7523
330
1A
100
AcDbEntity
  8
ZUWAKU
100
AcDbLine
 10
18.64221301553675
 20
9.950000255216835
 30
0.0
 11
18.64221301553675
 21
11.76520228057218
 31
0.0
  0
ARC
  5
7524
330
1A
100
AcDbEntity
  8
ZUWAKU
100
AcDbCircle
 10
24.9422130155367
 20
11.35000025521684
 30
0.0
 40
1.399999999999999
100
AcDbArc
 50
180.0
 51
270.0
  0
ARC
  5
7525
330
1A
100
AcDbEntity
  8
ZUWAKU
100
AcDbCircle
 10
17.59221301553668
 20
22.72500025521683
 30
0.0
 40
0.525
100
AcDbArc
 50
0.0
 51
90.0
  0
ARC
  5
7526
330
1A
100
AcDbEntity
  8
ZUWAKU
100
AcDbCircle
 10
17.59221301553668
 20
20.97500025521683
 30
0.0
 40
0.525
100
AcDbArc
 50
270.0
 51
0.0
  0
LINE
  5
7527
330
1A
100
AcDbEntity
  8
ZUWAKU
100
AcDbLine
 10
14.09221301553668
 20
23.25000025521684
 30
0.0
 11
17.59221301553668
 21
23.25000025521684
 31
0.0
  0
ARC
  5
7528
330
1A
100
AcDbEntity
  8
ZUWAKU
100
AcDbCircle
 10
14.61721301553666
 20
19.92500025521683
 30
0.0
 40
0.525
100
AcDbArc
 50
90.0
 51
180.0
  0
LINE
  5
7529
330
1A
100
AcDbEntity
  8
ZUWAKU
100
AcDbLine
 10
14.09221301553668
 20
19.92500025521683
 30
0.0
 11
14.09221301553668
 21
18.63479822986149
 31
0.0
  0
LINE
  5
752A
330
1A
100
AcDbEntity
  8
ZUWAKU
100
AcDbLine
 10
17.59221301553668
 20
20.45000025521683
 30
0.0
 11
14.61721301553666
 21
20.45000025521683
 31
0.0
  0
LINE
  5
752B
330
1A
100
AcDbEntity
  8
ZUWAKU
100
AcDbLine
 10
11.29221301553673
 20
20.45000025521683
 30
0.0
 11
11.29221301553673
 21
18.63479822986149
 31
0.0
  0
ARC
  5
752C
330
1A
100
AcDbEntity
  8
ZUWAKU
100
AcDbCircle
 10
14.09221301553668
 20
20.45000025521683
 30
0.0
 40
2.799999999999999
100
AcDbArc
 50
90.0
 51
180.0
  0
LINE
  5
752D
330
1A
100
AcDbEntity
  8
ZUWAKU
100
AcDbLine
 10
18.11721301553666
 20
22.72500025521683
 30
0.0
 11
18.11721301553666
 21
20.97500025521683
 31
0.0
  0
ARC
  5
752E
330
1A
100
AcDbEntity
  8
ZUWAKU
100
AcDbCircle
 10
24.9422130155367
 20
19.05000025521683
 30
0.0
 40
1.399999999999999
100
AcDbArc
 50
90.0
 51
180.0
  0
ARC
  5
752F
330
1A
100
AcDbEntity
  8
ZUWAKU
100
AcDbCircle
 10
24.9422130155367
 20
19.05000025521679
 30
0.0
 40
4.199999999999999
100
AcDbArc
 50
90.0
 51
180.0
  0
LINE
  5
7530
330
1A
100
AcDbEntity
  8
ZUWAKU
100
AcDbLine
 10
79.32663040874377
 20
30.00000025521683
 30
0.0
 11
79.32663040874399
 21
0.8000002552169007
 31
0.0
  0
LINE
  5
7531
330
1A
100
AcDbEntity
  8
ZUWAKU
100
AcDbLine
 10
79.52663040874381
 20
30.00000025521683
 30
0.0
 11
79.52663040874404
 21
0.8000002552169007
 31
0.0
  0
LINE
  5
7532
330
1A
100
AcDbEntity
  8
ZUWAKU
100
AcDbLine
 10
79.12663040874395
 20
30.00000025521683
 30
0.0
 11
79.12663040874395
 21
0.8000002552169007
 31
0.0
  0
LINE
  5
7533
330
1A
100
AcDbEntity
  8
ZUWAKU
100
AcDbLine
 10
64.14221301553675
 20
9.950000255216835
 30
0.0
 11
64.14221301553675
 21
22.72500025521683
 31
0.0
  0
LINE
  5
7534
330
1A
100
AcDbEntity
  8
ZUWAKU
100
AcDbLine
 10
61.34221301553669
 20
22.72500025521683
 30
0.0
 11
61.34221301553669
 21
11.00000025521683
 31
0.0
  0
LINE
  5
7535
330
1A
100
AcDbEntity
  8
ZUWAKU
100
AcDbLine
 10
69.04221301553673
 20
7.675000255216836
 30
0.0
 11
69.04221301553673
 21
22.72500025521683
 31
0.0
  0
LINE
  5
7536
330
1A
100
AcDbEntity
  8
ZUWAKU
100
AcDbLine
 10
66.24221301553666
 20
22.72500025521683
 30
0.0
 11
66.24221301553666
 21
7.675000255216836
 31
0.0
  0
ARC
  5
7537
330
1A
100
AcDbEntity
  8
ZUWAKU
100
AcDbCircle
 10
49.79221301553673
 20
18.63479822986153
 30
0.0
 40
1.399999999999999
100
AcDbArc
 50
180.0000000000016
 51
224.9999999999988
  0
ARC
  5
7538
330
1A
100
AcDbEntity
  8
ZUWAKU
100
AcDbCircle
 10
49.79221301553673
 20
18.63479822986153
 30
0.0
 40
4.199999999999999
100
AcDbArc
 50
180.0
 51
225.0
  0
LINE
  5
7539
330
1A
100
AcDbEntity
  8
ZUWAKU
100
AcDbLine
 10
37.31485949771467
 20
19.20504744878026
 30
0.0
 11
36.05010775237883
 21
15.20000025521685
 31
0.0
  0
LINE
  5
753A
330
1A
100
AcDbEntity
  8
ZUWAKU
100
AcDbLine
 10
40.6922130155367
 20
22.72500025521683
 30
0.0
 11
40.6922130155367
 21
7.675000255216836
 31
0.0
  0
LINE
  5
753B
330
1A
100
AcDbEntity
  8
ZUWAKU
100
AcDbLine
 10
43.49221301553666
 20
7.675000255216836
 30
0.0
 11
43.49221301553666
 21
22.72500025521683
 31
0.0
  0
LINE
  5
753C
330
1A
100
AcDbEntity
  8
ZUWAKU
100
AcDbLine
 10
55.04221301553673
 20
22.72500025521683
 30
0.0
 11
55.04221301553673
 21
9.950000255216835
 31
0.0
  0
LINE
  5
753D
330
1A
100
AcDbEntity
  8
ZUWAKU
100
AcDbLine
 10
57.84221301553668
 20
11.00000025521683
 30
0.0
 11
57.84221301553668
 21
22.72500025521683
 31
0.0
  0
LINE
  5
753E
330
1A
100
AcDbEntity
  8
ZUWAKU
100
AcDbLine
 10
32.64221301553675
 20
17.12500025521683
 30
0.0
 11
32.64221301553675
 21
22.72500025521683
 31
0.0
  0
LINE
  5
753F
330
1A
100
AcDbEntity
  8
ZUWAKU
100
AcDbLine
 10
29.84221301553668
 20
22.72500025521683
 30
0.0
 11
29.84221301553668
 21
7.675000255216836
 31
0.0
  0
LINE
  5
7540
330
1A
100
AcDbEntity
  8
ZUWAKU
100
AcDbLine
 10
35.67634795285255
 20
22.8830942233838
 30
0.0
 11
33.80807807822077
 21
16.96690628704986
 31
0.0
  0
LINE
  5
7541
330
1A
100
AcDbEntity
  8
ZUWAKU
100
AcDbLine
 10
60.29221301553673
 20
9.950000255216835
 30
0.0
 11
58.89221301553675
 21
9.950000255216835
 31
0.0
  0
LINE
  5
7542
330
1A
100
AcDbEntity
  8
ZUWAKU
100
AcDbLine
 10
57.84221301553668
 20
7.150000255216838
 30
0.0
 11
61.34221301553669
 21
7.150000255216838
 31
0.0
  0
LINE
  5
7543
330
1A
100
AcDbEntity
  8
ZUWAKU
100
AcDbLine
 10
41.21721301553669
 20
7.150000255216838
 30
0.0
 11
42.96721301553668
 21
7.150000255216838
 31
0.0
  0
LINE
  5
7544
330
1A
100
AcDbEntity
  8
ZUWAKU
100
AcDbLine
 10
35.67634795285255
 20
7.516906287049863
 30
0.0
 11
33.80807807822077
 21
13.4330942233838
 31
0.0
  0
ARC
  5
7545
330
1A
100
AcDbEntity
  8
ZUWAKU
100
AcDbCircle
 10
33.30744717902542
 20
17.12500025521683
 30
0.0
 40
0.525
100
AcDbArc
 50
270.0
 51
342.4744316262769
  0
LINE
  5
7546
330
1A
100
AcDbEntity
  8
ZUWAKU
100
AcDbLine
 10
33.30744717902542
 20
16.60000025521683
 30
0.0
 11
33.16721301553673
 21
16.60000025521683
 31
0.0
  0
LINE
  5
7547
330
1A
100
AcDbEntity
  8
ZUWAKU
100
AcDbLine
 10
33.16721301553673
 20
13.80000025521683
 30
0.0
 11
33.30744717902542
 21
13.80000025521683
 31
0.0
  0
ARC
  5
7548
330
1A
100
AcDbEntity
  8
ZUWAKU
100
AcDbCircle
 10
33.16721301553673
 20
17.12500025521683
 30
0.0
 40
0.525
100
AcDbArc
 50
180.0
 51
270.0
  0
LINE
  5
7549
330
1A
100
AcDbEntity
  8
ZUWAKU
100
AcDbLine
 10
30.36721301553666
 20
7.150000255216838
 30
0.0
 11
32.11721301553666
 21
7.150000255216838
 31
0.0
  0
ARC
  5
754A
330
1A
100
AcDbEntity
  8
ZUWAKU
100
AcDbCircle
 10
32.11721301553666
 20
7.675000255216836
 30
0.0
 40
0.525
100
AcDbArc
 50
270.0
 51
0.0
  0
LINE
  5
754B
330
1A
100
AcDbEntity
  8
ZUWAKU
100
AcDbLine
 10
32.64221301553675
 20
7.675000255216836
 30
0.0
 11
32.64221301553675
 21
13.27500025521684
 31
0.0
  0
LINE
  5
754C
330
1A
100
AcDbEntity
  8
ZUWAKU
100
AcDbLine
 10
27.39221301553675
 20
9.425000255216836
 30
0.0
 11
27.39221301553675
 21
7.675000255216836
 31
0.0
  0
ARC
  5
754D
330
1A
100
AcDbEntity
  8
ZUWAKU
100
AcDbCircle
 10
26.86721301553666
 20
7.675000255216836
 30
0.0
 40
0.525
100
AcDbArc
 50
270.0
 51
0.0
  0
ARC
  5
754E
330
1A
100
AcDbEntity
  8
ZUWAKU
100
AcDbCircle
 10
26.86721301553666
 20
9.425000255216836
 30
0.0
 40
0.525
100
AcDbArc
 50
0.0
 51
90.0
  0
ARC
  5
754F
330
1A
100
AcDbEntity
  8
ZUWAKU
100
AcDbCircle
 10
30.36721301553666
 20
7.675000255216836
 30
0.0
 40
0.525
100
AcDbArc
 50
180.0
 51
270.0
  0
ARC
  5
7550
330
1A
100
AcDbEntity
  8
ZUWAKU
100
AcDbCircle
 10
33.30744717902542
 20
13.27500025521684
 30
0.0
 40
0.525
100
AcDbArc
 50
17.52556837372303
 51
90.0
  0
ARC
  5
7551
330
1A
100
AcDbEntity
  8
ZUWAKU
100
AcDbCircle
 10
33.16721301553673
 20
13.27500025521684
 30
0.0
 40
0.525
100
AcDbArc
 50
90.0
 51
180.0
  0
ARC
  5
7552
330
1A
100
AcDbEntity
  8
ZUWAKU
100
AcDbCircle
 10
41.21721301553669
 20
7.675000255216836
 30
0.0
 40
0.525
100
AcDbArc
 50
180.0
 51
270.0
  0
LINE
  5
7553
330
1A
100
AcDbEntity
  8
ZUWAKU
100
AcDbLine
 10
36.17697885204802
 20
7.150000255216838
 30
0.0
 11
37.87586823165702
 21
7.150000255216838
 31
0.0
  0
ARC
  5
7554
330
1A
100
AcDbEntity
  8
ZUWAKU
100
AcDbCircle
 10
37.87586823165702
 20
7.675000255216836
 30
0.0
 40
0.525
100
AcDbArc
 50
270.0
 51
17.52556837372303
  0
LINE
  5
7555
330
1A
100
AcDbEntity
  8
ZUWAKU
100
AcDbLine
 10
38.37649913085249
 20
7.83309422338381
 30
0.0
 11
36.05010775237883
 21
15.20000025521685
 31
0.0
  0
ARC
  5
7556
330
1A
100
AcDbEntity
  8
ZUWAKU
100
AcDbCircle
 10
36.17697885204802
 20
7.675000255216836
 30
0.0
 40
0.525
100
AcDbArc
 50
197.525568373723
 51
270.0
  0
ARC
  5
7557
330
1A
100
AcDbEntity
  8
ZUWAKU
100
AcDbCircle
 10
57.84221301553668
 20
9.950000255216835
 30
0.0
 40
2.799999999999999
100
AcDbArc
 50
180.0
 51
270.0
  0
ARC
  5
7558
330
1A
100
AcDbEntity
  8
ZUWAKU
100
AcDbCircle
 10
50.14221301553675
 20
9.950000255216835
 30
0.0
 40
2.799999999999999
100
AcDbArc
 50
270.0
 51
0.0
  0
LINE
  5
7559
330
1A
100
AcDbEntity
  8
ZUWAKU
100
AcDbLine
 10
51.71206149652028
 20
14.73505076155566
 30
0.0
 11
48.80226352187548
 21
17.64484873620033
 31
0.0
  0
LINE
  5
755A
330
1A
100
AcDbEntity
  8
ZUWAKU
100
AcDbLine
 10
50.14221301553675
 20
10.47500025521684
 30
0.0
 11
50.14221301553675
 21
11.76520228057218
 31
0.0
  0
ARC
  5
755B
330
1A
100
AcDbEntity
  8
ZUWAKU
100
AcDbCircle
 10
48.74221301553666
 20
11.76520228057218
 30
0.0
 40
1.399999999999999
100
AcDbArc
 50
0.0
 51
45.0
  0
ARC
  5
755C
330
1A
100
AcDbEntity
  8
ZUWAKU
100
AcDbCircle
 10
49.61721301553666
 20
10.47500025521684
 30
0.0
 40
0.525
100
AcDbArc
 50
270.0
 51
0.0
  0
LINE
  5
755D
330
1A
100
AcDbEntity
  8
ZUWAKU
100
AcDbLine
 10
46.11721301553666
 20
7.675000255216836
 30
0.0
 11
46.11721301553666
 21
9.425000255216836
 31
0.0
  0
ARC
  5
755E
330
1A
100
AcDbEntity
  8
ZUWAKU
100
AcDbCircle
 10
46.64221301553675
 20
7.675000255216836
 30
0.0
 40
0.525
100
AcDbArc
 50
180.0
 51
270.0
  0
ARC
  5
755F
330
1A
100
AcDbEntity
  8
ZUWAKU
100
AcDbCircle
 10
42.96721301553668
 20
7.675000255216836
 30
0.0
 40
0.525
100
AcDbArc
 50
270.0
 51
0.0
  0
ARC
  5
7560
330
1A
100
AcDbEntity
  8
ZUWAKU
100
AcDbCircle
 10
46.64221301553675
 20
9.425000255216836
 30
0.0
 40
0.525
100
AcDbArc
 50
90.0
 51
180.0
  0
LINE
  5
7561
330
1A
100
AcDbEntity
  8
ZUWAKU
100
AcDbLine
 10
46.64221301553675
 20
9.950000255216835
 30
0.0
 11
49.61721301553666
 21
9.950000255216835
 31
0.0
  0
LINE
  5
7562
330
1A
100
AcDbEntity
  8
ZUWAKU
100
AcDbLine
 10
46.64221301553675
 20
7.150000255216838
 30
0.0
 11
50.14221301553675
 21
7.150000255216838
 31
0.0
  0
LINE
  5
7563
330
1A
100
AcDbEntity
  8
ZUWAKU
100
AcDbLine
 10
46.82236453455323
 20
15.66494974887801
 30
0.0
 11
49.7321625091979
 21
12.75515177423335
 31
0.0
  0
LINE
  5
7564
330
1A
100
AcDbEntity
  8
ZUWAKU
100
AcDbLine
 10
52.94221301553671
 20
9.950000255216835
 30
0.0
 11
52.94221301553671
 21
11.76520228057218
 31
0.0
  0
ARC
  5
7565
330
1A
100
AcDbEntity
  8
ZUWAKU
100
AcDbCircle
 10
48.74221301553666
 20
11.76520228057214
 30
0.0
 40
4.199999999999999
100
AcDbArc
 50
0.0
 51
45.0
  0
ARC
  5
7566
330
1A
100
AcDbEntity
  8
ZUWAKU
100
AcDbCircle
 10
58.89221301553675
 20
11.00000025521683
 30
0.0
 40
1.049999999999999
100
AcDbArc
 50
180.0
 51
270.0
  0
ARC
  5
7567
330
1A
100
AcDbEntity
  8
ZUWAKU
100
AcDbCircle
 10
61.34221301553669
 20
9.950000255216835
 30
0.0
 40
2.799999999999999
100
AcDbArc
 50
270.0
 51
0.0
  0
LINE
  5
7568
330
1A
100
AcDbEntity
  8
ZUWAKU
100
AcDbLine
 10
66.76721301553675
 20
7.150000255216838
 30
0.0
 11
68.51721301553675
 21
7.150000255216838
 31
0.0
  0
ARC
  5
7569
330
1A
100
AcDbEntity
  8
ZUWAKU
100
AcDbCircle
 10
66.76721301553675
 20
7.675000255216836
 30
0.0
 40
0.525
100
AcDbArc
 50
180.0
 51
270.0
  0
ARC
  5
756A
330
1A
100
AcDbEntity
  8
ZUWAKU
100
AcDbCircle
 10
60.29221301553673
 20
11.00000025521683
 30
0.0
 40
1.049999999999999
100
AcDbArc
 50
270.0
 51
0.0
  0
ARC
  5
756B
330
1A
100
AcDbEntity
  8
ZUWAKU
100
AcDbCircle
 10
68.51721301553675
 20
7.675000255216836
 30
0.0
 40
0.525
100
AcDbArc
 50
270.0
 51
0.0
  0
LINE
  5
756C
330
1A
100
AcDbEntity
  8
ZUWAKU
100
AcDbLine
 10
42.96721301553668
 20
23.25000025521684
 30
0.0
 11
41.21721301553669
 21
23.25000025521684
 31
0.0
  0
ARC
  5
756D
330
1A
100
AcDbEntity
  8
ZUWAKU
100
AcDbCircle
 10
32.11721301553666
 20
22.72500025521683
 30
0.0
 40
0.525
100
AcDbArc
 50
0.0
 51
90.0
  0
LINE
  5
756E
330
1A
100
AcDbEntity
  8
ZUWAKU
100
AcDbLine
 10
32.11721301553666
 20
23.25000025521684
 30
0.0
 11
30.36721301553666
 21
23.25000025521684
 31
0.0
  0
ARC
  5
756F
330
1A
100
AcDbEntity
  8
ZUWAKU
100
AcDbCircle
 10
26.86721301553666
 20
22.72500025521683
 30
0.0
 40
0.525
100
AcDbArc
 50
0.0
 51
90.0
  0
ARC
  5
7570
330
1A
100
AcDbEntity
  8
ZUWAKU
100
AcDbCircle
 10
30.36721301553666
 20
22.72500025521683
 30
0.0
 40
0.525
100
AcDbArc
 50
90.0
 51
180.0
  0
ARC
  5
7571
330
1A
100
AcDbEntity
  8
ZUWAKU
100
AcDbCircle
 10
26.86721301553666
 20
20.97500025521683
 30
0.0
 40
0.525
100
AcDbArc
 50
270.0
 51
0.0
  0
LINE
  5
7572
330
1A
100
AcDbEntity
  8
ZUWAKU
100
AcDbLine
 10
27.39221301553675
 20
22.72500025521683
 30
0.0
 11
27.39221301553675
 21
20.97500025521683
 31
0.0
  0
ARC
  5
7573
330
1A
100
AcDbEntity
  8
ZUWAKU
100
AcDbCircle
 10
41.21721301553669
 20
22.72500025521683
 30
0.0
 40
0.525
100
AcDbArc
 50
90.0
 51
180.0
  0
LINE
  5
7574
330
1A
100
AcDbEntity
  8
ZUWAKU
100
AcDbLine
 10
36.17697885204802
 20
23.25000025521684
 30
0.0
 11
37.87586823165702
 21
23.25000025521684
 31
0.0
  0
ARC
  5
7575
330
1A
100
AcDbEntity
  8
ZUWAKU
100
AcDbCircle
 10
37.87586823165702
 20
22.72500025521683
 30
0.0
 40
0.525
100
AcDbArc
 50
342.4744316262769
 51
90.0
  0
LINE
  5
7576
330
1A
100
AcDbEntity
  8
ZUWAKU
100
AcDbLine
 10
38.37649913085249
 20
22.56690628704987
 30
0.0
 11
37.31485949771467
 21
19.20504744878026
 31
0.0
  0
ARC
  5
7577
330
1A
100
AcDbEntity
  8
ZUWAKU
100
AcDbCircle
 10
36.17697885204802
 20
22.72500025521683
 30
0.0
 40
0.525
100
AcDbArc
 50
90.0
 51
162.4744316262769
  0
LINE
  5
7578
330
1A
100
AcDbEntity
  8
ZUWAKU
100
AcDbLine
 10
48.39221301553675
 20
23.25000025521684
 30
0.0
 11
51.89221301553676
 21
23.25000025521684
 31
0.0
  0
LINE
  5
7579
330
1A
100
AcDbEntity
  8
ZUWAKU
100
AcDbLine
 10
51.89221301553676
 20
20.45000025521683
 30
0.0
 11
48.91721301553673
 21
20.45000025521683
 31
0.0
  0
ARC
  5
757A
330
1A
100
AcDbEntity
  8
ZUWAKU
100
AcDbCircle
 10
48.91721301553673
 20
19.92500025521683
 30
0.0
 40
0.525
100
AcDbArc
 50
90.0
 51
180.0
  0
LINE
  5
757B
330
1A
100
AcDbEntity
  8
ZUWAKU
100
AcDbLine
 10
48.39221301553675
 20
19.92500025521683
 30
0.0
 11
48.39221301553675
 21
18.63479822986149
 31
0.0
  0
ARC
  5
757C
330
1A
100
AcDbEntity
  8
ZUWAKU
100
AcDbCircle
 10
42.96721301553668
 20
22.72500025521683
 30
0.0
 40
0.525
100
AcDbArc
 50
0.0
 51
90.0
  0
LINE
  5
757D
330
1A
100
AcDbEntity
  8
ZUWAKU
100
AcDbLine
 10
45.59221301553669
 20
20.45000025521683
 30
0.0
 11
45.59221301553669
 21
18.63479822986149
 31
0.0
  0
ARC
  5
757E
330
1A
100
AcDbEntity
  8
ZUWAKU
100
AcDbCircle
 10
48.39221301553675
 20
20.45000025521683
 30
0.0
 40
2.799999999999999
100
AcDbArc
 50
90.0
 51
180.0
  0
ARC
  5
757F
330
1A
100
AcDbEntity
  8
ZUWAKU
100
AcDbCircle
 10
57.31721301553671
 20
22.72500025521683
 30
0.0
 40
0.525
100
AcDbArc
 50
0.0
 51
90.0
  0
ARC
  5
7580
330
1A
100
AcDbEntity
  8
ZUWAKU
100
AcDbCircle
 10
55.56721301553671
 20
22.72500025521683
 30
0.0
 40
0.525
100
AcDbArc
 50
90.0
 51
180.0
  0
LINE
  5
7581
330
1A
100
AcDbEntity
  8
ZUWAKU
100
AcDbLine
 10
57.31721301553671
 20
23.25000025521684
 30
0.0
 11
55.56721301553671
 21
23.25000025521684
 31
0.0
  0
ARC
  5
7582
330
1A
100
AcDbEntity
  8
ZUWAKU
100
AcDbCircle
 10
51.89221301553676
 20
22.72500025521683
 30
0.0
 40
0.525
100
AcDbArc
 50
0.0
 51
90.0
  0
ARC
  5
7583
330
1A
100
AcDbEntity
  8
ZUWAKU
100
AcDbCircle
 10
51.89221301553676
 20
20.97500025521683
 30
0.0
 40
0.525
100
AcDbArc
 50
270.0
 51
0.0
  0
LINE
  5
7584
330
1A
100
AcDbEntity
  8
ZUWAKU
100
AcDbLine
 10
52.41721301553673
 20
22.72500025521683
 30
0.0
 11
52.41721301553673
 21
20.97500025521683
 31
0.0
  0
LINE
  5
7585
330
1A
100
AcDbEntity
  8
ZUWAKU
100
AcDbLine
 10
68.51721301553675
 20
23.25000025521684
 30
0.0
 11
66.76721301553675
 21
23.25000025521684
 31
0.0
  0
ARC
  5
7586
330
1A
100
AcDbEntity
  8
ZUWAKU
100
AcDbCircle
 10
66.76721301553675
 20
22.72500025521683
 30
0.0
 40
0.525
100
AcDbArc
 50
90.0
 51
180.0
  0
ARC
  5
7587
330
1A
100
AcDbEntity
  8
ZUWAKU
100
AcDbCircle
 10
63.61721301553666
 20
22.72500025521683
 30
0.0
 40
0.525
100
AcDbArc
 50
0.0
 51
90.0
  0
LINE
  5
7588
330
1A
100
AcDbEntity
  8
ZUWAKU
100
AcDbLine
 10
63.61721301553666
 20
23.25000025521684
 30
0.0
 11
61.86721301553666
 21
23.25000025521684
 31
0.0
  0
ARC
  5
7589
330
1A
100
AcDbEntity
  8
ZUWAKU
100
AcDbCircle
 10
61.86721301553666
 20
22.72500025521683
 30
0.0
 40
0.525
100
AcDbArc
 50
90.0
 51
180.0
  0
ARC
  5
758A
330
1A
100
AcDbEntity
  8
ZUWAKU
100
AcDbCircle
 10
68.51721301553675
 20
22.72500025521683
 30
0.0
 40
0.525
100
AcDbArc
 50
0.0
 51
90.0
  0
TEXT
  5
758B
330
1A
100
AcDbEntity
  8
MOJI
100
AcDbText
 10
239.8272035416066
 20
3.204921312624254
 30
0.0
 40
5.599999999999999
  1
ＲＶ１０５－５－１０
 41
0.9
  7
ｽﾀｲﾙ1
100
AcDbText
  0
TEXT
  5
758C
330
1A
100
AcDbEntity
  8
MOJI
100
AcDbText
 10
239.8272035416066
 20
18.00492131262421
 30
0.0
 40
5.599999999999999
  1
ブラケット正面打（吊）固定式
 41
0.9
  7
ｽﾀｲﾙ1
100
AcDbText
  0
LINE
  5
758D
330
1A
100
AcDbEntity
  8
ZUWAKU
100
AcDbLine
 10
208.2466021508234
 20
30.00000025521683
 30
0.0
 11
208.2466021508234
 21
0.8000002552169007
 31
0.0
  0
LINE
  5
758E
330
1A
100
AcDbEntity
  8
ZUWAKU
100
AcDbLine
 10
208.6466021508233
 20
30.00000025521683
 30
0.0
 11
208.6466021508235
 21
0.8000002552169007
 31
0.0
  0
LINE
  5
758F
330
1A
100
AcDbEntity
  8
ZUWAKU
100
AcDbLine
 10
208.4466021508233
 20
30.00000025521683
 30
0.0
 11
208.4466021508235
 21
0.8000002552169007
 31
0.0
  0
TEXT
  5
7590
330
1A
100
AcDbEntity
  8
ZUWAKU
100
AcDbText
 10
209.7240471730331
 20
9.65535679360245
 30
0.0
 40
4.0
  1
サイズ
 41
0.9
  7
ｽﾀｲﾙ1
100
AcDbText
  0
TEXT
  5
7591
330
1A
100
AcDbEntity
  8
ZUWAKU
100
AcDbText
 10
209.7240471730328
 20
24.05535679360241
 30
0.0
 40
4.0
  1
品名
 41
0.9
  7
ｽﾀｲﾙ1
100
AcDbText
  0
LINE
  5
7592
330
1A
100
AcDbEntity
  8
ZUWAKU
100
AcDbLine
 10
648.8172033709597
 20
15.20000025521686
 30
0.0
 11
697.2490114092968
 21
15.20000025521686
 31
0.0
  0
LINE
  5
7593
330
1A
100
AcDbEntity
  8
ZUWAKU
100
AcDbLine
 10
648.81720337096
 20
15.40000025521687
 30
0.0
 11
697.2490114092968
 21
15.40000025521686
 31
0.0
  0
LINE
  5
7594
330
1A
100
AcDbEntity
  8
ZUWAKU
100
AcDbLine
 10
648.8172033709597
 20
15.60000025521686
 30
0.0
 11
697.2490114092968
 21
15.60000025521686
 31
0.0
  0
TEXT
  5
7595
330
1A
100
AcDbEntity
  8
ZUWAKU
100
AcDbText
 10
658.2039385480579
 20
18.00492131262421
 30
0.0
 40
5.599999999999999
  1
　　．　　．　　
 41
0.9
  7
ｽﾀｲﾙ1
100
AcDbText
  0
LINE
  5
7596
330
1A
100
AcDbEntity
  8
ZUWAKU
100
AcDbLine
 10
505.1991803588964
 20
15.20000025521687
 30
0.0
 11
552.526956626868
 21
15.20000025521687
 31
0.0
  0
LINE
  5
7597
330
1A
100
AcDbEntity
  8
ZUWAKU
100
AcDbLine
 10
505.1991803588964
 20
15.40000025521686
 30
0.0
 11
552.526956626868
 21
15.40000025521686
 31
0.0
  0
LINE
  5
7598
330
1A
100
AcDbEntity
  8
ZUWAKU
100
AcDbLine
 10
505.1991803588964
 20
15.60000025521686
 30
0.0
 11
552.526956626868
 21
15.60000025521686
 31
0.0
  0
TEXT
  5
7599
330
1A
100
AcDbEntity
  8
MOJI
100
AcDbText
 10
464.5946268639945
 20
11.94261797687681
 30
0.0
 40
5.599999999999999
  1
ＬＪ９７□
 41
0.9
  7
ｽﾀｲﾙ1
100
AcDbText
  0
LINE
  5
759A
330
1A
100
AcDbEntity
  8
ZUWAKU
100
AcDbLine
 10
447.6243648317468
 20
30.00000025521683
 30
0.0
 11
447.624364831747
 21
0.8000002552169007
 31
0.0
  0
LINE
  5
759B
330
1A
100
AcDbEntity
  8
ZUWAKU
100
AcDbLine
 10
447.8243648317468
 20
30.00000025521683
 30
0.0
 11
447.824364831747
 21
0.8000002552169007
 31
0.0
  0
LINE
  5
759C
330
1A
100
AcDbEntity
  8
ZUWAKU
100
AcDbLine
 10
447.4243648317469
 20
30.00000025521683
 30
0.0
 11
447.4243648317469
 21
0.8000002552169007
 31
0.0
  0
TEXT
  5
759D
330
1A
100
AcDbEntity
  8
MOJI
100
AcDbText
 10
528.0409088330684
 20
18.00492131262421
 30
0.0
 40
5.599999999999999
  1
Ａ３
 41
0.9
  7
ｽﾀｲﾙ1
100
AcDbText
  0
LINE
  5
759E
330
1A
100
AcDbEntity
  8
ZUWAKU
100
AcDbLine
 10
504.9991803588964
 20
30.00000025521683
 30
0.0
 11
504.9991803588966
 21
0.8000002552169007
 31
0.0
  0
LINE
  5
759F
330
1A
100
AcDbEntity
  8
ZUWAKU
100
AcDbLine
 10
505.1991803588964
 20
30.00000025521683
 30
0.0
 11
505.1991803588967
 21
0.8000002552169007
 31
0.0
  0
LINE
  5
75A0
330
1A
100
AcDbEntity
  8
ZUWAKU
100
AcDbLine
 10
504.7991803588965
 20
30.00000025521683
 30
0.0
 11
504.7991803588965
 21
0.8000002552169007
 31
0.0
  0
TEXT
  5
75A1
330
1A
100
AcDbEntity
  8
ZUWAKU
100
AcDbText
 10
462.6937625162627
 20
2.614071166356325
 30
0.0
 40
3.0
  1
□には色品番が入ります
 41
0.9
  7
ｽﾀｲﾙ1
100
AcDbText
  0
TEXT
  5
75A2
330
1A
100
AcDbEntity
  8
ZUWAKU
100
AcDbText
 10
506.6766253811063
 20
9.65535679360245
 30
0.0
 40
4.0
  1
縮尺
 41
0.9
  7
ｽﾀｲﾙ1
100
AcDbText
  0
TEXT
  5
75A3
330
1A
100
AcDbEntity
  8
MOJI
100
AcDbText
 10
528.0409088330684
 20
3.204921312624254
 30
0.0
 40
5.599999999999999
  1
１/２
 41
0.9
  7
ｽﾀｲﾙ1
100
AcDbText
  0
TEXT
  5
75A4
330
1A
100
AcDbEntity
  8
ZUWAKU
100
AcDbText
 10
449.3018098539564
 20
24.05535679360241
 30
0.0
 40
4.0
  1
品番
 41
0.9
  7
ｽﾀｲﾙ1
100
AcDbText
  0
TEXT
  5
75A5
330
1A
100
AcDbEntity
  8
ZUWAKU
100
AcDbText
 10
506.676625381106
 20
24.05535679360241
 30
0.0
 40
4.0
  1
用紙
 41
0.9
  7
ｽﾀｲﾙ1
100
AcDbText
  0
LINE
  5
75A6
330
1A
100
AcDbEntity
  8
ZUWAKU
100
AcDbLine
 10
648.6172033709599
 20
30.00000025521683
 30
0.0
 11
648.6172033709602
 21
0.8000002552169007
 31
0.0
  0
LINE
  5
75A7
330
1A
100
AcDbEntity
  8
ZUWAKU
100
AcDbLine
 10
648.81720337096
 20
30.00000025521683
 30
0.0
 11
648.8172033709602
 21
0.8000002552169007
 31
0.0
  0
LINE
  5
75A8
330
1A
100
AcDbEntity
  8
ZUWAKU
100
AcDbLine
 10
648.4172033709601
 20
30.00000025521683
 30
0.0
 11
648.4172033709601
 21
0.8000002552169007
 31
0.0
  0
LINE
  5
75A9
330
1A
100
AcDbEntity
  8
ZUWAKU
100
AcDbLine
 10
552.7269566268678
 20
30.00000025521683
 30
0.0
 11
552.726956626868
 21
0.8000002552169007
 31
0.0
  0
LINE
  5
75AA
330
1A
100
AcDbEntity
  8
ZUWAKU
100
AcDbLine
 10
552.9269566268679
 20
30.00000025521683
 30
0.0
 11
552.9269566268681
 21
0.8000002552169007
 31
0.0
  0
LINE
  5
75AB
330
1A
100
AcDbEntity
  8
ZUWAKU
100
AcDbLine
 10
552.526956626868
 20
30.00000025521683
 30
0.0
 11
552.526956626868
 21
0.8000002552169007
 31
0.0
  0
TEXT
  5
75AC
330
1A
100
AcDbEntity
  8
ZUWAKU
100
AcDbText
 10
650.2946483931696
 20
24.05535679360241
 30
0.0
 40
4.0
  1
DATE
 41
0.9
  7
ｽﾀｲﾙ1
100
AcDbText
  0
LINE
  5
75AD
330
1A
100
AcDbEntity
  8
ZUWAKU
100
AcDbLine
 10
697.2490114092968
 20
30.00000025521683
 30
0.0
 11
697.2490114092968
 21
0.8000002552169007
 31
0.0
  0
LINE
  5
75AE
330
1A
100
AcDbEntity
  8
ZUWAKU
100
AcDbLine
 10
697.4490114092969
 20
30.00000025521683
 30
0.0
 11
697.4490114092969
 21
0.8000002552169007
 31
0.0
  0
LINE
  5
75AF
330
1A
100
AcDbEntity
  8
ZUWAKU
100
AcDbLine
 10
697.6490114092967
 20
30.00000025521683
 30
0.0
 11
697.6490114092968
 21
0.8000002552169007
 31
0.0
  0
LINE
  5
75B0
330
1A
100
AcDbEntity
  8
ZUWAKU
100
AcDbLine
 10
697.8490114092967
 20
30.00000025521683
 30
0.0
 11
697.8490114092969
 21
0.8000002552169007
 31
0.0
  0
TEXT
  5
75B1
330
1A
100
AcDbEntity
  8
ZUWAKU
100
AcDbText
 10
708.5280850529994
 20
17.55383959090363
 30
0.0
 40
6.0
  1
積水化学工業株式会社
 41
0.9
  7
ｽﾀｲﾙ1
100
AcDbText
  0
TEXT
  5
75B2
330
1A
100
AcDbEntity
  8
ZUWAKU
100
AcDbText
 10
708.5280850529994
 20
6.648840569070898
 30
0.0
 40
6.0
  1
建材事業部
 41
0.9
  7
ｽﾀｲﾙ1
100
AcDbText
  0
VIEWPORT
  5
22
330
17
100
AcDbEntity
 67
     1
  8
0
100
AcDbViewport
 10
313.6808219178082
 20
148.5
 30
0.0
 40
627.3616438356165
 41
297.0
 68
     2
 69
     1
1001
ACAD
1000
MVIEW
1002
{
1070
    16
1010
0.0
1020
0.0
1030
0.0
1010
0.0
1020
0.0
1030
1.0
1040
0.0
1040
297.0
1040
313.6808219178082
1040
148.5
1040
50.0
1040
0.0
1040
0.0
1070
     0
1070
   100
1070
     1
1070
     0
1070
     0
1070
     0
1070
     0
1070
     0
1040
0.0
1040
0.0
1040
0.0
1040
1.0
1040
1.0
1040
10.0
1040
10.0
1070
     0
1002
{
1002
}
1002
}
  0
VIEWPORT
  5
64
330
17
100
AcDbEntity
 67
     1
  8
VIEWPORT
100
AcDbViewport
 10
210.0
 20
148.5
 30
0.0
 40
420.0
 41
297.0
 68
     1
 69
     2
1001
ACAD
1000
MVIEW
1002
{
1070
    16
1010
0.0
1020
0.0
1030
0.0
1010
0.0
1020
0.0
1030
1.0
1040
0.0
1040
605.8799999999998
1040
420.0
1040
297.0
1040
50.0
1040
0.0
1040
0.0
1070
     0
1070
   100
1070
     1
1070
     0
1070
     0
1070
     0
1070
     0
1070
     0
1040
0.0
1040
0.0
1040
0.0
1040
10.0
1040
10.0
1040
0.0
1040
0.0
1070
     0
1002
{
1002
}
1002
}
  0
ENDSEC
  0
SECTION
  2
OBJECTS
  0
DICTIONARY
  5
C
330
0
100
AcDbDictionary
  3
ACAD_GROUP
350
D
  3
ACAD_LAYOUT
350
911
  3
ACAD_MLINESTYLE
350
E
  3
ACAD_PLOTSETTINGS
350
912
  3
ACAD_PLOTSTYLENAME
350
90F
  3
ACDBHEADERROUNDTRIPXREC
350
7637
  0
DICTIONARY
  5
94A
330
1A
100
AcDbDictionary
280
     1
  3
ACAD_LAYOUTSELFREF
360
7659
  0
DICTIONARY
  5
948
330
17
100
AcDbDictionary
280
     1
  3
ACAD_LAYOUTSELFREF
360
7658
  0
DICTIONARY
  5
D
102
{ACAD_REACTORS
330
C
102
}
330
C
100
AcDbDictionary
  0
DICTIONARY
  5
911
102
{ACAD_REACTORS
330
C
102
}
330
C
100
AcDbDictionary
  0
DICTIONARY
  5
E
102
{ACAD_REACTORS
330
C
102
}
330
C
100
AcDbDictionary
  3
STANDARD
350
13
  0
DICTIONARY
  5
912
102
{ACAD_REACTORS
330
C
102
}
330
C
100
AcDbDictionary
  0
ACDBDICTIONARYWDFLT
  5
90F
102
{ACAD_REACTORS
330
C
102
}
330
C
100
AcDbDictionary
281
     1
  3
Normal
350
910
100
AcDbDictionaryWithDefault
340
910
1001
ACAD
1000
TREAT_AS_HARD
1070
     0
1000
TREAT_AS_HARD
1070
     0
1000
TREAT_AS_HARD
1070
     0
1000
TREAT_AS_HARD
1070
     0
1000
TREAT_AS_HARD
1070
     0
1000
TREAT_AS_HARD
1070
     0
1000
TREAT_AS_HARD
1070
     0
1000
TREAT_AS_HARD
1070
     0
1000
TREAT_AS_HARD
1070
     0
1000
TREAT_AS_HARD
1070
     0
1000
TREAT_AS_HARD
1070
     0
1000
TREAT_AS_HARD
1070
     0
1000
TREAT_AS_HARD
1070
     0
1000
TREAT_AS_HARD
1070
     0
1000
TREAT_AS_HARD
1070
     0
1000
TREAT_AS_HARD
1070
     0
  0
DICTIONARY
  5
7637
102
{ACAD_REACTORS
330
C
102
}
330
C
100
AcDbDictionary
  3
TSTACKALIGN
350
7638
  3
TSTACKSIZE
350
7639
  3
HYPERLINKBASE
350
763A
  3
STYLESHEET
350
763B
  3
LAYOUTDICT
350
763C
  3
PLOTSETDICT
350
763D
  3
PLOTSTYLNAMDICT
350
763E
  3
LWETCUNION
350
763F
  3
INSUNITS
350
7640
  3
CEPSNTYPE
350
7641
  3
FINGERPRINTGUID
350
7642
  3
VERSIONGUID
350
7643
  3
PSVPSCALE
350
7644
  3
DIMSTYLEDATA
350
7645
  3
PUCSORTHOREF
350
7646
  3
PUCSORTHOVIEW
350
7647
  3
PUCSBASE
350
7648
  3
PUCSORGTOP
350
7649
  3
PUCSORGBOTTOM
350
764A
  3
PUCSORGLEFT
350
764B
  3
PUCSORGRIGHT
350
764C
  3
PUCSORGFRONT
350
764D
  3
PUCSORGBACK
350
764E
  3
UCSORTHOREF
350
764F
  3
UCSORTHOVIEW
350
7650
  3
UCSBASE
350
7651
  3
UCSORGTOP
350
7652
  3
UCSORGBOTTOM
350
7653
  3
UCSORGLEFT
350
7654
  3
UCSORGRIGHT
350
7655
  3
UCSORGFRONT
350
7656
  3
UCSORGBACK
350
7657
  0
XRECORD
  5
7659
102
{ACAD_REACTORS
330
94A
102
}
330
94A
100
AcDbXrecord
340
1A
  0
XRECORD
  5
7658
102
{ACAD_REACTORS
330
948
102
}
330
948
100
AcDbXrecord
340
17
  0
MLINESTYLE
  5
13
102
{ACAD_REACTORS
330
E
102
}
330
E
100
AcDbMlineStyle
  2
STANDARD
 70
     0
  3

 62
     0
 51
90.0
 52
90.0
 71
     2
 49
0.5
 62
   256
  6
BYLAYER
 49
-0.5
 62
   256
  6
BYLAYER
  0
ACDBPLACEHOLDER
  5
910
102
{ACAD_REACTORS
330
90F
102
}
330
90F
100
AcDbPlaceHolder
280
     0
  0
XRECORD
  5
7638
102
{ACAD_REACTORS
330
7637
102
}
330
7637
100
AcDbXrecord
 90
        1
  0
XRECORD
  5
7639
102
{ACAD_REACTORS
330
7637
102
}
330
7637
100
AcDbXrecord
 90
       70
  0
XRECORD
  5
763A
102
{ACAD_REACTORS
330
7637
102
}
330
7637
100
AcDbXrecord
  1

  0
XRECORD
  5
763B
102
{ACAD_REACTORS
330
7637
102
}
330
7637
100
AcDbXrecord
  1
systemprinter.ctb
  0
XRECORD
  5
763C
102
{ACAD_REACTORS
330
7637
102
}
330
7637
100
AcDbXrecord
340
911
  0
XRECORD
  5
763D
102
{ACAD_REACTORS
330
7637
102
}
330
7637
100
AcDbXrecord
340
912
  0
XRECORD
  5
763E
102
{ACAD_REACTORS
330
7637
102
}
330
7637
100
AcDbXrecord
340
90F
  0
XRECORD
  5
763F
102
{ACAD_REACTORS
330
7637
102
}
330
7637
100
AcDbXrecord
 90
    10781
  0
XRECORD
  5
7640
102
{ACAD_REACTORS
330
7637
102
}
330
7637
100
AcDbXrecord
 90
        0
  0
XRECORD
  5
7641
102
{ACAD_REACTORS
330
7637
102
}
330
7637
100
AcDbXrecord
 90
        0
  0
XRECORD
  5
7642
102
{ACAD_REACTORS
330
7637
102
}
330
7637
100
AcDbXrecord
  1
{E41105DB-D30E-11D3-932C-444553540000}
  0
XRECORD
  5
7643
102
{ACAD_REACTORS
330
7637
102
}
330
7637
100
AcDbXrecord
  1
{5C2C5A68-CE73-47C2-8453-A997317020D0}
  0
XRECORD
  5
7644
102
{ACAD_REACTORS
330
7637
102
}
330
7637
100
AcDbXrecord
 40
0.0
  0
XRECORD
  5
7645
102
{ACAD_REACTORS
330
7637
102
}
330
7637
100
AcDbXrecord
1000
DSTYLE
1002
{
1070
   341
340
6D
1070
   343
340
6D
1070
   344
340
6D
1070
   371
 70
    -1
1070
   372
 70
    -1
1002
}
  0
XRECORD
  5
7646
102
{ACAD_REACTORS
330
7637
102
}
330
7637
100
AcDbXrecord
340
0
  0
XRECORD
  5
7647
102
{ACAD_REACTORS
330
7637
102
}
330
7637
100
AcDbXrecord
 70
     0
  0
XRECORD
  5
7648
102
{ACAD_REACTORS
330
7637
102
}
330
7637
100
AcDbXrecord
340
0
  0
XRECORD
  5
7649
102
{ACAD_REACTORS
330
7637
102
}
330
7637
100
AcDbXrecord
 10
0.0
 20
0.0
 30
0.0
  0
XRECORD
  5
764A
102
{ACAD_REACTORS
330
7637
102
}
330
7637
100
AcDbXrecord
 10
0.0
 20
0.0
 30
0.0
  0
XRECORD
  5
764B
102
{ACAD_REACTORS
330
7637
102
}
330
7637
100
AcDbXrecord
 10
0.0
 20
0.0
 30
0.0
  0
XRECORD
  5
764C
102
{ACAD_REACTORS
330
7637
102
}
330
7637
100
AcDbXrecord
 10
0.0
 20
0.0
 30
0.0
  0
XRECORD
  5
764D
102
{ACAD_REACTORS
330
7637
102
}
330
7637
100
AcDbXrecord
 10
0.0
 20
0.0
 30
0.0
  0
XRECORD
  5
764E
102
{ACAD_REACTORS
330
7637
102
}
330
7637
100
AcDbXrecord
 10
0.0
 20
0.0
 30
0.0
  0
XRECORD
  5
764F
102
{ACAD_REACTORS
330
7637
102
}
330
7637
100
AcDbXrecord
340
0
  0
XRECORD
  5
7650
102
{ACAD_REACTORS
330
7637
102
}
330
7637
100
AcDbXrecord
 70
     0
  0
XRECORD
  5
7651
102
{ACAD_REACTORS
330
7637
102
}
330
7637
100
AcDbXrecord
340
0
  0
XRECORD
  5
7652
102
{ACAD_REACTORS
330
7637
102
}
330
7637
100
AcDbXrecord
 10
0.0
 20
0.0
 30
0.0
  0
XRECORD
  5
7653
102
{ACAD_REACTORS
330
7637
102
}
330
7637
100
AcDbXrecord
 10
0.0
 20
0.0
 30
0.0
  0
XRECORD
  5
7654
102
{ACAD_REACTORS
330
7637
102
}
330
7637
100
AcDbXrecord
 10
0.0
 20
0.0
 30
0.0
  0
XRECORD
  5
7655
102
{ACAD_REACTORS
330
7637
102
}
330
7637
100
AcDbXrecord
 10
0.0
 20
0.0
 30
0.0
  0
XRECORD
  5
7656
102
{ACAD_REACTORS
330
7637
102
}
330
7637
100
AcDbXrecord
 10
0.0
 20
0.0
 30
0.0
  0
XRECORD
  5
7657
102
{ACAD_REACTORS
330
7637
102
}
330
7637
100
AcDbXrecord
 10
0.0
 20
0.0
 30
0.0
  0
ENDSEC
  0
EOF
