  0
SECTION
  2
HEADER
  9
$ACADVER
  1
AC1014
  9
$ACADMAINTVER
 70
     9
  9
$DWGCODEPAGE
  3
ANSI_932
  9
$INSBASE
 10
0.0
 20
0.0
 30
0.0
  9
$EXTMIN
 10
-0.0256328098773793
 20
-0.0181260584133725
 30
-0.0000000100021362
  9
$EXTMAX
 10
797.6000995626677
 20
551.6452344880035
 30
0.0000000100021363
  9
$LIMMIN
 10
0.0
 20
0.0
  9
$LIMMAX
 10
840.0
 20
594.0
  9
$ORTHOMODE
 70
     0
  9
$REGENMODE
 70
     1
  9
$FILLMODE
 70
     1
  9
$QTEXTMODE
 70
     0
  9
$MIRRTEXT
 70
     1
  9
$DRAGMODE
 70
     2
  9
$LTSCALE
 40
2.0
  9
$OSMODE
 70
    35
  9
$ATTMODE
 70
     1
  9
$TEXTSIZE
 40
6.0
  9
$TRACEWID
 40
1.0
  9
$TEXTSTYLE
  7
STANDARD
  9
$CLAYER
  8
SEIHIN
  9
$CELTYPE
  6
BYLAYER
  9
$CECOLOR
 62
   256
  9
$CELTSCALE
 40
5.0
  9
$DELOBJ
 70
     1
  9
$DISPSILH
 70
     0
  9
$DIMSCALE
 40
1.0
  9
$DIMASZ
 40
7.0
  9
$DIMEXO
 40
6.0
  9
$DIMDLI
 40
14.0
  9
$DIMRND
 40
0.0
  9
$DIMDLE
 40
0.0
  9
$DIMEXE
 40
3.0
  9
$DIMTP
 40
0.0
  9
$DIMTM
 40
0.0
  9
$DIMTXT
 40
6.0
  9
$DIMCEN
 40
150.0
  9
$DIMTSZ
 40
0.0
  9
$DIMTOL
 70
     0
  9
$DIMLIM
 70
     0
  9
$DIMTIH
 70
     0
  9
$DIMTOH
 70
     0
  9
$DIMSE1
 70
     0
  9
$DIMSE2
 70
     0
  9
$DIMTAD
 70
     3
  9
$DIMZIN
 70
     0
  9
$DIMBLK
  1

  9
$DIMASO
 70
     1
  9
$DIMSHO
 70
     1
  9
$DIMPOST
  1

  9
$DIMAPOST
  1

  9
$DIMALT
 70
     0
  9
$DIMALTD
 70
     2
  9
$DIMALTF
 40
25.4
  9
$DIMLFAC
 40
1.0
  9
$DIMTOFL
 70
     1
  9
$DIMTVP
 40
0.0
  9
$DIMTIX
 70
     0
  9
$DIMSOXD
 70
     0
  9
$DIMSAH
 70
     1
  9
$DIMBLK1
  1
OPEN
  9
$DIMBLK2
  1
OPEN
  9
$DIMSTYLE
  2
STANDARD
  9
$DIMCLRD
 70
   256
  9
$DIMCLRE
 70
   256
  9
$DIMCLRT
 70
   256
  9
$DIMTFAC
 40
1.0
  9
$DIMGAP
 40
2.0
  9
$DIMJUST
 70
     0
  9
$DIMSD1
 70
     0
  9
$DIMSD2
 70
     0
  9
$DIMTOLJ
 70
     1
  9
$DIMTZIN
 70
     0
  9
$DIMALTZ
 70
     0
  9
$DIMALTTZ
 70
     0
  9
$DIMFIT
 70
     3
  9
$DIMUPT
 70
     0
  9
$DIMUNIT
 70
     2
  9
$DIMDEC
 70
     0
  9
$DIMTDEC
 70
     0
  9
$DIMALTU
 70
     2
  9
$DIMALTTD
 70
     2
  9
$DIMTXSTY
  7
STANDARD
  9
$DIMAUNIT
 70
     0
  9
$LUNITS
 70
     2
  9
$LUPREC
 70
     4
  9
$SKETCHINC
 40
1.0
  9
$FILLETRAD
 40
1.0
  9
$AUNITS
 70
     0
  9
$AUPREC
 70
     0
  9
$MENU
  1
.
  9
$ELEVATION
 40
0.0
  9
$PELEVATION
 40
0.0
  9
$THICKNESS
 40
0.0
  9
$LIMCHECK
 70
     0
  9
$BLIPMODE
 70
     0
  9
$CHAMFERA
 40
1.0
  9
$CHAMFERB
 40
1.0
  9
$CHAMFERC
 40
40.0
  9
$CHAMFERD
 40
0.0
  9
$SKPOLY
 70
     0
  9
$TDCREATE
 40
2451199.484270833
  9
$TDUPDATE
 40
2453802.480357708
  9
$TDINDWG
 40
0.3736727083
  9
$TDUSRTIMER
 40
0.3736727083
  9
$USRTIMER
 70
     1
  9
$ANGBASE
 50
0.0
  9
$ANGDIR
 70
     0
  9
$PDMODE
 70
     0
  9
$PDSIZE
 40
0.0
  9
$PLINEWID
 40
0.0
  9
$COORDS
 70
     1
  9
$SPLFRAME
 70
     0
  9
$SPLINETYPE
 70
     6
  9
$SPLINESEGS
 70
     8
  9
$ATTDIA
 70
     0
  9
$ATTREQ
 70
     1
  9
$HANDLING
 70
 10241
  9
$HANDSEED
  5
82C6
  9
$SURFTAB1
 70
     6
  9
$SURFTAB2
 70
     6
  9
$SURFTYPE
 70
     6
  9
$SURFU
 70
     6
  9
$SURFV
 70
     6
  9
$UCSNAME
  2

  9
$UCSORG
 10
0.0
 20
0.0
 30
0.0
  9
$UCSXDIR
 10
1.0
 20
0.0
 30
0.0
  9
$UCSYDIR
 10
0.0
 20
1.0
 30
0.0
  9
$PUCSNAME
  2

  9
$PUCSORG
 10
0.0
 20
0.0
 30
0.0
  9
$PUCSXDIR
 10
1.0
 20
0.0
 30
0.0
  9
$PUCSYDIR
 10
0.0
 20
1.0
 30
0.0
  9
$USERI1
 70
     0
  9
$USERI2
 70
     0
  9
$USERI3
 70
     0
  9
$USERI4
 70
     0
  9
$USERI5
 70
     0
  9
$USERR1
 40
0.0
  9
$USERR2
 40
0.0
  9
$USERR3
 40
0.0
  9
$USERR4
 40
0.0
  9
$USERR5
 40
0.0
  9
$WORLDVIEW
 70
     1
  9
$SHADEDGE
 70
     3
  9
$SHADEDIF
 70
    70
  9
$TILEMODE
 70
     1
  9
$MAXACTVP
 70
    16
  9
$PINSBASE
 10
0.0
 20
0.0
 30
0.0
  9
$PLIMCHECK
 70
     0
  9
$PEXTMIN
 10
0.0
 20
0.0
 30
0.0
  9
$PEXTMAX
 10
420.0
 20
297.0
 30
0.0
  9
$PLIMMIN
 10
0.0
 20
0.0
  9
$PLIMMAX
 10
420.0
 20
297.0
  9
$UNITMODE
 70
     0
  9
$VISRETAIN
 70
     0
  9
$PLINEGEN
 70
     0
  9
$PSLTSCALE
 70
     1
  9
$TREEDEPTH
 70
  3020
  9
$PICKSTYLE
 70
     1
  9
$CMLSTYLE
  2
STANDARD
  9
$CMLJUST
 70
     0
  9
$CMLSCALE
 40
1.0
  9
$PROXYGRAPHICS
 70
     1
  9
$MEASUREMENT
 70
     1
  0
ENDSEC
  0
SECTION
  2
CLASSES
  0
CLASS
  1
ACDBDICTIONARYWDFLT
  2
AcDbDictionaryWithDefault
  3
AutoCAD 2000
 90
        0
280
     0
281
     0
  0
CLASS
  1
ACDBPLACEHOLDER
  2
AcDbPlaceHolder
  3
AutoCAD 2000
 90
        0
280
     0
281
     0
  0
CLASS
  1
LAYOUT
  2
AcDbLayout
  3
AutoCAD 2000
 90
        0
280
     0
281
     0
  0
CLASS
  1
LONG_TRANSACTION
  2
AcDbLongTransaction
  3
AutoCAD 2000
 90
        0
280
     0
281
     0
  0
CLASS
  1
LWPOLYLINE
  2
AcDbPolyline
  3
AutoCAD 2000
 90
        0
280
     0
281
     1
  0
CLASS
  1
HATCH
  2
AcDbHatch
  3
AutoCAD 2000
 90
        0
280
     0
281
     1
  0
CLASS
  1
XRECORD
  2
AcDbXrecord
  3
AutoCAD 2000
 90
        0
280
     0
281
     0
  0
CLASS
  1
LONG_TRANSACTION
  2
AcDbLongTransaction
  3
AutoCAD 2000
 90
        0
280
     0
281
     0
  0
CLASS
  1
LWPOLYLINE
  2
AcDbPolyline
  3
AutoCAD 2000
 90
        0
280
     0
281
     1
  0
CLASS
  1
HATCH
  2
AcDbHatch
  3
AutoCAD 2000
 90
        0
280
     0
281
     1
  0
CLASS
  1
XRECORD
  2
AcDbXrecord
  3
AutoCAD 2000
 90
        0
280
     0
281
     0
  0
CLASS
  1
LONG_TRANSACTION
  2
AcDbLongTransaction
  3
AutoCAD 2000
 90
        0
280
     0
281
     0
  0
CLASS
  1
LWPOLYLINE
  2
AcDbPolyline
  3
AutoCAD 2000
 90
        0
280
     0
281
     1
  0
CLASS
  1
HATCH
  2
AcDbHatch
  3
AutoCAD 2000
 90
        0
280
     0
281
     1
  0
CLASS
  1
XRECORD
  2
AcDbXrecord
  3
AutoCAD 2000
 90
        0
280
     0
281
     0
  0
CLASS
  1
LONG_TRANSACTION
  2
AcDbLongTransaction
  3
AutoCAD 2000
 90
        0
280
     0
281
     0
  0
CLASS
  1
LWPOLYLINE
  2
AcDbPolyline
  3
AutoCAD 2000
 90
        0
280
     0
281
     1
  0
CLASS
  1
HATCH
  2
AcDbHatch
  3
AutoCAD 2000
 90
        0
280
     0
281
     1
  0
CLASS
  1
XRECORD
  2
AcDbXrecord
  3
AutoCAD 2000
 90
        0
280
     0
281
     0
  0
CLASS
  1
LONG_TRANSACTION
  2
AcDbLongTransaction
  3
AutoCAD 2000
 90
        0
280
     0
281
     0
  0
CLASS
  1
LWPOLYLINE
  2
AcDbPolyline
  3
AutoCAD 2000
 90
        0
280
     0
281
     1
  0
CLASS
  1
HATCH
  2
AcDbHatch
  3
AutoCAD 2000
 90
        0
280
     0
281
     1
  0
CLASS
  1
XRECORD
  2
AcDbXrecord
  3
AutoCAD 2000
 90
        0
280
     0
281
     0
  0
CLASS
  1
LONG_TRANSACTION
  2
AcDbLongTransaction
  3
AutoCAD 2000
 90
        0
280
     0
281
     0
  0
CLASS
  1
LWPOLYLINE
  2
AcDbPolyline
  3
AutoCAD 2000
 90
        0
280
     0
281
     1
  0
CLASS
  1
HATCH
  2
AcDbHatch
  3
AutoCAD 2000
 90
        0
280
     0
281
     1
  0
CLASS
  1
XRECORD
  2
AcDbXrecord
  3
AutoCAD 2000
 90
        0
280
     0
281
     0
  0
CLASS
  1
LONG_TRANSACTION
  2
AcDbLongTransaction
  3
AutoCAD 2000
 90
        0
280
     0
281
     0
  0
CLASS
  1
LWPOLYLINE
  2
AcDbPolyline
  3
AutoCAD 2000
 90
        0
280
     0
281
     1
  0
CLASS
  1
HATCH
  2
AcDbHatch
  3
AutoCAD 2000
 90
        0
280
     0
281
     1
  0
CLASS
  1
XRECORD
  2
AcDbXrecord
  3
AutoCAD 2000
 90
        0
280
     0
281
     0
  0
CLASS
  1
LONG_TRANSACTION
  2
AcDbLongTransaction
  3
AutoCAD 2000
 90
        0
280
     0
281
     0
  0
CLASS
  1
LWPOLYLINE
  2
AcDbPolyline
  3
AutoCAD 2000
 90
        0
280
     0
281
     1
  0
CLASS
  1
HATCH
  2
AcDbHatch
  3
AutoCAD 2000
 90
        0
280
     0
281
     1
  0
CLASS
  1
XRECORD
  2
AcDbXrecord
  3
AutoCAD 2000
 90
        0
280
     0
281
     0
  0
CLASS
  1
LONG_TRANSACTION
  2
AcDbLongTransaction
  3
AutoCAD 2000
 90
        0
280
     0
281
     0
  0
CLASS
  1
LWPOLYLINE
  2
AcDbPolyline
  3
AutoCAD 2000
 90
        0
280
     0
281
     1
  0
CLASS
  1
HATCH
  2
AcDbHatch
  3
AutoCAD 2000
 90
        0
280
     0
281
     1
  0
CLASS
  1
XRECORD
  2
AcDbXrecord
  3
AutoCAD 2000
 90
        0
280
     0
281
     0
  0
CLASS
  1
LONG_TRANSACTION
  2
AcDbLongTransaction
  3
AutoCAD 2000
 90
        0
280
     0
281
     0
  0
CLASS
  1
LWPOLYLINE
  2
AcDbPolyline
  3
AutoCAD 2000
 90
        0
280
     0
281
     1
  0
CLASS
  1
HATCH
  2
AcDbHatch
  3
AutoCAD 2000
 90
        0
280
     0
281
     1
  0
CLASS
  1
XRECORD
  2
AcDbXrecord
  3
AutoCAD 2000
 90
        0
280
     0
281
     0
  0
CLASS
  1
LONG_TRANSACTION
  2
AcDbLongTransaction
  3
AutoCAD 2000
 90
        0
280
     0
281
     0
  0
CLASS
  1
LWPOLYLINE
  2
AcDbPolyline
  3
AutoCAD 2000
 90
        0
280
     0
281
     1
  0
CLASS
  1
HATCH
  2
AcDbHatch
  3
AutoCAD 2000
 90
        0
280
     0
281
     1
  0
CLASS
  1
XRECORD
  2
AcDbXrecord
  3
AutoCAD 2000
 90
        0
280
     0
281
     0
  0
CLASS
  1
LONG_TRANSACTION
  2
AcDbLongTransaction
  3
AutoCAD 2000
 90
        0
280
     0
281
     0
  0
CLASS
  1
LWPOLYLINE
  2
AcDbPolyline
  3
AutoCAD 2000
 90
        0
280
     0
281
     1
  0
CLASS
  1
HATCH
  2
AcDbHatch
  3
AutoCAD 2000
 90
        0
280
     0
281
     1
  0
CLASS
  1
XRECORD
  2
AcDbXrecord
  3
AutoCAD 2000
 90
        0
280
     0
281
     0
  0
CLASS
  1
LONG_TRANSACTION
  2
AcDbLongTransaction
  3
AutoCAD 2000
 90
        0
280
     0
281
     0
  0
CLASS
  1
LWPOLYLINE
  2
AcDbPolyline
  3
AutoCAD 2000
 90
        0
280
     0
281
     1
  0
CLASS
  1
HATCH
  2
AcDbHatch
  3
AutoCAD 2000
 90
        0
280
     0
281
     1
  0
CLASS
  1
XRECORD
  2
AcDbXrecord
  3
AutoCAD 2000
 90
        0
280
     0
281
     0
  0
CLASS
  1
LONG_TRANSACTION
  2
AcDbLongTransaction
  3
AutoCAD 2000
 90
        0
280
     0
281
     0
  0
CLASS
  1
LWPOLYLINE
  2
AcDbPolyline
  3
AutoCAD 2000
 90
        0
280
     0
281
     1
  0
CLASS
  1
HATCH
  2
AcDbHatch
  3
AutoCAD 2000
 90
        0
280
     0
281
     1
  0
CLASS
  1
XRECORD
  2
AcDbXrecord
  3
AutoCAD 2000
 90
        0
280
     0
281
     0
  0
CLASS
  1
LONG_TRANSACTION
  2
AcDbLongTransaction
  3
AutoCAD 2000
 90
        0
280
     0
281
     0
  0
CLASS
  1
LWPOLYLINE
  2
AcDbPolyline
  3
AutoCAD 2000
 90
        0
280
     0
281
     1
  0
CLASS
  1
HATCH
  2
AcDbHatch
  3
AutoCAD 2000
 90
        0
280
     0
281
     1
  0
CLASS
  1
XRECORD
  2
AcDbXrecord
  3
AutoCAD 2000
 90
        0
280
     0
281
     0
  0
CLASS
  1
LONG_TRANSACTION
  2
AcDbLongTransaction
  3
AutoCAD 2000
 90
        0
280
     0
281
     0
  0
CLASS
  1
LWPOLYLINE
  2
AcDbPolyline
  3
AutoCAD 2000
 90
        0
280
     0
281
     1
  0
CLASS
  1
HATCH
  2
AcDbHatch
  3
AutoCAD 2000
 90
        0
280
     0
281
     1
  0
CLASS
  1
XRECORD
  2
AcDbXrecord
  3
AutoCAD 2000
 90
        0
280
     0
281
     0
  0
CLASS
  1
LONG_TRANSACTION
  2
AcDbLongTransaction
  3
AutoCAD 2000
 90
        0
280
     0
281
     0
  0
CLASS
  1
LWPOLYLINE
  2
AcDbPolyline
  3
AutoCAD 2000
 90
        0
280
     0
281
     1
  0
CLASS
  1
HATCH
  2
AcDbHatch
  3
AutoCAD 2000
 90
        0
280
     0
281
     1
  0
CLASS
  1
XRECORD
  2
AcDbXrecord
  3
AutoCAD 2000
 90
        0
280
     0
281
     0
  0
CLASS
  1
LONG_TRANSACTION
  2
AcDbLongTransaction
  3
AutoCAD 2000
 90
        0
280
     0
281
     0
  0
CLASS
  1
LWPOLYLINE
  2
AcDbPolyline
  3
AutoCAD 2000
 90
        0
280
     0
281
     1
  0
CLASS
  1
HATCH
  2
AcDbHatch
  3
AutoCAD 2000
 90
        0
280
     0
281
     1
  0
CLASS
  1
XRECORD
  2
AcDbXrecord
  3
AutoCAD 2000
 90
        0
280
     0
281
     0
  0
ENDSEC
  0
SECTION
  2
TABLES
  0
TABLE
  2
VPORT
  5
8
330
0
100
AcDbSymbolTable
 70
     3
  0
VPORT
  5
82A2
330
8
100
AcDbSymbolTableRecord
100
AcDbViewportTableRecord
  2
*ACTIVE
 70
     0
 10
0.0
 20
0.0
 11
1.0
 21
1.0
 12
427.6850041436445
 22
294.9267088446278
 13
0.0
 23
0.0
 14
5.0
 24
5.0
 15
0.0
 25
0.0
 16
0.0
 26
0.0
 36
1.0
 17
0.0
 27
0.0
 37
0.0
 40
660.113083960272
 41
1.795454545454545
 42
50.0
 43
0.0
 44
0.0
 50
0.0
 51
0.0
 71
     0
 72
   100
 73
     1
 74
     0
 75
     0
 76
     0
 77
     0
 78
     0
  0
ENDTAB
  0
TABLE
  2
LTYPE
  5
5
330
0
100
AcDbSymbolTable
 70
     3
  0
LTYPE
  5
14
330
5
100
AcDbSymbolTableRecord
100
AcDbLinetypeTableRecord
  2
BYBLOCK
 70
     0
  3

 72
    65
 73
     0
 40
0.0
  0
LTYPE
  5
15
330
5
100
AcDbSymbolTableRecord
100
AcDbLinetypeTableRecord
  2
BYLAYER
 70
     0
  3

 72
    65
 73
     0
 40
0.0
  0
LTYPE
  5
16
330
5
100
AcDbSymbolTableRecord
100
AcDbLinetypeTableRecord
  2
CONTINUOUS
 70
     0
  3
Solid line
 72
    65
 73
     0
 40
0.0
  0
LTYPE
  5
115
330
5
100
AcDbSymbolTableRecord
100
AcDbLinetypeTableRecord
  2
PHANTOM
 70
     0
  3
______  __  __  ______  __  __  ______  __  __ 
 72
    65
 73
     6
 40
2.5
 49
1.25
 74
     0
 49
-0.25
 74
     0
 49
0.25
 74
     0
 49
-0.25
 74
     0
 49
0.25
 74
     0
 49
-0.25
 74
     0
  0
LTYPE
  5
135
330
5
100
AcDbSymbolTableRecord
100
AcDbLinetypeTableRecord
  2
CENTER
 70
     0
  3
____ _ ____ _ ____ _ ____ _ ____ _ ____ _ ____ 
 72
    65
 73
     4
 40
2.0
 49
1.25
 74
     0
 49
-0.25
 74
     0
 49
0.25
 74
     0
 49
-0.25
 74
     0
  0
ENDTAB
  0
TABLE
  2
LAYER
  5
2
330
0
100
AcDbSymbolTable
 70
     9
  0
LAYER
  5
F
330
2
100
AcDbSymbolTableRecord
100
AcDbLayerTableRecord
  2
0
 70
     0
 62
     7
  6
CONTINUOUS
  0
LAYER
  5
62
330
2
100
AcDbSymbolTableRecord
100
AcDbLayerTableRecord
  2
VIEWPORT
 70
     0
 62
     7
  6
CONTINUOUS
  0
LAYER
  5
65
330
2
100
AcDbSymbolTableRecord
100
AcDbLayerTableRecord
  2
ZUWAKU
 70
     0
 62
     7
  6
CONTINUOUS
  0
LAYER
  5
143
330
2
100
AcDbSymbolTableRecord
100
AcDbLayerTableRecord
  2
SEIHIN
 70
     0
 62
     3
  6
CONTINUOUS
  0
LAYER
  5
144
330
2
100
AcDbSymbolTableRecord
100
AcDbLayerTableRecord
  2
SUNPOU
 70
     0
 62
     4
  6
CONTINUOUS
  0
LAYER
  5
145
330
2
100
AcDbSymbolTableRecord
100
AcDbLayerTableRecord
  2
CENTER_L
 70
     0
 62
     1
  6
CENTER
  0
LAYER
  5
146
330
2
100
AcDbSymbolTableRecord
100
AcDbLayerTableRecord
  2
NOKITOI
 70
     0
 62
     8
  6
PHANTOM
  0
LAYER
  5
532
330
2
100
AcDbSymbolTableRecord
100
AcDbLayerTableRecord
  2
DEFPOINTS
 70
     0
 62
     7
  6
CONTINUOUS
  0
LAYER
  5
806D
330
2
100
AcDbSymbolTableRecord
100
AcDbLayerTableRecord
  2
MOJI
 70
     0
 62
     2
  6
CONTINUOUS
  0
ENDTAB
  0
TABLE
  2
STYLE
  5
3
330
0
100
AcDbSymbolTable
 70
     2
  0
STYLE
  5
10
330
3
100
AcDbSymbolTableRecord
100
AcDbTextStyleTableRecord
  2
STANDARD
 70
     0
 40
0.0
 41
1.0
 50
0.0
 71
     0
 42
6.0
  3
TXT
  4
bigfont.shx
  0
STYLE
  5
806E
330
3
100
AcDbSymbolTableRecord
100
AcDbTextStyleTableRecord
  2
ｽﾀｲﾙ1
 70
     0
 40
0.0
 41
1.0
 50
0.0
 71
     0
 42
2.5
  3
MS PGothic.ttf
  4

1001
ACAD
1000
MS PGothic
1071
    32818
  0
ENDTAB
  0
TABLE
  2
VIEW
  5
6
330
0
100
AcDbSymbolTable
 70
     0
  0
ENDTAB
  0
TABLE
  2
UCS
  5
7
330
0
100
AcDbSymbolTable
 70
     0
  0
ENDTAB
  0
TABLE
  2
APPID
  5
9
330
0
100
AcDbSymbolTable
 70
     1
  0
APPID
  5
11
330
9
100
AcDbSymbolTableRecord
100
AcDbRegAppTableRecord
  2
ACAD
 70
     0
  0
ENDTAB
  0
TABLE
  2
DIMSTYLE
  5
A
330
0
100
AcDbSymbolTable
 70
     1
  0
DIMSTYLE
105
1D
102
{ACAD_REACTORS
330
7A4B
330
7A50
330
7A7D
330
7B67
330
7B74
330
7B81
330
7B90
330
7B9D
330
7BAC
330
7BB9
330
7BF0
330
7BFD
330
7C0C
330
7C1B
330
7C28
330
7C35
102
}
330
A
100
AcDbSymbolTableRecord
100
AcDbDimStyleTableRecord
  2
STANDARD
 70
     0
  3

  4

  5

  6

  7

 40
1.0
 41
0.18
 42
0.0625
 43
0.38
 44
0.18
 45
0.0
 46
0.0
 47
0.0
 48
0.0
140
0.18
141
0.09
142
0.0
143
25.4
144
1.0
145
0.0
146
1.0
147
0.09
 71
     0
 72
     0
 73
     1
 74
     1
 75
     0
 76
     0
 77
     0
 78
     0
170
     0
171
     2
172
     0
173
     0
174
     0
175
     0
176
     0
177
     0
178
     0
270
     2
271
     4
272
     4
273
     2
274
     2
340
10
275
     0
280
     0
281
     0
282
     0
283
     1
284
     0
285
     0
286
     0
287
     3
288
     0
  0
ENDTAB
  0
TABLE
  2
BLOCK_RECORD
  5
1
330
0
100
AcDbSymbolTable
 70
    17
  0
BLOCK_RECORD
  5
1A
102
{ACAD_XDICTIONARY
360
94A
102
}
330
1
100
AcDbSymbolTableRecord
100
AcDbBlockTableRecord
  2
*MODEL_SPACE
  0
BLOCK_RECORD
  5
17
102
{ACAD_XDICTIONARY
360
948
102
}
330
1
100
AcDbSymbolTableRecord
100
AcDbBlockTableRecord
  2
*PAPER_SPACE
  0
BLOCK_RECORD
  5
6D
330
1
100
AcDbSymbolTableRecord
100
AcDbBlockTableRecord
  2
_OPEN
  0
BLOCK_RECORD
  5
7AF2
330
1
100
AcDbSymbolTableRecord
100
AcDbBlockTableRecord
  2
*D1
  0
BLOCK_RECORD
  5
7AFE
330
1
100
AcDbSymbolTableRecord
100
AcDbBlockTableRecord
  2
*D2
  0
BLOCK_RECORD
  5
7B0A
330
1
100
AcDbSymbolTableRecord
100
AcDbBlockTableRecord
  2
*D3
  0
BLOCK_RECORD
  5
7B68
330
1
100
AcDbSymbolTableRecord
100
AcDbBlockTableRecord
  2
*D4
  0
BLOCK_RECORD
  5
7B75
330
1
100
AcDbSymbolTableRecord
100
AcDbBlockTableRecord
  2
*D5
  0
BLOCK_RECORD
  5
7B82
330
1
100
AcDbSymbolTableRecord
100
AcDbBlockTableRecord
  2
*D6
  0
BLOCK_RECORD
  5
7B91
330
1
100
AcDbSymbolTableRecord
100
AcDbBlockTableRecord
  2
*D7
  0
BLOCK_RECORD
  5
7B9E
330
1
100
AcDbSymbolTableRecord
100
AcDbBlockTableRecord
  2
*D8
  0
BLOCK_RECORD
  5
7BAD
330
1
100
AcDbSymbolTableRecord
100
AcDbBlockTableRecord
  2
*D9
  0
BLOCK_RECORD
  5
7BBA
330
1
100
AcDbSymbolTableRecord
100
AcDbBlockTableRecord
  2
*D10
  0
BLOCK_RECORD
  5
7BF1
330
1
100
AcDbSymbolTableRecord
100
AcDbBlockTableRecord
  2
*D11
  0
BLOCK_RECORD
  5
7BFE
330
1
100
AcDbSymbolTableRecord
100
AcDbBlockTableRecord
  2
*D12
  0
BLOCK_RECORD
  5
7C0D
330
1
100
AcDbSymbolTableRecord
100
AcDbBlockTableRecord
  2
*D13
  0
BLOCK_RECORD
  5
7C1C
330
1
100
AcDbSymbolTableRecord
100
AcDbBlockTableRecord
  2
*D14
  0
BLOCK_RECORD
  5
7C29
330
1
100
AcDbSymbolTableRecord
100
AcDbBlockTableRecord
  2
*D15
  0
BLOCK_RECORD
  5
7C36
330
1
100
AcDbSymbolTableRecord
100
AcDbBlockTableRecord
  2
*D16
  0
ENDTAB
  0
ENDSEC
  0
SECTION
  2
BLOCKS
  0
BLOCK
  5
1B
330
1A
100
AcDbEntity
  8
0
100
AcDbBlockBegin
  2
*MODEL_SPACE
 70
     0
 10
0.0
 20
0.0
 30
0.0
  3
*MODEL_SPACE
  1

  0
ENDBLK
  5
1C
330
1A
100
AcDbEntity
  8
0
100
AcDbBlockEnd
  0
BLOCK
  5
18
330
17
100
AcDbEntity
 67
     1
  8
0
100
AcDbBlockBegin
  2
*PAPER_SPACE
 70
     0
 10
0.0
 20
0.0
 30
0.0
  3
*PAPER_SPACE
  1

  0
ENDBLK
  5
19
330
17
100
AcDbEntity
 67
     1
  8
0
100
AcDbBlockEnd
  0
BLOCK
  5
6E
330
6D
100
AcDbEntity
  8
0
100
AcDbBlockBegin
  2
_OPEN
 70
     0
 10
0.0
 20
0.0
 30
0.0
  3
_OPEN
  1

  0
LINE
  5
6F
330
6D
100
AcDbEntity
  8
0
  6
BYBLOCK
 62
     0
100
AcDbLine
 10
-1.0
 20
0.1666666666666666
 30
0.0
 11
0.0
 21
0.0
 31
0.0
  0
LINE
  5
70
330
6D
100
AcDbEntity
  8
0
  6
BYBLOCK
 62
     0
100
AcDbLine
 10
0.0
 20
0.0
 30
0.0
 11
-1.0
 21
-0.1666666666666666
 31
0.0
  0
LINE
  5
71
330
6D
100
AcDbEntity
  8
0
  6
BYBLOCK
 62
     0
100
AcDbLine
 10
0.0
 20
0.0
 30
0.0
 11
-1.0
 21
0.0
 31
0.0
  0
ENDBLK
  5
72
330
6D
100
AcDbEntity
  8
0
100
AcDbBlockEnd
  0
BLOCK
  5
7AFC
330
7AF2
100
AcDbEntity
  8
0
 48
5.0
100
AcDbBlockBegin
  2
*D1
 70
     1
 10
0.0
 20
0.0
 30
0.0
  3
*D1
  1

  0
LINE
  5
8206
330
7AF2
100
AcDbEntity
  8
SUNPOU
 48
5.0
100
AcDbLine
 10
283.0880052279054
 20
155.6090551614352
 30
0.0
 11
256.7654760414141
 21
155.6090551614352
 31
0.0
  0
LINE
  5
8207
330
7AF2
100
AcDbEntity
  8
SUNPOU
 48
5.0
100
AcDbLine
 10
434.5185099279054
 20
138.6632066314044
 30
0.0
 11
256.7654760414141
 21
138.6632066314045
 31
0.0
  0
LINE
  5
8208
330
7AF2
100
AcDbEntity
  8
SUNPOU
 48
5.0
100
AcDbLine
 10
258.2654760414141
 20
152.6090551614352
 30
0.0
 11
258.2654760414141
 21
141.6632066314044
 31
0.0
  0
INSERT
  5
8209
330
7AF2
100
AcDbEntity
  8
SUNPOU
 48
5.0
100
AcDbBlockReference
  2
_OPEN
 10
258.2654760414141
 20
155.6090551614352
 30
0.0
 41
3.0
 42
3.0
 43
3.0
 50
90.0
  0
INSERT
  5
820A
330
7AF2
100
AcDbEntity
  8
SUNPOU
 48
5.0
100
AcDbBlockReference
  2
_OPEN
 10
258.2654760414141
 20
138.6632066314045
 30
0.0
 41
3.0
 42
3.0
 43
3.0
 50
270.0
  0
MTEXT
  5
820B
330
7AF2
100
AcDbEntity
  8
SUNPOU
 48
5.0
100
AcDbMText
 10
255.765476041414
 20
147.1361308964198
 30
0.0
 40
3.0
 41
0.0
 71
     5
 72
     1
  1
\A1;17
 11
0.0000000000000001
 21
1.0
 31
0.0
1001
ACAD
1000
MTEXTBEGIN
1070
    73
1070
     1
1070
    44
1040
1.0
1070
    74
1070
     0
1000
MTEXTEND
  0
POINT
  5
820C
330
7AF2
100
AcDbEntity
  8
DEFPOINTS
 62
     0
 48
5.0
100
AcDbPoint
 10
286.0880052279054
 20
155.6090551614352
 30
0.0
  0
POINT
  5
820D
330
7AF2
100
AcDbEntity
  8
DEFPOINTS
 62
     0
 48
5.0
100
AcDbPoint
 10
437.5185099279053
 20
138.6632066314044
 30
0.0
  0
POINT
  5
820E
330
7AF2
100
AcDbEntity
  8
DEFPOINTS
 62
     0
 48
5.0
100
AcDbPoint
 10
258.2654760414141
 20
138.6632066314045
 30
0.0
  0
ENDBLK
  5
7AFD
330
7AF2
100
AcDbEntity
  8
0
 48
5.0
100
AcDbBlockEnd
  0
BLOCK
  5
7B08
330
7AFE
100
AcDbEntity
  8
0
 48
5.0
100
AcDbBlockBegin
  2
*D2
 70
     1
 10
0.0
 20
0.0
 30
0.0
  3
*D2
  1

  0
LINE
  5
820F
330
7AFE
100
AcDbEntity
  8
SUNPOU
 48
5.0
100
AcDbLine
 10
283.0507845279054
 20
155.1090551314044
 30
0.0
 11
283.0507845279054
 21
208.303281981719
 31
0.0
  0
LINE
  5
8210
330
7AFE
100
AcDbEntity
  8
SUNPOU
 48
5.0
100
AcDbLine
 10
412.0508845279054
 20
184.1090551414044
 30
0.0
 11
412.0508845279054
 21
208.303281981719
 31
0.0
  0
LINE
  5
8211
330
7AFE
100
AcDbEntity
  8
SUNPOU
 48
5.0
100
AcDbLine
 10
286.0507845279054
 20
206.803281981719
 30
0.0
 11
409.0508845279055
 21
206.803281981719
 31
0.0
  0
INSERT
  5
8212
330
7AFE
100
AcDbEntity
  8
SUNPOU
 48
5.0
100
AcDbBlockReference
  2
_OPEN
 10
283.0507845279054
 20
206.803281981719
 30
0.0
 41
3.0
 42
3.0
 43
3.0
 50
180.0
  0
INSERT
  5
8213
330
7AFE
100
AcDbEntity
  8
SUNPOU
 48
5.0
100
AcDbBlockReference
  2
_OPEN
 10
412.0508845279054
 20
206.803281981719
 30
0.0
 41
3.0
 42
3.0
 43
3.0
  0
MTEXT
  5
8214
330
7AFE
100
AcDbEntity
  8
SUNPOU
 48
5.0
100
AcDbMText
 10
347.5508345279054
 20
209.303281981719
 30
0.0
 40
3.0
 41
0.0
 71
     5
 72
     1
  1
\A1;129
1001
ACAD
1000
MTEXTBEGIN
1070
    73
1070
     1
1070
    44
1040
1.0
1070
    74
1070
     0
1000
MTEXTEND
  0
POINT
  5
8215
330
7AFE
100
AcDbEntity
  8
DEFPOINTS
 62
     0
 48
5.0
100
AcDbPoint
 10
283.0507845279054
 20
152.1090551314044
 30
0.0
  0
POINT
  5
8216
330
7AFE
100
AcDbEntity
  8
DEFPOINTS
 62
     0
 48
5.0
100
AcDbPoint
 10
412.0508845279054
 20
181.1090551414045
 30
0.0
  0
POINT
  5
8217
330
7AFE
100
AcDbEntity
  8
DEFPOINTS
 62
     0
 48
5.0
100
AcDbPoint
 10
412.0508845279054
 20
206.803281981719
 30
0.0
  0
ENDBLK
  5
7B09
330
7AFE
100
AcDbEntity
  8
0
 48
5.0
100
AcDbBlockEnd
  0
BLOCK
  5
7B14
330
7B0A
100
AcDbEntity
  8
0
 48
5.0
100
AcDbBlockBegin
  2
*D3
 70
     1
 10
0.0
 20
0.0
 30
0.0
  3
*D3
  1

  0
LINE
  5
8218
330
7B0A
100
AcDbEntity
  8
SUNPOU
 48
5.0
100
AcDbLine
 10
412.0508845279054
 20
184.1090551414044
 30
0.0
 11
412.0508845279054
 21
199.203188786626
 31
0.0
  0
LINE
  5
8219
330
7B0A
100
AcDbEntity
  8
SUNPOU
 48
5.0
100
AcDbLine
 10
400.8889627260705
 20
162.8021790348419
 30
0.0
 11
400.8889627260705
 21
199.203188786626
 31
0.0
  0
LINE
  5
821A
330
7B0A
100
AcDbEntity
  8
SUNPOU
 48
5.0
100
AcDbLine
 10
409.0508845279055
 20
197.703188786626
 30
0.0
 11
403.8889627260705
 21
197.703188786626
 31
0.0
  0
INSERT
  5
821B
330
7B0A
100
AcDbEntity
  8
SUNPOU
 48
5.0
100
AcDbBlockReference
  2
_OPEN
 10
412.0508845279054
 20
197.703188786626
 30
0.0
 41
3.0
 42
3.0
 43
3.0
  0
INSERT
  5
821C
330
7B0A
100
AcDbEntity
  8
SUNPOU
 48
5.0
100
AcDbBlockReference
  2
_OPEN
 10
400.8889627260705
 20
197.703188786626
 30
0.0
 41
3.0
 42
3.0
 43
3.0
 50
180.0
  0
MTEXT
  5
821D
330
7B0A
100
AcDbEntity
  8
SUNPOU
 48
5.0
100
AcDbMText
 10
406.469923626988
 20
200.203188786626
 30
0.0
 40
3.0
 41
0.0
 71
     5
 72
     1
  1
\A1;11
1001
ACAD
1000
MTEXTBEGIN
1070
    73
1070
     1
1070
    44
1040
1.0
1070
    74
1070
     0
1000
MTEXTEND
  0
POINT
  5
821E
330
7B0A
100
AcDbEntity
  8
DEFPOINTS
 62
     0
 48
5.0
100
AcDbPoint
 10
412.0508845279054
 20
181.1090551414045
 30
0.0
  0
POINT
  5
821F
330
7B0A
100
AcDbEntity
  8
DEFPOINTS
 62
     0
 48
5.0
100
AcDbPoint
 10
400.8889627260705
 20
159.8021790348419
 30
0.0
  0
POINT
  5
8220
330
7B0A
100
AcDbEntity
  8
DEFPOINTS
 62
     0
 48
5.0
100
AcDbPoint
 10
400.8889627260705
 20
197.703188786626
 30
0.0
  0
ENDBLK
  5
7B15
330
7B0A
100
AcDbEntity
  8
0
 48
5.0
100
AcDbBlockEnd
  0
BLOCK
  5
7B72
330
7B68
100
AcDbEntity
  8
0
 48
5.0
100
AcDbBlockBegin
  2
*D4
 70
     1
 10
0.0
 20
0.0
 30
0.0
  3
*D4
  1

  0
LINE
  5
8221
330
7B68
100
AcDbEntity
  8
SUNPOU
 48
5.0
100
AcDbLine
 10
277.0375845279054
 20
481.2730589061354
 30
0.0
 11
238.8189421585925
 21
481.2730589061354
 31
0.0
  0
LINE
  5
8222
330
7B68
100
AcDbEntity
  8
SUNPOU
 48
5.0
100
AcDbLine
 10
277.0375845279054
 20
457.2730589061355
 30
0.0
 11
238.8189421585925
 21
457.2730589061355
 31
0.0
  0
LINE
  5
8223
330
7B68
100
AcDbEntity
  8
SUNPOU
 48
5.0
100
AcDbLine
 10
241.8189421585925
 20
474.2730589061355
 30
0.0
 11
241.8189421585925
 21
464.2730589061354
 31
0.0
  0
INSERT
  5
8224
330
7B68
100
AcDbEntity
  8
SUNPOU
 48
5.0
100
AcDbBlockReference
  2
_OPEN
 10
241.8189421585925
 20
481.2730589061354
 30
0.0
 41
7.0
 42
7.0
 43
7.0
 50
90.0
  0
INSERT
  5
8225
330
7B68
100
AcDbEntity
  8
SUNPOU
 48
5.0
100
AcDbBlockReference
  2
_OPEN
 10
241.8189421585925
 20
457.2730589061355
 30
0.0
 41
7.0
 42
7.0
 43
7.0
 50
270.0
  0
MTEXT
  5
8226
330
7B68
100
AcDbEntity
  8
SUNPOU
 48
5.0
100
AcDbMText
 10
236.8189421585924
 20
469.2730589061355
 30
0.0
 40
6.0
 41
0.0
 71
     5
 72
     1
  1
\A1;24
 11
0.0000000000000001
 21
1.0
 31
0.0
1001
ACAD
1000
MTEXTBEGIN
1070
    73
1070
     1
1070
    44
1040
1.0
1070
    74
1070
     0
1000
MTEXTEND
  0
POINT
  5
8227
330
7B68
100
AcDbEntity
  8
DEFPOINTS
 62
     0
 48
5.0
100
AcDbPoint
 10
283.0375845279054
 20
481.2730589061354
 30
0.0
  0
POINT
  5
8228
330
7B68
100
AcDbEntity
  8
DEFPOINTS
 62
     0
 48
5.0
100
AcDbPoint
 10
283.0375845279054
 20
457.2730589061355
 30
0.0
  0
POINT
  5
8229
330
7B68
100
AcDbEntity
  8
DEFPOINTS
 62
     0
 48
5.0
100
AcDbPoint
 10
241.8189421585925
 20
457.2730589061355
 30
0.0
  0
ENDBLK
  5
7B73
330
7B68
100
AcDbEntity
  8
0
 48
5.0
100
AcDbBlockEnd
  0
BLOCK
  5
7B7F
330
7B75
100
AcDbEntity
  8
0
 48
5.0
100
AcDbBlockBegin
  2
*D5
 70
     1
 10
0.0
 20
0.0
 30
0.0
  3
*D5
  1

  0
LINE
  5
81FD
330
7B75
100
AcDbEntity
  8
SUNPOU
 48
5.0
100
AcDbLine
 10
437.7867042848579
 20
500.773044297177
 30
0.0
 11
470.3279581789161
 21
500.773044297177
 31
0.0
  0
LINE
  5
81FE
330
7B75
100
AcDbEntity
  8
SUNPOU
 48
5.0
100
AcDbLine
 10
437.7867838881877
 20
437.7730589061354
 30
0.0
 11
470.3279581789161
 21
437.7730589061354
 31
0.0
  0
LINE
  5
81FF
330
7B75
100
AcDbEntity
  8
SUNPOU
 48
5.0
100
AcDbLine
 10
467.327958178916
 20
493.773044297177
 30
0.0
 11
467.327958178916
 21
444.7730589061355
 31
0.0
  0
INSERT
  5
8200
330
7B75
100
AcDbEntity
  8
SUNPOU
 48
5.0
100
AcDbBlockReference
  2
_OPEN
 10
467.327958178916
 20
500.773044297177
 30
0.0
 41
7.0
 42
7.0
 43
7.0
 50
90.0
  0
INSERT
  5
8201
330
7B75
100
AcDbEntity
  8
SUNPOU
 48
5.0
100
AcDbBlockReference
  2
_OPEN
 10
467.327958178916
 20
437.7730589061354
 30
0.0
 41
7.0
 42
7.0
 43
7.0
 50
270.0
  0
MTEXT
  5
8202
330
7B75
100
AcDbEntity
  8
SUNPOU
 48
5.0
100
AcDbMText
 10
462.327958178916
 20
469.2730516016563
 30
0.0
 40
6.0
 41
0.0
 71
     5
 72
     1
  1
\A1;63
 11
0.0000000000000001
 21
1.0
 31
0.0
1001
ACAD
1000
MTEXTBEGIN
1070
    73
1070
     1
1070
    44
1040
1.0
1070
    74
1070
     0
1000
MTEXTEND
  0
POINT
  5
8203
330
7B75
100
AcDbEntity
  8
DEFPOINTS
 62
     0
 48
5.0
100
AcDbPoint
 10
431.7867042848579
 20
500.773044297177
 30
0.0
  0
POINT
  5
8204
330
7B75
100
AcDbEntity
  8
DEFPOINTS
 62
     0
 48
5.0
100
AcDbPoint
 10
431.7867838881877
 20
437.7730589061354
 30
0.0
  0
POINT
  5
8205
330
7B75
100
AcDbEntity
  8
DEFPOINTS
 62
     0
 48
5.0
100
AcDbPoint
 10
467.327958178916
 20
437.7730589061354
 30
0.0
  0
ENDBLK
  5
7B80
330
7B75
100
AcDbEntity
  8
0
 48
5.0
100
AcDbBlockEnd
  0
BLOCK
  5
7B8E
330
7B82
100
AcDbEntity
  8
0
 48
5.0
100
AcDbBlockBegin
  2
*D6
 70
     1
 10
0.0
 20
0.0
 30
0.0
  3
*D6
  1

  0
LINE
  5
81F2
330
7B82
100
AcDbEntity
  8
SUNPOU
 48
5.0
100
AcDbLine
 10
279.7507845279053
 20
320.6617274344788
 30
0.0
 11
238.8189421585925
 21
320.6617274344788
 31
0.0
  0
LINE
  5
81F3
330
7B82
100
AcDbEntity
  8
SUNPOU
 48
5.0
100
AcDbLine
 10
431.5185099279053
 20
303.7158789344788
 30
0.0
 11
238.8189421585925
 21
303.7158789344788
 31
0.0
  0
LINE
  5
81F4
330
7B82
100
AcDbEntity
  8
SUNPOU
 48
5.0
100
AcDbLine
 10
241.8189421585925
 20
327.6617274344788
 30
0.0
 11
241.8189421585925
 21
334.6617274344788
 31
0.0
  0
LINE
  5
81F5
330
7B82
100
AcDbEntity
  8
SUNPOU
 48
5.0
100
AcDbLine
 10
241.8189421585925
 20
296.7158789344789
 30
0.0
 11
241.8189421585925
 21
289.7158789344789
 31
0.0
  0
LINE
  5
81F6
330
7B82
100
AcDbEntity
  8
SUNPOU
 48
5.0
100
AcDbLine
 10
241.8189421585925
 20
320.6617274344788
 30
0.0
 11
241.8189421585925
 21
303.7158789344788
 31
0.0
  0
INSERT
  5
81F7
330
7B82
100
AcDbEntity
  8
SUNPOU
 48
5.0
100
AcDbBlockReference
  2
_OPEN
 10
241.8189421585925
 20
320.6617274344788
 30
0.0
 41
7.0
 42
7.0
 43
7.0
 50
270.0
  0
INSERT
  5
81F8
330
7B82
100
AcDbEntity
  8
SUNPOU
 48
5.0
100
AcDbBlockReference
  2
_OPEN
 10
241.8189421585925
 20
303.7158789344788
 30
0.0
 41
7.0
 42
7.0
 43
7.0
 50
90.0
  0
MTEXT
  5
81F9
330
7B82
100
AcDbEntity
  8
SUNPOU
 48
5.0
100
AcDbMText
 10
236.8189421585924
 20
312.1888031844789
 30
0.0
 40
6.0
 41
0.0
 71
     5
 72
     1
  1
\A1;17
 11
0.0000000000000001
 21
1.0
 31
0.0
1001
ACAD
1000
MTEXTBEGIN
1070
    73
1070
     1
1070
    44
1040
1.0
1070
    74
1070
     0
1000
MTEXTEND
  0
POINT
  5
81FA
330
7B82
100
AcDbEntity
  8
DEFPOINTS
 62
     0
 48
5.0
100
AcDbPoint
 10
285.7507845279053
 20
320.6617274344788
 30
0.0
  0
POINT
  5
81FB
330
7B82
100
AcDbEntity
  8
DEFPOINTS
 62
     0
 48
5.0
100
AcDbPoint
 10
437.5185099279053
 20
303.7158789344788
 30
0.0
  0
POINT
  5
81FC
330
7B82
100
AcDbEntity
  8
DEFPOINTS
 62
     0
 48
5.0
100
AcDbPoint
 10
241.8189421585925
 20
303.7158789344788
 30
0.0
  0
ENDBLK
  5
7B8F
330
7B82
100
AcDbEntity
  8
0
 48
5.0
100
AcDbBlockEnd
  0
BLOCK
  5
7B9B
330
7B91
100
AcDbEntity
  8
0
 48
5.0
100
AcDbBlockBegin
  2
*D7
 70
     1
 10
0.0
 20
0.0
 30
0.0
  3
*D7
  1

  0
LINE
  5
822A
330
7B91
100
AcDbEntity
  8
SUNPOU
 48
5.0
100
AcDbLine
 10
283.0507845279054
 20
321.8617274344788
 30
0.0
 11
283.0507845279054
 21
387.0389231256915
 31
0.0
  0
LINE
  5
822B
330
7B91
100
AcDbEntity
  8
SUNPOU
 48
5.0
100
AcDbLine
 10
412.0508845279054
 20
352.1617274444788
 30
0.0
 11
412.0508845279054
 21
387.0389231256915
 31
0.0
  0
LINE
  5
822C
330
7B91
100
AcDbEntity
  8
SUNPOU
 48
5.0
100
AcDbLine
 10
290.0507845279054
 20
384.0389231256915
 30
0.0
 11
405.0508845279055
 21
384.0389231256915
 31
0.0
  0
INSERT
  5
822D
330
7B91
100
AcDbEntity
  8
SUNPOU
 48
5.0
100
AcDbBlockReference
  2
_OPEN
 10
283.0507845279054
 20
384.0389231256915
 30
0.0
 41
7.0
 42
7.0
 43
7.0
 50
180.0
  0
INSERT
  5
822E
330
7B91
100
AcDbEntity
  8
SUNPOU
 48
5.0
100
AcDbBlockReference
  2
_OPEN
 10
412.0508845279054
 20
384.0389231256915
 30
0.0
 41
7.0
 42
7.0
 43
7.0
  0
MTEXT
  5
822F
330
7B91
100
AcDbEntity
  8
SUNPOU
 48
5.0
100
AcDbMText
 10
347.5508345279054
 20
389.0389231256915
 30
0.0
 40
6.0
 41
0.0
 71
     5
 72
     1
  1
\A1;129
1001
ACAD
1000
MTEXTBEGIN
1070
    73
1070
     1
1070
    44
1040
1.0
1070
    74
1070
     0
1000
MTEXTEND
  0
POINT
  5
8230
330
7B91
100
AcDbEntity
  8
DEFPOINTS
 62
     0
 48
5.0
100
AcDbPoint
 10
283.0507845279054
 20
315.8617274344788
 30
0.0
  0
POINT
  5
8231
330
7B91
100
AcDbEntity
  8
DEFPOINTS
 62
     0
 48
5.0
100
AcDbPoint
 10
412.0508845279054
 20
346.1617274444788
 30
0.0
  0
POINT
  5
8232
330
7B91
100
AcDbEntity
  8
DEFPOINTS
 62
     0
 48
5.0
100
AcDbPoint
 10
412.0508845279054
 20
384.0389231256915
 30
0.0
  0
ENDBLK
  5
7B9C
330
7B91
100
AcDbEntity
  8
0
 48
5.0
100
AcDbBlockEnd
  0
BLOCK
  5
7BAA
330
7B9E
100
AcDbEntity
  8
0
 48
5.0
100
AcDbBlockBegin
  2
*D8
 70
     1
 10
0.0
 20
0.0
 30
0.0
  3
*D8
  1

  0
LINE
  5
8233
330
7B9E
100
AcDbEntity
  8
SUNPOU
 48
5.0
100
AcDbLine
 10
400.8889627260705
 20
330.8548513379162
 30
0.0
 11
400.8889627260705
 21
372.0333814343407
 31
0.0
  0
LINE
  5
8234
330
7B9E
100
AcDbEntity
  8
SUNPOU
 48
5.0
100
AcDbLine
 10
412.0508845279054
 20
352.1617274444788
 30
0.0
 11
412.0508845279054
 21
372.0333814343407
 31
0.0
  0
LINE
  5
8235
330
7B9E
100
AcDbEntity
  8
SUNPOU
 48
5.0
100
AcDbLine
 10
393.8889627260705
 20
369.0333814343407
 30
0.0
 11
386.8889627260705
 21
369.0333814343407
 31
0.0
  0
LINE
  5
8236
330
7B9E
100
AcDbEntity
  8
SUNPOU
 48
5.0
100
AcDbLine
 10
419.0508845279055
 20
369.0333814343407
 30
0.0
 11
426.0508845279055
 21
369.0333814343407
 31
0.0
  0
LINE
  5
8237
330
7B9E
100
AcDbEntity
  8
SUNPOU
 48
5.0
100
AcDbLine
 10
400.8889627260705
 20
369.0333814343407
 30
0.0
 11
412.0508845279054
 21
369.0333814343407
 31
0.0
  0
INSERT
  5
8238
330
7B9E
100
AcDbEntity
  8
SUNPOU
 48
5.0
100
AcDbBlockReference
  2
_OPEN
 10
400.8889627260705
 20
369.0333814343407
 30
0.0
 41
7.0
 42
7.0
 43
7.0
  0
INSERT
  5
8239
330
7B9E
100
AcDbEntity
  8
SUNPOU
 48
5.0
100
AcDbBlockReference
  2
_OPEN
 10
412.0508845279054
 20
369.0333814343407
 30
0.0
 41
7.0
 42
7.0
 43
7.0
 50
180.0
  0
MTEXT
  5
823A
330
7B9E
100
AcDbEntity
  8
SUNPOU
 48
5.0
100
AcDbMText
 10
406.469923626988
 20
374.0333814343407
 30
0.0
 40
6.0
 41
0.0
 71
     5
 72
     1
  1
\A1;11
1001
ACAD
1000
MTEXTBEGIN
1070
    73
1070
     1
1070
    44
1040
1.0
1070
    74
1070
     0
1000
MTEXTEND
  0
POINT
  5
823B
330
7B9E
100
AcDbEntity
  8
DEFPOINTS
 62
     0
 48
5.0
100
AcDbPoint
 10
400.8889627260705
 20
324.8548513379162
 30
0.0
  0
POINT
  5
823C
330
7B9E
100
AcDbEntity
  8
DEFPOINTS
 62
     0
 48
5.0
100
AcDbPoint
 10
412.0508845279054
 20
346.1617274444788
 30
0.0
  0
POINT
  5
823D
330
7B9E
100
AcDbEntity
  8
DEFPOINTS
 62
     0
 48
5.0
100
AcDbPoint
 10
412.0508845279054
 20
369.0333814343407
 30
0.0
  0
ENDBLK
  5
7BAB
330
7B9E
100
AcDbEntity
  8
0
 48
5.0
100
AcDbBlockEnd
  0
BLOCK
  5
7BB7
330
7BAD
100
AcDbEntity
  8
0
 48
5.0
100
AcDbBlockBegin
  2
*D9
 70
     1
 10
0.0
 20
0.0
 30
0.0
  3
*D9
  1

  0
LINE
  5
81E9
330
7BAD
100
AcDbEntity
  8
SUNPOU
 48
5.0
100
AcDbLine
 10
417.1958358632399
 20
349.2487123419218
 30
0.0
 11
444.9099685214567
 21
365.8772678685968
 31
0.0
  0
LINE
  5
81EA
330
7BAD
100
AcDbEntity
  8
SUNPOU
 48
5.0
100
AcDbLine
 10
442.6634612632398
 20
306.8028638319218
 30
0.0
 11
470.3775939214565
 21
323.4314193585968
 31
0.0
  0
LINE
  5
81EB
330
7BAD
100
AcDbEntity
  8
SUNPOU
 48
5.0
100
AcDbLine
 10
445.9389752341397
 20
358.3313321953186
 30
0.0
 11
464.2036358734392
 21
327.890370134432
 31
0.0
  0
INSERT
  5
81EC
330
7BAD
100
AcDbEntity
  8
SUNPOU
 48
5.0
100
AcDbBlockReference
  2
_OPEN
 10
442.3374928537895
 20
364.3337754198753
 30
0.0
 41
7.0
 42
7.0
 43
7.0
 50
120.9638719585098
  0
INSERT
  5
81ED
330
7BAD
100
AcDbEntity
  8
SUNPOU
 48
5.0
100
AcDbBlockReference
  2
_OPEN
 10
467.8051182537894
 20
321.8879269098753
 30
0.0
 41
7.0
 42
7.0
 43
7.0
 50
300.9638719585098
  0
MTEXT
  5
81EE
330
7BAD
100
AcDbEntity
  8
SUNPOU
 48
5.0
100
AcDbMText
 10
459.3587649999014
 20
345.6833385794111
 30
0.0
 40
6.0
 41
0.0
 71
     5
 72
     1
  1
\A1;50
 11
0.51449748290717
 21
-0.8574918892223916
 31
0.0
1001
ACAD
1000
MTEXTBEGIN
1070
    73
1070
     1
1070
    44
1040
1.0
1070
    74
1070
     0
1000
MTEXTEND
  0
POINT
  5
81EF
330
7BAD
100
AcDbEntity
  8
DEFPOINTS
 62
     0
 48
5.0
100
AcDbPoint
 10
412.0508845279054
 20
346.1617274444788
 30
0.0
  0
POINT
  5
81F0
330
7BAD
100
AcDbEntity
  8
DEFPOINTS
 62
     0
 48
5.0
100
AcDbPoint
 10
437.5185099279054
 20
303.7158789344788
 30
0.0
  0
POINT
  5
81F1
330
7BAD
100
AcDbEntity
  8
DEFPOINTS
 62
     0
 48
5.0
100
AcDbPoint
 10
467.8051182537894
 20
321.8879269098753
 30
0.0
  0
ENDBLK
  5
7BB8
330
7BAD
100
AcDbEntity
  8
0
 48
5.0
100
AcDbBlockEnd
  0
BLOCK
  5
7BC6
330
7BBA
100
AcDbEntity
  8
0
 48
5.0
100
AcDbBlockBegin
  2
*D10
 70
     1
 10
0.0
 20
0.0
 30
0.0
  3
*D10
  1

  0
LINE
  5
81DE
330
7BBA
100
AcDbEntity
  8
SUNPOU
 48
5.0
100
AcDbLine
 10
440.6054948253483
 20
298.5709275991445
 30
0.0
 11
457.3190290249323
 21
270.7151644661499
 31
0.0
  0
LINE
  5
81DF
330
7BBA
100
AcDbEntity
  8
SUNPOU
 48
5.0
100
AcDbLine
 10
435.4605434900142
 20
295.4839427017015
 30
0.0
 11
452.1740776895982
 21
267.628179568707
 31
0.0
  0
LINE
  5
81E0
330
7BBA
100
AcDbEntity
  8
SUNPOU
 48
5.0
100
AcDbLine
 10
461.7779798007675
 20
276.8891225141673
 30
0.0
 11
467.7804230253242
 21
280.4906048945176
 31
0.0
  0
LINE
  5
81E1
330
7BBA
100
AcDbEntity
  8
SUNPOU
 48
5.0
100
AcDbLine
 10
444.62814201632
 20
266.5991728560239
 30
0.0
 11
431.7657636779841
 21
258.8817106124162
 31
0.0
  0
LINE
  5
81E2
330
7BBA
100
AcDbEntity
  8
SUNPOU
 48
5.0
100
AcDbLine
 10
455.7755365762107
 20
273.2876401338171
 30
0.0
 11
450.6305852408766
 21
270.2006552363741
 31
0.0
  0
INSERT
  5
81E3
330
7BBA
100
AcDbEntity
  8
SUNPOU
 48
5.0
100
AcDbBlockReference
  2
_OPEN
 10
455.7755365762107
 20
273.2876401338171
 30
0.0
 41
7.0
 42
7.0
 43
7.0
 50
210.9638719585102
  0
INSERT
  5
81E4
330
7BBA
100
AcDbEntity
  8
SUNPOU
 48
5.0
100
AcDbBlockReference
  2
_OPEN
 10
450.6305852408766
 20
270.2006552363741
 30
0.0
 41
7.0
 42
7.0
 43
7.0
 50
30.9638719585103
  0
MTEXT
  5
81E5
330
7BBA
100
AcDbEntity
  8
SUNPOU
 48
5.0
100
AcDbMText
 10
432.6232438203378
 20
265.2271599901569
 30
0.0
 40
6.0
 41
0.0
 71
     5
 72
     1
  1
\A1;6
 11
0.8574918892223875
 21
0.5144974829071768
 31
0.0
1001
ACAD
1000
MTEXTBEGIN
1070
    73
1070
     1
1070
    44
1040
1.0
1070
    74
1070
     0
1000
MTEXTEND
  0
POINT
  5
81E6
330
7BBA
100
AcDbEntity
  8
DEFPOINTS
 62
     0
 48
5.0
100
AcDbPoint
 10
437.5185099279053
 20
303.7158789344788
 30
0.0
  0
POINT
  5
81E7
330
7BBA
100
AcDbEntity
  8
DEFPOINTS
 62
     0
 48
5.0
100
AcDbPoint
 10
432.3735585925712
 20
300.6288940370358
 30
0.0
  0
POINT
  5
81E8
330
7BBA
100
AcDbEntity
  8
DEFPOINTS
 62
     0
 48
5.0
100
AcDbPoint
 10
450.6305852408766
 20
270.2006552363741
 30
0.0
  0
ENDBLK
  5
7BC7
330
7BBA
100
AcDbEntity
  8
0
 48
5.0
100
AcDbBlockEnd
  0
BLOCK
  5
7BFB
330
7BF1
100
AcDbEntity
  8
0
 48
5.0
100
AcDbBlockBegin
  2
*D11
 70
     1
 10
0.0
 20
0.0
 30
0.0
  3
*D11
  1

  0
LINE
  5
8247
330
7BF1
100
AcDbEntity
  8
SUNPOU
 48
5.0
100
AcDbLine
 10
573.0183516411634
 20
420.0602872653155
 30
0.0
 11
600.0366918782199
 21
436.2713655123625
 31
0.0
  0
LINE
  5
8248
330
7BF1
100
AcDbEntity
  8
SUNPOU
 48
5.0
100
AcDbLine
 10
563.011471557047
 20
436.7383444990061
 30
0.0
 11
590.0298117941033
 21
452.949422746053
 31
0.0
  0
LINE
  5
8249
330
7BF1
100
AcDbEntity
  8
SUNPOU
 48
5.0
100
AcDbLine
 10
593.8627338205657
 20
440.7303162748545
 30
0.0
 11
591.0588185230948
 21
445.4034870749988
 31
0.0
  0
INSERT
  5
824A
330
7BF1
100
AcDbEntity
  8
SUNPOU
 48
5.0
100
AcDbBlockReference
  2
_OPEN
 10
597.4642162138885
 20
434.7278730580813
 30
0.0
 41
7.0
 42
7.0
 43
7.0
 50
300.9638720823392
  0
INSERT
  5
824B
330
7BF1
100
AcDbEntity
  8
SUNPOU
 48
5.0
100
AcDbBlockReference
  2
_OPEN
 10
587.4573361297719
 20
451.4059302917719
 30
0.0
 41
7.0
 42
7.0
 43
7.0
 50
120.9638720823392
  0
MTEXT
  5
824C
330
7BF1
100
AcDbEntity
  8
SUNPOU
 48
5.0
100
AcDbMText
 10
596.7482356123825
 20
445.6393890987286
 30
0.0
 40
6.0
 41
0.0
 71
     5
 72
     1
  1
\A1;19
 11
0.5144974847604083
 21
-0.8574918881104435
 31
0.0
1001
ACAD
1000
MTEXTBEGIN
1070
    73
1070
     1
1070
    44
1040
1.0
1070
    74
1070
     0
1000
MTEXTEND
  0
POINT
  5
824D
330
7BF1
100
AcDbEntity
  8
DEFPOINTS
 62
     0
 48
5.0
100
AcDbPoint
 10
567.8734003125007
 20
416.9733023567531
 30
0.0
  0
POINT
  5
824E
330
7BF1
100
AcDbEntity
  8
DEFPOINTS
 62
     0
 48
5.0
100
AcDbPoint
 10
557.8665202283842
 20
433.6513595904437
 30
0.0
  0
POINT
  5
824F
330
7BF1
100
AcDbEntity
  8
DEFPOINTS
 62
     0
 48
5.0
100
AcDbPoint
 10
587.4573361297719
 20
451.4059302917719
 30
0.0
  0
ENDBLK
  5
7BFC
330
7BF1
100
AcDbEntity
  8
0
 48
5.0
100
AcDbBlockEnd
  0
BLOCK
  5
7C0A
330
7BFE
100
AcDbEntity
  8
0
 48
5.0
100
AcDbBlockBegin
  2
*D12
 70
     1
 10
0.0
 20
0.0
 30
0.0
  3
*D12
  1

  0
LINE
  5
8264
330
7BFE
100
AcDbEntity
  8
SUNPOU
 48
5.0
100
AcDbLine
 10
517.5644543817623
 20
397.8083093819076
 30
0.0
 11
491.8973031520654
 21
382.4079483198707
 31
0.0
  0
LINE
  5
8265
330
7BFE
100
AcDbEntity
  8
SUNPOU
 48
5.0
100
AcDbLine
 10
512.4194380613899
 20
406.3832974255185
 30
0.0
 11
486.752286831693
 21
390.9829363634816
 31
0.0
  0
LINE
  5
8266
330
7BFE
100
AcDbEntity
  8
SUNPOU
 48
5.0
100
AcDbLine
 10
498.0712612001895
 20
377.9489975441832
 30
0.0
 11
501.6727435806834
 21
371.9465543197126
 31
0.0
  0
LINE
  5
8267
330
7BFE
100
AcDbEntity
  8
SUNPOU
 48
5.0
100
AcDbLine
 10
485.7232801188295
 20
398.5288720367352
 30
0.0
 11
476.4623254261311
 21
413.9637260425167
 31
0.0
  0
LINE
  5
8268
330
7BFE
100
AcDbEntity
  8
SUNPOU
 48
5.0
100
AcDbLine
 10
494.4697788196958
 20
383.9514407686538
 30
0.0
 11
489.3247624993233
 21
392.5264288122647
 31
0.0
  0
INSERT
  5
8269
330
7BFE
100
AcDbEntity
  8
SUNPOU
 48
5.0
100
AcDbBlockReference
  2
_OPEN
 10
494.4697788196958
 20
383.9514407686538
 30
0.0
 41
7.0
 42
7.0
 43
7.0
 50
120.9638719598807
  0
INSERT
  5
826A
330
7BFE
100
AcDbEntity
  8
SUNPOU
 48
5.0
100
AcDbBlockReference
  2
_OPEN
 10
489.3247624993233
 20
392.5264288122647
 30
0.0
 41
7.0
 42
7.0
 43
7.0
 50
300.9638719598807
  0
MTEXT
  5
826B
330
7BFE
100
AcDbEntity
  8
SUNPOU
 48
5.0
100
AcDbMText
 10
483.5795210282838
 20
411.8200080664996
 30
0.0
 40
6.0
 41
0.0
 71
     5
 72
     1
  1
\A1;10
 11
0.5144974829276877
 21
-0.8574918892100809
 31
0.0
1001
ACAD
1000
MTEXTBEGIN
1070
    73
1070
     1
1070
    44
1040
1.0
1070
    74
1070
     0
1000
MTEXTEND
  0
POINT
  5
826C
330
7BFE
100
AcDbEntity
  8
DEFPOINTS
 62
     0
 48
5.0
100
AcDbPoint
 10
522.7094057170229
 20
400.8952942794738
 30
0.0
  0
POINT
  5
826D
330
7BFE
100
AcDbEntity
  8
DEFPOINTS
 62
     0
 48
5.0
100
AcDbPoint
 10
517.5643893966505
 20
409.4702823230846
 30
0.0
  0
POINT
  5
826E
330
7BFE
100
AcDbEntity
  8
DEFPOINTS
 62
     0
 48
5.0
100
AcDbPoint
 10
489.3247624993233
 20
392.5264288122647
 30
0.0
  0
ENDBLK
  5
7C0B
330
7BFE
100
AcDbEntity
  8
0
 48
5.0
100
AcDbBlockEnd
  0
BLOCK
  5
7C19
330
7C0D
100
AcDbEntity
  8
0
 48
5.0
100
AcDbBlockBegin
  2
*D13
 70
     1
 10
0.0
 20
0.0
 30
0.0
  3
*D13
  1

  0
LINE
  5
8259
330
7C0D
100
AcDbEntity
  8
SUNPOU
 48
5.0
100
AcDbLine
 10
532.9994303246287
 20
372.083466947604
 30
0.0
 11
507.3322790949321
 21
356.6831058855672
 31
0.0
  0
LINE
  5
825A
330
7C0D
100
AcDbEntity
  8
SUNPOU
 48
5.0
100
AcDbLine
 10
538.1444051647419
 20
363.5085480374427
 30
0.0
 11
512.4772539350454
 21
348.1081869754059
 31
0.0
  0
LINE
  5
825B
330
7C0D
100
AcDbEntity
  8
SUNPOU
 48
5.0
100
AcDbLine
 10
506.3032723820684
 20
364.2290415588208
 30
0.0
 11
502.7017900015746
 21
370.2314847832914
 31
0.0
  0
LINE
  5
825C
330
7C0D
100
AcDbEntity
  8
SUNPOU
 48
5.0
100
AcDbLine
 10
518.6512119831694
 20
343.6492361997184
 30
0.0
 11
527.912166675868
 21
328.214382193937
 31
0.0
  0
LINE
  5
825D
330
7C0D
100
AcDbEntity
  8
SUNPOU
 48
5.0
100
AcDbLine
 10
509.9047547625623
 20
358.2265983343503
 30
0.0
 11
515.0497296026755
 21
349.651679424189
 31
0.0
  0
INSERT
  5
825E
330
7C0D
100
AcDbEntity
  8
SUNPOU
 48
5.0
100
AcDbBlockReference
  2
_OPEN
 10
509.9047547625623
 20
358.2265983343503
 30
0.0
 41
7.0
 42
7.0
 43
7.0
 50
300.9638719598811
  0
INSERT
  5
825F
330
7C0D
100
AcDbEntity
  8
SUNPOU
 48
5.0
100
AcDbBlockReference
  2
_OPEN
 10
515.0497296026755
 20
349.651679424189
 30
0.0
 41
7.0
 42
7.0
 43
7.0
 50
120.963871959881
  0
MTEXT
  5
8260
330
7C0D
100
AcDbEntity
  8
SUNPOU
 48
5.0
100
AcDbMText
 10
529.369889965816
 20
335.5030749992309
 30
0.0
 40
6.0
 41
0.0
 71
     5
 72
     1
  1
\A1;10
 11
0.5144974829276923
 21
-0.8574918892100782
 31
0.0
1001
ACAD
1000
MTEXTBEGIN
1070
    73
1070
     1
1070
    44
1040
1.0
1070
    74
1070
     0
1000
MTEXTEND
  0
POINT
  5
8261
330
7C0D
100
AcDbEntity
  8
DEFPOINTS
 62
     0
 48
5.0
100
AcDbPoint
 10
538.1443816598891
 20
375.1704518451702
 30
0.0
  0
POINT
  5
8262
330
7C0D
100
AcDbEntity
  8
DEFPOINTS
 62
     0
 48
5.0
100
AcDbPoint
 10
543.2893565000024
 20
366.5955329350089
 30
0.0
  0
POINT
  5
8263
330
7C0D
100
AcDbEntity
  8
DEFPOINTS
 62
     0
 48
5.0
100
AcDbPoint
 10
515.0497296026755
 20
349.651679424189
 30
0.0
  0
ENDBLK
  5
7C1A
330
7C0D
100
AcDbEntity
  8
0
 48
5.0
100
AcDbBlockEnd
  0
BLOCK
  5
7C26
330
7C1C
100
AcDbEntity
  8
0
 48
5.0
100
AcDbBlockBegin
  2
*D14
 70
     1
 10
0.0
 20
0.0
 30
0.0
  3
*D14
  1

  0
LINE
  5
8250
330
7C1C
100
AcDbEntity
  8
SUNPOU
 48
5.0
100
AcDbLine
 10
512.4194380613899
 20
406.3832974255185
 30
0.0
 11
471.2262213794733
 21
381.6672545530144
 31
0.0
  0
LINE
  5
8251
330
7C1C
100
AcDbEntity
  8
SUNPOU
 48
5.0
100
AcDbLine
 10
538.1444051647418
 20
363.5085480374427
 30
0.0
 11
496.9511884828253
 21
338.7925051649386
 31
0.0
  0
LINE
  5
8252
330
7C1C
100
AcDbEntity
  8
SUNPOU
 48
5.0
100
AcDbLine
 10
477.4001794275974
 20
377.2083037773268
 30
0.0
 11
495.9221817699616
 21
346.3384408381922
 31
0.0
  0
INSERT
  5
8253
330
7C1C
100
AcDbEntity
  8
SUNPOU
 48
5.0
100
AcDbBlockReference
  2
_OPEN
 10
473.7986970471036
 20
383.2107470017973
 30
0.0
 41
7.0
 42
7.0
 43
7.0
 50
120.9638719598807
  0
INSERT
  5
8254
330
7C1C
100
AcDbEntity
  8
SUNPOU
 48
5.0
100
AcDbBlockReference
  2
_OPEN
 10
499.5236641504554
 20
340.3359976137216
 30
0.0
 41
7.0
 42
7.0
 43
7.0
 50
300.9638719598807
  0
MTEXT
  5
8255
330
7C1C
100
AcDbEntity
  8
SUNPOU
 48
5.0
100
AcDbMText
 10
490.9486400448299
 20
364.3458597223979
 30
0.0
 40
6.0
 41
0.0
 71
     5
 72
     1
  1
\A1;50
 11
0.5144974829276877
 21
-0.8574918892100809
 31
0.0
1001
ACAD
1000
MTEXTBEGIN
1070
    73
1070
     1
1070
    44
1040
1.0
1070
    74
1070
     0
1000
MTEXTEND
  0
POINT
  5
8256
330
7C1C
100
AcDbEntity
  8
DEFPOINTS
 62
     0
 48
5.0
100
AcDbPoint
 10
517.5643893966505
 20
409.4702823230846
 30
0.0
  0
POINT
  5
8257
330
7C1C
100
AcDbEntity
  8
DEFPOINTS
 62
     0
 48
5.0
100
AcDbPoint
 10
543.2893565000024
 20
366.5955329350089
 30
0.0
  0
POINT
  5
8258
330
7C1C
100
AcDbEntity
  8
DEFPOINTS
 62
     0
 48
5.0
100
AcDbPoint
 10
499.5236641504554
 20
340.3359976137216
 30
0.0
  0
ENDBLK
  5
7C27
330
7C1C
100
AcDbEntity
  8
0
 48
5.0
100
AcDbBlockEnd
  0
BLOCK
  5
7C33
330
7C29
100
AcDbEntity
  8
0
 48
5.0
100
AcDbBlockBegin
  2
*D15
 70
     1
 10
0.0
 20
0.0
 30
0.0
  3
*D15
  1

  0
LINE
  5
826F
330
7C29
100
AcDbEntity
  8
SUNPOU
 48
5.0
100
AcDbLine
 10
516.9727587907829
 20
410.4563288301601
 30
0.0
 11
502.8510961473791
 21
433.9923257605509
 31
0.0
  0
LINE
  5
8270
330
7C29
100
AcDbEntity
  8
SUNPOU
 48
5.0
100
AcDbLine
 10
557.2747521279898
 20
434.6376352540174
 30
0.0
 11
543.153089484586
 21
458.1736321844082
 31
0.0
  0
LINE
  5
8271
330
7C29
100
AcDbEntity
  8
SUNPOU
 48
5.0
100
AcDbLine
 10
510.3970318206327
 20
435.0213324734144
 30
0.0
 11
538.6941387088984
 21
451.9996741362842
 31
0.0
  0
INSERT
  5
8272
330
7C29
100
AcDbEntity
  8
SUNPOU
 48
5.0
100
AcDbBlockReference
  2
_OPEN
 10
504.3945885961622
 20
431.4198500929206
 30
0.0
 41
7.0
 42
7.0
 43
7.0
 50
210.9638719598807
  0
INSERT
  5
8273
330
7C29
100
AcDbEntity
  8
SUNPOU
 48
5.0
100
AcDbBlockReference
  2
_OPEN
 10
544.696581933369
 20
455.6011565167779
 30
0.0
 41
7.0
 42
7.0
 43
7.0
 50
30.96387195988068
  0
MTEXT
  5
8274
330
7C29
100
AcDbEntity
  8
SUNPOU
 48
5.0
100
AcDbMText
 10
521.973097850127
 20
447.7979627508997
 30
0.0
 40
6.0
 41
0.0
 71
     5
 72
     1
  1
\A1;47
 11
0.8574918892100818
 21
0.5144974829276862
 31
0.0
1001
ACAD
1000
MTEXTBEGIN
1070
    73
1070
     1
1070
    44
1040
1.0
1070
    74
1070
     0
1000
MTEXTEND
  0
POINT
  5
8275
330
7C29
100
AcDbEntity
  8
DEFPOINTS
 62
     0
 48
5.0
100
AcDbPoint
 10
520.059743688349
 20
405.3113774948997
 30
0.0
  0
POINT
  5
8276
330
7C29
100
AcDbEntity
  8
DEFPOINTS
 62
     0
 48
5.0
100
AcDbPoint
 10
560.3617370255558
 20
429.4926839187569
 30
0.0
  0
POINT
  5
8277
330
7C29
100
AcDbEntity
  8
DEFPOINTS
 62
     0
 48
5.0
100
AcDbPoint
 10
544.696581933369
 20
455.6011565167779
 30
0.0
  0
ENDBLK
  5
7C34
330
7C29
100
AcDbEntity
  8
0
 48
5.0
100
AcDbBlockEnd
  0
BLOCK
  5
7C40
330
7C36
100
AcDbEntity
  8
0
 48
5.0
100
AcDbBlockBegin
  2
*D16
 70
     1
 10
0.0
 20
0.0
 30
0.0
  3
*D16
  1

  0
LINE
  5
823E
330
7C36
100
AcDbEntity
  8
SUNPOU
 48
5.0
100
AcDbLine
 10
512.8805059226447
 20
401.994572096471
 30
0.0
 11
489.2024845492501
 21
442.5556873653037
 31
0.0
  0
LINE
  5
823F
330
7C36
100
AcDbEntity
  8
SUNPOU
 48
5.0
100
AcDbLine
 10
567.236003089459
 20
433.725223858561
 30
0.0
 11
543.5579817160644
 21
474.2863391273936
 31
0.0
  0
LINE
  5
8240
330
7C36
100
AcDbEntity
  8
SUNPOU
 48
5.0
100
AcDbLine
 10
496.7602505962134
 20
443.4938623912818
 30
0.0
 11
539.0250973921429
 21
468.1664567996078
 31
0.0
  0
INSERT
  5
8241
330
7C36
100
AcDbEntity
  8
SUNPOU
 48
5.0
100
AcDbBlockReference
  2
_OPEN
 10
490.7149254107709
 20
439.9648337143998
 30
0.0
 41
7.0
 42
7.0
 43
7.0
 50
210.2747416179237
  0
INSERT
  5
8242
330
7C36
100
AcDbEntity
  8
SUNPOU
 48
5.0
100
AcDbBlockReference
  2
_OPEN
 10
545.0704225775853
 20
471.6954854764898
 30
0.0
 41
7.0
 42
7.0
 43
7.0
 50
30.27474161792374
  0
MTEXT
  5
8243
330
7C36
100
AcDbEntity
  8
SUNPOU
 48
5.0
100
AcDbMText
 10
515.3719392249767
 20
460.1482490136179
 30
0.0
 40
6.0
 41
0.0
 71
     5
 72
     1
  1
\A1;63
 11
0.863617883634633
 21
0.5041469538402841
 31
0.0
1001
ACAD
1000
MTEXTBEGIN
1070
    73
1070
     1
1070
    44
1040
1.0
1070
    74
1070
     0
1000
MTEXTEND
  0
POINT
  5
8244
330
7C36
100
AcDbEntity
  8
DEFPOINTS
 62
     0
 48
5.0
100
AcDbPoint
 10
515.9053876456864
 20
396.8128647946631
 30
0.0
  0
POINT
  5
8245
330
7C36
100
AcDbEntity
  8
DEFPOINTS
 62
     0
 48
5.0
100
AcDbPoint
 10
570.2608848125006
 20
428.5435165567531
 30
0.0
  0
POINT
  5
8246
330
7C36
100
AcDbEntity
  8
DEFPOINTS
 62
     0
 48
5.0
100
AcDbPoint
 10
545.0704225775853
 20
471.6954854764898
 30
0.0
  0
ENDBLK
  5
7C41
330
7C36
100
AcDbEntity
  8
0
 48
5.0
100
AcDbBlockEnd
  0
ENDSEC
  0
SECTION
  2
ENTITIES
  0
TEXT
  5
7D7
330
1A
100
AcDbEntity
  8
SUNPOU
100
AcDbText
 10
300.4797267558679
 20
60.66286847495189
 30
0.0
 40
8.0
  1
軒樋の差し替え
100
AcDbText
  0
LINE
  5
7658
330
1A
100
AcDbEntity
  8
SEIHIN
100
AcDbLine
 10
416.1276889006034
 20
327.7052198832003
 30
0.0
 11
431.1730595793803
 21
302.6297165891966
 31
0.0
  0
LINE
  5
7659
330
1A
100
AcDbEntity
  8
SEIHIN
100
AcDbLine
 10
407.3861173735158
 20
346.1617274444788
 30
0.0
 11
434.0885423710158
 21
301.6578890028501
 31
0.0
  0
LINE
  5
765A
330
1A
100
AcDbEntity
  8
CENTER_L
 48
5.0
100
AcDbLine
 10
413.0755033309669
 20
492.7729970122547
 30
0.0
 11
436.7244110730752
 21
492.7730567751829
 31
0.0
  0
LINE
  5
765B
330
1A
100
AcDbEntity
  8
SEIHIN
100
AcDbLine
 10
424.3189804986213
 20
471.7730254254711
 30
0.0
 11
434.1743251315754
 21
471.7730503308182
 31
0.0
  0
LINE
  5
765C
330
1A
100
AcDbEntity
  8
SEIHIN
100
AcDbLine
 10
424.3189804986213
 20
471.7730254254711
 30
0.0
 11
434.1743251315754
 21
471.7730503308182
 31
0.0
  0
ARC
  5
765D
330
1A
100
AcDbEntity
  8
SEIHIN
100
AcDbCircle
 10
418.5498347875761
 20
492.2073657756571
 30
0.0
 40
7.495441325290703
100
AcDbArc
 50
314.3222125411733
 51
4.328097550403211
  0
LINE
  5
765E
330
1A
100
AcDbEntity
  8
SEIHIN
100
AcDbLine
 10
413.359569264352
 20
500.7729977301407
 30
0.0
 11
431.7867042848579
 21
500.773044297177
 31
0.0
  0
ELLIPSE
  5
765F
330
1A
100
AcDbEntity
  8
SEIHIN
100
AcDbEllipse
 10
427.4214349409626
 20
492.7733383657211
 30
0.0
 11
-0.000007535949123
 21
2.982065487952638
 31
0.0
210
0.0
220
0.0
230
-1.0
 40
0.4686569565874932
 41
4.712388980384689
 42
7.853981633974482
  0
ARC
  5
7660
330
1A
100
AcDbEntity
  8
SEIHIN
100
AcDbCircle
 10
418.5498927447042
 20
446.338703976862
 30
0.0
 40
7.495441325290703
100
AcDbArc
 50
355.6720472412124
 51
45.67793225044282
  0
ELLIPSE
  5
7661
330
1A
100
AcDbEntity
  8
SEIHIN
100
AcDbEllipse
 10
427.4214943283261
 20
445.7727538061353
 30
0.0
 11
0.0
 21
-2.982065487962159
 31
0.0
210
0.0
220
0.0
230
1.0
 40
0.4686569565874931
 41
4.712388980384689
 42
7.853981633974482
  0
LINE
  5
7662
330
1A
100
AcDbEntity
  8
SEIHIN
100
AcDbLine
 10
424.3189868163051
 20
466.7730589061354
 30
0.0
 11
434.1743314492905
 21
466.7730589061354
 31
0.0
  0
LINE
  5
7663
330
1A
100
AcDbEntity
  8
SEIHIN
100
AcDbLine
 10
424.3189868163051
 20
466.7730589061354
 30
0.0
 11
434.1743314492905
 21
466.7730589061354
 31
0.0
  0
LINE
  5
7664
330
1A
100
AcDbEntity
  8
CENTER_L
 48
5.0
100
AcDbLine
 10
413.0755627175135
 20
445.7730589061354
 30
0.0
 11
436.7244704596976
 21
445.7730589061354
 31
0.0
  0
LINE
  5
7665
330
1A
100
AcDbEntity
  8
CENTER_L
 48
5.0
100
AcDbLine
 10
418.811970671054
 20
303.5706713585147
 30
0.0
 11
438.6332512238634
 21
315.4634939975933
 31
0.0
  0
LINE
  5
7666
330
1A
100
AcDbEntity
  8
CENTER_L
 48
5.0
100
AcDbLine
 10
409.5945350189526
 20
322.0055426412477
 30
0.0
 11
428.0602764768964
 21
333.0850381094292
 31
0.0
  0
LINE
  5
7667
330
1A
100
AcDbEntity
  8
SEIHIN
100
AcDbLine
 10
413.359648867623
 20
437.7730589061354
 30
0.0
 11
431.7867838881877
 21
437.7730589061354
 31
0.0
  0
LINE
  5
7668
330
1A
100
AcDbEntity
  8
SEIHIN
100
AcDbLine
 10
431.6651943189818
 20
302.4656716778302
 30
0.0
 11
425.7963157058149
 21
299.5312322844898
 31
0.0
  0
LINE
  5
7669
330
1A
100
AcDbEntity
  8
SEIHIN
100
AcDbLine
 10
429.1813892562436
 20
303.8564332350213
 30
0.0
 11
425.0031231279053
 21
301.7673002444788
 31
0.0
  0
LINE
  5
766A
330
1A
100
AcDbEntity
  8
SEIHIN
100
AcDbLine
 10
412.0508845279054
 20
346.1617274444788
 30
0.0
 11
437.5185099279053
 21
303.7158789344788
 31
0.0
  0
LINE
  5
766B
330
1A
100
AcDbEntity
  8
CENTER_L
 48
5.0
100
AcDbLine
 10
276.1196377279054
 20
469.2730589061354
 30
0.0
 11
444.9279064279052
 21
469.2730589061354
 31
0.0
  0
LINE
  5
7671
330
1A
100
AcDbEntity
  8
SEIHIN
100
AcDbLine
 10
291.0507845279054
 20
312.8617274344788
 30
0.0
 11
366.0507845279054
 21
303.6617274344788
 31
0.0
  0
LINE
  5
7672
330
1A
100
AcDbEntity
  8
SEIHIN
100
AcDbLine
 10
289.7508845279054
 20
317.1617274344788
 30
0.0
 11
358.4390866279054
 21
317.1617274344788
 31
0.0
  0
ARC
  5
7673
330
1A
100
AcDbEntity
  8
NOKITOI
 48
5.0
100
AcDbCircle
 10
332.7670688083335
 20
314.9173457227094
 30
0.0
 40
41.79999437547816
100
AcDbArc
 50
184.474295212525
 51
269.9998545921058
  0
ARC
  5
7674
330
1A
100
AcDbEntity
  8
NOKITOI
 48
5.0
100
AcDbCircle
 10
332.7670464999082
 20
314.9173658237358
 30
0.0
 40
43.00001447645168
100
AcDbArc
 50
186.5249107071174
 51
269.9998883751405
  0
ARC
  5
7678
330
1A
100
AcDbEntity
  8
SEIHIN
100
AcDbCircle
 10
286.0880052279054
 20
320.1617274344788
 30
0.0
 40
0.5000000300307247
100
AcDbArc
 50
344.0527557086856
 51
90.0
  0
ARC
  5
7679
330
1A
100
AcDbEntity
  8
SEIHIN
100
AcDbCircle
 10
286.5495514279053
 20
317.2540844744788
 30
0.0
 40
3.499985643068148
100
AcDbArc
 50
103.1906199763888
 51
181.5120870242763
  0
LINE
  5
767A
330
1A
100
AcDbEntity
  8
NOKITOI
 48
5.0
100
AcDbLine
 10
289.4784627263657
 20
317.8911513473657
 30
0.0
 11
289.7942627263655
 21
323.8910513473657
 31
0.0
  0
LINE
  5
767B
330
1A
100
AcDbEntity
  8
NOKITOI
 48
5.0
100
AcDbLine
 10
287.5370627263659
 20
318.6173513473657
 30
0.0
 11
287.9411627263657
 21
321.4457513473656
 31
0.0
  0
ARC
  5
767C
330
1A
100
AcDbEntity
  8
NOKITOI
 48
5.0
100
AcDbCircle
 10
286.073776944781
 20
320.3950367130647
 30
0.0
 40
0.5000073448410256
100
AcDbArc
 50
351.8729478641243
 51
96.47829282997079
  0
ARC
  5
767D
330
1A
100
AcDbEntity
  8
NOKITOI
 48
5.0
100
AcDbCircle
 10
286.4686006078122
 20
316.9173951298911
 30
0.0
 40
3.999989731271038
100
AcDbArc
 50
96.47731142013284
 51
181.7899836067311
  0
LINE
  5
767E
330
1A
100
AcDbEntity
  8
NOKITOI
 48
5.0
100
AcDbLine
 10
282.2173627263659
 20
324.8923513473656
 30
0.0
 11
282.3667627263653
 21
320.1134513473658
 31
0.0
  0
ARC
  5
767F
330
1A
100
AcDbEntity
  8
NOKITOI
 48
5.0
100
AcDbCircle
 10
286.4686829390348
 20
316.9174100757458
 30
0.0
 40
5.2000412730095
100
AcDbArc
 50
90.0013245430618
 51
142.0757990790571
  0
LINE
  5
7680
330
1A
100
AcDbEntity
  8
NOKITOI
 48
5.0
100
AcDbLine
 10
288.3149627263656
 20
318.6173513473657
 30
0.0
 11
288.4961627263655
 21
322.0588513473659
 31
0.0
  0
LINE
  5
7681
330
1A
100
AcDbEntity
  8
NOKITOI
 48
5.0
100
AcDbLine
 10
281.0179627263655
 20
324.8548513473657
 30
0.0
 11
281.4081627263653
 21
312.3705513473656
 31
0.0
  0
ARC
  5
7682
330
1A
100
AcDbEntity
  8
SEIHIN
100
AcDbCircle
 10
287.7508972279053
 20
320.9115281144788
 30
0.0
 40
4.249771090849518
100
AcDbArc
 50
248.0384870086
 51
298.0724108493035
  0
LINE
  5
7683
330
1A
100
AcDbEntity
  8
SEIHIN
100
AcDbLine
 10
286.0507845279054
 20
312.8617274344788
 30
0.0
 11
291.0507845279054
 21
312.8617274344788
 31
0.0
  0
LINE
  5
7684
330
1A
100
AcDbEntity
  8
NOKITOI
 48
5.0
100
AcDbLine
 10
288.9790627263655
 20
317.4173513473657
 30
0.0
 11
286.7299627263655
 21
317.4173513473657
 31
0.0
  0
LINE
  5
7685
330
1A
100
AcDbEntity
  8
NOKITOI
 48
5.0
100
AcDbLine
 10
282.9073627263655
 20
310.9173513473657
 30
0.0
 11
289.0520627263654
 21
310.9173513473657
 31
0.0
  0
LINE
  5
7686
330
1A
100
AcDbEntity
  8
NOKITOI
 48
5.0
100
AcDbLine
 10
290.5959627263659
 20
312.1173513473658
 30
0.0
 11
284.5550627263655
 21
312.1173513473658
 31
0.0
  0
ARC
  5
7687
330
1A
100
AcDbEntity
  8
SEIHIN
100
AcDbCircle
 10
286.0507845279054
 20
315.8617274344788
 30
0.0
 40
3.0
100
AcDbArc
 50
180.0
 51
270.0
  0
LINE
  5
7688
330
1A
100
AcDbEntity
  8
NOKITOI
 48
5.0
100
AcDbLine
 10
282.5560627263653
 20
314.0549513473657
 30
0.0
 11
282.4705627263656
 21
316.7924513473657
 31
0.0
  0
ARC
  5
7689
330
1A
100
AcDbEntity
  8
NOKITOI
 48
5.0
100
AcDbCircle
 10
284.5550762985039
 20
314.1173381922793
 30
0.0
 40
1.999986844959662
100
AcDbArc
 50
181.7875531852355
 51
269.9996111843215
  0
ARC
  5
768A
330
1A
100
AcDbEntity
  8
NOKITOI
 48
5.0
100
AcDbCircle
 10
282.9073986855164
 20
312.4173164932225
 30
0.0
 40
1.499965146287778
100
AcDbArc
 50
181.7866280217767
 51
269.9986264297005
  0
ARC
  5
768B
330
1A
100
AcDbEntity
  8
SEIHIN
100
AcDbCircle
 10
286.3485440279053
 20
317.4338581244788
 30
0.0
 40
0.5000000415608755
100
AcDbArc
 50
164.0527546068717
 51
248.0384815442388
  0
LINE
  5
768C
330
1A
100
AcDbEntity
  8
SEIHIN
100
AcDbLine
 10
283.0507845279054
 20
317.1617274344788
 30
0.0
 11
283.0507845279054
 21
315.8617274344788
 31
0.0
  0
LINE
  5
768D
330
1A
100
AcDbEntity
  8
SEIHIN
100
AcDbLine
 10
286.5687628279053
 20
320.0243513444788
 30
0.0
 11
285.8677864279054
 21
317.5712342244788
 31
0.0
  0
LINE
  5
768E
330
1A
100
AcDbEntity
  8
NOKITOI
 48
5.0
100
AcDbLine
 10
286.2350627263653
 20
317.9881513473659
 30
0.0
 11
286.5687627263655
 21
320.3243513473659
 31
0.0
  0
ARC
  5
768F
330
1A
100
AcDbEntity
  8
NOKITOI
 48
5.0
100
AcDbCircle
 10
286.7299893269633
 20
317.9173206704837
 30
0.0
 40
0.4999693238254178
100
AcDbArc
 50
171.8555038770536
 51
269.9969516090372
  0
LINE
  5
7690
330
1A
100
AcDbEntity
  8
SEIHIN
100
AcDbLine
 10
289.7507845279053
 20
312.8617274344788
 30
0.0
 11
289.7507845279053
 21
317.1617274344788
 31
0.0
  0
ARC
  5
7691
330
1A
100
AcDbEntity
  8
NOKITOI
 48
5.0
100
AcDbCircle
 10
290.5959752960739
 20
311.617339722636
 30
0.0
 40
0.5000116248877111
100
AcDbArc
 50
4.474846808341977
 51
90.00144034898383
  0
ARC
  5
7692
330
1A
100
AcDbEntity
  8
NOKITOI
 48
5.0
100
AcDbCircle
 10
289.052054302203
 20
309.9173588624222
 30
0.0
 40
0.9999924849789756
100
AcDbArc
 50
6.528264606673562
 51
89.99951732740802
  0
LINE
  5
7693
330
1A
100
AcDbEntity
  8
NOKITOI
 48
5.0
100
AcDbLine
 10
288.3149627263656
 20
318.6173513473657
 30
0.0
 11
287.5370627263659
 21
318.6173513473657
 31
0.0
  0
ARC
  5
7694
330
1A
100
AcDbEntity
  8
NOKITOI
 48
5.0
100
AcDbCircle
 10
288.9790558393706
 20
317.9173448122802
 30
0.0
 40
0.499993464961963
100
AcDbArc
 50
270.0007892017836
 51
356.997036131742
  0
LINE
  5
7695
330
1A
100
AcDbEntity
  8
NOKITOI
 48
5.0
100
AcDbLine
 10
286.9304627263659
 20
322.1173513473658
 30
0.0
 11
287.9262627263656
 21
323.2173513473659
 31
0.0
  0
LINE
  5
7696
330
1A
100
AcDbEntity
  8
NOKITOI
 48
5.0
100
AcDbLine
 10
284.9897627263658
 20
323.2173513473659
 30
0.0
 11
287.9262627263656
 21
323.2173513473659
 31
0.0
  0
LINE
  5
7697
330
1A
100
AcDbEntity
  8
NOKITOI
 48
5.0
100
AcDbLine
 10
289.2948627263653
 20
324.4173513473657
 30
0.0
 11
287.0633627263655
 21
324.4173513473657
 31
0.0
  0
LINE
  5
7698
330
1A
100
AcDbEntity
  8
NOKITOI
 48
5.0
100
AcDbLine
 10
286.5730627263656
 20
325.0154513473656
 30
0.0
 11
286.8338627263656
 21
326.3193513473658
 31
0.0
  0
ARC
  5
7699
330
1A
100
AcDbEntity
  8
NOKITOI
 48
5.0
100
AcDbCircle
 10
283.0169754772155
 20
324.9173645024522
 30
0.0
 40
1.999986844954076
100
AcDbArc
 50
90.00036528735288
 51
181.7883072882702
  0
ARC
  5
769A
330
1A
100
AcDbEntity
  8
NOKITOI
 48
5.0
100
AcDbCircle
 10
283.0169672211636
 20
324.9173559848926
 30
0.0
 40
0.7999953624857498
100
AcDbArc
 50
90.00032191805264
 51
181.7911273464192
  0
LINE
  5
769B
330
1A
100
AcDbEntity
  8
SEIHIN
100
AcDbLine
 10
285.7507845279053
 20
320.6617274344788
 30
0.0
 11
286.0880052279054
 21
320.6617274344788
 31
0.0
  0
LINE
  5
769C
330
1A
100
AcDbEntity
  8
NOKITOI
 48
5.0
100
AcDbLine
 10
286.9304627263659
 20
322.1173513473658
 30
0.0
 11
286.4685627263657
 21
322.1173513473658
 31
0.0
  0
ARC
  5
769D
330
1A
100
AcDbEntity
  8
NOKITOI
 48
5.0
100
AcDbCircle
 10
287.0633554718101
 20
324.9173601972092
 30
0.0
 40
0.5000088498959383
100
AcDbArc
 50
168.6864043304889
 51
270.0008312961425
  0
LINE
  5
769E
330
1A
100
AcDbEntity
  8
NOKITOI
 48
5.0
100
AcDbLine
 10
283.0169627263653
 20
325.7173513473659
 30
0.0
 11
285.4897627263658
 21
325.7173513473659
 31
0.0
  0
LINE
  5
769F
330
1A
100
AcDbEntity
  8
NOKITOI
 48
5.0
100
AcDbLine
 10
285.4897627263658
 20
325.7173513473659
 30
0.0
 11
284.9897627263658
 21
323.2173513473659
 31
0.0
  0
ARC
  5
76A0
330
1A
100
AcDbEntity
  8
NOKITOI
 48
5.0
100
AcDbCircle
 10
286.3435619433571
 20
326.4173523023675
 30
0.0
 40
0.4999990449987349
100
AcDbArc
 50
348.6967198015444
 51
89.99991027369329
  0
LINE
  5
76A1
330
1A
100
AcDbEntity
  8
NOKITOI
 48
5.0
100
AcDbLine
 10
283.0169627263653
 20
326.9173513473657
 30
0.0
 11
286.3435627263656
 21
326.9173513473657
 31
0.0
  0
ARC
  5
76A2
330
1A
100
AcDbEntity
  8
NOKITOI
 48
5.0
100
AcDbCircle
 10
289.2948565252077
 20
323.917357882451
 30
0.0
 40
0.4999934649531607
100
AcDbArc
 50
356.9955363203377
 51
89.99928939038239
  0
LINE
  5
76A3
330
1A
100
AcDbEntity
  8
NOKITOI
 48
5.0
100
AcDbLine
 10
287.9411627263657
 20
321.4457513473656
 30
0.0
 11
288.4961627263655
 21
322.0588513473659
 31
0.0
  0
LINE
  5
76A4
330
1A
100
AcDbEntity
  8
NOKITOI
 48
5.0
100
AcDbLine
 10
387.6485627263659
 20
281.4000513473657
 30
0.0
 11
377.6632627263657
 21
273.2302513473656
 31
0.0
  0
LINE
  5
76A5
330
1A
100
AcDbEntity
  8
NOKITOI
 48
5.0
100
AcDbLine
 10
388.6328627263655
 20
280.6549513473659
 30
0.0
 11
378.2297627263655
 21
272.1432513473658
 31
0.0
  0
LINE
  5
76A6
330
1A
100
AcDbEntity
  8
NOKITOI
 48
5.0
100
AcDbLine
 10
332.7670627263655
 20
273.1173513473657
 30
0.0
 11
377.3466627263656
 21
273.1172513473658
 31
0.0
  0
LINE
  5
76A7
330
1A
100
AcDbEntity
  8
NOKITOI
 48
5.0
100
AcDbLine
 10
377.5964627263656
 20
271.9172513473657
 30
0.0
 11
332.7670627263655
 21
271.9173513473657
 31
0.0
  0
LINE
  5
76A8
330
1A
100
AcDbEntity
  8
NOKITOI
 48
5.0
100
AcDbLine
 10
373.3466627263656
 20
273.1172513473658
 30
0.0
 11
353.4385627263659
 21
273.1172513473658
 31
0.0
  0
LINE
  5
76A9
330
1A
100
AcDbEntity
  8
NOKITOI
 48
5.0
100
AcDbLine
 10
373.5964627263656
 20
271.9172513473657
 30
0.0
 11
353.4385627263659
 21
271.9172513473657
 31
0.0
  0
ARC
  5
76AD
330
1A
100
AcDbEntity
  8
NOKITOI
 48
5.0
100
AcDbCircle
 10
377.3466691141143
 20
273.6172536273553
 30
0.0
 40
0.5000022800304047
100
AcDbArc
 50
269.9992680212823
 51
309.2854498596055
  0
ARC
  5
76AE
330
1A
100
AcDbEntity
  8
NOKITOI
 48
5.0
100
AcDbCircle
 10
377.5964557937882
 20
272.9172488723596
 30
0.0
 40
0.9999975250179316
100
AcDbArc
 50
270.0003972084052
 51
309.2946416752284
  0
LINE
  5
76AF
330
1A
100
AcDbEntity
  8
SEIHIN
100
AcDbLine
 10
365.2721293279054
 20
326.2368622744788
 30
0.0
 11
358.4390866279054
 21
317.1617274344788
 31
0.0
  0
LINE
  5
76B0
330
1A
100
AcDbEntity
  8
SEIHIN
100
AcDbLine
 10
365.2603346279054
 20
306.2716685644788
 30
0.0
 11
313.1398493279053
 21
312.6691764844788
 31
0.0
  0
LINE
  5
76B1
330
1A
100
AcDbEntity
  8
SEIHIN
100
AcDbLine
 10
370.1991120279053
 20
314.6617274344788
 30
0.0
 11
313.2616796279054
 21
314.6617274344788
 31
0.0
  0
ARC
  5
76B2
330
1A
100
AcDbEntity
  8
SEIHIN
100
AcDbCircle
 10
313.2616796279054
 20
313.6617274344788
 30
0.0
 40
1.000000002586002
100
AcDbArc
 50
90.0
 51
263.0022538529114
  0
ARC
  5
76B3
330
1A
100
AcDbEntity
  8
SEIHIN
100
AcDbCircle
 10
355.9449579279054
 20
322.1617274344788
 30
0.0
 40
5.000000020541354
100
AcDbArc
 50
270.0
 51
323.0224040565833
  0
LINE
  5
76B4
330
1A
100
AcDbEntity
  8
SEIHIN
100
AcDbLine
 10
367.2693070279053
 20
324.7331065544788
 30
0.0
 11
362.7743412279054
 21
318.7632301344788
 31
0.0
  0
LINE
  5
76B5
330
1A
100
AcDbEntity
  8
SEIHIN
100
AcDbLine
 10
380.8500740279054
 20
321.9887759744788
 30
0.0
 11
369.3577976279054
 21
306.7255964444788
 31
0.0
  0
LINE
  5
76B6
330
1A
100
AcDbEntity
  8
SEIHIN
100
AcDbLine
 10
405.0629985279053
 20
327.7145138444788
 30
0.0
 11
417.8129985279054
 21
302.2145138444788
 31
0.0
  0
LINE
  5
76B7
330
1A
100
AcDbEntity
  8
SEIHIN
100
AcDbLine
 10
401.0508845279055
 20
326.1617274344788
 30
0.0
 11
401.0508845279055
 21
308.0201893844788
 31
0.0
  0
LINE
  5
76B8
330
1A
100
AcDbEntity
  8
SEIHIN
100
AcDbLine
 10
390.9432852279055
 20
339.5500795444788
 30
0.0
 11
374.3862181279054
 21
317.5602247344788
 31
0.0
  0
LINE
  5
76B9
330
1A
100
AcDbEntity
  8
SEIHIN
100
AcDbLine
 10
402.3734863279055
 20
327.5033682244788
 30
0.0
 11
414.5706999279054
 21
303.1089410344788
 31
0.0
  0
ARC
  5
76BA
330
1A
100
AcDbEntity
  8
NOKITOI
 48
5.0
100
AcDbCircle
 10
395.4384317994295
 20
316.9173870920295
 30
0.0
 40
3.99998565374706
100
AcDbArc
 50
358.208696659101
 51
83.5242238046835
  0
LINE
  5
76BB
330
1A
100
AcDbEntity
  8
NOKITOI
 48
5.0
100
AcDbLine
 10
399.6895627263652
 20
324.8923513473656
 30
0.0
 11
399.5402627263656
 21
320.1133513473659
 31
0.0
  0
LINE
  5
76BC
330
1A
100
AcDbEntity
  8
NOKITOI
 48
5.0
100
AcDbLine
 10
394.3698627263652
 20
318.6173513473657
 30
0.0
 11
393.9658627263657
 21
321.4457513473656
 31
0.0
  0
LINE
  5
76BD
330
1A
100
AcDbEntity
  8
NOKITOI
 48
5.0
100
AcDbLine
 10
392.4285627263657
 20
317.8910513473657
 30
0.0
 11
392.1127627263654
 21
323.8910513473657
 31
0.0
  0
LINE
  5
76BE
330
1A
100
AcDbEntity
  8
NOKITOI
 48
5.0
100
AcDbLine
 10
393.5919627263656
 20
318.6173513473657
 30
0.0
 11
393.4108627263654
 21
322.0587513473657
 31
0.0
  0
ARC
  5
76BF
330
1A
100
AcDbEntity
  8
NOKITOI
 48
5.0
100
AcDbCircle
 10
395.4384448600144
 20
316.9173600757456
 30
0.0
 40
5.199991271650611
100
AcDbArc
 50
37.92532860472895
 51
89.99980314072724
  0
ARC
  5
76C0
330
1A
100
AcDbEntity
  8
NOKITOI
 48
5.0
100
AcDbCircle
 10
395.8331920988653
 20
320.3949815798606
 30
0.0
 40
0.4999578477751074
100
AcDbArc
 50
83.52609071220427
 51
188.1330561712928
  0
LINE
  5
76C1
330
1A
100
AcDbEntity
  8
NOKITOI
 48
5.0
100
AcDbLine
 10
400.8889627263656
 20
324.8548513473657
 30
0.0
 11
400.4988627263656
 21
312.3704513473656
 31
0.0
  0
LINE
  5
76C2
330
1A
100
AcDbEntity
  8
NOKITOI
 48
5.0
100
AcDbLine
 10
392.9278627263656
 20
317.4173513473657
 30
0.0
 11
395.1769627263652
 21
317.4173513473657
 31
0.0
  0
LINE
  5
76C3
330
1A
100
AcDbEntity
  8
NOKITOI
 48
5.0
100
AcDbLine
 10
393.5919627263656
 20
318.6173513473657
 30
0.0
 11
394.3698627263652
 21
318.6173513473657
 31
0.0
  0
LINE
  5
76C4
330
1A
100
AcDbEntity
  8
NOKITOI
 48
5.0
100
AcDbLine
 10
391.3199627263652
 20
312.1173513473658
 30
0.0
 11
397.3518627263656
 21
312.1173513473658
 31
0.0
  0
LINE
  5
76C5
330
1A
100
AcDbEntity
  8
NOKITOI
 48
5.0
100
AcDbLine
 10
398.9995627263656
 20
310.9173513473657
 30
0.0
 11
392.8584627263658
 21
310.9173513473657
 31
0.0
  0
LINE
  5
76C6
330
1A
100
AcDbEntity
  8
NOKITOI
 48
5.0
100
AcDbLine
 10
390.8224627263657
 20
311.6671513473658
 30
0.0
 11
387.8294627263653
 21
281.7373513473656
 31
0.0
  0
LINE
  5
76C7
330
1A
100
AcDbEntity
  8
NOKITOI
 48
5.0
100
AcDbLine
 10
391.8634627263659
 20
310.0168513473657
 30
0.0
 11
388.9946627263657
 21
281.3294513473657
 31
0.0
  0
ARC
  5
76C8
330
1A
100
AcDbEntity
  8
NOKITOI
 48
5.0
100
AcDbCircle
 10
387.3319453004874
 20
281.7870188609778
 30
0.0
 40
0.4999904508696396
100
AcDbArc
 50
309.2900846377946
 51
354.2990110749239
  0
ARC
  5
76C9
330
1A
100
AcDbEntity
  8
NOKITOI
 48
5.0
100
AcDbCircle
 10
387.9996401534967
 20
281.4289092756931
 30
0.0
 40
0.9999908507640039
100
AcDbArc
 50
309.2887092230664
 51
354.286232947753
  0
LINE
  5
76CA
330
1A
100
AcDbEntity
  8
SEIHIN
100
AcDbLine
 10
366.0507845279054
 20
303.6617274344788
 30
0.0
 11
385.4747497279054
 21
299.8613864244788
 31
0.0
  0
LINE
  5
76CB
330
1A
100
AcDbEntity
  8
SEIHIN
100
AcDbLine
 10
369.9042465279053
 20
305.1564764744788
 30
0.0
 11
384.0616761279054
 21
301.4632339744788
 31
0.0
  0
LINE
  5
76CC
330
1A
100
AcDbEntity
  8
SEIHIN
100
AcDbLine
 10
370.9979828279053
 20
313.0602247344788
 30
0.0
 11
366.1810357279053
 21
306.6627168244788
 31
0.0
  0
ARC
  5
76CD
330
1A
100
AcDbEntity
  8
SEIHIN
100
AcDbCircle
 10
370.1566684279053
 20
306.1240937444788
 30
0.0
 40
1.000000012500433
100
AcDbArc
 50
143.0224045627645
 51
255.3791258185317
  0
ARC
  5
76CE
330
1A
100
AcDbEntity
  8
SEIHIN
100
AcDbCircle
 10
365.3821649279054
 20
307.2642195144788
 30
0.0
 40
1.000000012878451
100
AcDbArc
 50
263.0022538529114
 51
323.0224050204871
  0
LINE
  5
76CF
330
1A
100
AcDbEntity
  8
SEIHIN
100
AcDbLine
 10
363.5732120279053
 20
317.1617274344788
 30
0.0
 11
373.5873473279054
 21
317.1617274344788
 31
0.0
  0
ARC
  5
76D0
330
1A
100
AcDbEntity
  8
SEIHIN
100
AcDbCircle
 10
363.5732120279053
 20
318.1617274344788
 30
0.0
 40
1.000000013299971
100
AcDbArc
 50
143.0224045627645
 51
270.0
  0
ARC
  5
76D1
330
1A
100
AcDbEntity
  8
SEIHIN
100
AcDbCircle
 10
370.1991120279053
 20
313.6617274344788
 30
0.0
 40
1.000000013299993
100
AcDbArc
 50
323.0224045627658
 51
90.0
  0
ARC
  5
76D2
330
1A
100
AcDbEntity
  8
SEIHIN
100
AcDbCircle
 10
373.5873473279054
 20
318.1617274344788
 30
0.0
 40
1.000000013299971
100
AcDbArc
 50
270.0
 51
323.0224045627645
  0
LINE
  5
76D3
330
1A
100
AcDbEntity
  8
SEIHIN
100
AcDbLine
 10
387.5507845279053
 20
309.4117274344788
 30
0.0
 11
387.5507845279053
 21
304.5068510044788
 31
0.0
  0
LINE
  5
76D4
330
1A
100
AcDbEntity
  8
SEIHIN
100
AcDbLine
 10
389.0507845279053
 20
302.8055643844788
 30
0.0
 11
389.0507845279053
 21
309.4117274344788
 31
0.0
  0
ARC
  5
76D5
330
1A
100
AcDbEntity
  8
SEIHIN
100
AcDbCircle
 10
386.0507845279053
 20
302.8055643844788
 30
0.0
 40
2.999999995913402
100
AcDbArc
 50
258.9297977643305
 51
0.0
  0
ARC
  5
76D6
330
1A
100
AcDbEntity
  8
SEIHIN
100
AcDbCircle
 10
386.6863899279053
 20
302.0335502644788
 30
0.0
 40
2.000000013659082
100
AcDbArc
 50
81.61883292798089
 51
181.983005132836
  0
ARC
  5
76D7
330
1A
100
AcDbEntity
  8
SEIHIN
100
AcDbCircle
 10
384.1878870279053
 20
301.9470426144788
 30
0.0
 40
0.5000000119990801
100
AcDbArc
 50
255.3791315071929
 51
1.983005033705344
  0
ARC
  5
76D8
330
1A
100
AcDbEntity
  8
SEIHIN
100
AcDbCircle
 10
387.0507845279053
 20
304.5068510044788
 30
0.0
 40
0.4999999990316154
100
AcDbArc
 50
261.6188358039388
 51
0.0
  0
ARC
  5
76D9
330
1A
100
AcDbEntity
  8
SEIHIN
100
AcDbCircle
 10
388.3007845279053
 20
309.4117274344788
 30
0.0
 40
0.75
100
AcDbArc
 50
90.0
 51
180.0
  0
ARC
  5
76DA
330
1A
100
AcDbEntity
  8
SEIHIN
100
AcDbCircle
 10
388.3007845279053
 20
309.4117274344788
 30
0.0
 40
0.75
100
AcDbArc
 50
0.0
 51
90.0
  0
ARC
  5
76DB
330
1A
100
AcDbEntity
  8
NOKITOI
 48
5.0
100
AcDbCircle
 10
391.3199757973702
 20
311.6173631776456
 30
0.0
 40
0.499988169890889
100
AcDbArc
 50
90.00149786226472
 51
174.2966061377164
  0
ARC
  5
76DC
330
1A
100
AcDbEntity
  8
NOKITOI
 48
5.0
100
AcDbCircle
 10
392.8584833762065
 20
309.9173700352149
 30
0.0
 40
0.9999813123640345
100
AcDbArc
 50
90.00118317084911
 51
174.2905900333514
  0
ARC
  5
76DD
330
1A
100
AcDbEntity
  8
NOKITOI
 48
5.0
100
AcDbCircle
 10
392.9278668477723
 20
317.9173474373352
 30
0.0
 40
0.4999960899864752
100
AcDbArc
 50
183.0147243791742
 51
269.9995277178578
  0
LINE
  5
76DE
330
1A
100
AcDbEntity
  8
SEIHIN
100
AcDbLine
 10
405.4621300279054
 20
301.6617274344788
 30
0.0
 11
413.6762727279053
 21
301.6617274344788
 31
0.0
  0
LINE
  5
76DF
330
1A
100
AcDbEntity
  8
SEIHIN
100
AcDbLine
 10
402.5554111279054
 20
299.1617274344788
 30
0.0
 11
424.2310680845437
 21
299.1617274344788
 31
0.0
  0
CIRCLE
  5
76E0
330
1A
100
AcDbEntity
  8
SEIHIN
100
AcDbCircle
 10
395.5507845279053
 20
309.6617274344788
 30
0.0
 40
0.999999981411176
  0
LINE
  5
76E1
330
1A
100
AcDbEntity
  8
SEIHIN
100
AcDbLine
 10
396.2544172279054
 20
310.3722912944788
 30
0.0
 11
404.7584973279054
 21
301.9511635744787
 31
0.0
  0
LINE
  5
76E2
330
1A
100
AcDbEntity
  8
SEIHIN
100
AcDbLine
 10
394.6882365279055
 20
309.1557521944788
 30
0.0
 11
399.5364931279055
 21
300.8908140944788
 31
0.0
  0
ARC
  5
76E3
330
1A
100
AcDbEntity
  8
SEIHIN
100
AcDbCircle
 10
402.5554111279054
 20
302.6617274344788
 30
0.0
 40
3.49999999632242
100
AcDbArc
 50
210.3961124587318
 51
270.0
  0
ARC
  5
76E4
330
1A
100
AcDbEntity
  8
SEIHIN
100
AcDbCircle
 10
400.0508845279055
 20
308.0201893844788
 30
0.0
 40
0.99999999391183
100
AcDbArc
 50
225.2808117673398
 51
0.0
  0
ARC
  5
76E5
330
1A
100
AcDbEntity
  8
SEIHIN
100
AcDbCircle
 10
405.4621300279054
 20
302.6617274344788
 30
0.0
 40
0.9999999939118351
100
AcDbArc
 50
225.2808117673398
 51
270.0
  0
LINE
  5
76E6
330
1A
100
AcDbEntity
  8
NOKITOI
 48
5.0
100
AcDbLine
 10
399.3509627263656
 20
314.0547513473658
 30
0.0
 11
399.4364627263653
 21
316.7923513473657
 31
0.0
  0
ARC
  5
76E7
330
1A
100
AcDbEntity
  8
NOKITOI
 48
5.0
100
AcDbCircle
 10
397.3519007141899
 20
314.117288167938
 30
0.0
 40
2.000036820932882
100
AcDbArc
 50
269.9989117490344
 51
358.2110591274196
  0
ARC
  5
76E8
330
1A
100
AcDbEntity
  8
SEIHIN
100
AcDbCircle
 10
395.5507845279053
 20
309.6617274344788
 30
0.0
 40
0.9999999982674266
100
AcDbArc
 50
45.28081987008772
 51
210.3961134471386
  0
ARC
  5
76E9
330
1A
100
AcDbEntity
  8
NOKITOI
 48
5.0
100
AcDbCircle
 10
398.9995799395437
 20
312.4173680305135
 30
0.0
 40
1.500016683246579
100
AcDbArc
 50
269.999342512336
 51
358.2076423244112
  0
LINE
  5
76EA
330
1A
100
AcDbEntity
  8
NOKITOI
 48
5.0
100
AcDbLine
 10
395.6719627263655
 20
317.9880513473657
 30
0.0
 11
395.3381627263656
 21
320.3242513473659
 31
0.0
  0
ARC
  5
76EB
330
1A
100
AcDbEntity
  8
NOKITOI
 48
5.0
100
AcDbCircle
 10
395.1769729128018
 20
317.9173630920899
 30
0.0
 40
0.5000117448278309
100
AcDbArc
 50
269.9988327478032
 51
8.127314608715781
  0
ARC
  5
76EC
330
1A
100
AcDbEntity
  8
SEIHIN
100
AcDbCircle
 10
418.7074256279053
 20
302.6617274344788
 30
0.0
 40
0.9999999580737615
100
AcDbArc
 50
206.5650532269542
 51
270.0
  0
ARC
  5
76ED
330
1A
100
AcDbEntity
  8
SEIHIN
100
AcDbCircle
 10
413.6762727279053
 20
302.6617274344788
 30
0.0
 40
1.000000005031197
100
AcDbArc
 50
270.0
 51
26.56505117707944
  0
LINE
  5
76EE
330
1A
100
AcDbEntity
  8
SEIHIN
100
AcDbLine
 10
418.7074256279053
 20
301.6617274344788
 30
0.0
 11
424.5559095279054
 21
301.6617274344788
 31
0.0
  0
ARC
  5
76EF
330
1A
100
AcDbEntity
  8
SEIHIN
100
AcDbCircle
 10
424.2310680845437
 20
302.6617274344788
 30
0.0
 40
3.5
100
AcDbArc
 50
270.0
 51
296.5650518546619
  0
ARC
  5
76F0
330
1A
100
AcDbEntity
  8
SEIHIN
100
AcDbCircle
 10
424.5559095279054
 20
302.6617274344788
 30
0.0
 40
1.000000000559064
100
AcDbArc
 50
270.0
 51
296.5650514333119
  0
LINE
  5
76F1
330
1A
100
AcDbEntity
  8
SEIHIN
100
AcDbLine
 10
396.3357249279054
 20
342.5556560444788
 30
0.0
 11
389.3390748279055
 21
333.2632301444788
 31
0.0
  0
LINE
  5
76F2
330
1A
100
AcDbEntity
  8
SEIHIN
100
AcDbLine
 10
390.1379455279054
 20
331.6617274344788
 30
0.0
 11
411.9875790012986
 21
331.6617274344788
 31
0.0
  0
ARC
  5
76F3
330
1A
100
AcDbEntity
  8
SEIHIN
100
AcDbCircle
 10
405.2156678279054
 20
296.1617274344788
 30
0.0
 40
50.00000002272582
100
AcDbArc
 50
90.0000013750972
 51
143.02240367533
  0
ARC
  5
76F4
330
1A
100
AcDbEntity
  8
SEIHIN
100
AcDbCircle
 10
395.2297478279053
 20
311.1617274344788
 30
0.0
 40
17.99999998169338
100
AcDbArc
 50
90.00000063661738
 51
143.0224035665536
  0
LINE
  5
76F5
330
1A
100
AcDbEntity
  8
NOKITOI
 48
5.0
100
AcDbLine
 10
392.6120627263658
 20
324.4173513473657
 30
0.0
 11
394.8435627263656
 21
324.4173513473657
 31
0.0
  0
LINE
  5
76F6
330
1A
100
AcDbEntity
  8
NOKITOI
 48
5.0
100
AcDbLine
 10
393.9658627263657
 20
321.4457513473656
 30
0.0
 11
393.4108627263654
 21
322.0587513473657
 31
0.0
  0
ARC
  5
76F7
330
1A
100
AcDbEntity
  8
SEIHIN
100
AcDbCircle
 10
405.2156678279054
 20
296.1617274344788
 30
0.0
 40
47.5000000391522
100
AcDbArc
 50
108.9118434786388
 51
143.0224021282104
  0
ARC
  5
76F8
330
1A
100
AcDbEntity
  8
SEIHIN
100
AcDbCircle
 10
390.1379455279054
 20
332.6617274344788
 30
0.0
 40
0.9999999763639362
100
AcDbArc
 50
143.0224006586868
 51
270.0
  0
ARC
  5
76F9
330
1A
100
AcDbEntity
  8
NOKITOI
 48
5.0
100
AcDbCircle
 10
392.6120664358609
 20
323.9173552573964
 30
0.0
 40
0.4999960899831856
100
AcDbArc
 50
90.00042508014919
 51
183.0156217414646
  0
ARC
  5
76FA
330
1A
100
AcDbEntity
  8
SEIHIN
100
AcDbCircle
 10
390.1444145279053
 20
340.1515822444788
 30
0.0
 40
0.9999999858333389
100
AcDbArc
 50
323.0224011164107
 51
108.9118445391244
  0
ARC
  5
76FB
330
1A
100
AcDbEntity
  8
SEIHIN
100
AcDbCircle
 10
404.8560453879684
 20
340.6602743037353
 30
0.0
 40
3.0
100
AcDbArc
 50
30.96387195851086
 51
90.46303533268337
  0
LINE
  5
76FC
330
1A
100
AcDbEntity
  8
SEIHIN
100
AcDbLine
 10
407.3861173735158
 20
346.1617274444788
 30
0.0
 11
406.4916901735159
 21
343.4784458444788
 31
0.0
  0
ARC
  5
76FD
330
1A
100
AcDbEntity
  8
SEIHIN
100
AcDbCircle
 10
405.2156678279054
 20
296.1617274344788
 30
0.0
 40
47.50000001994081
100
AcDbArc
 50
90.46303533268337
 51
100.0080474591645
  0
LINE
  5
76FE
330
1A
100
AcDbEntity
  8
SEIHIN
100
AcDbLine
 10
407.4285210556356
 20
342.2037667524568
 30
0.0
 11
412.845070890521
 21
333.1762249173859
 31
0.0
  0
LINE
  5
76FF
330
1A
100
AcDbEntity
  8
CENTER_L
 48
5.0
100
AcDbLine
 10
405.3558808813529
 20
330.4828509065744
 30
0.0
 11
423.1982752816125
 21
341.1883364322662
 31
0.0
  0
LINE
  5
7700
330
1A
100
AcDbEntity
  8
SEIHIN
100
AcDbLine
 10
395.2297476279054
 20
329.1617274344788
 30
0.0
 11
413.5552132329362
 21
329.1617274344788
 31
0.0
  0
ARC
  5
7701
330
1A
100
AcDbEntity
  8
SEIHIN
100
AcDbCircle
 10
399.6902047279054
 20
326.1617274344788
 30
0.0
 40
3.000000012857525
100
AcDbArc
 50
26.56505100625387
 51
90.0
  0
ARC
  5
7702
330
1A
100
AcDbEntity
  8
NOKITOI
 48
5.0
100
AcDbCircle
 10
398.8899514893714
 20
324.9173629411828
 30
0.0
 40
1.999988406214315
100
AcDbArc
 50
358.2088726535938
 51
89.99967808195389
  0
LINE
  5
7703
330
1A
100
AcDbEntity
  8
NOKITOI
 48
5.0
100
AcDbLine
 10
395.3338627263656
 20
325.0153513473659
 30
0.0
 11
395.0730627263656
 21
326.3193513473658
 31
0.0
  0
LINE
  5
7704
330
1A
100
AcDbEntity
  8
NOKITOI
 48
5.0
100
AcDbLine
 10
398.8899627263658
 20
325.7172513473657
 30
0.0
 11
396.4172627263656
 21
325.7173513473659
 31
0.0
  0
LINE
  5
7705
330
1A
100
AcDbEntity
  8
NOKITOI
 48
5.0
100
AcDbLine
 10
396.4172627263656
 20
325.7173513473659
 30
0.0
 11
396.9172627263656
 21
323.2173513473659
 31
0.0
  0
LINE
  5
7706
330
1A
100
AcDbEntity
  8
NOKITOI
 48
5.0
100
AcDbLine
 10
394.9764627263657
 20
322.1173513473658
 30
0.0
 11
393.9806627263656
 21
323.2173513473659
 31
0.0
  0
LINE
  5
7707
330
1A
100
AcDbEntity
  8
NOKITOI
 48
5.0
100
AcDbLine
 10
394.9764627263657
 20
322.1173513473658
 30
0.0
 11
395.4384627263657
 21
322.1173513473658
 31
0.0
  0
ARC
  5
7708
330
1A
100
AcDbEntity
  8
NOKITOI
 48
5.0
100
AcDbCircle
 10
394.8435619433571
 20
324.917350392364
 30
0.0
 40
0.4999990449987399
100
AcDbArc
 50
270.0000897263067
 51
11.30328019845552
  0
LINE
  5
7709
330
1A
100
AcDbEntity
  8
NOKITOI
 48
5.0
100
AcDbLine
 10
396.9172627263656
 20
323.2173513473659
 30
0.0
 11
393.9806627263656
 21
323.2173513473659
 31
0.0
  0
ARC
  5
770A
330
1A
100
AcDbEntity
  8
NOKITOI
 48
5.0
100
AcDbCircle
 10
398.8900066927185
 20
324.9173059848927
 30
0.0
 40
0.7999453636812564
100
AcDbArc
 50
358.2123436447881
 51
90.00314907315425
  0
LINE
  5
770B
330
1A
100
AcDbEntity
  8
NOKITOI
 48
5.0
100
AcDbLine
 10
398.8899627263658
 20
326.9172513473658
 30
0.0
 11
395.5633627263655
 21
326.9173513473657
 31
0.0
  0
ARC
  5
770C
330
1A
100
AcDbEntity
  8
NOKITOI
 48
5.0
100
AcDbCircle
 10
395.5633554718101
 20
326.4173424975223
 30
0.0
 40
0.500008849895925
100
AcDbArc
 50
89.99916870385741
 51
191.3135956695126
  0
ARC
  5
770D
330
1A
100
AcDbEntity
  8
SEIHIN
100
AcDbCircle
 10
398.0508845279055
 20
326.1617274344788
 30
0.0
 40
3.0
100
AcDbArc
 50
0.0
 51
90.0
  0
ARC
  5
770E
330
1A
100
AcDbEntity
  8
SEIHIN
100
AcDbCircle
 10
405.9574256279054
 20
328.1617274344788
 30
0.0
 40
0.9999999580737615
100
AcDbArc
 50
90.0
 51
206.5650532269542
  0
ARC
  5
770F
330
1A
100
AcDbEntity
  8
SEIHIN
100
AcDbCircle
 10
397.1345956279053
 20
341.9541533444788
 30
0.0
 40
0.9999999877915744
100
AcDbArc
 50
100.0080415358673
 51
143.0224011164107
  0
ARC
  5
7710
330
1A
100
AcDbEntity
  8
SEIHIN
100
AcDbCircle
 10
411.9875790012986
 20
332.6617274344788
 30
0.0
 40
1.0
100
AcDbArc
 50
270.0
 51
30.96387195851086
  0
ARC
  5
7711
330
1A
100
AcDbEntity
  8
SEIHIN
100
AcDbCircle
 10
413.5552132329362
 20
326.1617274344788
 30
0.0
 40
3.0
100
AcDbArc
 50
30.96387195850947
 51
90.0
  0
LINE
  5
7712
330
1A
100
AcDbEntity
  8
SEIHIN
100
AcDbLine
 10
405.2156666279054
 20
346.1617274444788
 30
0.0
 11
412.0508845279054
 21
346.1617274444788
 31
0.0
  0
LINE
  5
7713
330
1A
100
AcDbEntity
  8
SEIHIN
100
AcDbLine
 10
407.5787485279054
 20
346.1617274444788
 30
0.0
 11
407.5787485279054
 21
346.1617274444788
 31
0.0
  0
ELLIPSE
  5
7714
330
1A
100
AcDbEntity
  8
SEIHIN
100
AcDbEllipse
 10
415.6390805947599
 20
482.2730734359967
 30
0.0
 11
0.0000263464942183
 21
2.000000000072965
 31
0.0
210
0.0
220
0.0
230
-0.9999999999999998
 40
0.5144964595683489
 41
4.712388980384689
 42
6.28320100746055
  0
ELLIPSE
  5
7715
330
1A
100
AcDbEntity
  8
SEIHIN
100
AcDbEllipse
 10
417.1825485410979
 20
492.7731053911294
 30
0.0
 11
-0.0000053069337066
 21
2.100017342886982
 31
0.0
210
0.0
220
0.0
230
1.0
 40
0.5270900462321757
 41
-1.570796326794896
 42
4.712388980384689
  0
ELLIPSE
  5
7716
330
1A
100
AcDbEntity
  8
SEIHIN
100
AcDbEllipse
 10
422.0430017408594
 20
492.7732059739342
 30
0.0
 11
-0.0000083393311684
 21
3.299973402701904
 31
0.0
210
0.0
220
0.0
230
-1.0
 40
0.5144285670877982
 41
-1.570796326794896
 42
4.712388980384689
  0
ELLIPSE
  5
7717
330
1A
100
AcDbEntity
  8
SEIHIN
100
AcDbEllipse
 10
420.2827753698065
 20
482.2730122634578
 30
0.0
 11
0.0000263464942183
 21
2.000000000072965
 31
0.0
210
0.0
220
0.0
230
-0.9999999999999998
 40
0.5144964595683489
 41
6.283154791250407
 42
7.853981633974482
  0
ELLIPSE
  5
7718
330
1A
100
AcDbEntity
  8
SEIHIN
100
AcDbEllipse
 10
419.4252834805991
 20
482.2730100964983
 30
0.0
 11
0.0000263464942183
 21
2.000000000072965
 31
0.0
210
0.0
220
0.0
230
-0.9999999999999998
 40
0.5144964595683489
 41
6.283154791250407
 42
7.853981633974482
  0
ELLIPSE
  5
7719
330
1A
100
AcDbEntity
  8
SEIHIN
100
AcDbEllipse
 10
424.3987647751896
 20
473.7670074081377
 30
0.0
 11
-0.0000263470841267
 21
-2.000000000072958
 31
0.0
210
0.0
220
0.0
230
1.0
 40
0.5144964595683489
 41
4.712388980384689
 42
6.28320100746055
  0
ELLIPSE
  5
771A
330
1A
100
AcDbEntity
  8
SEIHIN
100
AcDbEllipse
 10
424.3987357894402
 20
485.2370161779791
 30
0.0
 11
0.0000263470841267
 21
2.000000000072958
 31
0.0
210
0.0
220
0.0
230
1.0
 40
0.5144964595683489
 41
6.920041484130449
 42
7.853981633974482
  0
ELLIPSE
  5
771B
330
1A
100
AcDbEntity
  8
SEIHIN
100
AcDbEllipse
 10
417.8184305352422
 20
490.7730089980543
 30
0.0
 11
-0.0000252709041885
 21
9.999999999968068
 31
0.0
210
0.0
220
0.0
230
-1.0
 40
0.5780900339717677
 41
4.712388980384689
 42
6.283185307179586
  0
ELLIPSE
  5
771C
330
1A
100
AcDbEntity
  8
SEIHIN
100
AcDbEllipse
 10
413.3595945352563
 20
490.7729977301726
 30
0.0
 11
-0.0000252709041885
 21
9.999999999968068
 31
0.0
210
0.0
220
0.0
230
-1.0
 40
0.5780900339717677
 41
4.712388980384689
 42
6.283185307179586
  0
ELLIPSE
  5
771D
330
1A
100
AcDbEntity
  8
SEIHIN
100
AcDbEllipse
 10
413.359648867623
 20
447.7730589061354
 30
0.0
 11
0.0
 21
-10.0
 31
0.0
210
0.0
220
0.0
230
1.0
 40
0.5780900339717677
 41
4.712388980384689
 42
6.283185307179586
  0
ELLIPSE
  5
771E
330
1A
100
AcDbEntity
  8
SEIHIN
100
AcDbEllipse
 10
417.818484867623
 20
447.7730589061354
 30
0.0
 11
0.0
 21
-10.0
 31
0.0
210
0.0
220
0.0
230
1.0
 40
0.5780900339717677
 41
4.712388980384689
 42
6.283185307179586
  0
ELLIPSE
  5
771F
330
1A
100
AcDbEntity
  8
SEIHIN
100
AcDbEllipse
 10
424.3987761318457
 20
453.3090683552193
 30
0.0
 11
0.0000314012649645
 21
-1.999999999999991
 31
0.0
210
0.0
220
0.0
230
-1.0
 40
0.5144964595683489
 41
6.920041484130449
 42
7.853981633974482
  0
ELLIPSE
  5
7720
330
1A
100
AcDbEntity
  8
SEIHIN
100
AcDbEllipse
 10
424.3987761318457
 20
464.7790771250974
 30
0.0
 11
-0.0000314012649645
 21
1.999999999999991
 31
0.0
210
0.0
220
0.0
230
-1.0
 40
0.5144964595683489
 41
4.712388980384689
 42
6.28320100746055
  0
ELLIPSE
  5
7721
330
1A
100
AcDbEntity
  8
SEIHIN
100
AcDbEllipse
 10
419.4253163327091
 20
456.2730618683271
 30
0.0
 11
0.0000314006750561
 21
-2.0
 31
0.0
210
0.0
220
0.0
230
1.0
 40
0.5144964595683489
 41
6.283154791250407
 42
7.853981633974482
  0
ELLIPSE
  5
7722
330
1A
100
AcDbEntity
  8
SEIHIN
100
AcDbEllipse
 10
415.639113447042
 20
456.2729889607516
 30
0.0
 11
0.0000314006750561
 21
-2.0
 31
0.0
210
0.0
220
0.0
230
1.0
 40
0.5144964595683489
 41
4.712388980384689
 42
6.28320100746055
  0
ELLIPSE
  5
7723
330
1A
100
AcDbEntity
  8
SEIHIN
100
AcDbEllipse
 10
420.2828082219193
 20
456.2730618683271
 30
0.0
 11
0.0000314006750561
 21
-2.0
 31
0.0
210
0.0
220
0.0
230
1.0
 40
0.5144964595683489
 41
6.283154791250407
 42
7.853981633974482
  0
ELLIPSE
  5
7724
330
1A
100
AcDbEntity
  8
SEIHIN
100
AcDbEllipse
 10
422.0430611279055
 20
445.7728726061354
 30
0.0
 11
0.0
 21
-3.299973402712441
 31
0.0
210
0.0
220
0.0
230
1.0
 40
0.5144285670877982
 41
-1.570796326794896
 42
4.712388980384689
  0
ELLIPSE
  5
7725
330
1A
100
AcDbEntity
  8
SEIHIN
100
AcDbEllipse
 10
417.1826079279053
 20
445.7729609061354
 30
0.0
 11
0.0
 21
-2.100017342893687
 31
0.0
210
0.0
220
0.0
230
-1.0
 40
0.5270900462321757
 41
-1.570796326794896
 42
4.712388980384689
  0
LINE
  5
7726
330
1A
100
AcDbEntity
  8
SEIHIN
100
AcDbLine
 10
290.7375845279054
 20
459.2730589061354
 30
0.0
 11
402.5787485279054
 21
459.2730589061354
 31
0.0
  0
LINE
  5
7727
330
1A
100
AcDbEntity
  8
SEIHIN
100
AcDbLine
 10
290.7375845279054
 20
479.2730589061354
 30
0.0
 11
403.0375845279054
 21
479.2730589061354
 31
0.0
  0
LINE
  5
7729
330
1A
100
AcDbEntity
  8
SEIHIN
100
AcDbLine
 10
289.7375845279055
 20
481.2730589061354
 30
0.0
 11
289.7375845279055
 21
480.2730589061354
 31
0.0
  0
LINE
  5
772A
330
1A
100
AcDbEntity
  8
SEIHIN
100
AcDbLine
 10
286.7375845279054
 20
481.2730589061354
 30
0.0
 11
286.7375845279054
 21
469.2730589061354
 31
0.0
  0
LINE
  5
772B
330
1A
100
AcDbEntity
  8
SEIHIN
100
AcDbLine
 10
283.0375845279054
 20
481.2730589061354
 30
0.0
 11
283.0375845279054
 21
469.2730589061354
 31
0.0
  0
LINE
  5
772C
330
1A
100
AcDbEntity
  8
SEIHIN
100
AcDbLine
 10
289.7375845279055
 20
481.2730589061354
 30
0.0
 11
289.7375845279055
 21
469.2730589061354
 31
0.0
  0
LINE
  5
772D
330
1A
100
AcDbEntity
  8
SEIHIN
100
AcDbLine
 10
289.7375845279055
 20
457.2730589061355
 30
0.0
 11
289.7375845279055
 21
458.2730589061354
 31
0.0
  0
LINE
  5
772E
330
1A
100
AcDbEntity
  8
SEIHIN
100
AcDbLine
 10
289.7375845279055
 20
457.2729589061355
 30
0.0
 11
289.7375845279055
 21
469.2729589061355
 31
0.0
  0
LINE
  5
772F
330
1A
100
AcDbEntity
  8
SEIHIN
100
AcDbLine
 10
286.7375845279054
 20
457.2730589061355
 30
0.0
 11
286.7375845279054
 21
469.2730589061354
 31
0.0
  0
LINE
  5
7730
330
1A
100
AcDbEntity
  8
SEIHIN
100
AcDbLine
 10
283.0375845279054
 20
457.2729589061355
 30
0.0
 11
283.0375845279054
 21
469.2729589061355
 31
0.0
  0
LINE
  5
7731
330
1A
100
AcDbEntity
  8
SEIHIN
100
AcDbLine
 10
283.0375845279054
 20
457.2730589061355
 30
0.0
 11
289.7375845279055
 21
457.2730589061355
 31
0.0
  0
ARC
  5
7732
330
1A
100
AcDbEntity
  8
SEIHIN
100
AcDbCircle
 10
290.7375845279054
 20
458.2730589061354
 30
0.0
 40
1.0
100
AcDbArc
 50
90.0
 51
180.0
  0
ARC
  5
7733
330
1A
100
AcDbEntity
  8
SEIHIN
100
AcDbCircle
 10
290.7375845279054
 20
480.2730589061354
 30
0.0
 40
1.0
100
AcDbArc
 50
180.0
 51
270.0
  0
LINE
  5
7734
330
1A
100
AcDbEntity
  8
SEIHIN
100
AcDbLine
 10
283.0375845279054
 20
481.2730589061354
 30
0.0
 11
289.7375845279055
 21
481.2730589061354
 31
0.0
  0
LINE
  5
7735
330
1A
100
AcDbEntity
  8
SEIHIN
100
AcDbLine
 10
423.3697718563239
 20
473.7668988979101
 30
0.0
 11
423.369742870266
 21
485.2370297331599
 31
0.0
  0
ARC
  5
7736
330
1A
100
AcDbEntity
  8
SEIHIN
100
AcDbCircle
 10
401.6842834216636
 20
484.2729682255849
 30
0.0
 40
5.0
100
AcDbArc
 50
270.0001447916128
 51
0.0001447916161013
  0
ARC
  5
7737
330
1A
100
AcDbEntity
  8
SEIHIN
100
AcDbCircle
 10
402.5787106216608
 20
484.2729704858834
 30
0.0
 40
5.0
100
AcDbArc
 50
270.0001447916128
 51
0.0001447916144729
  0
LINE
  5
7738
330
1A
100
AcDbEntity
  8
SEIHIN
100
AcDbLine
 10
420.4543092518458
 20
456.2730780238632
 30
0.0
 11
420.4539019518458
 21
482.2730780238632
 31
0.0
  0
LINE
  5
7739
330
1A
100
AcDbEntity
  8
SEIHIN
100
AcDbLine
 10
421.3118011410561
 20
456.2730780238632
 30
0.0
 11
421.311393841056
 21
482.2730780238632
 31
0.0
  0
LINE
  5
773A
330
1A
100
AcDbEntity
  8
SEIHIN
100
AcDbLine
 10
414.6101205279053
 20
456.2730042061355
 30
0.0
 11
414.6101205279053
 21
482.2730042061355
 31
0.0
  0
LINE
  5
773B
330
1A
100
AcDbEntity
  8
SEIHIN
100
AcDbLine
 10
412.0372398279055
 20
491.2728600061354
 30
0.0
 11
412.0375845279054
 21
469.2729589061355
 31
0.0
  0
LINE
  5
773C
330
1A
100
AcDbEntity
  8
SEIHIN
100
AcDbLine
 10
358.4252845279054
 20
479.2730589061354
 30
0.0
 11
358.4252845279054
 21
469.2730589061354
 31
0.0
  0
LINE
  5
773D
330
1A
100
AcDbEntity
  8
SEIHIN
100
AcDbLine
 10
358.4252845279054
 20
459.2729589061355
 30
0.0
 11
358.4252845279054
 21
469.2729589061355
 31
0.0
  0
ARC
  5
773E
330
1A
100
AcDbEntity
  8
SEIHIN
100
AcDbCircle
 10
402.5787485279054
 20
454.2730589061354
 30
0.0
 40
5.0
100
AcDbArc
 50
0.0
 51
90.0
  0
ARC
  5
773F
330
1A
100
AcDbEntity
  8
SEIHIN
100
AcDbCircle
 10
401.6843213279052
 20
454.2730589061354
 30
0.0
 40
5.0
100
AcDbArc
 50
0.0
 51
90.0
  0
LINE
  5
7740
330
1A
100
AcDbEntity
  8
SEIHIN
100
AcDbLine
 10
423.3697832127091
 20
464.7791830349668
 30
0.0
 11
423.3697832127091
 21
453.3090521996804
 31
0.0
  0
LINE
  5
7741
330
1A
100
AcDbEntity
  8
SEIHIN
100
AcDbLine
 10
412.0375845279054
 20
447.2730578061355
 30
0.0
 11
412.0375845279054
 21
469.2729589061355
 31
0.0
  0
LINE
  5
7742
330
1A
100
AcDbEntity
  8
SEIHIN
100
AcDbLine
 10
406.6843213279053
 20
447.7730589061354
 30
0.0
 11
408.3533314189422
 21
442.7727919509199
 31
0.0
  0
LINE
  5
7743
330
1A
100
AcDbEntity
  8
SEIHIN
100
AcDbLine
 10
406.6843213279053
 20
447.7730589061354
 30
0.0
 11
406.6843213279053
 21
454.2730589061354
 31
0.0
  0
LINE
  5
7744
330
1A
100
AcDbEntity
  8
SEIHIN
100
AcDbLine
 10
407.5787485279054
 20
447.7730589061354
 30
0.0
 11
407.5787485279054
 21
454.2730589061354
 31
0.0
  0
LINE
  5
7745
330
1A
100
AcDbEntity
  8
CENTER_L
 48
5.0
100
AcDbLine
 10
422.057833252426
 20
439.4730769444751
 30
0.0
 11
422.057833252426
 21
452.0718429005298
 31
0.0
  0
LINE
  5
7746
330
1A
100
AcDbEntity
  8
CENTER_L
 48
5.0
100
AcDbLine
 10
417.1958320571421
 20
450.8725150733311
 30
0.0
 11
417.1958320571421
 21
440.673137065306
 31
0.0
  0
LINE
  5
7747
330
1A
100
AcDbEntity
  8
SEIHIN
100
AcDbLine
 10
415.6391610031951
 20
454.2729889612517
 30
0.0
 11
420.2828082219193
 21
454.2730618694499
 31
0.0
  0
LINE
  5
7748
330
1A
100
AcDbEntity
  8
SEIHIN
100
AcDbLine
 10
415.6391610031951
 20
454.2729889612517
 30
0.0
 11
420.2828082219193
 21
454.2730618680805
 31
0.0
  0
LINE
  5
7749
330
1A
100
AcDbEntity
  8
SEIHIN
100
AcDbLine
 10
406.6842669955599
 20
490.7729808610163
 30
0.0
 11
408.3532644504648
 21
495.7732520339553
 31
0.0
  0
LINE
  5
774A
330
1A
100
AcDbEntity
  8
SEIHIN
100
AcDbLine
 10
406.6842669955599
 20
490.7729808610163
 30
0.0
 11
406.6842834216477
 21
484.272980861037
 31
0.0
  0
LINE
  5
774B
330
1A
100
AcDbEntity
  8
SEIHIN
100
AcDbLine
 10
407.5786941955571
 20
490.7729831213146
 30
0.0
 11
407.5787106216449
 21
484.2729831213355
 31
0.0
  0
LINE
  5
774C
330
1A
100
AcDbEntity
  8
CENTER_L
 48
5.0
100
AcDbLine
 10
417.1957855573689
 20
487.6735512573686
 30
0.0
 11
417.1957597826185
 21
497.8729292653611
 31
0.0
  0
LINE
  5
774D
330
1A
100
AcDbEntity
  8
CENTER_L
 48
5.0
100
AcDbLine
 10
422.0577579452265
 20
499.0730016729048
 30
0.0
 11
422.0577897834473
 21
486.4742357168904
 31
0.0
  0
LINE
  5
774E
330
1A
100
AcDbEntity
  8
SEIHIN
100
AcDbLine
 10
415.639123096732
 20
484.2730734356102
 30
0.0
 11
420.2827703156255
 21
484.2730122636978
 31
0.0
  0
LINE
  5
774F
330
1A
100
AcDbEntity
  8
SEIHIN
100
AcDbLine
 10
415.639123096732
 20
484.2730734356102
 30
0.0
 11
420.2827703156255
 21
484.2730122623285
 31
0.0
  0
LINE
  5
7752
330
1A
100
AcDbEntity
  8
CENTER_L
 48
5.0
100
AcDbLine
 10
522.1692080156524
 20
389.5506618174138
 30
0.0
 11
532.973605809349
 21
396.0333300960924
 31
0.0
  0
LINE
  5
7753
330
1A
100
AcDbEntity
  8
CENTER_L
 48
5.0
100
AcDbLine
 10
520.059743688349
 20
405.3113774948996
 30
0.0
 11
540.7940437036866
 21
370.7543686045385
 31
0.0
  0
ARC
  5
7754
330
1A
100
AcDbEntity
  8
SEIHIN
100
AcDbCircle
 10
572.2724178125008
 20
392.1487636567531
 30
0.0
 40
1.999999984634366
100
AcDbArc
 50
300.9639869551798
 51
30.96398695517927
  0
ARC
  5
7755
330
1A
100
AcDbEntity
  8
SEIHIN
100
AcDbCircle
 10
527.5714069125005
 20
392.7919959567531
 30
0.0
 40
7.300000078852444
100
AcDbArc
 50
300.9639005591288
 51
1.672860784054694
  0
LINE
  5
7756
330
1A
100
AcDbEntity
  8
CENTER_L
 48
5.0
100
AcDbLine
 10
534.9868236125007
 20
426.108518856753
 30
0.0
 11
566.2105403125008
 21
374.0692286567531
 31
0.0
  0
LINE
  5
7757
330
1A
100
AcDbEntity
  8
SEIHIN
100
AcDbLine
 10
516.4362711125006
 20
395.8012192567531
 30
0.0
 11
530.4404255125007
 21
372.4611742567531
 31
0.0
  0
CIRCLE
  5
7758
330
1A
100
AcDbEntity
  8
SEIHIN
100
AcDbCircle
 10
527.5714069125005
 20
392.7919959567531
 30
0.0
 40
3.299999993964775
  0
ARC
  5
7759
330
1A
100
AcDbEntity
  8
SEIHIN
100
AcDbCircle
 10
576.3420537125007
 20
398.9719622567531
 30
0.0
 40
9.999994183240206
100
AcDbArc
 50
302.9634101707106
 51
30.96395246552189
  0
LINE
  5
775A
330
1A
100
AcDbEntity
  8
SEIHIN
100
AcDbLine
 10
561.9825717125007
 20
385.9749211567531
 30
0.0
 11
552.2070773125007
 21
402.267337356753
 31
0.0
  0
LINE
  5
775B
330
1A
100
AcDbEntity
  8
SEIHIN
100
AcDbLine
 10
557.6951123125006
 20
383.4024337567531
 30
0.0
 11
547.9196179125008
 21
399.6948499567531
 31
0.0
  0
LINE
  5
775E
330
1A
100
AcDbEntity
  8
SUNPOU
100
AcDbLine
 10
438.9607074271804
 20
301.3122276603764
 30
0.0
 11
474.5555918271803
 21
241.9876911603764
 31
0.0
  0
LINE
  5
775F
330
1A
100
AcDbEntity
  8
SUNPOU
100
AcDbLine
 10
462.1848984271807
 20
241.9876911603764
 30
0.0
 11
474.5555918271803
 21
241.9876911603764
 31
0.0
  0
MTEXT
  5
7760
330
1A
100
AcDbEntity
  8
SUNPOU
100
AcDbMText
 10
466.2456364271803
 20
239.5030311663765
 30
0.0
 40
6.349999666
 41
0.0
 71
     1
 72
     5
  1
{\W1.111111;6}
1001
ACAD
1000
MTEXTBEGIN
1070
    73
1070
     1
1070
    44
1040
1.0
1070
    74
1070
     0
1000
MTEXTEND
1000
MTEXTBEGIN
1070
    73
1070
     1
1070
    44
1040
1.0
1070
    74
1070
     0
1000
MTEXTEND
1000
MTEXTBEGIN
1070
    73
1070
     1
1070
    44
1040
1.0
1070
    74
1070
     0
1000
MTEXTEND
  0
LINE
  5
7761
330
1A
100
AcDbEntity
  8
SUNPOU
100
AcDbLine
 10
462.1848984271807
 20
262.6054194603764
 30
0.0
 11
462.1848984271807
 21
241.9876911603764
 31
0.0
  0
MTEXT
  5
7762
330
1A
100
AcDbEntity
  8
SUNPOU
100
AcDbMText
 10
449.9226988271805
 20
257.0731292063764
 30
0.0
 40
6.349999666
 41
0.0
 71
     1
 72
     5
  1
{\W1.269841;10}
1001
ACAD
1000
MTEXTBEGIN
1070
    73
1070
     1
1070
    44
1040
1.0
1070
    74
1070
     0
1000
MTEXTEND
1000
MTEXTBEGIN
1070
    73
1070
     1
1070
    44
1040
1.0
1070
    74
1070
     0
1000
MTEXTEND
1000
MTEXTBEGIN
1070
    73
1070
     1
1070
    44
1040
1.0
1070
    74
1070
     0
1000
MTEXTEND
  0
ARC
  5
7767
330
1A
100
AcDbEntity
  8
SEIHIN
100
AcDbCircle
 10
532.6562986125006
 20
382.373308456753
 30
0.0
 40
2.000000018917901
100
AcDbArc
 50
210.9637594799179
 51
300.9637555494574
  0
ARC
  5
7768
330
1A
100
AcDbEntity
  8
SEIHIN
100
AcDbCircle
 10
539.2725840125008
 20
377.1774217567531
 30
0.0
 40
10.00000075026816
100
AcDbArc
 50
210.9639814525193
 51
297.9643241431271
  0
LINE
  5
776A
330
1A
100
AcDbEntity
  8
SEIHIN
100
AcDbLine
 10
434.0885423710158
 20
301.6578890028501
 30
0.0
 11
437.5185099279053
 21
303.7158789344788
 31
0.0
  0
LINE
  5
776B
330
1A
100
AcDbEntity
  8
SEIHIN
100
AcDbLine
 10
431.1730595793803
 20
302.6297165891966
 30
0.0
 11
434.0885423710158
 21
301.6578890028501
 31
0.0
  0
ARC
  5
776C
330
1A
100
AcDbEntity
  8
SEIHIN
100
AcDbCircle
 10
428.7341756733524
 20
304.7508604323256
 30
0.0
 40
1.0
100
AcDbArc
 50
296.5650503693782
 51
30.96387195850947
  0
ARC
  5
776D
330
1A
100
AcDbEntity
  8
SEIHIN
100
AcDbCircle
 10
531.4986298125006
 20
384.3027563567531
 30
0.0
 40
1.999999976046077
100
AcDbArc
 50
120.9638931154909
 51
210.9637570233833
  0
LINE
  5
776E
330
1A
100
AcDbEntity
  8
SEIHIN
100
AcDbLine
 10
529.7836440125006
 20
383.2737648567531
 30
0.0
 11
530.9413128125006
 21
381.344316856753
 31
0.0
  0
LINE
  5
776F
330
1A
100
AcDbEntity
  8
SEIHIN
100
AcDbLine
 10
531.3272417125008
 20
386.5323069567531
 30
0.0
 11
530.4696342125007
 21
386.0177397567531
 31
0.0
  0
LINE
  5
7770
330
1A
100
AcDbEntity
  8
SEIHIN
100
AcDbLine
 10
564.7265367125007
 20
385.2889240567531
 30
0.0
 11
573.3014162125007
 21
390.4337819567531
 31
0.0
  0
LINE
  5
7771
330
1A
100
AcDbEntity
  8
SEIHIN
100
AcDbLine
 10
563.4403290125008
 20
378.6862264567531
 30
0.0
 11
581.7831696125008
 21
390.581836456753
 31
0.0
  0
LINE
  5
7772
330
1A
100
AcDbEntity
  8
SEIHIN
100
AcDbLine
 10
557.0091372125006
 20
380.6584632567531
 30
0.0
 11
548.4343400125007
 21
375.5134681567531
 31
0.0
  0
LINE
  5
7773
330
1A
100
AcDbEntity
  8
SEIHIN
100
AcDbLine
 10
563.4403290125008
 20
378.6862264567531
 30
0.0
 11
543.9618013125007
 21
368.3450236567531
 31
0.0
  0
ARC
  5
7774
330
1A
100
AcDbEntity
  8
SEIHIN
100
AcDbCircle
 10
538.1444249125006
 20
375.1704708567531
 30
0.0
 40
6.999999980463362
100
AcDbArc
 50
30.96375653207324
 51
120.9637569531927
  0
LINE
  5
7775
330
1A
100
AcDbEntity
  8
CENTER_L
 48
5.0
100
AcDbLine
 10
533.7283042718651
 20
372.5207933129534
 30
0.0
 11
542.5604707531361
 21
377.8201174005528
 31
0.0
  0
CIRCLE
  5
7776
330
1A
100
AcDbEntity
  8
SEIHIN
100
AcDbCircle
 10
538.1443816598891
 20
375.1704518451702
 30
0.0
 40
2.149999983667161
  0
LINE
  5
7777
330
1A
100
AcDbEntity
  8
SEIHIN
100
AcDbLine
 10
544.1468754125008
 20
378.771941156753
 30
0.0
 11
545.6903627125007
 21
376.1994624567531
 31
0.0
  0
ARC
  5
7778
330
1A
100
AcDbEntity
  8
SEIHIN
100
AcDbCircle
 10
547.4053485125007
 20
377.2284539567531
 30
0.0
 40
1.999999950318459
100
AcDbArc
 50
210.9637570233833
 51
300.9637570233817
  0
LINE
  5
7779
330
1A
100
AcDbEntity
  8
SEIHIN
100
AcDbLine
 10
534.5428688125007
 20
381.1728697567531
 30
0.0
 11
533.6853759125006
 21
380.6583740567531
 31
0.0
  0
ARC
  5
777A
330
1A
100
AcDbEntity
  8
SEIHIN
100
AcDbCircle
 10
555.9801285125009
 20
382.373438756753
 30
0.0
 40
2.000000001820396
100
AcDbArc
 50
300.9643313615723
 51
30.96387248058604
  0
ARC
  5
777B
330
1A
100
AcDbEntity
  8
SEIHIN
100
AcDbCircle
 10
563.6975555125006
 20
387.0039161567531
 30
0.0
 40
2.00000004466292
100
AcDbArc
 50
210.9638724805846
 51
300.963411143082
  0
ELLIPSE
  5
7781
330
1A
100
AcDbEntity
  8
SEIHIN
100
AcDbEllipse
 10
432.6175128405252
 20
492.7733514966798
 30
0.0
 11
-0.0000053069337066
 21
2.100017342886982
 31
0.0
210
0.0
220
0.0
230
1.0
 40
0.5270900462321757
 41
-1.570796326794896
 42
4.712388980384689
  0
ELLIPSE
  5
7782
330
1A
100
AcDbEntity
  8
SEIHIN
100
AcDbEllipse
 10
434.1743034537544
 20
473.7730503293455
 30
0.0
 11
-0.0000263470841267
 21
-2.000000000072958
 31
0.0
210
0.0
220
0.0
230
1.0
 40
0.5144964595683489
 41
6.283154791250407
 42
7.853981633974482
  0
ELLIPSE
  5
7783
330
1A
100
AcDbEntity
  8
SEIHIN
100
AcDbEllipse
 10
433.3168115645469
 20
473.7730481623859
 30
0.0
 11
-0.0000263470841267
 21
-2.000000000072958
 31
0.0
210
0.0
220
0.0
230
1.0
 40
0.5144964595683489
 41
6.283154791250407
 42
7.853981633974482
  0
ELLIPSE
  5
7784
330
1A
100
AcDbEntity
  8
SEIHIN
100
AcDbEllipse
 10
434.1742744832136
 20
485.2370408816494
 30
0.0
 11
-0.0000364554458021
 21
1.999999999914251
 31
0.0
210
0.0
220
0.0
230
-1.0
 40
0.5144964595683489
 41
6.283154791250407
 42
7.853981633974482
  0
ELLIPSE
  5
7785
330
1A
100
AcDbEntity
  8
SEIHIN
100
AcDbEllipse
 10
426.5270077499655
 20
492.7733361054228
 30
0.0
 11
-0.000007535949123
 21
2.982065487952638
 31
0.0
210
0.0
220
0.0
230
-1.0
 40
0.4686569565874932
 41
6.608909175477555
 42
7.853981633974482
  0
ELLIPSE
  5
7786
330
1A
100
AcDbEntity
  8
SEIHIN
100
AcDbEllipse
 10
433.3167825940063
 20
485.237038714389
 30
0.0
 11
-0.0000364554458021
 21
1.999999999914251
 31
0.0
210
0.0
220
0.0
230
-1.0
 40
0.5144964595683489
 41
6.283154791250407
 42
7.853981633974482
  0
ELLIPSE
  5
7787
330
1A
100
AcDbEntity
  8
SEIHIN
100
AcDbEllipse
 10
431.7867295557621
 20
490.773044297209
 30
0.0
 11
-0.0000252709041885
 21
9.999999999968068
 31
0.0
210
0.0
220
0.0
230
-1.0
 40
0.5780900339717677
 41
6.283185307179586
 42
7.853981633974482
  0
ELLIPSE
  5
7788
330
1A
100
AcDbEntity
  8
SEIHIN
100
AcDbEllipse
 10
431.7867838881877
 20
447.7730589061354
 30
0.0
 11
0.0
 21
-10.0
 31
0.0
210
0.0
220
0.0
230
1.0
 40
0.5780900339717677
 41
6.283185307179586
 42
7.853981633974482
  0
ELLIPSE
  5
7789
330
1A
100
AcDbEntity
  8
SEIHIN
100
AcDbEllipse
 10
433.3168229364402
 20
453.3090683555201
 30
0.0
 11
-0.0000314012649645
 21
-1.999999999999991
 31
0.0
210
0.0
220
0.0
230
1.0
 40
0.5144964595683489
 41
6.283154791250407
 42
7.853981633974482
  0
ELLIPSE
  5
778A
330
1A
100
AcDbEntity
  8
SEIHIN
100
AcDbEllipse
 10
426.5270671373261
 20
445.7727538061353
 30
0.0
 11
0.0
 21
-2.982065487962159
 31
0.0
210
0.0
220
0.0
230
1.0
 40
0.4686569565874931
 41
6.608909175477555
 42
7.853981633974482
  0
ELLIPSE
  5
778B
330
1A
100
AcDbEntity
  8
SEIHIN
100
AcDbEllipse
 10
434.1743148256503
 20
453.3090683552193
 30
0.0
 11
-0.0000314012649645
 21
-1.999999999999991
 31
0.0
210
0.0
220
0.0
230
1.0
 40
0.5144964595683489
 41
6.283154791250407
 42
7.853981633974482
  0
ELLIPSE
  5
778C
330
1A
100
AcDbEntity
  8
SEIHIN
100
AcDbEllipse
 10
433.3168229364402
 20
464.7730589075597
 30
0.0
 11
-0.0000314012649645
 21
1.999999999999991
 31
0.0
210
0.0
220
0.0
230
-1.0
 40
0.5144964595683489
 41
6.283154791250407
 42
7.853981633974482
  0
ELLIPSE
  5
778D
330
1A
100
AcDbEntity
  8
SEIHIN
100
AcDbEllipse
 10
434.1743148256503
 20
464.7730589075597
 30
0.0
 11
-0.0000314012649645
 21
1.999999999999991
 31
0.0
210
0.0
220
0.0
230
-1.0
 40
0.5144964595683489
 41
6.283154791250407
 42
7.853981633974482
  0
ELLIPSE
  5
778E
330
1A
100
AcDbEntity
  8
SEIHIN
100
AcDbEllipse
 10
432.6175722279053
 20
445.7727538061354
 30
0.0
 11
0.0
 21
-2.100017342893687
 31
0.0
210
0.0
220
0.0
230
-1.0
 40
0.5270900462321757
 41
-1.570796326794896
 42
4.712388980384689
  0
LEADER
  5
778F
330
1A
100
AcDbEntity
  8
SUNPOU
100
AcDbLeader
  3
STANDARD
 40
6.000000000000001
 41
31.19999999999999
 76
     3
 10
570.7831459805172
 20
415.4165813689342
 30
0.0
 10
604.0577888889909
 20
393.6352746372915
 30
0.0
 10
639.0723110165111
 20
393.6352746372915
 30
0.0
213
0.0
223
-3.0
233
0.0
1001
ACAD
1000
DSTYLE
1002
{
1070
     6
1000
OPEN
1070
    41
1040
3.0
1070
    42
1040
3.0
1070
    43
1040
7.0
1070
    44
1040
1.5
1070
    73
1070
     0
1070
    74
1070
     0
1070
    77
1070
     0
1070
   140
1040
3.0
1070
   141
1040
3.0
1070
   147
1040
1.0
1070
   172
1070
     1
1070
   173
1070
     1
1070
   176
1070
   256
1070
   177
1070
   256
1070
   178
1070
   256
1070
   271
1070
     0
1070
   272
1070
     0
1070
   341
1005
6D
1070
   343
1005
6D
1070
   344
1005
6D
1002
}
  0
LINE
  5
7792
330
1A
100
AcDbEntity
  8
SEIHIN
100
AcDbLine
 10
434.3458044837212
 20
473.7730346072053
 30
0.0
 11
434.3457755130989
 21
485.2370574705869
 31
0.0
  0
LINE
  5
7793
330
1A
100
AcDbEntity
  8
SEIHIN
100
AcDbLine
 10
435.2032963729284
 20
473.7730367741647
 30
0.0
 11
435.2032674023062
 21
485.2370596375464
 31
0.0
  0
LINE
  5
7794
330
1A
100
AcDbEntity
  8
SEIHIN
100
AcDbLine
 10
437.5676842279053
 20
447.2730585061355
 30
0.0
 11
437.5676842279053
 21
491.3322701061353
 31
0.0
  0
LINE
  5
7797
330
1A
100
AcDbEntity
  8
SEIHIN
100
AcDbLine
 10
528.4545349125007
 20
407.8409826567531
 30
0.0
 11
533.0850276125006
 21
400.1235649567531
 31
0.0
  0
LINE
  5
7798
330
1A
100
AcDbEntity
  8
SEIHIN
100
AcDbLine
 10
529.1405182125008
 20
410.5849628567531
 30
0.0
 11
540.2878994125008
 21
417.2734523567531
 31
0.0
  0
LINE
  5
7799
330
1A
100
AcDbEntity
  8
SEIHIN
100
AcDbLine
 10
537.7154548125008
 20
421.560820956753
 30
0.0
 11
519.4245113125007
 21
409.2401347567531
 31
0.0
  0
LEADER
  5
779A
330
1A
100
AcDbEntity
  8
SUNPOU
100
AcDbLeader
  3
STANDARD
 40
6.0
 41
32.79999999999999
 76
     3
 10
520.5857610164295
 20
401.2309183445266
 30
0.0
 10
486.7554056104179
 20
423.2711672019629
 30
0.0
 10
449.9090163269759
 20
423.2711672019629
 30
0.0
213
0.0
223
3.0
233
0.0
1001
ACAD
1000
DSTYLE
1002
{
1070
     6
1000
OPEN
1070
    41
1040
3.0
1070
    42
1040
3.0
1070
    43
1040
7.0
1070
    44
1040
1.5
1070
    73
1070
     0
1070
    74
1070
     0
1070
    77
1070
     0
1070
   140
1040
3.0
1070
   141
1040
3.0
1070
   147
1040
1.0
1070
   172
1070
     1
1070
   173
1070
     1
1070
   176
1070
   256
1070
   177
1070
   256
1070
   178
1070
   256
1070
   271
1070
     0
1070
   272
1070
     0
1070
   341
1005
6D
1070
   343
1005
6D
1070
   344
1005
6D
1002
}
  0
ARC
  5
779C
330
1A
100
AcDbEntity
  8
SEIHIN
100
AcDbCircle
 10
525.0111799125006
 20
400.9462123567531
 30
0.0
 40
10.00000074377029
100
AcDbArc
 50
123.9636494194312
 51
210.963991475185
  0
LINE
  5
779D
330
1A
100
AcDbEntity
  8
CENTER_L
 48
5.0
100
AcDbLine
 10
518.2933197970742
 20
398.2456306280787
 30
0.0
 11
527.1254862279274
 21
403.5449546854274
 31
0.0
  0
CIRCLE
  5
779E
330
1A
100
AcDbEntity
  8
SEIHIN
100
AcDbCircle
 10
522.7094030125008
 20
400.895292656753
 30
0.0
 40
2.149999983667161
  0
ARC
  5
779F
330
1A
100
AcDbEntity
  8
SEIHIN
100
AcDbCircle
 10
530.1695166125007
 20
408.8699810567531
 30
0.0
 40
2.000000027508907
100
AcDbArc
 50
120.963985481244
 51
210.9639869551792
  0
LINE
  5
77A0
330
1A
100
AcDbEntity
  8
SEIHIN
100
AcDbLine
 10
434.345815855577
 20
464.7730750630986
 30
0.0
 11
434.345815855577
 21
453.3090521996804
 31
0.0
  0
LINE
  5
77A1
330
1A
100
AcDbEntity
  8
SEIHIN
100
AcDbLine
 10
435.2033077447869
 20
464.7730750630986
 30
0.0
 11
435.2033077447869
 21
453.3090521996804
 31
0.0
  0
ARC
  5
77A2
330
1A
100
AcDbEntity
  8
SEIHIN
100
AcDbCircle
 10
434.459670871229
 20
444.8453936644026
 30
0.0
 40
6.563942068843459
100
AcDbArc
 50
100.0274263041935
 51
171.8780224163652
  0
ARC
  5
77A3
330
1A
100
AcDbEntity
  8
SEIHIN
100
AcDbCircle
 10
435.317162760439
 20
444.8453936641019
 30
0.0
 40
6.563942068843459
100
AcDbArc
 50
100.0274263041935
 51
171.8780224163652
  0
LINE
  5
77A4
330
1A
100
AcDbEntity
  8
CENTER_L
 48
5.0
100
AcDbLine
 10
432.6308079993927
 20
450.8723079190391
 30
0.0
 11
432.6308079993927
 21
440.6729300232182
 31
0.0
  0
LINE
  5
77A6
330
1A
100
AcDbEntity
  8
CENTER_L
 48
5.0
100
AcDbLine
 10
573.275599146556
 20
420.2146365199497
 30
0.0
 11
562.4712013528592
 21
413.731968241271
 31
0.0
  0
LINE
  5
77A7
330
1A
100
AcDbEntity
  8
CENTER_L
 48
5.0
100
AcDbLine
 10
560.3617370255558
 20
429.4926839187569
 30
0.0
 11
581.0960370408934
 21
394.9356750283958
 31
0.0
  0
LINE
  5
77A8
330
1A
100
AcDbEntity
  8
CENTER_L
 48
5.0
100
AcDbLine
 10
567.4274849741786
 20
427.7262643547261
 30
0.0
 11
558.5953185433252
 21
422.4269402973773
 31
0.0
  0
ARC
  5
77A9
330
1A
100
AcDbEntity
  8
SEIHIN
100
AcDbCircle
 10
561.6859123125006
 20
423.3985416567531
 30
0.0
 40
10.00004594719318
100
AcDbArc
 50
30.96371427984248
 51
118.9637035397422
  0
ARC
  5
77AA
330
1A
100
AcDbEntity
  8
SEIHIN
100
AcDbCircle
 10
567.8734003125007
 20
416.9733023567531
 30
0.0
 40
7.299999973855456
100
AcDbArc
 50
240.2548823333758
 51
300.9638436213346
  0
CIRCLE
  5
77AB
330
1A
100
AcDbEntity
  8
SEIHIN
100
AcDbCircle
 10
567.8734003125007
 20
416.9733023567531
 30
0.0
 40
3.300000013099463
  0
ARC
  5
77AC
330
1A
100
AcDbEntity
  8
SEIHIN
100
AcDbCircle
 10
557.0947717125006
 20
414.529542556753
 30
0.0
 40
2.000000001783949
100
AcDbArc
 50
300.963985481244
 51
30.96398449864775
  0
LINE
  5
77AD
330
1A
100
AcDbEntity
  8
SEIHIN
100
AcDbLine
 10
535.8290078125008
 20
399.437581656753
 30
0.0
 11
558.1237701125007
 21
412.8145607567531
 31
0.0
  0
LINE
  5
77AE
330
1A
100
AcDbEntity
  8
SEIHIN
100
AcDbLine
 10
535.8384449125008
 20
394.778471156753
 30
0.0
 11
545.1756357125007
 21
400.3808366567531
 31
0.0
  0
ARC
  5
77AF
330
1A
100
AcDbEntity
  8
SEIHIN
100
AcDbCircle
 10
527.5714069125005
 20
392.7919959567531
 30
0.0
 40
7.300000026411563
100
AcDbArc
 50
1.672860784054694
 51
1.672869436898682
  0
ARC
  5
77B0
330
1A
100
AcDbEntity
  8
SEIHIN
100
AcDbCircle
 10
536.8674433125006
 20
393.0634894567531
 30
0.0
 40
1.999999994385982
100
AcDbArc
 50
120.9639869551798
 51
181.6728647597239
  0
ARC
  5
77B1
330
1A
100
AcDbEntity
  8
SEIHIN
100
AcDbCircle
 10
534.8000094125007
 20
401.1525633567531
 30
0.0
 40
2.000000027508895
100
AcDbArc
 50
210.9639854812459
 51
300.9639869551798
  0
ARC
  5
77B2
330
1A
100
AcDbEntity
  8
SEIHIN
100
AcDbCircle
 10
546.2046341125008
 20
398.6658549567531
 30
0.0
 40
2.000000010353104
100
AcDbArc
 50
30.9638724805813
 51
120.9639869551798
  0
ARC
  5
77B3
330
1A
100
AcDbEntity
  8
SEIHIN
100
AcDbCircle
 10
553.9220611125005
 20
403.2963323567531
 30
0.0
 40
1.999999993195142
100
AcDbArc
 50
120.9637570233817
 51
210.963872480586
  0
LINE
  5
77B4
330
1A
100
AcDbEntity
  8
SEIHIN
100
AcDbLine
 10
562.2302828125007
 20
410.6136462567531
 30
0.0
 11
552.8930696125008
 21
405.011318156753
 31
0.0
  0
ARC
  5
77B5
330
1A
100
AcDbEntity
  8
SEIHIN
100
AcDbCircle
 10
563.2592744125008
 20
408.898660456753
 30
0.0
 40
1.999999976296855
100
AcDbArc
 50
60.25487956371268
 51
120.9637594799193
  0
LINE
  5
77B6
330
1A
100
AcDbEntity
  8
SEIHIN
100
AcDbLine
 10
537.7154548125008
 20
421.560820956753
 30
0.0
 11
556.8433355125007
 21
432.147848356753
 31
0.0
  0
LINE
  5
77B7
330
1A
100
AcDbEntity
  8
SEIHIN
100
AcDbLine
 10
551.4353320125008
 20
423.9618562567531
 30
0.0
 11
540.2878994125008
 21
417.2734523567531
 31
0.0
  0
CIRCLE
  5
77B8
330
1A
100
AcDbEntity
  8
SEIHIN
100
AcDbCircle
 10
563.0114017125006
 20
425.0766023567531
 30
0.0
 40
2.150000015531233
  0
LINE
  5
77B9
330
1A
100
AcDbEntity
  8
SEIHIN
100
AcDbLine
 10
554.1793121125006
 20
423.2758728567531
 30
0.0
 11
558.8097534125008
 21
415.5585408567531
 31
0.0
  0
ARC
  5
77BA
330
1A
100
AcDbEntity
  8
SEIHIN
100
AcDbCircle
 10
552.4643304125006
 20
422.2468744567531
 30
0.0
 40
2.000000027508907
100
AcDbArc
 50
30.96398695517927
 51
120.963985481244
  0
LINE
  5
77BB
330
1A
100
AcDbEntity
  8
SEIHIN
100
AcDbLine
 10
570.2608848125008
 20
428.543516556753
 30
0.0
 11
584.9169604125006
 21
404.116946156753
 31
0.0
  0
LINE
  5
77BC
330
1A
100
AcDbEntity
  8
CENTER_L
 48
5.0
100
AcDbLine
 10
582.8624523851199
 20
402.0014168012441
 30
0.0
 11
574.030285903849
 21
396.7020927136447
 31
0.0
  0
ARC
  5
77BD
330
1A
100
AcDbEntity
  8
SEIHIN
100
AcDbCircle
 10
578.4463379125006
 20
399.3517290567531
 30
0.0
 40
6.999999989094797
100
AcDbArc
 50
120.9639867446175
 51
210.9639867446153
  0
LINE
  5
77BE
330
1A
100
AcDbEntity
  8
SEIHIN
100
AcDbLine
 10
572.4439019125006
 20
395.7502346567531
 30
0.0
 11
573.9873995125008
 21
393.1777620567531
 31
0.0
  0
CIRCLE
  5
77BF
330
1A
100
AcDbEntity
  8
SEIHIN
100
AcDbCircle
 10
578.4463749970959
 20
399.3517582690274
 30
0.0
 40
2.149999983667161
  0
ARC
  5
77C0
330
1A
100
AcDbEntity
  8
SEIHIN
100
AcDbCircle
 10
573.5158310125007
 20
409.5131922567531
 30
0.0
 40
1.999999984627699
100
AcDbArc
 50
30.96398695518066
 51
120.9638533196051
  0
LINE
  5
77C1
330
1A
100
AcDbEntity
  8
SEIHIN
100
AcDbLine
 10
571.6292288125007
 20
410.7136097567531
 30
0.0
 11
572.4868366125006
 21
411.2281763567531
 31
0.0
  0
ARC
  5
77C2
330
1A
100
AcDbEntity
  8
SEIHIN
100
AcDbCircle
 10
574.6735075125006
 20
407.5837488567531
 30
0.0
 40
1.999999984634366
100
AcDbArc
 50
300.9639869551798
 51
30.96398695517927
  0
LINE
  5
77C3
330
1A
100
AcDbEntity
  8
SEIHIN
100
AcDbLine
 10
574.8449293125008
 20
405.3542165567531
 30
0.0
 11
575.7024201125006
 21
405.8687157567531
 31
0.0
  0
LINE
  5
77C4
330
1A
100
AcDbEntity
  8
SEIHIN
100
AcDbLine
 10
575.2308127125006
 20
410.5421906567531
 30
0.0
 11
576.3884892125006
 21
408.6127472567531
 31
0.0
  0
ARC
  5
77C5
330
1A
100
AcDbEntity
  8
SEIHIN
100
AcDbCircle
 10
435.3171010295275
 20
493.7007184608197
 30
0.0
 40
6.563942068843459
100
AcDbArc
 50
188.1221223752495
 51
259.9727184874224
  0
ARC
  5
77C6
330
1A
100
AcDbEntity
  8
SEIHIN
100
AcDbCircle
 10
434.45960914032
 20
493.7007162935595
 30
0.0
 40
6.563942068843459
100
AcDbArc
 50
188.1221223752495
 51
259.9727184874224
  0
LINE
  5
77C7
330
1A
100
AcDbEntity
  8
CENTER_L
 48
5.0
100
AcDbLine
 10
432.6307614990469
 20
487.6737974172404
 30
0.0
 11
432.6307357242967
 21
497.8731753130286
 31
0.0
  0
LINE
  5
7A48
330
1A
100
AcDbEntity
  8
SEIHIN
100
AcDbLine
 10
434.0885423710158
 20
136.6052166997757
 30
0.0
 11
437.5185099279053
 21
138.6632066314044
 31
0.0
  0
LINE
  5
7A49
330
1A
100
AcDbEntity
  8
CENTER_L
 48
5.0
100
AcDbLine
 10
418.811970671054
 20
138.5179990554403
 30
0.0
 11
438.6332512238634
 21
150.4108216945189
 31
0.0
  0
LINE
  5
7A4A
330
1A
100
AcDbEntity
  8
SEIHIN
100
AcDbLine
 10
412.0508845279054
 20
181.1090551414045
 30
0.0
 11
437.5185099279053
 21
138.6632066314044
 31
0.0
  0
DIMENSION
  5
7A4B
330
1A
100
AcDbEntity
  8
SUNPOU
100
AcDbDimension
  2
*D1
 10
258.2654760414141
 20
138.6632066314045
 30
0.0
 11
255.765476041414
 21
147.1361308964198
 31
0.0
 70
    32
  3
STANDARD
100
AcDbAlignedDimension
 13
286.0880052279054
 23
155.6090551614352
 33
0.0
 14
437.5185099279053
 24
138.6632066314044
 34
0.0
 50
90.0
100
AcDbRotatedDimension
1001
ACAD
1000
DSTYLE
1002
{
1070
    41
1040
3.0
1070
    42
1040
3.0
1070
    43
1040
7.0
1070
    44
1040
1.5
1070
    73
1070
     0
1070
    74
1070
     0
1070
    77
1070
     3
1070
   140
1040
3.0
1070
   141
1040
3.0
1070
   147
1040
1.0
1070
   172
1070
     1
1070
   173
1070
     1
1070
   176
1070
   256
1070
   177
1070
   256
1070
   178
1070
   256
1070
   271
1070
     0
1070
   272
1070
     0
1070
   341
1005
6D
1070
     6
1000
OPEN
1070
     7
1000
OPEN
1002
}
  0
ARC
  5
7A4C
330
1A
100
AcDbEntity
  8
NOKITOI
 48
5.0
100
AcDbCircle
 10
332.7670464999082
 20
149.8646935206615
 30
0.0
 40
43.00001447645168
100
AcDbArc
 50
186.5249107071174
 51
269.9998883751405
  0
ARC
  5
7A4D
330
1A
100
AcDbEntity
  8
NOKITOI
 48
5.0
100
AcDbCircle
 10
332.7670688083335
 20
149.864673419635
 30
0.0
 40
41.79999437547816
100
AcDbArc
 50
184.474295212525
 51
269.9998545921058
  0
LINE
  5
7A4E
330
1A
100
AcDbEntity
  8
SEIHIN
100
AcDbLine
 10
291.0507845279054
 20
147.8090551314044
 30
0.0
 11
366.0507845279054
 21
138.6090551314044
 31
0.0
  0
LINE
  5
7A4F
330
1A
100
AcDbEntity
  8
SEIHIN
100
AcDbLine
 10
289.7508845279054
 20
152.1090551314044
 30
0.0
 11
358.4390866279054
 21
152.1090551314044
 31
0.0
  0
DIMENSION
  5
7A50
330
1A
100
AcDbEntity
  8
SUNPOU
100
AcDbDimension
  2
*D2
 10
412.0508845279054
 20
206.803281981719
 30
0.0
 11
347.5508345279054
 21
209.303281981719
 31
0.0
 70
    32
  3
STANDARD
100
AcDbAlignedDimension
 13
283.0507845279054
 23
152.1090551314044
 33
0.0
 14
412.0508845279054
 24
181.1090551414045
 34
0.0
100
AcDbRotatedDimension
1001
ACAD
1000
DSTYLE
1002
{
1070
    41
1040
3.0
1070
    42
1040
3.0
1070
    43
1040
7.0
1070
    44
1040
1.5
1070
    73
1070
     0
1070
    74
1070
     0
1070
    77
1070
     3
1070
   140
1040
3.0
1070
   141
1040
3.0
1070
   147
1040
1.0
1070
   172
1070
     1
1070
   173
1070
     1
1070
   176
1070
   256
1070
   177
1070
   256
1070
   178
1070
   256
1070
   271
1070
     0
1070
   272
1070
     0
1070
   341
1005
6D
1070
     6
1000
OPEN
1070
     7
1000
OPEN
1002
}
  0
LINE
  5
7A51
330
1A
100
AcDbEntity
  8
NOKITOI
 48
5.0
100
AcDbLine
 10
289.2948627263653
 20
159.3646790442913
 30
0.0
 11
287.0633627263655
 21
159.3646790442913
 31
0.0
  0
LINE
  5
7A52
330
1A
100
AcDbEntity
  8
NOKITOI
 48
5.0
100
AcDbLine
 10
290.5959627263659
 20
147.0646790442914
 30
0.0
 11
284.5550627263655
 21
147.0646790442914
 31
0.0
  0
LINE
  5
7A53
330
1A
100
AcDbEntity
  8
SEIHIN
100
AcDbLine
 10
286.0507845279054
 20
147.8090551314044
 30
0.0
 11
291.0507845279054
 21
147.8090551314044
 31
0.0
  0
ARC
  5
7A54
330
1A
100
AcDbEntity
  8
SEIHIN
100
AcDbCircle
 10
287.7508972279053
 20
155.8588558114044
 30
0.0
 40
4.249771090849518
100
AcDbArc
 50
248.0384870086
 51
298.0724108493035
  0
LINE
  5
7A55
330
1A
100
AcDbEntity
  8
NOKITOI
 48
5.0
100
AcDbLine
 10
288.9790627263655
 20
152.3646790442914
 30
0.0
 11
286.7299627263655
 21
152.3646790442914
 31
0.0
  0
LINE
  5
7A56
330
1A
100
AcDbEntity
  8
NOKITOI
 48
5.0
100
AcDbLine
 10
282.9073627263655
 20
145.8646790442913
 30
0.0
 11
289.0520627263654
 21
145.8646790442913
 31
0.0
  0
LINE
  5
7A57
330
1A
100
AcDbEntity
  8
NOKITOI
 48
5.0
100
AcDbLine
 10
286.2350627263653
 20
152.9354790442915
 30
0.0
 11
286.5687627263655
 21
155.2716790442915
 31
0.0
  0
LINE
  5
7A58
330
1A
100
AcDbEntity
  8
SEIHIN
100
AcDbLine
 10
286.5687628279053
 20
154.9716790414044
 30
0.0
 11
285.8677864279054
 21
152.5185619214044
 31
0.0
  0
LINE
  5
7A59
330
1A
100
AcDbEntity
  8
NOKITOI
 48
5.0
100
AcDbLine
 10
281.0179627263655
 20
159.8021790442913
 30
0.0
 11
281.4081627263653
 21
147.3178790442913
 31
0.0
  0
ARC
  5
7A5A
330
1A
100
AcDbEntity
  8
NOKITOI
 48
5.0
100
AcDbCircle
 10
286.4686006078122
 20
151.8647228268167
 30
0.0
 40
3.999989731271038
100
AcDbArc
 50
96.47731142013284
 51
181.7899836067311
  0
ARC
  5
7A5B
330
1A
100
AcDbEntity
  8
SEIHIN
100
AcDbCircle
 10
286.5495514279053
 20
152.2014121714044
 30
0.0
 40
3.499985643068148
100
AcDbArc
 50
103.1906199763888
 51
181.5120870242763
  0
ARC
  5
7A5C
330
1A
100
AcDbEntity
  8
NOKITOI
 48
5.0
100
AcDbCircle
 10
286.7299893269633
 20
152.8646483674093
 30
0.0
 40
0.4999693238254178
100
AcDbArc
 50
171.8555038770536
 51
269.9969516090372
  0
ARC
  5
7A5D
330
1A
100
AcDbEntity
  8
SEIHIN
100
AcDbCircle
 10
286.3485440279053
 20
152.3811858214044
 30
0.0
 40
0.5000000415608755
100
AcDbArc
 50
164.0527546068717
 51
248.0384815442388
  0
LINE
  5
7A5E
330
1A
100
AcDbEntity
  8
SEIHIN
100
AcDbLine
 10
283.0507845279054
 20
152.1090551314044
 30
0.0
 11
283.0507845279054
 21
150.8090551314044
 31
0.0
  0
LINE
  5
7A5F
330
1A
100
AcDbEntity
  8
NOKITOI
 48
5.0
100
AcDbLine
 10
282.5560627263653
 20
149.0022790442914
 30
0.0
 11
282.4705627263656
 21
151.7397790442913
 31
0.0
  0
ARC
  5
7A60
330
1A
100
AcDbEntity
  8
NOKITOI
 48
5.0
100
AcDbCircle
 10
282.9073986855164
 20
147.3646441901481
 30
0.0
 40
1.499965146287778
100
AcDbArc
 50
181.7866280217767
 51
269.9986264297005
  0
ARC
  5
7A61
330
1A
100
AcDbEntity
  8
NOKITOI
 48
5.0
100
AcDbCircle
 10
284.5550762985039
 20
149.0646658892049
 30
0.0
 40
1.999986844959662
100
AcDbArc
 50
181.7875531852355
 51
269.9996111843215
  0
ARC
  5
7A62
330
1A
100
AcDbEntity
  8
SEIHIN
100
AcDbCircle
 10
286.0507845279054
 20
150.8090551314044
 30
0.0
 40
3.0
100
AcDbArc
 50
180.0
 51
270.0
  0
LINE
  5
7A63
330
1A
100
AcDbEntity
  8
NOKITOI
 48
5.0
100
AcDbLine
 10
284.9897627263658
 20
158.1646790442915
 30
0.0
 11
287.9262627263656
 21
158.1646790442915
 31
0.0
  0
ARC
  5
7A64
330
1A
100
AcDbEntity
  8
NOKITOI
 48
5.0
100
AcDbCircle
 10
286.073776944781
 20
155.3423644099904
 30
0.0
 40
0.5000073448410256
100
AcDbArc
 50
351.8729478641243
 51
96.47829282997079
  0
ARC
  5
7A65
330
1A
100
AcDbEntity
  8
SEIHIN
100
AcDbCircle
 10
286.0880052279054
 20
155.1090551314044
 30
0.0
 40
0.5000000300307247
100
AcDbArc
 50
344.0527557086856
 51
90.0
  0
LINE
  5
7A66
330
1A
100
AcDbEntity
  8
NOKITOI
 48
5.0
100
AcDbLine
 10
285.4897627263658
 20
160.6646790442915
 30
0.0
 11
284.9897627263658
 21
158.1646790442915
 31
0.0
  0
LINE
  5
7A67
330
1A
100
AcDbEntity
  8
SEIHIN
100
AcDbLine
 10
285.7507845279053
 20
155.6090551314044
 30
0.0
 11
286.0880052279054
 21
155.6090551314044
 31
0.0
  0
LINE
  5
7A68
330
1A
100
AcDbEntity
  8
NOKITOI
 48
5.0
100
AcDbLine
 10
287.9411627263657
 20
156.3930790442913
 30
0.0
 11
288.4961627263655
 21
157.0061790442915
 31
0.0
  0
ARC
  5
7A69
330
1A
100
AcDbEntity
  8
NOKITOI
 48
5.0
100
AcDbCircle
 10
286.3435619433571
 20
161.3646799992931
 30
0.0
 40
0.4999990449987349
100
AcDbArc
 50
348.6967198015444
 51
89.99991027369329
  0
ARC
  5
7A6A
330
1A
100
AcDbEntity
  8
NOKITOI
 48
5.0
100
AcDbCircle
 10
287.0633554718101
 20
159.8646878941348
 30
0.0
 40
0.5000088498959383
100
AcDbArc
 50
168.6864043304889
 51
270.0008312961425
  0
LINE
  5
7A6B
330
1A
100
AcDbEntity
  8
NOKITOI
 48
5.0
100
AcDbLine
 10
286.9304627263659
 20
157.0646790442914
 30
0.0
 11
286.4685627263657
 21
157.0646790442914
 31
0.0
  0
LINE
  5
7A6C
330
1A
100
AcDbEntity
  8
NOKITOI
 48
5.0
100
AcDbLine
 10
286.5730627263656
 20
159.9627790442913
 30
0.0
 11
286.8338627263656
 21
161.2666790442914
 31
0.0
  0
LINE
  5
7A6D
330
1A
100
AcDbEntity
  8
NOKITOI
 48
5.0
100
AcDbLine
 10
286.9304627263659
 20
157.0646790442914
 30
0.0
 11
287.9262627263656
 21
158.1646790442915
 31
0.0
  0
LINE
  5
7A6E
330
1A
100
AcDbEntity
  8
NOKITOI
 48
5.0
100
AcDbLine
 10
288.3149627263656
 20
153.5646790442914
 30
0.0
 11
287.5370627263659
 21
153.5646790442914
 31
0.0
  0
LINE
  5
7A6F
330
1A
100
AcDbEntity
  8
NOKITOI
 48
5.0
100
AcDbLine
 10
288.3149627263656
 20
153.5646790442914
 30
0.0
 11
288.4961627263655
 21
157.0061790442915
 31
0.0
  0
LINE
  5
7A70
330
1A
100
AcDbEntity
  8
NOKITOI
 48
5.0
100
AcDbLine
 10
287.5370627263659
 20
153.5646790442914
 30
0.0
 11
287.9411627263657
 21
156.3930790442913
 31
0.0
  0
ARC
  5
7A71
330
1A
100
AcDbEntity
  8
NOKITOI
 48
5.0
100
AcDbCircle
 10
283.0169672211636
 20
159.8646836818183
 30
0.0
 40
0.7999953624857498
100
AcDbArc
 50
90.00032191805264
 51
181.7911273464192
  0
ARC
  5
7A72
330
1A
100
AcDbEntity
  8
NOKITOI
 48
5.0
100
AcDbCircle
 10
283.0169754772155
 20
159.8646921993778
 30
0.0
 40
1.999986844954076
100
AcDbArc
 50
90.00036528735288
 51
181.7883072882702
  0
LINE
  5
7A73
330
1A
100
AcDbEntity
  8
NOKITOI
 48
5.0
100
AcDbLine
 10
282.2173627263659
 20
159.8396790442913
 30
0.0
 11
282.3667627263653
 21
155.0607790442915
 31
0.0
  0
LINE
  5
7A74
330
1A
100
AcDbEntity
  8
NOKITOI
 48
5.0
100
AcDbLine
 10
283.0169627263653
 20
161.8646790442913
 30
0.0
 11
286.3435627263656
 21
161.8646790442913
 31
0.0
  0
ARC
  5
7A75
330
1A
100
AcDbEntity
  8
NOKITOI
 48
5.0
100
AcDbCircle
 10
286.4686829390348
 20
151.8647377726714
 30
0.0
 40
5.2000412730095
100
AcDbArc
 50
90.0013245430618
 51
142.0757990790571
  0
LINE
  5
7A76
330
1A
100
AcDbEntity
  8
NOKITOI
 48
5.0
100
AcDbLine
 10
283.0169627263653
 20
160.6646790442915
 30
0.0
 11
285.4897627263658
 21
160.6646790442915
 31
0.0
  0
LINE
  5
7A77
330
1A
100
AcDbEntity
  8
NOKITOI
 48
5.0
100
AcDbLine
 10
289.4784627263657
 20
152.8384790442913
 30
0.0
 11
289.7942627263655
 21
158.8383790442914
 31
0.0
  0
LINE
  5
7A78
330
1A
100
AcDbEntity
  8
SEIHIN
100
AcDbLine
 10
289.7507845279053
 20
147.8090551314044
 30
0.0
 11
289.7507845279053
 21
152.1090551314044
 31
0.0
  0
ARC
  5
7A79
330
1A
100
AcDbEntity
  8
NOKITOI
 48
5.0
100
AcDbCircle
 10
289.052054302203
 20
144.8646865593478
 30
0.0
 40
0.9999924849789756
100
AcDbArc
 50
6.528264606673562
 51
89.99951732740802
  0
ARC
  5
7A7A
330
1A
100
AcDbEntity
  8
NOKITOI
 48
5.0
100
AcDbCircle
 10
290.5959752960739
 20
146.5646674195617
 30
0.0
 40
0.5000116248877111
100
AcDbArc
 50
4.474846808341977
 51
90.00144034898383
  0
ARC
  5
7A7B
330
1A
100
AcDbEntity
  8
NOKITOI
 48
5.0
100
AcDbCircle
 10
288.9790558393706
 20
152.8646725092059
 30
0.0
 40
0.499993464961963
100
AcDbArc
 50
270.0007892017836
 51
356.997036131742
  0
ARC
  5
7A7C
330
1A
100
AcDbEntity
  8
NOKITOI
 48
5.0
100
AcDbCircle
 10
289.2948565252077
 20
158.8646855793766
 30
0.0
 40
0.4999934649531607
100
AcDbArc
 50
356.9955363203377
 51
89.99928939038239
  0
DIMENSION
  5
7A7D
330
1A
100
AcDbEntity
  8
SUNPOU
100
AcDbDimension
  2
*D3
 10
400.8889627260705
 20
197.703188786626
 30
0.0
 11
406.469923626988
 21
200.203188786626
 31
0.0
 70
    32
  3
STANDARD
100
AcDbAlignedDimension
 13
412.0508845279054
 23
181.1090551414045
 33
0.0
 14
400.8889627260705
 24
159.8021790348419
 34
0.0
100
AcDbRotatedDimension
1001
ACAD
1000
DSTYLE
1002
{
1070
    41
1040
3.0
1070
    42
1040
3.0
1070
    43
1040
7.0
1070
    44
1040
1.5
1070
    73
1070
     0
1070
    74
1070
     0
1070
    77
1070
     3
1070
   140
1040
3.0
1070
   141
1040
3.0
1070
   147
1040
1.0
1070
   172
1070
     1
1070
   173
1070
     1
1070
   176
1070
   256
1070
   177
1070
   256
1070
   178
1070
   256
1070
   271
1070
     0
1070
   272
1070
     0
1070
   341
1005
6D
1070
     6
1000
OPEN
1070
     7
1000
OPEN
1002
}
  0
ARC
  5
7A7E
330
1A
100
AcDbEntity
  8
SEIHIN
100
AcDbCircle
 10
370.1991120279053
 20
148.6090551314044
 30
0.0
 40
1.000000013299993
100
AcDbArc
 50
323.0224045627658
 51
90.0
  0
LINE
  5
7A7F
330
1A
100
AcDbEntity
  8
SEIHIN
100
AcDbLine
 10
363.5732120279053
 20
152.1090551314044
 30
0.0
 11
373.5873473279054
 21
152.1090551314044
 31
0.0
  0
LINE
  5
7A80
330
1A
100
AcDbEntity
  8
SEIHIN
100
AcDbLine
 10
370.9979828279053
 20
148.0075524314044
 30
0.0
 11
366.1810357279053
 21
141.6100445214044
 31
0.0
  0
LINE
  5
7A81
330
1A
100
AcDbEntity
  8
SEIHIN
100
AcDbLine
 10
380.8500740279054
 20
156.9361036714044
 30
0.0
 11
369.3577976279054
 21
141.6729241414044
 31
0.0
  0
LINE
  5
7A82
330
1A
100
AcDbEntity
  8
NOKITOI
 48
5.0
100
AcDbLine
 10
373.5964627263656
 20
106.8645790442914
 30
0.0
 11
353.4385627263659
 21
106.8645790442914
 31
0.0
  0
LINE
  5
7A83
330
1A
100
AcDbEntity
  8
NOKITOI
 48
5.0
100
AcDbLine
 10
373.3466627263656
 20
108.0645790442914
 30
0.0
 11
353.4385627263659
 21
108.0645790442914
 31
0.0
  0
LINE
  5
7A84
330
1A
100
AcDbEntity
  8
NOKITOI
 48
5.0
100
AcDbLine
 10
377.5964627263656
 20
106.8645790442914
 30
0.0
 11
332.7670627263655
 21
106.8646790442913
 31
0.0
  0
LINE
  5
7A85
330
1A
100
AcDbEntity
  8
NOKITOI
 48
5.0
100
AcDbLine
 10
332.7670627263655
 20
108.0646790442914
 30
0.0
 11
377.3466627263656
 21
108.0645790442914
 31
0.0
  0
LINE
  5
7A86
330
1A
100
AcDbEntity
  8
SEIHIN
100
AcDbLine
 10
369.9042465279053
 20
140.1038041714044
 30
0.0
 11
384.0616761279054
 21
136.4105616714044
 31
0.0
  0
LINE
  5
7A87
330
1A
100
AcDbEntity
  8
SEIHIN
100
AcDbLine
 10
366.0507845279054
 20
138.6090551314044
 30
0.0
 11
385.4747497279054
 21
134.8087141214044
 31
0.0
  0
ARC
  5
7A88
330
1A
100
AcDbEntity
  8
SEIHIN
100
AcDbCircle
 10
405.2156678279054
 20
131.1090551314044
 30
0.0
 40
47.5000000391522
100
AcDbArc
 50
108.9118434786388
 51
143.0224021282104
  0
ARC
  5
7A89
330
1A
100
AcDbEntity
  8
SEIHIN
100
AcDbCircle
 10
405.2156678279054
 20
131.1090551314044
 30
0.0
 40
50.00000002272582
100
AcDbArc
 50
90.0000013750972
 51
143.02240367533
  0
ARC
  5
7A8A
330
1A
100
AcDbEntity
  8
SEIHIN
100
AcDbCircle
 10
370.1566684279053
 20
141.0714214414044
 30
0.0
 40
1.000000012500433
100
AcDbArc
 50
143.0224045627645
 51
255.3791258185317
  0
ARC
  5
7A8B
330
1A
100
AcDbEntity
  8
SEIHIN
100
AcDbCircle
 10
365.3821649279054
 20
142.2115472114044
 30
0.0
 40
1.000000012878451
100
AcDbArc
 50
263.0022538529114
 51
323.0224050204871
  0
LINE
  5
7A8C
330
1A
100
AcDbEntity
  8
SEIHIN
100
AcDbLine
 10
365.2603346279054
 20
141.2189962614044
 30
0.0
 11
313.1398493279053
 21
147.6165041814044
 31
0.0
  0
LINE
  5
7A8D
330
1A
100
AcDbEntity
  8
SEIHIN
100
AcDbLine
 10
370.1991120279053
 20
149.6090551314044
 30
0.0
 11
313.2616796279054
 21
149.6090551314044
 31
0.0
  0
ARC
  5
7A8E
330
1A
100
AcDbEntity
  8
SEIHIN
100
AcDbCircle
 10
313.2616796279054
 20
148.6090551314044
 30
0.0
 40
1.000000002586002
100
AcDbArc
 50
90.0
 51
263.0022538529114
  0
ARC
  5
7A8F
330
1A
100
AcDbEntity
  8
SEIHIN
100
AcDbCircle
 10
363.5732120279053
 20
153.1090551314044
 30
0.0
 40
1.000000013299971
100
AcDbArc
 50
143.0224045627645
 51
270.0
  0
ARC
  5
7A90
330
1A
100
AcDbEntity
  8
SEIHIN
100
AcDbCircle
 10
355.9449579279054
 20
157.1090551314044
 30
0.0
 40
5.000000020541354
100
AcDbArc
 50
270.0
 51
323.0224040565833
  0
LINE
  5
7A91
330
1A
100
AcDbEntity
  8
SEIHIN
100
AcDbLine
 10
365.2721293279054
 20
161.1841899714044
 30
0.0
 11
358.4390866279054
 21
152.1090551314044
 31
0.0
  0
LINE
  5
7A92
330
1A
100
AcDbEntity
  8
SEIHIN
100
AcDbLine
 10
367.2693070279053
 20
159.6804342514044
 30
0.0
 11
362.7743412279054
 21
153.7105578314044
 31
0.0
  0
LINE
  5
7A93
330
1A
100
AcDbEntity
  8
SEIHIN
100
AcDbLine
 10
416.1276889006034
 20
162.6525475801259
 30
0.0
 11
431.1730595793803
 21
137.5770442861222
 31
0.0
  0
LINE
  5
7A94
330
1A
100
AcDbEntity
  8
SEIHIN
100
AcDbLine
 10
389.0507845279053
 20
137.7528920814044
 30
0.0
 11
389.0507845279053
 21
144.3590551314045
 31
0.0
  0
LINE
  5
7A95
330
1A
100
AcDbEntity
  8
SEIHIN
100
AcDbLine
 10
387.5507845279053
 20
144.3590551314045
 30
0.0
 11
387.5507845279053
 21
139.4541787014044
 31
0.0
  0
LINE
  5
7A96
330
1A
100
AcDbEntity
  8
SEIHIN
100
AcDbLine
 10
394.6882365279055
 20
144.1030798914044
 30
0.0
 11
399.5364931279055
 21
135.8381417914044
 31
0.0
  0
LINE
  5
7A97
330
1A
100
AcDbEntity
  8
SEIHIN
100
AcDbLine
 10
396.2544172279054
 20
145.3196189914044
 30
0.0
 11
404.7584973279054
 21
136.8984912714044
 31
0.0
  0
LINE
  5
7A98
330
1A
100
AcDbEntity
  8
SEIHIN
100
AcDbLine
 10
402.3734863279055
 20
162.4506959214044
 30
0.0
 11
414.5706999279054
 21
138.0562687314044
 31
0.0
  0
LINE
  5
7A99
330
1A
100
AcDbEntity
  8
SEIHIN
100
AcDbLine
 10
405.0629985279053
 20
162.6618415414044
 30
0.0
 11
417.8129985279054
 21
137.1618415414044
 31
0.0
  0
LINE
  5
7A9A
330
1A
100
AcDbEntity
  8
NOKITOI
 48
5.0
100
AcDbLine
 10
391.8634627263659
 20
144.9641790442914
 30
0.0
 11
388.9946627263657
 21
116.2767790442914
 31
0.0
  0
LINE
  5
7A9B
330
1A
100
AcDbEntity
  8
NOKITOI
 48
5.0
100
AcDbLine
 10
390.8224627263657
 20
146.6144790442914
 30
0.0
 11
387.8294627263653
 21
116.6846790442913
 31
0.0
  0
LINE
  5
7A9C
330
1A
100
AcDbEntity
  8
SEIHIN
100
AcDbLine
 10
407.3861173735158
 20
181.1090551414045
 30
0.0
 11
434.0885423710158
 21
136.6052166997757
 31
0.0
  0
LINE
  5
7A9D
330
1A
100
AcDbEntity
  8
SEIHIN
100
AcDbLine
 10
402.5554111279054
 20
134.1090551314044
 30
0.0
 11
424.2310680845437
 21
134.1090551314044
 31
0.0
  0
LINE
  5
7A9E
330
1A
100
AcDbEntity
  8
NOKITOI
 48
5.0
100
AcDbLine
 10
388.6328627263655
 20
115.6022790442915
 30
0.0
 11
378.2297627263655
 21
107.0905790442915
 31
0.0
  0
LINE
  5
7A9F
330
1A
100
AcDbEntity
  8
NOKITOI
 48
5.0
100
AcDbLine
 10
387.6485627263659
 20
116.3473790442914
 30
0.0
 11
377.6632627263657
 21
108.1775790442913
 31
0.0
  0
ARC
  5
7AA0
330
1A
100
AcDbEntity
  8
NOKITOI
 48
5.0
100
AcDbCircle
 10
377.5964557937882
 20
107.8645765692852
 30
0.0
 40
0.9999975250179316
100
AcDbArc
 50
270.0003972084052
 51
309.2946416752284
  0
ARC
  5
7AA1
330
1A
100
AcDbEntity
  8
NOKITOI
 48
5.0
100
AcDbCircle
 10
377.3466691141143
 20
108.5645813242809
 30
0.0
 40
0.5000022800304047
100
AcDbArc
 50
269.9992680212823
 51
309.2854498596055
  0
ARC
  5
7AA2
330
1A
100
AcDbEntity
  8
NOKITOI
 48
5.0
100
AcDbCircle
 10
387.3319453004874
 20
116.7343465579034
 30
0.0
 40
0.4999904508696396
100
AcDbArc
 50
309.2900846377946
 51
354.2990110749239
  0
ARC
  5
7AA3
330
1A
100
AcDbEntity
  8
NOKITOI
 48
5.0
100
AcDbCircle
 10
387.9996401534967
 20
116.3762369726188
 30
0.0
 40
0.9999908507640039
100
AcDbArc
 50
309.2887092230664
 51
354.286232947753
  0
ARC
  5
7AA4
330
1A
100
AcDbEntity
  8
SEIHIN
100
AcDbCircle
 10
387.0507845279053
 20
139.4541787014044
 30
0.0
 40
0.4999999990316154
100
AcDbArc
 50
261.6188358039388
 51
0.0
  0
ARC
  5
7AA5
330
1A
100
AcDbEntity
  8
SEIHIN
100
AcDbCircle
 10
386.0507845279053
 20
137.7528920814044
 30
0.0
 40
2.999999995913402
100
AcDbArc
 50
258.9297977643305
 51
0.0
  0
ARC
  5
7AA6
330
1A
100
AcDbEntity
  8
SEIHIN
100
AcDbCircle
 10
384.1878870279053
 20
136.8943703114044
 30
0.0
 40
0.5000000119990801
100
AcDbArc
 50
255.3791315071929
 51
1.983005033705344
  0
ARC
  5
7AA7
330
1A
100
AcDbEntity
  8
SEIHIN
100
AcDbCircle
 10
386.6863899279053
 20
136.9808779614044
 30
0.0
 40
2.000000013659082
100
AcDbArc
 50
81.61883292798089
 51
181.983005132836
  0
ARC
  5
7AA8
330
1A
100
AcDbEntity
  8
SEIHIN
100
AcDbCircle
 10
402.5554111279054
 20
137.6090551314044
 30
0.0
 40
3.49999999632242
100
AcDbArc
 50
210.3961124587318
 51
270.0
  0
LINE
  5
7AA9
330
1A
100
AcDbEntity
  8
SEIHIN
100
AcDbLine
 10
418.7074256279053
 20
136.6090551314044
 30
0.0
 11
424.5559095279054
 21
136.6090551314044
 31
0.0
  0
LINE
  5
7AAA
330
1A
100
AcDbEntity
  8
SEIHIN
100
AcDbLine
 10
405.4621300279054
 20
136.6090551314044
 30
0.0
 11
413.6762727279053
 21
136.6090551314044
 31
0.0
  0
ARC
  5
7AAB
330
1A
100
AcDbEntity
  8
SEIHIN
100
AcDbCircle
 10
405.4621300279054
 20
137.6090551314044
 30
0.0
 40
0.9999999939118351
100
AcDbArc
 50
225.2808117673398
 51
270.0
  0
ARC
  5
7AAC
330
1A
100
AcDbEntity
  8
SEIHIN
100
AcDbCircle
 10
418.7074256279053
 20
137.6090551314044
 30
0.0
 40
0.9999999580737615
100
AcDbArc
 50
206.5650532269542
 51
270.0
  0
ARC
  5
7AAD
330
1A
100
AcDbEntity
  8
SEIHIN
100
AcDbCircle
 10
413.6762727279053
 20
137.6090551314044
 30
0.0
 40
1.000000005031197
100
AcDbArc
 50
270.0
 51
26.56505117707944
  0
LINE
  5
7AAE
330
1A
100
AcDbEntity
  8
SEIHIN
100
AcDbLine
 10
429.1813892562436
 20
138.803760931947
 30
0.0
 11
425.0031231279053
 21
136.7146279414044
 31
0.0
  0
LINE
  5
7AAF
330
1A
100
AcDbEntity
  8
SEIHIN
100
AcDbLine
 10
431.6651943189818
 20
137.4129993747558
 30
0.0
 11
425.7963157058149
 21
134.4785599814154
 31
0.0
  0
ARC
  5
7AB0
330
1A
100
AcDbEntity
  8
SEIHIN
100
AcDbCircle
 10
424.2310680845437
 20
137.6090551314044
 30
0.0
 40
3.5
100
AcDbArc
 50
270.0
 51
296.5650518546619
  0
ARC
  5
7AB1
330
1A
100
AcDbEntity
  8
SEIHIN
100
AcDbCircle
 10
424.5559095279054
 20
137.6090551314044
 30
0.0
 40
1.000000000559064
100
AcDbArc
 50
270.0
 51
296.5650514333119
  0
ARC
  5
7AB2
330
1A
100
AcDbEntity
  8
SEIHIN
100
AcDbCircle
 10
428.7341756733524
 20
139.6981881292513
 30
0.0
 40
1.0
100
AcDbArc
 50
296.5650503693782
 51
30.96387195850947
  0
LINE
  5
7AB3
330
1A
100
AcDbEntity
  8
SEIHIN
100
AcDbLine
 10
431.1730595793803
 20
137.5770442861222
 30
0.0
 11
434.0885423710158
 21
136.6052166997757
 31
0.0
  0
LINE
  5
7AB4
330
1A
100
AcDbEntity
  8
SEIHIN
100
AcDbLine
 10
395.2297476279054
 20
164.1090551314045
 30
0.0
 11
413.5552132329362
 21
164.1090551314045
 31
0.0
  0
LINE
  5
7AB5
330
1A
100
AcDbEntity
  8
SEIHIN
100
AcDbLine
 10
390.1379455279054
 20
166.6090551314044
 30
0.0
 11
411.9875790012986
 21
166.6090551314044
 31
0.0
  0
ARC
  5
7AB6
330
1A
100
AcDbEntity
  8
SEIHIN
100
AcDbCircle
 10
405.2156678279054
 20
131.1090551314044
 30
0.0
 40
47.50000001994081
100
AcDbArc
 50
90.46303533268337
 51
100.0080474591645
  0
ARC
  5
7AB7
330
1A
100
AcDbEntity
  8
SEIHIN
100
AcDbCircle
 10
398.0508845279055
 20
161.1090551314044
 30
0.0
 40
3.0
100
AcDbArc
 50
0.0
 51
90.0
  0
ARC
  5
7AB8
330
1A
100
AcDbEntity
  8
SEIHIN
100
AcDbCircle
 10
395.2297478279053
 20
146.1090551314044
 30
0.0
 40
17.99999998169338
100
AcDbArc
 50
90.00000063661738
 51
143.0224035665536
  0
LINE
  5
7AB9
330
1A
100
AcDbEntity
  8
SEIHIN
100
AcDbLine
 10
390.9432852279055
 20
174.4974072414044
 30
0.0
 11
374.3862181279054
 21
152.5075524314044
 31
0.0
  0
ARC
  5
7ABA
330
1A
100
AcDbEntity
  8
SEIHIN
100
AcDbCircle
 10
373.5873473279054
 20
153.1090551314044
 30
0.0
 40
1.000000013299971
100
AcDbArc
 50
270.0
 51
323.0224045627645
  0
LINE
  5
7ABB
330
1A
100
AcDbEntity
  8
NOKITOI
 48
5.0
100
AcDbLine
 10
400.8889627263656
 20
159.8021790442913
 30
0.0
 11
400.4988627263656
 21
147.3177790442913
 31
0.0
  0
LINE
  5
7ABC
330
1A
100
AcDbEntity
  8
SEIHIN
100
AcDbLine
 10
401.0508845279055
 20
161.1090551314044
 30
0.0
 11
401.0508845279055
 21
142.9675170814044
 31
0.0
  0
LINE
  5
7ABD
330
1A
100
AcDbEntity
  8
NOKITOI
 48
5.0
100
AcDbLine
 10
392.4285627263657
 20
152.8383790442914
 30
0.0
 11
392.1127627263654
 21
158.8383790442914
 31
0.0
  0
LINE
  5
7ABE
330
1A
100
AcDbEntity
  8
NOKITOI
 48
5.0
100
AcDbLine
 10
395.6719627263655
 20
152.9353790442913
 30
0.0
 11
395.3381627263656
 21
155.2715790442915
 31
0.0
  0
ARC
  5
7ABF
330
1A
100
AcDbEntity
  8
NOKITOI
 48
5.0
100
AcDbCircle
 10
395.4384317994295
 20
151.8647147889552
 30
0.0
 40
3.99998565374706
100
AcDbArc
 50
358.208696659101
 51
83.5242238046835
  0
LINE
  5
7AC0
330
1A
100
AcDbEntity
  8
NOKITOI
 48
5.0
100
AcDbLine
 10
398.9995627263656
 20
145.8646790442913
 30
0.0
 11
392.8584627263658
 21
145.8646790442913
 31
0.0
  0
LINE
  5
7AC1
330
1A
100
AcDbEntity
  8
NOKITOI
 48
5.0
100
AcDbLine
 10
391.3199627263652
 20
147.0646790442914
 30
0.0
 11
397.3518627263656
 21
147.0646790442914
 31
0.0
  0
ARC
  5
7AC2
330
1A
100
AcDbEntity
  8
SEIHIN
100
AcDbCircle
 10
395.5507845279053
 20
144.6090551314044
 30
0.0
 40
0.9999999982674266
100
AcDbArc
 50
45.28081987008772
 51
210.3961134471386
  0
CIRCLE
  5
7AC3
330
1A
100
AcDbEntity
  8
SEIHIN
100
AcDbCircle
 10
395.5507845279053
 20
144.6090551314044
 30
0.0
 40
0.999999981411176
  0
ARC
  5
7AC4
330
1A
100
AcDbEntity
  8
NOKITOI
 48
5.0
100
AcDbCircle
 10
395.1769729128018
 20
152.8646907890155
 30
0.0
 40
0.5000117448278309
100
AcDbArc
 50
269.9988327478032
 51
8.127314608715781
  0
ARC
  5
7AC5
330
1A
100
AcDbEntity
  8
NOKITOI
 48
5.0
100
AcDbCircle
 10
392.8584833762065
 20
144.8646977321405
 30
0.0
 40
0.9999813123640345
100
AcDbArc
 50
90.00118317084911
 51
174.2905900333514
  0
LINE
  5
7AC6
330
1A
100
AcDbEntity
  8
NOKITOI
 48
5.0
100
AcDbLine
 10
392.9278627263656
 20
152.3646790442914
 30
0.0
 11
395.1769627263652
 21
152.3646790442914
 31
0.0
  0
ARC
  5
7AC7
330
1A
100
AcDbEntity
  8
NOKITOI
 48
5.0
100
AcDbCircle
 10
392.9278668477723
 20
152.8646751342608
 30
0.0
 40
0.4999960899864752
100
AcDbArc
 50
183.0147243791742
 51
269.9995277178578
  0
ARC
  5
7AC8
330
1A
100
AcDbEntity
  8
SEIHIN
100
AcDbCircle
 10
388.3007845279053
 20
144.3590551314045
 30
0.0
 40
0.75
100
AcDbArc
 50
0.0
 51
90.0
  0
ARC
  5
7AC9
330
1A
100
AcDbEntity
  8
SEIHIN
100
AcDbCircle
 10
388.3007845279053
 20
144.3590551314045
 30
0.0
 40
0.75
100
AcDbArc
 50
90.0
 51
180.0
  0
ARC
  5
7ACA
330
1A
100
AcDbEntity
  8
NOKITOI
 48
5.0
100
AcDbCircle
 10
391.3199757973702
 20
146.5646908745712
 30
0.0
 40
0.499988169890889
100
AcDbArc
 50
90.00149786226472
 51
174.2966061377164
  0
LINE
  5
7ACB
330
1A
100
AcDbEntity
  8
NOKITOI
 48
5.0
100
AcDbLine
 10
399.3509627263656
 20
149.0020790442914
 30
0.0
 11
399.4364627263653
 21
151.7396790442913
 31
0.0
  0
ARC
  5
7ACC
330
1A
100
AcDbEntity
  8
SEIHIN
100
AcDbCircle
 10
400.0508845279055
 20
142.9675170814044
 30
0.0
 40
0.99999999391183
100
AcDbArc
 50
225.2808117673398
 51
0.0
  0
ARC
  5
7ACD
330
1A
100
AcDbEntity
  8
NOKITOI
 48
5.0
100
AcDbCircle
 10
398.9995799395437
 20
147.3646957274391
 30
0.0
 40
1.500016683246579
100
AcDbArc
 50
269.999342512336
 51
358.2076423244112
  0
ARC
  5
7ACE
330
1A
100
AcDbEntity
  8
NOKITOI
 48
5.0
100
AcDbCircle
 10
397.3519007141899
 20
149.0646158648636
 30
0.0
 40
2.000036820932882
100
AcDbArc
 50
269.9989117490344
 51
358.2110591274196
  0
ARC
  5
7ACF
330
1A
100
AcDbEntity
  8
NOKITOI
 48
5.0
100
AcDbCircle
 10
395.5633554718101
 20
161.3646701944479
 30
0.0
 40
0.500008849895925
100
AcDbArc
 50
89.99916870385741
 51
191.3135956695126
  0
LINE
  5
7AD0
330
1A
100
AcDbEntity
  8
NOKITOI
 48
5.0
100
AcDbLine
 10
396.9172627263656
 20
158.1646790442915
 30
0.0
 11
393.9806627263656
 21
158.1646790442915
 31
0.0
  0
ARC
  5
7AD1
330
1A
100
AcDbEntity
  8
NOKITOI
 48
5.0
100
AcDbCircle
 10
394.8435619433571
 20
159.8646780892896
 30
0.0
 40
0.4999990449987399
100
AcDbArc
 50
270.0000897263067
 51
11.30328019845552
  0
LINE
  5
7AD2
330
1A
100
AcDbEntity
  8
NOKITOI
 48
5.0
100
AcDbLine
 10
394.9764627263657
 20
157.0646790442914
 30
0.0
 11
395.4384627263657
 21
157.0646790442914
 31
0.0
  0
LINE
  5
7AD3
330
1A
100
AcDbEntity
  8
NOKITOI
 48
5.0
100
AcDbLine
 10
395.3338627263656
 20
159.9626790442915
 30
0.0
 11
395.0730627263656
 21
161.2666790442914
 31
0.0
  0
ARC
  5
7AD4
330
1A
100
AcDbEntity
  8
NOKITOI
 48
5.0
100
AcDbCircle
 10
395.8331920988653
 20
155.3423092767862
 30
0.0
 40
0.4999578477751074
100
AcDbArc
 50
83.52609071220427
 51
188.1330561712928
  0
LINE
  5
7AD5
330
1A
100
AcDbEntity
  8
NOKITOI
 48
5.0
100
AcDbLine
 10
392.6120627263658
 20
159.3646790442913
 30
0.0
 11
394.8435627263656
 21
159.3646790442913
 31
0.0
  0
ARC
  5
7AD6
330
1A
100
AcDbEntity
  8
NOKITOI
 48
5.0
100
AcDbCircle
 10
392.6120664358609
 20
158.8646829543221
 30
0.0
 40
0.4999960899831856
100
AcDbArc
 50
90.00042508014919
 51
183.0156217414646
  0
LINE
  5
7AD7
330
1A
100
AcDbEntity
  8
NOKITOI
 48
5.0
100
AcDbLine
 10
394.9764627263657
 20
157.0646790442914
 30
0.0
 11
393.9806627263656
 21
158.1646790442915
 31
0.0
  0
LINE
  5
7AD8
330
1A
100
AcDbEntity
  8
NOKITOI
 48
5.0
100
AcDbLine
 10
393.9658627263657
 20
156.3930790442913
 30
0.0
 11
393.4108627263654
 21
157.0060790442913
 31
0.0
  0
LINE
  5
7AD9
330
1A
100
AcDbEntity
  8
NOKITOI
 48
5.0
100
AcDbLine
 10
393.5919627263656
 20
153.5646790442914
 30
0.0
 11
394.3698627263652
 21
153.5646790442914
 31
0.0
  0
LINE
  5
7ADA
330
1A
100
AcDbEntity
  8
NOKITOI
 48
5.0
100
AcDbLine
 10
393.5919627263656
 20
153.5646790442914
 30
0.0
 11
393.4108627263654
 21
157.0060790442913
 31
0.0
  0
LINE
  5
7ADB
330
1A
100
AcDbEntity
  8
NOKITOI
 48
5.0
100
AcDbLine
 10
394.3698627263652
 20
153.5646790442914
 30
0.0
 11
393.9658627263657
 21
156.3930790442913
 31
0.0
  0
ARC
  5
7ADC
330
1A
100
AcDbEntity
  8
SEIHIN
100
AcDbCircle
 10
399.6902047279054
 20
161.1090551314044
 30
0.0
 40
3.000000012857525
100
AcDbArc
 50
26.56505100625387
 51
90.0
  0
LINE
  5
7ADD
330
1A
100
AcDbEntity
  8
NOKITOI
 48
5.0
100
AcDbLine
 10
399.6895627263652
 20
159.8396790442913
 30
0.0
 11
399.5402627263656
 21
155.0606790442915
 31
0.0
  0
LINE
  5
7ADE
330
1A
100
AcDbEntity
  8
NOKITOI
 48
5.0
100
AcDbLine
 10
398.8899627263658
 20
161.8645790442914
 30
0.0
 11
395.5633627263655
 21
161.8646790442913
 31
0.0
  0
LINE
  5
7ADF
330
1A
100
AcDbEntity
  8
NOKITOI
 48
5.0
100
AcDbLine
 10
396.4172627263656
 20
160.6646790442915
 30
0.0
 11
396.9172627263656
 21
158.1646790442915
 31
0.0
  0
LINE
  5
7AE0
330
1A
100
AcDbEntity
  8
NOKITOI
 48
5.0
100
AcDbLine
 10
398.8899627263658
 20
160.6645790442913
 30
0.0
 11
396.4172627263656
 21
160.6646790442915
 31
0.0
  0
ARC
  5
7AE1
330
1A
100
AcDbEntity
  8
NOKITOI
 48
5.0
100
AcDbCircle
 10
398.8899514893714
 20
159.8646906381085
 30
0.0
 40
1.999988406214315
100
AcDbArc
 50
358.2088726535938
 51
89.99967808195389
  0
ARC
  5
7AE2
330
1A
100
AcDbEntity
  8
NOKITOI
 48
5.0
100
AcDbCircle
 10
398.8900066927185
 20
159.8646336818184
 30
0.0
 40
0.7999453636812564
100
AcDbArc
 50
358.2123436447881
 51
90.00314907315425
  0
ARC
  5
7AE3
330
1A
100
AcDbEntity
  8
NOKITOI
 48
5.0
100
AcDbCircle
 10
395.4384448600144
 20
151.8646877726713
 30
0.0
 40
5.199991271650611
100
AcDbArc
 50
37.92532860472895
 51
89.99980314072724
  0
LINE
  5
7AE4
330
1A
100
AcDbEntity
  8
SEIHIN
100
AcDbLine
 10
396.3357249279054
 20
177.5029837414044
 30
0.0
 11
389.3390748279055
 21
168.2105578414044
 31
0.0
  0
ARC
  5
7AE5
330
1A
100
AcDbEntity
  8
SEIHIN
100
AcDbCircle
 10
390.1444145279053
 20
175.0989099414044
 30
0.0
 40
0.9999999858333389
100
AcDbArc
 50
323.0224011164107
 51
108.9118445391244
  0
ARC
  5
7AE6
330
1A
100
AcDbEntity
  8
SEIHIN
100
AcDbCircle
 10
390.1379455279054
 20
167.6090551314044
 30
0.0
 40
0.9999999763639362
100
AcDbArc
 50
143.0224006586868
 51
270.0
  0
ARC
  5
7AE7
330
1A
100
AcDbEntity
  8
SEIHIN
100
AcDbCircle
 10
397.1345956279053
 20
176.9014810414044
 30
0.0
 40
0.9999999877915744
100
AcDbArc
 50
100.0080415358673
 51
143.0224011164107
  0
LINE
  5
7AE8
330
1A
100
AcDbEntity
  8
CENTER_L
 48
5.0
100
AcDbLine
 10
409.5945350189526
 20
156.9528703381734
 30
0.0
 11
428.0602764768964
 21
168.0323658063548
 31
0.0
  0
ARC
  5
7AE9
330
1A
100
AcDbEntity
  8
SEIHIN
100
AcDbCircle
 10
405.9574256279054
 20
163.1090551314045
 30
0.0
 40
0.9999999580737615
100
AcDbArc
 50
90.0
 51
206.5650532269542
  0
ARC
  5
7AEA
330
1A
100
AcDbEntity
  8
SEIHIN
100
AcDbCircle
 10
413.5552132329362
 20
161.1090551314044
 30
0.0
 40
3.0
100
AcDbArc
 50
30.96387195850947
 51
90.0
  0
LINE
  5
7AEB
330
1A
100
AcDbEntity
  8
CENTER_L
 48
5.0
100
AcDbLine
 10
405.3558808813529
 20
165.4301786035
 30
0.0
 11
423.1982752816125
 21
176.1356641291918
 31
0.0
  0
LINE
  5
7AEC
330
1A
100
AcDbEntity
  8
SEIHIN
100
AcDbLine
 10
407.4285210556356
 20
177.1510944493825
 30
0.0
 11
412.845070890521
 21
168.1235526143116
 31
0.0
  0
ARC
  5
7AED
330
1A
100
AcDbEntity
  8
SEIHIN
100
AcDbCircle
 10
411.9875790012986
 20
167.6090551314044
 30
0.0
 40
1.0
100
AcDbArc
 50
270.0
 51
30.96387195851086
  0
LINE
  5
7AEE
330
1A
100
AcDbEntity
  8
SEIHIN
100
AcDbLine
 10
405.2156666279054
 20
181.1090551414045
 30
0.0
 11
412.0508845279054
 21
181.1090551414045
 31
0.0
  0
LINE
  5
7AEF
330
1A
100
AcDbEntity
  8
SEIHIN
100
AcDbLine
 10
407.5787485279054
 20
181.1090551414045
 30
0.0
 11
407.5787485279054
 21
181.1090551414045
 31
0.0
  0
LINE
  5
7AF0
330
1A
100
AcDbEntity
  8
SEIHIN
100
AcDbLine
 10
407.3861173735158
 20
181.1090551414045
 30
0.0
 11
406.4916901735159
 21
178.4257735414044
 31
0.0
  0
ARC
  5
7AF1
330
1A
100
AcDbEntity
  8
SEIHIN
100
AcDbCircle
 10
404.8560453879684
 20
175.607602000661
 30
0.0
 40
3.0
100
AcDbArc
 50
30.96387195851086
 51
90.46303533268337
  0
DIMENSION
  5
7B67
330
1A
100
AcDbEntity
  8
SUNPOU
 48
5.0
100
AcDbDimension
  2
*D4
 10
241.8189421585925
 20
457.2730589061355
 30
0.0
 11
236.8189421585924
 21
469.2730589061355
 31
0.0
 70
    32
  3
STANDARD
100
AcDbAlignedDimension
 13
283.0375845279054
 23
481.2730589061354
 33
0.0
 14
283.0375845279054
 24
457.2730589061355
 34
0.0
 50
90.0
100
AcDbRotatedDimension
1001
ACAD
1000
DSTYLE
1002
{
1070
    41
1040
7.0
1070
    42
1040
6.0
1070
    43
1040
14.0
1070
    44
1040
3.0
1070
    73
1070
     0
1070
    74
1070
     0
1070
    77
1070
     3
1070
   140
1040
6.0
1070
   141
1040
150.0
1070
   147
1040
2.0
1070
   172
1070
     1
1070
   173
1070
     1
1070
   176
1070
   256
1070
   177
1070
   256
1070
   178
1070
   256
1070
   271
1070
     0
1070
   272
1070
     0
1070
   341
1005
6D
1070
     6
1000
OPEN
1070
     7
1000
OPEN
1070
   371
1070
    -1
1070
   372
1070
    -1
1002
}
  0
DIMENSION
  5
7B74
330
1A
100
AcDbEntity
  8
SUNPOU
 48
5.0
100
AcDbDimension
  2
*D5
 10
467.327958178916
 20
437.7730589061354
 30
0.0
 11
462.327958178916
 21
469.2730516016563
 31
0.0
 70
    32
  3
STANDARD
100
AcDbAlignedDimension
 13
431.7867042848579
 23
500.773044297177
 33
0.0
 14
431.7867838881877
 24
437.7730589061354
 34
0.0
 50
90.0
100
AcDbRotatedDimension
1001
ACAD
1000
DSTYLE
1002
{
1070
    41
1040
7.0
1070
    42
1040
6.0
1070
    43
1040
14.0
1070
    44
1040
3.0
1070
    73
1070
     0
1070
    74
1070
     0
1070
    77
1070
     3
1070
   140
1040
6.0
1070
   141
1040
150.0
1070
   147
1040
2.0
1070
   172
1070
     1
1070
   173
1070
     1
1070
   176
1070
   256
1070
   177
1070
   256
1070
   178
1070
   256
1070
   271
1070
     0
1070
   272
1070
     0
1070
   341
1005
6D
1070
     6
1000
OPEN
1070
     7
1000
OPEN
1070
   371
1070
    -1
1070
   372
1070
    -1
1002
}
  0
DIMENSION
  5
7B81
330
1A
100
AcDbEntity
  8
SUNPOU
 48
5.0
100
AcDbDimension
  2
*D6
 10
241.8189421585925
 20
303.7158789344788
 30
0.0
 11
236.8189421585924
 21
312.1888031844789
 31
0.0
 70
    32
  3
STANDARD
100
AcDbAlignedDimension
 13
285.7507845279053
 23
320.6617274344788
 33
0.0
 14
437.5185099279053
 24
303.7158789344788
 34
0.0
 50
90.0
100
AcDbRotatedDimension
1001
ACAD
1000
DSTYLE
1002
{
1070
    41
1040
7.0
1070
    42
1040
6.0
1070
    43
1040
14.0
1070
    44
1040
3.0
1070
    73
1070
     0
1070
    74
1070
     0
1070
    77
1070
     3
1070
   140
1040
6.0
1070
   141
1040
150.0
1070
   147
1040
2.0
1070
   172
1070
     1
1070
   173
1070
     1
1070
   176
1070
   256
1070
   177
1070
   256
1070
   178
1070
   256
1070
   271
1070
     0
1070
   272
1070
     0
1070
   341
1005
6D
1070
     6
1000
OPEN
1070
     7
1000
OPEN
1070
   371
1070
    -1
1070
   372
1070
    -1
1002
}
  0
DIMENSION
  5
7B90
330
1A
100
AcDbEntity
  8
SUNPOU
 48
5.0
100
AcDbDimension
  2
*D7
 10
412.0508845279054
 20
384.0389231256915
 30
0.0
 11
347.5508345279054
 21
389.0389231256915
 31
0.0
 70
    32
  3
STANDARD
100
AcDbAlignedDimension
 13
283.0507845279054
 23
315.8617274344788
 33
0.0
 14
412.0508845279054
 24
346.1617274444788
 34
0.0
100
AcDbRotatedDimension
1001
ACAD
1000
DSTYLE
1002
{
1070
    41
1040
7.0
1070
    42
1040
6.0
1070
    43
1040
14.0
1070
    44
1040
3.0
1070
    73
1070
     0
1070
    74
1070
     0
1070
    77
1070
     3
1070
   140
1040
6.0
1070
   141
1040
150.0
1070
   147
1040
2.0
1070
   172
1070
     1
1070
   173
1070
     1
1070
   176
1070
   256
1070
   177
1070
   256
1070
   178
1070
   256
1070
   271
1070
     0
1070
   272
1070
     0
1070
   341
1005
6D
1070
     6
1000
OPEN
1070
     7
1000
OPEN
1070
   371
1070
    -1
1070
   372
1070
    -1
1002
}
  0
DIMENSION
  5
7B9D
330
1A
100
AcDbEntity
  8
SUNPOU
 48
5.0
100
AcDbDimension
  2
*D8
 10
412.0508845279054
 20
369.0333814343407
 30
0.0
 11
406.469923626988
 21
374.0333814343407
 31
0.0
 70
    32
  3
STANDARD
100
AcDbAlignedDimension
 13
400.8889627260705
 23
324.8548513379162
 33
0.0
 14
412.0508845279054
 24
346.1617274444788
 34
0.0
100
AcDbRotatedDimension
1001
ACAD
1000
DSTYLE
1002
{
1070
    41
1040
7.0
1070
    42
1040
6.0
1070
    43
1040
14.0
1070
    44
1040
3.0
1070
    73
1070
     0
1070
    74
1070
     0
1070
    77
1070
     3
1070
   140
1040
6.0
1070
   141
1040
150.0
1070
   147
1040
2.0
1070
   172
1070
     1
1070
   173
1070
     1
1070
   176
1070
   256
1070
   177
1070
   256
1070
   178
1070
   256
1070
   271
1070
     0
1070
   272
1070
     0
1070
   341
1005
6D
1070
     6
1000
OPEN
1070
     7
1000
OPEN
1070
   371
1070
    -1
1070
   372
1070
    -1
1002
}
  0
DIMENSION
  5
7BAC
330
1A
100
AcDbEntity
  8
SUNPOU
 48
5.0
100
AcDbDimension
  2
*D9
 10
467.8051182537894
 20
321.8879269098753
 30
0.0
 11
459.3587649999014
 21
345.6833385794111
 31
0.0
 70
    33
  3
STANDARD
100
AcDbAlignedDimension
 13
412.0508845279054
 23
346.1617274444788
 33
0.0
 14
437.5185099279053
 24
303.7158789344788
 34
0.0
1001
ACAD
1000
DSTYLE
1002
{
1070
    41
1040
7.0
1070
    42
1040
6.0
1070
    43
1040
14.0
1070
    44
1040
3.0
1070
    73
1070
     0
1070
    74
1070
     0
1070
    77
1070
     3
1070
   140
1040
6.0
1070
   141
1040
150.0
1070
   147
1040
2.0
1070
   172
1070
     1
1070
   173
1070
     1
1070
   176
1070
   256
1070
   177
1070
   256
1070
   178
1070
   256
1070
   271
1070
     0
1070
   272
1070
     0
1070
   341
1005
6D
1070
     6
1000
OPEN
1070
     7
1000
OPEN
1070
   371
1070
    -1
1070
   372
1070
    -1
1002
}
  0
DIMENSION
  5
7BB9
330
1A
100
AcDbEntity
  8
SUNPOU
 48
5.0
100
AcDbDimension
  2
*D10
 10
450.6305852408766
 20
270.2006552363741
 30
0.0
 11
432.6232438203378
 21
265.2271599901569
 31
0.0
 70
    33
  3
STANDARD
100
AcDbAlignedDimension
 13
437.5185099279053
 23
303.7158789344788
 33
0.0
 14
432.3735585925712
 24
300.6288940370358
 34
0.0
1001
ACAD
1000
DSTYLE
1002
{
1070
    41
1040
7.0
1070
    42
1040
6.0
1070
    43
1040
14.0
1070
    44
1040
3.0
1070
    73
1070
     0
1070
    74
1070
     0
1070
    77
1070
     3
1070
   140
1040
6.0
1070
   141
1040
150.0
1070
   147
1040
2.0
1070
   172
1070
     1
1070
   173
1070
     1
1070
   176
1070
   256
1070
   177
1070
   256
1070
   178
1070
   256
1070
   271
1070
     0
1070
   272
1070
     0
1070
   341
1005
6D
1070
     6
1000
OPEN
1070
     7
1000
OPEN
1070
   371
1070
    -1
1070
   372
1070
    -1
1002
}
  0
MTEXT
  5
7BE0
330
1A
100
AcDbEntity
  8
SUNPOU
100
AcDbMText
 10
483.8427801138043
 20
424.9235690887612
 30
0.0
 40
6.0
 41
0.0
 71
     9
 72
     5
  1
\A1;４－φ4.2
1001
ACAD
1000
MTEXTBEGIN
1070
    73
1070
     1
1070
    44
1040
1.0
1070
    74
1070
     0
1000
MTEXTEND
1000
MTEXTBEGIN
1070
    73
1070
     1
1070
    44
1040
1.0
1070
    74
1070
     0
1000
MTEXTEND
1000
MTEXTBEGIN
1070
    73
1070
     1
1070
    44
1040
1.0
1070
    74
1070
     0
1000
MTEXTEND
  0
MTEXT
  5
7BED
330
1A
100
AcDbEntity
  8
SUNPOU
100
AcDbMText
 10
605.8208563509063
 20
402.0754834524002
 30
0.0
 40
6.0
 41
0.0
 71
     1
 72
     5
  1
\A1;2-φ6.6
1001
ACAD
1000
MTEXTBEGIN
1070
    73
1070
     1
1070
    44
1040
1.0
1070
    74
1070
     0
1000
MTEXTEND
1000
MTEXTBEGIN
1070
    73
1070
     1
1070
    44
1040
1.0
1070
    74
1070
     0
1000
MTEXTEND
1000
MTEXTBEGIN
1070
    73
1070
     1
1070
    44
1040
1.0
1070
    74
1070
     0
1000
MTEXTEND
  0
DIMENSION
  5
7BF0
330
1A
100
AcDbEntity
  8
SUNPOU
 48
5.0
100
AcDbDimension
  2
*D11
 10
587.4573361297719
 20
451.4059302917719
 30
0.0
 11
596.7482356123825
 21
445.6393890987286
 31
0.0
 70
    33
  3
STANDARD
100
AcDbAlignedDimension
 13
567.8734003125007
 23
416.9733023567531
 33
0.0
 14
557.8665202283842
 24
433.6513595904436
 34
0.0
1001
ACAD
1000
DSTYLE
1002
{
1070
    41
1040
7.0
1070
    42
1040
6.0
1070
    43
1040
14.0
1070
    44
1040
3.0
1070
    73
1070
     0
1070
    74
1070
     0
1070
    77
1070
     3
1070
   140
1040
6.0
1070
   141
1040
150.0
1070
   147
1040
2.0
1070
   172
1070
     1
1070
   173
1070
     1
1070
   176
1070
   256
1070
   177
1070
   256
1070
   178
1070
   256
1070
   271
1070
     0
1070
   272
1070
     0
1070
   341
1005
6D
1070
     6
1000
OPEN
1070
     7
1000
OPEN
1070
   371
1070
    -1
1070
   372
1070
    -1
1002
}
  0
DIMENSION
  5
7BFD
330
1A
100
AcDbEntity
  8
SUNPOU
 48
5.0
100
AcDbDimension
  2
*D12
 10
489.3247624993233
 20
392.5264288122647
 30
0.0
 11
483.5795210282838
 21
411.8200080664996
 31
0.0
 70
    33
  3
STANDARD
100
AcDbAlignedDimension
 13
522.7094057170229
 23
400.8952942794738
 33
0.0
 14
517.5643893966505
 24
409.4702823230846
 34
0.0
1001
ACAD
1000
DSTYLE
1002
{
1070
    41
1040
7.0
1070
    42
1040
6.0
1070
    43
1040
14.0
1070
    44
1040
3.0
1070
    73
1070
     0
1070
    74
1070
     0
1070
    77
1070
     3
1070
   140
1040
6.0
1070
   141
1040
150.0
1070
   147
1040
2.0
1070
   172
1070
     1
1070
   173
1070
     1
1070
   176
1070
   256
1070
   177
1070
   256
1070
   178
1070
   256
1070
   271
1070
     0
1070
   272
1070
     0
1070
   341
1005
6D
1070
     6
1000
OPEN
1070
     7
1000
OPEN
1070
   371
1070
    -1
1070
   372
1070
    -1
1002
}
  0
DIMENSION
  5
7C0C
330
1A
100
AcDbEntity
  8
SUNPOU
 48
5.0
100
AcDbDimension
  2
*D13
 10
515.0497296026755
 20
349.651679424189
 30
0.0
 11
529.369889965816
 21
335.5030749992309
 31
0.0
 70
    33
  3
STANDARD
100
AcDbAlignedDimension
 13
538.1443816598891
 23
375.1704518451702
 33
0.0
 14
543.2893565000024
 24
366.5955329350089
 34
0.0
1001
ACAD
1000
DSTYLE
1002
{
1070
    41
1040
7.0
1070
    42
1040
6.0
1070
    43
1040
14.0
1070
    44
1040
3.0
1070
    73
1070
     0
1070
    74
1070
     0
1070
    77
1070
     3
1070
   140
1040
6.0
1070
   141
1040
150.0
1070
   147
1040
2.0
1070
   172
1070
     1
1070
   173
1070
     1
1070
   176
1070
   256
1070
   177
1070
   256
1070
   178
1070
   256
1070
   271
1070
     0
1070
   272
1070
     0
1070
   341
1005
6D
1070
     6
1000
OPEN
1070
     7
1000
OPEN
1070
   371
1070
    -1
1070
   372
1070
    -1
1002
}
  0
DIMENSION
  5
7C1B
330
1A
100
AcDbEntity
  8
SUNPOU
 48
5.0
100
AcDbDimension
  2
*D14
 10
499.5236641504554
 20
340.3359976137216
 30
0.0
 11
490.9486400448299
 21
364.3458597223979
 31
0.0
 70
    33
  3
STANDARD
100
AcDbAlignedDimension
 13
517.5643893966505
 23
409.4702823230846
 33
0.0
 14
543.2893565000024
 24
366.5955329350089
 34
0.0
1001
ACAD
1000
DSTYLE
1002
{
1070
    41
1040
7.0
1070
    42
1040
6.0
1070
    43
1040
14.0
1070
    44
1040
3.0
1070
    73
1070
     0
1070
    74
1070
     0
1070
    77
1070
     3
1070
   140
1040
6.0
1070
   141
1040
150.0
1070
   147
1040
2.0
1070
   172
1070
     1
1070
   173
1070
     1
1070
   176
1070
   256
1070
   177
1070
   256
1070
   178
1070
   256
1070
   271
1070
     0
1070
   272
1070
     0
1070
   341
1005
6D
1070
     6
1000
OPEN
1070
     7
1000
OPEN
1070
   371
1070
    -1
1070
   372
1070
    -1
1002
}
  0
DIMENSION
  5
7C28
330
1A
100
AcDbEntity
  8
SUNPOU
 48
5.0
100
AcDbDimension
  2
*D15
 10
544.696581933369
 20
455.6011565167779
 30
0.0
 11
521.973097850127
 21
447.7979627508997
 31
0.0
 70
    33
  3
STANDARD
100
AcDbAlignedDimension
 13
520.059743688349
 23
405.3113774948996
 33
0.0
 14
560.3617370255558
 24
429.4926839187569
 34
0.0
1001
ACAD
1000
DSTYLE
1002
{
1070
    41
1040
7.0
1070
    42
1040
6.0
1070
    43
1040
14.0
1070
    44
1040
3.0
1070
    73
1070
     0
1070
    74
1070
     0
1070
    77
1070
     3
1070
   140
1040
6.0
1070
   141
1040
150.0
1070
   147
1040
2.0
1070
   172
1070
     1
1070
   173
1070
     1
1070
   176
1070
   256
1070
   177
1070
   256
1070
   178
1070
   256
1070
   271
1070
     0
1070
   272
1070
     0
1070
   341
1005
6D
1070
     6
1000
OPEN
1070
     7
1000
OPEN
1070
   371
1070
    -1
1070
   372
1070
    -1
1002
}
  0
DIMENSION
  5
7C35
330
1A
100
AcDbEntity
  8
SUNPOU
 48
5.0
100
AcDbDimension
  2
*D16
 10
545.0704225775853
 20
471.6954854764898
 30
0.0
 11
515.3719392249767
 21
460.1482490136179
 31
0.0
 70
    33
  3
STANDARD
100
AcDbAlignedDimension
 13
515.9053876456864
 23
396.8128647946631
 33
0.0
 14
570.2608848125008
 24
428.543516556753
 34
0.0
1001
ACAD
1000
DSTYLE
1002
{
1070
    41
1040
7.0
1070
    42
1040
6.0
1070
    43
1040
14.0
1070
    44
1040
3.0
1070
    73
1070
     0
1070
    74
1070
     0
1070
    77
1070
     3
1070
   140
1040
6.0
1070
   141
1040
150.0
1070
   147
1040
2.0
1070
   172
1070
     1
1070
   173
1070
     1
1070
   176
1070
   256
1070
   177
1070
   256
1070
   178
1070
   256
1070
   271
1070
     0
1070
   272
1070
     0
1070
   341
1005
6D
1070
     6
1000
OPEN
1070
     7
1000
OPEN
1070
   371
1070
    -1
1070
   372
1070
    -1
1002
}
  0
LINE
  5
8129
330
1A
100
AcDbEntity
  8
ZUWAKU
100
AcDbLine
 10
208.6466021508235
 20
15.20000025521687
 30
0.0
 11
447.4243648317469
 21
15.20000025521686
 31
0.0
  0
LINE
  5
812A
330
1A
100
AcDbEntity
  8
ZUWAKU
100
AcDbLine
 10
208.6466021508235
 20
15.60000025521686
 30
0.0
 11
447.4243648317469
 21
15.60000025521687
 31
0.0
  0
LINE
  5
812B
330
1A
100
AcDbEntity
  8
ZUWAKU
100
AcDbLine
 10
208.6466021508235
 20
15.40000025521686
 30
0.0
 11
447.4243648317469
 21
15.40000025521686
 31
0.0
  0
LINE
  5
812C
330
1A
100
AcDbEntity
  8
ZUWAKU
100
AcDbLine
 10
0.0000008607555628
 20
30.80000025521684
 30
0.0
 11
797.4000008607554
 21
30.80000025521684
 31
0.0
  0
LINE
  5
812D
330
1A
100
AcDbEntity
  8
ZUWAKU
100
AcDbLine
 10
0.0000008607555628
 20
30.60000025521684
 30
0.0
 11
797.4000008607554
 21
30.60000025521684
 31
0.0
  0
LINE
  5
812E
330
1A
100
AcDbEntity
  8
ZUWAKU
100
AcDbLine
 10
0.0000008607555628
 20
30.40000025521683
 30
0.0
 11
797.4000008607554
 21
30.40000025521683
 31
0.0
  0
LINE
  5
812F
330
1A
100
AcDbEntity
  8
ZUWAKU
100
AcDbLine
 10
0.0000008607555628
 20
30.20000025521683
 30
0.0
 11
797.4000008607554
 21
30.20000025521683
 31
0.0
  0
LINE
  5
8130
330
1A
100
AcDbEntity
  8
ZUWAKU
100
AcDbLine
 10
0.0000008607555628
 20
30.00000025521683
 30
0.0
 11
797.4000008607554
 21
30.00000025521683
 31
0.0
  0
LWPOLYLINE
  5
8131
330
1A
100
AcDbEntity
  8
ZUWAKU
100
AcDbPolyline
 90
        4
 70
     1
 43
0.0
 10
0.2000008607554946
 20
551.4000002552169
 10
0.2000008607554946
 20
0.200000255216878
 10
797.4000008607554
 20
0.2000002552169011
 10
797.4000008607556
 20
551.4000002552169
  0
LWPOLYLINE
  5
8132
330
1A
100
AcDbEntity
  8
ZUWAKU
100
AcDbPolyline
 90
        4
 70
     1
 43
0.0
 10
0.6000008607554719
 20
551.0000002552169
 10
0.6000008607554719
 20
0.6000002552168553
 10
797.0000008607557
 20
0.6000002552169015
 10
797.0000008607556
 20
551.0000002552169
  0
LWPOLYLINE
  5
8133
330
1A
100
AcDbEntity
  8
ZUWAKU
100
AcDbPolyline
 90
        4
 70
     1
 43
0.0
 10
0.0000008607555628
 20
551.6000002552168
 10
0.0000008607555628
 20
0.0000002552168326
 10
797.6000008607557
 20
0.0000002552169001
 10
797.6000008607557
 20
551.600000255217
  0
LWPOLYLINE
  5
8134
330
1A
100
AcDbEntity
  8
ZUWAKU
100
AcDbPolyline
 90
        4
 70
     1
 43
0.0
 10
0.4000008607555401
 20
551.2000002552168
 10
0.4000008607555401
 20
0.4000002552169235
 10
797.2000008607555
 20
0.4000002552169005
 10
797.2000008607555
 20
551.2000002552168
  0
LWPOLYLINE
  5
8135
330
1A
100
AcDbEntity
  8
ZUWAKU
100
AcDbPolyline
 90
        4
 70
     1
 43
0.0
 10
0.8000008607555173
 20
550.8000002552169
 10
0.8000008607555173
 20
0.8000002552169007
 10
796.8000008607555
 20
0.8000002552169007
 10
796.8000008607555
 20
550.8000002552169
  0
TEXT
  5
8136
330
1A
100
AcDbEntity
  8
MOJI
100
AcDbText
 10
92.95779044892469
 20
12.74117838549159
 30
0.0
 40
6.0
  1
新・丸トップＲＶ１０５
 41
0.9
  7
ｽﾀｲﾙ1
100
AcDbText
  0
HATCH
  5
8137
330
1A
100
AcDbEntity
  8
ZUWAKU
100
AcDbHatch
 10
0.0
 20
0.0
 30
0.0
210
0.0
220
0.0
230
1.0
  2
ANSI37
 70
     0
 71
     0
 91
        8
 92
        7
 72
     1
 73
     1
 93
       24
 10
14.50226352187542
 20
17.64484873620041
 42
-0.1989123673796348
 10
14.09221301553668
 20
18.63479822986146
 42
0.0
 10
14.09221301553668
 20
19.92500025521684
 42
-0.4142135623730912
 10
14.61721301553666
 20
20.45000025521683
 42
0.0
 10
17.59221301553657
 20
20.45000025521683
 42
0.4142135623731546
 10
18.11721301553666
 20
20.97500025521682
 42
0.0
 10
18.11721301553666
 20
22.72500025521684
 42
0.4142135623731586
 10
17.59221301553657
 20
23.25000025521684
 42
0.0
 10
14.09221301553668
 20
23.25000025521684
 42
0.4142135623730928
 10
11.29221301553673
 20
20.45000025521686
 42
0.0
 10
11.29221301553673
 20
18.63479822986159
 42
0.1989123673796619
 10
12.52236453455316
 20
15.66494974887798
 42
0.0
 10
15.43216250919783
 20
12.75515177423333
 42
-0.1989123673796613
 10
15.84221301553668
 20
11.76520228057214
 42
0.0
 10
15.84221301553668
 20
10.47500025521682
 42
-0.4142135623730911
 10
15.31721301553671
 20
9.950000255216835
 42
0.0
 10
12.3422130155368
 20
9.950000255216835
 42
0.4142135623731526
 10
11.8172130155367
 20
9.425000255216847
 42
0.0
 10
11.8172130155367
 20
7.675000255216826
 42
0.4142135623731526
 10
12.3422130155368
 20
7.150000255216838
 42
0.0
 10
15.84221301553668
 20
7.150000255216838
 42
0.4142135623731044
 10
18.64221301553675
 20
9.950000255216814
 42
0.0
 10
18.64221301553675
 20
11.76520228057208
 42
0.1989123673796604
 10
17.41206149652021
 20
14.73505076155562
 42
0.0
 97
        0
 92
        7
 72
     1
 73
     1
 93
       16
 10
23.54221301553673
 20
19.05000025521684
 42
-0.4142135623730935
 10
24.9422130155367
 20
20.45000025521683
 42
0.0
 10
26.86721301553666
 20
20.45000025521683
 42
0.4142135623731546
 10
27.39221301553675
 20
20.97500025521682
 42
0.0
 10
27.39221301553675
 20
22.72500025521684
 42
0.4142135623730951
 10
26.86721301553677
 20
23.25000025521684
 42
0.0
 10
24.94221301553659
 20
23.25000025521679
 42
0.4142135623730892
 10
20.74221301553666
 20
19.05000025521677
 42
0.0
 10
20.74221301553666
 20
11.35000025521686
 42
0.4142135623730969
 10
24.9422130155367
 20
7.150000255216838
 42
0.0
 10
26.86721301553666
 20
7.150000255216838
 42
0.4142135623731526
 10
27.39221301553675
 20
7.675000255216826
 42
0.0
 10
27.39221301553675
 20
9.425000255216847
 42
0.4142135623730891
 10
26.86721301553677
 20
9.950000255216835
 42
0.0
 10
24.9422130155367
 20
9.950000255216835
 42
-0.4142135623730928
 10
23.54221301553673
 20
11.35000025521682
 42
0.0
 97
        0
 92
        7
 72
     1
 73
     1
 93
        2
 10
24.24221301553666
 20
15.20000025521683
 42
1.0
 10
27.74221301553666
 20
15.20000025521683
 42
1.0
 97
        0
 92
        7
 72
     1
 73
     1
 93
       26
 10
37.31485949771467
 20
19.20504744878026
 42
0.0
 10
38.37649913085249
 20
22.56690628704985
 42
0.5069206636600134
 10
37.87586823165713
 20
23.25000025521684
 42
0.0
 10
36.1769788520479
 20
23.25000025521684
 42
0.3272098845218764
 10
35.67634795285255
 20
22.8830942233838
 42
0.0
 10
33.80807807822077
 20
16.96690628704991
 42
-0.3272098845219541
 10
33.3074471790253
 20
16.60000025521683
 42
0.0
 10
33.16721301553684
 20
16.60000025521683
 42
-0.4142135623731526
 10
32.64221301553675
 20
17.12500025521682
 42
0.0
 10
32.64221301553675
 20
22.72500025521684
 42
0.4142135623730951
 10
32.11721301553677
 20
23.25000025521684
 42
0.0
 10
30.36721301553666
 20
23.25000025521684
 42
0.4142135623730871
 10
29.84221301553668
 20
22.72500025521685
 42
0.0
 10
29.84221301553668
 20
7.675000255216826
 42
0.4142135623730891
 10
30.36721301553666
 20
7.150000255216838
 42
0.0
 10
32.11721301553666
 20
7.150000255216838
 42
0.4142135623731526
 10
32.64221301553675
 20
7.675000255216826
 42
0.0
 10
32.64221301553675
 20
13.27500025521684
 42
-0.4142135623731526
 10
33.16721301553684
 20
13.80000025521683
 42
0.0
 10
33.30744717902542
 20
13.80000025521683
 42
-0.3272098845218915
 10
33.80807807822077
 20
13.43309422338376
 42
0.0
 10
35.67634795285255
 20
7.516906287049909
 42
0.3272098845218902
 10
36.1769788520479
 20
7.150000255216838
 42
0.0
 10
37.87586823165713
 20
7.150000255216838
 42
0.5069206636600335
 10
38.37649913085249
 20
7.833094223383845
 42
0.0
 10
36.05010775237883
 20
15.20000025521697
 42
0.0
 97
        0
 92
        7
 72
     1
 73
     1
 93
        8
 10
43.49221301553666
 20
22.72500025521684
 42
0.4142135623731546
 10
42.96721301553657
 20
23.25000025521684
 42
0.0
 10
41.21721301553679
 20
23.25000025521684
 42
0.4142135623731507
 10
40.6922130155367
 20
22.72500025521685
 42
0.0
 10
40.6922130155367
 20
7.675000255216826
 42
0.4142135623731526
 10
41.21721301553679
 20
7.150000255216838
 42
0.0
 10
42.96721301553657
 20
7.150000255216838
 42
0.4142135623731526
 10
43.49221301553666
 20
7.675000255216826
 42
0.0
 97
        0
 92
        7
 72
     1
 73
     1
 93
       24
 10
48.39221301553675
 20
19.92500025521684
 42
-0.4142135623731546
 10
48.91721301553684
 20
20.45000025521683
 42
0.0
 10
51.89221301553676
 20
20.45000025521683
 42
0.4142135623730911
 10
52.41721301553673
 20
20.97500025521682
 42
0.0
 10
52.41721301553673
 20
22.72500025521684
 42
0.4142135623730952
 10
51.89221301553676
 20
23.25000025521684
 42
0.0
 10
48.39221301553675
 20
23.25000025521684
 42
0.4142135623731048
 10
45.59221301553669
 20
20.45000025521686
 42
0.0
 10
45.59221301553669
 20
18.63479822986159
 42
0.1989123673796613
 10
46.82236453455323
 20
15.66494974887804
 42
0.0
 10
49.7321625091979
 20
12.75515177423337
 42
-0.1989123673796402
 10
50.14221301553675
 20
11.7652022805723
 42
0.0
 10
50.14221301553675
 20
10.47500025521682
 42
-0.4142135623730911
 10
49.61721301553677
 20
9.950000255216835
 42
0.0
 10
46.64221301553675
 20
9.950000255216835
 42
0.4142135623731526
 10
46.11721301553666
 20
9.425000255216847
 42
0.0
 10
46.11721301553666
 20
7.675000255216826
 42
0.4142135623730891
 10
46.64221301553664
 20
7.150000255216838
 42
0.0
 10
50.14221301553675
 20
7.150000255216838
 42
0.4142135623730925
 10
52.94221301553671
 20
9.950000255216814
 42
0.0
 10
52.94221301553671
 20
11.76520228057208
 42
0.1989123673796675
 10
51.71206149652016
 20
14.73505076155574
 42
0.0
 10
48.8022635218756
 20
17.64484873620025
 42
-0.1989123673796652
 10
48.39221301553675
 20
18.63479822986142
 42
0.0
 97
        0
 92
        7
 72
     1
 73
     1
 93
       16
 10
57.84221301553668
 20
22.72500025521682
 42
0.414213562373103
 10
57.31721301553671
 20
23.25000025521684
 42
0.0
 10
55.56721301553671
 20
23.25000025521684
 42
0.4142135623730871
 10
55.04221301553673
 20
22.72500025521685
 42
0.0
 10
55.04221301553673
 20
9.950000255216814
 42
0.4142135623730926
 10
57.84221301553668
 20
7.150000255216838
 42
0.0
 10
61.34221301553669
 20
7.150000255216838
 42
0.4142135623731044
 10
64.14221301553675
 20
9.950000255216814
 42
0.0
 10
64.14221301553675
 20
22.72500025521684
 42
0.4142135623730951
 10
63.61721301553678
 20
23.25000025521684
 42
0.0
 10
61.86721301553666
 20
23.25000025521684
 42
0.4142135623730871
 10
61.34221301553669
 20
22.72500025521685
 42
0.0
 10
61.34221301553669
 20
11.00000025521681
 42
-0.414213562373088
 10
60.29221301553673
 20
9.950000255216835
 42
0.0
 10
58.89221301553675
 20
9.950000255216835
 42
-0.4142135623731197
 10
57.84221301553668
 20
11.00000025521681
 42
0.0
 97
        0
 92
        7
 72
     1
 73
     1
 93
        8
 10
69.04221301553673
 20
22.72500025521685
 42
0.4142135623730871
 10
68.51721301553675
 20
23.25000025521684
 42
0.0
 10
66.76721301553675
 20
23.25000025521684
 42
0.4142135623731507
 10
66.24221301553666
 20
22.72500025521685
 42
0.0
 10
66.24221301553666
 20
7.675000255216826
 42
0.4142135623730891
 10
66.76721301553664
 20
7.150000255216838
 42
0.0
 10
68.51721301553675
 20
7.150000255216838
 42
0.4142135623730891
 10
69.04221301553673
 20
7.675000255216826
 42
0.0
 97
        0
 75
     0
 76
     1
 52
0.0
 41
0.2
 77
     0
 78
     2
 53
45.0
 43
-900.9423034739233
 44
-13.19999974478309
 45
-0.4490128060534576
 46
0.4490128060534577
 79
     0
 53
135.0
 43
-900.9423034739233
 44
-13.19999974478309
 45
-0.4490128060534577
 46
-0.4490128060534576
 79
     0
 47
0.057451373970553
 98
        8
 10
16.07985582377887
 20
15.16717390110238
 10
22.40451586719473
 20
18.84406243766784
 10
25.16436874641522
 20
15.51188190128755
 10
30.9140608423927
 20
16.20129790165833
 10
41.8384728797123
 20
16.66091016919995
 10
46.8982017558851
 20
19.41857657162404
 10
56.55768683315591
 20
18.72915817031184
 10
67.8270804803783
 20
19.18877043785346
  0
LINE
  5
8138
330
1A
100
AcDbEntity
  8
ZUWAKU
100
AcDbLine
 10
24.9422130155367
 20
23.25000025521679
 30
0.0
 11
26.86721301553666
 21
23.25000025521684
 31
0.0
  0
LINE
  5
8139
330
1A
100
AcDbEntity
  8
ZUWAKU
100
AcDbLine
 10
26.86721301553666
 20
20.45000025521683
 30
0.0
 11
24.9422130155367
 21
20.45000025521683
 31
0.0
  0
LINE
  5
813A
330
1A
100
AcDbEntity
  8
ZUWAKU
100
AcDbLine
 10
24.9422130155367
 20
9.950000255216835
 30
0.0
 11
26.86721301553666
 21
9.950000255216835
 31
0.0
  0
LINE
  5
813B
330
1A
100
AcDbEntity
  8
ZUWAKU
100
AcDbLine
 10
26.86721301553666
 20
7.150000255216838
 30
0.0
 11
24.9422130155367
 21
7.150000255216838
 31
0.0
  0
CIRCLE
  5
813C
330
1A
100
AcDbEntity
  8
ZUWAKU
100
AcDbCircle
 10
25.99221301553666
 20
15.20000025521683
 30
0.0
 40
1.75
  0
ARC
  5
813D
330
1A
100
AcDbEntity
  8
ZUWAKU
100
AcDbCircle
 10
15.49221301553666
 20
18.63479822986153
 30
0.0
 40
1.399999999999999
100
AcDbArc
 50
180.0000000000016
 51
224.9999999999988
  0
LINE
  5
813E
330
1A
100
AcDbEntity
  8
ZUWAKU
100
AcDbLine
 10
23.54221301553673
 20
19.05000025521683
 30
0.0
 11
23.54221301553673
 21
11.35000025521684
 31
0.0
  0
LINE
  5
813F
330
1A
100
AcDbEntity
  8
ZUWAKU
100
AcDbLine
 10
20.74221301553666
 20
11.35000025521684
 30
0.0
 11
20.74221301553666
 21
19.05000025521679
 31
0.0
  0
ARC
  5
8140
330
1A
100
AcDbEntity
  8
ZUWAKU
100
AcDbCircle
 10
15.49221301553666
 20
18.63479822986153
 30
0.0
 40
4.199999999999999
100
AcDbArc
 50
180.0
 51
225.0
  0
ARC
  5
8141
330
1A
100
AcDbEntity
  8
ZUWAKU
100
AcDbCircle
 10
15.84221301553668
 20
9.950000255216835
 30
0.0
 40
2.799999999999999
100
AcDbArc
 50
270.0
 51
0.0
  0
ARC
  5
8142
330
1A
100
AcDbEntity
  8
ZUWAKU
100
AcDbCircle
 10
24.9422130155367
 20
11.35000025521684
 30
0.0
 40
4.199999999999999
100
AcDbArc
 50
180.0
 51
270.0
  0
ARC
  5
8143
330
1A
100
AcDbEntity
  8
ZUWAKU
100
AcDbCircle
 10
14.4422130155367
 20
11.76520228057214
 30
0.0
 40
4.199999999999999
100
AcDbArc
 50
0.0
 51
45.0
  0
LINE
  5
8144
330
1A
100
AcDbEntity
  8
ZUWAKU
100
AcDbLine
 10
17.41206149652021
 20
14.73505076155566
 30
0.0
 11
14.50226352187553
 21
17.64484873620033
 31
0.0
  0
LINE
  5
8145
330
1A
100
AcDbEntity
  8
ZUWAKU
100
AcDbLine
 10
15.84221301553668
 20
10.47500025521684
 30
0.0
 11
15.84221301553668
 21
11.76520228057218
 31
0.0
  0
ARC
  5
8146
330
1A
100
AcDbEntity
  8
ZUWAKU
100
AcDbCircle
 10
15.31721301553671
 20
10.47500025521684
 30
0.0
 40
0.525
100
AcDbArc
 50
270.0
 51
0.0
  0
ARC
  5
8147
330
1A
100
AcDbEntity
  8
ZUWAKU
100
AcDbCircle
 10
14.4422130155367
 20
11.76520228057218
 30
0.0
 40
1.399999999999999
100
AcDbArc
 50
0.0
 51
45.0
  0
LINE
  5
8148
330
1A
100
AcDbEntity
  8
ZUWAKU
100
AcDbLine
 10
11.8172130155367
 20
7.675000255216836
 30
0.0
 11
11.8172130155367
 21
9.425000255216836
 31
0.0
  0
ARC
  5
8149
330
1A
100
AcDbEntity
  8
ZUWAKU
100
AcDbCircle
 10
12.34221301553668
 20
7.675000255216836
 30
0.0
 40
0.525
100
AcDbArc
 50
180.0
 51
270.0
  0
ARC
  5
814A
330
1A
100
AcDbEntity
  8
ZUWAKU
100
AcDbCircle
 10
12.34221301553668
 20
9.425000255216836
 30
0.0
 40
0.525
100
AcDbArc
 50
90.0
 51
180.0
  0
LINE
  5
814B
330
1A
100
AcDbEntity
  8
ZUWAKU
100
AcDbLine
 10
12.34221301553668
 20
7.150000255216838
 30
0.0
 11
15.84221301553668
 21
7.150000255216838
 31
0.0
  0
LINE
  5
814C
330
1A
100
AcDbEntity
  8
ZUWAKU
100
AcDbLine
 10
12.34221301553668
 20
9.950000255216835
 30
0.0
 11
15.31721301553671
 21
9.950000255216835
 31
0.0
  0
LINE
  5
814D
330
1A
100
AcDbEntity
  8
ZUWAKU
100
AcDbLine
 10
12.52236453455316
 20
15.66494974887801
 30
0.0
 11
15.43216250919783
 21
12.75515177423335
 31
0.0
  0
LINE
  5
814E
330
1A
100
AcDbEntity
  8
ZUWAKU
100
AcDbLine
 10
18.64221301553675
 20
9.950000255216835
 30
0.0
 11
18.64221301553675
 21
11.76520228057218
 31
0.0
  0
ARC
  5
814F
330
1A
100
AcDbEntity
  8
ZUWAKU
100
AcDbCircle
 10
24.9422130155367
 20
11.35000025521684
 30
0.0
 40
1.399999999999999
100
AcDbArc
 50
180.0
 51
270.0
  0
ARC
  5
8150
330
1A
100
AcDbEntity
  8
ZUWAKU
100
AcDbCircle
 10
17.59221301553668
 20
22.72500025521683
 30
0.0
 40
0.525
100
AcDbArc
 50
0.0
 51
90.0
  0
ARC
  5
8151
330
1A
100
AcDbEntity
  8
ZUWAKU
100
AcDbCircle
 10
17.59221301553668
 20
20.97500025521683
 30
0.0
 40
0.525
100
AcDbArc
 50
270.0
 51
0.0
  0
LINE
  5
8152
330
1A
100
AcDbEntity
  8
ZUWAKU
100
AcDbLine
 10
14.09221301553668
 20
23.25000025521684
 30
0.0
 11
17.59221301553668
 21
23.25000025521684
 31
0.0
  0
ARC
  5
8153
330
1A
100
AcDbEntity
  8
ZUWAKU
100
AcDbCircle
 10
14.61721301553666
 20
19.92500025521683
 30
0.0
 40
0.525
100
AcDbArc
 50
90.0
 51
180.0
  0
LINE
  5
8154
330
1A
100
AcDbEntity
  8
ZUWAKU
100
AcDbLine
 10
14.09221301553668
 20
19.92500025521683
 30
0.0
 11
14.09221301553668
 21
18.63479822986149
 31
0.0
  0
LINE
  5
8155
330
1A
100
AcDbEntity
  8
ZUWAKU
100
AcDbLine
 10
17.59221301553668
 20
20.45000025521683
 30
0.0
 11
14.61721301553666
 21
20.45000025521683
 31
0.0
  0
LINE
  5
8156
330
1A
100
AcDbEntity
  8
ZUWAKU
100
AcDbLine
 10
11.29221301553673
 20
20.45000025521683
 30
0.0
 11
11.29221301553673
 21
18.63479822986149
 31
0.0
  0
ARC
  5
8157
330
1A
100
AcDbEntity
  8
ZUWAKU
100
AcDbCircle
 10
14.09221301553668
 20
20.45000025521683
 30
0.0
 40
2.799999999999999
100
AcDbArc
 50
90.0
 51
180.0
  0
LINE
  5
8158
330
1A
100
AcDbEntity
  8
ZUWAKU
100
AcDbLine
 10
18.11721301553666
 20
22.72500025521683
 30
0.0
 11
18.11721301553666
 21
20.97500025521683
 31
0.0
  0
ARC
  5
8159
330
1A
100
AcDbEntity
  8
ZUWAKU
100
AcDbCircle
 10
24.9422130155367
 20
19.05000025521683
 30
0.0
 40
1.399999999999999
100
AcDbArc
 50
90.0
 51
180.0
  0
ARC
  5
815A
330
1A
100
AcDbEntity
  8
ZUWAKU
100
AcDbCircle
 10
24.9422130155367
 20
19.05000025521679
 30
0.0
 40
4.199999999999999
100
AcDbArc
 50
90.0
 51
180.0
  0
LINE
  5
815B
330
1A
100
AcDbEntity
  8
ZUWAKU
100
AcDbLine
 10
79.32663040874377
 20
30.00000025521683
 30
0.0
 11
79.32663040874399
 21
0.8000002552169007
 31
0.0
  0
LINE
  5
815C
330
1A
100
AcDbEntity
  8
ZUWAKU
100
AcDbLine
 10
79.52663040874381
 20
30.00000025521683
 30
0.0
 11
79.52663040874404
 21
0.8000002552169007
 31
0.0
  0
LINE
  5
815D
330
1A
100
AcDbEntity
  8
ZUWAKU
100
AcDbLine
 10
79.12663040874395
 20
30.00000025521683
 30
0.0
 11
79.12663040874395
 21
0.8000002552169007
 31
0.0
  0
LINE
  5
815E
330
1A
100
AcDbEntity
  8
ZUWAKU
100
AcDbLine
 10
64.14221301553675
 20
9.950000255216835
 30
0.0
 11
64.14221301553675
 21
22.72500025521683
 31
0.0
  0
LINE
  5
815F
330
1A
100
AcDbEntity
  8
ZUWAKU
100
AcDbLine
 10
61.34221301553669
 20
22.72500025521683
 30
0.0
 11
61.34221301553669
 21
11.00000025521683
 31
0.0
  0
LINE
  5
8160
330
1A
100
AcDbEntity
  8
ZUWAKU
100
AcDbLine
 10
69.04221301553673
 20
7.675000255216836
 30
0.0
 11
69.04221301553673
 21
22.72500025521683
 31
0.0
  0
LINE
  5
8161
330
1A
100
AcDbEntity
  8
ZUWAKU
100
AcDbLine
 10
66.24221301553666
 20
22.72500025521683
 30
0.0
 11
66.24221301553666
 21
7.675000255216836
 31
0.0
  0
ARC
  5
8162
330
1A
100
AcDbEntity
  8
ZUWAKU
100
AcDbCircle
 10
49.79221301553673
 20
18.63479822986153
 30
0.0
 40
1.399999999999999
100
AcDbArc
 50
180.0000000000016
 51
224.9999999999988
  0
ARC
  5
8163
330
1A
100
AcDbEntity
  8
ZUWAKU
100
AcDbCircle
 10
49.79221301553673
 20
18.63479822986153
 30
0.0
 40
4.199999999999999
100
AcDbArc
 50
180.0
 51
225.0
  0
LINE
  5
8164
330
1A
100
AcDbEntity
  8
ZUWAKU
100
AcDbLine
 10
37.31485949771467
 20
19.20504744878026
 30
0.0
 11
36.05010775237883
 21
15.20000025521685
 31
0.0
  0
LINE
  5
8165
330
1A
100
AcDbEntity
  8
ZUWAKU
100
AcDbLine
 10
40.6922130155367
 20
22.72500025521683
 30
0.0
 11
40.6922130155367
 21
7.675000255216836
 31
0.0
  0
LINE
  5
8166
330
1A
100
AcDbEntity
  8
ZUWAKU
100
AcDbLine
 10
43.49221301553666
 20
7.675000255216836
 30
0.0
 11
43.49221301553666
 21
22.72500025521683
 31
0.0
  0
LINE
  5
8167
330
1A
100
AcDbEntity
  8
ZUWAKU
100
AcDbLine
 10
55.04221301553673
 20
22.72500025521683
 30
0.0
 11
55.04221301553673
 21
9.950000255216835
 31
0.0
  0
LINE
  5
8168
330
1A
100
AcDbEntity
  8
ZUWAKU
100
AcDbLine
 10
57.84221301553668
 20
11.00000025521683
 30
0.0
 11
57.84221301553668
 21
22.72500025521683
 31
0.0
  0
LINE
  5
8169
330
1A
100
AcDbEntity
  8
ZUWAKU
100
AcDbLine
 10
32.64221301553675
 20
17.12500025521683
 30
0.0
 11
32.64221301553675
 21
22.72500025521683
 31
0.0
  0
LINE
  5
816A
330
1A
100
AcDbEntity
  8
ZUWAKU
100
AcDbLine
 10
29.84221301553668
 20
22.72500025521683
 30
0.0
 11
29.84221301553668
 21
7.675000255216836
 31
0.0
  0
LINE
  5
816B
330
1A
100
AcDbEntity
  8
ZUWAKU
100
AcDbLine
 10
35.67634795285255
 20
22.8830942233838
 30
0.0
 11
33.80807807822077
 21
16.96690628704986
 31
0.0
  0
LINE
  5
816C
330
1A
100
AcDbEntity
  8
ZUWAKU
100
AcDbLine
 10
60.29221301553673
 20
9.950000255216835
 30
0.0
 11
58.89221301553675
 21
9.950000255216835
 31
0.0
  0
LINE
  5
816D
330
1A
100
AcDbEntity
  8
ZUWAKU
100
AcDbLine
 10
57.84221301553668
 20
7.150000255216838
 30
0.0
 11
61.34221301553669
 21
7.150000255216838
 31
0.0
  0
LINE
  5
816E
330
1A
100
AcDbEntity
  8
ZUWAKU
100
AcDbLine
 10
41.21721301553669
 20
7.150000255216838
 30
0.0
 11
42.96721301553668
 21
7.150000255216838
 31
0.0
  0
LINE
  5
816F
330
1A
100
AcDbEntity
  8
ZUWAKU
100
AcDbLine
 10
35.67634795285255
 20
7.516906287049863
 30
0.0
 11
33.80807807822077
 21
13.4330942233838
 31
0.0
  0
ARC
  5
8170
330
1A
100
AcDbEntity
  8
ZUWAKU
100
AcDbCircle
 10
33.30744717902542
 20
17.12500025521683
 30
0.0
 40
0.525
100
AcDbArc
 50
270.0
 51
342.4744316262769
  0
LINE
  5
8171
330
1A
100
AcDbEntity
  8
ZUWAKU
100
AcDbLine
 10
33.30744717902542
 20
16.60000025521683
 30
0.0
 11
33.16721301553673
 21
16.60000025521683
 31
0.0
  0
LINE
  5
8172
330
1A
100
AcDbEntity
  8
ZUWAKU
100
AcDbLine
 10
33.16721301553673
 20
13.80000025521683
 30
0.0
 11
33.30744717902542
 21
13.80000025521683
 31
0.0
  0
ARC
  5
8173
330
1A
100
AcDbEntity
  8
ZUWAKU
100
AcDbCircle
 10
33.16721301553673
 20
17.12500025521683
 30
0.0
 40
0.525
100
AcDbArc
 50
180.0
 51
270.0
  0
LINE
  5
8174
330
1A
100
AcDbEntity
  8
ZUWAKU
100
AcDbLine
 10
30.36721301553666
 20
7.150000255216838
 30
0.0
 11
32.11721301553666
 21
7.150000255216838
 31
0.0
  0
ARC
  5
8175
330
1A
100
AcDbEntity
  8
ZUWAKU
100
AcDbCircle
 10
32.11721301553666
 20
7.675000255216836
 30
0.0
 40
0.525
100
AcDbArc
 50
270.0
 51
0.0
  0
LINE
  5
8176
330
1A
100
AcDbEntity
  8
ZUWAKU
100
AcDbLine
 10
32.64221301553675
 20
7.675000255216836
 30
0.0
 11
32.64221301553675
 21
13.27500025521684
 31
0.0
  0
LINE
  5
8177
330
1A
100
AcDbEntity
  8
ZUWAKU
100
AcDbLine
 10
27.39221301553675
 20
9.425000255216836
 30
0.0
 11
27.39221301553675
 21
7.675000255216836
 31
0.0
  0
ARC
  5
8178
330
1A
100
AcDbEntity
  8
ZUWAKU
100
AcDbCircle
 10
26.86721301553666
 20
7.675000255216836
 30
0.0
 40
0.525
100
AcDbArc
 50
270.0
 51
0.0
  0
ARC
  5
8179
330
1A
100
AcDbEntity
  8
ZUWAKU
100
AcDbCircle
 10
26.86721301553666
 20
9.425000255216836
 30
0.0
 40
0.525
100
AcDbArc
 50
0.0
 51
90.0
  0
ARC
  5
817A
330
1A
100
AcDbEntity
  8
ZUWAKU
100
AcDbCircle
 10
30.36721301553666
 20
7.675000255216836
 30
0.0
 40
0.525
100
AcDbArc
 50
180.0
 51
270.0
  0
ARC
  5
817B
330
1A
100
AcDbEntity
  8
ZUWAKU
100
AcDbCircle
 10
33.30744717902542
 20
13.27500025521684
 30
0.0
 40
0.525
100
AcDbArc
 50
17.52556837372303
 51
90.0
  0
ARC
  5
817C
330
1A
100
AcDbEntity
  8
ZUWAKU
100
AcDbCircle
 10
33.16721301553673
 20
13.27500025521684
 30
0.0
 40
0.525
100
AcDbArc
 50
90.0
 51
180.0
  0
ARC
  5
817D
330
1A
100
AcDbEntity
  8
ZUWAKU
100
AcDbCircle
 10
41.21721301553669
 20
7.675000255216836
 30
0.0
 40
0.525
100
AcDbArc
 50
180.0
 51
270.0
  0
LINE
  5
817E
330
1A
100
AcDbEntity
  8
ZUWAKU
100
AcDbLine
 10
36.17697885204802
 20
7.150000255216838
 30
0.0
 11
37.87586823165702
 21
7.150000255216838
 31
0.0
  0
ARC
  5
817F
330
1A
100
AcDbEntity
  8
ZUWAKU
100
AcDbCircle
 10
37.87586823165702
 20
7.675000255216836
 30
0.0
 40
0.525
100
AcDbArc
 50
270.0
 51
17.52556837372303
  0
LINE
  5
8180
330
1A
100
AcDbEntity
  8
ZUWAKU
100
AcDbLine
 10
38.37649913085249
 20
7.83309422338381
 30
0.0
 11
36.05010775237883
 21
15.20000025521685
 31
0.0
  0
ARC
  5
8181
330
1A
100
AcDbEntity
  8
ZUWAKU
100
AcDbCircle
 10
36.17697885204802
 20
7.675000255216836
 30
0.0
 40
0.525
100
AcDbArc
 50
197.525568373723
 51
270.0
  0
ARC
  5
8182
330
1A
100
AcDbEntity
  8
ZUWAKU
100
AcDbCircle
 10
57.84221301553668
 20
9.950000255216835
 30
0.0
 40
2.799999999999999
100
AcDbArc
 50
180.0
 51
270.0
  0
ARC
  5
8183
330
1A
100
AcDbEntity
  8
ZUWAKU
100
AcDbCircle
 10
50.14221301553675
 20
9.950000255216835
 30
0.0
 40
2.799999999999999
100
AcDbArc
 50
270.0
 51
0.0
  0
LINE
  5
8184
330
1A
100
AcDbEntity
  8
ZUWAKU
100
AcDbLine
 10
51.71206149652028
 20
14.73505076155566
 30
0.0
 11
48.80226352187548
 21
17.64484873620033
 31
0.0
  0
LINE
  5
8185
330
1A
100
AcDbEntity
  8
ZUWAKU
100
AcDbLine
 10
50.14221301553675
 20
10.47500025521684
 30
0.0
 11
50.14221301553675
 21
11.76520228057218
 31
0.0
  0
ARC
  5
8186
330
1A
100
AcDbEntity
  8
ZUWAKU
100
AcDbCircle
 10
48.74221301553666
 20
11.76520228057218
 30
0.0
 40
1.399999999999999
100
AcDbArc
 50
0.0
 51
45.0
  0
ARC
  5
8187
330
1A
100
AcDbEntity
  8
ZUWAKU
100
AcDbCircle
 10
49.61721301553666
 20
10.47500025521684
 30
0.0
 40
0.525
100
AcDbArc
 50
270.0
 51
0.0
  0
LINE
  5
8188
330
1A
100
AcDbEntity
  8
ZUWAKU
100
AcDbLine
 10
46.11721301553666
 20
7.675000255216836
 30
0.0
 11
46.11721301553666
 21
9.425000255216836
 31
0.0
  0
ARC
  5
8189
330
1A
100
AcDbEntity
  8
ZUWAKU
100
AcDbCircle
 10
46.64221301553675
 20
7.675000255216836
 30
0.0
 40
0.525
100
AcDbArc
 50
180.0
 51
270.0
  0
ARC
  5
818A
330
1A
100
AcDbEntity
  8
ZUWAKU
100
AcDbCircle
 10
42.96721301553668
 20
7.675000255216836
 30
0.0
 40
0.525
100
AcDbArc
 50
270.0
 51
0.0
  0
ARC
  5
818B
330
1A
100
AcDbEntity
  8
ZUWAKU
100
AcDbCircle
 10
46.64221301553675
 20
9.425000255216836
 30
0.0
 40
0.525
100
AcDbArc
 50
90.0
 51
180.0
  0
LINE
  5
818C
330
1A
100
AcDbEntity
  8
ZUWAKU
100
AcDbLine
 10
46.64221301553675
 20
9.950000255216835
 30
0.0
 11
49.61721301553666
 21
9.950000255216835
 31
0.0
  0
LINE
  5
818D
330
1A
100
AcDbEntity
  8
ZUWAKU
100
AcDbLine
 10
46.64221301553675
 20
7.150000255216838
 30
0.0
 11
50.14221301553675
 21
7.150000255216838
 31
0.0
  0
LINE
  5
818E
330
1A
100
AcDbEntity
  8
ZUWAKU
100
AcDbLine
 10
46.82236453455323
 20
15.66494974887801
 30
0.0
 11
49.7321625091979
 21
12.75515177423335
 31
0.0
  0
LINE
  5
818F
330
1A
100
AcDbEntity
  8
ZUWAKU
100
AcDbLine
 10
52.94221301553671
 20
9.950000255216835
 30
0.0
 11
52.94221301553671
 21
11.76520228057218
 31
0.0
  0
ARC
  5
8190
330
1A
100
AcDbEntity
  8
ZUWAKU
100
AcDbCircle
 10
48.74221301553666
 20
11.76520228057214
 30
0.0
 40
4.199999999999999
100
AcDbArc
 50
0.0
 51
45.0
  0
ARC
  5
8191
330
1A
100
AcDbEntity
  8
ZUWAKU
100
AcDbCircle
 10
58.89221301553675
 20
11.00000025521683
 30
0.0
 40
1.049999999999999
100
AcDbArc
 50
180.0
 51
270.0
  0
ARC
  5
8192
330
1A
100
AcDbEntity
  8
ZUWAKU
100
AcDbCircle
 10
61.34221301553669
 20
9.950000255216835
 30
0.0
 40
2.799999999999999
100
AcDbArc
 50
270.0
 51
0.0
  0
LINE
  5
8193
330
1A
100
AcDbEntity
  8
ZUWAKU
100
AcDbLine
 10
66.76721301553675
 20
7.150000255216838
 30
0.0
 11
68.51721301553675
 21
7.150000255216838
 31
0.0
  0
ARC
  5
8194
330
1A
100
AcDbEntity
  8
ZUWAKU
100
AcDbCircle
 10
66.76721301553675
 20
7.675000255216836
 30
0.0
 40
0.525
100
AcDbArc
 50
180.0
 51
270.0
  0
ARC
  5
8195
330
1A
100
AcDbEntity
  8
ZUWAKU
100
AcDbCircle
 10
60.29221301553673
 20
11.00000025521683
 30
0.0
 40
1.049999999999999
100
AcDbArc
 50
270.0
 51
0.0
  0
ARC
  5
8196
330
1A
100
AcDbEntity
  8
ZUWAKU
100
AcDbCircle
 10
68.51721301553675
 20
7.675000255216836
 30
0.0
 40
0.525
100
AcDbArc
 50
270.0
 51
0.0
  0
LINE
  5
8197
330
1A
100
AcDbEntity
  8
ZUWAKU
100
AcDbLine
 10
42.96721301553668
 20
23.25000025521684
 30
0.0
 11
41.21721301553669
 21
23.25000025521684
 31
0.0
  0
ARC
  5
8198
330
1A
100
AcDbEntity
  8
ZUWAKU
100
AcDbCircle
 10
32.11721301553666
 20
22.72500025521683
 30
0.0
 40
0.525
100
AcDbArc
 50
0.0
 51
90.0
  0
LINE
  5
8199
330
1A
100
AcDbEntity
  8
ZUWAKU
100
AcDbLine
 10
32.11721301553666
 20
23.25000025521684
 30
0.0
 11
30.36721301553666
 21
23.25000025521684
 31
0.0
  0
ARC
  5
819A
330
1A
100
AcDbEntity
  8
ZUWAKU
100
AcDbCircle
 10
26.86721301553666
 20
22.72500025521683
 30
0.0
 40
0.525
100
AcDbArc
 50
0.0
 51
90.0
  0
ARC
  5
819B
330
1A
100
AcDbEntity
  8
ZUWAKU
100
AcDbCircle
 10
30.36721301553666
 20
22.72500025521683
 30
0.0
 40
0.525
100
AcDbArc
 50
90.0
 51
180.0
  0
ARC
  5
819C
330
1A
100
AcDbEntity
  8
ZUWAKU
100
AcDbCircle
 10
26.86721301553666
 20
20.97500025521683
 30
0.0
 40
0.525
100
AcDbArc
 50
270.0
 51
0.0
  0
LINE
  5
819D
330
1A
100
AcDbEntity
  8
ZUWAKU
100
AcDbLine
 10
27.39221301553675
 20
22.72500025521683
 30
0.0
 11
27.39221301553675
 21
20.97500025521683
 31
0.0
  0
ARC
  5
819E
330
1A
100
AcDbEntity
  8
ZUWAKU
100
AcDbCircle
 10
41.21721301553669
 20
22.72500025521683
 30
0.0
 40
0.525
100
AcDbArc
 50
90.0
 51
180.0
  0
LINE
  5
819F
330
1A
100
AcDbEntity
  8
ZUWAKU
100
AcDbLine
 10
36.17697885204802
 20
23.25000025521684
 30
0.0
 11
37.87586823165702
 21
23.25000025521684
 31
0.0
  0
ARC
  5
81A0
330
1A
100
AcDbEntity
  8
ZUWAKU
100
AcDbCircle
 10
37.87586823165702
 20
22.72500025521683
 30
0.0
 40
0.525
100
AcDbArc
 50
342.4744316262769
 51
90.0
  0
LINE
  5
81A1
330
1A
100
AcDbEntity
  8
ZUWAKU
100
AcDbLine
 10
38.37649913085249
 20
22.56690628704987
 30
0.0
 11
37.31485949771467
 21
19.20504744878026
 31
0.0
  0
ARC
  5
81A2
330
1A
100
AcDbEntity
  8
ZUWAKU
100
AcDbCircle
 10
36.17697885204802
 20
22.72500025521683
 30
0.0
 40
0.525
100
AcDbArc
 50
90.0
 51
162.4744316262769
  0
LINE
  5
81A3
330
1A
100
AcDbEntity
  8
ZUWAKU
100
AcDbLine
 10
48.39221301553675
 20
23.25000025521684
 30
0.0
 11
51.89221301553676
 21
23.25000025521684
 31
0.0
  0
LINE
  5
81A4
330
1A
100
AcDbEntity
  8
ZUWAKU
100
AcDbLine
 10
51.89221301553676
 20
20.45000025521683
 30
0.0
 11
48.91721301553673
 21
20.45000025521683
 31
0.0
  0
ARC
  5
81A5
330
1A
100
AcDbEntity
  8
ZUWAKU
100
AcDbCircle
 10
48.91721301553673
 20
19.92500025521683
 30
0.0
 40
0.525
100
AcDbArc
 50
90.0
 51
180.0
  0
LINE
  5
81A6
330
1A
100
AcDbEntity
  8
ZUWAKU
100
AcDbLine
 10
48.39221301553675
 20
19.92500025521683
 30
0.0
 11
48.39221301553675
 21
18.63479822986149
 31
0.0
  0
ARC
  5
81A7
330
1A
100
AcDbEntity
  8
ZUWAKU
100
AcDbCircle
 10
42.96721301553668
 20
22.72500025521683
 30
0.0
 40
0.525
100
AcDbArc
 50
0.0
 51
90.0
  0
LINE
  5
81A8
330
1A
100
AcDbEntity
  8
ZUWAKU
100
AcDbLine
 10
45.59221301553669
 20
20.45000025521683
 30
0.0
 11
45.59221301553669
 21
18.63479822986149
 31
0.0
  0
ARC
  5
81A9
330
1A
100
AcDbEntity
  8
ZUWAKU
100
AcDbCircle
 10
48.39221301553675
 20
20.45000025521683
 30
0.0
 40
2.799999999999999
100
AcDbArc
 50
90.0
 51
180.0
  0
ARC
  5
81AA
330
1A
100
AcDbEntity
  8
ZUWAKU
100
AcDbCircle
 10
57.31721301553671
 20
22.72500025521683
 30
0.0
 40
0.525
100
AcDbArc
 50
0.0
 51
90.0
  0
ARC
  5
81AB
330
1A
100
AcDbEntity
  8
ZUWAKU
100
AcDbCircle
 10
55.56721301553671
 20
22.72500025521683
 30
0.0
 40
0.525
100
AcDbArc
 50
90.0
 51
180.0
  0
LINE
  5
81AC
330
1A
100
AcDbEntity
  8
ZUWAKU
100
AcDbLine
 10
57.31721301553671
 20
23.25000025521684
 30
0.0
 11
55.56721301553671
 21
23.25000025521684
 31
0.0
  0
ARC
  5
81AD
330
1A
100
AcDbEntity
  8
ZUWAKU
100
AcDbCircle
 10
51.89221301553676
 20
22.72500025521683
 30
0.0
 40
0.525
100
AcDbArc
 50
0.0
 51
90.0
  0
ARC
  5
81AE
330
1A
100
AcDbEntity
  8
ZUWAKU
100
AcDbCircle
 10
51.89221301553676
 20
20.97500025521683
 30
0.0
 40
0.525
100
AcDbArc
 50
270.0
 51
0.0
  0
LINE
  5
81AF
330
1A
100
AcDbEntity
  8
ZUWAKU
100
AcDbLine
 10
52.41721301553673
 20
22.72500025521683
 30
0.0
 11
52.41721301553673
 21
20.97500025521683
 31
0.0
  0
LINE
  5
81B0
330
1A
100
AcDbEntity
  8
ZUWAKU
100
AcDbLine
 10
68.51721301553675
 20
23.25000025521684
 30
0.0
 11
66.76721301553675
 21
23.25000025521684
 31
0.0
  0
ARC
  5
81B1
330
1A
100
AcDbEntity
  8
ZUWAKU
100
AcDbCircle
 10
66.76721301553675
 20
22.72500025521683
 30
0.0
 40
0.525
100
AcDbArc
 50
90.0
 51
180.0
  0
ARC
  5
81B2
330
1A
100
AcDbEntity
  8
ZUWAKU
100
AcDbCircle
 10
63.61721301553666
 20
22.72500025521683
 30
0.0
 40
0.525
100
AcDbArc
 50
0.0
 51
90.0
  0
LINE
  5
81B3
330
1A
100
AcDbEntity
  8
ZUWAKU
100
AcDbLine
 10
63.61721301553666
 20
23.25000025521684
 30
0.0
 11
61.86721301553666
 21
23.25000025521684
 31
0.0
  0
ARC
  5
81B4
330
1A
100
AcDbEntity
  8
ZUWAKU
100
AcDbCircle
 10
61.86721301553666
 20
22.72500025521683
 30
0.0
 40
0.525
100
AcDbArc
 50
90.0
 51
180.0
  0
ARC
  5
81B5
330
1A
100
AcDbEntity
  8
ZUWAKU
100
AcDbCircle
 10
68.51721301553675
 20
22.72500025521683
 30
0.0
 40
0.525
100
AcDbArc
 50
0.0
 51
90.0
  0
TEXT
  5
81B6
330
1A
100
AcDbEntity
  8
MOJI
100
AcDbText
 10
239.8272035416066
 20
3.204921312624254
 30
0.0
 40
5.599999999999999
  1
ＲＶ１０５－６－１０
 41
0.9
  7
ｽﾀｲﾙ1
100
AcDbText
  0
TEXT
  5
81B7
330
1A
100
AcDbEntity
  8
MOJI
100
AcDbText
 10
239.8272035416066
 20
18.00492131262421
 30
0.0
 40
5.599999999999999
  1
ブラケット正面打（吊）固定式
 41
0.9
  7
ｽﾀｲﾙ1
100
AcDbText
  0
LINE
  5
81B8
330
1A
100
AcDbEntity
  8
ZUWAKU
100
AcDbLine
 10
208.2466021508234
 20
30.00000025521683
 30
0.0
 11
208.2466021508234
 21
0.8000002552169007
 31
0.0
  0
LINE
  5
81B9
330
1A
100
AcDbEntity
  8
ZUWAKU
100
AcDbLine
 10
208.6466021508233
 20
30.00000025521683
 30
0.0
 11
208.6466021508235
 21
0.8000002552169007
 31
0.0
  0
LINE
  5
81BA
330
1A
100
AcDbEntity
  8
ZUWAKU
100
AcDbLine
 10
208.4466021508233
 20
30.00000025521683
 30
0.0
 11
208.4466021508235
 21
0.8000002552169007
 31
0.0
  0
TEXT
  5
81BB
330
1A
100
AcDbEntity
  8
ZUWAKU
100
AcDbText
 10
209.7240471730331
 20
9.65535679360245
 30
0.0
 40
4.0
  1
サイズ
 41
0.9
  7
ｽﾀｲﾙ1
100
AcDbText
  0
TEXT
  5
81BC
330
1A
100
AcDbEntity
  8
ZUWAKU
100
AcDbText
 10
209.7240471730328
 20
24.05535679360241
 30
0.0
 40
4.0
  1
品名
 41
0.9
  7
ｽﾀｲﾙ1
100
AcDbText
  0
LINE
  5
81BD
330
1A
100
AcDbEntity
  8
ZUWAKU
100
AcDbLine
 10
648.8172033709597
 20
15.20000025521686
 30
0.0
 11
697.2490114092968
 21
15.20000025521686
 31
0.0
  0
LINE
  5
81BE
330
1A
100
AcDbEntity
  8
ZUWAKU
100
AcDbLine
 10
648.81720337096
 20
15.40000025521687
 30
0.0
 11
697.2490114092968
 21
15.40000025521686
 31
0.0
  0
LINE
  5
81BF
330
1A
100
AcDbEntity
  8
ZUWAKU
100
AcDbLine
 10
648.8172033709597
 20
15.60000025521686
 30
0.0
 11
697.2490114092968
 21
15.60000025521686
 31
0.0
  0
TEXT
  5
81C0
330
1A
100
AcDbEntity
  8
ZUWAKU
100
AcDbText
 10
658.2039385480579
 20
18.00492131262421
 30
0.0
 40
5.599999999999999
  1
　　．　　．　　
 41
0.9
  7
ｽﾀｲﾙ1
100
AcDbText
  0
LINE
  5
81C1
330
1A
100
AcDbEntity
  8
ZUWAKU
100
AcDbLine
 10
505.1991803588964
 20
15.20000025521687
 30
0.0
 11
552.526956626868
 21
15.20000025521687
 31
0.0
  0
LINE
  5
81C2
330
1A
100
AcDbEntity
  8
ZUWAKU
100
AcDbLine
 10
505.1991803588964
 20
15.40000025521686
 30
0.0
 11
552.526956626868
 21
15.40000025521686
 31
0.0
  0
LINE
  5
81C3
330
1A
100
AcDbEntity
  8
ZUWAKU
100
AcDbLine
 10
505.1991803588964
 20
15.60000025521686
 30
0.0
 11
552.526956626868
 21
15.60000025521686
 31
0.0
  0
TEXT
  5
81C4
330
1A
100
AcDbEntity
  8
MOJI
100
AcDbText
 10
464.5946268639945
 20
11.94261797687681
 30
0.0
 40
5.599999999999999
  1
ＬＪ９８□
 41
0.9
  7
ｽﾀｲﾙ1
100
AcDbText
  0
LINE
  5
81C5
330
1A
100
AcDbEntity
  8
ZUWAKU
100
AcDbLine
 10
447.6243648317468
 20
30.00000025521683
 30
0.0
 11
447.624364831747
 21
0.8000002552169007
 31
0.0
  0
LINE
  5
81C6
330
1A
100
AcDbEntity
  8
ZUWAKU
100
AcDbLine
 10
447.8243648317468
 20
30.00000025521683
 30
0.0
 11
447.824364831747
 21
0.8000002552169007
 31
0.0
  0
LINE
  5
81C7
330
1A
100
AcDbEntity
  8
ZUWAKU
100
AcDbLine
 10
447.4243648317469
 20
30.00000025521683
 30
0.0
 11
447.4243648317469
 21
0.8000002552169007
 31
0.0
  0
TEXT
  5
81C8
330
1A
100
AcDbEntity
  8
MOJI
100
AcDbText
 10
528.0409088330684
 20
18.00492131262421
 30
0.0
 40
5.599999999999999
  1
Ａ３
 41
0.9
  7
ｽﾀｲﾙ1
100
AcDbText
  0
LINE
  5
81C9
330
1A
100
AcDbEntity
  8
ZUWAKU
100
AcDbLine
 10
504.9991803588964
 20
30.00000025521683
 30
0.0
 11
504.9991803588966
 21
0.8000002552169007
 31
0.0
  0
LINE
  5
81CA
330
1A
100
AcDbEntity
  8
ZUWAKU
100
AcDbLine
 10
505.1991803588964
 20
30.00000025521683
 30
0.0
 11
505.1991803588967
 21
0.8000002552169007
 31
0.0
  0
LINE
  5
81CB
330
1A
100
AcDbEntity
  8
ZUWAKU
100
AcDbLine
 10
504.7991803588965
 20
30.00000025521683
 30
0.0
 11
504.7991803588965
 21
0.8000002552169007
 31
0.0
  0
TEXT
  5
81CC
330
1A
100
AcDbEntity
  8
ZUWAKU
100
AcDbText
 10
462.6937625162627
 20
2.614071166356325
 30
0.0
 40
3.0
  1
□には色品番が入ります
 41
0.9
  7
ｽﾀｲﾙ1
100
AcDbText
  0
TEXT
  5
81CD
330
1A
100
AcDbEntity
  8
ZUWAKU
100
AcDbText
 10
506.6766253811063
 20
9.65535679360245
 30
0.0
 40
4.0
  1
縮尺
 41
0.9
  7
ｽﾀｲﾙ1
100
AcDbText
  0
TEXT
  5
81CE
330
1A
100
AcDbEntity
  8
MOJI
100
AcDbText
 10
528.0409088330684
 20
3.204921312624254
 30
0.0
 40
5.599999999999999
  1
１/２
 41
0.9
  7
ｽﾀｲﾙ1
100
AcDbText
  0
TEXT
  5
81CF
330
1A
100
AcDbEntity
  8
ZUWAKU
100
AcDbText
 10
449.3018098539564
 20
24.05535679360241
 30
0.0
 40
4.0
  1
品番
 41
0.9
  7
ｽﾀｲﾙ1
100
AcDbText
  0
TEXT
  5
81D0
330
1A
100
AcDbEntity
  8
ZUWAKU
100
AcDbText
 10
506.676625381106
 20
24.05535679360241
 30
0.0
 40
4.0
  1
用紙
 41
0.9
  7
ｽﾀｲﾙ1
100
AcDbText
  0
LINE
  5
81D1
330
1A
100
AcDbEntity
  8
ZUWAKU
100
AcDbLine
 10
648.6172033709599
 20
30.00000025521683
 30
0.0
 11
648.6172033709602
 21
0.8000002552169007
 31
0.0
  0
LINE
  5
81D2
330
1A
100
AcDbEntity
  8
ZUWAKU
100
AcDbLine
 10
648.81720337096
 20
30.00000025521683
 30
0.0
 11
648.8172033709602
 21
0.8000002552169007
 31
0.0
  0
LINE
  5
81D3
330
1A
100
AcDbEntity
  8
ZUWAKU
100
AcDbLine
 10
648.4172033709601
 20
30.00000025521683
 30
0.0
 11
648.4172033709601
 21
0.8000002552169007
 31
0.0
  0
LINE
  5
81D4
330
1A
100
AcDbEntity
  8
ZUWAKU
100
AcDbLine
 10
552.7269566268678
 20
30.00000025521683
 30
0.0
 11
552.726956626868
 21
0.8000002552169007
 31
0.0
  0
LINE
  5
81D5
330
1A
100
AcDbEntity
  8
ZUWAKU
100
AcDbLine
 10
552.9269566268679
 20
30.00000025521683
 30
0.0
 11
552.9269566268681
 21
0.8000002552169007
 31
0.0
  0
LINE
  5
81D6
330
1A
100
AcDbEntity
  8
ZUWAKU
100
AcDbLine
 10
552.526956626868
 20
30.00000025521683
 30
0.0
 11
552.526956626868
 21
0.8000002552169007
 31
0.0
  0
TEXT
  5
81D7
330
1A
100
AcDbEntity
  8
ZUWAKU
100
AcDbText
 10
650.2946483931696
 20
24.05535679360241
 30
0.0
 40
4.0
  1
DATE
 41
0.9
  7
ｽﾀｲﾙ1
100
AcDbText
  0
LINE
  5
81D8
330
1A
100
AcDbEntity
  8
ZUWAKU
100
AcDbLine
 10
697.2490114092968
 20
30.00000025521683
 30
0.0
 11
697.2490114092968
 21
0.8000002552169007
 31
0.0
  0
LINE
  5
81D9
330
1A
100
AcDbEntity
  8
ZUWAKU
100
AcDbLine
 10
697.4490114092969
 20
30.00000025521683
 30
0.0
 11
697.4490114092969
 21
0.8000002552169007
 31
0.0
  0
LINE
  5
81DA
330
1A
100
AcDbEntity
  8
ZUWAKU
100
AcDbLine
 10
697.6490114092967
 20
30.00000025521683
 30
0.0
 11
697.6490114092968
 21
0.8000002552169007
 31
0.0
  0
LINE
  5
81DB
330
1A
100
AcDbEntity
  8
ZUWAKU
100
AcDbLine
 10
697.8490114092967
 20
30.00000025521683
 30
0.0
 11
697.8490114092969
 21
0.8000002552169007
 31
0.0
  0
TEXT
  5
81DC
330
1A
100
AcDbEntity
  8
ZUWAKU
100
AcDbText
 10
708.5280850529994
 20
17.55383959090363
 30
0.0
 40
6.0
  1
積水化学工業株式会社
 41
0.9
  7
ｽﾀｲﾙ1
100
AcDbText
  0
TEXT
  5
81DD
330
1A
100
AcDbEntity
  8
ZUWAKU
100
AcDbText
 10
708.5280850529994
 20
6.648840569070898
 30
0.0
 40
6.0
  1
建材事業部
 41
0.9
  7
ｽﾀｲﾙ1
100
AcDbText
  0
VIEWPORT
  5
22
330
17
100
AcDbEntity
 67
     1
  8
0
100
AcDbViewport
 10
313.6808219178082
 20
148.5
 30
0.0
 40
627.3616438356165
 41
297.0
 68
     2
 69
     1
1001
ACAD
1000
MVIEW
1002
{
1070
    16
1010
0.0
1020
0.0
1030
0.0
1010
0.0
1020
0.0
1030
1.0
1040
0.0
1040
297.0
1040
313.6808219178082
1040
148.5
1040
50.0
1040
0.0
1040
0.0
1070
     0
1070
   100
1070
     1
1070
     0
1070
     0
1070
     0
1070
     0
1070
     0
1040
0.0
1040
0.0
1040
0.0
1040
1.0
1040
1.0
1040
10.0
1040
10.0
1070
     0
1002
{
1002
}
1002
}
  0
VIEWPORT
  5
64
330
17
100
AcDbEntity
 67
     1
  8
VIEWPORT
100
AcDbViewport
 10
210.0
 20
148.5
 30
0.0
 40
420.0
 41
297.0
 68
     1
 69
     2
1001
ACAD
1000
MVIEW
1002
{
1070
    16
1010
0.0
1020
0.0
1030
0.0
1010
0.0
1020
0.0
1030
1.0
1040
0.0
1040
605.8799999999998
1040
420.0
1040
297.0
1040
50.0
1040
0.0
1040
0.0
1070
     0
1070
   100
1070
     1
1070
     0
1070
     0
1070
     0
1070
     0
1070
     0
1040
0.0
1040
0.0
1040
0.0
1040
10.0
1040
10.0
1040
0.0
1040
0.0
1070
     0
1002
{
1002
}
1002
}
  0
ENDSEC
  0
SECTION
  2
OBJECTS
  0
DICTIONARY
  5
C
330
0
100
AcDbDictionary
  3
ACAD_GROUP
350
D
  3
ACAD_LAYOUT
350
911
  3
ACAD_MLINESTYLE
350
E
  3
ACAD_PLOTSETTINGS
350
912
  3
ACAD_PLOTSTYLENAME
350
90F
  3
ACDBHEADERROUNDTRIPXREC
350
82A3
  0
DICTIONARY
  5
94A
330
1A
100
AcDbDictionary
280
     1
  3
ACAD_LAYOUTSELFREF
360
82C5
  0
DICTIONARY
  5
948
330
17
100
AcDbDictionary
280
     1
  3
ACAD_LAYOUTSELFREF
360
82C4
  0
DICTIONARY
  5
D
102
{ACAD_REACTORS
330
C
102
}
330
C
100
AcDbDictionary
  0
DICTIONARY
  5
911
102
{ACAD_REACTORS
330
C
102
}
330
C
100
AcDbDictionary
  0
DICTIONARY
  5
E
102
{ACAD_REACTORS
330
C
102
}
330
C
100
AcDbDictionary
  3
STANDARD
350
13
  0
DICTIONARY
  5
912
102
{ACAD_REACTORS
330
C
102
}
330
C
100
AcDbDictionary
  0
ACDBDICTIONARYWDFLT
  5
90F
102
{ACAD_REACTORS
330
C
102
}
330
C
100
AcDbDictionary
281
     1
  3
Normal
350
910
100
AcDbDictionaryWithDefault
340
910
1001
ACAD
1000
TREAT_AS_HARD
1070
     0
1000
TREAT_AS_HARD
1070
     0
1000
TREAT_AS_HARD
1070
     0
1000
TREAT_AS_HARD
1070
     0
1000
TREAT_AS_HARD
1070
     0
1000
TREAT_AS_HARD
1070
     0
1000
TREAT_AS_HARD
1070
     0
1000
TREAT_AS_HARD
1070
     0
1000
TREAT_AS_HARD
1070
     0
1000
TREAT_AS_HARD
1070
     0
1000
TREAT_AS_HARD
1070
     0
1000
TREAT_AS_HARD
1070
     0
1000
TREAT_AS_HARD
1070
     0
1000
TREAT_AS_HARD
1070
     0
1000
TREAT_AS_HARD
1070
     0
1000
TREAT_AS_HARD
1070
     0
1000
TREAT_AS_HARD
1070
     0
  0
DICTIONARY
  5
82A3
102
{ACAD_REACTORS
330
C
102
}
330
C
100
AcDbDictionary
  3
TSTACKALIGN
350
82A4
  3
TSTACKSIZE
350
82A5
  3
HYPERLINKBASE
350
82A6
  3
STYLESHEET
350
82A7
  3
LAYOUTDICT
350
82A8
  3
PLOTSETDICT
350
82A9
  3
PLOTSTYLNAMDICT
350
82AA
  3
LWETCUNION
350
82AB
  3
INSUNITS
350
82AC
  3
CEPSNTYPE
350
82AD
  3
FINGERPRINTGUID
350
82AE
  3
VERSIONGUID
350
82AF
  3
PSVPSCALE
350
82B0
  3
DIMSTYLEDATA
350
82B1
  3
PUCSORTHOREF
350
82B2
  3
PUCSORTHOVIEW
350
82B3
  3
PUCSBASE
350
82B4
  3
PUCSORGTOP
350
82B5
  3
PUCSORGBOTTOM
350
82B6
  3
PUCSORGLEFT
350
82B7
  3
PUCSORGRIGHT
350
82B8
  3
PUCSORGFRONT
350
82B9
  3
PUCSORGBACK
350
82BA
  3
UCSORTHOREF
350
82BB
  3
UCSORTHOVIEW
350
82BC
  3
UCSBASE
350
82BD
  3
UCSORGTOP
350
82BE
  3
UCSORGBOTTOM
350
82BF
  3
UCSORGLEFT
350
82C0
  3
UCSORGRIGHT
350
82C1
  3
UCSORGFRONT
350
82C2
  3
UCSORGBACK
350
82C3
  0
XRECORD
  5
82C5
102
{ACAD_REACTORS
330
94A
102
}
330
94A
100
AcDbXrecord
340
1A
  0
XRECORD
  5
82C4
102
{ACAD_REACTORS
330
948
102
}
330
948
100
AcDbXrecord
340
17
  0
MLINESTYLE
  5
13
102
{ACAD_REACTORS
330
E
102
}
330
E
100
AcDbMlineStyle
  2
STANDARD
 70
     0
  3

 62
     0
 51
90.0
 52
90.0
 71
     2
 49
0.5
 62
   256
  6
BYLAYER
 49
-0.5
 62
   256
  6
BYLAYER
  0
ACDBPLACEHOLDER
  5
910
102
{ACAD_REACTORS
330
90F
102
}
330
90F
100
AcDbPlaceHolder
280
     0
  0
XRECORD
  5
82A4
102
{ACAD_REACTORS
330
82A3
102
}
330
82A3
100
AcDbXrecord
 90
        1
  0
XRECORD
  5
82A5
102
{ACAD_REACTORS
330
82A3
102
}
330
82A3
100
AcDbXrecord
 90
       70
  0
XRECORD
  5
82A6
102
{ACAD_REACTORS
330
82A3
102
}
330
82A3
100
AcDbXrecord
  1

  0
XRECORD
  5
82A7
102
{ACAD_REACTORS
330
82A3
102
}
330
82A3
100
AcDbXrecord
  1
systemprinter.ctb
  0
XRECORD
  5
82A8
102
{ACAD_REACTORS
330
82A3
102
}
330
82A3
100
AcDbXrecord
340
911
  0
XRECORD
  5
82A9
102
{ACAD_REACTORS
330
82A3
102
}
330
82A3
100
AcDbXrecord
340
912
  0
XRECORD
  5
82AA
102
{ACAD_REACTORS
330
82A3
102
}
330
82A3
100
AcDbXrecord
340
90F
  0
XRECORD
  5
82AB
102
{ACAD_REACTORS
330
82A3
102
}
330
82A3
100
AcDbXrecord
 90
    10781
  0
XRECORD
  5
82AC
102
{ACAD_REACTORS
330
82A3
102
}
330
82A3
100
AcDbXrecord
 90
        0
  0
XRECORD
  5
82AD
102
{ACAD_REACTORS
330
82A3
102
}
330
82A3
100
AcDbXrecord
 90
        0
  0
XRECORD
  5
82AE
102
{ACAD_REACTORS
330
82A3
102
}
330
82A3
100
AcDbXrecord
  1
{E41105DB-D30E-11D3-932C-444553540000}
  0
XRECORD
  5
82AF
102
{ACAD_REACTORS
330
82A3
102
}
330
82A3
100
AcDbXrecord
  1
{792D98A2-96BA-4CD0-B5B5-25544A30AAAF}
  0
XRECORD
  5
82B0
102
{ACAD_REACTORS
330
82A3
102
}
330
82A3
100
AcDbXrecord
 40
0.0
  0
XRECORD
  5
82B1
102
{ACAD_REACTORS
330
82A3
102
}
330
82A3
100
AcDbXrecord
1000
DSTYLE
1002
{
1070
   341
340
6D
1070
   343
340
6D
1070
   344
340
6D
1070
   371
 70
    -1
1070
   372
 70
    -1
1002
}
  0
XRECORD
  5
82B2
102
{ACAD_REACTORS
330
82A3
102
}
330
82A3
100
AcDbXrecord
340
0
  0
XRECORD
  5
82B3
102
{ACAD_REACTORS
330
82A3
102
}
330
82A3
100
AcDbXrecord
 70
     0
  0
XRECORD
  5
82B4
102
{ACAD_REACTORS
330
82A3
102
}
330
82A3
100
AcDbXrecord
340
0
  0
XRECORD
  5
82B5
102
{ACAD_REACTORS
330
82A3
102
}
330
82A3
100
AcDbXrecord
 10
0.0
 20
0.0
 30
0.0
  0
XRECORD
  5
82B6
102
{ACAD_REACTORS
330
82A3
102
}
330
82A3
100
AcDbXrecord
 10
0.0
 20
0.0
 30
0.0
  0
XRECORD
  5
82B7
102
{ACAD_REACTORS
330
82A3
102
}
330
82A3
100
AcDbXrecord
 10
0.0
 20
0.0
 30
0.0
  0
XRECORD
  5
82B8
102
{ACAD_REACTORS
330
82A3
102
}
330
82A3
100
AcDbXrecord
 10
0.0
 20
0.0
 30
0.0
  0
XRECORD
  5
82B9
102
{ACAD_REACTORS
330
82A3
102
}
330
82A3
100
AcDbXrecord
 10
0.0
 20
0.0
 30
0.0
  0
XRECORD
  5
82BA
102
{ACAD_REACTORS
330
82A3
102
}
330
82A3
100
AcDbXrecord
 10
0.0
 20
0.0
 30
0.0
  0
XRECORD
  5
82BB
102
{ACAD_REACTORS
330
82A3
102
}
330
82A3
100
AcDbXrecord
340
0
  0
XRECORD
  5
82BC
102
{ACAD_REACTORS
330
82A3
102
}
330
82A3
100
AcDbXrecord
 70
     0
  0
XRECORD
  5
82BD
102
{ACAD_REACTORS
330
82A3
102
}
330
82A3
100
AcDbXrecord
340
0
  0
XRECORD
  5
82BE
102
{ACAD_REACTORS
330
82A3
102
}
330
82A3
100
AcDbXrecord
 10
0.0
 20
0.0
 30
0.0
  0
XRECORD
  5
82BF
102
{ACAD_REACTORS
330
82A3
102
}
330
82A3
100
AcDbXrecord
 10
0.0
 20
0.0
 30
0.0
  0
XRECORD
  5
82C0
102
{ACAD_REACTORS
330
82A3
102
}
330
82A3
100
AcDbXrecord
 10
0.0
 20
0.0
 30
0.0
  0
XRECORD
  5
82C1
102
{ACAD_REACTORS
330
82A3
102
}
330
82A3
100
AcDbXrecord
 10
0.0
 20
0.0
 30
0.0
  0
XRECORD
  5
82C2
102
{ACAD_REACTORS
330
82A3
102
}
330
82A3
100
AcDbXrecord
 10
0.0
 20
0.0
 30
0.0
  0
XRECORD
  5
82C3
102
{ACAD_REACTORS
330
82A3
102
}
330
82A3
100
AcDbXrecord
 10
0.0
 20
0.0
 30
0.0
  0
ENDSEC
  0
EOF
