  0
SECTION
  2
HEADER
  9
$ACADVER
  1
AC1015
  9
$ACADMAINTVER
 70
     6
  9
$DWGCODEPAGE
  3
ANSI_932
  9
$INSBASE
 10
0.0
 20
0.0
 30
0.0
  9
$EXTMIN
 10
-0.0000004828989404
 20
-0.0000000386436341
 30
0.0
  9
$EXTMAX
 10
398.7999995171011
 20
275.7999999613564
 30
0.0
  9
$LIMMIN
 10
0.0
 20
0.0
  9
$LIMMAX
 10
420.0
 20
297.0
  9
$ORTHOMODE
 70
     1
  9
$REGENMODE
 70
     1
  9
$FILLMODE
 70
     1
  9
$QTEXTMODE
 70
     0
  9
$MIRRTEXT
 70
     1
  9
$LTSCALE
 40
1.0
  9
$ATTMODE
 70
     1
  9
$TEXTSIZE
 40
2.5
  9
$TRACEWID
 40
1.0
  9
$TEXTSTYLE
  7
STANDARD
  9
$CLAYER
  8
SUNPOU
  9
$CELTYPE
  6
BYLAYER
  9
$CECOLOR
 62
   256
  9
$CELTSCALE
 40
1.0
  9
$DISPSILH
 70
     0
  9
$DIMSCALE
 40
1.0
  9
$DIMASZ
 40
3.0
  9
$DIMEXO
 40
3.0
  9
$DIMDLI
 40
7.0
  9
$DIMRND
 40
0.0
  9
$DIMDLE
 40
0.0
  9
$DIMEXE
 40
1.5
  9
$DIMTP
 40
0.0
  9
$DIMTM
 40
0.0
  9
$DIMTXT
 40
3.0
  9
$DIMCEN
 40
150.0
  9
$DIMTSZ
 40
0.0
  9
$DIMTOL
 70
     0
  9
$DIMLIM
 70
     0
  9
$DIMTIH
 70
     0
  9
$DIMTOH
 70
     0
  9
$DIMSE1
 70
     0
  9
$DIMSE2
 70
     0
  9
$DIMTAD
 70
     3
  9
$DIMZIN
 70
     0
  9
$DIMBLK
  1

  9
$DIMASO
 70
     1
  9
$DIMSHO
 70
     1
  9
$DIMPOST
  1

  9
$DIMAPOST
  1

  9
$DIMALT
 70
     0
  9
$DIMALTD
 70
     2
  9
$DIMALTF
 40
25.4
  9
$DIMLFAC
 40
1.0
  9
$DIMTOFL
 70
     1
  9
$DIMTVP
 40
0.0
  9
$DIMTIX
 70
     0
  9
$DIMSOXD
 70
     0
  9
$DIMSAH
 70
     1
  9
$DIMBLK1
  1
OPEN
  9
$DIMBLK2
  1
OPEN
  9
$DIMSTYLE
  2
STANDARD
  9
$DIMCLRD
 70
   256
  9
$DIMCLRE
 70
   256
  9
$DIMCLRT
 70
   256
  9
$DIMTFAC
 40
1.0
  9
$DIMGAP
 40
1.0
  9
$DIMJUST
 70
     0
  9
$DIMSD1
 70
     0
  9
$DIMSD2
 70
     0
  9
$DIMTOLJ
 70
     1
  9
$DIMTZIN
 70
     0
  9
$DIMALTZ
 70
     0
  9
$DIMALTTZ
 70
     0
  9
$DIMUPT
 70
     1
  9
$DIMDEC
 70
     0
  9
$DIMTDEC
 70
     0
  9
$DIMALTU
 70
     2
  9
$DIMALTTD
 70
     2
  9
$DIMTXSTY
  7
STANDARD
  9
$DIMAUNIT
 70
     0
  9
$DIMADEC
 70
     0
  9
$DIMALTRND
 40
0.0
  9
$DIMAZIN
 70
     0
  9
$DIMDSEP
 70
    46
  9
$DIMATFIT
 70
     3
  9
$DIMFRAC
 70
     0
  9
$DIMLDRBLK
  1
OPEN
  9
$DIMLUNIT
 70
     2
  9
$DIMLWD
 70
    -1
  9
$DIMLWE
 70
    -1
  9
$DIMTMOVE
 70
     0
  9
$LUNITS
 70
     2
  9
$LUPREC
 70
     4
  9
$SKETCHINC
 40
1.0
  9
$FILLETRAD
 40
0.6
  9
$AUNITS
 70
     0
  9
$AUPREC
 70
     0
  9
$MENU
  1
.
  9
$ELEVATION
 40
0.0
  9
$PELEVATION
 40
0.0
  9
$THICKNESS
 40
0.0
  9
$LIMCHECK
 70
     0
  9
$CHAMFERA
 40
10.0
  9
$CHAMFERB
 40
10.0
  9
$CHAMFERC
 40
20.0
  9
$CHAMFERD
 40
0.0
  9
$SKPOLY
 70
     0
  9
$TDCREATE
 40
2451100.394552546
  9
$TDUCREATE
 40
2451100.019552546
  9
$TDUPDATE
 40
2455609.402615405
  9
$TDUUPDATE
 40
2455609.027615405
  9
$TDINDWG
 40
0.093337338
  9
$TDUSRTIMER
 40
0.093337338
  9
$USRTIMER
 70
     1
  9
$ANGBASE
 50
0.0
  9
$ANGDIR
 70
     0
  9
$PDMODE
 70
     0
  9
$PDSIZE
 40
0.0
  9
$PLINEWID
 40
0.0
  9
$SPLFRAME
 70
     0
  9
$SPLINETYPE
 70
     6
  9
$SPLINESEGS
 70
     8
  9
$HANDSEED
  5
12DD
  9
$SURFTAB1
 70
     6
  9
$SURFTAB2
 70
     6
  9
$SURFTYPE
 70
     6
  9
$SURFU
 70
     6
  9
$SURFV
 70
     6
  9
$UCSBASE
  2

  9
$UCSNAME
  2

  9
$UCSORG
 10
0.0
 20
0.0
 30
0.0
  9
$UCSXDIR
 10
1.0
 20
0.0
 30
0.0
  9
$UCSYDIR
 10
0.0
 20
1.0
 30
0.0
  9
$UCSORTHOREF
  2

  9
$UCSORTHOVIEW
 70
     0
  9
$UCSORGTOP
 10
0.0
 20
0.0
 30
0.0
  9
$UCSORGBOTTOM
 10
0.0
 20
0.0
 30
0.0
  9
$UCSORGLEFT
 10
0.0
 20
0.0
 30
0.0
  9
$UCSORGRIGHT
 10
0.0
 20
0.0
 30
0.0
  9
$UCSORGFRONT
 10
0.0
 20
0.0
 30
0.0
  9
$UCSORGBACK
 10
0.0
 20
0.0
 30
0.0
  9
$PUCSBASE
  2

  9
$PUCSNAME
  2

  9
$PUCSORG
 10
0.0
 20
0.0
 30
0.0
  9
$PUCSXDIR
 10
1.0
 20
0.0
 30
0.0
  9
$PUCSYDIR
 10
0.0
 20
1.0
 30
0.0
  9
$PUCSORTHOREF
  2

  9
$PUCSORTHOVIEW
 70
     0
  9
$PUCSORGTOP
 10
0.0
 20
0.0
 30
0.0
  9
$PUCSORGBOTTOM
 10
0.0
 20
0.0
 30
0.0
  9
$PUCSORGLEFT
 10
0.0
 20
0.0
 30
0.0
  9
$PUCSORGRIGHT
 10
0.0
 20
0.0
 30
0.0
  9
$PUCSORGFRONT
 10
0.0
 20
0.0
 30
0.0
  9
$PUCSORGBACK
 10
0.0
 20
0.0
 30
0.0
  9
$USERI1
 70
     0
  9
$USERI2
 70
     0
  9
$USERI3
 70
     0
  9
$USERI4
 70
     0
  9
$USERI5
 70
     0
  9
$USERR1
 40
0.0
  9
$USERR2
 40
0.0
  9
$USERR3
 40
0.0
  9
$USERR4
 40
0.0
  9
$USERR5
 40
0.0
  9
$WORLDVIEW
 70
     1
  9
$SHADEDGE
 70
     3
  9
$SHADEDIF
 70
    70
  9
$TILEMODE
 70
     1
  9
$MAXACTVP
 70
    16
  9
$PINSBASE
 10
0.0
 20
0.0
 30
0.0
  9
$PLIMCHECK
 70
     0
  9
$PEXTMIN
 10
0.0
 20
0.0
 30
0.0
  9
$PEXTMAX
 10
420.0
 20
297.0
 30
0.0
  9
$PLIMMIN
 10
0.0
 20
0.0
  9
$PLIMMAX
 10
420.0
 20
297.0
  9
$UNITMODE
 70
     0
  9
$VISRETAIN
 70
     0
  9
$PLINEGEN
 70
     0
  9
$PSLTSCALE
 70
     1
  9
$TREEDEPTH
 70
  3020
  9
$CMLSTYLE
  2
STANDARD
  9
$CMLJUST
 70
     0
  9
$CMLSCALE
 40
1.0
  9
$PROXYGRAPHICS
 70
     1
  9
$MEASUREMENT
 70
     1
  9
$CELWEIGHT
370
    -1
  9
$ENDCAPS
280
     0
  9
$JOINSTYLE
280
     0
  9
$LWDISPLAY
290
     0
  9
$INSUNITS
 70
     0
  9
$HYPERLINKBASE
  1

  9
$STYLESHEET
  1
print.ctb
  9
$XEDIT
290
     1
  9
$CEPSNTYPE
380
     0
  9
$PSTYLEMODE
290
     1
  9
$FINGERPRINTGUID
  2
{137E7082-72B8-11D5-AA3E-50A453C10000}
  9
$VERSIONGUID
  2
{51EEC4C8-5BF8-4367-ABC5-471285C705D5}
  9
$EXTNAMES
290
     1
  9
$PSVPSCALE
 40
0.0
  9
$OLESTARTUP
290
     0
  0
ENDSEC
  0
SECTION
  2
CLASSES
  0
CLASS
  1
ACDBDICTIONARYWDFLT
  2
AcDbDictionaryWithDefault
  3
ObjectDBX Classes
 90
        0
280
     0
281
     0
  0
CLASS
  1
ACDBPLACEHOLDER
  2
AcDbPlaceHolder
  3
ObjectDBX Classes
 90
        0
280
     0
281
     0
  0
CLASS
  1
LAYOUT
  2
AcDbLayout
  3
ObjectDBX Classes
 90
        0
280
     0
281
     0
  0
CLASS
  1
DUMMY
  2
AcDbLongTransaction
  3
DUMMY
 90
        0
280
     0
281
     0
  0
CLASS
  1
LWPOLYLINE
  2
AcDbPolyline
  3
AutoCAD 2000
 90
        0
280
     0
281
     1
  0
CLASS
  1
HATCH
  2
AcDbHatch
  3
AutoCAD 2000
 90
        0
280
     0
281
     1
  0
CLASS
  1
XRECORD
  2
AcDbXrecord
  3
AutoCAD 2000
 90
        0
280
     0
281
     0
  0
CLASS
  1
DUMMY
  2
AcDbLongTransaction
  3
DUMMY
 90
        0
280
     0
281
     0
  0
CLASS
  1
LWPOLYLINE
  2
AcDbPolyline
  3
AutoCAD 2000
 90
        0
280
     0
281
     1
  0
CLASS
  1
HATCH
  2
AcDbHatch
  3
AutoCAD 2000
 90
        0
280
     0
281
     1
  0
CLASS
  1
XRECORD
  2
AcDbXrecord
  3
AutoCAD 2000
 90
        0
280
     0
281
     0
  0
CLASS
  1
DUMMY
  2
AcDbLongTransaction
  3
DUMMY
 90
        0
280
     0
281
     0
  0
CLASS
  1
LWPOLYLINE
  2
AcDbPolyline
  3
AutoCAD 2000
 90
        0
280
     0
281
     1
  0
CLASS
  1
HATCH
  2
AcDbHatch
  3
AutoCAD 2000
 90
        0
280
     0
281
     1
  0
CLASS
  1
XRECORD
  2
AcDbXrecord
  3
AutoCAD 2000
 90
        0
280
     0
281
     0
  0
CLASS
  1
DUMMY
  2
AcDbLongTransaction
  3
DUMMY
 90
        0
280
     0
281
     0
  0
CLASS
  1
LWPOLYLINE
  2
AcDbPolyline
  3
AutoCAD 2000
 90
        0
280
     0
281
     1
  0
CLASS
  1
HATCH
  2
AcDbHatch
  3
AutoCAD 2000
 90
        0
280
     0
281
     1
  0
CLASS
  1
XRECORD
  2
AcDbXrecord
  3
AutoCAD 2000
 90
        0
280
     0
281
     0
  0
ENDSEC
  0
SECTION
  2
TABLES
  0
TABLE
  2
VPORT
  5
8
330
0
100
AcDbSymbolTable
 70
     2
  0
VPORT
  5
12DC
330
8
100
AcDbSymbolTableRecord
100
AcDbViewportTableRecord
  2
*Active
 70
     0
 10
0.0
 20
0.0
 11
1.0
 21
1.0
 12
207.2214526828675
 22
147.1130150441872
 13
0.0
 23
0.0
 14
5.0
 24
5.0
 15
0.0
 25
0.0
 16
0.0
 26
0.0
 36
1.0
 17
0.0
 27
0.0
 37
0.0
 40
318.6155887868909
 41
1.651537335285505
 42
50.0
 43
0.0
 44
0.0
 50
0.0
 51
0.0
 71
     0
 72
   100
 73
     1
 74
     0
 75
     0
 76
     0
 77
     0
 78
     0
281
     0
 65
     1
110
0.0
120
0.0
130
0.0
111
1.0
121
0.0
131
0.0
112
0.0
122
1.0
132
0.0
 79
     0
146
0.0
  0
ENDTAB
  0
TABLE
  2
LTYPE
  5
5
330
0
100
AcDbSymbolTable
 70
     3
  0
LTYPE
  5
14
330
5
100
AcDbSymbolTableRecord
100
AcDbLinetypeTableRecord
  2
BYBLOCK
 70
     0
  3

 72
    65
 73
     0
 40
0.0
  0
LTYPE
  5
15
330
5
100
AcDbSymbolTableRecord
100
AcDbLinetypeTableRecord
  2
BYLAYER
 70
     0
  3

 72
    65
 73
     0
 40
0.0
  0
LTYPE
  5
16
330
5
100
AcDbSymbolTableRecord
100
AcDbLinetypeTableRecord
  2
CONTINUOUS
 70
     0
  3
Solid line
 72
    65
 73
     0
 40
0.0
  0
LTYPE
  5
120
330
5
100
AcDbSymbolTableRecord
100
AcDbLinetypeTableRecord
  2
CENTER
 70
     0
  3
____ _ ____ _ ____ _ ____ _ ____ _ ____ _ ____ 
 72
    65
 73
     4
 40
2.0
 49
1.25
 74
     0
 49
-0.25
 74
     0
 49
0.25
 74
     0
 49
-0.25
 74
     0
  0
LTYPE
  5
E98
330
5
100
AcDbSymbolTableRecord
100
AcDbLinetypeTableRecord
  2
DASHED
 70
     0
  3
__ __ __ __ __ __ __ __ __ __ __ __ __ __ __ __
 72
    65
 73
     2
 40
0.75
 49
0.5
 74
     0
 49
-0.25
 74
     0
  0
ENDTAB
  0
TABLE
  2
LAYER
  5
2
330
0
100
AcDbSymbolTable
 70
     8
  0
LAYER
  5
F
330
2
100
AcDbSymbolTableRecord
100
AcDbLayerTableRecord
  2
0
 70
     0
 62
     7
  6
CONTINUOUS
370
    -3
390
623
  0
LAYER
  5
62
330
2
100
AcDbSymbolTableRecord
100
AcDbLayerTableRecord
  2
VIEWPORT
 70
     0
 62
     7
  6
CONTINUOUS
370
    -3
390
623
  0
LAYER
  5
6B
330
2
100
AcDbSymbolTableRecord
100
AcDbLayerTableRecord
  2
ZUWAKU
 70
     0
 62
     7
  6
CONTINUOUS
370
    -3
390
623
  0
LAYER
  5
1F2
330
2
100
AcDbSymbolTableRecord
100
AcDbLayerTableRecord
  2
SEIHIN
 70
     0
 62
     3
  6
CONTINUOUS
370
    -3
390
623
  0
LAYER
  5
1F3
330
2
100
AcDbSymbolTableRecord
100
AcDbLayerTableRecord
  2
SUNPOU
 70
     0
 62
     4
  6
CONTINUOUS
370
    -3
390
623
  0
LAYER
  5
1F4
330
2
100
AcDbSymbolTableRecord
100
AcDbLayerTableRecord
  2
CENTER L
 70
     0
 62
     1
  6
CENTER
370
    -3
390
623
  0
LAYER
  5
1F5
330
2
100
AcDbSymbolTableRecord
100
AcDbLayerTableRecord
  2
DEFPOINTS
 70
     0
 62
     7
  6
CONTINUOUS
290
     0
370
    -3
390
623
  0
LAYER
  5
A03
330
2
100
AcDbSymbolTableRecord
100
AcDbLayerTableRecord
  2
moji
 70
     0
 62
     2
  6
CONTINUOUS
370
    -3
390
623
  0
ENDTAB
  0
TABLE
  2
STYLE
  5
3
330
0
100
AcDbSymbolTable
 70
     2
  0
STYLE
  5
10
330
3
100
AcDbSymbolTableRecord
100
AcDbTextStyleTableRecord
  2
STANDARD
 70
     0
 40
0.0
 41
1.0
 50
0.0
 71
     0
 42
2.5
  3
TXT
  4
bigfont.shx
  0
STYLE
  5
A04
330
3
100
AcDbSymbolTableRecord
100
AcDbTextStyleTableRecord
  2
ｽﾀｲﾙ1
 70
     0
 40
0.0
 41
1.0
 50
0.0
 71
     0
 42
2.5
  3
MS PGothic.ttf
  4

1001
ACAD
1000
MS PGothic
1071
    32818
  0
ENDTAB
  0
TABLE
  2
VIEW
  5
6
330
0
100
AcDbSymbolTable
 70
     0
  0
ENDTAB
  0
TABLE
  2
UCS
  5
7
330
0
100
AcDbSymbolTable
 70
     0
  0
ENDTAB
  0
TABLE
  2
APPID
  5
9
330
0
100
AcDbSymbolTable
 70
     1
  0
APPID
  5
11
330
9
100
AcDbSymbolTableRecord
100
AcDbRegAppTableRecord
  2
ACAD
 70
     0
  0
ENDTAB
  0
TABLE
  2
DIMSTYLE
  5
A
330
0
100
AcDbSymbolTable
 70
     1
100
AcDbDimStyleTable
  0
DIMSTYLE
105
1D
102
{ACAD_REACTORS
330
1018
330
1019
330
101B
330
101C
330
101D
330
101F
330
1084
330
10BF
330
1130
330
1131
330
1132
330
1141
330
1142
330
1143
330
1189
102
}
330
A
100
AcDbSymbolTableRecord
100
AcDbDimStyleTableRecord
  2
STANDARD
 70
     0
340
10
  0
ENDTAB
  0
TABLE
  2
BLOCK_RECORD
  5
1
330
0
100
AcDbSymbolTable
 70
    16
  0
BLOCK_RECORD
  5
1A
330
1
100
AcDbSymbolTableRecord
100
AcDbBlockTableRecord
  2
*MODEL_SPACE
340
626
  0
BLOCK_RECORD
  5
17
330
1
100
AcDbSymbolTableRecord
100
AcDbBlockTableRecord
  2
*PAPER_SPACE
340
627
  0
BLOCK_RECORD
  5
B2
330
1
100
AcDbSymbolTableRecord
100
AcDbBlockTableRecord
  2
_OPEN
340
0
102
{BLKREFS
331
124D
331
124E
331
1256
331
1257
331
125F
331
1260
331
1268
331
1269
331
1271
331
1272
331
127A
331
127B
331
1283
331
1284
331
128C
331
128D
331
1295
331
1296
331
129E
331
129F
331
12A7
331
12A8
331
12B0
331
12B1
331
12BB
331
12BC
331
12C6
331
12C7
331
12CF
331
12D0
331
1166
331
1188
102
}
  0
BLOCK_RECORD
  5
1192
330
1
100
AcDbSymbolTableRecord
100
AcDbBlockTableRecord
  2
*D1
340
0
  0
BLOCK_RECORD
  5
119E
330
1
100
AcDbSymbolTableRecord
100
AcDbBlockTableRecord
  2
*D2
340
0
  0
BLOCK_RECORD
  5
11AA
330
1
100
AcDbSymbolTableRecord
100
AcDbBlockTableRecord
  2
*D3
340
0
  0
BLOCK_RECORD
  5
11B6
330
1
100
AcDbSymbolTableRecord
100
AcDbBlockTableRecord
  2
*D4
340
0
  0
BLOCK_RECORD
  5
11C2
330
1
100
AcDbSymbolTableRecord
100
AcDbBlockTableRecord
  2
*D5
340
0
  0
BLOCK_RECORD
  5
11CE
330
1
100
AcDbSymbolTableRecord
100
AcDbBlockTableRecord
  2
*D6
340
0
  0
BLOCK_RECORD
  5
11DA
330
1
100
AcDbSymbolTableRecord
100
AcDbBlockTableRecord
  2
*D7
340
0
  0
BLOCK_RECORD
  5
11E6
330
1
100
AcDbSymbolTableRecord
100
AcDbBlockTableRecord
  2
*D8
340
0
  0
BLOCK_RECORD
  5
11F2
330
1
100
AcDbSymbolTableRecord
100
AcDbBlockTableRecord
  2
*D9
340
0
  0
BLOCK_RECORD
  5
11FE
330
1
100
AcDbSymbolTableRecord
100
AcDbBlockTableRecord
  2
*D10
340
0
  0
BLOCK_RECORD
  5
120A
330
1
100
AcDbSymbolTableRecord
100
AcDbBlockTableRecord
  2
*D11
340
0
  0
BLOCK_RECORD
  5
1216
330
1
100
AcDbSymbolTableRecord
100
AcDbBlockTableRecord
  2
*D12
340
0
  0
BLOCK_RECORD
  5
1222
330
1
100
AcDbSymbolTableRecord
100
AcDbBlockTableRecord
  2
*D13
340
0
  0
BLOCK_RECORD
  5
1230
330
1
100
AcDbSymbolTableRecord
100
AcDbBlockTableRecord
  2
*D14
340
0
  0
BLOCK_RECORD
  5
123E
330
1
100
AcDbSymbolTableRecord
100
AcDbBlockTableRecord
  2
*D15
340
0
  0
ENDTAB
  0
ENDSEC
  0
SECTION
  2
BLOCKS
  0
BLOCK
  5
1B
330
1A
100
AcDbEntity
  8
0
100
AcDbBlockBegin
  2
*MODEL_SPACE
 70
     0
 71
     0
 10
0.0
 20
0.0
 30
0.0
  3
*MODEL_SPACE
  1

  0
ENDBLK
  5
1C
330
1A
100
AcDbEntity
  8
0
100
AcDbBlockEnd
  0
BLOCK
  5
18
330
17
100
AcDbEntity
 67
     1
  8
0
100
AcDbBlockBegin
  2
*PAPER_SPACE
 70
     0
 71
     0
 10
0.0
 20
0.0
 30
0.0
  3
*PAPER_SPACE
  1

  0
ENDBLK
  5
19
330
17
100
AcDbEntity
 67
     1
  8
0
100
AcDbBlockEnd
  0
BLOCK
  5
B3
330
B2
100
AcDbEntity
  8
0
100
AcDbBlockBegin
  2
_OPEN
 70
     0
 71
     0
 10
0.0
 20
0.0
 30
0.0
  3
_OPEN
  1

  0
LINE
  5
B4
330
B2
100
AcDbEntity
  8
0
  6
ByBlock
 62
     0
100
AcDbLine
 10
-1.0
 20
0.1666666666666667
 30
0.0
 11
0.0
 21
0.0
 31
0.0
  0
LINE
  5
B5
330
B2
100
AcDbEntity
  8
0
  6
ByBlock
 62
     0
100
AcDbLine
 10
0.0
 20
0.0
 30
0.0
 11
-1.0
 21
-0.1666666666666667
 31
0.0
  0
LINE
  5
B6
330
B2
100
AcDbEntity
  8
0
  6
ByBlock
 62
     0
100
AcDbLine
 10
0.0
 20
0.0
 30
0.0
 11
-1.0
 21
0.0
 31
0.0
  0
ENDBLK
  5
B7
330
B2
100
AcDbEntity
  8
0
100
AcDbBlockEnd
  0
BLOCK
  5
119C
330
1192
100
AcDbEntity
  8
0
100
AcDbBlockBegin
  2
*D1
 70
     1
 71
     0
 10
0.0
 20
0.0
 30
0.0
  3
*D1
  1

  0
LINE
  5
124A
330
1192
100
AcDbEntity
  8
SUNPOU
370
    -2
100
AcDbLine
 10
190.0207949215286
 20
130.2826092593469
 30
0.0
 11
214.6151183350819
 21
130.2826092593469
 31
0.0
  0
LINE
  5
124B
330
1192
100
AcDbEntity
  8
SUNPOU
370
    -2
100
AcDbLine
 10
199.5207949215286
 20
78.28260925741029
 30
0.0
 11
214.6151183350819
 21
78.28260925741029
 31
0.0
  0
LINE
  5
124C
330
1192
100
AcDbEntity
  8
SUNPOU
370
    -2
100
AcDbLine
 10
213.1151183350819
 20
127.2826092593469
 30
0.0
 11
213.1151183350819
 21
81.28260925741029
 31
0.0
  0
INSERT
  5
124D
330
1192
100
AcDbEntity
  8
SUNPOU
370
    -2
100
AcDbBlockReference
  2
_OPEN
 10
213.1151183350819
 20
130.2826092593469
 30
0.0
 41
3.0
 42
3.0
 43
3.0
 50
90.0
  0
INSERT
  5
124E
330
1192
100
AcDbEntity
  8
SUNPOU
370
    -2
100
AcDbBlockReference
  2
_OPEN
 10
213.1151183350819
 20
78.28260925741029
 30
0.0
 41
3.0
 42
3.0
 43
3.0
 50
270.0
  0
MTEXT
  5
124F
330
1192
100
AcDbEntity
  8
SUNPOU
100
AcDbMText
 10
210.6151183350819
 20
104.2826092583786
 30
0.0
 40
3.0
 41
0.0
 71
     5
 72
     1
  1
\A1;52
 11
6.123031769111886E-17
 21
1.0
 31
0.0
 73
     1
 44
1.0
  0
POINT
  5
1250
330
1192
100
AcDbEntity
  8
DEFPOINTS
 62
     0
100
AcDbPoint
 10
187.0207949215286
 20
130.2826092593469
 30
0.0
  0
POINT
  5
1251
330
1192
100
AcDbEntity
  8
DEFPOINTS
 62
     0
100
AcDbPoint
 10
196.5207949215286
 20
78.28260925741029
 30
0.0
  0
POINT
  5
1252
330
1192
100
AcDbEntity
  8
DEFPOINTS
 62
     0
100
AcDbPoint
 10
213.1151183350819
 20
78.28260925741029
 30
0.0
  0
ENDBLK
  5
119D
330
1192
100
AcDbEntity
  8
0
100
AcDbBlockEnd
  0
BLOCK
  5
11A8
330
119E
100
AcDbEntity
  8
0
100
AcDbBlockBegin
  2
*D2
 70
     1
 71
     0
 10
0.0
 20
0.0
 30
0.0
  3
*D2
  1

  0
LINE
  5
1253
330
119E
100
AcDbEntity
  8
SUNPOU
370
    -2
100
AcDbLine
 10
196.5207949215286
 20
114.2826092574103
 30
0.0
 11
196.5207949215286
 21
158.0626960419781
 31
0.0
  0
LINE
  5
1254
330
119E
100
AcDbEntity
  8
SUNPOU
370
    -2
100
AcDbLine
 10
231.5207949015286
 20
114.2826092574103
 30
0.0
 11
231.5207949015286
 21
158.0626960419781
 31
0.0
  0
LINE
  5
1255
330
119E
100
AcDbEntity
  8
SUNPOU
370
    -2
100
AcDbLine
 10
199.5207949215286
 20
156.5626960419781
 30
0.0
 11
228.5207949015286
 21
156.5626960419781
 31
0.0
  0
INSERT
  5
1256
330
119E
100
AcDbEntity
  8
SUNPOU
370
    -2
100
AcDbBlockReference
  2
_OPEN
 10
196.5207949215286
 20
156.5626960419781
 30
0.0
 41
3.0
 42
3.0
 43
3.0
 50
180.0
  0
INSERT
  5
1257
330
119E
100
AcDbEntity
  8
SUNPOU
370
    -2
100
AcDbBlockReference
  2
_OPEN
 10
231.5207949015286
 20
156.5626960419781
 30
0.0
 41
3.0
 42
3.0
 43
3.0
  0
MTEXT
  5
1258
330
119E
100
AcDbEntity
  8
SUNPOU
100
AcDbMText
 10
214.0207949115286
 20
159.0626960419781
 30
0.0
 40
3.0
 41
0.0
 71
     5
 72
     1
  1
\A1;35
 73
     1
 44
1.0
  0
POINT
  5
1259
330
119E
100
AcDbEntity
  8
DEFPOINTS
 62
     0
100
AcDbPoint
 10
196.5207949215286
 20
111.2826092574103
 30
0.0
  0
POINT
  5
125A
330
119E
100
AcDbEntity
  8
DEFPOINTS
 62
     0
100
AcDbPoint
 10
231.5207949015286
 20
111.2826092574103
 30
0.0
  0
POINT
  5
125B
330
119E
100
AcDbEntity
  8
DEFPOINTS
 62
     0
100
AcDbPoint
 10
231.5207949015286
 20
156.5626960419781
 30
0.0
  0
ENDBLK
  5
11A9
330
119E
100
AcDbEntity
  8
0
100
AcDbBlockEnd
  0
BLOCK
  5
11B4
330
11AA
100
AcDbEntity
  8
0
100
AcDbBlockBegin
  2
*D3
 70
     1
 71
     0
 10
0.0
 20
0.0
 30
0.0
  3
*D3
  1

  0
LINE
  5
125C
330
11AA
100
AcDbEntity
  8
SUNPOU
370
    -2
100
AcDbLine
 10
199.5207949215286
 20
232.7021010006325
 30
0.0
 11
219.4524251151894
 21
232.7021010006325
 31
0.0
  0
LINE
  5
125D
330
11AA
100
AcDbEntity
  8
SUNPOU
370
    -2
100
AcDbLine
 10
199.5207949215286
 20
179.7021009606325
 30
0.0
 11
219.4524251151893
 21
179.7021009606325
 31
0.0
  0
LINE
  5
125E
330
11AA
100
AcDbEntity
  8
SUNPOU
370
    -2
100
AcDbLine
 10
217.9524251151894
 20
229.7021010006325
 30
0.0
 11
217.9524251151893
 21
182.7021009606325
 31
0.0
  0
INSERT
  5
125F
330
11AA
100
AcDbEntity
  8
SUNPOU
370
    -2
100
AcDbBlockReference
  2
_OPEN
 10
217.9524251151894
 20
232.7021010006325
 30
0.0
 41
3.0
 42
3.0
 43
3.0
 50
90.0
  0
INSERT
  5
1260
330
11AA
100
AcDbEntity
  8
SUNPOU
370
    -2
100
AcDbBlockReference
  2
_OPEN
 10
217.9524251151893
 20
179.7021009606325
 30
0.0
 41
3.0
 42
3.0
 43
3.0
 50
270.0
  0
MTEXT
  5
1261
330
11AA
100
AcDbEntity
  8
SUNPOU
100
AcDbMText
 10
215.4524251151893
 20
206.2021009806326
 30
0.0
 40
3.0
 41
0.0
 71
     5
 72
     1
  1
\A1;53
 11
6.123031769111886E-17
 21
1.0
 31
0.0
 73
     1
 44
1.0
  0
POINT
  5
1262
330
11AA
100
AcDbEntity
  8
DEFPOINTS
 62
     0
100
AcDbPoint
 10
196.5207949215286
 20
232.7021010006325
 30
0.0
  0
POINT
  5
1263
330
11AA
100
AcDbEntity
  8
DEFPOINTS
 62
     0
100
AcDbPoint
 10
196.5207949215286
 20
179.7021009606325
 30
0.0
  0
POINT
  5
1264
330
11AA
100
AcDbEntity
  8
DEFPOINTS
 62
     0
100
AcDbPoint
 10
217.9524251151893
 20
179.7021009606325
 30
0.0
  0
ENDBLK
  5
11B5
330
11AA
100
AcDbEntity
  8
0
100
AcDbBlockEnd
  0
BLOCK
  5
11C0
330
11B6
100
AcDbEntity
  8
0
100
AcDbBlockBegin
  2
*D4
 70
     1
 71
     0
 10
0.0
 20
0.0
 30
0.0
  3
*D4
  1

  0
LINE
  5
1265
330
11B6
100
AcDbEntity
  8
SUNPOU
370
    -2
100
AcDbLine
 10
60.82079492152852
 20
107.2827092574103
 30
0.0
 11
60.82079492152852
 21
158.0626960419781
 31
0.0
  0
LINE
  5
1266
330
11B6
100
AcDbEntity
  8
SUNPOU
370
    -2
100
AcDbLine
 10
196.5207949215286
 20
117.2826092574103
 30
0.0
 11
196.5207949215286
 21
158.0626960419781
 31
0.0
  0
LINE
  5
1267
330
11B6
100
AcDbEntity
  8
SUNPOU
370
    -2
100
AcDbLine
 10
63.82079492152852
 20
156.5626960419781
 30
0.0
 11
193.5207949215286
 21
156.5626960419781
 31
0.0
  0
INSERT
  5
1268
330
11B6
100
AcDbEntity
  8
SUNPOU
370
    -2
100
AcDbBlockReference
  2
_OPEN
 10
60.82079492152852
 20
156.5626960419781
 30
0.0
 41
3.0
 42
3.0
 43
3.0
 50
180.0
  0
INSERT
  5
1269
330
11B6
100
AcDbEntity
  8
SUNPOU
370
    -2
100
AcDbBlockReference
  2
_OPEN
 10
196.5207949215286
 20
156.5626960419781
 30
0.0
 41
3.0
 42
3.0
 43
3.0
  0
MTEXT
  5
126A
330
11B6
100
AcDbEntity
  8
SUNPOU
100
AcDbMText
 10
128.6707949215286
 20
159.0626960419781
 30
0.0
 40
3.0
 41
0.0
 71
     5
 72
     1
  1
\A1;136
 73
     1
 44
1.0
  0
POINT
  5
126B
330
11B6
100
AcDbEntity
  8
DEFPOINTS
 62
     0
100
AcDbPoint
 10
60.82079492152852
 20
104.2827092574103
 30
0.0
  0
POINT
  5
126C
330
11B6
100
AcDbEntity
  8
DEFPOINTS
 62
     0
100
AcDbPoint
 10
196.5207949215286
 20
114.2826092574103
 30
0.0
  0
POINT
  5
126D
330
11B6
100
AcDbEntity
  8
DEFPOINTS
 62
     0
100
AcDbPoint
 10
196.5207949215286
 20
156.5626960419781
 30
0.0
  0
ENDBLK
  5
11C1
330
11B6
100
AcDbEntity
  8
0
100
AcDbBlockEnd
  0
BLOCK
  5
11CC
330
11C2
100
AcDbEntity
  8
0
100
AcDbBlockBegin
  2
*D5
 70
     1
 71
     0
 10
0.0
 20
0.0
 30
0.0
  3
*D5
  1

  0
LINE
  5
126E
330
11C2
100
AcDbEntity
  8
SUNPOU
370
    -2
100
AcDbLine
 10
183.8207949215287
 20
94.08270925741033
 30
0.0
 11
183.8207949215287
 21
147.3890108187534
 31
0.0
  0
LINE
  5
126F
330
11C2
100
AcDbEntity
  8
SUNPOU
370
    -2
100
AcDbLine
 10
196.5207949215286
 20
114.2826092574103
 30
0.0
 11
196.5207949215286
 21
147.3890108187534
 31
0.0
  0
LINE
  5
1270
330
11C2
100
AcDbEntity
  8
SUNPOU
370
    -2
100
AcDbLine
 10
186.8207949215287
 20
145.8890108187534
 30
0.0
 11
193.5207949215286
 21
145.8890108187534
 31
0.0
  0
INSERT
  5
1271
330
11C2
100
AcDbEntity
  8
SUNPOU
370
    -2
100
AcDbBlockReference
  2
_OPEN
 10
183.8207949215287
 20
145.8890108187534
 30
0.0
 41
3.0
 42
3.0
 43
3.0
 50
180.0
  0
INSERT
  5
1272
330
11C2
100
AcDbEntity
  8
SUNPOU
370
    -2
100
AcDbBlockReference
  2
_OPEN
 10
196.5207949215286
 20
145.8890108187534
 30
0.0
 41
3.0
 42
3.0
 43
3.0
  0
MTEXT
  5
1273
330
11C2
100
AcDbEntity
  8
SUNPOU
100
AcDbMText
 10
190.1707949215287
 20
148.3890108187534
 30
0.0
 40
3.0
 41
0.0
 71
     5
 72
     1
  1
\A1;13
 73
     1
 44
1.0
  0
POINT
  5
1274
330
11C2
100
AcDbEntity
  8
DEFPOINTS
 62
     0
100
AcDbPoint
 10
183.8207949215287
 20
91.08270925741033
 30
0.0
  0
POINT
  5
1275
330
11C2
100
AcDbEntity
  8
DEFPOINTS
 62
     0
100
AcDbPoint
 10
196.5207949215286
 20
111.2826092574103
 30
0.0
  0
POINT
  5
1276
330
11C2
100
AcDbEntity
  8
DEFPOINTS
 62
     0
100
AcDbPoint
 10
196.5207949215286
 20
145.8890108187534
 30
0.0
  0
ENDBLK
  5
11CD
330
11C2
100
AcDbEntity
  8
0
100
AcDbBlockEnd
  0
BLOCK
  5
11D8
330
11CE
100
AcDbEntity
  8
0
100
AcDbBlockBegin
  2
*D6
 70
     1
 71
     0
 10
0.0
 20
0.0
 30
0.0
  3
*D6
  1

  0
LINE
  5
1277
330
11CE
100
AcDbEntity
  8
SUNPOU
370
    -2
100
AcDbLine
 10
59.82079492152852
 20
106.2827092574103
 30
0.0
 11
37.26331157535422
 21
106.2827092574103
 31
0.0
  0
LINE
  5
1278
330
11CE
100
AcDbEntity
  8
SUNPOU
370
    -2
100
AcDbLine
 10
186.8207949215286
 20
78.28260925741029
 30
0.0
 11
37.26331157535422
 21
78.28260925741033
 31
0.0
  0
LINE
  5
1279
330
11CE
100
AcDbEntity
  8
SUNPOU
370
    -2
100
AcDbLine
 10
38.76331157535422
 20
103.2827092574103
 30
0.0
 11
38.76331157535422
 21
81.28260925741033
 31
0.0
  0
INSERT
  5
127A
330
11CE
100
AcDbEntity
  8
SUNPOU
370
    -2
100
AcDbBlockReference
  2
_OPEN
 10
38.76331157535422
 20
106.2827092574103
 30
0.0
 41
3.0
 42
3.0
 43
3.0
 50
90.0
  0
INSERT
  5
127B
330
11CE
100
AcDbEntity
  8
SUNPOU
370
    -2
100
AcDbBlockReference
  2
_OPEN
 10
38.76331157535421
 20
78.28260925741033
 30
0.0
 41
3.0
 42
3.0
 43
3.0
 50
270.0
  0
MTEXT
  5
127C
330
11CE
100
AcDbEntity
  8
SUNPOU
100
AcDbMText
 10
36.2633115753542
 20
92.28265925741033
 30
0.0
 40
3.0
 41
0.0
 71
     5
 72
     1
  1
\A1;28
 11
6.123031769111886E-17
 21
1.0
 31
0.0
 73
     1
 44
1.0
  0
POINT
  5
127D
330
11CE
100
AcDbEntity
  8
DEFPOINTS
 62
     0
100
AcDbPoint
 10
62.82079492152852
 20
106.2827092574103
 30
0.0
  0
POINT
  5
127E
330
11CE
100
AcDbEntity
  8
DEFPOINTS
 62
     0
100
AcDbPoint
 10
189.8207949215286
 20
78.28260925741029
 30
0.0
  0
POINT
  5
127F
330
11CE
100
AcDbEntity
  8
DEFPOINTS
 62
     0
100
AcDbPoint
 10
38.76331157535421
 20
78.28260925741033
 30
0.0
  0
ENDBLK
  5
11D9
330
11CE
100
AcDbEntity
  8
0
100
AcDbBlockEnd
  0
BLOCK
  5
11E4
330
11DA
100
AcDbEntity
  8
0
100
AcDbBlockBegin
  2
*D7
 70
     1
 71
     0
 10
0.0
 20
0.0
 30
0.0
  3
*D7
  1

  0
LINE
  5
1280
330
11DA
100
AcDbEntity
  8
SUNPOU
370
    -2
100
AcDbLine
 10
199.5207949215286
 20
114.2826092574103
 30
0.0
 11
206.8332987868248
 21
114.2826092574103
 31
0.0
  0
LINE
  5
1281
330
11DA
100
AcDbEntity
  8
SUNPOU
370
    -2
100
AcDbLine
 10
199.5207949215286
 20
78.28260925741029
 30
0.0
 11
206.8332987868248
 21
78.28260925741029
 31
0.0
  0
LINE
  5
1282
330
11DA
100
AcDbEntity
  8
SUNPOU
370
    -2
100
AcDbLine
 10
205.3332987868248
 20
111.2826092574103
 30
0.0
 11
205.3332987868248
 21
81.28260925741029
 31
0.0
  0
INSERT
  5
1283
330
11DA
100
AcDbEntity
  8
SUNPOU
370
    -2
100
AcDbBlockReference
  2
_OPEN
 10
205.3332987868248
 20
114.2826092574103
 30
0.0
 41
3.0
 42
3.0
 43
3.0
 50
90.0
  0
INSERT
  5
1284
330
11DA
100
AcDbEntity
  8
SUNPOU
370
    -2
100
AcDbBlockReference
  2
_OPEN
 10
205.3332987868248
 20
78.28260925741029
 30
0.0
 41
3.0
 42
3.0
 43
3.0
 50
270.0
  0
MTEXT
  5
1285
330
11DA
100
AcDbEntity
  8
SUNPOU
100
AcDbMText
 10
202.8332987868248
 20
96.28260925741031
 30
0.0
 40
3.0
 41
0.0
 71
     5
 72
     1
  1
\A1;36
 11
6.123031769111886E-17
 21
1.0
 31
0.0
 73
     1
 44
1.0
  0
POINT
  5
1286
330
11DA
100
AcDbEntity
  8
DEFPOINTS
 62
     0
100
AcDbPoint
 10
196.5207949215286
 20
114.2826092574103
 30
0.0
  0
POINT
  5
1287
330
11DA
100
AcDbEntity
  8
DEFPOINTS
 62
     0
100
AcDbPoint
 10
196.5207949215286
 20
78.28260925741029
 30
0.0
  0
POINT
  5
1288
330
11DA
100
AcDbEntity
  8
DEFPOINTS
 62
     0
100
AcDbPoint
 10
205.3332987868248
 20
78.28260925741029
 30
0.0
  0
ENDBLK
  5
11E5
330
11DA
100
AcDbEntity
  8
0
100
AcDbBlockEnd
  0
BLOCK
  5
11F0
330
11E6
100
AcDbEntity
  8
0
100
AcDbBlockBegin
  2
*D8
 70
     1
 71
     0
 10
0.0
 20
0.0
 30
0.0
  3
*D8
  1

  0
LINE
  5
1289
330
11E6
100
AcDbEntity
  8
SUNPOU
370
    -2
100
AcDbLine
 10
57.82079492152863
 20
217.2021009806325
 30
0.0
 11
37.26331157535424
 21
217.2021009806325
 31
0.0
  0
LINE
  5
128A
330
11E6
100
AcDbEntity
  8
SUNPOU
370
    -2
100
AcDbLine
 10
57.82079492152857
 20
195.2021009806325
 30
0.0
 11
37.26331157535424
 21
195.2021009806325
 31
0.0
  0
LINE
  5
128B
330
11E6
100
AcDbEntity
  8
SUNPOU
370
    -2
100
AcDbLine
 10
38.76331157535424
 20
214.2021009806325
 30
0.0
 11
38.76331157535424
 21
198.2021009806325
 31
0.0
  0
INSERT
  5
128C
330
11E6
100
AcDbEntity
  8
SUNPOU
370
    -2
100
AcDbBlockReference
  2
_OPEN
 10
38.76331157535424
 20
217.2021009806325
 30
0.0
 41
3.0
 42
3.0
 43
3.0
 50
90.0
  0
INSERT
  5
128D
330
11E6
100
AcDbEntity
  8
SUNPOU
370
    -2
100
AcDbBlockReference
  2
_OPEN
 10
38.76331157535424
 20
195.2021009806325
 30
0.0
 41
3.0
 42
3.0
 43
3.0
 50
270.0
  0
MTEXT
  5
128E
330
11E6
100
AcDbEntity
  8
SUNPOU
100
AcDbMText
 10
36.26331157535421
 20
206.2021009806325
 30
0.0
 40
3.0
 41
0.0
 71
     5
 72
     1
  1
\A1;22
 11
6.123031769111886E-17
 21
1.0
 31
0.0
 73
     1
 44
1.0
  0
POINT
  5
128F
330
11E6
100
AcDbEntity
  8
DEFPOINTS
 62
     0
100
AcDbPoint
 10
60.82079492152863
 20
217.2021009806325
 30
0.0
  0
POINT
  5
1290
330
11E6
100
AcDbEntity
  8
DEFPOINTS
 62
     0
100
AcDbPoint
 10
60.82079492152857
 20
195.2021009806325
 30
0.0
  0
POINT
  5
1291
330
11E6
100
AcDbEntity
  8
DEFPOINTS
 62
     0
100
AcDbPoint
 10
38.76331157535424
 20
195.2021009806325
 30
0.0
  0
ENDBLK
  5
11F1
330
11E6
100
AcDbEntity
  8
0
100
AcDbBlockEnd
  0
BLOCK
  5
11FC
330
11F2
100
AcDbEntity
  8
0
100
AcDbBlockBegin
  2
*D9
 70
     1
 71
     0
 10
0.0
 20
0.0
 30
0.0
  3
*D9
  1

  0
LINE
  5
1292
330
11F2
100
AcDbEntity
  8
SUNPOU
370
    -2
100
AcDbLine
 10
294.9467357815286
 20
115.2826092574103
 30
0.0
 11
294.9467357815286
 21
166.7567010472617
 31
0.0
  0
LINE
  5
1293
330
11F2
100
AcDbEntity
  8
SUNPOU
370
    -2
100
AcDbLine
 10
347.9467357815286
 20
115.2826092574103
 30
0.0
 11
347.9467357815286
 21
166.7567010472617
 31
0.0
  0
LINE
  5
1294
330
11F2
100
AcDbEntity
  8
SUNPOU
370
    -2
100
AcDbLine
 10
297.9467357815286
 20
165.2567010472617
 30
0.0
 11
344.9467357815286
 21
165.2567010472617
 31
0.0
  0
INSERT
  5
1295
330
11F2
100
AcDbEntity
  8
SUNPOU
370
    -2
100
AcDbBlockReference
  2
_OPEN
 10
294.9467357815286
 20
165.2567010472617
 30
0.0
 41
3.0
 42
3.0
 43
3.0
 50
180.0
  0
INSERT
  5
1296
330
11F2
100
AcDbEntity
  8
SUNPOU
370
    -2
100
AcDbBlockReference
  2
_OPEN
 10
347.9467357815286
 20
165.2567010472617
 30
0.0
 41
3.0
 42
3.0
 43
3.0
  0
MTEXT
  5
1297
330
11F2
100
AcDbEntity
  8
SUNPOU
100
AcDbMText
 10
321.4467357815286
 20
167.7567010472617
 30
0.0
 40
3.0
 41
0.0
 71
     5
 72
     1
  1
\A1;53
 73
     1
 44
1.0
  0
POINT
  5
1298
330
11F2
100
AcDbEntity
  8
DEFPOINTS
 62
     0
100
AcDbPoint
 10
294.9467357815286
 20
112.2826092574103
 30
0.0
  0
POINT
  5
1299
330
11F2
100
AcDbEntity
  8
DEFPOINTS
 62
     0
100
AcDbPoint
 10
347.9467357815286
 20
112.2826092574103
 30
0.0
  0
POINT
  5
129A
330
11F2
100
AcDbEntity
  8
DEFPOINTS
 62
     0
100
AcDbPoint
 10
347.9467357815286
 20
165.2567010472617
 30
0.0
  0
ENDBLK
  5
11FD
330
11F2
100
AcDbEntity
  8
0
100
AcDbBlockEnd
  0
BLOCK
  5
1208
330
11FE
100
AcDbEntity
  8
0
100
AcDbBlockBegin
  2
*D10
 70
     1
 71
     0
 10
0.0
 20
0.0
 30
0.0
  3
*D10
  1

  0
LINE
  5
129B
330
11FE
100
AcDbEntity
  8
SUNPOU
370
    -2
100
AcDbLine
 10
300.4467357815286
 20
117.8826092291377
 30
0.0
 11
300.4467357815286
 21
158.8163984836192
 31
0.0
  0
LINE
  5
129C
330
11FE
100
AcDbEntity
  8
SUNPOU
370
    -2
100
AcDbLine
 10
342.4467357815286
 20
117.8826092291377
 30
0.0
 11
342.4467357815286
 21
158.8163984836192
 31
0.0
  0
LINE
  5
129D
330
11FE
100
AcDbEntity
  8
SUNPOU
370
    -2
100
AcDbLine
 10
303.4467357815286
 20
157.3163984836192
 30
0.0
 11
339.4467357815286
 21
157.3163984836192
 31
0.0
  0
INSERT
  5
129E
330
11FE
100
AcDbEntity
  8
SUNPOU
370
    -2
100
AcDbBlockReference
  2
_OPEN
 10
300.4467357815286
 20
157.3163984836192
 30
0.0
 41
3.0
 42
3.0
 43
3.0
 50
180.0
  0
INSERT
  5
129F
330
11FE
100
AcDbEntity
  8
SUNPOU
370
    -2
100
AcDbBlockReference
  2
_OPEN
 10
342.4467357815286
 20
157.3163984836192
 30
0.0
 41
3.0
 42
3.0
 43
3.0
  0
MTEXT
  5
12A0
330
11FE
100
AcDbEntity
  8
SUNPOU
100
AcDbMText
 10
321.4467357815286
 20
159.8163984836192
 30
0.0
 40
3.0
 41
0.0
 71
     5
 72
     1
  1
\A1;42
 73
     1
 44
1.0
  0
POINT
  5
12A1
330
11FE
100
AcDbEntity
  8
DEFPOINTS
 62
     0
100
AcDbPoint
 10
300.4467357815286
 20
114.8826092291377
 30
0.0
  0
POINT
  5
12A2
330
11FE
100
AcDbEntity
  8
DEFPOINTS
 62
     0
100
AcDbPoint
 10
342.4467357815286
 20
114.8826092291377
 30
0.0
  0
POINT
  5
12A3
330
11FE
100
AcDbEntity
  8
DEFPOINTS
 62
     0
100
AcDbPoint
 10
342.4467357815286
 20
157.3163984836192
 30
0.0
  0
ENDBLK
  5
1209
330
11FE
100
AcDbEntity
  8
0
100
AcDbBlockEnd
  0
BLOCK
  5
1214
330
120A
100
AcDbEntity
  8
0
100
AcDbBlockBegin
  2
*D11
 70
     1
 71
     0
 10
0.0
 20
0.0
 30
0.0
  3
*D11
  1

  0
LINE
  5
12A4
330
120A
100
AcDbEntity
  8
SUNPOU
370
    -2
100
AcDbLine
 10
301.9467357815286
 20
110.3129154521382
 30
0.0
 11
301.9467357815286
 21
150.3948659340117
 31
0.0
  0
LINE
  5
12A5
330
120A
100
AcDbEntity
  8
SUNPOU
370
    -2
100
AcDbLine
 10
340.9467357815286
 20
110.3129154521382
 30
0.0
 11
340.9467357815286
 21
150.3948659340117
 31
0.0
  0
LINE
  5
12A6
330
120A
100
AcDbEntity
  8
SUNPOU
370
    -2
100
AcDbLine
 10
304.9467357815286
 20
148.8948659340117
 30
0.0
 11
337.9467357815286
 21
148.8948659340117
 31
0.0
  0
INSERT
  5
12A7
330
120A
100
AcDbEntity
  8
SUNPOU
370
    -2
100
AcDbBlockReference
  2
_OPEN
 10
301.9467357815286
 20
148.8948659340117
 30
0.0
 41
3.0
 42
3.0
 43
3.0
 50
180.0
  0
INSERT
  5
12A8
330
120A
100
AcDbEntity
  8
SUNPOU
370
    -2
100
AcDbBlockReference
  2
_OPEN
 10
340.9467357815286
 20
148.8948659340117
 30
0.0
 41
3.0
 42
3.0
 43
3.0
  0
MTEXT
  5
12A9
330
120A
100
AcDbEntity
  8
SUNPOU
100
AcDbMText
 10
321.4467357815286
 20
151.3948659340117
 30
0.0
 40
3.0
 41
0.0
 71
     5
 72
     1
  1
\A1;39
 73
     1
 44
1.0
  0
POINT
  5
12AA
330
120A
100
AcDbEntity
  8
DEFPOINTS
 62
     0
100
AcDbPoint
 10
301.9467357815286
 20
107.3129154521382
 30
0.0
  0
POINT
  5
12AB
330
120A
100
AcDbEntity
  8
DEFPOINTS
 62
     0
100
AcDbPoint
 10
340.9467357815286
 20
107.3129154521382
 30
0.0
  0
POINT
  5
12AC
330
120A
100
AcDbEntity
  8
DEFPOINTS
 62
     0
100
AcDbPoint
 10
340.9467357815286
 20
148.8948659340117
 30
0.0
  0
ENDBLK
  5
1215
330
120A
100
AcDbEntity
  8
0
100
AcDbBlockEnd
  0
BLOCK
  5
1220
330
1216
100
AcDbEntity
  8
0
100
AcDbBlockBegin
  2
*D12
 70
     1
 71
     0
 10
0.0
 20
0.0
 30
0.0
  3
*D12
  1

  0
LINE
  5
12AD
330
1216
100
AcDbEntity
  8
SUNPOU
370
    -2
100
AcDbLine
 10
293.9467357815286
 20
114.2826092574103
 30
0.0
 11
265.4733812157847
 21
114.2826092574103
 31
0.0
  0
LINE
  5
12AE
330
1216
100
AcDbEntity
  8
SUNPOU
370
    -2
100
AcDbLine
 10
293.9467357815286
 20
78.28260925741029
 30
0.0
 11
265.4733812157847
 21
78.2826092574103
 31
0.0
  0
LINE
  5
12AF
330
1216
100
AcDbEntity
  8
SUNPOU
370
    -2
100
AcDbLine
 10
266.9733812157847
 20
111.2826092574103
 30
0.0
 11
266.9733812157847
 21
81.2826092574103
 31
0.0
  0
INSERT
  5
12B0
330
1216
100
AcDbEntity
  8
SUNPOU
370
    -2
100
AcDbBlockReference
  2
_OPEN
 10
266.9733812157847
 20
114.2826092574103
 30
0.0
 41
3.0
 42
3.0
 43
3.0
 50
90.0
  0
INSERT
  5
12B1
330
1216
100
AcDbEntity
  8
SUNPOU
370
    -2
100
AcDbBlockReference
  2
_OPEN
 10
266.9733812157847
 20
78.2826092574103
 30
0.0
 41
3.0
 42
3.0
 43
3.0
 50
270.0
  0
MTEXT
  5
12B2
330
1216
100
AcDbEntity
  8
SUNPOU
100
AcDbMText
 10
264.4733812157847
 20
96.28260925741034
 30
0.0
 40
3.0
 41
0.0
 71
     5
 72
     1
  1
\A1;36
 11
6.123031769111886E-17
 21
1.0
 31
0.0
 73
     1
 44
1.0
  0
POINT
  5
12B3
330
1216
100
AcDbEntity
  8
DEFPOINTS
 62
     0
100
AcDbPoint
 10
296.9467357815286
 20
114.2826092574103
 30
0.0
  0
POINT
  5
12B4
330
1216
100
AcDbEntity
  8
DEFPOINTS
 62
     0
100
AcDbPoint
 10
296.9467357815286
 20
78.28260925741029
 30
0.0
  0
POINT
  5
12B5
330
1216
100
AcDbEntity
  8
DEFPOINTS
 62
     0
100
AcDbPoint
 10
266.9733812157847
 20
78.2826092574103
 30
0.0
  0
ENDBLK
  5
1221
330
1216
100
AcDbEntity
  8
0
100
AcDbBlockEnd
  0
BLOCK
  5
122E
330
1222
100
AcDbEntity
  8
0
100
AcDbBlockBegin
  2
*D13
 70
     1
 71
     0
 10
0.0
 20
0.0
 30
0.0
  3
*D13
  1

  0
LINE
  5
12B6
330
1222
100
AcDbEntity
  8
SUNPOU
370
    -2
100
AcDbLine
 10
291.3467358098012
 20
83.78260925741029
 30
0.0
 11
275.3467865783782
 21
83.7826092574103
 31
0.0
  0
LINE
  5
12B7
330
1222
100
AcDbEntity
  8
SUNPOU
370
    -2
100
AcDbLine
 10
293.9467357815286
 20
78.28260925741029
 30
0.0
 11
275.3467865783782
 21
78.2826092574103
 31
0.0
  0
LINE
  5
12B8
330
1222
100
AcDbEntity
  8
SUNPOU
370
    -2
100
AcDbLine
 10
276.8467865783782
 20
86.7826092574103
 30
0.0
 11
276.8467865783782
 21
89.7826092574103
 31
0.0
  0
LINE
  5
12B9
330
1222
100
AcDbEntity
  8
SUNPOU
370
    -2
100
AcDbLine
 10
276.8467865783782
 20
75.2826092574103
 30
0.0
 11
276.8467865783782
 21
72.2826092574103
 31
0.0
  0
LINE
  5
12BA
330
1222
100
AcDbEntity
  8
SUNPOU
370
    -2
100
AcDbLine
 10
276.8467865783782
 20
83.7826092574103
 30
0.0
 11
276.8467865783782
 21
78.2826092574103
 31
0.0
  0
INSERT
  5
12BB
330
1222
100
AcDbEntity
  8
SUNPOU
370
    -2
100
AcDbBlockReference
  2
_OPEN
 10
276.8467865783782
 20
83.7826092574103
 30
0.0
 41
3.0
 42
3.0
 43
3.0
 50
270.0
  0
INSERT
  5
12BC
330
1222
100
AcDbEntity
  8
SUNPOU
370
    -2
100
AcDbBlockReference
  2
_OPEN
 10
276.8467865783782
 20
78.2826092574103
 30
0.0
 41
3.0
 42
3.0
 43
3.0
 50
90.0
  0
MTEXT
  5
12BD
330
1222
100
AcDbEntity
  8
SUNPOU
100
AcDbMText
 10
274.3467865783782
 20
81.03260925741034
 30
0.0
 40
3.0
 41
0.0
 71
     5
 72
     1
  1
\A1;6
 11
6.123031769111886E-17
 21
1.0
 31
0.0
 73
     1
 44
1.0
  0
POINT
  5
12BE
330
1222
100
AcDbEntity
  8
DEFPOINTS
 62
     0
100
AcDbPoint
 10
294.3467358098012
 20
83.78260925741029
 30
0.0
  0
POINT
  5
12BF
330
1222
100
AcDbEntity
  8
DEFPOINTS
 62
     0
100
AcDbPoint
 10
296.9467357815286
 20
78.28260925741029
 30
0.0
  0
POINT
  5
12C0
330
1222
100
AcDbEntity
  8
DEFPOINTS
 62
     0
100
AcDbPoint
 10
276.8467865783782
 20
78.2826092574103
 30
0.0
  0
ENDBLK
  5
122F
330
1222
100
AcDbEntity
  8
0
100
AcDbBlockEnd
  0
BLOCK
  5
123C
330
1230
100
AcDbEntity
  8
0
100
AcDbBlockBegin
  2
*D14
 70
     1
 71
     0
 10
0.0
 20
0.0
 30
0.0
  3
*D14
  1

  0
LINE
  5
12C1
330
1230
100
AcDbEntity
  8
SUNPOU
370
    -2
100
AcDbLine
 10
293.9467357815286
 20
114.2826092574103
 30
0.0
 11
275.3467865783782
 21
114.2826092574103
 31
0.0
  0
LINE
  5
12C2
330
1230
100
AcDbEntity
  8
SUNPOU
370
    -2
100
AcDbLine
 10
291.3467358098012
 20
108.7826092574103
 30
0.0
 11
275.3467865783782
 21
108.7826092574103
 31
0.0
  0
LINE
  5
12C3
330
1230
100
AcDbEntity
  8
SUNPOU
370
    -2
100
AcDbLine
 10
276.8467865783782
 20
117.2826092574103
 30
0.0
 11
276.8467865783782
 21
120.2826092574103
 31
0.0
  0
LINE
  5
12C4
330
1230
100
AcDbEntity
  8
SUNPOU
370
    -2
100
AcDbLine
 10
276.8467865783782
 20
105.7826092574103
 30
0.0
 11
276.8467865783782
 21
102.7826092574103
 31
0.0
  0
LINE
  5
12C5
330
1230
100
AcDbEntity
  8
SUNPOU
370
    -2
100
AcDbLine
 10
276.8467865783782
 20
114.2826092574103
 30
0.0
 11
276.8467865783782
 21
108.7826092574103
 31
0.0
  0
INSERT
  5
12C6
330
1230
100
AcDbEntity
  8
SUNPOU
370
    -2
100
AcDbBlockReference
  2
_OPEN
 10
276.8467865783782
 20
114.2826092574103
 30
0.0
 41
3.0
 42
3.0
 43
3.0
 50
270.0
  0
INSERT
  5
12C7
330
1230
100
AcDbEntity
  8
SUNPOU
370
    -2
100
AcDbBlockReference
  2
_OPEN
 10
276.8467865783782
 20
108.7826092574103
 30
0.0
 41
3.0
 42
3.0
 43
3.0
 50
90.0
  0
MTEXT
  5
12C8
330
1230
100
AcDbEntity
  8
SUNPOU
100
AcDbMText
 10
274.3467865783782
 20
111.5326092574103
 30
0.0
 40
3.0
 41
0.0
 71
     5
 72
     1
  1
\A1;6
 11
6.123031769111886E-17
 21
1.0
 31
0.0
 73
     1
 44
1.0
  0
POINT
  5
12C9
330
1230
100
AcDbEntity
  8
DEFPOINTS
 62
     0
100
AcDbPoint
 10
296.9467357815286
 20
114.2826092574103
 30
0.0
  0
POINT
  5
12CA
330
1230
100
AcDbEntity
  8
DEFPOINTS
 62
     0
100
AcDbPoint
 10
294.3467358098012
 20
108.7826092574103
 30
0.0
  0
POINT
  5
12CB
330
1230
100
AcDbEntity
  8
DEFPOINTS
 62
     0
100
AcDbPoint
 10
276.8467865783782
 20
108.7826092574103
 30
0.0
  0
ENDBLK
  5
123D
330
1230
100
AcDbEntity
  8
0
100
AcDbBlockEnd
  0
BLOCK
  5
1248
330
123E
100
AcDbEntity
  8
0
100
AcDbBlockBegin
  2
*D15
 70
     1
 71
     0
 10
0.0
 20
0.0
 30
0.0
  3
*D15
  1

  0
LINE
  5
12CC
330
123E
100
AcDbEntity
  8
SUNPOU
370
    -2
100
AcDbLine
 10
348.9467357815286
 20
114.2826092574103
 30
0.0
 11
365.5217421622083
 21
114.2826092574103
 31
0.0
  0
LINE
  5
12CD
330
123E
100
AcDbEntity
  8
SUNPOU
370
    -2
100
AcDbLine
 10
350.9467357815286
 20
100.2826092574103
 30
0.0
 11
365.5217421622083
 21
100.2826092574103
 31
0.0
  0
LINE
  5
12CE
330
123E
100
AcDbEntity
  8
SUNPOU
370
    -2
100
AcDbLine
 10
364.0217421622083
 20
111.2826092574103
 30
0.0
 11
364.0217421622083
 21
103.2826092574103
 31
0.0
  0
INSERT
  5
12CF
330
123E
100
AcDbEntity
  8
SUNPOU
370
    -2
100
AcDbBlockReference
  2
_OPEN
 10
364.0217421622083
 20
114.2826092574103
 30
0.0
 41
3.0
 42
3.0
 43
3.0
 50
90.0
  0
INSERT
  5
12D0
330
123E
100
AcDbEntity
  8
SUNPOU
370
    -2
100
AcDbBlockReference
  2
_OPEN
 10
364.0217421622083
 20
100.2826092574103
 30
0.0
 41
3.0
 42
3.0
 43
3.0
 50
270.0
  0
MTEXT
  5
12D1
330
123E
100
AcDbEntity
  8
SUNPOU
100
AcDbMText
 10
361.5217421622083
 20
107.2826092574103
 30
0.0
 40
3.0
 41
0.0
 71
     5
 72
     1
  1
\A1;14
 11
6.123031769111886E-17
 21
1.0
 31
0.0
 73
     1
 44
1.0
  0
POINT
  5
12D2
330
123E
100
AcDbEntity
  8
DEFPOINTS
 62
     0
100
AcDbPoint
 10
345.9467357815286
 20
114.2826092574103
 30
0.0
  0
POINT
  5
12D3
330
123E
100
AcDbEntity
  8
DEFPOINTS
 62
     0
100
AcDbPoint
 10
347.9467357815286
 20
100.2826092574103
 30
0.0
  0
POINT
  5
12D4
330
123E
100
AcDbEntity
  8
DEFPOINTS
 62
     0
100
AcDbPoint
 10
364.0217421622083
 20
100.2826092574103
 30
0.0
  0
ENDBLK
  5
1249
330
123E
100
AcDbEntity
  8
0
100
AcDbBlockEnd
  0
ENDSEC
  0
SECTION
  2
ENTITIES
  0
LWPOLYLINE
  5
ABF
330
1A
100
AcDbEntity
  8
ZUWAKU
100
AcDbPolyline
 90
        4
 70
     1
 43
0.0
 10
0.3999995171010369
 20
275.3999999613564
 10
0.3999995171010369
 20
0.3999999613564
 10
398.399999517101
 20
0.3999999613564
 10
398.399999517101
 20
275.3999999613564
  0
LWPOLYLINE
  5
AC0
330
1A
100
AcDbEntity
  8
ZUWAKU
100
AcDbPolyline
 90
        4
 70
     1
 43
0.0
 10
0.1999995171010482
 20
275.5999999613564
 10
0.1999995171010482
 20
0.1999999613564114
 10
398.5999995171011
 20
0.1999999613563999
 10
398.5999995171011
 20
275.5999999613564
  0
LWPOLYLINE
  5
AC1
330
1A
100
AcDbEntity
  8
ZUWAKU
100
AcDbPolyline
 90
        4
 70
     1
 43
0.0
 10
-0.0000004828989404
 20
275.7999999613564
 10
-0.0000004828989404
 20
-0.0000000386436341
 10
398.7999995171011
 20
-0.0000000386436003
 10
398.7999995171011
 20
275.7999999613564
  0
LWPOLYLINE
  5
AC2
330
1A
100
AcDbEntity
  8
ZUWAKU
100
AcDbPolyline
 90
        4
 70
     1
 43
0.0
 10
0.2999995171010141
 20
275.4999999613564
 10
0.2999995171010141
 20
0.2999999613563773
 10
398.4999995171012
 20
0.2999999613564004
 10
398.4999995171011
 20
275.4999999613564
  0
LWPOLYLINE
  5
AC3
330
1A
100
AcDbEntity
  8
ZUWAKU
100
AcDbPolyline
 90
        4
 70
     1
 43
0.0
 10
0.0999995171010255
 20
275.6999999613564
 10
0.0999995171010255
 20
0.0999999613563887
 10
398.699999517101
 20
0.0999999613564002
 10
398.6999995171011
 20
275.6999999613564
  0
LINE
  5
AC4
330
1A
100
AcDbEntity
  8
ZUWAKU
100
AcDbLine
 10
-0.0000004828989404
 20
14.99999996135637
 30
0.0
 11
398.699999517101
 21
14.99999996135637
 31
0.0
  0
LINE
  5
AC5
330
1A
100
AcDbEntity
  8
ZUWAKU
100
AcDbLine
 10
-0.0000004828989404
 20
15.09999996135637
 30
0.0
 11
398.699999517101
 21
15.09999996135637
 31
0.0
  0
LINE
  5
AC6
330
1A
100
AcDbEntity
  8
ZUWAKU
100
AcDbLine
 10
-0.0000004828989404
 20
15.19999996135637
 30
0.0
 11
398.699999517101
 21
15.19999996135637
 31
0.0
  0
LINE
  5
AC7
330
1A
100
AcDbEntity
  8
ZUWAKU
100
AcDbLine
 10
-0.0000004828989404
 20
15.29999996135637
 30
0.0
 11
398.699999517101
 21
15.29999996135637
 31
0.0
  0
LINE
  5
AC8
330
1A
100
AcDbEntity
  8
ZUWAKU
100
AcDbLine
 10
-0.0000004828989404
 20
15.39999996135637
 30
0.0
 11
398.699999517101
 21
15.39999996135637
 31
0.0
  0
LINE
  5
AC9
330
1A
100
AcDbEntity
  8
ZUWAKU
100
AcDbLine
 10
104.3233001621351
 20
7.699999961356383
 30
0.0
 11
223.7121815025968
 21
7.699999961356383
 31
0.0
  0
LINE
  5
ACA
330
1A
100
AcDbEntity
  8
ZUWAKU
100
AcDbLine
 10
104.3233001621351
 20
7.799999961356383
 30
0.0
 11
223.7121815025968
 21
7.799999961356386
 31
0.0
  0
LINE
  5
ACB
330
1A
100
AcDbEntity
  8
ZUWAKU
100
AcDbLine
 10
104.3233001621351
 20
7.599999961356385
 30
0.0
 11
223.7121815025968
 21
7.599999961356382
 31
0.0
  0
TEXT
  5
ACC
330
1A
100
AcDbEntity
  8
moji
100
AcDbText
 10
46.47889431118563
 20
6.370589026493747
 30
0.0
 40
3.0
  1
アーバントップΣ９０
 41
0.9
  7
ｽﾀｲﾙ1
100
AcDbText
  0
CIRCLE
  5
ACD
330
1A
100
AcDbEntity
  8
ZUWAKU
100
AcDbCircle
 10
12.99610559449161
 20
7.599999961356367
 30
0.0
 40
0.875
  0
LINE
  5
ACE
330
1A
100
AcDbEntity
  8
ZUWAKU
100
AcDbLine
 10
13.43360559449161
 20
3.574999961356369
 30
0.0
 11
12.47110559449163
 21
3.574999961356369
 31
0.0
  0
LINE
  5
ACF
330
1A
100
AcDbEntity
  8
ZUWAKU
100
AcDbLine
 10
12.47110559449163
 20
4.974999961356367
 30
0.0
 11
13.43360559449161
 21
4.974999961356367
 31
0.0
  0
LINE
  5
AD0
330
1A
100
AcDbEntity
  8
ZUWAKU
100
AcDbLine
 10
13.43360559449161
 20
10.22499996135637
 30
0.0
 11
12.47110559449163
 21
10.22499996135637
 31
0.0
  0
LINE
  5
AD1
330
1A
100
AcDbEntity
  8
ZUWAKU
100
AcDbLine
 10
12.47110559449163
 20
11.62499996135635
 30
0.0
 11
13.43360559449161
 21
11.62499996135637
 31
0.0
  0
HATCH
  5
AD2
330
1A
100
AcDbEntity
  8
ZUWAKU
100
AcDbHatch
 10
0.0
 20
0.0
 30
0.0
210
0.0
220
0.0
230
1.0
  2
ANSI37
 70
     0
 71
     0
 91
        8
 92
        7
 72
     1
 73
     1
 93
       24
 10
7.251130847660988
 20
8.822424201848158
 42
-0.1989123673796348
 10
7.046105594491621
 20
9.317398948678683
 42
0.0
 10
7.046105594491621
 20
9.962499961356372
 42
-0.4142135623730912
 10
7.30860559449161
 20
10.22499996135637
 42
0.0
 10
8.796105594491564
 20
10.22499996135637
 42
0.4142135623731546
 10
9.05860559449161
 20
10.48749996135636
 42
0.0
 10
9.05860559449161
 20
11.36249996135637
 42
0.4142135623731586
 10
8.796105594491564
 20
11.62499996135637
 42
0.0
 10
7.046105594491621
 20
11.62499996135637
 42
0.4142135623730928
 10
5.646105594491644
 20
10.22499996135638
 42
0.0
 10
5.646105594491644
 20
9.317398948678747
 42
0.1989123673796619
 10
6.261181353999859
 20
7.832474708186943
 42
0.0
 10
7.716080341322197
 20
6.377575720864614
 42
-0.1989123673796613
 10
7.921105594491621
 20
5.882600974034022
 42
0.0
 10
7.921105594491621
 20
5.237499961356363
 42
-0.4142135623730911
 10
7.658605594491633
 20
4.974999961356367
 42
0.0
 10
6.171105594491678
 20
4.974999961356367
 42
0.4142135623731526
 10
5.908605594491633
 20
4.712499961356373
 42
0.0
 10
5.908605594491633
 20
3.837499961356363
 42
0.4142135623731526
 10
6.171105594491678
 20
3.574999961356369
 42
0.0
 10
7.921105594491621
 20
3.574999961356369
 42
0.4142135623731044
 10
9.321105594491655
 20
4.974999961356357
 42
0.0
 10
9.321105594491655
 20
5.882600974033993
 42
0.1989123673796604
 10
8.706029834983383
 20
7.367525214525763
 42
0.0
 97
        0
 92
        7
 72
     1
 73
     1
 93
       16
 10
11.77110559449164
 20
9.524999961356372
 42
-0.4142135623730935
 10
12.47110559449163
 20
10.22499996135637
 42
0.0
 10
13.43360559449161
 20
10.22499996135637
 42
0.4142135623731546
 10
13.69610559449166
 20
10.48749996135636
 42
0.0
 10
13.69610559449166
 20
11.36249996135637
 42
0.4142135623730952
 10
13.43360559449167
 20
11.62499996135637
 42
0.0
 10
12.47110559449158
 20
11.62499996135635
 42
0.4142135623730892
 10
10.37110559449161
 20
9.524999961356336
 42
0.0
 10
10.37110559449161
 20
5.674999961356381
 42
0.4142135623730969
 10
12.47110559449163
 20
3.574999961356369
 42
0.0
 10
13.43360559449161
 20
3.574999961356369
 42
0.4142135623731526
 10
13.69610559449166
 20
3.837499961356363
 42
0.0
 10
13.69610559449166
 20
4.712499961356373
 42
0.414213562373089
 10
13.43360559449167
 20
4.974999961356367
 42
0.0
 10
12.47110559449163
 20
4.974999961356367
 42
-0.4142135623730928
 10
11.77110559449164
 20
5.674999961356361
 42
0.0
 97
        0
 92
        7
 72
     1
 73
     1
 93
        2
 10
12.12110559449161
 20
7.599999961356367
 42
1.0
 10
13.87110559449161
 20
7.599999961356367
 42
1.0
 97
        0
 92
        7
 72
     1
 73
     1
 93
       26
 10
18.65742883558062
 20
9.602523558138081
 42
0.0
 10
19.18824865214953
 20
11.28345297727288
 42
0.5069206636600134
 10
18.93793320255185
 20
11.62499996135637
 42
0.0
 10
18.08848851274723
 20
11.62499996135637
 42
0.3272098845218764
 10
17.83817306314955
 20
11.44154694543985
 42
0.0
 10
16.90403812583367
 20
8.483452977272908
 42
-0.3272098845219541
 10
16.65372267623593
 20
8.299999961356367
 42
0.0
 10
16.5836055944917
 20
8.299999961356367
 42
-0.4142135623731526
 10
16.32110559449166
 20
8.562499961356361
 42
0.0
 10
16.32110559449166
 20
11.36249996135637
 42
0.4142135623730952
 10
16.05860559449167
 20
11.62499996135637
 42
0.0
 10
15.18360559449161
 20
11.62499996135637
 42
0.4142135623730872
 10
14.92110559449162
 20
11.36249996135638
 42
0.0
 10
14.92110559449162
 20
3.837499961356363
 42
0.414213562373089
 10
15.18360559449161
 20
3.574999961356369
 42
0.0
 10
16.05860559449161
 20
3.574999961356369
 42
0.4142135623731526
 10
16.32110559449166
 20
3.837499961356363
 42
0.0
 10
16.32110559449166
 20
6.637499961356374
 42
-0.4142135623731526
 10
16.5836055944917
 20
6.899999961356368
 42
0.0
 10
16.65372267623599
 20
6.899999961356368
 42
-0.3272098845218915
 10
16.90403812583367
 20
6.716546945439831
 42
0.0
 10
17.83817306314955
 20
3.758452977272905
 42
0.3272098845218902
 10
18.08848851274723
 20
3.574999961356369
 42
0.0
 10
18.93793320255185
 20
3.574999961356369
 42
0.5069206636600334
 10
19.18824865214953
 20
3.916546945439873
 42
0.0
 10
18.0250529629127
 20
7.599999961356437
 42
0.0
 97
        0
 92
        7
 72
     1
 73
     1
 93
        8
 10
21.74610559449161
 20
11.36249996135637
 42
0.4142135623731546
 10
21.48360559449156
 20
11.62499996135637
 42
0.0
 10
20.60860559449168
 20
11.62499996135637
 42
0.4142135623731506
 10
20.34610559449163
 20
11.36249996135638
 42
0.0
 10
20.34610559449163
 20
3.837499961356363
 42
0.4142135623731526
 10
20.60860559449168
 20
3.574999961356369
 42
0.0
 10
21.48360559449156
 20
3.574999961356369
 42
0.4142135623731526
 10
21.74610559449161
 20
3.837499961356363
 42
0.0
 97
        0
 92
        7
 72
     1
 73
     1
 93
       24
 10
24.19610559449166
 20
9.962499961356372
 42
-0.4142135623731547
 10
24.4586055944917
 20
10.22499996135637
 42
0.0
 10
25.94610559449166
 20
10.22499996135637
 42
0.4142135623730911
 10
26.20860559449164
 20
10.48749996135636
 42
0.0
 10
26.20860559449164
 20
11.36249996135637
 42
0.4142135623730952
 10
25.94610559449166
 20
11.62499996135637
 42
0.0
 10
24.19610559449166
 20
11.62499996135637
 42
0.4142135623731048
 10
22.79610559449162
 20
10.22499996135638
 42
0.0
 10
22.79610559449162
 20
9.317398948678747
 42
0.1989123673796613
 10
23.41118135399989
 20
7.832474708186972
 42
0.0
 10
24.86608034132223
 20
6.377575720864638
 42
-0.1989123673796402
 10
25.07110559449166
 20
5.882600974034101
 42
0.0
 10
25.07110559449166
 20
5.237499961356363
 42
-0.4142135623730911
 10
24.80860559449167
 20
4.974999961356367
 42
0.0
 10
23.32110559449166
 20
4.974999961356367
 42
0.4142135623731526
 10
23.05860559449161
 20
4.712499961356373
 42
0.0
 10
23.05860559449161
 20
3.837499961356363
 42
0.414213562373089
 10
23.3211055944916
 20
3.574999961356369
 42
0.0
 10
25.07110559449166
 20
3.574999961356369
 42
0.4142135623730925
 10
26.47110559449163
 20
4.974999961356357
 42
0.0
 10
26.47110559449163
 20
5.882600974033993
 42
0.1989123673796675
 10
25.85602983498336
 20
7.36752521452582
 42
0.0
 10
24.40113084766108
 20
8.822424201848078
 42
-0.1989123673796653
 10
24.19610559449166
 20
9.317398948678662
 42
0.0
 97
        0
 92
        7
 72
     1
 73
     1
 93
       16
 10
28.92110559449162
 20
11.36249996135636
 42
0.414213562373103
 10
28.65860559449163
 20
11.62499996135637
 42
0.0
 10
27.78360559449163
 20
11.62499996135637
 42
0.4142135623730872
 10
27.52110559449164
 20
11.36249996135638
 42
0.0
 10
27.52110559449164
 20
4.974999961356357
 42
0.4142135623730925
 10
28.92110559449162
 20
3.574999961356369
 42
0.0
 10
30.67110559449162
 20
3.574999961356369
 42
0.4142135623731044
 10
32.07110559449166
 20
4.974999961356357
 42
0.0
 10
32.07110559449166
 20
11.36249996135637
 42
0.4142135623730952
 10
31.80860559449167
 20
11.62499996135637
 42
0.0
 10
30.93360559449161
 20
11.62499996135637
 42
0.4142135623730872
 10
30.67110559449162
 20
11.36249996135638
 42
0.0
 10
30.67110559449162
 20
5.499999961356355
 42
-0.414213562373088
 10
30.14610559449164
 20
4.974999961356367
 42
0.0
 10
29.44610559449166
 20
4.974999961356367
 42
-0.4142135623731197
 10
28.92110559449162
 20
5.499999961356355
 42
0.0
 97
        0
 92
        7
 72
     1
 73
     1
 93
        8
 10
34.52110559449164
 20
11.36249996135638
 42
0.4142135623730872
 10
34.25860559449166
 20
11.62499996135637
 42
0.0
 10
33.38360559449166
 20
11.62499996135637
 42
0.4142135623731506
 10
33.12110559449161
 20
11.36249996135638
 42
0.0
 10
33.12110559449161
 20
3.837499961356363
 42
0.414213562373089
 10
33.3836055944916
 20
3.574999961356369
 42
0.0
 10
34.25860559449166
 20
3.574999961356369
 42
0.414213562373089
 10
34.52110559449164
 20
3.837499961356363
 42
0.0
 97
        0
 75
     0
 76
     1
 52
0.0
 41
0.1
 77
     0
 78
     2
 53
45.0
 43
-450.4711526502384
 44
-6.6000000386436
 45
-0.2245064030267288
 46
0.2245064030267289
 79
     0
 53
135.0
 43
-450.4711526502384
 44
-6.6000000386436
 45
-0.2245064030267289
 46
-0.2245064030267288
 79
     0
 47
0.057451373970553
 98
        8
 10
8.039926998612714
 20
7.583586784299143
 10
11.20225702032064
 20
9.422031052581872
 10
12.58218345993089
 20
7.755940784391726
 10
15.45702950791963
 20
8.100648784577118
 10
20.91923552657943
 20
8.330454918347925
 10
23.44909996466583
 20
9.709288119559972
 10
28.27884250330124
 20
9.364578918903874
 10
33.91353932691243
 20
9.594385052674681
  0
ARC
  5
AD3
330
1A
100
AcDbEntity
  8
ZUWAKU
100
AcDbCircle
 10
7.74610559449161
 20
9.317398948678719
 30
0.0
 40
2.1
100
AcDbArc
 50
180.0
 51
225.0
  0
LINE
  5
AD4
330
1A
100
AcDbEntity
  8
ZUWAKU
100
AcDbLine
 10
10.37110559449161
 20
5.67499996135637
 30
0.0
 11
10.37110559449161
 21
9.524999961356347
 31
0.0
  0
LINE
  5
AD5
330
1A
100
AcDbEntity
  8
ZUWAKU
100
AcDbLine
 10
11.77110559449164
 20
9.524999961356368
 30
0.0
 11
11.77110559449164
 21
5.67499996135637
 31
0.0
  0
ARC
  5
AD6
330
1A
100
AcDbEntity
  8
ZUWAKU
100
AcDbCircle
 10
7.74610559449161
 20
9.317398948678719
 30
0.0
 40
0.7
100
AcDbArc
 50
180.0000000000016
 51
224.9999999999988
  0
ARC
  5
AD7
330
1A
100
AcDbEntity
  8
ZUWAKU
100
AcDbCircle
 10
12.47110559449163
 20
5.67499996135637
 30
0.0
 40
2.1
100
AcDbArc
 50
180.0
 51
270.0
  0
ARC
  5
AD8
330
1A
100
AcDbEntity
  8
ZUWAKU
100
AcDbCircle
 10
7.921105594491621
 20
4.974999961356367
 30
0.0
 40
1.4
100
AcDbArc
 50
270.0
 51
0.0
  0
ARC
  5
AD9
330
1A
100
AcDbEntity
  8
ZUWAKU
100
AcDbCircle
 10
7.221105594491633
 20
5.88260097403402
 30
0.0
 40
2.1
100
AcDbArc
 50
0.0
 51
45.0
  0
LINE
  5
ADA
330
1A
100
AcDbEntity
  8
ZUWAKU
100
AcDbLine
 10
6.261181353999859
 20
7.832474708186958
 30
0.0
 11
7.716080341322197
 21
6.377575720864627
 31
0.0
  0
LINE
  5
ADB
330
1A
100
AcDbEntity
  8
ZUWAKU
100
AcDbLine
 10
6.171105594491621
 20
4.974999961356367
 30
0.0
 11
7.658605594491633
 21
4.974999961356367
 31
0.0
  0
LINE
  5
ADC
330
1A
100
AcDbEntity
  8
ZUWAKU
100
AcDbLine
 10
6.171105594491621
 20
3.574999961356369
 30
0.0
 11
7.921105594491621
 21
3.574999961356369
 31
0.0
  0
ARC
  5
ADD
330
1A
100
AcDbEntity
  8
ZUWAKU
100
AcDbCircle
 10
6.171105594491621
 20
4.712499961356368
 30
0.0
 40
0.2625
100
AcDbArc
 50
90.0
 51
180.0
  0
ARC
  5
ADE
330
1A
100
AcDbEntity
  8
ZUWAKU
100
AcDbCircle
 10
6.171105594491621
 20
3.837499961356368
 30
0.0
 40
0.2625
100
AcDbArc
 50
180.0
 51
270.0
  0
LINE
  5
ADF
330
1A
100
AcDbEntity
  8
ZUWAKU
100
AcDbLine
 10
5.908605594491633
 20
3.837499961356368
 30
0.0
 11
5.908605594491633
 21
4.712499961356368
 31
0.0
  0
ARC
  5
AE0
330
1A
100
AcDbEntity
  8
ZUWAKU
100
AcDbCircle
 10
7.221105594491633
 20
5.882600974034041
 30
0.0
 40
0.7
100
AcDbArc
 50
0.0
 51
45.0
  0
ARC
  5
AE1
330
1A
100
AcDbEntity
  8
ZUWAKU
100
AcDbCircle
 10
7.658605594491633
 20
5.23749996135637
 30
0.0
 40
0.2625
100
AcDbArc
 50
270.0
 51
0.0
  0
LINE
  5
AE2
330
1A
100
AcDbEntity
  8
ZUWAKU
100
AcDbLine
 10
7.921105594491621
 20
5.23749996135637
 30
0.0
 11
7.921105594491621
 21
5.882600974034041
 31
0.0
  0
LINE
  5
AE3
330
1A
100
AcDbEntity
  8
ZUWAKU
100
AcDbLine
 10
8.706029834983383
 20
7.367525214525781
 30
0.0
 11
7.251130847661045
 21
8.822424201848119
 31
0.0
  0
ARC
  5
AE4
330
1A
100
AcDbEntity
  8
ZUWAKU
100
AcDbCircle
 10
12.47110559449163
 20
5.67499996135637
 30
0.0
 40
0.7
100
AcDbArc
 50
180.0
 51
270.0
  0
LINE
  5
AE5
330
1A
100
AcDbEntity
  8
ZUWAKU
100
AcDbLine
 10
9.321105594491655
 20
4.974999961356367
 30
0.0
 11
9.321105594491655
 21
5.882600974034041
 31
0.0
  0
ARC
  5
AE6
330
1A
100
AcDbEntity
  8
ZUWAKU
100
AcDbCircle
 10
8.796105594491621
 20
10.48749996135637
 30
0.0
 40
0.2625
100
AcDbArc
 50
270.0
 51
0.0
  0
ARC
  5
AE7
330
1A
100
AcDbEntity
  8
ZUWAKU
100
AcDbCircle
 10
8.796105594491621
 20
11.36249996135637
 30
0.0
 40
0.2625
100
AcDbArc
 50
0.0
 51
90.0
  0
ARC
  5
AE8
330
1A
100
AcDbEntity
  8
ZUWAKU
100
AcDbCircle
 10
7.046105594491621
 20
10.22499996135637
 30
0.0
 40
1.4
100
AcDbArc
 50
90.0
 51
180.0
  0
LINE
  5
AE9
330
1A
100
AcDbEntity
  8
ZUWAKU
100
AcDbLine
 10
5.646105594491644
 20
10.22499996135637
 30
0.0
 11
5.646105594491644
 21
9.317398948678697
 31
0.0
  0
LINE
  5
AEA
330
1A
100
AcDbEntity
  8
ZUWAKU
100
AcDbLine
 10
8.796105594491621
 20
10.22499996135637
 30
0.0
 11
7.30860559449161
 21
10.22499996135637
 31
0.0
  0
LINE
  5
AEB
330
1A
100
AcDbEntity
  8
ZUWAKU
100
AcDbLine
 10
7.046105594491621
 20
9.962499961356368
 30
0.0
 11
7.046105594491621
 21
9.317398948678697
 31
0.0
  0
ARC
  5
AEC
330
1A
100
AcDbEntity
  8
ZUWAKU
100
AcDbCircle
 10
7.30860559449161
 20
9.962499961356368
 30
0.0
 40
0.2625
100
AcDbArc
 50
90.0
 51
180.0
  0
LINE
  5
AED
330
1A
100
AcDbEntity
  8
ZUWAKU
100
AcDbLine
 10
7.046105594491621
 20
11.62499996135637
 30
0.0
 11
8.796105594491621
 21
11.62499996135637
 31
0.0
  0
ARC
  5
AEE
330
1A
100
AcDbEntity
  8
ZUWAKU
100
AcDbCircle
 10
12.47110559449163
 20
9.524999961356347
 30
0.0
 40
2.1
100
AcDbArc
 50
90.0
 51
180.0
  0
ARC
  5
AEF
330
1A
100
AcDbEntity
  8
ZUWAKU
100
AcDbCircle
 10
12.47110559449163
 20
9.524999961356368
 30
0.0
 40
0.7
100
AcDbArc
 50
90.0
 51
180.0
  0
LINE
  5
AF0
330
1A
100
AcDbEntity
  8
ZUWAKU
100
AcDbLine
 10
9.05860559449161
 20
11.36249996135637
 30
0.0
 11
9.05860559449161
 21
10.48749996135637
 31
0.0
  0
LINE
  5
AF1
330
1A
100
AcDbEntity
  8
ZUWAKU
100
AcDbLine
 10
17.83817306314955
 20
11.44154694543985
 30
0.0
 11
16.90403812583367
 21
8.483452977272883
 31
0.0
  0
LINE
  5
AF2
330
1A
100
AcDbEntity
  8
ZUWAKU
100
AcDbLine
 10
14.92110559449162
 20
11.36249996135637
 30
0.0
 11
14.92110559449162
 21
3.837499961356368
 31
0.0
  0
LINE
  5
AF3
330
1A
100
AcDbEntity
  8
ZUWAKU
100
AcDbLine
 10
16.32110559449166
 20
8.56249996135637
 30
0.0
 11
16.32110559449166
 21
11.36249996135637
 31
0.0
  0
LINE
  5
AF4
330
1A
100
AcDbEntity
  8
ZUWAKU
100
AcDbLine
 10
28.92110559449162
 20
5.499999961356366
 30
0.0
 11
28.92110559449162
 21
11.36249996135637
 31
0.0
  0
LINE
  5
AF5
330
1A
100
AcDbEntity
  8
ZUWAKU
100
AcDbLine
 10
27.52110559449164
 20
11.36249996135637
 30
0.0
 11
27.52110559449164
 21
4.974999961356367
 31
0.0
  0
LINE
  5
AF6
330
1A
100
AcDbEntity
  8
ZUWAKU
100
AcDbLine
 10
21.74610559449161
 20
3.837499961356368
 30
0.0
 11
21.74610559449161
 21
11.36249996135637
 31
0.0
  0
LINE
  5
AF7
330
1A
100
AcDbEntity
  8
ZUWAKU
100
AcDbLine
 10
20.34610559449163
 20
11.36249996135637
 30
0.0
 11
20.34610559449163
 21
3.837499961356368
 31
0.0
  0
LINE
  5
AF8
330
1A
100
AcDbEntity
  8
ZUWAKU
100
AcDbLine
 10
18.65742883558062
 20
9.602523558138081
 30
0.0
 11
18.0250529629127
 21
7.599999961356378
 31
0.0
  0
ARC
  5
AF9
330
1A
100
AcDbEntity
  8
ZUWAKU
100
AcDbCircle
 10
24.89610559449164
 20
9.317398948678719
 30
0.0
 40
2.1
100
AcDbArc
 50
180.0
 51
225.0
  0
ARC
  5
AFA
330
1A
100
AcDbEntity
  8
ZUWAKU
100
AcDbCircle
 10
24.89610559449164
 20
9.317398948678719
 30
0.0
 40
0.7
100
AcDbArc
 50
180.0000000000016
 51
224.9999999999988
  0
LINE
  5
AFB
330
1A
100
AcDbEntity
  8
ZUWAKU
100
AcDbLine
 10
33.12110559449161
 20
11.36249996135637
 30
0.0
 11
33.12110559449161
 21
3.837499961356368
 31
0.0
  0
LINE
  5
AFC
330
1A
100
AcDbEntity
  8
ZUWAKU
100
AcDbLine
 10
34.52110559449164
 20
3.837499961356368
 30
0.0
 11
34.52110559449164
 21
11.36249996135637
 31
0.0
  0
LINE
  5
AFD
330
1A
100
AcDbEntity
  8
ZUWAKU
100
AcDbLine
 10
30.67110559449162
 20
11.36249996135637
 30
0.0
 11
30.67110559449162
 21
5.499999961356366
 31
0.0
  0
LINE
  5
AFE
330
1A
100
AcDbEntity
  8
ZUWAKU
100
AcDbLine
 10
32.07110559449166
 20
4.974999961356367
 30
0.0
 11
32.07110559449166
 21
11.36249996135637
 31
0.0
  0
LINE
  5
AFF
330
1A
100
AcDbEntity
  8
ZUWAKU
100
AcDbLine
 10
39.56331429109525
 20
14.99999996135637
 30
0.0
 11
39.56331429109525
 21
0.3999999613564
 31
0.0
  0
LINE
  5
B00
330
1A
100
AcDbEntity
  8
ZUWAKU
100
AcDbLine
 10
39.76331429109519
 20
14.99999996135637
 30
0.0
 11
39.7633142910953
 21
0.3999999613564
 31
0.0
  0
LINE
  5
B01
330
1A
100
AcDbEntity
  8
ZUWAKU
100
AcDbLine
 10
39.66331429109516
 20
14.99999996135637
 30
0.0
 11
39.66331429109528
 21
0.3999999613564
 31
0.0
  0
LINE
  5
B02
330
1A
100
AcDbEntity
  8
ZUWAKU
100
AcDbLine
 10
28.92110559449162
 20
3.574999961356369
 30
0.0
 11
30.67110559449162
 21
3.574999961356369
 31
0.0
  0
LINE
  5
B03
330
1A
100
AcDbEntity
  8
ZUWAKU
100
AcDbLine
 10
30.14610559449164
 20
4.974999961356367
 30
0.0
 11
29.44610559449166
 21
4.974999961356367
 31
0.0
  0
LINE
  5
B04
330
1A
100
AcDbEntity
  8
ZUWAKU
100
AcDbLine
 10
20.60860559449162
 20
3.574999961356369
 30
0.0
 11
21.48360559449162
 21
3.574999961356369
 31
0.0
  0
LINE
  5
B05
330
1A
100
AcDbEntity
  8
ZUWAKU
100
AcDbLine
 10
17.83817306314955
 20
3.758452977272881
 30
0.0
 11
16.90403812583367
 21
6.716546945439852
 31
0.0
  0
ARC
  5
B06
330
1A
100
AcDbEntity
  8
ZUWAKU
100
AcDbCircle
 10
16.58360559449164
 20
6.637499961356369
 30
0.0
 40
0.2625
100
AcDbArc
 50
90.0
 51
180.0
  0
ARC
  5
B07
330
1A
100
AcDbEntity
  8
ZUWAKU
100
AcDbCircle
 10
16.65372267623599
 20
6.637499961356369
 30
0.0
 40
0.2625
100
AcDbArc
 50
17.52556837372303
 51
90.0
  0
ARC
  5
B08
330
1A
100
AcDbEntity
  8
ZUWAKU
100
AcDbCircle
 10
15.18360559449161
 20
3.837499961356368
 30
0.0
 40
0.2625
100
AcDbArc
 50
180.0
 51
270.0
  0
ARC
  5
B09
330
1A
100
AcDbEntity
  8
ZUWAKU
100
AcDbCircle
 10
13.43360559449161
 20
4.712499961356368
 30
0.0
 40
0.2625
100
AcDbArc
 50
0.0
 51
90.0
  0
ARC
  5
B0A
330
1A
100
AcDbEntity
  8
ZUWAKU
100
AcDbCircle
 10
13.43360559449161
 20
3.837499961356368
 30
0.0
 40
0.2625
100
AcDbArc
 50
270.0
 51
0.0
  0
LINE
  5
B0B
330
1A
100
AcDbEntity
  8
ZUWAKU
100
AcDbLine
 10
13.69610559449166
 20
4.712499961356368
 30
0.0
 11
13.69610559449166
 21
3.837499961356368
 31
0.0
  0
LINE
  5
B0C
330
1A
100
AcDbEntity
  8
ZUWAKU
100
AcDbLine
 10
16.32110559449166
 20
3.837499961356368
 30
0.0
 11
16.32110559449166
 21
6.637499961356369
 31
0.0
  0
ARC
  5
B0D
330
1A
100
AcDbEntity
  8
ZUWAKU
100
AcDbCircle
 10
16.05860559449161
 20
3.837499961356368
 30
0.0
 40
0.2625
100
AcDbArc
 50
270.0
 51
0.0
  0
LINE
  5
B0E
330
1A
100
AcDbEntity
  8
ZUWAKU
100
AcDbLine
 10
15.18360559449161
 20
3.574999961356369
 30
0.0
 11
16.05860559449161
 21
3.574999961356369
 31
0.0
  0
ARC
  5
B0F
330
1A
100
AcDbEntity
  8
ZUWAKU
100
AcDbCircle
 10
16.58360559449164
 20
8.56249996135637
 30
0.0
 40
0.2625
100
AcDbArc
 50
180.0
 51
270.0
  0
LINE
  5
B10
330
1A
100
AcDbEntity
  8
ZUWAKU
100
AcDbLine
 10
16.58360559449164
 20
6.899999961356368
 30
0.0
 11
16.65372267623599
 21
6.899999961356368
 31
0.0
  0
LINE
  5
B11
330
1A
100
AcDbEntity
  8
ZUWAKU
100
AcDbLine
 10
16.65372267623599
 20
8.299999961356367
 30
0.0
 11
16.58360559449164
 21
8.299999961356367
 31
0.0
  0
ARC
  5
B12
330
1A
100
AcDbEntity
  8
ZUWAKU
100
AcDbCircle
 10
16.65372267623599
 20
8.56249996135637
 30
0.0
 40
0.2625
100
AcDbArc
 50
270.0
 51
342.474431626277
  0
ARC
  5
B13
330
1A
100
AcDbEntity
  8
ZUWAKU
100
AcDbCircle
 10
18.08848851274729
 20
3.837499961356368
 30
0.0
 40
0.2625
100
AcDbArc
 50
197.525568373723
 51
270.0
  0
LINE
  5
B14
330
1A
100
AcDbEntity
  8
ZUWAKU
100
AcDbLine
 10
19.18824865214953
 20
3.916546945439855
 30
0.0
 11
18.0250529629127
 21
7.599999961356378
 31
0.0
  0
ARC
  5
B15
330
1A
100
AcDbEntity
  8
ZUWAKU
100
AcDbCircle
 10
18.93793320255179
 20
3.837499961356368
 30
0.0
 40
0.2625
100
AcDbArc
 50
270.0
 51
17.52556837372303
  0
LINE
  5
B16
330
1A
100
AcDbEntity
  8
ZUWAKU
100
AcDbLine
 10
18.08848851274729
 20
3.574999961356369
 30
0.0
 11
18.93793320255179
 21
3.574999961356369
 31
0.0
  0
ARC
  5
B17
330
1A
100
AcDbEntity
  8
ZUWAKU
100
AcDbCircle
 10
20.60860559449162
 20
3.837499961356368
 30
0.0
 40
0.2625
100
AcDbArc
 50
180.0
 51
270.0
  0
ARC
  5
B18
330
1A
100
AcDbEntity
  8
ZUWAKU
100
AcDbCircle
 10
25.07110559449166
 20
4.974999961356367
 30
0.0
 40
1.4
100
AcDbArc
 50
270.0
 51
0.0
  0
ARC
  5
B19
330
1A
100
AcDbEntity
  8
ZUWAKU
100
AcDbCircle
 10
28.92110559449162
 20
4.974999961356367
 30
0.0
 40
1.4
100
AcDbArc
 50
180.0
 51
270.0
  0
LINE
  5
B1A
330
1A
100
AcDbEntity
  8
ZUWAKU
100
AcDbLine
 10
25.85602983498342
 20
7.367525214525781
 30
0.0
 11
24.40113084766102
 21
8.822424201848119
 31
0.0
  0
LINE
  5
B1B
330
1A
100
AcDbEntity
  8
ZUWAKU
100
AcDbLine
 10
23.41118135399989
 20
7.832474708186958
 30
0.0
 11
24.86608034132223
 21
6.377575720864627
 31
0.0
  0
LINE
  5
B1C
330
1A
100
AcDbEntity
  8
ZUWAKU
100
AcDbLine
 10
23.32110559449166
 20
3.574999961356369
 30
0.0
 11
25.07110559449166
 21
3.574999961356369
 31
0.0
  0
LINE
  5
B1D
330
1A
100
AcDbEntity
  8
ZUWAKU
100
AcDbLine
 10
23.32110559449166
 20
4.974999961356367
 30
0.0
 11
24.80860559449161
 21
4.974999961356367
 31
0.0
  0
ARC
  5
B1E
330
1A
100
AcDbEntity
  8
ZUWAKU
100
AcDbCircle
 10
23.32110559449166
 20
4.712499961356368
 30
0.0
 40
0.2625
100
AcDbArc
 50
90.0
 51
180.0
  0
ARC
  5
B1F
330
1A
100
AcDbEntity
  8
ZUWAKU
100
AcDbCircle
 10
21.48360559449162
 20
3.837499961356368
 30
0.0
 40
0.2625
100
AcDbArc
 50
270.0
 51
0.0
  0
ARC
  5
B20
330
1A
100
AcDbEntity
  8
ZUWAKU
100
AcDbCircle
 10
23.32110559449166
 20
3.837499961356368
 30
0.0
 40
0.2625
100
AcDbArc
 50
180.0
 51
270.0
  0
LINE
  5
B21
330
1A
100
AcDbEntity
  8
ZUWAKU
100
AcDbLine
 10
23.05860559449161
 20
3.837499961356368
 30
0.0
 11
23.05860559449161
 21
4.712499961356368
 31
0.0
  0
ARC
  5
B22
330
1A
100
AcDbEntity
  8
ZUWAKU
100
AcDbCircle
 10
24.80860559449161
 20
5.23749996135637
 30
0.0
 40
0.2625
100
AcDbArc
 50
270.0
 51
0.0
  0
ARC
  5
B23
330
1A
100
AcDbEntity
  8
ZUWAKU
100
AcDbCircle
 10
24.37110559449161
 20
5.882600974034041
 30
0.0
 40
0.7
100
AcDbArc
 50
0.0
 51
45.0
  0
LINE
  5
B24
330
1A
100
AcDbEntity
  8
ZUWAKU
100
AcDbLine
 10
25.07110559449166
 20
5.23749996135637
 30
0.0
 11
25.07110559449166
 21
5.882600974034041
 31
0.0
  0
ARC
  5
B25
330
1A
100
AcDbEntity
  8
ZUWAKU
100
AcDbCircle
 10
29.44610559449166
 20
5.499999961356366
 30
0.0
 40
0.5249999999999999
100
AcDbArc
 50
180.0
 51
270.0
  0
ARC
  5
B26
330
1A
100
AcDbEntity
  8
ZUWAKU
100
AcDbCircle
 10
24.37110559449161
 20
5.88260097403402
 30
0.0
 40
2.1
100
AcDbArc
 50
0.0
 51
45.0
  0
LINE
  5
B27
330
1A
100
AcDbEntity
  8
ZUWAKU
100
AcDbLine
 10
26.47110559449163
 20
4.974999961356367
 30
0.0
 11
26.47110559449163
 21
5.882600974034041
 31
0.0
  0
ARC
  5
B28
330
1A
100
AcDbEntity
  8
ZUWAKU
100
AcDbCircle
 10
30.67110559449162
 20
4.974999961356367
 30
0.0
 40
1.4
100
AcDbArc
 50
270.0
 51
0.0
  0
LINE
  5
B29
330
1A
100
AcDbEntity
  8
ZUWAKU
100
AcDbLine
 10
33.38360559449166
 20
3.574999961356369
 30
0.0
 11
34.25860559449166
 21
3.574999961356369
 31
0.0
  0
ARC
  5
B2A
330
1A
100
AcDbEntity
  8
ZUWAKU
100
AcDbCircle
 10
30.14610559449164
 20
5.499999961356366
 30
0.0
 40
0.5249999999999999
100
AcDbArc
 50
270.0
 51
0.0
  0
ARC
  5
B2B
330
1A
100
AcDbEntity
  8
ZUWAKU
100
AcDbCircle
 10
33.38360559449166
 20
3.837499961356368
 30
0.0
 40
0.2625
100
AcDbArc
 50
180.0
 51
270.0
  0
ARC
  5
B2C
330
1A
100
AcDbEntity
  8
ZUWAKU
100
AcDbCircle
 10
34.25860559449166
 20
3.837499961356368
 30
0.0
 40
0.2625
100
AcDbArc
 50
270.0
 51
0.0
  0
LINE
  5
B2D
330
1A
100
AcDbEntity
  8
ZUWAKU
100
AcDbLine
 10
21.48360559449162
 20
11.62499996135637
 30
0.0
 11
20.60860559449162
 21
11.62499996135637
 31
0.0
  0
LINE
  5
B2E
330
1A
100
AcDbEntity
  8
ZUWAKU
100
AcDbLine
 10
13.69610559449166
 20
11.36249996135637
 30
0.0
 11
13.69610559449166
 21
10.48749996135637
 31
0.0
  0
ARC
  5
B2F
330
1A
100
AcDbEntity
  8
ZUWAKU
100
AcDbCircle
 10
13.43360559449161
 20
10.48749996135637
 30
0.0
 40
0.2625
100
AcDbArc
 50
270.0
 51
0.0
  0
ARC
  5
B30
330
1A
100
AcDbEntity
  8
ZUWAKU
100
AcDbCircle
 10
15.18360559449161
 20
11.36249996135637
 30
0.0
 40
0.2625
100
AcDbArc
 50
90.0
 51
180.0
  0
ARC
  5
B31
330
1A
100
AcDbEntity
  8
ZUWAKU
100
AcDbCircle
 10
13.43360559449161
 20
11.36249996135637
 30
0.0
 40
0.2625
100
AcDbArc
 50
0.0
 51
90.0
  0
LINE
  5
B32
330
1A
100
AcDbEntity
  8
ZUWAKU
100
AcDbLine
 10
16.05860559449161
 20
11.62499996135637
 30
0.0
 11
15.18360559449161
 21
11.62499996135637
 31
0.0
  0
ARC
  5
B33
330
1A
100
AcDbEntity
  8
ZUWAKU
100
AcDbCircle
 10
16.05860559449161
 20
11.36249996135637
 30
0.0
 40
0.2625
100
AcDbArc
 50
0.0
 51
90.0
  0
ARC
  5
B34
330
1A
100
AcDbEntity
  8
ZUWAKU
100
AcDbCircle
 10
18.08848851274729
 20
11.36249996135637
 30
0.0
 40
0.2625
100
AcDbArc
 50
90.0
 51
162.474431626277
  0
LINE
  5
B35
330
1A
100
AcDbEntity
  8
ZUWAKU
100
AcDbLine
 10
19.18824865214953
 20
11.28345297727288
 30
0.0
 11
18.65742883558062
 21
9.602523558138081
 31
0.0
  0
ARC
  5
B36
330
1A
100
AcDbEntity
  8
ZUWAKU
100
AcDbCircle
 10
18.93793320255179
 20
11.36249996135637
 30
0.0
 40
0.2625
100
AcDbArc
 50
342.474431626277
 51
90.0
  0
LINE
  5
B37
330
1A
100
AcDbEntity
  8
ZUWAKU
100
AcDbLine
 10
18.08848851274729
 20
11.62499996135637
 30
0.0
 11
18.93793320255179
 21
11.62499996135637
 31
0.0
  0
ARC
  5
B38
330
1A
100
AcDbEntity
  8
ZUWAKU
100
AcDbCircle
 10
20.60860559449162
 20
11.36249996135637
 30
0.0
 40
0.2625
100
AcDbArc
 50
90.0
 51
180.0
  0
LINE
  5
B39
330
1A
100
AcDbEntity
  8
ZUWAKU
100
AcDbLine
 10
25.94610559449166
 20
10.22499996135637
 30
0.0
 11
24.45860559449164
 21
10.22499996135637
 31
0.0
  0
LINE
  5
B3A
330
1A
100
AcDbEntity
  8
ZUWAKU
100
AcDbLine
 10
24.19610559449166
 20
11.62499996135637
 30
0.0
 11
25.94610559449166
 21
11.62499996135637
 31
0.0
  0
ARC
  5
B3B
330
1A
100
AcDbEntity
  8
ZUWAKU
100
AcDbCircle
 10
24.19610559449166
 20
10.22499996135637
 30
0.0
 40
1.4
100
AcDbArc
 50
90.0
 51
180.0
  0
LINE
  5
B3C
330
1A
100
AcDbEntity
  8
ZUWAKU
100
AcDbLine
 10
22.79610559449162
 20
10.22499996135637
 30
0.0
 11
22.79610559449162
 21
9.317398948678697
 31
0.0
  0
ARC
  5
B3D
330
1A
100
AcDbEntity
  8
ZUWAKU
100
AcDbCircle
 10
21.48360559449162
 20
11.36249996135637
 30
0.0
 40
0.2625
100
AcDbArc
 50
0.0
 51
90.0
  0
LINE
  5
B3E
330
1A
100
AcDbEntity
  8
ZUWAKU
100
AcDbLine
 10
24.19610559449166
 20
9.962499961356368
 30
0.0
 11
24.19610559449166
 21
9.317398948678697
 31
0.0
  0
ARC
  5
B3F
330
1A
100
AcDbEntity
  8
ZUWAKU
100
AcDbCircle
 10
24.45860559449164
 20
9.962499961356368
 30
0.0
 40
0.2625
100
AcDbArc
 50
90.0
 51
180.0
  0
LINE
  5
B40
330
1A
100
AcDbEntity
  8
ZUWAKU
100
AcDbLine
 10
26.20860559449164
 20
11.36249996135637
 30
0.0
 11
26.20860559449164
 21
10.48749996135637
 31
0.0
  0
ARC
  5
B41
330
1A
100
AcDbEntity
  8
ZUWAKU
100
AcDbCircle
 10
25.94610559449166
 20
10.48749996135637
 30
0.0
 40
0.2625
100
AcDbArc
 50
270.0
 51
0.0
  0
ARC
  5
B42
330
1A
100
AcDbEntity
  8
ZUWAKU
100
AcDbCircle
 10
25.94610559449166
 20
11.36249996135637
 30
0.0
 40
0.2625
100
AcDbArc
 50
0.0
 51
90.0
  0
LINE
  5
B43
330
1A
100
AcDbEntity
  8
ZUWAKU
100
AcDbLine
 10
28.65860559449163
 20
11.62499996135637
 30
0.0
 11
27.78360559449163
 21
11.62499996135637
 31
0.0
  0
ARC
  5
B44
330
1A
100
AcDbEntity
  8
ZUWAKU
100
AcDbCircle
 10
27.78360559449163
 20
11.36249996135637
 30
0.0
 40
0.2625
100
AcDbArc
 50
90.0
 51
180.0
  0
ARC
  5
B45
330
1A
100
AcDbEntity
  8
ZUWAKU
100
AcDbCircle
 10
28.65860559449163
 20
11.36249996135637
 30
0.0
 40
0.2625
100
AcDbArc
 50
0.0
 51
90.0
  0
LINE
  5
B46
330
1A
100
AcDbEntity
  8
ZUWAKU
100
AcDbLine
 10
34.25860559449166
 20
11.62499996135637
 30
0.0
 11
33.38360559449166
 21
11.62499996135637
 31
0.0
  0
ARC
  5
B47
330
1A
100
AcDbEntity
  8
ZUWAKU
100
AcDbCircle
 10
30.93360559449161
 20
11.36249996135637
 30
0.0
 40
0.2625
100
AcDbArc
 50
90.0
 51
180.0
  0
LINE
  5
B48
330
1A
100
AcDbEntity
  8
ZUWAKU
100
AcDbLine
 10
31.80860559449161
 20
11.62499996135637
 30
0.0
 11
30.93360559449161
 21
11.62499996135637
 31
0.0
  0
ARC
  5
B49
330
1A
100
AcDbEntity
  8
ZUWAKU
100
AcDbCircle
 10
31.80860559449161
 20
11.36249996135637
 30
0.0
 40
0.2625
100
AcDbArc
 50
0.0
 51
90.0
  0
ARC
  5
B4A
330
1A
100
AcDbEntity
  8
ZUWAKU
100
AcDbCircle
 10
33.38360559449166
 20
11.36249996135637
 30
0.0
 40
0.2625
100
AcDbArc
 50
90.0
 51
180.0
  0
ARC
  5
B4B
330
1A
100
AcDbEntity
  8
ZUWAKU
100
AcDbCircle
 10
34.25860559449166
 20
11.36249996135637
 30
0.0
 40
0.2625
100
AcDbArc
 50
0.0
 51
90.0
  0
LINE
  5
B4C
330
1A
100
AcDbEntity
  8
ZUWAKU
100
AcDbLine
 10
104.2233001621349
 20
14.99999996135637
 30
0.0
 11
104.2233001621351
 21
0.3999999613564
 31
0.0
  0
LINE
  5
B4D
330
1A
100
AcDbEntity
  8
ZUWAKU
100
AcDbLine
 10
104.323300162135
 20
14.99999996135637
 30
0.0
 11
104.3233001621351
 21
0.3999999613564
 31
0.0
  0
LINE
  5
B4E
330
1A
100
AcDbEntity
  8
ZUWAKU
100
AcDbLine
 10
104.123300162135
 20
14.99999996135637
 30
0.0
 11
104.123300162135
 21
0.3999999613564
 31
0.0
  0
TEXT
  5
B4F
330
1A
100
AcDbEntity
  8
moji
100
AcDbText
 10
119.9136008575266
 20
9.002460490060059
 30
0.0
 40
2.8
  1
ブラケット正面打（吊）ワンタッチ自在式
 41
0.9
  7
ｽﾀｲﾙ1
100
AcDbText
  0
TEXT
  5
B50
330
1A
100
AcDbEntity
  8
ZUWAKU
100
AcDbText
 10
104.8620226732398
 20
4.827678230549175
 30
0.0
 40
2.0
  1
サイズ
 41
0.9
  7
ｽﾀｲﾙ1
100
AcDbText
  0
TEXT
  5
B51
330
1A
100
AcDbEntity
  8
moji
100
AcDbText
 10
119.9136008575266
 20
1.602460490060077
 30
0.0
 40
2.8
  1
Σ９０－０－１０～４５
 41
0.9
  7
ｽﾀｲﾙ1
100
AcDbText
  0
TEXT
  5
B52
330
1A
100
AcDbEntity
  8
ZUWAKU
100
AcDbText
 10
104.8620226732397
 20
12.02767823054916
 30
0.0
 40
2.0
  1
品名
 41
0.9
  7
ｽﾀｲﾙ1
100
AcDbText
  0
TEXT
  5
B53
330
1A
100
AcDbEntity
  8
ZUWAKU
100
AcDbText
 10
329.1019683607523
 20
9.002460490060059
 30
0.0
 40
2.8
  1
　　．　　．　　
 41
0.9
  7
ｽﾀｲﾙ1
100
AcDbText
  0
LINE
  5
B54
330
1A
100
AcDbEntity
  8
ZUWAKU
100
AcDbLine
 10
324.4086007722032
 20
7.799999961356383
 30
0.0
 11
348.6245047913717
 21
7.799999961356383
 31
0.0
  0
LINE
  5
B55
330
1A
100
AcDbEntity
  8
ZUWAKU
100
AcDbLine
 10
324.4086007722033
 20
7.699999961356385
 30
0.0
 11
348.6245047913717
 21
7.699999961356383
 31
0.0
  0
LINE
  5
B56
330
1A
100
AcDbEntity
  8
ZUWAKU
100
AcDbLine
 10
324.4086007722032
 20
7.599999961356382
 30
0.0
 11
348.6245047913717
 21
7.599999961356383
 31
0.0
  0
LINE
  5
B57
330
1A
100
AcDbEntity
  8
ZUWAKU
100
AcDbLine
 10
252.5995892661715
 20
7.799999961356383
 30
0.0
 11
276.2634774001573
 21
7.799999961356383
 31
0.0
  0
LINE
  5
B58
330
1A
100
AcDbEntity
  8
ZUWAKU
100
AcDbLine
 10
252.5995892661715
 20
7.699999961356383
 30
0.0
 11
276.2634774001573
 21
7.699999961356383
 31
0.0
  0
LINE
  5
B59
330
1A
100
AcDbEntity
  8
ZUWAKU
100
AcDbLine
 10
252.5995892661715
 20
7.599999961356385
 30
0.0
 11
276.2634774001573
 21
7.599999961356385
 31
0.0
  0
LINE
  5
B5A
330
1A
100
AcDbEntity
  8
ZUWAKU
100
AcDbLine
 10
252.3995892661716
 20
14.99999996135637
 30
0.0
 11
252.3995892661716
 21
0.3999999613564
 31
0.0
  0
LINE
  5
B5B
330
1A
100
AcDbEntity
  8
ZUWAKU
100
AcDbLine
 10
252.5995892661715
 20
14.99999996135637
 30
0.0
 11
252.5995892661716
 21
0.3999999613564
 31
0.0
  0
LINE
  5
B5C
330
1A
100
AcDbEntity
  8
ZUWAKU
100
AcDbLine
 10
252.4995892661715
 20
14.99999996135637
 30
0.0
 11
252.4995892661716
 21
0.3999999613564
 31
0.0
  0
TEXT
  5
B5D
330
1A
100
AcDbEntity
  8
moji
100
AcDbText
 10
264.0204535032575
 20
9.002460490060059
 30
0.0
 40
2.8
  1
Ａ３
 41
0.9
  7
ｽﾀｲﾙ1
100
AcDbText
  0
LINE
  5
B5E
330
1A
100
AcDbEntity
  8
ZUWAKU
100
AcDbLine
 10
223.7121815025968
 20
14.99999996135637
 30
0.0
 11
223.7121815025968
 21
0.3999999613564
 31
0.0
  0
LINE
  5
B5F
330
1A
100
AcDbEntity
  8
ZUWAKU
100
AcDbLine
 10
223.9121815025967
 20
14.99999996135637
 30
0.0
 11
223.9121815025968
 21
0.3999999613564
 31
0.0
  0
LINE
  5
B60
330
1A
100
AcDbEntity
  8
ZUWAKU
100
AcDbLine
 10
223.8121815025967
 20
14.99999996135637
 30
0.0
 11
223.8121815025968
 21
0.3999999613564
 31
0.0
  0
TEXT
  5
B61
330
1A
100
AcDbEntity
  8
moji
100
AcDbText
 10
231.2836386780954
 20
5.971308822186359
 30
0.0
 40
2.8
  1
ＬＫ０１Ｔ
 41
0.9
  7
ｽﾀｲﾙ1
100
AcDbText
  0
TEXT
  5
B63
330
1A
100
AcDbEntity
  8
ZUWAKU
100
AcDbText
 10
253.3383117772764
 20
4.827678230549175
 30
0.0
 40
2.0
  1
縮尺
 41
0.9
  7
ｽﾀｲﾙ1
100
AcDbText
  0
TEXT
  5
B64
330
1A
100
AcDbEntity
  8
moji
100
AcDbText
 10
264.0204535032575
 20
1.602460490060077
 30
0.0
 40
2.8
  1
１/１
 41
0.9
  7
ｽﾀｲﾙ1
100
AcDbText
  0
TEXT
  5
B65
330
1A
100
AcDbEntity
  8
ZUWAKU
100
AcDbText
 10
224.6509040137015
 20
12.02767823054916
 30
0.0
 40
2.0
  1
品番
 41
0.9
  7
ｽﾀｲﾙ1
100
AcDbText
  0
TEXT
  5
B66
330
1A
100
AcDbEntity
  8
ZUWAKU
100
AcDbText
 10
253.3383117772763
 20
12.02767823054916
 30
0.0
 40
2.0
  1
用紙
 41
0.9
  7
ｽﾀｲﾙ1
100
AcDbText
  0
LINE
  5
B67
330
1A
100
AcDbEntity
  8
ZUWAKU
100
AcDbLine
 10
276.2634774001573
 20
14.99999996135637
 30
0.0
 11
276.2634774001573
 21
0.3999999613564
 31
0.0
  0
LINE
  5
B68
330
1A
100
AcDbEntity
  8
ZUWAKU
100
AcDbLine
 10
276.4634774001572
 20
14.99999996135637
 30
0.0
 11
276.4634774001573
 21
0.3999999613564
 31
0.0
  0
LINE
  5
B69
330
1A
100
AcDbEntity
  8
ZUWAKU
100
AcDbLine
 10
276.3634774001572
 20
14.99999996135637
 30
0.0
 11
276.3634774001573
 21
0.3999999613564
 31
0.0
  0
LINE
  5
B6A
330
1A
100
AcDbEntity
  8
ZUWAKU
100
AcDbLine
 10
324.2086007722033
 20
14.99999996135637
 30
0.0
 11
324.2086007722033
 21
0.3999999613564
 31
0.0
  0
LINE
  5
B6B
330
1A
100
AcDbEntity
  8
ZUWAKU
100
AcDbLine
 10
324.4086007722033
 20
14.99999996135637
 30
0.0
 11
324.4086007722034
 21
0.3999999613564
 31
0.0
  0
LINE
  5
B6C
330
1A
100
AcDbEntity
  8
ZUWAKU
100
AcDbLine
 10
324.3086007722033
 20
14.99999996135637
 30
0.0
 11
324.3086007722034
 21
0.3999999613564
 31
0.0
  0
TEXT
  5
B6D
330
1A
100
AcDbEntity
  8
ZUWAKU
100
AcDbText
 10
325.1473232833081
 20
12.02767823054916
 30
0.0
 40
2.0
  1
DATE
 41
0.9
  7
ｽﾀｲﾙ1
100
AcDbText
  0
TEXT
  5
B6E
330
1A
100
AcDbEntity
  8
ZUWAKU
100
AcDbText
 10
354.264041613223
 20
8.776919629199767
 30
0.0
 40
3.0
  1
積水化学工業株式会社
 41
0.9
  7
ｽﾀｲﾙ1
100
AcDbText
  0
LINE
  5
B6F
330
1A
100
AcDbEntity
  8
ZUWAKU
100
AcDbLine
 10
348.9245047913717
 20
14.99999996135637
 30
0.0
 11
348.9245047913718
 21
0.3999999613564
 31
0.0
  0
LINE
  5
B70
330
1A
100
AcDbEntity
  8
ZUWAKU
100
AcDbLine
 10
348.8245047913716
 20
14.99999996135637
 30
0.0
 11
348.8245047913717
 21
0.3999999613564
 31
0.0
  0
LINE
  5
B71
330
1A
100
AcDbEntity
  8
ZUWAKU
100
AcDbLine
 10
348.7245047913717
 20
14.99999996135637
 30
0.0
 11
348.7245047913717
 21
0.3999999613564
 31
0.0
  0
LINE
  5
B72
330
1A
100
AcDbEntity
  8
ZUWAKU
100
AcDbLine
 10
348.6245047913717
 20
14.99999996135637
 30
0.0
 11
348.6245047913717
 21
0.3999999613564
 31
0.0
  0
TEXT
  5
B73
330
1A
100
AcDbEntity
  8
ZUWAKU
100
AcDbText
 10
354.264041613223
 20
3.324420118283399
 30
0.0
 40
3.0
  1
建材事業部
 41
0.9
  7
ｽﾀｲﾙ1
100
AcDbText
  0
DIMENSION
  5
1018
330
1A
100
AcDbEntity
  8
SUNPOU
100
AcDbDimension
  2
*D1
 10
213.1151183350819
 20
78.28260925741029
 30
0.0
 11
210.6151183350819
 21
104.2826092583786
 31
0.0
 70
    32
 71
     5
 42
52.00000000193658
  3
STANDARD
100
AcDbAlignedDimension
 13
187.0207949215286
 23
130.2826092593469
 33
0.0
 14
196.5207949215286
 24
78.28260925741029
 34
0.0
 50
90.0
100
AcDbRotatedDimension
1001
ACAD
1000
DSTYLE
1002
{
1070
    41
1040
3.0
1070
    42
1040
3.0
1070
    43
1040
7.0
1070
    44
1040
1.5
1070
    73
1070
     0
1070
    74
1070
     0
1070
    77
1070
     3
1070
   140
1040
3.0
1070
   141
1040
3.0
1070
   147
1040
1.0
1070
   172
1070
     1
1070
   173
1070
     1
1070
   176
1070
   256
1070
   177
1070
   256
1070
   178
1070
   256
1070
   271
1070
     0
1070
   272
1070
     0
1070
   341
1005
B2
1070
     6
1000
OPEN
1070
     7
1000
OPEN
1002
}
  0
DIMENSION
  5
1019
330
1A
100
AcDbEntity
  8
SUNPOU
100
AcDbDimension
  2
*D2
 10
231.5207949015286
 20
156.5626960419781
 30
0.0
 11
214.0207949115286
 21
159.0626960419781
 31
0.0
 70
    32
 71
     5
 42
34.99999997999998
  3
STANDARD
100
AcDbAlignedDimension
 13
196.5207949215286
 23
111.2826092574103
 33
0.0
 14
231.5207949015286
 24
111.2826092574103
 34
0.0
100
AcDbRotatedDimension
1001
ACAD
1000
DSTYLE
1002
{
1070
    41
1040
3.0
1070
    42
1040
3.0
1070
    43
1040
7.0
1070
    44
1040
1.5
1070
    73
1070
     0
1070
    74
1070
     0
1070
    77
1070
     3
1070
   140
1040
3.0
1070
   141
1040
3.0
1070
   147
1040
1.0
1070
   172
1070
     1
1070
   173
1070
     1
1070
   176
1070
   256
1070
   177
1070
   256
1070
   178
1070
   256
1070
   271
1070
     0
1070
   272
1070
     0
1070
   341
1005
B2
1070
     6
1000
OPEN
1070
     7
1000
OPEN
1002
}
  0
ARC
  5
101A
330
1A
100
AcDbEntity
  8
SEIHIN
  6
DASHED
 62
     2
100
AcDbCircle
 10
222.0207949215286
 20
120.2826092574103
 30
0.0
 40
10.00000000622232
100
AcDbArc
 50
25.84193309967036
 51
170.7918456273464
  0
DIMENSION
  5
101B
330
1A
100
AcDbEntity
  8
SUNPOU
100
AcDbDimension
  2
*D3
 10
217.9524251151893
 20
179.7021009606325
 30
0.0
 11
215.4524251151893
 21
206.2021009806326
 31
0.0
 70
    32
 71
     5
 42
53.00000004000003
  3
STANDARD
100
AcDbAlignedDimension
 13
196.5207949215286
 23
232.7021010006325
 33
0.0
 14
196.5207949215286
 24
179.7021009606325
 34
0.0
 50
90.0
100
AcDbRotatedDimension
1001
ACAD
1000
DSTYLE
1002
{
1070
    41
1040
3.0
1070
    42
1040
3.0
1070
    43
1040
7.0
1070
    44
1040
1.5
1070
    73
1070
     0
1070
    74
1070
     0
1070
    77
1070
     3
1070
   140
1040
3.0
1070
   141
1040
3.0
1070
   147
1040
1.0
1070
   172
1070
     1
1070
   173
1070
     1
1070
   176
1070
   256
1070
   177
1070
   256
1070
   178
1070
   256
1070
   271
1070
     0
1070
   272
1070
     0
1070
   341
1005
B2
1070
     6
1000
OPEN
1070
     7
1000
OPEN
1002
}
  0
DIMENSION
  5
101C
330
1A
100
AcDbEntity
  8
SUNPOU
100
AcDbDimension
  2
*D4
 10
196.5207949215286
 20
156.5626960419781
 30
0.0
 11
128.6707949215286
 21
159.0626960419781
 31
0.0
 70
    32
 71
     5
 42
135.7000000000001
  3
STANDARD
100
AcDbAlignedDimension
 13
60.82079492152852
 23
104.2827092574103
 33
0.0
 14
196.5207949215286
 24
114.2826092574103
 34
0.0
100
AcDbRotatedDimension
1001
ACAD
1000
DSTYLE
1002
{
1070
    41
1040
3.0
1070
    42
1040
3.0
1070
    43
1040
7.0
1070
    44
1040
1.5
1070
    73
1070
     0
1070
    74
1070
     0
1070
    77
1070
     3
1070
   140
1040
3.0
1070
   141
1040
3.0
1070
   147
1040
1.0
1070
   172
1070
     1
1070
   173
1070
     1
1070
   176
1070
   256
1070
   177
1070
   256
1070
   178
1070
   256
1070
   271
1070
     0
1070
   272
1070
     0
1070
   341
1005
B2
1070
     6
1000
OPEN
1070
     7
1000
OPEN
1002
}
  0
DIMENSION
  5
101D
330
1A
100
AcDbEntity
  8
SUNPOU
100
AcDbDimension
  2
*D5
 10
196.5207949215286
 20
145.8890108187534
 30
0.0
 11
190.1707949215287
 21
148.3890108187534
 31
0.0
 70
    32
 71
     5
 42
12.69999999999988
  3
STANDARD
100
AcDbAlignedDimension
 13
183.8207949215287
 23
91.08270925741033
 33
0.0
 14
196.5207949215286
 24
111.2826092574103
 34
0.0
100
AcDbRotatedDimension
1001
ACAD
1000
DSTYLE
1002
{
1070
    41
1040
3.0
1070
    42
1040
3.0
1070
    43
1040
7.0
1070
    44
1040
1.5
1070
    73
1070
     0
1070
    74
1070
     0
1070
    77
1070
     3
1070
   140
1040
3.0
1070
   141
1040
3.0
1070
   147
1040
1.0
1070
   172
1070
     1
1070
   173
1070
     1
1070
   176
1070
   256
1070
   177
1070
   256
1070
   178
1070
   256
1070
   271
1070
     0
1070
   272
1070
     0
1070
   341
1005
B2
1070
     6
1000
OPEN
1070
     7
1000
OPEN
1002
}
  0
ARC
  5
101E
330
1A
100
AcDbEntity
  8
SEIHIN
100
AcDbCircle
 10
187.0207949215286
 20
120.2826092574103
 30
0.0
 40
10.0000000019366
100
AcDbArc
 50
25.84193278607622
 51
170.7918456273464
  0
DIMENSION
  5
101F
330
1A
100
AcDbEntity
  8
SUNPOU
100
AcDbDimension
  2
*D6
 10
38.76331157535421
 20
78.28260925741033
 30
0.0
 11
36.2633115753542
 21
92.28265925741033
 31
0.0
 70
    32
 71
     5
 42
28.0001
  3
STANDARD
100
AcDbAlignedDimension
 13
62.82079492152852
 23
106.2827092574103
 33
0.0
 14
189.8207949215286
 24
78.28260925741029
 34
0.0
 50
90.0
100
AcDbRotatedDimension
1001
ACAD
1000
DSTYLE
1002
{
1070
    41
1040
3.0
1070
    42
1040
3.0
1070
    43
1040
7.0
1070
    44
1040
1.5
1070
    73
1070
     0
1070
    74
1070
     0
1070
    77
1070
     3
1070
   140
1040
3.0
1070
   141
1040
3.0
1070
   147
1040
1.0
1070
   172
1070
     1
1070
   173
1070
     1
1070
   176
1070
   256
1070
   177
1070
   256
1070
   178
1070
   256
1070
   271
1070
     0
1070
   272
1070
     0
1070
   341
1005
B2
1070
     6
1000
OPEN
1070
     7
1000
OPEN
1002
}
  0
LINE
  5
1020
330
1A
100
AcDbEntity
  8
SEIHIN
  6
Continuous
 62
     3
100
AcDbLine
 10
88.01746044725127
 20
77.29633759902364
 30
0.0
 11
80.54469492152862
 21
90.3987092574103
 31
0.0
  0
LINE
  5
1021
330
1A
100
AcDbEntity
  8
SEIHIN
  6
Continuous
 62
     3
100
AcDbLine
 10
86.2623949215286
 20
71.6717092574103
 30
0.0
 11
78.73209492152864
 21
89.56030925741032
 31
0.0
  0
LINE
  5
1022
330
1A
100
AcDbEntity
  8
SEIHIN
  6
Continuous
 62
     3
100
AcDbLine
 10
74.5759949215286
 20
93.2343092574103
 30
0.0
 11
84.0655949215286
 21
70.43100925741032
 31
0.0
  0
LINE
  5
1023
330
1A
100
AcDbEntity
  8
SEIHIN
  6
Continuous
 62
     3
100
AcDbLine
 10
89.91292589390368
 20
79.05382866543715
 30
0.0
 11
78.66599492152864
 21
99.28680925741031
 31
0.0
  0
LINE
  5
1024
330
1A
100
AcDbEntity
  8
SEIHIN
  6
Continuous
 62
     3
100
AcDbLine
 10
63.8207949215286
 20
104.7827092574103
 30
0.0
 11
63.8207949215286
 21
101.8827092574103
 31
0.0
  0
LINE
  5
1025
330
1A
100
AcDbEntity
  8
SEIHIN
  6
Continuous
 62
     3
100
AcDbLine
 10
60.8207949215286
 20
104.7827092574103
 30
0.0
 11
60.8207949215286
 21
99.38270925741028
 31
0.0
  0
LINE
  5
1026
330
1A
100
AcDbEntity
  8
SEIHIN
  6
Continuous
 62
     3
100
AcDbLine
 10
69.93149492152861
 20
96.38270925741028
 30
0.0
 11
63.8207949215286
 21
96.38270925741028
 31
0.0
  0
ARC
  5
1027
330
1A
100
AcDbEntity
  8
SEIHIN
  6
Continuous
 62
     3
100
AcDbCircle
 10
64.8207949215286
 20
101.8827092574103
 30
0.0
 40
1.0
100
AcDbArc
 50
180.0
 51
270.0
  0
ARC
  5
1028
330
1A
100
AcDbEntity
  8
SEIHIN
  6
Continuous
 62
     3
100
AcDbCircle
 10
63.8207949215286
 20
99.38270925741028
 30
0.0
 40
3.0
100
AcDbArc
 50
180.0
 51
270.0
  0
LINE
  5
1029
330
1A
100
AcDbEntity
  8
SEIHIN
  6
Continuous
 62
     3
100
AcDbLine
 10
60.8207949215286
 20
102.2826092574103
 30
0.0
 11
63.8207949215286
 21
102.2826092574103
 31
0.0
  0
ARC
  5
102A
330
1A
100
AcDbEntity
  8
SEIHIN
  6
Continuous
 62
     3
100
AcDbCircle
 10
79.66099492152858
 20
89.93060925741031
 30
0.0
 40
1.000005
100
AcDbArc
 50
27.91037699999919
 51
201.7343789999998
  0
LINE
  5
102B
330
1A
100
AcDbEntity
  8
SEIHIN
  6
Continuous
 62
     3
100
AcDbLine
 10
76.01489492152859
 20
100.8827092574103
 30
0.0
 11
64.8207949215286
 21
100.8827092574103
 31
0.0
  0
ARC
  5
102C
330
1A
100
AcDbEntity
  8
SEIHIN
  6
Continuous
 62
     3
100
AcDbCircle
 10
69.93149492152861
 20
91.38270925741028
 30
0.0
 40
4.99999
100
AcDbArc
 50
21.73544399999916
 51
90.0
  0
ARC
  5
102D
330
1A
100
AcDbEntity
  8
SEIHIN
  6
Continuous
 62
     3
100
AcDbCircle
 10
76.01489492152859
 20
97.88270925741028
 30
0.0
 40
2.999986
100
AcDbArc
 50
27.90700099999922
 51
90.0
  0
ARC
  5
102E
330
1A
100
AcDbEntity
  8
SEIHIN
  6
Continuous
 62
     3
100
AcDbCircle
 10
62.3207949215286
 20
104.7827092574103
 30
0.0
 40
1.5
100
AcDbArc
 50
0.0
 51
180.0
  0
LINE
  5
102F
330
1A
100
AcDbEntity
  8
SEIHIN
100
AcDbLine
 10
132.9900037993986
 20
106.6737784360415
 30
0.0
 11
177.4752955479721
 21
115.1670430357577
 31
0.0
  0
LINE
  5
1030
330
1A
100
AcDbEntity
  8
SEIHIN
100
AcDbLine
 10
130.9341349583052
 20
112.4585728429337
 30
0.0
 11
176.3486429667891
 21
121.060316236976
 31
0.0
  0
LINE
  5
1031
330
1A
100
AcDbEntity
  8
SEIHIN
  6
Continuous
 62
     3
100
AcDbLine
 10
116.7207949235286
 20
67.2826667387472
 30
0.0
 11
154.5886949215286
 21
67.28260925741031
 31
0.0
  0
LINE
  5
1032
330
1A
100
AcDbEntity
  8
SEIHIN
  6
Continuous
 62
     3
100
AcDbLine
 10
116.7207949235286
 20
69.78266571099539
 30
0.0
 11
152.5943949215286
 21
69.78260925741031
 31
0.0
  0
LINE
  5
1033
330
1A
100
AcDbEntity
  8
SEIHIN
  6
Continuous
 62
     3
100
AcDbLine
 10
116.7207949235286
 20
75.78260925741027
 30
0.0
 11
154.9647949215286
 21
75.78260925741029
 31
0.0
  0
LINE
  5
1034
330
1A
100
AcDbEntity
  8
SEIHIN
  6
Continuous
 62
     3
100
AcDbLine
 10
147.4661949215286
 20
78.28260925741029
 30
0.0
 11
116.7207949235286
 21
78.28260925741029
 31
0.0
  0
LINE
  5
1035
330
1A
100
AcDbEntity
  8
SEIHIN
100
AcDbLine
 10
116.7207949235286
 20
65.08900560741029
 30
0.0
 11
116.7207949235286
 21
86.3998294764103
 31
0.0
  0
LINE
  5
1036
330
1A
100
AcDbEntity
  8
SEIHIN
100
AcDbLine
 10
97.3207949215286
 20
84.28260925741029
 30
0.0
 11
97.32078077152858
 21
78.2826068994103
 31
0.0
  0
LINE
  5
1037
330
1A
100
AcDbEntity
  8
SEIHIN
100
AcDbLine
 10
96.3207949215286
 20
84.28260925741029
 30
0.0
 11
96.32078077152858
 21
78.28260925741029
 31
0.0
  0
LINE
  5
1038
330
1A
100
AcDbEntity
  8
SEIHIN
100
AcDbLine
 10
95.68570625152859
 20
84.0890032514103
 30
0.0
 11
95.68569012152858
 21
77.2508817974103
 31
0.0
  0
LINE
  5
1039
330
1A
100
AcDbEntity
  8
SEIHIN
100
AcDbLine
 10
91.72079492152858
 20
65.08900560741029
 30
0.0
 11
91.72079492152858
 21
84.08900560941029
 31
0.0
  0
LINE
  5
103A
330
1A
100
AcDbEntity
  8
SEIHIN
100
AcDbLine
 10
97.68570977152859
 20
85.58263229841029
 30
0.0
 11
97.68569012152858
 21
77.2508817974103
 31
0.0
  0
LINE
  5
103B
330
1A
100
AcDbEntity
  8
SEIHIN
100
AcDbLine
 10
91.72079492152858
 20
65.08900560741029
 30
0.0
 11
116.7207949235286
 21
65.08900560741029
 31
0.0
  0
LINE
  5
103C
330
1A
100
AcDbEntity
  8
SEIHIN
100
AcDbLine
 10
95.6856925552034
 20
78.2826092574103
 30
0.0
 11
97.68569255152858
 21
78.28260925741029
 31
0.0
  0
LINE
  5
103D
330
1A
100
AcDbEntity
  8
SEIHIN
100
AcDbLine
 10
95.68569012152858
 20
77.2508817974103
 30
0.0
 11
97.68569012152858
 21
77.2508817974103
 31
0.0
  0
ARC
  5
103E
330
1A
100
AcDbEntity
  8
SEIHIN
  6
Continuous
 62
     3
100
AcDbCircle
 10
88.71009492152859
 20
72.28270925741032
 30
0.0
 40
5.000009
100
AcDbArc
 50
201.7365079999997
 51
270.0
  0
LINE
  5
103F
330
1A
100
AcDbEntity
  8
SEIHIN
  6
Continuous
 62
     3
100
AcDbLine
 10
88.71009492152859
 20
67.28270925741032
 30
0.0
 11
91.72079492152858
 21
67.2827046873375
 31
0.0
  0
ARC
  5
1040
330
1A
100
AcDbEntity
  8
SEIHIN
  6
Continuous
 62
     3
100
AcDbCircle
 10
90.62341450622402
 20
78.78260925741029
 30
0.0
 40
3.0
100
AcDbArc
 50
209.6977057516304
 51
270.0
  0
LINE
  5
1041
330
1A
100
AcDbEntity
  8
SEIHIN
  6
Continuous
 62
     3
100
AcDbLine
 10
89.04909492152859
 20
69.78270925741032
 30
0.0
 11
91.72079492152859
 21
69.78270505300812
 31
0.0
  0
LINE
  5
1042
330
1A
100
AcDbEntity
  8
SEIHIN
  6
Continuous
 62
     3
100
AcDbLine
 10
89.3205949215286
 20
75.78270925741032
 30
0.0
 11
89.3205949215286
 21
69.78270925741032
 31
0.0
  0
ARC
  5
1043
330
1A
100
AcDbEntity
  8
SEIHIN
  6
Continuous
 62
     3
100
AcDbCircle
 10
89.04909492152859
 20
72.78270925741032
 30
0.0
 40
3.000001
100
AcDbArc
 50
201.7361539999994
 51
270.0
  0
LINE
  5
1044
330
1A
100
AcDbEntity
  8
SEIHIN
  6
Continuous
 62
     3
100
AcDbLine
 10
91.72079492152858
 20
78.28260925741029
 30
0.0
 11
91.22398609418561
 21
78.28260925741029
 31
0.0
  0
LINE
  5
1045
330
1A
100
AcDbEntity
  8
SEIHIN
  6
Continuous
 62
     3
100
AcDbLine
 10
90.62341450622402
 20
75.78260925741029
 30
0.0
 11
91.72079492152858
 21
75.78260925741027
 31
0.0
  0
ARC
  5
1046
330
1A
100
AcDbEntity
  8
SEIHIN
  6
Continuous
 62
     3
100
AcDbCircle
 10
91.22369492152859
 20
79.78270925741032
 30
0.0
 40
1.499982
100
AcDbArc
 50
207.9095830000001
 51
270.0
  0
LINE
  5
1047
330
1A
100
AcDbEntity
  8
SEIHIN
100
AcDbLine
 10
106.7207949215286
 20
69.78260925741029
 30
0.0
 11
107.8754954615286
 21
67.78260925741029
 31
0.0
  0
LINE
  5
1048
330
1A
100
AcDbEntity
  8
SEIHIN
100
AcDbLine
 10
106.7207949215286
 20
69.78260925741029
 30
0.0
 11
105.5660943815286
 21
67.78260925741029
 31
0.0
  0
LINE
  5
1049
330
1A
100
AcDbEntity
  8
SEIHIN
100
AcDbLine
 10
107.8754954615286
 20
67.78260925741029
 30
0.0
 11
105.5660943815286
 21
67.78260925741029
 31
0.0
  0
LINE
  5
104A
330
1A
100
AcDbEntity
  8
SEIHIN
100
AcDbLine
 10
104.2207949215286
 20
75.78260925741029
 30
0.0
 11
109.2207949215286
 21
75.78260925741029
 31
0.0
  0
LINE
  5
104B
330
1A
100
AcDbEntity
  8
SEIHIN
100
AcDbLine
 10
109.2207949215286
 20
69.78260925741029
 30
0.0
 11
104.2207949215286
 21
69.78260925741029
 31
0.0
  0
MTEXT
  5
104C
330
1A
100
AcDbEntity
  8
SEIHIN
100
AcDbMText
 10
105.0737407015286
 20
72.66259650141029
 30
0.0
 40
2.381249964
 41
0.0
 71
     1
 72
     5
  1
{\W1.460317;10}
 73
     1
 44
1.0
  0
LINE
  5
104D
330
1A
100
AcDbEntity
  8
SEIHIN
100
AcDbLine
 10
103.2207949215286
 20
74.78260925741029
 30
0.0
 11
103.2207949215286
 21
70.78260925741029
 31
0.0
  0
ARC
  5
104E
330
1A
100
AcDbEntity
  8
SEIHIN
100
AcDbCircle
 10
104.2207949215286
 20
70.78260925741029
 30
0.0
 40
1.0
100
AcDbArc
 50
180.0
 51
270.0
  0
ARC
  5
104F
330
1A
100
AcDbEntity
  8
SEIHIN
100
AcDbCircle
 10
104.2207949215286
 20
74.78260925741029
 30
0.0
 40
1.0
100
AcDbArc
 50
90.0
 51
180.0
  0
LINE
  5
1050
330
1A
100
AcDbEntity
  8
SEIHIN
100
AcDbLine
 10
110.2207949215286
 20
74.78260925741029
 30
0.0
 11
110.2207949215286
 21
70.78260925741029
 31
0.0
  0
ARC
  5
1051
330
1A
100
AcDbEntity
  8
SEIHIN
100
AcDbCircle
 10
109.2207949215286
 20
70.78260925741029
 30
0.0
 40
1.0
100
AcDbArc
 50
270.0
 51
0.0
  0
ARC
  5
1052
330
1A
100
AcDbEntity
  8
SEIHIN
100
AcDbCircle
 10
109.2207949215286
 20
74.78260925741029
 30
0.0
 40
1.0
100
AcDbArc
 50
0.0
 51
90.0
  0
LINE
  5
1053
330
1A
100
AcDbEntity
  8
SEIHIN
100
AcDbLine
 10
106.9775449215286
 20
75.78260925741029
 30
0.0
 11
106.9775449215286
 21
73.78260925741029
 31
0.0
  0
LINE
  5
1054
330
1A
100
AcDbEntity
  8
SEIHIN
100
AcDbLine
 10
106.4775449215286
 20
73.78260925741029
 30
0.0
 11
106.4775449215286
 21
75.78260925741029
 31
0.0
  0
LINE
  5
1055
330
1A
100
AcDbEntity
  8
SEIHIN
100
AcDbLine
 10
106.9775449215286
 20
73.78260925741029
 30
0.0
 11
106.4775449215286
 21
73.78260925741029
 31
0.0
  0
LINE
  5
1056
330
1A
100
AcDbEntity
  8
SEIHIN
100
AcDbLine
 10
106.4775449215286
 20
75.78260925741029
 30
0.0
 11
106.9775449215286
 21
75.78260925741029
 31
0.0
  0
LINE
  5
1057
330
1A
100
AcDbEntity
  8
SEIHIN
100
AcDbLine
 10
106.4775449215286
 20
75.78260925741029
 30
0.0
 11
106.9775449215286
 21
75.78260925741029
 31
0.0
  0
MTEXT
  5
1058
330
1A
100
AcDbEntity
  8
SEIHIN
100
AcDbMText
 10
117.5047454275286
 20
72.69438648141028
 30
0.0
 40
2.381249964
 41
0.0
 71
     1
 72
     5
  1
{\W1.703704;0}
 73
     1
 44
1.0
  0
LINE
  5
1059
330
1A
100
AcDbEntity
  8
SEIHIN
100
AcDbLine
 10
116.9707949215286
 20
73.78260925741029
 30
0.0
 11
116.7207949215286
 21
73.78260925741029
 31
0.0
  0
LINE
  5
105A
330
1A
100
AcDbEntity
  8
SEIHIN
100
AcDbLine
 10
116.9707949215286
 20
75.78260925741029
 30
0.0
 11
116.9707949215286
 21
73.78260925741029
 31
0.0
  0
LINE
  5
105B
330
1A
100
AcDbEntity
  8
SEIHIN
100
AcDbLine
 10
121.4707949215286
 20
75.78260925741029
 30
0.0
 11
121.9707949215286
 21
75.78260925741029
 31
0.0
  0
LINE
  5
105C
330
1A
100
AcDbEntity
  8
SEIHIN
100
AcDbLine
 10
121.9707949215286
 20
73.78260925741029
 30
0.0
 11
121.4707949215286
 21
73.78260925741029
 31
0.0
  0
LINE
  5
105D
330
1A
100
AcDbEntity
  8
SEIHIN
100
AcDbLine
 10
121.4707949215286
 20
73.78260925741029
 30
0.0
 11
121.4707949215286
 21
75.78260925741029
 31
0.0
  0
LINE
  5
105E
330
1A
100
AcDbEntity
  8
SEIHIN
100
AcDbLine
 10
121.9707949215286
 20
75.78260925741029
 30
0.0
 11
121.9707949215286
 21
73.78260925741029
 31
0.0
  0
MTEXT
  5
105F
330
1A
100
AcDbEntity
  8
SEIHIN
100
AcDbMText
 10
124.8117871776586
 20
72.69438648141028
 30
0.0
 40
2.381249964
 41
0.0
 71
     1
 72
     5
  1
{\W1.135802;30}
 73
     1
 44
1.0
  0
LINE
  5
1060
330
1A
100
AcDbEntity
  8
SEIHIN
100
AcDbLine
 10
126.4707949215286
 20
75.78260925741029
 30
0.0
 11
126.9707949215286
 21
75.78260925741029
 31
0.0
  0
LINE
  5
1061
330
1A
100
AcDbEntity
  8
SEIHIN
100
AcDbLine
 10
126.9707949215286
 20
73.78260925741029
 30
0.0
 11
126.4707949215286
 21
73.78260925741029
 31
0.0
  0
LINE
  5
1062
330
1A
100
AcDbEntity
  8
SEIHIN
100
AcDbLine
 10
126.4707949215286
 20
73.78260925741029
 30
0.0
 11
126.4707949215286
 21
75.78260925741029
 31
0.0
  0
LINE
  5
1063
330
1A
100
AcDbEntity
  8
SEIHIN
100
AcDbLine
 10
126.9707949215286
 20
75.78260925741029
 30
0.0
 11
126.9707949215286
 21
73.78260925741029
 31
0.0
  0
LINE
  5
1064
330
1A
100
AcDbEntity
  8
SEIHIN
100
AcDbLine
 10
131.4707949215286
 20
75.78260925741029
 30
0.0
 11
131.9707949215286
 21
75.78260925741029
 31
0.0
  0
LINE
  5
1065
330
1A
100
AcDbEntity
  8
SEIHIN
100
AcDbLine
 10
131.9707949215286
 20
73.78260925741029
 30
0.0
 11
131.4707949215286
 21
73.78260925741029
 31
0.0
  0
LINE
  5
1066
330
1A
100
AcDbEntity
  8
SEIHIN
100
AcDbLine
 10
131.4707949215286
 20
73.78260925741029
 30
0.0
 11
131.4707949215286
 21
75.78260925741029
 31
0.0
  0
LINE
  5
1067
330
1A
100
AcDbEntity
  8
SEIHIN
100
AcDbLine
 10
131.9707949215286
 20
75.78260925741029
 30
0.0
 11
131.9707949215286
 21
73.78260925741029
 31
0.0
  0
LINE
  5
1068
330
1A
100
AcDbEntity
  8
SEIHIN
100
AcDbLine
 10
136.4701722115286
 20
75.78260925741029
 30
0.0
 11
136.9701722115286
 21
75.78260925741029
 31
0.0
  0
LINE
  5
1069
330
1A
100
AcDbEntity
  8
SEIHIN
100
AcDbLine
 10
136.9701722115286
 20
73.78260925741029
 30
0.0
 11
136.4701722115286
 21
73.78260925741029
 31
0.0
  0
LINE
  5
106A
330
1A
100
AcDbEntity
  8
SEIHIN
100
AcDbLine
 10
136.4701722115286
 20
73.78260925741029
 30
0.0
 11
136.4701722115286
 21
75.78260925741029
 31
0.0
  0
LINE
  5
106B
330
1A
100
AcDbEntity
  8
SEIHIN
100
AcDbLine
 10
136.9701722115286
 20
75.78260925741029
 30
0.0
 11
136.9701722115286
 21
73.78260925741029
 31
0.0
  0
MTEXT
  5
106C
330
1A
100
AcDbEntity
  8
SEIHIN
100
AcDbMText
 10
139.8195650715286
 20
72.87452808141029
 30
0.0
 40
2.381249964
 41
0.0
 71
     1
 72
     5
  1
{\W1.022222;45}
 73
     1
 44
1.0
  0
LINE
  5
106D
330
1A
100
AcDbEntity
  8
SEIHIN
100
AcDbLine
 10
141.4707949215286
 20
75.78260925741029
 30
0.0
 11
141.9707949215286
 21
75.78260925741029
 31
0.0
  0
LINE
  5
106E
330
1A
100
AcDbEntity
  8
SEIHIN
100
AcDbLine
 10
141.9707949215286
 20
73.78260925741029
 30
0.0
 11
141.4707949215286
 21
73.78260925741029
 31
0.0
  0
LINE
  5
106F
330
1A
100
AcDbEntity
  8
SEIHIN
100
AcDbLine
 10
141.4707949215286
 20
73.78260925741029
 30
0.0
 11
141.4707949215286
 21
75.78260925741029
 31
0.0
  0
LINE
  5
1070
330
1A
100
AcDbEntity
  8
SEIHIN
100
AcDbLine
 10
141.9707949215286
 20
75.78260925741029
 30
0.0
 11
141.9707949215286
 21
73.78260925741029
 31
0.0
  0
LINE
  5
1071
330
1A
100
AcDbEntity
  8
SEIHIN
100
AcDbLine
 10
118.4413968965286
 20
96.93261098221029
 30
0.0
 11
101.1699459415286
 21
96.93261098221029
 31
0.0
  0
ARC
  5
1072
330
1A
100
AcDbEntity
  8
SEIHIN
100
AcDbCircle
 10
107.2207949215286
 20
85.5826092574103
 30
0.0
 40
9.535085152808648
100
AcDbArc
 50
4.916661302937908
 51
179.999861547953
  0
LINE
  5
1073
330
1A
100
AcDbEntity
  8
SEIHIN
100
AcDbLine
 10
96.3207949215286
 20
84.28260925741029
 30
0.0
 11
97.6857067015286
 21
84.28260925741029
 31
0.0
  0
LINE
  5
1074
330
1A
100
AcDbEntity
  8
SEIHIN
100
AcDbLine
 10
94.68570625152859
 20
85.08900560941029
 30
0.0
 11
92.72079492152858
 21
85.08900560941029
 31
0.0
  0
ARC
  5
1075
330
1A
100
AcDbEntity
  8
SEIHIN
100
AcDbCircle
 10
92.72079492152858
 20
84.08900560941029
 30
0.0
 40
1.0
100
AcDbArc
 50
90.0
 51
180.0
  0
ARC
  5
1076
330
1A
100
AcDbEntity
  8
SEIHIN
100
AcDbCircle
 10
94.68570625152859
 20
84.08900560941029
 30
0.0
 40
1.00000000000139
100
AcDbArc
 50
359.9998648965517
 51
90.0
  0
ARC
  5
1077
330
1A
100
AcDbEntity
  8
SEIHIN
100
AcDbCircle
 10
108.2804264015286
 20
87.84413744641029
 30
0.0
 40
9.900000001930277
100
AcDbArc
 50
135.9085674228156
 51
170.5325542703444
  0
CIRCLE
  5
1078
330
1A
100
AcDbEntity
  8
SEIHIN
100
AcDbCircle
 10
106.7207949215286
 20
89.0826092574103
 30
0.0
 40
3.500000004238516
  0
LINE
  5
1079
330
1A
100
AcDbEntity
  8
SEIHIN
100
AcDbLine
 10
101.1699459415286
 20
95.93261098221029
 30
0.0
 11
101.1699459415286
 21
96.93261098221029
 31
0.0
  0
LINE
  5
107A
330
1A
100
AcDbEntity
  8
SEIHIN
100
AcDbLine
 10
101.1699459415286
 20
94.73261098241028
 30
0.0
 11
101.1699459415286
 21
95.93261098221029
 31
0.0
  0
LINE
  5
107B
330
1A
100
AcDbEntity
  8
SEIHIN
100
AcDbLine
 10
115.3422965395286
 20
90.57851361441027
 30
0.0
 11
123.0944625580312
 21
106.4728093848658
 31
0.0
  0
LINE
  5
107C
330
1A
100
AcDbEntity
  8
SEIHIN
100
AcDbLine
 10
116.7207949215286
 20
79.7178219474103
 30
0.0
 11
128.0111946111736
 21
102.8665718046823
 31
0.0
  0
LINE
  5
107D
330
1A
100
AcDbEntity
  8
SEIHIN
100
AcDbLine
 10
114.5628788315286
 20
91.66632955841027
 30
0.0
 11
117.4505419225286
 21
94.73261098241028
 31
0.0
  0
LINE
  5
107E
330
1A
100
AcDbEntity
  8
SEIHIN
100
AcDbLine
 10
114.6705378415286
 20
91.78064788841027
 30
0.0
 11
117.1544424625286
 21
94.41819609141032
 31
0.0
  0
ARC
  5
107F
330
1A
100
AcDbEntity
  8
SEIHIN
100
AcDbCircle
 10
134.3027529353005
 20
99.79797377722596
 30
0.0
 40
7.0
100
AcDbArc
 50
100.8089989062542
 51
154.0000000006112
  0
ARC
  5
1080
330
1A
100
AcDbEntity
  8
SEIHIN
100
AcDbCircle
 10
132.9811970675801
 20
101.6507267707152
 30
0.0
 40
11.0
100
AcDbArc
 50
100.7250706757326
 51
154.0000000030672
  0
LINE
  5
1081
330
1A
100
AcDbEntity
  8
SEIHIN
100
AcDbLine
 10
130.6861399865286
 20
115.0591612874103
 30
0.0
 11
129.5385742795286
 21
115.4100073274103
 31
0.0
  0
LINE
  5
1082
330
1A
100
AcDbEntity
  8
SEIHIN
100
AcDbLine
 10
129.8067210285286
 20
112.1827114774103
 30
0.0
 11
130.6861399865286
 21
115.0591612874103
 31
0.0
  0
LINE
  5
1083
330
1A
100
AcDbEntity
  8
SEIHIN
100
AcDbLine
 10
128.3877169225286
 20
111.6457225274103
 30
0.0
 11
129.5385742795286
 21
115.4100073274103
 31
0.0
  0
DIMENSION
  5
1084
330
1A
100
AcDbEntity
  8
SUNPOU
100
AcDbDimension
  2
*D7
 10
205.3332987868248
 20
78.28260925741029
 30
0.0
 11
202.8332987868248
 21
96.28260925741031
 31
0.0
 70
    32
 71
     5
 42
36.0
  3
STANDARD
100
AcDbAlignedDimension
 13
196.5207949215286
 23
114.2826092574103
 33
0.0
 14
196.5207949215286
 24
78.28260925741029
 34
0.0
 50
90.0
100
AcDbRotatedDimension
1001
ACAD
1000
DSTYLE
1002
{
1070
    41
1040
3.0
1070
    42
1040
3.0
1070
    43
1040
7.0
1070
    44
1040
1.5
1070
    73
1070
     0
1070
    74
1070
     0
1070
    77
1070
     3
1070
   140
1040
3.0
1070
   141
1040
3.0
1070
   147
1040
1.0
1070
   172
1070
     1
1070
   173
1070
     1
1070
   176
1070
   256
1070
   177
1070
   256
1070
   178
1070
   256
1070
   271
1070
     0
1070
   272
1070
     0
1070
   341
1005
B2
1070
     6
1000
OPEN
1070
     7
1000
OPEN
1002
}
  0
LINE
  5
1085
330
1A
100
AcDbEntity
  8
SEIHIN
  6
Continuous
 62
     3
100
AcDbLine
 10
189.8207949215286
 20
100.2825092574103
 30
0.0
 11
189.8207949215286
 21
70.28250925741031
 31
0.0
  0
LINE
  5
1086
330
1A
100
AcDbEntity
  8
SEIHIN
  6
Continuous
 62
     3
100
AcDbLine
 10
183.8207949215286
 20
89.28250925741031
 30
0.0
 11
183.8207949215286
 21
72.78250925741031
 31
0.0
  0
ARC
  5
1087
330
1A
100
AcDbEntity
  8
SEIHIN
  6
Continuous
 62
     3
100
AcDbCircle
 10
152.9291949215286
 20
79.28260925741029
 30
0.0
 40
0.999978
100
AcDbArc
 50
150.243037
 51
270.0
  0
LINE
  5
1088
330
1A
100
AcDbEntity
  8
SEIHIN
  6
Continuous
 62
     3
100
AcDbLine
 10
162.3296949215286
 20
102.7638092574103
 30
0.0
 11
148.7565949215286
 21
79.01790925741034
 31
0.0
  0
LINE
  5
1089
330
1A
100
AcDbEntity
  8
SEIHIN
  6
Continuous
 62
     3
100
AcDbLine
 10
157.0722949215286
 20
71.47350925741031
 30
0.0
 11
168.6361949215286
 21
91.83150925741029
 31
0.0
  0
LINE
  5
108A
330
1A
100
AcDbEntity
  8
SEIHIN
  6
Continuous
 62
     3
100
AcDbLine
 10
158.4916949215286
 20
78.77270925741033
 30
0.0
 11
167.6630949215286
 21
95.24210925741033
 31
0.0
  0
LINE
  5
108B
330
1A
100
AcDbEntity
  8
SEIHIN
100
AcDbLine
 10
196.5207949215286
 20
114.2826092574103
 30
0.0
 11
196.5207949215286
 21
78.28260925741029
 31
0.0
  0
LINE
  5
108C
330
1A
100
AcDbEntity
  8
SEIHIN
100
AcDbLine
 10
189.8207949215286
 20
78.28260925741029
 30
0.0
 11
189.8207949215286
 21
114.2826092574103
 31
0.0
  0
LINE
  5
108D
330
1A
100
AcDbEntity
  8
SEIHIN
100
AcDbLine
 10
195.3207949215286
 20
114.2826092574103
 30
0.0
 11
195.3207949215286
 21
78.28260925741029
 31
0.0
  0
LINE
  5
108E
330
1A
100
AcDbEntity
  8
SEIHIN
  6
Continuous
 62
     3
100
AcDbLine
 10
180.3765949215286
 20
67.99130925741031
 30
0.0
 11
177.4875949215286
 21
72.59510925741031
 31
0.0
  0
ARC
  5
108F
330
1A
100
AcDbEntity
  8
SEIHIN
  6
Continuous
 62
     3
100
AcDbCircle
 10
178.8207949215286
 20
73.28250925741031
 30
0.0
 40
1.499984
100
AcDbArc
 50
44.54354499999972
 51
207.2723069999998
  0
LINE
  5
1090
330
1A
100
AcDbEntity
  8
SEIHIN
  6
Continuous
 62
     3
100
AcDbLine
 10
154.5886949215286
 20
67.28260925741031
 30
0.0
 11
171.8121949215286
 21
70.52050925741031
 31
0.0
  0
LINE
  5
1091
330
1A
100
AcDbEntity
  8
SEIHIN
  6
Continuous
 62
     3
100
AcDbLine
 10
158.1172949215286
 20
69.98100925741031
 30
0.0
 11
171.5961949215286
 21
71.80220925741031
 31
0.0
  0
LINE
  5
1092
330
1A
100
AcDbEntity
  8
SEIHIN
  6
Continuous
 62
     3
100
AcDbLine
 10
157.6313949215286
 20
78.28260925741029
 30
0.0
 11
152.9291949215286
 21
78.28260925741029
 31
0.0
  0
LINE
  5
1093
330
1A
100
AcDbEntity
  8
SEIHIN
  6
Continuous
 62
     3
100
AcDbLine
 10
153.4546949215286
 20
70.2728092574103
 30
0.0
 11
155.8249949215286
 21
74.27270925741033
 31
0.0
  0
LINE
  5
1094
330
1A
100
AcDbEntity
  8
SEIHIN
  6
Continuous
 62
     3
100
AcDbLine
 10
148.3208949215286
 20
69.78270925741032
 30
0.0
 11
148.3208949215286
 21
75.78270925741032
 31
0.0
  0
ARC
  5
1095
330
1A
100
AcDbEntity
  8
SEIHIN
  6
Continuous
 62
     3
100
AcDbCircle
 10
152.5943949215286
 20
70.78260925741031
 30
0.0
 40
1.000003
100
AcDbArc
 50
270.0
 51
329.3496969999995
  0
ARC
  5
1096
330
1A
100
AcDbEntity
  8
SEIHIN
  6
Continuous
 62
     3
100
AcDbCircle
 10
147.4661949215286
 20
79.78260925741029
 30
0.0
 40
1.499983
100
AcDbArc
 50
270.0
 51
329.3487229999997
  0
ARC
  5
1097
330
1A
100
AcDbEntity
  8
SEIHIN
  6
Continuous
 62
     3
100
AcDbCircle
 10
157.9325949215286
 20
70.9637092574103
 30
0.0
 40
0.999956
100
AcDbArc
 50
149.3496969999997
 51
280.6446470000001
  0
ARC
  5
1098
330
1A
100
AcDbEntity
  8
SEIHIN
  6
Continuous
 62
     3
100
AcDbCircle
 10
154.9647949215286
 20
74.78260925741029
 30
0.0
 40
0.9999600000000001
100
AcDbArc
 50
329.3467760000001
 51
90.0
  0
ARC
  5
1099
330
1A
100
AcDbEntity
  8
SEIHIN
  6
Continuous
 62
     3
100
AcDbCircle
 10
157.6313949215286
 20
79.28260925741029
 30
0.0
 40
1.000003
100
AcDbArc
 50
270.0
 51
329.3496969999995
  0
ARC
  5
109A
330
1A
100
AcDbEntity
  8
SEIHIN
  6
Continuous
 62
     3
100
AcDbCircle
 10
171.6920949215286
 20
71.15940925741032
 30
0.0
 40
0.6500060000000001
100
AcDbArc
 50
278.475411
 51
98.48412899999988
  0
LINE
  5
109B
330
1A
100
AcDbEntity
  8
SEIHIN
100
AcDbLine
 10
196.5207949215286
 20
78.28260925741029
 30
0.0
 11
189.8207949215286
 21
78.28260925741029
 31
0.0
  0
ARC
  5
109C
330
1A
100
AcDbEntity
  8
SEIHIN
  6
Continuous
 62
     3
100
AcDbCircle
 10
184.8207949215286
 20
70.28250925741031
 30
0.0
 40
5.000028
100
AcDbArc
 50
205.2238120000009
 51
0.0
  0
LINE
  5
109D
330
1A
100
AcDbEntity
  8
SEIHIN
  6
Continuous
 62
     3
100
AcDbLine
 10
179.8898949215286
 20
74.33470925741028
 30
0.0
 11
182.1081949215286
 21
72.0810092574103
 31
0.0
  0
ARC
  5
109E
330
1A
100
AcDbEntity
  8
SEIHIN
  6
Continuous
 62
     3
100
AcDbCircle
 10
182.8207949215286
 20
72.78250925741031
 30
0.0
 40
0.999975
100
AcDbArc
 50
224.5502650000007
 51
0.0
  0
ARC
  5
109F
330
1A
100
AcDbEntity
  8
SEIHIN
  6
Continuous
 62
     3
100
AcDbCircle
 10
178.8207949215286
 20
89.28250925741031
 30
0.0
 40
5.0
100
AcDbArc
 50
0.0
 51
90.0
  0
LINE
  5
10A0
330
1A
100
AcDbEntity
  8
SEIHIN
  6
Continuous
 62
     3
100
AcDbLine
 10
170.2840949215286
 20
96.78250925741031
 30
0.0
 11
180.8207949215286
 21
96.78250925741031
 31
0.0
  0
LINE
  5
10A1
330
1A
100
AcDbEntity
  8
SEIHIN
  6
Continuous
 62
     3
100
AcDbLine
 10
184.8207949215286
 20
105.2825092574103
 30
0.0
 11
166.6705949215286
 21
105.2825092574103
 31
0.0
  0
LINE
  5
10A2
330
1A
100
AcDbEntity
  8
SEIHIN
  6
Continuous
 62
     3
100
AcDbLine
 10
180.8207949215286
 20
102.7825092574103
 30
0.0
 11
166.9547949215286
 21
102.7826092574103
 31
0.0
  0
ARC
  5
10A3
330
1A
100
AcDbEntity
  8
SEIHIN
100
AcDbCircle
 10
176.1625464115286
 20
122.0428476974103
 30
0.0
 40
7.000000002888354
100
AcDbArc
 50
277.0000000515625
 51
350.7918455666373
  0
ARC
  5
10A4
330
1A
100
AcDbEntity
  8
SEIHIN
  6
Continuous
 62
     3
100
AcDbCircle
 10
166.9547949215286
 20
99.78260925741029
 30
0.0
 40
3.000009
100
AcDbArc
 50
90.0
 51
149.3496969999997
  0
LINE
  5
10A5
330
1A
100
AcDbEntity
  8
SEIHIN
  6
Continuous
 62
     3
100
AcDbLine
 10
152.0610949215286
 20
79.77900925741028
 30
0.0
 11
164.3292949215286
 21
101.2340092574103
 31
0.0
  0
ARC
  5
10A6
330
1A
100
AcDbEntity
  8
SEIHIN
  6
Continuous
 62
     3
100
AcDbCircle
 10
172.9376949215286
 20
89.28250925741031
 30
0.0
 40
5.000015
100
AcDbArc
 50
90.0
 51
149.3496969999997
  0
ARC
  5
10A7
330
1A
100
AcDbEntity
  8
SEIHIN
  6
Continuous
 62
     3
100
AcDbCircle
 10
170.2840949215286
 20
93.78250925741031
 30
0.0
 40
3.000006
100
AcDbArc
 50
90.0
 51
150.8871489999997
  0
LINE
  5
10A8
330
1A
100
AcDbEntity
  8
SEIHIN
  6
Continuous
 62
     3
100
AcDbLine
 10
172.9376949215286
 20
94.28250925741031
 30
0.0
 11
178.8207949215286
 21
94.28250925741031
 31
0.0
  0
ARC
  5
10A9
330
1A
100
AcDbEntity
  8
SEIHIN
  6
Continuous
 62
     3
100
AcDbCircle
 10
166.6705949215286
 20
100.2825092574103
 30
0.0
 40
5.0
100
AcDbArc
 50
90.0
 51
150.247301
  0
ARC
  5
10AA
330
1A
100
AcDbEntity
  8
SEIHIN
100
AcDbCircle
 10
176.1625464115286
 20
122.0428476974103
 30
0.0
 40
0.9999999993115236
100
AcDbArc
 50
277.0000142444691
 51
350.7918453919471
  0
ARC
  5
10AB
330
1A
100
AcDbEntity
  8
SEIHIN
  6
Continuous
 62
     3
100
AcDbCircle
 10
180.8207949215286
 20
99.78250925741031
 30
0.0
 40
3.0
100
AcDbArc
 50
0.0
 51
90.0
  0
ARC
  5
10AC
330
1A
100
AcDbEntity
  8
SEIHIN
  6
Continuous
 62
     3
100
AcDbCircle
 10
184.8207949215286
 20
100.2825092574103
 30
0.0
 40
5.0
100
AcDbArc
 50
0.0
 51
90.0
  0
LINE
  5
10AD
330
1A
100
AcDbEntity
  8
CENTER L
100
AcDbLine
 10
199.8605784015286
 20
100.7826092574103
 30
0.0
 11
184.6605784015286
 21
100.7826092574103
 31
0.0
  0
LINE
  5
10AE
330
1A
100
AcDbEntity
  8
CENTER L
100
AcDbLine
 10
199.8605784015286
 20
84.28260925741029
 30
0.0
 11
184.6605784015286
 21
84.2826092574103
 31
0.0
  0
LINE
  5
10AF
330
1A
100
AcDbEntity
  8
SEIHIN
100
AcDbLine
 10
192.3207949215286
 20
86.28260925741029
 30
0.0
 11
195.3207949215286
 21
83.28260925741029
 31
0.0
  0
LINE
  5
10B0
330
1A
100
AcDbEntity
  8
SEIHIN
100
AcDbLine
 10
192.3207949215286
 20
86.28260925741029
 30
0.0
 11
195.3207949215286
 21
89.28260925741029
 31
0.0
  0
LINE
  5
10B1
330
1A
100
AcDbEntity
  8
SEIHIN
100
AcDbLine
 10
192.3207949215286
 20
86.28260925741029
 30
0.0
 11
195.3207949215286
 21
86.28260925741029
 31
0.0
  0
ARC
  5
10B2
330
1A
100
AcDbEntity
  8
SEIHIN
  6
Continuous
 62
     3
100
AcDbCircle
 10
180.8207949215286
 20
99.78250925741031
 30
0.0
 40
3.0
100
AcDbArc
 50
270.0
 51
0.0
  0
LINE
  5
10B3
330
1A
100
AcDbEntity
  8
SEIHIN
100
AcDbLine
 10
189.8207949215286
 20
114.2826092574103
 30
0.0
 11
196.5207949215286
 21
114.2826092574103
 31
0.0
  0
LINE
  5
10B4
330
1A
100
AcDbEntity
  8
CENTER L
100
AcDbLine
 10
199.8605784015286
 20
109.2826092574103
 30
0.0
 11
184.6605784015286
 21
109.2826092574103
 31
0.0
  0
LINE
  5
10B5
330
1A
100
AcDbEntity
  8
SEIHIN
100
AcDbLine
 10
191.0207949215286
 20
120.2826087574103
 30
0.0
 11
191.0207949215286
 21
114.2826092574103
 31
0.0
  0
LINE
  5
10B6
330
1A
100
AcDbEntity
  8
SEIHIN
100
AcDbLine
 10
192.3207949215286
 20
106.2826092574103
 30
0.0
 11
195.3207949215286
 21
109.2826092574103
 31
0.0
  0
ARC
  5
10B7
330
1A
100
AcDbEntity
  8
SEIHIN
  6
Continuous
 62
     3
100
AcDbCircle
 10
184.8207949215286
 20
102.7825092574103
 30
0.0
 40
5.000022
100
AcDbArc
 50
0.0
 51
2.064221999999495
  0
LINE
  5
10B8
330
1A
100
AcDbEntity
  8
SEIHIN
100
AcDbLine
 10
192.3207949215286
 20
106.2826092574103
 30
0.0
 11
195.3207949215286
 21
106.2826092574103
 31
0.0
  0
LINE
  5
10B9
330
1A
100
AcDbEntity
  8
SEIHIN
100
AcDbLine
 10
192.3207949215286
 20
106.2826092574103
 30
0.0
 11
195.3207949215286
 21
103.2826092574103
 31
0.0
  0
ARC
  5
10BA
330
1A
100
AcDbEntity
  8
SEIHIN
100
AcDbCircle
 10
187.0207949215286
 20
120.2826092574103
 30
0.0
 40
3.99999999835207
100
AcDbArc
 50
359.9999928380284
 51
170.7918456747325
  0
LINE
  5
10BB
330
1A
100
AcDbEntity
  8
SEIHIN
100
AcDbLine
 10
196.0207949215286
 20
124.6415082053939
 30
0.0
 11
196.0207949215286
 21
114.2826092574103
 31
0.0
  0
LINE
  5
10BC
330
1A
100
AcDbEntity
  8
SEIHIN
  6
Continuous
 62
     3
100
AcDbLine
 10
63.82079492152863
 20
213.7021009806325
 30
0.0
 11
96.25369789152859
 21
213.7021009806325
 31
0.0
  0
LINE
  5
10BD
330
1A
100
AcDbEntity
  8
SEIHIN
  6
Continuous
 62
     3
100
AcDbLine
 10
63.82069492152854
 20
198.7021009806325
 30
0.0
 11
96.25369789152859
 21
198.7021009806325
 31
0.0
  0
LINE
  5
10BE
330
1A
100
AcDbEntity
  8
CENTER L
100
AcDbLine
 10
56.21732840152859
 20
206.2021009806325
 30
0.0
 11
203.5207949215286
 21
206.2021009806325
 31
0.0
  0
DIMENSION
  5
10BF
330
1A
100
AcDbEntity
  8
SUNPOU
100
AcDbDimension
  2
*D8
 10
38.76331157535424
 20
195.2021009806325
 30
0.0
 11
36.26331157535421
 21
206.2021009806325
 31
0.0
 70
    32
 71
     5
 42
22.0
  3
STANDARD
100
AcDbAlignedDimension
 13
60.82079492152863
 23
217.2021009806325
 33
0.0
 14
60.82079492152857
 24
195.2021009806325
 34
0.0
 50
90.0
100
AcDbRotatedDimension
1001
ACAD
1000
DSTYLE
1002
{
1070
    41
1040
3.0
1070
    42
1040
3.0
1070
    43
1040
7.0
1070
    44
1040
1.5
1070
    73
1070
     0
1070
    74
1070
     0
1070
    77
1070
     3
1070
   140
1040
3.0
1070
   141
1040
3.0
1070
   147
1040
1.0
1070
   172
1070
     1
1070
   173
1070
     1
1070
   176
1070
   256
1070
   177
1070
   256
1070
   178
1070
   256
1070
   271
1070
     0
1070
   272
1070
     0
1070
   341
1005
B2
1070
     6
1000
OPEN
1070
     7
1000
OPEN
1002
}
  0
LINE
  5
10C0
330
1A
100
AcDbEntity
  8
SEIHIN
  6
Continuous
 62
     3
100
AcDbLine
 10
63.82079492152863
 20
206.2023009806325
 30
0.0
 11
63.82069492152854
 21
195.2021009806325
 31
0.0
  0
LINE
  5
10C1
330
1A
100
AcDbEntity
  8
SEIHIN
  6
Continuous
 62
     3
100
AcDbLine
 10
60.82079492152857
 20
195.2021009806325
 30
0.0
 11
60.82079492152863
 21
217.2021009806325
 31
0.0
  0
LINE
  5
10C2
330
1A
100
AcDbEntity
  8
SEIHIN
  6
Continuous
 62
     3
100
AcDbLine
 10
60.82079492152857
 20
195.2021009806325
 30
0.0
 11
63.82069492152854
 21
195.2021009806325
 31
0.0
  0
LINE
  5
10C3
330
1A
100
AcDbEntity
  8
SEIHIN
  6
Continuous
 62
     3
100
AcDbLine
 10
63.82079492152863
 20
206.2019009806325
 30
0.0
 11
63.82079492152863
 21
217.2021009806325
 31
0.0
  0
LINE
  5
10C4
330
1A
100
AcDbEntity
  8
SEIHIN
  6
Continuous
 62
     3
100
AcDbLine
 10
60.82079492152863
 20
217.2021009806325
 30
0.0
 11
63.82079492152863
 21
217.2021009806325
 31
0.0
  0
LINE
  5
10C5
330
1A
100
AcDbEntity
  8
SEIHIN
  6
Continuous
 62
     3
100
AcDbLine
 10
77.82079492152863
 20
206.2020009806325
 30
0.0
 11
77.82079492152863
 21
213.7022009806325
 31
0.0
  0
LINE
  5
10C6
330
1A
100
AcDbEntity
  8
SEIHIN
  6
Continuous
 62
     3
100
AcDbLine
 10
77.82079492152863
 20
206.2022009806325
 30
0.0
 11
77.82079492152863
 21
198.7020009806325
 31
0.0
  0
LINE
  5
10C7
330
1A
100
AcDbEntity
  8
SEIHIN
100
AcDbLine
 10
195.3207949215286
 20
232.7021010006325
 30
0.0
 11
195.3207949215286
 21
216.0251525006325
 31
0.0
  0
LINE
  5
10C8
330
1A
100
AcDbEntity
  8
SEIHIN
100
AcDbLine
 10
196.5207949215286
 20
216.0251525006325
 30
0.0
 11
196.5207949215286
 21
232.7021010006325
 31
0.0
  0
LINE
  5
10C9
330
1A
100
AcDbEntity
  8
SEIHIN
100
AcDbLine
 10
127.1270780215286
 20
203.2021009606325
 30
0.0
 11
192.0207956315286
 21
203.2021009606325
 31
0.0
  0
LINE
  5
10CA
330
1A
100
AcDbEntity
  8
SEIHIN
100
AcDbLine
 10
127.1270780215286
 20
209.2021009606325
 30
0.0
 11
192.0207949215286
 21
209.2021009606325
 31
0.0
  0
LINE
  5
10CB
330
1A
100
AcDbEntity
  8
SEIHIN
100
AcDbLine
 10
97.25369789152859
 20
212.7021010006325
 30
0.0
 11
196.0207949215286
 21
212.7021010006325
 31
0.0
  0
LINE
  5
10CC
330
1A
100
AcDbEntity
  8
SEIHIN
100
AcDbLine
 10
97.25369789152859
 20
199.7021009606325
 30
0.0
 11
196.0207949215286
 21
199.7021009606325
 31
0.0
  0
LINE
  5
10CD
330
1A
100
AcDbEntity
  8
SEIHIN
100
AcDbLine
 10
97.75369789152859
 20
198.7021009606325
 30
0.0
 11
196.0207949215286
 21
198.7021009606325
 31
0.0
  0
LINE
  5
10CE
330
1A
100
AcDbEntity
  8
SEIHIN
100
AcDbLine
 10
97.75369789152859
 20
213.7021010006325
 30
0.0
 11
196.0207949215286
 21
213.7021010006325
 31
0.0
  0
LINE
  5
10CF
330
1A
100
AcDbEntity
  8
SEIHIN
100
AcDbLine
 10
97.68598710152858
 20
214.2021010006325
 30
0.0
 11
116.7207949235286
 21
214.2021010006325
 31
0.0
  0
LINE
  5
10D0
330
1A
100
AcDbEntity
  8
SEIHIN
100
AcDbLine
 10
116.7207949235286
 20
198.2021009606325
 30
0.0
 11
97.68594843152857
 21
198.2021469606325
 31
0.0
  0
LINE
  5
10D1
330
1A
100
AcDbEntity
  8
SEIHIN
100
AcDbLine
 10
100.3296008815286
 20
210.3565450006325
 30
0.0
 11
122.3882880065286
 21
210.3565450006325
 31
0.0
  0
LINE
  5
10D2
330
1A
100
AcDbEntity
  8
SEIHIN
100
AcDbLine
 10
97.5400813315286
 20
212.4741746006325
 30
0.0
 11
125.1270780215286
 21
212.4741746006325
 31
0.0
  0
LINE
  5
10D3
330
1A
100
AcDbEntity
  8
SEIHIN
100
AcDbLine
 10
100.3296008815286
 20
202.0476569506325
 30
0.0
 11
122.3882880065286
 21
202.0476569506325
 31
0.0
  0
LINE
  5
10D4
330
1A
100
AcDbEntity
  8
SEIHIN
100
AcDbLine
 10
97.5400813315286
 20
199.9300273206325
 30
0.0
 11
125.1270780215286
 21
199.9300273206325
 31
0.0
  0
LINE
  5
10D5
330
1A
100
AcDbEntity
  8
SEIHIN
100
AcDbLine
 10
96.25369789152859
 20
195.2021009606325
 30
0.0
 11
96.25369789152859
 21
198.7021009606325
 31
0.0
  0
LINE
  5
10D6
330
1A
100
AcDbEntity
  8
SEIHIN
100
AcDbLine
 10
97.25369789152859
 20
198.2021009606325
 30
0.0
 11
97.25369789152859
 21
195.2021009606325
 31
0.0
  0
LINE
  5
10D7
330
1A
100
AcDbEntity
  8
SEIHIN
100
AcDbLine
 10
97.25369789152859
 20
195.2021009606325
 30
0.0
 11
96.25369789152859
 21
195.2021009606325
 31
0.0
  0
ARC
  5
10D8
330
1A
100
AcDbEntity
  8
SEIHIN
100
AcDbCircle
 10
97.75369789152859
 20
214.2021010006325
 30
0.0
 40
0.5
100
AcDbArc
 50
180.0
 51
270.0
  0
ARC
  5
10D9
330
1A
100
AcDbEntity
  8
SEIHIN
100
AcDbCircle
 10
97.75369789152859
 20
198.2021009606325
 30
0.0
 40
0.5
100
AcDbArc
 50
90.0
 51
180.0
  0
LINE
  5
10DA
330
1A
100
AcDbEntity
  8
SEIHIN
100
AcDbLine
 10
100.3296008815286
 20
200.9300273206325
 30
0.0
 11
97.5400813315286
 21
200.9300273206325
 31
0.0
  0
LINE
  5
10DB
330
1A
100
AcDbEntity
  8
SEIHIN
100
AcDbLine
 10
100.3296008815286
 20
211.4741746006325
 30
0.0
 11
97.5400813315286
 21
211.4741746006325
 31
0.0
  0
LINE
  5
10DC
330
1A
100
AcDbEntity
  8
SEIHIN
100
AcDbLine
 10
97.5400813315286
 20
208.1267123006325
 30
0.0
 11
100.3296008815286
 21
208.1267123006325
 31
0.0
  0
LINE
  5
10DD
330
1A
100
AcDbEntity
  8
SEIHIN
100
AcDbLine
 10
97.5400813315286
 20
204.2774896206325
 30
0.0
 11
100.3296008815286
 21
204.2774896206325
 31
0.0
  0
LINE
  5
10DE
330
1A
100
AcDbEntity
  8
SEIHIN
  6
Continuous
 62
     3
100
AcDbLine
 10
90.32069492152866
 20
198.7021009806325
 30
0.0
 11
90.32069492152866
 21
213.7021009806325
 31
0.0
  0
LINE
  5
10DF
330
1A
100
AcDbEntity
  8
SEIHIN
100
AcDbLine
 10
97.5400813315286
 20
211.4741746006325
 30
0.0
 11
97.5400813315286
 21
200.9300273206325
 31
0.0
  0
ARC
  5
10E0
330
1A
100
AcDbEntity
  8
SEIHIN
100
AcDbCircle
 10
97.5400813315286
 20
206.2021009606325
 30
0.0
 40
3.000000000000011
100
AcDbArc
 50
90.00000515662018
 51
269.9999952253517
  0
LINE
  5
10E1
330
1A
100
AcDbEntity
  8
SEIHIN
100
AcDbLine
 10
91.72079492152858
 20
198.2021009606325
 30
0.0
 11
95.68570224152859
 21
198.2021009606325
 31
0.0
  0
LINE
  5
10E2
330
1A
100
AcDbEntity
  8
SEIHIN
100
AcDbLine
 10
95.68594386152859
 20
198.7021009606325
 30
0.0
 11
91.72079492152858
 21
198.7021009606325
 31
0.0
  0
LINE
  5
10E3
330
1A
100
AcDbEntity
  8
SEIHIN
100
AcDbLine
 10
91.72079492152858
 20
198.2021009606325
 30
0.0
 11
91.72079492152858
 21
198.7021009606325
 31
0.0
  0
LINE
  5
10E4
330
1A
100
AcDbEntity
  8
SEIHIN
100
AcDbLine
 10
97.5400813315286
 20
200.9300273206325
 30
0.0
 11
97.5400813315286
 21
199.9300273206325
 31
0.0
  0
LINE
  5
10E5
330
1A
100
AcDbEntity
  8
SEIHIN
100
AcDbLine
 10
95.68594268152859
 20
198.2021009606325
 30
0.0
 11
95.68594386152859
 21
198.7021009606325
 31
0.0
  0
ARC
  5
10E6
330
1A
100
AcDbEntity
  8
SEIHIN
100
AcDbCircle
 10
97.25369789152859
 20
198.7021009606325
 30
0.0
 40
1.0
100
AcDbArc
 50
90.0
 51
180.0
  0
ARC
  5
10E7
330
1A
100
AcDbEntity
  8
SEIHIN
100
AcDbCircle
 10
97.25369789152859
 20
213.7021010006325
 30
0.0
 40
1.0
100
AcDbArc
 50
180.0
 51
270.0
  0
LINE
  5
10E8
330
1A
100
AcDbEntity
  8
SEIHIN
100
AcDbLine
 10
97.5400813315286
 20
211.4741746006325
 30
0.0
 11
97.5400813315286
 21
212.4741746006325
 31
0.0
  0
LINE
  5
10E9
330
1A
100
AcDbEntity
  8
SEIHIN
100
AcDbLine
 10
91.72079492152858
 20
214.2021010006325
 30
0.0
 11
95.68570224152859
 21
214.2021010006325
 31
0.0
  0
LINE
  5
10EA
330
1A
100
AcDbEntity
  8
SEIHIN
100
AcDbLine
 10
95.68597923152859
 20
213.7021010006325
 30
0.0
 11
91.72079492152858
 21
213.7021010006325
 31
0.0
  0
LINE
  5
10EB
330
1A
100
AcDbEntity
  8
SEIHIN
100
AcDbLine
 10
91.72079492152858
 20
213.7021010006325
 30
0.0
 11
91.72079492152858
 21
214.2021010006325
 31
0.0
  0
LINE
  5
10EC
330
1A
100
AcDbEntity
  8
SEIHIN
100
AcDbLine
 10
97.25369789152859
 20
217.2021010006325
 30
0.0
 11
96.25369789152859
 21
217.2021010006325
 31
0.0
  0
LINE
  5
10ED
330
1A
100
AcDbEntity
  8
SEIHIN
100
AcDbLine
 10
95.68597923152859
 20
213.7021010006325
 30
0.0
 11
95.68598041152859
 21
214.2021010006325
 31
0.0
  0
LINE
  5
10EE
330
1A
100
AcDbEntity
  8
SEIHIN
100
AcDbLine
 10
97.25369789152859
 20
214.2021010006325
 30
0.0
 11
97.25369789152859
 21
217.2021010006325
 31
0.0
  0
LINE
  5
10EF
330
1A
100
AcDbEntity
  8
SEIHIN
100
AcDbLine
 10
96.25369789152859
 20
217.2021010006325
 30
0.0
 11
96.25369789152859
 21
213.7021010006325
 31
0.0
  0
LINE
  5
10F0
330
1A
100
AcDbEntity
  8
SEIHIN
100
AcDbLine
 10
100.3296008815286
 20
199.9300273206325
 30
0.0
 11
100.3296008815286
 21
212.4741746006325
 31
0.0
  0
ARC
  5
10F1
330
1A
100
AcDbEntity
  8
SEIHIN
100
AcDbCircle
 10
106.7210360515286
 20
202.7204304606325
 30
0.0
 40
5.715337531631893
100
AcDbArc
 50
232.2375418744897
 51
307.7621812247569
  0
LINE
  5
10F2
330
1A
100
AcDbEntity
  8
SEIHIN
100
AcDbLine
 10
100.3296008815286
 20
199.9300273206325
 30
0.0
 11
100.3296008815286
 21
201.1300273206325
 31
0.0
  0
LINE
  5
10F3
330
1A
100
AcDbEntity
  8
SEIHIN
100
AcDbLine
 10
97.68594843152857
 20
198.2021469606325
 30
0.0
 11
97.68594964152857
 21
198.7021009606325
 31
0.0
  0
LINE
  5
10F4
330
1A
100
AcDbEntity
  8
SEIHIN
100
AcDbLine
 10
110.2210251315286
 20
215.2665394006325
 30
0.0
 11
103.2210251315286
 21
215.2665394006325
 31
0.0
  0
LINE
  5
10F5
330
1A
100
AcDbEntity
  8
SEIHIN
100
AcDbLine
 10
103.2210251315286
 20
214.2021010006325
 30
0.0
 11
110.2210251315286
 21
214.2021010006325
 31
0.0
  0
LINE
  5
10F6
330
1A
100
AcDbEntity
  8
SEIHIN
100
AcDbLine
 10
100.3296008815286
 20
212.4741746006325
 30
0.0
 11
100.3296008815286
 21
211.2741746006325
 31
0.0
  0
LINE
  5
10F7
330
1A
100
AcDbEntity
  8
SEIHIN
100
AcDbLine
 10
97.68598589152859
 20
213.7021010006325
 30
0.0
 11
97.68598710152858
 21
214.2021010006325
 31
0.0
  0
LINE
  5
10F8
330
1A
100
AcDbEntity
  8
SEIHIN
100
AcDbLine
 10
103.2210251315286
 20
215.2665394006325
 30
0.0
 11
103.2210251315286
 21
214.2021010006325
 31
0.0
  0
LINE
  5
10F9
330
1A
100
AcDbEntity
  8
SEIHIN
100
AcDbLine
 10
110.2210251315286
 20
214.2021010006325
 30
0.0
 11
110.2210251315286
 21
215.2665394006325
 31
0.0
  0
LINE
  5
10FA
330
1A
100
AcDbEntity
  8
SEIHIN
100
AcDbLine
 10
125.9795123145286
 20
201.9300273206325
 30
0.0
 11
125.9795123145286
 21
210.4741746006325
 31
0.0
  0
LINE
  5
10FB
330
1A
100
AcDbEntity
  8
SEIHIN
100
AcDbLine
 10
127.1270780215286
 20
201.9300273206325
 30
0.0
 11
127.1270780215286
 21
210.4741746006325
 31
0.0
  0
LINE
  5
10FC
330
1A
100
AcDbEntity
  8
SEIHIN
100
AcDbLine
 10
124.3882880065286
 20
208.3565449706325
 30
0.0
 11
124.3882880065286
 21
204.0476569506325
 31
0.0
  0
LINE
  5
10FD
330
1A
100
AcDbEntity
  8
SEIHIN
100
AcDbLine
 10
115.8232174105286
 20
203.0476569506325
 30
0.0
 11
115.8232174105286
 21
209.3565449706325
 31
0.0
  0
LINE
  5
10FE
330
1A
100
AcDbEntity
  8
SEIHIN
100
AcDbLine
 10
120.6651376460286
 20
203.0476569506325
 30
0.0
 11
120.6651376460286
 21
209.3565449706325
 31
0.0
  0
LINE
  5
10FF
330
1A
100
AcDbEntity
  8
SEIHIN
100
AcDbLine
 10
116.7207949235286
 20
198.2021009606325
 30
0.0
 11
116.7207949235286
 21
198.7021009606325
 31
0.0
  0
ARC
  5
1100
330
1A
100
AcDbEntity
  8
SEIHIN
100
AcDbCircle
 10
125.1270780215286
 20
201.9300273206325
 30
0.0
 40
2.0
100
AcDbArc
 50
270.0
 51
0.0
  0
ARC
  5
1101
330
1A
100
AcDbEntity
  8
SEIHIN
100
AcDbCircle
 10
125.1270780215286
 20
201.9300273206325
 30
0.0
 40
2.0
100
AcDbArc
 50
270.0
 51
0.0
  0
ARC
  5
1102
330
1A
100
AcDbEntity
  8
SEIHIN
100
AcDbCircle
 10
123.9795123145286
 20
201.9300273206325
 30
0.0
 40
2.0
100
AcDbArc
 50
270.0
 51
0.0
  0
LINE
  5
1103
330
1A
100
AcDbEntity
  8
SEIHIN
100
AcDbLine
 10
125.7126397964918
 20
198.7021009606325
 30
0.0
 11
125.7126397964918
 21
199.7021009606325
 31
0.0
  0
ARC
  5
1104
330
1A
100
AcDbEntity
  8
SEIHIN
100
AcDbCircle
 10
122.3882880065286
 20
204.0476569506325
 30
0.0
 40
2.0
100
AcDbArc
 50
270.0
 51
0.0
  0
LINE
  5
1105
330
1A
100
AcDbEntity
  8
SEIHIN
100
AcDbLine
 10
116.7207949235286
 20
213.7021010006325
 30
0.0
 11
116.7207949235286
 21
214.2021010006325
 31
0.0
  0
LINE
  5
1106
330
1A
100
AcDbEntity
  8
SEIHIN
100
AcDbLine
 10
125.7126397964918
 20
212.7021010006325
 30
0.0
 11
125.7126397964918
 21
213.7021010006325
 31
0.0
  0
ARC
  5
1107
330
1A
100
AcDbEntity
  8
SEIHIN
100
AcDbCircle
 10
125.1270780215286
 20
210.4741746006325
 30
0.0
 40
2.0
100
AcDbArc
 50
0.0
 51
90.0
  0
ARC
  5
1108
330
1A
100
AcDbEntity
  8
SEIHIN
100
AcDbCircle
 10
125.1270780215286
 20
210.4741746006325
 30
0.0
 40
2.0
100
AcDbArc
 50
0.0
 51
90.0
  0
ARC
  5
1109
330
1A
100
AcDbEntity
  8
SEIHIN
100
AcDbCircle
 10
123.9795123145286
 20
210.4741746006325
 30
0.0
 40
2.0
100
AcDbArc
 50
0.0
 51
90.0
  0
ARC
  5
110A
330
1A
100
AcDbEntity
  8
SEIHIN
100
AcDbCircle
 10
122.3882880065286
 20
208.3565449706325
 30
0.0
 40
2.000000014999998
100
AcDbArc
 50
0.0
 51
90.0
  0
ARC
  5
110B
330
1A
100
AcDbEntity
  8
SEIHIN
100
AcDbCircle
 10
181.109435091669
 20
206.2021009606325
 30
0.0
 40
3.25
100
AcDbArc
 50
112.6198649480406
 51
247.3801350519594
  0
LINE
  5
110C
330
1A
100
AcDbEntity
  8
SEIHIN
100
AcDbLine
 10
176.8155322127066
 20
199.7021009606325
 30
0.0
 11
176.8155322127066
 21
198.7021009606325
 31
0.0
  0
LINE
  5
110D
330
1A
100
AcDbEntity
  8
SEIHIN
100
AcDbLine
 10
176.8155322127066
 20
212.7021010006325
 30
0.0
 11
176.8155322127066
 21
213.7021010006325
 31
0.0
  0
LINE
  5
110E
330
1A
100
AcDbEntity
  8
SEIHIN
100
AcDbLine
 10
195.3207949215286
 20
194.7811594606325
 30
0.0
 11
193.3207949215286
 21
197.1228586006325
 31
0.0
  0
LINE
  5
110F
330
1A
100
AcDbEntity
  8
SEIHIN
100
AcDbLine
 10
196.5207949215286
 20
196.3790493706325
 30
0.0
 11
196.5207949215286
 21
179.7021009606325
 31
0.0
  0
LINE
  5
1110
330
1A
100
AcDbEntity
  8
SEIHIN
100
AcDbLine
 10
195.3207949215286
 20
179.7021009606325
 30
0.0
 11
195.3207949215286
 21
196.3790493706325
 31
0.0
  0
LINE
  5
1111
330
1A
100
AcDbEntity
  8
CENTER L
100
AcDbLine
 10
188.3207949215286
 20
186.7021009806325
 30
0.0
 11
203.5207949215286
 21
186.7021009806325
 31
0.0
  0
LINE
  5
1112
330
1A
100
AcDbEntity
  8
CENTER L
100
AcDbLine
 10
188.3207949215286
 20
185.2021009806325
 30
0.0
 11
203.5207949215286
 21
185.2021009806325
 31
0.0
  0
LINE
  5
1113
330
1A
100
AcDbEntity
  8
SEIHIN
100
AcDbLine
 10
196.5207949215286
 20
179.7021009606325
 30
0.0
 11
195.3207949215286
 21
179.7021009606325
 31
0.0
  0
ARC
  5
1114
330
1A
100
AcDbEntity
  8
SEIHIN
100
AcDbCircle
 10
194.8207949215286
 20
216.0251525006325
 30
0.0
 40
1.699999960936061
100
AcDbArc
 50
279.0000003976588
 51
0.0
  0
ARC
  5
1115
330
1A
100
AcDbEntity
  8
SEIHIN
100
AcDbCircle
 10
194.8207949215286
 20
196.3790493706325
 30
0.0
 40
1.700000000443591
100
AcDbArc
 50
0.0
 51
81.0000000241316
  0
ARC
  5
1116
330
1A
100
AcDbEntity
  8
SEIHIN
100
AcDbCircle
 10
192.0207953115286
 20
206.2021009606325
 30
0.0
 40
3.000000000000029
100
AcDbArc
 50
270.0000061115495
 51
90.00000954929655
  0
LINE
  5
1117
330
1A
100
AcDbEntity
  8
SEIHIN
100
AcDbLine
 10
179.859435091669
 20
203.2021009606325
 30
0.0
 11
179.859435091669
 21
199.7021009606325
 31
0.0
  0
ARC
  5
1118
330
1A
100
AcDbEntity
  8
SEIHIN
100
AcDbCircle
 10
191.4207949215286
 20
202.0312848206325
 30
0.0
 40
0.9999999999999971
100
AcDbArc
 50
306.869897645843
 51
0.0
  0
LINE
  5
1119
330
1A
100
AcDbEntity
  8
SEIHIN
100
AcDbLine
 10
192.0207949215286
 20
203.2021009606325
 30
0.0
 11
192.0207949215286
 21
199.7021009606325
 31
0.0
  0
LINE
  5
111A
330
1A
100
AcDbEntity
  8
SEIHIN
100
AcDbLine
 10
191.4425776915286
 20
198.6352971306325
 30
0.0
 11
195.0867335115286
 21
198.0581195506325
 31
0.0
  0
LINE
  5
111B
330
1A
100
AcDbEntity
  8
SEIHIN
100
AcDbLine
 10
191.2548563315286
 20
197.4500711206325
 30
0.0
 11
194.8990121515286
 21
196.8728935406325
 31
0.0
  0
ARC
  5
111C
330
1A
100
AcDbEntity
  8
SEIHIN
100
AcDbCircle
 10
191.5207949215286
 20
199.1291413006325
 30
0.0
 40
1.700000000774792
100
AcDbArc
 50
194.5485451942508
 51
261.0000000241316
  0
ARC
  5
111D
330
1A
100
AcDbEntity
  8
SEIHIN
100
AcDbCircle
 10
191.5207949215286
 20
199.1291413006325
 30
0.0
 40
0.499999998318523
100
AcDbArc
 50
238.6583206989034
 51
261.0000002798936
  0
ARC
  5
111E
330
1A
100
AcDbEntity
  8
SEIHIN
100
AcDbCircle
 10
194.8207949215286
 20
196.3790493706325
 30
0.0
 40
0.4999999996559328
100
AcDbArc
 50
0.0
 51
81.00000027989364
  0
LINE
  5
111F
330
1A
100
AcDbEntity
  8
SEIHIN
100
AcDbLine
 10
192.4207949215286
 20
202.0312848206325
 30
0.0
 11
192.4207949215286
 21
203.2288871606325
 31
0.0
  0
LINE
  5
1120
330
1A
100
AcDbEntity
  8
SEIHIN
100
AcDbLine
 10
179.859435091669
 20
212.7021010006325
 30
0.0
 11
179.859435091669
 21
209.2021009606325
 31
0.0
  0
LINE
  5
1121
330
1A
100
AcDbEntity
  8
SEIHIN
100
AcDbLine
 10
192.4207949215286
 20
210.3729171006325
 30
0.0
 11
192.4207949215286
 21
209.1753147606325
 31
0.0
  0
LINE
  5
1122
330
1A
100
AcDbEntity
  8
SEIHIN
100
AcDbLine
 10
192.0207949215286
 20
209.2021009606325
 30
0.0
 11
192.0207949215286
 21
212.7021010006325
 31
0.0
  0
ARC
  5
1123
330
1A
100
AcDbEntity
  8
SEIHIN
100
AcDbCircle
 10
191.4207949215286
 20
210.3729171006325
 30
0.0
 40
0.9999999999999971
100
AcDbArc
 50
0.0
 51
53.13010235415663
  0
LINE
  5
1124
330
1A
100
AcDbEntity
  8
SEIHIN
100
AcDbLine
 10
191.4425776915286
 20
213.7689048006325
 30
0.0
 11
195.0867335115286
 21
214.3460824006325
 31
0.0
  0
LINE
  5
1125
330
1A
100
AcDbEntity
  8
SEIHIN
100
AcDbLine
 10
191.2548563315286
 20
214.9541308006325
 30
0.0
 11
194.8990121515286
 21
215.5313084006325
 31
0.0
  0
ARC
  5
1126
330
1A
100
AcDbEntity
  8
SEIHIN
100
AcDbCircle
 10
191.5207949215286
 20
213.2750606006325
 30
0.0
 40
0.5000000387562691
100
AcDbArc
 50
98.99999918232436
 51
121.3416757248728
  0
ARC
  5
1127
330
1A
100
AcDbEntity
  8
SEIHIN
100
AcDbCircle
 10
191.5207949215286
 20
213.2750606006325
 30
0.0
 40
1.700000018187684
100
AcDbArc
 50
98.99999987042145
 51
165.4514528483865
  0
ARC
  5
1128
330
1A
100
AcDbEntity
  8
SEIHIN
100
AcDbCircle
 10
194.8207949215286
 20
216.0251525006325
 30
0.0
 40
0.4999999650868415
100
AcDbArc
 50
279.0000009749315
 51
0.0
  0
LINE
  5
1129
330
1A
100
AcDbEntity
  8
SEIHIN
100
AcDbLine
 10
195.3207949215286
 20
217.6230425006325
 30
0.0
 11
193.3207949215286
 21
215.2813433006325
 31
0.0
  0
LINE
  5
112A
330
1A
100
AcDbEntity
  8
SEIHIN
100
AcDbLine
 10
196.0207949215286
 20
198.7021009606325
 30
0.0
 11
196.0207949215286
 21
199.7021009606325
 31
0.0
  0
LINE
  5
112B
330
1A
100
AcDbEntity
  8
SEIHIN
100
AcDbLine
 10
196.0207949215286
 20
213.7021010006325
 30
0.0
 11
196.0207949215286
 21
212.7021010006325
 31
0.0
  0
LINE
  5
112C
330
1A
100
AcDbEntity
  8
CENTER L
100
AcDbLine
 10
188.3207949215286
 20
225.7021009806325
 30
0.0
 11
203.5207949215286
 21
225.7021009806325
 31
0.0
  0
LINE
  5
112D
330
1A
100
AcDbEntity
  8
CENTER L
100
AcDbLine
 10
188.3207949215286
 20
227.2021009806325
 30
0.0
 11
203.5207949215286
 21
227.2021009806325
 31
0.0
  0
LINE
  5
112E
330
1A
100
AcDbEntity
  8
SEIHIN
100
AcDbLine
 10
196.5207949215286
 20
232.7021010006325
 30
0.0
 11
195.3207949215286
 21
232.7021010006325
 31
0.0
  0
LWPOLYLINE
  5
112F
330
1A
100
AcDbEntity
  8
SUNPOU
100
AcDbPolyline
 90
        3
 70
     0
 43
0.0
 10
297.3915398643043
 20
112.825039829335
 10
284.0712308787938
 20
138.7890263821531
 10
266.085087104063
 20
138.7890263821531
1001
ACAD
1000
DSTYLE
1002
{
1070
    41
1040
3.0
1070
    42
1040
3.0
1070
    43
1040
7.0
1070
    44
1040
1.5
1070
    73
1070
     0
1070
    74
1070
     0
1070
    77
1070
     0
1070
   140
1040
3.0
1070
   141
1040
3.0
1070
   147
1040
1.0
1070
   172
1070
     1
1070
   173
1070
     1
1070
   176
1070
   256
1070
   177
1070
   256
1070
   178
1070
   256
1070
   271
1070
     0
1070
   272
1070
     0
1070
   341
1005
B2
1070
   343
1005
B2
1070
   344
1005
B2
1002
}
  0
DIMENSION
  5
1130
330
1A
100
AcDbEntity
  8
SUNPOU
100
AcDbDimension
  2
*D9
 10
347.9467357815286
 20
165.2567010472617
 30
0.0
 11
321.4467357815286
 21
167.7567010472617
 31
0.0
 70
    32
 71
     5
 42
53.0
  3
STANDARD
100
AcDbAlignedDimension
 13
294.9467357815286
 23
112.2826092574103
 33
0.0
 14
347.9467357815286
 24
112.2826092574103
 34
0.0
100
AcDbRotatedDimension
1001
ACAD
1000
DSTYLE
1002
{
1070
    41
1040
3.0
1070
    42
1040
3.0
1070
    43
1040
7.0
1070
    44
1040
1.5
1070
    73
1070
     0
1070
    74
1070
     0
1070
    77
1070
     3
1070
   140
1040
3.0
1070
   141
1040
3.0
1070
   147
1040
1.0
1070
   172
1070
     1
1070
   173
1070
     1
1070
   176
1070
   256
1070
   177
1070
   256
1070
   178
1070
   256
1070
   271
1070
     0
1070
   272
1070
     0
1070
   341
1005
B2
1070
     6
1000
OPEN
1070
     7
1000
OPEN
1002
}
  0
DIMENSION
  5
1131
330
1A
100
AcDbEntity
  8
SUNPOU
100
AcDbDimension
  2
*D10
 10
342.4467357815286
 20
157.3163984836192
 30
0.0
 11
321.4467357815286
 21
159.8163984836192
 31
0.0
 70
    32
 71
     5
 42
42.0
  3
STANDARD
100
AcDbAlignedDimension
 13
300.4467357815286
 23
114.8826092291377
 33
0.0
 14
342.4467357815286
 24
114.8826092291377
 34
0.0
100
AcDbRotatedDimension
1001
ACAD
1000
DSTYLE
1002
{
1070
    41
1040
3.0
1070
    42
1040
3.0
1070
    43
1040
7.0
1070
    44
1040
1.5
1070
    73
1070
     0
1070
    74
1070
     0
1070
    77
1070
     3
1070
   140
1040
3.0
1070
   141
1040
3.0
1070
   147
1040
1.0
1070
   172
1070
     1
1070
   173
1070
     1
1070
   176
1070
   256
1070
   177
1070
   256
1070
   178
1070
   256
1070
   271
1070
     0
1070
   272
1070
     0
1070
   341
1005
B2
1070
     6
1000
OPEN
1070
     7
1000
OPEN
1002
}
  0
DIMENSION
  5
1132
330
1A
100
AcDbEntity
  8
SUNPOU
100
AcDbDimension
  2
*D11
 10
340.9467357815286
 20
148.8948659340117
 30
0.0
 11
321.4467357815286
 21
151.3948659340117
 31
0.0
 70
    32
 71
     5
 42
39.0
  3
STANDARD
100
AcDbAlignedDimension
 13
301.9467357815286
 23
107.3129154521382
 33
0.0
 14
340.9467357815286
 24
107.3129154521382
 34
0.0
100
AcDbRotatedDimension
1001
ACAD
1000
DSTYLE
1002
{
1070
    41
1040
3.0
1070
    42
1040
3.0
1070
    43
1040
7.0
1070
    44
1040
1.5
1070
    73
1070
     0
1070
    74
1070
     0
1070
    77
1070
     3
1070
   140
1040
3.0
1070
   141
1040
3.0
1070
   147
1040
1.0
1070
   172
1070
     1
1070
   173
1070
     1
1070
   176
1070
   256
1070
   177
1070
   256
1070
   178
1070
   256
1070
   271
1070
     0
1070
   272
1070
     0
1070
   341
1005
B2
1070
     6
1000
OPEN
1070
     7
1000
OPEN
1002
}
  0
LINE
  5
1133
330
1A
100
AcDbEntity
  8
CENTER L
100
AcDbLine
 10
321.4467357815286
 20
137.2826092574103
 30
0.0
 11
321.4467357815286
 21
71.28260925741029
 31
0.0
  0
ARC
  5
1134
330
1A
100
AcDbEntity
  8
SEIHIN
100
AcDbCircle
 10
321.4467357815286
 20
125.2683890474103
 30
0.0
 40
3.00000000000002
100
AcDbArc
 50
0.0000068754932962
 51
179.9999938884497
  0
LINE
  5
1135
330
1A
100
AcDbEntity
  8
SEIHIN
100
AcDbLine
 10
327.9467357815286
 20
83.1959110774103
 30
0.0
 11
327.9467357815286
 21
130.2826092574103
 31
0.0
  0
LINE
  5
1136
330
1A
100
AcDbEntity
  8
SEIHIN
100
AcDbLine
 10
314.9467357815286
 20
83.1959110774103
 30
0.0
 11
314.9467357815286
 21
130.2826092574103
 31
0.0
  0
LINE
  5
1137
330
1A
100
AcDbEntity
  8
SEIHIN
100
AcDbLine
 10
328.9467357815286
 20
83.1959110774103
 30
0.0
 11
328.9467357815286
 21
130.2826092574103
 31
0.0
  0
LINE
  5
1138
330
1A
100
AcDbEntity
  8
SEIHIN
100
AcDbLine
 10
313.9467357815286
 20
83.1959110774103
 30
0.0
 11
313.9467357815286
 21
130.2826092574103
 31
0.0
  0
LINE
  5
1139
330
1A
100
AcDbEntity
  8
CENTER L
100
AcDbLine
 10
348.1967357541546
 20
100.2826092574103
 30
0.0
 11
333.6967358089025
 21
100.2826092574103
 31
0.0
  0
LINE
  5
113A
330
1A
100
AcDbEntity
  8
CENTER L
100
AcDbLine
 10
348.546735753256
 20
83.78260925741029
 30
0.0
 11
336.3467358098012
 21
83.78260925741029
 31
0.0
  0
LINE
  5
113B
330
1A
100
AcDbEntity
  8
CENTER L
100
AcDbLine
 10
348.546735753256
 20
108.7826092574103
 30
0.0
 11
336.3467358098012
 21
108.7826092574103
 31
0.0
  0
CIRCLE
  5
113C
330
1A
100
AcDbEntity
  8
SEIHIN
100
AcDbCircle
 10
342.4467357815286
 20
108.7826092574103
 30
0.0
 40
2.099999971727393
  0
LINE
  5
113D
330
1A
100
AcDbEntity
  8
SEIHIN
100
AcDbLine
 10
328.9467357815286
 20
114.2826092574103
 30
0.0
 11
345.9467357815286
 21
114.2826092574103
 31
0.0
  0
CIRCLE
  5
113E
330
1A
100
AcDbEntity
  8
SEIHIN
100
AcDbCircle
 10
340.9467357815286
 20
100.2826092574103
 30
0.0
 40
3.249999972626096
  0
CIRCLE
  5
113F
330
1A
100
AcDbEntity
  8
SEIHIN
100
AcDbCircle
 10
342.4467357815286
 20
83.78260925741029
 30
0.0
 40
2.099999986565493
  0
LINE
  5
1140
330
1A
100
AcDbEntity
  8
SEIHIN
100
AcDbLine
 10
345.9467357815286
 20
78.28260925741029
 30
0.0
 11
296.9467357815286
 21
78.28260925741029
 31
0.0
  0
DIMENSION
  5
1141
330
1A
100
AcDbEntity
  8
SUNPOU
100
AcDbDimension
  2
*D12
 10
266.9733812157847
 20
78.2826092574103
 30
0.0
 11
264.4733812157847
 21
96.28260925741034
 31
0.0
 70
    32
 71
     5
 42
36.0
  3
STANDARD
100
AcDbAlignedDimension
 13
296.9467357815286
 23
114.2826092574103
 33
0.0
 14
296.9467357815286
 24
78.28260925741029
 34
0.0
 50
90.0
100
AcDbRotatedDimension
1001
ACAD
1000
DSTYLE
1002
{
1070
    41
1040
3.0
1070
    42
1040
3.0
1070
    43
1040
7.0
1070
    44
1040
1.5
1070
    73
1070
     0
1070
    74
1070
     0
1070
    77
1070
     3
1070
   140
1040
3.0
1070
   141
1040
3.0
1070
   147
1040
1.0
1070
   172
1070
     1
1070
   173
1070
     1
1070
   176
1070
   256
1070
   177
1070
   256
1070
   178
1070
   256
1070
   271
1070
     0
1070
   272
1070
     0
1070
   341
1005
B2
1070
     6
1000
OPEN
1070
     7
1000
OPEN
1002
}
  0
DIMENSION
  5
1142
330
1A
100
AcDbEntity
  8
SUNPOU
100
AcDbDimension
  2
*D13
 10
276.8467865783782
 20
78.2826092574103
 30
0.0
 11
274.3467865783782
 21
81.03260925741034
 31
0.0
 70
    32
 71
     5
 42
5.5
  3
STANDARD
100
AcDbAlignedDimension
 13
294.3467358098012
 23
83.78260925741029
 33
0.0
 14
296.9467357815286
 24
78.28260925741029
 34
0.0
 50
90.0
100
AcDbRotatedDimension
1001
ACAD
1000
DSTYLE
1002
{
1070
    41
1040
3.0
1070
    42
1040
3.0
1070
    43
1040
7.0
1070
    44
1040
1.5
1070
    73
1070
     0
1070
    74
1070
     0
1070
    77
1070
     3
1070
   140
1040
3.0
1070
   141
1040
3.0
1070
   147
1040
1.0
1070
   172
1070
     1
1070
   173
1070
     1
1070
   176
1070
   256
1070
   177
1070
   256
1070
   178
1070
   256
1070
   271
1070
     0
1070
   272
1070
     0
1070
   341
1005
B2
1070
     6
1000
OPEN
1070
     7
1000
OPEN
1002
}
  0
DIMENSION
  5
1143
330
1A
100
AcDbEntity
  8
SUNPOU
100
AcDbDimension
  2
*D14
 10
276.8467865783782
 20
108.7826092574103
 30
0.0
 11
274.3467865783782
 21
111.5326092574103
 31
0.0
 70
    32
 71
     5
 42
5.5
  3
STANDARD
100
AcDbAlignedDimension
 13
296.9467357815286
 23
114.2826092574103
 33
0.0
 14
294.3467358098012
 24
108.7826092574103
 34
0.0
 50
90.0
100
AcDbRotatedDimension
1001
ACAD
1000
DSTYLE
1002
{
1070
    41
1040
3.0
1070
    42
1040
3.0
1070
    43
1040
7.0
1070
    44
1040
1.5
1070
    73
1070
     0
1070
    74
1070
     0
1070
    77
1070
     3
1070
   140
1040
3.0
1070
   141
1040
3.0
1070
   147
1040
1.0
1070
   172
1070
     1
1070
   173
1070
     1
1070
   176
1070
   256
1070
   177
1070
   256
1070
   178
1070
   256
1070
   271
1070
     0
1070
   272
1070
     0
1070
   341
1005
B2
1070
     6
1000
OPEN
1070
     7
1000
OPEN
1002
}
  0
LINE
  5
1144
330
1A
100
AcDbEntity
  8
SEIHIN
  6
DASHED
 62
     2
100
AcDbLine
 10
230.3207949015286
 20
114.2826092574103
 30
0.0
 11
230.3207949015286
 21
78.28260925741029
 31
0.0
  0
LINE
  5
1145
330
1A
100
AcDbEntity
  8
SEIHIN
  6
DASHED
 62
     2
100
AcDbLine
 10
224.8207949215286
 20
78.28260925741029
 30
0.0
 11
224.8207949215286
 21
114.2826092574103
 31
0.0
  0
LINE
  5
1146
330
1A
100
AcDbEntity
  8
SEIHIN
  6
DASHED
 62
     2
100
AcDbLine
 10
231.5207949015286
 20
114.2826092574103
 30
0.0
 11
231.5207949015286
 21
78.28260925741029
 31
0.0
  0
LINE
  5
1147
330
1A
100
AcDbEntity
  8
SEIHIN
  6
DASHED
 62
     2
100
AcDbLine
 10
231.5207949015286
 20
78.28260925741029
 30
0.0
 11
224.8207949215286
 21
78.28260925741029
 31
0.0
  0
LINE
  5
1148
330
1A
100
AcDbEntity
  8
CENTER L
100
AcDbLine
 10
234.8605784015286
 20
84.28260925741029
 30
0.0
 11
219.6605784015286
 21
84.28260925741029
 31
0.0
  0
LINE
  5
1149
330
1A
100
AcDbEntity
  8
CENTER L
100
AcDbLine
 10
234.8605784015286
 20
100.7826092574103
 30
0.0
 11
219.6605784015286
 21
100.7826092574103
 31
0.0
  0
LINE
  5
114A
330
1A
100
AcDbEntity
  8
SEIHIN
  6
DASHED
 62
     2
100
AcDbLine
 10
224.8207949215286
 20
114.2826092574103
 30
0.0
 11
231.5207949015286
 21
114.2826092574103
 31
0.0
  0
LINE
  5
114B
330
1A
100
AcDbEntity
  8
CENTER L
100
AcDbLine
 10
234.8605784015286
 20
109.2826092574103
 30
0.0
 11
219.6605784015286
 21
109.2826092574103
 31
0.0
  0
LINE
  5
114C
330
1A
100
AcDbEntity
  8
SEIHIN
  6
DASHED
 62
     2
100
AcDbLine
 10
226.0207949015286
 20
120.2826087574103
 30
0.0
 11
226.0207949015286
 21
114.2826092574103
 31
0.0
  0
ARC
  5
114D
330
1A
100
AcDbEntity
  8
SEIHIN
  6
DASHED
 62
     2
100
AcDbCircle
 10
222.0207949215286
 20
120.2826092574103
 30
0.0
 40
3.999999988352069
100
AcDbArc
 50
359.9999928380284
 51
170.7918456747325
  0
LINE
  5
114E
330
1A
100
AcDbEntity
  8
SEIHIN
  6
DASHED
 62
     2
100
AcDbLine
 10
231.0207949015286
 20
124.6415082565208
 30
0.0
 11
231.0207949015286
 21
114.2826092574103
 31
0.0
  0
LINE
  5
114F
330
1A
100
AcDbEntity
  8
CENTER L
100
AcDbLine
 10
342.4467357815286
 20
77.6826092856829
 30
0.0
 11
342.4467357815286
 21
89.88260922913767
 31
0.0
  0
LINE
  5
1150
330
1A
100
AcDbEntity
  8
CENTER L
100
AcDbLine
 10
300.4467357815286
 20
77.6826092856829
 30
0.0
 11
300.4467357815286
 21
89.88260922913767
 31
0.0
  0
LINE
  5
1151
330
1A
100
AcDbEntity
  8
SEIHIN
100
AcDbLine
 10
328.9467357815286
 20
84.78260925741029
 30
0.0
 11
328.9467357815286
 21
78.28260925741029
 31
0.0
  0
LINE
  5
1152
330
1A
100
AcDbEntity
  8
SEIHIN
100
AcDbLine
 10
329.8178501815286
 20
84.78260925741029
 30
0.0
 11
329.8178501815286
 21
78.28260925741029
 31
0.0
  0
LINE
  5
1153
330
1A
100
AcDbEntity
  8
SEIHIN
100
AcDbLine
 10
313.0756213815286
 20
84.78260925741029
 30
0.0
 11
313.0756213815286
 21
78.28260925741029
 31
0.0
  0
LINE
  5
1154
330
1A
100
AcDbEntity
  8
SEIHIN
100
AcDbLine
 10
313.9467357815286
 20
84.78260925741029
 30
0.0
 11
313.9467357815286
 21
78.28260925741029
 31
0.0
  0
ARC
  5
1155
330
1A
100
AcDbEntity
  8
SEIHIN
100
AcDbCircle
 10
296.9467357815286
 20
80.28260925741029
 30
0.0
 40
2.0
100
AcDbArc
 50
180.0
 51
270.0
  0
LINE
  5
1156
330
1A
100
AcDbEntity
  8
SEIHIN
100
AcDbLine
 10
313.9467357815286
 20
107.7826092574103
 30
0.0
 11
310.4684976815286
 21
107.7826092574103
 31
0.0
  0
LINE
  5
1157
330
1A
100
AcDbEntity
  8
SEIHIN
100
AcDbLine
 10
313.9467357815286
 20
104.7826092574103
 30
0.0
 11
310.4684976815286
 21
104.7826092574103
 31
0.0
  0
LINE
  5
1158
330
1A
100
AcDbEntity
  8
SEIHIN
100
AcDbLine
 10
313.9467357815286
 20
114.2826092574103
 30
0.0
 11
296.9467357815286
 21
114.2826092574103
 31
0.0
  0
LINE
  5
1159
330
1A
100
AcDbEntity
  8
SEIHIN
100
AcDbLine
 10
310.4684976815286
 20
87.78260925741029
 30
0.0
 11
313.9467357815286
 21
87.78260925741029
 31
0.0
  0
LINE
  5
115A
330
1A
100
AcDbEntity
  8
SEIHIN
100
AcDbLine
 10
310.4684976815286
 20
84.78260925741029
 30
0.0
 11
314.9467357815286
 21
84.78260925741029
 31
0.0
  0
LINE
  5
115B
330
1A
100
AcDbEntity
  8
CENTER L
100
AcDbLine
 10
300.4467357815286
 20
102.6826092856829
 30
0.0
 11
300.4467357815286
 21
114.8826092291377
 31
0.0
  0
LINE
  5
115C
330
1A
100
AcDbEntity
  8
CENTER L
100
AcDbLine
 10
301.9467357815286
 20
93.03260928478422
 30
0.0
 11
301.9467357815286
 21
107.5326092300364
 31
0.0
  0
CIRCLE
  5
115D
330
1A
100
AcDbEntity
  8
SEIHIN
100
AcDbCircle
 10
301.9467357815286
 20
100.2826092574103
 30
0.0
 40
3.249999972626076
  0
LINE
  5
115E
330
1A
100
AcDbEntity
  8
SEIHIN
100
AcDbLine
 10
294.9467357815286
 20
112.2826092574103
 30
0.0
 11
294.9467357815286
 21
80.28260925741029
 31
0.0
  0
LINE
  5
115F
330
1A
100
AcDbEntity
  8
CENTER L
100
AcDbLine
 10
306.546735753256
 20
83.78260925741029
 30
0.0
 11
294.3467358098012
 21
83.78260925741029
 31
0.0
  0
CIRCLE
  5
1160
330
1A
100
AcDbEntity
  8
SEIHIN
100
AcDbCircle
 10
300.4467357815286
 20
83.78260925741029
 30
0.0
 40
2.099999986565482
  0
LINE
  5
1161
330
1A
100
AcDbEntity
  8
SEIHIN
100
AcDbLine
 10
310.4684976815286
 20
87.78260925741029
 30
0.0
 11
310.4684976815286
 21
84.78260925741029
 31
0.0
  0
LINE
  5
1162
330
1A
100
AcDbEntity
  8
CENTER L
100
AcDbLine
 10
309.1967357541546
 20
100.2826092574103
 30
0.0
 11
294.6967358089025
 21
100.2826092574103
 31
0.0
  0
LINE
  5
1163
330
1A
100
AcDbEntity
  8
CENTER L
100
AcDbLine
 10
306.546735753256
 20
108.7826092574103
 30
0.0
 11
294.3467358098012
 21
108.7826092574103
 31
0.0
  0
ARC
  5
1164
330
1A
100
AcDbEntity
  8
SEIHIN
100
AcDbCircle
 10
296.9467357815286
 20
112.2826092574103
 30
0.0
 40
2.0
100
AcDbArc
 50
90.0
 51
180.0
  0
CIRCLE
  5
1165
330
1A
100
AcDbEntity
  8
SEIHIN
100
AcDbCircle
 10
300.4467357815286
 20
108.7826092574103
 30
0.0
 40
2.099999971727393
  0
INSERT
  5
1166
330
1A
100
AcDbEntity
  8
SUNPOU
100
AcDbBlockReference
  2
_OPEN
 10
298.7609329279735
 20
110.1558147288283
 30
0.0
 41
2.999999999999997
 42
3.0
 43
3.0
 50
297.15919302573
1001
ACAD
1000
DSTYLE
1002
{
1070
    41
1040
3.0
1070
    42
1040
3.0
1070
    43
1040
7.0
1070
    44
1040
1.5
1070
    73
1070
     0
1070
    74
1070
     0
1070
    77
1070
     0
1070
   140
1040
3.0
1070
   141
1040
3.0
1070
   147
1040
1.0
1070
   172
1070
     1
1070
   173
1070
     1
1070
   176
1070
   256
1070
   177
1070
   256
1070
   178
1070
   256
1070
   271
1070
     0
1070
   272
1070
     0
1070
   341
1005
B2
1070
   343
1005
B2
1070
   344
1005
B2
1002
}
  0
LINE
  5
1167
330
1A
100
AcDbEntity
  8
SEIHIN
100
AcDbLine
 10
310.4684976815286
 20
107.7826092574103
 30
0.0
 11
310.4684976815286
 21
104.7826092574103
 31
0.0
  0
LINE
  5
1168
330
1A
100
AcDbEntity
  8
CENTER L
100
AcDbLine
 10
340.9467357815286
 20
93.03260928478422
 30
0.0
 11
340.9467357815286
 21
107.5326092300364
 31
0.0
  0
LINE
  5
1169
330
1A
100
AcDbEntity
  8
CENTER L
100
AcDbLine
 10
342.4467357815286
 20
102.6826092856829
 30
0.0
 11
342.4467357815286
 21
114.8826092291377
 31
0.0
  0
LINE
  5
116A
330
1A
100
AcDbEntity
  8
SEIHIN
100
AcDbLine
 10
329.8178501815286
 20
104.7826092574103
 30
0.0
 11
329.8178501815286
 21
87.78260925741029
 31
0.0
  0
LINE
  5
116B
330
1A
100
AcDbEntity
  8
SEIHIN
100
AcDbLine
 10
328.9467357815286
 20
104.7826092574103
 30
0.0
 11
328.9467357815286
 21
87.78260925741029
 31
0.0
  0
LINE
  5
116C
330
1A
100
AcDbEntity
  8
SEIHIN
100
AcDbLine
 10
313.0756213815286
 20
104.7826092574103
 30
0.0
 11
313.0756213815286
 21
87.78260925741029
 31
0.0
  0
LINE
  5
116D
330
1A
100
AcDbEntity
  8
SEIHIN
100
AcDbLine
 10
313.9467357815286
 20
104.7826092574103
 30
0.0
 11
313.9467357815286
 21
87.78260925741029
 31
0.0
  0
LINE
  5
116E
330
1A
100
AcDbEntity
  8
SEIHIN
100
AcDbLine
 10
318.4467357815286
 20
125.2683893674103
 30
0.0
 11
318.4467357815286
 21
100.3136870384103
 31
0.0
  0
LINE
  5
116F
330
1A
100
AcDbEntity
  8
SEIHIN
100
AcDbLine
 10
324.4467357815286
 20
125.2683894074103
 30
0.0
 11
324.4467357815286
 21
100.3136870384103
 31
0.0
  0
ARC
  5
1170
330
1A
100
AcDbEntity
  8
SEIHIN
100
AcDbCircle
 10
325.9467357815286
 20
83.1959110774103
 30
0.0
 40
2.0
100
AcDbArc
 50
270.0
 51
0.0
  0
LINE
  5
1171
330
1A
100
AcDbEntity
  8
SEIHIN
100
AcDbLine
 10
325.9467357815286
 20
81.1959110774103
 30
0.0
 11
316.9467357815286
 21
81.1959110774103
 31
0.0
  0
LINE
  5
1172
330
1A
100
AcDbEntity
  8
SEIHIN
100
AcDbLine
 10
313.9467357815286
 20
87.78260925741029
 30
0.0
 11
313.9467357815286
 21
84.78260925741029
 31
0.0
  0
ARC
  5
1173
330
1A
100
AcDbEntity
  8
SEIHIN
100
AcDbCircle
 10
316.9467357815286
 20
83.1959110774103
 30
0.0
 40
2.0
100
AcDbArc
 50
180.0
 51
270.0
  0
CIRCLE
  5
1174
330
1A
100
AcDbEntity
  8
SEIHIN
100
AcDbCircle
 10
321.4467357815286
 20
96.28260925741029
 30
0.0
 40
2.999999969510066
  0
ARC
  5
1175
330
1A
100
AcDbEntity
  8
SEIHIN
100
AcDbCircle
 10
321.4467357815286
 20
96.28260925741029
 30
0.0
 40
5.024896822470277
100
AcDbArc
 50
126.6572807698119
 51
53.34271923018806
  0
LINE
  5
1176
330
1A
100
AcDbEntity
  8
SEIHIN
100
AcDbLine
 10
332.4249738815286
 20
87.78260925741029
 30
0.0
 11
332.4249738815286
 21
84.78260925741029
 31
0.0
  0
LINE
  5
1177
330
1A
100
AcDbEntity
  8
SEIHIN
100
AcDbLine
 10
328.9467357815286
 20
87.78260925741029
 30
0.0
 11
328.9467357815286
 21
84.78260925741029
 31
0.0
  0
LINE
  5
1178
330
1A
100
AcDbEntity
  8
SEIHIN
100
AcDbLine
 10
332.4249738815286
 20
84.78260925741029
 30
0.0
 11
327.9467357815286
 21
84.78260925741029
 31
0.0
  0
LINE
  5
1179
330
1A
100
AcDbEntity
  8
SEIHIN
100
AcDbLine
 10
332.4249738815286
 20
87.78260925741029
 30
0.0
 11
328.9467357815286
 21
87.78260925741029
 31
0.0
  0
LINE
  5
117A
330
1A
100
AcDbEntity
  8
SEIHIN
100
AcDbLine
 10
324.4467357815286
 20
125.2683890474103
 30
0.0
 11
327.9467357815286
 21
125.2683890474103
 31
0.0
  0
LINE
  5
117B
330
1A
100
AcDbEntity
  8
SEIHIN
100
AcDbLine
 10
313.0756213815286
 20
114.2826092574103
 30
0.0
 11
313.0756213815286
 21
107.7826092574103
 31
0.0
  0
LINE
  5
117C
330
1A
100
AcDbEntity
  8
SEIHIN
100
AcDbLine
 10
313.9467357815286
 20
114.2826092574103
 30
0.0
 11
313.9467357815286
 21
107.7826092574103
 31
0.0
  0
LINE
  5
117D
330
1A
100
AcDbEntity
  8
SEIHIN
100
AcDbLine
 10
313.9467357815286
 20
107.7826092574103
 30
0.0
 11
313.9467357815286
 21
104.7826092574103
 31
0.0
  0
LINE
  5
117E
330
1A
100
AcDbEntity
  8
SEIHIN
100
AcDbLine
 10
314.9467357815286
 20
124.6424398708859
 30
0.0
 11
313.9467357815286
 21
124.6424398708859
 31
0.0
  0
LINE
  5
117F
330
1A
100
AcDbEntity
  8
SEIHIN
100
AcDbLine
 10
314.9467357815286
 20
125.2683890474103
 30
0.0
 11
318.4467357815286
 21
125.2683890474103
 31
0.0
  0
LINE
  5
1180
330
1A
100
AcDbEntity
  8
SEIHIN
100
AcDbLine
 10
329.8178501815286
 20
114.2826092574103
 30
0.0
 11
329.8178501815286
 21
107.7826092574103
 31
0.0
  0
LINE
  5
1181
330
1A
100
AcDbEntity
  8
SEIHIN
100
AcDbLine
 10
328.9467357815286
 20
114.2826092574103
 30
0.0
 11
328.9467357815286
 21
107.7826092574103
 31
0.0
  0
LINE
  5
1182
330
1A
100
AcDbEntity
  8
SEIHIN
100
AcDbLine
 10
328.9467357815286
 20
107.7826092574103
 30
0.0
 11
332.4249738815286
 21
107.7826092574103
 31
0.0
  0
LINE
  5
1183
330
1A
100
AcDbEntity
  8
SEIHIN
100
AcDbLine
 10
328.9467357815286
 20
104.7826092574103
 30
0.0
 11
332.4249738815286
 21
104.7826092574103
 31
0.0
  0
LINE
  5
1184
330
1A
100
AcDbEntity
  8
SEIHIN
100
AcDbLine
 10
328.9467357815286
 20
107.7826092574103
 30
0.0
 11
328.9467357815286
 21
104.7826092574103
 31
0.0
  0
LINE
  5
1185
330
1A
100
AcDbEntity
  8
SEIHIN
100
AcDbLine
 10
332.4249738815286
 20
107.7826092574103
 30
0.0
 11
332.4249738815286
 21
104.7826092574103
 31
0.0
  0
LINE
  5
1186
330
1A
100
AcDbEntity
  8
SEIHIN
100
AcDbLine
 10
328.9467357815286
 20
124.6424398708859
 30
0.0
 11
327.9467357815286
 21
124.6424398708859
 31
0.0
  0
ARC
  5
1187
330
1A
100
AcDbEntity
  8
SEIHIN
100
AcDbCircle
 10
345.9467357815286
 20
80.28260925741029
 30
0.0
 40
2.0
100
AcDbArc
 50
270.0
 51
0.0
  0
INSERT
  5
1188
330
1A
100
AcDbEntity
  8
SUNPOU
100
AcDbBlockReference
  2
_OPEN
 10
343.7073153687061
 20
102.0869583537723
 30
0.0
 41
3.000000000000005
 42
3.0
 43
3.0
 50
244.7339377342674
1001
ACAD
1000
DSTYLE
1002
{
1070
    41
1040
3.0
1070
    42
1040
3.0
1070
    43
1040
7.0
1070
    44
1040
1.5
1070
    73
1070
     0
1070
    74
1070
     0
1070
    77
1070
     0
1070
   140
1040
3.0
1070
   141
1040
3.0
1070
   147
1040
1.0
1070
   172
1070
     1
1070
   173
1070
     1
1070
   176
1070
   256
1070
   177
1070
   256
1070
   178
1070
   256
1070
   271
1070
     0
1070
   272
1070
     0
1070
   341
1005
B2
1070
   343
1005
B2
1070
   344
1005
B2
1002
}
  0
DIMENSION
  5
1189
330
1A
100
AcDbEntity
  8
SUNPOU
100
AcDbDimension
  2
*D15
 10
364.0217421622083
 20
100.2826092574103
 30
0.0
 11
361.5217421622083
 21
107.2826092574103
 31
0.0
 70
    32
 71
     5
 42
14.0
  3
STANDARD
100
AcDbAlignedDimension
 13
345.9467357815286
 23
114.2826092574103
 33
0.0
 14
347.9467357815286
 24
100.2826092574103
 34
0.0
 50
90.0
100
AcDbRotatedDimension
1001
ACAD
1000
DSTYLE
1002
{
1070
    41
1040
3.0
1070
    42
1040
3.0
1070
    43
1040
7.0
1070
    44
1040
1.5
1070
    73
1070
     0
1070
    74
1070
     0
1070
    77
1070
     3
1070
   140
1040
3.0
1070
   141
1040
3.0
1070
   147
1040
1.0
1070
   172
1070
     1
1070
   173
1070
     1
1070
   176
1070
   256
1070
   177
1070
   256
1070
   178
1070
   256
1070
   271
1070
     0
1070
   272
1070
     0
1070
   341
1005
B2
1070
     6
1000
OPEN
1070
     7
1000
OPEN
1002
}
  0
LINE
  5
118A
330
1A
100
AcDbEntity
  8
SEIHIN
100
AcDbLine
 10
347.9467357815286
 20
112.2826092574103
 30
0.0
 11
347.9467357815286
 21
80.28260925741029
 31
0.0
  0
LWPOLYLINE
  5
118B
330
1A
100
AcDbEntity
  8
SUNPOU
100
AcDbPolyline
 90
        3
 70
     0
 43
0.0
 10
344.9877822014134
 20
104.7999649314157
 10
354.2735419354865
 20
124.4742951002744
 10
369.4173175814788
 20
124.4742951002744
1001
ACAD
1000
DSTYLE
1002
{
1070
    41
1040
3.0
1070
    42
1040
3.0
1070
    43
1040
7.0
1070
    44
1040
1.5
1070
    73
1070
     0
1070
    74
1070
     0
1070
    77
1070
     0
1070
   140
1040
3.0
1070
   141
1040
3.0
1070
   147
1040
1.0
1070
   172
1070
     1
1070
   173
1070
     1
1070
   176
1070
   256
1070
   177
1070
   256
1070
   178
1070
   256
1070
   271
1070
     0
1070
   272
1070
     0
1070
   341
1005
B2
1070
   343
1005
B2
1070
   344
1005
B2
1002
}
  0
ARC
  5
118C
330
1A
100
AcDbEntity
  8
SEIHIN
100
AcDbCircle
 10
345.9467357815286
 20
112.2826092574103
 30
0.0
 40
2.0
100
AcDbArc
 50
0.0
 51
90.0
  0
TEXT
  5
118D
330
1A
100
AcDbEntity
  8
SUNPOU
100
AcDbText
 10
266.9895996053152
 20
140.1764095801409
 30
0.0
 40
3.0
  1
4-φ4.2
100
AcDbText
  0
TEXT
  5
118E
330
1A
100
AcDbEntity
  8
SUNPOU
100
AcDbText
 10
214.9886094704391
 20
161.930032065221
 30
0.0
 40
3.0
  1
（スライド幅）
100
AcDbText
  0
LINE
  5
118F
330
1A
100
AcDbEntity
  8
SEIHIN
100
AcDbLine
 10
313.9467357815286
 20
130.2826092574103
 30
0.0
 11
314.9467357815286
 21
130.2826092574103
 31
0.0
  0
LINE
  5
1190
330
1A
100
AcDbEntity
  8
SEIHIN
100
AcDbLine
 10
327.9467357815286
 20
130.2826092574103
 30
0.0
 11
328.9467357815286
 21
130.2826092574103
 31
0.0
  0
TEXT
  5
1191
330
1A
100
AcDbEntity
  8
SUNPOU
100
AcDbText
 10
354.4475177562895
 20
126.2756536052572
 30
0.0
 40
3.0
  1
2-φ6.5
100
AcDbText
  0
VIEWPORT
  5
22
330
17
100
AcDbEntity
 67
     1
  8
0
100
AcDbViewport
 10
313.6808219178083
 20
148.5
 30
0.0
 40
627.3616438356165
 41
297.0
 68
     2
 69
     1
 12
313.6808219178083
 22
148.5
 13
0.0
 23
0.0
 14
1.0
 24
1.0
 15
10.0
 25
10.0
 16
0.0
 26
0.0
 36
1.0
 17
0.0
 27
0.0
 37
0.0
 42
50.0
 43
0.0
 44
0.0
 45
297.0
 50
0.0
 51
0.0
 72
   100
 90
    32768
  1

281
     0
 71
     1
 74
     0
110
0.0
120
0.0
130
0.0
111
1.0
121
0.0
131
0.0
112
0.0
122
1.0
132
0.0
 79
     0
146
0.0
  0
VIEWPORT
  5
64
330
17
100
AcDbEntity
 67
     1
  8
VIEWPORT
100
AcDbViewport
 10
210.0
 20
148.5
 30
0.0
 40
420.0
 41
297.0
 68
     1
 69
     2
 12
210.0
 22
148.5
 13
0.0
 23
0.0
 14
5.0
 24
5.0
 15
0.0
 25
0.0
 16
0.0
 26
0.0
 36
1.0
 17
0.0
 27
0.0
 37
0.0
 42
50.0
 43
0.0
 44
0.0
 45
302.9399999999999
 50
0.0
 51
0.0
 72
   100
 90
    32768
  1

281
     0
 71
     1
 74
     0
110
0.0
120
0.0
130
0.0
111
1.0
121
0.0
131
0.0
112
0.0
122
1.0
132
0.0
 79
     0
146
0.0
  0
ENDSEC
  0
SECTION
  2
OBJECTS
  0
DICTIONARY
  5
C
330
0
100
AcDbDictionary
281
     1
  3
ACAD_GROUP
350
D
  3
ACAD_LAYOUT
350
624
  3
ACAD_MLINESTYLE
350
E
  3
ACAD_PLOTSETTINGS
350
625
  3
ACAD_PLOTSTYLENAME
350
622
  0
DICTIONARY
  5
D
102
{ACAD_REACTORS
330
C
102
}
330
C
100
AcDbDictionary
281
     1
  0
DICTIONARY
  5
624
102
{ACAD_REACTORS
330
C
102
}
330
C
100
AcDbDictionary
281
     1
  3
Model
350
626
  3
ﾚｲｱｳﾄ1
350
627
  0
DICTIONARY
  5
E
102
{ACAD_REACTORS
330
C
102
}
330
C
100
AcDbDictionary
281
     1
  3
STANDARD
350
13
  0
DICTIONARY
  5
625
102
{ACAD_REACTORS
330
C
102
}
330
C
100
AcDbDictionary
281
     1
  0
ACDBDICTIONARYWDFLT
  5
622
102
{ACAD_REACTORS
330
C
102
}
330
C
100
AcDbDictionary
281
     1
  3
Normal
350
623
100
AcDbDictionaryWithDefault
340
623
1001
ACAD
1000
TREAT_AS_HARD
1070
     0
1000
TREAT_AS_HARD
1070
     0
1000
TREAT_AS_HARD
1070
     0
1000
TREAT_AS_HARD
1070
     0
  0
LAYOUT
  5
626
102
{ACAD_REACTORS
330
624
102
}
330
624
100
AcDbPlotSettings
  1

  2
Acrobat PDFWriter
  4
A3
  6

 40
7.143749713897705
 41
7.14375638961792
 42
7.143768310546875
 43
7.14373779296875
 44
297.1270751953125
 45
420.1583251953125
 46
0.0
 47
0.0
 48
0.0
 49
0.0
140
0.0
141
0.0
142
1.0
143
1.0
 70
 11952
 72
     1
 73
     1
 74
     0
  7
print.ctb
 75
    16
147
1.0
148
52.88505331185908
149
1.640883977900558
100
AcDbLayout
  1
Model
 70
     1
 71
     0
 10
0.0
 20
0.0
 11
12.0
 21
9.0
 12
0.0
 22
0.0
 32
0.0
 14
0.0
 24
0.0
 34
0.0
 15
0.0
 25
0.0
 35
0.0
146
0.0
 13
0.0
 23
0.0
 33
0.0
 16
1.0
 26
0.0
 36
0.0
 17
0.0
 27
1.0
 37
0.0
 76
     0
330
1A
  0
LAYOUT
  5
627
102
{ACAD_REACTORS
330
624
102
}
330
624
100
AcDbPlotSettings
  1

  2
EPSON PM-2000C
  4

  6

 40
0.0
 41
0.0
 42
0.0
 43
0.0
 44
0.0
 45
0.0
 46
0.0
 47
0.0
 48
0.0
 49
0.0
140
0.0
141
0.0
142
1.0
143
1.0
 70
   688
 72
     0
 73
     0
 74
     5
  7
print.ctb
 75
    16
147
1.0
148
0.0
149
0.0
100
AcDbLayout
  1
ﾚｲｱｳﾄ1
 70
     1
 71
     1
 10
0.0
 20
0.0
 11
420.0
 21
297.0
 12
0.0
 22
0.0
 32
0.0
 14
0.0
 24
0.0
 34
0.0
 15
420.0
 25
297.0
 35
0.0
146
0.0
 13
0.0
 23
0.0
 33
0.0
 16
1.0
 26
0.0
 36
0.0
 17
0.0
 27
1.0
 37
0.0
 76
     0
330
17
331
64
  0
MLINESTYLE
  5
13
102
{ACAD_REACTORS
330
E
102
}
330
E
100
AcDbMlineStyle
  2
STANDARD
 70
     0
  3

 62
     0
 51
90.0
 52
90.0
 71
     2
 49
0.5
 62
   256
  6
BYLAYER
 49
-0.5
 62
   256
  6
BYLAYER
  0
ACDBPLACEHOLDER
  5
623
102
{ACAD_REACTORS
330
622
102
}
330
622
  0
ENDSEC
  0
EOF
