  0
SECTION
  2
HEADER
  9
$ACADVER
  1
AC1015
  9
$ACADMAINTVER
 70
     6
  9
$DWGCODEPAGE
  3
ANSI_932
  9
$INSBASE
 10
0.0
 20
0.0
 30
0.0
  9
$EXTMIN
 10
-0.0000004828989404
 20
-0.0000000386436341
 30
0.0
  9
$EXTMAX
 10
398.7999995171011
 20
275.7999999613564
 30
0.0
  9
$LIMMIN
 10
0.0
 20
0.0
  9
$LIMMAX
 10
420.0
 20
297.0
  9
$ORTHOMODE
 70
     1
  9
$REGENMODE
 70
     1
  9
$FILLMODE
 70
     1
  9
$QTEXTMODE
 70
     0
  9
$MIRRTEXT
 70
     1
  9
$LTSCALE
 40
1.0
  9
$ATTMODE
 70
     1
  9
$TEXTSIZE
 40
2.5
  9
$TRACEWID
 40
1.0
  9
$TEXTSTYLE
  7
STANDARD
  9
$CLAYER
  8
SUNPOU
  9
$CELTYPE
  6
BYLAYER
  9
$CECOLOR
 62
   256
  9
$CELTSCALE
 40
1.0
  9
$DISPSILH
 70
     0
  9
$DIMSCALE
 40
1.0
  9
$DIMASZ
 40
3.0
  9
$DIMEXO
 40
3.0
  9
$DIMDLI
 40
7.0
  9
$DIMRND
 40
0.0
  9
$DIMDLE
 40
0.0
  9
$DIMEXE
 40
1.5
  9
$DIMTP
 40
0.0
  9
$DIMTM
 40
0.0
  9
$DIMTXT
 40
3.0
  9
$DIMCEN
 40
150.0
  9
$DIMTSZ
 40
0.0
  9
$DIMTOL
 70
     0
  9
$DIMLIM
 70
     0
  9
$DIMTIH
 70
     0
  9
$DIMTOH
 70
     0
  9
$DIMSE1
 70
     0
  9
$DIMSE2
 70
     0
  9
$DIMTAD
 70
     3
  9
$DIMZIN
 70
     0
  9
$DIMBLK
  1

  9
$DIMASO
 70
     1
  9
$DIMSHO
 70
     1
  9
$DIMPOST
  1

  9
$DIMAPOST
  1

  9
$DIMALT
 70
     0
  9
$DIMALTD
 70
     2
  9
$DIMALTF
 40
25.4
  9
$DIMLFAC
 40
1.0
  9
$DIMTOFL
 70
     1
  9
$DIMTVP
 40
0.0
  9
$DIMTIX
 70
     0
  9
$DIMSOXD
 70
     0
  9
$DIMSAH
 70
     1
  9
$DIMBLK1
  1
OPEN
  9
$DIMBLK2
  1
OPEN
  9
$DIMSTYLE
  2
STANDARD
  9
$DIMCLRD
 70
   256
  9
$DIMCLRE
 70
   256
  9
$DIMCLRT
 70
   256
  9
$DIMTFAC
 40
1.0
  9
$DIMGAP
 40
1.0
  9
$DIMJUST
 70
     0
  9
$DIMSD1
 70
     0
  9
$DIMSD2
 70
     0
  9
$DIMTOLJ
 70
     1
  9
$DIMTZIN
 70
     0
  9
$DIMALTZ
 70
     0
  9
$DIMALTTZ
 70
     0
  9
$DIMUPT
 70
     1
  9
$DIMDEC
 70
     0
  9
$DIMTDEC
 70
     0
  9
$DIMALTU
 70
     2
  9
$DIMALTTD
 70
     2
  9
$DIMTXSTY
  7
STANDARD
  9
$DIMAUNIT
 70
     0
  9
$DIMADEC
 70
     0
  9
$DIMALTRND
 40
0.0
  9
$DIMAZIN
 70
     0
  9
$DIMDSEP
 70
    46
  9
$DIMATFIT
 70
     3
  9
$DIMFRAC
 70
     0
  9
$DIMLDRBLK
  1
OPEN
  9
$DIMLUNIT
 70
     2
  9
$DIMLWD
 70
    -1
  9
$DIMLWE
 70
    -1
  9
$DIMTMOVE
 70
     0
  9
$LUNITS
 70
     2
  9
$LUPREC
 70
     4
  9
$SKETCHINC
 40
1.0
  9
$FILLETRAD
 40
0.6
  9
$AUNITS
 70
     0
  9
$AUPREC
 70
     0
  9
$MENU
  1
.
  9
$ELEVATION
 40
0.0
  9
$PELEVATION
 40
0.0
  9
$THICKNESS
 40
0.0
  9
$LIMCHECK
 70
     0
  9
$CHAMFERA
 40
10.0
  9
$CHAMFERB
 40
10.0
  9
$CHAMFERC
 40
20.0
  9
$CHAMFERD
 40
0.0
  9
$SKPOLY
 70
     0
  9
$TDCREATE
 40
2451100.394552546
  9
$TDUCREATE
 40
2451100.019552546
  9
$TDUPDATE
 40
2455609.403158438
  9
$TDUUPDATE
 40
2455609.028158438
  9
$TDINDWG
 40
0.1044253125
  9
$TDUSRTIMER
 40
0.1044253125
  9
$USRTIMER
 70
     1
  9
$ANGBASE
 50
0.0
  9
$ANGDIR
 70
     0
  9
$PDMODE
 70
     0
  9
$PDSIZE
 40
0.0
  9
$PLINEWID
 40
0.0
  9
$SPLFRAME
 70
     0
  9
$SPLINETYPE
 70
     6
  9
$SPLINESEGS
 70
     8
  9
$HANDSEED
  5
27A0
  9
$SURFTAB1
 70
     6
  9
$SURFTAB2
 70
     6
  9
$SURFTYPE
 70
     6
  9
$SURFU
 70
     6
  9
$SURFV
 70
     6
  9
$UCSBASE
  2

  9
$UCSNAME
  2

  9
$UCSORG
 10
0.0
 20
0.0
 30
0.0
  9
$UCSXDIR
 10
1.0
 20
0.0
 30
0.0
  9
$UCSYDIR
 10
0.0
 20
1.0
 30
0.0
  9
$UCSORTHOREF
  2

  9
$UCSORTHOVIEW
 70
     0
  9
$UCSORGTOP
 10
0.0
 20
0.0
 30
0.0
  9
$UCSORGBOTTOM
 10
0.0
 20
0.0
 30
0.0
  9
$UCSORGLEFT
 10
0.0
 20
0.0
 30
0.0
  9
$UCSORGRIGHT
 10
0.0
 20
0.0
 30
0.0
  9
$UCSORGFRONT
 10
0.0
 20
0.0
 30
0.0
  9
$UCSORGBACK
 10
0.0
 20
0.0
 30
0.0
  9
$PUCSBASE
  2

  9
$PUCSNAME
  2

  9
$PUCSORG
 10
0.0
 20
0.0
 30
0.0
  9
$PUCSXDIR
 10
1.0
 20
0.0
 30
0.0
  9
$PUCSYDIR
 10
0.0
 20
1.0
 30
0.0
  9
$PUCSORTHOREF
  2

  9
$PUCSORTHOVIEW
 70
     0
  9
$PUCSORGTOP
 10
0.0
 20
0.0
 30
0.0
  9
$PUCSORGBOTTOM
 10
0.0
 20
0.0
 30
0.0
  9
$PUCSORGLEFT
 10
0.0
 20
0.0
 30
0.0
  9
$PUCSORGRIGHT
 10
0.0
 20
0.0
 30
0.0
  9
$PUCSORGFRONT
 10
0.0
 20
0.0
 30
0.0
  9
$PUCSORGBACK
 10
0.0
 20
0.0
 30
0.0
  9
$USERI1
 70
     0
  9
$USERI2
 70
     0
  9
$USERI3
 70
     0
  9
$USERI4
 70
     0
  9
$USERI5
 70
     0
  9
$USERR1
 40
0.0
  9
$USERR2
 40
0.0
  9
$USERR3
 40
0.0
  9
$USERR4
 40
0.0
  9
$USERR5
 40
0.0
  9
$WORLDVIEW
 70
     1
  9
$SHADEDGE
 70
     3
  9
$SHADEDIF
 70
    70
  9
$TILEMODE
 70
     1
  9
$MAXACTVP
 70
    16
  9
$PINSBASE
 10
0.0
 20
0.0
 30
0.0
  9
$PLIMCHECK
 70
     0
  9
$PEXTMIN
 10
0.0
 20
0.0
 30
0.0
  9
$PEXTMAX
 10
420.0
 20
297.0
 30
0.0
  9
$PLIMMIN
 10
0.0
 20
0.0
  9
$PLIMMAX
 10
420.0
 20
297.0
  9
$UNITMODE
 70
     0
  9
$VISRETAIN
 70
     0
  9
$PLINEGEN
 70
     0
  9
$PSLTSCALE
 70
     1
  9
$TREEDEPTH
 70
  3020
  9
$CMLSTYLE
  2
STANDARD
  9
$CMLJUST
 70
     0
  9
$CMLSCALE
 40
1.0
  9
$PROXYGRAPHICS
 70
     1
  9
$MEASUREMENT
 70
     1
  9
$CELWEIGHT
370
    -1
  9
$ENDCAPS
280
     0
  9
$JOINSTYLE
280
     0
  9
$LWDISPLAY
290
     0
  9
$INSUNITS
 70
     0
  9
$HYPERLINKBASE
  1

  9
$STYLESHEET
  1
print.ctb
  9
$XEDIT
290
     1
  9
$CEPSNTYPE
380
     0
  9
$PSTYLEMODE
290
     1
  9
$FINGERPRINTGUID
  2
{137E7082-72B8-11D5-AA3E-50A453C10000}
  9
$VERSIONGUID
  2
{F66D0B50-673A-4969-A741-9965322EEDDC}
  9
$EXTNAMES
290
     1
  9
$PSVPSCALE
 40
0.0
  9
$OLESTARTUP
290
     0
  0
ENDSEC
  0
SECTION
  2
CLASSES
  0
CLASS
  1
ACDBDICTIONARYWDFLT
  2
AcDbDictionaryWithDefault
  3
ObjectDBX Classes
 90
        0
280
     0
281
     0
  0
CLASS
  1
ACDBPLACEHOLDER
  2
AcDbPlaceHolder
  3
ObjectDBX Classes
 90
        0
280
     0
281
     0
  0
CLASS
  1
LAYOUT
  2
AcDbLayout
  3
ObjectDBX Classes
 90
        0
280
     0
281
     0
  0
CLASS
  1
DUMMY
  2
AcDbLongTransaction
  3
DUMMY
 90
        0
280
     0
281
     0
  0
CLASS
  1
LWPOLYLINE
  2
AcDbPolyline
  3
AutoCAD 2000
 90
        0
280
     0
281
     1
  0
CLASS
  1
HATCH
  2
AcDbHatch
  3
AutoCAD 2000
 90
        0
280
     0
281
     1
  0
CLASS
  1
XRECORD
  2
AcDbXrecord
  3
AutoCAD 2000
 90
        0
280
     0
281
     0
  0
CLASS
  1
DUMMY
  2
AcDbLongTransaction
  3
DUMMY
 90
        0
280
     0
281
     0
  0
CLASS
  1
LWPOLYLINE
  2
AcDbPolyline
  3
AutoCAD 2000
 90
        0
280
     0
281
     1
  0
CLASS
  1
HATCH
  2
AcDbHatch
  3
AutoCAD 2000
 90
        0
280
     0
281
     1
  0
CLASS
  1
XRECORD
  2
AcDbXrecord
  3
AutoCAD 2000
 90
        0
280
     0
281
     0
  0
CLASS
  1
DUMMY
  2
AcDbLongTransaction
  3
DUMMY
 90
        0
280
     0
281
     0
  0
CLASS
  1
LWPOLYLINE
  2
AcDbPolyline
  3
AutoCAD 2000
 90
        0
280
     0
281
     1
  0
CLASS
  1
HATCH
  2
AcDbHatch
  3
AutoCAD 2000
 90
        0
280
     0
281
     1
  0
CLASS
  1
XRECORD
  2
AcDbXrecord
  3
AutoCAD 2000
 90
        0
280
     0
281
     0
  0
CLASS
  1
DUMMY
  2
AcDbLongTransaction
  3
DUMMY
 90
        0
280
     0
281
     0
  0
CLASS
  1
LWPOLYLINE
  2
AcDbPolyline
  3
AutoCAD 2000
 90
        0
280
     0
281
     1
  0
CLASS
  1
HATCH
  2
AcDbHatch
  3
AutoCAD 2000
 90
        0
280
     0
281
     1
  0
CLASS
  1
XRECORD
  2
AcDbXrecord
  3
AutoCAD 2000
 90
        0
280
     0
281
     0
  0
ENDSEC
  0
SECTION
  2
TABLES
  0
TABLE
  2
VPORT
  5
8
330
0
100
AcDbSymbolTable
 70
     2
  0
VPORT
  5
279F
330
8
100
AcDbSymbolTableRecord
100
AcDbViewportTableRecord
  2
*Active
 70
     0
 10
0.0
 20
0.0
 11
1.0
 21
1.0
 12
207.2214526828676
 22
147.1180439497154
 13
0.0
 23
0.0
 14
5.0
 24
5.0
 15
0.0
 25
0.0
 16
0.0
 26
0.0
 36
1.0
 17
0.0
 27
0.0
 37
0.0
 40
318.7904806048649
 41
1.651537335285505
 42
50.0
 43
0.0
 44
0.0
 50
0.0
 51
0.0
 71
     0
 72
   100
 73
     1
 74
     0
 75
     0
 76
     0
 77
     0
 78
     0
281
     0
 65
     1
110
0.0
120
0.0
130
0.0
111
1.0
121
0.0
131
0.0
112
0.0
122
1.0
132
0.0
 79
     0
146
0.0
  0
ENDTAB
  0
TABLE
  2
LTYPE
  5
5
330
0
100
AcDbSymbolTable
 70
     3
  0
LTYPE
  5
14
330
5
100
AcDbSymbolTableRecord
100
AcDbLinetypeTableRecord
  2
BYBLOCK
 70
     0
  3

 72
    65
 73
     0
 40
0.0
  0
LTYPE
  5
15
330
5
100
AcDbSymbolTableRecord
100
AcDbLinetypeTableRecord
  2
BYLAYER
 70
     0
  3

 72
    65
 73
     0
 40
0.0
  0
LTYPE
  5
16
330
5
100
AcDbSymbolTableRecord
100
AcDbLinetypeTableRecord
  2
CONTINUOUS
 70
     0
  3
Solid line
 72
    65
 73
     0
 40
0.0
  0
LTYPE
  5
120
330
5
100
AcDbSymbolTableRecord
100
AcDbLinetypeTableRecord
  2
CENTER
 70
     0
  3
____ _ ____ _ ____ _ ____ _ ____ _ ____ _ ____ 
 72
    65
 73
     4
 40
2.0
 49
1.25
 74
     0
 49
-0.25
 74
     0
 49
0.25
 74
     0
 49
-0.25
 74
     0
  0
LTYPE
  5
E98
330
5
100
AcDbSymbolTableRecord
100
AcDbLinetypeTableRecord
  2
DASHED
 70
     0
  3
__ __ __ __ __ __ __ __ __ __ __ __ __ __ __ __
 72
    65
 73
     2
 40
0.75
 49
0.5
 74
     0
 49
-0.25
 74
     0
  0
ENDTAB
  0
TABLE
  2
LAYER
  5
2
330
0
100
AcDbSymbolTable
 70
     8
  0
LAYER
  5
F
330
2
100
AcDbSymbolTableRecord
100
AcDbLayerTableRecord
  2
0
 70
     0
 62
     7
  6
CONTINUOUS
370
    -3
390
623
  0
LAYER
  5
62
330
2
100
AcDbSymbolTableRecord
100
AcDbLayerTableRecord
  2
VIEWPORT
 70
     0
 62
     7
  6
CONTINUOUS
370
    -3
390
623
  0
LAYER
  5
6B
330
2
100
AcDbSymbolTableRecord
100
AcDbLayerTableRecord
  2
ZUWAKU
 70
     0
 62
     7
  6
CONTINUOUS
370
    -3
390
623
  0
LAYER
  5
1F2
330
2
100
AcDbSymbolTableRecord
100
AcDbLayerTableRecord
  2
SEIHIN
 70
     0
 62
     3
  6
CONTINUOUS
370
    -3
390
623
  0
LAYER
  5
1F3
330
2
100
AcDbSymbolTableRecord
100
AcDbLayerTableRecord
  2
SUNPOU
 70
     0
 62
     4
  6
CONTINUOUS
370
    -3
390
623
  0
LAYER
  5
1F4
330
2
100
AcDbSymbolTableRecord
100
AcDbLayerTableRecord
  2
CENTER L
 70
     0
 62
     1
  6
CENTER
370
    -3
390
623
  0
LAYER
  5
1F5
330
2
100
AcDbSymbolTableRecord
100
AcDbLayerTableRecord
  2
DEFPOINTS
 70
     0
 62
     7
  6
CONTINUOUS
290
     0
370
    -3
390
623
  0
LAYER
  5
A03
330
2
100
AcDbSymbolTableRecord
100
AcDbLayerTableRecord
  2
moji
 70
     0
 62
     2
  6
CONTINUOUS
370
    -3
390
623
  0
ENDTAB
  0
TABLE
  2
STYLE
  5
3
330
0
100
AcDbSymbolTable
 70
     2
  0
STYLE
  5
10
330
3
100
AcDbSymbolTableRecord
100
AcDbTextStyleTableRecord
  2
STANDARD
 70
     0
 40
0.0
 41
1.0
 50
0.0
 71
     0
 42
2.5
  3
TXT
  4
bigfont.shx
  0
STYLE
  5
A04
330
3
100
AcDbSymbolTableRecord
100
AcDbTextStyleTableRecord
  2
ｽﾀｲﾙ1
 70
     0
 40
0.0
 41
1.0
 50
0.0
 71
     0
 42
2.5
  3
MS PGothic.ttf
  4

1001
ACAD
1000
MS PGothic
1071
    32818
  0
ENDTAB
  0
TABLE
  2
VIEW
  5
6
330
0
100
AcDbSymbolTable
 70
     0
  0
ENDTAB
  0
TABLE
  2
UCS
  5
7
330
0
100
AcDbSymbolTable
 70
     0
  0
ENDTAB
  0
TABLE
  2
APPID
  5
9
330
0
100
AcDbSymbolTable
 70
     1
  0
APPID
  5
11
330
9
100
AcDbSymbolTableRecord
100
AcDbRegAppTableRecord
  2
ACAD
 70
     0
  0
ENDTAB
  0
TABLE
  2
DIMSTYLE
  5
A
330
0
100
AcDbSymbolTable
 70
     1
100
AcDbDimStyleTable
  0
DIMSTYLE
105
1D
102
{ACAD_REACTORS
330
24AC
330
24AD
330
24AE
330
24AF
330
24BE
330
24BF
330
2569
330
25E6
330
25E7
330
25FB
330
2602
330
2603
330
2605
330
260C
330
260D
102
}
330
A
100
AcDbSymbolTableRecord
100
AcDbDimStyleTableRecord
  2
STANDARD
 70
     0
340
10
  0
ENDTAB
  0
TABLE
  2
BLOCK_RECORD
  5
1
330
0
100
AcDbSymbolTable
 70
    16
  0
BLOCK_RECORD
  5
1A
330
1
100
AcDbSymbolTableRecord
100
AcDbBlockTableRecord
  2
*MODEL_SPACE
340
626
  0
BLOCK_RECORD
  5
17
330
1
100
AcDbSymbolTableRecord
100
AcDbBlockTableRecord
  2
*PAPER_SPACE
340
627
  0
BLOCK_RECORD
  5
B2
330
1
100
AcDbSymbolTableRecord
100
AcDbBlockTableRecord
  2
_OPEN
340
0
102
{BLKREFS
331
2711
331
2712
331
271A
331
271B
331
2723
331
2724
331
272C
331
272D
331
2735
331
2736
331
273E
331
273F
331
2747
331
2748
331
2750
331
2751
331
275B
331
275C
331
2764
331
2765
331
276D
331
276E
331
2776
331
2777
331
2781
331
2782
331
278A
331
278B
331
2793
331
2794
331
2627
331
2653
102
}
  0
BLOCK_RECORD
  5
2656
330
1
100
AcDbSymbolTableRecord
100
AcDbBlockTableRecord
  2
*D1
340
0
  0
BLOCK_RECORD
  5
2662
330
1
100
AcDbSymbolTableRecord
100
AcDbBlockTableRecord
  2
*D2
340
0
  0
BLOCK_RECORD
  5
266E
330
1
100
AcDbSymbolTableRecord
100
AcDbBlockTableRecord
  2
*D3
340
0
  0
BLOCK_RECORD
  5
267A
330
1
100
AcDbSymbolTableRecord
100
AcDbBlockTableRecord
  2
*D4
340
0
  0
BLOCK_RECORD
  5
2686
330
1
100
AcDbSymbolTableRecord
100
AcDbBlockTableRecord
  2
*D5
340
0
  0
BLOCK_RECORD
  5
2692
330
1
100
AcDbSymbolTableRecord
100
AcDbBlockTableRecord
  2
*D6
340
0
  0
BLOCK_RECORD
  5
269E
330
1
100
AcDbSymbolTableRecord
100
AcDbBlockTableRecord
  2
*D7
340
0
  0
BLOCK_RECORD
  5
26AA
330
1
100
AcDbSymbolTableRecord
100
AcDbBlockTableRecord
  2
*D8
340
0
  0
BLOCK_RECORD
  5
26B6
330
1
100
AcDbSymbolTableRecord
100
AcDbBlockTableRecord
  2
*D9
340
0
  0
BLOCK_RECORD
  5
26C4
330
1
100
AcDbSymbolTableRecord
100
AcDbBlockTableRecord
  2
*D10
340
0
  0
BLOCK_RECORD
  5
26D0
330
1
100
AcDbSymbolTableRecord
100
AcDbBlockTableRecord
  2
*D11
340
0
  0
BLOCK_RECORD
  5
26DC
330
1
100
AcDbSymbolTableRecord
100
AcDbBlockTableRecord
  2
*D12
340
0
  0
BLOCK_RECORD
  5
26E8
330
1
100
AcDbSymbolTableRecord
100
AcDbBlockTableRecord
  2
*D13
340
0
  0
BLOCK_RECORD
  5
26F6
330
1
100
AcDbSymbolTableRecord
100
AcDbBlockTableRecord
  2
*D14
340
0
  0
BLOCK_RECORD
  5
2702
330
1
100
AcDbSymbolTableRecord
100
AcDbBlockTableRecord
  2
*D15
340
0
  0
ENDTAB
  0
ENDSEC
  0
SECTION
  2
BLOCKS
  0
BLOCK
  5
1B
330
1A
100
AcDbEntity
  8
0
100
AcDbBlockBegin
  2
*MODEL_SPACE
 70
     0
 71
     0
 10
0.0
 20
0.0
 30
0.0
  3
*MODEL_SPACE
  1

  0
ENDBLK
  5
1C
330
1A
100
AcDbEntity
  8
0
100
AcDbBlockEnd
  0
BLOCK
  5
18
330
17
100
AcDbEntity
 67
     1
  8
0
100
AcDbBlockBegin
  2
*PAPER_SPACE
 70
     0
 71
     0
 10
0.0
 20
0.0
 30
0.0
  3
*PAPER_SPACE
  1

  0
ENDBLK
  5
19
330
17
100
AcDbEntity
 67
     1
  8
0
100
AcDbBlockEnd
  0
BLOCK
  5
B3
330
B2
100
AcDbEntity
  8
0
100
AcDbBlockBegin
  2
_OPEN
 70
     0
 71
     0
 10
0.0
 20
0.0
 30
0.0
  3
_OPEN
  1

  0
LINE
  5
B4
330
B2
100
AcDbEntity
  8
0
  6
ByBlock
 62
     0
100
AcDbLine
 10
-1.0
 20
0.1666666666666667
 30
0.0
 11
0.0
 21
0.0
 31
0.0
  0
LINE
  5
B5
330
B2
100
AcDbEntity
  8
0
  6
ByBlock
 62
     0
100
AcDbLine
 10
0.0
 20
0.0
 30
0.0
 11
-1.0
 21
-0.1666666666666667
 31
0.0
  0
LINE
  5
B6
330
B2
100
AcDbEntity
  8
0
  6
ByBlock
 62
     0
100
AcDbLine
 10
0.0
 20
0.0
 30
0.0
 11
-1.0
 21
0.0
 31
0.0
  0
ENDBLK
  5
B7
330
B2
100
AcDbEntity
  8
0
100
AcDbBlockEnd
  0
BLOCK
  5
2660
330
2656
100
AcDbEntity
  8
0
100
AcDbBlockBegin
  2
*D1
 70
     1
 71
     0
 10
0.0
 20
0.0
 30
0.0
  3
*D1
  1

  0
LINE
  5
270E
330
2656
100
AcDbEntity
  8
SUNPOU
370
    -2
100
AcDbLine
 10
194.2026733552311
 20
128.8201216800073
 30
0.0
 11
209.6685172842949
 21
136.5530436459801
 31
0.0
  0
LINE
  5
270F
330
2656
100
AcDbEntity
  8
SUNPOU
370
    -2
100
AcDbLine
 10
217.4577803246955
 20
82.30990774974504
 30
0.0
 11
232.9236242537593
 21
90.04282971571786
 31
0.0
  0
LINE
  5
2710
330
2656
100
AcDbEntity
  8
SUNPOU
370
    -2
100
AcDbLine
 10
209.6685172845449
 20
133.1989416797305
 30
0.0
 11
230.2403426806096
 21
92.05529089526768
 31
0.0
  0
INSERT
  5
2711
330
2656
100
AcDbEntity
  8
SUNPOU
370
    -2
100
AcDbBlockReference
  2
_OPEN
 10
208.326876497845
 20
135.8822232526302
 30
0.0
 41
3.0
 42
3.0
 43
3.0
 50
116.5650511813485
  0
INSERT
  5
2712
330
2656
100
AcDbEntity
  8
SUNPOU
370
    -2
100
AcDbBlockReference
  2
_OPEN
 10
231.5819834673094
 20
89.37200932236793
 30
0.0
 41
3.0
 42
3.0
 43
3.0
 50
296.5650511813485
  0
MTEXT
  5
2713
330
2656
100
AcDbEntity
  8
SUNPOU
100
AcDbMText
 10
222.1904979599937
 20
113.7451502764156
 30
0.0
 40
3.0
 41
0.0
 71
     5
 72
     1
  1
\A1;52
 11
0.4472135955666242
 21
-0.8944271909665827
 31
0.0
 73
     1
 44
1.0
  0
POINT
  5
2714
330
2656
100
AcDbEntity
  8
DEFPOINTS
 62
     0
100
AcDbPoint
 10
191.5193917823313
 20
127.4784808933074
 30
0.0
  0
POINT
  5
2715
330
2656
100
AcDbEntity
  8
DEFPOINTS
 62
     0
100
AcDbPoint
 10
214.7744987517958
 20
80.96826696304517
 30
0.0
  0
POINT
  5
2716
330
2656
100
AcDbEntity
  8
DEFPOINTS
 62
     0
100
AcDbPoint
 10
231.5819834673094
 20
89.37200932236793
 30
0.0
  0
ENDBLK
  5
2661
330
2656
100
AcDbEntity
  8
0
100
AcDbBlockEnd
  0
BLOCK
  5
266C
330
2662
100
AcDbEntity
  8
0
100
AcDbBlockBegin
  2
*D2
 70
     1
 71
     0
 10
0.0
 20
0.0
 30
0.0
  3
*D2
  1

  0
LINE
  5
2717
330
2662
100
AcDbEntity
  8
SUNPOU
370
    -2
100
AcDbLine
 10
201.3580908866956
 20
114.509286619745
 30
0.0
 11
209.0679694931625
 21
118.3642259236968
 31
0.0
  0
LINE
  5
2718
330
2662
100
AcDbEntity
  8
SUNPOU
370
    -2
100
AcDbLine
 10
217.4577803246955
 20
82.30990774974504
 30
0.0
 11
225.1676589311625
 21
86.16484705369683
 31
0.0
  0
LINE
  5
2719
330
2662
100
AcDbEntity
  8
SUNPOU
370
    -2
100
AcDbLine
 10
209.0679694934125
 20
115.0101239574471
 30
0.0
 11
222.4843773580127
 21
88.17730823324663
 31
0.0
  0
INSERT
  5
271A
330
2662
100
AcDbEntity
  8
SUNPOU
370
    -2
100
AcDbBlockReference
  2
_OPEN
 10
207.7263287067127
 20
117.6934055303469
 30
0.0
 41
3.0
 42
3.0
 43
3.0
 50
116.5650511813485
  0
INSERT
  5
271B
330
2662
100
AcDbEntity
  8
SUNPOU
370
    -2
100
AcDbBlockReference
  2
_OPEN
 10
223.8260181447126
 20
85.49402666034689
 30
0.0
 41
3.0
 42
3.0
 43
3.0
 50
296.5650511813485
  0
MTEXT
  5
271C
330
2662
100
AcDbEntity
  8
SUNPOU
100
AcDbMText
 10
218.0122414031291
 20
102.7117500842635
 30
0.0
 40
3.0
 41
0.0
 71
     5
 72
     1
  1
\A1;36
 11
0.4472135955666242
 21
-0.8944271909665827
 31
0.0
 73
     1
 44
1.0
  0
POINT
  5
271D
330
2662
100
AcDbEntity
  8
DEFPOINTS
 62
     0
100
AcDbPoint
 10
198.6748093137958
 20
113.1676458330451
 30
0.0
  0
POINT
  5
271E
330
2662
100
AcDbEntity
  8
DEFPOINTS
 62
     0
100
AcDbPoint
 10
214.7744987517958
 20
80.96826696304517
 30
0.0
  0
POINT
  5
271F
330
2662
100
AcDbEntity
  8
DEFPOINTS
 62
     0
100
AcDbPoint
 10
223.8260181447126
 20
85.49402666034689
 30
0.0
  0
ENDBLK
  5
266D
330
2662
100
AcDbEntity
  8
0
100
AcDbBlockEnd
  0
BLOCK
  5
2678
330
266E
100
AcDbEntity
  8
0
100
AcDbBlockBegin
  2
*D3
 70
     1
 71
     0
 10
0.0
 20
0.0
 30
0.0
  3
*D3
  1

  0
LINE
  5
2720
330
266E
100
AcDbEntity
  8
SUNPOU
370
    -2
100
AcDbLine
 10
59.79446946379579
 20
103.2857798230452
 30
0.0
 11
37.7369861176214
 21
103.2857798230452
 31
0.0
  0
LINE
  5
2721
330
266E
100
AcDbEntity
  8
SUNPOU
370
    -2
100
AcDbLine
 10
211.7744987517958
 20
80.96826696304515
 30
0.0
 11
37.73698611762139
 21
80.9682669630452
 31
0.0
  0
LINE
  5
2722
330
266E
100
AcDbEntity
  8
SUNPOU
370
    -2
100
AcDbLine
 10
39.2369861176214
 20
100.2857798230452
 30
0.0
 11
39.2369861176214
 21
83.9682669630452
 31
0.0
  0
INSERT
  5
2723
330
266E
100
AcDbEntity
  8
SUNPOU
370
    -2
100
AcDbBlockReference
  2
_OPEN
 10
39.2369861176214
 20
103.2857798230452
 30
0.0
 41
3.0
 42
3.0
 43
3.0
 50
90.0
  0
INSERT
  5
2724
330
266E
100
AcDbEntity
  8
SUNPOU
370
    -2
100
AcDbBlockReference
  2
_OPEN
 10
39.2369861176214
 20
80.9682669630452
 30
0.0
 41
3.0
 42
3.0
 43
3.0
 50
270.0
  0
MTEXT
  5
2725
330
266E
100
AcDbEntity
  8
SUNPOU
100
AcDbMText
 10
36.73698611762139
 20
92.12702339304519
 30
0.0
 40
3.0
 41
0.0
 71
     5
 72
     1
  1
\A1;22
 11
6.123031769111886E-17
 21
1.0
 31
0.0
 73
     1
 44
1.0
  0
POINT
  5
2726
330
266E
100
AcDbEntity
  8
DEFPOINTS
 62
     0
100
AcDbPoint
 10
62.79446946379579
 20
103.2857798230452
 30
0.0
  0
POINT
  5
2727
330
266E
100
AcDbEntity
  8
DEFPOINTS
 62
     0
100
AcDbPoint
 10
214.7744987517958
 20
80.96826696304515
 30
0.0
  0
POINT
  5
2728
330
266E
100
AcDbEntity
  8
DEFPOINTS
 62
     0
100
AcDbPoint
 10
39.2369861176214
 20
80.9682669630452
 30
0.0
  0
ENDBLK
  5
2679
330
266E
100
AcDbEntity
  8
0
100
AcDbBlockEnd
  0
BLOCK
  5
2684
330
267A
100
AcDbEntity
  8
0
100
AcDbBlockBegin
  2
*D4
 70
     1
 71
     0
 10
0.0
 20
0.0
 30
0.0
  3
*D4
  1

  0
LINE
  5
2729
330
267A
100
AcDbEntity
  8
SUNPOU
370
    -2
100
AcDbLine
 10
194.1476188495926
 20
125.2220267609436
 30
0.0
 11
194.1476188495926
 21
155.6130721281846
 31
0.0
  0
LINE
  5
272A
330
267A
100
AcDbEntity
  8
SUNPOU
370
    -2
100
AcDbLine
 10
229.1476188495926
 20
125.2220267609436
 30
0.0
 11
229.1476188495926
 21
155.6130721281846
 31
0.0
  0
LINE
  5
272B
330
267A
100
AcDbEntity
  8
SUNPOU
370
    -2
100
AcDbLine
 10
197.1476188495926
 20
154.1130721281846
 30
0.0
 11
226.1476188495926
 21
154.1130721281846
 31
0.0
  0
INSERT
  5
272C
330
267A
100
AcDbEntity
  8
SUNPOU
370
    -2
100
AcDbBlockReference
  2
_OPEN
 10
194.1476188495926
 20
154.1130721281846
 30
0.0
 41
3.0
 42
3.0
 43
3.0
 50
180.0
  0
INSERT
  5
272D
330
267A
100
AcDbEntity
  8
SUNPOU
370
    -2
100
AcDbBlockReference
  2
_OPEN
 10
229.1476188495926
 20
154.1130721281846
 30
0.0
 41
3.0
 42
3.0
 43
3.0
  0
MTEXT
  5
272E
330
267A
100
AcDbEntity
  8
SUNPOU
100
AcDbMText
 10
211.6476188495926
 20
156.6130721281846
 30
0.0
 40
3.0
 41
0.0
 71
     5
 72
     1
  1
\A1;35
 73
     1
 44
1.0
  0
POINT
  5
272F
330
267A
100
AcDbEntity
  8
DEFPOINTS
 62
     0
100
AcDbPoint
 10
194.1476188495926
 20
122.2220267609436
 30
0.0
  0
POINT
  5
2730
330
267A
100
AcDbEntity
  8
DEFPOINTS
 62
     0
100
AcDbPoint
 10
229.1476188495926
 20
122.2220267609436
 30
0.0
  0
POINT
  5
2731
330
267A
100
AcDbEntity
  8
DEFPOINTS
 62
     0
100
AcDbPoint
 10
229.1476188495926
 20
154.1130721281846
 30
0.0
  0
ENDBLK
  5
2685
330
267A
100
AcDbEntity
  8
0
100
AcDbBlockEnd
  0
BLOCK
  5
2690
330
2686
100
AcDbEntity
  8
0
100
AcDbBlockBegin
  2
*D5
 70
     1
 71
     0
 10
0.0
 20
0.0
 30
0.0
  3
*D5
  1

  0
LINE
  5
2732
330
2686
100
AcDbEntity
  8
SUNPOU
370
    -2
100
AcDbLine
 10
184.2944694637959
 20
88.58577982304519
 30
0.0
 11
184.2944694637959
 21
146.1357914730563
 31
0.0
  0
LINE
  5
2733
330
2686
100
AcDbEntity
  8
SUNPOU
370
    -2
100
AcDbLine
 10
194.1476188495926
 20
125.2220267609436
 30
0.0
 11
194.1476188495926
 21
146.1357914730563
 31
0.0
  0
LINE
  5
2734
330
2686
100
AcDbEntity
  8
SUNPOU
370
    -2
100
AcDbLine
 10
187.2944694637959
 20
144.6357914730563
 30
0.0
 11
191.1476188495926
 21
144.6357914730563
 31
0.0
  0
INSERT
  5
2735
330
2686
100
AcDbEntity
  8
SUNPOU
370
    -2
100
AcDbBlockReference
  2
_OPEN
 10
184.2944694637959
 20
144.6357914730563
 30
0.0
 41
3.0
 42
3.0
 43
3.0
 50
180.0
  0
INSERT
  5
2736
330
2686
100
AcDbEntity
  8
SUNPOU
370
    -2
100
AcDbBlockReference
  2
_OPEN
 10
194.1476188495926
 20
144.6357914730563
 30
0.0
 41
3.0
 42
3.0
 43
3.0
  0
MTEXT
  5
2737
330
2686
100
AcDbEntity
  8
SUNPOU
100
AcDbMText
 10
189.2210441566942
 20
147.1357914730563
 30
0.0
 40
3.0
 41
0.0
 71
     5
 72
     1
  1
\A1;10
 73
     1
 44
1.0
  0
POINT
  5
2738
330
2686
100
AcDbEntity
  8
DEFPOINTS
 62
     0
100
AcDbPoint
 10
184.2944694637959
 20
85.58577982304519
 30
0.0
  0
POINT
  5
2739
330
2686
100
AcDbEntity
  8
DEFPOINTS
 62
     0
100
AcDbPoint
 10
194.1476188495926
 20
122.2220267609436
 30
0.0
  0
POINT
  5
273A
330
2686
100
AcDbEntity
  8
DEFPOINTS
 62
     0
100
AcDbPoint
 10
194.1476188495926
 20
144.6357914730563
 30
0.0
  0
ENDBLK
  5
2691
330
2686
100
AcDbEntity
  8
0
100
AcDbBlockEnd
  0
BLOCK
  5
269C
330
2692
100
AcDbEntity
  8
0
100
AcDbBlockBegin
  2
*D6
 70
     1
 71
     0
 10
0.0
 20
0.0
 30
0.0
  3
*D6
  1

  0
LINE
  5
273B
330
2692
100
AcDbEntity
  8
SUNPOU
370
    -2
100
AcDbLine
 10
61.29446946379579
 20
104.7857798230452
 30
0.0
 11
61.29446946379579
 21
155.6130721281846
 31
0.0
  0
LINE
  5
273C
330
2692
100
AcDbEntity
  8
SUNPOU
370
    -2
100
AcDbLine
 10
194.1476188495926
 20
125.2220267609436
 30
0.0
 11
194.1476188495926
 21
155.6130721281846
 31
0.0
  0
LINE
  5
273D
330
2692
100
AcDbEntity
  8
SUNPOU
370
    -2
100
AcDbLine
 10
64.29446946379579
 20
154.1130721281846
 30
0.0
 11
191.1476188495926
 21
154.1130721281846
 31
0.0
  0
INSERT
  5
273E
330
2692
100
AcDbEntity
  8
SUNPOU
370
    -2
100
AcDbBlockReference
  2
_OPEN
 10
61.29446946379579
 20
154.1130721281846
 30
0.0
 41
3.0
 42
3.0
 43
3.0
 50
180.0
  0
INSERT
  5
273F
330
2692
100
AcDbEntity
  8
SUNPOU
370
    -2
100
AcDbBlockReference
  2
_OPEN
 10
194.1476188495926
 20
154.1130721281846
 30
0.0
 41
3.0
 42
3.0
 43
3.0
  0
MTEXT
  5
2740
330
2692
100
AcDbEntity
  8
SUNPOU
100
AcDbMText
 10
127.7210441566942
 20
156.6130721281846
 30
0.0
 40
3.0
 41
0.0
 71
     5
 72
     1
  1
\A1;133
 73
     1
 44
1.0
  0
POINT
  5
2741
330
2692
100
AcDbEntity
  8
DEFPOINTS
 62
     0
100
AcDbPoint
 10
61.29446946379579
 20
101.7857798230452
 30
0.0
  0
POINT
  5
2742
330
2692
100
AcDbEntity
  8
DEFPOINTS
 62
     0
100
AcDbPoint
 10
194.1476188495926
 20
122.2220267609436
 30
0.0
  0
POINT
  5
2743
330
2692
100
AcDbEntity
  8
DEFPOINTS
 62
     0
100
AcDbPoint
 10
194.1476188495926
 20
154.1130721281846
 30
0.0
  0
ENDBLK
  5
269D
330
2692
100
AcDbEntity
  8
0
100
AcDbBlockEnd
  0
BLOCK
  5
26A8
330
269E
100
AcDbEntity
  8
0
100
AcDbBlockBegin
  2
*D7
 70
     1
 71
     0
 10
0.0
 20
0.0
 30
0.0
  3
*D7
  1

  0
LINE
  5
2744
330
269E
100
AcDbEntity
  8
SUNPOU
370
    -2
100
AcDbLine
 10
58.29446946379582
 20
213.4150305302507
 30
0.0
 11
37.73698611762143
 21
213.4150305302507
 31
0.0
  0
LINE
  5
2745
330
269E
100
AcDbEntity
  8
SUNPOU
370
    -2
100
AcDbLine
 10
58.29446946379576
 20
191.4150305302507
 30
0.0
 11
37.73698611762143
 21
191.4150305302507
 31
0.0
  0
LINE
  5
2746
330
269E
100
AcDbEntity
  8
SUNPOU
370
    -2
100
AcDbLine
 10
39.23698611762143
 20
210.4150305302507
 30
0.0
 11
39.23698611762143
 21
194.4150305302507
 31
0.0
  0
INSERT
  5
2747
330
269E
100
AcDbEntity
  8
SUNPOU
370
    -2
100
AcDbBlockReference
  2
_OPEN
 10
39.23698611762143
 20
213.4150305302507
 30
0.0
 41
3.0
 42
3.0
 43
3.0
 50
90.0
  0
INSERT
  5
2748
330
269E
100
AcDbEntity
  8
SUNPOU
370
    -2
100
AcDbBlockReference
  2
_OPEN
 10
39.23698611762143
 20
191.4150305302507
 30
0.0
 41
3.0
 42
3.0
 43
3.0
 50
270.0
  0
MTEXT
  5
2749
330
269E
100
AcDbEntity
  8
SUNPOU
100
AcDbMText
 10
36.7369861176214
 20
202.4150305302507
 30
0.0
 40
3.0
 41
0.0
 71
     5
 72
     1
  1
\A1;22
 11
6.123031769111886E-17
 21
1.0
 31
0.0
 73
     1
 44
1.0
  0
POINT
  5
274A
330
269E
100
AcDbEntity
  8
DEFPOINTS
 62
     0
100
AcDbPoint
 10
61.29446946379582
 20
213.4150305302507
 30
0.0
  0
POINT
  5
274B
330
269E
100
AcDbEntity
  8
DEFPOINTS
 62
     0
100
AcDbPoint
 10
61.29446946379576
 20
191.4150305302507
 30
0.0
  0
POINT
  5
274C
330
269E
100
AcDbEntity
  8
DEFPOINTS
 62
     0
100
AcDbPoint
 10
39.23698611762143
 20
191.4150305302507
 30
0.0
  0
ENDBLK
  5
26A9
330
269E
100
AcDbEntity
  8
0
100
AcDbBlockEnd
  0
BLOCK
  5
26B4
330
26AA
100
AcDbEntity
  8
0
100
AcDbBlockBegin
  2
*D8
 70
     1
 71
     0
 10
0.0
 20
0.0
 30
0.0
  3
*D8
  1

  0
LINE
  5
274D
330
26AA
100
AcDbEntity
  8
SUNPOU
370
    -2
100
AcDbLine
 10
287.3887813713292
 20
157.5246318561041
 30
0.0
 11
265.9098686489446
 21
146.785175498664
 31
0.0
  0
LINE
  5
274E
330
26AA
100
AcDbEntity
  8
SUNPOU
370
    -2
100
AcDbLine
 10
303.4884707998035
 20
125.3252529879055
 30
0.0
 11
282.0095580774188
 21
114.5857966304654
 31
0.0
  0
LINE
  5
274F
330
26AA
100
AcDbEntity
  8
SUNPOU
370
    -2
100
AcDbLine
 10
268.5931502216631
 20
144.7727143185392
 30
0.0
 11
282.0095580778876
 21
117.9398985967151
 31
0.0
  0
INSERT
  5
2750
330
26AA
100
AcDbEntity
  8
SUNPOU
370
    -2
100
AcDbBlockReference
  2
_OPEN
 10
267.2515094355382
 20
147.4559958917265
 30
0.0
 41
3.0
 42
3.0
 43
3.0
 50
116.5650511690706
  0
INSERT
  5
2751
330
26AA
100
AcDbEntity
  8
SUNPOU
370
    -2
100
AcDbBlockReference
  2
_OPEN
 10
283.3511988640125
 20
115.2566170235278
 30
0.0
 41
3.0
 42
3.0
 43
3.0
 50
296.5650511690706
  0
MTEXT
  5
2752
330
26AA
100
AcDbEntity
  8
SUNPOU
100
AcDbMText
 10
277.5374221274313
 20
132.4743404460645
 30
0.0
 40
3.0
 41
0.0
 71
     5
 72
     1
  1
\A1;36
 11
0.4472135953749575
 21
-0.8944271910624161
 31
0.0
 73
     1
 44
1.0
  0
POINT
  5
2753
330
26AA
100
AcDbEntity
  8
DEFPOINTS
 62
     0
100
AcDbPoint
 10
290.0720629445165
 20
158.866272642229
 30
0.0
  0
POINT
  5
2754
330
26AA
100
AcDbEntity
  8
DEFPOINTS
 62
     0
100
AcDbPoint
 10
306.1717523729907
 20
126.6668937740303
 30
0.0
  0
POINT
  5
2755
330
26AA
100
AcDbEntity
  8
DEFPOINTS
 62
     0
100
AcDbPoint
 10
283.3511988640125
 20
115.2566170235278
 30
0.0
  0
ENDBLK
  5
26B5
330
26AA
100
AcDbEntity
  8
0
100
AcDbBlockEnd
  0
BLOCK
  5
26C2
330
26B6
100
AcDbEntity
  8
0
100
AcDbBlockBegin
  2
*D9
 70
     1
 71
     0
 10
0.0
 20
0.0
 30
0.0
  3
*D9
  1

  0
LINE
  5
2756
330
26B6
100
AcDbEntity
  8
SUNPOU
370
    -2
100
AcDbLine
 10
301.0287960307022
 20
130.2446025278265
 30
0.0
 11
287.9433645465798
 21
123.7018867880512
 31
0.0
  0
LINE
  5
2757
330
26B6
100
AcDbEntity
  8
SUNPOU
370
    -2
100
AcDbLine
 10
303.4884707998034
 20
125.3252529879055
 30
0.0
 11
290.403039315681
 21
118.7825372481301
 31
0.0
  0
LINE
  5
2758
330
26B6
100
AcDbEntity
  8
SUNPOU
370
    -2
100
AcDbLine
 10
287.9433645470485
 20
127.0559887543009
 30
0.0
 11
286.6017237609237
 21
129.7392703274882
 31
0.0
  0
LINE
  5
2759
330
26B6
100
AcDbEntity
  8
SUNPOU
370
    -2
100
AcDbLine
 10
293.0863208883995
 20
116.7700760680053
 30
0.0
 11
294.4279616745243
 21
114.0867944948181
 31
0.0
  0
LINE
  5
275A
330
26B6
100
AcDbEntity
  8
SUNPOU
370
    -2
100
AcDbLine
 10
289.2850053331734
 20
124.3727071811137
 30
0.0
 11
291.7446801022746
 21
119.4533576411926
 31
0.0
  0
INSERT
  5
275B
330
26B6
100
AcDbEntity
  8
SUNPOU
370
    -2
100
AcDbBlockReference
  2
_OPEN
 10
289.2850053331734
 20
124.3727071811137
 30
0.0
 41
3.0
 42
3.0
 43
3.0
 50
296.5650511690708
  0
INSERT
  5
275C
330
26B6
100
AcDbEntity
  8
SUNPOU
370
    -2
100
AcDbBlockReference
  2
_OPEN
 10
291.7446801022746
 20
119.4533576411926
 30
0.0
 41
3.0
 42
3.0
 43
3.0
 50
116.5650511690708
  0
MTEXT
  5
275D
330
26B6
100
AcDbEntity
  8
SUNPOU
100
AcDbMText
 10
292.7509106953801
 20
123.0310663995905
 30
0.0
 40
3.0
 41
0.0
 71
     5
 72
     1
  1
\A1;6
 11
0.4472135953749599
 21
-0.894427191062415
 31
0.0
 73
     1
 44
1.0
  0
POINT
  5
275E
330
26B6
100
AcDbEntity
  8
DEFPOINTS
 62
     0
100
AcDbPoint
 10
303.7120776038895
 20
131.5862433139514
 30
0.0
  0
POINT
  5
275F
330
26B6
100
AcDbEntity
  8
DEFPOINTS
 62
     0
100
AcDbPoint
 10
306.1717523729907
 20
126.6668937740303
 30
0.0
  0
POINT
  5
2760
330
26B6
100
AcDbEntity
  8
DEFPOINTS
 62
     0
100
AcDbPoint
 10
291.7446801022746
 20
119.4533576411926
 30
0.0
  0
ENDBLK
  5
26C3
330
26B6
100
AcDbEntity
  8
0
100
AcDbBlockEnd
  0
BLOCK
  5
26CE
330
26C4
100
AcDbEntity
  8
0
100
AcDbBlockBegin
  2
*D10
 70
     1
 71
     0
 10
0.0
 20
0.0
 30
0.0
  3
*D10
  1

  0
LINE
  5
2761
330
26C4
100
AcDbEntity
  8
SUNPOU
370
    -2
100
AcDbLine
 10
340.1599856446231
 20
183.9102340007024
 30
0.0
 11
350.0054704107103
 21
188.8329763649987
 31
0.0
  0
LINE
  5
2762
330
26C4
100
AcDbEntity
  8
SUNPOU
370
    -2
100
AcDbLine
 10
346.4209759669269
 20
171.3882533084075
 30
0.0
 11
356.266460733014
 21
176.3109956727038
 31
0.0
  0
LINE
  5
2763
330
26C4
100
AcDbEntity
  8
SUNPOU
370
    -2
100
AcDbLine
 10
350.0054704056009
 20
185.478874398749
 30
0.0
 11
353.5831791630799
 21
178.3234568565411
 31
0.0
  0
INSERT
  5
2764
330
26C4
100
AcDbEntity
  8
SUNPOU
370
    -2
100
AcDbBlockReference
  2
_OPEN
 10
348.6638296231885
 20
188.1621559737925
 30
0.0
 41
3.0
 42
3.0
 43
3.0
 50
116.5650510897983
  0
INSERT
  5
2765
330
26C4
100
AcDbEntity
  8
SUNPOU
370
    -2
100
AcDbBlockReference
  2
_OPEN
 10
354.9248199454922
 20
175.6401752814976
 30
0.0
 41
3.0
 42
3.0
 43
3.0
 50
296.5650510897982
  0
MTEXT
  5
2766
330
26C4
100
AcDbEntity
  8
SUNPOU
100
AcDbMText
 10
354.0303927635433
 20
183.0191996129887
 30
0.0
 40
3.0
 41
0.0
 71
     5
 72
     1
  1
\A1;14
 11
0.4472135941374603
 21
-0.8944271916811647
 31
0.0
 73
     1
 44
1.0
  0
POINT
  5
2767
330
26C4
100
AcDbEntity
  8
DEFPOINTS
 62
     0
100
AcDbPoint
 10
337.4767040695796
 20
182.56859321829
 30
0.0
  0
POINT
  5
2768
330
26C4
100
AcDbEntity
  8
DEFPOINTS
 62
     0
100
AcDbPoint
 10
343.7376943918833
 20
170.0466125259951
 30
0.0
  0
POINT
  5
2769
330
26C4
100
AcDbEntity
  8
DEFPOINTS
 62
     0
100
AcDbPoint
 10
354.9248199454922
 20
175.6401752814976
 30
0.0
  0
ENDBLK
  5
26CF
330
26C4
100
AcDbEntity
  8
0
100
AcDbBlockEnd
  0
BLOCK
  5
26DA
330
26D0
100
AcDbEntity
  8
0
100
AcDbBlockBegin
  2
*D11
 70
     1
 71
     0
 10
0.0
 20
0.0
 30
0.0
  3
*D11
  1

  0
LINE
  5
276A
330
26D0
100
AcDbEntity
  8
SUNPOU
370
    -2
100
AcDbLine
 10
216.8800715607123
 20
228.9150305302507
 30
0.0
 11
233.2041279382343
 21
228.9150305302507
 31
0.0
  0
LINE
  5
276B
330
26D0
100
AcDbEntity
  8
SUNPOU
370
    -2
100
AcDbLine
 10
216.8800715607123
 20
175.9150305302507
 30
0.0
 11
233.2041279382343
 21
175.9150305302507
 31
0.0
  0
LINE
  5
276C
330
26D0
100
AcDbEntity
  8
SUNPOU
370
    -2
100
AcDbLine
 10
231.7041279382343
 20
225.9150305302507
 30
0.0
 11
231.7041279382343
 21
178.9150305302507
 31
0.0
  0
INSERT
  5
276D
330
26D0
100
AcDbEntity
  8
SUNPOU
370
    -2
100
AcDbBlockReference
  2
_OPEN
 10
231.7041279382343
 20
228.9150305302507
 30
0.0
 41
3.0
 42
3.0
 43
3.0
 50
90.0
  0
INSERT
  5
276E
330
26D0
100
AcDbEntity
  8
SUNPOU
370
    -2
100
AcDbBlockReference
  2
_OPEN
 10
231.7041279382343
 20
175.9150305302507
 30
0.0
 41
3.0
 42
3.0
 43
3.0
 50
270.0
  0
MTEXT
  5
276F
330
26D0
100
AcDbEntity
  8
SUNPOU
100
AcDbMText
 10
229.2041279382342
 20
202.4150305302508
 30
0.0
 40
3.0
 41
0.0
 71
     5
 72
     1
  1
\A1;53
 11
6.123031769111886E-17
 21
1.0
 31
0.0
 73
     1
 44
1.0
  0
POINT
  5
2770
330
26D0
100
AcDbEntity
  8
DEFPOINTS
 62
     0
100
AcDbPoint
 10
213.8800715607123
 20
228.9150305302507
 30
0.0
  0
POINT
  5
2771
330
26D0
100
AcDbEntity
  8
DEFPOINTS
 62
     0
100
AcDbPoint
 10
213.8800715607123
 20
175.9150305302507
 30
0.0
  0
POINT
  5
2772
330
26D0
100
AcDbEntity
  8
DEFPOINTS
 62
     0
100
AcDbPoint
 10
231.7041279382343
 20
175.9150305302507
 30
0.0
  0
ENDBLK
  5
26DB
330
26D0
100
AcDbEntity
  8
0
100
AcDbBlockEnd
  0
BLOCK
  5
26E6
330
26DC
100
AcDbEntity
  8
0
100
AcDbBlockBegin
  2
*D12
 70
     1
 71
     0
 10
0.0
 20
0.0
 30
0.0
  3
*D12
  1

  0
LINE
  5
2773
330
26DC
100
AcDbEntity
  8
SUNPOU
370
    -2
100
AcDbLine
 10
288.7304221574039
 20
161.5495542149224
 30
0.0
 11
270.3854754304175
 21
198.2394476479524
 31
0.0
  0
LINE
  5
2774
330
26DC
100
AcDbEntity
  8
SUNPOU
370
    -2
100
AcDbLine
 10
336.1350632824671
 20
185.2518747909834
 30
0.0
 11
317.7901165554807
 21
221.9417682240134
 31
0.0
  0
LINE
  5
2775
330
26DC
100
AcDbEntity
  8
SUNPOU
370
    -2
100
AcDbLine
 10
273.7395773966672
 20
198.2394476487182
 30
0.0
 11
315.7776553763436
 21
219.2584866505542
 31
0.0
  0
INSERT
  5
2776
330
26DC
100
AcDbEntity
  8
SUNPOU
370
    -2
100
AcDbBlockReference
  2
_OPEN
 10
271.0562958239738
 20
196.8978068616057
 30
0.0
 41
3.0
 42
3.0
 43
3.0
 50
206.5650511901599
  0
INSERT
  5
2777
330
26DC
100
AcDbEntity
  8
SUNPOU
370
    -2
100
AcDbBlockReference
  2
_OPEN
 10
318.460936949037
 20
220.6001274376667
 30
0.0
 41
3.0
 42
3.0
 43
3.0
 50
26.56505119015989
  0
MTEXT
  5
2778
330
26DC
100
AcDbEntity
  8
SUNPOU
100
AcDbMText
 10
293.6405823972449
 20
210.9850351268807
 30
0.0
 40
3.0
 41
0.0
 71
     5
 72
     1
  1
\A1;53
 11
0.8944271908978071
 21
0.4472135957041756
 31
0.0
 73
     1
 44
1.0
  0
POINT
  5
2779
330
26DC
100
AcDbEntity
  8
DEFPOINTS
 62
     0
100
AcDbPoint
 10
290.0720629445164
 20
158.866272642229
 30
0.0
  0
POINT
  5
277A
330
26DC
100
AcDbEntity
  8
DEFPOINTS
 62
     0
100
AcDbPoint
 10
337.4767040695797
 20
182.56859321829
 30
0.0
  0
POINT
  5
277B
330
26DC
100
AcDbEntity
  8
DEFPOINTS
 62
     0
100
AcDbPoint
 10
318.460936949037
 20
220.6001274376667
 30
0.0
  0
ENDBLK
  5
26E7
330
26DC
100
AcDbEntity
  8
0
100
AcDbBlockEnd
  0
BLOCK
  5
26F4
330
26E8
100
AcDbEntity
  8
0
100
AcDbBlockBegin
  2
*D13
 70
     1
 71
     0
 10
0.0
 20
0.0
 30
0.0
  3
*D13
  1

  0
LINE
  5
277C
330
26E8
100
AcDbEntity
  8
SUNPOU
370
    -2
100
AcDbLine
 10
287.3887813713291
 20
157.5246318561041
 30
0.0
 11
274.3033498872067
 21
150.9819161163289
 31
0.0
  0
LINE
  5
277D
330
26E8
100
AcDbEntity
  8
SUNPOU
370
    -2
100
AcDbLine
 10
289.8484561418273
 20
152.6052823133891
 30
0.0
 11
276.7630246577048
 21
146.0625665736139
 31
0.0
  0
LINE
  5
277E
330
26E8
100
AcDbEntity
  8
SUNPOU
370
    -2
100
AcDbLine
 10
274.3033498876755
 20
154.3360180825786
 30
0.0
 11
272.9617091015506
 21
157.0192996557659
 31
0.0
  0
LINE
  5
277F
330
26E8
100
AcDbEntity
  8
SUNPOU
370
    -2
100
AcDbLine
 10
279.4463062304233
 20
144.0501053934891
 30
0.0
 11
280.7879470165482
 21
141.3668238203018
 31
0.0
  0
LINE
  5
2780
330
26E8
100
AcDbEntity
  8
SUNPOU
370
    -2
100
AcDbLine
 10
275.6449906738004
 20
151.6527365093914
 30
0.0
 11
278.1046654442985
 21
146.7333869666763
 31
0.0
  0
INSERT
  5
2781
330
26E8
100
AcDbEntity
  8
SUNPOU
370
    -2
100
AcDbBlockReference
  2
_OPEN
 10
275.6449906738004
 20
151.6527365093914
 30
0.0
 41
3.0
 42
3.0
 43
3.0
 50
296.5650511690703
  0
INSERT
  5
2782
330
26E8
100
AcDbEntity
  8
SUNPOU
370
    -2
100
AcDbBlockReference
  2
_OPEN
 10
278.1046654442985
 20
146.7333869666763
 30
0.0
 41
3.0
 42
3.0
 43
3.0
 50
116.5650511690703
  0
MTEXT
  5
2783
330
26E8
100
AcDbEntity
  8
SUNPOU
100
AcDbMText
 10
279.1108960367054
 20
150.3110957264712
 30
0.0
 40
3.0
 41
0.0
 71
     5
 72
     1
  1
\A1;6
 11
0.4472135953749519
 21
-0.8944271910624189
 31
0.0
 73
     1
 44
1.0
  0
POINT
  5
2784
330
26E8
100
AcDbEntity
  8
DEFPOINTS
 62
     0
100
AcDbPoint
 10
290.0720629445164
 20
158.866272642229
 30
0.0
  0
POINT
  5
2785
330
26E8
100
AcDbEntity
  8
DEFPOINTS
 62
     0
100
AcDbPoint
 10
292.5317377150146
 20
153.9469230995139
 30
0.0
  0
POINT
  5
2786
330
26E8
100
AcDbEntity
  8
DEFPOINTS
 62
     0
100
AcDbPoint
 10
278.1046654442985
 20
146.7333869666763
 30
0.0
  0
ENDBLK
  5
26F5
330
26E8
100
AcDbEntity
  8
0
100
AcDbBlockEnd
  0
BLOCK
  5
2700
330
26F6
100
AcDbEntity
  8
0
100
AcDbBlockBegin
  2
*D14
 70
     1
 71
     0
 10
0.0
 20
0.0
 30
0.0
  3
*D14
  1

  0
LINE
  5
2787
330
26F6
100
AcDbEntity
  8
SUNPOU
370
    -2
100
AcDbLine
 10
298.4573178557574
 20
157.7482386595367
 30
0.0
 11
284.3931438932655
 21
185.8765865893587
 31
0.0
  0
LINE
  5
2788
330
26F6
100
AcDbEntity
  8
SUNPOU
370
    -2
100
AcDbLine
 10
333.3399783057574
 20
175.1895688815368
 30
0.0
 11
319.2758043432655
 21
203.3179168113587
 31
0.0
  0
LINE
  5
2789
330
26F6
100
AcDbEntity
  8
SUNPOU
370
    -2
100
AcDbLine
 10
287.7472458595152
 20
185.8765865891279
 30
0.0
 11
317.2633431633311
 21
200.6346352384974
 31
0.0
  0
INSERT
  5
278A
330
26F6
100
AcDbEntity
  8
SUNPOU
370
    -2
100
AcDbBlockReference
  2
_OPEN
 10
285.0639642864231
 20
184.5349458028127
 30
0.0
 41
3.0
 42
3.0
 43
3.0
 50
206.5650511731359
  0
INSERT
  5
278B
330
26F6
100
AcDbEntity
  8
SUNPOU
370
    -2
100
AcDbBlockReference
  2
_OPEN
 10
319.9466247364231
 20
201.9762760248127
 30
0.0
 41
3.0
 42
3.0
 43
3.0
 50
26.56505117313593
  0
MTEXT
  5
278C
330
26F6
100
AcDbEntity
  8
SUNPOU
100
AcDbMText
 10
301.387260522827
 20
195.4916788913894
 30
0.0
 40
3.0
 41
0.0
 71
     5
 72
     1
  1
\A1;39
 11
0.8944271910306851
 21
0.4472135954384195
 31
0.0
 73
     1
 44
1.0
  0
POINT
  5
278D
330
26F6
100
AcDbEntity
  8
DEFPOINTS
 62
     0
100
AcDbPoint
 10
299.7989586420727
 20
155.0649570864447
 30
0.0
  0
POINT
  5
278E
330
26F6
100
AcDbEntity
  8
DEFPOINTS
 62
     0
100
AcDbPoint
 10
334.6816190920727
 20
172.5062873084447
 30
0.0
  0
POINT
  5
278F
330
26F6
100
AcDbEntity
  8
DEFPOINTS
 62
     0
100
AcDbPoint
 10
319.9466247364231
 20
201.9762760248127
 30
0.0
  0
ENDBLK
  5
2701
330
26F6
100
AcDbEntity
  8
0
100
AcDbBlockEnd
  0
BLOCK
  5
270C
330
2702
100
AcDbEntity
  8
0
100
AcDbBlockBegin
  2
*D15
 70
     1
 71
     0
 10
0.0
 20
0.0
 30
0.0
  3
*D15
  1

  0
LINE
  5
2790
330
2702
100
AcDbEntity
  8
SUNPOU
370
    -2
100
AcDbLine
 10
293.8286571381539
 20
163.6514581239231
 30
0.0
 11
279.2303211055017
 21
192.8481301674656
 31
0.0
  0
LINE
  5
2791
330
2702
100
AcDbEntity
  8
SUNPOU
370
    -2
100
AcDbLine
 10
331.3945991381539
 20
182.4344291379231
 30
0.0
 11
316.7962631055017
 21
211.6311011814656
 31
0.0
  0
LINE
  5
2792
330
2702
100
AcDbEntity
  8
SUNPOU
370
    -2
100
AcDbLine
 10
282.5844230717514
 20
192.8481301684656
 30
0.0
 11
314.7838019265519
 21
208.9478196078659
 31
0.0
  0
INSERT
  5
2793
330
2702
100
AcDbEntity
  8
SUNPOU
370
    -2
100
AcDbBlockReference
  2
_OPEN
 10
279.9011414991516
 20
191.5064893811658
 30
0.0
 41
3.0
 42
3.0
 43
3.0
 50
206.5650511941603
  0
INSERT
  5
2794
330
2702
100
AcDbEntity
  8
SUNPOU
370
    -2
100
AcDbBlockReference
  2
_OPEN
 10
317.4670834991516
 20
210.2894603951658
 30
0.0
 41
3.0
 42
3.0
 43
3.0
 50
26.56505119416025
  0
MTEXT
  5
2795
330
2702
100
AcDbEntity
  8
SUNPOU
100
AcDbMText
 10
297.566078509735
 20
203.1340428653322
 30
0.0
 40
3.0
 41
0.0
 71
     5
 72
     1
  1
\A1;42
 11
0.8944271908665828
 21
0.4472135957666241
 31
0.0
 73
     1
 44
1.0
  0
POINT
  5
2796
330
2702
100
AcDbEntity
  8
DEFPOINTS
 62
     0
100
AcDbPoint
 10
295.1702979254537
 20
160.9681765513233
 30
0.0
  0
POINT
  5
2797
330
2702
100
AcDbEntity
  8
DEFPOINTS
 62
     0
100
AcDbPoint
 10
332.7362399254538
 20
179.7511475653233
 30
0.0
  0
POINT
  5
2798
330
2702
100
AcDbEntity
  8
DEFPOINTS
 62
     0
100
AcDbPoint
 10
317.4670834991516
 20
210.2894603951658
 30
0.0
  0
ENDBLK
  5
270D
330
2702
100
AcDbEntity
  8
0
100
AcDbBlockEnd
  0
ENDSEC
  0
SECTION
  2
ENTITIES
  0
LWPOLYLINE
  5
ABF
330
1A
100
AcDbEntity
  8
ZUWAKU
100
AcDbPolyline
 90
        4
 70
     1
 43
0.0
 10
0.3999995171010369
 20
275.3999999613564
 10
0.3999995171010369
 20
0.3999999613564
 10
398.399999517101
 20
0.3999999613564
 10
398.399999517101
 20
275.3999999613564
  0
LWPOLYLINE
  5
AC0
330
1A
100
AcDbEntity
  8
ZUWAKU
100
AcDbPolyline
 90
        4
 70
     1
 43
0.0
 10
0.1999995171010482
 20
275.5999999613564
 10
0.1999995171010482
 20
0.1999999613564114
 10
398.5999995171011
 20
0.1999999613563999
 10
398.5999995171011
 20
275.5999999613564
  0
LWPOLYLINE
  5
AC1
330
1A
100
AcDbEntity
  8
ZUWAKU
100
AcDbPolyline
 90
        4
 70
     1
 43
0.0
 10
-0.0000004828989404
 20
275.7999999613564
 10
-0.0000004828989404
 20
-0.0000000386436341
 10
398.7999995171011
 20
-0.0000000386436003
 10
398.7999995171011
 20
275.7999999613564
  0
LWPOLYLINE
  5
AC2
330
1A
100
AcDbEntity
  8
ZUWAKU
100
AcDbPolyline
 90
        4
 70
     1
 43
0.0
 10
0.2999995171010141
 20
275.4999999613564
 10
0.2999995171010141
 20
0.2999999613563773
 10
398.4999995171012
 20
0.2999999613564004
 10
398.4999995171011
 20
275.4999999613564
  0
LWPOLYLINE
  5
AC3
330
1A
100
AcDbEntity
  8
ZUWAKU
100
AcDbPolyline
 90
        4
 70
     1
 43
0.0
 10
0.0999995171010255
 20
275.6999999613564
 10
0.0999995171010255
 20
0.0999999613563887
 10
398.699999517101
 20
0.0999999613564002
 10
398.6999995171011
 20
275.6999999613564
  0
LINE
  5
AC4
330
1A
100
AcDbEntity
  8
ZUWAKU
100
AcDbLine
 10
-0.0000004828989404
 20
14.99999996135637
 30
0.0
 11
398.699999517101
 21
14.99999996135637
 31
0.0
  0
LINE
  5
AC5
330
1A
100
AcDbEntity
  8
ZUWAKU
100
AcDbLine
 10
-0.0000004828989404
 20
15.09999996135637
 30
0.0
 11
398.699999517101
 21
15.09999996135637
 31
0.0
  0
LINE
  5
AC6
330
1A
100
AcDbEntity
  8
ZUWAKU
100
AcDbLine
 10
-0.0000004828989404
 20
15.19999996135637
 30
0.0
 11
398.699999517101
 21
15.19999996135637
 31
0.0
  0
LINE
  5
AC7
330
1A
100
AcDbEntity
  8
ZUWAKU
100
AcDbLine
 10
-0.0000004828989404
 20
15.29999996135637
 30
0.0
 11
398.699999517101
 21
15.29999996135637
 31
0.0
  0
LINE
  5
AC8
330
1A
100
AcDbEntity
  8
ZUWAKU
100
AcDbLine
 10
-0.0000004828989404
 20
15.39999996135637
 30
0.0
 11
398.699999517101
 21
15.39999996135637
 31
0.0
  0
LINE
  5
AC9
330
1A
100
AcDbEntity
  8
ZUWAKU
100
AcDbLine
 10
104.3233001621351
 20
7.699999961356383
 30
0.0
 11
223.7121815025968
 21
7.699999961356383
 31
0.0
  0
LINE
  5
ACA
330
1A
100
AcDbEntity
  8
ZUWAKU
100
AcDbLine
 10
104.3233001621351
 20
7.799999961356383
 30
0.0
 11
223.7121815025968
 21
7.799999961356386
 31
0.0
  0
LINE
  5
ACB
330
1A
100
AcDbEntity
  8
ZUWAKU
100
AcDbLine
 10
104.3233001621351
 20
7.599999961356385
 30
0.0
 11
223.7121815025968
 21
7.599999961356382
 31
0.0
  0
TEXT
  5
ACC
330
1A
100
AcDbEntity
  8
moji
100
AcDbText
 10
46.47889431118563
 20
6.370589026493747
 30
0.0
 40
3.0
  1
アーバントップΣ９０
 41
0.9
  7
ｽﾀｲﾙ1
100
AcDbText
  0
CIRCLE
  5
ACD
330
1A
100
AcDbEntity
  8
ZUWAKU
100
AcDbCircle
 10
12.99610559449161
 20
7.599999961356367
 30
0.0
 40
0.875
  0
LINE
  5
ACE
330
1A
100
AcDbEntity
  8
ZUWAKU
100
AcDbLine
 10
13.43360559449161
 20
3.574999961356369
 30
0.0
 11
12.47110559449163
 21
3.574999961356369
 31
0.0
  0
LINE
  5
ACF
330
1A
100
AcDbEntity
  8
ZUWAKU
100
AcDbLine
 10
12.47110559449163
 20
4.974999961356367
 30
0.0
 11
13.43360559449161
 21
4.974999961356367
 31
0.0
  0
LINE
  5
AD0
330
1A
100
AcDbEntity
  8
ZUWAKU
100
AcDbLine
 10
13.43360559449161
 20
10.22499996135637
 30
0.0
 11
12.47110559449163
 21
10.22499996135637
 31
0.0
  0
LINE
  5
AD1
330
1A
100
AcDbEntity
  8
ZUWAKU
100
AcDbLine
 10
12.47110559449163
 20
11.62499996135635
 30
0.0
 11
13.43360559449161
 21
11.62499996135637
 31
0.0
  0
HATCH
  5
AD2
330
1A
100
AcDbEntity
  8
ZUWAKU
100
AcDbHatch
 10
0.0
 20
0.0
 30
0.0
210
0.0
220
0.0
230
1.0
  2
ANSI37
 70
     0
 71
     0
 91
        8
 92
        7
 72
     1
 73
     1
 93
       24
 10
7.251130847660988
 20
8.822424201848158
 42
-0.1989123673796348
 10
7.046105594491621
 20
9.317398948678683
 42
0.0
 10
7.046105594491621
 20
9.962499961356372
 42
-0.4142135623730912
 10
7.30860559449161
 20
10.22499996135637
 42
0.0
 10
8.796105594491564
 20
10.22499996135637
 42
0.4142135623731546
 10
9.05860559449161
 20
10.48749996135636
 42
0.0
 10
9.05860559449161
 20
11.36249996135637
 42
0.4142135623731586
 10
8.796105594491564
 20
11.62499996135637
 42
0.0
 10
7.046105594491621
 20
11.62499996135637
 42
0.4142135623730928
 10
5.646105594491644
 20
10.22499996135638
 42
0.0
 10
5.646105594491644
 20
9.317398948678747
 42
0.1989123673796619
 10
6.261181353999859
 20
7.832474708186943
 42
0.0
 10
7.716080341322197
 20
6.377575720864614
 42
-0.1989123673796613
 10
7.921105594491621
 20
5.882600974034022
 42
0.0
 10
7.921105594491621
 20
5.237499961356363
 42
-0.4142135623730911
 10
7.658605594491633
 20
4.974999961356367
 42
0.0
 10
6.171105594491678
 20
4.974999961356367
 42
0.4142135623731526
 10
5.908605594491633
 20
4.712499961356373
 42
0.0
 10
5.908605594491633
 20
3.837499961356363
 42
0.4142135623731526
 10
6.171105594491678
 20
3.574999961356369
 42
0.0
 10
7.921105594491621
 20
3.574999961356369
 42
0.4142135623731044
 10
9.321105594491655
 20
4.974999961356357
 42
0.0
 10
9.321105594491655
 20
5.882600974033993
 42
0.1989123673796604
 10
8.706029834983383
 20
7.367525214525763
 42
0.0
 97
        0
 92
        7
 72
     1
 73
     1
 93
       16
 10
11.77110559449164
 20
9.524999961356372
 42
-0.4142135623730935
 10
12.47110559449163
 20
10.22499996135637
 42
0.0
 10
13.43360559449161
 20
10.22499996135637
 42
0.4142135623731546
 10
13.69610559449166
 20
10.48749996135636
 42
0.0
 10
13.69610559449166
 20
11.36249996135637
 42
0.4142135623730952
 10
13.43360559449167
 20
11.62499996135637
 42
0.0
 10
12.47110559449158
 20
11.62499996135635
 42
0.4142135623730892
 10
10.37110559449161
 20
9.524999961356336
 42
0.0
 10
10.37110559449161
 20
5.674999961356381
 42
0.4142135623730969
 10
12.47110559449163
 20
3.574999961356369
 42
0.0
 10
13.43360559449161
 20
3.574999961356369
 42
0.4142135623731526
 10
13.69610559449166
 20
3.837499961356363
 42
0.0
 10
13.69610559449166
 20
4.712499961356373
 42
0.414213562373089
 10
13.43360559449167
 20
4.974999961356367
 42
0.0
 10
12.47110559449163
 20
4.974999961356367
 42
-0.4142135623730928
 10
11.77110559449164
 20
5.674999961356361
 42
0.0
 97
        0
 92
        7
 72
     1
 73
     1
 93
        2
 10
12.12110559449161
 20
7.599999961356367
 42
1.0
 10
13.87110559449161
 20
7.599999961356367
 42
1.0
 97
        0
 92
        7
 72
     1
 73
     1
 93
       26
 10
18.65742883558062
 20
9.602523558138081
 42
0.0
 10
19.18824865214953
 20
11.28345297727288
 42
0.5069206636600134
 10
18.93793320255185
 20
11.62499996135637
 42
0.0
 10
18.08848851274723
 20
11.62499996135637
 42
0.3272098845218764
 10
17.83817306314955
 20
11.44154694543985
 42
0.0
 10
16.90403812583367
 20
8.483452977272908
 42
-0.3272098845219541
 10
16.65372267623593
 20
8.299999961356367
 42
0.0
 10
16.5836055944917
 20
8.299999961356367
 42
-0.4142135623731526
 10
16.32110559449166
 20
8.562499961356361
 42
0.0
 10
16.32110559449166
 20
11.36249996135637
 42
0.4142135623730952
 10
16.05860559449167
 20
11.62499996135637
 42
0.0
 10
15.18360559449161
 20
11.62499996135637
 42
0.4142135623730872
 10
14.92110559449162
 20
11.36249996135638
 42
0.0
 10
14.92110559449162
 20
3.837499961356363
 42
0.414213562373089
 10
15.18360559449161
 20
3.574999961356369
 42
0.0
 10
16.05860559449161
 20
3.574999961356369
 42
0.4142135623731526
 10
16.32110559449166
 20
3.837499961356363
 42
0.0
 10
16.32110559449166
 20
6.637499961356374
 42
-0.4142135623731526
 10
16.5836055944917
 20
6.899999961356368
 42
0.0
 10
16.65372267623599
 20
6.899999961356368
 42
-0.3272098845218915
 10
16.90403812583367
 20
6.716546945439831
 42
0.0
 10
17.83817306314955
 20
3.758452977272905
 42
0.3272098845218902
 10
18.08848851274723
 20
3.574999961356369
 42
0.0
 10
18.93793320255185
 20
3.574999961356369
 42
0.5069206636600334
 10
19.18824865214953
 20
3.916546945439873
 42
0.0
 10
18.0250529629127
 20
7.599999961356437
 42
0.0
 97
        0
 92
        7
 72
     1
 73
     1
 93
        8
 10
21.74610559449161
 20
11.36249996135637
 42
0.4142135623731546
 10
21.48360559449156
 20
11.62499996135637
 42
0.0
 10
20.60860559449168
 20
11.62499996135637
 42
0.4142135623731506
 10
20.34610559449163
 20
11.36249996135638
 42
0.0
 10
20.34610559449163
 20
3.837499961356363
 42
0.4142135623731526
 10
20.60860559449168
 20
3.574999961356369
 42
0.0
 10
21.48360559449156
 20
3.574999961356369
 42
0.4142135623731526
 10
21.74610559449161
 20
3.837499961356363
 42
0.0
 97
        0
 92
        7
 72
     1
 73
     1
 93
       24
 10
24.19610559449166
 20
9.962499961356372
 42
-0.4142135623731547
 10
24.4586055944917
 20
10.22499996135637
 42
0.0
 10
25.94610559449166
 20
10.22499996135637
 42
0.4142135623730911
 10
26.20860559449164
 20
10.48749996135636
 42
0.0
 10
26.20860559449164
 20
11.36249996135637
 42
0.4142135623730952
 10
25.94610559449166
 20
11.62499996135637
 42
0.0
 10
24.19610559449166
 20
11.62499996135637
 42
0.4142135623731048
 10
22.79610559449162
 20
10.22499996135638
 42
0.0
 10
22.79610559449162
 20
9.317398948678747
 42
0.1989123673796613
 10
23.41118135399989
 20
7.832474708186972
 42
0.0
 10
24.86608034132223
 20
6.377575720864638
 42
-0.1989123673796402
 10
25.07110559449166
 20
5.882600974034101
 42
0.0
 10
25.07110559449166
 20
5.237499961356363
 42
-0.4142135623730911
 10
24.80860559449167
 20
4.974999961356367
 42
0.0
 10
23.32110559449166
 20
4.974999961356367
 42
0.4142135623731526
 10
23.05860559449161
 20
4.712499961356373
 42
0.0
 10
23.05860559449161
 20
3.837499961356363
 42
0.414213562373089
 10
23.3211055944916
 20
3.574999961356369
 42
0.0
 10
25.07110559449166
 20
3.574999961356369
 42
0.4142135623730925
 10
26.47110559449163
 20
4.974999961356357
 42
0.0
 10
26.47110559449163
 20
5.882600974033993
 42
0.1989123673796675
 10
25.85602983498336
 20
7.36752521452582
 42
0.0
 10
24.40113084766108
 20
8.822424201848078
 42
-0.1989123673796653
 10
24.19610559449166
 20
9.317398948678662
 42
0.0
 97
        0
 92
        7
 72
     1
 73
     1
 93
       16
 10
28.92110559449162
 20
11.36249996135636
 42
0.414213562373103
 10
28.65860559449163
 20
11.62499996135637
 42
0.0
 10
27.78360559449163
 20
11.62499996135637
 42
0.4142135623730872
 10
27.52110559449164
 20
11.36249996135638
 42
0.0
 10
27.52110559449164
 20
4.974999961356357
 42
0.4142135623730925
 10
28.92110559449162
 20
3.574999961356369
 42
0.0
 10
30.67110559449162
 20
3.574999961356369
 42
0.4142135623731044
 10
32.07110559449166
 20
4.974999961356357
 42
0.0
 10
32.07110559449166
 20
11.36249996135637
 42
0.4142135623730952
 10
31.80860559449167
 20
11.62499996135637
 42
0.0
 10
30.93360559449161
 20
11.62499996135637
 42
0.4142135623730872
 10
30.67110559449162
 20
11.36249996135638
 42
0.0
 10
30.67110559449162
 20
5.499999961356355
 42
-0.414213562373088
 10
30.14610559449164
 20
4.974999961356367
 42
0.0
 10
29.44610559449166
 20
4.974999961356367
 42
-0.4142135623731197
 10
28.92110559449162
 20
5.499999961356355
 42
0.0
 97
        0
 92
        7
 72
     1
 73
     1
 93
        8
 10
34.52110559449164
 20
11.36249996135638
 42
0.4142135623730872
 10
34.25860559449166
 20
11.62499996135637
 42
0.0
 10
33.38360559449166
 20
11.62499996135637
 42
0.4142135623731506
 10
33.12110559449161
 20
11.36249996135638
 42
0.0
 10
33.12110559449161
 20
3.837499961356363
 42
0.414213562373089
 10
33.3836055944916
 20
3.574999961356369
 42
0.0
 10
34.25860559449166
 20
3.574999961356369
 42
0.414213562373089
 10
34.52110559449164
 20
3.837499961356363
 42
0.0
 97
        0
 75
     0
 76
     1
 52
0.0
 41
0.1
 77
     0
 78
     2
 53
45.0
 43
-450.4711526502384
 44
-6.6000000386436
 45
-0.2245064030267288
 46
0.2245064030267289
 79
     0
 53
135.0
 43
-450.4711526502384
 44
-6.6000000386436
 45
-0.2245064030267289
 46
-0.2245064030267288
 79
     0
 47
0.057451373970553
 98
        8
 10
8.039926998612714
 20
7.583586784299143
 10
11.20225702032064
 20
9.422031052581872
 10
12.58218345993089
 20
7.755940784391726
 10
15.45702950791963
 20
8.100648784577118
 10
20.91923552657943
 20
8.330454918347925
 10
23.44909996466583
 20
9.709288119559972
 10
28.27884250330124
 20
9.364578918903874
 10
33.91353932691243
 20
9.594385052674681
  0
ARC
  5
AD3
330
1A
100
AcDbEntity
  8
ZUWAKU
100
AcDbCircle
 10
7.74610559449161
 20
9.317398948678719
 30
0.0
 40
2.1
100
AcDbArc
 50
180.0
 51
225.0
  0
LINE
  5
AD4
330
1A
100
AcDbEntity
  8
ZUWAKU
100
AcDbLine
 10
10.37110559449161
 20
5.67499996135637
 30
0.0
 11
10.37110559449161
 21
9.524999961356347
 31
0.0
  0
LINE
  5
AD5
330
1A
100
AcDbEntity
  8
ZUWAKU
100
AcDbLine
 10
11.77110559449164
 20
9.524999961356368
 30
0.0
 11
11.77110559449164
 21
5.67499996135637
 31
0.0
  0
ARC
  5
AD6
330
1A
100
AcDbEntity
  8
ZUWAKU
100
AcDbCircle
 10
7.74610559449161
 20
9.317398948678719
 30
0.0
 40
0.7
100
AcDbArc
 50
180.0000000000016
 51
224.9999999999988
  0
ARC
  5
AD7
330
1A
100
AcDbEntity
  8
ZUWAKU
100
AcDbCircle
 10
12.47110559449163
 20
5.67499996135637
 30
0.0
 40
2.1
100
AcDbArc
 50
180.0
 51
270.0
  0
ARC
  5
AD8
330
1A
100
AcDbEntity
  8
ZUWAKU
100
AcDbCircle
 10
7.921105594491621
 20
4.974999961356367
 30
0.0
 40
1.4
100
AcDbArc
 50
270.0
 51
0.0
  0
ARC
  5
AD9
330
1A
100
AcDbEntity
  8
ZUWAKU
100
AcDbCircle
 10
7.221105594491633
 20
5.88260097403402
 30
0.0
 40
2.1
100
AcDbArc
 50
0.0
 51
45.0
  0
LINE
  5
ADA
330
1A
100
AcDbEntity
  8
ZUWAKU
100
AcDbLine
 10
6.261181353999859
 20
7.832474708186958
 30
0.0
 11
7.716080341322197
 21
6.377575720864627
 31
0.0
  0
LINE
  5
ADB
330
1A
100
AcDbEntity
  8
ZUWAKU
100
AcDbLine
 10
6.171105594491621
 20
4.974999961356367
 30
0.0
 11
7.658605594491633
 21
4.974999961356367
 31
0.0
  0
LINE
  5
ADC
330
1A
100
AcDbEntity
  8
ZUWAKU
100
AcDbLine
 10
6.171105594491621
 20
3.574999961356369
 30
0.0
 11
7.921105594491621
 21
3.574999961356369
 31
0.0
  0
ARC
  5
ADD
330
1A
100
AcDbEntity
  8
ZUWAKU
100
AcDbCircle
 10
6.171105594491621
 20
4.712499961356368
 30
0.0
 40
0.2625
100
AcDbArc
 50
90.0
 51
180.0
  0
ARC
  5
ADE
330
1A
100
AcDbEntity
  8
ZUWAKU
100
AcDbCircle
 10
6.171105594491621
 20
3.837499961356368
 30
0.0
 40
0.2625
100
AcDbArc
 50
180.0
 51
270.0
  0
LINE
  5
ADF
330
1A
100
AcDbEntity
  8
ZUWAKU
100
AcDbLine
 10
5.908605594491633
 20
3.837499961356368
 30
0.0
 11
5.908605594491633
 21
4.712499961356368
 31
0.0
  0
ARC
  5
AE0
330
1A
100
AcDbEntity
  8
ZUWAKU
100
AcDbCircle
 10
7.221105594491633
 20
5.882600974034041
 30
0.0
 40
0.7
100
AcDbArc
 50
0.0
 51
45.0
  0
ARC
  5
AE1
330
1A
100
AcDbEntity
  8
ZUWAKU
100
AcDbCircle
 10
7.658605594491633
 20
5.23749996135637
 30
0.0
 40
0.2625
100
AcDbArc
 50
270.0
 51
0.0
  0
LINE
  5
AE2
330
1A
100
AcDbEntity
  8
ZUWAKU
100
AcDbLine
 10
7.921105594491621
 20
5.23749996135637
 30
0.0
 11
7.921105594491621
 21
5.882600974034041
 31
0.0
  0
LINE
  5
AE3
330
1A
100
AcDbEntity
  8
ZUWAKU
100
AcDbLine
 10
8.706029834983383
 20
7.367525214525781
 30
0.0
 11
7.251130847661045
 21
8.822424201848119
 31
0.0
  0
ARC
  5
AE4
330
1A
100
AcDbEntity
  8
ZUWAKU
100
AcDbCircle
 10
12.47110559449163
 20
5.67499996135637
 30
0.0
 40
0.7
100
AcDbArc
 50
180.0
 51
270.0
  0
LINE
  5
AE5
330
1A
100
AcDbEntity
  8
ZUWAKU
100
AcDbLine
 10
9.321105594491655
 20
4.974999961356367
 30
0.0
 11
9.321105594491655
 21
5.882600974034041
 31
0.0
  0
ARC
  5
AE6
330
1A
100
AcDbEntity
  8
ZUWAKU
100
AcDbCircle
 10
8.796105594491621
 20
10.48749996135637
 30
0.0
 40
0.2625
100
AcDbArc
 50
270.0
 51
0.0
  0
ARC
  5
AE7
330
1A
100
AcDbEntity
  8
ZUWAKU
100
AcDbCircle
 10
8.796105594491621
 20
11.36249996135637
 30
0.0
 40
0.2625
100
AcDbArc
 50
0.0
 51
90.0
  0
ARC
  5
AE8
330
1A
100
AcDbEntity
  8
ZUWAKU
100
AcDbCircle
 10
7.046105594491621
 20
10.22499996135637
 30
0.0
 40
1.4
100
AcDbArc
 50
90.0
 51
180.0
  0
LINE
  5
AE9
330
1A
100
AcDbEntity
  8
ZUWAKU
100
AcDbLine
 10
5.646105594491644
 20
10.22499996135637
 30
0.0
 11
5.646105594491644
 21
9.317398948678697
 31
0.0
  0
LINE
  5
AEA
330
1A
100
AcDbEntity
  8
ZUWAKU
100
AcDbLine
 10
8.796105594491621
 20
10.22499996135637
 30
0.0
 11
7.30860559449161
 21
10.22499996135637
 31
0.0
  0
LINE
  5
AEB
330
1A
100
AcDbEntity
  8
ZUWAKU
100
AcDbLine
 10
7.046105594491621
 20
9.962499961356368
 30
0.0
 11
7.046105594491621
 21
9.317398948678697
 31
0.0
  0
ARC
  5
AEC
330
1A
100
AcDbEntity
  8
ZUWAKU
100
AcDbCircle
 10
7.30860559449161
 20
9.962499961356368
 30
0.0
 40
0.2625
100
AcDbArc
 50
90.0
 51
180.0
  0
LINE
  5
AED
330
1A
100
AcDbEntity
  8
ZUWAKU
100
AcDbLine
 10
7.046105594491621
 20
11.62499996135637
 30
0.0
 11
8.796105594491621
 21
11.62499996135637
 31
0.0
  0
ARC
  5
AEE
330
1A
100
AcDbEntity
  8
ZUWAKU
100
AcDbCircle
 10
12.47110559449163
 20
9.524999961356347
 30
0.0
 40
2.1
100
AcDbArc
 50
90.0
 51
180.0
  0
ARC
  5
AEF
330
1A
100
AcDbEntity
  8
ZUWAKU
100
AcDbCircle
 10
12.47110559449163
 20
9.524999961356368
 30
0.0
 40
0.7
100
AcDbArc
 50
90.0
 51
180.0
  0
LINE
  5
AF0
330
1A
100
AcDbEntity
  8
ZUWAKU
100
AcDbLine
 10
9.05860559449161
 20
11.36249996135637
 30
0.0
 11
9.05860559449161
 21
10.48749996135637
 31
0.0
  0
LINE
  5
AF1
330
1A
100
AcDbEntity
  8
ZUWAKU
100
AcDbLine
 10
17.83817306314955
 20
11.44154694543985
 30
0.0
 11
16.90403812583367
 21
8.483452977272883
 31
0.0
  0
LINE
  5
AF2
330
1A
100
AcDbEntity
  8
ZUWAKU
100
AcDbLine
 10
14.92110559449162
 20
11.36249996135637
 30
0.0
 11
14.92110559449162
 21
3.837499961356368
 31
0.0
  0
LINE
  5
AF3
330
1A
100
AcDbEntity
  8
ZUWAKU
100
AcDbLine
 10
16.32110559449166
 20
8.56249996135637
 30
0.0
 11
16.32110559449166
 21
11.36249996135637
 31
0.0
  0
LINE
  5
AF4
330
1A
100
AcDbEntity
  8
ZUWAKU
100
AcDbLine
 10
28.92110559449162
 20
5.499999961356366
 30
0.0
 11
28.92110559449162
 21
11.36249996135637
 31
0.0
  0
LINE
  5
AF5
330
1A
100
AcDbEntity
  8
ZUWAKU
100
AcDbLine
 10
27.52110559449164
 20
11.36249996135637
 30
0.0
 11
27.52110559449164
 21
4.974999961356367
 31
0.0
  0
LINE
  5
AF6
330
1A
100
AcDbEntity
  8
ZUWAKU
100
AcDbLine
 10
21.74610559449161
 20
3.837499961356368
 30
0.0
 11
21.74610559449161
 21
11.36249996135637
 31
0.0
  0
LINE
  5
AF7
330
1A
100
AcDbEntity
  8
ZUWAKU
100
AcDbLine
 10
20.34610559449163
 20
11.36249996135637
 30
0.0
 11
20.34610559449163
 21
3.837499961356368
 31
0.0
  0
LINE
  5
AF8
330
1A
100
AcDbEntity
  8
ZUWAKU
100
AcDbLine
 10
18.65742883558062
 20
9.602523558138081
 30
0.0
 11
18.0250529629127
 21
7.599999961356378
 31
0.0
  0
ARC
  5
AF9
330
1A
100
AcDbEntity
  8
ZUWAKU
100
AcDbCircle
 10
24.89610559449164
 20
9.317398948678719
 30
0.0
 40
2.1
100
AcDbArc
 50
180.0
 51
225.0
  0
ARC
  5
AFA
330
1A
100
AcDbEntity
  8
ZUWAKU
100
AcDbCircle
 10
24.89610559449164
 20
9.317398948678719
 30
0.0
 40
0.7
100
AcDbArc
 50
180.0000000000016
 51
224.9999999999988
  0
LINE
  5
AFB
330
1A
100
AcDbEntity
  8
ZUWAKU
100
AcDbLine
 10
33.12110559449161
 20
11.36249996135637
 30
0.0
 11
33.12110559449161
 21
3.837499961356368
 31
0.0
  0
LINE
  5
AFC
330
1A
100
AcDbEntity
  8
ZUWAKU
100
AcDbLine
 10
34.52110559449164
 20
3.837499961356368
 30
0.0
 11
34.52110559449164
 21
11.36249996135637
 31
0.0
  0
LINE
  5
AFD
330
1A
100
AcDbEntity
  8
ZUWAKU
100
AcDbLine
 10
30.67110559449162
 20
11.36249996135637
 30
0.0
 11
30.67110559449162
 21
5.499999961356366
 31
0.0
  0
LINE
  5
AFE
330
1A
100
AcDbEntity
  8
ZUWAKU
100
AcDbLine
 10
32.07110559449166
 20
4.974999961356367
 30
0.0
 11
32.07110559449166
 21
11.36249996135637
 31
0.0
  0
LINE
  5
AFF
330
1A
100
AcDbEntity
  8
ZUWAKU
100
AcDbLine
 10
39.56331429109525
 20
14.99999996135637
 30
0.0
 11
39.56331429109525
 21
0.3999999613564
 31
0.0
  0
LINE
  5
B00
330
1A
100
AcDbEntity
  8
ZUWAKU
100
AcDbLine
 10
39.76331429109519
 20
14.99999996135637
 30
0.0
 11
39.7633142910953
 21
0.3999999613564
 31
0.0
  0
LINE
  5
B01
330
1A
100
AcDbEntity
  8
ZUWAKU
100
AcDbLine
 10
39.66331429109516
 20
14.99999996135637
 30
0.0
 11
39.66331429109528
 21
0.3999999613564
 31
0.0
  0
LINE
  5
B02
330
1A
100
AcDbEntity
  8
ZUWAKU
100
AcDbLine
 10
28.92110559449162
 20
3.574999961356369
 30
0.0
 11
30.67110559449162
 21
3.574999961356369
 31
0.0
  0
LINE
  5
B03
330
1A
100
AcDbEntity
  8
ZUWAKU
100
AcDbLine
 10
30.14610559449164
 20
4.974999961356367
 30
0.0
 11
29.44610559449166
 21
4.974999961356367
 31
0.0
  0
LINE
  5
B04
330
1A
100
AcDbEntity
  8
ZUWAKU
100
AcDbLine
 10
20.60860559449162
 20
3.574999961356369
 30
0.0
 11
21.48360559449162
 21
3.574999961356369
 31
0.0
  0
LINE
  5
B05
330
1A
100
AcDbEntity
  8
ZUWAKU
100
AcDbLine
 10
17.83817306314955
 20
3.758452977272881
 30
0.0
 11
16.90403812583367
 21
6.716546945439852
 31
0.0
  0
ARC
  5
B06
330
1A
100
AcDbEntity
  8
ZUWAKU
100
AcDbCircle
 10
16.58360559449164
 20
6.637499961356369
 30
0.0
 40
0.2625
100
AcDbArc
 50
90.0
 51
180.0
  0
ARC
  5
B07
330
1A
100
AcDbEntity
  8
ZUWAKU
100
AcDbCircle
 10
16.65372267623599
 20
6.637499961356369
 30
0.0
 40
0.2625
100
AcDbArc
 50
17.52556837372303
 51
90.0
  0
ARC
  5
B08
330
1A
100
AcDbEntity
  8
ZUWAKU
100
AcDbCircle
 10
15.18360559449161
 20
3.837499961356368
 30
0.0
 40
0.2625
100
AcDbArc
 50
180.0
 51
270.0
  0
ARC
  5
B09
330
1A
100
AcDbEntity
  8
ZUWAKU
100
AcDbCircle
 10
13.43360559449161
 20
4.712499961356368
 30
0.0
 40
0.2625
100
AcDbArc
 50
0.0
 51
90.0
  0
ARC
  5
B0A
330
1A
100
AcDbEntity
  8
ZUWAKU
100
AcDbCircle
 10
13.43360559449161
 20
3.837499961356368
 30
0.0
 40
0.2625
100
AcDbArc
 50
270.0
 51
0.0
  0
LINE
  5
B0B
330
1A
100
AcDbEntity
  8
ZUWAKU
100
AcDbLine
 10
13.69610559449166
 20
4.712499961356368
 30
0.0
 11
13.69610559449166
 21
3.837499961356368
 31
0.0
  0
LINE
  5
B0C
330
1A
100
AcDbEntity
  8
ZUWAKU
100
AcDbLine
 10
16.32110559449166
 20
3.837499961356368
 30
0.0
 11
16.32110559449166
 21
6.637499961356369
 31
0.0
  0
ARC
  5
B0D
330
1A
100
AcDbEntity
  8
ZUWAKU
100
AcDbCircle
 10
16.05860559449161
 20
3.837499961356368
 30
0.0
 40
0.2625
100
AcDbArc
 50
270.0
 51
0.0
  0
LINE
  5
B0E
330
1A
100
AcDbEntity
  8
ZUWAKU
100
AcDbLine
 10
15.18360559449161
 20
3.574999961356369
 30
0.0
 11
16.05860559449161
 21
3.574999961356369
 31
0.0
  0
ARC
  5
B0F
330
1A
100
AcDbEntity
  8
ZUWAKU
100
AcDbCircle
 10
16.58360559449164
 20
8.56249996135637
 30
0.0
 40
0.2625
100
AcDbArc
 50
180.0
 51
270.0
  0
LINE
  5
B10
330
1A
100
AcDbEntity
  8
ZUWAKU
100
AcDbLine
 10
16.58360559449164
 20
6.899999961356368
 30
0.0
 11
16.65372267623599
 21
6.899999961356368
 31
0.0
  0
LINE
  5
B11
330
1A
100
AcDbEntity
  8
ZUWAKU
100
AcDbLine
 10
16.65372267623599
 20
8.299999961356367
 30
0.0
 11
16.58360559449164
 21
8.299999961356367
 31
0.0
  0
ARC
  5
B12
330
1A
100
AcDbEntity
  8
ZUWAKU
100
AcDbCircle
 10
16.65372267623599
 20
8.56249996135637
 30
0.0
 40
0.2625
100
AcDbArc
 50
270.0
 51
342.474431626277
  0
ARC
  5
B13
330
1A
100
AcDbEntity
  8
ZUWAKU
100
AcDbCircle
 10
18.08848851274729
 20
3.837499961356368
 30
0.0
 40
0.2625
100
AcDbArc
 50
197.525568373723
 51
270.0
  0
LINE
  5
B14
330
1A
100
AcDbEntity
  8
ZUWAKU
100
AcDbLine
 10
19.18824865214953
 20
3.916546945439855
 30
0.0
 11
18.0250529629127
 21
7.599999961356378
 31
0.0
  0
ARC
  5
B15
330
1A
100
AcDbEntity
  8
ZUWAKU
100
AcDbCircle
 10
18.93793320255179
 20
3.837499961356368
 30
0.0
 40
0.2625
100
AcDbArc
 50
270.0
 51
17.52556837372303
  0
LINE
  5
B16
330
1A
100
AcDbEntity
  8
ZUWAKU
100
AcDbLine
 10
18.08848851274729
 20
3.574999961356369
 30
0.0
 11
18.93793320255179
 21
3.574999961356369
 31
0.0
  0
ARC
  5
B17
330
1A
100
AcDbEntity
  8
ZUWAKU
100
AcDbCircle
 10
20.60860559449162
 20
3.837499961356368
 30
0.0
 40
0.2625
100
AcDbArc
 50
180.0
 51
270.0
  0
ARC
  5
B18
330
1A
100
AcDbEntity
  8
ZUWAKU
100
AcDbCircle
 10
25.07110559449166
 20
4.974999961356367
 30
0.0
 40
1.4
100
AcDbArc
 50
270.0
 51
0.0
  0
ARC
  5
B19
330
1A
100
AcDbEntity
  8
ZUWAKU
100
AcDbCircle
 10
28.92110559449162
 20
4.974999961356367
 30
0.0
 40
1.4
100
AcDbArc
 50
180.0
 51
270.0
  0
LINE
  5
B1A
330
1A
100
AcDbEntity
  8
ZUWAKU
100
AcDbLine
 10
25.85602983498342
 20
7.367525214525781
 30
0.0
 11
24.40113084766102
 21
8.822424201848119
 31
0.0
  0
LINE
  5
B1B
330
1A
100
AcDbEntity
  8
ZUWAKU
100
AcDbLine
 10
23.41118135399989
 20
7.832474708186958
 30
0.0
 11
24.86608034132223
 21
6.377575720864627
 31
0.0
  0
LINE
  5
B1C
330
1A
100
AcDbEntity
  8
ZUWAKU
100
AcDbLine
 10
23.32110559449166
 20
3.574999961356369
 30
0.0
 11
25.07110559449166
 21
3.574999961356369
 31
0.0
  0
LINE
  5
B1D
330
1A
100
AcDbEntity
  8
ZUWAKU
100
AcDbLine
 10
23.32110559449166
 20
4.974999961356367
 30
0.0
 11
24.80860559449161
 21
4.974999961356367
 31
0.0
  0
ARC
  5
B1E
330
1A
100
AcDbEntity
  8
ZUWAKU
100
AcDbCircle
 10
23.32110559449166
 20
4.712499961356368
 30
0.0
 40
0.2625
100
AcDbArc
 50
90.0
 51
180.0
  0
ARC
  5
B1F
330
1A
100
AcDbEntity
  8
ZUWAKU
100
AcDbCircle
 10
21.48360559449162
 20
3.837499961356368
 30
0.0
 40
0.2625
100
AcDbArc
 50
270.0
 51
0.0
  0
ARC
  5
B20
330
1A
100
AcDbEntity
  8
ZUWAKU
100
AcDbCircle
 10
23.32110559449166
 20
3.837499961356368
 30
0.0
 40
0.2625
100
AcDbArc
 50
180.0
 51
270.0
  0
LINE
  5
B21
330
1A
100
AcDbEntity
  8
ZUWAKU
100
AcDbLine
 10
23.05860559449161
 20
3.837499961356368
 30
0.0
 11
23.05860559449161
 21
4.712499961356368
 31
0.0
  0
ARC
  5
B22
330
1A
100
AcDbEntity
  8
ZUWAKU
100
AcDbCircle
 10
24.80860559449161
 20
5.23749996135637
 30
0.0
 40
0.2625
100
AcDbArc
 50
270.0
 51
0.0
  0
ARC
  5
B23
330
1A
100
AcDbEntity
  8
ZUWAKU
100
AcDbCircle
 10
24.37110559449161
 20
5.882600974034041
 30
0.0
 40
0.7
100
AcDbArc
 50
0.0
 51
45.0
  0
LINE
  5
B24
330
1A
100
AcDbEntity
  8
ZUWAKU
100
AcDbLine
 10
25.07110559449166
 20
5.23749996135637
 30
0.0
 11
25.07110559449166
 21
5.882600974034041
 31
0.0
  0
ARC
  5
B25
330
1A
100
AcDbEntity
  8
ZUWAKU
100
AcDbCircle
 10
29.44610559449166
 20
5.499999961356366
 30
0.0
 40
0.5249999999999999
100
AcDbArc
 50
180.0
 51
270.0
  0
ARC
  5
B26
330
1A
100
AcDbEntity
  8
ZUWAKU
100
AcDbCircle
 10
24.37110559449161
 20
5.88260097403402
 30
0.0
 40
2.1
100
AcDbArc
 50
0.0
 51
45.0
  0
LINE
  5
B27
330
1A
100
AcDbEntity
  8
ZUWAKU
100
AcDbLine
 10
26.47110559449163
 20
4.974999961356367
 30
0.0
 11
26.47110559449163
 21
5.882600974034041
 31
0.0
  0
ARC
  5
B28
330
1A
100
AcDbEntity
  8
ZUWAKU
100
AcDbCircle
 10
30.67110559449162
 20
4.974999961356367
 30
0.0
 40
1.4
100
AcDbArc
 50
270.0
 51
0.0
  0
LINE
  5
B29
330
1A
100
AcDbEntity
  8
ZUWAKU
100
AcDbLine
 10
33.38360559449166
 20
3.574999961356369
 30
0.0
 11
34.25860559449166
 21
3.574999961356369
 31
0.0
  0
ARC
  5
B2A
330
1A
100
AcDbEntity
  8
ZUWAKU
100
AcDbCircle
 10
30.14610559449164
 20
5.499999961356366
 30
0.0
 40
0.5249999999999999
100
AcDbArc
 50
270.0
 51
0.0
  0
ARC
  5
B2B
330
1A
100
AcDbEntity
  8
ZUWAKU
100
AcDbCircle
 10
33.38360559449166
 20
3.837499961356368
 30
0.0
 40
0.2625
100
AcDbArc
 50
180.0
 51
270.0
  0
ARC
  5
B2C
330
1A
100
AcDbEntity
  8
ZUWAKU
100
AcDbCircle
 10
34.25860559449166
 20
3.837499961356368
 30
0.0
 40
0.2625
100
AcDbArc
 50
270.0
 51
0.0
  0
LINE
  5
B2D
330
1A
100
AcDbEntity
  8
ZUWAKU
100
AcDbLine
 10
21.48360559449162
 20
11.62499996135637
 30
0.0
 11
20.60860559449162
 21
11.62499996135637
 31
0.0
  0
LINE
  5
B2E
330
1A
100
AcDbEntity
  8
ZUWAKU
100
AcDbLine
 10
13.69610559449166
 20
11.36249996135637
 30
0.0
 11
13.69610559449166
 21
10.48749996135637
 31
0.0
  0
ARC
  5
B2F
330
1A
100
AcDbEntity
  8
ZUWAKU
100
AcDbCircle
 10
13.43360559449161
 20
10.48749996135637
 30
0.0
 40
0.2625
100
AcDbArc
 50
270.0
 51
0.0
  0
ARC
  5
B30
330
1A
100
AcDbEntity
  8
ZUWAKU
100
AcDbCircle
 10
15.18360559449161
 20
11.36249996135637
 30
0.0
 40
0.2625
100
AcDbArc
 50
90.0
 51
180.0
  0
ARC
  5
B31
330
1A
100
AcDbEntity
  8
ZUWAKU
100
AcDbCircle
 10
13.43360559449161
 20
11.36249996135637
 30
0.0
 40
0.2625
100
AcDbArc
 50
0.0
 51
90.0
  0
LINE
  5
B32
330
1A
100
AcDbEntity
  8
ZUWAKU
100
AcDbLine
 10
16.05860559449161
 20
11.62499996135637
 30
0.0
 11
15.18360559449161
 21
11.62499996135637
 31
0.0
  0
ARC
  5
B33
330
1A
100
AcDbEntity
  8
ZUWAKU
100
AcDbCircle
 10
16.05860559449161
 20
11.36249996135637
 30
0.0
 40
0.2625
100
AcDbArc
 50
0.0
 51
90.0
  0
ARC
  5
B34
330
1A
100
AcDbEntity
  8
ZUWAKU
100
AcDbCircle
 10
18.08848851274729
 20
11.36249996135637
 30
0.0
 40
0.2625
100
AcDbArc
 50
90.0
 51
162.474431626277
  0
LINE
  5
B35
330
1A
100
AcDbEntity
  8
ZUWAKU
100
AcDbLine
 10
19.18824865214953
 20
11.28345297727288
 30
0.0
 11
18.65742883558062
 21
9.602523558138081
 31
0.0
  0
ARC
  5
B36
330
1A
100
AcDbEntity
  8
ZUWAKU
100
AcDbCircle
 10
18.93793320255179
 20
11.36249996135637
 30
0.0
 40
0.2625
100
AcDbArc
 50
342.474431626277
 51
90.0
  0
LINE
  5
B37
330
1A
100
AcDbEntity
  8
ZUWAKU
100
AcDbLine
 10
18.08848851274729
 20
11.62499996135637
 30
0.0
 11
18.93793320255179
 21
11.62499996135637
 31
0.0
  0
ARC
  5
B38
330
1A
100
AcDbEntity
  8
ZUWAKU
100
AcDbCircle
 10
20.60860559449162
 20
11.36249996135637
 30
0.0
 40
0.2625
100
AcDbArc
 50
90.0
 51
180.0
  0
LINE
  5
B39
330
1A
100
AcDbEntity
  8
ZUWAKU
100
AcDbLine
 10
25.94610559449166
 20
10.22499996135637
 30
0.0
 11
24.45860559449164
 21
10.22499996135637
 31
0.0
  0
LINE
  5
B3A
330
1A
100
AcDbEntity
  8
ZUWAKU
100
AcDbLine
 10
24.19610559449166
 20
11.62499996135637
 30
0.0
 11
25.94610559449166
 21
11.62499996135637
 31
0.0
  0
ARC
  5
B3B
330
1A
100
AcDbEntity
  8
ZUWAKU
100
AcDbCircle
 10
24.19610559449166
 20
10.22499996135637
 30
0.0
 40
1.4
100
AcDbArc
 50
90.0
 51
180.0
  0
LINE
  5
B3C
330
1A
100
AcDbEntity
  8
ZUWAKU
100
AcDbLine
 10
22.79610559449162
 20
10.22499996135637
 30
0.0
 11
22.79610559449162
 21
9.317398948678697
 31
0.0
  0
ARC
  5
B3D
330
1A
100
AcDbEntity
  8
ZUWAKU
100
AcDbCircle
 10
21.48360559449162
 20
11.36249996135637
 30
0.0
 40
0.2625
100
AcDbArc
 50
0.0
 51
90.0
  0
LINE
  5
B3E
330
1A
100
AcDbEntity
  8
ZUWAKU
100
AcDbLine
 10
24.19610559449166
 20
9.962499961356368
 30
0.0
 11
24.19610559449166
 21
9.317398948678697
 31
0.0
  0
ARC
  5
B3F
330
1A
100
AcDbEntity
  8
ZUWAKU
100
AcDbCircle
 10
24.45860559449164
 20
9.962499961356368
 30
0.0
 40
0.2625
100
AcDbArc
 50
90.0
 51
180.0
  0
LINE
  5
B40
330
1A
100
AcDbEntity
  8
ZUWAKU
100
AcDbLine
 10
26.20860559449164
 20
11.36249996135637
 30
0.0
 11
26.20860559449164
 21
10.48749996135637
 31
0.0
  0
ARC
  5
B41
330
1A
100
AcDbEntity
  8
ZUWAKU
100
AcDbCircle
 10
25.94610559449166
 20
10.48749996135637
 30
0.0
 40
0.2625
100
AcDbArc
 50
270.0
 51
0.0
  0
ARC
  5
B42
330
1A
100
AcDbEntity
  8
ZUWAKU
100
AcDbCircle
 10
25.94610559449166
 20
11.36249996135637
 30
0.0
 40
0.2625
100
AcDbArc
 50
0.0
 51
90.0
  0
LINE
  5
B43
330
1A
100
AcDbEntity
  8
ZUWAKU
100
AcDbLine
 10
28.65860559449163
 20
11.62499996135637
 30
0.0
 11
27.78360559449163
 21
11.62499996135637
 31
0.0
  0
ARC
  5
B44
330
1A
100
AcDbEntity
  8
ZUWAKU
100
AcDbCircle
 10
27.78360559449163
 20
11.36249996135637
 30
0.0
 40
0.2625
100
AcDbArc
 50
90.0
 51
180.0
  0
ARC
  5
B45
330
1A
100
AcDbEntity
  8
ZUWAKU
100
AcDbCircle
 10
28.65860559449163
 20
11.36249996135637
 30
0.0
 40
0.2625
100
AcDbArc
 50
0.0
 51
90.0
  0
LINE
  5
B46
330
1A
100
AcDbEntity
  8
ZUWAKU
100
AcDbLine
 10
34.25860559449166
 20
11.62499996135637
 30
0.0
 11
33.38360559449166
 21
11.62499996135637
 31
0.0
  0
ARC
  5
B47
330
1A
100
AcDbEntity
  8
ZUWAKU
100
AcDbCircle
 10
30.93360559449161
 20
11.36249996135637
 30
0.0
 40
0.2625
100
AcDbArc
 50
90.0
 51
180.0
  0
LINE
  5
B48
330
1A
100
AcDbEntity
  8
ZUWAKU
100
AcDbLine
 10
31.80860559449161
 20
11.62499996135637
 30
0.0
 11
30.93360559449161
 21
11.62499996135637
 31
0.0
  0
ARC
  5
B49
330
1A
100
AcDbEntity
  8
ZUWAKU
100
AcDbCircle
 10
31.80860559449161
 20
11.36249996135637
 30
0.0
 40
0.2625
100
AcDbArc
 50
0.0
 51
90.0
  0
ARC
  5
B4A
330
1A
100
AcDbEntity
  8
ZUWAKU
100
AcDbCircle
 10
33.38360559449166
 20
11.36249996135637
 30
0.0
 40
0.2625
100
AcDbArc
 50
90.0
 51
180.0
  0
ARC
  5
B4B
330
1A
100
AcDbEntity
  8
ZUWAKU
100
AcDbCircle
 10
34.25860559449166
 20
11.36249996135637
 30
0.0
 40
0.2625
100
AcDbArc
 50
0.0
 51
90.0
  0
LINE
  5
B4C
330
1A
100
AcDbEntity
  8
ZUWAKU
100
AcDbLine
 10
104.2233001621349
 20
14.99999996135637
 30
0.0
 11
104.2233001621351
 21
0.3999999613564
 31
0.0
  0
LINE
  5
B4D
330
1A
100
AcDbEntity
  8
ZUWAKU
100
AcDbLine
 10
104.323300162135
 20
14.99999996135637
 30
0.0
 11
104.3233001621351
 21
0.3999999613564
 31
0.0
  0
LINE
  5
B4E
330
1A
100
AcDbEntity
  8
ZUWAKU
100
AcDbLine
 10
104.123300162135
 20
14.99999996135637
 30
0.0
 11
104.123300162135
 21
0.3999999613564
 31
0.0
  0
TEXT
  5
B4F
330
1A
100
AcDbEntity
  8
moji
100
AcDbText
 10
119.9136008575266
 20
9.002460490060059
 30
0.0
 40
2.8
  1
ブラケット正面打（吊）ワンタッチ自在式
 41
0.9
  7
ｽﾀｲﾙ1
100
AcDbText
  0
TEXT
  5
B50
330
1A
100
AcDbEntity
  8
ZUWAKU
100
AcDbText
 10
104.8620226732398
 20
4.827678230549175
 30
0.0
 40
2.0
  1
サイズ
 41
0.9
  7
ｽﾀｲﾙ1
100
AcDbText
  0
TEXT
  5
B51
330
1A
100
AcDbEntity
  8
moji
100
AcDbText
 10
119.9136008575266
 20
1.602460490060077
 30
0.0
 40
2.8
  1
Σ９０－５－１０～４５
 41
0.9
  7
ｽﾀｲﾙ1
100
AcDbText
  0
TEXT
  5
B52
330
1A
100
AcDbEntity
  8
ZUWAKU
100
AcDbText
 10
104.8620226732397
 20
12.02767823054916
 30
0.0
 40
2.0
  1
品名
 41
0.9
  7
ｽﾀｲﾙ1
100
AcDbText
  0
TEXT
  5
B53
330
1A
100
AcDbEntity
  8
ZUWAKU
100
AcDbText
 10
329.1019683607523
 20
9.002460490060059
 30
0.0
 40
2.8
  1
　　．　　．　　
 41
0.9
  7
ｽﾀｲﾙ1
100
AcDbText
  0
LINE
  5
B54
330
1A
100
AcDbEntity
  8
ZUWAKU
100
AcDbLine
 10
324.4086007722032
 20
7.799999961356383
 30
0.0
 11
348.6245047913717
 21
7.799999961356383
 31
0.0
  0
LINE
  5
B55
330
1A
100
AcDbEntity
  8
ZUWAKU
100
AcDbLine
 10
324.4086007722033
 20
7.699999961356385
 30
0.0
 11
348.6245047913717
 21
7.699999961356383
 31
0.0
  0
LINE
  5
B56
330
1A
100
AcDbEntity
  8
ZUWAKU
100
AcDbLine
 10
324.4086007722032
 20
7.599999961356382
 30
0.0
 11
348.6245047913717
 21
7.599999961356383
 31
0.0
  0
LINE
  5
B57
330
1A
100
AcDbEntity
  8
ZUWAKU
100
AcDbLine
 10
252.5995892661715
 20
7.799999961356383
 30
0.0
 11
276.2634774001573
 21
7.799999961356383
 31
0.0
  0
LINE
  5
B58
330
1A
100
AcDbEntity
  8
ZUWAKU
100
AcDbLine
 10
252.5995892661715
 20
7.699999961356383
 30
0.0
 11
276.2634774001573
 21
7.699999961356383
 31
0.0
  0
LINE
  5
B59
330
1A
100
AcDbEntity
  8
ZUWAKU
100
AcDbLine
 10
252.5995892661715
 20
7.599999961356385
 30
0.0
 11
276.2634774001573
 21
7.599999961356385
 31
0.0
  0
LINE
  5
B5A
330
1A
100
AcDbEntity
  8
ZUWAKU
100
AcDbLine
 10
252.3995892661716
 20
14.99999996135637
 30
0.0
 11
252.3995892661716
 21
0.3999999613564
 31
0.0
  0
LINE
  5
B5B
330
1A
100
AcDbEntity
  8
ZUWAKU
100
AcDbLine
 10
252.5995892661715
 20
14.99999996135637
 30
0.0
 11
252.5995892661716
 21
0.3999999613564
 31
0.0
  0
LINE
  5
B5C
330
1A
100
AcDbEntity
  8
ZUWAKU
100
AcDbLine
 10
252.4995892661715
 20
14.99999996135637
 30
0.0
 11
252.4995892661716
 21
0.3999999613564
 31
0.0
  0
TEXT
  5
B5D
330
1A
100
AcDbEntity
  8
moji
100
AcDbText
 10
264.0204535032575
 20
9.002460490060059
 30
0.0
 40
2.8
  1
Ａ３
 41
0.9
  7
ｽﾀｲﾙ1
100
AcDbText
  0
LINE
  5
B5E
330
1A
100
AcDbEntity
  8
ZUWAKU
100
AcDbLine
 10
223.7121815025968
 20
14.99999996135637
 30
0.0
 11
223.7121815025968
 21
0.3999999613564
 31
0.0
  0
LINE
  5
B5F
330
1A
100
AcDbEntity
  8
ZUWAKU
100
AcDbLine
 10
223.9121815025967
 20
14.99999996135637
 30
0.0
 11
223.9121815025968
 21
0.3999999613564
 31
0.0
  0
LINE
  5
B60
330
1A
100
AcDbEntity
  8
ZUWAKU
100
AcDbLine
 10
223.8121815025967
 20
14.99999996135637
 30
0.0
 11
223.8121815025968
 21
0.3999999613564
 31
0.0
  0
TEXT
  5
B61
330
1A
100
AcDbEntity
  8
moji
100
AcDbText
 10
231.2836386780954
 20
5.971308822186359
 30
0.0
 40
2.8
  1
ＬＫ０３Ｔ
 41
0.9
  7
ｽﾀｲﾙ1
100
AcDbText
  0
TEXT
  5
B63
330
1A
100
AcDbEntity
  8
ZUWAKU
100
AcDbText
 10
253.3383117772764
 20
4.827678230549175
 30
0.0
 40
2.0
  1
縮尺
 41
0.9
  7
ｽﾀｲﾙ1
100
AcDbText
  0
TEXT
  5
B64
330
1A
100
AcDbEntity
  8
moji
100
AcDbText
 10
264.0204535032575
 20
1.602460490060077
 30
0.0
 40
2.8
  1
１/１
 41
0.9
  7
ｽﾀｲﾙ1
100
AcDbText
  0
TEXT
  5
B65
330
1A
100
AcDbEntity
  8
ZUWAKU
100
AcDbText
 10
224.6509040137015
 20
12.02767823054916
 30
0.0
 40
2.0
  1
品番
 41
0.9
  7
ｽﾀｲﾙ1
100
AcDbText
  0
TEXT
  5
B66
330
1A
100
AcDbEntity
  8
ZUWAKU
100
AcDbText
 10
253.3383117772763
 20
12.02767823054916
 30
0.0
 40
2.0
  1
用紙
 41
0.9
  7
ｽﾀｲﾙ1
100
AcDbText
  0
LINE
  5
B67
330
1A
100
AcDbEntity
  8
ZUWAKU
100
AcDbLine
 10
276.2634774001573
 20
14.99999996135637
 30
0.0
 11
276.2634774001573
 21
0.3999999613564
 31
0.0
  0
LINE
  5
B68
330
1A
100
AcDbEntity
  8
ZUWAKU
100
AcDbLine
 10
276.4634774001572
 20
14.99999996135637
 30
0.0
 11
276.4634774001573
 21
0.3999999613564
 31
0.0
  0
LINE
  5
B69
330
1A
100
AcDbEntity
  8
ZUWAKU
100
AcDbLine
 10
276.3634774001572
 20
14.99999996135637
 30
0.0
 11
276.3634774001573
 21
0.3999999613564
 31
0.0
  0
LINE
  5
B6A
330
1A
100
AcDbEntity
  8
ZUWAKU
100
AcDbLine
 10
324.2086007722033
 20
14.99999996135637
 30
0.0
 11
324.2086007722033
 21
0.3999999613564
 31
0.0
  0
LINE
  5
B6B
330
1A
100
AcDbEntity
  8
ZUWAKU
100
AcDbLine
 10
324.4086007722033
 20
14.99999996135637
 30
0.0
 11
324.4086007722034
 21
0.3999999613564
 31
0.0
  0
LINE
  5
B6C
330
1A
100
AcDbEntity
  8
ZUWAKU
100
AcDbLine
 10
324.3086007722033
 20
14.99999996135637
 30
0.0
 11
324.3086007722034
 21
0.3999999613564
 31
0.0
  0
TEXT
  5
B6D
330
1A
100
AcDbEntity
  8
ZUWAKU
100
AcDbText
 10
325.1473232833081
 20
12.02767823054916
 30
0.0
 40
2.0
  1
DATE
 41
0.9
  7
ｽﾀｲﾙ1
100
AcDbText
  0
TEXT
  5
B6E
330
1A
100
AcDbEntity
  8
ZUWAKU
100
AcDbText
 10
354.264041613223
 20
8.776919629199767
 30
0.0
 40
3.0
  1
積水化学工業株式会社
 41
0.9
  7
ｽﾀｲﾙ1
100
AcDbText
  0
LINE
  5
B6F
330
1A
100
AcDbEntity
  8
ZUWAKU
100
AcDbLine
 10
348.9245047913717
 20
14.99999996135637
 30
0.0
 11
348.9245047913718
 21
0.3999999613564
 31
0.0
  0
LINE
  5
B70
330
1A
100
AcDbEntity
  8
ZUWAKU
100
AcDbLine
 10
348.8245047913716
 20
14.99999996135637
 30
0.0
 11
348.8245047913717
 21
0.3999999613564
 31
0.0
  0
LINE
  5
B71
330
1A
100
AcDbEntity
  8
ZUWAKU
100
AcDbLine
 10
348.7245047913717
 20
14.99999996135637
 30
0.0
 11
348.7245047913717
 21
0.3999999613564
 31
0.0
  0
LINE
  5
B72
330
1A
100
AcDbEntity
  8
ZUWAKU
100
AcDbLine
 10
348.6245047913717
 20
14.99999996135637
 30
0.0
 11
348.6245047913717
 21
0.3999999613564
 31
0.0
  0
TEXT
  5
B73
330
1A
100
AcDbEntity
  8
ZUWAKU
100
AcDbText
 10
354.264041613223
 20
3.324420118283399
 30
0.0
 40
3.0
  1
建材事業部
 41
0.9
  7
ｽﾀｲﾙ1
100
AcDbText
  0
DIMENSION
  5
24AC
330
1A
100
AcDbEntity
  8
SUNPOU
100
AcDbDimension
  2
*D1
 10
231.5819834673094
 20
89.37200932236793
 30
0.0
 11
222.1904979599937
 21
113.7451502764156
 31
0.0
 70
    33
 71
     5
 42
51.99999999999997
  3
STANDARD
100
AcDbAlignedDimension
 13
191.5193917823313
 23
127.4784808933074
 33
0.0
 14
214.7744987517958
 24
80.96826696304515
 34
0.0
1001
ACAD
1000
DSTYLE
1002
{
1070
    41
1040
3.0
1070
    42
1040
3.0
1070
    43
1040
7.0
1070
    44
1040
1.5
1070
    73
1070
     0
1070
    74
1070
     0
1070
    77
1070
     3
1070
   140
1040
3.0
1070
   141
1040
3.0
1070
   147
1040
1.0
1070
   172
1070
     1
1070
   173
1070
     1
1070
   176
1070
   256
1070
   177
1070
   256
1070
   178
1070
   256
1070
   271
1070
     0
1070
   272
1070
     0
1070
   341
1005
B2
1070
     6
1000
OPEN
1070
     7
1000
OPEN
1002
}
  0
DIMENSION
  5
24AD
330
1A
100
AcDbEntity
  8
SUNPOU
100
AcDbDimension
  2
*D2
 10
223.8260181447126
 20
85.49402666034689
 30
0.0
 11
218.0122414031291
 21
102.7117500842635
 31
0.0
 70
    33
 71
     5
 42
35.9999999946368
  3
STANDARD
100
AcDbAlignedDimension
 13
198.6748093137958
 23
113.1676458330451
 33
0.0
 14
214.7744987517958
 24
80.96826696304515
 34
0.0
1001
ACAD
1000
DSTYLE
1002
{
1070
    41
1040
3.0
1070
    42
1040
3.0
1070
    43
1040
7.0
1070
    44
1040
1.5
1070
    73
1070
     0
1070
    74
1070
     0
1070
    77
1070
     3
1070
   140
1040
3.0
1070
   141
1040
3.0
1070
   147
1040
1.0
1070
   172
1070
     1
1070
   173
1070
     1
1070
   176
1070
   256
1070
   177
1070
   256
1070
   178
1070
   256
1070
   271
1070
     0
1070
   272
1070
     0
1070
   341
1005
B2
1070
     6
1000
OPEN
1070
     7
1000
OPEN
1002
}
  0
DIMENSION
  5
24AE
330
1A
100
AcDbEntity
  8
SUNPOU
100
AcDbDimension
  2
*D3
 10
39.2369861176214
 20
80.9682669630452
 30
0.0
 11
36.73698611762139
 21
92.12702339304519
 31
0.0
 70
    32
 71
     5
 42
22.31751285999999
  3
STANDARD
100
AcDbAlignedDimension
 13
62.79446946379579
 23
103.2857798230452
 33
0.0
 14
214.7744987517958
 24
80.96826696304515
 34
0.0
 50
90.0
100
AcDbRotatedDimension
1001
ACAD
1000
DSTYLE
1002
{
1070
    41
1040
3.0
1070
    42
1040
3.0
1070
    43
1040
7.0
1070
    44
1040
1.5
1070
    73
1070
     0
1070
    74
1070
     0
1070
    77
1070
     3
1070
   140
1040
3.0
1070
   141
1040
3.0
1070
   147
1040
1.0
1070
   172
1070
     1
1070
   173
1070
     1
1070
   176
1070
   256
1070
   177
1070
   256
1070
   178
1070
   256
1070
   271
1070
     0
1070
   272
1070
     0
1070
   341
1005
B2
1070
     6
1000
OPEN
1070
     7
1000
OPEN
1002
}
  0
DIMENSION
  5
24AF
330
1A
100
AcDbEntity
  8
SUNPOU
100
AcDbDimension
  2
*D4
 10
229.1476188495926
 20
154.1130721281846
 30
0.0
 11
211.6476188495926
 21
156.6130721281846
 31
0.0
 70
    32
 71
     5
 42
35.0
  3
STANDARD
100
AcDbAlignedDimension
 13
194.1476188495926
 23
122.2220267609436
 33
0.0
 14
229.1476188495926
 24
122.2220267609436
 34
0.0
100
AcDbRotatedDimension
1001
ACAD
1000
DSTYLE
1002
{
1070
    41
1040
3.0
1070
    42
1040
3.0
1070
    43
1040
7.0
1070
    44
1040
1.5
1070
    73
1070
     0
1070
    74
1070
     0
1070
    77
1070
     3
1070
   140
1040
3.0
1070
   141
1040
3.0
1070
   147
1040
1.0
1070
   172
1070
     1
1070
   173
1070
     1
1070
   176
1070
   256
1070
   177
1070
   256
1070
   178
1070
   256
1070
   271
1070
     0
1070
   272
1070
     0
1070
   341
1005
B2
1070
     6
1000
OPEN
1070
     7
1000
OPEN
1002
}
  0
LINE
  5
24B0
330
1A
100
AcDbEntity
  8
SEIHIN
100
AcDbLine
 10
213.8800715607123
 20
175.9150305302507
 30
0.0
 11
198.495923874929
 21
175.9150305302507
 31
0.0
  0
ELLIPSE
  5
24B1
330
1A
100
AcDbEntity
  8
SEIHIN
100
AcDbEllipse
 10
212.3004618851824
 20
181.4150305302507
 30
0.0
 11
0.0
 21
2.1000000000672
 31
0.0
210
0.0
220
0.0
230
1.0
 40
0.4867014234079679
 41
-1.570796326794897
 42
4.71238898038469
  0
LINE
  5
24B2
330
1A
100
AcDbEntity
  8
CENTER L
100
AcDbLine
 10
204.9661589169623
 20
82.24918921252106
 30
0.0
 11
218.5614522226194
 21
89.04683586297449
 31
0.0
  0
ELLIPSE
  5
24B3
330
1A
100
AcDbEntity
  8
SEIHIN
100
AcDbEllipse
 10
212.3004618851824
 20
223.4150305302507
 30
0.0
 11
0.0
 21
-2.1000000000672
 31
0.0
210
0.0
220
0.0
230
-1.0
 40
0.4867014234079679
 41
-1.570796326794897
 42
4.71238898038469
  0
LINE
  5
24B4
330
1A
100
AcDbEntity
  8
SEIHIN
100
AcDbLine
 10
212.2679791697958
 20
211.1340204402507
 30
0.0
 11
213.6909483567958
 21
211.1340204402507
 31
0.0
  0
LINE
  5
24B5
330
1A
100
AcDbEntity
  8
SEIHIN
100
AcDbLine
 10
213.3404373427958
 20
210.5590119402507
 30
0.0
 11
212.6964559347958
 21
209.9150305302507
 31
0.0
  0
LINE
  5
24B6
330
1A
100
AcDbEntity
  8
SEIHIN
100
AcDbLine
 10
213.3404373427958
 20
194.2710491302507
 30
0.0
 11
212.6964559347958
 21
194.9150305302507
 31
0.0
  0
LINE
  5
24B7
330
1A
100
AcDbEntity
  8
SEIHIN
100
AcDbLine
 10
212.2679791697958
 20
193.6960406302507
 30
0.0
 11
213.6909483567958
 21
193.6960406302507
 31
0.0
  0
ARC
  5
24B8
330
1A
100
AcDbEntity
  8
SEIHIN
  6
DASHED
 62
     2
100
AcDbCircle
 10
222.4944694237958
 20
114.2856798230451
 30
0.0
 40
9.999999998522068
100
AcDbArc
 50
53.8310955798996
 51
170.7918456209258
  0
LINE
  5
24B9
330
1A
100
AcDbEntity
  8
SEIHIN
100
AcDbLine
 10
214.7744987517958
 20
80.96826696304515
 30
0.0
 11
208.7818365724958
 21
77.97193587304514
 31
0.0
  0
LINE
  5
24BA
330
1A
100
AcDbEntity
  8
SEIHIN
100
AcDbLine
 10
198.6748093137958
 20
113.1676458330451
 30
0.0
 11
214.7744987517958
 21
80.96826696304515
 31
0.0
  0
LINE
  5
24BB
330
1A
100
AcDbEntity
  8
SEIHIN
100
AcDbLine
 10
197.6014966837957
 20
112.6309895230452
 30
0.0
 11
213.7011861227958
 21
80.43161064304513
 31
0.0
  0
LINE
  5
24BC
330
1A
100
AcDbEntity
  8
SEIHIN
100
AcDbLine
 10
213.8800715607123
 20
228.9150305302507
 30
0.0
 11
198.495923874929
 21
228.9150305302507
 31
0.0
  0
LINE
  5
24BD
330
1A
100
AcDbEntity
  8
CENTER L
100
AcDbLine
 10
60.29752538679583
 20
202.4150305302507
 30
0.0
 11
218.9134063967958
 21
202.4150305302507
 31
0.0
  0
DIMENSION
  5
24BE
330
1A
100
AcDbEntity
  8
SUNPOU
100
AcDbDimension
  2
*D5
 10
194.1476188495926
 20
144.6357914730563
 30
0.0
 11
189.2210441566942
 21
147.1357914730563
 31
0.0
 70
    32
 71
     5
 42
9.853149385796684
  3
STANDARD
100
AcDbAlignedDimension
 13
184.2944694637959
 23
85.58577982304519
 33
0.0
 14
194.1476188495926
 24
122.2220267609436
 34
0.0
100
AcDbRotatedDimension
1001
ACAD
1000
DSTYLE
1002
{
1070
    41
1040
3.0
1070
    42
1040
3.0
1070
    43
1040
7.0
1070
    44
1040
1.5
1070
    73
1070
     0
1070
    74
1070
     0
1070
    77
1070
     3
1070
   140
1040
3.0
1070
   141
1040
3.0
1070
   147
1040
1.0
1070
   172
1070
     1
1070
   173
1070
     1
1070
   176
1070
   256
1070
   177
1070
   256
1070
   178
1070
   256
1070
   271
1070
     0
1070
   272
1070
     0
1070
   341
1005
B2
1070
     6
1000
OPEN
1070
     7
1000
OPEN
1002
}
  0
DIMENSION
  5
24BF
330
1A
100
AcDbEntity
  8
SUNPOU
100
AcDbDimension
  2
*D6
 10
194.1476188495926
 20
154.1130721281846
 30
0.0
 11
127.7210441566942
 21
156.6130721281846
 31
0.0
 70
    32
 71
     5
 42
132.8531493857968
  3
STANDARD
100
AcDbAlignedDimension
 13
61.29446946379579
 23
101.7857798230452
 33
0.0
 14
194.1476188495926
 24
122.2220267609436
 34
0.0
100
AcDbRotatedDimension
1001
ACAD
1000
DSTYLE
1002
{
1070
    41
1040
3.0
1070
    42
1040
3.0
1070
    43
1040
7.0
1070
    44
1040
1.5
1070
    73
1070
     0
1070
    74
1070
     0
1070
    77
1070
     3
1070
   140
1040
3.0
1070
   141
1040
3.0
1070
   147
1040
1.0
1070
   172
1070
     1
1070
   173
1070
     1
1070
   176
1070
   256
1070
   177
1070
   256
1070
   178
1070
   256
1070
   271
1070
     0
1070
   272
1070
     0
1070
   341
1005
B2
1070
     6
1000
OPEN
1070
     7
1000
OPEN
1002
}
  0
ARC
  5
24C0
330
1A
100
AcDbEntity
  8
SEIHIN
100
AcDbCircle
 10
187.4944694237958
 20
114.2856798230451
 30
0.0
 40
9.999999997041396
100
AcDbArc
 50
53.8310955798996
 51
170.7918456181774
  0
LINE
  5
24C1
330
1A
100
AcDbEntity
  8
SEIHIN
  6
Continuous
 62
     3
100
AcDbLine
 10
88.49113498951846
 20
74.2994081646585
 30
0.0
 11
81.01836946379581
 21
87.40177982304516
 31
0.0
  0
LINE
  5
24C2
330
1A
100
AcDbEntity
  8
SEIHIN
  6
Continuous
 62
     3
100
AcDbLine
 10
86.73606946379579
 20
68.67477982304516
 30
0.0
 11
79.20576946379583
 21
86.56337982304518
 31
0.0
  0
LINE
  5
24C3
330
1A
100
AcDbEntity
  8
SEIHIN
  6
Continuous
 62
     3
100
AcDbLine
 10
75.04966946379579
 20
90.23737982304516
 30
0.0
 11
84.53926946379579
 21
67.43407982304518
 31
0.0
  0
LINE
  5
24C4
330
1A
100
AcDbEntity
  8
SEIHIN
  6
Continuous
 62
     3
100
AcDbLine
 10
90.38660043617087
 20
76.05689923107201
 30
0.0
 11
79.13966946379583
 21
96.28987982304517
 31
0.0
  0
LINE
  5
24C5
330
1A
100
AcDbEntity
  8
SEIHIN
  6
Continuous
 62
     3
100
AcDbLine
 10
64.29446946379579
 20
101.7857798230452
 30
0.0
 11
64.29446946379579
 21
98.88577982304514
 31
0.0
  0
LINE
  5
24C6
330
1A
100
AcDbEntity
  8
SEIHIN
  6
Continuous
 62
     3
100
AcDbLine
 10
61.29446946379579
 20
101.7857798230452
 30
0.0
 11
61.29446946379579
 21
96.38577982304514
 31
0.0
  0
LINE
  5
24C7
330
1A
100
AcDbEntity
  8
SEIHIN
  6
Continuous
 62
     3
100
AcDbLine
 10
70.4051694637958
 20
93.38577982304514
 30
0.0
 11
64.29446946379579
 21
93.38577982304514
 31
0.0
  0
ARC
  5
24C8
330
1A
100
AcDbEntity
  8
SEIHIN
  6
Continuous
 62
     3
100
AcDbCircle
 10
65.29446946379579
 20
98.88577982304514
 30
0.0
 40
1.0
100
AcDbArc
 50
180.0
 51
270.0
  0
ARC
  5
24C9
330
1A
100
AcDbEntity
  8
SEIHIN
  6
Continuous
 62
     3
100
AcDbCircle
 10
64.29446946379579
 20
96.38577982304514
 30
0.0
 40
3.0
100
AcDbArc
 50
180.0
 51
270.0
  0
LINE
  5
24CA
330
1A
100
AcDbEntity
  8
SEIHIN
  6
Continuous
 62
     3
100
AcDbLine
 10
61.29446946379579
 20
99.28567982304514
 30
0.0
 11
64.29446946379579
 21
99.28567982304514
 31
0.0
  0
ARC
  5
24CB
330
1A
100
AcDbEntity
  8
SEIHIN
  6
Continuous
 62
     3
100
AcDbCircle
 10
80.13466946379577
 20
86.93367982304517
 30
0.0
 40
1.000005
100
AcDbArc
 50
27.91037699999919
 51
201.7343789999998
  0
LINE
  5
24CC
330
1A
100
AcDbEntity
  8
SEIHIN
  6
Continuous
 62
     3
100
AcDbLine
 10
76.48856946379578
 20
97.88577982304514
 30
0.0
 11
65.29446946379579
 21
97.88577982304514
 31
0.0
  0
ARC
  5
24CD
330
1A
100
AcDbEntity
  8
SEIHIN
  6
Continuous
 62
     3
100
AcDbCircle
 10
70.4051694637958
 20
88.38577982304514
 30
0.0
 40
4.99999
100
AcDbArc
 50
21.73544399999916
 51
90.0
  0
ARC
  5
24CE
330
1A
100
AcDbEntity
  8
SEIHIN
  6
Continuous
 62
     3
100
AcDbCircle
 10
76.48856946379578
 20
94.88577982304514
 30
0.0
 40
2.999986
100
AcDbArc
 50
27.90700099999922
 51
90.0
  0
ARC
  5
24CF
330
1A
100
AcDbEntity
  8
SEIHIN
  6
Continuous
 62
     3
100
AcDbCircle
 10
62.79446946379579
 20
101.7857798230452
 30
0.0
 40
1.5
100
AcDbArc
 50
0.0
 51
180.0
  0
LINE
  5
24D0
330
1A
100
AcDbEntity
  8
SEIHIN
100
AcDbLine
 10
132.1143087937958
 20
109.5718050030451
 30
0.0
 11
176.7580905037958
 21
115.0533721430451
 31
0.0
  0
LINE
  5
24D1
330
1A
100
AcDbEntity
  8
SEIHIN
100
AcDbLine
 10
133.9233420337958
 20
103.7488674030452
 30
0.0
 11
177.4893063237957
 21
109.0980952030452
 31
0.0
  0
LINE
  5
24D2
330
1A
100
AcDbEntity
  8
SEIHIN
  6
Continuous
 62
     3
100
AcDbLine
 10
117.1944694657958
 20
64.28573730438205
 30
0.0
 11
155.0623694637958
 21
64.28567982304517
 31
0.0
  0
LINE
  5
24D3
330
1A
100
AcDbEntity
  8
SEIHIN
  6
Continuous
 62
     3
100
AcDbLine
 10
117.1944694657958
 20
66.78573627663025
 30
0.0
 11
153.0680694637958
 21
66.78567982304517
 31
0.0
  0
LINE
  5
24D4
330
1A
100
AcDbEntity
  8
SEIHIN
  6
Continuous
 62
     3
100
AcDbLine
 10
117.1944694657958
 20
72.78567982304513
 30
0.0
 11
155.4384694637958
 21
72.78567982304514
 31
0.0
  0
LINE
  5
24D5
330
1A
100
AcDbEntity
  8
SEIHIN
  6
Continuous
 62
     3
100
AcDbLine
 10
147.9398694637958
 20
75.28567982304514
 30
0.0
 11
117.1944694657958
 21
75.28567982304514
 31
0.0
  0
LINE
  5
24D6
330
1A
100
AcDbEntity
  8
SEIHIN
100
AcDbLine
 10
117.1944694657958
 20
62.09207617304514
 30
0.0
 11
117.1944694657958
 21
83.40290004204516
 31
0.0
  0
LINE
  5
24D7
330
1A
100
AcDbEntity
  8
SEIHIN
100
AcDbLine
 10
97.79446946379579
 20
81.28567982304514
 30
0.0
 11
97.79445531379577
 21
75.28567746504515
 31
0.0
  0
LINE
  5
24D8
330
1A
100
AcDbEntity
  8
SEIHIN
100
AcDbLine
 10
96.79446946379579
 20
81.28567982304514
 30
0.0
 11
96.79445531379577
 21
75.28567982304514
 31
0.0
  0
LINE
  5
24D9
330
1A
100
AcDbEntity
  8
SEIHIN
100
AcDbLine
 10
96.15938079379578
 20
81.09207381704516
 30
0.0
 11
96.15936466379577
 21
74.25395236304516
 31
0.0
  0
LINE
  5
24DA
330
1A
100
AcDbEntity
  8
SEIHIN
100
AcDbLine
 10
92.19446946379577
 20
62.09207617304514
 30
0.0
 11
92.19446946379577
 21
81.09207617504515
 31
0.0
  0
LINE
  5
24DB
330
1A
100
AcDbEntity
  8
SEIHIN
100
AcDbLine
 10
98.15938431379578
 20
82.58570286404515
 30
0.0
 11
98.15936466379577
 21
74.25395236304516
 31
0.0
  0
LINE
  5
24DC
330
1A
100
AcDbEntity
  8
SEIHIN
100
AcDbLine
 10
92.19446946379577
 20
62.09207617304514
 30
0.0
 11
117.1944694657958
 21
62.09207617304514
 31
0.0
  0
LINE
  5
24DD
330
1A
100
AcDbEntity
  8
SEIHIN
100
AcDbLine
 10
96.15936709747059
 20
75.28567982304516
 30
0.0
 11
98.15936709379577
 21
75.28567982304514
 31
0.0
  0
LINE
  5
24DE
330
1A
100
AcDbEntity
  8
SEIHIN
100
AcDbLine
 10
96.15936466379577
 20
74.25395236304516
 30
0.0
 11
98.15936466379577
 21
74.25395236304516
 31
0.0
  0
ARC
  5
24DF
330
1A
100
AcDbEntity
  8
SEIHIN
  6
Continuous
 62
     3
100
AcDbCircle
 10
89.18376946379578
 20
69.28577982304518
 30
0.0
 40
5.000009
100
AcDbArc
 50
201.7365079999997
 51
270.0
  0
LINE
  5
24E0
330
1A
100
AcDbEntity
  8
SEIHIN
  6
Continuous
 62
     3
100
AcDbLine
 10
89.18376946379578
 20
64.28577982304518
 30
0.0
 11
92.19446946379577
 21
64.28577525297236
 31
0.0
  0
ARC
  5
24E1
330
1A
100
AcDbEntity
  8
SEIHIN
  6
Continuous
 62
     3
100
AcDbCircle
 10
91.09708904849121
 20
75.78567982304514
 30
0.0
 40
3.0
100
AcDbArc
 50
209.6977057516304
 51
270.0
  0
LINE
  5
24E2
330
1A
100
AcDbEntity
  8
SEIHIN
  6
Continuous
 62
     3
100
AcDbLine
 10
89.52276946379578
 20
66.78577982304518
 30
0.0
 11
92.19446946379578
 21
66.78577561864297
 31
0.0
  0
LINE
  5
24E3
330
1A
100
AcDbEntity
  8
SEIHIN
  6
Continuous
 62
     3
100
AcDbLine
 10
89.79426946379579
 20
72.78577982304518
 30
0.0
 11
89.79426946379579
 21
66.78577982304518
 31
0.0
  0
ARC
  5
24E4
330
1A
100
AcDbEntity
  8
SEIHIN
  6
Continuous
 62
     3
100
AcDbCircle
 10
89.52276946379578
 20
69.78577982304518
 30
0.0
 40
3.000001
100
AcDbArc
 50
201.7361539999994
 51
270.0
  0
LINE
  5
24E5
330
1A
100
AcDbEntity
  8
SEIHIN
  6
Continuous
 62
     3
100
AcDbLine
 10
92.19446946379577
 20
75.28567982304514
 30
0.0
 11
91.6976606364528
 21
75.28567982304514
 31
0.0
  0
LINE
  5
24E6
330
1A
100
AcDbEntity
  8
SEIHIN
  6
Continuous
 62
     3
100
AcDbLine
 10
91.09708904849121
 20
72.78567982304514
 30
0.0
 11
92.19446946379577
 21
72.78567982304513
 31
0.0
  0
ARC
  5
24E7
330
1A
100
AcDbEntity
  8
SEIHIN
  6
Continuous
 62
     3
100
AcDbCircle
 10
91.69736946379578
 20
76.78577982304518
 30
0.0
 40
1.499982
100
AcDbArc
 50
207.9095830000001
 51
270.0
  0
LINE
  5
24E8
330
1A
100
AcDbEntity
  8
SEIHIN
100
AcDbLine
 10
107.1944694637958
 20
66.78567982304514
 30
0.0
 11
108.3491700037958
 21
64.78567982304514
 31
0.0
  0
LINE
  5
24E9
330
1A
100
AcDbEntity
  8
SEIHIN
100
AcDbLine
 10
107.1944694637958
 20
66.78567982304514
 30
0.0
 11
106.0397689237958
 21
64.78567982304514
 31
0.0
  0
LINE
  5
24EA
330
1A
100
AcDbEntity
  8
SEIHIN
100
AcDbLine
 10
108.3491700037958
 20
64.78567982304514
 30
0.0
 11
106.0397689237958
 21
64.78567982304514
 31
0.0
  0
LINE
  5
24EB
330
1A
100
AcDbEntity
  8
SEIHIN
100
AcDbLine
 10
104.6944694637958
 20
72.78567982304514
 30
0.0
 11
109.6944694637958
 21
72.78567982304514
 31
0.0
  0
LINE
  5
24EC
330
1A
100
AcDbEntity
  8
SEIHIN
100
AcDbLine
 10
109.6944694637958
 20
66.78567982304514
 30
0.0
 11
104.6944694637958
 21
66.78567982304514
 31
0.0
  0
MTEXT
  5
24ED
330
1A
100
AcDbEntity
  8
SEIHIN
100
AcDbMText
 10
105.5474152437958
 20
69.66566706704515
 30
0.0
 40
2.381249964
 41
0.0
 71
     1
 72
     5
  1
{\W1.460317;10}
 73
     1
 44
1.0
  0
LINE
  5
24EE
330
1A
100
AcDbEntity
  8
SEIHIN
100
AcDbLine
 10
103.6944694637958
 20
71.78567982304514
 30
0.0
 11
103.6944694637958
 21
67.78567982304514
 31
0.0
  0
ARC
  5
24EF
330
1A
100
AcDbEntity
  8
SEIHIN
100
AcDbCircle
 10
104.6944694637958
 20
67.78567982304514
 30
0.0
 40
1.0
100
AcDbArc
 50
180.0
 51
270.0
  0
ARC
  5
24F0
330
1A
100
AcDbEntity
  8
SEIHIN
100
AcDbCircle
 10
104.6944694637958
 20
71.78567982304514
 30
0.0
 40
1.0
100
AcDbArc
 50
90.0
 51
180.0
  0
LINE
  5
24F1
330
1A
100
AcDbEntity
  8
SEIHIN
100
AcDbLine
 10
110.6944694637958
 20
71.78567982304514
 30
0.0
 11
110.6944694637958
 21
67.78567982304514
 31
0.0
  0
ARC
  5
24F2
330
1A
100
AcDbEntity
  8
SEIHIN
100
AcDbCircle
 10
109.6944694637958
 20
67.78567982304514
 30
0.0
 40
1.0
100
AcDbArc
 50
270.0
 51
0.0
  0
ARC
  5
24F3
330
1A
100
AcDbEntity
  8
SEIHIN
100
AcDbCircle
 10
109.6944694637958
 20
71.78567982304514
 30
0.0
 40
1.0
100
AcDbArc
 50
0.0
 51
90.0
  0
LINE
  5
24F4
330
1A
100
AcDbEntity
  8
SEIHIN
100
AcDbLine
 10
107.4512194637958
 20
72.78567982304514
 30
0.0
 11
107.4512194637958
 21
70.78567982304514
 31
0.0
  0
LINE
  5
24F5
330
1A
100
AcDbEntity
  8
SEIHIN
100
AcDbLine
 10
106.9512194637958
 20
70.78567982304514
 30
0.0
 11
106.9512194637958
 21
72.78567982304514
 31
0.0
  0
LINE
  5
24F6
330
1A
100
AcDbEntity
  8
SEIHIN
100
AcDbLine
 10
107.4512194637958
 20
70.78567982304514
 30
0.0
 11
106.9512194637958
 21
70.78567982304514
 31
0.0
  0
LINE
  5
24F7
330
1A
100
AcDbEntity
  8
SEIHIN
100
AcDbLine
 10
106.9512194637958
 20
72.78567982304514
 30
0.0
 11
107.4512194637958
 21
72.78567982304514
 31
0.0
  0
LINE
  5
24F8
330
1A
100
AcDbEntity
  8
SEIHIN
100
AcDbLine
 10
106.9512194637958
 20
72.78567982304514
 30
0.0
 11
107.4512194637958
 21
72.78567982304514
 31
0.0
  0
MTEXT
  5
24F9
330
1A
100
AcDbEntity
  8
SEIHIN
100
AcDbMText
 10
117.9784199697958
 20
69.69745704704513
 30
0.0
 40
2.381249964
 41
0.0
 71
     1
 72
     5
  1
{\W1.703704;0}
 73
     1
 44
1.0
  0
LINE
  5
24FA
330
1A
100
AcDbEntity
  8
SEIHIN
100
AcDbLine
 10
117.4444694637958
 20
70.78567982304514
 30
0.0
 11
117.1944694637958
 21
70.78567982304514
 31
0.0
  0
LINE
  5
24FB
330
1A
100
AcDbEntity
  8
SEIHIN
100
AcDbLine
 10
117.4444694637958
 20
72.78567982304514
 30
0.0
 11
117.4444694637958
 21
70.78567982304514
 31
0.0
  0
LINE
  5
24FC
330
1A
100
AcDbEntity
  8
SEIHIN
100
AcDbLine
 10
121.9444694637958
 20
72.78567982304514
 30
0.0
 11
122.4444694637958
 21
72.78567982304514
 31
0.0
  0
LINE
  5
24FD
330
1A
100
AcDbEntity
  8
SEIHIN
100
AcDbLine
 10
122.4444694637958
 20
70.78567982304514
 30
0.0
 11
121.9444694637958
 21
70.78567982304514
 31
0.0
  0
LINE
  5
24FE
330
1A
100
AcDbEntity
  8
SEIHIN
100
AcDbLine
 10
121.9444694637958
 20
70.78567982304514
 30
0.0
 11
121.9444694637958
 21
72.78567982304514
 31
0.0
  0
LINE
  5
24FF
330
1A
100
AcDbEntity
  8
SEIHIN
100
AcDbLine
 10
122.4444694637958
 20
72.78567982304514
 30
0.0
 11
122.4444694637958
 21
70.78567982304514
 31
0.0
  0
MTEXT
  5
2500
330
1A
100
AcDbEntity
  8
SEIHIN
100
AcDbMText
 10
125.2854617199258
 20
69.69745704704513
 30
0.0
 40
2.381249964
 41
0.0
 71
     1
 72
     5
  1
{\W1.135802;30}
 73
     1
 44
1.0
  0
LINE
  5
2501
330
1A
100
AcDbEntity
  8
SEIHIN
100
AcDbLine
 10
126.9444694637958
 20
72.78567982304514
 30
0.0
 11
127.4444694637958
 21
72.78567982304514
 31
0.0
  0
LINE
  5
2502
330
1A
100
AcDbEntity
  8
SEIHIN
100
AcDbLine
 10
127.4444694637958
 20
70.78567982304514
 30
0.0
 11
126.9444694637958
 21
70.78567982304514
 31
0.0
  0
LINE
  5
2503
330
1A
100
AcDbEntity
  8
SEIHIN
100
AcDbLine
 10
126.9444694637958
 20
70.78567982304514
 30
0.0
 11
126.9444694637958
 21
72.78567982304514
 31
0.0
  0
LINE
  5
2504
330
1A
100
AcDbEntity
  8
SEIHIN
100
AcDbLine
 10
127.4444694637958
 20
72.78567982304514
 30
0.0
 11
127.4444694637958
 21
70.78567982304514
 31
0.0
  0
LINE
  5
2505
330
1A
100
AcDbEntity
  8
SEIHIN
100
AcDbLine
 10
131.9444694637958
 20
72.78567982304514
 30
0.0
 11
132.4444694637958
 21
72.78567982304514
 31
0.0
  0
LINE
  5
2506
330
1A
100
AcDbEntity
  8
SEIHIN
100
AcDbLine
 10
132.4444694637958
 20
70.78567982304514
 30
0.0
 11
131.9444694637958
 21
70.78567982304514
 31
0.0
  0
LINE
  5
2507
330
1A
100
AcDbEntity
  8
SEIHIN
100
AcDbLine
 10
131.9444694637958
 20
70.78567982304514
 30
0.0
 11
131.9444694637958
 21
72.78567982304514
 31
0.0
  0
LINE
  5
2508
330
1A
100
AcDbEntity
  8
SEIHIN
100
AcDbLine
 10
132.4444694637958
 20
72.78567982304514
 30
0.0
 11
132.4444694637958
 21
70.78567982304514
 31
0.0
  0
LINE
  5
2509
330
1A
100
AcDbEntity
  8
SEIHIN
100
AcDbLine
 10
136.9438467537958
 20
72.78567982304514
 30
0.0
 11
137.4438467537958
 21
72.78567982304514
 31
0.0
  0
LINE
  5
250A
330
1A
100
AcDbEntity
  8
SEIHIN
100
AcDbLine
 10
137.4438467537958
 20
70.78567982304514
 30
0.0
 11
136.9438467537958
 21
70.78567982304514
 31
0.0
  0
LINE
  5
250B
330
1A
100
AcDbEntity
  8
SEIHIN
100
AcDbLine
 10
136.9438467537958
 20
70.78567982304514
 30
0.0
 11
136.9438467537958
 21
72.78567982304514
 31
0.0
  0
LINE
  5
250C
330
1A
100
AcDbEntity
  8
SEIHIN
100
AcDbLine
 10
137.4438467537958
 20
72.78567982304514
 30
0.0
 11
137.4438467537958
 21
70.78567982304514
 31
0.0
  0
MTEXT
  5
250D
330
1A
100
AcDbEntity
  8
SEIHIN
100
AcDbMText
 10
140.2932396137958
 20
69.87759864704515
 30
0.0
 40
2.381249964
 41
0.0
 71
     1
 72
     5
  1
{\W1.022222;45}
 73
     1
 44
1.0
  0
LINE
  5
250E
330
1A
100
AcDbEntity
  8
SEIHIN
100
AcDbLine
 10
141.9444694637958
 20
72.78567982304514
 30
0.0
 11
142.4444694637958
 21
72.78567982304514
 31
0.0
  0
LINE
  5
250F
330
1A
100
AcDbEntity
  8
SEIHIN
100
AcDbLine
 10
142.4444694637958
 20
70.78567982304514
 30
0.0
 11
141.9444694637958
 21
70.78567982304514
 31
0.0
  0
LINE
  5
2510
330
1A
100
AcDbEntity
  8
SEIHIN
100
AcDbLine
 10
141.9444694637958
 20
70.78567982304514
 30
0.0
 11
141.9444694637958
 21
72.78567982304514
 31
0.0
  0
LINE
  5
2511
330
1A
100
AcDbEntity
  8
SEIHIN
100
AcDbLine
 10
142.4444694637958
 20
72.78567982304514
 30
0.0
 11
142.4444694637958
 21
70.78567982304514
 31
0.0
  0
LINE
  5
2512
330
1A
100
AcDbEntity
  8
SEIHIN
100
AcDbLine
 10
118.9150714037958
 20
93.93568155304513
 30
0.0
 11
101.6436204637958
 21
93.93568155304513
 31
0.0
  0
ARC
  5
2513
330
1A
100
AcDbEntity
  8
SEIHIN
100
AcDbCircle
 10
107.6944694637958
 20
82.58567982304516
 30
0.0
 40
9.535085152808648
100
AcDbArc
 50
4.916661302937908
 51
179.999861547953
  0
LINE
  5
2514
330
1A
100
AcDbEntity
  8
SEIHIN
100
AcDbLine
 10
96.79446946379579
 20
81.28567982304514
 30
0.0
 11
98.15938124379579
 21
81.28567982304514
 31
0.0
  0
LINE
  5
2515
330
1A
100
AcDbEntity
  8
SEIHIN
100
AcDbLine
 10
95.15938079379578
 20
82.09207617504515
 30
0.0
 11
93.19446946379577
 21
82.09207617504515
 31
0.0
  0
ARC
  5
2516
330
1A
100
AcDbEntity
  8
SEIHIN
100
AcDbCircle
 10
93.19446946379577
 20
81.09207617504515
 30
0.0
 40
1.0
100
AcDbArc
 50
90.0
 51
180.0
  0
ARC
  5
2517
330
1A
100
AcDbEntity
  8
SEIHIN
100
AcDbCircle
 10
95.15938079379578
 20
81.09207617504515
 30
0.0
 40
1.00000000000139
100
AcDbArc
 50
359.9998648965517
 51
90.0
  0
ARC
  5
2518
330
1A
100
AcDbEntity
  8
SEIHIN
100
AcDbCircle
 10
108.7541009037958
 20
84.84720801304513
 30
0.0
 40
9.899999981014924
100
AcDbArc
 50
135.908567325649
 51
170.5325542646189
  0
CIRCLE
  5
2519
330
1A
100
AcDbEntity
  8
SEIHIN
100
AcDbCircle
 10
107.1944694637958
 20
86.08567982304516
 30
0.0
 40
3.500000004238516
  0
LINE
  5
251A
330
1A
100
AcDbEntity
  8
SEIHIN
100
AcDbLine
 10
101.6436204637958
 20
92.93568155304513
 30
0.0
 11
101.6436204637958
 21
93.93568155304513
 31
0.0
  0
LINE
  5
251B
330
1A
100
AcDbEntity
  8
SEIHIN
100
AcDbLine
 10
101.6436204637958
 20
91.73568155304514
 30
0.0
 11
101.6436204637958
 21
92.93568155304513
 31
0.0
  0
LINE
  5
251C
330
1A
100
AcDbEntity
  8
SEIHIN
100
AcDbLine
 10
117.1944694237958
 20
76.72089251304516
 30
0.0
 11
128.4848691137958
 21
99.86964237304517
 31
0.0
  0
LINE
  5
251D
330
1A
100
AcDbEntity
  8
SEIHIN
100
AcDbLine
 10
115.8159710437958
 20
87.58158418304515
 30
0.0
 11
123.5681368137958
 21
103.4758794430451
 31
0.0
  0
LINE
  5
251E
330
1A
100
AcDbEntity
  8
SEIHIN
100
AcDbLine
 10
115.0365533437958
 20
88.66940012304514
 30
0.0
 11
117.9242164237958
 21
91.73568155304514
 31
0.0
  0
LINE
  5
251F
330
1A
100
AcDbEntity
  8
SEIHIN
100
AcDbLine
 10
115.1442123537958
 20
88.78371845304514
 30
0.0
 11
117.6281169637958
 21
91.42126665304517
 31
0.0
  0
LINE
  5
2520
330
1A
100
AcDbEntity
  8
SEIHIN
100
AcDbLine
 10
131.1598144937958
 20
112.0622318530452
 30
0.0
 11
130.0122487837958
 21
112.4130778930452
 31
0.0
  0
LINE
  5
2521
330
1A
100
AcDbEntity
  8
SEIHIN
100
AcDbLine
 10
130.2803955337958
 20
109.1857820430452
 30
0.0
 11
131.1598144937958
 21
112.0622318530452
 31
0.0
  0
ARC
  5
2522
330
1A
100
AcDbEntity
  8
SEIHIN
100
AcDbCircle
 10
133.4548715737958
 20
98.65379734304514
 30
0.0
 40
10.99999999601529
100
AcDbArc
 50
97.00000001826173
 51
154.0000029819582
  0
ARC
  5
2523
330
1A
100
AcDbEntity
  8
SEIHIN
100
AcDbCircle
 10
134.7764274437958
 20
96.80104434304514
 30
0.0
 40
7.000000002833392
100
AcDbArc
 50
97.0000000515625
 51
154.0000000029729
  0
LINE
  5
2524
330
1A
100
AcDbEntity
  8
SEIHIN
100
AcDbLine
 10
128.8613914237958
 20
108.6487930930451
 30
0.0
 11
130.0122487837958
 21
112.4130778930452
 31
0.0
  0
LINE
  5
2525
330
1A
100
AcDbEntity
  8
SEIHIN
  6
Continuous
 62
     3
100
AcDbLine
 10
190.2944694637958
 20
97.28557982304517
 30
0.0
 11
190.2944694637958
 21
67.28557982304517
 31
0.0
  0
LINE
  5
2526
330
1A
100
AcDbEntity
  8
SEIHIN
  6
Continuous
 62
     3
100
AcDbLine
 10
184.2944694637958
 20
86.28557982304517
 30
0.0
 11
184.2944694637958
 21
69.78557982304517
 31
0.0
  0
ARC
  5
2527
330
1A
100
AcDbEntity
  8
SEIHIN
  6
Continuous
 62
     3
100
AcDbCircle
 10
153.4028694637958
 20
76.28567982304514
 30
0.0
 40
0.999978
100
AcDbArc
 50
150.243037
 51
270.0
  0
LINE
  5
2528
330
1A
100
AcDbEntity
  8
SEIHIN
  6
Continuous
 62
     3
100
AcDbLine
 10
162.8033694637958
 20
99.7668798230452
 30
0.0
 11
149.2302694637958
 21
76.0209798230452
 31
0.0
  0
LINE
  5
2529
330
1A
100
AcDbEntity
  8
SEIHIN
  6
Continuous
 62
     3
100
AcDbLine
 10
157.5459694637958
 20
68.47657982304517
 30
0.0
 11
169.1098694637958
 21
88.83457982304515
 31
0.0
  0
LINE
  5
252A
330
1A
100
AcDbEntity
  8
SEIHIN
  6
Continuous
 62
     3
100
AcDbLine
 10
158.9653694637958
 20
75.77577982304518
 30
0.0
 11
168.1367694637958
 21
92.24517982304519
 31
0.0
  0
LINE
  5
252B
330
1A
100
AcDbEntity
  8
SEIHIN
  6
Continuous
 62
     3
100
AcDbLine
 10
180.8502694637958
 20
64.99437982304517
 30
0.0
 11
177.9612694637958
 21
69.59817982304517
 31
0.0
  0
ARC
  5
252C
330
1A
100
AcDbEntity
  8
SEIHIN
  6
Continuous
 62
     3
100
AcDbCircle
 10
179.2944694637958
 20
70.28557982304517
 30
0.0
 40
1.499984
100
AcDbArc
 50
44.54354499999972
 51
207.2723069999998
  0
LINE
  5
252D
330
1A
100
AcDbEntity
  8
SEIHIN
  6
Continuous
 62
     3
100
AcDbLine
 10
155.0623694637958
 20
64.28567982304517
 30
0.0
 11
172.2858694637958
 21
67.52357982304517
 31
0.0
  0
LINE
  5
252E
330
1A
100
AcDbEntity
  8
SEIHIN
  6
Continuous
 62
     3
100
AcDbLine
 10
158.5909694637958
 20
66.98407982304516
 30
0.0
 11
172.0698694637958
 21
68.80527982304517
 31
0.0
  0
LINE
  5
252F
330
1A
100
AcDbEntity
  8
SEIHIN
  6
Continuous
 62
     3
100
AcDbLine
 10
158.1050694637958
 20
75.28567982304514
 30
0.0
 11
153.4028694637958
 21
75.28567982304514
 31
0.0
  0
LINE
  5
2530
330
1A
100
AcDbEntity
  8
SEIHIN
  6
Continuous
 62
     3
100
AcDbLine
 10
153.9283694637958
 20
67.27587982304516
 30
0.0
 11
156.2986694637958
 21
71.27577982304518
 31
0.0
  0
LINE
  5
2531
330
1A
100
AcDbEntity
  8
SEIHIN
  6
Continuous
 62
     3
100
AcDbLine
 10
148.7945694637958
 20
66.78577982304518
 30
0.0
 11
148.7945694637958
 21
72.78577982304518
 31
0.0
  0
ARC
  5
2532
330
1A
100
AcDbEntity
  8
SEIHIN
  6
Continuous
 62
     3
100
AcDbCircle
 10
153.0680694637958
 20
67.78567982304517
 30
0.0
 40
1.000003
100
AcDbArc
 50
270.0
 51
329.3496969999995
  0
ARC
  5
2533
330
1A
100
AcDbEntity
  8
SEIHIN
  6
Continuous
 62
     3
100
AcDbCircle
 10
147.9398694637958
 20
76.78567982304514
 30
0.0
 40
1.499983
100
AcDbArc
 50
270.0
 51
329.3487229999997
  0
ARC
  5
2534
330
1A
100
AcDbEntity
  8
SEIHIN
  6
Continuous
 62
     3
100
AcDbCircle
 10
158.4062694637958
 20
67.96677982304516
 30
0.0
 40
0.999956
100
AcDbArc
 50
149.3496969999997
 51
280.6446470000001
  0
ARC
  5
2535
330
1A
100
AcDbEntity
  8
SEIHIN
  6
Continuous
 62
     3
100
AcDbCircle
 10
155.4384694637958
 20
71.78567982304514
 30
0.0
 40
0.9999600000000001
100
AcDbArc
 50
329.3467760000001
 51
90.0
  0
ARC
  5
2536
330
1A
100
AcDbEntity
  8
SEIHIN
  6
Continuous
 62
     3
100
AcDbCircle
 10
158.1050694637958
 20
76.28567982304514
 30
0.0
 40
1.000003
100
AcDbArc
 50
270.0
 51
329.3496969999995
  0
ARC
  5
2537
330
1A
100
AcDbEntity
  8
SEIHIN
  6
Continuous
 62
     3
100
AcDbCircle
 10
172.1657694637958
 20
68.16247982304517
 30
0.0
 40
0.6500060000000001
100
AcDbArc
 50
278.475411
 51
98.48412899999983
  0
ARC
  5
2538
330
1A
100
AcDbEntity
  8
SEIHIN
  6
Continuous
 62
     3
100
AcDbCircle
 10
185.2944694637958
 20
67.28557982304517
 30
0.0
 40
5.000028
100
AcDbArc
 50
205.2238120000009
 51
0.0
  0
LINE
  5
2539
330
1A
100
AcDbEntity
  8
SEIHIN
  6
Continuous
 62
     3
100
AcDbLine
 10
180.3635694637958
 20
71.33777982304514
 30
0.0
 11
182.5818694637958
 21
69.08407982304516
 31
0.0
  0
ARC
  5
253A
330
1A
100
AcDbEntity
  8
SEIHIN
  6
Continuous
 62
     3
100
AcDbCircle
 10
183.2944694637958
 20
69.78557982304517
 30
0.0
 40
0.999975
100
AcDbArc
 50
224.5502650000007
 51
0.0
  0
ARC
  5
253B
330
1A
100
AcDbEntity
  8
SEIHIN
100
AcDbCircle
 10
176.6362209237958
 20
116.0459182630452
 30
0.0
 40
6.999999996543327
100
AcDbArc
 50
276.9999999703213
 51
350.7918456343346
  0
ARC
  5
253C
330
1A
100
AcDbEntity
  8
SEIHIN
  6
Continuous
 62
     3
100
AcDbCircle
 10
179.2944694637958
 20
86.28557982304517
 30
0.0
 40
5.0
100
AcDbArc
 50
0.0
 51
90.0
  0
LINE
  5
253D
330
1A
100
AcDbEntity
  8
SEIHIN
  6
Continuous
 62
     3
100
AcDbLine
 10
170.7577694637958
 20
93.78557982304517
 30
0.0
 11
181.2944694637958
 21
93.78557982304517
 31
0.0
  0
LINE
  5
253E
330
1A
100
AcDbEntity
  8
SEIHIN
  6
Continuous
 62
     3
100
AcDbLine
 10
185.2944694637958
 20
102.2855798230452
 30
0.0
 11
167.1442694637958
 21
102.2855798230452
 31
0.0
  0
LINE
  5
253F
330
1A
100
AcDbEntity
  8
SEIHIN
  6
Continuous
 62
     3
100
AcDbLine
 10
181.2944694637958
 20
99.78557982304517
 30
0.0
 11
167.4284694637958
 21
99.78567982304514
 31
0.0
  0
ARC
  5
2540
330
1A
100
AcDbEntity
  8
SEIHIN
  6
Continuous
 62
     3
100
AcDbCircle
 10
167.4284694637958
 20
96.78567982304514
 30
0.0
 40
3.000009
100
AcDbArc
 50
90.0
 51
149.3496969999997
  0
LINE
  5
2541
330
1A
100
AcDbEntity
  8
SEIHIN
  6
Continuous
 62
     3
100
AcDbLine
 10
152.5347694637958
 20
76.78207982304514
 30
0.0
 11
164.8029694637958
 21
98.23707982304518
 31
0.0
  0
ARC
  5
2542
330
1A
100
AcDbEntity
  8
SEIHIN
  6
Continuous
 62
     3
100
AcDbCircle
 10
173.4113694637958
 20
86.28557982304517
 30
0.0
 40
5.000015
100
AcDbArc
 50
90.0
 51
149.3496969999997
  0
ARC
  5
2543
330
1A
100
AcDbEntity
  8
SEIHIN
  6
Continuous
 62
     3
100
AcDbCircle
 10
170.7577694637958
 20
90.78557982304517
 30
0.0
 40
3.000006
100
AcDbArc
 50
90.0
 51
150.8871489999997
  0
LINE
  5
2544
330
1A
100
AcDbEntity
  8
SEIHIN
  6
Continuous
 62
     3
100
AcDbLine
 10
173.4113694637958
 20
91.28557982304517
 30
0.0
 11
179.2944694637958
 21
91.28557982304517
 31
0.0
  0
ARC
  5
2545
330
1A
100
AcDbEntity
  8
SEIHIN
  6
Continuous
 62
     3
100
AcDbCircle
 10
167.1442694637958
 20
97.28557982304517
 30
0.0
 40
5.0
100
AcDbArc
 50
90.0
 51
150.247301
  0
ARC
  5
2546
330
1A
100
AcDbEntity
  8
SEIHIN
100
AcDbCircle
 10
176.6362209237958
 20
116.0459182630452
 30
0.0
 40
0.9999999987021755
100
AcDbArc
 50
277.0000136757813
 51
350.7918453919471
  0
LINE
  5
2547
330
1A
100
AcDbEntity
  8
CENTER L
100
AcDbLine
 10
197.5871345880352
 20
97.00723787129182
 30
0.0
 11
211.1824278922256
 21
103.804884521012
 31
0.0
  0
LINE
  5
2548
330
1A
100
AcDbEntity
  8
SEIHIN
100
AcDbLine
 10
208.7818365724958
 20
77.97193587304514
 30
0.0
 11
192.6821471337958
 21
110.1713147430452
 31
0.0
  0
ARC
  5
2549
330
1A
100
AcDbEntity
  8
SEIHIN
  6
Continuous
 62
     3
100
AcDbCircle
 10
181.2944694637958
 20
96.78557982304517
 30
0.0
 40
3.0
100
AcDbArc
 50
0.0
 51
90.0
  0
ARC
  5
254A
330
1A
100
AcDbEntity
  8
SEIHIN
  6
Continuous
 62
     3
100
AcDbCircle
 10
185.2944694637958
 20
97.28557982304517
 30
0.0
 40
5.0
100
AcDbArc
 50
0.0
 51
90.0
  0
ARC
  5
254B
330
1A
100
AcDbEntity
  8
SEIHIN
  6
Continuous
 62
     3
100
AcDbCircle
 10
181.2944694637958
 20
96.78557982304517
 30
0.0
 40
3.0
100
AcDbArc
 50
270.0
 51
0.0
  0
ARC
  5
254C
330
1A
100
AcDbEntity
  8
SEIHIN
  6
Continuous
 62
     3
100
AcDbCircle
 10
185.2944694637958
 20
97.28557982304517
 30
0.0
 40
5.000022
100
AcDbArc
 50
0.0
 51
2.064221999999495
  0
LINE
  5
254D
330
1A
100
AcDbEntity
  8
SEIHIN
100
AcDbLine
 10
208.7818365347376
 20
90.27030981977255
 30
0.0
 11
207.4401957473384
 21
86.2453874619049
 31
0.0
  0
LINE
  5
254E
330
1A
100
AcDbEntity
  8
SEIHIN
100
AcDbLine
 10
207.4401957473384
 20
86.2453874619049
 30
0.0
 11
211.465118107604
 21
84.90374667370638
 31
0.0
  0
LINE
  5
254F
330
1A
100
AcDbEntity
  8
SEIHIN
100
AcDbLine
 10
207.4401957473384
 20
86.24538746190491
 30
0.0
 11
210.1234773211708
 21
87.58702824673947
 31
0.0
  0
LINE
  5
2550
330
1A
100
AcDbEntity
  8
CENTER L
100
AcDbLine
 10
193.7858190255178
 20
104.6098689967988
 30
0.0
 11
207.3811123289527
 21
111.4075156461411
 31
0.0
  0
LINE
  5
2551
330
1A
100
AcDbEntity
  8
SEIHIN
100
AcDbLine
 10
192.6821471337958
 20
110.1713147430452
 30
0.0
 11
198.6748093137958
 21
113.1676458330451
 31
0.0
  0
LINE
  5
2552
330
1A
100
AcDbEntity
  8
SEIHIN
100
AcDbLine
 10
193.7004052537958
 20
121.9984199630451
 30
0.0
 11
198.2275957187958
 21
112.9440390330452
 31
0.0
  0
LINE
  5
2553
330
1A
100
AcDbEntity
  8
SEIHIN
100
AcDbLine
 10
191.0721778437958
 20
116.0745348930452
 30
0.0
 11
193.7554597637958
 21
110.7079710630451
 31
0.0
  0
ARC
  5
2554
330
1A
100
AcDbEntity
  8
SEIHIN
100
AcDbCircle
 10
187.4944694237958
 20
114.2856798230451
 30
0.0
 40
3.999999999152388
100
AcDbArc
 50
26.56506219516107
 51
170.7918455333397
  0
ARC
  5
2555
330
1A
100
AcDbEntity
  8
SEIHIN
100
AcDbCircle
 10
192.8059780637958
 20
121.5512063730452
 30
0.0
 40
0.999999996418881
100
AcDbArc
 50
26.56505092084455
 51
53.83109520443878
  0
LINE
  5
2556
330
1A
100
AcDbEntity
  8
SEIHIN
100
AcDbLine
 10
199.8375646281821
 20
108.1588536339948
 30
0.0
 11
198.4959238407829
 21
104.1339312761271
 31
0.0
  0
LINE
  5
2557
330
1A
100
AcDbEntity
  8
SEIHIN
100
AcDbLine
 10
198.4959238407829
 20
104.1339312761271
 30
0.0
 11
202.5208462010485
 21
102.7922904879286
 31
0.0
  0
LINE
  5
2558
330
1A
100
AcDbEntity
  8
SEIHIN
100
AcDbLine
 10
198.4959238407829
 20
104.1339312761271
 30
0.0
 11
201.1792054146153
 21
105.4755720609617
 31
0.0
  0
SPLINE
  5
2559
330
1A
100
AcDbEntity
  8
SEIHIN
100
AcDbSpline
210
0.0
220
0.0
230
1.0
 70
     8
 71
     3
 72
    43
 73
    39
 74
     0
 42
0.0000000001
 43
0.0000000001
 40
2.57380128242174
 40
2.57380128242174
 40
2.57380128242174
 40
2.57380128242174
 40
2.743484381278567
 40
2.743484381278567
 40
2.952958003969504
 40
2.952958003969504
 40
3.16243162666044
 40
3.16243162666044
 40
3.371905249351376
 40
3.371905249351376
 40
3.581378872042312
 40
3.581378872042312
 40
3.790852494733248
 40
3.790852494733248
 40
4.212890898554043
 40
4.212890898554043
 40
4.634929302374837
 40
4.634929302374837
 40
4.71238898038469
 40
4.71238898038469
 40
4.71238898038469
 40
5.035006403854933
 40
5.035006403854933
 40
5.404586182618241
 40
5.404586182618241
 40
5.774165961381549
 40
5.774165961381549
 40
6.00394318856648
 40
6.00394318856648
 40
6.233720415751412
 40
6.233720415751412
 40
6.426033209648384
 40
6.426033209648384
 40
6.618346003545357
 40
6.618346003545357
 40
6.810658797442329
 40
6.810658797442329
 40
6.85074050005261
 40
6.85074050005261
 40
6.85074050005261
 40
6.85074050005261
 10
206.9504782245454
 20
205.4150305402507
 30
0.0
 10
207.0494290588122
 20
205.5499341482273
 30
0.0
 10
207.1611404391584
 20
205.6762125691108
 30
0.0
 10
207.4476532369616
 20
205.9336596672406
 30
0.0
 10
207.6331884378984
 20
206.0587633607314
 30
0.0
 10
208.0620424472278
 20
206.2336819817689
 30
0.0
 10
208.3061585654789
 20
206.2801134456218
 30
0.0
 10
208.7903966095669
 20
206.2585504636168
 30
0.0
 10
209.0256283215119
 20
206.1914882736086
 30
0.0
 10
209.4323390253092
 20
205.9877421324738
 30
0.0
 10
209.6056348976174
 20
205.8535720619655
 30
0.0
 10
209.9023660638639
 20
205.5552733230203
 30
0.0
 10
210.026944897226
 20
205.3904218921875
 30
0.0
 10
210.3535712468799
 20
204.8607279841151
 30
0.0
 10
210.5083052177229
 20
204.4608205708296
 30
0.0
 10
210.728146826951
 20
203.6000137431662
 30
0.0
 10
210.7910183722172
 20
203.1390045765012
 30
0.0
 10
210.8110829473132
 20
202.5866789415404
 30
0.0
 10
210.8126387189223
 20
202.5008547761963
 30
0.0
 10
210.8126387189223
 20
202.4150305302507
 30
0.0
 10
210.8126387189223
 20
202.057574911926
 30
0.0
 10
210.7856749698691
 20
201.7002199705012
 30
0.0
 10
210.6697739871602
 20
200.9594802607009
 30
0.0
 10
210.5729546689895
 20
200.5802384089243
 30
0.0
 10
210.3015788443264
 20
199.8808666028703
 30
0.0
 10
210.1289323773385
 20
199.5592485813593
 30
0.0
 10
209.747192946386
 20
199.1040845507882
 30
0.0
 10
209.5749730321681
 20
198.9445926313755
 30
0.0
 10
209.1585365419661
 20
198.6894760823376
 30
0.0
 10
208.910799230079
 20
198.5960386964516
 30
0.0
 10
208.4266063848281
 20
198.5448256553931
 30
0.0
 10
208.1988186385692
 20
198.5687384412812
 30
0.0
 10
207.7849918067312
 20
198.6959045523055
 30
0.0
 10
207.5994878252829
 20
198.7965602841767
 30
0.0
 10
207.2790581017669
 20
199.0350109905058
 30
0.0
 10
207.1426783214114
 20
199.1726936891058
 30
0.0
 10
206.9987362798304
 20
199.3518430709557
 30
0.0
 10
206.9746230284721
 20
199.3832101432366
 30
0.0
 10
206.9511919099549
 20
199.4150305402507
 30
0.0
  0
ELLIPSE
  5
255A
330
1A
100
AcDbEntity
  8
SEIHIN
100
AcDbEllipse
 10
199.569236504929
 20
177.9150305302507
 30
0.0
 11
0.0
 21
-2.0
 31
0.0
210
0.0
220
0.0
230
-1.0
 40
0.4472135955666232
 41
6.283185305876721
 42
7.853981633974483
  0
ELLIPSE
  5
255B
330
1A
100
AcDbEntity
  8
SEIHIN
100
AcDbEllipse
 10
198.495923874929
 20
177.9150305302507
 30
0.0
 11
0.0
 21
-2.0
 31
0.0
210
0.0
220
0.0
230
-1.0
 40
0.4472135955666232
 41
6.283185305876721
 42
7.853981633974483
  0
ELLIPSE
  5
255C
330
1A
100
AcDbEntity
  8
SEIHIN
100
AcDbEllipse
 10
201.1201219915158
 20
181.4150305302507
 30
0.0
 11
0.0
 21
2.1000000000672
 31
0.0
210
0.0
220
0.0
230
1.0
 40
0.4867014234079679
 41
-1.570796326794897
 42
4.71238898038469
  0
ELLIPSE
  5
255D
330
1A
100
AcDbEntity
  8
SEIHIN
100
AcDbEllipse
 10
201.1201219915158
 20
181.4150305302507
 30
0.0
 11
0.0
 21
2.1000000000672
 31
0.0
210
0.0
220
0.0
230
1.0
 40
0.4867014234079679
 41
3.141592653589791
 42
6.2831853071796
  0
ELLIPSE
  5
255E
330
1A
100
AcDbEntity
  8
SEIHIN
100
AcDbEllipse
 10
201.1201219915158
 20
181.4150305302507
 30
0.0
 11
0.0
 21
2.1000000000672
 31
0.0
210
0.0
220
0.0
230
1.0
 40
0.4867014234079679
 41
0.0000000000000009
 42
3.141592653589807
  0
ELLIPSE
  5
255F
330
1A
100
AcDbEntity
  8
SEIHIN
100
AcDbEllipse
 10
204.9214375547887
 20
182.9150305302507
 30
0.0
 11
0.0
 21
2.874999999613672
 31
0.0
210
0.0
220
0.0
230
1.0
 40
0.3913043478762229
 41
-1.570796326794897
 42
4.71238898038469
  0
ELLIPSE
  5
2560
330
1A
100
AcDbEntity
  8
SEIHIN
100
AcDbEllipse
 10
198.495923874929
 20
226.9150305302507
 30
0.0
 11
0.0
 21
2.0
 31
0.0
210
0.0
220
0.0
230
1.0
 40
0.4472135955666232
 41
6.283185305876721
 42
7.853981633974483
  0
ELLIPSE
  5
2561
330
1A
100
AcDbEntity
  8
SEIHIN
100
AcDbEllipse
 10
199.569236504929
 20
226.9150305302507
 30
0.0
 11
0.0
 21
2.0
 31
0.0
210
0.0
220
0.0
230
1.0
 40
0.4472135955666232
 41
6.283185305876721
 42
7.853981633974483
  0
ELLIPSE
  5
2562
330
1A
100
AcDbEntity
  8
SEIHIN
100
AcDbEllipse
 10
208.4759385124958
 20
202.4150305302507
 30
0.0
 11
0.0
 21
-2.8559114857152
 31
0.0
210
0.0
220
0.0
230
-1.0
 40
0.4680467910551545
 41
-1.570796326794897
 42
4.71238898038469
  0
ELLIPSE
  5
2563
330
1A
100
AcDbEntity
  8
SEIHIN
100
AcDbEllipse
 10
204.9214375547887
 20
221.9150305302507
 30
0.0
 11
0.0
 21
-2.874999999613672
 31
0.0
210
0.0
220
0.0
230
-1.0
 40
0.3913043478762229
 41
-1.570796326794897
 42
4.71238898038469
  0
ELLIPSE
  5
2564
330
1A
100
AcDbEntity
  8
SEIHIN
100
AcDbEllipse
 10
201.1201219915158
 20
223.4150305302507
 30
0.0
 11
0.0
 21
-2.1000000000672
 31
0.0
210
0.0
220
0.0
230
-1.0
 40
0.4867014234079679
 41
-1.570796326794897
 42
4.71238898038469
  0
ELLIPSE
  5
2565
330
1A
100
AcDbEntity
  8
SEIHIN
100
AcDbEllipse
 10
201.1201219915158
 20
223.4150305302507
 30
0.0
 11
0.0
 21
-2.1000000000672
 31
0.0
210
0.0
220
0.0
230
-1.0
 40
0.4867014234079679
 41
3.141592653589791
 42
6.2831853071796
  0
ELLIPSE
  5
2566
330
1A
100
AcDbEntity
  8
SEIHIN
100
AcDbEllipse
 10
201.1201219915158
 20
223.4150305302507
 30
0.0
 11
0.0
 21
-2.1000000000672
 31
0.0
210
0.0
220
0.0
230
-1.0
 40
0.4867014234079679
 41
0.0000000000000009
 42
3.141592653589807
  0
LINE
  5
2567
330
1A
100
AcDbEntity
  8
SEIHIN
  6
Continuous
 62
     3
100
AcDbLine
 10
64.29446946379582
 20
209.9150305302507
 30
0.0
 11
96.72737243379578
 21
209.9150305302507
 31
0.0
  0
LINE
  5
2568
330
1A
100
AcDbEntity
  8
SEIHIN
  6
Continuous
 62
     3
100
AcDbLine
 10
64.29436946379573
 20
194.9150305302507
 30
0.0
 11
96.72737243379578
 21
194.9150305302507
 31
0.0
  0
DIMENSION
  5
2569
330
1A
100
AcDbEntity
  8
SUNPOU
100
AcDbDimension
  2
*D7
 10
39.23698611762143
 20
191.4150305302507
 30
0.0
 11
36.7369861176214
 21
202.4150305302507
 31
0.0
 70
    32
 71
     5
 42
22.0
  3
STANDARD
100
AcDbAlignedDimension
 13
61.29446946379582
 23
213.4150305302507
 33
0.0
 14
61.29446946379576
 24
191.4150305302507
 34
0.0
 50
90.0
100
AcDbRotatedDimension
1001
ACAD
1000
DSTYLE
1002
{
1070
    41
1040
3.0
1070
    42
1040
3.0
1070
    43
1040
7.0
1070
    44
1040
1.5
1070
    73
1070
     0
1070
    74
1070
     0
1070
    77
1070
     3
1070
   140
1040
3.0
1070
   141
1040
3.0
1070
   147
1040
1.0
1070
   172
1070
     1
1070
   173
1070
     1
1070
   176
1070
   256
1070
   177
1070
   256
1070
   178
1070
   256
1070
   271
1070
     0
1070
   272
1070
     0
1070
   341
1005
B2
1070
     6
1000
OPEN
1070
     7
1000
OPEN
1002
}
  0
LINE
  5
256A
330
1A
100
AcDbEntity
  8
SEIHIN
  6
Continuous
 62
     3
100
AcDbLine
 10
64.29446946379582
 20
202.4152305302507
 30
0.0
 11
64.29436946379573
 21
191.4150305302507
 31
0.0
  0
LINE
  5
256B
330
1A
100
AcDbEntity
  8
SEIHIN
  6
Continuous
 62
     3
100
AcDbLine
 10
61.29446946379576
 20
191.4150305302507
 30
0.0
 11
61.29446946379582
 21
213.4150305302507
 31
0.0
  0
LINE
  5
256C
330
1A
100
AcDbEntity
  8
SEIHIN
  6
Continuous
 62
     3
100
AcDbLine
 10
61.29446946379576
 20
191.4150305302507
 30
0.0
 11
64.29436946379573
 21
191.4150305302507
 31
0.0
  0
LINE
  5
256D
330
1A
100
AcDbEntity
  8
SEIHIN
  6
Continuous
 62
     3
100
AcDbLine
 10
64.29446946379582
 20
202.4148305302507
 30
0.0
 11
64.29446946379582
 21
213.4150305302507
 31
0.0
  0
LINE
  5
256E
330
1A
100
AcDbEntity
  8
SEIHIN
  6
Continuous
 62
     3
100
AcDbLine
 10
61.29446946379582
 20
213.4150305302507
 30
0.0
 11
64.29446946379582
 21
213.4150305302507
 31
0.0
  0
LINE
  5
256F
330
1A
100
AcDbEntity
  8
SEIHIN
  6
Continuous
 62
     3
100
AcDbLine
 10
78.29446946379582
 20
202.4149305302507
 30
0.0
 11
78.29446946379582
 21
209.9151305302507
 31
0.0
  0
LINE
  5
2570
330
1A
100
AcDbEntity
  8
SEIHIN
  6
Continuous
 62
     3
100
AcDbLine
 10
78.29446946379582
 20
202.4151305302507
 30
0.0
 11
78.29446946379582
 21
194.9149305302507
 31
0.0
  0
LINE
  5
2571
330
1A
100
AcDbEntity
  8
SEIHIN
100
AcDbLine
 10
198.6748093137958
 20
212.2380821202507
 30
0.0
 11
198.6748093137958
 21
226.9150305302507
 31
0.0
  0
LINE
  5
2572
330
1A
100
AcDbEntity
  8
SEIHIN
100
AcDbLine
 10
197.6014966837957
 20
226.9150305302507
 30
0.0
 11
197.6014966837957
 21
211.6163703502507
 31
0.0
  0
LINE
  5
2573
330
1A
100
AcDbEntity
  8
SEIHIN
 62
     3
100
AcDbLine
 10
100.8406448767959
 20
194.9150305202507
 30
0.0
 11
209.8857393467958
 21
194.9150305202507
 31
0.0
  0
LINE
  5
2574
330
1A
100
AcDbEntity
  8
SEIHIN
 62
     3
100
AcDbLine
 10
100.8406448767959
 20
209.9150305402507
 30
0.0
 11
209.8857393467958
 21
209.9150305402507
 31
0.0
  0
LINE
  5
2575
330
1A
100
AcDbEntity
  8
SEIHIN
 62
     3
100
AcDbLine
 10
100.3406448767959
 20
195.9150305202507
 30
0.0
 11
212.7468317017958
 21
195.9150305202507
 31
0.0
  0
LINE
  5
2576
330
1A
100
AcDbEntity
  8
SEIHIN
 62
     3
100
AcDbLine
 10
100.3406448767959
 20
208.9150305402507
 30
0.0
 11
212.7468317017958
 21
208.9150305402507
 31
0.0
  0
LINE
  5
2577
330
1A
100
AcDbEntity
  8
SEIHIN
 62
     3
100
AcDbLine
 10
127.6007525637958
 20
199.4150305402507
 30
0.0
 11
206.9511919099549
 21
199.4150305402507
 31
0.0
  0
LINE
  5
2578
330
1A
100
AcDbEntity
  8
SEIHIN
 62
     3
100
AcDbLine
 10
127.6007525637958
 20
205.4150305402507
 30
0.0
 11
206.9504782245454
 21
205.4150305402507
 31
0.0
  0
LINE
  5
2579
330
1A
100
AcDbEntity
  8
SEIHIN
100
AcDbLine
 10
98.15966164379577
 20
210.4150305502507
 30
0.0
 11
117.1944694657958
 21
210.4150305502507
 31
0.0
  0
LINE
  5
257A
330
1A
100
AcDbEntity
  8
SEIHIN
100
AcDbLine
 10
117.1944694657958
 20
194.4150305102507
 30
0.0
 11
98.15962297379576
 21
194.4150765102507
 31
0.0
  0
LINE
  5
257B
330
1A
100
AcDbEntity
  8
SEIHIN
100
AcDbLine
 10
100.8032754237958
 20
206.5694745502507
 30
0.0
 11
122.8619625487958
 21
206.5694745502507
 31
0.0
  0
LINE
  5
257C
330
1A
100
AcDbEntity
  8
SEIHIN
100
AcDbLine
 10
98.01375587379579
 20
208.6871041502507
 30
0.0
 11
125.6007525637958
 21
208.6871041502507
 31
0.0
  0
LINE
  5
257D
330
1A
100
AcDbEntity
  8
SEIHIN
100
AcDbLine
 10
100.8032754237958
 20
198.2605865002507
 30
0.0
 11
122.8619625487958
 21
198.2605865002507
 31
0.0
  0
LINE
  5
257E
330
1A
100
AcDbEntity
  8
SEIHIN
100
AcDbLine
 10
98.01375587379579
 20
196.1429568702507
 30
0.0
 11
125.6007525637958
 21
196.1429568702507
 31
0.0
  0
LINE
  5
257F
330
1A
100
AcDbEntity
  8
SEIHIN
100
AcDbLine
 10
96.72737243379578
 20
191.4150305102507
 30
0.0
 11
96.72737243379578
 21
194.9150305102507
 31
0.0
  0
LINE
  5
2580
330
1A
100
AcDbEntity
  8
SEIHIN
100
AcDbLine
 10
97.72737243379578
 20
194.4150305102507
 30
0.0
 11
97.72737243379578
 21
191.4150305102507
 31
0.0
  0
LINE
  5
2581
330
1A
100
AcDbEntity
  8
SEIHIN
100
AcDbLine
 10
97.72737243379578
 20
191.4150305102507
 30
0.0
 11
96.72737243379578
 21
191.4150305102507
 31
0.0
  0
ARC
  5
2582
330
1A
100
AcDbEntity
  8
SEIHIN
100
AcDbCircle
 10
98.22737243379578
 20
210.4150305502507
 30
0.0
 40
0.5
100
AcDbArc
 50
180.0
 51
270.0
  0
ARC
  5
2583
330
1A
100
AcDbEntity
  8
SEIHIN
100
AcDbCircle
 10
98.22737243379578
 20
194.4150305102507
 30
0.0
 40
0.5
100
AcDbArc
 50
90.0
 51
180.0
  0
LINE
  5
2584
330
1A
100
AcDbEntity
  8
SEIHIN
100
AcDbLine
 10
100.8032754237958
 20
197.1429568702507
 30
0.0
 11
98.01375587379579
 21
197.1429568702507
 31
0.0
  0
LINE
  5
2585
330
1A
100
AcDbEntity
  8
SEIHIN
100
AcDbLine
 10
100.8032754237958
 20
207.6871041502507
 30
0.0
 11
98.01375587379579
 21
207.6871041502507
 31
0.0
  0
LINE
  5
2586
330
1A
100
AcDbEntity
  8
SEIHIN
100
AcDbLine
 10
98.01375587379579
 20
204.3396418502507
 30
0.0
 11
100.8032754237958
 21
204.3396418502507
 31
0.0
  0
LINE
  5
2587
330
1A
100
AcDbEntity
  8
SEIHIN
100
AcDbLine
 10
98.01375587379579
 20
200.4904191702507
 30
0.0
 11
100.8032754237958
 21
200.4904191702507
 31
0.0
  0
LINE
  5
2588
330
1A
100
AcDbEntity
  8
SEIHIN
  6
Continuous
 62
     3
100
AcDbLine
 10
90.79436946379585
 20
194.9150305302507
 30
0.0
 11
90.79436946379585
 21
209.9150305302507
 31
0.0
  0
LINE
  5
2589
330
1A
100
AcDbEntity
  8
SEIHIN
100
AcDbLine
 10
98.01375587379579
 20
207.6871041502507
 30
0.0
 11
98.01375587379579
 21
197.1429568702507
 31
0.0
  0
ARC
  5
258A
330
1A
100
AcDbEntity
  8
SEIHIN
100
AcDbCircle
 10
98.01375587379579
 20
202.4150305102507
 30
0.0
 40
3.000000000000011
100
AcDbArc
 50
90.00000515662018
 51
269.9999952253517
  0
LINE
  5
258B
330
1A
100
AcDbEntity
  8
SEIHIN
100
AcDbLine
 10
92.19446946379577
 20
194.4150305102507
 30
0.0
 11
96.15937678379578
 21
194.4150305102507
 31
0.0
  0
LINE
  5
258C
330
1A
100
AcDbEntity
  8
SEIHIN
100
AcDbLine
 10
96.15961840379578
 20
194.9150305102507
 30
0.0
 11
92.19446946379577
 21
194.9150305102507
 31
0.0
  0
LINE
  5
258D
330
1A
100
AcDbEntity
  8
SEIHIN
100
AcDbLine
 10
92.19446946379577
 20
194.4150305102507
 30
0.0
 11
92.19446946379577
 21
194.9150305102507
 31
0.0
  0
LINE
  5
258E
330
1A
100
AcDbEntity
  8
SEIHIN
100
AcDbLine
 10
98.01375587379579
 20
197.1429568702507
 30
0.0
 11
98.01375587379579
 21
196.1429568702507
 31
0.0
  0
LINE
  5
258F
330
1A
100
AcDbEntity
  8
SEIHIN
100
AcDbLine
 10
96.15961722379578
 20
194.4150305102507
 30
0.0
 11
96.15961840379578
 21
194.9150305102507
 31
0.0
  0
ARC
  5
2590
330
1A
100
AcDbEntity
  8
SEIHIN
100
AcDbCircle
 10
97.72737243379578
 20
194.9150305102507
 30
0.0
 40
1.0
100
AcDbArc
 50
90.0
 51
180.0
  0
LINE
  5
2591
330
1A
100
AcDbEntity
  8
SEIHIN
100
AcDbLine
 10
96.15965377379578
 20
209.9150305502507
 30
0.0
 11
96.15965495379578
 21
210.4150305502507
 31
0.0
  0
LINE
  5
2592
330
1A
100
AcDbEntity
  8
SEIHIN
100
AcDbLine
 10
92.19446946379577
 20
209.9150305502507
 30
0.0
 11
92.19446946379577
 21
210.4150305502507
 31
0.0
  0
LINE
  5
2593
330
1A
100
AcDbEntity
  8
SEIHIN
100
AcDbLine
 10
96.72737243379578
 20
213.4150305502507
 30
0.0
 11
96.72737243379578
 21
209.9150305502507
 31
0.0
  0
LINE
  5
2594
330
1A
100
AcDbEntity
  8
SEIHIN
100
AcDbLine
 10
96.15965377379578
 20
209.9150305502507
 30
0.0
 11
92.19446946379577
 21
209.9150305502507
 31
0.0
  0
LINE
  5
2595
330
1A
100
AcDbEntity
  8
SEIHIN
100
AcDbLine
 10
98.01375587379579
 20
207.6871041502507
 30
0.0
 11
98.01375587379579
 21
208.6871041502507
 31
0.0
  0
ARC
  5
2596
330
1A
100
AcDbEntity
  8
SEIHIN
100
AcDbCircle
 10
97.72737243379578
 20
209.9150305502507
 30
0.0
 40
1.0
100
AcDbArc
 50
180.0
 51
270.0
  0
LINE
  5
2597
330
1A
100
AcDbEntity
  8
SEIHIN
100
AcDbLine
 10
92.19446946379577
 20
210.4150305502507
 30
0.0
 11
96.15937678379578
 21
210.4150305502507
 31
0.0
  0
LINE
  5
2598
330
1A
100
AcDbEntity
  8
SEIHIN
100
AcDbLine
 10
97.72737243379578
 20
213.4150305502507
 30
0.0
 11
96.72737243379578
 21
213.4150305502507
 31
0.0
  0
LINE
  5
2599
330
1A
100
AcDbEntity
  8
SEIHIN
100
AcDbLine
 10
97.72737243379578
 20
210.4150305502507
 30
0.0
 11
97.72737243379578
 21
213.4150305502507
 31
0.0
  0
LINE
  5
259A
330
1A
100
AcDbEntity
  8
SEIHIN
100
AcDbLine
 10
100.8032754237958
 20
196.1429568702507
 30
0.0
 11
100.8032754237958
 21
208.6871041502507
 31
0.0
  0
ARC
  5
259B
330
1A
100
AcDbEntity
  8
SEIHIN
100
AcDbCircle
 10
107.1947105937958
 20
198.9333600102507
 30
0.0
 40
5.715337531631893
100
AcDbArc
 50
232.2375418744897
 51
307.7621812247566
  0
LINE
  5
259C
330
1A
100
AcDbEntity
  8
SEIHIN
100
AcDbLine
 10
100.8032754237958
 20
196.1429568702507
 30
0.0
 11
100.8032754237958
 21
197.3429568702507
 31
0.0
  0
LINE
  5
259D
330
1A
100
AcDbEntity
  8
SEIHIN
100
AcDbLine
 10
98.15962297379576
 20
194.4150765102507
 30
0.0
 11
98.15962418379576
 21
194.9150305102507
 31
0.0
  0
LINE
  5
259E
330
1A
100
AcDbEntity
  8
SEIHIN
100
AcDbLine
 10
110.6946996737958
 20
211.4794689502507
 30
0.0
 11
103.6946996737958
 21
211.4794689502507
 31
0.0
  0
LINE
  5
259F
330
1A
100
AcDbEntity
  8
SEIHIN
100
AcDbLine
 10
103.6946996737958
 20
210.4150305502507
 30
0.0
 11
110.6946996737958
 21
210.4150305502507
 31
0.0
  0
LINE
  5
25A0
330
1A
100
AcDbEntity
  8
SEIHIN
100
AcDbLine
 10
98.15966043379578
 20
209.9150305502507
 30
0.0
 11
98.15966164379577
 21
210.4150305502507
 31
0.0
  0
LINE
  5
25A1
330
1A
100
AcDbEntity
  8
SEIHIN
100
AcDbLine
 10
100.8032754237958
 20
208.6871041502507
 30
0.0
 11
100.8032754237958
 21
207.4871041502507
 31
0.0
  0
LINE
  5
25A2
330
1A
100
AcDbEntity
  8
SEIHIN
100
AcDbLine
 10
103.6946996737958
 20
211.4794689502507
 30
0.0
 11
103.6946996737958
 21
210.4150305502507
 31
0.0
  0
LINE
  5
25A3
330
1A
100
AcDbEntity
  8
SEIHIN
100
AcDbLine
 10
110.6946996737958
 20
210.4150305502507
 30
0.0
 11
110.6946996737958
 21
211.4794689502507
 31
0.0
  0
LINE
  5
25A4
330
1A
100
AcDbEntity
  8
SEIHIN
100
AcDbLine
 10
126.4531868567958
 20
198.1429568702507
 30
0.0
 11
126.4531868567958
 21
206.6871041502507
 31
0.0
  0
LINE
  5
25A5
330
1A
100
AcDbEntity
  8
SEIHIN
100
AcDbLine
 10
127.6007525637958
 20
198.1429568702507
 30
0.0
 11
127.6007525637958
 21
206.6871041502507
 31
0.0
  0
LINE
  5
25A6
330
1A
100
AcDbEntity
  8
SEIHIN
100
AcDbLine
 10
124.8619625487958
 20
204.5694745202507
 30
0.0
 11
124.8619625487958
 21
200.2605865002507
 31
0.0
  0
LINE
  5
25A7
330
1A
100
AcDbEntity
  8
SEIHIN
100
AcDbLine
 10
116.2968919527958
 20
199.2605865002507
 30
0.0
 11
116.2968919527958
 21
205.5694745202507
 31
0.0
  0
LINE
  5
25A8
330
1A
100
AcDbEntity
  8
SEIHIN
100
AcDbLine
 10
121.1388121882958
 20
199.2605865002507
 30
0.0
 11
121.1388121882958
 21
205.5694745202507
 31
0.0
  0
LINE
  5
25A9
330
1A
100
AcDbEntity
  8
SEIHIN
100
AcDbLine
 10
117.1944694657958
 20
194.4150305102507
 30
0.0
 11
117.1944694657958
 21
194.9150305102507
 31
0.0
  0
ARC
  5
25AA
330
1A
100
AcDbEntity
  8
SEIHIN
100
AcDbCircle
 10
122.8619625487958
 20
200.2605865002507
 30
0.0
 40
2.0
100
AcDbArc
 50
270.0
 51
0.0
  0
ARC
  5
25AB
330
1A
100
AcDbEntity
  8
SEIHIN
100
AcDbCircle
 10
125.6007525637958
 20
198.1429568702507
 30
0.0
 40
2.0
100
AcDbArc
 50
270.0
 51
0.0
  0
ARC
  5
25AC
330
1A
100
AcDbEntity
  8
SEIHIN
100
AcDbCircle
 10
125.6007525637958
 20
198.1429568702507
 30
0.0
 40
2.0
100
AcDbArc
 50
270.0
 51
0.0
  0
ARC
  5
25AD
330
1A
100
AcDbEntity
  8
SEIHIN
100
AcDbCircle
 10
124.4531868567958
 20
198.1429568702507
 30
0.0
 40
2.0
100
AcDbArc
 50
270.0
 51
0.0
  0
LINE
  5
25AE
330
1A
100
AcDbEntity
  8
SEIHIN
100
AcDbLine
 10
126.186314338759
 20
194.9150305102507
 30
0.0
 11
126.186314338759
 21
195.9150305102507
 31
0.0
  0
LINE
  5
25AF
330
1A
100
AcDbEntity
  8
SEIHIN
100
AcDbLine
 10
117.1944694657958
 20
209.9150305502507
 30
0.0
 11
117.1944694657958
 21
210.4150305502507
 31
0.0
  0
ARC
  5
25B0
330
1A
100
AcDbEntity
  8
SEIHIN
100
AcDbCircle
 10
125.6007525637958
 20
206.6871041502507
 30
0.0
 40
2.0
100
AcDbArc
 50
0.0
 51
90.0
  0
ARC
  5
25B1
330
1A
100
AcDbEntity
  8
SEIHIN
100
AcDbCircle
 10
125.6007525637958
 20
206.6871041502507
 30
0.0
 40
2.0
100
AcDbArc
 50
0.0
 51
90.0
  0
ARC
  5
25B2
330
1A
100
AcDbEntity
  8
SEIHIN
100
AcDbCircle
 10
124.4531868567958
 20
206.6871041502507
 30
0.0
 40
2.0
100
AcDbArc
 50
0.0
 51
90.0
  0
LINE
  5
25B3
330
1A
100
AcDbEntity
  8
SEIHIN
100
AcDbLine
 10
126.186314338759
 20
208.9150305502507
 30
0.0
 11
126.186314338759
 21
209.9150305502507
 31
0.0
  0
ARC
  5
25B4
330
1A
100
AcDbEntity
  8
SEIHIN
100
AcDbCircle
 10
122.8619625487958
 20
204.5694745202507
 30
0.0
 40
2.000000014999998
100
AcDbArc
 50
0.0
 51
90.0
  0
ARC
  5
25B5
330
1A
100
AcDbEntity
  8
SEIHIN
100
AcDbCircle
 10
182.7731342047427
 20
202.4150305102507
 30
0.0
 40
3.25
100
AcDbArc
 50
112.6198649480423
 51
247.3801350519577
  0
LINE
  5
25B6
330
1A
100
AcDbEntity
  8
SEIHIN
100
AcDbLine
 10
178.4792313257803
 20
195.9150305102507
 30
0.0
 11
178.4792313257803
 21
194.9150305102507
 31
0.0
  0
LINE
  5
25B7
330
1A
100
AcDbEntity
  8
SEIHIN
100
AcDbLine
 10
178.4792313257803
 20
208.9150305502507
 30
0.0
 11
178.4792313257803
 21
209.9150305502507
 31
0.0
  0
LINE
  5
25B8
330
1A
100
AcDbEntity
  8
SEIHIN
100
AcDbLine
 10
197.6014966837957
 20
177.9150305302507
 30
0.0
 11
197.6014966837957
 21
193.2136907102507
 31
0.0
  0
LINE
  5
25B9
330
1A
100
AcDbEntity
  8
SEIHIN
100
AcDbLine
 10
198.6748093137958
 20
192.5919789402507
 30
0.0
 11
198.6748093137958
 21
177.9150305302507
 31
0.0
  0
LINE
  5
25BA
330
1A
100
AcDbEntity
  8
SEIHIN
100
AcDbLine
 10
211.5136792887957
 20
194.9150305302507
 30
0.0
 11
211.5136792887957
 21
191.9150305302507
 31
0.0
  0
LINE
  5
25BB
330
1A
100
AcDbEntity
  8
SEIHIN
100
AcDbLine
 10
204.8388997477958
 20
194.9150305302507
 30
0.0
 11
204.8388997477958
 21
191.9150305302507
 31
0.0
  0
LINE
  5
25BC
330
1A
100
AcDbEntity
  8
SEIHIN
100
AcDbLine
 10
211.5136792887957
 20
191.9150305302507
 30
0.0
 11
210.1242775797957
 21
193.9862253402507
 31
0.0
  0
LINE
  5
25BD
330
1A
100
AcDbEntity
  8
SEIHIN
100
AcDbLine
 10
210.1242775797957
 20
191.9150305302507
 30
0.0
 11
210.1242775797957
 21
194.9150305302507
 31
0.0
  0
LINE
  5
25BE
330
1A
100
AcDbEntity
  8
SEIHIN
100
AcDbLine
 10
203.4494980387958
 20
191.9150305302507
 30
0.0
 11
203.4494980387958
 21
194.9150305302507
 31
0.0
  0
LINE
  5
25BF
330
1A
100
AcDbEntity
  8
SEIHIN
100
AcDbLine
 10
204.8388997477958
 20
191.9150305302507
 30
0.0
 11
203.4494980387958
 21
193.9862253402507
 31
0.0
  0
ARC
  5
25C0
330
1A
100
AcDbEntity
  8
SEIHIN
100
AcDbCircle
 10
207.5590888147824
 20
181.4150305302507
 30
0.0
 40
5.185616510378906
100
AcDbArc
 50
336.1109838283907
 51
23.88901617160926
  0
ARC
  5
25C1
330
1A
100
AcDbEntity
  8
SEIHIN
100
AcDbCircle
 10
197.6419604857887
 20
182.9150305302507
 30
0.0
 40
7.826647519730068
100
AcDbArc
 50
338.4486589039112
 51
21.55134109608887
  0
ARC
  5
25C2
330
1A
100
AcDbEntity
  8
SEIHIN
100
AcDbCircle
 10
196.3787489205158
 20
181.4150305302507
 30
0.0
 40
5.185616510927503
100
AcDbArc
 50
336.1109838310729
 51
23.88901616892705
  0
LINE
  5
25C3
330
1A
100
AcDbEntity
  8
SEIHIN
100
AcDbLine
 10
203.4494980387958
 20
191.9150305302507
 30
0.0
 11
204.8388997477958
 21
191.9150305302507
 31
0.0
  0
LINE
  5
25C4
330
1A
100
AcDbEntity
  8
SEIHIN
100
AcDbLine
 10
210.1242775797957
 20
191.9150305302507
 30
0.0
 11
211.5136792887957
 21
191.9150305302507
 31
0.0
  0
ARC
  5
25C5
330
1A
100
AcDbEntity
  8
SEIHIN
100
AcDbCircle
 10
197.2469864422271
 20
195.4088747002507
 30
0.0
 40
1.699999999832982
100
AcDbArc
 50
196.8876873722947
 51
266.2081650705318
  0
ARC
  5
25C6
330
1A
100
AcDbEntity
  8
SEIHIN
100
AcDbCircle
 10
197.2469864422271
 20
209.4211863602507
 30
0.0
 40
1.699999999832982
100
AcDbArc
 50
93.79183492946814
 51
163.1123126277053
  0
ARC
  5
25C7
330
1A
100
AcDbEntity
  8
SEIHIN
100
AcDbCircle
 10
190.9516259313271
 20
202.4150305402508
 30
0.0
 40
3.25
100
AcDbArc
 50
292.6198649480444
 51
67.3801350519594
  0
LINE
  5
25C8
330
1A
100
AcDbEntity
  8
SEIHIN
100
AcDbLine
 10
181.5231342047427
 20
199.4150305102507
 30
0.0
 11
181.5231342047427
 21
195.9150305102507
 31
0.0
  0
LINE
  5
25C9
330
1A
100
AcDbEntity
  8
SEIHIN
100
AcDbLine
 10
192.2016259313272
 20
199.4150305402507
 30
0.0
 11
192.2016259313272
 21
195.9150305202507
 31
0.0
  0
LINE
  5
25CA
330
1A
100
AcDbEntity
  8
SEIHIN
100
AcDbLine
 10
193.7004052537958
 20
195.9150305202507
 30
0.0
 11
193.7004052537958
 21
194.9150305202507
 31
0.0
  0
LINE
  5
25CB
330
1A
100
AcDbEntity
  8
SEIHIN
100
AcDbLine
 10
181.5231342047427
 20
208.9150305502507
 30
0.0
 11
181.5231342047427
 21
205.4150305102507
 31
0.0
  0
LINE
  5
25CC
330
1A
100
AcDbEntity
  8
SEIHIN
100
AcDbLine
 10
192.2016259313272
 20
205.4150305402507
 30
0.0
 11
192.2016259313272
 21
208.9150305402507
 31
0.0
  0
LINE
  5
25CD
330
1A
100
AcDbEntity
  8
SEIHIN
100
AcDbLine
 10
193.7004052537958
 20
209.9150305402507
 30
0.0
 11
193.7004052537958
 21
208.9150305402507
 31
0.0
  0
LINE
  5
25CE
330
1A
100
AcDbEntity
  8
SEIHIN
100
AcDbLine
 10
212.7468317017958
 20
208.9150305302507
 30
0.0
 11
212.7468317017958
 21
195.9150305302507
 31
0.0
  0
LINE
  5
25CF
330
1A
100
AcDbEntity
  8
SEIHIN
100
AcDbLine
 10
200.2201733807958
 20
193.6960406302507
 30
0.0
 11
202.7340856117958
 21
193.6960406302507
 31
0.0
  0
ARC
  5
25D0
330
1A
100
AcDbEntity
  8
SEIHIN
100
AcDbCircle
 10
197.1014966822271
 20
193.2136907102507
 30
0.0
 40
0.500000001568625
100
AcDbArc
 50
0.0
 51
86.20816424113286
  0
LINE
  5
25D1
330
1A
100
AcDbEntity
  8
SEIHIN
100
AcDbLine
 10
197.2407479059611
 20
194.2710491202507
 30
0.0
 11
196.5967665009611
 21
194.9150305302507
 31
0.0
  0
ARC
  5
25D2
330
1A
100
AcDbEntity
  8
SEIHIN
100
AcDbCircle
 10
196.9748093109611
 20
192.5919789402507
 30
0.0
 40
1.700000002834682
100
AcDbArc
 50
0.0
 51
80.99999985768858
  0
LINE
  5
25D3
330
1A
100
AcDbEntity
  8
SEIHIN
100
AcDbLine
 10
205.5325916807958
 20
193.6960406302507
 30
0.0
 11
209.3746084877958
 21
193.6960406302507
 31
0.0
  0
LINE
  5
25D4
330
1A
100
AcDbEntity
  8
SEIHIN
100
AcDbLine
 10
212.7468317017958
 20
194.9150305302507
 30
0.0
 11
212.7468317017958
 21
195.9150305302507
 31
0.0
  0
LINE
  5
25D5
330
1A
100
AcDbEntity
  8
SEIHIN
100
AcDbLine
 10
204.8388997477958
 20
212.9150305302507
 30
0.0
 11
203.4494980387958
 21
210.8438357202507
 31
0.0
  0
LINE
  5
25D6
330
1A
100
AcDbEntity
  8
SEIHIN
100
AcDbLine
 10
203.4494980387958
 20
212.9150305302507
 30
0.0
 11
204.8388997477958
 21
212.9150305302507
 31
0.0
  0
LINE
  5
25D7
330
1A
100
AcDbEntity
  8
SEIHIN
100
AcDbLine
 10
203.4494980387958
 20
212.9150305302507
 30
0.0
 11
203.4494980387958
 21
209.9150305302507
 31
0.0
  0
LINE
  5
25D8
330
1A
100
AcDbEntity
  8
SEIHIN
100
AcDbLine
 10
197.2407479059611
 20
210.5590119402507
 30
0.0
 11
196.5967665009611
 21
209.9150305302507
 31
0.0
  0
LINE
  5
25D9
330
1A
100
AcDbEntity
  8
SEIHIN
100
AcDbLine
 10
200.2201733807958
 20
211.1340204402507
 30
0.0
 11
202.7340856117958
 21
211.1340204402507
 31
0.0
  0
ARC
  5
25DA
330
1A
100
AcDbEntity
  8
SEIHIN
100
AcDbCircle
 10
196.9748093109611
 20
212.2380821202507
 30
0.0
 40
1.700000002834682
100
AcDbArc
 50
279.0000001423114
 51
0.0
  0
ARC
  5
25DB
330
1A
100
AcDbEntity
  8
SEIHIN
100
AcDbCircle
 10
197.1014966822271
 20
211.6163703502507
 30
0.0
 40
0.500000001568625
100
AcDbArc
 50
273.7918357588671
 51
0.0
  0
LINE
  5
25DC
330
1A
100
AcDbEntity
  8
SEIHIN
100
AcDbLine
 10
211.5136792887957
 20
209.9150305302507
 30
0.0
 11
211.5136792887957
 21
212.9150305302507
 31
0.0
  0
LINE
  5
25DD
330
1A
100
AcDbEntity
  8
SEIHIN
100
AcDbLine
 10
204.8388997477958
 20
209.9150305302507
 30
0.0
 11
204.8388997477958
 21
212.9150305302507
 31
0.0
  0
LINE
  5
25DE
330
1A
100
AcDbEntity
  8
SEIHIN
100
AcDbLine
 10
210.1242775797957
 20
212.9150305302507
 30
0.0
 11
210.1242775797957
 21
209.9150305302507
 31
0.0
  0
LINE
  5
25DF
330
1A
100
AcDbEntity
  8
SEIHIN
100
AcDbLine
 10
212.7468317017958
 20
209.9150305302507
 30
0.0
 11
212.7468317017958
 21
208.9150305302507
 31
0.0
  0
LINE
  5
25E0
330
1A
100
AcDbEntity
  8
SEIHIN
100
AcDbLine
 10
205.5325916807958
 20
211.1340204402507
 30
0.0
 11
209.3746084877958
 21
211.1340204402507
 31
0.0
  0
LINE
  5
25E1
330
1A
100
AcDbEntity
  8
SEIHIN
100
AcDbLine
 10
210.1242775797957
 20
212.9150305302507
 30
0.0
 11
211.5136792887957
 21
212.9150305302507
 31
0.0
  0
LINE
  5
25E2
330
1A
100
AcDbEntity
  8
SEIHIN
100
AcDbLine
 10
211.5136792887957
 20
212.9150305302507
 30
0.0
 11
210.1242775797957
 21
210.8438357202507
 31
0.0
  0
ARC
  5
25E3
330
1A
100
AcDbEntity
  8
SEIHIN
100
AcDbCircle
 10
196.3787489205158
 20
223.4150305302507
 30
0.0
 40
5.185616510927503
100
AcDbArc
 50
336.1109838310729
 51
23.88901616892705
  0
ARC
  5
25E4
330
1A
100
AcDbEntity
  8
SEIHIN
100
AcDbCircle
 10
207.5590888147824
 20
223.4150305302507
 30
0.0
 40
5.185616510378906
100
AcDbArc
 50
336.1109838283907
 51
23.88901617160926
  0
ARC
  5
25E5
330
1A
100
AcDbEntity
  8
SEIHIN
100
AcDbCircle
 10
197.6419604857887
 20
221.9150305302507
 30
0.0
 40
7.826647519730068
100
AcDbArc
 50
338.4486589039112
 51
21.55134109608887
  0
DIMENSION
  5
25E6
330
1A
100
AcDbEntity
  8
SUNPOU
100
AcDbDimension
  2
*D8
 10
283.3511988640125
 20
115.2566170235278
 30
0.0
 11
277.5374221274313
 21
132.4743404460645
 31
0.0
 70
    33
 71
     5
 42
35.99999998876558
  3
STANDARD
100
AcDbAlignedDimension
 13
290.0720629445164
 23
158.866272642229
 33
0.0
 14
306.1717523729907
 24
126.6668937740303
 34
0.0
1001
ACAD
1000
DSTYLE
1002
{
1070
    41
1040
3.0
1070
    42
1040
3.0
1070
    43
1040
7.0
1070
    44
1040
1.5
1070
    73
1070
     0
1070
    74
1070
     0
1070
    77
1070
     3
1070
   140
1040
3.0
1070
   141
1040
3.0
1070
   147
1040
1.0
1070
   172
1070
     1
1070
   173
1070
     1
1070
   176
1070
   256
1070
   177
1070
   256
1070
   178
1070
   256
1070
   271
1070
     0
1070
   272
1070
     0
1070
   341
1005
B2
1070
     6
1000
OPEN
1070
     7
1000
OPEN
1002
}
  0
DIMENSION
  5
25E7
330
1A
100
AcDbEntity
  8
SUNPOU
100
AcDbDimension
  2
*D9
 10
291.7446801022746
 20
119.4533576411926
 30
0.0
 11
292.7509106953801
 21
123.0310663995905
 31
0.0
 70
    33
 71
     5
 42
5.499999987788613
  3
STANDARD
100
AcDbAlignedDimension
 13
303.7120776038895
 23
131.5862433139514
 33
0.0
 14
306.1717523729907
 24
126.6668937740303
 34
0.0
1001
ACAD
1000
DSTYLE
1002
{
1070
    41
1040
3.0
1070
    42
1040
3.0
1070
    43
1040
7.0
1070
    44
1040
1.5
1070
    73
1070
     0
1070
    74
1070
     0
1070
    77
1070
     3
1070
   140
1040
3.0
1070
   141
1040
3.0
1070
   147
1040
1.0
1070
   172
1070
     1
1070
   173
1070
     1
1070
   176
1070
   256
1070
   177
1070
   256
1070
   178
1070
   256
1070
   271
1070
     0
1070
   272
1070
     0
1070
   341
1005
B2
1070
     6
1000
OPEN
1070
     7
1000
OPEN
1002
}
  0
LINE
  5
25E8
330
1A
100
AcDbEntity
  8
SUNPOU
100
AcDbLine
 10
214.7744987517958
 20
80.96826696304515
 30
0.0
 11
229.0592656646411
 21
52.39873314533999
 31
0.0
  0
LINE
  5
25E9
330
1A
100
AcDbEntity
  8
SUNPOU
100
AcDbLine
 10
224.0592656646411
 20
52.39873314533999
 30
0.0
 11
224.0592656646411
 21
62.39873314533999
 31
0.0
  0
TEXT
  5
25EA
330
1A
100
AcDbEntity
  8
SUNPOU
100
AcDbText
 10
225.0653423170338
 20
47.31533636494238
 30
0.0
 40
3.0
  1
5
100
AcDbText
  0
LINE
  5
25EB
330
1A
100
AcDbEntity
  8
SUNPOU
100
AcDbLine
 10
229.0592656646411
 20
52.39873314533999
 30
0.0
 11
224.0592656646411
 21
52.39873314533999
 31
0.0
  0
TEXT
  5
25EC
330
1A
100
AcDbEntity
  8
SUNPOU
100
AcDbText
 10
218.9664318605073
 20
54.82863697594566
 30
0.0
 40
3.0
  1
10
100
AcDbText
  0
LINE
  5
25ED
330
1A
100
AcDbEntity
  8
CENTER L
100
AcDbLine
 10
239.9661589189623
 20
82.24918921252106
 30
0.0
 11
253.5614522246194
 21
89.04683586297449
 31
0.0
  0
LINE
  5
25EE
330
1A
100
AcDbEntity
  8
CENTER L
100
AcDbLine
 10
232.5871345900353
 20
97.00723787129182
 30
0.0
 11
246.1824278942256
 21
103.804884521012
 31
0.0
  0
LINE
  5
25EF
330
1A
100
AcDbEntity
  8
SEIHIN
  6
DASHED
 62
     2
100
AcDbLine
 10
249.7744987537958
 20
80.96826696304515
 30
0.0
 11
243.7818365737958
 21
77.97193587304514
 31
0.0
  0
LINE
  5
25F0
330
1A
100
AcDbEntity
  8
SEIHIN
  6
DASHED
 62
     2
100
AcDbLine
 10
232.6014966837957
 20
112.6309895230452
 30
0.0
 11
248.7011861237958
 21
80.43161064304513
 31
0.0
  0
LINE
  5
25F1
330
1A
100
AcDbEntity
  8
SEIHIN
  6
DASHED
 62
     2
100
AcDbLine
 10
233.6748093137958
 20
113.1676458330451
 30
0.0
 11
249.7744987537958
 21
80.96826696304515
 31
0.0
  0
LINE
  5
25F2
330
1A
100
AcDbEntity
  8
SEIHIN
  6
DASHED
 62
     2
100
AcDbLine
 10
243.7818365737958
 20
77.97193587304514
 30
0.0
 11
227.6821471337958
 21
110.1713147430452
 31
0.0
  0
LINE
  5
25F3
330
1A
100
AcDbEntity
  8
CENTER L
100
AcDbLine
 10
228.7858190275179
 20
104.6098689967988
 30
0.0
 11
242.3811123309527
 21
111.4075156461411
 31
0.0
  0
LINE
  5
25F4
330
1A
100
AcDbEntity
  8
SEIHIN
  6
DASHED
 62
     2
100
AcDbLine
 10
227.6821471337958
 20
110.1713147430452
 30
0.0
 11
233.6748093137958
 21
113.1676458330451
 31
0.0
  0
LINE
  5
25F5
330
1A
100
AcDbEntity
  8
SEIHIN
  6
DASHED
 62
     2
100
AcDbLine
 10
228.7004052537958
 20
121.9984199630451
 30
0.0
 11
233.2275957137958
 21
112.9440390330452
 31
0.0
  0
LINE
  5
25F6
330
1A
100
AcDbEntity
  8
SEIHIN
  6
DASHED
 62
     2
100
AcDbLine
 10
226.0721778437958
 20
116.0745348930452
 30
0.0
 11
228.7554597637958
 21
110.7079710630451
 31
0.0
  0
ARC
  5
25F7
330
1A
100
AcDbEntity
  8
SEIHIN
  6
DASHED
 62
     2
100
AcDbCircle
 10
222.4944694237958
 20
114.2856798230451
 30
0.0
 40
3.999999999152389
100
AcDbArc
 50
26.56506219516107
 51
170.7918455333397
  0
ARC
  5
25F8
330
1A
100
AcDbEntity
  8
SEIHIN
  6
DASHED
 62
     2
100
AcDbCircle
 10
227.8059780637958
 20
121.5512063730452
 30
0.0
 40
0.9999999964188813
100
AcDbArc
 50
26.56505092084455
 51
53.83109520443878
  0
ELLIPSE
  5
25F9
330
1A
100
AcDbEntity
  8
SEIHIN
100
AcDbEllipse
 10
213.8800715607123
 20
177.9150305302507
 30
0.0
 11
0.0
 21
-2.0
 31
0.0
210
0.0
220
0.0
230
-1.0
 40
0.4472135955417542
 41
4.71238898038469
 42
6.283185307179586
  0
ELLIPSE
  5
25FA
330
1A
100
AcDbEntity
  8
SEIHIN
100
AcDbEllipse
 10
213.8800715607123
 20
226.9150305302507
 30
0.0
 11
0.0
 21
2.0
 31
0.0
210
0.0
220
0.0
230
1.0
 40
0.4472135955417542
 41
4.71238898038469
 42
6.283185307179586
  0
DIMENSION
  5
25FB
330
1A
100
AcDbEntity
  8
SUNPOU
100
AcDbDimension
  2
*D10
 10
354.9248199454922
 20
175.6401752814976
 30
0.0
 11
354.0303927635433
 21
183.0191996129887
 31
0.0
 70
    33
 71
     5
 42
14.00000000979236
  3
STANDARD
100
AcDbAlignedDimension
 13
337.4767040695796
 23
182.56859321829
 33
0.0
 14
343.7376943918833
 24
170.0466125259951
 34
0.0
1001
ACAD
1000
DSTYLE
1002
{
1070
    41
1040
3.0
1070
    42
1040
3.0
1070
    43
1040
7.0
1070
    44
1040
1.5
1070
    73
1070
     0
1070
    74
1070
     0
1070
    77
1070
     3
1070
   140
1040
3.0
1070
   141
1040
3.0
1070
   147
1040
1.0
1070
   172
1070
     1
1070
   173
1070
     1
1070
   176
1070
   256
1070
   177
1070
   256
1070
   178
1070
   256
1070
   271
1070
     0
1070
   272
1070
     0
1070
   341
1005
B2
1070
     6
1000
OPEN
1070
     7
1000
OPEN
1002
}
  0
LINE
  5
25FC
330
1A
100
AcDbEntity
  8
CENTER L
100
AcDbLine
 10
343.9165798254537
 20
157.3904677853233
 30
0.0
 11
348.4781585021379
 21
148.2673104287671
 31
0.0
  0
LINE
  5
25FD
330
1A
100
AcDbEntity
  8
CENTER L
100
AcDbLine
 10
341.6357904855177
 20
150.548099768703
 30
0.0
 11
350.7589478420739
 21
155.1096784453873
 31
0.0
  0
CIRCLE
  5
25FE
330
1A
100
AcDbEntity
  8
SEIHIN
100
AcDbCircle
 10
346.1973691637958
 20
152.8288891070451
 30
0.0
 40
2.100000002498891
  0
LINE
  5
25FF
330
1A
100
AcDbEntity
  8
SEIHIN
100
AcDbLine
 10
338.3711312637958
 20
180.7797388230451
 30
0.0
 11
352.6819662861584
 21
152.15806866932
 31
0.0
  0
LINE
  5
2600
330
1A
100
AcDbEntity
  8
SEIHIN
100
AcDbLine
 10
307.9606067537958
 20
127.5613209630452
 30
0.0
 11
351.7875390926858
 21
149.4747870984902
 31
0.0
  0
LWPOLYLINE
  5
2601
330
1A
100
AcDbEntity
  8
SUNPOU
100
AcDbPolyline
 90
        3
 70
     0
 43
0.0
 10
339.3130061069392
 20
172.843035506394
 10
350.4235413705267
 20
206.4511671930017
 10
366.272991211031
 20
206.4511671930017
1001
ACAD
1000
DSTYLE
1002
{
1070
    41
1040
3.0
1070
    42
1040
3.0
1070
    43
1040
7.0
1070
    44
1040
1.5
1070
    73
1070
     0
1070
    74
1070
     0
1070
    77
1070
     0
1070
   140
1040
3.0
1070
   141
1040
3.0
1070
   147
1040
1.0
1070
   172
1070
     1
1070
   173
1070
     1
1070
   176
1070
   256
1070
   177
1070
   256
1070
   178
1070
   256
1070
   271
1070
     0
1070
   272
1070
     0
1070
   341
1005
B2
1070
   343
1005
B2
1070
   344
1005
B2
1002
}
  0
DIMENSION
  5
2602
330
1A
100
AcDbEntity
  8
SUNPOU
100
AcDbDimension
  2
*D11
 10
231.7041279382343
 20
175.9150305302507
 30
0.0
 11
229.2041279382342
 21
202.4150305302508
 31
0.0
 70
    32
 71
     5
 42
53.0
  3
STANDARD
100
AcDbAlignedDimension
 13
213.8800715607123
 23
228.9150305302507
 33
0.0
 14
213.8800715607123
 24
175.9150305302507
 34
0.0
 50
90.0
100
AcDbRotatedDimension
1001
ACAD
1000
DSTYLE
1002
{
1070
    41
1040
3.0
1070
    42
1040
3.0
1070
    43
1040
7.0
1070
    44
1040
1.5
1070
    73
1070
     0
1070
    74
1070
     0
1070
    77
1070
     3
1070
   140
1040
3.0
1070
   141
1040
3.0
1070
   147
1040
1.0
1070
   172
1070
     1
1070
   173
1070
     1
1070
   176
1070
   256
1070
   177
1070
   256
1070
   178
1070
   256
1070
   271
1070
     0
1070
   272
1070
     0
1070
   341
1005
B2
1070
     6
1000
OPEN
1070
     7
1000
OPEN
1002
}
  0
DIMENSION
  5
2603
330
1A
100
AcDbEntity
  8
SUNPOU
100
AcDbDimension
  2
*D12
 10
318.460936949037
 20
220.6001274376667
 30
0.0
 11
293.6405823972449
 21
210.9850351268807
 31
0.0
 70
    33
 71
     5
 42
53.00000000836229
  3
STANDARD
100
AcDbAlignedDimension
 13
290.0720629445164
 23
158.866272642229
 33
0.0
 14
337.4767040695796
 24
182.56859321829
 34
0.0
1001
ACAD
1000
DSTYLE
1002
{
1070
    41
1040
3.0
1070
    42
1040
3.0
1070
    43
1040
7.0
1070
    44
1040
1.5
1070
    73
1070
     0
1070
    74
1070
     0
1070
    77
1070
     3
1070
   140
1040
3.0
1070
   141
1040
3.0
1070
   147
1040
1.0
1070
   172
1070
     1
1070
   173
1070
     1
1070
   176
1070
   256
1070
   177
1070
   256
1070
   178
1070
   256
1070
   271
1070
     0
1070
   272
1070
     0
1070
   341
1005
B2
1070
     6
1000
OPEN
1070
     7
1000
OPEN
1002
}
  0
LINE
  5
2604
330
1A
100
AcDbEntity
  8
SEIHIN
100
AcDbLine
 10
214.7744987517958
 20
212.2380824502507
 30
0.0
 11
214.7744987517958
 21
226.9150305302507
 31
0.0
  0
DIMENSION
  5
2605
330
1A
100
AcDbEntity
  8
SUNPOU
100
AcDbDimension
  2
*D13
 10
278.1046654442985
 20
146.7333869666763
 30
0.0
 11
279.1108960367054
 21
150.3110957264712
 31
0.0
 70
    33
 71
     5
 42
5.499999990912329
  3
STANDARD
100
AcDbAlignedDimension
 13
290.0720629445164
 23
158.866272642229
 33
0.0
 14
292.5317377150145
 24
153.9469230995139
 34
0.0
1001
ACAD
1000
DSTYLE
1002
{
1070
    41
1040
3.0
1070
    42
1040
3.0
1070
    43
1040
7.0
1070
    44
1040
1.5
1070
    73
1070
     0
1070
    74
1070
     0
1070
    77
1070
     3
1070
   140
1040
3.0
1070
   141
1040
3.0
1070
   147
1040
1.0
1070
   172
1070
     1
1070
   173
1070
     1
1070
   176
1070
   256
1070
   177
1070
   256
1070
   178
1070
   256
1070
   271
1070
     0
1070
   272
1070
     0
1070
   341
1005
B2
1070
     6
1000
OPEN
1070
     7
1000
OPEN
1002
}
  0
LWPOLYLINE
  5
2606
330
1A
100
AcDbEntity
  8
SUNPOU
100
AcDbPolyline
 90
        3
 70
     0
 43
0.0
 10
293.0985983762811
 20
158.4216423680235
 10
271.6834223015196
 20
176.8709810633487
 10
254.101635664611
 20
176.8709810633487
1001
ACAD
1000
DSTYLE
1002
{
1070
    41
1040
3.0
1070
    42
1040
3.0
1070
    43
1040
7.0
1070
    44
1040
1.5
1070
    73
1070
     0
1070
    74
1070
     0
1070
    77
1070
     0
1070
   140
1040
3.0
1070
   141
1040
3.0
1070
   147
1040
1.0
1070
   172
1070
     1
1070
   173
1070
     1
1070
   176
1070
   256
1070
   177
1070
   256
1070
   178
1070
   256
1070
   271
1070
     0
1070
   272
1070
     0
1070
   341
1005
B2
1070
   343
1005
B2
1070
   344
1005
B2
1002
}
  0
TEXT
  5
2607
330
1A
100
AcDbEntity
  8
SUNPOU
100
AcDbText
 10
212.5488592385293
 20
159.5626211870756
 30
0.0
 40
3.0
  1
（スライド幅）
100
AcDbText
  0
LINE
  5
2608
330
1A
100
AcDbEntity
  8
SEIHIN
100
AcDbLine
 10
214.7744987517958
 20
192.5919786102507
 30
0.0
 11
214.7744987517958
 21
177.9150305302507
 31
0.0
  0
ARC
  5
2609
330
1A
100
AcDbEntity
  8
SEIHIN
100
AcDbCircle
 10
213.0744987517957
 20
192.5919789502507
 30
0.0
 40
1.700000000521833
100
AcDbArc
 50
359.9999868556723
 51
80.99999999084268
  0
ARC
  5
260A
330
1A
100
AcDbEntity
  8
SEIHIN
100
AcDbCircle
 10
213.0744987517957
 20
212.2380821202507
 30
0.0
 40
1.70000000052183
100
AcDbArc
 50
279.0000000091573
 51
0.000011122122682
  0
TEXT
  5
260B
330
1A
100
AcDbEntity
  8
SUNPOU
100
AcDbText
 10
255.0834223015198
 20
177.5800318699627
 30
0.0
 40
3.0
  1
4-φ4.2
100
AcDbText
  0
DIMENSION
  5
260C
330
1A
100
AcDbEntity
  8
SUNPOU
100
AcDbDimension
  2
*D14
 10
319.9466247364231
 20
201.9762760248127
 30
0.0
 11
301.387260522827
 21
195.4916788913894
 31
0.0
 70
    33
 71
     5
 42
38.99999999978007
  3
STANDARD
100
AcDbAlignedDimension
 13
299.7989586420726
 23
155.0649570864447
 33
0.0
 14
334.6816190920727
 24
172.5062873084447
 34
0.0
1001
ACAD
1000
DSTYLE
1002
{
1070
    41
1040
3.0
1070
    42
1040
3.0
1070
    43
1040
7.0
1070
    44
1040
1.5
1070
    73
1070
     0
1070
    74
1070
     0
1070
    77
1070
     3
1070
   140
1040
3.0
1070
   141
1040
3.0
1070
   147
1040
1.0
1070
   172
1070
     1
1070
   173
1070
     1
1070
   176
1070
   256
1070
   177
1070
   256
1070
   178
1070
   256
1070
   271
1070
     0
1070
   272
1070
     0
1070
   341
1005
B2
1070
     6
1000
OPEN
1070
     7
1000
OPEN
1002
}
  0
DIMENSION
  5
260D
330
1A
100
AcDbEntity
  8
SUNPOU
100
AcDbDimension
  2
*D15
 10
317.4670834991516
 20
210.2894603951658
 30
0.0
 11
297.566078509735
 21
203.1340428653322
 31
0.0
 70
    33
 71
     5
 42
41.99999998166823
  3
STANDARD
100
AcDbAlignedDimension
 13
295.1702979254537
 23
160.9681765513233
 33
0.0
 14
332.7362399254537
 24
179.7511475653233
 34
0.0
1001
ACAD
1000
DSTYLE
1002
{
1070
    41
1040
3.0
1070
    42
1040
3.0
1070
    43
1040
7.0
1070
    44
1040
1.5
1070
    73
1070
     0
1070
    74
1070
     0
1070
    77
1070
     3
1070
   140
1040
3.0
1070
   141
1040
3.0
1070
   147
1040
1.0
1070
   172
1070
     1
1070
   173
1070
     1
1070
   176
1070
   256
1070
   177
1070
   256
1070
   178
1070
   256
1070
   271
1070
     0
1070
   272
1070
     0
1070
   341
1005
B2
1070
     6
1000
OPEN
1070
     7
1000
OPEN
1002
}
  0
LINE
  5
260E
330
1A
100
AcDbEntity
  8
CENTER L
100
AcDbLine
 10
334.6816190920727
 20
172.5062873084447
 30
0.0
 11
340.271789035519
 21
161.3259474176456
 31
0.0
  0
LINE
  5
260F
330
1A
100
AcDbEntity
  8
CENTER L
100
AcDbLine
 10
331.8865341183963
 20
164.121032391322
 30
0.0
 11
343.0668740091954
 21
169.7112023347683
 31
0.0
  0
LINE
  5
2610
330
1A
100
AcDbEntity
  8
CENTER L
100
AcDbLine
 10
304.3892574836552
 20
189.4876849942241
 30
0.0
 11
333.0045681174562
 21
132.2570637066262
 31
0.0
  0
LINE
  5
2611
330
1A
100
AcDbEntity
  8
SEIHIN
100
AcDbLine
 10
326.5005065637958
 20
169.8132735330452
 30
0.0
 11
327.8421473637958
 21
167.1299919530451
 31
0.0
  0
CIRCLE
  5
2612
330
1A
100
AcDbEntity
  8
SEIHIN
100
AcDbCircle
 10
337.4767040637958
 20
166.9161173630452
 30
0.0
 40
3.249999988758973
  0
LINE
  5
2613
330
1A
100
AcDbEntity
  8
SEIHIN
100
AcDbLine
 10
321.2617358637958
 20
174.4611091030452
 30
0.0
 11
324.1686242637958
 21
168.6473323630452
 31
0.0
  0
LINE
  5
2614
330
1A
100
AcDbEntity
  8
SEIHIN
100
AcDbLine
 10
320.4825874637958
 20
174.0715348930452
 30
0.0
 11
323.3894757637958
 21
168.2577581530451
 31
0.0
  0
LINE
  5
2615
330
1A
100
AcDbEntity
  8
SEIHIN
100
AcDbLine
 10
321.8630008637958
 20
140.0057564280452
 30
0.0
 11
300.8051892337958
 21
182.1213796130452
 31
0.0
  0
LINE
  5
2616
330
1A
100
AcDbEntity
  8
SEIHIN
100
AcDbLine
 10
306.1781117037958
 20
179.2017725930451
 30
0.0
 11
317.3381938637958
 21
156.8816082830451
 31
0.0
  0
LINE
  5
2617
330
1A
100
AcDbEntity
  8
SEIHIN
100
AcDbLine
 10
320.9685736637958
 20
139.5585428330451
 30
0.0
 11
299.9107620437958
 21
181.6741660130451
 31
0.0
  0
LINE
  5
2618
330
1A
100
AcDbEntity
  8
SEIHIN
100
AcDbLine
 10
311.5446748637958
 20
181.8850541930451
 30
0.0
 11
322.7047569637958
 21
159.5648898530451
 31
0.0
  0
LINE
  5
2619
330
1A
100
AcDbEntity
  8
SEIHIN
100
AcDbLine
 10
333.4905542637958
 20
145.8195331700451
 30
0.0
 11
312.4327426637958
 21
187.9351563530452
 31
0.0
  0
LINE
  5
261A
330
1A
100
AcDbEntity
  8
SEIHIN
100
AcDbLine
 10
334.3849814637958
 20
146.2667467650451
 30
0.0
 11
313.3271698637958
 21
188.3823699530452
 31
0.0
  0
LINE
  5
261B
330
1A
100
AcDbEntity
  8
SEIHIN
100
AcDbLine
 10
323.3894757637958
 20
168.2577581530451
 30
0.0
 11
326.5005065637958
 21
169.8132735330452
 31
0.0
  0
LINE
  5
261C
330
1A
100
AcDbEntity
  8
CENTER L
100
AcDbLine
 10
304.0698484855176
 20
131.765128754703
 30
0.0
 11
313.1930058420738
 21
136.3267074313873
 31
0.0
  0
LINE
  5
261D
330
1A
100
AcDbEntity
  8
SEIHIN
100
AcDbLine
 10
310.5355602637958
 20
158.4766984330452
 30
0.0
 11
318.1381914637958
 21
143.2714361868452
 31
0.0
  0
LINE
  5
261E
330
1A
100
AcDbEntity
  8
SEIHIN
100
AcDbLine
 10
309.9730679637958
 20
161.5495542230452
 30
0.0
 11
311.3147087637958
 21
158.8662726430451
 31
0.0
  0
LINE
  5
261F
330
1A
100
AcDbEntity
  8
SEIHIN
100
AcDbLine
 10
311.3147087637958
 20
158.8662726430451
 30
0.0
 11
308.2036779637958
 21
157.3107572730452
 31
0.0
  0
LINE
  5
2620
330
1A
100
AcDbEntity
  8
CENTER L
100
AcDbLine
 10
299.7989586420726
 20
155.0649570864447
 30
0.0
 11
305.389128585519
 21
143.8846171956456
 31
0.0
  0
LINE
  5
2621
330
1A
100
AcDbEntity
  8
SEIHIN
100
AcDbLine
 10
290.9664901337958
 20
157.0774182630452
 30
0.0
 11
305.2773251837958
 21
128.4557481530451
 31
0.0
  0
LINE
  5
2622
330
1A
100
AcDbEntity
  8
CENTER L
100
AcDbLine
 10
306.3506378254536
 20
138.6074967713233
 30
0.0
 11
310.9122165021379
 21
129.4843394147671
 31
0.0
  0
CIRCLE
  5
2623
330
1A
100
AcDbEntity
  8
SEIHIN
100
AcDbCircle
 10
308.6314271637958
 20
134.0459180930452
 30
0.0
 40
2.099999995980734
  0
ARC
  5
2624
330
1A
100
AcDbEntity
  8
SEIHIN
100
AcDbCircle
 10
307.0661795637958
 20
129.3501753430452
 30
0.0
 40
1.999999997764122
100
AcDbArc
 50
206.5650511770764
 51
296.5650511770776
  0
LINE
  5
2625
330
1A
100
AcDbEntity
  8
CENTER L
100
AcDbLine
 10
292.8895085855177
 20
154.125808534703
 30
0.0
 11
302.0126659420739
 21
158.6873872113873
 31
0.0
  0
LINE
  5
2626
330
1A
100
AcDbEntity
  8
SEIHIN
100
AcDbLine
 10
307.0661795637958
 20
167.3633309630451
 30
0.0
 11
291.8609173237958
 21
159.7606998330451
 31
0.0
  0
INSERT
  5
2627
330
1A
100
AcDbEntity
  8
SUNPOU
100
AcDbBlockReference
  2
_OPEN
 10
295.3714590414422
 20
156.4635554453454
 30
0.0
 41
2.999999999999993
 42
3.0
 43
3.0
 50
319.2548486777224
1001
ACAD
1000
DSTYLE
1002
{
1070
    41
1040
3.0
1070
    42
1040
3.0
1070
    43
1040
7.0
1070
    44
1040
1.5
1070
    73
1070
     0
1070
    74
1070
     0
1070
    77
1070
     0
1070
   140
1040
3.0
1070
   141
1040
3.0
1070
   147
1040
1.0
1070
   172
1070
     1
1070
   173
1070
     1
1070
   176
1070
   256
1070
   177
1070
   256
1070
   178
1070
   256
1070
   271
1070
     0
1070
   272
1070
     0
1070
   341
1005
B2
1070
   343
1005
B2
1070
   344
1005
B2
1002
}
  0
ARC
  5
2628
330
1A
100
AcDbEntity
  8
SEIHIN
100
AcDbCircle
 10
292.7553445137958
 20
157.9718454530452
 30
0.0
 40
1.999999997764122
100
AcDbArc
 50
116.5650511770776
 51
206.5650511770764
  0
LINE
  5
2629
330
1A
100
AcDbEntity
  8
CENTER L
100
AcDbLine
 10
295.1702979254537
 20
160.9681765513233
 30
0.0
 11
299.731876602138
 21
151.8450191947671
 31
0.0
  0
LINE
  5
262A
330
1A
100
AcDbEntity
  8
SEIHIN
100
AcDbLine
 10
306.8620371837958
 20
159.9940388430451
 30
0.0
 11
308.2036779637958
 21
157.3107572730452
 31
0.0
  0
CIRCLE
  5
262B
330
1A
100
AcDbEntity
  8
SEIHIN
100
AcDbCircle
 10
297.4510872637958
 20
156.4065978730451
 30
0.0
 40
2.100000004315367
  0
LINE
  5
262C
330
1A
100
AcDbEntity
  8
CENTER L
100
AcDbLine
 10
297.0038736683962
 20
146.6797021693219
 30
0.0
 11
308.1842135591954
 21
152.2698721127683
 31
0.0
  0
CIRCLE
  5
262D
330
1A
100
AcDbEntity
  8
SEIHIN
100
AcDbCircle
 10
302.5940436137958
 20
149.4747871410451
 30
0.0
 40
3.250000001408089
  0
LINE
  5
262E
330
1A
100
AcDbEntity
  8
SEIHIN
100
AcDbLine
 10
306.2870311437958
 20
166.9737567530451
 30
0.0
 11
309.1939194637958
 21
161.1599800030451
 31
0.0
  0
LINE
  5
262F
330
1A
100
AcDbEntity
  8
SEIHIN
100
AcDbLine
 10
307.0661795637958
 20
167.3633309630451
 30
0.0
 11
309.9730679637958
 21
161.5495542230452
 31
0.0
  0
LINE
  5
2630
330
1A
100
AcDbEntity
  8
SEIHIN
100
AcDbLine
 10
309.9730679637958
 20
161.5495542230452
 30
0.0
 11
306.8620371837958
 21
159.9940388430451
 31
0.0
  0
LINE
  5
2631
330
1A
100
AcDbEntity
  8
SEIHIN
100
AcDbLine
 10
333.6753884637958
 20
147.6859327590452
 30
0.0
 11
336.5822768637958
 21
141.8721560170451
 31
0.0
  0
LINE
  5
2632
330
1A
100
AcDbEntity
  8
SEIHIN
100
AcDbLine
 10
334.4545369637958
 20
148.0755069720452
 30
0.0
 11
337.3614252637958
 21
142.2617302300452
 31
0.0
  0
LINE
  5
2633
330
1A
100
AcDbEntity
  8
SEIHIN
100
AcDbLine
 10
311.3147087637958
 20
158.8662726430451
 30
0.0
 11
318.9173398637958
 21
143.6610103994452
 31
0.0
  0
LINE
  5
2634
330
1A
100
AcDbEntity
  8
SEIHIN
100
AcDbLine
 10
332.5961271637958
 20
143.1362515970452
 30
0.0
 11
324.5462823637958
 21
139.1113292370451
 31
0.0
  0
LINE
  5
2635
330
1A
100
AcDbEntity
  8
SEIHIN
100
AcDbLine
 10
318.9173398637958
 20
143.6610103994452
 30
0.0
 11
320.2589806637958
 21
140.9777288260451
 31
0.0
  0
LINE
  5
2636
330
1A
100
AcDbEntity
  8
SEIHIN
100
AcDbLine
 10
317.1479498637958
 20
139.4222134490452
 30
0.0
 11
321.1534078637958
 21
141.4249424220452
 31
0.0
  0
LINE
  5
2637
330
1A
100
AcDbEntity
  8
SEIHIN
100
AcDbLine
 10
319.4798321637958
 20
140.5881546140452
 30
0.0
 11
322.3867205637958
 21
134.7743778720451
 31
0.0
  0
LINE
  5
2638
330
1A
100
AcDbEntity
  8
SEIHIN
100
AcDbLine
 10
315.8063090637958
 20
142.1054950220452
 30
0.0
 11
317.1479498637958
 21
139.4222134490452
 31
0.0
  0
LINE
  5
2639
330
1A
100
AcDbEntity
  8
SEIHIN
100
AcDbLine
 10
315.8063090637958
 20
142.1054950220452
 30
0.0
 11
318.9173398637958
 21
143.6610103994452
 31
0.0
  0
LINE
  5
263A
330
1A
100
AcDbEntity
  8
SEIHIN
100
AcDbLine
 10
320.2589806637958
 20
140.9777288260451
 30
0.0
 11
323.1658689637958
 21
135.1639520850451
 31
0.0
  0
ARC
  5
263B
330
1A
100
AcDbEntity
  8
SEIHIN
100
AcDbCircle
 10
323.6518551637958
 20
140.9001836190452
 30
0.0
 40
1.999999965341132
100
AcDbArc
 50
206.5650522276384
 51
296.5650514076892
  0
ARC
  5
263C
330
1A
100
AcDbEntity
  8
SEIHIN
100
AcDbCircle
 10
331.7016999637958
 20
144.9251059786452
 30
0.0
 40
1.99999996525169
100
AcDbArc
 50
296.5650514128139
 51
26.5650522378887
  0
LINE
  5
263D
330
1A
100
AcDbEntity
  8
SEIHIN
100
AcDbLine
 10
325.5102650637958
 20
165.9640507930452
 30
0.0
 11
333.1128961637958
 21
150.7587885450452
 31
0.0
  0
LINE
  5
263E
330
1A
100
AcDbEntity
  8
SEIHIN
100
AcDbLine
 10
324.7311165637958
 20
165.5744765830451
 30
0.0
 11
327.8421473637958
 21
167.1299919530451
 31
0.0
  0
LINE
  5
263F
330
1A
100
AcDbEntity
  8
SEIHIN
100
AcDbLine
 10
324.7311165637958
 20
165.5744765830451
 30
0.0
 11
332.3337476637958
 21
150.3692143320452
 31
0.0
  0
ARC
  5
2640
330
1A
100
AcDbEntity
  8
SEIHIN
100
AcDbCircle
 10
321.8242282637958
 20
154.6177434930452
 30
0.0
 40
5.024896830989174
100
AcDbArc
 50
153.2223321449074
 51
79.90777135371877
  0
CIRCLE
  5
2641
330
1A
100
AcDbEntity
  8
SEIHIN
100
AcDbCircle
 10
321.8242282637958
 20
154.6177434930452
 30
0.0
 40
2.999999911928946
  0
LINE
  5
2642
330
1A
100
AcDbEntity
  8
SEIHIN
100
AcDbLine
 10
323.3894757637958
 20
168.2577581530451
 30
0.0
 11
324.7311165637958
 21
165.5744765830451
 31
0.0
  0
LINE
  5
2643
330
1A
100
AcDbEntity
  8
SEIHIN
100
AcDbLine
 10
336.7864192637958
 20
149.2414481360452
 30
0.0
 11
332.7809612637958
 21
147.2387191630452
 31
0.0
  0
LINE
  5
2644
330
1A
100
AcDbEntity
  8
SEIHIN
100
AcDbLine
 10
335.4447784637958
 20
151.9247297090452
 30
0.0
 11
336.7864192637958
 21
149.2414481360452
 31
0.0
  0
LINE
  5
2645
330
1A
100
AcDbEntity
  8
SEIHIN
100
AcDbLine
 10
335.4447784637958
 20
151.9247297090452
 30
0.0
 11
332.3337476637958
 21
150.3692143320452
 31
0.0
  0
LINE
  5
2646
330
1A
100
AcDbEntity
  8
SEIHIN
100
AcDbLine
 10
332.3337476637958
 20
150.3692143320452
 30
0.0
 11
333.6753884637958
 21
147.6859327590452
 31
0.0
  0
ARC
  5
2647
330
1A
100
AcDbEntity
  8
SEIHIN
100
AcDbCircle
 10
308.8613934637958
 20
180.5434130830452
 30
0.0
 40
3.000000012298683
100
AcDbArc
 50
26.56505818082236
 51
206.5650445149804
  0
LINE
  5
2648
330
1A
100
AcDbEntity
  8
SEIHIN
100
AcDbLine
 10
303.4334163088655
 20
176.8649254722666
 30
0.0
 11
302.5389891161375
 21
176.4177118758503
 31
0.0
  0
LINE
  5
2649
330
1A
100
AcDbEntity
  8
SEIHIN
100
AcDbLine
 10
303.0476166837958
 20
177.6365247130451
 30
0.0
 11
306.1781118437958
 21
179.2017722930451
 31
0.0
  0
LINE
  5
264A
330
1A
100
AcDbEntity
  8
SEIHIN
100
AcDbLine
 10
299.9107620437958
 20
181.6741660130451
 30
0.0
 11
300.8051892337958
 21
182.1213796130452
 31
0.0
  0
LINE
  5
264B
330
1A
100
AcDbEntity
  8
SEIHIN
100
AcDbLine
 10
320.4825874637958
 20
174.0715348930452
 30
0.0
 11
335.6878496637958
 21
181.6741660130451
 31
0.0
  0
LINE
  5
264C
330
1A
100
AcDbEntity
  8
SEIHIN
100
AcDbLine
 10
315.9553969454278
 20
183.1259157912791
 30
0.0
 11
315.0609697456982
 21
182.6787021913621
 31
0.0
  0
LINE
  5
264D
330
1A
100
AcDbEntity
  8
SEIHIN
100
AcDbLine
 10
311.5446749637958
 20
181.8850538730451
 30
0.0
 11
314.6751701637958
 21
183.4503014530451
 31
0.0
  0
LINE
  5
264E
330
1A
100
AcDbEntity
  8
SEIHIN
100
AcDbLine
 10
312.4327426637958
 20
187.9351563530452
 30
0.0
 11
313.3271698637958
 21
188.3823699530452
 31
0.0
  0
ARC
  5
264F
330
1A
100
AcDbEntity
  8
SEIHIN
100
AcDbCircle
 10
336.5822768637958
 20
179.8853116330452
 30
0.0
 40
2.000000008944457
100
AcDbArc
 50
26.56505092084455
 51
116.5650514333112
  0
LINE
  5
2650
330
1A
100
AcDbEntity
  8
CENTER L
100
AcDbLine
 10
332.7362399254537
 20
179.7511475653233
 30
0.0
 11
337.297818602138
 21
170.6279902087671
 31
0.0
  0
LINE
  5
2651
330
1A
100
AcDbEntity
  8
CENTER L
100
AcDbLine
 10
330.4554505855177
 20
172.908779548703
 30
0.0
 11
339.578607942074
 21
177.4703582253873
 31
0.0
  0
CIRCLE
  5
2652
330
1A
100
AcDbEntity
  8
SEIHIN
100
AcDbCircle
 10
335.0170292637958
 20
175.1895688830451
 30
0.0
 40
2.100000001153093
  0
INSERT
  5
2653
330
1A
100
AcDbEntity
  8
SUNPOU
100
AcDbBlockReference
  2
_OPEN
 10
338.3713566108511
 20
169.9946506611674
 30
0.0
 41
2.999999999999982
 42
3.0
 43
3.0
 50
251.7065953267104
1001
ACAD
1000
DSTYLE
1002
{
1070
    41
1040
3.0
1070
    42
1040
3.0
1070
    43
1040
7.0
1070
    44
1040
1.5
1070
    73
1070
     0
1070
    74
1070
     0
1070
    77
1070
     0
1070
   140
1040
3.0
1070
   141
1040
3.0
1070
   147
1040
1.0
1070
   172
1070
     1
1070
   173
1070
     1
1070
   176
1070
   256
1070
   177
1070
   256
1070
   178
1070
   256
1070
   271
1070
     0
1070
   272
1070
     0
1070
   341
1005
B2
1070
   343
1005
B2
1070
   344
1005
B2
1002
}
  0
ARC
  5
2654
330
1A
100
AcDbEntity
  8
SEIHIN
100
AcDbCircle
 10
350.8931119027961
 20
151.2636414810451
 30
0.0
 40
2.0
100
AcDbArc
 50
296.565051141519
 51
26.56505108979776
  0
TEXT
  5
2655
330
1A
100
AcDbEntity
  8
SUNPOU
100
AcDbText
 10
350.7631465843526
 20
207.7555141056222
 30
0.0
 40
3.0
  1
2-φ6.5
100
AcDbText
  0
VIEWPORT
  5
22
330
17
100
AcDbEntity
 67
     1
  8
0
100
AcDbViewport
 10
313.6808219178083
 20
148.5
 30
0.0
 40
627.3616438356165
 41
297.0
 68
     2
 69
     1
 12
313.6808219178083
 22
148.5
 13
0.0
 23
0.0
 14
1.0
 24
1.0
 15
10.0
 25
10.0
 16
0.0
 26
0.0
 36
1.0
 17
0.0
 27
0.0
 37
0.0
 42
50.0
 43
0.0
 44
0.0
 45
297.0
 50
0.0
 51
0.0
 72
   100
 90
    32768
  1

281
     0
 71
     1
 74
     0
110
0.0
120
0.0
130
0.0
111
1.0
121
0.0
131
0.0
112
0.0
122
1.0
132
0.0
 79
     0
146
0.0
  0
VIEWPORT
  5
64
330
17
100
AcDbEntity
 67
     1
  8
VIEWPORT
100
AcDbViewport
 10
210.0
 20
148.5
 30
0.0
 40
420.0
 41
297.0
 68
     1
 69
     2
 12
210.0
 22
148.5
 13
0.0
 23
0.0
 14
5.0
 24
5.0
 15
0.0
 25
0.0
 16
0.0
 26
0.0
 36
1.0
 17
0.0
 27
0.0
 37
0.0
 42
50.0
 43
0.0
 44
0.0
 45
302.9399999999999
 50
0.0
 51
0.0
 72
   100
 90
    32768
  1

281
     0
 71
     1
 74
     0
110
0.0
120
0.0
130
0.0
111
1.0
121
0.0
131
0.0
112
0.0
122
1.0
132
0.0
 79
     0
146
0.0
  0
ENDSEC
  0
SECTION
  2
OBJECTS
  0
DICTIONARY
  5
C
330
0
100
AcDbDictionary
281
     1
  3
ACAD_GROUP
350
D
  3
ACAD_LAYOUT
350
624
  3
ACAD_MLINESTYLE
350
E
  3
ACAD_PLOTSETTINGS
350
625
  3
ACAD_PLOTSTYLENAME
350
622
  0
DICTIONARY
  5
D
102
{ACAD_REACTORS
330
C
102
}
330
C
100
AcDbDictionary
281
     1
  0
DICTIONARY
  5
624
102
{ACAD_REACTORS
330
C
102
}
330
C
100
AcDbDictionary
281
     1
  3
Model
350
626
  3
ﾚｲｱｳﾄ1
350
627
  0
DICTIONARY
  5
E
102
{ACAD_REACTORS
330
C
102
}
330
C
100
AcDbDictionary
281
     1
  3
STANDARD
350
13
  0
DICTIONARY
  5
625
102
{ACAD_REACTORS
330
C
102
}
330
C
100
AcDbDictionary
281
     1
  0
ACDBDICTIONARYWDFLT
  5
622
102
{ACAD_REACTORS
330
C
102
}
330
C
100
AcDbDictionary
281
     1
  3
Normal
350
623
100
AcDbDictionaryWithDefault
340
623
1001
ACAD
1000
TREAT_AS_HARD
1070
     0
1000
TREAT_AS_HARD
1070
     0
1000
TREAT_AS_HARD
1070
     0
1000
TREAT_AS_HARD
1070
     0
  0
LAYOUT
  5
626
102
{ACAD_REACTORS
330
624
102
}
330
624
100
AcDbPlotSettings
  1

  2
Acrobat PDFWriter
  4
A3
  6

 40
7.143749713897705
 41
7.14375638961792
 42
7.143768310546875
 43
7.14373779296875
 44
297.1270751953125
 45
420.1583251953125
 46
0.0
 47
0.0
 48
0.0
 49
0.0
140
0.0
141
0.0
142
1.0
143
1.0
 70
 11952
 72
     1
 73
     1
 74
     0
  7
print.ctb
 75
    16
147
1.0
148
52.88505331185908
149
1.640883977900558
100
AcDbLayout
  1
Model
 70
     1
 71
     0
 10
0.0
 20
0.0
 11
12.0
 21
9.0
 12
0.0
 22
0.0
 32
0.0
 14
0.0
 24
0.0
 34
0.0
 15
0.0
 25
0.0
 35
0.0
146
0.0
 13
0.0
 23
0.0
 33
0.0
 16
1.0
 26
0.0
 36
0.0
 17
0.0
 27
1.0
 37
0.0
 76
     0
330
1A
  0
LAYOUT
  5
627
102
{ACAD_REACTORS
330
624
102
}
330
624
100
AcDbPlotSettings
  1

  2
EPSON PM-2000C
  4

  6

 40
0.0
 41
0.0
 42
0.0
 43
0.0
 44
0.0
 45
0.0
 46
0.0
 47
0.0
 48
0.0
 49
0.0
140
0.0
141
0.0
142
1.0
143
1.0
 70
   688
 72
     0
 73
     0
 74
     5
  7
print.ctb
 75
    16
147
1.0
148
0.0
149
0.0
100
AcDbLayout
  1
ﾚｲｱｳﾄ1
 70
     1
 71
     1
 10
0.0
 20
0.0
 11
420.0
 21
297.0
 12
0.0
 22
0.0
 32
0.0
 14
0.0
 24
0.0
 34
0.0
 15
420.0
 25
297.0
 35
0.0
146
0.0
 13
0.0
 23
0.0
 33
0.0
 16
1.0
 26
0.0
 36
0.0
 17
0.0
 27
1.0
 37
0.0
 76
     0
330
17
331
64
  0
MLINESTYLE
  5
13
102
{ACAD_REACTORS
330
E
102
}
330
E
100
AcDbMlineStyle
  2
STANDARD
 70
     0
  3

 62
     0
 51
90.0
 52
90.0
 71
     2
 49
0.5
 62
   256
  6
BYLAYER
 49
-0.5
 62
   256
  6
BYLAYER
  0
ACDBPLACEHOLDER
  5
623
102
{ACAD_REACTORS
330
622
102
}
330
622
  0
ENDSEC
  0
EOF
