  0
SECTION
  2
HEADER
  9
$ACADVER
  1
AC1015
  9
$ACADMAINTVER
 70
     6
  9
$DWGCODEPAGE
  3
ANSI_932
  9
$INSBASE
 10
0.0
 20
0.0
 30
0.0
  9
$EXTMIN
 10
-0.0000004828989404
 20
-0.0000000386436341
 30
0.0
  9
$EXTMAX
 10
398.7999995171011
 20
275.7999999613564
 30
0.0
  9
$LIMMIN
 10
0.0
 20
0.0
  9
$LIMMAX
 10
420.0
 20
297.0
  9
$ORTHOMODE
 70
     1
  9
$REGENMODE
 70
     1
  9
$FILLMODE
 70
     1
  9
$QTEXTMODE
 70
     0
  9
$MIRRTEXT
 70
     1
  9
$LTSCALE
 40
1.0
  9
$ATTMODE
 70
     1
  9
$TEXTSIZE
 40
2.5
  9
$TRACEWID
 40
1.0
  9
$TEXTSTYLE
  7
STANDARD
  9
$CLAYER
  8
SUNPOU
  9
$CELTYPE
  6
BYLAYER
  9
$CECOLOR
 62
   256
  9
$CELTSCALE
 40
1.0
  9
$DISPSILH
 70
     0
  9
$DIMSCALE
 40
1.0
  9
$DIMASZ
 40
3.0
  9
$DIMEXO
 40
3.0
  9
$DIMDLI
 40
7.0
  9
$DIMRND
 40
0.0
  9
$DIMDLE
 40
0.0
  9
$DIMEXE
 40
1.5
  9
$DIMTP
 40
0.0
  9
$DIMTM
 40
0.0
  9
$DIMTXT
 40
3.0
  9
$DIMCEN
 40
150.0
  9
$DIMTSZ
 40
0.0
  9
$DIMTOL
 70
     0
  9
$DIMLIM
 70
     0
  9
$DIMTIH
 70
     0
  9
$DIMTOH
 70
     0
  9
$DIMSE1
 70
     0
  9
$DIMSE2
 70
     0
  9
$DIMTAD
 70
     3
  9
$DIMZIN
 70
     0
  9
$DIMBLK
  1

  9
$DIMASO
 70
     1
  9
$DIMSHO
 70
     1
  9
$DIMPOST
  1

  9
$DIMAPOST
  1

  9
$DIMALT
 70
     0
  9
$DIMALTD
 70
     2
  9
$DIMALTF
 40
25.4
  9
$DIMLFAC
 40
1.0
  9
$DIMTOFL
 70
     1
  9
$DIMTVP
 40
0.0
  9
$DIMTIX
 70
     0
  9
$DIMSOXD
 70
     0
  9
$DIMSAH
 70
     1
  9
$DIMBLK1
  1
OPEN
  9
$DIMBLK2
  1
OPEN
  9
$DIMSTYLE
  2
STANDARD
  9
$DIMCLRD
 70
   256
  9
$DIMCLRE
 70
   256
  9
$DIMCLRT
 70
   256
  9
$DIMTFAC
 40
1.0
  9
$DIMGAP
 40
1.0
  9
$DIMJUST
 70
     0
  9
$DIMSD1
 70
     0
  9
$DIMSD2
 70
     0
  9
$DIMTOLJ
 70
     1
  9
$DIMTZIN
 70
     0
  9
$DIMALTZ
 70
     0
  9
$DIMALTTZ
 70
     0
  9
$DIMUPT
 70
     1
  9
$DIMDEC
 70
     0
  9
$DIMTDEC
 70
     0
  9
$DIMALTU
 70
     2
  9
$DIMALTTD
 70
     2
  9
$DIMTXSTY
  7
STANDARD
  9
$DIMAUNIT
 70
     0
  9
$DIMADEC
 70
     0
  9
$DIMALTRND
 40
0.0
  9
$DIMAZIN
 70
     0
  9
$DIMDSEP
 70
    46
  9
$DIMATFIT
 70
     3
  9
$DIMFRAC
 70
     0
  9
$DIMLDRBLK
  1
OPEN
  9
$DIMLUNIT
 70
     2
  9
$DIMLWD
 70
    -1
  9
$DIMLWE
 70
    -1
  9
$DIMTMOVE
 70
     0
  9
$LUNITS
 70
     2
  9
$LUPREC
 70
     4
  9
$SKETCHINC
 40
1.0
  9
$FILLETRAD
 40
0.6
  9
$AUNITS
 70
     0
  9
$AUPREC
 70
     0
  9
$MENU
  1
.
  9
$ELEVATION
 40
0.0
  9
$PELEVATION
 40
0.0
  9
$THICKNESS
 40
0.0
  9
$LIMCHECK
 70
     0
  9
$CHAMFERA
 40
10.0
  9
$CHAMFERB
 40
10.0
  9
$CHAMFERC
 40
20.0
  9
$CHAMFERD
 40
0.0
  9
$SKPOLY
 70
     0
  9
$TDCREATE
 40
2451100.394552546
  9
$TDUCREATE
 40
2451100.019552546
  9
$TDUPDATE
 40
2455609.402746643
  9
$TDUUPDATE
 40
2455609.027746643
  9
$TDINDWG
 40
0.0959255787
  9
$TDUSRTIMER
 40
0.0959255787
  9
$USRTIMER
 70
     1
  9
$ANGBASE
 50
0.0
  9
$ANGDIR
 70
     0
  9
$PDMODE
 70
     0
  9
$PDSIZE
 40
0.0
  9
$PLINEWID
 40
0.0
  9
$SPLFRAME
 70
     0
  9
$SPLINETYPE
 70
     6
  9
$SPLINESEGS
 70
     8
  9
$HANDSEED
  5
17B5
  9
$SURFTAB1
 70
     6
  9
$SURFTAB2
 70
     6
  9
$SURFTYPE
 70
     6
  9
$SURFU
 70
     6
  9
$SURFV
 70
     6
  9
$UCSBASE
  2

  9
$UCSNAME
  2

  9
$UCSORG
 10
0.0
 20
0.0
 30
0.0
  9
$UCSXDIR
 10
1.0
 20
0.0
 30
0.0
  9
$UCSYDIR
 10
0.0
 20
1.0
 30
0.0
  9
$UCSORTHOREF
  2

  9
$UCSORTHOVIEW
 70
     0
  9
$UCSORGTOP
 10
0.0
 20
0.0
 30
0.0
  9
$UCSORGBOTTOM
 10
0.0
 20
0.0
 30
0.0
  9
$UCSORGLEFT
 10
0.0
 20
0.0
 30
0.0
  9
$UCSORGRIGHT
 10
0.0
 20
0.0
 30
0.0
  9
$UCSORGFRONT
 10
0.0
 20
0.0
 30
0.0
  9
$UCSORGBACK
 10
0.0
 20
0.0
 30
0.0
  9
$PUCSBASE
  2

  9
$PUCSNAME
  2

  9
$PUCSORG
 10
0.0
 20
0.0
 30
0.0
  9
$PUCSXDIR
 10
1.0
 20
0.0
 30
0.0
  9
$PUCSYDIR
 10
0.0
 20
1.0
 30
0.0
  9
$PUCSORTHOREF
  2

  9
$PUCSORTHOVIEW
 70
     0
  9
$PUCSORGTOP
 10
0.0
 20
0.0
 30
0.0
  9
$PUCSORGBOTTOM
 10
0.0
 20
0.0
 30
0.0
  9
$PUCSORGLEFT
 10
0.0
 20
0.0
 30
0.0
  9
$PUCSORGRIGHT
 10
0.0
 20
0.0
 30
0.0
  9
$PUCSORGFRONT
 10
0.0
 20
0.0
 30
0.0
  9
$PUCSORGBACK
 10
0.0
 20
0.0
 30
0.0
  9
$USERI1
 70
     0
  9
$USERI2
 70
     0
  9
$USERI3
 70
     0
  9
$USERI4
 70
     0
  9
$USERI5
 70
     0
  9
$USERR1
 40
0.0
  9
$USERR2
 40
0.0
  9
$USERR3
 40
0.0
  9
$USERR4
 40
0.0
  9
$USERR5
 40
0.0
  9
$WORLDVIEW
 70
     1
  9
$SHADEDGE
 70
     3
  9
$SHADEDIF
 70
    70
  9
$TILEMODE
 70
     1
  9
$MAXACTVP
 70
    16
  9
$PINSBASE
 10
0.0
 20
0.0
 30
0.0
  9
$PLIMCHECK
 70
     0
  9
$PEXTMIN
 10
0.0
 20
0.0
 30
0.0
  9
$PEXTMAX
 10
420.0
 20
297.0
 30
0.0
  9
$PLIMMIN
 10
0.0
 20
0.0
  9
$PLIMMAX
 10
420.0
 20
297.0
  9
$UNITMODE
 70
     0
  9
$VISRETAIN
 70
     0
  9
$PLINEGEN
 70
     0
  9
$PSLTSCALE
 70
     1
  9
$TREEDEPTH
 70
  3020
  9
$CMLSTYLE
  2
STANDARD
  9
$CMLJUST
 70
     0
  9
$CMLSCALE
 40
1.0
  9
$PROXYGRAPHICS
 70
     1
  9
$MEASUREMENT
 70
     1
  9
$CELWEIGHT
370
    -1
  9
$ENDCAPS
280
     0
  9
$JOINSTYLE
280
     0
  9
$LWDISPLAY
290
     0
  9
$INSUNITS
 70
     0
  9
$HYPERLINKBASE
  1

  9
$STYLESHEET
  1
print.ctb
  9
$XEDIT
290
     1
  9
$CEPSNTYPE
380
     0
  9
$PSTYLEMODE
290
     1
  9
$FINGERPRINTGUID
  2
{137E7082-72B8-11D5-AA3E-50A453C10000}
  9
$VERSIONGUID
  2
{A896F85B-32EA-4E81-831D-F2BF6BE651F8}
  9
$EXTNAMES
290
     1
  9
$PSVPSCALE
 40
0.0
  9
$OLESTARTUP
290
     0
  0
ENDSEC
  0
SECTION
  2
CLASSES
  0
CLASS
  1
ACDBDICTIONARYWDFLT
  2
AcDbDictionaryWithDefault
  3
ObjectDBX Classes
 90
        0
280
     0
281
     0
  0
CLASS
  1
ACDBPLACEHOLDER
  2
AcDbPlaceHolder
  3
ObjectDBX Classes
 90
        0
280
     0
281
     0
  0
CLASS
  1
LAYOUT
  2
AcDbLayout
  3
ObjectDBX Classes
 90
        0
280
     0
281
     0
  0
CLASS
  1
DUMMY
  2
AcDbLongTransaction
  3
DUMMY
 90
        0
280
     0
281
     0
  0
CLASS
  1
LWPOLYLINE
  2
AcDbPolyline
  3
AutoCAD 2000
 90
        0
280
     0
281
     1
  0
CLASS
  1
HATCH
  2
AcDbHatch
  3
AutoCAD 2000
 90
        0
280
     0
281
     1
  0
CLASS
  1
XRECORD
  2
AcDbXrecord
  3
AutoCAD 2000
 90
        0
280
     0
281
     0
  0
CLASS
  1
DUMMY
  2
AcDbLongTransaction
  3
DUMMY
 90
        0
280
     0
281
     0
  0
CLASS
  1
LWPOLYLINE
  2
AcDbPolyline
  3
AutoCAD 2000
 90
        0
280
     0
281
     1
  0
CLASS
  1
HATCH
  2
AcDbHatch
  3
AutoCAD 2000
 90
        0
280
     0
281
     1
  0
CLASS
  1
XRECORD
  2
AcDbXrecord
  3
AutoCAD 2000
 90
        0
280
     0
281
     0
  0
CLASS
  1
DUMMY
  2
AcDbLongTransaction
  3
DUMMY
 90
        0
280
     0
281
     0
  0
CLASS
  1
LWPOLYLINE
  2
AcDbPolyline
  3
AutoCAD 2000
 90
        0
280
     0
281
     1
  0
CLASS
  1
HATCH
  2
AcDbHatch
  3
AutoCAD 2000
 90
        0
280
     0
281
     1
  0
CLASS
  1
XRECORD
  2
AcDbXrecord
  3
AutoCAD 2000
 90
        0
280
     0
281
     0
  0
CLASS
  1
DUMMY
  2
AcDbLongTransaction
  3
DUMMY
 90
        0
280
     0
281
     0
  0
CLASS
  1
LWPOLYLINE
  2
AcDbPolyline
  3
AutoCAD 2000
 90
        0
280
     0
281
     1
  0
CLASS
  1
HATCH
  2
AcDbHatch
  3
AutoCAD 2000
 90
        0
280
     0
281
     1
  0
CLASS
  1
XRECORD
  2
AcDbXrecord
  3
AutoCAD 2000
 90
        0
280
     0
281
     0
  0
ENDSEC
  0
SECTION
  2
TABLES
  0
TABLE
  2
VPORT
  5
8
330
0
100
AcDbSymbolTable
 70
     2
  0
VPORT
  5
17B4
330
8
100
AcDbSymbolTableRecord
100
AcDbViewportTableRecord
  2
*Active
 70
     0
 10
0.0
 20
0.0
 11
1.0
 21
1.0
 12
207.2214526828675
 22
147.1142720118622
 13
0.0
 23
0.0
 14
5.0
 24
5.0
 15
0.0
 25
0.0
 16
0.0
 26
0.0
 36
1.0
 17
0.0
 27
0.0
 37
0.0
 40
318.6593027442499
 41
1.651537335285505
 42
50.0
 43
0.0
 44
0.0
 50
0.0
 51
0.0
 71
     0
 72
   100
 73
     1
 74
     0
 75
     0
 76
     0
 77
     0
 78
     0
281
     0
 65
     1
110
0.0
120
0.0
130
0.0
111
1.0
121
0.0
131
0.0
112
0.0
122
1.0
132
0.0
 79
     0
146
0.0
  0
ENDTAB
  0
TABLE
  2
LTYPE
  5
5
330
0
100
AcDbSymbolTable
 70
     3
  0
LTYPE
  5
14
330
5
100
AcDbSymbolTableRecord
100
AcDbLinetypeTableRecord
  2
BYBLOCK
 70
     0
  3

 72
    65
 73
     0
 40
0.0
  0
LTYPE
  5
15
330
5
100
AcDbSymbolTableRecord
100
AcDbLinetypeTableRecord
  2
BYLAYER
 70
     0
  3

 72
    65
 73
     0
 40
0.0
  0
LTYPE
  5
16
330
5
100
AcDbSymbolTableRecord
100
AcDbLinetypeTableRecord
  2
CONTINUOUS
 70
     0
  3
Solid line
 72
    65
 73
     0
 40
0.0
  0
LTYPE
  5
120
330
5
100
AcDbSymbolTableRecord
100
AcDbLinetypeTableRecord
  2
CENTER
 70
     0
  3
____ _ ____ _ ____ _ ____ _ ____ _ ____ _ ____ 
 72
    65
 73
     4
 40
2.0
 49
1.25
 74
     0
 49
-0.25
 74
     0
 49
0.25
 74
     0
 49
-0.25
 74
     0
  0
LTYPE
  5
E98
330
5
100
AcDbSymbolTableRecord
100
AcDbLinetypeTableRecord
  2
DASHED
 70
     0
  3
__ __ __ __ __ __ __ __ __ __ __ __ __ __ __ __
 72
    65
 73
     2
 40
0.75
 49
0.5
 74
     0
 49
-0.25
 74
     0
  0
ENDTAB
  0
TABLE
  2
LAYER
  5
2
330
0
100
AcDbSymbolTable
 70
     8
  0
LAYER
  5
F
330
2
100
AcDbSymbolTableRecord
100
AcDbLayerTableRecord
  2
0
 70
     0
 62
     7
  6
CONTINUOUS
370
    -3
390
623
  0
LAYER
  5
62
330
2
100
AcDbSymbolTableRecord
100
AcDbLayerTableRecord
  2
VIEWPORT
 70
     0
 62
     7
  6
CONTINUOUS
370
    -3
390
623
  0
LAYER
  5
6B
330
2
100
AcDbSymbolTableRecord
100
AcDbLayerTableRecord
  2
ZUWAKU
 70
     0
 62
     7
  6
CONTINUOUS
370
    -3
390
623
  0
LAYER
  5
1F2
330
2
100
AcDbSymbolTableRecord
100
AcDbLayerTableRecord
  2
SEIHIN
 70
     0
 62
     3
  6
CONTINUOUS
370
    -3
390
623
  0
LAYER
  5
1F3
330
2
100
AcDbSymbolTableRecord
100
AcDbLayerTableRecord
  2
SUNPOU
 70
     0
 62
     4
  6
CONTINUOUS
370
    -3
390
623
  0
LAYER
  5
1F4
330
2
100
AcDbSymbolTableRecord
100
AcDbLayerTableRecord
  2
CENTER L
 70
     0
 62
     1
  6
CENTER
370
    -3
390
623
  0
LAYER
  5
1F5
330
2
100
AcDbSymbolTableRecord
100
AcDbLayerTableRecord
  2
DEFPOINTS
 70
     0
 62
     7
  6
CONTINUOUS
290
     0
370
    -3
390
623
  0
LAYER
  5
A03
330
2
100
AcDbSymbolTableRecord
100
AcDbLayerTableRecord
  2
moji
 70
     0
 62
     2
  6
CONTINUOUS
370
    -3
390
623
  0
ENDTAB
  0
TABLE
  2
STYLE
  5
3
330
0
100
AcDbSymbolTable
 70
     2
  0
STYLE
  5
10
330
3
100
AcDbSymbolTableRecord
100
AcDbTextStyleTableRecord
  2
STANDARD
 70
     0
 40
0.0
 41
1.0
 50
0.0
 71
     0
 42
2.5
  3
TXT
  4
bigfont.shx
  0
STYLE
  5
A04
330
3
100
AcDbSymbolTableRecord
100
AcDbTextStyleTableRecord
  2
ｽﾀｲﾙ1
 70
     0
 40
0.0
 41
1.0
 50
0.0
 71
     0
 42
2.5
  3
MS PGothic.ttf
  4

1001
ACAD
1000
MS PGothic
1071
    32818
  0
ENDTAB
  0
TABLE
  2
VIEW
  5
6
330
0
100
AcDbSymbolTable
 70
     0
  0
ENDTAB
  0
TABLE
  2
UCS
  5
7
330
0
100
AcDbSymbolTable
 70
     0
  0
ENDTAB
  0
TABLE
  2
APPID
  5
9
330
0
100
AcDbSymbolTable
 70
     1
  0
APPID
  5
11
330
9
100
AcDbSymbolTableRecord
100
AcDbRegAppTableRecord
  2
ACAD
 70
     0
  0
ENDTAB
  0
TABLE
  2
DIMSTYLE
  5
A
330
0
100
AcDbSymbolTable
 70
     1
100
AcDbDimStyleTable
  0
DIMSTYLE
105
1D
102
{ACAD_REACTORS
330
14FF
330
1500
330
1501
330
158C
330
15D5
330
15D6
330
15D9
330
15DA
330
15DB
330
15E6
330
15FF
330
1600
330
1605
330
1627
330
1644
102
}
330
A
100
AcDbSymbolTableRecord
100
AcDbDimStyleTableRecord
  2
STANDARD
 70
     0
340
10
  0
ENDTAB
  0
TABLE
  2
BLOCK_RECORD
  5
1
330
0
100
AcDbSymbolTable
 70
    16
  0
BLOCK_RECORD
  5
1A
330
1
100
AcDbSymbolTableRecord
100
AcDbBlockTableRecord
  2
*MODEL_SPACE
340
626
  0
BLOCK_RECORD
  5
17
330
1
100
AcDbSymbolTableRecord
100
AcDbBlockTableRecord
  2
*PAPER_SPACE
340
627
  0
BLOCK_RECORD
  5
B2
330
1
100
AcDbSymbolTableRecord
100
AcDbBlockTableRecord
  2
_OPEN
340
0
102
{BLKREFS
331
1726
331
1727
331
172F
331
1730
331
1738
331
1739
331
1741
331
1742
331
174A
331
174B
331
1753
331
1754
331
175C
331
175D
331
1765
331
1766
331
176E
331
176F
331
1777
331
1778
331
1780
331
1781
331
178B
331
178C
331
1796
331
1797
331
179F
331
17A0
331
17A8
331
17A9
331
1618
331
1628
102
}
  0
BLOCK_RECORD
  5
166B
330
1
100
AcDbSymbolTableRecord
100
AcDbBlockTableRecord
  2
*D1
340
0
  0
BLOCK_RECORD
  5
1677
330
1
100
AcDbSymbolTableRecord
100
AcDbBlockTableRecord
  2
*D2
340
0
  0
BLOCK_RECORD
  5
1683
330
1
100
AcDbSymbolTableRecord
100
AcDbBlockTableRecord
  2
*D3
340
0
  0
BLOCK_RECORD
  5
168F
330
1
100
AcDbSymbolTableRecord
100
AcDbBlockTableRecord
  2
*D4
340
0
  0
BLOCK_RECORD
  5
169B
330
1
100
AcDbSymbolTableRecord
100
AcDbBlockTableRecord
  2
*D5
340
0
  0
BLOCK_RECORD
  5
16A7
330
1
100
AcDbSymbolTableRecord
100
AcDbBlockTableRecord
  2
*D6
340
0
  0
BLOCK_RECORD
  5
16B3
330
1
100
AcDbSymbolTableRecord
100
AcDbBlockTableRecord
  2
*D7
340
0
  0
BLOCK_RECORD
  5
16BF
330
1
100
AcDbSymbolTableRecord
100
AcDbBlockTableRecord
  2
*D8
340
0
  0
BLOCK_RECORD
  5
16CB
330
1
100
AcDbSymbolTableRecord
100
AcDbBlockTableRecord
  2
*D9
340
0
  0
BLOCK_RECORD
  5
16D7
330
1
100
AcDbSymbolTableRecord
100
AcDbBlockTableRecord
  2
*D10
340
0
  0
BLOCK_RECORD
  5
16E3
330
1
100
AcDbSymbolTableRecord
100
AcDbBlockTableRecord
  2
*D11
340
0
  0
BLOCK_RECORD
  5
16EF
330
1
100
AcDbSymbolTableRecord
100
AcDbBlockTableRecord
  2
*D12
340
0
  0
BLOCK_RECORD
  5
16FD
330
1
100
AcDbSymbolTableRecord
100
AcDbBlockTableRecord
  2
*D13
340
0
  0
BLOCK_RECORD
  5
170B
330
1
100
AcDbSymbolTableRecord
100
AcDbBlockTableRecord
  2
*D14
340
0
  0
BLOCK_RECORD
  5
1717
330
1
100
AcDbSymbolTableRecord
100
AcDbBlockTableRecord
  2
*D15
340
0
  0
ENDTAB
  0
ENDSEC
  0
SECTION
  2
BLOCKS
  0
BLOCK
  5
1B
330
1A
100
AcDbEntity
  8
0
100
AcDbBlockBegin
  2
*MODEL_SPACE
 70
     0
 71
     0
 10
0.0
 20
0.0
 30
0.0
  3
*MODEL_SPACE
  1

  0
ENDBLK
  5
1C
330
1A
100
AcDbEntity
  8
0
100
AcDbBlockEnd
  0
BLOCK
  5
18
330
17
100
AcDbEntity
 67
     1
  8
0
100
AcDbBlockBegin
  2
*PAPER_SPACE
 70
     0
 71
     0
 10
0.0
 20
0.0
 30
0.0
  3
*PAPER_SPACE
  1

  0
ENDBLK
  5
19
330
17
100
AcDbEntity
 67
     1
  8
0
100
AcDbBlockEnd
  0
BLOCK
  5
B3
330
B2
100
AcDbEntity
  8
0
100
AcDbBlockBegin
  2
_OPEN
 70
     0
 71
     0
 10
0.0
 20
0.0
 30
0.0
  3
_OPEN
  1

  0
LINE
  5
B4
330
B2
100
AcDbEntity
  8
0
  6
ByBlock
 62
     0
100
AcDbLine
 10
-1.0
 20
0.1666666666666667
 30
0.0
 11
0.0
 21
0.0
 31
0.0
  0
LINE
  5
B5
330
B2
100
AcDbEntity
  8
0
  6
ByBlock
 62
     0
100
AcDbLine
 10
0.0
 20
0.0
 30
0.0
 11
-1.0
 21
-0.1666666666666667
 31
0.0
  0
LINE
  5
B6
330
B2
100
AcDbEntity
  8
0
  6
ByBlock
 62
     0
100
AcDbLine
 10
0.0
 20
0.0
 30
0.0
 11
-1.0
 21
0.0
 31
0.0
  0
ENDBLK
  5
B7
330
B2
100
AcDbEntity
  8
0
100
AcDbBlockEnd
  0
BLOCK
  5
1675
330
166B
100
AcDbEntity
  8
0
100
AcDbBlockBegin
  2
*D1
 70
     1
 71
     0
 10
0.0
 20
0.0
 30
0.0
  3
*D1
  1

  0
LINE
  5
1723
330
166B
100
AcDbEntity
  8
SUNPOU
370
    -2
100
AcDbLine
 10
49.27403190949175
 20
106.2782092212896
 30
0.0
 11
26.71654856331745
 21
106.2782092212896
 31
0.0
  0
LINE
  5
1724
330
166B
100
AcDbEntity
  8
SUNPOU
370
    -2
100
AcDbLine
 10
201.7620319494918
 20
78.4690343912896
 30
0.0
 11
26.71654856331744
 21
78.46903439128965
 31
0.0
  0
LINE
  5
1725
330
166B
100
AcDbEntity
  8
SUNPOU
370
    -2
100
AcDbLine
 10
28.21654856331745
 20
103.2782092212896
 30
0.0
 11
28.21654856331745
 21
81.46903439128965
 31
0.0
  0
INSERT
  5
1726
330
166B
100
AcDbEntity
  8
SUNPOU
370
    -2
100
AcDbBlockReference
  2
_OPEN
 10
28.21654856331745
 20
106.2782092212896
 30
0.0
 41
3.0
 42
3.0
 43
3.0
 50
90.0
  0
INSERT
  5
1727
330
166B
100
AcDbEntity
  8
SUNPOU
370
    -2
100
AcDbBlockReference
  2
_OPEN
 10
28.21654856331745
 20
78.46903439128965
 30
0.0
 41
3.0
 42
3.0
 43
3.0
 50
270.0
  0
MTEXT
  5
1728
330
166B
100
AcDbEntity
  8
SUNPOU
100
AcDbMText
 10
25.71654856331744
 20
92.37362180628963
 30
0.0
 40
3.0
 41
0.0
 71
     5
 72
     1
  1
\A1;28
 11
6.123031769111886E-17
 21
1.0
 31
0.0
 73
     1
 44
1.0
  0
POINT
  5
1729
330
166B
100
AcDbEntity
  8
DEFPOINTS
 62
     0
100
AcDbPoint
 10
52.27403190949175
 20
106.2782092212896
 30
0.0
  0
POINT
  5
172A
330
166B
100
AcDbEntity
  8
DEFPOINTS
 62
     0
100
AcDbPoint
 10
204.7620319494918
 20
78.4690343912896
 30
0.0
  0
POINT
  5
172B
330
166B
100
AcDbEntity
  8
DEFPOINTS
 62
     0
100
AcDbPoint
 10
28.21654856331745
 20
78.46903439128965
 30
0.0
  0
ENDBLK
  5
1676
330
166B
100
AcDbEntity
  8
0
100
AcDbBlockEnd
  0
BLOCK
  5
1681
330
1677
100
AcDbEntity
  8
0
100
AcDbBlockBegin
  2
*D2
 70
     1
 71
     0
 10
0.0
 20
0.0
 30
0.0
  3
*D2
  1

  0
LINE
  5
172C
330
1677
100
AcDbEntity
  8
SUNPOU
370
    -2
100
AcDbLine
 10
50.27403190949184
 20
107.2782092212896
 30
0.0
 11
50.27403190949184
 21
158.2491211758575
 31
0.0
  0
LINE
  5
172D
330
1677
100
AcDbEntity
  8
SUNPOU
370
    -2
100
AcDbLine
 10
211.4620319494918
 20
114.9690343912896
 30
0.0
 11
211.4620319494918
 21
158.2491211758575
 31
0.0
  0
LINE
  5
172E
330
1677
100
AcDbEntity
  8
SUNPOU
370
    -2
100
AcDbLine
 10
53.27403190949184
 20
156.7491211758575
 30
0.0
 11
208.4620319494918
 21
156.7491211758575
 31
0.0
  0
INSERT
  5
172F
330
1677
100
AcDbEntity
  8
SUNPOU
370
    -2
100
AcDbBlockReference
  2
_OPEN
 10
50.27403190949184
 20
156.7491211758575
 30
0.0
 41
3.0
 42
3.0
 43
3.0
 50
180.0
  0
INSERT
  5
1730
330
1677
100
AcDbEntity
  8
SUNPOU
370
    -2
100
AcDbBlockReference
  2
_OPEN
 10
211.4620319494918
 20
156.7491211758575
 30
0.0
 41
3.0
 42
3.0
 43
3.0
  0
MTEXT
  5
1731
330
1677
100
AcDbEntity
  8
SUNPOU
100
AcDbMText
 10
142.8680319294918
 20
159.2491211758575
 30
0.0
 40
3.0
 41
0.0
 71
     5
 72
     1
  1
\A1;161
 73
     1
 44
1.0
  0
POINT
  5
1732
330
1677
100
AcDbEntity
  8
DEFPOINTS
 62
     0
100
AcDbPoint
 10
50.27403190949184
 20
104.2782092212896
 30
0.0
  0
POINT
  5
1733
330
1677
100
AcDbEntity
  8
DEFPOINTS
 62
     0
100
AcDbPoint
 10
211.4620319494918
 20
111.9690343912896
 30
0.0
  0
POINT
  5
1734
330
1677
100
AcDbEntity
  8
DEFPOINTS
 62
     0
100
AcDbPoint
 10
211.4620319494918
 20
156.7491211758575
 30
0.0
  0
ENDBLK
  5
1682
330
1677
100
AcDbEntity
  8
0
100
AcDbBlockEnd
  0
BLOCK
  5
168D
330
1683
100
AcDbEntity
  8
0
100
AcDbBlockBegin
  2
*D3
 70
     1
 71
     0
 10
0.0
 20
0.0
 30
0.0
  3
*D3
  1

  0
LINE
  5
1735
330
1683
100
AcDbEntity
  8
SUNPOU
370
    -2
100
AcDbLine
 10
173.274031909492
 20
91.57820922128963
 30
0.0
 11
173.274031909492
 21
145.280903781579
 31
0.0
  0
LINE
  5
1736
330
1683
100
AcDbEntity
  8
SUNPOU
370
    -2
100
AcDbLine
 10
211.4620319494918
 20
114.9690343912896
 30
0.0
 11
211.4620319494918
 21
145.280903781579
 31
0.0
  0
LINE
  5
1737
330
1683
100
AcDbEntity
  8
SUNPOU
370
    -2
100
AcDbLine
 10
176.274031909492
 20
143.780903781579
 30
0.0
 11
208.4620319494918
 21
143.780903781579
 31
0.0
  0
INSERT
  5
1738
330
1683
100
AcDbEntity
  8
SUNPOU
370
    -2
100
AcDbBlockReference
  2
_OPEN
 10
173.274031909492
 20
143.780903781579
 30
0.0
 41
3.0
 42
3.0
 43
3.0
 50
180.0
  0
INSERT
  5
1739
330
1683
100
AcDbEntity
  8
SUNPOU
370
    -2
100
AcDbBlockReference
  2
_OPEN
 10
211.4620319494918
 20
143.780903781579
 30
0.0
 41
3.0
 42
3.0
 43
3.0
  0
MTEXT
  5
173A
330
1683
100
AcDbEntity
  8
SUNPOU
100
AcDbMText
 10
192.3680319294919
 20
146.280903781579
 30
0.0
 40
3.0
 41
0.0
 71
     5
 72
     1
  1
\A1;38
 73
     1
 44
1.0
  0
POINT
  5
173B
330
1683
100
AcDbEntity
  8
DEFPOINTS
 62
     0
100
AcDbPoint
 10
173.274031909492
 20
88.57820922128963
 30
0.0
  0
POINT
  5
173C
330
1683
100
AcDbEntity
  8
DEFPOINTS
 62
     0
100
AcDbPoint
 10
211.4620319494918
 20
111.9690343912896
 30
0.0
  0
POINT
  5
173D
330
1683
100
AcDbEntity
  8
DEFPOINTS
 62
     0
100
AcDbPoint
 10
211.4620319494918
 20
143.780903781579
 30
0.0
  0
ENDBLK
  5
168E
330
1683
100
AcDbEntity
  8
0
100
AcDbBlockEnd
  0
BLOCK
  5
1699
330
168F
100
AcDbEntity
  8
0
100
AcDbBlockBegin
  2
*D4
 70
     1
 71
     0
 10
0.0
 20
0.0
 30
0.0
  3
*D4
  1

  0
LINE
  5
173E
330
168F
100
AcDbEntity
  8
SUNPOU
370
    -2
100
AcDbLine
 10
47.27403190949187
 20
217.1976009445118
 30
0.0
 11
26.71654856331748
 21
217.1976009445118
 31
0.0
  0
LINE
  5
173F
330
168F
100
AcDbEntity
  8
SUNPOU
370
    -2
100
AcDbLine
 10
47.27403190949181
 20
195.1976009445118
 30
0.0
 11
26.71654856331747
 21
195.1976009445118
 31
0.0
  0
LINE
  5
1740
330
168F
100
AcDbEntity
  8
SUNPOU
370
    -2
100
AcDbLine
 10
28.21654856331748
 20
214.1976009445118
 30
0.0
 11
28.21654856331747
 21
198.1976009445118
 31
0.0
  0
INSERT
  5
1741
330
168F
100
AcDbEntity
  8
SUNPOU
370
    -2
100
AcDbBlockReference
  2
_OPEN
 10
28.21654856331748
 20
217.1976009445118
 30
0.0
 41
3.0
 42
3.0
 43
3.0
 50
90.0
  0
INSERT
  5
1742
330
168F
100
AcDbEntity
  8
SUNPOU
370
    -2
100
AcDbBlockReference
  2
_OPEN
 10
28.21654856331747
 20
195.1976009445118
 30
0.0
 41
3.0
 42
3.0
 43
3.0
 50
270.0
  0
MTEXT
  5
1743
330
168F
100
AcDbEntity
  8
SUNPOU
100
AcDbMText
 10
25.71654856331745
 20
206.1976009445118
 30
0.0
 40
3.0
 41
0.0
 71
     5
 72
     1
  1
\A1;22
 11
6.123031769111886E-17
 21
1.0
 31
0.0
 73
     1
 44
1.0
  0
POINT
  5
1744
330
168F
100
AcDbEntity
  8
DEFPOINTS
 62
     0
100
AcDbPoint
 10
50.27403190949187
 20
217.1976009445118
 30
0.0
  0
POINT
  5
1745
330
168F
100
AcDbEntity
  8
DEFPOINTS
 62
     0
100
AcDbPoint
 10
50.27403190949181
 20
195.1976009445118
 30
0.0
  0
POINT
  5
1746
330
168F
100
AcDbEntity
  8
DEFPOINTS
 62
     0
100
AcDbPoint
 10
28.21654856331747
 20
195.1976009445118
 30
0.0
  0
ENDBLK
  5
169A
330
168F
100
AcDbEntity
  8
0
100
AcDbBlockEnd
  0
BLOCK
  5
16A5
330
169B
100
AcDbEntity
  8
0
100
AcDbBlockBegin
  2
*D5
 70
     1
 71
     0
 10
0.0
 20
0.0
 30
0.0
  3
*D5
  1

  0
LINE
  5
1747
330
169B
100
AcDbEntity
  8
SUNPOU
370
    -2
100
AcDbLine
 10
204.9620319494918
 20
130.4690343899267
 30
0.0
 11
229.3538720398892
 21
130.4690343899267
 31
0.0
  0
LINE
  5
1748
330
169B
100
AcDbEntity
  8
SUNPOU
370
    -2
100
AcDbLine
 10
214.4620319494918
 20
78.4690343912896
 30
0.0
 11
229.3538720398892
 21
78.46903439128958
 31
0.0
  0
LINE
  5
1749
330
169B
100
AcDbEntity
  8
SUNPOU
370
    -2
100
AcDbLine
 10
227.8538720398892
 20
127.4690343899267
 30
0.0
 11
227.8538720398892
 21
81.46903439128958
 31
0.0
  0
INSERT
  5
174A
330
169B
100
AcDbEntity
  8
SUNPOU
370
    -2
100
AcDbBlockReference
  2
_OPEN
 10
227.8538720398892
 20
130.4690343899267
 30
0.0
 41
3.0
 42
3.0
 43
3.0
 50
90.0
  0
INSERT
  5
174B
330
169B
100
AcDbEntity
  8
SUNPOU
370
    -2
100
AcDbBlockReference
  2
_OPEN
 10
227.8538720398892
 20
78.46903439128958
 30
0.0
 41
3.0
 42
3.0
 43
3.0
 50
270.0
  0
MTEXT
  5
174C
330
169B
100
AcDbEntity
  8
SUNPOU
100
AcDbMText
 10
225.3538720398892
 20
104.4690343906082
 30
0.0
 40
3.0
 41
0.0
 71
     5
 72
     1
  1
\A1;52
 11
6.123031769111886E-17
 21
1.0
 31
0.0
 73
     1
 44
1.0
  0
POINT
  5
174D
330
169B
100
AcDbEntity
  8
DEFPOINTS
 62
     0
100
AcDbPoint
 10
201.9620319494918
 20
130.4690343899267
 30
0.0
  0
POINT
  5
174E
330
169B
100
AcDbEntity
  8
DEFPOINTS
 62
     0
100
AcDbPoint
 10
211.4620319494918
 20
78.4690343912896
 30
0.0
  0
POINT
  5
174F
330
169B
100
AcDbEntity
  8
DEFPOINTS
 62
     0
100
AcDbPoint
 10
227.8538720398892
 20
78.46903439128958
 30
0.0
  0
ENDBLK
  5
16A6
330
169B
100
AcDbEntity
  8
0
100
AcDbBlockEnd
  0
BLOCK
  5
16B1
330
16A7
100
AcDbEntity
  8
0
100
AcDbBlockBegin
  2
*D6
 70
     1
 71
     0
 10
0.0
 20
0.0
 30
0.0
  3
*D6
  1

  0
LINE
  5
1750
330
16A7
100
AcDbEntity
  8
SUNPOU
370
    -2
100
AcDbLine
 10
211.4620319494918
 20
114.4690343912896
 30
0.0
 11
211.4620319494918
 21
158.2491211758575
 31
0.0
  0
LINE
  5
1751
330
16A7
100
AcDbEntity
  8
SUNPOU
370
    -2
100
AcDbLine
 10
246.4620319294918
 20
114.4690343912896
 30
0.0
 11
246.4620319294918
 21
158.2491211758575
 31
0.0
  0
LINE
  5
1752
330
16A7
100
AcDbEntity
  8
SUNPOU
370
    -2
100
AcDbLine
 10
214.4620319494918
 20
156.7491211758575
 30
0.0
 11
243.4620319294918
 21
156.7491211758575
 31
0.0
  0
INSERT
  5
1753
330
16A7
100
AcDbEntity
  8
SUNPOU
370
    -2
100
AcDbBlockReference
  2
_OPEN
 10
211.4620319494918
 20
156.7491211758575
 30
0.0
 41
3.0
 42
3.0
 43
3.0
 50
180.0
  0
INSERT
  5
1754
330
16A7
100
AcDbEntity
  8
SUNPOU
370
    -2
100
AcDbBlockReference
  2
_OPEN
 10
246.4620319294918
 20
156.7491211758575
 30
0.0
 41
3.0
 42
3.0
 43
3.0
  0
MTEXT
  5
1755
330
16A7
100
AcDbEntity
  8
SUNPOU
100
AcDbMText
 10
228.9620319394918
 20
159.2491211758575
 30
0.0
 40
3.0
 41
0.0
 71
     5
 72
     1
  1
\A1;35
 73
     1
 44
1.0
  0
POINT
  5
1756
330
16A7
100
AcDbEntity
  8
DEFPOINTS
 62
     0
100
AcDbPoint
 10
211.4620319494918
 20
111.4690343912896
 30
0.0
  0
POINT
  5
1757
330
16A7
100
AcDbEntity
  8
DEFPOINTS
 62
     0
100
AcDbPoint
 10
246.4620319294918
 20
111.4690343912896
 30
0.0
  0
POINT
  5
1758
330
16A7
100
AcDbEntity
  8
DEFPOINTS
 62
     0
100
AcDbPoint
 10
246.4620319294918
 20
156.7491211758575
 30
0.0
  0
ENDBLK
  5
16B2
330
16A7
100
AcDbEntity
  8
0
100
AcDbBlockEnd
  0
BLOCK
  5
16BD
330
16B3
100
AcDbEntity
  8
0
100
AcDbBlockBegin
  2
*D7
 70
     1
 71
     0
 10
0.0
 20
0.0
 30
0.0
  3
*D7
  1

  0
LINE
  5
1759
330
16B3
100
AcDbEntity
  8
SUNPOU
370
    -2
100
AcDbLine
 10
305.3325387709965
 20
115.2781092212896
 30
0.0
 11
305.3325387709965
 21
166.752201011141
 31
0.0
  0
LINE
  5
175A
330
16B3
100
AcDbEntity
  8
SUNPOU
370
    -2
100
AcDbLine
 10
358.3325387709965
 20
115.2781092212896
 30
0.0
 11
358.3325387709965
 21
166.752201011141
 31
0.0
  0
LINE
  5
175B
330
16B3
100
AcDbEntity
  8
SUNPOU
370
    -2
100
AcDbLine
 10
308.3325387709965
 20
165.252201011141
 30
0.0
 11
355.3325387709965
 21
165.252201011141
 31
0.0
  0
INSERT
  5
175C
330
16B3
100
AcDbEntity
  8
SUNPOU
370
    -2
100
AcDbBlockReference
  2
_OPEN
 10
305.3325387709965
 20
165.252201011141
 30
0.0
 41
3.0
 42
3.0
 43
3.0
 50
180.0
  0
INSERT
  5
175D
330
16B3
100
AcDbEntity
  8
SUNPOU
370
    -2
100
AcDbBlockReference
  2
_OPEN
 10
358.3325387709965
 20
165.252201011141
 30
0.0
 41
3.0
 42
3.0
 43
3.0
  0
MTEXT
  5
175E
330
16B3
100
AcDbEntity
  8
SUNPOU
100
AcDbMText
 10
331.8325387709965
 20
167.752201011141
 30
0.0
 40
3.0
 41
0.0
 71
     5
 72
     1
  1
\A1;53
 73
     1
 44
1.0
  0
POINT
  5
175F
330
16B3
100
AcDbEntity
  8
DEFPOINTS
 62
     0
100
AcDbPoint
 10
305.3325387709965
 20
112.2781092212896
 30
0.0
  0
POINT
  5
1760
330
16B3
100
AcDbEntity
  8
DEFPOINTS
 62
     0
100
AcDbPoint
 10
358.3325387709965
 20
112.2781092212896
 30
0.0
  0
POINT
  5
1761
330
16B3
100
AcDbEntity
  8
DEFPOINTS
 62
     0
100
AcDbPoint
 10
358.3325387709965
 20
165.252201011141
 30
0.0
  0
ENDBLK
  5
16BE
330
16B3
100
AcDbEntity
  8
0
100
AcDbBlockEnd
  0
BLOCK
  5
16C9
330
16BF
100
AcDbEntity
  8
0
100
AcDbBlockBegin
  2
*D8
 70
     1
 71
     0
 10
0.0
 20
0.0
 30
0.0
  3
*D8
  1

  0
LINE
  5
1762
330
16BF
100
AcDbEntity
  8
SUNPOU
370
    -2
100
AcDbLine
 10
310.8325387709965
 20
117.878109193017
 30
0.0
 11
310.8325387709965
 21
158.8118984474985
 31
0.0
  0
LINE
  5
1763
330
16BF
100
AcDbEntity
  8
SUNPOU
370
    -2
100
AcDbLine
 10
352.8325387709965
 20
117.878109193017
 30
0.0
 11
352.8325387709965
 21
158.8118984474985
 31
0.0
  0
LINE
  5
1764
330
16BF
100
AcDbEntity
  8
SUNPOU
370
    -2
100
AcDbLine
 10
313.8325387709965
 20
157.3118984474985
 30
0.0
 11
349.8325387709965
 21
157.3118984474985
 31
0.0
  0
INSERT
  5
1765
330
16BF
100
AcDbEntity
  8
SUNPOU
370
    -2
100
AcDbBlockReference
  2
_OPEN
 10
310.8325387709965
 20
157.3118984474985
 30
0.0
 41
3.0
 42
3.0
 43
3.0
 50
180.0
  0
INSERT
  5
1766
330
16BF
100
AcDbEntity
  8
SUNPOU
370
    -2
100
AcDbBlockReference
  2
_OPEN
 10
352.8325387709965
 20
157.3118984474985
 30
0.0
 41
3.0
 42
3.0
 43
3.0
  0
MTEXT
  5
1767
330
16BF
100
AcDbEntity
  8
SUNPOU
100
AcDbMText
 10
331.8325387709965
 20
159.8118984474985
 30
0.0
 40
3.0
 41
0.0
 71
     5
 72
     1
  1
\A1;42
 73
     1
 44
1.0
  0
POINT
  5
1768
330
16BF
100
AcDbEntity
  8
DEFPOINTS
 62
     0
100
AcDbPoint
 10
310.8325387709965
 20
114.878109193017
 30
0.0
  0
POINT
  5
1769
330
16BF
100
AcDbEntity
  8
DEFPOINTS
 62
     0
100
AcDbPoint
 10
352.8325387709965
 20
114.878109193017
 30
0.0
  0
POINT
  5
176A
330
16BF
100
AcDbEntity
  8
DEFPOINTS
 62
     0
100
AcDbPoint
 10
352.8325387709965
 20
157.3118984474985
 30
0.0
  0
ENDBLK
  5
16CA
330
16BF
100
AcDbEntity
  8
0
100
AcDbBlockEnd
  0
BLOCK
  5
16D5
330
16CB
100
AcDbEntity
  8
0
100
AcDbBlockBegin
  2
*D9
 70
     1
 71
     0
 10
0.0
 20
0.0
 30
0.0
  3
*D9
  1

  0
LINE
  5
176B
330
16CB
100
AcDbEntity
  8
SUNPOU
370
    -2
100
AcDbLine
 10
312.3325387709965
 20
110.3084154160175
 30
0.0
 11
312.3325387709965
 21
150.390365897891
 31
0.0
  0
LINE
  5
176C
330
16CB
100
AcDbEntity
  8
SUNPOU
370
    -2
100
AcDbLine
 10
351.3325387709965
 20
110.3084154160175
 30
0.0
 11
351.3325387709965
 21
150.390365897891
 31
0.0
  0
LINE
  5
176D
330
16CB
100
AcDbEntity
  8
SUNPOU
370
    -2
100
AcDbLine
 10
315.3325387709965
 20
148.890365897891
 30
0.0
 11
348.3325387709965
 21
148.890365897891
 31
0.0
  0
INSERT
  5
176E
330
16CB
100
AcDbEntity
  8
SUNPOU
370
    -2
100
AcDbBlockReference
  2
_OPEN
 10
312.3325387709965
 20
148.890365897891
 30
0.0
 41
3.0
 42
3.0
 43
3.0
 50
180.0
  0
INSERT
  5
176F
330
16CB
100
AcDbEntity
  8
SUNPOU
370
    -2
100
AcDbBlockReference
  2
_OPEN
 10
351.3325387709965
 20
148.890365897891
 30
0.0
 41
3.0
 42
3.0
 43
3.0
  0
MTEXT
  5
1770
330
16CB
100
AcDbEntity
  8
SUNPOU
100
AcDbMText
 10
331.8325387709965
 20
151.390365897891
 30
0.0
 40
3.0
 41
0.0
 71
     5
 72
     1
  1
\A1;39
 73
     1
 44
1.0
  0
POINT
  5
1771
330
16CB
100
AcDbEntity
  8
DEFPOINTS
 62
     0
100
AcDbPoint
 10
312.3325387709965
 20
107.3084154160175
 30
0.0
  0
POINT
  5
1772
330
16CB
100
AcDbEntity
  8
DEFPOINTS
 62
     0
100
AcDbPoint
 10
351.3325387709965
 20
107.3084154160175
 30
0.0
  0
POINT
  5
1773
330
16CB
100
AcDbEntity
  8
DEFPOINTS
 62
     0
100
AcDbPoint
 10
351.3325387709965
 20
148.890365897891
 30
0.0
  0
ENDBLK
  5
16D6
330
16CB
100
AcDbEntity
  8
0
100
AcDbBlockEnd
  0
BLOCK
  5
16E1
330
16D7
100
AcDbEntity
  8
0
100
AcDbBlockBegin
  2
*D10
 70
     1
 71
     0
 10
0.0
 20
0.0
 30
0.0
  3
*D10
  1

  0
LINE
  5
1774
330
16D7
100
AcDbEntity
  8
SUNPOU
370
    -2
100
AcDbLine
 10
214.4620319494918
 20
114.4690343912896
 30
0.0
 11
221.9265305261704
 21
114.4690343912896
 31
0.0
  0
LINE
  5
1775
330
16D7
100
AcDbEntity
  8
SUNPOU
370
    -2
100
AcDbLine
 10
214.4620319494918
 20
78.4690343912896
 30
0.0
 11
221.9265305261704
 21
78.4690343912896
 31
0.0
  0
LINE
  5
1776
330
16D7
100
AcDbEntity
  8
SUNPOU
370
    -2
100
AcDbLine
 10
220.4265305261704
 20
111.4690343912896
 30
0.0
 11
220.4265305261704
 21
81.4690343912896
 31
0.0
  0
INSERT
  5
1777
330
16D7
100
AcDbEntity
  8
SUNPOU
370
    -2
100
AcDbBlockReference
  2
_OPEN
 10
220.4265305261704
 20
114.4690343912896
 30
0.0
 41
3.0
 42
3.0
 43
3.0
 50
90.0
  0
INSERT
  5
1778
330
16D7
100
AcDbEntity
  8
SUNPOU
370
    -2
100
AcDbBlockReference
  2
_OPEN
 10
220.4265305261704
 20
78.4690343912896
 30
0.0
 41
3.0
 42
3.0
 43
3.0
 50
270.0
  0
MTEXT
  5
1779
330
16D7
100
AcDbEntity
  8
SUNPOU
100
AcDbMText
 10
217.9265305261704
 20
96.46903439128963
 30
0.0
 40
3.0
 41
0.0
 71
     5
 72
     1
  1
\A1;36
 11
6.123031769111886E-17
 21
1.0
 31
0.0
 73
     1
 44
1.0
  0
POINT
  5
177A
330
16D7
100
AcDbEntity
  8
DEFPOINTS
 62
     0
100
AcDbPoint
 10
211.4620319494918
 20
114.4690343912896
 30
0.0
  0
POINT
  5
177B
330
16D7
100
AcDbEntity
  8
DEFPOINTS
 62
     0
100
AcDbPoint
 10
211.4620319494918
 20
78.4690343912896
 30
0.0
  0
POINT
  5
177C
330
16D7
100
AcDbEntity
  8
DEFPOINTS
 62
     0
100
AcDbPoint
 10
220.4265305261704
 20
78.4690343912896
 30
0.0
  0
ENDBLK
  5
16E2
330
16D7
100
AcDbEntity
  8
0
100
AcDbBlockEnd
  0
BLOCK
  5
16ED
330
16E3
100
AcDbEntity
  8
0
100
AcDbBlockBegin
  2
*D11
 70
     1
 71
     0
 10
0.0
 20
0.0
 30
0.0
  3
*D11
  1

  0
LINE
  5
177D
330
16E3
100
AcDbEntity
  8
SUNPOU
370
    -2
100
AcDbLine
 10
304.3325387709965
 20
114.2781092212896
 30
0.0
 11
275.8591842052526
 21
114.2781092212896
 31
0.0
  0
LINE
  5
177E
330
16E3
100
AcDbEntity
  8
SUNPOU
370
    -2
100
AcDbLine
 10
304.3325387709965
 20
78.27810922128958
 30
0.0
 11
275.8591842052526
 21
78.2781092212896
 31
0.0
  0
LINE
  5
177F
330
16E3
100
AcDbEntity
  8
SUNPOU
370
    -2
100
AcDbLine
 10
277.3591842052526
 20
111.2781092212896
 30
0.0
 11
277.3591842052526
 21
81.2781092212896
 31
0.0
  0
INSERT
  5
1780
330
16E3
100
AcDbEntity
  8
SUNPOU
370
    -2
100
AcDbBlockReference
  2
_OPEN
 10
277.3591842052526
 20
114.2781092212896
 30
0.0
 41
3.0
 42
3.0
 43
3.0
 50
90.0
  0
INSERT
  5
1781
330
16E3
100
AcDbEntity
  8
SUNPOU
370
    -2
100
AcDbBlockReference
  2
_OPEN
 10
277.3591842052526
 20
78.2781092212896
 30
0.0
 41
3.0
 42
3.0
 43
3.0
 50
270.0
  0
MTEXT
  5
1782
330
16E3
100
AcDbEntity
  8
SUNPOU
100
AcDbMText
 10
274.8591842052526
 20
96.27810922128964
 30
0.0
 40
3.0
 41
0.0
 71
     5
 72
     1
  1
\A1;36
 11
6.123031769111886E-17
 21
1.0
 31
0.0
 73
     1
 44
1.0
  0
POINT
  5
1783
330
16E3
100
AcDbEntity
  8
DEFPOINTS
 62
     0
100
AcDbPoint
 10
307.3325387709965
 20
114.2781092212896
 30
0.0
  0
POINT
  5
1784
330
16E3
100
AcDbEntity
  8
DEFPOINTS
 62
     0
100
AcDbPoint
 10
307.3325387709965
 20
78.27810922128958
 30
0.0
  0
POINT
  5
1785
330
16E3
100
AcDbEntity
  8
DEFPOINTS
 62
     0
100
AcDbPoint
 10
277.3591842052526
 20
78.2781092212896
 30
0.0
  0
ENDBLK
  5
16EE
330
16E3
100
AcDbEntity
  8
0
100
AcDbBlockEnd
  0
BLOCK
  5
16FB
330
16EF
100
AcDbEntity
  8
0
100
AcDbBlockBegin
  2
*D12
 70
     1
 71
     0
 10
0.0
 20
0.0
 30
0.0
  3
*D12
  1

  0
LINE
  5
1786
330
16EF
100
AcDbEntity
  8
SUNPOU
370
    -2
100
AcDbLine
 10
301.7325387992691
 20
83.77810922128958
 30
0.0
 11
285.7325895678461
 21
83.7781092212896
 31
0.0
  0
LINE
  5
1787
330
16EF
100
AcDbEntity
  8
SUNPOU
370
    -2
100
AcDbLine
 10
304.3325387709965
 20
78.27810922128958
 30
0.0
 11
285.7325895678461
 21
78.2781092212896
 31
0.0
  0
LINE
  5
1788
330
16EF
100
AcDbEntity
  8
SUNPOU
370
    -2
100
AcDbLine
 10
287.2325895678461
 20
86.7781092212896
 30
0.0
 11
287.2325895678461
 21
89.7781092212896
 31
0.0
  0
LINE
  5
1789
330
16EF
100
AcDbEntity
  8
SUNPOU
370
    -2
100
AcDbLine
 10
287.2325895678461
 20
75.2781092212896
 30
0.0
 11
287.2325895678461
 21
72.2781092212896
 31
0.0
  0
LINE
  5
178A
330
16EF
100
AcDbEntity
  8
SUNPOU
370
    -2
100
AcDbLine
 10
287.2325895678461
 20
83.7781092212896
 30
0.0
 11
287.2325895678461
 21
78.2781092212896
 31
0.0
  0
INSERT
  5
178B
330
16EF
100
AcDbEntity
  8
SUNPOU
370
    -2
100
AcDbBlockReference
  2
_OPEN
 10
287.2325895678461
 20
83.7781092212896
 30
0.0
 41
3.0
 42
3.0
 43
3.0
 50
270.0
  0
INSERT
  5
178C
330
16EF
100
AcDbEntity
  8
SUNPOU
370
    -2
100
AcDbBlockReference
  2
_OPEN
 10
287.2325895678461
 20
78.2781092212896
 30
0.0
 41
3.0
 42
3.0
 43
3.0
 50
90.0
  0
MTEXT
  5
178D
330
16EF
100
AcDbEntity
  8
SUNPOU
100
AcDbMText
 10
284.7325895678461
 20
81.02810922128964
 30
0.0
 40
3.0
 41
0.0
 71
     5
 72
     1
  1
\A1;6
 11
6.123031769111886E-17
 21
1.0
 31
0.0
 73
     1
 44
1.0
  0
POINT
  5
178E
330
16EF
100
AcDbEntity
  8
DEFPOINTS
 62
     0
100
AcDbPoint
 10
304.7325387992691
 20
83.77810922128958
 30
0.0
  0
POINT
  5
178F
330
16EF
100
AcDbEntity
  8
DEFPOINTS
 62
     0
100
AcDbPoint
 10
307.3325387709965
 20
78.27810922128958
 30
0.0
  0
POINT
  5
1790
330
16EF
100
AcDbEntity
  8
DEFPOINTS
 62
     0
100
AcDbPoint
 10
287.2325895678461
 20
78.2781092212896
 30
0.0
  0
ENDBLK
  5
16FC
330
16EF
100
AcDbEntity
  8
0
100
AcDbBlockEnd
  0
BLOCK
  5
1709
330
16FD
100
AcDbEntity
  8
0
100
AcDbBlockBegin
  2
*D13
 70
     1
 71
     0
 10
0.0
 20
0.0
 30
0.0
  3
*D13
  1

  0
LINE
  5
1791
330
16FD
100
AcDbEntity
  8
SUNPOU
370
    -2
100
AcDbLine
 10
304.3325387709965
 20
114.2781092212896
 30
0.0
 11
285.7325895678462
 21
114.2781092212896
 31
0.0
  0
LINE
  5
1792
330
16FD
100
AcDbEntity
  8
SUNPOU
370
    -2
100
AcDbLine
 10
301.7325387992691
 20
108.7781092212896
 30
0.0
 11
285.7325895678462
 21
108.7781092212896
 31
0.0
  0
LINE
  5
1793
330
16FD
100
AcDbEntity
  8
SUNPOU
370
    -2
100
AcDbLine
 10
287.2325895678462
 20
117.2781092212896
 30
0.0
 11
287.2325895678462
 21
120.2781092212896
 31
0.0
  0
LINE
  5
1794
330
16FD
100
AcDbEntity
  8
SUNPOU
370
    -2
100
AcDbLine
 10
287.2325895678462
 20
105.7781092212896
 30
0.0
 11
287.2325895678462
 21
102.7781092212896
 31
0.0
  0
LINE
  5
1795
330
16FD
100
AcDbEntity
  8
SUNPOU
370
    -2
100
AcDbLine
 10
287.2325895678462
 20
114.2781092212896
 30
0.0
 11
287.2325895678462
 21
108.7781092212896
 31
0.0
  0
INSERT
  5
1796
330
16FD
100
AcDbEntity
  8
SUNPOU
370
    -2
100
AcDbBlockReference
  2
_OPEN
 10
287.2325895678462
 20
114.2781092212896
 30
0.0
 41
3.0
 42
3.0
 43
3.0
 50
270.0
  0
INSERT
  5
1797
330
16FD
100
AcDbEntity
  8
SUNPOU
370
    -2
100
AcDbBlockReference
  2
_OPEN
 10
287.2325895678462
 20
108.7781092212896
 30
0.0
 41
3.0
 42
3.0
 43
3.0
 50
90.0
  0
MTEXT
  5
1798
330
16FD
100
AcDbEntity
  8
SUNPOU
100
AcDbMText
 10
284.7325895678462
 20
111.5281092212896
 30
0.0
 40
3.0
 41
0.0
 71
     5
 72
     1
  1
\A1;6
 11
6.123031769111886E-17
 21
1.0
 31
0.0
 73
     1
 44
1.0
  0
POINT
  5
1799
330
16FD
100
AcDbEntity
  8
DEFPOINTS
 62
     0
100
AcDbPoint
 10
307.3325387709965
 20
114.2781092212896
 30
0.0
  0
POINT
  5
179A
330
16FD
100
AcDbEntity
  8
DEFPOINTS
 62
     0
100
AcDbPoint
 10
304.7325387992691
 20
108.7781092212896
 30
0.0
  0
POINT
  5
179B
330
16FD
100
AcDbEntity
  8
DEFPOINTS
 62
     0
100
AcDbPoint
 10
287.2325895678462
 20
108.7781092212896
 30
0.0
  0
ENDBLK
  5
170A
330
16FD
100
AcDbEntity
  8
0
100
AcDbBlockEnd
  0
BLOCK
  5
1715
330
170B
100
AcDbEntity
  8
0
100
AcDbBlockBegin
  2
*D14
 70
     1
 71
     0
 10
0.0
 20
0.0
 30
0.0
  3
*D14
  1

  0
LINE
  5
179C
330
170B
100
AcDbEntity
  8
SUNPOU
370
    -2
100
AcDbLine
 10
359.3325387709965
 20
114.2781092212896
 30
0.0
 11
375.9075451516762
 21
114.2781092212896
 31
0.0
  0
LINE
  5
179D
330
170B
100
AcDbEntity
  8
SUNPOU
370
    -2
100
AcDbLine
 10
361.3325387709965
 20
100.2781092212896
 30
0.0
 11
375.9075451516762
 21
100.2781092212896
 31
0.0
  0
LINE
  5
179E
330
170B
100
AcDbEntity
  8
SUNPOU
370
    -2
100
AcDbLine
 10
374.4075451516762
 20
111.2781092212896
 30
0.0
 11
374.4075451516762
 21
103.2781092212896
 31
0.0
  0
INSERT
  5
179F
330
170B
100
AcDbEntity
  8
SUNPOU
370
    -2
100
AcDbBlockReference
  2
_OPEN
 10
374.4075451516762
 20
114.2781092212896
 30
0.0
 41
3.0
 42
3.0
 43
3.0
 50
90.0
  0
INSERT
  5
17A0
330
170B
100
AcDbEntity
  8
SUNPOU
370
    -2
100
AcDbBlockReference
  2
_OPEN
 10
374.4075451516762
 20
100.2781092212896
 30
0.0
 41
3.0
 42
3.0
 43
3.0
 50
270.0
  0
MTEXT
  5
17A1
330
170B
100
AcDbEntity
  8
SUNPOU
100
AcDbMText
 10
371.9075451516762
 20
107.2781092212896
 30
0.0
 40
3.0
 41
0.0
 71
     5
 72
     1
  1
\A1;14
 11
6.123031769111886E-17
 21
1.0
 31
0.0
 73
     1
 44
1.0
  0
POINT
  5
17A2
330
170B
100
AcDbEntity
  8
DEFPOINTS
 62
     0
100
AcDbPoint
 10
356.3325387709965
 20
114.2781092212896
 30
0.0
  0
POINT
  5
17A3
330
170B
100
AcDbEntity
  8
DEFPOINTS
 62
     0
100
AcDbPoint
 10
358.3325387709965
 20
100.2781092212896
 30
0.0
  0
POINT
  5
17A4
330
170B
100
AcDbEntity
  8
DEFPOINTS
 62
     0
100
AcDbPoint
 10
374.4075451516762
 20
100.2781092212896
 30
0.0
  0
ENDBLK
  5
1716
330
170B
100
AcDbEntity
  8
0
100
AcDbBlockEnd
  0
BLOCK
  5
1721
330
1717
100
AcDbEntity
  8
0
100
AcDbBlockBegin
  2
*D15
 70
     1
 71
     0
 10
0.0
 20
0.0
 30
0.0
  3
*D15
  1

  0
LINE
  5
17A5
330
1717
100
AcDbEntity
  8
SUNPOU
370
    -2
100
AcDbLine
 10
215.6620319494918
 20
232.6976009645118
 30
0.0
 11
235.5936621431526
 21
232.6976009645118
 31
0.0
  0
LINE
  5
17A6
330
1717
100
AcDbEntity
  8
SUNPOU
370
    -2
100
AcDbLine
 10
215.6620319494918
 20
179.6976009245118
 30
0.0
 11
235.5936621431525
 21
179.6976009245118
 31
0.0
  0
LINE
  5
17A7
330
1717
100
AcDbEntity
  8
SUNPOU
370
    -2
100
AcDbLine
 10
234.0936621431526
 20
229.6976009645118
 30
0.0
 11
234.0936621431525
 21
182.6976009245118
 31
0.0
  0
INSERT
  5
17A8
330
1717
100
AcDbEntity
  8
SUNPOU
370
    -2
100
AcDbBlockReference
  2
_OPEN
 10
234.0936621431526
 20
232.6976009645118
 30
0.0
 41
3.0
 42
3.0
 43
3.0
 50
90.0
  0
INSERT
  5
17A9
330
1717
100
AcDbEntity
  8
SUNPOU
370
    -2
100
AcDbBlockReference
  2
_OPEN
 10
234.0936621431525
 20
179.6976009245118
 30
0.0
 41
3.0
 42
3.0
 43
3.0
 50
270.0
  0
MTEXT
  5
17AA
330
1717
100
AcDbEntity
  8
SUNPOU
100
AcDbMText
 10
231.5936621431525
 20
206.1976009445119
 30
0.0
 40
3.0
 41
0.0
 71
     5
 72
     1
  1
\A1;53
 11
6.123031769111886E-17
 21
1.0
 31
0.0
 73
     1
 44
1.0
  0
POINT
  5
17AB
330
1717
100
AcDbEntity
  8
DEFPOINTS
 62
     0
100
AcDbPoint
 10
212.6620319494918
 20
232.6976009645118
 30
0.0
  0
POINT
  5
17AC
330
1717
100
AcDbEntity
  8
DEFPOINTS
 62
     0
100
AcDbPoint
 10
212.6620319494918
 20
179.6976009245118
 30
0.0
  0
POINT
  5
17AD
330
1717
100
AcDbEntity
  8
DEFPOINTS
 62
     0
100
AcDbPoint
 10
234.0936621431525
 20
179.6976009245118
 30
0.0
  0
ENDBLK
  5
1722
330
1717
100
AcDbEntity
  8
0
100
AcDbBlockEnd
  0
ENDSEC
  0
SECTION
  2
ENTITIES
  0
LWPOLYLINE
  5
ABF
330
1A
100
AcDbEntity
  8
ZUWAKU
100
AcDbPolyline
 90
        4
 70
     1
 43
0.0
 10
0.3999995171010369
 20
275.3999999613564
 10
0.3999995171010369
 20
0.3999999613564
 10
398.399999517101
 20
0.3999999613564
 10
398.399999517101
 20
275.3999999613564
  0
LWPOLYLINE
  5
AC0
330
1A
100
AcDbEntity
  8
ZUWAKU
100
AcDbPolyline
 90
        4
 70
     1
 43
0.0
 10
0.1999995171010482
 20
275.5999999613564
 10
0.1999995171010482
 20
0.1999999613564114
 10
398.5999995171011
 20
0.1999999613563999
 10
398.5999995171011
 20
275.5999999613564
  0
LWPOLYLINE
  5
AC1
330
1A
100
AcDbEntity
  8
ZUWAKU
100
AcDbPolyline
 90
        4
 70
     1
 43
0.0
 10
-0.0000004828989404
 20
275.7999999613564
 10
-0.0000004828989404
 20
-0.0000000386436341
 10
398.7999995171011
 20
-0.0000000386436003
 10
398.7999995171011
 20
275.7999999613564
  0
LWPOLYLINE
  5
AC2
330
1A
100
AcDbEntity
  8
ZUWAKU
100
AcDbPolyline
 90
        4
 70
     1
 43
0.0
 10
0.2999995171010141
 20
275.4999999613564
 10
0.2999995171010141
 20
0.2999999613563773
 10
398.4999995171012
 20
0.2999999613564004
 10
398.4999995171011
 20
275.4999999613564
  0
LWPOLYLINE
  5
AC3
330
1A
100
AcDbEntity
  8
ZUWAKU
100
AcDbPolyline
 90
        4
 70
     1
 43
0.0
 10
0.0999995171010255
 20
275.6999999613564
 10
0.0999995171010255
 20
0.0999999613563887
 10
398.699999517101
 20
0.0999999613564002
 10
398.6999995171011
 20
275.6999999613564
  0
LINE
  5
AC4
330
1A
100
AcDbEntity
  8
ZUWAKU
100
AcDbLine
 10
-0.0000004828989404
 20
14.99999996135637
 30
0.0
 11
398.699999517101
 21
14.99999996135637
 31
0.0
  0
LINE
  5
AC5
330
1A
100
AcDbEntity
  8
ZUWAKU
100
AcDbLine
 10
-0.0000004828989404
 20
15.09999996135637
 30
0.0
 11
398.699999517101
 21
15.09999996135637
 31
0.0
  0
LINE
  5
AC6
330
1A
100
AcDbEntity
  8
ZUWAKU
100
AcDbLine
 10
-0.0000004828989404
 20
15.19999996135637
 30
0.0
 11
398.699999517101
 21
15.19999996135637
 31
0.0
  0
LINE
  5
AC7
330
1A
100
AcDbEntity
  8
ZUWAKU
100
AcDbLine
 10
-0.0000004828989404
 20
15.29999996135637
 30
0.0
 11
398.699999517101
 21
15.29999996135637
 31
0.0
  0
LINE
  5
AC8
330
1A
100
AcDbEntity
  8
ZUWAKU
100
AcDbLine
 10
-0.0000004828989404
 20
15.39999996135637
 30
0.0
 11
398.699999517101
 21
15.39999996135637
 31
0.0
  0
LINE
  5
AC9
330
1A
100
AcDbEntity
  8
ZUWAKU
100
AcDbLine
 10
104.3233001621351
 20
7.699999961356383
 30
0.0
 11
223.7121815025968
 21
7.699999961356383
 31
0.0
  0
LINE
  5
ACA
330
1A
100
AcDbEntity
  8
ZUWAKU
100
AcDbLine
 10
104.3233001621351
 20
7.799999961356383
 30
0.0
 11
223.7121815025968
 21
7.799999961356386
 31
0.0
  0
LINE
  5
ACB
330
1A
100
AcDbEntity
  8
ZUWAKU
100
AcDbLine
 10
104.3233001621351
 20
7.599999961356385
 30
0.0
 11
223.7121815025968
 21
7.599999961356382
 31
0.0
  0
TEXT
  5
ACC
330
1A
100
AcDbEntity
  8
moji
100
AcDbText
 10
46.47889431118563
 20
6.370589026493747
 30
0.0
 40
3.0
  1
アーバントップΣ９０
 41
0.9
  7
ｽﾀｲﾙ1
100
AcDbText
  0
CIRCLE
  5
ACD
330
1A
100
AcDbEntity
  8
ZUWAKU
100
AcDbCircle
 10
12.99610559449161
 20
7.599999961356367
 30
0.0
 40
0.875
  0
LINE
  5
ACE
330
1A
100
AcDbEntity
  8
ZUWAKU
100
AcDbLine
 10
13.43360559449161
 20
3.574999961356369
 30
0.0
 11
12.47110559449163
 21
3.574999961356369
 31
0.0
  0
LINE
  5
ACF
330
1A
100
AcDbEntity
  8
ZUWAKU
100
AcDbLine
 10
12.47110559449163
 20
4.974999961356367
 30
0.0
 11
13.43360559449161
 21
4.974999961356367
 31
0.0
  0
LINE
  5
AD0
330
1A
100
AcDbEntity
  8
ZUWAKU
100
AcDbLine
 10
13.43360559449161
 20
10.22499996135637
 30
0.0
 11
12.47110559449163
 21
10.22499996135637
 31
0.0
  0
LINE
  5
AD1
330
1A
100
AcDbEntity
  8
ZUWAKU
100
AcDbLine
 10
12.47110559449163
 20
11.62499996135635
 30
0.0
 11
13.43360559449161
 21
11.62499996135637
 31
0.0
  0
HATCH
  5
AD2
330
1A
100
AcDbEntity
  8
ZUWAKU
100
AcDbHatch
 10
0.0
 20
0.0
 30
0.0
210
0.0
220
0.0
230
1.0
  2
ANSI37
 70
     0
 71
     0
 91
        8
 92
        7
 72
     1
 73
     1
 93
       24
 10
7.251130847660988
 20
8.822424201848158
 42
-0.1989123673796348
 10
7.046105594491621
 20
9.317398948678683
 42
0.0
 10
7.046105594491621
 20
9.962499961356372
 42
-0.4142135623730912
 10
7.30860559449161
 20
10.22499996135637
 42
0.0
 10
8.796105594491564
 20
10.22499996135637
 42
0.4142135623731546
 10
9.05860559449161
 20
10.48749996135636
 42
0.0
 10
9.05860559449161
 20
11.36249996135637
 42
0.4142135623731586
 10
8.796105594491564
 20
11.62499996135637
 42
0.0
 10
7.046105594491621
 20
11.62499996135637
 42
0.4142135623730928
 10
5.646105594491644
 20
10.22499996135638
 42
0.0
 10
5.646105594491644
 20
9.317398948678747
 42
0.1989123673796619
 10
6.261181353999859
 20
7.832474708186943
 42
0.0
 10
7.716080341322197
 20
6.377575720864614
 42
-0.1989123673796613
 10
7.921105594491621
 20
5.882600974034022
 42
0.0
 10
7.921105594491621
 20
5.237499961356363
 42
-0.4142135623730911
 10
7.658605594491633
 20
4.974999961356367
 42
0.0
 10
6.171105594491678
 20
4.974999961356367
 42
0.4142135623731526
 10
5.908605594491633
 20
4.712499961356373
 42
0.0
 10
5.908605594491633
 20
3.837499961356363
 42
0.4142135623731526
 10
6.171105594491678
 20
3.574999961356369
 42
0.0
 10
7.921105594491621
 20
3.574999961356369
 42
0.4142135623731044
 10
9.321105594491655
 20
4.974999961356357
 42
0.0
 10
9.321105594491655
 20
5.882600974033993
 42
0.1989123673796604
 10
8.706029834983383
 20
7.367525214525763
 42
0.0
 97
        0
 92
        7
 72
     1
 73
     1
 93
       16
 10
11.77110559449164
 20
9.524999961356372
 42
-0.4142135623730935
 10
12.47110559449163
 20
10.22499996135637
 42
0.0
 10
13.43360559449161
 20
10.22499996135637
 42
0.4142135623731546
 10
13.69610559449166
 20
10.48749996135636
 42
0.0
 10
13.69610559449166
 20
11.36249996135637
 42
0.4142135623730952
 10
13.43360559449167
 20
11.62499996135637
 42
0.0
 10
12.47110559449158
 20
11.62499996135635
 42
0.4142135623730892
 10
10.37110559449161
 20
9.524999961356336
 42
0.0
 10
10.37110559449161
 20
5.674999961356381
 42
0.4142135623730969
 10
12.47110559449163
 20
3.574999961356369
 42
0.0
 10
13.43360559449161
 20
3.574999961356369
 42
0.4142135623731526
 10
13.69610559449166
 20
3.837499961356363
 42
0.0
 10
13.69610559449166
 20
4.712499961356373
 42
0.414213562373089
 10
13.43360559449167
 20
4.974999961356367
 42
0.0
 10
12.47110559449163
 20
4.974999961356367
 42
-0.4142135623730928
 10
11.77110559449164
 20
5.674999961356361
 42
0.0
 97
        0
 92
        7
 72
     1
 73
     1
 93
        2
 10
12.12110559449161
 20
7.599999961356367
 42
1.0
 10
13.87110559449161
 20
7.599999961356367
 42
1.0
 97
        0
 92
        7
 72
     1
 73
     1
 93
       26
 10
18.65742883558062
 20
9.602523558138081
 42
0.0
 10
19.18824865214953
 20
11.28345297727288
 42
0.5069206636600134
 10
18.93793320255185
 20
11.62499996135637
 42
0.0
 10
18.08848851274723
 20
11.62499996135637
 42
0.3272098845218764
 10
17.83817306314955
 20
11.44154694543985
 42
0.0
 10
16.90403812583367
 20
8.483452977272908
 42
-0.3272098845219541
 10
16.65372267623593
 20
8.299999961356367
 42
0.0
 10
16.5836055944917
 20
8.299999961356367
 42
-0.4142135623731526
 10
16.32110559449166
 20
8.562499961356361
 42
0.0
 10
16.32110559449166
 20
11.36249996135637
 42
0.4142135623730952
 10
16.05860559449167
 20
11.62499996135637
 42
0.0
 10
15.18360559449161
 20
11.62499996135637
 42
0.4142135623730872
 10
14.92110559449162
 20
11.36249996135638
 42
0.0
 10
14.92110559449162
 20
3.837499961356363
 42
0.414213562373089
 10
15.18360559449161
 20
3.574999961356369
 42
0.0
 10
16.05860559449161
 20
3.574999961356369
 42
0.4142135623731526
 10
16.32110559449166
 20
3.837499961356363
 42
0.0
 10
16.32110559449166
 20
6.637499961356374
 42
-0.4142135623731526
 10
16.5836055944917
 20
6.899999961356368
 42
0.0
 10
16.65372267623599
 20
6.899999961356368
 42
-0.3272098845218915
 10
16.90403812583367
 20
6.716546945439831
 42
0.0
 10
17.83817306314955
 20
3.758452977272905
 42
0.3272098845218902
 10
18.08848851274723
 20
3.574999961356369
 42
0.0
 10
18.93793320255185
 20
3.574999961356369
 42
0.5069206636600334
 10
19.18824865214953
 20
3.916546945439873
 42
0.0
 10
18.0250529629127
 20
7.599999961356437
 42
0.0
 97
        0
 92
        7
 72
     1
 73
     1
 93
        8
 10
21.74610559449161
 20
11.36249996135637
 42
0.4142135623731546
 10
21.48360559449156
 20
11.62499996135637
 42
0.0
 10
20.60860559449168
 20
11.62499996135637
 42
0.4142135623731506
 10
20.34610559449163
 20
11.36249996135638
 42
0.0
 10
20.34610559449163
 20
3.837499961356363
 42
0.4142135623731526
 10
20.60860559449168
 20
3.574999961356369
 42
0.0
 10
21.48360559449156
 20
3.574999961356369
 42
0.4142135623731526
 10
21.74610559449161
 20
3.837499961356363
 42
0.0
 97
        0
 92
        7
 72
     1
 73
     1
 93
       24
 10
24.19610559449166
 20
9.962499961356372
 42
-0.4142135623731547
 10
24.4586055944917
 20
10.22499996135637
 42
0.0
 10
25.94610559449166
 20
10.22499996135637
 42
0.4142135623730911
 10
26.20860559449164
 20
10.48749996135636
 42
0.0
 10
26.20860559449164
 20
11.36249996135637
 42
0.4142135623730952
 10
25.94610559449166
 20
11.62499996135637
 42
0.0
 10
24.19610559449166
 20
11.62499996135637
 42
0.4142135623731048
 10
22.79610559449162
 20
10.22499996135638
 42
0.0
 10
22.79610559449162
 20
9.317398948678747
 42
0.1989123673796613
 10
23.41118135399989
 20
7.832474708186972
 42
0.0
 10
24.86608034132223
 20
6.377575720864638
 42
-0.1989123673796402
 10
25.07110559449166
 20
5.882600974034101
 42
0.0
 10
25.07110559449166
 20
5.237499961356363
 42
-0.4142135623730911
 10
24.80860559449167
 20
4.974999961356367
 42
0.0
 10
23.32110559449166
 20
4.974999961356367
 42
0.4142135623731526
 10
23.05860559449161
 20
4.712499961356373
 42
0.0
 10
23.05860559449161
 20
3.837499961356363
 42
0.414213562373089
 10
23.3211055944916
 20
3.574999961356369
 42
0.0
 10
25.07110559449166
 20
3.574999961356369
 42
0.4142135623730925
 10
26.47110559449163
 20
4.974999961356357
 42
0.0
 10
26.47110559449163
 20
5.882600974033993
 42
0.1989123673796675
 10
25.85602983498336
 20
7.36752521452582
 42
0.0
 10
24.40113084766108
 20
8.822424201848078
 42
-0.1989123673796653
 10
24.19610559449166
 20
9.317398948678662
 42
0.0
 97
        0
 92
        7
 72
     1
 73
     1
 93
       16
 10
28.92110559449162
 20
11.36249996135636
 42
0.414213562373103
 10
28.65860559449163
 20
11.62499996135637
 42
0.0
 10
27.78360559449163
 20
11.62499996135637
 42
0.4142135623730872
 10
27.52110559449164
 20
11.36249996135638
 42
0.0
 10
27.52110559449164
 20
4.974999961356357
 42
0.4142135623730925
 10
28.92110559449162
 20
3.574999961356369
 42
0.0
 10
30.67110559449162
 20
3.574999961356369
 42
0.4142135623731044
 10
32.07110559449166
 20
4.974999961356357
 42
0.0
 10
32.07110559449166
 20
11.36249996135637
 42
0.4142135623730952
 10
31.80860559449167
 20
11.62499996135637
 42
0.0
 10
30.93360559449161
 20
11.62499996135637
 42
0.4142135623730872
 10
30.67110559449162
 20
11.36249996135638
 42
0.0
 10
30.67110559449162
 20
5.499999961356355
 42
-0.414213562373088
 10
30.14610559449164
 20
4.974999961356367
 42
0.0
 10
29.44610559449166
 20
4.974999961356367
 42
-0.4142135623731197
 10
28.92110559449162
 20
5.499999961356355
 42
0.0
 97
        0
 92
        7
 72
     1
 73
     1
 93
        8
 10
34.52110559449164
 20
11.36249996135638
 42
0.4142135623730872
 10
34.25860559449166
 20
11.62499996135637
 42
0.0
 10
33.38360559449166
 20
11.62499996135637
 42
0.4142135623731506
 10
33.12110559449161
 20
11.36249996135638
 42
0.0
 10
33.12110559449161
 20
3.837499961356363
 42
0.414213562373089
 10
33.3836055944916
 20
3.574999961356369
 42
0.0
 10
34.25860559449166
 20
3.574999961356369
 42
0.414213562373089
 10
34.52110559449164
 20
3.837499961356363
 42
0.0
 97
        0
 75
     0
 76
     1
 52
0.0
 41
0.1
 77
     0
 78
     2
 53
45.0
 43
-450.4711526502384
 44
-6.6000000386436
 45
-0.2245064030267288
 46
0.2245064030267289
 79
     0
 53
135.0
 43
-450.4711526502384
 44
-6.6000000386436
 45
-0.2245064030267289
 46
-0.2245064030267288
 79
     0
 47
0.057451373970553
 98
        8
 10
8.039926998612714
 20
7.583586784299143
 10
11.20225702032064
 20
9.422031052581872
 10
12.58218345993089
 20
7.755940784391726
 10
15.45702950791963
 20
8.100648784577118
 10
20.91923552657943
 20
8.330454918347925
 10
23.44909996466583
 20
9.709288119559972
 10
28.27884250330124
 20
9.364578918903874
 10
33.91353932691243
 20
9.594385052674681
  0
ARC
  5
AD3
330
1A
100
AcDbEntity
  8
ZUWAKU
100
AcDbCircle
 10
7.74610559449161
 20
9.317398948678719
 30
0.0
 40
2.1
100
AcDbArc
 50
180.0
 51
225.0
  0
LINE
  5
AD4
330
1A
100
AcDbEntity
  8
ZUWAKU
100
AcDbLine
 10
10.37110559449161
 20
5.67499996135637
 30
0.0
 11
10.37110559449161
 21
9.524999961356347
 31
0.0
  0
LINE
  5
AD5
330
1A
100
AcDbEntity
  8
ZUWAKU
100
AcDbLine
 10
11.77110559449164
 20
9.524999961356368
 30
0.0
 11
11.77110559449164
 21
5.67499996135637
 31
0.0
  0
ARC
  5
AD6
330
1A
100
AcDbEntity
  8
ZUWAKU
100
AcDbCircle
 10
7.74610559449161
 20
9.317398948678719
 30
0.0
 40
0.7
100
AcDbArc
 50
180.0000000000016
 51
224.9999999999988
  0
ARC
  5
AD7
330
1A
100
AcDbEntity
  8
ZUWAKU
100
AcDbCircle
 10
12.47110559449163
 20
5.67499996135637
 30
0.0
 40
2.1
100
AcDbArc
 50
180.0
 51
270.0
  0
ARC
  5
AD8
330
1A
100
AcDbEntity
  8
ZUWAKU
100
AcDbCircle
 10
7.921105594491621
 20
4.974999961356367
 30
0.0
 40
1.4
100
AcDbArc
 50
270.0
 51
0.0
  0
ARC
  5
AD9
330
1A
100
AcDbEntity
  8
ZUWAKU
100
AcDbCircle
 10
7.221105594491633
 20
5.88260097403402
 30
0.0
 40
2.1
100
AcDbArc
 50
0.0
 51
45.0
  0
LINE
  5
ADA
330
1A
100
AcDbEntity
  8
ZUWAKU
100
AcDbLine
 10
6.261181353999859
 20
7.832474708186958
 30
0.0
 11
7.716080341322197
 21
6.377575720864627
 31
0.0
  0
LINE
  5
ADB
330
1A
100
AcDbEntity
  8
ZUWAKU
100
AcDbLine
 10
6.171105594491621
 20
4.974999961356367
 30
0.0
 11
7.658605594491633
 21
4.974999961356367
 31
0.0
  0
LINE
  5
ADC
330
1A
100
AcDbEntity
  8
ZUWAKU
100
AcDbLine
 10
6.171105594491621
 20
3.574999961356369
 30
0.0
 11
7.921105594491621
 21
3.574999961356369
 31
0.0
  0
ARC
  5
ADD
330
1A
100
AcDbEntity
  8
ZUWAKU
100
AcDbCircle
 10
6.171105594491621
 20
4.712499961356368
 30
0.0
 40
0.2625
100
AcDbArc
 50
90.0
 51
180.0
  0
ARC
  5
ADE
330
1A
100
AcDbEntity
  8
ZUWAKU
100
AcDbCircle
 10
6.171105594491621
 20
3.837499961356368
 30
0.0
 40
0.2625
100
AcDbArc
 50
180.0
 51
270.0
  0
LINE
  5
ADF
330
1A
100
AcDbEntity
  8
ZUWAKU
100
AcDbLine
 10
5.908605594491633
 20
3.837499961356368
 30
0.0
 11
5.908605594491633
 21
4.712499961356368
 31
0.0
  0
ARC
  5
AE0
330
1A
100
AcDbEntity
  8
ZUWAKU
100
AcDbCircle
 10
7.221105594491633
 20
5.882600974034041
 30
0.0
 40
0.7
100
AcDbArc
 50
0.0
 51
45.0
  0
ARC
  5
AE1
330
1A
100
AcDbEntity
  8
ZUWAKU
100
AcDbCircle
 10
7.658605594491633
 20
5.23749996135637
 30
0.0
 40
0.2625
100
AcDbArc
 50
270.0
 51
0.0
  0
LINE
  5
AE2
330
1A
100
AcDbEntity
  8
ZUWAKU
100
AcDbLine
 10
7.921105594491621
 20
5.23749996135637
 30
0.0
 11
7.921105594491621
 21
5.882600974034041
 31
0.0
  0
LINE
  5
AE3
330
1A
100
AcDbEntity
  8
ZUWAKU
100
AcDbLine
 10
8.706029834983383
 20
7.367525214525781
 30
0.0
 11
7.251130847661045
 21
8.822424201848119
 31
0.0
  0
ARC
  5
AE4
330
1A
100
AcDbEntity
  8
ZUWAKU
100
AcDbCircle
 10
12.47110559449163
 20
5.67499996135637
 30
0.0
 40
0.7
100
AcDbArc
 50
180.0
 51
270.0
  0
LINE
  5
AE5
330
1A
100
AcDbEntity
  8
ZUWAKU
100
AcDbLine
 10
9.321105594491655
 20
4.974999961356367
 30
0.0
 11
9.321105594491655
 21
5.882600974034041
 31
0.0
  0
ARC
  5
AE6
330
1A
100
AcDbEntity
  8
ZUWAKU
100
AcDbCircle
 10
8.796105594491621
 20
10.48749996135637
 30
0.0
 40
0.2625
100
AcDbArc
 50
270.0
 51
0.0
  0
ARC
  5
AE7
330
1A
100
AcDbEntity
  8
ZUWAKU
100
AcDbCircle
 10
8.796105594491621
 20
11.36249996135637
 30
0.0
 40
0.2625
100
AcDbArc
 50
0.0
 51
90.0
  0
ARC
  5
AE8
330
1A
100
AcDbEntity
  8
ZUWAKU
100
AcDbCircle
 10
7.046105594491621
 20
10.22499996135637
 30
0.0
 40
1.4
100
AcDbArc
 50
90.0
 51
180.0
  0
LINE
  5
AE9
330
1A
100
AcDbEntity
  8
ZUWAKU
100
AcDbLine
 10
5.646105594491644
 20
10.22499996135637
 30
0.0
 11
5.646105594491644
 21
9.317398948678697
 31
0.0
  0
LINE
  5
AEA
330
1A
100
AcDbEntity
  8
ZUWAKU
100
AcDbLine
 10
8.796105594491621
 20
10.22499996135637
 30
0.0
 11
7.30860559449161
 21
10.22499996135637
 31
0.0
  0
LINE
  5
AEB
330
1A
100
AcDbEntity
  8
ZUWAKU
100
AcDbLine
 10
7.046105594491621
 20
9.962499961356368
 30
0.0
 11
7.046105594491621
 21
9.317398948678697
 31
0.0
  0
ARC
  5
AEC
330
1A
100
AcDbEntity
  8
ZUWAKU
100
AcDbCircle
 10
7.30860559449161
 20
9.962499961356368
 30
0.0
 40
0.2625
100
AcDbArc
 50
90.0
 51
180.0
  0
LINE
  5
AED
330
1A
100
AcDbEntity
  8
ZUWAKU
100
AcDbLine
 10
7.046105594491621
 20
11.62499996135637
 30
0.0
 11
8.796105594491621
 21
11.62499996135637
 31
0.0
  0
ARC
  5
AEE
330
1A
100
AcDbEntity
  8
ZUWAKU
100
AcDbCircle
 10
12.47110559449163
 20
9.524999961356347
 30
0.0
 40
2.1
100
AcDbArc
 50
90.0
 51
180.0
  0
ARC
  5
AEF
330
1A
100
AcDbEntity
  8
ZUWAKU
100
AcDbCircle
 10
12.47110559449163
 20
9.524999961356368
 30
0.0
 40
0.7
100
AcDbArc
 50
90.0
 51
180.0
  0
LINE
  5
AF0
330
1A
100
AcDbEntity
  8
ZUWAKU
100
AcDbLine
 10
9.05860559449161
 20
11.36249996135637
 30
0.0
 11
9.05860559449161
 21
10.48749996135637
 31
0.0
  0
LINE
  5
AF1
330
1A
100
AcDbEntity
  8
ZUWAKU
100
AcDbLine
 10
17.83817306314955
 20
11.44154694543985
 30
0.0
 11
16.90403812583367
 21
8.483452977272883
 31
0.0
  0
LINE
  5
AF2
330
1A
100
AcDbEntity
  8
ZUWAKU
100
AcDbLine
 10
14.92110559449162
 20
11.36249996135637
 30
0.0
 11
14.92110559449162
 21
3.837499961356368
 31
0.0
  0
LINE
  5
AF3
330
1A
100
AcDbEntity
  8
ZUWAKU
100
AcDbLine
 10
16.32110559449166
 20
8.56249996135637
 30
0.0
 11
16.32110559449166
 21
11.36249996135637
 31
0.0
  0
LINE
  5
AF4
330
1A
100
AcDbEntity
  8
ZUWAKU
100
AcDbLine
 10
28.92110559449162
 20
5.499999961356366
 30
0.0
 11
28.92110559449162
 21
11.36249996135637
 31
0.0
  0
LINE
  5
AF5
330
1A
100
AcDbEntity
  8
ZUWAKU
100
AcDbLine
 10
27.52110559449164
 20
11.36249996135637
 30
0.0
 11
27.52110559449164
 21
4.974999961356367
 31
0.0
  0
LINE
  5
AF6
330
1A
100
AcDbEntity
  8
ZUWAKU
100
AcDbLine
 10
21.74610559449161
 20
3.837499961356368
 30
0.0
 11
21.74610559449161
 21
11.36249996135637
 31
0.0
  0
LINE
  5
AF7
330
1A
100
AcDbEntity
  8
ZUWAKU
100
AcDbLine
 10
20.34610559449163
 20
11.36249996135637
 30
0.0
 11
20.34610559449163
 21
3.837499961356368
 31
0.0
  0
LINE
  5
AF8
330
1A
100
AcDbEntity
  8
ZUWAKU
100
AcDbLine
 10
18.65742883558062
 20
9.602523558138081
 30
0.0
 11
18.0250529629127
 21
7.599999961356378
 31
0.0
  0
ARC
  5
AF9
330
1A
100
AcDbEntity
  8
ZUWAKU
100
AcDbCircle
 10
24.89610559449164
 20
9.317398948678719
 30
0.0
 40
2.1
100
AcDbArc
 50
180.0
 51
225.0
  0
ARC
  5
AFA
330
1A
100
AcDbEntity
  8
ZUWAKU
100
AcDbCircle
 10
24.89610559449164
 20
9.317398948678719
 30
0.0
 40
0.7
100
AcDbArc
 50
180.0000000000016
 51
224.9999999999988
  0
LINE
  5
AFB
330
1A
100
AcDbEntity
  8
ZUWAKU
100
AcDbLine
 10
33.12110559449161
 20
11.36249996135637
 30
0.0
 11
33.12110559449161
 21
3.837499961356368
 31
0.0
  0
LINE
  5
AFC
330
1A
100
AcDbEntity
  8
ZUWAKU
100
AcDbLine
 10
34.52110559449164
 20
3.837499961356368
 30
0.0
 11
34.52110559449164
 21
11.36249996135637
 31
0.0
  0
LINE
  5
AFD
330
1A
100
AcDbEntity
  8
ZUWAKU
100
AcDbLine
 10
30.67110559449162
 20
11.36249996135637
 30
0.0
 11
30.67110559449162
 21
5.499999961356366
 31
0.0
  0
LINE
  5
AFE
330
1A
100
AcDbEntity
  8
ZUWAKU
100
AcDbLine
 10
32.07110559449166
 20
4.974999961356367
 30
0.0
 11
32.07110559449166
 21
11.36249996135637
 31
0.0
  0
LINE
  5
AFF
330
1A
100
AcDbEntity
  8
ZUWAKU
100
AcDbLine
 10
39.56331429109525
 20
14.99999996135637
 30
0.0
 11
39.56331429109525
 21
0.3999999613564
 31
0.0
  0
LINE
  5
B00
330
1A
100
AcDbEntity
  8
ZUWAKU
100
AcDbLine
 10
39.76331429109519
 20
14.99999996135637
 30
0.0
 11
39.7633142910953
 21
0.3999999613564
 31
0.0
  0
LINE
  5
B01
330
1A
100
AcDbEntity
  8
ZUWAKU
100
AcDbLine
 10
39.66331429109516
 20
14.99999996135637
 30
0.0
 11
39.66331429109528
 21
0.3999999613564
 31
0.0
  0
LINE
  5
B02
330
1A
100
AcDbEntity
  8
ZUWAKU
100
AcDbLine
 10
28.92110559449162
 20
3.574999961356369
 30
0.0
 11
30.67110559449162
 21
3.574999961356369
 31
0.0
  0
LINE
  5
B03
330
1A
100
AcDbEntity
  8
ZUWAKU
100
AcDbLine
 10
30.14610559449164
 20
4.974999961356367
 30
0.0
 11
29.44610559449166
 21
4.974999961356367
 31
0.0
  0
LINE
  5
B04
330
1A
100
AcDbEntity
  8
ZUWAKU
100
AcDbLine
 10
20.60860559449162
 20
3.574999961356369
 30
0.0
 11
21.48360559449162
 21
3.574999961356369
 31
0.0
  0
LINE
  5
B05
330
1A
100
AcDbEntity
  8
ZUWAKU
100
AcDbLine
 10
17.83817306314955
 20
3.758452977272881
 30
0.0
 11
16.90403812583367
 21
6.716546945439852
 31
0.0
  0
ARC
  5
B06
330
1A
100
AcDbEntity
  8
ZUWAKU
100
AcDbCircle
 10
16.58360559449164
 20
6.637499961356369
 30
0.0
 40
0.2625
100
AcDbArc
 50
90.0
 51
180.0
  0
ARC
  5
B07
330
1A
100
AcDbEntity
  8
ZUWAKU
100
AcDbCircle
 10
16.65372267623599
 20
6.637499961356369
 30
0.0
 40
0.2625
100
AcDbArc
 50
17.52556837372303
 51
90.0
  0
ARC
  5
B08
330
1A
100
AcDbEntity
  8
ZUWAKU
100
AcDbCircle
 10
15.18360559449161
 20
3.837499961356368
 30
0.0
 40
0.2625
100
AcDbArc
 50
180.0
 51
270.0
  0
ARC
  5
B09
330
1A
100
AcDbEntity
  8
ZUWAKU
100
AcDbCircle
 10
13.43360559449161
 20
4.712499961356368
 30
0.0
 40
0.2625
100
AcDbArc
 50
0.0
 51
90.0
  0
ARC
  5
B0A
330
1A
100
AcDbEntity
  8
ZUWAKU
100
AcDbCircle
 10
13.43360559449161
 20
3.837499961356368
 30
0.0
 40
0.2625
100
AcDbArc
 50
270.0
 51
0.0
  0
LINE
  5
B0B
330
1A
100
AcDbEntity
  8
ZUWAKU
100
AcDbLine
 10
13.69610559449166
 20
4.712499961356368
 30
0.0
 11
13.69610559449166
 21
3.837499961356368
 31
0.0
  0
LINE
  5
B0C
330
1A
100
AcDbEntity
  8
ZUWAKU
100
AcDbLine
 10
16.32110559449166
 20
3.837499961356368
 30
0.0
 11
16.32110559449166
 21
6.637499961356369
 31
0.0
  0
ARC
  5
B0D
330
1A
100
AcDbEntity
  8
ZUWAKU
100
AcDbCircle
 10
16.05860559449161
 20
3.837499961356368
 30
0.0
 40
0.2625
100
AcDbArc
 50
270.0
 51
0.0
  0
LINE
  5
B0E
330
1A
100
AcDbEntity
  8
ZUWAKU
100
AcDbLine
 10
15.18360559449161
 20
3.574999961356369
 30
0.0
 11
16.05860559449161
 21
3.574999961356369
 31
0.0
  0
ARC
  5
B0F
330
1A
100
AcDbEntity
  8
ZUWAKU
100
AcDbCircle
 10
16.58360559449164
 20
8.56249996135637
 30
0.0
 40
0.2625
100
AcDbArc
 50
180.0
 51
270.0
  0
LINE
  5
B10
330
1A
100
AcDbEntity
  8
ZUWAKU
100
AcDbLine
 10
16.58360559449164
 20
6.899999961356368
 30
0.0
 11
16.65372267623599
 21
6.899999961356368
 31
0.0
  0
LINE
  5
B11
330
1A
100
AcDbEntity
  8
ZUWAKU
100
AcDbLine
 10
16.65372267623599
 20
8.299999961356367
 30
0.0
 11
16.58360559449164
 21
8.299999961356367
 31
0.0
  0
ARC
  5
B12
330
1A
100
AcDbEntity
  8
ZUWAKU
100
AcDbCircle
 10
16.65372267623599
 20
8.56249996135637
 30
0.0
 40
0.2625
100
AcDbArc
 50
270.0
 51
342.474431626277
  0
ARC
  5
B13
330
1A
100
AcDbEntity
  8
ZUWAKU
100
AcDbCircle
 10
18.08848851274729
 20
3.837499961356368
 30
0.0
 40
0.2625
100
AcDbArc
 50
197.525568373723
 51
270.0
  0
LINE
  5
B14
330
1A
100
AcDbEntity
  8
ZUWAKU
100
AcDbLine
 10
19.18824865214953
 20
3.916546945439855
 30
0.0
 11
18.0250529629127
 21
7.599999961356378
 31
0.0
  0
ARC
  5
B15
330
1A
100
AcDbEntity
  8
ZUWAKU
100
AcDbCircle
 10
18.93793320255179
 20
3.837499961356368
 30
0.0
 40
0.2625
100
AcDbArc
 50
270.0
 51
17.52556837372303
  0
LINE
  5
B16
330
1A
100
AcDbEntity
  8
ZUWAKU
100
AcDbLine
 10
18.08848851274729
 20
3.574999961356369
 30
0.0
 11
18.93793320255179
 21
3.574999961356369
 31
0.0
  0
ARC
  5
B17
330
1A
100
AcDbEntity
  8
ZUWAKU
100
AcDbCircle
 10
20.60860559449162
 20
3.837499961356368
 30
0.0
 40
0.2625
100
AcDbArc
 50
180.0
 51
270.0
  0
ARC
  5
B18
330
1A
100
AcDbEntity
  8
ZUWAKU
100
AcDbCircle
 10
25.07110559449166
 20
4.974999961356367
 30
0.0
 40
1.4
100
AcDbArc
 50
270.0
 51
0.0
  0
ARC
  5
B19
330
1A
100
AcDbEntity
  8
ZUWAKU
100
AcDbCircle
 10
28.92110559449162
 20
4.974999961356367
 30
0.0
 40
1.4
100
AcDbArc
 50
180.0
 51
270.0
  0
LINE
  5
B1A
330
1A
100
AcDbEntity
  8
ZUWAKU
100
AcDbLine
 10
25.85602983498342
 20
7.367525214525781
 30
0.0
 11
24.40113084766102
 21
8.822424201848119
 31
0.0
  0
LINE
  5
B1B
330
1A
100
AcDbEntity
  8
ZUWAKU
100
AcDbLine
 10
23.41118135399989
 20
7.832474708186958
 30
0.0
 11
24.86608034132223
 21
6.377575720864627
 31
0.0
  0
LINE
  5
B1C
330
1A
100
AcDbEntity
  8
ZUWAKU
100
AcDbLine
 10
23.32110559449166
 20
3.574999961356369
 30
0.0
 11
25.07110559449166
 21
3.574999961356369
 31
0.0
  0
LINE
  5
B1D
330
1A
100
AcDbEntity
  8
ZUWAKU
100
AcDbLine
 10
23.32110559449166
 20
4.974999961356367
 30
0.0
 11
24.80860559449161
 21
4.974999961356367
 31
0.0
  0
ARC
  5
B1E
330
1A
100
AcDbEntity
  8
ZUWAKU
100
AcDbCircle
 10
23.32110559449166
 20
4.712499961356368
 30
0.0
 40
0.2625
100
AcDbArc
 50
90.0
 51
180.0
  0
ARC
  5
B1F
330
1A
100
AcDbEntity
  8
ZUWAKU
100
AcDbCircle
 10
21.48360559449162
 20
3.837499961356368
 30
0.0
 40
0.2625
100
AcDbArc
 50
270.0
 51
0.0
  0
ARC
  5
B20
330
1A
100
AcDbEntity
  8
ZUWAKU
100
AcDbCircle
 10
23.32110559449166
 20
3.837499961356368
 30
0.0
 40
0.2625
100
AcDbArc
 50
180.0
 51
270.0
  0
LINE
  5
B21
330
1A
100
AcDbEntity
  8
ZUWAKU
100
AcDbLine
 10
23.05860559449161
 20
3.837499961356368
 30
0.0
 11
23.05860559449161
 21
4.712499961356368
 31
0.0
  0
ARC
  5
B22
330
1A
100
AcDbEntity
  8
ZUWAKU
100
AcDbCircle
 10
24.80860559449161
 20
5.23749996135637
 30
0.0
 40
0.2625
100
AcDbArc
 50
270.0
 51
0.0
  0
ARC
  5
B23
330
1A
100
AcDbEntity
  8
ZUWAKU
100
AcDbCircle
 10
24.37110559449161
 20
5.882600974034041
 30
0.0
 40
0.7
100
AcDbArc
 50
0.0
 51
45.0
  0
LINE
  5
B24
330
1A
100
AcDbEntity
  8
ZUWAKU
100
AcDbLine
 10
25.07110559449166
 20
5.23749996135637
 30
0.0
 11
25.07110559449166
 21
5.882600974034041
 31
0.0
  0
ARC
  5
B25
330
1A
100
AcDbEntity
  8
ZUWAKU
100
AcDbCircle
 10
29.44610559449166
 20
5.499999961356366
 30
0.0
 40
0.5249999999999999
100
AcDbArc
 50
180.0
 51
270.0
  0
ARC
  5
B26
330
1A
100
AcDbEntity
  8
ZUWAKU
100
AcDbCircle
 10
24.37110559449161
 20
5.88260097403402
 30
0.0
 40
2.1
100
AcDbArc
 50
0.0
 51
45.0
  0
LINE
  5
B27
330
1A
100
AcDbEntity
  8
ZUWAKU
100
AcDbLine
 10
26.47110559449163
 20
4.974999961356367
 30
0.0
 11
26.47110559449163
 21
5.882600974034041
 31
0.0
  0
ARC
  5
B28
330
1A
100
AcDbEntity
  8
ZUWAKU
100
AcDbCircle
 10
30.67110559449162
 20
4.974999961356367
 30
0.0
 40
1.4
100
AcDbArc
 50
270.0
 51
0.0
  0
LINE
  5
B29
330
1A
100
AcDbEntity
  8
ZUWAKU
100
AcDbLine
 10
33.38360559449166
 20
3.574999961356369
 30
0.0
 11
34.25860559449166
 21
3.574999961356369
 31
0.0
  0
ARC
  5
B2A
330
1A
100
AcDbEntity
  8
ZUWAKU
100
AcDbCircle
 10
30.14610559449164
 20
5.499999961356366
 30
0.0
 40
0.5249999999999999
100
AcDbArc
 50
270.0
 51
0.0
  0
ARC
  5
B2B
330
1A
100
AcDbEntity
  8
ZUWAKU
100
AcDbCircle
 10
33.38360559449166
 20
3.837499961356368
 30
0.0
 40
0.2625
100
AcDbArc
 50
180.0
 51
270.0
  0
ARC
  5
B2C
330
1A
100
AcDbEntity
  8
ZUWAKU
100
AcDbCircle
 10
34.25860559449166
 20
3.837499961356368
 30
0.0
 40
0.2625
100
AcDbArc
 50
270.0
 51
0.0
  0
LINE
  5
B2D
330
1A
100
AcDbEntity
  8
ZUWAKU
100
AcDbLine
 10
21.48360559449162
 20
11.62499996135637
 30
0.0
 11
20.60860559449162
 21
11.62499996135637
 31
0.0
  0
LINE
  5
B2E
330
1A
100
AcDbEntity
  8
ZUWAKU
100
AcDbLine
 10
13.69610559449166
 20
11.36249996135637
 30
0.0
 11
13.69610559449166
 21
10.48749996135637
 31
0.0
  0
ARC
  5
B2F
330
1A
100
AcDbEntity
  8
ZUWAKU
100
AcDbCircle
 10
13.43360559449161
 20
10.48749996135637
 30
0.0
 40
0.2625
100
AcDbArc
 50
270.0
 51
0.0
  0
ARC
  5
B30
330
1A
100
AcDbEntity
  8
ZUWAKU
100
AcDbCircle
 10
15.18360559449161
 20
11.36249996135637
 30
0.0
 40
0.2625
100
AcDbArc
 50
90.0
 51
180.0
  0
ARC
  5
B31
330
1A
100
AcDbEntity
  8
ZUWAKU
100
AcDbCircle
 10
13.43360559449161
 20
11.36249996135637
 30
0.0
 40
0.2625
100
AcDbArc
 50
0.0
 51
90.0
  0
LINE
  5
B32
330
1A
100
AcDbEntity
  8
ZUWAKU
100
AcDbLine
 10
16.05860559449161
 20
11.62499996135637
 30
0.0
 11
15.18360559449161
 21
11.62499996135637
 31
0.0
  0
ARC
  5
B33
330
1A
100
AcDbEntity
  8
ZUWAKU
100
AcDbCircle
 10
16.05860559449161
 20
11.36249996135637
 30
0.0
 40
0.2625
100
AcDbArc
 50
0.0
 51
90.0
  0
ARC
  5
B34
330
1A
100
AcDbEntity
  8
ZUWAKU
100
AcDbCircle
 10
18.08848851274729
 20
11.36249996135637
 30
0.0
 40
0.2625
100
AcDbArc
 50
90.0
 51
162.474431626277
  0
LINE
  5
B35
330
1A
100
AcDbEntity
  8
ZUWAKU
100
AcDbLine
 10
19.18824865214953
 20
11.28345297727288
 30
0.0
 11
18.65742883558062
 21
9.602523558138081
 31
0.0
  0
ARC
  5
B36
330
1A
100
AcDbEntity
  8
ZUWAKU
100
AcDbCircle
 10
18.93793320255179
 20
11.36249996135637
 30
0.0
 40
0.2625
100
AcDbArc
 50
342.474431626277
 51
90.0
  0
LINE
  5
B37
330
1A
100
AcDbEntity
  8
ZUWAKU
100
AcDbLine
 10
18.08848851274729
 20
11.62499996135637
 30
0.0
 11
18.93793320255179
 21
11.62499996135637
 31
0.0
  0
ARC
  5
B38
330
1A
100
AcDbEntity
  8
ZUWAKU
100
AcDbCircle
 10
20.60860559449162
 20
11.36249996135637
 30
0.0
 40
0.2625
100
AcDbArc
 50
90.0
 51
180.0
  0
LINE
  5
B39
330
1A
100
AcDbEntity
  8
ZUWAKU
100
AcDbLine
 10
25.94610559449166
 20
10.22499996135637
 30
0.0
 11
24.45860559449164
 21
10.22499996135637
 31
0.0
  0
LINE
  5
B3A
330
1A
100
AcDbEntity
  8
ZUWAKU
100
AcDbLine
 10
24.19610559449166
 20
11.62499996135637
 30
0.0
 11
25.94610559449166
 21
11.62499996135637
 31
0.0
  0
ARC
  5
B3B
330
1A
100
AcDbEntity
  8
ZUWAKU
100
AcDbCircle
 10
24.19610559449166
 20
10.22499996135637
 30
0.0
 40
1.4
100
AcDbArc
 50
90.0
 51
180.0
  0
LINE
  5
B3C
330
1A
100
AcDbEntity
  8
ZUWAKU
100
AcDbLine
 10
22.79610559449162
 20
10.22499996135637
 30
0.0
 11
22.79610559449162
 21
9.317398948678697
 31
0.0
  0
ARC
  5
B3D
330
1A
100
AcDbEntity
  8
ZUWAKU
100
AcDbCircle
 10
21.48360559449162
 20
11.36249996135637
 30
0.0
 40
0.2625
100
AcDbArc
 50
0.0
 51
90.0
  0
LINE
  5
B3E
330
1A
100
AcDbEntity
  8
ZUWAKU
100
AcDbLine
 10
24.19610559449166
 20
9.962499961356368
 30
0.0
 11
24.19610559449166
 21
9.317398948678697
 31
0.0
  0
ARC
  5
B3F
330
1A
100
AcDbEntity
  8
ZUWAKU
100
AcDbCircle
 10
24.45860559449164
 20
9.962499961356368
 30
0.0
 40
0.2625
100
AcDbArc
 50
90.0
 51
180.0
  0
LINE
  5
B40
330
1A
100
AcDbEntity
  8
ZUWAKU
100
AcDbLine
 10
26.20860559449164
 20
11.36249996135637
 30
0.0
 11
26.20860559449164
 21
10.48749996135637
 31
0.0
  0
ARC
  5
B41
330
1A
100
AcDbEntity
  8
ZUWAKU
100
AcDbCircle
 10
25.94610559449166
 20
10.48749996135637
 30
0.0
 40
0.2625
100
AcDbArc
 50
270.0
 51
0.0
  0
ARC
  5
B42
330
1A
100
AcDbEntity
  8
ZUWAKU
100
AcDbCircle
 10
25.94610559449166
 20
11.36249996135637
 30
0.0
 40
0.2625
100
AcDbArc
 50
0.0
 51
90.0
  0
LINE
  5
B43
330
1A
100
AcDbEntity
  8
ZUWAKU
100
AcDbLine
 10
28.65860559449163
 20
11.62499996135637
 30
0.0
 11
27.78360559449163
 21
11.62499996135637
 31
0.0
  0
ARC
  5
B44
330
1A
100
AcDbEntity
  8
ZUWAKU
100
AcDbCircle
 10
27.78360559449163
 20
11.36249996135637
 30
0.0
 40
0.2625
100
AcDbArc
 50
90.0
 51
180.0
  0
ARC
  5
B45
330
1A
100
AcDbEntity
  8
ZUWAKU
100
AcDbCircle
 10
28.65860559449163
 20
11.36249996135637
 30
0.0
 40
0.2625
100
AcDbArc
 50
0.0
 51
90.0
  0
LINE
  5
B46
330
1A
100
AcDbEntity
  8
ZUWAKU
100
AcDbLine
 10
34.25860559449166
 20
11.62499996135637
 30
0.0
 11
33.38360559449166
 21
11.62499996135637
 31
0.0
  0
ARC
  5
B47
330
1A
100
AcDbEntity
  8
ZUWAKU
100
AcDbCircle
 10
30.93360559449161
 20
11.36249996135637
 30
0.0
 40
0.2625
100
AcDbArc
 50
90.0
 51
180.0
  0
LINE
  5
B48
330
1A
100
AcDbEntity
  8
ZUWAKU
100
AcDbLine
 10
31.80860559449161
 20
11.62499996135637
 30
0.0
 11
30.93360559449161
 21
11.62499996135637
 31
0.0
  0
ARC
  5
B49
330
1A
100
AcDbEntity
  8
ZUWAKU
100
AcDbCircle
 10
31.80860559449161
 20
11.36249996135637
 30
0.0
 40
0.2625
100
AcDbArc
 50
0.0
 51
90.0
  0
ARC
  5
B4A
330
1A
100
AcDbEntity
  8
ZUWAKU
100
AcDbCircle
 10
33.38360559449166
 20
11.36249996135637
 30
0.0
 40
0.2625
100
AcDbArc
 50
90.0
 51
180.0
  0
ARC
  5
B4B
330
1A
100
AcDbEntity
  8
ZUWAKU
100
AcDbCircle
 10
34.25860559449166
 20
11.36249996135637
 30
0.0
 40
0.2625
100
AcDbArc
 50
0.0
 51
90.0
  0
LINE
  5
B4C
330
1A
100
AcDbEntity
  8
ZUWAKU
100
AcDbLine
 10
104.2233001621349
 20
14.99999996135637
 30
0.0
 11
104.2233001621351
 21
0.3999999613564
 31
0.0
  0
LINE
  5
B4D
330
1A
100
AcDbEntity
  8
ZUWAKU
100
AcDbLine
 10
104.323300162135
 20
14.99999996135637
 30
0.0
 11
104.3233001621351
 21
0.3999999613564
 31
0.0
  0
LINE
  5
B4E
330
1A
100
AcDbEntity
  8
ZUWAKU
100
AcDbLine
 10
104.123300162135
 20
14.99999996135637
 30
0.0
 11
104.123300162135
 21
0.3999999613564
 31
0.0
  0
TEXT
  5
B4F
330
1A
100
AcDbEntity
  8
moji
100
AcDbText
 10
119.9136008575266
 20
9.002460490060059
 30
0.0
 40
2.8
  1
ブラケット正面打（吊）ワンタッチ自在式
 41
0.9
  7
ｽﾀｲﾙ1
100
AcDbText
  0
TEXT
  5
B50
330
1A
100
AcDbEntity
  8
ZUWAKU
100
AcDbText
 10
104.8620226732398
 20
4.827678230549175
 30
0.0
 40
2.0
  1
サイズ
 41
0.9
  7
ｽﾀｲﾙ1
100
AcDbText
  0
TEXT
  5
B51
330
1A
100
AcDbEntity
  8
moji
100
AcDbText
 10
119.9136008575266
 20
1.602460490060077
 30
0.0
 40
2.8
  1
Σ９０－０－４５～６０
 41
0.9
  7
ｽﾀｲﾙ1
100
AcDbText
  0
TEXT
  5
B52
330
1A
100
AcDbEntity
  8
ZUWAKU
100
AcDbText
 10
104.8620226732397
 20
12.02767823054916
 30
0.0
 40
2.0
  1
品名
 41
0.9
  7
ｽﾀｲﾙ1
100
AcDbText
  0
TEXT
  5
B53
330
1A
100
AcDbEntity
  8
ZUWAKU
100
AcDbText
 10
329.1019683607523
 20
9.002460490060059
 30
0.0
 40
2.8
  1
　　．　　．　　
 41
0.9
  7
ｽﾀｲﾙ1
100
AcDbText
  0
LINE
  5
B54
330
1A
100
AcDbEntity
  8
ZUWAKU
100
AcDbLine
 10
324.4086007722032
 20
7.799999961356383
 30
0.0
 11
348.6245047913717
 21
7.799999961356383
 31
0.0
  0
LINE
  5
B55
330
1A
100
AcDbEntity
  8
ZUWAKU
100
AcDbLine
 10
324.4086007722033
 20
7.699999961356385
 30
0.0
 11
348.6245047913717
 21
7.699999961356383
 31
0.0
  0
LINE
  5
B56
330
1A
100
AcDbEntity
  8
ZUWAKU
100
AcDbLine
 10
324.4086007722032
 20
7.599999961356382
 30
0.0
 11
348.6245047913717
 21
7.599999961356383
 31
0.0
  0
LINE
  5
B57
330
1A
100
AcDbEntity
  8
ZUWAKU
100
AcDbLine
 10
252.5995892661715
 20
7.799999961356383
 30
0.0
 11
276.2634774001573
 21
7.799999961356383
 31
0.0
  0
LINE
  5
B58
330
1A
100
AcDbEntity
  8
ZUWAKU
100
AcDbLine
 10
252.5995892661715
 20
7.699999961356383
 30
0.0
 11
276.2634774001573
 21
7.699999961356383
 31
0.0
  0
LINE
  5
B59
330
1A
100
AcDbEntity
  8
ZUWAKU
100
AcDbLine
 10
252.5995892661715
 20
7.599999961356385
 30
0.0
 11
276.2634774001573
 21
7.599999961356385
 31
0.0
  0
LINE
  5
B5A
330
1A
100
AcDbEntity
  8
ZUWAKU
100
AcDbLine
 10
252.3995892661716
 20
14.99999996135637
 30
0.0
 11
252.3995892661716
 21
0.3999999613564
 31
0.0
  0
LINE
  5
B5B
330
1A
100
AcDbEntity
  8
ZUWAKU
100
AcDbLine
 10
252.5995892661715
 20
14.99999996135637
 30
0.0
 11
252.5995892661716
 21
0.3999999613564
 31
0.0
  0
LINE
  5
B5C
330
1A
100
AcDbEntity
  8
ZUWAKU
100
AcDbLine
 10
252.4995892661715
 20
14.99999996135637
 30
0.0
 11
252.4995892661716
 21
0.3999999613564
 31
0.0
  0
TEXT
  5
B5D
330
1A
100
AcDbEntity
  8
moji
100
AcDbText
 10
264.0204535032575
 20
9.002460490060059
 30
0.0
 40
2.8
  1
Ａ３
 41
0.9
  7
ｽﾀｲﾙ1
100
AcDbText
  0
LINE
  5
B5E
330
1A
100
AcDbEntity
  8
ZUWAKU
100
AcDbLine
 10
223.7121815025968
 20
14.99999996135637
 30
0.0
 11
223.7121815025968
 21
0.3999999613564
 31
0.0
  0
LINE
  5
B5F
330
1A
100
AcDbEntity
  8
ZUWAKU
100
AcDbLine
 10
223.9121815025967
 20
14.99999996135637
 30
0.0
 11
223.9121815025968
 21
0.3999999613564
 31
0.0
  0
LINE
  5
B60
330
1A
100
AcDbEntity
  8
ZUWAKU
100
AcDbLine
 10
223.8121815025967
 20
14.99999996135637
 30
0.0
 11
223.8121815025968
 21
0.3999999613564
 31
0.0
  0
TEXT
  5
B61
330
1A
100
AcDbEntity
  8
moji
100
AcDbText
 10
231.2836386780954
 20
5.971308822186359
 30
0.0
 40
2.8
  1
ＬＫ０５Ｔ
 41
0.9
  7
ｽﾀｲﾙ1
100
AcDbText
  0
TEXT
  5
B63
330
1A
100
AcDbEntity
  8
ZUWAKU
100
AcDbText
 10
253.3383117772764
 20
4.827678230549175
 30
0.0
 40
2.0
  1
縮尺
 41
0.9
  7
ｽﾀｲﾙ1
100
AcDbText
  0
TEXT
  5
B64
330
1A
100
AcDbEntity
  8
moji
100
AcDbText
 10
264.0204535032575
 20
1.602460490060077
 30
0.0
 40
2.8
  1
１/１
 41
0.9
  7
ｽﾀｲﾙ1
100
AcDbText
  0
TEXT
  5
B65
330
1A
100
AcDbEntity
  8
ZUWAKU
100
AcDbText
 10
224.6509040137015
 20
12.02767823054916
 30
0.0
 40
2.0
  1
品番
 41
0.9
  7
ｽﾀｲﾙ1
100
AcDbText
  0
TEXT
  5
B66
330
1A
100
AcDbEntity
  8
ZUWAKU
100
AcDbText
 10
253.3383117772763
 20
12.02767823054916
 30
0.0
 40
2.0
  1
用紙
 41
0.9
  7
ｽﾀｲﾙ1
100
AcDbText
  0
LINE
  5
B67
330
1A
100
AcDbEntity
  8
ZUWAKU
100
AcDbLine
 10
276.2634774001573
 20
14.99999996135637
 30
0.0
 11
276.2634774001573
 21
0.3999999613564
 31
0.0
  0
LINE
  5
B68
330
1A
100
AcDbEntity
  8
ZUWAKU
100
AcDbLine
 10
276.4634774001572
 20
14.99999996135637
 30
0.0
 11
276.4634774001573
 21
0.3999999613564
 31
0.0
  0
LINE
  5
B69
330
1A
100
AcDbEntity
  8
ZUWAKU
100
AcDbLine
 10
276.3634774001572
 20
14.99999996135637
 30
0.0
 11
276.3634774001573
 21
0.3999999613564
 31
0.0
  0
LINE
  5
B6A
330
1A
100
AcDbEntity
  8
ZUWAKU
100
AcDbLine
 10
324.2086007722033
 20
14.99999996135637
 30
0.0
 11
324.2086007722033
 21
0.3999999613564
 31
0.0
  0
LINE
  5
B6B
330
1A
100
AcDbEntity
  8
ZUWAKU
100
AcDbLine
 10
324.4086007722033
 20
14.99999996135637
 30
0.0
 11
324.4086007722034
 21
0.3999999613564
 31
0.0
  0
LINE
  5
B6C
330
1A
100
AcDbEntity
  8
ZUWAKU
100
AcDbLine
 10
324.3086007722033
 20
14.99999996135637
 30
0.0
 11
324.3086007722034
 21
0.3999999613564
 31
0.0
  0
TEXT
  5
B6D
330
1A
100
AcDbEntity
  8
ZUWAKU
100
AcDbText
 10
325.1473232833081
 20
12.02767823054916
 30
0.0
 40
2.0
  1
DATE
 41
0.9
  7
ｽﾀｲﾙ1
100
AcDbText
  0
TEXT
  5
B6E
330
1A
100
AcDbEntity
  8
ZUWAKU
100
AcDbText
 10
354.264041613223
 20
8.776919629199767
 30
0.0
 40
3.0
  1
積水化学工業株式会社
 41
0.9
  7
ｽﾀｲﾙ1
100
AcDbText
  0
LINE
  5
B6F
330
1A
100
AcDbEntity
  8
ZUWAKU
100
AcDbLine
 10
348.9245047913717
 20
14.99999996135637
 30
0.0
 11
348.9245047913718
 21
0.3999999613564
 31
0.0
  0
LINE
  5
B70
330
1A
100
AcDbEntity
  8
ZUWAKU
100
AcDbLine
 10
348.8245047913716
 20
14.99999996135637
 30
0.0
 11
348.8245047913717
 21
0.3999999613564
 31
0.0
  0
LINE
  5
B71
330
1A
100
AcDbEntity
  8
ZUWAKU
100
AcDbLine
 10
348.7245047913717
 20
14.99999996135637
 30
0.0
 11
348.7245047913717
 21
0.3999999613564
 31
0.0
  0
LINE
  5
B72
330
1A
100
AcDbEntity
  8
ZUWAKU
100
AcDbLine
 10
348.6245047913717
 20
14.99999996135637
 30
0.0
 11
348.6245047913717
 21
0.3999999613564
 31
0.0
  0
TEXT
  5
B73
330
1A
100
AcDbEntity
  8
ZUWAKU
100
AcDbText
 10
354.264041613223
 20
3.324420118283399
 30
0.0
 40
3.0
  1
建材事業部
 41
0.9
  7
ｽﾀｲﾙ1
100
AcDbText
  0
DIMENSION
  5
14FF
330
1A
100
AcDbEntity
  8
SUNPOU
100
AcDbDimension
  2
*D1
 10
28.21654856331745
 20
78.46903439128965
 30
0.0
 11
25.71654856331744
 21
92.37362180628963
 31
0.0
 70
    32
 71
     5
 42
27.80917482999999
  3
STANDARD
100
AcDbAlignedDimension
 13
52.27403190949175
 23
106.2782092212896
 33
0.0
 14
204.7620319494918
 24
78.4690343912896
 34
0.0
 50
90.0
100
AcDbRotatedDimension
1001
ACAD
1000
DSTYLE
1002
{
1070
    41
1040
3.0
1070
    42
1040
3.0
1070
    43
1040
7.0
1070
    44
1040
1.5
1070
    73
1070
     0
1070
    74
1070
     0
1070
    77
1070
     3
1070
   140
1040
3.0
1070
   141
1040
3.0
1070
   147
1040
1.0
1070
   172
1070
     1
1070
   173
1070
     1
1070
   176
1070
   256
1070
   177
1070
   256
1070
   178
1070
   256
1070
   271
1070
     0
1070
   272
1070
     0
1070
   341
1005
B2
1070
     6
1000
OPEN
1070
     7
1000
OPEN
1002
}
  0
DIMENSION
  5
1500
330
1A
100
AcDbEntity
  8
SUNPOU
100
AcDbDimension
  2
*D2
 10
211.4620319494918
 20
156.7491211758575
 30
0.0
 11
142.8680319294918
 21
156.7491211758575
 31
0.0
 70
   160
 71
     5
 42
161.18800004
  3
STANDARD
100
AcDbAlignedDimension
 13
50.27403190949184
 23
104.2782092212896
 33
0.0
 14
211.4620319494918
 24
111.9690343912896
 34
0.0
100
AcDbRotatedDimension
1001
ACAD
1000
DSTYLE
1002
{
1070
    41
1040
3.0
1070
    42
1040
3.0
1070
    43
1040
7.0
1070
    44
1040
1.5
1070
    73
1070
     0
1070
    74
1070
     0
1070
    77
1070
     3
1070
   140
1040
3.0
1070
   141
1040
3.0
1070
   147
1040
1.0
1070
   172
1070
     1
1070
   173
1070
     1
1070
   176
1070
   256
1070
   177
1070
   256
1070
   178
1070
   256
1070
   271
1070
     0
1070
   272
1070
     0
1070
   341
1005
B2
1070
     6
1000
OPEN
1070
     7
1000
OPEN
1002
}
  0
DIMENSION
  5
1501
330
1A
100
AcDbEntity
  8
SUNPOU
100
AcDbDimension
  2
*D3
 10
211.4620319494918
 20
143.780903781579
 30
0.0
 11
192.3680319294919
 21
146.280903781579
 31
0.0
 70
    32
 71
     5
 42
38.18800003999985
  3
STANDARD
100
AcDbAlignedDimension
 13
173.274031909492
 23
88.57820922128963
 33
0.0
 14
211.4620319494918
 24
111.9690343912896
 34
0.0
100
AcDbRotatedDimension
1001
ACAD
1000
DSTYLE
1002
{
1070
    41
1040
3.0
1070
    42
1040
3.0
1070
    43
1040
7.0
1070
    44
1040
1.5
1070
    73
1070
     0
1070
    74
1070
     0
1070
    77
1070
     3
1070
   140
1040
3.0
1070
   141
1040
3.0
1070
   147
1040
1.0
1070
   172
1070
     1
1070
   173
1070
     1
1070
   176
1070
   256
1070
   177
1070
   256
1070
   178
1070
   256
1070
   271
1070
     0
1070
   272
1070
     0
1070
   341
1005
B2
1070
     6
1000
OPEN
1070
     7
1000
OPEN
1002
}
  0
ARC
  5
1502
330
1A
100
AcDbEntity
  8
SEIHIN
100
AcDbCircle
 10
201.9620319494918
 20
120.4690343912896
 30
0.0
 40
9.999999998637069
100
AcDbArc
 50
25.84193274704527
 51
170.8658548367376
  0
ARC
  5
1503
330
1A
100
AcDbEntity
  8
SEIHIN
100
AcDbCircle
 10
201.9620319494918
 20
120.4690343912896
 30
0.0
 40
3.99999999835207
100
AcDbArc
 50
359.9999928380284
 51
170.7918456747325
  0
LINE
  5
1504
330
1A
100
AcDbEntity
  8
CENTER L
100
AcDbLine
 10
45.67056538949183
 20
206.1976009445118
 30
0.0
 11
219.6620319494918
 21
206.1976009445118
 31
0.0
  0
LINE
  5
1505
330
1A
100
AcDbEntity
  8
CENTER L
100
AcDbLine
 10
214.8018154294918
 20
109.4690343912896
 30
0.0
 11
199.6018154294918
 21
109.4690343912896
 31
0.0
  0
LINE
  5
1506
330
1A
100
AcDbEntity
  8
CENTER L
100
AcDbLine
 10
214.8018154294918
 20
100.9690343912896
 30
0.0
 11
199.6018154294918
 21
100.9690343912896
 31
0.0
  0
LINE
  5
1507
330
1A
100
AcDbEntity
  8
CENTER L
100
AcDbLine
 10
214.8018154294918
 20
84.4690343912896
 30
0.0
 11
199.6018154294918
 21
84.46903439128961
 31
0.0
  0
LINE
  5
1508
330
1A
100
AcDbEntity
  8
SEIHIN
100
AcDbLine
 10
116.5803150094918
 20
203.1976009245118
 30
0.0
 11
208.1620326594918
 21
203.1976009245118
 31
0.0
  0
LINE
  5
1509
330
1A
100
AcDbEntity
  8
SEIHIN
100
AcDbLine
 10
116.5803150094918
 20
209.1976009245118
 30
0.0
 11
208.1620319494918
 21
209.1976009245118
 31
0.0
  0
LINE
  5
150A
330
1A
100
AcDbEntity
  8
SEIHIN
100
AcDbLine
 10
86.70693487949183
 20
212.6976009645118
 30
0.0
 11
212.1620319494918
 21
212.6976009645118
 31
0.0
  0
LINE
  5
150B
330
1A
100
AcDbEntity
  8
SEIHIN
100
AcDbLine
 10
86.70693487949183
 20
199.6976009245118
 30
0.0
 11
212.1620319494918
 21
199.6976009245118
 31
0.0
  0
LINE
  5
150C
330
1A
100
AcDbEntity
  8
SEIHIN
100
AcDbLine
 10
87.20693487949183
 20
198.6976009245118
 30
0.0
 11
212.1620319494918
 21
198.6976009245118
 31
0.0
  0
LINE
  5
150D
330
1A
100
AcDbEntity
  8
SEIHIN
100
AcDbLine
 10
87.20693487949183
 20
213.6976009645118
 30
0.0
 11
212.1620319494918
 21
213.6976009645118
 31
0.0
  0
LINE
  5
150E
330
1A
100
AcDbEntity
  8
SEIHIN
  6
Continuous
 62
     3
100
AcDbLine
 10
77.4706974352145
 20
77.29183756290294
 30
0.0
 11
69.99793190949185
 21
90.3942092212896
 31
0.0
  0
LINE
  5
150F
330
1A
100
AcDbEntity
  8
SEIHIN
  6
Continuous
 62
     3
100
AcDbLine
 10
75.71563190949183
 20
71.6672092212896
 30
0.0
 11
68.18533190949188
 21
89.55580922128962
 31
0.0
  0
LINE
  5
1510
330
1A
100
AcDbEntity
  8
SEIHIN
  6
Continuous
 62
     3
100
AcDbLine
 10
64.02923190949184
 20
93.2298092212896
 30
0.0
 11
73.51883190949184
 21
70.42650922128962
 31
0.0
  0
LINE
  5
1511
330
1A
100
AcDbEntity
  8
SEIHIN
  6
Continuous
 62
     3
100
AcDbLine
 10
79.36616288186691
 20
79.04932862931645
 30
0.0
 11
68.11923190949187
 21
99.28230922128961
 31
0.0
  0
LINE
  5
1512
330
1A
100
AcDbEntity
  8
SEIHIN
  6
Continuous
 62
     3
100
AcDbLine
 10
53.27403190949184
 20
104.7782092212896
 30
0.0
 11
53.27403190949184
 21
101.8782092212896
 31
0.0
  0
LINE
  5
1513
330
1A
100
AcDbEntity
  8
SEIHIN
  6
Continuous
 62
     3
100
AcDbLine
 10
50.27403190949184
 20
104.7782092212896
 30
0.0
 11
50.27403190949184
 21
99.37820922128958
 31
0.0
  0
LINE
  5
1514
330
1A
100
AcDbEntity
  8
SEIHIN
  6
Continuous
 62
     3
100
AcDbLine
 10
59.38473190949185
 20
96.37820922128958
 30
0.0
 11
53.27403190949184
 21
96.37820922128958
 31
0.0
  0
ARC
  5
1515
330
1A
100
AcDbEntity
  8
SEIHIN
  6
Continuous
 62
     3
100
AcDbCircle
 10
54.27403190949184
 20
101.8782092212896
 30
0.0
 40
1.0
100
AcDbArc
 50
180.0
 51
270.0
  0
ARC
  5
1516
330
1A
100
AcDbEntity
  8
SEIHIN
  6
Continuous
 62
     3
100
AcDbCircle
 10
53.27403190949184
 20
99.37820922128958
 30
0.0
 40
3.0
100
AcDbArc
 50
180.0
 51
270.0
  0
LINE
  5
1517
330
1A
100
AcDbEntity
  8
SEIHIN
  6
Continuous
 62
     3
100
AcDbLine
 10
50.27403190949184
 20
102.2781092212896
 30
0.0
 11
53.27403190949184
 21
102.2781092212896
 31
0.0
  0
ARC
  5
1518
330
1A
100
AcDbEntity
  8
SEIHIN
  6
Continuous
 62
     3
100
AcDbCircle
 10
69.11423190949182
 20
89.92610922128961
 30
0.0
 40
1.000005
100
AcDbArc
 50
27.91037699999919
 51
201.7343789999998
  0
LINE
  5
1519
330
1A
100
AcDbEntity
  8
SEIHIN
  6
Continuous
 62
     3
100
AcDbLine
 10
65.46813190949183
 20
100.8782092212896
 30
0.0
 11
54.27403190949184
 21
100.8782092212896
 31
0.0
  0
ARC
  5
151A
330
1A
100
AcDbEntity
  8
SEIHIN
  6
Continuous
 62
     3
100
AcDbCircle
 10
59.38473190949185
 20
91.37820922128958
 30
0.0
 40
4.99999
100
AcDbArc
 50
21.73544399999916
 51
90.0
  0
ARC
  5
151B
330
1A
100
AcDbEntity
  8
SEIHIN
  6
Continuous
 62
     3
100
AcDbCircle
 10
65.46813190949183
 20
97.87820922128958
 30
0.0
 40
2.999986
100
AcDbArc
 50
27.90700099999931
 51
90.0
  0
ARC
  5
151C
330
1A
100
AcDbEntity
  8
SEIHIN
  6
Continuous
 62
     3
100
AcDbCircle
 10
51.77403190949184
 20
104.7782092212896
 30
0.0
 40
1.5
100
AcDbArc
 50
0.0
 51
180.0
  0
LINE
  5
151D
330
1A
100
AcDbEntity
  8
SEIHIN
100
AcDbLine
 10
121.0938713094918
 20
112.5642344012896
 30
0.0
 11
191.2240523394918
 21
121.2227813412896
 31
0.0
  0
LINE
  5
151E
330
1A
100
AcDbEntity
  8
SEIHIN
100
AcDbLine
 10
122.9029046094918
 20
106.7412968012896
 30
0.0
 11
191.9568688494918
 21
115.2814497712896
 31
0.0
  0
LINE
  5
151F
330
1A
100
AcDbEntity
  8
SEIHIN
  6
Continuous
 62
     3
100
AcDbLine
 10
106.1740319114918
 20
67.27816670262649
 30
0.0
 11
144.0419319094918
 21
67.27810922128961
 31
0.0
  0
LINE
  5
1520
330
1A
100
AcDbEntity
  8
SEIHIN
  6
Continuous
 62
     3
100
AcDbLine
 10
106.1740319114918
 20
69.77816567487469
 30
0.0
 11
142.0476319094918
 21
69.77810922128961
 31
0.0
  0
LINE
  5
1521
330
1A
100
AcDbEntity
  8
SEIHIN
  6
Continuous
 62
     3
100
AcDbLine
 10
106.1740319114918
 20
75.77810922128957
 30
0.0
 11
144.4180319094918
 21
75.77810922128958
 31
0.0
  0
LINE
  5
1522
330
1A
100
AcDbEntity
  8
SEIHIN
  6
Continuous
 62
     3
100
AcDbLine
 10
136.9194319094918
 20
78.27810922128958
 30
0.0
 11
106.1740319114918
 21
78.27810922128958
 31
0.0
  0
LINE
  5
1523
330
1A
100
AcDbEntity
  8
SEIHIN
100
AcDbLine
 10
106.1740319114918
 20
65.08450557128958
 30
0.0
 11
106.1740319114918
 21
86.3953294402896
 31
0.0
  0
LINE
  5
1524
330
1A
100
AcDbEntity
  8
SEIHIN
100
AcDbLine
 10
86.77403190949184
 20
84.27810922128958
 30
0.0
 11
86.77401775949181
 21
78.27810686328959
 31
0.0
  0
LINE
  5
1525
330
1A
100
AcDbEntity
  8
SEIHIN
100
AcDbLine
 10
85.77403190949184
 20
84.27810922128958
 30
0.0
 11
85.77401775949181
 21
78.27810922128958
 31
0.0
  0
LINE
  5
1526
330
1A
100
AcDbEntity
  8
SEIHIN
100
AcDbLine
 10
85.13894323949182
 20
84.0845032152896
 30
0.0
 11
85.13892710949182
 21
77.2463817612896
 31
0.0
  0
LINE
  5
1527
330
1A
100
AcDbEntity
  8
SEIHIN
100
AcDbLine
 10
81.17403190949182
 20
65.08450557128958
 30
0.0
 11
81.17403190949182
 21
84.08450557328959
 31
0.0
  0
LINE
  5
1528
330
1A
100
AcDbEntity
  8
SEIHIN
100
AcDbLine
 10
87.13894675949183
 20
85.57813226228959
 30
0.0
 11
87.13892710949182
 21
77.2463817612896
 31
0.0
  0
LINE
  5
1529
330
1A
100
AcDbEntity
  8
SEIHIN
100
AcDbLine
 10
81.17403190949182
 20
65.08450557128958
 30
0.0
 11
106.1740319114918
 21
65.08450557128958
 31
0.0
  0
LINE
  5
152A
330
1A
100
AcDbEntity
  8
SEIHIN
100
AcDbLine
 10
85.13892954316664
 20
78.2781092212896
 30
0.0
 11
87.13892953949181
 21
78.27810922128958
 31
0.0
  0
LINE
  5
152B
330
1A
100
AcDbEntity
  8
SEIHIN
100
AcDbLine
 10
85.13892710949182
 20
77.2463817612896
 30
0.0
 11
87.13892710949182
 21
77.2463817612896
 31
0.0
  0
ARC
  5
152C
330
1A
100
AcDbEntity
  8
SEIHIN
  6
Continuous
 62
     3
100
AcDbCircle
 10
78.16333190949183
 20
72.27820922128962
 30
0.0
 40
5.000009
100
AcDbArc
 50
201.7365079999997
 51
270.0
  0
LINE
  5
152D
330
1A
100
AcDbEntity
  8
SEIHIN
  6
Continuous
 62
     3
100
AcDbLine
 10
78.16333190949183
 20
67.27820922128962
 30
0.0
 11
81.17403190949182
 21
67.2782046512168
 31
0.0
  0
ARC
  5
152E
330
1A
100
AcDbEntity
  8
SEIHIN
  6
Continuous
 62
     3
100
AcDbCircle
 10
80.07665149418726
 20
78.77810922128958
 30
0.0
 40
3.0
100
AcDbArc
 50
209.6977057516304
 51
270.0
  0
LINE
  5
152F
330
1A
100
AcDbEntity
  8
SEIHIN
  6
Continuous
 62
     3
100
AcDbLine
 10
78.50233190949183
 20
69.77820922128962
 30
0.0
 11
81.17403190949183
 21
69.77820501688741
 31
0.0
  0
LINE
  5
1530
330
1A
100
AcDbEntity
  8
SEIHIN
  6
Continuous
 62
     3
100
AcDbLine
 10
78.77383190949183
 20
75.77820922128962
 30
0.0
 11
78.77383190949183
 21
69.77820922128962
 31
0.0
  0
ARC
  5
1531
330
1A
100
AcDbEntity
  8
SEIHIN
  6
Continuous
 62
     3
100
AcDbCircle
 10
78.50233190949183
 20
72.77820922128962
 30
0.0
 40
3.000001
100
AcDbArc
 50
201.7361539999994
 51
270.0
  0
LINE
  5
1532
330
1A
100
AcDbEntity
  8
SEIHIN
  6
Continuous
 62
     3
100
AcDbLine
 10
81.17403190949182
 20
78.27810922128958
 30
0.0
 11
80.67722308214884
 21
78.27810922128958
 31
0.0
  0
LINE
  5
1533
330
1A
100
AcDbEntity
  8
SEIHIN
  6
Continuous
 62
     3
100
AcDbLine
 10
80.07665149418726
 20
75.77810922128958
 30
0.0
 11
81.17403190949182
 21
75.77810922128957
 31
0.0
  0
ARC
  5
1534
330
1A
100
AcDbEntity
  8
SEIHIN
  6
Continuous
 62
     3
100
AcDbCircle
 10
80.67693190949183
 20
79.77820922128962
 30
0.0
 40
1.499982
100
AcDbArc
 50
207.9095830000001
 51
270.0
  0
LINE
  5
1535
330
1A
100
AcDbEntity
  8
SEIHIN
100
AcDbLine
 10
96.17403190949182
 20
69.77810922128958
 30
0.0
 11
97.32873244949184
 21
67.77810922128958
 31
0.0
  0
LINE
  5
1536
330
1A
100
AcDbEntity
  8
SEIHIN
100
AcDbLine
 10
96.17403190949182
 20
69.77810922128958
 30
0.0
 11
95.01933136949182
 21
67.77810922128958
 31
0.0
  0
LINE
  5
1537
330
1A
100
AcDbEntity
  8
SEIHIN
100
AcDbLine
 10
97.32873244949184
 20
67.77810922128958
 30
0.0
 11
95.01933136949182
 21
67.77810922128958
 31
0.0
  0
MTEXT
  5
1538
330
1A
100
AcDbEntity
  8
SEIHIN
100
AcDbMText
 10
98.18721380949182
 20
72.87002804528959
 30
0.0
 40
2.381249964
 41
0.0
 71
     1
 72
     5
  1
{\W1.022222;45}
210
0.0
220
0.0
230
-1.0
 11
-1.0
 21
0.0
 31
0.0
 73
     1
 44
1.0
  0
LINE
  5
1539
330
1A
100
AcDbEntity
  8
SEIHIN
100
AcDbLine
 10
93.67403190949182
 20
75.77810922128958
 30
0.0
 11
98.67403190949182
 21
75.77810922128958
 31
0.0
  0
LINE
  5
153A
330
1A
100
AcDbEntity
  8
SEIHIN
100
AcDbLine
 10
98.67403190949182
 20
69.77810922128958
 30
0.0
 11
93.67403190949182
 21
69.77810922128958
 31
0.0
  0
LINE
  5
153B
330
1A
100
AcDbEntity
  8
SEIHIN
100
AcDbLine
 10
92.67403190949182
 20
74.77810922128958
 30
0.0
 11
92.67403190949182
 21
70.77810922128958
 31
0.0
  0
ARC
  5
153C
330
1A
100
AcDbEntity
  8
SEIHIN
100
AcDbCircle
 10
93.67403190949182
 20
70.77810922128958
 30
0.0
 40
1.0
100
AcDbArc
 50
180.0
 51
270.0
  0
ARC
  5
153D
330
1A
100
AcDbEntity
  8
SEIHIN
100
AcDbCircle
 10
93.67403190949182
 20
74.77810922128958
 30
0.0
 40
1.0
100
AcDbArc
 50
90.0
 51
180.0
  0
LINE
  5
153E
330
1A
100
AcDbEntity
  8
SEIHIN
100
AcDbLine
 10
99.67403190949182
 20
74.77810922128958
 30
0.0
 11
99.67403190949182
 21
70.77810922128958
 31
0.0
  0
ARC
  5
153F
330
1A
100
AcDbEntity
  8
SEIHIN
100
AcDbCircle
 10
98.67403190949182
 20
70.77810922128958
 30
0.0
 40
1.0
100
AcDbArc
 50
270.0
 51
0.0
  0
ARC
  5
1540
330
1A
100
AcDbEntity
  8
SEIHIN
100
AcDbCircle
 10
98.67403190949182
 20
74.77810922128958
 30
0.0
 40
1.0
100
AcDbArc
 50
0.0
 51
90.0
  0
LINE
  5
1541
330
1A
100
AcDbEntity
  8
SEIHIN
100
AcDbLine
 10
96.43078190949183
 20
75.77810922128958
 30
0.0
 11
96.43078190949183
 21
73.77810922128958
 31
0.0
  0
LINE
  5
1542
330
1A
100
AcDbEntity
  8
SEIHIN
100
AcDbLine
 10
95.93078190949183
 20
73.77810922128958
 30
0.0
 11
95.93078190949183
 21
75.77810922128958
 31
0.0
  0
LINE
  5
1543
330
1A
100
AcDbEntity
  8
SEIHIN
100
AcDbLine
 10
96.43078190949183
 20
73.77810922128958
 30
0.0
 11
95.93078190949183
 21
73.77810922128958
 31
0.0
  0
LINE
  5
1544
330
1A
100
AcDbEntity
  8
SEIHIN
100
AcDbLine
 10
95.93078190949183
 20
75.77810922128958
 30
0.0
 11
96.43078190949183
 21
75.77810922128958
 31
0.0
  0
LINE
  5
1545
330
1A
100
AcDbEntity
  8
SEIHIN
100
AcDbLine
 10
95.93078190949183
 20
75.77810922128958
 30
0.0
 11
96.43078190949183
 21
75.77810922128958
 31
0.0
  0
MTEXT
  5
1546
330
1A
100
AcDbEntity
  8
SEIHIN
100
AcDbMText
 10
113.0836410094918
 20
72.68988643528957
 30
0.0
 40
2.381249964
 41
0.0
 71
     1
 72
     5
  1
{\W1.135802;60}
210
0.0
220
0.0
230
-1.0
 11
-1.0
 21
0.0
 31
0.0
 73
     1
 44
1.0
  0
LINE
  5
1547
330
1A
100
AcDbEntity
  8
SEIHIN
100
AcDbLine
 10
106.4240319094918
 20
75.77810922128958
 30
0.0
 11
106.4240319094918
 21
73.77810922128958
 31
0.0
  0
LINE
  5
1548
330
1A
100
AcDbEntity
  8
SEIHIN
100
AcDbLine
 10
106.4240319094918
 20
73.77810922128958
 30
0.0
 11
106.1740319094918
 21
73.77810922128958
 31
0.0
  0
LINE
  5
1549
330
1A
100
AcDbEntity
  8
SEIHIN
100
AcDbLine
 10
108.1187819094918
 20
75.77810922128958
 30
0.0
 11
108.6187819094918
 21
75.77810922128958
 31
0.0
  0
LINE
  5
154A
330
1A
100
AcDbEntity
  8
SEIHIN
100
AcDbLine
 10
111.4240319094918
 20
75.77810922128958
 30
0.0
 11
111.4240319094918
 21
73.77810922128958
 31
0.0
  0
LINE
  5
154B
330
1A
100
AcDbEntity
  8
SEIHIN
100
AcDbLine
 10
110.9240319094918
 20
73.77810922128958
 30
0.0
 11
110.9240319094918
 21
75.77810922128958
 31
0.0
  0
LINE
  5
154C
330
1A
100
AcDbEntity
  8
SEIHIN
100
AcDbLine
 10
111.4240319094918
 20
73.77810922128958
 30
0.0
 11
110.9240319094918
 21
73.77810922128958
 31
0.0
  0
LINE
  5
154D
330
1A
100
AcDbEntity
  8
SEIHIN
100
AcDbLine
 10
113.1187819094918
 20
75.77810922128958
 30
0.0
 11
113.6187819094918
 21
75.77810922128958
 31
0.0
  0
LINE
  5
154E
330
1A
100
AcDbEntity
  8
SEIHIN
100
AcDbLine
 10
115.9240319094918
 20
73.77810922128958
 30
0.0
 11
115.9240319094918
 21
75.77810922128958
 31
0.0
  0
LINE
  5
154F
330
1A
100
AcDbEntity
  8
SEIHIN
100
AcDbLine
 10
116.4240319094918
 20
75.77810922128958
 30
0.0
 11
116.4240319094918
 21
73.77810922128958
 31
0.0
  0
LINE
  5
1550
330
1A
100
AcDbEntity
  8
SEIHIN
100
AcDbLine
 10
116.4240319094918
 20
73.77810922128958
 30
0.0
 11
115.9240319094918
 21
73.77810922128958
 31
0.0
  0
LINE
  5
1551
330
1A
100
AcDbEntity
  8
SEIHIN
100
AcDbLine
 10
107.8946339094919
 20
96.92811094608959
 30
0.0
 11
90.62318300949187
 21
96.92811094608959
 31
0.0
  0
ARC
  5
1552
330
1A
100
AcDbEntity
  8
SEIHIN
100
AcDbCircle
 10
96.67403190949182
 20
85.57810922128959
 30
0.0
 40
9.535085152808648
100
AcDbArc
 50
4.916661302937908
 51
179.999861547953
  0
LINE
  5
1553
330
1A
100
AcDbEntity
  8
SEIHIN
100
AcDbLine
 10
85.77403190949184
 20
84.27810922128958
 30
0.0
 11
87.13894368949184
 21
84.27810922128958
 31
0.0
  0
LINE
  5
1554
330
1A
100
AcDbEntity
  8
SEIHIN
100
AcDbLine
 10
84.13894323949182
 20
85.08450557328959
 30
0.0
 11
82.17403190949182
 21
85.08450557328959
 31
0.0
  0
ARC
  5
1555
330
1A
100
AcDbEntity
  8
SEIHIN
100
AcDbCircle
 10
82.17403190949182
 20
84.08450557328959
 30
0.0
 40
1.0
100
AcDbArc
 50
90.0
 51
180.0
  0
ARC
  5
1556
330
1A
100
AcDbEntity
  8
SEIHIN
100
AcDbCircle
 10
84.13894323949182
 20
84.08450557328959
 30
0.0
 40
1.00000000000139
100
AcDbArc
 50
359.9998648965517
 51
90.0
  0
ARC
  5
1557
330
1A
100
AcDbEntity
  8
SEIHIN
100
AcDbCircle
 10
97.73366340949184
 20
87.83963741028958
 30
0.0
 40
9.899999945860101
100
AcDbArc
 50
135.9085671811985
 51
170.5325542037062
  0
CIRCLE
  5
1558
330
1A
100
AcDbEntity
  8
SEIHIN
100
AcDbCircle
 10
96.17403190949182
 20
89.07810922128959
 30
0.0
 40
3.500000004238516
  0
LINE
  5
1559
330
1A
100
AcDbEntity
  8
SEIHIN
100
AcDbLine
 10
90.62318300949187
 20
95.92811094608959
 30
0.0
 11
90.62318300949187
 21
96.92811094608959
 31
0.0
  0
LINE
  5
155A
330
1A
100
AcDbEntity
  8
SEIHIN
100
AcDbLine
 10
90.62318300949187
 20
94.72811094628958
 30
0.0
 11
90.62318300949187
 21
95.92811094608959
 31
0.0
  0
LINE
  5
155B
330
1A
100
AcDbEntity
  8
SEIHIN
100
AcDbLine
 10
106.1740319094918
 20
79.7133219112896
 30
0.0
 11
117.4644316094918
 21
102.8620717692896
 31
0.0
  0
LINE
  5
155C
330
1A
100
AcDbEntity
  8
SEIHIN
100
AcDbLine
 10
104.7955336094918
 20
90.57401357828962
 30
0.0
 11
112.5476993094918
 21
106.4683088412896
 31
0.0
  0
LINE
  5
155D
330
1A
100
AcDbEntity
  8
SEIHIN
100
AcDbLine
 10
104.0161159094918
 20
91.66182952228962
 30
0.0
 11
106.9037789094919
 21
94.72811094628958
 31
0.0
  0
LINE
  5
155E
330
1A
100
AcDbEntity
  8
SEIHIN
100
AcDbLine
 10
104.1237749094918
 20
91.77614785228957
 30
0.0
 11
106.6076795094919
 21
94.41369605528962
 31
0.0
  0
LINE
  5
155F
330
1A
100
AcDbEntity
  8
SEIHIN
100
AcDbLine
 10
120.1393770094918
 20
115.0546612512896
 30
0.0
 11
118.9918113094918
 21
115.4055072912896
 31
0.0
  0
ARC
  5
1560
330
1A
100
AcDbEntity
  8
SEIHIN
100
AcDbCircle
 10
122.4344341094918
 20
101.6462267362896
 30
0.0
 40
11.00000001878716
100
AcDbArc
 50
97.00000011848553
 51
154.0000030498829
  0
ARC
  5
1561
330
1A
100
AcDbEntity
  8
SEIHIN
100
AcDbCircle
 10
123.7559900094918
 20
99.79347374228962
 30
0.0
 40
7.000000032527997
100
AcDbArc
 50
96.9999999713188
 51
154.000000276212
  0
LINE
  5
1562
330
1A
100
AcDbEntity
  8
SEIHIN
100
AcDbLine
 10
119.2599580094918
 20
112.1782114412896
 30
0.0
 11
120.1393770094918
 21
115.0546612512896
 31
0.0
  0
LINE
  5
1563
330
1A
100
AcDbEntity
  8
SEIHIN
100
AcDbLine
 10
117.8409539094918
 20
111.6412224912896
 30
0.0
 11
118.9918113094918
 21
115.4055072912896
 31
0.0
  0
LINE
  5
1564
330
1A
100
AcDbEntity
  8
SEIHIN
  6
Continuous
 62
     3
100
AcDbLine
 10
179.2740319094918
 20
100.2780092212896
 30
0.0
 11
179.2740319094918
 21
70.27800922128961
 31
0.0
  0
LINE
  5
1565
330
1A
100
AcDbEntity
  8
SEIHIN
  6
Continuous
 62
     3
100
AcDbLine
 10
173.2740319094918
 20
89.27800922128961
 30
0.0
 11
173.2740319094918
 21
72.77800922128961
 31
0.0
  0
ARC
  5
1566
330
1A
100
AcDbEntity
  8
SEIHIN
  6
Continuous
 62
     3
100
AcDbCircle
 10
142.3824319094919
 20
79.27810922128958
 30
0.0
 40
0.999978
100
AcDbArc
 50
150.2430369999999
 51
270.0
  0
LINE
  5
1567
330
1A
100
AcDbEntity
  8
SEIHIN
  6
Continuous
 62
     3
100
AcDbLine
 10
151.7829319094919
 20
102.7593092212896
 30
0.0
 11
138.2098319094919
 21
79.01340922128964
 31
0.0
  0
LINE
  5
1568
330
1A
100
AcDbEntity
  8
SEIHIN
  6
Continuous
 62
     3
100
AcDbLine
 10
146.5255319094919
 20
71.46900922128961
 30
0.0
 11
158.0894319094919
 21
91.82700922128959
 31
0.0
  0
LINE
  5
1569
330
1A
100
AcDbEntity
  8
SEIHIN
  6
Continuous
 62
     3
100
AcDbLine
 10
147.9449319094919
 20
78.76820922128962
 30
0.0
 11
157.1163319094919
 21
95.23760922128963
 31
0.0
  0
LINE
  5
156A
330
1A
100
AcDbEntity
  8
SEIHIN
  6
Continuous
 62
     3
100
AcDbLine
 10
169.8298319094919
 20
67.9868092212896
 30
0.0
 11
166.9408319094919
 21
72.59060922128961
 31
0.0
  0
ARC
  5
156B
330
1A
100
AcDbEntity
  8
SEIHIN
  6
Continuous
 62
     3
100
AcDbCircle
 10
168.2740319094918
 20
73.27800922128961
 30
0.0
 40
1.499984
100
AcDbArc
 50
44.54354499999958
 51
207.2723069999998
  0
LINE
  5
156C
330
1A
100
AcDbEntity
  8
SEIHIN
  6
Continuous
 62
     3
100
AcDbLine
 10
144.0419319094918
 20
67.27810922128961
 30
0.0
 11
161.2654319094918
 21
70.51600922128961
 31
0.0
  0
LINE
  5
156D
330
1A
100
AcDbEntity
  8
SEIHIN
  6
Continuous
 62
     3
100
AcDbLine
 10
147.5705319094919
 20
69.9765092212896
 30
0.0
 11
161.0494319094918
 21
71.79770922128961
 31
0.0
  0
LINE
  5
156E
330
1A
100
AcDbEntity
  8
SEIHIN
  6
Continuous
 62
     3
100
AcDbLine
 10
147.0846319094919
 20
78.27810922128958
 30
0.0
 11
142.3824319094919
 21
78.27810922128958
 31
0.0
  0
LINE
  5
156F
330
1A
100
AcDbEntity
  8
SEIHIN
  6
Continuous
 62
     3
100
AcDbLine
 10
142.9079319094919
 20
70.2683092212896
 30
0.0
 11
145.2782319094918
 21
74.26820922128962
 31
0.0
  0
LINE
  5
1570
330
1A
100
AcDbEntity
  8
SEIHIN
  6
Continuous
 62
     3
100
AcDbLine
 10
137.7741319094919
 20
69.77820922128962
 30
0.0
 11
137.7741319094919
 21
75.77820922128962
 31
0.0
  0
ARC
  5
1571
330
1A
100
AcDbEntity
  8
SEIHIN
  6
Continuous
 62
     3
100
AcDbCircle
 10
142.0476319094918
 20
70.77810922128961
 30
0.0
 40
1.000003
100
AcDbArc
 50
270.0
 51
329.3496969999996
  0
ARC
  5
1572
330
1A
100
AcDbEntity
  8
SEIHIN
  6
Continuous
 62
     3
100
AcDbCircle
 10
136.9194319094918
 20
79.77810922128958
 30
0.0
 40
1.499983
100
AcDbArc
 50
270.0
 51
329.3487229999997
  0
ARC
  5
1573
330
1A
100
AcDbEntity
  8
SEIHIN
  6
Continuous
 62
     3
100
AcDbCircle
 10
147.3858319094919
 20
70.9592092212896
 30
0.0
 40
0.999956
100
AcDbArc
 50
149.3496969999996
 51
280.6446470000001
  0
ARC
  5
1574
330
1A
100
AcDbEntity
  8
SEIHIN
  6
Continuous
 62
     3
100
AcDbCircle
 10
144.4180319094918
 20
74.77810922128958
 30
0.0
 40
0.9999600000000001
100
AcDbArc
 50
329.346776
 51
90.0
  0
ARC
  5
1575
330
1A
100
AcDbEntity
  8
SEIHIN
  6
Continuous
 62
     3
100
AcDbCircle
 10
147.0846319094919
 20
79.27810922128958
 30
0.0
 40
1.000003
100
AcDbArc
 50
270.0
 51
329.3496969999996
  0
ARC
  5
1576
330
1A
100
AcDbEntity
  8
SEIHIN
  6
Continuous
 62
     3
100
AcDbCircle
 10
161.1453319094919
 20
71.15490922128961
 30
0.0
 40
0.6500060000000001
100
AcDbArc
 50
278.475411
 51
98.48412899999988
  0
ARC
  5
1577
330
1A
100
AcDbEntity
  8
SEIHIN
  6
Continuous
 62
     3
100
AcDbCircle
 10
174.2740319094918
 20
70.27800922128961
 30
0.0
 40
5.000028
100
AcDbArc
 50
205.2238120000009
 51
0.0
  0
LINE
  5
1578
330
1A
100
AcDbEntity
  8
SEIHIN
  6
Continuous
 62
     3
100
AcDbLine
 10
169.3431319094918
 20
74.33020922128958
 30
0.0
 11
171.5614319094918
 21
72.0765092212896
 31
0.0
  0
ARC
  5
1579
330
1A
100
AcDbEntity
  8
SEIHIN
  6
Continuous
 62
     3
100
AcDbCircle
 10
172.2740319094918
 20
72.77800922128961
 30
0.0
 40
0.999975
100
AcDbArc
 50
224.5502650000009
 51
0.0
  0
ARC
  5
157A
330
1A
100
AcDbEntity
  8
SEIHIN
  6
Continuous
 62
     3
100
AcDbCircle
 10
168.2740319094918
 20
89.27800922128961
 30
0.0
 40
5.0
100
AcDbArc
 50
0.0
 51
90.0
  0
LINE
  5
157B
330
1A
100
AcDbEntity
  8
SEIHIN
  6
Continuous
 62
     3
100
AcDbLine
 10
159.7373319094918
 20
96.77800922128961
 30
0.0
 11
170.2740319094918
 21
96.77800922128961
 31
0.0
  0
LINE
  5
157C
330
1A
100
AcDbEntity
  8
SEIHIN
  6
Continuous
 62
     3
100
AcDbLine
 10
174.2740319094918
 20
105.2780092212896
 30
0.0
 11
156.1238319094919
 21
105.2780092212896
 31
0.0
  0
LINE
  5
157D
330
1A
100
AcDbEntity
  8
SEIHIN
  6
Continuous
 62
     3
100
AcDbLine
 10
170.2740319094918
 20
102.7780092212896
 30
0.0
 11
156.4080319094919
 21
102.7781092212896
 31
0.0
  0
ARC
  5
157E
330
1A
100
AcDbEntity
  8
SEIHIN
  6
Continuous
 62
     3
100
AcDbCircle
 10
156.4080319094919
 20
99.77810922128958
 30
0.0
 40
3.000009
100
AcDbArc
 50
90.0
 51
149.3496969999996
  0
LINE
  5
157F
330
1A
100
AcDbEntity
  8
SEIHIN
  6
Continuous
 62
     3
100
AcDbLine
 10
141.5143319094918
 20
79.77450922128958
 30
0.0
 11
153.7825319094919
 21
101.2295092212896
 31
0.0
  0
ARC
  5
1580
330
1A
100
AcDbEntity
  8
SEIHIN
  6
Continuous
 62
     3
100
AcDbCircle
 10
162.3909319094918
 20
89.27800922128961
 30
0.0
 40
5.000015
100
AcDbArc
 50
90.0
 51
149.3496969999996
  0
ARC
  5
1581
330
1A
100
AcDbEntity
  8
SEIHIN
  6
Continuous
 62
     3
100
AcDbCircle
 10
159.7373319094918
 20
93.77800922128961
 30
0.0
 40
3.000006
100
AcDbArc
 50
90.0
 51
150.8871489999997
  0
LINE
  5
1582
330
1A
100
AcDbEntity
  8
SEIHIN
  6
Continuous
 62
     3
100
AcDbLine
 10
162.3909319094918
 20
94.27800922128961
 30
0.0
 11
168.2740319094918
 21
94.27800922128961
 31
0.0
  0
ARC
  5
1583
330
1A
100
AcDbEntity
  8
SEIHIN
  6
Continuous
 62
     3
100
AcDbCircle
 10
156.1238319094919
 20
100.2780092212896
 30
0.0
 40
5.0
100
AcDbArc
 50
90.0
 51
150.247301
  0
ARC
  5
1584
330
1A
100
AcDbEntity
  8
SEIHIN
  6
Continuous
 62
     3
100
AcDbCircle
 10
170.2740319094918
 20
99.77800922128961
 30
0.0
 40
3.0
100
AcDbArc
 50
0.0
 51
90.0
  0
ARC
  5
1585
330
1A
100
AcDbEntity
  8
SEIHIN
  6
Continuous
 62
     3
100
AcDbCircle
 10
174.2740319094918
 20
100.2780092212896
 30
0.0
 40
5.0
100
AcDbArc
 50
0.0
 51
90.0
  0
ARC
  5
1586
330
1A
100
AcDbEntity
  8
SEIHIN
  6
Continuous
 62
     3
100
AcDbCircle
 10
170.2740319094918
 20
99.77800922128961
 30
0.0
 40
3.0
100
AcDbArc
 50
270.0
 51
0.0
  0
ARC
  5
1587
330
1A
100
AcDbEntity
  8
SEIHIN
  6
Continuous
 62
     3
100
AcDbCircle
 10
174.2740319094918
 20
100.2780092212896
 30
0.0
 40
5.000022
100
AcDbArc
 50
0.0
 51
2.064221999999502
  0
ARC
  5
1588
330
1A
100
AcDbEntity
  8
SEIHIN
100
AcDbCircle
 10
191.1037834494919
 20
122.2292728312896
 30
0.0
 40
6.999999997343439
100
AcDbArc
 50
276.9999999703213
 51
350.7918455535387
  0
ARC
  5
1589
330
1A
100
AcDbEntity
  8
SEIHIN
100
AcDbCircle
 10
191.1015187994918
 20
122.2152457212896
 30
0.0
 40
1.000000000114556
100
AcDbArc
 50
277.0383429816966
 51
350.8658544245595
  0
LINE
  5
158A
330
1A
100
AcDbEntity
  8
SEIHIN
  6
Continuous
 62
     3
100
AcDbLine
 10
53.27403190949187
 20
213.6976009445118
 30
0.0
 11
85.70693487949183
 21
213.6976009445118
 31
0.0
  0
LINE
  5
158B
330
1A
100
AcDbEntity
  8
SEIHIN
  6
Continuous
 62
     3
100
AcDbLine
 10
53.27393190949178
 20
198.6976009445118
 30
0.0
 11
85.70693487949183
 21
198.6976009445118
 31
0.0
  0
DIMENSION
  5
158C
330
1A
100
AcDbEntity
  8
SUNPOU
100
AcDbDimension
  2
*D4
 10
28.21654856331747
 20
195.1976009445118
 30
0.0
 11
25.71654856331745
 21
206.1976009445118
 31
0.0
 70
    32
 71
     5
 42
22.0
  3
STANDARD
100
AcDbAlignedDimension
 13
50.27403190949187
 23
217.1976009445118
 33
0.0
 14
50.27403190949181
 24
195.1976009445118
 34
0.0
 50
90.0
100
AcDbRotatedDimension
1001
ACAD
1000
DSTYLE
1002
{
1070
    41
1040
3.0
1070
    42
1040
3.0
1070
    43
1040
7.0
1070
    44
1040
1.5
1070
    73
1070
     0
1070
    74
1070
     0
1070
    77
1070
     3
1070
   140
1040
3.0
1070
   141
1040
3.0
1070
   147
1040
1.0
1070
   172
1070
     1
1070
   173
1070
     1
1070
   176
1070
   256
1070
   177
1070
   256
1070
   178
1070
   256
1070
   271
1070
     0
1070
   272
1070
     0
1070
   341
1005
B2
1070
     6
1000
OPEN
1070
     7
1000
OPEN
1002
}
  0
LINE
  5
158D
330
1A
100
AcDbEntity
  8
SEIHIN
  6
Continuous
 62
     3
100
AcDbLine
 10
53.27403190949187
 20
206.1978009445118
 30
0.0
 11
53.27393190949178
 21
195.1976009445118
 31
0.0
  0
LINE
  5
158E
330
1A
100
AcDbEntity
  8
SEIHIN
  6
Continuous
 62
     3
100
AcDbLine
 10
50.27403190949181
 20
195.1976009445118
 30
0.0
 11
50.27403190949187
 21
217.1976009445118
 31
0.0
  0
LINE
  5
158F
330
1A
100
AcDbEntity
  8
SEIHIN
  6
Continuous
 62
     3
100
AcDbLine
 10
50.27403190949181
 20
195.1976009445118
 30
0.0
 11
53.27393190949178
 21
195.1976009445118
 31
0.0
  0
LINE
  5
1590
330
1A
100
AcDbEntity
  8
SEIHIN
  6
Continuous
 62
     3
100
AcDbLine
 10
53.27403190949187
 20
206.1974009445118
 30
0.0
 11
53.27403190949187
 21
217.1976009445118
 31
0.0
  0
LINE
  5
1591
330
1A
100
AcDbEntity
  8
SEIHIN
  6
Continuous
 62
     3
100
AcDbLine
 10
50.27403190949187
 20
217.1976009445118
 30
0.0
 11
53.27403190949187
 21
217.1976009445118
 31
0.0
  0
LINE
  5
1592
330
1A
100
AcDbEntity
  8
SEIHIN
  6
Continuous
 62
     3
100
AcDbLine
 10
67.27403190949187
 20
206.1975009445118
 30
0.0
 11
67.27403190949187
 21
213.6977009445118
 31
0.0
  0
LINE
  5
1593
330
1A
100
AcDbEntity
  8
SEIHIN
  6
Continuous
 62
     3
100
AcDbLine
 10
67.27403190949187
 20
206.1977009445118
 30
0.0
 11
67.27403190949187
 21
198.6975009445118
 31
0.0
  0
LINE
  5
1594
330
1A
100
AcDbEntity
  8
SEIHIN
100
AcDbLine
 10
87.13922408949182
 20
214.1976009645118
 30
0.0
 11
106.1740319114918
 21
214.1976009645118
 31
0.0
  0
LINE
  5
1595
330
1A
100
AcDbEntity
  8
SEIHIN
100
AcDbLine
 10
106.1740319114918
 20
198.1976009245118
 30
0.0
 11
87.13918541949181
 21
198.1976469245118
 31
0.0
  0
LINE
  5
1596
330
1A
100
AcDbEntity
  8
SEIHIN
100
AcDbLine
 10
89.78283786949183
 20
210.3520449645118
 30
0.0
 11
111.8415249944918
 21
210.3520449645118
 31
0.0
  0
LINE
  5
1597
330
1A
100
AcDbEntity
  8
SEIHIN
100
AcDbLine
 10
86.99331831949183
 20
212.4696745645118
 30
0.0
 11
114.5803150094918
 21
212.4696745645118
 31
0.0
  0
LINE
  5
1598
330
1A
100
AcDbEntity
  8
SEIHIN
100
AcDbLine
 10
89.78283786949183
 20
202.0431569145118
 30
0.0
 11
111.8415249944918
 21
202.0431569145118
 31
0.0
  0
LINE
  5
1599
330
1A
100
AcDbEntity
  8
SEIHIN
100
AcDbLine
 10
86.99331831949183
 20
199.9255272845118
 30
0.0
 11
114.5803150094918
 21
199.9255272845118
 31
0.0
  0
LINE
  5
159A
330
1A
100
AcDbEntity
  8
SEIHIN
100
AcDbLine
 10
85.70693487949183
 20
195.1976009245118
 30
0.0
 11
85.70693487949183
 21
198.6976009245118
 31
0.0
  0
LINE
  5
159B
330
1A
100
AcDbEntity
  8
SEIHIN
100
AcDbLine
 10
86.70693487949183
 20
198.1976009245118
 30
0.0
 11
86.70693487949183
 21
195.1976009245118
 31
0.0
  0
LINE
  5
159C
330
1A
100
AcDbEntity
  8
SEIHIN
100
AcDbLine
 10
86.70693487949183
 20
195.1976009245118
 30
0.0
 11
85.70693487949183
 21
195.1976009245118
 31
0.0
  0
ARC
  5
159D
330
1A
100
AcDbEntity
  8
SEIHIN
100
AcDbCircle
 10
87.20693487949183
 20
214.1976009645118
 30
0.0
 40
0.5
100
AcDbArc
 50
180.0
 51
270.0
  0
ARC
  5
159E
330
1A
100
AcDbEntity
  8
SEIHIN
100
AcDbCircle
 10
87.20693487949183
 20
198.1976009245118
 30
0.0
 40
0.5
100
AcDbArc
 50
90.0
 51
180.0
  0
LINE
  5
159F
330
1A
100
AcDbEntity
  8
SEIHIN
100
AcDbLine
 10
89.78283786949183
 20
200.9255272845118
 30
0.0
 11
86.99331831949183
 21
200.9255272845118
 31
0.0
  0
LINE
  5
15A0
330
1A
100
AcDbEntity
  8
SEIHIN
100
AcDbLine
 10
89.78283786949183
 20
211.4696745645118
 30
0.0
 11
86.99331831949183
 21
211.4696745645118
 31
0.0
  0
LINE
  5
15A1
330
1A
100
AcDbEntity
  8
SEIHIN
100
AcDbLine
 10
86.99331831949183
 20
208.1222122645118
 30
0.0
 11
89.78283786949183
 21
208.1222122645118
 31
0.0
  0
LINE
  5
15A2
330
1A
100
AcDbEntity
  8
SEIHIN
100
AcDbLine
 10
86.99331831949183
 20
204.2729895845118
 30
0.0
 11
89.78283786949183
 21
204.2729895845118
 31
0.0
  0
LINE
  5
15A3
330
1A
100
AcDbEntity
  8
SEIHIN
  6
Continuous
 62
     3
100
AcDbLine
 10
79.77393190949189
 20
198.6976009445118
 30
0.0
 11
79.77393190949189
 21
213.6976009445118
 31
0.0
  0
LINE
  5
15A4
330
1A
100
AcDbEntity
  8
SEIHIN
100
AcDbLine
 10
86.99331831949183
 20
211.4696745645118
 30
0.0
 11
86.99331831949183
 21
200.9255272845118
 31
0.0
  0
ARC
  5
15A5
330
1A
100
AcDbEntity
  8
SEIHIN
100
AcDbCircle
 10
86.99331831949183
 20
206.1976009245118
 30
0.0
 40
3.000000000000011
100
AcDbArc
 50
90.00000515662018
 51
269.9999952253517
  0
LINE
  5
15A6
330
1A
100
AcDbEntity
  8
SEIHIN
100
AcDbLine
 10
81.17403190949182
 20
198.1976009245118
 30
0.0
 11
85.13893922949183
 21
198.1976009245118
 31
0.0
  0
LINE
  5
15A7
330
1A
100
AcDbEntity
  8
SEIHIN
100
AcDbLine
 10
85.13918084949182
 20
198.6976009245118
 30
0.0
 11
81.17403190949182
 21
198.6976009245118
 31
0.0
  0
LINE
  5
15A8
330
1A
100
AcDbEntity
  8
SEIHIN
100
AcDbLine
 10
81.17403190949182
 20
198.1976009245118
 30
0.0
 11
81.17403190949182
 21
198.6976009245118
 31
0.0
  0
LINE
  5
15A9
330
1A
100
AcDbEntity
  8
SEIHIN
100
AcDbLine
 10
86.99331831949183
 20
200.9255272845118
 30
0.0
 11
86.99331831949183
 21
199.9255272845118
 31
0.0
  0
LINE
  5
15AA
330
1A
100
AcDbEntity
  8
SEIHIN
100
AcDbLine
 10
85.13917966949182
 20
198.1976009245118
 30
0.0
 11
85.13918084949182
 21
198.6976009245118
 31
0.0
  0
ARC
  5
15AB
330
1A
100
AcDbEntity
  8
SEIHIN
100
AcDbCircle
 10
86.70693487949183
 20
198.6976009245118
 30
0.0
 40
1.0
100
AcDbArc
 50
90.0
 51
180.0
  0
ARC
  5
15AC
330
1A
100
AcDbEntity
  8
SEIHIN
100
AcDbCircle
 10
86.70693487949183
 20
213.6976009645118
 30
0.0
 40
1.0
100
AcDbArc
 50
180.0
 51
270.0
  0
LINE
  5
15AD
330
1A
100
AcDbEntity
  8
SEIHIN
100
AcDbLine
 10
86.99331831949183
 20
211.4696745645118
 30
0.0
 11
86.99331831949183
 21
212.4696745645118
 31
0.0
  0
LINE
  5
15AE
330
1A
100
AcDbEntity
  8
SEIHIN
100
AcDbLine
 10
81.17403190949182
 20
214.1976009645118
 30
0.0
 11
85.13893922949183
 21
214.1976009645118
 31
0.0
  0
LINE
  5
15AF
330
1A
100
AcDbEntity
  8
SEIHIN
100
AcDbLine
 10
85.13921621949183
 20
213.6976009645118
 30
0.0
 11
81.17403190949182
 21
213.6976009645118
 31
0.0
  0
LINE
  5
15B0
330
1A
100
AcDbEntity
  8
SEIHIN
100
AcDbLine
 10
81.17403190949182
 20
213.6976009645118
 30
0.0
 11
81.17403190949182
 21
214.1976009645118
 31
0.0
  0
LINE
  5
15B1
330
1A
100
AcDbEntity
  8
SEIHIN
100
AcDbLine
 10
86.70693487949183
 20
217.1976009645118
 30
0.0
 11
85.70693487949183
 21
217.1976009645118
 31
0.0
  0
LINE
  5
15B2
330
1A
100
AcDbEntity
  8
SEIHIN
100
AcDbLine
 10
85.13921621949183
 20
213.6976009645118
 30
0.0
 11
85.13921739949183
 21
214.1976009645118
 31
0.0
  0
LINE
  5
15B3
330
1A
100
AcDbEntity
  8
SEIHIN
100
AcDbLine
 10
86.70693487949183
 20
214.1976009645118
 30
0.0
 11
86.70693487949183
 21
217.1976009645118
 31
0.0
  0
LINE
  5
15B4
330
1A
100
AcDbEntity
  8
SEIHIN
100
AcDbLine
 10
85.70693487949183
 20
217.1976009645118
 30
0.0
 11
85.70693487949183
 21
213.6976009645118
 31
0.0
  0
LINE
  5
15B5
330
1A
100
AcDbEntity
  8
SEIHIN
100
AcDbLine
 10
89.78283786949183
 20
199.9255272845118
 30
0.0
 11
89.78283786949183
 21
212.4696745645118
 31
0.0
  0
ARC
  5
15B6
330
1A
100
AcDbEntity
  8
SEIHIN
100
AcDbCircle
 10
96.17427303949182
 20
202.7159304245118
 30
0.0
 40
5.715337531631893
100
AcDbArc
 50
232.2375418744897
 51
307.762181224757
  0
LINE
  5
15B7
330
1A
100
AcDbEntity
  8
SEIHIN
100
AcDbLine
 10
89.78283786949183
 20
199.9255272845118
 30
0.0
 11
89.78283786949183
 21
201.1255272845118
 31
0.0
  0
LINE
  5
15B8
330
1A
100
AcDbEntity
  8
SEIHIN
100
AcDbLine
 10
87.13918541949181
 20
198.1976469245118
 30
0.0
 11
87.1391866294918
 21
198.6976009245118
 31
0.0
  0
LINE
  5
15B9
330
1A
100
AcDbEntity
  8
SEIHIN
100
AcDbLine
 10
99.67426211949183
 20
215.2620393645118
 30
0.0
 11
92.67426211949183
 21
215.2620393645118
 31
0.0
  0
LINE
  5
15BA
330
1A
100
AcDbEntity
  8
SEIHIN
100
AcDbLine
 10
92.67426211949183
 20
214.1976009645118
 30
0.0
 11
99.67426211949183
 21
214.1976009645118
 31
0.0
  0
LINE
  5
15BB
330
1A
100
AcDbEntity
  8
SEIHIN
100
AcDbLine
 10
89.78283786949183
 20
212.4696745645118
 30
0.0
 11
89.78283786949183
 21
211.2696745645118
 31
0.0
  0
LINE
  5
15BC
330
1A
100
AcDbEntity
  8
SEIHIN
100
AcDbLine
 10
87.13922287949183
 20
213.6976009645118
 30
0.0
 11
87.13922408949182
 21
214.1976009645118
 31
0.0
  0
LINE
  5
15BD
330
1A
100
AcDbEntity
  8
SEIHIN
100
AcDbLine
 10
92.67426211949183
 20
215.2620393645118
 30
0.0
 11
92.67426211949183
 21
214.1976009645118
 31
0.0
  0
LINE
  5
15BE
330
1A
100
AcDbEntity
  8
SEIHIN
100
AcDbLine
 10
99.67426211949183
 20
214.1976009645118
 30
0.0
 11
99.67426211949183
 21
215.2620393645118
 31
0.0
  0
LINE
  5
15BF
330
1A
100
AcDbEntity
  8
SEIHIN
100
AcDbLine
 10
115.4327493024918
 20
201.9255272845118
 30
0.0
 11
115.4327493024918
 21
210.4696745645118
 31
0.0
  0
LINE
  5
15C0
330
1A
100
AcDbEntity
  8
SEIHIN
100
AcDbLine
 10
116.5803150094918
 20
201.9255272845118
 30
0.0
 11
116.5803150094918
 21
210.4696745645118
 31
0.0
  0
LINE
  5
15C1
330
1A
100
AcDbEntity
  8
SEIHIN
100
AcDbLine
 10
113.8415249944918
 20
208.3520449345118
 30
0.0
 11
113.8415249944918
 21
204.0431569145118
 31
0.0
  0
LINE
  5
15C2
330
1A
100
AcDbEntity
  8
SEIHIN
100
AcDbLine
 10
105.2764543984918
 20
203.0431569145118
 30
0.0
 11
105.2764543984918
 21
209.3520449345118
 31
0.0
  0
LINE
  5
15C3
330
1A
100
AcDbEntity
  8
SEIHIN
100
AcDbLine
 10
110.1183746339918
 20
203.0431569145118
 30
0.0
 11
110.1183746339918
 21
209.3520449345118
 31
0.0
  0
LINE
  5
15C4
330
1A
100
AcDbEntity
  8
SEIHIN
100
AcDbLine
 10
106.1740319114918
 20
198.1976009245118
 30
0.0
 11
106.1740319114918
 21
198.6976009245118
 31
0.0
  0
ARC
  5
15C5
330
1A
100
AcDbEntity
  8
SEIHIN
100
AcDbCircle
 10
114.5803150094918
 20
201.9255272845118
 30
0.0
 40
2.0
100
AcDbArc
 50
270.0
 51
0.0
  0
ARC
  5
15C6
330
1A
100
AcDbEntity
  8
SEIHIN
100
AcDbCircle
 10
114.5803150094918
 20
201.9255272845118
 30
0.0
 40
2.0
100
AcDbArc
 50
270.0
 51
0.0
  0
ARC
  5
15C7
330
1A
100
AcDbEntity
  8
SEIHIN
100
AcDbCircle
 10
113.4327493024918
 20
201.9255272845118
 30
0.0
 40
2.0
100
AcDbArc
 50
270.0
 51
0.0
  0
LINE
  5
15C8
330
1A
100
AcDbEntity
  8
SEIHIN
100
AcDbLine
 10
115.1658767844551
 20
198.6976009245118
 30
0.0
 11
115.1658767844551
 21
199.6976009245118
 31
0.0
  0
ARC
  5
15C9
330
1A
100
AcDbEntity
  8
SEIHIN
100
AcDbCircle
 10
111.8415249944918
 20
204.0431569145118
 30
0.0
 40
2.0
100
AcDbArc
 50
270.0
 51
0.0
  0
LINE
  5
15CA
330
1A
100
AcDbEntity
  8
SEIHIN
100
AcDbLine
 10
106.1740319114918
 20
213.6976009645118
 30
0.0
 11
106.1740319114918
 21
214.1976009645118
 31
0.0
  0
LINE
  5
15CB
330
1A
100
AcDbEntity
  8
SEIHIN
100
AcDbLine
 10
115.1658767844551
 20
212.6976009645118
 30
0.0
 11
115.1658767844551
 21
213.6976009645118
 31
0.0
  0
ARC
  5
15CC
330
1A
100
AcDbEntity
  8
SEIHIN
100
AcDbCircle
 10
114.5803150094918
 20
210.4696745645118
 30
0.0
 40
2.0
100
AcDbArc
 50
0.0
 51
90.0
  0
ARC
  5
15CD
330
1A
100
AcDbEntity
  8
SEIHIN
100
AcDbCircle
 10
114.5803150094918
 20
210.4696745645118
 30
0.0
 40
2.0
100
AcDbArc
 50
0.0
 51
90.0
  0
ARC
  5
15CE
330
1A
100
AcDbEntity
  8
SEIHIN
100
AcDbCircle
 10
113.4327493024918
 20
210.4696745645118
 30
0.0
 40
2.0
100
AcDbArc
 50
0.0
 51
90.0
  0
ARC
  5
15CF
330
1A
100
AcDbEntity
  8
SEIHIN
100
AcDbCircle
 10
111.8415249944918
 20
208.3520449345118
 30
0.0
 40
2.000000014999998
100
AcDbArc
 50
0.0
 51
90.0
  0
ARC
  5
15D0
330
1A
100
AcDbEntity
  8
SEIHIN
100
AcDbCircle
 10
197.2506721196322
 20
206.1976009245118
 30
0.0
 40
3.25
100
AcDbArc
 50
112.6198649480406
 51
247.3801350519594
  0
LINE
  5
15D1
330
1A
100
AcDbEntity
  8
SEIHIN
100
AcDbLine
 10
192.9567692406698
 20
199.6976009245118
 30
0.0
 11
192.9567692406698
 21
198.6976009245118
 31
0.0
  0
LINE
  5
15D2
330
1A
100
AcDbEntity
  8
SEIHIN
100
AcDbLine
 10
196.0006721196322
 20
203.1976009245118
 30
0.0
 11
196.0006721196322
 21
199.6976009245118
 31
0.0
  0
LINE
  5
15D3
330
1A
100
AcDbEntity
  8
SEIHIN
100
AcDbLine
 10
192.9567692406698
 20
212.6976009645118
 30
0.0
 11
192.9567692406698
 21
213.6976009645118
 31
0.0
  0
LINE
  5
15D4
330
1A
100
AcDbEntity
  8
SEIHIN
100
AcDbLine
 10
196.0006721196322
 20
212.6976009645118
 30
0.0
 11
196.0006721196322
 21
209.1976009245118
 31
0.0
  0
DIMENSION
  5
15D5
330
1A
100
AcDbEntity
  8
SUNPOU
100
AcDbDimension
  2
*D5
 10
227.8538720398892
 20
78.46903439128958
 30
0.0
 11
225.3538720398892
 21
104.4690343906082
 31
0.0
 70
    32
 71
     5
 42
51.99999999863708
  3
STANDARD
100
AcDbAlignedDimension
 13
201.9620319494918
 23
130.4690343899267
 33
0.0
 14
211.4620319494918
 24
78.4690343912896
 34
0.0
 50
90.0
100
AcDbRotatedDimension
1001
ACAD
1000
DSTYLE
1002
{
1070
    41
1040
3.0
1070
    42
1040
3.0
1070
    43
1040
7.0
1070
    44
1040
1.5
1070
    73
1070
     0
1070
    74
1070
     0
1070
    77
1070
     3
1070
   140
1040
3.0
1070
   141
1040
3.0
1070
   147
1040
1.0
1070
   172
1070
     1
1070
   173
1070
     1
1070
   176
1070
   256
1070
   177
1070
   256
1070
   178
1070
   256
1070
   271
1070
     0
1070
   272
1070
     0
1070
   341
1005
B2
1070
     6
1000
OPEN
1070
     7
1000
OPEN
1002
}
  0
DIMENSION
  5
15D6
330
1A
100
AcDbEntity
  8
SUNPOU
100
AcDbDimension
  2
*D6
 10
246.4620319294918
 20
156.7491211758575
 30
0.0
 11
228.9620319394918
 21
159.2491211758575
 31
0.0
 70
    32
 71
     5
 42
34.99999997999998
  3
STANDARD
100
AcDbAlignedDimension
 13
211.4620319494918
 23
111.4690343912896
 33
0.0
 14
246.4620319294918
 24
111.4690343912896
 34
0.0
100
AcDbRotatedDimension
1001
ACAD
1000
DSTYLE
1002
{
1070
    41
1040
3.0
1070
    42
1040
3.0
1070
    43
1040
7.0
1070
    44
1040
1.5
1070
    73
1070
     0
1070
    74
1070
     0
1070
    77
1070
     3
1070
   140
1040
3.0
1070
   141
1040
3.0
1070
   147
1040
1.0
1070
   172
1070
     1
1070
   173
1070
     1
1070
   176
1070
   256
1070
   177
1070
   256
1070
   178
1070
   256
1070
   271
1070
     0
1070
   272
1070
     0
1070
   341
1005
B2
1070
     6
1000
OPEN
1070
     7
1000
OPEN
1002
}
  0
ARC
  5
15D7
330
1A
100
AcDbEntity
  8
SEIHIN
  6
DASHED
 62
     2
100
AcDbCircle
 10
236.9620319494918
 20
120.4690343912896
 30
0.0
 40
10.00000000622232
100
AcDbArc
 50
25.84193309966937
 51
170.7918456273464
  0
LWPOLYLINE
  5
15D8
330
1A
100
AcDbEntity
  8
SUNPOU
100
AcDbPolyline
 90
        3
 70
     0
 43
0.0
 10
307.7773428537723
 20
112.8205397932143
 10
294.4570338682618
 20
138.7845263460324
 10
276.4708900935309
 20
138.7845263460324
1001
ACAD
1000
DSTYLE
1002
{
1070
    41
1040
3.0
1070
    42
1040
3.0
1070
    43
1040
7.0
1070
    44
1040
1.5
1070
    73
1070
     0
1070
    74
1070
     0
1070
    77
1070
     0
1070
   140
1040
3.0
1070
   141
1040
3.0
1070
   147
1040
1.0
1070
   172
1070
     1
1070
   173
1070
     1
1070
   176
1070
   256
1070
   177
1070
   256
1070
   178
1070
   256
1070
   271
1070
     0
1070
   272
1070
     0
1070
   341
1005
B2
1070
   343
1005
B2
1070
   344
1005
B2
1002
}
  0
DIMENSION
  5
15D9
330
1A
100
AcDbEntity
  8
SUNPOU
100
AcDbDimension
  2
*D7
 10
358.3325387709965
 20
165.252201011141
 30
0.0
 11
331.8325387709965
 21
167.752201011141
 31
0.0
 70
    32
 71
     5
 42
53.0
  3
STANDARD
100
AcDbAlignedDimension
 13
305.3325387709965
 23
112.2781092212896
 33
0.0
 14
358.3325387709965
 24
112.2781092212896
 34
0.0
100
AcDbRotatedDimension
1001
ACAD
1000
DSTYLE
1002
{
1070
    41
1040
3.0
1070
    42
1040
3.0
1070
    43
1040
7.0
1070
    44
1040
1.5
1070
    73
1070
     0
1070
    74
1070
     0
1070
    77
1070
     3
1070
   140
1040
3.0
1070
   141
1040
3.0
1070
   147
1040
1.0
1070
   172
1070
     1
1070
   173
1070
     1
1070
   176
1070
   256
1070
   177
1070
   256
1070
   178
1070
   256
1070
   271
1070
     0
1070
   272
1070
     0
1070
   341
1005
B2
1070
     6
1000
OPEN
1070
     7
1000
OPEN
1002
}
  0
DIMENSION
  5
15DA
330
1A
100
AcDbEntity
  8
SUNPOU
100
AcDbDimension
  2
*D8
 10
352.8325387709965
 20
157.3118984474985
 30
0.0
 11
331.8325387709965
 21
159.8118984474985
 31
0.0
 70
    32
 71
     5
 42
42.0
  3
STANDARD
100
AcDbAlignedDimension
 13
310.8325387709965
 23
114.878109193017
 33
0.0
 14
352.8325387709965
 24
114.878109193017
 34
0.0
100
AcDbRotatedDimension
1001
ACAD
1000
DSTYLE
1002
{
1070
    41
1040
3.0
1070
    42
1040
3.0
1070
    43
1040
7.0
1070
    44
1040
1.5
1070
    73
1070
     0
1070
    74
1070
     0
1070
    77
1070
     3
1070
   140
1040
3.0
1070
   141
1040
3.0
1070
   147
1040
1.0
1070
   172
1070
     1
1070
   173
1070
     1
1070
   176
1070
   256
1070
   177
1070
   256
1070
   178
1070
   256
1070
   271
1070
     0
1070
   272
1070
     0
1070
   341
1005
B2
1070
     6
1000
OPEN
1070
     7
1000
OPEN
1002
}
  0
DIMENSION
  5
15DB
330
1A
100
AcDbEntity
  8
SUNPOU
100
AcDbDimension
  2
*D9
 10
351.3325387709965
 20
148.890365897891
 30
0.0
 11
331.8325387709965
 21
151.390365897891
 31
0.0
 70
    32
 71
     5
 42
39.0
  3
STANDARD
100
AcDbAlignedDimension
 13
312.3325387709965
 23
107.3084154160175
 33
0.0
 14
351.3325387709965
 24
107.3084154160175
 34
0.0
100
AcDbRotatedDimension
1001
ACAD
1000
DSTYLE
1002
{
1070
    41
1040
3.0
1070
    42
1040
3.0
1070
    43
1040
7.0
1070
    44
1040
1.5
1070
    73
1070
     0
1070
    74
1070
     0
1070
    77
1070
     3
1070
   140
1040
3.0
1070
   141
1040
3.0
1070
   147
1040
1.0
1070
   172
1070
     1
1070
   173
1070
     1
1070
   176
1070
   256
1070
   177
1070
   256
1070
   178
1070
   256
1070
   271
1070
     0
1070
   272
1070
     0
1070
   341
1005
B2
1070
     6
1000
OPEN
1070
     7
1000
OPEN
1002
}
  0
LINE
  5
15DC
330
1A
100
AcDbEntity
  8
CENTER L
100
AcDbLine
 10
331.8325387709965
 20
137.2781092212896
 30
0.0
 11
331.8325387709965
 21
71.27810922128958
 31
0.0
  0
ARC
  5
15DD
330
1A
100
AcDbEntity
  8
SEIHIN
100
AcDbCircle
 10
331.8325387709965
 20
125.2638890112896
 30
0.0
 40
3.00000000000002
100
AcDbArc
 50
0.0000068754932962
 51
179.9999938884497
  0
LINE
  5
15DE
330
1A
100
AcDbEntity
  8
SEIHIN
100
AcDbLine
 10
338.3325387709965
 20
83.1914110412896
 30
0.0
 11
338.3325387709965
 21
130.2781092212896
 31
0.0
  0
LINE
  5
15DF
330
1A
100
AcDbEntity
  8
SEIHIN
100
AcDbLine
 10
325.3325387709965
 20
83.1914110412896
 30
0.0
 11
325.3325387709965
 21
130.2781092212896
 31
0.0
  0
LINE
  5
15E0
330
1A
100
AcDbEntity
  8
SEIHIN
100
AcDbLine
 10
339.3325387709965
 20
83.1914110412896
 30
0.0
 11
339.3325387709965
 21
130.2781092212896
 31
0.0
  0
LINE
  5
15E1
330
1A
100
AcDbEntity
  8
SEIHIN
100
AcDbLine
 10
324.3325387709965
 20
83.1914110412896
 30
0.0
 11
324.3325387709965
 21
130.2781092212896
 31
0.0
  0
CIRCLE
  5
15E2
330
1A
100
AcDbEntity
  8
SEIHIN
100
AcDbCircle
 10
331.8325387709965
 20
96.27810922128958
 30
0.0
 40
2.999999969510066
  0
LINE
  5
15E3
330
1A
100
AcDbEntity
  8
SEIHIN
100
AcDbLine
 10
336.3325387709965
 20
81.1914110412896
 30
0.0
 11
327.3325387709965
 21
81.1914110412896
 31
0.0
  0
LINE
  5
15E4
330
1A
100
AcDbEntity
  8
SEIHIN
100
AcDbLine
 10
356.3325387709965
 20
78.27810922128958
 30
0.0
 11
307.3325387709965
 21
78.27810922128958
 31
0.0
  0
ARC
  5
15E5
330
1A
100
AcDbEntity
  8
SEIHIN
100
AcDbCircle
 10
331.8325387709965
 20
96.27810922128958
 30
0.0
 40
5.024896822470277
100
AcDbArc
 50
126.6572807698119
 51
53.34271923018806
  0
DIMENSION
  5
15E6
330
1A
100
AcDbEntity
  8
SUNPOU
100
AcDbDimension
  2
*D10
 10
220.4265305261704
 20
78.4690343912896
 30
0.0
 11
217.9265305261704
 21
96.46903439128963
 31
0.0
 70
    32
 71
     5
 42
36.0
  3
STANDARD
100
AcDbAlignedDimension
 13
211.4620319494918
 23
114.4690343912896
 33
0.0
 14
211.4620319494918
 24
78.4690343912896
 34
0.0
 50
90.0
100
AcDbRotatedDimension
1001
ACAD
1000
DSTYLE
1002
{
1070
    41
1040
3.0
1070
    42
1040
3.0
1070
    43
1040
7.0
1070
    44
1040
1.5
1070
    73
1070
     0
1070
    74
1070
     0
1070
    77
1070
     3
1070
   140
1040
3.0
1070
   141
1040
3.0
1070
   147
1040
1.0
1070
   172
1070
     1
1070
   173
1070
     1
1070
   176
1070
   256
1070
   177
1070
   256
1070
   178
1070
   256
1070
   271
1070
     0
1070
   272
1070
     0
1070
   341
1005
B2
1070
     6
1000
OPEN
1070
     7
1000
OPEN
1002
}
  0
LINE
  5
15E7
330
1A
100
AcDbEntity
  8
SEIHIN
100
AcDbLine
 10
211.4620319494918
 20
114.4690343912896
 30
0.0
 11
211.4620319494918
 21
78.4690343912896
 31
0.0
  0
LINE
  5
15E8
330
1A
100
AcDbEntity
  8
SEIHIN
100
AcDbLine
 10
204.7620319494918
 20
78.4690343912896
 30
0.0
 11
204.7620319494918
 21
114.4690343912896
 31
0.0
  0
LINE
  5
15E9
330
1A
100
AcDbEntity
  8
SEIHIN
100
AcDbLine
 10
210.2620319494918
 20
114.4690343912896
 30
0.0
 11
210.2620319494918
 21
78.4690343912896
 31
0.0
  0
LINE
  5
15EA
330
1A
100
AcDbEntity
  8
SEIHIN
  6
DASHED
 62
     2
100
AcDbLine
 10
245.2620319294918
 20
114.4690343912896
 30
0.0
 11
245.2620319294918
 21
78.4690343912896
 31
0.0
  0
LINE
  5
15EB
330
1A
100
AcDbEntity
  8
SEIHIN
  6
DASHED
 62
     2
100
AcDbLine
 10
239.7620319494918
 20
78.4690343912896
 30
0.0
 11
239.7620319494918
 21
114.4690343912896
 31
0.0
  0
LINE
  5
15EC
330
1A
100
AcDbEntity
  8
SEIHIN
  6
DASHED
 62
     2
100
AcDbLine
 10
246.4620319294918
 20
114.4690343912896
 30
0.0
 11
246.4620319294918
 21
78.4690343912896
 31
0.0
  0
LINE
  5
15ED
330
1A
100
AcDbEntity
  8
SEIHIN
100
AcDbLine
 10
211.4620319494918
 20
78.4690343912896
 30
0.0
 11
204.7620319494918
 21
78.4690343912896
 31
0.0
  0
LINE
  5
15EE
330
1A
100
AcDbEntity
  8
SEIHIN
  6
DASHED
 62
     2
100
AcDbLine
 10
246.4620319294918
 20
78.4690343912896
 30
0.0
 11
239.7620319494918
 21
78.4690343912896
 31
0.0
  0
ARC
  5
15EF
330
1A
100
AcDbEntity
  8
SEIHIN
  6
DASHED
 62
     2
100
AcDbCircle
 10
236.9620319494918
 20
120.4690343912896
 30
0.0
 40
3.999999988352069
100
AcDbArc
 50
359.9999928380284
 51
170.7918456747325
  0
LINE
  5
15F0
330
1A
100
AcDbEntity
  8
CENTER L
100
AcDbLine
 10
249.8018154294918
 20
84.4690343912896
 30
0.0
 11
234.6018154294918
 21
84.4690343912896
 31
0.0
  0
LINE
  5
15F1
330
1A
100
AcDbEntity
  8
CENTER L
100
AcDbLine
 10
249.8018154294918
 20
100.9690343912896
 30
0.0
 11
234.6018154294918
 21
100.9690343912896
 31
0.0
  0
LINE
  5
15F2
330
1A
100
AcDbEntity
  8
CENTER L
100
AcDbLine
 10
249.8018154294918
 20
109.4690343912896
 30
0.0
 11
234.6018154294918
 21
109.4690343912896
 31
0.0
  0
LINE
  5
15F3
330
1A
100
AcDbEntity
  8
SEIHIN
100
AcDbLine
 10
207.2620319494918
 20
86.4690343912896
 30
0.0
 11
210.2620319494918
 21
89.4690343912896
 31
0.0
  0
LINE
  5
15F4
330
1A
100
AcDbEntity
  8
SEIHIN
100
AcDbLine
 10
207.2620319494918
 20
86.4690343912896
 30
0.0
 11
210.2620319494918
 21
86.4690343912896
 31
0.0
  0
LINE
  5
15F5
330
1A
100
AcDbEntity
  8
SEIHIN
100
AcDbLine
 10
207.2620319494918
 20
86.4690343912896
 30
0.0
 11
210.2620319494918
 21
83.4690343912896
 31
0.0
  0
LINE
  5
15F6
330
1A
100
AcDbEntity
  8
SEIHIN
100
AcDbLine
 10
207.2620319494918
 20
106.4690343912896
 30
0.0
 11
210.2620319494918
 21
106.4690343912896
 31
0.0
  0
LINE
  5
15F7
330
1A
100
AcDbEntity
  8
SEIHIN
100
AcDbLine
 10
207.2620319494918
 20
106.4690343912896
 30
0.0
 11
210.2620319494918
 21
103.4690343912896
 31
0.0
  0
LINE
  5
15F8
330
1A
100
AcDbEntity
  8
SEIHIN
100
AcDbLine
 10
207.2620319494918
 20
106.4690343912896
 30
0.0
 11
210.2620319494918
 21
109.4690343912896
 31
0.0
  0
LINE
  5
15F9
330
1A
100
AcDbEntity
  8
SEIHIN
100
AcDbLine
 10
204.7620319494918
 20
114.4690343912896
 30
0.0
 11
211.4620319494918
 21
114.4690343912896
 31
0.0
  0
LINE
  5
15FA
330
1A
100
AcDbEntity
  8
SEIHIN
100
AcDbLine
 10
205.9620319494918
 20
120.4690338912896
 30
0.0
 11
205.9620319494918
 21
114.4690343912896
 31
0.0
  0
LINE
  5
15FB
330
1A
100
AcDbEntity
  8
SEIHIN
100
AcDbLine
 10
210.9620319494918
 20
124.8279333317035
 30
0.0
 11
210.9620319494918
 21
114.4690343912896
 31
0.0
  0
LINE
  5
15FC
330
1A
100
AcDbEntity
  8
SEIHIN
  6
DASHED
 62
     2
100
AcDbLine
 10
239.7620319494918
 20
114.4690343912896
 30
0.0
 11
246.4620319294918
 21
114.4690343912896
 31
0.0
  0
LINE
  5
15FD
330
1A
100
AcDbEntity
  8
SEIHIN
  6
DASHED
 62
     2
100
AcDbLine
 10
240.9620319294918
 20
120.4690338912896
 30
0.0
 11
240.9620319294918
 21
114.4690343912896
 31
0.0
  0
LINE
  5
15FE
330
1A
100
AcDbEntity
  8
SEIHIN
  6
DASHED
 62
     2
100
AcDbLine
 10
245.9620319294918
 20
124.8279333904001
 30
0.0
 11
245.9620319294918
 21
114.4690343912896
 31
0.0
  0
DIMENSION
  5
15FF
330
1A
100
AcDbEntity
  8
SUNPOU
100
AcDbDimension
  2
*D11
 10
277.3591842052526
 20
78.2781092212896
 30
0.0
 11
274.8591842052526
 21
96.27810922128964
 31
0.0
 70
    32
 71
     5
 42
36.0
  3
STANDARD
100
AcDbAlignedDimension
 13
307.3325387709965
 23
114.2781092212896
 33
0.0
 14
307.3325387709965
 24
78.27810922128958
 34
0.0
 50
90.0
100
AcDbRotatedDimension
1001
ACAD
1000
DSTYLE
1002
{
1070
    41
1040
3.0
1070
    42
1040
3.0
1070
    43
1040
7.0
1070
    44
1040
1.5
1070
    73
1070
     0
1070
    74
1070
     0
1070
    77
1070
     3
1070
   140
1040
3.0
1070
   141
1040
3.0
1070
   147
1040
1.0
1070
   172
1070
     1
1070
   173
1070
     1
1070
   176
1070
   256
1070
   177
1070
   256
1070
   178
1070
   256
1070
   271
1070
     0
1070
   272
1070
     0
1070
   341
1005
B2
1070
     6
1000
OPEN
1070
     7
1000
OPEN
1002
}
  0
DIMENSION
  5
1600
330
1A
100
AcDbEntity
  8
SUNPOU
100
AcDbDimension
  2
*D12
 10
287.2325895678461
 20
78.2781092212896
 30
0.0
 11
284.7325895678461
 21
81.02810922128964
 31
0.0
 70
    32
 71
     5
 42
5.5
  3
STANDARD
100
AcDbAlignedDimension
 13
304.7325387992691
 23
83.77810922128958
 33
0.0
 14
307.3325387709965
 24
78.27810922128958
 34
0.0
 50
90.0
100
AcDbRotatedDimension
1001
ACAD
1000
DSTYLE
1002
{
1070
    41
1040
3.0
1070
    42
1040
3.0
1070
    43
1040
7.0
1070
    44
1040
1.5
1070
    73
1070
     0
1070
    74
1070
     0
1070
    77
1070
     3
1070
   140
1040
3.0
1070
   141
1040
3.0
1070
   147
1040
1.0
1070
   172
1070
     1
1070
   173
1070
     1
1070
   176
1070
   256
1070
   177
1070
   256
1070
   178
1070
   256
1070
   271
1070
     0
1070
   272
1070
     0
1070
   341
1005
B2
1070
     6
1000
OPEN
1070
     7
1000
OPEN
1002
}
  0
LINE
  5
1601
330
1A
100
AcDbEntity
  8
CENTER L
100
AcDbLine
 10
310.8325387709965
 20
77.6781092495622
 30
0.0
 11
310.8325387709965
 21
89.87810919301697
 31
0.0
  0
LINE
  5
1602
330
1A
100
AcDbEntity
  8
SEIHIN
100
AcDbLine
 10
323.4614243709965
 20
84.77810922128958
 30
0.0
 11
323.4614243709965
 21
78.27810922128958
 31
0.0
  0
LINE
  5
1603
330
1A
100
AcDbEntity
  8
SEIHIN
100
AcDbLine
 10
324.3325387709965
 20
84.77810922128958
 30
0.0
 11
324.3325387709965
 21
78.27810922128958
 31
0.0
  0
ARC
  5
1604
330
1A
100
AcDbEntity
  8
SEIHIN
100
AcDbCircle
 10
307.3325387709965
 20
80.27810922128958
 30
0.0
 40
2.0
100
AcDbArc
 50
180.0
 51
270.0
  0
DIMENSION
  5
1605
330
1A
100
AcDbEntity
  8
SUNPOU
100
AcDbDimension
  2
*D13
 10
287.2325895678462
 20
108.7781092212896
 30
0.0
 11
284.7325895678462
 21
111.5281092212896
 31
0.0
 70
    32
 71
     5
 42
5.5
  3
STANDARD
100
AcDbAlignedDimension
 13
307.3325387709965
 23
114.2781092212896
 33
0.0
 14
304.7325387992691
 24
108.7781092212896
 34
0.0
 50
90.0
100
AcDbRotatedDimension
1001
ACAD
1000
DSTYLE
1002
{
1070
    41
1040
3.0
1070
    42
1040
3.0
1070
    43
1040
7.0
1070
    44
1040
1.5
1070
    73
1070
     0
1070
    74
1070
     0
1070
    77
1070
     3
1070
   140
1040
3.0
1070
   141
1040
3.0
1070
   147
1040
1.0
1070
   172
1070
     1
1070
   173
1070
     1
1070
   176
1070
   256
1070
   177
1070
   256
1070
   178
1070
   256
1070
   271
1070
     0
1070
   272
1070
     0
1070
   341
1005
B2
1070
     6
1000
OPEN
1070
     7
1000
OPEN
1002
}
  0
LINE
  5
1606
330
1A
100
AcDbEntity
  8
CENTER L
100
AcDbLine
 10
310.8325387709965
 20
102.6781092495622
 30
0.0
 11
310.8325387709965
 21
114.878109193017
 31
0.0
  0
LINE
  5
1607
330
1A
100
AcDbEntity
  8
CENTER L
100
AcDbLine
 10
312.3325387709965
 20
93.02810924866351
 30
0.0
 11
312.3325387709965
 21
107.5281091939157
 31
0.0
  0
CIRCLE
  5
1608
330
1A
100
AcDbEntity
  8
SEIHIN
100
AcDbCircle
 10
312.3325387709965
 20
100.2781092212896
 30
0.0
 40
3.249999972626076
  0
LINE
  5
1609
330
1A
100
AcDbEntity
  8
SEIHIN
100
AcDbLine
 10
323.4614243709965
 20
104.7781092212896
 30
0.0
 11
323.4614243709965
 21
87.77810922128958
 31
0.0
  0
LINE
  5
160A
330
1A
100
AcDbEntity
  8
SEIHIN
100
AcDbLine
 10
305.3325387709965
 20
112.2781092212896
 30
0.0
 11
305.3325387709965
 21
80.27810922128958
 31
0.0
  0
LINE
  5
160B
330
1A
100
AcDbEntity
  8
SEIHIN
100
AcDbLine
 10
324.3325387709965
 20
104.7781092212896
 30
0.0
 11
324.3325387709965
 21
87.77810922128958
 31
0.0
  0
LINE
  5
160C
330
1A
100
AcDbEntity
  8
SEIHIN
100
AcDbLine
 10
328.8325387709965
 20
125.2638893312896
 30
0.0
 11
328.8325387709965
 21
100.3091870022896
 31
0.0
  0
LINE
  5
160D
330
1A
100
AcDbEntity
  8
CENTER L
100
AcDbLine
 10
316.9325387427239
 20
83.77810922128958
 30
0.0
 11
304.7325387992691
 21
83.77810922128958
 31
0.0
  0
LINE
  5
160E
330
1A
100
AcDbEntity
  8
CENTER L
100
AcDbLine
 10
319.5825387436226
 20
100.2781092212896
 30
0.0
 11
305.0825387983704
 21
100.2781092212896
 31
0.0
  0
CIRCLE
  5
160F
330
1A
100
AcDbEntity
  8
SEIHIN
100
AcDbCircle
 10
310.8325387709965
 20
83.77810922128958
 30
0.0
 40
2.099999986565482
  0
LINE
  5
1610
330
1A
100
AcDbEntity
  8
SEIHIN
100
AcDbLine
 10
320.8543006709965
 20
84.77810922128958
 30
0.0
 11
325.3325387709965
 21
84.77810922128958
 31
0.0
  0
LINE
  5
1611
330
1A
100
AcDbEntity
  8
SEIHIN
100
AcDbLine
 10
324.3325387709965
 20
87.77810922128958
 30
0.0
 11
324.3325387709965
 21
84.77810922128958
 31
0.0
  0
LINE
  5
1612
330
1A
100
AcDbEntity
  8
SEIHIN
100
AcDbLine
 10
320.8543006709965
 20
87.77810922128958
 30
0.0
 11
320.8543006709965
 21
84.77810922128958
 31
0.0
  0
LINE
  5
1613
330
1A
100
AcDbEntity
  8
SEIHIN
100
AcDbLine
 10
320.8543006709965
 20
87.77810922128958
 30
0.0
 11
324.3325387709965
 21
87.77810922128958
 31
0.0
  0
ARC
  5
1614
330
1A
100
AcDbEntity
  8
SEIHIN
100
AcDbCircle
 10
327.3325387709965
 20
83.1914110412896
 30
0.0
 40
2.0
100
AcDbArc
 50
180.0
 51
270.0
  0
LINE
  5
1615
330
1A
100
AcDbEntity
  8
CENTER L
100
AcDbLine
 10
316.9325387427239
 20
108.7781092212896
 30
0.0
 11
304.7325387992691
 21
108.7781092212896
 31
0.0
  0
LINE
  5
1616
330
1A
100
AcDbEntity
  8
SEIHIN
100
AcDbLine
 10
324.3325387709965
 20
114.2781092212896
 30
0.0
 11
307.3325387709965
 21
114.2781092212896
 31
0.0
  0
ARC
  5
1617
330
1A
100
AcDbEntity
  8
SEIHIN
100
AcDbCircle
 10
307.3325387709965
 20
112.2781092212896
 30
0.0
 40
2.0
100
AcDbArc
 50
90.0
 51
180.0
  0
INSERT
  5
1618
330
1A
100
AcDbEntity
  8
SUNPOU
100
AcDbBlockReference
  2
_OPEN
 10
309.1467359174415
 20
110.1513146927076
 30
0.0
 41
2.999999999999999
 42
3.0
 43
3.0
 50
297.15919302573
1001
ACAD
1000
DSTYLE
1002
{
1070
    41
1040
3.0
1070
    42
1040
3.0
1070
    43
1040
7.0
1070
    44
1040
1.5
1070
    73
1070
     0
1070
    74
1070
     0
1070
    77
1070
     0
1070
   140
1040
3.0
1070
   141
1040
3.0
1070
   147
1040
1.0
1070
   172
1070
     1
1070
   173
1070
     1
1070
   176
1070
   256
1070
   177
1070
   256
1070
   178
1070
   256
1070
   271
1070
     0
1070
   272
1070
     0
1070
   341
1005
B2
1070
   343
1005
B2
1070
   344
1005
B2
1002
}
  0
CIRCLE
  5
1619
330
1A
100
AcDbEntity
  8
SEIHIN
100
AcDbCircle
 10
310.8325387709965
 20
108.7781092212896
 30
0.0
 40
2.099999971727393
  0
LINE
  5
161A
330
1A
100
AcDbEntity
  8
SEIHIN
100
AcDbLine
 10
323.4614243709965
 20
114.2781092212896
 30
0.0
 11
323.4614243709965
 21
107.7781092212896
 31
0.0
  0
LINE
  5
161B
330
1A
100
AcDbEntity
  8
SEIHIN
100
AcDbLine
 10
324.3325387709965
 20
114.2781092212896
 30
0.0
 11
324.3325387709965
 21
107.7781092212896
 31
0.0
  0
LINE
  5
161C
330
1A
100
AcDbEntity
  8
SEIHIN
100
AcDbLine
 10
324.3325387709965
 20
107.7781092212896
 30
0.0
 11
320.8543006709965
 21
107.7781092212896
 31
0.0
  0
LINE
  5
161D
330
1A
100
AcDbEntity
  8
SEIHIN
100
AcDbLine
 10
324.3325387709965
 20
104.7781092212896
 30
0.0
 11
320.8543006709965
 21
104.7781092212896
 31
0.0
  0
LINE
  5
161E
330
1A
100
AcDbEntity
  8
SEIHIN
100
AcDbLine
 10
320.8543006709965
 20
107.7781092212896
 30
0.0
 11
320.8543006709965
 21
104.7781092212896
 31
0.0
  0
LINE
  5
161F
330
1A
100
AcDbEntity
  8
SEIHIN
100
AcDbLine
 10
324.3325387709965
 20
107.7781092212896
 30
0.0
 11
324.3325387709965
 21
104.7781092212896
 31
0.0
  0
LINE
  5
1620
330
1A
100
AcDbEntity
  8
SEIHIN
100
AcDbLine
 10
324.3325387709965
 20
124.7348339590657
 30
0.0
 11
325.3325387709965
 21
124.7348339590657
 31
0.0
  0
LINE
  5
1621
330
1A
100
AcDbEntity
  8
SEIHIN
100
AcDbLine
 10
325.3325387709965
 20
125.2638890112896
 30
0.0
 11
328.8325387709965
 21
125.2638890112896
 31
0.0
  0
LINE
  5
1622
330
1A
100
AcDbEntity
  8
CENTER L
100
AcDbLine
 10
352.8325387709965
 20
77.6781092495622
 30
0.0
 11
352.8325387709965
 21
89.87810919301697
 31
0.0
  0
ARC
  5
1623
330
1A
100
AcDbEntity
  8
SEIHIN
100
AcDbCircle
 10
356.3325387709965
 20
80.27810922128958
 30
0.0
 40
2.0
100
AcDbArc
 50
270.0
 51
0.0
  0
LINE
  5
1624
330
1A
100
AcDbEntity
  8
SEIHIN
100
AcDbLine
 10
339.3325387709965
 20
84.77810922128958
 30
0.0
 11
339.3325387709965
 21
78.27810922128958
 31
0.0
  0
LINE
  5
1625
330
1A
100
AcDbEntity
  8
SEIHIN
100
AcDbLine
 10
340.2036531709965
 20
84.77810922128958
 30
0.0
 11
340.2036531709965
 21
78.27810922128958
 31
0.0
  0
LWPOLYLINE
  5
1626
330
1A
100
AcDbEntity
  8
SUNPOU
100
AcDbPolyline
 90
        3
 70
     0
 43
0.0
 10
355.3735851908813
 20
104.795464895295
 10
364.6593449249544
 20
124.4697950641537
 10
379.8031205709467
 20
124.4697950641537
1001
ACAD
1000
DSTYLE
1002
{
1070
    41
1040
3.0
1070
    42
1040
3.0
1070
    43
1040
7.0
1070
    44
1040
1.5
1070
    73
1070
     0
1070
    74
1070
     0
1070
    77
1070
     0
1070
   140
1040
3.0
1070
   141
1040
3.0
1070
   147
1040
1.0
1070
   172
1070
     1
1070
   173
1070
     1
1070
   176
1070
   256
1070
   177
1070
   256
1070
   178
1070
   256
1070
   271
1070
     0
1070
   272
1070
     0
1070
   341
1005
B2
1070
   343
1005
B2
1070
   344
1005
B2
1002
}
  0
DIMENSION
  5
1627
330
1A
100
AcDbEntity
  8
SUNPOU
100
AcDbDimension
  2
*D14
 10
374.4075451516762
 20
100.2781092212896
 30
0.0
 11
371.9075451516762
 21
107.2781092212896
 31
0.0
 70
    32
 71
     5
 42
14.0
  3
STANDARD
100
AcDbAlignedDimension
 13
356.3325387709965
 23
114.2781092212896
 33
0.0
 14
358.3325387709965
 24
100.2781092212896
 34
0.0
 50
90.0
100
AcDbRotatedDimension
1001
ACAD
1000
DSTYLE
1002
{
1070
    41
1040
3.0
1070
    42
1040
3.0
1070
    43
1040
7.0
1070
    44
1040
1.5
1070
    73
1070
     0
1070
    74
1070
     0
1070
    77
1070
     3
1070
   140
1040
3.0
1070
   141
1040
3.0
1070
   147
1040
1.0
1070
   172
1070
     1
1070
   173
1070
     1
1070
   176
1070
   256
1070
   177
1070
   256
1070
   178
1070
   256
1070
   271
1070
     0
1070
   272
1070
     0
1070
   341
1005
B2
1070
     6
1000
OPEN
1070
     7
1000
OPEN
1002
}
  0
INSERT
  5
1628
330
1A
100
AcDbEntity
  8
SUNPOU
100
AcDbBlockReference
  2
_OPEN
 10
354.093118358174
 20
102.0824583176516
 30
0.0
 41
3.000000000000005
 42
3.0
 43
3.0
 50
244.7339377342674
1001
ACAD
1000
DSTYLE
1002
{
1070
    41
1040
3.0
1070
    42
1040
3.0
1070
    43
1040
7.0
1070
    44
1040
1.5
1070
    73
1070
     0
1070
    74
1070
     0
1070
    77
1070
     0
1070
   140
1040
3.0
1070
   141
1040
3.0
1070
   147
1040
1.0
1070
   172
1070
     1
1070
   173
1070
     1
1070
   176
1070
   256
1070
   177
1070
   256
1070
   178
1070
   256
1070
   271
1070
     0
1070
   272
1070
     0
1070
   341
1005
B2
1070
   343
1005
B2
1070
   344
1005
B2
1002
}
  0
LINE
  5
1629
330
1A
100
AcDbEntity
  8
CENTER L
100
AcDbLine
 10
351.3325387709965
 20
93.02810924866351
 30
0.0
 11
351.3325387709965
 21
107.5281091939157
 31
0.0
  0
LINE
  5
162A
330
1A
100
AcDbEntity
  8
CENTER L
100
AcDbLine
 10
352.8325387709965
 20
102.6781092495622
 30
0.0
 11
352.8325387709965
 21
114.878109193017
 31
0.0
  0
CIRCLE
  5
162B
330
1A
100
AcDbEntity
  8
SEIHIN
100
AcDbCircle
 10
351.3325387709965
 20
100.2781092212896
 30
0.0
 40
3.249999972626096
  0
LINE
  5
162C
330
1A
100
AcDbEntity
  8
SEIHIN
100
AcDbLine
 10
340.2036531709965
 20
104.7781092212896
 30
0.0
 11
340.2036531709965
 21
87.77810922128958
 31
0.0
  0
LINE
  5
162D
330
1A
100
AcDbEntity
  8
SEIHIN
100
AcDbLine
 10
339.3325387709965
 20
104.7781092212896
 30
0.0
 11
339.3325387709965
 21
87.77810922128958
 31
0.0
  0
LINE
  5
162E
330
1A
100
AcDbEntity
  8
SEIHIN
100
AcDbLine
 10
358.3325387709965
 20
112.2781092212896
 30
0.0
 11
358.3325387709965
 21
80.27810922128958
 31
0.0
  0
LINE
  5
162F
330
1A
100
AcDbEntity
  8
SEIHIN
100
AcDbLine
 10
334.8325387709965
 20
125.2638893712896
 30
0.0
 11
334.8325387709965
 21
100.3091870022896
 31
0.0
  0
LINE
  5
1630
330
1A
100
AcDbEntity
  8
CENTER L
100
AcDbLine
 10
358.5825387436226
 20
100.2781092212896
 30
0.0
 11
344.0825387983704
 21
100.2781092212896
 31
0.0
  0
LINE
  5
1631
330
1A
100
AcDbEntity
  8
CENTER L
100
AcDbLine
 10
358.9325387427239
 20
83.77810922128958
 30
0.0
 11
346.7325387992691
 21
83.77810922128958
 31
0.0
  0
LINE
  5
1632
330
1A
100
AcDbEntity
  8
SEIHIN
100
AcDbLine
 10
342.8107768709965
 20
84.77810922128958
 30
0.0
 11
338.3325387709965
 21
84.77810922128958
 31
0.0
  0
LINE
  5
1633
330
1A
100
AcDbEntity
  8
SEIHIN
100
AcDbLine
 10
342.8107768709965
 20
87.77810922128958
 30
0.0
 11
339.3325387709965
 21
87.77810922128958
 31
0.0
  0
LINE
  5
1634
330
1A
100
AcDbEntity
  8
SEIHIN
100
AcDbLine
 10
339.3325387709965
 20
87.77810922128958
 30
0.0
 11
339.3325387709965
 21
84.77810922128958
 31
0.0
  0
ARC
  5
1635
330
1A
100
AcDbEntity
  8
SEIHIN
100
AcDbCircle
 10
336.3325387709965
 20
83.1914110412896
 30
0.0
 40
2.0
100
AcDbArc
 50
270.0
 51
0.0
  0
LINE
  5
1636
330
1A
100
AcDbEntity
  8
SEIHIN
100
AcDbLine
 10
342.8107768709965
 20
87.77810922128958
 30
0.0
 11
342.8107768709965
 21
84.77810922128958
 31
0.0
  0
CIRCLE
  5
1637
330
1A
100
AcDbEntity
  8
SEIHIN
100
AcDbCircle
 10
352.8325387709965
 20
83.77810922128958
 30
0.0
 40
2.099999986565493
  0
LINE
  5
1638
330
1A
100
AcDbEntity
  8
CENTER L
100
AcDbLine
 10
358.9325387427239
 20
108.7781092212896
 30
0.0
 11
346.7325387992691
 21
108.7781092212896
 31
0.0
  0
LINE
  5
1639
330
1A
100
AcDbEntity
  8
SEIHIN
100
AcDbLine
 10
339.3325387709965
 20
114.2781092212896
 30
0.0
 11
356.3325387709965
 21
114.2781092212896
 31
0.0
  0
LINE
  5
163A
330
1A
100
AcDbEntity
  8
SEIHIN
100
AcDbLine
 10
339.3325387709965
 20
107.7781092212896
 30
0.0
 11
342.8107768709965
 21
107.7781092212896
 31
0.0
  0
LINE
  5
163B
330
1A
100
AcDbEntity
  8
SEIHIN
100
AcDbLine
 10
339.3325387709965
 20
104.7781092212896
 30
0.0
 11
342.8107768709965
 21
104.7781092212896
 31
0.0
  0
LINE
  5
163C
330
1A
100
AcDbEntity
  8
SEIHIN
100
AcDbLine
 10
340.2036531709965
 20
114.2781092212896
 30
0.0
 11
340.2036531709965
 21
107.7781092212896
 31
0.0
  0
LINE
  5
163D
330
1A
100
AcDbEntity
  8
SEIHIN
100
AcDbLine
 10
339.3325387709965
 20
114.2781092212896
 30
0.0
 11
339.3325387709965
 21
107.7781092212896
 31
0.0
  0
LINE
  5
163E
330
1A
100
AcDbEntity
  8
SEIHIN
100
AcDbLine
 10
339.3325387709965
 20
107.7781092212896
 30
0.0
 11
339.3325387709965
 21
104.7781092212896
 31
0.0
  0
LINE
  5
163F
330
1A
100
AcDbEntity
  8
SEIHIN
100
AcDbLine
 10
342.8107768709965
 20
107.7781092212896
 30
0.0
 11
342.8107768709965
 21
104.7781092212896
 31
0.0
  0
LINE
  5
1640
330
1A
100
AcDbEntity
  8
SEIHIN
100
AcDbLine
 10
334.8325387709965
 20
125.2638890112896
 30
0.0
 11
338.3325387709965
 21
125.2638890112896
 31
0.0
  0
LINE
  5
1641
330
1A
100
AcDbEntity
  8
SEIHIN
100
AcDbLine
 10
338.3325387709965
 20
124.7348339590657
 30
0.0
 11
339.3325387709965
 21
124.7348339590657
 31
0.0
  0
ARC
  5
1642
330
1A
100
AcDbEntity
  8
SEIHIN
100
AcDbCircle
 10
356.3325387709965
 20
112.2781092212896
 30
0.0
 40
2.0
100
AcDbArc
 50
0.0
 51
90.0
  0
CIRCLE
  5
1643
330
1A
100
AcDbEntity
  8
SEIHIN
100
AcDbCircle
 10
352.8325387709965
 20
108.7781092212896
 30
0.0
 40
2.099999971727393
  0
DIMENSION
  5
1644
330
1A
100
AcDbEntity
  8
SUNPOU
100
AcDbDimension
  2
*D15
 10
234.0936621431525
 20
179.6976009245118
 30
0.0
 11
231.5936621431525
 21
206.1976009445119
 31
0.0
 70
    32
 71
     5
 42
53.00000004000003
  3
STANDARD
100
AcDbAlignedDimension
 13
212.6620319494918
 23
232.6976009645118
 33
0.0
 14
212.6620319494918
 24
179.6976009245118
 34
0.0
 50
90.0
100
AcDbRotatedDimension
1001
ACAD
1000
DSTYLE
1002
{
1070
    41
1040
3.0
1070
    42
1040
3.0
1070
    43
1040
7.0
1070
    44
1040
1.5
1070
    73
1070
     0
1070
    74
1070
     0
1070
    77
1070
     3
1070
   140
1040
3.0
1070
   141
1040
3.0
1070
   147
1040
1.0
1070
   172
1070
     1
1070
   173
1070
     1
1070
   176
1070
   256
1070
   177
1070
   256
1070
   178
1070
   256
1070
   271
1070
     0
1070
   272
1070
     0
1070
   341
1005
B2
1070
     6
1000
OPEN
1070
     7
1000
OPEN
1002
}
  0
LINE
  5
1645
330
1A
100
AcDbEntity
  8
SEIHIN
100
AcDbLine
 10
211.4620319494918
 20
232.6976009645118
 30
0.0
 11
211.4620319494918
 21
216.0206524645118
 31
0.0
  0
LINE
  5
1646
330
1A
100
AcDbEntity
  8
SEIHIN
100
AcDbLine
 10
212.6620319494918
 20
216.0206524645118
 30
0.0
 11
212.6620319494918
 21
232.6976009645118
 31
0.0
  0
TEXT
  5
1647
330
1A
100
AcDbEntity
  8
SUNPOU
100
AcDbText
 10
223.8126743887626
 20
163.8905327857688
 30
0.0
 40
3.0
  1
（スライド幅）
100
AcDbText
  0
LINE
  5
1648
330
1A
100
AcDbEntity
  8
SEIHIN
100
AcDbLine
 10
211.4620319494918
 20
194.7766594245118
 30
0.0
 11
209.4620319494918
 21
197.1183585645118
 31
0.0
  0
LINE
  5
1649
330
1A
100
AcDbEntity
  8
SEIHIN
100
AcDbLine
 10
212.6620319494918
 20
196.3745493345118
 30
0.0
 11
212.6620319494918
 21
179.6976009245118
 31
0.0
  0
LINE
  5
164A
330
1A
100
AcDbEntity
  8
SEIHIN
100
AcDbLine
 10
211.4620319494918
 20
179.6976009245118
 30
0.0
 11
211.4620319494918
 21
196.3745493345118
 31
0.0
  0
LINE
  5
164B
330
1A
100
AcDbEntity
  8
CENTER L
100
AcDbLine
 10
204.4620319494918
 20
186.6976009445118
 30
0.0
 11
219.6620319494918
 21
186.6976009445118
 31
0.0
  0
LINE
  5
164C
330
1A
100
AcDbEntity
  8
CENTER L
100
AcDbLine
 10
204.4620319494918
 20
185.1976009445118
 30
0.0
 11
219.6620319494918
 21
185.1976009445118
 31
0.0
  0
LINE
  5
164D
330
1A
100
AcDbEntity
  8
SEIHIN
100
AcDbLine
 10
212.6620319494918
 20
179.6976009245118
 30
0.0
 11
211.4620319494918
 21
179.6976009245118
 31
0.0
  0
ARC
  5
164E
330
1A
100
AcDbEntity
  8
SEIHIN
100
AcDbCircle
 10
208.1620323394918
 20
206.1976009245118
 30
0.0
 40
3.000000000000029
100
AcDbArc
 50
270.0000061115495
 51
90.00000954929655
  0
LINE
  5
164F
330
1A
100
AcDbEntity
  8
SEIHIN
100
AcDbLine
 10
207.5838147194918
 20
198.6307970945118
 30
0.0
 11
211.2279705394918
 21
198.0536195145118
 31
0.0
  0
LINE
  5
1650
330
1A
100
AcDbEntity
  8
SEIHIN
100
AcDbLine
 10
207.3960933594918
 20
197.4455710845118
 30
0.0
 11
211.0402491794918
 21
196.8683935045118
 31
0.0
  0
ARC
  5
1651
330
1A
100
AcDbEntity
  8
SEIHIN
100
AcDbCircle
 10
207.5620319494918
 20
202.0267847845118
 30
0.0
 40
0.9999999999999971
100
AcDbArc
 50
306.8698976458432
 51
0.0
  0
LINE
  5
1652
330
1A
100
AcDbEntity
  8
SEIHIN
100
AcDbLine
 10
208.1620319494918
 20
203.1976009245118
 30
0.0
 11
208.1620319494918
 21
199.6976009245118
 31
0.0
  0
ARC
  5
1653
330
1A
100
AcDbEntity
  8
SEIHIN
100
AcDbCircle
 10
207.6620319494918
 20
199.1246412645118
 30
0.0
 40
1.700000000774792
100
AcDbArc
 50
194.5485451942508
 51
261.0000000241316
  0
ARC
  5
1654
330
1A
100
AcDbEntity
  8
SEIHIN
100
AcDbCircle
 10
207.6620319494918
 20
199.1246412645118
 30
0.0
 40
0.499999998318523
100
AcDbArc
 50
238.6583206989034
 51
261.0000002798936
  0
LINE
  5
1655
330
1A
100
AcDbEntity
  8
SEIHIN
100
AcDbLine
 10
208.5620319494918
 20
202.0267847845118
 30
0.0
 11
208.5620319494918
 21
203.2243871245118
 31
0.0
  0
ARC
  5
1656
330
1A
100
AcDbEntity
  8
SEIHIN
100
AcDbCircle
 10
210.9620319494918
 20
196.3745493345118
 30
0.0
 40
0.4999999996559328
100
AcDbArc
 50
0.0
 51
81.00000027989364
  0
ARC
  5
1657
330
1A
100
AcDbEntity
  8
SEIHIN
100
AcDbCircle
 10
210.9620319494918
 20
196.3745493345118
 30
0.0
 40
1.700000000443591
100
AcDbArc
 50
0.0
 51
81.0000000241316
  0
LINE
  5
1658
330
1A
100
AcDbEntity
  8
SEIHIN
100
AcDbLine
 10
212.1620319494918
 20
198.6976009245118
 30
0.0
 11
212.1620319494918
 21
199.6976009245118
 31
0.0
  0
LINE
  5
1659
330
1A
100
AcDbEntity
  8
SEIHIN
100
AcDbLine
 10
207.5838147194918
 20
213.7644047645118
 30
0.0
 11
211.2279705394918
 21
214.3415823645118
 31
0.0
  0
LINE
  5
165A
330
1A
100
AcDbEntity
  8
SEIHIN
100
AcDbLine
 10
207.3960933594918
 20
214.9496307645118
 30
0.0
 11
211.0402491794918
 21
215.5268083645118
 31
0.0
  0
LINE
  5
165B
330
1A
100
AcDbEntity
  8
SEIHIN
100
AcDbLine
 10
211.4620319494918
 20
217.6185424645118
 30
0.0
 11
209.4620319494918
 21
215.2768432645118
 31
0.0
  0
LINE
  5
165C
330
1A
100
AcDbEntity
  8
SEIHIN
100
AcDbLine
 10
208.5620319494918
 20
210.3684170645118
 30
0.0
 11
208.5620319494918
 21
209.1708147245118
 31
0.0
  0
LINE
  5
165D
330
1A
100
AcDbEntity
  8
SEIHIN
100
AcDbLine
 10
208.1620319494918
 20
209.1976009245118
 30
0.0
 11
208.1620319494918
 21
212.6976009645118
 31
0.0
  0
ARC
  5
165E
330
1A
100
AcDbEntity
  8
SEIHIN
100
AcDbCircle
 10
207.5620319494918
 20
210.3684170645118
 30
0.0
 40
0.9999999999999971
100
AcDbArc
 50
0.0
 51
53.13010235415679
  0
ARC
  5
165F
330
1A
100
AcDbEntity
  8
SEIHIN
100
AcDbCircle
 10
207.6620319494918
 20
213.2705605645118
 30
0.0
 40
1.700000018187684
100
AcDbArc
 50
98.99999987042145
 51
165.4514528483865
  0
ARC
  5
1660
330
1A
100
AcDbEntity
  8
SEIHIN
100
AcDbCircle
 10
207.6620319494918
 20
213.2705605645118
 30
0.0
 40
0.5000000387562691
100
AcDbArc
 50
98.99999918232436
 51
121.3416757248728
  0
LINE
  5
1661
330
1A
100
AcDbEntity
  8
SEIHIN
100
AcDbLine
 10
212.1620319494918
 20
213.6976009645118
 30
0.0
 11
212.1620319494918
 21
212.6976009645118
 31
0.0
  0
ARC
  5
1662
330
1A
100
AcDbEntity
  8
SEIHIN
100
AcDbCircle
 10
210.9620319494918
 20
216.0206524645118
 30
0.0
 40
0.4999999650868415
100
AcDbArc
 50
279.0000009749315
 51
0.0
  0
ARC
  5
1663
330
1A
100
AcDbEntity
  8
SEIHIN
100
AcDbCircle
 10
210.9620319494918
 20
216.0206524645118
 30
0.0
 40
1.699999960936061
100
AcDbArc
 50
279.0000003976585
 51
0.0
  0
TEXT
  5
1664
330
1A
100
AcDbEntity
  8
SUNPOU
100
AcDbText
 10
277.3754025947832
 20
140.1719095440202
 30
0.0
 40
3.0
  1
4-φ4.2
100
AcDbText
  0
LINE
  5
1665
330
1A
100
AcDbEntity
  8
SEIHIN
100
AcDbLine
 10
324.3325387709965
 20
130.2781092212896
 30
0.0
 11
325.3325387709965
 21
130.2781092212896
 31
0.0
  0
LINE
  5
1666
330
1A
100
AcDbEntity
  8
CENTER L
100
AcDbLine
 10
204.4620319494918
 20
225.6976009445118
 30
0.0
 11
219.6620319494918
 21
225.6976009445118
 31
0.0
  0
LINE
  5
1667
330
1A
100
AcDbEntity
  8
CENTER L
100
AcDbLine
 10
204.4620319494918
 20
227.1976009445118
 30
0.0
 11
219.6620319494918
 21
227.1976009445118
 31
0.0
  0
LINE
  5
1668
330
1A
100
AcDbEntity
  8
SEIHIN
100
AcDbLine
 10
212.6620319494918
 20
232.6976009645118
 30
0.0
 11
211.4620319494918
 21
232.6976009645118
 31
0.0
  0
TEXT
  5
1669
330
1A
100
AcDbEntity
  8
SUNPOU
100
AcDbText
 10
364.8333207457574
 20
126.2711535691365
 30
0.0
 40
3.0
  1
2-φ6.5
100
AcDbText
  0
LINE
  5
166A
330
1A
100
AcDbEntity
  8
SEIHIN
100
AcDbLine
 10
338.3325387709965
 20
130.2781092212896
 30
0.0
 11
339.3325387709965
 21
130.2781092212896
 31
0.0
  0
VIEWPORT
  5
22
330
17
100
AcDbEntity
 67
     1
  8
0
100
AcDbViewport
 10
313.6808219178083
 20
148.5
 30
0.0
 40
627.3616438356165
 41
297.0
 68
     2
 69
     1
 12
313.6808219178083
 22
148.5
 13
0.0
 23
0.0
 14
1.0
 24
1.0
 15
10.0
 25
10.0
 16
0.0
 26
0.0
 36
1.0
 17
0.0
 27
0.0
 37
0.0
 42
50.0
 43
0.0
 44
0.0
 45
297.0
 50
0.0
 51
0.0
 72
   100
 90
    32768
  1

281
     0
 71
     1
 74
     0
110
0.0
120
0.0
130
0.0
111
1.0
121
0.0
131
0.0
112
0.0
122
1.0
132
0.0
 79
     0
146
0.0
  0
VIEWPORT
  5
64
330
17
100
AcDbEntity
 67
     1
  8
VIEWPORT
100
AcDbViewport
 10
210.0
 20
148.5
 30
0.0
 40
420.0
 41
297.0
 68
     1
 69
     2
 12
210.0
 22
148.5
 13
0.0
 23
0.0
 14
5.0
 24
5.0
 15
0.0
 25
0.0
 16
0.0
 26
0.0
 36
1.0
 17
0.0
 27
0.0
 37
0.0
 42
50.0
 43
0.0
 44
0.0
 45
302.9399999999999
 50
0.0
 51
0.0
 72
   100
 90
    32768
  1

281
     0
 71
     1
 74
     0
110
0.0
120
0.0
130
0.0
111
1.0
121
0.0
131
0.0
112
0.0
122
1.0
132
0.0
 79
     0
146
0.0
  0
ENDSEC
  0
SECTION
  2
OBJECTS
  0
DICTIONARY
  5
C
330
0
100
AcDbDictionary
281
     1
  3
ACAD_GROUP
350
D
  3
ACAD_LAYOUT
350
624
  3
ACAD_MLINESTYLE
350
E
  3
ACAD_PLOTSETTINGS
350
625
  3
ACAD_PLOTSTYLENAME
350
622
  0
DICTIONARY
  5
D
102
{ACAD_REACTORS
330
C
102
}
330
C
100
AcDbDictionary
281
     1
  0
DICTIONARY
  5
624
102
{ACAD_REACTORS
330
C
102
}
330
C
100
AcDbDictionary
281
     1
  3
Model
350
626
  3
ﾚｲｱｳﾄ1
350
627
  0
DICTIONARY
  5
E
102
{ACAD_REACTORS
330
C
102
}
330
C
100
AcDbDictionary
281
     1
  3
STANDARD
350
13
  0
DICTIONARY
  5
625
102
{ACAD_REACTORS
330
C
102
}
330
C
100
AcDbDictionary
281
     1
  0
ACDBDICTIONARYWDFLT
  5
622
102
{ACAD_REACTORS
330
C
102
}
330
C
100
AcDbDictionary
281
     1
  3
Normal
350
623
100
AcDbDictionaryWithDefault
340
623
1001
ACAD
1000
TREAT_AS_HARD
1070
     0
1000
TREAT_AS_HARD
1070
     0
1000
TREAT_AS_HARD
1070
     0
1000
TREAT_AS_HARD
1070
     0
  0
LAYOUT
  5
626
102
{ACAD_REACTORS
330
624
102
}
330
624
100
AcDbPlotSettings
  1

  2
Acrobat PDFWriter
  4
A3
  6

 40
7.143749713897705
 41
7.14375638961792
 42
7.143768310546875
 43
7.14373779296875
 44
297.1270751953125
 45
420.1583251953125
 46
0.0
 47
0.0
 48
0.0
 49
0.0
140
0.0
141
0.0
142
1.0
143
1.0
 70
 11952
 72
     1
 73
     1
 74
     0
  7
print.ctb
 75
    16
147
1.0
148
52.88505331185908
149
1.640883977900558
100
AcDbLayout
  1
Model
 70
     1
 71
     0
 10
0.0
 20
0.0
 11
12.0
 21
9.0
 12
0.0
 22
0.0
 32
0.0
 14
0.0
 24
0.0
 34
0.0
 15
0.0
 25
0.0
 35
0.0
146
0.0
 13
0.0
 23
0.0
 33
0.0
 16
1.0
 26
0.0
 36
0.0
 17
0.0
 27
1.0
 37
0.0
 76
     0
330
1A
  0
LAYOUT
  5
627
102
{ACAD_REACTORS
330
624
102
}
330
624
100
AcDbPlotSettings
  1

  2
EPSON PM-2000C
  4

  6

 40
0.0
 41
0.0
 42
0.0
 43
0.0
 44
0.0
 45
0.0
 46
0.0
 47
0.0
 48
0.0
 49
0.0
140
0.0
141
0.0
142
1.0
143
1.0
 70
   688
 72
     0
 73
     0
 74
     5
  7
print.ctb
 75
    16
147
1.0
148
0.0
149
0.0
100
AcDbLayout
  1
ﾚｲｱｳﾄ1
 70
     1
 71
     1
 10
0.0
 20
0.0
 11
420.0
 21
297.0
 12
0.0
 22
0.0
 32
0.0
 14
0.0
 24
0.0
 34
0.0
 15
420.0
 25
297.0
 35
0.0
146
0.0
 13
0.0
 23
0.0
 33
0.0
 16
1.0
 26
0.0
 36
0.0
 17
0.0
 27
1.0
 37
0.0
 76
     0
330
17
331
64
  0
MLINESTYLE
  5
13
102
{ACAD_REACTORS
330
E
102
}
330
E
100
AcDbMlineStyle
  2
STANDARD
 70
     0
  3

 62
     0
 51
90.0
 52
90.0
 71
     2
 49
0.5
 62
   256
  6
BYLAYER
 49
-0.5
 62
   256
  6
BYLAYER
  0
ACDBPLACEHOLDER
  5
623
102
{ACAD_REACTORS
330
622
102
}
330
622
  0
ENDSEC
  0
EOF
