  0
SECTION
  2
HEADER
  9
$ACADVER
  1
AC1015
  9
$ACADMAINTVER
 70
     6
  9
$DWGCODEPAGE
  3
ANSI_932
  9
$INSBASE
 10
0.0
 20
0.0
 30
0.0
  9
$EXTMIN
 10
-0.0000004828989404
 20
-0.0000000386436341
 30
0.0
  9
$EXTMAX
 10
398.7999995171011
 20
275.7999999613564
 30
0.0
  9
$LIMMIN
 10
0.0
 20
0.0
  9
$LIMMAX
 10
420.0
 20
297.0
  9
$ORTHOMODE
 70
     1
  9
$REGENMODE
 70
     1
  9
$FILLMODE
 70
     1
  9
$QTEXTMODE
 70
     0
  9
$MIRRTEXT
 70
     1
  9
$LTSCALE
 40
1.0
  9
$ATTMODE
 70
     1
  9
$TEXTSIZE
 40
2.5
  9
$TRACEWID
 40
1.0
  9
$TEXTSTYLE
  7
STANDARD
  9
$CLAYER
  8
SUNPOU
  9
$CELTYPE
  6
BYLAYER
  9
$CECOLOR
 62
   256
  9
$CELTSCALE
 40
1.0
  9
$DISPSILH
 70
     0
  9
$DIMSCALE
 40
1.0
  9
$DIMASZ
 40
3.0
  9
$DIMEXO
 40
3.0
  9
$DIMDLI
 40
7.0
  9
$DIMRND
 40
0.0
  9
$DIMDLE
 40
0.0
  9
$DIMEXE
 40
1.5
  9
$DIMTP
 40
0.0
  9
$DIMTM
 40
0.0
  9
$DIMTXT
 40
3.0
  9
$DIMCEN
 40
150.0
  9
$DIMTSZ
 40
0.0
  9
$DIMTOL
 70
     0
  9
$DIMLIM
 70
     0
  9
$DIMTIH
 70
     0
  9
$DIMTOH
 70
     0
  9
$DIMSE1
 70
     0
  9
$DIMSE2
 70
     0
  9
$DIMTAD
 70
     3
  9
$DIMZIN
 70
     0
  9
$DIMBLK
  1

  9
$DIMASO
 70
     1
  9
$DIMSHO
 70
     1
  9
$DIMPOST
  1

  9
$DIMAPOST
  1

  9
$DIMALT
 70
     0
  9
$DIMALTD
 70
     2
  9
$DIMALTF
 40
25.4
  9
$DIMLFAC
 40
1.0
  9
$DIMTOFL
 70
     1
  9
$DIMTVP
 40
0.0
  9
$DIMTIX
 70
     0
  9
$DIMSOXD
 70
     0
  9
$DIMSAH
 70
     1
  9
$DIMBLK1
  1
OPEN
  9
$DIMBLK2
  1
OPEN
  9
$DIMSTYLE
  2
STANDARD
  9
$DIMCLRD
 70
   256
  9
$DIMCLRE
 70
   256
  9
$DIMCLRT
 70
   256
  9
$DIMTFAC
 40
1.0
  9
$DIMGAP
 40
1.0
  9
$DIMJUST
 70
     0
  9
$DIMSD1
 70
     0
  9
$DIMSD2
 70
     0
  9
$DIMTOLJ
 70
     1
  9
$DIMTZIN
 70
     0
  9
$DIMALTZ
 70
     0
  9
$DIMALTTZ
 70
     0
  9
$DIMUPT
 70
     1
  9
$DIMDEC
 70
     0
  9
$DIMTDEC
 70
     0
  9
$DIMALTU
 70
     2
  9
$DIMALTTD
 70
     2
  9
$DIMTXSTY
  7
STANDARD
  9
$DIMAUNIT
 70
     0
  9
$DIMADEC
 70
     0
  9
$DIMALTRND
 40
0.0
  9
$DIMAZIN
 70
     0
  9
$DIMDSEP
 70
    46
  9
$DIMATFIT
 70
     3
  9
$DIMFRAC
 70
     0
  9
$DIMLDRBLK
  1
OPEN
  9
$DIMLUNIT
 70
     2
  9
$DIMLWD
 70
    -1
  9
$DIMLWE
 70
    -1
  9
$DIMTMOVE
 70
     0
  9
$LUNITS
 70
     2
  9
$LUPREC
 70
     4
  9
$SKETCHINC
 40
1.0
  9
$FILLETRAD
 40
0.6
  9
$AUNITS
 70
     0
  9
$AUPREC
 70
     0
  9
$MENU
  1
.
  9
$ELEVATION
 40
0.0
  9
$PELEVATION
 40
0.0
  9
$THICKNESS
 40
0.0
  9
$LIMCHECK
 70
     0
  9
$CHAMFERA
 40
10.0
  9
$CHAMFERB
 40
10.0
  9
$CHAMFERC
 40
20.0
  9
$CHAMFERD
 40
0.0
  9
$SKPOLY
 70
     0
  9
$TDCREATE
 40
2451100.394552546
  9
$TDUCREATE
 40
2451100.019552546
  9
$TDUPDATE
 40
2455609.40304581
  9
$TDUUPDATE
 40
2455609.02804581
  9
$TDINDWG
 40
0.1017435417
  9
$TDUSRTIMER
 40
0.1017435417
  9
$USRTIMER
 70
     1
  9
$ANGBASE
 50
0.0
  9
$ANGDIR
 70
     0
  9
$PDMODE
 70
     0
  9
$PDSIZE
 40
0.0
  9
$PLINEWID
 40
0.0
  9
$SPLFRAME
 70
     0
  9
$SPLINETYPE
 70
     6
  9
$SPLINESEGS
 70
     8
  9
$HANDSEED
  5
2247
  9
$SURFTAB1
 70
     6
  9
$SURFTAB2
 70
     6
  9
$SURFTYPE
 70
     6
  9
$SURFU
 70
     6
  9
$SURFV
 70
     6
  9
$UCSBASE
  2

  9
$UCSNAME
  2

  9
$UCSORG
 10
0.0
 20
0.0
 30
0.0
  9
$UCSXDIR
 10
1.0
 20
0.0
 30
0.0
  9
$UCSYDIR
 10
0.0
 20
1.0
 30
0.0
  9
$UCSORTHOREF
  2

  9
$UCSORTHOVIEW
 70
     0
  9
$UCSORGTOP
 10
0.0
 20
0.0
 30
0.0
  9
$UCSORGBOTTOM
 10
0.0
 20
0.0
 30
0.0
  9
$UCSORGLEFT
 10
0.0
 20
0.0
 30
0.0
  9
$UCSORGRIGHT
 10
0.0
 20
0.0
 30
0.0
  9
$UCSORGFRONT
 10
0.0
 20
0.0
 30
0.0
  9
$UCSORGBACK
 10
0.0
 20
0.0
 30
0.0
  9
$PUCSBASE
  2

  9
$PUCSNAME
  2

  9
$PUCSORG
 10
0.0
 20
0.0
 30
0.0
  9
$PUCSXDIR
 10
1.0
 20
0.0
 30
0.0
  9
$PUCSYDIR
 10
0.0
 20
1.0
 30
0.0
  9
$PUCSORTHOREF
  2

  9
$PUCSORTHOVIEW
 70
     0
  9
$PUCSORGTOP
 10
0.0
 20
0.0
 30
0.0
  9
$PUCSORGBOTTOM
 10
0.0
 20
0.0
 30
0.0
  9
$PUCSORGLEFT
 10
0.0
 20
0.0
 30
0.0
  9
$PUCSORGRIGHT
 10
0.0
 20
0.0
 30
0.0
  9
$PUCSORGFRONT
 10
0.0
 20
0.0
 30
0.0
  9
$PUCSORGBACK
 10
0.0
 20
0.0
 30
0.0
  9
$USERI1
 70
     0
  9
$USERI2
 70
     0
  9
$USERI3
 70
     0
  9
$USERI4
 70
     0
  9
$USERI5
 70
     0
  9
$USERR1
 40
0.0
  9
$USERR2
 40
0.0
  9
$USERR3
 40
0.0
  9
$USERR4
 40
0.0
  9
$USERR5
 40
0.0
  9
$WORLDVIEW
 70
     1
  9
$SHADEDGE
 70
     3
  9
$SHADEDIF
 70
    70
  9
$TILEMODE
 70
     1
  9
$MAXACTVP
 70
    16
  9
$PINSBASE
 10
0.0
 20
0.0
 30
0.0
  9
$PLIMCHECK
 70
     0
  9
$PEXTMIN
 10
0.0
 20
0.0
 30
0.0
  9
$PEXTMAX
 10
420.0
 20
297.0
 30
0.0
  9
$PLIMMIN
 10
0.0
 20
0.0
  9
$PLIMMAX
 10
420.0
 20
297.0
  9
$UNITMODE
 70
     0
  9
$VISRETAIN
 70
     0
  9
$PLINEGEN
 70
     0
  9
$PSLTSCALE
 70
     1
  9
$TREEDEPTH
 70
  3020
  9
$CMLSTYLE
  2
STANDARD
  9
$CMLJUST
 70
     0
  9
$CMLSCALE
 40
1.0
  9
$PROXYGRAPHICS
 70
     1
  9
$MEASUREMENT
 70
     1
  9
$CELWEIGHT
370
    -1
  9
$ENDCAPS
280
     0
  9
$JOINSTYLE
280
     0
  9
$LWDISPLAY
290
     0
  9
$INSUNITS
 70
     0
  9
$HYPERLINKBASE
  1

  9
$STYLESHEET
  1
print.ctb
  9
$XEDIT
290
     1
  9
$CEPSNTYPE
380
     0
  9
$PSTYLEMODE
290
     1
  9
$FINGERPRINTGUID
  2
{137E7082-72B8-11D5-AA3E-50A453C10000}
  9
$VERSIONGUID
  2
{74E5B657-DF21-4A02-900C-02BFBDDF4027}
  9
$EXTNAMES
290
     1
  9
$PSVPSCALE
 40
0.0
  9
$OLESTARTUP
290
     0
  0
ENDSEC
  0
SECTION
  2
CLASSES
  0
CLASS
  1
ACDBDICTIONARYWDFLT
  2
AcDbDictionaryWithDefault
  3
ObjectDBX Classes
 90
        0
280
     0
281
     0
  0
CLASS
  1
ACDBPLACEHOLDER
  2
AcDbPlaceHolder
  3
ObjectDBX Classes
 90
        0
280
     0
281
     0
  0
CLASS
  1
LAYOUT
  2
AcDbLayout
  3
ObjectDBX Classes
 90
        0
280
     0
281
     0
  0
CLASS
  1
DUMMY
  2
AcDbLongTransaction
  3
DUMMY
 90
        0
280
     0
281
     0
  0
CLASS
  1
LWPOLYLINE
  2
AcDbPolyline
  3
AutoCAD 2000
 90
        0
280
     0
281
     1
  0
CLASS
  1
HATCH
  2
AcDbHatch
  3
AutoCAD 2000
 90
        0
280
     0
281
     1
  0
CLASS
  1
XRECORD
  2
AcDbXrecord
  3
AutoCAD 2000
 90
        0
280
     0
281
     0
  0
CLASS
  1
DUMMY
  2
AcDbLongTransaction
  3
DUMMY
 90
        0
280
     0
281
     0
  0
CLASS
  1
LWPOLYLINE
  2
AcDbPolyline
  3
AutoCAD 2000
 90
        0
280
     0
281
     1
  0
CLASS
  1
HATCH
  2
AcDbHatch
  3
AutoCAD 2000
 90
        0
280
     0
281
     1
  0
CLASS
  1
XRECORD
  2
AcDbXrecord
  3
AutoCAD 2000
 90
        0
280
     0
281
     0
  0
CLASS
  1
DUMMY
  2
AcDbLongTransaction
  3
DUMMY
 90
        0
280
     0
281
     0
  0
CLASS
  1
LWPOLYLINE
  2
AcDbPolyline
  3
AutoCAD 2000
 90
        0
280
     0
281
     1
  0
CLASS
  1
HATCH
  2
AcDbHatch
  3
AutoCAD 2000
 90
        0
280
     0
281
     1
  0
CLASS
  1
XRECORD
  2
AcDbXrecord
  3
AutoCAD 2000
 90
        0
280
     0
281
     0
  0
CLASS
  1
DUMMY
  2
AcDbLongTransaction
  3
DUMMY
 90
        0
280
     0
281
     0
  0
CLASS
  1
LWPOLYLINE
  2
AcDbPolyline
  3
AutoCAD 2000
 90
        0
280
     0
281
     1
  0
CLASS
  1
HATCH
  2
AcDbHatch
  3
AutoCAD 2000
 90
        0
280
     0
281
     1
  0
CLASS
  1
XRECORD
  2
AcDbXrecord
  3
AutoCAD 2000
 90
        0
280
     0
281
     0
  0
ENDSEC
  0
SECTION
  2
TABLES
  0
TABLE
  2
VPORT
  5
8
330
0
100
AcDbSymbolTable
 70
     2
  0
VPORT
  5
2246
330
8
100
AcDbSymbolTableRecord
100
AcDbViewportTableRecord
  2
*Active
 70
     0
 10
0.0
 20
0.0
 11
1.0
 21
1.0
 12
207.2214526828675
 22
147.1167864646027
 13
0.0
 23
0.0
 14
5.0
 24
5.0
 15
0.0
 25
0.0
 16
0.0
 26
0.0
 36
1.0
 17
0.0
 27
0.0
 37
0.0
 40
318.7467486524139
 41
1.651537335285505
 42
50.0
 43
0.0
 44
0.0
 50
0.0
 51
0.0
 71
     0
 72
   100
 73
     1
 74
     0
 75
     0
 76
     0
 77
     0
 78
     0
281
     0
 65
     1
110
0.0
120
0.0
130
0.0
111
1.0
121
0.0
131
0.0
112
0.0
122
1.0
132
0.0
 79
     0
146
0.0
  0
ENDTAB
  0
TABLE
  2
LTYPE
  5
5
330
0
100
AcDbSymbolTable
 70
     3
  0
LTYPE
  5
14
330
5
100
AcDbSymbolTableRecord
100
AcDbLinetypeTableRecord
  2
BYBLOCK
 70
     0
  3

 72
    65
 73
     0
 40
0.0
  0
LTYPE
  5
15
330
5
100
AcDbSymbolTableRecord
100
AcDbLinetypeTableRecord
  2
BYLAYER
 70
     0
  3

 72
    65
 73
     0
 40
0.0
  0
LTYPE
  5
16
330
5
100
AcDbSymbolTableRecord
100
AcDbLinetypeTableRecord
  2
CONTINUOUS
 70
     0
  3
Solid line
 72
    65
 73
     0
 40
0.0
  0
LTYPE
  5
120
330
5
100
AcDbSymbolTableRecord
100
AcDbLinetypeTableRecord
  2
CENTER
 70
     0
  3
____ _ ____ _ ____ _ ____ _ ____ _ ____ _ ____ 
 72
    65
 73
     4
 40
2.0
 49
1.25
 74
     0
 49
-0.25
 74
     0
 49
0.25
 74
     0
 49
-0.25
 74
     0
  0
LTYPE
  5
E98
330
5
100
AcDbSymbolTableRecord
100
AcDbLinetypeTableRecord
  2
DASHED
 70
     0
  3
__ __ __ __ __ __ __ __ __ __ __ __ __ __ __ __
 72
    65
 73
     2
 40
0.75
 49
0.5
 74
     0
 49
-0.25
 74
     0
  0
ENDTAB
  0
TABLE
  2
LAYER
  5
2
330
0
100
AcDbSymbolTable
 70
     8
  0
LAYER
  5
F
330
2
100
AcDbSymbolTableRecord
100
AcDbLayerTableRecord
  2
0
 70
     0
 62
     7
  6
CONTINUOUS
370
    -3
390
623
  0
LAYER
  5
62
330
2
100
AcDbSymbolTableRecord
100
AcDbLayerTableRecord
  2
VIEWPORT
 70
     0
 62
     7
  6
CONTINUOUS
370
    -3
390
623
  0
LAYER
  5
6B
330
2
100
AcDbSymbolTableRecord
100
AcDbLayerTableRecord
  2
ZUWAKU
 70
     0
 62
     7
  6
CONTINUOUS
370
    -3
390
623
  0
LAYER
  5
1F2
330
2
100
AcDbSymbolTableRecord
100
AcDbLayerTableRecord
  2
SEIHIN
 70
     0
 62
     3
  6
CONTINUOUS
370
    -3
390
623
  0
LAYER
  5
1F3
330
2
100
AcDbSymbolTableRecord
100
AcDbLayerTableRecord
  2
SUNPOU
 70
     0
 62
     4
  6
CONTINUOUS
370
    -3
390
623
  0
LAYER
  5
1F4
330
2
100
AcDbSymbolTableRecord
100
AcDbLayerTableRecord
  2
CENTER L
 70
     0
 62
     1
  6
CENTER
370
    -3
390
623
  0
LAYER
  5
1F5
330
2
100
AcDbSymbolTableRecord
100
AcDbLayerTableRecord
  2
DEFPOINTS
 70
     0
 62
     7
  6
CONTINUOUS
290
     0
370
    -3
390
623
  0
LAYER
  5
A03
330
2
100
AcDbSymbolTableRecord
100
AcDbLayerTableRecord
  2
moji
 70
     0
 62
     2
  6
CONTINUOUS
370
    -3
390
623
  0
ENDTAB
  0
TABLE
  2
STYLE
  5
3
330
0
100
AcDbSymbolTable
 70
     2
  0
STYLE
  5
10
330
3
100
AcDbSymbolTableRecord
100
AcDbTextStyleTableRecord
  2
STANDARD
 70
     0
 40
0.0
 41
1.0
 50
0.0
 71
     0
 42
2.5
  3
TXT
  4
bigfont.shx
  0
STYLE
  5
A04
330
3
100
AcDbSymbolTableRecord
100
AcDbTextStyleTableRecord
  2
ｽﾀｲﾙ1
 70
     0
 40
0.0
 41
1.0
 50
0.0
 71
     0
 42
2.5
  3
MS PGothic.ttf
  4

1001
ACAD
1000
MS PGothic
1071
    32818
  0
ENDTAB
  0
TABLE
  2
VIEW
  5
6
330
0
100
AcDbSymbolTable
 70
     0
  0
ENDTAB
  0
TABLE
  2
UCS
  5
7
330
0
100
AcDbSymbolTable
 70
     0
  0
ENDTAB
  0
TABLE
  2
APPID
  5
9
330
0
100
AcDbSymbolTable
 70
     1
  0
APPID
  5
11
330
9
100
AcDbSymbolTableRecord
100
AcDbRegAppTableRecord
  2
ACAD
 70
     0
  0
ENDTAB
  0
TABLE
  2
DIMSTYLE
  5
A
330
0
100
AcDbSymbolTable
 70
     1
100
AcDbDimStyleTable
  0
DIMSTYLE
105
1D
102
{ACAD_REACTORS
330
1F61
330
1F62
330
1F63
330
1F66
330
1F6A
330
1FF6
330
2082
330
2085
330
2089
330
20B0
330
20B1
330
20B2
330
20B8
330
20BB
330
20DB
102
}
330
A
100
AcDbSymbolTableRecord
100
AcDbDimStyleTableRecord
  2
STANDARD
 70
     0
340
10
  0
ENDTAB
  0
TABLE
  2
BLOCK_RECORD
  5
1
330
0
100
AcDbSymbolTable
 70
    16
  0
BLOCK_RECORD
  5
1A
330
1
100
AcDbSymbolTableRecord
100
AcDbBlockTableRecord
  2
*MODEL_SPACE
340
626
  0
BLOCK_RECORD
  5
17
330
1
100
AcDbSymbolTableRecord
100
AcDbBlockTableRecord
  2
*PAPER_SPACE
340
627
  0
BLOCK_RECORD
  5
B2
330
1
100
AcDbSymbolTableRecord
100
AcDbBlockTableRecord
  2
_OPEN
340
0
102
{BLKREFS
331
21B8
331
21B9
331
21C1
331
21C2
331
21CA
331
21CB
331
21D3
331
21D4
331
21DC
331
21DD
331
21E5
331
21E6
331
21EE
331
21EF
331
21F9
331
21FA
331
2202
331
2203
331
220B
331
220C
331
2214
331
2215
331
221D
331
221E
331
2226
331
2227
331
2231
331
2232
331
223A
331
223B
331
20C8
331
20F9
102
}
  0
BLOCK_RECORD
  5
20FD
330
1
100
AcDbSymbolTableRecord
100
AcDbBlockTableRecord
  2
*D1
340
0
  0
BLOCK_RECORD
  5
2109
330
1
100
AcDbSymbolTableRecord
100
AcDbBlockTableRecord
  2
*D2
340
0
  0
BLOCK_RECORD
  5
2115
330
1
100
AcDbSymbolTableRecord
100
AcDbBlockTableRecord
  2
*D3
340
0
  0
BLOCK_RECORD
  5
2121
330
1
100
AcDbSymbolTableRecord
100
AcDbBlockTableRecord
  2
*D4
340
0
  0
BLOCK_RECORD
  5
212D
330
1
100
AcDbSymbolTableRecord
100
AcDbBlockTableRecord
  2
*D5
340
0
  0
BLOCK_RECORD
  5
2139
330
1
100
AcDbSymbolTableRecord
100
AcDbBlockTableRecord
  2
*D6
340
0
  0
BLOCK_RECORD
  5
2145
330
1
100
AcDbSymbolTableRecord
100
AcDbBlockTableRecord
  2
*D7
340
0
  0
BLOCK_RECORD
  5
2151
330
1
100
AcDbSymbolTableRecord
100
AcDbBlockTableRecord
  2
*D8
340
0
  0
BLOCK_RECORD
  5
215F
330
1
100
AcDbSymbolTableRecord
100
AcDbBlockTableRecord
  2
*D9
340
0
  0
BLOCK_RECORD
  5
216B
330
1
100
AcDbSymbolTableRecord
100
AcDbBlockTableRecord
  2
*D10
340
0
  0
BLOCK_RECORD
  5
2177
330
1
100
AcDbSymbolTableRecord
100
AcDbBlockTableRecord
  2
*D11
340
0
  0
BLOCK_RECORD
  5
2183
330
1
100
AcDbSymbolTableRecord
100
AcDbBlockTableRecord
  2
*D12
340
0
  0
BLOCK_RECORD
  5
218F
330
1
100
AcDbSymbolTableRecord
100
AcDbBlockTableRecord
  2
*D13
340
0
  0
BLOCK_RECORD
  5
219B
330
1
100
AcDbSymbolTableRecord
100
AcDbBlockTableRecord
  2
*D14
340
0
  0
BLOCK_RECORD
  5
21A9
330
1
100
AcDbSymbolTableRecord
100
AcDbBlockTableRecord
  2
*D15
340
0
  0
ENDTAB
  0
ENDSEC
  0
SECTION
  2
BLOCKS
  0
BLOCK
  5
1B
330
1A
100
AcDbEntity
  8
0
100
AcDbBlockBegin
  2
*MODEL_SPACE
 70
     0
 71
     0
 10
0.0
 20
0.0
 30
0.0
  3
*MODEL_SPACE
  1

  0
ENDBLK
  5
1C
330
1A
100
AcDbEntity
  8
0
100
AcDbBlockEnd
  0
BLOCK
  5
18
330
17
100
AcDbEntity
 67
     1
  8
0
100
AcDbBlockBegin
  2
*PAPER_SPACE
 70
     0
 71
     0
 10
0.0
 20
0.0
 30
0.0
  3
*PAPER_SPACE
  1

  0
ENDBLK
  5
19
330
17
100
AcDbEntity
 67
     1
  8
0
100
AcDbBlockEnd
  0
BLOCK
  5
B3
330
B2
100
AcDbEntity
  8
0
100
AcDbBlockBegin
  2
_OPEN
 70
     0
 71
     0
 10
0.0
 20
0.0
 30
0.0
  3
_OPEN
  1

  0
LINE
  5
B4
330
B2
100
AcDbEntity
  8
0
  6
ByBlock
 62
     0
100
AcDbLine
 10
-1.0
 20
0.1666666666666667
 30
0.0
 11
0.0
 21
0.0
 31
0.0
  0
LINE
  5
B5
330
B2
100
AcDbEntity
  8
0
  6
ByBlock
 62
     0
100
AcDbLine
 10
0.0
 20
0.0
 30
0.0
 11
-1.0
 21
-0.1666666666666667
 31
0.0
  0
LINE
  5
B6
330
B2
100
AcDbEntity
  8
0
  6
ByBlock
 62
     0
100
AcDbLine
 10
0.0
 20
0.0
 30
0.0
 11
-1.0
 21
0.0
 31
0.0
  0
ENDBLK
  5
B7
330
B2
100
AcDbEntity
  8
0
100
AcDbBlockEnd
  0
BLOCK
  5
2107
330
20FD
100
AcDbEntity
  8
0
100
AcDbBlockBegin
  2
*D1
 70
     1
 71
     0
 10
0.0
 20
0.0
 30
0.0
  3
*D1
  1

  0
LINE
  5
21B5
330
20FD
100
AcDbEntity
  8
SUNPOU
370
    -2
100
AcDbLine
 10
201.4006238799666
 20
115.7918299801121
 30
0.0
 11
192.2002209294904
 21
112.1116687994812
 31
0.0
  0
LINE
  5
21B6
330
20FD
100
AcDbEntity
  8
SUNPOU
370
    -2
100
AcDbLine
 10
214.7706882299666
 20
82.36666910911205
 30
0.0
 11
205.5702852794904
 21
78.68650792848119
 31
0.0
  0
LINE
  5
21B7
330
20FD
100
AcDbEntity
  8
SUNPOU
370
    -2
100
AcDbLine
 10
194.7071079949726
 20
109.88332474146
 30
0.0
 11
205.8488282866181
 21
82.02902401567961
 31
0.0
  0
INSERT
  5
21B8
330
20FD
100
AcDbEntity
  8
SUNPOU
370
    -2
100
AcDbBlockReference
  2
_OPEN
 10
193.5929359657953
 20
112.6687548140698
 30
0.0
 41
3.0
 42
3.0
 43
3.0
 50
111.8014094887162
  0
INSERT
  5
21B9
330
20FD
100
AcDbEntity
  8
SUNPOU
370
    -2
100
AcDbBlockReference
  2
_OPEN
 10
206.9630003157953
 20
79.24359394306981
 30
0.0
 41
3.0
 42
3.0
 43
3.0
 50
291.8014094887162
  0
MTEXT
  5
21BA
330
20FD
100
AcDbEntity
  8
SUNPOU
100
AcDbMText
 10
202.5991598679701
 20
96.8846510695509
 30
0.0
 40
3.0
 41
0.0
 71
     5
 72
     1
  1
\A1;36
 11
0.371390676392418
 21
-0.9284766908699336
 31
0.0
 73
     1
 44
1.0
  0
POINT
  5
21BB
330
20FD
100
AcDbEntity
  8
DEFPOINTS
 62
     0
100
AcDbPoint
 10
204.1860539525764
 20
116.9060020092893
 30
0.0
  0
POINT
  5
21BC
330
20FD
100
AcDbEntity
  8
DEFPOINTS
 62
     0
100
AcDbPoint
 10
217.5561183025764
 20
83.48084113828931
 30
0.0
  0
POINT
  5
21BD
330
20FD
100
AcDbEntity
  8
DEFPOINTS
 62
     0
100
AcDbPoint
 10
206.9630003157953
 20
79.24359394306981
 30
0.0
  0
ENDBLK
  5
2108
330
20FD
100
AcDbEntity
  8
0
100
AcDbBlockEnd
  0
BLOCK
  5
2113
330
2109
100
AcDbEntity
  8
0
100
AcDbBlockBegin
  2
*D2
 70
     1
 71
     0
 10
0.0
 20
0.0
 30
0.0
  3
*D2
  1

  0
LINE
  5
21BE
330
2109
100
AcDbEntity
  8
SUNPOU
370
    -2
100
AcDbLine
 10
48.55967581257627
 20
108.2600884582893
 30
0.0
 11
48.55967581257627
 21
151.5071636849291
 31
0.0
  0
LINE
  5
21BF
330
2109
100
AcDbEntity
  8
SUNPOU
370
    -2
100
AcDbLine
 10
206.5596492957315
 20
132.0123157569246
 30
0.0
 11
206.5596492957315
 21
151.5071636849291
 31
0.0
  0
LINE
  5
21C0
330
2109
100
AcDbEntity
  8
SUNPOU
370
    -2
100
AcDbLine
 10
51.55967581257627
 20
150.0071636849291
 30
0.0
 11
203.5596492957315
 21
150.0071636849291
 31
0.0
  0
INSERT
  5
21C1
330
2109
100
AcDbEntity
  8
SUNPOU
370
    -2
100
AcDbBlockReference
  2
_OPEN
 10
48.55967581257627
 20
150.0071636849291
 30
0.0
 41
3.0
 42
3.0
 43
3.0
 50
180.0
  0
INSERT
  5
21C2
330
2109
100
AcDbEntity
  8
SUNPOU
370
    -2
100
AcDbBlockReference
  2
_OPEN
 10
206.5596492957315
 20
150.0071636849291
 30
0.0
 41
3.0
 42
3.0
 43
3.0
  0
MTEXT
  5
21C3
330
2109
100
AcDbEntity
  8
SUNPOU
100
AcDbMText
 10
127.5596625541539
 20
152.5071636849291
 30
0.0
 40
3.0
 41
0.0
 71
     5
 72
     1
  1
\A1;158
 73
     1
 44
1.0
  0
POINT
  5
21C4
330
2109
100
AcDbEntity
  8
DEFPOINTS
 62
     0
100
AcDbPoint
 10
48.55967581257627
 20
105.2600884582893
 30
0.0
  0
POINT
  5
21C5
330
2109
100
AcDbEntity
  8
DEFPOINTS
 62
     0
100
AcDbPoint
 10
206.5596492957315
 20
129.0123157569246
 30
0.0
  0
POINT
  5
21C6
330
2109
100
AcDbEntity
  8
DEFPOINTS
 62
     0
100
AcDbPoint
 10
206.5596492957315
 20
150.0071636849291
 30
0.0
  0
ENDBLK
  5
2114
330
2109
100
AcDbEntity
  8
0
100
AcDbBlockEnd
  0
BLOCK
  5
211F
330
2115
100
AcDbEntity
  8
0
100
AcDbBlockBegin
  2
*D3
 70
     1
 71
     0
 10
0.0
 20
0.0
 30
0.0
  3
*D3
  1

  0
LINE
  5
21C7
330
2115
100
AcDbEntity
  8
SUNPOU
370
    -2
100
AcDbLine
 10
47.05967581257636
 20
107.2600884582893
 30
0.0
 11
25.00219246640197
 21
107.2600884582893
 31
0.0
  0
LINE
  5
21C8
330
2115
100
AcDbEntity
  8
SUNPOU
370
    -2
100
AcDbLine
 10
220.7769121325763
 20
85.96915866828931
 30
0.0
 11
25.00219246640195
 21
85.96915866828937
 31
0.0
  0
LINE
  5
21C9
330
2115
100
AcDbEntity
  8
SUNPOU
370
    -2
100
AcDbLine
 10
26.50219246640197
 20
104.2600884582893
 30
0.0
 11
26.50219246640197
 21
88.96915866828937
 31
0.0
  0
INSERT
  5
21CA
330
2115
100
AcDbEntity
  8
SUNPOU
370
    -2
100
AcDbBlockReference
  2
_OPEN
 10
26.50219246640197
 20
107.2600884582893
 30
0.0
 41
3.0
 42
3.0
 43
3.0
 50
90.0
  0
INSERT
  5
21CB
330
2115
100
AcDbEntity
  8
SUNPOU
370
    -2
100
AcDbBlockReference
  2
_OPEN
 10
26.50219246640197
 20
85.96915866828937
 30
0.0
 41
3.0
 42
3.0
 43
3.0
 50
270.0
  0
MTEXT
  5
21CC
330
2115
100
AcDbEntity
  8
SUNPOU
100
AcDbMText
 10
24.00219246640195
 20
96.61462356328934
 30
0.0
 40
3.0
 41
0.0
 71
     5
 72
     1
  1
\A1;21
 11
6.123031769111886E-17
 21
1.0
 31
0.0
 73
     1
 44
1.0
  0
POINT
  5
21CD
330
2115
100
AcDbEntity
  8
DEFPOINTS
 62
     0
100
AcDbPoint
 10
50.05967581257636
 20
107.2600884582893
 30
0.0
  0
POINT
  5
21CE
330
2115
100
AcDbEntity
  8
DEFPOINTS
 62
     0
100
AcDbPoint
 10
223.7769121325763
 20
85.96915866828931
 30
0.0
  0
POINT
  5
21CF
330
2115
100
AcDbEntity
  8
DEFPOINTS
 62
     0
100
AcDbPoint
 10
26.50219246640197
 20
85.96915866828937
 30
0.0
  0
ENDBLK
  5
2120
330
2115
100
AcDbEntity
  8
0
100
AcDbBlockEnd
  0
BLOCK
  5
212B
330
2121
100
AcDbEntity
  8
0
100
AcDbBlockBegin
  2
*D4
 70
     1
 71
     0
 10
0.0
 20
0.0
 30
0.0
  3
*D4
  1

  0
LINE
  5
21D0
330
2121
100
AcDbEntity
  8
SUNPOU
370
    -2
100
AcDbLine
 10
171.5596758125765
 20
92.56008845828933
 30
0.0
 11
171.5596758125765
 21
142.2104374146727
 31
0.0
  0
LINE
  5
21D1
330
2121
100
AcDbEntity
  8
SUNPOU
370
    -2
100
AcDbLine
 10
206.5596492957315
 20
132.0123157569246
 30
0.0
 11
206.5596492957315
 21
142.2104374146727
 31
0.0
  0
LINE
  5
21D2
330
2121
100
AcDbEntity
  8
SUNPOU
370
    -2
100
AcDbLine
 10
174.5596758125765
 20
140.7104374146727
 30
0.0
 11
203.5596492957315
 21
140.7104374146727
 31
0.0
  0
INSERT
  5
21D3
330
2121
100
AcDbEntity
  8
SUNPOU
370
    -2
100
AcDbBlockReference
  2
_OPEN
 10
171.5596758125765
 20
140.7104374146727
 30
0.0
 41
3.0
 42
3.0
 43
3.0
 50
180.0
  0
INSERT
  5
21D4
330
2121
100
AcDbEntity
  8
SUNPOU
370
    -2
100
AcDbBlockReference
  2
_OPEN
 10
206.5596492957315
 20
140.7104374146727
 30
0.0
 41
3.0
 42
3.0
 43
3.0
  0
MTEXT
  5
21D5
330
2121
100
AcDbEntity
  8
SUNPOU
100
AcDbMText
 10
189.059662554154
 20
143.2104374146727
 30
0.0
 40
3.0
 41
0.0
 71
     5
 72
     1
  1
\A1;35
 73
     1
 44
1.0
  0
POINT
  5
21D6
330
2121
100
AcDbEntity
  8
DEFPOINTS
 62
     0
100
AcDbPoint
 10
171.5596758125765
 20
89.56008845828933
 30
0.0
  0
POINT
  5
21D7
330
2121
100
AcDbEntity
  8
DEFPOINTS
 62
     0
100
AcDbPoint
 10
206.5596492957315
 20
129.0123157569246
 30
0.0
  0
POINT
  5
21D8
330
2121
100
AcDbEntity
  8
DEFPOINTS
 62
     0
100
AcDbPoint
 10
206.5596492957315
 20
140.7104374146727
 30
0.0
  0
ENDBLK
  5
212C
330
2121
100
AcDbEntity
  8
0
100
AcDbBlockEnd
  0
BLOCK
  5
2137
330
212D
100
AcDbEntity
  8
0
100
AcDbBlockBegin
  2
*D5
 70
     1
 71
     0
 10
0.0
 20
0.0
 30
0.0
  3
*D5
  1

  0
LINE
  5
21D9
330
212D
100
AcDbEntity
  8
SUNPOU
370
    -2
100
AcDbLine
 10
198.2905131855765
 20
232.8893395754948
 30
0.0
 11
218.2221433792372
 21
232.8893395754948
 31
0.0
  0
LINE
  5
21DA
330
212D
100
AcDbEntity
  8
SUNPOU
370
    -2
100
AcDbLine
 10
198.2905131855765
 20
179.8893395354948
 30
0.0
 11
218.2221433792371
 21
179.8893395354948
 31
0.0
  0
LINE
  5
21DB
330
212D
100
AcDbEntity
  8
SUNPOU
370
    -2
100
AcDbLine
 10
216.7221433792372
 20
229.8893395754948
 30
0.0
 11
216.7221433792371
 21
182.8893395354948
 31
0.0
  0
INSERT
  5
21DC
330
212D
100
AcDbEntity
  8
SUNPOU
370
    -2
100
AcDbBlockReference
  2
_OPEN
 10
216.7221433792372
 20
232.8893395754948
 30
0.0
 41
3.0
 42
3.0
 43
3.0
 50
90.0
  0
INSERT
  5
21DD
330
212D
100
AcDbEntity
  8
SUNPOU
370
    -2
100
AcDbBlockReference
  2
_OPEN
 10
216.7221433792371
 20
179.8893395354948
 30
0.0
 41
3.0
 42
3.0
 43
3.0
 50
270.0
  0
MTEXT
  5
21DE
330
212D
100
AcDbEntity
  8
SUNPOU
100
AcDbMText
 10
214.2221433792371
 20
206.3893395554949
 30
0.0
 40
3.0
 41
0.0
 71
     5
 72
     1
  1
\A1;53
 11
6.123031769111886E-17
 21
1.0
 31
0.0
 73
     1
 44
1.0
  0
POINT
  5
21DF
330
212D
100
AcDbEntity
  8
DEFPOINTS
 62
     0
100
AcDbPoint
 10
195.2905131855765
 20
232.8893395754948
 30
0.0
  0
POINT
  5
21E0
330
212D
100
AcDbEntity
  8
DEFPOINTS
 62
     0
100
AcDbPoint
 10
195.2905131855765
 20
179.8893395354948
 30
0.0
  0
POINT
  5
21E1
330
212D
100
AcDbEntity
  8
DEFPOINTS
 62
     0
100
AcDbPoint
 10
216.7221433792371
 20
179.8893395354948
 30
0.0
  0
ENDBLK
  5
2138
330
212D
100
AcDbEntity
  8
0
100
AcDbBlockEnd
  0
BLOCK
  5
2143
330
2139
100
AcDbEntity
  8
0
100
AcDbBlockBegin
  2
*D6
 70
     1
 71
     0
 10
0.0
 20
0.0
 30
0.0
  3
*D6
  1

  0
LINE
  5
21E2
330
2139
100
AcDbEntity
  8
SUNPOU
370
    -2
100
AcDbLine
 10
45.55967581257639
 20
217.3893391654949
 30
0.0
 11
25.002192466402
 21
217.3893391654949
 31
0.0
  0
LINE
  5
21E3
330
2139
100
AcDbEntity
  8
SUNPOU
370
    -2
100
AcDbLine
 10
45.55967581257633
 20
195.3893391654949
 30
0.0
 11
25.00219246640199
 21
195.3893391654949
 31
0.0
  0
LINE
  5
21E4
330
2139
100
AcDbEntity
  8
SUNPOU
370
    -2
100
AcDbLine
 10
26.502192466402
 20
214.3893391654949
 30
0.0
 11
26.50219246640199
 21
198.3893391654949
 31
0.0
  0
INSERT
  5
21E5
330
2139
100
AcDbEntity
  8
SUNPOU
370
    -2
100
AcDbBlockReference
  2
_OPEN
 10
26.502192466402
 20
217.3893391654949
 30
0.0
 41
3.0
 42
3.0
 43
3.0
 50
90.0
  0
INSERT
  5
21E6
330
2139
100
AcDbEntity
  8
SUNPOU
370
    -2
100
AcDbBlockReference
  2
_OPEN
 10
26.50219246640199
 20
195.3893391654949
 30
0.0
 41
3.0
 42
3.0
 43
3.0
 50
270.0
  0
MTEXT
  5
21E7
330
2139
100
AcDbEntity
  8
SUNPOU
100
AcDbMText
 10
24.00219246640197
 20
206.3893391654949
 30
0.0
 40
3.0
 41
0.0
 71
     5
 72
     1
  1
\A1;22
 11
6.123031769111886E-17
 21
1.0
 31
0.0
 73
     1
 44
1.0
  0
POINT
  5
21E8
330
2139
100
AcDbEntity
  8
DEFPOINTS
 62
     0
100
AcDbPoint
 10
48.55967581257639
 20
217.3893391654949
 30
0.0
  0
POINT
  5
21E9
330
2139
100
AcDbEntity
  8
DEFPOINTS
 62
     0
100
AcDbPoint
 10
48.55967581257633
 20
195.3893391654949
 30
0.0
  0
POINT
  5
21EA
330
2139
100
AcDbEntity
  8
DEFPOINTS
 62
     0
100
AcDbPoint
 10
26.50219246640199
 20
195.3893391654949
 30
0.0
  0
ENDBLK
  5
2144
330
2139
100
AcDbEntity
  8
0
100
AcDbBlockEnd
  0
BLOCK
  5
214F
330
2145
100
AcDbEntity
  8
0
100
AcDbBlockBegin
  2
*D7
 70
     1
 71
     0
 10
0.0
 20
0.0
 30
0.0
  3
*D7
  1

  0
LINE
  5
21EB
330
2145
100
AcDbEntity
  8
SUNPOU
370
    -2
100
AcDbLine
 10
207.2500270485085
 20
135.3641186279656
 30
0.0
 11
229.2073058720158
 21
144.1470301503093
 31
0.0
  0
LINE
  5
21EC
330
2145
100
AcDbEntity
  8
SUNPOU
370
    -2
100
AcDbLine
 10
226.5623422055409
 20
87.08333069657962
 30
0.0
 11
248.5196210290481
 21
95.86624221892333
 31
0.0
  0
LINE
  5
21ED
330
2145
100
AcDbEntity
  8
SUNPOU
370
    -2
100
AcDbLine
 10
228.9287628638238
 20
140.8045140631996
 30
0.0
 11
246.0127339642755
 21
98.09458627774275
 31
0.0
  0
INSERT
  5
21EE
330
2145
100
AcDbEntity
  8
SUNPOU
370
    -2
100
AcDbBlockReference
  2
_OPEN
 10
227.8145908355335
 20
143.5899441361642
 30
0.0
 41
3.0
 42
3.0
 43
3.0
 50
111.8014094704722
  0
INSERT
  5
21EF
330
2145
100
AcDbEntity
  8
SUNPOU
370
    -2
100
AcDbBlockReference
  2
_OPEN
 10
247.1269059925658
 20
95.30915620477818
 30
0.0
 41
3.0
 42
3.0
 43
3.0
 50
291.8014094704722
  0
MTEXT
  5
21F0
330
2145
100
AcDbEntity
  8
SUNPOU
100
AcDbMText
 10
239.7919401415201
 20
120.3780268607131
 30
0.0
 40
3.0
 41
0.0
 71
     5
 72
     1
  1
\A1;52
 11
0.371390676096775
 21
-0.9284766909881909
 31
0.0
 73
     1
 44
1.0
  0
POINT
  5
21F1
330
2145
100
AcDbEntity
  8
DEFPOINTS
 62
     0
100
AcDbPoint
 10
204.464596975544
 20
134.2499465996752
 30
0.0
  0
POINT
  5
21F2
330
2145
100
AcDbEntity
  8
DEFPOINTS
 62
     0
100
AcDbPoint
 10
223.7769121325763
 20
85.96915866828931
 30
0.0
  0
POINT
  5
21F3
330
2145
100
AcDbEntity
  8
DEFPOINTS
 62
     0
100
AcDbPoint
 10
247.1269059925658
 20
95.30915620477818
 30
0.0
  0
ENDBLK
  5
2150
330
2145
100
AcDbEntity
  8
0
100
AcDbBlockEnd
  0
BLOCK
  5
215D
330
2151
100
AcDbEntity
  8
0
100
AcDbBlockBegin
  2
*D8
 70
     1
 71
     0
 10
0.0
 20
0.0
 30
0.0
  3
*D8
  1

  0
LINE
  5
21F4
330
2151
100
AcDbEntity
  8
SUNPOU
370
    -2
100
AcDbLine
 10
311.6501831437806
 20
127.0421479712572
 30
0.0
 11
296.7946032803282
 21
121.0999158713889
 31
0.0
  0
LINE
  5
21F5
330
2151
100
AcDbEntity
  8
SUNPOU
370
    -2
100
AcDbLine
 10
316.1068712709028
 20
122.9011419593623
 30
0.0
 11
298.8372520460561
 21
115.993294089832
 31
0.0
  0
LINE
  5
21F6
330
2151
100
AcDbEntity
  8
SUNPOU
370
    -2
100
AcDbLine
 10
297.0731462576284
 20
124.4424319610729
 30
0.0
 11
295.958974203595
 21
127.2278620237402
 31
0.0
  0
LINE
  5
21F7
330
2151
100
AcDbEntity
  8
SUNPOU
370
    -2
100
AcDbLine
 10
301.3441391314232
 20
113.7649500541814
 30
0.0
 11
302.4583111854566
 21
110.979519991514
 31
0.0
  0
LINE
  5
21F8
330
2151
100
AcDbEntity
  8
SUNPOU
370
    -2
100
AcDbLine
 10
298.1873183116618
 20
121.6570018984056
 30
0.0
 11
300.2299670773897
 21
116.5503801168487
 31
0.0
  0
INSERT
  5
21F9
330
2151
100
AcDbEntity
  8
SUNPOU
370
    -2
100
AcDbBlockReference
  2
_OPEN
 10
298.1873183116618
 20
121.6570018984056
 30
0.0
 41
3.0
 42
3.0
 43
3.0
 50
291.8014100000027
  0
INSERT
  5
21FA
330
2151
100
AcDbEntity
  8
SUNPOU
370
    -2
100
AcDbBlockReference
  2
_OPEN
 10
300.2299670773897
 20
116.5503801168487
 30
0.0
 41
3.0
 42
3.0
 43
3.0
 50
111.8014100000027
  0
MTEXT
  5
21FB
330
2151
100
AcDbEntity
  8
SUNPOU
100
AcDbMText
 10
301.5298344134152
 20
120.0321677193216
 30
0.0
 40
3.0
 41
0.0
 71
     5
 72
     1
  1
\A1;6
 11
0.3713906846778028
 21
-0.9284766875557796
 31
0.0
 73
     1
 44
1.0
  0
POINT
  5
21FC
330
2151
100
AcDbEntity
  8
DEFPOINTS
 62
     0
100
AcDbPoint
 10
314.435613206448
 20
128.1563200252906
 30
0.0
  0
POINT
  5
21FD
330
2151
100
AcDbEntity
  8
DEFPOINTS
 62
     0
100
AcDbPoint
 10
318.8923013335701
 20
124.0153140133957
 30
0.0
  0
POINT
  5
21FE
330
2151
100
AcDbEntity
  8
DEFPOINTS
 62
     0
100
AcDbPoint
 10
300.2299670773897
 20
116.5503801168487
 30
0.0
  0
ENDBLK
  5
215E
330
2151
100
AcDbEntity
  8
0
100
AcDbBlockEnd
  0
BLOCK
  5
2169
330
215F
100
AcDbEntity
  8
0
100
AcDbBlockBegin
  2
*D9
 70
     1
 71
     0
 10
0.0
 20
0.0
 30
0.0
  3
*D9
  1

  0
LINE
  5
21FF
330
215F
100
AcDbEntity
  8
SUNPOU
370
    -2
100
AcDbLine
 10
302.7368066225035
 20
156.3263027113709
 30
0.0
 11
276.299960691699
 21
145.7515640641249
 31
0.0
  0
LINE
  5
2200
330
215F
100
AcDbEntity
  8
SUNPOU
370
    -2
100
AcDbLine
 10
316.1068712709028
 20
122.9011419593623
 30
0.0
 11
289.6700253400998
 21
112.3264033121169
 31
0.0
  0
LINE
  5
2201
330
215F
100
AcDbEntity
  8
SUNPOU
370
    -2
100
AcDbLine
 10
278.8068477770661
 20
143.5232200284743
 30
0.0
 11
289.9485683174001
 21
115.668919401801
 31
0.0
  0
INSERT
  5
2202
330
215F
100
AcDbEntity
  8
SUNPOU
370
    -2
100
AcDbBlockReference
  2
_OPEN
 10
277.6926757230327
 20
146.3086500911416
 30
0.0
 41
3.0
 42
3.0
 43
3.0
 50
111.8014100000027
  0
INSERT
  5
2203
330
215F
100
AcDbEntity
  8
SUNPOU
370
    -2
100
AcDbBlockReference
  2
_OPEN
 10
291.0627403714335
 20
112.8834893391336
 30
0.0
 41
3.0
 42
3.0
 43
3.0
 50
291.8014100000027
  0
MTEXT
  5
2204
330
215F
100
AcDbEntity
  8
SUNPOU
100
AcDbMText
 10
286.6988997661225
 20
130.5245464268321
 30
0.0
 40
3.0
 41
0.0
 71
     5
 72
     1
  1
\A1;36
 11
0.3713906846778028
 21
-0.9284766875557796
 31
0.0
 73
     1
 44
1.0
  0
POINT
  5
2205
330
215F
100
AcDbEntity
  8
DEFPOINTS
 62
     0
100
AcDbPoint
 10
305.5222366851708
 20
157.4404747654044
 30
0.0
  0
POINT
  5
2206
330
215F
100
AcDbEntity
  8
DEFPOINTS
 62
     0
100
AcDbPoint
 10
318.8923013335701
 20
124.0153140133957
 30
0.0
  0
POINT
  5
2207
330
215F
100
AcDbEntity
  8
DEFPOINTS
 62
     0
100
AcDbPoint
 10
291.0627403714335
 20
112.8834893391336
 30
0.0
  0
ENDBLK
  5
216A
330
215F
100
AcDbEntity
  8
0
100
AcDbBlockEnd
  0
BLOCK
  5
2175
330
216B
100
AcDbEntity
  8
0
100
AcDbBlockBegin
  2
*D10
 70
     1
 71
     0
 10
0.0
 20
0.0
 30
0.0
  3
*D10
  1

  0
LINE
  5
2208
330
216B
100
AcDbEntity
  8
SUNPOU
370
    -2
100
AcDbLine
 10
311.6389274232509
 20
155.6116600338634
 30
0.0
 11
296.7528643905681
 21
192.8268166480494
 31
0.0
  0
LINE
  5
2209
330
216B
100
AcDbEntity
  8
SUNPOU
370
    -2
100
AcDbLine
 10
347.849518237927
 20
170.0958967362961
 30
0.0
 11
332.9634552052443
 21
207.3110533504816
 31
0.0
  0
LINE
  5
220A
330
216B
100
AcDbEntity
  8
SUNPOU
370
    -2
100
AcDbLine
 10
300.0953804802521
 20
192.5482736707489
 30
0.0
 11
330.7351111695936
 21
204.8041662651147
 31
0.0
  0
INSERT
  5
220B
330
216B
100
AcDbEntity
  8
SUNPOU
370
    -2
100
AcDbBlockReference
  2
_OPEN
 10
297.3099504175847
 20
191.4341016167157
 30
0.0
 41
3.0
 42
3.0
 43
3.0
 50
201.8014099999993
  0
INSERT
  5
220C
330
216B
100
AcDbEntity
  8
SUNPOU
370
    -2
100
AcDbBlockReference
  2
_OPEN
 10
333.5205412322609
 20
205.9183383191479
 30
0.0
 41
3.0
 42
3.0
 43
3.0
 50
21.80140999999935
  0
MTEXT
  5
220D
330
216B
100
AcDbEntity
  8
SUNPOU
100
AcDbMText
 10
314.4867691132284
 20
200.9974116868213
 30
0.0
 40
3.0
 41
0.0
 71
     5
 72
     1
  1
\A1;39
 11
0.928476687555801
 21
0.3713906846777493
 31
0.0
 73
     1
 44
1.0
  0
POINT
  5
220E
330
216B
100
AcDbEntity
  8
DEFPOINTS
 62
     0
100
AcDbPoint
 10
312.7530994772841
 20
152.826229971196
 30
0.0
  0
POINT
  5
220F
330
216B
100
AcDbEntity
  8
DEFPOINTS
 62
     0
100
AcDbPoint
 10
348.9636902919602
 20
167.3104666736286
 30
0.0
  0
POINT
  5
2210
330
216B
100
AcDbEntity
  8
DEFPOINTS
 62
     0
100
AcDbPoint
 10
333.5205412322609
 20
205.9183383191479
 30
0.0
  0
ENDBLK
  5
2176
330
216B
100
AcDbEntity
  8
0
100
AcDbBlockEnd
  0
BLOCK
  5
2181
330
2177
100
AcDbEntity
  8
0
100
AcDbBlockBegin
  2
*D11
 70
     1
 71
     0
 10
0.0
 20
0.0
 30
0.0
  3
*D11
  1

  0
LINE
  5
2211
330
2177
100
AcDbEntity
  8
SUNPOU
370
    -2
100
AcDbLine
 10
307.4348986372765
 20
162.082858210727
 30
0.0
 11
292.2324706195997
 21
200.0889272668356
 31
0.0
  0
LINE
  5
2212
330
2177
100
AcDbEntity
  8
SUNPOU
370
    -2
100
AcDbLine
 10
346.4309195146199
 20
177.6812669671929
 30
0.0
 11
331.2284914969433
 21
215.6873360233011
 31
0.0
  0
LINE
  5
2213
330
2177
100
AcDbEntity
  8
SUNPOU
370
    -2
100
AcDbLine
 10
295.5749867092837
 20
199.8103842895352
 30
0.0
 11
329.0001474612924
 21
213.1804489379342
 31
0.0
  0
INSERT
  5
2214
330
2177
100
AcDbEntity
  8
SUNPOU
370
    -2
100
AcDbBlockReference
  2
_OPEN
 10
292.7895566466164
 20
198.696212235502
 30
0.0
 41
3.0
 42
3.0
 43
3.0
 50
201.8014099999993
  0
INSERT
  5
2215
330
2177
100
AcDbEntity
  8
SUNPOU
370
    -2
100
AcDbBlockReference
  2
_OPEN
 10
331.7855775239599
 20
214.2946209919674
 30
0.0
 41
3.0
 42
3.0
 43
3.0
 50
21.80140999999935
  0
MTEXT
  5
2216
330
2177
100
AcDbEntity
  8
SUNPOU
100
AcDbMText
 10
311.3590903735937
 20
208.8166083326242
 30
0.0
 40
3.0
 41
0.0
 71
     5
 72
     1
  1
\A1;42
 11
0.928476687555801
 21
0.3713906846777493
 31
0.0
 73
     1
 44
1.0
  0
POINT
  5
2217
330
2177
100
AcDbEntity
  8
DEFPOINTS
 62
     0
100
AcDbPoint
 10
308.5490706913097
 20
159.2974281480596
 30
0.0
  0
POINT
  5
2218
330
2177
100
AcDbEntity
  8
DEFPOINTS
 62
     0
100
AcDbPoint
 10
347.5450915686531
 20
174.8958369045255
 30
0.0
  0
POINT
  5
2219
330
2177
100
AcDbEntity
  8
DEFPOINTS
 62
     0
100
AcDbPoint
 10
331.7855775239599
 20
214.2946209919674
 30
0.0
  0
ENDBLK
  5
2182
330
2177
100
AcDbEntity
  8
0
100
AcDbBlockEnd
  0
BLOCK
  5
218D
330
2183
100
AcDbEntity
  8
0
100
AcDbBlockBegin
  2
*D12
 70
     1
 71
     0
 10
0.0
 20
0.0
 30
0.0
  3
*D12
  1

  0
LINE
  5
221A
330
2183
100
AcDbEntity
  8
SUNPOU
370
    -2
100
AcDbLine
 10
303.2938926253814
 20
157.6261700836046
 30
0.0
 11
284.176894432383
 21
205.4186643235897
 31
0.0
  0
LINE
  5
221B
330
2183
100
AcDbEntity
  8
SUNPOU
370
    -2
100
AcDbLine
 10
352.5031570658386
 20
177.309876371526
 30
0.0
 11
333.3861588728404
 21
225.1023706115104
 31
0.0
  0
LINE
  5
221C
330
2183
100
AcDbEntity
  8
SUNPOU
370
    -2
100
AcDbLine
 10
287.519410522067
 20
205.1401213462892
 30
0.0
 11
331.1578148371897
 21
222.5954835261434
 31
0.0
  0
INSERT
  5
221D
330
2183
100
AcDbEntity
  8
SUNPOU
370
    -2
100
AcDbBlockReference
  2
_OPEN
 10
284.7339804593996
 20
204.025949292256
 30
0.0
 41
3.0
 42
3.0
 43
3.0
 50
201.8014099999993
  0
INSERT
  5
221E
330
2183
100
AcDbEntity
  8
SUNPOU
370
    -2
100
AcDbBlockReference
  2
_OPEN
 10
333.9432448998571
 20
223.7096555801767
 30
0.0
 41
3.0
 42
3.0
 43
3.0
 50
21.80140999999935
  0
MTEXT
  5
221F
330
2183
100
AcDbEntity
  8
SUNPOU
100
AcDbMText
 10
308.4101359679339
 20
216.1889941551058
 30
0.0
 40
3.0
 41
0.0
 71
     5
 72
     1
  1
\A1;53
 11
0.928476687555801
 21
0.3713906846777493
 31
0.0
 73
     1
 44
1.0
  0
POINT
  5
2220
330
2183
100
AcDbEntity
  8
DEFPOINTS
 62
     0
100
AcDbPoint
 10
304.4080646794147
 20
154.8407400209372
 30
0.0
  0
POINT
  5
2221
330
2183
100
AcDbEntity
  8
DEFPOINTS
 62
     0
100
AcDbPoint
 10
353.6173291198719
 20
174.5244463088586
 30
0.0
  0
POINT
  5
2222
330
2183
100
AcDbEntity
  8
DEFPOINTS
 62
     0
100
AcDbPoint
 10
333.9432448998571
 20
223.7096555801767
 30
0.0
  0
ENDBLK
  5
218E
330
2183
100
AcDbEntity
  8
0
100
AcDbBlockEnd
  0
BLOCK
  5
2199
330
218F
100
AcDbEntity
  8
0
100
AcDbBlockBegin
  2
*D13
 70
     1
 71
     0
 10
0.0
 20
0.0
 30
0.0
  3
*D13
  1

  0
LINE
  5
2223
330
218F
100
AcDbEntity
  8
SUNPOU
370
    -2
100
AcDbLine
 10
206.5596492957315
 20
132.0123157569246
 30
0.0
 11
206.5596492957315
 21
151.5071636849291
 31
0.0
  0
LINE
  5
2224
330
218F
100
AcDbEntity
  8
SUNPOU
370
    -2
100
AcDbLine
 10
221.5596493341956
 20
132.0123157543834
 30
0.0
 11
221.5596493341956
 21
151.5071636849291
 31
0.0
  0
LINE
  5
2225
330
218F
100
AcDbEntity
  8
SUNPOU
370
    -2
100
AcDbLine
 10
209.5596492957315
 20
150.0071636849291
 30
0.0
 11
218.5596493341956
 21
150.0071636849291
 31
0.0
  0
INSERT
  5
2226
330
218F
100
AcDbEntity
  8
SUNPOU
370
    -2
100
AcDbBlockReference
  2
_OPEN
 10
206.5596492957315
 20
150.0071636849291
 30
0.0
 41
3.0
 42
3.0
 43
3.0
 50
180.0
  0
INSERT
  5
2227
330
218F
100
AcDbEntity
  8
SUNPOU
370
    -2
100
AcDbBlockReference
  2
_OPEN
 10
221.5596493341956
 20
150.0071636849291
 30
0.0
 41
3.0
 42
3.0
 43
3.0
  0
MTEXT
  5
2228
330
218F
100
AcDbEntity
  8
SUNPOU
100
AcDbMText
 10
214.0596493149635
 20
152.5071636849291
 30
0.0
 40
3.0
 41
0.0
 71
     5
 72
     1
  1
\A1;15
 73
     1
 44
1.0
  0
POINT
  5
2229
330
218F
100
AcDbEntity
  8
DEFPOINTS
 62
     0
100
AcDbPoint
 10
206.5596492957315
 20
129.0123157569246
 30
0.0
  0
POINT
  5
222A
330
218F
100
AcDbEntity
  8
DEFPOINTS
 62
     0
100
AcDbPoint
 10
221.5596493341956
 20
129.0123157543834
 30
0.0
  0
POINT
  5
222B
330
218F
100
AcDbEntity
  8
DEFPOINTS
 62
     0
100
AcDbPoint
 10
221.5596493341956
 20
150.0071636849291
 30
0.0
  0
ENDBLK
  5
219A
330
218F
100
AcDbEntity
  8
0
100
AcDbBlockEnd
  0
BLOCK
  5
21A7
330
219B
100
AcDbEntity
  8
0
100
AcDbBlockBegin
  2
*D14
 70
     1
 71
     0
 10
0.0
 20
0.0
 30
0.0
  3
*D14
  1

  0
LINE
  5
222C
330
219B
100
AcDbEntity
  8
SUNPOU
370
    -2
100
AcDbLine
 10
302.7368066225035
 20
156.3263027113709
 30
0.0
 11
285.4671873976565
 21
149.4184548418405
 31
0.0
  0
LINE
  5
222D
330
219B
100
AcDbEntity
  8
SUNPOU
370
    -2
100
AcDbLine
 10
302.3654160268366
 20
150.254065160152
 30
0.0
 11
287.5098361633844
 21
144.3118330602838
 31
0.0
  0
LINE
  5
222E
330
219B
100
AcDbEntity
  8
SUNPOU
370
    -2
100
AcDbLine
 10
285.7457303749567
 20
152.7609709315246
 30
0.0
 11
284.6315583209233
 21
155.5464009941919
 31
0.0
  0
LINE
  5
222F
330
219B
100
AcDbEntity
  8
SUNPOU
370
    -2
100
AcDbLine
 10
290.0167232487514
 20
142.0834890246331
 30
0.0
 11
291.1308953027848
 21
139.2980589619658
 31
0.0
  0
LINE
  5
2230
330
219B
100
AcDbEntity
  8
SUNPOU
370
    -2
100
AcDbLine
 10
286.8599024289902
 20
149.9755408688572
 30
0.0
 11
288.902551194718
 21
144.8689190873005
 31
0.0
  0
INSERT
  5
2231
330
219B
100
AcDbEntity
  8
SUNPOU
370
    -2
100
AcDbBlockReference
  2
_OPEN
 10
286.8599024289902
 20
149.9755408688572
 30
0.0
 41
3.0
 42
3.0
 43
3.0
 50
291.8014100000027
  0
INSERT
  5
2232
330
219B
100
AcDbEntity
  8
SUNPOU
370
    -2
100
AcDbBlockReference
  2
_OPEN
 10
288.902551194718
 20
144.8689190873005
 30
0.0
 41
3.0
 42
3.0
 43
3.0
 50
111.8014100000027
  0
MTEXT
  5
2233
330
219B
100
AcDbEntity
  8
SUNPOU
100
AcDbMText
 10
290.2024185307436
 20
148.3507066897734
 30
0.0
 40
3.0
 41
0.0
 71
     5
 72
     1
  1
\A1;6
 11
0.3713906846778028
 21
-0.9284766875557796
 31
0.0
 73
     1
 44
1.0
  0
POINT
  5
2234
330
219B
100
AcDbEntity
  8
DEFPOINTS
 62
     0
100
AcDbPoint
 10
305.5222366851708
 20
157.4404747654044
 30
0.0
  0
POINT
  5
2235
330
219B
100
AcDbEntity
  8
DEFPOINTS
 62
     0
100
AcDbPoint
 10
305.1508460895039
 20
151.3682372141855
 30
0.0
  0
POINT
  5
2236
330
219B
100
AcDbEntity
  8
DEFPOINTS
 62
     0
100
AcDbPoint
 10
288.902551194718
 20
144.8689190873005
 30
0.0
  0
ENDBLK
  5
21A8
330
219B
100
AcDbEntity
  8
0
100
AcDbBlockEnd
  0
BLOCK
  5
21B3
330
21A9
100
AcDbEntity
  8
0
100
AcDbBlockBegin
  2
*D15
 70
     1
 71
     0
 10
0.0
 20
0.0
 30
0.0
  3
*D15
  1

  0
LINE
  5
2237
330
21A9
100
AcDbEntity
  8
SUNPOU
370
    -2
100
AcDbLine
 10
353.8030244380722
 20
176.752790368648
 30
0.0
 11
369.1925314586211
 21
182.9085933369074
 31
0.0
  0
LINE
  5
2238
330
21A9
100
AcDbEntity
  8
SUNPOU
370
    -2
100
AcDbLine
 10
360.8594473986724
 20
164.4968981122224
 30
0.0
 11
374.3920010441104
 21
169.9099197111264
 31
0.0
  0
LINE
  5
2239
330
21A9
100
AcDbEntity
  8
SUNPOU
370
    -2
100
AcDbLine
 10
368.9139884813208
 20
179.5660772472234
 30
0.0
 11
371.8851139587433
 21
172.1382637467771
 31
0.0
  0
INSERT
  5
223A
330
21A9
100
AcDbEntity
  8
SUNPOU
370
    -2
100
AcDbBlockReference
  2
_OPEN
 10
367.7998164272874
 20
182.3515073098907
 30
0.0
 41
3.0
 42
3.0
 43
3.0
 50
111.8014100000027
  0
INSERT
  5
223B
330
21A9
100
AcDbEntity
  8
SUNPOU
370
    -2
100
AcDbBlockReference
  2
_OPEN
 10
372.9992860127767
 20
169.3528336841098
 30
0.0
 41
3.0
 42
3.0
 43
3.0
 50
291.8014100000027
  0
MTEXT
  5
223C
330
21A9
100
AcDbEntity
  8
SUNPOU
100
AcDbMText
 10
372.7207429389215
 20
176.7806472086947
 30
0.0
 40
3.0
 41
0.0
 71
     5
 72
     1
  1
\A1;14
 11
0.3713906846778028
 21
-0.9284766875557796
 31
0.0
 73
     1
 44
1.0
  0
POINT
  5
223D
330
21A9
100
AcDbEntity
  8
DEFPOINTS
 62
     0
100
AcDbPoint
 10
351.0175943754048
 20
175.6386183146146
 30
0.0
  0
POINT
  5
223E
330
21A9
100
AcDbEntity
  8
DEFPOINTS
 62
     0
100
AcDbPoint
 10
358.0740173360051
 20
163.382726058189
 30
0.0
  0
POINT
  5
223F
330
21A9
100
AcDbEntity
  8
DEFPOINTS
 62
     0
100
AcDbPoint
 10
372.9992860127767
 20
169.3528336841098
 30
0.0
  0
ENDBLK
  5
21B4
330
21A9
100
AcDbEntity
  8
0
100
AcDbBlockEnd
  0
ENDSEC
  0
SECTION
  2
ENTITIES
  0
LWPOLYLINE
  5
ABF
330
1A
100
AcDbEntity
  8
ZUWAKU
100
AcDbPolyline
 90
        4
 70
     1
 43
0.0
 10
0.3999995171010369
 20
275.3999999613564
 10
0.3999995171010369
 20
0.3999999613564
 10
398.399999517101
 20
0.3999999613564
 10
398.399999517101
 20
275.3999999613564
  0
LWPOLYLINE
  5
AC0
330
1A
100
AcDbEntity
  8
ZUWAKU
100
AcDbPolyline
 90
        4
 70
     1
 43
0.0
 10
0.1999995171010482
 20
275.5999999613564
 10
0.1999995171010482
 20
0.1999999613564114
 10
398.5999995171011
 20
0.1999999613563999
 10
398.5999995171011
 20
275.5999999613564
  0
LWPOLYLINE
  5
AC1
330
1A
100
AcDbEntity
  8
ZUWAKU
100
AcDbPolyline
 90
        4
 70
     1
 43
0.0
 10
-0.0000004828989404
 20
275.7999999613564
 10
-0.0000004828989404
 20
-0.0000000386436341
 10
398.7999995171011
 20
-0.0000000386436003
 10
398.7999995171011
 20
275.7999999613564
  0
LWPOLYLINE
  5
AC2
330
1A
100
AcDbEntity
  8
ZUWAKU
100
AcDbPolyline
 90
        4
 70
     1
 43
0.0
 10
0.2999995171010141
 20
275.4999999613564
 10
0.2999995171010141
 20
0.2999999613563773
 10
398.4999995171012
 20
0.2999999613564004
 10
398.4999995171011
 20
275.4999999613564
  0
LWPOLYLINE
  5
AC3
330
1A
100
AcDbEntity
  8
ZUWAKU
100
AcDbPolyline
 90
        4
 70
     1
 43
0.0
 10
0.0999995171010255
 20
275.6999999613564
 10
0.0999995171010255
 20
0.0999999613563887
 10
398.699999517101
 20
0.0999999613564002
 10
398.6999995171011
 20
275.6999999613564
  0
LINE
  5
AC4
330
1A
100
AcDbEntity
  8
ZUWAKU
100
AcDbLine
 10
-0.0000004828989404
 20
14.99999996135637
 30
0.0
 11
398.699999517101
 21
14.99999996135637
 31
0.0
  0
LINE
  5
AC5
330
1A
100
AcDbEntity
  8
ZUWAKU
100
AcDbLine
 10
-0.0000004828989404
 20
15.09999996135637
 30
0.0
 11
398.699999517101
 21
15.09999996135637
 31
0.0
  0
LINE
  5
AC6
330
1A
100
AcDbEntity
  8
ZUWAKU
100
AcDbLine
 10
-0.0000004828989404
 20
15.19999996135637
 30
0.0
 11
398.699999517101
 21
15.19999996135637
 31
0.0
  0
LINE
  5
AC7
330
1A
100
AcDbEntity
  8
ZUWAKU
100
AcDbLine
 10
-0.0000004828989404
 20
15.29999996135637
 30
0.0
 11
398.699999517101
 21
15.29999996135637
 31
0.0
  0
LINE
  5
AC8
330
1A
100
AcDbEntity
  8
ZUWAKU
100
AcDbLine
 10
-0.0000004828989404
 20
15.39999996135637
 30
0.0
 11
398.699999517101
 21
15.39999996135637
 31
0.0
  0
LINE
  5
AC9
330
1A
100
AcDbEntity
  8
ZUWAKU
100
AcDbLine
 10
104.3233001621351
 20
7.699999961356383
 30
0.0
 11
223.7121815025968
 21
7.699999961356383
 31
0.0
  0
LINE
  5
ACA
330
1A
100
AcDbEntity
  8
ZUWAKU
100
AcDbLine
 10
104.3233001621351
 20
7.799999961356383
 30
0.0
 11
223.7121815025968
 21
7.799999961356386
 31
0.0
  0
LINE
  5
ACB
330
1A
100
AcDbEntity
  8
ZUWAKU
100
AcDbLine
 10
104.3233001621351
 20
7.599999961356385
 30
0.0
 11
223.7121815025968
 21
7.599999961356382
 31
0.0
  0
TEXT
  5
ACC
330
1A
100
AcDbEntity
  8
moji
100
AcDbText
 10
46.47889431118563
 20
6.370589026493747
 30
0.0
 40
3.0
  1
アーバントップΣ９０
 41
0.9
  7
ｽﾀｲﾙ1
100
AcDbText
  0
CIRCLE
  5
ACD
330
1A
100
AcDbEntity
  8
ZUWAKU
100
AcDbCircle
 10
12.99610559449161
 20
7.599999961356367
 30
0.0
 40
0.875
  0
LINE
  5
ACE
330
1A
100
AcDbEntity
  8
ZUWAKU
100
AcDbLine
 10
13.43360559449161
 20
3.574999961356369
 30
0.0
 11
12.47110559449163
 21
3.574999961356369
 31
0.0
  0
LINE
  5
ACF
330
1A
100
AcDbEntity
  8
ZUWAKU
100
AcDbLine
 10
12.47110559449163
 20
4.974999961356367
 30
0.0
 11
13.43360559449161
 21
4.974999961356367
 31
0.0
  0
LINE
  5
AD0
330
1A
100
AcDbEntity
  8
ZUWAKU
100
AcDbLine
 10
13.43360559449161
 20
10.22499996135637
 30
0.0
 11
12.47110559449163
 21
10.22499996135637
 31
0.0
  0
LINE
  5
AD1
330
1A
100
AcDbEntity
  8
ZUWAKU
100
AcDbLine
 10
12.47110559449163
 20
11.62499996135635
 30
0.0
 11
13.43360559449161
 21
11.62499996135637
 31
0.0
  0
HATCH
  5
AD2
330
1A
100
AcDbEntity
  8
ZUWAKU
100
AcDbHatch
 10
0.0
 20
0.0
 30
0.0
210
0.0
220
0.0
230
1.0
  2
ANSI37
 70
     0
 71
     0
 91
        8
 92
        7
 72
     1
 73
     1
 93
       24
 10
7.251130847660988
 20
8.822424201848158
 42
-0.1989123673796348
 10
7.046105594491621
 20
9.317398948678683
 42
0.0
 10
7.046105594491621
 20
9.962499961356372
 42
-0.4142135623730912
 10
7.30860559449161
 20
10.22499996135637
 42
0.0
 10
8.796105594491564
 20
10.22499996135637
 42
0.4142135623731546
 10
9.05860559449161
 20
10.48749996135636
 42
0.0
 10
9.05860559449161
 20
11.36249996135637
 42
0.4142135623731586
 10
8.796105594491564
 20
11.62499996135637
 42
0.0
 10
7.046105594491621
 20
11.62499996135637
 42
0.4142135623730928
 10
5.646105594491644
 20
10.22499996135638
 42
0.0
 10
5.646105594491644
 20
9.317398948678747
 42
0.1989123673796619
 10
6.261181353999859
 20
7.832474708186943
 42
0.0
 10
7.716080341322197
 20
6.377575720864614
 42
-0.1989123673796613
 10
7.921105594491621
 20
5.882600974034022
 42
0.0
 10
7.921105594491621
 20
5.237499961356363
 42
-0.4142135623730911
 10
7.658605594491633
 20
4.974999961356367
 42
0.0
 10
6.171105594491678
 20
4.974999961356367
 42
0.4142135623731526
 10
5.908605594491633
 20
4.712499961356373
 42
0.0
 10
5.908605594491633
 20
3.837499961356363
 42
0.4142135623731526
 10
6.171105594491678
 20
3.574999961356369
 42
0.0
 10
7.921105594491621
 20
3.574999961356369
 42
0.4142135623731044
 10
9.321105594491655
 20
4.974999961356357
 42
0.0
 10
9.321105594491655
 20
5.882600974033993
 42
0.1989123673796604
 10
8.706029834983383
 20
7.367525214525763
 42
0.0
 97
        0
 92
        7
 72
     1
 73
     1
 93
       16
 10
11.77110559449164
 20
9.524999961356372
 42
-0.4142135623730935
 10
12.47110559449163
 20
10.22499996135637
 42
0.0
 10
13.43360559449161
 20
10.22499996135637
 42
0.4142135623731546
 10
13.69610559449166
 20
10.48749996135636
 42
0.0
 10
13.69610559449166
 20
11.36249996135637
 42
0.4142135623730952
 10
13.43360559449167
 20
11.62499996135637
 42
0.0
 10
12.47110559449158
 20
11.62499996135635
 42
0.4142135623730892
 10
10.37110559449161
 20
9.524999961356336
 42
0.0
 10
10.37110559449161
 20
5.674999961356381
 42
0.4142135623730969
 10
12.47110559449163
 20
3.574999961356369
 42
0.0
 10
13.43360559449161
 20
3.574999961356369
 42
0.4142135623731526
 10
13.69610559449166
 20
3.837499961356363
 42
0.0
 10
13.69610559449166
 20
4.712499961356373
 42
0.414213562373089
 10
13.43360559449167
 20
4.974999961356367
 42
0.0
 10
12.47110559449163
 20
4.974999961356367
 42
-0.4142135623730928
 10
11.77110559449164
 20
5.674999961356361
 42
0.0
 97
        0
 92
        7
 72
     1
 73
     1
 93
        2
 10
12.12110559449161
 20
7.599999961356367
 42
1.0
 10
13.87110559449161
 20
7.599999961356367
 42
1.0
 97
        0
 92
        7
 72
     1
 73
     1
 93
       26
 10
18.65742883558062
 20
9.602523558138081
 42
0.0
 10
19.18824865214953
 20
11.28345297727288
 42
0.5069206636600134
 10
18.93793320255185
 20
11.62499996135637
 42
0.0
 10
18.08848851274723
 20
11.62499996135637
 42
0.3272098845218764
 10
17.83817306314955
 20
11.44154694543985
 42
0.0
 10
16.90403812583367
 20
8.483452977272908
 42
-0.3272098845219541
 10
16.65372267623593
 20
8.299999961356367
 42
0.0
 10
16.5836055944917
 20
8.299999961356367
 42
-0.4142135623731526
 10
16.32110559449166
 20
8.562499961356361
 42
0.0
 10
16.32110559449166
 20
11.36249996135637
 42
0.4142135623730952
 10
16.05860559449167
 20
11.62499996135637
 42
0.0
 10
15.18360559449161
 20
11.62499996135637
 42
0.4142135623730872
 10
14.92110559449162
 20
11.36249996135638
 42
0.0
 10
14.92110559449162
 20
3.837499961356363
 42
0.414213562373089
 10
15.18360559449161
 20
3.574999961356369
 42
0.0
 10
16.05860559449161
 20
3.574999961356369
 42
0.4142135623731526
 10
16.32110559449166
 20
3.837499961356363
 42
0.0
 10
16.32110559449166
 20
6.637499961356374
 42
-0.4142135623731526
 10
16.5836055944917
 20
6.899999961356368
 42
0.0
 10
16.65372267623599
 20
6.899999961356368
 42
-0.3272098845218915
 10
16.90403812583367
 20
6.716546945439831
 42
0.0
 10
17.83817306314955
 20
3.758452977272905
 42
0.3272098845218902
 10
18.08848851274723
 20
3.574999961356369
 42
0.0
 10
18.93793320255185
 20
3.574999961356369
 42
0.5069206636600334
 10
19.18824865214953
 20
3.916546945439873
 42
0.0
 10
18.0250529629127
 20
7.599999961356437
 42
0.0
 97
        0
 92
        7
 72
     1
 73
     1
 93
        8
 10
21.74610559449161
 20
11.36249996135637
 42
0.4142135623731546
 10
21.48360559449156
 20
11.62499996135637
 42
0.0
 10
20.60860559449168
 20
11.62499996135637
 42
0.4142135623731506
 10
20.34610559449163
 20
11.36249996135638
 42
0.0
 10
20.34610559449163
 20
3.837499961356363
 42
0.4142135623731526
 10
20.60860559449168
 20
3.574999961356369
 42
0.0
 10
21.48360559449156
 20
3.574999961356369
 42
0.4142135623731526
 10
21.74610559449161
 20
3.837499961356363
 42
0.0
 97
        0
 92
        7
 72
     1
 73
     1
 93
       24
 10
24.19610559449166
 20
9.962499961356372
 42
-0.4142135623731547
 10
24.4586055944917
 20
10.22499996135637
 42
0.0
 10
25.94610559449166
 20
10.22499996135637
 42
0.4142135623730911
 10
26.20860559449164
 20
10.48749996135636
 42
0.0
 10
26.20860559449164
 20
11.36249996135637
 42
0.4142135623730952
 10
25.94610559449166
 20
11.62499996135637
 42
0.0
 10
24.19610559449166
 20
11.62499996135637
 42
0.4142135623731048
 10
22.79610559449162
 20
10.22499996135638
 42
0.0
 10
22.79610559449162
 20
9.317398948678747
 42
0.1989123673796613
 10
23.41118135399989
 20
7.832474708186972
 42
0.0
 10
24.86608034132223
 20
6.377575720864638
 42
-0.1989123673796402
 10
25.07110559449166
 20
5.882600974034101
 42
0.0
 10
25.07110559449166
 20
5.237499961356363
 42
-0.4142135623730911
 10
24.80860559449167
 20
4.974999961356367
 42
0.0
 10
23.32110559449166
 20
4.974999961356367
 42
0.4142135623731526
 10
23.05860559449161
 20
4.712499961356373
 42
0.0
 10
23.05860559449161
 20
3.837499961356363
 42
0.414213562373089
 10
23.3211055944916
 20
3.574999961356369
 42
0.0
 10
25.07110559449166
 20
3.574999961356369
 42
0.4142135623730925
 10
26.47110559449163
 20
4.974999961356357
 42
0.0
 10
26.47110559449163
 20
5.882600974033993
 42
0.1989123673796675
 10
25.85602983498336
 20
7.36752521452582
 42
0.0
 10
24.40113084766108
 20
8.822424201848078
 42
-0.1989123673796653
 10
24.19610559449166
 20
9.317398948678662
 42
0.0
 97
        0
 92
        7
 72
     1
 73
     1
 93
       16
 10
28.92110559449162
 20
11.36249996135636
 42
0.414213562373103
 10
28.65860559449163
 20
11.62499996135637
 42
0.0
 10
27.78360559449163
 20
11.62499996135637
 42
0.4142135623730872
 10
27.52110559449164
 20
11.36249996135638
 42
0.0
 10
27.52110559449164
 20
4.974999961356357
 42
0.4142135623730925
 10
28.92110559449162
 20
3.574999961356369
 42
0.0
 10
30.67110559449162
 20
3.574999961356369
 42
0.4142135623731044
 10
32.07110559449166
 20
4.974999961356357
 42
0.0
 10
32.07110559449166
 20
11.36249996135637
 42
0.4142135623730952
 10
31.80860559449167
 20
11.62499996135637
 42
0.0
 10
30.93360559449161
 20
11.62499996135637
 42
0.4142135623730872
 10
30.67110559449162
 20
11.36249996135638
 42
0.0
 10
30.67110559449162
 20
5.499999961356355
 42
-0.414213562373088
 10
30.14610559449164
 20
4.974999961356367
 42
0.0
 10
29.44610559449166
 20
4.974999961356367
 42
-0.4142135623731197
 10
28.92110559449162
 20
5.499999961356355
 42
0.0
 97
        0
 92
        7
 72
     1
 73
     1
 93
        8
 10
34.52110559449164
 20
11.36249996135638
 42
0.4142135623730872
 10
34.25860559449166
 20
11.62499996135637
 42
0.0
 10
33.38360559449166
 20
11.62499996135637
 42
0.4142135623731506
 10
33.12110559449161
 20
11.36249996135638
 42
0.0
 10
33.12110559449161
 20
3.837499961356363
 42
0.414213562373089
 10
33.3836055944916
 20
3.574999961356369
 42
0.0
 10
34.25860559449166
 20
3.574999961356369
 42
0.414213562373089
 10
34.52110559449164
 20
3.837499961356363
 42
0.0
 97
        0
 75
     0
 76
     1
 52
0.0
 41
0.1
 77
     0
 78
     2
 53
45.0
 43
-450.4711526502384
 44
-6.6000000386436
 45
-0.2245064030267288
 46
0.2245064030267289
 79
     0
 53
135.0
 43
-450.4711526502384
 44
-6.6000000386436
 45
-0.2245064030267289
 46
-0.2245064030267288
 79
     0
 47
0.057451373970553
 98
        8
 10
8.039926998612714
 20
7.583586784299143
 10
11.20225702032064
 20
9.422031052581872
 10
12.58218345993089
 20
7.755940784391726
 10
15.45702950791963
 20
8.100648784577118
 10
20.91923552657943
 20
8.330454918347925
 10
23.44909996466583
 20
9.709288119559972
 10
28.27884250330124
 20
9.364578918903874
 10
33.91353932691243
 20
9.594385052674681
  0
ARC
  5
AD3
330
1A
100
AcDbEntity
  8
ZUWAKU
100
AcDbCircle
 10
7.74610559449161
 20
9.317398948678719
 30
0.0
 40
2.1
100
AcDbArc
 50
180.0
 51
225.0
  0
LINE
  5
AD4
330
1A
100
AcDbEntity
  8
ZUWAKU
100
AcDbLine
 10
10.37110559449161
 20
5.67499996135637
 30
0.0
 11
10.37110559449161
 21
9.524999961356347
 31
0.0
  0
LINE
  5
AD5
330
1A
100
AcDbEntity
  8
ZUWAKU
100
AcDbLine
 10
11.77110559449164
 20
9.524999961356368
 30
0.0
 11
11.77110559449164
 21
5.67499996135637
 31
0.0
  0
ARC
  5
AD6
330
1A
100
AcDbEntity
  8
ZUWAKU
100
AcDbCircle
 10
7.74610559449161
 20
9.317398948678719
 30
0.0
 40
0.7
100
AcDbArc
 50
180.0000000000016
 51
224.9999999999988
  0
ARC
  5
AD7
330
1A
100
AcDbEntity
  8
ZUWAKU
100
AcDbCircle
 10
12.47110559449163
 20
5.67499996135637
 30
0.0
 40
2.1
100
AcDbArc
 50
180.0
 51
270.0
  0
ARC
  5
AD8
330
1A
100
AcDbEntity
  8
ZUWAKU
100
AcDbCircle
 10
7.921105594491621
 20
4.974999961356367
 30
0.0
 40
1.4
100
AcDbArc
 50
270.0
 51
0.0
  0
ARC
  5
AD9
330
1A
100
AcDbEntity
  8
ZUWAKU
100
AcDbCircle
 10
7.221105594491633
 20
5.88260097403402
 30
0.0
 40
2.1
100
AcDbArc
 50
0.0
 51
45.0
  0
LINE
  5
ADA
330
1A
100
AcDbEntity
  8
ZUWAKU
100
AcDbLine
 10
6.261181353999859
 20
7.832474708186958
 30
0.0
 11
7.716080341322197
 21
6.377575720864627
 31
0.0
  0
LINE
  5
ADB
330
1A
100
AcDbEntity
  8
ZUWAKU
100
AcDbLine
 10
6.171105594491621
 20
4.974999961356367
 30
0.0
 11
7.658605594491633
 21
4.974999961356367
 31
0.0
  0
LINE
  5
ADC
330
1A
100
AcDbEntity
  8
ZUWAKU
100
AcDbLine
 10
6.171105594491621
 20
3.574999961356369
 30
0.0
 11
7.921105594491621
 21
3.574999961356369
 31
0.0
  0
ARC
  5
ADD
330
1A
100
AcDbEntity
  8
ZUWAKU
100
AcDbCircle
 10
6.171105594491621
 20
4.712499961356368
 30
0.0
 40
0.2625
100
AcDbArc
 50
90.0
 51
180.0
  0
ARC
  5
ADE
330
1A
100
AcDbEntity
  8
ZUWAKU
100
AcDbCircle
 10
6.171105594491621
 20
3.837499961356368
 30
0.0
 40
0.2625
100
AcDbArc
 50
180.0
 51
270.0
  0
LINE
  5
ADF
330
1A
100
AcDbEntity
  8
ZUWAKU
100
AcDbLine
 10
5.908605594491633
 20
3.837499961356368
 30
0.0
 11
5.908605594491633
 21
4.712499961356368
 31
0.0
  0
ARC
  5
AE0
330
1A
100
AcDbEntity
  8
ZUWAKU
100
AcDbCircle
 10
7.221105594491633
 20
5.882600974034041
 30
0.0
 40
0.7
100
AcDbArc
 50
0.0
 51
45.0
  0
ARC
  5
AE1
330
1A
100
AcDbEntity
  8
ZUWAKU
100
AcDbCircle
 10
7.658605594491633
 20
5.23749996135637
 30
0.0
 40
0.2625
100
AcDbArc
 50
270.0
 51
0.0
  0
LINE
  5
AE2
330
1A
100
AcDbEntity
  8
ZUWAKU
100
AcDbLine
 10
7.921105594491621
 20
5.23749996135637
 30
0.0
 11
7.921105594491621
 21
5.882600974034041
 31
0.0
  0
LINE
  5
AE3
330
1A
100
AcDbEntity
  8
ZUWAKU
100
AcDbLine
 10
8.706029834983383
 20
7.367525214525781
 30
0.0
 11
7.251130847661045
 21
8.822424201848119
 31
0.0
  0
ARC
  5
AE4
330
1A
100
AcDbEntity
  8
ZUWAKU
100
AcDbCircle
 10
12.47110559449163
 20
5.67499996135637
 30
0.0
 40
0.7
100
AcDbArc
 50
180.0
 51
270.0
  0
LINE
  5
AE5
330
1A
100
AcDbEntity
  8
ZUWAKU
100
AcDbLine
 10
9.321105594491655
 20
4.974999961356367
 30
0.0
 11
9.321105594491655
 21
5.882600974034041
 31
0.0
  0
ARC
  5
AE6
330
1A
100
AcDbEntity
  8
ZUWAKU
100
AcDbCircle
 10
8.796105594491621
 20
10.48749996135637
 30
0.0
 40
0.2625
100
AcDbArc
 50
270.0
 51
0.0
  0
ARC
  5
AE7
330
1A
100
AcDbEntity
  8
ZUWAKU
100
AcDbCircle
 10
8.796105594491621
 20
11.36249996135637
 30
0.0
 40
0.2625
100
AcDbArc
 50
0.0
 51
90.0
  0
ARC
  5
AE8
330
1A
100
AcDbEntity
  8
ZUWAKU
100
AcDbCircle
 10
7.046105594491621
 20
10.22499996135637
 30
0.0
 40
1.4
100
AcDbArc
 50
90.0
 51
180.0
  0
LINE
  5
AE9
330
1A
100
AcDbEntity
  8
ZUWAKU
100
AcDbLine
 10
5.646105594491644
 20
10.22499996135637
 30
0.0
 11
5.646105594491644
 21
9.317398948678697
 31
0.0
  0
LINE
  5
AEA
330
1A
100
AcDbEntity
  8
ZUWAKU
100
AcDbLine
 10
8.796105594491621
 20
10.22499996135637
 30
0.0
 11
7.30860559449161
 21
10.22499996135637
 31
0.0
  0
LINE
  5
AEB
330
1A
100
AcDbEntity
  8
ZUWAKU
100
AcDbLine
 10
7.046105594491621
 20
9.962499961356368
 30
0.0
 11
7.046105594491621
 21
9.317398948678697
 31
0.0
  0
ARC
  5
AEC
330
1A
100
AcDbEntity
  8
ZUWAKU
100
AcDbCircle
 10
7.30860559449161
 20
9.962499961356368
 30
0.0
 40
0.2625
100
AcDbArc
 50
90.0
 51
180.0
  0
LINE
  5
AED
330
1A
100
AcDbEntity
  8
ZUWAKU
100
AcDbLine
 10
7.046105594491621
 20
11.62499996135637
 30
0.0
 11
8.796105594491621
 21
11.62499996135637
 31
0.0
  0
ARC
  5
AEE
330
1A
100
AcDbEntity
  8
ZUWAKU
100
AcDbCircle
 10
12.47110559449163
 20
9.524999961356347
 30
0.0
 40
2.1
100
AcDbArc
 50
90.0
 51
180.0
  0
ARC
  5
AEF
330
1A
100
AcDbEntity
  8
ZUWAKU
100
AcDbCircle
 10
12.47110559449163
 20
9.524999961356368
 30
0.0
 40
0.7
100
AcDbArc
 50
90.0
 51
180.0
  0
LINE
  5
AF0
330
1A
100
AcDbEntity
  8
ZUWAKU
100
AcDbLine
 10
9.05860559449161
 20
11.36249996135637
 30
0.0
 11
9.05860559449161
 21
10.48749996135637
 31
0.0
  0
LINE
  5
AF1
330
1A
100
AcDbEntity
  8
ZUWAKU
100
AcDbLine
 10
17.83817306314955
 20
11.44154694543985
 30
0.0
 11
16.90403812583367
 21
8.483452977272883
 31
0.0
  0
LINE
  5
AF2
330
1A
100
AcDbEntity
  8
ZUWAKU
100
AcDbLine
 10
14.92110559449162
 20
11.36249996135637
 30
0.0
 11
14.92110559449162
 21
3.837499961356368
 31
0.0
  0
LINE
  5
AF3
330
1A
100
AcDbEntity
  8
ZUWAKU
100
AcDbLine
 10
16.32110559449166
 20
8.56249996135637
 30
0.0
 11
16.32110559449166
 21
11.36249996135637
 31
0.0
  0
LINE
  5
AF4
330
1A
100
AcDbEntity
  8
ZUWAKU
100
AcDbLine
 10
28.92110559449162
 20
5.499999961356366
 30
0.0
 11
28.92110559449162
 21
11.36249996135637
 31
0.0
  0
LINE
  5
AF5
330
1A
100
AcDbEntity
  8
ZUWAKU
100
AcDbLine
 10
27.52110559449164
 20
11.36249996135637
 30
0.0
 11
27.52110559449164
 21
4.974999961356367
 31
0.0
  0
LINE
  5
AF6
330
1A
100
AcDbEntity
  8
ZUWAKU
100
AcDbLine
 10
21.74610559449161
 20
3.837499961356368
 30
0.0
 11
21.74610559449161
 21
11.36249996135637
 31
0.0
  0
LINE
  5
AF7
330
1A
100
AcDbEntity
  8
ZUWAKU
100
AcDbLine
 10
20.34610559449163
 20
11.36249996135637
 30
0.0
 11
20.34610559449163
 21
3.837499961356368
 31
0.0
  0
LINE
  5
AF8
330
1A
100
AcDbEntity
  8
ZUWAKU
100
AcDbLine
 10
18.65742883558062
 20
9.602523558138081
 30
0.0
 11
18.0250529629127
 21
7.599999961356378
 31
0.0
  0
ARC
  5
AF9
330
1A
100
AcDbEntity
  8
ZUWAKU
100
AcDbCircle
 10
24.89610559449164
 20
9.317398948678719
 30
0.0
 40
2.1
100
AcDbArc
 50
180.0
 51
225.0
  0
ARC
  5
AFA
330
1A
100
AcDbEntity
  8
ZUWAKU
100
AcDbCircle
 10
24.89610559449164
 20
9.317398948678719
 30
0.0
 40
0.7
100
AcDbArc
 50
180.0000000000016
 51
224.9999999999988
  0
LINE
  5
AFB
330
1A
100
AcDbEntity
  8
ZUWAKU
100
AcDbLine
 10
33.12110559449161
 20
11.36249996135637
 30
0.0
 11
33.12110559449161
 21
3.837499961356368
 31
0.0
  0
LINE
  5
AFC
330
1A
100
AcDbEntity
  8
ZUWAKU
100
AcDbLine
 10
34.52110559449164
 20
3.837499961356368
 30
0.0
 11
34.52110559449164
 21
11.36249996135637
 31
0.0
  0
LINE
  5
AFD
330
1A
100
AcDbEntity
  8
ZUWAKU
100
AcDbLine
 10
30.67110559449162
 20
11.36249996135637
 30
0.0
 11
30.67110559449162
 21
5.499999961356366
 31
0.0
  0
LINE
  5
AFE
330
1A
100
AcDbEntity
  8
ZUWAKU
100
AcDbLine
 10
32.07110559449166
 20
4.974999961356367
 30
0.0
 11
32.07110559449166
 21
11.36249996135637
 31
0.0
  0
LINE
  5
AFF
330
1A
100
AcDbEntity
  8
ZUWAKU
100
AcDbLine
 10
39.56331429109525
 20
14.99999996135637
 30
0.0
 11
39.56331429109525
 21
0.3999999613564
 31
0.0
  0
LINE
  5
B00
330
1A
100
AcDbEntity
  8
ZUWAKU
100
AcDbLine
 10
39.76331429109519
 20
14.99999996135637
 30
0.0
 11
39.7633142910953
 21
0.3999999613564
 31
0.0
  0
LINE
  5
B01
330
1A
100
AcDbEntity
  8
ZUWAKU
100
AcDbLine
 10
39.66331429109516
 20
14.99999996135637
 30
0.0
 11
39.66331429109528
 21
0.3999999613564
 31
0.0
  0
LINE
  5
B02
330
1A
100
AcDbEntity
  8
ZUWAKU
100
AcDbLine
 10
28.92110559449162
 20
3.574999961356369
 30
0.0
 11
30.67110559449162
 21
3.574999961356369
 31
0.0
  0
LINE
  5
B03
330
1A
100
AcDbEntity
  8
ZUWAKU
100
AcDbLine
 10
30.14610559449164
 20
4.974999961356367
 30
0.0
 11
29.44610559449166
 21
4.974999961356367
 31
0.0
  0
LINE
  5
B04
330
1A
100
AcDbEntity
  8
ZUWAKU
100
AcDbLine
 10
20.60860559449162
 20
3.574999961356369
 30
0.0
 11
21.48360559449162
 21
3.574999961356369
 31
0.0
  0
LINE
  5
B05
330
1A
100
AcDbEntity
  8
ZUWAKU
100
AcDbLine
 10
17.83817306314955
 20
3.758452977272881
 30
0.0
 11
16.90403812583367
 21
6.716546945439852
 31
0.0
  0
ARC
  5
B06
330
1A
100
AcDbEntity
  8
ZUWAKU
100
AcDbCircle
 10
16.58360559449164
 20
6.637499961356369
 30
0.0
 40
0.2625
100
AcDbArc
 50
90.0
 51
180.0
  0
ARC
  5
B07
330
1A
100
AcDbEntity
  8
ZUWAKU
100
AcDbCircle
 10
16.65372267623599
 20
6.637499961356369
 30
0.0
 40
0.2625
100
AcDbArc
 50
17.52556837372303
 51
90.0
  0
ARC
  5
B08
330
1A
100
AcDbEntity
  8
ZUWAKU
100
AcDbCircle
 10
15.18360559449161
 20
3.837499961356368
 30
0.0
 40
0.2625
100
AcDbArc
 50
180.0
 51
270.0
  0
ARC
  5
B09
330
1A
100
AcDbEntity
  8
ZUWAKU
100
AcDbCircle
 10
13.43360559449161
 20
4.712499961356368
 30
0.0
 40
0.2625
100
AcDbArc
 50
0.0
 51
90.0
  0
ARC
  5
B0A
330
1A
100
AcDbEntity
  8
ZUWAKU
100
AcDbCircle
 10
13.43360559449161
 20
3.837499961356368
 30
0.0
 40
0.2625
100
AcDbArc
 50
270.0
 51
0.0
  0
LINE
  5
B0B
330
1A
100
AcDbEntity
  8
ZUWAKU
100
AcDbLine
 10
13.69610559449166
 20
4.712499961356368
 30
0.0
 11
13.69610559449166
 21
3.837499961356368
 31
0.0
  0
LINE
  5
B0C
330
1A
100
AcDbEntity
  8
ZUWAKU
100
AcDbLine
 10
16.32110559449166
 20
3.837499961356368
 30
0.0
 11
16.32110559449166
 21
6.637499961356369
 31
0.0
  0
ARC
  5
B0D
330
1A
100
AcDbEntity
  8
ZUWAKU
100
AcDbCircle
 10
16.05860559449161
 20
3.837499961356368
 30
0.0
 40
0.2625
100
AcDbArc
 50
270.0
 51
0.0
  0
LINE
  5
B0E
330
1A
100
AcDbEntity
  8
ZUWAKU
100
AcDbLine
 10
15.18360559449161
 20
3.574999961356369
 30
0.0
 11
16.05860559449161
 21
3.574999961356369
 31
0.0
  0
ARC
  5
B0F
330
1A
100
AcDbEntity
  8
ZUWAKU
100
AcDbCircle
 10
16.58360559449164
 20
8.56249996135637
 30
0.0
 40
0.2625
100
AcDbArc
 50
180.0
 51
270.0
  0
LINE
  5
B10
330
1A
100
AcDbEntity
  8
ZUWAKU
100
AcDbLine
 10
16.58360559449164
 20
6.899999961356368
 30
0.0
 11
16.65372267623599
 21
6.899999961356368
 31
0.0
  0
LINE
  5
B11
330
1A
100
AcDbEntity
  8
ZUWAKU
100
AcDbLine
 10
16.65372267623599
 20
8.299999961356367
 30
0.0
 11
16.58360559449164
 21
8.299999961356367
 31
0.0
  0
ARC
  5
B12
330
1A
100
AcDbEntity
  8
ZUWAKU
100
AcDbCircle
 10
16.65372267623599
 20
8.56249996135637
 30
0.0
 40
0.2625
100
AcDbArc
 50
270.0
 51
342.474431626277
  0
ARC
  5
B13
330
1A
100
AcDbEntity
  8
ZUWAKU
100
AcDbCircle
 10
18.08848851274729
 20
3.837499961356368
 30
0.0
 40
0.2625
100
AcDbArc
 50
197.525568373723
 51
270.0
  0
LINE
  5
B14
330
1A
100
AcDbEntity
  8
ZUWAKU
100
AcDbLine
 10
19.18824865214953
 20
3.916546945439855
 30
0.0
 11
18.0250529629127
 21
7.599999961356378
 31
0.0
  0
ARC
  5
B15
330
1A
100
AcDbEntity
  8
ZUWAKU
100
AcDbCircle
 10
18.93793320255179
 20
3.837499961356368
 30
0.0
 40
0.2625
100
AcDbArc
 50
270.0
 51
17.52556837372303
  0
LINE
  5
B16
330
1A
100
AcDbEntity
  8
ZUWAKU
100
AcDbLine
 10
18.08848851274729
 20
3.574999961356369
 30
0.0
 11
18.93793320255179
 21
3.574999961356369
 31
0.0
  0
ARC
  5
B17
330
1A
100
AcDbEntity
  8
ZUWAKU
100
AcDbCircle
 10
20.60860559449162
 20
3.837499961356368
 30
0.0
 40
0.2625
100
AcDbArc
 50
180.0
 51
270.0
  0
ARC
  5
B18
330
1A
100
AcDbEntity
  8
ZUWAKU
100
AcDbCircle
 10
25.07110559449166
 20
4.974999961356367
 30
0.0
 40
1.4
100
AcDbArc
 50
270.0
 51
0.0
  0
ARC
  5
B19
330
1A
100
AcDbEntity
  8
ZUWAKU
100
AcDbCircle
 10
28.92110559449162
 20
4.974999961356367
 30
0.0
 40
1.4
100
AcDbArc
 50
180.0
 51
270.0
  0
LINE
  5
B1A
330
1A
100
AcDbEntity
  8
ZUWAKU
100
AcDbLine
 10
25.85602983498342
 20
7.367525214525781
 30
0.0
 11
24.40113084766102
 21
8.822424201848119
 31
0.0
  0
LINE
  5
B1B
330
1A
100
AcDbEntity
  8
ZUWAKU
100
AcDbLine
 10
23.41118135399989
 20
7.832474708186958
 30
0.0
 11
24.86608034132223
 21
6.377575720864627
 31
0.0
  0
LINE
  5
B1C
330
1A
100
AcDbEntity
  8
ZUWAKU
100
AcDbLine
 10
23.32110559449166
 20
3.574999961356369
 30
0.0
 11
25.07110559449166
 21
3.574999961356369
 31
0.0
  0
LINE
  5
B1D
330
1A
100
AcDbEntity
  8
ZUWAKU
100
AcDbLine
 10
23.32110559449166
 20
4.974999961356367
 30
0.0
 11
24.80860559449161
 21
4.974999961356367
 31
0.0
  0
ARC
  5
B1E
330
1A
100
AcDbEntity
  8
ZUWAKU
100
AcDbCircle
 10
23.32110559449166
 20
4.712499961356368
 30
0.0
 40
0.2625
100
AcDbArc
 50
90.0
 51
180.0
  0
ARC
  5
B1F
330
1A
100
AcDbEntity
  8
ZUWAKU
100
AcDbCircle
 10
21.48360559449162
 20
3.837499961356368
 30
0.0
 40
0.2625
100
AcDbArc
 50
270.0
 51
0.0
  0
ARC
  5
B20
330
1A
100
AcDbEntity
  8
ZUWAKU
100
AcDbCircle
 10
23.32110559449166
 20
3.837499961356368
 30
0.0
 40
0.2625
100
AcDbArc
 50
180.0
 51
270.0
  0
LINE
  5
B21
330
1A
100
AcDbEntity
  8
ZUWAKU
100
AcDbLine
 10
23.05860559449161
 20
3.837499961356368
 30
0.0
 11
23.05860559449161
 21
4.712499961356368
 31
0.0
  0
ARC
  5
B22
330
1A
100
AcDbEntity
  8
ZUWAKU
100
AcDbCircle
 10
24.80860559449161
 20
5.23749996135637
 30
0.0
 40
0.2625
100
AcDbArc
 50
270.0
 51
0.0
  0
ARC
  5
B23
330
1A
100
AcDbEntity
  8
ZUWAKU
100
AcDbCircle
 10
24.37110559449161
 20
5.882600974034041
 30
0.0
 40
0.7
100
AcDbArc
 50
0.0
 51
45.0
  0
LINE
  5
B24
330
1A
100
AcDbEntity
  8
ZUWAKU
100
AcDbLine
 10
25.07110559449166
 20
5.23749996135637
 30
0.0
 11
25.07110559449166
 21
5.882600974034041
 31
0.0
  0
ARC
  5
B25
330
1A
100
AcDbEntity
  8
ZUWAKU
100
AcDbCircle
 10
29.44610559449166
 20
5.499999961356366
 30
0.0
 40
0.5249999999999999
100
AcDbArc
 50
180.0
 51
270.0
  0
ARC
  5
B26
330
1A
100
AcDbEntity
  8
ZUWAKU
100
AcDbCircle
 10
24.37110559449161
 20
5.88260097403402
 30
0.0
 40
2.1
100
AcDbArc
 50
0.0
 51
45.0
  0
LINE
  5
B27
330
1A
100
AcDbEntity
  8
ZUWAKU
100
AcDbLine
 10
26.47110559449163
 20
4.974999961356367
 30
0.0
 11
26.47110559449163
 21
5.882600974034041
 31
0.0
  0
ARC
  5
B28
330
1A
100
AcDbEntity
  8
ZUWAKU
100
AcDbCircle
 10
30.67110559449162
 20
4.974999961356367
 30
0.0
 40
1.4
100
AcDbArc
 50
270.0
 51
0.0
  0
LINE
  5
B29
330
1A
100
AcDbEntity
  8
ZUWAKU
100
AcDbLine
 10
33.38360559449166
 20
3.574999961356369
 30
0.0
 11
34.25860559449166
 21
3.574999961356369
 31
0.0
  0
ARC
  5
B2A
330
1A
100
AcDbEntity
  8
ZUWAKU
100
AcDbCircle
 10
30.14610559449164
 20
5.499999961356366
 30
0.0
 40
0.5249999999999999
100
AcDbArc
 50
270.0
 51
0.0
  0
ARC
  5
B2B
330
1A
100
AcDbEntity
  8
ZUWAKU
100
AcDbCircle
 10
33.38360559449166
 20
3.837499961356368
 30
0.0
 40
0.2625
100
AcDbArc
 50
180.0
 51
270.0
  0
ARC
  5
B2C
330
1A
100
AcDbEntity
  8
ZUWAKU
100
AcDbCircle
 10
34.25860559449166
 20
3.837499961356368
 30
0.0
 40
0.2625
100
AcDbArc
 50
270.0
 51
0.0
  0
LINE
  5
B2D
330
1A
100
AcDbEntity
  8
ZUWAKU
100
AcDbLine
 10
21.48360559449162
 20
11.62499996135637
 30
0.0
 11
20.60860559449162
 21
11.62499996135637
 31
0.0
  0
LINE
  5
B2E
330
1A
100
AcDbEntity
  8
ZUWAKU
100
AcDbLine
 10
13.69610559449166
 20
11.36249996135637
 30
0.0
 11
13.69610559449166
 21
10.48749996135637
 31
0.0
  0
ARC
  5
B2F
330
1A
100
AcDbEntity
  8
ZUWAKU
100
AcDbCircle
 10
13.43360559449161
 20
10.48749996135637
 30
0.0
 40
0.2625
100
AcDbArc
 50
270.0
 51
0.0
  0
ARC
  5
B30
330
1A
100
AcDbEntity
  8
ZUWAKU
100
AcDbCircle
 10
15.18360559449161
 20
11.36249996135637
 30
0.0
 40
0.2625
100
AcDbArc
 50
90.0
 51
180.0
  0
ARC
  5
B31
330
1A
100
AcDbEntity
  8
ZUWAKU
100
AcDbCircle
 10
13.43360559449161
 20
11.36249996135637
 30
0.0
 40
0.2625
100
AcDbArc
 50
0.0
 51
90.0
  0
LINE
  5
B32
330
1A
100
AcDbEntity
  8
ZUWAKU
100
AcDbLine
 10
16.05860559449161
 20
11.62499996135637
 30
0.0
 11
15.18360559449161
 21
11.62499996135637
 31
0.0
  0
ARC
  5
B33
330
1A
100
AcDbEntity
  8
ZUWAKU
100
AcDbCircle
 10
16.05860559449161
 20
11.36249996135637
 30
0.0
 40
0.2625
100
AcDbArc
 50
0.0
 51
90.0
  0
ARC
  5
B34
330
1A
100
AcDbEntity
  8
ZUWAKU
100
AcDbCircle
 10
18.08848851274729
 20
11.36249996135637
 30
0.0
 40
0.2625
100
AcDbArc
 50
90.0
 51
162.474431626277
  0
LINE
  5
B35
330
1A
100
AcDbEntity
  8
ZUWAKU
100
AcDbLine
 10
19.18824865214953
 20
11.28345297727288
 30
0.0
 11
18.65742883558062
 21
9.602523558138081
 31
0.0
  0
ARC
  5
B36
330
1A
100
AcDbEntity
  8
ZUWAKU
100
AcDbCircle
 10
18.93793320255179
 20
11.36249996135637
 30
0.0
 40
0.2625
100
AcDbArc
 50
342.474431626277
 51
90.0
  0
LINE
  5
B37
330
1A
100
AcDbEntity
  8
ZUWAKU
100
AcDbLine
 10
18.08848851274729
 20
11.62499996135637
 30
0.0
 11
18.93793320255179
 21
11.62499996135637
 31
0.0
  0
ARC
  5
B38
330
1A
100
AcDbEntity
  8
ZUWAKU
100
AcDbCircle
 10
20.60860559449162
 20
11.36249996135637
 30
0.0
 40
0.2625
100
AcDbArc
 50
90.0
 51
180.0
  0
LINE
  5
B39
330
1A
100
AcDbEntity
  8
ZUWAKU
100
AcDbLine
 10
25.94610559449166
 20
10.22499996135637
 30
0.0
 11
24.45860559449164
 21
10.22499996135637
 31
0.0
  0
LINE
  5
B3A
330
1A
100
AcDbEntity
  8
ZUWAKU
100
AcDbLine
 10
24.19610559449166
 20
11.62499996135637
 30
0.0
 11
25.94610559449166
 21
11.62499996135637
 31
0.0
  0
ARC
  5
B3B
330
1A
100
AcDbEntity
  8
ZUWAKU
100
AcDbCircle
 10
24.19610559449166
 20
10.22499996135637
 30
0.0
 40
1.4
100
AcDbArc
 50
90.0
 51
180.0
  0
LINE
  5
B3C
330
1A
100
AcDbEntity
  8
ZUWAKU
100
AcDbLine
 10
22.79610559449162
 20
10.22499996135637
 30
0.0
 11
22.79610559449162
 21
9.317398948678697
 31
0.0
  0
ARC
  5
B3D
330
1A
100
AcDbEntity
  8
ZUWAKU
100
AcDbCircle
 10
21.48360559449162
 20
11.36249996135637
 30
0.0
 40
0.2625
100
AcDbArc
 50
0.0
 51
90.0
  0
LINE
  5
B3E
330
1A
100
AcDbEntity
  8
ZUWAKU
100
AcDbLine
 10
24.19610559449166
 20
9.962499961356368
 30
0.0
 11
24.19610559449166
 21
9.317398948678697
 31
0.0
  0
ARC
  5
B3F
330
1A
100
AcDbEntity
  8
ZUWAKU
100
AcDbCircle
 10
24.45860559449164
 20
9.962499961356368
 30
0.0
 40
0.2625
100
AcDbArc
 50
90.0
 51
180.0
  0
LINE
  5
B40
330
1A
100
AcDbEntity
  8
ZUWAKU
100
AcDbLine
 10
26.20860559449164
 20
11.36249996135637
 30
0.0
 11
26.20860559449164
 21
10.48749996135637
 31
0.0
  0
ARC
  5
B41
330
1A
100
AcDbEntity
  8
ZUWAKU
100
AcDbCircle
 10
25.94610559449166
 20
10.48749996135637
 30
0.0
 40
0.2625
100
AcDbArc
 50
270.0
 51
0.0
  0
ARC
  5
B42
330
1A
100
AcDbEntity
  8
ZUWAKU
100
AcDbCircle
 10
25.94610559449166
 20
11.36249996135637
 30
0.0
 40
0.2625
100
AcDbArc
 50
0.0
 51
90.0
  0
LINE
  5
B43
330
1A
100
AcDbEntity
  8
ZUWAKU
100
AcDbLine
 10
28.65860559449163
 20
11.62499996135637
 30
0.0
 11
27.78360559449163
 21
11.62499996135637
 31
0.0
  0
ARC
  5
B44
330
1A
100
AcDbEntity
  8
ZUWAKU
100
AcDbCircle
 10
27.78360559449163
 20
11.36249996135637
 30
0.0
 40
0.2625
100
AcDbArc
 50
90.0
 51
180.0
  0
ARC
  5
B45
330
1A
100
AcDbEntity
  8
ZUWAKU
100
AcDbCircle
 10
28.65860559449163
 20
11.36249996135637
 30
0.0
 40
0.2625
100
AcDbArc
 50
0.0
 51
90.0
  0
LINE
  5
B46
330
1A
100
AcDbEntity
  8
ZUWAKU
100
AcDbLine
 10
34.25860559449166
 20
11.62499996135637
 30
0.0
 11
33.38360559449166
 21
11.62499996135637
 31
0.0
  0
ARC
  5
B47
330
1A
100
AcDbEntity
  8
ZUWAKU
100
AcDbCircle
 10
30.93360559449161
 20
11.36249996135637
 30
0.0
 40
0.2625
100
AcDbArc
 50
90.0
 51
180.0
  0
LINE
  5
B48
330
1A
100
AcDbEntity
  8
ZUWAKU
100
AcDbLine
 10
31.80860559449161
 20
11.62499996135637
 30
0.0
 11
30.93360559449161
 21
11.62499996135637
 31
0.0
  0
ARC
  5
B49
330
1A
100
AcDbEntity
  8
ZUWAKU
100
AcDbCircle
 10
31.80860559449161
 20
11.36249996135637
 30
0.0
 40
0.2625
100
AcDbArc
 50
0.0
 51
90.0
  0
ARC
  5
B4A
330
1A
100
AcDbEntity
  8
ZUWAKU
100
AcDbCircle
 10
33.38360559449166
 20
11.36249996135637
 30
0.0
 40
0.2625
100
AcDbArc
 50
90.0
 51
180.0
  0
ARC
  5
B4B
330
1A
100
AcDbEntity
  8
ZUWAKU
100
AcDbCircle
 10
34.25860559449166
 20
11.36249996135637
 30
0.0
 40
0.2625
100
AcDbArc
 50
0.0
 51
90.0
  0
LINE
  5
B4C
330
1A
100
AcDbEntity
  8
ZUWAKU
100
AcDbLine
 10
104.2233001621349
 20
14.99999996135637
 30
0.0
 11
104.2233001621351
 21
0.3999999613564
 31
0.0
  0
LINE
  5
B4D
330
1A
100
AcDbEntity
  8
ZUWAKU
100
AcDbLine
 10
104.323300162135
 20
14.99999996135637
 30
0.0
 11
104.3233001621351
 21
0.3999999613564
 31
0.0
  0
LINE
  5
B4E
330
1A
100
AcDbEntity
  8
ZUWAKU
100
AcDbLine
 10
104.123300162135
 20
14.99999996135637
 30
0.0
 11
104.123300162135
 21
0.3999999613564
 31
0.0
  0
TEXT
  5
B4F
330
1A
100
AcDbEntity
  8
moji
100
AcDbText
 10
119.9136008575266
 20
9.002460490060059
 30
0.0
 40
2.8
  1
ブラケット正面打（吊）ワンタッチ自在式
 41
0.9
  7
ｽﾀｲﾙ1
100
AcDbText
  0
TEXT
  5
B50
330
1A
100
AcDbEntity
  8
ZUWAKU
100
AcDbText
 10
104.8620226732398
 20
4.827678230549175
 30
0.0
 40
2.0
  1
サイズ
 41
0.9
  7
ｽﾀｲﾙ1
100
AcDbText
  0
TEXT
  5
B51
330
1A
100
AcDbEntity
  8
moji
100
AcDbText
 10
119.9136008575266
 20
1.602460490060077
 30
0.0
 40
2.8
  1
Σ９０－４－４５～６０
 41
0.9
  7
ｽﾀｲﾙ1
100
AcDbText
  0
TEXT
  5
B52
330
1A
100
AcDbEntity
  8
ZUWAKU
100
AcDbText
 10
104.8620226732397
 20
12.02767823054916
 30
0.0
 40
2.0
  1
品名
 41
0.9
  7
ｽﾀｲﾙ1
100
AcDbText
  0
TEXT
  5
B53
330
1A
100
AcDbEntity
  8
ZUWAKU
100
AcDbText
 10
329.1019683607523
 20
9.002460490060059
 30
0.0
 40
2.8
  1
　　．　　．　　
 41
0.9
  7
ｽﾀｲﾙ1
100
AcDbText
  0
LINE
  5
B54
330
1A
100
AcDbEntity
  8
ZUWAKU
100
AcDbLine
 10
324.4086007722032
 20
7.799999961356383
 30
0.0
 11
348.6245047913717
 21
7.799999961356383
 31
0.0
  0
LINE
  5
B55
330
1A
100
AcDbEntity
  8
ZUWAKU
100
AcDbLine
 10
324.4086007722033
 20
7.699999961356385
 30
0.0
 11
348.6245047913717
 21
7.699999961356383
 31
0.0
  0
LINE
  5
B56
330
1A
100
AcDbEntity
  8
ZUWAKU
100
AcDbLine
 10
324.4086007722032
 20
7.599999961356382
 30
0.0
 11
348.6245047913717
 21
7.599999961356383
 31
0.0
  0
LINE
  5
B57
330
1A
100
AcDbEntity
  8
ZUWAKU
100
AcDbLine
 10
252.5995892661715
 20
7.799999961356383
 30
0.0
 11
276.2634774001573
 21
7.799999961356383
 31
0.0
  0
LINE
  5
B58
330
1A
100
AcDbEntity
  8
ZUWAKU
100
AcDbLine
 10
252.5995892661715
 20
7.699999961356383
 30
0.0
 11
276.2634774001573
 21
7.699999961356383
 31
0.0
  0
LINE
  5
B59
330
1A
100
AcDbEntity
  8
ZUWAKU
100
AcDbLine
 10
252.5995892661715
 20
7.599999961356385
 30
0.0
 11
276.2634774001573
 21
7.599999961356385
 31
0.0
  0
LINE
  5
B5A
330
1A
100
AcDbEntity
  8
ZUWAKU
100
AcDbLine
 10
252.3995892661716
 20
14.99999996135637
 30
0.0
 11
252.3995892661716
 21
0.3999999613564
 31
0.0
  0
LINE
  5
B5B
330
1A
100
AcDbEntity
  8
ZUWAKU
100
AcDbLine
 10
252.5995892661715
 20
14.99999996135637
 30
0.0
 11
252.5995892661716
 21
0.3999999613564
 31
0.0
  0
LINE
  5
B5C
330
1A
100
AcDbEntity
  8
ZUWAKU
100
AcDbLine
 10
252.4995892661715
 20
14.99999996135637
 30
0.0
 11
252.4995892661716
 21
0.3999999613564
 31
0.0
  0
TEXT
  5
B5D
330
1A
100
AcDbEntity
  8
moji
100
AcDbText
 10
264.0204535032575
 20
9.002460490060059
 30
0.0
 40
2.8
  1
Ａ３
 41
0.9
  7
ｽﾀｲﾙ1
100
AcDbText
  0
LINE
  5
B5E
330
1A
100
AcDbEntity
  8
ZUWAKU
100
AcDbLine
 10
223.7121815025968
 20
14.99999996135637
 30
0.0
 11
223.7121815025968
 21
0.3999999613564
 31
0.0
  0
LINE
  5
B5F
330
1A
100
AcDbEntity
  8
ZUWAKU
100
AcDbLine
 10
223.9121815025967
 20
14.99999996135637
 30
0.0
 11
223.9121815025968
 21
0.3999999613564
 31
0.0
  0
LINE
  5
B60
330
1A
100
AcDbEntity
  8
ZUWAKU
100
AcDbLine
 10
223.8121815025967
 20
14.99999996135637
 30
0.0
 11
223.8121815025968
 21
0.3999999613564
 31
0.0
  0
TEXT
  5
B61
330
1A
100
AcDbEntity
  8
moji
100
AcDbText
 10
231.2836386780954
 20
5.971308822186359
 30
0.0
 40
2.8
  1
ＬＫ０６Ｔ
 41
0.9
  7
ｽﾀｲﾙ1
100
AcDbText
  0
TEXT
  5
B63
330
1A
100
AcDbEntity
  8
ZUWAKU
100
AcDbText
 10
253.3383117772764
 20
4.827678230549175
 30
0.0
 40
2.0
  1
縮尺
 41
0.9
  7
ｽﾀｲﾙ1
100
AcDbText
  0
TEXT
  5
B64
330
1A
100
AcDbEntity
  8
moji
100
AcDbText
 10
264.0204535032575
 20
1.602460490060077
 30
0.0
 40
2.8
  1
１/１
 41
0.9
  7
ｽﾀｲﾙ1
100
AcDbText
  0
TEXT
  5
B65
330
1A
100
AcDbEntity
  8
ZUWAKU
100
AcDbText
 10
224.6509040137015
 20
12.02767823054916
 30
0.0
 40
2.0
  1
品番
 41
0.9
  7
ｽﾀｲﾙ1
100
AcDbText
  0
TEXT
  5
B66
330
1A
100
AcDbEntity
  8
ZUWAKU
100
AcDbText
 10
253.3383117772763
 20
12.02767823054916
 30
0.0
 40
2.0
  1
用紙
 41
0.9
  7
ｽﾀｲﾙ1
100
AcDbText
  0
LINE
  5
B67
330
1A
100
AcDbEntity
  8
ZUWAKU
100
AcDbLine
 10
276.2634774001573
 20
14.99999996135637
 30
0.0
 11
276.2634774001573
 21
0.3999999613564
 31
0.0
  0
LINE
  5
B68
330
1A
100
AcDbEntity
  8
ZUWAKU
100
AcDbLine
 10
276.4634774001572
 20
14.99999996135637
 30
0.0
 11
276.4634774001573
 21
0.3999999613564
 31
0.0
  0
LINE
  5
B69
330
1A
100
AcDbEntity
  8
ZUWAKU
100
AcDbLine
 10
276.3634774001572
 20
14.99999996135637
 30
0.0
 11
276.3634774001573
 21
0.3999999613564
 31
0.0
  0
LINE
  5
B6A
330
1A
100
AcDbEntity
  8
ZUWAKU
100
AcDbLine
 10
324.2086007722033
 20
14.99999996135637
 30
0.0
 11
324.2086007722033
 21
0.3999999613564
 31
0.0
  0
LINE
  5
B6B
330
1A
100
AcDbEntity
  8
ZUWAKU
100
AcDbLine
 10
324.4086007722033
 20
14.99999996135637
 30
0.0
 11
324.4086007722034
 21
0.3999999613564
 31
0.0
  0
LINE
  5
B6C
330
1A
100
AcDbEntity
  8
ZUWAKU
100
AcDbLine
 10
324.3086007722033
 20
14.99999996135637
 30
0.0
 11
324.3086007722034
 21
0.3999999613564
 31
0.0
  0
TEXT
  5
B6D
330
1A
100
AcDbEntity
  8
ZUWAKU
100
AcDbText
 10
325.1473232833081
 20
12.02767823054916
 30
0.0
 40
2.0
  1
DATE
 41
0.9
  7
ｽﾀｲﾙ1
100
AcDbText
  0
TEXT
  5
B6E
330
1A
100
AcDbEntity
  8
ZUWAKU
100
AcDbText
 10
354.264041613223
 20
8.776919629199767
 30
0.0
 40
3.0
  1
積水化学工業株式会社
 41
0.9
  7
ｽﾀｲﾙ1
100
AcDbText
  0
LINE
  5
B6F
330
1A
100
AcDbEntity
  8
ZUWAKU
100
AcDbLine
 10
348.9245047913717
 20
14.99999996135637
 30
0.0
 11
348.9245047913718
 21
0.3999999613564
 31
0.0
  0
LINE
  5
B70
330
1A
100
AcDbEntity
  8
ZUWAKU
100
AcDbLine
 10
348.8245047913716
 20
14.99999996135637
 30
0.0
 11
348.8245047913717
 21
0.3999999613564
 31
0.0
  0
LINE
  5
B71
330
1A
100
AcDbEntity
  8
ZUWAKU
100
AcDbLine
 10
348.7245047913717
 20
14.99999996135637
 30
0.0
 11
348.7245047913717
 21
0.3999999613564
 31
0.0
  0
LINE
  5
B72
330
1A
100
AcDbEntity
  8
ZUWAKU
100
AcDbLine
 10
348.6245047913717
 20
14.99999996135637
 30
0.0
 11
348.6245047913717
 21
0.3999999613564
 31
0.0
  0
TEXT
  5
B73
330
1A
100
AcDbEntity
  8
ZUWAKU
100
AcDbText
 10
354.264041613223
 20
3.324420118283399
 30
0.0
 40
3.0
  1
建材事業部
 41
0.9
  7
ｽﾀｲﾙ1
100
AcDbText
  0
DIMENSION
  5
1F61
330
1A
100
AcDbEntity
  8
SUNPOU
100
AcDbDimension
  2
*D1
 10
206.9630003157953
 20
79.24359394306981
 30
0.0
 11
202.5991598679701
 21
96.8846510695509
 31
0.0
 70
    33
 71
     5
 42
35.99999999965795
  3
STANDARD
100
AcDbAlignedDimension
 13
204.1860539525763
 23
116.9060020092893
 33
0.0
 14
217.5561183025764
 24
83.48084113828929
 34
0.0
1001
ACAD
1000
DSTYLE
1002
{
1070
    41
1040
3.0
1070
    42
1040
3.0
1070
    43
1040
7.0
1070
    44
1040
1.5
1070
    73
1070
     0
1070
    74
1070
     0
1070
    77
1070
     3
1070
   140
1040
3.0
1070
   141
1040
3.0
1070
   147
1040
1.0
1070
   172
1070
     1
1070
   173
1070
     1
1070
   176
1070
   256
1070
   177
1070
   256
1070
   178
1070
   256
1070
   271
1070
     0
1070
   272
1070
     0
1070
   341
1005
B2
1070
     6
1000
OPEN
1070
     7
1000
OPEN
1002
}
  0
DIMENSION
  5
1F62
330
1A
100
AcDbEntity
  8
SUNPOU
100
AcDbDimension
  2
*D2
 10
206.5596492957315
 20
150.0071636849291
 30
0.0
 11
127.5596625541539
 21
152.5071636849291
 31
0.0
 70
    32
 71
     5
 42
157.9999734831552
  3
STANDARD
100
AcDbAlignedDimension
 13
48.55967581257627
 23
105.2600884582893
 33
0.0
 14
206.5596492957315
 24
129.0123157569246
 34
0.0
100
AcDbRotatedDimension
1001
ACAD
1000
DSTYLE
1002
{
1070
    41
1040
3.0
1070
    42
1040
3.0
1070
    43
1040
7.0
1070
    44
1040
1.5
1070
    73
1070
     0
1070
    74
1070
     0
1070
    77
1070
     3
1070
   140
1040
3.0
1070
   141
1040
3.0
1070
   147
1040
1.0
1070
   172
1070
     1
1070
   173
1070
     1
1070
   176
1070
   256
1070
   177
1070
   256
1070
   178
1070
   256
1070
   271
1070
     0
1070
   272
1070
     0
1070
   341
1005
B2
1070
     6
1000
OPEN
1070
     7
1000
OPEN
1002
}
  0
DIMENSION
  5
1F63
330
1A
100
AcDbEntity
  8
SUNPOU
100
AcDbDimension
  2
*D3
 10
26.50219246640197
 20
85.96915866828937
 30
0.0
 11
24.00219246640195
 21
96.61462356328934
 31
0.0
 70
    32
 71
     5
 42
21.29092978999998
  3
STANDARD
100
AcDbAlignedDimension
 13
50.05967581257636
 23
107.2600884582893
 33
0.0
 14
223.7769121325763
 24
85.96915866828931
 34
0.0
 50
90.0
100
AcDbRotatedDimension
1001
ACAD
1000
DSTYLE
1002
{
1070
    41
1040
3.0
1070
    42
1040
3.0
1070
    43
1040
7.0
1070
    44
1040
1.5
1070
    73
1070
     0
1070
    74
1070
     0
1070
    77
1070
     3
1070
   140
1040
3.0
1070
   141
1040
3.0
1070
   147
1040
1.0
1070
   172
1070
     1
1070
   173
1070
     1
1070
   176
1070
   256
1070
   177
1070
   256
1070
   178
1070
   256
1070
   271
1070
     0
1070
   272
1070
     0
1070
   341
1005
B2
1070
     6
1000
OPEN
1070
     7
1000
OPEN
1002
}
  0
ARC
  5
1F64
330
1A
100
AcDbEntity
  8
SEIHIN
100
AcDbCircle
 10
199.3579751625763
 20
121.4369682602893
 30
0.0
 40
10.00000000174364
100
AcDbArc
 50
47.64334227896452
 51
170.7918456103776
  0
ARC
  5
1F65
330
1A
100
AcDbEntity
  8
SEIHIN
100
AcDbCircle
 10
199.3579751625763
 20
121.4369682602893
 30
0.0
 40
4.000000003266364
100
AcDbArc
 50
21.80141962053065
 51
170.7918456269571
  0
DIMENSION
  5
1F66
330
1A
100
AcDbEntity
  8
SUNPOU
100
AcDbDimension
  2
*D4
 10
206.5596492957315
 20
140.7104374146727
 30
0.0
 11
189.059662554154
 21
143.2104374146727
 31
0.0
 70
    32
 71
     5
 42
34.99997348315503
  3
STANDARD
100
AcDbAlignedDimension
 13
171.5596758125765
 23
89.56008845828933
 33
0.0
 14
206.5596492957315
 24
129.0123157569246
 34
0.0
100
AcDbRotatedDimension
1001
ACAD
1000
DSTYLE
1002
{
1070
    41
1040
3.0
1070
    42
1040
3.0
1070
    43
1040
7.0
1070
    44
1040
1.5
1070
    73
1070
     0
1070
    74
1070
     0
1070
    77
1070
     3
1070
   140
1040
3.0
1070
   141
1040
3.0
1070
   147
1040
1.0
1070
   172
1070
     1
1070
   173
1070
     1
1070
   176
1070
   256
1070
   177
1070
   256
1070
   178
1070
   256
1070
   271
1070
     0
1070
   272
1070
     0
1070
   341
1005
B2
1070
     6
1000
OPEN
1070
     7
1000
OPEN
1002
}
  0
LINE
  5
1F67
330
1A
100
AcDbEntity
  8
CENTER L
100
AcDbLine
 10
193.0960127051488
 20
227.3893391554948
 30
0.0
 11
201.1406141458716
 21
227.3893391554948
 31
0.0
  0
LINE
  5
1F68
330
1A
100
AcDbEntity
  8
CENTER L
100
AcDbLine
 10
193.0960127051488
 20
185.3893391754949
 30
0.0
 11
201.1406141458716
 21
185.3893391754949
 31
0.0
  0
LINE
  5
1F69
330
1A
100
AcDbEntity
  8
CENTER L
100
AcDbLine
 10
47.56273173557639
 20
206.3893391654949
 30
0.0
 11
205.2905127455763
 21
206.3893391654949
 31
0.0
  0
DIMENSION
  5
1F6A
330
1A
100
AcDbEntity
  8
SUNPOU
100
AcDbDimension
  2
*D5
 10
216.7221433792371
 20
179.8893395354948
 30
0.0
 11
214.2221433792371
 21
206.3893395554949
 31
0.0
 70
    32
 71
     5
 42
53.00000004000003
  3
STANDARD
100
AcDbAlignedDimension
 13
195.2905131855765
 23
232.8893395754948
 33
0.0
 14
195.2905131855765
 24
179.8893395354948
 34
0.0
 50
90.0
100
AcDbRotatedDimension
1001
ACAD
1000
DSTYLE
1002
{
1070
    41
1040
3.0
1070
    42
1040
3.0
1070
    43
1040
7.0
1070
    44
1040
1.5
1070
    73
1070
     0
1070
    74
1070
     0
1070
    77
1070
     3
1070
   140
1040
3.0
1070
   141
1040
3.0
1070
   147
1040
1.0
1070
   172
1070
     1
1070
   173
1070
     1
1070
   176
1070
   256
1070
   177
1070
   256
1070
   178
1070
   256
1070
   271
1070
     0
1070
   272
1070
     0
1070
   341
1005
B2
1070
     6
1000
OPEN
1070
     7
1000
OPEN
1002
}
  0
LINE
  5
1F6B
330
1A
100
AcDbEntity
  8
SEIHIN
  6
Continuous
 62
     3
100
AcDbLine
 10
75.75634133829902
 20
78.27371679990264
 30
0.0
 11
68.28357581257637
 21
91.3760884582893
 31
0.0
  0
LINE
  5
1F6C
330
1A
100
AcDbEntity
  8
SEIHIN
  6
Continuous
 62
     3
100
AcDbLine
 10
74.00127581257635
 20
72.6490884582893
 30
0.0
 11
66.4709758125764
 21
90.53768845828932
 31
0.0
  0
LINE
  5
1F6D
330
1A
100
AcDbEntity
  8
SEIHIN
  6
Continuous
 62
     3
100
AcDbLine
 10
62.31487581257636
 20
94.2116884582893
 30
0.0
 11
71.80447581257636
 21
71.40838845828932
 31
0.0
  0
LINE
  5
1F6E
330
1A
100
AcDbEntity
  8
SEIHIN
  6
Continuous
 62
     3
100
AcDbLine
 10
77.65180678495143
 20
80.03120786631615
 30
0.0
 11
66.40487581257639
 21
100.2641884582893
 31
0.0
  0
LINE
  5
1F6F
330
1A
100
AcDbEntity
  8
SEIHIN
  6
Continuous
 62
     3
100
AcDbLine
 10
51.55967581257636
 20
105.7600884582893
 30
0.0
 11
51.55967581257636
 21
102.8600884582893
 31
0.0
  0
LINE
  5
1F70
330
1A
100
AcDbEntity
  8
SEIHIN
  6
Continuous
 62
     3
100
AcDbLine
 10
48.55967581257636
 20
105.7600884582893
 30
0.0
 11
48.55967581257636
 21
100.3600884582893
 31
0.0
  0
LINE
  5
1F71
330
1A
100
AcDbEntity
  8
SEIHIN
  6
Continuous
 62
     3
100
AcDbLine
 10
57.67037581257637
 20
97.36008845828928
 30
0.0
 11
51.55967581257636
 21
97.36008845828928
 31
0.0
  0
ARC
  5
1F72
330
1A
100
AcDbEntity
  8
SEIHIN
  6
Continuous
 62
     3
100
AcDbCircle
 10
52.55967581257636
 20
102.8600884582893
 30
0.0
 40
1.0
100
AcDbArc
 50
180.0
 51
270.0
  0
ARC
  5
1F73
330
1A
100
AcDbEntity
  8
SEIHIN
  6
Continuous
 62
     3
100
AcDbCircle
 10
51.55967581257636
 20
100.3600884582893
 30
0.0
 40
3.0
100
AcDbArc
 50
180.0
 51
270.0
  0
LINE
  5
1F74
330
1A
100
AcDbEntity
  8
SEIHIN
  6
Continuous
 62
     3
100
AcDbLine
 10
48.55967581257636
 20
103.2599884582893
 30
0.0
 11
51.55967581257636
 21
103.2599884582893
 31
0.0
  0
ARC
  5
1F75
330
1A
100
AcDbEntity
  8
SEIHIN
  6
Continuous
 62
     3
100
AcDbCircle
 10
67.39987581257634
 20
90.90798845828931
 30
0.0
 40
1.000005
100
AcDbArc
 50
27.91037699999919
 51
201.7343789999998
  0
LINE
  5
1F76
330
1A
100
AcDbEntity
  8
SEIHIN
  6
Continuous
 62
     3
100
AcDbLine
 10
63.75377581257635
 20
101.8600884582893
 30
0.0
 11
52.55967581257636
 21
101.8600884582893
 31
0.0
  0
ARC
  5
1F77
330
1A
100
AcDbEntity
  8
SEIHIN
  6
Continuous
 62
     3
100
AcDbCircle
 10
57.67037581257637
 20
92.36008845828928
 30
0.0
 40
4.99999
100
AcDbArc
 50
21.73544399999916
 51
90.0
  0
ARC
  5
1F78
330
1A
100
AcDbEntity
  8
SEIHIN
  6
Continuous
 62
     3
100
AcDbCircle
 10
63.75377581257635
 20
98.86008845828928
 30
0.0
 40
2.999986
100
AcDbArc
 50
27.90700099999931
 51
90.0
  0
ARC
  5
1F79
330
1A
100
AcDbEntity
  8
SEIHIN
  6
Continuous
 62
     3
100
AcDbCircle
 10
50.05967581257636
 20
105.7600884582893
 30
0.0
 40
1.5
100
AcDbArc
 50
0.0
 51
180.0
  0
LINE
  5
1F7A
330
1A
100
AcDbEntity
  8
SEIHIN
100
AcDbLine
 10
121.1885485125764
 20
107.7231760382893
 30
0.0
 11
189.3544127525763
 21
116.2633290002893
 31
0.0
  0
LINE
  5
1F7B
330
1A
100
AcDbEntity
  8
SEIHIN
100
AcDbLine
 10
119.3795152125763
 20
113.5461136372893
 30
0.0
 11
188.6215962425764
 21
122.2046605782893
 31
0.0
  0
LINE
  5
1F7C
330
1A
100
AcDbEntity
  8
SEIHIN
  6
Continuous
 62
     3
100
AcDbLine
 10
104.4596758145764
 20
68.2600459396262
 30
0.0
 11
142.3275758125764
 21
68.25998845828931
 31
0.0
  0
LINE
  5
1F7D
330
1A
100
AcDbEntity
  8
SEIHIN
  6
Continuous
 62
     3
100
AcDbLine
 10
104.4596758145763
 20
70.76004491187439
 30
0.0
 11
140.3332758125764
 21
70.75998845828931
 31
0.0
  0
LINE
  5
1F7E
330
1A
100
AcDbEntity
  8
SEIHIN
  6
Continuous
 62
     3
100
AcDbLine
 10
104.4596758145763
 20
76.75998845828927
 30
0.0
 11
142.7036758125764
 21
76.75998845828929
 31
0.0
  0
LINE
  5
1F7F
330
1A
100
AcDbEntity
  8
SEIHIN
  6
Continuous
 62
     3
100
AcDbLine
 10
135.2050758125764
 20
79.25998845828929
 30
0.0
 11
104.4596758145764
 21
79.25998845828929
 31
0.0
  0
LINE
  5
1F80
330
1A
100
AcDbEntity
  8
SEIHIN
100
AcDbLine
 10
104.4596758145763
 20
66.06638480828929
 30
0.0
 11
104.4596758145763
 21
87.3772086772893
 31
0.0
  0
LINE
  5
1F81
330
1A
100
AcDbEntity
  8
SEIHIN
100
AcDbLine
 10
85.05967581257636
 20
85.25998845828929
 30
0.0
 11
85.05966166257633
 21
79.2599861002893
 31
0.0
  0
LINE
  5
1F82
330
1A
100
AcDbEntity
  8
SEIHIN
100
AcDbLine
 10
84.05967581257636
 20
85.25998845828929
 30
0.0
 11
84.05966166257633
 21
79.25998845828929
 31
0.0
  0
LINE
  5
1F83
330
1A
100
AcDbEntity
  8
SEIHIN
100
AcDbLine
 10
83.42458714257634
 20
85.0663824522893
 30
0.0
 11
83.42457101257634
 21
78.2282609982893
 31
0.0
  0
LINE
  5
1F84
330
1A
100
AcDbEntity
  8
SEIHIN
100
AcDbLine
 10
79.45967581257634
 20
66.06638480828929
 30
0.0
 11
79.45967581257634
 21
85.06638481028929
 31
0.0
  0
LINE
  5
1F85
330
1A
100
AcDbEntity
  8
SEIHIN
100
AcDbLine
 10
85.42459066257635
 20
86.56001149928929
 30
0.0
 11
85.42457101257634
 21
78.2282609982893
 31
0.0
  0
LINE
  5
1F86
330
1A
100
AcDbEntity
  8
SEIHIN
100
AcDbLine
 10
79.45967581257634
 20
66.06638480828929
 30
0.0
 11
104.4596758145763
 21
66.06638480828929
 31
0.0
  0
LINE
  5
1F87
330
1A
100
AcDbEntity
  8
SEIHIN
100
AcDbLine
 10
83.42457344625116
 20
79.2599884582893
 30
0.0
 11
85.42457344257633
 21
79.25998845828929
 31
0.0
  0
LINE
  5
1F88
330
1A
100
AcDbEntity
  8
SEIHIN
100
AcDbLine
 10
83.42457101257634
 20
78.2282609982893
 30
0.0
 11
85.42457101257634
 21
78.2282609982893
 31
0.0
  0
ARC
  5
1F89
330
1A
100
AcDbEntity
  8
SEIHIN
  6
Continuous
 62
     3
100
AcDbCircle
 10
76.44897581257635
 20
73.26008845828932
 30
0.0
 40
5.000009
100
AcDbArc
 50
201.7365079999997
 51
270.0
  0
LINE
  5
1F8A
330
1A
100
AcDbEntity
  8
SEIHIN
  6
Continuous
 62
     3
100
AcDbLine
 10
76.44897581257635
 20
68.26008845828932
 30
0.0
 11
79.45967581257634
 21
68.2600838882165
 31
0.0
  0
ARC
  5
1F8B
330
1A
100
AcDbEntity
  8
SEIHIN
  6
Continuous
 62
     3
100
AcDbCircle
 10
78.36229539727178
 20
79.75998845828929
 30
0.0
 40
3.0
100
AcDbArc
 50
209.6977057516304
 51
270.0
  0
LINE
  5
1F8C
330
1A
100
AcDbEntity
  8
SEIHIN
  6
Continuous
 62
     3
100
AcDbLine
 10
76.78797581257635
 20
70.76008845828932
 30
0.0
 11
79.45967581257635
 21
70.76008425388712
 31
0.0
  0
LINE
  5
1F8D
330
1A
100
AcDbEntity
  8
SEIHIN
  6
Continuous
 62
     3
100
AcDbLine
 10
77.05947581257635
 20
76.76008845828932
 30
0.0
 11
77.05947581257635
 21
70.76008845828932
 31
0.0
  0
ARC
  5
1F8E
330
1A
100
AcDbEntity
  8
SEIHIN
  6
Continuous
 62
     3
100
AcDbCircle
 10
76.78797581257635
 20
73.76008845828932
 30
0.0
 40
3.000001
100
AcDbArc
 50
201.7361539999994
 51
270.0
  0
LINE
  5
1F8F
330
1A
100
AcDbEntity
  8
SEIHIN
  6
Continuous
 62
     3
100
AcDbLine
 10
79.45967581257634
 20
79.25998845828929
 30
0.0
 11
78.96286698523336
 21
79.25998845828929
 31
0.0
  0
LINE
  5
1F90
330
1A
100
AcDbEntity
  8
SEIHIN
  6
Continuous
 62
     3
100
AcDbLine
 10
78.36229539727178
 20
76.75998845828929
 30
0.0
 11
79.45967581257634
 21
76.75998845828927
 31
0.0
  0
ARC
  5
1F91
330
1A
100
AcDbEntity
  8
SEIHIN
  6
Continuous
 62
     3
100
AcDbCircle
 10
78.96257581257635
 20
80.76008845828932
 30
0.0
 40
1.499982
100
AcDbArc
 50
207.9095830000001
 51
270.0
  0
LINE
  5
1F92
330
1A
100
AcDbEntity
  8
SEIHIN
100
AcDbLine
 10
94.45967581257634
 20
70.75998845828929
 30
0.0
 11
95.61437635257636
 21
68.75998845828929
 31
0.0
  0
LINE
  5
1F93
330
1A
100
AcDbEntity
  8
SEIHIN
100
AcDbLine
 10
94.45967581257634
 20
70.75998845828929
 30
0.0
 11
93.30497527257634
 21
68.75998845828929
 31
0.0
  0
LINE
  5
1F94
330
1A
100
AcDbEntity
  8
SEIHIN
100
AcDbLine
 10
95.61437635257636
 20
68.75998845828929
 30
0.0
 11
93.30497527257634
 21
68.75998845828929
 31
0.0
  0
MTEXT
  5
1F95
330
1A
100
AcDbEntity
  8
SEIHIN
100
AcDbMText
 10
96.47285771257634
 20
73.85190728228929
 30
0.0
 40
2.381249964
 41
0.0
 71
     1
 72
     5
  1
{\W1.022222;45}
210
0.0
220
0.0
230
-1.0
 11
-1.0
 21
0.0
 31
0.0
 73
     1
 44
1.0
  0
LINE
  5
1F96
330
1A
100
AcDbEntity
  8
SEIHIN
100
AcDbLine
 10
91.95967581257634
 20
76.75998845828929
 30
0.0
 11
96.95967581257634
 21
76.75998845828929
 31
0.0
  0
LINE
  5
1F97
330
1A
100
AcDbEntity
  8
SEIHIN
100
AcDbLine
 10
96.95967581257634
 20
70.75998845828929
 30
0.0
 11
91.95967581257634
 21
70.75998845828929
 31
0.0
  0
LINE
  5
1F98
330
1A
100
AcDbEntity
  8
SEIHIN
100
AcDbLine
 10
90.95967581257634
 20
75.75998845828929
 30
0.0
 11
90.95967581257634
 21
71.75998845828929
 31
0.0
  0
ARC
  5
1F99
330
1A
100
AcDbEntity
  8
SEIHIN
100
AcDbCircle
 10
91.95967581257634
 20
71.75998845828929
 30
0.0
 40
1.0
100
AcDbArc
 50
180.0
 51
270.0
  0
ARC
  5
1F9A
330
1A
100
AcDbEntity
  8
SEIHIN
100
AcDbCircle
 10
91.95967581257634
 20
75.75998845828929
 30
0.0
 40
1.0
100
AcDbArc
 50
90.0
 51
180.0
  0
LINE
  5
1F9B
330
1A
100
AcDbEntity
  8
SEIHIN
100
AcDbLine
 10
97.95967581257634
 20
75.75998845828929
 30
0.0
 11
97.95967581257634
 21
71.75998845828929
 31
0.0
  0
ARC
  5
1F9C
330
1A
100
AcDbEntity
  8
SEIHIN
100
AcDbCircle
 10
96.95967581257634
 20
71.75998845828929
 30
0.0
 40
1.0
100
AcDbArc
 50
270.0
 51
0.0
  0
ARC
  5
1F9D
330
1A
100
AcDbEntity
  8
SEIHIN
100
AcDbCircle
 10
96.95967581257634
 20
75.75998845828929
 30
0.0
 40
1.0
100
AcDbArc
 50
0.0
 51
90.0
  0
LINE
  5
1F9E
330
1A
100
AcDbEntity
  8
SEIHIN
100
AcDbLine
 10
94.71642581257635
 20
76.75998845828929
 30
0.0
 11
94.71642581257635
 21
74.75998845828929
 31
0.0
  0
LINE
  5
1F9F
330
1A
100
AcDbEntity
  8
SEIHIN
100
AcDbLine
 10
94.21642581257635
 20
74.75998845828929
 30
0.0
 11
94.21642581257635
 21
76.75998845828929
 31
0.0
  0
LINE
  5
1FA0
330
1A
100
AcDbEntity
  8
SEIHIN
100
AcDbLine
 10
94.71642581257635
 20
74.75998845828929
 30
0.0
 11
94.21642581257635
 21
74.75998845828929
 31
0.0
  0
LINE
  5
1FA1
330
1A
100
AcDbEntity
  8
SEIHIN
100
AcDbLine
 10
94.21642581257635
 20
76.75998845828929
 30
0.0
 11
94.71642581257635
 21
76.75998845828929
 31
0.0
  0
LINE
  5
1FA2
330
1A
100
AcDbEntity
  8
SEIHIN
100
AcDbLine
 10
94.21642581257635
 20
76.75998845828929
 30
0.0
 11
94.71642581257635
 21
76.75998845828929
 31
0.0
  0
MTEXT
  5
1FA3
330
1A
100
AcDbEntity
  8
SEIHIN
100
AcDbMText
 10
111.3692849125764
 20
73.67176567228927
 30
0.0
 40
2.381249964
 41
0.0
 71
     1
 72
     5
  1
{\W1.135802;60}
210
0.0
220
0.0
230
-1.0
 11
-1.0
 21
0.0
 31
0.0
 73
     1
 44
1.0
  0
LINE
  5
1FA4
330
1A
100
AcDbEntity
  8
SEIHIN
100
AcDbLine
 10
104.7096758125763
 20
76.75998845828929
 30
0.0
 11
104.7096758125763
 21
74.75998845828929
 31
0.0
  0
LINE
  5
1FA5
330
1A
100
AcDbEntity
  8
SEIHIN
100
AcDbLine
 10
104.7096758125763
 20
74.75998845828929
 30
0.0
 11
104.4596758125763
 21
74.75998845828929
 31
0.0
  0
LINE
  5
1FA6
330
1A
100
AcDbEntity
  8
SEIHIN
100
AcDbLine
 10
106.4044258125763
 20
76.75998845828929
 30
0.0
 11
106.9044258125763
 21
76.75998845828929
 31
0.0
  0
LINE
  5
1FA7
330
1A
100
AcDbEntity
  8
SEIHIN
100
AcDbLine
 10
109.7096758125763
 20
76.75998845828929
 30
0.0
 11
109.7096758125763
 21
74.75998845828929
 31
0.0
  0
LINE
  5
1FA8
330
1A
100
AcDbEntity
  8
SEIHIN
100
AcDbLine
 10
109.2096758125763
 20
74.75998845828929
 30
0.0
 11
109.2096758125763
 21
76.75998845828929
 31
0.0
  0
LINE
  5
1FA9
330
1A
100
AcDbEntity
  8
SEIHIN
100
AcDbLine
 10
109.7096758125763
 20
74.75998845828929
 30
0.0
 11
109.2096758125763
 21
74.75998845828929
 31
0.0
  0
LINE
  5
1FAA
330
1A
100
AcDbEntity
  8
SEIHIN
100
AcDbLine
 10
111.4044258125763
 20
76.75998845828929
 30
0.0
 11
111.9044258125763
 21
76.75998845828929
 31
0.0
  0
LINE
  5
1FAB
330
1A
100
AcDbEntity
  8
SEIHIN
100
AcDbLine
 10
114.2096758125763
 20
74.75998845828929
 30
0.0
 11
114.2096758125763
 21
76.75998845828929
 31
0.0
  0
LINE
  5
1FAC
330
1A
100
AcDbEntity
  8
SEIHIN
100
AcDbLine
 10
114.7096758125763
 20
76.75998845828929
 30
0.0
 11
114.7096758125763
 21
74.75998845828929
 31
0.0
  0
LINE
  5
1FAD
330
1A
100
AcDbEntity
  8
SEIHIN
100
AcDbLine
 10
114.7096758125763
 20
74.75998845828929
 30
0.0
 11
114.2096758125763
 21
74.75998845828929
 31
0.0
  0
LINE
  5
1FAE
330
1A
100
AcDbEntity
  8
SEIHIN
100
AcDbLine
 10
106.1802778125764
 20
97.90999017828932
 30
0.0
 11
88.90882691257639
 21
97.90999017828932
 31
0.0
  0
ARC
  5
1FAF
330
1A
100
AcDbEntity
  8
SEIHIN
100
AcDbCircle
 10
94.95967581257634
 20
86.5599884582893
 30
0.0
 40
9.535085152808648
100
AcDbArc
 50
4.916661302937908
 51
179.999861547953
  0
LINE
  5
1FB0
330
1A
100
AcDbEntity
  8
SEIHIN
100
AcDbLine
 10
84.05967581257636
 20
85.25998845828929
 30
0.0
 11
85.42458759257636
 21
85.25998845828929
 31
0.0
  0
LINE
  5
1FB1
330
1A
100
AcDbEntity
  8
SEIHIN
100
AcDbLine
 10
82.42458714257634
 20
86.06638481028929
 30
0.0
 11
80.45967581257634
 21
86.06638481028929
 31
0.0
  0
ARC
  5
1FB2
330
1A
100
AcDbEntity
  8
SEIHIN
100
AcDbCircle
 10
80.45967581257634
 20
85.06638481028929
 30
0.0
 40
1.0
100
AcDbArc
 50
90.0
 51
180.0
  0
ARC
  5
1FB3
330
1A
100
AcDbEntity
  8
SEIHIN
100
AcDbCircle
 10
82.42458714257634
 20
85.06638481028929
 30
0.0
 40
1.00000000000139
100
AcDbArc
 50
359.9998648965517
 51
90.0
  0
ARC
  5
1FB4
330
1A
100
AcDbEntity
  8
SEIHIN
100
AcDbCircle
 10
96.01930731257636
 20
88.82151664828928
 30
0.0
 40
9.89999994344371
100
AcDbArc
 50
135.9085672061387
 51
170.5325542265419
  0
CIRCLE
  5
1FB5
330
1A
100
AcDbEntity
  8
SEIHIN
100
AcDbCircle
 10
94.45967581257634
 20
90.0599884582893
 30
0.0
 40
3.500000004238516
  0
LINE
  5
1FB6
330
1A
100
AcDbEntity
  8
SEIHIN
100
AcDbLine
 10
88.90882691257639
 20
96.90999017828932
 30
0.0
 11
88.90882691257639
 21
97.90999017828932
 31
0.0
  0
LINE
  5
1FB7
330
1A
100
AcDbEntity
  8
SEIHIN
100
AcDbLine
 10
88.90882691257639
 20
95.70999017828927
 30
0.0
 11
88.90882691257639
 21
96.90999017828932
 31
0.0
  0
LINE
  5
1FB8
330
1A
100
AcDbEntity
  8
SEIHIN
100
AcDbLine
 10
104.4596758125763
 20
80.6952011482893
 30
0.0
 11
115.7500755125764
 21
103.8439509982893
 31
0.0
  0
LINE
  5
1FB9
330
1A
100
AcDbEntity
  8
SEIHIN
100
AcDbLine
 10
103.0811775125764
 20
91.55589280828929
 30
0.0
 11
110.8333432125763
 21
107.4501880682893
 31
0.0
  0
LINE
  5
1FBA
330
1A
100
AcDbEntity
  8
SEIHIN
100
AcDbLine
 10
102.3017598125763
 20
92.64370875828928
 30
0.0
 11
105.1894228125764
 21
95.70999017828927
 31
0.0
  0
LINE
  5
1FBB
330
1A
100
AcDbEntity
  8
SEIHIN
100
AcDbLine
 10
102.4094188125764
 20
92.75802708828928
 30
0.0
 11
104.8933234125764
 21
95.39557528828931
 31
0.0
  0
LINE
  5
1FBC
330
1A
100
AcDbEntity
  8
SEIHIN
100
AcDbLine
 10
118.4250209125763
 20
116.0365404792893
 30
0.0
 11
117.2774552125763
 21
116.3873865252893
 31
0.0
  0
ARC
  5
1FBD
330
1A
100
AcDbEntity
  8
SEIHIN
100
AcDbCircle
 10
120.7200780125763
 20
102.6281059682893
 30
0.0
 40
11.00000001967632
100
AcDbArc
 50
97.00000011594662
 51
154.0000030732914
  0
ARC
  5
1FBE
330
1A
100
AcDbEntity
  8
SEIHIN
100
AcDbCircle
 10
122.0416339125763
 20
100.7753529782893
 30
0.0
 40
7.000000031489973
100
AcDbArc
 50
96.99999997032126
 51
154.0000003277073
  0
LINE
  5
1FBF
330
1A
100
AcDbEntity
  8
SEIHIN
100
AcDbLine
 10
117.5456019125763
 20
113.1600906762893
 30
0.0
 11
118.4250209125763
 21
116.0365404792893
 31
0.0
  0
LINE
  5
1FC0
330
1A
100
AcDbEntity
  8
SEIHIN
100
AcDbLine
 10
116.1265978125763
 20
112.6231017242893
 30
0.0
 11
117.2774552125763
 21
116.3873865252893
 31
0.0
  0
LINE
  5
1FC1
330
1A
100
AcDbEntity
  8
SEIHIN
  6
Continuous
 62
     3
100
AcDbLine
 10
177.5596758125764
 20
101.2598884582893
 30
0.0
 11
177.5596758125764
 21
71.25988845828931
 31
0.0
  0
LINE
  5
1FC2
330
1A
100
AcDbEntity
  8
SEIHIN
  6
Continuous
 62
     3
100
AcDbLine
 10
171.5596758125764
 20
90.25988845828931
 30
0.0
 11
171.5596758125764
 21
73.75988845828931
 31
0.0
  0
ARC
  5
1FC3
330
1A
100
AcDbEntity
  8
SEIHIN
  6
Continuous
 62
     3
100
AcDbCircle
 10
140.6680758125764
 20
80.25998845828929
 30
0.0
 40
0.999978
100
AcDbArc
 50
150.2430369999999
 51
270.0
  0
LINE
  5
1FC4
330
1A
100
AcDbEntity
  8
SEIHIN
  6
Continuous
 62
     3
100
AcDbLine
 10
150.0685758125764
 20
103.7411884582893
 30
0.0
 11
136.4954758125764
 21
79.99528845828934
 31
0.0
  0
LINE
  5
1FC5
330
1A
100
AcDbEntity
  8
SEIHIN
  6
Continuous
 62
     3
100
AcDbLine
 10
144.8111758125764
 20
72.45088845828931
 30
0.0
 11
156.3750758125764
 21
92.80888845828929
 31
0.0
  0
LINE
  5
1FC6
330
1A
100
AcDbEntity
  8
SEIHIN
  6
Continuous
 62
     3
100
AcDbLine
 10
146.2305758125764
 20
79.75008845828933
 30
0.0
 11
155.4019758125764
 21
96.21948845828933
 31
0.0
  0
LINE
  5
1FC7
330
1A
100
AcDbEntity
  8
SEIHIN
  6
Continuous
 62
     3
100
AcDbLine
 10
168.1154758125764
 20
68.96868845828931
 30
0.0
 11
165.2264758125764
 21
73.57248845828931
 31
0.0
  0
ARC
  5
1FC8
330
1A
100
AcDbEntity
  8
SEIHIN
  6
Continuous
 62
     3
100
AcDbCircle
 10
166.5596758125764
 20
74.25988845828931
 30
0.0
 40
1.499984
100
AcDbArc
 50
44.54354499999958
 51
207.2723069999998
  0
LINE
  5
1FC9
330
1A
100
AcDbEntity
  8
SEIHIN
  6
Continuous
 62
     3
100
AcDbLine
 10
142.3275758125764
 20
68.25998845828931
 30
0.0
 11
159.5510758125764
 21
71.49788845828931
 31
0.0
  0
LINE
  5
1FCA
330
1A
100
AcDbEntity
  8
SEIHIN
  6
Continuous
 62
     3
100
AcDbLine
 10
145.8561758125764
 20
70.95838845828931
 30
0.0
 11
159.3350758125764
 21
72.77958845828931
 31
0.0
  0
LINE
  5
1FCB
330
1A
100
AcDbEntity
  8
SEIHIN
  6
Continuous
 62
     3
100
AcDbLine
 10
145.3702758125764
 20
79.25998845828929
 30
0.0
 11
140.6680758125764
 21
79.25998845828929
 31
0.0
  0
LINE
  5
1FCC
330
1A
100
AcDbEntity
  8
SEIHIN
  6
Continuous
 62
     3
100
AcDbLine
 10
141.1935758125764
 20
71.2501884582893
 30
0.0
 11
143.5638758125763
 21
75.25008845828933
 31
0.0
  0
LINE
  5
1FCD
330
1A
100
AcDbEntity
  8
SEIHIN
  6
Continuous
 62
     3
100
AcDbLine
 10
136.0597758125764
 20
70.76008845828932
 30
0.0
 11
136.0597758125764
 21
76.76008845828932
 31
0.0
  0
ARC
  5
1FCE
330
1A
100
AcDbEntity
  8
SEIHIN
  6
Continuous
 62
     3
100
AcDbCircle
 10
140.3332758125764
 20
71.75998845828931
 30
0.0
 40
1.000003
100
AcDbArc
 50
270.0
 51
329.3496969999996
  0
ARC
  5
1FCF
330
1A
100
AcDbEntity
  8
SEIHIN
  6
Continuous
 62
     3
100
AcDbCircle
 10
135.2050758125764
 20
80.75998845828929
 30
0.0
 40
1.499983
100
AcDbArc
 50
270.0
 51
329.3487229999997
  0
ARC
  5
1FD0
330
1A
100
AcDbEntity
  8
SEIHIN
  6
Continuous
 62
     3
100
AcDbCircle
 10
145.6714758125764
 20
71.9410884582893
 30
0.0
 40
0.999956
100
AcDbArc
 50
149.3496969999996
 51
280.6446470000001
  0
ARC
  5
1FD1
330
1A
100
AcDbEntity
  8
SEIHIN
  6
Continuous
 62
     3
100
AcDbCircle
 10
142.7036758125764
 20
75.75998845828929
 30
0.0
 40
0.9999600000000001
100
AcDbArc
 50
329.346776
 51
90.0
  0
ARC
  5
1FD2
330
1A
100
AcDbEntity
  8
SEIHIN
  6
Continuous
 62
     3
100
AcDbCircle
 10
145.3702758125764
 20
80.25998845828929
 30
0.0
 40
1.000003
100
AcDbArc
 50
270.0
 51
329.3496969999996
  0
ARC
  5
1FD3
330
1A
100
AcDbEntity
  8
SEIHIN
  6
Continuous
 62
     3
100
AcDbCircle
 10
159.4309758125764
 20
72.13678845828932
 30
0.0
 40
0.6500060000000001
100
AcDbArc
 50
278.475411
 51
98.48412899999983
  0
ARC
  5
1FD4
330
1A
100
AcDbEntity
  8
SEIHIN
  6
Continuous
 62
     3
100
AcDbCircle
 10
172.5596758125764
 20
71.25988845828931
 30
0.0
 40
5.000028
100
AcDbArc
 50
205.2238120000009
 51
0.0
  0
LINE
  5
1FD5
330
1A
100
AcDbEntity
  8
SEIHIN
  6
Continuous
 62
     3
100
AcDbLine
 10
167.6287758125764
 20
75.31208845828928
 30
0.0
 11
169.8470758125764
 21
73.0583884582893
 31
0.0
  0
ARC
  5
1FD6
330
1A
100
AcDbEntity
  8
SEIHIN
  6
Continuous
 62
     3
100
AcDbCircle
 10
170.5596758125764
 20
73.75988845828931
 30
0.0
 40
0.999975
100
AcDbArc
 50
224.5502650000009
 51
0.0
  0
ARC
  5
1FD7
330
1A
100
AcDbEntity
  8
SEIHIN
  6
Continuous
 62
     3
100
AcDbCircle
 10
166.5596758125764
 20
90.25988845828931
 30
0.0
 40
5.0
100
AcDbArc
 50
0.0
 51
90.0
  0
LINE
  5
1FD8
330
1A
100
AcDbEntity
  8
SEIHIN
  6
Continuous
 62
     3
100
AcDbLine
 10
158.0229758125764
 20
97.75988845828931
 30
0.0
 11
168.5596758125764
 21
97.75988845828931
 31
0.0
  0
LINE
  5
1FD9
330
1A
100
AcDbEntity
  8
SEIHIN
  6
Continuous
 62
     3
100
AcDbLine
 10
172.5596758125764
 20
106.2598884582893
 30
0.0
 11
154.4094758125764
 21
106.2598884582893
 31
0.0
  0
LINE
  5
1FDA
330
1A
100
AcDbEntity
  8
SEIHIN
  6
Continuous
 62
     3
100
AcDbLine
 10
168.5596758125764
 20
103.7598884582893
 30
0.0
 11
154.6936758125764
 21
103.7599884582893
 31
0.0
  0
ARC
  5
1FDB
330
1A
100
AcDbEntity
  8
SEIHIN
  6
Continuous
 62
     3
100
AcDbCircle
 10
154.6936758125764
 20
100.7599884582893
 30
0.0
 40
3.000009
100
AcDbArc
 50
90.0
 51
149.3496969999996
  0
LINE
  5
1FDC
330
1A
100
AcDbEntity
  8
SEIHIN
  6
Continuous
 62
     3
100
AcDbLine
 10
139.7999758125764
 20
80.75638845828928
 30
0.0
 11
152.0681758125764
 21
102.2113884582893
 31
0.0
  0
ARC
  5
1FDD
330
1A
100
AcDbEntity
  8
SEIHIN
  6
Continuous
 62
     3
100
AcDbCircle
 10
160.6765758125764
 20
90.25988845828931
 30
0.0
 40
5.000015
100
AcDbArc
 50
90.0
 51
149.3496969999996
  0
ARC
  5
1FDE
330
1A
100
AcDbEntity
  8
SEIHIN
  6
Continuous
 62
     3
100
AcDbCircle
 10
158.0229758125764
 20
94.75988845828931
 30
0.0
 40
3.000006
100
AcDbArc
 50
90.0
 51
150.8871489999997
  0
LINE
  5
1FDF
330
1A
100
AcDbEntity
  8
SEIHIN
  6
Continuous
 62
     3
100
AcDbLine
 10
160.6765758125764
 20
95.25988845828931
 30
0.0
 11
166.5596758125764
 21
95.25988845828931
 31
0.0
  0
ARC
  5
1FE0
330
1A
100
AcDbEntity
  8
SEIHIN
  6
Continuous
 62
     3
100
AcDbCircle
 10
154.4094758125764
 20
101.2598884582893
 30
0.0
 40
5.0
100
AcDbArc
 50
90.0
 51
150.247301
  0
ARC
  5
1FE1
330
1A
100
AcDbEntity
  8
SEIHIN
  6
Continuous
 62
     3
100
AcDbCircle
 10
168.5596758125764
 20
100.7598884582893
 30
0.0
 40
3.0
100
AcDbArc
 50
0.0
 51
90.0
  0
ARC
  5
1FE2
330
1A
100
AcDbEntity
  8
SEIHIN
  6
Continuous
 62
     3
100
AcDbCircle
 10
172.5596758125764
 20
101.2598884582893
 30
0.0
 40
5.0
100
AcDbArc
 50
0.0
 51
90.0
  0
ARC
  5
1FE3
330
1A
100
AcDbEntity
  8
SEIHIN
  6
Continuous
 62
     3
100
AcDbCircle
 10
168.5596758125764
 20
100.7598884582893
 30
0.0
 40
3.0
100
AcDbArc
 50
270.0
 51
0.0
  0
ARC
  5
1FE4
330
1A
100
AcDbEntity
  8
SEIHIN
  6
Continuous
 62
     3
100
AcDbCircle
 10
172.5596758125764
 20
101.2598884582893
 30
0.0
 40
5.000022
100
AcDbArc
 50
0.0
 51
2.064221999999502
  0
ARC
  5
1FE5
330
1A
100
AcDbEntity
  8
SEIHIN
100
AcDbCircle
 10
188.5013273525764
 20
123.2111520622893
 30
0.0
 40
6.999999997855919
100
AcDbArc
 50
276.9999999683262
 51
350.7918456020169
  0
ARC
  5
1FE6
330
1A
100
AcDbEntity
  8
SEIHIN
100
AcDbCircle
 10
188.4997266525763
 20
123.1972066992893
 30
0.0
 40
0.9999999994877491
100
AcDbArc
 50
277.0000142374855
 51
350.7918456181773
  0
ELLIPSE
  5
1FE7
330
1A
100
AcDbEntity
  8
SEIHIN
100
AcDbEllipse
 10
197.5477313933829
 20
230.889339175495
 30
0.0
 11
-2.198512334114254E-15
 21
2.0
 31
0.0
210
0.0
220
0.0
230
1.0
 40
0.371390676096766
 41
4.71238898038469
 42
6.283185307179583
  0
ELLIPSE
  5
1FE8
330
1A
100
AcDbEntity
  8
SEIHIN
100
AcDbEllipse
 10
185.6632297477699
 20
230.8893391754949
 30
0.0
 11
2.198512334114354E-15
 21
2.0
 31
0.0
210
0.0
220
0.0
230
1.0
 40
0.3713906760967661
 41
0.0000000000000029
 42
1.570796326794897
  0
ELLIPSE
  5
1FE9
330
1A
100
AcDbEntity
  8
SEIHIN
100
AcDbEllipse
 10
184.46322974777
 20
230.8893391754949
 30
0.0
 11
2.198512334114354E-15
 21
2.0
 31
0.0
210
0.0
220
0.0
230
1.0
 40
0.3713906760967661
 41
0.0000000000000029
 42
1.570796326794897
  0
ELLIPSE
  5
1FEA
330
1A
100
AcDbEntity
  8
SEIHIN
 62
     3
100
AcDbEllipse
 10
196.0621686871644
 20
185.3893391654949
 30
0.0
 11
0.0
 21
2.1000000000672
 31
0.0
210
0.0
220
0.0
230
1.0
 40
0.4867014234079679
 41
-1.570796326794897
 42
4.71238898038469
  0
ELLIPSE
  5
1FEB
330
1A
100
AcDbEntity
  8
SEIHIN
 62
     3
100
AcDbEllipse
 10
190.1199178652044
 20
186.9143391554949
 30
0.0
 11
0.0
 21
2.874999999613672
 31
0.0
210
0.0
220
0.0
230
1.0
 40
0.3913043478762229
 41
-1.570796326794897
 42
4.71238898038469
  0
ELLIPSE
  5
1FEC
330
1A
100
AcDbEntity
  8
SEIHIN
 62
     3
100
AcDbEllipse
 10
187.1487924539884
 20
185.3893391654949
 30
0.0
 11
0.0
 21
2.1000000000672
 31
0.0
210
0.0
220
0.0
230
1.0
 40
0.4867014234079679
 41
-1.570796326794897
 42
4.71238898038469
  0
ELLIPSE
  5
1FED
330
1A
100
AcDbEntity
  8
SEIHIN
 62
     3
100
AcDbEllipse
 10
191.9919525055764
 20
206.3893391754949
 30
0.0
 11
0.0
 21
-2.8559114857152
 31
0.0
210
0.0
220
0.0
230
-1.0
 40
0.4680467910551545
 41
-1.570796326794897
 42
4.71238898038469
  0
ELLIPSE
  5
1FEE
330
1A
100
AcDbEntity
  8
SEIHIN
100
AcDbEllipse
 10
197.5477313933829
 20
181.8893391554947
 30
0.0
 11
2.198512334114254E-15
 21
2.0
 31
0.0
210
0.0
220
0.0
230
-1.0
 40
0.371390676096766
 41
1.570796326794896
 42
3.141592653589791
  0
ELLIPSE
  5
1FEF
330
1A
100
AcDbEntity
  8
SEIHIN
100
AcDbEllipse
 10
185.6632297477699
 20
181.8893391554948
 30
0.0
 11
-2.198512334114354E-15
 21
2.0
 31
0.0
210
0.0
220
0.0
230
-1.0
 40
0.3713906760967661
 41
3.141592653589795
 42
4.71238898038469
  0
ELLIPSE
  5
1FF0
330
1A
100
AcDbEntity
  8
SEIHIN
100
AcDbEllipse
 10
184.46322974777
 20
181.8893391554948
 30
0.0
 11
-2.198512334114354E-15
 21
2.0
 31
0.0
210
0.0
220
0.0
230
-1.0
 40
0.3713906760967661
 41
3.141592653589795
 42
4.71238898038469
  0
ELLIPSE
  5
1FF1
330
1A
100
AcDbEntity
  8
SEIHIN
 62
     3
100
AcDbEllipse
 10
196.0621686871644
 20
227.3893391654949
 30
0.0
 11
0.0
 21
-2.1000000000672
 31
0.0
210
0.0
220
0.0
230
-1.0
 40
0.4867014234079679
 41
-1.570796326794897
 42
4.71238898038469
  0
ELLIPSE
  5
1FF2
330
1A
100
AcDbEntity
  8
SEIHIN
 62
     3
100
AcDbEllipse
 10
190.1199178652044
 20
225.8643391754948
 30
0.0
 11
0.0
 21
-2.874999999613672
 31
0.0
210
0.0
220
0.0
230
-1.0
 40
0.3913043478762229
 41
-1.570796326794897
 42
4.71238898038469
  0
ELLIPSE
  5
1FF3
330
1A
100
AcDbEntity
  8
SEIHIN
 62
     3
100
AcDbEllipse
 10
187.1487924539884
 20
227.3893391654949
 30
0.0
 11
0.0
 21
-2.1000000000672
 31
0.0
210
0.0
220
0.0
230
-1.0
 40
0.4867014234079679
 41
-1.570796326794897
 42
4.71238898038469
  0
LINE
  5
1FF4
330
1A
100
AcDbEntity
  8
SEIHIN
  6
Continuous
 62
     3
100
AcDbLine
 10
51.55967581257639
 20
213.8893391654949
 30
0.0
 11
83.99257878257635
 21
213.8893391654949
 31
0.0
  0
LINE
  5
1FF5
330
1A
100
AcDbEntity
  8
SEIHIN
  6
Continuous
 62
     3
100
AcDbLine
 10
51.5595758125763
 20
198.8893391654949
 30
0.0
 11
83.99257878257635
 21
198.8893391654949
 31
0.0
  0
DIMENSION
  5
1FF6
330
1A
100
AcDbEntity
  8
SUNPOU
100
AcDbDimension
  2
*D6
 10
26.50219246640199
 20
195.3893391654949
 30
0.0
 11
24.00219246640197
 21
206.3893391654949
 31
0.0
 70
    32
 71
     5
 42
22.0
  3
STANDARD
100
AcDbAlignedDimension
 13
48.55967581257639
 23
217.3893391654949
 33
0.0
 14
48.55967581257633
 24
195.3893391654949
 34
0.0
 50
90.0
100
AcDbRotatedDimension
1001
ACAD
1000
DSTYLE
1002
{
1070
    41
1040
3.0
1070
    42
1040
3.0
1070
    43
1040
7.0
1070
    44
1040
1.5
1070
    73
1070
     0
1070
    74
1070
     0
1070
    77
1070
     3
1070
   140
1040
3.0
1070
   141
1040
3.0
1070
   147
1040
1.0
1070
   172
1070
     1
1070
   173
1070
     1
1070
   176
1070
   256
1070
   177
1070
   256
1070
   178
1070
   256
1070
   271
1070
     0
1070
   272
1070
     0
1070
   341
1005
B2
1070
     6
1000
OPEN
1070
     7
1000
OPEN
1002
}
  0
LINE
  5
1FF7
330
1A
100
AcDbEntity
  8
SEIHIN
  6
Continuous
 62
     3
100
AcDbLine
 10
51.55967581257639
 20
206.3895391654948
 30
0.0
 11
51.5595758125763
 21
195.3893391654949
 31
0.0
  0
LINE
  5
1FF8
330
1A
100
AcDbEntity
  8
SEIHIN
  6
Continuous
 62
     3
100
AcDbLine
 10
48.55967581257633
 20
195.3893391654949
 30
0.0
 11
48.55967581257639
 21
217.3893391654949
 31
0.0
  0
LINE
  5
1FF9
330
1A
100
AcDbEntity
  8
SEIHIN
  6
Continuous
 62
     3
100
AcDbLine
 10
48.55967581257633
 20
195.3893391654949
 30
0.0
 11
51.5595758125763
 21
195.3893391654948
 31
0.0
  0
LINE
  5
1FFA
330
1A
100
AcDbEntity
  8
SEIHIN
  6
Continuous
 62
     3
100
AcDbLine
 10
51.55967581257639
 20
206.3891391654948
 30
0.0
 11
51.55967581257639
 21
217.3893391654949
 31
0.0
  0
LINE
  5
1FFB
330
1A
100
AcDbEntity
  8
SEIHIN
  6
Continuous
 62
     3
100
AcDbLine
 10
48.55967581257639
 20
217.3893391654949
 30
0.0
 11
51.55967581257639
 21
217.3893391654949
 31
0.0
  0
LINE
  5
1FFC
330
1A
100
AcDbEntity
  8
SEIHIN
  6
Continuous
 62
     3
100
AcDbLine
 10
65.55967581257639
 20
206.3892391654948
 30
0.0
 11
65.55967581257639
 21
213.8894391654948
 31
0.0
  0
LINE
  5
1FFD
330
1A
100
AcDbEntity
  8
SEIHIN
  6
Continuous
 62
     3
100
AcDbLine
 10
65.55967581257639
 20
206.3894391654948
 30
0.0
 11
65.55967581257639
 21
198.8892391654948
 31
0.0
  0
LINE
  5
1FFE
330
1A
100
AcDbEntity
  8
SEIHIN
 62
     3
100
AcDbLine
 10
183.7204483955764
 20
230.8893391754949
 30
0.0
 11
183.7204483955764
 21
215.5906789754948
 31
0.0
  0
LINE
  5
1FFF
330
1A
100
AcDbEntity
  8
SEIHIN
 62
     3
100
AcDbLine
 10
184.9204483955764
 20
216.2123907754948
 30
0.0
 11
184.9204483955764
 21
230.8893391754949
 31
0.0
  0
LINE
  5
2000
330
1A
100
AcDbEntity
  8
SEIHIN
 62
     3
100
AcDbLine
 10
198.2905127455763
 20
216.2123910754949
 30
0.0
 11
198.2905127455763
 21
230.889339175495
 31
0.0
  0
LINE
  5
2001
330
1A
100
AcDbEntity
  8
SEIHIN
 62
     3
100
AcDbLine
 10
88.10585122557649
 20
198.8893391554948
 30
0.0
 11
196.2628456955764
 21
198.8893391554948
 31
0.0
  0
LINE
  5
2002
330
1A
100
AcDbEntity
  8
SEIHIN
 62
     3
100
AcDbLine
 10
88.10585122557649
 20
213.8893391754949
 30
0.0
 11
196.2628456955764
 21
213.8893391754949
 31
0.0
  0
LINE
  5
2003
330
1A
100
AcDbEntity
  8
SEIHIN
 62
     3
100
AcDbLine
 10
87.60585122557649
 20
199.8893391554948
 30
0.0
 11
196.2628456955764
 21
199.8893391554948
 31
0.0
  0
LINE
  5
2004
330
1A
100
AcDbEntity
  8
SEIHIN
 62
     3
100
AcDbLine
 10
87.60585122557649
 20
212.8893391754949
 30
0.0
 11
196.2628456955764
 21
212.8893391754949
 31
0.0
  0
LINE
  5
2005
330
1A
100
AcDbEntity
  8
SEIHIN
 62
     3
100
AcDbLine
 10
114.8659589125763
 20
203.3893391754949
 30
0.0
 11
187.6552526855764
 21
203.3893391754949
 31
0.0
  0
LINE
  5
2006
330
1A
100
AcDbEntity
  8
SEIHIN
 62
     3
100
AcDbLine
 10
114.8659589125763
 20
209.3893391754949
 30
0.0
 11
187.6552528755764
 21
209.3893391754949
 31
0.0
  0
LINE
  5
2007
330
1A
100
AcDbEntity
  8
SEIHIN
100
AcDbLine
 10
85.42486799257634
 20
214.3893391854948
 30
0.0
 11
104.4596758145763
 21
214.3893391854948
 31
0.0
  0
LINE
  5
2008
330
1A
100
AcDbEntity
  8
SEIHIN
100
AcDbLine
 10
104.4596758145763
 20
198.3893391454948
 30
0.0
 11
85.42482932257633
 21
198.3893851454948
 31
0.0
  0
LINE
  5
2009
330
1A
100
AcDbEntity
  8
SEIHIN
100
AcDbLine
 10
88.06848177257635
 20
210.5437831854948
 30
0.0
 11
110.1271688975763
 21
210.5437831854948
 31
0.0
  0
LINE
  5
200A
330
1A
100
AcDbEntity
  8
SEIHIN
100
AcDbLine
 10
85.27896222257635
 20
212.6614127854948
 30
0.0
 11
112.8659589125763
 21
212.6614127854948
 31
0.0
  0
LINE
  5
200B
330
1A
100
AcDbEntity
  8
SEIHIN
100
AcDbLine
 10
88.06848177257635
 20
202.2348951354948
 30
0.0
 11
110.1271688975763
 21
202.2348951354948
 31
0.0
  0
LINE
  5
200C
330
1A
100
AcDbEntity
  8
SEIHIN
100
AcDbLine
 10
85.27896222257635
 20
200.1172655054949
 30
0.0
 11
112.8659589125763
 21
200.1172655054949
 31
0.0
  0
LINE
  5
200D
330
1A
100
AcDbEntity
  8
SEIHIN
100
AcDbLine
 10
83.99257878257635
 20
195.3893391454948
 30
0.0
 11
83.99257878257635
 21
198.8893391454948
 31
0.0
  0
LINE
  5
200E
330
1A
100
AcDbEntity
  8
SEIHIN
100
AcDbLine
 10
84.99257878257635
 20
198.3893391454948
 30
0.0
 11
84.99257878257635
 21
195.3893391454948
 31
0.0
  0
LINE
  5
200F
330
1A
100
AcDbEntity
  8
SEIHIN
100
AcDbLine
 10
84.99257878257635
 20
195.3893391454948
 30
0.0
 11
83.99257878257635
 21
195.3893391454948
 31
0.0
  0
ARC
  5
2010
330
1A
100
AcDbEntity
  8
SEIHIN
100
AcDbCircle
 10
85.49257878257635
 20
214.3893391854948
 30
0.0
 40
0.5
100
AcDbArc
 50
180.0
 51
270.0
  0
ARC
  5
2011
330
1A
100
AcDbEntity
  8
SEIHIN
100
AcDbCircle
 10
85.49257878257635
 20
198.3893391454948
 30
0.0
 40
0.5
100
AcDbArc
 50
90.0
 51
180.0
  0
LINE
  5
2012
330
1A
100
AcDbEntity
  8
SEIHIN
100
AcDbLine
 10
88.06848177257635
 20
201.1172655054949
 30
0.0
 11
85.27896222257635
 21
201.1172655054949
 31
0.0
  0
LINE
  5
2013
330
1A
100
AcDbEntity
  8
SEIHIN
100
AcDbLine
 10
88.06848177257635
 20
211.6614127854948
 30
0.0
 11
85.27896222257635
 21
211.6614127854948
 31
0.0
  0
LINE
  5
2014
330
1A
100
AcDbEntity
  8
SEIHIN
100
AcDbLine
 10
85.27896222257635
 20
208.3139504854948
 30
0.0
 11
88.06848177257635
 21
208.3139504854948
 31
0.0
  0
LINE
  5
2015
330
1A
100
AcDbEntity
  8
SEIHIN
100
AcDbLine
 10
85.27896222257635
 20
204.4647278054948
 30
0.0
 11
88.06848177257635
 21
204.4647278054948
 31
0.0
  0
LINE
  5
2016
330
1A
100
AcDbEntity
  8
SEIHIN
  6
Continuous
 62
     3
100
AcDbLine
 10
78.05957581257641
 20
198.8893391654949
 30
0.0
 11
78.05957581257641
 21
213.8893391654949
 31
0.0
  0
LINE
  5
2017
330
1A
100
AcDbEntity
  8
SEIHIN
100
AcDbLine
 10
85.27896222257635
 20
211.6614127854948
 30
0.0
 11
85.27896222257635
 21
201.1172655054949
 31
0.0
  0
ARC
  5
2018
330
1A
100
AcDbEntity
  8
SEIHIN
100
AcDbCircle
 10
85.27896222257635
 20
206.3893391454948
 30
0.0
 40
3.000000000000011
100
AcDbArc
 50
90.00000515662018
 51
269.9999952253517
  0
LINE
  5
2019
330
1A
100
AcDbEntity
  8
SEIHIN
100
AcDbLine
 10
79.45967581257634
 20
198.3893391454948
 30
0.0
 11
83.42458313257635
 21
198.3893391454948
 31
0.0
  0
LINE
  5
201A
330
1A
100
AcDbEntity
  8
SEIHIN
100
AcDbLine
 10
83.42482475257634
 20
198.8893391454948
 30
0.0
 11
79.45967581257634
 21
198.8893391454948
 31
0.0
  0
LINE
  5
201B
330
1A
100
AcDbEntity
  8
SEIHIN
100
AcDbLine
 10
79.45967581257634
 20
198.3893391454948
 30
0.0
 11
79.45967581257634
 21
198.8893391454948
 31
0.0
  0
LINE
  5
201C
330
1A
100
AcDbEntity
  8
SEIHIN
100
AcDbLine
 10
85.27896222257635
 20
201.1172655054949
 30
0.0
 11
85.27896222257635
 21
200.1172655054949
 31
0.0
  0
LINE
  5
201D
330
1A
100
AcDbEntity
  8
SEIHIN
100
AcDbLine
 10
83.42482357257634
 20
198.3893391454948
 30
0.0
 11
83.42482475257634
 21
198.8893391454948
 31
0.0
  0
ARC
  5
201E
330
1A
100
AcDbEntity
  8
SEIHIN
100
AcDbCircle
 10
84.99257878257635
 20
198.8893391454948
 30
0.0
 40
1.0
100
AcDbArc
 50
90.0
 51
180.0
  0
LINE
  5
201F
330
1A
100
AcDbEntity
  8
SEIHIN
100
AcDbLine
 10
83.42486012257635
 20
213.8893391854948
 30
0.0
 11
83.42486130257635
 21
214.3893391854948
 31
0.0
  0
LINE
  5
2020
330
1A
100
AcDbEntity
  8
SEIHIN
100
AcDbLine
 10
79.45967581257634
 20
213.8893391854948
 30
0.0
 11
79.45967581257634
 21
214.3893391854948
 31
0.0
  0
LINE
  5
2021
330
1A
100
AcDbEntity
  8
SEIHIN
100
AcDbLine
 10
83.99257878257635
 20
217.3893391854948
 30
0.0
 11
83.99257878257635
 21
213.8893391854948
 31
0.0
  0
LINE
  5
2022
330
1A
100
AcDbEntity
  8
SEIHIN
100
AcDbLine
 10
83.42486012257635
 20
213.8893391854948
 30
0.0
 11
79.45967581257634
 21
213.8893391854948
 31
0.0
  0
LINE
  5
2023
330
1A
100
AcDbEntity
  8
SEIHIN
100
AcDbLine
 10
85.27896222257635
 20
211.6614127854948
 30
0.0
 11
85.27896222257635
 21
212.6614127854948
 31
0.0
  0
ARC
  5
2024
330
1A
100
AcDbEntity
  8
SEIHIN
100
AcDbCircle
 10
84.99257878257635
 20
213.8893391854948
 30
0.0
 40
1.0
100
AcDbArc
 50
180.0
 51
270.0
  0
LINE
  5
2025
330
1A
100
AcDbEntity
  8
SEIHIN
100
AcDbLine
 10
79.45967581257634
 20
214.3893391854948
 30
0.0
 11
83.42458313257635
 21
214.3893391854948
 31
0.0
  0
LINE
  5
2026
330
1A
100
AcDbEntity
  8
SEIHIN
100
AcDbLine
 10
84.99257878257635
 20
217.3893391854948
 30
0.0
 11
83.99257878257635
 21
217.3893391854948
 31
0.0
  0
LINE
  5
2027
330
1A
100
AcDbEntity
  8
SEIHIN
100
AcDbLine
 10
84.99257878257635
 20
214.3893391854948
 30
0.0
 11
84.99257878257635
 21
217.3893391854948
 31
0.0
  0
LINE
  5
2028
330
1A
100
AcDbEntity
  8
SEIHIN
100
AcDbLine
 10
88.06848177257635
 20
200.1172655054949
 30
0.0
 11
88.06848177257635
 21
212.6614127854948
 31
0.0
  0
ARC
  5
2029
330
1A
100
AcDbEntity
  8
SEIHIN
100
AcDbCircle
 10
94.45991694257634
 20
202.9076686454948
 30
0.0
 40
5.715337531631893
100
AcDbArc
 50
232.2375418744897
 51
307.7621812247568
  0
LINE
  5
202A
330
1A
100
AcDbEntity
  8
SEIHIN
100
AcDbLine
 10
88.06848177257635
 20
200.1172655054949
 30
0.0
 11
88.06848177257635
 21
201.3172655054949
 31
0.0
  0
LINE
  5
202B
330
1A
100
AcDbEntity
  8
SEIHIN
100
AcDbLine
 10
85.42482932257633
 20
198.3893851454948
 30
0.0
 11
85.42483053257632
 21
198.8893391454948
 31
0.0
  0
LINE
  5
202C
330
1A
100
AcDbEntity
  8
SEIHIN
100
AcDbLine
 10
97.95990602257635
 20
215.4537775854948
 30
0.0
 11
90.95990602257635
 21
215.4537775854948
 31
0.0
  0
LINE
  5
202D
330
1A
100
AcDbEntity
  8
SEIHIN
100
AcDbLine
 10
90.95990602257635
 20
214.3893391854948
 30
0.0
 11
97.95990602257635
 21
214.3893391854948
 31
0.0
  0
LINE
  5
202E
330
1A
100
AcDbEntity
  8
SEIHIN
100
AcDbLine
 10
85.42486678257635
 20
213.8893391854948
 30
0.0
 11
85.42486799257634
 21
214.3893391854948
 31
0.0
  0
LINE
  5
202F
330
1A
100
AcDbEntity
  8
SEIHIN
100
AcDbLine
 10
88.06848177257635
 20
212.6614127854948
 30
0.0
 11
88.06848177257635
 21
211.4614127854948
 31
0.0
  0
LINE
  5
2030
330
1A
100
AcDbEntity
  8
SEIHIN
100
AcDbLine
 10
90.95990602257635
 20
215.4537775854948
 30
0.0
 11
90.95990602257635
 21
214.3893391854948
 31
0.0
  0
LINE
  5
2031
330
1A
100
AcDbEntity
  8
SEIHIN
100
AcDbLine
 10
97.95990602257635
 20
214.3893391854948
 30
0.0
 11
97.95990602257635
 21
215.4537775854948
 31
0.0
  0
LINE
  5
2032
330
1A
100
AcDbEntity
  8
SEIHIN
100
AcDbLine
 10
113.7183932055764
 20
202.1172655054949
 30
0.0
 11
113.7183932055764
 21
210.6614127854948
 31
0.0
  0
LINE
  5
2033
330
1A
100
AcDbEntity
  8
SEIHIN
100
AcDbLine
 10
114.8659589125763
 20
202.1172655054949
 30
0.0
 11
114.8659589125763
 21
210.6614127854948
 31
0.0
  0
LINE
  5
2034
330
1A
100
AcDbEntity
  8
SEIHIN
100
AcDbLine
 10
112.1271688975763
 20
208.5437831554949
 30
0.0
 11
112.1271688975763
 21
204.2348951354948
 31
0.0
  0
LINE
  5
2035
330
1A
100
AcDbEntity
  8
SEIHIN
100
AcDbLine
 10
103.5620983015763
 20
203.2348951354948
 30
0.0
 11
103.5620983015763
 21
209.5437831554949
 31
0.0
  0
LINE
  5
2036
330
1A
100
AcDbEntity
  8
SEIHIN
100
AcDbLine
 10
108.4040185370764
 20
203.2348951354948
 30
0.0
 11
108.4040185370764
 21
209.5437831554949
 31
0.0
  0
LINE
  5
2037
330
1A
100
AcDbEntity
  8
SEIHIN
100
AcDbLine
 10
104.4596758145763
 20
198.3893391454948
 30
0.0
 11
104.4596758145763
 21
198.8893391454948
 31
0.0
  0
ARC
  5
2038
330
1A
100
AcDbEntity
  8
SEIHIN
100
AcDbCircle
 10
110.1271688975763
 20
204.2348951354948
 30
0.0
 40
2.0
100
AcDbArc
 50
270.0
 51
0.0
  0
ARC
  5
2039
330
1A
100
AcDbEntity
  8
SEIHIN
100
AcDbCircle
 10
112.8659589125763
 20
202.1172655054949
 30
0.0
 40
2.0
100
AcDbArc
 50
270.0
 51
0.0
  0
ARC
  5
203A
330
1A
100
AcDbEntity
  8
SEIHIN
100
AcDbCircle
 10
112.8659589125763
 20
202.1172655054949
 30
0.0
 40
2.0
100
AcDbArc
 50
270.0
 51
0.0
  0
ARC
  5
203B
330
1A
100
AcDbEntity
  8
SEIHIN
100
AcDbCircle
 10
111.7183932055764
 20
202.1172655054949
 30
0.0
 40
2.0
100
AcDbArc
 50
270.0
 51
0.0
  0
LINE
  5
203C
330
1A
100
AcDbEntity
  8
SEIHIN
100
AcDbLine
 10
113.4515206875396
 20
198.8893391454948
 30
0.0
 11
113.4515206875396
 21
199.8893391454949
 31
0.0
  0
LINE
  5
203D
330
1A
100
AcDbEntity
  8
SEIHIN
100
AcDbLine
 10
104.4596758145763
 20
213.8893391854948
 30
0.0
 11
104.4596758145763
 21
214.3893391854948
 31
0.0
  0
ARC
  5
203E
330
1A
100
AcDbEntity
  8
SEIHIN
100
AcDbCircle
 10
112.8659589125763
 20
210.6614127854948
 30
0.0
 40
2.0
100
AcDbArc
 50
0.0
 51
90.0
  0
ARC
  5
203F
330
1A
100
AcDbEntity
  8
SEIHIN
100
AcDbCircle
 10
112.8659589125763
 20
210.6614127854948
 30
0.0
 40
2.0
100
AcDbArc
 50
0.0
 51
90.0
  0
ARC
  5
2040
330
1A
100
AcDbEntity
  8
SEIHIN
100
AcDbCircle
 10
111.7183932055764
 20
210.6614127854948
 30
0.0
 40
2.0
100
AcDbArc
 50
0.0
 51
90.0
  0
LINE
  5
2041
330
1A
100
AcDbEntity
  8
SEIHIN
100
AcDbLine
 10
113.4515206875396
 20
212.8893391854949
 30
0.0
 11
113.4515206875396
 21
213.8893391854948
 31
0.0
  0
ARC
  5
2042
330
1A
100
AcDbEntity
  8
SEIHIN
100
AcDbCircle
 10
110.1271688975763
 20
208.5437831554949
 30
0.0
 40
2.000000014999998
100
AcDbArc
 50
0.0
 51
90.0
  0
ARC
  5
2043
330
1A
100
AcDbEntity
  8
SEIHIN
100
AcDbCircle
 10
170.0383405535233
 20
206.3893391454948
 30
0.0
 40
3.25
100
AcDbArc
 50
112.6198649480423
 51
247.3801350519577
  0
LINE
  5
2044
330
1A
100
AcDbEntity
  8
SEIHIN
100
AcDbLine
 10
165.7444376745609
 20
199.8893391454948
 30
0.0
 11
165.7444376745609
 21
198.8893391454948
 31
0.0
  0
LINE
  5
2045
330
1A
100
AcDbEntity
  8
SEIHIN
100
AcDbLine
 10
165.7444376745609
 20
212.8893391854949
 30
0.0
 11
165.7444376745609
 21
213.8893391854949
 31
0.0
  0
LINE
  5
2046
330
1A
100
AcDbEntity
  8
SEIHIN
 62
     3
100
AcDbLine
 10
195.6099252555765
 20
198.8893391554948
 30
0.0
 11
195.6099252555765
 21
195.8893391554948
 31
0.0
  0
LINE
  5
2047
330
1A
100
AcDbEntity
  8
SEIHIN
 62
     3
100
AcDbLine
 10
194.2205235455764
 20
195.8893391554948
 30
0.0
 11
194.2205235455764
 21
198.8893391554948
 31
0.0
  0
LINE
  5
2048
330
1A
100
AcDbEntity
  8
SEIHIN
 62
     3
100
AcDbLine
 10
189.2273611455765
 20
198.8893391554948
 30
0.0
 11
189.2273611455765
 21
195.8893391554948
 31
0.0
  0
LINE
  5
2049
330
1A
100
AcDbEntity
  8
SEIHIN
 62
     3
100
AcDbLine
 10
189.2273611455765
 20
195.8893391554948
 30
0.0
 11
187.8379594355764
 21
197.9605339654949
 31
0.0
  0
LINE
  5
204A
330
1A
100
AcDbEntity
  8
SEIHIN
 62
     3
100
AcDbLine
 10
187.8379594355764
 20
195.8893391554948
 30
0.0
 11
187.8379594355764
 21
198.8893391554948
 31
0.0
  0
LINE
  5
204B
330
1A
100
AcDbEntity
  8
SEIHIN
 62
     3
100
AcDbLine
 10
195.6099252555765
 20
195.8893391554948
 30
0.0
 11
194.2205235455764
 21
197.9605339654949
 31
0.0
  0
LINE
  5
204C
330
1A
100
AcDbEntity
  8
SEIHIN
 62
     3
100
AcDbLine
 10
198.2905127455763
 20
196.5662871854948
 30
0.0
 11
198.2905127455763
 21
181.8893391554947
 31
0.0
  0
LINE
  5
204D
330
1A
100
AcDbEntity
  8
SEIHIN
 62
     3
100
AcDbLine
 10
184.9204483955764
 20
196.5662875654949
 30
0.0
 11
184.9204483955764
 21
181.8893391554948
 31
0.0
  0
LINE
  5
204E
330
1A
100
AcDbEntity
  8
SEIHIN
 62
     3
100
AcDbLine
 10
183.7204483955764
 20
181.8893391554948
 30
0.0
 11
183.7204483955764
 21
197.0543916854949
 31
0.0
  0
LINE
  5
204F
330
1A
100
AcDbEntity
  8
CENTER L
100
AcDbLine
 10
183.1264917336339
 20
185.3893391754949
 30
0.0
 11
191.1710931743567
 21
185.3893391754949
 31
0.0
  0
ARC
  5
2050
330
1A
100
AcDbEntity
  8
SEIHIN
 62
     3
100
AcDbCircle
 10
191.3207956071644
 20
185.3893391654949
 30
0.0
 40
5.185616519156494
100
AcDbArc
 50
336.1109838713463
 51
23.88901612865367
  0
ARC
  5
2051
330
1A
100
AcDbEntity
  8
SEIHIN
 62
     3
100
AcDbCircle
 10
182.8404407952043
 20
186.9143391554949
 30
0.0
 40
7.826647520660156
100
AcDbArc
 50
338.4486589066005
 51
21.5513410933995
  0
ARC
  5
2052
330
1A
100
AcDbEntity
  8
SEIHIN
 62
     3
100
AcDbCircle
 10
182.4074193839884
 20
185.3893391654949
 30
0.0
 40
5.185616510013183
100
AcDbArc
 50
336.1109838265991
 51
23.88901617340093
  0
LINE
  5
2053
330
1A
100
AcDbEntity
  8
SEIHIN
 62
     3
100
AcDbLine
 10
197.5477313933829
 20
179.8893391554948
 30
0.0
 11
184.46322974777
 21
179.8893391554948
 31
0.0
  0
LINE
  5
2054
330
1A
100
AcDbEntity
  8
CENTER L
100
AcDbLine
 10
185.9944533784415
 20
186.9143391554949
 30
0.0
 11
194.2449178651974
 21
186.9143391554949
 31
0.0
  0
LINE
  5
2055
330
1A
100
AcDbEntity
  8
SEIHIN
 62
     3
100
AcDbLine
 10
187.8379594355764
 20
195.8893391554948
 30
0.0
 11
189.2273611455765
 21
195.8893391554948
 31
0.0
  0
LINE
  5
2056
330
1A
100
AcDbEntity
  8
SEIHIN
 62
     3
100
AcDbLine
 10
194.2205235455764
 20
195.8893391554948
 30
0.0
 11
195.6099252555765
 21
195.8893391554948
 31
0.0
  0
ARC
  5
2057
330
1A
100
AcDbEntity
  8
SEIHIN
 62
     3
100
AcDbCircle
 10
183.2204483955764
 20
216.2123907754948
 30
0.0
 40
1.700000010320476
100
AcDbArc
 50
278.9999998704206
 51
0.0
  0
ARC
  5
2058
330
1A
100
AcDbEntity
  8
SEIHIN
 62
     3
100
AcDbCircle
 10
183.2204483955764
 20
215.5906789754948
 30
0.0
 40
0.5000000241832312
100
AcDbArc
 50
273.791834236553
 51
0.0
  0
ARC
  5
2059
330
1A
100
AcDbEntity
  8
SEIHIN
 62
     3
100
AcDbCircle
 10
183.2204483955764
 20
196.5662875654949
 30
0.0
 40
1.700000000443591
100
AcDbArc
 50
0.0
 51
81.00000002413239
  0
ARC
  5
205A
330
1A
100
AcDbEntity
  8
SEIHIN
 62
     3
100
AcDbCircle
 10
183.2204483955764
 20
197.0543916854949
 30
0.0
 40
0.4999999992379601
100
AcDbArc
 50
0.0
 51
86.20816538453839
  0
ARC
  5
205B
330
1A
100
AcDbEntity
  8
SEIHIN
100
AcDbCircle
 10
178.2168322081076
 20
206.3893391454948
 30
0.0
 40
3.25
100
AcDbArc
 50
292.6198649480444
 51
67.38013505195957
  0
LINE
  5
205C
330
1A
100
AcDbEntity
  8
SEIHIN
100
AcDbLine
 10
168.7883405535233
 20
203.3893391454948
 30
0.0
 11
168.7883405535233
 21
199.8893391454948
 31
0.0
  0
LINE
  5
205D
330
1A
100
AcDbEntity
  8
SEIHIN
100
AcDbLine
 10
179.4668322801078
 20
203.3893391754949
 30
0.0
 11
179.4668322801078
 21
199.8893391554948
 31
0.0
  0
LINE
  5
205E
330
1A
100
AcDbEntity
  8
SEIHIN
 62
     3
100
AcDbLine
 10
183.4863869855764
 20
198.2453577454949
 30
0.0
 11
182.8424055755764
 21
198.8893391554948
 31
0.0
  0
ARC
  5
205F
330
1A
100
AcDbEntity
  8
SEIHIN
 62
     3
100
AcDbCircle
 10
183.3659381555764
 20
199.2495756754948
 30
0.0
 40
1.700000004646646
100
AcDbArc
 50
194.548545520478
 51
266.2081647342352
  0
LINE
  5
2060
330
1A
100
AcDbEntity
  8
SEIHIN
100
AcDbLine
 10
181.416526376461
 20
199.8893391554948
 30
0.0
 11
181.416526376461
 21
198.8893391554948
 31
0.0
  0
LINE
  5
2061
330
1A
100
AcDbEntity
  8
SEIHIN
100
AcDbLine
 10
168.7883405535233
 20
212.8893391854949
 30
0.0
 11
168.7883405535233
 21
209.3893391454948
 31
0.0
  0
LINE
  5
2062
330
1A
100
AcDbEntity
  8
SEIHIN
 62
     3
100
AcDbLine
 10
183.4863869855764
 20
214.5333205754948
 30
0.0
 11
182.8424055755764
 21
213.8893391754949
 31
0.0
  0
ARC
  5
2063
330
1A
100
AcDbEntity
  8
SEIHIN
 62
     3
100
AcDbCircle
 10
183.3659381555764
 20
213.3954949754948
 30
0.0
 40
1.699999989349252
100
AcDbArc
 50
93.79183535491853
 51
163.1123117581125
  0
LINE
  5
2064
330
1A
100
AcDbEntity
  8
SEIHIN
100
AcDbLine
 10
179.4668322801078
 20
209.3893391754949
 30
0.0
 11
179.4668322801078
 21
212.8893391754949
 31
0.0
  0
LINE
  5
2065
330
1A
100
AcDbEntity
  8
SEIHIN
100
AcDbLine
 10
181.416526376461
 20
212.8893391754949
 30
0.0
 11
181.416526376461
 21
213.8893391754949
 31
0.0
  0
ARC
  5
2066
330
1A
100
AcDbEntity
  8
SEIHIN
 62
     3
100
AcDbCircle
 10
187.6552522955764
 20
206.3893391754949
 30
0.0
 40
3.000000000000034
100
AcDbArc
 50
270.0000074484507
 51
90.00000954929655
  0
LINE
  5
2067
330
1A
100
AcDbEntity
  8
SEIHIN
 62
     3
100
AcDbLine
 10
196.2628456955764
 20
213.8893391754949
 30
0.0
 11
196.2628456955764
 21
198.8893391554948
 31
0.0
  0
LINE
  5
2068
330
1A
100
AcDbEntity
  8
SEIHIN
 62
     3
100
AcDbLine
 10
189.6551654255764
 20
197.3909249354948
 30
0.0
 11
193.8054922155764
 21
197.3909249354948
 31
0.0
  0
LINE
  5
2069
330
1A
100
AcDbEntity
  8
SEIHIN
 62
     3
100
AcDbLine
 10
186.1204483955764
 20
197.3909249354948
 30
0.0
 11
187.4969954855764
 21
197.3909249354948
 31
0.0
  0
LINE
  5
206A
330
1A
100
AcDbEntity
  8
SEIHIN
 62
     3
100
AcDbLine
 10
195.9913309955765
 20
197.3893391554948
 30
0.0
 11
197.5961240255763
 21
197.3893391554948
 31
0.0
  0
ARC
  5
206B
330
1A
100
AcDbEntity
  8
SEIHIN
 62
     3
100
AcDbCircle
 10
196.5905127455764
 20
196.5662875654949
 30
0.0
 40
1.700000000443612
100
AcDbArc
 50
359.9999871927081
 51
81.00000002413239
  0
LINE
  5
206C
330
1A
100
AcDbEntity
  8
SEIHIN
 62
     3
100
AcDbLine
 10
196.8564513355764
 20
198.2453577454949
 30
0.0
 11
196.2124699255764
 21
198.8893391554948
 31
0.0
  0
LINE
  5
206D
330
1A
100
AcDbEntity
  8
SEIHIN
 62
     3
100
AcDbLine
 10
196.2628456955764
 20
198.8893391554948
 30
0.0
 11
196.2628456955764
 21
199.8893391554948
 31
0.0
  0
LINE
  5
206E
330
1A
100
AcDbEntity
  8
SEIHIN
 62
     3
100
AcDbLine
 10
189.6551654255764
 20
215.3877533754949
 30
0.0
 11
193.8054922155764
 21
215.3877533754949
 31
0.0
  0
LINE
  5
206F
330
1A
100
AcDbEntity
  8
SEIHIN
 62
     3
100
AcDbLine
 10
187.8379594355764
 20
216.8893391754949
 30
0.0
 11
187.8379594355764
 21
213.8893391754949
 31
0.0
  0
LINE
  5
2070
330
1A
100
AcDbEntity
  8
SEIHIN
 62
     3
100
AcDbLine
 10
189.2273611455765
 20
213.8893391754949
 30
0.0
 11
189.2273611455765
 21
216.8893391754949
 31
0.0
  0
LINE
  5
2071
330
1A
100
AcDbEntity
  8
SEIHIN
 62
     3
100
AcDbLine
 10
186.1204483955764
 20
215.3877533754949
 30
0.0
 11
187.4969954855764
 21
215.3877533754949
 31
0.0
  0
LINE
  5
2072
330
1A
100
AcDbEntity
  8
SEIHIN
 62
     3
100
AcDbLine
 10
187.8379594355764
 20
216.8893391754949
 30
0.0
 11
189.2273611455765
 21
216.8893391754949
 31
0.0
  0
LINE
  5
2073
330
1A
100
AcDbEntity
  8
SEIHIN
 62
     3
100
AcDbLine
 10
189.2273611455765
 20
216.8893391754949
 30
0.0
 11
187.8379594355764
 21
214.8181443754949
 31
0.0
  0
LINE
  5
2074
330
1A
100
AcDbEntity
  8
SEIHIN
 62
     3
100
AcDbLine
 10
196.8564513355764
 20
214.5333205754948
 30
0.0
 11
196.2124699255764
 21
213.8893391754949
 31
0.0
  0
LINE
  5
2075
330
1A
100
AcDbEntity
  8
SEIHIN
 62
     3
100
AcDbLine
 10
194.2205235455764
 20
216.8893391754949
 30
0.0
 11
194.2205235455764
 21
213.8893391754949
 31
0.0
  0
LINE
  5
2076
330
1A
100
AcDbEntity
  8
SEIHIN
 62
     3
100
AcDbLine
 10
195.6099252555765
 20
213.8893391754949
 30
0.0
 11
195.6099252555765
 21
216.8893391754949
 31
0.0
  0
LINE
  5
2077
330
1A
100
AcDbEntity
  8
SEIHIN
 62
     3
100
AcDbLine
 10
196.2628456955764
 20
213.8893391754949
 30
0.0
 11
196.2628456955764
 21
212.8893391754949
 31
0.0
  0
LINE
  5
2078
330
1A
100
AcDbEntity
  8
SEIHIN
 62
     3
100
AcDbLine
 10
195.9913309955765
 20
215.3893391754949
 30
0.0
 11
197.5961240255763
 21
215.3893391754949
 31
0.0
  0
LINE
  5
2079
330
1A
100
AcDbEntity
  8
SEIHIN
 62
     3
100
AcDbLine
 10
194.2205235455764
 20
216.8893391754949
 30
0.0
 11
195.6099252555765
 21
216.8893391754949
 31
0.0
  0
LINE
  5
207A
330
1A
100
AcDbEntity
  8
SEIHIN
 62
     3
100
AcDbLine
 10
195.6099252555765
 20
216.8893391754949
 30
0.0
 11
194.2205235455764
 21
214.8181443754949
 31
0.0
  0
ARC
  5
207B
330
1A
100
AcDbEntity
  8
SEIHIN
 62
     3
100
AcDbCircle
 10
196.5905127455764
 20
216.2123907754948
 30
0.0
 40
1.700000010320489
100
AcDbArc
 50
278.9999998704206
 51
0.0000101110185475
  0
LINE
  5
207C
330
1A
100
AcDbEntity
  8
CENTER L
100
AcDbLine
 10
183.1264917336339
 20
227.3893391554948
 30
0.0
 11
191.1710931743567
 21
227.3893391554948
 31
0.0
  0
LINE
  5
207D
330
1A
100
AcDbEntity
  8
CENTER L
100
AcDbLine
 10
185.9944533784415
 20
225.8643391754948
 30
0.0
 11
194.2449178651974
 21
225.8643391754948
 31
0.0
  0
ARC
  5
207E
330
1A
100
AcDbEntity
  8
SEIHIN
 62
     3
100
AcDbCircle
 10
182.8404407952043
 20
225.8643391754948
 30
0.0
 40
7.826647520660156
100
AcDbArc
 50
338.4486589066005
 51
21.5513410933995
  0
ARC
  5
207F
330
1A
100
AcDbEntity
  8
SEIHIN
 62
     3
100
AcDbCircle
 10
182.4074193839884
 20
227.3893391654949
 30
0.0
 40
5.185616510013183
100
AcDbArc
 50
336.1109838265991
 51
23.88901617340093
  0
ARC
  5
2080
330
1A
100
AcDbEntity
  8
SEIHIN
 62
     3
100
AcDbCircle
 10
191.3207956071644
 20
227.3893391654949
 30
0.0
 40
5.185616519156494
100
AcDbArc
 50
336.1109838713463
 51
23.88901612865367
  0
LINE
  5
2081
330
1A
100
AcDbEntity
  8
SEIHIN
 62
     3
100
AcDbLine
 10
197.5477313933829
 20
232.8893391754949
 30
0.0
 11
184.46322974777
 21
232.8893391754949
 31
0.0
  0
DIMENSION
  5
2082
330
1A
100
AcDbEntity
  8
SUNPOU
100
AcDbDimension
  2
*D7
 10
247.1269059925658
 20
95.30915620477818
 30
0.0
 11
239.7919401415201
 21
120.3780268607131
 31
0.0
 70
    33
 71
     5
 42
52.00000000000003
  3
STANDARD
100
AcDbAlignedDimension
 13
204.464596975544
 23
134.2499465996752
 33
0.0
 14
223.7769121325763
 24
85.96915866828931
 34
0.0
1001
ACAD
1000
DSTYLE
1002
{
1070
    41
1040
3.0
1070
    42
1040
3.0
1070
    43
1040
7.0
1070
    44
1040
1.5
1070
    73
1070
     0
1070
    74
1070
     0
1070
    77
1070
     3
1070
   140
1040
3.0
1070
   141
1040
3.0
1070
   147
1040
1.0
1070
   172
1070
     1
1070
   173
1070
     1
1070
   176
1070
   256
1070
   177
1070
   256
1070
   178
1070
   256
1070
   271
1070
     0
1070
   272
1070
     0
1070
   341
1005
B2
1070
     6
1000
OPEN
1070
     7
1000
OPEN
1002
}
  0
LINE
  5
2083
330
1A
100
AcDbEntity
  8
SEIHIN
100
AcDbLine
 10
206.0954109511199
 20
128.8266204192291
 30
0.0
 11
209.9426094325763
 21
119.2086242024493
 31
0.0
  0
LINE
  5
2084
330
1A
100
AcDbEntity
  8
CENTER L
100
AcDbLine
 10
322.364804140322
 20
124.7580954234848
 30
0.0
 11
317.8338378082536
 21
136.0855109591646
 31
0.0
  0
DIMENSION
  5
2085
330
1A
100
AcDbEntity
  8
SUNPOU
100
AcDbDimension
  2
*D8
 10
300.2299670773897
 20
116.5503801168487
 30
0.0
 11
301.5298344134152
 21
120.0321677193216
 31
0.0
 70
    32
 71
     5
 42
5.500000000000085
  3
STANDARD
100
AcDbAlignedDimension
 13
314.4356132064479
 23
128.1563200252906
 33
0.0
 14
318.8923013335701
 24
124.0153140133957
 34
0.0
 50
111.8014100000026
100
AcDbRotatedDimension
1001
ACAD
1000
DSTYLE
1002
{
1070
    41
1040
3.0
1070
    42
1040
3.0
1070
    43
1040
7.0
1070
    44
1040
1.5
1070
    73
1070
     0
1070
    74
1070
     0
1070
    77
1070
     3
1070
   140
1040
3.0
1070
   141
1040
3.0
1070
   147
1040
1.0
1070
   172
1070
     1
1070
   173
1070
     1
1070
   176
1070
   256
1070
   177
1070
   256
1070
   178
1070
   256
1070
   271
1070
     0
1070
   272
1070
     0
1070
   341
1005
B2
1070
     6
1000
OPEN
1070
     7
1000
OPEN
1002
}
  0
LINE
  5
2086
330
1A
100
AcDbEntity
  8
SEIHIN
100
AcDbLine
 10
364.3876590238043
 20
142.2134575626059
 30
0.0
 11
318.8923013335701
 21
124.0153140133957
 31
0.0
  0
LINE
  5
2087
330
1A
100
AcDbEntity
  8
SEIHIN
100
AcDbLine
 10
304.4080646794147
 20
154.8407400209372
 30
0.0
 11
316.2925665891031
 21
125.1294860191517
 31
0.0
  0
LINE
  5
2088
330
1A
100
AcDbEntity
  8
CENTER L
100
AcDbLine
 10
319.7279297826993
 20
187.8945103537928
 30
0.0
 11
344.2397149714315
 21
126.6150489751102
 31
0.0
  0
DIMENSION
  5
2089
330
1A
100
AcDbEntity
  8
SUNPOU
100
AcDbDimension
  2
*D9
 10
291.0627403714335
 20
112.8834893391336
 30
0.0
 11
286.6988997661225
 21
130.5245464268321
 31
0.0
 70
    32
 71
     5
 42
35.99999999999994
  3
STANDARD
100
AcDbAlignedDimension
 13
305.5222366851708
 23
157.4404747654044
 33
0.0
 14
318.8923013335701
 24
124.0153140133957
 34
0.0
 50
111.8014100000026
100
AcDbRotatedDimension
1001
ACAD
1000
DSTYLE
1002
{
1070
    41
1040
3.0
1070
    42
1040
3.0
1070
    43
1040
7.0
1070
    44
1040
1.5
1070
    73
1070
     0
1070
    74
1070
     0
1070
    77
1070
     3
1070
   140
1040
3.0
1070
   141
1040
3.0
1070
   147
1040
1.0
1070
   172
1070
     1
1070
   173
1070
     1
1070
   176
1070
   256
1070
   177
1070
   256
1070
   178
1070
   256
1070
   271
1070
     0
1070
   272
1070
     0
1070
   341
1005
B2
1070
     6
1000
OPEN
1070
     7
1000
OPEN
1002
}
  0
LINE
  5
208A
330
1A
100
AcDbEntity
  8
SEIHIN
  6
DASHED
 62
     2
100
AcDbLine
 10
221.0954109842558
 20
128.8266204145563
 30
0.0
 11
224.9426094625763
 21
119.2086241982893
 31
0.0
  0
ARC
  5
208B
330
1A
100
AcDbEntity
  8
SEIHIN
  6
DASHED
 62
     2
100
AcDbCircle
 10
214.3579751925762
 20
121.4369682582893
 30
0.0
 40
10.00000000188135
100
AcDbArc
 50
47.64334225537127
 51
170.7918456273464
  0
LINE
  5
208C
330
1A
100
AcDbEntity
  8
SUNPOU
100
AcDbLine
 10
223.7769121325763
 20
85.96915866828931
 30
0.0
 11
235.2047256596584
 21
57.39962485058415
 31
0.0
  0
LINE
  5
208D
330
1A
100
AcDbEntity
  8
SUNPOU
100
AcDbLine
 10
235.2047256596584
 20
57.39962485058415
 30
0.0
 11
231.2047256596584
 21
57.39962485058415
 31
0.0
  0
TEXT
  5
208E
330
1A
100
AcDbEntity
  8
SUNPOU
100
AcDbText
 10
231.9608498712493
 20
52.31622807018654
 30
0.0
 40
3.0
  1
4
100
AcDbText
  0
LINE
  5
208F
330
1A
100
AcDbEntity
  8
SUNPOU
100
AcDbLine
 10
231.2047256596584
 20
57.39962485058415
 30
0.0
 11
231.2047256596584
 21
67.39962485058415
 31
0.0
  0
TEXT
  5
2090
330
1A
100
AcDbEntity
  8
SUNPOU
100
AcDbText
 10
225.485706273462
 20
61.55876717530022
 30
0.0
 40
3.0
  1
10
100
AcDbText
  0
LINE
  5
2091
330
1A
100
AcDbEntity
  8
CENTER L
100
AcDbLine
 10
222.992808415853
 20
103.3502423220712
 30
0.0
 11
237.1056541191216
 21
108.9953805988412
 31
0.0
  0
LINE
  5
2092
330
1A
100
AcDbEntity
  8
CENTER L
100
AcDbLine
 10
220.0216830046371
 20
110.7780558489999
 30
0.0
 11
234.1345287079056
 21
116.42319412577
 31
0.0
  0
LINE
  5
2093
330
1A
100
AcDbEntity
  8
SEIHIN
  6
DASHED
 62
     2
100
AcDbLine
 10
238.7769121325763
 20
85.96915866828931
 30
0.0
 11
232.5561183325763
 21
83.48084113828929
 31
0.0
  0
LINE
  5
2094
330
1A
100
AcDbEntity
  8
SEIHIN
  6
DASHED
 62
     2
100
AcDbLine
 10
224.2926757825763
 20
118.9486507282893
 30
0.0
 11
237.6627401325762
 21
85.52348985828928
 31
0.0
  0
LINE
  5
2095
330
1A
100
AcDbEntity
  8
SEIHIN
  6
DASHED
 62
     2
100
AcDbLine
 10
225.4068478125763
 20
119.3943195382893
 30
0.0
 11
238.7769121325763
 21
85.96915866828931
 31
0.0
  0
LINE
  5
2096
330
1A
100
AcDbEntity
  8
CENTER L
100
AcDbLine
 10
243.0479049410816
 20
94.13975354616332
 30
0.0
 11
228.9350592378131
 21
88.49461526939319
 31
0.0
  0
LINE
  5
2097
330
1A
100
AcDbEntity
  8
SEIHIN
100
AcDbLine
 10
217.5561183025764
 20
83.48084113828929
 30
0.0
 11
204.1860539525763
 21
116.9060020092893
 31
0.0
  0
LINE
  5
2098
330
1A
100
AcDbEntity
  8
SEIHIN
100
AcDbLine
 10
209.2926757525763
 20
118.9486507289893
 30
0.0
 11
222.6627401025763
 21
85.52348985828928
 31
0.0
  0
LINE
  5
2099
330
1A
100
AcDbEntity
  8
SEIHIN
100
AcDbLine
 10
210.4068477825764
 20
119.3943195405893
 30
0.0
 11
223.7769121325763
 21
85.96915866828931
 31
0.0
  0
LINE
  5
209A
330
1A
100
AcDbEntity
  8
SEIHIN
  6
DASHED
 62
     2
100
AcDbLine
 10
232.5561183325763
 20
83.48084113828929
 30
0.0
 11
219.1860539825763
 21
116.9060020082893
 31
0.0
  0
LINE
  5
209B
330
1A
100
AcDbEntity
  8
CENTER L
100
AcDbLine
 10
207.9928083858531
 20
103.3502423220712
 30
0.0
 11
222.1056540891217
 21
108.9953805988412
 31
0.0
  0
LINE
  5
209C
330
1A
100
AcDbEntity
  8
CENTER L
100
AcDbLine
 10
228.0479049110817
 20
94.13975354616332
 30
0.0
 11
213.9350592078132
 21
88.49461526939319
 31
0.0
  0
LINE
  5
209D
330
1A
100
AcDbEntity
  8
SEIHIN
100
AcDbLine
 10
216.9061850920853
 20
91.83713017853722
 30
0.0
 11
219.6916151646792
 21
92.95130220775393
 31
0.0
  0
LINE
  5
209E
330
1A
100
AcDbEntity
  8
SEIHIN
100
AcDbLine
 10
218.5774431259777
 20
95.73673230534124
 30
0.0
 11
216.9061850920853
 21
91.83713017853722
 31
0.0
  0
LINE
  5
209F
330
1A
100
AcDbEntity
  8
SEIHIN
100
AcDbLine
 10
223.7769121325763
 20
85.96915866828931
 30
0.0
 11
217.5561183025764
 21
83.48084113828929
 31
0.0
  0
LINE
  5
20A0
330
1A
100
AcDbEntity
  8
SEIHIN
100
AcDbLine
 10
216.9061850920853
 20
91.83713017853722
 30
0.0
 11
220.8057871835276
 21
90.16587215979979
 31
0.0
  0
ARC
  5
20A1
330
1A
100
AcDbEntity
  8
SEIHIN
  6
DASHED
 62
     2
100
AcDbCircle
 10
214.3579751925762
 20
121.4369682582893
 30
0.0
 40
4.000000003295027
100
AcDbArc
 50
21.80141959393112
 51
170.7918455562607
  0
LINE
  5
20A2
330
1A
100
AcDbEntity
  8
CENTER L
100
AcDbLine
 10
205.0216829746372
 20
110.7780558489999
 30
0.0
 11
219.1345286779057
 21
116.42319412577
 31
0.0
  0
LINE
  5
20A3
330
1A
100
AcDbEntity
  8
SEIHIN
100
AcDbLine
 10
209.478371566919
 20
110.4066639970087
 30
0.0
 11
213.3779736583613
 21
108.7354059782713
 31
0.0
  0
LINE
  5
20A4
330
1A
100
AcDbEntity
  8
SEIHIN
100
AcDbLine
 10
209.478371566919
 20
110.4066639970087
 30
0.0
 11
212.2638016395129
 21
111.5208360262254
 31
0.0
  0
LINE
  5
20A5
330
1A
100
AcDbEntity
  8
SEIHIN
100
AcDbLine
 10
211.1496296008114
 20
114.3062661238127
 30
0.0
 11
209.478371566919
 21
110.4066639970087
 31
0.0
  0
LINE
  5
20A6
330
1A
100
AcDbEntity
  8
SEIHIN
100
AcDbLine
 10
204.1860539525763
 20
116.9060020092893
 30
0.0
 11
210.4068477825764
 21
119.3943195405893
 31
0.0
  0
LINE
  5
20A7
330
1A
100
AcDbEntity
  8
SEIHIN
100
AcDbLine
 10
203.0718816625764
 20
122.9225316222893
 30
0.0
 11
205.3002259825763
 21
117.3516708202893
 31
0.0
  0
LINE
  5
20A8
330
1A
100
AcDbEntity
  8
SEIHIN
  6
DASHED
 62
     2
100
AcDbLine
 10
219.1860539825763
 20
116.9060020082893
 30
0.0
 11
225.4068478125763
 21
119.3943195382893
 31
0.0
  0
LINE
  5
20A9
330
1A
100
AcDbEntity
  8
SEIHIN
  6
DASHED
 62
     2
100
AcDbLine
 10
218.0718816925763
 20
122.9225316182893
 30
0.0
 11
220.3002260125762
 21
117.3516708182893
 31
0.0
  0
ARC
  5
20AA
330
1A
100
AcDbEntity
  8
SEIHIN
100
AcDbCircle
 10
318.1495199642146
 20
125.8722673885073
 30
0.0
 40
2.0
100
AcDbArc
 50
201.8014099999993
 51
291.801409999999
  0
LINE
  5
20AB
330
1A
100
AcDbEntity
  8
SEIHIN
100
AcDbLine
 10
331.3862921395771
 20
178.9429727934911
 30
0.0
 11
330.457815448589
 21
178.5715821173943
 31
0.0
  0
ARC
  5
20AC
330
1A
100
AcDbEntity
  8
SEIHIN
100
AcDbCircle
 10
334.9549478544876
 20
149.8269661640052
 30
0.0
 40
5.024896822470277
100
AcDbArc
 50
148.4586907698115
 51
75.14412923018909
  0
LINE
  5
20AD
330
1A
100
AcDbEntity
  8
SEIHIN
100
AcDbLine
 10
346.7788008083974
 20
140.4617021218795
 30
0.0
 11
329.2912397321121
 21
184.1806036759854
 31
0.0
  0
LINE
  5
20AE
330
1A
100
AcDbEntity
  8
SEIHIN
100
AcDbLine
 10
345.8503241208416
 20
140.0903114372018
 30
0.0
 11
328.3627630445564
 21
183.8092129913077
 31
0.0
  0
LINE
  5
20AF
330
1A
100
AcDbEntity
  8
SEIHIN
100
AcDbLine
 10
326.9753291813273
 20
177.853759357931
 30
0.0
 11
336.24327318008
 21
154.6838999634211
 31
0.0
  0
DIMENSION
  5
20B0
330
1A
100
AcDbEntity
  8
SUNPOU
100
AcDbDimension
  2
*D10
 10
333.5205412322609
 20
205.9183383191479
 30
0.0
 11
314.4867691132284
 21
200.9974116868213
 31
0.0
 70
    32
 71
     5
 42
39.00000000000006
  3
STANDARD
100
AcDbAlignedDimension
 13
312.7530994772841
 23
152.826229971196
 33
0.0
 14
348.9636902919602
 24
167.3104666736286
 34
0.0
 50
21.80140999999934
100
AcDbRotatedDimension
1001
ACAD
1000
DSTYLE
1002
{
1070
    41
1040
3.0
1070
    42
1040
3.0
1070
    43
1040
7.0
1070
    44
1040
1.5
1070
    73
1070
     0
1070
    74
1070
     0
1070
    77
1070
     3
1070
   140
1040
3.0
1070
   141
1040
3.0
1070
   147
1040
1.0
1070
   172
1070
     1
1070
   173
1070
     1
1070
   176
1070
   256
1070
   177
1070
   256
1070
   178
1070
   256
1070
   271
1070
     0
1070
   272
1070
     0
1070
   341
1005
B2
1070
     6
1000
OPEN
1070
     7
1000
OPEN
1002
}
  0
DIMENSION
  5
20B1
330
1A
100
AcDbEntity
  8
SUNPOU
100
AcDbDimension
  2
*D11
 10
331.7855775239599
 20
214.2946209919674
 30
0.0
 11
311.3590903735937
 21
208.8166083326242
 31
0.0
 70
    32
 71
     5
 42
41.99999999999989
  3
STANDARD
100
AcDbAlignedDimension
 13
308.5490706913097
 23
159.2974281480596
 33
0.0
 14
347.5450915686531
 24
174.8958369045255
 34
0.0
 50
21.80140999999934
100
AcDbRotatedDimension
1001
ACAD
1000
DSTYLE
1002
{
1070
    41
1040
3.0
1070
    42
1040
3.0
1070
    43
1040
7.0
1070
    44
1040
1.5
1070
    73
1070
     0
1070
    74
1070
     0
1070
    77
1070
     3
1070
   140
1040
3.0
1070
   141
1040
3.0
1070
   147
1040
1.0
1070
   172
1070
     1
1070
   173
1070
     1
1070
   176
1070
   256
1070
   177
1070
   256
1070
   178
1070
   256
1070
   271
1070
     0
1070
   272
1070
     0
1070
   341
1005
B2
1070
     6
1000
OPEN
1070
     7
1000
OPEN
1002
}
  0
DIMENSION
  5
20B2
330
1A
100
AcDbEntity
  8
SUNPOU
100
AcDbDimension
  2
*D12
 10
333.9432448998571
 20
223.7096555801767
 30
0.0
 11
308.4101359679339
 21
216.1889941551058
 31
0.0
 70
    32
 71
     5
 42
53.0
  3
STANDARD
100
AcDbAlignedDimension
 13
304.4080646794147
 23
154.8407400209372
 33
0.0
 14
353.6173291198719
 24
174.5244463088586
 34
0.0
 50
21.80140999999934
100
AcDbRotatedDimension
1001
ACAD
1000
DSTYLE
1002
{
1070
    41
1040
3.0
1070
    42
1040
3.0
1070
    43
1040
7.0
1070
    44
1040
1.5
1070
    73
1070
     0
1070
    74
1070
     0
1070
    77
1070
     3
1070
   140
1040
3.0
1070
   141
1040
3.0
1070
   147
1040
1.0
1070
   172
1070
     1
1070
   173
1070
     1
1070
   176
1070
   256
1070
   177
1070
   256
1070
   178
1070
   256
1070
   271
1070
     0
1070
   272
1070
     0
1070
   341
1005
B2
1070
     6
1000
OPEN
1070
     7
1000
OPEN
1002
}
  0
LINE
  5
20B3
330
1A
100
AcDbEntity
  8
SEIHIN
100
AcDbLine
 10
329.0329025819949
 20
135.072268892599
 30
0.0
 11
333.190842259169
 21
136.7354448067081
 31
0.0
  0
LINE
  5
20B4
330
1A
100
AcDbEntity
  8
SEIHIN
100
AcDbLine
 10
332.8516504950604
 20
134.8908418517131
 30
0.0
 11
315.3640894187753
 21
178.609743405819
 31
0.0
  0
LINE
  5
20B5
330
1A
100
AcDbEntity
  8
SEIHIN
100
AcDbLine
 10
333.7801271826162
 20
135.2622325363909
 30
0.0
 11
316.292566106331
 21
178.9811340904968
 31
0.0
  0
LINE
  5
20B6
330
1A
100
AcDbEntity
  8
SEIHIN
100
AcDbLine
 10
331.14819351758
 20
139.1494841846977
 30
0.0
 11
332.2623655716133
 21
136.3640541220303
 31
0.0
  0
TEXT
  5
20B7
330
1A
100
AcDbEntity
  8
SUNPOU
100
AcDbText
 10
210.9012002543993
 20
155.8850524014753
 30
0.0
 40
3.0
  1
（スライド幅）
100
AcDbText
  0
DIMENSION
  5
20B8
330
1A
100
AcDbEntity
  8
SUNPOU
100
AcDbDimension
  2
*D13
 10
221.5596493341956
 20
150.0071636849291
 30
0.0
 11
214.0596493149635
 21
152.5071636849291
 31
0.0
 70
    32
 71
     5
 42
15.00000003846407
  3
STANDARD
100
AcDbAlignedDimension
 13
206.5596492957315
 23
129.0123157569246
 33
0.0
 14
221.5596493341956
 24
129.0123157543834
 34
0.0
100
AcDbRotatedDimension
1001
ACAD
1000
DSTYLE
1002
{
1070
    41
1040
3.0
1070
    42
1040
3.0
1070
    43
1040
7.0
1070
    44
1040
1.5
1070
    73
1070
     0
1070
    74
1070
     0
1070
    77
1070
     3
1070
   140
1040
3.0
1070
   141
1040
3.0
1070
   147
1040
1.0
1070
   172
1070
     1
1070
   173
1070
     1
1070
   176
1070
   256
1070
   177
1070
   256
1070
   178
1070
   256
1070
   271
1070
     0
1070
   272
1070
     0
1070
   341
1005
B2
1070
     6
1000
OPEN
1070
     7
1000
OPEN
1002
}
  0
LINE
  5
20B9
330
1A
100
AcDbEntity
  8
SEIHIN
100
AcDbLine
 10
321.4044690708482
 20
175.6254152127254
 30
0.0
 11
330.6724130547452
 21
152.4555558553545
 31
0.0
  0
LWPOLYLINE
  5
20BA
330
1A
100
AcDbEntity
  8
SUNPOU
100
AcDbPolyline
 90
        3
 70
     0
 43
0.0
 10
306.5946952459728
 20
156.1538598061266
 10
285.1795191712114
 20
174.6031985014517
 10
267.5977325343027
 20
174.6031985014517
1001
ACAD
1000
DSTYLE
1002
{
1070
    41
1040
3.0
1070
    42
1040
3.0
1070
    43
1040
7.0
1070
    44
1040
1.5
1070
    73
1070
     0
1070
    74
1070
     0
1070
    77
1070
     0
1070
   140
1040
3.0
1070
   141
1040
3.0
1070
   147
1040
1.0
1070
   172
1070
     1
1070
   173
1070
     1
1070
   176
1070
   256
1070
   177
1070
   256
1070
   178
1070
   256
1070
   271
1070
     0
1070
   272
1070
     0
1070
   341
1005
B2
1070
   343
1005
B2
1070
   344
1005
B2
1002
}
  0
DIMENSION
  5
20BB
330
1A
100
AcDbEntity
  8
SUNPOU
100
AcDbDimension
  2
*D14
 10
288.902551194718
 20
144.8689190873005
 30
0.0
 11
290.2024185307436
 21
148.3507066897734
 31
0.0
 70
    32
 71
     5
 42
5.499999999999929
  3
STANDARD
100
AcDbAlignedDimension
 13
305.5222366851708
 23
157.4404747654044
 33
0.0
 14
305.1508460895039
 24
151.3682372141855
 34
0.0
 50
111.8014100000026
100
AcDbRotatedDimension
1001
ACAD
1000
DSTYLE
1002
{
1070
    41
1040
3.0
1070
    42
1040
3.0
1070
    43
1040
7.0
1070
    44
1040
1.5
1070
    73
1070
     0
1070
    74
1070
     0
1070
    77
1070
     3
1070
   140
1040
3.0
1070
   141
1040
3.0
1070
   147
1040
1.0
1070
   172
1070
     1
1070
   173
1070
     1
1070
   176
1070
   256
1070
   177
1070
   256
1070
   178
1070
   256
1070
   271
1070
     0
1070
   272
1070
     0
1070
   341
1005
B2
1070
     6
1000
OPEN
1070
     7
1000
OPEN
1002
}
  0
LINE
  5
20BC
330
1A
100
AcDbEntity
  8
CENTER L
100
AcDbLine
 10
318.0566721621858
 20
139.5672986036486
 30
0.0
 11
312.6715072546912
 21
153.0302105223755
 31
0.0
  0
LINE
  5
20BD
330
1A
100
AcDbEntity
  8
CENTER L
100
AcDbLine
 10
313.0800370233779
 20
147.9700126123797
 30
0.0
 11
308.5490706913097
 21
159.2974281480596
 31
0.0
  0
LINE
  5
20BE
330
1A
100
AcDbEntity
  8
SEIHIN
100
AcDbLine
 10
324.8345518780581
 20
154.9335878731462
 30
0.0
 11
331.14819351758
 21
139.1494841846977
 31
0.0
  0
LINE
  5
20BF
330
1A
100
AcDbEntity
  8
SEIHIN
100
AcDbLine
 10
324.025742465464
 20
154.6100640996976
 30
0.0
 11
330.3393841049859
 21
138.825960411249
 31
0.0
  0
CIRCLE
  5
20C0
330
1A
100
AcDbEntity
  8
SEIHIN
100
AcDbCircle
 10
315.3640897084384
 20
146.298754563012
 30
0.0
 40
3.249999972626076
  0
LINE
  5
20C1
330
1A
100
AcDbEntity
  8
CENTER L
100
AcDbLine
 10
322.095545667802
 20
148.9913370167594
 30
0.0
 11
308.632633749075
 21
143.6061721092647
 31
0.0
  0
LINE
  5
20C2
330
1A
100
AcDbEntity
  8
CENTER L
100
AcDbLine
 10
325.7630287421277
 20
132.6872863573589
 30
0.0
 11
314.4356132064479
 21
128.1563200252906
 31
0.0
  0
LINE
  5
20C3
330
1A
100
AcDbEntity
  8
SEIHIN
100
AcDbLine
 10
327.9187305279617
 20
137.8576989552664
 30
0.0
 11
331.14819351758
 21
139.1494841846977
 31
0.0
  0
CIRCLE
  5
20C4
330
1A
100
AcDbEntity
  8
SEIHIN
100
AcDbCircle
 10
320.0993209742878
 20
130.4218031913247
 30
0.0
 40
2.099999986565482
  0
LINE
  5
20C5
330
1A
100
AcDbEntity
  8
SEIHIN
100
AcDbLine
 10
327.9187305279617
 20
137.8576989552664
 30
0.0
 11
329.0329025819949
 21
135.072268892599
 31
0.0
  0
LINE
  5
20C6
330
1A
100
AcDbEntity
  8
CENTER L
100
AcDbLine
 10
316.4782616251838
 20
155.8992035462538
 30
0.0
 11
305.1508460895039
 21
151.3682372141855
 31
0.0
  0
LINE
  5
20C7
330
1A
100
AcDbEntity
  8
SEIHIN
100
AcDbLine
 10
321.3063403736194
 20
163.7541164049263
 30
0.0
 11
305.5222366851708
 21
157.4404747654044
 31
0.0
  0
INSERT
  5
20C8
330
1A
100
AcDbEntity
  8
SUNPOU
100
AcDbBlockReference
  2
_OPEN
 10
308.867555911134
 20
154.1957728834484
 30
0.0
 41
2.999999999999993
 42
3.0
 43
3.0
 50
319.2548486777224
1001
ACAD
1000
DSTYLE
1002
{
1070
    41
1040
3.0
1070
    42
1040
3.0
1070
    43
1040
7.0
1070
    44
1040
1.5
1070
    73
1070
     0
1070
    74
1070
     0
1070
    77
1070
     0
1070
   140
1040
3.0
1070
   141
1040
3.0
1070
   147
1040
1.0
1070
   172
1070
     1
1070
   173
1070
     1
1070
   176
1070
   256
1070
   177
1070
   256
1070
   178
1070
   256
1070
   271
1070
     0
1070
   272
1070
     0
1070
   341
1005
B2
1070
   343
1005
B2
1070
   344
1005
B2
1002
}
  0
ARC
  5
20C9
330
1A
100
AcDbEntity
  8
SEIHIN
100
AcDbCircle
 10
306.2650180545263
 20
155.5835213902928
 30
0.0
 40
2.0
100
AcDbArc
 50
111.801409999999
 51
201.8014099999993
  0
CIRCLE
  5
20CA
330
1A
100
AcDbEntity
  8
SEIHIN
100
AcDbCircle
 10
310.8145538573439
 20
153.6337203802196
 30
0.0
 40
2.099999971727393
  0
LINE
  5
20CB
330
1A
100
AcDbEntity
  8
SEIHIN
100
AcDbLine
 10
321.3063403736194
 20
163.7541164049263
 30
0.0
 11
323.7203798240248
 21
157.7190179358136
 31
0.0
  0
LINE
  5
20CC
330
1A
100
AcDbEntity
  8
SEIHIN
100
AcDbLine
 10
320.4975309610253
 20
163.4305926314776
 30
0.0
 11
322.9115704114307
 21
157.395494162365
 31
0.0
  0
LINE
  5
20CD
330
1A
100
AcDbEntity
  8
SEIHIN
100
AcDbLine
 10
323.7203798240248
 20
157.7190179358136
 30
0.0
 11
320.4909168344065
 21
156.4272327063823
 31
0.0
  0
LINE
  5
20CE
330
1A
100
AcDbEntity
  8
SEIHIN
100
AcDbLine
 10
324.8345518780581
 20
154.9335878731462
 30
0.0
 11
321.6050888884398
 21
153.6418026437149
 31
0.0
  0
LINE
  5
20CF
330
1A
100
AcDbEntity
  8
SEIHIN
100
AcDbLine
 10
320.4909168344065
 20
156.4272327063823
 30
0.0
 11
321.6050888884398
 21
153.6418026437149
 31
0.0
  0
LINE
  5
20D0
330
1A
100
AcDbEntity
  8
SEIHIN
100
AcDbLine
 10
323.7203798240248
 20
157.7190179358136
 30
0.0
 11
324.8345518780581
 21
154.9335878731462
 31
0.0
  0
TEXT
  5
20D1
330
1A
100
AcDbEntity
  8
SUNPOU
100
AcDbText
 10
268.5795191712116
 20
175.3122493080657
 30
0.0
 40
3.0
  1
4-φ4.2
100
AcDbText
  0
ARC
  5
20D2
330
1A
100
AcDbEntity
  8
SEIHIN
100
AcDbCircle
 10
324.1898992523607
 20
176.7395869696461
 30
0.0
 40
3.00000000000002
100
AcDbArc
 50
21.80141687549248
 51
201.8014038884509
  0
LINE
  5
20D3
330
1A
100
AcDbEntity
  8
SEIHIN
100
AcDbLine
 10
318.154800783248
 20
174.3255475192407
 30
0.0
 11
321.4044691896933
 21
175.6254149156129
 31
0.0
  0
LINE
  5
20D4
330
1A
100
AcDbEntity
  8
SEIHIN
100
AcDbLine
 10
318.3876184657426
 20
173.7435033281362
 30
0.0
 11
317.4591417747544
 21
173.3721126520395
 31
0.0
  0
LINE
  5
20D5
330
1A
100
AcDbEntity
  8
SEIHIN
100
AcDbLine
 10
315.3640894187753
 20
178.609743405819
 30
0.0
 11
316.292566106331
 21
178.9811340904968
 31
0.0
  0
LINE
  5
20D6
330
1A
100
AcDbEntity
  8
SEIHIN
100
AcDbLine
 10
326.975329315028
 20
177.8537590236794
 30
0.0
 11
330.2249977214734
 21
179.1536264200516
 31
0.0
  0
LINE
  5
20D7
330
1A
100
AcDbEntity
  8
SEIHIN
100
AcDbLine
 10
328.3627630445564
 20
183.8092129913077
 30
0.0
 11
329.2912397321121
 21
184.1806036759854
 31
0.0
  0
LINE
  5
20D8
330
1A
100
AcDbEntity
  8
CENTER L
100
AcDbLine
 10
352.0760579007214
 20
163.5684213688456
 30
0.0
 11
347.5450915686531
 21
174.8958369045255
 31
0.0
  0
LINE
  5
20D9
330
1A
100
AcDbEntity
  8
SEIHIN
100
AcDbLine
 10
335.2334906869563
 20
169.3249766750927
 30
0.0
 11
351.0175943754049
 21
175.6386183146146
 31
0.0
  0
LINE
  5
20DA
330
1A
100
AcDbEntity
  8
SEIHIN
100
AcDbLine
 10
353.6173291198719
 20
174.5244463088586
 30
0.0
 11
365.5018310295603
 21
144.8131923070731
 31
0.0
  0
DIMENSION
  5
20DB
330
1A
100
AcDbEntity
  8
SUNPOU
100
AcDbDimension
  2
*D15
 10
372.9992860127767
 20
169.3528336841098
 30
0.0
 11
372.7207429389215
 21
176.7806472086947
 31
0.0
 70
    32
 71
     5
 42
14.00000000000006
  3
STANDARD
100
AcDbAlignedDimension
 13
351.0175943754049
 23
175.6386183146146
 33
0.0
 14
358.0740173360051
 24
163.382726058189
 34
0.0
 50
111.8014100000026
100
AcDbRotatedDimension
1001
ACAD
1000
DSTYLE
1002
{
1070
    41
1040
3.0
1070
    42
1040
3.0
1070
    43
1040
7.0
1070
    44
1040
1.5
1070
    73
1070
     0
1070
    74
1070
     0
1070
    77
1070
     3
1070
   140
1040
3.0
1070
   141
1040
3.0
1070
   147
1040
1.0
1070
   172
1070
     1
1070
   173
1070
     1
1070
   176
1070
   256
1070
   177
1070
   256
1070
   178
1070
   256
1070
   271
1070
     0
1070
   272
1070
     0
1070
   341
1005
B2
1070
     6
1000
OPEN
1070
     7
1000
OPEN
1002
}
  0
LWPOLYLINE
  5
20DC
330
1A
100
AcDbEntity
  8
SUNPOU
100
AcDbPolyline
 90
        3
 70
     0
 43
0.0
 10
354.363051283982
 20
166.3357998861092
 10
365.4735865475694
 20
199.9439315727168
 10
381.3230363880738
 20
199.9439315727168
1001
ACAD
1000
DSTYLE
1002
{
1070
    41
1040
3.0
1070
    42
1040
3.0
1070
    43
1040
7.0
1070
    44
1040
1.5
1070
    73
1070
     0
1070
    74
1070
     0
1070
    77
1070
     0
1070
   140
1040
3.0
1070
   141
1040
3.0
1070
   147
1040
1.0
1070
   172
1070
     1
1070
   173
1070
     1
1070
   176
1070
   256
1070
   177
1070
   256
1070
   178
1070
   256
1070
   271
1070
     0
1070
   272
1070
     0
1070
   341
1005
B2
1070
   343
1005
B2
1070
   344
1005
B2
1002
}
  0
LINE
  5
20DD
330
1A
100
AcDbEntity
  8
CENTER L
100
AcDbLine
 10
364.7590496194712
 20
148.2856951138248
 30
0.0
 11
353.4316340837914
 21
143.7547287817565
 31
0.0
  0
CIRCLE
  5
20DE
330
1A
100
AcDbEntity
  8
SEIHIN
100
AcDbCircle
 10
334.9549478544876
 20
149.8269661640052
 30
0.0
 40
2.999999969510066
  0
LINE
  5
20DF
330
1A
100
AcDbEntity
  8
SEIHIN
100
AcDbLine
 10
338.7617021913951
 20
160.5044481433126
 30
0.0
 11
345.075343830917
 21
144.7203444548641
 31
0.0
  0
LINE
  5
20E0
330
1A
100
AcDbEntity
  8
SEIHIN
100
AcDbLine
 10
339.5705116039893
 20
160.8279719167613
 30
0.0
 11
345.8841532435112
 21
145.0438682283128
 31
0.0
  0
LINE
  5
20E1
330
1A
100
AcDbEntity
  8
CENTER L
100
AcDbLine
 10
361.3608250176654
 20
140.3565041799507
 30
0.0
 11
356.8298586855971
 21
151.6839197156305
 31
0.0
  0
LINE
  5
20E2
330
1A
100
AcDbEntity
  8
SEIHIN
100
AcDbLine
 10
348.3048068205354
 20
146.0121296842954
 30
0.0
 11
345.075343830917
 21
144.7203444548641
 31
0.0
  0
LINE
  5
20E3
330
1A
100
AcDbEntity
  8
SEIHIN
100
AcDbLine
 10
349.4189788745686
 20
143.226699621628
 30
0.0
 11
345.2610391973944
 21
141.5635237075189
 31
0.0
  0
LINE
  5
20E4
330
1A
100
AcDbEntity
  8
SEIHIN
100
AcDbLine
 10
346.9983252975444
 20
142.2584381656453
 30
0.0
 11
349.4123647479499
 21
136.2233396965327
 31
0.0
  0
LINE
  5
20E5
330
1A
100
AcDbEntity
  8
SEIHIN
100
AcDbLine
 10
346.1895158849502
 20
141.9349143921967
 30
0.0
 11
348.6035553353557
 21
135.899815923084
 31
0.0
  0
ARC
  5
20E6
330
1A
100
AcDbEntity
  8
SEIHIN
100
AcDbCircle
 10
343.99337074573
 20
139.3475300678462
 30
0.0
 40
2.0
100
AcDbArc
 50
291.801409999999
 51
21.80140999999934
  0
LINE
  5
20E7
330
1A
100
AcDbEntity
  8
SEIHIN
100
AcDbLine
 10
344.7361521150855
 20
137.4905766927346
 30
0.0
 11
336.3798619270833
 21
134.1480605306348
 31
0.0
  0
LINE
  5
20E8
330
1A
100
AcDbEntity
  8
SEIHIN
100
AcDbLine
 10
332.2623655716133
 20
136.3640541220303
 30
0.0
 11
334.6764050220187
 21
130.3289556529176
 31
0.0
  0
LINE
  5
20E9
330
1A
100
AcDbEntity
  8
SEIHIN
100
AcDbLine
 10
331.4535561590191
 20
136.0405303485816
 30
0.0
 11
333.8675956094246
 21
130.005431879469
 31
0.0
  0
ARC
  5
20EA
330
1A
100
AcDbEntity
  8
SEIHIN
100
AcDbCircle
 10
335.6370805577278
 20
136.0050139057464
 30
0.0
 40
2.0
100
AcDbArc
 50
201.8014099999993
 51
291.801409999999
  0
LINE
  5
20EB
330
1A
100
AcDbEntity
  8
SEIHIN
100
AcDbLine
 10
345.075343830917
 20
144.7203444548641
 30
0.0
 11
346.1895158849502
 21
141.9349143921967
 31
0.0
  0
LINE
  5
20EC
330
1A
100
AcDbEntity
  8
SEIHIN
100
AcDbLine
 10
348.3048068205354
 20
146.0121296842954
 30
0.0
 11
349.4189788745686
 21
143.226699621628
 31
0.0
  0
CIRCLE
  5
20ED
330
1A
100
AcDbEntity
  8
SEIHIN
100
AcDbCircle
 10
359.0953418516313
 20
146.0202119477906
 30
0.0
 40
2.099999986565493
  0
CIRCLE
  5
20EE
330
1A
100
AcDbEntity
  8
SEIHIN
100
AcDbCircle
 10
349.8105747346873
 20
169.2321291366856
 30
0.0
 40
2.099999971727393
  0
LINE
  5
20EF
330
1A
100
AcDbEntity
  8
CENTER L
100
AcDbLine
 10
355.4742825025272
 20
171.4976123027197
 30
0.0
 11
344.1468669668474
 21
166.9666459706514
 31
0.0
  0
LINE
  5
20F0
330
1A
100
AcDbEntity
  8
CENTER L
100
AcDbLine
 10
358.306136482478
 20
163.475573719192
 30
0.0
 11
344.8432245637511
 21
158.0904088116973
 31
0.0
  0
LINE
  5
20F1
330
1A
100
AcDbEntity
  8
SEIHIN
100
AcDbLine
 10
337.6475301373617
 20
163.28987820598
 30
0.0
 11
338.7617021913951
 21
160.5044481433126
 31
0.0
  0
LINE
  5
20F2
330
1A
100
AcDbEntity
  8
SEIHIN
100
AcDbLine
 10
338.7617021913951
 20
160.5044481433126
 30
0.0
 11
341.9911651810135
 21
161.7962333727439
 31
0.0
  0
LINE
  5
20F3
330
1A
100
AcDbEntity
  8
SEIHIN
100
AcDbLine
 10
337.6475301373617
 20
163.28987820598
 30
0.0
 11
340.8769931269802
 21
164.5816634354113
 31
0.0
  0
LINE
  5
20F4
330
1A
100
AcDbEntity
  8
SEIHIN
100
AcDbLine
 10
335.2334906869563
 20
169.3249766750927
 30
0.0
 11
337.6475301373617
 21
163.28987820598
 31
0.0
  0
LINE
  5
20F5
330
1A
100
AcDbEntity
  8
SEIHIN
100
AcDbLine
 10
336.0423000995505
 20
169.6485004485414
 30
0.0
 11
338.4563395499559
 21
163.6134019794287
 31
0.0
  0
LINE
  5
20F6
330
1A
100
AcDbEntity
  8
SEIHIN
100
AcDbLine
 10
340.8769931269802
 20
164.5816634354113
 30
0.0
 11
341.9911651810135
 21
161.7962333727439
 31
0.0
  0
CIRCLE
  5
20F7
330
1A
100
AcDbEntity
  8
SEIHIN
100
AcDbCircle
 10
351.5746805231146
 20
160.7829912654447
 30
0.0
 40
3.249999972626096
  0
LINE
  5
20F8
330
1A
100
AcDbEntity
  8
CENTER L
100
AcDbLine
 10
354.2672629768618
 20
154.0515353060812
 30
0.0
 11
348.8820980693672
 21
167.5144472248081
 31
0.0
  0
INSERT
  5
20F9
330
1A
100
AcDbEntity
  8
SUNPOU
100
AcDbBlockReference
  2
_OPEN
 10
353.4214017878938
 20
163.4874150408825
 30
0.0
 41
2.999999999999982
 42
3.0
 43
3.0
 50
251.7065953267104
1001
ACAD
1000
DSTYLE
1002
{
1070
    41
1040
3.0
1070
    42
1040
3.0
1070
    43
1040
7.0
1070
    44
1040
1.5
1070
    73
1070
     0
1070
    74
1070
     0
1070
    77
1070
     0
1070
   140
1040
3.0
1070
   141
1040
3.0
1070
   147
1040
1.0
1070
   172
1070
     1
1070
   173
1070
     1
1070
   176
1070
   256
1070
   177
1070
   256
1070
   178
1070
   256
1070
   271
1070
     0
1070
   272
1070
     0
1070
   341
1005
B2
1070
   343
1005
B2
1070
   344
1005
B2
1002
}
  0
ARC
  5
20FA
330
1A
100
AcDbEntity
  8
SEIHIN
100
AcDbCircle
 10
363.6448776544488
 20
144.0704109377175
 30
0.0
 40
2.0
100
AcDbArc
 50
291.801409999999
 51
21.80140999999934
  0
ARC
  5
20FB
330
1A
100
AcDbEntity
  8
SEIHIN
100
AcDbCircle
 10
351.7603757447604
 20
173.781664939503
 30
0.0
 40
2.0
100
AcDbArc
 50
21.80140999999934
 51
111.801409999999
  0
TEXT
  5
20FC
330
1A
100
AcDbEntity
  8
SUNPOU
100
AcDbText
 10
365.8131917613954
 20
201.2482784853373
 30
0.0
 40
3.0
  1
2-φ6.5
100
AcDbText
  0
VIEWPORT
  5
22
330
17
100
AcDbEntity
 67
     1
  8
0
100
AcDbViewport
 10
313.6808219178083
 20
148.5
 30
0.0
 40
627.3616438356165
 41
297.0
 68
     2
 69
     1
 12
313.6808219178083
 22
148.5
 13
0.0
 23
0.0
 14
1.0
 24
1.0
 15
10.0
 25
10.0
 16
0.0
 26
0.0
 36
1.0
 17
0.0
 27
0.0
 37
0.0
 42
50.0
 43
0.0
 44
0.0
 45
297.0
 50
0.0
 51
0.0
 72
   100
 90
    32768
  1

281
     0
 71
     1
 74
     0
110
0.0
120
0.0
130
0.0
111
1.0
121
0.0
131
0.0
112
0.0
122
1.0
132
0.0
 79
     0
146
0.0
  0
VIEWPORT
  5
64
330
17
100
AcDbEntity
 67
     1
  8
VIEWPORT
100
AcDbViewport
 10
210.0
 20
148.5
 30
0.0
 40
420.0
 41
297.0
 68
     1
 69
     2
 12
210.0
 22
148.5
 13
0.0
 23
0.0
 14
5.0
 24
5.0
 15
0.0
 25
0.0
 16
0.0
 26
0.0
 36
1.0
 17
0.0
 27
0.0
 37
0.0
 42
50.0
 43
0.0
 44
0.0
 45
302.9399999999999
 50
0.0
 51
0.0
 72
   100
 90
    32768
  1

281
     0
 71
     1
 74
     0
110
0.0
120
0.0
130
0.0
111
1.0
121
0.0
131
0.0
112
0.0
122
1.0
132
0.0
 79
     0
146
0.0
  0
ENDSEC
  0
SECTION
  2
OBJECTS
  0
DICTIONARY
  5
C
330
0
100
AcDbDictionary
281
     1
  3
ACAD_GROUP
350
D
  3
ACAD_LAYOUT
350
624
  3
ACAD_MLINESTYLE
350
E
  3
ACAD_PLOTSETTINGS
350
625
  3
ACAD_PLOTSTYLENAME
350
622
  0
DICTIONARY
  5
D
102
{ACAD_REACTORS
330
C
102
}
330
C
100
AcDbDictionary
281
     1
  0
DICTIONARY
  5
624
102
{ACAD_REACTORS
330
C
102
}
330
C
100
AcDbDictionary
281
     1
  3
Model
350
626
  3
ﾚｲｱｳﾄ1
350
627
  0
DICTIONARY
  5
E
102
{ACAD_REACTORS
330
C
102
}
330
C
100
AcDbDictionary
281
     1
  3
STANDARD
350
13
  0
DICTIONARY
  5
625
102
{ACAD_REACTORS
330
C
102
}
330
C
100
AcDbDictionary
281
     1
  0
ACDBDICTIONARYWDFLT
  5
622
102
{ACAD_REACTORS
330
C
102
}
330
C
100
AcDbDictionary
281
     1
  3
Normal
350
623
100
AcDbDictionaryWithDefault
340
623
1001
ACAD
1000
TREAT_AS_HARD
1070
     0
1000
TREAT_AS_HARD
1070
     0
1000
TREAT_AS_HARD
1070
     0
1000
TREAT_AS_HARD
1070
     0
  0
LAYOUT
  5
626
102
{ACAD_REACTORS
330
624
102
}
330
624
100
AcDbPlotSettings
  1

  2
Acrobat PDFWriter
  4
A3
  6

 40
7.143749713897705
 41
7.14375638961792
 42
7.143768310546875
 43
7.14373779296875
 44
297.1270751953125
 45
420.1583251953125
 46
0.0
 47
0.0
 48
0.0
 49
0.0
140
0.0
141
0.0
142
1.0
143
1.0
 70
 11952
 72
     1
 73
     1
 74
     0
  7
print.ctb
 75
    16
147
1.0
148
52.88505331185908
149
1.640883977900558
100
AcDbLayout
  1
Model
 70
     1
 71
     0
 10
0.0
 20
0.0
 11
12.0
 21
9.0
 12
0.0
 22
0.0
 32
0.0
 14
0.0
 24
0.0
 34
0.0
 15
0.0
 25
0.0
 35
0.0
146
0.0
 13
0.0
 23
0.0
 33
0.0
 16
1.0
 26
0.0
 36
0.0
 17
0.0
 27
1.0
 37
0.0
 76
     0
330
1A
  0
LAYOUT
  5
627
102
{ACAD_REACTORS
330
624
102
}
330
624
100
AcDbPlotSettings
  1

  2
EPSON PM-2000C
  4

  6

 40
0.0
 41
0.0
 42
0.0
 43
0.0
 44
0.0
 45
0.0
 46
0.0
 47
0.0
 48
0.0
 49
0.0
140
0.0
141
0.0
142
1.0
143
1.0
 70
   688
 72
     0
 73
     0
 74
     5
  7
print.ctb
 75
    16
147
1.0
148
0.0
149
0.0
100
AcDbLayout
  1
ﾚｲｱｳﾄ1
 70
     1
 71
     1
 10
0.0
 20
0.0
 11
420.0
 21
297.0
 12
0.0
 22
0.0
 32
0.0
 14
0.0
 24
0.0
 34
0.0
 15
420.0
 25
297.0
 35
0.0
146
0.0
 13
0.0
 23
0.0
 33
0.0
 16
1.0
 26
0.0
 36
0.0
 17
0.0
 27
1.0
 37
0.0
 76
     0
330
17
331
64
  0
MLINESTYLE
  5
13
102
{ACAD_REACTORS
330
E
102
}
330
E
100
AcDbMlineStyle
  2
STANDARD
 70
     0
  3

 62
     0
 51
90.0
 52
90.0
 71
     2
 49
0.5
 62
   256
  6
BYLAYER
 49
-0.5
 62
   256
  6
BYLAYER
  0
ACDBPLACEHOLDER
  5
623
102
{ACAD_REACTORS
330
622
102
}
330
622
  0
ENDSEC
  0
EOF
