  0
SECTION
  2
HEADER
  9
$ACADVER
  1
AC1015
  9
$ACADMAINTVER
 70
     6
  9
$DWGCODEPAGE
  3
ANSI_932
  9
$INSBASE
 10
0.0
 20
0.0
 30
0.0
  9
$EXTMIN
 10
-0.0000004828989404
 20
-0.0000000386436341
 30
0.0
  9
$EXTMAX
 10
398.7999995171011
 20
275.7999999613564
 30
0.0
  9
$LIMMIN
 10
0.0
 20
0.0
  9
$LIMMAX
 10
420.0
 20
297.0
  9
$ORTHOMODE
 70
     1
  9
$REGENMODE
 70
     1
  9
$FILLMODE
 70
     1
  9
$QTEXTMODE
 70
     0
  9
$MIRRTEXT
 70
     1
  9
$LTSCALE
 40
1.0
  9
$ATTMODE
 70
     1
  9
$TEXTSIZE
 40
2.5
  9
$TRACEWID
 40
1.0
  9
$TEXTSTYLE
  7
STANDARD
  9
$CLAYER
  8
SUNPOU
  9
$CELTYPE
  6
BYLAYER
  9
$CECOLOR
 62
   256
  9
$CELTSCALE
 40
1.0
  9
$DISPSILH
 70
     0
  9
$DIMSCALE
 40
1.0
  9
$DIMASZ
 40
3.0
  9
$DIMEXO
 40
3.0
  9
$DIMDLI
 40
7.0
  9
$DIMRND
 40
0.0
  9
$DIMDLE
 40
0.0
  9
$DIMEXE
 40
1.5
  9
$DIMTP
 40
0.0
  9
$DIMTM
 40
0.0
  9
$DIMTXT
 40
3.0
  9
$DIMCEN
 40
150.0
  9
$DIMTSZ
 40
0.0
  9
$DIMTOL
 70
     0
  9
$DIMLIM
 70
     0
  9
$DIMTIH
 70
     0
  9
$DIMTOH
 70
     0
  9
$DIMSE1
 70
     0
  9
$DIMSE2
 70
     0
  9
$DIMTAD
 70
     3
  9
$DIMZIN
 70
     0
  9
$DIMBLK
  1

  9
$DIMASO
 70
     1
  9
$DIMSHO
 70
     1
  9
$DIMPOST
  1

  9
$DIMAPOST
  1

  9
$DIMALT
 70
     0
  9
$DIMALTD
 70
     2
  9
$DIMALTF
 40
25.4
  9
$DIMLFAC
 40
1.0
  9
$DIMTOFL
 70
     1
  9
$DIMTVP
 40
0.0
  9
$DIMTIX
 70
     0
  9
$DIMSOXD
 70
     0
  9
$DIMSAH
 70
     1
  9
$DIMBLK1
  1
OPEN
  9
$DIMBLK2
  1
OPEN
  9
$DIMSTYLE
  2
STANDARD
  9
$DIMCLRD
 70
   256
  9
$DIMCLRE
 70
   256
  9
$DIMCLRT
 70
   256
  9
$DIMTFAC
 40
1.0
  9
$DIMGAP
 40
1.0
  9
$DIMJUST
 70
     0
  9
$DIMSD1
 70
     0
  9
$DIMSD2
 70
     0
  9
$DIMTOLJ
 70
     1
  9
$DIMTZIN
 70
     0
  9
$DIMALTZ
 70
     0
  9
$DIMALTTZ
 70
     0
  9
$DIMUPT
 70
     1
  9
$DIMDEC
 70
     0
  9
$DIMTDEC
 70
     0
  9
$DIMALTU
 70
     2
  9
$DIMALTTD
 70
     2
  9
$DIMTXSTY
  7
STANDARD
  9
$DIMAUNIT
 70
     0
  9
$DIMADEC
 70
     0
  9
$DIMALTRND
 40
0.0
  9
$DIMAZIN
 70
     0
  9
$DIMDSEP
 70
    46
  9
$DIMATFIT
 70
     3
  9
$DIMFRAC
 70
     0
  9
$DIMLDRBLK
  1
OPEN
  9
$DIMLUNIT
 70
     2
  9
$DIMLWD
 70
    -1
  9
$DIMLWE
 70
    -1
  9
$DIMTMOVE
 70
     0
  9
$LUNITS
 70
     2
  9
$LUPREC
 70
     4
  9
$SKETCHINC
 40
1.0
  9
$FILLETRAD
 40
0.6
  9
$AUNITS
 70
     0
  9
$AUPREC
 70
     0
  9
$MENU
  1
.
  9
$ELEVATION
 40
0.0
  9
$PELEVATION
 40
0.0
  9
$THICKNESS
 40
0.0
  9
$LIMCHECK
 70
     0
  9
$CHAMFERA
 40
10.0
  9
$CHAMFERB
 40
10.0
  9
$CHAMFERC
 40
20.0
  9
$CHAMFERD
 40
0.0
  9
$SKPOLY
 70
     0
  9
$TDCREATE
 40
2451100.394552546
  9
$TDUCREATE
 40
2451100.019552546
  9
$TDUPDATE
 40
2455609.40326581
  9
$TDUUPDATE
 40
2455609.02826581
  9
$TDINDWG
 40
0.1058357176
  9
$TDUSRTIMER
 40
0.1058357176
  9
$USRTIMER
 70
     1
  9
$ANGBASE
 50
0.0
  9
$ANGDIR
 70
     0
  9
$PDMODE
 70
     0
  9
$PDSIZE
 40
0.0
  9
$PLINEWID
 40
0.0
  9
$SPLFRAME
 70
     0
  9
$SPLINETYPE
 70
     6
  9
$SPLINESEGS
 70
     8
  9
$HANDSEED
  5
2CDB
  9
$SURFTAB1
 70
     6
  9
$SURFTAB2
 70
     6
  9
$SURFTYPE
 70
     6
  9
$SURFU
 70
     6
  9
$SURFV
 70
     6
  9
$UCSBASE
  2

  9
$UCSNAME
  2

  9
$UCSORG
 10
0.0
 20
0.0
 30
0.0
  9
$UCSXDIR
 10
1.0
 20
0.0
 30
0.0
  9
$UCSYDIR
 10
0.0
 20
1.0
 30
0.0
  9
$UCSORTHOREF
  2

  9
$UCSORTHOVIEW
 70
     0
  9
$UCSORGTOP
 10
0.0
 20
0.0
 30
0.0
  9
$UCSORGBOTTOM
 10
0.0
 20
0.0
 30
0.0
  9
$UCSORGLEFT
 10
0.0
 20
0.0
 30
0.0
  9
$UCSORGRIGHT
 10
0.0
 20
0.0
 30
0.0
  9
$UCSORGFRONT
 10
0.0
 20
0.0
 30
0.0
  9
$UCSORGBACK
 10
0.0
 20
0.0
 30
0.0
  9
$PUCSBASE
  2

  9
$PUCSNAME
  2

  9
$PUCSORG
 10
0.0
 20
0.0
 30
0.0
  9
$PUCSXDIR
 10
1.0
 20
0.0
 30
0.0
  9
$PUCSYDIR
 10
0.0
 20
1.0
 30
0.0
  9
$PUCSORTHOREF
  2

  9
$PUCSORTHOVIEW
 70
     0
  9
$PUCSORGTOP
 10
0.0
 20
0.0
 30
0.0
  9
$PUCSORGBOTTOM
 10
0.0
 20
0.0
 30
0.0
  9
$PUCSORGLEFT
 10
0.0
 20
0.0
 30
0.0
  9
$PUCSORGRIGHT
 10
0.0
 20
0.0
 30
0.0
  9
$PUCSORGFRONT
 10
0.0
 20
0.0
 30
0.0
  9
$PUCSORGBACK
 10
0.0
 20
0.0
 30
0.0
  9
$USERI1
 70
     0
  9
$USERI2
 70
     0
  9
$USERI3
 70
     0
  9
$USERI4
 70
     0
  9
$USERI5
 70
     0
  9
$USERR1
 40
0.0
  9
$USERR2
 40
0.0
  9
$USERR3
 40
0.0
  9
$USERR4
 40
0.0
  9
$USERR5
 40
0.0
  9
$WORLDVIEW
 70
     1
  9
$SHADEDGE
 70
     3
  9
$SHADEDIF
 70
    70
  9
$TILEMODE
 70
     1
  9
$MAXACTVP
 70
    16
  9
$PINSBASE
 10
0.0
 20
0.0
 30
0.0
  9
$PLIMCHECK
 70
     0
  9
$PEXTMIN
 10
0.0
 20
0.0
 30
0.0
  9
$PEXTMAX
 10
420.0
 20
297.0
 30
0.0
  9
$PLIMMIN
 10
0.0
 20
0.0
  9
$PLIMMAX
 10
420.0
 20
297.0
  9
$UNITMODE
 70
     0
  9
$VISRETAIN
 70
     0
  9
$PLINEGEN
 70
     0
  9
$PSLTSCALE
 70
     1
  9
$TREEDEPTH
 70
  3020
  9
$CMLSTYLE
  2
STANDARD
  9
$CMLJUST
 70
     0
  9
$CMLSCALE
 40
1.0
  9
$PROXYGRAPHICS
 70
     1
  9
$MEASUREMENT
 70
     1
  9
$CELWEIGHT
370
    -1
  9
$ENDCAPS
280
     0
  9
$JOINSTYLE
280
     0
  9
$LWDISPLAY
290
     0
  9
$INSUNITS
 70
     0
  9
$HYPERLINKBASE
  1

  9
$STYLESHEET
  1
print.ctb
  9
$XEDIT
290
     1
  9
$CEPSNTYPE
380
     0
  9
$PSTYLEMODE
290
     1
  9
$FINGERPRINTGUID
  2
{137E7082-72B8-11D5-AA3E-50A453C10000}
  9
$VERSIONGUID
  2
{6500C826-7525-4F2B-9BB7-052FEFF57D14}
  9
$EXTNAMES
290
     1
  9
$PSVPSCALE
 40
0.0
  9
$OLESTARTUP
290
     0
  0
ENDSEC
  0
SECTION
  2
CLASSES
  0
CLASS
  1
ACDBDICTIONARYWDFLT
  2
AcDbDictionaryWithDefault
  3
ObjectDBX Classes
 90
        0
280
     0
281
     0
  0
CLASS
  1
ACDBPLACEHOLDER
  2
AcDbPlaceHolder
  3
ObjectDBX Classes
 90
        0
280
     0
281
     0
  0
CLASS
  1
LAYOUT
  2
AcDbLayout
  3
ObjectDBX Classes
 90
        0
280
     0
281
     0
  0
CLASS
  1
DUMMY
  2
AcDbLongTransaction
  3
DUMMY
 90
        0
280
     0
281
     0
  0
CLASS
  1
LWPOLYLINE
  2
AcDbPolyline
  3
AutoCAD 2000
 90
        0
280
     0
281
     1
  0
CLASS
  1
HATCH
  2
AcDbHatch
  3
AutoCAD 2000
 90
        0
280
     0
281
     1
  0
CLASS
  1
XRECORD
  2
AcDbXrecord
  3
AutoCAD 2000
 90
        0
280
     0
281
     0
  0
CLASS
  1
DUMMY
  2
AcDbLongTransaction
  3
DUMMY
 90
        0
280
     0
281
     0
  0
CLASS
  1
LWPOLYLINE
  2
AcDbPolyline
  3
AutoCAD 2000
 90
        0
280
     0
281
     1
  0
CLASS
  1
HATCH
  2
AcDbHatch
  3
AutoCAD 2000
 90
        0
280
     0
281
     1
  0
CLASS
  1
XRECORD
  2
AcDbXrecord
  3
AutoCAD 2000
 90
        0
280
     0
281
     0
  0
CLASS
  1
DUMMY
  2
AcDbLongTransaction
  3
DUMMY
 90
        0
280
     0
281
     0
  0
CLASS
  1
LWPOLYLINE
  2
AcDbPolyline
  3
AutoCAD 2000
 90
        0
280
     0
281
     1
  0
CLASS
  1
HATCH
  2
AcDbHatch
  3
AutoCAD 2000
 90
        0
280
     0
281
     1
  0
CLASS
  1
XRECORD
  2
AcDbXrecord
  3
AutoCAD 2000
 90
        0
280
     0
281
     0
  0
CLASS
  1
DUMMY
  2
AcDbLongTransaction
  3
DUMMY
 90
        0
280
     0
281
     0
  0
CLASS
  1
LWPOLYLINE
  2
AcDbPolyline
  3
AutoCAD 2000
 90
        0
280
     0
281
     1
  0
CLASS
  1
HATCH
  2
AcDbHatch
  3
AutoCAD 2000
 90
        0
280
     0
281
     1
  0
CLASS
  1
XRECORD
  2
AcDbXrecord
  3
AutoCAD 2000
 90
        0
280
     0
281
     0
  0
ENDSEC
  0
SECTION
  2
TABLES
  0
TABLE
  2
VPORT
  5
8
330
0
100
AcDbSymbolTable
 70
     2
  0
VPORT
  5
2CDA
330
8
100
AcDbSymbolTableRecord
100
AcDbViewportTableRecord
  2
*Active
 70
     0
 10
0.0
 20
0.0
 11
1.0
 21
1.0
 12
207.2214526828674
 22
142.6084457741154
 13
0.0
 23
0.0
 14
5.0
 24
5.0
 15
0.0
 25
0.0
 16
0.0
 26
0.0
 36
1.0
 17
0.0
 27
0.0
 37
0.0
 40
318.8342192887857
 41
1.651537335285505
 42
50.0
 43
0.0
 44
0.0
 50
0.0
 51
0.0
 71
     0
 72
   100
 73
     1
 74
     0
 75
     0
 76
     0
 77
     0
 78
     0
281
     0
 65
     1
110
0.0
120
0.0
130
0.0
111
1.0
121
0.0
131
0.0
112
0.0
122
1.0
132
0.0
 79
     0
146
0.0
  0
ENDTAB
  0
TABLE
  2
LTYPE
  5
5
330
0
100
AcDbSymbolTable
 70
     3
  0
LTYPE
  5
14
330
5
100
AcDbSymbolTableRecord
100
AcDbLinetypeTableRecord
  2
BYBLOCK
 70
     0
  3

 72
    65
 73
     0
 40
0.0
  0
LTYPE
  5
15
330
5
100
AcDbSymbolTableRecord
100
AcDbLinetypeTableRecord
  2
BYLAYER
 70
     0
  3

 72
    65
 73
     0
 40
0.0
  0
LTYPE
  5
16
330
5
100
AcDbSymbolTableRecord
100
AcDbLinetypeTableRecord
  2
CONTINUOUS
 70
     0
  3
Solid line
 72
    65
 73
     0
 40
0.0
  0
LTYPE
  5
120
330
5
100
AcDbSymbolTableRecord
100
AcDbLinetypeTableRecord
  2
CENTER
 70
     0
  3
____ _ ____ _ ____ _ ____ _ ____ _ ____ _ ____ 
 72
    65
 73
     4
 40
2.0
 49
1.25
 74
     0
 49
-0.25
 74
     0
 49
0.25
 74
     0
 49
-0.25
 74
     0
  0
LTYPE
  5
E98
330
5
100
AcDbSymbolTableRecord
100
AcDbLinetypeTableRecord
  2
DASHED
 70
     0
  3
__ __ __ __ __ __ __ __ __ __ __ __ __ __ __ __
 72
    65
 73
     2
 40
0.75
 49
0.5
 74
     0
 49
-0.25
 74
     0
  0
ENDTAB
  0
TABLE
  2
LAYER
  5
2
330
0
100
AcDbSymbolTable
 70
     8
  0
LAYER
  5
F
330
2
100
AcDbSymbolTableRecord
100
AcDbLayerTableRecord
  2
0
 70
     0
 62
     7
  6
CONTINUOUS
370
    -3
390
623
  0
LAYER
  5
62
330
2
100
AcDbSymbolTableRecord
100
AcDbLayerTableRecord
  2
VIEWPORT
 70
     0
 62
     7
  6
CONTINUOUS
370
    -3
390
623
  0
LAYER
  5
6B
330
2
100
AcDbSymbolTableRecord
100
AcDbLayerTableRecord
  2
ZUWAKU
 70
     0
 62
     7
  6
CONTINUOUS
370
    -3
390
623
  0
LAYER
  5
1F2
330
2
100
AcDbSymbolTableRecord
100
AcDbLayerTableRecord
  2
SEIHIN
 70
     0
 62
     3
  6
CONTINUOUS
370
    -3
390
623
  0
LAYER
  5
1F3
330
2
100
AcDbSymbolTableRecord
100
AcDbLayerTableRecord
  2
SUNPOU
 70
     0
 62
     4
  6
CONTINUOUS
370
    -3
390
623
  0
LAYER
  5
1F4
330
2
100
AcDbSymbolTableRecord
100
AcDbLayerTableRecord
  2
CENTER L
 70
     0
 62
     1
  6
CENTER
370
    -3
390
623
  0
LAYER
  5
1F5
330
2
100
AcDbSymbolTableRecord
100
AcDbLayerTableRecord
  2
DEFPOINTS
 70
     0
 62
     7
  6
CONTINUOUS
290
     0
370
    -3
390
623
  0
LAYER
  5
A03
330
2
100
AcDbSymbolTableRecord
100
AcDbLayerTableRecord
  2
moji
 70
     0
 62
     2
  6
CONTINUOUS
370
    -3
390
623
  0
ENDTAB
  0
TABLE
  2
STYLE
  5
3
330
0
100
AcDbSymbolTable
 70
     2
  0
STYLE
  5
10
330
3
100
AcDbSymbolTableRecord
100
AcDbTextStyleTableRecord
  2
STANDARD
 70
     0
 40
0.0
 41
1.0
 50
0.0
 71
     0
 42
2.5
  3
TXT
  4
bigfont.shx
  0
STYLE
  5
A04
330
3
100
AcDbSymbolTableRecord
100
AcDbTextStyleTableRecord
  2
ｽﾀｲﾙ1
 70
     0
 40
0.0
 41
1.0
 50
0.0
 71
     0
 42
2.5
  3
MS PGothic.ttf
  4

1001
ACAD
1000
MS PGothic
1071
    32818
  0
ENDTAB
  0
TABLE
  2
VIEW
  5
6
330
0
100
AcDbSymbolTable
 70
     0
  0
ENDTAB
  0
TABLE
  2
UCS
  5
7
330
0
100
AcDbSymbolTable
 70
     0
  0
ENDTAB
  0
TABLE
  2
APPID
  5
9
330
0
100
AcDbSymbolTable
 70
     1
  0
APPID
  5
11
330
9
100
AcDbSymbolTableRecord
100
AcDbRegAppTableRecord
  2
ACAD
 70
     0
  0
ENDTAB
  0
TABLE
  2
DIMSTYLE
  5
A
330
0
100
AcDbSymbolTable
 70
     1
100
AcDbDimStyleTable
  0
DIMSTYLE
105
1D
102
{ACAD_REACTORS
330
29F7
330
29F8
330
29F9
330
29FA
330
2A82
330
2ACB
330
2ACC
330
2ACD
330
2AFC
330
2B12
330
2B19
330
2B23
330
2B24
330
2B4F
330
2B50
102
}
330
A
100
AcDbSymbolTableRecord
100
AcDbDimStyleTableRecord
  2
STANDARD
 70
     0
340
10
  0
ENDTAB
  0
TABLE
  2
BLOCK_RECORD
  5
1
330
0
100
AcDbSymbolTable
 70
    16
  0
BLOCK_RECORD
  5
1A
330
1
100
AcDbSymbolTableRecord
100
AcDbBlockTableRecord
  2
*MODEL_SPACE
340
626
  0
BLOCK_RECORD
  5
17
330
1
100
AcDbSymbolTableRecord
100
AcDbBlockTableRecord
  2
*PAPER_SPACE
340
627
  0
BLOCK_RECORD
  5
B2
330
1
100
AcDbSymbolTableRecord
100
AcDbBlockTableRecord
  2
_OPEN
340
0
102
{BLKREFS
331
2C4C
331
2C4D
331
2C55
331
2C56
331
2C5E
331
2C5F
331
2C67
331
2C68
331
2C70
331
2C71
331
2C79
331
2C7A
331
2C82
331
2C83
331
2C8B
331
2C8C
331
2C96
331
2C97
331
2C9F
331
2CA0
331
2CA8
331
2CA9
331
2CB1
331
2CB2
331
2CBC
331
2CBD
331
2CC5
331
2CC6
331
2CCE
331
2CCF
331
2B17
331
2B60
102
}
  0
BLOCK_RECORD
  5
2B91
330
1
100
AcDbSymbolTableRecord
100
AcDbBlockTableRecord
  2
*D1
340
0
  0
BLOCK_RECORD
  5
2B9D
330
1
100
AcDbSymbolTableRecord
100
AcDbBlockTableRecord
  2
*D2
340
0
  0
BLOCK_RECORD
  5
2BA9
330
1
100
AcDbSymbolTableRecord
100
AcDbBlockTableRecord
  2
*D3
340
0
  0
BLOCK_RECORD
  5
2BB5
330
1
100
AcDbSymbolTableRecord
100
AcDbBlockTableRecord
  2
*D4
340
0
  0
BLOCK_RECORD
  5
2BC1
330
1
100
AcDbSymbolTableRecord
100
AcDbBlockTableRecord
  2
*D5
340
0
  0
BLOCK_RECORD
  5
2BCD
330
1
100
AcDbSymbolTableRecord
100
AcDbBlockTableRecord
  2
*D6
340
0
  0
BLOCK_RECORD
  5
2BD9
330
1
100
AcDbSymbolTableRecord
100
AcDbBlockTableRecord
  2
*D7
340
0
  0
BLOCK_RECORD
  5
2BE5
330
1
100
AcDbSymbolTableRecord
100
AcDbBlockTableRecord
  2
*D8
340
0
  0
BLOCK_RECORD
  5
2BF1
330
1
100
AcDbSymbolTableRecord
100
AcDbBlockTableRecord
  2
*D9
340
0
  0
BLOCK_RECORD
  5
2BFF
330
1
100
AcDbSymbolTableRecord
100
AcDbBlockTableRecord
  2
*D10
340
0
  0
BLOCK_RECORD
  5
2C0B
330
1
100
AcDbSymbolTableRecord
100
AcDbBlockTableRecord
  2
*D11
340
0
  0
BLOCK_RECORD
  5
2C17
330
1
100
AcDbSymbolTableRecord
100
AcDbBlockTableRecord
  2
*D12
340
0
  0
BLOCK_RECORD
  5
2C23
330
1
100
AcDbSymbolTableRecord
100
AcDbBlockTableRecord
  2
*D13
340
0
  0
BLOCK_RECORD
  5
2C31
330
1
100
AcDbSymbolTableRecord
100
AcDbBlockTableRecord
  2
*D14
340
0
  0
BLOCK_RECORD
  5
2C3D
330
1
100
AcDbSymbolTableRecord
100
AcDbBlockTableRecord
  2
*D15
340
0
  0
ENDTAB
  0
ENDSEC
  0
SECTION
  2
BLOCKS
  0
BLOCK
  5
1B
330
1A
100
AcDbEntity
  8
0
100
AcDbBlockBegin
  2
*MODEL_SPACE
 70
     0
 71
     0
 10
0.0
 20
0.0
 30
0.0
  3
*MODEL_SPACE
  1

  0
ENDBLK
  5
1C
330
1A
100
AcDbEntity
  8
0
100
AcDbBlockEnd
  0
BLOCK
  5
18
330
17
100
AcDbEntity
 67
     1
  8
0
100
AcDbBlockBegin
  2
*PAPER_SPACE
 70
     0
 71
     0
 10
0.0
 20
0.0
 30
0.0
  3
*PAPER_SPACE
  1

  0
ENDBLK
  5
19
330
17
100
AcDbEntity
 67
     1
  8
0
100
AcDbBlockEnd
  0
BLOCK
  5
B3
330
B2
100
AcDbEntity
  8
0
100
AcDbBlockBegin
  2
_OPEN
 70
     0
 71
     0
 10
0.0
 20
0.0
 30
0.0
  3
_OPEN
  1

  0
LINE
  5
B4
330
B2
100
AcDbEntity
  8
0
  6
ByBlock
 62
     0
100
AcDbLine
 10
-1.0
 20
0.1666666666666667
 30
0.0
 11
0.0
 21
0.0
 31
0.0
  0
LINE
  5
B5
330
B2
100
AcDbEntity
  8
0
  6
ByBlock
 62
     0
100
AcDbLine
 10
0.0
 20
0.0
 30
0.0
 11
-1.0
 21
-0.1666666666666667
 31
0.0
  0
LINE
  5
B6
330
B2
100
AcDbEntity
  8
0
  6
ByBlock
 62
     0
100
AcDbLine
 10
0.0
 20
0.0
 30
0.0
 11
-1.0
 21
0.0
 31
0.0
  0
ENDBLK
  5
B7
330
B2
100
AcDbEntity
  8
0
100
AcDbBlockEnd
  0
BLOCK
  5
2B9B
330
2B91
100
AcDbEntity
  8
0
100
AcDbBlockBegin
  2
*D1
 70
     1
 71
     0
 10
0.0
 20
0.0
 30
0.0
  3
*D1
  1

  0
LINE
  5
2C49
330
2B91
100
AcDbEntity
  8
SUNPOU
370
    -2
100
AcDbLine
 10
185.3806034845679
 20
85.87533546899051
 30
0.0
 11
185.3806034845679
 21
142.6544794273635
 31
0.0
  0
LINE
  5
2C4A
330
2B91
100
AcDbEntity
  8
SUNPOU
370
    -2
100
AcDbLine
 10
220.6147022650646
 20
125.8994621802707
 30
0.0
 11
220.6147022650646
 21
142.6544794273635
 31
0.0
  0
LINE
  5
2C4B
330
2B91
100
AcDbEntity
  8
SUNPOU
370
    -2
100
AcDbLine
 10
188.3806034845679
 20
141.1544794273635
 30
0.0
 11
217.6147022650646
 21
141.1544794273635
 31
0.0
  0
INSERT
  5
2C4C
330
2B91
100
AcDbEntity
  8
SUNPOU
370
    -2
100
AcDbBlockReference
  2
_OPEN
 10
185.3806034845679
 20
141.1544794273635
 30
0.0
 41
3.0
 42
3.0
 43
3.0
 50
180.0
  0
INSERT
  5
2C4D
330
2B91
100
AcDbEntity
  8
SUNPOU
370
    -2
100
AcDbBlockReference
  2
_OPEN
 10
220.6147022650646
 20
141.1544794273635
 30
0.0
 41
3.0
 42
3.0
 43
3.0
  0
MTEXT
  5
2C4E
330
2B91
100
AcDbEntity
  8
SUNPOU
100
AcDbMText
 10
202.9976528748162
 20
143.6544794273635
 30
0.0
 40
3.0
 41
0.0
 71
     5
 72
     1
  1
\A1;35
 73
     1
 44
1.0
  0
POINT
  5
2C4F
330
2B91
100
AcDbEntity
  8
DEFPOINTS
 62
     0
100
AcDbPoint
 10
185.3806034845679
 20
82.87533546899051
 30
0.0
  0
POINT
  5
2C50
330
2B91
100
AcDbEntity
  8
DEFPOINTS
 62
     0
100
AcDbPoint
 10
220.6147022650646
 20
122.8994621802707
 30
0.0
  0
POINT
  5
2C51
330
2B91
100
AcDbEntity
  8
DEFPOINTS
 62
     0
100
AcDbPoint
 10
220.6147022650646
 20
141.1544794273635
 30
0.0
  0
ENDBLK
  5
2B9C
330
2B91
100
AcDbEntity
  8
0
100
AcDbBlockEnd
  0
BLOCK
  5
2BA7
330
2B9D
100
AcDbEntity
  8
0
100
AcDbBlockBegin
  2
*D2
 70
     1
 71
     0
 10
0.0
 20
0.0
 30
0.0
  3
*D2
  1

  0
LINE
  5
2C52
330
2B9D
100
AcDbEntity
  8
SUNPOU
370
    -2
100
AcDbLine
 10
60.88060348456787
 20
100.5753354689904
 30
0.0
 11
38.82312013839348
 21
100.5753354689904
 31
0.0
  0
LINE
  5
2C53
330
2B9D
100
AcDbEntity
  8
SUNPOU
370
    -2
100
AcDbLine
 10
238.3470321545678
 20
81.43480240899044
 30
0.0
 11
38.82312013839347
 21
81.43480240899049
 31
0.0
  0
LINE
  5
2C54
330
2B9D
100
AcDbEntity
  8
SUNPOU
370
    -2
100
AcDbLine
 10
40.32312013839348
 20
97.57533546899043
 30
0.0
 11
40.32312013839348
 21
84.43480240899049
 31
0.0
  0
INSERT
  5
2C55
330
2B9D
100
AcDbEntity
  8
SUNPOU
370
    -2
100
AcDbBlockReference
  2
_OPEN
 10
40.32312013839348
 20
100.5753354689904
 30
0.0
 41
3.0
 42
3.0
 43
3.0
 50
90.0
  0
INSERT
  5
2C56
330
2B9D
100
AcDbEntity
  8
SUNPOU
370
    -2
100
AcDbBlockReference
  2
_OPEN
 10
40.32312013839348
 20
81.43480240899049
 30
0.0
 41
3.0
 42
3.0
 43
3.0
 50
270.0
  0
MTEXT
  5
2C57
330
2B9D
100
AcDbEntity
  8
SUNPOU
100
AcDbMText
 10
37.82312013839346
 20
91.00506893899048
 30
0.0
 40
3.0
 41
0.0
 71
     5
 72
     1
  1
\A1;19
 11
6.123031769111886E-17
 21
1.0
 31
0.0
 73
     1
 44
1.0
  0
POINT
  5
2C58
330
2B9D
100
AcDbEntity
  8
DEFPOINTS
 62
     0
100
AcDbPoint
 10
63.88060348456787
 20
100.5753354689904
 30
0.0
  0
POINT
  5
2C59
330
2B9D
100
AcDbEntity
  8
DEFPOINTS
 62
     0
100
AcDbPoint
 10
241.3470321545678
 20
81.43480240899044
 30
0.0
  0
POINT
  5
2C5A
330
2B9D
100
AcDbEntity
  8
DEFPOINTS
 62
     0
100
AcDbPoint
 10
40.32312013839348
 20
81.43480240899049
 30
0.0
  0
ENDBLK
  5
2BA8
330
2B9D
100
AcDbEntity
  8
0
100
AcDbBlockEnd
  0
BLOCK
  5
2BB3
330
2BA9
100
AcDbEntity
  8
0
100
AcDbBlockBegin
  2
*D3
 70
     1
 71
     0
 10
0.0
 20
0.0
 30
0.0
  3
*D3
  1

  0
LINE
  5
2C5B
330
2BA9
100
AcDbEntity
  8
SUNPOU
370
    -2
100
AcDbLine
 10
62.38060348456779
 20
101.5753354689904
 30
0.0
 11
62.38060348456779
 21
151.5069205281915
 31
0.0
  0
LINE
  5
2C5C
330
2BA9
100
AcDbEntity
  8
SUNPOU
370
    -2
100
AcDbLine
 10
220.6147022650646
 20
125.8994621802707
 30
0.0
 11
220.6147022650646
 21
151.5069205281915
 31
0.0
  0
LINE
  5
2C5D
330
2BA9
100
AcDbEntity
  8
SUNPOU
370
    -2
100
AcDbLine
 10
65.38060348456779
 20
150.0069205281915
 30
0.0
 11
217.6147022650646
 21
150.0069205281915
 31
0.0
  0
INSERT
  5
2C5E
330
2BA9
100
AcDbEntity
  8
SUNPOU
370
    -2
100
AcDbBlockReference
  2
_OPEN
 10
62.38060348456779
 20
150.0069205281915
 30
0.0
 41
3.0
 42
3.0
 43
3.0
 50
180.0
  0
INSERT
  5
2C5F
330
2BA9
100
AcDbEntity
  8
SUNPOU
370
    -2
100
AcDbBlockReference
  2
_OPEN
 10
220.6147022650646
 20
150.0069205281915
 30
0.0
 41
3.0
 42
3.0
 43
3.0
  0
MTEXT
  5
2C60
330
2BA9
100
AcDbEntity
  8
SUNPOU
100
AcDbMText
 10
141.4976528748162
 20
152.5069205281915
 30
0.0
 40
3.0
 41
0.0
 71
     5
 72
     1
  1
\A1;158
 73
     1
 44
1.0
  0
POINT
  5
2C61
330
2BA9
100
AcDbEntity
  8
DEFPOINTS
 62
     0
100
AcDbPoint
 10
62.38060348456779
 20
98.57533546899043
 30
0.0
  0
POINT
  5
2C62
330
2BA9
100
AcDbEntity
  8
DEFPOINTS
 62
     0
100
AcDbPoint
 10
220.6147022650646
 20
122.8994621802707
 30
0.0
  0
POINT
  5
2C63
330
2BA9
100
AcDbEntity
  8
DEFPOINTS
 62
     0
100
AcDbPoint
 10
220.6147022650646
 20
150.0069205281915
 30
0.0
  0
ENDBLK
  5
2BB4
330
2BA9
100
AcDbEntity
  8
0
100
AcDbBlockEnd
  0
BLOCK
  5
2BBF
330
2BB5
100
AcDbEntity
  8
0
100
AcDbBlockBegin
  2
*D4
 70
     1
 71
     0
 10
0.0
 20
0.0
 30
0.0
  3
*D4
  1

  0
LINE
  5
2C64
330
2BB5
100
AcDbEntity
  8
SUNPOU
370
    -2
100
AcDbLine
 10
216.5713989616681
 20
109.2962094062905
 30
0.0
 11
207.3416225775441
 21
104.6813212133686
 31
0.0
  0
LINE
  5
2C65
330
2BB5
100
AcDbEntity
  8
SUNPOU
370
    -2
100
AcDbLine
 10
232.6710884016681
 20
77.09683053229057
 30
0.0
 11
223.4413120175441
 21
72.48194233936862
 31
0.0
  0
LINE
  5
2C66
330
2BB5
100
AcDbEntity
  8
SUNPOU
370
    -2
100
AcDbLine
 10
210.0249041506939
 20
102.6688600338188
 30
0.0
 11
223.4413120172941
 21
75.8360443056183
 31
0.0
  0
INSERT
  5
2C67
330
2BB5
100
AcDbEntity
  8
SUNPOU
370
    -2
100
AcDbBlockReference
  2
_OPEN
 10
208.683263363994
 20
105.3521416067186
 30
0.0
 41
3.0
 42
3.0
 43
3.0
 50
116.5650511813486
  0
INSERT
  5
2C68
330
2BB5
100
AcDbEntity
  8
SUNPOU
370
    -2
100
AcDbBlockReference
  2
_OPEN
 10
224.782952803994
 20
73.15276273271856
 30
0.0
 41
3.0
 42
3.0
 43
3.0
 50
296.5650511813485
  0
MTEXT
  5
2C69
330
2BB5
100
AcDbEntity
  8
SUNPOU
100
AcDbMText
 10
218.9691760614105
 20
90.37048615863512
 30
0.0
 40
3.0
 41
0.0
 71
     5
 72
     1
  1
\A1;36
 11
0.4472135955666246
 21
-0.8944271909665825
 31
0.0
 73
     1
 44
1.0
  0
POINT
  5
2C6A
330
2BB5
100
AcDbEntity
  8
DEFPOINTS
 62
     0
100
AcDbPoint
 10
219.2546805345678
 20
110.6378501929904
 30
0.0
  0
POINT
  5
2C6B
330
2BB5
100
AcDbEntity
  8
DEFPOINTS
 62
     0
100
AcDbPoint
 10
235.3543699745679
 20
78.43847131899044
 30
0.0
  0
POINT
  5
2C6C
330
2BB5
100
AcDbEntity
  8
DEFPOINTS
 62
     0
100
AcDbPoint
 10
224.782952803994
 20
73.15276273271856
 30
0.0
  0
ENDBLK
  5
2BC0
330
2BB5
100
AcDbEntity
  8
0
100
AcDbBlockEnd
  0
BLOCK
  5
2BCB
330
2BC1
100
AcDbEntity
  8
0
100
AcDbBlockBegin
  2
*D5
 70
     1
 71
     0
 10
0.0
 20
0.0
 30
0.0
  3
*D5
  1

  0
LINE
  5
2C6D
330
2BC1
100
AcDbEntity
  8
SUNPOU
370
    -2
100
AcDbLine
 10
59.3806034845679
 20
224.9595175979314
 30
0.0
 11
38.82312013839351
 21
224.9595175979314
 31
0.0
  0
LINE
  5
2C6E
330
2BC1
100
AcDbEntity
  8
SUNPOU
370
    -2
100
AcDbLine
 10
59.38060348456784
 20
202.9595175979314
 30
0.0
 11
38.82312013839351
 21
202.9595175979314
 31
0.0
  0
LINE
  5
2C6F
330
2BC1
100
AcDbEntity
  8
SUNPOU
370
    -2
100
AcDbLine
 10
40.32312013839351
 20
221.9595175979314
 30
0.0
 11
40.32312013839351
 21
205.9595175979314
 31
0.0
  0
INSERT
  5
2C70
330
2BC1
100
AcDbEntity
  8
SUNPOU
370
    -2
100
AcDbBlockReference
  2
_OPEN
 10
40.32312013839351
 20
224.9595175979314
 30
0.0
 41
3.0
 42
3.0
 43
3.0
 50
90.0
  0
INSERT
  5
2C71
330
2BC1
100
AcDbEntity
  8
SUNPOU
370
    -2
100
AcDbBlockReference
  2
_OPEN
 10
40.32312013839351
 20
202.9595175979314
 30
0.0
 41
3.0
 42
3.0
 43
3.0
 50
270.0
  0
MTEXT
  5
2C72
330
2BC1
100
AcDbEntity
  8
SUNPOU
100
AcDbMText
 10
37.82312013839348
 20
213.9595175979314
 30
0.0
 40
3.0
 41
0.0
 71
     5
 72
     1
  1
\A1;22
 11
6.123031769111886E-17
 21
1.0
 31
0.0
 73
     1
 44
1.0
  0
POINT
  5
2C73
330
2BC1
100
AcDbEntity
  8
DEFPOINTS
 62
     0
100
AcDbPoint
 10
62.3806034845679
 20
224.9595175979314
 30
0.0
  0
POINT
  5
2C74
330
2BC1
100
AcDbEntity
  8
DEFPOINTS
 62
     0
100
AcDbPoint
 10
62.38060348456784
 20
202.9595175979314
 30
0.0
  0
POINT
  5
2C75
330
2BC1
100
AcDbEntity
  8
DEFPOINTS
 62
     0
100
AcDbPoint
 10
40.32312013839351
 20
202.9595175979314
 30
0.0
  0
ENDBLK
  5
2BCC
330
2BC1
100
AcDbEntity
  8
0
100
AcDbBlockEnd
  0
BLOCK
  5
2BD7
330
2BCD
100
AcDbEntity
  8
0
100
AcDbBlockBegin
  2
*D6
 70
     1
 71
     0
 10
0.0
 20
0.0
 30
0.0
  3
*D6
  1

  0
LINE
  5
2C76
330
2BCD
100
AcDbEntity
  8
SUNPOU
370
    -2
100
AcDbLine
 10
220.7752067615696
 20
129.2866571274859
 30
0.0
 11
243.1623764555699
 21
140.4802419744861
 31
0.0
  0
LINE
  5
2C77
330
2BCD
100
AcDbEntity
  8
SUNPOU
370
    -2
100
AcDbLine
 10
244.0303137275676
 20
82.77644319549032
 30
0.0
 11
266.4174834215679
 21
93.97002804249057
 31
0.0
  0
LINE
  5
2C78
330
2BCD
100
AcDbEntity
  8
SUNPOU
370
    -2
100
AcDbLine
 10
243.1623764555699
 20
137.1261400082364
 30
0.0
 11
263.7342018485681
 21
95.98248922224036
 31
0.0
  0
INSERT
  5
2C79
330
2BCD
100
AcDbEntity
  8
SUNPOU
370
    -2
100
AcDbBlockReference
  2
_OPEN
 10
241.82073566907
 20
139.8094215812361
 30
0.0
 41
3.0
 42
3.0
 43
3.0
 50
116.5650511770782
  0
INSERT
  5
2C7A
330
2BCD
100
AcDbEntity
  8
SUNPOU
370
    -2
100
AcDbBlockReference
  2
_OPEN
 10
265.0758426350679
 20
93.29920764924063
 30
0.0
 41
3.0
 42
3.0
 43
3.0
 50
296.5650511770782
  0
MTEXT
  5
2C7B
330
2BCD
100
AcDbEntity
  8
SUNPOU
100
AcDbMText
 10
255.6843571295688
 20
117.6723486039883
 30
0.0
 40
3.0
 41
0.0
 71
     5
 72
     1
  1
\A1;52
 11
0.4472135954999612
 21
-0.8944271909999143
 31
0.0
 73
     1
 44
1.0
  0
POINT
  5
2C7C
330
2BCD
100
AcDbEntity
  8
DEFPOINTS
 62
     0
100
AcDbPoint
 10
218.0919251885698
 20
127.945016340986
 30
0.0
  0
POINT
  5
2C7D
330
2BCD
100
AcDbEntity
  8
DEFPOINTS
 62
     0
100
AcDbPoint
 10
241.3470321545678
 20
81.43480240899042
 30
0.0
  0
POINT
  5
2C7E
330
2BCD
100
AcDbEntity
  8
DEFPOINTS
 62
     0
100
AcDbPoint
 10
265.0758426350679
 20
93.29920764924063
 30
0.0
  0
ENDBLK
  5
2BD8
330
2BCD
100
AcDbEntity
  8
0
100
AcDbBlockEnd
  0
BLOCK
  5
2BE3
330
2BD9
100
AcDbEntity
  8
0
100
AcDbBlockBegin
  2
*D7
 70
     1
 71
     0
 10
0.0
 20
0.0
 30
0.0
  3
*D7
  1

  0
LINE
  5
2C7F
330
2BD9
100
AcDbEntity
  8
SUNPOU
370
    -2
100
AcDbLine
 10
220.6147022650646
 20
125.8994621802707
 30
0.0
 11
220.6147022650646
 21
151.5069205281915
 31
0.0
  0
LINE
  5
2C80
330
2BD9
100
AcDbEntity
  8
SUNPOU
370
    -2
100
AcDbLine
 10
235.6147022731005
 20
125.8994621590475
 30
0.0
 11
235.6147022731005
 21
151.5069205281915
 31
0.0
  0
LINE
  5
2C81
330
2BD9
100
AcDbEntity
  8
SUNPOU
370
    -2
100
AcDbLine
 10
223.6147022650646
 20
150.0069205281915
 30
0.0
 11
232.6147022731005
 21
150.0069205281915
 31
0.0
  0
INSERT
  5
2C82
330
2BD9
100
AcDbEntity
  8
SUNPOU
370
    -2
100
AcDbBlockReference
  2
_OPEN
 10
220.6147022650646
 20
150.0069205281915
 30
0.0
 41
3.0
 42
3.0
 43
3.0
 50
180.0
  0
INSERT
  5
2C83
330
2BD9
100
AcDbEntity
  8
SUNPOU
370
    -2
100
AcDbBlockReference
  2
_OPEN
 10
235.6147022731005
 20
150.0069205281915
 30
0.0
 41
3.0
 42
3.0
 43
3.0
  0
MTEXT
  5
2C84
330
2BD9
100
AcDbEntity
  8
SUNPOU
100
AcDbMText
 10
228.1147022690826
 20
152.5069205281915
 30
0.0
 40
3.0
 41
0.0
 71
     5
 72
     1
  1
\A1;15
 73
     1
 44
1.0
  0
POINT
  5
2C85
330
2BD9
100
AcDbEntity
  8
DEFPOINTS
 62
     0
100
AcDbPoint
 10
220.6147022650646
 20
122.8994621802707
 30
0.0
  0
POINT
  5
2C86
330
2BD9
100
AcDbEntity
  8
DEFPOINTS
 62
     0
100
AcDbPoint
 10
235.6147022731005
 20
122.8994621590475
 30
0.0
  0
POINT
  5
2C87
330
2BD9
100
AcDbEntity
  8
DEFPOINTS
 62
     0
100
AcDbPoint
 10
235.6147022731005
 20
150.0069205281915
 30
0.0
  0
ENDBLK
  5
2BE4
330
2BD9
100
AcDbEntity
  8
0
100
AcDbBlockEnd
  0
BLOCK
  5
2BEF
330
2BE5
100
AcDbEntity
  8
0
100
AcDbBlockBegin
  2
*D8
 70
     1
 71
     0
 10
0.0
 20
0.0
 30
0.0
  3
*D8
  1

  0
LINE
  5
2C88
330
2BE5
100
AcDbEntity
  8
SUNPOU
370
    -2
100
AcDbLine
 10
292.3014033402315
 20
147.1612116031149
 30
0.0
 11
270.8224906178468
 21
136.4217552456748
 31
0.0
  0
LINE
  5
2C89
330
2BE5
100
AcDbEntity
  8
SUNPOU
370
    -2
100
AcDbLine
 10
308.4010927687058
 20
114.9618327349163
 30
0.0
 11
286.9221800463212
 21
104.2223763774762
 31
0.0
  0
LINE
  5
2C8A
330
2BE5
100
AcDbEntity
  8
SUNPOU
370
    -2
100
AcDbLine
 10
273.5057721905654
 20
134.40929406555
 30
0.0
 11
286.9221800467899
 21
107.5764783437259
 31
0.0
  0
INSERT
  5
2C8B
330
2BE5
100
AcDbEntity
  8
SUNPOU
370
    -2
100
AcDbBlockReference
  2
_OPEN
 10
272.1641314044405
 20
137.0925756387372
 30
0.0
 41
3.0
 42
3.0
 43
3.0
 50
116.5650511690706
  0
INSERT
  5
2C8C
330
2BE5
100
AcDbEntity
  8
SUNPOU
370
    -2
100
AcDbBlockReference
  2
_OPEN
 10
288.2638208329148
 20
104.8931967705386
 30
0.0
 41
3.0
 42
3.0
 43
3.0
 50
296.5650511690706
  0
MTEXT
  5
2C8D
330
2BE5
100
AcDbEntity
  8
SUNPOU
100
AcDbMText
 10
282.4500440963337
 20
122.1109201930753
 30
0.0
 40
3.0
 41
0.0
 71
     5
 72
     1
  1
\A1;36
 11
0.4472135953749575
 21
-0.8944271910624161
 31
0.0
 73
     1
 44
1.0
  0
POINT
  5
2C8E
330
2BE5
100
AcDbEntity
  8
DEFPOINTS
 62
     0
100
AcDbPoint
 10
294.9846849134188
 20
148.5028523892398
 30
0.0
  0
POINT
  5
2C8F
330
2BE5
100
AcDbEntity
  8
DEFPOINTS
 62
     0
100
AcDbPoint
 10
311.0843743418931
 20
116.3034735210412
 30
0.0
  0
POINT
  5
2C90
330
2BE5
100
AcDbEntity
  8
DEFPOINTS
 62
     0
100
AcDbPoint
 10
288.2638208329148
 20
104.8931967705386
 30
0.0
  0
ENDBLK
  5
2BF0
330
2BE5
100
AcDbEntity
  8
0
100
AcDbBlockEnd
  0
BLOCK
  5
2BFD
330
2BF1
100
AcDbEntity
  8
0
100
AcDbBlockBegin
  2
*D9
 70
     1
 71
     0
 10
0.0
 20
0.0
 30
0.0
  3
*D9
  1

  0
LINE
  5
2C91
330
2BF1
100
AcDbEntity
  8
SUNPOU
370
    -2
100
AcDbLine
 10
305.9414179996047
 20
119.8811822748374
 30
0.0
 11
292.8559865154821
 21
113.338466535062
 31
0.0
  0
LINE
  5
2C92
330
2BF1
100
AcDbEntity
  8
SUNPOU
370
    -2
100
AcDbLine
 10
308.4010927687058
 20
114.9618327349163
 30
0.0
 11
295.3156612845833
 21
108.4191169951409
 31
0.0
  0
LINE
  5
2C93
330
2BF1
100
AcDbEntity
  8
SUNPOU
370
    -2
100
AcDbLine
 10
292.8559865159508
 20
116.6925685013117
 30
0.0
 11
291.514345729826
 21
119.3758500744989
 31
0.0
  0
LINE
  5
2C94
330
2BF1
100
AcDbEntity
  8
SUNPOU
370
    -2
100
AcDbLine
 10
297.9989428573018
 20
106.4066558150161
 30
0.0
 11
299.3405836434266
 21
103.7233742418289
 31
0.0
  0
LINE
  5
2C95
330
2BF1
100
AcDbEntity
  8
SUNPOU
370
    -2
100
AcDbLine
 10
294.1976273020757
 20
114.0092869281245
 30
0.0
 11
296.6573020711769
 21
109.0899373882034
 31
0.0
  0
INSERT
  5
2C96
330
2BF1
100
AcDbEntity
  8
SUNPOU
370
    -2
100
AcDbBlockReference
  2
_OPEN
 10
294.1976273020757
 20
114.0092869281245
 30
0.0
 41
3.0
 42
3.0
 43
3.0
 50
296.5650511690708
  0
INSERT
  5
2C97
330
2BF1
100
AcDbEntity
  8
SUNPOU
370
    -2
100
AcDbBlockReference
  2
_OPEN
 10
296.6573020711769
 20
109.0899373882034
 30
0.0
 41
3.0
 42
3.0
 43
3.0
 50
116.5650511690708
  0
MTEXT
  5
2C98
330
2BF1
100
AcDbEntity
  8
SUNPOU
100
AcDbMText
 10
297.6635326642824
 20
112.6676461466013
 30
0.0
 40
3.0
 41
0.0
 71
     5
 72
     1
  1
\A1;6
 11
0.4472135953749599
 21
-0.894427191062415
 31
0.0
 73
     1
 44
1.0
  0
POINT
  5
2C99
330
2BF1
100
AcDbEntity
  8
DEFPOINTS
 62
     0
100
AcDbPoint
 10
308.6246995727919
 20
121.2228230609623
 30
0.0
  0
POINT
  5
2C9A
330
2BF1
100
AcDbEntity
  8
DEFPOINTS
 62
     0
100
AcDbPoint
 10
311.0843743418931
 20
116.3034735210412
 30
0.0
  0
POINT
  5
2C9B
330
2BF1
100
AcDbEntity
  8
DEFPOINTS
 62
     0
100
AcDbPoint
 10
296.6573020711769
 20
109.0899373882034
 30
0.0
  0
ENDBLK
  5
2BFE
330
2BF1
100
AcDbEntity
  8
0
100
AcDbBlockEnd
  0
BLOCK
  5
2C09
330
2BFF
100
AcDbEntity
  8
0
100
AcDbBlockBegin
  2
*D10
 70
     1
 71
     0
 10
0.0
 20
0.0
 30
0.0
  3
*D10
  1

  0
LINE
  5
2C9C
330
2BFF
100
AcDbEntity
  8
SUNPOU
370
    -2
100
AcDbLine
 10
345.0726076135256
 20
173.5468137477132
 30
0.0
 11
354.9180923796128
 21
178.4695561120096
 31
0.0
  0
LINE
  5
2C9D
330
2BFF
100
AcDbEntity
  8
SUNPOU
370
    -2
100
AcDbLine
 10
351.3335979358293
 20
161.0248330554184
 30
0.0
 11
361.1790827019165
 21
165.9475754197147
 31
0.0
  0
LINE
  5
2C9E
330
2BFF
100
AcDbEntity
  8
SUNPOU
370
    -2
100
AcDbLine
 10
354.9180923745034
 20
175.1154541457599
 30
0.0
 11
358.4958011319824
 21
167.960036603552
 31
0.0
  0
INSERT
  5
2C9F
330
2BFF
100
AcDbEntity
  8
SUNPOU
370
    -2
100
AcDbBlockReference
  2
_OPEN
 10
353.5764515920911
 20
177.7987357208034
 30
0.0
 41
3.0
 42
3.0
 43
3.0
 50
116.5650510897983
  0
INSERT
  5
2CA0
330
2BFF
100
AcDbEntity
  8
SUNPOU
370
    -2
100
AcDbBlockReference
  2
_OPEN
 10
359.8374419143948
 20
165.2767550285086
 30
0.0
 41
3.0
 42
3.0
 43
3.0
 50
296.5650510897982
  0
MTEXT
  5
2CA1
330
2BFF
100
AcDbEntity
  8
SUNPOU
100
AcDbMText
 10
358.9430147324458
 20
172.6557793599996
 30
0.0
 40
3.0
 41
0.0
 71
     5
 72
     1
  1
\A1;14
 11
0.4472135941374603
 21
-0.8944271916811647
 31
0.0
 73
     1
 44
1.0
  0
POINT
  5
2CA2
330
2BFF
100
AcDbEntity
  8
DEFPOINTS
 62
     0
100
AcDbPoint
 10
342.3893260384821
 20
172.2051729653009
 30
0.0
  0
POINT
  5
2CA3
330
2BFF
100
AcDbEntity
  8
DEFPOINTS
 62
     0
100
AcDbPoint
 10
348.6503163607858
 20
159.683192273006
 30
0.0
  0
POINT
  5
2CA4
330
2BFF
100
AcDbEntity
  8
DEFPOINTS
 62
     0
100
AcDbPoint
 10
359.8374419143948
 20
165.2767550285086
 30
0.0
  0
ENDBLK
  5
2C0A
330
2BFF
100
AcDbEntity
  8
0
100
AcDbBlockEnd
  0
BLOCK
  5
2C15
330
2C0B
100
AcDbEntity
  8
0
100
AcDbBlockBegin
  2
*D11
 70
     1
 71
     0
 10
0.0
 20
0.0
 30
0.0
  3
*D11
  1

  0
LINE
  5
2CA5
330
2C0B
100
AcDbEntity
  8
SUNPOU
370
    -2
100
AcDbLine
 10
243.4526049634843
 20
240.4595175979314
 30
0.0
 11
259.7766613410063
 21
240.4595175979314
 31
0.0
  0
LINE
  5
2CA6
330
2C0B
100
AcDbEntity
  8
SUNPOU
370
    -2
100
AcDbLine
 10
243.4526049634843
 20
187.4595175979314
 30
0.0
 11
259.7766613410063
 21
187.4595175979314
 31
0.0
  0
LINE
  5
2CA7
330
2C0B
100
AcDbEntity
  8
SUNPOU
370
    -2
100
AcDbLine
 10
258.2766613410063
 20
237.4595175979314
 30
0.0
 11
258.2766613410063
 21
190.4595175979314
 31
0.0
  0
INSERT
  5
2CA8
330
2C0B
100
AcDbEntity
  8
SUNPOU
370
    -2
100
AcDbBlockReference
  2
_OPEN
 10
258.2766613410063
 20
240.4595175979314
 30
0.0
 41
3.0
 42
3.0
 43
3.0
 50
90.0
  0
INSERT
  5
2CA9
330
2C0B
100
AcDbEntity
  8
SUNPOU
370
    -2
100
AcDbBlockReference
  2
_OPEN
 10
258.2766613410063
 20
187.4595175979314
 30
0.0
 41
3.0
 42
3.0
 43
3.0
 50
270.0
  0
MTEXT
  5
2CAA
330
2C0B
100
AcDbEntity
  8
SUNPOU
100
AcDbMText
 10
255.7766613410063
 20
213.9595175979314
 30
0.0
 40
3.0
 41
0.0
 71
     5
 72
     1
  1
\A1;53
 11
6.123031769111886E-17
 21
1.0
 31
0.0
 73
     1
 44
1.0
  0
POINT
  5
2CAB
330
2C0B
100
AcDbEntity
  8
DEFPOINTS
 62
     0
100
AcDbPoint
 10
240.4526049634843
 20
240.4595175979314
 30
0.0
  0
POINT
  5
2CAC
330
2C0B
100
AcDbEntity
  8
DEFPOINTS
 62
     0
100
AcDbPoint
 10
240.4526049634843
 20
187.4595175979314
 30
0.0
  0
POINT
  5
2CAD
330
2C0B
100
AcDbEntity
  8
DEFPOINTS
 62
     0
100
AcDbPoint
 10
258.2766613410063
 20
187.4595175979314
 30
0.0
  0
ENDBLK
  5
2C16
330
2C0B
100
AcDbEntity
  8
0
100
AcDbBlockEnd
  0
BLOCK
  5
2C21
330
2C17
100
AcDbEntity
  8
0
100
AcDbBlockBegin
  2
*D12
 70
     1
 71
     0
 10
0.0
 20
0.0
 30
0.0
  3
*D12
  1

  0
LINE
  5
2CAE
330
2C17
100
AcDbEntity
  8
SUNPOU
370
    -2
100
AcDbLine
 10
293.6430441263062
 20
151.1861339619332
 30
0.0
 11
275.2980973993199
 21
187.8760273949631
 31
0.0
  0
LINE
  5
2CAF
330
2C17
100
AcDbEntity
  8
SUNPOU
370
    -2
100
AcDbLine
 10
341.0476852513696
 20
174.8884545379943
 30
0.0
 11
322.7027385243832
 21
211.5783479710242
 31
0.0
  0
LINE
  5
2CB0
330
2C17
100
AcDbEntity
  8
SUNPOU
370
    -2
100
AcDbLine
 10
278.6521993655696
 20
187.8760273957289
 30
0.0
 11
320.6902773452461
 21
208.8950663975649
 31
0.0
  0
INSERT
  5
2CB1
330
2C17
100
AcDbEntity
  8
SUNPOU
370
    -2
100
AcDbBlockReference
  2
_OPEN
 10
275.9689177928761
 20
186.5343866086164
 30
0.0
 41
3.0
 42
3.0
 43
3.0
 50
206.5650511901599
  0
INSERT
  5
2CB2
330
2C17
100
AcDbEntity
  8
SUNPOU
370
    -2
100
AcDbBlockReference
  2
_OPEN
 10
323.3735589179395
 20
210.2367071846775
 30
0.0
 41
3.0
 42
3.0
 43
3.0
 50
26.56505119015989
  0
MTEXT
  5
2CB3
330
2C17
100
AcDbEntity
  8
SUNPOU
100
AcDbMText
 10
298.5532043661474
 20
200.6216148738915
 30
0.0
 40
3.0
 41
0.0
 71
     5
 72
     1
  1
\A1;53
 11
0.8944271908978071
 21
0.4472135957041756
 31
0.0
 73
     1
 44
1.0
  0
POINT
  5
2CB4
330
2C17
100
AcDbEntity
  8
DEFPOINTS
 62
     0
100
AcDbPoint
 10
294.9846849134187
 20
148.5028523892398
 30
0.0
  0
POINT
  5
2CB5
330
2C17
100
AcDbEntity
  8
DEFPOINTS
 62
     0
100
AcDbPoint
 10
342.3893260384821
 20
172.2051729653009
 30
0.0
  0
POINT
  5
2CB6
330
2C17
100
AcDbEntity
  8
DEFPOINTS
 62
     0
100
AcDbPoint
 10
323.3735589179395
 20
210.2367071846775
 30
0.0
  0
ENDBLK
  5
2C22
330
2C17
100
AcDbEntity
  8
0
100
AcDbBlockEnd
  0
BLOCK
  5
2C2F
330
2C23
100
AcDbEntity
  8
0
100
AcDbBlockBegin
  2
*D13
 70
     1
 71
     0
 10
0.0
 20
0.0
 30
0.0
  3
*D13
  1

  0
LINE
  5
2CB7
330
2C23
100
AcDbEntity
  8
SUNPOU
370
    -2
100
AcDbLine
 10
292.3014033402315
 20
147.1612116031149
 30
0.0
 11
279.2159718561091
 21
140.6184958633398
 31
0.0
  0
LINE
  5
2CB8
330
2C23
100
AcDbEntity
  8
SUNPOU
370
    -2
100
AcDbLine
 10
294.7610781107296
 20
142.2418620603999
 30
0.0
 11
281.6756466266072
 21
135.6991463206247
 31
0.0
  0
LINE
  5
2CB9
330
2C23
100
AcDbEntity
  8
SUNPOU
370
    -2
100
AcDbLine
 10
279.2159718565779
 20
143.9725978295895
 30
0.0
 11
277.874331070453
 21
146.6558794027767
 31
0.0
  0
LINE
  5
2CBA
330
2C23
100
AcDbEntity
  8
SUNPOU
370
    -2
100
AcDbLine
 10
284.3589281993257
 20
133.6866851404999
 30
0.0
 11
285.7005689854506
 21
131.0034035673126
 31
0.0
  0
LINE
  5
2CBB
330
2C23
100
AcDbEntity
  8
SUNPOU
370
    -2
100
AcDbLine
 10
280.5576126427027
 20
141.2893162564022
 30
0.0
 11
283.0172874132009
 21
136.3699667136872
 31
0.0
  0
INSERT
  5
2CBC
330
2C23
100
AcDbEntity
  8
SUNPOU
370
    -2
100
AcDbBlockReference
  2
_OPEN
 10
280.5576126427027
 20
141.2893162564022
 30
0.0
 41
3.0
 42
3.0
 43
3.0
 50
296.5650511690703
  0
INSERT
  5
2CBD
330
2C23
100
AcDbEntity
  8
SUNPOU
370
    -2
100
AcDbBlockReference
  2
_OPEN
 10
283.0172874132009
 20
136.3699667136872
 30
0.0
 41
3.0
 42
3.0
 43
3.0
 50
116.5650511690703
  0
MTEXT
  5
2CBE
330
2C23
100
AcDbEntity
  8
SUNPOU
100
AcDbMText
 10
284.0235180056079
 20
139.947675473482
 30
0.0
 40
3.0
 41
0.0
 71
     5
 72
     1
  1
\A1;6
 11
0.4472135953749519
 21
-0.8944271910624189
 31
0.0
 73
     1
 44
1.0
  0
POINT
  5
2CBF
330
2C23
100
AcDbEntity
  8
DEFPOINTS
 62
     0
100
AcDbPoint
 10
294.9846849134188
 20
148.5028523892398
 30
0.0
  0
POINT
  5
2CC0
330
2C23
100
AcDbEntity
  8
DEFPOINTS
 62
     0
100
AcDbPoint
 10
297.4443596839169
 20
143.5835028465247
 30
0.0
  0
POINT
  5
2CC1
330
2C23
100
AcDbEntity
  8
DEFPOINTS
 62
     0
100
AcDbPoint
 10
283.0172874132009
 20
136.3699667136872
 30
0.0
  0
ENDBLK
  5
2C30
330
2C23
100
AcDbEntity
  8
0
100
AcDbBlockEnd
  0
BLOCK
  5
2C3B
330
2C31
100
AcDbEntity
  8
0
100
AcDbBlockBegin
  2
*D14
 70
     1
 71
     0
 10
0.0
 20
0.0
 30
0.0
  3
*D14
  1

  0
LINE
  5
2CC2
330
2C31
100
AcDbEntity
  8
SUNPOU
370
    -2
100
AcDbLine
 10
303.3699398246598
 20
147.3848184065476
 30
0.0
 11
289.3057658621679
 21
175.5131663363696
 31
0.0
  0
LINE
  5
2CC3
330
2C31
100
AcDbEntity
  8
SUNPOU
370
    -2
100
AcDbLine
 10
338.2526002746598
 20
164.8261486285476
 30
0.0
 11
324.1884263121679
 21
192.9544965583696
 31
0.0
  0
LINE
  5
2CC4
330
2C31
100
AcDbEntity
  8
SUNPOU
370
    -2
100
AcDbLine
 10
292.6598678284176
 20
175.5131663361388
 30
0.0
 11
322.1759651322335
 21
190.2712149855083
 31
0.0
  0
INSERT
  5
2CC5
330
2C31
100
AcDbEntity
  8
SUNPOU
370
    -2
100
AcDbBlockReference
  2
_OPEN
 10
289.9765862553255
 20
174.1715255498236
 30
0.0
 41
3.0
 42
3.0
 43
3.0
 50
206.5650511731359
  0
INSERT
  5
2CC6
330
2C31
100
AcDbEntity
  8
SUNPOU
370
    -2
100
AcDbBlockReference
  2
_OPEN
 10
324.8592467053255
 20
191.6128557718236
 30
0.0
 41
3.0
 42
3.0
 43
3.0
 50
26.56505117313593
  0
MTEXT
  5
2CC7
330
2C31
100
AcDbEntity
  8
SUNPOU
100
AcDbMText
 10
306.2998824917295
 20
185.1282586384003
 30
0.0
 40
3.0
 41
0.0
 71
     5
 72
     1
  1
\A1;39
 11
0.8944271910306851
 21
0.4472135954384195
 31
0.0
 73
     1
 44
1.0
  0
POINT
  5
2CC8
330
2C31
100
AcDbEntity
  8
DEFPOINTS
 62
     0
100
AcDbPoint
 10
304.711580610975
 20
144.7015368334556
 30
0.0
  0
POINT
  5
2CC9
330
2C31
100
AcDbEntity
  8
DEFPOINTS
 62
     0
100
AcDbPoint
 10
339.594241060975
 20
162.1428670554555
 30
0.0
  0
POINT
  5
2CCA
330
2C31
100
AcDbEntity
  8
DEFPOINTS
 62
     0
100
AcDbPoint
 10
324.8592467053255
 20
191.6128557718236
 30
0.0
  0
ENDBLK
  5
2C3C
330
2C31
100
AcDbEntity
  8
0
100
AcDbBlockEnd
  0
BLOCK
  5
2C47
330
2C3D
100
AcDbEntity
  8
0
100
AcDbBlockBegin
  2
*D15
 70
     1
 71
     0
 10
0.0
 20
0.0
 30
0.0
  3
*D15
  1

  0
LINE
  5
2CCB
330
2C3D
100
AcDbEntity
  8
SUNPOU
370
    -2
100
AcDbLine
 10
298.7412791070562
 20
153.2880378709339
 30
0.0
 11
284.142943074404
 21
182.4847099144764
 31
0.0
  0
LINE
  5
2CCC
330
2C3D
100
AcDbEntity
  8
SUNPOU
370
    -2
100
AcDbLine
 10
336.3072211070563
 20
172.0710088849339
 30
0.0
 11
321.7088850744041
 21
201.2676809284765
 31
0.0
  0
LINE
  5
2CCD
330
2C3D
100
AcDbEntity
  8
SUNPOU
370
    -2
100
AcDbLine
 10
287.4970450406536
 20
182.4847099154765
 30
0.0
 11
319.6964238954543
 21
198.5843993548768
 31
0.0
  0
INSERT
  5
2CCE
330
2C3D
100
AcDbEntity
  8
SUNPOU
370
    -2
100
AcDbBlockReference
  2
_OPEN
 10
284.8137634680539
 20
181.1430691281766
 30
0.0
 41
3.0
 42
3.0
 43
3.0
 50
206.5650511941603
  0
INSERT
  5
2CCF
330
2C3D
100
AcDbEntity
  8
SUNPOU
370
    -2
100
AcDbBlockReference
  2
_OPEN
 10
322.379705468054
 20
199.9260401421766
 30
0.0
 41
3.0
 42
3.0
 43
3.0
 50
26.56505119416025
  0
MTEXT
  5
2CD0
330
2C3D
100
AcDbEntity
  8
SUNPOU
100
AcDbMText
 10
302.4787004786374
 20
192.7706226123431
 30
0.0
 40
3.0
 41
0.0
 71
     5
 72
     1
  1
\A1;42
 11
0.8944271908665828
 21
0.4472135957666241
 31
0.0
 73
     1
 44
1.0
  0
POINT
  5
2CD1
330
2C3D
100
AcDbEntity
  8
DEFPOINTS
 62
     0
100
AcDbPoint
 10
300.0829198943561
 20
150.6047562983341
 30
0.0
  0
POINT
  5
2CD2
330
2C3D
100
AcDbEntity
  8
DEFPOINTS
 62
     0
100
AcDbPoint
 10
337.6488618943562
 20
169.3877273123342
 30
0.0
  0
POINT
  5
2CD3
330
2C3D
100
AcDbEntity
  8
DEFPOINTS
 62
     0
100
AcDbPoint
 10
322.379705468054
 20
199.9260401421766
 30
0.0
  0
ENDBLK
  5
2C48
330
2C3D
100
AcDbEntity
  8
0
100
AcDbBlockEnd
  0
ENDSEC
  0
SECTION
  2
ENTITIES
  0
LWPOLYLINE
  5
ABF
330
1A
100
AcDbEntity
  8
ZUWAKU
100
AcDbPolyline
 90
        4
 70
     1
 43
0.0
 10
0.3999995171010369
 20
275.3999999613564
 10
0.3999995171010369
 20
0.3999999613564
 10
398.399999517101
 20
0.3999999613564
 10
398.399999517101
 20
275.3999999613564
  0
LWPOLYLINE
  5
AC0
330
1A
100
AcDbEntity
  8
ZUWAKU
100
AcDbPolyline
 90
        4
 70
     1
 43
0.0
 10
0.1999995171010482
 20
275.5999999613564
 10
0.1999995171010482
 20
0.1999999613564114
 10
398.5999995171011
 20
0.1999999613563999
 10
398.5999995171011
 20
275.5999999613564
  0
LWPOLYLINE
  5
AC1
330
1A
100
AcDbEntity
  8
ZUWAKU
100
AcDbPolyline
 90
        4
 70
     1
 43
0.0
 10
-0.0000004828989404
 20
275.7999999613564
 10
-0.0000004828989404
 20
-0.0000000386436341
 10
398.7999995171011
 20
-0.0000000386436003
 10
398.7999995171011
 20
275.7999999613564
  0
LWPOLYLINE
  5
AC2
330
1A
100
AcDbEntity
  8
ZUWAKU
100
AcDbPolyline
 90
        4
 70
     1
 43
0.0
 10
0.2999995171010141
 20
275.4999999613564
 10
0.2999995171010141
 20
0.2999999613563773
 10
398.4999995171012
 20
0.2999999613564004
 10
398.4999995171011
 20
275.4999999613564
  0
LWPOLYLINE
  5
AC3
330
1A
100
AcDbEntity
  8
ZUWAKU
100
AcDbPolyline
 90
        4
 70
     1
 43
0.0
 10
0.0999995171010255
 20
275.6999999613564
 10
0.0999995171010255
 20
0.0999999613563887
 10
398.699999517101
 20
0.0999999613564002
 10
398.6999995171011
 20
275.6999999613564
  0
LINE
  5
AC4
330
1A
100
AcDbEntity
  8
ZUWAKU
100
AcDbLine
 10
-0.0000004828989404
 20
14.99999996135637
 30
0.0
 11
398.699999517101
 21
14.99999996135637
 31
0.0
  0
LINE
  5
AC5
330
1A
100
AcDbEntity
  8
ZUWAKU
100
AcDbLine
 10
-0.0000004828989404
 20
15.09999996135637
 30
0.0
 11
398.699999517101
 21
15.09999996135637
 31
0.0
  0
LINE
  5
AC6
330
1A
100
AcDbEntity
  8
ZUWAKU
100
AcDbLine
 10
-0.0000004828989404
 20
15.19999996135637
 30
0.0
 11
398.699999517101
 21
15.19999996135637
 31
0.0
  0
LINE
  5
AC7
330
1A
100
AcDbEntity
  8
ZUWAKU
100
AcDbLine
 10
-0.0000004828989404
 20
15.29999996135637
 30
0.0
 11
398.699999517101
 21
15.29999996135637
 31
0.0
  0
LINE
  5
AC8
330
1A
100
AcDbEntity
  8
ZUWAKU
100
AcDbLine
 10
-0.0000004828989404
 20
15.39999996135637
 30
0.0
 11
398.699999517101
 21
15.39999996135637
 31
0.0
  0
LINE
  5
AC9
330
1A
100
AcDbEntity
  8
ZUWAKU
100
AcDbLine
 10
104.3233001621351
 20
7.699999961356383
 30
0.0
 11
223.7121815025968
 21
7.699999961356383
 31
0.0
  0
LINE
  5
ACA
330
1A
100
AcDbEntity
  8
ZUWAKU
100
AcDbLine
 10
104.3233001621351
 20
7.799999961356383
 30
0.0
 11
223.7121815025968
 21
7.799999961356386
 31
0.0
  0
LINE
  5
ACB
330
1A
100
AcDbEntity
  8
ZUWAKU
100
AcDbLine
 10
104.3233001621351
 20
7.599999961356385
 30
0.0
 11
223.7121815025968
 21
7.599999961356382
 31
0.0
  0
TEXT
  5
ACC
330
1A
100
AcDbEntity
  8
moji
100
AcDbText
 10
46.47889431118563
 20
6.370589026493747
 30
0.0
 40
3.0
  1
アーバントップΣ９０
 41
0.9
  7
ｽﾀｲﾙ1
100
AcDbText
  0
CIRCLE
  5
ACD
330
1A
100
AcDbEntity
  8
ZUWAKU
100
AcDbCircle
 10
12.99610559449161
 20
7.599999961356367
 30
0.0
 40
0.875
  0
LINE
  5
ACE
330
1A
100
AcDbEntity
  8
ZUWAKU
100
AcDbLine
 10
13.43360559449161
 20
3.574999961356369
 30
0.0
 11
12.47110559449163
 21
3.574999961356369
 31
0.0
  0
LINE
  5
ACF
330
1A
100
AcDbEntity
  8
ZUWAKU
100
AcDbLine
 10
12.47110559449163
 20
4.974999961356367
 30
0.0
 11
13.43360559449161
 21
4.974999961356367
 31
0.0
  0
LINE
  5
AD0
330
1A
100
AcDbEntity
  8
ZUWAKU
100
AcDbLine
 10
13.43360559449161
 20
10.22499996135637
 30
0.0
 11
12.47110559449163
 21
10.22499996135637
 31
0.0
  0
LINE
  5
AD1
330
1A
100
AcDbEntity
  8
ZUWAKU
100
AcDbLine
 10
12.47110559449163
 20
11.62499996135635
 30
0.0
 11
13.43360559449161
 21
11.62499996135637
 31
0.0
  0
HATCH
  5
AD2
330
1A
100
AcDbEntity
  8
ZUWAKU
100
AcDbHatch
 10
0.0
 20
0.0
 30
0.0
210
0.0
220
0.0
230
1.0
  2
ANSI37
 70
     0
 71
     0
 91
        8
 92
        7
 72
     1
 73
     1
 93
       24
 10
7.251130847660988
 20
8.822424201848158
 42
-0.1989123673796348
 10
7.046105594491621
 20
9.317398948678683
 42
0.0
 10
7.046105594491621
 20
9.962499961356372
 42
-0.4142135623730912
 10
7.30860559449161
 20
10.22499996135637
 42
0.0
 10
8.796105594491564
 20
10.22499996135637
 42
0.4142135623731546
 10
9.05860559449161
 20
10.48749996135636
 42
0.0
 10
9.05860559449161
 20
11.36249996135637
 42
0.4142135623731586
 10
8.796105594491564
 20
11.62499996135637
 42
0.0
 10
7.046105594491621
 20
11.62499996135637
 42
0.4142135623730928
 10
5.646105594491644
 20
10.22499996135638
 42
0.0
 10
5.646105594491644
 20
9.317398948678747
 42
0.1989123673796619
 10
6.261181353999859
 20
7.832474708186943
 42
0.0
 10
7.716080341322197
 20
6.377575720864614
 42
-0.1989123673796613
 10
7.921105594491621
 20
5.882600974034022
 42
0.0
 10
7.921105594491621
 20
5.237499961356363
 42
-0.4142135623730911
 10
7.658605594491633
 20
4.974999961356367
 42
0.0
 10
6.171105594491678
 20
4.974999961356367
 42
0.4142135623731526
 10
5.908605594491633
 20
4.712499961356373
 42
0.0
 10
5.908605594491633
 20
3.837499961356363
 42
0.4142135623731526
 10
6.171105594491678
 20
3.574999961356369
 42
0.0
 10
7.921105594491621
 20
3.574999961356369
 42
0.4142135623731044
 10
9.321105594491655
 20
4.974999961356357
 42
0.0
 10
9.321105594491655
 20
5.882600974033993
 42
0.1989123673796604
 10
8.706029834983383
 20
7.367525214525763
 42
0.0
 97
        0
 92
        7
 72
     1
 73
     1
 93
       16
 10
11.77110559449164
 20
9.524999961356372
 42
-0.4142135623730935
 10
12.47110559449163
 20
10.22499996135637
 42
0.0
 10
13.43360559449161
 20
10.22499996135637
 42
0.4142135623731546
 10
13.69610559449166
 20
10.48749996135636
 42
0.0
 10
13.69610559449166
 20
11.36249996135637
 42
0.4142135623730952
 10
13.43360559449167
 20
11.62499996135637
 42
0.0
 10
12.47110559449158
 20
11.62499996135635
 42
0.4142135623730892
 10
10.37110559449161
 20
9.524999961356336
 42
0.0
 10
10.37110559449161
 20
5.674999961356381
 42
0.4142135623730969
 10
12.47110559449163
 20
3.574999961356369
 42
0.0
 10
13.43360559449161
 20
3.574999961356369
 42
0.4142135623731526
 10
13.69610559449166
 20
3.837499961356363
 42
0.0
 10
13.69610559449166
 20
4.712499961356373
 42
0.414213562373089
 10
13.43360559449167
 20
4.974999961356367
 42
0.0
 10
12.47110559449163
 20
4.974999961356367
 42
-0.4142135623730928
 10
11.77110559449164
 20
5.674999961356361
 42
0.0
 97
        0
 92
        7
 72
     1
 73
     1
 93
        2
 10
12.12110559449161
 20
7.599999961356367
 42
1.0
 10
13.87110559449161
 20
7.599999961356367
 42
1.0
 97
        0
 92
        7
 72
     1
 73
     1
 93
       26
 10
18.65742883558062
 20
9.602523558138081
 42
0.0
 10
19.18824865214953
 20
11.28345297727288
 42
0.5069206636600134
 10
18.93793320255185
 20
11.62499996135637
 42
0.0
 10
18.08848851274723
 20
11.62499996135637
 42
0.3272098845218764
 10
17.83817306314955
 20
11.44154694543985
 42
0.0
 10
16.90403812583367
 20
8.483452977272908
 42
-0.3272098845219541
 10
16.65372267623593
 20
8.299999961356367
 42
0.0
 10
16.5836055944917
 20
8.299999961356367
 42
-0.4142135623731526
 10
16.32110559449166
 20
8.562499961356361
 42
0.0
 10
16.32110559449166
 20
11.36249996135637
 42
0.4142135623730952
 10
16.05860559449167
 20
11.62499996135637
 42
0.0
 10
15.18360559449161
 20
11.62499996135637
 42
0.4142135623730872
 10
14.92110559449162
 20
11.36249996135638
 42
0.0
 10
14.92110559449162
 20
3.837499961356363
 42
0.414213562373089
 10
15.18360559449161
 20
3.574999961356369
 42
0.0
 10
16.05860559449161
 20
3.574999961356369
 42
0.4142135623731526
 10
16.32110559449166
 20
3.837499961356363
 42
0.0
 10
16.32110559449166
 20
6.637499961356374
 42
-0.4142135623731526
 10
16.5836055944917
 20
6.899999961356368
 42
0.0
 10
16.65372267623599
 20
6.899999961356368
 42
-0.3272098845218915
 10
16.90403812583367
 20
6.716546945439831
 42
0.0
 10
17.83817306314955
 20
3.758452977272905
 42
0.3272098845218902
 10
18.08848851274723
 20
3.574999961356369
 42
0.0
 10
18.93793320255185
 20
3.574999961356369
 42
0.5069206636600334
 10
19.18824865214953
 20
3.916546945439873
 42
0.0
 10
18.0250529629127
 20
7.599999961356437
 42
0.0
 97
        0
 92
        7
 72
     1
 73
     1
 93
        8
 10
21.74610559449161
 20
11.36249996135637
 42
0.4142135623731546
 10
21.48360559449156
 20
11.62499996135637
 42
0.0
 10
20.60860559449168
 20
11.62499996135637
 42
0.4142135623731506
 10
20.34610559449163
 20
11.36249996135638
 42
0.0
 10
20.34610559449163
 20
3.837499961356363
 42
0.4142135623731526
 10
20.60860559449168
 20
3.574999961356369
 42
0.0
 10
21.48360559449156
 20
3.574999961356369
 42
0.4142135623731526
 10
21.74610559449161
 20
3.837499961356363
 42
0.0
 97
        0
 92
        7
 72
     1
 73
     1
 93
       24
 10
24.19610559449166
 20
9.962499961356372
 42
-0.4142135623731547
 10
24.4586055944917
 20
10.22499996135637
 42
0.0
 10
25.94610559449166
 20
10.22499996135637
 42
0.4142135623730911
 10
26.20860559449164
 20
10.48749996135636
 42
0.0
 10
26.20860559449164
 20
11.36249996135637
 42
0.4142135623730952
 10
25.94610559449166
 20
11.62499996135637
 42
0.0
 10
24.19610559449166
 20
11.62499996135637
 42
0.4142135623731048
 10
22.79610559449162
 20
10.22499996135638
 42
0.0
 10
22.79610559449162
 20
9.317398948678747
 42
0.1989123673796613
 10
23.41118135399989
 20
7.832474708186972
 42
0.0
 10
24.86608034132223
 20
6.377575720864638
 42
-0.1989123673796402
 10
25.07110559449166
 20
5.882600974034101
 42
0.0
 10
25.07110559449166
 20
5.237499961356363
 42
-0.4142135623730911
 10
24.80860559449167
 20
4.974999961356367
 42
0.0
 10
23.32110559449166
 20
4.974999961356367
 42
0.4142135623731526
 10
23.05860559449161
 20
4.712499961356373
 42
0.0
 10
23.05860559449161
 20
3.837499961356363
 42
0.414213562373089
 10
23.3211055944916
 20
3.574999961356369
 42
0.0
 10
25.07110559449166
 20
3.574999961356369
 42
0.4142135623730925
 10
26.47110559449163
 20
4.974999961356357
 42
0.0
 10
26.47110559449163
 20
5.882600974033993
 42
0.1989123673796675
 10
25.85602983498336
 20
7.36752521452582
 42
0.0
 10
24.40113084766108
 20
8.822424201848078
 42
-0.1989123673796653
 10
24.19610559449166
 20
9.317398948678662
 42
0.0
 97
        0
 92
        7
 72
     1
 73
     1
 93
       16
 10
28.92110559449162
 20
11.36249996135636
 42
0.414213562373103
 10
28.65860559449163
 20
11.62499996135637
 42
0.0
 10
27.78360559449163
 20
11.62499996135637
 42
0.4142135623730872
 10
27.52110559449164
 20
11.36249996135638
 42
0.0
 10
27.52110559449164
 20
4.974999961356357
 42
0.4142135623730925
 10
28.92110559449162
 20
3.574999961356369
 42
0.0
 10
30.67110559449162
 20
3.574999961356369
 42
0.4142135623731044
 10
32.07110559449166
 20
4.974999961356357
 42
0.0
 10
32.07110559449166
 20
11.36249996135637
 42
0.4142135623730952
 10
31.80860559449167
 20
11.62499996135637
 42
0.0
 10
30.93360559449161
 20
11.62499996135637
 42
0.4142135623730872
 10
30.67110559449162
 20
11.36249996135638
 42
0.0
 10
30.67110559449162
 20
5.499999961356355
 42
-0.414213562373088
 10
30.14610559449164
 20
4.974999961356367
 42
0.0
 10
29.44610559449166
 20
4.974999961356367
 42
-0.4142135623731197
 10
28.92110559449162
 20
5.499999961356355
 42
0.0
 97
        0
 92
        7
 72
     1
 73
     1
 93
        8
 10
34.52110559449164
 20
11.36249996135638
 42
0.4142135623730872
 10
34.25860559449166
 20
11.62499996135637
 42
0.0
 10
33.38360559449166
 20
11.62499996135637
 42
0.4142135623731506
 10
33.12110559449161
 20
11.36249996135638
 42
0.0
 10
33.12110559449161
 20
3.837499961356363
 42
0.414213562373089
 10
33.3836055944916
 20
3.574999961356369
 42
0.0
 10
34.25860559449166
 20
3.574999961356369
 42
0.414213562373089
 10
34.52110559449164
 20
3.837499961356363
 42
0.0
 97
        0
 75
     0
 76
     1
 52
0.0
 41
0.1
 77
     0
 78
     2
 53
45.0
 43
-450.4711526502384
 44
-6.6000000386436
 45
-0.2245064030267288
 46
0.2245064030267289
 79
     0
 53
135.0
 43
-450.4711526502384
 44
-6.6000000386436
 45
-0.2245064030267289
 46
-0.2245064030267288
 79
     0
 47
0.057451373970553
 98
        8
 10
8.039926998612714
 20
7.583586784299143
 10
11.20225702032064
 20
9.422031052581872
 10
12.58218345993089
 20
7.755940784391726
 10
15.45702950791963
 20
8.100648784577118
 10
20.91923552657943
 20
8.330454918347925
 10
23.44909996466583
 20
9.709288119559972
 10
28.27884250330124
 20
9.364578918903874
 10
33.91353932691243
 20
9.594385052674681
  0
ARC
  5
AD3
330
1A
100
AcDbEntity
  8
ZUWAKU
100
AcDbCircle
 10
7.74610559449161
 20
9.317398948678719
 30
0.0
 40
2.1
100
AcDbArc
 50
180.0
 51
225.0
  0
LINE
  5
AD4
330
1A
100
AcDbEntity
  8
ZUWAKU
100
AcDbLine
 10
10.37110559449161
 20
5.67499996135637
 30
0.0
 11
10.37110559449161
 21
9.524999961356347
 31
0.0
  0
LINE
  5
AD5
330
1A
100
AcDbEntity
  8
ZUWAKU
100
AcDbLine
 10
11.77110559449164
 20
9.524999961356368
 30
0.0
 11
11.77110559449164
 21
5.67499996135637
 31
0.0
  0
ARC
  5
AD6
330
1A
100
AcDbEntity
  8
ZUWAKU
100
AcDbCircle
 10
7.74610559449161
 20
9.317398948678719
 30
0.0
 40
0.7
100
AcDbArc
 50
180.0000000000016
 51
224.9999999999988
  0
ARC
  5
AD7
330
1A
100
AcDbEntity
  8
ZUWAKU
100
AcDbCircle
 10
12.47110559449163
 20
5.67499996135637
 30
0.0
 40
2.1
100
AcDbArc
 50
180.0
 51
270.0
  0
ARC
  5
AD8
330
1A
100
AcDbEntity
  8
ZUWAKU
100
AcDbCircle
 10
7.921105594491621
 20
4.974999961356367
 30
0.0
 40
1.4
100
AcDbArc
 50
270.0
 51
0.0
  0
ARC
  5
AD9
330
1A
100
AcDbEntity
  8
ZUWAKU
100
AcDbCircle
 10
7.221105594491633
 20
5.88260097403402
 30
0.0
 40
2.1
100
AcDbArc
 50
0.0
 51
45.0
  0
LINE
  5
ADA
330
1A
100
AcDbEntity
  8
ZUWAKU
100
AcDbLine
 10
6.261181353999859
 20
7.832474708186958
 30
0.0
 11
7.716080341322197
 21
6.377575720864627
 31
0.0
  0
LINE
  5
ADB
330
1A
100
AcDbEntity
  8
ZUWAKU
100
AcDbLine
 10
6.171105594491621
 20
4.974999961356367
 30
0.0
 11
7.658605594491633
 21
4.974999961356367
 31
0.0
  0
LINE
  5
ADC
330
1A
100
AcDbEntity
  8
ZUWAKU
100
AcDbLine
 10
6.171105594491621
 20
3.574999961356369
 30
0.0
 11
7.921105594491621
 21
3.574999961356369
 31
0.0
  0
ARC
  5
ADD
330
1A
100
AcDbEntity
  8
ZUWAKU
100
AcDbCircle
 10
6.171105594491621
 20
4.712499961356368
 30
0.0
 40
0.2625
100
AcDbArc
 50
90.0
 51
180.0
  0
ARC
  5
ADE
330
1A
100
AcDbEntity
  8
ZUWAKU
100
AcDbCircle
 10
6.171105594491621
 20
3.837499961356368
 30
0.0
 40
0.2625
100
AcDbArc
 50
180.0
 51
270.0
  0
LINE
  5
ADF
330
1A
100
AcDbEntity
  8
ZUWAKU
100
AcDbLine
 10
5.908605594491633
 20
3.837499961356368
 30
0.0
 11
5.908605594491633
 21
4.712499961356368
 31
0.0
  0
ARC
  5
AE0
330
1A
100
AcDbEntity
  8
ZUWAKU
100
AcDbCircle
 10
7.221105594491633
 20
5.882600974034041
 30
0.0
 40
0.7
100
AcDbArc
 50
0.0
 51
45.0
  0
ARC
  5
AE1
330
1A
100
AcDbEntity
  8
ZUWAKU
100
AcDbCircle
 10
7.658605594491633
 20
5.23749996135637
 30
0.0
 40
0.2625
100
AcDbArc
 50
270.0
 51
0.0
  0
LINE
  5
AE2
330
1A
100
AcDbEntity
  8
ZUWAKU
100
AcDbLine
 10
7.921105594491621
 20
5.23749996135637
 30
0.0
 11
7.921105594491621
 21
5.882600974034041
 31
0.0
  0
LINE
  5
AE3
330
1A
100
AcDbEntity
  8
ZUWAKU
100
AcDbLine
 10
8.706029834983383
 20
7.367525214525781
 30
0.0
 11
7.251130847661045
 21
8.822424201848119
 31
0.0
  0
ARC
  5
AE4
330
1A
100
AcDbEntity
  8
ZUWAKU
100
AcDbCircle
 10
12.47110559449163
 20
5.67499996135637
 30
0.0
 40
0.7
100
AcDbArc
 50
180.0
 51
270.0
  0
LINE
  5
AE5
330
1A
100
AcDbEntity
  8
ZUWAKU
100
AcDbLine
 10
9.321105594491655
 20
4.974999961356367
 30
0.0
 11
9.321105594491655
 21
5.882600974034041
 31
0.0
  0
ARC
  5
AE6
330
1A
100
AcDbEntity
  8
ZUWAKU
100
AcDbCircle
 10
8.796105594491621
 20
10.48749996135637
 30
0.0
 40
0.2625
100
AcDbArc
 50
270.0
 51
0.0
  0
ARC
  5
AE7
330
1A
100
AcDbEntity
  8
ZUWAKU
100
AcDbCircle
 10
8.796105594491621
 20
11.36249996135637
 30
0.0
 40
0.2625
100
AcDbArc
 50
0.0
 51
90.0
  0
ARC
  5
AE8
330
1A
100
AcDbEntity
  8
ZUWAKU
100
AcDbCircle
 10
7.046105594491621
 20
10.22499996135637
 30
0.0
 40
1.4
100
AcDbArc
 50
90.0
 51
180.0
  0
LINE
  5
AE9
330
1A
100
AcDbEntity
  8
ZUWAKU
100
AcDbLine
 10
5.646105594491644
 20
10.22499996135637
 30
0.0
 11
5.646105594491644
 21
9.317398948678697
 31
0.0
  0
LINE
  5
AEA
330
1A
100
AcDbEntity
  8
ZUWAKU
100
AcDbLine
 10
8.796105594491621
 20
10.22499996135637
 30
0.0
 11
7.30860559449161
 21
10.22499996135637
 31
0.0
  0
LINE
  5
AEB
330
1A
100
AcDbEntity
  8
ZUWAKU
100
AcDbLine
 10
7.046105594491621
 20
9.962499961356368
 30
0.0
 11
7.046105594491621
 21
9.317398948678697
 31
0.0
  0
ARC
  5
AEC
330
1A
100
AcDbEntity
  8
ZUWAKU
100
AcDbCircle
 10
7.30860559449161
 20
9.962499961356368
 30
0.0
 40
0.2625
100
AcDbArc
 50
90.0
 51
180.0
  0
LINE
  5
AED
330
1A
100
AcDbEntity
  8
ZUWAKU
100
AcDbLine
 10
7.046105594491621
 20
11.62499996135637
 30
0.0
 11
8.796105594491621
 21
11.62499996135637
 31
0.0
  0
ARC
  5
AEE
330
1A
100
AcDbEntity
  8
ZUWAKU
100
AcDbCircle
 10
12.47110559449163
 20
9.524999961356347
 30
0.0
 40
2.1
100
AcDbArc
 50
90.0
 51
180.0
  0
ARC
  5
AEF
330
1A
100
AcDbEntity
  8
ZUWAKU
100
AcDbCircle
 10
12.47110559449163
 20
9.524999961356368
 30
0.0
 40
0.7
100
AcDbArc
 50
90.0
 51
180.0
  0
LINE
  5
AF0
330
1A
100
AcDbEntity
  8
ZUWAKU
100
AcDbLine
 10
9.05860559449161
 20
11.36249996135637
 30
0.0
 11
9.05860559449161
 21
10.48749996135637
 31
0.0
  0
LINE
  5
AF1
330
1A
100
AcDbEntity
  8
ZUWAKU
100
AcDbLine
 10
17.83817306314955
 20
11.44154694543985
 30
0.0
 11
16.90403812583367
 21
8.483452977272883
 31
0.0
  0
LINE
  5
AF2
330
1A
100
AcDbEntity
  8
ZUWAKU
100
AcDbLine
 10
14.92110559449162
 20
11.36249996135637
 30
0.0
 11
14.92110559449162
 21
3.837499961356368
 31
0.0
  0
LINE
  5
AF3
330
1A
100
AcDbEntity
  8
ZUWAKU
100
AcDbLine
 10
16.32110559449166
 20
8.56249996135637
 30
0.0
 11
16.32110559449166
 21
11.36249996135637
 31
0.0
  0
LINE
  5
AF4
330
1A
100
AcDbEntity
  8
ZUWAKU
100
AcDbLine
 10
28.92110559449162
 20
5.499999961356366
 30
0.0
 11
28.92110559449162
 21
11.36249996135637
 31
0.0
  0
LINE
  5
AF5
330
1A
100
AcDbEntity
  8
ZUWAKU
100
AcDbLine
 10
27.52110559449164
 20
11.36249996135637
 30
0.0
 11
27.52110559449164
 21
4.974999961356367
 31
0.0
  0
LINE
  5
AF6
330
1A
100
AcDbEntity
  8
ZUWAKU
100
AcDbLine
 10
21.74610559449161
 20
3.837499961356368
 30
0.0
 11
21.74610559449161
 21
11.36249996135637
 31
0.0
  0
LINE
  5
AF7
330
1A
100
AcDbEntity
  8
ZUWAKU
100
AcDbLine
 10
20.34610559449163
 20
11.36249996135637
 30
0.0
 11
20.34610559449163
 21
3.837499961356368
 31
0.0
  0
LINE
  5
AF8
330
1A
100
AcDbEntity
  8
ZUWAKU
100
AcDbLine
 10
18.65742883558062
 20
9.602523558138081
 30
0.0
 11
18.0250529629127
 21
7.599999961356378
 31
0.0
  0
ARC
  5
AF9
330
1A
100
AcDbEntity
  8
ZUWAKU
100
AcDbCircle
 10
24.89610559449164
 20
9.317398948678719
 30
0.0
 40
2.1
100
AcDbArc
 50
180.0
 51
225.0
  0
ARC
  5
AFA
330
1A
100
AcDbEntity
  8
ZUWAKU
100
AcDbCircle
 10
24.89610559449164
 20
9.317398948678719
 30
0.0
 40
0.7
100
AcDbArc
 50
180.0000000000016
 51
224.9999999999988
  0
LINE
  5
AFB
330
1A
100
AcDbEntity
  8
ZUWAKU
100
AcDbLine
 10
33.12110559449161
 20
11.36249996135637
 30
0.0
 11
33.12110559449161
 21
3.837499961356368
 31
0.0
  0
LINE
  5
AFC
330
1A
100
AcDbEntity
  8
ZUWAKU
100
AcDbLine
 10
34.52110559449164
 20
3.837499961356368
 30
0.0
 11
34.52110559449164
 21
11.36249996135637
 31
0.0
  0
LINE
  5
AFD
330
1A
100
AcDbEntity
  8
ZUWAKU
100
AcDbLine
 10
30.67110559449162
 20
11.36249996135637
 30
0.0
 11
30.67110559449162
 21
5.499999961356366
 31
0.0
  0
LINE
  5
AFE
330
1A
100
AcDbEntity
  8
ZUWAKU
100
AcDbLine
 10
32.07110559449166
 20
4.974999961356367
 30
0.0
 11
32.07110559449166
 21
11.36249996135637
 31
0.0
  0
LINE
  5
AFF
330
1A
100
AcDbEntity
  8
ZUWAKU
100
AcDbLine
 10
39.56331429109525
 20
14.99999996135637
 30
0.0
 11
39.56331429109525
 21
0.3999999613564
 31
0.0
  0
LINE
  5
B00
330
1A
100
AcDbEntity
  8
ZUWAKU
100
AcDbLine
 10
39.76331429109519
 20
14.99999996135637
 30
0.0
 11
39.7633142910953
 21
0.3999999613564
 31
0.0
  0
LINE
  5
B01
330
1A
100
AcDbEntity
  8
ZUWAKU
100
AcDbLine
 10
39.66331429109516
 20
14.99999996135637
 30
0.0
 11
39.66331429109528
 21
0.3999999613564
 31
0.0
  0
LINE
  5
B02
330
1A
100
AcDbEntity
  8
ZUWAKU
100
AcDbLine
 10
28.92110559449162
 20
3.574999961356369
 30
0.0
 11
30.67110559449162
 21
3.574999961356369
 31
0.0
  0
LINE
  5
B03
330
1A
100
AcDbEntity
  8
ZUWAKU
100
AcDbLine
 10
30.14610559449164
 20
4.974999961356367
 30
0.0
 11
29.44610559449166
 21
4.974999961356367
 31
0.0
  0
LINE
  5
B04
330
1A
100
AcDbEntity
  8
ZUWAKU
100
AcDbLine
 10
20.60860559449162
 20
3.574999961356369
 30
0.0
 11
21.48360559449162
 21
3.574999961356369
 31
0.0
  0
LINE
  5
B05
330
1A
100
AcDbEntity
  8
ZUWAKU
100
AcDbLine
 10
17.83817306314955
 20
3.758452977272881
 30
0.0
 11
16.90403812583367
 21
6.716546945439852
 31
0.0
  0
ARC
  5
B06
330
1A
100
AcDbEntity
  8
ZUWAKU
100
AcDbCircle
 10
16.58360559449164
 20
6.637499961356369
 30
0.0
 40
0.2625
100
AcDbArc
 50
90.0
 51
180.0
  0
ARC
  5
B07
330
1A
100
AcDbEntity
  8
ZUWAKU
100
AcDbCircle
 10
16.65372267623599
 20
6.637499961356369
 30
0.0
 40
0.2625
100
AcDbArc
 50
17.52556837372303
 51
90.0
  0
ARC
  5
B08
330
1A
100
AcDbEntity
  8
ZUWAKU
100
AcDbCircle
 10
15.18360559449161
 20
3.837499961356368
 30
0.0
 40
0.2625
100
AcDbArc
 50
180.0
 51
270.0
  0
ARC
  5
B09
330
1A
100
AcDbEntity
  8
ZUWAKU
100
AcDbCircle
 10
13.43360559449161
 20
4.712499961356368
 30
0.0
 40
0.2625
100
AcDbArc
 50
0.0
 51
90.0
  0
ARC
  5
B0A
330
1A
100
AcDbEntity
  8
ZUWAKU
100
AcDbCircle
 10
13.43360559449161
 20
3.837499961356368
 30
0.0
 40
0.2625
100
AcDbArc
 50
270.0
 51
0.0
  0
LINE
  5
B0B
330
1A
100
AcDbEntity
  8
ZUWAKU
100
AcDbLine
 10
13.69610559449166
 20
4.712499961356368
 30
0.0
 11
13.69610559449166
 21
3.837499961356368
 31
0.0
  0
LINE
  5
B0C
330
1A
100
AcDbEntity
  8
ZUWAKU
100
AcDbLine
 10
16.32110559449166
 20
3.837499961356368
 30
0.0
 11
16.32110559449166
 21
6.637499961356369
 31
0.0
  0
ARC
  5
B0D
330
1A
100
AcDbEntity
  8
ZUWAKU
100
AcDbCircle
 10
16.05860559449161
 20
3.837499961356368
 30
0.0
 40
0.2625
100
AcDbArc
 50
270.0
 51
0.0
  0
LINE
  5
B0E
330
1A
100
AcDbEntity
  8
ZUWAKU
100
AcDbLine
 10
15.18360559449161
 20
3.574999961356369
 30
0.0
 11
16.05860559449161
 21
3.574999961356369
 31
0.0
  0
ARC
  5
B0F
330
1A
100
AcDbEntity
  8
ZUWAKU
100
AcDbCircle
 10
16.58360559449164
 20
8.56249996135637
 30
0.0
 40
0.2625
100
AcDbArc
 50
180.0
 51
270.0
  0
LINE
  5
B10
330
1A
100
AcDbEntity
  8
ZUWAKU
100
AcDbLine
 10
16.58360559449164
 20
6.899999961356368
 30
0.0
 11
16.65372267623599
 21
6.899999961356368
 31
0.0
  0
LINE
  5
B11
330
1A
100
AcDbEntity
  8
ZUWAKU
100
AcDbLine
 10
16.65372267623599
 20
8.299999961356367
 30
0.0
 11
16.58360559449164
 21
8.299999961356367
 31
0.0
  0
ARC
  5
B12
330
1A
100
AcDbEntity
  8
ZUWAKU
100
AcDbCircle
 10
16.65372267623599
 20
8.56249996135637
 30
0.0
 40
0.2625
100
AcDbArc
 50
270.0
 51
342.474431626277
  0
ARC
  5
B13
330
1A
100
AcDbEntity
  8
ZUWAKU
100
AcDbCircle
 10
18.08848851274729
 20
3.837499961356368
 30
0.0
 40
0.2625
100
AcDbArc
 50
197.525568373723
 51
270.0
  0
LINE
  5
B14
330
1A
100
AcDbEntity
  8
ZUWAKU
100
AcDbLine
 10
19.18824865214953
 20
3.916546945439855
 30
0.0
 11
18.0250529629127
 21
7.599999961356378
 31
0.0
  0
ARC
  5
B15
330
1A
100
AcDbEntity
  8
ZUWAKU
100
AcDbCircle
 10
18.93793320255179
 20
3.837499961356368
 30
0.0
 40
0.2625
100
AcDbArc
 50
270.0
 51
17.52556837372303
  0
LINE
  5
B16
330
1A
100
AcDbEntity
  8
ZUWAKU
100
AcDbLine
 10
18.08848851274729
 20
3.574999961356369
 30
0.0
 11
18.93793320255179
 21
3.574999961356369
 31
0.0
  0
ARC
  5
B17
330
1A
100
AcDbEntity
  8
ZUWAKU
100
AcDbCircle
 10
20.60860559449162
 20
3.837499961356368
 30
0.0
 40
0.2625
100
AcDbArc
 50
180.0
 51
270.0
  0
ARC
  5
B18
330
1A
100
AcDbEntity
  8
ZUWAKU
100
AcDbCircle
 10
25.07110559449166
 20
4.974999961356367
 30
0.0
 40
1.4
100
AcDbArc
 50
270.0
 51
0.0
  0
ARC
  5
B19
330
1A
100
AcDbEntity
  8
ZUWAKU
100
AcDbCircle
 10
28.92110559449162
 20
4.974999961356367
 30
0.0
 40
1.4
100
AcDbArc
 50
180.0
 51
270.0
  0
LINE
  5
B1A
330
1A
100
AcDbEntity
  8
ZUWAKU
100
AcDbLine
 10
25.85602983498342
 20
7.367525214525781
 30
0.0
 11
24.40113084766102
 21
8.822424201848119
 31
0.0
  0
LINE
  5
B1B
330
1A
100
AcDbEntity
  8
ZUWAKU
100
AcDbLine
 10
23.41118135399989
 20
7.832474708186958
 30
0.0
 11
24.86608034132223
 21
6.377575720864627
 31
0.0
  0
LINE
  5
B1C
330
1A
100
AcDbEntity
  8
ZUWAKU
100
AcDbLine
 10
23.32110559449166
 20
3.574999961356369
 30
0.0
 11
25.07110559449166
 21
3.574999961356369
 31
0.0
  0
LINE
  5
B1D
330
1A
100
AcDbEntity
  8
ZUWAKU
100
AcDbLine
 10
23.32110559449166
 20
4.974999961356367
 30
0.0
 11
24.80860559449161
 21
4.974999961356367
 31
0.0
  0
ARC
  5
B1E
330
1A
100
AcDbEntity
  8
ZUWAKU
100
AcDbCircle
 10
23.32110559449166
 20
4.712499961356368
 30
0.0
 40
0.2625
100
AcDbArc
 50
90.0
 51
180.0
  0
ARC
  5
B1F
330
1A
100
AcDbEntity
  8
ZUWAKU
100
AcDbCircle
 10
21.48360559449162
 20
3.837499961356368
 30
0.0
 40
0.2625
100
AcDbArc
 50
270.0
 51
0.0
  0
ARC
  5
B20
330
1A
100
AcDbEntity
  8
ZUWAKU
100
AcDbCircle
 10
23.32110559449166
 20
3.837499961356368
 30
0.0
 40
0.2625
100
AcDbArc
 50
180.0
 51
270.0
  0
LINE
  5
B21
330
1A
100
AcDbEntity
  8
ZUWAKU
100
AcDbLine
 10
23.05860559449161
 20
3.837499961356368
 30
0.0
 11
23.05860559449161
 21
4.712499961356368
 31
0.0
  0
ARC
  5
B22
330
1A
100
AcDbEntity
  8
ZUWAKU
100
AcDbCircle
 10
24.80860559449161
 20
5.23749996135637
 30
0.0
 40
0.2625
100
AcDbArc
 50
270.0
 51
0.0
  0
ARC
  5
B23
330
1A
100
AcDbEntity
  8
ZUWAKU
100
AcDbCircle
 10
24.37110559449161
 20
5.882600974034041
 30
0.0
 40
0.7
100
AcDbArc
 50
0.0
 51
45.0
  0
LINE
  5
B24
330
1A
100
AcDbEntity
  8
ZUWAKU
100
AcDbLine
 10
25.07110559449166
 20
5.23749996135637
 30
0.0
 11
25.07110559449166
 21
5.882600974034041
 31
0.0
  0
ARC
  5
B25
330
1A
100
AcDbEntity
  8
ZUWAKU
100
AcDbCircle
 10
29.44610559449166
 20
5.499999961356366
 30
0.0
 40
0.5249999999999999
100
AcDbArc
 50
180.0
 51
270.0
  0
ARC
  5
B26
330
1A
100
AcDbEntity
  8
ZUWAKU
100
AcDbCircle
 10
24.37110559449161
 20
5.88260097403402
 30
0.0
 40
2.1
100
AcDbArc
 50
0.0
 51
45.0
  0
LINE
  5
B27
330
1A
100
AcDbEntity
  8
ZUWAKU
100
AcDbLine
 10
26.47110559449163
 20
4.974999961356367
 30
0.0
 11
26.47110559449163
 21
5.882600974034041
 31
0.0
  0
ARC
  5
B28
330
1A
100
AcDbEntity
  8
ZUWAKU
100
AcDbCircle
 10
30.67110559449162
 20
4.974999961356367
 30
0.0
 40
1.4
100
AcDbArc
 50
270.0
 51
0.0
  0
LINE
  5
B29
330
1A
100
AcDbEntity
  8
ZUWAKU
100
AcDbLine
 10
33.38360559449166
 20
3.574999961356369
 30
0.0
 11
34.25860559449166
 21
3.574999961356369
 31
0.0
  0
ARC
  5
B2A
330
1A
100
AcDbEntity
  8
ZUWAKU
100
AcDbCircle
 10
30.14610559449164
 20
5.499999961356366
 30
0.0
 40
0.5249999999999999
100
AcDbArc
 50
270.0
 51
0.0
  0
ARC
  5
B2B
330
1A
100
AcDbEntity
  8
ZUWAKU
100
AcDbCircle
 10
33.38360559449166
 20
3.837499961356368
 30
0.0
 40
0.2625
100
AcDbArc
 50
180.0
 51
270.0
  0
ARC
  5
B2C
330
1A
100
AcDbEntity
  8
ZUWAKU
100
AcDbCircle
 10
34.25860559449166
 20
3.837499961356368
 30
0.0
 40
0.2625
100
AcDbArc
 50
270.0
 51
0.0
  0
LINE
  5
B2D
330
1A
100
AcDbEntity
  8
ZUWAKU
100
AcDbLine
 10
21.48360559449162
 20
11.62499996135637
 30
0.0
 11
20.60860559449162
 21
11.62499996135637
 31
0.0
  0
LINE
  5
B2E
330
1A
100
AcDbEntity
  8
ZUWAKU
100
AcDbLine
 10
13.69610559449166
 20
11.36249996135637
 30
0.0
 11
13.69610559449166
 21
10.48749996135637
 31
0.0
  0
ARC
  5
B2F
330
1A
100
AcDbEntity
  8
ZUWAKU
100
AcDbCircle
 10
13.43360559449161
 20
10.48749996135637
 30
0.0
 40
0.2625
100
AcDbArc
 50
270.0
 51
0.0
  0
ARC
  5
B30
330
1A
100
AcDbEntity
  8
ZUWAKU
100
AcDbCircle
 10
15.18360559449161
 20
11.36249996135637
 30
0.0
 40
0.2625
100
AcDbArc
 50
90.0
 51
180.0
  0
ARC
  5
B31
330
1A
100
AcDbEntity
  8
ZUWAKU
100
AcDbCircle
 10
13.43360559449161
 20
11.36249996135637
 30
0.0
 40
0.2625
100
AcDbArc
 50
0.0
 51
90.0
  0
LINE
  5
B32
330
1A
100
AcDbEntity
  8
ZUWAKU
100
AcDbLine
 10
16.05860559449161
 20
11.62499996135637
 30
0.0
 11
15.18360559449161
 21
11.62499996135637
 31
0.0
  0
ARC
  5
B33
330
1A
100
AcDbEntity
  8
ZUWAKU
100
AcDbCircle
 10
16.05860559449161
 20
11.36249996135637
 30
0.0
 40
0.2625
100
AcDbArc
 50
0.0
 51
90.0
  0
ARC
  5
B34
330
1A
100
AcDbEntity
  8
ZUWAKU
100
AcDbCircle
 10
18.08848851274729
 20
11.36249996135637
 30
0.0
 40
0.2625
100
AcDbArc
 50
90.0
 51
162.474431626277
  0
LINE
  5
B35
330
1A
100
AcDbEntity
  8
ZUWAKU
100
AcDbLine
 10
19.18824865214953
 20
11.28345297727288
 30
0.0
 11
18.65742883558062
 21
9.602523558138081
 31
0.0
  0
ARC
  5
B36
330
1A
100
AcDbEntity
  8
ZUWAKU
100
AcDbCircle
 10
18.93793320255179
 20
11.36249996135637
 30
0.0
 40
0.2625
100
AcDbArc
 50
342.474431626277
 51
90.0
  0
LINE
  5
B37
330
1A
100
AcDbEntity
  8
ZUWAKU
100
AcDbLine
 10
18.08848851274729
 20
11.62499996135637
 30
0.0
 11
18.93793320255179
 21
11.62499996135637
 31
0.0
  0
ARC
  5
B38
330
1A
100
AcDbEntity
  8
ZUWAKU
100
AcDbCircle
 10
20.60860559449162
 20
11.36249996135637
 30
0.0
 40
0.2625
100
AcDbArc
 50
90.0
 51
180.0
  0
LINE
  5
B39
330
1A
100
AcDbEntity
  8
ZUWAKU
100
AcDbLine
 10
25.94610559449166
 20
10.22499996135637
 30
0.0
 11
24.45860559449164
 21
10.22499996135637
 31
0.0
  0
LINE
  5
B3A
330
1A
100
AcDbEntity
  8
ZUWAKU
100
AcDbLine
 10
24.19610559449166
 20
11.62499996135637
 30
0.0
 11
25.94610559449166
 21
11.62499996135637
 31
0.0
  0
ARC
  5
B3B
330
1A
100
AcDbEntity
  8
ZUWAKU
100
AcDbCircle
 10
24.19610559449166
 20
10.22499996135637
 30
0.0
 40
1.4
100
AcDbArc
 50
90.0
 51
180.0
  0
LINE
  5
B3C
330
1A
100
AcDbEntity
  8
ZUWAKU
100
AcDbLine
 10
22.79610559449162
 20
10.22499996135637
 30
0.0
 11
22.79610559449162
 21
9.317398948678697
 31
0.0
  0
ARC
  5
B3D
330
1A
100
AcDbEntity
  8
ZUWAKU
100
AcDbCircle
 10
21.48360559449162
 20
11.36249996135637
 30
0.0
 40
0.2625
100
AcDbArc
 50
0.0
 51
90.0
  0
LINE
  5
B3E
330
1A
100
AcDbEntity
  8
ZUWAKU
100
AcDbLine
 10
24.19610559449166
 20
9.962499961356368
 30
0.0
 11
24.19610559449166
 21
9.317398948678697
 31
0.0
  0
ARC
  5
B3F
330
1A
100
AcDbEntity
  8
ZUWAKU
100
AcDbCircle
 10
24.45860559449164
 20
9.962499961356368
 30
0.0
 40
0.2625
100
AcDbArc
 50
90.0
 51
180.0
  0
LINE
  5
B40
330
1A
100
AcDbEntity
  8
ZUWAKU
100
AcDbLine
 10
26.20860559449164
 20
11.36249996135637
 30
0.0
 11
26.20860559449164
 21
10.48749996135637
 31
0.0
  0
ARC
  5
B41
330
1A
100
AcDbEntity
  8
ZUWAKU
100
AcDbCircle
 10
25.94610559449166
 20
10.48749996135637
 30
0.0
 40
0.2625
100
AcDbArc
 50
270.0
 51
0.0
  0
ARC
  5
B42
330
1A
100
AcDbEntity
  8
ZUWAKU
100
AcDbCircle
 10
25.94610559449166
 20
11.36249996135637
 30
0.0
 40
0.2625
100
AcDbArc
 50
0.0
 51
90.0
  0
LINE
  5
B43
330
1A
100
AcDbEntity
  8
ZUWAKU
100
AcDbLine
 10
28.65860559449163
 20
11.62499996135637
 30
0.0
 11
27.78360559449163
 21
11.62499996135637
 31
0.0
  0
ARC
  5
B44
330
1A
100
AcDbEntity
  8
ZUWAKU
100
AcDbCircle
 10
27.78360559449163
 20
11.36249996135637
 30
0.0
 40
0.2625
100
AcDbArc
 50
90.0
 51
180.0
  0
ARC
  5
B45
330
1A
100
AcDbEntity
  8
ZUWAKU
100
AcDbCircle
 10
28.65860559449163
 20
11.36249996135637
 30
0.0
 40
0.2625
100
AcDbArc
 50
0.0
 51
90.0
  0
LINE
  5
B46
330
1A
100
AcDbEntity
  8
ZUWAKU
100
AcDbLine
 10
34.25860559449166
 20
11.62499996135637
 30
0.0
 11
33.38360559449166
 21
11.62499996135637
 31
0.0
  0
ARC
  5
B47
330
1A
100
AcDbEntity
  8
ZUWAKU
100
AcDbCircle
 10
30.93360559449161
 20
11.36249996135637
 30
0.0
 40
0.2625
100
AcDbArc
 50
90.0
 51
180.0
  0
LINE
  5
B48
330
1A
100
AcDbEntity
  8
ZUWAKU
100
AcDbLine
 10
31.80860559449161
 20
11.62499996135637
 30
0.0
 11
30.93360559449161
 21
11.62499996135637
 31
0.0
  0
ARC
  5
B49
330
1A
100
AcDbEntity
  8
ZUWAKU
100
AcDbCircle
 10
31.80860559449161
 20
11.36249996135637
 30
0.0
 40
0.2625
100
AcDbArc
 50
0.0
 51
90.0
  0
ARC
  5
B4A
330
1A
100
AcDbEntity
  8
ZUWAKU
100
AcDbCircle
 10
33.38360559449166
 20
11.36249996135637
 30
0.0
 40
0.2625
100
AcDbArc
 50
90.0
 51
180.0
  0
ARC
  5
B4B
330
1A
100
AcDbEntity
  8
ZUWAKU
100
AcDbCircle
 10
34.25860559449166
 20
11.36249996135637
 30
0.0
 40
0.2625
100
AcDbArc
 50
0.0
 51
90.0
  0
LINE
  5
B4C
330
1A
100
AcDbEntity
  8
ZUWAKU
100
AcDbLine
 10
104.2233001621349
 20
14.99999996135637
 30
0.0
 11
104.2233001621351
 21
0.3999999613564
 31
0.0
  0
LINE
  5
B4D
330
1A
100
AcDbEntity
  8
ZUWAKU
100
AcDbLine
 10
104.323300162135
 20
14.99999996135637
 30
0.0
 11
104.3233001621351
 21
0.3999999613564
 31
0.0
  0
LINE
  5
B4E
330
1A
100
AcDbEntity
  8
ZUWAKU
100
AcDbLine
 10
104.123300162135
 20
14.99999996135637
 30
0.0
 11
104.123300162135
 21
0.3999999613564
 31
0.0
  0
TEXT
  5
B4F
330
1A
100
AcDbEntity
  8
moji
100
AcDbText
 10
119.9136008575266
 20
9.002460490060059
 30
0.0
 40
2.8
  1
ブラケット正面打（吊）ワンタッチ自在式
 41
0.9
  7
ｽﾀｲﾙ1
100
AcDbText
  0
TEXT
  5
B50
330
1A
100
AcDbEntity
  8
ZUWAKU
100
AcDbText
 10
104.8620226732398
 20
4.827678230549175
 30
0.0
 40
2.0
  1
サイズ
 41
0.9
  7
ｽﾀｲﾙ1
100
AcDbText
  0
TEXT
  5
B51
330
1A
100
AcDbEntity
  8
moji
100
AcDbText
 10
119.9136008575266
 20
1.602460490060077
 30
0.0
 40
2.8
  1
Σ９０－５－４５～６０
 41
0.9
  7
ｽﾀｲﾙ1
100
AcDbText
  0
TEXT
  5
B52
330
1A
100
AcDbEntity
  8
ZUWAKU
100
AcDbText
 10
104.8620226732397
 20
12.02767823054916
 30
0.0
 40
2.0
  1
品名
 41
0.9
  7
ｽﾀｲﾙ1
100
AcDbText
  0
TEXT
  5
B53
330
1A
100
AcDbEntity
  8
ZUWAKU
100
AcDbText
 10
329.1019683607523
 20
9.002460490060059
 30
0.0
 40
2.8
  1
　　．　　．　　
 41
0.9
  7
ｽﾀｲﾙ1
100
AcDbText
  0
LINE
  5
B54
330
1A
100
AcDbEntity
  8
ZUWAKU
100
AcDbLine
 10
324.4086007722032
 20
7.799999961356383
 30
0.0
 11
348.6245047913717
 21
7.799999961356383
 31
0.0
  0
LINE
  5
B55
330
1A
100
AcDbEntity
  8
ZUWAKU
100
AcDbLine
 10
324.4086007722033
 20
7.699999961356385
 30
0.0
 11
348.6245047913717
 21
7.699999961356383
 31
0.0
  0
LINE
  5
B56
330
1A
100
AcDbEntity
  8
ZUWAKU
100
AcDbLine
 10
324.4086007722032
 20
7.599999961356382
 30
0.0
 11
348.6245047913717
 21
7.599999961356383
 31
0.0
  0
LINE
  5
B57
330
1A
100
AcDbEntity
  8
ZUWAKU
100
AcDbLine
 10
252.5995892661715
 20
7.799999961356383
 30
0.0
 11
276.2634774001573
 21
7.799999961356383
 31
0.0
  0
LINE
  5
B58
330
1A
100
AcDbEntity
  8
ZUWAKU
100
AcDbLine
 10
252.5995892661715
 20
7.699999961356383
 30
0.0
 11
276.2634774001573
 21
7.699999961356383
 31
0.0
  0
LINE
  5
B59
330
1A
100
AcDbEntity
  8
ZUWAKU
100
AcDbLine
 10
252.5995892661715
 20
7.599999961356385
 30
0.0
 11
276.2634774001573
 21
7.599999961356385
 31
0.0
  0
LINE
  5
B5A
330
1A
100
AcDbEntity
  8
ZUWAKU
100
AcDbLine
 10
252.3995892661716
 20
14.99999996135637
 30
0.0
 11
252.3995892661716
 21
0.3999999613564
 31
0.0
  0
LINE
  5
B5B
330
1A
100
AcDbEntity
  8
ZUWAKU
100
AcDbLine
 10
252.5995892661715
 20
14.99999996135637
 30
0.0
 11
252.5995892661716
 21
0.3999999613564
 31
0.0
  0
LINE
  5
B5C
330
1A
100
AcDbEntity
  8
ZUWAKU
100
AcDbLine
 10
252.4995892661715
 20
14.99999996135637
 30
0.0
 11
252.4995892661716
 21
0.3999999613564
 31
0.0
  0
TEXT
  5
B5D
330
1A
100
AcDbEntity
  8
moji
100
AcDbText
 10
264.0204535032575
 20
9.002460490060059
 30
0.0
 40
2.8
  1
Ａ３
 41
0.9
  7
ｽﾀｲﾙ1
100
AcDbText
  0
LINE
  5
B5E
330
1A
100
AcDbEntity
  8
ZUWAKU
100
AcDbLine
 10
223.7121815025968
 20
14.99999996135637
 30
0.0
 11
223.7121815025968
 21
0.3999999613564
 31
0.0
  0
LINE
  5
B5F
330
1A
100
AcDbEntity
  8
ZUWAKU
100
AcDbLine
 10
223.9121815025967
 20
14.99999996135637
 30
0.0
 11
223.9121815025968
 21
0.3999999613564
 31
0.0
  0
LINE
  5
B60
330
1A
100
AcDbEntity
  8
ZUWAKU
100
AcDbLine
 10
223.8121815025967
 20
14.99999996135637
 30
0.0
 11
223.8121815025968
 21
0.3999999613564
 31
0.0
  0
TEXT
  5
B61
330
1A
100
AcDbEntity
  8
moji
100
AcDbText
 10
231.2836386780954
 20
5.971308822186359
 30
0.0
 40
2.8
  1
ＬＫ０７Ｔ
 41
0.9
  7
ｽﾀｲﾙ1
100
AcDbText
  0
TEXT
  5
B63
330
1A
100
AcDbEntity
  8
ZUWAKU
100
AcDbText
 10
253.3383117772764
 20
4.827678230549175
 30
0.0
 40
2.0
  1
縮尺
 41
0.9
  7
ｽﾀｲﾙ1
100
AcDbText
  0
TEXT
  5
B64
330
1A
100
AcDbEntity
  8
moji
100
AcDbText
 10
264.0204535032575
 20
1.602460490060077
 30
0.0
 40
2.8
  1
１/１
 41
0.9
  7
ｽﾀｲﾙ1
100
AcDbText
  0
TEXT
  5
B65
330
1A
100
AcDbEntity
  8
ZUWAKU
100
AcDbText
 10
224.6509040137015
 20
12.02767823054916
 30
0.0
 40
2.0
  1
品番
 41
0.9
  7
ｽﾀｲﾙ1
100
AcDbText
  0
TEXT
  5
B66
330
1A
100
AcDbEntity
  8
ZUWAKU
100
AcDbText
 10
253.3383117772763
 20
12.02767823054916
 30
0.0
 40
2.0
  1
用紙
 41
0.9
  7
ｽﾀｲﾙ1
100
AcDbText
  0
LINE
  5
B67
330
1A
100
AcDbEntity
  8
ZUWAKU
100
AcDbLine
 10
276.2634774001573
 20
14.99999996135637
 30
0.0
 11
276.2634774001573
 21
0.3999999613564
 31
0.0
  0
LINE
  5
B68
330
1A
100
AcDbEntity
  8
ZUWAKU
100
AcDbLine
 10
276.4634774001572
 20
14.99999996135637
 30
0.0
 11
276.4634774001573
 21
0.3999999613564
 31
0.0
  0
LINE
  5
B69
330
1A
100
AcDbEntity
  8
ZUWAKU
100
AcDbLine
 10
276.3634774001572
 20
14.99999996135637
 30
0.0
 11
276.3634774001573
 21
0.3999999613564
 31
0.0
  0
LINE
  5
B6A
330
1A
100
AcDbEntity
  8
ZUWAKU
100
AcDbLine
 10
324.2086007722033
 20
14.99999996135637
 30
0.0
 11
324.2086007722033
 21
0.3999999613564
 31
0.0
  0
LINE
  5
B6B
330
1A
100
AcDbEntity
  8
ZUWAKU
100
AcDbLine
 10
324.4086007722033
 20
14.99999996135637
 30
0.0
 11
324.4086007722034
 21
0.3999999613564
 31
0.0
  0
LINE
  5
B6C
330
1A
100
AcDbEntity
  8
ZUWAKU
100
AcDbLine
 10
324.3086007722033
 20
14.99999996135637
 30
0.0
 11
324.3086007722034
 21
0.3999999613564
 31
0.0
  0
TEXT
  5
B6D
330
1A
100
AcDbEntity
  8
ZUWAKU
100
AcDbText
 10
325.1473232833081
 20
12.02767823054916
 30
0.0
 40
2.0
  1
DATE
 41
0.9
  7
ｽﾀｲﾙ1
100
AcDbText
  0
TEXT
  5
B6E
330
1A
100
AcDbEntity
  8
ZUWAKU
100
AcDbText
 10
354.264041613223
 20
8.776919629199767
 30
0.0
 40
3.0
  1
積水化学工業株式会社
 41
0.9
  7
ｽﾀｲﾙ1
100
AcDbText
  0
LINE
  5
B6F
330
1A
100
AcDbEntity
  8
ZUWAKU
100
AcDbLine
 10
348.9245047913717
 20
14.99999996135637
 30
0.0
 11
348.9245047913718
 21
0.3999999613564
 31
0.0
  0
LINE
  5
B70
330
1A
100
AcDbEntity
  8
ZUWAKU
100
AcDbLine
 10
348.8245047913716
 20
14.99999996135637
 30
0.0
 11
348.8245047913717
 21
0.3999999613564
 31
0.0
  0
LINE
  5
B71
330
1A
100
AcDbEntity
  8
ZUWAKU
100
AcDbLine
 10
348.7245047913717
 20
14.99999996135637
 30
0.0
 11
348.7245047913717
 21
0.3999999613564
 31
0.0
  0
LINE
  5
B72
330
1A
100
AcDbEntity
  8
ZUWAKU
100
AcDbLine
 10
348.6245047913717
 20
14.99999996135637
 30
0.0
 11
348.6245047913717
 21
0.3999999613564
 31
0.0
  0
TEXT
  5
B73
330
1A
100
AcDbEntity
  8
ZUWAKU
100
AcDbText
 10
354.264041613223
 20
3.324420118283399
 30
0.0
 40
3.0
  1
建材事業部
 41
0.9
  7
ｽﾀｲﾙ1
100
AcDbText
  0
DIMENSION
  5
29F7
330
1A
100
AcDbEntity
  8
SUNPOU
100
AcDbDimension
  2
*D1
 10
220.6147022650646
 20
141.1544794273635
 30
0.0
 11
202.9976528748162
 21
143.6544794273635
 31
0.0
 70
    32
 71
     5
 42
35.23409878049668
  3
STANDARD
100
AcDbAlignedDimension
 13
185.3806034845679
 23
82.87533546899051
 33
0.0
 14
220.6147022650646
 24
122.8994621802707
 34
0.0
100
AcDbRotatedDimension
1001
ACAD
1000
DSTYLE
1002
{
1070
    41
1040
3.0
1070
    42
1040
3.0
1070
    43
1040
7.0
1070
    44
1040
1.5
1070
    73
1070
     0
1070
    74
1070
     0
1070
    77
1070
     3
1070
   140
1040
3.0
1070
   141
1040
3.0
1070
   147
1040
1.0
1070
   172
1070
     1
1070
   173
1070
     1
1070
   176
1070
   256
1070
   177
1070
   256
1070
   178
1070
   256
1070
   271
1070
     0
1070
   272
1070
     0
1070
   341
1005
B2
1070
     6
1000
OPEN
1070
     7
1000
OPEN
1002
}
  0
DIMENSION
  5
29F8
330
1A
100
AcDbEntity
  8
SUNPOU
100
AcDbDimension
  2
*D2
 10
40.32312013839348
 20
81.43480240899049
 30
0.0
 11
37.82312013839346
 21
91.00506893899048
 31
0.0
 70
    32
 71
     5
 42
19.14053305999995
  3
STANDARD
100
AcDbAlignedDimension
 13
63.88060348456787
 23
100.5753354689904
 33
0.0
 14
241.3470321545678
 24
81.43480240899044
 34
0.0
 50
90.0
100
AcDbRotatedDimension
1001
ACAD
1000
DSTYLE
1002
{
1070
    41
1040
3.0
1070
    42
1040
3.0
1070
    43
1040
7.0
1070
    44
1040
1.5
1070
    73
1070
     0
1070
    74
1070
     0
1070
    77
1070
     3
1070
   140
1040
3.0
1070
   141
1040
3.0
1070
   147
1040
1.0
1070
   172
1070
     1
1070
   173
1070
     1
1070
   176
1070
   256
1070
   177
1070
   256
1070
   178
1070
   256
1070
   271
1070
     0
1070
   272
1070
     0
1070
   341
1005
B2
1070
     6
1000
OPEN
1070
     7
1000
OPEN
1002
}
  0
DIMENSION
  5
29F9
330
1A
100
AcDbEntity
  8
SUNPOU
100
AcDbDimension
  2
*D3
 10
220.6147022650646
 20
150.0069205281915
 30
0.0
 11
141.4976528748162
 21
152.5069205281915
 31
0.0
 70
    32
 71
     5
 42
158.2340987804968
  3
STANDARD
100
AcDbAlignedDimension
 13
62.38060348456779
 23
98.57533546899043
 33
0.0
 14
220.6147022650646
 24
122.8994621802707
 34
0.0
100
AcDbRotatedDimension
1001
ACAD
1000
DSTYLE
1002
{
1070
    41
1040
3.0
1070
    42
1040
3.0
1070
    43
1040
7.0
1070
    44
1040
1.5
1070
    73
1070
     0
1070
    74
1070
     0
1070
    77
1070
     3
1070
   140
1040
3.0
1070
   141
1040
3.0
1070
   147
1040
1.0
1070
   172
1070
     1
1070
   173
1070
     1
1070
   176
1070
   256
1070
   177
1070
   256
1070
   178
1070
   256
1070
   271
1070
     0
1070
   272
1070
     0
1070
   341
1005
B2
1070
     6
1000
OPEN
1070
     7
1000
OPEN
1002
}
  0
DIMENSION
  5
29FA
330
1A
100
AcDbEntity
  8
SUNPOU
100
AcDbDimension
  2
*D4
 10
224.782952803994
 20
73.15276273271856
 30
0.0
 11
218.9691760614105
 21
90.37048615863512
 31
0.0
 70
    33
 71
     5
 42
35.99999999910895
  3
STANDARD
100
AcDbAlignedDimension
 13
219.2546805345679
 23
110.6378501929904
 33
0.0
 14
235.3543699745679
 24
78.43847131899042
 34
0.0
1001
ACAD
1000
DSTYLE
1002
{
1070
    41
1040
3.0
1070
    42
1040
3.0
1070
    43
1040
7.0
1070
    44
1040
1.5
1070
    73
1070
     0
1070
    74
1070
     0
1070
    77
1070
     3
1070
   140
1040
3.0
1070
   141
1040
3.0
1070
   147
1040
1.0
1070
   172
1070
     1
1070
   173
1070
     1
1070
   176
1070
   256
1070
   177
1070
   256
1070
   178
1070
   256
1070
   271
1070
     0
1070
   272
1070
     0
1070
   341
1005
B2
1070
     6
1000
OPEN
1070
     7
1000
OPEN
1002
}
  0
ARC
  5
29FB
330
1A
100
AcDbEntity
  8
SEIHIN
100
AcDbCircle
 10
214.0670028345679
 20
114.7522152709904
 30
0.0
 40
10.00000000249528
100
AcDbArc
 50
52.40698405647015
 51
170.7918456103776
  0
ARC
  5
29FC
330
1A
100
AcDbEntity
  8
SEIHIN
100
AcDbCircle
 10
214.0670028345679
 20
114.7522152709904
 30
0.0
 40
4.000000003240688
100
AcDbArc
 50
26.56506216954081
 51
170.7918456269571
  0
LINE
  5
29FD
330
1A
100
AcDbEntity
  8
SEIHIN
 62
     3
100
AcDbLine
 10
101.926778897568
 20
206.4595175879314
 30
0.0
 11
236.4582727495679
 21
206.4595175879314
 31
0.0
  0
LINE
  5
29FE
330
1A
100
AcDbEntity
  8
SEIHIN
 62
     3
100
AcDbLine
 10
101.926778897568
 20
221.4595176079314
 30
0.0
 11
236.4582727495679
 21
221.4595176079314
 31
0.0
  0
LINE
  5
29FF
330
1A
100
AcDbEntity
  8
SEIHIN
 62
     3
100
AcDbLine
 10
101.426778897568
 20
207.4595175879314
 30
0.0
 11
239.3193651045679
 21
207.4595175879314
 31
0.0
  0
LINE
  5
2A00
330
1A
100
AcDbEntity
  8
SEIHIN
 62
     3
100
AcDbLine
 10
101.426778897568
 20
220.4595176079314
 30
0.0
 11
239.3193651045679
 21
220.4595176079314
 31
0.0
  0
LINE
  5
2A01
330
1A
100
AcDbEntity
  8
SEIHIN
 62
     3
100
AcDbLine
 10
128.6868865845678
 20
210.9595176079314
 30
0.0
 11
233.523725312727
 21
210.9595176079314
 31
0.0
  0
LINE
  5
2A02
330
1A
100
AcDbEntity
  8
SEIHIN
 62
     3
100
AcDbLine
 10
128.6868865845678
 20
216.9595176079314
 30
0.0
 11
233.5230116273175
 21
216.9595176079314
 31
0.0
  0
LINE
  5
2A03
330
1A
100
AcDbEntity
  8
CENTER L
100
AcDbLine
 10
55.38060348456788
 20
213.9595175979314
 30
0.0
 11
245.4859397995679
 21
213.9595175979314
 31
0.0
  0
LINE
  5
2A04
330
1A
100
AcDbEntity
  8
SEIHIN
  6
Continuous
 62
     3
100
AcDbLine
 10
89.57726901029054
 20
71.58896381060376
 30
0.0
 11
82.10450348456789
 21
84.69133546899042
 31
0.0
  0
LINE
  5
2A05
330
1A
100
AcDbEntity
  8
SEIHIN
  6
Continuous
 62
     3
100
AcDbLine
 10
87.82220348456787
 20
65.96433546899041
 30
0.0
 11
80.29190348456791
 21
83.85293546899044
 31
0.0
  0
LINE
  5
2A06
330
1A
100
AcDbEntity
  8
SEIHIN
  6
Continuous
 62
     3
100
AcDbLine
 10
76.13580348456787
 20
87.52693546899042
 30
0.0
 11
85.62540348456787
 21
64.72363546899044
 31
0.0
  0
LINE
  5
2A07
330
1A
100
AcDbEntity
  8
SEIHIN
  6
Continuous
 62
     3
100
AcDbLine
 10
91.47273445694293
 20
73.34645487701727
 30
0.0
 11
80.22580348456791
 21
93.57943546899043
 31
0.0
  0
ARC
  5
2A08
330
1A
100
AcDbEntity
  8
SEIHIN
  6
Continuous
 62
     3
100
AcDbCircle
 10
81.22080348456785
 20
84.22323546899042
 30
0.0
 40
1.000005
100
AcDbArc
 50
27.91037699999919
 51
201.7343789999998
  0
LINE
  5
2A09
330
1A
100
AcDbEntity
  8
SEIHIN
  6
Continuous
 62
     3
100
AcDbLine
 10
71.49130348456788
 20
90.6753354689904
 30
0.0
 11
65.38060348456787
 21
90.6753354689904
 31
0.0
  0
ARC
  5
2A0A
330
1A
100
AcDbEntity
  8
SEIHIN
  6
Continuous
 62
     3
100
AcDbCircle
 10
66.38060348456787
 20
96.1753354689904
 30
0.0
 40
1.0
100
AcDbArc
 50
180.0
 51
270.0
  0
LINE
  5
2A0B
330
1A
100
AcDbEntity
  8
SEIHIN
  6
Continuous
 62
     3
100
AcDbLine
 10
62.38060348456787
 20
99.07533546899043
 30
0.0
 11
62.38060348456787
 21
93.6753354689904
 31
0.0
  0
ARC
  5
2A0C
330
1A
100
AcDbEntity
  8
SEIHIN
  6
Continuous
 62
     3
100
AcDbCircle
 10
65.38060348456787
 20
93.6753354689904
 30
0.0
 40
3.0
100
AcDbArc
 50
180.0
 51
270.0
  0
LINE
  5
2A0D
330
1A
100
AcDbEntity
  8
SEIHIN
  6
Continuous
 62
     3
100
AcDbLine
 10
65.38060348456787
 20
99.07533546899043
 30
0.0
 11
65.38060348456787
 21
96.1753354689904
 31
0.0
  0
LINE
  5
2A0E
330
1A
100
AcDbEntity
  8
SEIHIN
  6
Continuous
 62
     3
100
AcDbLine
 10
62.38060348456787
 20
96.5752354689904
 30
0.0
 11
65.38060348456787
 21
96.5752354689904
 31
0.0
  0
ARC
  5
2A0F
330
1A
100
AcDbEntity
  8
SEIHIN
  6
Continuous
 62
     3
100
AcDbCircle
 10
63.88060348456787
 20
99.07533546899043
 30
0.0
 40
1.5
100
AcDbArc
 50
0.0
 51
180.0
  0
LINE
  5
2A10
330
1A
100
AcDbEntity
  8
SEIHIN
  6
Continuous
 62
     3
100
AcDbLine
 10
77.57470348456786
 20
95.1753354689904
 30
0.0
 11
66.38060348456787
 21
95.1753354689904
 31
0.0
  0
ARC
  5
2A11
330
1A
100
AcDbEntity
  8
SEIHIN
  6
Continuous
 62
     3
100
AcDbCircle
 10
71.49130348456788
 20
85.6753354689904
 30
0.0
 40
4.99999
100
AcDbArc
 50
21.73544399999916
 51
90.0
  0
ARC
  5
2A12
330
1A
100
AcDbEntity
  8
SEIHIN
  6
Continuous
 62
     3
100
AcDbCircle
 10
77.57470348456786
 20
92.1753354689904
 30
0.0
 40
2.999986
100
AcDbArc
 50
27.90700099999922
 51
90.0
  0
LINE
  5
2A13
330
1A
100
AcDbEntity
  8
SEIHIN
100
AcDbLine
 10
135.0094761845679
 20
101.0384230489904
 30
0.0
 11
204.0634404245678
 21
109.5785760109904
 31
0.0
  0
LINE
  5
2A14
330
1A
100
AcDbEntity
  8
SEIHIN
100
AcDbLine
 10
133.2004428845679
 20
106.8613606479904
 30
0.0
 11
203.3306239145679
 21
115.5199075889904
 31
0.0
  0
LINE
  5
2A15
330
1A
100
AcDbEntity
  8
SEIHIN
  6
Continuous
 62
     3
100
AcDbLine
 10
118.2806034865679
 20
61.57529295032731
 30
0.0
 11
156.1485034845679
 21
61.57523546899043
 31
0.0
  0
LINE
  5
2A16
330
1A
100
AcDbEntity
  8
SEIHIN
  6
Continuous
 62
     3
100
AcDbLine
 10
118.2806034865679
 20
64.0752919225755
 30
0.0
 11
154.1542034845679
 21
64.07523546899043
 31
0.0
  0
LINE
  5
2A17
330
1A
100
AcDbEntity
  8
SEIHIN
  6
Continuous
 62
     3
100
AcDbLine
 10
118.2806034865679
 20
70.07523546899039
 30
0.0
 11
156.5246034845679
 21
70.0752354689904
 31
0.0
  0
LINE
  5
2A18
330
1A
100
AcDbEntity
  8
SEIHIN
  6
Continuous
 62
     3
100
AcDbLine
 10
149.0260034845679
 20
72.5752354689904
 30
0.0
 11
118.2806034865679
 21
72.5752354689904
 31
0.0
  0
LINE
  5
2A19
330
1A
100
AcDbEntity
  8
SEIHIN
100
AcDbLine
 10
118.2806034845679
 20
74.01044815899041
 30
0.0
 11
129.5710031845679
 21
97.15919800899042
 31
0.0
  0
ARC
  5
2A1A
330
1A
100
AcDbEntity
  8
SEIHIN
100
AcDbCircle
 10
109.8402349845679
 20
82.13676365899039
 30
0.0
 40
9.89999994344371
100
AcDbArc
 50
135.9085672061387
 51
170.5325542265419
  0
CIRCLE
  5
2A1B
330
1A
100
AcDbEntity
  8
SEIHIN
100
AcDbCircle
 10
108.2806034845679
 20
83.37523546899041
 30
0.0
 40
3.500000004238516
  0
ARC
  5
2A1C
330
1A
100
AcDbEntity
  8
SEIHIN
100
AcDbCircle
 10
108.7806034845679
 20
79.87523546899041
 30
0.0
 40
9.535085152808648
100
AcDbArc
 50
4.916661302937908
 51
179.999861547953
  0
LINE
  5
2A1D
330
1A
100
AcDbEntity
  8
SEIHIN
100
AcDbLine
 10
93.28060348456785
 20
59.3816318189904
 30
0.0
 11
118.2806034865679
 21
59.3816318189904
 31
0.0
  0
ARC
  5
2A1E
330
1A
100
AcDbEntity
  8
SEIHIN
  6
Continuous
 62
     3
100
AcDbCircle
 10
90.26990348456786
 20
66.57533546899043
 30
0.0
 40
5.000009
100
AcDbArc
 50
201.7365079999997
 51
270.0
  0
LINE
  5
2A1F
330
1A
100
AcDbEntity
  8
SEIHIN
100
AcDbLine
 10
93.28060348456785
 20
59.3816318189904
 30
0.0
 11
93.28060348456785
 21
78.38163182099041
 31
0.0
  0
LINE
  5
2A20
330
1A
100
AcDbEntity
  8
SEIHIN
100
AcDbLine
 10
97.88060348456787
 20
78.5752354689904
 30
0.0
 11
99.24551526456787
 21
78.5752354689904
 31
0.0
  0
LINE
  5
2A21
330
1A
100
AcDbEntity
  8
SEIHIN
100
AcDbLine
 10
97.24550111824266
 20
72.57523546899041
 30
0.0
 11
99.24550111456784
 21
72.5752354689904
 31
0.0
  0
LINE
  5
2A22
330
1A
100
AcDbEntity
  8
SEIHIN
100
AcDbLine
 10
97.24549868456785
 20
71.54350800899042
 30
0.0
 11
99.24549868456785
 21
71.54350800899042
 31
0.0
  0
ARC
  5
2A23
330
1A
100
AcDbEntity
  8
SEIHIN
  6
Continuous
 62
     3
100
AcDbCircle
 10
92.78350348456786
 20
74.07533546899043
 30
0.0
 40
1.499982
100
AcDbArc
 50
207.9095830000001
 51
270.0
  0
LINE
  5
2A24
330
1A
100
AcDbEntity
  8
SEIHIN
100
AcDbLine
 10
97.88060348456787
 20
78.5752354689904
 30
0.0
 11
97.88058933456784
 21
72.5752354689904
 31
0.0
  0
LINE
  5
2A25
330
1A
100
AcDbEntity
  8
SEIHIN
100
AcDbLine
 10
97.24551481456786
 20
78.38162946299042
 30
0.0
 11
97.24549868456785
 21
71.54350800899042
 31
0.0
  0
ARC
  5
2A26
330
1A
100
AcDbEntity
  8
SEIHIN
  6
Continuous
 62
     3
100
AcDbCircle
 10
92.18322306926331
 20
73.0752354689904
 30
0.0
 40
3.0
100
AcDbArc
 50
209.6977057516304
 51
270.0
  0
ARC
  5
2A27
330
1A
100
AcDbEntity
  8
SEIHIN
  6
Continuous
 62
     3
100
AcDbCircle
 10
90.60890348456786
 20
67.07533546899043
 30
0.0
 40
3.000001
100
AcDbArc
 50
201.7361539999994
 51
270.0
  0
LINE
  5
2A28
330
1A
100
AcDbEntity
  8
SEIHIN
  6
Continuous
 62
     3
100
AcDbLine
 10
90.26990348456786
 20
61.57533546899043
 30
0.0
 11
93.28060348456785
 21
61.57533089891761
 31
0.0
  0
LINE
  5
2A29
330
1A
100
AcDbEntity
  8
SEIHIN
  6
Continuous
 62
     3
100
AcDbLine
 10
90.88040348456786
 20
70.07533546899043
 30
0.0
 11
90.88040348456786
 21
64.07533546899043
 31
0.0
  0
LINE
  5
2A2A
330
1A
100
AcDbEntity
  8
SEIHIN
  6
Continuous
 62
     3
100
AcDbLine
 10
90.60890348456786
 20
64.07533546899043
 30
0.0
 11
93.28060348456785
 21
64.07533126458823
 31
0.0
  0
LINE
  5
2A2B
330
1A
100
AcDbEntity
  8
SEIHIN
  6
Continuous
 62
     3
100
AcDbLine
 10
93.28060348456785
 20
72.5752354689904
 30
0.0
 11
92.78379465722486
 21
72.5752354689904
 31
0.0
  0
LINE
  5
2A2C
330
1A
100
AcDbEntity
  8
SEIHIN
  6
Continuous
 62
     3
100
AcDbLine
 10
92.18322306926331
 20
70.0752354689904
 30
0.0
 11
93.28060348456785
 21
70.07523546899039
 31
0.0
  0
ARC
  5
2A2D
330
1A
100
AcDbEntity
  8
SEIHIN
100
AcDbCircle
 10
96.24551481456786
 20
78.38163182099041
 30
0.0
 40
1.00000000000139
100
AcDbArc
 50
359.9998648965517
 51
90.0
  0
ARC
  5
2A2E
330
1A
100
AcDbEntity
  8
SEIHIN
100
AcDbCircle
 10
94.28060348456785
 20
78.38163182099041
 30
0.0
 40
1.0
100
AcDbArc
 50
90.0
 51
180.0
  0
LINE
  5
2A2F
330
1A
100
AcDbEntity
  8
SEIHIN
100
AcDbLine
 10
96.24551481456786
 20
79.38163182099041
 30
0.0
 11
94.28060348456785
 21
79.38163182099041
 31
0.0
  0
LINE
  5
2A30
330
1A
100
AcDbEntity
  8
SEIHIN
100
AcDbLine
 10
98.88060348456787
 20
78.5752354689904
 30
0.0
 11
98.88058933456784
 21
72.57523311099041
 31
0.0
  0
LINE
  5
2A31
330
1A
100
AcDbEntity
  8
SEIHIN
100
AcDbLine
 10
99.24551833456786
 20
79.8752585099904
 30
0.0
 11
99.24549868456785
 21
71.54350800899042
 31
0.0
  0
MTEXT
  5
2A32
330
1A
100
AcDbEntity
  8
SEIHIN
100
AcDbMText
 10
110.2937853845679
 20
67.1671542929904
 30
0.0
 40
2.381249964
 41
0.0
 71
     1
 72
     5
  1
{\W1.022222;45}
210
0.0
220
0.0
230
-1.0
 11
-1.0
 21
0.0
 31
0.0
 73
     1
 44
1.0
  0
LINE
  5
2A33
330
1A
100
AcDbEntity
  8
SEIHIN
100
AcDbLine
 10
105.7806034845679
 20
70.0752354689904
 30
0.0
 11
110.7806034845679
 21
70.0752354689904
 31
0.0
  0
LINE
  5
2A34
330
1A
100
AcDbEntity
  8
SEIHIN
100
AcDbLine
 10
110.7806034845679
 20
64.0752354689904
 30
0.0
 11
105.7806034845679
 21
64.0752354689904
 31
0.0
  0
LINE
  5
2A35
330
1A
100
AcDbEntity
  8
SEIHIN
100
AcDbLine
 10
104.7806034845679
 20
69.0752354689904
 30
0.0
 11
104.7806034845679
 21
65.0752354689904
 31
0.0
  0
ARC
  5
2A36
330
1A
100
AcDbEntity
  8
SEIHIN
100
AcDbCircle
 10
105.7806034845679
 20
65.0752354689904
 30
0.0
 40
1.0
100
AcDbArc
 50
180.0
 51
270.0
  0
ARC
  5
2A37
330
1A
100
AcDbEntity
  8
SEIHIN
100
AcDbCircle
 10
105.7806034845679
 20
69.0752354689904
 30
0.0
 40
1.0
100
AcDbArc
 50
90.0
 51
180.0
  0
LINE
  5
2A38
330
1A
100
AcDbEntity
  8
SEIHIN
100
AcDbLine
 10
111.7806034845679
 20
69.0752354689904
 30
0.0
 11
111.7806034845679
 21
65.0752354689904
 31
0.0
  0
ARC
  5
2A39
330
1A
100
AcDbEntity
  8
SEIHIN
100
AcDbCircle
 10
110.7806034845679
 20
65.0752354689904
 30
0.0
 40
1.0
100
AcDbArc
 50
270.0
 51
0.0
  0
LINE
  5
2A3A
330
1A
100
AcDbEntity
  8
SEIHIN
100
AcDbLine
 10
108.2806034845679
 20
64.0752354689904
 30
0.0
 11
109.4353040245679
 21
62.0752354689904
 31
0.0
  0
LINE
  5
2A3B
330
1A
100
AcDbEntity
  8
SEIHIN
100
AcDbLine
 10
108.2806034845679
 20
64.0752354689904
 30
0.0
 11
107.1259029445679
 21
62.0752354689904
 31
0.0
  0
LINE
  5
2A3C
330
1A
100
AcDbEntity
  8
SEIHIN
100
AcDbLine
 10
109.4353040245679
 20
62.0752354689904
 30
0.0
 11
107.1259029445679
 21
62.0752354689904
 31
0.0
  0
ARC
  5
2A3D
330
1A
100
AcDbEntity
  8
SEIHIN
100
AcDbCircle
 10
110.7806034845679
 20
69.0752354689904
 30
0.0
 40
1.0
100
AcDbArc
 50
0.0
 51
90.0
  0
LINE
  5
2A3E
330
1A
100
AcDbEntity
  8
SEIHIN
100
AcDbLine
 10
108.5373534845679
 20
70.0752354689904
 30
0.0
 11
108.5373534845679
 21
68.0752354689904
 31
0.0
  0
LINE
  5
2A3F
330
1A
100
AcDbEntity
  8
SEIHIN
100
AcDbLine
 10
108.0373534845679
 20
68.0752354689904
 30
0.0
 11
108.0373534845679
 21
70.0752354689904
 31
0.0
  0
LINE
  5
2A40
330
1A
100
AcDbEntity
  8
SEIHIN
100
AcDbLine
 10
108.5373534845679
 20
68.0752354689904
 30
0.0
 11
108.0373534845679
 21
68.0752354689904
 31
0.0
  0
LINE
  5
2A41
330
1A
100
AcDbEntity
  8
SEIHIN
100
AcDbLine
 10
108.0373534845679
 20
70.0752354689904
 30
0.0
 11
108.5373534845679
 21
70.0752354689904
 31
0.0
  0
LINE
  5
2A42
330
1A
100
AcDbEntity
  8
SEIHIN
100
AcDbLine
 10
108.0373534845679
 20
70.0752354689904
 30
0.0
 11
108.5373534845679
 21
70.0752354689904
 31
0.0
  0
LINE
  5
2A43
330
1A
100
AcDbEntity
  8
SEIHIN
100
AcDbLine
 10
118.2806034865679
 20
59.3816318189904
 30
0.0
 11
118.2806034865679
 21
80.69245568799042
 31
0.0
  0
LINE
  5
2A44
330
1A
100
AcDbEntity
  8
SEIHIN
100
AcDbLine
 10
123.5306034845679
 20
68.0752354689904
 30
0.0
 11
123.0306034845679
 21
68.0752354689904
 31
0.0
  0
MTEXT
  5
2A45
330
1A
100
AcDbEntity
  8
SEIHIN
100
AcDbMText
 10
125.1902125845679
 20
66.98701268299038
 30
0.0
 40
2.381249964
 41
0.0
 71
     1
 72
     5
  1
{\W1.135802;60}
210
0.0
220
0.0
230
-1.0
 11
-1.0
 21
0.0
 31
0.0
 73
     1
 44
1.0
  0
LINE
  5
2A46
330
1A
100
AcDbEntity
  8
SEIHIN
100
AcDbLine
 10
118.5306034845679
 20
70.0752354689904
 30
0.0
 11
118.5306034845679
 21
68.0752354689904
 31
0.0
  0
LINE
  5
2A47
330
1A
100
AcDbEntity
  8
SEIHIN
100
AcDbLine
 10
118.5306034845679
 20
68.0752354689904
 30
0.0
 11
118.2806034845679
 21
68.0752354689904
 31
0.0
  0
LINE
  5
2A48
330
1A
100
AcDbEntity
  8
SEIHIN
100
AcDbLine
 10
120.2253534845679
 20
70.0752354689904
 30
0.0
 11
120.7253534845679
 21
70.0752354689904
 31
0.0
  0
LINE
  5
2A49
330
1A
100
AcDbEntity
  8
SEIHIN
100
AcDbLine
 10
123.0306034845679
 20
68.0752354689904
 30
0.0
 11
123.0306034845679
 21
70.0752354689904
 31
0.0
  0
LINE
  5
2A4A
330
1A
100
AcDbEntity
  8
SEIHIN
100
AcDbLine
 10
125.2253534845679
 20
70.0752354689904
 30
0.0
 11
125.7253534845679
 21
70.0752354689904
 31
0.0
  0
LINE
  5
2A4B
330
1A
100
AcDbEntity
  8
SEIHIN
100
AcDbLine
 10
123.5306034845679
 20
70.0752354689904
 30
0.0
 11
123.5306034845679
 21
68.0752354689904
 31
0.0
  0
LINE
  5
2A4C
330
1A
100
AcDbEntity
  8
SEIHIN
100
AcDbLine
 10
128.0306034845679
 20
68.0752354689904
 30
0.0
 11
128.0306034845679
 21
70.0752354689904
 31
0.0
  0
LINE
  5
2A4D
330
1A
100
AcDbEntity
  8
SEIHIN
100
AcDbLine
 10
128.5306034845679
 20
70.0752354689904
 30
0.0
 11
128.5306034845679
 21
68.0752354689904
 31
0.0
  0
LINE
  5
2A4E
330
1A
100
AcDbEntity
  8
SEIHIN
100
AcDbLine
 10
128.5306034845679
 20
68.0752354689904
 30
0.0
 11
128.0306034845679
 21
68.0752354689904
 31
0.0
  0
LINE
  5
2A4F
330
1A
100
AcDbEntity
  8
SEIHIN
100
AcDbLine
 10
120.0012054845679
 20
91.22523718899043
 30
0.0
 11
102.7297545845679
 21
91.22523718899043
 31
0.0
  0
LINE
  5
2A50
330
1A
100
AcDbEntity
  8
SEIHIN
100
AcDbLine
 10
102.7297545845679
 20
89.02523718899039
 30
0.0
 11
102.7297545845679
 21
90.22523718899043
 31
0.0
  0
LINE
  5
2A51
330
1A
100
AcDbEntity
  8
SEIHIN
100
AcDbLine
 10
102.7297545845679
 20
90.22523718899043
 30
0.0
 11
102.7297545845679
 21
91.22523718899043
 31
0.0
  0
ARC
  5
2A52
330
1A
100
AcDbEntity
  8
SEIHIN
100
AcDbCircle
 10
134.5410056845678
 20
95.94335297899039
 30
0.0
 40
11.00000001967632
100
AcDbArc
 50
97.00000011594662
 51
154.0000030732914
  0
LINE
  5
2A53
330
1A
100
AcDbEntity
  8
SEIHIN
100
AcDbLine
 10
131.3665295845678
 20
106.4753376869904
 30
0.0
 11
132.2459485845678
 21
109.3517874899904
 31
0.0
  0
LINE
  5
2A54
330
1A
100
AcDbEntity
  8
SEIHIN
100
AcDbLine
 10
129.9475254845679
 20
105.9383487349904
 30
0.0
 11
131.0983828845679
 21
109.7026335359904
 31
0.0
  0
ARC
  5
2A55
330
1A
100
AcDbEntity
  8
SEIHIN
100
AcDbCircle
 10
135.8625615845679
 20
94.09059998899039
 30
0.0
 40
7.000000031489973
100
AcDbArc
 50
96.99999997032126
 51
154.0000003277074
  0
LINE
  5
2A56
330
1A
100
AcDbEntity
  8
SEIHIN
100
AcDbLine
 10
116.9021051845679
 20
84.8711398189904
 30
0.0
 11
124.6542708845678
 21
100.7654350789904
 31
0.0
  0
LINE
  5
2A57
330
1A
100
AcDbEntity
  8
SEIHIN
100
AcDbLine
 10
116.1226874845679
 20
85.95895576899039
 30
0.0
 11
119.0103504845679
 21
89.02523718899039
 31
0.0
  0
LINE
  5
2A58
330
1A
100
AcDbEntity
  8
SEIHIN
100
AcDbLine
 10
116.2303464845679
 20
86.0732740989904
 30
0.0
 11
118.7142510845679
 21
88.71082229899042
 31
0.0
  0
LINE
  5
2A59
330
1A
100
AcDbEntity
  8
SEIHIN
100
AcDbLine
 10
132.2459485845678
 20
109.3517874899904
 30
0.0
 11
131.0983828845679
 21
109.7026335359904
 31
0.0
  0
ARC
  5
2A5A
330
1A
100
AcDbEntity
  8
SEIHIN
  6
Continuous
 62
     3
100
AcDbCircle
 10
180.3806034845679
 20
83.57513546899043
 30
0.0
 40
5.0
100
AcDbArc
 50
0.0
 51
90.0
  0
LINE
  5
2A5B
330
1A
100
AcDbEntity
  8
SEIHIN
  6
Continuous
 62
     3
100
AcDbLine
 10
191.3806034845679
 20
94.57513546899043
 30
0.0
 11
191.3806034845679
 21
64.57513546899043
 31
0.0
  0
LINE
  5
2A5C
330
1A
100
AcDbEntity
  8
SEIHIN
  6
Continuous
 62
     3
100
AcDbLine
 10
163.8895034845679
 20
97.05643546899046
 30
0.0
 11
150.3164034845679
 21
73.31053546899045
 31
0.0
  0
LINE
  5
2A5D
330
1A
100
AcDbEntity
  8
SEIHIN
  6
Continuous
 62
     3
100
AcDbLine
 10
153.6209034845679
 20
74.07163546899039
 30
0.0
 11
165.8891034845679
 21
95.52663546899044
 31
0.0
  0
LINE
  5
2A5E
330
1A
100
AcDbEntity
  8
SEIHIN
  6
Continuous
 62
     3
100
AcDbLine
 10
158.6321034845679
 20
65.76613546899043
 30
0.0
 11
170.1960034845679
 21
86.1241354689904
 31
0.0
  0
LINE
  5
2A5F
330
1A
100
AcDbEntity
  8
SEIHIN
  6
Continuous
 62
     3
100
AcDbLine
 10
160.0515034845679
 20
73.06533546899044
 30
0.0
 11
169.2229034845679
 21
89.53473546899045
 31
0.0
  0
LINE
  5
2A60
330
1A
100
AcDbEntity
  8
SEIHIN
  6
Continuous
 62
     3
100
AcDbLine
 10
181.9364034845679
 20
62.28393546899042
 30
0.0
 11
179.0474034845679
 21
66.88773546899043
 31
0.0
  0
ARC
  5
2A61
330
1A
100
AcDbEntity
  8
SEIHIN
  6
Continuous
 62
     3
100
AcDbCircle
 10
180.3806034845679
 20
67.57513546899043
 30
0.0
 40
1.499984
100
AcDbArc
 50
44.54354499999972
 51
207.2723069999998
  0
LINE
  5
2A62
330
1A
100
AcDbEntity
  8
SEIHIN
  6
Continuous
 62
     3
100
AcDbLine
 10
156.1485034845679
 20
61.57523546899043
 30
0.0
 11
173.3720034845679
 21
64.81313546899042
 31
0.0
  0
LINE
  5
2A63
330
1A
100
AcDbEntity
  8
SEIHIN
  6
Continuous
 62
     3
100
AcDbLine
 10
159.6771034845679
 20
64.27363546899042
 30
0.0
 11
173.1560034845679
 21
66.09483546899043
 31
0.0
  0
ARC
  5
2A64
330
1A
100
AcDbEntity
  8
SEIHIN
  6
Continuous
 62
     3
100
AcDbCircle
 10
159.1912034845679
 20
73.5752354689904
 30
0.0
 40
1.000003
100
AcDbArc
 50
270.0
 51
329.3496969999995
  0
ARC
  5
2A65
330
1A
100
AcDbEntity
  8
SEIHIN
  6
Continuous
 62
     3
100
AcDbCircle
 10
149.0260034845679
 20
74.0752354689904
 30
0.0
 40
1.499983
100
AcDbArc
 50
270.0
 51
329.3487229999997
  0
ARC
  5
2A66
330
1A
100
AcDbEntity
  8
SEIHIN
  6
Continuous
 62
     3
100
AcDbCircle
 10
154.4890034845679
 20
73.5752354689904
 30
0.0
 40
0.999978
100
AcDbArc
 50
150.243037
 51
270.0
  0
LINE
  5
2A67
330
1A
100
AcDbEntity
  8
SEIHIN
  6
Continuous
 62
     3
100
AcDbLine
 10
159.1912034845679
 20
72.5752354689904
 30
0.0
 11
154.4890034845679
 21
72.5752354689904
 31
0.0
  0
LINE
  5
2A68
330
1A
100
AcDbEntity
  8
SEIHIN
  6
Continuous
 62
     3
100
AcDbLine
 10
155.0145034845679
 20
64.56543546899042
 30
0.0
 11
157.3848034845678
 21
68.56533546899044
 31
0.0
  0
LINE
  5
2A69
330
1A
100
AcDbEntity
  8
SEIHIN
  6
Continuous
 62
     3
100
AcDbLine
 10
149.8807034845679
 20
64.07533546899043
 30
0.0
 11
149.8807034845679
 21
70.07533546899043
 31
0.0
  0
ARC
  5
2A6A
330
1A
100
AcDbEntity
  8
SEIHIN
  6
Continuous
 62
     3
100
AcDbCircle
 10
154.1542034845679
 20
65.07523546899043
 30
0.0
 40
1.000003
100
AcDbArc
 50
270.0
 51
329.3496969999995
  0
ARC
  5
2A6B
330
1A
100
AcDbEntity
  8
SEIHIN
  6
Continuous
 62
     3
100
AcDbCircle
 10
159.4924034845679
 20
65.25633546899041
 30
0.0
 40
0.999956
100
AcDbArc
 50
149.3496969999997
 51
280.6446470000001
  0
ARC
  5
2A6C
330
1A
100
AcDbEntity
  8
SEIHIN
  6
Continuous
 62
     3
100
AcDbCircle
 10
156.5246034845679
 20
69.0752354689904
 30
0.0
 40
0.9999600000000001
100
AcDbArc
 50
329.3467760000001
 51
90.0
  0
ARC
  5
2A6D
330
1A
100
AcDbEntity
  8
SEIHIN
  6
Continuous
 62
     3
100
AcDbCircle
 10
173.2519034845679
 20
65.45203546899043
 30
0.0
 40
0.6500060000000001
100
AcDbArc
 50
278.475411
 51
98.48412899999983
  0
ARC
  5
2A6E
330
1A
100
AcDbEntity
  8
SEIHIN
  6
Continuous
 62
     3
100
AcDbCircle
 10
186.3806034845679
 20
64.57513546899043
 30
0.0
 40
5.000028
100
AcDbArc
 50
205.2238120000009
 51
0.0
  0
LINE
  5
2A6F
330
1A
100
AcDbEntity
  8
SEIHIN
  6
Continuous
 62
     3
100
AcDbLine
 10
185.3806034845679
 20
83.57513546899043
 30
0.0
 11
185.3806034845679
 21
67.07513546899043
 31
0.0
  0
ARC
  5
2A70
330
1A
100
AcDbEntity
  8
SEIHIN
  6
Continuous
 62
     3
100
AcDbCircle
 10
184.3806034845679
 20
67.07513546899043
 30
0.0
 40
0.999975
100
AcDbArc
 50
224.5502650000007
 51
0.0
  0
LINE
  5
2A71
330
1A
100
AcDbEntity
  8
SEIHIN
  6
Continuous
 62
     3
100
AcDbLine
 10
181.4497034845679
 20
68.6273354689904
 30
0.0
 11
183.6680034845679
 21
66.37363546899042
 31
0.0
  0
LINE
  5
2A72
330
1A
100
AcDbEntity
  8
SEIHIN
  6
Continuous
 62
     3
100
AcDbLine
 10
171.8439034845679
 20
91.07513546899043
 30
0.0
 11
182.3806034845679
 21
91.07513546899043
 31
0.0
  0
LINE
  5
2A73
330
1A
100
AcDbEntity
  8
SEIHIN
  6
Continuous
 62
     3
100
AcDbLine
 10
186.3806034845679
 20
99.57513546899043
 30
0.0
 11
168.2304034845679
 21
99.57513546899045
 31
0.0
  0
LINE
  5
2A74
330
1A
100
AcDbEntity
  8
SEIHIN
  6
Continuous
 62
     3
100
AcDbLine
 10
182.3806034845679
 20
97.07513546899043
 30
0.0
 11
168.5146034845679
 21
97.0752354689904
 31
0.0
  0
ARC
  5
2A75
330
1A
100
AcDbEntity
  8
SEIHIN
  6
Continuous
 62
     3
100
AcDbCircle
 10
168.2304034845679
 20
94.57513546899043
 30
0.0
 40
5.0
100
AcDbArc
 50
90.0
 51
150.247301
  0
ARC
  5
2A76
330
1A
100
AcDbEntity
  8
SEIHIN
  6
Continuous
 62
     3
100
AcDbCircle
 10
168.5146034845679
 20
94.0752354689904
 30
0.0
 40
3.000009
100
AcDbArc
 50
90.0
 51
149.3496969999997
  0
ARC
  5
2A77
330
1A
100
AcDbEntity
  8
SEIHIN
  6
Continuous
 62
     3
100
AcDbCircle
 10
174.4975034845679
 20
83.57513546899043
 30
0.0
 40
5.000015
100
AcDbArc
 50
90.0
 51
149.3496969999997
  0
ARC
  5
2A78
330
1A
100
AcDbEntity
  8
SEIHIN
  6
Continuous
 62
     3
100
AcDbCircle
 10
171.8439034845679
 20
88.07513546899043
 30
0.0
 40
3.000006
100
AcDbArc
 50
90.0
 51
150.8871489999997
  0
LINE
  5
2A79
330
1A
100
AcDbEntity
  8
SEIHIN
  6
Continuous
 62
     3
100
AcDbLine
 10
174.4975034845679
 20
88.57513546899043
 30
0.0
 11
180.3806034845679
 21
88.57513546899043
 31
0.0
  0
ARC
  5
2A7A
330
1A
100
AcDbEntity
  8
SEIHIN
  6
Continuous
 62
     3
100
AcDbCircle
 10
182.3806034845679
 20
94.07513546899043
 30
0.0
 40
3.0
100
AcDbArc
 50
0.0
 51
90.0
  0
ARC
  5
2A7B
330
1A
100
AcDbEntity
  8
SEIHIN
  6
Continuous
 62
     3
100
AcDbCircle
 10
186.3806034845679
 20
94.57513546899043
 30
0.0
 40
5.0
100
AcDbArc
 50
0.0
 51
90.0
  0
ARC
  5
2A7C
330
1A
100
AcDbEntity
  8
SEIHIN
  6
Continuous
 62
     3
100
AcDbCircle
 10
182.3806034845679
 20
94.07513546899043
 30
0.0
 40
3.0
100
AcDbArc
 50
270.0
 51
0.0
  0
ARC
  5
2A7D
330
1A
100
AcDbEntity
  8
SEIHIN
  6
Continuous
 62
     3
100
AcDbCircle
 10
186.3806034845679
 20
94.57513546899043
 30
0.0
 40
5.000022
100
AcDbArc
 50
0.0
 51
2.064221999999495
  0
ARC
  5
2A7E
330
1A
100
AcDbEntity
  8
SEIHIN
100
AcDbCircle
 10
203.2103550245679
 20
116.5263990729904
 30
0.0
 40
6.999999997855919
100
AcDbArc
 50
276.9999999683262
 51
350.7918456020169
  0
ARC
  5
2A7F
330
1A
100
AcDbEntity
  8
SEIHIN
100
AcDbCircle
 10
203.2087543245679
 20
116.5124537099904
 30
0.0
 40
0.9999999994877491
100
AcDbArc
 50
277.0000142374855
 51
350.7918456181773
  0
LINE
  5
2A80
330
1A
100
AcDbEntity
  8
SEIHIN
  6
Continuous
 62
     3
100
AcDbLine
 10
65.38060348456793
 20
221.4595175979314
 30
0.0
 11
97.81350645456786
 21
221.4595175979314
 31
0.0
  0
LINE
  5
2A81
330
1A
100
AcDbEntity
  8
SEIHIN
  6
Continuous
 62
     3
100
AcDbLine
 10
65.38050348456784
 20
206.4595175979314
 30
0.0
 11
97.81350645456786
 21
206.4595175979314
 31
0.0
  0
DIMENSION
  5
2A82
330
1A
100
AcDbEntity
  8
SUNPOU
100
AcDbDimension
  2
*D5
 10
40.32312013839351
 20
202.9595175979314
 30
0.0
 11
37.82312013839348
 21
213.9595175979314
 31
0.0
 70
    32
 71
     5
 42
22.0
  3
STANDARD
100
AcDbAlignedDimension
 13
62.3806034845679
 23
224.9595175979314
 33
0.0
 14
62.38060348456784
 24
202.9595175979314
 34
0.0
 50
90.0
100
AcDbRotatedDimension
1001
ACAD
1000
DSTYLE
1002
{
1070
    41
1040
3.0
1070
    42
1040
3.0
1070
    43
1040
7.0
1070
    44
1040
1.5
1070
    73
1070
     0
1070
    74
1070
     0
1070
    77
1070
     3
1070
   140
1040
3.0
1070
   141
1040
3.0
1070
   147
1040
1.0
1070
   172
1070
     1
1070
   173
1070
     1
1070
   176
1070
   256
1070
   177
1070
   256
1070
   178
1070
   256
1070
   271
1070
     0
1070
   272
1070
     0
1070
   341
1005
B2
1070
     6
1000
OPEN
1070
     7
1000
OPEN
1002
}
  0
LINE
  5
2A83
330
1A
100
AcDbEntity
  8
SEIHIN
  6
Continuous
 62
     3
100
AcDbLine
 10
62.38060348456781
 20
202.9595175979314
 30
0.0
 11
62.38060348456793
 21
224.9595175979314
 31
0.0
  0
LINE
  5
2A84
330
1A
100
AcDbEntity
  8
SEIHIN
  6
Continuous
 62
     3
100
AcDbLine
 10
65.38060348456793
 20
213.9593175979314
 30
0.0
 11
65.38060348456793
 21
224.9595175979314
 31
0.0
  0
LINE
  5
2A85
330
1A
100
AcDbEntity
  8
SEIHIN
  6
Continuous
 62
     3
100
AcDbLine
 10
65.38060348456793
 20
213.9597175979313
 30
0.0
 11
65.38050348456784
 21
202.9595175979314
 31
0.0
  0
LINE
  5
2A86
330
1A
100
AcDbEntity
  8
SEIHIN
  6
Continuous
 62
     3
100
AcDbLine
 10
62.38060348456781
 20
202.9595175979314
 30
0.0
 11
65.38050348456784
 21
202.9595175979313
 31
0.0
  0
LINE
  5
2A87
330
1A
100
AcDbEntity
  8
SEIHIN
  6
Continuous
 62
     3
100
AcDbLine
 10
79.38060348456793
 20
213.9596175979314
 30
0.0
 11
79.38060348456793
 21
206.4594175979314
 31
0.0
  0
LINE
  5
2A88
330
1A
100
AcDbEntity
  8
SEIHIN
  6
Continuous
 62
     3
100
AcDbLine
 10
79.38060348456793
 20
213.9594175979314
 30
0.0
 11
79.38060348456793
 21
221.4596175979314
 31
0.0
  0
LINE
  5
2A89
330
1A
100
AcDbEntity
  8
SEIHIN
  6
Continuous
 62
     3
100
AcDbLine
 10
62.38060348456793
 20
224.9595175979314
 30
0.0
 11
65.38060348456793
 21
224.9595175979314
 31
0.0
  0
LINE
  5
2A8A
330
1A
100
AcDbEntity
  8
SEIHIN
100
AcDbLine
 10
98.81350645456786
 20
221.9595176179314
 30
0.0
 11
98.81350645456786
 21
224.9595176179314
 31
0.0
  0
LINE
  5
2A8B
330
1A
100
AcDbEntity
  8
SEIHIN
100
AcDbLine
 10
97.81350645456786
 20
224.9595176179314
 30
0.0
 11
97.81350645456786
 21
221.4595176179314
 31
0.0
  0
LINE
  5
2A8C
330
1A
100
AcDbEntity
  8
SEIHIN
100
AcDbLine
 10
99.24579566456785
 20
221.9595176179314
 30
0.0
 11
118.2806034865679
 21
221.9595176179314
 31
0.0
  0
LINE
  5
2A8D
330
1A
100
AcDbEntity
  8
SEIHIN
100
AcDbLine
 10
118.2806034865679
 20
205.9595175779314
 30
0.0
 11
99.24575699456784
 21
205.9595635779314
 31
0.0
  0
LINE
  5
2A8E
330
1A
100
AcDbEntity
  8
SEIHIN
100
AcDbLine
 10
101.8894094445679
 20
218.1139616179314
 30
0.0
 11
123.9480965695678
 21
218.1139616179314
 31
0.0
  0
LINE
  5
2A8F
330
1A
100
AcDbEntity
  8
SEIHIN
100
AcDbLine
 10
99.09988989456787
 20
220.2315912179314
 30
0.0
 11
126.6868865845678
 21
220.2315912179314
 31
0.0
  0
LINE
  5
2A90
330
1A
100
AcDbEntity
  8
SEIHIN
100
AcDbLine
 10
101.8894094445679
 20
209.8050735679314
 30
0.0
 11
123.9480965695678
 21
209.8050735679314
 31
0.0
  0
LINE
  5
2A91
330
1A
100
AcDbEntity
  8
SEIHIN
100
AcDbLine
 10
99.09988989456787
 20
207.6874439379314
 30
0.0
 11
126.6868865845678
 21
207.6874439379314
 31
0.0
  0
ARC
  5
2A92
330
1A
100
AcDbEntity
  8
SEIHIN
100
AcDbCircle
 10
98.81350645456786
 20
221.4595176179314
 30
0.0
 40
1.0
100
AcDbArc
 50
180.0
 51
270.0
  0
LINE
  5
2A93
330
1A
100
AcDbEntity
  8
SEIHIN
100
AcDbLine
 10
98.81350645456786
 20
202.9595175779314
 30
0.0
 11
97.81350645456786
 21
202.9595175779314
 31
0.0
  0
ARC
  5
2A94
330
1A
100
AcDbEntity
  8
SEIHIN
100
AcDbCircle
 10
98.81350645456786
 20
206.4595175779314
 30
0.0
 40
1.0
100
AcDbArc
 50
90.0
 51
180.0
  0
ARC
  5
2A95
330
1A
100
AcDbEntity
  8
SEIHIN
100
AcDbCircle
 10
99.09988989456787
 20
213.9595175779314
 30
0.0
 40
3.000000000000011
100
AcDbArc
 50
90.00000515662018
 51
269.9999952253517
  0
LINE
  5
2A96
330
1A
100
AcDbEntity
  8
SEIHIN
  6
Continuous
 62
     3
100
AcDbLine
 10
91.88050348456792
 20
206.4595175979314
 30
0.0
 11
91.88050348456792
 21
221.4595175979314
 31
0.0
  0
LINE
  5
2A97
330
1A
100
AcDbEntity
  8
SEIHIN
100
AcDbLine
 10
97.24575124456786
 20
205.9595175779314
 30
0.0
 11
97.24575242456785
 21
206.4595175779314
 31
0.0
  0
LINE
  5
2A98
330
1A
100
AcDbEntity
  8
SEIHIN
100
AcDbLine
 10
97.81350645456786
 20
202.9595175779314
 30
0.0
 11
97.81350645456786
 21
206.4595175779314
 31
0.0
  0
LINE
  5
2A99
330
1A
100
AcDbEntity
  8
SEIHIN
100
AcDbLine
 10
93.28060348456785
 20
205.9595175779314
 30
0.0
 11
93.28060348456785
 21
206.4595175779314
 31
0.0
  0
LINE
  5
2A9A
330
1A
100
AcDbEntity
  8
SEIHIN
100
AcDbLine
 10
93.28060348456785
 20
205.9595175779314
 30
0.0
 11
97.24551080456786
 21
205.9595175779314
 31
0.0
  0
LINE
  5
2A9B
330
1A
100
AcDbEntity
  8
SEIHIN
100
AcDbLine
 10
97.24575242456785
 20
206.4595175779314
 30
0.0
 11
93.28060348456785
 21
206.4595175779314
 31
0.0
  0
LINE
  5
2A9C
330
1A
100
AcDbEntity
  8
SEIHIN
100
AcDbLine
 10
93.28060348456785
 20
221.9595176179314
 30
0.0
 11
97.24551080456786
 21
221.9595176179314
 31
0.0
  0
LINE
  5
2A9D
330
1A
100
AcDbEntity
  8
SEIHIN
100
AcDbLine
 10
97.24578779456786
 20
221.4595176179314
 30
0.0
 11
93.28060348456785
 21
221.4595176179314
 31
0.0
  0
LINE
  5
2A9E
330
1A
100
AcDbEntity
  8
SEIHIN
100
AcDbLine
 10
93.28060348456785
 20
221.4595176179314
 30
0.0
 11
93.28060348456785
 21
221.9595176179314
 31
0.0
  0
LINE
  5
2A9F
330
1A
100
AcDbEntity
  8
SEIHIN
100
AcDbLine
 10
97.24578779456786
 20
221.4595176179314
 30
0.0
 11
97.24578897456786
 21
221.9595176179314
 31
0.0
  0
LINE
  5
2AA0
330
1A
100
AcDbEntity
  8
SEIHIN
100
AcDbLine
 10
101.8894094445679
 20
207.6874439379314
 30
0.0
 11
101.8894094445679
 21
220.2315912179314
 31
0.0
  0
LINE
  5
2AA1
330
1A
100
AcDbEntity
  8
SEIHIN
100
AcDbLine
 10
99.09988989456787
 20
219.2315912179314
 30
0.0
 11
99.09988989456787
 21
208.6874439379314
 31
0.0
  0
ARC
  5
2AA2
330
1A
100
AcDbEntity
  8
SEIHIN
100
AcDbCircle
 10
108.2808446145679
 20
210.4778470779314
 30
0.0
 40
5.715337531631893
100
AcDbArc
 50
232.2375418744897
 51
307.7621812247566
  0
LINE
  5
2AA3
330
1A
100
AcDbEntity
  8
SEIHIN
100
AcDbLine
 10
99.24575699456784
 20
205.9595635779314
 30
0.0
 11
99.24575820456784
 21
206.4595175779314
 31
0.0
  0
ARC
  5
2AA4
330
1A
100
AcDbEntity
  8
SEIHIN
100
AcDbCircle
 10
99.31350645456786
 20
205.9595175779314
 30
0.0
 40
0.5
100
AcDbArc
 50
90.0
 51
180.0
  0
LINE
  5
2AA5
330
1A
100
AcDbEntity
  8
SEIHIN
100
AcDbLine
 10
98.81350645456786
 20
205.9595175779314
 30
0.0
 11
98.81350645456786
 21
202.9595175779314
 31
0.0
  0
LINE
  5
2AA6
330
1A
100
AcDbEntity
  8
SEIHIN
100
AcDbLine
 10
101.8894094445679
 20
207.6874439379314
 30
0.0
 11
101.8894094445679
 21
208.8874439379314
 31
0.0
  0
LINE
  5
2AA7
330
1A
100
AcDbEntity
  8
SEIHIN
100
AcDbLine
 10
99.09988989456787
 20
208.6874439379314
 30
0.0
 11
99.09988989456787
 21
207.6874439379314
 31
0.0
  0
LINE
  5
2AA8
330
1A
100
AcDbEntity
  8
SEIHIN
100
AcDbLine
 10
101.8894094445679
 20
208.6874439379314
 30
0.0
 11
99.09988989456787
 21
208.6874439379314
 31
0.0
  0
LINE
  5
2AA9
330
1A
100
AcDbEntity
  8
SEIHIN
100
AcDbLine
 10
111.7808336945679
 20
223.0239560179314
 30
0.0
 11
104.7808336945679
 21
223.0239560179314
 31
0.0
  0
LINE
  5
2AAA
330
1A
100
AcDbEntity
  8
SEIHIN
100
AcDbLine
 10
104.7808336945679
 20
221.9595176179314
 30
0.0
 11
111.7808336945679
 21
221.9595176179314
 31
0.0
  0
LINE
  5
2AAB
330
1A
100
AcDbEntity
  8
SEIHIN
100
AcDbLine
 10
99.09988989456787
 20
215.8841289179314
 30
0.0
 11
101.8894094445679
 21
215.8841289179314
 31
0.0
  0
LINE
  5
2AAC
330
1A
100
AcDbEntity
  8
SEIHIN
100
AcDbLine
 10
99.09988989456787
 20
212.0349062379314
 30
0.0
 11
101.8894094445679
 21
212.0349062379314
 31
0.0
  0
LINE
  5
2AAD
330
1A
100
AcDbEntity
  8
SEIHIN
100
AcDbLine
 10
101.8894094445679
 20
220.2315912179314
 30
0.0
 11
101.8894094445679
 21
219.0315912179314
 31
0.0
  0
ARC
  5
2AAE
330
1A
100
AcDbEntity
  8
SEIHIN
100
AcDbCircle
 10
99.31350645456786
 20
221.9595176179314
 30
0.0
 40
0.5
100
AcDbArc
 50
180.0
 51
270.0
  0
LINE
  5
2AAF
330
1A
100
AcDbEntity
  8
SEIHIN
100
AcDbLine
 10
99.09988989456787
 20
219.2315912179314
 30
0.0
 11
99.09988989456787
 21
220.2315912179314
 31
0.0
  0
LINE
  5
2AB0
330
1A
100
AcDbEntity
  8
SEIHIN
100
AcDbLine
 10
99.24579445456786
 20
221.4595176179314
 30
0.0
 11
99.24579566456785
 21
221.9595176179314
 31
0.0
  0
LINE
  5
2AB1
330
1A
100
AcDbEntity
  8
SEIHIN
100
AcDbLine
 10
101.8894094445679
 20
219.2315912179314
 30
0.0
 11
99.09988989456787
 21
219.2315912179314
 31
0.0
  0
LINE
  5
2AB2
330
1A
100
AcDbEntity
  8
SEIHIN
100
AcDbLine
 10
104.7808336945679
 20
223.0239560179314
 30
0.0
 11
104.7808336945679
 21
221.9595176179314
 31
0.0
  0
LINE
  5
2AB3
330
1A
100
AcDbEntity
  8
SEIHIN
100
AcDbLine
 10
111.7808336945679
 20
221.9595176179314
 30
0.0
 11
111.7808336945679
 21
223.0239560179314
 31
0.0
  0
LINE
  5
2AB4
330
1A
100
AcDbEntity
  8
SEIHIN
100
AcDbLine
 10
127.5393208775679
 20
209.6874439379314
 30
0.0
 11
127.5393208775679
 21
218.2315912179314
 31
0.0
  0
LINE
  5
2AB5
330
1A
100
AcDbEntity
  8
SEIHIN
100
AcDbLine
 10
128.6868865845678
 20
209.6874439379314
 30
0.0
 11
128.6868865845678
 21
218.2315912179314
 31
0.0
  0
LINE
  5
2AB6
330
1A
100
AcDbEntity
  8
SEIHIN
100
AcDbLine
 10
125.9480965695678
 20
216.1139615879314
 30
0.0
 11
125.9480965695678
 21
211.8050735679314
 31
0.0
  0
LINE
  5
2AB7
330
1A
100
AcDbEntity
  8
SEIHIN
100
AcDbLine
 10
117.3830259735678
 20
210.8050735679314
 30
0.0
 11
117.3830259735678
 21
217.1139615879314
 31
0.0
  0
LINE
  5
2AB8
330
1A
100
AcDbEntity
  8
SEIHIN
100
AcDbLine
 10
122.2249462090679
 20
210.8050735679314
 30
0.0
 11
122.2249462090679
 21
217.1139615879314
 31
0.0
  0
LINE
  5
2AB9
330
1A
100
AcDbEntity
  8
SEIHIN
100
AcDbLine
 10
118.2806034865679
 20
205.9595175779314
 30
0.0
 11
118.2806034865679
 21
206.4595175779314
 31
0.0
  0
ARC
  5
2ABA
330
1A
100
AcDbEntity
  8
SEIHIN
100
AcDbCircle
 10
126.6868865845678
 20
209.6874439379314
 30
0.0
 40
2.0
100
AcDbArc
 50
270.0
 51
0.0
  0
ARC
  5
2ABB
330
1A
100
AcDbEntity
  8
SEIHIN
100
AcDbCircle
 10
126.6868865845678
 20
209.6874439379314
 30
0.0
 40
2.0
100
AcDbArc
 50
270.0
 51
0.0
  0
ARC
  5
2ABC
330
1A
100
AcDbEntity
  8
SEIHIN
100
AcDbCircle
 10
125.5393208775679
 20
209.6874439379314
 30
0.0
 40
2.0
100
AcDbArc
 50
270.0
 51
0.0
  0
ARC
  5
2ABD
330
1A
100
AcDbEntity
  8
SEIHIN
100
AcDbCircle
 10
123.9480965695678
 20
211.8050735679314
 30
0.0
 40
2.0
100
AcDbArc
 50
270.0
 51
0.0
  0
LINE
  5
2ABE
330
1A
100
AcDbEntity
  8
SEIHIN
100
AcDbLine
 10
127.2724483595311
 20
206.4595175779314
 30
0.0
 11
127.2724483595311
 21
207.4595175779314
 31
0.0
  0
LINE
  5
2ABF
330
1A
100
AcDbEntity
  8
SEIHIN
100
AcDbLine
 10
118.2806034865679
 20
221.4595176179314
 30
0.0
 11
118.2806034865679
 21
221.9595176179314
 31
0.0
  0
ARC
  5
2AC0
330
1A
100
AcDbEntity
  8
SEIHIN
100
AcDbCircle
 10
123.9480965695678
 20
216.1139615879314
 30
0.0
 40
2.000000014999998
100
AcDbArc
 50
0.0
 51
90.0
  0
ARC
  5
2AC1
330
1A
100
AcDbEntity
  8
SEIHIN
100
AcDbCircle
 10
126.6868865845678
 20
218.2315912179314
 30
0.0
 40
2.0
100
AcDbArc
 50
0.0
 51
90.0
  0
ARC
  5
2AC2
330
1A
100
AcDbEntity
  8
SEIHIN
100
AcDbCircle
 10
126.6868865845678
 20
218.2315912179314
 30
0.0
 40
2.0
100
AcDbArc
 50
0.0
 51
90.0
  0
ARC
  5
2AC3
330
1A
100
AcDbEntity
  8
SEIHIN
100
AcDbCircle
 10
125.5393208775679
 20
218.2315912179314
 30
0.0
 40
2.0
100
AcDbArc
 50
0.0
 51
90.0
  0
LINE
  5
2AC4
330
1A
100
AcDbEntity
  8
SEIHIN
100
AcDbLine
 10
127.2724483595311
 20
220.4595176179314
 30
0.0
 11
127.2724483595311
 21
221.4595176179314
 31
0.0
  0
ARC
  5
2AC5
330
1A
100
AcDbEntity
  8
SEIHIN
100
AcDbCircle
 10
209.3456676075148
 20
213.9595175779314
 30
0.0
 40
3.25
100
AcDbArc
 50
112.6198649480423
 51
247.3801350519577
  0
LINE
  5
2AC6
330
1A
100
AcDbEntity
  8
SEIHIN
100
AcDbLine
 10
205.0517647285524
 20
207.4595175779314
 30
0.0
 11
205.0517647285524
 21
206.4595175779314
 31
0.0
  0
LINE
  5
2AC7
330
1A
100
AcDbEntity
  8
SEIHIN
100
AcDbLine
 10
208.0956676075148
 20
210.9595175779314
 30
0.0
 11
208.0956676075148
 21
207.4595175779314
 31
0.0
  0
LINE
  5
2AC8
330
1A
100
AcDbEntity
  8
SEIHIN
100
AcDbLine
 10
205.0517647285524
 20
220.4595176179314
 30
0.0
 11
205.0517647285524
 21
221.4595176179314
 31
0.0
  0
LINE
  5
2AC9
330
1A
100
AcDbEntity
  8
SEIHIN
100
AcDbLine
 10
208.0956676075148
 20
220.4595176179314
 30
0.0
 11
208.0956676075148
 21
216.9595175779314
 31
0.0
  0
LINE
  5
2ACA
330
1A
100
AcDbEntity
  8
SEIHIN
100
AcDbLine
 10
98.81350645456786
 20
224.9595176179314
 30
0.0
 11
97.81350645456786
 21
224.9595176179314
 31
0.0
  0
DIMENSION
  5
2ACB
330
1A
100
AcDbEntity
  8
SUNPOU
100
AcDbDimension
  2
*D6
 10
265.0758426350679
 20
93.29920764924063
 30
0.0
 11
255.6843571295688
 21
117.6723486039883
 31
0.0
 70
    33
 71
     5
 42
51.99999999999999
  3
STANDARD
100
AcDbAlignedDimension
 13
218.0919251885699
 23
127.945016340986
 33
0.0
 14
241.3470321545678
 24
81.43480240899044
 34
0.0
1001
ACAD
1000
DSTYLE
1002
{
1070
    41
1040
3.0
1070
    42
1040
3.0
1070
    43
1040
7.0
1070
    44
1040
1.5
1070
    73
1070
     0
1070
    74
1070
     0
1070
    77
1070
     3
1070
   140
1040
3.0
1070
   141
1040
3.0
1070
   147
1040
1.0
1070
   172
1070
     1
1070
   173
1070
     1
1070
   176
1070
   256
1070
   177
1070
   256
1070
   178
1070
   256
1070
   271
1070
     0
1070
   272
1070
     0
1070
   341
1005
B2
1070
     6
1000
OPEN
1070
     7
1000
OPEN
1002
}
  0
DIMENSION
  5
2ACC
330
1A
100
AcDbEntity
  8
SUNPOU
100
AcDbDimension
  2
*D7
 10
235.6147022731005
 20
150.0069205281915
 30
0.0
 11
228.1147022690826
 21
152.5069205281915
 31
0.0
 70
    32
 71
     5
 42
15.00000000803598
  3
STANDARD
100
AcDbAlignedDimension
 13
220.6147022650646
 23
122.8994621802707
 33
0.0
 14
235.6147022731005
 24
122.8994621590475
 34
0.0
100
AcDbRotatedDimension
1001
ACAD
1000
DSTYLE
1002
{
1070
    41
1040
3.0
1070
    42
1040
3.0
1070
    43
1040
7.0
1070
    44
1040
1.5
1070
    73
1070
     0
1070
    74
1070
     0
1070
    77
1070
     3
1070
   140
1040
3.0
1070
   141
1040
3.0
1070
   147
1040
1.0
1070
   172
1070
     1
1070
   173
1070
     1
1070
   176
1070
   256
1070
   177
1070
   256
1070
   178
1070
   256
1070
   271
1070
     0
1070
   272
1070
     0
1070
   341
1005
B2
1070
     6
1000
OPEN
1070
     7
1000
OPEN
1002
}
  0
DIMENSION
  5
2ACD
330
1A
100
AcDbEntity
  8
SUNPOU
100
AcDbDimension
  2
*D8
 10
288.2638208329148
 20
104.8931967705386
 30
0.0
 11
282.4500440963337
 21
122.1109201930753
 31
0.0
 70
    33
 71
     5
 42
35.99999998876558
  3
STANDARD
100
AcDbAlignedDimension
 13
294.9846849134188
 23
148.5028523892398
 33
0.0
 14
311.0843743418931
 24
116.3034735210412
 34
0.0
1001
ACAD
1000
DSTYLE
1002
{
1070
    41
1040
3.0
1070
    42
1040
3.0
1070
    43
1040
7.0
1070
    44
1040
1.5
1070
    73
1070
     0
1070
    74
1070
     0
1070
    77
1070
     3
1070
   140
1040
3.0
1070
   141
1040
3.0
1070
   147
1040
1.0
1070
   172
1070
     1
1070
   173
1070
     1
1070
   176
1070
   256
1070
   177
1070
   256
1070
   178
1070
   256
1070
   271
1070
     0
1070
   272
1070
     0
1070
   341
1005
B2
1070
     6
1000
OPEN
1070
     7
1000
OPEN
1002
}
  0
LINE
  5
2ACE
330
1A
100
AcDbEntity
  8
CENTER L
100
AcDbLine
 10
309.3018794525576
 20
179.124264741235
 30
0.0
 11
337.9171900863586
 21
121.893643453637
 31
0.0
  0
LINE
  5
2ACF
330
1A
100
AcDbEntity
  8
SEIHIN
100
AcDbLine
 10
323.8299618326982
 20
133.297590146456
 30
0.0
 11
325.1716026326982
 21
130.614308573056
 31
0.0
  0
LINE
  5
2AD0
330
1A
100
AcDbEntity
  8
SEIHIN
100
AcDbLine
 10
326.7756228326982
 20
129.642336175056
 30
0.0
 11
305.7178112026982
 21
171.757959360056
 31
0.0
  0
LINE
  5
2AD1
330
1A
100
AcDbEntity
  8
SEIHIN
100
AcDbLine
 10
325.8811956326982
 20
129.195122580056
 30
0.0
 11
304.8233840126982
 21
171.310745760056
 31
0.0
  0
LINE
  5
2AD2
330
1A
100
AcDbEntity
  8
SEIHIN
100
AcDbLine
 10
312.8732287226982
 20
117.197900710056
 30
0.0
 11
356.7001610615882
 21
139.111366845501
 31
0.0
  0
LINE
  5
2AD3
330
1A
100
AcDbEntity
  8
SEIHIN
100
AcDbLine
 10
320.7189310326982
 20
131.742074769056
 30
0.0
 11
322.0605718326981
 21
129.058793196056
 31
0.0
  0
LINE
  5
2AD4
330
1A
100
AcDbEntity
  8
SEIHIN
100
AcDbLine
 10
322.0605718326981
 20
129.058793196056
 30
0.0
 11
326.0660298326982
 21
131.061522169056
 31
0.0
  0
LINE
  5
2AD5
330
1A
100
AcDbEntity
  8
SEIHIN
100
AcDbLine
 10
337.5087491326981
 20
132.772831344056
 30
0.0
 11
329.4589043326982
 21
128.747908984056
 31
0.0
  0
LINE
  5
2AD6
330
1A
100
AcDbEntity
  8
SEIHIN
100
AcDbLine
 10
295.8791121026982
 20
146.713998010056
 30
0.0
 11
310.1899471526982
 21
118.092327900056
 31
0.0
  0
LINE
  5
2AD7
330
1A
100
AcDbEntity
  8
SEIHIN
100
AcDbLine
 10
235.3543699745679
 20
78.43847131899042
 30
0.0
 11
219.2546805345679
 21
110.6378501929904
 31
0.0
  0
LINE
  5
2AD8
330
1A
100
AcDbEntity
  8
SEIHIN
100
AcDbLine
 10
225.2473427145679
 20
113.6341812829904
 30
0.0
 11
241.3470321545678
 21
81.43480240899044
 31
0.0
  0
LINE
  5
2AD9
330
1A
100
AcDbEntity
  8
SEIHIN
100
AcDbLine
 10
224.1740300845679
 20
113.0975249678904
 30
0.0
 11
240.2737195245679
 21
80.89814608899042
 31
0.0
  0
LINE
  5
2ADA
330
1A
100
AcDbEntity
  8
CENTER L
100
AcDbLine
 10
246.5386923197343
 20
82.71572465846634
 30
0.0
 11
260.1339856253915
 21
89.51337130891977
 31
0.0
  0
LINE
  5
2ADB
330
1A
100
AcDbEntity
  8
CENTER L
100
AcDbLine
 10
231.5386923197343
 20
82.71572465846634
 30
0.0
 11
245.1339856253914
 21
89.51337130891977
 31
0.0
  0
LINE
  5
2ADC
330
1A
100
AcDbEntity
  8
SEIHIN
  6
DASHED
 62
     2
100
AcDbLine
 10
239.1740300845678
 20
113.0975249689905
 30
0.0
 11
255.2737195245678
 21
80.89814608899042
 31
0.0
  0
LINE
  5
2ADD
330
1A
100
AcDbEntity
  8
SEIHIN
  6
DASHED
 62
     2
100
AcDbLine
 10
240.2473427145678
 20
113.6341812789904
 30
0.0
 11
256.3470321545678
 21
81.43480240899044
 31
0.0
  0
LINE
  5
2ADE
330
1A
100
AcDbEntity
  8
SEIHIN
  6
DASHED
 62
     2
100
AcDbLine
 10
250.3543699745678
 20
78.43847131899042
 30
0.0
 11
234.2546805345678
 21
110.6378501889905
 31
0.0
  0
TEXT
  5
2ADF
330
1A
100
AcDbEntity
  8
SUNPOU
100
AcDbText
 10
245.5389652632794
 20
55.29517242189094
 30
0.0
 40
3.0
  1
10
100
AcDbText
  0
LINE
  5
2AE0
330
1A
100
AcDbEntity
  8
SUNPOU
100
AcDbLine
 10
241.3470321545678
 20
81.43480240899044
 30
0.0
 11
255.6317990674131
 21
52.86526859128527
 31
0.0
  0
LINE
  5
2AE1
330
1A
100
AcDbEntity
  8
SEIHIN
100
AcDbLine
 10
241.3470321545678
 20
81.43480240899044
 30
0.0
 11
235.3543699745679
 21
78.43847131899042
 31
0.0
  0
LINE
  5
2AE2
330
1A
100
AcDbEntity
  8
SUNPOU
100
AcDbLine
 10
250.6317990674131
 20
52.86526859128527
 30
0.0
 11
250.6317990674131
 21
62.86526859128527
 31
0.0
  0
TEXT
  5
2AE3
330
1A
100
AcDbEntity
  8
SUNPOU
100
AcDbText
 10
251.6378757198059
 20
47.78187181088767
 30
0.0
 40
3.0
  1
5
100
AcDbText
  0
LINE
  5
2AE4
330
1A
100
AcDbEntity
  8
SUNPOU
100
AcDbLine
 10
255.6317990674131
 20
52.86526859128527
 30
0.0
 11
250.6317990674131
 21
52.86526859128527
 31
0.0
  0
LINE
  5
2AE5
330
1A
100
AcDbEntity
  8
SEIHIN
  6
DASHED
 62
     2
100
AcDbLine
 10
256.3470321545678
 20
81.43480240899044
 30
0.0
 11
250.3543699745678
 21
78.43847131899042
 31
0.0
  0
LINE
  5
2AE6
330
1A
100
AcDbEntity
  8
CENTER L
100
AcDbLine
 10
239.1596679908073
 20
97.4737733172371
 30
0.0
 11
252.7549612949977
 21
104.2714199669572
 31
0.0
  0
LINE
  5
2AE7
330
1A
100
AcDbEntity
  8
CENTER L
100
AcDbLine
 10
235.3583524282899
 20
105.0764044427441
 30
0.0
 11
248.9536457317248
 21
111.8740510920864
 31
0.0
  0
LINE
  5
2AE8
330
1A
100
AcDbEntity
  8
SEIHIN
100
AcDbLine
 10
226.4100980309542
 20
108.6253890799401
 30
0.0
 11
225.068457243555
 21
104.6004667220724
 31
0.0
  0
LINE
  5
2AE9
330
1A
100
AcDbEntity
  8
CENTER L
100
AcDbLine
 10
220.3583524282899
 20
105.0764044427441
 30
0.0
 11
233.9536457317248
 21
111.8740510920864
 31
0.0
  0
LINE
  5
2AEA
330
1A
100
AcDbEntity
  8
CENTER L
100
AcDbLine
 10
224.1596679908073
 20
97.4737733172371
 30
0.0
 11
237.7549612949977
 21
104.2714199669572
 31
0.0
  0
LINE
  5
2AEB
330
1A
100
AcDbEntity
  8
SEIHIN
100
AcDbLine
 10
225.068457243555
 20
104.6004667220724
 30
0.0
 11
229.0933796038206
 21
103.2588259338739
 31
0.0
  0
LINE
  5
2AEC
330
1A
100
AcDbEntity
  8
SEIHIN
100
AcDbLine
 10
225.068457243555
 20
104.6004667220724
 30
0.0
 11
227.7517388173874
 21
105.942107506907
 31
0.0
  0
LINE
  5
2AED
330
1A
100
AcDbEntity
  8
SEIHIN
100
AcDbLine
 10
234.0127291501105
 20
86.71192290785018
 30
0.0
 11
238.0376515103761
 21
85.37028211965166
 31
0.0
  0
LINE
  5
2AEE
330
1A
100
AcDbEntity
  8
SEIHIN
100
AcDbLine
 10
235.3543699375097
 20
90.73684526571783
 30
0.0
 11
234.0127291501105
 21
86.71192290785018
 31
0.0
  0
LINE
  5
2AEF
330
1A
100
AcDbEntity
  8
SEIHIN
100
AcDbLine
 10
234.0127291501105
 20
86.7119229078502
 30
0.0
 11
236.6960107239429
 21
88.05356369268475
 31
0.0
  0
ARC
  5
2AF0
330
1A
100
AcDbEntity
  8
SEIHIN
  6
DASHED
 62
     2
100
AcDbCircle
 10
229.0670028245678
 20
114.7522152689904
 30
0.0
 40
3.999999999152389
100
AcDbArc
 50
26.56506219516107
 51
170.7918455333397
  0
ARC
  5
2AF1
330
1A
100
AcDbEntity
  8
SEIHIN
  6
DASHED
 62
     2
100
AcDbCircle
 10
229.0670028245678
 20
114.7522152689904
 30
0.0
 40
9.999999998522068
100
AcDbArc
 50
52.40698390668664
 51
170.7918456209258
  0
LINE
  5
2AF2
330
1A
100
AcDbEntity
  8
SEIHIN
100
AcDbLine
 10
220.1674886700544
 20
122.6758553827656
 30
0.0
 11
224.8001291245679
 21
113.4105744847904
 31
0.0
  0
LINE
  5
2AF3
330
1A
100
AcDbEntity
  8
SEIHIN
100
AcDbLine
 10
219.2546805345679
 20
110.6378501929904
 30
0.0
 11
225.2473427145679
 21
113.6341812829904
 31
0.0
  0
LINE
  5
2AF4
330
1A
100
AcDbEntity
  8
SEIHIN
100
AcDbLine
 10
217.6447112545678
 20
116.5410703389904
 30
0.0
 11
220.3279931645678
 21
111.1745065069904
 31
0.0
  0
LINE
  5
2AF5
330
1A
100
AcDbEntity
  8
SEIHIN
  6
DASHED
 62
     2
100
AcDbLine
 10
235.1674886783449
 20
122.6758553616692
 30
0.0
 11
239.8001291145678
 21
113.4105744789904
 31
0.0
  0
LINE
  5
2AF6
330
1A
100
AcDbEntity
  8
SEIHIN
  6
DASHED
 62
     2
100
AcDbLine
 10
234.2546805345678
 20
110.6378501889905
 30
0.0
 11
240.2473427145678
 21
113.6341812789904
 31
0.0
  0
LINE
  5
2AF7
330
1A
100
AcDbEntity
  8
SEIHIN
  6
DASHED
 62
     2
100
AcDbLine
 10
232.6447112445678
 20
116.5410703389904
 30
0.0
 11
235.3279931645678
 21
111.1745065089904
 31
0.0
  0
LINE
  5
2AF8
330
1A
100
AcDbEntity
  8
CENTER L
100
AcDbLine
 10
308.98247045442
 20
121.4017085017138
 30
0.0
 11
318.1056278109762
 21
125.9632871783981
 31
0.0
  0
LINE
  5
2AF9
330
1A
100
AcDbEntity
  8
CENTER L
100
AcDbLine
 10
311.263259794356
 20
128.2440765183341
 30
0.0
 11
315.8248384710403
 21
119.1209191617779
 31
0.0
  0
ARC
  5
2AFA
330
1A
100
AcDbEntity
  8
SEIHIN
100
AcDbCircle
 10
311.9788015326982
 20
118.986755090056
 30
0.0
 40
1.999999997764122
100
AcDbArc
 50
206.5650511770764
 51
296.5650511770776
  0
CIRCLE
  5
2AFB
330
1A
100
AcDbEntity
  8
SEIHIN
100
AcDbCircle
 10
313.5440491326982
 20
123.682497840056
 30
0.0
 40
2.099999995980734
  0
DIMENSION
  5
2AFC
330
1A
100
AcDbEntity
  8
SUNPOU
100
AcDbDimension
  2
*D9
 10
296.6573020711769
 20
109.0899373882034
 30
0.0
 11
297.6635326642824
 21
112.6676461466013
 31
0.0
 70
    33
 71
     5
 42
5.499999987788613
  3
STANDARD
100
AcDbAlignedDimension
 13
308.6246995727919
 23
121.2228230609623
 33
0.0
 14
311.0843743418931
 24
116.3034735210412
 34
0.0
1001
ACAD
1000
DSTYLE
1002
{
1070
    41
1040
3.0
1070
    42
1040
3.0
1070
    43
1040
7.0
1070
    44
1040
1.5
1070
    73
1070
     0
1070
    74
1070
     0
1070
    77
1070
     3
1070
   140
1040
3.0
1070
   141
1040
3.0
1070
   147
1040
1.0
1070
   172
1070
     1
1070
   173
1070
     1
1070
   176
1070
   256
1070
   177
1070
   256
1070
   178
1070
   256
1070
   271
1070
     0
1070
   272
1070
     0
1070
   341
1005
B2
1070
     6
1000
OPEN
1070
     7
1000
OPEN
1002
}
  0
ARC
  5
2AFD
330
1A
100
AcDbEntity
  8
SEIHIN
100
AcDbCircle
 10
328.5644771326982
 20
130.536763366056
 30
0.0
 40
1.999999965341132
100
AcDbArc
 50
206.5650522276384
 51
296.5650514076892
  0
LINE
  5
2AFE
330
1A
100
AcDbEntity
  8
SEIHIN
100
AcDbLine
 10
325.1716026326982
 20
130.614308573056
 30
0.0
 11
328.0784909326982
 21
124.800531832056
 31
0.0
  0
LINE
  5
2AFF
330
1A
100
AcDbEntity
  8
SEIHIN
100
AcDbLine
 10
324.3924541326982
 20
130.224734361056
 30
0.0
 11
327.2993425326982
 21
124.410957619056
 31
0.0
  0
SPLINE
  5
2B00
330
1A
100
AcDbEntity
  8
SEIHIN
100
AcDbSpline
210
0.0
220
0.0
230
1.0
 70
     8
 71
     3
 72
    43
 73
    39
 74
     0
 42
0.0000000001
 43
0.0000000001
 40
2.57380128242174
 40
2.57380128242174
 40
2.57380128242174
 40
2.57380128242174
 40
2.743484381278567
 40
2.743484381278567
 40
2.952958003969504
 40
2.952958003969504
 40
3.16243162666044
 40
3.16243162666044
 40
3.371905249351376
 40
3.371905249351376
 40
3.581378872042312
 40
3.581378872042312
 40
3.790852494733248
 40
3.790852494733248
 40
4.212890898554043
 40
4.212890898554043
 40
4.634929302374837
 40
4.634929302374837
 40
4.71238898038469
 40
4.71238898038469
 40
4.71238898038469
 40
5.035006403854933
 40
5.035006403854933
 40
5.404586182618241
 40
5.404586182618241
 40
5.774165961381549
 40
5.774165961381549
 40
6.00394318856648
 40
6.00394318856648
 40
6.233720415751412
 40
6.233720415751412
 40
6.426033209648384
 40
6.426033209648384
 40
6.618346003545357
 40
6.618346003545357
 40
6.810658797442329
 40
6.810658797442329
 40
6.85074050005261
 40
6.85074050005261
 40
6.85074050005261
 40
6.85074050005261
 10
233.5230116273175
 20
216.9595176079314
 30
0.0
 10
233.6219624615843
 20
217.094421215908
 30
0.0
 10
233.7336738419305
 20
217.2206996367915
 30
0.0
 10
234.0201866397337
 20
217.4781467349213
 30
0.0
 10
234.2057218406705
 20
217.6032504284121
 30
0.0
 10
234.6345758499999
 20
217.7781690494496
 30
0.0
 10
234.878691968251
 20
217.8246005133024
 30
0.0
 10
235.362930012339
 20
217.8030375312974
 30
0.0
 10
235.5981617242839
 20
217.7359753412893
 30
0.0
 10
236.0048724280812
 20
217.5322292001545
 30
0.0
 10
236.1781683003894
 20
217.3980591296462
 30
0.0
 10
236.474899466636
 20
217.099760390701
 30
0.0
 10
236.5994782999981
 20
216.9349089598682
 30
0.0
 10
236.926104649652
 20
216.4052150517958
 30
0.0
 10
237.080838620495
 20
216.0053076385103
 30
0.0
 10
237.300680229723
 20
215.1445008108469
 30
0.0
 10
237.3635517749893
 20
214.6834916441819
 30
0.0
 10
237.3836163500853
 20
214.131166009221
 30
0.0
 10
237.3851721216944
 20
214.045341843877
 30
0.0
 10
237.3851721216944
 20
213.9595175979314
 30
0.0
 10
237.3851721216944
 20
213.6020619796067
 30
0.0
 10
237.3582083726411
 20
213.2447070381818
 30
0.0
 10
237.2423073899323
 20
212.5039673283816
 30
0.0
 10
237.1454880717616
 20
212.124725476605
 30
0.0
 10
236.8741122470985
 20
211.425353670551
 30
0.0
 10
236.7014657801106
 20
211.10373564904
 30
0.0
 10
236.319726349158
 20
210.6485716184689
 30
0.0
 10
236.1475064349402
 20
210.4890796990562
 30
0.0
 10
235.7310699447382
 20
210.2339631500182
 30
0.0
 10
235.4833326328511
 20
210.1405257641323
 30
0.0
 10
234.9991397876002
 20
210.0893127230738
 30
0.0
 10
234.7713520413413
 20
210.1132255089619
 30
0.0
 10
234.3575252095033
 20
210.2403916199862
 30
0.0
 10
234.1720212280549
 20
210.3410473518573
 30
0.0
 10
233.851591504539
 20
210.5794980581865
 30
0.0
 10
233.7152117241835
 20
210.7171807567865
 30
0.0
 10
233.5712696826025
 20
210.8963301386364
 30
0.0
 10
233.5471564312442
 20
210.9276972109173
 30
0.0
 10
233.523725312727
 20
210.9595176079314
 30
0.0
  0
ELLIPSE
  5
2B01
330
1A
100
AcDbEntity
  8
SEIHIN
100
AcDbEllipse
 10
240.4526049634843
 20
189.4595175979314
 30
0.0
 11
-2.072950746623282E-14
 21
2.0
 31
0.0
210
0.0
220
0.0
230
-1.0
 40
0.4472135955417542
 41
1.570796326794901
 42
3.141592653589816
  0
ELLIPSE
  5
2B02
330
1A
100
AcDbEntity
  8
SEIHIN
100
AcDbEllipse
 10
226.1417699077011
 20
189.4595175979314
 30
0.0
 11
-2.191405071616349E-15
 21
2.0
 31
0.0
210
0.0
220
0.0
230
-1.0
 40
0.4472135955666232
 41
3.141592652286929
 42
4.712388980384691
  0
ELLIPSE
  5
2B03
330
1A
100
AcDbEntity
  8
SEIHIN
100
AcDbEllipse
 10
225.0684572777011
 20
189.4595175979314
 30
0.0
 11
-2.191405071616349E-15
 21
2.0
 31
0.0
210
0.0
220
0.0
230
-1.0
 40
0.4472135955666232
 41
3.141592652286929
 42
4.712388980384691
  0
ELLIPSE
  5
2B04
330
1A
100
AcDbEntity
  8
SEIHIN
100
AcDbEllipse
 10
227.6926553942878
 20
192.9595175979314
 30
0.0
 11
0.0
 21
2.1000000000672
 31
0.0
210
0.0
220
0.0
230
1.0
 40
0.4867014234079679
 41
-1.570796326794897
 42
4.71238898038469
  0
ELLIPSE
  5
2B05
330
1A
100
AcDbEntity
  8
SEIHIN
100
AcDbEllipse
 10
227.6926553942878
 20
192.9595175979314
 30
0.0
 11
0.0
 21
2.100000000067212
 31
0.0
210
0.0
220
0.0
230
1.0
 40
0.4867014234079722
 41
3.141592653589807
 42
6.2831853071796
  0
ELLIPSE
  5
2B06
330
1A
100
AcDbEntity
  8
SEIHIN
100
AcDbEllipse
 10
227.6926553942878
 20
192.9595175979314
 30
0.0
 11
5.839660223590474E-14
 21
-2.100000000067212
 31
0.0
210
0.0
220
0.0
230
1.0
 40
0.4867014234079722
 41
3.141592653589751
 42
6.283185307179544
  0
ELLIPSE
  5
2B07
330
1A
100
AcDbEntity
  8
SEIHIN
100
AcDbEllipse
 10
231.4939709575608
 20
194.4595175979314
 30
0.0
 11
0.0
 21
2.874999999613672
 31
0.0
210
0.0
220
0.0
230
1.0
 40
0.3913043478762229
 41
-1.570796326794897
 42
4.71238898038469
  0
ELLIPSE
  5
2B08
330
1A
100
AcDbEntity
  8
SEIHIN
100
AcDbEllipse
 10
238.8729952879545
 20
192.9595175979314
 30
0.0
 11
0.0
 21
2.1000000000672
 31
0.0
210
0.0
220
0.0
230
1.0
 40
0.4867014234079679
 41
-1.570796326794897
 42
4.71238898038469
  0
ELLIPSE
  5
2B09
330
1A
100
AcDbEntity
  8
SEIHIN
100
AcDbEllipse
 10
225.0684572777011
 20
238.4595175979314
 30
0.0
 11
2.191405071616349E-15
 21
2.0
 31
0.0
210
0.0
220
0.0
230
1.0
 40
0.4472135955666232
 41
-0.0000000013028634
 42
1.570796326794897
  0
ELLIPSE
  5
2B0A
330
1A
100
AcDbEntity
  8
SEIHIN
100
AcDbEllipse
 10
240.4526049634843
 20
238.4595175979314
 30
0.0
 11
2.072950746623282E-14
 21
2.0
 31
0.0
210
0.0
220
0.0
230
1.0
 40
0.4472135955417542
 41
-1.570796326794892
 42
0.0000000000000233
  0
ELLIPSE
  5
2B0B
330
1A
100
AcDbEntity
  8
SEIHIN
100
AcDbEllipse
 10
226.1417699077011
 20
238.4595175979314
 30
0.0
 11
2.191405071616349E-15
 21
2.0
 31
0.0
210
0.0
220
0.0
230
1.0
 40
0.4472135955666232
 41
-0.0000000013028634
 42
1.570796326794897
  0
ELLIPSE
  5
2B0C
330
1A
100
AcDbEntity
  8
SEIHIN
100
AcDbEllipse
 10
238.8729952879545
 20
234.9595175979314
 30
0.0
 11
0.0
 21
-2.1000000000672
 31
0.0
210
0.0
220
0.0
230
-1.0
 40
0.4867014234079679
 41
-1.570796326794897
 42
4.71238898038469
  0
ELLIPSE
  5
2B0D
330
1A
100
AcDbEntity
  8
SEIHIN
100
AcDbEllipse
 10
235.0484719152678
 20
213.9595175979314
 30
0.0
 11
0.0
 21
-2.8559114857152
 31
0.0
210
0.0
220
0.0
230
-1.0
 40
0.4680467910551545
 41
-1.570796326794897
 42
4.71238898038469
  0
ELLIPSE
  5
2B0E
330
1A
100
AcDbEntity
  8
SEIHIN
100
AcDbEllipse
 10
231.4939709575608
 20
233.4595175979314
 30
0.0
 11
0.0
 21
-2.874999999613672
 31
0.0
210
0.0
220
0.0
230
-1.0
 40
0.3913043478762229
 41
-1.570796326794897
 42
4.71238898038469
  0
ELLIPSE
  5
2B0F
330
1A
100
AcDbEntity
  8
SEIHIN
100
AcDbEllipse
 10
227.6926553942878
 20
234.9595175979314
 30
0.0
 11
0.0
 21
-2.1000000000672
 31
0.0
210
0.0
220
0.0
230
-1.0
 40
0.4867014234079679
 41
-1.570796326794897
 42
4.71238898038469
  0
ELLIPSE
  5
2B10
330
1A
100
AcDbEntity
  8
SEIHIN
100
AcDbEllipse
 10
227.6926553942878
 20
234.9595175979314
 30
0.0
 11
0.0
 21
-2.100000000067212
 31
0.0
210
0.0
220
0.0
230
-1.0
 40
0.4867014234079722
 41
3.141592653589807
 42
6.283185307179601
  0
ELLIPSE
  5
2B11
330
1A
100
AcDbEntity
  8
SEIHIN
100
AcDbEllipse
 10
227.6926553942878
 20
234.9595175979314
 30
0.0
 11
5.839660223590474E-14
 21
2.100000000067212
 31
0.0
210
0.0
220
0.0
230
-1.0
 40
0.4867014234079722
 41
3.14159265358975
 42
6.283185307179544
  0
DIMENSION
  5
2B12
330
1A
100
AcDbEntity
  8
SUNPOU
100
AcDbDimension
  2
*D10
 10
359.8374419143948
 20
165.2767550285086
 30
0.0
 11
358.9430147324458
 21
172.6557793599996
 31
0.0
 70
    33
 71
     5
 42
14.00000000979239
  3
STANDARD
100
AcDbAlignedDimension
 13
342.389326038482
 23
172.2051729653008
 33
0.0
 14
348.6503163607857
 24
159.6831922730059
 34
0.0
1001
ACAD
1000
DSTYLE
1002
{
1070
    41
1040
3.0
1070
    42
1040
3.0
1070
    43
1040
7.0
1070
    44
1040
1.5
1070
    73
1070
     0
1070
    74
1070
     0
1070
    77
1070
     3
1070
   140
1040
3.0
1070
   141
1040
3.0
1070
   147
1040
1.0
1070
   172
1070
     1
1070
   173
1070
     1
1070
   176
1070
   256
1070
   177
1070
   256
1070
   178
1070
   256
1070
   271
1070
     0
1070
   272
1070
     0
1070
   341
1005
B2
1070
     6
1000
OPEN
1070
     7
1000
OPEN
1002
}
  0
LINE
  5
2B13
330
1A
100
AcDbEntity
  8
CENTER L
100
AcDbLine
 10
339.594241060975
 20
162.1428670554555
 30
0.0
 11
345.1844110044214
 21
150.9625271646564
 31
0.0
  0
LINE
  5
2B14
330
1A
100
AcDbEntity
  8
CENTER L
100
AcDbLine
 10
336.7991560872987
 20
153.7576121383328
 30
0.0
 11
347.9794959780978
 21
159.3477820817792
 31
0.0
  0
CIRCLE
  5
2B15
330
1A
100
AcDbEntity
  8
SEIHIN
100
AcDbCircle
 10
342.3893260326982
 20
156.552697110056
 30
0.0
 40
3.249999988758973
  0
LINE
  5
2B16
330
1A
100
AcDbEntity
  8
SEIHIN
100
AcDbLine
 10
343.2837532326982
 20
170.416318570056
 30
0.0
 11
357.5945882550608
 21
141.7946484163309
 31
0.0
  0
INSERT
  5
2B17
330
1A
100
AcDbEntity
  8
SUNPOU
100
AcDbBlockReference
  2
_OPEN
 10
343.2839785797535
 20
159.6312304081782
 30
0.0
 41
2.999999999999982
 42
3.0
 43
3.0
 50
251.7065953267104
1001
ACAD
1000
DSTYLE
1002
{
1070
    41
1040
3.0
1070
    42
1040
3.0
1070
    43
1040
7.0
1070
    44
1040
1.5
1070
    73
1070
     0
1070
    74
1070
     0
1070
    77
1070
     0
1070
   140
1040
3.0
1070
   141
1040
3.0
1070
   147
1040
1.0
1070
   172
1070
     1
1070
   173
1070
     1
1070
   176
1070
   256
1070
   177
1070
   256
1070
   178
1070
   256
1070
   271
1070
     0
1070
   272
1070
     0
1070
   341
1005
B2
1070
   343
1005
B2
1070
   344
1005
B2
1002
}
  0
LWPOLYLINE
  5
2B18
330
1A
100
AcDbEntity
  8
SUNPOU
100
AcDbPolyline
 90
        3
 70
     0
 43
0.0
 10
344.2256280758415
 20
162.4796152534049
 10
355.3361633394291
 20
196.0877469400125
 10
371.1856131799334
 20
196.0877469400125
1001
ACAD
1000
DSTYLE
1002
{
1070
    41
1040
3.0
1070
    42
1040
3.0
1070
    43
1040
7.0
1070
    44
1040
1.5
1070
    73
1070
     0
1070
    74
1070
     0
1070
    77
1070
     0
1070
   140
1040
3.0
1070
   141
1040
3.0
1070
   147
1040
1.0
1070
   172
1070
     1
1070
   173
1070
     1
1070
   176
1070
   256
1070
   177
1070
   256
1070
   178
1070
   256
1070
   271
1070
     0
1070
   272
1070
     0
1070
   341
1005
B2
1070
   343
1005
B2
1070
   344
1005
B2
1002
}
  0
DIMENSION
  5
2B19
330
1A
100
AcDbEntity
  8
SUNPOU
100
AcDbDimension
  2
*D11
 10
258.2766613410063
 20
187.4595175979314
 30
0.0
 11
255.7766613410063
 21
213.9595175979314
 31
0.0
 70
    32
 71
     5
 42
53.0
  3
STANDARD
100
AcDbAlignedDimension
 13
240.4526049634843
 23
240.4595175979314
 33
0.0
 14
240.4526049634843
 24
187.4595175979314
 34
0.0
 50
90.0
100
AcDbRotatedDimension
1001
ACAD
1000
DSTYLE
1002
{
1070
    41
1040
3.0
1070
    42
1040
3.0
1070
    43
1040
7.0
1070
    44
1040
1.5
1070
    73
1070
     0
1070
    74
1070
     0
1070
    77
1070
     3
1070
   140
1040
3.0
1070
   141
1040
3.0
1070
   147
1040
1.0
1070
   172
1070
     1
1070
   173
1070
     1
1070
   176
1070
   256
1070
   177
1070
   256
1070
   178
1070
   256
1070
   271
1070
     0
1070
   272
1070
     0
1070
   341
1005
B2
1070
     6
1000
OPEN
1070
     7
1000
OPEN
1002
}
  0
ARC
  5
2B1A
330
1A
100
AcDbEntity
  8
SEIHIN
100
AcDbCircle
 10
239.6470321545678
 20
223.7825691879314
 30
0.0
 40
1.70000000052183
100
AcDbArc
 50
279.0000000091573
 51
0.000011122122682
  0
LINE
  5
2B1B
330
1A
100
AcDbEntity
  8
SEIHIN
100
AcDbLine
 10
238.0862126915678
 20
224.4595175979314
 30
0.0
 11
236.6968109825678
 21
222.3883227879314
 31
0.0
  0
LINE
  5
2B1C
330
1A
100
AcDbEntity
  8
SEIHIN
100
AcDbLine
 10
238.0862126915678
 20
221.4595175979314
 30
0.0
 11
238.0862126915678
 21
224.4595175979314
 31
0.0
  0
LINE
  5
2B1D
330
1A
100
AcDbEntity
  8
SEIHIN
100
AcDbLine
 10
231.4114331505678
 20
221.4595175979314
 30
0.0
 11
231.4114331505678
 21
224.4595175979314
 31
0.0
  0
LINE
  5
2B1E
330
1A
100
AcDbEntity
  8
SEIHIN
100
AcDbLine
 10
236.6968109825678
 20
224.4595175979314
 30
0.0
 11
236.6968109825678
 21
221.4595175979314
 31
0.0
  0
ARC
  5
2B1F
330
1A
100
AcDbEntity
  8
SEIHIN
100
AcDbCircle
 10
223.5473427137332
 20
223.7825691879314
 30
0.0
 40
1.700000002834682
100
AcDbArc
 50
279.0000001423114
 51
0.0
  0
LINE
  5
2B20
330
1A
100
AcDbEntity
  8
SEIHIN
100
AcDbLine
 10
230.0220314415678
 20
224.4595175979314
 30
0.0
 11
230.0220314415678
 21
221.4595175979314
 31
0.0
  0
LINE
  5
2B21
330
1A
100
AcDbEntity
  8
SEIHIN
100
AcDbLine
 10
224.1740300865678
 20
238.4595175979314
 30
0.0
 11
224.1740300865678
 21
223.1608574179314
 31
0.0
  0
LINE
  5
2B22
330
1A
100
AcDbEntity
  8
SEIHIN
100
AcDbLine
 10
231.4114331505678
 20
224.4595175979314
 30
0.0
 11
230.0220314415678
 21
222.3883227879314
 31
0.0
  0
DIMENSION
  5
2B23
330
1A
100
AcDbEntity
  8
SUNPOU
100
AcDbDimension
  2
*D12
 10
323.3735589179395
 20
210.2367071846775
 30
0.0
 11
298.5532043661474
 21
200.6216148738915
 31
0.0
 70
    33
 71
     5
 42
53.00000000836235
  3
STANDARD
100
AcDbAlignedDimension
 13
294.9846849134188
 23
148.5028523892398
 33
0.0
 14
342.389326038482
 24
172.2051729653008
 34
0.0
1001
ACAD
1000
DSTYLE
1002
{
1070
    41
1040
3.0
1070
    42
1040
3.0
1070
    43
1040
7.0
1070
    44
1040
1.5
1070
    73
1070
     0
1070
    74
1070
     0
1070
    77
1070
     3
1070
   140
1040
3.0
1070
   141
1040
3.0
1070
   147
1040
1.0
1070
   172
1070
     1
1070
   173
1070
     1
1070
   176
1070
   256
1070
   177
1070
   256
1070
   178
1070
   256
1070
   271
1070
     0
1070
   272
1070
     0
1070
   341
1005
B2
1070
     6
1000
OPEN
1070
     7
1000
OPEN
1002
}
  0
DIMENSION
  5
2B24
330
1A
100
AcDbEntity
  8
SUNPOU
100
AcDbDimension
  2
*D13
 10
283.0172874132009
 20
136.3699667136872
 30
0.0
 11
284.0235180056079
 21
139.947675473482
 31
0.0
 70
    33
 71
     5
 42
5.499999990912329
  3
STANDARD
100
AcDbAlignedDimension
 13
294.9846849134188
 23
148.5028523892398
 33
0.0
 14
297.4443596839169
 24
143.5835028465247
 34
0.0
1001
ACAD
1000
DSTYLE
1002
{
1070
    41
1040
3.0
1070
    42
1040
3.0
1070
    43
1040
7.0
1070
    44
1040
1.5
1070
    73
1070
     0
1070
    74
1070
     0
1070
    77
1070
     3
1070
   140
1040
3.0
1070
   141
1040
3.0
1070
   147
1040
1.0
1070
   172
1070
     1
1070
   173
1070
     1
1070
   176
1070
   256
1070
   177
1070
   256
1070
   178
1070
   256
1070
   271
1070
     0
1070
   272
1070
     0
1070
   341
1005
B2
1070
     6
1000
OPEN
1070
     7
1000
OPEN
1002
}
  0
LWPOLYLINE
  5
2B25
330
1A
100
AcDbEntity
  8
SUNPOU
100
AcDbPolyline
 90
        3
 70
     0
 43
0.0
 10
298.0112203451835
 20
148.0582221150344
 10
276.596044270422
 20
166.5075608103596
 10
259.0142576335134
 20
166.5075608103596
1001
ACAD
1000
DSTYLE
1002
{
1070
    41
1040
3.0
1070
    42
1040
3.0
1070
    43
1040
7.0
1070
    44
1040
1.5
1070
    73
1070
     0
1070
    74
1070
     0
1070
    77
1070
     0
1070
   140
1040
3.0
1070
   141
1040
3.0
1070
   147
1040
1.0
1070
   172
1070
     1
1070
   173
1070
     1
1070
   176
1070
   256
1070
   177
1070
   256
1070
   178
1070
   256
1070
   271
1070
     0
1070
   272
1070
     0
1070
   341
1005
B2
1070
   343
1005
B2
1070
   344
1005
B2
1002
}
  0
TEXT
  5
2B26
330
1A
100
AcDbEntity
  8
SUNPOU
100
AcDbText
 10
220.8123769982612
 20
156.0221771852043
 30
0.0
 40
3.0
  1
（スライド幅）
100
AcDbText
  0
TEXT
  5
2B27
330
1A
100
AcDbEntity
  8
SUNPOU
100
AcDbText
 10
259.9960442704222
 20
167.2166116169735
 30
0.0
 40
3.0
  1
4-φ4.2
100
AcDbText
  0
LINE
  5
2B28
330
1A
100
AcDbEntity
  8
SEIHIN
100
AcDbLine
 10
224.1740300865678
 20
189.4595175979314
 30
0.0
 11
224.1740300865678
 21
204.7581777779314
 31
0.0
  0
LINE
  5
2B29
330
1A
100
AcDbEntity
  8
SEIHIN
100
AcDbLine
 10
225.2473427165679
 20
204.1364660079314
 30
0.0
 11
225.2473427165678
 21
189.4595175979314
 31
0.0
  0
LINE
  5
2B2A
330
1A
100
AcDbEntity
  8
SEIHIN
100
AcDbLine
 10
241.3470321545678
 20
204.1364656779314
 30
0.0
 11
241.3470321545678
 21
189.4595175979314
 31
0.0
  0
LINE
  5
2B2B
330
1A
100
AcDbEntity
  8
SEIHIN
100
AcDbLine
 10
240.4526049634843
 20
187.4595175979314
 30
0.0
 11
225.0684572777011
 21
187.4595175979314
 31
0.0
  0
ARC
  5
2B2C
330
1A
100
AcDbEntity
  8
SEIHIN
100
AcDbCircle
 10
222.9512823232878
 20
192.9595175979314
 30
0.0
 40
5.185616510927503
100
AcDbArc
 50
336.1109838310729
 51
23.88901616892705
  0
ARC
  5
2B2D
330
1A
100
AcDbEntity
  8
SEIHIN
100
AcDbCircle
 10
224.2144938885608
 20
194.4595175979314
 30
0.0
 40
7.826647519730068
100
AcDbArc
 50
338.4486589039112
 51
21.55134109608887
  0
ARC
  5
2B2E
330
1A
100
AcDbEntity
  8
SEIHIN
100
AcDbCircle
 10
234.1316222175545
 20
192.9595175979314
 30
0.0
 40
5.185616510378906
100
AcDbArc
 50
336.1109838283907
 51
23.88901617160926
  0
ARC
  5
2B2F
330
1A
100
AcDbEntity
  8
SEIHIN
100
AcDbCircle
 10
217.524159190099
 20
213.9595176679315
 30
0.0
 40
3.25
100
AcDbArc
 50
292.6198621978419
 51
67.38013230175727
  0
LINE
  5
2B30
330
1A
100
AcDbEntity
  8
SEIHIN
100
AcDbLine
 10
220.1674886700544
 20
207.4595175879314
 30
0.0
 11
220.1674886700544
 21
206.4595175879314
 31
0.0
  0
LINE
  5
2B31
330
1A
100
AcDbEntity
  8
SEIHIN
100
AcDbLine
 10
218.7741593340993
 20
210.9595176079314
 30
0.0
 11
218.7741593340993
 21
207.4595175879314
 31
0.0
  0
ARC
  5
2B32
330
1A
100
AcDbEntity
  8
SEIHIN
100
AcDbCircle
 10
223.8195198449992
 20
206.9533617679314
 30
0.0
 40
1.699999999832982
100
AcDbArc
 50
196.8876873722947
 51
266.2081650705318
  0
LINE
  5
2B33
330
1A
100
AcDbEntity
  8
SEIHIN
100
AcDbLine
 10
223.8132813087332
 20
205.8155361879314
 30
0.0
 11
223.1692999037332
 21
206.4595175979314
 31
0.0
  0
ARC
  5
2B34
330
1A
100
AcDbEntity
  8
SEIHIN
100
AcDbCircle
 10
223.6740300849992
 20
204.7581777779314
 30
0.0
 40
0.500000001568625
100
AcDbArc
 50
0.0
 51
86.20816424113286
  0
ARC
  5
2B35
330
1A
100
AcDbEntity
  8
SEIHIN
100
AcDbCircle
 10
223.5473427137332
 20
204.1364660079314
 30
0.0
 40
1.700000002834682
100
AcDbArc
 50
0.0
 51
80.99999985768858
  0
LINE
  5
2B36
330
1A
100
AcDbEntity
  8
SEIHIN
100
AcDbLine
 10
226.7927067835678
 20
205.2405276979314
 30
0.0
 11
229.3066190145678
 21
205.2405276979314
 31
0.0
  0
LINE
  5
2B37
330
1A
100
AcDbEntity
  8
SEIHIN
100
AcDbLine
 10
218.7741593340993
 20
216.9595176079314
 30
0.0
 11
218.7741593340993
 21
220.4595176079314
 31
0.0
  0
LINE
  5
2B38
330
1A
100
AcDbEntity
  8
SEIHIN
100
AcDbLine
 10
220.1674886700544
 20
221.4595176079314
 30
0.0
 11
220.1674886700544
 21
220.4595176079314
 31
0.0
  0
ARC
  5
2B39
330
1A
100
AcDbEntity
  8
SEIHIN
100
AcDbCircle
 10
223.6740300849992
 20
223.1608574179314
 30
0.0
 40
0.500000001568625
100
AcDbArc
 50
273.7918357588671
 51
0.0
  0
LINE
  5
2B3A
330
1A
100
AcDbEntity
  8
SEIHIN
100
AcDbLine
 10
223.8132813087332
 20
222.1034990079314
 30
0.0
 11
223.1692999037332
 21
221.4595175979314
 31
0.0
  0
ARC
  5
2B3B
330
1A
100
AcDbEntity
  8
SEIHIN
100
AcDbCircle
 10
223.8195198449992
 20
220.9656734279314
 30
0.0
 40
1.699999999832982
100
AcDbArc
 50
93.79183492946814
 51
163.1123126277053
  0
LINE
  5
2B3C
330
1A
100
AcDbEntity
  8
SEIHIN
100
AcDbLine
 10
226.7927067835678
 20
222.6785075079314
 30
0.0
 11
229.3066190145678
 21
222.6785075079314
 31
0.0
  0
LINE
  5
2B3D
330
1A
100
AcDbEntity
  8
SEIHIN
100
AcDbLine
 10
239.3193651045679
 20
220.4595175979314
 30
0.0
 11
239.3193651045679
 21
207.4595175979314
 31
0.0
  0
LINE
  5
2B3E
330
1A
100
AcDbEntity
  8
SEIHIN
100
AcDbLine
 10
236.6968109825678
 20
203.4595175979314
 30
0.0
 11
238.0862126915678
 21
203.4595175979314
 31
0.0
  0
LINE
  5
2B3F
330
1A
100
AcDbEntity
  8
SEIHIN
100
AcDbLine
 10
238.0862126915678
 20
203.4595175979314
 30
0.0
 11
236.6968109825678
 21
205.5307124079313
 31
0.0
  0
LINE
  5
2B40
330
1A
100
AcDbEntity
  8
SEIHIN
100
AcDbLine
 10
231.4114331505678
 20
206.4595175979314
 30
0.0
 11
231.4114331505678
 21
203.4595175979314
 31
0.0
  0
LINE
  5
2B41
330
1A
100
AcDbEntity
  8
SEIHIN
100
AcDbLine
 10
236.6968109825678
 20
203.4595175979314
 30
0.0
 11
236.6968109825678
 21
206.4595175979314
 31
0.0
  0
LINE
  5
2B42
330
1A
100
AcDbEntity
  8
SEIHIN
100
AcDbLine
 10
230.0220314415678
 20
203.4595175979314
 30
0.0
 11
230.0220314415678
 21
206.4595175979314
 31
0.0
  0
LINE
  5
2B43
330
1A
100
AcDbEntity
  8
SEIHIN
100
AcDbLine
 10
232.1051250835678
 20
205.2405276979314
 30
0.0
 11
235.9471418905679
 21
205.2405276979314
 31
0.0
  0
LINE
  5
2B44
330
1A
100
AcDbEntity
  8
SEIHIN
100
AcDbLine
 10
230.0220314415678
 20
203.4595175979314
 30
0.0
 11
231.4114331505678
 21
203.4595175979314
 31
0.0
  0
LINE
  5
2B45
330
1A
100
AcDbEntity
  8
SEIHIN
100
AcDbLine
 10
231.4114331505678
 20
203.4595175979314
 30
0.0
 11
230.0220314415678
 21
205.5307124079313
 31
0.0
  0
LINE
  5
2B46
330
1A
100
AcDbEntity
  8
SEIHIN
100
AcDbLine
 10
239.9129707455678
 20
205.8155361979314
 30
0.0
 11
239.2689893375678
 21
206.4595175979314
 31
0.0
  0
LINE
  5
2B47
330
1A
100
AcDbEntity
  8
SEIHIN
100
AcDbLine
 10
238.0862126915678
 20
206.4595175979314
 30
0.0
 11
238.0862126915678
 21
203.4595175979314
 31
0.0
  0
ARC
  5
2B48
330
1A
100
AcDbEntity
  8
SEIHIN
100
AcDbCircle
 10
239.6470321545678
 20
204.1364660179314
 30
0.0
 40
1.700000000521833
100
AcDbArc
 50
359.9999868556723
 51
80.99999999084268
  0
LINE
  5
2B49
330
1A
100
AcDbEntity
  8
SEIHIN
100
AcDbLine
 10
238.8405125725678
 20
205.2405276979314
 30
0.0
 11
240.2634817595678
 21
205.2405276979314
 31
0.0
  0
LINE
  5
2B4A
330
1A
100
AcDbEntity
  8
SEIHIN
100
AcDbLine
 10
239.3193651045679
 20
206.4595175979314
 30
0.0
 11
239.3193651045679
 21
207.4595175979314
 31
0.0
  0
LINE
  5
2B4B
330
1A
100
AcDbEntity
  8
SEIHIN
100
AcDbLine
 10
232.1051250835678
 20
222.6785075079314
 30
0.0
 11
235.9471418905679
 21
222.6785075079314
 31
0.0
  0
LINE
  5
2B4C
330
1A
100
AcDbEntity
  8
SEIHIN
100
AcDbLine
 10
238.8405125725678
 20
222.6785075079314
 30
0.0
 11
240.2634817595678
 21
222.6785075079314
 31
0.0
  0
LINE
  5
2B4D
330
1A
100
AcDbEntity
  8
SEIHIN
100
AcDbLine
 10
239.3193651045679
 20
221.4595175979314
 30
0.0
 11
239.3193651045679
 21
220.4595175979314
 31
0.0
  0
LINE
  5
2B4E
330
1A
100
AcDbEntity
  8
SEIHIN
100
AcDbLine
 10
239.9129707455678
 20
222.1034990079314
 30
0.0
 11
239.2689893375678
 21
221.4595175979314
 31
0.0
  0
DIMENSION
  5
2B4F
330
1A
100
AcDbEntity
  8
SUNPOU
100
AcDbDimension
  2
*D14
 10
324.8592467053255
 20
191.6128557718236
 30
0.0
 11
306.2998824917295
 21
185.1282586384003
 31
0.0
 70
    33
 71
     5
 42
38.99999999978007
  3
STANDARD
100
AcDbAlignedDimension
 13
304.711580610975
 23
144.7015368334555
 33
0.0
 14
339.594241060975
 24
162.1428670554555
 34
0.0
1001
ACAD
1000
DSTYLE
1002
{
1070
    41
1040
3.0
1070
    42
1040
3.0
1070
    43
1040
7.0
1070
    44
1040
1.5
1070
    73
1070
     0
1070
    74
1070
     0
1070
    77
1070
     3
1070
   140
1040
3.0
1070
   141
1040
3.0
1070
   147
1040
1.0
1070
   172
1070
     1
1070
   173
1070
     1
1070
   176
1070
   256
1070
   177
1070
   256
1070
   178
1070
   256
1070
   271
1070
     0
1070
   272
1070
     0
1070
   341
1005
B2
1070
     6
1000
OPEN
1070
     7
1000
OPEN
1002
}
  0
DIMENSION
  5
2B50
330
1A
100
AcDbEntity
  8
SUNPOU
100
AcDbDimension
  2
*D15
 10
322.379705468054
 20
199.9260401421766
 30
0.0
 11
302.4787004786374
 21
192.7706226123431
 31
0.0
 70
    33
 71
     5
 42
41.99999998166834
  3
STANDARD
100
AcDbAlignedDimension
 13
300.0829198943561
 23
150.6047562983341
 33
0.0
 14
337.6488618943561
 24
169.3877273123341
 34
0.0
1001
ACAD
1000
DSTYLE
1002
{
1070
    41
1040
3.0
1070
    42
1040
3.0
1070
    43
1040
7.0
1070
    44
1040
1.5
1070
    73
1070
     0
1070
    74
1070
     0
1070
    77
1070
     3
1070
   140
1040
3.0
1070
   141
1040
3.0
1070
   147
1040
1.0
1070
   172
1070
     1
1070
   173
1070
     1
1070
   176
1070
   256
1070
   177
1070
   256
1070
   178
1070
   256
1070
   271
1070
     0
1070
   272
1070
     0
1070
   341
1005
B2
1070
     6
1000
OPEN
1070
     7
1000
OPEN
1002
}
  0
LINE
  5
2B51
330
1A
100
AcDbEntity
  8
SEIHIN
100
AcDbLine
 10
338.4031762326982
 20
135.456112917056
 30
0.0
 11
317.3453646326981
 21
177.571736100056
 31
0.0
  0
LINE
  5
2B52
330
1A
100
AcDbEntity
  8
SEIHIN
100
AcDbLine
 10
339.2976034326982
 20
135.903326512056
 30
0.0
 11
318.2397918326982
 21
178.018949700056
 31
0.0
  0
LINE
  5
2B53
330
1A
100
AcDbEntity
  8
CENTER L
100
AcDbLine
 10
301.9164956372986
 20
136.3162819163328
 30
0.0
 11
313.0968355280978
 21
141.9064518597791
 31
0.0
  0
LINE
  5
2B54
330
1A
100
AcDbEntity
  8
SEIHIN
100
AcDbLine
 10
314.8856899326982
 20
151.186133970056
 30
0.0
 11
311.7746591526982
 21
149.630618590056
 31
0.0
  0
LINE
  5
2B55
330
1A
100
AcDbEntity
  8
SEIHIN
100
AcDbLine
 10
311.7746591526982
 20
149.630618590056
 30
0.0
 11
313.1162999326982
 21
146.947337020056
 31
0.0
  0
LINE
  5
2B56
330
1A
100
AcDbEntity
  8
SEIHIN
100
AcDbLine
 10
311.1996531126982
 20
156.610336500056
 30
0.0
 11
314.1065414326982
 21
150.796559750056
 31
0.0
  0
LINE
  5
2B57
330
1A
100
AcDbEntity
  8
SEIHIN
100
AcDbLine
 10
311.0907336726982
 20
168.838352340056
 30
0.0
 11
322.2508158326982
 21
146.518188030056
 31
0.0
  0
LINE
  5
2B58
330
1A
100
AcDbEntity
  8
SEIHIN
100
AcDbLine
 10
311.9788015326982
 20
156.999910710056
 30
0.0
 11
296.7735392926982
 21
149.397279580056
 31
0.0
  0
ARC
  5
2B59
330
1A
100
AcDbEntity
  8
SEIHIN
100
AcDbCircle
 10
313.7740154326982
 20
170.179992830056
 30
0.0
 40
3.000000012298683
100
AcDbArc
 50
26.56505818082236
 51
206.5650445149804
  0
ARC
  5
2B5A
330
1A
100
AcDbEntity
  8
SEIHIN
100
AcDbCircle
 10
297.6679664826982
 20
147.608425200056
 30
0.0
 40
1.999999997764122
100
AcDbArc
 50
116.5650511770776
 51
206.5650511770764
  0
LINE
  5
2B5B
330
1A
100
AcDbEntity
  8
CENTER L
100
AcDbLine
 10
300.0829198943561
 20
150.6047562983341
 30
0.0
 11
304.6444985710403
 21
141.4815989417779
 31
0.0
  0
LINE
  5
2B5C
330
1A
100
AcDbEntity
  8
CENTER L
100
AcDbLine
 10
304.711580610975
 20
144.7015368334555
 30
0.0
 11
310.3017505544214
 21
133.5211969426564
 31
0.0
  0
CIRCLE
  5
2B5D
330
1A
100
AcDbEntity
  8
SEIHIN
100
AcDbCircle
 10
307.5066655826982
 20
139.111366888056
 30
0.0
 40
3.250000001408089
  0
LINE
  5
2B5E
330
1A
100
AcDbEntity
  8
CENTER L
100
AcDbLine
 10
297.8021305544201
 20
143.7623882817138
 30
0.0
 11
306.9252879109763
 21
148.3239669583981
 31
0.0
  0
CIRCLE
  5
2B5F
330
1A
100
AcDbEntity
  8
SEIHIN
100
AcDbCircle
 10
302.3637092326982
 20
146.043177620056
 30
0.0
 40
2.100000004315367
  0
INSERT
  5
2B60
330
1A
100
AcDbEntity
  8
SUNPOU
100
AcDbBlockReference
  2
_OPEN
 10
300.2840810103446
 20
146.1001351923562
 30
0.0
 41
2.999999999999993
 42
3.0
 43
3.0
 50
319.2548486777224
1001
ACAD
1000
DSTYLE
1002
{
1070
    41
1040
3.0
1070
    42
1040
3.0
1070
    43
1040
7.0
1070
    44
1040
1.5
1070
    73
1070
     0
1070
    74
1070
     0
1070
    77
1070
     0
1070
   140
1040
3.0
1070
   141
1040
3.0
1070
   147
1040
1.0
1070
   172
1070
     1
1070
   173
1070
     1
1070
   176
1070
   256
1070
   177
1070
   256
1070
   178
1070
   256
1070
   271
1070
     0
1070
   272
1070
     0
1070
   341
1005
B2
1070
   343
1005
B2
1070
   344
1005
B2
1002
}
  0
LINE
  5
2B61
330
1A
100
AcDbEntity
  8
SEIHIN
100
AcDbLine
 10
304.8233840126982
 20
171.310745760056
 30
0.0
 11
305.7178112026982
 21
171.757959360056
 31
0.0
  0
LINE
  5
2B62
330
1A
100
AcDbEntity
  8
SEIHIN
100
AcDbLine
 10
308.2405882906795
 20
166.7124051930786
 30
0.0
 11
307.3461610979606
 21
166.2651915967192
 31
0.0
  0
LINE
  5
2B63
330
1A
100
AcDbEntity
  8
SEIHIN
100
AcDbLine
 10
307.9602386526981
 20
167.273104460056
 30
0.0
 11
311.0907338126982
 21
168.838352040056
 31
0.0
  0
LINE
  5
2B64
330
1A
100
AcDbEntity
  8
SEIHIN
100
AcDbLine
 10
330.4228870326982
 20
155.600630540056
 30
0.0
 11
338.0255181326982
 21
140.395368292056
 31
0.0
  0
LINE
  5
2B65
330
1A
100
AcDbEntity
  8
SEIHIN
100
AcDbLine
 10
316.4572968326982
 20
171.521633940056
 30
0.0
 11
327.6173789326982
 21
149.201469600056
 31
0.0
  0
LINE
  5
2B66
330
1A
100
AcDbEntity
  8
SEIHIN
100
AcDbLine
 10
311.9788015326982
 20
156.999910710056
 30
0.0
 11
314.8856899326982
 21
151.186133970056
 31
0.0
  0
LINE
  5
2B67
330
1A
100
AcDbEntity
  8
SEIHIN
100
AcDbLine
 10
329.6437385326981
 20
155.211056330056
 30
0.0
 11
337.2463696326982
 21
140.005794079056
 31
0.0
  0
CIRCLE
  5
2B68
330
1A
100
AcDbEntity
  8
SEIHIN
100
AcDbCircle
 10
326.7368502326982
 20
144.254323240056
 30
0.0
 40
2.999999911928946
  0
ARC
  5
2B69
330
1A
100
AcDbEntity
  8
SEIHIN
100
AcDbCircle
 10
326.7368502326982
 20
144.254323240056
 30
0.0
 40
5.024896830989174
100
AcDbArc
 50
153.2223321449074
 51
79.90777135371877
  0
LINE
  5
2B6A
330
1A
100
AcDbEntity
  8
SEIHIN
100
AcDbLine
 10
315.4481822326982
 20
148.113278180056
 30
0.0
 11
323.0508134326982
 21
132.908015933856
 31
0.0
  0
LINE
  5
2B6B
330
1A
100
AcDbEntity
  8
SEIHIN
100
AcDbLine
 10
316.2273307326981
 20
148.502852390056
 30
0.0
 11
323.8299618326982
 21
133.297590146456
 31
0.0
  0
LINE
  5
2B6C
330
1A
100
AcDbEntity
  8
SEIHIN
100
AcDbLine
 10
320.7189310326982
 20
131.742074769056
 30
0.0
 11
323.8299618326982
 21
133.297590146456
 31
0.0
  0
LINE
  5
2B6D
330
1A
100
AcDbEntity
  8
SEIHIN
100
AcDbLine
 10
316.2273307326981
 20
148.502852390056
 30
0.0
 11
313.1162999326982
 21
146.947337020056
 31
0.0
  0
LINE
  5
2B6E
330
1A
100
AcDbEntity
  8
SEIHIN
100
AcDbLine
 10
314.8856899326982
 20
151.186133970056
 30
0.0
 11
316.2273307326981
 21
148.502852390056
 31
0.0
  0
LINE
  5
2B6F
330
1A
100
AcDbEntity
  8
SEIHIN
100
AcDbLine
 10
338.5880104326982
 20
137.322512506056
 30
0.0
 11
341.4948988326982
 21
131.508735764056
 31
0.0
  0
LINE
  5
2B70
330
1A
100
AcDbEntity
  8
SEIHIN
100
AcDbLine
 10
339.3671589326982
 20
137.712086719056
 30
0.0
 11
342.2740472326981
 21
131.898309977056
 31
0.0
  0
ARC
  5
2B71
330
1A
100
AcDbEntity
  8
SEIHIN
100
AcDbCircle
 10
336.6143219326982
 20
134.561685725656
 30
0.0
 40
1.99999996525169
100
AcDbArc
 50
296.5650514128139
 51
26.5650522378887
  0
LINE
  5
2B72
330
1A
100
AcDbEntity
  8
SEIHIN
100
AcDbLine
 10
341.6990412326982
 20
138.878027883056
 30
0.0
 11
337.6935832326982
 21
136.875298910056
 31
0.0
  0
LINE
  5
2B73
330
1A
100
AcDbEntity
  8
SEIHIN
100
AcDbLine
 10
340.3574004326982
 20
141.561309456056
 30
0.0
 11
341.6990412326982
 21
138.878027883056
 31
0.0
  0
LINE
  5
2B74
330
1A
100
AcDbEntity
  8
SEIHIN
100
AcDbLine
 10
337.2463696326982
 20
140.005794079056
 30
0.0
 11
338.5880104326982
 21
137.322512506056
 31
0.0
  0
LINE
  5
2B75
330
1A
100
AcDbEntity
  8
SEIHIN
100
AcDbLine
 10
340.3574004326982
 20
141.561309456056
 30
0.0
 11
337.2463696326982
 21
140.005794079056
 31
0.0
  0
LINE
  5
2B76
330
1A
100
AcDbEntity
  8
SEIHIN
100
AcDbLine
 10
326.1743578326982
 20
164.097688850056
 30
0.0
 11
329.0812462326982
 21
158.283912110056
 31
0.0
  0
LINE
  5
2B77
330
1A
100
AcDbEntity
  8
SEIHIN
100
AcDbLine
 10
325.3952094326982
 20
163.708114640056
 30
0.0
 11
328.3020977326982
 21
157.894337900056
 31
0.0
  0
LINE
  5
2B78
330
1A
100
AcDbEntity
  8
SEIHIN
100
AcDbLine
 10
325.3952094326982
 20
163.708114640056
 30
0.0
 11
340.6004716326982
 21
171.310745760056
 31
0.0
  0
LINE
  5
2B79
330
1A
100
AcDbEntity
  8
SEIHIN
100
AcDbLine
 10
320.7625689276604
 20
172.9733955115692
 30
0.0
 11
319.8681417279
 21
172.526181911689
 31
0.0
  0
LINE
  5
2B7A
330
1A
100
AcDbEntity
  8
SEIHIN
100
AcDbLine
 10
316.4572969326982
 20
171.521633620056
 30
0.0
 11
319.5877921326982
 21
173.086881200056
 31
0.0
  0
LINE
  5
2B7B
330
1A
100
AcDbEntity
  8
CENTER L
100
AcDbLine
 10
337.6488618943561
 20
169.3877273123341
 30
0.0
 11
342.2104405710404
 21
160.2645699557779
 31
0.0
  0
LINE
  5
2B7C
330
1A
100
AcDbEntity
  8
CENTER L
100
AcDbLine
 10
335.3680725544201
 20
162.5453592957138
 30
0.0
 11
344.4912299109764
 21
167.1069379723981
 31
0.0
  0
CIRCLE
  5
2B7D
330
1A
100
AcDbEntity
  8
SEIHIN
100
AcDbCircle
 10
339.9296512326982
 20
164.826148630056
 30
0.0
 40
2.100000001153093
  0
LINE
  5
2B7E
330
1A
100
AcDbEntity
  8
SEIHIN
100
AcDbLine
 10
331.4131285326982
 20
159.449853280056
 30
0.0
 11
332.7547693326982
 21
156.766571700056
 31
0.0
  0
LINE
  5
2B7F
330
1A
100
AcDbEntity
  8
SEIHIN
100
AcDbLine
 10
329.6437385326981
 20
155.211056330056
 30
0.0
 11
332.7547693326982
 21
156.766571700056
 31
0.0
  0
LINE
  5
2B80
330
1A
100
AcDbEntity
  8
SEIHIN
100
AcDbLine
 10
328.3020977326982
 20
157.894337900056
 30
0.0
 11
329.6437385326981
 21
155.211056330056
 31
0.0
  0
LINE
  5
2B81
330
1A
100
AcDbEntity
  8
SEIHIN
100
AcDbLine
 10
328.3020977326982
 20
157.894337900056
 30
0.0
 11
331.4131285326982
 21
159.449853280056
 31
0.0
  0
ARC
  5
2B82
330
1A
100
AcDbEntity
  8
SEIHIN
100
AcDbCircle
 10
341.4948988326982
 20
169.521891380056
 30
0.0
 40
2.000000008944457
100
AcDbArc
 50
26.56505092084455
 51
116.5650514333112
  0
LINE
  5
2B83
330
1A
100
AcDbEntity
  8
SEIHIN
100
AcDbLine
 10
317.3453646326981
 20
177.571736100056
 30
0.0
 11
318.2397918326982
 21
178.018949700056
 31
0.0
  0
LINE
  5
2B84
330
1A
100
AcDbEntity
  8
SEIHIN
100
AcDbLine
 10
240.4526049634843
 20
240.4595175979314
 30
0.0
 11
225.0684572777011
 21
240.4595175979314
 31
0.0
  0
ARC
  5
2B85
330
1A
100
AcDbEntity
  8
SEIHIN
100
AcDbCircle
 10
222.9512823232878
 20
234.9595175979314
 30
0.0
 40
5.185616510927503
100
AcDbArc
 50
336.1109838310729
 51
23.88901616892705
  0
LINE
  5
2B86
330
1A
100
AcDbEntity
  8
SEIHIN
100
AcDbLine
 10
225.2473427165679
 20
223.7825691879314
 30
0.0
 11
225.2473427165678
 21
238.4595175979314
 31
0.0
  0
ARC
  5
2B87
330
1A
100
AcDbEntity
  8
SEIHIN
100
AcDbCircle
 10
234.1316222175545
 20
234.9595175979314
 30
0.0
 40
5.185616510378906
100
AcDbArc
 50
336.1109838283907
 51
23.88901617160926
  0
LINE
  5
2B88
330
1A
100
AcDbEntity
  8
SEIHIN
100
AcDbLine
 10
241.3470321545678
 20
223.7825695179314
 30
0.0
 11
241.3470321545678
 21
238.4595175979314
 31
0.0
  0
ARC
  5
2B89
330
1A
100
AcDbEntity
  8
SEIHIN
100
AcDbCircle
 10
224.2144938885608
 20
233.4595175979314
 30
0.0
 40
7.826647519730068
100
AcDbArc
 50
338.4486589039112
 51
21.55134109608887
  0
LINE
  5
2B8A
330
1A
100
AcDbEntity
  8
SEIHIN
100
AcDbLine
 10
236.6968109825678
 20
224.4595175979314
 30
0.0
 11
238.0862126915678
 21
224.4595175979314
 31
0.0
  0
LINE
  5
2B8B
330
1A
100
AcDbEntity
  8
SEIHIN
100
AcDbLine
 10
230.0220314415678
 20
224.4595175979314
 30
0.0
 11
231.4114331505678
 21
224.4595175979314
 31
0.0
  0
LINE
  5
2B8C
330
1A
100
AcDbEntity
  8
CENTER L
100
AcDbLine
 10
348.829201794356
 20
147.0270475323341
 30
0.0
 11
353.3907804710403
 21
137.9038901757779
 31
0.0
  0
LINE
  5
2B8D
330
1A
100
AcDbEntity
  8
CENTER L
100
AcDbLine
 10
346.54841245442
 20
140.1846795157138
 30
0.0
 11
355.6715698109763
 21
144.7462581923981
 31
0.0
  0
CIRCLE
  5
2B8E
330
1A
100
AcDbEntity
  8
SEIHIN
100
AcDbCircle
 10
351.1099911326982
 20
142.465468854056
 30
0.0
 40
2.100000002498891
  0
ARC
  5
2B8F
330
1A
100
AcDbEntity
  8
SEIHIN
100
AcDbCircle
 10
355.8057338716985
 20
140.900221228056
 30
0.0
 40
2.0
100
AcDbArc
 50
296.565051141519
 51
26.56505108979776
  0
TEXT
  5
2B90
330
1A
100
AcDbEntity
  8
SUNPOU
100
AcDbText
 10
355.675768553255
 20
197.392093852633
 30
0.0
 40
3.0
  1
2-φ6.5
100
AcDbText
  0
VIEWPORT
  5
22
330
17
100
AcDbEntity
 67
     1
  8
0
100
AcDbViewport
 10
313.6808219178083
 20
148.5
 30
0.0
 40
627.3616438356165
 41
297.0
 68
     2
 69
     1
 12
313.6808219178083
 22
148.5
 13
0.0
 23
0.0
 14
1.0
 24
1.0
 15
10.0
 25
10.0
 16
0.0
 26
0.0
 36
1.0
 17
0.0
 27
0.0
 37
0.0
 42
50.0
 43
0.0
 44
0.0
 45
297.0
 50
0.0
 51
0.0
 72
   100
 90
    32768
  1

281
     0
 71
     1
 74
     0
110
0.0
120
0.0
130
0.0
111
1.0
121
0.0
131
0.0
112
0.0
122
1.0
132
0.0
 79
     0
146
0.0
  0
VIEWPORT
  5
64
330
17
100
AcDbEntity
 67
     1
  8
VIEWPORT
100
AcDbViewport
 10
210.0
 20
148.5
 30
0.0
 40
420.0
 41
297.0
 68
     1
 69
     2
 12
210.0
 22
148.5
 13
0.0
 23
0.0
 14
5.0
 24
5.0
 15
0.0
 25
0.0
 16
0.0
 26
0.0
 36
1.0
 17
0.0
 27
0.0
 37
0.0
 42
50.0
 43
0.0
 44
0.0
 45
302.9399999999999
 50
0.0
 51
0.0
 72
   100
 90
    32768
  1

281
     0
 71
     1
 74
     0
110
0.0
120
0.0
130
0.0
111
1.0
121
0.0
131
0.0
112
0.0
122
1.0
132
0.0
 79
     0
146
0.0
  0
ENDSEC
  0
SECTION
  2
OBJECTS
  0
DICTIONARY
  5
C
330
0
100
AcDbDictionary
281
     1
  3
ACAD_GROUP
350
D
  3
ACAD_LAYOUT
350
624
  3
ACAD_MLINESTYLE
350
E
  3
ACAD_PLOTSETTINGS
350
625
  3
ACAD_PLOTSTYLENAME
350
622
  0
DICTIONARY
  5
D
102
{ACAD_REACTORS
330
C
102
}
330
C
100
AcDbDictionary
281
     1
  0
DICTIONARY
  5
624
102
{ACAD_REACTORS
330
C
102
}
330
C
100
AcDbDictionary
281
     1
  3
Model
350
626
  3
ﾚｲｱｳﾄ1
350
627
  0
DICTIONARY
  5
E
102
{ACAD_REACTORS
330
C
102
}
330
C
100
AcDbDictionary
281
     1
  3
STANDARD
350
13
  0
DICTIONARY
  5
625
102
{ACAD_REACTORS
330
C
102
}
330
C
100
AcDbDictionary
281
     1
  0
ACDBDICTIONARYWDFLT
  5
622
102
{ACAD_REACTORS
330
C
102
}
330
C
100
AcDbDictionary
281
     1
  3
Normal
350
623
100
AcDbDictionaryWithDefault
340
623
1001
ACAD
1000
TREAT_AS_HARD
1070
     0
1000
TREAT_AS_HARD
1070
     0
1000
TREAT_AS_HARD
1070
     0
1000
TREAT_AS_HARD
1070
     0
  0
LAYOUT
  5
626
102
{ACAD_REACTORS
330
624
102
}
330
624
100
AcDbPlotSettings
  1

  2
Acrobat PDFWriter
  4
A3
  6

 40
7.143749713897705
 41
7.14375638961792
 42
7.143768310546875
 43
7.14373779296875
 44
297.1270751953125
 45
420.1583251953125
 46
0.0
 47
0.0
 48
0.0
 49
0.0
140
0.0
141
0.0
142
1.0
143
1.0
 70
 11952
 72
     1
 73
     1
 74
     0
  7
print.ctb
 75
    16
147
1.0
148
52.88505331185908
149
1.640883977900558
100
AcDbLayout
  1
Model
 70
     1
 71
     0
 10
0.0
 20
0.0
 11
12.0
 21
9.0
 12
0.0
 22
0.0
 32
0.0
 14
0.0
 24
0.0
 34
0.0
 15
0.0
 25
0.0
 35
0.0
146
0.0
 13
0.0
 23
0.0
 33
0.0
 16
1.0
 26
0.0
 36
0.0
 17
0.0
 27
1.0
 37
0.0
 76
     0
330
1A
  0
LAYOUT
  5
627
102
{ACAD_REACTORS
330
624
102
}
330
624
100
AcDbPlotSettings
  1

  2
EPSON PM-2000C
  4

  6

 40
0.0
 41
0.0
 42
0.0
 43
0.0
 44
0.0
 45
0.0
 46
0.0
 47
0.0
 48
0.0
 49
0.0
140
0.0
141
0.0
142
1.0
143
1.0
 70
   688
 72
     0
 73
     0
 74
     5
  7
print.ctb
 75
    16
147
1.0
148
0.0
149
0.0
100
AcDbLayout
  1
ﾚｲｱｳﾄ1
 70
     1
 71
     1
 10
0.0
 20
0.0
 11
420.0
 21
297.0
 12
0.0
 22
0.0
 32
0.0
 14
0.0
 24
0.0
 34
0.0
 15
420.0
 25
297.0
 35
0.0
146
0.0
 13
0.0
 23
0.0
 33
0.0
 16
1.0
 26
0.0
 36
0.0
 17
0.0
 27
1.0
 37
0.0
 76
     0
330
17
331
64
  0
MLINESTYLE
  5
13
102
{ACAD_REACTORS
330
E
102
}
330
E
100
AcDbMlineStyle
  2
STANDARD
 70
     0
  3

 62
     0
 51
90.0
 52
90.0
 71
     2
 49
0.5
 62
   256
  6
BYLAYER
 49
-0.5
 62
   256
  6
BYLAYER
  0
ACDBPLACEHOLDER
  5
623
102
{ACAD_REACTORS
330
622
102
}
330
622
  0
ENDSEC
  0
EOF
