  0
SECTION
  2
HEADER
  9
$ACADVER
  1
AC1014
  9
$ACADMAINTVER
 70
     9
  9
$DWGCODEPAGE
  3
ANSI_932
  9
$INSBASE
 10
0.0
 20
0.0
 30
0.0
  9
$EXTMIN
 10
-0.0128164049386896
 20
-0.0090630292066862
 30
-0.0000000100021362
  9
$EXTMAX
 10
398.8000497813338
 20
275.8226172440017
 30
0.0000000100021363
  9
$LIMMIN
 10
0.0
 20
0.0
  9
$LIMMAX
 10
420.0
 20
297.0
  9
$ORTHOMODE
 70
     0
  9
$REGENMODE
 70
     1
  9
$FILLMODE
 70
     1
  9
$QTEXTMODE
 70
     0
  9
$MIRRTEXT
 70
     1
  9
$DRAGMODE
 70
     2
  9
$LTSCALE
 40
5.0
  9
$OSMODE
 70
    35
  9
$ATTMODE
 70
     1
  9
$TEXTSIZE
 40
3.0
  9
$TRACEWID
 40
1.0
  9
$TEXTSTYLE
  7
STANDARD
  9
$CLAYER
  8
SUNPOU
  9
$CELTYPE
  6
BYLAYER
  9
$CECOLOR
 62
   256
  9
$CELTSCALE
 40
1.0
  9
$DELOBJ
 70
     1
  9
$DISPSILH
 70
     0
  9
$DIMSCALE
 40
1.0
  9
$DIMASZ
 40
3.0
  9
$DIMEXO
 40
3.0
  9
$DIMDLI
 40
7.0
  9
$DIMRND
 40
0.0
  9
$DIMDLE
 40
0.0
  9
$DIMEXE
 40
1.5
  9
$DIMTP
 40
0.0
  9
$DIMTM
 40
0.0
  9
$DIMTXT
 40
3.0
  9
$DIMCEN
 40
3.0
  9
$DIMTSZ
 40
0.0
  9
$DIMTOL
 70
     0
  9
$DIMLIM
 70
     0
  9
$DIMTIH
 70
     0
  9
$DIMTOH
 70
     0
  9
$DIMSE1
 70
     0
  9
$DIMSE2
 70
     0
  9
$DIMTAD
 70
     3
  9
$DIMZIN
 70
     0
  9
$DIMBLK
  1

  9
$DIMASO
 70
     1
  9
$DIMSHO
 70
     1
  9
$DIMPOST
  1

  9
$DIMAPOST
  1

  9
$DIMALT
 70
     0
  9
$DIMALTD
 70
     2
  9
$DIMALTF
 40
25.4
  9
$DIMLFAC
 40
1.0
  9
$DIMTOFL
 70
     1
  9
$DIMTVP
 40
0.0
  9
$DIMTIX
 70
     0
  9
$DIMSOXD
 70
     0
  9
$DIMSAH
 70
     1
  9
$DIMBLK1
  1
OPEN
  9
$DIMBLK2
  1
OPEN
  9
$DIMSTYLE
  2
STANDARD
  9
$DIMCLRD
 70
   256
  9
$DIMCLRE
 70
   256
  9
$DIMCLRT
 70
   256
  9
$DIMTFAC
 40
1.0
  9
$DIMGAP
 40
1.0
  9
$DIMJUST
 70
     0
  9
$DIMSD1
 70
     0
  9
$DIMSD2
 70
     0
  9
$DIMTOLJ
 70
     1
  9
$DIMTZIN
 70
     0
  9
$DIMALTZ
 70
     0
  9
$DIMALTTZ
 70
     0
  9
$DIMFIT
 70
     3
  9
$DIMUPT
 70
     0
  9
$DIMUNIT
 70
     2
  9
$DIMDEC
 70
     0
  9
$DIMTDEC
 70
     0
  9
$DIMALTU
 70
     2
  9
$DIMALTTD
 70
     2
  9
$DIMTXSTY
  7
STANDARD
  9
$DIMAUNIT
 70
     0
  9
$LUNITS
 70
     2
  9
$LUPREC
 70
     4
  9
$SKETCHINC
 40
1.0
  9
$FILLETRAD
 40
10.0
  9
$AUNITS
 70
     0
  9
$AUPREC
 70
     0
  9
$MENU
  1
.
  9
$ELEVATION
 40
0.0
  9
$PELEVATION
 40
0.0
  9
$THICKNESS
 40
0.0
  9
$LIMCHECK
 70
     0
  9
$BLIPMODE
 70
     0
  9
$CHAMFERA
 40
10.0
  9
$CHAMFERB
 40
10.0
  9
$CHAMFERC
 40
20.0
  9
$CHAMFERD
 40
0.0
  9
$SKPOLY
 70
     0
  9
$TDCREATE
 40
2451569.441154629
  9
$TDUPDATE
 40
2453802.453053194
  9
$TDINDWG
 40
0.1429748958
  9
$TDUSRTIMER
 40
0.1429748958
  9
$USRTIMER
 70
     1
  9
$ANGBASE
 50
0.0
  9
$ANGDIR
 70
     0
  9
$PDMODE
 70
     0
  9
$PDSIZE
 40
0.0
  9
$PLINEWID
 40
0.0
  9
$COORDS
 70
     1
  9
$SPLFRAME
 70
     0
  9
$SPLINETYPE
 70
     6
  9
$SPLINESEGS
 70
     8
  9
$ATTDIA
 70
     0
  9
$ATTREQ
 70
     1
  9
$HANDLING
 70
 10241
  9
$HANDSEED
  5
1A3C
  9
$SURFTAB1
 70
     6
  9
$SURFTAB2
 70
     6
  9
$SURFTYPE
 70
     6
  9
$SURFU
 70
     6
  9
$SURFV
 70
     6
  9
$UCSNAME
  2

  9
$UCSORG
 10
0.0
 20
0.0
 30
0.0
  9
$UCSXDIR
 10
1.0
 20
0.0
 30
0.0
  9
$UCSYDIR
 10
0.0
 20
1.0
 30
0.0
  9
$PUCSNAME
  2

  9
$PUCSORG
 10
0.0
 20
0.0
 30
0.0
  9
$PUCSXDIR
 10
1.0
 20
0.0
 30
0.0
  9
$PUCSYDIR
 10
0.0
 20
1.0
 30
0.0
  9
$USERI1
 70
     0
  9
$USERI2
 70
     0
  9
$USERI3
 70
     0
  9
$USERI4
 70
     0
  9
$USERI5
 70
     0
  9
$USERR1
 40
0.0
  9
$USERR2
 40
0.0
  9
$USERR3
 40
0.0
  9
$USERR4
 40
0.0
  9
$USERR5
 40
0.0
  9
$WORLDVIEW
 70
     1
  9
$SHADEDGE
 70
     3
  9
$SHADEDIF
 70
    70
  9
$TILEMODE
 70
     1
  9
$MAXACTVP
 70
    16
  9
$PINSBASE
 10
0.0
 20
0.0
 30
0.0
  9
$PLIMCHECK
 70
     0
  9
$PEXTMIN
 10
0.0
 20
0.0
 30
0.0
  9
$PEXTMAX
 10
420.0
 20
297.0
 30
0.0
  9
$PLIMMIN
 10
0.0
 20
0.0
  9
$PLIMMAX
 10
420.0
 20
297.0
  9
$UNITMODE
 70
     0
  9
$VISRETAIN
 70
     0
  9
$PLINEGEN
 70
     0
  9
$PSLTSCALE
 70
     1
  9
$TREEDEPTH
 70
  3020
  9
$PICKSTYLE
 70
     1
  9
$CMLSTYLE
  2
STANDARD
  9
$CMLJUST
 70
     0
  9
$CMLSCALE
 40
1.0
  9
$PROXYGRAPHICS
 70
     1
  9
$MEASUREMENT
 70
     1
  0
ENDSEC
  0
SECTION
  2
CLASSES
  0
CLASS
  1
ACDBDICTIONARYWDFLT
  2
AcDbDictionaryWithDefault
  3
AutoCAD 2000
 90
        0
280
     0
281
     0
  0
CLASS
  1
ACDBPLACEHOLDER
  2
AcDbPlaceHolder
  3
AutoCAD 2000
 90
        0
280
     0
281
     0
  0
CLASS
  1
LAYOUT
  2
AcDbLayout
  3
AutoCAD 2000
 90
        0
280
     0
281
     0
  0
CLASS
  1
LONG_TRANSACTION
  2
AcDbLongTransaction
  3
AutoCAD 2000
 90
        0
280
     0
281
     0
  0
CLASS
  1
LWPOLYLINE
  2
AcDbPolyline
  3
AutoCAD 2000
 90
        0
280
     0
281
     1
  0
CLASS
  1
HATCH
  2
AcDbHatch
  3
AutoCAD 2000
 90
        0
280
     0
281
     1
  0
CLASS
  1
XRECORD
  2
AcDbXrecord
  3
AutoCAD 2000
 90
        0
280
     0
281
     0
  0
CLASS
  1
LONG_TRANSACTION
  2
AcDbLongTransaction
  3
AutoCAD 2000
 90
        0
280
     0
281
     0
  0
CLASS
  1
LWPOLYLINE
  2
AcDbPolyline
  3
AutoCAD 2000
 90
        0
280
     0
281
     1
  0
CLASS
  1
HATCH
  2
AcDbHatch
  3
AutoCAD 2000
 90
        0
280
     0
281
     1
  0
CLASS
  1
XRECORD
  2
AcDbXrecord
  3
AutoCAD 2000
 90
        0
280
     0
281
     0
  0
CLASS
  1
LONG_TRANSACTION
  2
AcDbLongTransaction
  3
AutoCAD 2000
 90
        0
280
     0
281
     0
  0
CLASS
  1
LWPOLYLINE
  2
AcDbPolyline
  3
AutoCAD 2000
 90
        0
280
     0
281
     1
  0
CLASS
  1
HATCH
  2
AcDbHatch
  3
AutoCAD 2000
 90
        0
280
     0
281
     1
  0
CLASS
  1
XRECORD
  2
AcDbXrecord
  3
AutoCAD 2000
 90
        0
280
     0
281
     0
  0
CLASS
  1
LONG_TRANSACTION
  2
AcDbLongTransaction
  3
AutoCAD 2000
 90
        0
280
     0
281
     0
  0
CLASS
  1
LWPOLYLINE
  2
AcDbPolyline
  3
AutoCAD 2000
 90
        0
280
     0
281
     1
  0
CLASS
  1
HATCH
  2
AcDbHatch
  3
AutoCAD 2000
 90
        0
280
     0
281
     1
  0
CLASS
  1
XRECORD
  2
AcDbXrecord
  3
AutoCAD 2000
 90
        0
280
     0
281
     0
  0
CLASS
  1
LONG_TRANSACTION
  2
AcDbLongTransaction
  3
AutoCAD 2000
 90
        0
280
     0
281
     0
  0
CLASS
  1
LWPOLYLINE
  2
AcDbPolyline
  3
AutoCAD 2000
 90
        0
280
     0
281
     1
  0
CLASS
  1
HATCH
  2
AcDbHatch
  3
AutoCAD 2000
 90
        0
280
     0
281
     1
  0
CLASS
  1
XRECORD
  2
AcDbXrecord
  3
AutoCAD 2000
 90
        0
280
     0
281
     0
  0
CLASS
  1
LONG_TRANSACTION
  2
AcDbLongTransaction
  3
AutoCAD 2000
 90
        0
280
     0
281
     0
  0
CLASS
  1
LWPOLYLINE
  2
AcDbPolyline
  3
AutoCAD 2000
 90
        0
280
     0
281
     1
  0
CLASS
  1
HATCH
  2
AcDbHatch
  3
AutoCAD 2000
 90
        0
280
     0
281
     1
  0
CLASS
  1
XRECORD
  2
AcDbXrecord
  3
AutoCAD 2000
 90
        0
280
     0
281
     0
  0
CLASS
  1
LONG_TRANSACTION
  2
AcDbLongTransaction
  3
AutoCAD 2000
 90
        0
280
     0
281
     0
  0
CLASS
  1
LWPOLYLINE
  2
AcDbPolyline
  3
AutoCAD 2000
 90
        0
280
     0
281
     1
  0
CLASS
  1
HATCH
  2
AcDbHatch
  3
AutoCAD 2000
 90
        0
280
     0
281
     1
  0
CLASS
  1
XRECORD
  2
AcDbXrecord
  3
AutoCAD 2000
 90
        0
280
     0
281
     0
  0
CLASS
  1
LONG_TRANSACTION
  2
AcDbLongTransaction
  3
AutoCAD 2000
 90
        0
280
     0
281
     0
  0
CLASS
  1
LWPOLYLINE
  2
AcDbPolyline
  3
AutoCAD 2000
 90
        0
280
     0
281
     1
  0
CLASS
  1
HATCH
  2
AcDbHatch
  3
AutoCAD 2000
 90
        0
280
     0
281
     1
  0
CLASS
  1
XRECORD
  2
AcDbXrecord
  3
AutoCAD 2000
 90
        0
280
     0
281
     0
  0
ENDSEC
  0
SECTION
  2
TABLES
  0
TABLE
  2
VPORT
  5
8
330
0
100
AcDbSymbolTable
 70
     2
  0
VPORT
  5
1A18
330
8
100
AcDbSymbolTableRecord
100
AcDbViewportTableRecord
  2
*ACTIVE
 70
     0
 10
0.0
 20
0.0
 11
1.0
 21
1.0
 12
216.4863217788428
 22
138.2701177599315
 13
0.0
 23
0.0
 14
5.0
 24
5.0
 15
0.0
 25
0.0
 16
0.0
 26
0.0
 36
1.0
 17
0.0
 27
0.0
 37
0.0
 40
332.6601716043883
 41
1.795454545454545
 42
50.0
 43
0.0
 44
0.0
 50
0.0
 51
0.0
 71
     0
 72
   100
 73
     1
 74
     0
 75
     0
 76
     0
 77
     0
 78
     0
  0
ENDTAB
  0
TABLE
  2
LTYPE
  5
5
330
0
100
AcDbSymbolTable
 70
     4
  0
LTYPE
  5
14
330
5
100
AcDbSymbolTableRecord
100
AcDbLinetypeTableRecord
  2
BYBLOCK
 70
     0
  3

 72
    65
 73
     0
 40
0.0
  0
LTYPE
  5
15
330
5
100
AcDbSymbolTableRecord
100
AcDbLinetypeTableRecord
  2
BYLAYER
 70
     0
  3

 72
    65
 73
     0
 40
0.0
  0
LTYPE
  5
16
330
5
100
AcDbSymbolTableRecord
100
AcDbLinetypeTableRecord
  2
CONTINUOUS
 70
     0
  3
Solid line
 72
    65
 73
     0
 40
0.0
  0
LTYPE
  5
120
330
5
100
AcDbSymbolTableRecord
100
AcDbLinetypeTableRecord
  2
CENTER
 70
     0
  3
____ _ ____ _ ____ _ ____ _ ____ _ ____ _ ____ 
 72
    65
 73
     4
 40
2.0
 49
1.25
 74
     0
 49
-0.25
 74
     0
 49
0.25
 74
     0
 49
-0.25
 74
     0
  0
LTYPE
  5
122
330
5
100
AcDbSymbolTableRecord
100
AcDbLinetypeTableRecord
  2
PHANTOM
 70
     0
  3
______  __  __  ______  __  __  ______  __  __ 
 72
    65
 73
     6
 40
2.5
 49
1.25
 74
     0
 49
-0.25
 74
     0
 49
0.25
 74
     0
 49
-0.25
 74
     0
 49
0.25
 74
     0
 49
-0.25
 74
     0
  0
LTYPE
  5
12B
330
5
100
AcDbSymbolTableRecord
100
AcDbLinetypeTableRecord
  2
DASHED
 70
     0
  3
__ __ __ __ __ __ __ __ __ __ __ __ __ __ __ __
 72
    65
 73
     2
 40
0.75
 49
0.5
 74
     0
 49
-0.25
 74
     0
  0
ENDTAB
  0
TABLE
  2
LAYER
  5
2
330
0
100
AcDbSymbolTable
 70
     9
  0
LAYER
  5
F
330
2
100
AcDbSymbolTableRecord
100
AcDbLayerTableRecord
  2
0
 70
     0
 62
     7
  6
CONTINUOUS
  0
LAYER
  5
62
330
2
100
AcDbSymbolTableRecord
100
AcDbLayerTableRecord
  2
VIEWPORT
 70
     0
 62
     7
  6
CONTINUOUS
  0
LAYER
  5
6B
330
2
100
AcDbSymbolTableRecord
100
AcDbLayerTableRecord
  2
ZUWAKU
 70
     0
 62
     7
  6
CONTINUOUS
  0
LAYER
  5
48C
330
2
100
AcDbSymbolTableRecord
100
AcDbLayerTableRecord
  2
DEFPOINTS
 70
     0
 62
     7
  6
CONTINUOUS
  0
LAYER
  5
629
330
2
100
AcDbSymbolTableRecord
100
AcDbLayerTableRecord
  2
SEIHIN
 70
     0
 62
     3
  6
CONTINUOUS
  0
LAYER
  5
62A
330
2
100
AcDbSymbolTableRecord
100
AcDbLayerTableRecord
  2
SUNPOU
 70
     0
 62
     4
  6
CONTINUOUS
  0
LAYER
  5
62B
330
2
100
AcDbSymbolTableRecord
100
AcDbLayerTableRecord
  2
CENTER_L
 70
     0
 62
     1
  6
CENTER
  0
LAYER
  5
65C
330
2
100
AcDbSymbolTableRecord
100
AcDbLayerTableRecord
  2
NOKITOI
 70
     0
 62
     8
  6
PHANTOM
  0
LAYER
  5
1816
330
2
100
AcDbSymbolTableRecord
100
AcDbLayerTableRecord
  2
MOJI
 70
     0
 62
     2
  6
CONTINUOUS
  0
ENDTAB
  0
TABLE
  2
STYLE
  5
3
330
0
100
AcDbSymbolTable
 70
     2
  0
STYLE
  5
10
330
3
100
AcDbSymbolTableRecord
100
AcDbTextStyleTableRecord
  2
STANDARD
 70
     0
 40
0.0
 41
1.0
 50
0.0
 71
     0
 42
3.0
  3
TXT
  4
c:\PROGRAM FILES\AUTOCAD LT\ms\bigfont.shx
  0
STYLE
  5
1817
330
3
100
AcDbSymbolTableRecord
100
AcDbTextStyleTableRecord
  2
ｽﾀｲﾙ1
 70
     0
 40
0.0
 41
1.0
 50
0.0
 71
     0
 42
2.5
  3
MS PGothic.ttf
  4

1001
ACAD
1000
MS PGothic
1071
    32818
  0
ENDTAB
  0
TABLE
  2
VIEW
  5
6
330
0
100
AcDbSymbolTable
 70
     0
  0
ENDTAB
  0
TABLE
  2
UCS
  5
7
330
0
100
AcDbSymbolTable
 70
     0
  0
ENDTAB
  0
TABLE
  2
APPID
  5
9
330
0
100
AcDbSymbolTable
 70
     1
  0
APPID
  5
11
330
9
100
AcDbSymbolTableRecord
100
AcDbRegAppTableRecord
  2
ACAD
 70
     0
  0
ENDTAB
  0
TABLE
  2
DIMSTYLE
  5
A
330
0
100
AcDbSymbolTable
 70
     1
  0
DIMSTYLE
105
1D
102
{ACAD_REACTORS
330
748
330
755
330
762
330
76F
330
77E
330
78D
330
79A
330
862
330
1057
330
15DD
330
15EA
330
15F7
330
1604
330
1681
330
16BB
102
}
330
A
100
AcDbSymbolTableRecord
100
AcDbDimStyleTableRecord
  2
STANDARD
 70
     0
  3

  4

  5

  6

  7

 40
1.0
 41
0.18
 42
0.0625
 43
0.38
 44
0.18
 45
0.0
 46
0.0
 47
0.0
 48
0.0
140
0.18
141
0.09
142
0.0
143
25.4
144
1.0
145
0.0
146
1.0
147
0.09
 71
     0
 72
     0
 73
     1
 74
     1
 75
     0
 76
     0
 77
     0
 78
     0
170
     0
171
     2
172
     0
173
     0
174
     0
175
     0
176
     0
177
     0
178
     0
270
     2
271
     4
272
     4
273
     2
274
     2
340
10
275
     0
280
     0
281
     0
282
     0
283
     1
284
     0
285
     0
286
     0
287
     3
288
     0
  0
ENDTAB
  0
TABLE
  2
BLOCK_RECORD
  5
1
330
0
100
AcDbSymbolTable
 70
    16
  0
BLOCK_RECORD
  5
1A
102
{ACAD_XDICTIONARY
360
73C
102
}
330
1
100
AcDbSymbolTableRecord
100
AcDbBlockTableRecord
  2
*MODEL_SPACE
  0
BLOCK_RECORD
  5
17
102
{ACAD_XDICTIONARY
360
73A
102
}
330
1
100
AcDbSymbolTableRecord
100
AcDbBlockTableRecord
  2
*PAPER_SPACE
  0
BLOCK_RECORD
  5
B2
330
1
100
AcDbSymbolTableRecord
100
AcDbBlockTableRecord
  2
_OPEN
  0
BLOCK_RECORD
  5
749
330
1
100
AcDbSymbolTableRecord
100
AcDbBlockTableRecord
  2
*D1
  0
BLOCK_RECORD
  5
756
330
1
100
AcDbSymbolTableRecord
100
AcDbBlockTableRecord
  2
*D2
  0
BLOCK_RECORD
  5
763
330
1
100
AcDbSymbolTableRecord
100
AcDbBlockTableRecord
  2
*D3
  0
BLOCK_RECORD
  5
770
330
1
100
AcDbSymbolTableRecord
100
AcDbBlockTableRecord
  2
*D4
  0
BLOCK_RECORD
  5
77F
330
1
100
AcDbSymbolTableRecord
100
AcDbBlockTableRecord
  2
*D5
  0
BLOCK_RECORD
  5
78E
330
1
100
AcDbSymbolTableRecord
100
AcDbBlockTableRecord
  2
*D6
  0
BLOCK_RECORD
  5
79B
330
1
100
AcDbSymbolTableRecord
100
AcDbBlockTableRecord
  2
*D7
  0
BLOCK_RECORD
  5
863
330
1
100
AcDbSymbolTableRecord
100
AcDbBlockTableRecord
  2
*D8
  0
BLOCK_RECORD
  5
1058
330
1
100
AcDbSymbolTableRecord
100
AcDbBlockTableRecord
  2
*D9
  0
BLOCK_RECORD
  5
15DE
330
1
100
AcDbSymbolTableRecord
100
AcDbBlockTableRecord
  2
*D10
  0
BLOCK_RECORD
  5
15EB
330
1
100
AcDbSymbolTableRecord
100
AcDbBlockTableRecord
  2
*D11
  0
BLOCK_RECORD
  5
15F8
330
1
100
AcDbSymbolTableRecord
100
AcDbBlockTableRecord
  2
*D12
  0
BLOCK_RECORD
  5
1605
330
1
100
AcDbSymbolTableRecord
100
AcDbBlockTableRecord
  2
*D13
  0
BLOCK_RECORD
  5
1682
330
1
100
AcDbSymbolTableRecord
100
AcDbBlockTableRecord
  2
*D14
  0
BLOCK_RECORD
  5
16BC
330
1
100
AcDbSymbolTableRecord
100
AcDbBlockTableRecord
  2
*D15
  0
ENDTAB
  0
ENDSEC
  0
SECTION
  2
BLOCKS
  0
BLOCK
  5
1B
330
1A
100
AcDbEntity
  8
0
100
AcDbBlockBegin
  2
*MODEL_SPACE
 70
     0
 10
0.0
 20
0.0
 30
0.0
  3
*MODEL_SPACE
  1

  0
ENDBLK
  5
1C
330
1A
100
AcDbEntity
  8
0
100
AcDbBlockEnd
  0
BLOCK
  5
18
330
17
100
AcDbEntity
 67
     1
  8
0
100
AcDbBlockBegin
  2
*PAPER_SPACE
 70
     0
 10
0.0
 20
0.0
 30
0.0
  3
*PAPER_SPACE
  1

  0
ENDBLK
  5
19
330
17
100
AcDbEntity
 67
     1
  8
0
100
AcDbBlockEnd
  0
BLOCK
  5
B3
330
B2
100
AcDbEntity
  8
0
100
AcDbBlockBegin
  2
_OPEN
 70
     0
 10
0.0
 20
0.0
 30
0.0
  3
_OPEN
  1

  0
LINE
  5
B4
330
B2
100
AcDbEntity
  8
0
  6
BYBLOCK
 62
     0
100
AcDbLine
 10
-1.0
 20
0.1666666666666666
 30
0.0
 11
0.0
 21
0.0
 31
0.0
  0
LINE
  5
B5
330
B2
100
AcDbEntity
  8
0
  6
BYBLOCK
 62
     0
100
AcDbLine
 10
0.0
 20
0.0
 30
0.0
 11
-1.0
 21
-0.1666666666666666
 31
0.0
  0
LINE
  5
B6
330
B2
100
AcDbEntity
  8
0
  6
BYBLOCK
 62
     0
100
AcDbLine
 10
0.0
 20
0.0
 30
0.0
 11
-1.0
 21
0.0
 31
0.0
  0
ENDBLK
  5
B7
330
B2
100
AcDbEntity
  8
0
100
AcDbBlockEnd
  0
BLOCK
  5
753
330
749
100
AcDbEntity
  8
0
100
AcDbBlockBegin
  2
*D1
 70
     1
 10
0.0
 20
0.0
 30
0.0
  3
*D1
  1

  0
LINE
  5
19E1
330
749
100
AcDbEntity
  8
SUNPOU
100
AcDbLine
 10
301.27910825007
 20
121.3206523069776
 30
0.0
 11
301.27910825007
 21
161.4026027888511
 31
0.0
  0
LINE
  5
19E2
330
749
100
AcDbEntity
  8
SUNPOU
100
AcDbLine
 10
340.27910825007
 20
121.3206523069776
 30
0.0
 11
340.27910825007
 21
161.4026027888511
 31
0.0
  0
LINE
  5
19E3
330
749
100
AcDbEntity
  8
SUNPOU
100
AcDbLine
 10
304.27910825007
 20
159.9026027888511
 30
0.0
 11
337.27910825007
 21
159.9026027888511
 31
0.0
  0
INSERT
  5
19E4
330
749
100
AcDbEntity
  8
SUNPOU
100
AcDbBlockReference
  2
_OPEN
 10
301.27910825007
 20
159.9026027888511
 30
0.0
 41
3.0
 42
3.0
 43
3.0
 50
180.0
  0
INSERT
  5
19E5
330
749
100
AcDbEntity
  8
SUNPOU
100
AcDbBlockReference
  2
_OPEN
 10
340.27910825007
 20
159.9026027888511
 30
0.0
 41
3.0
 42
3.0
 43
3.0
  0
MTEXT
  5
19E6
330
749
100
AcDbEntity
  8
SUNPOU
100
AcDbMText
 10
320.77910825007
 20
162.4026027888511
 30
0.0
 40
3.0
 41
0.0
 71
     5
 72
     1
  1
\A1;39
1001
ACAD
1000
MTEXTBEGIN
1070
    73
1070
     1
1070
    44
1040
1.0
1070
    74
1070
     0
1000
MTEXTEND
  0
POINT
  5
19E7
330
749
100
AcDbEntity
  8
DEFPOINTS
 62
     0
100
AcDbPoint
 10
301.27910825007
 20
118.3206523069776
 30
0.0
  0
POINT
  5
19E8
330
749
100
AcDbEntity
  8
DEFPOINTS
 62
     0
100
AcDbPoint
 10
340.27910825007
 20
118.3206523069776
 30
0.0
  0
POINT
  5
19E9
330
749
100
AcDbEntity
  8
DEFPOINTS
 62
     0
100
AcDbPoint
 10
340.27910825007
 20
159.9026027888511
 30
0.0
  0
ENDBLK
  5
754
330
749
100
AcDbEntity
  8
0
100
AcDbBlockEnd
  0
BLOCK
  5
760
330
756
100
AcDbEntity
  8
0
100
AcDbBlockBegin
  2
*D2
 70
     1
 10
0.0
 20
0.0
 30
0.0
  3
*D2
  1

  0
LINE
  5
19D8
330
756
100
AcDbEntity
  8
SUNPOU
100
AcDbLine
 10
299.77910825007
 20
128.8903460839771
 30
0.0
 11
299.77910825007
 21
169.8241353384586
 31
0.0
  0
LINE
  5
19D9
330
756
100
AcDbEntity
  8
SUNPOU
100
AcDbLine
 10
341.77910825007
 20
128.8903460839771
 30
0.0
 11
341.77910825007
 21
169.8241353384586
 31
0.0
  0
LINE
  5
19DA
330
756
100
AcDbEntity
  8
SUNPOU
100
AcDbLine
 10
302.77910825007
 20
168.3241353384586
 30
0.0
 11
338.77910825007
 21
168.3241353384586
 31
0.0
  0
INSERT
  5
19DB
330
756
100
AcDbEntity
  8
SUNPOU
100
AcDbBlockReference
  2
_OPEN
 10
299.77910825007
 20
168.3241353384586
 30
0.0
 41
3.0
 42
3.0
 43
3.0
 50
180.0
  0
INSERT
  5
19DC
330
756
100
AcDbEntity
  8
SUNPOU
100
AcDbBlockReference
  2
_OPEN
 10
341.77910825007
 20
168.3241353384586
 30
0.0
 41
3.0
 42
3.0
 43
3.0
  0
MTEXT
  5
19DD
330
756
100
AcDbEntity
  8
SUNPOU
100
AcDbMText
 10
320.77910825007
 20
170.8241353384586
 30
0.0
 40
3.0
 41
0.0
 71
     5
 72
     1
  1
\A1;42
1001
ACAD
1000
MTEXTBEGIN
1070
    73
1070
     1
1070
    44
1040
1.0
1070
    74
1070
     0
1000
MTEXTEND
  0
POINT
  5
19DE
330
756
100
AcDbEntity
  8
DEFPOINTS
 62
     0
100
AcDbPoint
 10
299.77910825007
 20
125.8903460839771
 30
0.0
  0
POINT
  5
19DF
330
756
100
AcDbEntity
  8
DEFPOINTS
 62
     0
100
AcDbPoint
 10
341.77910825007
 20
125.8903460839771
 30
0.0
  0
POINT
  5
19E0
330
756
100
AcDbEntity
  8
DEFPOINTS
 62
     0
100
AcDbPoint
 10
341.77910825007
 20
168.3241353384586
 30
0.0
  0
ENDBLK
  5
761
330
756
100
AcDbEntity
  8
0
100
AcDbBlockEnd
  0
BLOCK
  5
76D
330
763
100
AcDbEntity
  8
0
100
AcDbBlockBegin
  2
*D3
 70
     1
 10
0.0
 20
0.0
 30
0.0
  3
*D3
  1

  0
LINE
  5
19CF
330
763
100
AcDbEntity
  8
SUNPOU
100
AcDbLine
 10
294.27910825007
 20
126.2903461122497
 30
0.0
 11
294.27910825007
 21
177.7644379021011
 31
0.0
  0
LINE
  5
19D0
330
763
100
AcDbEntity
  8
SUNPOU
100
AcDbLine
 10
347.27910825007
 20
126.2903461122497
 30
0.0
 11
347.27910825007
 21
177.7644379021011
 31
0.0
  0
LINE
  5
19D1
330
763
100
AcDbEntity
  8
SUNPOU
100
AcDbLine
 10
297.27910825007
 20
176.2644379021011
 30
0.0
 11
344.27910825007
 21
176.2644379021011
 31
0.0
  0
INSERT
  5
19D2
330
763
100
AcDbEntity
  8
SUNPOU
100
AcDbBlockReference
  2
_OPEN
 10
294.27910825007
 20
176.2644379021011
 30
0.0
 41
3.0
 42
3.0
 43
3.0
 50
180.0
  0
INSERT
  5
19D3
330
763
100
AcDbEntity
  8
SUNPOU
100
AcDbBlockReference
  2
_OPEN
 10
347.27910825007
 20
176.2644379021011
 30
0.0
 41
3.0
 42
3.0
 43
3.0
  0
MTEXT
  5
19D4
330
763
100
AcDbEntity
  8
SUNPOU
100
AcDbMText
 10
320.77910825007
 20
178.7644379021011
 30
0.0
 40
3.0
 41
0.0
 71
     5
 72
     1
  1
\A1;53
1001
ACAD
1000
MTEXTBEGIN
1070
    73
1070
     1
1070
    44
1040
1.0
1070
    74
1070
     0
1000
MTEXTEND
  0
POINT
  5
19D5
330
763
100
AcDbEntity
  8
DEFPOINTS
 62
     0
100
AcDbPoint
 10
294.27910825007
 20
123.2903461122497
 30
0.0
  0
POINT
  5
19D6
330
763
100
AcDbEntity
  8
DEFPOINTS
 62
     0
100
AcDbPoint
 10
347.27910825007
 20
123.2903461122497
 30
0.0
  0
POINT
  5
19D7
330
763
100
AcDbEntity
  8
DEFPOINTS
 62
     0
100
AcDbPoint
 10
347.27910825007
 20
176.2644379021011
 30
0.0
  0
ENDBLK
  5
76E
330
763
100
AcDbEntity
  8
0
100
AcDbBlockEnd
  0
BLOCK
  5
77C
330
770
100
AcDbEntity
  8
0
100
AcDbBlockBegin
  2
*D4
 70
     1
 10
0.0
 20
0.0
 30
0.0
  3
*D4
  1

  0
LINE
  5
19FE
330
770
100
AcDbEntity
  8
SUNPOU
100
AcDbLine
 10
293.27910825007
 20
125.2903461122497
 30
0.0
 11
274.6791590469197
 21
125.2903461122497
 31
0.0
  0
LINE
  5
19FF
330
770
100
AcDbEntity
  8
SUNPOU
100
AcDbLine
 10
290.6791082783426
 20
119.7903461122497
 30
0.0
 11
274.6791590469197
 21
119.7903461122497
 31
0.0
  0
LINE
  5
1A00
330
770
100
AcDbEntity
  8
SUNPOU
100
AcDbLine
 10
276.1791590469197
 20
128.2903461122497
 30
0.0
 11
276.1791590469197
 21
131.2903461122497
 31
0.0
  0
LINE
  5
1A01
330
770
100
AcDbEntity
  8
SUNPOU
100
AcDbLine
 10
276.1791590469197
 20
116.7903461122497
 30
0.0
 11
276.1791590469197
 21
113.7903461122497
 31
0.0
  0
LINE
  5
1A02
330
770
100
AcDbEntity
  8
SUNPOU
100
AcDbLine
 10
276.1791590469197
 20
125.2903461122497
 30
0.0
 11
276.1791590469197
 21
119.7903461122497
 31
0.0
  0
INSERT
  5
1A03
330
770
100
AcDbEntity
  8
SUNPOU
100
AcDbBlockReference
  2
_OPEN
 10
276.1791590469197
 20
125.2903461122497
 30
0.0
 41
3.0
 42
3.0
 43
3.0
 50
270.0
  0
INSERT
  5
1A04
330
770
100
AcDbEntity
  8
SUNPOU
100
AcDbBlockReference
  2
_OPEN
 10
276.1791590469197
 20
119.7903461122497
 30
0.0
 41
3.0
 42
3.0
 43
3.0
 50
90.0
  0
MTEXT
  5
1A05
330
770
100
AcDbEntity
  8
SUNPOU
100
AcDbMText
 10
273.6791590469197
 20
122.5403461122497
 30
0.0
 40
3.0
 41
0.0
 71
     5
 72
     1
  1
\A1;6
 11
0.0000000000000001
 21
1.0
 31
0.0
1001
ACAD
1000
MTEXTBEGIN
1070
    73
1070
     1
1070
    44
1040
1.0
1070
    74
1070
     0
1000
MTEXTEND
  0
POINT
  5
1A06
330
770
100
AcDbEntity
  8
DEFPOINTS
 62
     0
100
AcDbPoint
 10
296.27910825007
 20
125.2903461122497
 30
0.0
  0
POINT
  5
1A07
330
770
100
AcDbEntity
  8
DEFPOINTS
 62
     0
100
AcDbPoint
 10
293.6791082783426
 20
119.7903461122497
 30
0.0
  0
POINT
  5
1A08
330
770
100
AcDbEntity
  8
DEFPOINTS
 62
     0
100
AcDbPoint
 10
276.1791590469197
 20
119.7903461122497
 30
0.0
  0
ENDBLK
  5
77D
330
770
100
AcDbEntity
  8
0
100
AcDbBlockEnd
  0
BLOCK
  5
78B
330
77F
100
AcDbEntity
  8
0
100
AcDbBlockBegin
  2
*D5
 70
     1
 10
0.0
 20
0.0
 30
0.0
  3
*D5
  1

  0
LINE
  5
19F3
330
77F
100
AcDbEntity
  8
SUNPOU
100
AcDbLine
 10
290.6791082783426
 20
94.79034611224973
 30
0.0
 11
274.6791590469196
 21
94.79034611224973
 31
0.0
  0
LINE
  5
19F4
330
77F
100
AcDbEntity
  8
SUNPOU
100
AcDbLine
 10
293.27910825007
 20
89.29034611224972
 30
0.0
 11
274.6791590469196
 21
89.29034611224974
 31
0.0
  0
LINE
  5
19F5
330
77F
100
AcDbEntity
  8
SUNPOU
100
AcDbLine
 10
276.1791590469196
 20
97.79034611224973
 30
0.0
 11
276.1791590469196
 21
100.7903461122497
 31
0.0
  0
LINE
  5
19F6
330
77F
100
AcDbEntity
  8
SUNPOU
100
AcDbLine
 10
276.1791590469196
 20
86.29034611224973
 30
0.0
 11
276.1791590469196
 21
83.29034611224974
 31
0.0
  0
LINE
  5
19F7
330
77F
100
AcDbEntity
  8
SUNPOU
100
AcDbLine
 10
276.1791590469196
 20
94.79034611224973
 30
0.0
 11
276.1791590469196
 21
89.29034611224974
 31
0.0
  0
INSERT
  5
19F8
330
77F
100
AcDbEntity
  8
SUNPOU
100
AcDbBlockReference
  2
_OPEN
 10
276.1791590469196
 20
94.79034611224973
 30
0.0
 41
3.0
 42
3.0
 43
3.0
 50
270.0
  0
INSERT
  5
19F9
330
77F
100
AcDbEntity
  8
SUNPOU
100
AcDbBlockReference
  2
_OPEN
 10
276.1791590469196
 20
89.29034611224974
 30
0.0
 41
3.0
 42
3.0
 43
3.0
 50
90.0
  0
MTEXT
  5
19FA
330
77F
100
AcDbEntity
  8
SUNPOU
100
AcDbMText
 10
273.6791590469196
 20
92.04034611224978
 30
0.0
 40
3.0
 41
0.0
 71
     5
 72
     1
  1
\A1;6
 11
0.0000000000000001
 21
1.0
 31
0.0
1001
ACAD
1000
MTEXTBEGIN
1070
    73
1070
     1
1070
    44
1040
1.0
1070
    74
1070
     0
1000
MTEXTEND
  0
POINT
  5
19FB
330
77F
100
AcDbEntity
  8
DEFPOINTS
 62
     0
100
AcDbPoint
 10
293.6791082783426
 20
94.79034611224973
 30
0.0
  0
POINT
  5
19FC
330
77F
100
AcDbEntity
  8
DEFPOINTS
 62
     0
100
AcDbPoint
 10
296.27910825007
 20
89.29034611224972
 30
0.0
  0
POINT
  5
19FD
330
77F
100
AcDbEntity
  8
DEFPOINTS
 62
     0
100
AcDbPoint
 10
276.1791590469196
 20
89.29034611224974
 30
0.0
  0
ENDBLK
  5
78C
330
77F
100
AcDbEntity
  8
0
100
AcDbBlockEnd
  0
BLOCK
  5
798
330
78E
100
AcDbEntity
  8
0
100
AcDbBlockBegin
  2
*D6
 70
     1
 10
0.0
 20
0.0
 30
0.0
  3
*D6
  1

  0
LINE
  5
19EA
330
78E
100
AcDbEntity
  8
SUNPOU
100
AcDbLine
 10
293.27910825007
 20
125.2903461122497
 30
0.0
 11
264.8057536843261
 21
125.2903461122497
 31
0.0
  0
LINE
  5
19EB
330
78E
100
AcDbEntity
  8
SUNPOU
100
AcDbLine
 10
293.27910825007
 20
89.29034611224972
 30
0.0
 11
264.8057536843261
 21
89.29034611224974
 31
0.0
  0
LINE
  5
19EC
330
78E
100
AcDbEntity
  8
SUNPOU
100
AcDbLine
 10
266.3057536843262
 20
122.2903461122497
 30
0.0
 11
266.3057536843262
 21
92.29034611224973
 31
0.0
  0
INSERT
  5
19ED
330
78E
100
AcDbEntity
  8
SUNPOU
100
AcDbBlockReference
  2
_OPEN
 10
266.3057536843262
 20
125.2903461122497
 30
0.0
 41
3.0
 42
3.0
 43
3.0
 50
90.0
  0
INSERT
  5
19EE
330
78E
100
AcDbEntity
  8
SUNPOU
100
AcDbBlockReference
  2
_OPEN
 10
266.3057536843262
 20
89.29034611224974
 30
0.0
 41
3.0
 42
3.0
 43
3.0
 50
270.0
  0
MTEXT
  5
19EF
330
78E
100
AcDbEntity
  8
SUNPOU
100
AcDbMText
 10
263.8057536843262
 20
107.2903461122497
 30
0.0
 40
3.0
 41
0.0
 71
     5
 72
     1
  1
\A1;36
 11
0.0000000000000001
 21
1.0
 31
0.0
1001
ACAD
1000
MTEXTBEGIN
1070
    73
1070
     1
1070
    44
1040
1.0
1070
    74
1070
     0
1000
MTEXTEND
  0
POINT
  5
19F0
330
78E
100
AcDbEntity
  8
DEFPOINTS
 62
     0
100
AcDbPoint
 10
296.27910825007
 20
125.2903461122497
 30
0.0
  0
POINT
  5
19F1
330
78E
100
AcDbEntity
  8
DEFPOINTS
 62
     0
100
AcDbPoint
 10
296.27910825007
 20
89.29034611224972
 30
0.0
  0
POINT
  5
19F2
330
78E
100
AcDbEntity
  8
DEFPOINTS
 62
     0
100
AcDbPoint
 10
266.3057536843262
 20
89.29034611224974
 30
0.0
  0
ENDBLK
  5
799
330
78E
100
AcDbEntity
  8
0
100
AcDbBlockEnd
  0
BLOCK
  5
7A5
330
79B
100
AcDbEntity
  8
0
100
AcDbBlockBegin
  2
*D7
 70
     1
 10
0.0
 20
0.0
 30
0.0
  3
*D7
  1

  0
LINE
  5
1A09
330
79B
100
AcDbEntity
  8
SUNPOU
100
AcDbLine
 10
348.27910825007
 20
125.2903461122497
 30
0.0
 11
364.8541146307497
 21
125.2903461122497
 31
0.0
  0
LINE
  5
1A0A
330
79B
100
AcDbEntity
  8
SUNPOU
100
AcDbLine
 10
350.27910825007
 20
111.2903461122497
 30
0.0
 11
364.8541146307497
 21
111.2903461122497
 31
0.0
  0
LINE
  5
1A0B
330
79B
100
AcDbEntity
  8
SUNPOU
100
AcDbLine
 10
363.3541146307497
 20
122.2903461122497
 30
0.0
 11
363.3541146307497
 21
114.2903461122497
 31
0.0
  0
INSERT
  5
1A0C
330
79B
100
AcDbEntity
  8
SUNPOU
100
AcDbBlockReference
  2
_OPEN
 10
363.3541146307497
 20
125.2903461122497
 30
0.0
 41
3.0
 42
3.0
 43
3.0
 50
90.0
  0
INSERT
  5
1A0D
330
79B
100
AcDbEntity
  8
SUNPOU
100
AcDbBlockReference
  2
_OPEN
 10
363.3541146307497
 20
111.2903461122497
 30
0.0
 41
3.0
 42
3.0
 43
3.0
 50
270.0
  0
MTEXT
  5
1A0E
330
79B
100
AcDbEntity
  8
SUNPOU
100
AcDbMText
 10
360.8541146307497
 20
118.2903461122497
 30
0.0
 40
3.0
 41
0.0
 71
     5
 72
     1
  1
\A1;14
 11
0.0000000000000001
 21
1.0
 31
0.0
1001
ACAD
1000
MTEXTBEGIN
1070
    73
1070
     1
1070
    44
1040
1.0
1070
    74
1070
     0
1000
MTEXTEND
  0
POINT
  5
1A0F
330
79B
100
AcDbEntity
  8
DEFPOINTS
 62
     0
100
AcDbPoint
 10
345.27910825007
 20
125.2903461122497
 30
0.0
  0
POINT
  5
1A10
330
79B
100
AcDbEntity
  8
DEFPOINTS
 62
     0
100
AcDbPoint
 10
347.27910825007
 20
111.2903461122497
 30
0.0
  0
POINT
  5
1A11
330
79B
100
AcDbEntity
  8
DEFPOINTS
 62
     0
100
AcDbPoint
 10
363.3541146307497
 20
111.2903461122497
 30
0.0
  0
ENDBLK
  5
7A6
330
79B
100
AcDbEntity
  8
0
100
AcDbBlockEnd
  0
BLOCK
  5
86D
330
863
100
AcDbEntity
  8
0
100
AcDbBlockBegin
  2
*D8
 70
     1
 10
0.0
 20
0.0
 30
0.0
  3
*D8
  1

  0
LINE
  5
1999
330
863
100
AcDbEntity
  8
SUNPOU
100
AcDbLine
 10
198.85316739007
 20
237.7238246094552
 30
0.0
 11
218.7847975837308
 21
237.7238246094552
 31
0.0
  0
LINE
  5
199A
330
863
100
AcDbEntity
  8
SUNPOU
100
AcDbLine
 10
198.85316739007
 20
184.7238245694552
 30
0.0
 11
218.7847975837308
 21
184.7238245694552
 31
0.0
  0
LINE
  5
199B
330
863
100
AcDbEntity
  8
SUNPOU
100
AcDbLine
 10
217.2847975837308
 20
234.7238246094552
 30
0.0
 11
217.2847975837308
 21
187.7238245694552
 31
0.0
  0
INSERT
  5
199C
330
863
100
AcDbEntity
  8
SUNPOU
100
AcDbBlockReference
  2
_OPEN
 10
217.2847975837308
 20
237.7238246094552
 30
0.0
 41
3.0
 42
3.0
 43
3.0
 50
90.0
  0
INSERT
  5
199D
330
863
100
AcDbEntity
  8
SUNPOU
100
AcDbBlockReference
  2
_OPEN
 10
217.2847975837308
 20
184.7238245694552
 30
0.0
 41
3.0
 42
3.0
 43
3.0
 50
270.0
  0
MTEXT
  5
199E
330
863
100
AcDbEntity
  8
SUNPOU
100
AcDbMText
 10
214.7847975837307
 20
211.2238245894553
 30
0.0
 40
3.0
 41
0.0
 71
     5
 72
     1
  1
\A1;53
 11
0.0000000000000001
 21
1.0
 31
0.0
1001
ACAD
1000
MTEXTBEGIN
1070
    73
1070
     1
1070
    44
1040
1.0
1070
    74
1070
     0
1000
MTEXTEND
  0
POINT
  5
199F
330
863
100
AcDbEntity
  8
DEFPOINTS
 62
     0
100
AcDbPoint
 10
195.8531673900701
 20
237.7238246094552
 30
0.0
  0
POINT
  5
19A0
330
863
100
AcDbEntity
  8
DEFPOINTS
 62
     0
100
AcDbPoint
 10
195.8531673900701
 20
184.7238245694552
 30
0.0
  0
POINT
  5
19A1
330
863
100
AcDbEntity
  8
DEFPOINTS
 62
     0
100
AcDbPoint
 10
217.2847975837308
 20
184.7238245694552
 30
0.0
  0
ENDBLK
  5
86E
330
863
100
AcDbEntity
  8
0
100
AcDbBlockEnd
  0
BLOCK
  5
1062
330
1058
100
AcDbEntity
  8
0
100
AcDbBlockBegin
  2
*D9
 70
     1
 10
0.0
 20
0.0
 30
0.0
  3
*D9
  1

  0
LINE
  5
19C6
330
1058
100
AcDbEntity
  8
SUNPOU
100
AcDbLine
 10
63.15306739007011
 20
222.2238246094552
 30
0.0
 11
38.76780474342059
 21
222.2238246094552
 31
0.0
  0
LINE
  5
19C7
330
1058
100
AcDbEntity
  8
SUNPOU
100
AcDbLine
 10
63.1530673900701
 20
200.2238245694552
 30
0.0
 11
38.76780474342058
 21
200.2238245694552
 31
0.0
  0
LINE
  5
19C8
330
1058
100
AcDbEntity
  8
SUNPOU
100
AcDbLine
 10
40.26780474342059
 20
219.2238246094552
 30
0.0
 11
40.26780474342058
 21
203.2238245694552
 31
0.0
  0
INSERT
  5
19C9
330
1058
100
AcDbEntity
  8
SUNPOU
100
AcDbBlockReference
  2
_OPEN
 10
40.26780474342059
 20
222.2238246094552
 30
0.0
 41
3.0
 42
3.0
 43
3.0
 50
90.0
  0
INSERT
  5
19CA
330
1058
100
AcDbEntity
  8
SUNPOU
100
AcDbBlockReference
  2
_OPEN
 10
40.26780474342058
 20
200.2238245694552
 30
0.0
 41
3.0
 42
3.0
 43
3.0
 50
270.0
  0
MTEXT
  5
19CB
330
1058
100
AcDbEntity
  8
SUNPOU
100
AcDbMText
 10
37.76780474342055
 20
211.2238245894552
 30
0.0
 40
3.0
 41
0.0
 71
     5
 72
     1
  1
\A1;22
 11
0.0000000000000001
 21
1.0
 31
0.0
1001
ACAD
1000
MTEXTBEGIN
1070
    73
1070
     1
1070
    44
1040
1.0
1070
    74
1070
     0
1000
MTEXTEND
  0
POINT
  5
19CC
330
1058
100
AcDbEntity
  8
DEFPOINTS
 62
     0
100
AcDbPoint
 10
66.1530673900701
 20
222.2238246094552
 30
0.0
  0
POINT
  5
19CD
330
1058
100
AcDbEntity
  8
DEFPOINTS
 62
     0
100
AcDbPoint
 10
66.1530673900701
 20
200.2238245694551
 30
0.0
  0
POINT
  5
19CE
330
1058
100
AcDbEntity
  8
DEFPOINTS
 62
     0
100
AcDbPoint
 10
40.26780474342058
 20
200.2238245694552
 30
0.0
  0
ENDBLK
  5
1063
330
1058
100
AcDbEntity
  8
0
100
AcDbBlockEnd
  0
BLOCK
  5
15E8
330
15DE
100
AcDbEntity
  8
0
100
AcDbBlockBegin
  2
*D10
 70
     1
 10
0.0
 20
0.0
 30
0.0
  3
*D10
  1

  0
LINE
  5
19AB
330
15DE
100
AcDbEntity
  8
SUNPOU
100
AcDbLine
 10
66.15306739007007
 20
96.49034611224971
 30
0.0
 11
66.15306739007007
 21
162.9704593147252
 31
0.0
  0
LINE
  5
19AC
330
15DE
100
AcDbEntity
  8
SUNPOU
100
AcDbLine
 10
195.8531673900701
 20
128.2903461122497
 30
0.0
 11
195.8531673900701
 21
162.9704593147252
 31
0.0
  0
LINE
  5
19AD
330
15DE
100
AcDbEntity
  8
SUNPOU
100
AcDbLine
 10
69.15306739007007
 20
161.4704593147251
 30
0.0
 11
192.8531673900701
 21
161.4704593147251
 31
0.0
  0
INSERT
  5
19AE
330
15DE
100
AcDbEntity
  8
SUNPOU
100
AcDbBlockReference
  2
_OPEN
 10
66.15306739007007
 20
161.4704593147251
 30
0.0
 41
3.0
 42
3.0
 43
3.0
 50
180.0
  0
INSERT
  5
19AF
330
15DE
100
AcDbEntity
  8
SUNPOU
100
AcDbBlockReference
  2
_OPEN
 10
195.8531673900701
 20
161.4704593147251
 30
0.0
 41
3.0
 42
3.0
 43
3.0
  0
MTEXT
  5
19B0
330
15DE
100
AcDbEntity
  8
SUNPOU
100
AcDbMText
 10
131.00311739007
 20
163.9704593147252
 30
0.0
 40
3.0
 41
0.0
 71
     5
 72
     1
  1
\A1;130
1001
ACAD
1000
MTEXTBEGIN
1070
    73
1070
     1
1070
    44
1040
1.0
1070
    74
1070
     0
1000
MTEXTEND
  0
POINT
  5
19B1
330
15DE
100
AcDbEntity
  8
DEFPOINTS
 62
     0
100
AcDbPoint
 10
66.15306739007007
 20
93.4903461122497
 30
0.0
  0
POINT
  5
19B2
330
15DE
100
AcDbEntity
  8
DEFPOINTS
 62
     0
100
AcDbPoint
 10
195.8531673900701
 20
125.2903461122497
 30
0.0
  0
POINT
  5
19B3
330
15DE
100
AcDbEntity
  8
DEFPOINTS
 62
     0
100
AcDbPoint
 10
195.8531673900701
 20
161.4704593147251
 30
0.0
  0
ENDBLK
  5
15E9
330
15DE
100
AcDbEntity
  8
0
100
AcDbBlockEnd
  0
BLOCK
  5
15F5
330
15EB
100
AcDbEntity
  8
0
100
AcDbBlockBegin
  2
*D11
 70
     1
 10
0.0
 20
0.0
 30
0.0
  3
*D11
  1

  0
LINE
  5
1990
330
15EB
100
AcDbEntity
  8
SUNPOU
100
AcDbLine
 10
195.8531673900701
 20
128.2903461122497
 30
0.0
 11
195.8531673900701
 21
162.9704593147252
 31
0.0
  0
LINE
  5
1991
330
15EB
100
AcDbEntity
  8
SUNPOU
100
AcDbLine
 10
230.85316737007
 20
128.2903461122497
 30
0.0
 11
230.85316737007
 21
162.9704593147252
 31
0.0
  0
LINE
  5
1992
330
15EB
100
AcDbEntity
  8
SUNPOU
100
AcDbLine
 10
198.85316739007
 20
161.4704593147251
 30
0.0
 11
227.8531673700701
 21
161.4704593147251
 31
0.0
  0
INSERT
  5
1993
330
15EB
100
AcDbEntity
  8
SUNPOU
100
AcDbBlockReference
  2
_OPEN
 10
195.8531673900701
 20
161.4704593147251
 30
0.0
 41
3.0
 42
3.0
 43
3.0
 50
180.0
  0
INSERT
  5
1994
330
15EB
100
AcDbEntity
  8
SUNPOU
100
AcDbBlockReference
  2
_OPEN
 10
230.85316737007
 20
161.4704593147251
 30
0.0
 41
3.0
 42
3.0
 43
3.0
  0
MTEXT
  5
1995
330
15EB
100
AcDbEntity
  8
SUNPOU
100
AcDbMText
 10
213.3531673800701
 20
163.9704593147252
 30
0.0
 40
3.0
 41
0.0
 71
     5
 72
     1
  1
\A1;35
1001
ACAD
1000
MTEXTBEGIN
1070
    73
1070
     1
1070
    44
1040
1.0
1070
    74
1070
     0
1000
MTEXTEND
  0
POINT
  5
1996
330
15EB
100
AcDbEntity
  8
DEFPOINTS
 62
     0
100
AcDbPoint
 10
195.8531673900701
 20
125.2903461122497
 30
0.0
  0
POINT
  5
1997
330
15EB
100
AcDbEntity
  8
DEFPOINTS
 62
     0
100
AcDbPoint
 10
230.85316737007
 20
125.2903461122497
 30
0.0
  0
POINT
  5
1998
330
15EB
100
AcDbEntity
  8
DEFPOINTS
 62
     0
100
AcDbPoint
 10
230.85316737007
 20
161.4704593147251
 30
0.0
  0
ENDBLK
  5
15F6
330
15EB
100
AcDbEntity
  8
0
100
AcDbBlockEnd
  0
BLOCK
  5
1602
330
15F8
100
AcDbEntity
  8
0
100
AcDbBlockBegin
  2
*D12
 70
     1
 10
0.0
 20
0.0
 30
0.0
  3
*D12
  1

  0
LINE
  5
19B4
330
15F8
100
AcDbEntity
  8
SUNPOU
100
AcDbLine
 10
66.32766156117681
 20
98.2711045371678
 30
0.0
 11
43.20482238663771
 21
98.2711045371678
 31
0.0
  0
LINE
  5
19B5
330
15F8
100
AcDbEntity
  8
SUNPOU
100
AcDbLine
 10
186.1531673900701
 20
89.29034611224972
 30
0.0
 11
43.2048223866377
 21
89.29034611224976
 31
0.0
  0
LINE
  5
19B6
330
15F8
100
AcDbEntity
  8
SUNPOU
100
AcDbLine
 10
44.70482238663771
 20
95.2711045371678
 30
0.0
 11
44.70482238663771
 21
92.29034611224976
 31
0.0
  0
INSERT
  5
19B7
330
15F8
100
AcDbEntity
  8
SUNPOU
100
AcDbBlockReference
  2
_OPEN
 10
44.70482238663771
 20
98.2711045371678
 30
0.0
 41
3.0
 42
3.0
 43
3.0
 50
90.0
  0
INSERT
  5
19B8
330
15F8
100
AcDbEntity
  8
SUNPOU
100
AcDbBlockReference
  2
_OPEN
 10
44.70482238663771
 20
89.29034611224976
 30
0.0
 41
3.0
 42
3.0
 43
3.0
 50
270.0
  0
MTEXT
  5
19B9
330
15F8
100
AcDbEntity
  8
SUNPOU
100
AcDbMText
 10
42.2048223866377
 20
93.78072532470879
 30
0.0
 40
3.0
 41
0.0
 71
     5
 72
     1
  1
\A1;9
 11
0.0000000000000001
 21
1.0
 31
0.0
1001
ACAD
1000
MTEXTBEGIN
1070
    73
1070
     1
1070
    44
1040
1.0
1070
    74
1070
     0
1000
MTEXTEND
  0
POINT
  5
19BA
330
15F8
100
AcDbEntity
  8
DEFPOINTS
 62
     0
100
AcDbPoint
 10
69.32766156117681
 20
98.2711045371678
 30
0.0
  0
POINT
  5
19BB
330
15F8
100
AcDbEntity
  8
DEFPOINTS
 62
     0
100
AcDbPoint
 10
189.1531673900701
 20
89.29034611224972
 30
0.0
  0
POINT
  5
19BC
330
15F8
100
AcDbEntity
  8
DEFPOINTS
 62
     0
100
AcDbPoint
 10
44.70482238663771
 20
89.29034611224976
 30
0.0
  0
ENDBLK
  5
1603
330
15F8
100
AcDbEntity
  8
0
100
AcDbBlockEnd
  0
BLOCK
  5
160F
330
1605
100
AcDbEntity
  8
0
100
AcDbBlockBegin
  2
*D13
 70
     1
 10
0.0
 20
0.0
 30
0.0
  3
*D13
  1

  0
LINE
  5
1987
330
1605
100
AcDbEntity
  8
SUNPOU
100
AcDbLine
 10
189.3531673900701
 20
141.2903461141863
 30
0.0
 11
213.7842736572488
 21
141.2903461141862
 31
0.0
  0
LINE
  5
1988
330
1605
100
AcDbEntity
  8
SUNPOU
100
AcDbLine
 10
198.85316739007
 20
89.29034611224972
 30
0.0
 11
213.7842736572488
 21
89.29034611224972
 31
0.0
  0
LINE
  5
1989
330
1605
100
AcDbEntity
  8
SUNPOU
100
AcDbLine
 10
212.2842736572488
 20
138.2903461141862
 30
0.0
 11
212.2842736572488
 21
92.29034611224973
 31
0.0
  0
INSERT
  5
198A
330
1605
100
AcDbEntity
  8
SUNPOU
100
AcDbBlockReference
  2
_OPEN
 10
212.2842736572488
 20
141.2903461141862
 30
0.0
 41
3.0
 42
3.0
 43
3.0
 50
90.0
  0
INSERT
  5
198B
330
1605
100
AcDbEntity
  8
SUNPOU
100
AcDbBlockReference
  2
_OPEN
 10
212.2842736572488
 20
89.29034611224972
 30
0.0
 41
3.0
 42
3.0
 43
3.0
 50
270.0
  0
MTEXT
  5
198C
330
1605
100
AcDbEntity
  8
SUNPOU
100
AcDbMText
 10
209.7842736572487
 20
115.290346113218
 30
0.0
 40
3.0
 41
0.0
 71
     5
 72
     1
  1
\A1;52
 11
0.0000000000000001
 21
1.0
 31
0.0
1001
ACAD
1000
MTEXTBEGIN
1070
    73
1070
     1
1070
    44
1040
1.0
1070
    74
1070
     0
1000
MTEXTEND
  0
POINT
  5
198D
330
1605
100
AcDbEntity
  8
DEFPOINTS
 62
     0
100
AcDbPoint
 10
186.35316739007
 20
141.2903461141863
 30
0.0
  0
POINT
  5
198E
330
1605
100
AcDbEntity
  8
DEFPOINTS
 62
     0
100
AcDbPoint
 10
195.8531673900701
 20
89.29034611224972
 30
0.0
  0
POINT
  5
198F
330
1605
100
AcDbEntity
  8
DEFPOINTS
 62
     0
100
AcDbPoint
 10
212.2842736572488
 20
89.29034611224972
 30
0.0
  0
ENDBLK
  5
1610
330
1605
100
AcDbEntity
  8
0
100
AcDbBlockEnd
  0
BLOCK
  5
168C
330
1682
100
AcDbEntity
  8
0
100
AcDbBlockBegin
  2
*D14
 70
     1
 10
0.0
 20
0.0
 30
0.0
  3
*D14
  1

  0
LINE
  5
19BD
330
1682
100
AcDbEntity
  8
SUNPOU
100
AcDbLine
 10
198.85316739007
 20
125.2903461122497
 30
0.0
 11
205.3574082299555
 21
125.2903461122497
 31
0.0
  0
LINE
  5
19BE
330
1682
100
AcDbEntity
  8
SUNPOU
100
AcDbLine
 10
198.85316739007
 20
89.29034611224972
 30
0.0
 11
205.3574082299555
 21
89.29034611224972
 31
0.0
  0
LINE
  5
19BF
330
1682
100
AcDbEntity
  8
SUNPOU
100
AcDbLine
 10
203.8574082299555
 20
122.2903461122497
 30
0.0
 11
203.8574082299555
 21
92.29034611224973
 31
0.0
  0
INSERT
  5
19C0
330
1682
100
AcDbEntity
  8
SUNPOU
100
AcDbBlockReference
  2
_OPEN
 10
203.8574082299555
 20
125.2903461122497
 30
0.0
 41
3.0
 42
3.0
 43
3.0
 50
90.0
  0
INSERT
  5
19C1
330
1682
100
AcDbEntity
  8
SUNPOU
100
AcDbBlockReference
  2
_OPEN
 10
203.8574082299555
 20
89.29034611224972
 30
0.0
 41
3.0
 42
3.0
 43
3.0
 50
270.0
  0
MTEXT
  5
19C2
330
1682
100
AcDbEntity
  8
SUNPOU
100
AcDbMText
 10
201.3574082299555
 20
107.2903461122497
 30
0.0
 40
3.0
 41
0.0
 71
     5
 72
     1
  1
\A1;36
 11
0.0000000000000001
 21
1.0
 31
0.0
1001
ACAD
1000
MTEXTBEGIN
1070
    73
1070
     1
1070
    44
1040
1.0
1070
    74
1070
     0
1000
MTEXTEND
  0
POINT
  5
19C3
330
1682
100
AcDbEntity
  8
DEFPOINTS
 62
     0
100
AcDbPoint
 10
195.8531673900701
 20
125.2903461122497
 30
0.0
  0
POINT
  5
19C4
330
1682
100
AcDbEntity
  8
DEFPOINTS
 62
     0
100
AcDbPoint
 10
195.8531673900701
 20
89.29034611224972
 30
0.0
  0
POINT
  5
19C5
330
1682
100
AcDbEntity
  8
DEFPOINTS
 62
     0
100
AcDbPoint
 10
203.8574082299555
 20
89.29034611224972
 30
0.0
  0
ENDBLK
  5
168D
330
1682
100
AcDbEntity
  8
0
100
AcDbBlockEnd
  0
BLOCK
  5
16C6
330
16BC
100
AcDbEntity
  8
0
100
AcDbBlockBegin
  2
*D15
 70
     1
 10
0.0
 20
0.0
 30
0.0
  3
*D15
  1

  0
LINE
  5
19A2
330
16BC
100
AcDbEntity
  8
SUNPOU
100
AcDbLine
 10
184.1531673900701
 20
104.8126692332497
 30
0.0
 11
184.1531673900701
 21
154.2282558254611
 31
0.0
  0
LINE
  5
19A3
330
16BC
100
AcDbEntity
  8
SUNPOU
100
AcDbLine
 10
195.8531673900701
 20
128.2903461122497
 30
0.0
 11
195.8531673900701
 21
154.2282558254611
 31
0.0
  0
LINE
  5
19A4
330
16BC
100
AcDbEntity
  8
SUNPOU
100
AcDbLine
 10
187.1531673900701
 20
152.7282558254611
 30
0.0
 11
192.8531673900701
 21
152.7282558254611
 31
0.0
  0
INSERT
  5
19A5
330
16BC
100
AcDbEntity
  8
SUNPOU
100
AcDbBlockReference
  2
_OPEN
 10
184.1531673900701
 20
152.7282558254611
 30
0.0
 41
3.0
 42
3.0
 43
3.0
 50
180.0
  0
INSERT
  5
19A6
330
16BC
100
AcDbEntity
  8
SUNPOU
100
AcDbBlockReference
  2
_OPEN
 10
195.8531673900701
 20
152.7282558254611
 30
0.0
 41
3.0
 42
3.0
 43
3.0
  0
MTEXT
  5
19A7
330
16BC
100
AcDbEntity
  8
SUNPOU
100
AcDbMText
 10
190.0031673900701
 20
155.2282558254611
 30
0.0
 40
3.0
 41
0.0
 71
     5
 72
     1
  1
\A1;12
1001
ACAD
1000
MTEXTBEGIN
1070
    73
1070
     1
1070
    44
1040
1.0
1070
    74
1070
     0
1000
MTEXTEND
  0
POINT
  5
19A8
330
16BC
100
AcDbEntity
  8
DEFPOINTS
 62
     0
100
AcDbPoint
 10
184.1531673900701
 20
101.8126692332497
 30
0.0
  0
POINT
  5
19A9
330
16BC
100
AcDbEntity
  8
DEFPOINTS
 62
     0
100
AcDbPoint
 10
195.8531673900701
 20
125.2903461122497
 30
0.0
  0
POINT
  5
19AA
330
16BC
100
AcDbEntity
  8
DEFPOINTS
 62
     0
100
AcDbPoint
 10
195.8531673900701
 20
152.7282558254611
 30
0.0
  0
ENDBLK
  5
16C7
330
16BC
100
AcDbEntity
  8
0
100
AcDbBlockEnd
  0
ENDSEC
  0
SECTION
  2
ENTITIES
  0
LINE
  5
363
330
1A
100
AcDbEntity
  8
SEIHIN
100
AcDbLine
 10
91.05316739007008
 20
79.09674246224972
 30
0.0
 11
116.0531673920701
 21
79.09674246224972
 31
0.0
  0
ARC
  5
364
330
1A
100
AcDbEntity
  8
SEIHIN
100
AcDbCircle
 10
106.55316739007
 20
99.59034611224973
 30
0.0
 40
9.535085152808647
100
AcDbArc
 50
4.916661302937908
 51
179.999861547953
  0
LINE
  5
367
330
1A
100
AcDbEntity
  8
SEIHIN
100
AcDbLine
 10
97.0180822400701
 20
99.59036915324972
 30
0.0
 11
97.01806259007009
 21
91.25861865224974
 31
0.0
  0
LINE
  5
368
330
1A
100
AcDbEntity
  8
SEIHIN
100
AcDbLine
 10
91.05316739007008
 20
79.09674246224972
 30
0.0
 11
91.05316739007008
 21
98.09674246424973
 31
0.0
  0
LINE
  5
369
330
1A
100
AcDbEntity
  8
SEIHIN
100
AcDbLine
 10
95.0180787200701
 20
98.09674010624974
 30
0.0
 11
95.01806259007009
 21
91.25861865224974
 31
0.0
  0
LINE
  5
36A
330
1A
100
AcDbEntity
  8
SEIHIN
100
AcDbLine
 10
95.65316739007011
 20
98.29034611224972
 30
0.0
 11
95.65315324007007
 21
92.29034611224973
 31
0.0
  0
LINE
  5
36B
330
1A
100
AcDbEntity
  8
SEIHIN
100
AcDbLine
 10
96.6531673900701
 20
98.29034611224972
 30
0.0
 11
96.65315324007009
 21
92.29034375424973
 31
0.0
  0
LINE
  5
36F
330
1A
100
AcDbEntity
  8
SEIHIN
100
AcDbLine
 10
95.01806259007009
 20
91.25861865224974
 30
0.0
 11
97.01806259007009
 21
91.25861865224974
 31
0.0
  0
LINE
  5
370
330
1A
100
AcDbEntity
  8
SEIHIN
100
AcDbLine
 10
95.65315324007007
 20
92.29034611224973
 30
0.0
 11
97.01806502007009
 21
92.29034611224973
 31
0.0
  0
LINE
  5
371
330
1A
100
AcDbEntity
  8
SEIHIN
100
AcDbLine
 10
109.55316739007
 20
88.79034611224971
 30
0.0
 11
109.55316739007
 21
84.79034611224973
 31
0.0
  0
LINE
  5
372
330
1A
100
AcDbEntity
  8
SEIHIN
100
AcDbLine
 10
102.55316739007
 20
88.79034611224971
 30
0.0
 11
102.55316739007
 21
84.79034611224973
 31
0.0
  0
MTEXT
  5
373
330
1A
100
AcDbEntity
  8
SEIHIN
100
AcDbMText
 10
104.40611317007
 20
86.67033335624973
 30
0.0
 40
2.381249964
 41
0.0
 71
     1
 72
     5
  1
{\W1.460317;10}
1001
ACAD
1000
MTEXTBEGIN
1070
    73
1070
     1
1070
    44
1040
1.0
1070
    74
1070
     0
1000
MTEXTEND
1000
MTEXTBEGIN
1070
    73
1070
     1
1070
    44
1040
1.0
1070
    74
1070
     0
1000
MTEXTEND
1000
MTEXTBEGIN
1070
    73
1070
     1
1070
    44
1040
1.0
1070
    74
1070
     0
1000
MTEXTEND
1000
MTEXTBEGIN
1070
    73
1070
     1
1070
    44
1040
1.0
1070
    74
1070
     0
1000
MTEXTEND
1000
MTEXTBEGIN
1070
    73
1070
     1
1070
    44
1040
1.0
1070
    74
1070
     0
1000
MTEXTEND
1000
MTEXTBEGIN
1070
    73
1070
     1
1070
    44
1040
1.0
1070
    74
1070
     0
1000
MTEXTEND
1000
MTEXTBEGIN
1070
    73
1070
     1
1070
    44
1040
1.0
1070
    74
1070
     0
1000
MTEXTEND
1000
MTEXTBEGIN
1070
    73
1070
     1
1070
    44
1040
1.0
1070
    74
1070
     0
1000
MTEXTEND
  0
LINE
  5
374
330
1A
100
AcDbEntity
  8
SEIHIN
100
AcDbLine
 10
108.55316739007
 20
83.79034611224971
 30
0.0
 11
103.55316739007
 21
83.79034611224971
 31
0.0
  0
LINE
  5
375
330
1A
100
AcDbEntity
  8
SEIHIN
100
AcDbLine
 10
107.2078679300701
 20
81.79034611224972
 30
0.0
 11
104.89846685007
 21
81.79034611224972
 31
0.0
  0
LINE
  5
376
330
1A
100
AcDbEntity
  8
SEIHIN
100
AcDbLine
 10
106.05316739007
 20
83.79034611224971
 30
0.0
 11
104.89846685007
 21
81.79034611224972
 31
0.0
  0
ARC
  5
377
330
1A
100
AcDbEntity
  8
SEIHIN
100
AcDbCircle
 10
103.55316739007
 20
84.79034611224973
 30
0.0
 40
1.0
100
AcDbArc
 50
180.0
 51
270.0
  0
ARC
  5
378
330
1A
100
AcDbEntity
  8
SEIHIN
100
AcDbCircle
 10
108.55316739007
 20
84.79034611224973
 30
0.0
 40
1.0
100
AcDbArc
 50
270.0
 51
0.0
  0
LINE
  5
379
330
1A
100
AcDbEntity
  8
SEIHIN
100
AcDbLine
 10
106.05316739007
 20
83.79034611224971
 30
0.0
 11
107.2078679300701
 21
81.79034611224972
 31
0.0
  0
LINE
  5
37A
330
1A
100
AcDbEntity
  8
SEIHIN
100
AcDbLine
 10
105.8099173900701
 20
89.79034611224973
 30
0.0
 11
106.30991739007
 21
89.79034611224973
 31
0.0
  0
LINE
  5
37B
330
1A
100
AcDbEntity
  8
SEIHIN
100
AcDbLine
 10
103.55316739007
 20
89.79034611224973
 30
0.0
 11
108.55316739007
 21
89.79034611224973
 31
0.0
  0
LINE
  5
37C
330
1A
100
AcDbEntity
  8
SEIHIN
100
AcDbLine
 10
105.8099173900701
 20
89.79034611224973
 30
0.0
 11
106.30991739007
 21
89.79034611224973
 31
0.0
  0
LINE
  5
37D
330
1A
100
AcDbEntity
  8
SEIHIN
100
AcDbLine
 10
106.30991739007
 20
87.79034611224972
 30
0.0
 11
105.8099173900701
 21
87.79034611224972
 31
0.0
  0
ARC
  5
37E
330
1A
100
AcDbEntity
  8
SEIHIN
100
AcDbCircle
 10
103.55316739007
 20
88.79034611224971
 30
0.0
 40
1.0
100
AcDbArc
 50
90.0
 51
180.0
  0
LINE
  5
37F
330
1A
100
AcDbEntity
  8
SEIHIN
100
AcDbLine
 10
105.8099173900701
 20
87.79034611224972
 30
0.0
 11
105.8099173900701
 21
89.79034611224973
 31
0.0
  0
ARC
  5
380
330
1A
100
AcDbEntity
  8
SEIHIN
100
AcDbCircle
 10
108.55316739007
 20
88.79034611224971
 30
0.0
 40
1.0
100
AcDbArc
 50
0.0
 51
90.0
  0
LINE
  5
381
330
1A
100
AcDbEntity
  8
SEIHIN
100
AcDbLine
 10
106.30991739007
 20
89.79034611224973
 30
0.0
 11
106.30991739007
 21
87.79034611224972
 31
0.0
  0
ARC
  5
384
330
1A
100
AcDbEntity
  8
SEIHIN
100
AcDbCircle
 10
92.05316739007008
 20
98.09674246424973
 30
0.0
 40
1.0
100
AcDbArc
 50
90.0
 51
180.0
  0
ARC
  5
387
330
1A
100
AcDbEntity
  8
SEIHIN
100
AcDbCircle
 10
94.0180787200701
 20
98.09674246424973
 30
0.0
 40
1.000000000001389
100
AcDbArc
 50
359.9998648965517
 51
90.0
  0
LINE
  5
388
330
1A
100
AcDbEntity
  8
SEIHIN
100
AcDbLine
 10
94.0180787200701
 20
99.09674246424973
 30
0.0
 11
92.05316739007008
 21
99.09674246424973
 31
0.0
  0
LINE
  5
389
330
1A
100
AcDbEntity
  8
SEIHIN
100
AcDbLine
 10
95.65316739007011
 20
98.29034611224972
 30
0.0
 11
97.01807917007011
 21
98.29034611224972
 31
0.0
  0
CIRCLE
  5
38B
330
1A
100
AcDbEntity
  8
SEIHIN
100
AcDbCircle
 10
106.05316739007
 20
103.0903461122497
 30
0.0
 40
3.500000004238516
  0
LINE
  5
38F
330
1A
100
AcDbEntity
  8
SEIHIN
100
AcDbLine
 10
116.0531673920701
 20
79.09674246224972
 30
0.0
 11
116.0531673920701
 21
100.4075663312497
 31
0.0
  0
LINE
  5
3DF
330
1A
100
AcDbEntity
  8
SEIHIN
100
AcDbLine
 10
95.58607036007009
 20
222.2238246094552
 30
0.0
 11
95.58607036007009
 21
218.7238246094552
 31
0.0
  0
LINE
  5
3E0
330
1A
100
AcDbEntity
  8
SEIHIN
100
AcDbLine
 10
96.5860703600701
 20
219.2238246094552
 30
0.0
 11
96.5860703600701
 21
222.2238246094552
 31
0.0
  0
LINE
  5
3E1
330
1A
100
AcDbEntity
  8
SEIHIN
100
AcDbLine
 10
195.8531673900701
 20
221.0468761094552
 30
0.0
 11
195.8531673900701
 21
237.7238246094552
 31
0.0
  0
LINE
  5
3E2
330
1A
100
AcDbEntity
  8
SEIHIN
100
AcDbLine
 10
194.65316739007
 20
222.6447661094552
 30
0.0
 11
192.6531673900701
 21
220.3030669094552
 31
0.0
  0
LINE
  5
3E3
330
1A
100
AcDbEntity
  8
SEIHIN
100
AcDbLine
 10
194.65316739007
 20
237.7238246094552
 30
0.0
 11
194.65316739007
 21
221.0468761094552
 31
0.0
  0
LINE
  5
3E4
330
1A
100
AcDbEntity
  8
SEIHIN
100
AcDbLine
 10
97.08607036007009
 20
218.7238246094552
 30
0.0
 11
195.35316739007
 21
218.7238246094552
 31
0.0
  0
LINE
  5
3E5
330
1A
100
AcDbEntity
  8
SEIHIN
100
AcDbLine
 10
97.08607036007009
 20
203.7238245694552
 30
0.0
 11
195.35316739007
 21
203.7238245694552
 31
0.0
  0
LINE
  5
3E6
330
1A
100
AcDbEntity
  8
SEIHIN
100
AcDbLine
 10
96.5860703600701
 20
204.7238245694552
 30
0.0
 11
195.35316739007
 21
204.7238245694552
 31
0.0
  0
LINE
  5
3E7
330
1A
100
AcDbEntity
  8
SEIHIN
100
AcDbLine
 10
96.5860703600701
 20
217.7238246094552
 30
0.0
 11
195.35316739007
 21
217.7238246094552
 31
0.0
  0
LINE
  5
3E8
330
1A
100
AcDbEntity
  8
SEIHIN
100
AcDbLine
 10
126.45945049007
 20
214.2238245694552
 30
0.0
 11
191.3531673900701
 21
214.2238245694552
 31
0.0
  0
LINE
  5
3E9
330
1A
100
AcDbEntity
  8
SEIHIN
100
AcDbLine
 10
126.45945049007
 20
208.2238245694552
 30
0.0
 11
191.3531681000701
 21
208.2238245694552
 31
0.0
  0
LINE
  5
3EB
330
1A
100
AcDbEntity
  8
SEIHIN
100
AcDbLine
 10
96.87245380007011
 20
204.9517509294552
 30
0.0
 11
124.45945049007
 21
204.9517509294552
 31
0.0
  0
LINE
  5
3EC
330
1A
100
AcDbEntity
  8
SEIHIN
100
AcDbLine
 10
99.66197335007009
 20
207.0693805594552
 30
0.0
 11
121.72066047507
 21
207.0693805594552
 31
0.0
  0
LINE
  5
3ED
330
1A
100
AcDbEntity
  8
SEIHIN
100
AcDbLine
 10
96.87245380007011
 20
217.4958982094552
 30
0.0
 11
124.45945049007
 21
217.4958982094552
 31
0.0
  0
LINE
  5
3EE
330
1A
100
AcDbEntity
  8
SEIHIN
100
AcDbLine
 10
99.66197335007009
 20
215.3782686094552
 30
0.0
 11
121.72066047507
 21
215.3782686094552
 31
0.0
  0
LINE
  5
3EF
330
1A
100
AcDbEntity
  8
SEIHIN
100
AcDbLine
 10
116.0531673920701
 20
203.2238245694552
 30
0.0
 11
97.01832090007009
 21
203.2238705694552
 31
0.0
  0
LINE
  5
3F0
330
1A
100
AcDbEntity
  8
SEIHIN
100
AcDbLine
 10
97.01835957007009
 20
219.2238246094552
 30
0.0
 11
116.0531673920701
 21
219.2238246094552
 31
0.0
  0
LINE
  5
3F1
330
1A
100
AcDbEntity
  8
SEIHIN
100
AcDbLine
 10
96.87245380007011
 20
209.2992132294552
 30
0.0
 11
99.66197335007009
 21
209.2992132294552
 31
0.0
  0
LINE
  5
3F2
330
1A
100
AcDbEntity
  8
SEIHIN
100
AcDbLine
 10
96.87245380007011
 20
213.1484359094552
 30
0.0
 11
99.66197335007009
 21
213.1484359094552
 31
0.0
  0
LINE
  5
3F3
330
1A
100
AcDbEntity
  8
SEIHIN
100
AcDbLine
 10
99.66197335007009
 20
216.4958982094552
 30
0.0
 11
96.87245380007011
 21
216.4958982094552
 31
0.0
  0
LINE
  5
3F4
330
1A
100
AcDbEntity
  8
SEIHIN
100
AcDbLine
 10
99.66197335007009
 20
205.9517509294552
 30
0.0
 11
96.87245380007011
 21
205.9517509294552
 31
0.0
  0
ARC
  5
3F5
330
1A
100
AcDbEntity
  8
SEIHIN
100
AcDbCircle
 10
96.87245380007011
 20
211.2238245694552
 30
0.0
 40
3.000000000000011
100
AcDbArc
 50
90.00000515662017
 51
269.9999952253516
  0
LINE
  5
3F6
330
1A
100
AcDbEntity
  8
SEIHIN
100
AcDbLine
 10
96.87245380007011
 20
216.4958982094552
 30
0.0
 11
96.87245380007011
 21
205.9517509294552
 31
0.0
  0
ARC
  5
3F7
330
1A
100
AcDbEntity
  8
SEIHIN
100
AcDbCircle
 10
96.5860703600701
 20
203.7238245694552
 30
0.0
 40
1.0
100
AcDbArc
 50
90.0
 51
180.0
  0
LINE
  5
3F8
330
1A
100
AcDbEntity
  8
SEIHIN
100
AcDbLine
 10
95.01831633007009
 20
203.7238245694552
 30
0.0
 11
91.05316739007008
 21
203.7238245694552
 31
0.0
  0
LINE
  5
3F9
330
1A
100
AcDbEntity
  8
SEIHIN
100
AcDbLine
 10
91.05316739007008
 20
203.2238245694552
 30
0.0
 11
95.0180747100701
 21
203.2238245694552
 31
0.0
  0
LINE
  5
3FA
330
1A
100
AcDbEntity
  8
SEIHIN
100
AcDbLine
 10
91.05316739007008
 20
203.2238245694552
 30
0.0
 11
91.05316739007008
 21
203.7238245694552
 31
0.0
  0
ARC
  5
3FB
330
1A
100
AcDbEntity
  8
SEIHIN
100
AcDbCircle
 10
97.08607036007009
 20
203.2238245694552
 30
0.0
 40
0.5
100
AcDbArc
 50
90.0
 51
180.0
  0
LINE
  5
3FC
330
1A
100
AcDbEntity
  8
SEIHIN
100
AcDbLine
 10
96.5860703600701
 20
203.2238245694552
 30
0.0
 11
96.5860703600701
 21
200.2238245694552
 31
0.0
  0
LINE
  5
3FD
330
1A
100
AcDbEntity
  8
SEIHIN
100
AcDbLine
 10
95.58607036007009
 20
200.2238245694552
 30
0.0
 11
95.58607036007009
 21
203.7238245694552
 31
0.0
  0
LINE
  5
3FE
330
1A
100
AcDbEntity
  8
SEIHIN
100
AcDbLine
 10
96.5860703600701
 20
200.2238245694552
 30
0.0
 11
95.58607036007009
 21
200.2238245694552
 31
0.0
  0
LINE
  5
3FF
330
1A
100
AcDbEntity
  8
SEIHIN
100
AcDbLine
 10
97.01832090007009
 20
203.2238705694552
 30
0.0
 11
97.01832211007008
 21
203.7238245694552
 31
0.0
  0
LINE
  5
400
330
1A
100
AcDbEntity
  8
SEIHIN
100
AcDbLine
 10
95.0183151500701
 20
203.2238245694552
 30
0.0
 11
95.01831633007009
 21
203.7238245694552
 31
0.0
  0
LINE
  5
401
330
1A
100
AcDbEntity
  8
SEIHIN
100
AcDbLine
 10
96.87245380007011
 20
205.9517509294552
 30
0.0
 11
96.87245380007011
 21
204.9517509294552
 31
0.0
  0
LINE
  5
402
330
1A
100
AcDbEntity
  8
SEIHIN
100
AcDbLine
 10
95.0183517000701
 20
218.7238246094552
 30
0.0
 11
91.05316739007008
 21
218.7238246094552
 31
0.0
  0
LINE
  5
403
330
1A
100
AcDbEntity
  8
SEIHIN
100
AcDbLine
 10
91.05316739007008
 20
219.2238246094552
 30
0.0
 11
95.0180747100701
 21
219.2238246094552
 31
0.0
  0
LINE
  5
404
330
1A
100
AcDbEntity
  8
SEIHIN
100
AcDbLine
 10
91.05316739007008
 20
218.7238246094552
 30
0.0
 11
91.05316739007008
 21
219.2238246094552
 31
0.0
  0
ARC
  5
405
330
1A
100
AcDbEntity
  8
SEIHIN
100
AcDbCircle
 10
96.5860703600701
 20
218.7238246094552
 30
0.0
 40
1.0
100
AcDbArc
 50
180.0
 51
270.0
  0
LINE
  5
406
330
1A
100
AcDbEntity
  8
SEIHIN
100
AcDbLine
 10
97.0183583600701
 20
218.7238246094552
 30
0.0
 11
97.01835957007009
 21
219.2238246094552
 31
0.0
  0
LINE
  5
407
330
1A
100
AcDbEntity
  8
SEIHIN
100
AcDbLine
 10
95.0183517000701
 20
218.7238246094552
 30
0.0
 11
95.0183528800701
 21
219.2238246094552
 31
0.0
  0
LINE
  5
408
330
1A
100
AcDbEntity
  8
SEIHIN
100
AcDbLine
 10
96.87245380007011
 20
216.4958982094552
 30
0.0
 11
96.87245380007011
 21
217.4958982094552
 31
0.0
  0
ARC
  5
409
330
1A
100
AcDbEntity
  8
SEIHIN
100
AcDbCircle
 10
97.08607036007009
 20
219.2238246094552
 30
0.0
 40
0.5
100
AcDbArc
 50
180.0
 51
270.0
  0
LINE
  5
40A
330
1A
100
AcDbEntity
  8
SEIHIN
100
AcDbLine
 10
99.66197335007009
 20
204.9517509294552
 30
0.0
 11
99.66197335007009
 21
217.4958982094552
 31
0.0
  0
ARC
  5
40B
330
1A
100
AcDbEntity
  8
SEIHIN
100
AcDbCircle
 10
106.0534085200701
 20
207.7421540694552
 30
0.0
 40
5.715337531631893
100
AcDbArc
 50
232.2375418744897
 51
307.7621812247566
  0
LINE
  5
40C
330
1A
100
AcDbEntity
  8
SEIHIN
100
AcDbLine
 10
99.66197335007009
 20
204.9517509294552
 30
0.0
 11
99.66197335007009
 21
206.1517509294552
 31
0.0
  0
LINE
  5
40D
330
1A
100
AcDbEntity
  8
SEIHIN
100
AcDbLine
 10
102.55339760007
 20
219.2238246094552
 30
0.0
 11
109.5533976000701
 21
219.2238246094552
 31
0.0
  0
LINE
  5
40E
330
1A
100
AcDbEntity
  8
SEIHIN
100
AcDbLine
 10
109.5533976000701
 20
220.2882630094552
 30
0.0
 11
102.55339760007
 21
220.2882630094552
 31
0.0
  0
LINE
  5
40F
330
1A
100
AcDbEntity
  8
SEIHIN
100
AcDbLine
 10
99.66197335007009
 20
217.4958982094552
 30
0.0
 11
99.66197335007009
 21
216.2958982094552
 31
0.0
  0
LINE
  5
410
330
1A
100
AcDbEntity
  8
SEIHIN
100
AcDbLine
 10
102.55339760007
 20
220.2882630094552
 30
0.0
 11
102.55339760007
 21
219.2238246094552
 31
0.0
  0
LINE
  5
411
330
1A
100
AcDbEntity
  8
SEIHIN
100
AcDbLine
 10
109.5533976000701
 20
219.2238246094552
 30
0.0
 11
109.5533976000701
 21
220.2882630094552
 31
0.0
  0
LINE
  5
412
330
1A
100
AcDbEntity
  8
SEIHIN
100
AcDbLine
 10
119.9975101145701
 20
208.0693805594552
 30
0.0
 11
119.9975101145701
 21
214.3782685794552
 31
0.0
  0
LINE
  5
413
330
1A
100
AcDbEntity
  8
SEIHIN
100
AcDbLine
 10
115.15558987907
 20
208.0693805594552
 30
0.0
 11
115.15558987907
 21
214.3782685794552
 31
0.0
  0
LINE
  5
414
330
1A
100
AcDbEntity
  8
SEIHIN
100
AcDbLine
 10
123.72066047507
 20
213.3782685794552
 30
0.0
 11
123.72066047507
 21
209.0693805594552
 31
0.0
  0
LINE
  5
415
330
1A
100
AcDbEntity
  8
SEIHIN
100
AcDbLine
 10
126.45945049007
 20
206.9517509294552
 30
0.0
 11
126.45945049007
 21
215.4958982094552
 31
0.0
  0
LINE
  5
416
330
1A
100
AcDbEntity
  8
SEIHIN
100
AcDbLine
 10
125.31188478307
 20
206.9517509294552
 30
0.0
 11
125.31188478307
 21
215.4958982094552
 31
0.0
  0
LINE
  5
417
330
1A
100
AcDbEntity
  8
SEIHIN
100
AcDbLine
 10
116.0531673920701
 20
203.2238245694552
 30
0.0
 11
116.0531673920701
 21
203.7238245694552
 31
0.0
  0
ARC
  5
418
330
1A
100
AcDbEntity
  8
SEIHIN
100
AcDbCircle
 10
123.31188478307
 20
206.9517509294552
 30
0.0
 40
2.0
100
AcDbArc
 50
270.0
 51
0.0
  0
ARC
  5
419
330
1A
100
AcDbEntity
  8
SEIHIN
100
AcDbCircle
 10
124.45945049007
 20
206.9517509294552
 30
0.0
 40
2.0
100
AcDbArc
 50
270.0
 51
0.0
  0
ARC
  5
41A
330
1A
100
AcDbEntity
  8
SEIHIN
100
AcDbCircle
 10
124.45945049007
 20
206.9517509294552
 30
0.0
 40
2.0
100
AcDbArc
 50
270.0
 51
0.0
  0
ARC
  5
41B
330
1A
100
AcDbEntity
  8
SEIHIN
100
AcDbCircle
 10
121.72066047507
 20
209.0693805594552
 30
0.0
 40
2.0
100
AcDbArc
 50
270.0
 51
0.0
  0
LINE
  5
41C
330
1A
100
AcDbEntity
  8
SEIHIN
100
AcDbLine
 10
116.0531673920701
 20
218.7238246094552
 30
0.0
 11
116.0531673920701
 21
219.2238246094552
 31
0.0
  0
ARC
  5
41D
330
1A
100
AcDbEntity
  8
SEIHIN
100
AcDbCircle
 10
123.31188478307
 20
215.4958982094552
 30
0.0
 40
2.0
100
AcDbArc
 50
0.0
 51
90.0
  0
ARC
  5
41E
330
1A
100
AcDbEntity
  8
SEIHIN
100
AcDbCircle
 10
124.45945049007
 20
215.4958982094552
 30
0.0
 40
2.0
100
AcDbArc
 50
0.0
 51
90.0
  0
ARC
  5
41F
330
1A
100
AcDbEntity
  8
SEIHIN
100
AcDbCircle
 10
124.45945049007
 20
215.4958982094552
 30
0.0
 40
2.0
100
AcDbArc
 50
0.0
 51
90.0
  0
ARC
  5
420
330
1A
100
AcDbEntity
  8
SEIHIN
100
AcDbCircle
 10
121.72066047507
 20
213.3782685794552
 30
0.0
 40
2.000000014999997
100
AcDbArc
 50
0.0
 51
90.0
  0
LINE
  5
425
330
1A
100
AcDbEntity
  8
SEIHIN
100
AcDbLine
 10
194.65316739007
 20
184.7238245694552
 30
0.0
 11
194.65316739007
 21
201.4007729794552
 31
0.0
  0
LINE
  5
426
330
1A
100
AcDbEntity
  8
SEIHIN
100
AcDbLine
 10
195.8531673900701
 20
201.4007729794552
 30
0.0
 11
195.8531673900701
 21
184.7238245694552
 31
0.0
  0
LINE
  5
427
330
1A
100
AcDbEntity
  8
SEIHIN
100
AcDbLine
 10
195.8531673900701
 20
184.7238245694552
 30
0.0
 11
194.65316739007
 21
184.7238245694552
 31
0.0
  0
ARC
  5
428
330
1A
100
AcDbEntity
  8
SEIHIN
100
AcDbCircle
 10
191.35316778007
 20
211.2238245694552
 30
0.0
 40
3.000000000000029
100
AcDbArc
 50
270.0000061115495
 51
90.00000954929655
  0
LINE
  5
429
330
1A
100
AcDbEntity
  8
SEIHIN
100
AcDbLine
 10
190.58722880007
 20
219.9758544094552
 30
0.0
 11
194.2313846200701
 21
220.5530320094552
 31
0.0
  0
LINE
  5
42A
330
1A
100
AcDbEntity
  8
SEIHIN
100
AcDbLine
 10
190.58722880007
 20
202.4717947294552
 30
0.0
 11
194.2313846200701
 21
201.8946171494552
 31
0.0
  0
LINE
  5
42B
330
1A
100
AcDbEntity
  8
SEIHIN
100
AcDbLine
 10
190.77495016007
 20
203.6570207394552
 30
0.0
 11
194.4191059800701
 21
203.0798431594552
 31
0.0
  0
LINE
  5
42C
330
1A
100
AcDbEntity
  8
SEIHIN
100
AcDbLine
 10
190.77495016007
 20
218.7906284094552
 30
0.0
 11
194.4191059800701
 21
219.3678060094552
 31
0.0
  0
ARC
  5
42D
330
1A
100
AcDbEntity
  8
SEIHIN
100
AcDbCircle
 10
190.85316739007
 20
204.1508649094552
 30
0.0
 40
0.499999998318523
100
AcDbArc
 50
238.6583206989034
 51
261.0000002798936
  0
ARC
  5
42E
330
1A
100
AcDbEntity
  8
SEIHIN
100
AcDbCircle
 10
190.85316739007
 20
204.1508649094552
 30
0.0
 40
1.700000000774792
100
AcDbArc
 50
194.5485451942508
 51
261.0000000241316
  0
LINE
  5
42F
330
1A
100
AcDbEntity
  8
SEIHIN
100
AcDbLine
 10
191.3531673900701
 20
208.2238245694552
 30
0.0
 11
191.3531673900701
 21
204.7238245694552
 31
0.0
  0
LINE
  5
430
330
1A
100
AcDbEntity
  8
SEIHIN
100
AcDbLine
 10
191.7531673900701
 20
207.0530084294552
 30
0.0
 11
191.7531673900701
 21
208.2506107694552
 31
0.0
  0
ARC
  5
431
330
1A
100
AcDbEntity
  8
SEIHIN
100
AcDbCircle
 10
190.7531673900701
 20
207.0530084294552
 30
0.0
 40
0.9999999999999971
100
AcDbArc
 50
306.8698976458435
 51
0.0
  0
ARC
  5
432
330
1A
100
AcDbEntity
  8
SEIHIN
100
AcDbCircle
 10
190.7531673900701
 20
215.3946407094552
 30
0.0
 40
0.9999999999999971
100
AcDbArc
 50
0.0
 51
53.13010235415639
  0
LINE
  5
433
330
1A
100
AcDbEntity
  8
SEIHIN
100
AcDbLine
 10
191.3531673900701
 20
214.2238245694552
 30
0.0
 11
191.3531673900701
 21
217.7238246094552
 31
0.0
  0
LINE
  5
434
330
1A
100
AcDbEntity
  8
SEIHIN
100
AcDbLine
 10
191.7531673900701
 20
215.3946407094552
 30
0.0
 11
191.7531673900701
 21
214.1970383694552
 31
0.0
  0
ARC
  5
435
330
1A
100
AcDbEntity
  8
SEIHIN
100
AcDbCircle
 10
190.85316739007
 20
218.2967842094552
 30
0.0
 40
1.700000018187683
100
AcDbArc
 50
98.99999987042138
 51
165.4514528483868
  0
ARC
  5
436
330
1A
100
AcDbEntity
  8
SEIHIN
100
AcDbCircle
 10
190.85316739007
 20
218.2967842094552
 30
0.0
 40
0.5000000387562692
100
AcDbArc
 50
98.99999918232442
 51
121.3416757248727
  0
LINE
  5
437
330
1A
100
AcDbEntity
  8
SEIHIN
100
AcDbLine
 10
195.35316739007
 20
203.7238245694552
 30
0.0
 11
195.35316739007
 21
204.7238245694552
 31
0.0
  0
ARC
  5
438
330
1A
100
AcDbEntity
  8
SEIHIN
100
AcDbCircle
 10
194.1531673900701
 20
201.4007729794552
 30
0.0
 40
1.700000000443591
100
AcDbArc
 50
0.0
 51
81.00000002413159
  0
ARC
  5
439
330
1A
100
AcDbEntity
  8
SEIHIN
100
AcDbCircle
 10
194.1531673900701
 20
201.4007729794552
 30
0.0
 40
0.4999999996559329
100
AcDbArc
 50
0.0
 51
81.00000027989365
  0
LINE
  5
43A
330
1A
100
AcDbEntity
  8
SEIHIN
100
AcDbLine
 10
194.65316739007
 20
199.8028830694552
 30
0.0
 11
192.6531673900701
 21
202.1445822094552
 31
0.0
  0
ARC
  5
43B
330
1A
100
AcDbEntity
  8
SEIHIN
100
AcDbCircle
 10
194.1531673900701
 20
221.0468761094552
 30
0.0
 40
1.699999960936061
100
AcDbArc
 50
279.0000003976588
 51
0.0
  0
LINE
  5
43C
330
1A
100
AcDbEntity
  8
SEIHIN
100
AcDbLine
 10
195.35316739007
 20
218.7238246094552
 30
0.0
 11
195.35316739007
 21
217.7238246094552
 31
0.0
  0
ARC
  5
43D
330
1A
100
AcDbEntity
  8
SEIHIN
100
AcDbCircle
 10
194.1531673900701
 20
221.0468761094552
 30
0.0
 40
0.4999999650868415
100
AcDbArc
 50
279.0000009749314
 51
0.0
  0
LINE
  5
43E
330
1A
100
AcDbEntity
  8
SEIHIN
100
AcDbLine
 10
96.5860703600701
 20
222.2238246094552
 30
0.0
 11
95.58607036007009
 21
222.2238246094552
 31
0.0
  0
LINE
  5
43F
330
1A
100
AcDbEntity
  8
SEIHIN
100
AcDbLine
 10
195.8531673900701
 20
237.7238246094552
 30
0.0
 11
194.65316739007
 21
237.7238246094552
 31
0.0
  0
LINE
  5
440
330
1A
100
AcDbEntity
  8
SEIHIN
100
AcDbLine
 10
313.27910825007
 20
94.20364793224974
 30
0.0
 11
313.27910825007
 21
141.2903461122497
 31
0.0
  0
LINE
  5
441
330
1A
100
AcDbEntity
  8
SEIHIN
100
AcDbLine
 10
328.27910825007
 20
94.20364793224974
 30
0.0
 11
328.27910825007
 21
141.2903461122497
 31
0.0
  0
LINE
  5
442
330
1A
100
AcDbEntity
  8
SEIHIN
100
AcDbLine
 10
314.27910825007
 20
94.20364793224974
 30
0.0
 11
314.27910825007
 21
141.2903461122497
 31
0.0
  0
LINE
  5
443
330
1A
100
AcDbEntity
  8
SEIHIN
100
AcDbLine
 10
327.27910825007
 20
94.20364793224974
 30
0.0
 11
327.27910825007
 21
141.2903461122497
 31
0.0
  0
LINE
  5
449
330
1A
100
AcDbEntity
  8
SEIHIN
100
AcDbLine
 10
323.77910825007
 20
136.2761262622497
 30
0.0
 11
323.77910825007
 21
111.3214238932497
 31
0.0
  0
LINE
  5
44A
330
1A
100
AcDbEntity
  8
SEIHIN
100
AcDbLine
 10
317.77910825007
 20
136.2761262222497
 30
0.0
 11
317.77910825007
 21
111.3214238932497
 31
0.0
  0
ARC
  5
44B
330
1A
100
AcDbEntity
  8
SEIHIN
100
AcDbCircle
 10
320.77910825007
 20
107.2903461122497
 30
0.0
 40
5.024896822470276
100
AcDbArc
 50
126.6572807698119
 51
53.34271923018806
  0
LINE
  5
44C
330
1A
100
AcDbEntity
  8
SEIHIN
100
AcDbLine
 10
345.27910825007
 20
89.29034611224972
 30
0.0
 11
296.27910825007
 21
89.29034611224972
 31
0.0
  0
LINE
  5
44D
330
1A
100
AcDbEntity
  8
SEIHIN
100
AcDbLine
 10
325.27910825007
 20
92.20364793224973
 30
0.0
 11
316.27910825007
 21
92.20364793224973
 31
0.0
  0
ARC
  5
457
330
1A
100
AcDbEntity
  8
SEIHIN
100
AcDbCircle
 10
296.27910825007
 20
91.29034611224971
 30
0.0
 40
2.0
100
AcDbArc
 50
180.0
 51
270.0
  0
ARC
  5
458
330
1A
100
AcDbEntity
  8
SEIHIN
100
AcDbCircle
 10
296.27910825007
 20
123.2903461122497
 30
0.0
 40
2.0
100
AcDbArc
 50
90.0
 51
180.0
  0
LINE
  5
459
330
1A
100
AcDbEntity
  8
SEIHIN
100
AcDbLine
 10
313.27910825007
 20
115.7903461122497
 30
0.0
 11
313.27910825007
 21
98.79034611224973
 31
0.0
  0
LINE
  5
45A
330
1A
100
AcDbEntity
  8
SEIHIN
100
AcDbLine
 10
294.27910825007
 20
123.2903461122497
 30
0.0
 11
294.27910825007
 21
91.29034611224971
 31
0.0
  0
CIRCLE
  5
45B
330
1A
100
AcDbEntity
  8
SEIHIN
100
AcDbCircle
 10
320.77910825007
 20
107.2903461122497
 30
0.0
 40
2.999999969510066
  0
LINE
  5
45C
330
1A
100
AcDbEntity
  8
SEIHIN
100
AcDbLine
 10
312.40799385007
 20
115.7903461122497
 30
0.0
 11
312.40799385007
 21
98.79034611224973
 31
0.0
  0
CIRCLE
  5
45E
330
1A
100
AcDbEntity
  8
SEIHIN
100
AcDbCircle
 10
299.77910825007
 20
94.79034611224973
 30
0.0
 40
2.099999986565482
  0
LINE
  5
45F
330
1A
100
AcDbEntity
  8
SEIHIN
100
AcDbLine
 10
313.27910825007
 20
95.79034611224972
 30
0.0
 11
313.27910825007
 21
89.29034611224972
 31
0.0
  0
LINE
  5
460
330
1A
100
AcDbEntity
  8
SEIHIN
100
AcDbLine
 10
312.40799385007
 20
95.79034611224972
 30
0.0
 11
312.40799385007
 21
89.29034611224972
 31
0.0
  0
ARC
  5
461
330
1A
100
AcDbEntity
  8
SEIHIN
100
AcDbCircle
 10
316.27910825007
 20
94.20364793224974
 30
0.0
 40
2.0
100
AcDbArc
 50
180.0
 51
270.0
  0
LINE
  5
462
330
1A
100
AcDbEntity
  8
SEIHIN
100
AcDbLine
 10
309.80087015007
 20
95.79034611224972
 30
0.0
 11
314.27910825007
 21
95.79034611224972
 31
0.0
  0
LINE
  5
463
330
1A
100
AcDbEntity
  8
SEIHIN
100
AcDbLine
 10
309.80087015007
 20
98.79034611224973
 30
0.0
 11
313.27910825007
 21
98.79034611224973
 31
0.0
  0
LINE
  5
464
330
1A
100
AcDbEntity
  8
SEIHIN
100
AcDbLine
 10
309.80087015007
 20
98.79034611224973
 30
0.0
 11
309.80087015007
 21
95.79034611224972
 31
0.0
  0
LINE
  5
465
330
1A
100
AcDbEntity
  8
SEIHIN
100
AcDbLine
 10
313.27910825007
 20
98.79034611224973
 30
0.0
 11
313.27910825007
 21
95.79034611224972
 31
0.0
  0
LINE
  5
466
330
1A
100
AcDbEntity
  8
SEIHIN
100
AcDbLine
 10
313.27910825007
 20
125.2903461122497
 30
0.0
 11
296.27910825007
 21
125.2903461122497
 31
0.0
  0
CIRCLE
  5
467
330
1A
100
AcDbEntity
  8
SEIHIN
100
AcDbCircle
 10
301.27910825007
 20
111.2903461122497
 30
0.0
 40
3.249999972626075
  0
CIRCLE
  5
468
330
1A
100
AcDbEntity
  8
SEIHIN
100
AcDbCircle
 10
299.77910825007
 20
119.7903461122497
 30
0.0
 40
2.099999971727392
  0
LINE
  5
469
330
1A
100
AcDbEntity
  8
SEIHIN
100
AcDbLine
 10
313.27910825007
 20
118.7903461122497
 30
0.0
 11
313.27910825007
 21
115.7903461122497
 31
0.0
  0
LINE
  5
46A
330
1A
100
AcDbEntity
  8
SEIHIN
100
AcDbLine
 10
309.80087015007
 20
118.7903461122497
 30
0.0
 11
309.80087015007
 21
115.7903461122497
 31
0.0
  0
LINE
  5
46B
330
1A
100
AcDbEntity
  8
SEIHIN
100
AcDbLine
 10
313.27910825007
 20
115.7903461122497
 30
0.0
 11
309.80087015007
 21
115.7903461122497
 31
0.0
  0
LINE
  5
46C
330
1A
100
AcDbEntity
  8
SEIHIN
100
AcDbLine
 10
313.27910825007
 20
125.2903461122497
 30
0.0
 11
313.27910825007
 21
118.7903461122497
 31
0.0
  0
LINE
  5
46D
330
1A
100
AcDbEntity
  8
SEIHIN
100
AcDbLine
 10
312.40799385007
 20
125.2903461122497
 30
0.0
 11
312.40799385007
 21
118.7903461122497
 31
0.0
  0
LINE
  5
46E
330
1A
100
AcDbEntity
  8
SEIHIN
100
AcDbLine
 10
313.27910825007
 20
118.7903461122497
 30
0.0
 11
309.80087015007
 21
118.7903461122497
 31
0.0
  0
LINE
  5
470
330
1A
100
AcDbEntity
  8
SEIHIN
100
AcDbLine
 10
347.27910825007
 20
123.2903461122497
 30
0.0
 11
347.27910825007
 21
91.29034611224971
 31
0.0
  0
LINE
  5
471
330
1A
100
AcDbEntity
  8
SEIHIN
100
AcDbLine
 10
328.27910825007
 20
115.7903461122497
 30
0.0
 11
328.27910825007
 21
98.79034611224973
 31
0.0
  0
LINE
  5
472
330
1A
100
AcDbEntity
  8
SEIHIN
100
AcDbLine
 10
329.15022265007
 20
115.7903461122497
 30
0.0
 11
329.15022265007
 21
98.79034611224973
 31
0.0
  0
LINE
  5
473
330
1A
100
AcDbEntity
  8
SEIHIN
100
AcDbLine
 10
329.15022265007
 20
95.79034611224972
 30
0.0
 11
329.15022265007
 21
89.29034611224972
 31
0.0
  0
LINE
  5
474
330
1A
100
AcDbEntity
  8
SEIHIN
100
AcDbLine
 10
328.27910825007
 20
95.79034611224972
 30
0.0
 11
328.27910825007
 21
89.29034611224972
 31
0.0
  0
ARC
  5
475
330
1A
100
AcDbEntity
  8
SEIHIN
100
AcDbCircle
 10
325.27910825007
 20
94.20364793224974
 30
0.0
 40
2.0
100
AcDbArc
 50
270.0
 51
0.0
  0
LINE
  5
476
330
1A
100
AcDbEntity
  8
SEIHIN
100
AcDbLine
 10
331.75734635007
 20
98.79034611224973
 30
0.0
 11
328.27910825007
 21
98.79034611224973
 31
0.0
  0
LINE
  5
477
330
1A
100
AcDbEntity
  8
SEIHIN
100
AcDbLine
 10
331.75734635007
 20
95.79034611224972
 30
0.0
 11
327.27910825007
 21
95.79034611224972
 31
0.0
  0
LINE
  5
478
330
1A
100
AcDbEntity
  8
SEIHIN
100
AcDbLine
 10
328.27910825007
 20
98.79034611224973
 30
0.0
 11
328.27910825007
 21
95.79034611224972
 31
0.0
  0
LINE
  5
479
330
1A
100
AcDbEntity
  8
SEIHIN
100
AcDbLine
 10
331.75734635007
 20
98.79034611224973
 30
0.0
 11
331.75734635007
 21
95.79034611224972
 31
0.0
  0
CIRCLE
  5
47A
330
1A
100
AcDbEntity
  8
SEIHIN
100
AcDbCircle
 10
341.77910825007
 20
94.79034611224973
 30
0.0
 40
2.099999986565493
  0
ARC
  5
47B
330
1A
100
AcDbEntity
  8
SEIHIN
100
AcDbCircle
 10
345.27910825007
 20
91.29034611224971
 30
0.0
 40
2.0
100
AcDbArc
 50
270.0
 51
0.0
  0
CIRCLE
  5
47C
330
1A
100
AcDbEntity
  8
SEIHIN
100
AcDbCircle
 10
340.27910825007
 20
111.2903461122497
 30
0.0
 40
3.249999972626095
  0
LINE
  5
47D
330
1A
100
AcDbEntity
  8
SEIHIN
100
AcDbLine
 10
328.27910825007
 20
125.2903461122497
 30
0.0
 11
345.27910825007
 21
125.2903461122497
 31
0.0
  0
LINE
  5
47E
330
1A
100
AcDbEntity
  8
SEIHIN
100
AcDbLine
 10
328.27910825007
 20
118.7903461122497
 30
0.0
 11
328.27910825007
 21
115.7903461122497
 31
0.0
  0
LINE
  5
47F
330
1A
100
AcDbEntity
  8
SEIHIN
100
AcDbLine
 10
331.75734635007
 20
118.7903461122497
 30
0.0
 11
331.75734635007
 21
115.7903461122497
 31
0.0
  0
LINE
  5
480
330
1A
100
AcDbEntity
  8
SEIHIN
100
AcDbLine
 10
328.27910825007
 20
115.7903461122497
 30
0.0
 11
331.75734635007
 21
115.7903461122497
 31
0.0
  0
LINE
  5
481
330
1A
100
AcDbEntity
  8
SEIHIN
100
AcDbLine
 10
328.27910825007
 20
118.7903461122497
 30
0.0
 11
331.75734635007
 21
118.7903461122497
 31
0.0
  0
LINE
  5
482
330
1A
100
AcDbEntity
  8
SEIHIN
100
AcDbLine
 10
328.27910825007
 20
125.2903461122497
 30
0.0
 11
328.27910825007
 21
118.7903461122497
 31
0.0
  0
LINE
  5
483
330
1A
100
AcDbEntity
  8
SEIHIN
100
AcDbLine
 10
329.15022265007
 20
125.2903461122497
 30
0.0
 11
329.15022265007
 21
118.7903461122497
 31
0.0
  0
ARC
  5
484
330
1A
100
AcDbEntity
  8
SEIHIN
100
AcDbCircle
 10
345.27910825007
 20
123.2903461122497
 30
0.0
 40
2.0
100
AcDbArc
 50
0.0
 51
90.0
  0
CIRCLE
  5
485
330
1A
100
AcDbEntity
  8
SEIHIN
100
AcDbCircle
 10
341.77910825007
 20
119.7903461122497
 30
0.0
 40
2.099999971727392
  0
LINE
  5
486
330
1A
100
AcDbEntity
  8
SEIHIN
100
AcDbLine
 10
323.77910825007
 20
136.2761259022497
 30
0.0
 11
327.27910825007
 21
136.2761259022497
 31
0.0
  0
ARC
  5
488
330
1A
100
AcDbEntity
  8
SEIHIN
100
AcDbCircle
 10
320.77910825007
 20
136.2761259022497
 30
0.0
 40
3.000000000000019
100
AcDbArc
 50
0.0000068754932962
 51
179.99999388845
  0
LINE
  5
489
330
1A
100
AcDbEntity
  8
SEIHIN
100
AcDbLine
 10
314.27910825007
 20
136.2761259022497
 30
0.0
 11
317.77910825007
 21
136.2761259022497
 31
0.0
  0
LINE
  5
48A
330
1A
100
AcDbEntity
  8
SEIHIN
100
AcDbLine
 10
313.27910825007
 20
141.2903461122497
 30
0.0
 11
314.27910825007
 21
141.2903461122497
 31
0.0
  0
LINE
  5
48B
330
1A
100
AcDbEntity
  8
SEIHIN
100
AcDbLine
 10
327.27910825007
 20
141.2903461122497
 30
0.0
 11
328.27910825007
 21
141.2903461122497
 31
0.0
  0
LINE
  5
6E2
330
1A
100
AcDbEntity
  8
CENTER_L
100
AcDbLine
 10
301.27910825007
 20
104.0403461396236
 30
0.0
 11
301.27910825007
 21
118.5403460848758
 31
0.0
  0
LINE
  5
6E3
330
1A
100
AcDbEntity
  8
CENTER_L
100
AcDbLine
 10
308.5291082226961
 20
111.2903461122497
 30
0.0
 11
294.0291082774439
 21
111.2903461122497
 31
0.0
  0
LINE
  5
6E5
330
1A
100
AcDbEntity
  8
CENTER_L
100
AcDbLine
 10
305.8791082217974
 20
119.7903461122497
 30
0.0
 11
293.6791082783426
 21
119.7903461122497
 31
0.0
  0
LINE
  5
6E6
330
1A
100
AcDbEntity
  8
CENTER_L
100
AcDbLine
 10
299.77910825007
 20
113.6903461405223
 30
0.0
 11
299.77910825007
 21
125.8903460839771
 31
0.0
  0
LINE
  5
6EA
330
1A
100
AcDbEntity
  8
CENTER_L
100
AcDbLine
 10
305.8791082217974
 20
94.79034611224973
 30
0.0
 11
293.6791082783426
 21
94.79034611224973
 31
0.0
  0
LINE
  5
6EB
330
1A
100
AcDbEntity
  8
CENTER_L
100
AcDbLine
 10
299.77910825007
 20
88.69034614052234
 30
0.0
 11
299.77910825007
 21
100.8903460839771
 31
0.0
  0
LINE
  5
6EC
330
1A
100
AcDbEntity
  8
CENTER_L
100
AcDbLine
 10
347.8791082217974
 20
119.7903461122497
 30
0.0
 11
335.6791082783426
 21
119.7903461122497
 31
0.0
  0
LINE
  5
6ED
330
1A
100
AcDbEntity
  8
CENTER_L
100
AcDbLine
 10
341.77910825007
 20
113.6903461405223
 30
0.0
 11
341.77910825007
 21
125.8903460839771
 31
0.0
  0
LINE
  5
6EE
330
1A
100
AcDbEntity
  8
CENTER_L
100
AcDbLine
 10
341.77910825007
 20
88.69034614052234
 30
0.0
 11
341.77910825007
 21
100.8903460839771
 31
0.0
  0
LINE
  5
6EF
330
1A
100
AcDbEntity
  8
CENTER_L
100
AcDbLine
 10
347.8791082217974
 20
94.79034611224973
 30
0.0
 11
335.6791082783426
 21
94.79034611224973
 31
0.0
  0
LINE
  5
6F0
330
1A
100
AcDbEntity
  8
CENTER_L
100
AcDbLine
 10
347.5291082226961
 20
111.2903461122497
 30
0.0
 11
333.029108277444
 21
111.2903461122497
 31
0.0
  0
LINE
  5
6F1
330
1A
100
AcDbEntity
  8
CENTER_L
100
AcDbLine
 10
340.27910825007
 20
104.0403461396236
 30
0.0
 11
340.27910825007
 21
118.5403460848758
 31
0.0
  0
LINE
  5
6F2
330
1A
100
AcDbEntity
  8
CENTER_L
100
AcDbLine
 10
320.77910825007
 20
148.2903461122497
 30
0.0
 11
320.77910825007
 21
82.29034611224973
 31
0.0
  0
LINE
  5
6F5
330
1A
100
AcDbEntity
  8
CENTER_L
100
AcDbLine
 10
234.19295087007
 20
120.2903461122497
 30
0.0
 11
218.99295087007
 21
120.2903461122497
 31
0.0
  0
LINE
  5
6F6
330
1A
100
AcDbEntity
  8
CENTER_L
100
AcDbLine
 10
234.19295087007
 20
111.7903461122497
 30
0.0
 11
218.99295087007
 21
111.7903461122497
 31
0.0
  0
LINE
  5
6F7
330
1A
100
AcDbEntity
  8
CENTER_L
100
AcDbLine
 10
234.19295087007
 20
95.29034611224972
 30
0.0
 11
218.99295087007
 21
95.29034611224972
 31
0.0
  0
LINE
  5
6F8
330
1A
100
AcDbEntity
  8
CENTER_L
100
AcDbLine
 10
199.19295087007
 20
95.29034611224972
 30
0.0
 11
183.99295087007
 21
95.29034611224973
 31
0.0
  0
LINE
  5
6F9
330
1A
100
AcDbEntity
  8
CENTER_L
100
AcDbLine
 10
199.19295087007
 20
111.7903461122497
 30
0.0
 11
183.9929508700701
 21
111.7903461122497
 31
0.0
  0
LINE
  5
6FA
330
1A
100
AcDbEntity
  8
CENTER_L
100
AcDbLine
 10
199.19295087007
 20
120.2903461122497
 30
0.0
 11
183.99295087007
 21
120.2903461122497
 31
0.0
  0
LINE
  5
6FB
330
1A
100
AcDbEntity
  8
CENTER_L
100
AcDbLine
 10
55.5497008700701
 20
211.2238245894552
 30
0.0
 11
202.8531673900701
 21
211.2238245894552
 31
0.0
  0
LINE
  5
6FF
330
1A
100
AcDbEntity
  8
CENTER_L
100
AcDbLine
 10
187.6531673900701
 20
232.2238245894552
 30
0.0
 11
202.8531673900701
 21
232.2238245894552
 31
0.0
  0
LINE
  5
700
330
1A
100
AcDbEntity
  8
CENTER_L
100
AcDbLine
 10
187.6531673900701
 20
190.2238245894552
 30
0.0
 11
202.8531673900701
 21
190.2238245894552
 31
0.0
  0
LINE
  5
701
330
1A
100
AcDbEntity
  8
CENTER_L
100
AcDbLine
 10
187.6531673900701
 20
191.7238245894552
 30
0.0
 11
202.8531673900701
 21
191.7238245894552
 31
0.0
  0
LINE
  5
702
330
1A
100
AcDbEntity
  8
CENTER_L
100
AcDbLine
 10
187.6531673900701
 20
230.7238245894552
 30
0.0
 11
202.8531673900701
 21
230.7238245894552
 31
0.0
  0
LINE
  5
70A
330
1A
100
AcDbEntity
  8
SEIHIN
100
AcDbLine
 10
191.6531673900701
 20
117.2903461122497
 30
0.0
 11
194.65316739007
 21
120.2903461122497
 31
0.0
  0
LINE
  5
70B
330
1A
100
AcDbEntity
  8
SEIHIN
100
AcDbLine
 10
191.6531673900701
 20
117.2903461122497
 30
0.0
 11
194.65316739007
 21
114.2903461122497
 31
0.0
  0
LINE
  5
70C
330
1A
100
AcDbEntity
  8
SEIHIN
100
AcDbLine
 10
191.6531673900701
 20
117.2903461122497
 30
0.0
 11
194.65316739007
 21
117.2903461122497
 31
0.0
  0
LINE
  5
70D
330
1A
100
AcDbEntity
  8
SEIHIN
100
AcDbLine
 10
191.6531673900701
 20
97.29034611224973
 30
0.0
 11
194.65316739007
 21
94.29034611224972
 31
0.0
  0
LINE
  5
70E
330
1A
100
AcDbEntity
  8
SEIHIN
100
AcDbLine
 10
191.6531673900701
 20
97.29034611224973
 30
0.0
 11
194.65316739007
 21
97.29034611224973
 31
0.0
  0
LINE
  5
70F
330
1A
100
AcDbEntity
  8
SEIHIN
100
AcDbLine
 10
191.6531673900701
 20
97.29034611224973
 30
0.0
 11
194.65316739007
 21
100.2903461122497
 31
0.0
  0
DIMENSION
  5
748
330
1A
100
AcDbEntity
  8
SUNPOU
100
AcDbDimension
  2
*D1
 10
340.27910825007
 20
159.9026027888511
 30
0.0
 11
320.77910825007
 21
162.4026027888511
 31
0.0
 70
    32
  3
STANDARD
100
AcDbAlignedDimension
 13
301.27910825007
 23
118.3206523069776
 33
0.0
 14
340.27910825007
 24
118.3206523069776
 34
0.0
100
AcDbRotatedDimension
1001
ACAD
1000
DSTYLE
1002
{
1070
    41
1040
3.0
1070
    42
1040
3.0
1070
    43
1040
7.0
1070
    44
1040
1.5
1070
    73
1070
     0
1070
    74
1070
     0
1070
    77
1070
     3
1070
   140
1040
3.0
1070
   141
1040
3.0
1070
   147
1040
1.0
1070
   172
1070
     1
1070
   173
1070
     1
1070
   176
1070
   256
1070
   177
1070
   256
1070
   178
1070
   256
1070
   271
1070
     0
1070
   272
1070
     0
1070
   341
1005
B2
1070
     6
1000
OPEN
1070
     7
1000
OPEN
1002
}
  0
DIMENSION
  5
755
330
1A
100
AcDbEntity
  8
SUNPOU
100
AcDbDimension
  2
*D2
 10
341.77910825007
 20
168.3241353384586
 30
0.0
 11
320.77910825007
 21
170.8241353384586
 31
0.0
 70
    32
  3
STANDARD
100
AcDbAlignedDimension
 13
299.77910825007
 23
125.8903460839771
 33
0.0
 14
341.77910825007
 24
125.8903460839771
 34
0.0
100
AcDbRotatedDimension
1001
ACAD
1000
DSTYLE
1002
{
1070
    41
1040
3.0
1070
    42
1040
3.0
1070
    43
1040
7.0
1070
    44
1040
1.5
1070
    73
1070
     0
1070
    74
1070
     0
1070
    77
1070
     3
1070
   140
1040
3.0
1070
   141
1040
3.0
1070
   147
1040
1.0
1070
   172
1070
     1
1070
   173
1070
     1
1070
   176
1070
   256
1070
   177
1070
   256
1070
   178
1070
   256
1070
   271
1070
     0
1070
   272
1070
     0
1070
   341
1005
B2
1070
     6
1000
OPEN
1070
     7
1000
OPEN
1002
}
  0
DIMENSION
  5
762
330
1A
100
AcDbEntity
  8
SUNPOU
100
AcDbDimension
  2
*D3
 10
347.27910825007
 20
176.2644379021011
 30
0.0
 11
320.77910825007
 21
178.7644379021011
 31
0.0
 70
    32
  3
STANDARD
100
AcDbAlignedDimension
 13
294.27910825007
 23
123.2903461122497
 33
0.0
 14
347.27910825007
 24
123.2903461122497
 34
0.0
100
AcDbRotatedDimension
1001
ACAD
1000
DSTYLE
1002
{
1070
    41
1040
3.0
1070
    42
1040
3.0
1070
    43
1040
7.0
1070
    44
1040
1.5
1070
    73
1070
     0
1070
    74
1070
     0
1070
    77
1070
     3
1070
   140
1040
3.0
1070
   141
1040
3.0
1070
   147
1040
1.0
1070
   172
1070
     1
1070
   173
1070
     1
1070
   176
1070
   256
1070
   177
1070
   256
1070
   178
1070
   256
1070
   271
1070
     0
1070
   272
1070
     0
1070
   341
1005
B2
1070
     6
1000
OPEN
1070
     7
1000
OPEN
1002
}
  0
DIMENSION
  5
76F
330
1A
100
AcDbEntity
  8
SUNPOU
100
AcDbDimension
  2
*D4
 10
276.1791590469197
 20
119.7903461122497
 30
0.0
 11
273.6791590469197
 21
122.5403461122497
 31
0.0
 70
    32
  3
STANDARD
100
AcDbAlignedDimension
 13
296.27910825007
 23
125.2903461122497
 33
0.0
 14
293.6791082783426
 24
119.7903461122497
 34
0.0
 50
90.0
100
AcDbRotatedDimension
1001
ACAD
1000
DSTYLE
1002
{
1070
    41
1040
3.0
1070
    42
1040
3.0
1070
    43
1040
7.0
1070
    44
1040
1.5
1070
    73
1070
     0
1070
    74
1070
     0
1070
    77
1070
     3
1070
   140
1040
3.0
1070
   141
1040
3.0
1070
   147
1040
1.0
1070
   172
1070
     1
1070
   173
1070
     1
1070
   176
1070
   256
1070
   177
1070
   256
1070
   178
1070
   256
1070
   271
1070
     0
1070
   272
1070
     0
1070
   341
1005
B2
1070
     6
1000
OPEN
1070
     7
1000
OPEN
1002
}
  0
DIMENSION
  5
77E
330
1A
100
AcDbEntity
  8
SUNPOU
100
AcDbDimension
  2
*D5
 10
276.1791590469196
 20
89.29034611224974
 30
0.0
 11
273.6791590469196
 21
92.04034611224978
 31
0.0
 70
    32
  3
STANDARD
100
AcDbAlignedDimension
 13
293.6791082783426
 23
94.79034611224973
 33
0.0
 14
296.27910825007
 24
89.29034611224972
 34
0.0
 50
90.0
100
AcDbRotatedDimension
1001
ACAD
1000
DSTYLE
1002
{
1070
    41
1040
3.0
1070
    42
1040
3.0
1070
    43
1040
7.0
1070
    44
1040
1.5
1070
    73
1070
     0
1070
    74
1070
     0
1070
    77
1070
     3
1070
   140
1040
3.0
1070
   141
1040
3.0
1070
   147
1040
1.0
1070
   172
1070
     1
1070
   173
1070
     1
1070
   176
1070
   256
1070
   177
1070
   256
1070
   178
1070
   256
1070
   271
1070
     0
1070
   272
1070
     0
1070
   341
1005
B2
1070
     6
1000
OPEN
1070
     7
1000
OPEN
1002
}
  0
DIMENSION
  5
78D
330
1A
100
AcDbEntity
  8
SUNPOU
100
AcDbDimension
  2
*D6
 10
266.3057536843262
 20
89.29034611224974
 30
0.0
 11
263.8057536843262
 21
107.2903461122497
 31
0.0
 70
    32
  3
STANDARD
100
AcDbAlignedDimension
 13
296.27910825007
 23
125.2903461122497
 33
0.0
 14
296.27910825007
 24
89.29034611224972
 34
0.0
 50
90.0
100
AcDbRotatedDimension
1001
ACAD
1000
DSTYLE
1002
{
1070
    41
1040
3.0
1070
    42
1040
3.0
1070
    43
1040
7.0
1070
    44
1040
1.5
1070
    73
1070
     0
1070
    74
1070
     0
1070
    77
1070
     3
1070
   140
1040
3.0
1070
   141
1040
3.0
1070
   147
1040
1.0
1070
   172
1070
     1
1070
   173
1070
     1
1070
   176
1070
   256
1070
   177
1070
   256
1070
   178
1070
   256
1070
   271
1070
     0
1070
   272
1070
     0
1070
   341
1005
B2
1070
     6
1000
OPEN
1070
     7
1000
OPEN
1002
}
  0
DIMENSION
  5
79A
330
1A
100
AcDbEntity
  8
SUNPOU
100
AcDbDimension
  2
*D7
 10
363.3541146307497
 20
111.2903461122497
 30
0.0
 11
360.8541146307497
 21
118.2903461122497
 31
0.0
 70
    32
  3
STANDARD
100
AcDbAlignedDimension
 13
345.27910825007
 23
125.2903461122497
 33
0.0
 14
347.27910825007
 24
111.2903461122497
 34
0.0
 50
90.0
100
AcDbRotatedDimension
1001
ACAD
1000
DSTYLE
1002
{
1070
    41
1040
3.0
1070
    42
1040
3.0
1070
    43
1040
7.0
1070
    44
1040
1.5
1070
    73
1070
     0
1070
    74
1070
     0
1070
    77
1070
     3
1070
   140
1040
3.0
1070
   141
1040
3.0
1070
   147
1040
1.0
1070
   172
1070
     1
1070
   173
1070
     1
1070
   176
1070
   256
1070
   177
1070
   256
1070
   178
1070
   256
1070
   271
1070
     0
1070
   272
1070
     0
1070
   341
1005
B2
1070
     6
1000
OPEN
1070
     7
1000
OPEN
1002
}
  0
INSERT
  5
7A9
330
1A
100
AcDbEntity
  8
SUNPOU
100
AcDbBlockReference
  2
_OPEN
 10
298.0933053965149
 20
121.1635515836677
 30
0.0
 41
3.0
 42
3.0
 43
3.0
 50
297.15919302573
1001
ACAD
1000
DSTYLE
1002
{
1070
    41
1040
3.0
1070
    42
1040
3.0
1070
    43
1040
7.0
1070
    44
1040
1.5
1070
    73
1070
     0
1070
    74
1070
     0
1070
    77
1070
     0
1070
   140
1040
3.0
1070
   141
1040
3.0
1070
   147
1040
1.0
1070
   172
1070
     1
1070
   173
1070
     1
1070
   176
1070
   256
1070
   177
1070
   256
1070
   178
1070
   256
1070
   271
1070
     0
1070
   272
1070
     0
1070
   341
1005
B2
1070
   343
1005
B2
1070
   344
1005
B2
1002
}
  0
LWPOLYLINE
  5
7AA
330
1A
100
AcDbEntity
  8
SUNPOU
100
AcDbPolyline
 90
        3
 70
     0
 43
0.0
 10
296.7239123328458
 20
123.8327766841744
 10
283.4036033473353
 20
149.7967632369925
 10
265.4174595726044
 20
149.7967632369925
1001
ACAD
1000
DSTYLE
1002
{
1070
    41
1040
3.0
1070
    42
1040
3.0
1070
    43
1040
7.0
1070
    44
1040
1.5
1070
    73
1070
     0
1070
    74
1070
     0
1070
    77
1070
     0
1070
   140
1040
3.0
1070
   141
1040
3.0
1070
   147
1040
1.0
1070
   172
1070
     1
1070
   173
1070
     1
1070
   176
1070
   256
1070
   177
1070
   256
1070
   178
1070
   256
1070
   271
1070
     0
1070
   272
1070
     0
1070
   341
1005
B2
1070
   343
1005
B2
1070
   344
1005
B2
1002
}
  0
TEXT
  5
7AB
330
1A
100
AcDbEntity
  8
SUNPOU
100
AcDbText
 10
266.3219720738567
 20
151.1841464349803
 30
0.0
 40
3.0
  1
4-φ4.2
100
AcDbText
  0
TEXT
  5
7AE
330
1A
100
AcDbEntity
  8
SUNPOU
100
AcDbText
 10
353.7798902248309
 20
137.2833904600966
 30
0.0
 40
3.0
  1
2-φ6.5
100
AcDbText
  0
INSERT
  5
7AF
330
1A
100
AcDbEntity
  8
SUNPOU
100
AcDbBlockReference
  2
_OPEN
 10
343.0396878372476
 20
113.0946952086117
 30
0.0
 41
3.0
 42
3.0
 43
3.0
 50
244.7339377342673
1001
ACAD
1000
DSTYLE
1002
{
1070
    41
1040
3.0
1070
    42
1040
3.0
1070
    43
1040
7.0
1070
    44
1040
1.5
1070
    73
1070
     0
1070
    74
1070
     0
1070
    77
1070
     0
1070
   140
1040
3.0
1070
   141
1040
3.0
1070
   147
1040
1.0
1070
   172
1070
     1
1070
   173
1070
     1
1070
   176
1070
   256
1070
   177
1070
   256
1070
   178
1070
   256
1070
   271
1070
     0
1070
   272
1070
     0
1070
   341
1005
B2
1070
   343
1005
B2
1070
   344
1005
B2
1002
}
  0
LWPOLYLINE
  5
7B0
330
1A
100
AcDbEntity
  8
SUNPOU
100
AcDbPolyline
 90
        3
 70
     0
 43
0.0
 10
344.3201546699548
 20
115.8077017862551
 10
353.6059144040279
 20
135.4820319551138
 10
368.7496900500202
 20
135.4820319551138
1001
ACAD
1000
DSTYLE
1002
{
1070
    41
1040
3.0
1070
    42
1040
3.0
1070
    43
1040
7.0
1070
    44
1040
1.5
1070
    73
1070
     0
1070
    74
1070
     0
1070
    77
1070
     0
1070
   140
1040
3.0
1070
   141
1040
3.0
1070
   147
1040
1.0
1070
   172
1070
     1
1070
   173
1070
     1
1070
   176
1070
   256
1070
   177
1070
   256
1070
   178
1070
   256
1070
   271
1070
     0
1070
   272
1070
     0
1070
   341
1005
B2
1070
   343
1005
B2
1070
   344
1005
B2
1002
}
  0
LINE
  5
7B1
330
1A
100
AcDbEntity
  8
SEIHIN
100
AcDbLine
 10
182.8155012553186
 20
217.7238246094552
 30
0.0
 11
182.8155012553186
 21
214.2238245694552
 31
0.0
  0
LINE
  5
7B4
330
1A
100
AcDbEntity
  8
SEIHIN
100
AcDbLine
 10
176.1479046812481
 20
204.7238245694552
 30
0.0
 11
176.1479046812481
 21
203.7238245694552
 31
0.0
  0
LINE
  5
7B5
330
1A
100
AcDbEntity
  8
SEIHIN
100
AcDbLine
 10
176.1479046812481
 20
217.7238246094552
 30
0.0
 11
176.1479046812481
 21
218.7238246094552
 31
0.0
  0
ARC
  5
7BA
330
1A
100
AcDbEntity
  8
SEIHIN
100
AcDbCircle
 10
180.4418075602105
 20
211.2238245694552
 30
0.0
 40
3.25
100
AcDbArc
 50
112.6198649480404
 51
247.3801350519595
  0
ARC
  5
7BB
330
1A
100
AcDbEntity
  8
SEIHIN
100
AcDbCircle
 10
184.0655012553186
 20
211.2238245694552
 30
0.0
 40
3.25
100
AcDbArc
 50
112.6198649480404
 51
247.3801350519595
  0
LINE
  5
7BC
330
1A
100
AcDbEntity
  8
SEIHIN
100
AcDbLine
 10
182.8155012553186
 20
208.2238245694552
 30
0.0
 11
182.8155012553186
 21
204.7238245694552
 31
0.0
  0
LINE
  5
7BD
330
1A
100
AcDbEntity
  8
SEIHIN
100
AcDbLine
 10
179.1918075602104
 20
217.7238246094552
 30
0.0
 11
179.1918075602104
 21
214.2238245694552
 31
0.0
  0
LINE
  5
7BE
330
1A
100
AcDbEntity
  8
SEIHIN
100
AcDbLine
 10
179.1918075602104
 20
208.2238245694552
 30
0.0
 11
179.1918075602104
 21
204.7238245694552
 31
0.0
  0
DIMENSION
  5
862
330
1A
100
AcDbEntity
  8
SUNPOU
100
AcDbDimension
  2
*D8
 10
217.2847975837308
 20
184.7238245694552
 30
0.0
 11
214.7847975837307
 21
211.2238245894553
 31
0.0
 70
    32
  3
STANDARD
100
AcDbAlignedDimension
 13
195.8531673900701
 23
237.7238246094552
 33
0.0
 14
195.8531673900701
 24
184.7238245694552
 34
0.0
 50
90.0
100
AcDbRotatedDimension
1001
ACAD
1000
DSTYLE
1002
{
1070
    41
1040
3.0
1070
    42
1040
3.0
1070
    43
1040
7.0
1070
    44
1040
1.5
1070
    73
1070
     0
1070
    74
1070
     0
1070
    77
1070
     3
1070
   140
1040
3.0
1070
   141
1040
3.0
1070
   147
1040
1.0
1070
   172
1070
     1
1070
   173
1070
     1
1070
   176
1070
   256
1070
   177
1070
   256
1070
   178
1070
   256
1070
   271
1070
     0
1070
   272
1070
     0
1070
   341
1005
B2
1070
     6
1000
OPEN
1070
     7
1000
OPEN
1002
}
  0
LINE
  5
BDA
330
1A
100
AcDbEntity
  8
SEIHIN
100
AcDbLine
 10
85.51811850007011
 20
81.29034611224971
 30
0.0
 11
91.05316739007008
 21
81.29034611224971
 31
0.0
  0
LINE
  5
BDB
330
1A
100
AcDbEntity
  8
SEIHIN
100
AcDbLine
 10
91.05316739007008
 20
89.79034611224973
 30
0.0
 11
86.16084397007005
 21
89.79034611224973
 31
0.0
  0
LINE
  5
BDC
330
1A
100
AcDbEntity
  8
SEIHIN
100
AcDbLine
 10
85.17018030007008
 20
83.79034611224971
 30
0.0
 11
91.05316739007008
 21
83.79034611224971
 31
0.0
  0
LINE
  5
BDD
330
1A
100
AcDbEntity
  8
SEIHIN
100
AcDbLine
 10
86.16084397007005
 20
92.29034611224973
 30
0.0
 11
91.05316739007008
 21
92.29034611224973
 31
0.0
  0
LINE
  5
BDF
330
1A
100
AcDbEntity
  8
SEIHIN
100
AcDbLine
 10
74.15303093007008
 20
90.49034611224971
 30
0.0
 11
83.14842064007008
 21
82.21458757224974
 31
0.0
  0
ARC
  5
BE0
330
1A
100
AcDbEntity
  8
SEIHIN
100
AcDbCircle
 10
85.17018030007008
 20
84.79034611224973
 30
0.0
 40
1.000000002404392
100
AcDbArc
 50
226.2544208983734
 51
270.0
  0
LINE
  5
BE1
330
1A
100
AcDbEntity
  8
SEIHIN
100
AcDbLine
 10
86.99518128007008
 20
89.79034611224973
 30
0.0
 11
86.99518128007008
 21
83.79034611224971
 31
0.0
  0
ARC
  5
BE2
330
1A
100
AcDbEntity
  8
SEIHIN
100
AcDbCircle
 10
85.51811850007011
 20
84.79034611224973
 30
0.0
 40
3.50000000029082
100
AcDbArc
 50
227.385943991837
 51
270.0
  0
LINE
  5
BE4
330
1A
100
AcDbEntity
  8
SEIHIN
100
AcDbLine
 10
69.15306739007007
 20
90.49034611224971
 30
0.0
 11
74.15303093007008
 21
90.49034611224971
 31
0.0
  0
ARC
  5
BE5
330
1A
100
AcDbEntity
  8
SEIHIN
100
AcDbCircle
 10
70.85323567007009
 20
98.54014976224972
 30
0.0
 40
4.249794616209057
100
AcDbArc
 50
248.0382779466742
 51
298.0729204221733
  0
LINE
  5
BE6
330
1A
100
AcDbEntity
  8
SEIHIN
100
AcDbLine
 10
69.15306739007007
 20
90.49034611224971
 30
0.0
 11
74.15303093007008
 21
90.49034611224971
 31
0.0
  0
LINE
  5
BE7
330
1A
100
AcDbEntity
  8
SEIHIN
100
AcDbLine
 10
69.15306739007007
 20
90.49034611224971
 30
0.0
 11
74.15303093007008
 21
90.49034611224971
 31
0.0
  0
ELLIPSE
  5
BE8
330
1A
100
AcDbEntity
  8
SEIHIN
100
AcDbEllipse
 10
69.45087902007009
 20
95.06242231224973
 30
0.0
 11
-0.480711628724846
 21
0.1374237974682779
 31
0.0
210
0.0
220
0.0
230
1.0
 40
1.0
 41
0.0000000000000004
 42
1.465876859819378
  0
ARC
  5
BE9
330
1A
100
AcDbEntity
  8
SEIHIN
100
AcDbCircle
 10
69.65183424007008
 20
94.88270314224974
 30
0.0
 40
3.499985617108208
100
AcDbArc
 50
103.1906191421164
 51
181.5120868822297
  0
ARC
  5
BEA
330
1A
100
AcDbEntity
  8
SEIHIN
100
AcDbCircle
 10
69.15306739007007
 20
93.4903461122497
 30
0.0
 40
3.0
100
AcDbArc
 50
180.0
 51
270.0
  0
LINE
  5
BEB
330
1A
100
AcDbEntity
  8
SEIHIN
100
AcDbLine
 10
66.15306739007007
 20
94.79034611224973
 30
0.0
 11
66.15306739007007
 21
93.4903461122497
 31
0.0
  0
LINE
  5
BED
330
1A
100
AcDbEntity
  8
SEIHIN
100
AcDbLine
 10
68.85306739007006
 20
98.29034611224972
 30
0.0
 11
69.19031668007008
 21
98.29034611224972
 31
0.0
  0
LINE
  5
BEE
330
1A
100
AcDbEntity
  8
SEIHIN
100
AcDbLine
 10
69.67107274007009
 20
97.65296484224974
 30
0.0
 11
68.97006739007008
 21
95.1998461122497
 31
0.0
  0
ELLIPSE
  5
BEF
330
1A
100
AcDbEntity
  8
SEIHIN
100
AcDbEllipse
 10
69.19028526007008
 20
97.79032241224975
 30
0.0
 11
0.4807821249180666
 21
-0.1373763011067326
 31
0.0
210
0.0
220
0.0
230
1.0
 40
1.0
 41
0.0
 42
1.849150924921633
  0
LINE
  5
BF0
330
1A
100
AcDbEntity
  8
SEIHIN
100
AcDbLine
 10
72.8531673900701
 20
94.79034611224973
 30
0.0
 11
82.08659344007008
 21
94.79034611224973
 31
0.0
  0
LINE
  5
BF1
330
1A
100
AcDbEntity
  8
SEIHIN
100
AcDbLine
 10
84.47872298007007
 20
84.06792879224974
 30
0.0
 11
77.68766739007009
 21
90.56794611224972
 31
0.0
  0
LINE
  5
BF2
330
1A
100
AcDbEntity
  8
SEIHIN
100
AcDbLine
 10
81.43581185007008
 20
92.29034611224973
 30
0.0
 11
78.37916739007011
 21
92.29034611224973
 31
0.0
  0
LINE
  5
BF3
330
1A
100
AcDbEntity
  8
SEIHIN
100
AcDbLine
 10
72.8531673900701
 20
94.79034611224973
 30
0.0
 11
72.8531673900701
 21
90.49034611224971
 31
0.0
  0
ARC
  5
BF4
330
1A
100
AcDbEntity
  8
SEIHIN
100
AcDbCircle
 10
78.37916398007007
 20
91.29033761224974
 30
0.0
 40
1.000008503298284
100
AcDbArc
 50
89.99980462305257
 51
226.251772552069
  0
ARC
  5
BF5
330
1A
100
AcDbEntity
  8
SEIHIN
100
AcDbCircle
 10
86.16084397007005
 20
94.29034611224972
 30
0.0
 40
4.499999998880124
100
AcDbArc
 50
223.0923541928525
 51
270.0
  0
ARC
  5
BF6
330
1A
100
AcDbEntity
  8
SEIHIN
100
AcDbCircle
 10
82.08659344007008
 20
92.79034611224972
 30
0.0
 40
1.999999999554587
100
AcDbArc
 50
43.09235410287214
 51
90.0
  0
LINE
  5
BF7
330
1A
100
AcDbEntity
  8
SEIHIN
100
AcDbLine
 10
82.87470345007008
 20
91.21605262224973
 30
0.0
 11
82.16606530007011
 21
91.97352244224976
 31
0.0
  0
ARC
  5
BF8
330
1A
100
AcDbEntity
  8
SEIHIN
100
AcDbCircle
 10
81.43581185007008
 20
91.29034611224971
 30
0.0
 40
0.9999999997772931
100
AcDbArc
 50
43.09235410287214
 51
90.0
  0
ARC
  5
BF9
330
1A
100
AcDbEntity
  8
SEIHIN
100
AcDbCircle
 10
86.16084397007005
 20
94.29034611224972
 30
0.0
 40
1.999999999554585
100
AcDbArc
 50
223.0923541028721
 51
270.0
  0
LINE
  5
BFA
330
1A
100
AcDbEntity
  8
SEIHIN
100
AcDbLine
 10
84.70033707007008
 20
92.92399345224977
 30
0.0
 11
83.54710034007007
 21
94.15669877224974
 31
0.0
  0
LINE
  5
BFB
330
1A
100
AcDbEntity
  8
SEIHIN
100
AcDbLine
 10
156.0519219700701
 20
89.79034611224973
 30
0.0
 11
116.05316739007
 21
89.79034611224973
 31
0.0
  0
LINE
  5
BFC
330
1A
100
AcDbEntity
  8
SEIHIN
100
AcDbLine
 10
116.05316739007
 20
83.79034611224971
 30
0.0
 11
149.74611077007
 21
83.79034611224971
 31
0.0
  0
LINE
  5
BFD
330
1A
100
AcDbEntity
  8
SEIHIN
100
AcDbLine
 10
116.05316739007
 20
81.29034611224971
 30
0.0
 11
149.10541413007
 21
81.29034611224971
 31
0.0
  0
LINE
  5
BFE
330
1A
100
AcDbEntity
  8
SEIHIN
100
AcDbLine
 10
116.05316739007
 20
92.29034611224973
 30
0.0
 11
148.10991163007
 21
92.29034611224973
 31
0.0
  0
LINE
  5
C00
330
1A
100
AcDbEntity
  8
SEIHIN
100
AcDbLine
 10
145.65303093007
 20
89.79034611224973
 30
0.0
 11
145.65303093007
 21
83.79034611224971
 31
0.0
  0
MTEXT
  5
C0E
330
1A
100
AcDbEntity
  8
SEIHIN
100
AcDbMText
 10
116.83711789607
 20
86.70212333624972
 30
0.0
 40
2.381249964
 41
0.0
 71
     1
 72
     5
  1
{\W1.703704;0}
1001
ACAD
1000
MTEXTBEGIN
1070
    73
1070
     1
1070
    44
1040
1.0
1070
    74
1070
     0
1000
MTEXTEND
1000
MTEXTBEGIN
1070
    73
1070
     1
1070
    44
1040
1.0
1070
    74
1070
     0
1000
MTEXTEND
1000
MTEXTBEGIN
1070
    73
1070
     1
1070
    44
1040
1.0
1070
    74
1070
     0
1000
MTEXTEND
1000
MTEXTBEGIN
1070
    73
1070
     1
1070
    44
1040
1.0
1070
    74
1070
     0
1000
MTEXTEND
1000
MTEXTBEGIN
1070
    73
1070
     1
1070
    44
1040
1.0
1070
    74
1070
     0
1000
MTEXTEND
1000
MTEXTBEGIN
1070
    73
1070
     1
1070
    44
1040
1.0
1070
    74
1070
     0
1000
MTEXTEND
  0
LINE
  5
C12
330
1A
100
AcDbEntity
  8
SEIHIN
100
AcDbLine
 10
121.23246738907
 20
92.29034611224973
 30
0.0
 11
116.05316739007
 21
92.29034611224973
 31
0.0
  0
LINE
  5
C2D
330
1A
100
AcDbEntity
  8
SEIHIN
100
AcDbLine
 10
116.30316739007
 20
89.79034611224973
 30
0.0
 11
116.30316739007
 21
87.79034611224972
 31
0.0
  0
LINE
  5
C2E
330
1A
100
AcDbEntity
  8
SEIHIN
100
AcDbLine
 10
116.30316739007
 20
87.79034611224972
 30
0.0
 11
116.05316739007
 21
87.79034611224972
 31
0.0
  0
MTEXT
  5
C31
330
1A
100
AcDbEntity
  8
SEIHIN
100
AcDbMText
 10
124.1441596462
 20
86.70212333624972
 30
0.0
 40
2.381249964
 41
0.0
 71
     1
 72
     5
  1
{\W1.135802;30}
1001
ACAD
1000
MTEXTBEGIN
1070
    73
1070
     1
1070
    44
1040
1.0
1070
    74
1070
     0
1000
MTEXTEND
1000
MTEXTBEGIN
1070
    73
1070
     1
1070
    44
1040
1.0
1070
    74
1070
     0
1000
MTEXTEND
1000
MTEXTBEGIN
1070
    73
1070
     1
1070
    44
1040
1.0
1070
    74
1070
     0
1000
MTEXTEND
1000
MTEXTBEGIN
1070
    73
1070
     1
1070
    44
1040
1.0
1070
    74
1070
     0
1000
MTEXTEND
1000
MTEXTBEGIN
1070
    73
1070
     1
1070
    44
1040
1.0
1070
    74
1070
     0
1000
MTEXTEND
1000
MTEXTBEGIN
1070
    73
1070
     1
1070
    44
1040
1.0
1070
    74
1070
     0
1000
MTEXTEND
  0
LINE
  5
C32
330
1A
100
AcDbEntity
  8
SEIHIN
100
AcDbLine
 10
121.30316739007
 20
89.79034611224973
 30
0.0
 11
121.30316739007
 21
87.79034611224972
 31
0.0
  0
LINE
  5
C33
330
1A
100
AcDbEntity
  8
SEIHIN
100
AcDbLine
 10
120.80316739007
 20
87.79034611224972
 30
0.0
 11
120.80316739007
 21
89.79034611224973
 31
0.0
  0
LINE
  5
C34
330
1A
100
AcDbEntity
  8
SEIHIN
100
AcDbLine
 10
121.30316739007
 20
87.79034611224972
 30
0.0
 11
120.80316739007
 21
87.79034611224972
 31
0.0
  0
LINE
  5
C35
330
1A
100
AcDbEntity
  8
SEIHIN
100
AcDbLine
 10
120.80316739007
 20
89.79034611224973
 30
0.0
 11
121.30316739007
 21
89.79034611224973
 31
0.0
  0
LINE
  5
C36
330
1A
100
AcDbEntity
  8
SEIHIN
100
AcDbLine
 10
131.30316739007
 20
89.79034611224973
 30
0.0
 11
131.30316739007
 21
87.79034611224972
 31
0.0
  0
LINE
  5
C37
330
1A
100
AcDbEntity
  8
SEIHIN
100
AcDbLine
 10
130.80316739007
 20
87.79034611224972
 30
0.0
 11
130.80316739007
 21
89.79034611224973
 31
0.0
  0
LINE
  5
C38
330
1A
100
AcDbEntity
  8
SEIHIN
100
AcDbLine
 10
126.30316739007
 20
89.79034611224973
 30
0.0
 11
126.30316739007
 21
87.79034611224972
 31
0.0
  0
LINE
  5
C39
330
1A
100
AcDbEntity
  8
SEIHIN
100
AcDbLine
 10
125.80316739007
 20
87.79034611224972
 30
0.0
 11
125.80316739007
 21
89.79034611224973
 31
0.0
  0
LINE
  5
C3A
330
1A
100
AcDbEntity
  8
SEIHIN
100
AcDbLine
 10
126.30316739007
 20
87.79034611224972
 30
0.0
 11
125.80316739007
 21
87.79034611224972
 31
0.0
  0
LINE
  5
C3B
330
1A
100
AcDbEntity
  8
SEIHIN
100
AcDbLine
 10
131.30316739007
 20
87.79034611224972
 30
0.0
 11
130.80316739007
 21
87.79034611224972
 31
0.0
  0
LINE
  5
C3C
330
1A
100
AcDbEntity
  8
SEIHIN
100
AcDbLine
 10
125.80316739007
 20
89.79034611224973
 30
0.0
 11
126.30316739007
 21
89.79034611224973
 31
0.0
  0
LINE
  5
C3D
330
1A
100
AcDbEntity
  8
SEIHIN
100
AcDbLine
 10
130.80316739007
 20
89.79034611224973
 30
0.0
 11
131.30316739007
 21
89.79034611224973
 31
0.0
  0
MTEXT
  5
C3E
330
1A
100
AcDbEntity
  8
SEIHIN
100
AcDbMText
 10
139.15193754007
 20
86.88226493624972
 30
0.0
 40
2.381249964
 41
0.0
 71
     1
 72
     5
  1
{\W1.022222;45}
1001
ACAD
1000
MTEXTBEGIN
1070
    73
1070
     1
1070
    44
1040
1.0
1070
    74
1070
     0
1000
MTEXTEND
1000
MTEXTBEGIN
1070
    73
1070
     1
1070
    44
1040
1.0
1070
    74
1070
     0
1000
MTEXTEND
1000
MTEXTBEGIN
1070
    73
1070
     1
1070
    44
1040
1.0
1070
    74
1070
     0
1000
MTEXTEND
1000
MTEXTBEGIN
1070
    73
1070
     1
1070
    44
1040
1.0
1070
    74
1070
     0
1000
MTEXTEND
1000
MTEXTBEGIN
1070
    73
1070
     1
1070
    44
1040
1.0
1070
    74
1070
     0
1000
MTEXTEND
1000
MTEXTBEGIN
1070
    73
1070
     1
1070
    44
1040
1.0
1070
    74
1070
     0
1000
MTEXTEND
  0
LINE
  5
C3F
330
1A
100
AcDbEntity
  8
SEIHIN
100
AcDbLine
 10
136.30254468007
 20
89.79034611224973
 30
0.0
 11
136.30254468007
 21
87.79034611224972
 31
0.0
  0
LINE
  5
C40
330
1A
100
AcDbEntity
  8
SEIHIN
100
AcDbLine
 10
135.80254468007
 20
87.79034611224972
 30
0.0
 11
135.80254468007
 21
89.79034611224973
 31
0.0
  0
LINE
  5
C41
330
1A
100
AcDbEntity
  8
SEIHIN
100
AcDbLine
 10
136.30254468007
 20
87.79034611224972
 30
0.0
 11
135.80254468007
 21
87.79034611224972
 31
0.0
  0
LINE
  5
C42
330
1A
100
AcDbEntity
  8
SEIHIN
100
AcDbLine
 10
135.80254468007
 20
89.79034611224973
 30
0.0
 11
136.30254468007
 21
89.79034611224973
 31
0.0
  0
LINE
  5
C43
330
1A
100
AcDbEntity
  8
SEIHIN
100
AcDbLine
 10
141.30316739007
 20
89.79034611224973
 30
0.0
 11
141.30316739007
 21
87.79034611224972
 31
0.0
  0
LINE
  5
C44
330
1A
100
AcDbEntity
  8
SEIHIN
100
AcDbLine
 10
140.80316739007
 20
87.79034611224972
 30
0.0
 11
140.80316739007
 21
89.79034611224973
 31
0.0
  0
LINE
  5
C45
330
1A
100
AcDbEntity
  8
SEIHIN
100
AcDbLine
 10
141.30316739007
 20
87.79034611224972
 30
0.0
 11
140.80316739007
 21
87.79034611224972
 31
0.0
  0
LINE
  5
C46
330
1A
100
AcDbEntity
  8
SEIHIN
100
AcDbLine
 10
140.80316739007
 20
89.79034611224973
 30
0.0
 11
141.30316739007
 21
89.79034611224973
 31
0.0
  0
LINE
  5
C49
330
1A
100
AcDbEntity
  8
SEIHIN
100
AcDbLine
 10
170.65303093007
 20
87.04034611224972
 30
0.0
 11
170.65303093007
 21
82.18149809224973
 31
0.0
  0
ARC
  5
C4A
330
1A
100
AcDbEntity
  8
SEIHIN
100
AcDbCircle
 10
149.74611077007
 20
84.29034611224972
 30
0.0
 40
0.4999999962089669
100
AcDbArc
 50
270.0
 51
350.6360096398327
  0
LINE
  5
C4B
330
1A
100
AcDbEntity
  8
SEIHIN
100
AcDbLine
 10
177.7871419900701
 20
86.79033206224971
 30
0.0
 11
182.6220784800701
 21
78.41597641224973
 31
0.0
  0
ARC
  5
C4C
330
1A
100
AcDbEntity
  8
SEIHIN
100
AcDbCircle
 10
148.38706712007
 20
99.79034611224973
 30
0.0
 40
15.99999999650688
100
AcDbArc
 50
288.1859804982271
 51
330.2479051608476
  0
LINE
  5
C4D
330
1A
100
AcDbEntity
  8
SEIHIN
100
AcDbLine
 10
172.15303093007
 20
80.43273778224971
 30
0.0
 11
172.15303093007
 21
87.04034611224972
 31
0.0
  0
ARC
  5
C4E
330
1A
100
AcDbEntity
  8
SEIHIN
100
AcDbCircle
 10
153.6928092300701
 20
83.63952258224975
 30
0.0
 40
1.00000000571721
100
AcDbArc
 50
108.1859940097359
 51
255.3791176229967
  0
LINE
  5
C4F
330
1A
100
AcDbEntity
  8
SEIHIN
100
AcDbLine
 10
189.1531673900701
 20
112.8124888732497
 30
0.0
 11
189.1531673900701
 21
80.16597641224974
 31
0.0
  0
LINE
  5
C50
330
1A
100
AcDbEntity
  8
SEIHIN
100
AcDbLine
 10
149.10541413007
 20
81.29034611224971
 30
0.0
 11
168.57814246007
 21
77.48833576224973
 31
0.0
  0
LINE
  5
C51
330
1A
100
AcDbEntity
  8
SEIHIN
100
AcDbLine
 10
167.21357972007
 20
79.07889860224975
 30
0.0
 11
153.4403871900701
 21
82.67190534224971
 31
0.0
  0
ARC
  5
C52
330
1A
100
AcDbEntity
  8
SEIHIN
100
AcDbCircle
 10
149.10541413007
 20
80.29034611224972
 30
0.0
 40
0.9999999985731333
100
AcDbArc
 50
78.80393204908905
 51
90.0
  0
ARC
  5
C53
330
1A
100
AcDbEntity
  8
SEIHIN
100
AcDbCircle
 10
169.83592438007
 20
79.70169096224975
 30
0.0
 40
1.999999999179419
100
AcDbArc
 50
82.71282276529213
 51
183.1869153879589
  0
ARC
  5
C54
330
1A
100
AcDbEntity
  8
SEIHIN
100
AcDbCircle
 10
169.15303093007
 20
80.43273778224971
 30
0.0
 40
3.00000000069325
100
AcDbArc
 50
258.9521053411593
 51
0.0
  0
ARC
  5
C55
330
1A
100
AcDbEntity
  8
SEIHIN
100
AcDbCircle
 10
167.33979067007
 20
79.56270723224974
 30
0.0
 40
0.4999999958019847
100
AcDbArc
 50
255.3791256739049
 51
3.186915975958103
  0
ARC
  5
C56
330
1A
100
AcDbEntity
  8
SEIHIN
100
AcDbCircle
 10
170.15303093007
 20
82.18149809224973
 30
0.0
 40
0.4999999963452644
100
AcDbArc
 50
262.7128226562795
 51
0.0
  0
ARC
  5
C57
330
1A
100
AcDbEntity
  8
SEIHIN
100
AcDbCircle
 10
185.6531673900701
 20
80.16597641224974
 30
0.0
 40
3.499999998594639
100
AcDbArc
 50
210.0000000265656
 51
0.0
  0
LINE
  5
C58
330
1A
100
AcDbEntity
  8
SEIHIN
100
AcDbLine
 10
184.15331769007
 20
117.8124888712497
 30
0.0
 11
177.2049367800701
 21
117.8126977442497
 31
0.0
  0
LINE
  5
C59
330
1A
100
AcDbEntity
  8
SEIHIN
100
AcDbLine
 10
184.1532425400701
 20
115.3124888722497
 30
0.0
 11
177.20486163007
 21
115.3126977462497
 31
0.0
  0
LINE
  5
C5A
330
1A
100
AcDbEntity
  8
SEIHIN
100
AcDbLine
 10
178.1533477500701
 20
107.8126692302497
 30
0.0
 11
177.20463617007
 21
107.8126977492497
 31
0.0
  0
LINE
  5
C5B
330
1A
100
AcDbEntity
  8
SEIHIN
100
AcDbLine
 10
178.15342291007
 20
110.3126692291497
 30
0.0
 11
177.20471132007
 21
110.3126977480497
 31
0.0
  0
LINE
  5
C5C
330
1A
100
AcDbEntity
  8
SEIHIN
100
AcDbLine
 10
162.01117381007
 20
106.4970420592497
 30
0.0
 11
154.74593792007
 21
93.78659436224973
 31
0.0
  0
LINE
  5
C5D
330
1A
100
AcDbEntity
  8
SEIHIN
100
AcDbLine
 10
159.8407221300701
 20
107.7376626742497
 30
0.0
 11
152.4508154700701
 21
94.80910488224976
 31
0.0
  0
ARC
  5
C5E
330
1A
100
AcDbEntity
  8
SEIHIN
100
AcDbCircle
 10
177.20433556007
 20
97.81269775224973
 30
0.0
 40
9.999999999145625
100
AcDbArc
 50
89.9982776315724
 51
150.2479051562262
  0
ARC
  5
C5F
330
1A
100
AcDbEntity
  8
SEIHIN
100
AcDbCircle
 10
177.20433556007
 20
97.81269775224973
 30
0.0
 40
12.49999999966815
100
AcDbArc
 50
89.99827764303095
 51
150.2479051639018
  0
LINE
  5
C60
330
1A
100
AcDbEntity
  8
SEIHIN
100
AcDbLine
 10
166.35207717007
 20
104.0158008292497
 30
0.0
 11
159.93780121007
 21
92.79409786224972
 31
0.0
  0
ARC
  5
C61
330
1A
100
AcDbEntity
  8
SEIHIN
100
AcDbCircle
 10
148.38706712007
 20
99.79034611224973
 30
0.0
 40
13.49999999718524
100
AcDbArc
 50
288.1859799493473
 51
306.1289274530567
  0
ARC
  5
C62
330
1A
100
AcDbEntity
  8
SEIHIN
100
AcDbCircle
 10
155.61411859007
 20
93.29034611224972
 30
0.0
 40
1.000000000347428
100
AcDbArc
 50
150.247904938769
 51
270.0
  0
ARC
  5
C63
330
1A
100
AcDbEntity
  8
SEIHIN
100
AcDbCircle
 10
153.6928092300701
 20
83.63952258224975
 30
0.0
 40
3.500000003201731
100
AcDbArc
 50
108.1859864757694
 51
170.6360096381228
  0
ARC
  5
C64
330
1A
100
AcDbEntity
  8
SEIHIN
100
AcDbCircle
 10
148.10991211007
 20
97.29034611224973
 30
0.0
 40
5.000000001115571
100
AcDbArc
 50
269.9999944996055
 51
330.2479051946069
  0
ARC
  5
C65
330
1A
100
AcDbEntity
  8
SEIHIN
100
AcDbCircle
 10
156.0519219700701
 20
89.29034611224972
 30
0.0
 40
0.499999998465137
100
AcDbArc
 50
306.1289277375728
 51
90.0
  0
LINE
  5
C66
330
1A
100
AcDbEntity
  8
SEIHIN
100
AcDbLine
 10
155.61411859007
 20
92.29034611224973
 30
0.0
 11
159.0696205400701
 21
92.29034611224973
 31
0.0
  0
ARC
  5
C67
330
1A
100
AcDbEntity
  8
SEIHIN
100
AcDbCircle
 10
159.0696205400701
 20
93.29034611224972
 30
0.0
 40
1.000000000347427
100
AcDbArc
 50
270.0
 51
330.2479049387692
  0
LINE
  5
C68
330
1A
100
AcDbEntity
  8
SEIHIN
100
AcDbLine
 10
168.5225288500701
 20
102.7751802142497
 30
0.0
 11
162.2779578600701
 21
91.85037417224975
 31
0.0
  0
ARC
  5
C69
330
1A
100
AcDbEntity
  8
SEIHIN
100
AcDbCircle
 10
171.40303093007
 20
87.04034611224972
 30
0.0
 40
0.75
100
AcDbArc
 50
0.0
 51
90.0
  0
ARC
  5
C6A
330
1A
100
AcDbEntity
  8
SEIHIN
100
AcDbCircle
 10
171.40303093007
 20
87.04034611224972
 30
0.0
 40
0.75
100
AcDbArc
 50
90.0
 51
180.0
  0
ARC
  5
C6B
330
1A
100
AcDbEntity
  8
SEIHIN
100
AcDbCircle
 10
177.20433556007
 20
97.81269775224973
 30
0.0
 40
17.50000000101337
100
AcDbArc
 50
89.99827762338702
 51
150.2479051726757
  0
ARC
  5
C6C
330
1A
100
AcDbEntity
  8
SEIHIN
100
AcDbCircle
 10
177.20433556007
 20
97.81269775224973
 30
0.0
 40
20.0000000011359
100
AcDbArc
 50
89.99827763157158
 51
150.2479051754179
  0
ARC
  5
C6D
330
1A
100
AcDbEntity
  8
SEIHIN
100
AcDbCircle
 10
178.1531673900701
 20
101.8126692332497
 30
0.0
 40
5.999999999855404
100
AcDbArc
 50
0.0
 51
89.99827768886756
  0
LINE
  5
C72
330
1A
100
AcDbEntity
  8
SEIHIN
100
AcDbLine
 10
184.1531673900701
 20
101.8126692332497
 30
0.0
 11
184.1531673900701
 21
88.03297275224975
 31
0.0
  0
ARC
  5
C73
330
1A
100
AcDbEntity
  8
SEIHIN
100
AcDbCircle
 10
182.15316739007
 20
88.03297275224975
 30
0.0
 40
1.999999998321968
100
AcDbArc
 50
225.0
 51
0.0
  0
LINE
  5
C74
330
1A
100
AcDbEntity
  8
SEIHIN
100
AcDbLine
 10
179.3602741700701
 20
87.99743884224971
 30
0.0
 11
180.73895383007
 21
86.61875919224973
 31
0.0
  0
ARC
  5
C75
330
1A
100
AcDbEntity
  8
SEIHIN
100
AcDbCircle
 10
178.6531673900701
 20
87.29033206224972
 30
0.0
 40
0.9999999975222747
100
AcDbArc
 50
45.0
 51
210.0000001084147
  0
ARC
  5
C77
330
1A
100
AcDbEntity
  8
SEIHIN
100
AcDbCircle
 10
184.1531673900701
 20
112.8124888732497
 30
0.0
 40
5.000000000129504
100
AcDbArc
 50
0.0
 51
89.99827768886756
  0
ARC
  5
C78
330
1A
100
AcDbEntity
  8
SEIHIN
100
AcDbCircle
 10
184.1531673900701
 20
112.8124888732497
 30
0.0
 40
2.500000000064752
100
AcDbArc
 50
0.0
 51
89.99827768886756
  0
ARC
  5
C79
330
1A
100
AcDbEntity
  8
SEIHIN
100
AcDbCircle
 10
178.1531673900701
 20
101.8126692332497
 30
0.0
 40
8.500000001574836
100
AcDbArc
 50
37.86364634504803
 51
89.99827762146058
  0
LINE
  5
C7A
330
1A
100
AcDbEntity
  8
SEIHIN
100
AcDbLine
 10
186.6531673900701
 20
112.8124888732497
 30
0.0
 11
186.6531673900701
 21
107.6436211282497
 31
0.0
  0
ARC
  5
C7B
330
1A
100
AcDbEntity
  8
SEIHIN
100
AcDbCircle
 10
185.6531673900701
 20
107.6436211282497
 30
0.0
 40
0.9999999983429477
100
AcDbArc
 50
217.863646510539
 51
0.0
  0
LINE
  5
C7C
330
1A
100
AcDbEntity
  8
SEIHIN
100
AcDbLine
 10
95.58607036007009
 20
203.7238245694552
 30
0.0
 11
74.15306739007011
 21
203.7238245694552
 31
0.0
  0
LINE
  5
C7D
330
1A
100
AcDbEntity
  8
SEIHIN
100
AcDbLine
 10
95.58607036007009
 20
218.7238246094552
 30
0.0
 11
74.15306739007011
 21
218.7238246094552
 31
0.0
  0
LINE
  5
C7F
330
1A
100
AcDbEntity
  8
SEIHIN
100
AcDbLine
 10
69.15306739007011
 20
200.2238245694551
 30
0.0
 11
69.15306739007011
 21
222.2238246094552
 31
0.0
  0
LINE
  5
C80
330
1A
100
AcDbEntity
  8
SEIHIN
100
AcDbLine
 10
72.15306739007011
 20
220.7238246094552
 30
0.0
 11
72.15306739007011
 21
222.2238246094552
 31
0.0
  0
LINE
  5
C81
330
1A
100
AcDbEntity
  8
SEIHIN
100
AcDbLine
 10
66.1530673900701
 20
200.2238245694551
 30
0.0
 11
66.1530673900701
 21
222.2238246094552
 31
0.0
  0
ARC
  5
C83
330
1A
100
AcDbEntity
  8
SEIHIN
100
AcDbCircle
 10
74.15306739007011
 20
201.7238245694552
 30
0.0
 40
2.0
100
AcDbArc
 50
90.0
 51
180.0
  0
LINE
  5
C84
330
1A
100
AcDbEntity
  8
SEIHIN
100
AcDbLine
 10
66.1530673900701
 20
200.2238245694551
 30
0.0
 11
72.15306739007011
 21
200.2238245694551
 31
0.0
  0
ARC
  5
C85
330
1A
100
AcDbEntity
  8
SEIHIN
100
AcDbCircle
 10
74.15306739007011
 20
220.7238246094552
 30
0.0
 40
2.0
100
AcDbArc
 50
180.0
 51
270.0
  0
LINE
  5
C87
330
1A
100
AcDbEntity
  8
SEIHIN
100
AcDbLine
 10
86.16084397007009
 20
217.7417537094552
 30
0.0
 11
86.16084397007009
 21
205.2523684794552
 31
0.0
  0
LINE
  5
C88
330
1A
100
AcDbEntity
  8
SEIHIN
100
AcDbLine
 10
82.81901506007011
 20
217.4018647094552
 30
0.0
 11
82.81901506007011
 21
204.9124794394552
 31
0.0
  0
LINE
  5
C89
330
1A
100
AcDbEntity
  8
SEIHIN
100
AcDbLine
 10
72.15306739007011
 20
201.7238245694552
 30
0.0
 11
72.15306739007011
 21
200.2238245694551
 31
0.0
  0
LINE
  5
C8A
330
1A
100
AcDbEntity
  8
SEIHIN
100
AcDbLine
 10
66.1530673900701
 20
222.2238246094552
 30
0.0
 11
72.15306739007011
 21
222.2238246094552
 31
0.0
  0
LINE
  5
F65
330
1A
100
AcDbEntity
  8
NOKITOI
  6
PHANTOM
 62
     8
100
AcDbLine
 10
183.9912673849881
 20
102.4834461111429
 30
0.0
 11
183.601167384988
 21
89.99904611114288
 31
0.0
  0
LINE
  5
F66
330
1A
100
AcDbEntity
  8
NOKITOI
  6
PHANTOM
 62
     8
100
AcDbLine
 10
182.7918673849877
 20
102.5209461111428
 30
0.0
 11
182.6425673849881
 21
97.74194611114308
 31
0.0
  0
LINE
  5
F67
330
1A
100
AcDbEntity
  8
NOKITOI
  6
PHANTOM
 62
     8
100
AcDbLine
 10
178.0787673849882
 20
99.74594611114298
 30
0.0
 11
177.082967384988
 21
100.8459461111431
 31
0.0
  0
LINE
  5
F68
330
1A
100
AcDbEntity
  8
NOKITOI
  6
PHANTOM
 62
     8
100
AcDbLine
 10
175.5308673849881
 20
95.51964611114295
 30
0.0
 11
175.2150673849878
 21
101.5196461111429
 31
0.0
  0
ARC
  5
F69
330
1A
100
AcDbEntity
  8
NOKITOI
  6
PHANTOM
 62
     8
100
AcDbCircle
 10
178.5407495186369
 20
94.54595483952289
 30
0.0
 40
5.199991271650611
100
AcDbArc
 50
37.92532860472995
 51
89.9998031407256
  0
LINE
  5
F6A
330
1A
100
AcDbEntity
  8
NOKITOI
  6
PHANTOM
 62
     8
100
AcDbLine
 10
70.0327673849884
 20
99.74594611114298
 30
0.0
 11
71.02856738498809
 21
100.8459461111431
 31
0.0
  0
LINE
  5
F6B
330
1A
100
AcDbEntity
  8
NOKITOI
  6
PHANTOM
 62
     8
100
AcDbLine
 10
72.58076738498818
 20
95.51974611114292
 30
0.0
 11
72.89656738498803
 21
101.5196461111429
 31
0.0
  0
LINE
  5
F6C
330
1A
100
AcDbEntity
  8
NOKITOI
  6
PHANTOM
 62
     8
100
AcDbLine
 10
64.12026738498806
 20
102.4834461111429
 30
0.0
 11
64.51046738498789
 21
89.99914611114286
 31
0.0
  0
LINE
  5
F6D
330
1A
100
AcDbEntity
  8
NOKITOI
  6
PHANTOM
 62
     8
100
AcDbLine
 10
65.31966738498846
 20
102.5209461111428
 30
0.0
 11
65.4690673849878
 21
97.74204611114306
 31
0.0
  0
ARC
  5
F6E
330
1A
100
AcDbEntity
  8
NOKITOI
  6
PHANTOM
 62
     8
100
AcDbCircle
 10
69.57098759765727
 20
94.54600483952299
 30
0.0
 40
5.2000412730095
100
AcDbArc
 50
90.0013245430618
 51
142.0757990790551
  0
ARC
  5
F6F
330
1A
100
AcDbEntity
  8
NOKITOI
  6
PHANTOM
 62
     8
100
AcDbCircle
 10
115.869373466956
 20
92.54594048648664
 30
0.0
 40
41.79999437547816
100
AcDbArc
 50
184.4742952125247
 51
269.999854592109
  0
ARC
  5
F70
330
1A
100
AcDbEntity
  8
NOKITOI
  6
PHANTOM
 62
     8
100
AcDbCircle
 10
115.8693511585307
 20
92.54596058751303
 30
0.0
 40
43.00001447645168
100
AcDbArc
 50
186.5249107071177
 51
269.9998883751437
  0
ARC
  5
F71
330
1A
100
AcDbEntity
  8
NOKITOI
  6
PHANTOM
 62
     8
100
AcDbCircle
 10
66.00970334413893
 20
90.04591125699972
 30
0.0
 40
1.499965146287778
100
AcDbArc
 50
181.7866280217767
 51
269.9986264296971
  0
ARC
  5
F72
330
1A
100
AcDbEntity
  8
NOKITOI
  6
PHANTOM
 62
     8
100
AcDbCircle
 10
72.1543589608255
 20
87.54595362619943
 30
0.0
 40
0.9999924849789756
100
AcDbArc
 50
6.528264606673934
 51
89.99951732740965
  0
LINE
  5
F73
330
1A
100
AcDbEntity
  8
NOKITOI
  6
PHANTOM
 62
     8
100
AcDbLine
 10
73.69826738498847
 20
89.74594611114298
 30
0.0
 11
67.65736738498805
 21
89.74594611114298
 31
0.0
  0
LINE
  5
F74
330
1A
100
AcDbEntity
  8
NOKITOI
  6
PHANTOM
 62
     8
100
AcDbLine
 10
69.33736738498788
 20
95.61674611114312
 30
0.0
 11
69.67106738498802
 21
97.95294611114309
 31
0.0
  0
LINE
  5
F75
330
1A
100
AcDbEntity
  8
NOKITOI
  6
PHANTOM
 62
     8
100
AcDbLine
 10
72.08136738498803
 20
95.04594611114294
 30
0.0
 11
69.83226738498803
 21
95.04594611114294
 31
0.0
  0
ARC
  5
F76
330
1A
100
AcDbEntity
  8
NOKITOI
  6
PHANTOM
 62
     8
100
AcDbCircle
 10
69.83229398558575
 20
95.5459154342609
 30
0.0
 40
0.4999693238254178
100
AcDbArc
 50
171.8555038770531
 51
269.9969516090356
  0
ARC
  5
F77
330
1A
100
AcDbEntity
  8
NOKITOI
  6
PHANTOM
 62
     8
100
AcDbCircle
 10
72.0813604979931
 20
95.54593957605744
 30
0.0
 40
0.499993464961963
100
AcDbArc
 50
270.0007892017869
 51
356.997036131742
  0
LINE
  5
F78
330
1A
100
AcDbEntity
  8
NOKITOI
  6
PHANTOM
 62
     8
100
AcDbLine
 10
71.41726738498807
 20
96.24594611114298
 30
0.0
 11
70.63936738498847
 21
96.24594611114298
 31
0.0
  0
LINE
  5
F79
330
1A
100
AcDbEntity
  8
NOKITOI
  6
PHANTOM
 62
     8
100
AcDbLine
 10
71.04346738498822
 20
99.07434611114286
 30
0.0
 11
71.59846738498806
 21
99.68744611114312
 31
0.0
  0
LINE
  5
F7A
330
1A
100
AcDbEntity
  8
NOKITOI
  6
PHANTOM
 62
     8
100
AcDbLine
 10
70.63936738498847
 20
96.24594611114298
 30
0.0
 11
71.04346738498822
 21
99.07434611114286
 31
0.0
  0
ARC
  5
F7B
330
1A
100
AcDbEntity
  8
NOKITOI
  6
PHANTOM
 62
     8
100
AcDbCircle
 10
69.17608160340347
 20
98.02363147684197
 30
0.0
 40
0.5000073448410256
100
AcDbArc
 50
351.872947864124
 51
96.47829282996916
  0
LINE
  5
F7C
330
1A
100
AcDbEntity
  8
NOKITOI
  6
PHANTOM
 62
     8
100
AcDbLine
 10
70.0327673849884
 20
99.74594611114298
 30
0.0
 11
69.57086738498816
 21
99.74594611114298
 31
0.0
  0
LINE
  5
F7D
330
1A
100
AcDbEntity
  8
NOKITOI
  6
PHANTOM
 62
     8
100
AcDbLine
 10
71.41726738498807
 20
96.24594611114298
 30
0.0
 11
71.59846738498806
 21
99.68744611114312
 31
0.0
  0
LINE
  5
F7E
330
1A
100
AcDbEntity
  8
NOKITOI
  6
PHANTOM
 62
     8
100
AcDbLine
 10
66.00966738498806
 20
88.54594611114293
 30
0.0
 11
72.15436738498789
 21
88.54594611114293
 31
0.0
  0
LINE
  5
F7F
330
1A
100
AcDbEntity
  8
NOKITOI
  6
PHANTOM
 62
     8
100
AcDbLine
 10
65.6583673849878
 20
91.68354611114295
 30
0.0
 11
65.57286738498811
 21
94.42104611114292
 31
0.0
  0
ARC
  5
F80
330
1A
100
AcDbEntity
  8
NOKITOI
  6
PHANTOM
 62
     8
100
AcDbCircle
 10
69.57090526643475
 20
94.54598989366832
 30
0.0
 40
3.999989731271038
100
AcDbArc
 50
96.4773114201311
 51
181.7899836067311
  0
ARC
  5
F81
330
1A
100
AcDbEntity
  8
NOKITOI
  6
PHANTOM
 62
     8
100
AcDbCircle
 10
67.65738095712646
 20
91.74593295605655
 30
0.0
 40
1.999986844959662
100
AcDbArc
 50
181.7875531852356
 51
269.9996111843215
  0
ARC
  5
F82
330
1A
100
AcDbEntity
  8
NOKITOI
  6
PHANTOM
 62
     8
100
AcDbCircle
 10
73.69827995469638
 20
89.24593448641326
 30
0.0
 40
0.5000116248877111
100
AcDbArc
 50
4.474846808342103
 51
90.00144034898383
  0
LINE
  5
F83
330
1A
100
AcDbEntity
  8
NOKITOI
  6
PHANTOM
 62
     8
100
AcDbLine
 10
170.7508673849884
 20
59.02864611114296
 30
0.0
 11
160.7655673849881
 21
50.85884611114284
 31
0.0
  0
LINE
  5
F84
330
1A
100
AcDbEntity
  8
NOKITOI
  6
PHANTOM
 62
     8
100
AcDbLine
 10
171.735167384988
 20
58.2835461111431
 30
0.0
 11
161.332067384988
 21
49.77184611114307
 31
0.0
  0
LINE
  5
F85
330
1A
100
AcDbEntity
  8
NOKITOI
  6
PHANTOM
 62
     8
100
AcDbLine
 10
115.869367384988
 20
50.74594611114298
 30
0.0
 11
160.448967384988
 21
50.74584611114301
 31
0.0
  0
LINE
  5
F86
330
1A
100
AcDbEntity
  8
NOKITOI
  6
PHANTOM
 62
     8
100
AcDbLine
 10
160.6987673849881
 20
49.54584611114296
 30
0.0
 11
115.869367384988
 21
49.54594611114294
 31
0.0
  0
LINE
  5
F87
330
1A
100
AcDbEntity
  8
NOKITOI
  6
PHANTOM
 62
     8
100
AcDbLine
 10
156.448967384988
 20
50.74584611114301
 30
0.0
 11
136.5408673849884
 21
50.74584611114301
 31
0.0
  0
LINE
  5
F88
330
1A
100
AcDbEntity
  8
NOKITOI
  6
PHANTOM
 62
     8
100
AcDbLine
 10
156.6987673849881
 20
49.54584611114296
 30
0.0
 11
136.5408673849884
 21
49.54584611114296
 31
0.0
  0
ARC
  5
F89
330
1A
100
AcDbEntity
  8
NOKITOI
  6
PHANTOM
 62
     8
100
AcDbCircle
 10
160.4489737727367
 20
51.24584839113254
 30
0.0
 40
0.5000022800304047
100
AcDbArc
 50
269.9992680212791
 51
309.2854498596061
  0
ARC
  5
F8A
330
1A
100
AcDbEntity
  8
NOKITOI
  6
PHANTOM
 62
     8
100
AcDbCircle
 10
160.6987604524106
 20
50.54584363613685
 30
0.0
 40
0.9999975250179316
100
AcDbArc
 50
270.0003972084035
 51
309.2946416752297
  0
LINE
  5
F8B
330
1A
100
AcDbEntity
  8
NOKITOI
  6
PHANTOM
 62
     8
100
AcDbLine
 10
173.9247673849882
 20
89.29574611114299
 30
0.0
 11
170.9317673849878
 21
59.36594611114287
 31
0.0
  0
LINE
  5
F8C
330
1A
100
AcDbEntity
  8
NOKITOI
  6
PHANTOM
 62
     8
100
AcDbLine
 10
174.9657673849883
 20
87.64544611114297
 30
0.0
 11
172.0969673849882
 21
58.95804611114295
 31
0.0
  0
ARC
  5
F8D
330
1A
100
AcDbEntity
  8
NOKITOI
  6
PHANTOM
 62
     8
100
AcDbCircle
 10
170.4342499591098
 20
59.415613624755
 30
0.0
 40
0.4999904508696396
100
AcDbArc
 50
309.2900846377951
 51
354.2990110749239
  0
ARC
  5
F8E
330
1A
100
AcDbEntity
  8
NOKITOI
  6
PHANTOM
 62
     8
100
AcDbCircle
 10
171.1019448121192
 20
59.05750403947036
 30
0.0
 40
0.9999908507640039
100
AcDbArc
 50
309.288709223069
 51
354.2862329477532
  0
ARC
  5
F8F
330
1A
100
AcDbEntity
  8
NOKITOI
  6
PHANTOM
 62
     8
100
AcDbCircle
 10
178.5407364580519
 20
94.54598185580676
 30
0.0
 40
3.99998565374706
100
AcDbArc
 50
358.208696659101
 51
83.52422380468341
  0
LINE
  5
F90
330
1A
100
AcDbEntity
  8
NOKITOI
  6
PHANTOM
 62
     8
100
AcDbLine
 10
174.4222673849877
 20
89.74594611114298
 30
0.0
 11
180.4541673849881
 21
89.74594611114298
 31
0.0
  0
LINE
  5
F91
330
1A
100
AcDbEntity
  8
NOKITOI
  6
PHANTOM
 62
     8
100
AcDbLine
 10
182.1018673849881
 20
88.54594611114293
 30
0.0
 11
175.9607673849882
 21
88.54594611114293
 31
0.0
  0
ARC
  5
F92
330
1A
100
AcDbEntity
  8
NOKITOI
  6
PHANTOM
 62
     8
100
AcDbCircle
 10
175.960788034829
 20
87.54596479899214
 30
0.0
 40
0.9999813123640345
100
AcDbArc
 50
90.00118317084911
 51
174.2905900333514
  0
LINE
  5
F93
330
1A
100
AcDbEntity
  8
NOKITOI
  6
PHANTOM
 62
     8
100
AcDbLine
 10
178.774267384988
 20
95.61664611114293
 30
0.0
 11
178.4404673849881
 21
97.95284611114311
 31
0.0
  0
ARC
  5
F94
330
1A
100
AcDbEntity
  8
NOKITOI
  6
PHANTOM
 62
     8
100
AcDbCircle
 10
178.2792775714242
 20
95.54595785586707
 30
0.0
 40
0.5000117448278309
100
AcDbArc
 50
269.9988327478016
 51
8.127314608715551
  0
ARC
  5
F95
330
1A
100
AcDbEntity
  8
NOKITOI
  6
PHANTOM
 62
     8
100
AcDbCircle
 10
176.0301715063947
 20
95.54594220111244
 30
0.0
 40
0.4999960899864752
100
AcDbArc
 50
183.0147243791741
 51
269.9995277178593
  0
LINE
  5
F96
330
1A
100
AcDbEntity
  8
NOKITOI
  6
PHANTOM
 62
     8
100
AcDbLine
 10
176.0301673849881
 20
95.04594611114294
 30
0.0
 11
178.2792673849876
 21
95.04594611114294
 31
0.0
  0
ARC
  5
F97
330
1A
100
AcDbEntity
  8
NOKITOI
  6
PHANTOM
 62
     8
100
AcDbCircle
 10
178.9354967574877
 20
98.02357634363785
 30
0.0
 40
0.4999578477751074
100
AcDbArc
 50
83.5260907122076
 51
188.1330561712932
  0
LINE
  5
F98
330
1A
100
AcDbEntity
  8
NOKITOI
  6
PHANTOM
 62
     8
100
AcDbLine
 10
178.0787673849882
 20
99.74594611114298
 30
0.0
 11
178.5407673849882
 21
99.74594611114298
 31
0.0
  0
LINE
  5
F99
330
1A
100
AcDbEntity
  8
NOKITOI
  6
PHANTOM
 62
     8
100
AcDbLine
 10
177.0681673849881
 20
99.07434611114286
 30
0.0
 11
176.5131673849878
 21
99.68734611114292
 31
0.0
  0
LINE
  5
F9A
330
1A
100
AcDbEntity
  8
NOKITOI
  6
PHANTOM
 62
     8
100
AcDbLine
 10
176.6942673849881
 20
96.24594611114298
 30
0.0
 11
177.4721673849876
 21
96.24594611114298
 31
0.0
  0
LINE
  5
F9B
330
1A
100
AcDbEntity
  8
NOKITOI
  6
PHANTOM
 62
     8
100
AcDbLine
 10
176.6942673849881
 20
96.24594611114298
 30
0.0
 11
176.5131673849878
 21
99.68734611114292
 31
0.0
  0
LINE
  5
F9C
330
1A
100
AcDbEntity
  8
NOKITOI
  6
PHANTOM
 62
     8
100
AcDbLine
 10
177.4721673849876
 20
96.24594611114298
 30
0.0
 11
177.0681673849881
 21
99.07434611114286
 31
0.0
  0
ARC
  5
F9D
330
1A
100
AcDbEntity
  8
NOKITOI
  6
PHANTOM
 62
     8
100
AcDbCircle
 10
174.4222804559927
 20
89.24595794142282
 30
0.0
 40
0.499988169890889
100
AcDbArc
 50
90.00149786226634
 51
174.2966061377162
  0
LINE
  5
F9E
330
1A
100
AcDbEntity
  8
NOKITOI
  6
PHANTOM
 62
     8
100
AcDbLine
 10
182.4532673849881
 20
91.68334611114302
 30
0.0
 11
182.5387673849878
 21
94.42094611114294
 31
0.0
  0
ARC
  5
F9F
330
1A
100
AcDbEntity
  8
NOKITOI
  6
PHANTOM
 62
     8
100
AcDbCircle
 10
180.4542053728123
 20
91.74588293171519
 30
0.0
 40
2.000036820932882
100
AcDbArc
 50
269.9989117490344
 51
358.2110591274195
  0
ARC
  5
FA0
330
1A
100
AcDbEntity
  8
NOKITOI
  6
PHANTOM
 62
     8
100
AcDbCircle
 10
182.1018845981662
 20
90.04596279429074
 30
0.0
 40
1.500016683246579
100
AcDbArc
 50
269.9993425123344
 51
358.2076423244113
  0
ARC
  5
FA1
330
1A
100
AcDbEntity
  8
NOKITOI
  6
PHANTOM
 62
     8
100
AcDbCircle
 10
66.11928013583798
 20
102.5459592662293
 30
0.0
 40
1.999986844954076
100
AcDbArc
 50
90.00036528735451
 51
181.7883072882703
  0
ARC
  5
FA2
330
1A
100
AcDbEntity
  8
NOKITOI
  6
PHANTOM
 62
     8
100
AcDbCircle
 10
72.39716118383018
 20
101.5459526462282
 30
0.0
 40
0.4999934649531607
100
AcDbArc
 50
356.9955363203376
 51
89.99928939038076
  0
LINE
  5
FA3
330
1A
100
AcDbEntity
  8
NOKITOI
  6
PHANTOM
 62
     8
100
AcDbLine
 10
72.39716738498788
 20
102.0459461111429
 30
0.0
 11
70.16566738498801
 21
102.0459461111429
 31
0.0
  0
LINE
  5
FA4
330
1A
100
AcDbEntity
  8
NOKITOI
  6
PHANTOM
 62
     8
100
AcDbLine
 10
69.67536738498807
 20
102.6440461111428
 30
0.0
 11
69.93616738498809
 21
103.9479461111429
 31
0.0
  0
LINE
  5
FA5
330
1A
100
AcDbEntity
  8
NOKITOI
  6
PHANTOM
 62
     8
100
AcDbLine
 10
66.11926738498784
 20
103.3459461111431
 30
0.0
 11
68.5920673849883
 21
103.3459461111431
 31
0.0
  0
ARC
  5
FA6
330
1A
100
AcDbEntity
  8
NOKITOI
  6
PHANTOM
 62
     8
100
AcDbCircle
 10
70.16566013043263
 20
102.5459549609863
 30
0.0
 40
0.5000088498959383
100
AcDbArc
 50
168.6864043304889
 51
270.0008312961442
  0
LINE
  5
FA7
330
1A
100
AcDbEntity
  8
NOKITOI
  6
PHANTOM
 62
     8
100
AcDbLine
 10
66.11926738498784
 20
104.5459461111429
 30
0.0
 11
69.44586738498816
 21
104.5459461111429
 31
0.0
  0
ARC
  5
FA8
330
1A
100
AcDbEntity
  8
NOKITOI
  6
PHANTOM
 62
     8
100
AcDbCircle
 10
69.44586660197962
 20
104.0459470661446
 30
0.0
 40
0.4999990449987349
100
AcDbArc
 50
348.6967198015447
 51
89.99991027369492
  0
LINE
  5
FA9
330
1A
100
AcDbEntity
  8
NOKITOI
  6
PHANTOM
 62
     8
100
AcDbLine
 10
68.09206738498829
 20
100.8459461111431
 30
0.0
 11
71.02856738498809
 21
100.8459461111431
 31
0.0
  0
LINE
  5
FAA
330
1A
100
AcDbEntity
  8
NOKITOI
  6
PHANTOM
 62
     8
100
AcDbLine
 10
68.5920673849883
 20
103.3459461111431
 30
0.0
 11
68.09206738498829
 21
100.8459461111431
 31
0.0
  0
ARC
  5
FAB
330
1A
100
AcDbEntity
  8
NOKITOI
  6
PHANTOM
 62
     8
100
AcDbCircle
 10
66.11927187978614
 20
102.5459507486698
 30
0.0
 40
0.7999953624857498
100
AcDbArc
 50
90.00032191805264
 51
181.7911273464193
  0
LINE
  5
FAC
330
1A
100
AcDbEntity
  8
NOKITOI
  6
PHANTOM
 62
     8
100
AcDbLine
 10
180.019567384988
 20
100.8459461111431
 30
0.0
 11
177.082967384988
 21
100.8459461111431
 31
0.0
  0
LINE
  5
FAD
330
1A
100
AcDbEntity
  8
NOKITOI
  6
PHANTOM
 62
     8
100
AcDbLine
 10
181.9922673849883
 20
104.5458461111429
 30
0.0
 11
178.665667384988
 21
104.5459461111429
 31
0.0
  0
LINE
  5
FAE
330
1A
100
AcDbEntity
  8
NOKITOI
  6
PHANTOM
 62
     8
100
AcDbLine
 10
178.4361673849881
 20
102.6439461111431
 30
0.0
 11
178.175367384988
 21
103.9479461111429
 31
0.0
  0
ARC
  5
FAF
330
1A
100
AcDbEntity
  8
NOKITOI
  6
PHANTOM
 62
     8
100
AcDbCircle
 10
177.9458666019796
 20
102.5459451561412
 30
0.0
 40
0.4999990449987399
100
AcDbArc
 50
270.000089726305
 51
11.30328019845521
  0
ARC
  5
FB0
330
1A
100
AcDbEntity
  8
NOKITOI
  6
PHANTOM
 62
     8
100
AcDbCircle
 10
178.6656601304326
 20
104.0459372612995
 30
0.0
 40
0.500008849895925
100
AcDbArc
 50
89.99916870385415
 51
191.3135956695126
  0
ARC
  5
FB1
330
1A
100
AcDbEntity
  8
NOKITOI
  6
PHANTOM
 62
     8
100
AcDbCircle
 10
175.7143710944833
 20
101.5459500211736
 30
0.0
 40
0.4999960899831856
100
AcDbArc
 50
90.00042508015082
 51
183.0156217414647
  0
LINE
  5
FB2
330
1A
100
AcDbEntity
  8
NOKITOI
  6
PHANTOM
 62
     8
100
AcDbLine
 10
175.7143673849882
 20
102.0459461111429
 30
0.0
 11
177.9458673849881
 21
102.0459461111429
 31
0.0
  0
ARC
  5
FB3
330
1A
100
AcDbEntity
  8
NOKITOI
  6
PHANTOM
 62
     8
100
AcDbCircle
 10
181.9922561479939
 20
102.54595770496
 30
0.0
 40
1.999988406214315
100
AcDbArc
 50
358.2088726535936
 51
89.99967808195551
  0
ARC
  5
FB4
330
1A
100
AcDbEntity
  8
NOKITOI
  6
PHANTOM
 62
     8
100
AcDbCircle
 10
181.992311351341
 20
102.5459007486699
 30
0.0
 40
0.7999453636812564
100
AcDbArc
 50
358.2123436447881
 51
90.00314907315425
  0
LINE
  5
FB5
330
1A
100
AcDbEntity
  8
NOKITOI
  6
PHANTOM
 62
     8
100
AcDbLine
 10
179.519567384988
 20
103.3459461111431
 30
0.0
 11
180.019567384988
 21
100.8459461111431
 31
0.0
  0
LINE
  5
FB6
330
1A
100
AcDbEntity
  8
NOKITOI
  6
PHANTOM
 62
     8
100
AcDbLine
 10
181.9922673849883
 20
103.3458461111429
 30
0.0
 11
179.519567384988
 21
103.3459461111431
 31
0.0
  0
DIMENSION
  5
1057
330
1A
100
AcDbEntity
  8
SUNPOU
100
AcDbDimension
  2
*D9
 10
40.26780474342058
 20
200.2238245694552
 30
0.0
 11
37.76780474342055
 21
211.2238245894552
 31
0.0
 70
    32
  3
STANDARD
100
AcDbAlignedDimension
 13
66.1530673900701
 23
222.2238246094552
 33
0.0
 14
66.1530673900701
 24
200.2238245694551
 34
0.0
 50
90.0
100
AcDbRotatedDimension
1001
ACAD
1000
DSTYLE
1002
{
1070
    41
1040
3.0
1070
    42
1040
3.0
1070
    43
1040
7.0
1070
    44
1040
1.5
1070
    73
1070
     0
1070
    74
1070
     0
1070
    77
1070
     3
1070
   140
1040
3.0
1070
   141
1040
3.0
1070
   147
1040
1.0
1070
   172
1070
     1
1070
   173
1070
     1
1070
   176
1070
   256
1070
   177
1070
   256
1070
   178
1070
   256
1070
   271
1070
     0
1070
   272
1070
     0
1070
   341
1005
B2
1070
     6
1000
OPEN
1070
     7
1000
OPEN
1002
}
  0
LINE
  5
124F
330
1A
100
AcDbEntity
  8
SEIHIN
100
AcDbLine
 10
129.13909349707
 20
126.1904483322497
 30
0.0
 11
130.0185124550701
 21
129.0668981422497
 31
0.0
  0
ARC
  5
1250
330
1A
100
AcDbEntity
  8
SEIHIN
100
AcDbCircle
 10
175.49491888007
 20
133.0505845522497
 30
0.0
 40
7.000000002888353
100
AcDbArc
 50
277.0000000515624
 51
350.7918455666374
  0
LINE
  5
1251
330
1A
100
AcDbEntity
  8
SEIHIN
100
AcDbLine
 10
190.3531673900701
 20
131.2903456122497
 30
0.0
 11
190.3531673900701
 21
125.2903461122497
 31
0.0
  0
LINE
  5
1252
330
1A
100
AcDbEntity
  8
SEIHIN
100
AcDbLine
 10
195.35316739007
 20
134.8958973922497
 30
0.0
 11
195.35316739007
 21
125.2903461122497
 31
0.0
  0
LINE
  5
1253
330
1A
100
AcDbEntity
  8
SEIHIN
100
AcDbLine
 10
130.97300676007
 20
126.5764712922497
 30
0.0
 11
175.6167884700701
 21
132.0580384322497
 31
0.0
  0
LINE
  5
1254
330
1A
100
AcDbEntity
  8
SEIHIN
100
AcDbLine
 10
127.72008939107
 20
125.6534593822496
 30
0.0
 11
128.87094674807
 21
129.4177441822497
 31
0.0
  0
LINE
  5
127A
330
1A
100
AcDbEntity
  8
SEIHIN
100
AcDbLine
 10
132.78204000107
 20
120.7535336922497
 30
0.0
 11
176.34800429007
 21
126.1027614922497
 31
0.0
  0
LINE
  5
1288
330
1A
100
AcDbEntity
  8
SEIHIN
100
AcDbLine
 10
116.05316739007
 20
93.72555880224973
 30
0.0
 11
127.3435670800701
 21
116.8743086602497
 31
0.0
  0
LINE
  5
128A
330
1A
100
AcDbEntity
  8
SEIHIN
100
AcDbLine
 10
114.6746690080701
 20
104.5862504692496
 30
0.0
 11
122.42683477907
 21
120.4805457322497
 31
0.0
  0
LINE
  5
128C
330
1A
100
AcDbEntity
  8
SEIHIN
100
AcDbLine
 10
117.7737693650701
 20
110.9403478370497
 30
0.0
 11
100.50231841007
 21
110.9403478370497
 31
0.0
  0
LINE
  5
128E
330
1A
100
AcDbEntity
  8
SEIHIN
100
AcDbLine
 10
114.0029103100701
 20
105.7883847432497
 30
0.0
 11
116.4868149310701
 21
108.4259329462497
 31
0.0
  0
LINE
  5
128F
330
1A
100
AcDbEntity
  8
SEIHIN
100
AcDbLine
 10
113.89525130007
 20
105.6740664132497
 30
0.0
 11
116.7829143910701
 21
108.7403478372497
 31
0.0
  0
ARC
  5
1291
330
1A
100
AcDbEntity
  8
SEIHIN
100
AcDbCircle
 10
107.61279887007
 20
101.8518743012497
 30
0.0
 40
9.900000001930276
100
AcDbArc
 50
135.9085674228156
 51
170.5325542703444
  0
LINE
  5
12AA
330
1A
100
AcDbEntity
  8
SEIHIN
100
AcDbLine
 10
100.50231841007
 20
109.9403478370497
 30
0.0
 11
100.50231841007
 21
110.9403478370497
 31
0.0
  0
LINE
  5
12AB
330
1A
100
AcDbEntity
  8
SEIHIN
100
AcDbLine
 10
100.50231841007
 20
108.7403478372497
 30
0.0
 11
100.50231841007
 21
109.9403478370497
 31
0.0
  0
ARC
  5
12C2
330
1A
100
AcDbEntity
  8
SEIHIN
100
AcDbCircle
 10
133.63512540507
 20
113.8057106332497
 30
0.0
 40
6.999999999066965
100
AcDbArc
 50
97.00000000381463
 51
154.0000000071005
  0
ARC
  5
12C3
330
1A
100
AcDbEntity
  8
SEIHIN
100
AcDbCircle
 10
132.31356953707
 20
115.6584636272497
 30
0.0
 40
10.99999999851098
100
AcDbArc
 50
96.9999999995786
 51
154.0000029539838
  0
LINE
  5
12E9
330
1A
100
AcDbEntity
  8
SEIHIN
100
AcDbLine
 10
194.65316739007
 20
125.2903461122497
 30
0.0
 11
194.65316739007
 21
89.29034611224972
 31
0.0
  0
LINE
  5
12EA
330
1A
100
AcDbEntity
  8
SEIHIN
100
AcDbLine
 10
189.1531673900701
 20
89.29034611224972
 30
0.0
 11
189.1531673900701
 21
125.2903461122497
 31
0.0
  0
LINE
  5
12EB
330
1A
100
AcDbEntity
  8
SEIHIN
100
AcDbLine
 10
195.8531673900701
 20
125.2903461122497
 30
0.0
 11
195.8531673900701
 21
89.29034611224972
 31
0.0
  0
LINE
  5
12EC
330
1A
100
AcDbEntity
  8
SEIHIN
100
AcDbLine
 10
195.8531673900701
 20
89.29034611224972
 30
0.0
 11
189.1531673900701
 21
89.29034611224972
 31
0.0
  0
LINE
  5
12F1
330
1A
100
AcDbEntity
  8
SEIHIN
100
AcDbLine
 10
189.1531673900701
 20
125.2903461122497
 30
0.0
 11
195.8531673900701
 21
125.2903461122497
 31
0.0
  0
LINE
  5
12F7
330
1A
100
AcDbEntity
  8
SEIHIN
100
AcDbLine
 10
130.0185124550701
 20
129.0668981422497
 30
0.0
 11
128.87094674807
 21
129.4177441822497
 31
0.0
  0
ARC
  5
12F8
330
1A
100
AcDbEntity
  8
SEIHIN
100
AcDbCircle
 10
186.35316739007
 20
131.2903461122497
 30
0.0
 40
10.0000000019366
100
AcDbArc
 50
31.0027191558833
 51
170.7918456273463
  0
ARC
  5
12FA
330
1A
100
AcDbEntity
  8
SEIHIN
100
AcDbCircle
 10
175.49491888007
 20
133.0505845522497
 30
0.0
 40
0.9999999993115235
100
AcDbArc
 50
277.0000142444688
 51
350.791845391947
  0
ARC
  5
12FB
330
1A
100
AcDbEntity
  8
SEIHIN
100
AcDbCircle
 10
186.35316739007
 20
131.2903461122497
 30
0.0
 40
3.99999999835207
100
AcDbArc
 50
359.9999928380284
 51
170.7918456747324
  0
ARC
  5
12FC
330
1A
100
AcDbEntity
  8
SEIHIN
100
AcDbCircle
 10
192.3531673900701
 20
134.8958973922497
 30
0.0
 40
2.999999999152584
100
AcDbArc
 50
0.0
 51
31.0027191329789
  0
LINE
  5
12FD
330
1A
100
AcDbEntity
  8
SEIHIN
  6
DASHED
 62
     2
100
AcDbLine
 10
230.35316737007
 20
134.8958973922497
 30
0.0
 11
230.35316737007
 21
125.2903461122497
 31
0.0
  0
LINE
  5
12FE
330
1A
100
AcDbEntity
  8
SEIHIN
  6
DASHED
 62
     2
100
AcDbLine
 10
225.35316737007
 20
131.2903456122497
 30
0.0
 11
225.35316737007
 21
125.2903461122497
 31
0.0
  0
LINE
  5
12FF
330
1A
100
AcDbEntity
  8
SEIHIN
  6
DASHED
 62
     2
100
AcDbLine
 10
230.85316737007
 20
125.2903461122497
 30
0.0
 11
230.85316737007
 21
89.29034611224972
 31
0.0
  0
LINE
  5
1300
330
1A
100
AcDbEntity
  8
SEIHIN
  6
DASHED
 62
     2
100
AcDbLine
 10
224.1531673900701
 20
89.29034611224972
 30
0.0
 11
224.1531673900701
 21
125.2903461122497
 31
0.0
  0
LINE
  5
1301
330
1A
100
AcDbEntity
  8
SEIHIN
  6
DASHED
 62
     2
100
AcDbLine
 10
229.65316737007
 20
125.2903461122497
 30
0.0
 11
229.65316737007
 21
89.29034611224972
 31
0.0
  0
LINE
  5
1302
330
1A
100
AcDbEntity
  8
SEIHIN
  6
DASHED
 62
     2
100
AcDbLine
 10
230.85316737007
 20
89.29034611224972
 30
0.0
 11
224.1531673900701
 21
89.29034611224972
 31
0.0
  0
LINE
  5
1303
330
1A
100
AcDbEntity
  8
SEIHIN
  6
DASHED
 62
     2
100
AcDbLine
 10
224.1531673900701
 20
125.2903461122497
 30
0.0
 11
230.85316737007
 21
125.2903461122497
 31
0.0
  0
ARC
  5
1304
330
1A
100
AcDbEntity
  8
SEIHIN
  6
DASHED
 62
     2
100
AcDbCircle
 10
221.3531673900701
 20
131.2903461122497
 30
0.0
 40
10.00000000622232
100
AcDbArc
 50
31.00271912637082
 51
170.7918456273463
  0
ARC
  5
1305
330
1A
100
AcDbEntity
  8
SEIHIN
  6
DASHED
 62
     2
100
AcDbCircle
 10
221.3531673900701
 20
131.2903461122497
 30
0.0
 40
3.999999988352069
100
AcDbArc
 50
359.9999928380284
 51
170.7918456747324
  0
ARC
  5
1306
330
1A
100
AcDbEntity
  8
SEIHIN
100
AcDbCircle
 10
227.35316737007
 20
134.8958973922497
 30
0.0
 40
3.000000012009731
100
AcDbArc
 50
0.0
 51
31.00271883786024
  0
DIMENSION
  5
15DD
330
1A
100
AcDbEntity
  8
SUNPOU
100
AcDbDimension
  2
*D10
 10
195.8531673900701
 20
161.4704593147251
 30
0.0
 11
131.00311739007
 21
163.9704593147252
 31
0.0
 70
    32
  3
STANDARD
100
AcDbAlignedDimension
 13
66.15306739007007
 23
93.4903461122497
 33
0.0
 14
195.8531673900701
 24
125.2903461122497
 34
0.0
100
AcDbRotatedDimension
1001
ACAD
1000
DSTYLE
1002
{
1070
    41
1040
3.0
1070
    42
1040
3.0
1070
    43
1040
7.0
1070
    44
1040
1.5
1070
    73
1070
     0
1070
    74
1070
     0
1070
    77
1070
     3
1070
   140
1040
3.0
1070
   141
1040
3.0
1070
   147
1040
1.0
1070
   172
1070
     1
1070
   173
1070
     1
1070
   176
1070
   256
1070
   177
1070
   256
1070
   178
1070
   256
1070
   271
1070
     0
1070
   272
1070
     0
1070
   341
1005
B2
1070
     6
1000
OPEN
1070
     7
1000
OPEN
1002
}
  0
DIMENSION
  5
15EA
330
1A
100
AcDbEntity
  8
SUNPOU
100
AcDbDimension
  2
*D11
 10
230.85316737007
 20
161.4704593147251
 30
0.0
 11
213.3531673800701
 21
163.9704593147252
 31
0.0
 70
    32
  3
STANDARD
100
AcDbAlignedDimension
 13
195.8531673900701
 23
125.2903461122497
 33
0.0
 14
230.85316737007
 24
125.2903461122497
 34
0.0
100
AcDbRotatedDimension
1001
ACAD
1000
DSTYLE
1002
{
1070
    41
1040
3.0
1070
    42
1040
3.0
1070
    43
1040
7.0
1070
    44
1040
1.5
1070
    73
1070
     0
1070
    74
1070
     0
1070
    77
1070
     3
1070
   140
1040
3.0
1070
   141
1040
3.0
1070
   147
1040
1.0
1070
   172
1070
     1
1070
   173
1070
     1
1070
   176
1070
   256
1070
   177
1070
   256
1070
   178
1070
   256
1070
   271
1070
     0
1070
   272
1070
     0
1070
   341
1005
B2
1070
     6
1000
OPEN
1070
     7
1000
OPEN
1002
}
  0
DIMENSION
  5
15F7
330
1A
100
AcDbEntity
  8
SUNPOU
100
AcDbDimension
  2
*D12
 10
44.70482238663771
 20
89.29034611224976
 30
0.0
 11
42.2048223866377
 21
93.78072532470879
 31
0.0
 70
    32
  3
STANDARD
100
AcDbAlignedDimension
 13
69.32766156117681
 23
98.2711045371678
 33
0.0
 14
189.1531673900701
 24
89.29034611224972
 34
0.0
 50
90.0
100
AcDbRotatedDimension
1001
ACAD
1000
DSTYLE
1002
{
1070
    41
1040
3.0
1070
    42
1040
3.0
1070
    43
1040
7.0
1070
    44
1040
1.5
1070
    73
1070
     0
1070
    74
1070
     0
1070
    77
1070
     3
1070
   140
1040
3.0
1070
   141
1040
3.0
1070
   147
1040
1.0
1070
   172
1070
     1
1070
   173
1070
     1
1070
   176
1070
   256
1070
   177
1070
   256
1070
   178
1070
   256
1070
   271
1070
     0
1070
   272
1070
     0
1070
   341
1005
B2
1070
     6
1000
OPEN
1070
     7
1000
OPEN
1002
}
  0
DIMENSION
  5
1604
330
1A
100
AcDbEntity
  8
SUNPOU
100
AcDbDimension
  2
*D13
 10
212.2842736572488
 20
89.29034611224972
 30
0.0
 11
209.7842736572487
 21
115.290346113218
 31
0.0
 70
    32
  3
STANDARD
100
AcDbAlignedDimension
 13
186.35316739007
 23
141.2903461141863
 33
0.0
 14
195.8531673900701
 24
89.29034611224972
 34
0.0
 50
90.0
100
AcDbRotatedDimension
1001
ACAD
1000
DSTYLE
1002
{
1070
    41
1040
3.0
1070
    42
1040
3.0
1070
    43
1040
7.0
1070
    44
1040
1.5
1070
    73
1070
     0
1070
    74
1070
     0
1070
    77
1070
     3
1070
   140
1040
3.0
1070
   141
1040
3.0
1070
   147
1040
1.0
1070
   172
1070
     1
1070
   173
1070
     1
1070
   176
1070
   256
1070
   177
1070
   256
1070
   178
1070
   256
1070
   271
1070
     0
1070
   272
1070
     0
1070
   341
1005
B2
1070
     6
1000
OPEN
1070
     7
1000
OPEN
1002
}
  0
DIMENSION
  5
1681
330
1A
100
AcDbEntity
  8
SUNPOU
100
AcDbDimension
  2
*D14
 10
203.8574082299555
 20
89.29034611224972
 30
0.0
 11
201.3574082299555
 21
107.2903461122497
 31
0.0
 70
    32
  3
STANDARD
100
AcDbAlignedDimension
 13
195.8531673900701
 23
125.2903461122497
 33
0.0
 14
195.8531673900701
 24
89.29034611224972
 34
0.0
 50
90.0
100
AcDbRotatedDimension
1001
ACAD
1000
DSTYLE
1002
{
1070
    41
1040
3.0
1070
    42
1040
3.0
1070
    43
1040
7.0
1070
    44
1040
1.5
1070
    73
1070
     0
1070
    74
1070
     0
1070
    77
1070
     3
1070
   140
1040
3.0
1070
   141
1040
3.0
1070
   147
1040
1.0
1070
   172
1070
     1
1070
   173
1070
     1
1070
   176
1070
   256
1070
   177
1070
   256
1070
   178
1070
   256
1070
   271
1070
     0
1070
   272
1070
     0
1070
   341
1005
B2
1070
     6
1000
OPEN
1070
     7
1000
OPEN
1002
}
  0
DIMENSION
  5
16BB
330
1A
100
AcDbEntity
  8
SUNPOU
100
AcDbDimension
  2
*D15
 10
195.8531673900701
 20
152.7282558254611
 30
0.0
 11
190.0031673900701
 21
155.2282558254611
 31
0.0
 70
    32
  3
STANDARD
100
AcDbAlignedDimension
 13
184.1531673900701
 23
101.8126692332497
 33
0.0
 14
195.8531673900701
 24
125.2903461122497
 34
0.0
100
AcDbRotatedDimension
1001
ACAD
1000
DSTYLE
1002
{
1070
    41
1040
3.0
1070
    42
1040
3.0
1070
    43
1040
7.0
1070
    44
1040
1.5
1070
    73
1070
     0
1070
    74
1070
     0
1070
    77
1070
     3
1070
   140
1040
3.0
1070
   141
1040
3.0
1070
   147
1040
1.0
1070
   172
1070
     1
1070
   173
1070
     1
1070
   176
1070
   256
1070
   177
1070
   256
1070
   178
1070
   256
1070
   271
1070
     0
1070
   272
1070
     0
1070
   341
1005
B2
1070
     6
1000
OPEN
1070
     7
1000
OPEN
1002
}
  0
TEXT
  5
1765
330
1A
100
AcDbEntity
  8
SUNPOU
100
AcDbText
 10
216.0013509954958
 20
166.9955370428757
 30
0.0
 40
3.0
  1
（スライド幅）
100
AcDbText
  0
LWPOLYLINE
  5
18D2
330
1A
100
AcDbEntity
  8
ZUWAKU
100
AcDbPolyline
 90
        4
 70
     1
 43
0.0
 10
0.4000003632512517
 20
275.4000002150744
 10
0.4000003632512517
 20
0.400000215074499
 10
398.4000003632512
 20
0.400000215074499
 10
398.4000003632512
 20
275.4000002150744
  0
LWPOLYLINE
  5
18D3
330
1A
100
AcDbEntity
  8
ZUWAKU
100
AcDbPolyline
 90
        4
 70
     1
 43
0.0
 10
0.200000363251263
 20
275.6000002150745
 10
0.200000363251263
 20
0.2000002150745104
 10
398.6000003632513
 20
0.2000002150744988
 10
398.6000003632513
 20
275.6000002150745
  0
LWPOLYLINE
  5
18D4
330
1A
100
AcDbEntity
  8
ZUWAKU
100
AcDbPolyline
 90
        4
 70
     1
 43
0.0
 10
0.0000003632512744
 20
275.8000002150744
 10
0.0000003632512744
 20
0.0000002150744649
 10
398.8000003632513
 20
0.0000002150744987
 10
398.8000003632513
 20
275.8000002150745
  0
LWPOLYLINE
  5
18D5
330
1A
100
AcDbEntity
  8
ZUWAKU
100
AcDbPolyline
 90
        4
 70
     1
 43
0.0
 10
0.3000003632512289
 20
275.5000002150745
 10
0.3000003632512289
 20
0.3000002150744763
 10
398.5000003632514
 20
0.3000002150744994
 10
398.5000003632512
 20
275.5000002150745
  0
LWPOLYLINE
  5
18D6
330
1A
100
AcDbEntity
  8
ZUWAKU
100
AcDbPolyline
 90
        4
 70
     1
 43
0.0
 10
0.1000003632512403
 20
275.7000002150745
 10
0.1000003632512403
 20
0.1000002150744876
 10
398.7000003632512
 20
0.1000002150744992
 10
398.7000003632513
 20
275.7000002150745
  0
LINE
  5
18D7
330
1A
100
AcDbEntity
  8
ZUWAKU
100
AcDbLine
 10
0.0000003632512744
 20
15.00000021507446
 30
0.0
 11
398.7000003632512
 21
15.00000021507446
 31
0.0
  0
LINE
  5
18D8
330
1A
100
AcDbEntity
  8
ZUWAKU
100
AcDbLine
 10
0.0000003632512744
 20
15.10000021507446
 30
0.0
 11
398.7000003632512
 21
15.10000021507446
 31
0.0
  0
LINE
  5
18D9
330
1A
100
AcDbEntity
  8
ZUWAKU
100
AcDbLine
 10
0.0000003632512744
 20
15.20000021507446
 30
0.0
 11
398.7000003632512
 21
15.20000021507446
 31
0.0
  0
LINE
  5
18DA
330
1A
100
AcDbEntity
  8
ZUWAKU
100
AcDbLine
 10
0.0000003632512744
 20
15.30000021507446
 30
0.0
 11
398.7000003632512
 21
15.30000021507446
 31
0.0
  0
LINE
  5
18DB
330
1A
100
AcDbEntity
  8
ZUWAKU
100
AcDbLine
 10
0.0000003632512744
 20
15.40000021507447
 30
0.0
 11
398.7000003632512
 21
15.40000021507447
 31
0.0
  0
LINE
  5
18DC
330
1A
100
AcDbEntity
  8
ZUWAKU
100
AcDbLine
 10
104.3233010082852
 20
7.700000215074481
 30
0.0
 11
223.7121823487469
 21
7.700000215074481
 31
0.0
  0
LINE
  5
18DD
330
1A
100
AcDbEntity
  8
ZUWAKU
100
AcDbLine
 10
104.3233010082852
 20
7.800000215074481
 30
0.0
 11
223.7121823487469
 21
7.800000215074485
 31
0.0
  0
LINE
  5
18DE
330
1A
100
AcDbEntity
  8
ZUWAKU
100
AcDbLine
 10
104.3233010082852
 20
7.600000215074484
 30
0.0
 11
223.7121823487469
 21
7.60000021507448
 31
0.0
  0
TEXT
  5
18DF
330
1A
100
AcDbEntity
  8
MOJI
100
AcDbText
 10
46.47889515733583
 20
6.370589280211845
 30
0.0
 40
3.0
  1
新・丸トップＲＶ１０５
 41
0.9
  7
ｽﾀｲﾙ1
100
AcDbText
  0
CIRCLE
  5
18E0
330
1A
100
AcDbEntity
  8
ZUWAKU
100
AcDbCircle
 10
12.99610644064182
 20
7.600000215074466
 30
0.0
 40
0.875
  0
LINE
  5
18E1
330
1A
100
AcDbEntity
  8
ZUWAKU
100
AcDbLine
 10
13.43360644064182
 20
3.575000215074467
 30
0.0
 11
12.47110644064184
 21
3.575000215074467
 31
0.0
  0
LINE
  5
18E2
330
1A
100
AcDbEntity
  8
ZUWAKU
100
AcDbLine
 10
12.47110644064184
 20
4.975000215074466
 30
0.0
 11
13.43360644064182
 21
4.975000215074466
 31
0.0
  0
LINE
  5
18E3
330
1A
100
AcDbEntity
  8
ZUWAKU
100
AcDbLine
 10
13.43360644064182
 20
10.22500021507446
 30
0.0
 11
12.47110644064184
 21
10.22500021507446
 31
0.0
  0
LINE
  5
18E4
330
1A
100
AcDbEntity
  8
ZUWAKU
100
AcDbLine
 10
12.47110644064184
 20
11.62500021507444
 30
0.0
 11
13.43360644064182
 21
11.62500021507446
 31
0.0
  0
HATCH
  5
18E5
330
1A
100
AcDbEntity
  8
ZUWAKU
100
AcDbHatch
 10
0.0
 20
0.0
 30
0.0
210
0.0
220
0.0
230
1.0
  2
ANSI37
 70
     0
 71
     0
 91
        8
 92
        7
 72
     1
 73
     1
 93
       24
 10
7.251131693811203
 20
8.822424455566256
 42
-0.1989123673796348
 10
7.046106440641835
 20
9.317399202396781
 42
0.0
 10
7.046106440641835
 20
9.96250021507447
 42
-0.4142135623730912
 10
7.308606440641824
 20
10.22500021507446
 42
0.0
 10
8.796106440641779
 20
10.22500021507446
 42
0.4142135623731546
 10
9.058606440641824
 20
10.48750021507446
 42
0.0
 10
9.058606440641824
 20
11.36250021507446
 42
0.4142135623731586
 10
8.796106440641779
 20
11.62500021507446
 42
0.0
 10
7.046106440641835
 20
11.62500021507446
 42
0.4142135623730928
 10
5.646106440641858
 20
10.22500021507448
 42
0.0
 10
5.646106440641858
 20
9.317399202396845
 42
0.1989123673796619
 10
6.261182200150074
 20
7.832474961905042
 42
0.0
 10
7.716081187472411
 20
6.377575974582713
 42
-0.1989123673796613
 10
7.921106440641835
 20
5.88260122775212
 42
0.0
 10
7.921106440641835
 20
5.237500215074462
 42
-0.4142135623730911
 10
7.658606440641847
 20
4.975000215074466
 42
0.0
 10
6.171106440641892
 20
4.975000215074466
 42
0.4142135623731526
 10
5.908606440641847
 20
4.712500215074472
 42
0.0
 10
5.908606440641847
 20
3.837500215074461
 42
0.4142135623731526
 10
6.171106440641892
 20
3.575000215074467
 42
0.0
 10
7.921106440641835
 20
3.575000215074467
 42
0.4142135623731044
 10
9.321106440641869
 20
4.975000215074455
 42
0.0
 10
9.321106440641869
 20
5.882601227752092
 42
0.1989123673796604
 10
8.706030681133597
 20
7.367525468243862
 42
0.0
 97
        0
 92
        7
 72
     1
 73
     1
 93
       16
 10
11.77110644064185
 20
9.52500021507447
 42
-0.4142135623730935
 10
12.47110644064184
 20
10.22500021507446
 42
0.0
 10
13.43360644064182
 20
10.22500021507446
 42
0.4142135623731546
 10
13.69610644064187
 20
10.48750021507446
 42
0.0
 10
13.69610644064187
 20
11.36250021507446
 42
0.4142135623730951
 10
13.43360644064188
 20
11.62500021507446
 42
0.0
 10
12.47110644064179
 20
11.62500021507444
 42
0.4142135623730892
 10
10.37110644064182
 20
9.525000215074435
 42
0.0
 10
10.37110644064182
 20
5.675000215074479
 42
0.4142135623730969
 10
12.47110644064184
 20
3.575000215074467
 42
0.0
 10
13.43360644064182
 20
3.575000215074467
 42
0.4142135623731526
 10
13.69610644064187
 20
3.837500215074461
 42
0.0
 10
13.69610644064187
 20
4.712500215074472
 42
0.4142135623730891
 10
13.43360644064188
 20
4.975000215074466
 42
0.0
 10
12.47110644064184
 20
4.975000215074466
 42
-0.4142135623730928
 10
11.77110644064185
 20
5.67500021507446
 42
0.0
 97
        0
 92
        7
 72
     1
 73
     1
 93
        2
 10
12.12110644064182
 20
7.600000215074466
 42
1.0
 10
13.87110644064182
 20
7.600000215074466
 42
1.0
 97
        0
 92
        7
 72
     1
 73
     1
 93
       26
 10
18.65742968173083
 20
9.60252381185618
 42
0.0
 10
19.18824949829974
 20
11.28345323099097
 42
0.5069206636600134
 10
18.93793404870206
 20
11.62500021507446
 42
0.0
 10
18.08848935889744
 20
11.62500021507446
 42
0.3272098845218764
 10
17.83817390929977
 20
11.44154719915795
 42
0.0
 10
16.90403897198388
 20
8.483453230991006
 42
-0.3272098845219541
 10
16.65372352238614
 20
8.300000215074465
 42
0.0
 10
16.58360644064191
 20
8.300000215074465
 42
-0.4142135623731526
 10
16.32110644064186
 20
8.562500215074459
 42
0.0
 10
16.32110644064186
 20
11.36250021507446
 42
0.4142135623730951
 10
16.05860644064188
 20
11.62500021507446
 42
0.0
 10
15.18360644064182
 20
11.62500021507446
 42
0.4142135623730871
 10
14.92110644064183
 20
11.36250021507447
 42
0.0
 10
14.92110644064183
 20
3.837500215074461
 42
0.4142135623730891
 10
15.18360644064182
 20
3.575000215074467
 42
0.0
 10
16.05860644064182
 20
3.575000215074467
 42
0.4142135623731526
 10
16.32110644064186
 20
3.837500215074461
 42
0.0
 10
16.32110644064186
 20
6.637500215074473
 42
-0.4142135623731526
 10
16.58360644064191
 20
6.900000215074467
 42
0.0
 10
16.6537235223862
 20
6.900000215074467
 42
-0.3272098845218915
 10
16.90403897198388
 20
6.716547199157929
 42
0.0
 10
17.83817390929977
 20
3.758453230991003
 42
0.3272098845218902
 10
18.08848935889744
 20
3.575000215074467
 42
0.0
 10
18.93793404870206
 20
3.575000215074467
 42
0.5069206636600335
 10
19.18824949829974
 20
3.916547199157971
 42
0.0
 10
18.02505380906291
 20
7.600000215074535
 42
0.0
 97
        0
 92
        7
 72
     1
 73
     1
 93
        8
 10
21.74610644064182
 20
11.36250021507447
 42
0.4142135623731546
 10
21.48360644064177
 20
11.62500021507446
 42
0.0
 10
20.60860644064189
 20
11.62500021507446
 42
0.4142135623731507
 10
20.34610644064184
 20
11.36250021507447
 42
0.0
 10
20.34610644064184
 20
3.837500215074461
 42
0.4142135623731526
 10
20.60860644064189
 20
3.575000215074467
 42
0.0
 10
21.48360644064177
 20
3.575000215074467
 42
0.4142135623731526
 10
21.74610644064182
 20
3.837500215074461
 42
0.0
 97
        0
 92
        7
 72
     1
 73
     1
 93
       24
 10
24.19610644064187
 20
9.96250021507447
 42
-0.4142135623731546
 10
24.45860644064191
 20
10.22500021507446
 42
0.0
 10
25.94610644064187
 20
10.22500021507446
 42
0.4142135623730911
 10
26.20860644064185
 20
10.48750021507446
 42
0.0
 10
26.20860644064185
 20
11.36250021507446
 42
0.4142135623730952
 10
25.94610644064187
 20
11.62500021507446
 42
0.0
 10
24.19610644064187
 20
11.62500021507446
 42
0.4142135623731048
 10
22.79610644064183
 20
10.22500021507448
 42
0.0
 10
22.79610644064183
 20
9.317399202396845
 42
0.1989123673796613
 10
23.4111822001501
 20
7.83247496190507
 42
0.0
 10
24.86608118747244
 20
6.377575974582736
 42
-0.1989123673796402
 10
25.07110644064187
 20
5.8826012277522
 42
0.0
 10
25.07110644064187
 20
5.237500215074462
 42
-0.4142135623730911
 10
24.80860644064188
 20
4.975000215074466
 42
0.0
 10
23.32110644064186
 20
4.975000215074466
 42
0.4142135623731526
 10
23.05860644064182
 20
4.712500215074472
 42
0.0
 10
23.05860644064182
 20
3.837500215074461
 42
0.4142135623730891
 10
23.32110644064181
 20
3.575000215074467
 42
0.0
 10
25.07110644064187
 20
3.575000215074467
 42
0.4142135623730925
 10
26.47110644064184
 20
4.975000215074455
 42
0.0
 10
26.47110644064184
 20
5.882601227752092
 42
0.1989123673796675
 10
25.85603068113357
 20
7.367525468243918
 42
0.0
 10
24.40113169381129
 20
8.822424455566176
 42
-0.1989123673796652
 10
24.19610644064187
 20
9.31739920239676
 42
0.0
 97
        0
 92
        7
 72
     1
 73
     1
 93
       16
 10
28.92110644064183
 20
11.36250021507446
 42
0.414213562373103
 10
28.65860644064184
 20
11.62500021507446
 42
0.0
 10
27.78360644064184
 20
11.62500021507446
 42
0.4142135623730871
 10
27.52110644064186
 20
11.36250021507447
 42
0.0
 10
27.52110644064186
 20
4.975000215074455
 42
0.4142135623730926
 10
28.92110644064183
 20
3.575000215074467
 42
0.0
 10
30.67110644064183
 20
3.575000215074467
 42
0.4142135623731044
 10
32.07110644064186
 20
4.975000215074455
 42
0.0
 10
32.07110644064186
 20
11.36250021507446
 42
0.4142135623730951
 10
31.80860644064188
 20
11.62500021507446
 42
0.0
 10
30.93360644064182
 20
11.62500021507446
 42
0.4142135623730871
 10
30.67110644064183
 20
11.36250021507447
 42
0.0
 10
30.67110644064183
 20
5.500000215074454
 42
-0.414213562373088
 10
30.14610644064186
 20
4.975000215074466
 42
0.0
 10
29.44610644064187
 20
4.975000215074466
 42
-0.4142135623731197
 10
28.92110644064183
 20
5.500000215074454
 42
0.0
 97
        0
 92
        7
 72
     1
 73
     1
 93
        8
 10
34.52110644064186
 20
11.36250021507447
 42
0.4142135623730871
 10
34.25860644064186
 20
11.62500021507446
 42
0.0
 10
33.38360644064187
 20
11.62500021507446
 42
0.4142135623731507
 10
33.12110644064182
 20
11.36250021507447
 42
0.0
 10
33.12110644064182
 20
3.837500215074461
 42
0.4142135623730891
 10
33.38360644064181
 20
3.575000215074467
 42
0.0
 10
34.25860644064186
 20
3.575000215074467
 42
0.4142135623730891
 10
34.52110644064186
 20
3.837500215074461
 42
0.0
 97
        0
 75
     0
 76
     1
 52
0.0
 41
0.1
 77
     0
 78
     2
 53
45.0
 43
-450.4711518040882
 44
-6.5999997849255
 45
-0.2245064030267288
 46
0.2245064030267288
 79
     0
 53
135.0
 43
-450.4711518040882
 44
-6.5999997849255
 45
-0.2245064030267288
 46
-0.2245064030267288
 79
     0
 47
0.057451373970553
 98
        8
 10
8.039927844762928
 20
7.583587038017242
 10
11.20225786647085
 20
9.42203130629997
 10
12.5821843060811
 20
7.755941038109824
 10
15.45703035406984
 20
8.100649038295216
 10
20.91923637272964
 20
8.330455172066024
 10
23.44910081081605
 20
9.70928837327807
 10
28.27884334945144
 20
9.364579172621972
 10
33.91354017306264
 20
9.59438530639278
  0
ARC
  5
18E6
330
1A
100
AcDbEntity
  8
ZUWAKU
100
AcDbCircle
 10
7.746106440641824
 20
9.317399202396817
 30
0.0
 40
2.099999999999999
100
AcDbArc
 50
180.0
 51
225.0
  0
LINE
  5
18E7
330
1A
100
AcDbEntity
  8
ZUWAKU
100
AcDbLine
 10
10.37110644064182
 20
5.675000215074469
 30
0.0
 11
10.37110644064182
 21
9.525000215074445
 31
0.0
  0
LINE
  5
18E8
330
1A
100
AcDbEntity
  8
ZUWAKU
100
AcDbLine
 10
11.77110644064185
 20
9.525000215074467
 30
0.0
 11
11.77110644064185
 21
5.675000215074469
 31
0.0
  0
ARC
  5
18E9
330
1A
100
AcDbEntity
  8
ZUWAKU
100
AcDbCircle
 10
7.746106440641824
 20
9.317399202396817
 30
0.0
 40
0.7
100
AcDbArc
 50
180.0000000000016
 51
224.9999999999988
  0
ARC
  5
18EA
330
1A
100
AcDbEntity
  8
ZUWAKU
100
AcDbCircle
 10
12.47110644064184
 20
5.675000215074469
 30
0.0
 40
2.099999999999999
100
AcDbArc
 50
180.0
 51
270.0
  0
ARC
  5
18EB
330
1A
100
AcDbEntity
  8
ZUWAKU
100
AcDbCircle
 10
7.921106440641835
 20
4.975000215074466
 30
0.0
 40
1.399999999999999
100
AcDbArc
 50
270.0
 51
0.0
  0
ARC
  5
18EC
330
1A
100
AcDbEntity
  8
ZUWAKU
100
AcDbCircle
 10
7.221106440641847
 20
5.882601227752118
 30
0.0
 40
2.099999999999999
100
AcDbArc
 50
0.0
 51
45.0
  0
LINE
  5
18ED
330
1A
100
AcDbEntity
  8
ZUWAKU
100
AcDbLine
 10
6.261182200150074
 20
7.832474961905056
 30
0.0
 11
7.716081187472411
 21
6.377575974582725
 31
0.0
  0
LINE
  5
18EE
330
1A
100
AcDbEntity
  8
ZUWAKU
100
AcDbLine
 10
6.171106440641835
 20
4.975000215074466
 30
0.0
 11
7.658606440641847
 21
4.975000215074466
 31
0.0
  0
LINE
  5
18EF
330
1A
100
AcDbEntity
  8
ZUWAKU
100
AcDbLine
 10
6.171106440641835
 20
3.575000215074467
 30
0.0
 11
7.921106440641835
 21
3.575000215074467
 31
0.0
  0
ARC
  5
18F0
330
1A
100
AcDbEntity
  8
ZUWAKU
100
AcDbCircle
 10
6.171106440641835
 20
4.712500215074467
 30
0.0
 40
0.2625
100
AcDbArc
 50
90.0
 51
180.0
  0
ARC
  5
18F1
330
1A
100
AcDbEntity
  8
ZUWAKU
100
AcDbCircle
 10
6.171106440641835
 20
3.837500215074467
 30
0.0
 40
0.2625
100
AcDbArc
 50
180.0
 51
270.0
  0
LINE
  5
18F2
330
1A
100
AcDbEntity
  8
ZUWAKU
100
AcDbLine
 10
5.908606440641847
 20
3.837500215074467
 30
0.0
 11
5.908606440641847
 21
4.712500215074467
 31
0.0
  0
ARC
  5
18F3
330
1A
100
AcDbEntity
  8
ZUWAKU
100
AcDbCircle
 10
7.221106440641847
 20
5.88260122775214
 30
0.0
 40
0.7
100
AcDbArc
 50
0.0
 51
45.0
  0
ARC
  5
18F4
330
1A
100
AcDbEntity
  8
ZUWAKU
100
AcDbCircle
 10
7.658606440641847
 20
5.237500215074469
 30
0.0
 40
0.2625
100
AcDbArc
 50
270.0
 51
0.0
  0
LINE
  5
18F5
330
1A
100
AcDbEntity
  8
ZUWAKU
100
AcDbLine
 10
7.921106440641835
 20
5.237500215074469
 30
0.0
 11
7.921106440641835
 21
5.88260122775214
 31
0.0
  0
LINE
  5
18F6
330
1A
100
AcDbEntity
  8
ZUWAKU
100
AcDbLine
 10
8.706030681133597
 20
7.367525468243879
 30
0.0
 11
7.251131693811259
 21
8.822424455566217
 31
0.0
  0
ARC
  5
18F7
330
1A
100
AcDbEntity
  8
ZUWAKU
100
AcDbCircle
 10
12.47110644064184
 20
5.675000215074469
 30
0.0
 40
0.7
100
AcDbArc
 50
180.0
 51
270.0
  0
LINE
  5
18F8
330
1A
100
AcDbEntity
  8
ZUWAKU
100
AcDbLine
 10
9.321106440641869
 20
4.975000215074466
 30
0.0
 11
9.321106440641869
 21
5.88260122775214
 31
0.0
  0
ARC
  5
18F9
330
1A
100
AcDbEntity
  8
ZUWAKU
100
AcDbCircle
 10
8.796106440641835
 20
10.48750021507446
 30
0.0
 40
0.2625
100
AcDbArc
 50
270.0
 51
0.0
  0
ARC
  5
18FA
330
1A
100
AcDbEntity
  8
ZUWAKU
100
AcDbCircle
 10
8.796106440641835
 20
11.36250021507446
 30
0.0
 40
0.2625
100
AcDbArc
 50
0.0
 51
90.0
  0
ARC
  5
18FB
330
1A
100
AcDbEntity
  8
ZUWAKU
100
AcDbCircle
 10
7.046106440641835
 20
10.22500021507446
 30
0.0
 40
1.399999999999999
100
AcDbArc
 50
90.0
 51
180.0
  0
LINE
  5
18FC
330
1A
100
AcDbEntity
  8
ZUWAKU
100
AcDbLine
 10
5.646106440641858
 20
10.22500021507446
 30
0.0
 11
5.646106440641858
 21
9.317399202396796
 31
0.0
  0
LINE
  5
18FD
330
1A
100
AcDbEntity
  8
ZUWAKU
100
AcDbLine
 10
8.796106440641835
 20
10.22500021507446
 30
0.0
 11
7.308606440641824
 21
10.22500021507446
 31
0.0
  0
LINE
  5
18FE
330
1A
100
AcDbEntity
  8
ZUWAKU
100
AcDbLine
 10
7.046106440641835
 20
9.962500215074467
 30
0.0
 11
7.046106440641835
 21
9.317399202396796
 31
0.0
  0
ARC
  5
18FF
330
1A
100
AcDbEntity
  8
ZUWAKU
100
AcDbCircle
 10
7.308606440641824
 20
9.962500215074467
 30
0.0
 40
0.2625
100
AcDbArc
 50
90.0
 51
180.0
  0
LINE
  5
1900
330
1A
100
AcDbEntity
  8
ZUWAKU
100
AcDbLine
 10
7.046106440641835
 20
11.62500021507446
 30
0.0
 11
8.796106440641835
 21
11.62500021507446
 31
0.0
  0
ARC
  5
1901
330
1A
100
AcDbEntity
  8
ZUWAKU
100
AcDbCircle
 10
12.47110644064184
 20
9.525000215074445
 30
0.0
 40
2.099999999999999
100
AcDbArc
 50
90.0
 51
180.0
  0
ARC
  5
1902
330
1A
100
AcDbEntity
  8
ZUWAKU
100
AcDbCircle
 10
12.47110644064184
 20
9.525000215074467
 30
0.0
 40
0.7
100
AcDbArc
 50
90.0
 51
180.0
  0
LINE
  5
1903
330
1A
100
AcDbEntity
  8
ZUWAKU
100
AcDbLine
 10
9.058606440641824
 20
11.36250021507446
 30
0.0
 11
9.058606440641824
 21
10.48750021507446
 31
0.0
  0
LINE
  5
1904
330
1A
100
AcDbEntity
  8
ZUWAKU
100
AcDbLine
 10
17.83817390929977
 20
11.44154719915795
 30
0.0
 11
16.90403897198388
 21
8.483453230990981
 31
0.0
  0
LINE
  5
1905
330
1A
100
AcDbEntity
  8
ZUWAKU
100
AcDbLine
 10
14.92110644064183
 20
11.36250021507446
 30
0.0
 11
14.92110644064183
 21
3.837500215074467
 31
0.0
  0
LINE
  5
1906
330
1A
100
AcDbEntity
  8
ZUWAKU
100
AcDbLine
 10
16.32110644064186
 20
8.562500215074468
 30
0.0
 11
16.32110644064186
 21
11.36250021507446
 31
0.0
  0
LINE
  5
1907
330
1A
100
AcDbEntity
  8
ZUWAKU
100
AcDbLine
 10
28.92110644064183
 20
5.500000215074464
 30
0.0
 11
28.92110644064183
 21
11.36250021507446
 31
0.0
  0
LINE
  5
1908
330
1A
100
AcDbEntity
  8
ZUWAKU
100
AcDbLine
 10
27.52110644064186
 20
11.36250021507446
 30
0.0
 11
27.52110644064186
 21
4.975000215074466
 31
0.0
  0
LINE
  5
1909
330
1A
100
AcDbEntity
  8
ZUWAKU
100
AcDbLine
 10
21.74610644064182
 20
3.837500215074467
 30
0.0
 11
21.74610644064182
 21
11.36250021507446
 31
0.0
  0
LINE
  5
190A
330
1A
100
AcDbEntity
  8
ZUWAKU
100
AcDbLine
 10
20.34610644064184
 20
11.36250021507446
 30
0.0
 11
20.34610644064184
 21
3.837500215074467
 31
0.0
  0
LINE
  5
190B
330
1A
100
AcDbEntity
  8
ZUWAKU
100
AcDbLine
 10
18.65742968173083
 20
9.60252381185618
 30
0.0
 11
18.02505380906291
 21
7.600000215074476
 31
0.0
  0
ARC
  5
190C
330
1A
100
AcDbEntity
  8
ZUWAKU
100
AcDbCircle
 10
24.89610644064185
 20
9.317399202396817
 30
0.0
 40
2.099999999999999
100
AcDbArc
 50
180.0
 51
225.0
  0
ARC
  5
190D
330
1A
100
AcDbEntity
  8
ZUWAKU
100
AcDbCircle
 10
24.89610644064185
 20
9.317399202396817
 30
0.0
 40
0.7
100
AcDbArc
 50
180.0000000000016
 51
224.9999999999988
  0
LINE
  5
190E
330
1A
100
AcDbEntity
  8
ZUWAKU
100
AcDbLine
 10
33.12110644064182
 20
11.36250021507446
 30
0.0
 11
33.12110644064182
 21
3.837500215074467
 31
0.0
  0
LINE
  5
190F
330
1A
100
AcDbEntity
  8
ZUWAKU
100
AcDbLine
 10
34.52110644064186
 20
3.837500215074467
 30
0.0
 11
34.52110644064186
 21
11.36250021507446
 31
0.0
  0
LINE
  5
1910
330
1A
100
AcDbEntity
  8
ZUWAKU
100
AcDbLine
 10
30.67110644064183
 20
11.36250021507446
 30
0.0
 11
30.67110644064183
 21
5.500000215074464
 31
0.0
  0
LINE
  5
1911
330
1A
100
AcDbEntity
  8
ZUWAKU
100
AcDbLine
 10
32.07110644064186
 20
4.975000215074466
 30
0.0
 11
32.07110644064186
 21
11.36250021507446
 31
0.0
  0
LINE
  5
1912
330
1A
100
AcDbEntity
  8
ZUWAKU
100
AcDbLine
 10
39.56331513724546
 20
15.00000021507446
 30
0.0
 11
39.56331513724546
 21
0.400000215074499
 31
0.0
  0
LINE
  5
1913
330
1A
100
AcDbEntity
  8
ZUWAKU
100
AcDbLine
 10
39.7633151372454
 20
15.00000021507446
 30
0.0
 11
39.76331513724551
 21
0.400000215074499
 31
0.0
  0
LINE
  5
1914
330
1A
100
AcDbEntity
  8
ZUWAKU
100
AcDbLine
 10
39.66331513724537
 20
15.00000021507446
 30
0.0
 11
39.66331513724549
 21
0.400000215074499
 31
0.0
  0
LINE
  5
1915
330
1A
100
AcDbEntity
  8
ZUWAKU
100
AcDbLine
 10
28.92110644064183
 20
3.575000215074467
 30
0.0
 11
30.67110644064183
 21
3.575000215074467
 31
0.0
  0
LINE
  5
1916
330
1A
100
AcDbEntity
  8
ZUWAKU
100
AcDbLine
 10
30.14610644064186
 20
4.975000215074466
 30
0.0
 11
29.44610644064187
 21
4.975000215074466
 31
0.0
  0
LINE
  5
1917
330
1A
100
AcDbEntity
  8
ZUWAKU
100
AcDbLine
 10
20.60860644064183
 20
3.575000215074467
 30
0.0
 11
21.48360644064183
 21
3.575000215074467
 31
0.0
  0
LINE
  5
1918
330
1A
100
AcDbEntity
  8
ZUWAKU
100
AcDbLine
 10
17.83817390929977
 20
3.75845323099098
 30
0.0
 11
16.90403897198388
 21
6.71654719915795
 31
0.0
  0
ARC
  5
1919
330
1A
100
AcDbEntity
  8
ZUWAKU
100
AcDbCircle
 10
16.58360644064186
 20
6.637500215074467
 30
0.0
 40
0.2625
100
AcDbArc
 50
90.0
 51
180.0
  0
ARC
  5
191A
330
1A
100
AcDbEntity
  8
ZUWAKU
100
AcDbCircle
 10
16.6537235223862
 20
6.637500215074467
 30
0.0
 40
0.2625
100
AcDbArc
 50
17.52556837372303
 51
90.0
  0
ARC
  5
191B
330
1A
100
AcDbEntity
  8
ZUWAKU
100
AcDbCircle
 10
15.18360644064182
 20
3.837500215074467
 30
0.0
 40
0.2625
100
AcDbArc
 50
180.0
 51
270.0
  0
ARC
  5
191C
330
1A
100
AcDbEntity
  8
ZUWAKU
100
AcDbCircle
 10
13.43360644064182
 20
4.712500215074467
 30
0.0
 40
0.2625
100
AcDbArc
 50
0.0
 51
90.0
  0
ARC
  5
191D
330
1A
100
AcDbEntity
  8
ZUWAKU
100
AcDbCircle
 10
13.43360644064182
 20
3.837500215074467
 30
0.0
 40
0.2625
100
AcDbArc
 50
270.0
 51
0.0
  0
LINE
  5
191E
330
1A
100
AcDbEntity
  8
ZUWAKU
100
AcDbLine
 10
13.69610644064187
 20
4.712500215074467
 30
0.0
 11
13.69610644064187
 21
3.837500215074467
 31
0.0
  0
LINE
  5
191F
330
1A
100
AcDbEntity
  8
ZUWAKU
100
AcDbLine
 10
16.32110644064186
 20
3.837500215074467
 30
0.0
 11
16.32110644064186
 21
6.637500215074467
 31
0.0
  0
ARC
  5
1920
330
1A
100
AcDbEntity
  8
ZUWAKU
100
AcDbCircle
 10
16.05860644064182
 20
3.837500215074467
 30
0.0
 40
0.2625
100
AcDbArc
 50
270.0
 51
0.0
  0
LINE
  5
1921
330
1A
100
AcDbEntity
  8
ZUWAKU
100
AcDbLine
 10
15.18360644064182
 20
3.575000215074467
 30
0.0
 11
16.05860644064182
 21
3.575000215074467
 31
0.0
  0
ARC
  5
1922
330
1A
100
AcDbEntity
  8
ZUWAKU
100
AcDbCircle
 10
16.58360644064186
 20
8.562500215074468
 30
0.0
 40
0.2625
100
AcDbArc
 50
180.0
 51
270.0
  0
LINE
  5
1923
330
1A
100
AcDbEntity
  8
ZUWAKU
100
AcDbLine
 10
16.58360644064186
 20
6.900000215074467
 30
0.0
 11
16.6537235223862
 21
6.900000215074467
 31
0.0
  0
LINE
  5
1924
330
1A
100
AcDbEntity
  8
ZUWAKU
100
AcDbLine
 10
16.6537235223862
 20
8.300000215074465
 30
0.0
 11
16.58360644064186
 21
8.300000215074465
 31
0.0
  0
ARC
  5
1925
330
1A
100
AcDbEntity
  8
ZUWAKU
100
AcDbCircle
 10
16.6537235223862
 20
8.562500215074468
 30
0.0
 40
0.2625
100
AcDbArc
 50
270.0
 51
342.4744316262769
  0
ARC
  5
1926
330
1A
100
AcDbEntity
  8
ZUWAKU
100
AcDbCircle
 10
18.0884893588975
 20
3.837500215074467
 30
0.0
 40
0.2625
100
AcDbArc
 50
197.525568373723
 51
270.0
  0
LINE
  5
1927
330
1A
100
AcDbEntity
  8
ZUWAKU
100
AcDbLine
 10
19.18824949829974
 20
3.916547199157953
 30
0.0
 11
18.02505380906291
 21
7.600000215074476
 31
0.0
  0
ARC
  5
1928
330
1A
100
AcDbEntity
  8
ZUWAKU
100
AcDbCircle
 10
18.937934048702
 20
3.837500215074467
 30
0.0
 40
0.2625
100
AcDbArc
 50
270.0
 51
17.52556837372303
  0
LINE
  5
1929
330
1A
100
AcDbEntity
  8
ZUWAKU
100
AcDbLine
 10
18.0884893588975
 20
3.575000215074467
 30
0.0
 11
18.937934048702
 21
3.575000215074467
 31
0.0
  0
ARC
  5
192A
330
1A
100
AcDbEntity
  8
ZUWAKU
100
AcDbCircle
 10
20.60860644064183
 20
3.837500215074467
 30
0.0
 40
0.2625
100
AcDbArc
 50
180.0
 51
270.0
  0
ARC
  5
192B
330
1A
100
AcDbEntity
  8
ZUWAKU
100
AcDbCircle
 10
25.07110644064187
 20
4.975000215074466
 30
0.0
 40
1.399999999999999
100
AcDbArc
 50
270.0
 51
0.0
  0
ARC
  5
192C
330
1A
100
AcDbEntity
  8
ZUWAKU
100
AcDbCircle
 10
28.92110644064183
 20
4.975000215074466
 30
0.0
 40
1.399999999999999
100
AcDbArc
 50
180.0
 51
270.0
  0
LINE
  5
192D
330
1A
100
AcDbEntity
  8
ZUWAKU
100
AcDbLine
 10
25.85603068113363
 20
7.367525468243879
 30
0.0
 11
24.40113169381123
 21
8.822424455566217
 31
0.0
  0
LINE
  5
192E
330
1A
100
AcDbEntity
  8
ZUWAKU
100
AcDbLine
 10
23.4111822001501
 20
7.832474961905056
 30
0.0
 11
24.86608118747244
 21
6.377575974582725
 31
0.0
  0
LINE
  5
192F
330
1A
100
AcDbEntity
  8
ZUWAKU
100
AcDbLine
 10
23.32110644064186
 20
3.575000215074467
 30
0.0
 11
25.07110644064187
 21
3.575000215074467
 31
0.0
  0
LINE
  5
1930
330
1A
100
AcDbEntity
  8
ZUWAKU
100
AcDbLine
 10
23.32110644064186
 20
4.975000215074466
 30
0.0
 11
24.80860644064182
 21
4.975000215074466
 31
0.0
  0
ARC
  5
1931
330
1A
100
AcDbEntity
  8
ZUWAKU
100
AcDbCircle
 10
23.32110644064186
 20
4.712500215074467
 30
0.0
 40
0.2625
100
AcDbArc
 50
90.0
 51
180.0
  0
ARC
  5
1932
330
1A
100
AcDbEntity
  8
ZUWAKU
100
AcDbCircle
 10
21.48360644064183
 20
3.837500215074467
 30
0.0
 40
0.2625
100
AcDbArc
 50
270.0
 51
0.0
  0
ARC
  5
1933
330
1A
100
AcDbEntity
  8
ZUWAKU
100
AcDbCircle
 10
23.32110644064186
 20
3.837500215074467
 30
0.0
 40
0.2625
100
AcDbArc
 50
180.0
 51
270.0
  0
LINE
  5
1934
330
1A
100
AcDbEntity
  8
ZUWAKU
100
AcDbLine
 10
23.05860644064182
 20
3.837500215074467
 30
0.0
 11
23.05860644064182
 21
4.712500215074467
 31
0.0
  0
ARC
  5
1935
330
1A
100
AcDbEntity
  8
ZUWAKU
100
AcDbCircle
 10
24.80860644064182
 20
5.237500215074469
 30
0.0
 40
0.2625
100
AcDbArc
 50
270.0
 51
0.0
  0
ARC
  5
1936
330
1A
100
AcDbEntity
  8
ZUWAKU
100
AcDbCircle
 10
24.37110644064182
 20
5.88260122775214
 30
0.0
 40
0.7
100
AcDbArc
 50
0.0
 51
45.0
  0
LINE
  5
1937
330
1A
100
AcDbEntity
  8
ZUWAKU
100
AcDbLine
 10
25.07110644064187
 20
5.237500215074469
 30
0.0
 11
25.07110644064187
 21
5.88260122775214
 31
0.0
  0
ARC
  5
1938
330
1A
100
AcDbEntity
  8
ZUWAKU
100
AcDbCircle
 10
29.44610644064187
 20
5.500000215074464
 30
0.0
 40
0.525
100
AcDbArc
 50
180.0
 51
270.0
  0
ARC
  5
1939
330
1A
100
AcDbEntity
  8
ZUWAKU
100
AcDbCircle
 10
24.37110644064182
 20
5.882601227752118
 30
0.0
 40
2.099999999999999
100
AcDbArc
 50
0.0
 51
45.0
  0
LINE
  5
193A
330
1A
100
AcDbEntity
  8
ZUWAKU
100
AcDbLine
 10
26.47110644064184
 20
4.975000215074466
 30
0.0
 11
26.47110644064184
 21
5.88260122775214
 31
0.0
  0
ARC
  5
193B
330
1A
100
AcDbEntity
  8
ZUWAKU
100
AcDbCircle
 10
30.67110644064183
 20
4.975000215074466
 30
0.0
 40
1.399999999999999
100
AcDbArc
 50
270.0
 51
0.0
  0
LINE
  5
193C
330
1A
100
AcDbEntity
  8
ZUWAKU
100
AcDbLine
 10
33.38360644064187
 20
3.575000215074467
 30
0.0
 11
34.25860644064186
 21
3.575000215074467
 31
0.0
  0
ARC
  5
193D
330
1A
100
AcDbEntity
  8
ZUWAKU
100
AcDbCircle
 10
30.14610644064186
 20
5.500000215074464
 30
0.0
 40
0.525
100
AcDbArc
 50
270.0
 51
0.0
  0
ARC
  5
193E
330
1A
100
AcDbEntity
  8
ZUWAKU
100
AcDbCircle
 10
33.38360644064187
 20
3.837500215074467
 30
0.0
 40
0.2625
100
AcDbArc
 50
180.0
 51
270.0
  0
ARC
  5
193F
330
1A
100
AcDbEntity
  8
ZUWAKU
100
AcDbCircle
 10
34.25860644064186
 20
3.837500215074467
 30
0.0
 40
0.2625
100
AcDbArc
 50
270.0
 51
0.0
  0
LINE
  5
1940
330
1A
100
AcDbEntity
  8
ZUWAKU
100
AcDbLine
 10
21.48360644064183
 20
11.62500021507446
 30
0.0
 11
20.60860644064183
 21
11.62500021507446
 31
0.0
  0
LINE
  5
1941
330
1A
100
AcDbEntity
  8
ZUWAKU
100
AcDbLine
 10
13.69610644064187
 20
11.36250021507446
 30
0.0
 11
13.69610644064187
 21
10.48750021507446
 31
0.0
  0
ARC
  5
1942
330
1A
100
AcDbEntity
  8
ZUWAKU
100
AcDbCircle
 10
13.43360644064182
 20
10.48750021507446
 30
0.0
 40
0.2625
100
AcDbArc
 50
270.0
 51
0.0
  0
ARC
  5
1943
330
1A
100
AcDbEntity
  8
ZUWAKU
100
AcDbCircle
 10
15.18360644064182
 20
11.36250021507446
 30
0.0
 40
0.2625
100
AcDbArc
 50
90.0
 51
180.0
  0
ARC
  5
1944
330
1A
100
AcDbEntity
  8
ZUWAKU
100
AcDbCircle
 10
13.43360644064182
 20
11.36250021507446
 30
0.0
 40
0.2625
100
AcDbArc
 50
0.0
 51
90.0
  0
LINE
  5
1945
330
1A
100
AcDbEntity
  8
ZUWAKU
100
AcDbLine
 10
16.05860644064182
 20
11.62500021507446
 30
0.0
 11
15.18360644064182
 21
11.62500021507446
 31
0.0
  0
ARC
  5
1946
330
1A
100
AcDbEntity
  8
ZUWAKU
100
AcDbCircle
 10
16.05860644064182
 20
11.36250021507446
 30
0.0
 40
0.2625
100
AcDbArc
 50
0.0
 51
90.0
  0
ARC
  5
1947
330
1A
100
AcDbEntity
  8
ZUWAKU
100
AcDbCircle
 10
18.0884893588975
 20
11.36250021507446
 30
0.0
 40
0.2625
100
AcDbArc
 50
90.0
 51
162.4744316262769
  0
LINE
  5
1948
330
1A
100
AcDbEntity
  8
ZUWAKU
100
AcDbLine
 10
19.18824949829974
 20
11.28345323099098
 30
0.0
 11
18.65742968173083
 21
9.60252381185618
 31
0.0
  0
ARC
  5
1949
330
1A
100
AcDbEntity
  8
ZUWAKU
100
AcDbCircle
 10
18.937934048702
 20
11.36250021507446
 30
0.0
 40
0.2625
100
AcDbArc
 50
342.4744316262769
 51
90.0
  0
LINE
  5
194A
330
1A
100
AcDbEntity
  8
ZUWAKU
100
AcDbLine
 10
18.0884893588975
 20
11.62500021507446
 30
0.0
 11
18.937934048702
 21
11.62500021507446
 31
0.0
  0
ARC
  5
194B
330
1A
100
AcDbEntity
  8
ZUWAKU
100
AcDbCircle
 10
20.60860644064183
 20
11.36250021507446
 30
0.0
 40
0.2625
100
AcDbArc
 50
90.0
 51
180.0
  0
LINE
  5
194C
330
1A
100
AcDbEntity
  8
ZUWAKU
100
AcDbLine
 10
25.94610644064187
 20
10.22500021507446
 30
0.0
 11
24.45860644064186
 21
10.22500021507446
 31
0.0
  0
LINE
  5
194D
330
1A
100
AcDbEntity
  8
ZUWAKU
100
AcDbLine
 10
24.19610644064187
 20
11.62500021507446
 30
0.0
 11
25.94610644064187
 21
11.62500021507446
 31
0.0
  0
ARC
  5
194E
330
1A
100
AcDbEntity
  8
ZUWAKU
100
AcDbCircle
 10
24.19610644064187
 20
10.22500021507446
 30
0.0
 40
1.399999999999999
100
AcDbArc
 50
90.0
 51
180.0
  0
LINE
  5
194F
330
1A
100
AcDbEntity
  8
ZUWAKU
100
AcDbLine
 10
22.79610644064183
 20
10.22500021507446
 30
0.0
 11
22.79610644064183
 21
9.317399202396796
 31
0.0
  0
ARC
  5
1950
330
1A
100
AcDbEntity
  8
ZUWAKU
100
AcDbCircle
 10
21.48360644064183
 20
11.36250021507446
 30
0.0
 40
0.2625
100
AcDbArc
 50
0.0
 51
90.0
  0
LINE
  5
1951
330
1A
100
AcDbEntity
  8
ZUWAKU
100
AcDbLine
 10
24.19610644064187
 20
9.962500215074467
 30
0.0
 11
24.19610644064187
 21
9.317399202396796
 31
0.0
  0
ARC
  5
1952
330
1A
100
AcDbEntity
  8
ZUWAKU
100
AcDbCircle
 10
24.45860644064186
 20
9.962500215074467
 30
0.0
 40
0.2625
100
AcDbArc
 50
90.0
 51
180.0
  0
LINE
  5
1953
330
1A
100
AcDbEntity
  8
ZUWAKU
100
AcDbLine
 10
26.20860644064185
 20
11.36250021507446
 30
0.0
 11
26.20860644064185
 21
10.48750021507446
 31
0.0
  0
ARC
  5
1954
330
1A
100
AcDbEntity
  8
ZUWAKU
100
AcDbCircle
 10
25.94610644064187
 20
10.48750021507446
 30
0.0
 40
0.2625
100
AcDbArc
 50
270.0
 51
0.0
  0
ARC
  5
1955
330
1A
100
AcDbEntity
  8
ZUWAKU
100
AcDbCircle
 10
25.94610644064187
 20
11.36250021507446
 30
0.0
 40
0.2625
100
AcDbArc
 50
0.0
 51
90.0
  0
LINE
  5
1956
330
1A
100
AcDbEntity
  8
ZUWAKU
100
AcDbLine
 10
28.65860644064184
 20
11.62500021507446
 30
0.0
 11
27.78360644064184
 21
11.62500021507446
 31
0.0
  0
ARC
  5
1957
330
1A
100
AcDbEntity
  8
ZUWAKU
100
AcDbCircle
 10
27.78360644064184
 20
11.36250021507446
 30
0.0
 40
0.2625
100
AcDbArc
 50
90.0
 51
180.0
  0
ARC
  5
1958
330
1A
100
AcDbEntity
  8
ZUWAKU
100
AcDbCircle
 10
28.65860644064184
 20
11.36250021507446
 30
0.0
 40
0.2625
100
AcDbArc
 50
0.0
 51
90.0
  0
LINE
  5
1959
330
1A
100
AcDbEntity
  8
ZUWAKU
100
AcDbLine
 10
34.25860644064186
 20
11.62500021507446
 30
0.0
 11
33.38360644064187
 21
11.62500021507446
 31
0.0
  0
ARC
  5
195A
330
1A
100
AcDbEntity
  8
ZUWAKU
100
AcDbCircle
 10
30.93360644064182
 20
11.36250021507446
 30
0.0
 40
0.2625
100
AcDbArc
 50
90.0
 51
180.0
  0
LINE
  5
195B
330
1A
100
AcDbEntity
  8
ZUWAKU
100
AcDbLine
 10
31.80860644064182
 20
11.62500021507446
 30
0.0
 11
30.93360644064182
 21
11.62500021507446
 31
0.0
  0
ARC
  5
195C
330
1A
100
AcDbEntity
  8
ZUWAKU
100
AcDbCircle
 10
31.80860644064182
 20
11.36250021507446
 30
0.0
 40
0.2625
100
AcDbArc
 50
0.0
 51
90.0
  0
ARC
  5
195D
330
1A
100
AcDbEntity
  8
ZUWAKU
100
AcDbCircle
 10
33.38360644064187
 20
11.36250021507446
 30
0.0
 40
0.2625
100
AcDbArc
 50
90.0
 51
180.0
  0
ARC
  5
195E
330
1A
100
AcDbEntity
  8
ZUWAKU
100
AcDbCircle
 10
34.25860644064186
 20
11.36250021507446
 30
0.0
 40
0.2625
100
AcDbArc
 50
0.0
 51
90.0
  0
TEXT
  5
195F
330
1A
100
AcDbEntity
  8
MOJI
100
AcDbText
 10
119.9136017036768
 20
1.602460743778175
 30
0.0
 40
2.799999999999999
  1
ＲＶ１０５－０－１０～４５
 41
0.9
  7
ｽﾀｲﾙ1
100
AcDbText
  0
LINE
  5
1960
330
1A
100
AcDbEntity
  8
ZUWAKU
100
AcDbLine
 10
104.2233010082851
 20
15.00000021507446
 30
0.0
 11
104.2233010082852
 21
0.400000215074499
 31
0.0
  0
LINE
  5
1961
330
1A
100
AcDbEntity
  8
ZUWAKU
100
AcDbLine
 10
104.3233010082851
 20
15.00000021507446
 30
0.0
 11
104.3233010082852
 21
0.400000215074499
 31
0.0
  0
LINE
  5
1962
330
1A
100
AcDbEntity
  8
ZUWAKU
100
AcDbLine
 10
104.1233010082852
 20
15.00000021507446
 30
0.0
 11
104.1233010082852
 21
0.400000215074499
 31
0.0
  0
TEXT
  5
1963
330
1A
100
AcDbEntity
  8
MOJI
100
AcDbText
 10
119.9136017036768
 20
9.002460743778158
 30
0.0
 40
2.799999999999999
  1
ブラケット正面打（吊）ワンタッチ自在式
 41
0.9
  7
ｽﾀｲﾙ1
100
AcDbText
  0
TEXT
  5
1964
330
1A
100
AcDbEntity
  8
ZUWAKU
100
AcDbText
 10
104.86202351939
 20
4.827678484267273
 30
0.0
 40
2.0
  1
サイズ
 41
0.9
  7
ｽﾀｲﾙ1
100
AcDbText
  0
TEXT
  5
1965
330
1A
100
AcDbEntity
  8
ZUWAKU
100
AcDbText
 10
104.8620235193899
 20
12.02767848426725
 30
0.0
 40
2.0
  1
品名
 41
0.9
  7
ｽﾀｲﾙ1
100
AcDbText
  0
TEXT
  5
1966
330
1A
100
AcDbEntity
  8
ZUWAKU
100
AcDbText
 10
329.1019692069024
 20
9.002460743778158
 30
0.0
 40
2.799999999999999
  1
　　．　　．　　
 41
0.9
  7
ｽﾀｲﾙ1
100
AcDbText
  0
LINE
  5
1967
330
1A
100
AcDbEntity
  8
ZUWAKU
100
AcDbLine
 10
324.4086016183533
 20
7.800000215074481
 30
0.0
 11
348.6245056375218
 21
7.800000215074481
 31
0.0
  0
LINE
  5
1968
330
1A
100
AcDbEntity
  8
ZUWAKU
100
AcDbLine
 10
324.4086016183534
 20
7.700000215074483
 30
0.0
 11
348.6245056375218
 21
7.700000215074481
 31
0.0
  0
LINE
  5
1969
330
1A
100
AcDbEntity
  8
ZUWAKU
100
AcDbLine
 10
324.4086016183533
 20
7.60000021507448
 30
0.0
 11
348.6245056375218
 21
7.600000215074482
 31
0.0
  0
LINE
  5
196A
330
1A
100
AcDbEntity
  8
ZUWAKU
100
AcDbLine
 10
252.5995901123217
 20
7.800000215074481
 30
0.0
 11
276.2634782463075
 21
7.800000215074481
 31
0.0
  0
LINE
  5
196B
330
1A
100
AcDbEntity
  8
ZUWAKU
100
AcDbLine
 10
252.5995901123217
 20
7.700000215074481
 30
0.0
 11
276.2634782463075
 21
7.700000215074481
 31
0.0
  0
LINE
  5
196C
330
1A
100
AcDbEntity
  8
ZUWAKU
100
AcDbLine
 10
252.5995901123217
 20
7.600000215074484
 30
0.0
 11
276.2634782463075
 21
7.600000215074484
 31
0.0
  0
LINE
  5
196D
330
1A
100
AcDbEntity
  8
ZUWAKU
100
AcDbLine
 10
252.3995901123218
 20
15.00000021507446
 30
0.0
 11
252.3995901123218
 21
0.400000215074499
 31
0.0
  0
LINE
  5
196E
330
1A
100
AcDbEntity
  8
ZUWAKU
100
AcDbLine
 10
252.5995901123217
 20
15.00000021507446
 30
0.0
 11
252.5995901123218
 21
0.400000215074499
 31
0.0
  0
LINE
  5
196F
330
1A
100
AcDbEntity
  8
ZUWAKU
100
AcDbLine
 10
252.4995901123217
 20
15.00000021507446
 30
0.0
 11
252.4995901123218
 21
0.400000215074499
 31
0.0
  0
TEXT
  5
1970
330
1A
100
AcDbEntity
  8
MOJI
100
AcDbText
 10
264.0204543494077
 20
9.002460743778158
 30
0.0
 40
2.799999999999999
  1
Ａ３
 41
0.9
  7
ｽﾀｲﾙ1
100
AcDbText
  0
LINE
  5
1971
330
1A
100
AcDbEntity
  8
ZUWAKU
100
AcDbLine
 10
223.7121823487469
 20
15.00000021507446
 30
0.0
 11
223.7121823487469
 21
0.400000215074499
 31
0.0
  0
LINE
  5
1972
330
1A
100
AcDbEntity
  8
ZUWAKU
100
AcDbLine
 10
223.9121823487469
 20
15.00000021507446
 30
0.0
 11
223.912182348747
 21
0.400000215074499
 31
0.0
  0
LINE
  5
1973
330
1A
100
AcDbEntity
  8
ZUWAKU
100
AcDbLine
 10
223.8121823487468
 20
15.00000021507446
 30
0.0
 11
223.812182348747
 21
0.400000215074499
 31
0.0
  0
TEXT
  5
1974
330
1A
100
AcDbEntity
  8
MOJI
100
AcDbText
 10
231.2836395242455
 20
5.971309075904457
 30
0.0
 40
2.799999999999999
  1
ＬＫ１１Ｔ
 41
0.9
  7
ｽﾀｲﾙ1
100
AcDbText
  0
TEXT
  5
1976
330
1A
100
AcDbEntity
  8
ZUWAKU
100
AcDbText
 10
253.3383126234266
 20
4.827678484267273
 30
0.0
 40
2.0
  1
縮尺
 41
0.9
  7
ｽﾀｲﾙ1
100
AcDbText
  0
TEXT
  5
1977
330
1A
100
AcDbEntity
  8
MOJI
100
AcDbText
 10
264.0204543494077
 20
1.602460743778175
 30
0.0
 40
2.799999999999999
  1
１/１
 41
0.9
  7
ｽﾀｲﾙ1
100
AcDbText
  0
TEXT
  5
1978
330
1A
100
AcDbEntity
  8
ZUWAKU
100
AcDbText
 10
224.6509048598517
 20
12.02767848426725
 30
0.0
 40
2.0
  1
品番
 41
0.9
  7
ｽﾀｲﾙ1
100
AcDbText
  0
TEXT
  5
1979
330
1A
100
AcDbEntity
  8
ZUWAKU
100
AcDbText
 10
253.3383126234265
 20
12.02767848426725
 30
0.0
 40
2.0
  1
用紙
 41
0.9
  7
ｽﾀｲﾙ1
100
AcDbText
  0
LINE
  5
197A
330
1A
100
AcDbEntity
  8
ZUWAKU
100
AcDbLine
 10
276.2634782463075
 20
15.00000021507446
 30
0.0
 11
276.2634782463075
 21
0.400000215074499
 31
0.0
  0
LINE
  5
197B
330
1A
100
AcDbEntity
  8
ZUWAKU
100
AcDbLine
 10
276.4634782463074
 20
15.00000021507446
 30
0.0
 11
276.4634782463075
 21
0.400000215074499
 31
0.0
  0
LINE
  5
197C
330
1A
100
AcDbEntity
  8
ZUWAKU
100
AcDbLine
 10
276.3634782463074
 20
15.00000021507446
 30
0.0
 11
276.3634782463075
 21
0.400000215074499
 31
0.0
  0
LINE
  5
197D
330
1A
100
AcDbEntity
  8
ZUWAKU
100
AcDbLine
 10
324.2086016183535
 20
15.00000021507446
 30
0.0
 11
324.2086016183535
 21
0.400000215074499
 31
0.0
  0
LINE
  5
197E
330
1A
100
AcDbEntity
  8
ZUWAKU
100
AcDbLine
 10
324.4086016183534
 20
15.00000021507446
 30
0.0
 11
324.4086016183536
 21
0.400000215074499
 31
0.0
  0
LINE
  5
197F
330
1A
100
AcDbEntity
  8
ZUWAKU
100
AcDbLine
 10
324.3086016183534
 20
15.00000021507446
 30
0.0
 11
324.3086016183535
 21
0.400000215074499
 31
0.0
  0
TEXT
  5
1980
330
1A
100
AcDbEntity
  8
ZUWAKU
100
AcDbText
 10
325.1473241294583
 20
12.02767848426725
 30
0.0
 40
2.0
  1
DATE
 41
0.9
  7
ｽﾀｲﾙ1
100
AcDbText
  0
TEXT
  5
1981
330
1A
100
AcDbEntity
  8
ZUWAKU
100
AcDbText
 10
354.2640424593731
 20
8.776919882917866
 30
0.0
 40
3.0
  1
積水化学工業株式会社
 41
0.9
  7
ｽﾀｲﾙ1
100
AcDbText
  0
LINE
  5
1982
330
1A
100
AcDbEntity
  8
ZUWAKU
100
AcDbLine
 10
348.9245056375218
 20
15.00000021507446
 30
0.0
 11
348.9245056375219
 21
0.400000215074499
 31
0.0
  0
LINE
  5
1983
330
1A
100
AcDbEntity
  8
ZUWAKU
100
AcDbLine
 10
348.8245056375218
 20
15.00000021507446
 30
0.0
 11
348.8245056375219
 21
0.400000215074499
 31
0.0
  0
LINE
  5
1984
330
1A
100
AcDbEntity
  8
ZUWAKU
100
AcDbLine
 10
348.7245056375219
 20
15.00000021507446
 30
0.0
 11
348.7245056375219
 21
0.400000215074499
 31
0.0
  0
LINE
  5
1985
330
1A
100
AcDbEntity
  8
ZUWAKU
100
AcDbLine
 10
348.6245056375218
 20
15.00000021507446
 30
0.0
 11
348.6245056375218
 21
0.400000215074499
 31
0.0
  0
TEXT
  5
1986
330
1A
100
AcDbEntity
  8
ZUWAKU
100
AcDbText
 10
354.2640424593731
 20
3.324420372001497
 30
0.0
 40
3.0
  1
建材事業部
 41
0.9
  7
ｽﾀｲﾙ1
100
AcDbText
  0
VIEWPORT
  5
22
330
17
100
AcDbEntity
 67
     1
  8
0
100
AcDbViewport
 10
313.6808219178082
 20
148.5
 30
0.0
 40
627.3616438356165
 41
297.0
 68
     2
 69
     1
1001
ACAD
1000
MVIEW
1002
{
1070
    16
1010
0.0
1020
0.0
1030
0.0
1010
0.0
1020
0.0
1030
1.0
1040
0.0
1040
297.0
1040
313.6808219178082
1040
148.5
1040
50.0
1040
0.0
1040
0.0
1070
     0
1070
   100
1070
     1
1070
     0
1070
     0
1070
     0
1070
     0
1070
     0
1040
0.0
1040
0.0
1040
0.0
1040
1.0
1040
1.0
1040
10.0
1040
10.0
1070
     0
1002
{
1002
}
1002
}
  0
VIEWPORT
  5
64
330
17
100
AcDbEntity
 67
     1
  8
VIEWPORT
100
AcDbViewport
 10
210.0
 20
148.5
 30
0.0
 40
420.0
 41
297.0
 68
     1
 69
     2
1001
ACAD
1000
MVIEW
1002
{
1070
    16
1010
0.0
1020
0.0
1030
0.0
1010
0.0
1020
0.0
1030
1.0
1040
0.0
1040
302.9399999999998
1040
210.0
1040
148.5
1040
50.0
1040
0.0
1040
0.0
1070
     0
1070
   100
1070
     1
1070
     0
1070
     0
1070
     0
1070
     0
1070
     0
1040
0.0
1040
0.0
1040
0.0
1040
5.0
1040
5.0
1040
0.0
1040
0.0
1070
     0
1002
{
1002
}
1002
}
  0
ENDSEC
  0
SECTION
  2
OBJECTS
  0
DICTIONARY
  5
C
330
0
100
AcDbDictionary
  3
ACAD_GROUP
350
D
  3
ACAD_LAYOUT
350
141
  3
ACAD_MLINESTYLE
350
E
  3
ACAD_PLOTSETTINGS
350
142
  3
ACAD_PLOTSTYLENAME
350
13F
  3
ACDBHEADERROUNDTRIPXREC
350
1A19
  0
DICTIONARY
  5
73C
330
1A
100
AcDbDictionary
280
     1
  3
ACAD_LAYOUTSELFREF
360
1A3B
  0
DICTIONARY
  5
73A
330
17
100
AcDbDictionary
280
     1
  3
ACAD_LAYOUTSELFREF
360
1A3A
  0
DICTIONARY
  5
D
102
{ACAD_REACTORS
330
C
102
}
330
C
100
AcDbDictionary
  0
DICTIONARY
  5
141
102
{ACAD_REACTORS
330
C
102
}
330
C
100
AcDbDictionary
  0
DICTIONARY
  5
E
102
{ACAD_REACTORS
330
C
102
}
330
C
100
AcDbDictionary
  3
STANDARD
350
13
  0
DICTIONARY
  5
142
102
{ACAD_REACTORS
330
C
102
}
330
C
100
AcDbDictionary
  0
ACDBDICTIONARYWDFLT
  5
13F
102
{ACAD_REACTORS
330
C
102
}
330
C
100
AcDbDictionary
281
     1
  3
Normal
350
140
100
AcDbDictionaryWithDefault
340
140
1001
ACAD
1000
TREAT_AS_HARD
1070
     0
1000
TREAT_AS_HARD
1070
     0
1000
TREAT_AS_HARD
1070
     0
1000
TREAT_AS_HARD
1070
     0
1000
TREAT_AS_HARD
1070
     0
1000
TREAT_AS_HARD
1070
     0
1000
TREAT_AS_HARD
1070
     0
  0
DICTIONARY
  5
1A19
102
{ACAD_REACTORS
330
C
102
}
330
C
100
AcDbDictionary
  3
TSTACKALIGN
350
1A1A
  3
TSTACKSIZE
350
1A1B
  3
HYPERLINKBASE
350
1A1C
  3
STYLESHEET
350
1A1D
  3
LAYOUTDICT
350
1A1E
  3
PLOTSETDICT
350
1A1F
  3
PLOTSTYLNAMDICT
350
1A20
  3
LWETCUNION
350
1A21
  3
INSUNITS
350
1A22
  3
CEPSNTYPE
350
1A23
  3
FINGERPRINTGUID
350
1A24
  3
VERSIONGUID
350
1A25
  3
PSVPSCALE
350
1A26
  3
DIMSTYLEDATA
350
1A27
  3
PUCSORTHOREF
350
1A28
  3
PUCSORTHOVIEW
350
1A29
  3
PUCSBASE
350
1A2A
  3
PUCSORGTOP
350
1A2B
  3
PUCSORGBOTTOM
350
1A2C
  3
PUCSORGLEFT
350
1A2D
  3
PUCSORGRIGHT
350
1A2E
  3
PUCSORGFRONT
350
1A2F
  3
PUCSORGBACK
350
1A30
  3
UCSORTHOREF
350
1A31
  3
UCSORTHOVIEW
350
1A32
  3
UCSBASE
350
1A33
  3
UCSORGTOP
350
1A34
  3
UCSORGBOTTOM
350
1A35
  3
UCSORGLEFT
350
1A36
  3
UCSORGRIGHT
350
1A37
  3
UCSORGFRONT
350
1A38
  3
UCSORGBACK
350
1A39
  0
XRECORD
  5
1A3B
102
{ACAD_REACTORS
330
73C
102
}
330
73C
100
AcDbXrecord
340
1A
  0
XRECORD
  5
1A3A
102
{ACAD_REACTORS
330
73A
102
}
330
73A
100
AcDbXrecord
340
17
  0
MLINESTYLE
  5
13
102
{ACAD_REACTORS
330
E
102
}
330
E
100
AcDbMlineStyle
  2
STANDARD
 70
     0
  3

 62
     0
 51
90.0
 52
90.0
 71
     2
 49
0.5
 62
   256
  6
BYLAYER
 49
-0.5
 62
   256
  6
BYLAYER
  0
ACDBPLACEHOLDER
  5
140
102
{ACAD_REACTORS
330
13F
102
}
330
13F
100
AcDbPlaceHolder
280
     0
  0
XRECORD
  5
1A1A
102
{ACAD_REACTORS
330
1A19
102
}
330
1A19
100
AcDbXrecord
 90
        1
  0
XRECORD
  5
1A1B
102
{ACAD_REACTORS
330
1A19
102
}
330
1A19
100
AcDbXrecord
 90
       70
  0
XRECORD
  5
1A1C
102
{ACAD_REACTORS
330
1A19
102
}
330
1A19
100
AcDbXrecord
  1

  0
XRECORD
  5
1A1D
102
{ACAD_REACTORS
330
1A19
102
}
330
1A19
100
AcDbXrecord
  1
systemprinter.ctb
  0
XRECORD
  5
1A1E
102
{ACAD_REACTORS
330
1A19
102
}
330
1A19
100
AcDbXrecord
340
141
  0
XRECORD
  5
1A1F
102
{ACAD_REACTORS
330
1A19
102
}
330
1A19
100
AcDbXrecord
340
142
  0
XRECORD
  5
1A20
102
{ACAD_REACTORS
330
1A19
102
}
330
1A19
100
AcDbXrecord
340
13F
  0
XRECORD
  5
1A21
102
{ACAD_REACTORS
330
1A19
102
}
330
1A19
100
AcDbXrecord
 90
    10781
  0
XRECORD
  5
1A22
102
{ACAD_REACTORS
330
1A19
102
}
330
1A19
100
AcDbXrecord
 90
        0
  0
XRECORD
  5
1A23
102
{ACAD_REACTORS
330
1A19
102
}
330
1A19
100
AcDbXrecord
 90
        0
  0
XRECORD
  5
1A24
102
{ACAD_REACTORS
330
1A19
102
}
330
1A19
100
AcDbXrecord
  1
{4E8D0500-CDD1-11D3-932C-444553540000}
  0
XRECORD
  5
1A25
102
{ACAD_REACTORS
330
1A19
102
}
330
1A19
100
AcDbXrecord
  1
{E6BC9BFA-C32E-4522-9EDC-FBE82D9136E6}
  0
XRECORD
  5
1A26
102
{ACAD_REACTORS
330
1A19
102
}
330
1A19
100
AcDbXrecord
 40
0.0
  0
XRECORD
  5
1A27
102
{ACAD_REACTORS
330
1A19
102
}
330
1A19
100
AcDbXrecord
1000
DSTYLE
1002
{
1070
   341
340
B2
1070
   343
340
B2
1070
   344
340
B2
1070
   371
 70
    -1
1070
   372
 70
    -1
1002
}
  0
XRECORD
  5
1A28
102
{ACAD_REACTORS
330
1A19
102
}
330
1A19
100
AcDbXrecord
340
0
  0
XRECORD
  5
1A29
102
{ACAD_REACTORS
330
1A19
102
}
330
1A19
100
AcDbXrecord
 70
     0
  0
XRECORD
  5
1A2A
102
{ACAD_REACTORS
330
1A19
102
}
330
1A19
100
AcDbXrecord
340
0
  0
XRECORD
  5
1A2B
102
{ACAD_REACTORS
330
1A19
102
}
330
1A19
100
AcDbXrecord
 10
0.0
 20
0.0
 30
0.0
  0
XRECORD
  5
1A2C
102
{ACAD_REACTORS
330
1A19
102
}
330
1A19
100
AcDbXrecord
 10
0.0
 20
0.0
 30
0.0
  0
XRECORD
  5
1A2D
102
{ACAD_REACTORS
330
1A19
102
}
330
1A19
100
AcDbXrecord
 10
0.0
 20
0.0
 30
0.0
  0
XRECORD
  5
1A2E
102
{ACAD_REACTORS
330
1A19
102
}
330
1A19
100
AcDbXrecord
 10
0.0
 20
0.0
 30
0.0
  0
XRECORD
  5
1A2F
102
{ACAD_REACTORS
330
1A19
102
}
330
1A19
100
AcDbXrecord
 10
0.0
 20
0.0
 30
0.0
  0
XRECORD
  5
1A30
102
{ACAD_REACTORS
330
1A19
102
}
330
1A19
100
AcDbXrecord
 10
0.0
 20
0.0
 30
0.0
  0
XRECORD
  5
1A31
102
{ACAD_REACTORS
330
1A19
102
}
330
1A19
100
AcDbXrecord
340
0
  0
XRECORD
  5
1A32
102
{ACAD_REACTORS
330
1A19
102
}
330
1A19
100
AcDbXrecord
 70
     0
  0
XRECORD
  5
1A33
102
{ACAD_REACTORS
330
1A19
102
}
330
1A19
100
AcDbXrecord
340
0
  0
XRECORD
  5
1A34
102
{ACAD_REACTORS
330
1A19
102
}
330
1A19
100
AcDbXrecord
 10
0.0
 20
0.0
 30
0.0
  0
XRECORD
  5
1A35
102
{ACAD_REACTORS
330
1A19
102
}
330
1A19
100
AcDbXrecord
 10
0.0
 20
0.0
 30
0.0
  0
XRECORD
  5
1A36
102
{ACAD_REACTORS
330
1A19
102
}
330
1A19
100
AcDbXrecord
 10
0.0
 20
0.0
 30
0.0
  0
XRECORD
  5
1A37
102
{ACAD_REACTORS
330
1A19
102
}
330
1A19
100
AcDbXrecord
 10
0.0
 20
0.0
 30
0.0
  0
XRECORD
  5
1A38
102
{ACAD_REACTORS
330
1A19
102
}
330
1A19
100
AcDbXrecord
 10
0.0
 20
0.0
 30
0.0
  0
XRECORD
  5
1A39
102
{ACAD_REACTORS
330
1A19
102
}
330
1A19
100
AcDbXrecord
 10
0.0
 20
0.0
 30
0.0
  0
ENDSEC
  0
EOF
