  0
SECTION
  2
HEADER
  9
$ACADVER
  1
AC1014
  9
$ACADMAINTVER
 70
     9
  9
$DWGCODEPAGE
  3
ANSI_932
  9
$INSBASE
 10
0.0
 20
0.0
 30
0.0
  9
$EXTMIN
 10
-0.0128164049386896
 20
-0.0090630292066862
 30
-0.0000000100021362
  9
$EXTMAX
 10
398.8000497813338
 20
275.8226172440017
 30
0.0000000100021363
  9
$LIMMIN
 10
0.0
 20
0.0
  9
$LIMMAX
 10
420.0
 20
297.0
  9
$ORTHOMODE
 70
     0
  9
$REGENMODE
 70
     1
  9
$FILLMODE
 70
     1
  9
$QTEXTMODE
 70
     0
  9
$MIRRTEXT
 70
     1
  9
$DRAGMODE
 70
     2
  9
$LTSCALE
 40
5.0
  9
$OSMODE
 70
    35
  9
$ATTMODE
 70
     1
  9
$TEXTSIZE
 40
3.0
  9
$TRACEWID
 40
1.0
  9
$TEXTSTYLE
  7
STANDARD
  9
$CLAYER
  8
ZUWAKU
  9
$CELTYPE
  6
BYLAYER
  9
$CECOLOR
 62
   256
  9
$CELTSCALE
 40
1.0
  9
$DELOBJ
 70
     1
  9
$DISPSILH
 70
     0
  9
$DIMSCALE
 40
1.0
  9
$DIMASZ
 40
3.0
  9
$DIMEXO
 40
3.0
  9
$DIMDLI
 40
7.0
  9
$DIMRND
 40
0.0
  9
$DIMDLE
 40
0.0
  9
$DIMEXE
 40
1.5
  9
$DIMTP
 40
0.0
  9
$DIMTM
 40
0.0
  9
$DIMTXT
 40
3.0
  9
$DIMCEN
 40
3.0
  9
$DIMTSZ
 40
0.0
  9
$DIMTOL
 70
     0
  9
$DIMLIM
 70
     0
  9
$DIMTIH
 70
     0
  9
$DIMTOH
 70
     0
  9
$DIMSE1
 70
     0
  9
$DIMSE2
 70
     0
  9
$DIMTAD
 70
     3
  9
$DIMZIN
 70
     0
  9
$DIMBLK
  1

  9
$DIMASO
 70
     1
  9
$DIMSHO
 70
     1
  9
$DIMPOST
  1

  9
$DIMAPOST
  1

  9
$DIMALT
 70
     0
  9
$DIMALTD
 70
     2
  9
$DIMALTF
 40
25.4
  9
$DIMLFAC
 40
1.0
  9
$DIMTOFL
 70
     1
  9
$DIMTVP
 40
0.0
  9
$DIMTIX
 70
     0
  9
$DIMSOXD
 70
     0
  9
$DIMSAH
 70
     1
  9
$DIMBLK1
  1
OPEN
  9
$DIMBLK2
  1
OPEN
  9
$DIMSTYLE
  2
STANDARD
  9
$DIMCLRD
 70
   256
  9
$DIMCLRE
 70
   256
  9
$DIMCLRT
 70
   256
  9
$DIMTFAC
 40
1.0
  9
$DIMGAP
 40
1.0
  9
$DIMJUST
 70
     0
  9
$DIMSD1
 70
     0
  9
$DIMSD2
 70
     0
  9
$DIMTOLJ
 70
     1
  9
$DIMTZIN
 70
     0
  9
$DIMALTZ
 70
     0
  9
$DIMALTTZ
 70
     0
  9
$DIMFIT
 70
     3
  9
$DIMUPT
 70
     0
  9
$DIMUNIT
 70
     2
  9
$DIMDEC
 70
     0
  9
$DIMTDEC
 70
     0
  9
$DIMALTU
 70
     2
  9
$DIMALTTD
 70
     2
  9
$DIMTXSTY
  7
STANDARD
  9
$DIMAUNIT
 70
     0
  9
$LUNITS
 70
     2
  9
$LUPREC
 70
     4
  9
$SKETCHINC
 40
1.0
  9
$FILLETRAD
 40
10.0
  9
$AUNITS
 70
     0
  9
$AUPREC
 70
     0
  9
$MENU
  1
.
  9
$ELEVATION
 40
0.0
  9
$PELEVATION
 40
0.0
  9
$THICKNESS
 40
0.0
  9
$LIMCHECK
 70
     0
  9
$BLIPMODE
 70
     0
  9
$CHAMFERA
 40
10.0
  9
$CHAMFERB
 40
10.0
  9
$CHAMFERC
 40
20.0
  9
$CHAMFERD
 40
0.0
  9
$SKPOLY
 70
     0
  9
$TDCREATE
 40
2451569.441154629
  9
$TDUPDATE
 40
2453802.456183449
  9
$TDINDWG
 40
0.1738231713
  9
$TDUSRTIMER
 40
0.1738231713
  9
$USRTIMER
 70
     1
  9
$ANGBASE
 50
0.0
  9
$ANGDIR
 70
     0
  9
$PDMODE
 70
     0
  9
$PDSIZE
 40
0.0
  9
$PLINEWID
 40
0.0
  9
$COORDS
 70
     1
  9
$SPLFRAME
 70
     0
  9
$SPLINETYPE
 70
     6
  9
$SPLINESEGS
 70
     8
  9
$ATTDIA
 70
     0
  9
$ATTREQ
 70
     1
  9
$HANDLING
 70
 10241
  9
$HANDSEED
  5
412C
  9
$SURFTAB1
 70
     6
  9
$SURFTAB2
 70
     6
  9
$SURFTYPE
 70
     6
  9
$SURFU
 70
     6
  9
$SURFV
 70
     6
  9
$UCSNAME
  2

  9
$UCSORG
 10
0.0
 20
0.0
 30
0.0
  9
$UCSXDIR
 10
1.0
 20
0.0
 30
0.0
  9
$UCSYDIR
 10
0.0
 20
1.0
 30
0.0
  9
$PUCSNAME
  2

  9
$PUCSORG
 10
0.0
 20
0.0
 30
0.0
  9
$PUCSXDIR
 10
1.0
 20
0.0
 30
0.0
  9
$PUCSYDIR
 10
0.0
 20
1.0
 30
0.0
  9
$USERI1
 70
     0
  9
$USERI2
 70
     0
  9
$USERI3
 70
     0
  9
$USERI4
 70
     0
  9
$USERI5
 70
     0
  9
$USERR1
 40
0.0
  9
$USERR2
 40
0.0
  9
$USERR3
 40
0.0
  9
$USERR4
 40
0.0
  9
$USERR5
 40
0.0
  9
$WORLDVIEW
 70
     1
  9
$SHADEDGE
 70
     3
  9
$SHADEDIF
 70
    70
  9
$TILEMODE
 70
     1
  9
$MAXACTVP
 70
    16
  9
$PINSBASE
 10
0.0
 20
0.0
 30
0.0
  9
$PLIMCHECK
 70
     0
  9
$PEXTMIN
 10
0.0
 20
0.0
 30
0.0
  9
$PEXTMAX
 10
420.0
 20
297.0
 30
0.0
  9
$PLIMMIN
 10
0.0
 20
0.0
  9
$PLIMMAX
 10
420.0
 20
297.0
  9
$UNITMODE
 70
     0
  9
$VISRETAIN
 70
     0
  9
$PLINEGEN
 70
     0
  9
$PSLTSCALE
 70
     1
  9
$TREEDEPTH
 70
  3020
  9
$PICKSTYLE
 70
     1
  9
$CMLSTYLE
  2
STANDARD
  9
$CMLJUST
 70
     0
  9
$CMLSCALE
 40
1.0
  9
$PROXYGRAPHICS
 70
     1
  9
$MEASUREMENT
 70
     1
  0
ENDSEC
  0
SECTION
  2
CLASSES
  0
CLASS
  1
ACDBDICTIONARYWDFLT
  2
AcDbDictionaryWithDefault
  3
AutoCAD 2000
 90
        0
280
     0
281
     0
  0
CLASS
  1
ACDBPLACEHOLDER
  2
AcDbPlaceHolder
  3
AutoCAD 2000
 90
        0
280
     0
281
     0
  0
CLASS
  1
LAYOUT
  2
AcDbLayout
  3
AutoCAD 2000
 90
        0
280
     0
281
     0
  0
CLASS
  1
LONG_TRANSACTION
  2
AcDbLongTransaction
  3
AutoCAD 2000
 90
        0
280
     0
281
     0
  0
CLASS
  1
LWPOLYLINE
  2
AcDbPolyline
  3
AutoCAD 2000
 90
        0
280
     0
281
     1
  0
CLASS
  1
HATCH
  2
AcDbHatch
  3
AutoCAD 2000
 90
        0
280
     0
281
     1
  0
CLASS
  1
XRECORD
  2
AcDbXrecord
  3
AutoCAD 2000
 90
        0
280
     0
281
     0
  0
CLASS
  1
LONG_TRANSACTION
  2
AcDbLongTransaction
  3
AutoCAD 2000
 90
        0
280
     0
281
     0
  0
CLASS
  1
LWPOLYLINE
  2
AcDbPolyline
  3
AutoCAD 2000
 90
        0
280
     0
281
     1
  0
CLASS
  1
HATCH
  2
AcDbHatch
  3
AutoCAD 2000
 90
        0
280
     0
281
     1
  0
CLASS
  1
XRECORD
  2
AcDbXrecord
  3
AutoCAD 2000
 90
        0
280
     0
281
     0
  0
CLASS
  1
LONG_TRANSACTION
  2
AcDbLongTransaction
  3
AutoCAD 2000
 90
        0
280
     0
281
     0
  0
CLASS
  1
LWPOLYLINE
  2
AcDbPolyline
  3
AutoCAD 2000
 90
        0
280
     0
281
     1
  0
CLASS
  1
HATCH
  2
AcDbHatch
  3
AutoCAD 2000
 90
        0
280
     0
281
     1
  0
CLASS
  1
XRECORD
  2
AcDbXrecord
  3
AutoCAD 2000
 90
        0
280
     0
281
     0
  0
CLASS
  1
LONG_TRANSACTION
  2
AcDbLongTransaction
  3
AutoCAD 2000
 90
        0
280
     0
281
     0
  0
CLASS
  1
LWPOLYLINE
  2
AcDbPolyline
  3
AutoCAD 2000
 90
        0
280
     0
281
     1
  0
CLASS
  1
HATCH
  2
AcDbHatch
  3
AutoCAD 2000
 90
        0
280
     0
281
     1
  0
CLASS
  1
XRECORD
  2
AcDbXrecord
  3
AutoCAD 2000
 90
        0
280
     0
281
     0
  0
CLASS
  1
LONG_TRANSACTION
  2
AcDbLongTransaction
  3
AutoCAD 2000
 90
        0
280
     0
281
     0
  0
CLASS
  1
LWPOLYLINE
  2
AcDbPolyline
  3
AutoCAD 2000
 90
        0
280
     0
281
     1
  0
CLASS
  1
HATCH
  2
AcDbHatch
  3
AutoCAD 2000
 90
        0
280
     0
281
     1
  0
CLASS
  1
XRECORD
  2
AcDbXrecord
  3
AutoCAD 2000
 90
        0
280
     0
281
     0
  0
CLASS
  1
LONG_TRANSACTION
  2
AcDbLongTransaction
  3
AutoCAD 2000
 90
        0
280
     0
281
     0
  0
CLASS
  1
LWPOLYLINE
  2
AcDbPolyline
  3
AutoCAD 2000
 90
        0
280
     0
281
     1
  0
CLASS
  1
HATCH
  2
AcDbHatch
  3
AutoCAD 2000
 90
        0
280
     0
281
     1
  0
CLASS
  1
XRECORD
  2
AcDbXrecord
  3
AutoCAD 2000
 90
        0
280
     0
281
     0
  0
CLASS
  1
LONG_TRANSACTION
  2
AcDbLongTransaction
  3
AutoCAD 2000
 90
        0
280
     0
281
     0
  0
CLASS
  1
LWPOLYLINE
  2
AcDbPolyline
  3
AutoCAD 2000
 90
        0
280
     0
281
     1
  0
CLASS
  1
HATCH
  2
AcDbHatch
  3
AutoCAD 2000
 90
        0
280
     0
281
     1
  0
CLASS
  1
XRECORD
  2
AcDbXrecord
  3
AutoCAD 2000
 90
        0
280
     0
281
     0
  0
CLASS
  1
LONG_TRANSACTION
  2
AcDbLongTransaction
  3
AutoCAD 2000
 90
        0
280
     0
281
     0
  0
CLASS
  1
LWPOLYLINE
  2
AcDbPolyline
  3
AutoCAD 2000
 90
        0
280
     0
281
     1
  0
CLASS
  1
HATCH
  2
AcDbHatch
  3
AutoCAD 2000
 90
        0
280
     0
281
     1
  0
CLASS
  1
XRECORD
  2
AcDbXrecord
  3
AutoCAD 2000
 90
        0
280
     0
281
     0
  0
CLASS
  1
LONG_TRANSACTION
  2
AcDbLongTransaction
  3
AutoCAD 2000
 90
        0
280
     0
281
     0
  0
CLASS
  1
LWPOLYLINE
  2
AcDbPolyline
  3
AutoCAD 2000
 90
        0
280
     0
281
     1
  0
CLASS
  1
HATCH
  2
AcDbHatch
  3
AutoCAD 2000
 90
        0
280
     0
281
     1
  0
CLASS
  1
XRECORD
  2
AcDbXrecord
  3
AutoCAD 2000
 90
        0
280
     0
281
     0
  0
CLASS
  1
LONG_TRANSACTION
  2
AcDbLongTransaction
  3
AutoCAD 2000
 90
        0
280
     0
281
     0
  0
CLASS
  1
LWPOLYLINE
  2
AcDbPolyline
  3
AutoCAD 2000
 90
        0
280
     0
281
     1
  0
CLASS
  1
HATCH
  2
AcDbHatch
  3
AutoCAD 2000
 90
        0
280
     0
281
     1
  0
CLASS
  1
XRECORD
  2
AcDbXrecord
  3
AutoCAD 2000
 90
        0
280
     0
281
     0
  0
ENDSEC
  0
SECTION
  2
TABLES
  0
TABLE
  2
VPORT
  5
8
330
0
100
AcDbSymbolTable
 70
     2
  0
VPORT
  5
4108
330
8
100
AcDbSymbolTableRecord
100
AcDbViewportTableRecord
  2
*ACTIVE
 70
     0
 10
0.0
 20
0.0
 11
1.0
 21
1.0
 12
217.2650120307968
 22
143.1599647579199
 13
0.0
 23
0.0
 14
5.0
 24
5.0
 15
0.0
 25
0.0
 16
0.0
 26
0.0
 36
1.0
 17
0.0
 27
0.0
 37
0.0
 40
335.7050784033765
 41
1.795454545454545
 42
50.0
 43
0.0
 44
0.0
 50
0.0
 51
0.0
 71
     0
 72
   100
 73
     1
 74
     0
 75
     0
 76
     0
 77
     0
 78
     0
  0
ENDTAB
  0
TABLE
  2
LTYPE
  5
5
330
0
100
AcDbSymbolTable
 70
     4
  0
LTYPE
  5
14
330
5
100
AcDbSymbolTableRecord
100
AcDbLinetypeTableRecord
  2
BYBLOCK
 70
     0
  3

 72
    65
 73
     0
 40
0.0
  0
LTYPE
  5
15
330
5
100
AcDbSymbolTableRecord
100
AcDbLinetypeTableRecord
  2
BYLAYER
 70
     0
  3

 72
    65
 73
     0
 40
0.0
  0
LTYPE
  5
16
330
5
100
AcDbSymbolTableRecord
100
AcDbLinetypeTableRecord
  2
CONTINUOUS
 70
     0
  3
Solid line
 72
    65
 73
     0
 40
0.0
  0
LTYPE
  5
120
330
5
100
AcDbSymbolTableRecord
100
AcDbLinetypeTableRecord
  2
CENTER
 70
     0
  3
____ _ ____ _ ____ _ ____ _ ____ _ ____ _ ____ 
 72
    65
 73
     4
 40
2.0
 49
1.25
 74
     0
 49
-0.25
 74
     0
 49
0.25
 74
     0
 49
-0.25
 74
     0
  0
LTYPE
  5
122
330
5
100
AcDbSymbolTableRecord
100
AcDbLinetypeTableRecord
  2
PHANTOM
 70
     0
  3
______  __  __  ______  __  __  ______  __  __ 
 72
    65
 73
     6
 40
2.5
 49
1.25
 74
     0
 49
-0.25
 74
     0
 49
0.25
 74
     0
 49
-0.25
 74
     0
 49
0.25
 74
     0
 49
-0.25
 74
     0
  0
LTYPE
  5
12B
330
5
100
AcDbSymbolTableRecord
100
AcDbLinetypeTableRecord
  2
DASHED
 70
     0
  3
__ __ __ __ __ __ __ __ __ __ __ __ __ __ __ __
 72
    65
 73
     2
 40
0.75
 49
0.5
 74
     0
 49
-0.25
 74
     0
  0
ENDTAB
  0
TABLE
  2
LAYER
  5
2
330
0
100
AcDbSymbolTable
 70
     9
  0
LAYER
  5
F
330
2
100
AcDbSymbolTableRecord
100
AcDbLayerTableRecord
  2
0
 70
     0
 62
     7
  6
CONTINUOUS
  0
LAYER
  5
62
330
2
100
AcDbSymbolTableRecord
100
AcDbLayerTableRecord
  2
VIEWPORT
 70
     0
 62
     7
  6
CONTINUOUS
  0
LAYER
  5
6B
330
2
100
AcDbSymbolTableRecord
100
AcDbLayerTableRecord
  2
ZUWAKU
 70
     0
 62
     7
  6
CONTINUOUS
  0
LAYER
  5
48C
330
2
100
AcDbSymbolTableRecord
100
AcDbLayerTableRecord
  2
DEFPOINTS
 70
     0
 62
     7
  6
CONTINUOUS
  0
LAYER
  5
629
330
2
100
AcDbSymbolTableRecord
100
AcDbLayerTableRecord
  2
SEIHIN
 70
     0
 62
     3
  6
CONTINUOUS
  0
LAYER
  5
62A
330
2
100
AcDbSymbolTableRecord
100
AcDbLayerTableRecord
  2
SUNPOU
 70
     0
 62
     4
  6
CONTINUOUS
  0
LAYER
  5
62B
330
2
100
AcDbSymbolTableRecord
100
AcDbLayerTableRecord
  2
CENTER_L
 70
     0
 62
     1
  6
CENTER
  0
LAYER
  5
65C
330
2
100
AcDbSymbolTableRecord
100
AcDbLayerTableRecord
  2
NOKITOI
 70
     0
 62
     8
  6
PHANTOM
  0
LAYER
  5
3F06
330
2
100
AcDbSymbolTableRecord
100
AcDbLayerTableRecord
  2
MOJI
 70
     0
 62
     2
  6
CONTINUOUS
  0
ENDTAB
  0
TABLE
  2
STYLE
  5
3
330
0
100
AcDbSymbolTable
 70
     2
  0
STYLE
  5
10
330
3
100
AcDbSymbolTableRecord
100
AcDbTextStyleTableRecord
  2
STANDARD
 70
     0
 40
0.0
 41
1.0
 50
0.0
 71
     0
 42
3.0
  3
TXT
  4
c:\PROGRAM FILES\AUTOCAD LT\ms\bigfont.shx
  0
STYLE
  5
3F07
330
3
100
AcDbSymbolTableRecord
100
AcDbTextStyleTableRecord
  2
ｽﾀｲﾙ1
 70
     0
 40
0.0
 41
1.0
 50
0.0
 71
     0
 42
2.5
  3
MS PGothic.ttf
  4

1001
ACAD
1000
MS PGothic
1071
    32818
  0
ENDTAB
  0
TABLE
  2
VIEW
  5
6
330
0
100
AcDbSymbolTable
 70
     0
  0
ENDTAB
  0
TABLE
  2
UCS
  5
7
330
0
100
AcDbSymbolTable
 70
     0
  0
ENDTAB
  0
TABLE
  2
APPID
  5
9
330
0
100
AcDbSymbolTable
 70
     1
  0
APPID
  5
11
330
9
100
AcDbSymbolTableRecord
100
AcDbRegAppTableRecord
  2
ACAD
 70
     0
  0
ENDTAB
  0
TABLE
  2
DIMSTYLE
  5
A
330
0
100
AcDbSymbolTable
 70
     1
  0
DIMSTYLE
105
1D
102
{ACAD_REACTORS
330
1057
330
39C3
330
39C4
330
39C6
330
39C7
330
3B4E
330
3B59
330
3B64
330
3B65
330
3B67
330
3B68
330
3B6C
330
3D54
330
3D85
330
3D9F
102
}
330
A
100
AcDbSymbolTableRecord
100
AcDbDimStyleTableRecord
  2
STANDARD
 70
     0
  3

  4

  5

  6

  7

 40
1.0
 41
0.18
 42
0.0625
 43
0.38
 44
0.18
 45
0.0
 46
0.0
 47
0.0
 48
0.0
140
0.18
141
0.09
142
0.0
143
25.4
144
1.0
145
0.0
146
1.0
147
0.09
 71
     0
 72
     0
 73
     1
 74
     1
 75
     0
 76
     0
 77
     0
 78
     0
170
     0
171
     2
172
     0
173
     0
174
     0
175
     0
176
     0
177
     0
178
     0
270
     2
271
     4
272
     4
273
     2
274
     2
340
10
275
     0
280
     0
281
     0
282
     0
283
     1
284
     0
285
     0
286
     0
287
     3
288
     0
  0
ENDTAB
  0
TABLE
  2
BLOCK_RECORD
  5
1
330
0
100
AcDbSymbolTable
 70
    16
  0
BLOCK_RECORD
  5
1A
102
{ACAD_XDICTIONARY
360
73C
102
}
330
1
100
AcDbSymbolTableRecord
100
AcDbBlockTableRecord
  2
*MODEL_SPACE
  0
BLOCK_RECORD
  5
17
102
{ACAD_XDICTIONARY
360
73A
102
}
330
1
100
AcDbSymbolTableRecord
100
AcDbBlockTableRecord
  2
*PAPER_SPACE
  0
BLOCK_RECORD
  5
B2
330
1
100
AcDbSymbolTableRecord
100
AcDbBlockTableRecord
  2
_OPEN
  0
BLOCK_RECORD
  5
1058
330
1
100
AcDbSymbolTableRecord
100
AcDbBlockTableRecord
  2
*D1
  0
BLOCK_RECORD
  5
3BA4
330
1
100
AcDbSymbolTableRecord
100
AcDbBlockTableRecord
  2
*D2
  0
BLOCK_RECORD
  5
3BB0
330
1
100
AcDbSymbolTableRecord
100
AcDbBlockTableRecord
  2
*D3
  0
BLOCK_RECORD
  5
3BBC
330
1
100
AcDbSymbolTableRecord
100
AcDbBlockTableRecord
  2
*D4
  0
BLOCK_RECORD
  5
3BC8
330
1
100
AcDbSymbolTableRecord
100
AcDbBlockTableRecord
  2
*D5
  0
BLOCK_RECORD
  5
3C06
330
1
100
AcDbSymbolTableRecord
100
AcDbBlockTableRecord
  2
*D6
  0
BLOCK_RECORD
  5
3C12
330
1
100
AcDbSymbolTableRecord
100
AcDbBlockTableRecord
  2
*D7
  0
BLOCK_RECORD
  5
3C20
330
1
100
AcDbSymbolTableRecord
100
AcDbBlockTableRecord
  2
*D8
  0
BLOCK_RECORD
  5
3C2C
330
1
100
AcDbSymbolTableRecord
100
AcDbBlockTableRecord
  2
*D9
  0
BLOCK_RECORD
  5
3C38
330
1
100
AcDbSymbolTableRecord
100
AcDbBlockTableRecord
  2
*D10
  0
BLOCK_RECORD
  5
3C46
330
1
100
AcDbSymbolTableRecord
100
AcDbBlockTableRecord
  2
*D11
  0
BLOCK_RECORD
  5
3C52
330
1
100
AcDbSymbolTableRecord
100
AcDbBlockTableRecord
  2
*D12
  0
BLOCK_RECORD
  5
3D55
330
1
100
AcDbSymbolTableRecord
100
AcDbBlockTableRecord
  2
*D13
  0
BLOCK_RECORD
  5
3D86
330
1
100
AcDbSymbolTableRecord
100
AcDbBlockTableRecord
  2
*D14
  0
BLOCK_RECORD
  5
3DA0
330
1
100
AcDbSymbolTableRecord
100
AcDbBlockTableRecord
  2
*D15
  0
ENDTAB
  0
ENDSEC
  0
SECTION
  2
BLOCKS
  0
BLOCK
  5
1B
330
1A
100
AcDbEntity
  8
0
100
AcDbBlockBegin
  2
*MODEL_SPACE
 70
     0
 10
0.0
 20
0.0
 30
0.0
  3
*MODEL_SPACE
  1

  0
ENDBLK
  5
1C
330
1A
100
AcDbEntity
  8
0
100
AcDbBlockEnd
  0
BLOCK
  5
18
330
17
100
AcDbEntity
 67
     1
  8
0
100
AcDbBlockBegin
  2
*PAPER_SPACE
 70
     0
 10
0.0
 20
0.0
 30
0.0
  3
*PAPER_SPACE
  1

  0
ENDBLK
  5
19
330
17
100
AcDbEntity
 67
     1
  8
0
100
AcDbBlockEnd
  0
BLOCK
  5
B3
330
B2
100
AcDbEntity
  8
0
100
AcDbBlockBegin
  2
_OPEN
 70
     0
 10
0.0
 20
0.0
 30
0.0
  3
_OPEN
  1

  0
LINE
  5
B4
330
B2
100
AcDbEntity
  8
0
  6
BYBLOCK
 62
     0
100
AcDbLine
 10
-1.0
 20
0.1666666666666666
 30
0.0
 11
0.0
 21
0.0
 31
0.0
  0
LINE
  5
B5
330
B2
100
AcDbEntity
  8
0
  6
BYBLOCK
 62
     0
100
AcDbLine
 10
0.0
 20
0.0
 30
0.0
 11
-1.0
 21
-0.1666666666666666
 31
0.0
  0
LINE
  5
B6
330
B2
100
AcDbEntity
  8
0
  6
BYBLOCK
 62
     0
100
AcDbLine
 10
0.0
 20
0.0
 30
0.0
 11
-1.0
 21
0.0
 31
0.0
  0
ENDBLK
  5
B7
330
B2
100
AcDbEntity
  8
0
100
AcDbBlockEnd
  0
BLOCK
  5
1062
330
1058
100
AcDbEntity
  8
0
100
AcDbBlockBegin
  2
*D1
 70
     1
 10
0.0
 20
0.0
 30
0.0
  3
*D1
  1

  0
LINE
  5
40AD
330
1058
100
AcDbEntity
  8
SUNPOU
100
AcDbLine
 10
66.05798636643945
 20
223.2999827400329
 30
0.0
 11
41.67272371978993
 21
223.2999827400329
 31
0.0
  0
LINE
  5
40AE
330
1058
100
AcDbEntity
  8
SUNPOU
100
AcDbLine
 10
66.05798636643945
 20
201.2999827000329
 30
0.0
 11
41.67272371978993
 21
201.2999827000329
 31
0.0
  0
LINE
  5
40AF
330
1058
100
AcDbEntity
  8
SUNPOU
100
AcDbLine
 10
43.17272371978993
 20
220.2999827400329
 30
0.0
 11
43.17272371978993
 21
204.2999827000329
 31
0.0
  0
INSERT
  5
40B0
330
1058
100
AcDbEntity
  8
SUNPOU
100
AcDbBlockReference
  2
_OPEN
 10
43.17272371978993
 20
223.2999827400329
 30
0.0
 41
3.0
 42
3.0
 43
3.0
 50
90.0
  0
INSERT
  5
40B1
330
1058
100
AcDbEntity
  8
SUNPOU
100
AcDbBlockReference
  2
_OPEN
 10
43.17272371978993
 20
201.2999827000329
 30
0.0
 41
3.0
 42
3.0
 43
3.0
 50
270.0
  0
MTEXT
  5
40B2
330
1058
100
AcDbEntity
  8
SUNPOU
100
AcDbMText
 10
40.67272371978989
 20
212.2999827200329
 30
0.0
 40
3.0
 41
0.0
 71
     5
 72
     1
  1
\A1;22
 11
0.0000000000000001
 21
1.0
 31
0.0
1001
ACAD
1000
MTEXTBEGIN
1070
    73
1070
     1
1070
    44
1040
1.0
1070
    74
1070
     0
1000
MTEXTEND
  0
POINT
  5
40B3
330
1058
100
AcDbEntity
  8
DEFPOINTS
 62
     0
100
AcDbPoint
 10
69.05798636643945
 20
223.2999827400329
 30
0.0
  0
POINT
  5
40B4
330
1058
100
AcDbEntity
  8
DEFPOINTS
 62
     0
100
AcDbPoint
 10
69.05798636643945
 20
201.2999827000329
 30
0.0
  0
POINT
  5
40B5
330
1058
100
AcDbEntity
  8
DEFPOINTS
 62
     0
100
AcDbPoint
 10
43.17272371978993
 20
201.2999827000329
 30
0.0
  0
ENDBLK
  5
1063
330
1058
100
AcDbEntity
  8
0
100
AcDbBlockEnd
  0
BLOCK
  5
3BAE
330
3BA4
100
AcDbEntity
  8
0
100
AcDbBlockBegin
  2
*D2
 70
     1
 10
0.0
 20
0.0
 30
0.0
  3
*D2
  1

  0
LINE
  5
4092
330
3BA4
100
AcDbEntity
  8
SUNPOU
100
AcDbLine
 10
195.9662902621412
 20
146.9009461013228
 30
0.0
 11
210.676140126008
 21
154.2558710332563
 31
0.0
  0
LINE
  5
4093
330
3BA4
100
AcDbEntity
  8
SUNPOU
100
AcDbLine
 10
219.2213972281391
 20
100.3907321693273
 30
0.0
 11
233.9312470920059
 21
107.7456571012607
 31
0.0
  0
LINE
  5
4094
330
3BA4
100
AcDbEntity
  8
SUNPOU
100
AcDbLine
 10
210.676140126008
 20
150.9017690670066
 30
0.0
 11
231.2479655190062
 21
109.7581182810105
 31
0.0
  0
INSERT
  5
4095
330
3BA4
100
AcDbEntity
  8
SUNPOU
100
AcDbBlockReference
  2
_OPEN
 10
209.3344993395081
 20
153.5850506400063
 30
0.0
 41
3.0
 42
3.0
 43
3.0
 50
116.5650511770781
  0
INSERT
  5
4096
330
3BA4
100
AcDbEntity
  8
SUNPOU
100
AcDbBlockReference
  2
_OPEN
 10
232.589606305506
 20
107.0748367080108
 30
0.0
 41
3.0
 42
3.0
 43
3.0
 50
296.5650511770781
  0
MTEXT
  5
4097
330
3BA4
100
AcDbEntity
  8
SUNPOU
100
AcDbMText
 10
223.1981208000069
 20
131.4479776627584
 30
0.0
 40
3.0
 41
0.0
 71
     5
 72
     1
  1
\A1;52
 11
0.44721359549996
 21
-0.8944271909999148
 31
0.0
1001
ACAD
1000
MTEXTBEGIN
1070
    73
1070
     1
1070
    44
1040
1.0
1070
    74
1070
     0
1000
MTEXTEND
  0
POINT
  5
4098
330
3BA4
100
AcDbEntity
  8
DEFPOINTS
 62
     0
100
AcDbPoint
 10
193.2830086891415
 20
145.559305314823
 30
0.0
  0
POINT
  5
4099
330
3BA4
100
AcDbEntity
  8
DEFPOINTS
 62
     0
100
AcDbPoint
 10
216.5381156551394
 20
99.04909138282743
 30
0.0
  0
POINT
  5
409A
330
3BA4
100
AcDbEntity
  8
DEFPOINTS
 62
     0
100
AcDbPoint
 10
232.589606305506
 20
107.0748367080108
 30
0.0
  0
ENDBLK
  5
3BAF
330
3BA4
100
AcDbEntity
  8
0
100
AcDbBlockEnd
  0
BLOCK
  5
3BBA
330
3BB0
100
AcDbEntity
  8
0
100
AcDbBlockBegin
  2
*D3
 70
     1
 10
0.0
 20
0.0
 30
0.0
  3
*D3
  1

  0
LINE
  5
40DC
330
3BB0
100
AcDbEntity
  8
SUNPOU
100
AcDbLine
 10
218.6436884633559
 20
238.7999827200329
 30
0.0
 11
234.9677448408779
 21
238.7999827200329
 31
0.0
  0
LINE
  5
40DD
330
3BB0
100
AcDbEntity
  8
SUNPOU
100
AcDbLine
 10
218.6436884633559
 20
185.7999827200329
 30
0.0
 11
234.9677448408779
 21
185.7999827200329
 31
0.0
  0
LINE
  5
40DE
330
3BB0
100
AcDbEntity
  8
SUNPOU
100
AcDbLine
 10
233.4677448408779
 20
235.7999827200329
 30
0.0
 11
233.4677448408779
 21
188.7999827200329
 31
0.0
  0
INSERT
  5
40DF
330
3BB0
100
AcDbEntity
  8
SUNPOU
100
AcDbBlockReference
  2
_OPEN
 10
233.4677448408779
 20
238.7999827200329
 30
0.0
 41
3.0
 42
3.0
 43
3.0
 50
90.0
  0
INSERT
  5
40E0
330
3BB0
100
AcDbEntity
  8
SUNPOU
100
AcDbBlockReference
  2
_OPEN
 10
233.4677448408779
 20
185.7999827200329
 30
0.0
 41
3.0
 42
3.0
 43
3.0
 50
270.0
  0
MTEXT
  5
40E1
330
3BB0
100
AcDbEntity
  8
SUNPOU
100
AcDbMText
 10
230.9677448408778
 20
212.299982720033
 30
0.0
 40
3.0
 41
0.0
 71
     5
 72
     1
  1
\A1;53
 11
0.0000000000000001
 21
1.0
 31
0.0
1001
ACAD
1000
MTEXTBEGIN
1070
    73
1070
     1
1070
    44
1040
1.0
1070
    74
1070
     0
1000
MTEXTEND
  0
POINT
  5
40E2
330
3BB0
100
AcDbEntity
  8
DEFPOINTS
 62
     0
100
AcDbPoint
 10
215.6436884633559
 20
238.7999827200329
 30
0.0
  0
POINT
  5
40E3
330
3BB0
100
AcDbEntity
  8
DEFPOINTS
 62
     0
100
AcDbPoint
 10
215.6436884633559
 20
185.7999827200329
 30
0.0
  0
POINT
  5
40E4
330
3BB0
100
AcDbEntity
  8
DEFPOINTS
 62
     0
100
AcDbPoint
 10
233.4677448408779
 20
185.7999827200329
 30
0.0
  0
ENDBLK
  5
3BBB
330
3BB0
100
AcDbEntity
  8
0
100
AcDbBlockEnd
  0
BLOCK
  5
3BC6
330
3BBC
100
AcDbEntity
  8
0
100
AcDbBlockBegin
  2
*D4
 70
     1
 10
0.0
 20
0.0
 30
0.0
  3
*D4
  1

  0
LINE
  5
4089
330
3BBC
100
AcDbEntity
  8
SUNPOU
100
AcDbLine
 10
195.9112357529362
 20
143.3028511807258
 30
0.0
 11
195.9112357529362
 21
166.4184717591413
 31
0.0
  0
LINE
  5
408A
330
3BBC
100
AcDbEntity
  8
SUNPOU
100
AcDbLine
 10
230.9112357529362
 20
143.3028511807258
 30
0.0
 11
230.9112357529362
 21
166.4184717591413
 31
0.0
  0
LINE
  5
408B
330
3BBC
100
AcDbEntity
  8
SUNPOU
100
AcDbLine
 10
198.9112357529362
 20
164.9184717591413
 30
0.0
 11
227.9112357529363
 21
164.9184717591413
 31
0.0
  0
INSERT
  5
408C
330
3BBC
100
AcDbEntity
  8
SUNPOU
100
AcDbBlockReference
  2
_OPEN
 10
195.9112357529362
 20
164.9184717591413
 30
0.0
 41
3.0
 42
3.0
 43
3.0
 50
180.0
  0
INSERT
  5
408D
330
3BBC
100
AcDbEntity
  8
SUNPOU
100
AcDbBlockReference
  2
_OPEN
 10
230.9112357529362
 20
164.9184717591413
 30
0.0
 41
3.0
 42
3.0
 43
3.0
  0
MTEXT
  5
408E
330
3BBC
100
AcDbEntity
  8
SUNPOU
100
AcDbMText
 10
213.4112357529363
 20
167.4184717591413
 30
0.0
 40
3.0
 41
0.0
 71
     5
 72
     1
  1
\A1;35
1001
ACAD
1000
MTEXTBEGIN
1070
    73
1070
     1
1070
    44
1040
1.0
1070
    74
1070
     0
1000
MTEXTEND
  0
POINT
  5
408F
330
3BBC
100
AcDbEntity
  8
DEFPOINTS
 62
     0
100
AcDbPoint
 10
195.9112357529362
 20
140.3028511807258
 30
0.0
  0
POINT
  5
4090
330
3BBC
100
AcDbEntity
  8
DEFPOINTS
 62
     0
100
AcDbPoint
 10
230.9112357529362
 20
140.3028511807258
 30
0.0
  0
POINT
  5
4091
330
3BBC
100
AcDbEntity
  8
DEFPOINTS
 62
     0
100
AcDbPoint
 10
230.9112357529362
 20
164.9184717591413
 30
0.0
  0
ENDBLK
  5
3BC7
330
3BBC
100
AcDbEntity
  8
0
100
AcDbBlockEnd
  0
BLOCK
  5
3BD2
330
3BC8
100
AcDbEntity
  8
0
100
AcDbBlockBegin
  2
*D5
 70
     1
 10
0.0
 20
0.0
 30
0.0
  3
*D5
  1

  0
LINE
  5
4080
330
3BC8
100
AcDbEntity
  8
SUNPOU
100
AcDbLine
 10
203.1217077900392
 20
132.5901110395273
 30
0.0
 11
210.8315863965061
 21
136.4450503434791
 31
0.0
  0
LINE
  5
4081
330
3BC8
100
AcDbEntity
  8
SUNPOU
100
AcDbLine
 10
219.2213972280392
 20
100.3907321695273
 30
0.0
 11
226.9312758345062
 21
104.2456714734791
 31
0.0
  0
LINE
  5
4082
330
3BC8
100
AcDbEntity
  8
SUNPOU
100
AcDbLine
 10
210.8315863967562
 20
133.0909483772294
 30
0.0
 11
224.2479942613564
 21
106.2581326530289
 31
0.0
  0
INSERT
  5
4083
330
3BC8
100
AcDbEntity
  8
SUNPOU
100
AcDbBlockReference
  2
_OPEN
 10
209.4899456100563
 20
135.7742299501291
 30
0.0
 41
3.0
 42
3.0
 43
3.0
 50
116.5650511813485
  0
INSERT
  5
4084
330
3BC8
100
AcDbEntity
  8
SUNPOU
100
AcDbBlockReference
  2
_OPEN
 10
225.5896350480563
 20
103.5748510801292
 30
0.0
 41
3.0
 42
3.0
 43
3.0
 50
296.5650511813485
  0
MTEXT
  5
4085
330
3BC8
100
AcDbEntity
  8
SUNPOU
100
AcDbMText
 10
219.7758583064727
 20
120.7925745040457
 30
0.0
 40
3.0
 41
0.0
 71
     5
 72
     1
  1
\A1;36
 11
0.4472135955666242
 21
-0.8944271909665827
 31
0.0
1001
ACAD
1000
MTEXTBEGIN
1070
    73
1070
     1
1070
    44
1040
1.0
1070
    74
1070
     0
1000
MTEXTEND
  0
POINT
  5
4086
330
3BC8
100
AcDbEntity
  8
DEFPOINTS
 62
     0
100
AcDbPoint
 10
200.4384262171394
 20
131.2484702528274
 30
0.0
  0
POINT
  5
4087
330
3BC8
100
AcDbEntity
  8
DEFPOINTS
 62
     0
100
AcDbPoint
 10
216.5381156551394
 20
99.04909138282746
 30
0.0
  0
POINT
  5
4088
330
3BC8
100
AcDbEntity
  8
DEFPOINTS
 62
     0
100
AcDbPoint
 10
225.5896350480563
 20
103.5748510801292
 30
0.0
  0
ENDBLK
  5
3BD3
330
3BC8
100
AcDbEntity
  8
0
100
AcDbBlockEnd
  0
BLOCK
  5
3C10
330
3C06
100
AcDbEntity
  8
0
100
AcDbBlockBegin
  2
*D6
 70
     1
 10
0.0
 20
0.0
 30
0.0
  3
*D6
  1

  0
LINE
  5
40C1
330
3C06
100
AcDbEntity
  8
SUNPOU
100
AcDbLine
 10
289.1523982746728
 20
175.6054562758863
 30
0.0
 11
267.6734855522882
 21
164.8659999184462
 31
0.0
  0
LINE
  5
40C2
330
3C06
100
AcDbEntity
  8
SUNPOU
100
AcDbLine
 10
305.2520877031471
 20
143.4060774076877
 30
0.0
 11
283.7731749807625
 21
132.6666210502476
 31
0.0
  0
LINE
  5
40C3
330
3C06
100
AcDbEntity
  8
SUNPOU
100
AcDbLine
 10
270.3567671250067
 20
162.8535387383214
 30
0.0
 11
283.7731749812312
 21
136.0207230164973
 31
0.0
  0
INSERT
  5
40C4
330
3C06
100
AcDbEntity
  8
SUNPOU
100
AcDbBlockReference
  2
_OPEN
 10
269.0151263388818
 20
165.5368203115087
 30
0.0
 41
3.0
 42
3.0
 43
3.0
 50
116.5650511690706
  0
INSERT
  5
40C5
330
3C06
100
AcDbEntity
  8
SUNPOU
100
AcDbBlockReference
  2
_OPEN
 10
285.1148157673561
 20
133.3374414433101
 30
0.0
 41
3.0
 42
3.0
 43
3.0
 50
296.5650511690706
  0
MTEXT
  5
40C6
330
3C06
100
AcDbEntity
  8
SUNPOU
100
AcDbMText
 10
279.301039030775
 20
150.5551648658467
 30
0.0
 40
3.0
 41
0.0
 71
     5
 72
     1
  1
\A1;36
 11
0.4472135953749576
 21
-0.8944271910624163
 31
0.0
1001
ACAD
1000
MTEXTBEGIN
1070
    73
1070
     1
1070
    44
1040
1.0
1070
    74
1070
     0
1000
MTEXTEND
  0
POINT
  5
40C7
330
3C06
100
AcDbEntity
  8
DEFPOINTS
 62
     0
100
AcDbPoint
 10
291.8356798478601
 20
176.9470970620112
 30
0.0
  0
POINT
  5
40C8
330
3C06
100
AcDbEntity
  8
DEFPOINTS
 62
     0
100
AcDbPoint
 10
307.9353692763344
 20
144.7477181938126
 30
0.0
  0
POINT
  5
40C9
330
3C06
100
AcDbEntity
  8
DEFPOINTS
 62
     0
100
AcDbPoint
 10
285.1148157673561
 20
133.3374414433101
 30
0.0
  0
ENDBLK
  5
3C11
330
3C06
100
AcDbEntity
  8
0
100
AcDbBlockEnd
  0
BLOCK
  5
3C1E
330
3C12
100
AcDbEntity
  8
0
100
AcDbBlockBegin
  2
*D7
 70
     1
 10
0.0
 20
0.0
 30
0.0
  3
*D7
  1

  0
LINE
  5
40B6
330
3C12
100
AcDbEntity
  8
SUNPOU
100
AcDbLine
 10
302.7924129340458
 20
148.3254269476088
 30
0.0
 11
289.7069814499232
 21
141.7827112078334
 31
0.0
  0
LINE
  5
40B7
330
3C12
100
AcDbEntity
  8
SUNPOU
100
AcDbLine
 10
305.252087703147
 20
143.4060774076877
 30
0.0
 11
292.1666562190245
 21
136.8633616679123
 31
0.0
  0
LINE
  5
40B8
330
3C12
100
AcDbEntity
  8
SUNPOU
100
AcDbLine
 10
289.7069814503921
 20
145.1368131740831
 30
0.0
 11
288.3653406642671
 21
147.8200947472703
 31
0.0
  0
LINE
  5
40B9
330
3C12
100
AcDbEntity
  8
SUNPOU
100
AcDbLine
 10
294.849937791743
 20
134.8509004877874
 30
0.0
 11
296.1915785778679
 21
132.1676189146002
 31
0.0
  0
LINE
  5
40BA
330
3C12
100
AcDbEntity
  8
SUNPOU
100
AcDbLine
 10
291.0486222365169
 20
142.4535316008958
 30
0.0
 11
293.5082970056181
 21
137.5341820609747
 31
0.0
  0
INSERT
  5
40BB
330
3C12
100
AcDbEntity
  8
SUNPOU
100
AcDbBlockReference
  2
_OPEN
 10
291.0486222365169
 20
142.4535316008958
 30
0.0
 41
3.0
 42
3.0
 43
3.0
 50
296.5650511690707
  0
INSERT
  5
40BC
330
3C12
100
AcDbEntity
  8
SUNPOU
100
AcDbBlockReference
  2
_OPEN
 10
293.5082970056181
 20
137.5341820609747
 30
0.0
 41
3.0
 42
3.0
 43
3.0
 50
116.5650511690707
  0
MTEXT
  5
40BD
330
3C12
100
AcDbEntity
  8
SUNPOU
100
AcDbMText
 10
294.5145275987235
 20
141.1118908193727
 30
0.0
 40
3.0
 41
0.0
 71
     5
 72
     1
  1
\A1;6
 11
0.4472135953749599
 21
-0.8944271910624149
 31
0.0
1001
ACAD
1000
MTEXTBEGIN
1070
    73
1070
     1
1070
    44
1040
1.0
1070
    74
1070
     0
1000
MTEXTEND
  0
POINT
  5
40BE
330
3C12
100
AcDbEntity
  8
DEFPOINTS
 62
     0
100
AcDbPoint
 10
305.4756945072331
 20
149.6670677337337
 30
0.0
  0
POINT
  5
40BF
330
3C12
100
AcDbEntity
  8
DEFPOINTS
 62
     0
100
AcDbPoint
 10
307.9353692763343
 20
144.7477181938126
 30
0.0
  0
POINT
  5
40C0
330
3C12
100
AcDbEntity
  8
DEFPOINTS
 62
     0
100
AcDbPoint
 10
293.5082970056181
 20
137.5341820609747
 30
0.0
  0
ENDBLK
  5
3C1F
330
3C12
100
AcDbEntity
  8
0
100
AcDbBlockEnd
  0
BLOCK
  5
3C2A
330
3C20
100
AcDbEntity
  8
0
100
AcDbBlockBegin
  2
*D8
 70
     1
 10
0.0
 20
0.0
 30
0.0
  3
*D8
  1

  0
LINE
  5
40CA
330
3C20
100
AcDbEntity
  8
SUNPOU
100
AcDbLine
 10
341.9236025479668
 20
201.9910584204846
 30
0.0
 11
351.7690873140541
 21
206.913800784781
 31
0.0
  0
LINE
  5
40CB
330
3C20
100
AcDbEntity
  8
SUNPOU
100
AcDbLine
 10
348.1845928702706
 20
189.4690777281898
 30
0.0
 11
358.0300776363578
 21
194.3918200924861
 31
0.0
  0
LINE
  5
40CC
330
3C20
100
AcDbEntity
  8
SUNPOU
100
AcDbLine
 10
351.7690873089447
 20
203.5596988185313
 30
0.0
 11
355.3467960664236
 21
196.4042812763234
 31
0.0
  0
INSERT
  5
40CD
330
3C20
100
AcDbEntity
  8
SUNPOU
100
AcDbBlockReference
  2
_OPEN
 10
350.4274465265323
 20
206.2429803935748
 30
0.0
 41
3.0
 42
3.0
 43
3.0
 50
116.5650510897982
  0
INSERT
  5
40CE
330
3C20
100
AcDbEntity
  8
SUNPOU
100
AcDbBlockReference
  2
_OPEN
 10
356.6884368488361
 20
193.72099970128
 30
0.0
 41
3.0
 42
3.0
 43
3.0
 50
296.5650510897982
  0
MTEXT
  5
40CF
330
3C20
100
AcDbEntity
  8
SUNPOU
100
AcDbMText
 10
355.794009666887
 20
201.100024032771
 30
0.0
 40
3.0
 41
0.0
 71
     5
 72
     1
  1
\A1;14
 11
0.4472135941374604
 21
-0.8944271916811649
 31
0.0
1001
ACAD
1000
MTEXTBEGIN
1070
    73
1070
     1
1070
    44
1040
1.0
1070
    74
1070
     0
1000
MTEXTEND
  0
POINT
  5
40D0
330
3C20
100
AcDbEntity
  8
DEFPOINTS
 62
     0
100
AcDbPoint
 10
339.2403209729233
 20
200.6494176380722
 30
0.0
  0
POINT
  5
40D1
330
3C20
100
AcDbEntity
  8
DEFPOINTS
 62
     0
100
AcDbPoint
 10
345.501311295227
 20
188.1274369457774
 30
0.0
  0
POINT
  5
40D2
330
3C20
100
AcDbEntity
  8
DEFPOINTS
 62
     0
100
AcDbPoint
 10
356.6884368488361
 20
193.72099970128
 30
0.0
  0
ENDBLK
  5
3C2B
330
3C20
100
AcDbEntity
  8
0
100
AcDbBlockEnd
  0
BLOCK
  5
3C36
330
3C2C
100
AcDbEntity
  8
0
100
AcDbBlockBegin
  2
*D9
 70
     1
 10
0.0
 20
0.0
 30
0.0
  3
*D9
  1

  0
LINE
  5
40F9
330
3C2C
100
AcDbEntity
  8
SUNPOU
100
AcDbLine
 10
295.5922740414974
 20
181.7322825437053
 30
0.0
 11
280.9939380088453
 21
210.9289545872479
 31
0.0
  0
LINE
  5
40FA
330
3C2C
100
AcDbEntity
  8
SUNPOU
100
AcDbLine
 10
333.1582160414976
 20
200.5152535577053
 30
0.0
 11
318.5598800088453
 21
229.7119256012479
 31
0.0
  0
LINE
  5
40FB
330
3C2C
100
AcDbEntity
  8
SUNPOU
100
AcDbLine
 10
284.348039975095
 20
210.9289545882479
 30
0.0
 11
316.5474188298956
 21
227.0286440276481
 31
0.0
  0
INSERT
  5
40FC
330
3C2C
100
AcDbEntity
  8
SUNPOU
100
AcDbBlockReference
  2
_OPEN
 10
281.6647584024952
 20
209.587313800948
 30
0.0
 41
3.0
 42
3.0
 43
3.0
 50
206.5650511941603
  0
INSERT
  5
40FD
330
3C2C
100
AcDbEntity
  8
SUNPOU
100
AcDbBlockReference
  2
_OPEN
 10
319.2307004024953
 20
228.370284814948
 30
0.0
 41
3.0
 42
3.0
 43
3.0
 50
26.56505119416025
  0
MTEXT
  5
40FE
330
3C2C
100
AcDbEntity
  8
SUNPOU
100
AcDbMText
 10
299.3296954130787
 20
221.2148672851145
 30
0.0
 40
3.0
 41
0.0
 71
     5
 72
     1
  1
\A1;42
 11
0.8944271908665829
 21
0.4472135957666241
 31
0.0
1001
ACAD
1000
MTEXTBEGIN
1070
    73
1070
     1
1070
    44
1040
1.0
1070
    74
1070
     0
1000
MTEXTEND
  0
POINT
  5
40FF
330
3C2C
100
AcDbEntity
  8
DEFPOINTS
 62
     0
100
AcDbPoint
 10
296.9339148287973
 20
179.0490009711055
 30
0.0
  0
POINT
  5
4100
330
3C2C
100
AcDbEntity
  8
DEFPOINTS
 62
     0
100
AcDbPoint
 10
334.4998568287974
 20
197.8319719851055
 30
0.0
  0
POINT
  5
4101
330
3C2C
100
AcDbEntity
  8
DEFPOINTS
 62
     0
100
AcDbPoint
 10
319.2307004024953
 20
228.370284814948
 30
0.0
  0
ENDBLK
  5
3C37
330
3C2C
100
AcDbEntity
  8
0
100
AcDbBlockEnd
  0
BLOCK
  5
3C44
330
3C38
100
AcDbEntity
  8
0
100
AcDbBlockBegin
  2
*D10
 70
     1
 10
0.0
 20
0.0
 30
0.0
  3
*D10
  1

  0
LINE
  5
40E5
330
3C38
100
AcDbEntity
  8
SUNPOU
100
AcDbLine
 10
289.1523982746728
 20
175.6054562758864
 30
0.0
 11
276.0669667905504
 21
169.0627405361112
 31
0.0
  0
LINE
  5
40E6
330
3C38
100
AcDbEntity
  8
SUNPOU
100
AcDbLine
 10
291.6120730451709
 20
170.6861067331713
 30
0.0
 11
278.5266415610485
 21
164.1433909933961
 31
0.0
  0
LINE
  5
40E7
330
3C38
100
AcDbEntity
  8
SUNPOU
100
AcDbLine
 10
276.0669667910192
 20
172.4168425023609
 30
0.0
 11
274.7253260048943
 21
175.1001240755481
 31
0.0
  0
LINE
  5
40E8
330
3C38
100
AcDbEntity
  8
SUNPOU
100
AcDbLine
 10
281.209923133767
 20
162.1309298132713
 30
0.0
 11
282.5515639198918
 21
159.447648240084
 31
0.0
  0
LINE
  5
40E9
330
3C38
100
AcDbEntity
  8
SUNPOU
100
AcDbLine
 10
277.408607577144
 20
169.7335609291736
 30
0.0
 11
279.8682823476421
 21
164.8142113864585
 31
0.0
  0
INSERT
  5
40EA
330
3C38
100
AcDbEntity
  8
SUNPOU
100
AcDbBlockReference
  2
_OPEN
 10
277.408607577144
 20
169.7335609291736
 30
0.0
 41
3.0
 42
3.0
 43
3.0
 50
296.5650511690702
  0
INSERT
  5
40EB
330
3C38
100
AcDbEntity
  8
SUNPOU
100
AcDbBlockReference
  2
_OPEN
 10
279.8682823476421
 20
164.8142113864585
 30
0.0
 41
3.0
 42
3.0
 43
3.0
 50
116.5650511690702
  0
MTEXT
  5
40EC
330
3C38
100
AcDbEntity
  8
SUNPOU
100
AcDbMText
 10
280.8745129400491
 20
168.3919201462534
 30
0.0
 40
3.0
 41
0.0
 71
     5
 72
     1
  1
\A1;6
 11
0.4472135953749519
 21
-0.8944271910624188
 31
0.0
1001
ACAD
1000
MTEXTBEGIN
1070
    73
1070
     1
1070
    44
1040
1.0
1070
    74
1070
     0
1000
MTEXTEND
  0
POINT
  5
40ED
330
3C38
100
AcDbEntity
  8
DEFPOINTS
 62
     0
100
AcDbPoint
 10
291.8356798478601
 20
176.9470970620112
 30
0.0
  0
POINT
  5
40EE
330
3C38
100
AcDbEntity
  8
DEFPOINTS
 62
     0
100
AcDbPoint
 10
294.2953546183582
 20
172.0277475192961
 30
0.0
  0
POINT
  5
40EF
330
3C38
100
AcDbEntity
  8
DEFPOINTS
 62
     0
100
AcDbPoint
 10
279.8682823476421
 20
164.8142113864585
 30
0.0
  0
ENDBLK
  5
3C45
330
3C38
100
AcDbEntity
  8
0
100
AcDbBlockEnd
  0
BLOCK
  5
3C50
330
3C46
100
AcDbEntity
  8
0
100
AcDbBlockBegin
  2
*D11
 70
     1
 10
0.0
 20
0.0
 30
0.0
  3
*D11
  1

  0
LINE
  5
40D3
330
3C46
100
AcDbEntity
  8
SUNPOU
100
AcDbLine
 10
290.4940390607475
 20
179.6303786347046
 30
0.0
 11
272.1490923337611
 21
216.3202720677346
 31
0.0
  0
LINE
  5
40D4
330
3C46
100
AcDbEntity
  8
SUNPOU
100
AcDbLine
 10
337.8986801858107
 20
203.3326992107657
 30
0.0
 11
319.5537334588243
 21
240.0225926437956
 31
0.0
  0
LINE
  5
40D5
330
3C46
100
AcDbEntity
  8
SUNPOU
100
AcDbLine
 10
275.5031943000108
 20
216.3202720685004
 30
0.0
 11
317.5412722796871
 21
237.3393110703364
 31
0.0
  0
INSERT
  5
40D6
330
3C46
100
AcDbEntity
  8
SUNPOU
100
AcDbBlockReference
  2
_OPEN
 10
272.8199127273174
 20
214.9786312813879
 30
0.0
 41
3.0
 42
3.0
 43
3.0
 50
206.5650511901599
  0
INSERT
  5
40D7
330
3C46
100
AcDbEntity
  8
SUNPOU
100
AcDbBlockReference
  2
_OPEN
 10
320.2245538523806
 20
238.6809518574489
 30
0.0
 41
3.0
 42
3.0
 43
3.0
 50
26.56505119015989
  0
MTEXT
  5
40D8
330
3C46
100
AcDbEntity
  8
SUNPOU
100
AcDbMText
 10
295.4041993005886
 20
229.0658595466629
 30
0.0
 40
3.0
 41
0.0
 71
     5
 72
     1
  1
\A1;53
 11
0.894427190897807
 21
0.4472135957041756
 31
0.0
1001
ACAD
1000
MTEXTBEGIN
1070
    73
1070
     1
1070
    44
1040
1.0
1070
    74
1070
     0
1000
MTEXTEND
  0
POINT
  5
40D9
330
3C46
100
AcDbEntity
  8
DEFPOINTS
 62
     0
100
AcDbPoint
 10
291.8356798478601
 20
176.9470970620112
 30
0.0
  0
POINT
  5
40DA
330
3C46
100
AcDbEntity
  8
DEFPOINTS
 62
     0
100
AcDbPoint
 10
339.2403209729232
 20
200.6494176380722
 30
0.0
  0
POINT
  5
40DB
330
3C46
100
AcDbEntity
  8
DEFPOINTS
 62
     0
100
AcDbPoint
 10
320.2245538523806
 20
238.6809518574489
 30
0.0
  0
ENDBLK
  5
3C51
330
3C46
100
AcDbEntity
  8
0
100
AcDbBlockEnd
  0
BLOCK
  5
3C5C
330
3C52
100
AcDbEntity
  8
0
100
AcDbBlockBegin
  2
*D12
 70
     1
 10
0.0
 20
0.0
 30
0.0
  3
*D12
  1

  0
LINE
  5
40F0
330
3C52
100
AcDbEntity
  8
SUNPOU
100
AcDbLine
 10
300.2209347591009
 20
175.8290630793189
 30
0.0
 11
286.156760796609
 21
203.957411009141
 31
0.0
  0
LINE
  5
40F1
330
3C52
100
AcDbEntity
  8
SUNPOU
100
AcDbLine
 10
335.103595209101
 20
193.270393301319
 30
0.0
 11
321.0394212466091
 21
221.398741231141
 31
0.0
  0
LINE
  5
40F2
330
3C52
100
AcDbEntity
  8
SUNPOU
100
AcDbLine
 10
289.5108627628588
 20
203.9574110089102
 30
0.0
 11
319.0269600666748
 21
218.7154596582797
 31
0.0
  0
INSERT
  5
40F3
330
3C52
100
AcDbEntity
  8
SUNPOU
100
AcDbBlockReference
  2
_OPEN
 10
286.8275811897667
 20
202.615770222595
 30
0.0
 41
3.0
 42
3.0
 43
3.0
 50
206.5650511731359
  0
INSERT
  5
40F4
330
3C52
100
AcDbEntity
  8
SUNPOU
100
AcDbBlockReference
  2
_OPEN
 10
321.7102416397668
 20
220.057100444595
 30
0.0
 41
3.0
 42
3.0
 43
3.0
 50
26.56505117313592
  0
MTEXT
  5
40F5
330
3C52
100
AcDbEntity
  8
SUNPOU
100
AcDbMText
 10
303.1508774261707
 20
213.5725033111717
 30
0.0
 40
3.0
 41
0.0
 71
     5
 72
     1
  1
\A1;39
 11
0.894427191030685
 21
0.4472135954384196
 31
0.0
1001
ACAD
1000
MTEXTBEGIN
1070
    73
1070
     1
1070
    44
1040
1.0
1070
    74
1070
     0
1000
MTEXTEND
  0
POINT
  5
40F6
330
3C52
100
AcDbEntity
  8
DEFPOINTS
 62
     0
100
AcDbPoint
 10
301.5625755454162
 20
173.1457815062269
 30
0.0
  0
POINT
  5
40F7
330
3C52
100
AcDbEntity
  8
DEFPOINTS
 62
     0
100
AcDbPoint
 10
336.4452359954163
 20
190.5871117282269
 30
0.0
  0
POINT
  5
40F8
330
3C52
100
AcDbEntity
  8
DEFPOINTS
 62
     0
100
AcDbPoint
 10
321.7102416397668
 20
220.057100444595
 30
0.0
  0
ENDBLK
  5
3C5D
330
3C52
100
AcDbEntity
  8
0
100
AcDbBlockEnd
  0
BLOCK
  5
3D5F
330
3D55
100
AcDbEntity
  8
0
100
AcDbBlockBegin
  2
*D13
 70
     1
 10
0.0
 20
0.0
 30
0.0
  3
*D13
  1

  0
LINE
  5
40A4
330
3D55
100
AcDbEntity
  8
SUNPOU
100
AcDbLine
 10
69.05798636643942
 20
97.56650424282742
 30
0.0
 11
69.05798636643942
 21
166.4781198198202
 31
0.0
  0
LINE
  5
40A5
330
3D55
100
AcDbEntity
  8
SUNPOU
100
AcDbLine
 10
195.9112357529362
 20
143.3028511807258
 30
0.0
 11
195.9112357529362
 21
166.4781198198202
 31
0.0
  0
LINE
  5
40A6
330
3D55
100
AcDbEntity
  8
SUNPOU
100
AcDbLine
 10
72.05798636643942
 20
164.9781198198202
 30
0.0
 11
192.9112357529362
 21
164.9781198198202
 31
0.0
  0
INSERT
  5
40A7
330
3D55
100
AcDbEntity
  8
SUNPOU
100
AcDbBlockReference
  2
_OPEN
 10
69.05798636643942
 20
164.9781198198202
 30
0.0
 41
3.0
 42
3.0
 43
3.0
 50
180.0
  0
INSERT
  5
40A8
330
3D55
100
AcDbEntity
  8
SUNPOU
100
AcDbBlockReference
  2
_OPEN
 10
195.9112357529362
 20
164.9781198198202
 30
0.0
 41
3.0
 42
3.0
 43
3.0
  0
MTEXT
  5
40A9
330
3D55
100
AcDbEntity
  8
SUNPOU
100
AcDbMText
 10
132.4846110596878
 20
167.4781198198202
 30
0.0
 40
3.0
 41
0.0
 71
     5
 72
     1
  1
\A1;127
1001
ACAD
1000
MTEXTBEGIN
1070
    73
1070
     1
1070
    44
1040
1.0
1070
    74
1070
     0
1000
MTEXTEND
  0
POINT
  5
40AA
330
3D55
100
AcDbEntity
  8
DEFPOINTS
 62
     0
100
AcDbPoint
 10
69.05798636643942
 20
94.56650424282742
 30
0.0
  0
POINT
  5
40AB
330
3D55
100
AcDbEntity
  8
DEFPOINTS
 62
     0
100
AcDbPoint
 10
195.9112357529362
 20
140.3028511807258
 30
0.0
  0
POINT
  5
40AC
330
3D55
100
AcDbEntity
  8
DEFPOINTS
 62
     0
100
AcDbPoint
 10
195.9112357529362
 20
164.9781198198202
 30
0.0
  0
ENDBLK
  5
3D60
330
3D55
100
AcDbEntity
  8
0
100
AcDbBlockEnd
  0
BLOCK
  5
3D92
330
3D86
100
AcDbEntity
  8
0
100
AcDbBlockBegin
  2
*D14
 70
     1
 10
0.0
 20
0.0
 30
0.0
  3
*D14
  1

  0
LINE
  5
4075
330
3D86
100
AcDbEntity
  8
SUNPOU
100
AcDbLine
 10
68.75808636736246
 20
99.36650423888915
 30
0.0
 11
41.6727237197899
 21
99.36650423888915
 31
0.0
  0
LINE
  5
4076
330
3D86
100
AcDbEntity
  8
SUNPOU
100
AcDbLine
 10
213.5381156544394
 20
99.04909138282745
 30
0.0
 11
41.67272371978989
 21
99.04909138282748
 31
0.0
  0
LINE
  5
4077
330
3D86
100
AcDbEntity
  8
SUNPOU
100
AcDbLine
 10
43.17272371978989
 20
102.3665042388891
 30
0.0
 11
43.17272371978989
 21
105.3665042388891
 31
0.0
  0
LINE
  5
4078
330
3D86
100
AcDbEntity
  8
SUNPOU
100
AcDbLine
 10
43.17272371978989
 20
96.04909138282749
 30
0.0
 11
43.17272371978989
 21
85.54909138282749
 31
0.0
  0
LINE
  5
4079
330
3D86
100
AcDbEntity
  8
SUNPOU
100
AcDbLine
 10
43.17272371978989
 20
99.36650423888915
 30
0.0
 11
43.17272371978989
 21
99.04909138282748
 31
0.0
  0
INSERT
  5
407A
330
3D86
100
AcDbEntity
  8
SUNPOU
100
AcDbBlockReference
  2
_OPEN
 10
43.17272371978989
 20
99.36650423888915
 30
0.0
 41
3.0
 42
3.0
 43
3.0
 50
270.0
  0
INSERT
  5
407B
330
3D86
100
AcDbEntity
  8
SUNPOU
100
AcDbBlockReference
  2
_OPEN
 10
43.17272371978989
 20
99.04909138282748
 30
0.0
 41
3.0
 42
3.0
 43
3.0
 50
90.0
  0
MTEXT
  5
407C
330
3D86
100
AcDbEntity
  8
SUNPOU
100
AcDbMText
 10
40.67272371978988
 20
89.2990913828275
 30
0.0
 40
3.0
 41
0.0
 71
     5
 72
     1
  1
\A1;0.3
 11
0.0000000000000001
 21
1.0
 31
0.0
1001
ACAD
1000
MTEXTBEGIN
1070
    73
1070
     1
1070
    44
1040
1.0
1070
    74
1070
     0
1000
MTEXTEND
  0
POINT
  5
407D
330
3D86
100
AcDbEntity
  8
DEFPOINTS
 62
     0
100
AcDbPoint
 10
71.75808636736246
 20
99.36650423888915
 30
0.0
  0
POINT
  5
407E
330
3D86
100
AcDbEntity
  8
DEFPOINTS
 62
     0
100
AcDbPoint
 10
216.5381156544394
 20
99.04909138282745
 30
0.0
  0
POINT
  5
407F
330
3D86
100
AcDbEntity
  8
DEFPOINTS
 62
     0
100
AcDbPoint
 10
43.17272371978989
 20
99.04909138282748
 30
0.0
  0
ENDBLK
  5
3D93
330
3D86
100
AcDbEntity
  8
0
100
AcDbBlockEnd
  0
BLOCK
  5
3DAA
330
3DA0
100
AcDbEntity
  8
0
100
AcDbBlockBegin
  2
*D15
 70
     1
 10
0.0
 20
0.0
 30
0.0
  3
*D15
  1

  0
LINE
  5
409B
330
3DA0
100
AcDbEntity
  8
SUNPOU
100
AcDbLine
 10
186.8961863613577
 20
106.5596042417206
 30
0.0
 11
186.8961863613577
 21
158.4652514448747
 31
0.0
  0
LINE
  5
409C
330
3DA0
100
AcDbEntity
  8
SUNPOU
100
AcDbLine
 10
195.9112357529362
 20
143.3028511807258
 30
0.0
 11
195.9112357529362
 21
158.4652514448747
 31
0.0
  0
LINE
  5
409D
330
3DA0
100
AcDbEntity
  8
SUNPOU
100
AcDbLine
 10
189.8961863613577
 20
156.9652514448747
 30
0.0
 11
192.9112357529362
 21
156.9652514448747
 31
0.0
  0
INSERT
  5
409E
330
3DA0
100
AcDbEntity
  8
SUNPOU
100
AcDbBlockReference
  2
_OPEN
 10
186.8961863613577
 20
156.9652514448747
 30
0.0
 41
3.0
 42
3.0
 43
3.0
 50
180.0
  0
INSERT
  5
409F
330
3DA0
100
AcDbEntity
  8
SUNPOU
100
AcDbBlockReference
  2
_OPEN
 10
195.9112357529362
 20
156.9652514448747
 30
0.0
 41
3.0
 42
3.0
 43
3.0
  0
MTEXT
  5
40A0
330
3DA0
100
AcDbEntity
  8
SUNPOU
100
AcDbMText
 10
191.403711057147
 20
159.4652514448747
 30
0.0
 40
3.0
 41
0.0
 71
     5
 72
     1
  1
\A1;9
1001
ACAD
1000
MTEXTBEGIN
1070
    73
1070
     1
1070
    44
1040
1.0
1070
    74
1070
     0
1000
MTEXTEND
  0
POINT
  5
40A1
330
3DA0
100
AcDbEntity
  8
DEFPOINTS
 62
     0
100
AcDbPoint
 10
186.8961863613577
 20
103.5596042417206
 30
0.0
  0
POINT
  5
40A2
330
3DA0
100
AcDbEntity
  8
DEFPOINTS
 62
     0
100
AcDbPoint
 10
195.9112357529362
 20
140.3028511807258
 30
0.0
  0
POINT
  5
40A3
330
3DA0
100
AcDbEntity
  8
DEFPOINTS
 62
     0
100
AcDbPoint
 10
195.9112357529362
 20
156.9652514448747
 30
0.0
  0
ENDBLK
  5
3DAB
330
3DA0
100
AcDbEntity
  8
0
100
AcDbBlockEnd
  0
ENDSEC
  0
SECTION
  2
ENTITIES
  0
LINE
  5
363
330
1A
100
AcDbEntity
  8
SEIHIN
100
AcDbLine
 10
93.95808636643943
 20
80.17290059282743
 30
0.0
 11
118.9580863684394
 21
80.17290059282743
 31
0.0
  0
ARC
  5
364
330
1A
100
AcDbEntity
  8
SEIHIN
100
AcDbCircle
 10
109.4580863664394
 20
100.6665042428274
 30
0.0
 40
9.535085152808647
100
AcDbArc
 50
4.916661302937908
 51
179.999861547953
  0
LINE
  5
367
330
1A
100
AcDbEntity
  8
SEIHIN
100
AcDbLine
 10
99.92300121643944
 20
100.6665272838274
 30
0.0
 11
99.92298156643943
 21
92.33477678282744
 31
0.0
  0
LINE
  5
368
330
1A
100
AcDbEntity
  8
SEIHIN
100
AcDbLine
 10
93.95808636643943
 20
80.17290059282743
 30
0.0
 11
93.95808636643943
 21
99.17290059482745
 31
0.0
  0
LINE
  5
369
330
1A
100
AcDbEntity
  8
SEIHIN
100
AcDbLine
 10
97.92299769643944
 20
99.17289823682745
 30
0.0
 11
97.92298156643944
 21
92.33477678282744
 31
0.0
  0
LINE
  5
36A
330
1A
100
AcDbEntity
  8
SEIHIN
100
AcDbLine
 10
98.55808636643946
 20
99.36650424282744
 30
0.0
 11
98.55807221643942
 21
93.36650424282742
 31
0.0
  0
LINE
  5
36B
330
1A
100
AcDbEntity
  8
SEIHIN
100
AcDbLine
 10
99.55808636643945
 20
99.36650424282744
 30
0.0
 11
99.55807221643944
 21
93.36650188482744
 31
0.0
  0
LINE
  5
36F
330
1A
100
AcDbEntity
  8
SEIHIN
100
AcDbLine
 10
97.92298156643944
 20
92.33477678282744
 30
0.0
 11
99.92298156643943
 21
92.33477678282744
 31
0.0
  0
LINE
  5
370
330
1A
100
AcDbEntity
  8
SEIHIN
100
AcDbLine
 10
98.55807221643942
 20
93.36650424282742
 30
0.0
 11
99.92298399643942
 21
93.36650424282742
 31
0.0
  0
LINE
  5
371
330
1A
100
AcDbEntity
  8
SEIHIN
100
AcDbLine
 10
112.4580863664394
 20
89.86650424282743
 30
0.0
 11
112.4580863664394
 21
85.86650424282742
 31
0.0
  0
LINE
  5
372
330
1A
100
AcDbEntity
  8
SEIHIN
100
AcDbLine
 10
105.4580863664394
 20
89.86650424282743
 30
0.0
 11
105.4580863664394
 21
85.86650424282742
 31
0.0
  0
MTEXT
  5
373
330
1A
100
AcDbEntity
  8
SEIHIN
100
AcDbMText
 10
107.3110321464394
 20
87.74649148682744
 30
0.0
 40
2.381249964
 41
0.0
 71
     1
 72
     5
  1
{\W1.460317;10}
1001
ACAD
1000
MTEXTBEGIN
1070
    73
1070
     1
1070
    44
1040
1.0
1070
    74
1070
     0
1000
MTEXTEND
1000
MTEXTBEGIN
1070
    73
1070
     1
1070
    44
1040
1.0
1070
    74
1070
     0
1000
MTEXTEND
1000
MTEXTBEGIN
1070
    73
1070
     1
1070
    44
1040
1.0
1070
    74
1070
     0
1000
MTEXTEND
1000
MTEXTBEGIN
1070
    73
1070
     1
1070
    44
1040
1.0
1070
    74
1070
     0
1000
MTEXTEND
1000
MTEXTBEGIN
1070
    73
1070
     1
1070
    44
1040
1.0
1070
    74
1070
     0
1000
MTEXTEND
1000
MTEXTBEGIN
1070
    73
1070
     1
1070
    44
1040
1.0
1070
    74
1070
     0
1000
MTEXTEND
1000
MTEXTBEGIN
1070
    73
1070
     1
1070
    44
1040
1.0
1070
    74
1070
     0
1000
MTEXTEND
1000
MTEXTBEGIN
1070
    73
1070
     1
1070
    44
1040
1.0
1070
    74
1070
     0
1000
MTEXTEND
1000
MTEXTBEGIN
1070
    73
1070
     1
1070
    44
1040
1.0
1070
    74
1070
     0
1000
MTEXTEND
1000
MTEXTBEGIN
1070
    73
1070
     1
1070
    44
1040
1.0
1070
    74
1070
     0
1000
MTEXTEND
  0
LINE
  5
374
330
1A
100
AcDbEntity
  8
SEIHIN
100
AcDbLine
 10
111.4580863664394
 20
84.86650424282743
 30
0.0
 11
106.4580863664394
 21
84.86650424282743
 31
0.0
  0
LINE
  5
375
330
1A
100
AcDbEntity
  8
SEIHIN
100
AcDbLine
 10
110.1127869064394
 20
82.86650424282743
 30
0.0
 11
107.8033858264394
 21
82.86650424282743
 31
0.0
  0
LINE
  5
376
330
1A
100
AcDbEntity
  8
SEIHIN
100
AcDbLine
 10
108.9580863664394
 20
84.86650424282743
 30
0.0
 11
107.8033858264394
 21
82.86650424282743
 31
0.0
  0
ARC
  5
377
330
1A
100
AcDbEntity
  8
SEIHIN
100
AcDbCircle
 10
106.4580863664394
 20
85.86650424282742
 30
0.0
 40
1.0
100
AcDbArc
 50
180.0
 51
270.0
  0
ARC
  5
378
330
1A
100
AcDbEntity
  8
SEIHIN
100
AcDbCircle
 10
111.4580863664394
 20
85.86650424282742
 30
0.0
 40
1.0
100
AcDbArc
 50
270.0
 51
0.0
  0
LINE
  5
379
330
1A
100
AcDbEntity
  8
SEIHIN
100
AcDbLine
 10
108.9580863664394
 20
84.86650424282743
 30
0.0
 11
110.1127869064394
 21
82.86650424282743
 31
0.0
  0
LINE
  5
37A
330
1A
100
AcDbEntity
  8
SEIHIN
100
AcDbLine
 10
108.7148363664394
 20
90.86650424282742
 30
0.0
 11
109.2148363664394
 21
90.86650424282742
 31
0.0
  0
LINE
  5
37B
330
1A
100
AcDbEntity
  8
SEIHIN
100
AcDbLine
 10
106.4580863664394
 20
90.86650424282742
 30
0.0
 11
111.4580863664394
 21
90.86650424282742
 31
0.0
  0
LINE
  5
37C
330
1A
100
AcDbEntity
  8
SEIHIN
100
AcDbLine
 10
108.7148363664394
 20
90.86650424282742
 30
0.0
 11
109.2148363664394
 21
90.86650424282742
 31
0.0
  0
LINE
  5
37D
330
1A
100
AcDbEntity
  8
SEIHIN
100
AcDbLine
 10
109.2148363664394
 20
88.86650424282743
 30
0.0
 11
108.7148363664394
 21
88.86650424282743
 31
0.0
  0
ARC
  5
37E
330
1A
100
AcDbEntity
  8
SEIHIN
100
AcDbCircle
 10
106.4580863664394
 20
89.86650424282743
 30
0.0
 40
1.0
100
AcDbArc
 50
90.0
 51
180.0
  0
LINE
  5
37F
330
1A
100
AcDbEntity
  8
SEIHIN
100
AcDbLine
 10
108.7148363664394
 20
88.86650424282743
 30
0.0
 11
108.7148363664394
 21
90.86650424282742
 31
0.0
  0
ARC
  5
380
330
1A
100
AcDbEntity
  8
SEIHIN
100
AcDbCircle
 10
111.4580863664394
 20
89.86650424282743
 30
0.0
 40
1.0
100
AcDbArc
 50
0.0
 51
90.0
  0
LINE
  5
381
330
1A
100
AcDbEntity
  8
SEIHIN
100
AcDbLine
 10
109.2148363664394
 20
90.86650424282742
 30
0.0
 11
109.2148363664394
 21
88.86650424282743
 31
0.0
  0
ARC
  5
384
330
1A
100
AcDbEntity
  8
SEIHIN
100
AcDbCircle
 10
94.95808636643943
 20
99.17290059482745
 30
0.0
 40
1.0
100
AcDbArc
 50
90.0
 51
180.0
  0
ARC
  5
387
330
1A
100
AcDbEntity
  8
SEIHIN
100
AcDbCircle
 10
96.92299769643945
 20
99.17290059482745
 30
0.0
 40
1.000000000001389
100
AcDbArc
 50
359.9998648965517
 51
90.0
  0
LINE
  5
388
330
1A
100
AcDbEntity
  8
SEIHIN
100
AcDbLine
 10
96.92299769643945
 20
100.1729005948274
 30
0.0
 11
94.95808636643943
 21
100.1729005948274
 31
0.0
  0
LINE
  5
389
330
1A
100
AcDbEntity
  8
SEIHIN
100
AcDbLine
 10
98.55808636643946
 20
99.36650424282744
 30
0.0
 11
99.92299814643946
 21
99.36650424282744
 31
0.0
  0
CIRCLE
  5
38B
330
1A
100
AcDbEntity
  8
SEIHIN
100
AcDbCircle
 10
108.9580863664394
 20
104.1665042428274
 30
0.0
 40
3.500000004238516
  0
LINE
  5
38F
330
1A
100
AcDbEntity
  8
SEIHIN
100
AcDbLine
 10
118.9580863684394
 20
80.17290059282743
 30
0.0
 11
118.9580863684394
 21
101.4837244618274
 31
0.0
  0
LINE
  5
3DF
330
1A
100
AcDbEntity
  8
SEIHIN
100
AcDbLine
 10
98.49098933643944
 20
223.2999827400329
 30
0.0
 11
98.49098933643944
 21
219.7999827400329
 31
0.0
  0
LINE
  5
3E0
330
1A
100
AcDbEntity
  8
SEIHIN
100
AcDbLine
 10
99.49098933643945
 20
220.2999827400329
 30
0.0
 11
99.49098933643945
 21
223.2999827400329
 31
0.0
  0
LINE
  5
3E4
330
1A
100
AcDbEntity
  8
SEIHIN
100
AcDbLine
 10
99.99098933643944
 20
219.7999827400329
 30
0.0
 11
214.5104486044394
 21
219.7999827400329
 31
0.0
  0
LINE
  5
3E5
330
1A
100
AcDbEntity
  8
SEIHIN
100
AcDbLine
 10
99.99098933643944
 20
204.7999827000329
 30
0.0
 11
214.5104486044394
 21
204.7999827000329
 31
0.0
  0
LINE
  5
3E6
330
1A
100
AcDbEntity
  8
SEIHIN
100
AcDbLine
 10
99.49098933643945
 20
205.7999827000329
 30
0.0
 11
214.5104486044394
 21
205.7999827000329
 31
0.0
  0
LINE
  5
3E7
330
1A
100
AcDbEntity
  8
SEIHIN
100
AcDbLine
 10
99.49098933643945
 20
218.7999827400329
 30
0.0
 11
214.5104486044394
 21
218.7999827400329
 31
0.0
  0
LINE
  5
3E8
330
1A
100
AcDbEntity
  8
SEIHIN
100
AcDbLine
 10
129.3643694664394
 20
215.2999827000329
 30
0.0
 11
208.714095127189
 21
215.299982700033
 31
0.0
  0
LINE
  5
3E9
330
1A
100
AcDbEntity
  8
SEIHIN
100
AcDbLine
 10
129.3643694664394
 20
209.2999827000329
 30
0.0
 11
208.7148088346892
 21
209.2999827000329
 31
0.0
  0
LINE
  5
3EB
330
1A
100
AcDbEntity
  8
SEIHIN
100
AcDbLine
 10
99.77737277643946
 20
206.0279090600329
 30
0.0
 11
127.3643694664394
 21
206.0279090600329
 31
0.0
  0
LINE
  5
3EC
330
1A
100
AcDbEntity
  8
SEIHIN
100
AcDbLine
 10
102.5668923264394
 20
208.1455386900329
 30
0.0
 11
124.6255794514394
 21
208.1455386900329
 31
0.0
  0
LINE
  5
3ED
330
1A
100
AcDbEntity
  8
SEIHIN
100
AcDbLine
 10
99.77737277643946
 20
218.5720563400329
 30
0.0
 11
127.3643694664394
 21
218.5720563400329
 31
0.0
  0
LINE
  5
3EE
330
1A
100
AcDbEntity
  8
SEIHIN
100
AcDbLine
 10
102.5668923264394
 20
216.4544267400329
 30
0.0
 11
124.6255794514394
 21
216.4544267400329
 31
0.0
  0
LINE
  5
3EF
330
1A
100
AcDbEntity
  8
SEIHIN
100
AcDbLine
 10
118.9580863684394
 20
204.2999827000329
 30
0.0
 11
99.92323987643942
 21
204.3000287000329
 31
0.0
  0
LINE
  5
3F0
330
1A
100
AcDbEntity
  8
SEIHIN
100
AcDbLine
 10
99.92327854643944
 20
220.2999827400329
 30
0.0
 11
118.9580863684394
 21
220.2999827400329
 31
0.0
  0
LINE
  5
3F1
330
1A
100
AcDbEntity
  8
SEIHIN
100
AcDbLine
 10
99.77737277643946
 20
210.3753713600329
 30
0.0
 11
102.5668923264394
 21
210.3753713600329
 31
0.0
  0
LINE
  5
3F2
330
1A
100
AcDbEntity
  8
SEIHIN
100
AcDbLine
 10
99.77737277643946
 20
214.2245940400329
 30
0.0
 11
102.5668923264394
 21
214.2245940400329
 31
0.0
  0
LINE
  5
3F3
330
1A
100
AcDbEntity
  8
SEIHIN
100
AcDbLine
 10
102.5668923264394
 20
217.5720563400329
 30
0.0
 11
99.77737277643946
 21
217.5720563400329
 31
0.0
  0
LINE
  5
3F4
330
1A
100
AcDbEntity
  8
SEIHIN
100
AcDbLine
 10
102.5668923264394
 20
207.0279090600329
 30
0.0
 11
99.77737277643946
 21
207.0279090600329
 31
0.0
  0
ARC
  5
3F5
330
1A
100
AcDbEntity
  8
SEIHIN
100
AcDbCircle
 10
99.77737277643946
 20
212.2999827000329
 30
0.0
 40
3.000000000000011
100
AcDbArc
 50
90.00000515662017
 51
269.9999952253516
  0
LINE
  5
3F6
330
1A
100
AcDbEntity
  8
SEIHIN
100
AcDbLine
 10
99.77737277643946
 20
217.5720563400329
 30
0.0
 11
99.77737277643946
 21
207.0279090600329
 31
0.0
  0
ARC
  5
3F7
330
1A
100
AcDbEntity
  8
SEIHIN
100
AcDbCircle
 10
99.49098933643945
 20
204.7999827000329
 30
0.0
 40
1.0
100
AcDbArc
 50
90.0
 51
180.0
  0
LINE
  5
3F8
330
1A
100
AcDbEntity
  8
SEIHIN
100
AcDbLine
 10
97.92323530643944
 20
204.7999827000329
 30
0.0
 11
93.95808636643943
 21
204.7999827000329
 31
0.0
  0
LINE
  5
3F9
330
1A
100
AcDbEntity
  8
SEIHIN
100
AcDbLine
 10
93.95808636643943
 20
204.2999827000329
 30
0.0
 11
97.92299368643945
 21
204.2999827000329
 31
0.0
  0
LINE
  5
3FA
330
1A
100
AcDbEntity
  8
SEIHIN
100
AcDbLine
 10
93.95808636643943
 20
204.2999827000329
 30
0.0
 11
93.95808636643943
 21
204.7999827000329
 31
0.0
  0
ARC
  5
3FB
330
1A
100
AcDbEntity
  8
SEIHIN
100
AcDbCircle
 10
99.99098933643944
 20
204.2999827000329
 30
0.0
 40
0.5
100
AcDbArc
 50
90.0
 51
180.0
  0
LINE
  5
3FC
330
1A
100
AcDbEntity
  8
SEIHIN
100
AcDbLine
 10
99.49098933643945
 20
204.2999827000329
 30
0.0
 11
99.49098933643945
 21
201.2999827000329
 31
0.0
  0
LINE
  5
3FD
330
1A
100
AcDbEntity
  8
SEIHIN
100
AcDbLine
 10
98.49098933643944
 20
201.2999827000329
 30
0.0
 11
98.49098933643944
 21
204.7999827000329
 31
0.0
  0
LINE
  5
3FE
330
1A
100
AcDbEntity
  8
SEIHIN
100
AcDbLine
 10
99.49098933643945
 20
201.2999827000329
 30
0.0
 11
98.49098933643944
 21
201.2999827000329
 31
0.0
  0
LINE
  5
3FF
330
1A
100
AcDbEntity
  8
SEIHIN
100
AcDbLine
 10
99.92323987643942
 20
204.3000287000329
 30
0.0
 11
99.92324108643941
 21
204.7999827000329
 31
0.0
  0
LINE
  5
400
330
1A
100
AcDbEntity
  8
SEIHIN
100
AcDbLine
 10
97.92323412643945
 20
204.2999827000329
 30
0.0
 11
97.92323530643944
 21
204.7999827000329
 31
0.0
  0
LINE
  5
401
330
1A
100
AcDbEntity
  8
SEIHIN
100
AcDbLine
 10
99.77737277643946
 20
207.0279090600329
 30
0.0
 11
99.77737277643946
 21
206.0279090600329
 31
0.0
  0
LINE
  5
402
330
1A
100
AcDbEntity
  8
SEIHIN
100
AcDbLine
 10
97.92327067643945
 20
219.7999827400329
 30
0.0
 11
93.95808636643943
 21
219.7999827400329
 31
0.0
  0
LINE
  5
403
330
1A
100
AcDbEntity
  8
SEIHIN
100
AcDbLine
 10
93.95808636643943
 20
220.2999827400329
 30
0.0
 11
97.92299368643945
 21
220.2999827400329
 31
0.0
  0
LINE
  5
404
330
1A
100
AcDbEntity
  8
SEIHIN
100
AcDbLine
 10
93.95808636643943
 20
219.7999827400329
 30
0.0
 11
93.95808636643943
 21
220.2999827400329
 31
0.0
  0
ARC
  5
405
330
1A
100
AcDbEntity
  8
SEIHIN
100
AcDbCircle
 10
99.49098933643945
 20
219.7999827400329
 30
0.0
 40
1.0
100
AcDbArc
 50
180.0
 51
270.0
  0
LINE
  5
406
330
1A
100
AcDbEntity
  8
SEIHIN
100
AcDbLine
 10
99.92327733643945
 20
219.7999827400329
 30
0.0
 11
99.92327854643944
 21
220.2999827400329
 31
0.0
  0
LINE
  5
407
330
1A
100
AcDbEntity
  8
SEIHIN
100
AcDbLine
 10
97.92327067643945
 20
219.7999827400329
 30
0.0
 11
97.92327185643944
 21
220.2999827400329
 31
0.0
  0
LINE
  5
408
330
1A
100
AcDbEntity
  8
SEIHIN
100
AcDbLine
 10
99.77737277643946
 20
217.5720563400329
 30
0.0
 11
99.77737277643946
 21
218.5720563400329
 31
0.0
  0
ARC
  5
409
330
1A
100
AcDbEntity
  8
SEIHIN
100
AcDbCircle
 10
99.99098933643944
 20
220.2999827400329
 30
0.0
 40
0.5
100
AcDbArc
 50
180.0
 51
270.0
  0
LINE
  5
40A
330
1A
100
AcDbEntity
  8
SEIHIN
100
AcDbLine
 10
102.5668923264394
 20
206.0279090600329
 30
0.0
 11
102.5668923264394
 21
218.5720563400329
 31
0.0
  0
ARC
  5
40B
330
1A
100
AcDbEntity
  8
SEIHIN
100
AcDbCircle
 10
108.9583274964394
 20
208.8183122000329
 30
0.0
 40
5.715337531631893
100
AcDbArc
 50
232.2375418744897
 51
307.7621812247566
  0
LINE
  5
40C
330
1A
100
AcDbEntity
  8
SEIHIN
100
AcDbLine
 10
102.5668923264394
 20
206.0279090600329
 30
0.0
 11
102.5668923264394
 21
207.2279090600329
 31
0.0
  0
LINE
  5
40D
330
1A
100
AcDbEntity
  8
SEIHIN
100
AcDbLine
 10
105.4583165764394
 20
220.2999827400329
 30
0.0
 11
112.4583165764394
 21
220.2999827400329
 31
0.0
  0
LINE
  5
40E
330
1A
100
AcDbEntity
  8
SEIHIN
100
AcDbLine
 10
112.4583165764394
 20
221.3644211400329
 30
0.0
 11
105.4583165764394
 21
221.3644211400329
 31
0.0
  0
LINE
  5
40F
330
1A
100
AcDbEntity
  8
SEIHIN
100
AcDbLine
 10
102.5668923264394
 20
218.5720563400329
 30
0.0
 11
102.5668923264394
 21
217.3720563400329
 31
0.0
  0
LINE
  5
410
330
1A
100
AcDbEntity
  8
SEIHIN
100
AcDbLine
 10
105.4583165764394
 20
221.3644211400329
 30
0.0
 11
105.4583165764394
 21
220.2999827400329
 31
0.0
  0
LINE
  5
411
330
1A
100
AcDbEntity
  8
SEIHIN
100
AcDbLine
 10
112.4583165764394
 20
220.2999827400329
 30
0.0
 11
112.4583165764394
 21
221.3644211400329
 31
0.0
  0
LINE
  5
412
330
1A
100
AcDbEntity
  8
SEIHIN
100
AcDbLine
 10
122.9024290909394
 20
209.1455386900329
 30
0.0
 11
122.9024290909394
 21
215.4544267100329
 31
0.0
  0
LINE
  5
413
330
1A
100
AcDbEntity
  8
SEIHIN
100
AcDbLine
 10
118.0605088554394
 20
209.1455386900329
 30
0.0
 11
118.0605088554394
 21
215.4544267100329
 31
0.0
  0
LINE
  5
414
330
1A
100
AcDbEntity
  8
SEIHIN
100
AcDbLine
 10
126.6255794514394
 20
214.4544267100329
 30
0.0
 11
126.6255794514394
 21
210.1455386900329
 31
0.0
  0
LINE
  5
415
330
1A
100
AcDbEntity
  8
SEIHIN
100
AcDbLine
 10
129.3643694664394
 20
208.0279090600329
 30
0.0
 11
129.3643694664394
 21
216.5720563400329
 31
0.0
  0
LINE
  5
416
330
1A
100
AcDbEntity
  8
SEIHIN
100
AcDbLine
 10
128.2168037594394
 20
208.0279090600329
 30
0.0
 11
128.2168037594394
 21
216.5720563400329
 31
0.0
  0
LINE
  5
417
330
1A
100
AcDbEntity
  8
SEIHIN
100
AcDbLine
 10
118.9580863684394
 20
204.2999827000329
 30
0.0
 11
118.9580863684394
 21
204.7999827000329
 31
0.0
  0
ARC
  5
418
330
1A
100
AcDbEntity
  8
SEIHIN
100
AcDbCircle
 10
126.2168037594394
 20
208.0279090600329
 30
0.0
 40
2.0
100
AcDbArc
 50
270.0
 51
0.0
  0
ARC
  5
419
330
1A
100
AcDbEntity
  8
SEIHIN
100
AcDbCircle
 10
127.3643694664394
 20
208.0279090600329
 30
0.0
 40
2.0
100
AcDbArc
 50
270.0
 51
0.0
  0
ARC
  5
41A
330
1A
100
AcDbEntity
  8
SEIHIN
100
AcDbCircle
 10
127.3643694664394
 20
208.0279090600329
 30
0.0
 40
2.0
100
AcDbArc
 50
270.0
 51
0.0
  0
ARC
  5
41B
330
1A
100
AcDbEntity
  8
SEIHIN
100
AcDbCircle
 10
124.6255794514394
 20
210.1455386900329
 30
0.0
 40
2.0
100
AcDbArc
 50
270.0
 51
0.0
  0
LINE
  5
41C
330
1A
100
AcDbEntity
  8
SEIHIN
100
AcDbLine
 10
118.9580863684394
 20
219.7999827400329
 30
0.0
 11
118.9580863684394
 21
220.2999827400329
 31
0.0
  0
ARC
  5
41D
330
1A
100
AcDbEntity
  8
SEIHIN
100
AcDbCircle
 10
126.2168037594394
 20
216.5720563400329
 30
0.0
 40
2.0
100
AcDbArc
 50
0.0
 51
90.0
  0
ARC
  5
41E
330
1A
100
AcDbEntity
  8
SEIHIN
100
AcDbCircle
 10
127.3643694664394
 20
216.5720563400329
 30
0.0
 40
2.0
100
AcDbArc
 50
0.0
 51
90.0
  0
ARC
  5
41F
330
1A
100
AcDbEntity
  8
SEIHIN
100
AcDbCircle
 10
127.3643694664394
 20
216.5720563400329
 30
0.0
 40
2.0
100
AcDbArc
 50
0.0
 51
90.0
  0
ARC
  5
420
330
1A
100
AcDbEntity
  8
SEIHIN
100
AcDbCircle
 10
124.6255794514394
 20
214.4544267100329
 30
0.0
 40
2.000000014999997
100
AcDbArc
 50
0.0
 51
90.0
  0
LINE
  5
43E
330
1A
100
AcDbEntity
  8
SEIHIN
100
AcDbLine
 10
99.49098933643945
 20
223.2999827400329
 30
0.0
 11
98.49098933643944
 21
223.2999827400329
 31
0.0
  0
LINE
  5
6FB
330
1A
100
AcDbEntity
  8
CENTER_L
100
AcDbLine
 10
58.45461984643944
 20
212.2999827200329
 30
0.0
 11
220.6770232994394
 21
212.2999827200329
 31
0.0
  0
LINE
  5
BDA
330
1A
100
AcDbEntity
  8
SEIHIN
100
AcDbLine
 10
88.42303747643944
 20
82.36650424282743
 30
0.0
 11
93.95808636643943
 21
82.36650424282743
 31
0.0
  0
LINE
  5
BDB
330
1A
100
AcDbEntity
  8
SEIHIN
100
AcDbLine
 10
93.95808636643943
 20
90.86650424282742
 30
0.0
 11
89.0657629464394
 21
90.86650424282742
 31
0.0
  0
LINE
  5
BDC
330
1A
100
AcDbEntity
  8
SEIHIN
100
AcDbLine
 10
88.07509927643943
 20
84.86650424282743
 30
0.0
 11
93.95808636643943
 21
84.86650424282743
 31
0.0
  0
LINE
  5
BDD
330
1A
100
AcDbEntity
  8
SEIHIN
100
AcDbLine
 10
89.0657629464394
 20
93.36650424282742
 30
0.0
 11
93.95808636643943
 21
93.36650424282742
 31
0.0
  0
LINE
  5
BDF
330
1A
100
AcDbEntity
  8
SEIHIN
100
AcDbLine
 10
77.05794990643943
 20
91.56650424282743
 30
0.0
 11
86.05333961643941
 21
83.29074570282745
 31
0.0
  0
ARC
  5
BE0
330
1A
100
AcDbEntity
  8
SEIHIN
100
AcDbCircle
 10
88.07509927643943
 20
85.86650424282742
 30
0.0
 40
1.000000002404392
100
AcDbArc
 50
226.2544208983734
 51
270.0
  0
LINE
  5
BE1
330
1A
100
AcDbEntity
  8
SEIHIN
100
AcDbLine
 10
89.90010025643943
 20
90.86650424282742
 30
0.0
 11
89.90010025643943
 21
84.86650424282743
 31
0.0
  0
ARC
  5
BE2
330
1A
100
AcDbEntity
  8
SEIHIN
100
AcDbCircle
 10
88.42303747643944
 20
85.86650424282742
 30
0.0
 40
3.50000000029082
100
AcDbArc
 50
227.385943991837
 51
270.0
  0
LINE
  5
BE4
330
1A
100
AcDbEntity
  8
SEIHIN
100
AcDbLine
 10
72.05798636643942
 20
91.56650424282743
 30
0.0
 11
77.05794990643943
 21
91.56650424282743
 31
0.0
  0
ARC
  5
BE5
330
1A
100
AcDbEntity
  8
SEIHIN
100
AcDbCircle
 10
73.75815464643943
 20
99.61630789282743
 30
0.0
 40
4.249794616209057
100
AcDbArc
 50
248.0382779466742
 51
298.0729204221733
  0
LINE
  5
BE6
330
1A
100
AcDbEntity
  8
SEIHIN
100
AcDbLine
 10
72.05798636643942
 20
91.56650424282743
 30
0.0
 11
77.05794990643943
 21
91.56650424282743
 31
0.0
  0
LINE
  5
BE7
330
1A
100
AcDbEntity
  8
SEIHIN
100
AcDbLine
 10
72.05798636643942
 20
91.56650424282743
 30
0.0
 11
77.05794990643943
 21
91.56650424282743
 31
0.0
  0
ELLIPSE
  5
BE8
330
1A
100
AcDbEntity
  8
SEIHIN
100
AcDbEllipse
 10
72.35579799643943
 20
96.13858044282745
 30
0.0
 11
-0.480711628724846
 21
0.1374237974682779
 31
0.0
210
0.0
220
0.0
230
1.0
 40
1.0
 41
0.0000000000000004
 42
1.465876859819378
  0
ARC
  5
BE9
330
1A
100
AcDbEntity
  8
SEIHIN
100
AcDbCircle
 10
72.55675321643943
 20
95.95886127282744
 30
0.0
 40
3.499985617108208
100
AcDbArc
 50
103.1906191421164
 51
181.5120868822297
  0
ARC
  5
BEA
330
1A
100
AcDbEntity
  8
SEIHIN
100
AcDbCircle
 10
72.05798636643942
 20
94.56650424282742
 30
0.0
 40
3.0
100
AcDbArc
 50
180.0
 51
270.0
  0
LINE
  5
BEB
330
1A
100
AcDbEntity
  8
SEIHIN
100
AcDbLine
 10
69.05798636643942
 20
95.86650424282742
 30
0.0
 11
69.05798636643942
 21
94.56650424282742
 31
0.0
  0
LINE
  5
BED
330
1A
100
AcDbEntity
  8
SEIHIN
100
AcDbLine
 10
71.75798636643941
 20
99.36650424282744
 30
0.0
 11
72.09523565643943
 21
99.36650424282744
 31
0.0
  0
LINE
  5
BEE
330
1A
100
AcDbEntity
  8
SEIHIN
100
AcDbLine
 10
72.57599171643943
 20
98.72912297282745
 30
0.0
 11
71.87498636643943
 21
96.27600424282741
 31
0.0
  0
ELLIPSE
  5
BEF
330
1A
100
AcDbEntity
  8
SEIHIN
100
AcDbEllipse
 10
72.09520423643943
 20
98.86648054282744
 30
0.0
 11
0.4807821249180666
 21
-0.1373763011067326
 31
0.0
210
0.0
220
0.0
230
1.0
 40
1.0
 41
0.0
 42
1.849150924921633
  0
LINE
  5
BF0
330
1A
100
AcDbEntity
  8
SEIHIN
100
AcDbLine
 10
75.75808636643944
 20
95.86650424282742
 30
0.0
 11
84.99151241643943
 21
95.86650424282742
 31
0.0
  0
LINE
  5
BF1
330
1A
100
AcDbEntity
  8
SEIHIN
100
AcDbLine
 10
87.38364195643942
 20
85.14408692282746
 30
0.0
 11
80.59258636643944
 21
91.64410424282744
 31
0.0
  0
LINE
  5
BF2
330
1A
100
AcDbEntity
  8
SEIHIN
100
AcDbLine
 10
84.34073082643942
 20
93.36650424282742
 30
0.0
 11
81.28408636643944
 21
93.36650424282742
 31
0.0
  0
LINE
  5
BF3
330
1A
100
AcDbEntity
  8
SEIHIN
100
AcDbLine
 10
75.75808636643944
 20
95.86650424282742
 30
0.0
 11
75.75808636643944
 21
91.56650424282743
 31
0.0
  0
ARC
  5
BF4
330
1A
100
AcDbEntity
  8
SEIHIN
100
AcDbCircle
 10
81.28408295643941
 20
92.36649574282745
 30
0.0
 40
1.000008503298284
100
AcDbArc
 50
89.99980462305257
 51
226.251772552069
  0
ARC
  5
BF5
330
1A
100
AcDbEntity
  8
SEIHIN
100
AcDbCircle
 10
89.0657629464394
 20
95.36650424282743
 30
0.0
 40
4.499999998880124
100
AcDbArc
 50
223.0923541928525
 51
270.0
  0
ARC
  5
BF6
330
1A
100
AcDbEntity
  8
SEIHIN
100
AcDbCircle
 10
84.99151241643943
 20
93.86650424282743
 30
0.0
 40
1.999999999554587
100
AcDbArc
 50
43.09235410287214
 51
90.0
  0
LINE
  5
BF7
330
1A
100
AcDbEntity
  8
SEIHIN
100
AcDbLine
 10
85.77962242643943
 20
92.29221075282742
 30
0.0
 11
85.07098427643944
 21
93.04968057282748
 31
0.0
  0
ARC
  5
BF8
330
1A
100
AcDbEntity
  8
SEIHIN
100
AcDbCircle
 10
84.34073082643942
 20
92.36650424282743
 30
0.0
 40
0.9999999997772931
100
AcDbArc
 50
43.09235410287214
 51
90.0
  0
ARC
  5
BF9
330
1A
100
AcDbEntity
  8
SEIHIN
100
AcDbCircle
 10
89.0657629464394
 20
95.36650424282743
 30
0.0
 40
1.999999999554585
100
AcDbArc
 50
223.0923541028721
 51
270.0
  0
LINE
  5
BFA
330
1A
100
AcDbEntity
  8
SEIHIN
100
AcDbLine
 10
87.60525604643943
 20
94.00015158282746
 30
0.0
 11
86.45201931643942
 21
95.23285690282746
 31
0.0
  0
LINE
  5
BFB
330
1A
100
AcDbEntity
  8
SEIHIN
100
AcDbLine
 10
158.9568409464394
 20
90.86650424282742
 30
0.0
 11
118.9580863664394
 21
90.86650424282742
 31
0.0
  0
LINE
  5
BFC
330
1A
100
AcDbEntity
  8
SEIHIN
100
AcDbLine
 10
118.9580863664394
 20
84.86650424282743
 30
0.0
 11
152.6510297464394
 21
84.86650424282743
 31
0.0
  0
LINE
  5
BFD
330
1A
100
AcDbEntity
  8
SEIHIN
100
AcDbLine
 10
118.9580863664394
 20
82.36650424282743
 30
0.0
 11
152.0103331064394
 21
82.36650424282743
 31
0.0
  0
LINE
  5
BFE
330
1A
100
AcDbEntity
  8
SEIHIN
100
AcDbLine
 10
118.9580863664394
 20
93.36650424282742
 30
0.0
 11
151.0148306064394
 21
93.36650424282742
 31
0.0
  0
LINE
  5
C00
330
1A
100
AcDbEntity
  8
SEIHIN
100
AcDbLine
 10
148.5579499064394
 20
90.86650424282742
 30
0.0
 11
148.5579499064394
 21
84.86650424282743
 31
0.0
  0
MTEXT
  5
C0E
330
1A
100
AcDbEntity
  8
SEIHIN
100
AcDbMText
 10
119.7420368724394
 20
87.77828146682741
 30
0.0
 40
2.381249964
 41
0.0
 71
     1
 72
     5
  1
{\W1.703704;0}
1001
ACAD
1000
MTEXTBEGIN
1070
    73
1070
     1
1070
    44
1040
1.0
1070
    74
1070
     0
1000
MTEXTEND
1000
MTEXTBEGIN
1070
    73
1070
     1
1070
    44
1040
1.0
1070
    74
1070
     0
1000
MTEXTEND
1000
MTEXTBEGIN
1070
    73
1070
     1
1070
    44
1040
1.0
1070
    74
1070
     0
1000
MTEXTEND
1000
MTEXTBEGIN
1070
    73
1070
     1
1070
    44
1040
1.0
1070
    74
1070
     0
1000
MTEXTEND
1000
MTEXTBEGIN
1070
    73
1070
     1
1070
    44
1040
1.0
1070
    74
1070
     0
1000
MTEXTEND
1000
MTEXTBEGIN
1070
    73
1070
     1
1070
    44
1040
1.0
1070
    74
1070
     0
1000
MTEXTEND
1000
MTEXTBEGIN
1070
    73
1070
     1
1070
    44
1040
1.0
1070
    74
1070
     0
1000
MTEXTEND
1000
MTEXTBEGIN
1070
    73
1070
     1
1070
    44
1040
1.0
1070
    74
1070
     0
1000
MTEXTEND
  0
LINE
  5
C12
330
1A
100
AcDbEntity
  8
SEIHIN
100
AcDbLine
 10
124.1373863654394
 20
93.36650424282742
 30
0.0
 11
118.9580863664394
 21
93.36650424282742
 31
0.0
  0
LINE
  5
C2D
330
1A
100
AcDbEntity
  8
SEIHIN
100
AcDbLine
 10
119.2080863664394
 20
90.86650424282742
 30
0.0
 11
119.2080863664394
 21
88.86650424282743
 31
0.0
  0
LINE
  5
C2E
330
1A
100
AcDbEntity
  8
SEIHIN
100
AcDbLine
 10
119.2080863664394
 20
88.86650424282743
 30
0.0
 11
118.9580863664394
 21
88.86650424282743
 31
0.0
  0
MTEXT
  5
C31
330
1A
100
AcDbEntity
  8
SEIHIN
100
AcDbMText
 10
127.0490786225694
 20
87.77828146682741
 30
0.0
 40
2.381249964
 41
0.0
 71
     1
 72
     5
  1
{\W1.135802;30}
1001
ACAD
1000
MTEXTBEGIN
1070
    73
1070
     1
1070
    44
1040
1.0
1070
    74
1070
     0
1000
MTEXTEND
1000
MTEXTBEGIN
1070
    73
1070
     1
1070
    44
1040
1.0
1070
    74
1070
     0
1000
MTEXTEND
1000
MTEXTBEGIN
1070
    73
1070
     1
1070
    44
1040
1.0
1070
    74
1070
     0
1000
MTEXTEND
1000
MTEXTBEGIN
1070
    73
1070
     1
1070
    44
1040
1.0
1070
    74
1070
     0
1000
MTEXTEND
1000
MTEXTBEGIN
1070
    73
1070
     1
1070
    44
1040
1.0
1070
    74
1070
     0
1000
MTEXTEND
1000
MTEXTBEGIN
1070
    73
1070
     1
1070
    44
1040
1.0
1070
    74
1070
     0
1000
MTEXTEND
1000
MTEXTBEGIN
1070
    73
1070
     1
1070
    44
1040
1.0
1070
    74
1070
     0
1000
MTEXTEND
1000
MTEXTBEGIN
1070
    73
1070
     1
1070
    44
1040
1.0
1070
    74
1070
     0
1000
MTEXTEND
  0
LINE
  5
C32
330
1A
100
AcDbEntity
  8
SEIHIN
100
AcDbLine
 10
124.2080863664394
 20
90.86650424282742
 30
0.0
 11
124.2080863664394
 21
88.86650424282743
 31
0.0
  0
LINE
  5
C33
330
1A
100
AcDbEntity
  8
SEIHIN
100
AcDbLine
 10
123.7080863664394
 20
88.86650424282743
 30
0.0
 11
123.7080863664394
 21
90.86650424282742
 31
0.0
  0
LINE
  5
C34
330
1A
100
AcDbEntity
  8
SEIHIN
100
AcDbLine
 10
124.2080863664394
 20
88.86650424282743
 30
0.0
 11
123.7080863664394
 21
88.86650424282743
 31
0.0
  0
LINE
  5
C35
330
1A
100
AcDbEntity
  8
SEIHIN
100
AcDbLine
 10
123.7080863664394
 20
90.86650424282742
 30
0.0
 11
124.2080863664394
 21
90.86650424282742
 31
0.0
  0
LINE
  5
C36
330
1A
100
AcDbEntity
  8
SEIHIN
100
AcDbLine
 10
134.2080863664394
 20
90.86650424282742
 30
0.0
 11
134.2080863664394
 21
88.86650424282743
 31
0.0
  0
LINE
  5
C37
330
1A
100
AcDbEntity
  8
SEIHIN
100
AcDbLine
 10
133.7080863664394
 20
88.86650424282743
 30
0.0
 11
133.7080863664394
 21
90.86650424282742
 31
0.0
  0
LINE
  5
C38
330
1A
100
AcDbEntity
  8
SEIHIN
100
AcDbLine
 10
129.2080863664394
 20
90.86650424282742
 30
0.0
 11
129.2080863664394
 21
88.86650424282743
 31
0.0
  0
LINE
  5
C39
330
1A
100
AcDbEntity
  8
SEIHIN
100
AcDbLine
 10
128.7080863664394
 20
88.86650424282743
 30
0.0
 11
128.7080863664394
 21
90.86650424282742
 31
0.0
  0
LINE
  5
C3A
330
1A
100
AcDbEntity
  8
SEIHIN
100
AcDbLine
 10
129.2080863664394
 20
88.86650424282743
 30
0.0
 11
128.7080863664394
 21
88.86650424282743
 31
0.0
  0
LINE
  5
C3B
330
1A
100
AcDbEntity
  8
SEIHIN
100
AcDbLine
 10
134.2080863664394
 20
88.86650424282743
 30
0.0
 11
133.7080863664394
 21
88.86650424282743
 31
0.0
  0
LINE
  5
C3C
330
1A
100
AcDbEntity
  8
SEIHIN
100
AcDbLine
 10
128.7080863664394
 20
90.86650424282742
 30
0.0
 11
129.2080863664394
 21
90.86650424282742
 31
0.0
  0
LINE
  5
C3D
330
1A
100
AcDbEntity
  8
SEIHIN
100
AcDbLine
 10
133.7080863664394
 20
90.86650424282742
 30
0.0
 11
134.2080863664394
 21
90.86650424282742
 31
0.0
  0
MTEXT
  5
C3E
330
1A
100
AcDbEntity
  8
SEIHIN
100
AcDbMText
 10
142.0568565164394
 20
87.95842306682743
 30
0.0
 40
2.381249964
 41
0.0
 71
     1
 72
     5
  1
{\W1.022222;45}
1001
ACAD
1000
MTEXTBEGIN
1070
    73
1070
     1
1070
    44
1040
1.0
1070
    74
1070
     0
1000
MTEXTEND
1000
MTEXTBEGIN
1070
    73
1070
     1
1070
    44
1040
1.0
1070
    74
1070
     0
1000
MTEXTEND
1000
MTEXTBEGIN
1070
    73
1070
     1
1070
    44
1040
1.0
1070
    74
1070
     0
1000
MTEXTEND
1000
MTEXTBEGIN
1070
    73
1070
     1
1070
    44
1040
1.0
1070
    74
1070
     0
1000
MTEXTEND
1000
MTEXTBEGIN
1070
    73
1070
     1
1070
    44
1040
1.0
1070
    74
1070
     0
1000
MTEXTEND
1000
MTEXTBEGIN
1070
    73
1070
     1
1070
    44
1040
1.0
1070
    74
1070
     0
1000
MTEXTEND
1000
MTEXTBEGIN
1070
    73
1070
     1
1070
    44
1040
1.0
1070
    74
1070
     0
1000
MTEXTEND
1000
MTEXTBEGIN
1070
    73
1070
     1
1070
    44
1040
1.0
1070
    74
1070
     0
1000
MTEXTEND
  0
LINE
  5
C3F
330
1A
100
AcDbEntity
  8
SEIHIN
100
AcDbLine
 10
139.2074636564394
 20
90.86650424282742
 30
0.0
 11
139.2074636564394
 21
88.86650424282743
 31
0.0
  0
LINE
  5
C40
330
1A
100
AcDbEntity
  8
SEIHIN
100
AcDbLine
 10
138.7074636564394
 20
88.86650424282743
 30
0.0
 11
138.7074636564394
 21
90.86650424282742
 31
0.0
  0
LINE
  5
C41
330
1A
100
AcDbEntity
  8
SEIHIN
100
AcDbLine
 10
139.2074636564394
 20
88.86650424282743
 30
0.0
 11
138.7074636564394
 21
88.86650424282743
 31
0.0
  0
LINE
  5
C42
330
1A
100
AcDbEntity
  8
SEIHIN
100
AcDbLine
 10
138.7074636564394
 20
90.86650424282742
 30
0.0
 11
139.2074636564394
 21
90.86650424282742
 31
0.0
  0
LINE
  5
C43
330
1A
100
AcDbEntity
  8
SEIHIN
100
AcDbLine
 10
144.2080863664394
 20
90.86650424282742
 30
0.0
 11
144.2080863664394
 21
88.86650424282743
 31
0.0
  0
LINE
  5
C44
330
1A
100
AcDbEntity
  8
SEIHIN
100
AcDbLine
 10
143.7080863664394
 20
88.86650424282743
 30
0.0
 11
143.7080863664394
 21
90.86650424282742
 31
0.0
  0
LINE
  5
C45
330
1A
100
AcDbEntity
  8
SEIHIN
100
AcDbLine
 10
144.2080863664394
 20
88.86650424282743
 30
0.0
 11
143.7080863664394
 21
88.86650424282743
 31
0.0
  0
LINE
  5
C46
330
1A
100
AcDbEntity
  8
SEIHIN
100
AcDbLine
 10
143.7080863664394
 20
90.86650424282742
 30
0.0
 11
144.2080863664394
 21
90.86650424282742
 31
0.0
  0
LINE
  5
C49
330
1A
100
AcDbEntity
  8
SEIHIN
100
AcDbLine
 10
173.5579499064394
 20
88.11650424282744
 30
0.0
 11
173.5579499064394
 21
83.25765622282744
 31
0.0
  0
ARC
  5
C4A
330
1A
100
AcDbEntity
  8
SEIHIN
100
AcDbCircle
 10
152.6510297464394
 20
85.36650424282743
 30
0.0
 40
0.4999999962089669
100
AcDbArc
 50
270.0
 51
350.6360096398327
  0
LINE
  5
C4B
330
1A
100
AcDbEntity
  8
SEIHIN
100
AcDbLine
 10
180.6920609664394
 20
87.86649019282743
 30
0.0
 11
185.5269974564394
 21
79.49213454282745
 31
0.0
  0
ARC
  5
C4C
330
1A
100
AcDbEntity
  8
SEIHIN
100
AcDbCircle
 10
151.2919860964394
 20
100.8665042428274
 30
0.0
 40
15.99999999650688
100
AcDbArc
 50
288.1859804982271
 51
330.2479051608476
  0
LINE
  5
C4D
330
1A
100
AcDbEntity
  8
SEIHIN
100
AcDbLine
 10
175.0579499064394
 20
81.50889591282743
 30
0.0
 11
175.0579499064394
 21
88.11650424282744
 31
0.0
  0
ARC
  5
C4E
330
1A
100
AcDbEntity
  8
SEIHIN
100
AcDbCircle
 10
156.5977282064394
 20
84.71568071282746
 30
0.0
 40
1.00000000571721
100
AcDbArc
 50
108.1859940097359
 51
255.3791176229967
  0
LINE
  5
C4F
330
1A
100
AcDbEntity
  8
SEIHIN
100
AcDbLine
 10
192.0580863664394
 20
113.8886470038274
 30
0.0
 11
192.0580863664394
 21
81.24213454282743
 31
0.0
  0
LINE
  5
C50
330
1A
100
AcDbEntity
  8
SEIHIN
100
AcDbLine
 10
152.0103331064394
 20
82.36650424282743
 30
0.0
 11
171.4830614364394
 21
78.56449389282744
 31
0.0
  0
LINE
  5
C51
330
1A
100
AcDbEntity
  8
SEIHIN
100
AcDbLine
 10
170.1184986964394
 20
80.15505673282746
 30
0.0
 11
156.3453061664394
 21
83.74806347282742
 31
0.0
  0
ARC
  5
C52
330
1A
100
AcDbEntity
  8
SEIHIN
100
AcDbCircle
 10
152.0103331064394
 20
81.36650424282743
 30
0.0
 40
0.9999999985731333
100
AcDbArc
 50
78.80393204908905
 51
90.0
  0
ARC
  5
C53
330
1A
100
AcDbEntity
  8
SEIHIN
100
AcDbCircle
 10
172.7408433564394
 20
80.77784909282746
 30
0.0
 40
1.999999999179419
100
AcDbArc
 50
82.71282276529213
 51
183.1869153879589
  0
ARC
  5
C54
330
1A
100
AcDbEntity
  8
SEIHIN
100
AcDbCircle
 10
172.0579499064394
 20
81.50889591282743
 30
0.0
 40
3.00000000069325
100
AcDbArc
 50
258.9521053411593
 51
0.0
  0
ARC
  5
C55
330
1A
100
AcDbEntity
  8
SEIHIN
100
AcDbCircle
 10
170.2447096464394
 20
80.63886536282746
 30
0.0
 40
0.4999999958019847
100
AcDbArc
 50
255.3791256739049
 51
3.186915975958103
  0
ARC
  5
C56
330
1A
100
AcDbEntity
  8
SEIHIN
100
AcDbCircle
 10
173.0579499064394
 20
83.25765622282744
 30
0.0
 40
0.4999999963452644
100
AcDbArc
 50
262.7128226562795
 51
0.0
  0
ARC
  5
C57
330
1A
100
AcDbEntity
  8
SEIHIN
100
AcDbCircle
 10
188.5580863664394
 20
81.24213454282743
 30
0.0
 40
3.499999998594639
100
AcDbArc
 50
210.0000000265656
 51
0.0
  0
LINE
  5
C58
330
1A
100
AcDbEntity
  8
SEIHIN
100
AcDbLine
 10
187.0582366664394
 20
118.8886470018274
 30
0.0
 11
180.1098557564394
 21
118.8888558748274
 31
0.0
  0
LINE
  5
C59
330
1A
100
AcDbEntity
  8
SEIHIN
100
AcDbLine
 10
187.0581615164394
 20
116.3886470028274
 30
0.0
 11
180.1097806064394
 21
116.3888558768274
 31
0.0
  0
LINE
  5
C5A
330
1A
100
AcDbEntity
  8
SEIHIN
100
AcDbLine
 10
181.0582667264394
 20
108.8888273608274
 30
0.0
 11
180.1095551464394
 21
108.8888558798274
 31
0.0
  0
LINE
  5
C5B
330
1A
100
AcDbEntity
  8
SEIHIN
100
AcDbLine
 10
181.0583418864394
 20
111.3888273597274
 30
0.0
 11
180.1096302964394
 21
111.3888558786274
 31
0.0
  0
LINE
  5
C5C
330
1A
100
AcDbEntity
  8
SEIHIN
100
AcDbLine
 10
164.9160927864394
 20
107.5732001898274
 30
0.0
 11
157.6508568964394
 21
94.86275249282744
 31
0.0
  0
LINE
  5
C5D
330
1A
100
AcDbEntity
  8
SEIHIN
100
AcDbLine
 10
162.7456411064394
 20
108.8138208048274
 30
0.0
 11
155.3557344464394
 21
95.88526301282746
 31
0.0
  0
ARC
  5
C5E
330
1A
100
AcDbEntity
  8
SEIHIN
100
AcDbCircle
 10
180.1092545364394
 20
98.88885588282745
 30
0.0
 40
9.999999999145625
100
AcDbArc
 50
89.9982776315724
 51
150.2479051562262
  0
ARC
  5
C5F
330
1A
100
AcDbEntity
  8
SEIHIN
100
AcDbCircle
 10
180.1092545364394
 20
98.88885588282745
 30
0.0
 40
12.49999999966815
100
AcDbArc
 50
89.99827764303095
 51
150.2479051639018
  0
LINE
  5
C60
330
1A
100
AcDbEntity
  8
SEIHIN
100
AcDbLine
 10
169.2569961464394
 20
105.0919589598274
 30
0.0
 11
162.8427201864394
 21
93.87025599282742
 31
0.0
  0
ARC
  5
C61
330
1A
100
AcDbEntity
  8
SEIHIN
100
AcDbCircle
 10
151.2919860964394
 20
100.8665042428274
 30
0.0
 40
13.49999999718524
100
AcDbArc
 50
288.1859799493473
 51
306.1289274530567
  0
ARC
  5
C62
330
1A
100
AcDbEntity
  8
SEIHIN
100
AcDbCircle
 10
158.5190375664394
 20
94.36650424282744
 30
0.0
 40
1.000000000347428
100
AcDbArc
 50
150.247904938769
 51
270.0
  0
ARC
  5
C63
330
1A
100
AcDbEntity
  8
SEIHIN
100
AcDbCircle
 10
156.5977282064394
 20
84.71568071282746
 30
0.0
 40
3.500000003201731
100
AcDbArc
 50
108.1859864757694
 51
170.6360096381228
  0
ARC
  5
C64
330
1A
100
AcDbEntity
  8
SEIHIN
100
AcDbCircle
 10
151.0148310864394
 20
98.36650424282744
 30
0.0
 40
5.000000001115571
100
AcDbArc
 50
269.9999944996055
 51
330.2479051946069
  0
ARC
  5
C65
330
1A
100
AcDbEntity
  8
SEIHIN
100
AcDbCircle
 10
158.9568409464394
 20
90.36650424282743
 30
0.0
 40
0.499999998465137
100
AcDbArc
 50
306.1289277375728
 51
90.0
  0
LINE
  5
C66
330
1A
100
AcDbEntity
  8
SEIHIN
100
AcDbLine
 10
158.5190375664394
 20
93.36650424282742
 30
0.0
 11
161.9745395164394
 21
93.36650424282742
 31
0.0
  0
ARC
  5
C67
330
1A
100
AcDbEntity
  8
SEIHIN
100
AcDbCircle
 10
161.9745395164394
 20
94.36650424282744
 30
0.0
 40
1.000000000347427
100
AcDbArc
 50
270.0
 51
330.2479049387692
  0
LINE
  5
C68
330
1A
100
AcDbEntity
  8
SEIHIN
100
AcDbLine
 10
171.4274478264394
 20
103.8513383448274
 30
0.0
 11
165.1828768364394
 21
92.92653230282747
 31
0.0
  0
ARC
  5
C69
330
1A
100
AcDbEntity
  8
SEIHIN
100
AcDbCircle
 10
174.3079499064394
 20
88.11650424282744
 30
0.0
 40
0.75
100
AcDbArc
 50
0.0
 51
90.0
  0
ARC
  5
C6A
330
1A
100
AcDbEntity
  8
SEIHIN
100
AcDbCircle
 10
174.3079499064394
 20
88.11650424282744
 30
0.0
 40
0.75
100
AcDbArc
 50
90.0
 51
180.0
  0
ARC
  5
C6B
330
1A
100
AcDbEntity
  8
SEIHIN
100
AcDbCircle
 10
180.1092545364394
 20
98.88885588282745
 30
0.0
 40
17.50000000101337
100
AcDbArc
 50
89.99827762338702
 51
150.2479051726757
  0
ARC
  5
C6C
330
1A
100
AcDbEntity
  8
SEIHIN
100
AcDbCircle
 10
180.1092545364394
 20
98.88885588282745
 30
0.0
 40
20.0000000011359
100
AcDbArc
 50
89.99827763157158
 51
150.2479051754179
  0
ARC
  5
C6D
330
1A
100
AcDbEntity
  8
SEIHIN
100
AcDbCircle
 10
181.0580863664394
 20
102.8888273638274
 30
0.0
 40
5.999999999855404
100
AcDbArc
 50
0.0
 51
89.99827768886756
  0
LINE
  5
C72
330
1A
100
AcDbEntity
  8
SEIHIN
100
AcDbLine
 10
187.0580863664394
 20
102.8888273638274
 30
0.0
 11
187.0580863664394
 21
89.10913088282745
 31
0.0
  0
ARC
  5
C73
330
1A
100
AcDbEntity
  8
SEIHIN
100
AcDbCircle
 10
185.0580863664394
 20
89.10913088282745
 30
0.0
 40
1.999999998321968
100
AcDbArc
 50
225.0
 51
0.0
  0
LINE
  5
C74
330
1A
100
AcDbEntity
  8
SEIHIN
100
AcDbLine
 10
182.2651931464394
 20
89.07359697282743
 30
0.0
 11
183.6438728064394
 21
87.69491732282745
 31
0.0
  0
ARC
  5
C75
330
1A
100
AcDbEntity
  8
SEIHIN
100
AcDbCircle
 10
181.5580863664394
 20
88.36649019282743
 30
0.0
 40
0.9999999975222747
100
AcDbArc
 50
45.0
 51
210.0000001084147
  0
ARC
  5
C77
330
1A
100
AcDbEntity
  8
SEIHIN
100
AcDbCircle
 10
187.0580863664394
 20
113.8886470038274
 30
0.0
 40
5.000000000129504
100
AcDbArc
 50
0.0
 51
89.99827768886756
  0
ARC
  5
C78
330
1A
100
AcDbEntity
  8
SEIHIN
100
AcDbCircle
 10
187.0580863664394
 20
113.8886470038274
 30
0.0
 40
2.500000000064752
100
AcDbArc
 50
0.0
 51
89.99827768886756
  0
ARC
  5
C79
330
1A
100
AcDbEntity
  8
SEIHIN
100
AcDbCircle
 10
181.0580863664394
 20
102.8888273638274
 30
0.0
 40
8.500000001574836
100
AcDbArc
 50
37.86364634504803
 51
89.99827762146058
  0
LINE
  5
C7A
330
1A
100
AcDbEntity
  8
SEIHIN
100
AcDbLine
 10
189.5580863664394
 20
113.8886470038274
 30
0.0
 11
189.5580863664394
 21
108.7197792588274
 31
0.0
  0
ARC
  5
C7B
330
1A
100
AcDbEntity
  8
SEIHIN
100
AcDbCircle
 10
188.5580863664394
 20
108.7197792588274
 30
0.0
 40
0.9999999983429477
100
AcDbArc
 50
217.863646510539
 51
0.0
  0
LINE
  5
C7C
330
1A
100
AcDbEntity
  8
SEIHIN
100
AcDbLine
 10
98.49098933643944
 20
204.7999827000329
 30
0.0
 11
77.05798636643945
 21
204.7999827000329
 31
0.0
  0
LINE
  5
C7D
330
1A
100
AcDbEntity
  8
SEIHIN
100
AcDbLine
 10
98.49098933643944
 20
219.7999827400329
 30
0.0
 11
77.05798636643945
 21
219.7999827400329
 31
0.0
  0
LINE
  5
C7F
330
1A
100
AcDbEntity
  8
SEIHIN
100
AcDbLine
 10
72.05798636643945
 20
201.2999827000329
 30
0.0
 11
72.05798636643945
 21
223.2999827400329
 31
0.0
  0
LINE
  5
C80
330
1A
100
AcDbEntity
  8
SEIHIN
100
AcDbLine
 10
75.05798636643945
 20
221.7999827400329
 30
0.0
 11
75.05798636643945
 21
223.2999827400329
 31
0.0
  0
LINE
  5
C81
330
1A
100
AcDbEntity
  8
SEIHIN
100
AcDbLine
 10
69.05798636643945
 20
201.2999827000329
 30
0.0
 11
69.05798636643945
 21
223.2999827400329
 31
0.0
  0
ARC
  5
C83
330
1A
100
AcDbEntity
  8
SEIHIN
100
AcDbCircle
 10
77.05798636643945
 20
202.7999827000329
 30
0.0
 40
2.0
100
AcDbArc
 50
90.0
 51
180.0
  0
LINE
  5
C84
330
1A
100
AcDbEntity
  8
SEIHIN
100
AcDbLine
 10
69.05798636643945
 20
201.2999827000329
 30
0.0
 11
75.05798636643945
 21
201.2999827000329
 31
0.0
  0
ARC
  5
C85
330
1A
100
AcDbEntity
  8
SEIHIN
100
AcDbCircle
 10
77.05798636643945
 20
221.7999827400329
 30
0.0
 40
2.0
100
AcDbArc
 50
180.0
 51
270.0
  0
LINE
  5
C87
330
1A
100
AcDbEntity
  8
SEIHIN
100
AcDbLine
 10
89.06576294643944
 20
218.8179118400328
 30
0.0
 11
89.06576294643944
 21
206.3285266100329
 31
0.0
  0
LINE
  5
C88
330
1A
100
AcDbEntity
  8
SEIHIN
100
AcDbLine
 10
85.72393403643946
 20
218.4780228400329
 30
0.0
 11
85.72393403643946
 21
205.9886375700329
 31
0.0
  0
LINE
  5
C89
330
1A
100
AcDbEntity
  8
SEIHIN
100
AcDbLine
 10
75.05798636643945
 20
202.7999827000329
 30
0.0
 11
75.05798636643945
 21
201.2999827000329
 31
0.0
  0
LINE
  5
C8A
330
1A
100
AcDbEntity
  8
SEIHIN
100
AcDbLine
 10
69.05798636643945
 20
223.2999827400329
 30
0.0
 11
75.05798636643945
 21
223.2999827400329
 31
0.0
  0
LINE
  5
F65
330
1A
100
AcDbEntity
  8
NOKITOI
  6
PHANTOM
 62
     8
100
AcDbLine
 10
186.8961863613574
 20
103.5596042417206
 30
0.0
 11
186.5060863613574
 21
91.0752042417206
 31
0.0
  0
LINE
  5
F66
330
1A
100
AcDbEntity
  8
NOKITOI
  6
PHANTOM
 62
     8
100
AcDbLine
 10
185.696786361357
 20
103.5971042417205
 30
0.0
 11
185.5474863613574
 21
98.8181042417208
 31
0.0
  0
LINE
  5
F67
330
1A
100
AcDbEntity
  8
NOKITOI
  6
PHANTOM
 62
     8
100
AcDbLine
 10
180.9836863613575
 20
100.8221042417206
 30
0.0
 11
179.9878863613574
 21
101.9221042417208
 31
0.0
  0
LINE
  5
F68
330
1A
100
AcDbEntity
  8
NOKITOI
  6
PHANTOM
 62
     8
100
AcDbLine
 10
178.4357863613575
 20
96.59580424172066
 30
0.0
 11
178.1199863613572
 21
102.5958042417206
 31
0.0
  0
ARC
  5
F69
330
1A
100
AcDbEntity
  8
NOKITOI
  6
PHANTOM
 62
     8
100
AcDbCircle
 10
181.4456684950062
 20
95.6221129701006
 30
0.0
 40
5.199991271650611
100
AcDbArc
 50
37.92532860472995
 51
89.9998031407256
  0
LINE
  5
F6A
330
1A
100
AcDbEntity
  8
NOKITOI
  6
PHANTOM
 62
     8
100
AcDbLine
 10
72.93768636135775
 20
100.8221042417206
 30
0.0
 11
73.93348636135744
 21
101.9221042417208
 31
0.0
  0
LINE
  5
F6B
330
1A
100
AcDbEntity
  8
NOKITOI
  6
PHANTOM
 62
     8
100
AcDbLine
 10
75.48568636135752
 20
96.59590424172064
 30
0.0
 11
75.80148636135738
 21
102.5958042417206
 31
0.0
  0
LINE
  5
F6C
330
1A
100
AcDbEntity
  8
NOKITOI
  6
PHANTOM
 62
     8
100
AcDbLine
 10
67.02518636135741
 20
103.5596042417206
 30
0.0
 11
67.41538636135723
 21
91.07530424172058
 31
0.0
  0
LINE
  5
F6D
330
1A
100
AcDbEntity
  8
NOKITOI
  6
PHANTOM
 62
     8
100
AcDbLine
 10
68.22458636135781
 20
103.5971042417205
 30
0.0
 11
68.37398636135714
 21
98.81820424172076
 31
0.0
  0
ARC
  5
F6E
330
1A
100
AcDbEntity
  8
NOKITOI
  6
PHANTOM
 62
     8
100
AcDbCircle
 10
72.47590657402662
 20
95.62216297010071
 30
0.0
 40
5.2000412730095
100
AcDbArc
 50
90.0013245430618
 51
142.0757990790551
  0
ARC
  5
F6F
330
1A
100
AcDbEntity
  8
NOKITOI
  6
PHANTOM
 62
     8
100
AcDbCircle
 10
118.7742924433253
 20
93.62209861706435
 30
0.0
 40
41.79999437547816
100
AcDbArc
 50
184.4742952125247
 51
269.999854592109
  0
ARC
  5
F70
330
1A
100
AcDbEntity
  8
NOKITOI
  6
PHANTOM
 62
     8
100
AcDbCircle
 10
118.7742701349
 20
93.62211871809074
 30
0.0
 40
43.00001447645168
100
AcDbArc
 50
186.5249107071177
 51
269.9998883751437
  0
ARC
  5
F71
330
1A
100
AcDbEntity
  8
NOKITOI
  6
PHANTOM
 62
     8
100
AcDbCircle
 10
68.91462232050827
 20
91.12206938757742
 30
0.0
 40
1.499965146287778
100
AcDbArc
 50
181.7866280217767
 51
269.9986264296971
  0
ARC
  5
F72
330
1A
100
AcDbEntity
  8
NOKITOI
  6
PHANTOM
 62
     8
100
AcDbCircle
 10
75.05927793719485
 20
88.62211175677714
 30
0.0
 40
0.9999924849789756
100
AcDbArc
 50
6.528264606673934
 51
89.99951732740965
  0
LINE
  5
F73
330
1A
100
AcDbEntity
  8
NOKITOI
  6
PHANTOM
 62
     8
100
AcDbLine
 10
76.60318636135781
 20
90.82210424172069
 30
0.0
 11
70.56228636135739
 21
90.82210424172069
 31
0.0
  0
LINE
  5
F74
330
1A
100
AcDbEntity
  8
NOKITOI
  6
PHANTOM
 62
     8
100
AcDbLine
 10
72.24228636135723
 20
96.69290424172084
 30
0.0
 11
72.57598636135736
 21
99.0291042417208
 31
0.0
  0
LINE
  5
F75
330
1A
100
AcDbEntity
  8
NOKITOI
  6
PHANTOM
 62
     8
100
AcDbLine
 10
74.98628636135737
 20
96.12210424172065
 30
0.0
 11
72.73718636135737
 21
96.12210424172065
 31
0.0
  0
ARC
  5
F76
330
1A
100
AcDbEntity
  8
NOKITOI
  6
PHANTOM
 62
     8
100
AcDbCircle
 10
72.73721296195509
 20
96.62207356483861
 30
0.0
 40
0.4999693238254178
100
AcDbArc
 50
171.8555038770531
 51
269.9969516090356
  0
ARC
  5
F77
330
1A
100
AcDbEntity
  8
NOKITOI
  6
PHANTOM
 62
     8
100
AcDbCircle
 10
74.98627947436244
 20
96.62209770663515
 30
0.0
 40
0.499993464961963
100
AcDbArc
 50
270.0007892017869
 51
356.997036131742
  0
LINE
  5
F78
330
1A
100
AcDbEntity
  8
NOKITOI
  6
PHANTOM
 62
     8
100
AcDbLine
 10
74.32218636135741
 20
97.3221042417207
 30
0.0
 11
73.54428636135782
 21
97.3221042417207
 31
0.0
  0
LINE
  5
F79
330
1A
100
AcDbEntity
  8
NOKITOI
  6
PHANTOM
 62
     8
100
AcDbLine
 10
73.94838636135756
 20
100.1505042417205
 30
0.0
 11
74.50338636135739
 21
100.7636042417208
 31
0.0
  0
LINE
  5
F7A
330
1A
100
AcDbEntity
  8
NOKITOI
  6
PHANTOM
 62
     8
100
AcDbLine
 10
73.54428636135782
 20
97.3221042417207
 30
0.0
 11
73.94838636135756
 21
100.1505042417205
 31
0.0
  0
ARC
  5
F7B
330
1A
100
AcDbEntity
  8
NOKITOI
  6
PHANTOM
 62
     8
100
AcDbCircle
 10
72.08100057977282
 20
99.09978960741966
 30
0.0
 40
0.5000073448410256
100
AcDbArc
 50
351.872947864124
 51
96.47829282996916
  0
LINE
  5
F7C
330
1A
100
AcDbEntity
  8
NOKITOI
  6
PHANTOM
 62
     8
100
AcDbLine
 10
72.93768636135775
 20
100.8221042417206
 30
0.0
 11
72.47578636135751
 21
100.8221042417206
 31
0.0
  0
LINE
  5
F7D
330
1A
100
AcDbEntity
  8
NOKITOI
  6
PHANTOM
 62
     8
100
AcDbLine
 10
74.32218636135741
 20
97.3221042417207
 30
0.0
 11
74.50338636135739
 21
100.7636042417208
 31
0.0
  0
LINE
  5
F7E
330
1A
100
AcDbEntity
  8
NOKITOI
  6
PHANTOM
 62
     8
100
AcDbLine
 10
68.91458636135741
 20
89.62210424172065
 30
0.0
 11
75.05928636135724
 21
89.62210424172065
 31
0.0
  0
LINE
  5
F7F
330
1A
100
AcDbEntity
  8
NOKITOI
  6
PHANTOM
 62
     8
100
AcDbLine
 10
68.56328636135714
 20
92.75970424172067
 30
0.0
 11
68.47778636135746
 21
95.49720424172063
 31
0.0
  0
ARC
  5
F80
330
1A
100
AcDbEntity
  8
NOKITOI
  6
PHANTOM
 62
     8
100
AcDbCircle
 10
72.47582424280409
 20
95.62214802424604
 30
0.0
 40
3.999989731271038
100
AcDbArc
 50
96.4773114201311
 51
181.7899836067311
  0
ARC
  5
F81
330
1A
100
AcDbEntity
  8
NOKITOI
  6
PHANTOM
 62
     8
100
AcDbCircle
 10
70.56229993349581
 20
92.82209108663426
 30
0.0
 40
1.999986844959662
100
AcDbArc
 50
181.7875531852356
 51
269.9996111843215
  0
ARC
  5
F82
330
1A
100
AcDbEntity
  8
NOKITOI
  6
PHANTOM
 62
     8
100
AcDbCircle
 10
76.60319893106572
 20
90.32209261699097
 30
0.0
 40
0.5000116248877111
100
AcDbArc
 50
4.474846808342103
 51
90.00144034898383
  0
LINE
  5
F83
330
1A
100
AcDbEntity
  8
NOKITOI
  6
PHANTOM
 62
     8
100
AcDbLine
 10
173.6557863613578
 20
60.10480424172067
 30
0.0
 11
163.6704863613575
 21
51.93500424172055
 31
0.0
  0
LINE
  5
F84
330
1A
100
AcDbEntity
  8
NOKITOI
  6
PHANTOM
 62
     8
100
AcDbLine
 10
174.6400863613574
 20
59.3597042417208
 30
0.0
 11
164.2369863613574
 21
50.84800424172079
 31
0.0
  0
LINE
  5
F85
330
1A
100
AcDbEntity
  8
NOKITOI
  6
PHANTOM
 62
     8
100
AcDbLine
 10
118.7742863613573
 20
51.82210424172069
 30
0.0
 11
163.3538863613574
 21
51.82200424172072
 31
0.0
  0
LINE
  5
F86
330
1A
100
AcDbEntity
  8
NOKITOI
  6
PHANTOM
 62
     8
100
AcDbLine
 10
163.6036863613574
 20
50.62200424172067
 30
0.0
 11
118.7742863613573
 21
50.62210424172064
 31
0.0
  0
LINE
  5
F87
330
1A
100
AcDbEntity
  8
NOKITOI
  6
PHANTOM
 62
     8
100
AcDbLine
 10
159.3538863613574
 20
51.82200424172072
 30
0.0
 11
139.4457863613577
 21
51.82200424172072
 31
0.0
  0
LINE
  5
F88
330
1A
100
AcDbEntity
  8
NOKITOI
  6
PHANTOM
 62
     8
100
AcDbLine
 10
159.6036863613574
 20
50.62200424172067
 30
0.0
 11
139.4457863613577
 21
50.62200424172067
 31
0.0
  0
ARC
  5
F89
330
1A
100
AcDbEntity
  8
NOKITOI
  6
PHANTOM
 62
     8
100
AcDbCircle
 10
163.3538927491061
 20
52.32200652171025
 30
0.0
 40
0.5000022800304047
100
AcDbArc
 50
269.9992680212791
 51
309.2854498596061
  0
ARC
  5
F8A
330
1A
100
AcDbEntity
  8
NOKITOI
  6
PHANTOM
 62
     8
100
AcDbCircle
 10
163.60367942878
 20
51.62200176671456
 30
0.0
 40
0.9999975250179316
100
AcDbArc
 50
270.0003972084035
 51
309.2946416752297
  0
LINE
  5
F8B
330
1A
100
AcDbEntity
  8
NOKITOI
  6
PHANTOM
 62
     8
100
AcDbLine
 10
176.8296863613575
 20
90.3719042417207
 30
0.0
 11
173.8366863613571
 21
60.44210424172058
 31
0.0
  0
LINE
  5
F8C
330
1A
100
AcDbEntity
  8
NOKITOI
  6
PHANTOM
 62
     8
100
AcDbLine
 10
177.8706863613577
 20
88.72160424172069
 30
0.0
 11
175.0018863613575
 21
60.03420424172066
 31
0.0
  0
ARC
  5
F8D
330
1A
100
AcDbEntity
  8
NOKITOI
  6
PHANTOM
 62
     8
100
AcDbCircle
 10
173.3391689354792
 20
60.4917717553327
 30
0.0
 40
0.4999904508696396
100
AcDbArc
 50
309.2900846377951
 51
354.2990110749239
  0
ARC
  5
F8E
330
1A
100
AcDbEntity
  8
NOKITOI
  6
PHANTOM
 62
     8
100
AcDbCircle
 10
174.0068637884886
 20
60.13366217004807
 30
0.0
 40
0.9999908507640039
100
AcDbArc
 50
309.288709223069
 51
354.2862329477532
  0
ARC
  5
F8F
330
1A
100
AcDbEntity
  8
NOKITOI
  6
PHANTOM
 62
     8
100
AcDbCircle
 10
181.4456554344213
 20
95.62213998638446
 30
0.0
 40
3.99998565374706
100
AcDbArc
 50
358.208696659101
 51
83.52422380468341
  0
LINE
  5
F90
330
1A
100
AcDbEntity
  8
NOKITOI
  6
PHANTOM
 62
     8
100
AcDbLine
 10
177.327186361357
 20
90.82210424172069
 30
0.0
 11
183.3590863613574
 21
90.82210424172069
 31
0.0
  0
LINE
  5
F91
330
1A
100
AcDbEntity
  8
NOKITOI
  6
PHANTOM
 62
     8
100
AcDbLine
 10
185.0067863613574
 20
89.62210424172065
 30
0.0
 11
178.8656863613576
 21
89.62210424172065
 31
0.0
  0
ARC
  5
F92
330
1A
100
AcDbEntity
  8
NOKITOI
  6
PHANTOM
 62
     8
100
AcDbCircle
 10
178.8657070111983
 20
88.62212292956986
 30
0.0
 40
0.9999813123640345
100
AcDbArc
 50
90.00118317084911
 51
174.2905900333514
  0
LINE
  5
F93
330
1A
100
AcDbEntity
  8
NOKITOI
  6
PHANTOM
 62
     8
100
AcDbLine
 10
181.6791863613573
 20
96.69280424172065
 30
0.0
 11
181.3453863613575
 21
99.02900424172083
 31
0.0
  0
ARC
  5
F94
330
1A
100
AcDbEntity
  8
NOKITOI
  6
PHANTOM
 62
     8
100
AcDbCircle
 10
181.1841965477936
 20
96.62211598644478
 30
0.0
 40
0.5000117448278309
100
AcDbArc
 50
269.9988327478016
 51
8.127314608715551
  0
ARC
  5
F95
330
1A
100
AcDbEntity
  8
NOKITOI
  6
PHANTOM
 62
     8
100
AcDbCircle
 10
178.9350904827641
 20
96.62210033169015
 30
0.0
 40
0.4999960899864752
100
AcDbArc
 50
183.0147243791741
 51
269.9995277178593
  0
LINE
  5
F96
330
1A
100
AcDbEntity
  8
NOKITOI
  6
PHANTOM
 62
     8
100
AcDbLine
 10
178.9350863613574
 20
96.12210424172065
 30
0.0
 11
181.184186361357
 21
96.12210424172065
 31
0.0
  0
ARC
  5
F97
330
1A
100
AcDbEntity
  8
NOKITOI
  6
PHANTOM
 62
     8
100
AcDbCircle
 10
181.8404157338571
 20
99.09973447421556
 30
0.0
 40
0.4999578477751074
100
AcDbArc
 50
83.5260907122076
 51
188.1330561712932
  0
LINE
  5
F98
330
1A
100
AcDbEntity
  8
NOKITOI
  6
PHANTOM
 62
     8
100
AcDbLine
 10
180.9836863613575
 20
100.8221042417206
 30
0.0
 11
181.4456863613575
 21
100.8221042417206
 31
0.0
  0
LINE
  5
F99
330
1A
100
AcDbEntity
  8
NOKITOI
  6
PHANTOM
 62
     8
100
AcDbLine
 10
179.9730863613575
 20
100.1505042417205
 30
0.0
 11
179.4180863613572
 21
100.7635042417206
 31
0.0
  0
LINE
  5
F9A
330
1A
100
AcDbEntity
  8
NOKITOI
  6
PHANTOM
 62
     8
100
AcDbLine
 10
179.5991863613574
 20
97.3221042417207
 30
0.0
 11
180.377086361357
 21
97.3221042417207
 31
0.0
  0
LINE
  5
F9B
330
1A
100
AcDbEntity
  8
NOKITOI
  6
PHANTOM
 62
     8
100
AcDbLine
 10
179.5991863613574
 20
97.3221042417207
 30
0.0
 11
179.4180863613572
 21
100.7635042417206
 31
0.0
  0
LINE
  5
F9C
330
1A
100
AcDbEntity
  8
NOKITOI
  6
PHANTOM
 62
     8
100
AcDbLine
 10
180.377086361357
 20
97.3221042417207
 30
0.0
 11
179.9730863613575
 21
100.1505042417205
 31
0.0
  0
ARC
  5
F9D
330
1A
100
AcDbEntity
  8
NOKITOI
  6
PHANTOM
 62
     8
100
AcDbCircle
 10
177.327199432362
 20
90.32211607200054
 30
0.0
 40
0.499988169890889
100
AcDbArc
 50
90.00149786226634
 51
174.2966061377162
  0
LINE
  5
F9E
330
1A
100
AcDbEntity
  8
NOKITOI
  6
PHANTOM
 62
     8
100
AcDbLine
 10
185.3581863613574
 20
92.75950424172071
 30
0.0
 11
185.4436863613571
 21
95.49710424172065
 31
0.0
  0
ARC
  5
F9F
330
1A
100
AcDbEntity
  8
NOKITOI
  6
PHANTOM
 62
     8
100
AcDbCircle
 10
183.3591243491817
 20
92.8220410622929
 30
0.0
 40
2.000036820932882
100
AcDbArc
 50
269.9989117490344
 51
358.2110591274195
  0
ARC
  5
FA0
330
1A
100
AcDbEntity
  8
NOKITOI
  6
PHANTOM
 62
     8
100
AcDbCircle
 10
185.0068035745355
 20
91.12212092486846
 30
0.0
 40
1.500016683246579
100
AcDbArc
 50
269.9993425123344
 51
358.2076423244113
  0
ARC
  5
FA1
330
1A
100
AcDbEntity
  8
NOKITOI
  6
PHANTOM
 62
     8
100
AcDbCircle
 10
69.02419911220732
 20
103.622117396807
 30
0.0
 40
1.999986844954076
100
AcDbArc
 50
90.00036528735451
 51
181.7883072882703
  0
ARC
  5
FA2
330
1A
100
AcDbEntity
  8
NOKITOI
  6
PHANTOM
 62
     8
100
AcDbCircle
 10
75.30208016019952
 20
102.6221107768059
 30
0.0
 40
0.4999934649531607
100
AcDbArc
 50
356.9955363203376
 51
89.99928939038076
  0
LINE
  5
FA3
330
1A
100
AcDbEntity
  8
NOKITOI
  6
PHANTOM
 62
     8
100
AcDbLine
 10
75.30208636135722
 20
103.1221042417206
 30
0.0
 11
73.07058636135735
 21
103.1221042417206
 31
0.0
  0
LINE
  5
FA4
330
1A
100
AcDbEntity
  8
NOKITOI
  6
PHANTOM
 62
     8
100
AcDbLine
 10
72.58028636135742
 20
103.7202042417205
 30
0.0
 11
72.84108636135744
 21
105.0241042417206
 31
0.0
  0
LINE
  5
FA5
330
1A
100
AcDbEntity
  8
NOKITOI
  6
PHANTOM
 62
     8
100
AcDbLine
 10
69.02418636135718
 20
104.4221042417208
 30
0.0
 11
71.49698636135764
 21
104.4221042417208
 31
0.0
  0
ARC
  5
FA6
330
1A
100
AcDbEntity
  8
NOKITOI
  6
PHANTOM
 62
     8
100
AcDbCircle
 10
73.07057910680197
 20
103.622113091564
 30
0.0
 40
0.5000088498959383
100
AcDbArc
 50
168.6864043304889
 51
270.0008312961442
  0
LINE
  5
FA7
330
1A
100
AcDbEntity
  8
NOKITOI
  6
PHANTOM
 62
     8
100
AcDbLine
 10
69.02418636135718
 20
105.6221042417206
 30
0.0
 11
72.3507863613575
 21
105.6221042417206
 31
0.0
  0
ARC
  5
FA8
330
1A
100
AcDbEntity
  8
NOKITOI
  6
PHANTOM
 62
     8
100
AcDbCircle
 10
72.35078557834896
 20
105.1221051967223
 30
0.0
 40
0.4999990449987349
100
AcDbArc
 50
348.6967198015447
 51
89.99991027369492
  0
LINE
  5
FA9
330
1A
100
AcDbEntity
  8
NOKITOI
  6
PHANTOM
 62
     8
100
AcDbLine
 10
70.99698636135764
 20
101.9221042417208
 30
0.0
 11
73.93348636135744
 21
101.9221042417208
 31
0.0
  0
LINE
  5
FAA
330
1A
100
AcDbEntity
  8
NOKITOI
  6
PHANTOM
 62
     8
100
AcDbLine
 10
71.49698636135764
 20
104.4221042417208
 30
0.0
 11
70.99698636135764
 21
101.9221042417208
 31
0.0
  0
ARC
  5
FAB
330
1A
100
AcDbEntity
  8
NOKITOI
  6
PHANTOM
 62
     8
100
AcDbCircle
 10
69.02419085615548
 20
103.6221088792475
 30
0.0
 40
0.7999953624857498
100
AcDbArc
 50
90.00032191805264
 51
181.7911273464193
  0
LINE
  5
FAC
330
1A
100
AcDbEntity
  8
NOKITOI
  6
PHANTOM
 62
     8
100
AcDbLine
 10
182.9244863613574
 20
101.9221042417208
 30
0.0
 11
179.9878863613574
 21
101.9221042417208
 31
0.0
  0
LINE
  5
FAD
330
1A
100
AcDbEntity
  8
NOKITOI
  6
PHANTOM
 62
     8
100
AcDbLine
 10
184.8971863613576
 20
105.6220042417206
 30
0.0
 11
181.5705863613573
 21
105.6221042417206
 31
0.0
  0
LINE
  5
FAE
330
1A
100
AcDbEntity
  8
NOKITOI
  6
PHANTOM
 62
     8
100
AcDbLine
 10
181.3410863613574
 20
103.7201042417208
 30
0.0
 11
181.0802863613574
 21
105.0241042417206
 31
0.0
  0
ARC
  5
FAF
330
1A
100
AcDbEntity
  8
NOKITOI
  6
PHANTOM
 62
     8
100
AcDbCircle
 10
180.8507855783489
 20
103.6221032867189
 30
0.0
 40
0.4999990449987399
100
AcDbArc
 50
270.000089726305
 51
11.30328019845521
  0
ARC
  5
FB0
330
1A
100
AcDbEntity
  8
NOKITOI
  6
PHANTOM
 62
     8
100
AcDbCircle
 10
181.5705791068019
 20
105.1220953918772
 30
0.0
 40
0.500008849895925
100
AcDbArc
 50
89.99916870385415
 51
191.3135956695126
  0
ARC
  5
FB1
330
1A
100
AcDbEntity
  8
NOKITOI
  6
PHANTOM
 62
     8
100
AcDbCircle
 10
178.6192900708527
 20
102.6221081517513
 30
0.0
 40
0.4999960899831856
100
AcDbArc
 50
90.00042508015082
 51
183.0156217414647
  0
LINE
  5
FB2
330
1A
100
AcDbEntity
  8
NOKITOI
  6
PHANTOM
 62
     8
100
AcDbLine
 10
178.6192863613576
 20
103.1221042417206
 30
0.0
 11
180.8507863613575
 21
103.1221042417206
 31
0.0
  0
ARC
  5
FB3
330
1A
100
AcDbEntity
  8
NOKITOI
  6
PHANTOM
 62
     8
100
AcDbCircle
 10
184.8971751243633
 20
103.6221158355377
 30
0.0
 40
1.999988406214315
100
AcDbArc
 50
358.2088726535936
 51
89.99967808195551
  0
ARC
  5
FB4
330
1A
100
AcDbEntity
  8
NOKITOI
  6
PHANTOM
 62
     8
100
AcDbCircle
 10
184.8972303277103
 20
103.6220588792476
 30
0.0
 40
0.7999453636812564
100
AcDbArc
 50
358.2123436447881
 51
90.00314907315425
  0
LINE
  5
FB5
330
1A
100
AcDbEntity
  8
NOKITOI
  6
PHANTOM
 62
     8
100
AcDbLine
 10
182.4244863613574
 20
104.4221042417208
 30
0.0
 11
182.9244863613574
 21
101.9221042417208
 31
0.0
  0
LINE
  5
FB6
330
1A
100
AcDbEntity
  8
NOKITOI
  6
PHANTOM
 62
     8
100
AcDbLine
 10
184.8971863613576
 20
104.4220042417206
 30
0.0
 11
182.4244863613574
 21
104.4221042417208
 31
0.0
  0
DIMENSION
  5
1057
330
1A
100
AcDbEntity
  8
SUNPOU
100
AcDbDimension
  2
*D1
 10
43.17272371978993
 20
201.2999827000329
 30
0.0
 11
40.67272371978989
 21
212.2999827200329
 31
0.0
 70
    32
  3
STANDARD
100
AcDbAlignedDimension
 13
69.05798636643945
 23
223.2999827400329
 33
0.0
 14
69.05798636643945
 24
201.2999827000329
 34
0.0
 50
90.0
100
AcDbRotatedDimension
1001
ACAD
1000
DSTYLE
1002
{
1070
    41
1040
3.0
1070
    42
1040
3.0
1070
    43
1040
7.0
1070
    44
1040
1.5
1070
    73
1070
     0
1070
    74
1070
     0
1070
    77
1070
     3
1070
   140
1040
3.0
1070
   141
1040
3.0
1070
   147
1040
1.0
1070
   172
1070
     1
1070
   173
1070
     1
1070
   176
1070
   256
1070
   177
1070
   256
1070
   178
1070
   256
1070
   271
1070
     0
1070
   272
1070
     0
1070
   341
1005
B2
1070
     6
1000
OPEN
1070
     7
1000
OPEN
1002
}
  0
LINE
  5
31AD
330
1A
100
AcDbEntity
  8
SEIHIN
100
AcDbLine
 10
210.5454534751394
 20
96.05276029282743
 30
0.0
 11
194.4457640364394
 21
128.2521391628274
 31
0.0
  0
LINE
  5
31AE
330
1A
100
AcDbEntity
  8
SEIHIN
100
AcDbLine
 10
200.4384262164394
 20
131.2484702528274
 30
0.0
 11
216.5381156544394
 21
99.04909138282745
 31
0.0
  0
LINE
  5
31AF
330
1A
100
AcDbEntity
  8
SEIHIN
100
AcDbLine
 10
199.3651135864394
 20
130.7118139428274
 30
0.0
 11
215.4648030254394
 21
98.51243506282742
 31
0.0
  0
LINE
  5
31CC
330
1A
100
AcDbEntity
  8
SEIHIN
100
AcDbLine
 10
133.8779256964394
 20
127.6526294228274
 30
0.0
 11
178.5217074064394
 21
133.1341965628274
 31
0.0
  0
LINE
  5
31CD
330
1A
100
AcDbEntity
  8
SEIHIN
100
AcDbLine
 10
135.6869589364394
 20
121.8296918228274
 30
0.0
 11
179.2529232264394
 21
127.1789196228274
 31
0.0
  0
LINE
  5
31D3
330
1A
100
AcDbEntity
  8
SEIHIN
100
AcDbLine
 10
118.9580863264394
 20
94.80171693282745
 30
0.0
 11
130.2484860164394
 21
117.9504667928274
 31
0.0
  0
LINE
  5
31D4
330
1A
100
AcDbEntity
  8
SEIHIN
100
AcDbLine
 10
117.5795879464394
 20
105.6624086028274
 30
0.0
 11
125.3317537164394
 21
121.5567038628274
 31
0.0
  0
LINE
  5
31D6
330
1A
100
AcDbEntity
  8
SEIHIN
100
AcDbLine
 10
120.6786883064394
 20
112.0165059728274
 30
0.0
 11
103.4072373664394
 21
112.0165059728274
 31
0.0
  0
ARC
  5
31F1
330
1A
100
AcDbEntity
  8
SEIHIN
100
AcDbCircle
 10
110.5177178064394
 20
102.9280324328274
 30
0.0
 40
9.899999981014923
100
AcDbArc
 50
135.9085673256489
 51
170.5325542646189
  0
LINE
  5
31FF
330
1A
100
AcDbEntity
  8
SEIHIN
100
AcDbLine
 10
103.4072373664394
 20
111.0165059728274
 30
0.0
 11
103.4072373664394
 21
112.0165059728274
 31
0.0
  0
LINE
  5
3200
330
1A
100
AcDbEntity
  8
SEIHIN
100
AcDbLine
 10
103.4072373664394
 20
109.8165059728274
 30
0.0
 11
103.4072373664394
 21
111.0165059728274
 31
0.0
  0
LINE
  5
321C
330
1A
100
AcDbEntity
  8
SEIHIN
100
AcDbLine
 10
116.8001702464394
 20
106.7502245428274
 30
0.0
 11
119.6878333264394
 21
109.8165059728274
 31
0.0
  0
LINE
  5
321D
330
1A
100
AcDbEntity
  8
SEIHIN
100
AcDbLine
 10
116.9078292564394
 20
106.8645428728274
 30
0.0
 11
119.3917338664394
 21
109.5020910728274
 31
0.0
  0
ARC
  5
321E
330
1A
100
AcDbEntity
  8
SEIHIN
100
AcDbCircle
 10
135.2184884764394
 20
116.7346217628274
 30
0.0
 40
10.99999999601528
100
AcDbArc
 50
97.00000001826174
 51
154.0000029819581
  0
LINE
  5
321F
330
1A
100
AcDbEntity
  8
SEIHIN
100
AcDbLine
 10
130.6250083264394
 20
126.7296175128274
 30
0.0
 11
131.7758656864394
 21
130.4939023128274
 31
0.0
  0
ARC
  5
3220
330
1A
100
AcDbEntity
  8
SEIHIN
100
AcDbCircle
 10
136.5400443464394
 20
114.8818687628274
 30
0.0
 40
7.000000002833392
100
AcDbArc
 50
97.00000005156242
 51
154.0000000029728
  0
LINE
  5
3221
330
1A
100
AcDbEntity
  8
SEIHIN
100
AcDbLine
 10
132.0440124364394
 20
127.2666064628274
 30
0.0
 11
132.9234313964394
 21
130.1430562728274
 31
0.0
  0
LINE
  5
3222
330
1A
100
AcDbEntity
  8
SEIHIN
100
AcDbLine
 10
132.9234313964394
 20
130.1430562728274
 30
0.0
 11
131.7758656864394
 21
130.4939023128274
 31
0.0
  0
LINE
  5
324F
330
1A
100
AcDbEntity
  8
SEIHIN
100
AcDbLine
 10
195.4640221564394
 20
140.0792443828274
 30
0.0
 11
199.9912126214394
 21
131.0248634528274
 31
0.0
  0
ARC
  5
3250
330
1A
100
AcDbEntity
  8
SEIHIN
100
AcDbCircle
 10
189.2580863264394
 20
132.3665042428274
 30
0.0
 40
9.999999997041395
100
AcDbArc
 50
53.83109557989956
 51
170.7918456181773
  0
ARC
  5
3251
330
1A
100
AcDbEntity
  8
SEIHIN
100
AcDbCircle
 10
189.2580863264394
 20
132.3665042428274
 30
0.0
 40
3.999999999152388
100
AcDbArc
 50
26.56506219516125
 51
170.7918455333397
  0
ARC
  5
3256
330
1A
100
AcDbEntity
  8
SEIHIN
100
AcDbCircle
 10
178.3998378264394
 20
134.1267426828274
 30
0.0
 40
6.999999996543326
100
AcDbArc
 50
276.9999999703212
 51
350.7918456343345
  0
ARC
  5
3257
330
1A
100
AcDbEntity
  8
SEIHIN
100
AcDbCircle
 10
178.3998378264394
 20
134.1267426828274
 30
0.0
 40
0.9999999987021755
100
AcDbArc
 50
277.0000136757814
 51
350.791845391947
  0
LINE
  5
3258
330
1A
100
AcDbEntity
  8
SEIHIN
100
AcDbLine
 10
194.4457640364394
 20
128.2521391628274
 30
0.0
 11
200.4384262164394
 21
131.2484702528274
 31
0.0
  0
LINE
  5
3259
330
1A
100
AcDbEntity
  8
SEIHIN
100
AcDbLine
 10
192.8357947464394
 20
134.1553593128274
 30
0.0
 11
195.5190766664394
 21
128.7887954828274
 31
0.0
  0
ARC
  5
325A
330
1A
100
AcDbEntity
  8
SEIHIN
100
AcDbCircle
 10
194.5695949664394
 20
139.6320307928274
 30
0.0
 40
0.9999999964188809
100
AcDbArc
 50
26.56505092084424
 51
53.83109520443855
  0
LINE
  5
32D2
330
1A
100
AcDbEntity
  8
SEIHIN
100
AcDbLine
 10
216.5381156544394
 20
99.04909138282745
 30
0.0
 11
210.5454534751394
 21
96.05276029282743
 31
0.0
  0
TEXT
  5
39C2
330
1A
100
AcDbEntity
  8
SUNPOU
100
AcDbText
 10
210.49147274639
 20
171.395212039508
 30
0.0
 40
3.0
  1
（スライド幅）
100
AcDbText
  0
DIMENSION
  5
39C3
330
1A
100
AcDbEntity
  8
SUNPOU
100
AcDbDimension
  2
*D2
 10
232.589606305506
 20
107.0748367080108
 30
0.0
 11
223.1981208000069
 21
131.4479776627584
 31
0.0
 70
    33
  3
STANDARD
100
AcDbAlignedDimension
 13
193.2830086891415
 23
145.559305314823
 33
0.0
 14
216.5381156551394
 24
99.04909138282745
 34
0.0
1001
ACAD
1000
DSTYLE
1002
{
1070
    41
1040
3.0
1070
    42
1040
3.0
1070
    43
1040
7.0
1070
    44
1040
1.5
1070
    73
1070
     0
1070
    74
1070
     0
1070
    77
1070
     3
1070
   140
1040
3.0
1070
   141
1040
3.0
1070
   147
1040
1.0
1070
   172
1070
     1
1070
   173
1070
     1
1070
   176
1070
   256
1070
   177
1070
   256
1070
   178
1070
   256
1070
   271
1070
     0
1070
   272
1070
     0
1070
   341
1005
B2
1070
     6
1000
OPEN
1070
     7
1000
OPEN
1002
}
  0
DIMENSION
  5
39C4
330
1A
100
AcDbEntity
  8
SUNPOU
100
AcDbDimension
  2
*D3
 10
233.4677448408779
 20
185.7999827200329
 30
0.0
 11
230.9677448408778
 21
212.299982720033
 31
0.0
 70
    32
  3
STANDARD
100
AcDbAlignedDimension
 13
215.6436884633559
 23
238.7999827200329
 33
0.0
 14
215.6436884633559
 24
185.7999827200329
 34
0.0
 50
90.0
100
AcDbRotatedDimension
1001
ACAD
1000
DSTYLE
1002
{
1070
    41
1040
3.0
1070
    42
1040
3.0
1070
    43
1040
7.0
1070
    44
1040
1.5
1070
    73
1070
     0
1070
    74
1070
     0
1070
    77
1070
     3
1070
   140
1040
3.0
1070
   141
1040
3.0
1070
   147
1040
1.0
1070
   172
1070
     1
1070
   173
1070
     1
1070
   176
1070
   256
1070
   177
1070
   256
1070
   178
1070
   256
1070
   271
1070
     0
1070
   272
1070
     0
1070
   341
1005
B2
1070
     6
1000
OPEN
1070
     7
1000
OPEN
1002
}
  0
LINE
  5
39C5
330
1A
100
AcDbEntity
  8
CENTER_L
100
AcDbLine
 10
206.7297758203059
 20
100.3300136323033
 30
0.0
 11
220.325069125963
 21
107.1276602827567
 31
0.0
  0
DIMENSION
  5
39C6
330
1A
100
AcDbEntity
  8
SUNPOU
100
AcDbDimension
  2
*D4
 10
230.9112357529362
 20
164.9184717591413
 30
0.0
 11
213.4112357529363
 21
167.4184717591413
 31
0.0
 70
    32
  3
STANDARD
100
AcDbAlignedDimension
 13
195.9112357529362
 23
140.3028511807258
 33
0.0
 14
230.9112357529362
 24
140.3028511807258
 34
0.0
100
AcDbRotatedDimension
1001
ACAD
1000
DSTYLE
1002
{
1070
    41
1040
3.0
1070
    42
1040
3.0
1070
    43
1040
7.0
1070
    44
1040
1.5
1070
    73
1070
     0
1070
    74
1070
     0
1070
    77
1070
     3
1070
   140
1040
3.0
1070
   141
1040
3.0
1070
   147
1040
1.0
1070
   172
1070
     1
1070
   173
1070
     1
1070
   176
1070
   256
1070
   177
1070
   256
1070
   178
1070
   256
1070
   271
1070
     0
1070
   272
1070
     0
1070
   341
1005
B2
1070
     6
1000
OPEN
1070
     7
1000
OPEN
1002
}
  0
DIMENSION
  5
39C7
330
1A
100
AcDbEntity
  8
SUNPOU
100
AcDbDimension
  2
*D5
 10
225.5896350480563
 20
103.5748510801292
 30
0.0
 11
219.7758583064727
 21
120.7925745040457
 31
0.0
 70
    33
  3
STANDARD
100
AcDbAlignedDimension
 13
200.4384262171394
 23
131.2484702528274
 33
0.0
 14
216.5381156551394
 24
99.04909138282745
 34
0.0
1001
ACAD
1000
DSTYLE
1002
{
1070
    41
1040
3.0
1070
    42
1040
3.0
1070
    43
1040
7.0
1070
    44
1040
1.5
1070
    73
1070
     0
1070
    74
1070
     0
1070
    77
1070
     3
1070
   140
1040
3.0
1070
   141
1040
3.0
1070
   147
1040
1.0
1070
   172
1070
     1
1070
   173
1070
     1
1070
   176
1070
   256
1070
   177
1070
   256
1070
   178
1070
   256
1070
   271
1070
     0
1070
   272
1070
     0
1070
   341
1005
B2
1070
     6
1000
OPEN
1070
     7
1000
OPEN
1002
}
  0
ARC
  5
39C8
330
1A
100
AcDbEntity
  8
SEIHIN
  6
DASHED
 62
     2
100
AcDbCircle
 10
224.2580863351394
 20
132.3665042428274
 30
0.0
 40
4.000000003240687
100
AcDbArc
 50
26.56506216953788
 51
170.7918456269571
  0
ARC
  5
39C9
330
1A
100
AcDbEntity
  8
SEIHIN
  6
DASHED
 62
     2
100
AcDbCircle
 10
224.2580863351394
 20
132.3665042428274
 30
0.0
 40
9.99999999926616
100
AcDbArc
 50
52.40698403634301
 51
170.7918456103774
  0
LINE
  5
3A92
330
1A
100
AcDbEntity
  8
SEIHIN
100
AcDbLine
 10
209.2038126506821
 20
104.3262118816871
 30
0.0
 11
213.2287350109477
 21
102.9845710934886
 31
0.0
  0
LINE
  5
3A93
330
1A
100
AcDbEntity
  8
SEIHIN
100
AcDbLine
 10
210.5454534380812
 20
108.3511342395548
 30
0.0
 11
209.2038126506821
 21
104.3262118816871
 31
0.0
  0
LINE
  5
3A94
330
1A
100
AcDbEntity
  8
SEIHIN
100
AcDbLine
 10
209.2038126506821
 20
104.3262118816872
 30
0.0
 11
211.8870942245144
 21
105.6678526665217
 31
0.0
  0
LINE
  5
3A9E
330
1A
100
AcDbEntity
  8
SEIHIN
100
AcDbLine
 10
200.2595407441265
 20
122.2147556959093
 30
0.0
 11
204.2844631043921
 21
120.8731149077108
 31
0.0
  0
LINE
  5
3A9F
330
1A
100
AcDbEntity
  8
CENTER_L
100
AcDbLine
 10
195.5494359288615
 20
122.690693416581
 30
0.0
 11
209.1447292322963
 21
129.4883400659234
 31
0.0
  0
LINE
  5
3AA0
330
1A
100
AcDbEntity
  8
CENTER_L
100
AcDbLine
 10
199.3507514913789
 20
115.0880622910741
 30
0.0
 11
212.9460447955692
 21
121.8857089407942
 31
0.0
  0
LINE
  5
3AA1
330
1A
100
AcDbEntity
  8
SEIHIN
100
AcDbLine
 10
201.6011815315257
 20
126.239678053777
 30
0.0
 11
200.2595407441265
 21
122.2147556959093
 31
0.0
  0
LINE
  5
3AA2
330
1A
100
AcDbEntity
  8
SEIHIN
100
AcDbLine
 10
200.2595407441265
 20
122.2147556959093
 30
0.0
 11
202.9428223179589
 21
123.5563964807439
 31
0.0
  0
ELLIPSE
  5
3AA5
330
1A
100
AcDbEntity
  8
SEIHIN
100
AcDbEllipse
 10
215.6436884633559
 20
236.7999827200329
 30
0.0
 11
0.0
 21
2.0
 31
0.0
210
0.0
220
0.0
230
1.0
 40
0.4472135955417543
 41
4.712388980384689
 42
6.283185307179586
  0
ELLIPSE
  5
3AA6
330
1A
100
AcDbEntity
  8
SEIHIN
100
AcDbEllipse
 10
215.6436884633559
 20
187.7999827200329
 30
0.0
 11
0.0
 21
-2.0
 31
0.0
210
0.0
220
0.0
230
-1.0
 40
0.4472135955417543
 41
4.712388980384689
 42
6.283185307179586
  0
ELLIPSE
  5
3AA7
330
1A
100
AcDbEntity
  8
SEIHIN
100
AcDbEllipse
 10
202.8837388941594
 20
233.2999827200329
 30
0.0
 11
0.0
 21
-2.1000000000672
 31
0.0
210
0.0
220
0.0
230
-1.0
 40
0.4867014234079679
 41
0.0000000000000009
 42
3.141592653589807
  0
ELLIPSE
  5
3AA8
330
1A
100
AcDbEntity
  8
SEIHIN
100
AcDbEllipse
 10
202.8837388941594
 20
233.2999827200329
 30
0.0
 11
0.0
 21
-2.1000000000672
 31
0.0
210
0.0
220
0.0
230
-1.0
 40
0.4867014234079679
 41
3.141592653589791
 42
6.2831853071796
  0
ELLIPSE
  5
3AA9
330
1A
100
AcDbEntity
  8
SEIHIN
100
AcDbEllipse
 10
202.8837388941594
 20
233.2999827200329
 30
0.0
 11
0.0
 21
-2.1000000000672
 31
0.0
210
0.0
220
0.0
230
-1.0
 40
0.4867014234079679
 41
-1.570796326794896
 42
4.712388980384689
  0
ELLIPSE
  5
3AAA
330
1A
100
AcDbEntity
  8
SEIHIN
100
AcDbEllipse
 10
206.6850544574323
 20
231.7999827200329
 30
0.0
 11
0.0
 21
-2.874999999613672
 31
0.0
210
0.0
220
0.0
230
-1.0
 40
0.3913043478762229
 41
-1.570796326794896
 42
4.712388980384689
  0
ELLIPSE
  5
3AAB
330
1A
100
AcDbEntity
  8
SEIHIN
100
AcDbEllipse
 10
210.2395554151394
 20
212.2999827200329
 30
0.0
 11
0.0
 21
-2.8559114857152
 31
0.0
210
0.0
220
0.0
230
-1.0
 40
0.4680467910551545
 41
-1.570796326794896
 42
4.712388980384689
  0
ELLIPSE
  5
3AAC
330
1A
100
AcDbEntity
  8
SEIHIN
100
AcDbEllipse
 10
201.3328534075726
 20
236.7999827200329
 30
0.0
 11
0.0
 21
2.0
 31
0.0
210
0.0
220
0.0
230
1.0
 40
0.4472135955666233
 41
6.28318530587672
 42
7.853981633974482
  0
ELLIPSE
  5
3AAD
330
1A
100
AcDbEntity
  8
SEIHIN
100
AcDbEllipse
 10
200.2595407775726
 20
236.799982720033
 30
0.0
 11
0.0
 21
2.0
 31
0.0
210
0.0
220
0.0
230
1.0
 40
0.4472135955666233
 41
6.28318530587672
 42
7.853981633974482
  0
ELLIPSE
  5
3AAE
330
1A
100
AcDbEntity
  8
SEIHIN
100
AcDbEllipse
 10
206.6850544574323
 20
192.7999827200329
 30
0.0
 11
0.0
 21
2.874999999613672
 31
0.0
210
0.0
220
0.0
230
1.0
 40
0.3913043478762229
 41
-1.570796326794896
 42
4.712388980384689
  0
ELLIPSE
  5
3AAF
330
1A
100
AcDbEntity
  8
SEIHIN
100
AcDbEllipse
 10
202.8837388941594
 20
191.2999827200329
 30
0.0
 11
0.0
 21
2.1000000000672
 31
0.0
210
0.0
220
0.0
230
1.0
 40
0.4867014234079679
 41
0.0000000000000009
 42
3.141592653589807
  0
ELLIPSE
  5
3AB0
330
1A
100
AcDbEntity
  8
SEIHIN
100
AcDbEllipse
 10
202.8837388941594
 20
191.2999827200329
 30
0.0
 11
0.0
 21
2.1000000000672
 31
0.0
210
0.0
220
0.0
230
1.0
 40
0.4867014234079679
 41
3.141592653589791
 42
6.2831853071796
  0
ELLIPSE
  5
3AB1
330
1A
100
AcDbEntity
  8
SEIHIN
100
AcDbEllipse
 10
202.8837388941594
 20
191.2999827200329
 30
0.0
 11
0.0
 21
2.1000000000672
 31
0.0
210
0.0
220
0.0
230
1.0
 40
0.4867014234079679
 41
-1.570796326794896
 42
4.712388980384689
  0
ELLIPSE
  5
3AB2
330
1A
100
AcDbEntity
  8
SEIHIN
100
AcDbEllipse
 10
200.2595407775726
 20
187.7999827200329
 30
0.0
 11
0.0
 21
-2.0
 31
0.0
210
0.0
220
0.0
230
-1.0
 40
0.4472135955666233
 41
6.28318530587672
 42
7.853981633974482
  0
ELLIPSE
  5
3AB3
330
1A
100
AcDbEntity
  8
SEIHIN
100
AcDbEllipse
 10
201.3328534075726
 20
187.7999827200329
 30
0.0
 11
0.0
 21
-2.0
 31
0.0
210
0.0
220
0.0
230
-1.0
 40
0.4472135955666233
 41
6.28318530587672
 42
7.853981633974482
  0
SPLINE
  5
3AB4
330
1A
100
AcDbEntity
  8
SEIHIN
100
AcDbSpline
210
0.0
220
0.0
230
1.0
 70
     8
 71
     3
 72
    43
 73
    39
 74
     0
 42
0.0000000001
 43
0.0000000001
 40
2.573801282421739
 40
2.573801282421739
 40
2.573801282421739
 40
2.573801282421739
 40
2.743484381278567
 40
2.743484381278567
 40
2.952958003969503
 40
2.952958003969503
 40
3.162431626660439
 40
3.162431626660439
 40
3.371905249351375
 40
3.371905249351375
 40
3.581378872042312
 40
3.581378872042312
 40
3.790852494733248
 40
3.790852494733248
 40
4.212890898554042
 40
4.212890898554042
 40
4.634929302374836
 40
4.634929302374836
 40
4.712388980384689
 40
4.712388980384689
 40
4.712388980384689
 40
5.035006403854932
 40
5.035006403854932
 40
5.40458618261824
 40
5.40458618261824
 40
5.774165961381548
 40
5.774165961381548
 40
6.00394318856648
 40
6.00394318856648
 40
6.233720415751411
 40
6.233720415751411
 40
6.426033209648384
 40
6.426033209648384
 40
6.618346003545356
 40
6.618346003545356
 40
6.810658797442329
 40
6.810658797442329
 40
6.85074050005261
 40
6.85074050005261
 40
6.85074050005261
 40
6.85074050005261
 10
208.714095127189
 20
215.2999827300329
 30
0.0
 10
208.8130459614558
 20
215.4348863380095
 30
0.0
 10
208.924757341802
 20
215.561164758893
 30
0.0
 10
209.2112701396052
 20
215.8186118570228
 30
0.0
 10
209.396805340542
 20
215.9437155505136
 30
0.0
 10
209.8256593498715
 20
216.1186341715512
 30
0.0
 10
210.0697754681225
 20
216.165065635404
 30
0.0
 10
210.5540135122105
 20
216.143502653399
 30
0.0
 10
210.7892452241554
 20
216.0764404633908
 30
0.0
 10
211.1959559279528
 20
215.872694322256
 30
0.0
 10
211.369251800261
 20
215.7385242517478
 30
0.0
 10
211.6659829665076
 20
215.4402255128025
 30
0.0
 10
211.7905617998696
 20
215.2753740819697
 30
0.0
 10
212.1171881495235
 20
214.7456801738973
 30
0.0
 10
212.2719221203665
 20
214.3457727606118
 30
0.0
 10
212.4917637295946
 20
213.4849659329484
 30
0.0
 10
212.5546352748608
 20
213.0239567662834
 30
0.0
 10
212.5746998499568
 20
212.4716311313226
 30
0.0
 10
212.576255621566
 20
212.3858069659785
 30
0.0
 10
212.576255621566
 20
212.2999827200329
 30
0.0
 10
212.576255621566
 20
211.9425271017082
 30
0.0
 10
212.5492918725127
 20
211.5851721602834
 30
0.0
 10
212.4333908898039
 20
210.8444324504831
 30
0.0
 10
212.3365715716331
 20
210.4651905987065
 30
0.0
 10
212.06519574697
 20
209.7658187926525
 30
0.0
 10
211.8925492799821
 20
209.4442007711415
 30
0.0
 10
211.5108098490296
 20
208.9890367405704
 30
0.0
 10
211.3385899348117
 20
208.8295448211577
 30
0.0
 10
210.9221534446097
 20
208.5744282721198
 30
0.0
 10
210.6744161327226
 20
208.4809908862339
 30
0.0
 10
210.1902232874717
 20
208.4297778451754
 30
0.0
 10
209.9624355412128
 20
208.4536906310634
 30
0.0
 10
209.5486087093748
 20
208.5808567420877
 30
0.0
 10
209.3631047279265
 20
208.6815124739589
 30
0.0
 10
209.0426750044105
 20
208.919963180288
 30
0.0
 10
208.9062952240551
 20
209.057645878888
 30
0.0
 10
208.762353182474
 20
209.2367952607379
 30
0.0
 10
208.7382399311158
 20
209.2681623330189
 30
0.0
 10
208.7148088125986
 20
209.2999827300329
 30
0.0
  0
ELLIPSE
  5
3AB5
330
1A
100
AcDbEntity
  8
SEIHIN
100
AcDbEllipse
 10
214.064078787826
 20
233.2999827200329
 30
0.0
 11
0.0
 21
-2.1000000000672
 31
0.0
210
0.0
220
0.0
230
-1.0
 40
0.4867014234079679
 41
-1.570796326794896
 42
4.712388980384689
  0
ELLIPSE
  5
3AB6
330
1A
100
AcDbEntity
  8
SEIHIN
100
AcDbEllipse
 10
214.064078787826
 20
191.2999827200329
 30
0.0
 11
0.0
 21
2.1000000000672
 31
0.0
210
0.0
220
0.0
230
1.0
 40
0.4867014234079679
 41
-1.570796326794896
 42
4.712388980384689
  0
LINE
  5
3AC1
330
1A
100
AcDbEntity
  8
SEIHIN
100
AcDbLine
 10
216.5381156544394
 20
222.123034640033
 30
0.0
 11
216.5381156544394
 21
236.7999827200329
 31
0.0
  0
ARC
  5
3AC2
330
1A
100
AcDbEntity
  8
SEIHIN
100
AcDbCircle
 10
209.322705717426
 20
233.2999827200329
 30
0.0
 40
5.185616510378905
100
AcDbArc
 50
336.1109838283917
 51
23.88901617160823
  0
ARC
  5
3AC3
330
1A
100
AcDbEntity
  8
SEIHIN
100
AcDbCircle
 10
198.1423658231594
 20
233.2999827200329
 30
0.0
 40
5.185616510927503
100
AcDbArc
 50
336.1109838310729
 51
23.88901616892705
  0
LINE
  5
3AC4
330
1A
100
AcDbEntity
  8
SEIHIN
100
AcDbLine
 10
199.3651135864393
 20
236.799982720033
 30
0.0
 11
199.3651135864394
 21
221.5013225400329
 31
0.0
  0
LINE
  5
3AC5
330
1A
100
AcDbEntity
  8
SEIHIN
100
AcDbLine
 10
200.4384262164394
 20
222.1230343100329
 30
0.0
 11
200.4384262164394
 21
236.7999827200329
 31
0.0
  0
LINE
  5
3B07
330
1A
100
AcDbEntity
  8
SEIHIN
100
AcDbLine
 10
216.5381156544394
 20
202.4769308000329
 30
0.0
 11
216.5381156544394
 21
187.7999827200329
 31
0.0
  0
LINE
  5
3B08
330
1A
100
AcDbEntity
  8
SEIHIN
100
AcDbLine
 10
200.4384262164394
 20
202.4769311300329
 30
0.0
 11
200.4384262164394
 21
187.7999827200329
 31
0.0
  0
LINE
  5
3B09
330
1A
100
AcDbEntity
  8
SEIHIN
100
AcDbLine
 10
199.3651135864393
 20
187.7999827200329
 30
0.0
 11
199.3651135864394
 21
203.0986429000329
 31
0.0
  0
LINE
  5
3B0A
330
1A
100
AcDbEntity
  8
SEIHIN
100
AcDbLine
 10
215.6436884633559
 20
185.7999827200329
 30
0.0
 11
200.2595407775726
 21
185.7999827200329
 31
0.0
  0
ARC
  5
3B0B
330
1A
100
AcDbEntity
  8
SEIHIN
100
AcDbCircle
 10
184.5367511123862
 20
212.2999827000329
 30
0.0
 40
3.25
100
AcDbArc
 50
112.6198649480423
 51
247.3801350519576
  0
LINE
  5
3B0C
330
1A
100
AcDbEntity
  8
SEIHIN
100
AcDbLine
 10
179.0660968600458
 20
205.7999827000329
 30
0.0
 11
179.0660968600458
 21
204.7999827000329
 31
0.0
  0
LINE
  5
3B0D
330
1A
100
AcDbEntity
  8
SEIHIN
100
AcDbLine
 10
183.2867511123863
 20
209.2999827000329
 30
0.0
 11
183.2867511123863
 21
205.7999827000329
 31
0.0
  0
LINE
  5
3B0E
330
1A
100
AcDbEntity
  8
SEIHIN
100
AcDbLine
 10
179.0660968600458
 20
219.7999827400329
 30
0.0
 11
179.0660968600458
 21
218.7999827400329
 31
0.0
  0
LINE
  5
3B0F
330
1A
100
AcDbEntity
  8
SEIHIN
100
AcDbLine
 10
183.2867511123863
 20
218.799982740033
 30
0.0
 11
183.2867511123863
 21
215.2999827000329
 31
0.0
  0
ARC
  5
3B10
330
1A
100
AcDbEntity
  8
SEIHIN
100
AcDbCircle
 10
192.7152428389709
 20
212.2999827000329
 30
0.0
 40
3.25
100
AcDbArc
 50
292.6198649480456
 51
67.38013505196104
  0
LINE
  5
3B11
330
1A
100
AcDbEntity
  8
SEIHIN
100
AcDbLine
 10
214.5104486044394
 20
218.7999827200329
 30
0.0
 11
214.5104486044394
 21
205.7999827200329
 31
0.0
  0
LINE
  5
3B12
330
1A
100
AcDbEntity
  8
CENTER_L
100
AcDbLine
 10
199.5459071110828
 20
191.2999827300329
 30
0.0
 11
207.5905085518056
 21
191.2999827300329
 31
0.0
  0
LINE
  5
3B13
330
1A
100
AcDbEntity
  8
CENTER_L
100
AcDbLine
 10
202.4138687558904
 20
192.824982710033
 30
0.0
 11
210.6643332426462
 21
192.824982710033
 31
0.0
  0
LINE
  5
3B14
330
1A
100
AcDbEntity
  8
SEIHIN
100
AcDbLine
 10
201.9837902834394
 20
203.5809928200329
 30
0.0
 11
204.4977025144394
 21
203.5809928200329
 31
0.0
  0
ARC
  5
3B15
330
1A
100
AcDbEntity
  8
SEIHIN
100
AcDbCircle
 10
198.1423658231594
 20
191.2999827200329
 30
0.0
 40
5.185616510927503
100
AcDbArc
 50
336.1109838310729
 51
23.88901616892705
  0
LINE
  5
3B16
330
1A
100
AcDbEntity
  8
SEIHIN
100
AcDbLine
 10
193.9652428389708
 20
209.2999827300329
 30
0.0
 11
193.9652428389708
 21
205.7999827100329
 31
0.0
  0
LINE
  5
3B17
330
1A
100
AcDbEntity
  8
SEIHIN
100
AcDbLine
 10
196.4007486878925
 20
205.7999827000329
 30
0.0
 11
196.4007486878925
 21
204.7999827000329
 31
0.0
  0
ARC
  5
3B18
330
1A
100
AcDbEntity
  8
SEIHIN
100
AcDbCircle
 10
198.7384262136047
 20
202.4769311300329
 30
0.0
 40
1.700000002834682
100
AcDbArc
 50
0.0
 51
80.99999985768855
  0
LINE
  5
3B19
330
1A
100
AcDbEntity
  8
SEIHIN
100
AcDbLine
 10
199.0043648086047
 20
204.1560013100329
 30
0.0
 11
198.3603834036047
 21
204.7999827200329
 31
0.0
  0
ARC
  5
3B1A
330
1A
100
AcDbEntity
  8
SEIHIN
100
AcDbCircle
 10
198.8651135848707
 20
203.0986429000329
 30
0.0
 40
0.5000000015686251
100
AcDbArc
 50
0.0
 51
86.20816424113447
  0
ARC
  5
3B1B
330
1A
100
AcDbEntity
  8
SEIHIN
100
AcDbCircle
 10
199.0106033448707
 20
205.2938268900329
 30
0.0
 40
1.699999999832981
100
AcDbArc
 50
196.8876873722945
 51
266.2081650705318
  0
LINE
  5
3B1C
330
1A
100
AcDbEntity
  8
CENTER_L
100
AcDbLine
 10
209.5154280825976
 20
191.2999827300329
 30
0.0
 11
217.5600295233204
 21
191.2999827300329
 31
0.0
  0
ARC
  5
3B1D
330
1A
100
AcDbEntity
  8
SEIHIN
100
AcDbCircle
 10
199.4055773884323
 20
192.7999827200329
 30
0.0
 40
7.826647519730068
100
AcDbArc
 50
338.4486589039121
 51
21.55134109608789
  0
ARC
  5
3B1E
330
1A
100
AcDbEntity
  8
SEIHIN
100
AcDbCircle
 10
209.322705717426
 20
191.2999827200329
 30
0.0
 40
5.185616510378905
100
AcDbArc
 50
336.1109838283917
 51
23.88901617160823
  0
LINE
  5
3B1F
330
1A
100
AcDbEntity
  8
SEIHIN
100
AcDbLine
 10
211.8878944824394
 20
201.7999827200329
 30
0.0
 11
213.2772961914394
 21
201.7999827200329
 31
0.0
  0
LINE
  5
3B20
330
1A
100
AcDbEntity
  8
SEIHIN
100
AcDbLine
 10
213.2772961914394
 20
201.7999827200329
 30
0.0
 11
211.8878944824394
 21
203.8711775300329
 31
0.0
  0
LINE
  5
3B21
330
1A
100
AcDbEntity
  8
SEIHIN
100
AcDbLine
 10
207.2962085834394
 20
203.5809928200329
 30
0.0
 11
211.1382253904394
 21
203.5809928200329
 31
0.0
  0
LINE
  5
3B22
330
1A
100
AcDbEntity
  8
SEIHIN
100
AcDbLine
 10
205.2131149414394
 20
201.7999827200329
 30
0.0
 11
206.6025166504394
 21
201.7999827200329
 31
0.0
  0
LINE
  5
3B23
330
1A
100
AcDbEntity
  8
SEIHIN
100
AcDbLine
 10
206.6025166504394
 20
201.7999827200329
 30
0.0
 11
205.2131149414394
 21
203.8711775300329
 31
0.0
  0
LINE
  5
3B24
330
1A
100
AcDbEntity
  8
SEIHIN
100
AcDbLine
 10
205.2131149414394
 20
201.7999827200329
 30
0.0
 11
205.2131149414394
 21
204.7999827200329
 31
0.0
  0
LINE
  5
3B25
330
1A
100
AcDbEntity
  8
SEIHIN
100
AcDbLine
 10
206.6025166504394
 20
204.7999827200329
 30
0.0
 11
206.6025166504394
 21
201.7999827200329
 31
0.0
  0
LINE
  5
3B26
330
1A
100
AcDbEntity
  8
SEIHIN
100
AcDbLine
 10
211.8878944824394
 20
201.7999827200329
 30
0.0
 11
211.8878944824394
 21
204.7999827200329
 31
0.0
  0
LINE
  5
3B27
330
1A
100
AcDbEntity
  8
SEIHIN
100
AcDbLine
 10
214.5104486044394
 20
204.7999827200329
 30
0.0
 11
214.5104486044394
 21
205.7999827200329
 31
0.0
  0
ARC
  5
3B28
330
1A
100
AcDbEntity
  8
SEIHIN
100
AcDbCircle
 10
214.8381156544393
 20
202.4769311400329
 30
0.0
 40
1.700000000521832
100
AcDbArc
 50
359.9999868556723
 51
80.99999999084433
  0
LINE
  5
3B29
330
1A
100
AcDbEntity
  8
SEIHIN
100
AcDbLine
 10
213.2772961914394
 20
204.7999827200329
 30
0.0
 11
213.2772961914394
 21
201.7999827200329
 31
0.0
  0
LINE
  5
3B2A
330
1A
100
AcDbEntity
  8
SEIHIN
100
AcDbLine
 10
214.0315960724394
 20
203.5809928200329
 30
0.0
 11
215.4545652594394
 21
203.5809928200329
 31
0.0
  0
LINE
  5
3B2B
330
1A
100
AcDbEntity
  8
SEIHIN
100
AcDbLine
 10
215.1040542454394
 20
204.1560013200329
 30
0.0
 11
214.4600728374394
 21
204.7999827200329
 31
0.0
  0
LINE
  5
3B2C
330
1A
100
AcDbEntity
  8
CENTER_L
100
AcDbLine
 10
199.5459071110828
 20
233.2999827100329
 30
0.0
 11
207.5905085518056
 21
233.2999827100329
 31
0.0
  0
LINE
  5
3B2D
330
1A
100
AcDbEntity
  8
CENTER_L
100
AcDbLine
 10
202.4138687558904
 20
231.7749827300329
 30
0.0
 11
210.6643332426462
 21
231.7749827300329
 31
0.0
  0
LINE
  5
3B2E
330
1A
100
AcDbEntity
  8
SEIHIN
100
AcDbLine
 10
201.9837902834394
 20
221.0189726300329
 30
0.0
 11
204.4977025144394
 21
221.0189726300329
 31
0.0
  0
LINE
  5
3B2F
330
1A
100
AcDbEntity
  8
SEIHIN
100
AcDbLine
 10
193.9652428389708
 20
215.2999827300329
 30
0.0
 11
193.9652428389708
 21
218.799982730033
 31
0.0
  0
ARC
  5
3B30
330
1A
100
AcDbEntity
  8
SEIHIN
100
AcDbCircle
 10
198.7384262136047
 20
222.1230343100329
 30
0.0
 40
1.700000002834682
100
AcDbArc
 50
279.0000001423114
 51
0.0
  0
LINE
  5
3B31
330
1A
100
AcDbEntity
  8
SEIHIN
100
AcDbLine
 10
196.4007486878925
 20
219.7999827400329
 30
0.0
 11
196.4007486878925
 21
218.7999827400329
 31
0.0
  0
ARC
  5
3B32
330
1A
100
AcDbEntity
  8
SEIHIN
100
AcDbCircle
 10
198.8651135848707
 20
221.5013225400329
 30
0.0
 40
0.5000000015686251
100
AcDbArc
 50
273.7918357588654
 51
0.0
  0
LINE
  5
3B33
330
1A
100
AcDbEntity
  8
SEIHIN
100
AcDbLine
 10
199.0043648086047
 20
220.4439641300329
 30
0.0
 11
198.3603834036047
 21
219.7999827200329
 31
0.0
  0
ARC
  5
3B34
330
1A
100
AcDbEntity
  8
SEIHIN
100
AcDbCircle
 10
199.0106033448707
 20
219.306138550033
 30
0.0
 40
1.699999999832981
100
AcDbArc
 50
93.79183492946813
 51
163.1123126277054
  0
LINE
  5
3B35
330
1A
100
AcDbEntity
  8
SEIHIN
100
AcDbLine
 10
213.2772961914394
 20
222.7999827200329
 30
0.0
 11
211.8878944824394
 21
220.7287879100329
 31
0.0
  0
LINE
  5
3B36
330
1A
100
AcDbEntity
  8
SEIHIN
100
AcDbLine
 10
211.8878944824394
 20
222.7999827200329
 30
0.0
 11
213.2772961914394
 21
222.7999827200329
 31
0.0
  0
LINE
  5
3B37
330
1A
100
AcDbEntity
  8
SEIHIN
100
AcDbLine
 10
207.2962085834394
 20
221.0189726300329
 30
0.0
 11
211.1382253904394
 21
221.0189726300329
 31
0.0
  0
LINE
  5
3B38
330
1A
100
AcDbEntity
  8
SEIHIN
100
AcDbLine
 10
206.6025166504394
 20
219.7999827200329
 30
0.0
 11
206.6025166504394
 21
222.7999827200329
 31
0.0
  0
LINE
  5
3B39
330
1A
100
AcDbEntity
  8
SEIHIN
100
AcDbLine
 10
205.2131149414394
 20
222.7999827200329
 30
0.0
 11
205.2131149414394
 21
219.7999827200329
 31
0.0
  0
LINE
  5
3B3A
330
1A
100
AcDbEntity
  8
SEIHIN
100
AcDbLine
 10
205.2131149414394
 20
222.7999827200329
 30
0.0
 11
206.6025166504394
 21
222.7999827200329
 31
0.0
  0
LINE
  5
3B3B
330
1A
100
AcDbEntity
  8
SEIHIN
100
AcDbLine
 10
206.6025166504394
 20
222.7999827200329
 30
0.0
 11
205.2131149414394
 21
220.7287879100329
 31
0.0
  0
LINE
  5
3B3C
330
1A
100
AcDbEntity
  8
SEIHIN
100
AcDbLine
 10
211.8878944824394
 20
222.7999827200329
 30
0.0
 11
211.8878944824394
 21
219.7999827200329
 31
0.0
  0
ARC
  5
3B3D
330
1A
100
AcDbEntity
  8
SEIHIN
100
AcDbCircle
 10
214.8381156544393
 20
222.1230343100329
 30
0.0
 40
1.700000000521829
100
AcDbArc
 50
279.0000000091556
 51
0.000011122122682
  0
LINE
  5
3B3E
330
1A
100
AcDbEntity
  8
SEIHIN
100
AcDbLine
 10
214.5104486044394
 20
219.7999827200329
 30
0.0
 11
214.5104486044394
 21
218.7999827200329
 31
0.0
  0
LINE
  5
3B3F
330
1A
100
AcDbEntity
  8
SEIHIN
100
AcDbLine
 10
213.2772961914394
 20
219.7999827200329
 30
0.0
 11
213.2772961914394
 21
222.7999827200329
 31
0.0
  0
LINE
  5
3B40
330
1A
100
AcDbEntity
  8
SEIHIN
100
AcDbLine
 10
215.1040542454394
 20
220.4439641300329
 30
0.0
 11
214.4600728374394
 21
219.7999827200329
 31
0.0
  0
LINE
  5
3B41
330
1A
100
AcDbEntity
  8
SEIHIN
100
AcDbLine
 10
214.0315960724394
 20
221.0189726300329
 30
0.0
 11
215.4545652594394
 21
221.0189726300329
 31
0.0
  0
LINE
  5
3B42
330
1A
100
AcDbEntity
  8
CENTER_L
100
AcDbLine
 10
209.5154280825976
 20
233.2999827100329
 30
0.0
 11
217.5600295233204
 21
233.2999827100329
 31
0.0
  0
ARC
  5
3B43
330
1A
100
AcDbEntity
  8
SEIHIN
100
AcDbCircle
 10
199.4055773884323
 20
231.7999827200329
 30
0.0
 40
7.826647519730068
100
AcDbArc
 50
338.4486589039121
 51
21.55134109608789
  0
LINE
  5
3B44
330
1A
100
AcDbEntity
  8
SEIHIN
100
AcDbLine
 10
215.6436884633559
 20
238.7999827200329
 30
0.0
 11
200.2595407775726
 21
238.7999827200329
 31
0.0
  0
LINE
  5
3B45
330
1A
100
AcDbEntity
  8
SEIHIN
100
AcDbLine
 10
317.5699259671394
 20
160.1863194418274
 30
0.0
 11
318.9115667671394
 21
157.5030378688274
 31
0.0
  0
LINE
  5
3B46
330
1A
100
AcDbEntity
  8
SEIHIN
100
AcDbLine
 10
318.9115667671394
 20
157.5030378688274
 30
0.0
 11
322.9170247671394
 21
159.5057668418274
 31
0.0
  0
LINE
  5
3B47
330
1A
100
AcDbEntity
  8
SEIHIN
100
AcDbLine
 10
320.6809567671395
 20
161.7418348192274
 30
0.0
 11
322.0225975671394
 21
159.0585532458274
 31
0.0
  0
LINE
  5
3B48
330
1A
100
AcDbEntity
  8
SEIHIN
100
AcDbLine
 10
334.3597440671394
 20
161.2170760168274
 30
0.0
 11
326.3098992671395
 21
157.1921536568274
 31
0.0
  0
LINE
  5
3B49
330
1A
100
AcDbEntity
  8
SEIHIN
100
AcDbLine
 10
292.7301070371394
 20
175.1582426828274
 30
0.0
 11
307.0409420871394
 21
146.5365725728274
 31
0.0
  0
LINE
  5
3B4A
330
1A
100
AcDbEntity
  8
SEIHIN
100
AcDbLine
 10
322.7321905671394
 20
157.6393672528274
 30
0.0
 11
301.6743789471394
 21
199.7549904328274
 31
0.0
  0
LINE
  5
3B4B
330
1A
100
AcDbEntity
  8
SEIHIN
100
AcDbLine
 10
323.6266177671394
 20
158.0865808478274
 30
0.0
 11
302.5688061371394
 21
200.2022040328274
 31
0.0
  0
LINE
  5
3B4C
330
1A
100
AcDbEntity
  8
CENTER_L
100
AcDbLine
 10
306.1528743869988
 20
207.5685094140064
 30
0.0
 11
334.7681850207999
 21
150.3378881264084
 31
0.0
  0
LINE
  5
3B4D
330
1A
100
AcDbEntity
  8
SEIHIN
100
AcDbLine
 10
309.7242236571394
 20
145.6421453828274
 30
0.0
 11
353.5511559960294
 21
167.5556115182724
 31
0.0
  0
DIMENSION
  5
3B4E
330
1A
100
AcDbEntity
  8
SUNPOU
100
AcDbDimension
  2
*D6
 10
285.1148157673561
 20
133.3374414433101
 30
0.0
 11
279.301039030775
 21
150.5551648658467
 31
0.0
 70
    33
  3
STANDARD
100
AcDbAlignedDimension
 13
291.8356798478601
 23
176.9470970620112
 33
0.0
 14
307.9353692763343
 24
144.7477181938126
 34
0.0
1001
ACAD
1000
DSTYLE
1002
{
1070
    41
1040
3.0
1070
    42
1040
3.0
1070
    43
1040
7.0
1070
    44
1040
1.5
1070
    73
1070
     0
1070
    74
1070
     0
1070
    77
1070
     3
1070
   140
1040
3.0
1070
   141
1040
3.0
1070
   147
1040
1.0
1070
   172
1070
     1
1070
   173
1070
     1
1070
   176
1070
   256
1070
   177
1070
   256
1070
   178
1070
   256
1070
   271
1070
     0
1070
   272
1070
     0
1070
   341
1005
B2
1070
     6
1000
OPEN
1070
     7
1000
OPEN
1002
}
  0
LINE
  5
3B4F
330
1A
100
AcDbEntity
  8
SEIHIN
  6
DASHED
 62
     2
100
AcDbLine
 10
235.4384262151394
 20
131.2484702538273
 30
0.0
 11
251.5381156751394
 21
99.04909138282745
 31
0.0
  0
LINE
  5
3B50
330
1A
100
AcDbEntity
  8
SEIHIN
  6
DASHED
 62
     2
100
AcDbLine
 10
245.5454534751394
 20
96.05276029282743
 30
0.0
 11
229.4457640351394
 21
128.2521391648274
 31
0.0
  0
LINE
  5
3B51
330
1A
100
AcDbEntity
  8
SEIHIN
  6
DASHED
 62
     2
100
AcDbLine
 10
234.3651135851394
 20
130.7118139398274
 30
0.0
 11
250.4648030751394
 21
98.51243506282742
 31
0.0
  0
LINE
  5
3B52
330
1A
100
AcDbEntity
  8
CENTER_L
100
AcDbLine
 10
241.7297758403059
 20
100.3300136323033
 30
0.0
 11
255.325069145963
 21
107.1276602827567
 31
0.0
  0
LINE
  5
3B53
330
1A
100
AcDbEntity
  8
SEIHIN
  6
DASHED
 62
     2
100
AcDbLine
 10
251.5381156751394
 20
99.04909138282745
 30
0.0
 11
245.5454534751394
 21
96.05276029282743
 31
0.0
  0
LINE
  5
3B54
330
1A
100
AcDbEntity
  8
SEIHIN
  6
DASHED
 62
     2
100
AcDbLine
 10
230.3585721714396
 20
140.2901443499008
 30
0.0
 11
234.9912126251394
 21
131.0248634568274
 31
0.0
  0
LINE
  5
3B55
330
1A
100
AcDbEntity
  8
CENTER_L
100
AcDbLine
 10
230.5494359488614
 20
122.690693416581
 30
0.0
 11
244.1447292522963
 21
129.4883400659234
 31
0.0
  0
LINE
  5
3B56
330
1A
100
AcDbEntity
  8
CENTER_L
100
AcDbLine
 10
234.3507515113788
 20
115.0880622910741
 30
0.0
 11
247.9460448155692
 21
121.8857089407942
 31
0.0
  0
LINE
  5
3B57
330
1A
100
AcDbEntity
  8
SEIHIN
  6
DASHED
 62
     2
100
AcDbLine
 10
227.8357947551394
 20
134.1553593108274
 30
0.0
 11
230.5190766651394
 21
128.7887954788274
 31
0.0
  0
LINE
  5
3B58
330
1A
100
AcDbEntity
  8
SEIHIN
  6
DASHED
 62
     2
100
AcDbLine
 10
229.4457640351394
 20
128.2521391648274
 30
0.0
 11
235.4384262151394
 21
131.2484702538273
 31
0.0
  0
DIMENSION
  5
3B59
330
1A
100
AcDbEntity
  8
SUNPOU
100
AcDbDimension
  2
*D7
 10
293.5082970056181
 20
137.5341820609747
 30
0.0
 11
294.5145275987235
 21
141.1118908193727
 31
0.0
 70
    33
  3
STANDARD
100
AcDbAlignedDimension
 13
305.4756945072331
 23
149.6670677337337
 33
0.0
 14
307.9353692763343
 24
144.7477181938126
 34
0.0
1001
ACAD
1000
DSTYLE
1002
{
1070
    41
1040
3.0
1070
    42
1040
3.0
1070
    43
1040
7.0
1070
    44
1040
1.5
1070
    73
1070
     0
1070
    74
1070
     0
1070
    77
1070
     3
1070
   140
1040
3.0
1070
   141
1040
3.0
1070
   147
1040
1.0
1070
   172
1070
     1
1070
   173
1070
     1
1070
   176
1070
   256
1070
   177
1070
   256
1070
   178
1070
   256
1070
   271
1070
     0
1070
   272
1070
     0
1070
   341
1005
B2
1070
     6
1000
OPEN
1070
     7
1000
OPEN
1002
}
  0
LINE
  5
3B5A
330
1A
100
AcDbEntity
  8
CENTER_L
100
AcDbLine
 10
308.1142547287972
 20
156.6883211911055
 30
0.0
 11
312.6758334054815
 21
147.5651638345493
 31
0.0
  0
ARC
  5
3B5B
330
1A
100
AcDbEntity
  8
SEIHIN
100
AcDbCircle
 10
308.8297964671395
 20
147.4309997628274
 30
0.0
 40
1.999999997764122
100
AcDbArc
 50
206.5650511770769
 51
296.5650511770764
  0
CIRCLE
  5
3B5C
330
1A
100
AcDbEntity
  8
SEIHIN
100
AcDbCircle
 10
310.3950440671394
 20
152.1267425128274
 30
0.0
 40
2.099999995980733
  0
LINE
  5
3B5D
330
1A
100
AcDbEntity
  8
CENTER_L
100
AcDbLine
 10
305.8334653888612
 20
149.8459531744852
 30
0.0
 11
314.9566227454175
 21
154.4075318511695
 31
0.0
  0
LINE
  5
3B5E
330
1A
100
AcDbEntity
  8
SEIHIN
100
AcDbLine
 10
322.0225975671394
 20
159.0585532458274
 30
0.0
 11
324.9294858671394
 21
153.2447765048274
 31
0.0
  0
LINE
  5
3B5F
330
1A
100
AcDbEntity
  8
SEIHIN
100
AcDbLine
 10
321.2434490671394
 20
158.6689790338274
 30
0.0
 11
324.1503374671395
 21
152.8552022918274
 31
0.0
  0
ARC
  5
3B60
330
1A
100
AcDbEntity
  8
SEIHIN
100
AcDbCircle
 10
325.4154720671394
 20
158.9810080388274
 30
0.0
 40
1.999999965341132
100
AcDbArc
 50
206.5650522276385
 51
296.5650514076879
  0
LWPOLYLINE
  5
3B61
330
1A
100
AcDbEntity
  8
SUNPOU
100
AcDbPolyline
 90
        3
 70
     0
 43
0.0
 10
341.0766230102828
 20
190.9238599261763
 10
352.1871582738703
 20
224.5319916127839
 10
368.0366081143747
 20
224.5319916127839
1001
ACAD
1000
DSTYLE
1002
{
1070
    41
1040
3.0
1070
    42
1040
3.0
1070
    43
1040
7.0
1070
    44
1040
1.5
1070
    73
1070
     0
1070
    74
1070
     0
1070
    77
1070
     0
1070
   140
1040
3.0
1070
   141
1040
3.0
1070
   147
1040
1.0
1070
   172
1070
     1
1070
   173
1070
     1
1070
   176
1070
   256
1070
   177
1070
   256
1070
   178
1070
   256
1070
   271
1070
     0
1070
   272
1070
     0
1070
   341
1005
B2
1070
   343
1005
B2
1070
   344
1005
B2
1002
}
  0
LINE
  5
3B62
330
1A
100
AcDbEntity
  8
SEIHIN
100
AcDbLine
 10
340.1347481671395
 20
198.8605632428274
 30
0.0
 11
354.4455831895021
 21
170.2388930891023
 31
0.0
  0
LINE
  5
3B63
330
1A
100
AcDbEntity
  8
CENTER_L
100
AcDbLine
 10
343.3994073888613
 20
168.6289241884852
 30
0.0
 11
352.5225647454175
 21
173.1905028651695
 31
0.0
  0
DIMENSION
  5
3B64
330
1A
100
AcDbEntity
  8
SUNPOU
100
AcDbDimension
  2
*D8
 10
356.6884368488361
 20
193.72099970128
 30
0.0
 11
355.794009666887
 21
201.100024032771
 31
0.0
 70
    33
  3
STANDARD
100
AcDbAlignedDimension
 13
339.2403209729233
 23
200.6494176380722
 33
0.0
 14
345.501311295227
 24
188.1274369457774
 34
0.0
1001
ACAD
1000
DSTYLE
1002
{
1070
    41
1040
3.0
1070
    42
1040
3.0
1070
    43
1040
7.0
1070
    44
1040
1.5
1070
    73
1070
     0
1070
    74
1070
     0
1070
    77
1070
     3
1070
   140
1040
3.0
1070
   141
1040
3.0
1070
   147
1040
1.0
1070
   172
1070
     1
1070
   173
1070
     1
1070
   176
1070
   256
1070
   177
1070
   256
1070
   178
1070
   256
1070
   271
1070
     0
1070
   272
1070
     0
1070
   341
1005
B2
1070
     6
1000
OPEN
1070
     7
1000
OPEN
1002
}
  0
DIMENSION
  5
3B65
330
1A
100
AcDbEntity
  8
SUNPOU
100
AcDbDimension
  2
*D9
 10
319.2307004024953
 20
228.370284814948
 30
0.0
 11
299.3296954130787
 21
221.2148672851145
 31
0.0
 70
    33
  3
STANDARD
100
AcDbAlignedDimension
 13
296.9339148287973
 23
179.0490009711055
 33
0.0
 14
334.4998568287974
 24
197.8319719851055
 34
0.0
1001
ACAD
1000
DSTYLE
1002
{
1070
    41
1040
3.0
1070
    42
1040
3.0
1070
    43
1040
7.0
1070
    44
1040
1.5
1070
    73
1070
     0
1070
    74
1070
     0
1070
    77
1070
     3
1070
   140
1040
3.0
1070
   141
1040
3.0
1070
   147
1040
1.0
1070
   172
1070
     1
1070
   173
1070
     1
1070
   176
1070
   256
1070
   177
1070
   256
1070
   178
1070
   256
1070
   271
1070
     0
1070
   272
1070
     0
1070
   341
1005
B2
1070
     6
1000
OPEN
1070
     7
1000
OPEN
1002
}
  0
LWPOLYLINE
  5
3B66
330
1A
100
AcDbEntity
  8
SUNPOU
100
AcDbPolyline
 90
        3
 70
     0
 43
0.0
 10
294.8622152796247
 20
176.5024667878058
 10
273.4470392048633
 20
194.951805483131
 10
255.8652525679546
 20
194.951805483131
1001
ACAD
1000
DSTYLE
1002
{
1070
    41
1040
3.0
1070
    42
1040
3.0
1070
    43
1040
7.0
1070
    44
1040
1.5
1070
    73
1070
     0
1070
    74
1070
     0
1070
    77
1070
     0
1070
   140
1040
3.0
1070
   141
1040
3.0
1070
   147
1040
1.0
1070
   172
1070
     1
1070
   173
1070
     1
1070
   176
1070
   256
1070
   177
1070
   256
1070
   178
1070
   256
1070
   271
1070
     0
1070
   272
1070
     0
1070
   341
1005
B2
1070
   343
1005
B2
1070
   344
1005
B2
1002
}
  0
DIMENSION
  5
3B67
330
1A
100
AcDbEntity
  8
SUNPOU
100
AcDbDimension
  2
*D10
 10
279.8682823476421
 20
164.8142113864585
 30
0.0
 11
280.8745129400491
 21
168.3919201462534
 31
0.0
 70
    33
  3
STANDARD
100
AcDbAlignedDimension
 13
291.8356798478601
 23
176.9470970620112
 33
0.0
 14
294.2953546183582
 24
172.0277475192961
 34
0.0
1001
ACAD
1000
DSTYLE
1002
{
1070
    41
1040
3.0
1070
    42
1040
3.0
1070
    43
1040
7.0
1070
    44
1040
1.5
1070
    73
1070
     0
1070
    74
1070
     0
1070
    77
1070
     3
1070
   140
1040
3.0
1070
   141
1040
3.0
1070
   147
1040
1.0
1070
   172
1070
     1
1070
   173
1070
     1
1070
   176
1070
   256
1070
   177
1070
   256
1070
   178
1070
   256
1070
   271
1070
     0
1070
   272
1070
     0
1070
   341
1005
B2
1070
     6
1000
OPEN
1070
     7
1000
OPEN
1002
}
  0
DIMENSION
  5
3B68
330
1A
100
AcDbEntity
  8
SUNPOU
100
AcDbDimension
  2
*D11
 10
320.2245538523806
 20
238.6809518574489
 30
0.0
 11
295.4041993005886
 21
229.0658595466629
 31
0.0
 70
    33
  3
STANDARD
100
AcDbAlignedDimension
 13
291.8356798478601
 23
176.9470970620112
 33
0.0
 14
339.2403209729233
 24
200.6494176380722
 34
0.0
1001
ACAD
1000
DSTYLE
1002
{
1070
    41
1040
3.0
1070
    42
1040
3.0
1070
    43
1040
7.0
1070
    44
1040
1.5
1070
    73
1070
     0
1070
    74
1070
     0
1070
    77
1070
     3
1070
   140
1040
3.0
1070
   141
1040
3.0
1070
   147
1040
1.0
1070
   172
1070
     1
1070
   173
1070
     1
1070
   176
1070
   256
1070
   177
1070
   256
1070
   178
1070
   256
1070
   271
1070
     0
1070
   272
1070
     0
1070
   341
1005
B2
1070
     6
1000
OPEN
1070
     7
1000
OPEN
1002
}
  0
TEXT
  5
3B69
330
1A
100
AcDbEntity
  8
SUNPOU
100
AcDbText
 10
256.8470392048634
 20
195.6608562897449
 30
0.0
 40
3.0
  1
4-φ4.2
100
AcDbText
  0
LINE
  5
3B6A
330
1A
100
AcDbEntity
  8
SEIHIN
100
AcDbLine
 10
336.1485983671394
 20
164.3475711848274
 30
0.0
 11
315.0907867671394
 21
206.4631943728274
 31
0.0
  0
LINE
  5
3B6B
330
1A
100
AcDbEntity
  8
SEIHIN
100
AcDbLine
 10
335.2541711671394
 20
163.9003575898274
 30
0.0
 11
314.1963595671394
 21
206.0159807728274
 31
0.0
  0
DIMENSION
  5
3B6C
330
1A
100
AcDbEntity
  8
SUNPOU
100
AcDbDimension
  2
*D12
 10
321.7102416397668
 20
220.057100444595
 30
0.0
 11
303.1508774261707
 21
213.5725033111717
 31
0.0
 70
    33
  3
STANDARD
100
AcDbAlignedDimension
 13
301.5625755454162
 23
173.1457815062269
 33
0.0
 14
336.4452359954163
 24
190.5871117282269
 34
0.0
1001
ACAD
1000
DSTYLE
1002
{
1070
    41
1040
3.0
1070
    42
1040
3.0
1070
    43
1040
7.0
1070
    44
1040
1.5
1070
    73
1070
     0
1070
    74
1070
     0
1070
    77
1070
     3
1070
   140
1040
3.0
1070
   141
1040
3.0
1070
   147
1040
1.0
1070
   172
1070
     1
1070
   173
1070
     1
1070
   176
1070
   256
1070
   177
1070
   256
1070
   178
1070
   256
1070
   271
1070
     0
1070
   272
1070
     0
1070
   341
1005
B2
1070
     6
1000
OPEN
1070
     7
1000
OPEN
1002
}
  0
ARC
  5
3B6D
330
1A
100
AcDbEntity
  8
SEIHIN
100
AcDbCircle
 10
323.5878451671394
 20
172.6985679128274
 30
0.0
 40
5.024896830989174
100
AcDbArc
 50
153.2223321449055
 51
79.90777135371754
  0
LINE
  5
3B6E
330
1A
100
AcDbEntity
  8
SEIHIN
100
AcDbLine
 10
317.5699259671394
 20
160.1863194418274
 30
0.0
 11
320.6809567671395
 21
161.7418348192274
 31
0.0
  0
LINE
  5
3B6F
330
1A
100
AcDbEntity
  8
SEIHIN
100
AcDbLine
 10
313.0783256671394
 20
176.9470970628274
 30
0.0
 11
320.6809567671395
 21
161.7418348192274
 31
0.0
  0
LINE
  5
3B70
330
1A
100
AcDbEntity
  8
SEIHIN
100
AcDbLine
 10
312.2991771671394
 20
176.5575228528274
 30
0.0
 11
319.9018083671394
 21
161.3522606066274
 31
0.0
  0
LINE
  5
3B71
330
1A
100
AcDbEntity
  8
SEIHIN
100
AcDbLine
 10
313.3082917671395
 20
199.9658786128273
 30
0.0
 11
324.4683738671394
 21
177.6457142728274
 31
0.0
  0
LINE
  5
3B72
330
1A
100
AcDbEntity
  8
SEIHIN
100
AcDbLine
 10
307.9417286071394
 20
197.2825970128274
 30
0.0
 11
319.1018107671394
 21
174.9624327028274
 31
0.0
  0
LINE
  5
3B73
330
1A
100
AcDbEntity
  8
SEIHIN
100
AcDbLine
 10
308.8297964671395
 20
185.4441553828274
 30
0.0
 11
311.7366848671395
 21
179.6303786428274
 31
0.0
  0
LINE
  5
3B74
330
1A
100
AcDbEntity
  8
SEIHIN
100
AcDbLine
 10
308.0506480471394
 20
185.0545811728274
 30
0.0
 11
310.9575363671394
 21
179.2408044228274
 31
0.0
  0
LINE
  5
3B75
330
1A
100
AcDbEntity
  8
SEIHIN
100
AcDbLine
 10
308.8297964671395
 20
185.4441553828274
 30
0.0
 11
293.6245342271394
 21
177.8415242528274
 31
0.0
  0
CIRCLE
  5
3B76
330
1A
100
AcDbEntity
  8
SEIHIN
100
AcDbCircle
 10
304.3576605171395
 20
167.5556115608274
 30
0.0
 40
3.250000001408088
  0
LINE
  5
3B77
330
1A
100
AcDbEntity
  8
CENTER_L
100
AcDbLine
 10
298.7674905717399
 20
164.7605265891042
 30
0.0
 11
309.947830462539
 21
170.3506965325505
 31
0.0
  0
LINE
  5
3B78
330
1A
100
AcDbEntity
  8
CENTER_L
100
AcDbLine
 10
294.6531254888613
 20
172.2066329544852
 30
0.0
 11
303.7762828454176
 21
176.7682116311695
 31
0.0
  0
LINE
  5
3B79
330
1A
100
AcDbEntity
  8
CENTER_L
100
AcDbLine
 10
301.5625755454162
 20
173.1457815062269
 30
0.0
 11
307.1527454888626
 21
161.9654416154278
 31
0.0
  0
LINE
  5
3B7A
330
1A
100
AcDbEntity
  8
CENTER_L
100
AcDbLine
 10
296.9339148287973
 20
179.0490009711055
 30
0.0
 11
301.4954935054816
 21
169.9258436145493
 31
0.0
  0
ARC
  5
3B7B
330
1A
100
AcDbEntity
  8
SEIHIN
100
AcDbCircle
 10
294.5189614171395
 20
176.0526698728274
 30
0.0
 40
1.999999997764122
100
AcDbArc
 50
116.5650511770763
 51
206.5650511770769
  0
INSERT
  5
3B7C
330
1A
100
AcDbEntity
  8
SUNPOU
100
AcDbBlockReference
  2
_OPEN
 10
297.1350759447858
 20
174.5443798651276
 30
0.0
 41
2.999999999999992
 42
3.0
 43
3.0
 50
319.2548486777223
1001
ACAD
1000
DSTYLE
1002
{
1070
    41
1040
3.0
1070
    42
1040
3.0
1070
    43
1040
7.0
1070
    44
1040
1.5
1070
    73
1070
     0
1070
    74
1070
     0
1070
    77
1070
     0
1070
   140
1040
3.0
1070
   141
1040
3.0
1070
   147
1040
1.0
1070
   172
1070
     1
1070
   173
1070
     1
1070
   176
1070
   256
1070
   177
1070
   256
1070
   178
1070
   256
1070
   271
1070
     0
1070
   272
1070
     0
1070
   341
1005
B2
1070
   343
1005
B2
1070
   344
1005
B2
1002
}
  0
CIRCLE
  5
3B7D
330
1A
100
AcDbEntity
  8
SEIHIN
100
AcDbCircle
 10
299.2147041671394
 20
174.4874222928274
 30
0.0
 40
2.100000004315366
  0
LINE
  5
3B7E
330
1A
100
AcDbEntity
  8
SEIHIN
100
AcDbLine
 10
311.7366848671395
 20
179.6303786428274
 30
0.0
 11
308.6256540871394
 21
178.0748632628274
 31
0.0
  0
LINE
  5
3B7F
330
1A
100
AcDbEntity
  8
SEIHIN
100
AcDbLine
 10
313.0783256671394
 20
176.9470970628274
 30
0.0
 11
309.9672948671394
 21
175.3915816928274
 31
0.0
  0
LINE
  5
3B80
330
1A
100
AcDbEntity
  8
SEIHIN
100
AcDbLine
 10
308.6256540871394
 20
178.0748632628274
 30
0.0
 11
309.9672948671394
 21
175.3915816928274
 31
0.0
  0
LINE
  5
3B81
330
1A
100
AcDbEntity
  8
SEIHIN
100
AcDbLine
 10
311.7366848671395
 20
179.6303786428274
 30
0.0
 11
313.0783256671394
 21
176.9470970628274
 31
0.0
  0
LINE
  5
3B82
330
1A
100
AcDbEntity
  8
SEIHIN
100
AcDbLine
 10
301.6743789471394
 20
199.7549904328274
 30
0.0
 11
302.5688061371394
 21
200.2022040328274
 31
0.0
  0
ARC
  5
3B83
330
1A
100
AcDbEntity
  8
SEIHIN
100
AcDbCircle
 10
310.6250103671394
 20
198.6242375028274
 30
0.0
 40
3.000000012298682
100
AcDbArc
 50
26.5650581808209
 51
206.5650445149789
  0
LINE
  5
3B84
330
1A
100
AcDbEntity
  8
SEIHIN
100
AcDbLine
 10
304.8112335871394
 20
195.7173491328273
 30
0.0
 11
307.9417287471394
 21
197.2825967128273
 31
0.0
  0
LINE
  5
3B85
330
1A
100
AcDbEntity
  8
SEIHIN
100
AcDbLine
 10
313.3082918671394
 20
199.9658782928274
 30
0.0
 11
316.4387870671394
 21
201.5311258728274
 31
0.0
  0
LINE
  5
3B86
330
1A
100
AcDbEntity
  8
SEIHIN
100
AcDbLine
 10
326.4947334671394
 20
183.6553010028274
 30
0.0
 11
334.0973645671394
 21
168.4500387518274
 31
0.0
  0
LINE
  5
3B87
330
1A
100
AcDbEntity
  8
SEIHIN
100
AcDbLine
 10
327.2738819671394
 20
184.0448752128274
 30
0.0
 11
334.8765130671394
 21
168.8396129648274
 31
0.0
  0
CIRCLE
  5
3B88
330
1A
100
AcDbEntity
  8
SEIHIN
100
AcDbCircle
 10
339.2403209671395
 20
184.9969417828274
 30
0.0
 40
3.249999988758972
  0
LINE
  5
3B89
330
1A
100
AcDbEntity
  8
CENTER_L
100
AcDbLine
 10
333.65015102174
 20
182.2018568111042
 30
0.0
 11
344.8304909125391
 21
187.7920267545506
 31
0.0
  0
LINE
  5
3B8A
330
1A
100
AcDbEntity
  8
CENTER_L
100
AcDbLine
 10
336.4452359954163
 20
190.5871117282269
 30
0.0
 11
342.0354059388627
 21
179.4067718374278
 31
0.0
  0
LINE
  5
3B8B
330
1A
100
AcDbEntity
  8
SEIHIN
100
AcDbLine
 10
334.0973645671394
 20
168.4500387518274
 30
0.0
 11
335.4390053671394
 21
165.7667571788274
 31
0.0
  0
LINE
  5
3B8C
330
1A
100
AcDbEntity
  8
SEIHIN
100
AcDbLine
 10
337.2083953671394
 20
170.0055541288274
 30
0.0
 11
334.0973645671394
 21
168.4500387518274
 31
0.0
  0
LINE
  5
3B8D
330
1A
100
AcDbEntity
  8
SEIHIN
100
AcDbLine
 10
338.5500361671394
 20
167.3222725558274
 30
0.0
 11
334.5445781671394
 21
165.3195435828274
 31
0.0
  0
ARC
  5
3B8E
330
1A
100
AcDbEntity
  8
SEIHIN
100
AcDbCircle
 10
333.4653168671394
 20
163.0059303984274
 30
0.0
 40
1.999999965251689
100
AcDbArc
 50
296.5650514128148
 51
26.56505223788778
  0
CIRCLE
  5
3B8F
330
1A
100
AcDbEntity
  8
SEIHIN
100
AcDbCircle
 10
323.5878451671394
 20
172.6985679128274
 30
0.0
 40
2.999999911928945
  0
CIRCLE
  5
3B90
330
1A
100
AcDbEntity
  8
SEIHIN
100
AcDbCircle
 10
347.9609860671395
 20
170.9097135268274
 30
0.0
 40
2.10000000249889
  0
LINE
  5
3B91
330
1A
100
AcDbEntity
  8
CENTER_L
100
AcDbLine
 10
345.6801967287973
 20
175.4712922051055
 30
0.0
 11
350.2417754054816
 21
166.3481348485493
 31
0.0
  0
LINE
  5
3B92
330
1A
100
AcDbEntity
  8
SEIHIN
100
AcDbLine
 10
336.2181538671394
 20
166.1563313918274
 30
0.0
 11
339.1250421671394
 21
160.3425546498274
 31
0.0
  0
LINE
  5
3B93
330
1A
100
AcDbEntity
  8
SEIHIN
100
AcDbLine
 10
335.4390053671394
 20
165.7667571788274
 30
0.0
 11
338.3458937671395
 21
159.9529804368274
 31
0.0
  0
LINE
  5
3B94
330
1A
100
AcDbEntity
  8
SEIHIN
100
AcDbLine
 10
337.2083953671394
 20
170.0055541288274
 30
0.0
 11
338.5500361671394
 21
167.3222725558274
 31
0.0
  0
CIRCLE
  5
3B95
330
1A
100
AcDbEntity
  8
SEIHIN
100
AcDbCircle
 10
336.7806461671394
 20
193.2703933028274
 30
0.0
 40
2.100000001153092
  0
LINE
  5
3B96
330
1A
100
AcDbEntity
  8
CENTER_L
100
AcDbLine
 10
332.2190674888614
 20
190.9896039684852
 30
0.0
 11
341.3422248454176
 21
195.5511826451695
 31
0.0
  0
LINE
  5
3B97
330
1A
100
AcDbEntity
  8
CENTER_L
100
AcDbLine
 10
334.4998568287974
 20
197.8319719851055
 30
0.0
 11
339.0614355054817
 21
188.7088146285493
 31
0.0
  0
LINE
  5
3B98
330
1A
100
AcDbEntity
  8
SEIHIN
100
AcDbLine
 10
322.2462043671394
 20
192.1523593128274
 30
0.0
 11
337.4514665671394
 21
199.7549904328274
 31
0.0
  0
LINE
  5
3B99
330
1A
100
AcDbEntity
  8
SEIHIN
100
AcDbLine
 10
326.4947334671394
 20
183.6553010028274
 30
0.0
 11
329.6057642671395
 21
185.2108163728274
 31
0.0
  0
LINE
  5
3B9A
330
1A
100
AcDbEntity
  8
SEIHIN
100
AcDbLine
 10
325.1530926671394
 20
186.3385825728274
 30
0.0
 11
328.2641234671395
 21
187.8940979528274
 31
0.0
  0
LINE
  5
3B9B
330
1A
100
AcDbEntity
  8
SEIHIN
100
AcDbLine
 10
322.2462043671394
 20
192.1523593128274
 30
0.0
 11
325.1530926671394
 21
186.3385825728274
 31
0.0
  0
LINE
  5
3B9C
330
1A
100
AcDbEntity
  8
SEIHIN
100
AcDbLine
 10
323.0253527671394
 20
192.5419335228274
 30
0.0
 11
325.9322411671394
 21
186.7281567828274
 31
0.0
  0
LINE
  5
3B9D
330
1A
100
AcDbEntity
  8
SEIHIN
100
AcDbLine
 10
325.1530926671394
 20
186.3385825728274
 30
0.0
 11
326.4947334671394
 21
183.6553010028274
 31
0.0
  0
LINE
  5
3B9E
330
1A
100
AcDbEntity
  8
SEIHIN
100
AcDbLine
 10
328.2641234671395
 20
187.8940979528274
 30
0.0
 11
329.6057642671395
 21
185.2108163728274
 31
0.0
  0
INSERT
  5
3B9F
330
1A
100
AcDbEntity
  8
SUNPOU
100
AcDbBlockReference
  2
_OPEN
 10
340.1349735141947
 20
188.0754750809496
 30
0.0
 41
2.999999999999981
 42
3.0
 43
3.0
 50
251.7065953267104
1001
ACAD
1000
DSTYLE
1002
{
1070
    41
1040
3.0
1070
    42
1040
3.0
1070
    43
1040
7.0
1070
    44
1040
1.5
1070
    73
1070
     0
1070
    74
1070
     0
1070
    77
1070
     0
1070
   140
1040
3.0
1070
   141
1040
3.0
1070
   147
1040
1.0
1070
   172
1070
     1
1070
   173
1070
     1
1070
   176
1070
   256
1070
   177
1070
   256
1070
   178
1070
   256
1070
   271
1070
     0
1070
   272
1070
     0
1070
   341
1005
B2
1070
   343
1005
B2
1070
   344
1005
B2
1002
}
  0
ARC
  5
3BA0
330
1A
100
AcDbEntity
  8
SEIHIN
100
AcDbCircle
 10
338.3458937671395
 20
197.9661360528274
 30
0.0
 40
2.000000008944457
100
AcDbArc
 50
26.56505092084472
 51
116.5650514333117
  0
LINE
  5
3BA1
330
1A
100
AcDbEntity
  8
SEIHIN
100
AcDbLine
 10
314.1963595671394
 20
206.0159807728274
 30
0.0
 11
315.0907867671394
 21
206.4631943728274
 31
0.0
  0
ARC
  5
3BA2
330
1A
100
AcDbEntity
  8
SEIHIN
100
AcDbCircle
 10
352.6567288061397
 20
169.3444659008274
 30
0.0
 40
2.0
100
AcDbArc
 50
296.5650511415189
 51
26.56505108979721
  0
TEXT
  5
3BA3
330
1A
100
AcDbEntity
  8
SUNPOU
100
AcDbText
 10
352.5267634876963
 20
225.8363385254044
 30
0.0
 40
3.0
  1
2-φ6.5
100
AcDbText
  0
DIMENSION
  5
3D54
330
1A
100
AcDbEntity
  8
SUNPOU
100
AcDbDimension
  2
*D13
 10
195.9112357529362
 20
164.9781198198202
 30
0.0
 11
132.4846110596878
 21
167.4781198198202
 31
0.0
 70
    32
  3
STANDARD
100
AcDbAlignedDimension
 13
69.05798636643942
 23
94.56650424282742
 33
0.0
 14
195.9112357529362
 24
140.3028511807258
 34
0.0
100
AcDbRotatedDimension
1001
ACAD
1000
DSTYLE
1002
{
1070
    41
1040
3.0
1070
    42
1040
3.0
1070
    43
1040
7.0
1070
    44
1040
1.5
1070
    73
1070
     0
1070
    74
1070
     0
1070
    77
1070
     3
1070
   140
1040
3.0
1070
   141
1040
3.0
1070
   147
1040
1.0
1070
   172
1070
     1
1070
   173
1070
     1
1070
   176
1070
   256
1070
   177
1070
   256
1070
   178
1070
   256
1070
   271
1070
     0
1070
   272
1070
     0
1070
   341
1005
B2
1070
     6
1000
OPEN
1070
     7
1000
OPEN
1002
}
  0
DIMENSION
  5
3D85
330
1A
100
AcDbEntity
  8
SUNPOU
100
AcDbDimension
  2
*D14
 10
43.17272371978989
 20
99.04909138282748
 30
0.0
 11
40.67272371978988
 21
89.2990913828275
 31
0.0
 70
    32
  3
STANDARD
100
AcDbAlignedDimension
 13
71.75808636736246
 23
99.36650423888915
 33
0.0
 14
216.5381156544394
 24
99.04909138282745
 34
0.0
 50
90.0
100
AcDbRotatedDimension
1001
ACAD
1000
DSTYLE
1002
{
1070
    41
1040
3.0
1070
    42
1040
3.0
1070
    43
1040
7.0
1070
    44
1040
1.5
1070
    73
1070
     0
1070
    74
1070
     0
1070
    77
1070
     3
1070
   140
1040
3.0
1070
   141
1040
3.0
1070
   147
1040
1.0
1070
   172
1070
     1
1070
   173
1070
     1
1070
   176
1070
   256
1070
   177
1070
   256
1070
   178
1070
   256
1070
   271
1070
     1
1070
   272
1070
     0
1070
   341
1005
B2
1070
     6
1000
OPEN
1070
     7
1000
OPEN
1002
}
  0
DIMENSION
  5
3D9F
330
1A
100
AcDbEntity
  8
SUNPOU
100
AcDbDimension
  2
*D15
 10
195.9112357529362
 20
156.9652514448747
 30
0.0
 11
191.403711057147
 21
159.4652514448747
 31
0.0
 70
    32
  3
STANDARD
100
AcDbAlignedDimension
 13
186.8961863613577
 23
103.5596042417206
 33
0.0
 14
195.9112357529362
 24
140.3028511807258
 34
0.0
100
AcDbRotatedDimension
1001
ACAD
1000
DSTYLE
1002
{
1070
    41
1040
3.0
1070
    42
1040
3.0
1070
    43
1040
7.0
1070
    44
1040
1.5
1070
    73
1070
     0
1070
    74
1070
     0
1070
    77
1070
     3
1070
   140
1040
3.0
1070
   141
1040
3.0
1070
   147
1040
1.0
1070
   172
1070
     1
1070
   173
1070
     1
1070
   176
1070
   256
1070
   177
1070
   256
1070
   178
1070
   256
1070
   271
1070
     0
1070
   272
1070
     0
1070
   341
1005
B2
1070
     6
1000
OPEN
1070
     7
1000
OPEN
1002
}
  0
LINE
  5
3E0B
330
1A
100
AcDbEntity
  8
SEIHIN
100
AcDbLine
 10
126.5861204426089
 20
219.7999827400329
 30
0.0
 11
126.5861204426089
 21
218.7999827400329
 31
0.0
  0
LINE
  5
3E0C
330
1A
100
AcDbEntity
  8
SEIHIN
100
AcDbLine
 10
126.5861204426089
 20
205.7999827000329
 30
0.0
 11
126.5861204426089
 21
204.7999827000329
 31
0.0
  0
LINE
  5
3E8A
330
1A
100
AcDbEntity
  8
SUNPOU
100
AcDbLine
 10
216.5381156544394
 20
99.04909138282745
 30
0.0
 11
230.8228825672847
 21
70.47955756512227
 31
0.0
  0
LINE
  5
3E8B
330
1A
100
AcDbEntity
  8
SUNPOU
100
AcDbLine
 10
225.8228825672847
 20
70.47955756512227
 30
0.0
 11
225.8228825672847
 21
80.47955756512228
 31
0.0
  0
TEXT
  5
3E8C
330
1A
100
AcDbEntity
  8
SUNPOU
100
AcDbText
 10
226.8289592196774
 20
65.39616078472467
 30
0.0
 40
3.0
  1
5
100
AcDbText
  0
LINE
  5
3E8D
330
1A
100
AcDbEntity
  8
SUNPOU
100
AcDbLine
 10
230.8228825672847
 20
70.47955756512227
 30
0.0
 11
225.8228825672847
 21
70.47955756512227
 31
0.0
  0
TEXT
  5
3E8E
330
1A
100
AcDbEntity
  8
SUNPOU
100
AcDbText
 10
220.7300487631509
 20
72.90946139572795
 30
0.0
 40
3.0
  1
10
100
AcDbText
  0
LINE
  5
3FC1
330
1A
100
AcDbEntity
  8
ZUWAKU
100
AcDbLine
 10
104.3233009651347
 20
7.600000176923909
 30
0.0
 11
223.7121823055964
 21
7.600000176923906
 31
0.0
  0
LINE
  5
3FC2
330
1A
100
AcDbEntity
  8
ZUWAKU
100
AcDbLine
 10
104.3233009651347
 20
7.800000176923907
 30
0.0
 11
223.7121823055964
 21
7.80000017692391
 31
0.0
  0
LINE
  5
3FC3
330
1A
100
AcDbEntity
  8
ZUWAKU
100
AcDbLine
 10
104.3233009651347
 20
7.700000176923907
 30
0.0
 11
223.7121823055964
 21
7.700000176923907
 31
0.0
  0
LINE
  5
3FC4
330
1A
100
AcDbEntity
  8
ZUWAKU
100
AcDbLine
 10
0.000000320100753
 20
15.40000017692389
 30
0.0
 11
398.7000003201007
 21
15.40000017692389
 31
0.0
  0
LINE
  5
3FC5
330
1A
100
AcDbEntity
  8
ZUWAKU
100
AcDbLine
 10
0.000000320100753
 20
15.30000017692389
 30
0.0
 11
398.7000003201007
 21
15.30000017692389
 31
0.0
  0
LINE
  5
3FC6
330
1A
100
AcDbEntity
  8
ZUWAKU
100
AcDbLine
 10
0.000000320100753
 20
15.20000017692389
 30
0.0
 11
398.7000003201007
 21
15.20000017692389
 31
0.0
  0
LINE
  5
3FC7
330
1A
100
AcDbEntity
  8
ZUWAKU
100
AcDbLine
 10
0.000000320100753
 20
15.10000017692389
 30
0.0
 11
398.7000003201007
 21
15.10000017692389
 31
0.0
  0
LINE
  5
3FC8
330
1A
100
AcDbEntity
  8
ZUWAKU
100
AcDbLine
 10
0.000000320100753
 20
15.00000017692389
 30
0.0
 11
398.7000003201007
 21
15.00000017692389
 31
0.0
  0
LWPOLYLINE
  5
3FC9
330
1A
100
AcDbEntity
  8
ZUWAKU
100
AcDbPolyline
 90
        4
 70
     1
 43
0.0
 10
0.1000003201007189
 20
275.7000001769239
 10
0.1000003201007189
 20
0.1000001769239134
 10
398.7000003201007
 20
0.1000001769239249
 10
398.7000003201007
 20
275.7000001769239
  0
LWPOLYLINE
  5
3FCA
330
1A
100
AcDbEntity
  8
ZUWAKU
100
AcDbPolyline
 90
        4
 70
     1
 43
0.0
 10
0.3000003201007075
 20
275.5000001769239
 10
0.3000003201007075
 20
0.300000176923902
 10
398.5000003201008
 20
0.3000001769239251
 10
398.5000003201007
 20
275.5000001769239
  0
LWPOLYLINE
  5
3FCB
330
1A
100
AcDbEntity
  8
ZUWAKU
100
AcDbPolyline
 90
        4
 70
     1
 43
0.0
 10
0.000000320100753
 20
275.8000001769238
 10
0.000000320100753
 20
0.0000001769238906
 10
398.8000003201008
 20
0.0000001769239244
 10
398.8000003201008
 20
275.8000001769239
  0
LWPOLYLINE
  5
3FCC
330
1A
100
AcDbEntity
  8
ZUWAKU
100
AcDbPolyline
 90
        4
 70
     1
 43
0.0
 10
0.2000003201007416
 20
275.6000001769239
 10
0.2000003201007416
 20
0.2000001769239361
 10
398.6000003201007
 20
0.2000001769239246
 10
398.6000003201007
 20
275.6000001769239
  0
LWPOLYLINE
  5
3FCD
330
1A
100
AcDbEntity
  8
ZUWAKU
100
AcDbPolyline
 90
        4
 70
     1
 43
0.0
 10
0.4000003201007303
 20
275.4000001769239
 10
0.4000003201007303
 20
0.4000001769239248
 10
398.4000003201007
 20
0.4000001769239248
 10
398.4000003201007
 20
275.4000001769239
  0
TEXT
  5
3FCE
330
1A
100
AcDbEntity
  8
MOJI
100
AcDbText
 10
46.47889511418532
 20
6.370589242061271
 30
0.0
 40
3.0
  1
新・丸トップＲＶ１０５
 41
0.9
  7
ｽﾀｲﾙ1
100
AcDbText
  0
HATCH
  5
3FCF
330
1A
100
AcDbEntity
  8
ZUWAKU
100
AcDbHatch
 10
0.0
 20
0.0
 30
0.0
210
0.0
220
0.0
230
1.0
  2
ANSI37
 70
     0
 71
     0
 91
        8
 92
        7
 72
     1
 73
     1
 93
       24
 10
7.251131650660681
 20
8.822424417415682
 42
-0.1989123673796348
 10
7.046106397491314
 20
9.317399164246207
 42
0.0
 10
7.046106397491314
 20
9.962500176923896
 42
-0.4142135623730912
 10
7.308606397491303
 20
10.22500017692389
 42
0.0
 10
8.796106397491257
 20
10.22500017692389
 42
0.4142135623731546
 10
9.058606397491303
 20
10.48750017692388
 42
0.0
 10
9.058606397491303
 20
11.36250017692389
 42
0.4142135623731586
 10
8.796106397491257
 20
11.62500017692389
 42
0.0
 10
7.046106397491314
 20
11.62500017692389
 42
0.4142135623730928
 10
5.646106397491337
 20
10.2250001769239
 42
0.0
 10
5.646106397491337
 20
9.317399164246271
 42
0.1989123673796619
 10
6.261182156999552
 20
7.832474923754467
 42
0.0
 10
7.71608114432189
 20
6.377575936432139
 42
-0.1989123673796613
 10
7.921106397491314
 20
5.882601189601546
 42
0.0
 10
7.921106397491314
 20
5.237500176923887
 42
-0.4142135623730911
 10
7.658606397491325
 20
4.975000176923892
 42
0.0
 10
6.171106397491371
 20
4.975000176923892
 42
0.4142135623731526
 10
5.908606397491325
 20
4.712500176923898
 42
0.0
 10
5.908606397491325
 20
3.837500176923887
 42
0.4142135623731526
 10
6.171106397491371
 20
3.575000176923893
 42
0.0
 10
7.921106397491314
 20
3.575000176923893
 42
0.4142135623731044
 10
9.321106397491348
 20
4.975000176923881
 42
0.0
 10
9.321106397491348
 20
5.882601189601517
 42
0.1989123673796604
 10
8.706030637983076
 20
7.367525430093287
 42
0.0
 97
        0
 92
        7
 72
     1
 73
     1
 93
       16
 10
11.77110639749133
 20
9.525000176923896
 42
-0.4142135623730935
 10
12.47110639749132
 20
10.22500017692389
 42
0.0
 10
13.4336063974913
 20
10.22500017692389
 42
0.4142135623731546
 10
13.69610639749134
 20
10.48750017692388
 42
0.0
 10
13.69610639749134
 20
11.36250017692389
 42
0.4142135623730951
 10
13.43360639749135
 20
11.62500017692389
 42
0.0
 10
12.47110639749126
 20
11.62500017692387
 42
0.4142135623730892
 10
10.3711063974913
 20
9.52500017692386
 42
0.0
 10
10.3711063974913
 20
5.675000176923905
 42
0.4142135623730969
 10
12.47110639749132
 20
3.575000176923893
 42
0.0
 10
13.4336063974913
 20
3.575000176923893
 42
0.4142135623731526
 10
13.69610639749134
 20
3.837500176923887
 42
0.0
 10
13.69610639749134
 20
4.712500176923898
 42
0.4142135623730891
 10
13.43360639749135
 20
4.975000176923892
 42
0.0
 10
12.47110639749132
 20
4.975000176923892
 42
-0.4142135623730928
 10
11.77110639749133
 20
5.675000176923886
 42
0.0
 97
        0
 92
        7
 72
     1
 73
     1
 93
        2
 10
12.1211063974913
 20
7.600000176923892
 42
1.0
 10
13.8711063974913
 20
7.600000176923892
 42
1.0
 97
        0
 92
        7
 72
     1
 73
     1
 93
       26
 10
18.65742963858031
 20
9.602523773705605
 42
0.0
 10
19.18824945514922
 20
11.2834531928404
 42
0.5069206636600134
 10
18.93793400555153
 20
11.62500017692389
 42
0.0
 10
18.08848931574692
 20
11.62500017692389
 42
0.3272098845218764
 10
17.83817386614924
 20
11.44154716100737
 42
0.0
 10
16.90403892883336
 20
8.483453192840432
 42
-0.3272098845219541
 10
16.65372347923562
 20
8.300000176923891
 42
0.0
 10
16.58360639749139
 20
8.300000176923891
 42
-0.4142135623731526
 10
16.32110639749134
 20
8.562500176923885
 42
0.0
 10
16.32110639749134
 20
11.36250017692389
 42
0.4142135623730951
 10
16.05860639749136
 20
11.62500017692389
 42
0.0
 10
15.1836063974913
 20
11.62500017692389
 42
0.4142135623730871
 10
14.92110639749131
 20
11.3625001769239
 42
0.0
 10
14.92110639749131
 20
3.837500176923887
 42
0.4142135623730891
 10
15.1836063974913
 20
3.575000176923893
 42
0.0
 10
16.0586063974913
 20
3.575000176923893
 42
0.4142135623731526
 10
16.32110639749134
 20
3.837500176923887
 42
0.0
 10
16.32110639749134
 20
6.637500176923898
 42
-0.4142135623731526
 10
16.58360639749139
 20
6.900000176923892
 42
0.0
 10
16.65372347923567
 20
6.900000176923892
 42
-0.3272098845218915
 10
16.90403892883336
 20
6.716547161007355
 42
0.0
 10
17.83817386614924
 20
3.758453192840429
 42
0.3272098845218902
 10
18.08848931574692
 20
3.575000176923893
 42
0.0
 10
18.93793400555153
 20
3.575000176923893
 42
0.5069206636600335
 10
19.18824945514922
 20
3.916547161007397
 42
0.0
 10
18.02505376591239
 20
7.600000176923961
 42
0.0
 97
        0
 92
        7
 72
     1
 73
     1
 93
        8
 10
21.7461063974913
 20
11.36250017692389
 42
0.4142135623731546
 10
21.48360639749125
 20
11.62500017692389
 42
0.0
 10
20.60860639749137
 20
11.62500017692389
 42
0.4142135623731507
 10
20.34610639749132
 20
11.3625001769239
 42
0.0
 10
20.34610639749132
 20
3.837500176923887
 42
0.4142135623731526
 10
20.60860639749137
 20
3.575000176923893
 42
0.0
 10
21.48360639749125
 20
3.575000176923893
 42
0.4142135623731526
 10
21.7461063974913
 20
3.837500176923887
 42
0.0
 97
        0
 92
        7
 72
     1
 73
     1
 93
       24
 10
24.19610639749135
 20
9.962500176923896
 42
-0.4142135623731546
 10
24.45860639749139
 20
10.22500017692389
 42
0.0
 10
25.94610639749134
 20
10.22500017692389
 42
0.4142135623730911
 10
26.20860639749134
 20
10.48750017692388
 42
0.0
 10
26.20860639749134
 20
11.36250017692389
 42
0.4142135623730952
 10
25.94610639749134
 20
11.62500017692389
 42
0.0
 10
24.19610639749135
 20
11.62500017692389
 42
0.4142135623731048
 10
22.79610639749131
 20
10.2250001769239
 42
0.0
 10
22.79610639749131
 20
9.317399164246271
 42
0.1989123673796613
 10
23.41118215699958
 20
7.832474923754496
 42
0.0
 10
24.86608114432192
 20
6.377575936432162
 42
-0.1989123673796402
 10
25.07110639749134
 20
5.882601189601626
 42
0.0
 10
25.07110639749134
 20
5.237500176923887
 42
-0.4142135623730911
 10
24.80860639749136
 20
4.975000176923892
 42
0.0
 10
23.32110639749135
 20
4.975000176923892
 42
0.4142135623731526
 10
23.0586063974913
 20
4.712500176923898
 42
0.0
 10
23.0586063974913
 20
3.837500176923887
 42
0.4142135623730891
 10
23.32110639749129
 20
3.575000176923893
 42
0.0
 10
25.07110639749134
 20
3.575000176923893
 42
0.4142135623730925
 10
26.47110639749132
 20
4.975000176923881
 42
0.0
 10
26.47110639749132
 20
5.882601189601517
 42
0.1989123673796675
 10
25.85603063798305
 20
7.367525430093344
 42
0.0
 10
24.40113165066077
 20
8.822424417415602
 42
-0.1989123673796652
 10
24.19610639749135
 20
9.317399164246186
 42
0.0
 97
        0
 92
        7
 72
     1
 73
     1
 93
       16
 10
28.92110639749131
 20
11.36250017692388
 42
0.414213562373103
 10
28.65860639749132
 20
11.62500017692389
 42
0.0
 10
27.78360639749132
 20
11.62500017692389
 42
0.4142135623730871
 10
27.52110639749133
 20
11.3625001769239
 42
0.0
 10
27.52110639749133
 20
4.975000176923881
 42
0.4142135623730926
 10
28.92110639749131
 20
3.575000176923893
 42
0.0
 10
30.67110639749131
 20
3.575000176923893
 42
0.4142135623731044
 10
32.07110639749135
 20
4.975000176923881
 42
0.0
 10
32.07110639749135
 20
11.36250017692389
 42
0.4142135623730951
 10
31.80860639749136
 20
11.62500017692389
 42
0.0
 10
30.9336063974913
 20
11.62500017692389
 42
0.4142135623730871
 10
30.67110639749131
 20
11.3625001769239
 42
0.0
 10
30.67110639749131
 20
5.500000176923879
 42
-0.414213562373088
 10
30.14610639749133
 20
4.975000176923892
 42
0.0
 10
29.44610639749134
 20
4.975000176923892
 42
-0.4142135623731197
 10
28.92110639749131
 20
5.500000176923879
 42
0.0
 97
        0
 92
        7
 72
     1
 73
     1
 93
        8
 10
34.52110639749133
 20
11.3625001769239
 42
0.4142135623730871
 10
34.25860639749135
 20
11.62500017692389
 42
0.0
 10
33.38360639749135
 20
11.62500017692389
 42
0.4142135623731507
 10
33.1211063974913
 20
11.3625001769239
 42
0.0
 10
33.1211063974913
 20
3.837500176923887
 42
0.4142135623730891
 10
33.38360639749129
 20
3.575000176923893
 42
0.0
 10
34.25860639749135
 20
3.575000176923893
 42
0.4142135623730891
 10
34.52110639749133
 20
3.837500176923887
 42
0.0
 97
        0
 75
     0
 76
     1
 52
0.0
 41
0.1
 77
     0
 78
     2
 53
45.0
 43
-450.4711518472387
 44
-6.599999823076075
 45
-0.2245064030267288
 46
0.2245064030267288
 79
     0
 53
135.0
 43
-450.4711518472387
 44
-6.599999823076075
 45
-0.2245064030267288
 46
-0.2245064030267288
 79
     0
 47
0.057451373970553
 98
        8
 10
8.039927801612407
 20
7.583586999866668
 10
11.20225782332033
 20
9.422031268149396
 10
12.58218426293058
 20
7.75594099995925
 10
15.45703031091932
 20
8.100649000144642
 10
20.91923632957912
 20
8.33045513391545
 10
23.44910076766552
 20
9.709288335127496
 10
28.27884330630093
 20
9.364579134471398
 10
33.91354012991212
 20
9.594385268242206
  0
LINE
  5
3FD0
330
1A
100
AcDbEntity
  8
ZUWAKU
100
AcDbLine
 10
12.47110639749132
 20
11.62500017692387
 30
0.0
 11
13.4336063974913
 21
11.62500017692389
 31
0.0
  0
LINE
  5
3FD1
330
1A
100
AcDbEntity
  8
ZUWAKU
100
AcDbLine
 10
13.4336063974913
 20
10.22500017692389
 30
0.0
 11
12.47110639749132
 21
10.22500017692389
 31
0.0
  0
LINE
  5
3FD2
330
1A
100
AcDbEntity
  8
ZUWAKU
100
AcDbLine
 10
12.47110639749132
 20
4.975000176923892
 30
0.0
 11
13.4336063974913
 21
4.975000176923892
 31
0.0
  0
LINE
  5
3FD3
330
1A
100
AcDbEntity
  8
ZUWAKU
100
AcDbLine
 10
13.4336063974913
 20
3.575000176923893
 30
0.0
 11
12.47110639749132
 21
3.575000176923893
 31
0.0
  0
CIRCLE
  5
3FD4
330
1A
100
AcDbEntity
  8
ZUWAKU
100
AcDbCircle
 10
12.9961063974913
 20
7.600000176923892
 30
0.0
 40
0.875
  0
ARC
  5
3FD5
330
1A
100
AcDbEntity
  8
ZUWAKU
100
AcDbCircle
 10
7.746106397491303
 20
9.317399164246243
 30
0.0
 40
0.7
100
AcDbArc
 50
180.0000000000016
 51
224.9999999999988
  0
LINE
  5
3FD6
330
1A
100
AcDbEntity
  8
ZUWAKU
100
AcDbLine
 10
11.77110639749133
 20
9.525000176923892
 30
0.0
 11
11.77110639749133
 21
5.675000176923894
 31
0.0
  0
LINE
  5
3FD7
330
1A
100
AcDbEntity
  8
ZUWAKU
100
AcDbLine
 10
10.3711063974913
 20
5.675000176923894
 30
0.0
 11
10.3711063974913
 21
9.525000176923871
 31
0.0
  0
ARC
  5
3FD8
330
1A
100
AcDbEntity
  8
ZUWAKU
100
AcDbCircle
 10
7.746106397491303
 20
9.317399164246243
 30
0.0
 40
2.099999999999999
100
AcDbArc
 50
180.0
 51
225.0
  0
ARC
  5
3FD9
330
1A
100
AcDbEntity
  8
ZUWAKU
100
AcDbCircle
 10
7.921106397491314
 20
4.975000176923892
 30
0.0
 40
1.399999999999999
100
AcDbArc
 50
270.0
 51
0.0
  0
ARC
  5
3FDA
330
1A
100
AcDbEntity
  8
ZUWAKU
100
AcDbCircle
 10
12.47110639749132
 20
5.675000176923894
 30
0.0
 40
2.099999999999999
100
AcDbArc
 50
180.0
 51
270.0
  0
ARC
  5
3FDB
330
1A
100
AcDbEntity
  8
ZUWAKU
100
AcDbCircle
 10
7.221106397491325
 20
5.882601189601544
 30
0.0
 40
2.099999999999999
100
AcDbArc
 50
0.0
 51
45.0
  0
LINE
  5
3FDC
330
1A
100
AcDbEntity
  8
ZUWAKU
100
AcDbLine
 10
8.706030637983076
 20
7.367525430093305
 30
0.0
 11
7.251131650660738
 21
8.822424417415643
 31
0.0
  0
LINE
  5
3FDD
330
1A
100
AcDbEntity
  8
ZUWAKU
100
AcDbLine
 10
7.921106397491314
 20
5.237500176923894
 30
0.0
 11
7.921106397491314
 21
5.882601189601565
 31
0.0
  0
ARC
  5
3FDE
330
1A
100
AcDbEntity
  8
ZUWAKU
100
AcDbCircle
 10
7.658606397491325
 20
5.237500176923894
 30
0.0
 40
0.2625
100
AcDbArc
 50
270.0
 51
0.0
  0
ARC
  5
3FDF
330
1A
100
AcDbEntity
  8
ZUWAKU
100
AcDbCircle
 10
7.221106397491325
 20
5.882601189601565
 30
0.0
 40
0.7
100
AcDbArc
 50
0.0
 51
45.0
  0
LINE
  5
3FE0
330
1A
100
AcDbEntity
  8
ZUWAKU
100
AcDbLine
 10
5.908606397491325
 20
3.837500176923892
 30
0.0
 11
5.908606397491325
 21
4.712500176923892
 31
0.0
  0
ARC
  5
3FE1
330
1A
100
AcDbEntity
  8
ZUWAKU
100
AcDbCircle
 10
6.171106397491314
 20
3.837500176923892
 30
0.0
 40
0.2625
100
AcDbArc
 50
180.0
 51
270.0
  0
ARC
  5
3FE2
330
1A
100
AcDbEntity
  8
ZUWAKU
100
AcDbCircle
 10
6.171106397491314
 20
4.712500176923892
 30
0.0
 40
0.2625
100
AcDbArc
 50
90.0
 51
180.0
  0
LINE
  5
3FE3
330
1A
100
AcDbEntity
  8
ZUWAKU
100
AcDbLine
 10
6.171106397491314
 20
3.575000176923893
 30
0.0
 11
7.921106397491314
 21
3.575000176923893
 31
0.0
  0
LINE
  5
3FE4
330
1A
100
AcDbEntity
  8
ZUWAKU
100
AcDbLine
 10
6.171106397491314
 20
4.975000176923892
 30
0.0
 11
7.658606397491325
 21
4.975000176923892
 31
0.0
  0
LINE
  5
3FE5
330
1A
100
AcDbEntity
  8
ZUWAKU
100
AcDbLine
 10
6.261182156999552
 20
7.832474923754482
 30
0.0
 11
7.71608114432189
 21
6.377575936432151
 31
0.0
  0
LINE
  5
3FE6
330
1A
100
AcDbEntity
  8
ZUWAKU
100
AcDbLine
 10
9.321106397491348
 20
4.975000176923892
 30
0.0
 11
9.321106397491348
 21
5.882601189601565
 31
0.0
  0
ARC
  5
3FE7
330
1A
100
AcDbEntity
  8
ZUWAKU
100
AcDbCircle
 10
12.47110639749132
 20
5.675000176923894
 30
0.0
 40
0.7
100
AcDbArc
 50
180.0
 51
270.0
  0
ARC
  5
3FE8
330
1A
100
AcDbEntity
  8
ZUWAKU
100
AcDbCircle
 10
8.796106397491314
 20
11.36250017692389
 30
0.0
 40
0.2625
100
AcDbArc
 50
0.0
 51
90.0
  0
ARC
  5
3FE9
330
1A
100
AcDbEntity
  8
ZUWAKU
100
AcDbCircle
 10
8.796106397491314
 20
10.48750017692389
 30
0.0
 40
0.2625
100
AcDbArc
 50
270.0
 51
0.0
  0
LINE
  5
3FEA
330
1A
100
AcDbEntity
  8
ZUWAKU
100
AcDbLine
 10
7.046106397491314
 20
11.62500017692389
 30
0.0
 11
8.796106397491314
 21
11.62500017692389
 31
0.0
  0
ARC
  5
3FEB
330
1A
100
AcDbEntity
  8
ZUWAKU
100
AcDbCircle
 10
7.308606397491303
 20
9.962500176923892
 30
0.0
 40
0.2625
100
AcDbArc
 50
90.0
 51
180.0
  0
LINE
  5
3FEC
330
1A
100
AcDbEntity
  8
ZUWAKU
100
AcDbLine
 10
7.046106397491314
 20
9.962500176923892
 30
0.0
 11
7.046106397491314
 21
9.317399164246221
 31
0.0
  0
LINE
  5
3FED
330
1A
100
AcDbEntity
  8
ZUWAKU
100
AcDbLine
 10
8.796106397491314
 20
10.22500017692389
 30
0.0
 11
7.308606397491303
 21
10.22500017692389
 31
0.0
  0
LINE
  5
3FEE
330
1A
100
AcDbEntity
  8
ZUWAKU
100
AcDbLine
 10
5.646106397491337
 20
10.22500017692389
 30
0.0
 11
5.646106397491337
 21
9.317399164246221
 31
0.0
  0
ARC
  5
3FEF
330
1A
100
AcDbEntity
  8
ZUWAKU
100
AcDbCircle
 10
7.046106397491314
 20
10.22500017692389
 30
0.0
 40
1.399999999999999
100
AcDbArc
 50
90.0
 51
180.0
  0
LINE
  5
3FF0
330
1A
100
AcDbEntity
  8
ZUWAKU
100
AcDbLine
 10
9.058606397491303
 20
11.36250017692389
 30
0.0
 11
9.058606397491303
 21
10.48750017692389
 31
0.0
  0
ARC
  5
3FF1
330
1A
100
AcDbEntity
  8
ZUWAKU
100
AcDbCircle
 10
12.47110639749132
 20
9.525000176923892
 30
0.0
 40
0.7
100
AcDbArc
 50
90.0
 51
180.0
  0
ARC
  5
3FF2
330
1A
100
AcDbEntity
  8
ZUWAKU
100
AcDbCircle
 10
12.47110639749132
 20
9.525000176923871
 30
0.0
 40
2.099999999999999
100
AcDbArc
 50
90.0
 51
180.0
  0
LINE
  5
3FF3
330
1A
100
AcDbEntity
  8
ZUWAKU
100
AcDbLine
 10
39.66331509409485
 20
15.00000017692389
 30
0.0
 11
39.66331509409497
 21
0.4000001769239248
 31
0.0
  0
LINE
  5
3FF4
330
1A
100
AcDbEntity
  8
ZUWAKU
100
AcDbLine
 10
39.76331509409487
 20
15.00000017692389
 30
0.0
 11
39.76331509409499
 21
0.4000001769239248
 31
0.0
  0
LINE
  5
3FF5
330
1A
100
AcDbEntity
  8
ZUWAKU
100
AcDbLine
 10
39.56331509409494
 20
15.00000017692389
 30
0.0
 11
39.56331509409494
 21
0.4000001769239248
 31
0.0
  0
LINE
  5
3FF6
330
1A
100
AcDbEntity
  8
ZUWAKU
100
AcDbLine
 10
32.07110639749135
 20
4.975000176923892
 30
0.0
 11
32.07110639749135
 21
11.36250017692389
 31
0.0
  0
LINE
  5
3FF7
330
1A
100
AcDbEntity
  8
ZUWAKU
100
AcDbLine
 10
30.67110639749131
 20
11.36250017692389
 30
0.0
 11
30.67110639749131
 21
5.50000017692389
 31
0.0
  0
LINE
  5
3FF8
330
1A
100
AcDbEntity
  8
ZUWAKU
100
AcDbLine
 10
34.52110639749133
 20
3.837500176923892
 30
0.0
 11
34.52110639749133
 21
11.36250017692389
 31
0.0
  0
LINE
  5
3FF9
330
1A
100
AcDbEntity
  8
ZUWAKU
100
AcDbLine
 10
33.1211063974913
 20
11.36250017692389
 30
0.0
 11
33.1211063974913
 21
3.837500176923892
 31
0.0
  0
ARC
  5
3FFA
330
1A
100
AcDbEntity
  8
ZUWAKU
100
AcDbCircle
 10
24.89610639749133
 20
9.317399164246243
 30
0.0
 40
0.7
100
AcDbArc
 50
180.0000000000016
 51
224.9999999999988
  0
ARC
  5
3FFB
330
1A
100
AcDbEntity
  8
ZUWAKU
100
AcDbCircle
 10
24.89610639749133
 20
9.317399164246243
 30
0.0
 40
2.099999999999999
100
AcDbArc
 50
180.0
 51
225.0
  0
LINE
  5
3FFC
330
1A
100
AcDbEntity
  8
ZUWAKU
100
AcDbLine
 10
18.65742963858031
 20
9.602523773705605
 30
0.0
 11
18.02505376591239
 21
7.600000176923902
 31
0.0
  0
LINE
  5
3FFD
330
1A
100
AcDbEntity
  8
ZUWAKU
100
AcDbLine
 10
20.34610639749132
 20
11.36250017692389
 30
0.0
 11
20.34610639749132
 21
3.837500176923892
 31
0.0
  0
LINE
  5
3FFE
330
1A
100
AcDbEntity
  8
ZUWAKU
100
AcDbLine
 10
21.7461063974913
 20
3.837500176923892
 30
0.0
 11
21.7461063974913
 21
11.36250017692389
 31
0.0
  0
LINE
  5
3FFF
330
1A
100
AcDbEntity
  8
ZUWAKU
100
AcDbLine
 10
27.52110639749133
 20
11.36250017692389
 30
0.0
 11
27.52110639749133
 21
4.975000176923892
 31
0.0
  0
LINE
  5
4000
330
1A
100
AcDbEntity
  8
ZUWAKU
100
AcDbLine
 10
28.92110639749131
 20
5.50000017692389
 30
0.0
 11
28.92110639749131
 21
11.36250017692389
 31
0.0
  0
LINE
  5
4001
330
1A
100
AcDbEntity
  8
ZUWAKU
100
AcDbLine
 10
16.32110639749134
 20
8.562500176923894
 30
0.0
 11
16.32110639749134
 21
11.36250017692389
 31
0.0
  0
LINE
  5
4002
330
1A
100
AcDbEntity
  8
ZUWAKU
100
AcDbLine
 10
14.92110639749131
 20
11.36250017692389
 30
0.0
 11
14.92110639749131
 21
3.837500176923892
 31
0.0
  0
LINE
  5
4003
330
1A
100
AcDbEntity
  8
ZUWAKU
100
AcDbLine
 10
17.83817386614924
 20
11.44154716100737
 30
0.0
 11
16.90403892883336
 21
8.483453192840407
 31
0.0
  0
LINE
  5
4004
330
1A
100
AcDbEntity
  8
ZUWAKU
100
AcDbLine
 10
30.14610639749133
 20
4.975000176923892
 30
0.0
 11
29.44610639749134
 21
4.975000176923892
 31
0.0
  0
LINE
  5
4005
330
1A
100
AcDbEntity
  8
ZUWAKU
100
AcDbLine
 10
28.92110639749131
 20
3.575000176923893
 30
0.0
 11
30.67110639749131
 21
3.575000176923893
 31
0.0
  0
LINE
  5
4006
330
1A
100
AcDbEntity
  8
ZUWAKU
100
AcDbLine
 10
20.60860639749131
 20
3.575000176923893
 30
0.0
 11
21.48360639749131
 21
3.575000176923893
 31
0.0
  0
LINE
  5
4007
330
1A
100
AcDbEntity
  8
ZUWAKU
100
AcDbLine
 10
17.83817386614924
 20
3.758453192840406
 30
0.0
 11
16.90403892883336
 21
6.716547161007376
 31
0.0
  0
ARC
  5
4008
330
1A
100
AcDbEntity
  8
ZUWAKU
100
AcDbCircle
 10
16.65372347923567
 20
8.562500176923894
 30
0.0
 40
0.2625
100
AcDbArc
 50
270.0
 51
342.4744316262769
  0
LINE
  5
4009
330
1A
100
AcDbEntity
  8
ZUWAKU
100
AcDbLine
 10
16.65372347923567
 20
8.300000176923891
 30
0.0
 11
16.58360639749133
 21
8.300000176923891
 31
0.0
  0
LINE
  5
400A
330
1A
100
AcDbEntity
  8
ZUWAKU
100
AcDbLine
 10
16.58360639749133
 20
6.900000176923892
 30
0.0
 11
16.65372347923567
 21
6.900000176923892
 31
0.0
  0
ARC
  5
400B
330
1A
100
AcDbEntity
  8
ZUWAKU
100
AcDbCircle
 10
16.58360639749133
 20
8.562500176923894
 30
0.0
 40
0.2625
100
AcDbArc
 50
180.0
 51
270.0
  0
LINE
  5
400C
330
1A
100
AcDbEntity
  8
ZUWAKU
100
AcDbLine
 10
15.1836063974913
 20
3.575000176923893
 30
0.0
 11
16.0586063974913
 21
3.575000176923893
 31
0.0
  0
ARC
  5
400D
330
1A
100
AcDbEntity
  8
ZUWAKU
100
AcDbCircle
 10
16.0586063974913
 20
3.837500176923892
 30
0.0
 40
0.2625
100
AcDbArc
 50
270.0
 51
0.0
  0
LINE
  5
400E
330
1A
100
AcDbEntity
  8
ZUWAKU
100
AcDbLine
 10
16.32110639749134
 20
3.837500176923892
 30
0.0
 11
16.32110639749134
 21
6.637500176923893
 31
0.0
  0
LINE
  5
400F
330
1A
100
AcDbEntity
  8
ZUWAKU
100
AcDbLine
 10
13.69610639749134
 20
4.712500176923892
 30
0.0
 11
13.69610639749134
 21
3.837500176923892
 31
0.0
  0
ARC
  5
4010
330
1A
100
AcDbEntity
  8
ZUWAKU
100
AcDbCircle
 10
13.4336063974913
 20
3.837500176923892
 30
0.0
 40
0.2625
100
AcDbArc
 50
270.0
 51
0.0
  0
ARC
  5
4011
330
1A
100
AcDbEntity
  8
ZUWAKU
100
AcDbCircle
 10
13.4336063974913
 20
4.712500176923892
 30
0.0
 40
0.2625
100
AcDbArc
 50
0.0
 51
90.0
  0
ARC
  5
4012
330
1A
100
AcDbEntity
  8
ZUWAKU
100
AcDbCircle
 10
15.1836063974913
 20
3.837500176923892
 30
0.0
 40
0.2625
100
AcDbArc
 50
180.0
 51
270.0
  0
ARC
  5
4013
330
1A
100
AcDbEntity
  8
ZUWAKU
100
AcDbCircle
 10
16.65372347923567
 20
6.637500176923893
 30
0.0
 40
0.2625
100
AcDbArc
 50
17.52556837372303
 51
90.0
  0
ARC
  5
4014
330
1A
100
AcDbEntity
  8
ZUWAKU
100
AcDbCircle
 10
16.58360639749133
 20
6.637500176923893
 30
0.0
 40
0.2625
100
AcDbArc
 50
90.0
 51
180.0
  0
ARC
  5
4015
330
1A
100
AcDbEntity
  8
ZUWAKU
100
AcDbCircle
 10
20.60860639749131
 20
3.837500176923892
 30
0.0
 40
0.2625
100
AcDbArc
 50
180.0
 51
270.0
  0
LINE
  5
4016
330
1A
100
AcDbEntity
  8
ZUWAKU
100
AcDbLine
 10
18.08848931574698
 20
3.575000176923893
 30
0.0
 11
18.93793400555148
 21
3.575000176923893
 31
0.0
  0
ARC
  5
4017
330
1A
100
AcDbEntity
  8
ZUWAKU
100
AcDbCircle
 10
18.93793400555148
 20
3.837500176923892
 30
0.0
 40
0.2625
100
AcDbArc
 50
270.0
 51
17.52556837372303
  0
LINE
  5
4018
330
1A
100
AcDbEntity
  8
ZUWAKU
100
AcDbLine
 10
19.18824945514922
 20
3.916547161007379
 30
0.0
 11
18.02505376591239
 21
7.600000176923902
 31
0.0
  0
ARC
  5
4019
330
1A
100
AcDbEntity
  8
ZUWAKU
100
AcDbCircle
 10
18.08848931574698
 20
3.837500176923892
 30
0.0
 40
0.2625
100
AcDbArc
 50
197.525568373723
 51
270.0
  0
ARC
  5
401A
330
1A
100
AcDbEntity
  8
ZUWAKU
100
AcDbCircle
 10
28.92110639749131
 20
4.975000176923892
 30
0.0
 40
1.399999999999999
100
AcDbArc
 50
180.0
 51
270.0
  0
ARC
  5
401B
330
1A
100
AcDbEntity
  8
ZUWAKU
100
AcDbCircle
 10
25.07110639749134
 20
4.975000176923892
 30
0.0
 40
1.399999999999999
100
AcDbArc
 50
270.0
 51
0.0
  0
LINE
  5
401C
330
1A
100
AcDbEntity
  8
ZUWAKU
100
AcDbLine
 10
25.85603063798311
 20
7.367525430093305
 30
0.0
 11
24.40113165066071
 21
8.822424417415643
 31
0.0
  0
LINE
  5
401D
330
1A
100
AcDbEntity
  8
ZUWAKU
100
AcDbLine
 10
25.07110639749134
 20
5.237500176923894
 30
0.0
 11
25.07110639749134
 21
5.882601189601565
 31
0.0
  0
ARC
  5
401E
330
1A
100
AcDbEntity
  8
ZUWAKU
100
AcDbCircle
 10
24.3711063974913
 20
5.882601189601565
 30
0.0
 40
0.7
100
AcDbArc
 50
0.0
 51
45.0
  0
ARC
  5
401F
330
1A
100
AcDbEntity
  8
ZUWAKU
100
AcDbCircle
 10
24.8086063974913
 20
5.237500176923894
 30
0.0
 40
0.2625
100
AcDbArc
 50
270.0
 51
0.0
  0
LINE
  5
4020
330
1A
100
AcDbEntity
  8
ZUWAKU
100
AcDbLine
 10
23.0586063974913
 20
3.837500176923892
 30
0.0
 11
23.0586063974913
 21
4.712500176923892
 31
0.0
  0
ARC
  5
4021
330
1A
100
AcDbEntity
  8
ZUWAKU
100
AcDbCircle
 10
23.32110639749135
 20
3.837500176923892
 30
0.0
 40
0.2625
100
AcDbArc
 50
180.0
 51
270.0
  0
ARC
  5
4022
330
1A
100
AcDbEntity
  8
ZUWAKU
100
AcDbCircle
 10
21.48360639749131
 20
3.837500176923892
 30
0.0
 40
0.2625
100
AcDbArc
 50
270.0
 51
0.0
  0
ARC
  5
4023
330
1A
100
AcDbEntity
  8
ZUWAKU
100
AcDbCircle
 10
23.32110639749135
 20
4.712500176923892
 30
0.0
 40
0.2625
100
AcDbArc
 50
90.0
 51
180.0
  0
LINE
  5
4024
330
1A
100
AcDbEntity
  8
ZUWAKU
100
AcDbLine
 10
23.32110639749135
 20
4.975000176923892
 30
0.0
 11
24.8086063974913
 21
4.975000176923892
 31
0.0
  0
LINE
  5
4025
330
1A
100
AcDbEntity
  8
ZUWAKU
100
AcDbLine
 10
23.32110639749135
 20
3.575000176923893
 30
0.0
 11
25.07110639749134
 21
3.575000176923893
 31
0.0
  0
LINE
  5
4026
330
1A
100
AcDbEntity
  8
ZUWAKU
100
AcDbLine
 10
23.41118215699958
 20
7.832474923754482
 30
0.0
 11
24.86608114432192
 21
6.377575936432151
 31
0.0
  0
LINE
  5
4027
330
1A
100
AcDbEntity
  8
ZUWAKU
100
AcDbLine
 10
26.47110639749132
 20
4.975000176923892
 30
0.0
 11
26.47110639749132
 21
5.882601189601565
 31
0.0
  0
ARC
  5
4028
330
1A
100
AcDbEntity
  8
ZUWAKU
100
AcDbCircle
 10
24.3711063974913
 20
5.882601189601544
 30
0.0
 40
2.099999999999999
100
AcDbArc
 50
0.0
 51
45.0
  0
ARC
  5
4029
330
1A
100
AcDbEntity
  8
ZUWAKU
100
AcDbCircle
 10
29.44610639749134
 20
5.50000017692389
 30
0.0
 40
0.525
100
AcDbArc
 50
180.0
 51
270.0
  0
ARC
  5
402A
330
1A
100
AcDbEntity
  8
ZUWAKU
100
AcDbCircle
 10
30.67110639749131
 20
4.975000176923892
 30
0.0
 40
1.399999999999999
100
AcDbArc
 50
270.0
 51
0.0
  0
LINE
  5
402B
330
1A
100
AcDbEntity
  8
ZUWAKU
100
AcDbLine
 10
33.38360639749135
 20
3.575000176923893
 30
0.0
 11
34.25860639749135
 21
3.575000176923893
 31
0.0
  0
ARC
  5
402C
330
1A
100
AcDbEntity
  8
ZUWAKU
100
AcDbCircle
 10
33.38360639749135
 20
3.837500176923892
 30
0.0
 40
0.2625
100
AcDbArc
 50
180.0
 51
270.0
  0
ARC
  5
402D
330
1A
100
AcDbEntity
  8
ZUWAKU
100
AcDbCircle
 10
30.14610639749133
 20
5.50000017692389
 30
0.0
 40
0.525
100
AcDbArc
 50
270.0
 51
0.0
  0
ARC
  5
402E
330
1A
100
AcDbEntity
  8
ZUWAKU
100
AcDbCircle
 10
34.25860639749135
 20
3.837500176923892
 30
0.0
 40
0.2625
100
AcDbArc
 50
270.0
 51
0.0
  0
LINE
  5
402F
330
1A
100
AcDbEntity
  8
ZUWAKU
100
AcDbLine
 10
21.48360639749131
 20
11.62500017692389
 30
0.0
 11
20.60860639749131
 21
11.62500017692389
 31
0.0
  0
ARC
  5
4030
330
1A
100
AcDbEntity
  8
ZUWAKU
100
AcDbCircle
 10
16.0586063974913
 20
11.36250017692389
 30
0.0
 40
0.2625
100
AcDbArc
 50
0.0
 51
90.0
  0
LINE
  5
4031
330
1A
100
AcDbEntity
  8
ZUWAKU
100
AcDbLine
 10
16.0586063974913
 20
11.62500017692389
 30
0.0
 11
15.1836063974913
 21
11.62500017692389
 31
0.0
  0
ARC
  5
4032
330
1A
100
AcDbEntity
  8
ZUWAKU
100
AcDbCircle
 10
13.4336063974913
 20
11.36250017692389
 30
0.0
 40
0.2625
100
AcDbArc
 50
0.0
 51
90.0
  0
ARC
  5
4033
330
1A
100
AcDbEntity
  8
ZUWAKU
100
AcDbCircle
 10
15.1836063974913
 20
11.36250017692389
 30
0.0
 40
0.2625
100
AcDbArc
 50
90.0
 51
180.0
  0
ARC
  5
4034
330
1A
100
AcDbEntity
  8
ZUWAKU
100
AcDbCircle
 10
13.4336063974913
 20
10.48750017692389
 30
0.0
 40
0.2625
100
AcDbArc
 50
270.0
 51
0.0
  0
LINE
  5
4035
330
1A
100
AcDbEntity
  8
ZUWAKU
100
AcDbLine
 10
13.69610639749134
 20
11.36250017692389
 30
0.0
 11
13.69610639749134
 21
10.48750017692389
 31
0.0
  0
ARC
  5
4036
330
1A
100
AcDbEntity
  8
ZUWAKU
100
AcDbCircle
 10
20.60860639749131
 20
11.36250017692389
 30
0.0
 40
0.2625
100
AcDbArc
 50
90.0
 51
180.0
  0
LINE
  5
4037
330
1A
100
AcDbEntity
  8
ZUWAKU
100
AcDbLine
 10
18.08848931574698
 20
11.62500017692389
 30
0.0
 11
18.93793400555148
 21
11.62500017692389
 31
0.0
  0
ARC
  5
4038
330
1A
100
AcDbEntity
  8
ZUWAKU
100
AcDbCircle
 10
18.93793400555148
 20
11.36250017692389
 30
0.0
 40
0.2625
100
AcDbArc
 50
342.4744316262769
 51
90.0
  0
LINE
  5
4039
330
1A
100
AcDbEntity
  8
ZUWAKU
100
AcDbLine
 10
19.18824945514922
 20
11.2834531928404
 30
0.0
 11
18.65742963858031
 21
9.602523773705605
 31
0.0
  0
ARC
  5
403A
330
1A
100
AcDbEntity
  8
ZUWAKU
100
AcDbCircle
 10
18.08848931574698
 20
11.36250017692389
 30
0.0
 40
0.2625
100
AcDbArc
 50
90.0
 51
162.4744316262769
  0
LINE
  5
403B
330
1A
100
AcDbEntity
  8
ZUWAKU
100
AcDbLine
 10
24.19610639749135
 20
11.62500017692389
 30
0.0
 11
25.94610639749134
 21
11.62500017692389
 31
0.0
  0
LINE
  5
403C
330
1A
100
AcDbEntity
  8
ZUWAKU
100
AcDbLine
 10
25.94610639749134
 20
10.22500017692389
 30
0.0
 11
24.45860639749133
 21
10.22500017692389
 31
0.0
  0
ARC
  5
403D
330
1A
100
AcDbEntity
  8
ZUWAKU
100
AcDbCircle
 10
24.45860639749133
 20
9.962500176923892
 30
0.0
 40
0.2625
100
AcDbArc
 50
90.0
 51
180.0
  0
LINE
  5
403E
330
1A
100
AcDbEntity
  8
ZUWAKU
100
AcDbLine
 10
24.19610639749135
 20
9.962500176923892
 30
0.0
 11
24.19610639749135
 21
9.317399164246221
 31
0.0
  0
ARC
  5
403F
330
1A
100
AcDbEntity
  8
ZUWAKU
100
AcDbCircle
 10
21.48360639749131
 20
11.36250017692389
 30
0.0
 40
0.2625
100
AcDbArc
 50
0.0
 51
90.0
  0
LINE
  5
4040
330
1A
100
AcDbEntity
  8
ZUWAKU
100
AcDbLine
 10
22.79610639749131
 20
10.22500017692389
 30
0.0
 11
22.79610639749131
 21
9.317399164246221
 31
0.0
  0
ARC
  5
4041
330
1A
100
AcDbEntity
  8
ZUWAKU
100
AcDbCircle
 10
24.19610639749135
 20
10.22500017692389
 30
0.0
 40
1.399999999999999
100
AcDbArc
 50
90.0
 51
180.0
  0
ARC
  5
4042
330
1A
100
AcDbEntity
  8
ZUWAKU
100
AcDbCircle
 10
28.65860639749132
 20
11.36250017692389
 30
0.0
 40
0.2625
100
AcDbArc
 50
0.0
 51
90.0
  0
ARC
  5
4043
330
1A
100
AcDbEntity
  8
ZUWAKU
100
AcDbCircle
 10
27.78360639749132
 20
11.36250017692389
 30
0.0
 40
0.2625
100
AcDbArc
 50
90.0
 51
180.0
  0
LINE
  5
4044
330
1A
100
AcDbEntity
  8
ZUWAKU
100
AcDbLine
 10
28.65860639749132
 20
11.62500017692389
 30
0.0
 11
27.78360639749132
 21
11.62500017692389
 31
0.0
  0
ARC
  5
4045
330
1A
100
AcDbEntity
  8
ZUWAKU
100
AcDbCircle
 10
25.94610639749134
 20
11.36250017692389
 30
0.0
 40
0.2625
100
AcDbArc
 50
0.0
 51
90.0
  0
ARC
  5
4046
330
1A
100
AcDbEntity
  8
ZUWAKU
100
AcDbCircle
 10
25.94610639749134
 20
10.48750017692389
 30
0.0
 40
0.2625
100
AcDbArc
 50
270.0
 51
0.0
  0
LINE
  5
4047
330
1A
100
AcDbEntity
  8
ZUWAKU
100
AcDbLine
 10
26.20860639749134
 20
11.36250017692389
 30
0.0
 11
26.20860639749134
 21
10.48750017692389
 31
0.0
  0
LINE
  5
4048
330
1A
100
AcDbEntity
  8
ZUWAKU
100
AcDbLine
 10
34.25860639749135
 20
11.62500017692389
 30
0.0
 11
33.38360639749135
 21
11.62500017692389
 31
0.0
  0
ARC
  5
4049
330
1A
100
AcDbEntity
  8
ZUWAKU
100
AcDbCircle
 10
33.38360639749135
 20
11.36250017692389
 30
0.0
 40
0.2625
100
AcDbArc
 50
90.0
 51
180.0
  0
ARC
  5
404A
330
1A
100
AcDbEntity
  8
ZUWAKU
100
AcDbCircle
 10
31.8086063974913
 20
11.36250017692389
 30
0.0
 40
0.2625
100
AcDbArc
 50
0.0
 51
90.0
  0
LINE
  5
404B
330
1A
100
AcDbEntity
  8
ZUWAKU
100
AcDbLine
 10
31.8086063974913
 20
11.62500017692389
 30
0.0
 11
30.9336063974913
 21
11.62500017692389
 31
0.0
  0
ARC
  5
404C
330
1A
100
AcDbEntity
  8
ZUWAKU
100
AcDbCircle
 10
30.9336063974913
 20
11.36250017692389
 30
0.0
 40
0.2625
100
AcDbArc
 50
90.0
 51
180.0
  0
ARC
  5
404D
330
1A
100
AcDbEntity
  8
ZUWAKU
100
AcDbCircle
 10
34.25860639749135
 20
11.36250017692389
 30
0.0
 40
0.2625
100
AcDbArc
 50
0.0
 51
90.0
  0
TEXT
  5
404E
330
1A
100
AcDbEntity
  8
MOJI
100
AcDbText
 10
119.9136016605262
 20
9.002460705627584
 30
0.0
 40
2.799999999999999
  1
ブラケット正面打（吊）ワンタッチ自在式
 41
0.9
  7
ｽﾀｲﾙ1
100
AcDbText
  0
TEXT
  5
404F
330
1A
100
AcDbEntity
  8
MOJI
100
AcDbText
 10
119.9136016605262
 20
1.602460705627601
 30
0.0
 40
2.799999999999999
  1
ＲＶ１０５－５－１０～４５
 41
0.9
  7
ｽﾀｲﾙ1
100
AcDbText
  0
LINE
  5
4050
330
1A
100
AcDbEntity
  8
ZUWAKU
100
AcDbLine
 10
104.1233009651347
 20
15.00000017692389
 30
0.0
 11
104.1233009651347
 21
0.4000001769239248
 31
0.0
  0
LINE
  5
4051
330
1A
100
AcDbEntity
  8
ZUWAKU
100
AcDbLine
 10
104.3233009651346
 20
15.00000017692389
 30
0.0
 11
104.3233009651347
 21
0.4000001769239248
 31
0.0
  0
LINE
  5
4052
330
1A
100
AcDbEntity
  8
ZUWAKU
100
AcDbLine
 10
104.2233009651346
 20
15.00000017692389
 30
0.0
 11
104.2233009651347
 21
0.4000001769239248
 31
0.0
  0
TEXT
  5
4053
330
1A
100
AcDbEntity
  8
ZUWAKU
100
AcDbText
 10
104.8620234762395
 20
4.827678446116699
 30
0.0
 40
2.0
  1
サイズ
 41
0.9
  7
ｽﾀｲﾙ1
100
AcDbText
  0
TEXT
  5
4054
330
1A
100
AcDbEntity
  8
ZUWAKU
100
AcDbText
 10
104.8620234762394
 20
12.02767844611668
 30
0.0
 40
2.0
  1
品名
 41
0.9
  7
ｽﾀｲﾙ1
100
AcDbText
  0
LINE
  5
4055
330
1A
100
AcDbEntity
  8
ZUWAKU
100
AcDbLine
 10
324.4086015752028
 20
7.600000176923906
 30
0.0
 11
348.6245055943713
 21
7.600000176923908
 31
0.0
  0
LINE
  5
4056
330
1A
100
AcDbEntity
  8
ZUWAKU
100
AcDbLine
 10
324.4086015752029
 20
7.700000176923909
 30
0.0
 11
348.6245055943713
 21
7.700000176923907
 31
0.0
  0
LINE
  5
4057
330
1A
100
AcDbEntity
  8
ZUWAKU
100
AcDbLine
 10
324.4086015752028
 20
7.800000176923907
 30
0.0
 11
348.6245055943713
 21
7.800000176923907
 31
0.0
  0
TEXT
  5
4058
330
1A
100
AcDbEntity
  8
ZUWAKU
100
AcDbText
 10
329.1019691637519
 20
9.002460705627584
 30
0.0
 40
2.799999999999999
  1
　　．　　．　　
 41
0.9
  7
ｽﾀｲﾙ1
100
AcDbText
  0
LINE
  5
4059
330
1A
100
AcDbEntity
  8
ZUWAKU
100
AcDbLine
 10
252.5995900691711
 20
7.600000176923909
 30
0.0
 11
276.2634782031569
 21
7.600000176923909
 31
0.0
  0
LINE
  5
405A
330
1A
100
AcDbEntity
  8
ZUWAKU
100
AcDbLine
 10
252.5995900691711
 20
7.700000176923907
 30
0.0
 11
276.2634782031569
 21
7.700000176923907
 31
0.0
  0
LINE
  5
405B
330
1A
100
AcDbEntity
  8
ZUWAKU
100
AcDbLine
 10
252.5995900691711
 20
7.800000176923907
 30
0.0
 11
276.2634782031569
 21
7.800000176923907
 31
0.0
  0
TEXT
  5
405C
330
1A
100
AcDbEntity
  8
MOJI
100
AcDbText
 10
231.283639481095
 20
5.971309037753883
 30
0.0
 40
2.799999999999999
  1
ＬＫ１３Ｔ
 41
0.9
  7
ｽﾀｲﾙ1
100
AcDbText
  0
LINE
  5
405D
330
1A
100
AcDbEntity
  8
ZUWAKU
100
AcDbLine
 10
223.8121823055963
 20
15.00000017692389
 30
0.0
 11
223.8121823055964
 21
0.4000001769239248
 31
0.0
  0
LINE
  5
405E
330
1A
100
AcDbEntity
  8
ZUWAKU
100
AcDbLine
 10
223.9121823055963
 20
15.00000017692389
 30
0.0
 11
223.9121823055965
 21
0.4000001769239248
 31
0.0
  0
LINE
  5
405F
330
1A
100
AcDbEntity
  8
ZUWAKU
100
AcDbLine
 10
223.7121823055964
 20
15.00000017692389
 30
0.0
 11
223.7121823055964
 21
0.4000001769239248
 31
0.0
  0
TEXT
  5
4060
330
1A
100
AcDbEntity
  8
MOJI
100
AcDbText
 10
264.0204543062572
 20
9.002460705627584
 30
0.0
 40
2.799999999999999
  1
Ａ３
 41
0.9
  7
ｽﾀｲﾙ1
100
AcDbText
  0
LINE
  5
4061
330
1A
100
AcDbEntity
  8
ZUWAKU
100
AcDbLine
 10
252.4995900691711
 20
15.00000017692389
 30
0.0
 11
252.4995900691712
 21
0.4000001769239248
 31
0.0
  0
LINE
  5
4062
330
1A
100
AcDbEntity
  8
ZUWAKU
100
AcDbLine
 10
252.5995900691711
 20
15.00000017692389
 30
0.0
 11
252.5995900691713
 21
0.4000001769239248
 31
0.0
  0
LINE
  5
4063
330
1A
100
AcDbEntity
  8
ZUWAKU
100
AcDbLine
 10
252.3995900691712
 20
15.00000017692389
 30
0.0
 11
252.3995900691712
 21
0.4000001769239248
 31
0.0
  0
TEXT
  5
4064
330
1A
100
AcDbEntity
  8
ZUWAKU
100
AcDbText
 10
253.3383125802761
 20
4.827678446116699
 30
0.0
 40
2.0
  1
縮尺
 41
0.9
  7
ｽﾀｲﾙ1
100
AcDbText
  0
TEXT
  5
4065
330
1A
100
AcDbEntity
  8
MOJI
100
AcDbText
 10
264.0204543062572
 20
1.602460705627601
 30
0.0
 40
2.799999999999999
  1
１/１
 41
0.9
  7
ｽﾀｲﾙ1
100
AcDbText
  0
TEXT
  5
4066
330
1A
100
AcDbEntity
  8
ZUWAKU
100
AcDbText
 10
224.6509048167012
 20
12.02767844611668
 30
0.0
 40
2.0
  1
品番
 41
0.9
  7
ｽﾀｲﾙ1
100
AcDbText
  0
TEXT
  5
4067
330
1A
100
AcDbEntity
  8
ZUWAKU
100
AcDbText
 10
253.338312580276
 20
12.02767844611668
 30
0.0
 40
2.0
  1
用紙
 41
0.9
  7
ｽﾀｲﾙ1
100
AcDbText
  0
LINE
  5
4068
330
1A
100
AcDbEntity
  8
ZUWAKU
100
AcDbLine
 10
324.3086015752029
 20
15.00000017692389
 30
0.0
 11
324.308601575203
 21
0.4000001769239248
 31
0.0
  0
LINE
  5
4069
330
1A
100
AcDbEntity
  8
ZUWAKU
100
AcDbLine
 10
324.4086015752029
 20
15.00000017692389
 30
0.0
 11
324.4086015752031
 21
0.4000001769239248
 31
0.0
  0
LINE
  5
406A
330
1A
100
AcDbEntity
  8
ZUWAKU
100
AcDbLine
 10
324.208601575203
 20
15.00000017692389
 30
0.0
 11
324.208601575203
 21
0.4000001769239248
 31
0.0
  0
LINE
  5
406B
330
1A
100
AcDbEntity
  8
ZUWAKU
100
AcDbLine
 10
276.3634782031568
 20
15.00000017692389
 30
0.0
 11
276.3634782031569
 21
0.4000001769239248
 31
0.0
  0
LINE
  5
406C
330
1A
100
AcDbEntity
  8
ZUWAKU
100
AcDbLine
 10
276.4634782031569
 20
15.00000017692389
 30
0.0
 11
276.463478203157
 21
0.4000001769239248
 31
0.0
  0
LINE
  5
406D
330
1A
100
AcDbEntity
  8
ZUWAKU
100
AcDbLine
 10
276.2634782031569
 20
15.00000017692389
 30
0.0
 11
276.2634782031569
 21
0.4000001769239248
 31
0.0
  0
TEXT
  5
406E
330
1A
100
AcDbEntity
  8
ZUWAKU
100
AcDbText
 10
325.1473240863077
 20
12.02767844611668
 30
0.0
 40
2.0
  1
DATE
 41
0.9
  7
ｽﾀｲﾙ1
100
AcDbText
  0
LINE
  5
406F
330
1A
100
AcDbEntity
  8
ZUWAKU
100
AcDbLine
 10
348.6245055943713
 20
15.00000017692389
 30
0.0
 11
348.6245055943713
 21
0.4000001769239248
 31
0.0
  0
LINE
  5
4070
330
1A
100
AcDbEntity
  8
ZUWAKU
100
AcDbLine
 10
348.7245055943714
 20
15.00000017692389
 30
0.0
 11
348.7245055943714
 21
0.4000001769239248
 31
0.0
  0
LINE
  5
4071
330
1A
100
AcDbEntity
  8
ZUWAKU
100
AcDbLine
 10
348.8245055943713
 20
15.00000017692389
 30
0.0
 11
348.8245055943714
 21
0.4000001769239248
 31
0.0
  0
LINE
  5
4072
330
1A
100
AcDbEntity
  8
ZUWAKU
100
AcDbLine
 10
348.9245055943713
 20
15.00000017692389
 30
0.0
 11
348.9245055943714
 21
0.4000001769239248
 31
0.0
  0
TEXT
  5
4073
330
1A
100
AcDbEntity
  8
ZUWAKU
100
AcDbText
 10
354.2640424162226
 20
8.776919844767292
 30
0.0
 40
3.0
  1
積水化学工業株式会社
 41
0.9
  7
ｽﾀｲﾙ1
100
AcDbText
  0
TEXT
  5
4074
330
1A
100
AcDbEntity
  8
ZUWAKU
100
AcDbText
 10
354.2640424162226
 20
3.324420333850923
 30
0.0
 40
3.0
  1
建材事業部
 41
0.9
  7
ｽﾀｲﾙ1
100
AcDbText
  0
VIEWPORT
  5
22
330
17
100
AcDbEntity
 67
     1
  8
0
100
AcDbViewport
 10
313.6808219178082
 20
148.5
 30
0.0
 40
627.3616438356165
 41
297.0
 68
     2
 69
     1
1001
ACAD
1000
MVIEW
1002
{
1070
    16
1010
0.0
1020
0.0
1030
0.0
1010
0.0
1020
0.0
1030
1.0
1040
0.0
1040
297.0
1040
313.6808219178082
1040
148.5
1040
50.0
1040
0.0
1040
0.0
1070
     0
1070
   100
1070
     1
1070
     0
1070
     0
1070
     0
1070
     0
1070
     0
1040
0.0
1040
0.0
1040
0.0
1040
1.0
1040
1.0
1040
10.0
1040
10.0
1070
     0
1002
{
1002
}
1002
}
  0
VIEWPORT
  5
64
330
17
100
AcDbEntity
 67
     1
  8
VIEWPORT
100
AcDbViewport
 10
210.0
 20
148.5
 30
0.0
 40
420.0
 41
297.0
 68
     1
 69
     2
1001
ACAD
1000
MVIEW
1002
{
1070
    16
1010
0.0
1020
0.0
1030
0.0
1010
0.0
1020
0.0
1030
1.0
1040
0.0
1040
302.9399999999998
1040
210.0
1040
148.5
1040
50.0
1040
0.0
1040
0.0
1070
     0
1070
   100
1070
     1
1070
     0
1070
     0
1070
     0
1070
     0
1070
     0
1040
0.0
1040
0.0
1040
0.0
1040
5.0
1040
5.0
1040
0.0
1040
0.0
1070
     0
1002
{
1002
}
1002
}
  0
ENDSEC
  0
SECTION
  2
OBJECTS
  0
DICTIONARY
  5
C
330
0
100
AcDbDictionary
  3
ACAD_GROUP
350
D
  3
ACAD_LAYOUT
350
141
  3
ACAD_MLINESTYLE
350
E
  3
ACAD_PLOTSETTINGS
350
142
  3
ACAD_PLOTSTYLENAME
350
13F
  3
ACDBHEADERROUNDTRIPXREC
350
4109
  0
DICTIONARY
  5
73C
330
1A
100
AcDbDictionary
280
     1
  3
ACAD_LAYOUTSELFREF
360
412B
  0
DICTIONARY
  5
73A
330
17
100
AcDbDictionary
280
     1
  3
ACAD_LAYOUTSELFREF
360
412A
  0
DICTIONARY
  5
D
102
{ACAD_REACTORS
330
C
102
}
330
C
100
AcDbDictionary
  0
DICTIONARY
  5
141
102
{ACAD_REACTORS
330
C
102
}
330
C
100
AcDbDictionary
  0
DICTIONARY
  5
E
102
{ACAD_REACTORS
330
C
102
}
330
C
100
AcDbDictionary
  3
STANDARD
350
13
  0
DICTIONARY
  5
142
102
{ACAD_REACTORS
330
C
102
}
330
C
100
AcDbDictionary
  0
ACDBDICTIONARYWDFLT
  5
13F
102
{ACAD_REACTORS
330
C
102
}
330
C
100
AcDbDictionary
281
     1
  3
Normal
350
140
100
AcDbDictionaryWithDefault
340
140
1001
ACAD
1000
TREAT_AS_HARD
1070
     0
1000
TREAT_AS_HARD
1070
     0
1000
TREAT_AS_HARD
1070
     0
1000
TREAT_AS_HARD
1070
     0
1000
TREAT_AS_HARD
1070
     0
1000
TREAT_AS_HARD
1070
     0
1000
TREAT_AS_HARD
1070
     0
1000
TREAT_AS_HARD
1070
     0
1000
TREAT_AS_HARD
1070
     0
  0
DICTIONARY
  5
4109
102
{ACAD_REACTORS
330
C
102
}
330
C
100
AcDbDictionary
  3
TSTACKALIGN
350
410A
  3
TSTACKSIZE
350
410B
  3
HYPERLINKBASE
350
410C
  3
STYLESHEET
350
410D
  3
LAYOUTDICT
350
410E
  3
PLOTSETDICT
350
410F
  3
PLOTSTYLNAMDICT
350
4110
  3
LWETCUNION
350
4111
  3
INSUNITS
350
4112
  3
CEPSNTYPE
350
4113
  3
FINGERPRINTGUID
350
4114
  3
VERSIONGUID
350
4115
  3
PSVPSCALE
350
4116
  3
DIMSTYLEDATA
350
4117
  3
PUCSORTHOREF
350
4118
  3
PUCSORTHOVIEW
350
4119
  3
PUCSBASE
350
411A
  3
PUCSORGTOP
350
411B
  3
PUCSORGBOTTOM
350
411C
  3
PUCSORGLEFT
350
411D
  3
PUCSORGRIGHT
350
411E
  3
PUCSORGFRONT
350
411F
  3
PUCSORGBACK
350
4120
  3
UCSORTHOREF
350
4121
  3
UCSORTHOVIEW
350
4122
  3
UCSBASE
350
4123
  3
UCSORGTOP
350
4124
  3
UCSORGBOTTOM
350
4125
  3
UCSORGLEFT
350
4126
  3
UCSORGRIGHT
350
4127
  3
UCSORGFRONT
350
4128
  3
UCSORGBACK
350
4129
  0
XRECORD
  5
412B
102
{ACAD_REACTORS
330
73C
102
}
330
73C
100
AcDbXrecord
340
1A
  0
XRECORD
  5
412A
102
{ACAD_REACTORS
330
73A
102
}
330
73A
100
AcDbXrecord
340
17
  0
MLINESTYLE
  5
13
102
{ACAD_REACTORS
330
E
102
}
330
E
100
AcDbMlineStyle
  2
STANDARD
 70
     0
  3

 62
     0
 51
90.0
 52
90.0
 71
     2
 49
0.5
 62
   256
  6
BYLAYER
 49
-0.5
 62
   256
  6
BYLAYER
  0
ACDBPLACEHOLDER
  5
140
102
{ACAD_REACTORS
330
13F
102
}
330
13F
100
AcDbPlaceHolder
280
     0
  0
XRECORD
  5
410A
102
{ACAD_REACTORS
330
4109
102
}
330
4109
100
AcDbXrecord
 90
        1
  0
XRECORD
  5
410B
102
{ACAD_REACTORS
330
4109
102
}
330
4109
100
AcDbXrecord
 90
       70
  0
XRECORD
  5
410C
102
{ACAD_REACTORS
330
4109
102
}
330
4109
100
AcDbXrecord
  1

  0
XRECORD
  5
410D
102
{ACAD_REACTORS
330
4109
102
}
330
4109
100
AcDbXrecord
  1
systemprinter.ctb
  0
XRECORD
  5
410E
102
{ACAD_REACTORS
330
4109
102
}
330
4109
100
AcDbXrecord
340
141
  0
XRECORD
  5
410F
102
{ACAD_REACTORS
330
4109
102
}
330
4109
100
AcDbXrecord
340
142
  0
XRECORD
  5
4110
102
{ACAD_REACTORS
330
4109
102
}
330
4109
100
AcDbXrecord
340
13F
  0
XRECORD
  5
4111
102
{ACAD_REACTORS
330
4109
102
}
330
4109
100
AcDbXrecord
 90
    10781
  0
XRECORD
  5
4112
102
{ACAD_REACTORS
330
4109
102
}
330
4109
100
AcDbXrecord
 90
        0
  0
XRECORD
  5
4113
102
{ACAD_REACTORS
330
4109
102
}
330
4109
100
AcDbXrecord
 90
        0
  0
XRECORD
  5
4114
102
{ACAD_REACTORS
330
4109
102
}
330
4109
100
AcDbXrecord
  1
{4E8D0500-CDD1-11D3-932C-444553540000}
  0
XRECORD
  5
4115
102
{ACAD_REACTORS
330
4109
102
}
330
4109
100
AcDbXrecord
  1
{9482A3E9-C1BA-494B-A4F2-4B2F3D894564}
  0
XRECORD
  5
4116
102
{ACAD_REACTORS
330
4109
102
}
330
4109
100
AcDbXrecord
 40
0.0
  0
XRECORD
  5
4117
102
{ACAD_REACTORS
330
4109
102
}
330
4109
100
AcDbXrecord
1000
DSTYLE
1002
{
1070
   341
340
B2
1070
   343
340
B2
1070
   344
340
B2
1070
   371
 70
    -1
1070
   372
 70
    -1
1002
}
  0
XRECORD
  5
4118
102
{ACAD_REACTORS
330
4109
102
}
330
4109
100
AcDbXrecord
340
0
  0
XRECORD
  5
4119
102
{ACAD_REACTORS
330
4109
102
}
330
4109
100
AcDbXrecord
 70
     0
  0
XRECORD
  5
411A
102
{ACAD_REACTORS
330
4109
102
}
330
4109
100
AcDbXrecord
340
0
  0
XRECORD
  5
411B
102
{ACAD_REACTORS
330
4109
102
}
330
4109
100
AcDbXrecord
 10
0.0
 20
0.0
 30
0.0
  0
XRECORD
  5
411C
102
{ACAD_REACTORS
330
4109
102
}
330
4109
100
AcDbXrecord
 10
0.0
 20
0.0
 30
0.0
  0
XRECORD
  5
411D
102
{ACAD_REACTORS
330
4109
102
}
330
4109
100
AcDbXrecord
 10
0.0
 20
0.0
 30
0.0
  0
XRECORD
  5
411E
102
{ACAD_REACTORS
330
4109
102
}
330
4109
100
AcDbXrecord
 10
0.0
 20
0.0
 30
0.0
  0
XRECORD
  5
411F
102
{ACAD_REACTORS
330
4109
102
}
330
4109
100
AcDbXrecord
 10
0.0
 20
0.0
 30
0.0
  0
XRECORD
  5
4120
102
{ACAD_REACTORS
330
4109
102
}
330
4109
100
AcDbXrecord
 10
0.0
 20
0.0
 30
0.0
  0
XRECORD
  5
4121
102
{ACAD_REACTORS
330
4109
102
}
330
4109
100
AcDbXrecord
340
0
  0
XRECORD
  5
4122
102
{ACAD_REACTORS
330
4109
102
}
330
4109
100
AcDbXrecord
 70
     0
  0
XRECORD
  5
4123
102
{ACAD_REACTORS
330
4109
102
}
330
4109
100
AcDbXrecord
340
0
  0
XRECORD
  5
4124
102
{ACAD_REACTORS
330
4109
102
}
330
4109
100
AcDbXrecord
 10
0.0
 20
0.0
 30
0.0
  0
XRECORD
  5
4125
102
{ACAD_REACTORS
330
4109
102
}
330
4109
100
AcDbXrecord
 10
0.0
 20
0.0
 30
0.0
  0
XRECORD
  5
4126
102
{ACAD_REACTORS
330
4109
102
}
330
4109
100
AcDbXrecord
 10
0.0
 20
0.0
 30
0.0
  0
XRECORD
  5
4127
102
{ACAD_REACTORS
330
4109
102
}
330
4109
100
AcDbXrecord
 10
0.0
 20
0.0
 30
0.0
  0
XRECORD
  5
4128
102
{ACAD_REACTORS
330
4109
102
}
330
4109
100
AcDbXrecord
 10
0.0
 20
0.0
 30
0.0
  0
XRECORD
  5
4129
102
{ACAD_REACTORS
330
4109
102
}
330
4109
100
AcDbXrecord
 10
0.0
 20
0.0
 30
0.0
  0
ENDSEC
  0
EOF
