  0
SECTION
  2
HEADER
  9
$ACADVER
  1
AC1014
  9
$ACADMAINTVER
 70
     9
  9
$DWGCODEPAGE
  3
ANSI_932
  9
$INSBASE
 10
0.0
 20
0.0
 30
0.0
  9
$EXTMIN
 10
-0.0128164049386896
 20
-0.0090630292066862
 30
-0.0000000100021362
  9
$EXTMAX
 10
398.8000497813338
 20
275.8226172440017
 30
0.0000000100021363
  9
$LIMMIN
 10
0.0
 20
0.0
  9
$LIMMAX
 10
420.0
 20
297.0
  9
$ORTHOMODE
 70
     0
  9
$REGENMODE
 70
     1
  9
$FILLMODE
 70
     1
  9
$QTEXTMODE
 70
     0
  9
$MIRRTEXT
 70
     1
  9
$DRAGMODE
 70
     2
  9
$LTSCALE
 40
5.0
  9
$OSMODE
 70
    35
  9
$ATTMODE
 70
     1
  9
$TEXTSIZE
 40
3.0
  9
$TRACEWID
 40
1.0
  9
$TEXTSTYLE
  7
STANDARD
  9
$CLAYER
  8
CENTER_L
  9
$CELTYPE
  6
BYLAYER
  9
$CECOLOR
 62
   256
  9
$CELTSCALE
 40
1.0
  9
$DELOBJ
 70
     1
  9
$DISPSILH
 70
     0
  9
$DIMSCALE
 40
1.0
  9
$DIMASZ
 40
3.0
  9
$DIMEXO
 40
3.0
  9
$DIMDLI
 40
7.0
  9
$DIMRND
 40
0.0
  9
$DIMDLE
 40
0.0
  9
$DIMEXE
 40
1.5
  9
$DIMTP
 40
0.0
  9
$DIMTM
 40
0.0
  9
$DIMTXT
 40
3.0
  9
$DIMCEN
 40
3.0
  9
$DIMTSZ
 40
0.0
  9
$DIMTOL
 70
     0
  9
$DIMLIM
 70
     0
  9
$DIMTIH
 70
     0
  9
$DIMTOH
 70
     0
  9
$DIMSE1
 70
     0
  9
$DIMSE2
 70
     0
  9
$DIMTAD
 70
     3
  9
$DIMZIN
 70
     0
  9
$DIMBLK
  1

  9
$DIMASO
 70
     1
  9
$DIMSHO
 70
     1
  9
$DIMPOST
  1

  9
$DIMAPOST
  1

  9
$DIMALT
 70
     0
  9
$DIMALTD
 70
     2
  9
$DIMALTF
 40
25.4
  9
$DIMLFAC
 40
1.0
  9
$DIMTOFL
 70
     1
  9
$DIMTVP
 40
0.0
  9
$DIMTIX
 70
     0
  9
$DIMSOXD
 70
     0
  9
$DIMSAH
 70
     1
  9
$DIMBLK1
  1
OPEN
  9
$DIMBLK2
  1
OPEN
  9
$DIMSTYLE
  2
STANDARD
  9
$DIMCLRD
 70
   256
  9
$DIMCLRE
 70
   256
  9
$DIMCLRT
 70
   256
  9
$DIMTFAC
 40
1.0
  9
$DIMGAP
 40
1.0
  9
$DIMJUST
 70
     0
  9
$DIMSD1
 70
     0
  9
$DIMSD2
 70
     0
  9
$DIMTOLJ
 70
     1
  9
$DIMTZIN
 70
     0
  9
$DIMALTZ
 70
     0
  9
$DIMALTTZ
 70
     0
  9
$DIMFIT
 70
     3
  9
$DIMUPT
 70
     0
  9
$DIMUNIT
 70
     2
  9
$DIMDEC
 70
     0
  9
$DIMTDEC
 70
     0
  9
$DIMALTU
 70
     2
  9
$DIMALTTD
 70
     2
  9
$DIMTXSTY
  7
STANDARD
  9
$DIMAUNIT
 70
     0
  9
$LUNITS
 70
     2
  9
$LUPREC
 70
     4
  9
$SKETCHINC
 40
1.0
  9
$FILLETRAD
 40
10.0
  9
$AUNITS
 70
     0
  9
$AUPREC
 70
     0
  9
$MENU
  1
.
  9
$ELEVATION
 40
0.0
  9
$PELEVATION
 40
0.0
  9
$THICKNESS
 40
0.0
  9
$LIMCHECK
 70
     0
  9
$BLIPMODE
 70
     0
  9
$CHAMFERA
 40
10.0
  9
$CHAMFERB
 40
10.0
  9
$CHAMFERC
 40
20.0
  9
$CHAMFERD
 40
0.0
  9
$SKPOLY
 70
     0
  9
$TDCREATE
 40
2451569.441154629
  9
$TDUPDATE
 40
2453802.457957708
  9
$TDINDWG
 40
0.1909177546
  9
$TDUSRTIMER
 40
0.1909177546
  9
$USRTIMER
 70
     1
  9
$ANGBASE
 50
0.0
  9
$ANGDIR
 70
     0
  9
$PDMODE
 70
     0
  9
$PDSIZE
 40
0.0
  9
$PLINEWID
 40
0.0
  9
$COORDS
 70
     1
  9
$SPLFRAME
 70
     0
  9
$SPLINETYPE
 70
     6
  9
$SPLINESEGS
 70
     8
  9
$ATTDIA
 70
     0
  9
$ATTREQ
 70
     1
  9
$HANDLING
 70
 10241
  9
$HANDSEED
  5
4EC3
  9
$SURFTAB1
 70
     6
  9
$SURFTAB2
 70
     6
  9
$SURFTYPE
 70
     6
  9
$SURFU
 70
     6
  9
$SURFV
 70
     6
  9
$UCSNAME
  2

  9
$UCSORG
 10
0.0
 20
0.0
 30
0.0
  9
$UCSXDIR
 10
1.0
 20
0.0
 30
0.0
  9
$UCSYDIR
 10
0.0
 20
1.0
 30
0.0
  9
$PUCSNAME
  2

  9
$PUCSORG
 10
0.0
 20
0.0
 30
0.0
  9
$PUCSXDIR
 10
1.0
 20
0.0
 30
0.0
  9
$PUCSYDIR
 10
0.0
 20
1.0
 30
0.0
  9
$USERI1
 70
     0
  9
$USERI2
 70
     0
  9
$USERI3
 70
     0
  9
$USERI4
 70
     0
  9
$USERI5
 70
     0
  9
$USERR1
 40
0.0
  9
$USERR2
 40
0.0
  9
$USERR3
 40
0.0
  9
$USERR4
 40
0.0
  9
$USERR5
 40
0.0
  9
$WORLDVIEW
 70
     1
  9
$SHADEDGE
 70
     3
  9
$SHADEDIF
 70
    70
  9
$TILEMODE
 70
     1
  9
$MAXACTVP
 70
    16
  9
$PINSBASE
 10
0.0
 20
0.0
 30
0.0
  9
$PLIMCHECK
 70
     0
  9
$PEXTMIN
 10
0.0
 20
0.0
 30
0.0
  9
$PEXTMAX
 10
420.0
 20
297.0
 30
0.0
  9
$PLIMMIN
 10
0.0
 20
0.0
  9
$PLIMMAX
 10
420.0
 20
297.0
  9
$UNITMODE
 70
     0
  9
$VISRETAIN
 70
     0
  9
$PLINEGEN
 70
     0
  9
$PSLTSCALE
 70
     1
  9
$TREEDEPTH
 70
  3020
  9
$PICKSTYLE
 70
     1
  9
$CMLSTYLE
  2
STANDARD
  9
$CMLJUST
 70
     0
  9
$CMLSCALE
 40
1.0
  9
$PROXYGRAPHICS
 70
     1
  9
$MEASUREMENT
 70
     1
  0
ENDSEC
  0
SECTION
  2
CLASSES
  0
CLASS
  1
ACDBDICTIONARYWDFLT
  2
AcDbDictionaryWithDefault
  3
AutoCAD 2000
 90
        0
280
     0
281
     0
  0
CLASS
  1
ACDBPLACEHOLDER
  2
AcDbPlaceHolder
  3
AutoCAD 2000
 90
        0
280
     0
281
     0
  0
CLASS
  1
LAYOUT
  2
AcDbLayout
  3
AutoCAD 2000
 90
        0
280
     0
281
     0
  0
CLASS
  1
LONG_TRANSACTION
  2
AcDbLongTransaction
  3
AutoCAD 2000
 90
        0
280
     0
281
     0
  0
CLASS
  1
LWPOLYLINE
  2
AcDbPolyline
  3
AutoCAD 2000
 90
        0
280
     0
281
     1
  0
CLASS
  1
HATCH
  2
AcDbHatch
  3
AutoCAD 2000
 90
        0
280
     0
281
     1
  0
CLASS
  1
XRECORD
  2
AcDbXrecord
  3
AutoCAD 2000
 90
        0
280
     0
281
     0
  0
CLASS
  1
LONG_TRANSACTION
  2
AcDbLongTransaction
  3
AutoCAD 2000
 90
        0
280
     0
281
     0
  0
CLASS
  1
LWPOLYLINE
  2
AcDbPolyline
  3
AutoCAD 2000
 90
        0
280
     0
281
     1
  0
CLASS
  1
HATCH
  2
AcDbHatch
  3
AutoCAD 2000
 90
        0
280
     0
281
     1
  0
CLASS
  1
XRECORD
  2
AcDbXrecord
  3
AutoCAD 2000
 90
        0
280
     0
281
     0
  0
CLASS
  1
LONG_TRANSACTION
  2
AcDbLongTransaction
  3
AutoCAD 2000
 90
        0
280
     0
281
     0
  0
CLASS
  1
LWPOLYLINE
  2
AcDbPolyline
  3
AutoCAD 2000
 90
        0
280
     0
281
     1
  0
CLASS
  1
HATCH
  2
AcDbHatch
  3
AutoCAD 2000
 90
        0
280
     0
281
     1
  0
CLASS
  1
XRECORD
  2
AcDbXrecord
  3
AutoCAD 2000
 90
        0
280
     0
281
     0
  0
CLASS
  1
LONG_TRANSACTION
  2
AcDbLongTransaction
  3
AutoCAD 2000
 90
        0
280
     0
281
     0
  0
CLASS
  1
LWPOLYLINE
  2
AcDbPolyline
  3
AutoCAD 2000
 90
        0
280
     0
281
     1
  0
CLASS
  1
HATCH
  2
AcDbHatch
  3
AutoCAD 2000
 90
        0
280
     0
281
     1
  0
CLASS
  1
XRECORD
  2
AcDbXrecord
  3
AutoCAD 2000
 90
        0
280
     0
281
     0
  0
CLASS
  1
LONG_TRANSACTION
  2
AcDbLongTransaction
  3
AutoCAD 2000
 90
        0
280
     0
281
     0
  0
CLASS
  1
LWPOLYLINE
  2
AcDbPolyline
  3
AutoCAD 2000
 90
        0
280
     0
281
     1
  0
CLASS
  1
HATCH
  2
AcDbHatch
  3
AutoCAD 2000
 90
        0
280
     0
281
     1
  0
CLASS
  1
XRECORD
  2
AcDbXrecord
  3
AutoCAD 2000
 90
        0
280
     0
281
     0
  0
CLASS
  1
LONG_TRANSACTION
  2
AcDbLongTransaction
  3
AutoCAD 2000
 90
        0
280
     0
281
     0
  0
CLASS
  1
LWPOLYLINE
  2
AcDbPolyline
  3
AutoCAD 2000
 90
        0
280
     0
281
     1
  0
CLASS
  1
HATCH
  2
AcDbHatch
  3
AutoCAD 2000
 90
        0
280
     0
281
     1
  0
CLASS
  1
XRECORD
  2
AcDbXrecord
  3
AutoCAD 2000
 90
        0
280
     0
281
     0
  0
CLASS
  1
LONG_TRANSACTION
  2
AcDbLongTransaction
  3
AutoCAD 2000
 90
        0
280
     0
281
     0
  0
CLASS
  1
LWPOLYLINE
  2
AcDbPolyline
  3
AutoCAD 2000
 90
        0
280
     0
281
     1
  0
CLASS
  1
HATCH
  2
AcDbHatch
  3
AutoCAD 2000
 90
        0
280
     0
281
     1
  0
CLASS
  1
XRECORD
  2
AcDbXrecord
  3
AutoCAD 2000
 90
        0
280
     0
281
     0
  0
CLASS
  1
LONG_TRANSACTION
  2
AcDbLongTransaction
  3
AutoCAD 2000
 90
        0
280
     0
281
     0
  0
CLASS
  1
LWPOLYLINE
  2
AcDbPolyline
  3
AutoCAD 2000
 90
        0
280
     0
281
     1
  0
CLASS
  1
HATCH
  2
AcDbHatch
  3
AutoCAD 2000
 90
        0
280
     0
281
     1
  0
CLASS
  1
XRECORD
  2
AcDbXrecord
  3
AutoCAD 2000
 90
        0
280
     0
281
     0
  0
CLASS
  1
LONG_TRANSACTION
  2
AcDbLongTransaction
  3
AutoCAD 2000
 90
        0
280
     0
281
     0
  0
CLASS
  1
LWPOLYLINE
  2
AcDbPolyline
  3
AutoCAD 2000
 90
        0
280
     0
281
     1
  0
CLASS
  1
HATCH
  2
AcDbHatch
  3
AutoCAD 2000
 90
        0
280
     0
281
     1
  0
CLASS
  1
XRECORD
  2
AcDbXrecord
  3
AutoCAD 2000
 90
        0
280
     0
281
     0
  0
CLASS
  1
LONG_TRANSACTION
  2
AcDbLongTransaction
  3
AutoCAD 2000
 90
        0
280
     0
281
     0
  0
CLASS
  1
LWPOLYLINE
  2
AcDbPolyline
  3
AutoCAD 2000
 90
        0
280
     0
281
     1
  0
CLASS
  1
HATCH
  2
AcDbHatch
  3
AutoCAD 2000
 90
        0
280
     0
281
     1
  0
CLASS
  1
XRECORD
  2
AcDbXrecord
  3
AutoCAD 2000
 90
        0
280
     0
281
     0
  0
CLASS
  1
LONG_TRANSACTION
  2
AcDbLongTransaction
  3
AutoCAD 2000
 90
        0
280
     0
281
     0
  0
CLASS
  1
LWPOLYLINE
  2
AcDbPolyline
  3
AutoCAD 2000
 90
        0
280
     0
281
     1
  0
CLASS
  1
HATCH
  2
AcDbHatch
  3
AutoCAD 2000
 90
        0
280
     0
281
     1
  0
CLASS
  1
XRECORD
  2
AcDbXrecord
  3
AutoCAD 2000
 90
        0
280
     0
281
     0
  0
CLASS
  1
LONG_TRANSACTION
  2
AcDbLongTransaction
  3
AutoCAD 2000
 90
        0
280
     0
281
     0
  0
CLASS
  1
LWPOLYLINE
  2
AcDbPolyline
  3
AutoCAD 2000
 90
        0
280
     0
281
     1
  0
CLASS
  1
HATCH
  2
AcDbHatch
  3
AutoCAD 2000
 90
        0
280
     0
281
     1
  0
CLASS
  1
XRECORD
  2
AcDbXrecord
  3
AutoCAD 2000
 90
        0
280
     0
281
     0
  0
CLASS
  1
LONG_TRANSACTION
  2
AcDbLongTransaction
  3
AutoCAD 2000
 90
        0
280
     0
281
     0
  0
CLASS
  1
LWPOLYLINE
  2
AcDbPolyline
  3
AutoCAD 2000
 90
        0
280
     0
281
     1
  0
CLASS
  1
HATCH
  2
AcDbHatch
  3
AutoCAD 2000
 90
        0
280
     0
281
     1
  0
CLASS
  1
XRECORD
  2
AcDbXrecord
  3
AutoCAD 2000
 90
        0
280
     0
281
     0
  0
CLASS
  1
LONG_TRANSACTION
  2
AcDbLongTransaction
  3
AutoCAD 2000
 90
        0
280
     0
281
     0
  0
CLASS
  1
LWPOLYLINE
  2
AcDbPolyline
  3
AutoCAD 2000
 90
        0
280
     0
281
     1
  0
CLASS
  1
HATCH
  2
AcDbHatch
  3
AutoCAD 2000
 90
        0
280
     0
281
     1
  0
CLASS
  1
XRECORD
  2
AcDbXrecord
  3
AutoCAD 2000
 90
        0
280
     0
281
     0
  0
ENDSEC
  0
SECTION
  2
TABLES
  0
TABLE
  2
VPORT
  5
8
330
0
100
AcDbSymbolTable
 70
     2
  0
VPORT
  5
4E9F
330
8
100
AcDbSymbolTableRecord
100
AcDbViewportTableRecord
  2
*ACTIVE
 70
     0
 10
0.0
 20
0.0
 11
1.0
 21
1.0
 12
191.3914678991867
 22
139.2103400198963
 13
0.0
 23
0.0
 14
5.0
 24
5.0
 15
0.0
 25
0.0
 16
0.0
 26
0.0
 36
1.0
 17
0.0
 27
0.0
 37
0.0
 40
326.1692817260523
 41
1.795454545454545
 42
50.0
 43
0.0
 44
0.0
 50
0.0
 51
0.0
 71
     0
 72
   100
 73
     1
 74
     0
 75
     0
 76
     0
 77
     0
 78
     0
  0
ENDTAB
  0
TABLE
  2
LTYPE
  5
5
330
0
100
AcDbSymbolTable
 70
     4
  0
LTYPE
  5
14
330
5
100
AcDbSymbolTableRecord
100
AcDbLinetypeTableRecord
  2
BYBLOCK
 70
     0
  3

 72
    65
 73
     0
 40
0.0
  0
LTYPE
  5
15
330
5
100
AcDbSymbolTableRecord
100
AcDbLinetypeTableRecord
  2
BYLAYER
 70
     0
  3

 72
    65
 73
     0
 40
0.0
  0
LTYPE
  5
16
330
5
100
AcDbSymbolTableRecord
100
AcDbLinetypeTableRecord
  2
CONTINUOUS
 70
     0
  3
Solid line
 72
    65
 73
     0
 40
0.0
  0
LTYPE
  5
120
330
5
100
AcDbSymbolTableRecord
100
AcDbLinetypeTableRecord
  2
CENTER
 70
     0
  3
____ _ ____ _ ____ _ ____ _ ____ _ ____ _ ____ 
 72
    65
 73
     4
 40
2.0
 49
1.25
 74
     0
 49
-0.25
 74
     0
 49
0.25
 74
     0
 49
-0.25
 74
     0
  0
LTYPE
  5
122
330
5
100
AcDbSymbolTableRecord
100
AcDbLinetypeTableRecord
  2
PHANTOM
 70
     0
  3
______  __  __  ______  __  __  ______  __  __ 
 72
    65
 73
     6
 40
2.5
 49
1.25
 74
     0
 49
-0.25
 74
     0
 49
0.25
 74
     0
 49
-0.25
 74
     0
 49
0.25
 74
     0
 49
-0.25
 74
     0
  0
LTYPE
  5
12B
330
5
100
AcDbSymbolTableRecord
100
AcDbLinetypeTableRecord
  2
DASHED
 70
     0
  3
__ __ __ __ __ __ __ __ __ __ __ __ __ __ __ __
 72
    65
 73
     2
 40
0.75
 49
0.5
 74
     0
 49
-0.25
 74
     0
  0
ENDTAB
  0
TABLE
  2
LAYER
  5
2
330
0
100
AcDbSymbolTable
 70
     9
  0
LAYER
  5
F
330
2
100
AcDbSymbolTableRecord
100
AcDbLayerTableRecord
  2
0
 70
     0
 62
     7
  6
CONTINUOUS
  0
LAYER
  5
62
330
2
100
AcDbSymbolTableRecord
100
AcDbLayerTableRecord
  2
VIEWPORT
 70
     0
 62
     7
  6
CONTINUOUS
  0
LAYER
  5
6B
330
2
100
AcDbSymbolTableRecord
100
AcDbLayerTableRecord
  2
ZUWAKU
 70
     0
 62
     7
  6
CONTINUOUS
  0
LAYER
  5
48C
330
2
100
AcDbSymbolTableRecord
100
AcDbLayerTableRecord
  2
DEFPOINTS
 70
     0
 62
     7
  6
CONTINUOUS
  0
LAYER
  5
629
330
2
100
AcDbSymbolTableRecord
100
AcDbLayerTableRecord
  2
SEIHIN
 70
     0
 62
     3
  6
CONTINUOUS
  0
LAYER
  5
62A
330
2
100
AcDbSymbolTableRecord
100
AcDbLayerTableRecord
  2
SUNPOU
 70
     0
 62
     4
  6
CONTINUOUS
  0
LAYER
  5
62B
330
2
100
AcDbSymbolTableRecord
100
AcDbLayerTableRecord
  2
CENTER_L
 70
     0
 62
     1
  6
CENTER
  0
LAYER
  5
65C
330
2
100
AcDbSymbolTableRecord
100
AcDbLayerTableRecord
  2
NOKITOI
 70
     0
 62
     8
  6
PHANTOM
  0
LAYER
  5
4C9D
330
2
100
AcDbSymbolTableRecord
100
AcDbLayerTableRecord
  2
MOJI
 70
     0
 62
     2
  6
CONTINUOUS
  0
ENDTAB
  0
TABLE
  2
STYLE
  5
3
330
0
100
AcDbSymbolTable
 70
     2
  0
STYLE
  5
10
330
3
100
AcDbSymbolTableRecord
100
AcDbTextStyleTableRecord
  2
STANDARD
 70
     0
 40
0.0
 41
1.0
 50
0.0
 71
     0
 42
3.0
  3
TXT
  4
c:\PROGRAM FILES\AUTOCAD LT\ms\bigfont.shx
  0
STYLE
  5
4C9E
330
3
100
AcDbSymbolTableRecord
100
AcDbTextStyleTableRecord
  2
ｽﾀｲﾙ1
 70
     0
 40
0.0
 41
1.0
 50
0.0
 71
     0
 42
2.5
  3
MS PGothic.ttf
  4

1001
ACAD
1000
MS PGothic
1071
    32818
  0
ENDTAB
  0
TABLE
  2
VIEW
  5
6
330
0
100
AcDbSymbolTable
 70
     0
  0
ENDTAB
  0
TABLE
  2
UCS
  5
7
330
0
100
AcDbSymbolTable
 70
     0
  0
ENDTAB
  0
TABLE
  2
APPID
  5
9
330
0
100
AcDbSymbolTable
 70
     1
  0
APPID
  5
11
330
9
100
AcDbSymbolTableRecord
100
AcDbRegAppTableRecord
  2
ACAD
 70
     0
  0
ENDTAB
  0
TABLE
  2
DIMSTYLE
  5
A
330
0
100
AcDbSymbolTable
 70
     1
  0
DIMSTYLE
105
1D
102
{ACAD_REACTORS
330
1057
330
469E
330
469F
330
46A1
330
46A6
330
481F
330
4820
330
482B
330
482F
330
4831
330
4832
330
4833
330
483F
330
4AA9
330
4AB6
102
}
330
A
100
AcDbSymbolTableRecord
100
AcDbDimStyleTableRecord
  2
STANDARD
 70
     0
  3

  4

  5

  6

  7

 40
1.0
 41
0.18
 42
0.0625
 43
0.38
 44
0.18
 45
0.0
 46
0.0
 47
0.0
 48
0.0
140
0.18
141
0.09
142
0.0
143
25.4
144
1.0
145
0.0
146
1.0
147
0.09
 71
     0
 72
     0
 73
     1
 74
     1
 75
     0
 76
     0
 77
     0
 78
     0
170
     0
171
     2
172
     0
173
     0
174
     0
175
     0
176
     0
177
     0
178
     0
270
     2
271
     4
272
     4
273
     2
274
     2
340
10
275
     0
280
     0
281
     0
282
     0
283
     1
284
     0
285
     0
286
     0
287
     3
288
     0
  0
ENDTAB
  0
TABLE
  2
BLOCK_RECORD
  5
1
330
0
100
AcDbSymbolTable
 70
    16
  0
BLOCK_RECORD
  5
1A
102
{ACAD_XDICTIONARY
360
73C
102
}
330
1
100
AcDbSymbolTableRecord
100
AcDbBlockTableRecord
  2
*MODEL_SPACE
  0
BLOCK_RECORD
  5
17
102
{ACAD_XDICTIONARY
360
73A
102
}
330
1
100
AcDbSymbolTableRecord
100
AcDbBlockTableRecord
  2
*PAPER_SPACE
  0
BLOCK_RECORD
  5
B2
330
1
100
AcDbSymbolTableRecord
100
AcDbBlockTableRecord
  2
_OPEN
  0
BLOCK_RECORD
  5
1058
330
1
100
AcDbSymbolTableRecord
100
AcDbBlockTableRecord
  2
*D1
  0
BLOCK_RECORD
  5
487D
330
1
100
AcDbSymbolTableRecord
100
AcDbBlockTableRecord
  2
*D2
  0
BLOCK_RECORD
  5
4889
330
1
100
AcDbSymbolTableRecord
100
AcDbBlockTableRecord
  2
*D3
  0
BLOCK_RECORD
  5
4895
330
1
100
AcDbSymbolTableRecord
100
AcDbBlockTableRecord
  2
*D4
  0
BLOCK_RECORD
  5
48AD
330
1
100
AcDbSymbolTableRecord
100
AcDbBlockTableRecord
  2
*D5
  0
BLOCK_RECORD
  5
48D3
330
1
100
AcDbSymbolTableRecord
100
AcDbBlockTableRecord
  2
*D6
  0
BLOCK_RECORD
  5
48DF
330
1
100
AcDbSymbolTableRecord
100
AcDbBlockTableRecord
  2
*D7
  0
BLOCK_RECORD
  5
48EB
330
1
100
AcDbSymbolTableRecord
100
AcDbBlockTableRecord
  2
*D8
  0
BLOCK_RECORD
  5
48F9
330
1
100
AcDbSymbolTableRecord
100
AcDbBlockTableRecord
  2
*D9
  0
BLOCK_RECORD
  5
4905
330
1
100
AcDbSymbolTableRecord
100
AcDbBlockTableRecord
  2
*D10
  0
BLOCK_RECORD
  5
4913
330
1
100
AcDbSymbolTableRecord
100
AcDbBlockTableRecord
  2
*D11
  0
BLOCK_RECORD
  5
491F
330
1
100
AcDbSymbolTableRecord
100
AcDbBlockTableRecord
  2
*D12
  0
BLOCK_RECORD
  5
492B
330
1
100
AcDbSymbolTableRecord
100
AcDbBlockTableRecord
  2
*D13
  0
BLOCK_RECORD
  5
4AAA
330
1
100
AcDbSymbolTableRecord
100
AcDbBlockTableRecord
  2
*D14
  0
BLOCK_RECORD
  5
4AB7
330
1
100
AcDbSymbolTableRecord
100
AcDbBlockTableRecord
  2
*D15
  0
ENDTAB
  0
ENDSEC
  0
SECTION
  2
BLOCKS
  0
BLOCK
  5
1B
330
1A
100
AcDbEntity
  8
0
100
AcDbBlockBegin
  2
*MODEL_SPACE
 70
     0
 10
0.0
 20
0.0
 30
0.0
  3
*MODEL_SPACE
  1

  0
ENDBLK
  5
1C
330
1A
100
AcDbEntity
  8
0
100
AcDbBlockEnd
  0
BLOCK
  5
18
330
17
100
AcDbEntity
 67
     1
  8
0
100
AcDbBlockBegin
  2
*PAPER_SPACE
 70
     0
 10
0.0
 20
0.0
 30
0.0
  3
*PAPER_SPACE
  1

  0
ENDBLK
  5
19
330
17
100
AcDbEntity
 67
     1
  8
0
100
AcDbBlockEnd
  0
BLOCK
  5
B3
330
B2
100
AcDbEntity
  8
0
100
AcDbBlockBegin
  2
_OPEN
 70
     0
 10
0.0
 20
0.0
 30
0.0
  3
_OPEN
  1

  0
LINE
  5
B4
330
B2
100
AcDbEntity
  8
0
  6
BYBLOCK
 62
     0
100
AcDbLine
 10
-1.0
 20
0.1666666666666666
 30
0.0
 11
0.0
 21
0.0
 31
0.0
  0
LINE
  5
B5
330
B2
100
AcDbEntity
  8
0
  6
BYBLOCK
 62
     0
100
AcDbLine
 10
0.0
 20
0.0
 30
0.0
 11
-1.0
 21
-0.1666666666666666
 31
0.0
  0
LINE
  5
B6
330
B2
100
AcDbEntity
  8
0
  6
BYBLOCK
 62
     0
100
AcDbLine
 10
0.0
 20
0.0
 30
0.0
 11
-1.0
 21
0.0
 31
0.0
  0
ENDBLK
  5
B7
330
B2
100
AcDbEntity
  8
0
100
AcDbBlockEnd
  0
BLOCK
  5
1062
330
1058
100
AcDbEntity
  8
0
100
AcDbBlockBegin
  2
*D1
 70
     1
 10
0.0
 20
0.0
 30
0.0
  3
*D1
  1

  0
LINE
  5
4E44
330
1058
100
AcDbEntity
  8
SUNPOU
100
AcDbLine
 10
62.6694628349591
 20
220.9403642048174
 30
0.0
 11
38.28420018830957
 21
220.9403642048174
 31
0.0
  0
LINE
  5
4E45
330
1058
100
AcDbEntity
  8
SUNPOU
100
AcDbLine
 10
62.66946283495909
 20
198.9403641648174
 30
0.0
 11
38.28420018830957
 21
198.9403641648174
 31
0.0
  0
LINE
  5
4E46
330
1058
100
AcDbEntity
  8
SUNPOU
100
AcDbLine
 10
39.78420018830957
 20
217.9403642048174
 30
0.0
 11
39.78420018830957
 21
201.9403641648174
 31
0.0
  0
INSERT
  5
4E47
330
1058
100
AcDbEntity
  8
SUNPOU
100
AcDbBlockReference
  2
_OPEN
 10
39.78420018830957
 20
220.9403642048174
 30
0.0
 41
3.0
 42
3.0
 43
3.0
 50
90.0
  0
INSERT
  5
4E48
330
1058
100
AcDbEntity
  8
SUNPOU
100
AcDbBlockReference
  2
_OPEN
 10
39.78420018830957
 20
198.9403641648174
 30
0.0
 41
3.0
 42
3.0
 43
3.0
 50
270.0
  0
MTEXT
  5
4E49
330
1058
100
AcDbEntity
  8
SUNPOU
100
AcDbMText
 10
37.28420018830954
 20
209.9403641848174
 30
0.0
 40
3.0
 41
0.0
 71
     5
 72
     1
  1
\A1;22
 11
0.0000000000000001
 21
1.0
 31
0.0
1001
ACAD
1000
MTEXTBEGIN
1070
    73
1070
     1
1070
    44
1040
1.0
1070
    74
1070
     0
1000
MTEXTEND
  0
POINT
  5
4E4A
330
1058
100
AcDbEntity
  8
DEFPOINTS
 62
     0
100
AcDbPoint
 10
65.66946283495909
 20
220.9403642048174
 30
0.0
  0
POINT
  5
4E4B
330
1058
100
AcDbEntity
  8
DEFPOINTS
 62
     0
100
AcDbPoint
 10
65.66946283495909
 20
198.9403641648173
 30
0.0
  0
POINT
  5
4E4C
330
1058
100
AcDbEntity
  8
DEFPOINTS
 62
     0
100
AcDbPoint
 10
39.78420018830957
 20
198.9403641648174
 30
0.0
  0
ENDBLK
  5
1063
330
1058
100
AcDbEntity
  8
0
100
AcDbBlockEnd
  0
BLOCK
  5
4887
330
487D
100
AcDbEntity
  8
0
100
AcDbBlockBegin
  2
*D2
 70
     1
 10
0.0
 20
0.0
 30
0.0
  3
*D2
  1

  0
LINE
  5
4E85
330
487D
100
AcDbEntity
  8
SUNPOU
100
AcDbLine
 10
217.5955758093674
 20
236.373560374215
 30
0.0
 11
235.3032213722605
 21
236.373560374215
 31
0.0
  0
LINE
  5
4E86
330
487D
100
AcDbEntity
  8
SUNPOU
100
AcDbLine
 10
217.5955758093674
 20
183.5071679954196
 30
0.0
 11
235.3032213722605
 21
183.5071679954196
 31
0.0
  0
LINE
  5
4E87
330
487D
100
AcDbEntity
  8
SUNPOU
100
AcDbLine
 10
233.8032213722605
 20
233.373560374215
 30
0.0
 11
233.8032213722605
 21
186.5071679954196
 31
0.0
  0
INSERT
  5
4E88
330
487D
100
AcDbEntity
  8
SUNPOU
100
AcDbBlockReference
  2
_OPEN
 10
233.8032213722605
 20
236.373560374215
 30
0.0
 41
3.0
 42
3.0
 43
3.0
 50
90.0
  0
INSERT
  5
4E89
330
487D
100
AcDbEntity
  8
SUNPOU
100
AcDbBlockReference
  2
_OPEN
 10
233.8032213722605
 20
183.5071679954196
 30
0.0
 41
3.0
 42
3.0
 43
3.0
 50
270.0
  0
MTEXT
  5
4E8A
330
487D
100
AcDbEntity
  8
SUNPOU
100
AcDbMText
 10
231.3032213722604
 20
209.9403641848174
 30
0.0
 40
3.0
 41
0.0
 71
     5
 72
     1
  1
\A1;53
 11
0.0000000000000001
 21
1.0
 31
0.0
1001
ACAD
1000
MTEXTBEGIN
1070
    73
1070
     1
1070
    44
1040
1.0
1070
    74
1070
     0
1000
MTEXTEND
  0
POINT
  5
4E8B
330
487D
100
AcDbEntity
  8
DEFPOINTS
 62
     0
100
AcDbPoint
 10
214.5955758093674
 20
236.373560374215
 30
0.0
  0
POINT
  5
4E8C
330
487D
100
AcDbEntity
  8
DEFPOINTS
 62
     0
100
AcDbPoint
 10
214.5955758093673
 20
183.5071679954196
 30
0.0
  0
POINT
  5
4E8D
330
487D
100
AcDbEntity
  8
DEFPOINTS
 62
     0
100
AcDbPoint
 10
233.8032213722605
 20
183.5071679954196
 30
0.0
  0
ENDBLK
  5
4888
330
487D
100
AcDbEntity
  8
0
100
AcDbBlockEnd
  0
BLOCK
  5
4893
330
4889
100
AcDbEntity
  8
0
100
AcDbBlockBegin
  2
*D3
 70
     1
 10
0.0
 20
0.0
 30
0.0
  3
*D3
  1

  0
LINE
  5
4E29
330
4889
100
AcDbEntity
  8
SUNPOU
100
AcDbLine
 10
191.7731105872274
 20
141.6323203890591
 30
0.0
 11
191.7731105872274
 21
169.9668496142317
 31
0.0
  0
LINE
  5
4E2A
330
4889
100
AcDbEntity
  8
SUNPOU
100
AcDbLine
 10
226.7731106002274
 20
141.6323203890591
 30
0.0
 11
226.7731106002274
 21
169.9668496142317
 31
0.0
  0
LINE
  5
4E2B
330
4889
100
AcDbEntity
  8
SUNPOU
100
AcDbLine
 10
194.7731105872274
 20
168.4668496142317
 30
0.0
 11
223.7731106002274
 21
168.4668496142317
 31
0.0
  0
INSERT
  5
4E2C
330
4889
100
AcDbEntity
  8
SUNPOU
100
AcDbBlockReference
  2
_OPEN
 10
191.7731105872274
 20
168.4668496142317
 30
0.0
 41
3.0
 42
3.0
 43
3.0
 50
180.0
  0
INSERT
  5
4E2D
330
4889
100
AcDbEntity
  8
SUNPOU
100
AcDbBlockReference
  2
_OPEN
 10
226.7731106002274
 20
168.4668496142317
 30
0.0
 41
3.0
 42
3.0
 43
3.0
  0
MTEXT
  5
4E2E
330
4889
100
AcDbEntity
  8
SUNPOU
100
AcDbMText
 10
209.2731105937274
 20
170.9668496142317
 30
0.0
 40
3.0
 41
0.0
 71
     5
 72
     1
  1
\A1;35
1001
ACAD
1000
MTEXTBEGIN
1070
    73
1070
     1
1070
    44
1040
1.0
1070
    74
1070
     0
1000
MTEXTEND
  0
POINT
  5
4E2F
330
4889
100
AcDbEntity
  8
DEFPOINTS
 62
     0
100
AcDbPoint
 10
191.7731105872274
 20
138.6323203890592
 30
0.0
  0
POINT
  5
4E30
330
4889
100
AcDbEntity
  8
DEFPOINTS
 62
     0
100
AcDbPoint
 10
226.7731106002274
 20
138.6323203890592
 30
0.0
  0
POINT
  5
4E31
330
4889
100
AcDbEntity
  8
DEFPOINTS
 62
     0
100
AcDbPoint
 10
226.7731106002274
 20
168.4668496142317
 30
0.0
  0
ENDBLK
  5
4894
330
4889
100
AcDbEntity
  8
0
100
AcDbBlockEnd
  0
BLOCK
  5
489F
330
4895
100
AcDbEntity
  8
0
100
AcDbBlockBegin
  2
*D4
 70
     1
 10
0.0
 20
0.0
 30
0.0
  3
*D4
  1

  0
LINE
  5
4E20
330
4895
100
AcDbEntity
  8
SUNPOU
100
AcDbLine
 10
199.6751989099863
 20
131.2931250940782
 30
0.0
 11
205.0361722874647
 21
134.5097091210862
 31
0.0
  0
LINE
  5
4E21
330
4895
100
AcDbEntity
  8
SUNPOU
100
AcDbLine
 10
218.1970461049863
 20
100.4233797740782
 30
0.0
 11
223.5580194824647
 21
103.6399638010862
 31
0.0
  0
LINE
  5
4E22
330
4895
100
AcDbEntity
  8
SUNPOU
100
AcDbLine
 10
205.2934201654175
 20
131.1654867108257
 30
0.0
 11
220.7282928274846
 21
105.4406989448804
 31
0.0
  0
INSERT
  5
4E23
330
4895
100
AcDbEntity
  8
SUNPOU
100
AcDbBlockReference
  2
_OPEN
 10
203.7499328989511
 20
133.737965487853
 30
0.0
 41
3.0
 42
3.0
 43
3.0
 50
120.9637565361677
  0
INSERT
  5
4E24
330
4895
100
AcDbEntity
  8
SUNPOU
100
AcDbBlockReference
  2
_OPEN
 10
222.271780093951
 20
102.8682201678531
 30
0.0
 41
3.0
 42
3.0
 43
3.0
 50
300.9637565361677
  0
MTEXT
  5
4E25
330
4895
100
AcDbEntity
  8
SUNPOU
100
AcDbMText
 10
215.1545888106405
 20
119.5893322165751
 30
0.0
 40
3.0
 41
0.0
 71
     5
 72
     1
  1
\A1;36
 11
0.5144957554888008
 21
-0.8574929256757796
 31
0.0
1001
ACAD
1000
MTEXTBEGIN
1070
    73
1070
     1
1070
    44
1040
1.0
1070
    74
1070
     0
1000
MTEXTEND
  0
POINT
  5
4E26
330
4895
100
AcDbEntity
  8
DEFPOINTS
 62
     0
100
AcDbPoint
 10
197.102720132959
 20
129.7496378276118
 30
0.0
  0
POINT
  5
4E27
330
4895
100
AcDbEntity
  8
DEFPOINTS
 62
     0
100
AcDbPoint
 10
215.624567327959
 20
98.87989250761187
 30
0.0
  0
POINT
  5
4E28
330
4895
100
AcDbEntity
  8
DEFPOINTS
 62
     0
100
AcDbPoint
 10
222.271780093951
 20
102.8682201678531
 30
0.0
  0
ENDBLK
  5
48A0
330
4895
100
AcDbEntity
  8
0
100
AcDbBlockEnd
  0
BLOCK
  5
48B7
330
48AD
100
AcDbEntity
  8
0
100
AcDbBlockBegin
  2
*D5
 70
     1
 10
0.0
 20
0.0
 30
0.0
  3
*D5
  1

  0
LINE
  5
4E3B
330
48AD
100
AcDbEntity
  8
SUNPOU
100
AcDbLine
 10
65.66946283495906
 20
95.20688570761189
 30
0.0
 11
65.66946283495906
 21
169.9668496142317
 31
0.0
  0
LINE
  5
4E3C
330
48AD
100
AcDbEntity
  8
SUNPOU
100
AcDbLine
 10
191.7731105872274
 20
141.6323203890591
 30
0.0
 11
191.7731105872274
 21
169.9668496142317
 31
0.0
  0
LINE
  5
4E3D
330
48AD
100
AcDbEntity
  8
SUNPOU
100
AcDbLine
 10
68.66946283495906
 20
168.4668496142317
 30
0.0
 11
188.7731105872274
 21
168.4668496142317
 31
0.0
  0
INSERT
  5
4E3E
330
48AD
100
AcDbEntity
  8
SUNPOU
100
AcDbBlockReference
  2
_OPEN
 10
65.66946283495906
 20
168.4668496142317
 30
0.0
 41
3.0
 42
3.0
 43
3.0
 50
180.0
  0
INSERT
  5
4E3F
330
48AD
100
AcDbEntity
  8
SUNPOU
100
AcDbBlockReference
  2
_OPEN
 10
191.7731105872274
 20
168.4668496142317
 30
0.0
 41
3.0
 42
3.0
 43
3.0
  0
MTEXT
  5
4E40
330
48AD
100
AcDbEntity
  8
SUNPOU
100
AcDbMText
 10
128.7212867110932
 20
170.9668496142317
 30
0.0
 40
3.0
 41
0.0
 71
     5
 72
     1
  1
\A1;126
1001
ACAD
1000
MTEXTBEGIN
1070
    73
1070
     1
1070
    44
1040
1.0
1070
    74
1070
     0
1000
MTEXTEND
  0
POINT
  5
4E41
330
48AD
100
AcDbEntity
  8
DEFPOINTS
 62
     0
100
AcDbPoint
 10
65.66946283495906
 20
92.20688570761188
 30
0.0
  0
POINT
  5
4E42
330
48AD
100
AcDbEntity
  8
DEFPOINTS
 62
     0
100
AcDbPoint
 10
191.7731105872274
 20
138.6323203890592
 30
0.0
  0
POINT
  5
4E43
330
48AD
100
AcDbEntity
  8
DEFPOINTS
 62
     0
100
AcDbPoint
 10
191.7731105872274
 20
168.4668496142317
 30
0.0
  0
ENDBLK
  5
48B8
330
48AD
100
AcDbEntity
  8
0
100
AcDbBlockEnd
  0
BLOCK
  5
48DD
330
48D3
100
AcDbEntity
  8
0
100
AcDbBlockBegin
  2
*D6
 70
     1
 10
0.0
 20
0.0
 30
0.0
  3
*D6
  1

  0
LINE
  5
4E58
330
48D3
100
AcDbEntity
  8
SUNPOU
100
AcDbLine
 10
279.5398806556313
 20
179.211934142042
 30
0.0
 11
261.514631651795
 21
168.3967847422365
 31
0.0
  0
LINE
  5
4E59
330
48D3
100
AcDbEntity
  8
SUNPOU
100
AcDbLine
 10
298.0617278461469
 20
148.342188817391
 30
0.0
 11
280.0364788423106
 21
137.5270394175855
 31
0.0
  0
LINE
  5
4E5A
330
48D3
100
AcDbEntity
  8
SUNPOU
100
AcDbLine
 10
264.344358306463
 20
166.596049597952
 30
0.0
 11
279.7792309649373
 21
140.8712618278906
 31
0.0
  0
INSERT
  5
4E5B
330
48D3
100
AcDbEntity
  8
SUNPOU
100
AcDbBlockReference
  2
_OPEN
 10
262.8008710404424
 20
169.1685283752468
 30
0.0
 41
3.0
 42
3.0
 43
3.0
 50
120.9637565262392
  0
INSERT
  5
4E5C
330
48D3
100
AcDbEntity
  8
SUNPOU
100
AcDbBlockReference
  2
_OPEN
 10
281.322718230958
 20
138.2987830505958
 30
0.0
 41
3.0
 42
3.0
 43
3.0
 50
300.9637565262392
  0
MTEXT
  5
4E5D
330
48D3
100
AcDbEntity
  8
SUNPOU
100
AcDbMText
 10
274.2055269501125
 20
155.0198951012718
 30
0.0
 40
3.0
 41
0.0
 71
     5
 72
     1
  1
\A1;36
 11
0.5144957553402099
 21
-0.8574929257649344
 31
0.0
1001
ACAD
1000
MTEXTBEGIN
1070
    73
1070
     1
1070
    44
1040
1.0
1070
    74
1070
     0
1000
MTEXTEND
  0
POINT
  5
4E5E
330
48D3
100
AcDbEntity
  8
DEFPOINTS
 62
     0
100
AcDbPoint
 10
282.1123594329261
 20
180.7554214080627
 30
0.0
  0
POINT
  5
4E5F
330
48D3
100
AcDbEntity
  8
DEFPOINTS
 62
     0
100
AcDbPoint
 10
300.6342066234417
 20
149.8856760834116
 30
0.0
  0
POINT
  5
4E60
330
48D3
100
AcDbEntity
  8
DEFPOINTS
 62
     0
100
AcDbPoint
 10
281.322718230958
 20
138.2987830505958
 30
0.0
  0
ENDBLK
  5
48DE
330
48D3
100
AcDbEntity
  8
0
100
AcDbBlockEnd
  0
BLOCK
  5
48E9
330
48DF
100
AcDbEntity
  8
0
100
AcDbBlockBegin
  2
*D7
 70
     1
 10
0.0
 20
0.0
 30
0.0
  3
*D7
  1

  0
LINE
  5
4E17
330
48DF
100
AcDbEntity
  8
SUNPOU
100
AcDbLine
 10
191.4432668219506
 20
145.0130119146606
 30
0.0
 11
201.9547507172934
 21
151.3199022496706
 31
0.0
  0
LINE
  5
4E18
330
48DF
100
AcDbEntity
  8
SUNPOU
100
AcDbLine
 10
218.1970460973337
 20
100.4233797734993
 30
0.0
 11
228.7085299926764
 21
106.7302701085093
 31
0.0
  0
LINE
  5
4E19
330
48DF
100
AcDbEntity
  8
SUNPOU
100
AcDbLine
 10
202.2119985944935
 20
147.9756798393522
 30
0.0
 11
225.8788033381015
 21
108.5310052529403
 31
0.0
  0
INSERT
  5
4E1A
330
48DF
100
AcDbEntity
  8
SUNPOU
100
AcDbBlockReference
  2
_OPEN
 10
200.668511328606
 20
150.5481586167269
 30
0.0
 41
3.0
 42
3.0
 43
3.0
 50
120.9637565232737
  0
INSERT
  5
4E1B
330
48DF
100
AcDbEntity
  8
SUNPOU
100
AcDbBlockReference
  2
_OPEN
 10
227.422290603989
 20
105.9585264755656
 30
0.0
 41
3.0
 42
3.0
 43
3.0
 50
300.9637565232737
  0
MTEXT
  5
4E1C
330
48DF
100
AcDbEntity
  8
SUNPOU
100
AcDbMText
 10
216.1891332807764
 20
129.5395819343858
 30
0.0
 40
3.0
 41
0.0
 71
     5
 72
     1
  1
\A1;52
 11
0.5144957552958279
 21
-0.8574929257915632
 31
0.0
1001
ACAD
1000
MTEXTBEGIN
1070
    73
1070
     1
1070
    44
1040
1.0
1070
    74
1070
     0
1000
MTEXTEND
  0
POINT
  5
4E1D
330
48DF
100
AcDbEntity
  8
DEFPOINTS
 62
     0
100
AcDbPoint
 10
188.8707880445759
 20
143.4695246487731
 30
0.0
  0
POINT
  5
4E1E
330
48DF
100
AcDbEntity
  8
DEFPOINTS
 62
     0
100
AcDbPoint
 10
215.624567319959
 20
98.87989250761187
 30
0.0
  0
POINT
  5
4E1F
330
48DF
100
AcDbEntity
  8
DEFPOINTS
 62
     0
100
AcDbPoint
 10
227.422290603989
 20
105.9585264755656
 30
0.0
  0
ENDBLK
  5
48EA
330
48DF
100
AcDbEntity
  8
0
100
AcDbBlockEnd
  0
BLOCK
  5
48F7
330
48EB
100
AcDbEntity
  8
0
100
AcDbBlockBegin
  2
*D8
 70
     1
 10
0.0
 20
0.0
 30
0.0
  3
*D8
  1

  0
LINE
  5
4E4D
330
48EB
100
AcDbEntity
  8
SUNPOU
100
AcDbLine
 10
295.2320011922994
 20
153.0583999082255
 30
0.0
 11
285.0392646857509
 21
146.9427580057081
 31
0.0
  0
LINE
  5
4E4E
330
48EB
100
AcDbEntity
  8
SUNPOU
100
AcDbLine
 10
298.0617278461469
 20
148.342188817391
 30
0.0
 11
287.8689913395984
 21
142.2265469148736
 31
0.0
  0
LINE
  5
4E4F
330
48EB
100
AcDbEntity
  8
SUNPOU
100
AcDbLine
 10
284.7820168083777
 20
150.2869804160132
 30
0.0
 11
283.238529542357
 21
152.859459193308
 31
0.0
  0
LINE
  5
4E50
330
48EB
100
AcDbEntity
  8
SUNPOU
100
AcDbLine
 10
290.6987179942664
 20
140.4258117705891
 30
0.0
 11
292.242205260287
 21
137.8533329932942
 31
0.0
  0
LINE
  5
4E51
330
48EB
100
AcDbEntity
  8
SUNPOU
100
AcDbLine
 10
286.3255040743983
 20
147.7145016387184
 30
0.0
 11
289.1552307282458
 21
142.9982905478839
 31
0.0
  0
INSERT
  5
4E52
330
48EB
100
AcDbEntity
  8
SUNPOU
100
AcDbBlockReference
  2
_OPEN
 10
286.3255040743983
 20
147.7145016387184
 30
0.0
 41
3.0
 42
3.0
 43
3.0
 50
300.9637565262388
  0
INSERT
  5
4E53
330
48EB
100
AcDbEntity
  8
SUNPOU
100
AcDbBlockReference
  2
_OPEN
 10
289.1552307282458
 20
142.9982905478839
 30
0.0
 41
3.0
 42
3.0
 43
3.0
 50
120.9637565262388
  0
MTEXT
  5
4E54
330
48EB
100
AcDbEntity
  8
SUNPOU
100
AcDbMText
 10
289.8840997157344
 20
146.6426354816516
 30
0.0
 40
3.0
 41
0.0
 71
     5
 72
     1
  1
\A1;6
 11
0.5144957553402041
 21
-0.8574929257649376
 31
0.0
1001
ACAD
1000
MTEXTBEGIN
1070
    73
1070
     1
1070
    44
1040
1.0
1070
    74
1070
     0
1000
MTEXTEND
  0
POINT
  5
4E55
330
48EB
100
AcDbEntity
  8
DEFPOINTS
 62
     0
100
AcDbPoint
 10
297.8044799695942
 20
154.6018871742461
 30
0.0
  0
POINT
  5
4E56
330
48EB
100
AcDbEntity
  8
DEFPOINTS
 62
     0
100
AcDbPoint
 10
300.6342066234417
 20
149.8856760834116
 30
0.0
  0
POINT
  5
4E57
330
48EB
100
AcDbEntity
  8
DEFPOINTS
 62
     0
100
AcDbPoint
 10
289.1552307282458
 20
142.9982905478839
 30
0.0
  0
ENDBLK
  5
48F8
330
48EB
100
AcDbEntity
  8
0
100
AcDbBlockEnd
  0
BLOCK
  5
4903
330
48F9
100
AcDbEntity
  8
0
100
AcDbBlockBegin
  2
*D9
 70
     1
 10
0.0
 20
0.0
 30
0.0
  3
*D9
  1

  0
LINE
  5
4E7C
330
48F9
100
AcDbEntity
  8
SUNPOU
100
AcDbLine
 10
280.5688721663986
 20
183.3279001850534
 30
0.0
 11
256.7060405526055
 21
223.0992861994624
 31
0.0
  0
LINE
  5
4E7D
330
48F9
100
AcDbEntity
  8
SUNPOU
100
AcDbLine
 10
326.0159972583898
 20
210.5961752461305
 30
0.0
 11
302.1531656445966
 21
250.3675612605395
 31
0.0
  0
LINE
  5
4E7E
330
48F9
100
AcDbEntity
  8
SUNPOU
100
AcDbLine
 10
260.0502629628599
 20
223.3565340774944
 30
0.0
 11
300.3524305008696
 21
247.5378346055168
 31
0.0
  0
INSERT
  5
4E7F
330
48F9
100
AcDbEntity
  8
SUNPOU
100
AcDbBlockReference
  2
_OPEN
 10
257.4777841858692
 20
221.813046810967
 30
0.0
 41
3.0
 42
3.0
 43
3.0
 50
210.9637565375264
  0
INSERT
  5
4E80
330
48F9
100
AcDbEntity
  8
SUNPOU
100
AcDbBlockReference
  2
_OPEN
 10
302.9249092778604
 20
249.0813218720441
 30
0.0
 41
3.0
 42
3.0
 43
3.0
 50
30.96375653752649
  0
MTEXT
  5
4E81
330
48F9
100
AcDbEntity
  8
SUNPOU
100
AcDbMText
 10
278.9151073430919
 20
237.5909166556645
 30
0.0
 40
3.0
 41
0.0
 71
     5
 72
     1
  1
\A1;53
 11
0.8574929256635785
 21
0.514495755509136
 31
0.0
1001
ACAD
1000
MTEXTBEGIN
1070
    73
1070
     1
1070
    44
1040
1.0
1070
    74
1070
     0
1000
MTEXTEND
  0
POINT
  5
4E82
330
48F9
100
AcDbEntity
  8
DEFPOINTS
 62
     0
100
AcDbPoint
 10
282.112359432926
 20
180.7554214080626
 30
0.0
  0
POINT
  5
4E83
330
48F9
100
AcDbEntity
  8
DEFPOINTS
 62
     0
100
AcDbPoint
 10
327.5594845249172
 20
208.0236964691398
 30
0.0
  0
POINT
  5
4E84
330
48F9
100
AcDbEntity
  8
DEFPOINTS
 62
     0
100
AcDbPoint
 10
302.9249092778604
 20
249.0813218720441
 30
0.0
  0
ENDBLK
  5
4904
330
48F9
100
AcDbEntity
  8
0
100
AcDbBlockEnd
  0
BLOCK
  5
4911
330
4905
100
AcDbEntity
  8
0
100
AcDbBlockBegin
  2
*D10
 70
     1
 10
0.0
 20
0.0
 30
0.0
  3
*D10
  1

  0
LINE
  5
4E8E
330
4905
100
AcDbEntity
  8
SUNPOU
100
AcDbLine
 10
279.5398806556312
 20
179.211934142042
 30
0.0
 11
269.4074923362332
 21
173.1325011518064
 31
0.0
  0
LINE
  5
4E8F
330
4905
100
AcDbEntity
  8
SUNPOU
100
AcDbLine
 10
282.3696073097763
 20
174.4957230507116
 30
0.0
 11
272.2372189903783
 21
168.416290060476
 31
0.0
  0
LINE
  5
4E90
330
4905
100
AcDbEntity
  8
SUNPOU
100
AcDbLine
 10
269.1502444588599
 20
176.4767235621115
 30
0.0
 11
267.6067571928393
 21
179.0492023394063
 31
0.0
  0
LINE
  5
4E91
330
4905
100
AcDbEntity
  8
SUNPOU
100
AcDbLine
 10
275.0669456450463
 20
166.6155549161915
 30
0.0
 11
276.610432911067
 21
164.0430761388967
 31
0.0
  0
LINE
  5
4E92
330
4905
100
AcDbEntity
  8
SUNPOU
100
AcDbLine
 10
270.6937317248805
 20
173.9042447848167
 30
0.0
 11
273.5234583790257
 21
169.1880336934863
 31
0.0
  0
INSERT
  5
4E93
330
4905
100
AcDbEntity
  8
SUNPOU
100
AcDbBlockReference
  2
_OPEN
 10
270.6937317248805
 20
173.9042447848167
 30
0.0
 41
3.0
 42
3.0
 43
3.0
 50
300.9637565262393
  0
INSERT
  5
4E94
330
4905
100
AcDbEntity
  8
SUNPOU
100
AcDbBlockReference
  2
_OPEN
 10
273.5234583790257
 20
169.1880336934863
 30
0.0
 41
3.0
 42
3.0
 43
3.0
 50
120.9637565262393
  0
MTEXT
  5
4E95
330
4905
100
AcDbEntity
  8
SUNPOU
100
AcDbMText
 10
274.2523273663655
 20
172.8323786275019
 30
0.0
 40
3.0
 41
0.0
 71
     5
 72
     1
  1
\A1;6
 11
0.5144957553402114
 21
-0.8574929257649333
 31
0.0
1001
ACAD
1000
MTEXTBEGIN
1070
    73
1070
     1
1070
    44
1040
1.0
1070
    74
1070
     0
1000
MTEXTEND
  0
POINT
  5
4E96
330
4905
100
AcDbEntity
  8
DEFPOINTS
 62
     0
100
AcDbPoint
 10
282.1123594329261
 20
180.7554214080627
 30
0.0
  0
POINT
  5
4E97
330
4905
100
AcDbEntity
  8
DEFPOINTS
 62
     0
100
AcDbPoint
 10
284.9420860870711
 20
176.0392103167323
 30
0.0
  0
POINT
  5
4E98
330
4905
100
AcDbEntity
  8
DEFPOINTS
 62
     0
100
AcDbPoint
 10
273.5234583790257
 20
169.1880336934863
 30
0.0
  0
ENDBLK
  5
4912
330
4905
100
AcDbEntity
  8
0
100
AcDbBlockEnd
  0
BLOCK
  5
491D
330
4913
100
AcDbEntity
  8
0
100
AcDbBlockBegin
  2
*D11
 70
     1
 10
0.0
 20
0.0
 30
0.0
  3
*D11
  1

  0
LINE
  5
4E73
330
4913
100
AcDbEntity
  8
SUNPOU
100
AcDbLine
 10
290.5586647423535
 20
180.2838003034479
 30
0.0
 11
271.4746258832
 21
212.0905316973267
 31
0.0
  0
LINE
  5
4E74
330
4913
100
AcDbEntity
  8
SUNPOU
100
AcDbLine
 10
324.0008888023535
 20
200.3491347634479
 30
0.0
 11
304.9168499432
 21
232.1558661573267
 31
0.0
  0
LINE
  5
4E75
330
4913
100
AcDbEntity
  8
SUNPOU
100
AcDbLine
 10
274.8188482933431
 20
212.3477795768052
 30
0.0
 11
303.1161148006968
 21
229.326139501525
 31
0.0
  0
INSERT
  5
4E76
330
4913
100
AcDbEntity
  8
SUNPOU
100
AcDbBlockReference
  2
_OPEN
 10
272.24636951702
 20
210.8042923091651
 30
0.0
 41
3.0
 42
3.0
 43
3.0
 50
210.9637565623077
  0
INSERT
  5
4E77
330
4913
100
AcDbEntity
  8
SUNPOU
100
AcDbBlockReference
  2
_OPEN
 10
305.68859357702
 20
230.8696267691651
 30
0.0
 41
3.0
 42
3.0
 43
3.0
 50
30.96375656230778
  0
MTEXT
  5
4E78
330
4913
100
AcDbEntity
  8
SUNPOU
100
AcDbMText
 10
287.68124215732
 20
222.9806918527677
 30
0.0
 40
3.0
 41
0.0
 71
     5
 72
     1
  1
\A1;39
 11
0.8574929254410513
 21
0.5144957558800148
 31
0.0
1001
ACAD
1000
MTEXTBEGIN
1070
    73
1070
     1
1070
    44
1040
1.0
1070
    74
1070
     0
1000
MTEXTEND
  0
POINT
  5
4E79
330
4913
100
AcDbEntity
  8
DEFPOINTS
 62
     0
100
AcDbPoint
 10
292.1021520099935
 20
177.7113215271247
 30
0.0
  0
POINT
  5
4E7A
330
4913
100
AcDbEntity
  8
DEFPOINTS
 62
     0
100
AcDbPoint
 10
325.5443760699936
 20
197.7766559871247
 30
0.0
  0
POINT
  5
4E7B
330
4913
100
AcDbEntity
  8
DEFPOINTS
 62
     0
100
AcDbPoint
 10
305.68859357702
 20
230.8696267691651
 30
0.0
  0
ENDBLK
  5
491E
330
4913
100
AcDbEntity
  8
0
100
AcDbBlockEnd
  0
BLOCK
  5
4929
330
491F
100
AcDbEntity
  8
0
100
AcDbBlockBegin
  2
*D12
 70
     1
 10
0.0
 20
0.0
 30
0.0
  3
*D12
  1

  0
LINE
  5
4E6A
330
491F
100
AcDbEntity
  8
SUNPOU
100
AcDbLine
 10
285.4908815544949
 20
185.8146296651088
 30
0.0
 11
265.7862211755477
 21
218.6557302845292
 31
0.0
  0
LINE
  5
4E6B
330
491F
100
AcDbEntity
  8
SUNPOU
100
AcDbLine
 10
321.5055844244949
 20
207.4234513951088
 30
0.0
 11
301.8009240455477
 21
240.2645520145292
 31
0.0
  0
LINE
  5
4E6C
330
491F
100
AcDbEntity
  8
SUNPOU
100
AcDbLine
 10
269.1304435857846
 20
218.9129781627892
 30
0.0
 11
300.0001889020135
 21
237.4348253593837
 31
0.0
  0
INSERT
  5
4E6D
330
491F
100
AcDbEntity
  8
SUNPOU
100
AcDbBlockReference
  2
_OPEN
 10
266.5579648088991
 20
217.3694908960865
 30
0.0
 41
3.0
 42
3.0
 43
3.0
 50
210.9637565414316
  0
INSERT
  5
4E6E
330
491F
100
AcDbEntity
  8
SUNPOU
100
AcDbBlockReference
  2
_OPEN
 10
302.5726676788991
 20
238.9783126260865
 30
0.0
 41
3.0
 42
3.0
 43
3.0
 50
30.96375654143173
  0
MTEXT
  5
4E6F
330
491F
100
AcDbEntity
  8
SUNPOU
100
AcDbMText
 10
283.2790768549802
 20
230.3176340751577
 30
0.0
 40
3.0
 41
0.0
 71
     5
 72
     1
  1
\A1;42
 11
0.8574929256285107
 21
0.5144957555675824
 31
0.0
1001
ACAD
1000
MTEXTBEGIN
1070
    73
1070
     1
1070
    44
1040
1.0
1070
    74
1070
     0
1000
MTEXTEND
  0
POINT
  5
4E70
330
491F
100
AcDbEntity
  8
DEFPOINTS
 62
     0
100
AcDbPoint
 10
287.0343688211977
 20
183.2421508882233
 30
0.0
  0
POINT
  5
4E71
330
491F
100
AcDbEntity
  8
DEFPOINTS
 62
     0
100
AcDbPoint
 10
323.0490716911977
 20
204.8509726182233
 30
0.0
  0
POINT
  5
4E72
330
491F
100
AcDbEntity
  8
DEFPOINTS
 62
     0
100
AcDbPoint
 10
302.5726676788991
 20
238.9783126260865
 30
0.0
  0
ENDBLK
  5
492A
330
491F
100
AcDbEntity
  8
0
100
AcDbBlockEnd
  0
BLOCK
  5
4935
330
492B
100
AcDbEntity
  8
0
100
AcDbBlockBegin
  2
*D13
 70
     1
 10
0.0
 20
0.0
 30
0.0
  3
*D13
  1

  0
LINE
  5
4E61
330
492B
100
AcDbEntity
  8
SUNPOU
100
AcDbLine
 10
330.131963305281
 20
209.5671837300455
 30
0.0
 11
340.4950993433213
 21
215.7850653234116
 31
0.0
  0
LINE
  5
4E62
330
492B
100
AcDbEntity
  8
SUNPOU
100
AcDbLine
 10
337.3349038462997
 20
197.5622827714725
 30
0.0
 11
347.6980398843402
 21
203.7801643648386
 31
0.0
  0
LINE
  5
4E63
330
492B
100
AcDbEntity
  8
SUNPOU
100
AcDbLine
 10
340.7523472140452
 20
212.440842912595
 30
0.0
 11
344.8683132332525
 21
205.5808995147494
 31
0.0
  0
INSERT
  5
4E64
330
492B
100
AcDbEntity
  8
SUNPOU
100
AcDbBlockReference
  2
_OPEN
 10
339.2088599531394
 20
215.0133216929587
 30
0.0
 41
3.0
 42
3.0
 43
3.0
 50
120.9637564123172
  0
INSERT
  5
4E65
330
492B
100
AcDbEntity
  8
SUNPOU
100
AcDbBlockReference
  2
_OPEN
 10
346.4118004941582
 20
203.0084207343857
 30
0.0
 41
3.0
 42
3.0
 43
3.0
 50
300.9637564123172
  0
MTEXT
  5
4E66
330
492B
100
AcDbEntity
  8
SUNPOU
100
AcDbMText
 10
344.9540625406187
 20
210.2971105977603
 30
0.0
 40
3.0
 41
0.0
 71
     5
 72
     1
  1
\A1;14
 11
0.5144957536352454
 21
-0.8574929267879129
 31
0.0
1001
ACAD
1000
MTEXTBEGIN
1070
    73
1070
     1
1070
    44
1040
1.0
1070
    74
1070
     0
1000
MTEXTEND
  0
POINT
  5
4E67
330
492B
100
AcDbEntity
  8
DEFPOINTS
 62
     0
100
AcDbPoint
 10
327.5594845249173
 20
208.0236964691398
 30
0.0
  0
POINT
  5
4E68
330
492B
100
AcDbEntity
  8
DEFPOINTS
 62
     0
100
AcDbPoint
 10
334.762425065936
 20
196.0187955105668
 30
0.0
  0
POINT
  5
4E69
330
492B
100
AcDbEntity
  8
DEFPOINTS
 62
     0
100
AcDbPoint
 10
346.4118004941582
 20
203.0084207343857
 30
0.0
  0
ENDBLK
  5
4936
330
492B
100
AcDbEntity
  8
0
100
AcDbBlockEnd
  0
BLOCK
  5
4AB4
330
4AAA
100
AcDbEntity
  8
0
100
AcDbBlockBegin
  2
*D14
 70
     1
 10
0.0
 20
0.0
 30
0.0
  3
*D14
  1

  0
LINE
  5
4E32
330
4AAA
100
AcDbEntity
  8
SUNPOU
100
AcDbLine
 10
183.669562834959
 20
103.5292088286118
 30
0.0
 11
183.669562834959
 21
159.4292251175024
 31
0.0
  0
LINE
  5
4E33
330
4AAA
100
AcDbEntity
  8
SUNPOU
100
AcDbLine
 10
191.7731105872274
 20
141.6323203890591
 30
0.0
 11
191.7731105872274
 21
159.4292251175024
 31
0.0
  0
LINE
  5
4E34
330
4AAA
100
AcDbEntity
  8
SUNPOU
100
AcDbLine
 10
186.6695628349591
 20
157.9292251175024
 30
0.0
 11
188.7731105872274
 21
157.9292251175024
 31
0.0
  0
INSERT
  5
4E35
330
4AAA
100
AcDbEntity
  8
SUNPOU
100
AcDbBlockReference
  2
_OPEN
 10
183.669562834959
 20
157.9292251175024
 30
0.0
 41
3.0
 42
3.0
 43
3.0
 50
180.0
  0
INSERT
  5
4E36
330
4AAA
100
AcDbEntity
  8
SUNPOU
100
AcDbBlockReference
  2
_OPEN
 10
191.7731105872274
 20
157.9292251175024
 30
0.0
 41
3.0
 42
3.0
 43
3.0
  0
MTEXT
  5
4E37
330
4AAA
100
AcDbEntity
  8
SUNPOU
100
AcDbMText
 10
187.7213367110932
 20
160.4292251175024
 30
0.0
 40
3.0
 41
0.0
 71
     5
 72
     1
  1
\A1;8
1001
ACAD
1000
MTEXTBEGIN
1070
    73
1070
     1
1070
    44
1040
1.0
1070
    74
1070
     0
1000
MTEXTEND
  0
POINT
  5
4E38
330
4AAA
100
AcDbEntity
  8
DEFPOINTS
 62
     0
100
AcDbPoint
 10
183.669562834959
 20
100.5292088286118
 30
0.0
  0
POINT
  5
4E39
330
4AAA
100
AcDbEntity
  8
DEFPOINTS
 62
     0
100
AcDbPoint
 10
191.7731105872274
 20
138.6323203890592
 30
0.0
  0
POINT
  5
4E3A
330
4AAA
100
AcDbEntity
  8
DEFPOINTS
 62
     0
100
AcDbPoint
 10
191.7731105872274
 20
157.9292251175024
 30
0.0
  0
ENDBLK
  5
4AB5
330
4AAA
100
AcDbEntity
  8
0
100
AcDbBlockEnd
  0
BLOCK
  5
4AC3
330
4AB7
100
AcDbEntity
  8
0
100
AcDbBlockBegin
  2
*D15
 70
     1
 10
0.0
 20
0.0
 30
0.0
  3
*D15
  1

  0
LINE
  5
4E0C
330
4AB7
100
AcDbEntity
  8
SUNPOU
100
AcDbLine
 10
65.7066628298183
 20
97.00688570647727
 30
0.0
 11
38.28420018830954
 21
97.00688570647727
 31
0.0
  0
LINE
  5
4E0D
330
4AB7
100
AcDbEntity
  8
SUNPOU
100
AcDbLine
 10
212.624567319959
 20
98.87989250761188
 30
0.0
 11
38.28420018830953
 21
98.87989250761194
 31
0.0
  0
LINE
  5
4E0E
330
4AB7
100
AcDbEntity
  8
SUNPOU
100
AcDbLine
 10
39.78420018830954
 20
94.00688570647727
 30
0.0
 11
39.78420018830954
 21
91.00688570647726
 31
0.0
  0
LINE
  5
4E0F
330
4AB7
100
AcDbEntity
  8
SUNPOU
100
AcDbLine
 10
39.78420018830954
 20
101.8798925076119
 30
0.0
 11
39.78420018830954
 21
108.8798925076119
 31
0.0
  0
LINE
  5
4E10
330
4AB7
100
AcDbEntity
  8
SUNPOU
100
AcDbLine
 10
39.78420018830954
 20
97.00688570647727
 30
0.0
 11
39.78420018830954
 21
98.87989250761194
 31
0.0
  0
INSERT
  5
4E11
330
4AB7
100
AcDbEntity
  8
SUNPOU
100
AcDbBlockReference
  2
_OPEN
 10
39.78420018830954
 20
97.00688570647727
 30
0.0
 41
3.0
 42
3.0
 43
3.0
 50
90.0
  0
INSERT
  5
4E12
330
4AB7
100
AcDbEntity
  8
SUNPOU
100
AcDbBlockReference
  2
_OPEN
 10
39.78420018830954
 20
98.87989250761194
 30
0.0
 41
3.0
 42
3.0
 43
3.0
 50
270.0
  0
MTEXT
  5
4E13
330
4AB7
100
AcDbEntity
  8
SUNPOU
100
AcDbMText
 10
37.28420018830952
 20
106.8798925076119
 30
0.0
 40
3.0
 41
0.0
 71
     5
 72
     1
  1
\A1;2
 11
0.0000000000000001
 21
1.0
 31
0.0
1001
ACAD
1000
MTEXTBEGIN
1070
    73
1070
     1
1070
    44
1040
1.0
1070
    74
1070
     0
1000
MTEXTEND
  0
POINT
  5
4E14
330
4AB7
100
AcDbEntity
  8
DEFPOINTS
 62
     0
100
AcDbPoint
 10
68.70666282981829
 20
97.00688570647727
 30
0.0
  0
POINT
  5
4E15
330
4AB7
100
AcDbEntity
  8
DEFPOINTS
 62
     0
100
AcDbPoint
 10
215.624567319959
 20
98.87989250761188
 30
0.0
  0
POINT
  5
4E16
330
4AB7
100
AcDbEntity
  8
DEFPOINTS
 62
     0
100
AcDbPoint
 10
39.78420018830954
 20
98.87989250761194
 30
0.0
  0
ENDBLK
  5
4AC4
330
4AB7
100
AcDbEntity
  8
0
100
AcDbBlockEnd
  0
ENDSEC
  0
SECTION
  2
ENTITIES
  0
LINE
  5
363
330
1A
100
AcDbEntity
  8
SEIHIN
100
AcDbLine
 10
90.56956283495907
 20
77.8132820576119
 30
0.0
 11
115.569562836959
 21
77.8132820576119
 31
0.0
  0
ARC
  5
364
330
1A
100
AcDbEntity
  8
SEIHIN
100
AcDbCircle
 10
106.069562834959
 20
98.30688570761191
 30
0.0
 40
9.535085152808647
100
AcDbArc
 50
4.916661302937908
 51
179.999861547953
  0
LINE
  5
367
330
1A
100
AcDbEntity
  8
SEIHIN
100
AcDbLine
 10
96.53447768495908
 20
98.3069087486119
 30
0.0
 11
96.53445803495907
 21
89.97515824761192
 31
0.0
  0
LINE
  5
368
330
1A
100
AcDbEntity
  8
SEIHIN
100
AcDbLine
 10
90.56956283495907
 20
77.8132820576119
 30
0.0
 11
90.56956283495907
 21
96.81328205961191
 31
0.0
  0
LINE
  5
369
330
1A
100
AcDbEntity
  8
SEIHIN
100
AcDbLine
 10
94.53447416495908
 20
96.81327970161191
 30
0.0
 11
94.53445803495908
 21
89.97515824761192
 31
0.0
  0
LINE
  5
36A
330
1A
100
AcDbEntity
  8
SEIHIN
100
AcDbLine
 10
95.16956283495909
 20
97.0068857076119
 30
0.0
 11
95.16954868495906
 21
91.00688570761191
 31
0.0
  0
LINE
  5
36B
330
1A
100
AcDbEntity
  8
SEIHIN
100
AcDbLine
 10
96.16956283495909
 20
97.0068857076119
 30
0.0
 11
96.16954868495907
 21
91.00688334961191
 31
0.0
  0
LINE
  5
36F
330
1A
100
AcDbEntity
  8
SEIHIN
100
AcDbLine
 10
94.53445803495908
 20
89.97515824761192
 30
0.0
 11
96.53445803495907
 21
89.97515824761192
 31
0.0
  0
LINE
  5
370
330
1A
100
AcDbEntity
  8
SEIHIN
100
AcDbLine
 10
95.16954868495906
 20
91.00688570761191
 30
0.0
 11
96.53446046495908
 21
91.00688570761191
 31
0.0
  0
LINE
  5
371
330
1A
100
AcDbEntity
  8
SEIHIN
100
AcDbLine
 10
109.069562834959
 20
87.50688570761189
 30
0.0
 11
109.069562834959
 21
83.50688570761191
 31
0.0
  0
LINE
  5
372
330
1A
100
AcDbEntity
  8
SEIHIN
100
AcDbLine
 10
102.069562834959
 20
87.50688570761189
 30
0.0
 11
102.069562834959
 21
83.50688570761191
 31
0.0
  0
MTEXT
  5
373
330
1A
100
AcDbEntity
  8
SEIHIN
100
AcDbMText
 10
103.922508614959
 20
85.3868729516119
 30
0.0
 40
2.381249964
 41
0.0
 71
     1
 72
     5
  1
{\W1.460317;10}
1001
ACAD
1000
MTEXTBEGIN
1070
    73
1070
     1
1070
    44
1040
1.0
1070
    74
1070
     0
1000
MTEXTEND
1000
MTEXTBEGIN
1070
    73
1070
     1
1070
    44
1040
1.0
1070
    74
1070
     0
1000
MTEXTEND
1000
MTEXTBEGIN
1070
    73
1070
     1
1070
    44
1040
1.0
1070
    74
1070
     0
1000
MTEXTEND
1000
MTEXTBEGIN
1070
    73
1070
     1
1070
    44
1040
1.0
1070
    74
1070
     0
1000
MTEXTEND
1000
MTEXTBEGIN
1070
    73
1070
     1
1070
    44
1040
1.0
1070
    74
1070
     0
1000
MTEXTEND
1000
MTEXTBEGIN
1070
    73
1070
     1
1070
    44
1040
1.0
1070
    74
1070
     0
1000
MTEXTEND
1000
MTEXTBEGIN
1070
    73
1070
     1
1070
    44
1040
1.0
1070
    74
1070
     0
1000
MTEXTEND
1000
MTEXTBEGIN
1070
    73
1070
     1
1070
    44
1040
1.0
1070
    74
1070
     0
1000
MTEXTEND
1000
MTEXTBEGIN
1070
    73
1070
     1
1070
    44
1040
1.0
1070
    74
1070
     0
1000
MTEXTEND
1000
MTEXTBEGIN
1070
    73
1070
     1
1070
    44
1040
1.0
1070
    74
1070
     0
1000
MTEXTEND
1000
MTEXTBEGIN
1070
    73
1070
     1
1070
    44
1040
1.0
1070
    74
1070
     0
1000
MTEXTEND
1000
MTEXTBEGIN
1070
    73
1070
     1
1070
    44
1040
1.0
1070
    74
1070
     0
1000
MTEXTEND
1000
MTEXTBEGIN
1070
    73
1070
     1
1070
    44
1040
1.0
1070
    74
1070
     0
1000
MTEXTEND
1000
MTEXTBEGIN
1070
    73
1070
     1
1070
    44
1040
1.0
1070
    74
1070
     0
1000
MTEXTEND
  0
LINE
  5
374
330
1A
100
AcDbEntity
  8
SEIHIN
100
AcDbLine
 10
108.069562834959
 20
82.50688570761189
 30
0.0
 11
103.069562834959
 21
82.50688570761189
 31
0.0
  0
LINE
  5
375
330
1A
100
AcDbEntity
  8
SEIHIN
100
AcDbLine
 10
106.7242633749591
 20
80.5068857076119
 30
0.0
 11
104.414862294959
 21
80.5068857076119
 31
0.0
  0
LINE
  5
376
330
1A
100
AcDbEntity
  8
SEIHIN
100
AcDbLine
 10
105.569562834959
 20
82.50688570761189
 30
0.0
 11
104.414862294959
 21
80.5068857076119
 31
0.0
  0
ARC
  5
377
330
1A
100
AcDbEntity
  8
SEIHIN
100
AcDbCircle
 10
103.069562834959
 20
83.50688570761191
 30
0.0
 40
1.0
100
AcDbArc
 50
180.0
 51
270.0
  0
ARC
  5
378
330
1A
100
AcDbEntity
  8
SEIHIN
100
AcDbCircle
 10
108.069562834959
 20
83.50688570761191
 30
0.0
 40
1.0
100
AcDbArc
 50
270.0
 51
0.0
  0
LINE
  5
379
330
1A
100
AcDbEntity
  8
SEIHIN
100
AcDbLine
 10
105.569562834959
 20
82.50688570761189
 30
0.0
 11
106.7242633749591
 21
80.5068857076119
 31
0.0
  0
LINE
  5
37A
330
1A
100
AcDbEntity
  8
SEIHIN
100
AcDbLine
 10
105.326312834959
 20
88.50688570761191
 30
0.0
 11
105.826312834959
 21
88.50688570761191
 31
0.0
  0
LINE
  5
37B
330
1A
100
AcDbEntity
  8
SEIHIN
100
AcDbLine
 10
103.069562834959
 20
88.50688570761191
 30
0.0
 11
108.069562834959
 21
88.50688570761191
 31
0.0
  0
LINE
  5
37C
330
1A
100
AcDbEntity
  8
SEIHIN
100
AcDbLine
 10
105.326312834959
 20
88.50688570761191
 30
0.0
 11
105.826312834959
 21
88.50688570761191
 31
0.0
  0
LINE
  5
37D
330
1A
100
AcDbEntity
  8
SEIHIN
100
AcDbLine
 10
105.826312834959
 20
86.5068857076119
 30
0.0
 11
105.326312834959
 21
86.5068857076119
 31
0.0
  0
ARC
  5
37E
330
1A
100
AcDbEntity
  8
SEIHIN
100
AcDbCircle
 10
103.069562834959
 20
87.50688570761189
 30
0.0
 40
1.0
100
AcDbArc
 50
90.0
 51
180.0
  0
LINE
  5
37F
330
1A
100
AcDbEntity
  8
SEIHIN
100
AcDbLine
 10
105.326312834959
 20
86.5068857076119
 30
0.0
 11
105.326312834959
 21
88.50688570761191
 31
0.0
  0
ARC
  5
380
330
1A
100
AcDbEntity
  8
SEIHIN
100
AcDbCircle
 10
108.069562834959
 20
87.50688570761189
 30
0.0
 40
1.0
100
AcDbArc
 50
0.0
 51
90.0
  0
LINE
  5
381
330
1A
100
AcDbEntity
  8
SEIHIN
100
AcDbLine
 10
105.826312834959
 20
88.50688570761191
 30
0.0
 11
105.826312834959
 21
86.5068857076119
 31
0.0
  0
ARC
  5
384
330
1A
100
AcDbEntity
  8
SEIHIN
100
AcDbCircle
 10
91.56956283495906
 20
96.81328205961191
 30
0.0
 40
1.0
100
AcDbArc
 50
90.0
 51
180.0
  0
ARC
  5
387
330
1A
100
AcDbEntity
  8
SEIHIN
100
AcDbCircle
 10
93.53447416495908
 20
96.81328205961191
 30
0.0
 40
1.000000000001389
100
AcDbArc
 50
359.9998648965517
 51
90.0
  0
LINE
  5
388
330
1A
100
AcDbEntity
  8
SEIHIN
100
AcDbLine
 10
93.53447416495908
 20
97.81328205961191
 30
0.0
 11
91.56956283495906
 21
97.81328205961191
 31
0.0
  0
LINE
  5
389
330
1A
100
AcDbEntity
  8
SEIHIN
100
AcDbLine
 10
95.16956283495909
 20
97.0068857076119
 30
0.0
 11
96.53447461495909
 21
97.0068857076119
 31
0.0
  0
CIRCLE
  5
38B
330
1A
100
AcDbEntity
  8
SEIHIN
100
AcDbCircle
 10
105.569562834959
 20
101.8068857076119
 30
0.0
 40
3.500000004238516
  0
LINE
  5
38F
330
1A
100
AcDbEntity
  8
SEIHIN
100
AcDbLine
 10
115.569562836959
 20
77.8132820576119
 30
0.0
 11
115.569562836959
 21
99.12410592661192
 31
0.0
  0
LINE
  5
3DF
330
1A
100
AcDbEntity
  8
SEIHIN
100
AcDbLine
 10
95.10246580495907
 20
220.9403642048174
 30
0.0
 11
95.10246580495907
 21
217.4403642048174
 31
0.0
  0
LINE
  5
3E0
330
1A
100
AcDbEntity
  8
SEIHIN
100
AcDbLine
 10
96.10246580495909
 20
217.9403642048174
 30
0.0
 11
96.10246580495909
 21
220.9403642048174
 31
0.0
  0
LINE
  5
3E4
330
1A
100
AcDbEntity
  8
SEIHIN
100
AcDbLine
 10
96.60246580495908
 20
217.4403642048174
 30
0.0
 11
213.5969002699591
 21
217.4403642048174
 31
0.0
  0
LINE
  5
3E5
330
1A
100
AcDbEntity
  8
SEIHIN
100
AcDbLine
 10
96.60246580495908
 20
202.4403641648174
 30
0.0
 11
213.5969002699591
 21
202.4403641648174
 31
0.0
  0
LINE
  5
3E6
330
1A
100
AcDbEntity
  8
SEIHIN
100
AcDbLine
 10
96.10246580495909
 20
203.4403641648174
 30
0.0
 11
213.5969002699591
 21
203.4403641648174
 31
0.0
  0
LINE
  5
3E7
330
1A
100
AcDbEntity
  8
SEIHIN
100
AcDbLine
 10
96.10246580495909
 20
216.4403642048174
 30
0.0
 11
213.5969002699591
 21
216.4403642048174
 31
0.0
  0
LINE
  5
3E8
330
1A
100
AcDbEntity
  8
SEIHIN
100
AcDbLine
 10
125.975845934959
 20
212.9403641648174
 30
0.0
 11
207.8005467920086
 21
212.9403641648174
 31
0.0
  0
LINE
  5
3E9
330
1A
100
AcDbEntity
  8
SEIHIN
100
AcDbLine
 10
125.975845934959
 20
206.9403641648174
 30
0.0
 11
207.8012604995089
 21
206.9403641648174
 31
0.0
  0
LINE
  5
3EB
330
1A
100
AcDbEntity
  8
SEIHIN
100
AcDbLine
 10
96.3888492449591
 20
203.6682905248174
 30
0.0
 11
123.975845934959
 21
203.6682905248174
 31
0.0
  0
LINE
  5
3EC
330
1A
100
AcDbEntity
  8
SEIHIN
100
AcDbLine
 10
99.17836879495908
 20
205.7859201548174
 30
0.0
 11
121.237055919959
 21
205.7859201548174
 31
0.0
  0
LINE
  5
3ED
330
1A
100
AcDbEntity
  8
SEIHIN
100
AcDbLine
 10
96.3888492449591
 20
216.2124378048174
 30
0.0
 11
123.975845934959
 21
216.2124378048174
 31
0.0
  0
LINE
  5
3EE
330
1A
100
AcDbEntity
  8
SEIHIN
100
AcDbLine
 10
99.17836879495908
 20
214.0948082048174
 30
0.0
 11
121.237055919959
 21
214.0948082048174
 31
0.0
  0
LINE
  5
3EF
330
1A
100
AcDbEntity
  8
SEIHIN
100
AcDbLine
 10
115.569562836959
 20
201.9403641648174
 30
0.0
 11
96.53471634495907
 21
201.9404101648174
 31
0.0
  0
LINE
  5
3F0
330
1A
100
AcDbEntity
  8
SEIHIN
100
AcDbLine
 10
96.53475501495908
 20
217.9403642048174
 30
0.0
 11
115.569562836959
 21
217.9403642048174
 31
0.0
  0
LINE
  5
3F1
330
1A
100
AcDbEntity
  8
SEIHIN
100
AcDbLine
 10
96.3888492449591
 20
208.0157528248174
 30
0.0
 11
99.17836879495908
 21
208.0157528248174
 31
0.0
  0
LINE
  5
3F2
330
1A
100
AcDbEntity
  8
SEIHIN
100
AcDbLine
 10
96.3888492449591
 20
211.8649755048174
 30
0.0
 11
99.17836879495908
 21
211.8649755048174
 31
0.0
  0
LINE
  5
3F3
330
1A
100
AcDbEntity
  8
SEIHIN
100
AcDbLine
 10
99.17836879495908
 20
215.2124378048174
 30
0.0
 11
96.3888492449591
 21
215.2124378048174
 31
0.0
  0
LINE
  5
3F4
330
1A
100
AcDbEntity
  8
SEIHIN
100
AcDbLine
 10
99.17836879495908
 20
204.6682905248174
 30
0.0
 11
96.3888492449591
 21
204.6682905248174
 31
0.0
  0
ARC
  5
3F5
330
1A
100
AcDbEntity
  8
SEIHIN
100
AcDbCircle
 10
96.3888492449591
 20
209.9403641648174
 30
0.0
 40
3.000000000000011
100
AcDbArc
 50
90.00000515662017
 51
269.9999952253516
  0
LINE
  5
3F6
330
1A
100
AcDbEntity
  8
SEIHIN
100
AcDbLine
 10
96.3888492449591
 20
215.2124378048174
 30
0.0
 11
96.3888492449591
 21
204.6682905248174
 31
0.0
  0
ARC
  5
3F7
330
1A
100
AcDbEntity
  8
SEIHIN
100
AcDbCircle
 10
96.10246580495909
 20
202.4403641648174
 30
0.0
 40
1.0
100
AcDbArc
 50
90.0
 51
180.0
  0
LINE
  5
3F8
330
1A
100
AcDbEntity
  8
SEIHIN
100
AcDbLine
 10
94.53471177495908
 20
202.4403641648174
 30
0.0
 11
90.56956283495907
 21
202.4403641648174
 31
0.0
  0
LINE
  5
3F9
330
1A
100
AcDbEntity
  8
SEIHIN
100
AcDbLine
 10
90.56956283495907
 20
201.9403641648174
 30
0.0
 11
94.53447015495909
 21
201.9403641648174
 31
0.0
  0
LINE
  5
3FA
330
1A
100
AcDbEntity
  8
SEIHIN
100
AcDbLine
 10
90.56956283495907
 20
201.9403641648174
 30
0.0
 11
90.56956283495907
 21
202.4403641648174
 31
0.0
  0
ARC
  5
3FB
330
1A
100
AcDbEntity
  8
SEIHIN
100
AcDbCircle
 10
96.60246580495908
 20
201.9403641648174
 30
0.0
 40
0.5
100
AcDbArc
 50
90.0
 51
180.0
  0
LINE
  5
3FC
330
1A
100
AcDbEntity
  8
SEIHIN
100
AcDbLine
 10
96.10246580495909
 20
201.9403641648174
 30
0.0
 11
96.10246580495909
 21
198.9403641648174
 31
0.0
  0
LINE
  5
3FD
330
1A
100
AcDbEntity
  8
SEIHIN
100
AcDbLine
 10
95.10246580495907
 20
198.9403641648174
 30
0.0
 11
95.10246580495907
 21
202.4403641648174
 31
0.0
  0
LINE
  5
3FE
330
1A
100
AcDbEntity
  8
SEIHIN
100
AcDbLine
 10
96.10246580495909
 20
198.9403641648174
 30
0.0
 11
95.10246580495907
 21
198.9403641648174
 31
0.0
  0
LINE
  5
3FF
330
1A
100
AcDbEntity
  8
SEIHIN
100
AcDbLine
 10
96.53471634495907
 20
201.9404101648174
 30
0.0
 11
96.53471755495907
 21
202.4403641648174
 31
0.0
  0
LINE
  5
400
330
1A
100
AcDbEntity
  8
SEIHIN
100
AcDbLine
 10
94.53471059495909
 20
201.9403641648174
 30
0.0
 11
94.53471177495908
 21
202.4403641648174
 31
0.0
  0
LINE
  5
401
330
1A
100
AcDbEntity
  8
SEIHIN
100
AcDbLine
 10
96.3888492449591
 20
204.6682905248174
 30
0.0
 11
96.3888492449591
 21
203.6682905248174
 31
0.0
  0
LINE
  5
402
330
1A
100
AcDbEntity
  8
SEIHIN
100
AcDbLine
 10
94.53474714495909
 20
217.4403642048174
 30
0.0
 11
90.56956283495907
 21
217.4403642048174
 31
0.0
  0
LINE
  5
403
330
1A
100
AcDbEntity
  8
SEIHIN
100
AcDbLine
 10
90.56956283495907
 20
217.9403642048174
 30
0.0
 11
94.53447015495909
 21
217.9403642048174
 31
0.0
  0
LINE
  5
404
330
1A
100
AcDbEntity
  8
SEIHIN
100
AcDbLine
 10
90.56956283495907
 20
217.4403642048174
 30
0.0
 11
90.56956283495907
 21
217.9403642048174
 31
0.0
  0
ARC
  5
405
330
1A
100
AcDbEntity
  8
SEIHIN
100
AcDbCircle
 10
96.10246580495909
 20
217.4403642048174
 30
0.0
 40
1.0
100
AcDbArc
 50
180.0
 51
270.0
  0
LINE
  5
406
330
1A
100
AcDbEntity
  8
SEIHIN
100
AcDbLine
 10
96.53475380495908
 20
217.4403642048174
 30
0.0
 11
96.53475501495908
 21
217.9403642048174
 31
0.0
  0
LINE
  5
407
330
1A
100
AcDbEntity
  8
SEIHIN
100
AcDbLine
 10
94.53474714495909
 20
217.4403642048174
 30
0.0
 11
94.53474832495908
 21
217.9403642048174
 31
0.0
  0
LINE
  5
408
330
1A
100
AcDbEntity
  8
SEIHIN
100
AcDbLine
 10
96.3888492449591
 20
215.2124378048174
 30
0.0
 11
96.3888492449591
 21
216.2124378048174
 31
0.0
  0
ARC
  5
409
330
1A
100
AcDbEntity
  8
SEIHIN
100
AcDbCircle
 10
96.60246580495908
 20
217.9403642048174
 30
0.0
 40
0.5
100
AcDbArc
 50
180.0
 51
270.0
  0
LINE
  5
40A
330
1A
100
AcDbEntity
  8
SEIHIN
100
AcDbLine
 10
99.17836879495908
 20
203.6682905248174
 30
0.0
 11
99.17836879495908
 21
216.2124378048174
 31
0.0
  0
ARC
  5
40B
330
1A
100
AcDbEntity
  8
SEIHIN
100
AcDbCircle
 10
105.569803964959
 20
206.4586936648174
 30
0.0
 40
5.715337531631893
100
AcDbArc
 50
232.2375418744897
 51
307.7621812247566
  0
LINE
  5
40C
330
1A
100
AcDbEntity
  8
SEIHIN
100
AcDbLine
 10
99.17836879495908
 20
203.6682905248174
 30
0.0
 11
99.17836879495908
 21
204.8682905248174
 31
0.0
  0
LINE
  5
40D
330
1A
100
AcDbEntity
  8
SEIHIN
100
AcDbLine
 10
102.069793044959
 20
217.9403642048174
 30
0.0
 11
109.069793044959
 21
217.9403642048174
 31
0.0
  0
LINE
  5
40E
330
1A
100
AcDbEntity
  8
SEIHIN
100
AcDbLine
 10
109.069793044959
 20
219.0048026048174
 30
0.0
 11
102.069793044959
 21
219.0048026048174
 31
0.0
  0
LINE
  5
40F
330
1A
100
AcDbEntity
  8
SEIHIN
100
AcDbLine
 10
99.17836879495908
 20
216.2124378048174
 30
0.0
 11
99.17836879495908
 21
215.0124378048174
 31
0.0
  0
LINE
  5
410
330
1A
100
AcDbEntity
  8
SEIHIN
100
AcDbLine
 10
102.069793044959
 20
219.0048026048174
 30
0.0
 11
102.069793044959
 21
217.9403642048174
 31
0.0
  0
LINE
  5
411
330
1A
100
AcDbEntity
  8
SEIHIN
100
AcDbLine
 10
109.069793044959
 20
217.9403642048174
 30
0.0
 11
109.069793044959
 21
219.0048026048174
 31
0.0
  0
LINE
  5
412
330
1A
100
AcDbEntity
  8
SEIHIN
100
AcDbLine
 10
119.513905559459
 20
206.7859201548174
 30
0.0
 11
119.513905559459
 21
213.0948081748174
 31
0.0
  0
LINE
  5
413
330
1A
100
AcDbEntity
  8
SEIHIN
100
AcDbLine
 10
114.671985323959
 20
206.7859201548174
 30
0.0
 11
114.671985323959
 21
213.0948081748174
 31
0.0
  0
LINE
  5
414
330
1A
100
AcDbEntity
  8
SEIHIN
100
AcDbLine
 10
123.237055919959
 20
212.0948081748174
 30
0.0
 11
123.237055919959
 21
207.7859201548174
 31
0.0
  0
LINE
  5
415
330
1A
100
AcDbEntity
  8
SEIHIN
100
AcDbLine
 10
125.975845934959
 20
205.6682905248174
 30
0.0
 11
125.975845934959
 21
214.2124378048174
 31
0.0
  0
LINE
  5
416
330
1A
100
AcDbEntity
  8
SEIHIN
100
AcDbLine
 10
124.828280227959
 20
205.6682905248174
 30
0.0
 11
124.828280227959
 21
214.2124378048174
 31
0.0
  0
LINE
  5
417
330
1A
100
AcDbEntity
  8
SEIHIN
100
AcDbLine
 10
115.569562836959
 20
201.9403641648174
 30
0.0
 11
115.569562836959
 21
202.4403641648174
 31
0.0
  0
ARC
  5
418
330
1A
100
AcDbEntity
  8
SEIHIN
100
AcDbCircle
 10
122.828280227959
 20
205.6682905248174
 30
0.0
 40
2.0
100
AcDbArc
 50
270.0
 51
0.0
  0
ARC
  5
419
330
1A
100
AcDbEntity
  8
SEIHIN
100
AcDbCircle
 10
123.975845934959
 20
205.6682905248174
 30
0.0
 40
2.0
100
AcDbArc
 50
270.0
 51
0.0
  0
ARC
  5
41A
330
1A
100
AcDbEntity
  8
SEIHIN
100
AcDbCircle
 10
123.975845934959
 20
205.6682905248174
 30
0.0
 40
2.0
100
AcDbArc
 50
270.0
 51
0.0
  0
ARC
  5
41B
330
1A
100
AcDbEntity
  8
SEIHIN
100
AcDbCircle
 10
121.237055919959
 20
207.7859201548174
 30
0.0
 40
2.0
100
AcDbArc
 50
270.0
 51
0.0
  0
LINE
  5
41C
330
1A
100
AcDbEntity
  8
SEIHIN
100
AcDbLine
 10
115.569562836959
 20
217.4403642048174
 30
0.0
 11
115.569562836959
 21
217.9403642048174
 31
0.0
  0
ARC
  5
41D
330
1A
100
AcDbEntity
  8
SEIHIN
100
AcDbCircle
 10
122.828280227959
 20
214.2124378048174
 30
0.0
 40
2.0
100
AcDbArc
 50
0.0
 51
90.0
  0
ARC
  5
41E
330
1A
100
AcDbEntity
  8
SEIHIN
100
AcDbCircle
 10
123.975845934959
 20
214.2124378048174
 30
0.0
 40
2.0
100
AcDbArc
 50
0.0
 51
90.0
  0
ARC
  5
41F
330
1A
100
AcDbEntity
  8
SEIHIN
100
AcDbCircle
 10
123.975845934959
 20
214.2124378048174
 30
0.0
 40
2.0
100
AcDbArc
 50
0.0
 51
90.0
  0
ARC
  5
420
330
1A
100
AcDbEntity
  8
SEIHIN
100
AcDbCircle
 10
121.237055919959
 20
212.0948081748174
 30
0.0
 40
2.000000014999997
100
AcDbArc
 50
0.0
 51
90.0
  0
LINE
  5
43E
330
1A
100
AcDbEntity
  8
SEIHIN
100
AcDbLine
 10
96.10246580495909
 20
220.9403642048174
 30
0.0
 11
95.10246580495907
 21
220.9403642048174
 31
0.0
  0
LINE
  5
6FB
330
1A
100
AcDbEntity
  8
CENTER_L
100
AcDbLine
 10
55.06609631495908
 20
209.9403641848174
 30
0.0
 11
222.624567319959
 21
209.9403641848174
 31
0.0
  0
LINE
  5
BDA
330
1A
100
AcDbEntity
  8
SEIHIN
100
AcDbLine
 10
85.03451394495909
 20
80.00688570761189
 30
0.0
 11
90.56956283495907
 21
80.00688570761189
 31
0.0
  0
LINE
  5
BDB
330
1A
100
AcDbEntity
  8
SEIHIN
100
AcDbLine
 10
90.56956283495907
 20
88.50688570761191
 30
0.0
 11
85.67723941495904
 21
88.50688570761191
 31
0.0
  0
LINE
  5
BDC
330
1A
100
AcDbEntity
  8
SEIHIN
100
AcDbLine
 10
84.68657574495907
 20
82.50688570761189
 30
0.0
 11
90.56956283495907
 21
82.50688570761189
 31
0.0
  0
LINE
  5
BDD
330
1A
100
AcDbEntity
  8
SEIHIN
100
AcDbLine
 10
85.67723941495904
 20
91.00688570761191
 30
0.0
 11
90.56956283495907
 21
91.00688570761191
 31
0.0
  0
LINE
  5
BDF
330
1A
100
AcDbEntity
  8
SEIHIN
100
AcDbLine
 10
73.66942637495907
 20
89.20688570761189
 30
0.0
 11
82.66481608495906
 21
80.93112716761192
 31
0.0
  0
ARC
  5
BE0
330
1A
100
AcDbEntity
  8
SEIHIN
100
AcDbCircle
 10
84.68657574495907
 20
83.50688570761191
 30
0.0
 40
1.000000002404392
100
AcDbArc
 50
226.2544208983734
 51
270.0
  0
LINE
  5
BE1
330
1A
100
AcDbEntity
  8
SEIHIN
100
AcDbLine
 10
86.51157672495907
 20
88.50688570761191
 30
0.0
 11
86.51157672495907
 21
82.50688570761189
 31
0.0
  0
ARC
  5
BE2
330
1A
100
AcDbEntity
  8
SEIHIN
100
AcDbCircle
 10
85.03451394495909
 20
83.50688570761191
 30
0.0
 40
3.50000000029082
100
AcDbArc
 50
227.385943991837
 51
270.0
  0
LINE
  5
BE4
330
1A
100
AcDbEntity
  8
SEIHIN
100
AcDbLine
 10
68.66946283495906
 20
89.20688570761189
 30
0.0
 11
73.66942637495907
 21
89.20688570761189
 31
0.0
  0
ARC
  5
BE5
330
1A
100
AcDbEntity
  8
SEIHIN
100
AcDbCircle
 10
70.36963111495907
 20
97.2566893576119
 30
0.0
 40
4.249794616209057
100
AcDbArc
 50
248.0382779466742
 51
298.0729204221733
  0
LINE
  5
BE6
330
1A
100
AcDbEntity
  8
SEIHIN
100
AcDbLine
 10
68.66946283495906
 20
89.20688570761189
 30
0.0
 11
73.66942637495907
 21
89.20688570761189
 31
0.0
  0
LINE
  5
BE7
330
1A
100
AcDbEntity
  8
SEIHIN
100
AcDbLine
 10
68.66946283495906
 20
89.20688570761189
 30
0.0
 11
73.66942637495907
 21
89.20688570761189
 31
0.0
  0
ELLIPSE
  5
BE8
330
1A
100
AcDbEntity
  8
SEIHIN
100
AcDbEllipse
 10
68.96727446495908
 20
93.77896190761191
 30
0.0
 11
-0.480711628724846
 21
0.1374237974682779
 31
0.0
210
0.0
220
0.0
230
1.0
 40
1.0
 41
0.0000000000000004
 42
1.465876859819378
  0
ARC
  5
BE9
330
1A
100
AcDbEntity
  8
SEIHIN
100
AcDbCircle
 10
69.16822968495907
 20
93.59924273761192
 30
0.0
 40
3.499985617108208
100
AcDbArc
 50
103.1906191421164
 51
181.5120868822297
  0
ARC
  5
BEA
330
1A
100
AcDbEntity
  8
SEIHIN
100
AcDbCircle
 10
68.66946283495906
 20
92.20688570761188
 30
0.0
 40
3.0
100
AcDbArc
 50
180.0
 51
270.0
  0
LINE
  5
BEB
330
1A
100
AcDbEntity
  8
SEIHIN
100
AcDbLine
 10
65.66946283495906
 20
93.50688570761191
 30
0.0
 11
65.66946283495906
 21
92.20688570761188
 31
0.0
  0
LINE
  5
BED
330
1A
100
AcDbEntity
  8
SEIHIN
100
AcDbLine
 10
68.36946283495905
 20
97.0068857076119
 30
0.0
 11
68.70671212495906
 21
97.0068857076119
 31
0.0
  0
LINE
  5
BEE
330
1A
100
AcDbEntity
  8
SEIHIN
100
AcDbLine
 10
69.18746818495908
 20
96.36950443761191
 30
0.0
 11
68.48646283495907
 21
93.91638570761188
 31
0.0
  0
ELLIPSE
  5
BEF
330
1A
100
AcDbEntity
  8
SEIHIN
100
AcDbEllipse
 10
68.70668070495907
 20
96.50686200761192
 30
0.0
 11
0.4807821249180666
 21
-0.1373763011067326
 31
0.0
210
0.0
220
0.0
230
1.0
 40
1.0
 41
0.0
 42
1.849150924921633
  0
LINE
  5
BF0
330
1A
100
AcDbEntity
  8
SEIHIN
100
AcDbLine
 10
72.36956283495908
 20
93.50688570761191
 30
0.0
 11
81.60298888495907
 21
93.50688570761191
 31
0.0
  0
LINE
  5
BF1
330
1A
100
AcDbEntity
  8
SEIHIN
100
AcDbLine
 10
83.99511842495906
 20
82.78446838761192
 30
0.0
 11
77.20406283495908
 21
89.2844857076119
 31
0.0
  0
LINE
  5
BF2
330
1A
100
AcDbEntity
  8
SEIHIN
100
AcDbLine
 10
80.95220729495906
 20
91.00688570761191
 30
0.0
 11
77.89556283495909
 21
91.00688570761191
 31
0.0
  0
LINE
  5
BF3
330
1A
100
AcDbEntity
  8
SEIHIN
100
AcDbLine
 10
72.36956283495908
 20
93.50688570761191
 30
0.0
 11
72.36956283495908
 21
89.20688570761189
 31
0.0
  0
ARC
  5
BF4
330
1A
100
AcDbEntity
  8
SEIHIN
100
AcDbCircle
 10
77.89555942495906
 20
90.00687720761192
 30
0.0
 40
1.000008503298284
100
AcDbArc
 50
89.99980462305257
 51
226.251772552069
  0
ARC
  5
BF5
330
1A
100
AcDbEntity
  8
SEIHIN
100
AcDbCircle
 10
85.67723941495904
 20
93.0068857076119
 30
0.0
 40
4.499999998880124
100
AcDbArc
 50
223.0923541928525
 51
270.0
  0
ARC
  5
BF6
330
1A
100
AcDbEntity
  8
SEIHIN
100
AcDbCircle
 10
81.60298888495907
 20
91.5068857076119
 30
0.0
 40
1.999999999554587
100
AcDbArc
 50
43.09235410287214
 51
90.0
  0
LINE
  5
BF7
330
1A
100
AcDbEntity
  8
SEIHIN
100
AcDbLine
 10
82.39109889495907
 20
89.9325922176119
 30
0.0
 11
81.68246074495909
 21
90.69006203761194
 31
0.0
  0
ARC
  5
BF8
330
1A
100
AcDbEntity
  8
SEIHIN
100
AcDbCircle
 10
80.95220729495906
 20
90.00688570761189
 30
0.0
 40
0.9999999997772931
100
AcDbArc
 50
43.09235410287214
 51
90.0
  0
ARC
  5
BF9
330
1A
100
AcDbEntity
  8
SEIHIN
100
AcDbCircle
 10
85.67723941495904
 20
93.0068857076119
 30
0.0
 40
1.999999999554585
100
AcDbArc
 50
223.0923541028721
 51
270.0
  0
LINE
  5
BFA
330
1A
100
AcDbEntity
  8
SEIHIN
100
AcDbLine
 10
84.21673251495906
 20
91.64053304761194
 30
0.0
 11
83.06349578495906
 21
92.87323836761192
 31
0.0
  0
LINE
  5
BFB
330
1A
100
AcDbEntity
  8
SEIHIN
100
AcDbLine
 10
155.568317414959
 20
88.50688570761191
 30
0.0
 11
115.569562834959
 21
88.50688570761191
 31
0.0
  0
LINE
  5
BFC
330
1A
100
AcDbEntity
  8
SEIHIN
100
AcDbLine
 10
115.569562834959
 20
82.50688570761189
 30
0.0
 11
149.262506214959
 21
82.50688570761189
 31
0.0
  0
LINE
  5
BFD
330
1A
100
AcDbEntity
  8
SEIHIN
100
AcDbLine
 10
115.569562834959
 20
80.00688570761189
 30
0.0
 11
148.621809574959
 21
80.00688570761189
 31
0.0
  0
LINE
  5
BFE
330
1A
100
AcDbEntity
  8
SEIHIN
100
AcDbLine
 10
115.569562834959
 20
91.00688570761191
 30
0.0
 11
147.626307074959
 21
91.00688570761191
 31
0.0
  0
LINE
  5
C00
330
1A
100
AcDbEntity
  8
SEIHIN
100
AcDbLine
 10
145.169426374959
 20
88.50688570761191
 30
0.0
 11
145.169426374959
 21
82.50688570761189
 31
0.0
  0
MTEXT
  5
C0E
330
1A
100
AcDbEntity
  8
SEIHIN
100
AcDbMText
 10
116.353513340959
 20
85.4186629316119
 30
0.0
 40
2.381249964
 41
0.0
 71
     1
 72
     5
  1
{\W1.703704;0}
1001
ACAD
1000
MTEXTBEGIN
1070
    73
1070
     1
1070
    44
1040
1.0
1070
    74
1070
     0
1000
MTEXTEND
1000
MTEXTBEGIN
1070
    73
1070
     1
1070
    44
1040
1.0
1070
    74
1070
     0
1000
MTEXTEND
1000
MTEXTBEGIN
1070
    73
1070
     1
1070
    44
1040
1.0
1070
    74
1070
     0
1000
MTEXTEND
1000
MTEXTBEGIN
1070
    73
1070
     1
1070
    44
1040
1.0
1070
    74
1070
     0
1000
MTEXTEND
1000
MTEXTBEGIN
1070
    73
1070
     1
1070
    44
1040
1.0
1070
    74
1070
     0
1000
MTEXTEND
1000
MTEXTBEGIN
1070
    73
1070
     1
1070
    44
1040
1.0
1070
    74
1070
     0
1000
MTEXTEND
1000
MTEXTBEGIN
1070
    73
1070
     1
1070
    44
1040
1.0
1070
    74
1070
     0
1000
MTEXTEND
1000
MTEXTBEGIN
1070
    73
1070
     1
1070
    44
1040
1.0
1070
    74
1070
     0
1000
MTEXTEND
1000
MTEXTBEGIN
1070
    73
1070
     1
1070
    44
1040
1.0
1070
    74
1070
     0
1000
MTEXTEND
1000
MTEXTBEGIN
1070
    73
1070
     1
1070
    44
1040
1.0
1070
    74
1070
     0
1000
MTEXTEND
1000
MTEXTBEGIN
1070
    73
1070
     1
1070
    44
1040
1.0
1070
    74
1070
     0
1000
MTEXTEND
1000
MTEXTBEGIN
1070
    73
1070
     1
1070
    44
1040
1.0
1070
    74
1070
     0
1000
MTEXTEND
  0
LINE
  5
C12
330
1A
100
AcDbEntity
  8
SEIHIN
100
AcDbLine
 10
120.748862833959
 20
91.00688570761191
 30
0.0
 11
115.569562834959
 21
91.00688570761191
 31
0.0
  0
LINE
  5
C2D
330
1A
100
AcDbEntity
  8
SEIHIN
100
AcDbLine
 10
115.819562834959
 20
88.50688570761191
 30
0.0
 11
115.819562834959
 21
86.5068857076119
 31
0.0
  0
LINE
  5
C2E
330
1A
100
AcDbEntity
  8
SEIHIN
100
AcDbLine
 10
115.819562834959
 20
86.5068857076119
 30
0.0
 11
115.569562834959
 21
86.5068857076119
 31
0.0
  0
MTEXT
  5
C31
330
1A
100
AcDbEntity
  8
SEIHIN
100
AcDbMText
 10
123.660555091089
 20
85.4186629316119
 30
0.0
 40
2.381249964
 41
0.0
 71
     1
 72
     5
  1
{\W1.135802;30}
1001
ACAD
1000
MTEXTBEGIN
1070
    73
1070
     1
1070
    44
1040
1.0
1070
    74
1070
     0
1000
MTEXTEND
1000
MTEXTBEGIN
1070
    73
1070
     1
1070
    44
1040
1.0
1070
    74
1070
     0
1000
MTEXTEND
1000
MTEXTBEGIN
1070
    73
1070
     1
1070
    44
1040
1.0
1070
    74
1070
     0
1000
MTEXTEND
1000
MTEXTBEGIN
1070
    73
1070
     1
1070
    44
1040
1.0
1070
    74
1070
     0
1000
MTEXTEND
1000
MTEXTBEGIN
1070
    73
1070
     1
1070
    44
1040
1.0
1070
    74
1070
     0
1000
MTEXTEND
1000
MTEXTBEGIN
1070
    73
1070
     1
1070
    44
1040
1.0
1070
    74
1070
     0
1000
MTEXTEND
1000
MTEXTBEGIN
1070
    73
1070
     1
1070
    44
1040
1.0
1070
    74
1070
     0
1000
MTEXTEND
1000
MTEXTBEGIN
1070
    73
1070
     1
1070
    44
1040
1.0
1070
    74
1070
     0
1000
MTEXTEND
1000
MTEXTBEGIN
1070
    73
1070
     1
1070
    44
1040
1.0
1070
    74
1070
     0
1000
MTEXTEND
1000
MTEXTBEGIN
1070
    73
1070
     1
1070
    44
1040
1.0
1070
    74
1070
     0
1000
MTEXTEND
1000
MTEXTBEGIN
1070
    73
1070
     1
1070
    44
1040
1.0
1070
    74
1070
     0
1000
MTEXTEND
1000
MTEXTBEGIN
1070
    73
1070
     1
1070
    44
1040
1.0
1070
    74
1070
     0
1000
MTEXTEND
  0
LINE
  5
C32
330
1A
100
AcDbEntity
  8
SEIHIN
100
AcDbLine
 10
120.819562834959
 20
88.50688570761191
 30
0.0
 11
120.819562834959
 21
86.5068857076119
 31
0.0
  0
LINE
  5
C33
330
1A
100
AcDbEntity
  8
SEIHIN
100
AcDbLine
 10
120.319562834959
 20
86.5068857076119
 30
0.0
 11
120.319562834959
 21
88.50688570761191
 31
0.0
  0
LINE
  5
C34
330
1A
100
AcDbEntity
  8
SEIHIN
100
AcDbLine
 10
120.819562834959
 20
86.5068857076119
 30
0.0
 11
120.319562834959
 21
86.5068857076119
 31
0.0
  0
LINE
  5
C35
330
1A
100
AcDbEntity
  8
SEIHIN
100
AcDbLine
 10
120.319562834959
 20
88.50688570761191
 30
0.0
 11
120.819562834959
 21
88.50688570761191
 31
0.0
  0
LINE
  5
C36
330
1A
100
AcDbEntity
  8
SEIHIN
100
AcDbLine
 10
130.819562834959
 20
88.50688570761191
 30
0.0
 11
130.819562834959
 21
86.5068857076119
 31
0.0
  0
LINE
  5
C37
330
1A
100
AcDbEntity
  8
SEIHIN
100
AcDbLine
 10
130.319562834959
 20
86.5068857076119
 30
0.0
 11
130.319562834959
 21
88.50688570761191
 31
0.0
  0
LINE
  5
C38
330
1A
100
AcDbEntity
  8
SEIHIN
100
AcDbLine
 10
125.819562834959
 20
88.50688570761191
 30
0.0
 11
125.819562834959
 21
86.5068857076119
 31
0.0
  0
LINE
  5
C39
330
1A
100
AcDbEntity
  8
SEIHIN
100
AcDbLine
 10
125.319562834959
 20
86.5068857076119
 30
0.0
 11
125.319562834959
 21
88.50688570761191
 31
0.0
  0
LINE
  5
C3A
330
1A
100
AcDbEntity
  8
SEIHIN
100
AcDbLine
 10
125.819562834959
 20
86.5068857076119
 30
0.0
 11
125.319562834959
 21
86.5068857076119
 31
0.0
  0
LINE
  5
C3B
330
1A
100
AcDbEntity
  8
SEIHIN
100
AcDbLine
 10
130.819562834959
 20
86.5068857076119
 30
0.0
 11
130.319562834959
 21
86.5068857076119
 31
0.0
  0
LINE
  5
C3C
330
1A
100
AcDbEntity
  8
SEIHIN
100
AcDbLine
 10
125.319562834959
 20
88.50688570761191
 30
0.0
 11
125.819562834959
 21
88.50688570761191
 31
0.0
  0
LINE
  5
C3D
330
1A
100
AcDbEntity
  8
SEIHIN
100
AcDbLine
 10
130.319562834959
 20
88.50688570761191
 30
0.0
 11
130.819562834959
 21
88.50688570761191
 31
0.0
  0
MTEXT
  5
C3E
330
1A
100
AcDbEntity
  8
SEIHIN
100
AcDbMText
 10
138.668332984959
 20
85.5988045316119
 30
0.0
 40
2.381249964
 41
0.0
 71
     1
 72
     5
  1
{\W1.022222;45}
1001
ACAD
1000
MTEXTBEGIN
1070
    73
1070
     1
1070
    44
1040
1.0
1070
    74
1070
     0
1000
MTEXTEND
1000
MTEXTBEGIN
1070
    73
1070
     1
1070
    44
1040
1.0
1070
    74
1070
     0
1000
MTEXTEND
1000
MTEXTBEGIN
1070
    73
1070
     1
1070
    44
1040
1.0
1070
    74
1070
     0
1000
MTEXTEND
1000
MTEXTBEGIN
1070
    73
1070
     1
1070
    44
1040
1.0
1070
    74
1070
     0
1000
MTEXTEND
1000
MTEXTBEGIN
1070
    73
1070
     1
1070
    44
1040
1.0
1070
    74
1070
     0
1000
MTEXTEND
1000
MTEXTBEGIN
1070
    73
1070
     1
1070
    44
1040
1.0
1070
    74
1070
     0
1000
MTEXTEND
1000
MTEXTBEGIN
1070
    73
1070
     1
1070
    44
1040
1.0
1070
    74
1070
     0
1000
MTEXTEND
1000
MTEXTBEGIN
1070
    73
1070
     1
1070
    44
1040
1.0
1070
    74
1070
     0
1000
MTEXTEND
1000
MTEXTBEGIN
1070
    73
1070
     1
1070
    44
1040
1.0
1070
    74
1070
     0
1000
MTEXTEND
1000
MTEXTBEGIN
1070
    73
1070
     1
1070
    44
1040
1.0
1070
    74
1070
     0
1000
MTEXTEND
1000
MTEXTBEGIN
1070
    73
1070
     1
1070
    44
1040
1.0
1070
    74
1070
     0
1000
MTEXTEND
1000
MTEXTBEGIN
1070
    73
1070
     1
1070
    44
1040
1.0
1070
    74
1070
     0
1000
MTEXTEND
  0
LINE
  5
C3F
330
1A
100
AcDbEntity
  8
SEIHIN
100
AcDbLine
 10
135.818940124959
 20
88.50688570761191
 30
0.0
 11
135.818940124959
 21
86.5068857076119
 31
0.0
  0
LINE
  5
C40
330
1A
100
AcDbEntity
  8
SEIHIN
100
AcDbLine
 10
135.318940124959
 20
86.5068857076119
 30
0.0
 11
135.318940124959
 21
88.50688570761191
 31
0.0
  0
LINE
  5
C41
330
1A
100
AcDbEntity
  8
SEIHIN
100
AcDbLine
 10
135.818940124959
 20
86.5068857076119
 30
0.0
 11
135.318940124959
 21
86.5068857076119
 31
0.0
  0
LINE
  5
C42
330
1A
100
AcDbEntity
  8
SEIHIN
100
AcDbLine
 10
135.318940124959
 20
88.50688570761191
 30
0.0
 11
135.818940124959
 21
88.50688570761191
 31
0.0
  0
LINE
  5
C43
330
1A
100
AcDbEntity
  8
SEIHIN
100
AcDbLine
 10
140.819562834959
 20
88.50688570761191
 30
0.0
 11
140.819562834959
 21
86.5068857076119
 31
0.0
  0
LINE
  5
C44
330
1A
100
AcDbEntity
  8
SEIHIN
100
AcDbLine
 10
140.319562834959
 20
86.5068857076119
 30
0.0
 11
140.319562834959
 21
88.50688570761191
 31
0.0
  0
LINE
  5
C45
330
1A
100
AcDbEntity
  8
SEIHIN
100
AcDbLine
 10
140.819562834959
 20
86.5068857076119
 30
0.0
 11
140.319562834959
 21
86.5068857076119
 31
0.0
  0
LINE
  5
C46
330
1A
100
AcDbEntity
  8
SEIHIN
100
AcDbLine
 10
140.319562834959
 20
88.50688570761191
 30
0.0
 11
140.819562834959
 21
88.50688570761191
 31
0.0
  0
LINE
  5
C49
330
1A
100
AcDbEntity
  8
SEIHIN
100
AcDbLine
 10
170.169426374959
 20
85.7568857076119
 30
0.0
 11
170.169426374959
 21
80.89803768761191
 31
0.0
  0
ARC
  5
C4A
330
1A
100
AcDbEntity
  8
SEIHIN
100
AcDbCircle
 10
149.262506214959
 20
83.0068857076119
 30
0.0
 40
0.4999999962089669
100
AcDbArc
 50
270.0
 51
350.6360096398327
  0
LINE
  5
C4B
330
1A
100
AcDbEntity
  8
SEIHIN
100
AcDbLine
 10
177.303537434959
 20
85.50687165761189
 30
0.0
 11
182.1384739249591
 21
77.13251600761191
 31
0.0
  0
ARC
  5
C4C
330
1A
100
AcDbEntity
  8
SEIHIN
100
AcDbCircle
 10
147.903462564959
 20
98.50688570761191
 30
0.0
 40
15.99999999650688
100
AcDbArc
 50
288.1859804982271
 51
330.2479051608476
  0
LINE
  5
C4D
330
1A
100
AcDbEntity
  8
SEIHIN
100
AcDbLine
 10
171.669426374959
 20
79.14927737761189
 30
0.0
 11
171.669426374959
 21
85.7568857076119
 31
0.0
  0
ARC
  5
C4E
330
1A
100
AcDbEntity
  8
SEIHIN
100
AcDbCircle
 10
153.2092046749591
 20
82.35606217761192
 30
0.0
 40
1.00000000571721
100
AcDbArc
 50
108.1859940097359
 51
255.3791176229967
  0
LINE
  5
C4F
330
1A
100
AcDbEntity
  8
SEIHIN
100
AcDbLine
 10
188.669562834959
 20
111.5290284686119
 30
0.0
 11
188.669562834959
 21
78.88251600761191
 31
0.0
  0
LINE
  5
C50
330
1A
100
AcDbEntity
  8
SEIHIN
100
AcDbLine
 10
148.621809574959
 20
80.00688570761189
 30
0.0
 11
168.094537904959
 21
76.20487535761191
 31
0.0
  0
LINE
  5
C51
330
1A
100
AcDbEntity
  8
SEIHIN
100
AcDbLine
 10
166.729975164959
 20
77.79543819761193
 30
0.0
 11
152.9567826349591
 21
81.38844493761189
 31
0.0
  0
ARC
  5
C52
330
1A
100
AcDbEntity
  8
SEIHIN
100
AcDbCircle
 10
148.621809574959
 20
79.0068857076119
 30
0.0
 40
0.9999999985731333
100
AcDbArc
 50
78.80393204908905
 51
90.0
  0
ARC
  5
C53
330
1A
100
AcDbEntity
  8
SEIHIN
100
AcDbCircle
 10
169.352319824959
 20
78.41823055761193
 30
0.0
 40
1.999999999179419
100
AcDbArc
 50
82.71282276529213
 51
183.1869153879589
  0
ARC
  5
C54
330
1A
100
AcDbEntity
  8
SEIHIN
100
AcDbCircle
 10
168.669426374959
 20
79.14927737761189
 30
0.0
 40
3.00000000069325
100
AcDbArc
 50
258.9521053411593
 51
0.0
  0
ARC
  5
C55
330
1A
100
AcDbEntity
  8
SEIHIN
100
AcDbCircle
 10
166.856186114959
 20
78.27924682761192
 30
0.0
 40
0.4999999958019847
100
AcDbArc
 50
255.3791256739049
 51
3.186915975958103
  0
ARC
  5
C56
330
1A
100
AcDbEntity
  8
SEIHIN
100
AcDbCircle
 10
169.669426374959
 20
80.89803768761191
 30
0.0
 40
0.4999999963452644
100
AcDbArc
 50
262.7128226562795
 51
0.0
  0
ARC
  5
C57
330
1A
100
AcDbEntity
  8
SEIHIN
100
AcDbCircle
 10
185.169562834959
 20
78.88251600761191
 30
0.0
 40
3.499999998594639
100
AcDbArc
 50
210.0000000265656
 51
0.0
  0
LINE
  5
C58
330
1A
100
AcDbEntity
  8
SEIHIN
100
AcDbLine
 10
183.669713134959
 20
116.5290284666119
 30
0.0
 11
176.721332224959
 21
116.5292373396118
 31
0.0
  0
LINE
  5
C59
330
1A
100
AcDbEntity
  8
SEIHIN
100
AcDbLine
 10
183.669637984959
 20
114.0290284676119
 30
0.0
 11
176.721257074959
 21
114.0292373416119
 31
0.0
  0
LINE
  5
C5A
330
1A
100
AcDbEntity
  8
SEIHIN
100
AcDbLine
 10
177.669743194959
 20
106.5292088256119
 30
0.0
 11
176.721031614959
 21
106.5292373446118
 31
0.0
  0
LINE
  5
C5B
330
1A
100
AcDbEntity
  8
SEIHIN
100
AcDbLine
 10
177.6698183549591
 20
109.0292088245119
 30
0.0
 11
176.721106764959
 21
109.0292373434119
 31
0.0
  0
LINE
  5
C5C
330
1A
100
AcDbEntity
  8
SEIHIN
100
AcDbLine
 10
161.527569254959
 20
105.2135816546119
 30
0.0
 11
154.262333364959
 21
92.50313395761191
 31
0.0
  0
LINE
  5
C5D
330
1A
100
AcDbEntity
  8
SEIHIN
100
AcDbLine
 10
159.357117574959
 20
106.4542022696119
 30
0.0
 11
151.967210914959
 21
93.52564447761194
 31
0.0
  0
ARC
  5
C5E
330
1A
100
AcDbEntity
  8
SEIHIN
100
AcDbCircle
 10
176.720731004959
 20
96.52923734761191
 30
0.0
 40
9.999999999145625
100
AcDbArc
 50
89.9982776315724
 51
150.2479051562262
  0
ARC
  5
C5F
330
1A
100
AcDbEntity
  8
SEIHIN
100
AcDbCircle
 10
176.720731004959
 20
96.52923734761191
 30
0.0
 40
12.49999999966815
100
AcDbArc
 50
89.99827764303095
 51
150.2479051639018
  0
LINE
  5
C60
330
1A
100
AcDbEntity
  8
SEIHIN
100
AcDbLine
 10
165.868472614959
 20
102.7323404246119
 30
0.0
 11
159.454196654959
 21
91.5106374576119
 31
0.0
  0
ARC
  5
C61
330
1A
100
AcDbEntity
  8
SEIHIN
100
AcDbCircle
 10
147.903462564959
 20
98.50688570761191
 30
0.0
 40
13.49999999718524
100
AcDbArc
 50
288.1859799493473
 51
306.1289274530567
  0
ARC
  5
C62
330
1A
100
AcDbEntity
  8
SEIHIN
100
AcDbCircle
 10
155.130514034959
 20
92.0068857076119
 30
0.0
 40
1.000000000347428
100
AcDbArc
 50
150.247904938769
 51
270.0
  0
ARC
  5
C63
330
1A
100
AcDbEntity
  8
SEIHIN
100
AcDbCircle
 10
153.2092046749591
 20
82.35606217761192
 30
0.0
 40
3.500000003201731
100
AcDbArc
 50
108.1859864757694
 51
170.6360096381228
  0
ARC
  5
C64
330
1A
100
AcDbEntity
  8
SEIHIN
100
AcDbCircle
 10
147.626307554959
 20
96.00688570761191
 30
0.0
 40
5.000000001115571
100
AcDbArc
 50
269.9999944996055
 51
330.2479051946069
  0
ARC
  5
C65
330
1A
100
AcDbEntity
  8
SEIHIN
100
AcDbCircle
 10
155.568317414959
 20
88.0068857076119
 30
0.0
 40
0.499999998465137
100
AcDbArc
 50
306.1289277375728
 51
90.0
  0
LINE
  5
C66
330
1A
100
AcDbEntity
  8
SEIHIN
100
AcDbLine
 10
155.130514034959
 20
91.00688570761191
 30
0.0
 11
158.586015984959
 21
91.00688570761191
 31
0.0
  0
ARC
  5
C67
330
1A
100
AcDbEntity
  8
SEIHIN
100
AcDbCircle
 10
158.586015984959
 20
92.0068857076119
 30
0.0
 40
1.000000000347427
100
AcDbArc
 50
270.0
 51
330.2479049387692
  0
LINE
  5
C68
330
1A
100
AcDbEntity
  8
SEIHIN
100
AcDbLine
 10
168.0389242949591
 20
101.4917198096119
 30
0.0
 11
161.794353304959
 21
90.56691376761193
 31
0.0
  0
ARC
  5
C69
330
1A
100
AcDbEntity
  8
SEIHIN
100
AcDbCircle
 10
170.919426374959
 20
85.7568857076119
 30
0.0
 40
0.75
100
AcDbArc
 50
0.0
 51
90.0
  0
ARC
  5
C6A
330
1A
100
AcDbEntity
  8
SEIHIN
100
AcDbCircle
 10
170.919426374959
 20
85.7568857076119
 30
0.0
 40
0.75
100
AcDbArc
 50
90.0
 51
180.0
  0
ARC
  5
C6B
330
1A
100
AcDbEntity
  8
SEIHIN
100
AcDbCircle
 10
176.720731004959
 20
96.52923734761191
 30
0.0
 40
17.50000000101337
100
AcDbArc
 50
89.99827762338702
 51
150.2479051726757
  0
ARC
  5
C6C
330
1A
100
AcDbEntity
  8
SEIHIN
100
AcDbCircle
 10
176.720731004959
 20
96.52923734761191
 30
0.0
 40
20.0000000011359
100
AcDbArc
 50
89.99827763157158
 51
150.2479051754179
  0
ARC
  5
C6D
330
1A
100
AcDbEntity
  8
SEIHIN
100
AcDbCircle
 10
177.669562834959
 20
100.5292088286118
 30
0.0
 40
5.999999999855404
100
AcDbArc
 50
0.0
 51
89.99827768886756
  0
LINE
  5
C72
330
1A
100
AcDbEntity
  8
SEIHIN
100
AcDbLine
 10
183.669562834959
 20
100.5292088286118
 30
0.0
 11
183.669562834959
 21
86.74951234761193
 31
0.0
  0
ARC
  5
C73
330
1A
100
AcDbEntity
  8
SEIHIN
100
AcDbCircle
 10
181.6695628349591
 20
86.74951234761193
 30
0.0
 40
1.999999998321968
100
AcDbArc
 50
225.0
 51
0.0
  0
LINE
  5
C74
330
1A
100
AcDbEntity
  8
SEIHIN
100
AcDbLine
 10
178.876669614959
 20
86.71397843761189
 30
0.0
 11
180.255349274959
 21
85.33529878761191
 31
0.0
  0
ARC
  5
C75
330
1A
100
AcDbEntity
  8
SEIHIN
100
AcDbCircle
 10
178.1695628349591
 20
86.0068716576119
 30
0.0
 40
0.9999999975222747
100
AcDbArc
 50
45.0
 51
210.0000001084147
  0
ARC
  5
C77
330
1A
100
AcDbEntity
  8
SEIHIN
100
AcDbCircle
 10
183.669562834959
 20
111.5290284686119
 30
0.0
 40
5.000000000129504
100
AcDbArc
 50
0.0
 51
89.99827768886756
  0
ARC
  5
C78
330
1A
100
AcDbEntity
  8
SEIHIN
100
AcDbCircle
 10
183.669562834959
 20
111.5290284686119
 30
0.0
 40
2.500000000064752
100
AcDbArc
 50
0.0
 51
89.99827768886756
  0
ARC
  5
C79
330
1A
100
AcDbEntity
  8
SEIHIN
100
AcDbCircle
 10
177.669562834959
 20
100.5292088286118
 30
0.0
 40
8.500000001574836
100
AcDbArc
 50
37.86364634504803
 51
89.99827762146058
  0
LINE
  5
C7A
330
1A
100
AcDbEntity
  8
SEIHIN
100
AcDbLine
 10
186.169562834959
 20
111.5290284686119
 30
0.0
 11
186.169562834959
 21
106.3601607236118
 31
0.0
  0
ARC
  5
C7B
330
1A
100
AcDbEntity
  8
SEIHIN
100
AcDbCircle
 10
185.169562834959
 20
106.3601607236118
 30
0.0
 40
0.9999999983429477
100
AcDbArc
 50
217.863646510539
 51
0.0
  0
LINE
  5
C7C
330
1A
100
AcDbEntity
  8
SEIHIN
100
AcDbLine
 10
95.10246580495907
 20
202.4403641648174
 30
0.0
 11
73.66946283495909
 21
202.4403641648174
 31
0.0
  0
LINE
  5
C7D
330
1A
100
AcDbEntity
  8
SEIHIN
100
AcDbLine
 10
95.10246580495907
 20
217.4403642048174
 30
0.0
 11
73.66946283495909
 21
217.4403642048174
 31
0.0
  0
LINE
  5
C7F
330
1A
100
AcDbEntity
  8
SEIHIN
100
AcDbLine
 10
68.66946283495909
 20
198.9403641648173
 30
0.0
 11
68.66946283495909
 21
220.9403642048174
 31
0.0
  0
LINE
  5
C80
330
1A
100
AcDbEntity
  8
SEIHIN
100
AcDbLine
 10
71.66946283495909
 20
219.4403642048174
 30
0.0
 11
71.66946283495909
 21
220.9403642048174
 31
0.0
  0
LINE
  5
C81
330
1A
100
AcDbEntity
  8
SEIHIN
100
AcDbLine
 10
65.66946283495909
 20
198.9403641648173
 30
0.0
 11
65.66946283495909
 21
220.9403642048174
 31
0.0
  0
ARC
  5
C83
330
1A
100
AcDbEntity
  8
SEIHIN
100
AcDbCircle
 10
73.66946283495909
 20
200.4403641648174
 30
0.0
 40
2.0
100
AcDbArc
 50
90.0
 51
180.0
  0
LINE
  5
C84
330
1A
100
AcDbEntity
  8
SEIHIN
100
AcDbLine
 10
65.66946283495909
 20
198.9403641648173
 30
0.0
 11
71.66946283495909
 21
198.9403641648173
 31
0.0
  0
ARC
  5
C85
330
1A
100
AcDbEntity
  8
SEIHIN
100
AcDbCircle
 10
73.66946283495909
 20
219.4403642048174
 30
0.0
 40
2.0
100
AcDbArc
 50
180.0
 51
270.0
  0
LINE
  5
C87
330
1A
100
AcDbEntity
  8
SEIHIN
100
AcDbLine
 10
85.67723941495907
 20
216.4582933048173
 30
0.0
 11
85.67723941495907
 21
203.9689080748174
 31
0.0
  0
LINE
  5
C88
330
1A
100
AcDbEntity
  8
SEIHIN
100
AcDbLine
 10
82.3354105049591
 20
216.1184043048173
 30
0.0
 11
82.3354105049591
 21
203.6290190348173
 31
0.0
  0
LINE
  5
C89
330
1A
100
AcDbEntity
  8
SEIHIN
100
AcDbLine
 10
71.66946283495909
 20
200.4403641648174
 30
0.0
 11
71.66946283495909
 21
198.9403641648173
 31
0.0
  0
LINE
  5
C8A
330
1A
100
AcDbEntity
  8
SEIHIN
100
AcDbLine
 10
65.66946283495909
 20
220.9403642048174
 30
0.0
 11
71.66946283495909
 21
220.9403642048174
 31
0.0
  0
LINE
  5
F65
330
1A
100
AcDbEntity
  8
NOKITOI
  6
PHANTOM
 62
     8
100
AcDbLine
 10
183.5076628298771
 20
101.1999857065051
 30
0.0
 11
183.117562829877
 21
88.71558570650506
 31
0.0
  0
LINE
  5
F66
330
1A
100
AcDbEntity
  8
NOKITOI
  6
PHANTOM
 62
     8
100
AcDbLine
 10
182.3082628298767
 20
101.237485706505
 30
0.0
 11
182.1589628298771
 21
96.45848570650526
 31
0.0
  0
LINE
  5
F67
330
1A
100
AcDbEntity
  8
NOKITOI
  6
PHANTOM
 62
     8
100
AcDbLine
 10
177.5951628298772
 20
98.46248570650516
 30
0.0
 11
176.599362829877
 21
99.56248570650529
 31
0.0
  0
LINE
  5
F68
330
1A
100
AcDbEntity
  8
NOKITOI
  6
PHANTOM
 62
     8
100
AcDbLine
 10
175.0472628298771
 20
94.23618570650512
 30
0.0
 11
174.7314628298768
 21
100.2361857065051
 31
0.0
  0
ARC
  5
F69
330
1A
100
AcDbEntity
  8
NOKITOI
  6
PHANTOM
 62
     8
100
AcDbCircle
 10
178.0571449635258
 20
93.26249443488507
 30
0.0
 40
5.199991271650611
100
AcDbArc
 50
37.92532860472995
 51
89.9998031407256
  0
LINE
  5
F6A
330
1A
100
AcDbEntity
  8
NOKITOI
  6
PHANTOM
 62
     8
100
AcDbLine
 10
69.54916282987738
 20
98.46248570650516
 30
0.0
 11
70.54496282987708
 21
99.56248570650529
 31
0.0
  0
LINE
  5
F6B
330
1A
100
AcDbEntity
  8
NOKITOI
  6
PHANTOM
 62
     8
100
AcDbLine
 10
72.09716282987717
 20
94.2362857065051
 30
0.0
 11
72.41296282987701
 21
100.2361857065051
 31
0.0
  0
LINE
  5
F6C
330
1A
100
AcDbEntity
  8
NOKITOI
  6
PHANTOM
 62
     8
100
AcDbLine
 10
63.63666282987705
 20
101.1999857065051
 30
0.0
 11
64.02686282987687
 21
88.71568570650504
 31
0.0
  0
LINE
  5
F6D
330
1A
100
AcDbEntity
  8
NOKITOI
  6
PHANTOM
 62
     8
100
AcDbLine
 10
64.83606282987745
 20
101.237485706505
 30
0.0
 11
64.98546282987678
 21
96.45858570650524
 31
0.0
  0
ARC
  5
F6E
330
1A
100
AcDbEntity
  8
NOKITOI
  6
PHANTOM
 62
     8
100
AcDbCircle
 10
69.08738304254626
 20
93.26254443488517
 30
0.0
 40
5.2000412730095
100
AcDbArc
 50
90.0013245430618
 51
142.0757990790551
  0
ARC
  5
F6F
330
1A
100
AcDbEntity
  8
NOKITOI
  6
PHANTOM
 62
     8
100
AcDbCircle
 10
115.3857689118449
 20
91.26248008184882
 30
0.0
 40
41.79999437547816
100
AcDbArc
 50
184.4742952125247
 51
269.999854592109
  0
ARC
  5
F70
330
1A
100
AcDbEntity
  8
NOKITOI
  6
PHANTOM
 62
     8
100
AcDbCircle
 10
115.3857466034197
 20
91.26250018287521
 30
0.0
 40
43.00001447645168
100
AcDbArc
 50
186.5249107071177
 51
269.9998883751437
  0
ARC
  5
F71
330
1A
100
AcDbEntity
  8
NOKITOI
  6
PHANTOM
 62
     8
100
AcDbCircle
 10
65.52609878902791
 20
88.7624508523619
 30
0.0
 40
1.499965146287778
100
AcDbArc
 50
181.7866280217767
 51
269.9986264296971
  0
ARC
  5
F72
330
1A
100
AcDbEntity
  8
NOKITOI
  6
PHANTOM
 62
     8
100
AcDbCircle
 10
71.67075440571449
 20
86.2624932215616
 30
0.0
 40
0.9999924849789756
100
AcDbArc
 50
6.528264606673934
 51
89.99951732740965
  0
LINE
  5
F73
330
1A
100
AcDbEntity
  8
NOKITOI
  6
PHANTOM
 62
     8
100
AcDbLine
 10
73.21466282987746
 20
88.46248570650516
 30
0.0
 11
67.17376282987704
 21
88.46248570650516
 31
0.0
  0
LINE
  5
F74
330
1A
100
AcDbEntity
  8
NOKITOI
  6
PHANTOM
 62
     8
100
AcDbLine
 10
68.85376282987687
 20
94.3332857065053
 30
0.0
 11
69.18746282987701
 21
96.66948570650527
 31
0.0
  0
LINE
  5
F75
330
1A
100
AcDbEntity
  8
NOKITOI
  6
PHANTOM
 62
     8
100
AcDbLine
 10
71.59776282987701
 20
93.76248570650512
 30
0.0
 11
69.34866282987702
 21
93.76248570650512
 31
0.0
  0
ARC
  5
F76
330
1A
100
AcDbEntity
  8
NOKITOI
  6
PHANTOM
 62
     8
100
AcDbCircle
 10
69.34868943047473
 20
94.26245502962308
 30
0.0
 40
0.4999693238254178
100
AcDbArc
 50
171.8555038770531
 51
269.9969516090356
  0
ARC
  5
F77
330
1A
100
AcDbEntity
  8
NOKITOI
  6
PHANTOM
 62
     8
100
AcDbCircle
 10
71.59775594288209
 20
94.26247917141962
 30
0.0
 40
0.499993464961963
100
AcDbArc
 50
270.0007892017869
 51
356.997036131742
  0
LINE
  5
F78
330
1A
100
AcDbEntity
  8
NOKITOI
  6
PHANTOM
 62
     8
100
AcDbLine
 10
70.93366282987705
 20
94.96248570650516
 30
0.0
 11
70.15576282987746
 21
94.96248570650516
 31
0.0
  0
LINE
  5
F79
330
1A
100
AcDbEntity
  8
NOKITOI
  6
PHANTOM
 62
     8
100
AcDbLine
 10
70.55986282987721
 20
97.79088570650504
 30
0.0
 11
71.11486282987704
 21
98.40398570650529
 31
0.0
  0
LINE
  5
F7A
330
1A
100
AcDbEntity
  8
NOKITOI
  6
PHANTOM
 62
     8
100
AcDbLine
 10
70.15576282987746
 20
94.96248570650516
 30
0.0
 11
70.55986282987721
 21
97.79088570650504
 31
0.0
  0
ARC
  5
F7B
330
1A
100
AcDbEntity
  8
NOKITOI
  6
PHANTOM
 62
     8
100
AcDbCircle
 10
68.69247704829246
 20
96.74017107220414
 30
0.0
 40
0.5000073448410256
100
AcDbArc
 50
351.872947864124
 51
96.47829282996916
  0
LINE
  5
F7C
330
1A
100
AcDbEntity
  8
NOKITOI
  6
PHANTOM
 62
     8
100
AcDbLine
 10
69.54916282987738
 20
98.46248570650516
 30
0.0
 11
69.08726282987714
 21
98.46248570650516
 31
0.0
  0
LINE
  5
F7D
330
1A
100
AcDbEntity
  8
NOKITOI
  6
PHANTOM
 62
     8
100
AcDbLine
 10
70.93366282987705
 20
94.96248570650516
 30
0.0
 11
71.11486282987704
 21
98.40398570650529
 31
0.0
  0
LINE
  5
F7E
330
1A
100
AcDbEntity
  8
NOKITOI
  6
PHANTOM
 62
     8
100
AcDbLine
 10
65.52606282987705
 20
87.26248570650511
 30
0.0
 11
71.67076282987688
 21
87.26248570650511
 31
0.0
  0
LINE
  5
F7F
330
1A
100
AcDbEntity
  8
NOKITOI
  6
PHANTOM
 62
     8
100
AcDbLine
 10
65.17476282987678
 20
90.40008570650513
 30
0.0
 11
65.0892628298771
 21
93.13758570650509
 31
0.0
  0
ARC
  5
F80
330
1A
100
AcDbEntity
  8
NOKITOI
  6
PHANTOM
 62
     8
100
AcDbCircle
 10
69.08730071132374
 20
93.2625294890305
 30
0.0
 40
3.999989731271038
100
AcDbArc
 50
96.4773114201311
 51
181.7899836067311
  0
ARC
  5
F81
330
1A
100
AcDbEntity
  8
NOKITOI
  6
PHANTOM
 62
     8
100
AcDbCircle
 10
67.17377640201545
 20
90.46247255141873
 30
0.0
 40
1.999986844959662
100
AcDbArc
 50
181.7875531852356
 51
269.9996111843215
  0
ARC
  5
F82
330
1A
100
AcDbEntity
  8
NOKITOI
  6
PHANTOM
 62
     8
100
AcDbCircle
 10
73.21467539958536
 20
87.96247408177544
 30
0.0
 40
0.5000116248877111
100
AcDbArc
 50
4.474846808342103
 51
90.00144034898383
  0
LINE
  5
F83
330
1A
100
AcDbEntity
  8
NOKITOI
  6
PHANTOM
 62
     8
100
AcDbLine
 10
170.2672628298774
 20
57.74518570650513
 30
0.0
 11
160.2819628298771
 21
49.57538570650502
 31
0.0
  0
LINE
  5
F84
330
1A
100
AcDbEntity
  8
NOKITOI
  6
PHANTOM
 62
     8
100
AcDbLine
 10
171.251562829877
 20
57.00008570650528
 30
0.0
 11
160.848462829877
 21
48.48838570650525
 31
0.0
  0
LINE
  5
F85
330
1A
100
AcDbEntity
  8
NOKITOI
  6
PHANTOM
 62
     8
100
AcDbLine
 10
115.385762829877
 20
49.46248570650516
 30
0.0
 11
159.965362829877
 21
49.46238570650518
 31
0.0
  0
LINE
  5
F86
330
1A
100
AcDbEntity
  8
NOKITOI
  6
PHANTOM
 62
     8
100
AcDbLine
 10
160.2151628298771
 20
48.26238570650514
 30
0.0
 11
115.385762829877
 21
48.26248570650512
 31
0.0
  0
LINE
  5
F87
330
1A
100
AcDbEntity
  8
NOKITOI
  6
PHANTOM
 62
     8
100
AcDbLine
 10
155.965362829877
 20
49.46238570650518
 30
0.0
 11
136.0572628298774
 21
49.46238570650518
 31
0.0
  0
LINE
  5
F88
330
1A
100
AcDbEntity
  8
NOKITOI
  6
PHANTOM
 62
     8
100
AcDbLine
 10
156.2151628298771
 20
48.26238570650514
 30
0.0
 11
136.0572628298774
 21
48.26238570650514
 31
0.0
  0
ARC
  5
F89
330
1A
100
AcDbEntity
  8
NOKITOI
  6
PHANTOM
 62
     8
100
AcDbCircle
 10
159.9653692176257
 20
49.96238798649471
 30
0.0
 40
0.5000022800304047
100
AcDbArc
 50
269.9992680212791
 51
309.2854498596061
  0
ARC
  5
F8A
330
1A
100
AcDbEntity
  8
NOKITOI
  6
PHANTOM
 62
     8
100
AcDbCircle
 10
160.2151558972996
 20
49.26238323149902
 30
0.0
 40
0.9999975250179316
100
AcDbArc
 50
270.0003972084035
 51
309.2946416752297
  0
LINE
  5
F8B
330
1A
100
AcDbEntity
  8
NOKITOI
  6
PHANTOM
 62
     8
100
AcDbLine
 10
173.4411628298772
 20
88.01228570650517
 30
0.0
 11
170.4481628298768
 21
58.08248570650505
 31
0.0
  0
LINE
  5
F8C
330
1A
100
AcDbEntity
  8
NOKITOI
  6
PHANTOM
 62
     8
100
AcDbLine
 10
174.4821628298773
 20
86.36198570650515
 30
0.0
 11
171.6133628298772
 21
57.67458570650513
 31
0.0
  0
ARC
  5
F8D
330
1A
100
AcDbEntity
  8
NOKITOI
  6
PHANTOM
 62
     8
100
AcDbCircle
 10
169.9506454039988
 20
58.13215322011718
 30
0.0
 40
0.4999904508696396
100
AcDbArc
 50
309.2900846377951
 51
354.2990110749239
  0
ARC
  5
F8E
330
1A
100
AcDbEntity
  8
NOKITOI
  6
PHANTOM
 62
     8
100
AcDbCircle
 10
170.6183402570082
 20
57.77404363483253
 30
0.0
 40
0.9999908507640039
100
AcDbArc
 50
309.288709223069
 51
354.2862329477532
  0
ARC
  5
F8F
330
1A
100
AcDbEntity
  8
NOKITOI
  6
PHANTOM
 62
     8
100
AcDbCircle
 10
178.0571319029409
 20
93.26252145116894
 30
0.0
 40
3.99998565374706
100
AcDbArc
 50
358.208696659101
 51
83.52422380468341
  0
LINE
  5
F90
330
1A
100
AcDbEntity
  8
NOKITOI
  6
PHANTOM
 62
     8
100
AcDbLine
 10
173.9386628298767
 20
88.46248570650516
 30
0.0
 11
179.9705628298771
 21
88.46248570650516
 31
0.0
  0
LINE
  5
F91
330
1A
100
AcDbEntity
  8
NOKITOI
  6
PHANTOM
 62
     8
100
AcDbLine
 10
181.618262829877
 20
87.26248570650511
 30
0.0
 11
175.4771628298772
 21
87.26248570650511
 31
0.0
  0
ARC
  5
F92
330
1A
100
AcDbEntity
  8
NOKITOI
  6
PHANTOM
 62
     8
100
AcDbCircle
 10
175.477183479718
 20
86.26250439435432
 30
0.0
 40
0.9999813123640345
100
AcDbArc
 50
90.00118317084911
 51
174.2905900333514
  0
LINE
  5
F93
330
1A
100
AcDbEntity
  8
NOKITOI
  6
PHANTOM
 62
     8
100
AcDbLine
 10
178.290662829877
 20
94.33318570650511
 30
0.0
 11
177.9568628298771
 21
96.66938570650529
 31
0.0
  0
ARC
  5
F94
330
1A
100
AcDbEntity
  8
NOKITOI
  6
PHANTOM
 62
     8
100
AcDbCircle
 10
177.7956730163132
 20
94.26249745122925
 30
0.0
 40
0.5000117448278309
100
AcDbArc
 50
269.9988327478016
 51
8.127314608715551
  0
ARC
  5
F95
330
1A
100
AcDbEntity
  8
NOKITOI
  6
PHANTOM
 62
     8
100
AcDbCircle
 10
175.5465669512837
 20
94.26248179647462
 30
0.0
 40
0.4999960899864752
100
AcDbArc
 50
183.0147243791741
 51
269.9995277178593
  0
LINE
  5
F96
330
1A
100
AcDbEntity
  8
NOKITOI
  6
PHANTOM
 62
     8
100
AcDbLine
 10
175.5465628298771
 20
93.76248570650512
 30
0.0
 11
177.7956628298766
 21
93.76248570650512
 31
0.0
  0
ARC
  5
F97
330
1A
100
AcDbEntity
  8
NOKITOI
  6
PHANTOM
 62
     8
100
AcDbCircle
 10
178.4518922023767
 20
96.74011593900003
 30
0.0
 40
0.4999578477751074
100
AcDbArc
 50
83.5260907122076
 51
188.1330561712932
  0
LINE
  5
F98
330
1A
100
AcDbEntity
  8
NOKITOI
  6
PHANTOM
 62
     8
100
AcDbLine
 10
177.5951628298772
 20
98.46248570650516
 30
0.0
 11
178.0571628298772
 21
98.46248570650516
 31
0.0
  0
LINE
  5
F99
330
1A
100
AcDbEntity
  8
NOKITOI
  6
PHANTOM
 62
     8
100
AcDbLine
 10
176.5845628298771
 20
97.79088570650504
 30
0.0
 11
176.0295628298768
 21
98.4038857065051
 31
0.0
  0
LINE
  5
F9A
330
1A
100
AcDbEntity
  8
NOKITOI
  6
PHANTOM
 62
     8
100
AcDbLine
 10
176.210662829877
 20
94.96248570650516
 30
0.0
 11
176.9885628298766
 21
94.96248570650516
 31
0.0
  0
LINE
  5
F9B
330
1A
100
AcDbEntity
  8
NOKITOI
  6
PHANTOM
 62
     8
100
AcDbLine
 10
176.210662829877
 20
94.96248570650516
 30
0.0
 11
176.0295628298768
 21
98.4038857065051
 31
0.0
  0
LINE
  5
F9C
330
1A
100
AcDbEntity
  8
NOKITOI
  6
PHANTOM
 62
     8
100
AcDbLine
 10
176.9885628298766
 20
94.96248570650516
 30
0.0
 11
176.5845628298771
 21
97.79088570650504
 31
0.0
  0
ARC
  5
F9D
330
1A
100
AcDbEntity
  8
NOKITOI
  6
PHANTOM
 62
     8
100
AcDbCircle
 10
173.9386759008817
 20
87.962497536785
 30
0.0
 40
0.499988169890889
100
AcDbArc
 50
90.00149786226634
 51
174.2966061377162
  0
LINE
  5
F9E
330
1A
100
AcDbEntity
  8
NOKITOI
  6
PHANTOM
 62
     8
100
AcDbLine
 10
181.9696628298771
 20
90.39988570650519
 30
0.0
 11
182.0551628298767
 21
93.13748570650512
 31
0.0
  0
ARC
  5
F9F
330
1A
100
AcDbEntity
  8
NOKITOI
  6
PHANTOM
 62
     8
100
AcDbCircle
 10
179.9706008177013
 20
90.46242252707736
 30
0.0
 40
2.000036820932882
100
AcDbArc
 50
269.9989117490344
 51
358.2110591274195
  0
ARC
  5
FA0
330
1A
100
AcDbEntity
  8
NOKITOI
  6
PHANTOM
 62
     8
100
AcDbCircle
 10
181.6182800430552
 20
88.76250238965292
 30
0.0
 40
1.500016683246579
100
AcDbArc
 50
269.9993425123344
 51
358.2076423244113
  0
ARC
  5
FA1
330
1A
100
AcDbEntity
  8
NOKITOI
  6
PHANTOM
 62
     8
100
AcDbCircle
 10
65.63567558072697
 20
101.2624988615915
 30
0.0
 40
1.999986844954076
100
AcDbArc
 50
90.00036528735451
 51
181.7883072882703
  0
ARC
  5
FA2
330
1A
100
AcDbEntity
  8
NOKITOI
  6
PHANTOM
 62
     8
100
AcDbCircle
 10
71.91355662871917
 20
100.2624922415904
 30
0.0
 40
0.4999934649531607
100
AcDbArc
 50
356.9955363203376
 51
89.99928939038076
  0
LINE
  5
FA3
330
1A
100
AcDbEntity
  8
NOKITOI
  6
PHANTOM
 62
     8
100
AcDbLine
 10
71.91356282987687
 20
100.7624857065051
 30
0.0
 11
69.682062829877
 21
100.7624857065051
 31
0.0
  0
LINE
  5
FA4
330
1A
100
AcDbEntity
  8
NOKITOI
  6
PHANTOM
 62
     8
100
AcDbLine
 10
69.19176282987706
 20
101.360585706505
 30
0.0
 11
69.45256282987708
 21
102.6644857065051
 31
0.0
  0
LINE
  5
FA5
330
1A
100
AcDbEntity
  8
NOKITOI
  6
PHANTOM
 62
     8
100
AcDbLine
 10
65.63566282987682
 20
102.0624857065052
 30
0.0
 11
68.10846282987728
 21
102.0624857065052
 31
0.0
  0
ARC
  5
FA6
330
1A
100
AcDbEntity
  8
NOKITOI
  6
PHANTOM
 62
     8
100
AcDbCircle
 10
69.68205557532161
 20
101.2624945563485
 30
0.0
 40
0.5000088498959383
100
AcDbArc
 50
168.6864043304889
 51
270.0008312961442
  0
LINE
  5
FA7
330
1A
100
AcDbEntity
  8
NOKITOI
  6
PHANTOM
 62
     8
100
AcDbLine
 10
65.63566282987682
 20
103.2624857065051
 30
0.0
 11
68.96226282987715
 21
103.2624857065051
 31
0.0
  0
ARC
  5
FA8
330
1A
100
AcDbEntity
  8
NOKITOI
  6
PHANTOM
 62
     8
100
AcDbCircle
 10
68.9622620468686
 20
102.7624866615068
 30
0.0
 40
0.4999990449987349
100
AcDbArc
 50
348.6967198015447
 51
89.99991027369492
  0
LINE
  5
FA9
330
1A
100
AcDbEntity
  8
NOKITOI
  6
PHANTOM
 62
     8
100
AcDbLine
 10
67.60846282987728
 20
99.56248570650529
 30
0.0
 11
70.54496282987708
 21
99.56248570650529
 31
0.0
  0
LINE
  5
FAA
330
1A
100
AcDbEntity
  8
NOKITOI
  6
PHANTOM
 62
     8
100
AcDbLine
 10
68.10846282987728
 20
102.0624857065052
 30
0.0
 11
67.60846282987728
 21
99.56248570650529
 31
0.0
  0
ARC
  5
FAB
330
1A
100
AcDbEntity
  8
NOKITOI
  6
PHANTOM
 62
     8
100
AcDbCircle
 10
65.63566732467513
 20
101.262490344032
 30
0.0
 40
0.7999953624857498
100
AcDbArc
 50
90.00032191805264
 51
181.7911273464193
  0
LINE
  5
FAC
330
1A
100
AcDbEntity
  8
NOKITOI
  6
PHANTOM
 62
     8
100
AcDbLine
 10
179.535962829877
 20
99.56248570650529
 30
0.0
 11
176.599362829877
 21
99.56248570650529
 31
0.0
  0
LINE
  5
FAD
330
1A
100
AcDbEntity
  8
NOKITOI
  6
PHANTOM
 62
     8
100
AcDbLine
 10
181.5086628298773
 20
103.2623857065051
 30
0.0
 11
178.182062829877
 21
103.2624857065051
 31
0.0
  0
LINE
  5
FAE
330
1A
100
AcDbEntity
  8
NOKITOI
  6
PHANTOM
 62
     8
100
AcDbLine
 10
177.952562829877
 20
101.3604857065053
 30
0.0
 11
177.691762829877
 21
102.6644857065051
 31
0.0
  0
ARC
  5
FAF
330
1A
100
AcDbEntity
  8
NOKITOI
  6
PHANTOM
 62
     8
100
AcDbCircle
 10
177.4622620468686
 20
101.2624847515033
 30
0.0
 40
0.4999990449987399
100
AcDbArc
 50
270.000089726305
 51
11.30328019845521
  0
ARC
  5
FB0
330
1A
100
AcDbEntity
  8
NOKITOI
  6
PHANTOM
 62
     8
100
AcDbCircle
 10
178.1820555753216
 20
102.7624768566616
 30
0.0
 40
0.500008849895925
100
AcDbArc
 50
89.99916870385415
 51
191.3135956695126
  0
ARC
  5
FB1
330
1A
100
AcDbEntity
  8
NOKITOI
  6
PHANTOM
 62
     8
100
AcDbCircle
 10
175.2307665393724
 20
100.2624896165358
 30
0.0
 40
0.4999960899831856
100
AcDbArc
 50
90.00042508015082
 51
183.0156217414647
  0
LINE
  5
FB2
330
1A
100
AcDbEntity
  8
NOKITOI
  6
PHANTOM
 62
     8
100
AcDbLine
 10
175.2307628298772
 20
100.7624857065051
 30
0.0
 11
177.4622628298771
 21
100.7624857065051
 31
0.0
  0
ARC
  5
FB3
330
1A
100
AcDbEntity
  8
NOKITOI
  6
PHANTOM
 62
     8
100
AcDbCircle
 10
181.5086515928829
 20
101.2624973003222
 30
0.0
 40
1.999988406214315
100
AcDbArc
 50
358.2088726535936
 51
89.99967808195551
  0
ARC
  5
FB4
330
1A
100
AcDbEntity
  8
NOKITOI
  6
PHANTOM
 62
     8
100
AcDbCircle
 10
181.50870679623
 20
101.2624403440321
 30
0.0
 40
0.7999453636812564
100
AcDbArc
 50
358.2123436447881
 51
90.00314907315425
  0
LINE
  5
FB5
330
1A
100
AcDbEntity
  8
NOKITOI
  6
PHANTOM
 62
     8
100
AcDbLine
 10
179.035962829877
 20
102.0624857065052
 30
0.0
 11
179.535962829877
 21
99.56248570650529
 31
0.0
  0
LINE
  5
FB6
330
1A
100
AcDbEntity
  8
NOKITOI
  6
PHANTOM
 62
     8
100
AcDbLine
 10
181.5086628298773
 20
102.062385706505
 30
0.0
 11
179.035962829877
 21
102.0624857065052
 31
0.0
  0
DIMENSION
  5
1057
330
1A
100
AcDbEntity
  8
SUNPOU
100
AcDbDimension
  2
*D1
 10
39.78420018830957
 20
198.9403641648174
 30
0.0
 11
37.28420018830954
 21
209.9403641848174
 31
0.0
 70
    32
  3
STANDARD
100
AcDbAlignedDimension
 13
65.66946283495909
 23
220.9403642048174
 33
0.0
 14
65.66946283495909
 24
198.9403641648173
 34
0.0
 50
90.0
100
AcDbRotatedDimension
1001
ACAD
1000
DSTYLE
1002
{
1070
    41
1040
3.0
1070
    42
1040
3.0
1070
    43
1040
7.0
1070
    44
1040
1.5
1070
    73
1070
     0
1070
    74
1070
     0
1070
    77
1070
     3
1070
   140
1040
3.0
1070
   141
1040
3.0
1070
   147
1040
1.0
1070
   172
1070
     1
1070
   173
1070
     1
1070
   176
1070
   256
1070
   177
1070
   256
1070
   178
1070
   256
1070
   271
1070
     0
1070
   272
1070
     0
1070
   341
1005
B2
1070
     6
1000
OPEN
1070
     7
1000
OPEN
1002
}
  0
LINE
  5
3E0B
330
1A
100
AcDbEntity
  8
SEIHIN
100
AcDbLine
 10
123.1975969111285
 20
217.4403642048174
 30
0.0
 11
123.1975969111285
 21
216.4403642048174
 31
0.0
  0
LINE
  5
3E0C
330
1A
100
AcDbEntity
  8
SEIHIN
100
AcDbLine
 10
123.1975969111285
 20
203.4403641648174
 30
0.0
 11
123.1975969111285
 21
202.4403641648174
 31
0.0
  0
LINE
  5
40CD
330
1A
100
AcDbEntity
  8
SEIHIN
100
AcDbLine
 10
209.879364717959
 20
95.43277094761192
 30
0.0
 11
191.357517524959
 21
126.3025162676119
 31
0.0
  0
LINE
  5
40CE
330
1A
100
AcDbEntity
  8
SEIHIN
100
AcDbLine
 10
197.102720124959
 20
129.7496378276118
 30
0.0
 11
215.624567319959
 21
98.87989250761188
 31
0.0
  0
LINE
  5
40CF
330
1A
100
AcDbEntity
  8
SEIHIN
100
AcDbLine
 10
196.073728614959
 20
129.1322429276119
 30
0.0
 11
214.595575808959
 21
98.26249759761191
 31
0.0
  0
LINE
  5
40ED
330
1A
100
AcDbEntity
  8
SEIHIN
100
AcDbLine
 10
132.298435404959
 20
119.4700732876119
 30
0.0
 11
175.864399694959
 21
124.8193010876119
 31
0.0
  0
LINE
  5
40EE
330
1A
100
AcDbEntity
  8
SEIHIN
100
AcDbLine
 10
130.489402164959
 20
125.2930108876119
 30
0.0
 11
175.133183874959
 21
130.7745780276118
 31
0.0
  0
LINE
  5
40F0
330
1A
100
AcDbEntity
  8
SEIHIN
100
AcDbLine
 10
115.569562794959
 20
92.44209839761191
 30
0.0
 11
126.859962484959
 21
115.5908482576119
 31
0.0
  0
LINE
  5
40F1
330
1A
100
AcDbEntity
  8
SEIHIN
100
AcDbLine
 10
114.191064414959
 20
103.3027900676119
 30
0.0
 11
121.943230184959
 21
119.1970853276118
 31
0.0
  0
LINE
  5
40F4
330
1A
100
AcDbEntity
  8
SEIHIN
100
AcDbLine
 10
117.290164774959
 20
109.6568874376118
 30
0.0
 11
100.018713834959
 21
109.6568874376118
 31
0.0
  0
ARC
  5
410E
330
1A
100
AcDbEntity
  8
SEIHIN
100
AcDbCircle
 10
107.129194274959
 20
100.5684138976118
 30
0.0
 40
9.899999981014923
100
AcDbArc
 50
135.9085673256489
 51
170.532554264619
  0
LINE
  5
411D
330
1A
100
AcDbEntity
  8
SEIHIN
100
AcDbLine
 10
100.018713834959
 20
107.4568874376119
 30
0.0
 11
100.018713834959
 21
108.6568874376118
 31
0.0
  0
LINE
  5
411E
330
1A
100
AcDbEntity
  8
SEIHIN
100
AcDbLine
 10
100.018713834959
 20
108.6568874376118
 30
0.0
 11
100.018713834959
 21
109.6568874376118
 31
0.0
  0
LINE
  5
413A
330
1A
100
AcDbEntity
  8
SEIHIN
100
AcDbLine
 10
113.411646714959
 20
104.3906060076118
 30
0.0
 11
116.299309794959
 21
107.4568874376119
 31
0.0
  0
LINE
  5
413B
330
1A
100
AcDbEntity
  8
SEIHIN
100
AcDbLine
 10
113.519305724959
 20
104.5049243376118
 30
0.0
 11
116.003210334959
 21
107.1424725376119
 31
0.0
  0
ARC
  5
413C
330
1A
100
AcDbEntity
  8
SEIHIN
100
AcDbCircle
 10
133.151520814959
 20
112.5222502276118
 30
0.0
 40
7.000000002833392
100
AcDbArc
 50
97.00000005156242
 51
154.0000000029729
  0
LINE
  5
413D
330
1A
100
AcDbEntity
  8
SEIHIN
100
AcDbLine
 10
127.236484794959
 20
124.3699989776118
 30
0.0
 11
128.387342154959
 21
128.1342837776119
 31
0.0
  0
ARC
  5
413E
330
1A
100
AcDbEntity
  8
SEIHIN
100
AcDbCircle
 10
131.829964944959
 20
114.3750032276118
 30
0.0
 40
10.99999999601528
100
AcDbArc
 50
97.00000001826174
 51
154.0000029819581
  0
LINE
  5
413F
330
1A
100
AcDbEntity
  8
SEIHIN
100
AcDbLine
 10
128.655488904959
 20
124.9069879276119
 30
0.0
 11
129.534907864959
 21
127.7834377376119
 31
0.0
  0
LINE
  5
4140
330
1A
100
AcDbEntity
  8
SEIHIN
100
AcDbLine
 10
129.534907864959
 20
127.7834377376119
 30
0.0
 11
128.387342154959
 21
128.1342837776119
 31
0.0
  0
ARC
  5
416D
330
1A
100
AcDbEntity
  8
SEIHIN
100
AcDbCircle
 10
185.869562794959
 20
130.0068857076118
 30
0.0
 40
4.00000000092025
100
AcDbArc
 50
30.96376783213932
 51
170.7918455333397
  0
ARC
  5
416E
330
1A
100
AcDbEntity
  8
SEIHIN
100
AcDbCircle
 10
185.869562794959
 20
130.0068857076118
 30
0.0
 40
9.999999997642415
100
AcDbArc
 50
56.80568927574743
 51
170.7918456181773
  0
LINE
  5
416F
330
1A
100
AcDbEntity
  8
SEIHIN
100
AcDbLine
 10
191.3443641231393
 20
138.3750725106059
 30
0.0
 11
196.673973661959
 21
129.4923899476119
 31
0.0
  0
ARC
  5
4174
330
1A
100
AcDbEntity
  8
SEIHIN
100
AcDbCircle
 10
175.011314294959
 20
131.7671241476119
 30
0.0
 40
6.999999996543326
100
AcDbArc
 50
276.9999999703212
 51
350.7918456343345
  0
ARC
  5
4175
330
1A
100
AcDbEntity
  8
SEIHIN
100
AcDbCircle
 10
175.011314294959
 20
131.7671241476119
 30
0.0
 40
0.9999999987021755
100
AcDbArc
 50
277.0000136757814
 51
350.791845391947
  0
LINE
  5
4176
330
1A
100
AcDbEntity
  8
SEIHIN
100
AcDbLine
 10
191.357517524959
 20
126.3025162676119
 30
0.0
 11
197.102720124959
 21
129.7496378276118
 31
0.0
  0
LINE
  5
4177
330
1A
100
AcDbEntity
  8
SEIHIN
100
AcDbLine
 10
189.2995340949591
 20
132.0648694076119
 30
0.0
 11
192.386509034959
 21
126.9199111776118
 31
0.0
  0
LINE
  5
41E7
330
1A
100
AcDbEntity
  8
SEIHIN
100
AcDbLine
 10
215.624567319959
 20
98.87989250761188
 30
0.0
 11
209.879364717959
 21
95.43277094761192
 31
0.0
  0
TEXT
  5
469D
330
1A
100
AcDbEntity
  8
SUNPOU
100
AcDbText
 10
205.8246690550424
 20
175.4006664207033
 30
0.0
 40
3.0
  1
（スライド幅）
100
AcDbText
  0
DIMENSION
  5
469E
330
1A
100
AcDbEntity
  8
SUNPOU
100
AcDbDimension
  2
*D2
 10
233.8032213722605
 20
183.5071679954196
 30
0.0
 11
231.3032213722604
 21
209.9403641848174
 31
0.0
 70
    32
  3
STANDARD
100
AcDbAlignedDimension
 13
214.5955758093674
 23
236.373560374215
 33
0.0
 14
214.5955758093673
 24
183.5071679954196
 34
0.0
 50
90.0
100
AcDbRotatedDimension
1001
ACAD
1000
DSTYLE
1002
{
1070
    41
1040
3.0
1070
    42
1040
3.0
1070
    43
1040
7.0
1070
    44
1040
1.5
1070
    73
1070
     0
1070
    74
1070
     0
1070
    77
1070
     3
1070
   140
1040
3.0
1070
   141
1040
3.0
1070
   147
1040
1.0
1070
   172
1070
     1
1070
   173
1070
     1
1070
   176
1070
   256
1070
   177
1070
   256
1070
   178
1070
   256
1070
   271
1070
     0
1070
   272
1070
     0
1070
   341
1005
B2
1070
     6
1000
OPEN
1070
     7
1000
OPEN
1002
}
  0
DIMENSION
  5
469F
330
1A
100
AcDbEntity
  8
SUNPOU
100
AcDbDimension
  2
*D3
 10
226.7731106002274
 20
168.4668496142317
 30
0.0
 11
209.2731105937274
 21
170.9668496142317
 31
0.0
 70
    32
  3
STANDARD
100
AcDbAlignedDimension
 13
191.7731105872274
 23
138.6323203890592
 33
0.0
 14
226.7731106002274
 24
138.6323203890592
 34
0.0
100
AcDbRotatedDimension
1001
ACAD
1000
DSTYLE
1002
{
1070
    41
1040
3.0
1070
    42
1040
3.0
1070
    43
1040
7.0
1070
    44
1040
1.5
1070
    73
1070
     0
1070
    74
1070
     0
1070
    77
1070
     3
1070
   140
1040
3.0
1070
   141
1040
3.0
1070
   147
1040
1.0
1070
   172
1070
     1
1070
   173
1070
     1
1070
   176
1070
   256
1070
   177
1070
   256
1070
   178
1070
   256
1070
   271
1070
     0
1070
   272
1070
     0
1070
   341
1005
B2
1070
     6
1000
OPEN
1070
     7
1000
OPEN
1002
}
  0
LINE
  5
46A0
330
1A
100
AcDbEntity
  8
CENTER_L
100
AcDbLine
 10
201.0471875942512
 20
96.54751174556453
 30
0.0
 11
218.7972911565573
 21
107.1975738804899
 31
0.0
  0
DIMENSION
  5
46A1
330
1A
100
AcDbEntity
  8
SUNPOU
100
AcDbDimension
  2
*D4
 10
222.271780093951
 20
102.8682201678531
 30
0.0
 11
215.1545888106405
 21
119.5893322165751
 31
0.0
 70
    33
  3
STANDARD
100
AcDbAlignedDimension
 13
197.102720132959
 23
129.7496378276118
 33
0.0
 14
215.624567327959
 24
98.87989250761188
 34
0.0
1001
ACAD
1000
DSTYLE
1002
{
1070
    41
1040
3.0
1070
    42
1040
3.0
1070
    43
1040
7.0
1070
    44
1040
1.5
1070
    73
1070
     0
1070
    74
1070
     0
1070
    77
1070
     3
1070
   140
1040
3.0
1070
   141
1040
3.0
1070
   147
1040
1.0
1070
   172
1070
     1
1070
   173
1070
     1
1070
   176
1070
   256
1070
   177
1070
   256
1070
   178
1070
   256
1070
   271
1070
     0
1070
   272
1070
     0
1070
   341
1005
B2
1070
     6
1000
OPEN
1070
     7
1000
OPEN
1002
}
  0
ARC
  5
46A3
330
1A
100
AcDbEntity
  8
SEIHIN
  6
DASHED
 62
     2
100
AcDbCircle
 10
220.869562792959
 20
130.0068857076118
 30
0.0
 40
4.000000001168293
100
AcDbArc
 50
30.96376790583763
 51
170.7918456269571
  0
ARC
  5
46A4
330
1A
100
AcDbEntity
  8
SEIHIN
  6
DASHED
 62
     2
100
AcDbCircle
 10
220.869562792959
 20
130.0068857076118
 30
0.0
 40
10.00000000018544
100
AcDbArc
 50
56.80568942011912
 51
170.7918456103774
  0
DIMENSION
  5
46A6
330
1A
100
AcDbEntity
  8
SUNPOU
100
AcDbDimension
  2
*D5
 10
191.7731105872274
 20
168.4668496142317
 30
0.0
 11
128.7212867110932
 21
170.9668496142317
 31
0.0
 70
    32
  3
STANDARD
100
AcDbAlignedDimension
 13
65.66946283495906
 23
92.20688570761188
 33
0.0
 14
191.7731105872274
 24
138.6323203890592
 34
0.0
100
AcDbRotatedDimension
1001
ACAD
1000
DSTYLE
1002
{
1070
    41
1040
3.0
1070
    42
1040
3.0
1070
    43
1040
7.0
1070
    44
1040
1.5
1070
    73
1070
     0
1070
    74
1070
     0
1070
    77
1070
     3
1070
   140
1040
3.0
1070
   141
1040
3.0
1070
   147
1040
1.0
1070
   172
1070
     1
1070
   173
1070
     1
1070
   176
1070
   256
1070
   177
1070
   256
1070
   178
1070
   256
1070
   271
1070
     0
1070
   272
1070
     0
1070
   341
1005
B2
1070
     6
1000
OPEN
1070
     7
1000
OPEN
1002
}
  0
LINE
  5
476C
330
1A
100
AcDbEntity
  8
SEIHIN
100
AcDbLine
 10
208.9361225037846
 20
107.6949197882729
 30
0.0
 11
207.9071309925273
 21
103.5789537449676
 31
0.0
  0
LINE
  5
476D
330
1A
100
AcDbEntity
  8
SEIHIN
100
AcDbLine
 10
207.9071309925273
 20
103.5789537449676
 30
0.0
 11
210.4796097698221
 21
105.1224410109882
 31
0.0
  0
LINE
  5
476E
330
1A
100
AcDbEntity
  8
SEIHIN
100
AcDbLine
 10
207.9071309925273
 20
103.5789537449676
 30
0.0
 11
212.0230970358596
 21
102.5499622337035
 31
0.0
  0
LINE
  5
4778
330
1A
100
AcDbEntity
  8
SEIHIN
100
AcDbLine
 10
197.6172158829113
 20
120.728812264698
 30
0.0
 11
201.7331819262436
 21
119.699820753434
 31
0.0
  0
LINE
  5
4779
330
1A
100
AcDbEntity
  8
CENTER_L
100
AcDbLine
 10
188.1847937090347
 20
117.9848348864345
 30
0.0
 11
205.9348972703196
 21
128.6348970207472
 31
0.0
  0
LINE
  5
477A
330
1A
100
AcDbEntity
  8
CENTER_L
100
AcDbLine
 10
192.5580076279532
 20
110.6961450219638
 30
0.0
 11
210.3081111895853
 21
121.3462071564849
 31
0.0
  0
LINE
  5
477B
330
1A
100
AcDbEntity
  8
SEIHIN
100
AcDbLine
 10
200.1896946602061
 20
122.2722995307186
 30
0.0
 11
197.6172158829113
 21
120.728812264698
 31
0.0
  0
LINE
  5
477C
330
1A
100
AcDbEntity
  8
SEIHIN
100
AcDbLine
 10
198.6462073941686
 20
124.8447783080034
 30
0.0
 11
197.6172158829113
 21
120.728812264698
 31
0.0
  0
ELLIPSE
  5
477F
330
1A
100
AcDbEntity
  8
SEIHIN
100
AcDbEllipse
 10
197.1027201306292
 20
234.373560374215
 30
0.0
 11
0.0
 21
2.0
 31
0.0
210
0.0
220
0.0
230
-1.0
 40
0.5144957552958261
 41
4.712388980384689
 42
6.283185307179586
  0
ELLIPSE
  5
4780
330
1A
100
AcDbEntity
  8
SEIHIN
100
AcDbEllipse
 10
198.1184354186956
 20
234.373560374215
 30
0.0
 11
0.0
 21
2.0
 31
0.0
210
0.0
220
0.0
230
-1.0
 40
0.5144957552958261
 41
4.712388980384689
 42
6.283185307179586
  0
ELLIPSE
  5
4781
330
1A
100
AcDbEntity
  8
SEIHIN
100
AcDbEllipse
 10
199.9324467819651
 20
231.6637013902316
 30
0.0
 11
0.0
 21
-2.099999999999994
 31
0.0
210
0.0
220
0.0
230
-1.0
 40
0.5144957554888068
 41
0.0
 42
6.283185307179586
  0
ELLIPSE
  5
4782
330
1A
100
AcDbEntity
  8
SEIHIN
100
AcDbEllipse
 10
198.9167314938986
 20
231.6637013902316
 30
0.0
 11
0.0
 21
-2.099999999999994
 31
0.0
210
0.0
220
0.0
230
-1.0
 40
0.5144957554888068
 41
3.630936211000929
 42
5.793841749782787
  0
ELLIPSE
  5
4783
330
1A
100
AcDbEntity
  8
SEIHIN
100
AcDbEllipse
 10
204.3056607012308
 20
230.1637013902317
 30
0.0
 11
0.0
 21
3.25
 31
0.0
210
0.0
220
0.0
230
-1.0
 40
0.5144957554888029
 41
0.0
 42
6.283185307179586
  0
ELLIPSE
  5
4784
330
1A
100
AcDbEntity
  8
SEIHIN
100
AcDbEllipse
 10
203.2899454131643
 20
230.1637013902317
 30
0.0
 11
0.0
 21
3.25
 31
0.0
210
0.0
220
0.0
230
-1.0
 40
0.5144957554888029
 41
0.3085972064891327
 42
2.832995447100647
  0
ELLIPSE
  5
4785
330
1A
100
AcDbEntity
  8
SEIHIN
100
AcDbEllipse
 10
214.5955758093674
 20
234.373560374215
 30
0.0
 11
0.0
 21
2.0
 31
0.0
210
0.0
220
0.0
230
-1.0
 40
0.5144957552958261
 41
0.0
 42
1.570796326794896
  0
ELLIPSE
  5
4786
330
1A
100
AcDbEntity
  8
SEIHIN
100
AcDbEllipse
 10
211.7791253801363
 20
231.6637013902316
 30
0.0
 11
0.0
 21
-2.099999999999994
 31
0.0
210
0.0
220
0.0
230
-1.0
 40
0.5144957554888068
 41
3.630936211000929
 42
5.793841749782787
  0
ELLIPSE
  5
4787
330
1A
100
AcDbEntity
  8
SEIHIN
100
AcDbEllipse
 10
212.7948406682028
 20
231.6637013902316
 30
0.0
 11
0.0
 21
-2.099999999999994
 31
0.0
210
0.0
220
0.0
230
-1.0
 40
0.5144957554888068
 41
0.0
 42
6.283185307179586
  0
SPLINE
  5
4788
330
1A
100
AcDbEntity
  8
SEIHIN
100
AcDbSpline
210
0.0
220
0.0
230
1.0
 70
     8
 71
     3
 72
    43
 73
    39
 74
     0
 42
0.0000000001
 43
0.0000000001
 40
2.573801282421732
 40
2.573801282421732
 40
2.573801282421732
 40
2.573801282421732
 40
2.743484381259663
 40
2.743484381259663
 40
2.952958003953673
 40
2.952958003953673
 40
3.162431626647684
 40
3.162431626647684
 40
3.371905249341694
 40
3.371905249341694
 40
3.581378872035704
 40
3.581378872035704
 40
3.790852494729714
 40
3.790852494729714
 40
4.212890898547438
 40
4.212890898547438
 40
4.63492930236516
 40
4.63492930236516
 40
4.712388980384689
 40
4.712388980384689
 40
4.712388980384689
 40
5.035006403854932
 40
5.035006403854932
 40
5.40458618261824
 40
5.40458618261824
 40
5.774165961381548
 40
5.774165961381548
 40
6.00394318856648
 40
6.00394318856648
 40
6.233720415751411
 40
6.233720415751411
 40
6.426033209648384
 40
6.426033209648384
 40
6.618346003545356
 40
6.618346003545356
 40
6.810658797442329
 40
6.810658797442329
 40
6.85074050005263
 40
6.85074050005263
 40
6.85074050005263
 40
6.85074050005263
 10
207.8005467920086
 20
212.9403641948174
 30
0.0
 10
207.8994976262645
 20
213.0752678027788
 30
0.0
 10
208.0112090065969
 20
213.2015462236491
 30
0.0
 10
208.2977218043797
 20
213.4589933217742
 30
0.0
 10
208.4832570053139
 20
213.5840970152711
 30
0.0
 10
208.9121110146416
 20
213.759015636323
 30
0.0
 10
209.1562271328939
 20
213.805447100184
 30
0.0
 10
209.64046517699
 20
213.7838841181919
 30
0.0
 10
209.8756968889413
 20
213.7168219281878
 30
0.0
 10
210.2824075927498
 20
213.5130757870562
 30
0.0
 10
210.4557034650629
 20
213.3789057165475
 30
0.0
 10
210.7524346313169
 20
213.0806069776
 30
0.0
 10
210.8770134646817
 20
212.9157555467653
 30
0.0
 10
211.2036398143373
 20
212.3860616386941
 30
0.0
 10
211.3583737851803
 20
211.9861542254124
 30
0.0
 10
211.5782153944098
 20
211.1253473977571
 30
0.0
 10
211.6410869396773
 20
210.6643382310964
 30
0.0
 10
211.6611515147762
 20
210.1120125961285
 30
0.0
 10
211.6627072863856
 20
210.0261884307737
 30
0.0
 10
211.6627072863856
 20
209.9403641848174
 30
0.0
 10
211.6627072863856
 20
209.5829085664926
 30
0.0
 10
211.6357435373324
 20
209.2255536250679
 30
0.0
 10
211.5198425546235
 20
208.4848139152676
 30
0.0
 10
211.4230232364528
 20
208.105572063491
 30
0.0
 10
211.1516474117897
 20
207.406200257437
 30
0.0
 10
210.9790009448018
 20
207.084582235926
 30
0.0
 10
210.5972615138492
 20
206.6294182053549
 30
0.0
 10
210.4250415996314
 20
206.4699262859422
 30
0.0
 10
210.0086051094294
 20
206.2148097369043
 30
0.0
 10
209.7608677975423
 20
206.1213723510183
 30
0.0
 10
209.2766749522914
 20
206.0701593099598
 30
0.0
 10
209.0488872060325
 20
206.0940720958479
 30
0.0
 10
208.6350603741945
 20
206.2212382068722
 30
0.0
 10
208.4495563927462
 20
206.3218939387434
 30
0.0
 10
208.1291266692303
 20
206.5603446450725
 30
0.0
 10
207.9927468888747
 20
206.6980273436725
 30
0.0
 10
207.8488048472936
 20
206.8771767255224
 30
0.0
 10
207.8246915959355
 20
206.9085437978034
 30
0.0
 10
207.8012604774182
 20
206.9403641948174
 30
0.0
  0
ELLIPSE
  5
4789
330
1A
100
AcDbEntity
  8
SEIHIN
100
AcDbEllipse
 10
203.2899454131643
 20
189.717026979403
 30
0.0
 11
0.0
 21
-3.25
 31
0.0
210
0.0
220
0.0
230
1.0
 40
0.5144957554888029
 41
0.3085972064891327
 42
2.832995447100647
  0
ELLIPSE
  5
478A
330
1A
100
AcDbEntity
  8
SEIHIN
100
AcDbEllipse
 10
204.3056607012307
 20
189.717026979403
 30
0.0
 11
0.0
 21
-3.25
 31
0.0
210
0.0
220
0.0
230
1.0
 40
0.5144957554888029
 41
0.0
 42
6.283185307179586
  0
ELLIPSE
  5
478B
330
1A
100
AcDbEntity
  8
SEIHIN
100
AcDbEllipse
 10
198.9167314938985
 20
188.217026979403
 30
0.0
 11
0.0
 21
2.099999999999994
 31
0.0
210
0.0
220
0.0
230
1.0
 40
0.5144957554888068
 41
3.630936211000929
 42
5.793841749782787
  0
ELLIPSE
  5
478C
330
1A
100
AcDbEntity
  8
SEIHIN
100
AcDbEllipse
 10
199.932446781965
 20
188.217026979403
 30
0.0
 11
0.0
 21
2.099999999999994
 31
0.0
210
0.0
220
0.0
230
1.0
 40
0.5144957554888068
 41
0.0
 42
6.283185307179586
  0
ELLIPSE
  5
478D
330
1A
100
AcDbEntity
  8
SEIHIN
100
AcDbEllipse
 10
197.1027201306291
 20
185.5071679954196
 30
0.0
 11
0.0
 21
-2.0
 31
0.0
210
0.0
220
0.0
230
1.0
 40
0.5144957552958261
 41
4.712388980384689
 42
6.283185307179586
  0
ELLIPSE
  5
478E
330
1A
100
AcDbEntity
  8
SEIHIN
100
AcDbEllipse
 10
198.1184354186956
 20
185.5071679954196
 30
0.0
 11
0.0
 21
-2.0
 31
0.0
210
0.0
220
0.0
230
1.0
 40
0.5144957552958261
 41
4.712388980384689
 42
6.283185307179586
  0
ELLIPSE
  5
478F
330
1A
100
AcDbEntity
  8
SEIHIN
100
AcDbEllipse
 10
209.326007079959
 20
209.9403641848174
 30
0.0
 11
0.0
 21
-2.8559114857152
 31
0.0
210
0.0
220
0.0
230
-1.0
 40
0.4680467910551545
 41
-1.570796326794896
 42
4.712388980384689
  0
ELLIPSE
  5
4790
330
1A
100
AcDbEntity
  8
SEIHIN
100
AcDbEllipse
 10
212.7948406682027
 20
188.217026979403
 30
0.0
 11
0.0
 21
2.099999999999994
 31
0.0
210
0.0
220
0.0
230
1.0
 40
0.5144957554888068
 41
0.0
 42
6.283185307179586
  0
ELLIPSE
  5
4791
330
1A
100
AcDbEntity
  8
SEIHIN
100
AcDbEllipse
 10
211.7791253801363
 20
188.217026979403
 30
0.0
 11
0.0
 21
2.099999999999994
 31
0.0
210
0.0
220
0.0
230
1.0
 40
0.5144957554888068
 41
3.630936211000929
 42
5.793841749782787
  0
ELLIPSE
  5
4792
330
1A
100
AcDbEntity
  8
SEIHIN
100
AcDbEllipse
 10
214.5955758093673
 20
185.5071679954196
 30
0.0
 11
0.0
 21
-2.0
 31
0.0
210
0.0
220
0.0
230
1.0
 40
0.5144957552958261
 41
0.0
 42
1.570796326794896
  0
LINE
  5
479D
330
1A
100
AcDbEntity
  8
SEIHIN
100
AcDbLine
 10
215.624567319959
 20
219.696612344215
 30
0.0
 11
215.624567319959
 21
234.373560374215
 31
0.0
  0
LINE
  5
479E
330
1A
100
AcDbEntity
  8
SEIHIN
100
AcDbLine
 10
196.0737286200375
 20
234.373560374215
 30
0.0
 11
196.0737286200375
 21
219.208507844215
 31
0.0
  0
LINE
  5
479F
330
1A
100
AcDbEntity
  8
SEIHIN
100
AcDbLine
 10
197.089443908104
 20
219.696611954215
 30
0.0
 11
197.089443908104
 21
234.373560374215
 31
0.0
  0
LINE
  5
47E1
330
1A
100
AcDbEntity
  8
SEIHIN
100
AcDbLine
 10
215.624567319959
 20
200.1841160254196
 30
0.0
 11
215.624567319959
 21
185.5071679954196
 31
0.0
  0
LINE
  5
47E2
330
1A
100
AcDbEntity
  8
SEIHIN
100
AcDbLine
 10
197.089443908104
 20
200.1841164154196
 30
0.0
 11
197.089443908104
 21
185.5071679954196
 31
0.0
  0
LINE
  5
47E3
330
1A
100
AcDbEntity
  8
SEIHIN
100
AcDbLine
 10
196.0737286200375
 20
185.5071679954196
 30
0.0
 11
196.0737286200375
 21
200.6722205254196
 31
0.0
  0
LINE
  5
47E4
330
1A
100
AcDbEntity
  8
SEIHIN
100
AcDbLine
 10
214.5955758093673
 20
183.5071679954196
 30
0.0
 11
197.1027201306291
 21
183.5071679954196
 31
0.0
  0
ARC
  5
47E5
330
1A
100
AcDbEntity
  8
SEIHIN
100
AcDbCircle
 10
181.1482275779059
 20
209.9403641648174
 30
0.0
 40
3.25
100
AcDbArc
 50
112.6198649480422
 51
247.3801350519577
  0
LINE
  5
47E6
330
1A
100
AcDbEntity
  8
SEIHIN
100
AcDbLine
 10
175.6775733255655
 20
203.4403641648173
 30
0.0
 11
175.6775733255655
 21
202.4403641648174
 31
0.0
  0
LINE
  5
47E7
330
1A
100
AcDbEntity
  8
SEIHIN
100
AcDbLine
 10
179.8982275779059
 20
206.9403641648174
 30
0.0
 11
179.8982275779059
 21
203.4403641648174
 31
0.0
  0
LINE
  5
47E8
330
1A
100
AcDbEntity
  8
SEIHIN
100
AcDbLine
 10
175.6775733255655
 20
217.4403642048174
 30
0.0
 11
175.6775733255655
 21
216.4403642048174
 31
0.0
  0
LINE
  5
47E9
330
1A
100
AcDbEntity
  8
SEIHIN
100
AcDbLine
 10
179.8982275779059
 20
216.4403642048174
 30
0.0
 11
179.8982275779059
 21
212.9403641648174
 31
0.0
  0
LINE
  5
47EA
330
1A
100
AcDbEntity
  8
SEIHIN
100
AcDbLine
 10
212.5969002699591
 20
216.4403641948174
 30
0.0
 11
212.5969002699591
 21
203.4403641748174
 31
0.0
  0
LINE
  5
47EB
330
1A
100
AcDbEntity
  8
SEIHIN
100
AcDbLine
 10
213.5969002699591
 20
217.4403641948174
 30
0.0
 11
213.5969002699591
 21
202.4403641748174
 31
0.0
  0
ARC
  5
47EC
330
1A
100
AcDbEntity
  8
SEIHIN
100
AcDbCircle
 10
189.3267193044906
 20
209.9403641648173
 30
0.0
 40
3.25
100
AcDbArc
 50
292.6198649480456
 51
67.38013505196104
  0
LINE
  5
47ED
330
1A
100
AcDbEntity
  8
SEIHIN
100
AcDbLine
 10
198.595266751959
 20
201.2881780954197
 30
0.0
 11
202.431994077959
 21
201.2881780954197
 31
0.0
  0
LINE
  5
47EE
330
1A
100
AcDbEntity
  8
CENTER_L
100
AcDbLine
 10
200.1804284578528
 20
189.7170269794032
 30
0.0
 11
208.4308929446087
 21
189.7170269794032
 31
0.0
  0
LINE
  5
47EF
330
1A
100
AcDbEntity
  8
CENTER_L
100
AcDbLine
 10
195.9101460616036
 20
188.2170269794032
 30
0.0
 11
203.9547475023264
 21
188.2170269794032
 31
0.0
  0
LINE
  5
47F0
330
1A
100
AcDbEntity
  8
SEIHIN
100
AcDbLine
 10
190.5767193044905
 20
206.9403641948174
 30
0.0
 11
190.5767193044905
 21
203.4403641748174
 31
0.0
  0
LINE
  5
47F1
330
1A
100
AcDbEntity
  8
SEIHIN
100
AcDbLine
 10
193.0122251534122
 20
203.4403641648173
 30
0.0
 11
193.0122251534122
 21
202.4403641648174
 31
0.0
  0
ARC
  5
47F2
330
1A
100
AcDbEntity
  8
SEIHIN
100
AcDbCircle
 10
195.389443904104
 20
200.1841164154196
 30
0.0
 40
1.700000002834678
100
AcDbArc
 50
0.0
 51
80.99999985768858
  0
ARC
  5
47F3
330
1A
100
AcDbEntity
  8
SEIHIN
100
AcDbCircle
 10
195.7192183760375
 20
202.8674045154196
 30
0.0
 40
1.700000003059988
100
AcDbArc
 50
194.5485451942484
 51
266.2081650705318
  0
LINE
  5
47F4
330
1A
100
AcDbEntity
  8
SEIHIN
100
AcDbLine
 10
195.655382499104
 20
201.8631865954196
 30
0.0
 11
195.011401094104
 21
202.5071679954197
 31
0.0
  0
ARC
  5
47F5
330
1A
100
AcDbEntity
  8
SEIHIN
100
AcDbCircle
 10
195.5737286160375
 20
200.6722205254196
 30
0.0
 40
0.5000000015686215
100
AcDbArc
 50
0.0
 51
86.20816424113447
  0
LINE
  5
47F6
330
1A
100
AcDbEntity
  8
CENTER_L
100
AcDbLine
 10
208.7725399478413
 20
188.2170269794032
 30
0.0
 11
216.8171413885641
 21
188.2170269794032
 31
0.0
  0
LINE
  5
47F7
330
1A
100
AcDbEntity
  8
SEIHIN
100
AcDbLine
 10
205.175162455959
 20
201.2881780954197
 30
0.0
 11
209.017179262959
 21
201.2881780954197
 31
0.0
  0
LINE
  5
47F8
330
1A
100
AcDbEntity
  8
SEIHIN
100
AcDbLine
 10
204.475824128959
 20
202.5071679954197
 30
0.0
 11
204.475824128959
 21
199.5071679954196
 31
0.0
  0
LINE
  5
47F9
330
1A
100
AcDbEntity
  8
SEIHIN
100
AcDbLine
 10
203.086422418959
 20
199.5071679954196
 30
0.0
 11
203.086422418959
 21
202.5071679954197
 31
0.0
  0
LINE
  5
47FA
330
1A
100
AcDbEntity
  8
SEIHIN
100
AcDbLine
 10
204.475824128959
 20
199.5071679954196
 30
0.0
 11
203.086422418959
 21
201.5783628054196
 31
0.0
  0
LINE
  5
47FB
330
1A
100
AcDbEntity
  8
SEIHIN
100
AcDbLine
 10
203.086422418959
 20
199.5071679954196
 30
0.0
 11
204.475824128959
 21
199.5071679954196
 31
0.0
  0
LINE
  5
47FC
330
1A
100
AcDbEntity
  8
SEIHIN
100
AcDbLine
 10
212.616535140959
 20
201.2881780954197
 30
0.0
 11
214.039504327959
 21
201.2881780954197
 31
0.0
  0
LINE
  5
47FD
330
1A
100
AcDbEntity
  8
SEIHIN
100
AcDbLine
 10
211.388223483959
 20
202.5071679954197
 30
0.0
 11
211.388223483959
 21
199.5071679954196
 31
0.0
  0
LINE
  5
47FE
330
1A
100
AcDbEntity
  8
SEIHIN
100
AcDbLine
 10
209.998821774959
 20
199.5071679954196
 30
0.0
 11
209.998821774959
 21
202.5071679954197
 31
0.0
  0
LINE
  5
47FF
330
1A
100
AcDbEntity
  8
SEIHIN
100
AcDbLine
 10
211.388223483959
 20
199.5071679954196
 30
0.0
 11
209.998821774959
 21
201.5783628054196
 31
0.0
  0
LINE
  5
4800
330
1A
100
AcDbEntity
  8
SEIHIN
100
AcDbLine
 10
209.998821774959
 20
199.5071679954196
 30
0.0
 11
211.388223483959
 21
199.5071679954196
 31
0.0
  0
ARC
  5
4801
330
1A
100
AcDbEntity
  8
SEIHIN
100
AcDbCircle
 10
213.924567319959
 20
200.1841164154196
 30
0.0
 40
1.700000000521832
100
AcDbArc
 50
359.9999868556723
 51
80.99999999084429
  0
LINE
  5
4802
330
1A
100
AcDbEntity
  8
SEIHIN
100
AcDbLine
 10
214.190505910959
 20
201.8631865954196
 30
0.0
 11
213.546524502959
 21
202.5071679954197
 31
0.0
  0
LINE
  5
4803
330
1A
100
AcDbEntity
  8
CENTER_L
100
AcDbLine
 10
195.9101460616037
 20
231.6637013902316
 30
0.0
 11
203.9547475023264
 21
231.6637013902316
 31
0.0
  0
LINE
  5
4804
330
1A
100
AcDbEntity
  8
CENTER_L
100
AcDbLine
 10
200.1804284578529
 20
230.1637013902317
 30
0.0
 11
208.4308929446087
 21
230.1637013902317
 31
0.0
  0
LINE
  5
4805
330
1A
100
AcDbEntity
  8
SEIHIN
100
AcDbLine
 10
198.595266751959
 20
218.592550274215
 30
0.0
 11
202.431994077959
 21
218.592550274215
 31
0.0
  0
LINE
  5
4806
330
1A
100
AcDbEntity
  8
SEIHIN
100
AcDbLine
 10
190.5767193044905
 20
212.9403641948174
 30
0.0
 11
190.5767193044905
 21
216.4403641948174
 31
0.0
  0
ARC
  5
4807
330
1A
100
AcDbEntity
  8
SEIHIN
100
AcDbCircle
 10
195.389443904104
 20
219.696611954215
 30
0.0
 40
1.700000002834678
100
AcDbArc
 50
279.0000001423114
 51
0.0
  0
ARC
  5
4808
330
1A
100
AcDbEntity
  8
SEIHIN
100
AcDbCircle
 10
195.7192183760375
 20
217.013323854215
 30
0.0
 40
1.700000003059988
100
AcDbArc
 50
93.79183492946813
 51
165.4514548057515
  0
LINE
  5
4809
330
1A
100
AcDbEntity
  8
SEIHIN
100
AcDbLine
 10
195.655382499104
 20
218.017541774215
 30
0.0
 11
195.011401094104
 21
217.373560374215
 31
0.0
  0
ARC
  5
480A
330
1A
100
AcDbEntity
  8
SEIHIN
100
AcDbCircle
 10
195.5737286160375
 20
219.208507844215
 30
0.0
 40
0.5000000015686215
100
AcDbArc
 50
273.7918357588654
 51
0.0
  0
LINE
  5
480B
330
1A
100
AcDbEntity
  8
SEIHIN
100
AcDbLine
 10
193.0122251534122
 20
217.4403642048174
 30
0.0
 11
193.0122251534122
 21
216.4403642048174
 31
0.0
  0
LINE
  5
480C
330
1A
100
AcDbEntity
  8
SEIHIN
100
AcDbLine
 10
205.1751624559591
 20
218.592550274215
 30
0.0
 11
209.017179262959
 21
218.592550274215
 31
0.0
  0
LINE
  5
480D
330
1A
100
AcDbEntity
  8
SEIHIN
100
AcDbLine
 10
204.475824128959
 20
217.373560374215
 30
0.0
 11
204.475824128959
 21
220.373560374215
 31
0.0
  0
LINE
  5
480E
330
1A
100
AcDbEntity
  8
SEIHIN
100
AcDbLine
 10
203.086422418959
 20
220.373560374215
 30
0.0
 11
203.086422418959
 21
217.373560374215
 31
0.0
  0
LINE
  5
480F
330
1A
100
AcDbEntity
  8
SEIHIN
100
AcDbLine
 10
203.086422418959
 20
220.373560374215
 30
0.0
 11
204.475824128959
 21
220.373560374215
 31
0.0
  0
LINE
  5
4810
330
1A
100
AcDbEntity
  8
SEIHIN
100
AcDbLine
 10
204.475824128959
 20
220.373560374215
 30
0.0
 11
203.086422418959
 21
218.302365564215
 31
0.0
  0
LINE
  5
4811
330
1A
100
AcDbEntity
  8
SEIHIN
100
AcDbLine
 10
212.6165351409591
 20
218.592550274215
 30
0.0
 11
214.039504327959
 21
218.592550274215
 31
0.0
  0
LINE
  5
4812
330
1A
100
AcDbEntity
  8
SEIHIN
100
AcDbLine
 10
211.388223483959
 20
217.373560374215
 30
0.0
 11
211.388223483959
 21
220.373560374215
 31
0.0
  0
LINE
  5
4813
330
1A
100
AcDbEntity
  8
SEIHIN
100
AcDbLine
 10
209.998821774959
 20
220.373560374215
 30
0.0
 11
209.998821774959
 21
217.373560374215
 31
0.0
  0
LINE
  5
4814
330
1A
100
AcDbEntity
  8
SEIHIN
100
AcDbLine
 10
209.998821774959
 20
220.373560374215
 30
0.0
 11
211.388223483959
 21
220.373560374215
 31
0.0
  0
LINE
  5
4815
330
1A
100
AcDbEntity
  8
SEIHIN
100
AcDbLine
 10
211.388223483959
 20
220.373560374215
 30
0.0
 11
209.998821774959
 21
218.302365564215
 31
0.0
  0
LINE
  5
4816
330
1A
100
AcDbEntity
  8
SEIHIN
100
AcDbLine
 10
214.190505910959
 20
218.017541774215
 30
0.0
 11
213.546524502959
 21
217.373560374215
 31
0.0
  0
ARC
  5
4817
330
1A
100
AcDbEntity
  8
SEIHIN
100
AcDbCircle
 10
213.9245673199591
 20
219.696611954215
 30
0.0
 40
1.700000000521832
100
AcDbArc
 50
279.0000000091557
 51
0.0000131443276943
  0
LINE
  5
4818
330
1A
100
AcDbEntity
  8
CENTER_L
100
AcDbLine
 10
208.7725399478414
 20
231.6637013902316
 30
0.0
 11
216.8171413885641
 21
231.6637013902316
 31
0.0
  0
LINE
  5
4819
330
1A
100
AcDbEntity
  8
SEIHIN
100
AcDbLine
 10
214.5955758093674
 20
236.373560374215
 30
0.0
 11
197.1027201306292
 21
236.373560374215
 31
0.0
  0
CIRCLE
  5
481A
330
1A
100
AcDbEntity
  8
SEIHIN
100
AcDbCircle
 10
302.520691062959
 20
157.4316138296119
 30
0.0
 40
2.100000000249221
  0
LINE
  5
481B
330
1A
100
AcDbEntity
  8
CENTER_L
100
AcDbLine
 10
299.8967627111977
 20
161.8048277502234
 30
0.0
 11
305.1446194147203
 21
153.0583999090004
 31
0.0
  0
LINE
  5
481C
330
1A
100
AcDbEntity
  8
CENTER_L
100
AcDbLine
 10
298.1474771423475
 20
154.8076854778506
 30
0.0
 11
306.8939049835705
 21
160.0555421813731
 31
0.0
  0
LINE
  5
481D
330
1A
100
AcDbEntity
  8
SEIHIN
100
AcDbLine
 10
283.1413509429591
 20
179.0404355576118
 30
0.0
 11
299.605215112959
 21
151.6006619346119
 31
0.0
  0
LINE
  5
481E
330
1A
100
AcDbEntity
  8
SEIHIN
100
AcDbLine
 10
302.3491924729591
 20
150.9146675936119
 30
0.0
 11
323.357769142959
 21
163.5198136016118
 31
0.0
  0
DIMENSION
  5
481F
330
1A
100
AcDbEntity
  8
SUNPOU
100
AcDbDimension
  2
*D6
 10
281.322718230958
 20
138.2987830505958
 30
0.0
 11
274.2055269501125
 21
155.0198951012718
 31
0.0
 70
    33
  3
STANDARD
100
AcDbAlignedDimension
 13
282.1123594329261
 23
180.7554214080627
 33
0.0
 14
300.6342066234417
 24
149.8856760834116
 34
0.0
1001
ACAD
1000
DSTYLE
1002
{
1070
    41
1040
3.0
1070
    42
1040
3.0
1070
    43
1040
7.0
1070
    44
1040
1.5
1070
    73
1070
     0
1070
    74
1070
     0
1070
    77
1070
     3
1070
   140
1040
3.0
1070
   141
1040
3.0
1070
   147
1040
1.0
1070
   172
1070
     1
1070
   173
1070
     1
1070
   176
1070
   256
1070
   177
1070
   256
1070
   178
1070
   256
1070
   271
1070
     0
1070
   272
1070
     0
1070
   341
1005
B2
1070
     6
1000
OPEN
1070
     7
1000
OPEN
1002
}
  0
DIMENSION
  5
4820
330
1A
100
AcDbEntity
  8
SUNPOU
100
AcDbDimension
  2
*D7
 10
227.422290603989
 20
105.9585264755656
 30
0.0
 11
216.1891332807764
 21
129.5395819343858
 31
0.0
 70
    33
  3
STANDARD
100
AcDbAlignedDimension
 13
188.8707880445759
 23
143.4695246487731
 33
0.0
 14
215.624567319959
 24
98.87989250761188
 34
0.0
1001
ACAD
1000
DSTYLE
1002
{
1070
    41
1040
3.0
1070
    42
1040
3.0
1070
    43
1040
7.0
1070
    44
1040
1.5
1070
    73
1070
     0
1070
    74
1070
     0
1070
    77
1070
     3
1070
   140
1040
3.0
1070
   141
1040
3.0
1070
   147
1040
1.0
1070
   172
1070
     1
1070
   173
1070
     1
1070
   176
1070
   256
1070
   177
1070
   256
1070
   178
1070
   256
1070
   271
1070
     0
1070
   272
1070
     0
1070
   341
1005
B2
1070
     6
1000
OPEN
1070
     7
1000
OPEN
1002
}
  0
LINE
  5
4821
330
1A
100
AcDbEntity
  8
SEIHIN
  6
DASHED
 62
     2
100
AcDbLine
 10
232.102720112959
 20
129.7496378296119
 30
0.0
 11
250.624567332959
 21
98.87989250761188
 31
0.0
  0
LINE
  5
4822
330
1A
100
AcDbEntity
  8
SEIHIN
  6
DASHED
 62
     2
100
AcDbLine
 10
231.073728602959
 20
129.1322429236118
 30
0.0
 11
249.595575832959
 21
98.26249759761191
 31
0.0
  0
LINE
  5
4823
330
1A
100
AcDbEntity
  8
SEIHIN
  6
DASHED
 62
     2
100
AcDbLine
 10
244.879364732959
 20
95.43277094761192
 30
0.0
 11
226.357517512959
 21
126.3025162686119
 31
0.0
  0
LINE
  5
4824
330
1A
100
AcDbEntity
  8
SEIHIN
  6
DASHED
 62
     2
100
AcDbLine
 10
250.624567332959
 20
98.87989250761188
 30
0.0
 11
244.879364722959
 21
95.43277094761192
 31
0.0
  0
LINE
  5
4825
330
1A
100
AcDbEntity
  8
CENTER_L
100
AcDbLine
 10
236.0471875992512
 20
96.54751174556453
 30
0.0
 11
253.7972911615573
 21
107.1975738804899
 31
0.0
  0
LINE
  5
4826
330
1A
100
AcDbEntity
  8
SEIHIN
  6
DASHED
 62
     2
100
AcDbLine
 10
226.3443641014454
 20
138.3750725265293
 30
0.0
 11
231.673973652959
 21
129.4923899526119
 31
0.0
  0
LINE
  5
4827
330
1A
100
AcDbEntity
  8
CENTER_L
100
AcDbLine
 10
223.1847937140347
 20
117.9848348864345
 30
0.0
 11
240.9348972753196
 21
128.6348970207472
 31
0.0
  0
LINE
  5
4828
330
1A
100
AcDbEntity
  8
CENTER_L
100
AcDbLine
 10
227.5580076329533
 20
110.6961450219638
 30
0.0
 11
245.3081111945853
 21
121.3462071564849
 31
0.0
  0
LINE
  5
4829
330
1A
100
AcDbEntity
  8
SEIHIN
  6
DASHED
 62
     2
100
AcDbLine
 10
224.299534082959
 20
132.0648694076119
 30
0.0
 11
227.386509022959
 21
126.9199111756118
 31
0.0
  0
LINE
  5
482A
330
1A
100
AcDbEntity
  8
SEIHIN
  6
DASHED
 62
     2
100
AcDbLine
 10
226.357517512959
 20
126.3025162686119
 30
0.0
 11
232.102720112959
 21
129.7496378296119
 31
0.0
  0
DIMENSION
  5
482B
330
1A
100
AcDbEntity
  8
SUNPOU
100
AcDbDimension
  2
*D8
 10
289.1552307282458
 20
142.9982905478839
 30
0.0
 11
289.8840997157344
 21
146.6426354816516
 31
0.0
 70
    33
  3
STANDARD
100
AcDbAlignedDimension
 13
297.8044799695942
 23
154.6018871742461
 33
0.0
 14
300.6342066234417
 24
149.8856760834116
 34
0.0
1001
ACAD
1000
DSTYLE
1002
{
1070
    41
1040
3.0
1070
    42
1040
3.0
1070
    43
1040
7.0
1070
    44
1040
1.5
1070
    73
1070
     0
1070
    74
1070
     0
1070
    77
1070
     3
1070
   140
1040
3.0
1070
   141
1040
3.0
1070
   147
1040
1.0
1070
   172
1070
     1
1070
   173
1070
     1
1070
   176
1070
   256
1070
   177
1070
   256
1070
   178
1070
   256
1070
   271
1070
     0
1070
   272
1070
     0
1070
   341
1005
B2
1070
     6
1000
OPEN
1070
     7
1000
OPEN
1002
}
  0
ARC
  5
482C
330
1A
100
AcDbEntity
  8
SEIHIN
100
AcDbCircle
 10
301.320200962959
 20
152.6296534456118
 30
0.0
 40
1.999999999452818
100
AcDbArc
 50
210.9637565566386
 51
300.9637565025945
  0
LWPOLYLINE
  5
482D
330
1A
100
AcDbEntity
  8
SUNPOU
100
AcDbPolyline
 90
        3
 70
     0
 43
0.0
 10
330.9837130450721
 20
198.2521372758121
 10
342.0942483086596
 20
231.8602689624198
 10
357.9436981491639
 20
231.8602689624198
1001
ACAD
1000
DSTYLE
1002
{
1070
    41
1040
3.0
1070
    42
1040
3.0
1070
    43
1040
7.0
1070
    44
1040
1.5
1070
    73
1070
     0
1070
    74
1070
     0
1070
    77
1070
     0
1070
   140
1040
3.0
1070
   141
1040
3.0
1070
   147
1040
1.0
1070
   172
1070
     1
1070
   173
1070
     1
1070
   176
1070
   256
1070
   177
1070
   256
1070
   178
1070
   256
1070
   271
1070
     0
1070
   272
1070
     0
1070
   341
1005
B2
1070
   343
1005
B2
1070
   344
1005
B2
1002
}
  0
TEXT
  5
482E
330
1A
100
AcDbEntity
  8
SUNPOU
100
AcDbText
 10
342.4338535224856
 20
233.1646158750403
 30
0.0
 40
3.0
  1
2-φ6.5
100
AcDbText
  0
DIMENSION
  5
482F
330
1A
100
AcDbEntity
  8
SUNPOU
100
AcDbDimension
  2
*D9
 10
302.9249092778604
 20
249.0813218720441
 30
0.0
 11
278.9151073430919
 21
237.5909166556645
 31
0.0
 70
    33
  3
STANDARD
100
AcDbAlignedDimension
 13
282.1123594329261
 23
180.7554214080627
 33
0.0
 14
327.5594845249173
 24
208.0236964691398
 34
0.0
1001
ACAD
1000
DSTYLE
1002
{
1070
    41
1040
3.0
1070
    42
1040
3.0
1070
    43
1040
7.0
1070
    44
1040
1.5
1070
    73
1070
     0
1070
    74
1070
     0
1070
    77
1070
     3
1070
   140
1040
3.0
1070
   141
1040
3.0
1070
   147
1040
1.0
1070
   172
1070
     1
1070
   173
1070
     1
1070
   176
1070
   256
1070
   177
1070
   256
1070
   178
1070
   256
1070
   271
1070
     0
1070
   272
1070
     0
1070
   341
1005
B2
1070
     6
1000
OPEN
1070
     7
1000
OPEN
1002
}
  0
LWPOLYLINE
  5
4830
330
1A
100
AcDbEntity
  8
SUNPOU
100
AcDbPolyline
 90
        3
 70
     0
 43
0.0
 10
285.5480662712404
 20
181.5374148162468
 10
264.132890196479
 20
199.986753511572
 10
246.5511035595703
 20
199.986753511572
1001
ACAD
1000
DSTYLE
1002
{
1070
    41
1040
3.0
1070
    42
1040
3.0
1070
    43
1040
7.0
1070
    44
1040
1.5
1070
    73
1070
     0
1070
    74
1070
     0
1070
    77
1070
     0
1070
   140
1040
3.0
1070
   141
1040
3.0
1070
   147
1040
1.0
1070
   172
1070
     1
1070
   173
1070
     1
1070
   176
1070
   256
1070
   177
1070
   256
1070
   178
1070
   256
1070
   271
1070
     0
1070
   272
1070
     0
1070
   341
1005
B2
1070
   343
1005
B2
1070
   344
1005
B2
1002
}
  0
DIMENSION
  5
4831
330
1A
100
AcDbEntity
  8
SUNPOU
100
AcDbDimension
  2
*D10
 10
273.5234583790257
 20
169.1880336934863
 30
0.0
 11
274.2523273663655
 21
172.8323786275019
 31
0.0
 70
    33
  3
STANDARD
100
AcDbAlignedDimension
 13
282.1123594329261
 23
180.7554214080627
 33
0.0
 14
284.9420860870712
 24
176.0392103167323
 34
0.0
1001
ACAD
1000
DSTYLE
1002
{
1070
    41
1040
3.0
1070
    42
1040
3.0
1070
    43
1040
7.0
1070
    44
1040
1.5
1070
    73
1070
     0
1070
    74
1070
     0
1070
    77
1070
     3
1070
   140
1040
3.0
1070
   141
1040
3.0
1070
   147
1040
1.0
1070
   172
1070
     1
1070
   173
1070
     1
1070
   176
1070
   256
1070
   177
1070
   256
1070
   178
1070
   256
1070
   271
1070
     0
1070
   272
1070
     0
1070
   341
1005
B2
1070
     6
1000
OPEN
1070
     7
1000
OPEN
1002
}
  0
DIMENSION
  5
4832
330
1A
100
AcDbEntity
  8
SUNPOU
100
AcDbDimension
  2
*D11
 10
305.68859357702
 20
230.8696267691651
 30
0.0
 11
287.68124215732
 21
222.9806918527677
 31
0.0
 70
    33
  3
STANDARD
100
AcDbAlignedDimension
 13
292.1021520099935
 23
177.7113215271247
 33
0.0
 14
325.5443760699936
 24
197.7766559871247
 34
0.0
1001
ACAD
1000
DSTYLE
1002
{
1070
    41
1040
3.0
1070
    42
1040
3.0
1070
    43
1040
7.0
1070
    44
1040
1.5
1070
    73
1070
     0
1070
    74
1070
     0
1070
    77
1070
     3
1070
   140
1040
3.0
1070
   141
1040
3.0
1070
   147
1040
1.0
1070
   172
1070
     1
1070
   173
1070
     1
1070
   176
1070
   256
1070
   177
1070
   256
1070
   178
1070
   256
1070
   271
1070
     0
1070
   272
1070
     0
1070
   341
1005
B2
1070
     6
1000
OPEN
1070
     7
1000
OPEN
1002
}
  0
DIMENSION
  5
4833
330
1A
100
AcDbEntity
  8
SUNPOU
100
AcDbDimension
  2
*D12
 10
302.5726676788991
 20
238.9783126260865
 30
0.0
 11
283.2790768549802
 21
230.3176340751577
 31
0.0
 70
    33
  3
STANDARD
100
AcDbAlignedDimension
 13
287.0343688211978
 23
183.2421508882233
 33
0.0
 14
323.0490716911978
 24
204.8509726182233
 34
0.0
1001
ACAD
1000
DSTYLE
1002
{
1070
    41
1040
3.0
1070
    42
1040
3.0
1070
    43
1040
7.0
1070
    44
1040
1.5
1070
    73
1070
     0
1070
    74
1070
     0
1070
    77
1070
     3
1070
   140
1040
3.0
1070
   141
1040
3.0
1070
   147
1040
1.0
1070
   172
1070
     1
1070
   173
1070
     1
1070
   176
1070
   256
1070
   177
1070
   256
1070
   178
1070
   256
1070
   271
1070
     0
1070
   272
1070
     0
1070
   341
1005
B2
1070
     6
1000
OPEN
1070
     7
1000
OPEN
1002
}
  0
TEXT
  5
4834
330
1A
100
AcDbEntity
  8
SUNPOU
100
AcDbText
 10
247.5328901964792
 20
200.6958043181859
 30
0.0
 40
3.0
  1
4-φ4.2
100
AcDbText
  0
LINE
  5
4835
330
1A
100
AcDbEntity
  8
SEIHIN
100
AcDbLine
 10
311.267118942959
 20
198.2482770976119
 30
0.0
 11
325.844498642959
 21
206.9947049376119
 31
0.0
  0
LINE
  5
4836
330
1A
100
AcDbEntity
  8
CENTER_L
100
AcDbLine
 10
323.0490716911978
 20
204.8509726182233
 30
0.0
 11
328.2969283947203
 21
196.1045447770004
 31
0.0
  0
ARC
  5
4837
330
1A
100
AcDbEntity
  8
SEIHIN
100
AcDbCircle
 10
299.183784892959
 20
203.8097873776119
 30
0.0
 40
3.000000003509581
100
AcDbArc
 50
30.96376350863518
 51
210.9637503088455
  0
LINE
  5
4838
330
1A
100
AcDbEntity
  8
SEIHIN
100
AcDbLine
 10
327.261093142959
 20
171.5916533176118
 30
0.0
 11
303.035186812959
 21
211.9681639076119
 31
0.0
  0
LINE
  5
4839
330
1A
100
AcDbEntity
  8
SEIHIN
100
AcDbLine
 10
326.403600242959
 20
171.0771575676119
 30
0.0
 11
302.177693892959
 21
211.4536681476118
 31
0.0
  0
LINE
  5
483A
330
1A
100
AcDbEntity
  8
SEIHIN
100
AcDbLine
 10
301.756263482959
 20
205.3532749576119
 30
0.0
 11
314.595351942959
 21
183.9547942076118
 31
0.0
  0
LINE
  5
483B
330
1A
100
AcDbEntity
  8
SEIHIN
100
AcDbLine
 10
314.398699242959
 20
163.8742169906119
 30
0.0
 11
290.172792932959
 21
204.2507275776118
 31
0.0
  0
LINE
  5
483C
330
1A
100
AcDbEntity
  8
SEIHIN
100
AcDbLine
 10
315.256192242959
 20
164.3887127466118
 30
0.0
 11
291.030285852959
 21
204.7652233276119
 31
0.0
  0
LINE
  5
483D
330
1A
100
AcDbEntity
  8
CENTER_L
100
AcDbLine
 10
293.0025196029518
 20
214.1118962173911
 30
0.0
 11
326.9592394468507
 21
157.5173631311635
 31
0.0
  0
LINE
  5
483E
330
1A
100
AcDbEntity
  8
SEIHIN
100
AcDbLine
 10
328.5884760429591
 20
206.3087105976119
 30
0.0
 11
345.052340142959
 21
178.8689369676118
 31
0.0
  0
DIMENSION
  5
483F
330
1A
100
AcDbEntity
  8
SUNPOU
100
AcDbDimension
  2
*D13
 10
346.4118004941582
 20
203.0084207343857
 30
0.0
 11
344.9540625406187
 21
210.2971105977603
 31
0.0
 70
    33
  3
STANDARD
100
AcDbAlignedDimension
 13
327.5594845249173
 23
208.0236964691398
 33
0.0
 14
334.762425065936
 24
196.0187955105668
 34
0.0
1001
ACAD
1000
DSTYLE
1002
{
1070
    41
1040
3.0
1070
    42
1040
3.0
1070
    43
1040
7.0
1070
    44
1040
1.5
1070
    73
1070
     0
1070
    74
1070
     0
1070
    77
1070
     3
1070
   140
1040
3.0
1070
   141
1040
3.0
1070
   147
1040
1.0
1070
   172
1070
     1
1070
   173
1070
     1
1070
   176
1070
   256
1070
   177
1070
   256
1070
   178
1070
   256
1070
   271
1070
     0
1070
   272
1070
     0
1070
   341
1005
B2
1070
     6
1000
OPEN
1070
     7
1000
OPEN
1002
}
  0
LINE
  5
4840
330
1A
100
AcDbEntity
  8
SEIHIN
100
AcDbLine
 10
314.611341342959
 20
192.6745730776119
 30
0.0
 11
317.593905942959
 21
194.4641118276118
 31
0.0
  0
LINE
  5
4841
330
1A
100
AcDbEntity
  8
SEIHIN
100
AcDbLine
 10
314.611341342959
 20
192.6745730776119
 30
0.0
 11
316.154828542959
 21
190.1020942976118
 31
0.0
  0
LINE
  5
4842
330
1A
100
AcDbEntity
  8
SEIHIN
100
AcDbLine
 10
312.0140933429591
 20
198.6964617676119
 30
0.0
 11
315.358315742959
 21
193.1227577476118
 31
0.0
  0
CIRCLE
  5
4843
330
1A
100
AcDbEntity
  8
SEIHIN
100
AcDbCircle
 10
314.096845542959
 20
178.9546862676119
 30
0.0
 40
3.000000000763261
  0
ARC
  5
4844
330
1A
100
AcDbEntity
  8
SEIHIN
100
AcDbCircle
 10
316.971178042959
 20
165.4177042566119
 30
0.0
 40
1.999999974757018
100
AcDbArc
 50
210.9637572690341
 51
300.963756271682
  0
LINE
  5
4845
330
1A
100
AcDbEntity
  8
SEIHIN
100
AcDbLine
 10
312.835375342959
 20
164.7866147806118
 30
0.0
 11
316.179597742959
 21
159.2129107635118
 31
0.0
  0
LINE
  5
4846
330
1A
100
AcDbEntity
  8
SEIHIN
100
AcDbLine
 10
313.582349842959
 20
165.2347994536119
 30
0.0
 11
316.9265722429591
 21
159.6610954360119
 31
0.0
  0
ARC
  5
4847
330
1A
100
AcDbEntity
  8
SEIHIN
100
AcDbCircle
 10
314.096845542959
 20
178.9546862676119
 30
0.0
 40
5.024896826847874
100
AcDbArc
 50
157.6210374072248
 51
84.3064754033603
  0
INSERT
  5
4848
330
1A
100
AcDbEntity
  8
SUNPOU
100
AcDbBlockReference
  2
_OPEN
 10
287.8209269364016
 20
179.5793278935686
 30
0.0
 41
2.999999999999992
 42
3.0
 43
3.0
 50
319.2548486777223
1001
ACAD
1000
DSTYLE
1002
{
1070
    41
1040
3.0
1070
    42
1040
3.0
1070
    43
1040
7.0
1070
    44
1040
1.5
1070
    73
1070
     0
1070
    74
1070
     0
1070
    77
1070
     0
1070
   140
1040
3.0
1070
   141
1040
3.0
1070
   147
1040
1.0
1070
   172
1070
     1
1070
   173
1070
     1
1070
   176
1070
   256
1070
   177
1070
   256
1070
   178
1070
   256
1070
   271
1070
     0
1070
   272
1070
     0
1070
   341
1005
B2
1070
   343
1005
B2
1070
   344
1005
B2
1002
}
  0
CIRCLE
  5
4849
330
1A
100
AcDbEntity
  8
SEIHIN
100
AcDbCircle
 10
289.658297172959
 20
178.8689369676118
 30
0.0
 40
2.09999999907906
  0
LINE
  5
484A
330
1A
100
AcDbEntity
  8
CENTER_L
100
AcDbLine
 10
287.0343688211978
 20
183.2421508882233
 30
0.0
 11
292.2822255247203
 21
174.4957230470004
 31
0.0
  0
ARC
  5
484B
330
1A
100
AcDbEntity
  8
SEIHIN
100
AcDbCircle
 10
284.856336792959
 20
180.0694270676119
 30
0.0
 40
1.999999998338071
100
AcDbArc
 50
120.963756532072
 51
210.9637565320762
  0
LINE
  5
484C
330
1A
100
AcDbEntity
  8
CENTER_L
100
AcDbLine
 10
285.2850832523476
 20
176.2450086158506
 30
0.0
 11
294.0315110935705
 21
181.4928653193731
 31
0.0
  0
LINE
  5
484D
330
1A
100
AcDbEntity
  8
SEIHIN
100
AcDbLine
 10
303.292434692959
 20
182.3846579676119
 30
0.0
 11
312.038862542959
 21
167.8072782306119
 31
0.0
  0
LINE
  5
484E
330
1A
100
AcDbEntity
  8
SEIHIN
100
AcDbLine
 10
302.545460242959
 20
181.9364732976118
 30
0.0
 11
311.291888042959
 21
167.3590935576119
 31
0.0
  0
LINE
  5
484F
330
1A
100
AcDbEntity
  8
CENTER_L
100
AcDbLine
 10
289.9584196934462
 20
169.1363922646463
 30
0.0
 11
300.6770812724719
 21
175.5675892105774
 31
0.0
  0
LINE
  5
4850
330
1A
100
AcDbEntity
  8
CENTER_L
100
AcDbLine
 10
292.1021520099935
 20
177.7113215271247
 30
0.0
 11
298.5333489559245
 21
166.992659948099
 31
0.0
  0
CIRCLE
  5
4851
330
1A
100
AcDbEntity
  8
SEIHIN
100
AcDbCircle
 10
295.317750482959
 20
172.3519907376119
 30
0.0
 40
3.250000004060681
  0
LINE
  5
4852
330
1A
100
AcDbEntity
  8
SEIHIN
100
AcDbLine
 10
310.599785242959
 20
163.4452607026119
 30
0.0
 11
314.439842742959
 21
165.7492952086118
 31
0.0
  0
LINE
  5
4853
330
1A
100
AcDbEntity
  8
SEIHIN
100
AcDbLine
 10
309.0562979429591
 20
166.0177394796119
 30
0.0
 11
312.038862542959
 21
167.8072782306119
 31
0.0
  0
LINE
  5
4854
330
1A
100
AcDbEntity
  8
SEIHIN
100
AcDbLine
 10
309.0562979429591
 20
166.0177394796119
 30
0.0
 11
310.599785242959
 21
163.4452607026119
 31
0.0
  0
LINE
  5
4855
330
1A
100
AcDbEntity
  8
SEIHIN
100
AcDbLine
 10
312.038862542959
 20
167.8072782306119
 30
0.0
 11
313.582349842959
 21
165.2347994536119
 31
0.0
  0
LINE
  5
4856
330
1A
100
AcDbEntity
  8
SEIHIN
100
AcDbLine
 10
298.766382842959
 20
183.1675979976118
 30
0.0
 11
300.309870112959
 21
180.5951192176119
 31
0.0
  0
LINE
  5
4857
330
1A
100
AcDbEntity
  8
SEIHIN
100
AcDbLine
 10
301.7489474329591
 20
184.9571367476119
 30
0.0
 11
298.766382842959
 21
183.1675979976118
 31
0.0
  0
LINE
  5
4858
330
1A
100
AcDbEntity
  8
SEIHIN
100
AcDbLine
 10
296.611305942959
 20
202.2663003876118
 30
0.0
 11
309.450394342959
 21
180.8678196776119
 31
0.0
  0
LINE
  5
4859
330
1A
100
AcDbEntity
  8
SEIHIN
100
AcDbLine
 10
298.404725022959
 20
190.5308407576118
 30
0.0
 11
301.7489474329591
 21
184.9571367476119
 31
0.0
  0
LINE
  5
485A
330
1A
100
AcDbEntity
  8
SEIHIN
100
AcDbLine
 10
297.657750562959
 20
190.0826560876119
 30
0.0
 11
301.001972972959
 21
184.5089520676119
 31
0.0
  0
LINE
  5
485B
330
1A
100
AcDbEntity
  8
SEIHIN
100
AcDbLine
 10
298.404725022959
 20
190.5308407576118
 30
0.0
 11
283.827345282959
 21
181.7844129176119
 31
0.0
  0
LINE
  5
485C
330
1A
100
AcDbEntity
  8
SEIHIN
100
AcDbLine
 10
293.6100808729591
 20
200.4655649676119
 30
0.0
 11
296.611306112959
 21
202.2663001076118
 31
0.0
  0
LINE
  5
485D
330
1A
100
AcDbEntity
  8
SEIHIN
100
AcDbLine
 10
294.0539230676078
 20
199.7258279784758
 30
0.0
 11
293.196430140739
 21
199.2113322225336
 31
0.0
  0
LINE
  5
485E
330
1A
100
AcDbEntity
  8
SEIHIN
100
AcDbLine
 10
301.7489474329591
 20
184.9571367476119
 30
0.0
 11
303.292434692959
 21
182.3846579676119
 31
0.0
  0
LINE
  5
485F
330
1A
100
AcDbEntity
  8
SEIHIN
100
AcDbLine
 10
303.292434692959
 20
182.3846579676119
 30
0.0
 11
300.309870112959
 21
180.5951192176119
 31
0.0
  0
LINE
  5
4860
330
1A
100
AcDbEntity
  8
SEIHIN
100
AcDbLine
 10
311.267118942959
 20
198.2482770976119
 30
0.0
 11
314.611341342959
 21
192.6745730776119
 31
0.0
  0
CIRCLE
  5
4861
330
1A
100
AcDbEntity
  8
SEIHIN
100
AcDbCircle
 10
338.535393942959
 20
179.0404355576118
 30
0.0
 40
2.099999993088218
  0
LINE
  5
4862
330
1A
100
AcDbEntity
  8
CENTER_L
100
AcDbLine
 10
335.9114655911977
 20
183.4136494782233
 30
0.0
 11
341.1593222947203
 21
174.6672216370004
 31
0.0
  0
LINE
  5
4863
330
1A
100
AcDbEntity
  8
SEIHIN
100
AcDbLine
 10
316.154828542959
 20
190.1020942976118
 30
0.0
 11
324.901256442959
 21
175.5247145576118
 31
0.0
  0
LINE
  5
4864
330
1A
100
AcDbEntity
  8
SEIHIN
100
AcDbLine
 10
316.901803042959
 20
190.5502789676119
 30
0.0
 11
325.648230842959
 21
175.9728992376119
 31
0.0
  0
LINE
  5
4865
330
1A
100
AcDbEntity
  8
CENTER_L
100
AcDbLine
 10
334.1621800223475
 20
176.4165072058506
 30
0.0
 11
342.9086078635705
 21
181.6643639093731
 31
0.0
  0
LINE
  5
4866
330
1A
100
AcDbEntity
  8
SEIHIN
100
AcDbLine
 10
344.366345842959
 20
176.1249596076119
 30
0.0
 11
323.357769142959
 21
163.5198136016118
 31
0.0
  0
LINE
  5
4867
330
1A
100
AcDbEntity
  8
SEIHIN
100
AcDbLine
 10
327.191718142959
 20
173.4004204576119
 30
0.0
 11
330.535940542959
 21
167.8267164396119
 31
0.0
  0
LINE
  5
4868
330
1A
100
AcDbEntity
  8
SEIHIN
100
AcDbLine
 10
326.444743642959
 20
172.9522357876119
 30
0.0
 11
329.788966142959
 21
167.3785317676118
 31
0.0
  0
ARC
  5
4869
330
1A
100
AcDbEntity
  8
SEIHIN
100
AcDbCircle
 10
324.688614342959
 20
170.0481660576118
 30
0.0
 40
2.000000044213948
100
AcDbArc
 50
300.9637586987388
 51
30.96375579511135
  0
LINE
  5
486A
330
1A
100
AcDbEntity
  8
SEIHIN
100
AcDbLine
 10
325.717605942959
 20
168.3331802046119
 30
0.0
 11
318.000169542959
 21
163.7027184056119
 31
0.0
  0
LINE
  5
486B
330
1A
100
AcDbEntity
  8
SEIHIN
100
AcDbLine
 10
329.427308242959
 20
174.7417745376118
 30
0.0
 11
325.587250742959
 21
172.4377400276118
 31
0.0
  0
LINE
  5
486C
330
1A
100
AcDbEntity
  8
SEIHIN
100
AcDbLine
 10
324.901256442959
 20
175.5247145576118
 30
0.0
 11
326.444743642959
 21
172.9522357876119
 31
0.0
  0
LINE
  5
486D
330
1A
100
AcDbEntity
  8
SEIHIN
100
AcDbLine
 10
327.8838210429591
 20
177.3142533076119
 30
0.0
 11
324.901256442959
 21
175.5247145576118
 31
0.0
  0
LINE
  5
486E
330
1A
100
AcDbEntity
  8
SEIHIN
100
AcDbLine
 10
327.8838210429591
 20
177.3142533076119
 30
0.0
 11
329.427308242959
 21
174.7417745376118
 31
0.0
  0
ARC
  5
486F
330
1A
100
AcDbEntity
  8
SEIHIN
100
AcDbCircle
 10
343.3373543429591
 20
177.8399454576119
 30
0.0
 40
1.999999974328267
100
AcDbArc
 50
300.9637562864189
 51
30.96375726903408
  0
CIRCLE
  5
4870
330
1A
100
AcDbEntity
  8
SEIHIN
100
AcDbCircle
 10
328.759974542959
 20
192.4173251976118
 30
0.0
 40
3.249999974956403
  0
LINE
  5
4871
330
1A
100
AcDbEntity
  8
CENTER_L
100
AcDbLine
 10
323.4006437534462
 20
189.2017267246463
 30
0.0
 11
334.1193053324719
 21
195.6329236705773
 31
0.0
  0
LINE
  5
4872
330
1A
100
AcDbEntity
  8
CENTER_L
100
AcDbLine
 10
325.5443760699936
 20
197.7766559871247
 30
0.0
 11
331.9755730159245
 21
187.057994408099
 31
0.0
  0
LINE
  5
4873
330
1A
100
AcDbEntity
  8
SEIHIN
100
AcDbLine
 10
316.154828542959
 20
190.1020942976118
 30
0.0
 11
319.137393142959
 21
191.8916330476118
 31
0.0
  0
LINE
  5
4874
330
1A
100
AcDbEntity
  8
CENTER_L
100
AcDbLine
 10
321.2997861223476
 20
197.8538303458506
 30
0.0
 11
330.0462139635705
 21
203.1016870493731
 31
0.0
  0
LINE
  5
4875
330
1A
100
AcDbEntity
  8
SEIHIN
100
AcDbLine
 10
317.593905942959
 20
194.4641118276118
 30
0.0
 11
319.137393142959
 21
191.8916330476118
 31
0.0
  0
INSERT
  5
4876
330
1A
100
AcDbEntity
  8
SUNPOU
100
AcDbBlockReference
  2
_OPEN
 10
330.042063548984
 20
195.4037524305855
 30
0.0
 41
2.999999999999981
 42
3.0
 43
3.0
 50
251.7065953267104
1001
ACAD
1000
DSTYLE
1002
{
1070
    41
1040
3.0
1070
    42
1040
3.0
1070
    43
1040
7.0
1070
    44
1040
1.5
1070
    73
1070
     0
1070
    74
1070
     0
1070
    77
1070
     0
1070
   140
1040
3.0
1070
   141
1040
3.0
1070
   147
1040
1.0
1070
   172
1070
     1
1070
   173
1070
     1
1070
   176
1070
   256
1070
   177
1070
   256
1070
   178
1070
   256
1070
   271
1070
     0
1070
   272
1070
     0
1070
   341
1005
B2
1070
   343
1005
B2
1070
   344
1005
B2
1002
}
  0
CIRCLE
  5
4877
330
1A
100
AcDbEntity
  8
SEIHIN
100
AcDbCircle
 10
325.673000042959
 20
200.4777586976118
 30
0.0
 40
2.099999996653719
  0
LINE
  5
4878
330
1A
100
AcDbEntity
  8
SEIHIN
100
AcDbLine
 10
290.172792932959
 20
204.2507275776118
 30
0.0
 11
291.030285852959
 21
204.7652233276119
 31
0.0
  0
LINE
  5
4879
330
1A
100
AcDbEntity
  8
SEIHIN
100
AcDbLine
 10
301.756263672959
 20
205.3532746476118
 30
0.0
 11
304.757488912959
 21
207.1540097876119
 31
0.0
  0
LINE
  5
487A
330
1A
100
AcDbEntity
  8
SEIHIN
100
AcDbLine
 10
306.0588240244768
 20
206.9287685500897
 30
0.0
 11
305.2013311032544
 21
206.4142727975354
 31
0.0
  0
LINE
  5
487B
330
1A
100
AcDbEntity
  8
SEIHIN
100
AcDbLine
 10
302.177693892959
 20
211.4536681476118
 30
0.0
 11
303.035186812959
 21
211.9681639076119
 31
0.0
  0
ARC
  5
487C
330
1A
100
AcDbEntity
  8
SEIHIN
100
AcDbCircle
 10
326.873490142959
 20
205.2797190876119
 30
0.0
 40
2.00000001720292
100
AcDbArc
 50
30.96375579511135
 51
120.9637562864191
  0
DIMENSION
  5
4AA9
330
1A
100
AcDbEntity
  8
SUNPOU
100
AcDbDimension
  2
*D14
 10
191.7731105872274
 20
157.9292251175024
 30
0.0
 11
187.7213367110932
 21
160.4292251175024
 31
0.0
 70
    32
  3
STANDARD
100
AcDbAlignedDimension
 13
183.669562834959
 23
100.5292088286118
 33
0.0
 14
191.7731105872274
 24
138.6323203890592
 34
0.0
100
AcDbRotatedDimension
1001
ACAD
1000
DSTYLE
1002
{
1070
    41
1040
3.0
1070
    42
1040
3.0
1070
    43
1040
7.0
1070
    44
1040
1.5
1070
    73
1070
     0
1070
    74
1070
     0
1070
    77
1070
     3
1070
   140
1040
3.0
1070
   141
1040
3.0
1070
   147
1040
1.0
1070
   172
1070
     1
1070
   173
1070
     1
1070
   176
1070
   256
1070
   177
1070
   256
1070
   178
1070
   256
1070
   271
1070
     0
1070
   272
1070
     0
1070
   341
1005
B2
1070
     6
1000
OPEN
1070
     7
1000
OPEN
1002
}
  0
DIMENSION
  5
4AB6
330
1A
100
AcDbEntity
  8
SUNPOU
100
AcDbDimension
  2
*D15
 10
39.78420018830954
 20
98.87989250761194
 30
0.0
 11
37.28420018830952
 21
106.8798925076119
 31
0.0
 70
    32
  3
STANDARD
100
AcDbAlignedDimension
 13
68.70666282981829
 23
97.00688570647727
 33
0.0
 14
215.624567319959
 24
98.87989250761188
 34
0.0
 50
90.0
100
AcDbRotatedDimension
1001
ACAD
1000
DSTYLE
1002
{
1070
    41
1040
3.0
1070
    42
1040
3.0
1070
    43
1040
7.0
1070
    44
1040
1.5
1070
    73
1070
     0
1070
    74
1070
     0
1070
    77
1070
     3
1070
   140
1040
3.0
1070
   141
1040
3.0
1070
   147
1040
1.0
1070
   172
1070
     1
1070
   173
1070
     1
1070
   176
1070
   256
1070
   177
1070
   256
1070
   178
1070
   256
1070
   271
1070
     0
1070
   272
1070
     0
1070
   341
1005
B2
1070
     6
1000
OPEN
1070
     7
1000
OPEN
1002
}
  0
LINE
  5
4B6C
330
1A
100
AcDbEntity
  8
SUNPOU
100
AcDbLine
 10
226.7662876133585
 20
70.31035868990672
 30
0.0
 11
226.7662876133585
 21
80.31035868990672
 31
0.0
  0
TEXT
  5
4B6D
330
1A
100
AcDbEntity
  8
SUNPOU
100
AcDbText
 10
228.4808167382156
 20
65.81437983470689
 30
0.0
 40
3.0
  1
6
100
AcDbText
  0
LINE
  5
4B6E
330
1A
100
AcDbEntity
  8
SUNPOU
100
AcDbLine
 10
232.7662876133585
 20
70.31035868990672
 30
0.0
 11
226.7662876133585
 21
70.31035868990672
 31
0.0
  0
TEXT
  5
4B6F
330
1A
100
AcDbEntity
  8
SUNPOU
100
AcDbText
 10
221.6734538092248
 20
72.74026252051239
 30
0.0
 40
3.0
  1
10
100
AcDbText
  0
LINE
  5
4B71
330
1A
100
AcDbEntity
  8
SUNPOU
100
AcDbLine
 10
215.624567319959
 20
98.87989250761188
 30
0.0
 11
232.7662876133585
 21
70.31035868990672
 31
0.0
  0
LINE
  5
4D58
330
1A
100
AcDbEntity
  8
ZUWAKU
100
AcDbLine
 10
104.3233009651347
 20
7.600000176923909
 30
0.0
 11
223.7121823055964
 21
7.600000176923906
 31
0.0
  0
LINE
  5
4D59
330
1A
100
AcDbEntity
  8
ZUWAKU
100
AcDbLine
 10
104.3233009651347
 20
7.800000176923907
 30
0.0
 11
223.7121823055964
 21
7.80000017692391
 31
0.0
  0
LINE
  5
4D5A
330
1A
100
AcDbEntity
  8
ZUWAKU
100
AcDbLine
 10
104.3233009651347
 20
7.700000176923907
 30
0.0
 11
223.7121823055964
 21
7.700000176923907
 31
0.0
  0
LINE
  5
4D5B
330
1A
100
AcDbEntity
  8
ZUWAKU
100
AcDbLine
 10
0.000000320100753
 20
15.40000017692389
 30
0.0
 11
398.7000003201007
 21
15.40000017692389
 31
0.0
  0
LINE
  5
4D5C
330
1A
100
AcDbEntity
  8
ZUWAKU
100
AcDbLine
 10
0.000000320100753
 20
15.30000017692389
 30
0.0
 11
398.7000003201007
 21
15.30000017692389
 31
0.0
  0
LINE
  5
4D5D
330
1A
100
AcDbEntity
  8
ZUWAKU
100
AcDbLine
 10
0.000000320100753
 20
15.20000017692389
 30
0.0
 11
398.7000003201007
 21
15.20000017692389
 31
0.0
  0
LINE
  5
4D5E
330
1A
100
AcDbEntity
  8
ZUWAKU
100
AcDbLine
 10
0.000000320100753
 20
15.10000017692389
 30
0.0
 11
398.7000003201007
 21
15.10000017692389
 31
0.0
  0
LINE
  5
4D5F
330
1A
100
AcDbEntity
  8
ZUWAKU
100
AcDbLine
 10
0.000000320100753
 20
15.00000017692389
 30
0.0
 11
398.7000003201007
 21
15.00000017692389
 31
0.0
  0
LWPOLYLINE
  5
4D60
330
1A
100
AcDbEntity
  8
ZUWAKU
100
AcDbPolyline
 90
        4
 70
     1
 43
0.0
 10
0.1000003201007189
 20
275.7000001769239
 10
0.1000003201007189
 20
0.1000001769239134
 10
398.7000003201007
 20
0.1000001769239249
 10
398.7000003201007
 20
275.7000001769239
  0
LWPOLYLINE
  5
4D61
330
1A
100
AcDbEntity
  8
ZUWAKU
100
AcDbPolyline
 90
        4
 70
     1
 43
0.0
 10
0.3000003201007075
 20
275.5000001769239
 10
0.3000003201007075
 20
0.300000176923902
 10
398.5000003201008
 20
0.3000001769239251
 10
398.5000003201007
 20
275.5000001769239
  0
LWPOLYLINE
  5
4D62
330
1A
100
AcDbEntity
  8
ZUWAKU
100
AcDbPolyline
 90
        4
 70
     1
 43
0.0
 10
0.000000320100753
 20
275.8000001769238
 10
0.000000320100753
 20
0.0000001769238906
 10
398.8000003201008
 20
0.0000001769239244
 10
398.8000003201008
 20
275.8000001769239
  0
LWPOLYLINE
  5
4D63
330
1A
100
AcDbEntity
  8
ZUWAKU
100
AcDbPolyline
 90
        4
 70
     1
 43
0.0
 10
0.2000003201007416
 20
275.6000001769239
 10
0.2000003201007416
 20
0.2000001769239361
 10
398.6000003201007
 20
0.2000001769239246
 10
398.6000003201007
 20
275.6000001769239
  0
LWPOLYLINE
  5
4D64
330
1A
100
AcDbEntity
  8
ZUWAKU
100
AcDbPolyline
 90
        4
 70
     1
 43
0.0
 10
0.4000003201007303
 20
275.4000001769239
 10
0.4000003201007303
 20
0.4000001769239248
 10
398.4000003201007
 20
0.4000001769239248
 10
398.4000003201007
 20
275.4000001769239
  0
TEXT
  5
4D65
330
1A
100
AcDbEntity
  8
MOJI
100
AcDbText
 10
46.47889511418532
 20
6.370589242061271
 30
0.0
 40
3.0
  1
新・丸トップＲＶ１０５
 41
0.9
  7
ｽﾀｲﾙ1
100
AcDbText
  0
HATCH
  5
4D66
330
1A
100
AcDbEntity
  8
ZUWAKU
100
AcDbHatch
 10
0.0
 20
0.0
 30
0.0
210
0.0
220
0.0
230
1.0
  2
ANSI37
 70
     0
 71
     0
 91
        8
 92
        7
 72
     1
 73
     1
 93
       24
 10
7.251131650660681
 20
8.822424417415682
 42
-0.1989123673796348
 10
7.046106397491314
 20
9.317399164246207
 42
0.0
 10
7.046106397491314
 20
9.962500176923896
 42
-0.4142135623730912
 10
7.308606397491303
 20
10.22500017692389
 42
0.0
 10
8.796106397491257
 20
10.22500017692389
 42
0.4142135623731546
 10
9.058606397491303
 20
10.48750017692388
 42
0.0
 10
9.058606397491303
 20
11.36250017692389
 42
0.4142135623731586
 10
8.796106397491257
 20
11.62500017692389
 42
0.0
 10
7.046106397491314
 20
11.62500017692389
 42
0.4142135623730928
 10
5.646106397491337
 20
10.2250001769239
 42
0.0
 10
5.646106397491337
 20
9.317399164246271
 42
0.1989123673796619
 10
6.261182156999552
 20
7.832474923754467
 42
0.0
 10
7.71608114432189
 20
6.377575936432139
 42
-0.1989123673796613
 10
7.921106397491314
 20
5.882601189601546
 42
0.0
 10
7.921106397491314
 20
5.237500176923887
 42
-0.4142135623730911
 10
7.658606397491325
 20
4.975000176923892
 42
0.0
 10
6.171106397491371
 20
4.975000176923892
 42
0.4142135623731526
 10
5.908606397491325
 20
4.712500176923898
 42
0.0
 10
5.908606397491325
 20
3.837500176923887
 42
0.4142135623731526
 10
6.171106397491371
 20
3.575000176923893
 42
0.0
 10
7.921106397491314
 20
3.575000176923893
 42
0.4142135623731044
 10
9.321106397491348
 20
4.975000176923881
 42
0.0
 10
9.321106397491348
 20
5.882601189601517
 42
0.1989123673796604
 10
8.706030637983076
 20
7.367525430093287
 42
0.0
 97
        0
 92
        7
 72
     1
 73
     1
 93
       16
 10
11.77110639749133
 20
9.525000176923896
 42
-0.4142135623730935
 10
12.47110639749132
 20
10.22500017692389
 42
0.0
 10
13.4336063974913
 20
10.22500017692389
 42
0.4142135623731546
 10
13.69610639749134
 20
10.48750017692388
 42
0.0
 10
13.69610639749134
 20
11.36250017692389
 42
0.4142135623730951
 10
13.43360639749135
 20
11.62500017692389
 42
0.0
 10
12.47110639749126
 20
11.62500017692387
 42
0.4142135623730892
 10
10.3711063974913
 20
9.52500017692386
 42
0.0
 10
10.3711063974913
 20
5.675000176923905
 42
0.4142135623730969
 10
12.47110639749132
 20
3.575000176923893
 42
0.0
 10
13.4336063974913
 20
3.575000176923893
 42
0.4142135623731526
 10
13.69610639749134
 20
3.837500176923887
 42
0.0
 10
13.69610639749134
 20
4.712500176923898
 42
0.4142135623730891
 10
13.43360639749135
 20
4.975000176923892
 42
0.0
 10
12.47110639749132
 20
4.975000176923892
 42
-0.4142135623730928
 10
11.77110639749133
 20
5.675000176923886
 42
0.0
 97
        0
 92
        7
 72
     1
 73
     1
 93
        2
 10
12.1211063974913
 20
7.600000176923892
 42
1.0
 10
13.8711063974913
 20
7.600000176923892
 42
1.0
 97
        0
 92
        7
 72
     1
 73
     1
 93
       26
 10
18.65742963858031
 20
9.602523773705605
 42
0.0
 10
19.18824945514922
 20
11.2834531928404
 42
0.5069206636600134
 10
18.93793400555153
 20
11.62500017692389
 42
0.0
 10
18.08848931574692
 20
11.62500017692389
 42
0.3272098845218764
 10
17.83817386614924
 20
11.44154716100737
 42
0.0
 10
16.90403892883336
 20
8.483453192840432
 42
-0.3272098845219541
 10
16.65372347923562
 20
8.300000176923891
 42
0.0
 10
16.58360639749139
 20
8.300000176923891
 42
-0.4142135623731526
 10
16.32110639749134
 20
8.562500176923885
 42
0.0
 10
16.32110639749134
 20
11.36250017692389
 42
0.4142135623730951
 10
16.05860639749136
 20
11.62500017692389
 42
0.0
 10
15.1836063974913
 20
11.62500017692389
 42
0.4142135623730871
 10
14.92110639749131
 20
11.3625001769239
 42
0.0
 10
14.92110639749131
 20
3.837500176923887
 42
0.4142135623730891
 10
15.1836063974913
 20
3.575000176923893
 42
0.0
 10
16.0586063974913
 20
3.575000176923893
 42
0.4142135623731526
 10
16.32110639749134
 20
3.837500176923887
 42
0.0
 10
16.32110639749134
 20
6.637500176923898
 42
-0.4142135623731526
 10
16.58360639749139
 20
6.900000176923892
 42
0.0
 10
16.65372347923567
 20
6.900000176923892
 42
-0.3272098845218915
 10
16.90403892883336
 20
6.716547161007355
 42
0.0
 10
17.83817386614924
 20
3.758453192840429
 42
0.3272098845218902
 10
18.08848931574692
 20
3.575000176923893
 42
0.0
 10
18.93793400555153
 20
3.575000176923893
 42
0.5069206636600335
 10
19.18824945514922
 20
3.916547161007397
 42
0.0
 10
18.02505376591239
 20
7.600000176923961
 42
0.0
 97
        0
 92
        7
 72
     1
 73
     1
 93
        8
 10
21.7461063974913
 20
11.36250017692389
 42
0.4142135623731546
 10
21.48360639749125
 20
11.62500017692389
 42
0.0
 10
20.60860639749137
 20
11.62500017692389
 42
0.4142135623731507
 10
20.34610639749132
 20
11.3625001769239
 42
0.0
 10
20.34610639749132
 20
3.837500176923887
 42
0.4142135623731526
 10
20.60860639749137
 20
3.575000176923893
 42
0.0
 10
21.48360639749125
 20
3.575000176923893
 42
0.4142135623731526
 10
21.7461063974913
 20
3.837500176923887
 42
0.0
 97
        0
 92
        7
 72
     1
 73
     1
 93
       24
 10
24.19610639749135
 20
9.962500176923896
 42
-0.4142135623731546
 10
24.45860639749139
 20
10.22500017692389
 42
0.0
 10
25.94610639749134
 20
10.22500017692389
 42
0.4142135623730911
 10
26.20860639749134
 20
10.48750017692388
 42
0.0
 10
26.20860639749134
 20
11.36250017692389
 42
0.4142135623730952
 10
25.94610639749134
 20
11.62500017692389
 42
0.0
 10
24.19610639749135
 20
11.62500017692389
 42
0.4142135623731048
 10
22.79610639749131
 20
10.2250001769239
 42
0.0
 10
22.79610639749131
 20
9.317399164246271
 42
0.1989123673796613
 10
23.41118215699958
 20
7.832474923754496
 42
0.0
 10
24.86608114432192
 20
6.377575936432162
 42
-0.1989123673796402
 10
25.07110639749134
 20
5.882601189601626
 42
0.0
 10
25.07110639749134
 20
5.237500176923887
 42
-0.4142135623730911
 10
24.80860639749136
 20
4.975000176923892
 42
0.0
 10
23.32110639749135
 20
4.975000176923892
 42
0.4142135623731526
 10
23.0586063974913
 20
4.712500176923898
 42
0.0
 10
23.0586063974913
 20
3.837500176923887
 42
0.4142135623730891
 10
23.32110639749129
 20
3.575000176923893
 42
0.0
 10
25.07110639749134
 20
3.575000176923893
 42
0.4142135623730925
 10
26.47110639749132
 20
4.975000176923881
 42
0.0
 10
26.47110639749132
 20
5.882601189601517
 42
0.1989123673796675
 10
25.85603063798305
 20
7.367525430093344
 42
0.0
 10
24.40113165066077
 20
8.822424417415602
 42
-0.1989123673796652
 10
24.19610639749135
 20
9.317399164246186
 42
0.0
 97
        0
 92
        7
 72
     1
 73
     1
 93
       16
 10
28.92110639749131
 20
11.36250017692388
 42
0.414213562373103
 10
28.65860639749132
 20
11.62500017692389
 42
0.0
 10
27.78360639749132
 20
11.62500017692389
 42
0.4142135623730871
 10
27.52110639749133
 20
11.3625001769239
 42
0.0
 10
27.52110639749133
 20
4.975000176923881
 42
0.4142135623730926
 10
28.92110639749131
 20
3.575000176923893
 42
0.0
 10
30.67110639749131
 20
3.575000176923893
 42
0.4142135623731044
 10
32.07110639749135
 20
4.975000176923881
 42
0.0
 10
32.07110639749135
 20
11.36250017692389
 42
0.4142135623730951
 10
31.80860639749136
 20
11.62500017692389
 42
0.0
 10
30.9336063974913
 20
11.62500017692389
 42
0.4142135623730871
 10
30.67110639749131
 20
11.3625001769239
 42
0.0
 10
30.67110639749131
 20
5.500000176923879
 42
-0.414213562373088
 10
30.14610639749133
 20
4.975000176923892
 42
0.0
 10
29.44610639749134
 20
4.975000176923892
 42
-0.4142135623731197
 10
28.92110639749131
 20
5.500000176923879
 42
0.0
 97
        0
 92
        7
 72
     1
 73
     1
 93
        8
 10
34.52110639749133
 20
11.3625001769239
 42
0.4142135623730871
 10
34.25860639749135
 20
11.62500017692389
 42
0.0
 10
33.38360639749135
 20
11.62500017692389
 42
0.4142135623731507
 10
33.1211063974913
 20
11.3625001769239
 42
0.0
 10
33.1211063974913
 20
3.837500176923887
 42
0.4142135623730891
 10
33.38360639749129
 20
3.575000176923893
 42
0.0
 10
34.25860639749135
 20
3.575000176923893
 42
0.4142135623730891
 10
34.52110639749133
 20
3.837500176923887
 42
0.0
 97
        0
 75
     0
 76
     1
 52
0.0
 41
0.1
 77
     0
 78
     2
 53
45.0
 43
-450.4711518472387
 44
-6.599999823076075
 45
-0.2245064030267288
 46
0.2245064030267288
 79
     0
 53
135.0
 43
-450.4711518472387
 44
-6.599999823076075
 45
-0.2245064030267288
 46
-0.2245064030267288
 79
     0
 47
0.057451373970553
 98
        8
 10
8.039927801612407
 20
7.583586999866668
 10
11.20225782332033
 20
9.422031268149396
 10
12.58218426293058
 20
7.75594099995925
 10
15.45703031091932
 20
8.100649000144642
 10
20.91923632957912
 20
8.33045513391545
 10
23.44910076766552
 20
9.709288335127496
 10
28.27884330630093
 20
9.364579134471398
 10
33.91354012991212
 20
9.594385268242206
  0
LINE
  5
4D67
330
1A
100
AcDbEntity
  8
ZUWAKU
100
AcDbLine
 10
12.47110639749132
 20
11.62500017692387
 30
0.0
 11
13.4336063974913
 21
11.62500017692389
 31
0.0
  0
LINE
  5
4D68
330
1A
100
AcDbEntity
  8
ZUWAKU
100
AcDbLine
 10
13.4336063974913
 20
10.22500017692389
 30
0.0
 11
12.47110639749132
 21
10.22500017692389
 31
0.0
  0
LINE
  5
4D69
330
1A
100
AcDbEntity
  8
ZUWAKU
100
AcDbLine
 10
12.47110639749132
 20
4.975000176923892
 30
0.0
 11
13.4336063974913
 21
4.975000176923892
 31
0.0
  0
LINE
  5
4D6A
330
1A
100
AcDbEntity
  8
ZUWAKU
100
AcDbLine
 10
13.4336063974913
 20
3.575000176923893
 30
0.0
 11
12.47110639749132
 21
3.575000176923893
 31
0.0
  0
CIRCLE
  5
4D6B
330
1A
100
AcDbEntity
  8
ZUWAKU
100
AcDbCircle
 10
12.9961063974913
 20
7.600000176923892
 30
0.0
 40
0.875
  0
ARC
  5
4D6C
330
1A
100
AcDbEntity
  8
ZUWAKU
100
AcDbCircle
 10
7.746106397491303
 20
9.317399164246243
 30
0.0
 40
0.7
100
AcDbArc
 50
180.0000000000016
 51
224.9999999999988
  0
LINE
  5
4D6D
330
1A
100
AcDbEntity
  8
ZUWAKU
100
AcDbLine
 10
11.77110639749133
 20
9.525000176923892
 30
0.0
 11
11.77110639749133
 21
5.675000176923894
 31
0.0
  0
LINE
  5
4D6E
330
1A
100
AcDbEntity
  8
ZUWAKU
100
AcDbLine
 10
10.3711063974913
 20
5.675000176923894
 30
0.0
 11
10.3711063974913
 21
9.525000176923871
 31
0.0
  0
ARC
  5
4D6F
330
1A
100
AcDbEntity
  8
ZUWAKU
100
AcDbCircle
 10
7.746106397491303
 20
9.317399164246243
 30
0.0
 40
2.099999999999999
100
AcDbArc
 50
180.0
 51
225.0
  0
ARC
  5
4D70
330
1A
100
AcDbEntity
  8
ZUWAKU
100
AcDbCircle
 10
7.921106397491314
 20
4.975000176923892
 30
0.0
 40
1.399999999999999
100
AcDbArc
 50
270.0
 51
0.0
  0
ARC
  5
4D71
330
1A
100
AcDbEntity
  8
ZUWAKU
100
AcDbCircle
 10
12.47110639749132
 20
5.675000176923894
 30
0.0
 40
2.099999999999999
100
AcDbArc
 50
180.0
 51
270.0
  0
ARC
  5
4D72
330
1A
100
AcDbEntity
  8
ZUWAKU
100
AcDbCircle
 10
7.221106397491325
 20
5.882601189601544
 30
0.0
 40
2.099999999999999
100
AcDbArc
 50
0.0
 51
45.0
  0
LINE
  5
4D73
330
1A
100
AcDbEntity
  8
ZUWAKU
100
AcDbLine
 10
8.706030637983076
 20
7.367525430093305
 30
0.0
 11
7.251131650660738
 21
8.822424417415643
 31
0.0
  0
LINE
  5
4D74
330
1A
100
AcDbEntity
  8
ZUWAKU
100
AcDbLine
 10
7.921106397491314
 20
5.237500176923894
 30
0.0
 11
7.921106397491314
 21
5.882601189601565
 31
0.0
  0
ARC
  5
4D75
330
1A
100
AcDbEntity
  8
ZUWAKU
100
AcDbCircle
 10
7.658606397491325
 20
5.237500176923894
 30
0.0
 40
0.2625
100
AcDbArc
 50
270.0
 51
0.0
  0
ARC
  5
4D76
330
1A
100
AcDbEntity
  8
ZUWAKU
100
AcDbCircle
 10
7.221106397491325
 20
5.882601189601565
 30
0.0
 40
0.7
100
AcDbArc
 50
0.0
 51
45.0
  0
LINE
  5
4D77
330
1A
100
AcDbEntity
  8
ZUWAKU
100
AcDbLine
 10
5.908606397491325
 20
3.837500176923892
 30
0.0
 11
5.908606397491325
 21
4.712500176923892
 31
0.0
  0
ARC
  5
4D78
330
1A
100
AcDbEntity
  8
ZUWAKU
100
AcDbCircle
 10
6.171106397491314
 20
3.837500176923892
 30
0.0
 40
0.2625
100
AcDbArc
 50
180.0
 51
270.0
  0
ARC
  5
4D79
330
1A
100
AcDbEntity
  8
ZUWAKU
100
AcDbCircle
 10
6.171106397491314
 20
4.712500176923892
 30
0.0
 40
0.2625
100
AcDbArc
 50
90.0
 51
180.0
  0
LINE
  5
4D7A
330
1A
100
AcDbEntity
  8
ZUWAKU
100
AcDbLine
 10
6.171106397491314
 20
3.575000176923893
 30
0.0
 11
7.921106397491314
 21
3.575000176923893
 31
0.0
  0
LINE
  5
4D7B
330
1A
100
AcDbEntity
  8
ZUWAKU
100
AcDbLine
 10
6.171106397491314
 20
4.975000176923892
 30
0.0
 11
7.658606397491325
 21
4.975000176923892
 31
0.0
  0
LINE
  5
4D7C
330
1A
100
AcDbEntity
  8
ZUWAKU
100
AcDbLine
 10
6.261182156999552
 20
7.832474923754482
 30
0.0
 11
7.71608114432189
 21
6.377575936432151
 31
0.0
  0
LINE
  5
4D7D
330
1A
100
AcDbEntity
  8
ZUWAKU
100
AcDbLine
 10
9.321106397491348
 20
4.975000176923892
 30
0.0
 11
9.321106397491348
 21
5.882601189601565
 31
0.0
  0
ARC
  5
4D7E
330
1A
100
AcDbEntity
  8
ZUWAKU
100
AcDbCircle
 10
12.47110639749132
 20
5.675000176923894
 30
0.0
 40
0.7
100
AcDbArc
 50
180.0
 51
270.0
  0
ARC
  5
4D7F
330
1A
100
AcDbEntity
  8
ZUWAKU
100
AcDbCircle
 10
8.796106397491314
 20
11.36250017692389
 30
0.0
 40
0.2625
100
AcDbArc
 50
0.0
 51
90.0
  0
ARC
  5
4D80
330
1A
100
AcDbEntity
  8
ZUWAKU
100
AcDbCircle
 10
8.796106397491314
 20
10.48750017692389
 30
0.0
 40
0.2625
100
AcDbArc
 50
270.0
 51
0.0
  0
LINE
  5
4D81
330
1A
100
AcDbEntity
  8
ZUWAKU
100
AcDbLine
 10
7.046106397491314
 20
11.62500017692389
 30
0.0
 11
8.796106397491314
 21
11.62500017692389
 31
0.0
  0
ARC
  5
4D82
330
1A
100
AcDbEntity
  8
ZUWAKU
100
AcDbCircle
 10
7.308606397491303
 20
9.962500176923892
 30
0.0
 40
0.2625
100
AcDbArc
 50
90.0
 51
180.0
  0
LINE
  5
4D83
330
1A
100
AcDbEntity
  8
ZUWAKU
100
AcDbLine
 10
7.046106397491314
 20
9.962500176923892
 30
0.0
 11
7.046106397491314
 21
9.317399164246221
 31
0.0
  0
LINE
  5
4D84
330
1A
100
AcDbEntity
  8
ZUWAKU
100
AcDbLine
 10
8.796106397491314
 20
10.22500017692389
 30
0.0
 11
7.308606397491303
 21
10.22500017692389
 31
0.0
  0
LINE
  5
4D85
330
1A
100
AcDbEntity
  8
ZUWAKU
100
AcDbLine
 10
5.646106397491337
 20
10.22500017692389
 30
0.0
 11
5.646106397491337
 21
9.317399164246221
 31
0.0
  0
ARC
  5
4D86
330
1A
100
AcDbEntity
  8
ZUWAKU
100
AcDbCircle
 10
7.046106397491314
 20
10.22500017692389
 30
0.0
 40
1.399999999999999
100
AcDbArc
 50
90.0
 51
180.0
  0
LINE
  5
4D87
330
1A
100
AcDbEntity
  8
ZUWAKU
100
AcDbLine
 10
9.058606397491303
 20
11.36250017692389
 30
0.0
 11
9.058606397491303
 21
10.48750017692389
 31
0.0
  0
ARC
  5
4D88
330
1A
100
AcDbEntity
  8
ZUWAKU
100
AcDbCircle
 10
12.47110639749132
 20
9.525000176923892
 30
0.0
 40
0.7
100
AcDbArc
 50
90.0
 51
180.0
  0
ARC
  5
4D89
330
1A
100
AcDbEntity
  8
ZUWAKU
100
AcDbCircle
 10
12.47110639749132
 20
9.525000176923871
 30
0.0
 40
2.099999999999999
100
AcDbArc
 50
90.0
 51
180.0
  0
LINE
  5
4D8A
330
1A
100
AcDbEntity
  8
ZUWAKU
100
AcDbLine
 10
39.66331509409485
 20
15.00000017692389
 30
0.0
 11
39.66331509409497
 21
0.4000001769239248
 31
0.0
  0
LINE
  5
4D8B
330
1A
100
AcDbEntity
  8
ZUWAKU
100
AcDbLine
 10
39.76331509409487
 20
15.00000017692389
 30
0.0
 11
39.76331509409499
 21
0.4000001769239248
 31
0.0
  0
LINE
  5
4D8C
330
1A
100
AcDbEntity
  8
ZUWAKU
100
AcDbLine
 10
39.56331509409494
 20
15.00000017692389
 30
0.0
 11
39.56331509409494
 21
0.4000001769239248
 31
0.0
  0
LINE
  5
4D8D
330
1A
100
AcDbEntity
  8
ZUWAKU
100
AcDbLine
 10
32.07110639749135
 20
4.975000176923892
 30
0.0
 11
32.07110639749135
 21
11.36250017692389
 31
0.0
  0
LINE
  5
4D8E
330
1A
100
AcDbEntity
  8
ZUWAKU
100
AcDbLine
 10
30.67110639749131
 20
11.36250017692389
 30
0.0
 11
30.67110639749131
 21
5.50000017692389
 31
0.0
  0
LINE
  5
4D8F
330
1A
100
AcDbEntity
  8
ZUWAKU
100
AcDbLine
 10
34.52110639749133
 20
3.837500176923892
 30
0.0
 11
34.52110639749133
 21
11.36250017692389
 31
0.0
  0
LINE
  5
4D90
330
1A
100
AcDbEntity
  8
ZUWAKU
100
AcDbLine
 10
33.1211063974913
 20
11.36250017692389
 30
0.0
 11
33.1211063974913
 21
3.837500176923892
 31
0.0
  0
ARC
  5
4D91
330
1A
100
AcDbEntity
  8
ZUWAKU
100
AcDbCircle
 10
24.89610639749133
 20
9.317399164246243
 30
0.0
 40
0.7
100
AcDbArc
 50
180.0000000000016
 51
224.9999999999988
  0
ARC
  5
4D92
330
1A
100
AcDbEntity
  8
ZUWAKU
100
AcDbCircle
 10
24.89610639749133
 20
9.317399164246243
 30
0.0
 40
2.099999999999999
100
AcDbArc
 50
180.0
 51
225.0
  0
LINE
  5
4D93
330
1A
100
AcDbEntity
  8
ZUWAKU
100
AcDbLine
 10
18.65742963858031
 20
9.602523773705605
 30
0.0
 11
18.02505376591239
 21
7.600000176923902
 31
0.0
  0
LINE
  5
4D94
330
1A
100
AcDbEntity
  8
ZUWAKU
100
AcDbLine
 10
20.34610639749132
 20
11.36250017692389
 30
0.0
 11
20.34610639749132
 21
3.837500176923892
 31
0.0
  0
LINE
  5
4D95
330
1A
100
AcDbEntity
  8
ZUWAKU
100
AcDbLine
 10
21.7461063974913
 20
3.837500176923892
 30
0.0
 11
21.7461063974913
 21
11.36250017692389
 31
0.0
  0
LINE
  5
4D96
330
1A
100
AcDbEntity
  8
ZUWAKU
100
AcDbLine
 10
27.52110639749133
 20
11.36250017692389
 30
0.0
 11
27.52110639749133
 21
4.975000176923892
 31
0.0
  0
LINE
  5
4D97
330
1A
100
AcDbEntity
  8
ZUWAKU
100
AcDbLine
 10
28.92110639749131
 20
5.50000017692389
 30
0.0
 11
28.92110639749131
 21
11.36250017692389
 31
0.0
  0
LINE
  5
4D98
330
1A
100
AcDbEntity
  8
ZUWAKU
100
AcDbLine
 10
16.32110639749134
 20
8.562500176923894
 30
0.0
 11
16.32110639749134
 21
11.36250017692389
 31
0.0
  0
LINE
  5
4D99
330
1A
100
AcDbEntity
  8
ZUWAKU
100
AcDbLine
 10
14.92110639749131
 20
11.36250017692389
 30
0.0
 11
14.92110639749131
 21
3.837500176923892
 31
0.0
  0
LINE
  5
4D9A
330
1A
100
AcDbEntity
  8
ZUWAKU
100
AcDbLine
 10
17.83817386614924
 20
11.44154716100737
 30
0.0
 11
16.90403892883336
 21
8.483453192840407
 31
0.0
  0
LINE
  5
4D9B
330
1A
100
AcDbEntity
  8
ZUWAKU
100
AcDbLine
 10
30.14610639749133
 20
4.975000176923892
 30
0.0
 11
29.44610639749134
 21
4.975000176923892
 31
0.0
  0
LINE
  5
4D9C
330
1A
100
AcDbEntity
  8
ZUWAKU
100
AcDbLine
 10
28.92110639749131
 20
3.575000176923893
 30
0.0
 11
30.67110639749131
 21
3.575000176923893
 31
0.0
  0
LINE
  5
4D9D
330
1A
100
AcDbEntity
  8
ZUWAKU
100
AcDbLine
 10
20.60860639749131
 20
3.575000176923893
 30
0.0
 11
21.48360639749131
 21
3.575000176923893
 31
0.0
  0
LINE
  5
4D9E
330
1A
100
AcDbEntity
  8
ZUWAKU
100
AcDbLine
 10
17.83817386614924
 20
3.758453192840406
 30
0.0
 11
16.90403892883336
 21
6.716547161007376
 31
0.0
  0
ARC
  5
4D9F
330
1A
100
AcDbEntity
  8
ZUWAKU
100
AcDbCircle
 10
16.65372347923567
 20
8.562500176923894
 30
0.0
 40
0.2625
100
AcDbArc
 50
270.0
 51
342.4744316262769
  0
LINE
  5
4DA0
330
1A
100
AcDbEntity
  8
ZUWAKU
100
AcDbLine
 10
16.65372347923567
 20
8.300000176923891
 30
0.0
 11
16.58360639749133
 21
8.300000176923891
 31
0.0
  0
LINE
  5
4DA1
330
1A
100
AcDbEntity
  8
ZUWAKU
100
AcDbLine
 10
16.58360639749133
 20
6.900000176923892
 30
0.0
 11
16.65372347923567
 21
6.900000176923892
 31
0.0
  0
ARC
  5
4DA2
330
1A
100
AcDbEntity
  8
ZUWAKU
100
AcDbCircle
 10
16.58360639749133
 20
8.562500176923894
 30
0.0
 40
0.2625
100
AcDbArc
 50
180.0
 51
270.0
  0
LINE
  5
4DA3
330
1A
100
AcDbEntity
  8
ZUWAKU
100
AcDbLine
 10
15.1836063974913
 20
3.575000176923893
 30
0.0
 11
16.0586063974913
 21
3.575000176923893
 31
0.0
  0
ARC
  5
4DA4
330
1A
100
AcDbEntity
  8
ZUWAKU
100
AcDbCircle
 10
16.0586063974913
 20
3.837500176923892
 30
0.0
 40
0.2625
100
AcDbArc
 50
270.0
 51
0.0
  0
LINE
  5
4DA5
330
1A
100
AcDbEntity
  8
ZUWAKU
100
AcDbLine
 10
16.32110639749134
 20
3.837500176923892
 30
0.0
 11
16.32110639749134
 21
6.637500176923893
 31
0.0
  0
LINE
  5
4DA6
330
1A
100
AcDbEntity
  8
ZUWAKU
100
AcDbLine
 10
13.69610639749134
 20
4.712500176923892
 30
0.0
 11
13.69610639749134
 21
3.837500176923892
 31
0.0
  0
ARC
  5
4DA7
330
1A
100
AcDbEntity
  8
ZUWAKU
100
AcDbCircle
 10
13.4336063974913
 20
3.837500176923892
 30
0.0
 40
0.2625
100
AcDbArc
 50
270.0
 51
0.0
  0
ARC
  5
4DA8
330
1A
100
AcDbEntity
  8
ZUWAKU
100
AcDbCircle
 10
13.4336063974913
 20
4.712500176923892
 30
0.0
 40
0.2625
100
AcDbArc
 50
0.0
 51
90.0
  0
ARC
  5
4DA9
330
1A
100
AcDbEntity
  8
ZUWAKU
100
AcDbCircle
 10
15.1836063974913
 20
3.837500176923892
 30
0.0
 40
0.2625
100
AcDbArc
 50
180.0
 51
270.0
  0
ARC
  5
4DAA
330
1A
100
AcDbEntity
  8
ZUWAKU
100
AcDbCircle
 10
16.65372347923567
 20
6.637500176923893
 30
0.0
 40
0.2625
100
AcDbArc
 50
17.52556837372303
 51
90.0
  0
ARC
  5
4DAB
330
1A
100
AcDbEntity
  8
ZUWAKU
100
AcDbCircle
 10
16.58360639749133
 20
6.637500176923893
 30
0.0
 40
0.2625
100
AcDbArc
 50
90.0
 51
180.0
  0
ARC
  5
4DAC
330
1A
100
AcDbEntity
  8
ZUWAKU
100
AcDbCircle
 10
20.60860639749131
 20
3.837500176923892
 30
0.0
 40
0.2625
100
AcDbArc
 50
180.0
 51
270.0
  0
LINE
  5
4DAD
330
1A
100
AcDbEntity
  8
ZUWAKU
100
AcDbLine
 10
18.08848931574698
 20
3.575000176923893
 30
0.0
 11
18.93793400555148
 21
3.575000176923893
 31
0.0
  0
ARC
  5
4DAE
330
1A
100
AcDbEntity
  8
ZUWAKU
100
AcDbCircle
 10
18.93793400555148
 20
3.837500176923892
 30
0.0
 40
0.2625
100
AcDbArc
 50
270.0
 51
17.52556837372303
  0
LINE
  5
4DAF
330
1A
100
AcDbEntity
  8
ZUWAKU
100
AcDbLine
 10
19.18824945514922
 20
3.916547161007379
 30
0.0
 11
18.02505376591239
 21
7.600000176923902
 31
0.0
  0
ARC
  5
4DB0
330
1A
100
AcDbEntity
  8
ZUWAKU
100
AcDbCircle
 10
18.08848931574698
 20
3.837500176923892
 30
0.0
 40
0.2625
100
AcDbArc
 50
197.525568373723
 51
270.0
  0
ARC
  5
4DB1
330
1A
100
AcDbEntity
  8
ZUWAKU
100
AcDbCircle
 10
28.92110639749131
 20
4.975000176923892
 30
0.0
 40
1.399999999999999
100
AcDbArc
 50
180.0
 51
270.0
  0
ARC
  5
4DB2
330
1A
100
AcDbEntity
  8
ZUWAKU
100
AcDbCircle
 10
25.07110639749134
 20
4.975000176923892
 30
0.0
 40
1.399999999999999
100
AcDbArc
 50
270.0
 51
0.0
  0
LINE
  5
4DB3
330
1A
100
AcDbEntity
  8
ZUWAKU
100
AcDbLine
 10
25.85603063798311
 20
7.367525430093305
 30
0.0
 11
24.40113165066071
 21
8.822424417415643
 31
0.0
  0
LINE
  5
4DB4
330
1A
100
AcDbEntity
  8
ZUWAKU
100
AcDbLine
 10
25.07110639749134
 20
5.237500176923894
 30
0.0
 11
25.07110639749134
 21
5.882601189601565
 31
0.0
  0
ARC
  5
4DB5
330
1A
100
AcDbEntity
  8
ZUWAKU
100
AcDbCircle
 10
24.3711063974913
 20
5.882601189601565
 30
0.0
 40
0.7
100
AcDbArc
 50
0.0
 51
45.0
  0
ARC
  5
4DB6
330
1A
100
AcDbEntity
  8
ZUWAKU
100
AcDbCircle
 10
24.8086063974913
 20
5.237500176923894
 30
0.0
 40
0.2625
100
AcDbArc
 50
270.0
 51
0.0
  0
LINE
  5
4DB7
330
1A
100
AcDbEntity
  8
ZUWAKU
100
AcDbLine
 10
23.0586063974913
 20
3.837500176923892
 30
0.0
 11
23.0586063974913
 21
4.712500176923892
 31
0.0
  0
ARC
  5
4DB8
330
1A
100
AcDbEntity
  8
ZUWAKU
100
AcDbCircle
 10
23.32110639749135
 20
3.837500176923892
 30
0.0
 40
0.2625
100
AcDbArc
 50
180.0
 51
270.0
  0
ARC
  5
4DB9
330
1A
100
AcDbEntity
  8
ZUWAKU
100
AcDbCircle
 10
21.48360639749131
 20
3.837500176923892
 30
0.0
 40
0.2625
100
AcDbArc
 50
270.0
 51
0.0
  0
ARC
  5
4DBA
330
1A
100
AcDbEntity
  8
ZUWAKU
100
AcDbCircle
 10
23.32110639749135
 20
4.712500176923892
 30
0.0
 40
0.2625
100
AcDbArc
 50
90.0
 51
180.0
  0
LINE
  5
4DBB
330
1A
100
AcDbEntity
  8
ZUWAKU
100
AcDbLine
 10
23.32110639749135
 20
4.975000176923892
 30
0.0
 11
24.8086063974913
 21
4.975000176923892
 31
0.0
  0
LINE
  5
4DBC
330
1A
100
AcDbEntity
  8
ZUWAKU
100
AcDbLine
 10
23.32110639749135
 20
3.575000176923893
 30
0.0
 11
25.07110639749134
 21
3.575000176923893
 31
0.0
  0
LINE
  5
4DBD
330
1A
100
AcDbEntity
  8
ZUWAKU
100
AcDbLine
 10
23.41118215699958
 20
7.832474923754482
 30
0.0
 11
24.86608114432192
 21
6.377575936432151
 31
0.0
  0
LINE
  5
4DBE
330
1A
100
AcDbEntity
  8
ZUWAKU
100
AcDbLine
 10
26.47110639749132
 20
4.975000176923892
 30
0.0
 11
26.47110639749132
 21
5.882601189601565
 31
0.0
  0
ARC
  5
4DBF
330
1A
100
AcDbEntity
  8
ZUWAKU
100
AcDbCircle
 10
24.3711063974913
 20
5.882601189601544
 30
0.0
 40
2.099999999999999
100
AcDbArc
 50
0.0
 51
45.0
  0
ARC
  5
4DC0
330
1A
100
AcDbEntity
  8
ZUWAKU
100
AcDbCircle
 10
29.44610639749134
 20
5.50000017692389
 30
0.0
 40
0.525
100
AcDbArc
 50
180.0
 51
270.0
  0
ARC
  5
4DC1
330
1A
100
AcDbEntity
  8
ZUWAKU
100
AcDbCircle
 10
30.67110639749131
 20
4.975000176923892
 30
0.0
 40
1.399999999999999
100
AcDbArc
 50
270.0
 51
0.0
  0
LINE
  5
4DC2
330
1A
100
AcDbEntity
  8
ZUWAKU
100
AcDbLine
 10
33.38360639749135
 20
3.575000176923893
 30
0.0
 11
34.25860639749135
 21
3.575000176923893
 31
0.0
  0
ARC
  5
4DC3
330
1A
100
AcDbEntity
  8
ZUWAKU
100
AcDbCircle
 10
33.38360639749135
 20
3.837500176923892
 30
0.0
 40
0.2625
100
AcDbArc
 50
180.0
 51
270.0
  0
ARC
  5
4DC4
330
1A
100
AcDbEntity
  8
ZUWAKU
100
AcDbCircle
 10
30.14610639749133
 20
5.50000017692389
 30
0.0
 40
0.525
100
AcDbArc
 50
270.0
 51
0.0
  0
ARC
  5
4DC5
330
1A
100
AcDbEntity
  8
ZUWAKU
100
AcDbCircle
 10
34.25860639749135
 20
3.837500176923892
 30
0.0
 40
0.2625
100
AcDbArc
 50
270.0
 51
0.0
  0
LINE
  5
4DC6
330
1A
100
AcDbEntity
  8
ZUWAKU
100
AcDbLine
 10
21.48360639749131
 20
11.62500017692389
 30
0.0
 11
20.60860639749131
 21
11.62500017692389
 31
0.0
  0
ARC
  5
4DC7
330
1A
100
AcDbEntity
  8
ZUWAKU
100
AcDbCircle
 10
16.0586063974913
 20
11.36250017692389
 30
0.0
 40
0.2625
100
AcDbArc
 50
0.0
 51
90.0
  0
LINE
  5
4DC8
330
1A
100
AcDbEntity
  8
ZUWAKU
100
AcDbLine
 10
16.0586063974913
 20
11.62500017692389
 30
0.0
 11
15.1836063974913
 21
11.62500017692389
 31
0.0
  0
ARC
  5
4DC9
330
1A
100
AcDbEntity
  8
ZUWAKU
100
AcDbCircle
 10
13.4336063974913
 20
11.36250017692389
 30
0.0
 40
0.2625
100
AcDbArc
 50
0.0
 51
90.0
  0
ARC
  5
4DCA
330
1A
100
AcDbEntity
  8
ZUWAKU
100
AcDbCircle
 10
15.1836063974913
 20
11.36250017692389
 30
0.0
 40
0.2625
100
AcDbArc
 50
90.0
 51
180.0
  0
ARC
  5
4DCB
330
1A
100
AcDbEntity
  8
ZUWAKU
100
AcDbCircle
 10
13.4336063974913
 20
10.48750017692389
 30
0.0
 40
0.2625
100
AcDbArc
 50
270.0
 51
0.0
  0
LINE
  5
4DCC
330
1A
100
AcDbEntity
  8
ZUWAKU
100
AcDbLine
 10
13.69610639749134
 20
11.36250017692389
 30
0.0
 11
13.69610639749134
 21
10.48750017692389
 31
0.0
  0
ARC
  5
4DCD
330
1A
100
AcDbEntity
  8
ZUWAKU
100
AcDbCircle
 10
20.60860639749131
 20
11.36250017692389
 30
0.0
 40
0.2625
100
AcDbArc
 50
90.0
 51
180.0
  0
LINE
  5
4DCE
330
1A
100
AcDbEntity
  8
ZUWAKU
100
AcDbLine
 10
18.08848931574698
 20
11.62500017692389
 30
0.0
 11
18.93793400555148
 21
11.62500017692389
 31
0.0
  0
ARC
  5
4DCF
330
1A
100
AcDbEntity
  8
ZUWAKU
100
AcDbCircle
 10
18.93793400555148
 20
11.36250017692389
 30
0.0
 40
0.2625
100
AcDbArc
 50
342.4744316262769
 51
90.0
  0
LINE
  5
4DD0
330
1A
100
AcDbEntity
  8
ZUWAKU
100
AcDbLine
 10
19.18824945514922
 20
11.2834531928404
 30
0.0
 11
18.65742963858031
 21
9.602523773705605
 31
0.0
  0
ARC
  5
4DD1
330
1A
100
AcDbEntity
  8
ZUWAKU
100
AcDbCircle
 10
18.08848931574698
 20
11.36250017692389
 30
0.0
 40
0.2625
100
AcDbArc
 50
90.0
 51
162.4744316262769
  0
LINE
  5
4DD2
330
1A
100
AcDbEntity
  8
ZUWAKU
100
AcDbLine
 10
24.19610639749135
 20
11.62500017692389
 30
0.0
 11
25.94610639749134
 21
11.62500017692389
 31
0.0
  0
LINE
  5
4DD3
330
1A
100
AcDbEntity
  8
ZUWAKU
100
AcDbLine
 10
25.94610639749134
 20
10.22500017692389
 30
0.0
 11
24.45860639749133
 21
10.22500017692389
 31
0.0
  0
ARC
  5
4DD4
330
1A
100
AcDbEntity
  8
ZUWAKU
100
AcDbCircle
 10
24.45860639749133
 20
9.962500176923892
 30
0.0
 40
0.2625
100
AcDbArc
 50
90.0
 51
180.0
  0
LINE
  5
4DD5
330
1A
100
AcDbEntity
  8
ZUWAKU
100
AcDbLine
 10
24.19610639749135
 20
9.962500176923892
 30
0.0
 11
24.19610639749135
 21
9.317399164246221
 31
0.0
  0
ARC
  5
4DD6
330
1A
100
AcDbEntity
  8
ZUWAKU
100
AcDbCircle
 10
21.48360639749131
 20
11.36250017692389
 30
0.0
 40
0.2625
100
AcDbArc
 50
0.0
 51
90.0
  0
LINE
  5
4DD7
330
1A
100
AcDbEntity
  8
ZUWAKU
100
AcDbLine
 10
22.79610639749131
 20
10.22500017692389
 30
0.0
 11
22.79610639749131
 21
9.317399164246221
 31
0.0
  0
ARC
  5
4DD8
330
1A
100
AcDbEntity
  8
ZUWAKU
100
AcDbCircle
 10
24.19610639749135
 20
10.22500017692389
 30
0.0
 40
1.399999999999999
100
AcDbArc
 50
90.0
 51
180.0
  0
ARC
  5
4DD9
330
1A
100
AcDbEntity
  8
ZUWAKU
100
AcDbCircle
 10
28.65860639749132
 20
11.36250017692389
 30
0.0
 40
0.2625
100
AcDbArc
 50
0.0
 51
90.0
  0
ARC
  5
4DDA
330
1A
100
AcDbEntity
  8
ZUWAKU
100
AcDbCircle
 10
27.78360639749132
 20
11.36250017692389
 30
0.0
 40
0.2625
100
AcDbArc
 50
90.0
 51
180.0
  0
LINE
  5
4DDB
330
1A
100
AcDbEntity
  8
ZUWAKU
100
AcDbLine
 10
28.65860639749132
 20
11.62500017692389
 30
0.0
 11
27.78360639749132
 21
11.62500017692389
 31
0.0
  0
ARC
  5
4DDC
330
1A
100
AcDbEntity
  8
ZUWAKU
100
AcDbCircle
 10
25.94610639749134
 20
11.36250017692389
 30
0.0
 40
0.2625
100
AcDbArc
 50
0.0
 51
90.0
  0
ARC
  5
4DDD
330
1A
100
AcDbEntity
  8
ZUWAKU
100
AcDbCircle
 10
25.94610639749134
 20
10.48750017692389
 30
0.0
 40
0.2625
100
AcDbArc
 50
270.0
 51
0.0
  0
LINE
  5
4DDE
330
1A
100
AcDbEntity
  8
ZUWAKU
100
AcDbLine
 10
26.20860639749134
 20
11.36250017692389
 30
0.0
 11
26.20860639749134
 21
10.48750017692389
 31
0.0
  0
LINE
  5
4DDF
330
1A
100
AcDbEntity
  8
ZUWAKU
100
AcDbLine
 10
34.25860639749135
 20
11.62500017692389
 30
0.0
 11
33.38360639749135
 21
11.62500017692389
 31
0.0
  0
ARC
  5
4DE0
330
1A
100
AcDbEntity
  8
ZUWAKU
100
AcDbCircle
 10
33.38360639749135
 20
11.36250017692389
 30
0.0
 40
0.2625
100
AcDbArc
 50
90.0
 51
180.0
  0
ARC
  5
4DE1
330
1A
100
AcDbEntity
  8
ZUWAKU
100
AcDbCircle
 10
31.8086063974913
 20
11.36250017692389
 30
0.0
 40
0.2625
100
AcDbArc
 50
0.0
 51
90.0
  0
LINE
  5
4DE2
330
1A
100
AcDbEntity
  8
ZUWAKU
100
AcDbLine
 10
31.8086063974913
 20
11.62500017692389
 30
0.0
 11
30.9336063974913
 21
11.62500017692389
 31
0.0
  0
ARC
  5
4DE3
330
1A
100
AcDbEntity
  8
ZUWAKU
100
AcDbCircle
 10
30.9336063974913
 20
11.36250017692389
 30
0.0
 40
0.2625
100
AcDbArc
 50
90.0
 51
180.0
  0
ARC
  5
4DE4
330
1A
100
AcDbEntity
  8
ZUWAKU
100
AcDbCircle
 10
34.25860639749135
 20
11.36250017692389
 30
0.0
 40
0.2625
100
AcDbArc
 50
0.0
 51
90.0
  0
TEXT
  5
4DE5
330
1A
100
AcDbEntity
  8
MOJI
100
AcDbText
 10
119.9136016605262
 20
9.002460705627584
 30
0.0
 40
2.799999999999999
  1
ブラケット正面打（吊）ワンタッチ自在式
 41
0.9
  7
ｽﾀｲﾙ1
100
AcDbText
  0
TEXT
  5
4DE6
330
1A
100
AcDbEntity
  8
MOJI
100
AcDbText
 10
119.9136016605262
 20
1.602460705627601
 30
0.0
 40
2.799999999999999
  1
ＲＶ１０５－６－１０～４５
 41
0.9
  7
ｽﾀｲﾙ1
100
AcDbText
  0
LINE
  5
4DE7
330
1A
100
AcDbEntity
  8
ZUWAKU
100
AcDbLine
 10
104.1233009651347
 20
15.00000017692389
 30
0.0
 11
104.1233009651347
 21
0.4000001769239248
 31
0.0
  0
LINE
  5
4DE8
330
1A
100
AcDbEntity
  8
ZUWAKU
100
AcDbLine
 10
104.3233009651346
 20
15.00000017692389
 30
0.0
 11
104.3233009651347
 21
0.4000001769239248
 31
0.0
  0
LINE
  5
4DE9
330
1A
100
AcDbEntity
  8
ZUWAKU
100
AcDbLine
 10
104.2233009651346
 20
15.00000017692389
 30
0.0
 11
104.2233009651347
 21
0.4000001769239248
 31
0.0
  0
TEXT
  5
4DEA
330
1A
100
AcDbEntity
  8
ZUWAKU
100
AcDbText
 10
104.8620234762395
 20
4.827678446116699
 30
0.0
 40
2.0
  1
サイズ
 41
0.9
  7
ｽﾀｲﾙ1
100
AcDbText
  0
TEXT
  5
4DEB
330
1A
100
AcDbEntity
  8
ZUWAKU
100
AcDbText
 10
104.8620234762394
 20
12.02767844611668
 30
0.0
 40
2.0
  1
品名
 41
0.9
  7
ｽﾀｲﾙ1
100
AcDbText
  0
LINE
  5
4DEC
330
1A
100
AcDbEntity
  8
ZUWAKU
100
AcDbLine
 10
324.4086015752028
 20
7.600000176923906
 30
0.0
 11
348.6245055943713
 21
7.600000176923908
 31
0.0
  0
LINE
  5
4DED
330
1A
100
AcDbEntity
  8
ZUWAKU
100
AcDbLine
 10
324.4086015752029
 20
7.700000176923909
 30
0.0
 11
348.6245055943713
 21
7.700000176923907
 31
0.0
  0
LINE
  5
4DEE
330
1A
100
AcDbEntity
  8
ZUWAKU
100
AcDbLine
 10
324.4086015752028
 20
7.800000176923907
 30
0.0
 11
348.6245055943713
 21
7.800000176923907
 31
0.0
  0
TEXT
  5
4DEF
330
1A
100
AcDbEntity
  8
ZUWAKU
100
AcDbText
 10
329.1019691637519
 20
9.002460705627584
 30
0.0
 40
2.799999999999999
  1
　　．　　．　　
 41
0.9
  7
ｽﾀｲﾙ1
100
AcDbText
  0
LINE
  5
4DF0
330
1A
100
AcDbEntity
  8
ZUWAKU
100
AcDbLine
 10
252.5995900691711
 20
7.600000176923909
 30
0.0
 11
276.2634782031569
 21
7.600000176923909
 31
0.0
  0
LINE
  5
4DF1
330
1A
100
AcDbEntity
  8
ZUWAKU
100
AcDbLine
 10
252.5995900691711
 20
7.700000176923907
 30
0.0
 11
276.2634782031569
 21
7.700000176923907
 31
0.0
  0
LINE
  5
4DF2
330
1A
100
AcDbEntity
  8
ZUWAKU
100
AcDbLine
 10
252.5995900691711
 20
7.800000176923907
 30
0.0
 11
276.2634782031569
 21
7.800000176923907
 31
0.0
  0
TEXT
  5
4DF3
330
1A
100
AcDbEntity
  8
MOJI
100
AcDbText
 10
231.283639481095
 20
5.971309037753883
 30
0.0
 40
2.799999999999999
  1
ＬＫ１４Ｔ
 41
0.9
  7
ｽﾀｲﾙ1
100
AcDbText
  0
LINE
  5
4DF4
330
1A
100
AcDbEntity
  8
ZUWAKU
100
AcDbLine
 10
223.8121823055963
 20
15.00000017692389
 30
0.0
 11
223.8121823055964
 21
0.4000001769239248
 31
0.0
  0
LINE
  5
4DF5
330
1A
100
AcDbEntity
  8
ZUWAKU
100
AcDbLine
 10
223.9121823055963
 20
15.00000017692389
 30
0.0
 11
223.9121823055965
 21
0.4000001769239248
 31
0.0
  0
LINE
  5
4DF6
330
1A
100
AcDbEntity
  8
ZUWAKU
100
AcDbLine
 10
223.7121823055964
 20
15.00000017692389
 30
0.0
 11
223.7121823055964
 21
0.4000001769239248
 31
0.0
  0
TEXT
  5
4DF7
330
1A
100
AcDbEntity
  8
MOJI
100
AcDbText
 10
264.0204543062572
 20
9.002460705627584
 30
0.0
 40
2.799999999999999
  1
Ａ３
 41
0.9
  7
ｽﾀｲﾙ1
100
AcDbText
  0
LINE
  5
4DF8
330
1A
100
AcDbEntity
  8
ZUWAKU
100
AcDbLine
 10
252.4995900691711
 20
15.00000017692389
 30
0.0
 11
252.4995900691712
 21
0.4000001769239248
 31
0.0
  0
LINE
  5
4DF9
330
1A
100
AcDbEntity
  8
ZUWAKU
100
AcDbLine
 10
252.5995900691711
 20
15.00000017692389
 30
0.0
 11
252.5995900691713
 21
0.4000001769239248
 31
0.0
  0
LINE
  5
4DFA
330
1A
100
AcDbEntity
  8
ZUWAKU
100
AcDbLine
 10
252.3995900691712
 20
15.00000017692389
 30
0.0
 11
252.3995900691712
 21
0.4000001769239248
 31
0.0
  0
TEXT
  5
4DFB
330
1A
100
AcDbEntity
  8
ZUWAKU
100
AcDbText
 10
253.3383125802761
 20
4.827678446116699
 30
0.0
 40
2.0
  1
縮尺
 41
0.9
  7
ｽﾀｲﾙ1
100
AcDbText
  0
TEXT
  5
4DFC
330
1A
100
AcDbEntity
  8
MOJI
100
AcDbText
 10
264.0204543062572
 20
1.602460705627601
 30
0.0
 40
2.799999999999999
  1
１/１
 41
0.9
  7
ｽﾀｲﾙ1
100
AcDbText
  0
TEXT
  5
4DFD
330
1A
100
AcDbEntity
  8
ZUWAKU
100
AcDbText
 10
224.6509048167012
 20
12.02767844611668
 30
0.0
 40
2.0
  1
品番
 41
0.9
  7
ｽﾀｲﾙ1
100
AcDbText
  0
TEXT
  5
4DFE
330
1A
100
AcDbEntity
  8
ZUWAKU
100
AcDbText
 10
253.338312580276
 20
12.02767844611668
 30
0.0
 40
2.0
  1
用紙
 41
0.9
  7
ｽﾀｲﾙ1
100
AcDbText
  0
LINE
  5
4DFF
330
1A
100
AcDbEntity
  8
ZUWAKU
100
AcDbLine
 10
324.3086015752029
 20
15.00000017692389
 30
0.0
 11
324.308601575203
 21
0.4000001769239248
 31
0.0
  0
LINE
  5
4E00
330
1A
100
AcDbEntity
  8
ZUWAKU
100
AcDbLine
 10
324.4086015752029
 20
15.00000017692389
 30
0.0
 11
324.4086015752031
 21
0.4000001769239248
 31
0.0
  0
LINE
  5
4E01
330
1A
100
AcDbEntity
  8
ZUWAKU
100
AcDbLine
 10
324.208601575203
 20
15.00000017692389
 30
0.0
 11
324.208601575203
 21
0.4000001769239248
 31
0.0
  0
LINE
  5
4E02
330
1A
100
AcDbEntity
  8
ZUWAKU
100
AcDbLine
 10
276.3634782031568
 20
15.00000017692389
 30
0.0
 11
276.3634782031569
 21
0.4000001769239248
 31
0.0
  0
LINE
  5
4E03
330
1A
100
AcDbEntity
  8
ZUWAKU
100
AcDbLine
 10
276.4634782031569
 20
15.00000017692389
 30
0.0
 11
276.463478203157
 21
0.4000001769239248
 31
0.0
  0
LINE
  5
4E04
330
1A
100
AcDbEntity
  8
ZUWAKU
100
AcDbLine
 10
276.2634782031569
 20
15.00000017692389
 30
0.0
 11
276.2634782031569
 21
0.4000001769239248
 31
0.0
  0
TEXT
  5
4E05
330
1A
100
AcDbEntity
  8
ZUWAKU
100
AcDbText
 10
325.1473240863077
 20
12.02767844611668
 30
0.0
 40
2.0
  1
DATE
 41
0.9
  7
ｽﾀｲﾙ1
100
AcDbText
  0
LINE
  5
4E06
330
1A
100
AcDbEntity
  8
ZUWAKU
100
AcDbLine
 10
348.6245055943713
 20
15.00000017692389
 30
0.0
 11
348.6245055943713
 21
0.4000001769239248
 31
0.0
  0
LINE
  5
4E07
330
1A
100
AcDbEntity
  8
ZUWAKU
100
AcDbLine
 10
348.7245055943714
 20
15.00000017692389
 30
0.0
 11
348.7245055943714
 21
0.4000001769239248
 31
0.0
  0
LINE
  5
4E08
330
1A
100
AcDbEntity
  8
ZUWAKU
100
AcDbLine
 10
348.8245055943713
 20
15.00000017692389
 30
0.0
 11
348.8245055943714
 21
0.4000001769239248
 31
0.0
  0
LINE
  5
4E09
330
1A
100
AcDbEntity
  8
ZUWAKU
100
AcDbLine
 10
348.9245055943713
 20
15.00000017692389
 30
0.0
 11
348.9245055943714
 21
0.4000001769239248
 31
0.0
  0
TEXT
  5
4E0A
330
1A
100
AcDbEntity
  8
ZUWAKU
100
AcDbText
 10
354.2640424162226
 20
8.776919844767292
 30
0.0
 40
3.0
  1
積水化学工業株式会社
 41
0.9
  7
ｽﾀｲﾙ1
100
AcDbText
  0
TEXT
  5
4E0B
330
1A
100
AcDbEntity
  8
ZUWAKU
100
AcDbText
 10
354.2640424162226
 20
3.324420333850923
 30
0.0
 40
3.0
  1
建材事業部
 41
0.9
  7
ｽﾀｲﾙ1
100
AcDbText
  0
VIEWPORT
  5
22
330
17
100
AcDbEntity
 67
     1
  8
0
100
AcDbViewport
 10
313.6808219178082
 20
148.5
 30
0.0
 40
627.3616438356165
 41
297.0
 68
     2
 69
     1
1001
ACAD
1000
MVIEW
1002
{
1070
    16
1010
0.0
1020
0.0
1030
0.0
1010
0.0
1020
0.0
1030
1.0
1040
0.0
1040
297.0
1040
313.6808219178082
1040
148.5
1040
50.0
1040
0.0
1040
0.0
1070
     0
1070
   100
1070
     1
1070
     0
1070
     0
1070
     0
1070
     0
1070
     0
1040
0.0
1040
0.0
1040
0.0
1040
1.0
1040
1.0
1040
10.0
1040
10.0
1070
     0
1002
{
1002
}
1002
}
  0
VIEWPORT
  5
64
330
17
100
AcDbEntity
 67
     1
  8
VIEWPORT
100
AcDbViewport
 10
210.0
 20
148.5
 30
0.0
 40
420.0
 41
297.0
 68
     1
 69
     2
1001
ACAD
1000
MVIEW
1002
{
1070
    16
1010
0.0
1020
0.0
1030
0.0
1010
0.0
1020
0.0
1030
1.0
1040
0.0
1040
302.9399999999998
1040
210.0
1040
148.5
1040
50.0
1040
0.0
1040
0.0
1070
     0
1070
   100
1070
     1
1070
     0
1070
     0
1070
     0
1070
     0
1070
     0
1040
0.0
1040
0.0
1040
0.0
1040
5.0
1040
5.0
1040
0.0
1040
0.0
1070
     0
1002
{
1002
}
1002
}
  0
ENDSEC
  0
SECTION
  2
OBJECTS
  0
DICTIONARY
  5
C
330
0
100
AcDbDictionary
  3
ACAD_GROUP
350
D
  3
ACAD_LAYOUT
350
141
  3
ACAD_MLINESTYLE
350
E
  3
ACAD_PLOTSETTINGS
350
142
  3
ACAD_PLOTSTYLENAME
350
13F
  3
ACDBHEADERROUNDTRIPXREC
350
4EA0
  0
DICTIONARY
  5
73C
330
1A
100
AcDbDictionary
280
     1
  3
ACAD_LAYOUTSELFREF
360
4EC2
  0
DICTIONARY
  5
73A
330
17
100
AcDbDictionary
280
     1
  3
ACAD_LAYOUTSELFREF
360
4EC1
  0
DICTIONARY
  5
D
102
{ACAD_REACTORS
330
C
102
}
330
C
100
AcDbDictionary
  0
DICTIONARY
  5
141
102
{ACAD_REACTORS
330
C
102
}
330
C
100
AcDbDictionary
  0
DICTIONARY
  5
E
102
{ACAD_REACTORS
330
C
102
}
330
C
100
AcDbDictionary
  3
STANDARD
350
13
  0
DICTIONARY
  5
142
102
{ACAD_REACTORS
330
C
102
}
330
C
100
AcDbDictionary
  0
ACDBDICTIONARYWDFLT
  5
13F
102
{ACAD_REACTORS
330
C
102
}
330
C
100
AcDbDictionary
281
     1
  3
Normal
350
140
100
AcDbDictionaryWithDefault
340
140
1001
ACAD
1000
TREAT_AS_HARD
1070
     0
1000
TREAT_AS_HARD
1070
     0
1000
TREAT_AS_HARD
1070
     0
1000
TREAT_AS_HARD
1070
     0
1000
TREAT_AS_HARD
1070
     0
1000
TREAT_AS_HARD
1070
     0
1000
TREAT_AS_HARD
1070
     0
1000
TREAT_AS_HARD
1070
     0
1000
TREAT_AS_HARD
1070
     0
1000
TREAT_AS_HARD
1070
     0
1000
TREAT_AS_HARD
1070
     0
1000
TREAT_AS_HARD
1070
     0
1000
TREAT_AS_HARD
1070
     0
  0
DICTIONARY
  5
4EA0
102
{ACAD_REACTORS
330
C
102
}
330
C
100
AcDbDictionary
  3
TSTACKALIGN
350
4EA1
  3
TSTACKSIZE
350
4EA2
  3
HYPERLINKBASE
350
4EA3
  3
STYLESHEET
350
4EA4
  3
LAYOUTDICT
350
4EA5
  3
PLOTSETDICT
350
4EA6
  3
PLOTSTYLNAMDICT
350
4EA7
  3
LWETCUNION
350
4EA8
  3
INSUNITS
350
4EA9
  3
CEPSNTYPE
350
4EAA
  3
FINGERPRINTGUID
350
4EAB
  3
VERSIONGUID
350
4EAC
  3
PSVPSCALE
350
4EAD
  3
DIMSTYLEDATA
350
4EAE
  3
PUCSORTHOREF
350
4EAF
  3
PUCSORTHOVIEW
350
4EB0
  3
PUCSBASE
350
4EB1
  3
PUCSORGTOP
350
4EB2
  3
PUCSORGBOTTOM
350
4EB3
  3
PUCSORGLEFT
350
4EB4
  3
PUCSORGRIGHT
350
4EB5
  3
PUCSORGFRONT
350
4EB6
  3
PUCSORGBACK
350
4EB7
  3
UCSORTHOREF
350
4EB8
  3
UCSORTHOVIEW
350
4EB9
  3
UCSBASE
350
4EBA
  3
UCSORGTOP
350
4EBB
  3
UCSORGBOTTOM
350
4EBC
  3
UCSORGLEFT
350
4EBD
  3
UCSORGRIGHT
350
4EBE
  3
UCSORGFRONT
350
4EBF
  3
UCSORGBACK
350
4EC0
  0
XRECORD
  5
4EC2
102
{ACAD_REACTORS
330
73C
102
}
330
73C
100
AcDbXrecord
340
1A
  0
XRECORD
  5
4EC1
102
{ACAD_REACTORS
330
73A
102
}
330
73A
100
AcDbXrecord
340
17
  0
MLINESTYLE
  5
13
102
{ACAD_REACTORS
330
E
102
}
330
E
100
AcDbMlineStyle
  2
STANDARD
 70
     0
  3

 62
     0
 51
90.0
 52
90.0
 71
     2
 49
0.5
 62
   256
  6
BYLAYER
 49
-0.5
 62
   256
  6
BYLAYER
  0
ACDBPLACEHOLDER
  5
140
102
{ACAD_REACTORS
330
13F
102
}
330
13F
100
AcDbPlaceHolder
280
     0
  0
XRECORD
  5
4EA1
102
{ACAD_REACTORS
330
4EA0
102
}
330
4EA0
100
AcDbXrecord
 90
        1
  0
XRECORD
  5
4EA2
102
{ACAD_REACTORS
330
4EA0
102
}
330
4EA0
100
AcDbXrecord
 90
       70
  0
XRECORD
  5
4EA3
102
{ACAD_REACTORS
330
4EA0
102
}
330
4EA0
100
AcDbXrecord
  1

  0
XRECORD
  5
4EA4
102
{ACAD_REACTORS
330
4EA0
102
}
330
4EA0
100
AcDbXrecord
  1
systemprinter.ctb
  0
XRECORD
  5
4EA5
102
{ACAD_REACTORS
330
4EA0
102
}
330
4EA0
100
AcDbXrecord
340
141
  0
XRECORD
  5
4EA6
102
{ACAD_REACTORS
330
4EA0
102
}
330
4EA0
100
AcDbXrecord
340
142
  0
XRECORD
  5
4EA7
102
{ACAD_REACTORS
330
4EA0
102
}
330
4EA0
100
AcDbXrecord
340
13F
  0
XRECORD
  5
4EA8
102
{ACAD_REACTORS
330
4EA0
102
}
330
4EA0
100
AcDbXrecord
 90
    10781
  0
XRECORD
  5
4EA9
102
{ACAD_REACTORS
330
4EA0
102
}
330
4EA0
100
AcDbXrecord
 90
        0
  0
XRECORD
  5
4EAA
102
{ACAD_REACTORS
330
4EA0
102
}
330
4EA0
100
AcDbXrecord
 90
        0
  0
XRECORD
  5
4EAB
102
{ACAD_REACTORS
330
4EA0
102
}
330
4EA0
100
AcDbXrecord
  1
{4E8D0500-CDD1-11D3-932C-444553540000}
  0
XRECORD
  5
4EAC
102
{ACAD_REACTORS
330
4EA0
102
}
330
4EA0
100
AcDbXrecord
  1
{F306A561-88F1-4ACF-AD89-34243C812F4B}
  0
XRECORD
  5
4EAD
102
{ACAD_REACTORS
330
4EA0
102
}
330
4EA0
100
AcDbXrecord
 40
0.0
  0
XRECORD
  5
4EAE
102
{ACAD_REACTORS
330
4EA0
102
}
330
4EA0
100
AcDbXrecord
1000
DSTYLE
1002
{
1070
   341
340
B2
1070
   343
340
B2
1070
   344
340
B2
1070
   371
 70
    -1
1070
   372
 70
    -1
1002
}
  0
XRECORD
  5
4EAF
102
{ACAD_REACTORS
330
4EA0
102
}
330
4EA0
100
AcDbXrecord
340
0
  0
XRECORD
  5
4EB0
102
{ACAD_REACTORS
330
4EA0
102
}
330
4EA0
100
AcDbXrecord
 70
     0
  0
XRECORD
  5
4EB1
102
{ACAD_REACTORS
330
4EA0
102
}
330
4EA0
100
AcDbXrecord
340
0
  0
XRECORD
  5
4EB2
102
{ACAD_REACTORS
330
4EA0
102
}
330
4EA0
100
AcDbXrecord
 10
0.0
 20
0.0
 30
0.0
  0
XRECORD
  5
4EB3
102
{ACAD_REACTORS
330
4EA0
102
}
330
4EA0
100
AcDbXrecord
 10
0.0
 20
0.0
 30
0.0
  0
XRECORD
  5
4EB4
102
{ACAD_REACTORS
330
4EA0
102
}
330
4EA0
100
AcDbXrecord
 10
0.0
 20
0.0
 30
0.0
  0
XRECORD
  5
4EB5
102
{ACAD_REACTORS
330
4EA0
102
}
330
4EA0
100
AcDbXrecord
 10
0.0
 20
0.0
 30
0.0
  0
XRECORD
  5
4EB6
102
{ACAD_REACTORS
330
4EA0
102
}
330
4EA0
100
AcDbXrecord
 10
0.0
 20
0.0
 30
0.0
  0
XRECORD
  5
4EB7
102
{ACAD_REACTORS
330
4EA0
102
}
330
4EA0
100
AcDbXrecord
 10
0.0
 20
0.0
 30
0.0
  0
XRECORD
  5
4EB8
102
{ACAD_REACTORS
330
4EA0
102
}
330
4EA0
100
AcDbXrecord
340
0
  0
XRECORD
  5
4EB9
102
{ACAD_REACTORS
330
4EA0
102
}
330
4EA0
100
AcDbXrecord
 70
     0
  0
XRECORD
  5
4EBA
102
{ACAD_REACTORS
330
4EA0
102
}
330
4EA0
100
AcDbXrecord
340
0
  0
XRECORD
  5
4EBB
102
{ACAD_REACTORS
330
4EA0
102
}
330
4EA0
100
AcDbXrecord
 10
0.0
 20
0.0
 30
0.0
  0
XRECORD
  5
4EBC
102
{ACAD_REACTORS
330
4EA0
102
}
330
4EA0
100
AcDbXrecord
 10
0.0
 20
0.0
 30
0.0
  0
XRECORD
  5
4EBD
102
{ACAD_REACTORS
330
4EA0
102
}
330
4EA0
100
AcDbXrecord
 10
0.0
 20
0.0
 30
0.0
  0
XRECORD
  5
4EBE
102
{ACAD_REACTORS
330
4EA0
102
}
330
4EA0
100
AcDbXrecord
 10
0.0
 20
0.0
 30
0.0
  0
XRECORD
  5
4EBF
102
{ACAD_REACTORS
330
4EA0
102
}
330
4EA0
100
AcDbXrecord
 10
0.0
 20
0.0
 30
0.0
  0
XRECORD
  5
4EC0
102
{ACAD_REACTORS
330
4EA0
102
}
330
4EA0
100
AcDbXrecord
 10
0.0
 20
0.0
 30
0.0
  0
ENDSEC
  0
EOF
