  0
SECTION
  2
HEADER
  9
$ACADVER
  1
AC1015
  9
$ACADMAINTVER
 70
     6
  9
$DWGCODEPAGE
  3
ANSI_932
  9
$INSBASE
 10
0.0
 20
0.0
 30
0.0
  9
$EXTMIN
 10
0.000000320100753
 20
0.0000001769238906
 30
-0.00000001
  9
$EXTMAX
 10
398.8000003201008
 20
275.8000001769239
 30
0.00000001
  9
$LIMMIN
 10
0.0
 20
0.0
  9
$LIMMAX
 10
420.0
 20
297.0
  9
$ORTHOMODE
 70
     0
  9
$REGENMODE
 70
     1
  9
$FILLMODE
 70
     1
  9
$QTEXTMODE
 70
     0
  9
$MIRRTEXT
 70
     1
  9
$LTSCALE
 40
5.0
  9
$ATTMODE
 70
     1
  9
$TEXTSIZE
 40
33.0
  9
$TRACEWID
 40
1.0
  9
$TEXTSTYLE
  7
STANDARD
  9
$CLAYER
  8
0
  9
$CELTYPE
  6
BYLAYER
  9
$CECOLOR
 62
   256
  9
$CELTSCALE
 40
1.0
  9
$DISPSILH
 70
     0
  9
$DIMSCALE
 40
1.0
  9
$DIMASZ
 40
3.0
  9
$DIMEXO
 40
3.0
  9
$DIMDLI
 40
7.0
  9
$DIMRND
 40
0.0
  9
$DIMDLE
 40
0.0
  9
$DIMEXE
 40
1.5
  9
$DIMTP
 40
0.0
  9
$DIMTM
 40
0.0
  9
$DIMTXT
 40
3.0
  9
$DIMCEN
 40
3.0
  9
$DIMTSZ
 40
0.0
  9
$DIMTOL
 70
     0
  9
$DIMLIM
 70
     0
  9
$DIMTIH
 70
     0
  9
$DIMTOH
 70
     0
  9
$DIMSE1
 70
     0
  9
$DIMSE2
 70
     0
  9
$DIMTAD
 70
     3
  9
$DIMZIN
 70
     0
  9
$DIMBLK
  1

  9
$DIMASO
 70
     1
  9
$DIMSHO
 70
     1
  9
$DIMPOST
  1

  9
$DIMAPOST
  1

  9
$DIMALT
 70
     0
  9
$DIMALTD
 70
     2
  9
$DIMALTF
 40
25.4
  9
$DIMLFAC
 40
1.0
  9
$DIMTOFL
 70
     1
  9
$DIMTVP
 40
0.0
  9
$DIMTIX
 70
     0
  9
$DIMSOXD
 70
     0
  9
$DIMSAH
 70
     1
  9
$DIMBLK1
  1
OPEN
  9
$DIMBLK2
  1
OPEN
  9
$DIMSTYLE
  2
STANDARD
  9
$DIMCLRD
 70
   256
  9
$DIMCLRE
 70
   256
  9
$DIMCLRT
 70
   256
  9
$DIMTFAC
 40
1.0
  9
$DIMGAP
 40
1.0
  9
$DIMJUST
 70
     0
  9
$DIMSD1
 70
     0
  9
$DIMSD2
 70
     0
  9
$DIMTOLJ
 70
     1
  9
$DIMTZIN
 70
     0
  9
$DIMALTZ
 70
     0
  9
$DIMALTTZ
 70
     0
  9
$DIMUPT
 70
     0
  9
$DIMDEC
 70
     0
  9
$DIMTDEC
 70
     0
  9
$DIMALTU
 70
     2
  9
$DIMALTTD
 70
     2
  9
$DIMTXSTY
  7
STANDARD
  9
$DIMAUNIT
 70
     0
  9
$DIMADEC
 70
     0
  9
$DIMALTRND
 40
0.0
  9
$DIMAZIN
 70
     0
  9
$DIMDSEP
 70
    46
  9
$DIMATFIT
 70
     3
  9
$DIMFRAC
 70
     0
  9
$DIMLDRBLK
  1
OPEN
  9
$DIMLUNIT
 70
     2
  9
$DIMLWD
 70
    -1
  9
$DIMLWE
 70
    -1
  9
$DIMTMOVE
 70
     0
  9
$LUNITS
 70
     2
  9
$LUPREC
 70
     4
  9
$SKETCHINC
 40
1.0
  9
$FILLETRAD
 40
10.0
  9
$AUNITS
 70
     0
  9
$AUPREC
 70
     0
  9
$MENU
  1
.
  9
$ELEVATION
 40
0.0
  9
$PELEVATION
 40
0.0
  9
$THICKNESS
 40
0.0
  9
$LIMCHECK
 70
     0
  9
$CHAMFERA
 40
10.0
  9
$CHAMFERB
 40
10.0
  9
$CHAMFERC
 40
20.0
  9
$CHAMFERD
 40
0.0
  9
$SKPOLY
 70
     0
  9
$TDCREATE
 40
2451569.441154629
  9
$TDUCREATE
 40
2451569.066154629
  9
$TDUPDATE
 40
2456216.556947685
  9
$TDUUPDATE
 40
2456216.181947685
  9
$TDINDWG
 40
0.2250632870
  9
$TDUSRTIMER
 40
0.2250632870
  9
$USRTIMER
 70
     1
  9
$ANGBASE
 50
0.0
  9
$ANGDIR
 70
     0
  9
$PDMODE
 70
     0
  9
$PDSIZE
 40
0.0
  9
$PLINEWID
 40
0.0
  9
$SPLFRAME
 70
     0
  9
$SPLINETYPE
 70
     6
  9
$SPLINESEGS
 70
     8
  9
$HANDSEED
  5
2CF8
  9
$SURFTAB1
 70
     6
  9
$SURFTAB2
 70
     6
  9
$SURFTYPE
 70
     6
  9
$SURFU
 70
     6
  9
$SURFV
 70
     6
  9
$UCSBASE
  2

  9
$UCSNAME
  2

  9
$UCSORG
 10
0.0
 20
0.0
 30
0.0
  9
$UCSXDIR
 10
1.0
 20
0.0
 30
0.0
  9
$UCSYDIR
 10
0.0
 20
1.0
 30
0.0
  9
$UCSORTHOREF
  2

  9
$UCSORTHOVIEW
 70
     0
  9
$UCSORGTOP
 10
0.0
 20
0.0
 30
0.0
  9
$UCSORGBOTTOM
 10
0.0
 20
0.0
 30
0.0
  9
$UCSORGLEFT
 10
0.0
 20
0.0
 30
0.0
  9
$UCSORGRIGHT
 10
0.0
 20
0.0
 30
0.0
  9
$UCSORGFRONT
 10
0.0
 20
0.0
 30
0.0
  9
$UCSORGBACK
 10
0.0
 20
0.0
 30
0.0
  9
$PUCSBASE
  2

  9
$PUCSNAME
  2

  9
$PUCSORG
 10
0.0
 20
0.0
 30
0.0
  9
$PUCSXDIR
 10
1.0
 20
0.0
 30
0.0
  9
$PUCSYDIR
 10
0.0
 20
1.0
 30
0.0
  9
$PUCSORTHOREF
  2

  9
$PUCSORTHOVIEW
 70
     0
  9
$PUCSORGTOP
 10
0.0
 20
0.0
 30
0.0
  9
$PUCSORGBOTTOM
 10
0.0
 20
0.0
 30
0.0
  9
$PUCSORGLEFT
 10
0.0
 20
0.0
 30
0.0
  9
$PUCSORGRIGHT
 10
0.0
 20
0.0
 30
0.0
  9
$PUCSORGFRONT
 10
0.0
 20
0.0
 30
0.0
  9
$PUCSORGBACK
 10
0.0
 20
0.0
 30
0.0
  9
$USERI1
 70
     0
  9
$USERI2
 70
     0
  9
$USERI3
 70
     0
  9
$USERI4
 70
     0
  9
$USERI5
 70
     0
  9
$USERR1
 40
0.0
  9
$USERR2
 40
0.0
  9
$USERR3
 40
0.0
  9
$USERR4
 40
0.0
  9
$USERR5
 40
0.0
  9
$WORLDVIEW
 70
     1
  9
$SHADEDGE
 70
     3
  9
$SHADEDIF
 70
    70
  9
$TILEMODE
 70
     1
  9
$MAXACTVP
 70
    16
  9
$PINSBASE
 10
0.0
 20
0.0
 30
0.0
  9
$PLIMCHECK
 70
     0
  9
$PEXTMIN
 10
0.0
 20
0.0
 30
0.0
  9
$PEXTMAX
 10
420.0
 20
297.0
 30
0.0
  9
$PLIMMIN
 10
0.0
 20
0.0
  9
$PLIMMAX
 10
420.0
 20
297.0
  9
$UNITMODE
 70
     0
  9
$VISRETAIN
 70
     0
  9
$PLINEGEN
 70
     0
  9
$PSLTSCALE
 70
     1
  9
$TREEDEPTH
 70
  3020
  9
$CMLSTYLE
  2
STANDARD
  9
$CMLJUST
 70
     0
  9
$CMLSCALE
 40
1.0
  9
$PROXYGRAPHICS
 70
     1
  9
$MEASUREMENT
 70
     1
  9
$CELWEIGHT
370
    -1
  9
$ENDCAPS
280
     0
  9
$JOINSTYLE
280
     0
  9
$LWDISPLAY
290
     0
  9
$INSUNITS
 70
     0
  9
$HYPERLINKBASE
  1

  9
$STYLESHEET
  1
print.ctb
  9
$XEDIT
290
     1
  9
$CEPSNTYPE
380
     0
  9
$PSTYLEMODE
290
     1
  9
$FINGERPRINTGUID
  2
{4E8D0500-CDD1-11D3-932C-444553540000}
  9
$VERSIONGUID
  2
{4BD80CA7-2D72-4134-A037-C57CDD7C224B}
  9
$EXTNAMES
290
     1
  9
$PSVPSCALE
 40
0.0
  9
$OLESTARTUP
290
     0
  0
ENDSEC
  0
SECTION
  2
CLASSES
  0
CLASS
  1
ACDBDICTIONARYWDFLT
  2
AcDbDictionaryWithDefault
  3
AutoCAD 2000
 90
        0
280
     0
281
     0
  0
CLASS
  1
ACDBPLACEHOLDER
  2
AcDbPlaceHolder
  3
AutoCAD 2000
 90
        0
280
     0
281
     0
  0
CLASS
  1
LAYOUT
  2
AcDbLayout
  3
AutoCAD 2000
 90
        0
280
     0
281
     0
  0
CLASS
  1
LONG_TRANSACTION
  2
AcDbLongTransaction
  3
AutoCAD 2000
 90
    32768
280
     0
281
     0
  0
CLASS
  1
LWPOLYLINE
  2
AcDbPolyline
  3
AutoCAD 2000
 90
    32768
280
     0
281
     1
  0
CLASS
  1
HATCH
  2
AcDbHatch
  3
AutoCAD 2000
 90
    32768
280
     0
281
     1
  0
CLASS
  1
XRECORD
  2
AcDbXrecord
  3
AutoCAD 2000
 90
    32768
280
     0
281
     0
  0
CLASS
  1
LONG_TRANSACTION
  2
AcDbLongTransaction
  3
AutoCAD 2000
 90
    32768
280
     0
281
     0
  0
CLASS
  1
LWPOLYLINE
  2
AcDbPolyline
  3
AutoCAD 2000
 90
    32768
280
     0
281
     1
  0
CLASS
  1
HATCH
  2
AcDbHatch
  3
AutoCAD 2000
 90
    32768
280
     0
281
     1
  0
CLASS
  1
XRECORD
  2
AcDbXrecord
  3
AutoCAD 2000
 90
    32768
280
     0
281
     0
  0
CLASS
  1
LONG_TRANSACTION
  2
AcDbLongTransaction
  3
AutoCAD 2000
 90
    32768
280
     0
281
     0
  0
CLASS
  1
LWPOLYLINE
  2
AcDbPolyline
  3
AutoCAD 2000
 90
    32768
280
     0
281
     1
  0
CLASS
  1
HATCH
  2
AcDbHatch
  3
AutoCAD 2000
 90
    32768
280
     0
281
     1
  0
CLASS
  1
XRECORD
  2
AcDbXrecord
  3
AutoCAD 2000
 90
    32768
280
     0
281
     0
  0
CLASS
  1
LONG_TRANSACTION
  2
AcDbLongTransaction
  3
AutoCAD 2000
 90
    32768
280
     0
281
     0
  0
CLASS
  1
LWPOLYLINE
  2
AcDbPolyline
  3
AutoCAD 2000
 90
    32768
280
     0
281
     1
  0
CLASS
  1
HATCH
  2
AcDbHatch
  3
AutoCAD 2000
 90
    32768
280
     0
281
     1
  0
CLASS
  1
XRECORD
  2
AcDbXrecord
  3
AutoCAD 2000
 90
    32768
280
     0
281
     0
  0
CLASS
  1
LONG_TRANSACTION
  2
AcDbLongTransaction
  3
AutoCAD 2000
 90
    32768
280
     0
281
     0
  0
CLASS
  1
LWPOLYLINE
  2
AcDbPolyline
  3
AutoCAD 2000
 90
    32768
280
     0
281
     1
  0
CLASS
  1
HATCH
  2
AcDbHatch
  3
AutoCAD 2000
 90
    32768
280
     0
281
     1
  0
CLASS
  1
XRECORD
  2
AcDbXrecord
  3
AutoCAD 2000
 90
    32768
280
     0
281
     0
  0
CLASS
  1
LONG_TRANSACTION
  2
AcDbLongTransaction
  3
AutoCAD 2000
 90
    32768
280
     0
281
     0
  0
CLASS
  1
LWPOLYLINE
  2
AcDbPolyline
  3
AutoCAD 2000
 90
    32768
280
     0
281
     1
  0
CLASS
  1
HATCH
  2
AcDbHatch
  3
AutoCAD 2000
 90
    32768
280
     0
281
     1
  0
CLASS
  1
XRECORD
  2
AcDbXrecord
  3
AutoCAD 2000
 90
    32768
280
     0
281
     0
  0
CLASS
  1
LONG_TRANSACTION
  2
AcDbLongTransaction
  3
AutoCAD 2000
 90
    32768
280
     0
281
     0
  0
CLASS
  1
LWPOLYLINE
  2
AcDbPolyline
  3
AutoCAD 2000
 90
    32768
280
     0
281
     1
  0
CLASS
  1
HATCH
  2
AcDbHatch
  3
AutoCAD 2000
 90
    32768
280
     0
281
     1
  0
CLASS
  1
XRECORD
  2
AcDbXrecord
  3
AutoCAD 2000
 90
    32768
280
     0
281
     0
  0
CLASS
  1
LONG_TRANSACTION
  2
AcDbLongTransaction
  3
AutoCAD 2000
 90
    32768
280
     0
281
     0
  0
CLASS
  1
LWPOLYLINE
  2
AcDbPolyline
  3
AutoCAD 2000
 90
    32768
280
     0
281
     1
  0
CLASS
  1
HATCH
  2
AcDbHatch
  3
AutoCAD 2000
 90
    32768
280
     0
281
     1
  0
CLASS
  1
XRECORD
  2
AcDbXrecord
  3
AutoCAD 2000
 90
    32768
280
     0
281
     0
  0
CLASS
  1
LONG_TRANSACTION
  2
AcDbLongTransaction
  3
AutoCAD 2000
 90
    32768
280
     0
281
     0
  0
CLASS
  1
LWPOLYLINE
  2
AcDbPolyline
  3
AutoCAD 2000
 90
    32768
280
     0
281
     1
  0
CLASS
  1
HATCH
  2
AcDbHatch
  3
AutoCAD 2000
 90
    32768
280
     0
281
     1
  0
CLASS
  1
XRECORD
  2
AcDbXrecord
  3
AutoCAD 2000
 90
    32768
280
     0
281
     0
  0
CLASS
  1
LONG_TRANSACTION
  2
AcDbLongTransaction
  3
AutoCAD 2000
 90
    32768
280
     0
281
     0
  0
CLASS
  1
LWPOLYLINE
  2
AcDbPolyline
  3
AutoCAD 2000
 90
    32768
280
     0
281
     1
  0
CLASS
  1
HATCH
  2
AcDbHatch
  3
AutoCAD 2000
 90
    32768
280
     0
281
     1
  0
CLASS
  1
XRECORD
  2
AcDbXrecord
  3
AutoCAD 2000
 90
    32768
280
     0
281
     0
  0
CLASS
  1
LONG_TRANSACTION
  2
AcDbLongTransaction
  3
AutoCAD 2000
 90
    32768
280
     0
281
     0
  0
CLASS
  1
LWPOLYLINE
  2
AcDbPolyline
  3
AutoCAD 2000
 90
    32768
280
     0
281
     1
  0
CLASS
  1
HATCH
  2
AcDbHatch
  3
AutoCAD 2000
 90
    32768
280
     0
281
     1
  0
CLASS
  1
XRECORD
  2
AcDbXrecord
  3
AutoCAD 2000
 90
    32768
280
     0
281
     0
  0
ENDSEC
  0
SECTION
  2
TABLES
  0
TABLE
  2
VPORT
  5
8
330
0
100
AcDbSymbolTable
 70
     2
  0
VPORT
  5
2CF7
330
8
100
AcDbSymbolTableRecord
100
AcDbViewportTableRecord
  2
*Active
 70
     0
 10
0.0
 20
0.0
 11
1.0
 21
1.0
 12
213.2414841629869
 22
148.4977353837017
 13
0.0
 23
0.0
 14
5.0
 24
5.0
 15
0.0
 25
0.0
 16
0.0
 26
0.0
 36
1.0
 17
0.0
 27
0.0
 37
0.0
 40
299.2746275452022
 41
1.557397959183673
 42
50.0
 43
0.0
 44
0.0
 50
0.0
 51
0.0
 71
     0
 72
   100
 73
     1
 74
     0
 75
     0
 76
     0
 77
     0
 78
     0
281
     0
 65
     1
110
0.0
120
0.0
130
0.0
111
1.0
121
0.0
131
0.0
112
0.0
122
1.0
132
0.0
 79
     0
146
0.0
  0
ENDTAB
  0
TABLE
  2
LTYPE
  5
5
330
0
100
AcDbSymbolTable
 70
     4
  0
LTYPE
  5
14
330
5
100
AcDbSymbolTableRecord
100
AcDbLinetypeTableRecord
  2
BYBLOCK
 70
     0
  3

 72
    65
 73
     0
 40
0.0
  0
LTYPE
  5
15
330
5
100
AcDbSymbolTableRecord
100
AcDbLinetypeTableRecord
  2
BYLAYER
 70
     0
  3

 72
    65
 73
     0
 40
0.0
  0
LTYPE
  5
16
330
5
100
AcDbSymbolTableRecord
100
AcDbLinetypeTableRecord
  2
CONTINUOUS
 70
     0
  3
Solid line
 72
    65
 73
     0
 40
0.0
  0
LTYPE
  5
120
330
5
100
AcDbSymbolTableRecord
100
AcDbLinetypeTableRecord
  2
CENTER
 70
     0
  3
____ _ ____ _ ____ _ ____ _ ____ _ ____ _ ____ 
 72
    65
 73
     4
 40
2.0
 49
1.25
 74
     0
 49
-0.25
 74
     0
 49
0.25
 74
     0
 49
-0.25
 74
     0
  0
LTYPE
  5
122
330
5
100
AcDbSymbolTableRecord
100
AcDbLinetypeTableRecord
  2
PHANTOM
 70
     0
  3
______  __  __  ______  __  __  ______  __  __ 
 72
    65
 73
     6
 40
2.5
 49
1.25
 74
     0
 49
-0.25
 74
     0
 49
0.25
 74
     0
 49
-0.25
 74
     0
 49
0.25
 74
     0
 49
-0.25
 74
     0
  0
LTYPE
  5
12B
330
5
100
AcDbSymbolTableRecord
100
AcDbLinetypeTableRecord
  2
DASHED
 70
     0
  3
__ __ __ __ __ __ __ __ __ __ __ __ __ __ __ __
 72
    65
 73
     2
 40
0.75
 49
0.5
 74
     0
 49
-0.25
 74
     0
  0
ENDTAB
  0
TABLE
  2
LAYER
  5
2
330
0
100
AcDbSymbolTable
 70
     9
  0
LAYER
  5
F
330
2
100
AcDbSymbolTableRecord
100
AcDbLayerTableRecord
  2
0
 70
     0
 62
     7
  6
CONTINUOUS
370
    -3
390
140
  0
LAYER
  5
62
330
2
100
AcDbSymbolTableRecord
100
AcDbLayerTableRecord
  2
VIEWPORT
 70
     0
 62
     7
  6
CONTINUOUS
370
    -3
390
140
  0
LAYER
  5
6B
330
2
100
AcDbSymbolTableRecord
100
AcDbLayerTableRecord
  2
ZUWAKU
 70
     0
 62
     7
  6
CONTINUOUS
370
    -3
390
140
  0
LAYER
  5
48C
330
2
100
AcDbSymbolTableRecord
100
AcDbLayerTableRecord
  2
Defpoints
 70
     0
 62
     7
  6
CONTINUOUS
290
     0
370
    -3
390
140
  0
LAYER
  5
629
330
2
100
AcDbSymbolTableRecord
100
AcDbLayerTableRecord
  2
SEIHIN
 70
     0
 62
     3
  6
CONTINUOUS
370
    -3
390
140
  0
LAYER
  5
62A
330
2
100
AcDbSymbolTableRecord
100
AcDbLayerTableRecord
  2
SUNPOU
 70
     0
 62
     4
  6
CONTINUOUS
370
    -3
390
140
  0
LAYER
  5
62B
330
2
100
AcDbSymbolTableRecord
100
AcDbLayerTableRecord
  2
CENTER L
 70
     0
 62
     1
  6
CENTER
370
    -3
390
140
  0
LAYER
  5
65C
330
2
100
AcDbSymbolTableRecord
100
AcDbLayerTableRecord
  2
NOKITOI
 70
     0
 62
     8
  6
PHANTOM
370
    -3
390
140
  0
LAYER
  5
1F7A
330
2
100
AcDbSymbolTableRecord
100
AcDbLayerTableRecord
  2
moji
 70
     0
 62
     2
  6
CONTINUOUS
370
    -3
390
140
  0
ENDTAB
  0
TABLE
  2
STYLE
  5
3
330
0
100
AcDbSymbolTable
 70
     3
  0
STYLE
  5
10
330
3
100
AcDbSymbolTableRecord
100
AcDbTextStyleTableRecord
  2
STANDARD
 70
     0
 40
0.0
 41
1.0
 50
0.0
 71
     0
 42
33.0
  3
TXT
  4
c:\PROGRAM FILES\AUTOCAD LT\ms\bigfont.shx
  0
STYLE
  5
1F7B
330
3
100
AcDbSymbolTableRecord
100
AcDbTextStyleTableRecord
  2
ｽﾀｲﾙ1
 70
     0
 40
0.0
 41
1.0
 50
0.0
 71
     0
 42
2.5
  3
MS PGothic.ttf
  4

1001
ACAD
1000
MS PGothic
1071
    32818
  0
STYLE
  5
21ED
330
3
100
AcDbSymbolTableRecord
100
AcDbTextStyleTableRecord
  2
MSゴシック
 70
     0
 40
0.0
 41
1.0
 50
0.0
 71
     0
 42
2.5
  3
MS Gothic.ttf
  4

1001
ACAD
1000
MS Gothic
1071
    32817
  0
ENDTAB
  0
TABLE
  2
VIEW
  5
6
330
0
100
AcDbSymbolTable
 70
     0
  0
ENDTAB
  0
TABLE
  2
UCS
  5
7
330
0
100
AcDbSymbolTable
 70
     0
  0
ENDTAB
  0
TABLE
  2
APPID
  5
9
330
0
100
AcDbSymbolTable
 70
     1
  0
APPID
  5
11
330
9
100
AcDbSymbolTableRecord
100
AcDbRegAppTableRecord
  2
ACAD
 70
     0
  0
ENDTAB
  0
TABLE
  2
DIMSTYLE
  5
A
330
0
100
AcDbSymbolTable
 70
     1
100
AcDbDimStyleTable
 71
     0
  0
DIMSTYLE
105
1D
102
{ACAD_REACTORS
330
862
330
1057
330
1A4D
330
1A4E
330
1A4F
330
1A54
330
1B8C
330
1B95
330
1B9A
330
1BAA
330
1BC3
330
1BC4
330
1BD2
330
1BD3
330
1BF3
102
}
330
A
100
AcDbSymbolTableRecord
100
AcDbDimStyleTableRecord
  2
STANDARD
 70
     0
340
10
  0
ENDTAB
  0
TABLE
  2
BLOCK_RECORD
  5
1
330
0
100
AcDbSymbolTable
 70
    17
  0
BLOCK_RECORD
  5
1A
102
{ACAD_XDICTIONARY
360
73C
102
}
330
1
100
AcDbSymbolTableRecord
100
AcDbBlockTableRecord
  2
*MODEL_SPACE
340
143
  0
BLOCK_RECORD
  5
17
102
{ACAD_XDICTIONARY
360
73A
102
}
330
1
100
AcDbSymbolTableRecord
100
AcDbBlockTableRecord
  2
*PAPER_SPACE
340
144
  0
BLOCK_RECORD
  5
B2
330
1
100
AcDbSymbolTableRecord
100
AcDbBlockTableRecord
  2
_OPEN
340
0
102
{BLKREFS
331
1BDB
331
1BF4
331
29E4
331
29E5
331
2634
331
2635
331
29D2
331
29D3
331
29C0
331
29C1
331
29AE
331
29AF
331
29B7
331
29B8
331
290E
331
290F
331
29DB
331
29DC
331
2932
331
2933
331
293D
331
293E
331
2948
331
2949
331
29C9
331
29CA
331
2917
331
2918
331
2920
331
2921
331
2929
331
292A
102
}
  0
BLOCK_RECORD
  5
863
330
1
100
AcDbSymbolTableRecord
100
AcDbBlockTableRecord
  2
*D1
340
0
  0
BLOCK_RECORD
  5
1058
330
1
100
AcDbSymbolTableRecord
100
AcDbBlockTableRecord
  2
*D2
340
0
  0
BLOCK_RECORD
  5
1BF6
330
1
100
AcDbSymbolTableRecord
100
AcDbBlockTableRecord
  2
*D3
340
0
  0
BLOCK_RECORD
  5
1C02
330
1
100
AcDbSymbolTableRecord
100
AcDbBlockTableRecord
  2
*D4
340
0
  0
BLOCK_RECORD
  5
1C0E
330
1
100
AcDbSymbolTableRecord
100
AcDbBlockTableRecord
  2
*D5
340
0
  0
BLOCK_RECORD
  5
1C1A
330
1
100
AcDbSymbolTableRecord
100
AcDbBlockTableRecord
  2
*D6
340
0
  0
BLOCK_RECORD
  5
1C32
330
1
100
AcDbSymbolTableRecord
100
AcDbBlockTableRecord
  2
*D7
340
0
  0
BLOCK_RECORD
  5
1C3E
330
1
100
AcDbSymbolTableRecord
100
AcDbBlockTableRecord
  2
*D8
340
0
  0
BLOCK_RECORD
  5
1C4A
330
1
100
AcDbSymbolTableRecord
100
AcDbBlockTableRecord
  2
*D9
340
0
  0
BLOCK_RECORD
  5
1C56
330
1
100
AcDbSymbolTableRecord
100
AcDbBlockTableRecord
  2
*D10
340
0
  0
BLOCK_RECORD
  5
1C64
330
1
100
AcDbSymbolTableRecord
100
AcDbBlockTableRecord
  2
*D11
340
0
  0
BLOCK_RECORD
  5
1C72
330
1
100
AcDbSymbolTableRecord
100
AcDbBlockTableRecord
  2
*D12
340
0
  0
BLOCK_RECORD
  5
1C8A
330
1
100
AcDbSymbolTableRecord
100
AcDbBlockTableRecord
  2
*D13
340
0
  0
BLOCK_RECORD
  5
1C96
330
1
100
AcDbSymbolTableRecord
100
AcDbBlockTableRecord
  2
*D14
340
0
  0
BLOCK_RECORD
  5
1CA2
330
1
100
AcDbSymbolTableRecord
100
AcDbBlockTableRecord
  2
*D15
340
0
  0
BLOCK_RECORD
  5
2A85
330
1
100
AcDbSymbolTableRecord
100
AcDbBlockTableRecord
  2
*X16
340
0
102
{BLKREFS
331
2043
102
}
  0
ENDTAB
  0
ENDSEC
  0
SECTION
  2
BLOCKS
  0
BLOCK
  5
1B
330
1A
100
AcDbEntity
  8
0
100
AcDbBlockBegin
  2
*MODEL_SPACE
 70
     0
 10
0.0
 20
0.0
 30
0.0
  3
*MODEL_SPACE
  1

  0
ENDBLK
  5
1C
330
1A
100
AcDbEntity
  8
0
100
AcDbBlockEnd
  0
BLOCK
  5
18
330
17
100
AcDbEntity
 67
     1
  8
0
100
AcDbBlockBegin
  2
*PAPER_SPACE
 70
     0
 10
0.0
 20
0.0
 30
0.0
  3
*PAPER_SPACE
  1

  0
ENDBLK
  5
19
330
17
100
AcDbEntity
 67
     1
  8
0
100
AcDbBlockEnd
  0
BLOCK
  5
B3
330
B2
100
AcDbEntity
  8
0
100
AcDbBlockBegin
  2
_OPEN
 70
     0
 10
0.0
 20
0.0
 30
0.0
  3
_OPEN
  1

  0
LINE
  5
B4
330
B2
100
AcDbEntity
  8
0
  6
ByBlock
 62
     0
100
AcDbLine
 10
-1.0
 20
0.1666666666666666
 30
0.0
 11
0.0
 21
0.0
 31
0.0
  0
LINE
  5
B5
330
B2
100
AcDbEntity
  8
0
  6
ByBlock
 62
     0
100
AcDbLine
 10
0.0
 20
0.0
 30
0.0
 11
-1.0
 21
-0.1666666666666666
 31
0.0
  0
LINE
  5
B6
330
B2
100
AcDbEntity
  8
0
  6
ByBlock
 62
     0
100
AcDbLine
 10
0.0
 20
0.0
 30
0.0
 11
-1.0
 21
0.0
 31
0.0
  0
ENDBLK
  5
B7
330
B2
100
AcDbEntity
  8
0
100
AcDbBlockEnd
  0
BLOCK
  5
86D
330
863
100
AcDbEntity
  8
0
100
AcDbBlockBegin
  2
*D1
 70
     1
 10
0.0
 20
0.0
 30
0.0
  3
*D1
  1

  0
LINE
  5
29E1
330
863
100
AcDbEntity
  8
SUNPOU
370
    -2
100
AcDbLine
 10
166.9361137788967
 20
239.5048785330812
 30
0.0
 11
147.004483585236
 21
239.5048785330812
 31
0.0
  0
LINE
  5
29E2
330
863
100
AcDbEntity
  8
SUNPOU
370
    -2
100
AcDbLine
 10
166.9361137788967
 20
186.5048784930812
 30
0.0
 11
147.004483585236
 21
186.5048784930812
 31
0.0
  0
LINE
  5
29E3
330
863
100
AcDbEntity
  8
SUNPOU
370
    -2
100
AcDbLine
 10
148.504483585236
 20
236.5048785330813
 30
0.0
 11
148.504483585236
 21
189.5048784930812
 31
0.0
  0
INSERT
  5
29E4
330
863
100
AcDbEntity
  8
SUNPOU
370
    -2
100
AcDbBlockReference
  2
_OPEN
 10
148.504483585236
 20
239.5048785330812
 30
0.0
 41
3.0
 42
3.0
 43
3.0
 50
90.0
  0
INSERT
  5
29E5
330
863
100
AcDbEntity
  8
SUNPOU
370
    -2
100
AcDbBlockReference
  2
_OPEN
 10
148.504483585236
 20
186.5048784930812
 30
0.0
 41
3.0
 42
3.0
 43
3.0
 50
270.0
  0
MTEXT
  5
29E6
330
863
100
AcDbEntity
  8
SUNPOU
100
AcDbMText
 10
146.0044835852359
 20
213.0048785130813
 30
0.0
 40
3.0
 41
0.0
 71
     5
 72
     5
  1
\A1;53
 11
0.0000000000000001
 21
1.0
 31
0.0
 73
     1
 44
1.0
1001
ACAD
1000
MTEXTBEGIN
1070
    73
1070
     1
1070
    44
1040
1.0
1070
    74
1070
     0
1000
MTEXTEND
1000
MTEXTBEGIN
1070
    73
1070
     1
1070
    44
1040
1.0
1070
    74
1070
     0
1000
MTEXTEND
1000
MTEXTBEGIN
1070
    73
1070
     1
1070
    44
1040
1.0
1070
    74
1070
     0
1000
MTEXTEND
  0
POINT
  5
29E7
330
863
100
AcDbEntity
  8
Defpoints
 62
     0
100
AcDbPoint
 10
169.9361137788967
 20
239.5048785330812
 30
0.0
  0
POINT
  5
29E8
330
863
100
AcDbEntity
  8
Defpoints
 62
     0
100
AcDbPoint
 10
169.9361137788967
 20
186.5048784930812
 30
0.0
  0
POINT
  5
29E9
330
863
100
AcDbEntity
  8
Defpoints
 62
     0
100
AcDbPoint
 10
148.504483585236
 20
186.5048784930812
 30
0.0
  0
ENDBLK
  5
86E
330
863
100
AcDbEntity
  8
0
100
AcDbBlockEnd
  0
BLOCK
  5
1062
330
1058
100
AcDbEntity
  8
0
100
AcDbBlockBegin
  2
*D2
 70
     1
 10
0.0
 20
0.0
 30
0.0
  3
*D2
  1

  0
LINE
  5
2631
330
1058
100
AcDbEntity
  8
SUNPOU
370
    -2
100
AcDbLine
 10
335.6631203988967
 20
224.0048785330812
 30
0.0
 11
360.0483830455461
 21
224.0048785330812
 31
0.0
  0
LINE
  5
2632
330
1058
100
AcDbEntity
  8
SUNPOU
370
    -2
100
AcDbLine
 10
335.6631203988967
 20
202.0048784930812
 30
0.0
 11
360.0483830455461
 21
202.0048784930812
 31
0.0
  0
LINE
  5
2633
330
1058
100
AcDbEntity
  8
SUNPOU
370
    -2
100
AcDbLine
 10
358.5483830455462
 20
221.0048785330812
 30
0.0
 11
358.5483830455462
 21
205.0048784930812
 31
0.0
  0
INSERT
  5
2634
330
1058
100
AcDbEntity
  8
SUNPOU
370
    -2
100
AcDbBlockReference
  2
_OPEN
 10
358.5483830455462
 20
224.0048785330812
 30
0.0
 41
3.0
 42
3.0
 43
3.0
 50
90.0
  0
INSERT
  5
2635
330
1058
100
AcDbEntity
  8
SUNPOU
370
    -2
100
AcDbBlockReference
  2
_OPEN
 10
358.5483830455462
 20
202.0048784930812
 30
0.0
 41
3.0
 42
3.0
 43
3.0
 50
270.0
  0
MTEXT
  5
2636
330
1058
100
AcDbEntity
  8
SUNPOU
100
AcDbMText
 10
356.0483830455461
 20
213.0048785130813
 30
0.0
 40
3.0
 41
0.0
 71
     5
 72
     5
  1
\A1;22
 11
0.0000000000000001
 21
1.0
 31
0.0
 73
     1
 44
1.0
1001
ACAD
1000
MTEXTBEGIN
1070
    73
1070
     1
1070
    44
1040
1.0
1070
    74
1070
     0
1000
MTEXTEND
1000
MTEXTBEGIN
1070
    73
1070
     1
1070
    44
1040
1.0
1070
    74
1070
     0
1000
MTEXTEND
1000
MTEXTBEGIN
1070
    73
1070
     1
1070
    44
1040
1.0
1070
    74
1070
     0
1000
MTEXTEND
  0
POINT
  5
2637
330
1058
100
AcDbEntity
  8
Defpoints
 62
     0
100
AcDbPoint
 10
332.6631203988966
 20
224.0048785330812
 30
0.0
  0
POINT
  5
2638
330
1058
100
AcDbEntity
  8
Defpoints
 62
     0
100
AcDbPoint
 10
332.6631203988966
 20
202.0048784930812
 30
0.0
  0
POINT
  5
2639
330
1058
100
AcDbEntity
  8
Defpoints
 62
     0
100
AcDbPoint
 10
358.5483830455462
 20
202.0048784930812
 30
0.0
  0
ENDBLK
  5
1063
330
1058
100
AcDbEntity
  8
0
100
AcDbBlockEnd
  0
BLOCK
  5
1C00
330
1BF6
100
AcDbEntity
  8
0
100
AcDbBlockBegin
  2
*D3
 70
     1
 10
0.0
 20
0.0
 30
0.0
  3
*D3
  1

  0
LINE
  5
29CF
330
1BF6
100
AcDbEntity
  8
SUNPOU
370
    -2
100
AcDbLine
 10
176.4361137788967
 20
137.3570285015201
 30
0.0
 11
137.3707898957175
 21
137.3570285015201
 31
0.0
  0
LINE
  5
29D0
330
1BF6
100
AcDbEntity
  8
SUNPOU
370
    -2
100
AcDbLine
 10
166.9361137788967
 20
85.35702849587574
 30
0.0
 11
137.3707898957175
 21
85.35702849587575
 31
0.0
  0
LINE
  5
29D1
330
1BF6
100
AcDbEntity
  8
SUNPOU
370
    -2
100
AcDbLine
 10
138.8707898957175
 20
134.3570285015201
 30
0.0
 11
138.8707898957175
 21
88.35702849587574
 31
0.0
  0
INSERT
  5
29D2
330
1BF6
100
AcDbEntity
  8
SUNPOU
370
    -2
100
AcDbBlockReference
  2
_OPEN
 10
138.8707898957175
 20
137.3570285015201
 30
0.0
 41
3.0
 42
3.0
 43
3.0
 50
90.0
  0
INSERT
  5
29D3
330
1BF6
100
AcDbEntity
  8
SUNPOU
370
    -2
100
AcDbBlockReference
  2
_OPEN
 10
138.8707898957175
 20
85.35702849587575
 30
0.0
 41
3.0
 42
3.0
 43
3.0
 50
270.0
  0
MTEXT
  5
29D4
330
1BF6
100
AcDbEntity
  8
SUNPOU
100
AcDbMText
 10
136.3707898957174
 20
111.3570284986979
 30
0.0
 40
3.0
 41
0.0
 71
     5
 72
     5
  1
\A1;52
 11
0.0000000000000001
 21
1.0
 31
0.0
 73
     1
 44
1.0
1001
ACAD
1000
MTEXTBEGIN
1070
    73
1070
     1
1070
    44
1040
1.0
1070
    74
1070
     0
1000
MTEXTEND
1000
MTEXTBEGIN
1070
    73
1070
     1
1070
    44
1040
1.0
1070
    74
1070
     0
1000
MTEXTEND
1000
MTEXTBEGIN
1070
    73
1070
     1
1070
    44
1040
1.0
1070
    74
1070
     0
1000
MTEXTEND
  0
POINT
  5
29D5
330
1BF6
100
AcDbEntity
  8
Defpoints
 62
     0
100
AcDbPoint
 10
179.4361137788967
 20
137.3570285015201
 30
0.0
  0
POINT
  5
29D6
330
1BF6
100
AcDbEntity
  8
Defpoints
 62
     0
100
AcDbPoint
 10
169.9361137788967
 20
85.35702849587574
 30
0.0
  0
POINT
  5
29D7
330
1BF6
100
AcDbEntity
  8
Defpoints
 62
     0
100
AcDbPoint
 10
138.8707898957175
 20
85.35702849587575
 30
0.0
  0
ENDBLK
  5
1C01
330
1BF6
100
AcDbEntity
  8
0
100
AcDbBlockEnd
  0
BLOCK
  5
1C0C
330
1C02
100
AcDbEntity
  8
0
100
AcDbBlockBegin
  2
*D4
 70
     1
 10
0.0
 20
0.0
 30
0.0
  3
*D4
  1

  0
LINE
  5
29BD
330
1C02
100
AcDbEntity
  8
SUNPOU
370
    -2
100
AcDbLine
 10
214.8249204039786
 20
107.2645000347689
 30
0.0
 11
214.8249204039786
 21
151.4264565226959
 31
0.0
  0
LINE
  5
29BE
330
1C02
100
AcDbEntity
  8
SUNPOU
370
    -2
100
AcDbLine
 10
169.9361137788967
 20
124.3570284978757
 30
0.0
 11
169.9361137788967
 21
151.4264565226959
 31
0.0
  0
LINE
  5
29BF
330
1C02
100
AcDbEntity
  8
SUNPOU
370
    -2
100
AcDbLine
 10
211.8249204039786
 20
149.9264565226959
 30
0.0
 11
172.9361137788967
 21
149.9264565226959
 31
0.0
  0
INSERT
  5
29C0
330
1C02
100
AcDbEntity
  8
SUNPOU
370
    -2
100
AcDbBlockReference
  2
_OPEN
 10
214.8249204039786
 20
149.9264565226959
 30
0.0
 41
3.0
 42
3.0
 43
3.0
  0
INSERT
  5
29C1
330
1C02
100
AcDbEntity
  8
SUNPOU
370
    -2
100
AcDbBlockReference
  2
_OPEN
 10
169.9361137788967
 20
149.9264565226959
 30
0.0
 41
3.0
 42
3.0
 43
3.0
 50
180.0
  0
MTEXT
  5
29C2
330
1C02
100
AcDbEntity
  8
SUNPOU
100
AcDbMText
 10
192.3805170914377
 20
152.4264565226959
 30
0.0
 40
3.0
 41
0.0
 71
     5
 72
     5
  1
\A1;45
 73
     1
 44
1.0
1001
ACAD
1000
MTEXTBEGIN
1070
    73
1070
     1
1070
    44
1040
1.0
1070
    74
1070
     0
1000
MTEXTEND
1000
MTEXTBEGIN
1070
    73
1070
     1
1070
    44
1040
1.0
1070
    74
1070
     0
1000
MTEXTEND
1000
MTEXTBEGIN
1070
    73
1070
     1
1070
    44
1040
1.0
1070
    74
1070
     0
1000
MTEXTEND
  0
POINT
  5
29C3
330
1C02
100
AcDbEntity
  8
Defpoints
 62
     0
100
AcDbPoint
 10
214.8249204039786
 20
104.2645000347689
 30
0.0
  0
POINT
  5
29C4
330
1C02
100
AcDbEntity
  8
Defpoints
 62
     0
100
AcDbPoint
 10
169.9361137788967
 20
121.3570284978757
 30
0.0
  0
POINT
  5
29C5
330
1C02
100
AcDbEntity
  8
Defpoints
 62
     0
100
AcDbPoint
 10
169.9361137788967
 20
149.9264565226959
 30
0.0
  0
ENDBLK
  5
1C0D
330
1C02
100
AcDbEntity
  8
0
100
AcDbBlockEnd
  0
BLOCK
  5
1C18
330
1C0E
100
AcDbEntity
  8
0
100
AcDbBlockBegin
  2
*D5
 70
     1
 10
0.0
 20
0.0
 30
0.0
  3
*D5
  1

  0
LINE
  5
29AB
330
1C0E
100
AcDbEntity
  8
SUNPOU
370
    -2
100
AcDbLine
 10
332.6631203988966
 20
98.27140003587572
 30
0.0
 11
332.6631203988966
 21
159.7999305827553
 31
0.0
  0
LINE
  5
29AC
330
1C0E
100
AcDbEntity
  8
SUNPOU
370
    -2
100
AcDbLine
 10
169.9361137788967
 20
124.3570284978757
 30
0.0
 11
169.9361137788967
 21
159.7999305827553
 31
0.0
  0
LINE
  5
29AD
330
1C0E
100
AcDbEntity
  8
SUNPOU
370
    -2
100
AcDbLine
 10
329.6631203988967
 20
158.2999305827553
 30
0.0
 11
172.9361137788967
 21
158.2999305827553
 31
0.0
  0
INSERT
  5
29AE
330
1C0E
100
AcDbEntity
  8
SUNPOU
370
    -2
100
AcDbBlockReference
  2
_OPEN
 10
332.6631203988966
 20
158.2999305827553
 30
0.0
 41
3.0
 42
3.0
 43
3.0
  0
INSERT
  5
29AF
330
1C0E
100
AcDbEntity
  8
SUNPOU
370
    -2
100
AcDbBlockReference
  2
_OPEN
 10
169.9361137788967
 20
158.2999305827553
 30
0.0
 41
3.0
 42
3.0
 43
3.0
 50
180.0
  0
MTEXT
  5
29B0
330
1C0E
100
AcDbEntity
  8
SUNPOU
100
AcDbMText
 10
251.2996170888967
 20
160.7999305827553
 30
0.0
 40
3.0
 41
0.0
 71
     5
 72
     5
  1
\A1;163
 73
     1
 44
1.0
1001
ACAD
1000
MTEXTBEGIN
1070
    73
1070
     1
1070
    44
1040
1.0
1070
    74
1070
     0
1000
MTEXTEND
1000
MTEXTBEGIN
1070
    73
1070
     1
1070
    44
1040
1.0
1070
    74
1070
     0
1000
MTEXTEND
1000
MTEXTBEGIN
1070
    73
1070
     1
1070
    44
1040
1.0
1070
    74
1070
     0
1000
MTEXTEND
  0
POINT
  5
29B1
330
1C0E
100
AcDbEntity
  8
Defpoints
 62
     0
100
AcDbPoint
 10
332.6631203988966
 20
95.27140003587573
 30
0.0
  0
POINT
  5
29B2
330
1C0E
100
AcDbEntity
  8
Defpoints
 62
     0
100
AcDbPoint
 10
169.9361137788967
 20
121.3570284978757
 30
0.0
  0
POINT
  5
29B3
330
1C0E
100
AcDbEntity
  8
Defpoints
 62
     0
100
AcDbPoint
 10
169.9361137788967
 20
158.2999305827553
 30
0.0
  0
ENDBLK
  5
1C19
330
1C0E
100
AcDbEntity
  8
0
100
AcDbBlockEnd
  0
BLOCK
  5
1C24
330
1C1A
100
AcDbEntity
  8
0
100
AcDbBlockBegin
  2
*D6
 70
     1
 10
0.0
 20
0.0
 30
0.0
  3
*D6
  1

  0
LINE
  5
29B4
330
1C1A
100
AcDbEntity
  8
SUNPOU
370
    -2
100
AcDbLine
 10
332.9630203979736
 20
100.0714000319374
 30
0.0
 11
349.5961406907127
 21
100.0714000319374
 31
0.0
  0
LINE
  5
29B5
330
1C1A
100
AcDbEntity
  8
SUNPOU
370
    -2
100
AcDbLine
 10
172.9361137788967
 20
85.35702849587574
 30
0.0
 11
349.5961406907127
 21
85.3570284958757
 31
0.0
  0
LINE
  5
29B6
330
1C1A
100
AcDbEntity
  8
SUNPOU
370
    -2
100
AcDbLine
 10
348.0961406907127
 20
97.07140003193746
 30
0.0
 11
348.0961406907127
 21
88.35702849587569
 31
0.0
  0
INSERT
  5
29B7
330
1C1A
100
AcDbEntity
  8
SUNPOU
370
    -2
100
AcDbBlockReference
  2
_OPEN
 10
348.0961406907127
 20
100.0714000319374
 30
0.0
 41
3.0
 42
3.0
 43
3.0
 50
90.0
  0
INSERT
  5
29B8
330
1C1A
100
AcDbEntity
  8
SUNPOU
370
    -2
100
AcDbBlockReference
  2
_OPEN
 10
348.0961406907127
 20
85.3570284958757
 30
0.0
 41
3.0
 42
3.0
 43
3.0
 50
270.0
  0
MTEXT
  5
29B9
330
1C1A
100
AcDbEntity
  8
SUNPOU
100
AcDbMText
 10
345.5961406907127
 20
92.71421426390665
 30
0.0
 40
3.0
 41
0.0
 71
     5
 72
     5
  1
\A1;15
 11
0.0000000000000001
 21
1.0
 31
0.0
 73
     1
 44
1.0
1001
ACAD
1000
MTEXTBEGIN
1070
    73
1070
     1
1070
    44
1040
1.0
1070
    74
1070
     0
1000
MTEXTEND
1000
MTEXTBEGIN
1070
    73
1070
     1
1070
    44
1040
1.0
1070
    74
1070
     0
1000
MTEXTEND
1000
MTEXTBEGIN
1070
    73
1070
     1
1070
    44
1040
1.0
1070
    74
1070
     0
1000
MTEXTEND
  0
POINT
  5
29BA
330
1C1A
100
AcDbEntity
  8
Defpoints
 62
     0
100
AcDbPoint
 10
329.9630203979736
 20
100.0714000319374
 30
0.0
  0
POINT
  5
29BB
330
1C1A
100
AcDbEntity
  8
Defpoints
 62
     0
100
AcDbPoint
 10
169.9361137788967
 20
85.35702849587574
 30
0.0
  0
POINT
  5
29BC
330
1C1A
100
AcDbEntity
  8
Defpoints
 62
     0
100
AcDbPoint
 10
348.0961406907127
 20
85.3570284958757
 30
0.0
  0
ENDBLK
  5
1C25
330
1C1A
100
AcDbEntity
  8
0
100
AcDbBlockEnd
  0
BLOCK
  5
1C3C
330
1C32
100
AcDbEntity
  8
0
100
AcDbBlockBegin
  2
*D7
 70
     1
 10
0.0
 20
0.0
 30
0.0
  3
*D7
  1

  0
LINE
  5
290B
330
1C32
100
AcDbEntity
  8
SUNPOU
370
    -2
100
AcDbLine
 10
95.4006235815531
 20
119.5714000358757
 30
0.0
 11
95.4006235815531
 21
171.0454918257271
 31
0.0
  0
LINE
  5
290C
330
1C32
100
AcDbEntity
  8
SUNPOU
370
    -2
100
AcDbLine
 10
42.40062358155309
 20
119.5714000358757
 30
0.0
 11
42.40062358155309
 21
171.0454918257271
 31
0.0
  0
LINE
  5
290D
330
1C32
100
AcDbEntity
  8
SUNPOU
370
    -2
100
AcDbLine
 10
92.40062358155311
 20
169.5454918257271
 30
0.0
 11
45.40062358155309
 21
169.5454918257271
 31
0.0
  0
INSERT
  5
290E
330
1C32
100
AcDbEntity
  8
SUNPOU
370
    -2
100
AcDbBlockReference
  2
_OPEN
 10
95.4006235815531
 20
169.5454918257271
 30
0.0
 41
3.0
 42
3.0
 43
3.0
  0
INSERT
  5
290F
330
1C32
100
AcDbEntity
  8
SUNPOU
370
    -2
100
AcDbBlockReference
  2
_OPEN
 10
42.40062358155309
 20
169.5454918257271
 30
0.0
 41
3.0
 42
3.0
 43
3.0
 50
180.0
  0
MTEXT
  5
2910
330
1C32
100
AcDbEntity
  8
SUNPOU
100
AcDbMText
 10
68.90062358155311
 20
172.0454918257271
 30
0.0
 40
3.0
 41
0.0
 71
     5
 72
     5
  1
\A1;53
 73
     1
 44
1.0
1001
ACAD
1000
MTEXTBEGIN
1070
    73
1070
     1
1070
    44
1040
1.0
1070
    74
1070
     0
1000
MTEXTEND
1000
MTEXTBEGIN
1070
    73
1070
     1
1070
    44
1040
1.0
1070
    74
1070
     0
1000
MTEXTEND
1000
MTEXTBEGIN
1070
    73
1070
     1
1070
    44
1040
1.0
1070
    74
1070
     0
1000
MTEXTEND
  0
POINT
  5
2911
330
1C32
100
AcDbEntity
  8
Defpoints
 62
     0
100
AcDbPoint
 10
95.4006235815531
 20
116.5714000358757
 30
0.0
  0
POINT
  5
2912
330
1C32
100
AcDbEntity
  8
Defpoints
 62
     0
100
AcDbPoint
 10
42.40062358155309
 20
116.5714000358757
 30
0.0
  0
POINT
  5
2913
330
1C32
100
AcDbEntity
  8
Defpoints
 62
     0
100
AcDbPoint
 10
42.40062358155309
 20
169.5454918257271
 30
0.0
  0
ENDBLK
  5
1C3D
330
1C32
100
AcDbEntity
  8
0
100
AcDbBlockEnd
  0
BLOCK
  5
1C48
330
1C3E
100
AcDbEntity
  8
0
100
AcDbBlockBegin
  2
*D8
 70
     1
 10
0.0
 20
0.0
 30
0.0
  3
*D8
  1

  0
LINE
  5
29D8
330
1C3E
100
AcDbEntity
  8
SUNPOU
370
    -2
100
AcDbLine
 10
166.9361137788967
 20
121.3570284978757
 30
0.0
 11
162.9803397839129
 21
121.3570284978757
 31
0.0
  0
LINE
  5
29D9
330
1C3E
100
AcDbEntity
  8
SUNPOU
370
    -2
100
AcDbLine
 10
166.9361137788967
 20
85.35702849587574
 30
0.0
 11
162.9803397839129
 21
85.35702849587574
 31
0.0
  0
LINE
  5
29DA
330
1C3E
100
AcDbEntity
  8
SUNPOU
370
    -2
100
AcDbLine
 10
164.480339783913
 20
118.3570284978757
 30
0.0
 11
164.480339783913
 21
88.35702849587574
 31
0.0
  0
INSERT
  5
29DB
330
1C3E
100
AcDbEntity
  8
SUNPOU
370
    -2
100
AcDbBlockReference
  2
_OPEN
 10
164.480339783913
 20
121.3570284978757
 30
0.0
 41
3.0
 42
3.0
 43
3.0
 50
90.0
  0
INSERT
  5
29DC
330
1C3E
100
AcDbEntity
  8
SUNPOU
370
    -2
100
AcDbBlockReference
  2
_OPEN
 10
164.480339783913
 20
85.35702849587574
 30
0.0
 41
3.0
 42
3.0
 43
3.0
 50
270.0
  0
MTEXT
  5
29DD
330
1C3E
100
AcDbEntity
  8
SUNPOU
100
AcDbMText
 10
161.9803397839129
 20
103.3570284968757
 30
0.0
 40
3.0
 41
0.0
 71
     5
 72
     5
  1
\A1;36
 11
0.0000000000000001
 21
1.0
 31
0.0
 73
     1
 44
1.0
1001
ACAD
1000
MTEXTBEGIN
1070
    73
1070
     1
1070
    44
1040
1.0
1070
    74
1070
     0
1000
MTEXTEND
1000
MTEXTBEGIN
1070
    73
1070
     1
1070
    44
1040
1.0
1070
    74
1070
     0
1000
MTEXTEND
1000
MTEXTBEGIN
1070
    73
1070
     1
1070
    44
1040
1.0
1070
    74
1070
     0
1000
MTEXTEND
  0
POINT
  5
29DE
330
1C3E
100
AcDbEntity
  8
Defpoints
 62
     0
100
AcDbPoint
 10
169.9361137788967
 20
121.3570284978757
 30
0.0
  0
POINT
  5
29DF
330
1C3E
100
AcDbEntity
  8
Defpoints
 62
     0
100
AcDbPoint
 10
169.9361137788967
 20
85.35702849587574
 30
0.0
  0
POINT
  5
29E0
330
1C3E
100
AcDbEntity
  8
Defpoints
 62
     0
100
AcDbPoint
 10
164.480339783913
 20
85.35702849587574
 30
0.0
  0
ENDBLK
  5
1C49
330
1C3E
100
AcDbEntity
  8
0
100
AcDbBlockEnd
  0
BLOCK
  5
1C54
330
1C4A
100
AcDbEntity
  8
0
100
AcDbBlockBegin
  2
*D9
 70
     1
 10
0.0
 20
0.0
 30
0.0
  3
*D9
  1

  0
LINE
  5
292F
330
1C4A
100
AcDbEntity
  8
SUNPOU
370
    -2
100
AcDbLine
 10
96.40062358155311
 20
118.5714000358757
 30
0.0
 11
124.8739781472969
 21
118.5714000358757
 31
0.0
  0
LINE
  5
2930
330
1C4A
100
AcDbEntity
  8
SUNPOU
370
    -2
100
AcDbLine
 10
96.40062358155311
 20
82.57140003587572
 30
0.0
 11
124.8739781472969
 21
82.57140003587572
 31
0.0
  0
LINE
  5
2931
330
1C4A
100
AcDbEntity
  8
SUNPOU
370
    -2
100
AcDbLine
 10
123.373978147297
 20
115.5714000358757
 30
0.0
 11
123.3739781472969
 21
85.57140003587573
 31
0.0
  0
INSERT
  5
2932
330
1C4A
100
AcDbEntity
  8
SUNPOU
370
    -2
100
AcDbBlockReference
  2
_OPEN
 10
123.373978147297
 20
118.5714000358757
 30
0.0
 41
3.0
 42
3.0
 43
3.0
 50
90.0
  0
INSERT
  5
2933
330
1C4A
100
AcDbEntity
  8
SUNPOU
370
    -2
100
AcDbBlockReference
  2
_OPEN
 10
123.3739781472969
 20
82.57140003587572
 30
0.0
 41
3.0
 42
3.0
 43
3.0
 50
270.0
  0
MTEXT
  5
2934
330
1C4A
100
AcDbEntity
  8
SUNPOU
100
AcDbMText
 10
120.8739781472969
 20
100.5714000358757
 30
0.0
 40
3.0
 41
0.0
 71
     5
 72
     5
  1
\A1;36
 11
0.0000000000000001
 21
1.0
 31
0.0
 73
     1
 44
1.0
1001
ACAD
1000
MTEXTBEGIN
1070
    73
1070
     1
1070
    44
1040
1.0
1070
    74
1070
     0
1000
MTEXTEND
1000
MTEXTBEGIN
1070
    73
1070
     1
1070
    44
1040
1.0
1070
    74
1070
     0
1000
MTEXTEND
1000
MTEXTBEGIN
1070
    73
1070
     1
1070
    44
1040
1.0
1070
    74
1070
     0
1000
MTEXTEND
  0
POINT
  5
2935
330
1C4A
100
AcDbEntity
  8
Defpoints
 62
     0
100
AcDbPoint
 10
93.40062358155311
 20
118.5714000358757
 30
0.0
  0
POINT
  5
2936
330
1C4A
100
AcDbEntity
  8
Defpoints
 62
     0
100
AcDbPoint
 10
93.40062358155311
 20
82.57140003587574
 30
0.0
  0
POINT
  5
2937
330
1C4A
100
AcDbEntity
  8
Defpoints
 62
     0
100
AcDbPoint
 10
123.3739781472969
 20
82.57140003587572
 30
0.0
  0
ENDBLK
  5
1C55
330
1C4A
100
AcDbEntity
  8
0
100
AcDbBlockEnd
  0
BLOCK
  5
1C62
330
1C56
100
AcDbEntity
  8
0
100
AcDbBlockBegin
  2
*D10
 70
     1
 10
0.0
 20
0.0
 30
0.0
  3
*D10
  1

  0
LINE
  5
2938
330
1C56
100
AcDbEntity
  8
SUNPOU
370
    -2
100
AcDbLine
 10
99.00062355328053
 20
88.07140003587575
 30
0.0
 11
115.0005727847035
 21
88.07140003587575
 31
0.0
  0
LINE
  5
2939
330
1C56
100
AcDbEntity
  8
SUNPOU
370
    -2
100
AcDbLine
 10
96.40062358155311
 20
82.57140003587572
 30
0.0
 11
115.0005727847035
 21
82.57140003587572
 31
0.0
  0
LINE
  5
293A
330
1C56
100
AcDbEntity
  8
SUNPOU
370
    -2
100
AcDbLine
 10
113.5005727847035
 20
91.07140003587574
 30
0.0
 11
113.5005727847035
 21
94.07140003587574
 31
0.0
  0
LINE
  5
293B
330
1C56
100
AcDbEntity
  8
SUNPOU
370
    -2
100
AcDbLine
 10
113.5005727847035
 20
79.57140003587572
 30
0.0
 11
113.5005727847035
 21
76.57140003587572
 31
0.0
  0
LINE
  5
293C
330
1C56
100
AcDbEntity
  8
SUNPOU
370
    -2
100
AcDbLine
 10
113.5005727847035
 20
88.07140003587575
 30
0.0
 11
113.5005727847035
 21
82.57140003587572
 31
0.0
  0
INSERT
  5
293D
330
1C56
100
AcDbEntity
  8
SUNPOU
370
    -2
100
AcDbBlockReference
  2
_OPEN
 10
113.5005727847035
 20
88.07140003587575
 30
0.0
 41
3.0
 42
3.0
 43
3.0
 50
270.0
  0
INSERT
  5
293E
330
1C56
100
AcDbEntity
  8
SUNPOU
370
    -2
100
AcDbBlockReference
  2
_OPEN
 10
113.5005727847035
 20
82.57140003587572
 30
0.0
 41
3.0
 42
3.0
 43
3.0
 50
90.0
  0
MTEXT
  5
293F
330
1C56
100
AcDbEntity
  8
SUNPOU
100
AcDbMText
 10
111.0005727847034
 20
85.32140003587576
 30
0.0
 40
3.0
 41
0.0
 71
     5
 72
     5
  1
\A1;6
 11
0.0000000000000001
 21
1.0
 31
0.0
 73
     1
 44
1.0
1001
ACAD
1000
MTEXTBEGIN
1070
    73
1070
     1
1070
    44
1040
1.0
1070
    74
1070
     0
1000
MTEXTEND
1000
MTEXTBEGIN
1070
    73
1070
     1
1070
    44
1040
1.0
1070
    74
1070
     0
1000
MTEXTEND
1000
MTEXTBEGIN
1070
    73
1070
     1
1070
    44
1040
1.0
1070
    74
1070
     0
1000
MTEXTEND
  0
POINT
  5
2940
330
1C56
100
AcDbEntity
  8
Defpoints
 62
     0
100
AcDbPoint
 10
96.00062355328052
 20
88.07140003587575
 30
0.0
  0
POINT
  5
2941
330
1C56
100
AcDbEntity
  8
Defpoints
 62
     0
100
AcDbPoint
 10
93.40062358155311
 20
82.57140003587574
 30
0.0
  0
POINT
  5
2942
330
1C56
100
AcDbEntity
  8
Defpoints
 62
     0
100
AcDbPoint
 10
113.5005727847035
 20
82.57140003587572
 30
0.0
  0
ENDBLK
  5
1C63
330
1C56
100
AcDbEntity
  8
0
100
AcDbBlockEnd
  0
BLOCK
  5
1C70
330
1C64
100
AcDbEntity
  8
0
100
AcDbBlockBegin
  2
*D11
 70
     1
 10
0.0
 20
0.0
 30
0.0
  3
*D11
  1

  0
LINE
  5
2943
330
1C64
100
AcDbEntity
  8
SUNPOU
370
    -2
100
AcDbLine
 10
96.40062358155311
 20
118.5714000358757
 30
0.0
 11
115.0005727847034
 21
118.5714000358757
 31
0.0
  0
LINE
  5
2944
330
1C64
100
AcDbEntity
  8
SUNPOU
370
    -2
100
AcDbLine
 10
99.00062355328053
 20
113.0714000358757
 30
0.0
 11
115.0005727847034
 21
113.0714000358757
 31
0.0
  0
LINE
  5
2945
330
1C64
100
AcDbEntity
  8
SUNPOU
370
    -2
100
AcDbLine
 10
113.5005727847034
 20
121.5714000358757
 30
0.0
 11
113.5005727847034
 21
124.5714000358757
 31
0.0
  0
LINE
  5
2946
330
1C64
100
AcDbEntity
  8
SUNPOU
370
    -2
100
AcDbLine
 10
113.5005727847034
 20
110.0714000358757
 30
0.0
 11
113.5005727847034
 21
107.0714000358757
 31
0.0
  0
LINE
  5
2947
330
1C64
100
AcDbEntity
  8
SUNPOU
370
    -2
100
AcDbLine
 10
113.5005727847034
 20
118.5714000358757
 30
0.0
 11
113.5005727847034
 21
113.0714000358757
 31
0.0
  0
INSERT
  5
2948
330
1C64
100
AcDbEntity
  8
SUNPOU
370
    -2
100
AcDbBlockReference
  2
_OPEN
 10
113.5005727847034
 20
118.5714000358757
 30
0.0
 41
3.0
 42
3.0
 43
3.0
 50
270.0
  0
INSERT
  5
2949
330
1C64
100
AcDbEntity
  8
SUNPOU
370
    -2
100
AcDbBlockReference
  2
_OPEN
 10
113.5005727847034
 20
113.0714000358757
 30
0.0
 41
3.0
 42
3.0
 43
3.0
 50
90.0
  0
MTEXT
  5
294A
330
1C64
100
AcDbEntity
  8
SUNPOU
100
AcDbMText
 10
111.0005727847034
 20
115.8214000358757
 30
0.0
 40
3.0
 41
0.0
 71
     5
 72
     5
  1
\A1;6
 11
0.0000000000000001
 21
1.0
 31
0.0
 73
     1
 44
1.0
1001
ACAD
1000
MTEXTBEGIN
1070
    73
1070
     1
1070
    44
1040
1.0
1070
    74
1070
     0
1000
MTEXTEND
1000
MTEXTBEGIN
1070
    73
1070
     1
1070
    44
1040
1.0
1070
    74
1070
     0
1000
MTEXTEND
1000
MTEXTBEGIN
1070
    73
1070
     1
1070
    44
1040
1.0
1070
    74
1070
     0
1000
MTEXTEND
  0
POINT
  5
294B
330
1C64
100
AcDbEntity
  8
Defpoints
 62
     0
100
AcDbPoint
 10
93.40062358155311
 20
118.5714000358757
 30
0.0
  0
POINT
  5
294C
330
1C64
100
AcDbEntity
  8
Defpoints
 62
     0
100
AcDbPoint
 10
96.00062355328052
 20
113.0714000358757
 30
0.0
  0
POINT
  5
294D
330
1C64
100
AcDbEntity
  8
Defpoints
 62
     0
100
AcDbPoint
 10
113.5005727847034
 20
113.0714000358757
 30
0.0
  0
ENDBLK
  5
1C71
330
1C64
100
AcDbEntity
  8
0
100
AcDbBlockEnd
  0
BLOCK
  5
1C7C
330
1C72
100
AcDbEntity
  8
0
100
AcDbBlockBegin
  2
*D12
 70
     1
 10
0.0
 20
0.0
 30
0.0
  3
*D12
  1

  0
LINE
  5
29C6
330
1C72
100
AcDbEntity
  8
SUNPOU
370
    -2
100
AcDbLine
 10
169.9361137788967
 20
124.3570284978757
 30
0.0
 11
169.9361137788967
 21
159.7999305827553
 31
0.0
  0
LINE
  5
29C7
330
1C72
100
AcDbEntity
  8
SUNPOU
370
    -2
100
AcDbLine
 10
154.9361137788967
 20
124.3570284978757
 30
0.0
 11
154.9361137788967
 21
159.7999305827553
 31
0.0
  0
LINE
  5
29C8
330
1C72
100
AcDbEntity
  8
SUNPOU
370
    -2
100
AcDbLine
 10
166.9361137788967
 20
158.2999305827553
 30
0.0
 11
157.9361137788967
 21
158.2999305827553
 31
0.0
  0
INSERT
  5
29C9
330
1C72
100
AcDbEntity
  8
SUNPOU
370
    -2
100
AcDbBlockReference
  2
_OPEN
 10
169.9361137788967
 20
158.2999305827553
 30
0.0
 41
3.0
 42
3.0
 43
3.0
  0
INSERT
  5
29CA
330
1C72
100
AcDbEntity
  8
SUNPOU
370
    -2
100
AcDbBlockReference
  2
_OPEN
 10
154.9361137788967
 20
158.2999305827553
 30
0.0
 41
3.0
 42
3.0
 43
3.0
 50
180.0
  0
MTEXT
  5
29CB
330
1C72
100
AcDbEntity
  8
SUNPOU
100
AcDbMText
 10
162.4361137788967
 20
160.7999305827553
 30
0.0
 40
3.0
 41
0.0
 71
     5
 72
     5
  1
\A1;15
 73
     1
 44
1.0
1001
ACAD
1000
MTEXTBEGIN
1070
    73
1070
     1
1070
    44
1040
1.0
1070
    74
1070
     0
1000
MTEXTEND
1000
MTEXTBEGIN
1070
    73
1070
     1
1070
    44
1040
1.0
1070
    74
1070
     0
1000
MTEXTEND
1000
MTEXTBEGIN
1070
    73
1070
     1
1070
    44
1040
1.0
1070
    74
1070
     0
1000
MTEXTEND
  0
POINT
  5
29CC
330
1C72
100
AcDbEntity
  8
Defpoints
 62
     0
100
AcDbPoint
 10
169.9361137788967
 20
121.3570284978757
 30
0.0
  0
POINT
  5
29CD
330
1C72
100
AcDbEntity
  8
Defpoints
 62
     0
100
AcDbPoint
 10
154.9361137788967
 20
121.3570284978757
 30
0.0
  0
POINT
  5
29CE
330
1C72
100
AcDbEntity
  8
Defpoints
 62
     0
100
AcDbPoint
 10
154.9361137788967
 20
158.2999305827553
 30
0.0
  0
ENDBLK
  5
1C7D
330
1C72
100
AcDbEntity
  8
0
100
AcDbBlockEnd
  0
BLOCK
  5
1C94
330
1C8A
100
AcDbEntity
  8
0
100
AcDbBlockBegin
  2
*D13
 70
     1
 10
0.0
 20
0.0
 30
0.0
  3
*D13
  1

  0
LINE
  5
2914
330
1C8A
100
AcDbEntity
  8
SUNPOU
370
    -2
100
AcDbLine
 10
89.90062358155311
 20
122.171400007603
 30
0.0
 11
89.90062358155311
 21
163.1051892620846
 31
0.0
  0
LINE
  5
2915
330
1C8A
100
AcDbEntity
  8
SUNPOU
370
    -2
100
AcDbLine
 10
47.90062358155309
 20
122.171400007603
 30
0.0
 11
47.90062358155309
 21
163.1051892620846
 31
0.0
  0
LINE
  5
2916
330
1C8A
100
AcDbEntity
  8
SUNPOU
370
    -2
100
AcDbLine
 10
86.9006235815531
 20
161.6051892620846
 30
0.0
 11
50.9006235815531
 21
161.6051892620846
 31
0.0
  0
INSERT
  5
2917
330
1C8A
100
AcDbEntity
  8
SUNPOU
370
    -2
100
AcDbBlockReference
  2
_OPEN
 10
89.90062358155311
 20
161.6051892620846
 30
0.0
 41
3.0
 42
3.0
 43
3.0
  0
INSERT
  5
2918
330
1C8A
100
AcDbEntity
  8
SUNPOU
370
    -2
100
AcDbBlockReference
  2
_OPEN
 10
47.90062358155309
 20
161.6051892620846
 30
0.0
 41
3.0
 42
3.0
 43
3.0
 50
180.0
  0
MTEXT
  5
2919
330
1C8A
100
AcDbEntity
  8
SUNPOU
100
AcDbMText
 10
68.90062358155311
 20
164.1051892620846
 30
0.0
 40
3.0
 41
0.0
 71
     5
 72
     5
  1
\A1;42
 73
     1
 44
1.0
1001
ACAD
1000
MTEXTBEGIN
1070
    73
1070
     1
1070
    44
1040
1.0
1070
    74
1070
     0
1000
MTEXTEND
1000
MTEXTBEGIN
1070
    73
1070
     1
1070
    44
1040
1.0
1070
    74
1070
     0
1000
MTEXTEND
1000
MTEXTBEGIN
1070
    73
1070
     1
1070
    44
1040
1.0
1070
    74
1070
     0
1000
MTEXTEND
  0
POINT
  5
291A
330
1C8A
100
AcDbEntity
  8
Defpoints
 62
     0
100
AcDbPoint
 10
89.90062358155311
 20
119.171400007603
 30
0.0
  0
POINT
  5
291B
330
1C8A
100
AcDbEntity
  8
Defpoints
 62
     0
100
AcDbPoint
 10
47.90062358155309
 20
119.171400007603
 30
0.0
  0
POINT
  5
291C
330
1C8A
100
AcDbEntity
  8
Defpoints
 62
     0
100
AcDbPoint
 10
47.90062358155309
 20
161.6051892620846
 30
0.0
  0
ENDBLK
  5
1C95
330
1C8A
100
AcDbEntity
  8
0
100
AcDbBlockEnd
  0
BLOCK
  5
1CA0
330
1C96
100
AcDbEntity
  8
0
100
AcDbBlockBegin
  2
*D14
 70
     1
 10
0.0
 20
0.0
 30
0.0
  3
*D14
  1

  0
LINE
  5
291D
330
1C96
100
AcDbEntity
  8
SUNPOU
370
    -2
100
AcDbLine
 10
88.40062358155311
 20
114.6017062306036
 30
0.0
 11
88.40062358155311
 21
154.6836567124771
 31
0.0
  0
LINE
  5
291E
330
1C96
100
AcDbEntity
  8
SUNPOU
370
    -2
100
AcDbLine
 10
49.4006235815531
 20
114.6017062306036
 30
0.0
 11
49.4006235815531
 21
154.6836567124771
 31
0.0
  0
LINE
  5
291F
330
1C96
100
AcDbEntity
  8
SUNPOU
370
    -2
100
AcDbLine
 10
85.4006235815531
 20
153.1836567124771
 30
0.0
 11
52.40062358155309
 21
153.1836567124771
 31
0.0
  0
INSERT
  5
2920
330
1C96
100
AcDbEntity
  8
SUNPOU
370
    -2
100
AcDbBlockReference
  2
_OPEN
 10
88.40062358155311
 20
153.1836567124771
 30
0.0
 41
3.0
 42
3.0
 43
3.0
  0
INSERT
  5
2921
330
1C96
100
AcDbEntity
  8
SUNPOU
370
    -2
100
AcDbBlockReference
  2
_OPEN
 10
49.4006235815531
 20
153.1836567124771
 30
0.0
 41
3.0
 42
3.0
 43
3.0
 50
180.0
  0
MTEXT
  5
2922
330
1C96
100
AcDbEntity
  8
SUNPOU
100
AcDbMText
 10
68.90062358155311
 20
155.6836567124771
 30
0.0
 40
3.0
 41
0.0
 71
     5
 72
     5
  1
\A1;39
 73
     1
 44
1.0
1001
ACAD
1000
MTEXTBEGIN
1070
    73
1070
     1
1070
    44
1040
1.0
1070
    74
1070
     0
1000
MTEXTEND
1000
MTEXTBEGIN
1070
    73
1070
     1
1070
    44
1040
1.0
1070
    74
1070
     0
1000
MTEXTEND
1000
MTEXTBEGIN
1070
    73
1070
     1
1070
    44
1040
1.0
1070
    74
1070
     0
1000
MTEXTEND
  0
POINT
  5
2923
330
1C96
100
AcDbEntity
  8
Defpoints
 62
     0
100
AcDbPoint
 10
88.40062358155311
 20
111.6017062306036
 30
0.0
  0
POINT
  5
2924
330
1C96
100
AcDbEntity
  8
Defpoints
 62
     0
100
AcDbPoint
 10
49.4006235815531
 20
111.6017062306036
 30
0.0
  0
POINT
  5
2925
330
1C96
100
AcDbEntity
  8
Defpoints
 62
     0
100
AcDbPoint
 10
49.4006235815531
 20
153.1836567124771
 30
0.0
  0
ENDBLK
  5
1CA1
330
1C96
100
AcDbEntity
  8
0
100
AcDbBlockEnd
  0
BLOCK
  5
1CAC
330
1CA2
100
AcDbEntity
  8
0
100
AcDbBlockBegin
  2
*D15
 70
     1
 10
0.0
 20
0.0
 30
0.0
  3
*D15
  1

  0
LINE
  5
2926
330
1CA2
100
AcDbEntity
  8
SUNPOU
370
    -2
100
AcDbLine
 10
41.4006235815531
 20
118.5714000358757
 30
0.0
 11
24.82561720087337
 21
118.5714000358757
 31
0.0
  0
LINE
  5
2927
330
1CA2
100
AcDbEntity
  8
SUNPOU
370
    -2
100
AcDbLine
 10
39.4006235815531
 20
104.5714000358757
 30
0.0
 11
24.82561720087337
 21
104.5714000358757
 31
0.0
  0
LINE
  5
2928
330
1CA2
100
AcDbEntity
  8
SUNPOU
370
    -2
100
AcDbLine
 10
26.32561720087337
 20
115.5714000358757
 30
0.0
 11
26.32561720087337
 21
107.5714000358757
 31
0.0
  0
INSERT
  5
2929
330
1CA2
100
AcDbEntity
  8
SUNPOU
370
    -2
100
AcDbBlockReference
  2
_OPEN
 10
26.32561720087337
 20
118.5714000358757
 30
0.0
 41
3.0
 42
3.0
 43
3.0
 50
90.0
  0
INSERT
  5
292A
330
1CA2
100
AcDbEntity
  8
SUNPOU
370
    -2
100
AcDbBlockReference
  2
_OPEN
 10
26.32561720087337
 20
104.5714000358757
 30
0.0
 41
3.0
 42
3.0
 43
3.0
 50
270.0
  0
MTEXT
  5
292B
330
1CA2
100
AcDbEntity
  8
SUNPOU
100
AcDbMText
 10
23.82561720087335
 20
111.5714000358757
 30
0.0
 40
3.0
 41
0.0
 71
     5
 72
     5
  1
\A1;14
 11
0.0000000000000001
 21
1.0
 31
0.0
 73
     1
 44
1.0
1001
ACAD
1000
MTEXTBEGIN
1070
    73
1070
     1
1070
    44
1040
1.0
1070
    74
1070
     0
1000
MTEXTEND
1000
MTEXTBEGIN
1070
    73
1070
     1
1070
    44
1040
1.0
1070
    74
1070
     0
1000
MTEXTEND
1000
MTEXTBEGIN
1070
    73
1070
     1
1070
    44
1040
1.0
1070
    74
1070
     0
1000
MTEXTEND
  0
POINT
  5
292C
330
1CA2
100
AcDbEntity
  8
Defpoints
 62
     0
100
AcDbPoint
 10
44.4006235815531
 20
118.5714000358757
 30
0.0
  0
POINT
  5
292D
330
1CA2
100
AcDbEntity
  8
Defpoints
 62
     0
100
AcDbPoint
 10
42.40062358155309
 20
104.5714000358757
 30
0.0
  0
POINT
  5
292E
330
1CA2
100
AcDbEntity
  8
Defpoints
 62
     0
100
AcDbPoint
 10
26.32561720087337
 20
104.5714000358757
 30
0.0
  0
ENDBLK
  5
1CAD
330
1CA2
100
AcDbEntity
  8
0
100
AcDbBlockEnd
  0
BLOCK
  5
2C19
330
2A85
100
AcDbEntity
  8
0
100
AcDbBlockBegin
  2
*X16
 70
     1
 10
0.0
 20
0.0
 30
0.0
  3
*X16
  1

  0
LINE
  5
2A86
330
2A85
100
AcDbEntity
  8
0
 62
     0
100
AcDbLine
 10
34.52110639749133
 20
11.30208471206643
 30
0.0
 11
34.19819093263388
 21
11.62500017692391
 31
0.0
  0
LINE
  5
2A87
330
2A85
100
AcDbEntity
  8
0
 62
     0
100
AcDbLine
 10
34.52110639749133
 20
10.85307190601298
 30
0.0
 11
33.7491781265804
 21
11.62500017692391
 31
0.0
  0
LINE
  5
2A88
330
2A85
100
AcDbEntity
  8
0
 62
     0
100
AcDbLine
 10
34.52110639749131
 20
10.40405909995951
 30
0.0
 11
33.31053942448383
 21
11.61462607296698
 31
0.0
  0
LINE
  5
2A89
330
2A85
100
AcDbEntity
  8
0
 62
     0
100
AcDbLine
 10
34.52110639749133
 20
9.955046293906093
 30
0.0
 11
33.1211063974913
 21
11.35504629390609
 31
0.0
  0
LINE
  5
2A8A
330
2A85
100
AcDbEntity
  8
0
 62
     0
100
AcDbLine
 10
34.52110639749133
 20
9.506033487852619
 30
0.0
 11
33.1211063974913
 21
10.90603348785265
 31
0.0
  0
LINE
  5
2A8B
330
2A85
100
AcDbEntity
  8
0
 62
     0
100
AcDbLine
 10
34.52110639749131
 20
9.057020681799144
 30
0.0
 11
33.12110639749127
 21
10.45702068179917
 31
0.0
  0
LINE
  5
2A8C
330
2A85
100
AcDbEntity
  8
0
 62
     0
100
AcDbLine
 10
32.07110639749129
 20
11.05800787574574
 30
0.0
 11
31.50411409631314
 21
11.62500017692391
 31
0.0
  0
LINE
  5
2A8D
330
2A85
100
AcDbEntity
  8
0
 62
     0
100
AcDbLine
 10
34.52110639749133
 20
8.608007875745727
 30
0.0
 11
33.1211063974913
 21
10.00800787574576
 31
0.0
  0
LINE
  5
2A8E
330
2A85
100
AcDbEntity
  8
0
 62
     0
100
AcDbLine
 10
32.07110639749129
 20
10.60899506969229
 30
0.0
 11
31.05510129025967
 21
11.62500017692389
 31
0.0
  0
LINE
  5
2A8F
330
2A85
100
AcDbEntity
  8
0
 62
     0
100
AcDbLine
 10
34.52110639749131
 20
8.158995069692252
 30
0.0
 11
33.1211063974913
 21
9.558995069692286
 31
0.0
  0
LINE
  5
2A90
330
2A85
100
AcDbEntity
  8
0
 62
     0
100
AcDbLine
 10
32.07110639749129
 20
10.15998226363882
 30
0.0
 11
30.71835091492275
 21
11.51273774620736
 31
0.0
  0
LINE
  5
2A91
330
2A85
100
AcDbEntity
  8
0
 62
     0
100
AcDbLine
 10
34.52110639749131
 20
7.709982263638806
 30
0.0
 11
33.12110639749127
 21
9.109982263638812
 31
0.0
  0
LINE
  5
2A92
330
2A85
100
AcDbEntity
  8
0
 62
     0
100
AcDbLine
 10
32.07110639749135
 20
9.710969457585321
 30
0.0
 11
30.67110639749126
 21
11.11096945758538
 31
0.0
  0
LINE
  5
2A93
330
2A85
100
AcDbEntity
  8
0
 62
     0
100
AcDbLine
 10
34.52110639749133
 20
7.260969457585332
 30
0.0
 11
33.1211063974913
 21
8.660969457585366
 31
0.0
  0
LINE
  5
2A94
330
2A85
100
AcDbEntity
  8
0
 62
     0
100
AcDbLine
 10
32.07110639749132
 20
9.261956651531875
 30
0.0
 11
30.67110639749126
 21
10.66195665153196
 31
0.0
  0
LINE
  5
2A95
330
2A85
100
AcDbEntity
  8
0
 62
     0
100
AcDbLine
 10
34.52110639749131
 20
6.811956651531886
 30
0.0
 11
33.12110639749127
 21
8.21195665153192
 31
0.0
  0
LINE
  5
2A96
330
2A85
100
AcDbEntity
  8
0
 62
     0
100
AcDbLine
 10
32.07110639749132
 20
8.812943845478429
 30
0.0
 11
30.67110639749126
 21
10.21294384547849
 31
0.0
  0
LINE
  5
2A97
330
2A85
100
AcDbEntity
  8
0
 62
     0
100
AcDbLine
 10
34.52110639749131
 20
6.36294384547844
 30
0.0
 11
33.12110639749127
 21
7.762943845478474
 31
0.0
  0
LINE
  5
2A98
330
2A85
100
AcDbEntity
  8
0
 62
     0
100
AcDbLine
 10
32.07110639749129
 20
8.363931039424954
 30
0.0
 11
30.67110639749123
 21
9.763931039425017
 31
0.0
  0
LINE
  5
2A99
330
2A85
100
AcDbEntity
  8
0
 62
     0
100
AcDbLine
 10
34.52110639749128
 20
5.913931039424966
 30
0.0
 11
33.12110639749127
 21
7.313931039425
 31
0.0
  0
LINE
  5
2A9A
330
2A85
100
AcDbEntity
  8
0
 62
     0
100
AcDbLine
 10
32.07110639749132
 20
7.914918233371537
 30
0.0
 11
30.67110639749126
 21
9.314918233371599
 31
0.0
  0
LINE
  5
2A9B
330
2A85
100
AcDbEntity
  8
0
 62
     0
100
AcDbLine
 10
28.92110639749128
 20
11.06491823337157
 30
0.0
 11
28.36102445393896
 21
11.62500017692389
 31
0.0
  0
LINE
  5
2A9C
330
2A85
100
AcDbEntity
  8
0
 62
     0
100
AcDbLine
 10
34.52110639749131
 20
5.464918233371548
 30
0.0
 11
33.12110639749127
 21
6.864918233371554
 31
0.0
  0
LINE
  5
2A9D
330
2A85
100
AcDbEntity
  8
0
 62
     0
100
AcDbLine
 10
32.07110639749132
 20
7.465905427318062
 30
0.0
 11
30.67110639749123
 21
8.865905427318125
 31
0.0
  0
LINE
  5
2A9E
330
2A85
100
AcDbEntity
  8
0
 62
     0
100
AcDbLine
 10
28.92110639749125
 20
10.61590542731809
 30
0.0
 11
27.91201164788549
 21
11.62500017692389
 31
0.0
  0
LINE
  5
2A9F
330
2A85
100
AcDbEntity
  8
0
 62
     0
100
AcDbLine
 10
34.52110639749131
 20
5.015905427318074
 30
0.0
 11
33.12110639749127
 21
6.415905427318108
 31
0.0
  0
LINE
  5
2AA0
330
2A85
100
AcDbEntity
  8
0
 62
     0
100
AcDbLine
 10
32.07110639749129
 20
7.016892621264616
 30
0.0
 11
30.67110639749126
 21
8.416892621264622
 31
0.0
  0
LINE
  5
2AA1
330
2A85
100
AcDbEntity
  8
0
 62
     0
100
AcDbLine
 10
28.92110639749125
 20
10.16689262126465
 30
0.0
 11
27.57122503582925
 21
11.51677398292665
 31
0.0
  0
LINE
  5
2AA2
330
2A85
100
AcDbEntity
  8
0
 62
     0
100
AcDbLine
 10
34.52110639749128
 20
4.566892621264628
 30
0.0
 11
33.12110639749124
 21
5.966892621264634
 31
0.0
  0
LINE
  5
2AA3
330
2A85
100
AcDbEntity
  8
0
 62
     0
100
AcDbLine
 10
32.07110639749132
 20
6.567879815211142
 30
0.0
 11
30.67110639749128
 21
7.967879815211176
 31
0.0
  0
LINE
  5
2AA4
330
2A85
100
AcDbEntity
  8
0
 62
     0
100
AcDbLine
 10
28.92110639749128
 20
9.717879815211176
 30
0.0
 11
27.52110639749128
 21
11.11787981521118
 31
0.0
  0
LINE
  5
2AA5
330
2A85
100
AcDbEntity
  8
0
 62
     0
100
AcDbLine
 10
34.52110639749131
 20
4.117879815211153
 30
0.0
 11
33.12110639749127
 21
5.517879815211188
 31
0.0
  0
LINE
  5
2AA6
330
2A85
100
AcDbEntity
  8
0
 62
     0
100
AcDbLine
 10
32.07110639749129
 20
6.118867009157696
 30
0.0
 11
30.67110639749128
 21
7.51886700915773
 31
0.0
  0
LINE
  5
2AA7
330
2A85
100
AcDbEntity
  8
0
 62
     0
100
AcDbLine
 10
28.92110639749131
 20
9.268867009157702
 30
0.0
 11
27.52110639749128
 21
10.66886700915773
 31
0.0
  0
LINE
  5
2AA8
330
2A85
100
AcDbEntity
  8
0
 62
     0
100
AcDbLine
 10
34.4851237200464
 20
3.704849686602614
 30
0.0
 11
33.12110639749127
 21
5.068867009157742
 31
0.0
  0
LINE
  5
2AA9
330
2A85
100
AcDbEntity
  8
0
 62
     0
100
AcDbLine
 10
32.07110639749132
 20
5.669854203104193
 30
0.0
 11
30.67110639749126
 21
7.069854203104256
 31
0.0
  0
LINE
  5
2AAA
330
2A85
100
AcDbEntity
  8
0
 62
     0
100
AcDbLine
 10
28.92110639749128
 20
8.819854203104256
 30
0.0
 11
27.52110639749125
 21
10.21985420310426
 31
0.0
  0
LINE
  5
2AAB
330
2A85
100
AcDbEntity
  8
0
 62
     0
100
AcDbLine
 10
34.16596042367166
 20
3.575000176923879
 30
0.0
 11
33.12110639749124
 21
4.619854203104296
 31
0.0
  0
LINE
  5
2AAC
330
2A85
100
AcDbEntity
  8
0
 62
     0
100
AcDbLine
 10
28.92110639749128
 20
8.370841397050782
 30
0.0
 11
27.52110639749125
 21
9.770841397050816
 31
0.0
  0
LINE
  5
2AAD
330
2A85
100
AcDbEntity
  8
0
 62
     0
100
AcDbLine
 10
32.07110639749132
 20
5.220841397050747
 30
0.0
 11
30.67110639749126
 21
6.62084139705081
 31
0.0
  0
LINE
  5
2AAE
330
2A85
100
AcDbEntity
  8
0
 62
     0
100
AcDbLine
 10
26.20860639749128
 20
11.08334139705078
 30
0.0
 11
25.6669476176182
 21
11.62500017692383
 31
0.0
  0
LINE
  5
2AAF
330
2A85
100
AcDbEntity
  8
0
 62
     0
100
AcDbLine
 10
33.71694761761821
 20
3.575000176923822
 30
0.0
 11
33.12110639749124
 21
4.170841397050821
 31
0.0
  0
LINE
  5
2AB0
330
2A85
100
AcDbEntity
  8
0
 62
     0
100
AcDbLine
 10
28.92110639749128
 20
7.921828590997336
 30
0.0
 11
27.52110639749131
 21
9.321828590997341
 31
0.0
  0
LINE
  5
2AB1
330
2A85
100
AcDbEntity
  8
0
 62
     0
100
AcDbLine
 10
26.20860639749128
 20
10.63432859099734
 30
0.0
 11
25.21793481156478
 21
11.62500017692386
 31
0.0
  0
LINE
  5
2AB2
330
2A85
100
AcDbEntity
  8
0
 62
     0
100
AcDbLine
 10
32.05812724716853
 20
4.784807741320122
 30
0.0
 11
30.67110639749126
 21
6.171828590997364
 31
0.0
  0
LINE
  5
2AB3
330
2A85
100
AcDbEntity
  8
0
 62
     0
100
AcDbLine
 10
28.92110639749128
 20
7.47281578494389
 30
0.0
 11
27.52110639749131
 21
8.872815784943867
 31
0.0
  0
LINE
  5
2AB4
330
2A85
100
AcDbEntity
  8
0
 62
     0
100
AcDbLine
 10
26.11081612443436
 20
10.28310605800081
 30
0.0
 11
24.76892200551128
 21
11.62500017692389
 31
0.0
  0
LINE
  5
2AB5
330
2A85
100
AcDbEntity
  8
0
 62
     0
100
AcDbLine
 10
31.9616345995399
 20
4.432287582895241
 30
0.0
 11
30.67110639749126
 21
5.722815784943918
 31
0.0
  0
LINE
  5
2AB6
330
2A85
100
AcDbEntity
  8
0
 62
     0
100
AcDbLine
 10
28.92110639749128
 20
7.023802978890415
 30
0.0
 11
27.52110639749128
 21
8.423802978890421
 31
0.0
  0
LINE
  5
2AB7
330
2A85
100
AcDbEntity
  8
0
 62
     0
100
AcDbLine
 10
25.71990919945779
 20
10.22500017692388
 30
0.0
 11
24.31990919945784
 21
11.62500017692383
 31
0.0
  0
LINE
  5
2AB8
330
2A85
100
AcDbEntity
  8
0
 62
     0
100
AcDbLine
 10
31.79911866157812
 20
4.145790714803553
 30
0.0
 11
30.6353485279115
 21
5.309560848470198
 31
0.0
  0
LINE
  5
2AB9
330
2A85
100
AcDbEntity
  8
0
 62
     0
100
AcDbLine
 10
28.92110639749128
 20
6.574790172836998
 30
0.0
 11
27.52110639749131
 21
7.974790172836975
 31
0.0
  0
LINE
  5
2ABA
330
2A85
100
AcDbEntity
  8
0
 62
     0
100
AcDbLine
 10
25.27089639340437
 20
10.22500017692391
 30
0.0
 11
23.90211302881567
 21
11.5937835415126
 31
0.0
  0
LINE
  5
2ABB
330
2A85
100
AcDbEntity
  8
0
 62
     0
100
AcDbLine
 10
31.58309776291559
 20
3.912798807412656
 30
0.0
 11
30.43455570867775
 21
5.061340861650506
 31
0.0
  0
LINE
  5
2ABC
330
2A85
100
AcDbEntity
  8
0
 62
     0
100
AcDbLine
 10
28.92110639749128
 20
6.125777366783523
 30
0.0
 11
27.52110639749128
 21
7.525777366783501
 31
0.0
  0
LINE
  5
2ABD
330
2A85
100
AcDbEntity
  8
0
 62
     0
100
AcDbLine
 10
24.82188358735089
 20
10.22500017692391
 30
0.0
 11
23.56979281654898
 21
11.47709094772579
 31
0.0
  0
LINE
  5
2ABE
330
2A85
100
AcDbEntity
  8
0
 62
     0
100
AcDbLine
 10
31.31501659045258
 20
3.731867173822223
 30
0.0
 11
30.07188358735089
 21
4.975000176923884
 31
0.0
  0
LINE
  5
2ABF
330
2A85
100
AcDbEntity
  8
0
 62
     0
100
AcDbLine
 10
28.92110639749125
 20
5.676764560730049
 30
0.0
 11
27.52110639749128
 21
7.076764560730055
 31
0.0
  0
LINE
  5
2AC0
330
2A85
100
AcDbEntity
  8
0
 62
     0
100
AcDbLine
 10
24.38376569530649
 20
10.21410526291481
 30
0.0
 11
23.29849234794389
 21
11.29937861027741
 31
0.0
  0
LINE
  5
2AC1
330
2A85
100
AcDbEntity
  8
0
 62
     0
100
AcDbLine
 10
30.98681031049693
 20
3.6110606477244
 30
0.0
 11
29.62287078129745
 21
4.975000176923884
 31
0.0
  0
LINE
  5
2AC2
330
2A85
100
AcDbEntity
  8
0
 62
     0
100
AcDbLine
 10
24.19610639749132
 20
9.952751754676512
 30
0.0
 11
23.07943631842161
 21
11.06942183374622
 31
0.0
  0
LINE
  5
2AC3
330
2A85
100
AcDbEntity
  8
0
 62
     0
100
AcDbLine
 10
30.57385797524401
 20
3.57500017692385
 30
0.0
 11
27.52110639749128
 21
6.62775175467658
 31
0.0
  0
LINE
  5
2AC4
330
2A85
100
AcDbEntity
  8
0
 62
     0
100
AcDbLine
 10
24.19610639749135
 20
9.503738948623094
 30
0.0
 11
22.9135508622451
 21
10.78629448386934
 31
0.0
  0
LINE
  5
2AC5
330
2A85
100
AcDbEntity
  8
0
 62
     0
100
AcDbLine
 10
30.12484516919056
 20
3.57500017692385
 30
0.0
 11
27.52110639749128
 21
6.178738948623163
 31
0.0
  0
LINE
  5
2AC6
330
2A85
100
AcDbEntity
  8
0
 62
     0
100
AcDbLine
 10
24.29937853804321
 20
8.951454002017754
 30
0.0
 11
22.81246160256305
 21
10.43837093749789
 31
0.0
  0
LINE
  5
2AC7
330
2A85
100
AcDbEntity
  8
0
 62
     0
100
AcDbLine
 10
29.67583236313712
 20
3.57500017692385
 30
0.0
 11
27.52110639749128
 21
5.729726142569688
 31
0.0
  0
LINE
  5
2AC8
330
2A85
100
AcDbEntity
  8
0
 62
     0
100
AcDbLine
 10
26.40790824883697
 20
6.393911485170519
 30
0.0
 11
22.79610639749128
 21
10.00571333651617
 31
0.0
  0
LINE
  5
2AC9
330
2A85
100
AcDbEntity
  8
0
 62
     0
100
AcDbLine
 10
21.74610639749124
 20
11.05571333651621
 30
0.0
 11
21.1768195570836
 21
11.62500017692389
 31
0.0
  0
LINE
  5
2ACA
330
2A85
100
AcDbEntity
  8
0
 62
     0
100
AcDbLine
 10
29.22681955708364
 20
3.57500017692385
 30
0.0
 11
27.52110639749125
 21
5.280713336516214
 31
0.0
  0
LINE
  5
2ACB
330
2A85
100
AcDbEntity
  8
0
 62
     0
100
AcDbLine
 10
26.47110639749132
 20
5.881700530462751
 30
0.0
 11
22.79610639749131
 21
9.556700530462762
 31
0.0
  0
LINE
  5
2ACC
330
2A85
100
AcDbEntity
  8
0
 62
     0
100
AcDbLine
 10
21.7461063974913
 20
10.60670053046274
 30
0.0
 11
20.72780675103012
 21
11.62500017692394
 31
0.0
  0
LINE
  5
2ACD
330
2A85
100
AcDbEntity
  8
0
 62
     0
100
AcDbLine
 10
28.76958281165775
 20
3.583224116296321
 30
0.0
 11
27.52933033686375
 21
4.823476591090326
 31
0.0
  0
LINE
  5
2ACE
330
2A85
100
AcDbEntity
  8
0
 62
     0
100
AcDbLine
 10
21.7461063974913
 20
10.1576877244093
 30
0.0
 11
20.39241145360364
 21
11.51138266829693
 31
0.0
  0
LINE
  5
2ACF
330
2A85
100
AcDbEntity
  8
0
 62
     0
100
AcDbLine
 10
26.47110639749129
 20
5.432687724409277
 30
0.0
 11
22.80781173143247
 21
9.095982390468122
 31
0.0
  0
LINE
  5
2AD0
330
2A85
100
AcDbEntity
  8
0
 62
     0
100
AcDbLine
 10
21.7461063974913
 20
9.708674918355825
 30
0.0
 11
20.34610639749129
 21
11.1086749183558
 31
0.0
  0
LINE
  5
2AD1
330
2A85
100
AcDbEntity
  8
0
 62
     0
100
AcDbLine
 10
26.47110639749124
 20
4.983674918355859
 30
0.0
 11
22.96687144035249
 21
8.487909875494636
 31
0.0
  0
LINE
  5
2AD2
330
2A85
100
AcDbEntity
  8
0
 62
     0
100
AcDbLine
 10
21.7461063974913
 20
9.259662112302379
 30
0.0
 11
20.34610639749132
 21
10.65966211230235
 31
0.0
  0
LINE
  5
2AD3
330
2A85
100
AcDbEntity
  8
0
 62
     0
100
AcDbLine
 10
26.41682548869676
 20
4.588943021096923
 30
0.0
 11
25.0690080941776
 21
5.936760415616078
 31
0.0
  0
LINE
  5
2AD4
330
2A85
100
AcDbEntity
  8
0
 62
     0
100
AcDbLine
 10
21.7461063974913
 20
8.810649306248933
 30
0.0
 11
20.34610639749129
 21
10.21064930624891
 31
0.0
  0
LINE
  5
2AD5
330
2A85
100
AcDbEntity
  8
0
 62
     0
100
AcDbLine
 10
19.20036294720279
 20
11.35639275653741
 30
0.0
 11
18.93175552681628
 21
11.62500017692394
 31
0.0
  0
LINE
  5
2AD6
330
2A85
100
AcDbEntity
  8
0
 62
     0
100
AcDbLine
 10
26.28288763481597
 20
4.273868068924258
 30
0.0
 11
25.07110639749132
 21
5.485649306248916
 31
0.0
  0
LINE
  5
2AD7
330
2A85
100
AcDbEntity
  8
0
 62
     0
100
AcDbLine
 10
21.74610639749127
 20
8.361636500195459
 30
0.0
 11
20.34610639749129
 21
9.761636500195464
 31
0.0
  0
LINE
  5
2AD8
330
2A85
100
AcDbEntity
  8
0
 62
     0
100
AcDbLine
 10
19.10089911507648
 20
11.00684378261024
 30
0.0
 11
18.48274272076284
 21
11.62500017692391
 31
0.0
  0
LINE
  5
2AD9
330
2A85
100
AcDbEntity
  8
0
 62
     0
100
AcDbLine
 10
26.09139423572833
 20
4.016348661958431
 30
0.0
 11
25.02246380604808
 21
5.085279091638682
 31
0.0
  0
LINE
  5
2ADA
330
2A85
100
AcDbEntity
  8
0
 62
     0
100
AcDbLine
 10
21.74610639749127
 20
7.912623694142013
 30
0.0
 11
20.34610639749129
 21
9.31262369414199
 31
0.0
  0
LINE
  5
2ADB
330
2A85
100
AcDbEntity
  8
0
 62
     0
100
AcDbLine
 10
18.99313604162364
 20
10.66559405000961
 30
0.0
 11
18.03852825988835
 21
11.62020183174493
 31
0.0
  0
LINE
  5
2ADC
330
2A85
100
AcDbEntity
  8
0
 62
     0
100
AcDbLine
 10
25.84823475317051
 20
3.810495338462743
 30
0.0
 11
24.6837299147094
 21
4.975000176923884
 31
0.0
  0
LINE
  5
2ADD
330
2A85
100
AcDbEntity
  8
0
 62
     0
100
AcDbLine
 10
21.7461063974913
 20
7.463610888088567
 30
0.0
 11
20.34610639749129
 21
8.863610888088544
 31
0.0
  0
LINE
  5
2ADE
330
2A85
100
AcDbEntity
  8
0
 62
     0
100
AcDbLine
 10
18.88537296817088
 20
10.32434431740898
 30
0.0
 11
17.82137296817086
 21
11.388344317409
 31
0.0
  0
LINE
  5
2ADF
330
2A85
100
AcDbEntity
  8
0
 62
     0
100
AcDbLine
 10
25.55019277894032
 20
3.659524506639513
 30
0.0
 11
24.23471710865595
 21
4.975000176923913
 31
0.0
  0
LINE
  5
2AE0
330
2A85
100
AcDbEntity
  8
0
 62
     0
100
AcDbLine
 10
21.74610639749127
 20
7.014598082035121
 30
0.0
 11
20.34610639749129
 21
8.414598082035098
 31
0.0
  0
LINE
  5
2AE1
330
2A85
100
AcDbEntity
  8
0
 62
     0
100
AcDbLine
 10
18.77760989471795
 20
9.983094584808441
 30
0.0
 11
17.71360989471796
 21
11.04709458480843
 31
0.0
  0
LINE
  5
2AE2
330
2A85
100
AcDbEntity
  8
0
 62
     0
100
AcDbLine
 10
25.18135645311659
 20
3.579348026409803
 30
0.0
 11
23.78570430260251
 21
4.975000176923884
 31
0.0
  0
LINE
  5
2AE3
330
2A85
100
AcDbEntity
  8
0
 62
     0
100
AcDbLine
 10
21.74610639749127
 20
6.565585275981646
 30
0.0
 11
20.34610639749126
 21
7.965585275981624
 31
0.0
  0
LINE
  5
2AE4
330
2A85
100
AcDbEntity
  8
0
 62
     0
100
AcDbLine
 10
18.66984682126516
 20
9.641844852207754
 30
0.0
 11
17.60584682126511
 21
10.70584485220777
 31
0.0
  0
LINE
  5
2AE5
330
2A85
100
AcDbEntity
  8
0
 62
     0
100
AcDbLine
 10
24.73669149654907
 20
3.57500017692385
 30
0.0
 11
23.33669149654903
 21
4.975000176923884
 31
0.0
  0
LINE
  5
2AE6
330
2A85
100
AcDbEntity
  8
0
 62
     0
100
AcDbLine
 10
21.74610639749127
 20
6.1165724699282
 30
0.0
 11
20.34610639749129
 21
7.516572469928206
 31
0.0
  0
LINE
  5
2AE7
330
2A85
100
AcDbEntity
  8
0
 62
     0
100
AcDbLine
 10
18.56208374781238
 20
9.300595119607123
 30
0.0
 11
17.4980837478123
 21
10.36459511960717
 31
0.0
  0
LINE
  5
2AE8
330
2A85
100
AcDbEntity
  8
0
 62
     0
100
AcDbLine
 10
24.28767869049562
 20
3.575000176923879
 30
0.0
 11
23.07087284184743
 21
4.791806025572071
 31
0.0
  0
LINE
  5
2AE9
330
2A85
100
AcDbEntity
  8
0
 62
     0
100
AcDbLine
 10
18.4543206743595
 20
8.959345387006521
 30
0.0
 11
17.39032067435948
 21
10.02334538700654
 31
0.0
  0
LINE
  5
2AEA
330
2A85
100
AcDbEntity
  8
0
 62
     0
100
AcDbLine
 10
21.74610639749127
 20
5.667559663874754
 30
0.0
 11
20.34610639749129
 21
7.067559663874732
 31
0.0
  0
LINE
  5
2AEB
330
2A85
100
AcDbEntity
  8
0
 62
     0
100
AcDbLine
 10
16.32110639749129
 20
11.09255966387473
 30
0.0
 11
15.78866588444213
 21
11.62500017692386
 31
0.0
  0
LINE
  5
2AEC
330
2A85
100
AcDbEntity
  8
0
 62
     0
100
AcDbLine
 10
23.83866588444218
 20
3.57500017692385
 30
0.0
 11
23.0586063974913
 21
4.355059663874726
 31
0.0
  0
LINE
  5
2AED
330
2A85
100
AcDbEntity
  8
0
 62
     0
100
AcDbLine
 10
18.34655760090666
 20
8.618095654405891
 30
0.0
 11
17.28255760090667
 21
9.682095654405884
 31
0.0
  0
LINE
  5
2AEE
330
2A85
100
AcDbEntity
  8
0
 62
     0
100
AcDbLine
 10
21.74610639749127
 20
5.21854685782128
 30
0.0
 11
20.34610639749126
 21
6.618546857821286
 31
0.0
  0
LINE
  5
2AEF
330
2A85
100
AcDbEntity
  8
0
 62
     0
100
AcDbLine
 10
16.32110639749129
 20
10.64354685782126
 30
0.0
 11
15.33965307838869
 21
11.62500017692386
 31
0.0
  0
LINE
  5
2AF0
330
2A85
100
AcDbEntity
  8
0
 62
     0
100
AcDbLine
 10
23.38965307838867
 20
3.575000176923879
 30
0.0
 11
23.05860639749127
 21
3.906046857821252
 31
0.0
  0
LINE
  5
2AF1
330
2A85
100
AcDbEntity
  8
0
 62
     0
100
AcDbLine
 10
18.23879452745382
 20
8.276845921805261
 30
0.0
 11
17.17479452745379
 21
9.340845921805282
 31
0.0
  0
LINE
  5
2AF2
330
2A85
100
AcDbEntity
  8
0
 62
     0
100
AcDbLine
 10
16.32110639749126
 20
10.19453405176778
 30
0.0
 11
14.98338393304246
 21
11.53225651621662
 31
0.0
  0
LINE
  5
2AF3
330
2A85
100
AcDbEntity
  8
0
 62
     0
100
AcDbLine
 10
21.74610639749124
 20
4.769534051767834
 30
0.0
 11
20.34610639749126
 21
6.169534051767811
 31
0.0
  0
LINE
  5
2AF4
330
2A85
100
AcDbEntity
  8
0
 62
     0
100
AcDbLine
 10
18.131031454001
 20
7.935596189204659
 30
0.0
 11
17.06703145400101
 21
8.999596189204652
 31
0.0
  0
LINE
  5
2AF5
330
2A85
100
AcDbEntity
  8
0
 62
     0
100
AcDbLine
 10
16.32110639749129
 20
9.745521245714371
 30
0.0
 11
14.92110639749125
 21
11.14552124571437
 31
0.0
  0
LINE
  5
2AF6
330
2A85
100
AcDbEntity
  8
0
 62
     0
100
AcDbLine
 10
21.74610639749127
 20
4.320521245714388
 30
0.0
 11
20.34610639749126
 21
5.720521245714365
 31
0.0
  0
LINE
  5
2AF7
330
2A85
100
AcDbEntity
  8
0
 62
     0
100
AcDbLine
 10
18.02848719930506
 20
7.589127637847127
 30
0.0
 11
16.95926838054814
 21
8.65834645660405
 31
0.0
  0
LINE
  5
2AF8
330
2A85
100
AcDbEntity
  8
0
 62
     0
100
AcDbLine
 10
16.32110639749129
 20
9.296508439660897
 30
0.0
 11
14.92110639749125
 21
10.69650843966093
 31
0.0
  0
LINE
  5
2AF9
330
2A85
100
AcDbEntity
  8
0
 62
     0
100
AcDbLine
 10
21.74610639749124
 20
3.871508439660914
 30
0.0
 11
20.34610639749126
 21
5.271508439660919
 31
0.0
  0
LINE
  5
2AFA
330
2A85
100
AcDbEntity
  8
0
 62
     0
100
AcDbLine
 10
18.23572387902206
 20
6.932878152076654
 30
0.0
 11
16.81399463270582
 21
8.354607398392886
 31
0.0
  0
LINE
  5
2AFB
330
2A85
100
AcDbEntity
  8
0
 62
     0
100
AcDbLine
 10
16.32110639749132
 20
8.847495633607394
 30
0.0
 11
14.92110639749123
 21
10.24749563360745
 31
0.0
  0
LINE
  5
2AFC
330
2A85
100
AcDbEntity
  8
0
 62
     0
100
AcDbLine
 10
21.57658389882507
 20
3.592018132273608
 30
0.0
 11
20.34610639749129
 21
4.822495633607417
 31
0.0
  0
LINE
  5
2AFD
330
2A85
100
AcDbEntity
  8
0
 62
     0
100
AcDbLine
 10
18.44296055873908
 20
6.276628666306208
 30
0.0
 11
14.92110639749125
 21
9.798482827554039
 31
0.0
  0
LINE
  5
2AFE
330
2A85
100
AcDbEntity
  8
0
 62
     0
100
AcDbLine
 10
13.69610639749132
 20
11.02348282755397
 30
0.0
 11
13.09458904812143
 21
11.62500017692386
 31
0.0
  0
LINE
  5
2AFF
330
2A85
100
AcDbEntity
  8
0
 62
     0
100
AcDbLine
 10
21.14458904812142
 20
3.575000176923879
 30
0.0
 11
20.34610639749132
 21
4.373482827553971
 31
0.0
  0
LINE
  5
2B00
330
2A85
100
AcDbEntity
  8
0
 62
     0
100
AcDbLine
 10
18.65019723845603
 20
5.620379180535763
 30
0.0
 11
14.92110639749125
 21
9.349470021500565
 31
0.0
  0
LINE
  5
2B01
330
2A85
100
AcDbEntity
  8
0
 62
     0
100
AcDbLine
 10
13.69610639749132
 20
10.5744700215005
 30
0.0
 11
12.64557624206793
 21
11.62500017692389
 31
0.0
  0
LINE
  5
2B02
330
2A85
100
AcDbEntity
  8
0
 62
     0
100
AcDbLine
 10
20.69557624206791
 20
3.575000176923907
 30
0.0
 11
20.34610639749129
 21
3.924470021500525
 31
0.0
  0
LINE
  5
2B03
330
2A85
100
AcDbEntity
  8
0
 62
     0
100
AcDbLine
 10
13.56265304979626
 20
10.25891056314208
 30
0.0
 11
12.21254219069055
 21
11.60902142224776
 31
0.0
  0
LINE
  5
2B04
330
2A85
100
AcDbEntity
  8
0
 62
     0
100
AcDbLine
 10
18.857433918173
 20
4.964129694765347
 30
0.0
 11
14.92110639749128
 21
8.900457215447062
 31
0.0
  0
LINE
  5
2B05
330
2A85
100
AcDbEntity
  8
0
 62
     0
100
AcDbLine
 10
16.48986085866209
 20
6.882689948222804
 30
0.0
 11
14.92110639749128
 21
8.451444409393616
 31
0.0
  0
LINE
  5
2B06
330
2A85
100
AcDbEntity
  8
0
 62
     0
100
AcDbLine
 10
13.14755062996104
 20
10.22500017692382
 30
0.0
 11
11.84352065589692
 21
11.52903015098797
 31
0.0
  0
LINE
  5
2B07
330
2A85
100
AcDbEntity
  8
0
 62
     0
100
AcDbLine
 10
19.06467059789
 20
4.307880208994902
 30
0.0
 11
17.01851675173605
 21
6.354034055148815
 31
0.0
  0
LINE
  5
2B08
330
2A85
100
AcDbEntity
  8
0
 62
     0
100
AcDbLine
 10
16.32110639749132
 20
6.602431603340136
 30
0.0
 11
14.92110639749128
 21
8.00243160334017
 31
0.0
  0
LINE
  5
2B09
330
2A85
100
AcDbEntity
  8
0
 62
     0
100
AcDbLine
 10
12.69853782390754
 20
10.22500017692388
 30
0.0
 11
11.52415994798156
 21
11.39937805284986
 31
0.0
  0
LINE
  5
2B0A
330
2A85
100
AcDbEntity
  8
0
 62
     0
100
AcDbLine
 10
19.1821900267453
 20
3.741347974086124
 30
0.0
 11
17.22575343145303
 21
5.697784569378427
 31
0.0
  0
LINE
  5
2B0B
330
2A85
100
AcDbEntity
  8
0
 62
     0
100
AcDbLine
 10
16.32110639749129
 20
6.15341879728669
 30
0.0
 11
14.92110639749125
 21
7.553418797286695
 31
0.0
  0
LINE
  5
2B0C
330
2A85
100
AcDbEntity
  8
0
 62
     0
100
AcDbLine
 10
12.27698107263577
 20
10.1975441221422
 30
0.0
 11
11.24478546031429
 21
11.22973973446369
 31
0.0
  0
LINE
  5
2B0D
330
2A85
100
AcDbEntity
  8
0
 62
     0
100
AcDbLine
 10
18.89952501785413
 20
3.57500017692385
 30
0.0
 11
17.43299011117
 21
5.041535083607982
 31
0.0
  0
LINE
  5
2B0E
330
2A85
100
AcDbEntity
  8
0
 62
     0
100
AcDbLine
 10
16.32110639749129
 20
5.704405991233215
 30
0.0
 11
14.92110639749125
 21
7.10440599123325
 31
0.0
  0
LINE
  5
2B0F
330
2A85
100
AcDbEntity
  8
0
 62
     0
100
AcDbLine
 10
11.99105297621628
 20
10.03445941250822
 30
0.0
 11
11.00095785600839
 21
11.02455453271611
 31
0.0
  0
LINE
  5
2B10
330
2A85
100
AcDbEntity
  8
0
 62
     0
100
AcDbLine
 10
18.45051221180065
 20
3.57500017692385
 30
0.0
 11
17.64022679088702
 21
4.38528559783748
 31
0.0
  0
LINE
  5
2B11
330
2A85
100
AcDbEntity
  8
0
 62
     0
100
AcDbLine
 10
13.86382096389016
 20
7.712678618780927
 30
0.0
 11
13.10878483934828
 21
8.467714743322801
 31
0.0
  0
LINE
  5
2B12
330
2A85
100
AcDbEntity
  8
0
 62
     0
100
AcDbLine
 10
16.32110639749134
 20
5.255393185179741
 30
0.0
 11
14.92110639749128
 21
6.655393185179804
 31
0.0
  0
LINE
  5
2B13
330
2A85
100
AcDbEntity
  8
0
 62
     0
100
AcDbLine
 10
11.8129921911518
 20
9.763507391519283
 30
0.0
 11
10.79127484300278
 21
10.7852247396683
 31
0.0
  0
LINE
  5
2B14
330
2A85
100
AcDbEntity
  8
0
 62
     0
100
AcDbLine
 10
17.9763329036449
 20
3.600166679026187
 30
0.0
 11
17.85115581784924
 21
3.725343764821843
 31
0.0
  0
LINE
  5
2B15
330
2A85
100
AcDbEntity
  8
0
 62
     0
100
AcDbLine
 10
13.8205641338192
 20
7.306922642798411
 30
0.0
 11
12.70302886336577
 21
8.424457913251842
 31
0.0
  0
LINE
  5
2B16
330
2A85
100
AcDbEntity
  8
0
 62
     0
100
AcDbLine
 10
11.77110639749133
 20
9.356380379126278
 30
0.0
 11
10.61680533252195
 21
10.51068144409566
 31
0.0
  0
LINE
  5
2B17
330
2A85
100
AcDbEntity
  8
0
 62
     0
100
AcDbLine
 10
16.32110639749132
 20
4.806380379126267
 30
0.0
 11
14.92110639749125
 21
6.206380379126358
 31
0.0
  0
LINE
  5
2B18
330
2A85
100
AcDbEntity
  8
0
 62
     0
100
AcDbLine
 10
13.65463635417017
 20
7.023837616393933
 30
0.0
 11
12.41994383696129
 21
8.258530133602818
 31
0.0
  0
LINE
  5
2B19
330
2A85
100
AcDbEntity
  8
0
 62
     0
100
AcDbLine
 10
11.77110639749133
 20
8.907367573072804
 30
0.0
 11
10.48151547891686
 21
10.19695849164728
 31
0.0
  0
LINE
  5
2B1A
330
2A85
100
AcDbEntity
  8
0
 62
     0
100
AcDbLine
 10
16.32110639749132
 20
4.357367573072821
 30
0.0
 11
14.92110639749128
 21
5.757367573072855
 31
0.0
  0
LINE
  5
2B1B
330
2A85
100
AcDbEntity
  8
0
 62
     0
100
AcDbLine
 10
11.77110639749133
 20
8.458354767019358
 30
0.0
 11
10.39415854245393
 21
9.835302622056786
 31
0.0
  0
LINE
  5
2B1C
330
2A85
100
AcDbEntity
  8
0
 62
     0
100
AcDbLine
 10
13.40371963310195
 20
6.825741531408766
 30
0.0
 11
12.22184775197612
 21
8.007613412534595
 31
0.0
  0
LINE
  5
2B1D
330
2A85
100
AcDbEntity
  8
0
 62
     0
100
AcDbLine
 10
9.058606397491303
 20
11.17085476701942
 30
0.0
 11
8.604460987586804
 21
11.62500017692391
 31
0.0
  0
LINE
  5
2B1E
330
2A85
100
AcDbEntity
  8
0
 62
     0
100
AcDbLine
 10
16.32110639749134
 20
3.908354767019375
 30
0.0
 11
14.92110639749131
 21
5.308354767019409
 31
0.0
  0
LINE
  5
2B1F
330
2A85
100
AcDbEntity
  8
0
 62
     0
100
AcDbLine
 10
11.77110639749133
 20
8.009341960965912
 30
0.0
 11
10.3711063974913
 21
9.409341960965946
 31
0.0
  0
LINE
  5
2B20
330
2A85
100
AcDbEntity
  8
0
 62
     0
100
AcDbLine
 10
13.05355991188824
 20
6.726888446569006
 30
0.0
 11
12.12299466713636
 21
7.657453691320881
 31
0.0
  0
LINE
  5
2B21
330
2A85
100
AcDbEntity
  8
0
 62
     0
100
AcDbLine
 10
9.058606397491274
 20
10.72184196096594
 30
0.0
 11
8.15544818153333
 21
11.62500017692389
 31
0.0
  0
LINE
  5
2B22
330
2A85
100
AcDbEntity
  8
0
 62
     0
100
AcDbLine
 10
16.17715449685599
 20
3.603293861601258
 30
0.0
 11
14.92110639749128
 21
4.859341960965934
 31
0.0
  0
LINE
  5
2B23
330
2A85
100
AcDbEntity
  8
0
 62
     0
100
AcDbLine
 10
11.77110639749133
 20
7.560329154912437
 30
0.0
 11
10.3711063974913
 21
8.960329154912471
 31
0.0
  0
LINE
  5
2B24
330
2A85
100
AcDbEntity
  8
0
 62
     0
100
AcDbLine
 10
9.004089412356108
 20
10.32734614004766
 30
0.0
 11
7.706435375479827
 21
11.62500017692391
 31
0.0
  0
LINE
  5
2B25
330
2A85
100
AcDbEntity
  8
0
 62
     0
100
AcDbLine
 10
15.75643537547989
 20
3.575000176923879
 30
0.0
 11
14.92110639749128
 21
4.410329154912489
 31
0.0
  0
LINE
  5
2B26
330
2A85
100
AcDbEntity
  8
0
 62
     0
100
AcDbLine
 10
11.7711063974913
 20
7.111316348858991
 30
0.0
 11
10.37110639749127
 21
8.511316348858997
 31
0.0
  0
LINE
  5
2B27
330
2A85
100
AcDbEntity
  8
0
 62
     0
100
AcDbLine
 10
8.657422569426415
 20
10.22500017692388
 30
0.0
 11
7.257422569426381
 21
11.62500017692391
 31
0.0
  0
LINE
  5
2B28
330
2A85
100
AcDbEntity
  8
0
 62
     0
100
AcDbLine
 10
15.30742256942642
 20
3.57500017692385
 30
0.0
 11
14.92110639749128
 21
3.961316348859014
 31
0.0
  0
LINE
  5
2B29
330
2A85
100
AcDbEntity
  8
0
 62
     0
100
AcDbLine
 10
11.77110639749133
 20
6.662303542805545
 30
0.0
 11
10.3711063974913
 21
8.06230354280558
 31
0.0
  0
LINE
  5
2B2A
330
2A85
100
AcDbEntity
  8
0
 62
     0
100
AcDbLine
 10
8.208409763372969
 20
10.22500017692391
 30
0.0
 11
6.825845127320548
 21
11.60756481297633
 31
0.0
  0
LINE
  5
2B2B
330
2A85
100
AcDbEntity
  8
0
 62
     0
100
AcDbLine
 10
13.69480517307283
 20
4.738604767224018
 30
0.0
 11
13.45971098779148
 21
4.973698952505401
 31
0.0
  0
LINE
  5
2B2C
330
2A85
100
AcDbEntity
  8
0
 62
     0
100
AcDbLine
 10
11.7711063974913
 20
6.213290736752071
 30
0.0
 11
10.3711063974913
 21
7.613290736752105
 31
0.0
  0
LINE
  5
2B2D
330
2A85
100
AcDbEntity
  8
0
 62
     0
100
AcDbLine
 10
7.759396957319495
 20
10.22500017692388
 30
0.0
 11
6.47927772308131
 21
11.50511941116209
 31
0.0
  0
LINE
  5
2B2E
330
2A85
100
AcDbEntity
  8
0
 62
     0
100
AcDbLine
 10
13.69610639749134
 20
4.28829073675206
 30
0.0
 11
13.00939695731952
 21
4.975000176923884
 31
0.0
  0
LINE
  5
2B2F
330
2A85
100
AcDbEntity
  8
0
 62
     0
100
AcDbLine
 10
11.7711063974913
 20
5.764277930698625
 30
0.0
 11
10.37110639749133
 21
7.164277930698602
 31
0.0
  0
LINE
  5
2B30
330
2A85
100
AcDbEntity
  8
0
 62
     0
100
AcDbLine
 10
7.310384151266077
 20
10.22500017692382
 30
0.0
 11
6.197154393157688
 21
11.33822993503221
 31
0.0
  0
LINE
  5
2B31
330
2A85
100
AcDbEntity
  8
0
 62
     0
100
AcDbLine
 10
13.69610639749132
 20
3.839277930698585
 30
0.0
 11
12.56038415126607
 21
4.975000176923828
 31
0.0
  0
LINE
  5
2B32
330
2A85
100
AcDbEntity
  8
0
 62
     0
100
AcDbLine
 10
7.055237737458782
 20
10.03113378467773
 30
0.0
 11
5.968107987037313
 21
11.1182635350992
 31
0.0
  0
LINE
  5
2B33
330
2A85
100
AcDbEntity
  8
0
 62
     0
100
AcDbLine
 10
13.50224000524514
 20
3.584131516891375
 30
0.0
 11
10.37110639749133
 21
6.715265124645185
 31
0.0
  0
LINE
  5
2B34
330
2A85
100
AcDbEntity
  8
0
 62
     0
100
AcDbLine
 10
7.046106397491314
 20
9.591252318591727
 30
0.0
 11
5.791367385802772
 21
10.84599133028027
 31
0.0
  0
LINE
  5
2B35
330
2A85
100
AcDbEntity
  8
0
 62
     0
100
AcDbLine
 10
13.06235853915919
 20
3.57500017692385
 30
0.0
 11
10.37110639749133
 21
6.26625231859171
 31
0.0
  0
LINE
  5
2B36
330
2A85
100
AcDbEntity
  8
0
 62
     0
100
AcDbLine
 10
7.077174251559029
 20
9.11117165847051
 30
0.0
 11
5.675927334655909
 21
10.51241857537365
 31
0.0
  0
LINE
  5
2B37
330
2A85
100
AcDbEntity
  8
0
 62
     0
100
AcDbLine
 10
12.61334573310568
 20
3.575000176923879
 30
0.0
 11
10.3711063974913
 21
5.817239512538236
 31
0.0
  0
LINE
  5
2B38
330
2A85
100
AcDbEntity
  8
0
 62
     0
100
AcDbLine
 10
9.223294443102645
 20
6.516038660873476
 30
0.0
 11
5.646106397491337
 21
10.09322670648478
 31
0.0
  0
LINE
  5
2B39
330
2A85
100
AcDbEntity
  8
0
 62
     0
100
AcDbLine
 10
12.13769688352391
 20
3.601636220452206
 30
0.0
 11
10.39774244101963
 21
5.341590662956491
 31
0.0
  0
LINE
  5
2B3A
330
2A85
100
AcDbEntity
  8
0
 62
     0
100
AcDbLine
 10
9.319241700145255
 20
5.97107859777742
 30
0.0
 11
5.64610639749128
 21
9.644213900431395
 31
0.0
  0
LINE
  5
2B3B
330
2A85
100
AcDbEntity
  8
0
 62
     0
100
AcDbLine
 10
11.45079292722311
 20
3.839527370699528
 30
0.0
 11
10.63563359126692
 21
4.654686706655752
 31
0.0
  0
LINE
  5
2B3C
330
2A85
100
AcDbEntity
  8
0
 62
     0
100
AcDbLine
 10
9.321106397491348
 20
5.520201094377853
 30
0.0
 11
5.649888621202478
 21
9.191418870666694
 31
0.0
  0
LINE
  5
2B3D
330
2A85
100
AcDbEntity
  8
0
 62
     0
100
AcDbLine
 10
9.321106397491291
 20
5.071188288324435
 30
0.0
 11
5.761534000364406
 21
8.630760685451292
 31
0.0
  0
LINE
  5
2B3E
330
2A85
100
AcDbEntity
  8
0
 62
     0
100
AcDbLine
 10
9.284846399425333
 20
4.658435480336976
 30
0.0
 11
7.903150577615804
 21
6.040131302146505
 31
0.0
  0
LINE
  5
2B3F
330
2A85
100
AcDbEntity
  8
0
 62
     0
100
AcDbLine
 10
9.163877429910911
 20
4.330391643797923
 30
0.0
 11
7.921106397491286
 21
5.573162676217549
 31
0.0
  0
LINE
  5
2B40
330
2A85
100
AcDbEntity
  8
0
 62
     0
100
AcDbLine
 10
8.982817806220026
 20
4.062438461435334
 30
0.0
 11
7.903156881340947
 21
5.142099386314413
 31
0.0
  0
LINE
  5
2B41
330
2A85
100
AcDbEntity
  8
0
 62
     0
100
AcDbLine
 10
8.749704620086589
 20
3.846538841515325
 30
0.0
 11
7.62124328467803
 21
4.975000176923913
 31
0.0
  0
LINE
  5
2B42
330
2A85
100
AcDbEntity
  8
0
 62
     0
100
AcDbLine
 10
8.463072396220184
 20
3.684158259328285
 30
0.0
 11
7.172230478624555
 21
4.975000176923884
 31
0.0
  0
LINE
  5
2B43
330
2A85
100
AcDbEntity
  8
0
 62
     0
100
AcDbLine
 10
8.110366101677215
 20
3.587851747817779
 30
0.0
 11
6.723217672571109
 21
4.975000176923884
 31
0.0
  0
LINE
  5
2B44
330
2A85
100
AcDbEntity
  8
0
 62
     0
100
AcDbLine
 10
7.674204866517641
 20
3.575000176923879
 30
0.0
 11
6.274204866517635
 21
4.975000176923884
 31
0.0
  0
LINE
  5
2B45
330
2A85
100
AcDbEntity
  8
0
 62
     0
100
AcDbLine
 10
7.225192060464223
 20
3.57500017692385
 30
0.0
 11
5.948530113055284
 21
4.851662124332818
 31
0.0
  0
LINE
  5
2B46
330
2A85
100
AcDbEntity
  8
0
 62
     0
100
AcDbLine
 10
6.77617925441072
 20
3.575000176923879
 30
0.0
 11
5.908606397491325
 21
4.442573033843274
 31
0.0
  0
LINE
  5
2B47
330
2A85
100
AcDbEntity
  8
0
 62
     0
100
AcDbLine
 10
6.327166448357303
 20
3.57500017692385
 30
0.0
 11
5.908606397491325
 21
3.993560227789828
 31
0.0
  0
LINE
  5
2B48
330
2A85
100
AcDbEntity
  8
0
 62
     0
100
AcDbLine
 10
34.31695003982477
 20
3.581566065482633
 30
0.0
 11
34.51454050893266
 21
3.779156534590526
 31
0.0
  0
LINE
  5
2B49
330
2A85
100
AcDbEntity
  8
0
 62
     0
100
AcDbLine
 10
33.86137134521254
 20
3.575000176923822
 30
0.0
 11
34.52110639749139
 21
4.234735229202669
 31
0.0
  0
LINE
  5
2B4A
330
2A85
100
AcDbEntity
  8
0
 62
     0
100
AcDbLine
 10
33.4123585391591
 20
3.575000176923822
 30
0.0
 11
34.52110639749139
 21
4.683748035256115
 31
0.0
  0
LINE
  5
2B4B
330
2A85
100
AcDbEntity
  8
0
 62
     0
100
AcDbLine
 10
33.13670517911722
 20
3.748359622935424
 30
0.0
 11
34.52110639749136
 21
5.13276084130959
 31
0.0
  0
LINE
  5
2B4C
330
2A85
100
AcDbEntity
  8
0
 62
     0
100
AcDbLine
 10
33.12110639749135
 20
4.18177364736303
 30
0.0
 11
34.52110639749136
 21
5.581773647363007
 31
0.0
  0
LINE
  5
2B4D
330
2A85
100
AcDbEntity
  8
0
 62
     0
100
AcDbLine
 10
33.12110639749139
 20
4.630786453416504
 30
0.0
 11
34.52110639749136
 21
6.030786453416482
 31
0.0
  0
LINE
  5
2B4E
330
2A85
100
AcDbEntity
  8
0
 62
     0
100
AcDbLine
 10
33.12110639749139
 20
5.07979925946995
 30
0.0
 11
34.52110639749136
 21
6.479799259469956
 31
0.0
  0
LINE
  5
2B4F
330
2A85
100
AcDbEntity
  8
0
 62
     0
100
AcDbLine
 10
33.12110639749135
 20
5.528812065523425
 30
0.0
 11
34.52110639749136
 21
6.928812065523402
 31
0.0
  0
LINE
  5
2B50
330
2A85
100
AcDbEntity
  8
0
 62
     0
100
AcDbLine
 10
31.33438882852397
 20
3.742094496556006
 30
0.0
 11
31.90401207785924
 21
4.311717745891314
 31
0.0
  0
LINE
  5
2B51
330
2A85
100
AcDbEntity
  8
0
 62
     0
100
AcDbLine
 10
33.12110639749139
 20
5.977824871576842
 30
0.0
 11
34.52110639749142
 21
7.377824871576876
 31
0.0
  0
LINE
  5
2B52
330
2A85
100
AcDbEntity
  8
0
 62
     0
100
AcDbLine
 10
30.71910474526257
 20
3.575823219348052
 30
0.0
 11
32.07028335506723
 21
4.927001829152686
 31
0.0
  0
LINE
  5
2B53
330
2A85
100
AcDbEntity
  8
0
 62
     0
100
AcDbLine
 10
33.12110639749135
 20
6.426837677630317
 30
0.0
 11
34.52110639749139
 21
7.826837677630351
 31
0.0
  0
LINE
  5
2B54
330
2A85
100
AcDbEntity
  8
0
 62
     0
100
AcDbLine
 10
30.26926889678486
 20
3.575000176923822
 30
0.0
 11
32.0711063974914
 21
5.376837677630362
 31
0.0
  0
LINE
  5
2B55
330
2A85
100
AcDbEntity
  8
0
 62
     0
100
AcDbLine
 10
33.12110639749135
 20
6.875850483683791
 30
0.0
 11
34.52110639749139
 21
8.275850483683797
 31
0.0
  0
LINE
  5
2B56
330
2A85
100
AcDbEntity
  8
0
 62
     0
100
AcDbLine
 10
29.82025609073142
 20
3.575000176923822
 30
0.0
 11
32.0711063974914
 21
5.825850483683808
 31
0.0
  0
LINE
  5
2B57
330
2A85
100
AcDbEntity
  8
0
 62
     0
100
AcDbLine
 10
33.12110639749139
 20
7.324863289737209
 30
0.0
 11
34.52110639749139
 21
8.724863289737243
 31
0.0
  0
LINE
  5
2B58
330
2A85
100
AcDbEntity
  8
0
 62
     0
100
AcDbLine
 10
29.371243284678
 20
3.57500017692385
 30
0.0
 11
32.0711063974914
 21
6.274863289737254
 31
0.0
  0
LINE
  5
2B59
330
2A85
100
AcDbEntity
  8
0
 62
     0
100
AcDbLine
 10
30.61881079645081
 20
5.271580494750139
 30
0.0
 11
32.0711063974914
 21
6.723876095790728
 31
0.0
  0
LINE
  5
2B5A
330
2A85
100
AcDbEntity
  8
0
 62
     0
100
AcDbLine
 10
33.12110639749135
 20
7.773876095790683
 30
0.0
 11
34.52110639749139
 21
9.173876095790717
 31
0.0
  0
LINE
  5
2B5B
330
2A85
100
AcDbEntity
  8
0
 62
     0
100
AcDbLine
 10
28.92223047862449
 20
3.575000176923822
 30
0.0
 11
30.37452607966506
 21
5.027295777964354
 31
0.0
  0
LINE
  5
2B5C
330
2A85
100
AcDbEntity
  8
0
 62
     0
100
AcDbLine
 10
30.67110639749131
 20
5.772888901844112
 30
0.0
 11
32.0711063974914
 21
7.172888901844174
 31
0.0
  0
LINE
  5
2B5D
330
2A85
100
AcDbEntity
  8
0
 62
     0
100
AcDbLine
 10
33.12110639749135
 20
8.222888901844129
 30
0.0
 11
34.52110639749139
 21
9.622888901844163
 31
0.0
  0
LINE
  5
2B5E
330
2A85
100
AcDbEntity
  8
0
 62
     0
100
AcDbLine
 10
28.52919254825966
 20
3.630975052612427
 30
0.0
 11
29.87321767257109
 21
4.975000176923856
 31
0.0
  0
LINE
  5
2B5F
330
2A85
100
AcDbEntity
  8
0
 62
     0
100
AcDbLine
 10
30.67110639749134
 20
6.221901707897615
 30
0.0
 11
32.07110639749137
 21
7.621901707897649
 31
0.0
  0
LINE
  5
2B60
330
2A85
100
AcDbEntity
  8
0
 62
     0
100
AcDbLine
 10
33.12110639749133
 20
8.671901707897603
 30
0.0
 11
34.52110639749136
 21
10.07190170789763
 31
0.0
  0
LINE
  5
2B61
330
2A85
100
AcDbEntity
  8
0
 62
     0
100
AcDbLine
 10
28.21519911465458
 20
3.765994425060853
 30
0.0
 11
29.4246437593398
 21
4.975439069746073
 31
0.0
  0
LINE
  5
2B62
330
2A85
100
AcDbEntity
  8
0
 62
     0
100
AcDbLine
 10
30.67110639749137
 20
6.670914513951061
 30
0.0
 11
32.0711063974914
 21
8.070914513951066
 31
0.0
  0
LINE
  5
2B63
330
2A85
100
AcDbEntity
  8
0
 62
     0
100
AcDbLine
 10
33.12110639749135
 20
9.120914513951049
 30
0.0
 11
34.52110639749139
 21
10.52091451395105
 31
0.0
  0
LINE
  5
2B64
330
2A85
100
AcDbEntity
  8
0
 62
     0
100
AcDbLine
 10
27.95856917397205
 20
3.958377290431712
 30
0.0
 11
29.10290446498345
 21
5.102712581443142
 31
0.0
  0
LINE
  5
2B65
330
2A85
100
AcDbEntity
  8
0
 62
     0
100
AcDbLine
 10
30.67110639749137
 20
7.119927320004507
 30
0.0
 11
32.07110639749137
 21
8.519927320004541
 31
0.0
  0
LINE
  5
2B66
330
2A85
100
AcDbEntity
  8
0
 62
     0
100
AcDbLine
 10
33.12110639749139
 20
9.569927320004552
 30
0.0
 11
34.52110639749142
 21
10.96992732000455
 31
0.0
  0
LINE
  5
2B67
330
2A85
100
AcDbEntity
  8
0
 62
     0
100
AcDbLine
 10
27.75358708635948
 20
4.202408008872623
 30
0.0
 11
28.93428532577874
 21
5.383106248291909
 31
0.0
  0
LINE
  5
2B68
330
2A85
100
AcDbEntity
  8
0
 62
     0
100
AcDbLine
 10
30.67110639749134
 20
7.568940126057981
 30
0.0
 11
32.07110639749137
 21
8.968940126058015
 31
0.0
  0
LINE
  5
2B69
330
2A85
100
AcDbEntity
  8
0
 62
     0
100
AcDbLine
 10
33.12110639749139
 20
10.01894012605799
 30
0.0
 11
34.51603182071611
 21
11.41386554928274
 31
0.0
  0
LINE
  5
2B6A
330
2A85
100
AcDbEntity
  8
0
 62
     0
100
AcDbLine
 10
27.60362464714248
 20
4.50145837570912
 30
0.0
 11
28.92110639749134
 21
5.818940126057952
 31
0.0
  0
LINE
  5
2B6B
330
2A85
100
AcDbEntity
  8
0
 62
     0
100
AcDbLine
 10
30.67110639749137
 20
8.017952932111398
 30
0.0
 11
32.0711063974914
 21
9.417952932111433
 31
0.0
  0
LINE
  5
2B6C
330
2A85
100
AcDbEntity
  8
0
 62
     0
100
AcDbLine
 10
33.12110639749139
 20
10.46795293211144
 30
0.0
 11
34.27747464817636
 21
11.62432118279642
 31
0.0
  0
LINE
  5
2B6D
330
2A85
100
AcDbEntity
  8
0
 62
     0
100
AcDbLine
 10
27.52491787966425
 20
4.871764414284314
 30
0.0
 11
28.92110639749134
 21
6.267952932111398
 31
0.0
  0
LINE
  5
2B6E
330
2A85
100
AcDbEntity
  8
0
 62
     0
100
AcDbLine
 10
30.67110639749134
 20
8.466965738164873
 30
0.0
 11
32.07110639749137
 21
9.866965738164907
 31
0.0
  0
LINE
  5
2B6F
330
2A85
100
AcDbEntity
  8
0
 62
     0
100
AcDbLine
 10
33.12110639749139
 20
10.91696573816488
 30
0.0
 11
33.82914083625033
 21
11.62500017692386
 31
0.0
  0
LINE
  5
2B70
330
2A85
100
AcDbEntity
  8
0
 62
     0
100
AcDbLine
 10
27.52110639749136
 20
5.316965738164867
 30
0.0
 11
28.92110639749137
 21
6.716965738164901
 31
0.0
  0
LINE
  5
2B71
330
2A85
100
AcDbEntity
  8
0
 62
     0
100
AcDbLine
 10
30.67110639749134
 20
8.915978544218347
 30
0.0
 11
32.07110639749137
 21
10.31597854421835
 31
0.0
  0
LINE
  5
2B72
330
2A85
100
AcDbEntity
  8
0
 62
     0
100
AcDbLine
 10
27.52110639749133
 20
5.765978544218341
 30
0.0
 11
28.92110639749137
 21
7.165978544218376
 31
0.0
  0
LINE
  5
2B73
330
2A85
100
AcDbEntity
  8
0
 62
     0
100
AcDbLine
 10
33.12112975486505
 20
11.36600190159205
 30
0.0
 11
33.38010467282319
 21
11.62497681955017
 31
0.0
  0
LINE
  5
2B74
330
2A85
100
AcDbEntity
  8
0
 62
     0
100
AcDbLine
 10
25.36032858213534
 20
3.605200728862314
 30
0.0
 11
26.44090584555292
 21
4.685777992279923
 31
0.0
  0
LINE
  5
2B75
330
2A85
100
AcDbEntity
  8
0
 62
     0
100
AcDbLine
 10
27.52110639749133
 20
6.214991350271787
 30
0.0
 11
28.92110639749137
 21
7.614991350271822
 31
0.0
  0
LINE
  5
2B76
330
2A85
100
AcDbEntity
  8
0
 62
     0
100
AcDbLine
 10
30.67110639749134
 20
9.364991350271793
 30
0.0
 11
32.07110639749135
 21
10.76499135027182
 31
0.0
  0
LINE
  5
2B77
330
2A85
100
AcDbEntity
  8
0
 62
     0
100
AcDbLine
 10
24.88111522414337
 20
3.575000176923822
 30
0.0
 11
26.47110639749132
 21
5.164991350271805
 31
0.0
  0
LINE
  5
2B78
330
2A85
100
AcDbEntity
  8
0
 62
     0
100
AcDbLine
 10
27.52110639749133
 20
6.664004156325233
 30
0.0
 11
28.92110639749137
 21
8.064004156325268
 31
0.0
  0
LINE
  5
2B79
330
2A85
100
AcDbEntity
  8
0
 62
     0
100
AcDbLine
 10
30.67110639749134
 20
9.814004156325239
 30
0.0
 11
32.07110639749137
 21
11.21400415632527
 31
0.0
  0
LINE
  5
2B7A
330
2A85
100
AcDbEntity
  8
0
 62
     0
100
AcDbLine
 10
24.43210241808992
 20
3.575000176923822
 30
0.0
 11
26.47110639749135
 21
5.614004156325222
 31
0.0
  0
LINE
  5
2B7B
330
2A85
100
AcDbEntity
  8
0
 62
     0
100
AcDbLine
 10
27.52110639749133
 20
7.113016962378708
 30
0.0
 11
28.92110639749137
 21
8.513016962378713
 31
0.0
  0
LINE
  5
2B7C
330
2A85
100
AcDbEntity
  8
0
 62
     0
100
AcDbLine
 10
30.67110639749134
 20
10.26301696237868
 30
0.0
 11
31.9742376700743
 21
11.56614823496167
 31
0.0
  0
LINE
  5
2B7D
330
2A85
100
AcDbEntity
  8
0
 62
     0
100
AcDbLine
 10
23.98308961203645
 20
3.575000176923822
 30
0.0
 11
26.46394709728486
 21
6.055857662172229
 31
0.0
  0
LINE
  5
2B7E
330
2A85
100
AcDbEntity
  8
0
 62
     0
100
AcDbLine
 10
27.52110639749136
 20
7.562029768432211
 30
0.0
 11
28.92110639749134
 21
8.962029768432188
 31
0.0
  0
LINE
  5
2B7F
330
2A85
100
AcDbEntity
  8
0
 62
     0
100
AcDbLine
 10
30.67110639749131
 20
10.71202976843216
 30
0.0
 11
31.58407680598301
 21
11.62500017692386
 31
0.0
  0
LINE
  5
2B80
330
2A85
100
AcDbEntity
  8
0
 62
     0
100
AcDbLine
 10
23.534076805983
 20
3.57500017692385
 30
0.0
 11
26.39649091197048
 21
6.437414282911305
 31
0.0
  0
LINE
  5
2B81
330
2A85
100
AcDbEntity
  8
0
 62
     0
100
AcDbLine
 10
27.52110639749139
 20
8.011042574485628
 30
0.0
 11
28.92110639749137
 21
9.411042574485634
 31
0.0
  0
LINE
  5
2B82
330
2A85
100
AcDbEntity
  8
0
 62
     0
100
AcDbLine
 10
25.0711063974914
 20
5.561042574485639
 30
0.0
 11
26.27619718351121
 21
6.766133360505449
 31
0.0
  0
LINE
  5
2B83
330
2A85
100
AcDbEntity
  8
0
 62
     0
100
AcDbLine
 10
30.67110639749134
 20
11.1610425744856
 30
0.0
 11
31.13506399992957
 21
11.62500017692383
 31
0.0
  0
LINE
  5
2B84
330
2A85
100
AcDbEntity
  8
0
 62
     0
100
AcDbLine
 10
23.14919167649514
 20
3.639127853489412
 30
0.0
 11
24.48506399992959
 21
4.975000176923856
 31
0.0
  0
LINE
  5
2B85
330
2A85
100
AcDbEntity
  8
0
 62
     0
100
AcDbLine
 10
25.0611711099277
 20
6.000120092975407
 30
0.0
 11
26.11444753108094
 21
7.05339651412865
 31
0.0
  0
LINE
  5
2B86
330
2A85
100
AcDbEntity
  8
0
 62
     0
100
AcDbLine
 10
27.52110639749136
 20
8.460055380539102
 30
0.0
 11
28.92110639749134
 21
9.86005538053908
 31
0.0
  0
LINE
  5
2B87
330
2A85
100
AcDbEntity
  8
0
 62
     0
100
AcDbLine
 10
23.05860639749135
 20
3.997555380539068
 30
0.0
 11
24.03605119387612
 21
4.975000176923856
 31
0.0
  0
LINE
  5
2B88
330
2A85
100
AcDbEntity
  8
0
 62
     0
100
AcDbLine
 10
24.92397869135825
 20
6.311940480459469
 30
0.0
 11
25.91651197211703
 21
7.304473761218247
 31
0.0
  0
LINE
  5
2B89
330
2A85
100
AcDbEntity
  8
0
 62
     0
100
AcDbLine
 10
27.52110639749136
 20
8.909068186592548
 30
0.0
 11
28.92110639749134
 21
10.30906818659255
 31
0.0
  0
LINE
  5
2B8A
330
2A85
100
AcDbEntity
  8
0
 62
     0
100
AcDbLine
 10
23.05860639749133
 20
4.446568186592543
 30
0.0
 11
23.58703838782267
 21
4.975000176923884
 31
0.0
  0
LINE
  5
2B8B
330
2A85
100
AcDbEntity
  8
0
 62
     0
100
AcDbLine
 10
27.52110639749136
 20
9.358080992645994
 30
0.0
 11
28.92110639749137
 21
10.75808099264597
 31
0.0
  0
LINE
  5
2B8C
330
2A85
100
AcDbEntity
  8
0
 62
     0
100
AcDbLine
 10
24.70334124279972
 20
6.540315837954324
 30
0.0
 11
25.69329073646088
 21
7.530265331615481
 31
0.0
  0
LINE
  5
2B8D
330
2A85
100
AcDbEntity
  8
0
 62
     0
100
AcDbLine
 10
24.47883483977301
 20
6.764822240981118
 30
0.0
 11
25.46878433343417
 21
7.754771734642275
 31
0.0
  0
LINE
  5
2B8E
330
2A85
100
AcDbEntity
  8
0
 62
     0
100
AcDbLine
 10
27.52110639749136
 20
9.807093798699469
 30
0.0
 11
28.92110639749134
 21
11.20709379869944
 31
0.0
  0
LINE
  5
2B8F
330
2A85
100
AcDbEntity
  8
0
 62
     0
100
AcDbLine
 10
21.28901277571574
 20
3.57500017692385
 30
0.0
 11
21.74610639749138
 21
4.032093798699492
 31
0.0
  0
LINE
  5
2B90
330
2A85
100
AcDbEntity
  8
0
 62
     0
100
AcDbLine
 10
24.25432843674627
 20
6.989328644007855
 30
0.0
 11
25.24427793040743
 21
7.979278137669012
 31
0.0
  0
LINE
  5
2B91
330
2A85
100
AcDbEntity
  8
0
 62
     0
100
AcDbLine
 10
27.52110639749133
 20
10.25610660475291
 30
0.0
 11
28.82801594344201
 21
11.56301615070356
 31
0.0
  0
LINE
  5
2B92
330
2A85
100
AcDbEntity
  8
0
 62
     0
100
AcDbLine
 10
20.83999996966227
 20
3.57500017692385
 30
0.0
 11
21.74610639749138
 21
4.481106604752966
 31
0.0
  0
LINE
  5
2B93
330
2A85
100
AcDbEntity
  8
0
 62
     0
100
AcDbLine
 10
24.02982203371954
 20
7.213835047034592
 30
0.0
 11
25.01977152738069
 21
8.20378454069575
 31
0.0
  0
LINE
  5
2B94
330
2A85
100
AcDbEntity
  8
0
 62
     0
100
AcDbLine
 10
27.52110639749133
 20
10.70511941080638
 30
0.0
 11
28.44098716360884
 21
11.62500017692389
 31
0.0
  0
LINE
  5
2B95
330
2A85
100
AcDbEntity
  8
0
 62
     0
100
AcDbLine
 10
20.44679273253982
 20
3.630805745854843
 30
0.0
 11
21.74610639749138
 21
4.930119410806412
 31
0.0
  0
LINE
  5
2B96
330
2A85
100
AcDbEntity
  8
0
 62
     0
100
AcDbLine
 10
23.80531563069283
 20
7.438341450061301
 30
0.0
 11
24.79526512435398
 21
8.428290943722458
 31
0.0
  0
LINE
  5
2B97
330
2A85
100
AcDbEntity
  8
0
 62
     0
100
AcDbLine
 10
27.52110639749139
 20
11.15413221685986
 30
0.0
 11
27.99197435755536
 21
11.62500017692383
 31
0.0
  0
LINE
  5
2B98
330
2A85
100
AcDbEntity
  8
0
 62
     0
100
AcDbLine
 10
20.34610639749135
 20
3.979132216859824
 30
0.0
 11
21.74610639749138
 21
5.379132216859858
 31
0.0
  0
LINE
  5
2B99
330
2A85
100
AcDbEntity
  8
0
 62
     0
100
AcDbLine
 10
23.58080922766606
 20
7.662847853087981
 30
0.0
 11
24.57075872132725
 21
8.652797346749196
 31
0.0
  0
LINE
  5
2B9A
330
2A85
100
AcDbEntity
  8
0
 62
     0
100
AcDbLine
 10
20.34610639749135
 20
4.428145022913298
 30
0.0
 11
21.74610639749138
 21
5.828145022913304
 31
0.0
  0
LINE
  5
2B9B
330
2A85
100
AcDbEntity
  8
0
 62
     0
100
AcDbLine
 10
23.35731727714539
 20
7.888368708620816
 30
0.0
 11
24.34930404383641
 21
8.880355475311802
 31
0.0
  0
LINE
  5
2B9C
330
2A85
100
AcDbEntity
  8
0
 62
     0
100
AcDbLine
 10
20.34610639749135
 20
4.877157828966744
 30
0.0
 11
21.74610639749136
 21
6.277157828966778
 31
0.0
  0
LINE
  5
2B9D
330
2A85
100
AcDbEntity
  8
0
 62
     0
100
AcDbLine
 10
25.69394874544844
 20
10.22500017692385
 30
0.0
 11
26.20860639749136
 21
10.73965782896675
 31
0.0
  0
LINE
  5
2B9E
330
2A85
100
AcDbEntity
  8
0
 62
     0
100
AcDbLine
 10
19.09977828513623
 20
3.630829716611629
 30
0.0
 11
19.14460446586375
 21
3.675655897339169
 31
0.0
  0
LINE
  5
2B9F
330
2A85
100
AcDbEntity
  8
0
 62
     0
100
AcDbLine
 10
23.15831618773441
 20
8.13838042526325
 30
0.0
 11
24.20813332644371
 21
9.188197563972551
 31
0.0
  0
LINE
  5
2BA0
330
2A85
100
AcDbEntity
  8
0
 62
     0
100
AcDbLine
 10
20.34610639749135
 20
5.32617063502019
 30
0.0
 11
21.74610639749138
 21
6.726170635020224
 31
0.0
  0
LINE
  5
2BA1
330
2A85
100
AcDbEntity
  8
0
 62
     0
100
AcDbLine
 10
25.24493593939502
 20
10.22500017692382
 30
0.0
 11
26.20860639749136
 21
11.1886706350202
 31
0.0
  0
LINE
  5
2BA2
330
2A85
100
AcDbEntity
  8
0
 62
     0
100
AcDbLine
 10
18.59493593939498
 20
3.575000176923822
 30
0.0
 11
19.12782548754828
 21
4.107889725077114
 31
0.0
  0
LINE
  5
2BA3
330
2A85
100
AcDbEntity
  8
0
 62
     0
100
AcDbLine
 10
22.99539905553606
 20
8.424476099118379
 30
0.0
 11
24.1961063974914
 21
9.625183441073716
 31
0.0
  0
LINE
  5
2BA4
330
2A85
100
AcDbEntity
  8
0
 62
     0
100
AcDbLine
 10
20.34610639749135
 20
5.775183441073636
 30
0.0
 11
21.74610639749138
 21
7.17518344107367
 31
0.0
  0
LINE
  5
2BA5
330
2A85
100
AcDbEntity
  8
0
 62
     0
100
AcDbLine
 10
24.79592313334154
 20
10.22500017692385
 30
0.0
 11
26.12527193159241
 21
11.55434897517471
 31
0.0
  0
LINE
  5
2BA6
330
2A85
100
AcDbEntity
  8
0
 62
     0
100
AcDbLine
 10
18.14592313334151
 20
3.575000176923822
 30
0.0
 11
19.02006241409543
 21
4.449139457677745
 31
0.0
  0
LINE
  5
2BA7
330
2A85
100
AcDbEntity
  8
0
 62
     0
100
AcDbLine
 10
20.34610639749132
 20
6.22419624712711
 30
0.0
 11
21.74610639749136
 21
7.624196247127144
 31
0.0
  0
LINE
  5
2BA8
330
2A85
100
AcDbEntity
  8
0
 62
     0
100
AcDbLine
 10
22.87370802420102
 20
8.751797873836807
 30
0.0
 11
25.74691032728807
 21
11.62500017692386
 31
0.0
  0
LINE
  5
2BA9
330
2A85
100
AcDbEntity
  8
0
 62
     0
100
AcDbLine
 10
17.84991597801402
 20
3.728005827649809
 30
0.0
 11
18.91229934064259
 21
4.790389190278375
 31
0.0
  0
LINE
  5
2BAA
330
2A85
100
AcDbEntity
  8
0
 62
     0
100
AcDbLine
 10
20.34610639749132
 20
6.673209053180585
 30
0.0
 11
21.74610639749136
 21
8.07320905318059
 31
0.0
  0
LINE
  5
2BAB
330
2A85
100
AcDbEntity
  8
0
 62
     0
100
AcDbLine
 10
22.80435459465818
 20
9.131457250347438
 30
0.0
 11
25.2978975212346
 21
11.62500017692386
 31
0.0
  0
LINE
  5
2BAC
330
2A85
100
AcDbEntity
  8
0
 62
     0
100
AcDbLine
 10
17.74053626718972
 20
4.067638922878984
 30
0.0
 11
18.80453626718974
 21
5.131638922879005
 31
0.0
  0
LINE
  5
2BAD
330
2A85
100
AcDbEntity
  8
0
 62
     0
100
AcDbLine
 10
20.34610639749135
 20
7.122221859234002
 30
0.0
 11
21.74610639749136
 21
8.522221859234036
 31
0.0
  0
LINE
  5
2BAE
330
2A85
100
AcDbEntity
  8
0
 62
     0
100
AcDbLine
 10
22.79610639749137
 20
9.572221859234048
 30
0.0
 11
24.84888471518118
 21
11.62500017692383
 31
0.0
  0
LINE
  5
2BAF
330
2A85
100
AcDbEntity
  8
0
 62
     0
100
AcDbLine
 10
17.63277319373691
 20
4.408888655479586
 30
0.0
 11
18.69677319373698
 21
5.472888655479664
 31
0.0
  0
LINE
  5
2BB0
330
2A85
100
AcDbEntity
  8
0
 62
     0
100
AcDbLine
 10
20.34610639749138
 20
7.571234665287505
 30
0.0
 11
21.74610639749136
 21
8.971234665287511
 31
0.0
  0
LINE
  5
2BB1
330
2A85
100
AcDbEntity
  8
0
 62
     0
100
AcDbLine
 10
22.79610639749137
 20
10.02123466528749
 30
0.0
 11
24.39987190912771
 21
11.62500017692386
 31
0.0
  0
LINE
  5
2BB2
330
2A85
100
AcDbEntity
  8
0
 62
     0
100
AcDbLine
 10
17.52501012028406
 20
4.750138388080216
 30
0.0
 11
18.58901012028411
 21
5.814138388080237
 31
0.0
  0
LINE
  5
2BB3
330
2A85
100
AcDbEntity
  8
0
 62
     0
100
AcDbLine
 10
20.34610639749135
 20
8.020247471340979
 30
0.0
 11
21.74610639749136
 21
9.420247471340957
 31
0.0
  0
LINE
  5
2BB4
330
2A85
100
AcDbEntity
  8
0
 62
     0
100
AcDbLine
 10
17.41724704683122
 20
5.091388120680846
 30
0.0
 11
18.48124704683129
 21
6.155388120680925
 31
0.0
  0
LINE
  5
2BB5
330
2A85
100
AcDbEntity
  8
0
 62
     0
100
AcDbLine
 10
22.82276473255194
 20
10.49690580640157
 30
0.0
 11
23.9242007680136
 21
11.59834184186323
 31
0.0
  0
LINE
  5
2BB6
330
2A85
100
AcDbEntity
  8
0
 62
     0
100
AcDbLine
 10
15.90085910307422
 20
3.57500017692385
 30
0.0
 11
16.32110639749137
 21
3.995247471340974
 31
0.0
  0
LINE
  5
2BB7
330
2A85
100
AcDbEntity
  8
0
 62
     0
100
AcDbLine
 10
17.30948397337843
 20
5.432637853281448
 30
0.0
 11
18.37348397337845
 21
6.496637853281498
 31
0.0
  0
LINE
  5
2BB8
330
2A85
100
AcDbEntity
  8
0
 62
     0
100
AcDbLine
 10
20.34610639749138
 20
8.469260277394397
 30
0.0
 11
21.74610639749136
 21
9.869260277394403
 31
0.0
  0
LINE
  5
2BB9
330
2A85
100
AcDbEntity
  8
0
 62
     0
100
AcDbLine
 10
15.45184629702075
 20
3.575000176923794
 30
0.0
 11
16.32110639749137
 21
4.44426027739442
 31
0.0
  0
LINE
  5
2BBA
330
2A85
100
AcDbEntity
  8
0
 62
     0
100
AcDbLine
 10
17.20172089992558
 20
5.773887585882079
 30
0.0
 11
18.26572089992561
 21
6.837887585882128
 31
0.0
  0
LINE
  5
2BBB
330
2A85
100
AcDbEntity
  8
0
 62
     0
100
AcDbLine
 10
20.34610639749135
 20
8.918273083447871
 30
0.0
 11
21.74610639749136
 21
10.31827308344784
 31
0.0
  0
LINE
  5
2BBC
330
2A85
100
AcDbEntity
  8
0
 62
     0
100
AcDbLine
 10
15.04340836479298
 20
3.615575050749498
 30
0.0
 11
16.32110639749137
 21
4.893273083447894
 31
0.0
  0
LINE
  5
2BBD
330
2A85
100
AcDbEntity
  8
0
 62
     0
100
AcDbLine
 10
17.09395782647274
 20
6.115137318482709
 30
0.0
 11
18.15795782647276
 21
7.179137318482759
 31
0.0
  0
LINE
  5
2BBE
330
2A85
100
AcDbEntity
  8
0
 62
     0
100
AcDbLine
 10
20.34610639749135
 20
9.367285889501346
 30
0.0
 11
21.74610639749133
 21
10.76728588950132
 31
0.0
  0
LINE
  5
2BBF
330
2A85
100
AcDbEntity
  8
0
 62
     0
100
AcDbLine
 10
14.92110639749134
 20
3.942285889501306
 30
0.0
 11
16.32110639749137
 21
5.34228588950134
 31
0.0
  0
LINE
  5
2BC0
330
2A85
100
AcDbEntity
  8
0
 62
     0
100
AcDbLine
 10
16.98619475301995
 20
6.456387051083368
 30
0.0
 11
18.05019475302001
 21
7.520387051083389
 31
0.0
  0
LINE
  5
2BC1
330
2A85
100
AcDbEntity
  8
0
 62
     0
100
AcDbLine
 10
20.34610639749138
 20
9.816298695554763
 30
0.0
 11
21.74610639749138
 21
11.21629869555479
 31
0.0
  0
LINE
  5
2BC2
330
2A85
100
AcDbEntity
  8
0
 62
     0
100
AcDbLine
 10
14.92110639749134
 20
4.391298695554752
 30
0.0
 11
16.32110639749137
 21
5.791298695554786
 31
0.0
  0
LINE
  5
2BC3
330
2A85
100
AcDbEntity
  8
0
 62
     0
100
AcDbLine
 10
16.86879535953406
 20
6.788000463650945
 30
0.0
 11
18.18394239349956
 21
8.103147497616419
 31
0.0
  0
LINE
  5
2BC4
330
2A85
100
AcDbEntity
  8
0
 62
     0
100
AcDbLine
 10
20.34610639749135
 20
10.26531150160823
 30
0.0
 11
21.64796868624213
 21
11.56717379035899
 31
0.0
  0
LINE
  5
2BC5
330
2A85
100
AcDbEntity
  8
0
 62
     0
100
AcDbLine
 10
14.92110639749134
 20
4.840311501608226
 30
0.0
 11
16.32110639749137
 21
6.240311501608232
 31
0.0
  0
LINE
  5
2BC6
330
2A85
100
AcDbEntity
  8
0
 62
     0
100
AcDbLine
 10
16.52520267460036
 20
6.893420584770723
 30
0.0
 11
18.3911790732165
 21
8.759396983386864
 31
0.0
  0
LINE
  5
2BC7
330
2A85
100
AcDbEntity
  8
0
 62
     0
100
AcDbLine
 10
14.92110639749134
 20
5.289324307661672
 30
0.0
 11
16.32768598964449
 21
6.695903899814823
 31
0.0
  0
LINE
  5
2BC8
330
2A85
100
AcDbEntity
  8
0
 62
     0
100
AcDbLine
 10
20.34610639749135
 20
10.71432430766168
 30
0.0
 11
21.25678226675353
 21
11.62500017692389
 31
0.0
  0
LINE
  5
2BC9
330
2A85
100
AcDbEntity
  8
0
 62
     0
100
AcDbLine
 10
13.20678226675346
 20
3.575000176923822
 30
0.0
 11
13.6961063974914
 21
4.064324307661735
 31
0.0
  0
LINE
  5
2BCA
330
2A85
100
AcDbEntity
  8
0
 62
     0
100
AcDbLine
 10
14.92110639749137
 20
5.738337113715175
 30
0.0
 11
18.59841575293347
 21
9.415646469157309
 31
0.0
  0
LINE
  5
2BCB
330
2A85
100
AcDbEntity
  8
0
 62
     0
100
AcDbLine
 10
20.34610639749132
 20
11.16333711371515
 30
0.0
 11
20.80776946070002
 21
11.62500017692386
 31
0.0
  0
LINE
  5
2BCC
330
2A85
100
AcDbEntity
  8
0
 62
     0
100
AcDbLine
 10
12.75776946070001
 20
3.575000176923822
 30
0.0
 11
13.69610639749137
 21
4.513337113715209
 31
0.0
  0
LINE
  5
2BCD
330
2A85
100
AcDbEntity
  8
0
 62
     0
100
AcDbLine
 10
14.92110639749137
 20
6.187349919768621
 30
0.0
 11
18.80565243265053
 21
10.07189595492778
 31
0.0
  0
LINE
  5
2BCE
330
2A85
100
AcDbEntity
  8
0
 62
     0
100
AcDbLine
 10
12.31459696682165
 20
3.580840489098903
 30
0.0
 11
13.62543925568826
 21
4.891682777965485
 31
0.0
  0
LINE
  5
2BCF
330
2A85
100
AcDbEntity
  8
0
 62
     0
100
AcDbLine
 10
14.92110639749137
 20
6.636362725822067
 30
0.0
 11
16.58474384859315
 21
8.300000176923873
 31
0.0
  0
LINE
  5
2BD0
330
2A85
100
AcDbEntity
  8
0
 62
     0
100
AcDbLine
 10
16.96673526621359
 20
8.681991594544314
 30
0.0
 11
19.01288911236753
 21
10.72814544069825
 31
0.0
  0
LINE
  5
2BD1
330
2A85
100
AcDbEntity
  8
0
 62
     0
100
AcDbLine
 10
11.93051670809816
 20
3.645773036428863
 30
0.0
 11
13.2597438485931
 21
4.975000176923828
 31
0.0
  0
LINE
  5
2BD2
330
2A85
100
AcDbEntity
  8
0
 62
     0
100
AcDbLine
 10
14.92110639749134
 20
7.085375531875541
 30
0.0
 11
16.33010168284548
 21
8.494370817229651
 31
0.0
  0
LINE
  5
2BD3
330
2A85
100
AcDbEntity
  8
0
 62
     0
100
AcDbLine
 10
17.17397194593056
 20
9.33824108031473
 30
0.0
 11
19.20042483826816
 21
11.36469397265236
 31
0.0
  0
LINE
  5
2BD4
330
2A85
100
AcDbEntity
  8
0
 62
     0
100
AcDbLine
 10
11.59994957968496
 20
3.764218714069158
 30
0.0
 11
12.81073104253962
 21
4.975000176923828
 31
0.0
  0
LINE
  5
2BD5
330
2A85
100
AcDbEntity
  8
0
 62
     0
100
AcDbLine
 10
14.92110639749137
 20
7.534388337928987
 30
0.0
 11
16.3211063974914
 21
8.934388337928993
 31
0.0
  0
LINE
  5
2BD6
330
2A85
100
AcDbEntity
  8
0
 62
     0
100
AcDbLine
 10
17.38120862564758
 20
9.994490566085175
 30
0.0
 11
19.00341890198356
 21
11.61670084242118
 31
0.0
  0
LINE
  5
2BD7
330
2A85
100
AcDbEntity
  8
0
 62
     0
100
AcDbLine
 10
11.31114793760281
 20
3.924429878040399
 30
0.0
 11
12.36917886684923
 21
4.982460807286855
 31
0.0
  0
LINE
  5
2BD8
330
2A85
100
AcDbEntity
  8
0
 62
     0
100
AcDbLine
 10
14.92110639749137
 20
7.983401143982433
 30
0.0
 11
16.32110639749137
 21
9.383401143982467
 31
0.0
  0
LINE
  5
2BD9
330
2A85
100
AcDbEntity
  8
0
 62
     0
100
AcDbLine
 10
17.58844530536453
 20
10.65074005185562
 30
0.0
 11
18.56270543043277
 21
11.62500017692386
 31
0.0
  0
LINE
  5
2BDA
330
2A85
100
AcDbEntity
  8
0
 62
     0
100
AcDbLine
 10
11.05867045441178
 20
4.120965200902844
 30
0.0
 11
12.05202079634008
 21
5.11431554283115
 31
0.0
  0
LINE
  5
2BDB
330
2A85
100
AcDbEntity
  8
0
 62
     0
100
AcDbLine
 10
14.92110639749134
 20
8.432413950035908
 30
0.0
 11
16.32110639749137
 21
9.832413950035942
 31
0.0
  0
LINE
  5
2BDC
330
2A85
100
AcDbEntity
  8
0
 62
     0
100
AcDbLine
 10
13.25192346337956
 20
6.763231015924134
 30
0.0
 11
13.83287555849111
 21
7.344183111035675
 31
0.0
  0
LINE
  5
2BDD
330
2A85
100
AcDbEntity
  8
0
 62
     0
100
AcDbLine
 10
17.79568198508153
 20
11.30698953762609
 30
0.0
 11
18.11369262437929
 21
11.62500017692386
 31
0.0
  0
LINE
  5
2BDE
330
2A85
100
AcDbEntity
  8
0
 62
     0
100
AcDbLine
 10
10.84045191774686
 20
4.351759470291426
 30
0.0
 11
11.84689532070399
 21
5.358202873248558
 31
0.0
  0
LINE
  5
2BDF
330
2A85
100
AcDbEntity
  8
0
 62
     0
100
AcDbLine
 10
12.78943704256465
 20
6.749757401162696
 30
0.0
 11
13.84634917325255
 21
7.806669531850559
 31
0.0
  0
LINE
  5
2BE0
330
2A85
100
AcDbEntity
  8
0
 62
     0
100
AcDbLine
 10
14.92110639749134
 20
8.881426756089354
 30
0.0
 11
16.32110639749137
 21
10.28142675608938
 31
0.0
  0
LINE
  5
2BE1
330
2A85
100
AcDbEntity
  8
0
 62
     0
100
AcDbLine
 10
10.65694230527537
 20
4.61726266387339
 30
0.0
 11
11.77110639749133
 21
5.731426756089376
 31
0.0
  0
LINE
  5
2BE2
330
2A85
100
AcDbEntity
  8
0
 62
     0
100
AcDbLine
 10
12.48236375785455
 20
6.891696922505985
 30
0.0
 11
13.70440965190923
 21
8.113742816560687
 31
0.0
  0
LINE
  5
2BE3
330
2A85
100
AcDbEntity
  8
0
 62
     0
100
AcDbLine
 10
14.92110639749134
 20
9.3304395621428
 30
0.0
 11
16.32110639749137
 21
10.73043956214283
 31
0.0
  0
LINE
  5
2BE4
330
2A85
100
AcDbEntity
  8
0
 62
     0
100
AcDbLine
 10
10.51128355031301
 20
4.920616714964467
 30
0.0
 11
11.77110639749133
 21
6.180439562142794
 31
0.0
  0
LINE
  5
2BE5
330
2A85
100
AcDbEntity
  8
0
 62
     0
100
AcDbLine
 10
12.26338379435969
 20
7.121729765064628
 30
0.0
 11
13.47437680935061
 21
8.332722780055519
 31
0.0
  0
LINE
  5
2BE6
330
2A85
100
AcDbEntity
  8
0
 62
     0
100
AcDbLine
 10
14.92110639749134
 20
9.779452368196274
 30
0.0
 11
16.32110639749137
 21
11.17945236819628
 31
0.0
  0
LINE
  5
2BE7
330
2A85
100
AcDbEntity
  8
0
 62
     0
100
AcDbLine
 10
10.41071486822568
 20
5.269060838930613
 30
0.0
 11
11.77110639749133
 21
6.629452368196268
 31
0.0
  0
LINE
  5
2BE8
330
2A85
100
AcDbEntity
  8
0
 62
     0
100
AcDbLine
 10
12.13535842815551
 20
7.44271720491389
 30
0.0
 11
13.15338936950132
 21
8.460748146259732
 31
0.0
  0
LINE
  5
2BE9
330
2A85
100
AcDbEntity
  8
0
 62
     0
100
AcDbLine
 10
10.3711063974913
 20
5.678465174249708
 30
0.0
 11
11.77110639749133
 21
7.078465174249714
 31
0.0
  0
LINE
  5
2BEA
330
2A85
100
AcDbEntity
  8
0
 62
     0
100
AcDbLine
 10
14.92110639749134
 20
10.22846517424972
 30
0.0
 11
16.24248134331378
 21
11.54984012007219
 31
0.0
  0
LINE
  5
2BEB
330
2A85
100
AcDbEntity
  8
0
 62
     0
100
AcDbLine
 10
8.328108018553507
 20
3.635466795311913
 30
0.0
 11
9.260639779103371
 21
4.567998555861777
 31
0.0
  0
LINE
  5
2BEC
330
2A85
100
AcDbEntity
  8
0
 62
     0
100
AcDbLine
 10
12.1945649698959
 20
7.95093655270773
 30
0.0
 11
12.64517002170751
 21
8.401541604519337
 31
0.0
  0
LINE
  5
2BED
330
2A85
100
AcDbEntity
  8
0
 62
     0
100
AcDbLine
 10
10.37110639749136
 20
6.127477980303183
 30
0.0
 11
11.77110639749139
 21
7.527477980303189
 31
0.0
  0
LINE
  5
2BEE
330
2A85
100
AcDbEntity
  8
0
 62
     0
100
AcDbLine
 10
14.9211063974914
 20
10.67747798030319
 30
0.0
 11
15.86862859411201
 21
11.62500017692383
 31
0.0
  0
LINE
  5
2BEF
330
2A85
100
AcDbEntity
  8
0
 62
     0
100
AcDbLine
 10
7.818628594112027
 20
3.57500017692385
 30
0.0
 11
9.321106397491405
 21
5.0774779803032
 31
0.0
  0
LINE
  5
2BF0
330
2A85
100
AcDbEntity
  8
0
 62
     0
100
AcDbLine
 10
10.37110639749136
 20
6.576490786356629
 30
0.0
 11
11.77110639749136
 21
7.976490786356663
 31
0.0
  0
LINE
  5
2BF1
330
2A85
100
AcDbEntity
  8
0
 62
     0
100
AcDbLine
 10
14.92110639749137
 20
11.12649078635666
 30
0.0
 11
15.41961578805859
 21
11.62500017692389
 31
0.0
  0
LINE
  5
2BF2
330
2A85
100
AcDbEntity
  8
0
 62
     0
100
AcDbLine
 10
7.369615788058524
 20
3.575000176923822
 30
0.0
 11
9.321106397491377
 21
5.526490786356674
 31
0.0
  0
LINE
  5
2BF3
330
2A85
100
AcDbEntity
  8
0
 62
     0
100
AcDbLine
 10
10.37110639749133
 20
7.025503592410103
 30
0.0
 11
11.77110639749136
 21
8.425503592410137
 31
0.0
  0
LINE
  5
2BF4
330
2A85
100
AcDbEntity
  8
0
 62
     0
100
AcDbLine
 10
6.920602982005078
 20
3.575000176923822
 30
0.0
 11
9.319136721210753
 21
5.973533916129525
 31
0.0
  0
LINE
  5
2BF5
330
2A85
100
AcDbEntity
  8
0
 62
     0
100
AcDbLine
 10
10.37110639749136
 20
7.474516398463549
 30
0.0
 11
11.77110639749136
 21
8.874516398463583
 31
0.0
  0
LINE
  5
2BF6
330
2A85
100
AcDbEntity
  8
0
 62
     0
100
AcDbLine
 10
13.12159017595166
 20
10.22500017692388
 30
0.0
 11
13.6961063974914
 21
10.79951639846362
 31
0.0
  0
LINE
  5
2BF7
330
2A85
100
AcDbEntity
  8
0
 62
     0
100
AcDbLine
 10
6.471590175951632
 20
3.57500017692385
 30
0.0
 11
9.264305803050092
 21
6.36771580402231
 31
0.0
  0
LINE
  5
2BF8
330
2A85
100
AcDbEntity
  8
0
 62
     0
100
AcDbLine
 10
10.37110639749133
 20
7.923529204516995
 30
0.0
 11
11.77110639749136
 21
9.323529204517029
 31
0.0
  0
LINE
  5
2BF9
330
2A85
100
AcDbEntity
  8
0
 62
     0
100
AcDbLine
 10
7.921106397491342
 20
5.473529204517006
 30
0.0
 11
9.15313643102803
 21
6.705559238053695
 31
0.0
  0
LINE
  5
2BFA
330
2A85
100
AcDbEntity
  8
0
 62
     0
100
AcDbLine
 10
12.67257736989819
 20
10.22500017692385
 30
0.0
 11
13.6961063974914
 21
11.24852920451704
 31
0.0
  0
LINE
  5
2BFB
330
2A85
100
AcDbEntity
  8
0
 62
     0
100
AcDbLine
 10
6.051440307528167
 20
3.603863114553831
 30
0.0
 11
7.422577369898192
 21
4.975000176923856
 31
0.0
  0
LINE
  5
2BFC
330
2A85
100
AcDbEntity
  8
0
 62
     0
100
AcDbLine
 10
10.37110639749133
 20
8.372542010570469
 30
0.0
 11
11.85401375038117
 21
9.855449363460309
 31
0.0
  0
LINE
  5
2BFD
330
2A85
100
AcDbEntity
  8
0
 62
     0
100
AcDbLine
 10
7.920026851686714
 20
5.921462464765824
 30
0.0
 11
8.998920663692018
 21
7.000356276771157
 31
0.0
  0
LINE
  5
2BFE
330
2A85
100
AcDbEntity
  8
0
 62
     0
100
AcDbLine
 10
12.14065721095494
 20
10.14209282403408
 30
0.0
 11
13.57937269003144
 21
11.58080830311055
 31
0.0
  0
LINE
  5
2BFF
330
2A85
100
AcDbEntity
  8
0
 62
     0
100
AcDbLine
 10
5.908606397491354
 20
3.910042010570464
 30
0.0
 11
6.973564563844746
 21
4.975000176923856
 31
0.0
  0
LINE
  5
2C00
330
2A85
100
AcDbEntity
  8
0
 62
     0
100
AcDbLine
 10
7.810225341936359
 20
6.260673761068971
 30
0.0
 11
8.80779968127257
 21
7.258248100405182
 31
0.0
  0
LINE
  5
2C01
330
2A85
100
AcDbEntity
  8
0
 62
     0
100
AcDbLine
 10
10.3711063974913
 20
8.821554816623915
 30
0.0
 11
13.17455175779125
 21
11.62500017692386
 31
0.0
  0
LINE
  5
2C02
330
2A85
100
AcDbEntity
  8
0
 62
     0
100
AcDbLine
 10
5.908606397491325
 20
4.359054816623938
 30
0.0
 11
6.524551757791272
 21
4.975000176923884
 31
0.0
  0
LINE
  5
2C03
330
2A85
100
AcDbEntity
  8
0
 62
     0
100
AcDbLine
 10
7.597097927784005
 20
6.496559152970036
 30
0.0
 11
8.587047421445163
 21
7.486508646631165
 31
0.0
  0
LINE
  5
2C04
330
2A85
100
AcDbEntity
  8
0
 62
     0
100
AcDbLine
 10
10.37110639749133
 20
9.270567622677361
 30
0.0
 11
12.72553895173777
 21
11.6250001769238
 31
0.0
  0
LINE
  5
2C05
330
2A85
100
AcDbEntity
  8
0
 62
     0
100
AcDbLine
 10
5.943082358501214
 20
4.842543583687245
 30
0.0
 11
6.041062990728022
 21
4.940524215914052
 31
0.0
  0
LINE
  5
2C06
330
2A85
100
AcDbEntity
  8
0
 62
     0
100
AcDbLine
 10
10.38109395456959
 20
9.729567985809069
 30
0.0
 11
12.26653858860609
 21
11.6150126198456
 31
0.0
  0
LINE
  5
2C07
330
2A85
100
AcDbEntity
  8
0
 62
     0
100
AcDbLine
 10
7.372591524757268
 20
6.721065555996773
 30
0.0
 11
8.362541018418426
 21
7.711015049657902
 31
0.0
  0
LINE
  5
2C08
330
2A85
100
AcDbEntity
  8
0
 62
     0
100
AcDbLine
 10
10.53082567070248
 20
10.32831250799546
 30
0.0
 11
11.66779406641973
 21
11.46528090371271
 31
0.0
  0
LINE
  5
2C09
330
2A85
100
AcDbEntity
  8
0
 62
     0
100
AcDbLine
 10
7.148085121730531
 20
6.94557195902351
 30
0.0
 11
8.138034615391688
 21
7.935521452684639
 31
0.0
  0
LINE
  5
2C0A
330
2A85
100
AcDbEntity
  8
0
 62
     0
100
AcDbLine
 10
6.923578718703822
 20
7.170078362050219
 30
0.0
 11
7.91352821236498
 21
8.160027855711348
 31
0.0
  0
LINE
  5
2C0B
330
2A85
100
AcDbEntity
  8
0
 62
     0
100
AcDbLine
 10
6.699072315677085
 20
7.394584765076956
 30
0.0
 11
7.689021809338242
 21
8.384534258738085
 31
0.0
  0
LINE
  5
2C0C
330
2A85
100
AcDbEntity
  8
0
 62
     0
100
AcDbLine
 10
6.474565912650348
 20
7.619091168103693
 30
0.0
 11
7.464515406311505
 21
8.609040661764822
 31
0.0
  0
LINE
  5
2C0D
330
2A85
100
AcDbEntity
  8
0
 62
     0
100
AcDbLine
 10
8.631462115417065
 20
10.22500017692385
 30
0.0
 11
9.058606397491303
 21
10.65214445899812
 31
0.0
  0
LINE
  5
2C0E
330
2A85
100
AcDbEntity
  8
0
 62
     0
100
AcDbLine
 10
6.250101166637676
 20
7.843639228144496
 30
0.0
 11
7.240133988353903
 21
8.833672049860723
 31
0.0
  0
LINE
  5
2C0F
330
2A85
100
AcDbEntity
  8
0
 62
     0
100
AcDbLine
 10
8.182449309363619
 20
10.22500017692385
 30
0.0
 11
9.058606397491331
 21
11.10115726505156
 31
0.0
  0
LINE
  5
2C10
330
2A85
100
AcDbEntity
  8
0
 62
     0
100
AcDbLine
 10
6.04436720436189
 20
8.086918071922099
 30
0.0
 11
7.075185547709935
 21
9.117736415270172
 31
0.0
  0
LINE
  5
2C11
330
2A85
100
AcDbEntity
  8
0
 62
     0
100
AcDbLine
 10
7.733436503310116
 20
10.22500017692382
 30
0.0
 11
9.015326947610759
 21
11.50689062122447
 31
0.0
  0
LINE
  5
2C12
330
2A85
100
AcDbEntity
  8
0
 62
     0
100
AcDbLine
 10
5.874136901230656
 20
8.365700574844339
 30
0.0
 11
7.046106397491371
 21
9.537670071105054
 31
0.0
  0
LINE
  5
2C13
330
2A85
100
AcDbEntity
  8
0
 62
     0
100
AcDbLine
 10
7.28319037267164
 20
10.22376685233879
 30
0.0
 11
8.684423697256676
 21
11.62500017692386
 31
0.0
  0
LINE
  5
2C14
330
2A85
100
AcDbEntity
  8
0
 62
     0
100
AcDbLine
 10
5.743790253364608
 20
8.684366733031765
 30
0.0
 11
7.047339722076401
 21
9.987916201743587
 31
0.0
  0
LINE
  5
2C15
330
2A85
100
AcDbEntity
  8
0
 62
     0
100
AcDbLine
 10
5.662884272240575
 20
9.052473557961178
 30
0.0
 11
8.235410891203258
 21
11.62500017692383
 31
0.0
  0
LINE
  5
2C16
330
2A85
100
AcDbEntity
  8
0
 62
     0
100
AcDbLine
 10
5.646106397491365
 20
9.484708489265443
 30
0.0
 11
7.786398085149784
 21
11.62500017692386
 31
0.0
  0
LINE
  5
2C17
330
2A85
100
AcDbEntity
  8
0
 62
     0
100
AcDbLine
 10
5.646106397491365
 20
9.933721295318889
 30
0.0
 11
7.337385279096309
 21
11.62500017692386
 31
0.0
  0
LINE
  5
2C18
330
2A85
100
AcDbEntity
  8
0
 62
     0
100
AcDbLine
 10
5.656202402710476
 20
10.39283010659147
 30
0.0
 11
6.878276467823781
 21
11.61490417170478
 31
0.0
  0
ENDBLK
  5
2C1A
330
2A85
100
AcDbEntity
  8
0
100
AcDbBlockEnd
  0
ENDSEC
  0
SECTION
  2
ENTITIES
  0
LINE
  5
363
330
1A
100
AcDbEntity
  8
SEIHIN
100
AcDbLine
 10
300.6630203988966
 20
80.87779638587575
 30
0.0
 11
275.6630203968966
 21
80.87779638587575
 31
0.0
  0
ARC
  5
364
330
1A
100
AcDbEntity
  8
SEIHIN
100
AcDbCircle
 10
285.1630203988966
 20
101.3714000358757
 30
0.0
 40
9.535085152808647
100
AcDbArc
 50
0.0001384520469882
 51
175.083338697062
  0
LINE
  5
367
330
1A
100
AcDbEntity
  8
SEIHIN
100
AcDbLine
 10
294.6981055488966
 20
101.3714230768757
 30
0.0
 11
294.6981251988966
 21
93.03967257587576
 31
0.0
  0
LINE
  5
368
330
1A
100
AcDbEntity
  8
SEIHIN
100
AcDbLine
 10
300.6630203988966
 20
80.87779638587575
 30
0.0
 11
300.6630203988966
 21
99.87779638787575
 31
0.0
  0
LINE
  5
369
330
1A
100
AcDbEntity
  8
SEIHIN
100
AcDbLine
 10
296.6981090688966
 20
99.87779402987577
 30
0.0
 11
296.6981251988966
 21
93.03967257587576
 31
0.0
  0
LINE
  5
36A
330
1A
100
AcDbEntity
  8
SEIHIN
100
AcDbLine
 10
296.0630203988966
 20
100.0714000358757
 30
0.0
 11
296.0630345488966
 21
94.07140003587574
 31
0.0
  0
LINE
  5
36B
330
1A
100
AcDbEntity
  8
SEIHIN
100
AcDbLine
 10
295.0630203988966
 20
100.0714000358757
 30
0.0
 11
295.0630345488966
 21
94.07139767787574
 31
0.0
  0
LINE
  5
36F
330
1A
100
AcDbEntity
  8
SEIHIN
100
AcDbLine
 10
296.6981251988966
 20
93.03967257587576
 30
0.0
 11
294.6981251988966
 21
93.03967257587576
 31
0.0
  0
LINE
  5
370
330
1A
100
AcDbEntity
  8
SEIHIN
100
AcDbLine
 10
296.0630345488966
 20
94.07140003587574
 30
0.0
 11
294.6981227688966
 21
94.07140003587574
 31
0.0
  0
LINE
  5
371
330
1A
100
AcDbEntity
  8
SEIHIN
100
AcDbLine
 10
282.1630203988966
 20
90.57140003587575
 30
0.0
 11
282.1630203988966
 21
86.57140003587574
 31
0.0
  0
LINE
  5
372
330
1A
100
AcDbEntity
  8
SEIHIN
100
AcDbLine
 10
289.1630203988966
 20
90.57140003587575
 30
0.0
 11
289.1630203988966
 21
86.57140003587574
 31
0.0
  0
LINE
  5
374
330
1A
100
AcDbEntity
  8
SEIHIN
100
AcDbLine
 10
283.1630203988966
 20
85.57140003587575
 30
0.0
 11
288.1630203988966
 21
85.57140003587575
 31
0.0
  0
LINE
  5
375
330
1A
100
AcDbEntity
  8
SEIHIN
100
AcDbLine
 10
284.5083198588966
 20
83.57140003587574
 30
0.0
 11
286.8177209388966
 21
83.57140003587574
 31
0.0
  0
LINE
  5
376
330
1A
100
AcDbEntity
  8
SEIHIN
100
AcDbLine
 10
285.6630203988966
 20
85.57140003587575
 30
0.0
 11
286.8177209388966
 21
83.57140003587574
 31
0.0
  0
ARC
  5
377
330
1A
100
AcDbEntity
  8
SEIHIN
100
AcDbCircle
 10
288.1630203988966
 20
86.57140003587574
 30
0.0
 40
1.0
100
AcDbArc
 50
270.0
 51
0.000000000000007
  0
ARC
  5
378
330
1A
100
AcDbEntity
  8
SEIHIN
100
AcDbCircle
 10
283.1630203988966
 20
86.57140003587574
 30
0.0
 40
1.0
100
AcDbArc
 50
180.0
 51
270.0
  0
LINE
  5
379
330
1A
100
AcDbEntity
  8
SEIHIN
100
AcDbLine
 10
285.6630203988966
 20
85.57140003587575
 30
0.0
 11
284.5083198588966
 21
83.57140003587574
 31
0.0
  0
LINE
  5
37B
330
1A
100
AcDbEntity
  8
SEIHIN
100
AcDbLine
 10
288.1630203988966
 20
91.57140003587574
 30
0.0
 11
283.1630203988966
 21
91.57140003587574
 31
0.0
  0
ARC
  5
37E
330
1A
100
AcDbEntity
  8
SEIHIN
100
AcDbCircle
 10
288.1630203988966
 20
90.57140003587575
 30
0.0
 40
1.0
100
AcDbArc
 50
0.000000000000007
 51
90.0
  0
ARC
  5
380
330
1A
100
AcDbEntity
  8
SEIHIN
100
AcDbCircle
 10
283.1630203988966
 20
90.57140003587575
 30
0.0
 40
1.0
100
AcDbArc
 50
90.0
 51
180.0
  0
ARC
  5
384
330
1A
100
AcDbEntity
  8
SEIHIN
100
AcDbCircle
 10
299.6630203988966
 20
99.87779638787575
 30
0.0
 40
1.0
100
AcDbArc
 50
0.000000000000007
 51
90.0
  0
ARC
  5
387
330
1A
100
AcDbEntity
  8
SEIHIN
100
AcDbCircle
 10
297.6981090688966
 20
99.87779638787575
 30
0.0
 40
1.000000000001389
100
AcDbArc
 50
90.0
 51
180.0001351034483
  0
LINE
  5
388
330
1A
100
AcDbEntity
  8
SEIHIN
100
AcDbLine
 10
297.6981090688966
 20
100.8777963878757
 30
0.0
 11
299.6630203988966
 21
100.8777963878757
 31
0.0
  0
LINE
  5
389
330
1A
100
AcDbEntity
  8
SEIHIN
100
AcDbLine
 10
296.0630203988966
 20
100.0714000358757
 30
0.0
 11
294.6981086188966
 21
100.0714000358757
 31
0.0
  0
CIRCLE
  5
38B
330
1A
100
AcDbEntity
  8
SEIHIN
100
AcDbCircle
 10
285.6630203988966
 20
104.8714000358757
 30
0.0
 40
3.500000004238516
  0
LINE
  5
38F
330
1A
100
AcDbEntity
  8
SEIHIN
100
AcDbLine
 10
275.6630203968966
 20
80.87779638587575
 30
0.0
 11
275.6630203968966
 21
102.1886202548757
 31
0.0
  0
LINE
  5
3DF
330
1A
100
AcDbEntity
  8
SEIHIN
100
AcDbLine
 10
296.1301174288966
 20
224.0048785330812
 30
0.0
 11
296.1301174288966
 21
220.5048785330812
 31
0.0
  0
LINE
  5
3E0
330
1A
100
AcDbEntity
  8
SEIHIN
100
AcDbLine
 10
295.1301174288966
 20
221.0048785330812
 30
0.0
 11
295.1301174288966
 21
224.0048785330812
 31
0.0
  0
LINE
  5
3E1
330
1A
100
AcDbEntity
  8
SEIHIN
100
AcDbLine
 10
169.9361137788967
 20
222.8279300330812
 30
0.0
 11
169.9361137788967
 21
239.5048785330812
 31
0.0
  0
LINE
  5
3E2
330
1A
100
AcDbEntity
  8
SEIHIN
100
AcDbLine
 10
171.1361137788967
 20
224.4258200330812
 30
0.0
 11
173.1361137788967
 21
222.0841208330812
 31
0.0
  0
LINE
  5
3E3
330
1A
100
AcDbEntity
  8
SEIHIN
100
AcDbLine
 10
171.1361137788967
 20
239.5048785330812
 30
0.0
 11
171.1361137788967
 21
222.8279300330812
 31
0.0
  0
LINE
  5
3E4
330
1A
100
AcDbEntity
  8
SEIHIN
100
AcDbLine
 10
294.6301174288966
 20
220.5048785330812
 30
0.0
 11
170.4361137788967
 21
220.5048785330812
 31
0.0
  0
LINE
  5
3E5
330
1A
100
AcDbEntity
  8
SEIHIN
100
AcDbLine
 10
294.6301174288966
 20
205.5048784930812
 30
0.0
 11
170.4361137788967
 21
205.5048784930812
 31
0.0
  0
LINE
  5
3E6
330
1A
100
AcDbEntity
  8
SEIHIN
100
AcDbLine
 10
295.1301174288966
 20
206.5048784930812
 30
0.0
 11
170.4361137788967
 21
206.5048784930812
 31
0.0
  0
LINE
  5
3E7
330
1A
100
AcDbEntity
  8
SEIHIN
100
AcDbLine
 10
295.1301174288966
 20
219.5048785330812
 30
0.0
 11
170.4361137788967
 21
219.5048785330812
 31
0.0
  0
LINE
  5
3E8
330
1A
100
AcDbEntity
  8
SEIHIN
100
AcDbLine
 10
265.2567372988966
 20
216.0048784930812
 30
0.0
 11
174.4361137788967
 21
216.0048784930812
 31
0.0
  0
LINE
  5
3E9
330
1A
100
AcDbEntity
  8
SEIHIN
100
AcDbLine
 10
265.2567372988966
 20
210.0048784930812
 30
0.0
 11
174.4361130688967
 21
210.0048784930812
 31
0.0
  0
LINE
  5
3EB
330
1A
100
AcDbEntity
  8
SEIHIN
100
AcDbLine
 10
294.8437339888966
 20
206.7328048530812
 30
0.0
 11
267.2567372988966
 21
206.7328048530812
 31
0.0
  0
LINE
  5
3EC
330
1A
100
AcDbEntity
  8
SEIHIN
100
AcDbLine
 10
292.0542144388966
 20
208.8504344830812
 30
0.0
 11
269.9955273138966
 21
208.8504344830812
 31
0.0
  0
LINE
  5
3ED
330
1A
100
AcDbEntity
  8
SEIHIN
100
AcDbLine
 10
294.8437339888966
 20
219.2769521330812
 30
0.0
 11
267.2567372988966
 21
219.2769521330812
 31
0.0
  0
LINE
  5
3EE
330
1A
100
AcDbEntity
  8
SEIHIN
100
AcDbLine
 10
292.0542144388966
 20
217.1593225330812
 30
0.0
 11
269.9955273138966
 21
217.1593225330812
 31
0.0
  0
LINE
  5
3EF
330
1A
100
AcDbEntity
  8
SEIHIN
100
AcDbLine
 10
275.6630203968966
 20
205.0048784930812
 30
0.0
 11
294.6978668888966
 21
205.0049244930812
 31
0.0
  0
LINE
  5
3F0
330
1A
100
AcDbEntity
  8
SEIHIN
100
AcDbLine
 10
294.6978282188966
 20
221.0048785330812
 30
0.0
 11
275.6630203968966
 21
221.0048785330812
 31
0.0
  0
LINE
  5
3F1
330
1A
100
AcDbEntity
  8
SEIHIN
100
AcDbLine
 10
294.8437339888966
 20
211.0802671530812
 30
0.0
 11
292.0542144388966
 21
211.0802671530812
 31
0.0
  0
LINE
  5
3F2
330
1A
100
AcDbEntity
  8
SEIHIN
100
AcDbLine
 10
294.8437339888966
 20
214.9294898330812
 30
0.0
 11
292.0542144388966
 21
214.9294898330812
 31
0.0
  0
LINE
  5
3F3
330
1A
100
AcDbEntity
  8
SEIHIN
100
AcDbLine
 10
292.0542144388966
 20
218.2769521330812
 30
0.0
 11
294.8437339888966
 21
218.2769521330812
 31
0.0
  0
LINE
  5
3F4
330
1A
100
AcDbEntity
  8
SEIHIN
100
AcDbLine
 10
292.0542144388966
 20
207.7328048530812
 30
0.0
 11
294.8437339888966
 21
207.7328048530812
 31
0.0
  0
ARC
  5
3F5
330
1A
100
AcDbEntity
  8
SEIHIN
100
AcDbCircle
 10
294.8437339888966
 20
213.0048784930812
 30
0.0
 40
3.000000000000011
100
AcDbArc
 50
270.0000047746482
 51
89.99999484337983
  0
LINE
  5
3F6
330
1A
100
AcDbEntity
  8
SEIHIN
100
AcDbLine
 10
294.8437339888966
 20
218.2769521330812
 30
0.0
 11
294.8437339888966
 21
207.7328048530812
 31
0.0
  0
ARC
  5
3F7
330
1A
100
AcDbEntity
  8
SEIHIN
100
AcDbCircle
 10
295.1301174288966
 20
205.5048784930812
 30
0.0
 40
1.0
100
AcDbArc
 50
0.000000000000007
 51
90.0
  0
LINE
  5
3F8
330
1A
100
AcDbEntity
  8
SEIHIN
100
AcDbLine
 10
296.6978714588966
 20
205.5048784930812
 30
0.0
 11
300.6630203988966
 21
205.5048784930812
 31
0.0
  0
LINE
  5
3F9
330
1A
100
AcDbEntity
  8
SEIHIN
100
AcDbLine
 10
300.6630203988966
 20
205.0048784930812
 30
0.0
 11
296.6981130788966
 21
205.0048784930812
 31
0.0
  0
LINE
  5
3FA
330
1A
100
AcDbEntity
  8
SEIHIN
100
AcDbLine
 10
300.6630203988966
 20
205.0048784930812
 30
0.0
 11
300.6630203988966
 21
205.5048784930812
 31
0.0
  0
ARC
  5
3FB
330
1A
100
AcDbEntity
  8
SEIHIN
100
AcDbCircle
 10
294.6301174288966
 20
205.0048784930812
 30
0.0
 40
0.5
100
AcDbArc
 50
0.000000000000007
 51
90.0
  0
LINE
  5
3FC
330
1A
100
AcDbEntity
  8
SEIHIN
100
AcDbLine
 10
295.1301174288966
 20
205.0048784930812
 30
0.0
 11
295.1301174288966
 21
202.0048784930812
 31
0.0
  0
LINE
  5
3FD
330
1A
100
AcDbEntity
  8
SEIHIN
100
AcDbLine
 10
296.1301174288966
 20
202.0048784930812
 30
0.0
 11
296.1301174288966
 21
205.5048784930812
 31
0.0
  0
LINE
  5
3FE
330
1A
100
AcDbEntity
  8
SEIHIN
100
AcDbLine
 10
295.1301174288966
 20
202.0048784930812
 30
0.0
 11
296.1301174288966
 21
202.0048784930812
 31
0.0
  0
LINE
  5
3FF
330
1A
100
AcDbEntity
  8
SEIHIN
100
AcDbLine
 10
294.6978668888966
 20
205.0049244930812
 30
0.0
 11
294.6978656788966
 21
205.5048784930812
 31
0.0
  0
LINE
  5
400
330
1A
100
AcDbEntity
  8
SEIHIN
100
AcDbLine
 10
296.6978726388966
 20
205.0048784930812
 30
0.0
 11
296.6978714588966
 21
205.5048784930812
 31
0.0
  0
LINE
  5
401
330
1A
100
AcDbEntity
  8
SEIHIN
100
AcDbLine
 10
294.8437339888966
 20
207.7328048530812
 30
0.0
 11
294.8437339888966
 21
206.7328048530812
 31
0.0
  0
LINE
  5
402
330
1A
100
AcDbEntity
  8
SEIHIN
100
AcDbLine
 10
296.6978360888966
 20
220.5048785330812
 30
0.0
 11
300.6630203988966
 21
220.5048785330812
 31
0.0
  0
LINE
  5
403
330
1A
100
AcDbEntity
  8
SEIHIN
100
AcDbLine
 10
300.6630203988966
 20
221.0048785330812
 30
0.0
 11
296.6981130788966
 21
221.0048785330812
 31
0.0
  0
LINE
  5
404
330
1A
100
AcDbEntity
  8
SEIHIN
100
AcDbLine
 10
300.6630203988966
 20
220.5048785330812
 30
0.0
 11
300.6630203988966
 21
221.0048785330812
 31
0.0
  0
ARC
  5
405
330
1A
100
AcDbEntity
  8
SEIHIN
100
AcDbCircle
 10
295.1301174288966
 20
220.5048785330812
 30
0.0
 40
1.0
100
AcDbArc
 50
270.0
 51
0.000000000000007
  0
LINE
  5
406
330
1A
100
AcDbEntity
  8
SEIHIN
100
AcDbLine
 10
294.6978294288966
 20
220.5048785330812
 30
0.0
 11
294.6978282188966
 21
221.0048785330812
 31
0.0
  0
LINE
  5
407
330
1A
100
AcDbEntity
  8
SEIHIN
100
AcDbLine
 10
296.6978360888966
 20
220.5048785330812
 30
0.0
 11
296.6978349088966
 21
221.0048785330812
 31
0.0
  0
LINE
  5
408
330
1A
100
AcDbEntity
  8
SEIHIN
100
AcDbLine
 10
294.8437339888966
 20
218.2769521330812
 30
0.0
 11
294.8437339888966
 21
219.2769521330812
 31
0.0
  0
ARC
  5
409
330
1A
100
AcDbEntity
  8
SEIHIN
100
AcDbCircle
 10
294.6301174288966
 20
221.0048785330812
 30
0.0
 40
0.5
100
AcDbArc
 50
270.0
 51
0.000000000000007
  0
LINE
  5
40A
330
1A
100
AcDbEntity
  8
SEIHIN
100
AcDbLine
 10
292.0542144388966
 20
206.7328048530812
 30
0.0
 11
292.0542144388966
 21
219.2769521330812
 31
0.0
  0
ARC
  5
40B
330
1A
100
AcDbEntity
  8
SEIHIN
100
AcDbCircle
 10
285.6627792688966
 20
209.5232079930812
 30
0.0
 40
5.715337531631893
100
AcDbArc
 50
232.2378187752434
 51
307.7624581255102
  0
LINE
  5
40C
330
1A
100
AcDbEntity
  8
SEIHIN
100
AcDbLine
 10
292.0542144388966
 20
206.7328048530812
 30
0.0
 11
292.0542144388966
 21
207.9328048530812
 31
0.0
  0
LINE
  5
40D
330
1A
100
AcDbEntity
  8
SEIHIN
100
AcDbLine
 10
289.1627901888966
 20
221.0048785330812
 30
0.0
 11
282.1627901888966
 21
221.0048785330812
 31
0.0
  0
LINE
  5
40E
330
1A
100
AcDbEntity
  8
SEIHIN
100
AcDbLine
 10
282.1627901888966
 20
222.0693169330812
 30
0.0
 11
289.1627901888966
 21
222.0693169330812
 31
0.0
  0
LINE
  5
40F
330
1A
100
AcDbEntity
  8
SEIHIN
100
AcDbLine
 10
292.0542144388966
 20
219.2769521330812
 30
0.0
 11
292.0542144388966
 21
218.0769521330812
 31
0.0
  0
LINE
  5
410
330
1A
100
AcDbEntity
  8
SEIHIN
100
AcDbLine
 10
289.1627901888966
 20
222.0693169330812
 30
0.0
 11
289.1627901888966
 21
221.0048785330812
 31
0.0
  0
LINE
  5
411
330
1A
100
AcDbEntity
  8
SEIHIN
100
AcDbLine
 10
282.1627901888966
 20
221.0048785330812
 30
0.0
 11
282.1627901888966
 21
222.0693169330812
 31
0.0
  0
LINE
  5
412
330
1A
100
AcDbEntity
  8
SEIHIN
100
AcDbLine
 10
271.7186776743966
 20
209.8504344830812
 30
0.0
 11
271.7186776743966
 21
216.1593225030812
 31
0.0
  0
LINE
  5
413
330
1A
100
AcDbEntity
  8
SEIHIN
100
AcDbLine
 10
276.5605979098966
 20
209.8504344830812
 30
0.0
 11
276.5605979098966
 21
216.1593225030812
 31
0.0
  0
LINE
  5
414
330
1A
100
AcDbEntity
  8
SEIHIN
100
AcDbLine
 10
267.9955273138966
 20
215.1593225030812
 30
0.0
 11
267.9955273138966
 21
210.8504344830812
 31
0.0
  0
LINE
  5
415
330
1A
100
AcDbEntity
  8
SEIHIN
100
AcDbLine
 10
265.2567372988966
 20
208.7328048530812
 30
0.0
 11
265.2567372988966
 21
217.2769521330812
 31
0.0
  0
LINE
  5
416
330
1A
100
AcDbEntity
  8
SEIHIN
100
AcDbLine
 10
266.4043030058966
 20
208.7328048530812
 30
0.0
 11
266.4043030058966
 21
217.2769521330812
 31
0.0
  0
LINE
  5
417
330
1A
100
AcDbEntity
  8
SEIHIN
100
AcDbLine
 10
275.6630203968966
 20
205.0048784930812
 30
0.0
 11
275.6630203968966
 21
205.5048784930812
 31
0.0
  0
ARC
  5
418
330
1A
100
AcDbEntity
  8
SEIHIN
100
AcDbCircle
 10
268.4043030058966
 20
208.7328048530812
 30
0.0
 40
2.0
100
AcDbArc
 50
180.0
 51
270.0
  0
ARC
  5
419
330
1A
100
AcDbEntity
  8
SEIHIN
100
AcDbCircle
 10
267.2567372988966
 20
208.7328048530812
 30
0.0
 40
2.0
100
AcDbArc
 50
180.0
 51
270.0
  0
ARC
  5
41A
330
1A
100
AcDbEntity
  8
SEIHIN
100
AcDbCircle
 10
267.2567372988966
 20
208.7328048530812
 30
0.0
 40
2.0
100
AcDbArc
 50
180.0
 51
270.0
  0
ARC
  5
41B
330
1A
100
AcDbEntity
  8
SEIHIN
100
AcDbCircle
 10
269.9955273138966
 20
210.8504344830812
 30
0.0
 40
2.0
100
AcDbArc
 50
180.0
 51
270.0
  0
LINE
  5
41C
330
1A
100
AcDbEntity
  8
SEIHIN
100
AcDbLine
 10
275.6630203968966
 20
220.5048785330812
 30
0.0
 11
275.6630203968966
 21
221.0048785330812
 31
0.0
  0
ARC
  5
41D
330
1A
100
AcDbEntity
  8
SEIHIN
100
AcDbCircle
 10
268.4043030058966
 20
217.2769521330812
 30
0.0
 40
2.0
100
AcDbArc
 50
90.0
 51
180.0
  0
ARC
  5
41E
330
1A
100
AcDbEntity
  8
SEIHIN
100
AcDbCircle
 10
267.2567372988966
 20
217.2769521330812
 30
0.0
 40
2.0
100
AcDbArc
 50
90.0
 51
180.0
  0
ARC
  5
41F
330
1A
100
AcDbEntity
  8
SEIHIN
100
AcDbCircle
 10
267.2567372988966
 20
217.2769521330812
 30
0.0
 40
2.0
100
AcDbArc
 50
90.0
 51
180.0
  0
ARC
  5
420
330
1A
100
AcDbEntity
  8
SEIHIN
100
AcDbCircle
 10
269.9955273138966
 20
215.1593225030812
 30
0.0
 40
2.000000014999997
100
AcDbArc
 50
90.0
 51
180.0
  0
LINE
  5
425
330
1A
100
AcDbEntity
  8
SEIHIN
100
AcDbLine
 10
171.1361137788967
 20
186.5048784930812
 30
0.0
 11
171.1361137788967
 21
203.1818269030813
 31
0.0
  0
LINE
  5
426
330
1A
100
AcDbEntity
  8
SEIHIN
100
AcDbLine
 10
169.9361137788967
 20
203.1818269030813
 30
0.0
 11
169.9361137788967
 21
186.5048784930812
 31
0.0
  0
LINE
  5
427
330
1A
100
AcDbEntity
  8
SEIHIN
100
AcDbLine
 10
169.9361137788967
 20
186.5048784930812
 30
0.0
 11
171.1361137788967
 21
186.5048784930812
 31
0.0
  0
ARC
  5
428
330
1A
100
AcDbEntity
  8
SEIHIN
100
AcDbCircle
 10
174.4361133888967
 20
213.0048784930812
 30
0.0
 40
3.000000000000029
100
AcDbArc
 50
89.99999045070346
 51
269.9999938884504
  0
LINE
  5
429
330
1A
100
AcDbEntity
  8
SEIHIN
100
AcDbLine
 10
175.2020523688967
 20
221.7569083330812
 30
0.0
 11
171.5578965488967
 21
222.3340859330812
 31
0.0
  0
LINE
  5
42A
330
1A
100
AcDbEntity
  8
SEIHIN
100
AcDbLine
 10
175.2020523688967
 20
204.2528486530812
 30
0.0
 11
171.5578965488967
 21
203.6756710730812
 31
0.0
  0
LINE
  5
42B
330
1A
100
AcDbEntity
  8
SEIHIN
100
AcDbLine
 10
175.0143310088967
 20
205.4380746630812
 30
0.0
 11
171.3701751888967
 21
204.8608970830812
 31
0.0
  0
LINE
  5
42C
330
1A
100
AcDbEntity
  8
SEIHIN
100
AcDbLine
 10
175.0143310088967
 20
220.5716823330812
 30
0.0
 11
171.3701751888967
 21
221.1488599330812
 31
0.0
  0
ARC
  5
42D
330
1A
100
AcDbEntity
  8
SEIHIN
100
AcDbCircle
 10
174.9361137788967
 20
205.9319188330813
 30
0.0
 40
0.499999998318523
100
AcDbArc
 50
278.9999997201063
 51
301.3416793010965
  0
ARC
  5
42E
330
1A
100
AcDbEntity
  8
SEIHIN
100
AcDbCircle
 10
174.9361137788967
 20
205.9319188330813
 30
0.0
 40
1.700000000774792
100
AcDbArc
 50
278.9999999758683
 51
345.4514548057491
  0
LINE
  5
42F
330
1A
100
AcDbEntity
  8
SEIHIN
100
AcDbLine
 10
174.4361137788967
 20
210.0048784930812
 30
0.0
 11
174.4361137788967
 21
206.5048784930812
 31
0.0
  0
LINE
  5
430
330
1A
100
AcDbEntity
  8
SEIHIN
100
AcDbLine
 10
174.0361137788967
 20
208.8340623530812
 30
0.0
 11
174.0361137788967
 21
210.0316646930812
 31
0.0
  0
ARC
  5
431
330
1A
100
AcDbEntity
  8
SEIHIN
100
AcDbCircle
 10
175.0361137788967
 20
208.8340623530812
 30
0.0
 40
0.9999999999999971
100
AcDbArc
 50
180.0
 51
233.1301023541563
  0
ARC
  5
432
330
1A
100
AcDbEntity
  8
SEIHIN
100
AcDbCircle
 10
175.0361137788967
 20
217.1756946330812
 30
0.0
 40
0.9999999999999971
100
AcDbArc
 50
126.8698976458436
 51
180.0
  0
LINE
  5
433
330
1A
100
AcDbEntity
  8
SEIHIN
100
AcDbLine
 10
174.4361137788967
 20
216.0048784930812
 30
0.0
 11
174.4361137788967
 21
219.5048785330812
 31
0.0
  0
LINE
  5
434
330
1A
100
AcDbEntity
  8
SEIHIN
100
AcDbLine
 10
174.0361137788967
 20
217.1756946330812
 30
0.0
 11
174.0361137788967
 21
215.9780922930812
 31
0.0
  0
ARC
  5
435
330
1A
100
AcDbEntity
  8
SEIHIN
100
AcDbCircle
 10
174.9361137788967
 20
220.0778381330812
 30
0.0
 40
1.700000018187683
100
AcDbArc
 50
14.54854715161315
 51
81.00000012957863
  0
ARC
  5
436
330
1A
100
AcDbEntity
  8
SEIHIN
100
AcDbCircle
 10
174.9361137788967
 20
220.0778381330812
 30
0.0
 40
0.5000000387562692
100
AcDbArc
 50
58.65832427512721
 51
81.00000081767559
  0
LINE
  5
437
330
1A
100
AcDbEntity
  8
SEIHIN
100
AcDbLine
 10
170.4361137788967
 20
205.5048784930812
 30
0.0
 11
170.4361137788967
 21
206.5048784930812
 31
0.0
  0
ARC
  5
438
330
1A
100
AcDbEntity
  8
SEIHIN
100
AcDbCircle
 10
171.6361137788967
 20
203.1818269030813
 30
0.0
 40
1.700000000443591
100
AcDbArc
 50
98.9999999758684
 51
180.0
  0
ARC
  5
439
330
1A
100
AcDbEntity
  8
SEIHIN
100
AcDbCircle
 10
171.6361137788967
 20
203.1818269030813
 30
0.0
 40
0.4999999996559329
100
AcDbArc
 50
98.99999972010636
 51
180.0
  0
LINE
  5
43A
330
1A
100
AcDbEntity
  8
SEIHIN
100
AcDbLine
 10
171.1361137788967
 20
201.5839369930812
 30
0.0
 11
173.1361137788967
 21
203.9256361330812
 31
0.0
  0
ARC
  5
43B
330
1A
100
AcDbEntity
  8
SEIHIN
100
AcDbCircle
 10
171.6361137788967
 20
222.8279300330812
 30
0.0
 40
1.699999960936061
100
AcDbArc
 50
180.0
 51
260.9999996023411
  0
LINE
  5
43C
330
1A
100
AcDbEntity
  8
SEIHIN
100
AcDbLine
 10
170.4361137788967
 20
220.5048785330812
 30
0.0
 11
170.4361137788967
 21
219.5048785330812
 31
0.0
  0
ARC
  5
43D
330
1A
100
AcDbEntity
  8
SEIHIN
100
AcDbCircle
 10
171.6361137788967
 20
222.8279300330812
 30
0.0
 40
0.4999999650868415
100
AcDbArc
 50
180.0
 51
260.9999990250685
  0
LINE
  5
43E
330
1A
100
AcDbEntity
  8
SEIHIN
100
AcDbLine
 10
295.1301174288966
 20
224.0048785330812
 30
0.0
 11
296.1301174288966
 21
224.0048785330812
 31
0.0
  0
LINE
  5
43F
330
1A
100
AcDbEntity
  8
SEIHIN
100
AcDbLine
 10
169.9361137788967
 20
239.5048785330812
 30
0.0
 11
171.1361137788967
 21
239.5048785330812
 31
0.0
  0
LINE
  5
6FB
330
1A
100
AcDbEntity
  8
CENTER L
100
AcDbLine
 10
343.2664869188966
 20
213.0048785130812
 30
0.0
 11
162.9361137788967
 21
213.0048785130812
 31
0.0
  0
LINE
  5
6FF
330
1A
100
AcDbEntity
  8
CENTER L
100
AcDbLine
 10
178.1361137788967
 20
234.0048785130812
 30
0.0
 11
162.9361137788967
 21
234.0048785130812
 31
0.0
  0
LINE
  5
700
330
1A
100
AcDbEntity
  8
CENTER L
100
AcDbLine
 10
178.1361137788967
 20
192.0048785130812
 30
0.0
 11
162.9361137788967
 21
192.0048785130812
 31
0.0
  0
LINE
  5
701
330
1A
100
AcDbEntity
  8
CENTER L
100
AcDbLine
 10
178.1361137788967
 20
193.5048785130813
 30
0.0
 11
162.9361137788967
 21
193.5048785130812
 31
0.0
  0
LINE
  5
702
330
1A
100
AcDbEntity
  8
CENTER L
100
AcDbLine
 10
178.1361137788967
 20
232.5048785130813
 30
0.0
 11
162.9361137788967
 21
232.5048785130813
 31
0.0
  0
LINE
  5
7B1
330
1A
100
AcDbEntity
  8
SEIHIN
100
AcDbLine
 10
182.9737799136481
 20
219.5048785330812
 30
0.0
 11
182.9737799136481
 21
216.0048784930812
 31
0.0
  0
LINE
  5
7B4
330
1A
100
AcDbEntity
  8
SEIHIN
100
AcDbLine
 10
189.6413764877187
 20
206.5048784930812
 30
0.0
 11
189.6413764877187
 21
205.5048784930812
 31
0.0
  0
LINE
  5
7B5
330
1A
100
AcDbEntity
  8
SEIHIN
100
AcDbLine
 10
189.6413764877187
 20
219.5048785330812
 30
0.0
 11
189.6413764877187
 21
220.5048785330812
 31
0.0
  0
ARC
  5
7BA
330
1A
100
AcDbEntity
  8
SEIHIN
100
AcDbCircle
 10
185.3474736087563
 20
213.0048784930812
 30
0.0
 40
3.25
100
AcDbArc
 50
292.6198649480404
 51
67.38013505195954
  0
ARC
  5
7BB
330
1A
100
AcDbEntity
  8
SEIHIN
100
AcDbCircle
 10
181.7237799136481
 20
213.0048784930812
 30
0.0
 40
3.25
100
AcDbArc
 50
292.6198649480404
 51
67.38013505195954
  0
LINE
  5
7BC
330
1A
100
AcDbEntity
  8
SEIHIN
100
AcDbLine
 10
182.9737799136481
 20
210.0048784930812
 30
0.0
 11
182.9737799136481
 21
206.5048784930812
 31
0.0
  0
LINE
  5
7BD
330
1A
100
AcDbEntity
  8
SEIHIN
100
AcDbLine
 10
186.5974736087563
 20
219.5048785330812
 30
0.0
 11
186.5974736087563
 21
216.0048784930812
 31
0.0
  0
LINE
  5
7BE
330
1A
100
AcDbEntity
  8
SEIHIN
100
AcDbLine
 10
186.5974736087563
 20
210.0048784930812
 30
0.0
 11
186.5974736087563
 21
206.5048784930812
 31
0.0
  0
DIMENSION
  5
862
330
1A
100
AcDbEntity
  8
SUNPOU
100
AcDbDimension
  2
*D1
 10
148.504483585236
 20
186.5048784930812
 30
0.0
 11
146.0044835852359
 21
213.0048785130813
 31
0.0
 70
    32
 71
     5
 42
-1.0
  3
STANDARD
100
AcDbAlignedDimension
 13
169.9361137788967
 23
239.5048785330812
 33
0.0
 14
169.9361137788967
 24
186.5048784930812
 34
0.0
 50
90.0
100
AcDbRotatedDimension
1001
ACAD
1000
DSTYLE
1002
{
1070
    41
1040
3.0
1070
    42
1040
3.0
1070
    43
1040
7.0
1070
    44
1040
1.5
1070
    73
1070
     0
1070
    74
1070
     0
1070
    77
1070
     3
1070
   140
1040
3.0
1070
   141
1040
3.0
1070
   147
1040
1.0
1070
   172
1070
     1
1070
   173
1070
     1
1070
   176
1070
   256
1070
   177
1070
   256
1070
   178
1070
   256
1070
   271
1070
     0
1070
   272
1070
     0
1070
   341
1005
B2
1070
     6
1000
OPEN
1070
     7
1000
OPEN
1002
}
  0
LINE
  5
BDA
330
1A
100
AcDbEntity
  8
SEIHIN
100
AcDbLine
 10
313.2980692888966
 20
83.07140003587575
 30
0.0
 11
300.6630203988966
 21
83.07140003587575
 31
0.0
  0
LINE
  5
BDB
330
1A
100
AcDbEntity
  8
SEIHIN
100
AcDbLine
 10
300.6630203988966
 20
91.57140003587574
 30
0.0
 11
312.6553438188967
 21
91.57140003587574
 31
0.0
  0
LINE
  5
BDC
330
1A
100
AcDbEntity
  8
SEIHIN
100
AcDbLine
 10
313.6460074888966
 20
85.57140003587575
 30
0.0
 11
300.6630203988966
 21
85.57140003587575
 31
0.0
  0
LINE
  5
BDD
330
1A
100
AcDbEntity
  8
SEIHIN
100
AcDbLine
 10
312.6553438188967
 20
94.07140003587574
 30
0.0
 11
300.6630203988966
 21
94.07140003587574
 31
0.0
  0
LINE
  5
BDF
330
1A
100
AcDbEntity
  8
SEIHIN
100
AcDbLine
 10
324.6631568588966
 20
92.27140003587573
 30
0.0
 11
315.6677671488967
 21
83.99564149587575
 31
0.0
  0
ARC
  5
BE0
330
1A
100
AcDbEntity
  8
SEIHIN
100
AcDbCircle
 10
313.6460074888966
 20
86.57140003587574
 30
0.0
 40
1.000000002404392
100
AcDbArc
 50
270.0
 51
313.7455791016265
  0
LINE
  5
BE1
330
1A
100
AcDbEntity
  8
SEIHIN
100
AcDbLine
 10
311.8210065088967
 20
91.57140003587574
 30
0.0
 11
311.8210065088967
 21
85.57140003587575
 31
0.0
  0
ARC
  5
BE2
330
1A
100
AcDbEntity
  8
SEIHIN
100
AcDbCircle
 10
313.2980692888966
 20
86.57140003587574
 30
0.0
 40
3.50000000029082
100
AcDbArc
 50
270.0
 51
312.614056008163
  0
LINE
  5
BE4
330
1A
100
AcDbEntity
  8
SEIHIN
100
AcDbLine
 10
329.6631203988967
 20
92.27140003587573
 30
0.0
 11
324.6631568588966
 21
92.27140003587573
 31
0.0
  0
ARC
  5
BE5
330
1A
100
AcDbEntity
  8
SEIHIN
100
AcDbCircle
 10
327.9629521188967
 20
100.3212036858757
 30
0.0
 40
4.249794616209057
100
AcDbArc
 50
241.9270795778267
 51
291.9617220533257
  0
LINE
  5
BE6
330
1A
100
AcDbEntity
  8
SEIHIN
100
AcDbLine
 10
329.6631203988967
 20
92.27140003587573
 30
0.0
 11
324.6631568588966
 21
92.27140003587573
 31
0.0
  0
LINE
  5
BE7
330
1A
100
AcDbEntity
  8
SEIHIN
100
AcDbLine
 10
329.6631203988967
 20
92.27140003587573
 30
0.0
 11
324.6631568588966
 21
92.27140003587573
 31
0.0
  0
ELLIPSE
  5
BE8
330
1A
100
AcDbEntity
  8
SEIHIN
100
AcDbEllipse
 10
329.3653087688966
 20
96.84347623587576
 30
0.0
 11
0.480711628724846
 21
0.1374237974682779
 31
0.0
210
0.0
220
0.0
230
-1.0
 40
1.0
 41
0.0000000000000004
 42
1.465876859819378
  0
ARC
  5
BE9
330
1A
100
AcDbEntity
  8
SEIHIN
100
AcDbCircle
 10
329.1643535488966
 20
96.66375706587576
 30
0.0
 40
3.499985617108208
100
AcDbArc
 50
358.4879131177702
 51
76.80938085788359
  0
ARC
  5
BEA
330
1A
100
AcDbEntity
  8
SEIHIN
100
AcDbCircle
 10
329.6631203988967
 20
95.27140003587573
 30
0.0
 40
3.0
100
AcDbArc
 50
270.0
 51
0.000000000000007
  0
LINE
  5
BEB
330
1A
100
AcDbEntity
  8
SEIHIN
100
AcDbLine
 10
332.6631203988966
 20
96.57140003587574
 30
0.0
 11
332.6631203988966
 21
95.27140003587573
 31
0.0
  0
LINE
  5
BED
330
1A
100
AcDbEntity
  8
SEIHIN
100
AcDbLine
 10
329.9631203988967
 20
100.0714000358757
 30
0.0
 11
329.6258711088967
 21
100.0714000358757
 31
0.0
  0
LINE
  5
BEE
330
1A
100
AcDbEntity
  8
SEIHIN
100
AcDbLine
 10
329.1451150488966
 20
99.43401876587575
 30
0.0
 11
329.8461203988967
 21
96.98090003587573
 31
0.0
  0
ELLIPSE
  5
BEF
330
1A
100
AcDbEntity
  8
SEIHIN
100
AcDbEllipse
 10
329.6259025288966
 20
99.57137633587576
 30
0.0
 11
-0.4807821249180666
 21
-0.1373763011067326
 31
0.0
210
0.0
220
0.0
230
-1.0
 40
1.0
 41
0.0
 42
1.849150924921633
  0
LINE
  5
BF0
330
1A
100
AcDbEntity
  8
SEIHIN
100
AcDbLine
 10
325.9630203988966
 20
96.57140003587574
 30
0.0
 11
316.7295943488966
 21
96.57140003587574
 31
0.0
  0
LINE
  5
BF1
330
1A
100
AcDbEntity
  8
SEIHIN
100
AcDbLine
 10
314.3374648088967
 20
85.84898271587576
 30
0.0
 11
321.1285203988966
 21
92.34900003587574
 31
0.0
  0
LINE
  5
BF2
330
1A
100
AcDbEntity
  8
SEIHIN
100
AcDbLine
 10
317.3803759388967
 20
94.07140003587574
 30
0.0
 11
320.4370203988966
 21
94.07140003587574
 31
0.0
  0
LINE
  5
BF3
330
1A
100
AcDbEntity
  8
SEIHIN
100
AcDbLine
 10
325.9630203988966
 20
96.57140003587574
 30
0.0
 11
325.9630203988966
 21
92.27140003587573
 31
0.0
  0
ARC
  5
BF4
330
1A
100
AcDbEntity
  8
SEIHIN
100
AcDbCircle
 10
320.4370238088967
 20
93.07139153587575
 30
0.0
 40
1.000008503298284
100
AcDbArc
 50
313.7482274479308
 51
90.00019537694742
  0
ARC
  5
BF5
330
1A
100
AcDbEntity
  8
SEIHIN
100
AcDbCircle
 10
312.6553438188967
 20
96.07140003587574
 30
0.0
 40
4.499999998880124
100
AcDbArc
 50
270.0
 51
316.9076458071474
  0
ARC
  5
BF6
330
1A
100
AcDbEntity
  8
SEIHIN
100
AcDbCircle
 10
316.7295943488966
 20
94.57140003587573
 30
0.0
 40
1.999999999554587
100
AcDbArc
 50
90.0
 51
136.9076458971278
  0
LINE
  5
BF7
330
1A
100
AcDbEntity
  8
SEIHIN
100
AcDbLine
 10
315.9414843388966
 20
92.99710654587574
 30
0.0
 11
316.6501224888966
 21
93.75457636587578
 31
0.0
  0
ARC
  5
BF8
330
1A
100
AcDbEntity
  8
SEIHIN
100
AcDbCircle
 10
317.3803759388967
 20
93.07140003587575
 30
0.0
 40
0.9999999997772931
100
AcDbArc
 50
90.0
 51
136.9076458971278
  0
ARC
  5
BF9
330
1A
100
AcDbEntity
  8
SEIHIN
100
AcDbCircle
 10
312.6553438188967
 20
96.07140003587574
 30
0.0
 40
1.999999999554585
100
AcDbArc
 50
270.0
 51
316.9076458971278
  0
LINE
  5
BFA
330
1A
100
AcDbEntity
  8
SEIHIN
100
AcDbLine
 10
314.1158507188967
 20
94.70504737587578
 30
0.0
 11
315.2690874488967
 21
95.93775269587576
 31
0.0
  0
LINE
  5
BFB
330
1A
100
AcDbEntity
  8
SEIHIN
100
AcDbLine
 10
242.7642658188966
 20
91.57140003587574
 30
0.0
 11
275.6630203968966
 21
91.57140003587574
 31
0.0
  0
LINE
  5
BFC
330
1A
100
AcDbEntity
  8
SEIHIN
100
AcDbLine
 10
275.6630203968966
 20
85.57140003587575
 30
0.0
 11
249.0700770188967
 21
85.57140003587575
 31
0.0
  0
LINE
  5
BFD
330
1A
100
AcDbEntity
  8
SEIHIN
100
AcDbLine
 10
275.6630203968966
 20
83.07140003587575
 30
0.0
 11
249.7107736588966
 21
83.07140003587575
 31
0.0
  0
LINE
  5
BFE
330
1A
100
AcDbEntity
  8
SEIHIN
100
AcDbLine
 10
275.6630203968966
 20
94.07140003587574
 30
0.0
 11
250.7062761588966
 21
94.07140003587574
 31
0.0
  0
LINE
  5
C00
330
1A
100
AcDbEntity
  8
SEIHIN
100
AcDbLine
 10
253.1631568588966
 20
91.57140003587574
 30
0.0
 11
253.1631568588966
 21
85.57140003587575
 31
0.0
  0
LINE
  5
C49
330
1A
100
AcDbEntity
  8
SEIHIN
100
AcDbLine
 10
228.1631568588966
 20
88.82140003587574
 30
0.0
 11
228.1631568588966
 21
83.96255201587576
 31
0.0
  0
ARC
  5
C4A
330
1A
100
AcDbEntity
  8
SEIHIN
100
AcDbCircle
 10
249.0700770188967
 20
86.07140003587574
 30
0.0
 40
0.4999999962089669
100
AcDbArc
 50
189.3639903601673
 51
270.0
  0
LINE
  5
C4B
330
1A
100
AcDbEntity
  8
SEIHIN
100
AcDbLine
 10
221.0290457988966
 20
88.57138598587573
 30
0.0
 11
216.1941093088966
 21
80.19703033587575
 31
0.0
  0
ARC
  5
C4C
330
1A
100
AcDbEntity
  8
SEIHIN
100
AcDbCircle
 10
250.4291206688967
 20
101.5714000358757
 30
0.0
 40
15.99999999650688
100
AcDbArc
 50
209.7520948391523
 51
251.8140195017728
  0
LINE
  5
C4D
330
1A
100
AcDbEntity
  8
SEIHIN
100
AcDbLine
 10
226.6631568588966
 20
82.21379170587573
 30
0.0
 11
226.6631568588966
 21
88.82140003587574
 31
0.0
  0
ARC
  5
C4E
330
1A
100
AcDbEntity
  8
SEIHIN
100
AcDbCircle
 10
245.1233785588966
 20
85.42057650587578
 30
0.0
 40
1.00000000571721
100
AcDbArc
 50
284.6208823770032
 51
71.814005990264
  0
LINE
  5
C4F
330
1A
100
AcDbEntity
  8
SEIHIN
100
AcDbLine
 10
209.6630203988966
 20
114.5935427968757
 30
0.0
 11
209.6630203988966
 21
81.94703033587575
 31
0.0
  0
LINE
  5
C50
330
1A
100
AcDbEntity
  8
SEIHIN
100
AcDbLine
 10
249.7107736588966
 20
83.07140003587575
 30
0.0
 11
230.2380453288967
 21
79.26938968587575
 31
0.0
  0
LINE
  5
C51
330
1A
100
AcDbEntity
  8
SEIHIN
100
AcDbLine
 10
231.6026080688966
 20
80.85995252587578
 30
0.0
 11
245.3758005988966
 21
84.45295926587574
 31
0.0
  0
ARC
  5
C52
330
1A
100
AcDbEntity
  8
SEIHIN
100
AcDbCircle
 10
249.7107736588966
 20
82.07140003587573
 30
0.0
 40
0.9999999985731333
100
AcDbArc
 50
90.0
 51
101.1960679509109
  0
ARC
  5
C53
330
1A
100
AcDbEntity
  8
SEIHIN
100
AcDbCircle
 10
228.9802634088967
 20
81.48274488587578
 30
0.0
 40
1.999999999179419
100
AcDbArc
 50
356.8130846120411
 51
97.28717723470786
  0
ARC
  5
C54
330
1A
100
AcDbEntity
  8
SEIHIN
100
AcDbCircle
 10
229.6631568588967
 20
82.21379170587573
 30
0.0
 40
3.00000000069325
100
AcDbArc
 50
180.0
 51
281.0478946588407
  0
ARC
  5
C55
330
1A
100
AcDbEntity
  8
SEIHIN
100
AcDbCircle
 10
231.4763971188966
 20
81.34376115587576
 30
0.0
 40
0.4999999958019847
100
AcDbArc
 50
176.8130840240418
 51
284.620874326095
  0
ARC
  5
C56
330
1A
100
AcDbEntity
  8
SEIHIN
100
AcDbCircle
 10
228.6631568588966
 20
83.96255201587576
 30
0.0
 40
0.4999999963452644
100
AcDbArc
 50
180.0
 51
277.2871773437204
  0
ARC
  5
C57
330
1A
100
AcDbEntity
  8
SEIHIN
100
AcDbCircle
 10
213.1630203988966
 20
81.94703033587575
 30
0.0
 40
3.499999998594639
100
AcDbArc
 50
180.0
 51
329.9999999734342
  0
LINE
  5
C58
330
1A
100
AcDbEntity
  8
SEIHIN
100
AcDbLine
 10
214.6628700988967
 20
119.5935427948757
 30
0.0
 11
221.6112510088966
 21
119.5937516678757
 31
0.0
  0
LINE
  5
C59
330
1A
100
AcDbEntity
  8
SEIHIN
100
AcDbLine
 10
214.6629452488966
 20
117.0935427958757
 30
0.0
 11
221.6113261588966
 21
117.0937516698757
 31
0.0
  0
LINE
  5
C5A
330
1A
100
AcDbEntity
  8
SEIHIN
100
AcDbLine
 10
220.6628400388966
 20
109.5937231538757
 30
0.0
 11
221.6115516188966
 21
109.5937516728757
 31
0.0
  0
LINE
  5
C5B
330
1A
100
AcDbEntity
  8
SEIHIN
100
AcDbLine
 10
220.6627648788966
 20
112.0937231527757
 30
0.0
 11
221.6114764688966
 21
112.0937516716757
 31
0.0
  0
LINE
  5
C5C
330
1A
100
AcDbEntity
  8
SEIHIN
100
AcDbLine
 10
236.8050139788966
 20
108.2780959828757
 30
0.0
 11
244.0702498688966
 21
95.56764828587574
 31
0.0
  0
LINE
  5
C5D
330
1A
100
AcDbEntity
  8
SEIHIN
100
AcDbLine
 10
238.9754656588966
 20
109.5187165978757
 30
0.0
 11
246.3653723188966
 21
96.59015880587578
 31
0.0
  0
ARC
  5
C5E
330
1A
100
AcDbEntity
  8
SEIHIN
100
AcDbCircle
 10
221.6118522288966
 20
99.59375167587575
 30
0.0
 40
9.999999999145625
100
AcDbArc
 50
29.75209484377375
 51
90.00172236842761
  0
ARC
  5
C5F
330
1A
100
AcDbEntity
  8
SEIHIN
100
AcDbCircle
 10
221.6118522288966
 20
99.59375167587575
 30
0.0
 40
12.49999999966815
100
AcDbArc
 50
29.75209483609818
 51
90.00172235696906
  0
LINE
  5
C60
330
1A
100
AcDbEntity
  8
SEIHIN
100
AcDbLine
 10
232.4641106188967
 20
105.7968547528757
 30
0.0
 11
238.8783865788967
 21
94.57515178587573
 31
0.0
  0
ARC
  5
C61
330
1A
100
AcDbEntity
  8
SEIHIN
100
AcDbCircle
 10
250.4291206688967
 20
101.5714000358757
 30
0.0
 40
13.49999999718524
100
AcDbArc
 50
233.8710725469433
 51
251.8140200506526
  0
ARC
  5
C62
330
1A
100
AcDbEntity
  8
SEIHIN
100
AcDbCircle
 10
243.2020691988967
 20
95.07140003587574
 30
0.0
 40
1.000000000347428
100
AcDbArc
 50
270.0
 51
29.75209506123094
  0
ARC
  5
C63
330
1A
100
AcDbEntity
  8
SEIHIN
100
AcDbCircle
 10
245.1233785588966
 20
85.42057650587578
 30
0.0
 40
3.500000003201731
100
AcDbArc
 50
9.363990361877162
 51
71.81401352423058
  0
ARC
  5
C64
330
1A
100
AcDbEntity
  8
SEIHIN
100
AcDbCircle
 10
250.7062756788966
 20
99.07140003587574
 30
0.0
 40
5.000000001115571
100
AcDbArc
 50
209.752094805393
 51
270.0000055003944
  0
ARC
  5
C65
330
1A
100
AcDbEntity
  8
SEIHIN
100
AcDbCircle
 10
242.7642658188966
 20
91.07140003587574
 30
0.0
 40
0.499999998465137
100
AcDbArc
 50
90.0
 51
233.8710722624271
  0
LINE
  5
C66
330
1A
100
AcDbEntity
  8
SEIHIN
100
AcDbLine
 10
243.2020691988967
 20
94.07140003587574
 30
0.0
 11
239.7465672488966
 21
94.07140003587574
 31
0.0
  0
ARC
  5
C67
330
1A
100
AcDbEntity
  8
SEIHIN
100
AcDbCircle
 10
239.7465672488966
 20
95.07140003587574
 30
0.0
 40
1.000000000347427
100
AcDbArc
 50
209.7520950612307
 51
270.0
  0
LINE
  5
C68
330
1A
100
AcDbEntity
  8
SEIHIN
100
AcDbLine
 10
230.2936589388966
 20
104.5562341378757
 30
0.0
 11
236.5382299288966
 21
93.63142809587577
 31
0.0
  0
ARC
  5
C69
330
1A
100
AcDbEntity
  8
SEIHIN
100
AcDbCircle
 10
227.4131568588966
 20
88.82140003587574
 30
0.0
 40
0.75
100
AcDbArc
 50
90.0
 51
180.0
  0
ARC
  5
C6A
330
1A
100
AcDbEntity
  8
SEIHIN
100
AcDbCircle
 10
227.4131568588966
 20
88.82140003587574
 30
0.0
 40
0.75
100
AcDbArc
 50
0.000000000000007
 51
90.0
  0
ARC
  5
C6B
330
1A
100
AcDbEntity
  8
SEIHIN
100
AcDbCircle
 10
221.6118522288966
 20
99.59375167587575
 30
0.0
 40
17.50000000101337
100
AcDbArc
 50
29.75209482732422
 51
90.00172237661297
  0
ARC
  5
C6C
330
1A
100
AcDbEntity
  8
SEIHIN
100
AcDbCircle
 10
221.6118522288966
 20
99.59375167587575
 30
0.0
 40
20.0000000011359
100
AcDbArc
 50
29.75209482458208
 51
90.00172236842841
  0
ARC
  5
C6D
330
1A
100
AcDbEntity
  8
SEIHIN
100
AcDbCircle
 10
220.6630203988966
 20
103.5937231568757
 30
0.0
 40
5.999999999855404
100
AcDbArc
 50
90.00172231113245
 51
180.0
  0
LINE
  5
C72
330
1A
100
AcDbEntity
  8
SEIHIN
100
AcDbLine
 10
214.6630203988966
 20
103.5937231568757
 30
0.0
 11
214.6630203988966
 21
89.81402667587577
 31
0.0
  0
ARC
  5
C73
330
1A
100
AcDbEntity
  8
SEIHIN
100
AcDbCircle
 10
216.6630203988966
 20
89.81402667587577
 30
0.0
 40
1.999999998321968
100
AcDbArc
 50
180.0
 51
315.0
  0
LINE
  5
C74
330
1A
100
AcDbEntity
  8
SEIHIN
100
AcDbLine
 10
219.4559136188966
 20
89.77849276587575
 30
0.0
 11
218.0772339588966
 21
88.39981311587576
 31
0.0
  0
ARC
  5
C75
330
1A
100
AcDbEntity
  8
SEIHIN
100
AcDbCircle
 10
220.1630203988966
 20
89.07138598587573
 30
0.0
 40
0.9999999975222747
100
AcDbArc
 50
329.9999998915853
 51
135.0
  0
ARC
  5
C77
330
1A
100
AcDbEntity
  8
SEIHIN
100
AcDbCircle
 10
214.6630203988966
 20
114.5935427968757
 30
0.0
 40
5.000000000129504
100
AcDbArc
 50
90.00172231113245
 51
180.0
  0
ARC
  5
C78
330
1A
100
AcDbEntity
  8
SEIHIN
100
AcDbCircle
 10
214.6630203988966
 20
114.5935427968757
 30
0.0
 40
2.500000000064752
100
AcDbArc
 50
90.00172231113245
 51
180.0
  0
ARC
  5
C79
330
1A
100
AcDbEntity
  8
SEIHIN
100
AcDbCircle
 10
220.6630203988966
 20
103.5937231568757
 30
0.0
 40
8.500000001574836
100
AcDbArc
 50
90.00172237853943
 51
142.1363536549519
  0
LINE
  5
C7A
330
1A
100
AcDbEntity
  8
SEIHIN
100
AcDbLine
 10
212.1630203988966
 20
114.5935427968757
 30
0.0
 11
212.1630203988966
 21
109.4246750518757
 31
0.0
  0
ARC
  5
C7B
330
1A
100
AcDbEntity
  8
SEIHIN
100
AcDbCircle
 10
213.1630203988966
 20
109.4246750518757
 30
0.0
 40
0.9999999983429477
100
AcDbArc
 50
180.0
 51
322.136353489461
  0
LINE
  5
C7C
330
1A
100
AcDbEntity
  8
SEIHIN
100
AcDbLine
 10
296.1301174288966
 20
205.5048784930812
 30
0.0
 11
324.6631203988966
 21
205.5048784930812
 31
0.0
  0
LINE
  5
C7D
330
1A
100
AcDbEntity
  8
SEIHIN
100
AcDbLine
 10
296.1301174288966
 20
220.5048785330812
 30
0.0
 11
324.6631203988966
 21
220.5048785330812
 31
0.0
  0
LINE
  5
C7F
330
1A
100
AcDbEntity
  8
SEIHIN
100
AcDbLine
 10
329.6631203988967
 20
202.0048784930812
 30
0.0
 11
329.6631203988967
 21
224.0048785330812
 31
0.0
  0
LINE
  5
C80
330
1A
100
AcDbEntity
  8
SEIHIN
100
AcDbLine
 10
326.6631203988966
 20
222.5048785330812
 30
0.0
 11
326.6631203988966
 21
224.0048785330812
 31
0.0
  0
LINE
  5
C81
330
1A
100
AcDbEntity
  8
SEIHIN
100
AcDbLine
 10
332.6631203988966
 20
202.0048784930812
 30
0.0
 11
332.6631203988966
 21
224.0048785330812
 31
0.0
  0
ARC
  5
C83
330
1A
100
AcDbEntity
  8
SEIHIN
100
AcDbCircle
 10
324.6631203988966
 20
203.5048784930812
 30
0.0
 40
2.0
100
AcDbArc
 50
0.000000000000007
 51
90.0
  0
LINE
  5
C84
330
1A
100
AcDbEntity
  8
SEIHIN
100
AcDbLine
 10
332.6631203988966
 20
202.0048784930812
 30
0.0
 11
326.6631203988966
 21
202.0048784930812
 31
0.0
  0
ARC
  5
C85
330
1A
100
AcDbEntity
  8
SEIHIN
100
AcDbCircle
 10
324.6631203988966
 20
222.5048785330812
 30
0.0
 40
2.0
100
AcDbArc
 50
270.0
 51
0.000000000000007
  0
LINE
  5
C87
330
1A
100
AcDbEntity
  8
SEIHIN
100
AcDbLine
 10
312.6553438188966
 20
219.5228076330812
 30
0.0
 11
312.6553438188966
 21
207.0334224030812
 31
0.0
  0
LINE
  5
C88
330
1A
100
AcDbEntity
  8
SEIHIN
100
AcDbLine
 10
315.9971727288966
 20
219.1829186330812
 30
0.0
 11
315.9971727288966
 21
206.6935333630812
 31
0.0
  0
LINE
  5
C89
330
1A
100
AcDbEntity
  8
SEIHIN
100
AcDbLine
 10
326.6631203988966
 20
203.5048784930812
 30
0.0
 11
326.6631203988966
 21
202.0048784930812
 31
0.0
  0
LINE
  5
C8A
330
1A
100
AcDbEntity
  8
SEIHIN
100
AcDbLine
 10
332.6631203988966
 20
224.0048785330812
 30
0.0
 11
326.6631203988966
 21
224.0048785330812
 31
0.0
  0
LINE
  5
F65
330
1A
100
AcDbEntity
  8
NOKITOI
  6
PHANTOM
 62
     8
100
AcDbLine
 10
214.8249204039786
 20
104.2645000347689
 30
0.0
 11
215.2150204039787
 21
91.7801000347689
 31
0.0
  0
LINE
  5
F66
330
1A
100
AcDbEntity
  8
NOKITOI
  6
PHANTOM
 62
     8
100
AcDbLine
 10
216.024320403979
 20
104.3020000347688
 30
0.0
 11
216.1736204039786
 21
99.5230000347691
 31
0.0
  0
LINE
  5
F67
330
1A
100
AcDbEntity
  8
NOKITOI
  6
PHANTOM
 62
     8
100
AcDbLine
 10
220.7374204039785
 20
101.5270000347689
 30
0.0
 11
221.7332204039787
 21
102.6270000347691
 31
0.0
  0
LINE
  5
F68
330
1A
100
AcDbEntity
  8
NOKITOI
  6
PHANTOM
 62
     8
100
AcDbLine
 10
223.2853204039785
 20
97.30070003476896
 30
0.0
 11
223.6011204039789
 21
103.3007000347689
 31
0.0
  0
ARC
  5
F69
330
1A
100
AcDbEntity
  8
NOKITOI
  6
PHANTOM
 62
     8
100
AcDbCircle
 10
220.2754382703298
 20
96.32700876314892
 30
0.0
 40
5.199991271650611
100
AcDbArc
 50
90.00019685927439
 51
142.07467139527
  0
LINE
  5
F6A
330
1A
100
AcDbEntity
  8
NOKITOI
  6
PHANTOM
 62
     8
100
AcDbLine
 10
328.7834204039783
 20
101.5270000347689
 30
0.0
 11
327.7876204039786
 21
102.6270000347691
 31
0.0
  0
LINE
  5
F6B
330
1A
100
AcDbEntity
  8
NOKITOI
  6
PHANTOM
 62
     8
100
AcDbLine
 10
326.2354204039786
 20
97.30080003476894
 30
0.0
 11
325.9196204039787
 21
103.3007000347689
 31
0.0
  0
LINE
  5
F6C
330
1A
100
AcDbEntity
  8
NOKITOI
  6
PHANTOM
 62
     8
100
AcDbLine
 10
334.6959204039786
 20
104.2645000347689
 30
0.0
 11
334.3057204039788
 21
91.78020003476888
 31
0.0
  0
LINE
  5
F6D
330
1A
100
AcDbEntity
  8
NOKITOI
  6
PHANTOM
 62
     8
100
AcDbLine
 10
333.4965204039783
 20
104.3020000347688
 30
0.0
 11
333.3471204039789
 21
99.52310003476908
 31
0.0
  0
ARC
  5
F6E
330
1A
100
AcDbEntity
  8
NOKITOI
  6
PHANTOM
 62
     8
100
AcDbCircle
 10
329.2452001913094
 20
96.32705876314901
 30
0.0
 40
5.2000412730095
100
AcDbArc
 50
37.92420092094485
 51
89.9986754569382
  0
ARC
  5
F6F
330
1A
100
AcDbEntity
  8
NOKITOI
  6
PHANTOM
 62
     8
100
AcDbCircle
 10
282.9468143220107
 20
94.32699441011266
 30
0.0
 40
41.79999437547816
100
AcDbArc
 50
270.0001454078909
 51
355.5257047874752
  0
ARC
  5
F70
330
1A
100
AcDbEntity
  8
NOKITOI
  6
PHANTOM
 62
     8
100
AcDbCircle
 10
282.946836630436
 20
94.32701451113905
 30
0.0
 40
43.00001447645168
100
AcDbArc
 50
270.0001116248562
 51
353.4750892928823
  0
ARC
  5
F71
330
1A
100
AcDbEntity
  8
NOKITOI
  6
PHANTOM
 62
     8
100
AcDbCircle
 10
332.8064844448278
 20
91.82696518062574
 30
0.0
 40
1.499965146287778
100
AcDbArc
 50
270.0013735703027
 51
358.2133719782232
  0
ARC
  5
F72
330
1A
100
AcDbEntity
  8
NOKITOI
  6
PHANTOM
 62
     8
100
AcDbCircle
 10
326.6618288281412
 20
89.32700754982546
 30
0.0
 40
0.9999924849789756
100
AcDbArc
 50
90.00048267259034
 51
173.471735393326
  0
LINE
  5
F73
330
1A
100
AcDbEntity
  8
NOKITOI
  6
PHANTOM
 62
     8
100
AcDbLine
 10
325.1179204039782
 20
91.52700003476899
 30
0.0
 11
331.1588204039787
 21
91.52700003476899
 31
0.0
  0
LINE
  5
F74
330
1A
100
AcDbEntity
  8
NOKITOI
  6
PHANTOM
 62
     8
100
AcDbLine
 10
329.4788204039789
 20
97.39780003476916
 30
0.0
 11
329.1451204039787
 21
99.73400003476911
 31
0.0
  0
LINE
  5
F75
330
1A
100
AcDbEntity
  8
NOKITOI
  6
PHANTOM
 62
     8
100
AcDbLine
 10
326.7348204039787
 20
96.82700003476895
 30
0.0
 11
328.9839204039787
 21
96.82700003476895
 31
0.0
  0
ARC
  5
F76
330
1A
100
AcDbEntity
  8
NOKITOI
  6
PHANTOM
 62
     8
100
AcDbCircle
 10
328.983893803381
 20
97.32696935788693
 30
0.0
 40
0.4999693238254178
100
AcDbArc
 50
270.0030483909644
 51
8.144496122946835
  0
ARC
  5
F77
330
1A
100
AcDbEntity
  8
NOKITOI
  6
PHANTOM
 62
     8
100
AcDbCircle
 10
326.7348272909736
 20
97.32699349968346
 30
0.0
 40
0.499993464961963
100
AcDbArc
 50
183.0029638682579
 51
269.999210798213
  0
LINE
  5
F78
330
1A
100
AcDbEntity
  8
NOKITOI
  6
PHANTOM
 62
     8
100
AcDbLine
 10
327.3989204039787
 20
98.027000034769
 30
0.0
 11
328.1768204039782
 21
98.027000034769
 31
0.0
  0
LINE
  5
F79
330
1A
100
AcDbEntity
  8
NOKITOI
  6
PHANTOM
 62
     8
100
AcDbLine
 10
327.7727204039785
 20
100.8554000347688
 30
0.0
 11
327.2177204039787
 21
101.4685000347691
 31
0.0
  0
LINE
  5
F7A
330
1A
100
AcDbEntity
  8
NOKITOI
  6
PHANTOM
 62
     8
100
AcDbLine
 10
328.1768204039782
 20
98.027000034769
 30
0.0
 11
327.7727204039785
 21
100.8554000347688
 31
0.0
  0
ARC
  5
F7B
330
1A
100
AcDbEntity
  8
NOKITOI
  6
PHANTOM
 62
     8
100
AcDbCircle
 10
329.6401061855632
 20
99.80468540046798
 30
0.0
 40
0.5000073448410256
100
AcDbArc
 50
83.52170717003087
 51
188.1270521358759
  0
LINE
  5
F7C
330
1A
100
AcDbEntity
  8
NOKITOI
  6
PHANTOM
 62
     8
100
AcDbLine
 10
328.7834204039783
 20
101.5270000347689
 30
0.0
 11
329.2453204039786
 21
101.5270000347689
 31
0.0
  0
LINE
  5
F7D
330
1A
100
AcDbEntity
  8
NOKITOI
  6
PHANTOM
 62
     8
100
AcDbLine
 10
327.3989204039787
 20
98.027000034769
 30
0.0
 11
327.2177204039787
 21
101.4685000347691
 31
0.0
  0
LINE
  5
F7E
330
1A
100
AcDbEntity
  8
NOKITOI
  6
PHANTOM
 62
     8
100
AcDbLine
 10
332.8065204039787
 20
90.32700003476895
 30
0.0
 11
326.6618204039788
 21
90.32700003476895
 31
0.0
  0
LINE
  5
F7F
330
1A
100
AcDbEntity
  8
NOKITOI
  6
PHANTOM
 62
     8
100
AcDbLine
 10
333.1578204039789
 20
93.46460003476897
 30
0.0
 11
333.2433204039786
 21
96.20210003476893
 31
0.0
  0
ARC
  5
F80
330
1A
100
AcDbEntity
  8
NOKITOI
  6
PHANTOM
 62
     8
100
AcDbCircle
 10
329.245282522532
 20
96.32704381729434
 30
0.0
 40
3.999989731271038
100
AcDbArc
 50
358.2100163932688
 51
83.5226885798689
  0
ARC
  5
F81
330
1A
100
AcDbEntity
  8
NOKITOI
  6
PHANTOM
 62
     8
100
AcDbCircle
 10
331.1588068318403
 20
93.52698687968256
 30
0.0
 40
1.999986844959662
100
AcDbArc
 50
270.0003888156784
 51
358.2124468147644
  0
ARC
  5
F82
330
1A
100
AcDbEntity
  8
NOKITOI
  6
PHANTOM
 62
     8
100
AcDbCircle
 10
325.1179078342703
 20
91.02698841003928
 30
0.0
 40
0.5000116248877111
100
AcDbArc
 50
89.99855965101618
 51
175.5251531916578
  0
LINE
  5
F83
330
1A
100
AcDbEntity
  8
NOKITOI
  6
PHANTOM
 62
     8
100
AcDbLine
 10
228.0653204039783
 20
60.80970003476898
 30
0.0
 11
238.0506204039785
 21
52.63990003476886
 31
0.0
  0
LINE
  5
F84
330
1A
100
AcDbEntity
  8
NOKITOI
  6
PHANTOM
 62
     8
100
AcDbLine
 10
227.0810204039786
 20
60.06460003476911
 30
0.0
 11
237.4841204039786
 21
51.5529000347691
 31
0.0
  0
LINE
  5
F85
330
1A
100
AcDbEntity
  8
NOKITOI
  6
PHANTOM
 62
     8
100
AcDbLine
 10
282.9468204039787
 20
52.527000034769
 30
0.0
 11
238.3672204039787
 21
52.52690003476903
 31
0.0
  0
LINE
  5
F86
330
1A
100
AcDbEntity
  8
NOKITOI
  6
PHANTOM
 62
     8
100
AcDbLine
 10
238.1174204039786
 20
51.32690003476898
 30
0.0
 11
282.9468204039787
 21
51.32700003476895
 31
0.0
  0
LINE
  5
F87
330
1A
100
AcDbEntity
  8
NOKITOI
  6
PHANTOM
 62
     8
100
AcDbLine
 10
242.3672204039787
 20
52.52690003476903
 30
0.0
 11
262.2753204039783
 21
52.52690003476903
 31
0.0
  0
LINE
  5
F88
330
1A
100
AcDbEntity
  8
NOKITOI
  6
PHANTOM
 62
     8
100
AcDbLine
 10
242.1174204039786
 20
51.32690003476898
 30
0.0
 11
262.2753204039783
 21
51.32690003476898
 31
0.0
  0
ARC
  5
F89
330
1A
100
AcDbEntity
  8
NOKITOI
  6
PHANTOM
 62
     8
100
AcDbCircle
 10
238.3672140162299
 20
53.02690231475856
 30
0.0
 40
0.5000022800304047
100
AcDbArc
 50
230.7145501403939
 51
270.0007319787208
  0
ARC
  5
F8A
330
1A
100
AcDbEntity
  8
NOKITOI
  6
PHANTOM
 62
     8
100
AcDbCircle
 10
238.117427336556
 20
52.32689755976287
 30
0.0
 40
0.9999975250179316
100
AcDbArc
 50
230.7053583247703
 51
269.9996027915963
  0
LINE
  5
F8B
330
1A
100
AcDbEntity
  8
NOKITOI
  6
PHANTOM
 62
     8
100
AcDbLine
 10
224.8914204039785
 20
91.076800034769
 30
0.0
 11
227.8844204039789
 21
61.14700003476889
 31
0.0
  0
LINE
  5
F8C
330
1A
100
AcDbEntity
  8
NOKITOI
  6
PHANTOM
 62
     8
100
AcDbLine
 10
223.8504204039784
 20
89.42650003476899
 30
0.0
 11
226.7192204039785
 21
60.73910003476896
 31
0.0
  0
ARC
  5
F8D
330
1A
100
AcDbEntity
  8
NOKITOI
  6
PHANTOM
 62
     8
100
AcDbCircle
 10
228.3819378298569
 20
61.19666754838101
 30
0.0
 40
0.4999904508696396
100
AcDbArc
 50
185.700988925076
 51
230.7099153622048
  0
ARC
  5
F8E
330
1A
100
AcDbEntity
  8
NOKITOI
  6
PHANTOM
 62
     8
100
AcDbCircle
 10
227.7142429768475
 20
60.83855796309638
 30
0.0
 40
0.9999908507640039
100
AcDbArc
 50
185.7137670522468
 51
230.7112907769309
  0
ARC
  5
F8F
330
1A
100
AcDbEntity
  8
NOKITOI
  6
PHANTOM
 62
     8
100
AcDbCircle
 10
220.2754513309148
 20
96.32703577943278
 30
0.0
 40
3.99998565374706
100
AcDbArc
 50
96.47577619531659
 51
181.791303340899
  0
LINE
  5
F90
330
1A
100
AcDbEntity
  8
NOKITOI
  6
PHANTOM
 62
     8
100
AcDbLine
 10
224.393920403979
 20
91.52700003476899
 30
0.0
 11
218.3620204039786
 21
91.52700003476899
 31
0.0
  0
LINE
  5
F91
330
1A
100
AcDbEntity
  8
NOKITOI
  6
PHANTOM
 62
     8
100
AcDbLine
 10
216.7143204039786
 20
90.32700003476895
 30
0.0
 11
222.8554204039784
 21
90.32700003476895
 31
0.0
  0
ARC
  5
F92
330
1A
100
AcDbEntity
  8
NOKITOI
  6
PHANTOM
 62
     8
100
AcDbCircle
 10
222.8553997541377
 20
89.32701872261816
 30
0.0
 40
0.9999813123640345
100
AcDbArc
 50
5.709409966648592
 51
89.9988168291509
  0
LINE
  5
F93
330
1A
100
AcDbEntity
  8
NOKITOI
  6
PHANTOM
 62
     8
100
AcDbLine
 10
220.0419204039787
 20
97.39770003476895
 30
0.0
 11
220.3757204039786
 21
99.73390003476914
 31
0.0
  0
ARC
  5
F94
330
1A
100
AcDbEntity
  8
NOKITOI
  6
PHANTOM
 62
     8
100
AcDbCircle
 10
220.5369102175424
 20
97.32701177949309
 30
0.0
 40
0.5000117448278309
100
AcDbArc
 50
171.8726853912844
 51
270.0011672521984
  0
ARC
  5
F95
330
1A
100
AcDbEntity
  8
NOKITOI
  6
PHANTOM
 62
     8
100
AcDbCircle
 10
222.786016282572
 20
97.32699612473846
 30
0.0
 40
0.4999960899864752
100
AcDbArc
 50
270.0004722821405
 51
356.9852756208258
  0
LINE
  5
F96
330
1A
100
AcDbEntity
  8
NOKITOI
  6
PHANTOM
 62
     8
100
AcDbLine
 10
222.7860204039786
 20
96.82700003476895
 30
0.0
 11
220.536920403979
 21
96.82700003476895
 31
0.0
  0
ARC
  5
F97
330
1A
100
AcDbEntity
  8
NOKITOI
  6
PHANTOM
 62
     8
100
AcDbCircle
 10
219.880691031479
 20
99.80463026726386
 30
0.0
 40
0.4999578477751074
100
AcDbArc
 50
351.8669438287067
 51
96.47390928779241
  0
LINE
  5
F98
330
1A
100
AcDbEntity
  8
NOKITOI
  6
PHANTOM
 62
     8
100
AcDbLine
 10
220.7374204039785
 20
101.5270000347689
 30
0.0
 11
220.2754204039785
 21
101.5270000347689
 31
0.0
  0
LINE
  5
F99
330
1A
100
AcDbEntity
  8
NOKITOI
  6
PHANTOM
 62
     8
100
AcDbLine
 10
221.7480204039786
 20
100.8554000347688
 30
0.0
 11
222.3030204039789
 21
101.4684000347689
 31
0.0
  0
LINE
  5
F9A
330
1A
100
AcDbEntity
  8
NOKITOI
  6
PHANTOM
 62
     8
100
AcDbLine
 10
222.1219204039786
 20
98.027000034769
 30
0.0
 11
221.344020403979
 21
98.027000034769
 31
0.0
  0
LINE
  5
F9B
330
1A
100
AcDbEntity
  8
NOKITOI
  6
PHANTOM
 62
     8
100
AcDbLine
 10
222.1219204039786
 20
98.027000034769
 30
0.0
 11
222.3030204039789
 21
101.4684000347689
 31
0.0
  0
LINE
  5
F9C
330
1A
100
AcDbEntity
  8
NOKITOI
  6
PHANTOM
 62
     8
100
AcDbLine
 10
221.344020403979
 20
98.027000034769
 30
0.0
 11
221.7480204039786
 21
100.8554000347688
 31
0.0
  0
ARC
  5
F9D
330
1A
100
AcDbEntity
  8
NOKITOI
  6
PHANTOM
 62
     8
100
AcDbCircle
 10
224.393907332974
 20
91.02701186504885
 30
0.0
 40
0.499988169890889
100
AcDbArc
 50
5.70339386228373
 51
89.99850213773367
  0
LINE
  5
F9E
330
1A
100
AcDbEntity
  8
NOKITOI
  6
PHANTOM
 62
     8
100
AcDbLine
 10
216.3629204039786
 20
93.46440003476903
 30
0.0
 11
216.2774204039789
 21
96.20200003476895
 31
0.0
  0
ARC
  5
F9F
330
1A
100
AcDbEntity
  8
NOKITOI
  6
PHANTOM
 62
     8
100
AcDbCircle
 10
218.3619824161543
 20
93.5269368553412
 30
0.0
 40
2.000036820932882
100
AcDbArc
 50
181.7889408725805
 51
270.0010882509654
  0
ARC
  5
FA0
330
1A
100
AcDbEntity
  8
NOKITOI
  6
PHANTOM
 62
     8
100
AcDbCircle
 10
216.7143031908005
 20
91.82701671791676
 30
0.0
 40
1.500016683246579
100
AcDbArc
 50
181.7923576755887
 51
270.0006574876656
  0
ARC
  5
FA1
330
1A
100
AcDbEntity
  8
NOKITOI
  6
PHANTOM
 62
     8
100
AcDbCircle
 10
332.6969076531288
 20
104.3270131898553
 30
0.0
 40
1.999986844954076
100
AcDbArc
 50
358.2116927117296
 51
89.9996347126455
  0
ARC
  5
FA2
330
1A
100
AcDbEntity
  8
NOKITOI
  6
PHANTOM
 62
     8
100
AcDbCircle
 10
326.4190266051365
 20
103.3270065698542
 30
0.0
 40
0.4999934649531607
100
AcDbArc
 50
90.00071060961923
 51
183.0044636796623
  0
LINE
  5
FA3
330
1A
100
AcDbEntity
  8
NOKITOI
  6
PHANTOM
 62
     8
100
AcDbLine
 10
326.4190204039788
 20
103.8270000347689
 30
0.0
 11
328.6505204039787
 21
103.8270000347689
 31
0.0
  0
LINE
  5
FA4
330
1A
100
AcDbEntity
  8
NOKITOI
  6
PHANTOM
 62
     8
100
AcDbLine
 10
329.1408204039786
 20
104.4251000347688
 30
0.0
 11
328.8800204039787
 21
105.7290000347689
 31
0.0
  0
LINE
  5
FA5
330
1A
100
AcDbEntity
  8
NOKITOI
  6
PHANTOM
 62
     8
100
AcDbLine
 10
332.6969204039789
 20
105.1270000347691
 30
0.0
 11
330.2241204039784
 21
105.1270000347691
 31
0.0
  0
ARC
  5
FA6
330
1A
100
AcDbEntity
  8
NOKITOI
  6
PHANTOM
 62
     8
100
AcDbCircle
 10
328.6505276585341
 20
104.3270088846123
 30
0.0
 40
0.5000088498959383
100
AcDbArc
 50
269.9991687038557
 51
11.31359566951104
  0
LINE
  5
FA7
330
1A
100
AcDbEntity
  8
NOKITOI
  6
PHANTOM
 62
     8
100
AcDbLine
 10
332.6969204039789
 20
106.3270000347689
 30
0.0
 11
329.3703204039786
 21
106.3270000347689
 31
0.0
  0
ARC
  5
FA8
330
1A
100
AcDbEntity
  8
NOKITOI
  6
PHANTOM
 62
     8
100
AcDbCircle
 10
329.3703211869871
 20
105.8270009897706
 30
0.0
 40
0.4999990449987349
100
AcDbArc
 50
90.00008972630508
 51
191.3032801984552
  0
LINE
  5
FA9
330
1A
100
AcDbEntity
  8
NOKITOI
  6
PHANTOM
 62
     8
100
AcDbLine
 10
330.7241204039784
 20
102.6270000347691
 30
0.0
 11
327.7876204039786
 21
102.6270000347691
 31
0.0
  0
LINE
  5
FAA
330
1A
100
AcDbEntity
  8
NOKITOI
  6
PHANTOM
 62
     8
100
AcDbLine
 10
330.2241204039784
 20
105.1270000347691
 30
0.0
 11
330.7241204039784
 21
102.6270000347691
 31
0.0
  0
ARC
  5
FAB
330
1A
100
AcDbEntity
  8
NOKITOI
  6
PHANTOM
 62
     8
100
AcDbCircle
 10
332.6969159091806
 20
104.3270046722958
 30
0.0
 40
0.7999953624857498
100
AcDbArc
 50
358.2088726535807
 51
89.99967808194737
  0
LINE
  5
FAC
330
1A
100
AcDbEntity
  8
NOKITOI
  6
PHANTOM
 62
     8
100
AcDbLine
 10
218.7966204039787
 20
102.6270000347691
 30
0.0
 11
221.7332204039787
 21
102.6270000347691
 31
0.0
  0
LINE
  5
FAD
330
1A
100
AcDbEntity
  8
NOKITOI
  6
PHANTOM
 62
     8
100
AcDbLine
 10
216.8239204039784
 20
106.3269000347689
 30
0.0
 11
220.1505204039787
 21
106.3270000347689
 31
0.0
  0
LINE
  5
FAE
330
1A
100
AcDbEntity
  8
NOKITOI
  6
PHANTOM
 62
     8
100
AcDbLine
 10
220.3800204039786
 20
104.4250000347691
 30
0.0
 11
220.6408204039786
 21
105.7290000347689
 31
0.0
  0
ARC
  5
FAF
330
1A
100
AcDbEntity
  8
NOKITOI
  6
PHANTOM
 62
     8
100
AcDbCircle
 10
220.8703211869871
 20
104.3269990797672
 30
0.0
 40
0.4999990449987399
100
AcDbArc
 50
168.6967198015447
 51
269.9999102736949
  0
ARC
  5
FB0
330
1A
100
AcDbEntity
  8
NOKITOI
  6
PHANTOM
 62
     8
100
AcDbCircle
 10
220.1505276585341
 20
105.8269911849255
 30
0.0
 40
0.500008849895925
100
AcDbArc
 50
348.6864043304874
 51
90.00083129614585
  0
ARC
  5
FB1
330
1A
100
AcDbEntity
  8
NOKITOI
  6
PHANTOM
 62
     8
100
AcDbCircle
 10
223.1018166944833
 20
103.3270039447996
 30
0.0
 40
0.4999960899831856
100
AcDbArc
 50
356.9843782585353
 51
89.9995749198492
  0
LINE
  5
FB2
330
1A
100
AcDbEntity
  8
NOKITOI
  6
PHANTOM
 62
     8
100
AcDbLine
 10
223.1018204039784
 20
103.8270000347689
 30
0.0
 11
220.8703204039786
 21
103.8270000347689
 31
0.0
  0
ARC
  5
FB3
330
1A
100
AcDbEntity
  8
NOKITOI
  6
PHANTOM
 62
     8
100
AcDbCircle
 10
216.8239316409728
 20
104.327011628586
 30
0.0
 40
1.999988406214315
100
AcDbArc
 50
90.00032191804448
 51
181.7911273464063
  0
ARC
  5
FB4
330
1A
100
AcDbEntity
  8
NOKITOI
  6
PHANTOM
 62
     8
100
AcDbCircle
 10
216.8238764376257
 20
104.3269546722959
 30
0.0
 40
0.7999453636812564
100
AcDbArc
 50
89.99685092684577
 51
181.7876563552118
  0
LINE
  5
FB5
330
1A
100
AcDbEntity
  8
NOKITOI
  6
PHANTOM
 62
     8
100
AcDbLine
 10
219.2966204039787
 20
105.1270000347691
 30
0.0
 11
218.7966204039787
 21
102.6270000347691
 31
0.0
  0
LINE
  5
FB6
330
1A
100
AcDbEntity
  8
NOKITOI
  6
PHANTOM
 62
     8
100
AcDbLine
 10
216.8239204039784
 20
105.1269000347689
 30
0.0
 11
219.2966204039787
 21
105.1270000347691
 31
0.0
  0
DIMENSION
  5
1057
330
1A
100
AcDbEntity
  8
SUNPOU
100
AcDbDimension
  2
*D2
 10
358.5483830455462
 20
202.0048784930812
 30
0.0
 11
356.0483830455461
 21
213.0048785130813
 31
0.0
 70
    32
 71
     5
 42
-1.0
  3
STANDARD
100
AcDbAlignedDimension
 13
332.6631203988966
 23
224.0048785330812
 33
0.0
 14
332.6631203988966
 24
202.0048784930812
 34
0.0
 50
90.0
100
AcDbRotatedDimension
1001
ACAD
1000
DSTYLE
1002
{
1070
    41
1040
3.0
1070
    42
1040
3.0
1070
    43
1040
7.0
1070
    44
1040
1.5
1070
    73
1070
     0
1070
    74
1070
     0
1070
    77
1070
     3
1070
   140
1040
3.0
1070
   141
1040
3.0
1070
   147
1040
1.0
1070
   172
1070
     1
1070
   173
1070
     1
1070
   176
1070
   256
1070
   177
1070
   256
1070
   178
1070
   256
1070
   271
1070
     0
1070
   272
1070
     0
1070
   341
1005
B2
1070
     6
1000
OPEN
1070
     7
1000
OPEN
1002
}
  0
DIMENSION
  5
1A4D
330
1A
100
AcDbEntity
  8
SUNPOU
100
AcDbDimension
  2
*D3
 10
138.8707898957175
 20
85.35702849587575
 30
0.0
 11
136.3707898957174
 21
111.3570284986979
 31
0.0
 70
    32
 71
     5
 42
-1.0
  3
STANDARD
100
AcDbAlignedDimension
 13
179.4361137788967
 23
137.3570285015201
 33
0.0
 14
169.9361137788967
 24
85.35702849587574
 34
0.0
 50
90.0
100
AcDbRotatedDimension
1001
ACAD
1000
DSTYLE
1002
{
1070
    41
1040
3.0
1070
    42
1040
3.0
1070
    43
1040
7.0
1070
    44
1040
1.5
1070
    73
1070
     0
1070
    74
1070
     0
1070
    77
1070
     3
1070
   140
1040
3.0
1070
   141
1040
3.0
1070
   147
1040
1.0
1070
   172
1070
     1
1070
   173
1070
     1
1070
   176
1070
   256
1070
   177
1070
   256
1070
   178
1070
   256
1070
   271
1070
     0
1070
   272
1070
     0
1070
   341
1005
B2
1070
     6
1000
OPEN
1070
     7
1000
OPEN
1002
}
  0
DIMENSION
  5
1A4E
330
1A
100
AcDbEntity
  8
SUNPOU
100
AcDbDimension
  2
*D4
 10
169.9361137788967
 20
149.9264565226959
 30
0.0
 11
192.3805170914377
 21
152.4264565226959
 31
0.0
 70
    32
 71
     5
 42
-1.0
  3
STANDARD
100
AcDbAlignedDimension
 13
214.8249204039786
 23
104.2645000347689
 33
0.0
 14
169.9361137788967
 24
121.3570284978757
 34
0.0
 50
180.0
100
AcDbRotatedDimension
1001
ACAD
1000
DSTYLE
1002
{
1070
    41
1040
3.0
1070
    42
1040
3.0
1070
    43
1040
7.0
1070
    44
1040
1.5
1070
    73
1070
     0
1070
    74
1070
     0
1070
    77
1070
     3
1070
   140
1040
3.0
1070
   141
1040
3.0
1070
   147
1040
1.0
1070
   172
1070
     1
1070
   173
1070
     1
1070
   176
1070
   256
1070
   177
1070
   256
1070
   178
1070
   256
1070
   271
1070
     0
1070
   272
1070
     0
1070
   341
1005
B2
1070
     6
1000
OPEN
1070
     7
1000
OPEN
1002
}
  0
DIMENSION
  5
1A4F
330
1A
100
AcDbEntity
  8
SUNPOU
100
AcDbDimension
  2
*D5
 10
169.9361137788967
 20
158.2999305827553
 30
0.0
 11
251.2996170888967
 21
160.7999305827553
 31
0.0
 70
    32
 71
     5
 42
-1.0
  3
STANDARD
100
AcDbAlignedDimension
 13
332.6631203988966
 23
95.27140003587573
 33
0.0
 14
169.9361137788967
 24
121.3570284978757
 34
0.0
 50
180.0
100
AcDbRotatedDimension
1001
ACAD
1000
DSTYLE
1002
{
1070
    41
1040
3.0
1070
    42
1040
3.0
1070
    43
1040
7.0
1070
    44
1040
1.5
1070
    73
1070
     0
1070
    74
1070
     0
1070
    77
1070
     3
1070
   140
1040
3.0
1070
   141
1040
3.0
1070
   147
1040
1.0
1070
   172
1070
     1
1070
   173
1070
     1
1070
   176
1070
   256
1070
   177
1070
   256
1070
   178
1070
   256
1070
   271
1070
     0
1070
   272
1070
     0
1070
   341
1005
B2
1070
     6
1000
OPEN
1070
     7
1000
OPEN
1002
}
  0
LINE
  5
1A50
330
1A
100
AcDbEntity
  8
SEIHIN
100
AcDbLine
 10
176.6361137788967
 20
121.3570284978757
 30
0.0
 11
169.9361137788967
 21
121.3570284978757
 31
0.0
  0
LINE
  5
1A51
330
1A
100
AcDbEntity
  8
SEIHIN
100
AcDbLine
 10
169.9361137788967
 20
85.35702849587574
 30
0.0
 11
176.6361137788967
 21
85.35702849587574
 31
0.0
  0
ARC
  5
1A52
330
1A
100
AcDbEntity
  8
SEIHIN
  6
DASHED
 62
     2
100
AcDbCircle
 10
164.4361137788967
 20
127.3570284978757
 30
0.0
 40
10.00000000364439
100
AcDbArc
 50
10.81681922094169
 51
154.1580672138377
  0
ARC
  5
1A53
330
1A
100
AcDbEntity
  8
SEIHIN
100
AcDbCircle
 10
179.4361137788967
 20
127.3570284978757
 30
0.0
 40
10.00000000364439
100
AcDbArc
 50
10.81681922094169
 51
154.1580672138377
  0
DIMENSION
  5
1A54
330
1A
100
AcDbEntity
  8
SUNPOU
100
AcDbDimension
  2
*D6
 10
348.0961406907127
 20
85.3570284958757
 30
0.0
 11
345.5961406907127
 21
92.71421426390665
 31
0.0
 70
    32
 71
     5
 42
-1.0
  3
STANDARD
100
AcDbAlignedDimension
 13
329.9630203979736
 23
100.0714000319374
 33
0.0
 14
169.9361137788967
 24
85.35702849587574
 34
0.0
 50
90.0
100
AcDbRotatedDimension
1001
ACAD
1000
DSTYLE
1002
{
1070
    41
1040
3.0
1070
    42
1040
3.0
1070
    43
1040
7.0
1070
    44
1040
1.5
1070
    73
1070
     0
1070
    74
1070
     0
1070
    77
1070
     3
1070
   140
1040
3.0
1070
   141
1040
3.0
1070
   147
1040
1.0
1070
   172
1070
     1
1070
   173
1070
     1
1070
   176
1070
   256
1070
   177
1070
   256
1070
   178
1070
   256
1070
   271
1070
     0
1070
   272
1070
     0
1070
   341
1005
B2
1070
     6
1000
OPEN
1070
     7
1000
OPEN
1002
}
  0
LINE
  5
1A64
330
1A
100
AcDbEntity
  8
CENTER L
100
AcDbLine
 10
166.5963302988967
 20
116.3570284958757
 30
0.0
 11
181.7963302988967
 21
116.3570284958757
 31
0.0
  0
LINE
  5
1A65
330
1A
100
AcDbEntity
  8
CENTER L
100
AcDbLine
 10
166.5963302988967
 20
107.8570284958757
 30
0.0
 11
181.7963302988967
 21
107.8570284958757
 31
0.0
  0
LINE
  5
1A66
330
1A
100
AcDbEntity
  8
CENTER L
100
AcDbLine
 10
166.5963302988967
 20
91.35702849587573
 30
0.0
 11
181.7963302988967
 21
91.35702849587573
 31
0.0
  0
LINE
  5
1A91
330
1A
100
AcDbEntity
  8
SEIHIN
100
AcDbLine
 10
274.2301404988966
 20
97.11774439587578
 30
0.0
 11
268.7402040988966
 21
110.0512239648757
 31
0.0
  0
LINE
  5
1A92
330
1A
100
AcDbEntity
  8
SEIHIN
100
AcDbLine
 10
176.6361137788967
 20
85.35702849587574
 30
0.0
 11
176.6361137788967
 21
121.3570284978757
 31
0.0
  0
LINE
  5
1A93
330
1A
100
AcDbEntity
  8
SEIHIN
100
AcDbLine
 10
171.1361137788967
 20
121.3570284978757
 30
0.0
 11
171.1361137788967
 21
85.35702849587574
 31
0.0
  0
ARC
  5
1ADD
330
1A
100
AcDbEntity
  8
SEIHIN
100
AcDbCircle
 10
278.8326647988967
 20
99.07140003587574
 30
0.0
 40
5.00000003649864
100
AcDbArc
 50
202.9999998276143
 51
230.6594137157537
  0
LINE
  5
1B11
330
1A
100
AcDbEntity
  8
SEIHIN
100
AcDbLine
 10
174.1361137788967
 20
93.35702849587574
 30
0.0
 11
171.1361137788967
 21
90.35702849587574
 31
0.0
  0
LINE
  5
1B12
330
1A
100
AcDbEntity
  8
SEIHIN
100
AcDbLine
 10
174.1361137788967
 20
93.35702849587574
 30
0.0
 11
171.1361137788967
 21
96.35702849587573
 31
0.0
  0
LINE
  5
1B13
330
1A
100
AcDbEntity
  8
SEIHIN
100
AcDbLine
 10
174.1361137788967
 20
93.35702849587574
 30
0.0
 11
171.1361137788967
 21
93.35702849587574
 31
0.0
  0
LINE
  5
1B14
330
1A
100
AcDbEntity
  8
SEIHIN
100
AcDbLine
 10
265.0270651988967
 20
120.0784834408757
 30
0.0
 11
190.1187986688967
 21
128.4288485858757
 31
0.0
  0
LINE
  5
1B15
330
1A
100
AcDbEntity
  8
SEIHIN
100
AcDbLine
 10
263.1497555988966
 20
114.2639291268757
 30
0.0
 11
189.3875839188967
 21
122.4735715138757
 31
0.0
  0
ARC
  5
1B18
330
1A
100
AcDbEntity
  8
SEIHIN
100
AcDbCircle
 10
276.0466947988966
 20
106.8672662858757
 30
0.0
 40
2.000000009547898
100
AcDbArc
 50
39.73084267108393
 51
98.60742352339261
  0
LINE
  5
1B19
330
1A
100
AcDbEntity
  8
SEIHIN
100
AcDbLine
 10
276.9132596988967
 20
106.1525396958757
 30
0.0
 11
273.8120557988966
 21
113.4585181858758
 31
0.0
  0
LINE
  5
1B1A
330
1A
100
AcDbEntity
  8
SEIHIN
100
AcDbLine
 10
275.6074473988966
 20
109.8217338418757
 30
0.0
 11
288.0137668988966
 21
111.5739260738757
 31
0.0
  0
LINE
  5
1B1B
330
1A
100
AcDbEntity
  8
SEIHIN
100
AcDbLine
 10
275.6726729988967
 20
110.8408701618757
 30
0.0
 11
287.3491289988966
 21
112.4899809718757
 31
0.0
  0
ARC
  5
1B1C
330
1A
100
AcDbEntity
  8
SEIHIN
100
AcDbCircle
 10
292.3676567988966
 20
110.0667639008757
 30
0.0
 40
1.000000009640918
100
AcDbArc
 50
8.038933623407695
 51
98.03892934118918
  0
LINE
  5
1B1D
330
1A
100
AcDbEntity
  8
SEIHIN
100
AcDbLine
 10
293.3578300988967
 20
110.2066098818757
 30
0.0
 11
294.1269829988967
 21
104.7606569058757
 31
0.0
  0
ARC
  5
1B1E
330
1A
100
AcDbEntity
  8
SEIHIN
100
AcDbCircle
 10
289.0180960988967
 20
111.6135410628757
 30
0.0
 40
0.9999999676895662
100
AcDbArc
 50
188.0389344813981
 51
278.0389350064524
  0
LINE
  5
1B1F
330
1A
100
AcDbEntity
  8
SEIHIN
100
AcDbLine
 10
289.1579420988967
 20
110.6233677938757
 30
0.0
 11
292.2278108988967
 21
111.0569371688757
 31
0.0
  0
LINE
  5
1B20
330
1A
100
AcDbEntity
  8
SEIHIN
100
AcDbLine
 10
288.0279228988967
 20
111.4736950818757
 30
0.0
 11
287.9480391988967
 21
112.0393075098757
 31
0.0
  0
ARC
  5
1B21
330
1A
100
AcDbEntity
  8
SEIHIN
100
AcDbCircle
 10
287.4232473988967
 20
111.9651891398757
 30
0.0
 40
0.5299999859769696
100
AcDbArc
 50
8.038934428418857
 51
98.03893715592813
  0
LINE
  5
1B22
330
1A
100
AcDbEntity
  8
SEIHIN
100
AcDbLine
 10
277.9919356988967
 20
107.6557768658757
 30
0.0
 11
277.5848059988966
 21
108.1456300958757
 31
0.0
  0
ARC
  5
1B23
330
1A
100
AcDbEntity
  8
SEIHIN
100
AcDbCircle
 10
262.2966701988967
 20
107.3161060658757
 30
0.0
 40
6.999999965304857
100
AcDbArc
 50
23.00000023399961
 51
83.00000003067621
  0
ARC
  5
1B24
330
1A
100
AcDbEntity
  8
SEIHIN
100
AcDbCircle
 10
263.6865023988967
 20
109.1604757728757
 30
0.0
 40
11.00000000680566
100
AcDbArc
 50
22.9999999736977
 51
82.99999988341848
  0
ARC
  5
1B25
330
1A
100
AcDbEntity
  8
SEIHIN
100
AcDbCircle
 10
275.5375243988966
 20
110.3168204758757
 30
0.0
 40
0.5000000014358297
100
AcDbArc
 50
233.0389334549949
 51
278.0389350144665
  0
LINE
  5
1B26
330
1A
100
AcDbEntity
  8
SEIHIN
100
AcDbLine
 10
275.6726729988967
 20
110.8408701618757
 30
0.0
 11
274.5714306988966
 21
111.6695431758757
 31
0.0
  0
LINE
  5
1B27
330
1A
100
AcDbEntity
  8
SEIHIN
100
AcDbLine
 10
264.3507168988966
 20
122.4614730818757
 30
0.0
 11
265.2567372988966
 21
122.8847071048757
 31
0.0
  0
LINE
  5
1B28
330
1A
100
AcDbEntity
  8
SEIHIN
100
AcDbLine
 10
265.4678496988967
 20
120.0152812498757
 30
0.0
 11
264.3507168988966
 21
122.4614730818757
 31
0.0
  0
LINE
  5
1B29
330
1A
100
AcDbEntity
  8
SEIHIN
100
AcDbLine
 10
266.7003883988966
 20
119.7395348558757
 30
0.0
 11
265.2567372988966
 21
122.8847071048757
 31
0.0
  0
ARC
  5
1B6D
330
1A
100
AcDbEntity
  8
SEIHIN
100
AcDbCircle
 10
190.2406680088967
 20
129.4213947358757
 30
0.0
 40
7.000000001110058
100
AcDbArc
 50
190.816819233734
 51
263.0000108338478
  0
ARC
  5
1B6E
330
1A
100
AcDbEntity
  8
SEIHIN
100
AcDbCircle
 10
190.2406680088967
 20
129.4213947358757
 30
0.0
 40
0.9999999979783014
100
AcDbArc
 50
190.8168193770098
 51
263.0000001821856
  0
LINE
  5
1B6F
330
1A
100
AcDbEntity
  8
SEIHIN
100
AcDbLine
 10
175.4361137788967
 20
127.3570291498757
 30
0.0
 11
175.4361137788967
 21
121.3570284978757
 31
0.0
  0
LINE
  5
1B70
330
1A
100
AcDbEntity
  8
SEIHIN
100
AcDbLine
 10
174.1361137788967
 20
113.3570284958757
 30
0.0
 11
171.1361137788967
 21
110.3570284958757
 31
0.0
  0
LINE
  5
1B71
330
1A
100
AcDbEntity
  8
SEIHIN
100
AcDbLine
 10
174.1361137788967
 20
113.3570284958757
 30
0.0
 11
171.1361137788967
 21
113.3570284958757
 31
0.0
  0
LINE
  5
1B72
330
1A
100
AcDbEntity
  8
SEIHIN
100
AcDbLine
 10
174.1361137788967
 20
113.3570284958757
 30
0.0
 11
171.1361137788967
 21
116.3570284958757
 31
0.0
  0
ARC
  5
1B73
330
1A
100
AcDbEntity
  8
SEIHIN
100
AcDbCircle
 10
179.4361137788967
 20
127.3570284978757
 30
0.0
 40
4.000000000161865
100
AcDbArc
 50
10.81681923757375
 51
179.9999906607889
  0
DIMENSION
  5
1B8C
330
1A
100
AcDbEntity
  8
SUNPOU
100
AcDbDimension
  2
*D7
 10
42.40062358155309
 20
169.5454918257271
 30
0.0
 11
68.90062358155311
 21
172.0454918257271
 31
0.0
 70
    32
 71
     5
 42
-1.0
  3
STANDARD
100
AcDbAlignedDimension
 13
95.4006235815531
 23
116.5714000358757
 33
0.0
 14
42.40062358155309
 24
116.5714000358757
 34
0.0
 50
180.0
100
AcDbRotatedDimension
1001
ACAD
1000
DSTYLE
1002
{
1070
    41
1040
3.0
1070
    42
1040
3.0
1070
    43
1040
7.0
1070
    44
1040
1.5
1070
    73
1070
     0
1070
    74
1070
     0
1070
    77
1070
     3
1070
   140
1040
3.0
1070
   141
1040
3.0
1070
   147
1040
1.0
1070
   172
1070
     1
1070
   173
1070
     1
1070
   176
1070
   256
1070
   177
1070
   256
1070
   178
1070
   256
1070
   271
1070
     0
1070
   272
1070
     0
1070
   341
1005
B2
1070
     6
1000
OPEN
1070
     7
1000
OPEN
1002
}
  0
LINE
  5
1B8D
330
1A
100
AcDbEntity
  8
CENTER L
100
AcDbLine
 10
42.15062360892701
 20
104.5714000358757
 30
0.0
 11
56.65062355417918
 21
104.5714000358757
 31
0.0
  0
LINE
  5
1B8E
330
1A
100
AcDbEntity
  8
CENTER L
100
AcDbLine
 10
41.80062360982568
 20
88.07140003587575
 30
0.0
 11
54.00062355328051
 21
88.07140003587575
 31
0.0
  0
LINE
  5
1B8F
330
1A
100
AcDbEntity
  8
CENTER L
100
AcDbLine
 10
41.80062360982568
 20
113.0714000358757
 30
0.0
 11
54.00062355328051
 21
113.0714000358757
 31
0.0
  0
CIRCLE
  5
1B90
330
1A
100
AcDbEntity
  8
SEIHIN
100
AcDbCircle
 10
47.90062358155309
 20
113.0714000358757
 30
0.0
 40
2.099999971727392
  0
LINE
  5
1B91
330
1A
100
AcDbEntity
  8
SEIHIN
100
AcDbLine
 10
61.4006235815531
 20
118.5714000358757
 30
0.0
 11
44.4006235815531
 21
118.5714000358757
 31
0.0
  0
CIRCLE
  5
1B92
330
1A
100
AcDbEntity
  8
SEIHIN
100
AcDbCircle
 10
49.4006235815531
 20
104.5714000358757
 30
0.0
 40
3.249999972626095
  0
CIRCLE
  5
1B93
330
1A
100
AcDbEntity
  8
SEIHIN
100
AcDbCircle
 10
47.90062358155309
 20
88.07140003587575
 30
0.0
 40
2.099999986565493
  0
LINE
  5
1B94
330
1A
100
AcDbEntity
  8
SEIHIN
100
AcDbLine
 10
44.4006235815531
 20
82.57140003587574
 30
0.0
 11
93.40062358155311
 21
82.57140003587574
 31
0.0
  0
DIMENSION
  5
1B95
330
1A
100
AcDbEntity
  8
SUNPOU
100
AcDbDimension
  2
*D8
 10
164.480339783913
 20
85.35702849587574
 30
0.0
 11
161.9803397839129
 21
103.3570284968757
 31
0.0
 70
    32
 71
     5
 42
-1.0
  3
STANDARD
100
AcDbAlignedDimension
 13
169.9361137788967
 23
121.3570284978757
 33
0.0
 14
169.9361137788967
 24
85.35702849587574
 34
0.0
 50
90.0
100
AcDbRotatedDimension
1001
ACAD
1000
DSTYLE
1002
{
1070
    41
1040
3.0
1070
    42
1040
3.0
1070
    43
1040
7.0
1070
    44
1040
1.5
1070
    73
1070
     0
1070
    74
1070
     0
1070
    77
1070
     3
1070
   140
1040
3.0
1070
   141
1040
3.0
1070
   147
1040
1.0
1070
   172
1070
     1
1070
   173
1070
     1
1070
   176
1070
   256
1070
   177
1070
   256
1070
   178
1070
   256
1070
   271
1070
     0
1070
   272
1070
     0
1070
   341
1005
B2
1070
     6
1000
OPEN
1070
     7
1000
OPEN
1002
}
  0
LINE
  5
1B96
330
1A
100
AcDbEntity
  8
SEIHIN
  6
DASHED
 62
     2
100
AcDbLine
 10
156.1361137788966
 20
121.3570284978757
 30
0.0
 11
156.1361137788966
 21
85.35702849587574
 31
0.0
  0
LINE
  5
1B97
330
1A
100
AcDbEntity
  8
SEIHIN
100
AcDbLine
 10
169.9361137788967
 20
121.3570284978757
 30
0.0
 11
169.9361137788967
 21
85.35702849587574
 31
0.0
  0
LINE
  5
1B98
330
1A
100
AcDbEntity
  8
SEIHIN
  6
DASHED
 62
     2
100
AcDbLine
 10
161.6361137788966
 20
85.35702849587574
 30
0.0
 11
161.6361137788966
 21
121.3570284978757
 31
0.0
  0
LINE
  5
1B99
330
1A
100
AcDbEntity
  8
SEIHIN
  6
DASHED
 62
     2
100
AcDbLine
 10
154.9361137788967
 20
121.3570284978757
 30
0.0
 11
154.9361137788967
 21
85.35702849587574
 31
0.0
  0
DIMENSION
  5
1B9A
330
1A
100
AcDbEntity
  8
SUNPOU
100
AcDbDimension
  2
*D9
 10
123.3739781472969
 20
82.57140003587572
 30
0.0
 11
120.8739781472969
 21
100.5714000358757
 31
0.0
 70
    32
 71
     5
 42
-1.0
  3
STANDARD
100
AcDbAlignedDimension
 13
93.40062358155311
 23
118.5714000358757
 33
0.0
 14
93.40062358155311
 24
82.57140003587574
 34
0.0
 50
90.0
100
AcDbRotatedDimension
1001
ACAD
1000
DSTYLE
1002
{
1070
    41
1040
3.0
1070
    42
1040
3.0
1070
    43
1040
7.0
1070
    44
1040
1.5
1070
    73
1070
     0
1070
    74
1070
     0
1070
    77
1070
     3
1070
   140
1040
3.0
1070
   141
1040
3.0
1070
   147
1040
1.0
1070
   172
1070
     1
1070
   173
1070
     1
1070
   176
1070
   256
1070
   177
1070
   256
1070
   178
1070
   256
1070
   271
1070
     0
1070
   272
1070
     0
1070
   341
1005
B2
1070
     6
1000
OPEN
1070
     7
1000
OPEN
1002
}
  0
LINE
  5
1B9B
330
1A
100
AcDbEntity
  8
CENTER L
100
AcDbLine
 10
68.90062358155311
 20
141.5714000358757
 30
0.0
 11
68.90062358155311
 21
75.57140003587574
 31
0.0
  0
LINE
  5
1B9C
330
1A
100
AcDbEntity
  8
CENTER L
100
AcDbLine
 10
49.4006235815531
 20
97.32140006324966
 30
0.0
 11
49.4006235815531
 21
111.8214000085018
 31
0.0
  0
LINE
  5
1B9D
330
1A
100
AcDbEntity
  8
CENTER L
100
AcDbLine
 10
88.40062358155311
 20
97.32140006324966
 30
0.0
 11
88.40062358155311
 21
111.8214000085018
 31
0.0
  0
LINE
  5
1B9E
330
1A
100
AcDbEntity
  8
SEIHIN
100
AcDbLine
 10
60.52950918155309
 20
109.0714000358757
 30
0.0
 11
60.52950918155309
 21
92.07140003587573
 31
0.0
  0
LINE
  5
1B9F
330
1A
100
AcDbEntity
  8
SEIHIN
100
AcDbLine
 10
61.4006235815531
 20
109.0714000358757
 30
0.0
 11
61.4006235815531
 21
92.07140003587573
 31
0.0
  0
CIRCLE
  5
1BA0
330
1A
100
AcDbEntity
  8
SEIHIN
100
AcDbCircle
 10
88.40062358155311
 20
104.5714000358757
 30
0.0
 40
3.249999972626075
  0
LINE
  5
1BA1
330
1A
100
AcDbEntity
  8
SEIHIN
100
AcDbLine
 10
77.27173798155312
 20
109.0714000358757
 30
0.0
 11
77.27173798155312
 21
92.07140003587573
 31
0.0
  0
CIRCLE
  5
1BA2
330
1A
100
AcDbEntity
  8
SEIHIN
100
AcDbCircle
 10
68.90062358155311
 20
100.5714000358757
 30
0.0
 40
2.999999969510066
  0
LINE
  5
1BA3
330
1A
100
AcDbEntity
  8
SEIHIN
100
AcDbLine
 10
95.4006235815531
 20
116.5714000358757
 30
0.0
 11
95.4006235815531
 21
84.57140003587573
 31
0.0
  0
LINE
  5
1BA4
330
1A
100
AcDbEntity
  8
SEIHIN
100
AcDbLine
 10
76.40062358155311
 20
109.0714000358757
 30
0.0
 11
76.40062358155311
 21
92.07140003587573
 31
0.0
  0
ARC
  5
1BA5
330
1A
100
AcDbEntity
  8
SEIHIN
100
AcDbCircle
 10
68.90062358155311
 20
100.5714000358757
 30
0.0
 40
5.024896822470276
100
AcDbArc
 50
126.657280769811
 51
53.34271923018899
  0
LINE
  5
1BA6
330
1A
100
AcDbEntity
  8
SEIHIN
100
AcDbLine
 10
62.40062358155309
 20
87.48470185587576
 30
0.0
 11
62.40062358155309
 21
134.5714000358757
 31
0.0
  0
LINE
  5
1BA7
330
1A
100
AcDbEntity
  8
SEIHIN
100
AcDbLine
 10
75.4006235815531
 20
87.48470185587576
 30
0.0
 11
75.4006235815531
 21
134.5714000358757
 31
0.0
  0
LINE
  5
1BA8
330
1A
100
AcDbEntity
  8
SEIHIN
100
AcDbLine
 10
61.4006235815531
 20
87.48470185587576
 30
0.0
 11
61.4006235815531
 21
134.5714000358757
 31
0.0
  0
LINE
  5
1BA9
330
1A
100
AcDbEntity
  8
SEIHIN
100
AcDbLine
 10
76.40062358155311
 20
87.48470185587576
 30
0.0
 11
76.40062358155311
 21
134.5714000358757
 31
0.0
  0
DIMENSION
  5
1BAA
330
1A
100
AcDbEntity
  8
SUNPOU
100
AcDbDimension
  2
*D10
 10
113.5005727847035
 20
82.57140003587572
 30
0.0
 11
111.0005727847034
 21
85.32140003587576
 31
0.0
 70
    32
 71
     5
 42
-1.0
  3
STANDARD
100
AcDbAlignedDimension
 13
96.00062355328052
 23
88.07140003587575
 33
0.0
 14
93.40062358155311
 24
82.57140003587574
 34
0.0
 50
90.0
100
AcDbRotatedDimension
1001
ACAD
1000
DSTYLE
1002
{
1070
    41
1040
3.0
1070
    42
1040
3.0
1070
    43
1040
7.0
1070
    44
1040
1.5
1070
    73
1070
     0
1070
    74
1070
     0
1070
    77
1070
     3
1070
   140
1040
3.0
1070
   141
1040
3.0
1070
   147
1040
1.0
1070
   172
1070
     1
1070
   173
1070
     1
1070
   176
1070
   256
1070
   177
1070
   256
1070
   178
1070
   256
1070
   271
1070
     0
1070
   272
1070
     0
1070
   341
1005
B2
1070
     6
1000
OPEN
1070
     7
1000
OPEN
1002
}
  0
LINE
  5
1BAC
330
1A
100
AcDbEntity
  8
SEIHIN
  6
DASHED
 62
     2
100
AcDbLine
 10
154.9361137788967
 20
85.35702849587574
 30
0.0
 11
161.6361137788966
 21
85.35702849587574
 31
0.0
  0
LINE
  5
1BAD
330
1A
100
AcDbEntity
  8
SEIHIN
100
AcDbLine
 10
79.8788616815531
 20
92.07140003587573
 30
0.0
 11
76.40062358155311
 21
92.07140003587573
 31
0.0
  0
LINE
  5
1BAE
330
1A
100
AcDbEntity
  8
SEIHIN
100
AcDbLine
 10
79.8788616815531
 20
89.07140003587574
 30
0.0
 11
75.4006235815531
 21
89.07140003587574
 31
0.0
  0
LINE
  5
1BAF
330
1A
100
AcDbEntity
  8
CENTER L
100
AcDbLine
 10
83.80062360982568
 20
88.07140003587575
 30
0.0
 11
96.00062355328052
 21
88.07140003587575
 31
0.0
  0
LINE
  5
1BB0
330
1A
100
AcDbEntity
  8
CENTER L
100
AcDbLine
 10
89.90062358155311
 20
81.97140006414839
 30
0.0
 11
89.90062358155311
 21
94.1714000076031
 31
0.0
  0
CIRCLE
  5
1BB1
330
1A
100
AcDbEntity
  8
SEIHIN
100
AcDbCircle
 10
89.90062358155311
 20
88.07140003587575
 30
0.0
 40
2.099999986565482
  0
ARC
  5
1BB2
330
1A
100
AcDbEntity
  8
SEIHIN
100
AcDbCircle
 10
93.40062358155311
 20
84.57140003587573
 30
0.0
 40
2.0
100
AcDbArc
 50
270.0
 51
0.000000000000007
  0
LINE
  5
1BB3
330
1A
100
AcDbEntity
  8
SEIHIN
100
AcDbLine
 10
79.8788616815531
 20
92.07140003587573
 30
0.0
 11
79.8788616815531
 21
89.07140003587574
 31
0.0
  0
ARC
  5
1BB4
330
1A
100
AcDbEntity
  8
SEIHIN
100
AcDbCircle
 10
64.4006235815531
 20
87.48470185587576
 30
0.0
 40
2.0
100
AcDbArc
 50
180.0
 51
270.0
  0
LINE
  5
1BB5
330
1A
100
AcDbEntity
  8
SEIHIN
100
AcDbLine
 10
64.4006235815531
 20
85.48470185587575
 30
0.0
 11
73.40062358155311
 21
85.48470185587575
 31
0.0
  0
ARC
  5
1BB6
330
1A
100
AcDbEntity
  8
SEIHIN
100
AcDbCircle
 10
73.40062358155311
 20
87.48470185587576
 30
0.0
 40
2.0
100
AcDbArc
 50
270.0
 51
0.000000000000007
  0
LINE
  5
1BB7
330
1A
100
AcDbEntity
  8
SEIHIN
100
AcDbLine
 10
76.40062358155311
 20
92.07140003587573
 30
0.0
 11
76.40062358155311
 21
89.07140003587574
 31
0.0
  0
LINE
  5
1BB8
330
1A
100
AcDbEntity
  8
SEIHIN
100
AcDbLine
 10
77.27173798155312
 20
89.07140003587574
 30
0.0
 11
77.27173798155312
 21
82.57140003587574
 31
0.0
  0
LINE
  5
1BB9
330
1A
100
AcDbEntity
  8
SEIHIN
100
AcDbLine
 10
76.40062358155311
 20
89.07140003587574
 30
0.0
 11
76.40062358155311
 21
82.57140003587574
 31
0.0
  0
LINE
  5
1BBA
330
1A
100
AcDbEntity
  8
CENTER L
100
AcDbLine
 10
47.90062358155309
 20
81.97140006414839
 30
0.0
 11
47.90062358155309
 21
94.1714000076031
 31
0.0
  0
LINE
  5
1BBB
330
1A
100
AcDbEntity
  8
SEIHIN
100
AcDbLine
 10
57.9223854815531
 20
89.07140003587574
 30
0.0
 11
62.40062358155309
 21
89.07140003587574
 31
0.0
  0
LINE
  5
1BBC
330
1A
100
AcDbEntity
  8
SEIHIN
100
AcDbLine
 10
57.9223854815531
 20
92.07140003587573
 30
0.0
 11
61.4006235815531
 21
92.07140003587573
 31
0.0
  0
LINE
  5
1BBD
330
1A
100
AcDbEntity
  8
SEIHIN
100
AcDbLine
 10
61.4006235815531
 20
92.07140003587573
 30
0.0
 11
61.4006235815531
 21
89.07140003587574
 31
0.0
  0
LINE
  5
1BBE
330
1A
100
AcDbEntity
  8
SEIHIN
100
AcDbLine
 10
61.4006235815531
 20
89.07140003587574
 30
0.0
 11
61.4006235815531
 21
82.57140003587574
 31
0.0
  0
LINE
  5
1BBF
330
1A
100
AcDbEntity
  8
SEIHIN
100
AcDbLine
 10
60.52950918155309
 20
89.07140003587574
 30
0.0
 11
60.52950918155309
 21
82.57140003587574
 31
0.0
  0
LINE
  5
1BC0
330
1A
100
AcDbEntity
  8
SEIHIN
100
AcDbLine
 10
57.9223854815531
 20
92.07140003587573
 30
0.0
 11
57.9223854815531
 21
89.07140003587574
 31
0.0
  0
TEXT
  5
1BC1
330
1A
100
AcDbEntity
  8
SUNPOU
100
AcDbText
 10
106.9043370364172
 20
144.4652003586063
 30
0.0
 40
3.0
  1
4-φ4.2
100
AcDbText
  0
LWPOLYLINE
  5
1BC2
330
1A
100
AcDbEntity
  8
SUNPOU
100
AcDbPolyline
 90
        3
 70
     0
 43
0.0
 10
92.95581949877734
 20
117.1138306078004
 10
106.2761284842878
 20
143.0778171606185
 10
124.2622722590187
 20
143.0778171606185
1001
ACAD
1000
DSTYLE
1002
{
1070
    41
1040
3.0
1070
    42
1040
3.0
1070
    43
1040
7.0
1070
    44
1040
1.5
1070
    73
1070
     0
1070
    74
1070
     0
1070
    77
1070
     0
1070
   140
1040
3.0
1070
   141
1040
3.0
1070
   147
1040
1.0
1070
   172
1070
     1
1070
   173
1070
     1
1070
   176
1070
   256
1070
   177
1070
   256
1070
   178
1070
   256
1070
   271
1070
     0
1070
   272
1070
     0
1070
   341
1005
B2
1070
   343
1005
B2
1070
   344
1005
B2
1002
}
  0
DIMENSION
  5
1BC3
330
1A
100
AcDbEntity
  8
SUNPOU
100
AcDbDimension
  2
*D11
 10
113.5005727847034
 20
113.0714000358757
 30
0.0
 11
111.0005727847034
 21
115.8214000358757
 31
0.0
 70
    32
 71
     5
 42
-1.0
  3
STANDARD
100
AcDbAlignedDimension
 13
93.40062358155311
 23
118.5714000358757
 33
0.0
 14
96.00062355328052
 24
113.0714000358757
 34
0.0
 50
90.0
100
AcDbRotatedDimension
1001
ACAD
1000
DSTYLE
1002
{
1070
    41
1040
3.0
1070
    42
1040
3.0
1070
    43
1040
7.0
1070
    44
1040
1.5
1070
    73
1070
     0
1070
    74
1070
     0
1070
    77
1070
     3
1070
   140
1040
3.0
1070
   141
1040
3.0
1070
   147
1040
1.0
1070
   172
1070
     1
1070
   173
1070
     1
1070
   176
1070
   256
1070
   177
1070
   256
1070
   178
1070
   256
1070
   271
1070
     0
1070
   272
1070
     0
1070
   341
1005
B2
1070
     6
1000
OPEN
1070
     7
1000
OPEN
1002
}
  0
DIMENSION
  5
1BC4
330
1A
100
AcDbEntity
  8
SUNPOU
100
AcDbDimension
  2
*D12
 10
154.9361137788967
 20
158.2999305827553
 30
0.0
 11
162.4361137788967
 21
160.7999305827553
 31
0.0
 70
    32
 71
     5
 42
-1.0
  3
STANDARD
100
AcDbAlignedDimension
 13
169.9361137788967
 23
121.3570284978757
 33
0.0
 14
154.9361137788967
 24
121.3570284978757
 34
0.0
 50
180.0
100
AcDbRotatedDimension
1001
ACAD
1000
DSTYLE
1002
{
1070
    41
1040
3.0
1070
    42
1040
3.0
1070
    43
1040
7.0
1070
    44
1040
1.5
1070
    73
1070
     0
1070
    74
1070
     0
1070
    77
1070
     3
1070
   140
1040
3.0
1070
   141
1040
3.0
1070
   147
1040
1.0
1070
   172
1070
     1
1070
   173
1070
     1
1070
   176
1070
   256
1070
   177
1070
   256
1070
   178
1070
   256
1070
   271
1070
     0
1070
   272
1070
     0
1070
   341
1005
B2
1070
     6
1000
OPEN
1070
     7
1000
OPEN
1002
}
  0
LINE
  5
1BC7
330
1A
100
AcDbEntity
  8
SEIHIN
100
AcDbLine
 10
170.4361137788967
 20
131.7159274458757
 30
0.0
 11
170.4361137788967
 21
121.3570284978757
 31
0.0
  0
LINE
  5
1BC8
330
1A
100
AcDbEntity
  8
SEIHIN
  6
DASHED
 62
     2
100
AcDbLine
 10
160.4361137788967
 20
127.3570291498757
 30
0.0
 11
160.4361137788967
 21
121.3570284978757
 31
0.0
  0
LINE
  5
1BC9
330
1A
100
AcDbEntity
  8
SEIHIN
  6
DASHED
 62
     2
100
AcDbLine
 10
155.4361137788967
 20
131.7159274458757
 30
0.0
 11
155.4361137788967
 21
121.3570284978757
 31
0.0
  0
LINE
  5
1BCA
330
1A
100
AcDbEntity
  8
SEIHIN
  6
DASHED
 62
     2
100
AcDbLine
 10
161.6361137788966
 20
121.3570284978757
 30
0.0
 11
154.9361137788967
 21
121.3570284978757
 31
0.0
  0
ARC
  5
1BCB
330
1A
100
AcDbEntity
  8
SEIHIN
  6
DASHED
 62
     2
100
AcDbCircle
 10
164.4361137788967
 20
127.3570284978757
 30
0.0
 40
4.000000000161865
100
AcDbArc
 50
10.81681923757375
 51
179.9999906607889
  0
TEXT
  5
1BCC
330
1A
100
AcDbEntity
  8
SUNPOU
100
AcDbText
 10
152.197283839012
 20
163.8063157210648
 30
0.0
 40
3.0
  1
（スライド幅）
100
AcDbText
  0
DIMENSION
  5
1BD2
330
1A
100
AcDbEntity
  8
SUNPOU
100
AcDbDimension
  2
*D13
 10
47.90062358155309
 20
161.6051892620846
 30
0.0
 11
68.90062358155311
 21
164.1051892620846
 31
0.0
 70
    32
 71
     5
 42
-1.0
  3
STANDARD
100
AcDbAlignedDimension
 13
89.90062358155311
 23
119.171400007603
 33
0.0
 14
47.90062358155309
 24
119.171400007603
 34
0.0
 50
180.0
100
AcDbRotatedDimension
1001
ACAD
1000
DSTYLE
1002
{
1070
    41
1040
3.0
1070
    42
1040
3.0
1070
    43
1040
7.0
1070
    44
1040
1.5
1070
    73
1070
     0
1070
    74
1070
     0
1070
    77
1070
     3
1070
   140
1040
3.0
1070
   141
1040
3.0
1070
   147
1040
1.0
1070
   172
1070
     1
1070
   173
1070
     1
1070
   176
1070
   256
1070
   177
1070
   256
1070
   178
1070
   256
1070
   271
1070
     0
1070
   272
1070
     0
1070
   341
1005
B2
1070
     6
1000
OPEN
1070
     7
1000
OPEN
1002
}
  0
DIMENSION
  5
1BD3
330
1A
100
AcDbEntity
  8
SUNPOU
100
AcDbDimension
  2
*D14
 10
49.4006235815531
 20
153.1836567124771
 30
0.0
 11
68.90062358155311
 21
155.6836567124771
 31
0.0
 70
    32
 71
     5
 42
-1.0
  3
STANDARD
100
AcDbAlignedDimension
 13
88.40062358155311
 23
111.6017062306036
 33
0.0
 14
49.4006235815531
 24
111.6017062306036
 34
0.0
 50
180.0
100
AcDbRotatedDimension
1001
ACAD
1000
DSTYLE
1002
{
1070
    41
1040
3.0
1070
    42
1040
3.0
1070
    43
1040
7.0
1070
    44
1040
1.5
1070
    73
1070
     0
1070
    74
1070
     0
1070
    77
1070
     3
1070
   140
1040
3.0
1070
   141
1040
3.0
1070
   147
1040
1.0
1070
   172
1070
     1
1070
   173
1070
     1
1070
   176
1070
   256
1070
   177
1070
   256
1070
   178
1070
   256
1070
   271
1070
     0
1070
   272
1070
     0
1070
   341
1005
B2
1070
     6
1000
OPEN
1070
     7
1000
OPEN
1002
}
  0
LINE
  5
1BD4
330
1A
100
AcDbEntity
  8
SEIHIN
100
AcDbLine
 10
76.40062358155311
 20
112.0714000358757
 30
0.0
 11
79.8788616815531
 21
112.0714000358757
 31
0.0
  0
LINE
  5
1BD5
330
1A
100
AcDbEntity
  8
SEIHIN
100
AcDbLine
 10
76.40062358155311
 20
109.0714000358757
 30
0.0
 11
79.8788616815531
 21
109.0714000358757
 31
0.0
  0
LINE
  5
1BD6
330
1A
100
AcDbEntity
  8
SEIHIN
100
AcDbLine
 10
76.40062358155311
 20
118.5714000358757
 30
0.0
 11
93.40062358155311
 21
118.5714000358757
 31
0.0
  0
LINE
  5
1BD7
330
1A
100
AcDbEntity
  8
CENTER L
100
AcDbLine
 10
83.80062360982568
 20
113.0714000358757
 30
0.0
 11
96.00062355328052
 21
113.0714000358757
 31
0.0
  0
LINE
  5
1BD8
330
1A
100
AcDbEntity
  8
CENTER L
100
AcDbLine
 10
81.15062360892702
 20
104.5714000358757
 30
0.0
 11
95.6506235541792
 21
104.5714000358757
 31
0.0
  0
LINE
  5
1BD9
330
1A
100
AcDbEntity
  8
CENTER L
100
AcDbLine
 10
89.90062358155311
 20
106.9714000641483
 30
0.0
 11
89.90062358155311
 21
119.171400007603
 31
0.0
  0
CIRCLE
  5
1BDA
330
1A
100
AcDbEntity
  8
SEIHIN
100
AcDbCircle
 10
89.90062358155311
 20
113.0714000358757
 30
0.0
 40
2.099999971727392
  0
INSERT
  5
1BDB
330
1A
100
AcDbEntity
  8
SUNPOU
100
AcDbBlockReference
  2
_OPEN
 10
91.58642643510816
 20
114.4446055072937
 30
0.0
 41
-2.999999999999999
 42
3.0
 43
3.0
 50
62.84080697426997
1001
ACAD
1000
DSTYLE
1002
{
1070
    41
1040
3.0
1070
    42
1040
3.0
1070
    43
1040
7.0
1070
    44
1040
1.5
1070
    73
1070
     0
1070
    74
1070
     0
1070
    77
1070
     0
1070
   140
1040
3.0
1070
   141
1040
3.0
1070
   147
1040
1.0
1070
   172
1070
     1
1070
   173
1070
     1
1070
   176
1070
   256
1070
   177
1070
   256
1070
   178
1070
   256
1070
   271
1070
     0
1070
   272
1070
     0
1070
   341
1005
B2
1070
   343
1005
B2
1070
   344
1005
B2
1002
}
  0
ARC
  5
1BDC
330
1A
100
AcDbEntity
  8
SEIHIN
100
AcDbCircle
 10
93.40062358155311
 20
116.5714000358757
 30
0.0
 40
2.0
100
AcDbArc
 50
0.000000000000007
 51
90.0
  0
LINE
  5
1BDD
330
1A
100
AcDbEntity
  8
SEIHIN
100
AcDbLine
 10
79.8788616815531
 20
112.0714000358757
 30
0.0
 11
79.8788616815531
 21
109.0714000358757
 31
0.0
  0
LINE
  5
1BDE
330
1A
100
AcDbEntity
  8
SEIHIN
100
AcDbLine
 10
65.90062358155311
 20
129.5571798258757
 30
0.0
 11
62.40062358155309
 21
129.5571798258757
 31
0.0
  0
LINE
  5
1BDF
330
1A
100
AcDbEntity
  8
SEIHIN
100
AcDbLine
 10
71.9006235815531
 20
129.5571801458757
 30
0.0
 11
71.9006235815531
 21
104.6024778168757
 31
0.0
  0
LINE
  5
1BE0
330
1A
100
AcDbEntity
  8
SEIHIN
100
AcDbLine
 10
65.90062358155311
 20
129.5571801858757
 30
0.0
 11
65.90062358155311
 21
104.6024778168757
 31
0.0
  0
LINE
  5
1BE1
330
1A
100
AcDbEntity
  8
SEIHIN
100
AcDbLine
 10
77.27173798155312
 20
118.5714000358757
 30
0.0
 11
77.27173798155312
 21
112.0714000358757
 31
0.0
  0
LINE
  5
1BE2
330
1A
100
AcDbEntity
  8
SEIHIN
100
AcDbLine
 10
76.40062358155311
 20
118.5714000358757
 30
0.0
 11
76.40062358155311
 21
112.0714000358757
 31
0.0
  0
LINE
  5
1BE3
330
1A
100
AcDbEntity
  8
SEIHIN
100
AcDbLine
 10
76.40062358155311
 20
112.0714000358757
 30
0.0
 11
76.40062358155311
 21
109.0714000358757
 31
0.0
  0
ARC
  5
1BE4
330
1A
100
AcDbEntity
  8
SEIHIN
100
AcDbCircle
 10
68.90062358155311
 20
129.5571798258757
 30
0.0
 40
3.000000000000019
100
AcDbArc
 50
0.0000061115503274
 51
179.9999931245075
  0
LINE
  5
1BE5
330
1A
100
AcDbEntity
  8
SEIHIN
100
AcDbLine
 10
75.4006235815531
 20
129.5571798258757
 30
0.0
 11
71.9006235815531
 21
129.5571798258757
 31
0.0
  0
LINE
  5
1BE6
330
1A
100
AcDbEntity
  8
SEIHIN
100
AcDbLine
 10
76.40062358155311
 20
134.5714000358757
 30
0.0
 11
75.4006235815531
 21
134.5714000358757
 31
0.0
  0
LINE
  5
1BE7
330
1A
100
AcDbEntity
  8
SEIHIN
100
AcDbLine
 10
60.52950918155309
 20
118.5714000358757
 30
0.0
 11
60.52950918155309
 21
112.0714000358757
 31
0.0
  0
LINE
  5
1BE8
330
1A
100
AcDbEntity
  8
SEIHIN
100
AcDbLine
 10
61.4006235815531
 20
118.5714000358757
 30
0.0
 11
61.4006235815531
 21
112.0714000358757
 31
0.0
  0
LINE
  5
1BE9
330
1A
100
AcDbEntity
  8
SEIHIN
100
AcDbLine
 10
61.4006235815531
 20
112.0714000358757
 30
0.0
 11
57.9223854815531
 21
112.0714000358757
 31
0.0
  0
LINE
  5
1BEA
330
1A
100
AcDbEntity
  8
SEIHIN
100
AcDbLine
 10
61.4006235815531
 20
109.0714000358757
 30
0.0
 11
57.9223854815531
 21
109.0714000358757
 31
0.0
  0
LINE
  5
1BEB
330
1A
100
AcDbEntity
  8
SEIHIN
100
AcDbLine
 10
61.4006235815531
 20
112.0714000358757
 30
0.0
 11
61.4006235815531
 21
109.0714000358757
 31
0.0
  0
LINE
  5
1BEC
330
1A
100
AcDbEntity
  8
SEIHIN
100
AcDbLine
 10
57.9223854815531
 20
112.0714000358757
 30
0.0
 11
57.9223854815531
 21
109.0714000358757
 31
0.0
  0
LINE
  5
1BED
330
1A
100
AcDbEntity
  8
CENTER L
100
AcDbLine
 10
47.90062358155309
 20
106.9714000641483
 30
0.0
 11
47.90062358155309
 21
119.171400007603
 31
0.0
  0
LINE
  5
1BEE
330
1A
100
AcDbEntity
  8
SEIHIN
100
AcDbLine
 10
62.40062358155309
 20
134.5714000358757
 30
0.0
 11
61.4006235815531
 21
134.5714000358757
 31
0.0
  0
LINE
  5
1BEF
330
1A
100
AcDbEntity
  8
SEIHIN
100
AcDbLine
 10
42.40062358155309
 20
116.5714000358757
 30
0.0
 11
42.40062358155309
 21
84.57140003587573
 31
0.0
  0
ARC
  5
1BF0
330
1A
100
AcDbEntity
  8
SEIHIN
100
AcDbCircle
 10
44.4006235815531
 20
84.57140003587573
 30
0.0
 40
2.0
100
AcDbArc
 50
180.0
 51
270.0
  0
LWPOLYLINE
  5
1BF1
330
1A
100
AcDbEntity
  8
SUNPOU
100
AcDbPolyline
 90
        3
 70
     0
 43
0.0
 10
45.35957716166827
 20
109.0887557098811
 10
36.07381742759516
 20
128.7630858787398
 10
20.9300417816029
 20
128.7630858787398
1001
ACAD
1000
DSTYLE
1002
{
1070
    41
1040
3.0
1070
    42
1040
3.0
1070
    43
1040
7.0
1070
    44
1040
1.5
1070
    73
1070
     0
1070
    74
1070
     0
1070
    77
1070
     0
1070
   140
1040
3.0
1070
   141
1040
3.0
1070
   147
1040
1.0
1070
   172
1070
     1
1070
   173
1070
     1
1070
   176
1070
   256
1070
   177
1070
   256
1070
   178
1070
   256
1070
   271
1070
     0
1070
   272
1070
     0
1070
   341
1005
B2
1070
   343
1005
B2
1070
   344
1005
B2
1002
}
  0
TEXT
  5
1BF2
330
1A
100
AcDbEntity
  8
SUNPOU
100
AcDbText
 10
19.99165051438208
 20
130.5644443837226
 30
0.0
 40
3.0
  1
2-φ6.5
100
AcDbText
  0
DIMENSION
  5
1BF3
330
1A
100
AcDbEntity
  8
SUNPOU
100
AcDbDimension
  2
*D15
 10
26.32561720087337
 20
104.5714000358757
 30
0.0
 11
23.82561720087335
 21
111.5714000358757
 31
0.0
 70
    32
 71
     5
 42
-1.0
  3
STANDARD
100
AcDbAlignedDimension
 13
44.4006235815531
 23
118.5714000358757
 33
0.0
 14
42.40062358155309
 24
104.5714000358757
 34
0.0
 50
90.0
100
AcDbRotatedDimension
1001
ACAD
1000
DSTYLE
1002
{
1070
    41
1040
3.0
1070
    42
1040
3.0
1070
    43
1040
7.0
1070
    44
1040
1.5
1070
    73
1070
     0
1070
    74
1070
     0
1070
    77
1070
     3
1070
   140
1040
3.0
1070
   141
1040
3.0
1070
   147
1040
1.0
1070
   172
1070
     1
1070
   173
1070
     1
1070
   176
1070
   256
1070
   177
1070
   256
1070
   178
1070
   256
1070
   271
1070
     0
1070
   272
1070
     0
1070
   341
1005
B2
1070
     6
1000
OPEN
1070
     7
1000
OPEN
1002
}
  0
INSERT
  5
1BF4
330
1A
100
AcDbEntity
  8
SUNPOU
100
AcDbBlockReference
  2
_OPEN
 10
46.64004399437557
 20
106.3757491322377
 30
0.0
 41
-2.999999999999979
 42
3.0
 43
3.0
 50
115.2660622657327
1001
ACAD
1000
DSTYLE
1002
{
1070
    41
1040
3.0
1070
    42
1040
3.0
1070
    43
1040
7.0
1070
    44
1040
1.5
1070
    73
1070
     0
1070
    74
1070
     0
1070
    77
1070
     0
1070
   140
1040
3.0
1070
   141
1040
3.0
1070
   147
1040
1.0
1070
   172
1070
     1
1070
   173
1070
     1
1070
   176
1070
   256
1070
   177
1070
   256
1070
   178
1070
   256
1070
   271
1070
     0
1070
   272
1070
     0
1070
   341
1005
B2
1070
   343
1005
B2
1070
   344
1005
B2
1002
}
  0
ARC
  5
1BF5
330
1A
100
AcDbEntity
  8
SEIHIN
100
AcDbCircle
 10
44.4006235815531
 20
116.5714000358757
 30
0.0
 40
2.0
100
AcDbArc
 50
90.0
 51
180.0
  0
LINE
  5
1EA5
330
1A
100
AcDbEntity
  8
SEIHIN
100
AcDbLine
 10
272.7638476534886
 20
220.5048785330812
 30
0.0
 11
272.7638476534886
 21
219.5048785330812
 31
0.0
  0
LINE
  5
1EA6
330
1A
100
AcDbEntity
  8
SEIHIN
100
AcDbLine
 10
272.7638476534886
 20
206.5048784930812
 30
0.0
 11
272.7638476534886
 21
205.5048784930812
 31
0.0
  0
LINE
  5
2035
330
1A
100
AcDbEntity
  8
ZUWAKU
100
AcDbLine
 10
104.3233009651347
 20
7.600000176923909
 30
0.0
 11
223.7121823055964
 21
7.600000176923906
 31
0.0
  0
LINE
  5
2036
330
1A
100
AcDbEntity
  8
ZUWAKU
100
AcDbLine
 10
104.3233009651347
 20
7.800000176923907
 30
0.0
 11
223.7121823055964
 21
7.80000017692391
 31
0.0
  0
LINE
  5
2037
330
1A
100
AcDbEntity
  8
ZUWAKU
100
AcDbLine
 10
104.3233009651347
 20
7.700000176923907
 30
0.0
 11
223.7121823055964
 21
7.700000176923907
 31
0.0
  0
LINE
  5
2038
330
1A
100
AcDbEntity
  8
ZUWAKU
100
AcDbLine
 10
0.000000320100753
 20
15.40000017692389
 30
0.0
 11
398.7000003201007
 21
15.40000017692389
 31
0.0
  0
LINE
  5
2039
330
1A
100
AcDbEntity
  8
ZUWAKU
100
AcDbLine
 10
0.000000320100753
 20
15.30000017692389
 30
0.0
 11
398.7000003201007
 21
15.30000017692389
 31
0.0
  0
LINE
  5
203A
330
1A
100
AcDbEntity
  8
ZUWAKU
100
AcDbLine
 10
0.000000320100753
 20
15.20000017692389
 30
0.0
 11
398.7000003201007
 21
15.20000017692389
 31
0.0
  0
LINE
  5
203B
330
1A
100
AcDbEntity
  8
ZUWAKU
100
AcDbLine
 10
0.000000320100753
 20
15.10000017692389
 30
0.0
 11
398.7000003201007
 21
15.10000017692389
 31
0.0
  0
LINE
  5
203C
330
1A
100
AcDbEntity
  8
ZUWAKU
100
AcDbLine
 10
0.000000320100753
 20
15.00000017692389
 30
0.0
 11
398.7000003201007
 21
15.00000017692389
 31
0.0
  0
LWPOLYLINE
  5
203D
330
1A
100
AcDbEntity
  8
ZUWAKU
100
AcDbPolyline
 90
        4
 70
     1
 43
0.0
 10
0.1000003201007189
 20
275.7000001769239
 10
0.1000003201007189
 20
0.1000001769239134
 10
398.7000003201007
 20
0.1000001769239249
 10
398.7000003201007
 20
275.7000001769239
  0
LWPOLYLINE
  5
203E
330
1A
100
AcDbEntity
  8
ZUWAKU
100
AcDbPolyline
 90
        4
 70
     1
 43
0.0
 10
0.3000003201007075
 20
275.5000001769239
 10
0.3000003201007075
 20
0.300000176923902
 10
398.5000003201008
 20
0.3000001769239251
 10
398.5000003201007
 20
275.5000001769239
  0
LWPOLYLINE
  5
203F
330
1A
100
AcDbEntity
  8
ZUWAKU
100
AcDbPolyline
 90
        4
 70
     1
 43
0.0
 10
0.000000320100753
 20
275.8000001769238
 10
0.000000320100753
 20
0.0000001769238906
 10
398.8000003201008
 20
0.0000001769239244
 10
398.8000003201008
 20
275.8000001769239
  0
LWPOLYLINE
  5
2040
330
1A
100
AcDbEntity
  8
ZUWAKU
100
AcDbPolyline
 90
        4
 70
     1
 43
0.0
 10
0.2000003201007416
 20
275.6000001769239
 10
0.2000003201007416
 20
0.2000001769239361
 10
398.6000003201007
 20
0.2000001769239246
 10
398.6000003201007
 20
275.6000001769239
  0
LWPOLYLINE
  5
2041
330
1A
100
AcDbEntity
  8
ZUWAKU
100
AcDbPolyline
 90
        4
 70
     1
 43
0.0
 10
0.4000003201007303
 20
275.4000001769239
 10
0.4000003201007303
 20
0.4000001769239248
 10
398.4000003201007
 20
0.4000001769239248
 10
398.4000003201007
 20
275.4000001769239
  0
TEXT
  5
2042
330
1A
100
AcDbEntity
  8
moji
100
AcDbText
 10
46.47889511418532
 20
6.370589242061271
 30
0.0
 40
3.0
  1
新・丸トップＲＶ１０５
 41
0.9
  7
ｽﾀｲﾙ1
100
AcDbText
  0
INSERT
  5
2043
330
1A
100
AcDbEntity
  8
ZUWAKU
  6
Continuous
100
AcDbBlockReference
  2
*X16
 10
0.0
 20
0.0
 30
0.0
1001
ACAD
1000
HATCH
1002
{
1070
    19
1000
ANSI37
1040
0.1
1040
0.0
1000
R14_HATCH_DATA
1000
2043
1011
1.0
1021
0.0
1031
0.0
1011
0.0
1021
1.0
1031
0.0
1011
0.0
1021
0.0
1031
1.0
1040
0.0
1010
0.0
1020
0.0
1030
1.0
1000
ANSI37
1070
     0
1070
     0
1071
        8
1071
        7
1070
     1
1070
     1
1071
       24
1040
7.251131650660681
1040
8.822424417415682
1040
-0.1989123673796348
1040
7.046106397491314
1040
9.317399164246207
1040
0.0
1040
7.046106397491314
1040
9.962500176923896
1040
-0.4142135623730912
1040
7.308606397491303
1040
10.22500017692389
1040
0.0
1040
8.796106397491257
1040
10.22500017692389
1040
0.4142135623731546
1040
9.058606397491303
1040
10.48750017692388
1040
0.0
1040
9.058606397491303
1040
11.36250017692389
1040
0.4142135623731586
1040
8.796106397491257
1040
11.62500017692389
1040
0.0
1040
7.046106397491314
1040
11.62500017692389
1040
0.4142135623730928
1040
5.646106397491337
1040
10.2250001769239
1040
0.0
1040
5.646106397491337
1040
9.317399164246271
1040
0.1989123673796619
1040
6.261182156999552
1040
7.832474923754467
1040
0.0
1040
7.71608114432189
1040
6.377575936432139
1040
-0.1989123673796613
1040
7.921106397491314
1040
5.882601189601546
1040
0.0
1040
7.921106397491314
1040
5.237500176923887
1040
-0.4142135623730911
1040
7.658606397491325
1040
4.975000176923892
1040
0.0
1040
6.171106397491371
1040
4.975000176923892
1040
0.4142135623731526
1040
5.908606397491325
1040
4.712500176923898
1040
0.0
1040
5.908606397491325
1040
3.837500176923887
1040
0.4142135623731526
1040
6.171106397491371
1040
3.575000176923893
1040
0.0
1040
7.921106397491314
1040
3.575000176923893
1040
0.4142135623731044
1040
9.321106397491348
1040
4.975000176923881
1040
0.0
1040
9.321106397491348
1040
5.882601189601517
1040
0.1989123673796604
1040
8.706030637983076
1040
7.367525430093287
1040
0.0
1071
        0
1071
        7
1070
     1
1070
     1
1071
       16
1040
11.77110639749133
1040
9.525000176923896
1040
-0.4142135623730935
1040
12.47110639749132
1040
10.22500017692389
1040
0.0
1040
13.4336063974913
1040
10.22500017692389
1040
0.4142135623731546
1040
13.69610639749134
1040
10.48750017692388
1040
0.0
1040
13.69610639749134
1040
11.36250017692389
1040
0.4142135623730951
1040
13.43360639749135
1040
11.62500017692389
1040
0.0
1040
12.47110639749126
1040
11.62500017692387
1040
0.4142135623730892
1040
10.3711063974913
1040
9.52500017692386
1040
0.0
1040
10.3711063974913
1040
5.675000176923905
1040
0.4142135623730969
1040
12.47110639749132
1040
3.575000176923893
1040
0.0
1040
13.4336063974913
1040
3.575000176923893
1040
0.4142135623731526
1040
13.69610639749134
1040
3.837500176923887
1040
0.0
1040
13.69610639749134
1040
4.712500176923898
1040
0.4142135623730891
1040
13.43360639749135
1040
4.975000176923892
1040
0.0
1040
12.47110639749132
1040
4.975000176923892
1040
-0.4142135623730928
1040
11.77110639749133
1040
5.675000176923886
1040
0.0
1071
        0
1071
        7
1070
     1
1070
     1
1071
        2
1040
12.1211063974913
1040
7.600000176923892
1040
1.0
1040
13.8711063974913
1040
7.600000176923892
1040
1.0
1071
        0
1071
        7
1070
     1
1070
     1
1071
       26
1040
18.65742963858031
1040
9.602523773705605
1040
0.0
1040
19.18824945514922
1040
11.2834531928404
1040
0.5069206636600134
1040
18.93793400555153
1040
11.62500017692389
1040
0.0
1040
18.08848931574692
1040
11.62500017692389
1040
0.3272098845218764
1040
17.83817386614924
1040
11.44154716100737
1040
0.0
1040
16.90403892883336
1040
8.483453192840432
1040
-0.3272098845219541
1040
16.65372347923562
1040
8.300000176923891
1040
0.0
1040
16.58360639749139
1040
8.300000176923891
1040
-0.4142135623731526
1040
16.32110639749134
1040
8.562500176923885
1040
0.0
1040
16.32110639749134
1040
11.36250017692389
1040
0.4142135623730951
1040
16.05860639749136
1040
11.62500017692389
1040
0.0
1040
15.1836063974913
1040
11.62500017692389
1040
0.4142135623730871
1040
14.92110639749131
1040
11.3625001769239
1040
0.0
1040
14.92110639749131
1040
3.837500176923887
1040
0.4142135623730891
1040
15.1836063974913
1040
3.575000176923893
1040
0.0
1040
16.0586063974913
1040
3.575000176923893
1040
0.4142135623731526
1040
16.32110639749134
1040
3.837500176923887
1040
0.0
1040
16.32110639749134
1040
6.637500176923898
1040
-0.4142135623731526
1040
16.58360639749139
1040
6.900000176923892
1040
0.0
1040
16.65372347923567
1040
6.900000176923892
1040
-0.3272098845218915
1040
16.90403892883336
1040
6.716547161007355
1040
0.0
1040
17.83817386614924
1040
3.758453192840429
1040
0.3272098845218902
1040
18.08848931574692
1040
3.575000176923893
1040
0.0
1040
18.93793400555153
1040
3.575000176923893
1040
0.5069206636600335
1040
19.18824945514922
1040
3.916547161007397
1040
0.0
1040
18.02505376591239
1040
7.600000176923961
1040
0.0
1071
        0
1071
        7
1070
     1
1070
     1
1071
        8
1040
21.7461063974913
1040
11.36250017692389
1040
0.4142135623731546
1040
21.48360639749125
1040
11.62500017692389
1040
0.0
1040
20.60860639749137
1040
11.62500017692389
1040
0.4142135623731507
1040
20.34610639749132
1040
11.3625001769239
1040
0.0
1040
20.34610639749132
1040
3.837500176923887
1040
0.4142135623731526
1040
20.60860639749137
1040
3.575000176923893
1040
0.0
1040
21.48360639749125
1040
3.575000176923893
1040
0.4142135623731526
1040
21.7461063974913
1040
3.837500176923887
1040
0.0
1071
        0
1071
        7
1070
     1
1070
     1
1071
       24
1040
24.19610639749135
1040
9.962500176923896
1040
-0.4142135623731546
1040
24.45860639749139
1040
10.22500017692389
1040
0.0
1040
25.94610639749134
1040
10.22500017692389
1040
0.4142135623730911
1040
26.20860639749134
1040
10.48750017692388
1040
0.0
1040
26.20860639749134
1040
11.36250017692389
1040
0.4142135623730952
1040
25.94610639749134
1040
11.62500017692389
1040
0.0
1040
24.19610639749135
1040
11.62500017692389
1040
0.4142135623731048
1040
22.79610639749131
1040
10.2250001769239
1040
0.0
1040
22.79610639749131
1040
9.317399164246271
1040
0.1989123673796613
1040
23.41118215699958
1040
7.832474923754496
1040
0.0
1040
24.86608114432192
1040
6.377575936432162
1040
-0.1989123673796402
1040
25.07110639749134
1040
5.882601189601626
1040
0.0
1040
25.07110639749134
1040
5.237500176923887
1040
-0.4142135623730911
1040
24.80860639749136
1040
4.975000176923892
1040
0.0
1040
23.32110639749135
1040
4.975000176923892
1040
0.4142135623731526
1040
23.0586063974913
1040
4.712500176923898
1040
0.0
1040
23.0586063974913
1040
3.837500176923887
1040
0.4142135623730891
1040
23.32110639749129
1040
3.575000176923893
1040
0.0
1040
25.07110639749134
1040
3.575000176923893
1040
0.4142135623730925
1040
26.47110639749132
1040
4.975000176923881
1040
0.0
1040
26.47110639749132
1040
5.882601189601517
1040
0.1989123673796675
1040
25.85603063798305
1040
7.367525430093344
1040
0.0
1040
24.40113165066077
1040
8.822424417415602
1040
-0.1989123673796652
1040
24.19610639749135
1040
9.317399164246186
1040
0.0
1071
        0
1071
        7
1070
     1
1070
     1
1071
       16
1040
28.92110639749131
1040
11.36250017692388
1040
0.414213562373103
1040
28.65860639749132
1040
11.62500017692389
1040
0.0
1040
27.78360639749132
1040
11.62500017692389
1040
0.4142135623730871
1040
27.52110639749133
1040
11.3625001769239
1040
0.0
1040
27.52110639749133
1040
4.975000176923881
1040
0.4142135623730926
1040
28.92110639749131
1040
3.575000176923893
1040
0.0
1040
30.67110639749131
1040
3.575000176923893
1040
0.4142135623731044
1040
32.07110639749135
1040
4.975000176923881
1040
0.0
1040
32.07110639749135
1040
11.36250017692389
1040
0.4142135623730951
1040
31.80860639749136
1040
11.62500017692389
1040
0.0
1040
30.9336063974913
1040
11.62500017692389
1040
0.4142135623730871
1040
30.67110639749131
1040
11.3625001769239
1040
0.0
1040
30.67110639749131
1040
5.500000176923879
1040
-0.414213562373088
1040
30.14610639749133
1040
4.975000176923892
1040
0.0
1040
29.44610639749134
1040
4.975000176923892
1040
-0.4142135623731197
1040
28.92110639749131
1040
5.500000176923879
1040
0.0
1071
        0
1071
        7
1070
     1
1070
     1
1071
        8
1040
34.52110639749133
1040
11.3625001769239
1040
0.4142135623730871
1040
34.25860639749135
1040
11.62500017692389
1040
0.0
1040
33.38360639749135
1040
11.62500017692389
1040
0.4142135623731507
1040
33.1211063974913
1040
11.3625001769239
1040
0.0
1040
33.1211063974913
1040
3.837500176923887
1040
0.4142135623730891
1040
33.38360639749129
1040
3.575000176923893
1040
0.0
1040
34.25860639749135
1040
3.575000176923893
1040
0.4142135623730891
1040
34.52110639749133
1040
3.837500176923887
1040
0.0
1071
        0
1070
     0
1070
     1
1040
0.0
1040
0.1
1070
     0
1070
     2
1040
0.7853981633974483
1040
-450.4711518472387
1040
-6.599999823076075
1040
-0.2245064030267288
1040
0.2245064030267288
1070
     0
1040
2.356194490192344
1040
-450.4711518472387
1040
-6.599999823076075
1040
-0.2245064030267288
1040
-0.2245064030267288
1070
     0
1040
0.057451373970553
1071
        8
1040
8.039927801612407
1040
7.583586999866668
1040
0.0
1040
11.20225782332033
1040
9.422031268149396
1040
0.0
1040
12.58218426293058
1040
7.75594099995925
1040
0.0
1040
15.45703031091932
1040
8.100649000144642
1040
0.0
1040
20.91923632957912
1040
8.33045513391545
1040
0.0
1040
23.44910076766552
1040
9.709288335127496
1040
0.0
1040
28.27884330630093
1040
9.364579134471398
1040
0.0
1040
33.91354012991212
1040
9.594385268242206
1040
0.0
1002
}
  0
LINE
  5
2044
330
1A
100
AcDbEntity
  8
ZUWAKU
100
AcDbLine
 10
12.47110639749132
 20
11.62500017692387
 30
0.0
 11
13.4336063974913
 21
11.62500017692389
 31
0.0
  0
LINE
  5
2045
330
1A
100
AcDbEntity
  8
ZUWAKU
100
AcDbLine
 10
13.4336063974913
 20
10.22500017692389
 30
0.0
 11
12.47110639749132
 21
10.22500017692389
 31
0.0
  0
LINE
  5
2046
330
1A
100
AcDbEntity
  8
ZUWAKU
100
AcDbLine
 10
12.47110639749132
 20
4.975000176923892
 30
0.0
 11
13.4336063974913
 21
4.975000176923892
 31
0.0
  0
LINE
  5
2047
330
1A
100
AcDbEntity
  8
ZUWAKU
100
AcDbLine
 10
13.4336063974913
 20
3.575000176923893
 30
0.0
 11
12.47110639749132
 21
3.575000176923893
 31
0.0
  0
CIRCLE
  5
2048
330
1A
100
AcDbEntity
  8
ZUWAKU
100
AcDbCircle
 10
12.9961063974913
 20
7.600000176923892
 30
0.0
 40
0.875
  0
ARC
  5
2049
330
1A
100
AcDbEntity
  8
ZUWAKU
100
AcDbCircle
 10
7.746106397491303
 20
9.317399164246243
 30
0.0
 40
0.7
100
AcDbArc
 50
180.0000000000016
 51
224.9999999999988
  0
LINE
  5
204A
330
1A
100
AcDbEntity
  8
ZUWAKU
100
AcDbLine
 10
11.77110639749133
 20
9.525000176923892
 30
0.0
 11
11.77110639749133
 21
5.675000176923894
 31
0.0
  0
LINE
  5
204B
330
1A
100
AcDbEntity
  8
ZUWAKU
100
AcDbLine
 10
10.3711063974913
 20
5.675000176923894
 30
0.0
 11
10.3711063974913
 21
9.525000176923871
 31
0.0
  0
ARC
  5
204C
330
1A
100
AcDbEntity
  8
ZUWAKU
100
AcDbCircle
 10
7.746106397491303
 20
9.317399164246243
 30
0.0
 40
2.099999999999999
100
AcDbArc
 50
180.0
 51
225.0
  0
ARC
  5
204D
330
1A
100
AcDbEntity
  8
ZUWAKU
100
AcDbCircle
 10
7.921106397491314
 20
4.975000176923892
 30
0.0
 40
1.399999999999999
100
AcDbArc
 50
270.0
 51
0.0
  0
ARC
  5
204E
330
1A
100
AcDbEntity
  8
ZUWAKU
100
AcDbCircle
 10
12.47110639749132
 20
5.675000176923894
 30
0.0
 40
2.099999999999999
100
AcDbArc
 50
180.0
 51
270.0
  0
ARC
  5
204F
330
1A
100
AcDbEntity
  8
ZUWAKU
100
AcDbCircle
 10
7.221106397491325
 20
5.882601189601544
 30
0.0
 40
2.099999999999999
100
AcDbArc
 50
0.0
 51
45.0
  0
LINE
  5
2050
330
1A
100
AcDbEntity
  8
ZUWAKU
100
AcDbLine
 10
8.706030637983076
 20
7.367525430093305
 30
0.0
 11
7.251131650660738
 21
8.822424417415643
 31
0.0
  0
LINE
  5
2051
330
1A
100
AcDbEntity
  8
ZUWAKU
100
AcDbLine
 10
7.921106397491314
 20
5.237500176923894
 30
0.0
 11
7.921106397491314
 21
5.882601189601565
 31
0.0
  0
ARC
  5
2052
330
1A
100
AcDbEntity
  8
ZUWAKU
100
AcDbCircle
 10
7.658606397491325
 20
5.237500176923894
 30
0.0
 40
0.2625
100
AcDbArc
 50
270.0
 51
0.0
  0
ARC
  5
2053
330
1A
100
AcDbEntity
  8
ZUWAKU
100
AcDbCircle
 10
7.221106397491325
 20
5.882601189601565
 30
0.0
 40
0.7
100
AcDbArc
 50
0.0
 51
45.0
  0
LINE
  5
2054
330
1A
100
AcDbEntity
  8
ZUWAKU
100
AcDbLine
 10
5.908606397491325
 20
3.837500176923892
 30
0.0
 11
5.908606397491325
 21
4.712500176923892
 31
0.0
  0
ARC
  5
2055
330
1A
100
AcDbEntity
  8
ZUWAKU
100
AcDbCircle
 10
6.171106397491314
 20
3.837500176923892
 30
0.0
 40
0.2625
100
AcDbArc
 50
180.0
 51
270.0
  0
ARC
  5
2056
330
1A
100
AcDbEntity
  8
ZUWAKU
100
AcDbCircle
 10
6.171106397491314
 20
4.712500176923892
 30
0.0
 40
0.2625
100
AcDbArc
 50
90.0
 51
180.0
  0
LINE
  5
2057
330
1A
100
AcDbEntity
  8
ZUWAKU
100
AcDbLine
 10
6.171106397491314
 20
3.575000176923893
 30
0.0
 11
7.921106397491314
 21
3.575000176923893
 31
0.0
  0
LINE
  5
2058
330
1A
100
AcDbEntity
  8
ZUWAKU
100
AcDbLine
 10
6.171106397491314
 20
4.975000176923892
 30
0.0
 11
7.658606397491325
 21
4.975000176923892
 31
0.0
  0
LINE
  5
2059
330
1A
100
AcDbEntity
  8
ZUWAKU
100
AcDbLine
 10
6.261182156999552
 20
7.832474923754482
 30
0.0
 11
7.71608114432189
 21
6.377575936432151
 31
0.0
  0
LINE
  5
205A
330
1A
100
AcDbEntity
  8
ZUWAKU
100
AcDbLine
 10
9.321106397491348
 20
4.975000176923892
 30
0.0
 11
9.321106397491348
 21
5.882601189601565
 31
0.0
  0
ARC
  5
205B
330
1A
100
AcDbEntity
  8
ZUWAKU
100
AcDbCircle
 10
12.47110639749132
 20
5.675000176923894
 30
0.0
 40
0.7
100
AcDbArc
 50
180.0
 51
270.0
  0
ARC
  5
205C
330
1A
100
AcDbEntity
  8
ZUWAKU
100
AcDbCircle
 10
8.796106397491314
 20
11.36250017692389
 30
0.0
 40
0.2625
100
AcDbArc
 50
0.0
 51
90.0
  0
ARC
  5
205D
330
1A
100
AcDbEntity
  8
ZUWAKU
100
AcDbCircle
 10
8.796106397491314
 20
10.48750017692389
 30
0.0
 40
0.2625
100
AcDbArc
 50
270.0
 51
0.0
  0
LINE
  5
205E
330
1A
100
AcDbEntity
  8
ZUWAKU
100
AcDbLine
 10
7.046106397491314
 20
11.62500017692389
 30
0.0
 11
8.796106397491314
 21
11.62500017692389
 31
0.0
  0
ARC
  5
205F
330
1A
100
AcDbEntity
  8
ZUWAKU
100
AcDbCircle
 10
7.308606397491303
 20
9.962500176923892
 30
0.0
 40
0.2625
100
AcDbArc
 50
90.0
 51
180.0
  0
LINE
  5
2060
330
1A
100
AcDbEntity
  8
ZUWAKU
100
AcDbLine
 10
7.046106397491314
 20
9.962500176923892
 30
0.0
 11
7.046106397491314
 21
9.317399164246221
 31
0.0
  0
LINE
  5
2061
330
1A
100
AcDbEntity
  8
ZUWAKU
100
AcDbLine
 10
8.796106397491314
 20
10.22500017692389
 30
0.0
 11
7.308606397491303
 21
10.22500017692389
 31
0.0
  0
LINE
  5
2062
330
1A
100
AcDbEntity
  8
ZUWAKU
100
AcDbLine
 10
5.646106397491337
 20
10.22500017692389
 30
0.0
 11
5.646106397491337
 21
9.317399164246221
 31
0.0
  0
ARC
  5
2063
330
1A
100
AcDbEntity
  8
ZUWAKU
100
AcDbCircle
 10
7.046106397491314
 20
10.22500017692389
 30
0.0
 40
1.399999999999999
100
AcDbArc
 50
90.0
 51
180.0
  0
LINE
  5
2064
330
1A
100
AcDbEntity
  8
ZUWAKU
100
AcDbLine
 10
9.058606397491303
 20
11.36250017692389
 30
0.0
 11
9.058606397491303
 21
10.48750017692389
 31
0.0
  0
ARC
  5
2065
330
1A
100
AcDbEntity
  8
ZUWAKU
100
AcDbCircle
 10
12.47110639749132
 20
9.525000176923892
 30
0.0
 40
0.7
100
AcDbArc
 50
90.0
 51
180.0
  0
ARC
  5
2066
330
1A
100
AcDbEntity
  8
ZUWAKU
100
AcDbCircle
 10
12.47110639749132
 20
9.525000176923871
 30
0.0
 40
2.099999999999999
100
AcDbArc
 50
90.0
 51
180.0
  0
LINE
  5
2067
330
1A
100
AcDbEntity
  8
ZUWAKU
100
AcDbLine
 10
39.66331509409485
 20
15.00000017692389
 30
0.0
 11
39.66331509409497
 21
0.4000001769239248
 31
0.0
  0
LINE
  5
2068
330
1A
100
AcDbEntity
  8
ZUWAKU
100
AcDbLine
 10
39.76331509409487
 20
15.00000017692389
 30
0.0
 11
39.76331509409499
 21
0.4000001769239248
 31
0.0
  0
LINE
  5
2069
330
1A
100
AcDbEntity
  8
ZUWAKU
100
AcDbLine
 10
39.56331509409494
 20
15.00000017692389
 30
0.0
 11
39.56331509409494
 21
0.4000001769239248
 31
0.0
  0
LINE
  5
206A
330
1A
100
AcDbEntity
  8
ZUWAKU
100
AcDbLine
 10
32.07110639749135
 20
4.975000176923892
 30
0.0
 11
32.07110639749135
 21
11.36250017692389
 31
0.0
  0
LINE
  5
206B
330
1A
100
AcDbEntity
  8
ZUWAKU
100
AcDbLine
 10
30.67110639749131
 20
11.36250017692389
 30
0.0
 11
30.67110639749131
 21
5.50000017692389
 31
0.0
  0
LINE
  5
206C
330
1A
100
AcDbEntity
  8
ZUWAKU
100
AcDbLine
 10
34.52110639749133
 20
3.837500176923892
 30
0.0
 11
34.52110639749133
 21
11.36250017692389
 31
0.0
  0
LINE
  5
206D
330
1A
100
AcDbEntity
  8
ZUWAKU
100
AcDbLine
 10
33.1211063974913
 20
11.36250017692389
 30
0.0
 11
33.1211063974913
 21
3.837500176923892
 31
0.0
  0
ARC
  5
206E
330
1A
100
AcDbEntity
  8
ZUWAKU
100
AcDbCircle
 10
24.89610639749133
 20
9.317399164246243
 30
0.0
 40
0.7
100
AcDbArc
 50
180.0000000000016
 51
224.9999999999988
  0
ARC
  5
206F
330
1A
100
AcDbEntity
  8
ZUWAKU
100
AcDbCircle
 10
24.89610639749133
 20
9.317399164246243
 30
0.0
 40
2.099999999999999
100
AcDbArc
 50
180.0
 51
225.0
  0
LINE
  5
2070
330
1A
100
AcDbEntity
  8
ZUWAKU
100
AcDbLine
 10
18.65742963858031
 20
9.602523773705605
 30
0.0
 11
18.02505376591239
 21
7.600000176923902
 31
0.0
  0
LINE
  5
2071
330
1A
100
AcDbEntity
  8
ZUWAKU
100
AcDbLine
 10
20.34610639749132
 20
11.36250017692389
 30
0.0
 11
20.34610639749132
 21
3.837500176923892
 31
0.0
  0
LINE
  5
2072
330
1A
100
AcDbEntity
  8
ZUWAKU
100
AcDbLine
 10
21.7461063974913
 20
3.837500176923892
 30
0.0
 11
21.7461063974913
 21
11.36250017692389
 31
0.0
  0
LINE
  5
2073
330
1A
100
AcDbEntity
  8
ZUWAKU
100
AcDbLine
 10
27.52110639749133
 20
11.36250017692389
 30
0.0
 11
27.52110639749133
 21
4.975000176923892
 31
0.0
  0
LINE
  5
2074
330
1A
100
AcDbEntity
  8
ZUWAKU
100
AcDbLine
 10
28.92110639749131
 20
5.50000017692389
 30
0.0
 11
28.92110639749131
 21
11.36250017692389
 31
0.0
  0
LINE
  5
2075
330
1A
100
AcDbEntity
  8
ZUWAKU
100
AcDbLine
 10
16.32110639749134
 20
8.562500176923894
 30
0.0
 11
16.32110639749134
 21
11.36250017692389
 31
0.0
  0
LINE
  5
2076
330
1A
100
AcDbEntity
  8
ZUWAKU
100
AcDbLine
 10
14.92110639749131
 20
11.36250017692389
 30
0.0
 11
14.92110639749131
 21
3.837500176923892
 31
0.0
  0
LINE
  5
2077
330
1A
100
AcDbEntity
  8
ZUWAKU
100
AcDbLine
 10
17.83817386614924
 20
11.44154716100737
 30
0.0
 11
16.90403892883336
 21
8.483453192840407
 31
0.0
  0
LINE
  5
2078
330
1A
100
AcDbEntity
  8
ZUWAKU
100
AcDbLine
 10
30.14610639749133
 20
4.975000176923892
 30
0.0
 11
29.44610639749134
 21
4.975000176923892
 31
0.0
  0
LINE
  5
2079
330
1A
100
AcDbEntity
  8
ZUWAKU
100
AcDbLine
 10
28.92110639749131
 20
3.575000176923893
 30
0.0
 11
30.67110639749131
 21
3.575000176923893
 31
0.0
  0
LINE
  5
207A
330
1A
100
AcDbEntity
  8
ZUWAKU
100
AcDbLine
 10
20.60860639749131
 20
3.575000176923893
 30
0.0
 11
21.48360639749131
 21
3.575000176923893
 31
0.0
  0
LINE
  5
207B
330
1A
100
AcDbEntity
  8
ZUWAKU
100
AcDbLine
 10
17.83817386614924
 20
3.758453192840406
 30
0.0
 11
16.90403892883336
 21
6.716547161007376
 31
0.0
  0
ARC
  5
207C
330
1A
100
AcDbEntity
  8
ZUWAKU
100
AcDbCircle
 10
16.65372347923567
 20
8.562500176923894
 30
0.0
 40
0.2625
100
AcDbArc
 50
270.0
 51
342.4744316262769
  0
LINE
  5
207D
330
1A
100
AcDbEntity
  8
ZUWAKU
100
AcDbLine
 10
16.65372347923567
 20
8.300000176923891
 30
0.0
 11
16.58360639749133
 21
8.300000176923891
 31
0.0
  0
LINE
  5
207E
330
1A
100
AcDbEntity
  8
ZUWAKU
100
AcDbLine
 10
16.58360639749133
 20
6.900000176923892
 30
0.0
 11
16.65372347923567
 21
6.900000176923892
 31
0.0
  0
ARC
  5
207F
330
1A
100
AcDbEntity
  8
ZUWAKU
100
AcDbCircle
 10
16.58360639749133
 20
8.562500176923894
 30
0.0
 40
0.2625
100
AcDbArc
 50
180.0
 51
270.0
  0
LINE
  5
2080
330
1A
100
AcDbEntity
  8
ZUWAKU
100
AcDbLine
 10
15.1836063974913
 20
3.575000176923893
 30
0.0
 11
16.0586063974913
 21
3.575000176923893
 31
0.0
  0
ARC
  5
2081
330
1A
100
AcDbEntity
  8
ZUWAKU
100
AcDbCircle
 10
16.0586063974913
 20
3.837500176923892
 30
0.0
 40
0.2625
100
AcDbArc
 50
270.0
 51
0.0
  0
LINE
  5
2082
330
1A
100
AcDbEntity
  8
ZUWAKU
100
AcDbLine
 10
16.32110639749134
 20
3.837500176923892
 30
0.0
 11
16.32110639749134
 21
6.637500176923893
 31
0.0
  0
LINE
  5
2083
330
1A
100
AcDbEntity
  8
ZUWAKU
100
AcDbLine
 10
13.69610639749134
 20
4.712500176923892
 30
0.0
 11
13.69610639749134
 21
3.837500176923892
 31
0.0
  0
ARC
  5
2084
330
1A
100
AcDbEntity
  8
ZUWAKU
100
AcDbCircle
 10
13.4336063974913
 20
3.837500176923892
 30
0.0
 40
0.2625
100
AcDbArc
 50
270.0
 51
0.0
  0
ARC
  5
2085
330
1A
100
AcDbEntity
  8
ZUWAKU
100
AcDbCircle
 10
13.4336063974913
 20
4.712500176923892
 30
0.0
 40
0.2625
100
AcDbArc
 50
0.0
 51
90.0
  0
ARC
  5
2086
330
1A
100
AcDbEntity
  8
ZUWAKU
100
AcDbCircle
 10
15.1836063974913
 20
3.837500176923892
 30
0.0
 40
0.2625
100
AcDbArc
 50
180.0
 51
270.0
  0
ARC
  5
2087
330
1A
100
AcDbEntity
  8
ZUWAKU
100
AcDbCircle
 10
16.65372347923567
 20
6.637500176923893
 30
0.0
 40
0.2625
100
AcDbArc
 50
17.52556837372303
 51
90.0
  0
ARC
  5
2088
330
1A
100
AcDbEntity
  8
ZUWAKU
100
AcDbCircle
 10
16.58360639749133
 20
6.637500176923893
 30
0.0
 40
0.2625
100
AcDbArc
 50
90.0
 51
180.0
  0
ARC
  5
2089
330
1A
100
AcDbEntity
  8
ZUWAKU
100
AcDbCircle
 10
20.60860639749131
 20
3.837500176923892
 30
0.0
 40
0.2625
100
AcDbArc
 50
180.0
 51
270.0
  0
LINE
  5
208A
330
1A
100
AcDbEntity
  8
ZUWAKU
100
AcDbLine
 10
18.08848931574698
 20
3.575000176923893
 30
0.0
 11
18.93793400555148
 21
3.575000176923893
 31
0.0
  0
ARC
  5
208B
330
1A
100
AcDbEntity
  8
ZUWAKU
100
AcDbCircle
 10
18.93793400555148
 20
3.837500176923892
 30
0.0
 40
0.2625
100
AcDbArc
 50
270.0
 51
17.52556837372303
  0
LINE
  5
208C
330
1A
100
AcDbEntity
  8
ZUWAKU
100
AcDbLine
 10
19.18824945514922
 20
3.916547161007379
 30
0.0
 11
18.02505376591239
 21
7.600000176923902
 31
0.0
  0
ARC
  5
208D
330
1A
100
AcDbEntity
  8
ZUWAKU
100
AcDbCircle
 10
18.08848931574698
 20
3.837500176923892
 30
0.0
 40
0.2625
100
AcDbArc
 50
197.525568373723
 51
270.0
  0
ARC
  5
208E
330
1A
100
AcDbEntity
  8
ZUWAKU
100
AcDbCircle
 10
28.92110639749131
 20
4.975000176923892
 30
0.0
 40
1.399999999999999
100
AcDbArc
 50
180.0
 51
270.0
  0
ARC
  5
208F
330
1A
100
AcDbEntity
  8
ZUWAKU
100
AcDbCircle
 10
25.07110639749134
 20
4.975000176923892
 30
0.0
 40
1.399999999999999
100
AcDbArc
 50
270.0
 51
0.0
  0
LINE
  5
2090
330
1A
100
AcDbEntity
  8
ZUWAKU
100
AcDbLine
 10
25.85603063798311
 20
7.367525430093305
 30
0.0
 11
24.40113165066071
 21
8.822424417415643
 31
0.0
  0
LINE
  5
2091
330
1A
100
AcDbEntity
  8
ZUWAKU
100
AcDbLine
 10
25.07110639749134
 20
5.237500176923894
 30
0.0
 11
25.07110639749134
 21
5.882601189601565
 31
0.0
  0
ARC
  5
2092
330
1A
100
AcDbEntity
  8
ZUWAKU
100
AcDbCircle
 10
24.3711063974913
 20
5.882601189601565
 30
0.0
 40
0.7
100
AcDbArc
 50
0.0
 51
45.0
  0
ARC
  5
2093
330
1A
100
AcDbEntity
  8
ZUWAKU
100
AcDbCircle
 10
24.8086063974913
 20
5.237500176923894
 30
0.0
 40
0.2625
100
AcDbArc
 50
270.0
 51
0.0
  0
LINE
  5
2094
330
1A
100
AcDbEntity
  8
ZUWAKU
100
AcDbLine
 10
23.0586063974913
 20
3.837500176923892
 30
0.0
 11
23.0586063974913
 21
4.712500176923892
 31
0.0
  0
ARC
  5
2095
330
1A
100
AcDbEntity
  8
ZUWAKU
100
AcDbCircle
 10
23.32110639749135
 20
3.837500176923892
 30
0.0
 40
0.2625
100
AcDbArc
 50
180.0
 51
270.0
  0
ARC
  5
2096
330
1A
100
AcDbEntity
  8
ZUWAKU
100
AcDbCircle
 10
21.48360639749131
 20
3.837500176923892
 30
0.0
 40
0.2625
100
AcDbArc
 50
270.0
 51
0.0
  0
ARC
  5
2097
330
1A
100
AcDbEntity
  8
ZUWAKU
100
AcDbCircle
 10
23.32110639749135
 20
4.712500176923892
 30
0.0
 40
0.2625
100
AcDbArc
 50
90.0
 51
180.0
  0
LINE
  5
2098
330
1A
100
AcDbEntity
  8
ZUWAKU
100
AcDbLine
 10
23.32110639749135
 20
4.975000176923892
 30
0.0
 11
24.8086063974913
 21
4.975000176923892
 31
0.0
  0
LINE
  5
2099
330
1A
100
AcDbEntity
  8
ZUWAKU
100
AcDbLine
 10
23.32110639749135
 20
3.575000176923893
 30
0.0
 11
25.07110639749134
 21
3.575000176923893
 31
0.0
  0
LINE
  5
209A
330
1A
100
AcDbEntity
  8
ZUWAKU
100
AcDbLine
 10
23.41118215699958
 20
7.832474923754482
 30
0.0
 11
24.86608114432192
 21
6.377575936432151
 31
0.0
  0
LINE
  5
209B
330
1A
100
AcDbEntity
  8
ZUWAKU
100
AcDbLine
 10
26.47110639749132
 20
4.975000176923892
 30
0.0
 11
26.47110639749132
 21
5.882601189601565
 31
0.0
  0
ARC
  5
209C
330
1A
100
AcDbEntity
  8
ZUWAKU
100
AcDbCircle
 10
24.3711063974913
 20
5.882601189601544
 30
0.0
 40
2.099999999999999
100
AcDbArc
 50
0.0
 51
45.0
  0
ARC
  5
209D
330
1A
100
AcDbEntity
  8
ZUWAKU
100
AcDbCircle
 10
29.44610639749134
 20
5.50000017692389
 30
0.0
 40
0.525
100
AcDbArc
 50
180.0
 51
270.0
  0
ARC
  5
209E
330
1A
100
AcDbEntity
  8
ZUWAKU
100
AcDbCircle
 10
30.67110639749131
 20
4.975000176923892
 30
0.0
 40
1.399999999999999
100
AcDbArc
 50
270.0
 51
0.0
  0
LINE
  5
209F
330
1A
100
AcDbEntity
  8
ZUWAKU
100
AcDbLine
 10
33.38360639749135
 20
3.575000176923893
 30
0.0
 11
34.25860639749135
 21
3.575000176923893
 31
0.0
  0
ARC
  5
20A0
330
1A
100
AcDbEntity
  8
ZUWAKU
100
AcDbCircle
 10
33.38360639749135
 20
3.837500176923892
 30
0.0
 40
0.2625
100
AcDbArc
 50
180.0
 51
270.0
  0
ARC
  5
20A1
330
1A
100
AcDbEntity
  8
ZUWAKU
100
AcDbCircle
 10
30.14610639749133
 20
5.50000017692389
 30
0.0
 40
0.525
100
AcDbArc
 50
270.0
 51
0.0
  0
ARC
  5
20A2
330
1A
100
AcDbEntity
  8
ZUWAKU
100
AcDbCircle
 10
34.25860639749135
 20
3.837500176923892
 30
0.0
 40
0.2625
100
AcDbArc
 50
270.0
 51
0.0
  0
LINE
  5
20A3
330
1A
100
AcDbEntity
  8
ZUWAKU
100
AcDbLine
 10
21.48360639749131
 20
11.62500017692389
 30
0.0
 11
20.60860639749131
 21
11.62500017692389
 31
0.0
  0
ARC
  5
20A4
330
1A
100
AcDbEntity
  8
ZUWAKU
100
AcDbCircle
 10
16.0586063974913
 20
11.36250017692389
 30
0.0
 40
0.2625
100
AcDbArc
 50
0.0
 51
90.0
  0
LINE
  5
20A5
330
1A
100
AcDbEntity
  8
ZUWAKU
100
AcDbLine
 10
16.0586063974913
 20
11.62500017692389
 30
0.0
 11
15.1836063974913
 21
11.62500017692389
 31
0.0
  0
ARC
  5
20A6
330
1A
100
AcDbEntity
  8
ZUWAKU
100
AcDbCircle
 10
13.4336063974913
 20
11.36250017692389
 30
0.0
 40
0.2625
100
AcDbArc
 50
0.0
 51
90.0
  0
ARC
  5
20A7
330
1A
100
AcDbEntity
  8
ZUWAKU
100
AcDbCircle
 10
15.1836063974913
 20
11.36250017692389
 30
0.0
 40
0.2625
100
AcDbArc
 50
90.0
 51
180.0
  0
ARC
  5
20A8
330
1A
100
AcDbEntity
  8
ZUWAKU
100
AcDbCircle
 10
13.4336063974913
 20
10.48750017692389
 30
0.0
 40
0.2625
100
AcDbArc
 50
270.0
 51
0.0
  0
LINE
  5
20A9
330
1A
100
AcDbEntity
  8
ZUWAKU
100
AcDbLine
 10
13.69610639749134
 20
11.36250017692389
 30
0.0
 11
13.69610639749134
 21
10.48750017692389
 31
0.0
  0
ARC
  5
20AA
330
1A
100
AcDbEntity
  8
ZUWAKU
100
AcDbCircle
 10
20.60860639749131
 20
11.36250017692389
 30
0.0
 40
0.2625
100
AcDbArc
 50
90.0
 51
180.0
  0
LINE
  5
20AB
330
1A
100
AcDbEntity
  8
ZUWAKU
100
AcDbLine
 10
18.08848931574698
 20
11.62500017692389
 30
0.0
 11
18.93793400555148
 21
11.62500017692389
 31
0.0
  0
ARC
  5
20AC
330
1A
100
AcDbEntity
  8
ZUWAKU
100
AcDbCircle
 10
18.93793400555148
 20
11.36250017692389
 30
0.0
 40
0.2625
100
AcDbArc
 50
342.4744316262769
 51
90.0
  0
LINE
  5
20AD
330
1A
100
AcDbEntity
  8
ZUWAKU
100
AcDbLine
 10
19.18824945514922
 20
11.2834531928404
 30
0.0
 11
18.65742963858031
 21
9.602523773705605
 31
0.0
  0
ARC
  5
20AE
330
1A
100
AcDbEntity
  8
ZUWAKU
100
AcDbCircle
 10
18.08848931574698
 20
11.36250017692389
 30
0.0
 40
0.2625
100
AcDbArc
 50
90.0
 51
162.4744316262769
  0
LINE
  5
20AF
330
1A
100
AcDbEntity
  8
ZUWAKU
100
AcDbLine
 10
24.19610639749135
 20
11.62500017692389
 30
0.0
 11
25.94610639749134
 21
11.62500017692389
 31
0.0
  0
LINE
  5
20B0
330
1A
100
AcDbEntity
  8
ZUWAKU
100
AcDbLine
 10
25.94610639749134
 20
10.22500017692389
 30
0.0
 11
24.45860639749133
 21
10.22500017692389
 31
0.0
  0
ARC
  5
20B1
330
1A
100
AcDbEntity
  8
ZUWAKU
100
AcDbCircle
 10
24.45860639749133
 20
9.962500176923892
 30
0.0
 40
0.2625
100
AcDbArc
 50
90.0
 51
180.0
  0
LINE
  5
20B2
330
1A
100
AcDbEntity
  8
ZUWAKU
100
AcDbLine
 10
24.19610639749135
 20
9.962500176923892
 30
0.0
 11
24.19610639749135
 21
9.317399164246221
 31
0.0
  0
ARC
  5
20B3
330
1A
100
AcDbEntity
  8
ZUWAKU
100
AcDbCircle
 10
21.48360639749131
 20
11.36250017692389
 30
0.0
 40
0.2625
100
AcDbArc
 50
0.0
 51
90.0
  0
LINE
  5
20B4
330
1A
100
AcDbEntity
  8
ZUWAKU
100
AcDbLine
 10
22.79610639749131
 20
10.22500017692389
 30
0.0
 11
22.79610639749131
 21
9.317399164246221
 31
0.0
  0
ARC
  5
20B5
330
1A
100
AcDbEntity
  8
ZUWAKU
100
AcDbCircle
 10
24.19610639749135
 20
10.22500017692389
 30
0.0
 40
1.399999999999999
100
AcDbArc
 50
90.0
 51
180.0
  0
ARC
  5
20B6
330
1A
100
AcDbEntity
  8
ZUWAKU
100
AcDbCircle
 10
28.65860639749132
 20
11.36250017692389
 30
0.0
 40
0.2625
100
AcDbArc
 50
0.0
 51
90.0
  0
ARC
  5
20B7
330
1A
100
AcDbEntity
  8
ZUWAKU
100
AcDbCircle
 10
27.78360639749132
 20
11.36250017692389
 30
0.0
 40
0.2625
100
AcDbArc
 50
90.0
 51
180.0
  0
LINE
  5
20B8
330
1A
100
AcDbEntity
  8
ZUWAKU
100
AcDbLine
 10
28.65860639749132
 20
11.62500017692389
 30
0.0
 11
27.78360639749132
 21
11.62500017692389
 31
0.0
  0
ARC
  5
20B9
330
1A
100
AcDbEntity
  8
ZUWAKU
100
AcDbCircle
 10
25.94610639749134
 20
11.36250017692389
 30
0.0
 40
0.2625
100
AcDbArc
 50
0.0
 51
90.0
  0
ARC
  5
20BA
330
1A
100
AcDbEntity
  8
ZUWAKU
100
AcDbCircle
 10
25.94610639749134
 20
10.48750017692389
 30
0.0
 40
0.2625
100
AcDbArc
 50
270.0
 51
0.0
  0
LINE
  5
20BB
330
1A
100
AcDbEntity
  8
ZUWAKU
100
AcDbLine
 10
26.20860639749134
 20
11.36250017692389
 30
0.0
 11
26.20860639749134
 21
10.48750017692389
 31
0.0
  0
LINE
  5
20BC
330
1A
100
AcDbEntity
  8
ZUWAKU
100
AcDbLine
 10
34.25860639749135
 20
11.62500017692389
 30
0.0
 11
33.38360639749135
 21
11.62500017692389
 31
0.0
  0
ARC
  5
20BD
330
1A
100
AcDbEntity
  8
ZUWAKU
100
AcDbCircle
 10
33.38360639749135
 20
11.36250017692389
 30
0.0
 40
0.2625
100
AcDbArc
 50
90.0
 51
180.0
  0
ARC
  5
20BE
330
1A
100
AcDbEntity
  8
ZUWAKU
100
AcDbCircle
 10
31.8086063974913
 20
11.36250017692389
 30
0.0
 40
0.2625
100
AcDbArc
 50
0.0
 51
90.0
  0
LINE
  5
20BF
330
1A
100
AcDbEntity
  8
ZUWAKU
100
AcDbLine
 10
31.8086063974913
 20
11.62500017692389
 30
0.0
 11
30.9336063974913
 21
11.62500017692389
 31
0.0
  0
ARC
  5
20C0
330
1A
100
AcDbEntity
  8
ZUWAKU
100
AcDbCircle
 10
30.9336063974913
 20
11.36250017692389
 30
0.0
 40
0.2625
100
AcDbArc
 50
90.0
 51
180.0
  0
ARC
  5
20C1
330
1A
100
AcDbEntity
  8
ZUWAKU
100
AcDbCircle
 10
34.25860639749135
 20
11.36250017692389
 30
0.0
 40
0.2625
100
AcDbArc
 50
0.0
 51
90.0
  0
TEXT
  5
20C2
330
1A
100
AcDbEntity
  8
moji
100
AcDbText
 10
119.9136016605262
 20
9.002460705627584
 30
0.0
 40
2.799999999999999
  1
ブラケット正面打（吊）ワンタッチ自在式
 41
0.9
  7
ｽﾀｲﾙ1
100
AcDbText
  0
TEXT
  5
20C3
330
1A
100
AcDbEntity
  8
moji
100
AcDbText
 10
119.9136016605262
 20
1.602460705627601
 30
0.0
 40
2.799999999999999
  1
ＲＶ１０５－０－４５～６０
 41
0.9
  7
ｽﾀｲﾙ1
100
AcDbText
  0
LINE
  5
20C4
330
1A
100
AcDbEntity
  8
ZUWAKU
100
AcDbLine
 10
104.1233009651347
 20
15.00000017692389
 30
0.0
 11
104.1233009651347
 21
0.4000001769239248
 31
0.0
  0
LINE
  5
20C5
330
1A
100
AcDbEntity
  8
ZUWAKU
100
AcDbLine
 10
104.3233009651346
 20
15.00000017692389
 30
0.0
 11
104.3233009651347
 21
0.4000001769239248
 31
0.0
  0
LINE
  5
20C6
330
1A
100
AcDbEntity
  8
ZUWAKU
100
AcDbLine
 10
104.2233009651346
 20
15.00000017692389
 30
0.0
 11
104.2233009651347
 21
0.4000001769239248
 31
0.0
  0
TEXT
  5
20C7
330
1A
100
AcDbEntity
  8
ZUWAKU
100
AcDbText
 10
104.8620234762395
 20
4.827678446116699
 30
0.0
 40
2.0
  1
サイズ
 41
0.9
  7
ｽﾀｲﾙ1
100
AcDbText
  0
TEXT
  5
20C8
330
1A
100
AcDbEntity
  8
ZUWAKU
100
AcDbText
 10
104.8620234762394
 20
12.02767844611668
 30
0.0
 40
2.0
  1
品名
 41
0.9
  7
ｽﾀｲﾙ1
100
AcDbText
  0
LINE
  5
20C9
330
1A
100
AcDbEntity
  8
ZUWAKU
100
AcDbLine
 10
324.4086015752028
 20
7.600000176923906
 30
0.0
 11
348.6245055943713
 21
7.600000176923908
 31
0.0
  0
LINE
  5
20CA
330
1A
100
AcDbEntity
  8
ZUWAKU
100
AcDbLine
 10
324.4086015752029
 20
7.700000176923909
 30
0.0
 11
348.6245055943713
 21
7.700000176923907
 31
0.0
  0
LINE
  5
20CB
330
1A
100
AcDbEntity
  8
ZUWAKU
100
AcDbLine
 10
324.4086015752028
 20
7.800000176923907
 30
0.0
 11
348.6245055943713
 21
7.800000176923907
 31
0.0
  0
TEXT
  5
20CC
330
1A
100
AcDbEntity
  8
ZUWAKU
100
AcDbText
 10
329.1019691637519
 20
9.002460705627584
 30
0.0
 40
2.799999999999999
  1
　　．　　．　　
 41
0.9
  7
ｽﾀｲﾙ1
100
AcDbText
  0
LINE
  5
20CD
330
1A
100
AcDbEntity
  8
ZUWAKU
100
AcDbLine
 10
252.5995900691711
 20
7.600000176923909
 30
0.0
 11
276.2634782031569
 21
7.600000176923909
 31
0.0
  0
LINE
  5
20CE
330
1A
100
AcDbEntity
  8
ZUWAKU
100
AcDbLine
 10
252.5995900691711
 20
7.700000176923907
 30
0.0
 11
276.2634782031569
 21
7.700000176923907
 31
0.0
  0
LINE
  5
20CF
330
1A
100
AcDbEntity
  8
ZUWAKU
100
AcDbLine
 10
252.5995900691711
 20
7.800000176923907
 30
0.0
 11
276.2634782031569
 21
7.800000176923907
 31
0.0
  0
TEXT
  5
20D0
330
1A
100
AcDbEntity
  8
moji
100
AcDbText
 10
231.283639481095
 20
5.971309037753883
 30
0.0
 40
2.799999999999999
  1
ＬＫ１５Ｔ
 41
0.9
  7
ｽﾀｲﾙ1
100
AcDbText
  0
LINE
  5
20D1
330
1A
100
AcDbEntity
  8
ZUWAKU
100
AcDbLine
 10
223.8121823055963
 20
15.00000017692389
 30
0.0
 11
223.8121823055964
 21
0.4000001769239248
 31
0.0
  0
LINE
  5
20D2
330
1A
100
AcDbEntity
  8
ZUWAKU
100
AcDbLine
 10
223.9121823055963
 20
15.00000017692389
 30
0.0
 11
223.9121823055965
 21
0.4000001769239248
 31
0.0
  0
LINE
  5
20D3
330
1A
100
AcDbEntity
  8
ZUWAKU
100
AcDbLine
 10
223.7121823055964
 20
15.00000017692389
 30
0.0
 11
223.7121823055964
 21
0.4000001769239248
 31
0.0
  0
TEXT
  5
20D4
330
1A
100
AcDbEntity
  8
moji
100
AcDbText
 10
264.0204543062572
 20
9.002460705627584
 30
0.0
 40
2.799999999999999
  1
Ａ３
 41
0.9
  7
ｽﾀｲﾙ1
100
AcDbText
  0
LINE
  5
20D5
330
1A
100
AcDbEntity
  8
ZUWAKU
100
AcDbLine
 10
252.4995900691711
 20
15.00000017692389
 30
0.0
 11
252.4995900691712
 21
0.4000001769239248
 31
0.0
  0
LINE
  5
20D6
330
1A
100
AcDbEntity
  8
ZUWAKU
100
AcDbLine
 10
252.5995900691711
 20
15.00000017692389
 30
0.0
 11
252.5995900691713
 21
0.4000001769239248
 31
0.0
  0
LINE
  5
20D7
330
1A
100
AcDbEntity
  8
ZUWAKU
100
AcDbLine
 10
252.3995900691712
 20
15.00000017692389
 30
0.0
 11
252.3995900691712
 21
0.4000001769239248
 31
0.0
  0
TEXT
  5
20D8
330
1A
100
AcDbEntity
  8
ZUWAKU
100
AcDbText
 10
253.3383125802761
 20
4.827678446116699
 30
0.0
 40
2.0
  1
縮尺
 41
0.9
  7
ｽﾀｲﾙ1
100
AcDbText
  0
TEXT
  5
20D9
330
1A
100
AcDbEntity
  8
moji
100
AcDbText
 10
264.0204543062572
 20
1.602460705627601
 30
0.0
 40
2.799999999999999
  1
１/１
 41
0.9
  7
ｽﾀｲﾙ1
100
AcDbText
  0
TEXT
  5
20DA
330
1A
100
AcDbEntity
  8
ZUWAKU
100
AcDbText
 10
224.6509048167012
 20
12.02767844611668
 30
0.0
 40
2.0
  1
品番
 41
0.9
  7
ｽﾀｲﾙ1
100
AcDbText
  0
TEXT
  5
20DB
330
1A
100
AcDbEntity
  8
ZUWAKU
100
AcDbText
 10
253.338312580276
 20
12.02767844611668
 30
0.0
 40
2.0
  1
用紙
 41
0.9
  7
ｽﾀｲﾙ1
100
AcDbText
  0
LINE
  5
20DC
330
1A
100
AcDbEntity
  8
ZUWAKU
100
AcDbLine
 10
324.3086015752029
 20
15.00000017692389
 30
0.0
 11
324.308601575203
 21
0.4000001769239248
 31
0.0
  0
LINE
  5
20DD
330
1A
100
AcDbEntity
  8
ZUWAKU
100
AcDbLine
 10
324.4086015752029
 20
15.00000017692389
 30
0.0
 11
324.4086015752031
 21
0.4000001769239248
 31
0.0
  0
LINE
  5
20DE
330
1A
100
AcDbEntity
  8
ZUWAKU
100
AcDbLine
 10
324.208601575203
 20
15.00000017692389
 30
0.0
 11
324.208601575203
 21
0.4000001769239248
 31
0.0
  0
LINE
  5
20DF
330
1A
100
AcDbEntity
  8
ZUWAKU
100
AcDbLine
 10
276.3634782031568
 20
15.00000017692389
 30
0.0
 11
276.3634782031569
 21
0.4000001769239248
 31
0.0
  0
LINE
  5
20E0
330
1A
100
AcDbEntity
  8
ZUWAKU
100
AcDbLine
 10
276.4634782031569
 20
15.00000017692389
 30
0.0
 11
276.463478203157
 21
0.4000001769239248
 31
0.0
  0
LINE
  5
20E1
330
1A
100
AcDbEntity
  8
ZUWAKU
100
AcDbLine
 10
276.2634782031569
 20
15.00000017692389
 30
0.0
 11
276.2634782031569
 21
0.4000001769239248
 31
0.0
  0
TEXT
  5
20E2
330
1A
100
AcDbEntity
  8
ZUWAKU
100
AcDbText
 10
325.1473240863077
 20
12.02767844611668
 30
0.0
 40
2.0
  1
DATE
 41
0.9
  7
ｽﾀｲﾙ1
100
AcDbText
  0
LINE
  5
20E3
330
1A
100
AcDbEntity
  8
ZUWAKU
100
AcDbLine
 10
348.6245055943713
 20
15.00000017692389
 30
0.0
 11
348.6245055943713
 21
0.4000001769239248
 31
0.0
  0
LINE
  5
20E4
330
1A
100
AcDbEntity
  8
ZUWAKU
100
AcDbLine
 10
348.7245055943714
 20
15.00000017692389
 30
0.0
 11
348.7245055943714
 21
0.4000001769239248
 31
0.0
  0
LINE
  5
20E5
330
1A
100
AcDbEntity
  8
ZUWAKU
100
AcDbLine
 10
348.8245055943713
 20
15.00000017692389
 30
0.0
 11
348.8245055943714
 21
0.4000001769239248
 31
0.0
  0
LINE
  5
20E6
330
1A
100
AcDbEntity
  8
ZUWAKU
100
AcDbLine
 10
348.9245055943713
 20
15.00000017692389
 30
0.0
 11
348.9245055943714
 21
0.4000001769239248
 31
0.0
  0
TEXT
  5
20E7
330
1A
100
AcDbEntity
  8
ZUWAKU
100
AcDbText
 10
353.5439516375594
 20
6.190242442876922
 30
0.0
 40
3.0
  1
積水化学工業株式会社
 41
0.9
  7
ｽﾀｲﾙ1
100
AcDbText
  0
MTEXT
  5
28DF
330
1A
100
AcDbEntity
  8
SEIHIN
100
AcDbMText
 10
284.280963695091
 20
89.01473803166528
 30
0.0
 40
2.381249964
 41
0.0
 71
     1
 72
     5
  1
{\W1.022222;45}
  7
MSゴシック
 73
     1
 44
1.0
1001
ACAD
1000
MTEXTBEGIN
1070
    73
1070
     1
1070
    44
1040
1.0
1070
    74
1070
     0
1000
MTEXTEND
1000
MTEXTBEGIN
1070
    73
1070
     1
1070
    44
1040
1.0
1070
    74
1070
     0
1000
MTEXTEND
1000
MTEXTBEGIN
1070
    73
1070
     1
1070
    44
1040
1.0
1070
    74
1070
     0
1000
MTEXTEND
1000
MTEXTBEGIN
1070
    73
1070
     1
1070
    44
1040
1.0
1070
    74
1070
     0
1000
MTEXTEND
1000
MTEXTBEGIN
1070
    73
1070
     1
1070
    44
1040
1.0
1070
    74
1070
     0
1000
MTEXTEND
1000
MTEXTBEGIN
1070
    73
1070
     1
1070
    44
1040
1.0
1070
    74
1070
     0
1000
MTEXTEND
1000
MTEXTBEGIN
1070
    73
1070
     1
1070
    44
1040
1.0
1070
    74
1070
     0
1000
MTEXTEND
1000
MTEXTBEGIN
1070
    73
1070
     1
1070
    44
1040
1.0
1070
    74
1070
     0
1000
MTEXTEND
1000
MTEXTBEGIN
1070
    73
1070
     1
1070
    44
1040
1.0
1070
    74
1070
     0
1000
MTEXTEND
1000
MTEXTBEGIN
1070
    73
1070
     1
1070
    44
1040
1.0
1070
    74
1070
     0
1000
MTEXTEND
1000
MTEXTBEGIN
1070
    73
1070
     1
1070
    44
1040
1.0
1070
    74
1070
     0
1000
MTEXTEND
1000
MTEXTBEGIN
1070
    73
1070
     1
1070
    44
1040
1.0
1070
    74
1070
     0
1000
MTEXTEND
1000
MTEXTBEGIN
1070
    73
1070
     1
1070
    44
1040
1.0
1070
    74
1070
     0
1000
MTEXTEND
1000
MTEXTBEGIN
1070
    73
1070
     1
1070
    44
1040
1.0
1070
    74
1070
     0
1000
MTEXTEND
1000
MTEXTBEGIN
1070
    73
1070
     1
1070
    44
1040
1.0
1070
    74
1070
     0
1000
MTEXTEND
1000
MTEXTBEGIN
1070
    73
1070
     1
1070
    44
1040
1.0
1070
    74
1070
     0
1000
MTEXTEND
1000
MTEXTBEGIN
1070
    73
1070
     1
1070
    44
1040
1.0
1070
    74
1070
     0
1000
MTEXTEND
1000
MTEXTBEGIN
1070
    73
1070
     1
1070
    44
1040
1.0
1070
    74
1070
     0
1000
MTEXTEND
1000
MTEXTBEGIN
1070
    73
1070
     1
1070
    44
1040
1.0
1070
    74
1070
     0
1000
MTEXTEND
1000
MTEXTBEGIN
1070
    73
1070
     1
1070
    44
1040
1.0
1070
    74
1070
     0
1000
MTEXTEND
1000
MTEXTBEGIN
1070
    73
1070
     1
1070
    44
1040
1.0
1070
    74
1070
     0
1000
MTEXTEND
1000
MTEXTBEGIN
1070
    73
1070
     1
1070
    44
1040
1.0
1070
    74
1070
     0
1000
MTEXTEND
1000
MTEXTBEGIN
1070
    73
1070
     1
1070
    44
1040
1.0
1070
    74
1070
     0
1000
MTEXTEND
1000
MTEXTBEGIN
1070
    73
1070
     1
1070
    44
1040
1.0
1070
    74
1070
     0
1000
MTEXTEND
1000
MTEXTBEGIN
1070
    73
1070
     1
1070
    44
1040
1.0
1070
    74
1070
     0
1000
MTEXTEND
1000
MTEXTBEGIN
1070
    73
1070
     1
1070
    44
1040
1.0
1070
    74
1070
     0
1000
MTEXTEND
  0
LINE
  5
28E1
330
1A
100
AcDbEntity
  8
SEIHIN
100
AcDbLine
 10
275.4130203988966
 20
91.57140003587574
 30
0.0
 11
275.4130203988966
 21
89.57140003587573
 31
0.0
  0
LINE
  5
28E2
330
1A
100
AcDbEntity
  8
SEIHIN
100
AcDbLine
 10
270.4130203988966
 20
91.57140003587574
 30
0.0
 11
270.4130203988966
 21
89.57140003587573
 31
0.0
  0
LINE
  5
28E3
330
1A
100
AcDbEntity
  8
SEIHIN
100
AcDbLine
 10
270.9130203988966
 20
89.57140003587573
 30
0.0
 11
270.9130203988966
 21
91.57140003587574
 31
0.0
  0
MTEXT
  5
28E4
330
1A
100
AcDbEntity
  8
SEIHIN
100
AcDbMText
 10
269.2811236290541
 20
89.01473803166528
 30
0.0
 40
2.381249964
 41
0.0
 71
     1
 72
     5
  1
\W1.02222;60
  7
MSゴシック
 73
     1
 44
1.0
1001
ACAD
1000
MTEXTBEGIN
1070
    73
1070
     1
1070
    44
1040
1.0
1070
    74
1070
     0
1000
MTEXTEND
1000
MTEXTBEGIN
1070
    73
1070
     1
1070
    44
1040
1.0
1070
    74
1070
     0
1000
MTEXTEND
1000
MTEXTBEGIN
1070
    73
1070
     1
1070
    44
1040
1.0
1070
    74
1070
     0
1000
MTEXTEND
1000
MTEXTBEGIN
1070
    73
1070
     1
1070
    44
1040
1.0
1070
    74
1070
     0
1000
MTEXTEND
1000
MTEXTBEGIN
1070
    73
1070
     1
1070
    44
1040
1.0
1070
    74
1070
     0
1000
MTEXTEND
1000
MTEXTBEGIN
1070
    73
1070
     1
1070
    44
1040
1.0
1070
    74
1070
     0
1000
MTEXTEND
1000
MTEXTBEGIN
1070
    73
1070
     1
1070
    44
1040
1.0
1070
    74
1070
     0
1000
MTEXTEND
1000
MTEXTBEGIN
1070
    73
1070
     1
1070
    44
1040
1.0
1070
    74
1070
     0
1000
MTEXTEND
1000
MTEXTBEGIN
1070
    73
1070
     1
1070
    44
1040
1.0
1070
    74
1070
     0
1000
MTEXTEND
1000
MTEXTBEGIN
1070
    73
1070
     1
1070
    44
1040
1.0
1070
    74
1070
     0
1000
MTEXTEND
1000
MTEXTBEGIN
1070
    73
1070
     1
1070
    44
1040
1.0
1070
    74
1070
     0
1000
MTEXTEND
1000
MTEXTBEGIN
1070
    73
1070
     1
1070
    44
1040
1.0
1070
    74
1070
     0
1000
MTEXTEND
1000
MTEXTBEGIN
1070
    73
1070
     1
1070
    44
1040
1.0
1070
    74
1070
     0
1000
MTEXTEND
1000
MTEXTBEGIN
1070
    73
1070
     1
1070
    44
1040
1.0
1070
    74
1070
     0
1000
MTEXTEND
1000
MTEXTBEGIN
1070
    73
1070
     1
1070
    44
1040
1.0
1070
    74
1070
     0
1000
MTEXTEND
1000
MTEXTBEGIN
1070
    73
1070
     1
1070
    44
1040
1.0
1070
    74
1070
     0
1000
MTEXTEND
1000
MTEXTBEGIN
1070
    73
1070
     1
1070
    44
1040
1.0
1070
    74
1070
     0
1000
MTEXTEND
1000
MTEXTBEGIN
1070
    73
1070
     1
1070
    44
1040
1.0
1070
    74
1070
     0
1000
MTEXTEND
1000
MTEXTBEGIN
1070
    73
1070
     1
1070
    44
1040
1.0
1070
    74
1070
     0
1000
MTEXTEND
1000
MTEXTBEGIN
1070
    73
1070
     1
1070
    44
1040
1.0
1070
    74
1070
     0
1000
MTEXTEND
1000
MTEXTBEGIN
1070
    73
1070
     1
1070
    44
1040
1.0
1070
    74
1070
     0
1000
MTEXTEND
1000
MTEXTBEGIN
1070
    73
1070
     1
1070
    44
1040
1.0
1070
    74
1070
     0
1000
MTEXTEND
1000
MTEXTBEGIN
1070
    73
1070
     1
1070
    44
1040
1.0
1070
    74
1070
     0
1000
MTEXTEND
1000
MTEXTBEGIN
1070
    73
1070
     1
1070
    44
1040
1.0
1070
    74
1070
     0
1000
MTEXTEND
1000
MTEXTBEGIN
1070
    73
1070
     1
1070
    44
1040
1.0
1070
    74
1070
     0
1000
MTEXTEND
1000
MTEXTBEGIN
1070
    73
1070
     1
1070
    44
1040
1.0
1070
    74
1070
     0
1000
MTEXTEND
  0
LINE
  5
28E5
330
1A
100
AcDbEntity
  8
SEIHIN
100
AcDbLine
 10
270.4130203988966
 20
89.57140003587573
 30
0.0
 11
270.9130203988966
 21
89.57140003587573
 31
0.0
  0
LINE
  5
28E6
330
1A
100
AcDbEntity
  8
SEIHIN
100
AcDbLine
 10
275.4130203988966
 20
89.57140003587573
 30
0.0
 11
275.6630203968966
 21
89.57140003587573
 31
0.0
  0
LINE
  5
28EA
330
1A
100
AcDbEntity
  8
SEIHIN
100
AcDbLine
 10
285.9130203988966
 20
89.57140003587573
 30
0.0
 11
285.9130203988966
 21
91.57140003587574
 31
0.0
  0
LINE
  5
28EB
330
1A
100
AcDbEntity
  8
SEIHIN
100
AcDbLine
 10
285.4130203988966
 20
91.57140003587574
 30
0.0
 11
285.4130203988966
 21
89.57140003587573
 31
0.0
  0
LINE
  5
28EC
330
1A
100
AcDbEntity
  8
SEIHIN
100
AcDbLine
 10
285.4130203988966
 20
89.57140003587573
 30
0.0
 11
285.9130203988966
 21
89.57140003587573
 31
0.0
  0
LINE
  5
28ED
330
1A
100
AcDbEntity
  8
SEIHIN
100
AcDbLine
 10
275.4130203988966
 20
91.57140003587574
 30
0.0
 11
275.6630203968966
 21
91.57140003587574
 31
0.0
  0
LINE
  5
28EE
330
1A
100
AcDbEntity
  8
SEIHIN
100
AcDbLine
 10
270.4130203988966
 20
91.57140003587574
 30
0.0
 11
270.9130203988966
 21
91.57140003587574
 31
0.0
  0
LINE
  5
28F0
330
1A
100
AcDbEntity
  8
SEIHIN
100
AcDbLine
 10
285.4130203988966
 20
91.57140003587574
 30
0.0
 11
285.9130203988966
 21
91.57140003587574
 31
0.0
  0
MTEXT
  5
2A2E
330
1A
100
AcDbEntity
  8
SEIHIN
100
AcDbMText
 10
280.1357168289515
 20
99.67730859099242
 30
0.0
 40
2.381249964
 41
0.0
 71
     1
 72
     5
  1
\W1.02222;<45～>
  7
MSゴシック
 73
     1
 44
1.0
1001
ACAD
1000
MTEXTBEGIN
1070
    73
1070
     1
1070
    44
1040
1.0
1070
    74
1070
     0
1000
MTEXTEND
1000
MTEXTBEGIN
1070
    73
1070
     1
1070
    44
1040
1.0
1070
    74
1070
     0
1000
MTEXTEND
1000
MTEXTBEGIN
1070
    73
1070
     1
1070
    44
1040
1.0
1070
    74
1070
     0
1000
MTEXTEND
1000
MTEXTBEGIN
1070
    73
1070
     1
1070
    44
1040
1.0
1070
    74
1070
     0
1000
MTEXTEND
1000
MTEXTBEGIN
1070
    73
1070
     1
1070
    44
1040
1.0
1070
    74
1070
     0
1000
MTEXTEND
1000
MTEXTBEGIN
1070
    73
1070
     1
1070
    44
1040
1.0
1070
    74
1070
     0
1000
MTEXTEND
1000
MTEXTBEGIN
1070
    73
1070
     1
1070
    44
1040
1.0
1070
    74
1070
     0
1000
MTEXTEND
1000
MTEXTBEGIN
1070
    73
1070
     1
1070
    44
1040
1.0
1070
    74
1070
     0
1000
MTEXTEND
1000
MTEXTBEGIN
1070
    73
1070
     1
1070
    44
1040
1.0
1070
    74
1070
     0
1000
MTEXTEND
1000
MTEXTBEGIN
1070
    73
1070
     1
1070
    44
1040
1.0
1070
    74
1070
     0
1000
MTEXTEND
1000
MTEXTBEGIN
1070
    73
1070
     1
1070
    44
1040
1.0
1070
    74
1070
     0
1000
MTEXTEND
1000
MTEXTBEGIN
1070
    73
1070
     1
1070
    44
1040
1.0
1070
    74
1070
     0
1000
MTEXTEND
1000
MTEXTBEGIN
1070
    73
1070
     1
1070
    44
1040
1.0
1070
    74
1070
     0
1000
MTEXTEND
1000
MTEXTBEGIN
1070
    73
1070
     1
1070
    44
1040
1.0
1070
    74
1070
     0
1000
MTEXTEND
1000
MTEXTBEGIN
1070
    73
1070
     1
1070
    44
1040
1.0
1070
    74
1070
     0
1000
MTEXTEND
1000
MTEXTBEGIN
1070
    73
1070
     1
1070
    44
1040
1.0
1070
    74
1070
     0
1000
MTEXTEND
1000
MTEXTBEGIN
1070
    73
1070
     1
1070
    44
1040
1.0
1070
    74
1070
     0
1000
MTEXTEND
1000
MTEXTBEGIN
1070
    73
1070
     1
1070
    44
1040
1.0
1070
    74
1070
     0
1000
MTEXTEND
1000
MTEXTBEGIN
1070
    73
1070
     1
1070
    44
1040
1.0
1070
    74
1070
     0
1000
MTEXTEND
1000
MTEXTBEGIN
1070
    73
1070
     1
1070
    44
1040
1.0
1070
    74
1070
     0
1000
MTEXTEND
1000
MTEXTBEGIN
1070
    73
1070
     1
1070
    44
1040
1.0
1070
    74
1070
     0
1000
MTEXTEND
1000
MTEXTBEGIN
1070
    73
1070
     1
1070
    44
1040
1.0
1070
    74
1070
     0
1000
MTEXTEND
1000
MTEXTBEGIN
1070
    73
1070
     1
1070
    44
1040
1.0
1070
    74
1070
     0
1000
MTEXTEND
1000
MTEXTBEGIN
1070
    73
1070
     1
1070
    44
1040
1.0
1070
    74
1070
     0
1000
MTEXTEND
1000
MTEXTBEGIN
1070
    73
1070
     1
1070
    44
1040
1.0
1070
    74
1070
     0
1000
MTEXTEND
1000
MTEXTBEGIN
1070
    73
1070
     1
1070
    44
1040
1.0
1070
    74
1070
     0
1000
MTEXTEND
  0
MTEXT
  5
2A30
330
1A
100
AcDbEntity
  8
SEIHIN
100
AcDbMText
 10
280.1357168289515
 20
95.80618416198673
 30
0.0
 40
2.381249964
 41
0.0
 71
     1
 72
     5
  1
\W1.02222;調整面
  7
MSゴシック
 73
     1
 44
1.0
1001
ACAD
1000
MTEXTBEGIN
1070
    73
1070
     1
1070
    44
1040
1.0
1070
    74
1070
     0
1000
MTEXTEND
1000
MTEXTBEGIN
1070
    73
1070
     1
1070
    44
1040
1.0
1070
    74
1070
     0
1000
MTEXTEND
1000
MTEXTBEGIN
1070
    73
1070
     1
1070
    44
1040
1.0
1070
    74
1070
     0
1000
MTEXTEND
1000
MTEXTBEGIN
1070
    73
1070
     1
1070
    44
1040
1.0
1070
    74
1070
     0
1000
MTEXTEND
1000
MTEXTBEGIN
1070
    73
1070
     1
1070
    44
1040
1.0
1070
    74
1070
     0
1000
MTEXTEND
1000
MTEXTBEGIN
1070
    73
1070
     1
1070
    44
1040
1.0
1070
    74
1070
     0
1000
MTEXTEND
1000
MTEXTBEGIN
1070
    73
1070
     1
1070
    44
1040
1.0
1070
    74
1070
     0
1000
MTEXTEND
1000
MTEXTBEGIN
1070
    73
1070
     1
1070
    44
1040
1.0
1070
    74
1070
     0
1000
MTEXTEND
1000
MTEXTBEGIN
1070
    73
1070
     1
1070
    44
1040
1.0
1070
    74
1070
     0
1000
MTEXTEND
1000
MTEXTBEGIN
1070
    73
1070
     1
1070
    44
1040
1.0
1070
    74
1070
     0
1000
MTEXTEND
1000
MTEXTBEGIN
1070
    73
1070
     1
1070
    44
1040
1.0
1070
    74
1070
     0
1000
MTEXTEND
1000
MTEXTBEGIN
1070
    73
1070
     1
1070
    44
1040
1.0
1070
    74
1070
     0
1000
MTEXTEND
1000
MTEXTBEGIN
1070
    73
1070
     1
1070
    44
1040
1.0
1070
    74
1070
     0
1000
MTEXTEND
1000
MTEXTBEGIN
1070
    73
1070
     1
1070
    44
1040
1.0
1070
    74
1070
     0
1000
MTEXTEND
1000
MTEXTBEGIN
1070
    73
1070
     1
1070
    44
1040
1.0
1070
    74
1070
     0
1000
MTEXTEND
1000
MTEXTBEGIN
1070
    73
1070
     1
1070
    44
1040
1.0
1070
    74
1070
     0
1000
MTEXTEND
1000
MTEXTBEGIN
1070
    73
1070
     1
1070
    44
1040
1.0
1070
    74
1070
     0
1000
MTEXTEND
1000
MTEXTBEGIN
1070
    73
1070
     1
1070
    44
1040
1.0
1070
    74
1070
     0
1000
MTEXTEND
1000
MTEXTBEGIN
1070
    73
1070
     1
1070
    44
1040
1.0
1070
    74
1070
     0
1000
MTEXTEND
1000
MTEXTBEGIN
1070
    73
1070
     1
1070
    44
1040
1.0
1070
    74
1070
     0
1000
MTEXTEND
1000
MTEXTBEGIN
1070
    73
1070
     1
1070
    44
1040
1.0
1070
    74
1070
     0
1000
MTEXTEND
1000
MTEXTBEGIN
1070
    73
1070
     1
1070
    44
1040
1.0
1070
    74
1070
     0
1000
MTEXTEND
1000
MTEXTBEGIN
1070
    73
1070
     1
1070
    44
1040
1.0
1070
    74
1070
     0
1000
MTEXTEND
1000
MTEXTBEGIN
1070
    73
1070
     1
1070
    44
1040
1.0
1070
    74
1070
     0
1000
MTEXTEND
1000
MTEXTBEGIN
1070
    73
1070
     1
1070
    44
1040
1.0
1070
    74
1070
     0
1000
MTEXTEND
1000
MTEXTBEGIN
1070
    73
1070
     1
1070
    44
1040
1.0
1070
    74
1070
     0
1000
MTEXTEND
  0
VIEWPORT
  5
22
330
17
100
AcDbEntity
 67
     1
  8
0
100
AcDbViewport
 10
313.6808219178082
 20
148.5
 30
0.0
 40
627.3616438356165
 41
297.0
 68
     2
 69
     1
 12
313.6808219178082
 22
148.5
 13
0.0
 23
0.0
 14
1.0
 24
1.0
 15
10.0
 25
10.0
 16
0.0
 26
0.0
 36
1.0
 17
0.0
 27
0.0
 37
0.0
 42
50.0
 43
0.0
 44
0.0
 45
297.0
 50
0.0
 51
0.0
 72
   100
 90
    32768
  1

281
     0
 71
     1
 74
     0
110
0.0
120
0.0
130
0.0
111
1.0
121
0.0
131
0.0
112
0.0
122
1.0
132
0.0
 79
     0
146
0.0
  0
VIEWPORT
  5
64
330
17
100
AcDbEntity
 67
     1
  8
VIEWPORT
100
AcDbViewport
 10
210.0
 20
148.5
 30
0.0
 40
420.0
 41
297.0
 68
     1
 69
     2
 12
210.0
 22
148.5
 13
0.0
 23
0.0
 14
5.0
 24
5.0
 15
0.0
 25
0.0
 16
0.0
 26
0.0
 36
1.0
 17
0.0
 27
0.0
 37
0.0
 42
50.0
 43
0.0
 44
0.0
 45
302.9399999999998
 50
0.0
 51
0.0
 72
   100
 90
    32768
  1

281
     0
 71
     1
 74
     0
110
0.0
120
0.0
130
0.0
111
1.0
121
0.0
131
0.0
112
0.0
122
1.0
132
0.0
 79
     0
146
0.0
  0
ENDSEC
  0
SECTION
  2
OBJECTS
  0
DICTIONARY
  5
C
330
0
100
AcDbDictionary
281
     1
  3
ACAD_GROUP
350
D
  3
ACAD_LAYOUT
350
141
  3
ACAD_MLINESTYLE
350
E
  3
ACAD_PLOTSETTINGS
350
142
  3
ACAD_PLOTSTYLENAME
350
13F
  0
DICTIONARY
  5
73C
330
1A
100
AcDbDictionary
280
     1
281
     1
  3
ACAD_LAYOUTSELFREF
360
2CC9
  0
DICTIONARY
  5
73A
330
17
100
AcDbDictionary
280
     1
281
     1
  3
ACAD_LAYOUTSELFREF
360
2CC8
  0
DICTIONARY
  5
D
102
{ACAD_REACTORS
330
C
102
}
330
C
100
AcDbDictionary
281
     1
  0
DICTIONARY
  5
141
102
{ACAD_REACTORS
330
C
102
}
330
C
100
AcDbDictionary
281
     1
  3
Model
350
143
  3
ﾚｲｱｳﾄ1
350
144
  0
DICTIONARY
  5
E
102
{ACAD_REACTORS
330
C
102
}
330
C
100
AcDbDictionary
281
     1
  3
STANDARD
350
13
  0
DICTIONARY
  5
142
102
{ACAD_REACTORS
330
C
102
}
330
C
100
AcDbDictionary
281
     1
  0
ACDBDICTIONARYWDFLT
  5
13F
102
{ACAD_REACTORS
330
C
102
}
330
C
100
AcDbDictionary
281
     1
  3
Normal
350
140
100
AcDbDictionaryWithDefault
340
140
1001
ACAD
1000
TREAT_AS_HARD
1070
     0
1000
TREAT_AS_HARD
1070
     0
1000
TREAT_AS_HARD
1070
     0
1000
TREAT_AS_HARD
1070
     0
1000
TREAT_AS_HARD
1070
     0
1000
TREAT_AS_HARD
1070
     0
1000
TREAT_AS_HARD
1070
     0
1000
TREAT_AS_HARD
1070
     0
1000
TREAT_AS_HARD
1070
     0
1000
TREAT_AS_HARD
1070
     0
1000
TREAT_AS_HARD
1070
     0
  0
XRECORD
  5
2CC9
102
{ACAD_REACTORS
330
73C
102
}
330
73C
100
AcDbXrecord
280
     1
340
1A
  0
XRECORD
  5
2CC8
102
{ACAD_REACTORS
330
73A
102
}
330
73A
100
AcDbXrecord
280
     1
340
17
  0
LAYOUT
  5
143
102
{ACAD_REACTORS
330
141
102
}
330
141
100
AcDbPlotSettings
  1

  2
Acrobat Distiller
  4
A3
  6

 40
3.174999952316284
 41
3.174999952316284
 42
3.17498779296875
 43
3.17498779296875
 44
297.0318298339843
 45
420.1583251953125
 46
7.0
 47
7.0
 48
0.0
 49
0.0
140
0.0
141
0.0
142
1.0
143
1.0
 70
 11952
 72
     1
 73
     1
 74
     2
  7
print.ctb
 75
    16
147
1.0
148
0.0
149
0.0
100
AcDbLayout
  1
Model
 70
     1
 71
     0
 10
0.0
 20
0.0
 11
12.0
 21
9.0
 12
0.0
 22
0.0
 32
0.0
 14
0.0
 24
0.0
 34
0.0
 15
0.0
 25
0.0
 35
0.0
146
0.0
 13
0.0
 23
0.0
 33
0.0
 16
1.0
 26
0.0
 36
0.0
 17
0.0
 27
1.0
 37
0.0
 76
     0
330
1A
  0
LAYOUT
  5
144
102
{ACAD_REACTORS
330
141
102
}
330
141
100
AcDbPlotSettings
  1

  2
Canon LBP-A404 LIPS3
  4

  6

 40
0.0
 41
0.0
 42
0.0
 43
0.0
 44
0.0
 45
0.0
 46
0.0
 47
0.0
 48
0.0
 49
0.0
140
0.0
141
0.0
142
1.0
143
1.0
 70
   688
 72
     0
 73
     0
 74
     5
  7
print.ctb
 75
    16
147
1.0
148
0.0
149
0.0
100
AcDbLayout
  1
ﾚｲｱｳﾄ1
 70
     1
 71
     1
 10
0.0
 20
0.0
 11
420.0
 21
297.0
 12
0.0
 22
0.0
 32
0.0
 14
0.0
 24
0.0
 34
0.0
 15
420.0
 25
297.0
 35
0.0
146
0.0
 13
0.0
 23
0.0
 33
0.0
 16
1.0
 26
0.0
 36
0.0
 17
0.0
 27
1.0
 37
0.0
 76
     0
330
17
331
64
  0
MLINESTYLE
  5
13
102
{ACAD_REACTORS
330
E
102
}
330
E
100
AcDbMlineStyle
  2
STANDARD
 70
     0
  3

 62
     0
 51
90.0
 52
90.0
 71
     2
 49
0.5
 62
   256
  6
BYLAYER
 49
-0.5
 62
   256
  6
BYLAYER
  0
ACDBPLACEHOLDER
  5
140
102
{ACAD_REACTORS
330
13F
102
}
330
13F
  0
ENDSEC
  0
EOF
