  0
SECTION
  2
HEADER
  9
$ACADVER
  1
AC1014
  9
$ACADMAINTVER
 70
     9
  9
$DWGCODEPAGE
  3
ANSI_932
  9
$INSBASE
 10
0.0
 20
0.0
 30
0.0
  9
$EXTMIN
 10
-0.0128164049386896
 20
-0.0090630292066862
 30
-0.0000000100021362
  9
$EXTMAX
 10
398.8000497813338
 20
275.8226172440017
 30
0.0000000100021363
  9
$LIMMIN
 10
0.0
 20
0.0
  9
$LIMMAX
 10
420.0
 20
297.0
  9
$ORTHOMODE
 70
     0
  9
$REGENMODE
 70
     1
  9
$FILLMODE
 70
     1
  9
$QTEXTMODE
 70
     0
  9
$MIRRTEXT
 70
     1
  9
$DRAGMODE
 70
     2
  9
$LTSCALE
 40
5.0
  9
$OSMODE
 70
    35
  9
$ATTMODE
 70
     1
  9
$TEXTSIZE
 40
3.0
  9
$TRACEWID
 40
1.0
  9
$TEXTSTYLE
  7
STANDARD
  9
$CLAYER
  8
NOKITOI
  9
$CELTYPE
  6
BYLAYER
  9
$CECOLOR
 62
   256
  9
$CELTSCALE
 40
1.0
  9
$DELOBJ
 70
     1
  9
$DISPSILH
 70
     0
  9
$DIMSCALE
 40
1.0
  9
$DIMASZ
 40
3.0
  9
$DIMEXO
 40
3.0
  9
$DIMDLI
 40
7.0
  9
$DIMRND
 40
0.0
  9
$DIMDLE
 40
0.0
  9
$DIMEXE
 40
1.5
  9
$DIMTP
 40
0.0
  9
$DIMTM
 40
0.0
  9
$DIMTXT
 40
3.0
  9
$DIMCEN
 40
3.0
  9
$DIMTSZ
 40
0.0
  9
$DIMTOL
 70
     0
  9
$DIMLIM
 70
     0
  9
$DIMTIH
 70
     0
  9
$DIMTOH
 70
     0
  9
$DIMSE1
 70
     0
  9
$DIMSE2
 70
     0
  9
$DIMTAD
 70
     3
  9
$DIMZIN
 70
     0
  9
$DIMBLK
  1

  9
$DIMASO
 70
     1
  9
$DIMSHO
 70
     1
  9
$DIMPOST
  1

  9
$DIMAPOST
  1

  9
$DIMALT
 70
     0
  9
$DIMALTD
 70
     2
  9
$DIMALTF
 40
25.4
  9
$DIMLFAC
 40
1.0
  9
$DIMTOFL
 70
     1
  9
$DIMTVP
 40
0.0
  9
$DIMTIX
 70
     0
  9
$DIMSOXD
 70
     0
  9
$DIMSAH
 70
     1
  9
$DIMBLK1
  1
OPEN
  9
$DIMBLK2
  1
OPEN
  9
$DIMSTYLE
  2
STANDARD
  9
$DIMCLRD
 70
   256
  9
$DIMCLRE
 70
   256
  9
$DIMCLRT
 70
   256
  9
$DIMTFAC
 40
1.0
  9
$DIMGAP
 40
1.0
  9
$DIMJUST
 70
     0
  9
$DIMSD1
 70
     0
  9
$DIMSD2
 70
     0
  9
$DIMTOLJ
 70
     1
  9
$DIMTZIN
 70
     0
  9
$DIMALTZ
 70
     0
  9
$DIMALTTZ
 70
     0
  9
$DIMFIT
 70
     3
  9
$DIMUPT
 70
     0
  9
$DIMUNIT
 70
     2
  9
$DIMDEC
 70
     0
  9
$DIMTDEC
 70
     0
  9
$DIMALTU
 70
     2
  9
$DIMALTTD
 70
     2
  9
$DIMTXSTY
  7
STANDARD
  9
$DIMAUNIT
 70
     0
  9
$LUNITS
 70
     2
  9
$LUPREC
 70
     4
  9
$SKETCHINC
 40
1.0
  9
$FILLETRAD
 40
10.0
  9
$AUNITS
 70
     0
  9
$AUPREC
 70
     0
  9
$MENU
  1
.
  9
$ELEVATION
 40
0.0
  9
$PELEVATION
 40
0.0
  9
$THICKNESS
 40
0.0
  9
$LIMCHECK
 70
     0
  9
$BLIPMODE
 70
     0
  9
$CHAMFERA
 40
10.0
  9
$CHAMFERB
 40
10.0
  9
$CHAMFERC
 40
20.0
  9
$CHAMFERD
 40
0.0
  9
$SKPOLY
 70
     0
  9
$TDCREATE
 40
2451569.441154629
  9
$TDUPDATE
 40
2453802.455424618
  9
$TDINDWG
 40
0.1721067477
  9
$TDUSRTIMER
 40
0.1721067477
  9
$USRTIMER
 70
     1
  9
$ANGBASE
 50
0.0
  9
$ANGDIR
 70
     0
  9
$PDMODE
 70
     0
  9
$PDSIZE
 40
0.0
  9
$PLINEWID
 40
0.0
  9
$COORDS
 70
     1
  9
$SPLFRAME
 70
     0
  9
$SPLINETYPE
 70
     6
  9
$SPLINESEGS
 70
     8
  9
$ATTDIA
 70
     0
  9
$ATTREQ
 70
     1
  9
$HANDLING
 70
 10241
  9
$HANDSEED
  5
3A73
  9
$SURFTAB1
 70
     6
  9
$SURFTAB2
 70
     6
  9
$SURFTYPE
 70
     6
  9
$SURFU
 70
     6
  9
$SURFV
 70
     6
  9
$UCSNAME
  2

  9
$UCSORG
 10
0.0
 20
0.0
 30
0.0
  9
$UCSXDIR
 10
1.0
 20
0.0
 30
0.0
  9
$UCSYDIR
 10
0.0
 20
1.0
 30
0.0
  9
$PUCSNAME
  2

  9
$PUCSORG
 10
0.0
 20
0.0
 30
0.0
  9
$PUCSXDIR
 10
1.0
 20
0.0
 30
0.0
  9
$PUCSYDIR
 10
0.0
 20
1.0
 30
0.0
  9
$USERI1
 70
     0
  9
$USERI2
 70
     0
  9
$USERI3
 70
     0
  9
$USERI4
 70
     0
  9
$USERI5
 70
     0
  9
$USERR1
 40
0.0
  9
$USERR2
 40
0.0
  9
$USERR3
 40
0.0
  9
$USERR4
 40
0.0
  9
$USERR5
 40
0.0
  9
$WORLDVIEW
 70
     1
  9
$SHADEDGE
 70
     3
  9
$SHADEDIF
 70
    70
  9
$TILEMODE
 70
     1
  9
$MAXACTVP
 70
    16
  9
$PINSBASE
 10
0.0
 20
0.0
 30
0.0
  9
$PLIMCHECK
 70
     0
  9
$PEXTMIN
 10
0.0
 20
0.0
 30
0.0
  9
$PEXTMAX
 10
420.0
 20
297.0
 30
0.0
  9
$PLIMMIN
 10
0.0
 20
0.0
  9
$PLIMMAX
 10
420.0
 20
297.0
  9
$UNITMODE
 70
     0
  9
$VISRETAIN
 70
     0
  9
$PLINEGEN
 70
     0
  9
$PSLTSCALE
 70
     1
  9
$TREEDEPTH
 70
  3020
  9
$PICKSTYLE
 70
     1
  9
$CMLSTYLE
  2
STANDARD
  9
$CMLJUST
 70
     0
  9
$CMLSCALE
 40
1.0
  9
$PROXYGRAPHICS
 70
     1
  9
$MEASUREMENT
 70
     1
  0
ENDSEC
  0
SECTION
  2
CLASSES
  0
CLASS
  1
ACDBDICTIONARYWDFLT
  2
AcDbDictionaryWithDefault
  3
AutoCAD 2000
 90
        0
280
     0
281
     0
  0
CLASS
  1
ACDBPLACEHOLDER
  2
AcDbPlaceHolder
  3
AutoCAD 2000
 90
        0
280
     0
281
     0
  0
CLASS
  1
LAYOUT
  2
AcDbLayout
  3
AutoCAD 2000
 90
        0
280
     0
281
     0
  0
CLASS
  1
LONG_TRANSACTION
  2
AcDbLongTransaction
  3
AutoCAD 2000
 90
        0
280
     0
281
     0
  0
CLASS
  1
LWPOLYLINE
  2
AcDbPolyline
  3
AutoCAD 2000
 90
        0
280
     0
281
     1
  0
CLASS
  1
HATCH
  2
AcDbHatch
  3
AutoCAD 2000
 90
        0
280
     0
281
     1
  0
CLASS
  1
XRECORD
  2
AcDbXrecord
  3
AutoCAD 2000
 90
        0
280
     0
281
     0
  0
CLASS
  1
LONG_TRANSACTION
  2
AcDbLongTransaction
  3
AutoCAD 2000
 90
        0
280
     0
281
     0
  0
CLASS
  1
LWPOLYLINE
  2
AcDbPolyline
  3
AutoCAD 2000
 90
        0
280
     0
281
     1
  0
CLASS
  1
HATCH
  2
AcDbHatch
  3
AutoCAD 2000
 90
        0
280
     0
281
     1
  0
CLASS
  1
XRECORD
  2
AcDbXrecord
  3
AutoCAD 2000
 90
        0
280
     0
281
     0
  0
CLASS
  1
LONG_TRANSACTION
  2
AcDbLongTransaction
  3
AutoCAD 2000
 90
        0
280
     0
281
     0
  0
CLASS
  1
LWPOLYLINE
  2
AcDbPolyline
  3
AutoCAD 2000
 90
        0
280
     0
281
     1
  0
CLASS
  1
HATCH
  2
AcDbHatch
  3
AutoCAD 2000
 90
        0
280
     0
281
     1
  0
CLASS
  1
XRECORD
  2
AcDbXrecord
  3
AutoCAD 2000
 90
        0
280
     0
281
     0
  0
CLASS
  1
LONG_TRANSACTION
  2
AcDbLongTransaction
  3
AutoCAD 2000
 90
        0
280
     0
281
     0
  0
CLASS
  1
LWPOLYLINE
  2
AcDbPolyline
  3
AutoCAD 2000
 90
        0
280
     0
281
     1
  0
CLASS
  1
HATCH
  2
AcDbHatch
  3
AutoCAD 2000
 90
        0
280
     0
281
     1
  0
CLASS
  1
XRECORD
  2
AcDbXrecord
  3
AutoCAD 2000
 90
        0
280
     0
281
     0
  0
CLASS
  1
LONG_TRANSACTION
  2
AcDbLongTransaction
  3
AutoCAD 2000
 90
        0
280
     0
281
     0
  0
CLASS
  1
LWPOLYLINE
  2
AcDbPolyline
  3
AutoCAD 2000
 90
        0
280
     0
281
     1
  0
CLASS
  1
HATCH
  2
AcDbHatch
  3
AutoCAD 2000
 90
        0
280
     0
281
     1
  0
CLASS
  1
XRECORD
  2
AcDbXrecord
  3
AutoCAD 2000
 90
        0
280
     0
281
     0
  0
CLASS
  1
LONG_TRANSACTION
  2
AcDbLongTransaction
  3
AutoCAD 2000
 90
        0
280
     0
281
     0
  0
CLASS
  1
LWPOLYLINE
  2
AcDbPolyline
  3
AutoCAD 2000
 90
        0
280
     0
281
     1
  0
CLASS
  1
HATCH
  2
AcDbHatch
  3
AutoCAD 2000
 90
        0
280
     0
281
     1
  0
CLASS
  1
XRECORD
  2
AcDbXrecord
  3
AutoCAD 2000
 90
        0
280
     0
281
     0
  0
CLASS
  1
LONG_TRANSACTION
  2
AcDbLongTransaction
  3
AutoCAD 2000
 90
        0
280
     0
281
     0
  0
CLASS
  1
LWPOLYLINE
  2
AcDbPolyline
  3
AutoCAD 2000
 90
        0
280
     0
281
     1
  0
CLASS
  1
HATCH
  2
AcDbHatch
  3
AutoCAD 2000
 90
        0
280
     0
281
     1
  0
CLASS
  1
XRECORD
  2
AcDbXrecord
  3
AutoCAD 2000
 90
        0
280
     0
281
     0
  0
CLASS
  1
LONG_TRANSACTION
  2
AcDbLongTransaction
  3
AutoCAD 2000
 90
        0
280
     0
281
     0
  0
CLASS
  1
LWPOLYLINE
  2
AcDbPolyline
  3
AutoCAD 2000
 90
        0
280
     0
281
     1
  0
CLASS
  1
HATCH
  2
AcDbHatch
  3
AutoCAD 2000
 90
        0
280
     0
281
     1
  0
CLASS
  1
XRECORD
  2
AcDbXrecord
  3
AutoCAD 2000
 90
        0
280
     0
281
     0
  0
CLASS
  1
LONG_TRANSACTION
  2
AcDbLongTransaction
  3
AutoCAD 2000
 90
        0
280
     0
281
     0
  0
CLASS
  1
LWPOLYLINE
  2
AcDbPolyline
  3
AutoCAD 2000
 90
        0
280
     0
281
     1
  0
CLASS
  1
HATCH
  2
AcDbHatch
  3
AutoCAD 2000
 90
        0
280
     0
281
     1
  0
CLASS
  1
XRECORD
  2
AcDbXrecord
  3
AutoCAD 2000
 90
        0
280
     0
281
     0
  0
ENDSEC
  0
SECTION
  2
TABLES
  0
TABLE
  2
VPORT
  5
8
330
0
100
AcDbSymbolTable
 70
     2
  0
VPORT
  5
3A4F
330
8
100
AcDbSymbolTableRecord
100
AcDbViewportTableRecord
  2
*ACTIVE
 70
     0
 10
0.0
 20
0.0
 11
1.0
 21
1.0
 12
217.8869738606489
 22
137.8070689363731
 13
0.0
 23
0.0
 14
5.0
 24
5.0
 15
0.0
 25
0.0
 16
0.0
 26
0.0
 36
1.0
 17
0.0
 27
0.0
 37
0.0
 40
326.4939358770368
 41
1.795454545454545
 42
50.0
 43
0.0
 44
0.0
 50
0.0
 51
0.0
 71
     0
 72
   100
 73
     1
 74
     0
 75
     0
 76
     0
 77
     0
 78
     0
  0
ENDTAB
  0
TABLE
  2
LTYPE
  5
5
330
0
100
AcDbSymbolTable
 70
     4
  0
LTYPE
  5
14
330
5
100
AcDbSymbolTableRecord
100
AcDbLinetypeTableRecord
  2
BYBLOCK
 70
     0
  3

 72
    65
 73
     0
 40
0.0
  0
LTYPE
  5
15
330
5
100
AcDbSymbolTableRecord
100
AcDbLinetypeTableRecord
  2
BYLAYER
 70
     0
  3

 72
    65
 73
     0
 40
0.0
  0
LTYPE
  5
16
330
5
100
AcDbSymbolTableRecord
100
AcDbLinetypeTableRecord
  2
CONTINUOUS
 70
     0
  3
Solid line
 72
    65
 73
     0
 40
0.0
  0
LTYPE
  5
120
330
5
100
AcDbSymbolTableRecord
100
AcDbLinetypeTableRecord
  2
CENTER
 70
     0
  3
____ _ ____ _ ____ _ ____ _ ____ _ ____ _ ____ 
 72
    65
 73
     4
 40
2.0
 49
1.25
 74
     0
 49
-0.25
 74
     0
 49
0.25
 74
     0
 49
-0.25
 74
     0
  0
LTYPE
  5
122
330
5
100
AcDbSymbolTableRecord
100
AcDbLinetypeTableRecord
  2
PHANTOM
 70
     0
  3
______  __  __  ______  __  __  ______  __  __ 
 72
    65
 73
     6
 40
2.5
 49
1.25
 74
     0
 49
-0.25
 74
     0
 49
0.25
 74
     0
 49
-0.25
 74
     0
 49
0.25
 74
     0
 49
-0.25
 74
     0
  0
LTYPE
  5
12B
330
5
100
AcDbSymbolTableRecord
100
AcDbLinetypeTableRecord
  2
DASHED
 70
     0
  3
__ __ __ __ __ __ __ __ __ __ __ __ __ __ __ __
 72
    65
 73
     2
 40
0.75
 49
0.5
 74
     0
 49
-0.25
 74
     0
  0
ENDTAB
  0
TABLE
  2
LAYER
  5
2
330
0
100
AcDbSymbolTable
 70
     9
  0
LAYER
  5
F
330
2
100
AcDbSymbolTableRecord
100
AcDbLayerTableRecord
  2
0
 70
     0
 62
     7
  6
CONTINUOUS
  0
LAYER
  5
62
330
2
100
AcDbSymbolTableRecord
100
AcDbLayerTableRecord
  2
VIEWPORT
 70
     0
 62
     7
  6
CONTINUOUS
  0
LAYER
  5
6B
330
2
100
AcDbSymbolTableRecord
100
AcDbLayerTableRecord
  2
ZUWAKU
 70
     0
 62
     7
  6
CONTINUOUS
  0
LAYER
  5
48C
330
2
100
AcDbSymbolTableRecord
100
AcDbLayerTableRecord
  2
DEFPOINTS
 70
     0
 62
     7
  6
CONTINUOUS
  0
LAYER
  5
629
330
2
100
AcDbSymbolTableRecord
100
AcDbLayerTableRecord
  2
SEIHIN
 70
     0
 62
     3
  6
CONTINUOUS
  0
LAYER
  5
62A
330
2
100
AcDbSymbolTableRecord
100
AcDbLayerTableRecord
  2
SUNPOU
 70
     0
 62
     4
  6
CONTINUOUS
  0
LAYER
  5
62B
330
2
100
AcDbSymbolTableRecord
100
AcDbLayerTableRecord
  2
CENTER_L
 70
     0
 62
     1
  6
CENTER
  0
LAYER
  5
65C
330
2
100
AcDbSymbolTableRecord
100
AcDbLayerTableRecord
  2
NOKITOI
 70
     0
 62
     8
  6
PHANTOM
  0
LAYER
  5
384D
330
2
100
AcDbSymbolTableRecord
100
AcDbLayerTableRecord
  2
MOJI
 70
     0
 62
     2
  6
CONTINUOUS
  0
ENDTAB
  0
TABLE
  2
STYLE
  5
3
330
0
100
AcDbSymbolTable
 70
     2
  0
STYLE
  5
10
330
3
100
AcDbSymbolTableRecord
100
AcDbTextStyleTableRecord
  2
STANDARD
 70
     0
 40
0.0
 41
1.0
 50
0.0
 71
     0
 42
3.0
  3
TXT
  4
c:\PROGRAM FILES\AUTOCAD LT\ms\bigfont.shx
  0
STYLE
  5
384E
330
3
100
AcDbSymbolTableRecord
100
AcDbTextStyleTableRecord
  2
ｽﾀｲﾙ1
 70
     0
 40
0.0
 41
1.0
 50
0.0
 71
     0
 42
2.5
  3
MS PGothic.ttf
  4

1001
ACAD
1000
MS PGothic
1071
    32818
  0
ENDTAB
  0
TABLE
  2
VIEW
  5
6
330
0
100
AcDbSymbolTable
 70
     0
  0
ENDTAB
  0
TABLE
  2
UCS
  5
7
330
0
100
AcDbSymbolTable
 70
     0
  0
ENDTAB
  0
TABLE
  2
APPID
  5
9
330
0
100
AcDbSymbolTable
 70
     1
  0
APPID
  5
11
330
9
100
AcDbSymbolTableRecord
100
AcDbRegAppTableRecord
  2
ACAD
 70
     0
  0
ENDTAB
  0
TABLE
  2
DIMSTYLE
  5
A
330
0
100
AcDbSymbolTable
 70
     1
  0
DIMSTYLE
105
1D
102
{ACAD_REACTORS
330
1057
330
3465
330
3462
330
34DF
330
345F
330
345E
330
34A0
330
34C8
330
34B3
330
345C
330
34B2
330
36BE
330
36CB
330
36D8
330
3778
102
}
330
A
100
AcDbSymbolTableRecord
100
AcDbDimStyleTableRecord
  2
STANDARD
 70
     0
  3

  4

  5

  6

  7

 40
1.0
 41
0.18
 42
0.0625
 43
0.38
 44
0.18
 45
0.0
 46
0.0
 47
0.0
 48
0.0
140
0.18
141
0.09
142
0.0
143
25.4
144
1.0
145
0.0
146
1.0
147
0.09
 71
     0
 72
     0
 73
     1
 74
     1
 75
     0
 76
     0
 77
     0
 78
     0
170
     0
171
     2
172
     0
173
     0
174
     0
175
     0
176
     0
177
     0
178
     0
270
     2
271
     4
272
     4
273
     2
274
     2
340
10
275
     0
280
     0
281
     0
282
     0
283
     1
284
     0
285
     0
286
     0
287
     3
288
     0
  0
ENDTAB
  0
TABLE
  2
BLOCK_RECORD
  5
1
330
0
100
AcDbSymbolTable
 70
    16
  0
BLOCK_RECORD
  5
1A
102
{ACAD_XDICTIONARY
360
73C
102
}
330
1
100
AcDbSymbolTableRecord
100
AcDbBlockTableRecord
  2
*MODEL_SPACE
  0
BLOCK_RECORD
  5
17
102
{ACAD_XDICTIONARY
360
73A
102
}
330
1
100
AcDbSymbolTableRecord
100
AcDbBlockTableRecord
  2
*PAPER_SPACE
  0
BLOCK_RECORD
  5
B2
330
1
100
AcDbSymbolTableRecord
100
AcDbBlockTableRecord
  2
_OPEN
  0
BLOCK_RECORD
  5
1058
330
1
100
AcDbSymbolTableRecord
100
AcDbBlockTableRecord
  2
*D1
  0
BLOCK_RECORD
  5
352F
330
1
100
AcDbSymbolTableRecord
100
AcDbBlockTableRecord
  2
*D2
  0
BLOCK_RECORD
  5
353B
330
1
100
AcDbSymbolTableRecord
100
AcDbBlockTableRecord
  2
*D3
  0
BLOCK_RECORD
  5
3553
330
1
100
AcDbSymbolTableRecord
100
AcDbBlockTableRecord
  2
*D4
  0
BLOCK_RECORD
  5
355F
330
1
100
AcDbSymbolTableRecord
100
AcDbBlockTableRecord
  2
*D5
  0
BLOCK_RECORD
  5
356D
330
1
100
AcDbSymbolTableRecord
100
AcDbBlockTableRecord
  2
*D6
  0
BLOCK_RECORD
  5
3579
330
1
100
AcDbSymbolTableRecord
100
AcDbBlockTableRecord
  2
*D7
  0
BLOCK_RECORD
  5
3587
330
1
100
AcDbSymbolTableRecord
100
AcDbBlockTableRecord
  2
*D8
  0
BLOCK_RECORD
  5
3593
330
1
100
AcDbSymbolTableRecord
100
AcDbBlockTableRecord
  2
*D9
  0
BLOCK_RECORD
  5
359F
330
1
100
AcDbSymbolTableRecord
100
AcDbBlockTableRecord
  2
*D10
  0
BLOCK_RECORD
  5
35AB
330
1
100
AcDbSymbolTableRecord
100
AcDbBlockTableRecord
  2
*D11
  0
BLOCK_RECORD
  5
36BF
330
1
100
AcDbSymbolTableRecord
100
AcDbBlockTableRecord
  2
*D12
  0
BLOCK_RECORD
  5
36CC
330
1
100
AcDbSymbolTableRecord
100
AcDbBlockTableRecord
  2
*D13
  0
BLOCK_RECORD
  5
36D9
330
1
100
AcDbSymbolTableRecord
100
AcDbBlockTableRecord
  2
*D14
  0
BLOCK_RECORD
  5
3779
330
1
100
AcDbSymbolTableRecord
100
AcDbBlockTableRecord
  2
*D15
  0
ENDTAB
  0
ENDSEC
  0
SECTION
  2
BLOCKS
  0
BLOCK
  5
1B
330
1A
100
AcDbEntity
  8
0
100
AcDbBlockBegin
  2
*MODEL_SPACE
 70
     0
 10
0.0
 20
0.0
 30
0.0
  3
*MODEL_SPACE
  1

  0
ENDBLK
  5
1C
330
1A
100
AcDbEntity
  8
0
100
AcDbBlockEnd
  0
BLOCK
  5
18
330
17
100
AcDbEntity
 67
     1
  8
0
100
AcDbBlockBegin
  2
*PAPER_SPACE
 70
     0
 10
0.0
 20
0.0
 30
0.0
  3
*PAPER_SPACE
  1

  0
ENDBLK
  5
19
330
17
100
AcDbEntity
 67
     1
  8
0
100
AcDbBlockEnd
  0
BLOCK
  5
B3
330
B2
100
AcDbEntity
  8
0
100
AcDbBlockBegin
  2
_OPEN
 70
     0
 10
0.0
 20
0.0
 30
0.0
  3
_OPEN
  1

  0
LINE
  5
B4
330
B2
100
AcDbEntity
  8
0
  6
BYBLOCK
 62
     0
100
AcDbLine
 10
-1.0
 20
0.1666666666666666
 30
0.0
 11
0.0
 21
0.0
 31
0.0
  0
LINE
  5
B5
330
B2
100
AcDbEntity
  8
0
  6
BYBLOCK
 62
     0
100
AcDbLine
 10
0.0
 20
0.0
 30
0.0
 11
-1.0
 21
-0.1666666666666666
 31
0.0
  0
LINE
  5
B6
330
B2
100
AcDbEntity
  8
0
  6
BYBLOCK
 62
     0
100
AcDbLine
 10
0.0
 20
0.0
 30
0.0
 11
-1.0
 21
0.0
 31
0.0
  0
ENDBLK
  5
B7
330
B2
100
AcDbEntity
  8
0
100
AcDbBlockEnd
  0
BLOCK
  5
1062
330
1058
100
AcDbEntity
  8
0
100
AcDbBlockBegin
  2
*D1
 70
     1
 10
0.0
 20
0.0
 30
0.0
  3
*D1
  1

  0
LINE
  5
39E2
330
1058
100
AcDbEntity
  8
SUNPOU
100
AcDbLine
 10
53.00551459227282
 20
224.0674372077775
 30
0.0
 11
28.62025194562329
 21
224.0674372077775
 31
0.0
  0
LINE
  5
39E3
330
1058
100
AcDbEntity
  8
SUNPOU
100
AcDbLine
 10
53.00551459227282
 20
202.0674371677774
 30
0.0
 11
28.62025194562329
 21
202.0674371677774
 31
0.0
  0
LINE
  5
39E4
330
1058
100
AcDbEntity
  8
SUNPOU
100
AcDbLine
 10
30.1202519456233
 20
221.0674372077774
 30
0.0
 11
30.12025194562329
 21
205.0674371677774
 31
0.0
  0
INSERT
  5
39E5
330
1058
100
AcDbEntity
  8
SUNPOU
100
AcDbBlockReference
  2
_OPEN
 10
30.1202519456233
 20
224.0674372077775
 30
0.0
 41
3.0
 42
3.0
 43
3.0
 50
90.0
  0
INSERT
  5
39E6
330
1058
100
AcDbEntity
  8
SUNPOU
100
AcDbBlockReference
  2
_OPEN
 10
30.12025194562329
 20
202.0674371677774
 30
0.0
 41
3.0
 42
3.0
 43
3.0
 50
270.0
  0
MTEXT
  5
39E7
330
1058
100
AcDbEntity
  8
SUNPOU
100
AcDbMText
 10
27.62025194562326
 20
213.0674371877774
 30
0.0
 40
3.0
 41
0.0
 71
     5
 72
     1
  1
\A1;22
 11
0.0000000000000001
 21
1.0
 31
0.0
1001
ACAD
1000
MTEXTBEGIN
1070
    73
1070
     1
1070
    44
1040
1.0
1070
    74
1070
     0
1000
MTEXTEND
  0
POINT
  5
39E8
330
1058
100
AcDbEntity
  8
DEFPOINTS
 62
     0
100
AcDbPoint
 10
56.00551459227282
 20
224.0674372077775
 30
0.0
  0
POINT
  5
39E9
330
1058
100
AcDbEntity
  8
DEFPOINTS
 62
     0
100
AcDbPoint
 10
56.00551459227282
 20
202.0674371677774
 30
0.0
  0
POINT
  5
39EA
330
1058
100
AcDbEntity
  8
DEFPOINTS
 62
     0
100
AcDbPoint
 10
30.12025194562329
 20
202.0674371677774
 30
0.0
  0
ENDBLK
  5
1063
330
1058
100
AcDbEntity
  8
0
100
AcDbBlockEnd
  0
BLOCK
  5
3539
330
352F
100
AcDbEntity
  8
0
100
AcDbBlockBegin
  2
*D2
 70
     1
 10
0.0
 20
0.0
 30
0.0
  3
*D2
  1

  0
LINE
  5
39F6
330
352F
100
AcDbEntity
  8
SUNPOU
100
AcDbLine
 10
209.5840658272051
 20
150.2380888802482
 30
0.0
 11
226.8476812768724
 21
157.1435350545649
 31
0.0
  0
LINE
  5
39F7
330
352F
100
AcDbEntity
  8
SUNPOU
100
AcDbLine
 10
228.8963809842374
 20
101.9573009488623
 30
0.0
 11
246.1599964339046
 21
108.8627471231789
 31
0.0
  0
LINE
  5
39F8
330
352F
100
AcDbEntity
  8
SUNPOU
100
AcDbLine
 10
226.5691382686804
 20
153.8010189674552
 30
0.0
 11
243.653109369132
 21
111.0910911819984
 31
0.0
  0
INSERT
  5
39F9
330
352F
100
AcDbEntity
  8
SUNPOU
100
AcDbBlockReference
  2
_OPEN
 10
225.4549662403901
 20
156.5864490404198
 30
0.0
 41
3.0
 42
3.0
 43
3.0
 50
111.8014094704721
  0
INSERT
  5
39FA
330
352F
100
AcDbEntity
  8
SUNPOU
100
AcDbBlockReference
  2
_OPEN
 10
244.7672813974223
 20
108.3056611090338
 30
0.0
 41
3.0
 42
3.0
 43
3.0
 50
291.8014094704721
  0
MTEXT
  5
39FB
330
352F
100
AcDbEntity
  8
SUNPOU
100
AcDbMText
 10
237.4323155463767
 20
133.3745317649687
 30
0.0
 40
3.0
 41
0.0
 71
     5
 72
     1
  1
\A1;52
 11
0.3713906760967737
 21
-0.9284766909881913
 31
0.0
1001
ACAD
1000
MTEXTBEGIN
1070
    73
1070
     1
1070
    44
1040
1.0
1070
    74
1070
     0
1000
MTEXTEND
  0
POINT
  5
39FC
330
352F
100
AcDbEntity
  8
DEFPOINTS
 62
     0
100
AcDbPoint
 10
206.7986357542406
 20
149.1239168519579
 30
0.0
  0
POINT
  5
39FD
330
352F
100
AcDbEntity
  8
DEFPOINTS
 62
     0
100
AcDbPoint
 10
226.1109509112728
 20
100.8431289205719
 30
0.0
  0
POINT
  5
39FE
330
352F
100
AcDbEntity
  8
DEFPOINTS
 62
     0
100
AcDbPoint
 10
244.7672813974223
 20
108.3056611090338
 30
0.0
  0
ENDBLK
  5
353A
330
352F
100
AcDbEntity
  8
0
100
AcDbBlockEnd
  0
BLOCK
  5
3545
330
353B
100
AcDbEntity
  8
0
100
AcDbBlockBegin
  2
*D3
 70
     1
 10
0.0
 20
0.0
 30
0.0
  3
*D3
  1

  0
LINE
  5
3A2C
330
353B
100
AcDbEntity
  8
SUNPOU
100
AcDbLine
 10
208.8936880754504
 20
146.8862860036891
 30
0.0
 11
208.8936880754504
 21
171.5319021392708
 31
0.0
  0
LINE
  5
3A2D
330
353B
100
AcDbEntity
  8
SUNPOU
100
AcDbLine
 10
223.8936880828922
 20
146.8862860066658
 30
0.0
 11
223.8936880828922
 21
171.5319021392708
 31
0.0
  0
LINE
  5
3A2E
330
353B
100
AcDbEntity
  8
SUNPOU
100
AcDbLine
 10
211.8936880754504
 20
170.0319021392708
 30
0.0
 11
220.8936880828922
 21
170.0319021392708
 31
0.0
  0
INSERT
  5
3A2F
330
353B
100
AcDbEntity
  8
SUNPOU
100
AcDbBlockReference
  2
_OPEN
 10
208.8936880754504
 20
170.0319021392708
 30
0.0
 41
3.0
 42
3.0
 43
3.0
 50
180.0
  0
INSERT
  5
3A30
330
353B
100
AcDbEntity
  8
SUNPOU
100
AcDbBlockReference
  2
_OPEN
 10
223.8936880828922
 20
170.0319021392708
 30
0.0
 41
3.0
 42
3.0
 43
3.0
  0
MTEXT
  5
3A31
330
353B
100
AcDbEntity
  8
SUNPOU
100
AcDbMText
 10
216.3936880791713
 20
172.5319021392708
 30
0.0
 40
3.0
 41
0.0
 71
     5
 72
     1
  1
\A1;15
1001
ACAD
1000
MTEXTBEGIN
1070
    73
1070
     1
1070
    44
1040
1.0
1070
    74
1070
     0
1000
MTEXTEND
  0
POINT
  5
3A32
330
353B
100
AcDbEntity
  8
DEFPOINTS
 62
     0
100
AcDbPoint
 10
208.8936880754504
 20
143.8862860036891
 30
0.0
  0
POINT
  5
3A33
330
353B
100
AcDbEntity
  8
DEFPOINTS
 62
     0
100
AcDbPoint
 10
223.8936880828922
 20
143.8862860066658
 30
0.0
  0
POINT
  5
3A34
330
353B
100
AcDbEntity
  8
DEFPOINTS
 62
     0
100
AcDbPoint
 10
223.8936880828922
 20
170.0319021392708
 30
0.0
  0
ENDBLK
  5
3546
330
353B
100
AcDbEntity
  8
0
100
AcDbBlockEnd
  0
BLOCK
  5
355D
330
3553
100
AcDbEntity
  8
0
100
AcDbBlockBegin
  2
*D4
 70
     1
 10
0.0
 20
0.0
 30
0.0
  3
*D4
  1

  0
LINE
  5
3A23
330
3553
100
AcDbEntity
  8
SUNPOU
100
AcDbLine
 10
226.1109513522729
 20
239.5674375977774
 30
0.0
 11
246.0425815459335
 21
239.5674375977774
 31
0.0
  0
LINE
  5
3A24
330
3553
100
AcDbEntity
  8
SUNPOU
100
AcDbLine
 10
226.1109513522729
 20
186.5674375577774
 30
0.0
 11
246.0425815459335
 21
186.5674375577774
 31
0.0
  0
LINE
  5
3A25
330
3553
100
AcDbEntity
  8
SUNPOU
100
AcDbLine
 10
244.5425815459335
 20
236.5674375977774
 30
0.0
 11
244.5425815459334
 21
189.5674375577774
 31
0.0
  0
INSERT
  5
3A26
330
3553
100
AcDbEntity
  8
SUNPOU
100
AcDbBlockReference
  2
_OPEN
 10
244.5425815459335
 20
239.5674375977774
 30
0.0
 41
3.0
 42
3.0
 43
3.0
 50
90.0
  0
INSERT
  5
3A27
330
3553
100
AcDbEntity
  8
SUNPOU
100
AcDbBlockReference
  2
_OPEN
 10
244.5425815459334
 20
186.5674375577774
 30
0.0
 41
3.0
 42
3.0
 43
3.0
 50
270.0
  0
MTEXT
  5
3A28
330
3553
100
AcDbEntity
  8
SUNPOU
100
AcDbMText
 10
242.0425815459334
 20
213.0674375777775
 30
0.0
 40
3.0
 41
0.0
 71
     5
 72
     1
  1
\A1;53
 11
0.0000000000000001
 21
1.0
 31
0.0
1001
ACAD
1000
MTEXTBEGIN
1070
    73
1070
     1
1070
    44
1040
1.0
1070
    74
1070
     0
1000
MTEXTEND
  0
POINT
  5
3A29
330
3553
100
AcDbEntity
  8
DEFPOINTS
 62
     0
100
AcDbPoint
 10
223.1109513522729
 20
239.5674375977774
 30
0.0
  0
POINT
  5
3A2A
330
3553
100
AcDbEntity
  8
DEFPOINTS
 62
     0
100
AcDbPoint
 10
223.1109513522729
 20
186.5674375577774
 30
0.0
  0
POINT
  5
3A2B
330
3553
100
AcDbEntity
  8
DEFPOINTS
 62
     0
100
AcDbPoint
 10
244.5425815459334
 20
186.5674375577774
 30
0.0
  0
ENDBLK
  5
355E
330
3553
100
AcDbEntity
  8
0
100
AcDbBlockEnd
  0
BLOCK
  5
356B
330
355F
100
AcDbEntity
  8
0
100
AcDbBlockBegin
  2
*D5
 70
     1
 10
0.0
 20
0.0
 30
0.0
  3
*D5
  1

  0
LINE
  5
3A35
330
355F
100
AcDbEntity
  8
SUNPOU
100
AcDbLine
 10
305.0708454011999
 20
171.2002729636535
 30
0.0
 11
287.8012261763527
 21
164.292425094123
 31
0.0
  0
LINE
  5
3A36
330
355F
100
AcDbEntity
  8
SUNPOU
100
AcDbLine
 10
304.6994548055331
 20
165.1280354124346
 30
0.0
 11
289.8438749420806
 21
159.1858033125662
 31
0.0
  0
LINE
  5
3A37
330
355F
100
AcDbEntity
  8
SUNPOU
100
AcDbLine
 10
288.079769153653
 20
167.634941183807
 30
0.0
 11
286.9655970996196
 21
170.4203712464744
 31
0.0
  0
LINE
  5
3A38
330
355F
100
AcDbEntity
  8
SUNPOU
100
AcDbLine
 10
292.3507620274477
 20
156.9574592769156
 30
0.0
 11
293.4649340814812
 21
154.1720292142483
 31
0.0
  0
LINE
  5
3A39
330
355F
100
AcDbEntity
  8
SUNPOU
100
AcDbLine
 10
289.1939412076864
 20
164.8495111211397
 30
0.0
 11
291.2365899734144
 21
159.7428893395829
 31
0.0
  0
INSERT
  5
3A3A
330
355F
100
AcDbEntity
  8
SUNPOU
100
AcDbBlockReference
  2
_OPEN
 10
289.1939412076864
 20
164.8495111211397
 30
0.0
 41
3.0
 42
3.0
 43
3.0
 50
291.8014100000028
  0
INSERT
  5
3A3B
330
355F
100
AcDbEntity
  8
SUNPOU
100
AcDbBlockReference
  2
_OPEN
 10
291.2365899734144
 20
159.7428893395829
 30
0.0
 41
3.0
 42
3.0
 43
3.0
 50
111.8014100000028
  0
MTEXT
  5
3A3C
330
355F
100
AcDbEntity
  8
SUNPOU
100
AcDbMText
 10
292.5364573094398
 20
163.2246769420558
 30
0.0
 40
3.0
 41
0.0
 71
     5
 72
     1
  1
\A1;6
 11
0.3713906846778061
 21
-0.9284766875557783
 31
0.0
1001
ACAD
1000
MTEXTBEGIN
1070
    73
1070
     1
1070
    44
1040
1.0
1070
    74
1070
     0
1000
MTEXTEND
  0
POINT
  5
3A3D
330
355F
100
AcDbEntity
  8
DEFPOINTS
 62
     0
100
AcDbPoint
 10
307.8562754638672
 20
172.314445017687
 30
0.0
  0
POINT
  5
3A3E
330
355F
100
AcDbEntity
  8
DEFPOINTS
 62
     0
100
AcDbPoint
 10
307.4848848682004
 20
166.242207466468
 30
0.0
  0
POINT
  5
3A3F
330
355F
100
AcDbEntity
  8
DEFPOINTS
 62
     0
100
AcDbPoint
 10
291.2365899734144
 20
159.7428893395829
 30
0.0
  0
ENDBLK
  5
356C
330
355F
100
AcDbEntity
  8
0
100
AcDbBlockEnd
  0
BLOCK
  5
3577
330
356D
100
AcDbEntity
  8
0
100
AcDbBlockBegin
  2
*D6
 70
     1
 10
0.0
 20
0.0
 30
0.0
  3
*D6
  1

  0
LINE
  5
39FF
330
356D
100
AcDbEntity
  8
SUNPOU
100
AcDbLine
 10
305.0708454011999
 20
171.2002729636535
 30
0.0
 11
278.6339994703951
 21
160.6255343164073
 31
0.0
  0
LINE
  5
3A00
330
356D
100
AcDbEntity
  8
SUNPOU
100
AcDbLine
 10
318.4409100495993
 20
137.7751122116449
 30
0.0
 11
292.0040641187961
 21
127.2003735643993
 31
0.0
  0
LINE
  5
3A01
330
356D
100
AcDbEntity
  8
SUNPOU
100
AcDbLine
 10
281.1408865557622
 20
158.3971902807567
 30
0.0
 11
292.2826070960963
 21
130.5428896540833
 31
0.0
  0
INSERT
  5
3A02
330
356D
100
AcDbEntity
  8
SUNPOU
100
AcDbBlockReference
  2
_OPEN
 10
280.0267145017288
 20
161.182620343424
 30
0.0
 41
3.0
 42
3.0
 43
3.0
 50
111.8014100000028
  0
INSERT
  5
3A03
330
356D
100
AcDbEntity
  8
SUNPOU
100
AcDbBlockReference
  2
_OPEN
 10
293.3967791501298
 20
127.757459591416
 30
0.0
 41
3.0
 42
3.0
 43
3.0
 50
291.8014100000028
  0
MTEXT
  5
3A04
330
356D
100
AcDbEntity
  8
SUNPOU
100
AcDbMText
 10
289.0329385448188
 20
145.3985166791146
 30
0.0
 40
3.0
 41
0.0
 71
     5
 72
     1
  1
\A1;36
 11
0.3713906846778061
 21
-0.9284766875557783
 31
0.0
1001
ACAD
1000
MTEXTBEGIN
1070
    73
1070
     1
1070
    44
1040
1.0
1070
    74
1070
     0
1000
MTEXTEND
  0
POINT
  5
3A05
330
356D
100
AcDbEntity
  8
DEFPOINTS
 62
     0
100
AcDbPoint
 10
307.8562754638672
 20
172.314445017687
 30
0.0
  0
POINT
  5
3A06
330
356D
100
AcDbEntity
  8
DEFPOINTS
 62
     0
100
AcDbPoint
 10
321.2263401122666
 20
138.8892842656783
 30
0.0
  0
POINT
  5
3A07
330
356D
100
AcDbEntity
  8
DEFPOINTS
 62
     0
100
AcDbPoint
 10
293.3967791501298
 20
127.757459591416
 30
0.0
  0
ENDBLK
  5
3578
330
356D
100
AcDbEntity
  8
0
100
AcDbBlockEnd
  0
BLOCK
  5
3585
330
3579
100
AcDbEntity
  8
0
100
AcDbBlockBegin
  2
*D7
 70
     1
 10
0.0
 20
0.0
 30
0.0
  3
*D7
  1

  0
LINE
  5
39EB
330
3579
100
AcDbEntity
  8
SUNPOU
100
AcDbLine
 10
313.984221922477
 20
141.9161182235398
 30
0.0
 11
299.1286420590244
 21
135.9738861236713
 31
0.0
  0
LINE
  5
39EC
330
3579
100
AcDbEntity
  8
SUNPOU
100
AcDbLine
 10
318.4409100495993
 20
137.7751122116449
 30
0.0
 11
301.1712908247524
 21
130.8672643421144
 31
0.0
  0
LINE
  5
39ED
330
3579
100
AcDbEntity
  8
SUNPOU
100
AcDbLine
 10
299.4071850363246
 20
139.3164022133554
 30
0.0
 11
298.2930129822912
 21
142.1018322760227
 31
0.0
  0
LINE
  5
39EE
330
3579
100
AcDbEntity
  8
SUNPOU
100
AcDbLine
 10
303.6781779101195
 20
128.6389203064638
 30
0.0
 11
304.7923499641529
 21
125.8534902437965
 31
0.0
  0
LINE
  5
39EF
330
3579
100
AcDbEntity
  8
SUNPOU
100
AcDbLine
 10
300.5213570903581
 20
136.530972150688
 30
0.0
 11
302.5640058560861
 21
131.4243503691311
 31
0.0
  0
INSERT
  5
39F0
330
3579
100
AcDbEntity
  8
SUNPOU
100
AcDbBlockReference
  2
_OPEN
 10
300.5213570903581
 20
136.530972150688
 30
0.0
 41
3.0
 42
3.0
 43
3.0
 50
291.8014100000028
  0
INSERT
  5
39F1
330
3579
100
AcDbEntity
  8
SUNPOU
100
AcDbBlockReference
  2
_OPEN
 10
302.5640058560861
 20
131.4243503691311
 30
0.0
 41
3.0
 42
3.0
 43
3.0
 50
111.8014100000028
  0
MTEXT
  5
39F2
330
3579
100
AcDbEntity
  8
SUNPOU
100
AcDbMText
 10
303.8638731921116
 20
134.9061379716041
 30
0.0
 40
3.0
 41
0.0
 71
     5
 72
     1
  1
\A1;6
 11
0.3713906846778061
 21
-0.9284766875557783
 31
0.0
1001
ACAD
1000
MTEXTBEGIN
1070
    73
1070
     1
1070
    44
1040
1.0
1070
    74
1070
     0
1000
MTEXTEND
  0
POINT
  5
39F3
330
3579
100
AcDbEntity
  8
DEFPOINTS
 62
     0
100
AcDbPoint
 10
316.7696519851443
 20
143.0302902775732
 30
0.0
  0
POINT
  5
39F4
330
3579
100
AcDbEntity
  8
DEFPOINTS
 62
     0
100
AcDbPoint
 10
321.2263401122666
 20
138.8892842656783
 30
0.0
  0
POINT
  5
39F5
330
3579
100
AcDbEntity
  8
DEFPOINTS
 62
     0
100
AcDbPoint
 10
302.5640058560861
 20
131.4243503691311
 30
0.0
  0
ENDBLK
  5
3586
330
3579
100
AcDbEntity
  8
0
100
AcDbBlockEnd
  0
BLOCK
  5
3591
330
3587
100
AcDbEntity
  8
0
100
AcDbBlockBegin
  2
*D8
 70
     1
 10
0.0
 20
0.0
 30
0.0
  3
*D8
  1

  0
LINE
  5
3A40
330
3587
100
AcDbEntity
  8
SUNPOU
100
AcDbLine
 10
356.1370632167687
 20
191.6267606209306
 30
0.0
 11
371.5265702373171
 21
197.7825635891899
 31
0.0
  0
LINE
  5
3A41
330
3587
100
AcDbEntity
  8
SUNPOU
100
AcDbLine
 10
363.1934861773689
 20
179.3708683645051
 30
0.0
 11
376.7260398228064
 21
184.783889963409
 31
0.0
  0
LINE
  5
3A42
330
3587
100
AcDbEntity
  8
SUNPOU
100
AcDbLine
 10
371.2480272600169
 20
194.4400474995059
 30
0.0
 11
374.2191527374393
 21
187.0122339990596
 31
0.0
  0
INSERT
  5
3A43
330
3587
100
AcDbEntity
  8
SUNPOU
100
AcDbBlockReference
  2
_OPEN
 10
370.1338552059835
 20
197.2254775621732
 30
0.0
 41
3.0
 42
3.0
 43
3.0
 50
111.8014100000028
  0
INSERT
  5
3A44
330
3587
100
AcDbEntity
  8
SUNPOU
100
AcDbBlockReference
  2
_OPEN
 10
375.3333247914728
 20
184.2268039363922
 30
0.0
 41
3.0
 42
3.0
 43
3.0
 50
291.8014100000028
  0
MTEXT
  5
3A45
330
3587
100
AcDbEntity
  8
SUNPOU
100
AcDbMText
 10
375.0547817176176
 20
191.6546174609772
 30
0.0
 40
3.0
 41
0.0
 71
     5
 72
     1
  1
\A1;14
 11
0.3713906846778061
 21
-0.9284766875557783
 31
0.0
1001
ACAD
1000
MTEXTBEGIN
1070
    73
1070
     1
1070
    44
1040
1.0
1070
    74
1070
     0
1000
MTEXTEND
  0
POINT
  5
3A46
330
3587
100
AcDbEntity
  8
DEFPOINTS
 62
     0
100
AcDbPoint
 10
353.3516331541014
 20
190.5125885668972
 30
0.0
  0
POINT
  5
3A47
330
3587
100
AcDbEntity
  8
DEFPOINTS
 62
     0
100
AcDbPoint
 10
360.4080561147016
 20
178.2566963104716
 30
0.0
  0
POINT
  5
3A48
330
3587
100
AcDbEntity
  8
DEFPOINTS
 62
     0
100
AcDbPoint
 10
375.3333247914728
 20
184.2268039363922
 30
0.0
  0
ENDBLK
  5
3592
330
3587
100
AcDbEntity
  8
0
100
AcDbBlockEnd
  0
BLOCK
  5
359D
330
3593
100
AcDbEntity
  8
0
100
AcDbBlockBegin
  2
*D9
 70
     1
 10
0.0
 20
0.0
 30
0.0
  3
*D9
  1

  0
LINE
  5
3A08
330
3593
100
AcDbEntity
  8
SUNPOU
100
AcDbLine
 10
309.7689374159729
 20
176.9568284630096
 30
0.0
 11
294.5665093982967
 21
214.9628975191197
 31
0.0
  0
LINE
  5
3A09
330
3593
100
AcDbEntity
  8
SUNPOU
100
AcDbLine
 10
348.7649582933164
 20
192.5552372194755
 30
0.0
 11
333.5625302756408
 21
230.5613062755841
 31
0.0
  0
LINE
  5
3A0A
330
3593
100
AcDbEntity
  8
SUNPOU
100
AcDbLine
 10
297.9090254879808
 20
214.6843545418192
 30
0.0
 11
331.33418623999
 21
228.0544191902172
 31
0.0
  0
INSERT
  5
3A0B
330
3593
100
AcDbEntity
  8
SUNPOU
100
AcDbBlockReference
  2
_OPEN
 10
295.1235954253133
 20
213.5701824877859
 30
0.0
 41
3.0
 42
3.0
 43
3.0
 50
201.8014099999978
  0
INSERT
  5
3A0C
330
3593
100
AcDbEntity
  8
SUNPOU
100
AcDbBlockReference
  2
_OPEN
 10
334.1196163026574
 20
229.1685912442504
 30
0.0
 41
3.0
 42
3.0
 43
3.0
 50
21.8014099999979
  0
MTEXT
  5
3A0D
330
3593
100
AcDbEntity
  8
SUNPOU
100
AcDbMText
 10
313.693129152291
 20
223.6905785849077
 30
0.0
 40
3.0
 41
0.0
 71
     5
 72
     1
  1
\A1;42
 11
0.9284766875558103
 21
0.371390684677726
 31
0.0
1001
ACAD
1000
MTEXTBEGIN
1070
    73
1070
     1
1070
    44
1040
1.0
1070
    74
1070
     0
1000
MTEXTEND
  0
POINT
  5
3A0E
330
3593
100
AcDbEntity
  8
DEFPOINTS
 62
     0
100
AcDbPoint
 10
310.8831094700061
 20
174.1713984003422
 30
0.0
  0
POINT
  5
3A0F
330
3593
100
AcDbEntity
  8
DEFPOINTS
 62
     0
100
AcDbPoint
 10
349.8791303473496
 20
189.7698071568081
 30
0.0
  0
POINT
  5
3A10
330
3593
100
AcDbEntity
  8
DEFPOINTS
 62
     0
100
AcDbPoint
 10
334.1196163026574
 20
229.1685912442504
 30
0.0
  0
ENDBLK
  5
359E
330
3593
100
AcDbEntity
  8
0
100
AcDbBlockEnd
  0
BLOCK
  5
35A9
330
359F
100
AcDbEntity
  8
0
100
AcDbBlockBegin
  2
*D10
 70
     1
 10
0.0
 20
0.0
 30
0.0
  3
*D10
  1

  0
LINE
  5
3A1A
330
359F
100
AcDbEntity
  8
SUNPOU
100
AcDbLine
 10
305.6279314040781
 20
172.5001403358873
 30
0.0
 11
286.5109332110804
 21
220.292634575874
 31
0.0
  0
LINE
  5
3A1B
330
359F
100
AcDbEntity
  8
SUNPOU
100
AcDbLine
 10
354.8371958445353
 20
192.1838466238086
 30
0.0
 11
335.7201976515383
 21
239.9763408637936
 31
0.0
  0
LINE
  5
3A1C
330
359F
100
AcDbEntity
  8
SUNPOU
100
AcDbLine
 10
289.8534493007644
 20
220.0140915985735
 30
0.0
 11
333.4918536158875
 21
237.4694537784267
 31
0.0
  0
INSERT
  5
3A1D
330
359F
100
AcDbEntity
  8
SUNPOU
100
AcDbBlockReference
  2
_OPEN
 10
287.0680192380969
 20
218.8999195445404
 30
0.0
 41
3.0
 42
3.0
 43
3.0
 50
201.8014099999978
  0
INSERT
  5
3A1E
330
359F
100
AcDbEntity
  8
SUNPOU
100
AcDbBlockReference
  2
_OPEN
 10
336.2772836785548
 20
238.5836258324598
 30
0.0
 41
3.0
 42
3.0
 43
3.0
 50
21.8014099999979
  0
MTEXT
  5
3A1F
330
359F
100
AcDbEntity
  8
SUNPOU
100
AcDbMText
 10
310.7441747466316
 20
231.0629644073896
 30
0.0
 40
3.0
 41
0.0
 71
     5
 72
     1
  1
\A1;53
 11
0.9284766875558103
 21
0.371390684677726
 31
0.0
1001
ACAD
1000
MTEXTBEGIN
1070
    73
1070
     1
1070
    44
1040
1.0
1070
    74
1070
     0
1000
MTEXTEND
  0
POINT
  5
3A20
330
359F
100
AcDbEntity
  8
DEFPOINTS
 62
     0
100
AcDbPoint
 10
306.7421034581113
 20
169.7147102732199
 30
0.0
  0
POINT
  5
3A21
330
359F
100
AcDbEntity
  8
DEFPOINTS
 62
     0
100
AcDbPoint
 10
355.9513678985685
 20
189.3984165611412
 30
0.0
  0
POINT
  5
3A22
330
359F
100
AcDbEntity
  8
DEFPOINTS
 62
     0
100
AcDbPoint
 10
336.2772836785548
 20
238.5836258324598
 30
0.0
  0
ENDBLK
  5
35AA
330
359F
100
AcDbEntity
  8
0
100
AcDbBlockEnd
  0
BLOCK
  5
35B5
330
35AB
100
AcDbEntity
  8
0
100
AcDbBlockBegin
  2
*D11
 70
     1
 10
0.0
 20
0.0
 30
0.0
  3
*D11
  1

  0
LINE
  5
3A11
330
35AB
100
AcDbEntity
  8
SUNPOU
100
AcDbLine
 10
313.9729662019475
 20
170.485630286146
 30
0.0
 11
299.0869031692652
 21
207.7007869003334
 31
0.0
  0
LINE
  5
3A12
330
35AB
100
AcDbEntity
  8
SUNPOU
100
AcDbLine
 10
350.1835570166236
 20
184.9698669885787
 30
0.0
 11
335.2974939839419
 21
222.1850236027647
 31
0.0
  0
LINE
  5
3A13
330
35AB
100
AcDbEntity
  8
SUNPOU
100
AcDbLine
 10
302.4294192589493
 20
207.4222439230328
 30
0.0
 11
333.069149948291
 21
219.6781365173978
 31
0.0
  0
INSERT
  5
3A14
330
35AB
100
AcDbEntity
  8
SUNPOU
100
AcDbBlockReference
  2
_OPEN
 10
299.6439891962818
 20
206.3080718689996
 30
0.0
 41
3.0
 42
3.0
 43
3.0
 50
201.8014099999978
  0
INSERT
  5
3A15
330
35AB
100
AcDbEntity
  8
SUNPOU
100
AcDbBlockReference
  2
_OPEN
 10
335.8545800109585
 20
220.792308571431
 30
0.0
 41
3.0
 42
3.0
 43
3.0
 50
21.8014099999979
  0
MTEXT
  5
3A16
330
35AB
100
AcDbEntity
  8
SUNPOU
100
AcDbMText
 10
316.8208078919259
 20
215.8713819391048
 30
0.0
 40
3.0
 41
0.0
 71
     5
 72
     1
  1
\A1;39
 11
0.9284766875558103
 21
0.371390684677726
 31
0.0
1001
ACAD
1000
MTEXTBEGIN
1070
    73
1070
     1
1070
    44
1040
1.0
1070
    74
1070
     0
1000
MTEXTEND
  0
POINT
  5
3A17
330
35AB
100
AcDbEntity
  8
DEFPOINTS
 62
     0
100
AcDbPoint
 10
315.0871382559806
 20
167.7002002234786
 30
0.0
  0
POINT
  5
3A18
330
35AB
100
AcDbEntity
  8
DEFPOINTS
 62
     0
100
AcDbPoint
 10
351.2977290706568
 20
182.1844369259112
 30
0.0
  0
POINT
  5
3A19
330
35AB
100
AcDbEntity
  8
DEFPOINTS
 62
     0
100
AcDbPoint
 10
335.8545800109585
 20
220.792308571431
 30
0.0
  0
ENDBLK
  5
35B6
330
35AB
100
AcDbEntity
  8
0
100
AcDbBlockEnd
  0
BLOCK
  5
36C9
330
36BF
100
AcDbEntity
  8
0
100
AcDbBlockBegin
  2
*D12
 70
     1
 10
0.0
 20
0.0
 30
0.0
  3
*D12
  1

  0
LINE
  5
39D9
330
36BF
100
AcDbEntity
  8
SUNPOU
100
AcDbLine
 10
203.734662659663
 20
130.6658002323947
 30
0.0
 11
192.7829509376195
 21
126.2851155430531
 31
0.0
  0
LINE
  5
39DA
330
36BF
100
AcDbEntity
  8
SUNPOU
100
AcDbLine
 10
217.104727009663
 20
97.24063936139472
 30
0.0
 11
206.1530152876195
 21
92.85995467205308
 31
0.0
  0
LINE
  5
39DB
330
36BF
100
AcDbEntity
  8
SUNPOU
100
AcDbLine
 10
195.2898380031017
 20
124.0567714850319
 30
0.0
 11
206.4315582947472
 21
96.20247075925153
 31
0.0
  0
INSERT
  5
39DC
330
36BF
100
AcDbEntity
  8
SUNPOU
100
AcDbBlockReference
  2
_OPEN
 10
194.1756659739244
 20
126.8422015576417
 30
0.0
 41
3.0
 42
3.0
 43
3.0
 50
111.8014094887161
  0
INSERT
  5
39DD
330
36BF
100
AcDbEntity
  8
SUNPOU
100
AcDbBlockReference
  2
_OPEN
 10
207.5457303239244
 20
93.41704068664173
 30
0.0
 41
3.0
 42
3.0
 43
3.0
 50
291.8014094887161
  0
MTEXT
  5
39DE
330
36BF
100
AcDbEntity
  8
SUNPOU
100
AcDbMText
 10
203.1818898760992
 20
111.0580978131228
 30
0.0
 40
3.0
 41
0.0
 71
     5
 72
     1
  1
\A1;36
 11
0.371390676392418
 21
-0.9284766908699335
 31
0.0
1001
ACAD
1000
MTEXTBEGIN
1070
    73
1070
     1
1070
    44
1040
1.0
1070
    74
1070
     0
1000
MTEXTEND
  0
POINT
  5
39DF
330
36BF
100
AcDbEntity
  8
DEFPOINTS
 62
     0
100
AcDbPoint
 10
206.5200927322728
 20
131.779972261572
 30
0.0
  0
POINT
  5
39E0
330
36BF
100
AcDbEntity
  8
DEFPOINTS
 62
     0
100
AcDbPoint
 10
219.8901570822728
 20
98.35481139057199
 30
0.0
  0
POINT
  5
39E1
330
36BF
100
AcDbEntity
  8
DEFPOINTS
 62
     0
100
AcDbPoint
 10
207.5457303239244
 20
93.41704068664173
 30
0.0
  0
ENDBLK
  5
36CA
330
36BF
100
AcDbEntity
  8
0
100
AcDbBlockEnd
  0
BLOCK
  5
36D6
330
36CC
100
AcDbEntity
  8
0
100
AcDbBlockBegin
  2
*D13
 70
     1
 10
0.0
 20
0.0
 30
0.0
  3
*D13
  1

  0
LINE
  5
39D0
330
36CC
100
AcDbEntity
  8
SUNPOU
100
AcDbLine
 10
56.00551459227279
 20
98.33395871057195
 30
0.0
 11
56.00551459227279
 21
171.5319021392708
 31
0.0
  0
LINE
  5
39D1
330
36CC
100
AcDbEntity
  8
SUNPOU
100
AcDbLine
 10
208.8936880754504
 20
146.8862860036891
 30
0.0
 11
208.8936880754504
 21
171.5319021392708
 31
0.0
  0
LINE
  5
39D2
330
36CC
100
AcDbEntity
  8
SUNPOU
100
AcDbLine
 10
59.0055145922728
 20
170.0319021392708
 30
0.0
 11
205.8936880754504
 21
170.0319021392708
 31
0.0
  0
INSERT
  5
39D3
330
36CC
100
AcDbEntity
  8
SUNPOU
100
AcDbBlockReference
  2
_OPEN
 10
56.00551459227279
 20
170.0319021392708
 30
0.0
 41
3.0
 42
3.0
 43
3.0
 50
180.0
  0
INSERT
  5
39D4
330
36CC
100
AcDbEntity
  8
SUNPOU
100
AcDbBlockReference
  2
_OPEN
 10
208.8936880754504
 20
170.0319021392708
 30
0.0
 41
3.0
 42
3.0
 43
3.0
  0
MTEXT
  5
39D5
330
36CC
100
AcDbEntity
  8
SUNPOU
100
AcDbMText
 10
132.4496013338616
 20
172.5319021392708
 30
0.0
 40
3.0
 41
0.0
 71
     5
 72
     1
  1
\A1;153
1001
ACAD
1000
MTEXTBEGIN
1070
    73
1070
     1
1070
    44
1040
1.0
1070
    74
1070
     0
1000
MTEXTEND
  0
POINT
  5
39D6
330
36CC
100
AcDbEntity
  8
DEFPOINTS
 62
     0
100
AcDbPoint
 10
56.00551459227279
 20
95.33395871057194
 30
0.0
  0
POINT
  5
39D7
330
36CC
100
AcDbEntity
  8
DEFPOINTS
 62
     0
100
AcDbPoint
 10
208.8936880754504
 20
143.8862860036891
 30
0.0
  0
POINT
  5
39D8
330
36CC
100
AcDbEntity
  8
DEFPOINTS
 62
     0
100
AcDbPoint
 10
208.8936880754504
 20
170.0319021392708
 30
0.0
  0
ENDBLK
  5
36D7
330
36CC
100
AcDbEntity
  8
0
100
AcDbBlockEnd
  0
BLOCK
  5
36E5
330
36D9
100
AcDbEntity
  8
0
100
AcDbBlockBegin
  2
*D14
 70
     1
 10
0.0
 20
0.0
 30
0.0
  3
*D14
  1

  0
LINE
  5
39C5
330
36D9
100
AcDbEntity
  8
SUNPOU
100
AcDbLine
 10
56.18010876337952
 20
100.11471713549
 30
0.0
 11
28.62025194562326
 21
100.11471713549
 31
0.0
  0
LINE
  5
39C6
330
36D9
100
AcDbEntity
  8
SUNPOU
100
AcDbLine
 10
223.1109509122727
 20
100.843128920572
 30
0.0
 11
28.62025194562326
 21
100.843128920572
 31
0.0
  0
LINE
  5
39C7
330
36D9
100
AcDbEntity
  8
SUNPOU
100
AcDbLine
 10
30.12025194562326
 20
97.11471713549006
 30
0.0
 11
30.12025194562326
 21
94.11471713549005
 31
0.0
  0
LINE
  5
39C8
330
36D9
100
AcDbEntity
  8
SUNPOU
100
AcDbLine
 10
30.12025194562326
 20
103.843128920572
 30
0.0
 11
30.12025194562327
 21
109.843128920572
 31
0.0
  0
LINE
  5
39C9
330
36D9
100
AcDbEntity
  8
SUNPOU
100
AcDbLine
 10
30.12025194562326
 20
100.11471713549
 30
0.0
 11
30.12025194562326
 21
100.843128920572
 31
0.0
  0
INSERT
  5
39CA
330
36D9
100
AcDbEntity
  8
SUNPOU
100
AcDbBlockReference
  2
_OPEN
 10
30.12025194562326
 20
100.11471713549
 30
0.0
 41
3.0
 42
3.0
 43
3.0
 50
90.0
  0
INSERT
  5
39CB
330
36D9
100
AcDbEntity
  8
SUNPOU
100
AcDbBlockReference
  2
_OPEN
 10
30.12025194562326
 20
100.843128920572
 30
0.0
 41
3.0
 42
3.0
 43
3.0
 50
270.0
  0
MTEXT
  5
39CC
330
36D9
100
AcDbEntity
  8
SUNPOU
100
AcDbMText
 10
27.62025194562325
 20
108.343128920572
 30
0.0
 40
3.0
 41
0.0
 71
     5
 72
     1
  1
\A1;1
 11
0.0000000000000001
 21
1.0
 31
0.0
1001
ACAD
1000
MTEXTBEGIN
1070
    73
1070
     1
1070
    44
1040
1.0
1070
    74
1070
     0
1000
MTEXTEND
  0
POINT
  5
39CD
330
36D9
100
AcDbEntity
  8
DEFPOINTS
 62
     0
100
AcDbPoint
 10
59.18010876337952
 20
100.11471713549
 30
0.0
  0
POINT
  5
39CE
330
36D9
100
AcDbEntity
  8
DEFPOINTS
 62
     0
100
AcDbPoint
 10
226.1109509122728
 20
100.8431289205719
 30
0.0
  0
POINT
  5
39CF
330
36D9
100
AcDbEntity
  8
DEFPOINTS
 62
     0
100
AcDbPoint
 10
30.12025194562326
 20
100.843128920572
 30
0.0
  0
ENDBLK
  5
36E6
330
36D9
100
AcDbEntity
  8
0
100
AcDbBlockEnd
  0
BLOCK
  5
3783
330
3779
100
AcDbEntity
  8
0
100
AcDbBlockBegin
  2
*D15
 70
     1
 10
0.0
 20
0.0
 30
0.0
  3
*D15
  1

  0
LINE
  5
39BC
330
3779
100
AcDbEntity
  8
SUNPOU
100
AcDbLine
 10
174.0056145922728
 20
106.6562818315719
 30
0.0
 11
174.0056145922728
 21
163.0554066637708
 31
0.0
  0
LINE
  5
39BD
330
3779
100
AcDbEntity
  8
SUNPOU
100
AcDbLine
 10
208.8936880754504
 20
146.8862860036891
 30
0.0
 11
208.8936880754504
 21
163.0554066637708
 31
0.0
  0
LINE
  5
39BE
330
3779
100
AcDbEntity
  8
SUNPOU
100
AcDbLine
 10
177.0056145922728
 20
161.5554066637709
 30
0.0
 11
205.8936880754504
 21
161.5554066637709
 31
0.0
  0
INSERT
  5
39BF
330
3779
100
AcDbEntity
  8
SUNPOU
100
AcDbBlockReference
  2
_OPEN
 10
174.0056145922728
 20
161.5554066637709
 30
0.0
 41
3.0
 42
3.0
 43
3.0
 50
180.0
  0
INSERT
  5
39C0
330
3779
100
AcDbEntity
  8
SUNPOU
100
AcDbBlockReference
  2
_OPEN
 10
208.8936880754504
 20
161.5554066637709
 30
0.0
 41
3.0
 42
3.0
 43
3.0
  0
MTEXT
  5
39C1
330
3779
100
AcDbEntity
  8
SUNPOU
100
AcDbMText
 10
191.4496513338616
 20
164.0554066637708
 30
0.0
 40
3.0
 41
0.0
 71
     5
 72
     1
  1
\A1;35
1001
ACAD
1000
MTEXTBEGIN
1070
    73
1070
     1
1070
    44
1040
1.0
1070
    74
1070
     0
1000
MTEXTEND
  0
POINT
  5
39C2
330
3779
100
AcDbEntity
  8
DEFPOINTS
 62
     0
100
AcDbPoint
 10
174.0056145922728
 20
103.6562818315719
 30
0.0
  0
POINT
  5
39C3
330
3779
100
AcDbEntity
  8
DEFPOINTS
 62
     0
100
AcDbPoint
 10
208.8936880754504
 20
143.8862860036891
 30
0.0
  0
POINT
  5
39C4
330
3779
100
AcDbEntity
  8
DEFPOINTS
 62
     0
100
AcDbPoint
 10
208.8936880754504
 20
161.5554066637709
 30
0.0
  0
ENDBLK
  5
3784
330
3779
100
AcDbEntity
  8
0
100
AcDbBlockEnd
  0
ENDSEC
  0
SECTION
  2
ENTITIES
  0
LINE
  5
363
330
1A
100
AcDbEntity
  8
SEIHIN
100
AcDbLine
 10
80.90561459227279
 20
80.94035506057196
 30
0.0
 11
105.9056145942728
 21
80.94035506057196
 31
0.0
  0
ARC
  5
364
330
1A
100
AcDbEntity
  8
SEIHIN
100
AcDbCircle
 10
96.4056145922728
 20
101.4339587105719
 30
0.0
 40
9.535085152808647
100
AcDbArc
 50
4.916661302937908
 51
179.999861547953
  0
LINE
  5
367
330
1A
100
AcDbEntity
  8
SEIHIN
100
AcDbLine
 10
86.8705294422728
 20
101.4339817515719
 30
0.0
 11
86.87050979227279
 21
93.10223125057197
 31
0.0
  0
LINE
  5
368
330
1A
100
AcDbEntity
  8
SEIHIN
100
AcDbLine
 10
80.90561459227279
 20
80.94035506057196
 30
0.0
 11
80.90561459227279
 21
99.94035506257198
 31
0.0
  0
LINE
  5
369
330
1A
100
AcDbEntity
  8
SEIHIN
100
AcDbLine
 10
84.8705259222728
 20
99.94035270457198
 30
0.0
 11
84.8705097922728
 21
93.10223125057197
 31
0.0
  0
LINE
  5
36A
330
1A
100
AcDbEntity
  8
SEIHIN
100
AcDbLine
 10
85.50561459227282
 20
100.1339587105719
 30
0.0
 11
85.5056004422728
 21
94.13395871057195
 31
0.0
  0
LINE
  5
36B
330
1A
100
AcDbEntity
  8
SEIHIN
100
AcDbLine
 10
86.50561459227281
 20
100.1339587105719
 30
0.0
 11
86.5056004422728
 21
94.13395635257197
 31
0.0
  0
LINE
  5
36F
330
1A
100
AcDbEntity
  8
SEIHIN
100
AcDbLine
 10
84.8705097922728
 20
93.10223125057197
 30
0.0
 11
86.87050979227279
 21
93.10223125057197
 31
0.0
  0
LINE
  5
370
330
1A
100
AcDbEntity
  8
SEIHIN
100
AcDbLine
 10
85.5056004422728
 20
94.13395871057195
 30
0.0
 11
86.8705122222728
 21
94.13395871057195
 31
0.0
  0
LINE
  5
371
330
1A
100
AcDbEntity
  8
SEIHIN
100
AcDbLine
 10
99.4056145922728
 20
90.63395871057196
 30
0.0
 11
99.4056145922728
 21
86.63395871057195
 31
0.0
  0
LINE
  5
372
330
1A
100
AcDbEntity
  8
SEIHIN
100
AcDbLine
 10
92.40561459227279
 20
90.63395871057196
 30
0.0
 11
92.40561459227279
 21
86.63395871057195
 31
0.0
  0
LINE
  5
374
330
1A
100
AcDbEntity
  8
SEIHIN
100
AcDbLine
 10
98.40561459227281
 20
85.63395871057196
 30
0.0
 11
93.40561459227279
 21
85.63395871057196
 31
0.0
  0
LINE
  5
375
330
1A
100
AcDbEntity
  8
SEIHIN
100
AcDbLine
 10
97.06031513227282
 20
83.63395871057196
 30
0.0
 11
94.7509140522728
 21
83.63395871057196
 31
0.0
  0
LINE
  5
376
330
1A
100
AcDbEntity
  8
SEIHIN
100
AcDbLine
 10
95.90561459227279
 20
85.63395871057196
 30
0.0
 11
94.7509140522728
 21
83.63395871057196
 31
0.0
  0
ARC
  5
377
330
1A
100
AcDbEntity
  8
SEIHIN
100
AcDbCircle
 10
93.40561459227279
 20
86.63395871057195
 30
0.0
 40
1.0
100
AcDbArc
 50
180.0
 51
270.0
  0
ARC
  5
378
330
1A
100
AcDbEntity
  8
SEIHIN
100
AcDbCircle
 10
98.40561459227281
 20
86.63395871057195
 30
0.0
 40
1.0
100
AcDbArc
 50
270.0
 51
0.0
  0
LINE
  5
379
330
1A
100
AcDbEntity
  8
SEIHIN
100
AcDbLine
 10
95.90561459227279
 20
85.63395871057196
 30
0.0
 11
97.06031513227282
 21
83.63395871057196
 31
0.0
  0
LINE
  5
37A
330
1A
100
AcDbEntity
  8
SEIHIN
100
AcDbLine
 10
95.66236459227281
 20
91.63395871057195
 30
0.0
 11
96.1623645922728
 21
91.63395871057195
 31
0.0
  0
LINE
  5
37B
330
1A
100
AcDbEntity
  8
SEIHIN
100
AcDbLine
 10
93.40561459227279
 20
91.63395871057195
 30
0.0
 11
98.40561459227281
 21
91.63395871057195
 31
0.0
  0
LINE
  5
37C
330
1A
100
AcDbEntity
  8
SEIHIN
100
AcDbLine
 10
95.66236459227281
 20
91.63395871057195
 30
0.0
 11
96.1623645922728
 21
91.63395871057195
 31
0.0
  0
LINE
  5
37D
330
1A
100
AcDbEntity
  8
SEIHIN
100
AcDbLine
 10
96.1623645922728
 20
89.63395871057196
 30
0.0
 11
95.66236459227281
 21
89.63395871057196
 31
0.0
  0
ARC
  5
37E
330
1A
100
AcDbEntity
  8
SEIHIN
100
AcDbCircle
 10
93.40561459227279
 20
90.63395871057196
 30
0.0
 40
1.0
100
AcDbArc
 50
90.0
 51
180.0
  0
LINE
  5
37F
330
1A
100
AcDbEntity
  8
SEIHIN
100
AcDbLine
 10
95.66236459227281
 20
89.63395871057196
 30
0.0
 11
95.66236459227281
 21
91.63395871057195
 31
0.0
  0
ARC
  5
380
330
1A
100
AcDbEntity
  8
SEIHIN
100
AcDbCircle
 10
98.40561459227281
 20
90.63395871057196
 30
0.0
 40
1.0
100
AcDbArc
 50
0.0
 51
90.0
  0
LINE
  5
381
330
1A
100
AcDbEntity
  8
SEIHIN
100
AcDbLine
 10
96.1623645922728
 20
91.63395871057195
 30
0.0
 11
96.1623645922728
 21
89.63395871057196
 31
0.0
  0
ARC
  5
384
330
1A
100
AcDbEntity
  8
SEIHIN
100
AcDbCircle
 10
81.9056145922728
 20
99.94035506257198
 30
0.0
 40
1.0
100
AcDbArc
 50
90.0
 51
180.0
  0
ARC
  5
387
330
1A
100
AcDbEntity
  8
SEIHIN
100
AcDbCircle
 10
83.87052592227281
 20
99.94035506257198
 30
0.0
 40
1.000000000001389
100
AcDbArc
 50
359.9998648965517
 51
90.0
  0
LINE
  5
388
330
1A
100
AcDbEntity
  8
SEIHIN
100
AcDbLine
 10
83.87052592227281
 20
100.9403550625719
 30
0.0
 11
81.9056145922728
 21
100.9403550625719
 31
0.0
  0
LINE
  5
389
330
1A
100
AcDbEntity
  8
SEIHIN
100
AcDbLine
 10
85.50561459227282
 20
100.1339587105719
 30
0.0
 11
86.87052637227282
 21
100.1339587105719
 31
0.0
  0
CIRCLE
  5
38B
330
1A
100
AcDbEntity
  8
SEIHIN
100
AcDbCircle
 10
95.90561459227279
 20
104.9339587105719
 30
0.0
 40
3.500000004238516
  0
LINE
  5
38F
330
1A
100
AcDbEntity
  8
SEIHIN
100
AcDbLine
 10
105.9056145942728
 20
80.94035506057196
 30
0.0
 11
105.9056145942728
 21
102.2511789295719
 31
0.0
  0
LINE
  5
3DF
330
1A
100
AcDbEntity
  8
SEIHIN
100
AcDbLine
 10
85.43851756227281
 20
224.0674372077775
 30
0.0
 11
85.43851756227281
 21
220.5674372077774
 31
0.0
  0
LINE
  5
3E0
330
1A
100
AcDbEntity
  8
SEIHIN
100
AcDbLine
 10
86.43851756227281
 20
221.0674372077774
 30
0.0
 11
86.43851756227281
 21
224.0674372077775
 31
0.0
  0
LINE
  5
3E4
330
1A
100
AcDbEntity
  8
SEIHIN
100
AcDbLine
 10
86.9385175622728
 20
220.5674372077774
 30
0.0
 11
224.0832838622727
 21
220.5674372077774
 31
0.0
  0
LINE
  5
3E5
330
1A
100
AcDbEntity
  8
SEIHIN
100
AcDbLine
 10
86.9385175622728
 20
205.5674371677775
 30
0.0
 11
224.0832838622727
 21
205.5674371677775
 31
0.0
  0
LINE
  5
3E6
330
1A
100
AcDbEntity
  8
SEIHIN
100
AcDbLine
 10
86.43851756227281
 20
206.5674371677774
 30
0.0
 11
224.0832838622728
 21
206.5674371677775
 31
0.0
  0
LINE
  5
3E7
330
1A
100
AcDbEntity
  8
SEIHIN
100
AcDbLine
 10
86.43851756227281
 20
219.5674372077774
 30
0.0
 11
224.0832838622728
 21
219.5674372077774
 31
0.0
  0
LINE
  5
3E8
330
1A
100
AcDbEntity
  8
SEIHIN
100
AcDbLine
 10
116.3118976922727
 20
216.0674371677774
 30
0.0
 11
218.2869303549827
 21
216.0674371677774
 31
0.0
  0
LINE
  5
3E9
330
1A
100
AcDbEntity
  8
SEIHIN
100
AcDbLine
 10
116.3118976922727
 20
210.0674371677774
 30
0.0
 11
218.2876440991862
 21
210.0674371677774
 31
0.0
  0
LINE
  5
3EB
330
1A
100
AcDbEntity
  8
SEIHIN
100
AcDbLine
 10
86.72490100227282
 20
206.7953635277774
 30
0.0
 11
114.3118976922727
 21
206.7953635277774
 31
0.0
  0
LINE
  5
3EC
330
1A
100
AcDbEntity
  8
SEIHIN
100
AcDbLine
 10
89.5144205522728
 20
208.9129931577775
 30
0.0
 11
111.5731076772727
 21
208.9129931577775
 31
0.0
  0
LINE
  5
3ED
330
1A
100
AcDbEntity
  8
SEIHIN
100
AcDbLine
 10
86.72490100227282
 20
219.3395108077774
 30
0.0
 11
114.3118976922727
 21
219.3395108077774
 31
0.0
  0
LINE
  5
3EE
330
1A
100
AcDbEntity
  8
SEIHIN
100
AcDbLine
 10
89.5144205522728
 20
217.2218812077774
 30
0.0
 11
111.5731076772727
 21
217.2218812077774
 31
0.0
  0
LINE
  5
3EF
330
1A
100
AcDbEntity
  8
SEIHIN
100
AcDbLine
 10
105.9056145942728
 20
205.0674371677774
 30
0.0
 11
86.8707681022728
 21
205.0674831677774
 31
0.0
  0
LINE
  5
3F0
330
1A
100
AcDbEntity
  8
SEIHIN
100
AcDbLine
 10
86.8708067722728
 20
221.0674372077774
 30
0.0
 11
105.9056145942728
 21
221.0674372077774
 31
0.0
  0
LINE
  5
3F1
330
1A
100
AcDbEntity
  8
SEIHIN
100
AcDbLine
 10
86.72490100227282
 20
211.1428258277774
 30
0.0
 11
89.5144205522728
 21
211.1428258277774
 31
0.0
  0
LINE
  5
3F2
330
1A
100
AcDbEntity
  8
SEIHIN
100
AcDbLine
 10
86.72490100227282
 20
214.9920485077775
 30
0.0
 11
89.5144205522728
 21
214.9920485077775
 31
0.0
  0
LINE
  5
3F3
330
1A
100
AcDbEntity
  8
SEIHIN
100
AcDbLine
 10
89.5144205522728
 20
218.3395108077774
 30
0.0
 11
86.72490100227282
 21
218.3395108077774
 31
0.0
  0
LINE
  5
3F4
330
1A
100
AcDbEntity
  8
SEIHIN
100
AcDbLine
 10
89.5144205522728
 20
207.7953635277775
 30
0.0
 11
86.72490100227282
 21
207.7953635277775
 31
0.0
  0
ARC
  5
3F5
330
1A
100
AcDbEntity
  8
SEIHIN
100
AcDbCircle
 10
86.72490100227282
 20
213.0674371677774
 30
0.0
 40
3.000000000000011
100
AcDbArc
 50
90.00000515662017
 51
269.9999952253516
  0
LINE
  5
3F6
330
1A
100
AcDbEntity
  8
SEIHIN
100
AcDbLine
 10
86.72490100227282
 20
218.3395108077774
 30
0.0
 11
86.72490100227282
 21
207.7953635277775
 31
0.0
  0
ARC
  5
3F7
330
1A
100
AcDbEntity
  8
SEIHIN
100
AcDbCircle
 10
86.43851756227281
 20
205.5674371677775
 30
0.0
 40
1.0
100
AcDbArc
 50
90.0
 51
180.0
  0
LINE
  5
3F8
330
1A
100
AcDbEntity
  8
SEIHIN
100
AcDbLine
 10
84.8707635322728
 20
205.5674371677775
 30
0.0
 11
80.90561459227279
 21
205.5674371677775
 31
0.0
  0
LINE
  5
3F9
330
1A
100
AcDbEntity
  8
SEIHIN
100
AcDbLine
 10
80.90561459227279
 20
205.0674371677774
 30
0.0
 11
84.87052191227281
 21
205.0674371677774
 31
0.0
  0
LINE
  5
3FA
330
1A
100
AcDbEntity
  8
SEIHIN
100
AcDbLine
 10
80.90561459227279
 20
205.0674371677774
 30
0.0
 11
80.90561459227279
 21
205.5674371677775
 31
0.0
  0
ARC
  5
3FB
330
1A
100
AcDbEntity
  8
SEIHIN
100
AcDbCircle
 10
86.9385175622728
 20
205.0674371677774
 30
0.0
 40
0.5
100
AcDbArc
 50
90.0
 51
180.0
  0
LINE
  5
3FC
330
1A
100
AcDbEntity
  8
SEIHIN
100
AcDbLine
 10
86.43851756227281
 20
205.0674371677774
 30
0.0
 11
86.43851756227281
 21
202.0674371677774
 31
0.0
  0
LINE
  5
3FD
330
1A
100
AcDbEntity
  8
SEIHIN
100
AcDbLine
 10
85.43851756227281
 20
202.0674371677774
 30
0.0
 11
85.43851756227281
 21
205.5674371677775
 31
0.0
  0
LINE
  5
3FE
330
1A
100
AcDbEntity
  8
SEIHIN
100
AcDbLine
 10
86.43851756227281
 20
202.0674371677774
 30
0.0
 11
85.43851756227281
 21
202.0674371677774
 31
0.0
  0
LINE
  5
3FF
330
1A
100
AcDbEntity
  8
SEIHIN
100
AcDbLine
 10
86.8707681022728
 20
205.0674831677774
 30
0.0
 11
86.87076931227279
 21
205.5674371677775
 31
0.0
  0
LINE
  5
400
330
1A
100
AcDbEntity
  8
SEIHIN
100
AcDbLine
 10
84.87076235227281
 20
205.0674371677774
 30
0.0
 11
84.8707635322728
 21
205.5674371677775
 31
0.0
  0
LINE
  5
401
330
1A
100
AcDbEntity
  8
SEIHIN
100
AcDbLine
 10
86.72490100227282
 20
207.7953635277775
 30
0.0
 11
86.72490100227282
 21
206.7953635277774
 31
0.0
  0
LINE
  5
402
330
1A
100
AcDbEntity
  8
SEIHIN
100
AcDbLine
 10
84.87079890227281
 20
220.5674372077774
 30
0.0
 11
80.90561459227279
 21
220.5674372077774
 31
0.0
  0
LINE
  5
403
330
1A
100
AcDbEntity
  8
SEIHIN
100
AcDbLine
 10
80.90561459227279
 20
221.0674372077774
 30
0.0
 11
84.87052191227281
 21
221.0674372077774
 31
0.0
  0
LINE
  5
404
330
1A
100
AcDbEntity
  8
SEIHIN
100
AcDbLine
 10
80.90561459227279
 20
220.5674372077774
 30
0.0
 11
80.90561459227279
 21
221.0674372077774
 31
0.0
  0
ARC
  5
405
330
1A
100
AcDbEntity
  8
SEIHIN
100
AcDbCircle
 10
86.43851756227281
 20
220.5674372077774
 30
0.0
 40
1.0
100
AcDbArc
 50
180.0
 51
270.0
  0
LINE
  5
406
330
1A
100
AcDbEntity
  8
SEIHIN
100
AcDbLine
 10
86.87080556227281
 20
220.5674372077774
 30
0.0
 11
86.8708067722728
 21
221.0674372077774
 31
0.0
  0
LINE
  5
407
330
1A
100
AcDbEntity
  8
SEIHIN
100
AcDbLine
 10
84.87079890227281
 20
220.5674372077774
 30
0.0
 11
84.8708000822728
 21
221.0674372077774
 31
0.0
  0
LINE
  5
408
330
1A
100
AcDbEntity
  8
SEIHIN
100
AcDbLine
 10
86.72490100227282
 20
218.3395108077774
 30
0.0
 11
86.72490100227282
 21
219.3395108077774
 31
0.0
  0
ARC
  5
409
330
1A
100
AcDbEntity
  8
SEIHIN
100
AcDbCircle
 10
86.9385175622728
 20
221.0674372077774
 30
0.0
 40
0.5
100
AcDbArc
 50
180.0
 51
270.0
  0
LINE
  5
40A
330
1A
100
AcDbEntity
  8
SEIHIN
100
AcDbLine
 10
89.5144205522728
 20
206.7953635277774
 30
0.0
 11
89.5144205522728
 21
219.3395108077774
 31
0.0
  0
ARC
  5
40B
330
1A
100
AcDbEntity
  8
SEIHIN
100
AcDbCircle
 10
95.90585572227281
 20
209.5857666677774
 30
0.0
 40
5.715337531631893
100
AcDbArc
 50
232.2375418744897
 51
307.7621812247566
  0
LINE
  5
40C
330
1A
100
AcDbEntity
  8
SEIHIN
100
AcDbLine
 10
89.5144205522728
 20
206.7953635277774
 30
0.0
 11
89.5144205522728
 21
207.9953635277774
 31
0.0
  0
LINE
  5
40D
330
1A
100
AcDbEntity
  8
SEIHIN
100
AcDbLine
 10
92.40584480227282
 20
221.0674372077774
 30
0.0
 11
99.40584480227281
 21
221.0674372077774
 31
0.0
  0
LINE
  5
40E
330
1A
100
AcDbEntity
  8
SEIHIN
100
AcDbLine
 10
99.40584480227281
 20
222.1318756077774
 30
0.0
 11
92.40584480227282
 21
222.1318756077774
 31
0.0
  0
LINE
  5
40F
330
1A
100
AcDbEntity
  8
SEIHIN
100
AcDbLine
 10
89.5144205522728
 20
219.3395108077774
 30
0.0
 11
89.5144205522728
 21
218.1395108077774
 31
0.0
  0
LINE
  5
410
330
1A
100
AcDbEntity
  8
SEIHIN
100
AcDbLine
 10
92.40584480227282
 20
222.1318756077774
 30
0.0
 11
92.40584480227282
 21
221.0674372077774
 31
0.0
  0
LINE
  5
411
330
1A
100
AcDbEntity
  8
SEIHIN
100
AcDbLine
 10
99.40584480227281
 20
221.0674372077774
 30
0.0
 11
99.40584480227281
 21
222.1318756077774
 31
0.0
  0
LINE
  5
412
330
1A
100
AcDbEntity
  8
SEIHIN
100
AcDbLine
 10
109.8499573167728
 20
209.9129931577774
 30
0.0
 11
109.8499573167728
 21
216.2218811777774
 31
0.0
  0
LINE
  5
413
330
1A
100
AcDbEntity
  8
SEIHIN
100
AcDbLine
 10
105.0080370812727
 20
209.9129931577774
 30
0.0
 11
105.0080370812727
 21
216.2218811777774
 31
0.0
  0
LINE
  5
414
330
1A
100
AcDbEntity
  8
SEIHIN
100
AcDbLine
 10
113.5731076772727
 20
215.2218811777775
 30
0.0
 11
113.5731076772727
 21
210.9129931577775
 31
0.0
  0
LINE
  5
415
330
1A
100
AcDbEntity
  8
SEIHIN
100
AcDbLine
 10
116.3118976922727
 20
208.7953635277774
 30
0.0
 11
116.3118976922727
 21
217.3395108077774
 31
0.0
  0
LINE
  5
416
330
1A
100
AcDbEntity
  8
SEIHIN
100
AcDbLine
 10
115.1643319852728
 20
208.7953635277774
 30
0.0
 11
115.1643319852728
 21
217.3395108077774
 31
0.0
  0
LINE
  5
417
330
1A
100
AcDbEntity
  8
SEIHIN
100
AcDbLine
 10
105.9056145942728
 20
205.0674371677774
 30
0.0
 11
105.9056145942728
 21
205.5674371677775
 31
0.0
  0
ARC
  5
418
330
1A
100
AcDbEntity
  8
SEIHIN
100
AcDbCircle
 10
113.1643319852728
 20
208.7953635277774
 30
0.0
 40
2.0
100
AcDbArc
 50
270.0
 51
0.0
  0
ARC
  5
419
330
1A
100
AcDbEntity
  8
SEIHIN
100
AcDbCircle
 10
114.3118976922727
 20
208.7953635277774
 30
0.0
 40
2.0
100
AcDbArc
 50
270.0
 51
0.0
  0
ARC
  5
41A
330
1A
100
AcDbEntity
  8
SEIHIN
100
AcDbCircle
 10
114.3118976922727
 20
208.7953635277774
 30
0.0
 40
2.0
100
AcDbArc
 50
270.0
 51
0.0
  0
ARC
  5
41B
330
1A
100
AcDbEntity
  8
SEIHIN
100
AcDbCircle
 10
111.5731076772727
 20
210.9129931577775
 30
0.0
 40
2.0
100
AcDbArc
 50
270.0
 51
0.0
  0
LINE
  5
41C
330
1A
100
AcDbEntity
  8
SEIHIN
100
AcDbLine
 10
105.9056145942728
 20
220.5674372077774
 30
0.0
 11
105.9056145942728
 21
221.0674372077774
 31
0.0
  0
ARC
  5
41D
330
1A
100
AcDbEntity
  8
SEIHIN
100
AcDbCircle
 10
113.1643319852728
 20
217.3395108077774
 30
0.0
 40
2.0
100
AcDbArc
 50
0.0
 51
90.0
  0
ARC
  5
41E
330
1A
100
AcDbEntity
  8
SEIHIN
100
AcDbCircle
 10
114.3118976922727
 20
217.3395108077774
 30
0.0
 40
2.0
100
AcDbArc
 50
0.0
 51
90.0
  0
ARC
  5
41F
330
1A
100
AcDbEntity
  8
SEIHIN
100
AcDbCircle
 10
114.3118976922727
 20
217.3395108077774
 30
0.0
 40
2.0
100
AcDbArc
 50
0.0
 51
90.0
  0
ARC
  5
420
330
1A
100
AcDbEntity
  8
SEIHIN
100
AcDbCircle
 10
111.5731076772727
 20
215.2218811777775
 30
0.0
 40
2.000000014999997
100
AcDbArc
 50
0.0
 51
90.0
  0
LINE
  5
43E
330
1A
100
AcDbEntity
  8
SEIHIN
100
AcDbLine
 10
86.43851756227281
 20
224.0674372077775
 30
0.0
 11
85.43851756227281
 21
224.0674372077775
 31
0.0
  0
LINE
  5
6FB
330
1A
100
AcDbEntity
  8
CENTER_L
100
AcDbLine
 10
45.40214807227278
 20
213.0674371877775
 30
0.0
 11
233.1109509122728
 21
213.0674371877775
 31
0.0
  0
LINE
  5
BDA
330
1A
100
AcDbEntity
  8
SEIHIN
100
AcDbLine
 10
75.37056570227282
 20
83.13395871057196
 30
0.0
 11
80.90561459227279
 21
83.13395871057196
 31
0.0
  0
LINE
  5
BDB
330
1A
100
AcDbEntity
  8
SEIHIN
100
AcDbLine
 10
80.90561459227279
 20
91.63395871057195
 30
0.0
 11
76.01329117227277
 21
91.63395871057195
 31
0.0
  0
LINE
  5
BDC
330
1A
100
AcDbEntity
  8
SEIHIN
100
AcDbLine
 10
75.0226275022728
 20
85.63395871057196
 30
0.0
 11
80.90561459227279
 21
85.63395871057196
 31
0.0
  0
LINE
  5
BDD
330
1A
100
AcDbEntity
  8
SEIHIN
100
AcDbLine
 10
76.01329117227277
 20
94.13395871057195
 30
0.0
 11
80.90561459227279
 21
94.13395871057195
 31
0.0
  0
LINE
  5
BDF
330
1A
100
AcDbEntity
  8
SEIHIN
100
AcDbLine
 10
64.0054781322728
 20
92.33395871057195
 30
0.0
 11
73.00086784227278
 21
84.05820017057198
 31
0.0
  0
ARC
  5
BE0
330
1A
100
AcDbEntity
  8
SEIHIN
100
AcDbCircle
 10
75.0226275022728
 20
86.63395871057195
 30
0.0
 40
1.000000002404392
100
AcDbArc
 50
226.2544208983734
 51
270.0
  0
LINE
  5
BE1
330
1A
100
AcDbEntity
  8
SEIHIN
100
AcDbLine
 10
76.84762848227279
 20
91.63395871057195
 30
0.0
 11
76.84762848227279
 21
85.63395871057196
 31
0.0
  0
ARC
  5
BE2
330
1A
100
AcDbEntity
  8
SEIHIN
100
AcDbCircle
 10
75.37056570227282
 20
86.63395871057195
 30
0.0
 40
3.50000000029082
100
AcDbArc
 50
227.385943991837
 51
270.0
  0
LINE
  5
BE4
330
1A
100
AcDbEntity
  8
SEIHIN
100
AcDbLine
 10
59.00551459227279
 20
92.33395871057195
 30
0.0
 11
64.0054781322728
 21
92.33395871057195
 31
0.0
  0
ARC
  5
BE5
330
1A
100
AcDbEntity
  8
SEIHIN
100
AcDbCircle
 10
60.7056828722728
 20
100.3837623605719
 30
0.0
 40
4.249794616209057
100
AcDbArc
 50
248.0382779466742
 51
298.0729204221733
  0
LINE
  5
BE6
330
1A
100
AcDbEntity
  8
SEIHIN
100
AcDbLine
 10
59.00551459227279
 20
92.33395871057195
 30
0.0
 11
64.0054781322728
 21
92.33395871057195
 31
0.0
  0
LINE
  5
BE7
330
1A
100
AcDbEntity
  8
SEIHIN
100
AcDbLine
 10
59.00551459227279
 20
92.33395871057195
 30
0.0
 11
64.0054781322728
 21
92.33395871057195
 31
0.0
  0
ELLIPSE
  5
BE8
330
1A
100
AcDbEntity
  8
SEIHIN
100
AcDbEllipse
 10
59.3033262222728
 20
96.90603491057197
 30
0.0
 11
-0.480711628724846
 21
0.1374237974682779
 31
0.0
210
0.0
220
0.0
230
1.0
 40
1.0
 41
0.0000000000000004
 42
1.465876859819378
  0
ARC
  5
BE9
330
1A
100
AcDbEntity
  8
SEIHIN
100
AcDbCircle
 10
59.50428144227283
 20
96.72631574057199
 30
0.0
 40
3.499985617108208
100
AcDbArc
 50
103.1906191421164
 51
181.5120868822297
  0
ARC
  5
BEA
330
1A
100
AcDbEntity
  8
SEIHIN
100
AcDbCircle
 10
59.00551459227279
 20
95.33395871057194
 30
0.0
 40
3.0
100
AcDbArc
 50
180.0
 51
270.0
  0
LINE
  5
BEB
330
1A
100
AcDbEntity
  8
SEIHIN
100
AcDbLine
 10
56.00551459227279
 20
96.63395871057197
 30
0.0
 11
56.00551459227279
 21
95.33395871057194
 31
0.0
  0
LINE
  5
BED
330
1A
100
AcDbEntity
  8
SEIHIN
100
AcDbLine
 10
58.70551459227278
 20
100.1339587105719
 30
0.0
 11
59.04276388227277
 21
100.1339587105719
 31
0.0
  0
LINE
  5
BEE
330
1A
100
AcDbEntity
  8
SEIHIN
100
AcDbLine
 10
59.5235199422728
 20
99.49657744057198
 30
0.0
 11
58.8225145922728
 21
97.04345871057194
 31
0.0
  0
ELLIPSE
  5
BEF
330
1A
100
AcDbEntity
  8
SEIHIN
100
AcDbEllipse
 10
59.0427324622728
 20
99.63393501057197
 30
0.0
 11
0.4807821249180666
 21
-0.1373763011067326
 31
0.0
210
0.0
220
0.0
230
1.0
 40
1.0
 41
0.0
 42
1.849150924921633
  0
LINE
  5
BF0
330
1A
100
AcDbEntity
  8
SEIHIN
100
AcDbLine
 10
62.7056145922728
 20
96.63395871057197
 30
0.0
 11
71.9390406422728
 21
96.63395871057197
 31
0.0
  0
LINE
  5
BF1
330
1A
100
AcDbEntity
  8
SEIHIN
100
AcDbLine
 10
74.33117018227278
 20
85.91154139057199
 30
0.0
 11
67.5401145922728
 21
92.41155871057197
 31
0.0
  0
LINE
  5
BF2
330
1A
100
AcDbEntity
  8
SEIHIN
100
AcDbLine
 10
71.28825905227279
 20
94.13395871057195
 30
0.0
 11
68.23161459227282
 21
94.13395871057195
 31
0.0
  0
LINE
  5
BF3
330
1A
100
AcDbEntity
  8
SEIHIN
100
AcDbLine
 10
62.7056145922728
 20
96.63395871057197
 30
0.0
 11
62.7056145922728
 21
92.33395871057195
 31
0.0
  0
ARC
  5
BF4
330
1A
100
AcDbEntity
  8
SEIHIN
100
AcDbCircle
 10
68.23161118227279
 20
93.13395021057198
 30
0.0
 40
1.000008503298284
100
AcDbArc
 50
89.99980462305257
 51
226.251772552069
  0
ARC
  5
BF5
330
1A
100
AcDbEntity
  8
SEIHIN
100
AcDbCircle
 10
76.01329117227277
 20
96.13395871057196
 30
0.0
 40
4.499999998880124
100
AcDbArc
 50
223.0923541928525
 51
270.0
  0
ARC
  5
BF6
330
1A
100
AcDbEntity
  8
SEIHIN
100
AcDbCircle
 10
71.9390406422728
 20
94.63395871057196
 30
0.0
 40
1.999999999554587
100
AcDbArc
 50
43.09235410287214
 51
90.0
  0
LINE
  5
BF7
330
1A
100
AcDbEntity
  8
SEIHIN
100
AcDbLine
 10
72.7271506522728
 20
93.05966522057195
 30
0.0
 11
72.01851250227282
 21
93.817135040572
 31
0.0
  0
ARC
  5
BF8
330
1A
100
AcDbEntity
  8
SEIHIN
100
AcDbCircle
 10
71.28825905227279
 20
93.13395871057196
 30
0.0
 40
0.9999999997772931
100
AcDbArc
 50
43.09235410287214
 51
90.0
  0
ARC
  5
BF9
330
1A
100
AcDbEntity
  8
SEIHIN
100
AcDbCircle
 10
76.01329117227277
 20
96.13395871057196
 30
0.0
 40
1.999999999554585
100
AcDbArc
 50
223.0923541028721
 51
270.0
  0
LINE
  5
BFA
330
1A
100
AcDbEntity
  8
SEIHIN
100
AcDbLine
 10
74.55278427227279
 20
94.76760605057199
 30
0.0
 11
73.39954754227278
 21
96.00031137057198
 31
0.0
  0
LINE
  5
BFB
330
1A
100
AcDbEntity
  8
SEIHIN
100
AcDbLine
 10
145.9043691722728
 20
91.63395871057195
 30
0.0
 11
105.9056145922727
 21
91.63395871057195
 31
0.0
  0
LINE
  5
BFC
330
1A
100
AcDbEntity
  8
SEIHIN
100
AcDbLine
 10
105.9056145922727
 20
85.63395871057196
 30
0.0
 11
139.5985579722727
 21
85.63395871057196
 31
0.0
  0
LINE
  5
BFD
330
1A
100
AcDbEntity
  8
SEIHIN
100
AcDbLine
 10
105.9056145922727
 20
83.13395871057196
 30
0.0
 11
138.9578613322727
 21
83.13395871057196
 31
0.0
  0
LINE
  5
BFE
330
1A
100
AcDbEntity
  8
SEIHIN
100
AcDbLine
 10
105.9056145922727
 20
94.13395871057195
 30
0.0
 11
137.9623588322727
 21
94.13395871057195
 31
0.0
  0
LINE
  5
C00
330
1A
100
AcDbEntity
  8
SEIHIN
100
AcDbLine
 10
135.5054781322728
 20
91.63395871057195
 30
0.0
 11
135.5054781322728
 21
85.63395871057196
 31
0.0
  0
LINE
  5
C12
330
1A
100
AcDbEntity
  8
SEIHIN
100
AcDbLine
 10
111.0849145912727
 20
94.13395871057195
 30
0.0
 11
105.9056145922727
 21
94.13395871057195
 31
0.0
  0
LINE
  5
C49
330
1A
100
AcDbEntity
  8
SEIHIN
100
AcDbLine
 10
160.5054781322728
 20
88.88395871057197
 30
0.0
 11
160.5054781322728
 21
84.02511069057197
 31
0.0
  0
ARC
  5
C4A
330
1A
100
AcDbEntity
  8
SEIHIN
100
AcDbCircle
 10
139.5985579722727
 20
86.13395871057196
 30
0.0
 40
0.4999999962089669
100
AcDbArc
 50
270.0
 51
350.6360096398327
  0
LINE
  5
C4B
330
1A
100
AcDbEntity
  8
SEIHIN
100
AcDbLine
 10
167.6395891922728
 20
88.63394466057195
 30
0.0
 11
172.4745256822728
 21
80.25958901057197
 31
0.0
  0
ARC
  5
C4C
330
1A
100
AcDbEntity
  8
SEIHIN
100
AcDbCircle
 10
138.2395143222727
 20
101.6339587105719
 30
0.0
 40
15.99999999650688
100
AcDbArc
 50
288.1859804982271
 51
330.2479051608476
  0
LINE
  5
C4D
330
1A
100
AcDbEntity
  8
SEIHIN
100
AcDbLine
 10
162.0054781322727
 20
82.27635038057195
 30
0.0
 11
162.0054781322727
 21
88.88395871057197
 31
0.0
  0
ARC
  5
C4E
330
1A
100
AcDbEntity
  8
SEIHIN
100
AcDbCircle
 10
143.5452564322728
 20
85.48313518057199
 30
0.0
 40
1.00000000571721
100
AcDbArc
 50
108.1859940097359
 51
255.3791176229967
  0
LINE
  5
C4F
330
1A
100
AcDbEntity
  8
SEIHIN
100
AcDbLine
 10
179.0056145922728
 20
114.6561014715719
 30
0.0
 11
179.0056145922728
 21
82.00958901057196
 31
0.0
  0
LINE
  5
C50
330
1A
100
AcDbEntity
  8
SEIHIN
100
AcDbLine
 10
138.9578613322727
 20
83.13395871057196
 30
0.0
 11
158.4305896622727
 21
79.33194836057197
 31
0.0
  0
LINE
  5
C51
330
1A
100
AcDbEntity
  8
SEIHIN
100
AcDbLine
 10
157.0660269222727
 20
80.92251120057198
 30
0.0
 11
143.2928343922728
 21
84.51551794057195
 31
0.0
  0
ARC
  5
C52
330
1A
100
AcDbEntity
  8
SEIHIN
100
AcDbCircle
 10
138.9578613322727
 20
82.13395871057196
 30
0.0
 40
0.9999999985731333
100
AcDbArc
 50
78.80393204908905
 51
90.0
  0
ARC
  5
C53
330
1A
100
AcDbEntity
  8
SEIHIN
100
AcDbCircle
 10
159.6883715822728
 20
81.54530356057199
 30
0.0
 40
1.999999999179419
100
AcDbArc
 50
82.71282276529213
 51
183.1869153879589
  0
ARC
  5
C54
330
1A
100
AcDbEntity
  8
SEIHIN
100
AcDbCircle
 10
159.0054781322727
 20
82.27635038057195
 30
0.0
 40
3.00000000069325
100
AcDbArc
 50
258.9521053411593
 51
0.0
  0
ARC
  5
C55
330
1A
100
AcDbEntity
  8
SEIHIN
100
AcDbCircle
 10
157.1922378722728
 20
81.40631983057199
 30
0.0
 40
0.4999999958019847
100
AcDbArc
 50
255.3791256739049
 51
3.186915975958103
  0
ARC
  5
C56
330
1A
100
AcDbEntity
  8
SEIHIN
100
AcDbCircle
 10
160.0054781322727
 20
84.02511069057197
 30
0.0
 40
0.4999999963452644
100
AcDbArc
 50
262.7128226562795
 51
0.0
  0
ARC
  5
C57
330
1A
100
AcDbEntity
  8
SEIHIN
100
AcDbCircle
 10
175.5056145922728
 20
82.00958901057196
 30
0.0
 40
3.499999998594639
100
AcDbArc
 50
210.0000000265656
 51
0.0
  0
LINE
  5
C58
330
1A
100
AcDbEntity
  8
SEIHIN
100
AcDbLine
 10
174.0057648922728
 20
119.6561014695719
 30
0.0
 11
167.0573839822728
 21
119.6563103425719
 31
0.0
  0
LINE
  5
C59
330
1A
100
AcDbEntity
  8
SEIHIN
100
AcDbLine
 10
174.0056897422728
 20
117.1561014705719
 30
0.0
 11
167.0573088322727
 21
117.1563103445719
 31
0.0
  0
LINE
  5
C5A
330
1A
100
AcDbEntity
  8
SEIHIN
100
AcDbLine
 10
168.0057949522728
 20
109.6562818285719
 30
0.0
 11
167.0570833722728
 21
109.6563103475719
 31
0.0
  0
LINE
  5
C5B
330
1A
100
AcDbEntity
  8
SEIHIN
100
AcDbLine
 10
168.0058701122728
 20
112.1562818274719
 30
0.0
 11
167.0571585222728
 21
112.1563103463719
 31
0.0
  0
LINE
  5
C5C
330
1A
100
AcDbEntity
  8
SEIHIN
100
AcDbLine
 10
151.8636210122727
 20
108.3406546575719
 30
0.0
 11
144.5983851222728
 21
95.63020696057197
 31
0.0
  0
LINE
  5
C5D
330
1A
100
AcDbEntity
  8
SEIHIN
100
AcDbLine
 10
149.6931693322728
 20
109.5812752725719
 30
0.0
 11
142.3032626722728
 21
96.652717480572
 31
0.0
  0
ARC
  5
C5E
330
1A
100
AcDbEntity
  8
SEIHIN
100
AcDbCircle
 10
167.0567827622727
 20
99.65631035057198
 30
0.0
 40
9.999999999145625
100
AcDbArc
 50
89.9982776315724
 51
150.2479051562262
  0
ARC
  5
C5F
330
1A
100
AcDbEntity
  8
SEIHIN
100
AcDbCircle
 10
167.0567827622727
 20
99.65631035057198
 30
0.0
 40
12.49999999966815
100
AcDbArc
 50
89.99827764303095
 51
150.2479051639018
  0
LINE
  5
C60
330
1A
100
AcDbEntity
  8
SEIHIN
100
AcDbLine
 10
156.2045243722727
 20
105.8594134275719
 30
0.0
 11
149.7902484122727
 21
94.63771046057194
 31
0.0
  0
ARC
  5
C61
330
1A
100
AcDbEntity
  8
SEIHIN
100
AcDbCircle
 10
138.2395143222727
 20
101.6339587105719
 30
0.0
 40
13.49999999718524
100
AcDbArc
 50
288.1859799493473
 51
306.1289274530567
  0
ARC
  5
C62
330
1A
100
AcDbEntity
  8
SEIHIN
100
AcDbCircle
 10
145.4665657922727
 20
95.13395871057197
 30
0.0
 40
1.000000000347428
100
AcDbArc
 50
150.247904938769
 51
270.0
  0
ARC
  5
C63
330
1A
100
AcDbEntity
  8
SEIHIN
100
AcDbCircle
 10
143.5452564322728
 20
85.48313518057199
 30
0.0
 40
3.500000003201731
100
AcDbArc
 50
108.1859864757694
 51
170.6360096381228
  0
ARC
  5
C64
330
1A
100
AcDbEntity
  8
SEIHIN
100
AcDbCircle
 10
137.9623593122727
 20
99.13395871057197
 30
0.0
 40
5.000000001115571
100
AcDbArc
 50
269.9999944996055
 51
330.2479051946069
  0
ARC
  5
C65
330
1A
100
AcDbEntity
  8
SEIHIN
100
AcDbCircle
 10
145.9043691722728
 20
91.13395871057196
 30
0.0
 40
0.499999998465137
100
AcDbArc
 50
306.1289277375728
 51
90.0
  0
LINE
  5
C66
330
1A
100
AcDbEntity
  8
SEIHIN
100
AcDbLine
 10
145.4665657922727
 20
94.13395871057195
 30
0.0
 11
148.9220677422728
 21
94.13395871057195
 31
0.0
  0
ARC
  5
C67
330
1A
100
AcDbEntity
  8
SEIHIN
100
AcDbCircle
 10
148.9220677422728
 20
95.13395871057197
 30
0.0
 40
1.000000000347427
100
AcDbArc
 50
270.0
 51
330.2479049387692
  0
LINE
  5
C68
330
1A
100
AcDbEntity
  8
SEIHIN
100
AcDbLine
 10
158.3749760522728
 20
104.618792812572
 30
0.0
 11
152.1304050622728
 21
93.69398677057199
 31
0.0
  0
ARC
  5
C69
330
1A
100
AcDbEntity
  8
SEIHIN
100
AcDbCircle
 10
161.2554781322728
 20
88.88395871057197
 30
0.0
 40
0.75
100
AcDbArc
 50
0.0
 51
90.0
  0
ARC
  5
C6A
330
1A
100
AcDbEntity
  8
SEIHIN
100
AcDbCircle
 10
161.2554781322728
 20
88.88395871057197
 30
0.0
 40
0.75
100
AcDbArc
 50
90.0
 51
180.0
  0
ARC
  5
C6B
330
1A
100
AcDbEntity
  8
SEIHIN
100
AcDbCircle
 10
167.0567827622727
 20
99.65631035057198
 30
0.0
 40
17.50000000101337
100
AcDbArc
 50
89.99827762338702
 51
150.2479051726757
  0
ARC
  5
C6C
330
1A
100
AcDbEntity
  8
SEIHIN
100
AcDbCircle
 10
167.0567827622727
 20
99.65631035057198
 30
0.0
 40
20.0000000011359
100
AcDbArc
 50
89.99827763157158
 51
150.2479051754179
  0
ARC
  5
C6D
330
1A
100
AcDbEntity
  8
SEIHIN
100
AcDbCircle
 10
168.0056145922728
 20
103.6562818315719
 30
0.0
 40
5.999999999855404
100
AcDbArc
 50
0.0
 51
89.99827768886756
  0
LINE
  5
C72
330
1A
100
AcDbEntity
  8
SEIHIN
100
AcDbLine
 10
174.0056145922728
 20
103.6562818315719
 30
0.0
 11
174.0056145922728
 21
89.87658535057198
 31
0.0
  0
ARC
  5
C73
330
1A
100
AcDbEntity
  8
SEIHIN
100
AcDbCircle
 10
172.0056145922728
 20
89.87658535057198
 30
0.0
 40
1.999999998321968
100
AcDbArc
 50
225.0
 51
0.0
  0
LINE
  5
C74
330
1A
100
AcDbEntity
  8
SEIHIN
100
AcDbLine
 10
169.2127213722728
 20
89.84105144057195
 30
0.0
 11
170.5914010322728
 21
88.46237179057197
 31
0.0
  0
ARC
  5
C75
330
1A
100
AcDbEntity
  8
SEIHIN
100
AcDbCircle
 10
168.5056145922728
 20
89.13394466057196
 30
0.0
 40
0.9999999975222747
100
AcDbArc
 50
45.0
 51
210.0000001084147
  0
ARC
  5
C77
330
1A
100
AcDbEntity
  8
SEIHIN
100
AcDbCircle
 10
174.0056145922728
 20
114.6561014715719
 30
0.0
 40
5.000000000129504
100
AcDbArc
 50
0.0
 51
89.99827768886756
  0
ARC
  5
C78
330
1A
100
AcDbEntity
  8
SEIHIN
100
AcDbCircle
 10
174.0056145922728
 20
114.6561014715719
 30
0.0
 40
2.500000000064752
100
AcDbArc
 50
0.0
 51
89.99827768886756
  0
ARC
  5
C79
330
1A
100
AcDbEntity
  8
SEIHIN
100
AcDbCircle
 10
168.0056145922728
 20
103.6562818315719
 30
0.0
 40
8.500000001574836
100
AcDbArc
 50
37.86364634504803
 51
89.99827762146058
  0
LINE
  5
C7A
330
1A
100
AcDbEntity
  8
SEIHIN
100
AcDbLine
 10
176.5056145922728
 20
114.6561014715719
 30
0.0
 11
176.5056145922728
 21
109.4872337265719
 31
0.0
  0
ARC
  5
C7B
330
1A
100
AcDbEntity
  8
SEIHIN
100
AcDbCircle
 10
175.5056145922728
 20
109.4872337265719
 30
0.0
 40
0.9999999983429477
100
AcDbArc
 50
217.863646510539
 51
0.0
  0
LINE
  5
C7C
330
1A
100
AcDbEntity
  8
SEIHIN
100
AcDbLine
 10
85.43851756227281
 20
205.5674371677774
 30
0.0
 11
64.00551459227279
 21
205.5674371677774
 31
0.0
  0
LINE
  5
C7D
330
1A
100
AcDbEntity
  8
SEIHIN
100
AcDbLine
 10
85.43851756227281
 20
220.5674372077774
 30
0.0
 11
64.00551459227279
 21
220.5674372077774
 31
0.0
  0
LINE
  5
C7F
330
1A
100
AcDbEntity
  8
SEIHIN
100
AcDbLine
 10
59.00551459227279
 20
202.0674371677774
 30
0.0
 11
59.00551459227279
 21
224.0674372077775
 31
0.0
  0
LINE
  5
C80
330
1A
100
AcDbEntity
  8
SEIHIN
100
AcDbLine
 10
62.00551459227279
 20
222.5674372077774
 30
0.0
 11
62.00551459227279
 21
224.0674372077775
 31
0.0
  0
LINE
  5
C81
330
1A
100
AcDbEntity
  8
SEIHIN
100
AcDbLine
 10
56.00551459227279
 20
202.0674371677774
 30
0.0
 11
56.00551459227279
 21
224.0674372077775
 31
0.0
  0
ARC
  5
C83
330
1A
100
AcDbEntity
  8
SEIHIN
100
AcDbCircle
 10
64.00551459227279
 20
203.5674371677774
 30
0.0
 40
2.0
100
AcDbArc
 50
90.0
 51
180.0
  0
LINE
  5
C84
330
1A
100
AcDbEntity
  8
SEIHIN
100
AcDbLine
 10
56.00551459227279
 20
202.0674371677774
 30
0.0
 11
62.00551459227279
 21
202.0674371677774
 31
0.0
  0
ARC
  5
C85
330
1A
100
AcDbEntity
  8
SEIHIN
100
AcDbCircle
 10
64.00551459227279
 20
222.5674372077774
 30
0.0
 40
2.0
100
AcDbArc
 50
180.0
 51
270.0
  0
LINE
  5
C87
330
1A
100
AcDbEntity
  8
SEIHIN
100
AcDbLine
 10
76.0132911722728
 20
219.5853663077774
 30
0.0
 11
76.0132911722728
 21
207.0959810777774
 31
0.0
  0
LINE
  5
C88
330
1A
100
AcDbEntity
  8
SEIHIN
100
AcDbLine
 10
72.67146226227282
 20
219.2454773077774
 30
0.0
 11
72.67146226227282
 21
206.7560920377774
 31
0.0
  0
LINE
  5
C89
330
1A
100
AcDbEntity
  8
SEIHIN
100
AcDbLine
 10
62.00551459227279
 20
203.5674371677774
 30
0.0
 11
62.00551459227279
 21
202.0674371677774
 31
0.0
  0
LINE
  5
C8A
330
1A
100
AcDbEntity
  8
SEIHIN
100
AcDbLine
 10
56.00551459227279
 20
224.0674372077775
 30
0.0
 11
62.00551459227279
 21
224.0674372077775
 31
0.0
  0
LINE
  5
F65
330
1A
100
AcDbEntity
  8
NOKITOI
  6
PHANTOM
 62
     8
100
AcDbLine
 10
173.8437145871908
 20
104.3270587094651
 30
0.0
 11
173.4536145871907
 21
91.84265870946513
 31
0.0
  0
LINE
  5
F66
330
1A
100
AcDbEntity
  8
NOKITOI
  6
PHANTOM
 62
     8
100
AcDbLine
 10
172.6443145871904
 20
104.364558709465
 30
0.0
 11
172.4950145871908
 21
99.58555870946533
 31
0.0
  0
LINE
  5
F67
330
1A
100
AcDbEntity
  8
NOKITOI
  6
PHANTOM
 62
     8
100
AcDbLine
 10
167.9312145871909
 20
101.5895587094652
 30
0.0
 11
166.9354145871907
 21
102.6895587094653
 31
0.0
  0
LINE
  5
F68
330
1A
100
AcDbEntity
  8
NOKITOI
  6
PHANTOM
 62
     8
100
AcDbLine
 10
165.3833145871909
 20
97.36325870946519
 30
0.0
 11
165.0675145871906
 21
103.3632587094651
 31
0.0
  0
ARC
  5
F69
330
1A
100
AcDbEntity
  8
NOKITOI
  6
PHANTOM
 62
     8
100
AcDbCircle
 10
168.3931967208396
 20
96.38956743784513
 30
0.0
 40
5.199991271650611
100
AcDbArc
 50
37.92532860472995
 51
89.9998031407256
  0
LINE
  5
F6A
330
1A
100
AcDbEntity
  8
NOKITOI
  6
PHANTOM
 62
     8
100
AcDbLine
 10
59.88521458719112
 20
101.5895587094652
 30
0.0
 11
60.8810145871908
 21
102.6895587094653
 31
0.0
  0
LINE
  5
F6B
330
1A
100
AcDbEntity
  8
NOKITOI
  6
PHANTOM
 62
     8
100
AcDbLine
 10
62.43321458719089
 20
97.36335870946517
 30
0.0
 11
62.74901458719075
 21
103.3632587094651
 31
0.0
  0
LINE
  5
F6C
330
1A
100
AcDbEntity
  8
NOKITOI
  6
PHANTOM
 62
     8
100
AcDbLine
 10
53.97271458719081
 20
104.3270587094651
 30
0.0
 11
54.36291458719063
 21
91.8427587094651
 31
0.0
  0
LINE
  5
F6D
330
1A
100
AcDbEntity
  8
NOKITOI
  6
PHANTOM
 62
     8
100
AcDbLine
 10
55.17211458719117
 20
104.364558709465
 30
0.0
 11
55.32151458719051
 21
99.58565870946529
 31
0.0
  0
ARC
  5
F6E
330
1A
100
AcDbEntity
  8
NOKITOI
  6
PHANTOM
 62
     8
100
AcDbCircle
 10
59.42343479985999
 20
96.38961743784523
 30
0.0
 40
5.2000412730095
100
AcDbArc
 50
90.0013245430618
 51
142.0757990790551
  0
ARC
  5
F6F
330
1A
100
AcDbEntity
  8
NOKITOI
  6
PHANTOM
 62
     8
100
AcDbCircle
 10
105.7218206691587
 20
94.38955308480888
 30
0.0
 40
41.79999437547816
100
AcDbArc
 50
184.4742952125247
 51
269.999854592109
  0
ARC
  5
F70
330
1A
100
AcDbEntity
  8
NOKITOI
  6
PHANTOM
 62
     8
100
AcDbCircle
 10
105.7217983607334
 20
94.38957318583527
 30
0.0
 40
43.00001447645168
100
AcDbArc
 50
186.5249107071177
 51
269.9998883751437
  0
ARC
  5
F71
330
1A
100
AcDbEntity
  8
NOKITOI
  6
PHANTOM
 62
     8
100
AcDbCircle
 10
55.86215054634164
 20
91.88952385532195
 30
0.0
 40
1.499965146287778
100
AcDbArc
 50
181.7866280217767
 51
269.9986264296971
  0
ARC
  5
F72
330
1A
100
AcDbEntity
  8
NOKITOI
  6
PHANTOM
 62
     8
100
AcDbCircle
 10
62.00680616302822
 20
89.38956622452167
 30
0.0
 40
0.9999924849789756
100
AcDbArc
 50
6.528264606673934
 51
89.99951732740965
  0
LINE
  5
F73
330
1A
100
AcDbEntity
  8
NOKITOI
  6
PHANTOM
 62
     8
100
AcDbLine
 10
63.55071458719118
 20
91.58955870946522
 30
0.0
 11
57.50981458719076
 21
91.58955870946522
 31
0.0
  0
LINE
  5
F74
330
1A
100
AcDbEntity
  8
NOKITOI
  6
PHANTOM
 62
     8
100
AcDbLine
 10
59.18981458719059
 20
97.46035870946537
 30
0.0
 11
59.52351458719073
 21
99.79655870946533
 31
0.0
  0
LINE
  5
F75
330
1A
100
AcDbEntity
  8
NOKITOI
  6
PHANTOM
 62
     8
100
AcDbLine
 10
61.93381458719073
 20
96.88955870946518
 30
0.0
 11
59.68471458719074
 21
96.88955870946518
 31
0.0
  0
ARC
  5
F76
330
1A
100
AcDbEntity
  8
NOKITOI
  6
PHANTOM
 62
     8
100
AcDbCircle
 10
59.68474118778846
 20
97.38952803258314
 30
0.0
 40
0.4999693238254178
100
AcDbArc
 50
171.8555038770531
 51
269.9969516090356
  0
ARC
  5
F77
330
1A
100
AcDbEntity
  8
NOKITOI
  6
PHANTOM
 62
     8
100
AcDbCircle
 10
61.93380770019581
 20
97.38955217437968
 30
0.0
 40
0.499993464961963
100
AcDbArc
 50
270.0007892017869
 51
356.997036131742
  0
LINE
  5
F78
330
1A
100
AcDbEntity
  8
NOKITOI
  6
PHANTOM
 62
     8
100
AcDbLine
 10
61.26971458719078
 20
98.08955870946522
 30
0.0
 11
60.49181458719118
 21
98.08955870946522
 31
0.0
  0
LINE
  5
F79
330
1A
100
AcDbEntity
  8
NOKITOI
  6
PHANTOM
 62
     8
100
AcDbLine
 10
60.89591458719093
 20
100.917958709465
 30
0.0
 11
61.45091458719076
 21
101.5310587094653
 31
0.0
  0
LINE
  5
F7A
330
1A
100
AcDbEntity
  8
NOKITOI
  6
PHANTOM
 62
     8
100
AcDbLine
 10
60.49181458719118
 20
98.08955870946522
 30
0.0
 11
60.89591458719093
 21
100.917958709465
 31
0.0
  0
ARC
  5
F7B
330
1A
100
AcDbEntity
  8
NOKITOI
  6
PHANTOM
 62
     8
100
AcDbCircle
 10
59.02852880560619
 20
99.86724407516419
 30
0.0
 40
0.5000073448410256
100
AcDbArc
 50
351.872947864124
 51
96.47829282996916
  0
LINE
  5
F7C
330
1A
100
AcDbEntity
  8
NOKITOI
  6
PHANTOM
 62
     8
100
AcDbLine
 10
59.88521458719112
 20
101.5895587094652
 30
0.0
 11
59.42331458719087
 21
101.5895587094652
 31
0.0
  0
LINE
  5
F7D
330
1A
100
AcDbEntity
  8
NOKITOI
  6
PHANTOM
 62
     8
100
AcDbLine
 10
61.26971458719078
 20
98.08955870946522
 30
0.0
 11
61.45091458719076
 21
101.5310587094653
 31
0.0
  0
LINE
  5
F7E
330
1A
100
AcDbEntity
  8
NOKITOI
  6
PHANTOM
 62
     8
100
AcDbLine
 10
55.86211458719077
 20
90.38955870946518
 30
0.0
 11
62.0068145871906
 21
90.38955870946518
 31
0.0
  0
LINE
  5
F7F
330
1A
100
AcDbEntity
  8
NOKITOI
  6
PHANTOM
 62
     8
100
AcDbLine
 10
55.51081458719051
 20
93.5271587094652
 30
0.0
 11
55.42531458719082
 21
96.26465870946516
 31
0.0
  0
ARC
  5
F80
330
1A
100
AcDbEntity
  8
NOKITOI
  6
PHANTOM
 62
     8
100
AcDbCircle
 10
59.42335246863746
 20
96.38960249199056
 30
0.0
 40
3.999989731271038
100
AcDbArc
 50
96.4773114201311
 51
181.7899836067311
  0
ARC
  5
F81
330
1A
100
AcDbEntity
  8
NOKITOI
  6
PHANTOM
 62
     8
100
AcDbCircle
 10
57.50982815932918
 20
93.58954555437879
 30
0.0
 40
1.999986844959662
100
AcDbArc
 50
181.7875531852356
 51
269.9996111843215
  0
ARC
  5
F82
330
1A
100
AcDbEntity
  8
NOKITOI
  6
PHANTOM
 62
     8
100
AcDbCircle
 10
63.55072715689908
 20
91.0895470847355
 30
0.0
 40
0.5000116248877111
100
AcDbArc
 50
4.474846808342103
 51
90.00144034898383
  0
LINE
  5
F83
330
1A
100
AcDbEntity
  8
NOKITOI
  6
PHANTOM
 62
     8
100
AcDbLine
 10
160.6033145871911
 20
60.8722587094652
 30
0.0
 11
150.6180145871908
 21
52.70245870946507
 31
0.0
  0
LINE
  5
F84
330
1A
100
AcDbEntity
  8
NOKITOI
  6
PHANTOM
 62
     8
100
AcDbLine
 10
161.5876145871907
 20
60.12715870946533
 30
0.0
 11
151.1845145871907
 21
51.61545870946532
 31
0.0
  0
LINE
  5
F85
330
1A
100
AcDbEntity
  8
NOKITOI
  6
PHANTOM
 62
     8
100
AcDbLine
 10
105.7218145871907
 20
52.58955870946522
 30
0.0
 11
150.3014145871907
 21
52.58945870946525
 31
0.0
  0
LINE
  5
F86
330
1A
100
AcDbEntity
  8
NOKITOI
  6
PHANTOM
 62
     8
100
AcDbLine
 10
150.5512145871908
 20
51.3894587094652
 30
0.0
 11
105.7218145871907
 21
51.38955870946517
 31
0.0
  0
LINE
  5
F87
330
1A
100
AcDbEntity
  8
NOKITOI
  6
PHANTOM
 62
     8
100
AcDbLine
 10
146.3014145871907
 20
52.58945870946525
 30
0.0
 11
126.3933145871911
 21
52.58945870946525
 31
0.0
  0
LINE
  5
F88
330
1A
100
AcDbEntity
  8
NOKITOI
  6
PHANTOM
 62
     8
100
AcDbLine
 10
146.5512145871908
 20
51.3894587094652
 30
0.0
 11
126.3933145871911
 21
51.3894587094652
 31
0.0
  0
ARC
  5
F89
330
1A
100
AcDbEntity
  8
NOKITOI
  6
PHANTOM
 62
     8
100
AcDbCircle
 10
150.3014209749395
 20
53.08946098945478
 30
0.0
 40
0.5000022800304047
100
AcDbArc
 50
269.9992680212791
 51
309.2854498596061
  0
ARC
  5
F8A
330
1A
100
AcDbEntity
  8
NOKITOI
  6
PHANTOM
 62
     8
100
AcDbCircle
 10
150.5512076546134
 20
52.38945623445909
 30
0.0
 40
0.9999975250179316
100
AcDbArc
 50
270.0003972084035
 51
309.2946416752297
  0
LINE
  5
F8B
330
1A
100
AcDbEntity
  8
NOKITOI
  6
PHANTOM
 62
     8
100
AcDbLine
 10
163.7772145871909
 20
91.13935870946523
 30
0.0
 11
160.7842145871905
 21
61.20955870946511
 31
0.0
  0
LINE
  5
F8C
330
1A
100
AcDbEntity
  8
NOKITOI
  6
PHANTOM
 62
     8
100
AcDbLine
 10
164.8182145871911
 20
89.48905870946521
 30
0.0
 11
161.9494145871909
 21
60.80165870946519
 31
0.0
  0
ARC
  5
F8D
330
1A
100
AcDbEntity
  8
NOKITOI
  6
PHANTOM
 62
     8
100
AcDbCircle
 10
160.2866971613125
 20
61.25922622307723
 30
0.0
 40
0.4999904508696396
100
AcDbArc
 50
309.2900846377951
 51
354.2990110749239
  0
ARC
  5
F8E
330
1A
100
AcDbEntity
  8
NOKITOI
  6
PHANTOM
 62
     8
100
AcDbCircle
 10
160.9543920143219
 20
60.9011166377926
 30
0.0
 40
0.9999908507640039
100
AcDbArc
 50
309.288709223069
 51
354.2862329477532
  0
ARC
  5
F8F
330
1A
100
AcDbEntity
  8
NOKITOI
  6
PHANTOM
 62
     8
100
AcDbCircle
 10
168.3931836602546
 20
96.38959445412901
 30
0.0
 40
3.99998565374706
100
AcDbArc
 50
358.208696659101
 51
83.52422380468341
  0
LINE
  5
F90
330
1A
100
AcDbEntity
  8
NOKITOI
  6
PHANTOM
 62
     8
100
AcDbLine
 10
164.2747145871904
 20
91.58955870946522
 30
0.0
 11
170.3066145871908
 21
91.58955870946522
 31
0.0
  0
LINE
  5
F91
330
1A
100
AcDbEntity
  8
NOKITOI
  6
PHANTOM
 62
     8
100
AcDbLine
 10
171.9543145871908
 20
90.38955870946518
 30
0.0
 11
165.813214587191
 21
90.38955870946518
 31
0.0
  0
ARC
  5
F92
330
1A
100
AcDbEntity
  8
NOKITOI
  6
PHANTOM
 62
     8
100
AcDbCircle
 10
165.8132352370317
 20
89.38957739731439
 30
0.0
 40
0.9999813123640345
100
AcDbArc
 50
90.00118317084911
 51
174.2905900333514
  0
LINE
  5
F93
330
1A
100
AcDbEntity
  8
NOKITOI
  6
PHANTOM
 62
     8
100
AcDbLine
 10
168.6267145871907
 20
97.46025870946517
 30
0.0
 11
168.2929145871908
 21
99.79645870946535
 31
0.0
  0
ARC
  5
F94
330
1A
100
AcDbEntity
  8
NOKITOI
  6
PHANTOM
 62
     8
100
AcDbCircle
 10
168.131724773627
 20
97.38957045418931
 30
0.0
 40
0.5000117448278309
100
AcDbArc
 50
269.9988327478016
 51
8.127314608715551
  0
ARC
  5
F95
330
1A
100
AcDbEntity
  8
NOKITOI
  6
PHANTOM
 62
     8
100
AcDbCircle
 10
165.8826187085974
 20
97.38955479943468
 30
0.0
 40
0.4999960899864752
100
AcDbArc
 50
183.0147243791741
 51
269.9995277178593
  0
LINE
  5
F96
330
1A
100
AcDbEntity
  8
NOKITOI
  6
PHANTOM
 62
     8
100
AcDbLine
 10
165.8826145871908
 20
96.88955870946518
 30
0.0
 11
168.1317145871904
 21
96.88955870946518
 31
0.0
  0
ARC
  5
F97
330
1A
100
AcDbEntity
  8
NOKITOI
  6
PHANTOM
 62
     8
100
AcDbCircle
 10
168.7879439596905
 20
99.86718894196009
 30
0.0
 40
0.4999578477751074
100
AcDbArc
 50
83.5260907122076
 51
188.1330561712932
  0
LINE
  5
F98
330
1A
100
AcDbEntity
  8
NOKITOI
  6
PHANTOM
 62
     8
100
AcDbLine
 10
167.9312145871909
 20
101.5895587094652
 30
0.0
 11
168.3932145871909
 21
101.5895587094652
 31
0.0
  0
LINE
  5
F99
330
1A
100
AcDbEntity
  8
NOKITOI
  6
PHANTOM
 62
     8
100
AcDbLine
 10
166.9206145871908
 20
100.917958709465
 30
0.0
 11
166.3656145871905
 21
101.5309587094651
 31
0.0
  0
LINE
  5
F9A
330
1A
100
AcDbEntity
  8
NOKITOI
  6
PHANTOM
 62
     8
100
AcDbLine
 10
166.5467145871908
 20
98.08955870946522
 30
0.0
 11
167.3246145871904
 21
98.08955870946522
 31
0.0
  0
LINE
  5
F9B
330
1A
100
AcDbEntity
  8
NOKITOI
  6
PHANTOM
 62
     8
100
AcDbLine
 10
166.5467145871908
 20
98.08955870946522
 30
0.0
 11
166.3656145871905
 21
101.5309587094651
 31
0.0
  0
LINE
  5
F9C
330
1A
100
AcDbEntity
  8
NOKITOI
  6
PHANTOM
 62
     8
100
AcDbLine
 10
167.3246145871904
 20
98.08955870946522
 30
0.0
 11
166.9206145871908
 21
100.917958709465
 31
0.0
  0
ARC
  5
F9D
330
1A
100
AcDbEntity
  8
NOKITOI
  6
PHANTOM
 62
     8
100
AcDbCircle
 10
164.2747276581954
 20
91.08957053974506
 30
0.0
 40
0.499988169890889
100
AcDbArc
 50
90.00149786226634
 51
174.2966061377162
  0
LINE
  5
F9E
330
1A
100
AcDbEntity
  8
NOKITOI
  6
PHANTOM
 62
     8
100
AcDbLine
 10
172.3057145871908
 20
93.52695870946524
 30
0.0
 11
172.3912145871905
 21
96.26455870946518
 31
0.0
  0
ARC
  5
F9F
330
1A
100
AcDbEntity
  8
NOKITOI
  6
PHANTOM
 62
     8
100
AcDbCircle
 10
170.3066525750151
 20
93.58949553003743
 30
0.0
 40
2.000036820932882
100
AcDbArc
 50
269.9989117490344
 51
358.2110591274195
  0
ARC
  5
FA0
330
1A
100
AcDbEntity
  8
NOKITOI
  6
PHANTOM
 62
     8
100
AcDbCircle
 10
171.9543318003689
 20
91.88957539261298
 30
0.0
 40
1.500016683246579
100
AcDbArc
 50
269.9993425123344
 51
358.2076423244113
  0
ARC
  5
FA1
330
1A
100
AcDbEntity
  8
NOKITOI
  6
PHANTOM
 62
     8
100
AcDbCircle
 10
55.97172733804069
 20
104.3895718645516
 30
0.0
 40
1.999986844954076
100
AcDbArc
 50
90.00036528735451
 51
181.7883072882703
  0
ARC
  5
FA2
330
1A
100
AcDbEntity
  8
NOKITOI
  6
PHANTOM
 62
     8
100
AcDbCircle
 10
62.24960838603289
 20
103.3895652445504
 30
0.0
 40
0.4999934649531607
100
AcDbArc
 50
356.9955363203376
 51
89.99928939038076
  0
LINE
  5
FA3
330
1A
100
AcDbEntity
  8
NOKITOI
  6
PHANTOM
 62
     8
100
AcDbLine
 10
62.24961458719059
 20
103.8895587094651
 30
0.0
 11
60.01811458719072
 21
103.8895587094651
 31
0.0
  0
LINE
  5
FA4
330
1A
100
AcDbEntity
  8
NOKITOI
  6
PHANTOM
 62
     8
100
AcDbLine
 10
59.52781458719079
 20
104.4876587094651
 30
0.0
 11
59.7886145871908
 21
105.7915587094652
 31
0.0
  0
LINE
  5
FA5
330
1A
100
AcDbEntity
  8
NOKITOI
  6
PHANTOM
 62
     8
100
AcDbLine
 10
55.97171458719055
 20
105.1895587094653
 30
0.0
 11
58.44451458719101
 21
105.1895587094653
 31
0.0
  0
ARC
  5
FA6
330
1A
100
AcDbEntity
  8
NOKITOI
  6
PHANTOM
 62
     8
100
AcDbCircle
 10
60.01810733263534
 20
104.3895675593085
 30
0.0
 40
0.5000088498959383
100
AcDbArc
 50
168.6864043304889
 51
270.0008312961442
  0
LINE
  5
FA7
330
1A
100
AcDbEntity
  8
NOKITOI
  6
PHANTOM
 62
     8
100
AcDbLine
 10
55.97171458719055
 20
106.3895587094651
 30
0.0
 11
59.29831458719087
 21
106.3895587094651
 31
0.0
  0
ARC
  5
FA8
330
1A
100
AcDbEntity
  8
NOKITOI
  6
PHANTOM
 62
     8
100
AcDbCircle
 10
59.29831380418232
 20
105.8895596644668
 30
0.0
 40
0.4999990449987349
100
AcDbArc
 50
348.6967198015447
 51
89.99991027369492
  0
LINE
  5
FA9
330
1A
100
AcDbEntity
  8
NOKITOI
  6
PHANTOM
 62
     8
100
AcDbLine
 10
57.94451458719101
 20
102.6895587094653
 30
0.0
 11
60.8810145871908
 21
102.6895587094653
 31
0.0
  0
LINE
  5
FAA
330
1A
100
AcDbEntity
  8
NOKITOI
  6
PHANTOM
 62
     8
100
AcDbLine
 10
58.44451458719101
 20
105.1895587094653
 30
0.0
 11
57.94451458719101
 21
102.6895587094653
 31
0.0
  0
ARC
  5
FAB
330
1A
100
AcDbEntity
  8
NOKITOI
  6
PHANTOM
 62
     8
100
AcDbCircle
 10
55.97171908198885
 20
104.389563346992
 30
0.0
 40
0.7999953624857498
100
AcDbArc
 50
90.00032191805264
 51
181.7911273464193
  0
LINE
  5
FAC
330
1A
100
AcDbEntity
  8
NOKITOI
  6
PHANTOM
 62
     8
100
AcDbLine
 10
169.8720145871907
 20
102.6895587094653
 30
0.0
 11
166.9354145871907
 21
102.6895587094653
 31
0.0
  0
LINE
  5
FAD
330
1A
100
AcDbEntity
  8
NOKITOI
  6
PHANTOM
 62
     8
100
AcDbLine
 10
171.844714587191
 20
106.3894587094652
 30
0.0
 11
168.5181145871907
 21
106.3895587094651
 31
0.0
  0
LINE
  5
FAE
330
1A
100
AcDbEntity
  8
NOKITOI
  6
PHANTOM
 62
     8
100
AcDbLine
 10
168.2886145871908
 20
104.4875587094653
 30
0.0
 11
168.0278145871907
 21
105.7915587094652
 31
0.0
  0
ARC
  5
FAF
330
1A
100
AcDbEntity
  8
NOKITOI
  6
PHANTOM
 62
     8
100
AcDbCircle
 10
167.7983138041823
 20
104.3895577544634
 30
0.0
 40
0.4999990449987399
100
AcDbArc
 50
270.000089726305
 51
11.30328019845521
  0
ARC
  5
FB0
330
1A
100
AcDbEntity
  8
NOKITOI
  6
PHANTOM
 62
     8
100
AcDbCircle
 10
168.5181073326353
 20
105.8895498596217
 30
0.0
 40
0.500008849895925
100
AcDbArc
 50
89.99916870385415
 51
191.3135956695126
  0
ARC
  5
FB1
330
1A
100
AcDbEntity
  8
NOKITOI
  6
PHANTOM
 62
     8
100
AcDbCircle
 10
165.5668182966861
 20
103.3895626194959
 30
0.0
 40
0.4999960899831856
100
AcDbArc
 50
90.00042508015082
 51
183.0156217414647
  0
LINE
  5
FB2
330
1A
100
AcDbEntity
  8
NOKITOI
  6
PHANTOM
 62
     8
100
AcDbLine
 10
165.566814587191
 20
103.8895587094651
 30
0.0
 11
167.7983145871908
 21
103.8895587094651
 31
0.0
  0
ARC
  5
FB3
330
1A
100
AcDbEntity
  8
NOKITOI
  6
PHANTOM
 62
     8
100
AcDbCircle
 10
171.8447033501966
 20
104.3895703032823
 30
0.0
 40
1.999988406214315
100
AcDbArc
 50
358.2088726535936
 51
89.99967808195551
  0
ARC
  5
FB4
330
1A
100
AcDbEntity
  8
NOKITOI
  6
PHANTOM
 62
     8
100
AcDbCircle
 10
171.8447585535437
 20
104.3895133469922
 30
0.0
 40
0.7999453636812564
100
AcDbArc
 50
358.2123436447881
 51
90.00314907315425
  0
LINE
  5
FB5
330
1A
100
AcDbEntity
  8
NOKITOI
  6
PHANTOM
 62
     8
100
AcDbLine
 10
169.3720145871908
 20
105.1895587094653
 30
0.0
 11
169.8720145871907
 21
102.6895587094653
 31
0.0
  0
LINE
  5
FB6
330
1A
100
AcDbEntity
  8
NOKITOI
  6
PHANTOM
 62
     8
100
AcDbLine
 10
171.844714587191
 20
105.1894587094651
 30
0.0
 11
169.3720145871908
 21
105.1895587094653
 31
0.0
  0
DIMENSION
  5
1057
330
1A
100
AcDbEntity
  8
SUNPOU
100
AcDbDimension
  2
*D1
 10
30.12025194562329
 20
202.0674371677774
 30
0.0
 11
27.62025194562326
 21
213.0674371877774
 31
0.0
 70
    32
  3
STANDARD
100
AcDbAlignedDimension
 13
56.00551459227282
 23
224.0674372077775
 33
0.0
 14
56.00551459227282
 24
202.0674371677774
 34
0.0
 50
90.0
100
AcDbRotatedDimension
1001
ACAD
1000
DSTYLE
1002
{
1070
    41
1040
3.0
1070
    42
1040
3.0
1070
    43
1040
7.0
1070
    44
1040
1.5
1070
    73
1070
     0
1070
    74
1070
     0
1070
    77
1070
     3
1070
   140
1040
3.0
1070
   141
1040
3.0
1070
   147
1040
1.0
1070
   172
1070
     1
1070
   173
1070
     1
1070
   176
1070
   256
1070
   177
1070
   256
1070
   178
1070
   256
1070
   271
1070
     0
1070
   272
1070
     0
1070
   341
1005
B2
1070
     6
1000
OPEN
1070
     7
1000
OPEN
1002
}
  0
ARC
  5
3150
330
1A
100
AcDbEntity
  8
SEIHIN
100
AcDbCircle
 10
190.8353661322728
 20
138.0851223145719
 30
0.0
 40
6.999999997855918
100
AcDbArc
 50
276.9999999683264
 51
350.7918456020169
  0
ARC
  5
3158
330
1A
100
AcDbEntity
  8
SEIHIN
100
AcDbCircle
 10
201.6920139422728
 20
136.3109385125719
 30
0.0
 40
10.00000000174363
100
AcDbArc
 50
47.64334227896434
 51
170.7918456103775
  0
ARC
  5
3159
330
1A
100
AcDbEntity
  8
SEIHIN
100
AcDbCircle
 10
201.6920139422728
 20
136.3109385125719
 30
0.0
 40
4.000000003266364
100
AcDbArc
 50
21.80141962053081
 51
170.7918456269571
  0
LINE
  5
3186
330
1A
100
AcDbEntity
  8
SEIHIN
  6
DASHED
 62
     2
100
AcDbLine
 10
234.8901570822728
 20
98.35481139057197
 30
0.0
 11
221.5200927322728
 21
131.7799722615719
 31
0.0
  0
LINE
  5
3187
330
1A
100
AcDbEntity
  8
SEIHIN
100
AcDbLine
 10
219.8901570822728
 20
98.35481139057197
 30
0.0
 11
206.5200927322728
 21
131.7799722615719
 31
0.0
  0
LINE
  5
3188
330
1A
100
AcDbEntity
  8
SEIHIN
100
AcDbLine
 10
211.6267145322727
 20
133.822620981272
 30
0.0
 11
224.9967788822727
 21
100.3974601105719
 31
0.0
  0
LINE
  5
3189
330
1A
100
AcDbEntity
  8
SEIHIN
100
AcDbLine
 10
212.7408865622728
 20
134.2682897928719
 30
0.0
 11
226.1109509122728
 21
100.8431289205719
 31
0.0
  0
LINE
  5
318A
330
1A
100
AcDbEntity
  8
SEIHIN
  6
DASHED
 62
     2
100
AcDbLine
 10
227.7408865622728
 20
134.2682897928719
 30
0.0
 11
241.1109509122728
 21
100.8431289205719
 31
0.0
  0
LINE
  5
318B
330
1A
100
AcDbEntity
  8
SEIHIN
  6
DASHED
 62
     2
100
AcDbLine
 10
226.6267145322728
 20
133.822620981272
 30
0.0
 11
239.9967788822727
 21
100.3974601105719
 31
0.0
  0
LINE
  5
318D
330
1A
100
AcDbEntity
  8
SEIHIN
  6
DASHED
 62
     2
100
AcDbLine
 10
241.1109509122728
 20
100.8431289205719
 30
0.0
 11
234.8901570822728
 21
98.35481139057197
 31
0.0
  0
LINE
  5
318E
330
1A
100
AcDbEntity
  8
SEIHIN
100
AcDbLine
 10
226.1109509122728
 20
100.8431289205719
 30
0.0
 11
219.8901570822728
 21
98.35481139057197
 31
0.0
  0
ARC
  5
318F
330
1A
100
AcDbEntity
  8
SEIHIN
  6
DASHED
 62
     2
100
AcDbCircle
 10
216.6920139422728
 20
136.3109385125719
 30
0.0
 40
4.000000003266366
100
AcDbArc
 50
21.80141962053081
 51
170.7918456269571
  0
ARC
  5
3190
330
1A
100
AcDbEntity
  8
SEIHIN
  6
DASHED
 62
     2
100
AcDbCircle
 10
216.6920139422728
 20
136.3109385125719
 30
0.0
 40
10.00000000174363
100
AcDbArc
 50
47.64334227896062
 51
170.7918456103775
  0
LINE
  5
3191
330
1A
100
AcDbEntity
  8
SEIHIN
  6
DASHED
 62
     2
100
AcDbLine
 10
223.4294497308164
 20
143.7005906715117
 30
0.0
 11
227.2766482122727
 21
134.0825944547319
 31
0.0
  0
LINE
  5
3192
330
1A
100
AcDbEntity
  8
SEIHIN
  6
DASHED
 62
     2
100
AcDbLine
 10
220.4059204422728
 20
137.7965018745719
 30
0.0
 11
222.6342647622727
 21
132.2256410725719
 31
0.0
  0
LINE
  5
3193
330
1A
100
AcDbEntity
  8
SEIHIN
  6
DASHED
 62
     2
100
AcDbLine
 10
221.5200927322728
 20
131.7799722615719
 30
0.0
 11
227.7408865622728
 21
134.2682897928719
 31
0.0
  0
LINE
  5
3195
330
1A
100
AcDbEntity
  8
SEIHIN
100
AcDbLine
 10
208.4294497308165
 20
143.7005906715117
 30
0.0
 11
212.2766482122727
 21
134.0825944547319
 31
0.0
  0
LINE
  5
3196
330
1A
100
AcDbEntity
  8
SEIHIN
100
AcDbLine
 10
205.4059204422728
 20
137.7965018745719
 30
0.0
 11
207.6342647622727
 21
132.2256410725719
 31
0.0
  0
LINE
  5
3197
330
1A
100
AcDbEntity
  8
SEIHIN
100
AcDbLine
 10
206.5200927322728
 20
131.7799722615719
 30
0.0
 11
212.7408865622728
 21
134.2682897928719
 31
0.0
  0
LINE
  5
31FC
330
1A
100
AcDbEntity
  8
SEIHIN
100
AcDbLine
 10
120.8254539922728
 20
128.4200838895719
 30
0.0
 11
190.9556350222728
 21
137.0786308305719
 31
0.0
  0
LINE
  5
31FD
330
1A
100
AcDbEntity
  8
SEIHIN
100
AcDbLine
 10
122.6344872922728
 20
122.5971462905719
 30
0.0
 11
191.6884515322727
 21
131.1372992525719
 31
0.0
  0
ARC
  5
3220
330
1A
100
AcDbEntity
  8
SEIHIN
100
AcDbCircle
 10
190.8337654322727
 20
138.071176951572
 30
0.0
 40
0.9999999994877491
100
AcDbArc
 50
277.0000142374855
 51
350.7918456181773
  0
LINE
  5
322A
330
1A
100
AcDbEntity
  8
SEIHIN
100
AcDbLine
 10
103.7476985922727
 20
107.5176790105719
 30
0.0
 11
106.6353615922728
 21
110.5839604305719
 31
0.0
  0
LINE
  5
322B
330
1A
100
AcDbEntity
  8
SEIHIN
100
AcDbLine
 10
105.9056145922727
 20
95.56917140057198
 30
0.0
 11
117.1960142922728
 21
118.7179212505719
 31
0.0
  0
LINE
  5
322C
330
1A
100
AcDbEntity
  8
SEIHIN
100
AcDbLine
 10
104.5271162922728
 20
106.4298630605719
 30
0.0
 11
112.2792819922727
 21
122.3241583205719
 31
0.0
  0
LINE
  5
322D
330
1A
100
AcDbEntity
  8
SEIHIN
100
AcDbLine
 10
103.8553575922728
 20
107.6319973405719
 30
0.0
 11
106.3392621922728
 21
110.2695455405719
 31
0.0
  0
ARC
  5
322F
330
1A
100
AcDbEntity
  8
SEIHIN
100
AcDbCircle
 10
97.46524609227282
 20
103.6954869005719
 30
0.0
 40
9.89999994344371
100
AcDbArc
 50
135.9085672061389
 51
170.5325542265418
  0
LINE
  5
3239
330
1A
100
AcDbEntity
  8
SEIHIN
100
AcDbLine
 10
110.6556145922727
 20
91.63395871057195
 30
0.0
 11
110.6556145922727
 21
89.63395871057196
 31
0.0
  0
LINE
  5
323A
330
1A
100
AcDbEntity
  8
SEIHIN
100
AcDbLine
 10
111.1556145922728
 20
89.63395871057196
 30
0.0
 11
111.1556145922728
 21
91.63395871057195
 31
0.0
  0
MTEXT
  5
323B
330
1A
100
AcDbEntity
  8
SEIHIN
100
AcDbMText
 10
112.8146223922727
 20
88.54573592457194
 30
0.0
 40
2.381249964
 41
0.0
 71
     1
 72
     5
  1
{\W1.135802;60}
210
0.0
220
0.0
230
-1.0
 11
-1.0
 21
0.0
 31
0.0
1001
ACAD
1000
MTEXTBEGIN
1070
    73
1070
     1
1070
    44
1040
1.0
1070
    74
1070
     0
1000
MTEXTEND
1000
MTEXTBEGIN
1070
    73
1070
     1
1070
    44
1040
1.0
1070
    74
1070
     0
1000
MTEXTEND
1000
MTEXTBEGIN
1070
    73
1070
     1
1070
    44
1040
1.0
1070
    74
1070
     0
1000
MTEXTEND
1000
MTEXTBEGIN
1070
    73
1070
     1
1070
    44
1040
1.0
1070
    74
1070
     0
1000
MTEXTEND
1000
MTEXTBEGIN
1070
    73
1070
     1
1070
    44
1040
1.0
1070
    74
1070
     0
1000
MTEXTEND
  0
LINE
  5
323C
330
1A
100
AcDbEntity
  8
SEIHIN
100
AcDbLine
 10
110.6556145922727
 20
89.63395871057196
 30
0.0
 11
111.1556145922728
 21
89.63395871057196
 31
0.0
  0
LINE
  5
323D
330
1A
100
AcDbEntity
  8
SEIHIN
100
AcDbLine
 10
111.1556145922728
 20
91.63395871057195
 30
0.0
 11
110.6556145922727
 21
91.63395871057195
 31
0.0
  0
LINE
  5
324A
330
1A
100
AcDbEntity
  8
SEIHIN
100
AcDbLine
 10
106.1556145922728
 20
89.63395871057196
 30
0.0
 11
106.1556145922728
 21
91.63395871057195
 31
0.0
  0
LINE
  5
324B
330
1A
100
AcDbEntity
  8
SEIHIN
100
AcDbLine
 10
105.9056145922727
 20
89.63395871057196
 30
0.0
 11
106.1556145922728
 21
89.63395871057196
 31
0.0
  0
LINE
  5
324C
330
1A
100
AcDbEntity
  8
SEIHIN
100
AcDbLine
 10
106.1556145922728
 20
91.63395871057195
 30
0.0
 11
105.9056145922727
 21
91.63395871057195
 31
0.0
  0
MTEXT
  5
3250
330
1A
100
AcDbEntity
  8
SEIHIN
100
AcDbMText
 10
97.80684449227283
 20
88.72587753457196
 30
0.0
 40
2.381249964
 41
0.0
 71
     1
 72
     5
  1
{\W1.022222;45}
210
0.0
220
0.0
230
-1.0
 11
-1.0
 21
0.0
 31
0.0
1001
ACAD
1000
MTEXTBEGIN
1070
    73
1070
     1
1070
    44
1040
1.0
1070
    74
1070
     0
1000
MTEXTEND
1000
MTEXTBEGIN
1070
    73
1070
     1
1070
    44
1040
1.0
1070
    74
1070
     0
1000
MTEXTEND
1000
MTEXTBEGIN
1070
    73
1070
     1
1070
    44
1040
1.0
1070
    74
1070
     0
1000
MTEXTEND
1000
MTEXTBEGIN
1070
    73
1070
     1
1070
    44
1040
1.0
1070
    74
1070
     0
1000
MTEXTEND
1000
MTEXTBEGIN
1070
    73
1070
     1
1070
    44
1040
1.0
1070
    74
1070
     0
1000
MTEXTEND
  0
LINE
  5
3260
330
1A
100
AcDbEntity
  8
SEIHIN
100
AcDbLine
 10
118.9915406922728
 20
128.0340609285719
 30
0.0
 11
119.8709596922727
 21
130.9105107315719
 31
0.0
  0
LINE
  5
3261
330
1A
100
AcDbEntity
  8
SEIHIN
100
AcDbLine
 10
117.5725365922728
 20
127.4970719765719
 30
0.0
 11
118.7233939922728
 21
131.2613567775719
 31
0.0
  0
ARC
  5
3262
330
1A
100
AcDbEntity
  8
SEIHIN
100
AcDbCircle
 10
123.4875726922728
 20
115.6493232305719
 30
0.0
 40
7.000000031489973
100
AcDbArc
 50
96.9999999703212
 51
154.0000003277073
  0
ARC
  5
3263
330
1A
100
AcDbEntity
  8
SEIHIN
100
AcDbCircle
 10
122.1660167922727
 20
117.5020762205719
 30
0.0
 40
11.00000001967632
100
AcDbArc
 50
97.00000011594651
 51
154.0000030732915
  0
LINE
  5
3264
330
1A
100
AcDbEntity
  8
SEIHIN
100
AcDbLine
 10
119.8709596922727
 20
130.9105107315719
 30
0.0
 11
118.7233939922728
 21
131.2613567775719
 31
0.0
  0
LINE
  5
3265
330
1A
100
AcDbEntity
  8
SEIHIN
100
AcDbLine
 10
107.6262165922728
 20
112.7839604305719
 30
0.0
 11
90.35476569227284
 21
112.7839604305719
 31
0.0
  0
LINE
  5
3266
330
1A
100
AcDbEntity
  8
SEIHIN
100
AcDbLine
 10
90.35476569227284
 20
111.7839604305719
 30
0.0
 11
90.35476569227284
 21
112.7839604305719
 31
0.0
  0
LINE
  5
3267
330
1A
100
AcDbEntity
  8
SEIHIN
100
AcDbLine
 10
90.35476569227284
 20
110.5839604305719
 30
0.0
 11
90.35476569227284
 21
111.7839604305719
 31
0.0
  0
DIMENSION
  5
345C
330
1A
100
AcDbEntity
  8
SUNPOU
100
AcDbDimension
  2
*D10
 10
336.2772836785548
 20
238.5836258324598
 30
0.0
 11
310.7441747466316
 21
231.0629644073896
 31
0.0
 70
    32
  3
STANDARD
100
AcDbAlignedDimension
 13
306.7421034581112
 23
169.7147102732199
 33
0.0
 14
355.9513678985684
 24
189.3984165611412
 34
0.0
 50
21.8014099999979
100
AcDbRotatedDimension
1001
ACAD
1000
DSTYLE
1002
{
1070
    41
1040
3.0
1070
    42
1040
3.0
1070
    43
1040
7.0
1070
    44
1040
1.5
1070
    73
1070
     0
1070
    74
1070
     0
1070
    77
1070
     3
1070
   140
1040
3.0
1070
   141
1040
3.0
1070
   147
1040
1.0
1070
   172
1070
     1
1070
   173
1070
     1
1070
   176
1070
   256
1070
   177
1070
   256
1070
   178
1070
   256
1070
   271
1070
     0
1070
   272
1070
     0
1070
   341
1005
B2
1070
     6
1000
OPEN
1070
     7
1000
OPEN
1002
}
  0
LWPOLYLINE
  5
345D
330
1A
100
AcDbEntity
  8
SUNPOU
100
AcDbPolyline
 90
        3
 70
     0
 43
0.0
 10
308.9287340246693
 20
171.0278300584092
 10
287.5135579499079
 20
189.4771687537344
 10
269.9317713129993
 20
189.4771687537344
1001
ACAD
1000
DSTYLE
1002
{
1070
    41
1040
3.0
1070
    42
1040
3.0
1070
    43
1040
7.0
1070
    44
1040
1.5
1070
    73
1070
     0
1070
    74
1070
     0
1070
    77
1070
     0
1070
   140
1040
3.0
1070
   141
1040
3.0
1070
   147
1040
1.0
1070
   172
1070
     1
1070
   173
1070
     1
1070
   176
1070
   256
1070
   177
1070
   256
1070
   178
1070
   256
1070
   271
1070
     0
1070
   272
1070
     0
1070
   341
1005
B2
1070
   343
1005
B2
1070
   344
1005
B2
1002
}
  0
DIMENSION
  5
345E
330
1A
100
AcDbEntity
  8
SUNPOU
100
AcDbDimension
  2
*D6
 10
293.3967791501298
 20
127.757459591416
 30
0.0
 11
289.0329385448188
 21
145.3985166791146
 31
0.0
 70
    32
  3
STANDARD
100
AcDbAlignedDimension
 13
307.8562754638673
 23
172.314445017687
 33
0.0
 14
321.2263401122667
 24
138.8892842656783
 34
0.0
 50
111.8014100000028
100
AcDbRotatedDimension
1001
ACAD
1000
DSTYLE
1002
{
1070
    41
1040
3.0
1070
    42
1040
3.0
1070
    43
1040
7.0
1070
    44
1040
1.5
1070
    73
1070
     0
1070
    74
1070
     0
1070
    77
1070
     3
1070
   140
1040
3.0
1070
   141
1040
3.0
1070
   147
1040
1.0
1070
   172
1070
     1
1070
   173
1070
     1
1070
   176
1070
   256
1070
   177
1070
   256
1070
   178
1070
   256
1070
   271
1070
     0
1070
   272
1070
     0
1070
   341
1005
B2
1070
     6
1000
OPEN
1070
     7
1000
OPEN
1002
}
  0
DIMENSION
  5
345F
330
1A
100
AcDbEntity
  8
SUNPOU
100
AcDbDimension
  2
*D5
 10
291.2365899734144
 20
159.7428893395829
 30
0.0
 11
292.5364573094398
 21
163.2246769420558
 31
0.0
 70
    32
  3
STANDARD
100
AcDbAlignedDimension
 13
307.8562754638673
 23
172.314445017687
 33
0.0
 14
307.4848848682005
 24
166.2422074664681
 34
0.0
 50
111.8014100000028
100
AcDbRotatedDimension
1001
ACAD
1000
DSTYLE
1002
{
1070
    41
1040
3.0
1070
    42
1040
3.0
1070
    43
1040
7.0
1070
    44
1040
1.5
1070
    73
1070
     0
1070
    74
1070
     0
1070
    77
1070
     3
1070
   140
1040
3.0
1070
   141
1040
3.0
1070
   147
1040
1.0
1070
   172
1070
     1
1070
   173
1070
     1
1070
   176
1070
   256
1070
   177
1070
   256
1070
   178
1070
   256
1070
   271
1070
     0
1070
   272
1070
     0
1070
   341
1005
B2
1070
     6
1000
OPEN
1070
     7
1000
OPEN
1002
}
  0
DIMENSION
  5
3462
330
1A
100
AcDbEntity
  8
SUNPOU
100
AcDbDimension
  2
*D3
 10
223.8936880828922
 20
170.0319021392708
 30
0.0
 11
216.3936880791713
 21
172.5319021392708
 31
0.0
 70
    32
  3
STANDARD
100
AcDbAlignedDimension
 13
208.8936880754504
 23
143.8862860036891
 33
0.0
 14
223.8936880828922
 24
143.8862860066658
 34
0.0
100
AcDbRotatedDimension
1001
ACAD
1000
DSTYLE
1002
{
1070
    41
1040
3.0
1070
    42
1040
3.0
1070
    43
1040
7.0
1070
    44
1040
1.5
1070
    73
1070
     0
1070
    74
1070
     0
1070
    77
1070
     3
1070
   140
1040
3.0
1070
   141
1040
3.0
1070
   147
1040
1.0
1070
   172
1070
     1
1070
   173
1070
     1
1070
   176
1070
   256
1070
   177
1070
   256
1070
   178
1070
   256
1070
   271
1070
     0
1070
   272
1070
     0
1070
   341
1005
B2
1070
     6
1000
OPEN
1070
     7
1000
OPEN
1002
}
  0
LINE
  5
3463
330
1A
100
AcDbEntity
  8
CENTER_L
100
AcDbLine
 10
230.3819436897782
 20
109.013723798446
 30
0.0
 11
216.2690979865097
 21
103.3685855216758
 31
0.0
  0
DIMENSION
  5
3465
330
1A
100
AcDbEntity
  8
SUNPOU
100
AcDbDimension
  2
*D2
 10
244.7672813974223
 20
108.3056611090338
 30
0.0
 11
237.4323155463767
 21
133.3745317649687
 31
0.0
 70
    33
  3
STANDARD
100
AcDbAlignedDimension
 13
206.7986357542406
 23
149.1239168519579
 33
0.0
 14
226.1109509112728
 24
100.8431289205719
 34
0.0
1001
ACAD
1000
DSTYLE
1002
{
1070
    41
1040
3.0
1070
    42
1040
3.0
1070
    43
1040
7.0
1070
    44
1040
1.5
1070
    73
1070
     0
1070
    74
1070
     0
1070
    77
1070
     3
1070
   140
1040
3.0
1070
   141
1040
3.0
1070
   147
1040
1.0
1070
   172
1070
     1
1070
   173
1070
     1
1070
   176
1070
   256
1070
   177
1070
   256
1070
   178
1070
   256
1070
   271
1070
     0
1070
   272
1070
     0
1070
   341
1005
B2
1070
     6
1000
OPEN
1070
     7
1000
OPEN
1002
}
  0
LINE
  5
3467
330
1A
100
AcDbEntity
  8
SEIHIN
100
AcDbLine
 10
211.8124103456155
 20
125.2806342492913
 30
0.0
 11
215.7120124370577
 21
123.6093762305539
 31
0.0
  0
LINE
  5
346B
330
1A
100
AcDbEntity
  8
SEIHIN
100
AcDbLine
 10
219.2402238707818
 20
106.7111004308199
 30
0.0
 11
223.1398259622241
 21
105.0398424120824
 31
0.0
  0
LINE
  5
346D
330
1A
100
AcDbEntity
  8
CENTER_L
100
AcDbLine
 10
210.3268471645495
 20
118.2242125743538
 30
0.0
 11
224.4396928678182
 21
123.8693508511238
 31
0.0
  0
LINE
  5
346E
330
1A
100
AcDbEntity
  8
SEIHIN
100
AcDbLine
 10
220.9114819046742
 20
110.6107025576239
 30
0.0
 11
219.2402238707818
 21
106.7111004308199
 31
0.0
  0
LINE
  5
346F
330
1A
100
AcDbEntity
  8
SEIHIN
100
AcDbLine
 10
219.2402238707818
 20
106.7111004308199
 30
0.0
 11
222.0256539433758
 21
107.8252724600366
 31
0.0
  0
LINE
  5
3471
330
1A
100
AcDbEntity
  8
SEIHIN
100
AcDbLine
 10
211.8124103456155
 20
125.2806342492913
 30
0.0
 11
214.5978404182094
 21
126.394806278508
 31
0.0
  0
LINE
  5
3472
330
1A
100
AcDbEntity
  8
SEIHIN
100
AcDbLine
 10
213.483668379508
 20
129.1802363760953
 30
0.0
 11
211.8124103456155
 21
125.2806342492913
 31
0.0
  0
LINE
  5
3473
330
1A
100
AcDbEntity
  8
CENTER_L
100
AcDbLine
 10
207.3557217533338
 20
125.6520261012826
 30
0.0
 11
221.4685674566022
 21
131.2971643780526
 31
0.0
  0
LINE
  5
347B
330
1A
100
AcDbEntity
  8
CENTER_L
100
AcDbLine
 10
225.3268471685494
 20
118.2242125743538
 30
0.0
 11
239.4396928718181
 21
123.8693508511238
 31
0.0
  0
LINE
  5
347C
330
1A
100
AcDbEntity
  8
CENTER_L
100
AcDbLine
 10
245.3819436937781
 20
109.013723798446
 30
0.0
 11
231.2690979905096
 21
103.3685855216758
 31
0.0
  0
LINE
  5
347E
330
1A
100
AcDbEntity
  8
CENTER_L
100
AcDbLine
 10
222.3557217573337
 20
125.6520261012826
 30
0.0
 11
236.4685674606021
 21
131.2971643780526
 31
0.0
  0
TEXT
  5
3484
330
1A
100
AcDbEntity
  8
SUNPOU
100
AcDbText
 10
225.9930353522842
 20
176.2255213298258
 30
0.0
 40
3.0
  1
（スライド幅）
100
AcDbText
  0
CIRCLE
  5
3485
330
1A
100
AcDbEntity
  8
SEIHIN
100
AcDbCircle
 10
361.4293806303277
 20
160.8941822000733
 30
0.0
 40
2.099999986565493
  0
LINE
  5
3486
330
1A
100
AcDbEntity
  8
CENTER_L
100
AcDbLine
 10
367.0930883981676
 20
163.1596653661074
 30
0.0
 11
355.765672862488
 21
158.6286990340392
 31
0.0
  0
LINE
  5
3487
330
1A
100
AcDbEntity
  8
SEIHIN
100
AcDbLine
 10
306.7421034581112
 20
169.7147102732199
 30
0.0
 11
318.6266053677996
 21
140.0034562714344
 31
0.0
  0
LINE
  5
3488
330
1A
100
AcDbEntity
  8
CENTER_L
100
AcDbLine
 10
322.0619685613959
 20
202.7684806060755
 30
0.0
 11
346.573753750128
 21
141.4890192273928
 31
0.0
  0
LINE
  5
3489
330
1A
100
AcDbEntity
  8
SEIHIN
100
AcDbLine
 10
355.9513678985684
 20
189.3984165611412
 30
0.0
 11
367.8358698082569
 21
159.6871625593557
 31
0.0
  0
LINE
  5
348A
330
1A
100
AcDbEntity
  8
SEIHIN
100
AcDbLine
 10
349.1128395870938
 20
155.3356723741621
 30
0.0
 11
331.6252785108086
 21
199.0545739282681
 31
0.0
  0
LINE
  5
348B
330
1A
100
AcDbEntity
  8
SEIHIN
100
AcDbLine
 10
348.1843628995381
 20
154.9642816894844
 30
0.0
 11
330.6968018232529
 21
198.6831832435903
 31
0.0
  0
LINE
  5
348C
330
1A
100
AcDbEntity
  8
SEIHIN
100
AcDbLine
 10
335.185689273757
 20
149.7648121039957
 30
0.0
 11
317.6981281974718
 21
193.4837136581016
 31
0.0
  0
LINE
  5
348D
330
1A
100
AcDbEntity
  8
SEIHIN
100
AcDbLine
 10
336.1141659613128
 20
150.1362027886735
 30
0.0
 11
318.6266048850276
 21
193.8551043427794
 31
0.0
  0
LINE
  5
348E
330
1A
100
AcDbEntity
  8
CENTER_L
100
AcDbLine
 10
315.4140758020745
 20
162.8439828646623
 30
0.0
 11
310.8831094700061
 21
174.1713984003422
 31
0.0
  0
LINE
  5
348F
330
1A
100
AcDbEntity
  8
CENTER_L
100
AcDbLine
 10
320.3907109408822
 20
154.4412688559312
 30
0.0
 11
315.0055460333877
 21
167.9041807746581
 31
0.0
  0
CIRCLE
  5
3490
330
1A
100
AcDbEntity
  8
SEIHIN
100
AcDbCircle
 10
317.698128487135
 20
161.1727248152946
 30
0.0
 40
3.249999972626075
  0
LINE
  5
3491
330
1A
100
AcDbEntity
  8
CENTER_L
100
AcDbLine
 10
324.4295844464985
 20
163.865307269042
 30
0.0
 11
310.9666725277715
 21
158.4801423615473
 31
0.0
  0
ARC
  5
3492
330
1A
100
AcDbEntity
  8
SEIHIN
100
AcDbCircle
 10
337.2889866331842
 20
164.7009364162878
 30
0.0
 40
5.024896822470276
100
AcDbArc
 50
148.4586907698121
 51
75.14412923018949
  0
LINE
  5
3493
330
1A
100
AcDbEntity
  8
SEIHIN
100
AcDbLine
 10
341.0957409700916
 20
175.3784183955953
 30
0.0
 11
347.4093826096135
 21
159.5943147071467
 31
0.0
  0
LINE
  5
3494
330
1A
100
AcDbEntity
  8
SEIHIN
100
AcDbLine
 10
341.9045503826859
 20
175.7019421690439
 30
0.0
 11
348.2181920222077
 21
159.9178384805954
 31
0.0
  0
LINE
  5
3495
330
1A
100
AcDbEntity
  8
SEIHIN
100
AcDbLine
 10
327.1685906567546
 20
169.8075581254288
 30
0.0
 11
333.4822322962764
 21
154.0234544369804
 31
0.0
  0
LINE
  5
3496
330
1A
100
AcDbEntity
  8
SEIHIN
100
AcDbLine
 10
326.3597812441604
 20
169.4840343519802
 30
0.0
 11
332.6734228836825
 21
153.6999306635316
 31
0.0
  0
CIRCLE
  5
3497
330
1A
100
AcDbEntity
  8
SEIHIN
100
AcDbCircle
 10
337.2889866331842
 20
164.7009364162878
 30
0.0
 40
2.999999969510066
  0
LINE
  5
3498
330
1A
100
AcDbEntity
  8
CENTER_L
100
AcDbLine
 10
363.694863796362
 20
155.2304744322333
 30
0.0
 11
359.1638974642936
 21
166.5578899679131
 31
0.0
  0
LINE
  5
3499
330
1A
100
AcDbEntity
  8
SEIHIN
100
AcDbLine
 10
350.638845599232
 20
160.886099936578
 30
0.0
 11
351.7530176532651
 21
158.1006698739106
 31
0.0
  0
LINE
  5
349A
330
1A
100
AcDbEntity
  8
SEIHIN
100
AcDbLine
 10
351.7530176532651
 20
158.1006698739106
 30
0.0
 11
347.5950779760909
 21
156.4374939598016
 31
0.0
  0
LINE
  5
349B
330
1A
100
AcDbEntity
  8
SEIHIN
100
AcDbLine
 10
349.3323640762408
 20
157.1324084179279
 30
0.0
 11
351.7464035266465
 21
151.0973099488153
 31
0.0
  0
LINE
  5
349C
330
1A
100
AcDbEntity
  8
SEIHIN
100
AcDbLine
 10
366.7216978025009
 20
157.0874278148886
 30
0.0
 11
321.2263401122667
 21
138.8892842656783
 31
0.0
  0
LINE
  5
349D
330
1A
100
AcDbEntity
  8
CENTER_L
100
AcDbLine
 10
328.0970675208242
 20
147.5612566096415
 30
0.0
 11
316.7696519851443
 21
143.0302902775732
 31
0.0
  0
ARC
  5
349E
330
1A
100
AcDbEntity
  8
SEIHIN
100
AcDbCircle
 10
320.4835587429112
 20
140.7462376407899
 30
0.0
 40
2.0
100
AcDbArc
 50
201.8014099999986
 51
291.8014099999993
  0
LINE
  5
349F
330
1A
100
AcDbEntity
  8
CENTER_L
100
AcDbLine
 10
324.6988429190186
 20
139.6320656757674
 30
0.0
 11
320.1678765869502
 21
150.9594812114472
 31
0.0
  0
DIMENSION
  5
34A0
330
1A
100
AcDbEntity
  8
SUNPOU
100
AcDbDimension
  2
*D7
 10
302.5640058560861
 20
131.4243503691311
 30
0.0
 11
303.8638731921116
 21
134.9061379716041
 31
0.0
 70
    32
  3
STANDARD
100
AcDbAlignedDimension
 13
316.7696519851443
 23
143.0302902775732
 33
0.0
 14
321.2263401122667
 24
138.8892842656783
 34
0.0
 50
111.8014100000028
100
AcDbRotatedDimension
1001
ACAD
1000
DSTYLE
1002
{
1070
    41
1040
3.0
1070
    42
1040
3.0
1070
    43
1040
7.0
1070
    44
1040
1.5
1070
    73
1070
     0
1070
    74
1070
     0
1070
    77
1070
     3
1070
   140
1040
3.0
1070
   141
1040
3.0
1070
   147
1040
1.0
1070
   172
1070
     1
1070
   173
1070
     1
1070
   176
1070
   256
1070
   177
1070
   256
1070
   178
1070
   256
1070
   271
1070
     0
1070
   272
1070
     0
1070
   341
1005
B2
1070
     6
1000
OPEN
1070
     7
1000
OPEN
1002
}
  0
CIRCLE
  5
34A1
330
1A
100
AcDbEntity
  8
SEIHIN
100
AcDbCircle
 10
322.4333597529843
 20
145.2957734436074
 30
0.0
 40
2.099999986565482
  0
LINE
  5
34A2
330
1A
100
AcDbEntity
  8
SEIHIN
100
AcDbLine
 10
333.7875949377156
 20
150.9145006008643
 30
0.0
 11
336.201634388121
 21
144.8794021317516
 31
0.0
  0
LINE
  5
34A3
330
1A
100
AcDbEntity
  8
SEIHIN
100
AcDbLine
 10
334.5964043503098
 20
151.2380243743129
 30
0.0
 11
337.0104438007152
 21
145.2029259052002
 31
0.0
  0
LINE
  5
34A4
330
1A
100
AcDbEntity
  8
SEIHIN
100
AcDbLine
 10
333.4822322962764
 20
154.0234544369804
 30
0.0
 11
334.5964043503098
 21
151.2380243743129
 31
0.0
  0
LINE
  5
34A5
330
1A
100
AcDbEntity
  8
SEIHIN
100
AcDbLine
 10
330.2527693066582
 20
152.7316692075491
 30
0.0
 11
333.4822322962764
 21
154.0234544369804
 31
0.0
  0
LINE
  5
34A6
330
1A
100
AcDbEntity
  8
SEIHIN
100
AcDbLine
 10
331.3669413606914
 20
149.9462391448816
 30
0.0
 11
335.5248810378656
 21
151.6094150589907
 31
0.0
  0
LINE
  5
34A7
330
1A
100
AcDbEntity
  8
SEIHIN
100
AcDbLine
 10
330.2527693066582
 20
152.7316692075491
 30
0.0
 11
331.3669413606914
 21
149.9462391448816
 31
0.0
  0
LINE
  5
34A8
330
1A
100
AcDbEntity
  8
SEIHIN
100
AcDbLine
 10
348.5235546636467
 20
156.8088846444793
 30
0.0
 11
350.9375941140523
 21
150.7737861753667
 31
0.0
  0
ARC
  5
34A9
330
1A
100
AcDbEntity
  8
SEIHIN
100
AcDbCircle
 10
346.3274095244265
 20
154.2215003201288
 30
0.0
 40
2.0
100
AcDbArc
 50
291.8014099999993
 51
21.80140999999828
  0
LINE
  5
34AA
330
1A
100
AcDbEntity
  8
SEIHIN
100
AcDbLine
 10
347.070190893782
 20
152.3645469450173
 30
0.0
 11
338.7139007057797
 21
149.0220307829174
 31
0.0
  0
ARC
  5
34AB
330
1A
100
AcDbEntity
  8
SEIHIN
100
AcDbCircle
 10
337.9711193364243
 20
150.878984158029
 30
0.0
 40
2.0
100
AcDbArc
 50
201.8014099999986
 51
291.8014099999993
  0
LINE
  5
34AC
330
1A
100
AcDbEntity
  8
SEIHIN
100
AcDbLine
 10
350.638845599232
 20
160.886099936578
 30
0.0
 11
347.4093826096135
 21
159.5943147071467
 31
0.0
  0
LINE
  5
34AD
330
1A
100
AcDbEntity
  8
SEIHIN
100
AcDbLine
 10
347.4093826096135
 20
159.5943147071467
 30
0.0
 11
348.5235546636467
 21
156.8088846444793
 31
0.0
  0
ARC
  5
34AE
330
1A
100
AcDbEntity
  8
SEIHIN
100
AcDbCircle
 10
365.9789164331454
 20
158.9443811900001
 30
0.0
 40
2.0
100
AcDbArc
 50
291.8014099999993
 51
21.80140999999828
  0
CIRCLE
  5
34AF
330
1A
100
AcDbEntity
  8
SEIHIN
100
AcDbCircle
 10
353.9087193018112
 20
175.6569615177273
 30
0.0
 40
3.249999972626095
  0
LINE
  5
34B0
330
1A
100
AcDbEntity
  8
CENTER_L
100
AcDbLine
 10
360.6401752611744
 20
178.3495439714746
 30
0.0
 11
347.1772633424476
 21
172.96437906398
 31
0.0
  0
LINE
  5
34B1
330
1A
100
AcDbEntity
  8
CENTER_L
100
AcDbLine
 10
354.4100966794179
 20
178.4423916211283
 30
0.0
 11
349.8791303473495
 21
189.7698071568081
 31
0.0
  0
DIMENSION
  5
34B2
330
1A
100
AcDbEntity
  8
SUNPOU
100
AcDbDimension
  2
*D11
 10
335.8545800109585
 20
220.792308571431
 30
0.0
 11
316.8208078919259
 21
215.8713819391048
 31
0.0
 70
    32
  3
STANDARD
100
AcDbAlignedDimension
 13
315.0871382559806
 23
167.7002002234786
 33
0.0
 14
351.2977290706568
 24
182.1844369259112
 34
0.0
 50
21.8014099999979
100
AcDbRotatedDimension
1001
ACAD
1000
DSTYLE
1002
{
1070
    41
1040
3.0
1070
    42
1040
3.0
1070
    43
1040
7.0
1070
    44
1040
1.5
1070
    73
1070
     0
1070
    74
1070
     0
1070
    77
1070
     3
1070
   140
1040
3.0
1070
   141
1040
3.0
1070
   147
1040
1.0
1070
   172
1070
     1
1070
   173
1070
     1
1070
   176
1070
   256
1070
   177
1070
   256
1070
   178
1070
   256
1070
   271
1070
     0
1070
   272
1070
     0
1070
   341
1005
B2
1070
     6
1000
OPEN
1070
     7
1000
OPEN
1002
}
  0
DIMENSION
  5
34B3
330
1A
100
AcDbEntity
  8
SUNPOU
100
AcDbDimension
  2
*D9
 10
334.1196163026574
 20
229.1685912442504
 30
0.0
 11
313.693129152291
 21
223.6905785849077
 31
0.0
 70
    32
  3
STANDARD
100
AcDbAlignedDimension
 13
310.8831094700061
 23
174.1713984003422
 33
0.0
 14
349.8791303473495
 24
189.7698071568081
 34
0.0
 50
21.8014099999979
100
AcDbRotatedDimension
1001
ACAD
1000
DSTYLE
1002
{
1070
    41
1040
3.0
1070
    42
1040
3.0
1070
    43
1040
7.0
1070
    44
1040
1.5
1070
    73
1070
     0
1070
    74
1070
     0
1070
    77
1070
     3
1070
   140
1040
3.0
1070
   141
1040
3.0
1070
   147
1040
1.0
1070
   172
1070
     1
1070
   173
1070
     1
1070
   176
1070
   256
1070
   177
1070
   256
1070
   178
1070
   256
1070
   271
1070
     0
1070
   272
1070
     0
1070
   341
1005
B2
1070
     6
1000
OPEN
1070
     7
1000
OPEN
1002
}
  0
LINE
  5
34B4
330
1A
100
AcDbEntity
  8
SEIHIN
100
AcDbLine
 10
323.6403791523158
 20
178.6280866572089
 30
0.0
 11
307.8562754638673
 21
172.314445017687
 31
0.0
  0
ARC
  5
34B5
330
1A
100
AcDbEntity
  8
SEIHIN
100
AcDbCircle
 10
308.5990568332228
 20
170.4574916425754
 30
0.0
 40
2.0
100
AcDbArc
 50
111.8014099999993
 51
201.8014099999986
  0
CIRCLE
  5
34B6
330
1A
100
AcDbEntity
  8
SEIHIN
100
AcDbCircle
 10
313.1485926360404
 20
168.5076906325023
 30
0.0
 40
2.099999971727392
  0
LINE
  5
34B7
330
1A
100
AcDbEntity
  8
CENTER_L
100
AcDbLine
 10
318.8123004038803
 20
170.7731737985365
 30
0.0
 11
307.4848848682005
 21
166.2422074664681
 31
0.0
  0
INSERT
  5
34B8
330
1A
100
AcDbEntity
  8
SUNPOU
100
AcDbBlockReference
  2
_OPEN
 10
311.2015946898305
 20
169.069743135731
 30
0.0
 41
2.999999999999992
 42
3.0
 43
3.0
 50
319.2548486777223
1001
ACAD
1000
DSTYLE
1002
{
1070
    41
1040
3.0
1070
    42
1040
3.0
1070
    43
1040
7.0
1070
    44
1040
1.5
1070
    73
1070
     0
1070
    74
1070
     0
1070
    77
1070
     0
1070
   140
1040
3.0
1070
   141
1040
3.0
1070
   147
1040
1.0
1070
   172
1070
     1
1070
   173
1070
     1
1070
   176
1070
   256
1070
   177
1070
   256
1070
   178
1070
   256
1070
   271
1070
     0
1070
   272
1070
     0
1070
   341
1005
B2
1070
   343
1005
B2
1070
   344
1005
B2
1002
}
  0
LINE
  5
34B9
330
1A
100
AcDbEntity
  8
SEIHIN
100
AcDbLine
 10
337.5675294656529
 20
184.1989469273753
 30
0.0
 11
339.9815689160583
 21
178.1638484582626
 31
0.0
  0
LINE
  5
34BA
330
1A
100
AcDbEntity
  8
SEIHIN
100
AcDbLine
 10
338.3763388782471
 20
184.522470700824
 30
0.0
 11
340.7903783286525
 21
178.4873722317113
 31
0.0
  0
LINE
  5
34BB
330
1A
100
AcDbEntity
  8
SEIHIN
100
AcDbLine
 10
329.3093679600239
 20
192.7277296102137
 30
0.0
 11
338.5773119587764
 21
169.5578702157038
 31
0.0
  0
LINE
  5
34BC
330
1A
100
AcDbEntity
  8
SEIHIN
100
AcDbLine
 10
323.7385078495448
 20
190.499385465008
 30
0.0
 11
333.0064518334417
 21
167.3295261076372
 31
0.0
  0
LINE
  5
34BD
330
1A
100
AcDbEntity
  8
SEIHIN
100
AcDbLine
 10
326.0544186027213
 20
172.5929881880962
 30
0.0
 11
327.1685906567546
 21
169.8075581254288
 31
0.0
  0
LINE
  5
34BE
330
1A
100
AcDbEntity
  8
SEIHIN
100
AcDbLine
 10
326.0544186027213
 20
172.5929881880962
 30
0.0
 11
322.824955613103
 21
171.3012029586649
 31
0.0
  0
LINE
  5
34BF
330
1A
100
AcDbEntity
  8
SEIHIN
100
AcDbLine
 10
322.8315697397218
 20
178.3045628837603
 30
0.0
 11
325.2456091901273
 21
172.2694644146476
 31
0.0
  0
LINE
  5
34C0
330
1A
100
AcDbEntity
  8
SEIHIN
100
AcDbLine
 10
327.1685906567546
 20
169.8075581254288
 30
0.0
 11
323.9391276671363
 21
168.5157728959975
 31
0.0
  0
LINE
  5
34C1
330
1A
100
AcDbEntity
  8
SEIHIN
100
AcDbLine
 10
322.824955613103
 20
171.3012029586649
 30
0.0
 11
323.9391276671363
 21
168.5157728959975
 31
0.0
  0
LINE
  5
34C2
330
1A
100
AcDbEntity
  8
SEIHIN
100
AcDbLine
 10
323.6403791523158
 20
178.6280866572089
 30
0.0
 11
326.0544186027213
 21
172.5929881880962
 31
0.0
  0
LINE
  5
34C3
330
1A
100
AcDbEntity
  8
SEIHIN
100
AcDbLine
 10
341.0957409700916
 20
175.3784183955953
 30
0.0
 11
344.3252039597099
 21
176.6702036250265
 31
0.0
  0
LINE
  5
34C4
330
1A
100
AcDbEntity
  8
SEIHIN
100
AcDbLine
 10
343.2110319056768
 20
179.4556336876939
 30
0.0
 11
344.3252039597099
 21
176.6702036250265
 31
0.0
  0
LINE
  5
34C5
330
1A
100
AcDbEntity
  8
SEIHIN
100
AcDbLine
 10
339.9815689160583
 20
178.1638484582626
 30
0.0
 11
343.2110319056768
 21
179.4556336876939
 31
0.0
  0
LINE
  5
34C6
330
1A
100
AcDbEntity
  8
SEIHIN
100
AcDbLine
 10
339.9815689160583
 20
178.1638484582626
 30
0.0
 11
341.0957409700916
 21
175.3784183955953
 31
0.0
  0
LINE
  5
34C7
330
1A
100
AcDbEntity
  8
CENTER_L
100
AcDbLine
 10
356.6013017555584
 20
168.9255055583638
 30
0.0
 11
351.2161368480636
 21
182.3884174770908
 31
0.0
  0
DIMENSION
  5
34C8
330
1A
100
AcDbEntity
  8
SUNPOU
100
AcDbDimension
  2
*D8
 10
375.3333247914728
 20
184.2268039363922
 30
0.0
 11
375.0547817176176
 21
191.6546174609772
 31
0.0
 70
    32
  3
STANDARD
100
AcDbAlignedDimension
 13
353.3516331541014
 23
190.5125885668972
 33
0.0
 14
360.4080561147017
 24
178.2566963104716
 34
0.0
 50
111.8014100000028
100
AcDbRotatedDimension
1001
ACAD
1000
DSTYLE
1002
{
1070
    41
1040
3.0
1070
    42
1040
3.0
1070
    43
1040
7.0
1070
    44
1040
1.5
1070
    73
1070
     0
1070
    74
1070
     0
1070
    77
1070
     3
1070
   140
1040
3.0
1070
   141
1040
3.0
1070
   147
1040
1.0
1070
   172
1070
     1
1070
   173
1070
     1
1070
   176
1070
   256
1070
   177
1070
   256
1070
   178
1070
   256
1070
   271
1070
     0
1070
   272
1070
     0
1070
   341
1005
B2
1070
     6
1000
OPEN
1070
     7
1000
OPEN
1002
}
  0
INSERT
  5
34C9
330
1A
100
AcDbEntity
  8
SUNPOU
100
AcDbBlockReference
  2
_OPEN
 10
355.7554405665904
 20
178.3613852931652
 30
0.0
 41
2.999999999999981
 42
3.0
 43
3.0
 50
251.7065953267104
1001
ACAD
1000
DSTYLE
1002
{
1070
    41
1040
3.0
1070
    42
1040
3.0
1070
    43
1040
7.0
1070
    44
1040
1.5
1070
    73
1070
     0
1070
    74
1070
     0
1070
    77
1070
     0
1070
   140
1040
3.0
1070
   141
1040
3.0
1070
   147
1040
1.0
1070
   172
1070
     1
1070
   173
1070
     1
1070
   176
1070
   256
1070
   177
1070
   256
1070
   178
1070
   256
1070
   271
1070
     0
1070
   272
1070
     0
1070
   341
1005
B2
1070
   343
1005
B2
1070
   344
1005
B2
1002
}
  0
TEXT
  5
34CA
330
1A
100
AcDbEntity
  8
SUNPOU
100
AcDbText
 10
270.913557949908
 20
190.1862195603483
 30
0.0
 40
3.0
  1
4-φ4.2
100
AcDbText
  0
CIRCLE
  5
34CB
330
1A
100
AcDbEntity
  8
SEIHIN
100
AcDbCircle
 10
352.1446135133838
 20
184.1060993889682
 30
0.0
 40
2.099999971727392
  0
LINE
  5
34CC
330
1A
100
AcDbEntity
  8
CENTER_L
100
AcDbLine
 10
357.8083212812238
 20
186.3715825550024
 30
0.0
 11
346.4809057455439
 21
181.840616222934
 31
0.0
  0
LINE
  5
34CD
330
1A
100
AcDbEntity
  8
SEIHIN
100
AcDbLine
 10
337.5675294656529
 20
184.1989469273753
 30
0.0
 11
353.3516331541014
 21
190.5125885668972
 31
0.0
  0
LINE
  5
34CE
330
1A
100
AcDbEntity
  8
SEIHIN
100
AcDbLine
 10
317.6981281974718
 20
193.4837136581016
 30
0.0
 11
318.6266048850276
 21
193.8551043427794
 31
0.0
  0
ARC
  5
34CF
330
1A
100
AcDbEntity
  8
SEIHIN
100
AcDbCircle
 10
326.5239380310571
 20
191.6135572219287
 30
0.0
 40
3.000000000000019
100
AcDbArc
 50
21.80141687549187
 51
201.8014038884509
  0
LINE
  5
34D0
330
1A
100
AcDbEntity
  8
SEIHIN
100
AcDbLine
 10
320.4888395619444
 20
189.1995177715233
 30
0.0
 11
323.7385079683898
 21
190.4993851678955
 31
0.0
  0
LINE
  5
34D1
330
1A
100
AcDbEntity
  8
SEIHIN
100
AcDbLine
 10
329.3093680937246
 20
192.727729275962
 30
0.0
 11
332.55903650017
 21
194.0275966723342
 31
0.0
  0
LINE
  5
34D2
330
1A
100
AcDbEntity
  8
SEIHIN
100
AcDbLine
 10
330.6968018232529
 20
198.6831832435903
 30
0.0
 11
331.6252785108086
 21
199.0545739282681
 31
0.0
  0
LWPOLYLINE
  5
34D3
330
1A
100
AcDbEntity
  8
SUNPOU
100
AcDbPolyline
 90
        3
 70
     0
 43
0.0
 10
356.6970900626785
 20
181.2097701383918
 10
367.807625326266
 20
214.8179018249994
 10
383.6570751667703
 20
214.8179018249994
1001
ACAD
1000
DSTYLE
1002
{
1070
    41
1040
3.0
1070
    42
1040
3.0
1070
    43
1040
7.0
1070
    44
1040
1.5
1070
    73
1070
     0
1070
    74
1070
     0
1070
    77
1070
     0
1070
   140
1040
3.0
1070
   141
1040
3.0
1070
   147
1040
1.0
1070
   172
1070
     1
1070
   173
1070
     1
1070
   176
1070
   256
1070
   177
1070
   256
1070
   178
1070
   256
1070
   271
1070
     0
1070
   272
1070
     0
1070
   341
1005
B2
1070
   343
1005
B2
1070
   344
1005
B2
1002
}
  0
ARC
  5
34D4
330
1A
100
AcDbEntity
  8
SEIHIN
100
AcDbCircle
 10
354.0944145234569
 20
188.6556351917856
 30
0.0
 40
2.0
100
AcDbArc
 50
21.80140999999828
 51
111.8014099999993
  0
TEXT
  5
34D5
330
1A
100
AcDbEntity
  8
SUNPOU
100
AcDbText
 10
368.1472305400919
 20
216.1222487376199
 30
0.0
 40
3.0
  1
2-φ6.5
100
AcDbText
  0
ARC
  5
34D6
330
1A
100
AcDbEntity
  8
SEIHIN
 62
     3
100
AcDbCircle
 10
210.6608789619006
 20
232.5424371977774
 30
0.0
 40
7.826647520660156
100
AcDbArc
 50
338.4486589066006
 51
21.55134109339934
  0
LINE
  5
34D7
330
1A
100
AcDbEntity
  8
SEIHIN
 62
     3
100
AcDbLine
 10
211.5408865622728
 20
237.5674371977775
 30
0.0
 11
211.5408865622728
 21
222.2687769977774
 31
0.0
  0
LINE
  5
34D8
330
1A
100
AcDbEntity
  8
SEIHIN
 62
     3
100
AcDbLine
 10
212.7408865622729
 20
222.8904887977774
 30
0.0
 11
212.7408865622729
 21
237.5674371977775
 31
0.0
  0
LINE
  5
34D9
330
1A
100
AcDbEntity
  8
SEIHIN
 62
     3
100
AcDbLine
 10
226.1109509122728
 20
222.8904890977775
 30
0.0
 11
226.1109509122728
 21
237.5674371977776
 31
0.0
  0
ARC
  5
34DA
330
1A
100
AcDbEntity
  8
SEIHIN
 62
     3
100
AcDbCircle
 10
210.2278575506848
 20
234.0674371877775
 30
0.0
 40
5.185616510013183
100
AcDbArc
 50
336.1109838266001
 51
23.88901617339984
  0
ARC
  5
34DB
330
1A
100
AcDbEntity
  8
SEIHIN
 62
     3
100
AcDbCircle
 10
219.1412337738607
 20
234.0674371877775
 30
0.0
 40
5.185616519156494
100
AcDbArc
 50
336.1109838713467
 51
23.88901612865324
  0
ELLIPSE
  5
34DC
330
1A
100
AcDbEntity
  8
SEIHIN
 62
     3
100
AcDbEllipse
 10
223.8826068538608
 20
234.0674371877775
 30
0.0
 11
0.0
 21
-2.1000000000672
 31
0.0
210
0.0
220
0.0
230
-1.0
 40
0.4867014234079679
 41
-1.570796326794896
 42
4.712388980384689
  0
ELLIPSE
  5
34DD
330
1A
100
AcDbEntity
  8
SEIHIN
 62
     3
100
AcDbEllipse
 10
217.9403560319008
 20
232.5424371977774
 30
0.0
 11
0.0
 21
-2.874999999613672
 31
0.0
210
0.0
220
0.0
230
-1.0
 40
0.3913043478762229
 41
-1.570796326794896
 42
4.712388980384689
  0
ELLIPSE
  5
34DE
330
1A
100
AcDbEntity
  8
SEIHIN
 62
     3
100
AcDbEllipse
 10
214.9692306206848
 20
234.0674371877775
 30
0.0
 11
0.0
 21
-2.1000000000672
 31
0.0
210
0.0
220
0.0
230
-1.0
 40
0.4867014234079679
 41
-1.570796326794896
 42
4.712388980384689
  0
DIMENSION
  5
34DF
330
1A
100
AcDbEntity
  8
SUNPOU
100
AcDbDimension
  2
*D4
 10
244.5425815459334
 20
186.5674375577774
 30
0.0
 11
242.0425815459334
 21
213.0674375777775
 31
0.0
 70
    32
  3
STANDARD
100
AcDbAlignedDimension
 13
223.1109513522729
 23
239.5674375977774
 33
0.0
 14
223.1109513522729
 24
186.5674375577774
 34
0.0
 50
90.0
100
AcDbRotatedDimension
1001
ACAD
1000
DSTYLE
1002
{
1070
    41
1040
3.0
1070
    42
1040
3.0
1070
    43
1040
7.0
1070
    44
1040
1.5
1070
    73
1070
     0
1070
    74
1070
     0
1070
    77
1070
     3
1070
   140
1040
3.0
1070
   141
1040
3.0
1070
   147
1040
1.0
1070
   172
1070
     1
1070
   173
1070
     1
1070
   176
1070
   256
1070
   177
1070
   256
1070
   178
1070
   256
1070
   271
1070
     0
1070
   272
1070
     0
1070
   341
1005
B2
1070
     6
1000
OPEN
1070
     7
1000
OPEN
1002
}
  0
ELLIPSE
  5
34E0
330
1A
100
AcDbEntity
  8
SEIHIN
 62
     3
100
AcDbEllipse
 10
223.8826068538608
 20
192.0674371877774
 30
0.0
 11
0.0
 21
2.1000000000672
 31
0.0
210
0.0
220
0.0
230
1.0
 40
0.4867014234079679
 41
-1.570796326794896
 42
4.712388980384689
  0
ELLIPSE
  5
34E1
330
1A
100
AcDbEntity
  8
SEIHIN
 62
     3
100
AcDbEllipse
 10
217.9403560319008
 20
193.5924371777775
 30
0.0
 11
0.0
 21
2.874999999613672
 31
0.0
210
0.0
220
0.0
230
1.0
 40
0.3913043478762229
 41
-1.570796326794896
 42
4.712388980384689
  0
ELLIPSE
  5
34E2
330
1A
100
AcDbEntity
  8
SEIHIN
 62
     3
100
AcDbEllipse
 10
214.9692306206848
 20
192.0674371877774
 30
0.0
 11
0.0
 21
2.1000000000672
 31
0.0
210
0.0
220
0.0
230
1.0
 40
0.4867014234079679
 41
-1.570796326794896
 42
4.712388980384689
  0
ELLIPSE
  5
34E3
330
1A
100
AcDbEntity
  8
SEIHIN
 62
     3
100
AcDbEllipse
 10
219.8123906722729
 20
213.0674371977775
 30
0.0
 11
0.0
 21
-2.8559114857152
 31
0.0
210
0.0
220
0.0
230
-1.0
 40
0.4680467910551545
 41
-1.570796326794896
 42
4.712388980384689
  0
ELLIPSE
  5
34E4
330
1A
100
AcDbEntity
  8
SEIHIN
100
AcDbEllipse
 10
225.3681695600792
 20
188.5674371777773
 30
0.0
 11
0.0
 21
-2.0
 31
0.0
210
0.0
220
0.0
230
-1.0
 40
0.371390676096766
 41
4.712388980384689
 42
6.283185307179586
  0
ELLIPSE
  5
34E5
330
1A
100
AcDbEntity
  8
SEIHIN
100
AcDbEllipse
 10
213.4836679144662
 20
188.5674371777774
 30
0.0
 11
0.0
 21
-2.0
 31
0.0
210
0.0
220
0.0
230
-1.0
 40
0.371390676096766
 41
0.0
 42
1.570796326794896
  0
ELLIPSE
  5
34E6
330
1A
100
AcDbEntity
  8
SEIHIN
100
AcDbEllipse
 10
212.2836679144664
 20
188.5674371777774
 30
0.0
 11
0.0
 21
-2.0
 31
0.0
210
0.0
220
0.0
230
-1.0
 40
0.371390676096766
 41
0.0
 42
1.570796326794896
  0
SPLINE
  5
34E7
330
1A
100
AcDbEntity
  8
SEIHIN
 62
     3
100
AcDbSpline
210
0.0
220
0.0
230
1.0
 70
     8
 71
     3
 72
    43
 73
    39
 74
     0
 42
0.0000000001
 43
0.0000000001
 40
2.573801265649998
 40
2.573801265649998
 40
2.573801265649998
 40
2.573801265649998
 40
2.743484381278567
 40
2.743484381278567
 40
2.952958003969503
 40
2.952958003969503
 40
3.162431626660439
 40
3.162431626660439
 40
3.371905249351375
 40
3.371905249351375
 40
3.581378872042312
 40
3.581378872042312
 40
3.790852494733248
 40
3.790852494733248
 40
4.212890898554042
 40
4.212890898554042
 40
4.634929302374836
 40
4.634929302374836
 40
4.712388980384689
 40
4.712388980384689
 40
4.712388980384689
 40
5.035006403854932
 40
5.035006403854932
 40
5.40458618261824
 40
5.40458618261824
 40
5.774165961381548
 40
5.774165961381548
 40
6.00394318856648
 40
6.00394318856648
 40
6.233720415751411
 40
6.233720415751411
 40
6.426033209648384
 40
6.426033209648384
 40
6.618346003545356
 40
6.618346003545356
 40
6.810658797442329
 40
6.810658797442329
 40
6.850740483263655
 40
6.850740483263655
 40
6.850740483263655
 40
6.850740483263655
 10
218.2869303549811
 20
216.0674371677753
 30
0.0
 10
218.3858811965058
 20
216.202340790791
 30
0.0
 10
218.4975925862617
 20
216.3286192252495
 30
0.0
 10
218.7841053967386
 20
216.5860663347674
 30
0.0
 10
218.9696405976754
 20
216.7111700282581
 30
0.0
 10
219.3984946070049
 20
216.8860886492957
 30
0.0
 10
219.642610725256
 20
216.9325201131485
 30
0.0
 10
220.126848769344
 20
216.9109571311435
 30
0.0
 10
220.3620804812889
 20
216.8438949411353
 30
0.0
 10
220.7687911850862
 20
216.6401488000006
 30
0.0
 10
220.9420870573944
 20
216.5059787294923
 30
0.0
 10
221.2388182236409
 20
216.2076799905471
 30
0.0
 10
221.363397057003
 20
216.0428285597143
 30
0.0
 10
221.6900234066569
 20
215.5131346516419
 30
0.0
 10
221.8447573775
 20
215.1132272383564
 30
0.0
 10
222.064598986728
 20
214.252420410693
 30
0.0
 10
222.1274705319942
 20
213.791411244028
 30
0.0
 10
222.1475351070902
 20
213.2390856090671
 30
0.0
 10
222.1490908786993
 20
213.1532614437231
 30
0.0
 10
222.1490908786993
 20
213.0674371977775
 30
0.0
 10
222.1490908786993
 20
212.7099815794527
 30
0.0
 10
222.1221271296461
 20
212.3526266380279
 30
0.0
 10
222.0062261469373
 20
211.6118869282277
 30
0.0
 10
221.9094068287665
 20
211.232645076451
 30
0.0
 10
221.6380310041034
 20
210.5332732703971
 30
0.0
 10
221.4653845371155
 20
210.211655248886
 30
0.0
 10
221.083645106163
 20
209.756491218315
 30
0.0
 10
220.9114251919451
 20
209.5969992989023
 30
0.0
 10
220.4949887017431
 20
209.3418827498643
 30
0.0
 10
220.2472513898561
 20
209.2484453639784
 30
0.0
 10
219.7630585446051
 20
209.1972323229199
 30
0.0
 10
219.5352707983463
 20
209.221145108808
 30
0.0
 10
219.1214439665082
 20
209.3483112198323
 30
0.0
 10
218.9359399850599
 20
209.4489669517034
 30
0.0
 10
218.6155102615439
 20
209.6874176580326
 30
0.0
 10
218.4791304811885
 20
209.8251003566325
 30
0.0
 10
218.3351884500062
 20
210.0042497255401
 30
0.0
 10
218.3110752084497
 20
210.0356167844861
 30
0.0
 10
218.2876440991756
 20
210.0674371677918
 30
0.0
  0
LINE
  5
34EF
330
1A
100
AcDbEntity
  8
CENTER_L
100
AcDbLine
 10
220.9164508718452
 20
234.0674371777775
 30
0.0
 11
228.961052312568
 21
234.0674371777775
 31
0.0
  0
LINE
  5
34F0
330
1A
100
AcDbEntity
  8
CENTER_L
100
AcDbLine
 10
220.9164508718452
 20
192.0674371977774
 30
0.0
 11
228.961052312568
 21
192.0674371977774
 31
0.0
  0
LINE
  5
34F1
330
1A
100
AcDbEntity
  8
SEIHIN
 62
     3
100
AcDbLine
 10
226.1109509122728
 20
203.2443852077775
 30
0.0
 11
226.1109509122728
 21
188.5674371777773
 31
0.0
  0
LINE
  5
34F2
330
1A
100
AcDbEntity
  8
SEIHIN
 62
     3
100
AcDbLine
 10
212.7408865622729
 20
203.2443855877775
 30
0.0
 11
212.7408865622729
 21
188.5674371777774
 31
0.0
  0
LINE
  5
34F3
330
1A
100
AcDbEntity
  8
SEIHIN
 62
     3
100
AcDbLine
 10
211.5408865622728
 20
188.5674371777774
 30
0.0
 11
211.5408865622728
 21
203.7324897077775
 31
0.0
  0
LINE
  5
34F4
330
1A
100
AcDbEntity
  8
CENTER_L
100
AcDbLine
 10
210.9469299003304
 20
192.0674371977774
 30
0.0
 11
218.9915313410531
 21
192.0674371977774
 31
0.0
  0
LINE
  5
34F5
330
1A
100
AcDbEntity
  8
SEIHIN
 62
     3
100
AcDbLine
 10
225.3681695600792
 20
186.5674371777775
 30
0.0
 11
212.2836679144664
 21
186.5674371777775
 31
0.0
  0
LINE
  5
34F6
330
1A
100
AcDbEntity
  8
CENTER_L
100
AcDbLine
 10
213.8148915451379
 20
193.5924371777775
 30
0.0
 11
222.0653560318938
 21
193.5924371777775
 31
0.0
  0
ARC
  5
34F7
330
1A
100
AcDbEntity
  8
SEIHIN
 62
     3
100
AcDbCircle
 10
210.6608789619006
 20
193.5924371777775
 30
0.0
 40
7.826647520660156
100
AcDbArc
 50
338.4486589066006
 51
21.55134109339934
  0
ARC
  5
34F8
330
1A
100
AcDbEntity
  8
SEIHIN
 62
     3
100
AcDbCircle
 10
210.2278575506848
 20
192.0674371877774
 30
0.0
 40
5.185616510013183
100
AcDbArc
 50
336.1109838266001
 51
23.88901617339984
  0
ARC
  5
34F9
330
1A
100
AcDbEntity
  8
SEIHIN
 62
     3
100
AcDbCircle
 10
219.1412337738607
 20
192.0674371877774
 30
0.0
 40
5.185616519156494
100
AcDbArc
 50
336.1109838713467
 51
23.88901612865324
  0
LINE
  5
34FA
330
1A
100
AcDbEntity
  8
SEIHIN
100
AcDbLine
 10
195.7206787202196
 20
219.5674372077775
 30
0.0
 11
195.7206787202196
 21
216.0674371677774
 31
0.0
  0
LINE
  5
34FB
330
1A
100
AcDbEntity
  8
SEIHIN
100
AcDbLine
 10
195.7206787202196
 20
210.0674371677774
 30
0.0
 11
195.7206787202196
 21
206.5674371677774
 31
0.0
  0
LINE
  5
34FC
330
1A
100
AcDbEntity
  8
SEIHIN
100
AcDbLine
 10
191.2989090636257
 20
206.5674371677774
 30
0.0
 11
191.2989090636257
 21
205.5674371677775
 31
0.0
  0
ARC
  5
34FD
330
1A
100
AcDbEntity
  8
SEIHIN
100
AcDbCircle
 10
196.9706787202196
 20
213.0674371677774
 30
0.0
 40
3.25
100
AcDbArc
 50
112.6198649480422
 51
247.3801350519577
  0
LINE
  5
34FE
330
1A
100
AcDbEntity
  8
SEIHIN
100
AcDbLine
 10
191.2989090636257
 20
220.5674372077775
 30
0.0
 11
191.2989090636257
 21
219.5674372077775
 31
0.0
  0
LINE
  5
34FF
330
1A
100
AcDbEntity
  8
SEIHIN
100
AcDbLine
 10
206.3991704468042
 20
216.0674371977775
 30
0.0
 11
206.3991704468042
 21
219.5674371977775
 31
0.0
  0
LINE
  5
3500
330
1A
100
AcDbEntity
  8
SEIHIN
 62
     3
100
AcDbLine
 10
224.0832838622728
 20
220.5674371977774
 30
0.0
 11
224.0832838622728
 21
205.5674371777775
 31
0.0
  0
ARC
  5
3501
330
1A
100
AcDbEntity
  8
SEIHIN
 62
     3
100
AcDbCircle
 10
211.0408865622728
 20
203.2443855877775
 30
0.0
 40
1.700000000443591
100
AcDbArc
 50
0.0
 51
81.00000002413239
  0
LINE
  5
3502
330
1A
100
AcDbEntity
  8
SEIHIN
100
AcDbLine
 10
206.3991704468042
 20
210.0674371977774
 30
0.0
 11
206.3991704468042
 21
206.5674371777774
 31
0.0
  0
ARC
  5
3503
330
1A
100
AcDbEntity
  8
SEIHIN
 62
     3
100
AcDbCircle
 10
211.1863763222728
 20
205.9276736977774
 30
0.0
 40
1.700000004646646
100
AcDbArc
 50
194.5485455204778
 51
266.2081647342351
  0
LINE
  5
3504
330
1A
100
AcDbEntity
  8
SEIHIN
 62
     3
100
AcDbLine
 10
211.3068251522727
 20
204.9234557677775
 30
0.0
 11
210.6628437422728
 21
205.5674371777775
 31
0.0
  0
ARC
  5
3505
330
1A
100
AcDbEntity
  8
SEIHIN
 62
     3
100
AcDbCircle
 10
211.0408865622728
 20
203.7324897077775
 30
0.0
 40
0.4999999992379602
100
AcDbArc
 50
0.0
 51
86.20816538453839
  0
LINE
  5
3506
330
1A
100
AcDbEntity
  8
SEIHIN
100
AcDbLine
 10
209.2369645431574
 20
206.5674371777774
 30
0.0
 11
209.2369645431574
 21
205.5674371777775
 31
0.0
  0
ARC
  5
3507
330
1A
100
AcDbEntity
  8
SEIHIN
100
AcDbCircle
 10
205.149170446804
 20
213.0674371677775
 30
0.0
 40
3.25
100
AcDbArc
 50
292.6198649480422
 51
67.38013505195772
  0
LINE
  5
3508
330
1A
100
AcDbEntity
  8
SEIHIN
 62
     3
100
AcDbLine
 10
217.4756035922728
 20
204.0690229577774
 30
0.0
 11
221.6259303822728
 21
204.0690229577774
 31
0.0
  0
LINE
  5
3509
330
1A
100
AcDbEntity
  8
SEIHIN
 62
     3
100
AcDbLine
 10
217.0477993122729
 20
205.5674371777775
 30
0.0
 11
217.0477993122729
 21
202.5674371777774
 31
0.0
  0
LINE
  5
350A
330
1A
100
AcDbEntity
  8
SEIHIN
 62
     3
100
AcDbLine
 10
215.6583976022728
 20
202.5674371777774
 30
0.0
 11
215.6583976022728
 21
205.5674371777775
 31
0.0
  0
LINE
  5
350B
330
1A
100
AcDbEntity
  8
SEIHIN
 62
     3
100
AcDbLine
 10
213.9408865622727
 20
204.0690229577774
 30
0.0
 11
215.3174336522727
 21
204.0690229577774
 31
0.0
  0
LINE
  5
350C
330
1A
100
AcDbEntity
  8
SEIHIN
 62
     3
100
AcDbLine
 10
217.0477993122729
 20
202.5674371777774
 30
0.0
 11
215.6583976022728
 21
204.6386319877774
 31
0.0
  0
LINE
  5
350D
330
1A
100
AcDbEntity
  8
SEIHIN
 62
     3
100
AcDbLine
 10
215.6583976022728
 20
202.5674371777774
 30
0.0
 11
217.0477993122729
 21
202.5674371777774
 31
0.0
  0
ARC
  5
350E
330
1A
100
AcDbEntity
  8
SEIHIN
 62
     3
100
AcDbCircle
 10
224.4109509122727
 20
203.2443855877775
 30
0.0
 40
1.700000000443612
100
AcDbArc
 50
359.9999871927081
 51
81.00000002413239
  0
LINE
  5
350F
330
1A
100
AcDbEntity
  8
SEIHIN
 62
     3
100
AcDbLine
 10
223.4303634222729
 20
205.5674371777775
 30
0.0
 11
223.4303634222729
 21
202.5674371777774
 31
0.0
  0
LINE
  5
3510
330
1A
100
AcDbEntity
  8
SEIHIN
 62
     3
100
AcDbLine
 10
222.0409617122728
 20
202.5674371777774
 30
0.0
 11
222.0409617122728
 21
205.5674371777775
 31
0.0
  0
LINE
  5
3511
330
1A
100
AcDbEntity
  8
SEIHIN
 62
     3
100
AcDbLine
 10
223.4303634222729
 20
202.5674371777774
 30
0.0
 11
222.0409617122728
 21
204.6386319877774
 31
0.0
  0
LINE
  5
3512
330
1A
100
AcDbEntity
  8
SEIHIN
 62
     3
100
AcDbLine
 10
222.0409617122728
 20
202.5674371777774
 30
0.0
 11
223.4303634222729
 21
202.5674371777774
 31
0.0
  0
LINE
  5
3513
330
1A
100
AcDbEntity
  8
SEIHIN
 62
     3
100
AcDbLine
 10
224.0832838622728
 20
205.5674371777775
 30
0.0
 11
224.0832838622728
 21
206.5674371777774
 31
0.0
  0
LINE
  5
3514
330
1A
100
AcDbEntity
  8
SEIHIN
 62
     3
100
AcDbLine
 10
223.8117691622729
 20
204.0674371777774
 30
0.0
 11
225.4165621922727
 21
204.0674371777774
 31
0.0
  0
LINE
  5
3515
330
1A
100
AcDbEntity
  8
SEIHIN
 62
     3
100
AcDbLine
 10
224.6768895022729
 20
204.9234557677775
 30
0.0
 11
224.0329080922727
 21
205.5674371777775
 31
0.0
  0
ARC
  5
3516
330
1A
100
AcDbEntity
  8
SEIHIN
 62
     3
100
AcDbCircle
 10
211.0408865622728
 20
222.8904887977774
 30
0.0
 40
1.700000010320475
100
AcDbArc
 50
278.9999998704205
 51
0.0
  0
LINE
  5
3517
330
1A
100
AcDbEntity
  8
CENTER_L
100
AcDbLine
 10
210.9469299003304
 20
234.0674371777775
 30
0.0
 11
218.9915313410531
 21
234.0674371777775
 31
0.0
  0
ARC
  5
3518
330
1A
100
AcDbEntity
  8
SEIHIN
 62
     3
100
AcDbCircle
 10
211.1863763222728
 20
220.0735929977775
 30
0.0
 40
1.699999989349252
100
AcDbArc
 50
93.79183535491852
 51
163.1123117581124
  0
LINE
  5
3519
330
1A
100
AcDbEntity
  8
SEIHIN
100
AcDbLine
 10
209.2369645431574
 20
219.5674371977775
 30
0.0
 11
209.2369645431574
 21
220.5674371977774
 31
0.0
  0
LINE
  5
351A
330
1A
100
AcDbEntity
  8
SEIHIN
 62
     3
100
AcDbLine
 10
211.3068251522727
 20
221.2114185977774
 30
0.0
 11
210.6628437422728
 21
220.5674371977774
 31
0.0
  0
ARC
  5
351B
330
1A
100
AcDbEntity
  8
SEIHIN
 62
     3
100
AcDbCircle
 10
211.0408865622728
 20
222.2687769977774
 30
0.0
 40
0.5000000241832313
100
AcDbArc
 50
273.791834236553
 51
0.0
  0
LINE
  5
351C
330
1A
100
AcDbEntity
  8
SEIHIN
 62
     3
100
AcDbLine
 10
217.4756035922728
 20
222.0658513977775
 30
0.0
 11
221.6259303822728
 21
222.0658513977775
 31
0.0
  0
LINE
  5
351D
330
1A
100
AcDbEntity
  8
SEIHIN
 62
     3
100
AcDbLine
 10
217.0477993122729
 20
220.5674371977774
 30
0.0
 11
217.0477993122729
 21
223.5674371977775
 31
0.0
  0
LINE
  5
351E
330
1A
100
AcDbEntity
  8
SEIHIN
 62
     3
100
AcDbLine
 10
215.6583976022728
 20
223.5674371977775
 30
0.0
 11
215.6583976022728
 21
220.5674371977774
 31
0.0
  0
LINE
  5
351F
330
1A
100
AcDbEntity
  8
SEIHIN
 62
     3
100
AcDbLine
 10
213.9408865622727
 20
222.0658513977775
 30
0.0
 11
215.3174336522727
 21
222.0658513977775
 31
0.0
  0
LINE
  5
3520
330
1A
100
AcDbEntity
  8
SEIHIN
 62
     3
100
AcDbLine
 10
215.6583976022728
 20
223.5674371977775
 30
0.0
 11
217.0477993122729
 21
223.5674371977775
 31
0.0
  0
LINE
  5
3521
330
1A
100
AcDbEntity
  8
SEIHIN
 62
     3
100
AcDbLine
 10
217.0477993122729
 20
223.5674371977775
 30
0.0
 11
215.6583976022728
 21
221.4962423977774
 31
0.0
  0
ARC
  5
3522
330
1A
100
AcDbEntity
  8
SEIHIN
 62
     3
100
AcDbCircle
 10
224.4109509122727
 20
222.8904887977774
 30
0.0
 40
1.700000010320488
100
AcDbArc
 50
278.9999998704205
 51
0.0000101110185475
  0
LINE
  5
3523
330
1A
100
AcDbEntity
  8
SEIHIN
 62
     3
100
AcDbLine
 10
222.0409617122728
 20
223.5674371977775
 30
0.0
 11
222.0409617122728
 21
220.5674371977774
 31
0.0
  0
LINE
  5
3524
330
1A
100
AcDbEntity
  8
SEIHIN
 62
     3
100
AcDbLine
 10
223.4303634222729
 20
220.5674371977774
 30
0.0
 11
223.4303634222729
 21
223.5674371977775
 31
0.0
  0
LINE
  5
3525
330
1A
100
AcDbEntity
  8
SEIHIN
 62
     3
100
AcDbLine
 10
224.0832838622728
 20
220.5674371977774
 30
0.0
 11
224.0832838622728
 21
219.5674371977775
 31
0.0
  0
LINE
  5
3526
330
1A
100
AcDbEntity
  8
SEIHIN
 62
     3
100
AcDbLine
 10
222.0409617122728
 20
223.5674371977775
 30
0.0
 11
223.4303634222729
 21
223.5674371977775
 31
0.0
  0
LINE
  5
3527
330
1A
100
AcDbEntity
  8
SEIHIN
 62
     3
100
AcDbLine
 10
223.4303634222729
 20
223.5674371977775
 30
0.0
 11
222.0409617122728
 21
221.4962423977774
 31
0.0
  0
LINE
  5
3528
330
1A
100
AcDbEntity
  8
SEIHIN
 62
     3
100
AcDbLine
 10
224.6768895022729
 20
221.2114185977774
 30
0.0
 11
224.0329080922727
 21
220.5674371977774
 31
0.0
  0
LINE
  5
3529
330
1A
100
AcDbEntity
  8
SEIHIN
 62
     3
100
AcDbLine
 10
223.8117691622729
 20
222.0674371977775
 30
0.0
 11
225.4165621922727
 21
222.0674371977775
 31
0.0
  0
LINE
  5
352A
330
1A
100
AcDbEntity
  8
CENTER_L
100
AcDbLine
 10
213.8148915451379
 20
232.5424371977774
 30
0.0
 11
222.0653560318938
 21
232.5424371977774
 31
0.0
  0
ELLIPSE
  5
352B
330
1A
100
AcDbEntity
  8
SEIHIN
100
AcDbEllipse
 10
225.3681695600792
 20
237.5674371977776
 30
0.0
 11
0.0
 21
2.0
 31
0.0
210
0.0
220
0.0
230
1.0
 40
0.371390676096766
 41
4.712388980384689
 42
6.283185307179586
  0
ELLIPSE
  5
352C
330
1A
100
AcDbEntity
  8
SEIHIN
100
AcDbEllipse
 10
213.4836679144662
 20
237.5674371977775
 30
0.0
 11
0.0
 21
2.0
 31
0.0
210
0.0
220
0.0
230
1.0
 40
0.371390676096766
 41
0.0
 42
1.570796326794896
  0
ELLIPSE
  5
352D
330
1A
100
AcDbEntity
  8
SEIHIN
100
AcDbEllipse
 10
212.2836679144664
 20
237.5674371977775
 30
0.0
 11
0.0
 21
2.0
 31
0.0
210
0.0
220
0.0
230
1.0
 40
0.371390676096766
 41
0.0
 42
1.570796326794896
  0
LINE
  5
352E
330
1A
100
AcDbEntity
  8
SEIHIN
 62
     3
100
AcDbLine
 10
225.3681695600792
 20
239.5674371977775
 30
0.0
 11
212.2836679144664
 21
239.5674371977775
 31
0.0
  0
DIMENSION
  5
36BE
330
1A
100
AcDbEntity
  8
SUNPOU
100
AcDbDimension
  2
*D12
 10
207.5457303239244
 20
93.41704068664173
 30
0.0
 11
203.1818898760992
 21
111.0580978131228
 31
0.0
 70
    33
  3
STANDARD
100
AcDbAlignedDimension
 13
206.5200927322728
 23
131.7799722615719
 33
0.0
 14
219.8901570822728
 24
98.35481139057197
 34
0.0
1001
ACAD
1000
DSTYLE
1002
{
1070
    41
1040
3.0
1070
    42
1040
3.0
1070
    43
1040
7.0
1070
    44
1040
1.5
1070
    73
1070
     0
1070
    74
1070
     0
1070
    77
1070
     3
1070
   140
1040
3.0
1070
   141
1040
3.0
1070
   147
1040
1.0
1070
   172
1070
     1
1070
   173
1070
     1
1070
   176
1070
   256
1070
   177
1070
   256
1070
   178
1070
   256
1070
   271
1070
     0
1070
   272
1070
     0
1070
   341
1005
B2
1070
     6
1000
OPEN
1070
     7
1000
OPEN
1002
}
  0
DIMENSION
  5
36CB
330
1A
100
AcDbEntity
  8
SUNPOU
100
AcDbDimension
  2
*D13
 10
208.8936880754504
 20
170.0319021392708
 30
0.0
 11
132.4496013338616
 21
172.5319021392708
 31
0.0
 70
    32
  3
STANDARD
100
AcDbAlignedDimension
 13
56.00551459227279
 23
95.33395871057194
 33
0.0
 14
208.8936880754504
 24
143.8862860036891
 34
0.0
100
AcDbRotatedDimension
1001
ACAD
1000
DSTYLE
1002
{
1070
    41
1040
3.0
1070
    42
1040
3.0
1070
    43
1040
7.0
1070
    44
1040
1.5
1070
    73
1070
     0
1070
    74
1070
     0
1070
    77
1070
     3
1070
   140
1040
3.0
1070
   141
1040
3.0
1070
   147
1040
1.0
1070
   172
1070
     1
1070
   173
1070
     1
1070
   176
1070
   256
1070
   177
1070
   256
1070
   178
1070
   256
1070
   271
1070
     0
1070
   272
1070
     0
1070
   341
1005
B2
1070
     6
1000
OPEN
1070
     7
1000
OPEN
1002
}
  0
DIMENSION
  5
36D8
330
1A
100
AcDbEntity
  8
SUNPOU
100
AcDbDimension
  2
*D14
 10
30.12025194562326
 20
100.843128920572
 30
0.0
 11
27.62025194562325
 21
108.343128920572
 31
0.0
 70
    32
  3
STANDARD
100
AcDbAlignedDimension
 13
59.18010876337952
 23
100.11471713549
 33
0.0
 14
226.1109509122728
 24
100.8431289205719
 34
0.0
 50
90.0
100
AcDbRotatedDimension
1001
ACAD
1000
DSTYLE
1002
{
1070
    41
1040
3.0
1070
    42
1040
3.0
1070
    43
1040
7.0
1070
    44
1040
1.5
1070
    73
1070
     0
1070
    74
1070
     0
1070
    77
1070
     3
1070
   140
1040
3.0
1070
   141
1040
3.0
1070
   147
1040
1.0
1070
   172
1070
     1
1070
   173
1070
     1
1070
   176
1070
   256
1070
   177
1070
   256
1070
   178
1070
   256
1070
   271
1070
     0
1070
   272
1070
     0
1070
   341
1005
B2
1070
     6
1000
OPEN
1070
     7
1000
OPEN
1002
}
  0
DIMENSION
  5
3778
330
1A
100
AcDbEntity
  8
SUNPOU
100
AcDbDimension
  2
*D15
 10
208.8936880754504
 20
161.5554066637709
 30
0.0
 11
191.4496513338616
 21
164.0554066637708
 31
0.0
 70
    32
  3
STANDARD
100
AcDbAlignedDimension
 13
174.0056145922728
 23
103.6562818315719
 33
0.0
 14
208.8936880754504
 24
143.8862860036891
 34
0.0
100
AcDbRotatedDimension
1001
ACAD
1000
DSTYLE
1002
{
1070
    41
1040
3.0
1070
    42
1040
3.0
1070
    43
1040
7.0
1070
    44
1040
1.5
1070
    73
1070
     0
1070
    74
1070
     0
1070
    77
1070
     3
1070
   140
1040
3.0
1070
   141
1040
3.0
1070
   147
1040
1.0
1070
   172
1070
     1
1070
   173
1070
     1
1070
   176
1070
   256
1070
   177
1070
   256
1070
   178
1070
   256
1070
   271
1070
     0
1070
   272
1070
     0
1070
   341
1005
B2
1070
     6
1000
OPEN
1070
     7
1000
OPEN
1002
}
  0
LINE
  5
37C4
330
1A
100
AcDbEntity
  8
SUNPOU
100
AcDbLine
 10
233.5387644342082
 20
72.27359510080815
 30
0.0
 11
233.5387644342082
 21
82.27359510080814
 31
0.0
  0
LINE
  5
37C5
330
1A
100
AcDbEntity
  8
SUNPOU
100
AcDbLine
 10
237.5387644342082
 20
72.27359510080815
 30
0.0
 11
233.5387644342082
 21
72.27359510080815
 31
0.0
  0
LINE
  5
37C9
330
1A
100
AcDbEntity
  8
SUNPOU
100
AcDbLine
 10
226.1109509071261
 20
100.8431289185133
 30
0.0
 11
237.5387644342082
 21
72.27359510080815
 31
0.0
  0
TEXT
  5
37CA
330
1A
100
AcDbEntity
  8
SUNPOU
100
AcDbText
 10
227.8197450480118
 20
76.43273742552422
 30
0.0
 40
3.0
  1
10
100
AcDbText
  0
TEXT
  5
37CB
330
1A
100
AcDbEntity
  8
SUNPOU
100
AcDbText
 10
234.2948886457991
 20
67.19019832041055
 30
0.0
 40
3.0
  1
4
100
AcDbText
  0
LINE
  5
3908
330
1A
100
AcDbEntity
  8
ZUWAKU
100
AcDbLine
 10
104.3233009651347
 20
7.600000176923909
 30
0.0
 11
223.7121823055964
 21
7.600000176923906
 31
0.0
  0
LINE
  5
3909
330
1A
100
AcDbEntity
  8
ZUWAKU
100
AcDbLine
 10
104.3233009651347
 20
7.800000176923907
 30
0.0
 11
223.7121823055964
 21
7.80000017692391
 31
0.0
  0
LINE
  5
390A
330
1A
100
AcDbEntity
  8
ZUWAKU
100
AcDbLine
 10
104.3233009651347
 20
7.700000176923907
 30
0.0
 11
223.7121823055964
 21
7.700000176923907
 31
0.0
  0
LINE
  5
390B
330
1A
100
AcDbEntity
  8
ZUWAKU
100
AcDbLine
 10
0.000000320100753
 20
15.40000017692389
 30
0.0
 11
398.7000003201007
 21
15.40000017692389
 31
0.0
  0
LINE
  5
390C
330
1A
100
AcDbEntity
  8
ZUWAKU
100
AcDbLine
 10
0.000000320100753
 20
15.30000017692389
 30
0.0
 11
398.7000003201007
 21
15.30000017692389
 31
0.0
  0
LINE
  5
390D
330
1A
100
AcDbEntity
  8
ZUWAKU
100
AcDbLine
 10
0.000000320100753
 20
15.20000017692389
 30
0.0
 11
398.7000003201007
 21
15.20000017692389
 31
0.0
  0
LINE
  5
390E
330
1A
100
AcDbEntity
  8
ZUWAKU
100
AcDbLine
 10
0.000000320100753
 20
15.10000017692389
 30
0.0
 11
398.7000003201007
 21
15.10000017692389
 31
0.0
  0
LINE
  5
390F
330
1A
100
AcDbEntity
  8
ZUWAKU
100
AcDbLine
 10
0.000000320100753
 20
15.00000017692389
 30
0.0
 11
398.7000003201007
 21
15.00000017692389
 31
0.0
  0
LWPOLYLINE
  5
3910
330
1A
100
AcDbEntity
  8
ZUWAKU
100
AcDbPolyline
 90
        4
 70
     1
 43
0.0
 10
0.1000003201007189
 20
275.7000001769239
 10
0.1000003201007189
 20
0.1000001769239134
 10
398.7000003201007
 20
0.1000001769239249
 10
398.7000003201007
 20
275.7000001769239
  0
LWPOLYLINE
  5
3911
330
1A
100
AcDbEntity
  8
ZUWAKU
100
AcDbPolyline
 90
        4
 70
     1
 43
0.0
 10
0.3000003201007075
 20
275.5000001769239
 10
0.3000003201007075
 20
0.300000176923902
 10
398.5000003201008
 20
0.3000001769239251
 10
398.5000003201007
 20
275.5000001769239
  0
LWPOLYLINE
  5
3912
330
1A
100
AcDbEntity
  8
ZUWAKU
100
AcDbPolyline
 90
        4
 70
     1
 43
0.0
 10
0.000000320100753
 20
275.8000001769238
 10
0.000000320100753
 20
0.0000001769238906
 10
398.8000003201008
 20
0.0000001769239244
 10
398.8000003201008
 20
275.8000001769239
  0
LWPOLYLINE
  5
3913
330
1A
100
AcDbEntity
  8
ZUWAKU
100
AcDbPolyline
 90
        4
 70
     1
 43
0.0
 10
0.2000003201007416
 20
275.6000001769239
 10
0.2000003201007416
 20
0.2000001769239361
 10
398.6000003201007
 20
0.2000001769239246
 10
398.6000003201007
 20
275.6000001769239
  0
LWPOLYLINE
  5
3914
330
1A
100
AcDbEntity
  8
ZUWAKU
100
AcDbPolyline
 90
        4
 70
     1
 43
0.0
 10
0.4000003201007303
 20
275.4000001769239
 10
0.4000003201007303
 20
0.4000001769239248
 10
398.4000003201007
 20
0.4000001769239248
 10
398.4000003201007
 20
275.4000001769239
  0
TEXT
  5
3915
330
1A
100
AcDbEntity
  8
MOJI
100
AcDbText
 10
46.47889511418532
 20
6.370589242061271
 30
0.0
 40
3.0
  1
新・丸トップＲＶ１０５
 41
0.9
  7
ｽﾀｲﾙ1
100
AcDbText
  0
HATCH
  5
3916
330
1A
100
AcDbEntity
  8
ZUWAKU
100
AcDbHatch
 10
0.0
 20
0.0
 30
0.0
210
0.0
220
0.0
230
1.0
  2
ANSI37
 70
     0
 71
     0
 91
        8
 92
        7
 72
     1
 73
     1
 93
       24
 10
7.251131650660681
 20
8.822424417415682
 42
-0.1989123673796348
 10
7.046106397491314
 20
9.317399164246207
 42
0.0
 10
7.046106397491314
 20
9.962500176923896
 42
-0.4142135623730912
 10
7.308606397491303
 20
10.22500017692389
 42
0.0
 10
8.796106397491257
 20
10.22500017692389
 42
0.4142135623731546
 10
9.058606397491303
 20
10.48750017692388
 42
0.0
 10
9.058606397491303
 20
11.36250017692389
 42
0.4142135623731586
 10
8.796106397491257
 20
11.62500017692389
 42
0.0
 10
7.046106397491314
 20
11.62500017692389
 42
0.4142135623730928
 10
5.646106397491337
 20
10.2250001769239
 42
0.0
 10
5.646106397491337
 20
9.317399164246271
 42
0.1989123673796619
 10
6.261182156999552
 20
7.832474923754467
 42
0.0
 10
7.71608114432189
 20
6.377575936432139
 42
-0.1989123673796613
 10
7.921106397491314
 20
5.882601189601546
 42
0.0
 10
7.921106397491314
 20
5.237500176923887
 42
-0.4142135623730911
 10
7.658606397491325
 20
4.975000176923892
 42
0.0
 10
6.171106397491371
 20
4.975000176923892
 42
0.4142135623731526
 10
5.908606397491325
 20
4.712500176923898
 42
0.0
 10
5.908606397491325
 20
3.837500176923887
 42
0.4142135623731526
 10
6.171106397491371
 20
3.575000176923893
 42
0.0
 10
7.921106397491314
 20
3.575000176923893
 42
0.4142135623731044
 10
9.321106397491348
 20
4.975000176923881
 42
0.0
 10
9.321106397491348
 20
5.882601189601517
 42
0.1989123673796604
 10
8.706030637983076
 20
7.367525430093287
 42
0.0
 97
        0
 92
        7
 72
     1
 73
     1
 93
       16
 10
11.77110639749133
 20
9.525000176923896
 42
-0.4142135623730935
 10
12.47110639749132
 20
10.22500017692389
 42
0.0
 10
13.4336063974913
 20
10.22500017692389
 42
0.4142135623731546
 10
13.69610639749134
 20
10.48750017692388
 42
0.0
 10
13.69610639749134
 20
11.36250017692389
 42
0.4142135623730951
 10
13.43360639749135
 20
11.62500017692389
 42
0.0
 10
12.47110639749126
 20
11.62500017692387
 42
0.4142135623730892
 10
10.3711063974913
 20
9.52500017692386
 42
0.0
 10
10.3711063974913
 20
5.675000176923905
 42
0.4142135623730969
 10
12.47110639749132
 20
3.575000176923893
 42
0.0
 10
13.4336063974913
 20
3.575000176923893
 42
0.4142135623731526
 10
13.69610639749134
 20
3.837500176923887
 42
0.0
 10
13.69610639749134
 20
4.712500176923898
 42
0.4142135623730891
 10
13.43360639749135
 20
4.975000176923892
 42
0.0
 10
12.47110639749132
 20
4.975000176923892
 42
-0.4142135623730928
 10
11.77110639749133
 20
5.675000176923886
 42
0.0
 97
        0
 92
        7
 72
     1
 73
     1
 93
        2
 10
12.1211063974913
 20
7.600000176923892
 42
1.0
 10
13.8711063974913
 20
7.600000176923892
 42
1.0
 97
        0
 92
        7
 72
     1
 73
     1
 93
       26
 10
18.65742963858031
 20
9.602523773705605
 42
0.0
 10
19.18824945514922
 20
11.2834531928404
 42
0.5069206636600134
 10
18.93793400555153
 20
11.62500017692389
 42
0.0
 10
18.08848931574692
 20
11.62500017692389
 42
0.3272098845218764
 10
17.83817386614924
 20
11.44154716100737
 42
0.0
 10
16.90403892883336
 20
8.483453192840432
 42
-0.3272098845219541
 10
16.65372347923562
 20
8.300000176923891
 42
0.0
 10
16.58360639749139
 20
8.300000176923891
 42
-0.4142135623731526
 10
16.32110639749134
 20
8.562500176923885
 42
0.0
 10
16.32110639749134
 20
11.36250017692389
 42
0.4142135623730951
 10
16.05860639749136
 20
11.62500017692389
 42
0.0
 10
15.1836063974913
 20
11.62500017692389
 42
0.4142135623730871
 10
14.92110639749131
 20
11.3625001769239
 42
0.0
 10
14.92110639749131
 20
3.837500176923887
 42
0.4142135623730891
 10
15.1836063974913
 20
3.575000176923893
 42
0.0
 10
16.0586063974913
 20
3.575000176923893
 42
0.4142135623731526
 10
16.32110639749134
 20
3.837500176923887
 42
0.0
 10
16.32110639749134
 20
6.637500176923898
 42
-0.4142135623731526
 10
16.58360639749139
 20
6.900000176923892
 42
0.0
 10
16.65372347923567
 20
6.900000176923892
 42
-0.3272098845218915
 10
16.90403892883336
 20
6.716547161007355
 42
0.0
 10
17.83817386614924
 20
3.758453192840429
 42
0.3272098845218902
 10
18.08848931574692
 20
3.575000176923893
 42
0.0
 10
18.93793400555153
 20
3.575000176923893
 42
0.5069206636600335
 10
19.18824945514922
 20
3.916547161007397
 42
0.0
 10
18.02505376591239
 20
7.600000176923961
 42
0.0
 97
        0
 92
        7
 72
     1
 73
     1
 93
        8
 10
21.7461063974913
 20
11.36250017692389
 42
0.4142135623731546
 10
21.48360639749125
 20
11.62500017692389
 42
0.0
 10
20.60860639749137
 20
11.62500017692389
 42
0.4142135623731507
 10
20.34610639749132
 20
11.3625001769239
 42
0.0
 10
20.34610639749132
 20
3.837500176923887
 42
0.4142135623731526
 10
20.60860639749137
 20
3.575000176923893
 42
0.0
 10
21.48360639749125
 20
3.575000176923893
 42
0.4142135623731526
 10
21.7461063974913
 20
3.837500176923887
 42
0.0
 97
        0
 92
        7
 72
     1
 73
     1
 93
       24
 10
24.19610639749135
 20
9.962500176923896
 42
-0.4142135623731546
 10
24.45860639749139
 20
10.22500017692389
 42
0.0
 10
25.94610639749134
 20
10.22500017692389
 42
0.4142135623730911
 10
26.20860639749134
 20
10.48750017692388
 42
0.0
 10
26.20860639749134
 20
11.36250017692389
 42
0.4142135623730952
 10
25.94610639749134
 20
11.62500017692389
 42
0.0
 10
24.19610639749135
 20
11.62500017692389
 42
0.4142135623731048
 10
22.79610639749131
 20
10.2250001769239
 42
0.0
 10
22.79610639749131
 20
9.317399164246271
 42
0.1989123673796613
 10
23.41118215699958
 20
7.832474923754496
 42
0.0
 10
24.86608114432192
 20
6.377575936432162
 42
-0.1989123673796402
 10
25.07110639749134
 20
5.882601189601626
 42
0.0
 10
25.07110639749134
 20
5.237500176923887
 42
-0.4142135623730911
 10
24.80860639749136
 20
4.975000176923892
 42
0.0
 10
23.32110639749135
 20
4.975000176923892
 42
0.4142135623731526
 10
23.0586063974913
 20
4.712500176923898
 42
0.0
 10
23.0586063974913
 20
3.837500176923887
 42
0.4142135623730891
 10
23.32110639749129
 20
3.575000176923893
 42
0.0
 10
25.07110639749134
 20
3.575000176923893
 42
0.4142135623730925
 10
26.47110639749132
 20
4.975000176923881
 42
0.0
 10
26.47110639749132
 20
5.882601189601517
 42
0.1989123673796675
 10
25.85603063798305
 20
7.367525430093344
 42
0.0
 10
24.40113165066077
 20
8.822424417415602
 42
-0.1989123673796652
 10
24.19610639749135
 20
9.317399164246186
 42
0.0
 97
        0
 92
        7
 72
     1
 73
     1
 93
       16
 10
28.92110639749131
 20
11.36250017692388
 42
0.414213562373103
 10
28.65860639749132
 20
11.62500017692389
 42
0.0
 10
27.78360639749132
 20
11.62500017692389
 42
0.4142135623730871
 10
27.52110639749133
 20
11.3625001769239
 42
0.0
 10
27.52110639749133
 20
4.975000176923881
 42
0.4142135623730926
 10
28.92110639749131
 20
3.575000176923893
 42
0.0
 10
30.67110639749131
 20
3.575000176923893
 42
0.4142135623731044
 10
32.07110639749135
 20
4.975000176923881
 42
0.0
 10
32.07110639749135
 20
11.36250017692389
 42
0.4142135623730951
 10
31.80860639749136
 20
11.62500017692389
 42
0.0
 10
30.9336063974913
 20
11.62500017692389
 42
0.4142135623730871
 10
30.67110639749131
 20
11.3625001769239
 42
0.0
 10
30.67110639749131
 20
5.500000176923879
 42
-0.414213562373088
 10
30.14610639749133
 20
4.975000176923892
 42
0.0
 10
29.44610639749134
 20
4.975000176923892
 42
-0.4142135623731197
 10
28.92110639749131
 20
5.500000176923879
 42
0.0
 97
        0
 92
        7
 72
     1
 73
     1
 93
        8
 10
34.52110639749133
 20
11.3625001769239
 42
0.4142135623730871
 10
34.25860639749135
 20
11.62500017692389
 42
0.0
 10
33.38360639749135
 20
11.62500017692389
 42
0.4142135623731507
 10
33.1211063974913
 20
11.3625001769239
 42
0.0
 10
33.1211063974913
 20
3.837500176923887
 42
0.4142135623730891
 10
33.38360639749129
 20
3.575000176923893
 42
0.0
 10
34.25860639749135
 20
3.575000176923893
 42
0.4142135623730891
 10
34.52110639749133
 20
3.837500176923887
 42
0.0
 97
        0
 75
     0
 76
     1
 52
0.0
 41
0.1
 77
     0
 78
     2
 53
45.0
 43
-450.4711518472387
 44
-6.599999823076075
 45
-0.2245064030267288
 46
0.2245064030267288
 79
     0
 53
135.0
 43
-450.4711518472387
 44
-6.599999823076075
 45
-0.2245064030267288
 46
-0.2245064030267288
 79
     0
 47
0.057451373970553
 98
        8
 10
8.039927801612407
 20
7.583586999866668
 10
11.20225782332033
 20
9.422031268149396
 10
12.58218426293058
 20
7.75594099995925
 10
15.45703031091932
 20
8.100649000144642
 10
20.91923632957912
 20
8.33045513391545
 10
23.44910076766552
 20
9.709288335127496
 10
28.27884330630093
 20
9.364579134471398
 10
33.91354012991212
 20
9.594385268242206
  0
LINE
  5
3917
330
1A
100
AcDbEntity
  8
ZUWAKU
100
AcDbLine
 10
12.47110639749132
 20
11.62500017692387
 30
0.0
 11
13.4336063974913
 21
11.62500017692389
 31
0.0
  0
LINE
  5
3918
330
1A
100
AcDbEntity
  8
ZUWAKU
100
AcDbLine
 10
13.4336063974913
 20
10.22500017692389
 30
0.0
 11
12.47110639749132
 21
10.22500017692389
 31
0.0
  0
LINE
  5
3919
330
1A
100
AcDbEntity
  8
ZUWAKU
100
AcDbLine
 10
12.47110639749132
 20
4.975000176923892
 30
0.0
 11
13.4336063974913
 21
4.975000176923892
 31
0.0
  0
LINE
  5
391A
330
1A
100
AcDbEntity
  8
ZUWAKU
100
AcDbLine
 10
13.4336063974913
 20
3.575000176923893
 30
0.0
 11
12.47110639749132
 21
3.575000176923893
 31
0.0
  0
CIRCLE
  5
391B
330
1A
100
AcDbEntity
  8
ZUWAKU
100
AcDbCircle
 10
12.9961063974913
 20
7.600000176923892
 30
0.0
 40
0.875
  0
ARC
  5
391C
330
1A
100
AcDbEntity
  8
ZUWAKU
100
AcDbCircle
 10
7.746106397491303
 20
9.317399164246243
 30
0.0
 40
0.7
100
AcDbArc
 50
180.0000000000016
 51
224.9999999999988
  0
LINE
  5
391D
330
1A
100
AcDbEntity
  8
ZUWAKU
100
AcDbLine
 10
11.77110639749133
 20
9.525000176923892
 30
0.0
 11
11.77110639749133
 21
5.675000176923894
 31
0.0
  0
LINE
  5
391E
330
1A
100
AcDbEntity
  8
ZUWAKU
100
AcDbLine
 10
10.3711063974913
 20
5.675000176923894
 30
0.0
 11
10.3711063974913
 21
9.525000176923871
 31
0.0
  0
ARC
  5
391F
330
1A
100
AcDbEntity
  8
ZUWAKU
100
AcDbCircle
 10
7.746106397491303
 20
9.317399164246243
 30
0.0
 40
2.099999999999999
100
AcDbArc
 50
180.0
 51
225.0
  0
ARC
  5
3920
330
1A
100
AcDbEntity
  8
ZUWAKU
100
AcDbCircle
 10
7.921106397491314
 20
4.975000176923892
 30
0.0
 40
1.399999999999999
100
AcDbArc
 50
270.0
 51
0.0
  0
ARC
  5
3921
330
1A
100
AcDbEntity
  8
ZUWAKU
100
AcDbCircle
 10
12.47110639749132
 20
5.675000176923894
 30
0.0
 40
2.099999999999999
100
AcDbArc
 50
180.0
 51
270.0
  0
ARC
  5
3922
330
1A
100
AcDbEntity
  8
ZUWAKU
100
AcDbCircle
 10
7.221106397491325
 20
5.882601189601544
 30
0.0
 40
2.099999999999999
100
AcDbArc
 50
0.0
 51
45.0
  0
LINE
  5
3923
330
1A
100
AcDbEntity
  8
ZUWAKU
100
AcDbLine
 10
8.706030637983076
 20
7.367525430093305
 30
0.0
 11
7.251131650660738
 21
8.822424417415643
 31
0.0
  0
LINE
  5
3924
330
1A
100
AcDbEntity
  8
ZUWAKU
100
AcDbLine
 10
7.921106397491314
 20
5.237500176923894
 30
0.0
 11
7.921106397491314
 21
5.882601189601565
 31
0.0
  0
ARC
  5
3925
330
1A
100
AcDbEntity
  8
ZUWAKU
100
AcDbCircle
 10
7.658606397491325
 20
5.237500176923894
 30
0.0
 40
0.2625
100
AcDbArc
 50
270.0
 51
0.0
  0
ARC
  5
3926
330
1A
100
AcDbEntity
  8
ZUWAKU
100
AcDbCircle
 10
7.221106397491325
 20
5.882601189601565
 30
0.0
 40
0.7
100
AcDbArc
 50
0.0
 51
45.0
  0
LINE
  5
3927
330
1A
100
AcDbEntity
  8
ZUWAKU
100
AcDbLine
 10
5.908606397491325
 20
3.837500176923892
 30
0.0
 11
5.908606397491325
 21
4.712500176923892
 31
0.0
  0
ARC
  5
3928
330
1A
100
AcDbEntity
  8
ZUWAKU
100
AcDbCircle
 10
6.171106397491314
 20
3.837500176923892
 30
0.0
 40
0.2625
100
AcDbArc
 50
180.0
 51
270.0
  0
ARC
  5
3929
330
1A
100
AcDbEntity
  8
ZUWAKU
100
AcDbCircle
 10
6.171106397491314
 20
4.712500176923892
 30
0.0
 40
0.2625
100
AcDbArc
 50
90.0
 51
180.0
  0
LINE
  5
392A
330
1A
100
AcDbEntity
  8
ZUWAKU
100
AcDbLine
 10
6.171106397491314
 20
3.575000176923893
 30
0.0
 11
7.921106397491314
 21
3.575000176923893
 31
0.0
  0
LINE
  5
392B
330
1A
100
AcDbEntity
  8
ZUWAKU
100
AcDbLine
 10
6.171106397491314
 20
4.975000176923892
 30
0.0
 11
7.658606397491325
 21
4.975000176923892
 31
0.0
  0
LINE
  5
392C
330
1A
100
AcDbEntity
  8
ZUWAKU
100
AcDbLine
 10
6.261182156999552
 20
7.832474923754482
 30
0.0
 11
7.71608114432189
 21
6.377575936432151
 31
0.0
  0
LINE
  5
392D
330
1A
100
AcDbEntity
  8
ZUWAKU
100
AcDbLine
 10
9.321106397491348
 20
4.975000176923892
 30
0.0
 11
9.321106397491348
 21
5.882601189601565
 31
0.0
  0
ARC
  5
392E
330
1A
100
AcDbEntity
  8
ZUWAKU
100
AcDbCircle
 10
12.47110639749132
 20
5.675000176923894
 30
0.0
 40
0.7
100
AcDbArc
 50
180.0
 51
270.0
  0
ARC
  5
392F
330
1A
100
AcDbEntity
  8
ZUWAKU
100
AcDbCircle
 10
8.796106397491314
 20
11.36250017692389
 30
0.0
 40
0.2625
100
AcDbArc
 50
0.0
 51
90.0
  0
ARC
  5
3930
330
1A
100
AcDbEntity
  8
ZUWAKU
100
AcDbCircle
 10
8.796106397491314
 20
10.48750017692389
 30
0.0
 40
0.2625
100
AcDbArc
 50
270.0
 51
0.0
  0
LINE
  5
3931
330
1A
100
AcDbEntity
  8
ZUWAKU
100
AcDbLine
 10
7.046106397491314
 20
11.62500017692389
 30
0.0
 11
8.796106397491314
 21
11.62500017692389
 31
0.0
  0
ARC
  5
3932
330
1A
100
AcDbEntity
  8
ZUWAKU
100
AcDbCircle
 10
7.308606397491303
 20
9.962500176923892
 30
0.0
 40
0.2625
100
AcDbArc
 50
90.0
 51
180.0
  0
LINE
  5
3933
330
1A
100
AcDbEntity
  8
ZUWAKU
100
AcDbLine
 10
7.046106397491314
 20
9.962500176923892
 30
0.0
 11
7.046106397491314
 21
9.317399164246221
 31
0.0
  0
LINE
  5
3934
330
1A
100
AcDbEntity
  8
ZUWAKU
100
AcDbLine
 10
8.796106397491314
 20
10.22500017692389
 30
0.0
 11
7.308606397491303
 21
10.22500017692389
 31
0.0
  0
LINE
  5
3935
330
1A
100
AcDbEntity
  8
ZUWAKU
100
AcDbLine
 10
5.646106397491337
 20
10.22500017692389
 30
0.0
 11
5.646106397491337
 21
9.317399164246221
 31
0.0
  0
ARC
  5
3936
330
1A
100
AcDbEntity
  8
ZUWAKU
100
AcDbCircle
 10
7.046106397491314
 20
10.22500017692389
 30
0.0
 40
1.399999999999999
100
AcDbArc
 50
90.0
 51
180.0
  0
LINE
  5
3937
330
1A
100
AcDbEntity
  8
ZUWAKU
100
AcDbLine
 10
9.058606397491303
 20
11.36250017692389
 30
0.0
 11
9.058606397491303
 21
10.48750017692389
 31
0.0
  0
ARC
  5
3938
330
1A
100
AcDbEntity
  8
ZUWAKU
100
AcDbCircle
 10
12.47110639749132
 20
9.525000176923892
 30
0.0
 40
0.7
100
AcDbArc
 50
90.0
 51
180.0
  0
ARC
  5
3939
330
1A
100
AcDbEntity
  8
ZUWAKU
100
AcDbCircle
 10
12.47110639749132
 20
9.525000176923871
 30
0.0
 40
2.099999999999999
100
AcDbArc
 50
90.0
 51
180.0
  0
LINE
  5
393A
330
1A
100
AcDbEntity
  8
ZUWAKU
100
AcDbLine
 10
39.66331509409485
 20
15.00000017692389
 30
0.0
 11
39.66331509409497
 21
0.4000001769239248
 31
0.0
  0
LINE
  5
393B
330
1A
100
AcDbEntity
  8
ZUWAKU
100
AcDbLine
 10
39.76331509409487
 20
15.00000017692389
 30
0.0
 11
39.76331509409499
 21
0.4000001769239248
 31
0.0
  0
LINE
  5
393C
330
1A
100
AcDbEntity
  8
ZUWAKU
100
AcDbLine
 10
39.56331509409494
 20
15.00000017692389
 30
0.0
 11
39.56331509409494
 21
0.4000001769239248
 31
0.0
  0
LINE
  5
393D
330
1A
100
AcDbEntity
  8
ZUWAKU
100
AcDbLine
 10
32.07110639749135
 20
4.975000176923892
 30
0.0
 11
32.07110639749135
 21
11.36250017692389
 31
0.0
  0
LINE
  5
393E
330
1A
100
AcDbEntity
  8
ZUWAKU
100
AcDbLine
 10
30.67110639749131
 20
11.36250017692389
 30
0.0
 11
30.67110639749131
 21
5.50000017692389
 31
0.0
  0
LINE
  5
393F
330
1A
100
AcDbEntity
  8
ZUWAKU
100
AcDbLine
 10
34.52110639749133
 20
3.837500176923892
 30
0.0
 11
34.52110639749133
 21
11.36250017692389
 31
0.0
  0
LINE
  5
3940
330
1A
100
AcDbEntity
  8
ZUWAKU
100
AcDbLine
 10
33.1211063974913
 20
11.36250017692389
 30
0.0
 11
33.1211063974913
 21
3.837500176923892
 31
0.0
  0
ARC
  5
3941
330
1A
100
AcDbEntity
  8
ZUWAKU
100
AcDbCircle
 10
24.89610639749133
 20
9.317399164246243
 30
0.0
 40
0.7
100
AcDbArc
 50
180.0000000000016
 51
224.9999999999988
  0
ARC
  5
3942
330
1A
100
AcDbEntity
  8
ZUWAKU
100
AcDbCircle
 10
24.89610639749133
 20
9.317399164246243
 30
0.0
 40
2.099999999999999
100
AcDbArc
 50
180.0
 51
225.0
  0
LINE
  5
3943
330
1A
100
AcDbEntity
  8
ZUWAKU
100
AcDbLine
 10
18.65742963858031
 20
9.602523773705605
 30
0.0
 11
18.02505376591239
 21
7.600000176923902
 31
0.0
  0
LINE
  5
3944
330
1A
100
AcDbEntity
  8
ZUWAKU
100
AcDbLine
 10
20.34610639749132
 20
11.36250017692389
 30
0.0
 11
20.34610639749132
 21
3.837500176923892
 31
0.0
  0
LINE
  5
3945
330
1A
100
AcDbEntity
  8
ZUWAKU
100
AcDbLine
 10
21.7461063974913
 20
3.837500176923892
 30
0.0
 11
21.7461063974913
 21
11.36250017692389
 31
0.0
  0
LINE
  5
3946
330
1A
100
AcDbEntity
  8
ZUWAKU
100
AcDbLine
 10
27.52110639749133
 20
11.36250017692389
 30
0.0
 11
27.52110639749133
 21
4.975000176923892
 31
0.0
  0
LINE
  5
3947
330
1A
100
AcDbEntity
  8
ZUWAKU
100
AcDbLine
 10
28.92110639749131
 20
5.50000017692389
 30
0.0
 11
28.92110639749131
 21
11.36250017692389
 31
0.0
  0
LINE
  5
3948
330
1A
100
AcDbEntity
  8
ZUWAKU
100
AcDbLine
 10
16.32110639749134
 20
8.562500176923894
 30
0.0
 11
16.32110639749134
 21
11.36250017692389
 31
0.0
  0
LINE
  5
3949
330
1A
100
AcDbEntity
  8
ZUWAKU
100
AcDbLine
 10
14.92110639749131
 20
11.36250017692389
 30
0.0
 11
14.92110639749131
 21
3.837500176923892
 31
0.0
  0
LINE
  5
394A
330
1A
100
AcDbEntity
  8
ZUWAKU
100
AcDbLine
 10
17.83817386614924
 20
11.44154716100737
 30
0.0
 11
16.90403892883336
 21
8.483453192840407
 31
0.0
  0
LINE
  5
394B
330
1A
100
AcDbEntity
  8
ZUWAKU
100
AcDbLine
 10
30.14610639749133
 20
4.975000176923892
 30
0.0
 11
29.44610639749134
 21
4.975000176923892
 31
0.0
  0
LINE
  5
394C
330
1A
100
AcDbEntity
  8
ZUWAKU
100
AcDbLine
 10
28.92110639749131
 20
3.575000176923893
 30
0.0
 11
30.67110639749131
 21
3.575000176923893
 31
0.0
  0
LINE
  5
394D
330
1A
100
AcDbEntity
  8
ZUWAKU
100
AcDbLine
 10
20.60860639749131
 20
3.575000176923893
 30
0.0
 11
21.48360639749131
 21
3.575000176923893
 31
0.0
  0
LINE
  5
394E
330
1A
100
AcDbEntity
  8
ZUWAKU
100
AcDbLine
 10
17.83817386614924
 20
3.758453192840406
 30
0.0
 11
16.90403892883336
 21
6.716547161007376
 31
0.0
  0
ARC
  5
394F
330
1A
100
AcDbEntity
  8
ZUWAKU
100
AcDbCircle
 10
16.65372347923567
 20
8.562500176923894
 30
0.0
 40
0.2625
100
AcDbArc
 50
270.0
 51
342.4744316262769
  0
LINE
  5
3950
330
1A
100
AcDbEntity
  8
ZUWAKU
100
AcDbLine
 10
16.65372347923567
 20
8.300000176923891
 30
0.0
 11
16.58360639749133
 21
8.300000176923891
 31
0.0
  0
LINE
  5
3951
330
1A
100
AcDbEntity
  8
ZUWAKU
100
AcDbLine
 10
16.58360639749133
 20
6.900000176923892
 30
0.0
 11
16.65372347923567
 21
6.900000176923892
 31
0.0
  0
ARC
  5
3952
330
1A
100
AcDbEntity
  8
ZUWAKU
100
AcDbCircle
 10
16.58360639749133
 20
8.562500176923894
 30
0.0
 40
0.2625
100
AcDbArc
 50
180.0
 51
270.0
  0
LINE
  5
3953
330
1A
100
AcDbEntity
  8
ZUWAKU
100
AcDbLine
 10
15.1836063974913
 20
3.575000176923893
 30
0.0
 11
16.0586063974913
 21
3.575000176923893
 31
0.0
  0
ARC
  5
3954
330
1A
100
AcDbEntity
  8
ZUWAKU
100
AcDbCircle
 10
16.0586063974913
 20
3.837500176923892
 30
0.0
 40
0.2625
100
AcDbArc
 50
270.0
 51
0.0
  0
LINE
  5
3955
330
1A
100
AcDbEntity
  8
ZUWAKU
100
AcDbLine
 10
16.32110639749134
 20
3.837500176923892
 30
0.0
 11
16.32110639749134
 21
6.637500176923893
 31
0.0
  0
LINE
  5
3956
330
1A
100
AcDbEntity
  8
ZUWAKU
100
AcDbLine
 10
13.69610639749134
 20
4.712500176923892
 30
0.0
 11
13.69610639749134
 21
3.837500176923892
 31
0.0
  0
ARC
  5
3957
330
1A
100
AcDbEntity
  8
ZUWAKU
100
AcDbCircle
 10
13.4336063974913
 20
3.837500176923892
 30
0.0
 40
0.2625
100
AcDbArc
 50
270.0
 51
0.0
  0
ARC
  5
3958
330
1A
100
AcDbEntity
  8
ZUWAKU
100
AcDbCircle
 10
13.4336063974913
 20
4.712500176923892
 30
0.0
 40
0.2625
100
AcDbArc
 50
0.0
 51
90.0
  0
ARC
  5
3959
330
1A
100
AcDbEntity
  8
ZUWAKU
100
AcDbCircle
 10
15.1836063974913
 20
3.837500176923892
 30
0.0
 40
0.2625
100
AcDbArc
 50
180.0
 51
270.0
  0
ARC
  5
395A
330
1A
100
AcDbEntity
  8
ZUWAKU
100
AcDbCircle
 10
16.65372347923567
 20
6.637500176923893
 30
0.0
 40
0.2625
100
AcDbArc
 50
17.52556837372303
 51
90.0
  0
ARC
  5
395B
330
1A
100
AcDbEntity
  8
ZUWAKU
100
AcDbCircle
 10
16.58360639749133
 20
6.637500176923893
 30
0.0
 40
0.2625
100
AcDbArc
 50
90.0
 51
180.0
  0
ARC
  5
395C
330
1A
100
AcDbEntity
  8
ZUWAKU
100
AcDbCircle
 10
20.60860639749131
 20
3.837500176923892
 30
0.0
 40
0.2625
100
AcDbArc
 50
180.0
 51
270.0
  0
LINE
  5
395D
330
1A
100
AcDbEntity
  8
ZUWAKU
100
AcDbLine
 10
18.08848931574698
 20
3.575000176923893
 30
0.0
 11
18.93793400555148
 21
3.575000176923893
 31
0.0
  0
ARC
  5
395E
330
1A
100
AcDbEntity
  8
ZUWAKU
100
AcDbCircle
 10
18.93793400555148
 20
3.837500176923892
 30
0.0
 40
0.2625
100
AcDbArc
 50
270.0
 51
17.52556837372303
  0
LINE
  5
395F
330
1A
100
AcDbEntity
  8
ZUWAKU
100
AcDbLine
 10
19.18824945514922
 20
3.916547161007379
 30
0.0
 11
18.02505376591239
 21
7.600000176923902
 31
0.0
  0
ARC
  5
3960
330
1A
100
AcDbEntity
  8
ZUWAKU
100
AcDbCircle
 10
18.08848931574698
 20
3.837500176923892
 30
0.0
 40
0.2625
100
AcDbArc
 50
197.525568373723
 51
270.0
  0
ARC
  5
3961
330
1A
100
AcDbEntity
  8
ZUWAKU
100
AcDbCircle
 10
28.92110639749131
 20
4.975000176923892
 30
0.0
 40
1.399999999999999
100
AcDbArc
 50
180.0
 51
270.0
  0
ARC
  5
3962
330
1A
100
AcDbEntity
  8
ZUWAKU
100
AcDbCircle
 10
25.07110639749134
 20
4.975000176923892
 30
0.0
 40
1.399999999999999
100
AcDbArc
 50
270.0
 51
0.0
  0
LINE
  5
3963
330
1A
100
AcDbEntity
  8
ZUWAKU
100
AcDbLine
 10
25.85603063798311
 20
7.367525430093305
 30
0.0
 11
24.40113165066071
 21
8.822424417415643
 31
0.0
  0
LINE
  5
3964
330
1A
100
AcDbEntity
  8
ZUWAKU
100
AcDbLine
 10
25.07110639749134
 20
5.237500176923894
 30
0.0
 11
25.07110639749134
 21
5.882601189601565
 31
0.0
  0
ARC
  5
3965
330
1A
100
AcDbEntity
  8
ZUWAKU
100
AcDbCircle
 10
24.3711063974913
 20
5.882601189601565
 30
0.0
 40
0.7
100
AcDbArc
 50
0.0
 51
45.0
  0
ARC
  5
3966
330
1A
100
AcDbEntity
  8
ZUWAKU
100
AcDbCircle
 10
24.8086063974913
 20
5.237500176923894
 30
0.0
 40
0.2625
100
AcDbArc
 50
270.0
 51
0.0
  0
LINE
  5
3967
330
1A
100
AcDbEntity
  8
ZUWAKU
100
AcDbLine
 10
23.0586063974913
 20
3.837500176923892
 30
0.0
 11
23.0586063974913
 21
4.712500176923892
 31
0.0
  0
ARC
  5
3968
330
1A
100
AcDbEntity
  8
ZUWAKU
100
AcDbCircle
 10
23.32110639749135
 20
3.837500176923892
 30
0.0
 40
0.2625
100
AcDbArc
 50
180.0
 51
270.0
  0
ARC
  5
3969
330
1A
100
AcDbEntity
  8
ZUWAKU
100
AcDbCircle
 10
21.48360639749131
 20
3.837500176923892
 30
0.0
 40
0.2625
100
AcDbArc
 50
270.0
 51
0.0
  0
ARC
  5
396A
330
1A
100
AcDbEntity
  8
ZUWAKU
100
AcDbCircle
 10
23.32110639749135
 20
4.712500176923892
 30
0.0
 40
0.2625
100
AcDbArc
 50
90.0
 51
180.0
  0
LINE
  5
396B
330
1A
100
AcDbEntity
  8
ZUWAKU
100
AcDbLine
 10
23.32110639749135
 20
4.975000176923892
 30
0.0
 11
24.8086063974913
 21
4.975000176923892
 31
0.0
  0
LINE
  5
396C
330
1A
100
AcDbEntity
  8
ZUWAKU
100
AcDbLine
 10
23.32110639749135
 20
3.575000176923893
 30
0.0
 11
25.07110639749134
 21
3.575000176923893
 31
0.0
  0
LINE
  5
396D
330
1A
100
AcDbEntity
  8
ZUWAKU
100
AcDbLine
 10
23.41118215699958
 20
7.832474923754482
 30
0.0
 11
24.86608114432192
 21
6.377575936432151
 31
0.0
  0
LINE
  5
396E
330
1A
100
AcDbEntity
  8
ZUWAKU
100
AcDbLine
 10
26.47110639749132
 20
4.975000176923892
 30
0.0
 11
26.47110639749132
 21
5.882601189601565
 31
0.0
  0
ARC
  5
396F
330
1A
100
AcDbEntity
  8
ZUWAKU
100
AcDbCircle
 10
24.3711063974913
 20
5.882601189601544
 30
0.0
 40
2.099999999999999
100
AcDbArc
 50
0.0
 51
45.0
  0
ARC
  5
3970
330
1A
100
AcDbEntity
  8
ZUWAKU
100
AcDbCircle
 10
29.44610639749134
 20
5.50000017692389
 30
0.0
 40
0.525
100
AcDbArc
 50
180.0
 51
270.0
  0
ARC
  5
3971
330
1A
100
AcDbEntity
  8
ZUWAKU
100
AcDbCircle
 10
30.67110639749131
 20
4.975000176923892
 30
0.0
 40
1.399999999999999
100
AcDbArc
 50
270.0
 51
0.0
  0
LINE
  5
3972
330
1A
100
AcDbEntity
  8
ZUWAKU
100
AcDbLine
 10
33.38360639749135
 20
3.575000176923893
 30
0.0
 11
34.25860639749135
 21
3.575000176923893
 31
0.0
  0
ARC
  5
3973
330
1A
100
AcDbEntity
  8
ZUWAKU
100
AcDbCircle
 10
33.38360639749135
 20
3.837500176923892
 30
0.0
 40
0.2625
100
AcDbArc
 50
180.0
 51
270.0
  0
ARC
  5
3974
330
1A
100
AcDbEntity
  8
ZUWAKU
100
AcDbCircle
 10
30.14610639749133
 20
5.50000017692389
 30
0.0
 40
0.525
100
AcDbArc
 50
270.0
 51
0.0
  0
ARC
  5
3975
330
1A
100
AcDbEntity
  8
ZUWAKU
100
AcDbCircle
 10
34.25860639749135
 20
3.837500176923892
 30
0.0
 40
0.2625
100
AcDbArc
 50
270.0
 51
0.0
  0
LINE
  5
3976
330
1A
100
AcDbEntity
  8
ZUWAKU
100
AcDbLine
 10
21.48360639749131
 20
11.62500017692389
 30
0.0
 11
20.60860639749131
 21
11.62500017692389
 31
0.0
  0
ARC
  5
3977
330
1A
100
AcDbEntity
  8
ZUWAKU
100
AcDbCircle
 10
16.0586063974913
 20
11.36250017692389
 30
0.0
 40
0.2625
100
AcDbArc
 50
0.0
 51
90.0
  0
LINE
  5
3978
330
1A
100
AcDbEntity
  8
ZUWAKU
100
AcDbLine
 10
16.0586063974913
 20
11.62500017692389
 30
0.0
 11
15.1836063974913
 21
11.62500017692389
 31
0.0
  0
ARC
  5
3979
330
1A
100
AcDbEntity
  8
ZUWAKU
100
AcDbCircle
 10
13.4336063974913
 20
11.36250017692389
 30
0.0
 40
0.2625
100
AcDbArc
 50
0.0
 51
90.0
  0
ARC
  5
397A
330
1A
100
AcDbEntity
  8
ZUWAKU
100
AcDbCircle
 10
15.1836063974913
 20
11.36250017692389
 30
0.0
 40
0.2625
100
AcDbArc
 50
90.0
 51
180.0
  0
ARC
  5
397B
330
1A
100
AcDbEntity
  8
ZUWAKU
100
AcDbCircle
 10
13.4336063974913
 20
10.48750017692389
 30
0.0
 40
0.2625
100
AcDbArc
 50
270.0
 51
0.0
  0
LINE
  5
397C
330
1A
100
AcDbEntity
  8
ZUWAKU
100
AcDbLine
 10
13.69610639749134
 20
11.36250017692389
 30
0.0
 11
13.69610639749134
 21
10.48750017692389
 31
0.0
  0
ARC
  5
397D
330
1A
100
AcDbEntity
  8
ZUWAKU
100
AcDbCircle
 10
20.60860639749131
 20
11.36250017692389
 30
0.0
 40
0.2625
100
AcDbArc
 50
90.0
 51
180.0
  0
LINE
  5
397E
330
1A
100
AcDbEntity
  8
ZUWAKU
100
AcDbLine
 10
18.08848931574698
 20
11.62500017692389
 30
0.0
 11
18.93793400555148
 21
11.62500017692389
 31
0.0
  0
ARC
  5
397F
330
1A
100
AcDbEntity
  8
ZUWAKU
100
AcDbCircle
 10
18.93793400555148
 20
11.36250017692389
 30
0.0
 40
0.2625
100
AcDbArc
 50
342.4744316262769
 51
90.0
  0
LINE
  5
3980
330
1A
100
AcDbEntity
  8
ZUWAKU
100
AcDbLine
 10
19.18824945514922
 20
11.2834531928404
 30
0.0
 11
18.65742963858031
 21
9.602523773705605
 31
0.0
  0
ARC
  5
3981
330
1A
100
AcDbEntity
  8
ZUWAKU
100
AcDbCircle
 10
18.08848931574698
 20
11.36250017692389
 30
0.0
 40
0.2625
100
AcDbArc
 50
90.0
 51
162.4744316262769
  0
LINE
  5
3982
330
1A
100
AcDbEntity
  8
ZUWAKU
100
AcDbLine
 10
24.19610639749135
 20
11.62500017692389
 30
0.0
 11
25.94610639749134
 21
11.62500017692389
 31
0.0
  0
LINE
  5
3983
330
1A
100
AcDbEntity
  8
ZUWAKU
100
AcDbLine
 10
25.94610639749134
 20
10.22500017692389
 30
0.0
 11
24.45860639749133
 21
10.22500017692389
 31
0.0
  0
ARC
  5
3984
330
1A
100
AcDbEntity
  8
ZUWAKU
100
AcDbCircle
 10
24.45860639749133
 20
9.962500176923892
 30
0.0
 40
0.2625
100
AcDbArc
 50
90.0
 51
180.0
  0
LINE
  5
3985
330
1A
100
AcDbEntity
  8
ZUWAKU
100
AcDbLine
 10
24.19610639749135
 20
9.962500176923892
 30
0.0
 11
24.19610639749135
 21
9.317399164246221
 31
0.0
  0
ARC
  5
3986
330
1A
100
AcDbEntity
  8
ZUWAKU
100
AcDbCircle
 10
21.48360639749131
 20
11.36250017692389
 30
0.0
 40
0.2625
100
AcDbArc
 50
0.0
 51
90.0
  0
LINE
  5
3987
330
1A
100
AcDbEntity
  8
ZUWAKU
100
AcDbLine
 10
22.79610639749131
 20
10.22500017692389
 30
0.0
 11
22.79610639749131
 21
9.317399164246221
 31
0.0
  0
ARC
  5
3988
330
1A
100
AcDbEntity
  8
ZUWAKU
100
AcDbCircle
 10
24.19610639749135
 20
10.22500017692389
 30
0.0
 40
1.399999999999999
100
AcDbArc
 50
90.0
 51
180.0
  0
ARC
  5
3989
330
1A
100
AcDbEntity
  8
ZUWAKU
100
AcDbCircle
 10
28.65860639749132
 20
11.36250017692389
 30
0.0
 40
0.2625
100
AcDbArc
 50
0.0
 51
90.0
  0
ARC
  5
398A
330
1A
100
AcDbEntity
  8
ZUWAKU
100
AcDbCircle
 10
27.78360639749132
 20
11.36250017692389
 30
0.0
 40
0.2625
100
AcDbArc
 50
90.0
 51
180.0
  0
LINE
  5
398B
330
1A
100
AcDbEntity
  8
ZUWAKU
100
AcDbLine
 10
28.65860639749132
 20
11.62500017692389
 30
0.0
 11
27.78360639749132
 21
11.62500017692389
 31
0.0
  0
ARC
  5
398C
330
1A
100
AcDbEntity
  8
ZUWAKU
100
AcDbCircle
 10
25.94610639749134
 20
11.36250017692389
 30
0.0
 40
0.2625
100
AcDbArc
 50
0.0
 51
90.0
  0
ARC
  5
398D
330
1A
100
AcDbEntity
  8
ZUWAKU
100
AcDbCircle
 10
25.94610639749134
 20
10.48750017692389
 30
0.0
 40
0.2625
100
AcDbArc
 50
270.0
 51
0.0
  0
LINE
  5
398E
330
1A
100
AcDbEntity
  8
ZUWAKU
100
AcDbLine
 10
26.20860639749134
 20
11.36250017692389
 30
0.0
 11
26.20860639749134
 21
10.48750017692389
 31
0.0
  0
LINE
  5
398F
330
1A
100
AcDbEntity
  8
ZUWAKU
100
AcDbLine
 10
34.25860639749135
 20
11.62500017692389
 30
0.0
 11
33.38360639749135
 21
11.62500017692389
 31
0.0
  0
ARC
  5
3990
330
1A
100
AcDbEntity
  8
ZUWAKU
100
AcDbCircle
 10
33.38360639749135
 20
11.36250017692389
 30
0.0
 40
0.2625
100
AcDbArc
 50
90.0
 51
180.0
  0
ARC
  5
3991
330
1A
100
AcDbEntity
  8
ZUWAKU
100
AcDbCircle
 10
31.8086063974913
 20
11.36250017692389
 30
0.0
 40
0.2625
100
AcDbArc
 50
0.0
 51
90.0
  0
LINE
  5
3992
330
1A
100
AcDbEntity
  8
ZUWAKU
100
AcDbLine
 10
31.8086063974913
 20
11.62500017692389
 30
0.0
 11
30.9336063974913
 21
11.62500017692389
 31
0.0
  0
ARC
  5
3993
330
1A
100
AcDbEntity
  8
ZUWAKU
100
AcDbCircle
 10
30.9336063974913
 20
11.36250017692389
 30
0.0
 40
0.2625
100
AcDbArc
 50
90.0
 51
180.0
  0
ARC
  5
3994
330
1A
100
AcDbEntity
  8
ZUWAKU
100
AcDbCircle
 10
34.25860639749135
 20
11.36250017692389
 30
0.0
 40
0.2625
100
AcDbArc
 50
0.0
 51
90.0
  0
TEXT
  5
3995
330
1A
100
AcDbEntity
  8
MOJI
100
AcDbText
 10
119.9136016605262
 20
9.002460705627584
 30
0.0
 40
2.799999999999999
  1
ブラケット正面打（吊）ワンタッチ自在式
 41
0.9
  7
ｽﾀｲﾙ1
100
AcDbText
  0
TEXT
  5
3996
330
1A
100
AcDbEntity
  8
MOJI
100
AcDbText
 10
119.9136016605262
 20
1.602460705627601
 30
0.0
 40
2.799999999999999
  1
ＲＶ１０５－４－４５～６０
 41
0.9
  7
ｽﾀｲﾙ1
100
AcDbText
  0
LINE
  5
3997
330
1A
100
AcDbEntity
  8
ZUWAKU
100
AcDbLine
 10
104.1233009651347
 20
15.00000017692389
 30
0.0
 11
104.1233009651347
 21
0.4000001769239248
 31
0.0
  0
LINE
  5
3998
330
1A
100
AcDbEntity
  8
ZUWAKU
100
AcDbLine
 10
104.3233009651346
 20
15.00000017692389
 30
0.0
 11
104.3233009651347
 21
0.4000001769239248
 31
0.0
  0
LINE
  5
3999
330
1A
100
AcDbEntity
  8
ZUWAKU
100
AcDbLine
 10
104.2233009651346
 20
15.00000017692389
 30
0.0
 11
104.2233009651347
 21
0.4000001769239248
 31
0.0
  0
TEXT
  5
399A
330
1A
100
AcDbEntity
  8
ZUWAKU
100
AcDbText
 10
104.8620234762395
 20
4.827678446116699
 30
0.0
 40
2.0
  1
サイズ
 41
0.9
  7
ｽﾀｲﾙ1
100
AcDbText
  0
TEXT
  5
399B
330
1A
100
AcDbEntity
  8
ZUWAKU
100
AcDbText
 10
104.8620234762394
 20
12.02767844611668
 30
0.0
 40
2.0
  1
品名
 41
0.9
  7
ｽﾀｲﾙ1
100
AcDbText
  0
LINE
  5
399C
330
1A
100
AcDbEntity
  8
ZUWAKU
100
AcDbLine
 10
324.4086015752028
 20
7.600000176923906
 30
0.0
 11
348.6245055943713
 21
7.600000176923908
 31
0.0
  0
LINE
  5
399D
330
1A
100
AcDbEntity
  8
ZUWAKU
100
AcDbLine
 10
324.4086015752029
 20
7.700000176923909
 30
0.0
 11
348.6245055943713
 21
7.700000176923907
 31
0.0
  0
LINE
  5
399E
330
1A
100
AcDbEntity
  8
ZUWAKU
100
AcDbLine
 10
324.4086015752028
 20
7.800000176923907
 30
0.0
 11
348.6245055943713
 21
7.800000176923907
 31
0.0
  0
TEXT
  5
399F
330
1A
100
AcDbEntity
  8
ZUWAKU
100
AcDbText
 10
329.1019691637519
 20
9.002460705627584
 30
0.0
 40
2.799999999999999
  1
　　．　　．　　
 41
0.9
  7
ｽﾀｲﾙ1
100
AcDbText
  0
LINE
  5
39A0
330
1A
100
AcDbEntity
  8
ZUWAKU
100
AcDbLine
 10
252.5995900691711
 20
7.600000176923909
 30
0.0
 11
276.2634782031569
 21
7.600000176923909
 31
0.0
  0
LINE
  5
39A1
330
1A
100
AcDbEntity
  8
ZUWAKU
100
AcDbLine
 10
252.5995900691711
 20
7.700000176923907
 30
0.0
 11
276.2634782031569
 21
7.700000176923907
 31
0.0
  0
LINE
  5
39A2
330
1A
100
AcDbEntity
  8
ZUWAKU
100
AcDbLine
 10
252.5995900691711
 20
7.800000176923907
 30
0.0
 11
276.2634782031569
 21
7.800000176923907
 31
0.0
  0
TEXT
  5
39A3
330
1A
100
AcDbEntity
  8
MOJI
100
AcDbText
 10
231.283639481095
 20
5.971309037753883
 30
0.0
 40
2.799999999999999
  1
ＬＫ１６Ｔ
 41
0.9
  7
ｽﾀｲﾙ1
100
AcDbText
  0
LINE
  5
39A4
330
1A
100
AcDbEntity
  8
ZUWAKU
100
AcDbLine
 10
223.8121823055963
 20
15.00000017692389
 30
0.0
 11
223.8121823055964
 21
0.4000001769239248
 31
0.0
  0
LINE
  5
39A5
330
1A
100
AcDbEntity
  8
ZUWAKU
100
AcDbLine
 10
223.9121823055963
 20
15.00000017692389
 30
0.0
 11
223.9121823055965
 21
0.4000001769239248
 31
0.0
  0
LINE
  5
39A6
330
1A
100
AcDbEntity
  8
ZUWAKU
100
AcDbLine
 10
223.7121823055964
 20
15.00000017692389
 30
0.0
 11
223.7121823055964
 21
0.4000001769239248
 31
0.0
  0
TEXT
  5
39A7
330
1A
100
AcDbEntity
  8
MOJI
100
AcDbText
 10
264.0204543062572
 20
9.002460705627584
 30
0.0
 40
2.799999999999999
  1
Ａ３
 41
0.9
  7
ｽﾀｲﾙ1
100
AcDbText
  0
LINE
  5
39A8
330
1A
100
AcDbEntity
  8
ZUWAKU
100
AcDbLine
 10
252.4995900691711
 20
15.00000017692389
 30
0.0
 11
252.4995900691712
 21
0.4000001769239248
 31
0.0
  0
LINE
  5
39A9
330
1A
100
AcDbEntity
  8
ZUWAKU
100
AcDbLine
 10
252.5995900691711
 20
15.00000017692389
 30
0.0
 11
252.5995900691713
 21
0.4000001769239248
 31
0.0
  0
LINE
  5
39AA
330
1A
100
AcDbEntity
  8
ZUWAKU
100
AcDbLine
 10
252.3995900691712
 20
15.00000017692389
 30
0.0
 11
252.3995900691712
 21
0.4000001769239248
 31
0.0
  0
TEXT
  5
39AB
330
1A
100
AcDbEntity
  8
ZUWAKU
100
AcDbText
 10
253.3383125802761
 20
4.827678446116699
 30
0.0
 40
2.0
  1
縮尺
 41
0.9
  7
ｽﾀｲﾙ1
100
AcDbText
  0
TEXT
  5
39AC
330
1A
100
AcDbEntity
  8
MOJI
100
AcDbText
 10
264.0204543062572
 20
1.602460705627601
 30
0.0
 40
2.799999999999999
  1
１/１
 41
0.9
  7
ｽﾀｲﾙ1
100
AcDbText
  0
TEXT
  5
39AD
330
1A
100
AcDbEntity
  8
ZUWAKU
100
AcDbText
 10
224.6509048167012
 20
12.02767844611668
 30
0.0
 40
2.0
  1
品番
 41
0.9
  7
ｽﾀｲﾙ1
100
AcDbText
  0
TEXT
  5
39AE
330
1A
100
AcDbEntity
  8
ZUWAKU
100
AcDbText
 10
253.338312580276
 20
12.02767844611668
 30
0.0
 40
2.0
  1
用紙
 41
0.9
  7
ｽﾀｲﾙ1
100
AcDbText
  0
LINE
  5
39AF
330
1A
100
AcDbEntity
  8
ZUWAKU
100
AcDbLine
 10
324.3086015752029
 20
15.00000017692389
 30
0.0
 11
324.308601575203
 21
0.4000001769239248
 31
0.0
  0
LINE
  5
39B0
330
1A
100
AcDbEntity
  8
ZUWAKU
100
AcDbLine
 10
324.4086015752029
 20
15.00000017692389
 30
0.0
 11
324.4086015752031
 21
0.4000001769239248
 31
0.0
  0
LINE
  5
39B1
330
1A
100
AcDbEntity
  8
ZUWAKU
100
AcDbLine
 10
324.208601575203
 20
15.00000017692389
 30
0.0
 11
324.208601575203
 21
0.4000001769239248
 31
0.0
  0
LINE
  5
39B2
330
1A
100
AcDbEntity
  8
ZUWAKU
100
AcDbLine
 10
276.3634782031568
 20
15.00000017692389
 30
0.0
 11
276.3634782031569
 21
0.4000001769239248
 31
0.0
  0
LINE
  5
39B3
330
1A
100
AcDbEntity
  8
ZUWAKU
100
AcDbLine
 10
276.4634782031569
 20
15.00000017692389
 30
0.0
 11
276.463478203157
 21
0.4000001769239248
 31
0.0
  0
LINE
  5
39B4
330
1A
100
AcDbEntity
  8
ZUWAKU
100
AcDbLine
 10
276.2634782031569
 20
15.00000017692389
 30
0.0
 11
276.2634782031569
 21
0.4000001769239248
 31
0.0
  0
TEXT
  5
39B5
330
1A
100
AcDbEntity
  8
ZUWAKU
100
AcDbText
 10
325.1473240863077
 20
12.02767844611668
 30
0.0
 40
2.0
  1
DATE
 41
0.9
  7
ｽﾀｲﾙ1
100
AcDbText
  0
LINE
  5
39B6
330
1A
100
AcDbEntity
  8
ZUWAKU
100
AcDbLine
 10
348.6245055943713
 20
15.00000017692389
 30
0.0
 11
348.6245055943713
 21
0.4000001769239248
 31
0.0
  0
LINE
  5
39B7
330
1A
100
AcDbEntity
  8
ZUWAKU
100
AcDbLine
 10
348.7245055943714
 20
15.00000017692389
 30
0.0
 11
348.7245055943714
 21
0.4000001769239248
 31
0.0
  0
LINE
  5
39B8
330
1A
100
AcDbEntity
  8
ZUWAKU
100
AcDbLine
 10
348.8245055943713
 20
15.00000017692389
 30
0.0
 11
348.8245055943714
 21
0.4000001769239248
 31
0.0
  0
LINE
  5
39B9
330
1A
100
AcDbEntity
  8
ZUWAKU
100
AcDbLine
 10
348.9245055943713
 20
15.00000017692389
 30
0.0
 11
348.9245055943714
 21
0.4000001769239248
 31
0.0
  0
TEXT
  5
39BA
330
1A
100
AcDbEntity
  8
ZUWAKU
100
AcDbText
 10
354.2640424162226
 20
8.776919844767292
 30
0.0
 40
3.0
  1
積水化学工業株式会社
 41
0.9
  7
ｽﾀｲﾙ1
100
AcDbText
  0
TEXT
  5
39BB
330
1A
100
AcDbEntity
  8
ZUWAKU
100
AcDbText
 10
354.2640424162226
 20
3.324420333850923
 30
0.0
 40
3.0
  1
建材事業部
 41
0.9
  7
ｽﾀｲﾙ1
100
AcDbText
  0
VIEWPORT
  5
22
330
17
100
AcDbEntity
 67
     1
  8
0
100
AcDbViewport
 10
313.6808219178082
 20
148.5
 30
0.0
 40
627.3616438356165
 41
297.0
 68
     2
 69
     1
1001
ACAD
1000
MVIEW
1002
{
1070
    16
1010
0.0
1020
0.0
1030
0.0
1010
0.0
1020
0.0
1030
1.0
1040
0.0
1040
297.0
1040
313.6808219178082
1040
148.5
1040
50.0
1040
0.0
1040
0.0
1070
     0
1070
   100
1070
     1
1070
     0
1070
     0
1070
     0
1070
     0
1070
     0
1040
0.0
1040
0.0
1040
0.0
1040
1.0
1040
1.0
1040
10.0
1040
10.0
1070
     0
1002
{
1002
}
1002
}
  0
VIEWPORT
  5
64
330
17
100
AcDbEntity
 67
     1
  8
VIEWPORT
100
AcDbViewport
 10
210.0
 20
148.5
 30
0.0
 40
420.0
 41
297.0
 68
     1
 69
     2
1001
ACAD
1000
MVIEW
1002
{
1070
    16
1010
0.0
1020
0.0
1030
0.0
1010
0.0
1020
0.0
1030
1.0
1040
0.0
1040
302.9399999999998
1040
210.0
1040
148.5
1040
50.0
1040
0.0
1040
0.0
1070
     0
1070
   100
1070
     1
1070
     0
1070
     0
1070
     0
1070
     0
1070
     0
1040
0.0
1040
0.0
1040
0.0
1040
5.0
1040
5.0
1040
0.0
1040
0.0
1070
     0
1002
{
1002
}
1002
}
  0
ENDSEC
  0
SECTION
  2
OBJECTS
  0
DICTIONARY
  5
C
330
0
100
AcDbDictionary
  3
ACAD_GROUP
350
D
  3
ACAD_LAYOUT
350
141
  3
ACAD_MLINESTYLE
350
E
  3
ACAD_PLOTSETTINGS
350
142
  3
ACAD_PLOTSTYLENAME
350
13F
  3
ACDBHEADERROUNDTRIPXREC
350
3A50
  0
DICTIONARY
  5
73C
330
1A
100
AcDbDictionary
280
     1
  3
ACAD_LAYOUTSELFREF
360
3A72
  0
DICTIONARY
  5
73A
330
17
100
AcDbDictionary
280
     1
  3
ACAD_LAYOUTSELFREF
360
3A71
  0
DICTIONARY
  5
D
102
{ACAD_REACTORS
330
C
102
}
330
C
100
AcDbDictionary
  0
DICTIONARY
  5
141
102
{ACAD_REACTORS
330
C
102
}
330
C
100
AcDbDictionary
  0
DICTIONARY
  5
E
102
{ACAD_REACTORS
330
C
102
}
330
C
100
AcDbDictionary
  3
STANDARD
350
13
  0
DICTIONARY
  5
142
102
{ACAD_REACTORS
330
C
102
}
330
C
100
AcDbDictionary
  0
ACDBDICTIONARYWDFLT
  5
13F
102
{ACAD_REACTORS
330
C
102
}
330
C
100
AcDbDictionary
281
     1
  3
Normal
350
140
100
AcDbDictionaryWithDefault
340
140
1001
ACAD
1000
TREAT_AS_HARD
1070
     0
1000
TREAT_AS_HARD
1070
     0
1000
TREAT_AS_HARD
1070
     0
1000
TREAT_AS_HARD
1070
     0
1000
TREAT_AS_HARD
1070
     0
1000
TREAT_AS_HARD
1070
     0
1000
TREAT_AS_HARD
1070
     0
1000
TREAT_AS_HARD
1070
     0
  0
DICTIONARY
  5
3A50
102
{ACAD_REACTORS
330
C
102
}
330
C
100
AcDbDictionary
  3
TSTACKALIGN
350
3A51
  3
TSTACKSIZE
350
3A52
  3
HYPERLINKBASE
350
3A53
  3
STYLESHEET
350
3A54
  3
LAYOUTDICT
350
3A55
  3
PLOTSETDICT
350
3A56
  3
PLOTSTYLNAMDICT
350
3A57
  3
LWETCUNION
350
3A58
  3
INSUNITS
350
3A59
  3
CEPSNTYPE
350
3A5A
  3
FINGERPRINTGUID
350
3A5B
  3
VERSIONGUID
350
3A5C
  3
PSVPSCALE
350
3A5D
  3
DIMSTYLEDATA
350
3A5E
  3
PUCSORTHOREF
350
3A5F
  3
PUCSORTHOVIEW
350
3A60
  3
PUCSBASE
350
3A61
  3
PUCSORGTOP
350
3A62
  3
PUCSORGBOTTOM
350
3A63
  3
PUCSORGLEFT
350
3A64
  3
PUCSORGRIGHT
350
3A65
  3
PUCSORGFRONT
350
3A66
  3
PUCSORGBACK
350
3A67
  3
UCSORTHOREF
350
3A68
  3
UCSORTHOVIEW
350
3A69
  3
UCSBASE
350
3A6A
  3
UCSORGTOP
350
3A6B
  3
UCSORGBOTTOM
350
3A6C
  3
UCSORGLEFT
350
3A6D
  3
UCSORGRIGHT
350
3A6E
  3
UCSORGFRONT
350
3A6F
  3
UCSORGBACK
350
3A70
  0
XRECORD
  5
3A72
102
{ACAD_REACTORS
330
73C
102
}
330
73C
100
AcDbXrecord
340
1A
  0
XRECORD
  5
3A71
102
{ACAD_REACTORS
330
73A
102
}
330
73A
100
AcDbXrecord
340
17
  0
MLINESTYLE
  5
13
102
{ACAD_REACTORS
330
E
102
}
330
E
100
AcDbMlineStyle
  2
STANDARD
 70
     0
  3

 62
     0
 51
90.0
 52
90.0
 71
     2
 49
0.5
 62
   256
  6
BYLAYER
 49
-0.5
 62
   256
  6
BYLAYER
  0
ACDBPLACEHOLDER
  5
140
102
{ACAD_REACTORS
330
13F
102
}
330
13F
100
AcDbPlaceHolder
280
     0
  0
XRECORD
  5
3A51
102
{ACAD_REACTORS
330
3A50
102
}
330
3A50
100
AcDbXrecord
 90
        1
  0
XRECORD
  5
3A52
102
{ACAD_REACTORS
330
3A50
102
}
330
3A50
100
AcDbXrecord
 90
       70
  0
XRECORD
  5
3A53
102
{ACAD_REACTORS
330
3A50
102
}
330
3A50
100
AcDbXrecord
  1

  0
XRECORD
  5
3A54
102
{ACAD_REACTORS
330
3A50
102
}
330
3A50
100
AcDbXrecord
  1
systemprinter.ctb
  0
XRECORD
  5
3A55
102
{ACAD_REACTORS
330
3A50
102
}
330
3A50
100
AcDbXrecord
340
141
  0
XRECORD
  5
3A56
102
{ACAD_REACTORS
330
3A50
102
}
330
3A50
100
AcDbXrecord
340
142
  0
XRECORD
  5
3A57
102
{ACAD_REACTORS
330
3A50
102
}
330
3A50
100
AcDbXrecord
340
13F
  0
XRECORD
  5
3A58
102
{ACAD_REACTORS
330
3A50
102
}
330
3A50
100
AcDbXrecord
 90
    10781
  0
XRECORD
  5
3A59
102
{ACAD_REACTORS
330
3A50
102
}
330
3A50
100
AcDbXrecord
 90
        0
  0
XRECORD
  5
3A5A
102
{ACAD_REACTORS
330
3A50
102
}
330
3A50
100
AcDbXrecord
 90
        0
  0
XRECORD
  5
3A5B
102
{ACAD_REACTORS
330
3A50
102
}
330
3A50
100
AcDbXrecord
  1
{4E8D0500-CDD1-11D3-932C-444553540000}
  0
XRECORD
  5
3A5C
102
{ACAD_REACTORS
330
3A50
102
}
330
3A50
100
AcDbXrecord
  1
{7E5B7E47-11A8-4A90-8646-733ADA5278AE}
  0
XRECORD
  5
3A5D
102
{ACAD_REACTORS
330
3A50
102
}
330
3A50
100
AcDbXrecord
 40
0.0
  0
XRECORD
  5
3A5E
102
{ACAD_REACTORS
330
3A50
102
}
330
3A50
100
AcDbXrecord
1000
DSTYLE
1002
{
1070
   341
340
B2
1070
   343
340
B2
1070
   344
340
B2
1070
   371
 70
    -1
1070
   372
 70
    -1
1002
}
  0
XRECORD
  5
3A5F
102
{ACAD_REACTORS
330
3A50
102
}
330
3A50
100
AcDbXrecord
340
0
  0
XRECORD
  5
3A60
102
{ACAD_REACTORS
330
3A50
102
}
330
3A50
100
AcDbXrecord
 70
     0
  0
XRECORD
  5
3A61
102
{ACAD_REACTORS
330
3A50
102
}
330
3A50
100
AcDbXrecord
340
0
  0
XRECORD
  5
3A62
102
{ACAD_REACTORS
330
3A50
102
}
330
3A50
100
AcDbXrecord
 10
0.0
 20
0.0
 30
0.0
  0
XRECORD
  5
3A63
102
{ACAD_REACTORS
330
3A50
102
}
330
3A50
100
AcDbXrecord
 10
0.0
 20
0.0
 30
0.0
  0
XRECORD
  5
3A64
102
{ACAD_REACTORS
330
3A50
102
}
330
3A50
100
AcDbXrecord
 10
0.0
 20
0.0
 30
0.0
  0
XRECORD
  5
3A65
102
{ACAD_REACTORS
330
3A50
102
}
330
3A50
100
AcDbXrecord
 10
0.0
 20
0.0
 30
0.0
  0
XRECORD
  5
3A66
102
{ACAD_REACTORS
330
3A50
102
}
330
3A50
100
AcDbXrecord
 10
0.0
 20
0.0
 30
0.0
  0
XRECORD
  5
3A67
102
{ACAD_REACTORS
330
3A50
102
}
330
3A50
100
AcDbXrecord
 10
0.0
 20
0.0
 30
0.0
  0
XRECORD
  5
3A68
102
{ACAD_REACTORS
330
3A50
102
}
330
3A50
100
AcDbXrecord
340
0
  0
XRECORD
  5
3A69
102
{ACAD_REACTORS
330
3A50
102
}
330
3A50
100
AcDbXrecord
 70
     0
  0
XRECORD
  5
3A6A
102
{ACAD_REACTORS
330
3A50
102
}
330
3A50
100
AcDbXrecord
340
0
  0
XRECORD
  5
3A6B
102
{ACAD_REACTORS
330
3A50
102
}
330
3A50
100
AcDbXrecord
 10
0.0
 20
0.0
 30
0.0
  0
XRECORD
  5
3A6C
102
{ACAD_REACTORS
330
3A50
102
}
330
3A50
100
AcDbXrecord
 10
0.0
 20
0.0
 30
0.0
  0
XRECORD
  5
3A6D
102
{ACAD_REACTORS
330
3A50
102
}
330
3A50
100
AcDbXrecord
 10
0.0
 20
0.0
 30
0.0
  0
XRECORD
  5
3A6E
102
{ACAD_REACTORS
330
3A50
102
}
330
3A50
100
AcDbXrecord
 10
0.0
 20
0.0
 30
0.0
  0
XRECORD
  5
3A6F
102
{ACAD_REACTORS
330
3A50
102
}
330
3A50
100
AcDbXrecord
 10
0.0
 20
0.0
 30
0.0
  0
XRECORD
  5
3A70
102
{ACAD_REACTORS
330
3A50
102
}
330
3A50
100
AcDbXrecord
 10
0.0
 20
0.0
 30
0.0
  0
ENDSEC
  0
EOF
