  0
SECTION
  2
HEADER
  9
$ACADVER
  1
AC1014
  9
$ACADMAINTVER
 70
     9
  9
$DWGCODEPAGE
  3
ANSI_932
  9
$INSBASE
 10
0.0
 20
0.0
 30
0.0
  9
$EXTMIN
 10
-0.0128164049386896
 20
-0.0090630292066862
 30
-0.0000000100021362
  9
$EXTMAX
 10
398.8000497813338
 20
275.8226172440017
 30
0.0000000100021363
  9
$LIMMIN
 10
0.0
 20
0.0
  9
$LIMMAX
 10
420.0
 20
297.0
  9
$ORTHOMODE
 70
     0
  9
$REGENMODE
 70
     1
  9
$FILLMODE
 70
     1
  9
$QTEXTMODE
 70
     0
  9
$MIRRTEXT
 70
     1
  9
$DRAGMODE
 70
     2
  9
$LTSCALE
 40
5.0
  9
$OSMODE
 70
    35
  9
$ATTMODE
 70
     1
  9
$TEXTSIZE
 40
3.0
  9
$TRACEWID
 40
1.0
  9
$TEXTSTYLE
  7
STANDARD
  9
$CLAYER
  8
NOKITOI
  9
$CELTYPE
  6
BYLAYER
  9
$CECOLOR
 62
   256
  9
$CELTSCALE
 40
1.0
  9
$DELOBJ
 70
     1
  9
$DISPSILH
 70
     0
  9
$DIMSCALE
 40
1.0
  9
$DIMASZ
 40
3.0
  9
$DIMEXO
 40
3.0
  9
$DIMDLI
 40
7.0
  9
$DIMRND
 40
0.0
  9
$DIMDLE
 40
0.0
  9
$DIMEXE
 40
1.5
  9
$DIMTP
 40
0.0
  9
$DIMTM
 40
0.0
  9
$DIMTXT
 40
3.0
  9
$DIMCEN
 40
3.0
  9
$DIMTSZ
 40
0.0
  9
$DIMTOL
 70
     0
  9
$DIMLIM
 70
     0
  9
$DIMTIH
 70
     0
  9
$DIMTOH
 70
     0
  9
$DIMSE1
 70
     0
  9
$DIMSE2
 70
     0
  9
$DIMTAD
 70
     3
  9
$DIMZIN
 70
     0
  9
$DIMBLK
  1

  9
$DIMASO
 70
     1
  9
$DIMSHO
 70
     1
  9
$DIMPOST
  1

  9
$DIMAPOST
  1

  9
$DIMALT
 70
     0
  9
$DIMALTD
 70
     2
  9
$DIMALTF
 40
25.4
  9
$DIMLFAC
 40
1.0
  9
$DIMTOFL
 70
     1
  9
$DIMTVP
 40
0.0
  9
$DIMTIX
 70
     0
  9
$DIMSOXD
 70
     0
  9
$DIMSAH
 70
     1
  9
$DIMBLK1
  1
OPEN
  9
$DIMBLK2
  1
OPEN
  9
$DIMSTYLE
  2
STANDARD
  9
$DIMCLRD
 70
   256
  9
$DIMCLRE
 70
   256
  9
$DIMCLRT
 70
   256
  9
$DIMTFAC
 40
1.0
  9
$DIMGAP
 40
1.0
  9
$DIMJUST
 70
     0
  9
$DIMSD1
 70
     0
  9
$DIMSD2
 70
     0
  9
$DIMTOLJ
 70
     1
  9
$DIMTZIN
 70
     0
  9
$DIMALTZ
 70
     0
  9
$DIMALTTZ
 70
     0
  9
$DIMFIT
 70
     3
  9
$DIMUPT
 70
     0
  9
$DIMUNIT
 70
     2
  9
$DIMDEC
 70
     0
  9
$DIMTDEC
 70
     0
  9
$DIMALTU
 70
     2
  9
$DIMALTTD
 70
     2
  9
$DIMTXSTY
  7
STANDARD
  9
$DIMAUNIT
 70
     0
  9
$LUNITS
 70
     2
  9
$LUPREC
 70
     4
  9
$SKETCHINC
 40
1.0
  9
$FILLETRAD
 40
10.0
  9
$AUNITS
 70
     0
  9
$AUPREC
 70
     0
  9
$MENU
  1
.
  9
$ELEVATION
 40
0.0
  9
$PELEVATION
 40
0.0
  9
$THICKNESS
 40
0.0
  9
$LIMCHECK
 70
     0
  9
$BLIPMODE
 70
     0
  9
$CHAMFERA
 40
10.0
  9
$CHAMFERB
 40
10.0
  9
$CHAMFERC
 40
20.0
  9
$CHAMFERD
 40
0.0
  9
$SKPOLY
 70
     0
  9
$TDCREATE
 40
2451569.441154629
  9
$TDUPDATE
 40
2453802.456989826
  9
$TDINDWG
 40
0.1802551042
  9
$TDUSRTIMER
 40
0.1802551042
  9
$USRTIMER
 70
     1
  9
$ANGBASE
 50
0.0
  9
$ANGDIR
 70
     0
  9
$PDMODE
 70
     0
  9
$PDSIZE
 40
0.0
  9
$PLINEWID
 40
0.0
  9
$COORDS
 70
     1
  9
$SPLFRAME
 70
     0
  9
$SPLINETYPE
 70
     6
  9
$SPLINESEGS
 70
     8
  9
$ATTDIA
 70
     0
  9
$ATTREQ
 70
     1
  9
$HANDLING
 70
 10241
  9
$HANDSEED
  5
4895
  9
$SURFTAB1
 70
     6
  9
$SURFTAB2
 70
     6
  9
$SURFTYPE
 70
     6
  9
$SURFU
 70
     6
  9
$SURFV
 70
     6
  9
$UCSNAME
  2

  9
$UCSORG
 10
0.0
 20
0.0
 30
0.0
  9
$UCSXDIR
 10
1.0
 20
0.0
 30
0.0
  9
$UCSYDIR
 10
0.0
 20
1.0
 30
0.0
  9
$PUCSNAME
  2

  9
$PUCSORG
 10
0.0
 20
0.0
 30
0.0
  9
$PUCSXDIR
 10
1.0
 20
0.0
 30
0.0
  9
$PUCSYDIR
 10
0.0
 20
1.0
 30
0.0
  9
$USERI1
 70
     0
  9
$USERI2
 70
     0
  9
$USERI3
 70
     0
  9
$USERI4
 70
     0
  9
$USERI5
 70
     0
  9
$USERR1
 40
0.0
  9
$USERR2
 40
0.0
  9
$USERR3
 40
0.0
  9
$USERR4
 40
0.0
  9
$USERR5
 40
0.0
  9
$WORLDVIEW
 70
     1
  9
$SHADEDGE
 70
     3
  9
$SHADEDIF
 70
    70
  9
$TILEMODE
 70
     1
  9
$MAXACTVP
 70
    16
  9
$PINSBASE
 10
0.0
 20
0.0
 30
0.0
  9
$PLIMCHECK
 70
     0
  9
$PEXTMIN
 10
0.0
 20
0.0
 30
0.0
  9
$PEXTMAX
 10
420.0
 20
297.0
 30
0.0
  9
$PLIMMIN
 10
0.0
 20
0.0
  9
$PLIMMAX
 10
420.0
 20
297.0
  9
$UNITMODE
 70
     0
  9
$VISRETAIN
 70
     0
  9
$PLINEGEN
 70
     0
  9
$PSLTSCALE
 70
     1
  9
$TREEDEPTH
 70
  3020
  9
$PICKSTYLE
 70
     1
  9
$CMLSTYLE
  2
STANDARD
  9
$CMLJUST
 70
     0
  9
$CMLSCALE
 40
1.0
  9
$PROXYGRAPHICS
 70
     1
  9
$MEASUREMENT
 70
     1
  0
ENDSEC
  0
SECTION
  2
CLASSES
  0
CLASS
  1
ACDBDICTIONARYWDFLT
  2
AcDbDictionaryWithDefault
  3
AutoCAD 2000
 90
        0
280
     0
281
     0
  0
CLASS
  1
ACDBPLACEHOLDER
  2
AcDbPlaceHolder
  3
AutoCAD 2000
 90
        0
280
     0
281
     0
  0
CLASS
  1
LAYOUT
  2
AcDbLayout
  3
AutoCAD 2000
 90
        0
280
     0
281
     0
  0
CLASS
  1
LONG_TRANSACTION
  2
AcDbLongTransaction
  3
AutoCAD 2000
 90
        0
280
     0
281
     0
  0
CLASS
  1
LWPOLYLINE
  2
AcDbPolyline
  3
AutoCAD 2000
 90
        0
280
     0
281
     1
  0
CLASS
  1
HATCH
  2
AcDbHatch
  3
AutoCAD 2000
 90
        0
280
     0
281
     1
  0
CLASS
  1
XRECORD
  2
AcDbXrecord
  3
AutoCAD 2000
 90
        0
280
     0
281
     0
  0
CLASS
  1
LONG_TRANSACTION
  2
AcDbLongTransaction
  3
AutoCAD 2000
 90
        0
280
     0
281
     0
  0
CLASS
  1
LWPOLYLINE
  2
AcDbPolyline
  3
AutoCAD 2000
 90
        0
280
     0
281
     1
  0
CLASS
  1
HATCH
  2
AcDbHatch
  3
AutoCAD 2000
 90
        0
280
     0
281
     1
  0
CLASS
  1
XRECORD
  2
AcDbXrecord
  3
AutoCAD 2000
 90
        0
280
     0
281
     0
  0
CLASS
  1
LONG_TRANSACTION
  2
AcDbLongTransaction
  3
AutoCAD 2000
 90
        0
280
     0
281
     0
  0
CLASS
  1
LWPOLYLINE
  2
AcDbPolyline
  3
AutoCAD 2000
 90
        0
280
     0
281
     1
  0
CLASS
  1
HATCH
  2
AcDbHatch
  3
AutoCAD 2000
 90
        0
280
     0
281
     1
  0
CLASS
  1
XRECORD
  2
AcDbXrecord
  3
AutoCAD 2000
 90
        0
280
     0
281
     0
  0
CLASS
  1
LONG_TRANSACTION
  2
AcDbLongTransaction
  3
AutoCAD 2000
 90
        0
280
     0
281
     0
  0
CLASS
  1
LWPOLYLINE
  2
AcDbPolyline
  3
AutoCAD 2000
 90
        0
280
     0
281
     1
  0
CLASS
  1
HATCH
  2
AcDbHatch
  3
AutoCAD 2000
 90
        0
280
     0
281
     1
  0
CLASS
  1
XRECORD
  2
AcDbXrecord
  3
AutoCAD 2000
 90
        0
280
     0
281
     0
  0
CLASS
  1
LONG_TRANSACTION
  2
AcDbLongTransaction
  3
AutoCAD 2000
 90
        0
280
     0
281
     0
  0
CLASS
  1
LWPOLYLINE
  2
AcDbPolyline
  3
AutoCAD 2000
 90
        0
280
     0
281
     1
  0
CLASS
  1
HATCH
  2
AcDbHatch
  3
AutoCAD 2000
 90
        0
280
     0
281
     1
  0
CLASS
  1
XRECORD
  2
AcDbXrecord
  3
AutoCAD 2000
 90
        0
280
     0
281
     0
  0
CLASS
  1
LONG_TRANSACTION
  2
AcDbLongTransaction
  3
AutoCAD 2000
 90
        0
280
     0
281
     0
  0
CLASS
  1
LWPOLYLINE
  2
AcDbPolyline
  3
AutoCAD 2000
 90
        0
280
     0
281
     1
  0
CLASS
  1
HATCH
  2
AcDbHatch
  3
AutoCAD 2000
 90
        0
280
     0
281
     1
  0
CLASS
  1
XRECORD
  2
AcDbXrecord
  3
AutoCAD 2000
 90
        0
280
     0
281
     0
  0
CLASS
  1
LONG_TRANSACTION
  2
AcDbLongTransaction
  3
AutoCAD 2000
 90
        0
280
     0
281
     0
  0
CLASS
  1
LWPOLYLINE
  2
AcDbPolyline
  3
AutoCAD 2000
 90
        0
280
     0
281
     1
  0
CLASS
  1
HATCH
  2
AcDbHatch
  3
AutoCAD 2000
 90
        0
280
     0
281
     1
  0
CLASS
  1
XRECORD
  2
AcDbXrecord
  3
AutoCAD 2000
 90
        0
280
     0
281
     0
  0
CLASS
  1
LONG_TRANSACTION
  2
AcDbLongTransaction
  3
AutoCAD 2000
 90
        0
280
     0
281
     0
  0
CLASS
  1
LWPOLYLINE
  2
AcDbPolyline
  3
AutoCAD 2000
 90
        0
280
     0
281
     1
  0
CLASS
  1
HATCH
  2
AcDbHatch
  3
AutoCAD 2000
 90
        0
280
     0
281
     1
  0
CLASS
  1
XRECORD
  2
AcDbXrecord
  3
AutoCAD 2000
 90
        0
280
     0
281
     0
  0
CLASS
  1
LONG_TRANSACTION
  2
AcDbLongTransaction
  3
AutoCAD 2000
 90
        0
280
     0
281
     0
  0
CLASS
  1
LWPOLYLINE
  2
AcDbPolyline
  3
AutoCAD 2000
 90
        0
280
     0
281
     1
  0
CLASS
  1
HATCH
  2
AcDbHatch
  3
AutoCAD 2000
 90
        0
280
     0
281
     1
  0
CLASS
  1
XRECORD
  2
AcDbXrecord
  3
AutoCAD 2000
 90
        0
280
     0
281
     0
  0
ENDSEC
  0
SECTION
  2
TABLES
  0
TABLE
  2
VPORT
  5
8
330
0
100
AcDbSymbolTable
 70
     2
  0
VPORT
  5
4871
330
8
100
AcDbSymbolTableRecord
100
AcDbViewportTableRecord
  2
*ACTIVE
 70
     0
 10
0.0
 20
0.0
 11
1.0
 21
1.0
 12
211.2939912783658
 22
143.1865947965545
 13
0.0
 23
0.0
 14
5.0
 24
5.0
 15
0.0
 25
0.0
 16
0.0
 26
0.0
 36
1.0
 17
0.0
 27
0.0
 37
0.0
 40
306.1770034386972
 41
1.795454545454545
 42
50.0
 43
0.0
 44
0.0
 50
0.0
 51
0.0
 71
     0
 72
   100
 73
     1
 74
     0
 75
     0
 76
     0
 77
     0
 78
     0
  0
ENDTAB
  0
TABLE
  2
LTYPE
  5
5
330
0
100
AcDbSymbolTable
 70
     4
  0
LTYPE
  5
14
330
5
100
AcDbSymbolTableRecord
100
AcDbLinetypeTableRecord
  2
BYBLOCK
 70
     0
  3

 72
    65
 73
     0
 40
0.0
  0
LTYPE
  5
15
330
5
100
AcDbSymbolTableRecord
100
AcDbLinetypeTableRecord
  2
BYLAYER
 70
     0
  3

 72
    65
 73
     0
 40
0.0
  0
LTYPE
  5
16
330
5
100
AcDbSymbolTableRecord
100
AcDbLinetypeTableRecord
  2
CONTINUOUS
 70
     0
  3
Solid line
 72
    65
 73
     0
 40
0.0
  0
LTYPE
  5
120
330
5
100
AcDbSymbolTableRecord
100
AcDbLinetypeTableRecord
  2
CENTER
 70
     0
  3
____ _ ____ _ ____ _ ____ _ ____ _ ____ _ ____ 
 72
    65
 73
     4
 40
2.0
 49
1.25
 74
     0
 49
-0.25
 74
     0
 49
0.25
 74
     0
 49
-0.25
 74
     0
  0
LTYPE
  5
122
330
5
100
AcDbSymbolTableRecord
100
AcDbLinetypeTableRecord
  2
PHANTOM
 70
     0
  3
______  __  __  ______  __  __  ______  __  __ 
 72
    65
 73
     6
 40
2.5
 49
1.25
 74
     0
 49
-0.25
 74
     0
 49
0.25
 74
     0
 49
-0.25
 74
     0
 49
0.25
 74
     0
 49
-0.25
 74
     0
  0
LTYPE
  5
12B
330
5
100
AcDbSymbolTableRecord
100
AcDbLinetypeTableRecord
  2
DASHED
 70
     0
  3
__ __ __ __ __ __ __ __ __ __ __ __ __ __ __ __
 72
    65
 73
     2
 40
0.75
 49
0.5
 74
     0
 49
-0.25
 74
     0
  0
ENDTAB
  0
TABLE
  2
LAYER
  5
2
330
0
100
AcDbSymbolTable
 70
     9
  0
LAYER
  5
F
330
2
100
AcDbSymbolTableRecord
100
AcDbLayerTableRecord
  2
0
 70
     0
 62
     7
  6
CONTINUOUS
  0
LAYER
  5
62
330
2
100
AcDbSymbolTableRecord
100
AcDbLayerTableRecord
  2
VIEWPORT
 70
     0
 62
     7
  6
CONTINUOUS
  0
LAYER
  5
6B
330
2
100
AcDbSymbolTableRecord
100
AcDbLayerTableRecord
  2
ZUWAKU
 70
     0
 62
     7
  6
CONTINUOUS
  0
LAYER
  5
48C
330
2
100
AcDbSymbolTableRecord
100
AcDbLayerTableRecord
  2
DEFPOINTS
 70
     0
 62
     7
  6
CONTINUOUS
  0
LAYER
  5
629
330
2
100
AcDbSymbolTableRecord
100
AcDbLayerTableRecord
  2
SEIHIN
 70
     0
 62
     3
  6
CONTINUOUS
  0
LAYER
  5
62A
330
2
100
AcDbSymbolTableRecord
100
AcDbLayerTableRecord
  2
SUNPOU
 70
     0
 62
     4
  6
CONTINUOUS
  0
LAYER
  5
62B
330
2
100
AcDbSymbolTableRecord
100
AcDbLayerTableRecord
  2
CENTER_L
 70
     0
 62
     1
  6
CENTER
  0
LAYER
  5
65C
330
2
100
AcDbSymbolTableRecord
100
AcDbLayerTableRecord
  2
NOKITOI
 70
     0
 62
     8
  6
PHANTOM
  0
LAYER
  5
466F
330
2
100
AcDbSymbolTableRecord
100
AcDbLayerTableRecord
  2
MOJI
 70
     0
 62
     2
  6
CONTINUOUS
  0
ENDTAB
  0
TABLE
  2
STYLE
  5
3
330
0
100
AcDbSymbolTable
 70
     2
  0
STYLE
  5
10
330
3
100
AcDbSymbolTableRecord
100
AcDbTextStyleTableRecord
  2
STANDARD
 70
     0
 40
0.0
 41
1.0
 50
0.0
 71
     0
 42
3.0
  3
TXT
  4
c:\PROGRAM FILES\AUTOCAD LT\ms\bigfont.shx
  0
STYLE
  5
4670
330
3
100
AcDbSymbolTableRecord
100
AcDbTextStyleTableRecord
  2
ｽﾀｲﾙ1
 70
     0
 40
0.0
 41
1.0
 50
0.0
 71
     0
 42
2.5
  3
MS PGothic.ttf
  4

1001
ACAD
1000
MS PGothic
1071
    32818
  0
ENDTAB
  0
TABLE
  2
VIEW
  5
6
330
0
100
AcDbSymbolTable
 70
     0
  0
ENDTAB
  0
TABLE
  2
UCS
  5
7
330
0
100
AcDbSymbolTable
 70
     0
  0
ENDTAB
  0
TABLE
  2
APPID
  5
9
330
0
100
AcDbSymbolTable
 70
     1
  0
APPID
  5
11
330
9
100
AcDbSymbolTableRecord
100
AcDbRegAppTableRecord
  2
ACAD
 70
     0
  0
ENDTAB
  0
TABLE
  2
DIMSTYLE
  5
A
330
0
100
AcDbSymbolTable
 70
     1
  0
DIMSTYLE
105
1D
102
{ACAD_REACTORS
330
1057
330
39C3
330
39C4
330
39C6
330
3B4E
330
3B59
330
3B64
330
3B65
330
3B67
330
3B68
330
3B6C
330
3D54
330
3D9F
330
44AB
330
44CA
102
}
330
A
100
AcDbSymbolTableRecord
100
AcDbDimStyleTableRecord
  2
STANDARD
 70
     0
  3

  4

  5

  6

  7

 40
1.0
 41
0.18
 42
0.0625
 43
0.38
 44
0.18
 45
0.0
 46
0.0
 47
0.0
 48
0.0
140
0.18
141
0.09
142
0.0
143
25.4
144
1.0
145
0.0
146
1.0
147
0.09
 71
     0
 72
     0
 73
     1
 74
     1
 75
     0
 76
     0
 77
     0
 78
     0
170
     0
171
     2
172
     0
173
     0
174
     0
175
     0
176
     0
177
     0
178
     0
270
     2
271
     4
272
     4
273
     2
274
     2
340
10
275
     0
280
     0
281
     0
282
     0
283
     1
284
     0
285
     0
286
     0
287
     3
288
     0
  0
ENDTAB
  0
TABLE
  2
BLOCK_RECORD
  5
1
330
0
100
AcDbSymbolTable
 70
    16
  0
BLOCK_RECORD
  5
1A
102
{ACAD_XDICTIONARY
360
73C
102
}
330
1
100
AcDbSymbolTableRecord
100
AcDbBlockTableRecord
  2
*MODEL_SPACE
  0
BLOCK_RECORD
  5
17
102
{ACAD_XDICTIONARY
360
73A
102
}
330
1
100
AcDbSymbolTableRecord
100
AcDbBlockTableRecord
  2
*PAPER_SPACE
  0
BLOCK_RECORD
  5
B2
330
1
100
AcDbSymbolTableRecord
100
AcDbBlockTableRecord
  2
_OPEN
  0
BLOCK_RECORD
  5
1058
330
1
100
AcDbSymbolTableRecord
100
AcDbBlockTableRecord
  2
*D1
  0
BLOCK_RECORD
  5
3BA4
330
1
100
AcDbSymbolTableRecord
100
AcDbBlockTableRecord
  2
*D2
  0
BLOCK_RECORD
  5
3BB0
330
1
100
AcDbSymbolTableRecord
100
AcDbBlockTableRecord
  2
*D3
  0
BLOCK_RECORD
  5
3BBC
330
1
100
AcDbSymbolTableRecord
100
AcDbBlockTableRecord
  2
*D4
  0
BLOCK_RECORD
  5
3C06
330
1
100
AcDbSymbolTableRecord
100
AcDbBlockTableRecord
  2
*D5
  0
BLOCK_RECORD
  5
3C12
330
1
100
AcDbSymbolTableRecord
100
AcDbBlockTableRecord
  2
*D6
  0
BLOCK_RECORD
  5
3C20
330
1
100
AcDbSymbolTableRecord
100
AcDbBlockTableRecord
  2
*D7
  0
BLOCK_RECORD
  5
3C2C
330
1
100
AcDbSymbolTableRecord
100
AcDbBlockTableRecord
  2
*D8
  0
BLOCK_RECORD
  5
3C38
330
1
100
AcDbSymbolTableRecord
100
AcDbBlockTableRecord
  2
*D9
  0
BLOCK_RECORD
  5
3C46
330
1
100
AcDbSymbolTableRecord
100
AcDbBlockTableRecord
  2
*D10
  0
BLOCK_RECORD
  5
3C52
330
1
100
AcDbSymbolTableRecord
100
AcDbBlockTableRecord
  2
*D11
  0
BLOCK_RECORD
  5
3D55
330
1
100
AcDbSymbolTableRecord
100
AcDbBlockTableRecord
  2
*D12
  0
BLOCK_RECORD
  5
3DA0
330
1
100
AcDbSymbolTableRecord
100
AcDbBlockTableRecord
  2
*D13
  0
BLOCK_RECORD
  5
44AC
330
1
100
AcDbSymbolTableRecord
100
AcDbBlockTableRecord
  2
*D14
  0
BLOCK_RECORD
  5
44CB
330
1
100
AcDbSymbolTableRecord
100
AcDbBlockTableRecord
  2
*D15
  0
ENDTAB
  0
ENDSEC
  0
SECTION
  2
BLOCKS
  0
BLOCK
  5
1B
330
1A
100
AcDbEntity
  8
0
100
AcDbBlockBegin
  2
*MODEL_SPACE
 70
     0
 10
0.0
 20
0.0
 30
0.0
  3
*MODEL_SPACE
  1

  0
ENDBLK
  5
1C
330
1A
100
AcDbEntity
  8
0
100
AcDbBlockEnd
  0
BLOCK
  5
18
330
17
100
AcDbEntity
 67
     1
  8
0
100
AcDbBlockBegin
  2
*PAPER_SPACE
 70
     0
 10
0.0
 20
0.0
 30
0.0
  3
*PAPER_SPACE
  1

  0
ENDBLK
  5
19
330
17
100
AcDbEntity
 67
     1
  8
0
100
AcDbBlockEnd
  0
BLOCK
  5
B3
330
B2
100
AcDbEntity
  8
0
100
AcDbBlockBegin
  2
_OPEN
 70
     0
 10
0.0
 20
0.0
 30
0.0
  3
_OPEN
  1

  0
LINE
  5
B4
330
B2
100
AcDbEntity
  8
0
  6
BYBLOCK
 62
     0
100
AcDbLine
 10
-1.0
 20
0.1666666666666666
 30
0.0
 11
0.0
 21
0.0
 31
0.0
  0
LINE
  5
B5
330
B2
100
AcDbEntity
  8
0
  6
BYBLOCK
 62
     0
100
AcDbLine
 10
0.0
 20
0.0
 30
0.0
 11
-1.0
 21
-0.1666666666666666
 31
0.0
  0
LINE
  5
B6
330
B2
100
AcDbEntity
  8
0
  6
BYBLOCK
 62
     0
100
AcDbLine
 10
0.0
 20
0.0
 30
0.0
 11
-1.0
 21
0.0
 31
0.0
  0
ENDBLK
  5
B7
330
B2
100
AcDbEntity
  8
0
100
AcDbBlockEnd
  0
BLOCK
  5
1062
330
1058
100
AcDbEntity
  8
0
100
AcDbBlockBegin
  2
*D1
 70
     1
 10
0.0
 20
0.0
 30
0.0
  3
*D1
  1

  0
LINE
  5
4804
330
1058
100
AcDbEntity
  8
SUNPOU
100
AcDbLine
 10
57.95965783733155
 20
222.1238297005792
 30
0.0
 11
33.57439519068203
 21
222.1238297005792
 31
0.0
  0
LINE
  5
4805
330
1058
100
AcDbEntity
  8
SUNPOU
100
AcDbLine
 10
57.95965783733155
 20
200.1238296605791
 30
0.0
 11
33.57439519068202
 21
200.1238296605791
 31
0.0
  0
LINE
  5
4806
330
1058
100
AcDbEntity
  8
SUNPOU
100
AcDbLine
 10
35.07439519068203
 20
219.1238297005792
 30
0.0
 11
35.07439519068202
 21
203.1238296605791
 31
0.0
  0
INSERT
  5
4807
330
1058
100
AcDbEntity
  8
SUNPOU
100
AcDbBlockReference
  2
_OPEN
 10
35.07439519068203
 20
222.1238297005792
 30
0.0
 41
3.0
 42
3.0
 43
3.0
 50
90.0
  0
INSERT
  5
4808
330
1058
100
AcDbEntity
  8
SUNPOU
100
AcDbBlockReference
  2
_OPEN
 10
35.07439519068202
 20
200.1238296605791
 30
0.0
 41
3.0
 42
3.0
 43
3.0
 50
270.0
  0
MTEXT
  5
4809
330
1058
100
AcDbEntity
  8
SUNPOU
100
AcDbMText
 10
32.57439519068199
 20
211.1238296805791
 30
0.0
 40
3.0
 41
0.0
 71
     5
 72
     1
  1
\A1;22
 11
0.0000000000000001
 21
1.0
 31
0.0
1001
ACAD
1000
MTEXTBEGIN
1070
    73
1070
     1
1070
    44
1040
1.0
1070
    74
1070
     0
1000
MTEXTEND
  0
POINT
  5
480A
330
1058
100
AcDbEntity
  8
DEFPOINTS
 62
     0
100
AcDbPoint
 10
60.95965783733155
 20
222.1238297005792
 30
0.0
  0
POINT
  5
480B
330
1058
100
AcDbEntity
  8
DEFPOINTS
 62
     0
100
AcDbPoint
 10
60.95965783733155
 20
200.1238296605791
 30
0.0
  0
POINT
  5
480C
330
1058
100
AcDbEntity
  8
DEFPOINTS
 62
     0
100
AcDbPoint
 10
35.07439519068202
 20
200.1238296605791
 30
0.0
  0
ENDBLK
  5
1063
330
1058
100
AcDbEntity
  8
0
100
AcDbBlockEnd
  0
BLOCK
  5
3BAE
330
3BA4
100
AcDbEntity
  8
0
100
AcDbBlockBegin
  2
*D2
 70
     1
 10
0.0
 20
0.0
 30
0.0
  3
*D2
  1

  0
LINE
  5
4821
330
3BA4
100
AcDbEntity
  8
SUNPOU
100
AcDbLine
 10
213.3543611143334
 20
148.9017728618691
 30
0.0
 11
228.0642109782001
 21
156.2566977938025
 31
0.0
  0
LINE
  5
4822
330
3BA4
100
AcDbEntity
  8
SUNPOU
100
AcDbLine
 10
236.6094680803313
 20
102.3915589298735
 30
0.0
 11
251.3193179441981
 21
109.746483861807
 31
0.0
  0
LINE
  5
4823
330
3BA4
100
AcDbEntity
  8
SUNPOU
100
AcDbLine
 10
228.0642109782001
 20
152.9025958275529
 30
0.0
 11
248.6360363711983
 21
111.7589450415568
 31
0.0
  0
INSERT
  5
4824
330
3BA4
100
AcDbEntity
  8
SUNPOU
100
AcDbBlockReference
  2
_OPEN
 10
226.7225701917003
 20
155.5858774005526
 30
0.0
 41
3.0
 42
3.0
 43
3.0
 50
116.5650511770781
  0
INSERT
  5
4825
330
3BA4
100
AcDbEntity
  8
SUNPOU
100
AcDbBlockReference
  2
_OPEN
 10
249.9776771576982
 20
109.075663468557
 30
0.0
 41
3.0
 42
3.0
 43
3.0
 50
296.5650511770781
  0
MTEXT
  5
4826
330
3BA4
100
AcDbEntity
  8
SUNPOU
100
AcDbMText
 10
240.586191652199
 20
133.4488044233047
 30
0.0
 40
3.0
 41
0.0
 71
     5
 72
     1
  1
\A1;52
 11
0.4472135954999605
 21
-0.8944271909999146
 31
0.0
1001
ACAD
1000
MTEXTBEGIN
1070
    73
1070
     1
1070
    44
1040
1.0
1070
    74
1070
     0
1000
MTEXTEND
  0
POINT
  5
4827
330
3BA4
100
AcDbEntity
  8
DEFPOINTS
 62
     0
100
AcDbPoint
 10
210.6710795413337
 20
147.5601320753692
 30
0.0
  0
POINT
  5
4828
330
3BA4
100
AcDbEntity
  8
DEFPOINTS
 62
     0
100
AcDbPoint
 10
233.9261865073316
 20
101.0499181433736
 30
0.0
  0
POINT
  5
4829
330
3BA4
100
AcDbEntity
  8
DEFPOINTS
 62
     0
100
AcDbPoint
 10
249.9776771576982
 20
109.075663468557
 30
0.0
  0
ENDBLK
  5
3BAF
330
3BA4
100
AcDbEntity
  8
0
100
AcDbBlockEnd
  0
BLOCK
  5
3BBA
330
3BB0
100
AcDbEntity
  8
0
100
AcDbBlockBegin
  2
*D3
 70
     1
 10
0.0
 20
0.0
 30
0.0
  3
*D3
  1

  0
LINE
  5
4845
330
3BB0
100
AcDbEntity
  8
SUNPOU
100
AcDbLine
 10
236.031759316248
 20
237.6238296805792
 30
0.0
 11
252.35581569377
 21
237.6238296805792
 31
0.0
  0
LINE
  5
4846
330
3BB0
100
AcDbEntity
  8
SUNPOU
100
AcDbLine
 10
236.031759316248
 20
184.6238296805791
 30
0.0
 11
252.35581569377
 21
184.6238296805791
 31
0.0
  0
LINE
  5
4847
330
3BB0
100
AcDbEntity
  8
SUNPOU
100
AcDbLine
 10
250.85581569377
 20
234.6238296805791
 30
0.0
 11
250.85581569377
 21
187.6238296805792
 31
0.0
  0
INSERT
  5
4848
330
3BB0
100
AcDbEntity
  8
SUNPOU
100
AcDbBlockReference
  2
_OPEN
 10
250.85581569377
 20
237.6238296805792
 30
0.0
 41
3.0
 42
3.0
 43
3.0
 50
90.0
  0
INSERT
  5
4849
330
3BB0
100
AcDbEntity
  8
SUNPOU
100
AcDbBlockReference
  2
_OPEN
 10
250.85581569377
 20
184.6238296805791
 30
0.0
 41
3.0
 42
3.0
 43
3.0
 50
270.0
  0
MTEXT
  5
484A
330
3BB0
100
AcDbEntity
  8
SUNPOU
100
AcDbMText
 10
248.35581569377
 20
211.1238296805792
 30
0.0
 40
3.0
 41
0.0
 71
     5
 72
     1
  1
\A1;53
 11
0.0000000000000001
 21
1.0
 31
0.0
1001
ACAD
1000
MTEXTBEGIN
1070
    73
1070
     1
1070
    44
1040
1.0
1070
    74
1070
     0
1000
MTEXTEND
  0
POINT
  5
484B
330
3BB0
100
AcDbEntity
  8
DEFPOINTS
 62
     0
100
AcDbPoint
 10
233.0317593162479
 20
237.6238296805792
 30
0.0
  0
POINT
  5
484C
330
3BB0
100
AcDbEntity
  8
DEFPOINTS
 62
     0
100
AcDbPoint
 10
233.0317593162479
 20
184.6238296805791
 30
0.0
  0
POINT
  5
484D
330
3BB0
100
AcDbEntity
  8
DEFPOINTS
 62
     0
100
AcDbPoint
 10
250.85581569377
 20
184.6238296805791
 30
0.0
  0
ENDBLK
  5
3BBB
330
3BB0
100
AcDbEntity
  8
0
100
AcDbBlockEnd
  0
BLOCK
  5
3BC6
330
3BBC
100
AcDbEntity
  8
0
100
AcDbBlockBegin
  2
*D4
 70
     1
 10
0.0
 20
0.0
 30
0.0
  3
*D4
  1

  0
LINE
  5
484E
330
3BBC
100
AcDbEntity
  8
SUNPOU
100
AcDbLine
 10
213.2993066051283
 20
145.3036779412721
 30
0.0
 11
213.2993066051283
 21
168.4192985196875
 31
0.0
  0
LINE
  5
484F
330
3BBC
100
AcDbEntity
  8
SUNPOU
100
AcDbLine
 10
248.2993066051284
 20
145.3036779412721
 30
0.0
 11
248.2993066051284
 21
168.4192985196875
 31
0.0
  0
LINE
  5
4850
330
3BBC
100
AcDbEntity
  8
SUNPOU
100
AcDbLine
 10
216.2993066051283
 20
166.9192985196875
 30
0.0
 11
245.2993066051283
 21
166.9192985196875
 31
0.0
  0
INSERT
  5
4851
330
3BBC
100
AcDbEntity
  8
SUNPOU
100
AcDbBlockReference
  2
_OPEN
 10
213.2993066051283
 20
166.9192985196875
 30
0.0
 41
3.0
 42
3.0
 43
3.0
 50
180.0
  0
INSERT
  5
4852
330
3BBC
100
AcDbEntity
  8
SUNPOU
100
AcDbBlockReference
  2
_OPEN
 10
248.2993066051284
 20
166.9192985196875
 30
0.0
 41
3.0
 42
3.0
 43
3.0
  0
MTEXT
  5
4853
330
3BBC
100
AcDbEntity
  8
SUNPOU
100
AcDbMText
 10
230.7993066051283
 20
169.4192985196875
 30
0.0
 40
3.0
 41
0.0
 71
     5
 72
     1
  1
\A1;35
1001
ACAD
1000
MTEXTBEGIN
1070
    73
1070
     1
1070
    44
1040
1.0
1070
    74
1070
     0
1000
MTEXTEND
  0
POINT
  5
4854
330
3BBC
100
AcDbEntity
  8
DEFPOINTS
 62
     0
100
AcDbPoint
 10
213.2993066051283
 20
142.3036779412721
 30
0.0
  0
POINT
  5
4855
330
3BBC
100
AcDbEntity
  8
DEFPOINTS
 62
     0
100
AcDbPoint
 10
248.2993066051284
 20
142.3036779412721
 30
0.0
  0
POINT
  5
4856
330
3BBC
100
AcDbEntity
  8
DEFPOINTS
 62
     0
100
AcDbPoint
 10
248.2993066051284
 20
166.9192985196875
 30
0.0
  0
ENDBLK
  5
3BC7
330
3BBC
100
AcDbEntity
  8
0
100
AcDbBlockEnd
  0
BLOCK
  5
3C10
330
3C06
100
AcDbEntity
  8
0
100
AcDbBlockBegin
  2
*D5
 70
     1
 10
0.0
 20
0.0
 30
0.0
  3
*D5
  1

  0
LINE
  5
4818
330
3C06
100
AcDbEntity
  8
SUNPOU
100
AcDbLine
 10
306.5404691268649
 20
177.6062830364326
 30
0.0
 11
285.0615564044802
 21
166.8668266789925
 31
0.0
  0
LINE
  5
4819
330
3C06
100
AcDbEntity
  8
SUNPOU
100
AcDbLine
 10
322.6401585553392
 20
145.406904168234
 30
0.0
 11
301.1612458329544
 21
134.6674478107939
 31
0.0
  0
LINE
  5
481A
330
3C06
100
AcDbEntity
  8
SUNPOU
100
AcDbLine
 10
287.7448379771987
 20
164.8543654988678
 30
0.0
 11
301.1612458334232
 21
138.0215497770436
 31
0.0
  0
INSERT
  5
481B
330
3C06
100
AcDbEntity
  8
SUNPOU
100
AcDbBlockReference
  2
_OPEN
 10
286.4031971910739
 20
167.537647072055
 30
0.0
 41
3.0
 42
3.0
 43
3.0
 50
116.5650511690704
  0
INSERT
  5
481C
330
3C06
100
AcDbEntity
  8
SUNPOU
100
AcDbBlockReference
  2
_OPEN
 10
302.5028866195481
 20
135.3382682038563
 30
0.0
 41
3.0
 42
3.0
 43
3.0
 50
296.5650511690705
  0
MTEXT
  5
481D
330
3C06
100
AcDbEntity
  8
SUNPOU
100
AcDbMText
 10
296.689109882967
 20
152.5559916263931
 30
0.0
 40
3.0
 41
0.0
 71
     5
 72
     1
  1
\A1;36
 11
0.4472135953749556
 21
-0.8944271910624173
 31
0.0
1001
ACAD
1000
MTEXTBEGIN
1070
    73
1070
     1
1070
    44
1040
1.0
1070
    74
1070
     0
1000
MTEXTEND
  0
POINT
  5
481E
330
3C06
100
AcDbEntity
  8
DEFPOINTS
 62
     0
100
AcDbPoint
 10
309.2237507000521
 20
178.9479238225574
 30
0.0
  0
POINT
  5
481F
330
3C06
100
AcDbEntity
  8
DEFPOINTS
 62
     0
100
AcDbPoint
 10
325.3234401285264
 20
146.7485449543588
 30
0.0
  0
POINT
  5
4820
330
3C06
100
AcDbEntity
  8
DEFPOINTS
 62
     0
100
AcDbPoint
 10
302.5028866195481
 20
135.3382682038563
 30
0.0
  0
ENDBLK
  5
3C11
330
3C06
100
AcDbEntity
  8
0
100
AcDbBlockEnd
  0
BLOCK
  5
3C1E
330
3C12
100
AcDbEntity
  8
0
100
AcDbBlockBegin
  2
*D6
 70
     1
 10
0.0
 20
0.0
 30
0.0
  3
*D6
  1

  0
LINE
  5
480D
330
3C12
100
AcDbEntity
  8
SUNPOU
100
AcDbLine
 10
320.1804837862379
 20
150.326253708155
 30
0.0
 11
307.0950523021152
 21
143.7835379683796
 31
0.0
  0
LINE
  5
480E
330
3C12
100
AcDbEntity
  8
SUNPOU
100
AcDbLine
 10
322.6401585553391
 20
145.406904168234
 30
0.0
 11
309.5547270712164
 21
138.8641884284585
 31
0.0
  0
LINE
  5
480F
330
3C12
100
AcDbEntity
  8
SUNPOU
100
AcDbLine
 10
307.0950523025839
 20
147.1376399346293
 30
0.0
 11
305.7534115164591
 21
149.8209215078165
 31
0.0
  0
LINE
  5
4810
330
3C12
100
AcDbEntity
  8
SUNPOU
100
AcDbLine
 10
312.2380086439349
 20
136.8517272483337
 30
0.0
 11
313.5796494300597
 21
134.1684456751464
 31
0.0
  0
LINE
  5
4811
330
3C12
100
AcDbEntity
  8
SUNPOU
100
AcDbLine
 10
308.4366930887088
 20
144.454358361442
 30
0.0
 11
310.89636785781
 21
139.5350088215209
 31
0.0
  0
INSERT
  5
4812
330
3C12
100
AcDbEntity
  8
SUNPOU
100
AcDbBlockReference
  2
_OPEN
 10
308.4366930887088
 20
144.454358361442
 30
0.0
 41
3.0
 42
3.0
 43
3.0
 50
296.5650511690707
  0
INSERT
  5
4813
330
3C12
100
AcDbEntity
  8
SUNPOU
100
AcDbBlockReference
  2
_OPEN
 10
310.89636785781
 20
139.5350088215209
 30
0.0
 41
3.0
 42
3.0
 43
3.0
 50
116.5650511690707
  0
MTEXT
  5
4814
330
3C12
100
AcDbEntity
  8
SUNPOU
100
AcDbMText
 10
311.9025984509155
 20
143.1127175799189
 30
0.0
 40
3.0
 41
0.0
 71
     5
 72
     1
  1
\A1;6
 11
0.4472135953749599
 21
-0.8944271910624149
 31
0.0
1001
ACAD
1000
MTEXTBEGIN
1070
    73
1070
     1
1070
    44
1040
1.0
1070
    74
1070
     0
1000
MTEXTEND
  0
POINT
  5
4815
330
3C12
100
AcDbEntity
  8
DEFPOINTS
 62
     0
100
AcDbPoint
 10
322.8637653594252
 20
151.6678944942799
 30
0.0
  0
POINT
  5
4816
330
3C12
100
AcDbEntity
  8
DEFPOINTS
 62
     0
100
AcDbPoint
 10
325.3234401285264
 20
146.7485449543588
 30
0.0
  0
POINT
  5
4817
330
3C12
100
AcDbEntity
  8
DEFPOINTS
 62
     0
100
AcDbPoint
 10
310.89636785781
 20
139.5350088215209
 30
0.0
  0
ENDBLK
  5
3C1F
330
3C12
100
AcDbEntity
  8
0
100
AcDbBlockEnd
  0
BLOCK
  5
3C2A
330
3C20
100
AcDbEntity
  8
0
100
AcDbBlockBegin
  2
*D7
 70
     1
 10
0.0
 20
0.0
 30
0.0
  3
*D7
  1

  0
LINE
  5
4862
330
3C20
100
AcDbEntity
  8
SUNPOU
100
AcDbLine
 10
359.311673400159
 20
203.9918851810309
 30
0.0
 11
369.1571581662464
 21
208.9146275453273
 31
0.0
  0
LINE
  5
4863
330
3C20
100
AcDbEntity
  8
SUNPOU
100
AcDbLine
 10
365.5726637224626
 20
191.469904488736
 30
0.0
 11
375.41814848855
 21
196.3926468530324
 31
0.0
  0
LINE
  5
4864
330
3C20
100
AcDbEntity
  8
SUNPOU
100
AcDbLine
 10
369.157158161137
 20
205.5605255790776
 30
0.0
 11
372.7348669186159
 21
198.4051080368697
 31
0.0
  0
INSERT
  5
4865
330
3C20
100
AcDbEntity
  8
SUNPOU
100
AcDbBlockReference
  2
_OPEN
 10
367.8155173787246
 20
208.2438071541211
 30
0.0
 41
3.0
 42
3.0
 43
3.0
 50
116.5650510897979
  0
INSERT
  5
4866
330
3C20
100
AcDbEntity
  8
SUNPOU
100
AcDbBlockReference
  2
_OPEN
 10
374.0765077010283
 20
195.7218264618262
 30
0.0
 41
3.0
 42
3.0
 43
3.0
 50
296.5650510897979
  0
MTEXT
  5
4867
330
3C20
100
AcDbEntity
  8
SUNPOU
100
AcDbMText
 10
373.1820805190793
 20
203.1008507933173
 30
0.0
 40
3.0
 41
0.0
 71
     5
 72
     1
  1
\A1;14
 11
0.4472135941374559
 21
-0.8944271916811668
 31
0.0
1001
ACAD
1000
MTEXTBEGIN
1070
    73
1070
     1
1070
    44
1040
1.0
1070
    74
1070
     0
1000
MTEXTEND
  0
POINT
  5
4868
330
3C20
100
AcDbEntity
  8
DEFPOINTS
 62
     0
100
AcDbPoint
 10
356.6283918251154
 20
202.6502443986185
 30
0.0
  0
POINT
  5
4869
330
3C20
100
AcDbEntity
  8
DEFPOINTS
 62
     0
100
AcDbPoint
 10
362.8893821474191
 20
190.1282637063236
 30
0.0
  0
POINT
  5
486A
330
3C20
100
AcDbEntity
  8
DEFPOINTS
 62
     0
100
AcDbPoint
 10
374.0765077010283
 20
195.7218264618262
 30
0.0
  0
ENDBLK
  5
3C2B
330
3C20
100
AcDbEntity
  8
0
100
AcDbBlockEnd
  0
BLOCK
  5
3C36
330
3C2C
100
AcDbEntity
  8
0
100
AcDbBlockBegin
  2
*D8
 70
     1
 10
0.0
 20
0.0
 30
0.0
  3
*D8
  1

  0
LINE
  5
483C
330
3C2C
100
AcDbEntity
  8
SUNPOU
100
AcDbLine
 10
312.9803448936895
 20
183.7331093042516
 30
0.0
 11
298.3820088610373
 21
212.9297813477941
 31
0.0
  0
LINE
  5
483D
330
3C2C
100
AcDbEntity
  8
SUNPOU
100
AcDbLine
 10
350.5462868936896
 20
202.5160803182515
 30
0.0
 11
335.9479508610374
 21
231.7127523617941
 31
0.0
  0
LINE
  5
483E
330
3C2C
100
AcDbEntity
  8
SUNPOU
100
AcDbLine
 10
301.736110827287
 20
212.9297813487941
 30
0.0
 11
333.9354896820876
 21
229.0294707881944
 31
0.0
  0
INSERT
  5
483F
330
3C2C
100
AcDbEntity
  8
SUNPOU
100
AcDbBlockReference
  2
_OPEN
 10
299.0528292546873
 20
211.5881405614942
 30
0.0
 41
3.0
 42
3.0
 43
3.0
 50
206.5650511941603
  0
INSERT
  5
4840
330
3C2C
100
AcDbEntity
  8
SUNPOU
100
AcDbBlockReference
  2
_OPEN
 10
336.6187712546873
 20
230.3711115754942
 30
0.0
 41
3.0
 42
3.0
 43
3.0
 50
26.56505119416025
  0
MTEXT
  5
4841
330
3C2C
100
AcDbEntity
  8
SUNPOU
100
AcDbMText
 10
316.7177662652707
 20
223.2156940456607
 30
0.0
 40
3.0
 41
0.0
 71
     5
 72
     1
  1
\A1;42
 11
0.8944271908665829
 21
0.4472135957666241
 31
0.0
1001
ACAD
1000
MTEXTBEGIN
1070
    73
1070
     1
1070
    44
1040
1.0
1070
    74
1070
     0
1000
MTEXTEND
  0
POINT
  5
4842
330
3C2C
100
AcDbEntity
  8
DEFPOINTS
 62
     0
100
AcDbPoint
 10
314.3219856809894
 20
181.0498277316518
 30
0.0
  0
POINT
  5
4843
330
3C2C
100
AcDbEntity
  8
DEFPOINTS
 62
     0
100
AcDbPoint
 10
351.8879276809895
 20
199.8327987456518
 30
0.0
  0
POINT
  5
4844
330
3C2C
100
AcDbEntity
  8
DEFPOINTS
 62
     0
100
AcDbPoint
 10
336.6187712546873
 20
230.3711115754942
 30
0.0
  0
ENDBLK
  5
3C37
330
3C2C
100
AcDbEntity
  8
0
100
AcDbBlockEnd
  0
BLOCK
  5
3C44
330
3C38
100
AcDbEntity
  8
0
100
AcDbBlockBegin
  2
*D9
 70
     1
 10
0.0
 20
0.0
 30
0.0
  3
*D9
  1

  0
LINE
  5
4857
330
3C38
100
AcDbEntity
  8
SUNPOU
100
AcDbLine
 10
306.5404691268649
 20
177.6062830364326
 30
0.0
 11
293.4550376427425
 21
171.0635672966572
 31
0.0
  0
LINE
  5
4858
330
3C38
100
AcDbEntity
  8
SUNPOU
100
AcDbLine
 10
309.000143897363
 20
172.6869334937175
 30
0.0
 11
295.9147124132406
 21
166.1442177539422
 31
0.0
  0
LINE
  5
4859
330
3C38
100
AcDbEntity
  8
SUNPOU
100
AcDbLine
 10
293.4550376432112
 20
174.4176692629069
 30
0.0
 11
292.1133968570864
 21
177.1009508360942
 31
0.0
  0
LINE
  5
485A
330
3C38
100
AcDbEntity
  8
SUNPOU
100
AcDbLine
 10
298.5979939859591
 20
164.1317565738174
 30
0.0
 11
299.939634772084
 21
161.4484750006301
 31
0.0
  0
LINE
  5
485B
330
3C38
100
AcDbEntity
  8
SUNPOU
100
AcDbLine
 10
294.7966784293361
 20
171.7343876897197
 30
0.0
 11
297.2563531998342
 21
166.8150381470046
 31
0.0
  0
INSERT
  5
485C
330
3C38
100
AcDbEntity
  8
SUNPOU
100
AcDbBlockReference
  2
_OPEN
 10
294.7966784293361
 20
171.7343876897197
 30
0.0
 41
3.0
 42
3.0
 43
3.0
 50
296.5650511690707
  0
INSERT
  5
485D
330
3C38
100
AcDbEntity
  8
SUNPOU
100
AcDbBlockReference
  2
_OPEN
 10
297.2563531998342
 20
166.8150381470046
 30
0.0
 41
3.0
 42
3.0
 43
3.0
 50
116.5650511690707
  0
MTEXT
  5
485E
330
3C38
100
AcDbEntity
  8
SUNPOU
100
AcDbMText
 10
298.2625837922412
 20
170.3927469067996
 30
0.0
 40
3.0
 41
0.0
 71
     5
 72
     1
  1
\A1;6
 11
0.4472135953749599
 21
-0.8944271910624149
 31
0.0
1001
ACAD
1000
MTEXTBEGIN
1070
    73
1070
     1
1070
    44
1040
1.0
1070
    74
1070
     0
1000
MTEXTEND
  0
POINT
  5
485F
330
3C38
100
AcDbEntity
  8
DEFPOINTS
 62
     0
100
AcDbPoint
 10
309.2237507000521
 20
178.9479238225574
 30
0.0
  0
POINT
  5
4860
330
3C38
100
AcDbEntity
  8
DEFPOINTS
 62
     0
100
AcDbPoint
 10
311.6834254705502
 20
174.0285742798424
 30
0.0
  0
POINT
  5
4861
330
3C38
100
AcDbEntity
  8
DEFPOINTS
 62
     0
100
AcDbPoint
 10
297.2563531998342
 20
166.8150381470046
 30
0.0
  0
ENDBLK
  5
3C45
330
3C38
100
AcDbEntity
  8
0
100
AcDbBlockEnd
  0
BLOCK
  5
3C50
330
3C46
100
AcDbEntity
  8
0
100
AcDbBlockBegin
  2
*D10
 70
     1
 10
0.0
 20
0.0
 30
0.0
  3
*D10
  1

  0
LINE
  5
4833
330
3C46
100
AcDbEntity
  8
SUNPOU
100
AcDbLine
 10
307.8821099129397
 20
181.6312053952509
 30
0.0
 11
289.5371631859532
 21
218.3210988282808
 31
0.0
  0
LINE
  5
4834
330
3C46
100
AcDbEntity
  8
SUNPOU
100
AcDbLine
 10
355.2867510380029
 20
205.333525971312
 30
0.0
 11
336.9418043110166
 21
242.0234194043418
 31
0.0
  0
LINE
  5
4835
330
3C46
100
AcDbEntity
  8
SUNPOU
100
AcDbLine
 10
292.8912651522029
 20
218.3210988290466
 30
0.0
 11
334.9293431318794
 21
239.3401378308826
 31
0.0
  0
INSERT
  5
4836
330
3C46
100
AcDbEntity
  8
SUNPOU
100
AcDbBlockReference
  2
_OPEN
 10
290.2079835795096
 20
216.9794580419341
 30
0.0
 41
3.0
 42
3.0
 43
3.0
 50
206.5650511901599
  0
INSERT
  5
4837
330
3C46
100
AcDbEntity
  8
SUNPOU
100
AcDbBlockReference
  2
_OPEN
 10
337.6126247045728
 20
240.6817786179952
 30
0.0
 41
3.0
 42
3.0
 43
3.0
 50
26.56505119015989
  0
MTEXT
  5
4838
330
3C46
100
AcDbEntity
  8
SUNPOU
100
AcDbMText
 10
312.7922701527807
 20
231.0666863072091
 30
0.0
 40
3.0
 41
0.0
 71
     5
 72
     1
  1
\A1;53
 11
0.894427190897807
 21
0.4472135957041756
 31
0.0
1001
ACAD
1000
MTEXTBEGIN
1070
    73
1070
     1
1070
    44
1040
1.0
1070
    74
1070
     0
1000
MTEXTEND
  0
POINT
  5
4839
330
3C46
100
AcDbEntity
  8
DEFPOINTS
 62
     0
100
AcDbPoint
 10
309.2237507000522
 20
178.9479238225575
 30
0.0
  0
POINT
  5
483A
330
3C46
100
AcDbEntity
  8
DEFPOINTS
 62
     0
100
AcDbPoint
 10
356.6283918251154
 20
202.6502443986185
 30
0.0
  0
POINT
  5
483B
330
3C46
100
AcDbEntity
  8
DEFPOINTS
 62
     0
100
AcDbPoint
 10
337.6126247045728
 20
240.6817786179952
 30
0.0
  0
ENDBLK
  5
3C51
330
3C46
100
AcDbEntity
  8
0
100
AcDbBlockEnd
  0
BLOCK
  5
3C5C
330
3C52
100
AcDbEntity
  8
0
100
AcDbBlockBegin
  2
*D11
 70
     1
 10
0.0
 20
0.0
 30
0.0
  3
*D11
  1

  0
LINE
  5
482A
330
3C52
100
AcDbEntity
  8
SUNPOU
100
AcDbLine
 10
317.6090056112931
 20
177.8298898398652
 30
0.0
 11
303.5448316488012
 21
205.9582377696873
 31
0.0
  0
LINE
  5
482B
330
3C52
100
AcDbEntity
  8
SUNPOU
100
AcDbLine
 10
352.4916660612932
 20
195.2712200618652
 30
0.0
 11
338.4274920988013
 21
223.3995679916873
 31
0.0
  0
LINE
  5
482C
330
3C52
100
AcDbEntity
  8
SUNPOU
100
AcDbLine
 10
306.8989336150509
 20
205.9582377694565
 30
0.0
 11
336.4150309188669
 21
220.716286418826
 31
0.0
  0
INSERT
  5
482D
330
3C52
100
AcDbEntity
  8
SUNPOU
100
AcDbBlockReference
  2
_OPEN
 10
304.2156520419589
 20
204.6165969831412
 30
0.0
 41
3.0
 42
3.0
 43
3.0
 50
206.5650511731359
  0
INSERT
  5
482E
330
3C52
100
AcDbEntity
  8
SUNPOU
100
AcDbBlockReference
  2
_OPEN
 10
339.0983124919589
 20
222.0579272051413
 30
0.0
 41
3.0
 42
3.0
 43
3.0
 50
26.56505117313588
  0
MTEXT
  5
482F
330
3C52
100
AcDbEntity
  8
SUNPOU
100
AcDbMText
 10
320.5389482783629
 20
215.573330071718
 30
0.0
 40
3.0
 41
0.0
 71
     5
 72
     1
  1
\A1;39
 11
0.8944271910306852
 21
0.447213595438419
 31
0.0
1001
ACAD
1000
MTEXTBEGIN
1070
    73
1070
     1
1070
    44
1040
1.0
1070
    74
1070
     0
1000
MTEXTEND
  0
POINT
  5
4830
330
3C52
100
AcDbEntity
  8
DEFPOINTS
 62
     0
100
AcDbPoint
 10
318.9506463976083
 20
175.1466082667731
 30
0.0
  0
POINT
  5
4831
330
3C52
100
AcDbEntity
  8
DEFPOINTS
 62
     0
100
AcDbPoint
 10
353.8333068476084
 20
192.5879384887731
 30
0.0
  0
POINT
  5
4832
330
3C52
100
AcDbEntity
  8
DEFPOINTS
 62
     0
100
AcDbPoint
 10
339.0983124919589
 20
222.0579272051413
 30
0.0
  0
ENDBLK
  5
3C5D
330
3C52
100
AcDbEntity
  8
0
100
AcDbBlockEnd
  0
BLOCK
  5
3D5F
330
3D55
100
AcDbEntity
  8
0
100
AcDbBlockBegin
  2
*D12
 70
     1
 10
0.0
 20
0.0
 30
0.0
  3
*D12
  1

  0
LINE
  5
47FB
330
3D55
100
AcDbEntity
  8
SUNPOU
100
AcDbLine
 10
60.95965783733152
 20
96.39035120337366
 30
0.0
 11
60.95965783733152
 21
168.4789465803664
 31
0.0
  0
LINE
  5
47FC
330
3D55
100
AcDbEntity
  8
SUNPOU
100
AcDbLine
 10
213.2993066051283
 20
145.3036779412721
 30
0.0
 11
213.2993066051283
 21
168.4789465803664
 31
0.0
  0
LINE
  5
47FD
330
3D55
100
AcDbEntity
  8
SUNPOU
100
AcDbLine
 10
63.95965783733153
 20
166.9789465803664
 30
0.0
 11
210.2993066051283
 21
166.9789465803664
 31
0.0
  0
INSERT
  5
47FE
330
3D55
100
AcDbEntity
  8
SUNPOU
100
AcDbBlockReference
  2
_OPEN
 10
60.95965783733152
 20
166.9789465803664
 30
0.0
 41
3.0
 42
3.0
 43
3.0
 50
180.0
  0
INSERT
  5
47FF
330
3D55
100
AcDbEntity
  8
SUNPOU
100
AcDbBlockReference
  2
_OPEN
 10
213.2993066051283
 20
166.9789465803664
 30
0.0
 41
3.0
 42
3.0
 43
3.0
  0
MTEXT
  5
4800
330
3D55
100
AcDbEntity
  8
SUNPOU
100
AcDbMText
 10
137.1294822212299
 20
169.4789465803664
 30
0.0
 40
3.0
 41
0.0
 71
     5
 72
     1
  1
\A1;152
1001
ACAD
1000
MTEXTBEGIN
1070
    73
1070
     1
1070
    44
1040
1.0
1070
    74
1070
     0
1000
MTEXTEND
  0
POINT
  5
4801
330
3D55
100
AcDbEntity
  8
DEFPOINTS
 62
     0
100
AcDbPoint
 10
60.95965783733152
 20
93.39035120337365
 30
0.0
  0
POINT
  5
4802
330
3D55
100
AcDbEntity
  8
DEFPOINTS
 62
     0
100
AcDbPoint
 10
213.2993066051283
 20
142.3036779412721
 30
0.0
  0
POINT
  5
4803
330
3D55
100
AcDbEntity
  8
DEFPOINTS
 62
     0
100
AcDbPoint
 10
213.2993066051283
 20
166.9789465803664
 30
0.0
  0
ENDBLK
  5
3D60
330
3D55
100
AcDbEntity
  8
0
100
AcDbBlockEnd
  0
BLOCK
  5
3DAA
330
3DA0
100
AcDbEntity
  8
0
100
AcDbBlockBegin
  2
*D13
 70
     1
 10
0.0
 20
0.0
 30
0.0
  3
*D13
  1

  0
LINE
  5
47F2
330
3DA0
100
AcDbEntity
  8
SUNPOU
100
AcDbLine
 10
178.9597578371869
 20
104.7126743243736
 30
0.0
 11
178.9597578371869
 21
160.466078205421
 31
0.0
  0
LINE
  5
47F3
330
3DA0
100
AcDbEntity
  8
SUNPOU
100
AcDbLine
 10
213.2993066051283
 20
145.3036779412721
 30
0.0
 11
213.2993066051283
 21
160.466078205421
 31
0.0
  0
LINE
  5
47F4
330
3DA0
100
AcDbEntity
  8
SUNPOU
100
AcDbLine
 10
181.9597578371869
 20
158.966078205421
 30
0.0
 11
210.2993066051283
 21
158.966078205421
 31
0.0
  0
INSERT
  5
47F5
330
3DA0
100
AcDbEntity
  8
SUNPOU
100
AcDbBlockReference
  2
_OPEN
 10
178.9597578371869
 20
158.966078205421
 30
0.0
 41
3.0
 42
3.0
 43
3.0
 50
180.0
  0
INSERT
  5
47F6
330
3DA0
100
AcDbEntity
  8
SUNPOU
100
AcDbBlockReference
  2
_OPEN
 10
213.2993066051283
 20
158.966078205421
 30
0.0
 41
3.0
 42
3.0
 43
3.0
  0
MTEXT
  5
47F7
330
3DA0
100
AcDbEntity
  8
SUNPOU
100
AcDbMText
 10
196.1295322211576
 20
161.466078205421
 30
0.0
 40
3.0
 41
0.0
 71
     5
 72
     1
  1
\A1;34
1001
ACAD
1000
MTEXTBEGIN
1070
    73
1070
     1
1070
    44
1040
1.0
1070
    74
1070
     0
1000
MTEXTEND
  0
POINT
  5
47F8
330
3DA0
100
AcDbEntity
  8
DEFPOINTS
 62
     0
100
AcDbPoint
 10
178.9597578371869
 20
101.7126743243736
 30
0.0
  0
POINT
  5
47F9
330
3DA0
100
AcDbEntity
  8
DEFPOINTS
 62
     0
100
AcDbPoint
 10
213.2993066051283
 20
142.3036779412721
 30
0.0
  0
POINT
  5
47FA
330
3DA0
100
AcDbEntity
  8
DEFPOINTS
 62
     0
100
AcDbPoint
 10
213.2993066051283
 20
158.966078205421
 30
0.0
  0
ENDBLK
  5
3DAB
330
3DA0
100
AcDbEntity
  8
0
100
AcDbBlockEnd
  0
BLOCK
  5
44B6
330
44AC
100
AcDbEntity
  8
0
100
AcDbBlockBegin
  2
*D14
 70
     1
 10
0.0
 20
0.0
 30
0.0
  3
*D14
  1

  0
LINE
  5
47E9
330
44AC
100
AcDbEntity
  8
SUNPOU
100
AcDbLine
 10
209.1505533144317
 20
128.9113251406738
 30
0.0
 11
198.7335542839972
 21
123.7028256244859
 31
0.0
  0
LINE
  5
47EA
330
44AC
100
AcDbEntity
  8
SUNPOU
100
AcDbLine
 10
225.2502427544317
 20
96.7119462666738
 30
0.0
 11
214.8332437239972
 21
91.50344675048598
 31
0.0
  0
LINE
  5
47EB
330
44AC
100
AcDbEntity
  8
SUNPOU
100
AcDbLine
 10
201.4168358571469
 20
121.6903644449361
 30
0.0
 11
214.8332437237472
 21
94.85754871673567
 31
0.0
  0
INSERT
  5
47EC
330
44AC
100
AcDbEntity
  8
SUNPOU
100
AcDbBlockReference
  2
_OPEN
 10
200.075195070447
 20
124.3736460178359
 30
0.0
 41
3.0
 42
3.0
 43
3.0
 50
116.5650511813485
  0
INSERT
  5
47ED
330
44AC
100
AcDbEntity
  8
SUNPOU
100
AcDbBlockReference
  2
_OPEN
 10
216.174884510447
 20
92.17426714383591
 30
0.0
 41
3.0
 42
3.0
 43
3.0
 50
296.5650511813485
  0
MTEXT
  5
47EE
330
44AC
100
AcDbEntity
  8
SUNPOU
100
AcDbMText
 10
210.3611077678635
 20
109.3919905697524
 30
0.0
 40
3.0
 41
0.0
 71
     5
 72
     1
  1
\A1;36
 11
0.4472135955666247
 21
-0.8944271909665825
 31
0.0
1001
ACAD
1000
MTEXTBEGIN
1070
    73
1070
     1
1070
    44
1040
1.0
1070
    74
1070
     0
1000
MTEXTEND
  0
POINT
  5
47EF
330
44AC
100
AcDbEntity
  8
DEFPOINTS
 62
     0
100
AcDbPoint
 10
211.8338348873314
 20
130.2529659273736
 30
0.0
  0
POINT
  5
47F0
330
44AC
100
AcDbEntity
  8
DEFPOINTS
 62
     0
100
AcDbPoint
 10
227.9335243273314
 20
98.05358705337368
 30
0.0
  0
POINT
  5
47F1
330
44AC
100
AcDbEntity
  8
DEFPOINTS
 62
     0
100
AcDbPoint
 10
216.174884510447
 20
92.17426714383591
 30
0.0
  0
ENDBLK
  5
44B7
330
44AC
100
AcDbEntity
  8
0
100
AcDbBlockEnd
  0
BLOCK
  5
44D7
330
44CB
100
AcDbEntity
  8
0
100
AcDbBlockBegin
  2
*D15
 70
     1
 10
0.0
 20
0.0
 30
0.0
  3
*D15
  1

  0
LINE
  5
47DE
330
44CB
100
AcDbEntity
  8
SUNPOU
100
AcDbLine
 10
60.99685783219076
 20
98.19035120223903
 30
0.0
 11
33.57439519068199
 21
98.19035120223903
 31
0.0
  0
LINE
  5
47DF
330
44CB
100
AcDbEntity
  8
SUNPOU
100
AcDbLine
 10
230.9261865073315
 20
101.0499181433736
 30
0.0
 11
33.57439519068199
 21
101.0499181433737
 31
0.0
  0
LINE
  5
47E0
330
44CB
100
AcDbEntity
  8
SUNPOU
100
AcDbLine
 10
35.07439519068199
 20
95.19035120223902
 30
0.0
 11
35.07439519068199
 21
92.19035120223903
 31
0.0
  0
LINE
  5
47E1
330
44CB
100
AcDbEntity
  8
SUNPOU
100
AcDbLine
 10
35.07439519068199
 20
104.0499181433737
 30
0.0
 11
35.07439519068199
 21
111.0499181433737
 31
0.0
  0
LINE
  5
47E2
330
44CB
100
AcDbEntity
  8
SUNPOU
100
AcDbLine
 10
35.07439519068199
 20
98.19035120223903
 30
0.0
 11
35.07439519068199
 21
101.0499181433737
 31
0.0
  0
INSERT
  5
47E3
330
44CB
100
AcDbEntity
  8
SUNPOU
100
AcDbBlockReference
  2
_OPEN
 10
35.07439519068199
 20
98.19035120223903
 30
0.0
 41
3.0
 42
3.0
 43
3.0
 50
90.0
  0
INSERT
  5
47E4
330
44CB
100
AcDbEntity
  8
SUNPOU
100
AcDbBlockReference
  2
_OPEN
 10
35.07439519068199
 20
101.0499181433737
 30
0.0
 41
3.0
 42
3.0
 43
3.0
 50
270.0
  0
MTEXT
  5
47E5
330
44CB
100
AcDbEntity
  8
SUNPOU
100
AcDbMText
 10
32.57439519068198
 20
109.0499181433737
 30
0.0
 40
3.0
 41
0.0
 71
     5
 72
     1
  1
\A1;3
 11
0.0000000000000001
 21
1.0
 31
0.0
1001
ACAD
1000
MTEXTBEGIN
1070
    73
1070
     1
1070
    44
1040
1.0
1070
    74
1070
     0
1000
MTEXTEND
  0
POINT
  5
47E6
330
44CB
100
AcDbEntity
  8
DEFPOINTS
 62
     0
100
AcDbPoint
 10
63.99685783219076
 20
98.19035120223903
 30
0.0
  0
POINT
  5
47E7
330
44CB
100
AcDbEntity
  8
DEFPOINTS
 62
     0
100
AcDbPoint
 10
233.9261865073315
 20
101.0499181433736
 30
0.0
  0
POINT
  5
47E8
330
44CB
100
AcDbEntity
  8
DEFPOINTS
 62
     0
100
AcDbPoint
 10
35.07439519068199
 20
101.0499181433737
 30
0.0
  0
ENDBLK
  5
44D8
330
44CB
100
AcDbEntity
  8
0
100
AcDbBlockEnd
  0
ENDSEC
  0
SECTION
  2
ENTITIES
  0
LINE
  5
363
330
1A
100
AcDbEntity
  8
SEIHIN
100
AcDbLine
 10
85.85975783733152
 20
78.99674755337366
 30
0.0
 11
110.8597578393315
 21
78.99674755337366
 31
0.0
  0
ARC
  5
364
330
1A
100
AcDbEntity
  8
SEIHIN
100
AcDbCircle
 10
101.3597578373315
 20
99.49035120337368
 30
0.0
 40
9.535085152808647
100
AcDbArc
 50
4.916661302937908
 51
179.999861547953
  0
LINE
  5
367
330
1A
100
AcDbEntity
  8
SEIHIN
100
AcDbLine
 10
91.82467268733153
 20
99.49037424437367
 30
0.0
 11
91.82465303733152
 21
91.15862374337368
 31
0.0
  0
LINE
  5
368
330
1A
100
AcDbEntity
  8
SEIHIN
100
AcDbLine
 10
85.85975783733152
 20
78.99674755337366
 30
0.0
 11
85.85975783733152
 21
97.99674755537367
 31
0.0
  0
LINE
  5
369
330
1A
100
AcDbEntity
  8
SEIHIN
100
AcDbLine
 10
89.82466916733153
 20
97.99674519737369
 30
0.0
 11
89.82465303733153
 21
91.15862374337368
 31
0.0
  0
LINE
  5
36A
330
1A
100
AcDbEntity
  8
SEIHIN
100
AcDbLine
 10
90.45975783733155
 20
98.19035120337368
 30
0.0
 11
90.45974368733153
 21
92.19035120337366
 31
0.0
  0
LINE
  5
36B
330
1A
100
AcDbEntity
  8
SEIHIN
100
AcDbLine
 10
91.45975783733154
 20
98.19035120337368
 30
0.0
 11
91.45974368733153
 21
92.19034884537368
 31
0.0
  0
LINE
  5
36F
330
1A
100
AcDbEntity
  8
SEIHIN
100
AcDbLine
 10
89.82465303733153
 20
91.15862374337368
 30
0.0
 11
91.82465303733152
 21
91.15862374337368
 31
0.0
  0
LINE
  5
370
330
1A
100
AcDbEntity
  8
SEIHIN
100
AcDbLine
 10
90.45974368733153
 20
92.19035120337366
 30
0.0
 11
91.82465546733153
 21
92.19035120337366
 31
0.0
  0
LINE
  5
371
330
1A
100
AcDbEntity
  8
SEIHIN
100
AcDbLine
 10
104.3597578373315
 20
88.69035120337366
 30
0.0
 11
104.3597578373315
 21
84.69035120337366
 31
0.0
  0
LINE
  5
372
330
1A
100
AcDbEntity
  8
SEIHIN
100
AcDbLine
 10
97.35975783733152
 20
88.69035120337366
 30
0.0
 11
97.35975783733152
 21
84.69035120337366
 31
0.0
  0
MTEXT
  5
373
330
1A
100
AcDbEntity
  8
SEIHIN
100
AcDbMText
 10
99.21270361733153
 20
86.57033844737368
 30
0.0
 40
2.381249964
 41
0.0
 71
     1
 72
     5
  1
{\W1.460317;10}
1001
ACAD
1000
MTEXTBEGIN
1070
    73
1070
     1
1070
    44
1040
1.0
1070
    74
1070
     0
1000
MTEXTEND
1000
MTEXTBEGIN
1070
    73
1070
     1
1070
    44
1040
1.0
1070
    74
1070
     0
1000
MTEXTEND
1000
MTEXTBEGIN
1070
    73
1070
     1
1070
    44
1040
1.0
1070
    74
1070
     0
1000
MTEXTEND
1000
MTEXTBEGIN
1070
    73
1070
     1
1070
    44
1040
1.0
1070
    74
1070
     0
1000
MTEXTEND
1000
MTEXTBEGIN
1070
    73
1070
     1
1070
    44
1040
1.0
1070
    74
1070
     0
1000
MTEXTEND
1000
MTEXTBEGIN
1070
    73
1070
     1
1070
    44
1040
1.0
1070
    74
1070
     0
1000
MTEXTEND
1000
MTEXTBEGIN
1070
    73
1070
     1
1070
    44
1040
1.0
1070
    74
1070
     0
1000
MTEXTEND
1000
MTEXTBEGIN
1070
    73
1070
     1
1070
    44
1040
1.0
1070
    74
1070
     0
1000
MTEXTEND
1000
MTEXTBEGIN
1070
    73
1070
     1
1070
    44
1040
1.0
1070
    74
1070
     0
1000
MTEXTEND
  0
LINE
  5
374
330
1A
100
AcDbEntity
  8
SEIHIN
100
AcDbLine
 10
103.3597578373315
 20
83.69035120337366
 30
0.0
 11
98.35975783733154
 21
83.69035120337366
 31
0.0
  0
LINE
  5
375
330
1A
100
AcDbEntity
  8
SEIHIN
100
AcDbLine
 10
102.0144583773315
 20
81.69035120337367
 30
0.0
 11
99.70505729733154
 21
81.69035120337367
 31
0.0
  0
LINE
  5
376
330
1A
100
AcDbEntity
  8
SEIHIN
100
AcDbLine
 10
100.8597578373315
 20
83.69035120337366
 30
0.0
 11
99.70505729733154
 21
81.69035120337367
 31
0.0
  0
ARC
  5
377
330
1A
100
AcDbEntity
  8
SEIHIN
100
AcDbCircle
 10
98.35975783733154
 20
84.69035120337366
 30
0.0
 40
1.0
100
AcDbArc
 50
180.0
 51
270.0
  0
ARC
  5
378
330
1A
100
AcDbEntity
  8
SEIHIN
100
AcDbCircle
 10
103.3597578373315
 20
84.69035120337366
 30
0.0
 40
1.0
100
AcDbArc
 50
270.0
 51
0.0
  0
LINE
  5
379
330
1A
100
AcDbEntity
  8
SEIHIN
100
AcDbLine
 10
100.8597578373315
 20
83.69035120337366
 30
0.0
 11
102.0144583773315
 21
81.69035120337367
 31
0.0
  0
LINE
  5
37A
330
1A
100
AcDbEntity
  8
SEIHIN
100
AcDbLine
 10
100.6165078373315
 20
89.69035120337366
 30
0.0
 11
101.1165078373315
 21
89.69035120337366
 31
0.0
  0
LINE
  5
37B
330
1A
100
AcDbEntity
  8
SEIHIN
100
AcDbLine
 10
98.35975783733154
 20
89.69035120337366
 30
0.0
 11
103.3597578373315
 21
89.69035120337366
 31
0.0
  0
LINE
  5
37C
330
1A
100
AcDbEntity
  8
SEIHIN
100
AcDbLine
 10
100.6165078373315
 20
89.69035120337366
 30
0.0
 11
101.1165078373315
 21
89.69035120337366
 31
0.0
  0
LINE
  5
37D
330
1A
100
AcDbEntity
  8
SEIHIN
100
AcDbLine
 10
101.1165078373315
 20
87.69035120337367
 30
0.0
 11
100.6165078373315
 21
87.69035120337367
 31
0.0
  0
ARC
  5
37E
330
1A
100
AcDbEntity
  8
SEIHIN
100
AcDbCircle
 10
98.35975783733154
 20
88.69035120337366
 30
0.0
 40
1.0
100
AcDbArc
 50
90.0
 51
180.0
  0
LINE
  5
37F
330
1A
100
AcDbEntity
  8
SEIHIN
100
AcDbLine
 10
100.6165078373315
 20
87.69035120337367
 30
0.0
 11
100.6165078373315
 21
89.69035120337366
 31
0.0
  0
ARC
  5
380
330
1A
100
AcDbEntity
  8
SEIHIN
100
AcDbCircle
 10
103.3597578373315
 20
88.69035120337366
 30
0.0
 40
1.0
100
AcDbArc
 50
0.0
 51
90.0
  0
LINE
  5
381
330
1A
100
AcDbEntity
  8
SEIHIN
100
AcDbLine
 10
101.1165078373315
 20
89.69035120337366
 30
0.0
 11
101.1165078373315
 21
87.69035120337367
 31
0.0
  0
ARC
  5
384
330
1A
100
AcDbEntity
  8
SEIHIN
100
AcDbCircle
 10
86.85975783733153
 20
97.99674755537367
 30
0.0
 40
1.0
100
AcDbArc
 50
90.0
 51
180.0
  0
ARC
  5
387
330
1A
100
AcDbEntity
  8
SEIHIN
100
AcDbCircle
 10
88.82466916733154
 20
97.99674755537367
 30
0.0
 40
1.000000000001389
100
AcDbArc
 50
359.9998648965517
 51
90.0
  0
LINE
  5
388
330
1A
100
AcDbEntity
  8
SEIHIN
100
AcDbLine
 10
88.82466916733154
 20
98.99674755537368
 30
0.0
 11
86.85975783733153
 21
98.99674755537368
 31
0.0
  0
LINE
  5
389
330
1A
100
AcDbEntity
  8
SEIHIN
100
AcDbLine
 10
90.45975783733155
 20
98.19035120337368
 30
0.0
 11
91.82466961733155
 21
98.19035120337368
 31
0.0
  0
CIRCLE
  5
38B
330
1A
100
AcDbEntity
  8
SEIHIN
100
AcDbCircle
 10
100.8597578373315
 20
102.9903512033736
 30
0.0
 40
3.500000004238516
  0
LINE
  5
38F
330
1A
100
AcDbEntity
  8
SEIHIN
100
AcDbLine
 10
110.8597578393315
 20
78.99674755337366
 30
0.0
 11
110.8597578393315
 21
100.3075714223736
 31
0.0
  0
LINE
  5
3DF
330
1A
100
AcDbEntity
  8
SEIHIN
100
AcDbLine
 10
90.39266080733154
 20
222.1238297005792
 30
0.0
 11
90.39266080733154
 21
218.6238297005791
 31
0.0
  0
LINE
  5
3E0
330
1A
100
AcDbEntity
  8
SEIHIN
100
AcDbLine
 10
91.39266080733154
 20
219.1238297005792
 30
0.0
 11
91.39266080733154
 21
222.1238297005792
 31
0.0
  0
LINE
  5
3E4
330
1A
100
AcDbEntity
  8
SEIHIN
100
AcDbLine
 10
91.89266080733153
 20
218.6238297005791
 30
0.0
 11
231.8985194573315
 21
218.6238297005791
 31
0.0
  0
LINE
  5
3E5
330
1A
100
AcDbEntity
  8
SEIHIN
100
AcDbLine
 10
91.89266080733153
 20
203.6238296605791
 30
0.0
 11
231.8985194573315
 21
203.6238296605791
 31
0.0
  0
LINE
  5
3E6
330
1A
100
AcDbEntity
  8
SEIHIN
100
AcDbLine
 10
91.39266080733154
 20
204.6238296605792
 30
0.0
 11
231.8985194573315
 21
204.6238296605792
 31
0.0
  0
LINE
  5
3E7
330
1A
100
AcDbEntity
  8
SEIHIN
100
AcDbLine
 10
91.39266080733154
 20
217.6238297005792
 30
0.0
 11
231.8985194573315
 21
217.6238297005792
 31
0.0
  0
LINE
  5
3E8
330
1A
100
AcDbEntity
  8
SEIHIN
100
AcDbLine
 10
121.2660409373315
 20
214.1238296605791
 30
0.0
 11
226.1021659800812
 21
214.1238296605792
 31
0.0
  0
LINE
  5
3E9
330
1A
100
AcDbEntity
  8
SEIHIN
100
AcDbLine
 10
121.2660409373315
 20
208.1238296605791
 30
0.0
 11
226.1028796875813
 21
208.1238296605791
 31
0.0
  0
LINE
  5
3EB
330
1A
100
AcDbEntity
  8
SEIHIN
100
AcDbLine
 10
91.67904424733155
 20
204.8517560205792
 30
0.0
 11
119.2660409373315
 21
204.8517560205792
 31
0.0
  0
LINE
  5
3EC
330
1A
100
AcDbEntity
  8
SEIHIN
100
AcDbLine
 10
94.46856379733153
 20
206.9693856505792
 30
0.0
 11
116.5272509223315
 21
206.9693856505792
 31
0.0
  0
LINE
  5
3ED
330
1A
100
AcDbEntity
  8
SEIHIN
100
AcDbLine
 10
91.67904424733155
 20
217.3959033005791
 30
0.0
 11
119.2660409373315
 21
217.3959033005791
 31
0.0
  0
LINE
  5
3EE
330
1A
100
AcDbEntity
  8
SEIHIN
100
AcDbLine
 10
94.46856379733153
 20
215.2782737005791
 30
0.0
 11
116.5272509223315
 21
215.2782737005791
 31
0.0
  0
LINE
  5
3EF
330
1A
100
AcDbEntity
  8
SEIHIN
100
AcDbLine
 10
110.8597578393315
 20
203.1238296605792
 30
0.0
 11
91.82491134733153
 21
203.1238756605791
 31
0.0
  0
LINE
  5
3F0
330
1A
100
AcDbEntity
  8
SEIHIN
100
AcDbLine
 10
91.82495001733153
 20
219.1238297005792
 30
0.0
 11
110.8597578393315
 21
219.1238297005792
 31
0.0
  0
LINE
  5
3F1
330
1A
100
AcDbEntity
  8
SEIHIN
100
AcDbLine
 10
91.67904424733155
 20
209.1992183205791
 30
0.0
 11
94.46856379733153
 21
209.1992183205791
 31
0.0
  0
LINE
  5
3F2
330
1A
100
AcDbEntity
  8
SEIHIN
100
AcDbLine
 10
91.67904424733155
 20
213.0484410005792
 30
0.0
 11
94.46856379733153
 21
213.0484410005792
 31
0.0
  0
LINE
  5
3F3
330
1A
100
AcDbEntity
  8
SEIHIN
100
AcDbLine
 10
94.46856379733153
 20
216.3959033005792
 30
0.0
 11
91.67904424733155
 21
216.3959033005792
 31
0.0
  0
LINE
  5
3F4
330
1A
100
AcDbEntity
  8
SEIHIN
100
AcDbLine
 10
94.46856379733153
 20
205.8517560205792
 30
0.0
 11
91.67904424733155
 21
205.8517560205792
 31
0.0
  0
ARC
  5
3F5
330
1A
100
AcDbEntity
  8
SEIHIN
100
AcDbCircle
 10
91.67904424733155
 20
211.1238296605792
 30
0.0
 40
3.000000000000011
100
AcDbArc
 50
90.00000515662017
 51
269.9999952253516
  0
LINE
  5
3F6
330
1A
100
AcDbEntity
  8
SEIHIN
100
AcDbLine
 10
91.67904424733155
 20
216.3959033005792
 30
0.0
 11
91.67904424733155
 21
205.8517560205792
 31
0.0
  0
ARC
  5
3F7
330
1A
100
AcDbEntity
  8
SEIHIN
100
AcDbCircle
 10
91.39266080733154
 20
203.6238296605791
 30
0.0
 40
1.0
100
AcDbArc
 50
90.0
 51
180.0
  0
LINE
  5
3F8
330
1A
100
AcDbEntity
  8
SEIHIN
100
AcDbLine
 10
89.82490677733153
 20
203.6238296605791
 30
0.0
 11
85.85975783733152
 21
203.6238296605791
 31
0.0
  0
LINE
  5
3F9
330
1A
100
AcDbEntity
  8
SEIHIN
100
AcDbLine
 10
85.85975783733152
 20
203.1238296605792
 30
0.0
 11
89.82466515733154
 21
203.1238296605792
 31
0.0
  0
LINE
  5
3FA
330
1A
100
AcDbEntity
  8
SEIHIN
100
AcDbLine
 10
85.85975783733152
 20
203.1238296605792
 30
0.0
 11
85.85975783733152
 21
203.6238296605791
 31
0.0
  0
ARC
  5
3FB
330
1A
100
AcDbEntity
  8
SEIHIN
100
AcDbCircle
 10
91.89266080733153
 20
203.1238296605792
 30
0.0
 40
0.5
100
AcDbArc
 50
90.0
 51
180.0
  0
LINE
  5
3FC
330
1A
100
AcDbEntity
  8
SEIHIN
100
AcDbLine
 10
91.39266080733154
 20
203.1238296605792
 30
0.0
 11
91.39266080733154
 21
200.1238296605791
 31
0.0
  0
LINE
  5
3FD
330
1A
100
AcDbEntity
  8
SEIHIN
100
AcDbLine
 10
90.39266080733154
 20
200.1238296605791
 30
0.0
 11
90.39266080733154
 21
203.6238296605791
 31
0.0
  0
LINE
  5
3FE
330
1A
100
AcDbEntity
  8
SEIHIN
100
AcDbLine
 10
91.39266080733154
 20
200.1238296605791
 30
0.0
 11
90.39266080733154
 21
200.1238296605791
 31
0.0
  0
LINE
  5
3FF
330
1A
100
AcDbEntity
  8
SEIHIN
100
AcDbLine
 10
91.82491134733153
 20
203.1238756605791
 30
0.0
 11
91.82491255733152
 21
203.6238296605791
 31
0.0
  0
LINE
  5
400
330
1A
100
AcDbEntity
  8
SEIHIN
100
AcDbLine
 10
89.82490559733154
 20
203.1238296605792
 30
0.0
 11
89.82490677733153
 21
203.6238296605791
 31
0.0
  0
LINE
  5
401
330
1A
100
AcDbEntity
  8
SEIHIN
100
AcDbLine
 10
91.67904424733155
 20
205.8517560205792
 30
0.0
 11
91.67904424733155
 21
204.8517560205792
 31
0.0
  0
LINE
  5
402
330
1A
100
AcDbEntity
  8
SEIHIN
100
AcDbLine
 10
89.82494214733154
 20
218.6238297005791
 30
0.0
 11
85.85975783733152
 21
218.6238297005791
 31
0.0
  0
LINE
  5
403
330
1A
100
AcDbEntity
  8
SEIHIN
100
AcDbLine
 10
85.85975783733152
 20
219.1238297005792
 30
0.0
 11
89.82466515733154
 21
219.1238297005792
 31
0.0
  0
LINE
  5
404
330
1A
100
AcDbEntity
  8
SEIHIN
100
AcDbLine
 10
85.85975783733152
 20
218.6238297005791
 30
0.0
 11
85.85975783733152
 21
219.1238297005792
 31
0.0
  0
ARC
  5
405
330
1A
100
AcDbEntity
  8
SEIHIN
100
AcDbCircle
 10
91.39266080733154
 20
218.6238297005791
 30
0.0
 40
1.0
100
AcDbArc
 50
180.0
 51
270.0
  0
LINE
  5
406
330
1A
100
AcDbEntity
  8
SEIHIN
100
AcDbLine
 10
91.82494880733154
 20
218.6238297005791
 30
0.0
 11
91.82495001733153
 21
219.1238297005792
 31
0.0
  0
LINE
  5
407
330
1A
100
AcDbEntity
  8
SEIHIN
100
AcDbLine
 10
89.82494214733154
 20
218.6238297005791
 30
0.0
 11
89.82494332733153
 21
219.1238297005792
 31
0.0
  0
LINE
  5
408
330
1A
100
AcDbEntity
  8
SEIHIN
100
AcDbLine
 10
91.67904424733155
 20
216.3959033005792
 30
0.0
 11
91.67904424733155
 21
217.3959033005791
 31
0.0
  0
ARC
  5
409
330
1A
100
AcDbEntity
  8
SEIHIN
100
AcDbCircle
 10
91.89266080733153
 20
219.1238297005792
 30
0.0
 40
0.5
100
AcDbArc
 50
180.0
 51
270.0
  0
LINE
  5
40A
330
1A
100
AcDbEntity
  8
SEIHIN
100
AcDbLine
 10
94.46856379733153
 20
204.8517560205792
 30
0.0
 11
94.46856379733153
 21
217.3959033005791
 31
0.0
  0
ARC
  5
40B
330
1A
100
AcDbEntity
  8
SEIHIN
100
AcDbCircle
 10
100.8599989673315
 20
207.6421591605791
 30
0.0
 40
5.715337531631893
100
AcDbArc
 50
232.2375418744897
 51
307.7621812247566
  0
LINE
  5
40C
330
1A
100
AcDbEntity
  8
SEIHIN
100
AcDbLine
 10
94.46856379733153
 20
204.8517560205792
 30
0.0
 11
94.46856379733153
 21
206.0517560205791
 31
0.0
  0
LINE
  5
40D
330
1A
100
AcDbEntity
  8
SEIHIN
100
AcDbLine
 10
97.35998804733155
 20
219.1238297005792
 30
0.0
 11
104.3599880473315
 21
219.1238297005792
 31
0.0
  0
LINE
  5
40E
330
1A
100
AcDbEntity
  8
SEIHIN
100
AcDbLine
 10
104.3599880473315
 20
220.1882681005792
 30
0.0
 11
97.35998804733155
 21
220.1882681005792
 31
0.0
  0
LINE
  5
40F
330
1A
100
AcDbEntity
  8
SEIHIN
100
AcDbLine
 10
94.46856379733153
 20
217.3959033005791
 30
0.0
 11
94.46856379733153
 21
216.1959033005792
 31
0.0
  0
LINE
  5
410
330
1A
100
AcDbEntity
  8
SEIHIN
100
AcDbLine
 10
97.35998804733155
 20
220.1882681005792
 30
0.0
 11
97.35998804733155
 21
219.1238297005792
 31
0.0
  0
LINE
  5
411
330
1A
100
AcDbEntity
  8
SEIHIN
100
AcDbLine
 10
104.3599880473315
 20
219.1238297005792
 30
0.0
 11
104.3599880473315
 21
220.1882681005792
 31
0.0
  0
LINE
  5
412
330
1A
100
AcDbEntity
  8
SEIHIN
100
AcDbLine
 10
114.8041005618315
 20
207.9693856505791
 30
0.0
 11
114.8041005618315
 21
214.2782736705792
 31
0.0
  0
LINE
  5
413
330
1A
100
AcDbEntity
  8
SEIHIN
100
AcDbLine
 10
109.9621803263315
 20
207.9693856505791
 30
0.0
 11
109.9621803263315
 21
214.2782736705792
 31
0.0
  0
LINE
  5
414
330
1A
100
AcDbEntity
  8
SEIHIN
100
AcDbLine
 10
118.5272509223315
 20
213.2782736705792
 30
0.0
 11
118.5272509223315
 21
208.9693856505792
 31
0.0
  0
LINE
  5
415
330
1A
100
AcDbEntity
  8
SEIHIN
100
AcDbLine
 10
121.2660409373315
 20
206.8517560205792
 30
0.0
 11
121.2660409373315
 21
215.3959033005791
 31
0.0
  0
LINE
  5
416
330
1A
100
AcDbEntity
  8
SEIHIN
100
AcDbLine
 10
120.1184752303315
 20
206.8517560205792
 30
0.0
 11
120.1184752303315
 21
215.3959033005791
 31
0.0
  0
LINE
  5
417
330
1A
100
AcDbEntity
  8
SEIHIN
100
AcDbLine
 10
110.8597578393315
 20
203.1238296605792
 30
0.0
 11
110.8597578393315
 21
203.6238296605791
 31
0.0
  0
ARC
  5
418
330
1A
100
AcDbEntity
  8
SEIHIN
100
AcDbCircle
 10
118.1184752303315
 20
206.8517560205792
 30
0.0
 40
2.0
100
AcDbArc
 50
270.0
 51
0.0
  0
ARC
  5
419
330
1A
100
AcDbEntity
  8
SEIHIN
100
AcDbCircle
 10
119.2660409373315
 20
206.8517560205792
 30
0.0
 40
2.0
100
AcDbArc
 50
270.0
 51
0.0
  0
ARC
  5
41A
330
1A
100
AcDbEntity
  8
SEIHIN
100
AcDbCircle
 10
119.2660409373315
 20
206.8517560205792
 30
0.0
 40
2.0
100
AcDbArc
 50
270.0
 51
0.0
  0
ARC
  5
41B
330
1A
100
AcDbEntity
  8
SEIHIN
100
AcDbCircle
 10
116.5272509223315
 20
208.9693856505792
 30
0.0
 40
2.0
100
AcDbArc
 50
270.0
 51
0.0
  0
LINE
  5
41C
330
1A
100
AcDbEntity
  8
SEIHIN
100
AcDbLine
 10
110.8597578393315
 20
218.6238297005791
 30
0.0
 11
110.8597578393315
 21
219.1238297005792
 31
0.0
  0
ARC
  5
41D
330
1A
100
AcDbEntity
  8
SEIHIN
100
AcDbCircle
 10
118.1184752303315
 20
215.3959033005791
 30
0.0
 40
2.0
100
AcDbArc
 50
0.0
 51
90.0
  0
ARC
  5
41E
330
1A
100
AcDbEntity
  8
SEIHIN
100
AcDbCircle
 10
119.2660409373315
 20
215.3959033005791
 30
0.0
 40
2.0
100
AcDbArc
 50
0.0
 51
90.0
  0
ARC
  5
41F
330
1A
100
AcDbEntity
  8
SEIHIN
100
AcDbCircle
 10
119.2660409373315
 20
215.3959033005791
 30
0.0
 40
2.0
100
AcDbArc
 50
0.0
 51
90.0
  0
ARC
  5
420
330
1A
100
AcDbEntity
  8
SEIHIN
100
AcDbCircle
 10
116.5272509223315
 20
213.2782736705792
 30
0.0
 40
2.000000014999997
100
AcDbArc
 50
0.0
 51
90.0
  0
LINE
  5
43E
330
1A
100
AcDbEntity
  8
SEIHIN
100
AcDbLine
 10
91.39266080733154
 20
222.1238297005792
 30
0.0
 11
90.39266080733154
 21
222.1238297005792
 31
0.0
  0
LINE
  5
6FB
330
1A
100
AcDbEntity
  8
CENTER_L
100
AcDbLine
 10
50.35629131733151
 20
211.1238296805792
 30
0.0
 11
238.0650941523315
 21
211.1238296805792
 31
0.0
  0
LINE
  5
BDA
330
1A
100
AcDbEntity
  8
SEIHIN
100
AcDbLine
 10
80.32470894733155
 20
81.19035120337366
 30
0.0
 11
85.85975783733152
 21
81.19035120337366
 31
0.0
  0
LINE
  5
BDB
330
1A
100
AcDbEntity
  8
SEIHIN
100
AcDbLine
 10
85.85975783733152
 20
89.69035120337366
 30
0.0
 11
80.96743441733151
 21
89.69035120337366
 31
0.0
  0
LINE
  5
BDC
330
1A
100
AcDbEntity
  8
SEIHIN
100
AcDbLine
 10
79.97677074733153
 20
83.69035120337366
 30
0.0
 11
85.85975783733152
 21
83.69035120337366
 31
0.0
  0
LINE
  5
BDD
330
1A
100
AcDbEntity
  8
SEIHIN
100
AcDbLine
 10
80.96743441733151
 20
92.19035120337366
 30
0.0
 11
85.85975783733152
 21
92.19035120337366
 31
0.0
  0
LINE
  5
BDF
330
1A
100
AcDbEntity
  8
SEIHIN
100
AcDbLine
 10
68.95962137733153
 20
90.39035120337365
 30
0.0
 11
77.95501108733152
 21
82.11459266337369
 31
0.0
  0
ARC
  5
BE0
330
1A
100
AcDbEntity
  8
SEIHIN
100
AcDbCircle
 10
79.97677074733153
 20
84.69035120337366
 30
0.0
 40
1.000000002404392
100
AcDbArc
 50
226.2544208983734
 51
270.0
  0
LINE
  5
BE1
330
1A
100
AcDbEntity
  8
SEIHIN
100
AcDbLine
 10
81.80177172733152
 20
89.69035120337366
 30
0.0
 11
81.80177172733152
 21
83.69035120337366
 31
0.0
  0
ARC
  5
BE2
330
1A
100
AcDbEntity
  8
SEIHIN
100
AcDbCircle
 10
80.32470894733155
 20
84.69035120337366
 30
0.0
 40
3.50000000029082
100
AcDbArc
 50
227.385943991837
 51
270.0
  0
LINE
  5
BE4
330
1A
100
AcDbEntity
  8
SEIHIN
100
AcDbLine
 10
63.95965783733152
 20
90.39035120337365
 30
0.0
 11
68.95962137733153
 21
90.39035120337365
 31
0.0
  0
ARC
  5
BE5
330
1A
100
AcDbEntity
  8
SEIHIN
100
AcDbCircle
 10
65.65982611733153
 20
98.44015485337365
 30
0.0
 40
4.249794616209057
100
AcDbArc
 50
248.0382779466742
 51
298.0729204221733
  0
LINE
  5
BE6
330
1A
100
AcDbEntity
  8
SEIHIN
100
AcDbLine
 10
63.95965783733152
 20
90.39035120337365
 30
0.0
 11
68.95962137733153
 21
90.39035120337365
 31
0.0
  0
LINE
  5
BE7
330
1A
100
AcDbEntity
  8
SEIHIN
100
AcDbLine
 10
63.95965783733152
 20
90.39035120337365
 30
0.0
 11
68.95962137733153
 21
90.39035120337365
 31
0.0
  0
ELLIPSE
  5
BE8
330
1A
100
AcDbEntity
  8
SEIHIN
100
AcDbEllipse
 10
64.25746946733153
 20
94.96242740337368
 30
0.0
 11
-0.480711628724846
 21
0.1374237974682779
 31
0.0
210
0.0
220
0.0
230
1.0
 40
1.0
 41
0.0000000000000004
 42
1.465876859819378
  0
ARC
  5
BE9
330
1A
100
AcDbEntity
  8
SEIHIN
100
AcDbCircle
 10
64.45842468733156
 20
94.78270823337368
 30
0.0
 40
3.499985617108208
100
AcDbArc
 50
103.1906191421164
 51
181.5120868822297
  0
ARC
  5
BEA
330
1A
100
AcDbEntity
  8
SEIHIN
100
AcDbCircle
 10
63.95965783733152
 20
93.39035120337365
 30
0.0
 40
3.0
100
AcDbArc
 50
180.0
 51
270.0
  0
LINE
  5
BEB
330
1A
100
AcDbEntity
  8
SEIHIN
100
AcDbLine
 10
60.95965783733152
 20
94.69035120337366
 30
0.0
 11
60.95965783733152
 21
93.39035120337365
 31
0.0
  0
LINE
  5
BED
330
1A
100
AcDbEntity
  8
SEIHIN
100
AcDbLine
 10
63.65965783733151
 20
98.19035120337368
 30
0.0
 11
63.9969071273315
 21
98.19035120337368
 31
0.0
  0
LINE
  5
BEE
330
1A
100
AcDbEntity
  8
SEIHIN
100
AcDbLine
 10
64.47766318733153
 20
97.55296993337367
 30
0.0
 11
63.77665783733153
 21
95.09985120337365
 31
0.0
  0
ELLIPSE
  5
BEF
330
1A
100
AcDbEntity
  8
SEIHIN
100
AcDbEllipse
 10
63.99687570733153
 20
97.69032750337368
 30
0.0
 11
0.4807821249180666
 21
-0.1373763011067326
 31
0.0
210
0.0
220
0.0
230
1.0
 40
1.0
 41
0.0
 42
1.849150924921633
  0
LINE
  5
BF0
330
1A
100
AcDbEntity
  8
SEIHIN
100
AcDbLine
 10
67.65975783733154
 20
94.69035120337366
 30
0.0
 11
76.89318388733153
 21
94.69035120337366
 31
0.0
  0
LINE
  5
BF1
330
1A
100
AcDbEntity
  8
SEIHIN
100
AcDbLine
 10
79.28531342733151
 20
83.96793388337369
 30
0.0
 11
72.49425783733153
 21
90.46795120337367
 31
0.0
  0
LINE
  5
BF2
330
1A
100
AcDbEntity
  8
SEIHIN
100
AcDbLine
 10
76.24240229733152
 20
92.19035120337366
 30
0.0
 11
73.18575783733155
 21
92.19035120337366
 31
0.0
  0
LINE
  5
BF3
330
1A
100
AcDbEntity
  8
SEIHIN
100
AcDbLine
 10
67.65975783733154
 20
94.69035120337366
 30
0.0
 11
67.65975783733154
 21
90.39035120337365
 31
0.0
  0
ARC
  5
BF4
330
1A
100
AcDbEntity
  8
SEIHIN
100
AcDbCircle
 10
73.18575442733152
 20
91.19034270337369
 30
0.0
 40
1.000008503298284
100
AcDbArc
 50
89.99980462305257
 51
226.251772552069
  0
ARC
  5
BF5
330
1A
100
AcDbEntity
  8
SEIHIN
100
AcDbCircle
 10
80.96743441733151
 20
94.19035120337367
 30
0.0
 40
4.499999998880124
100
AcDbArc
 50
223.0923541928525
 51
270.0
  0
ARC
  5
BF6
330
1A
100
AcDbEntity
  8
SEIHIN
100
AcDbCircle
 10
76.89318388733153
 20
92.69035120337367
 30
0.0
 40
1.999999999554587
100
AcDbArc
 50
43.09235410287214
 51
90.0
  0
LINE
  5
BF7
330
1A
100
AcDbEntity
  8
SEIHIN
100
AcDbLine
 10
77.68129389733153
 20
91.11605771337366
 30
0.0
 11
76.97265574733155
 21
91.8735275333737
 31
0.0
  0
ARC
  5
BF8
330
1A
100
AcDbEntity
  8
SEIHIN
100
AcDbCircle
 10
76.24240229733152
 20
91.19035120337366
 30
0.0
 40
0.9999999997772931
100
AcDbArc
 50
43.09235410287214
 51
90.0
  0
ARC
  5
BF9
330
1A
100
AcDbEntity
  8
SEIHIN
100
AcDbCircle
 10
80.96743441733151
 20
94.19035120337367
 30
0.0
 40
1.999999999554585
100
AcDbArc
 50
223.0923541028721
 51
270.0
  0
LINE
  5
BFA
330
1A
100
AcDbEntity
  8
SEIHIN
100
AcDbLine
 10
79.50692751733152
 20
92.8239985433737
 30
0.0
 11
78.35369078733151
 21
94.05670386337368
 31
0.0
  0
LINE
  5
BFB
330
1A
100
AcDbEntity
  8
SEIHIN
100
AcDbLine
 10
150.8585124173315
 20
89.69035120337366
 30
0.0
 11
110.8597578373315
 21
89.69035120337366
 31
0.0
  0
LINE
  5
BFC
330
1A
100
AcDbEntity
  8
SEIHIN
100
AcDbLine
 10
110.8597578373315
 20
83.69035120337366
 30
0.0
 11
144.5527012173315
 21
83.69035120337366
 31
0.0
  0
LINE
  5
BFD
330
1A
100
AcDbEntity
  8
SEIHIN
100
AcDbLine
 10
110.8597578373315
 20
81.19035120337366
 30
0.0
 11
143.9120045773315
 21
81.19035120337366
 31
0.0
  0
LINE
  5
BFE
330
1A
100
AcDbEntity
  8
SEIHIN
100
AcDbLine
 10
110.8597578373315
 20
92.19035120337366
 30
0.0
 11
142.9165020773315
 21
92.19035120337366
 31
0.0
  0
LINE
  5
C00
330
1A
100
AcDbEntity
  8
SEIHIN
100
AcDbLine
 10
140.4596213773315
 20
89.69035120337366
 30
0.0
 11
140.4596213773315
 21
83.69035120337366
 31
0.0
  0
MTEXT
  5
C0E
330
1A
100
AcDbEntity
  8
SEIHIN
100
AcDbMText
 10
111.6437083433315
 20
86.60212842737365
 30
0.0
 40
2.381249964
 41
0.0
 71
     1
 72
     5
  1
{\W1.703704;0}
1001
ACAD
1000
MTEXTBEGIN
1070
    73
1070
     1
1070
    44
1040
1.0
1070
    74
1070
     0
1000
MTEXTEND
1000
MTEXTBEGIN
1070
    73
1070
     1
1070
    44
1040
1.0
1070
    74
1070
     0
1000
MTEXTEND
1000
MTEXTBEGIN
1070
    73
1070
     1
1070
    44
1040
1.0
1070
    74
1070
     0
1000
MTEXTEND
1000
MTEXTBEGIN
1070
    73
1070
     1
1070
    44
1040
1.0
1070
    74
1070
     0
1000
MTEXTEND
1000
MTEXTBEGIN
1070
    73
1070
     1
1070
    44
1040
1.0
1070
    74
1070
     0
1000
MTEXTEND
1000
MTEXTBEGIN
1070
    73
1070
     1
1070
    44
1040
1.0
1070
    74
1070
     0
1000
MTEXTEND
1000
MTEXTBEGIN
1070
    73
1070
     1
1070
    44
1040
1.0
1070
    74
1070
     0
1000
MTEXTEND
  0
LINE
  5
C12
330
1A
100
AcDbEntity
  8
SEIHIN
100
AcDbLine
 10
116.0390578363315
 20
92.19035120337366
 30
0.0
 11
110.8597578373315
 21
92.19035120337366
 31
0.0
  0
LINE
  5
C2D
330
1A
100
AcDbEntity
  8
SEIHIN
100
AcDbLine
 10
111.1097578373315
 20
89.69035120337366
 30
0.0
 11
111.1097578373315
 21
87.69035120337367
 31
0.0
  0
LINE
  5
C2E
330
1A
100
AcDbEntity
  8
SEIHIN
100
AcDbLine
 10
111.1097578373315
 20
87.69035120337367
 30
0.0
 11
110.8597578373315
 21
87.69035120337367
 31
0.0
  0
MTEXT
  5
C31
330
1A
100
AcDbEntity
  8
SEIHIN
100
AcDbMText
 10
118.9507500934615
 20
86.60212842737365
 30
0.0
 40
2.381249964
 41
0.0
 71
     1
 72
     5
  1
{\W1.135802;30}
1001
ACAD
1000
MTEXTBEGIN
1070
    73
1070
     1
1070
    44
1040
1.0
1070
    74
1070
     0
1000
MTEXTEND
1000
MTEXTBEGIN
1070
    73
1070
     1
1070
    44
1040
1.0
1070
    74
1070
     0
1000
MTEXTEND
1000
MTEXTBEGIN
1070
    73
1070
     1
1070
    44
1040
1.0
1070
    74
1070
     0
1000
MTEXTEND
1000
MTEXTBEGIN
1070
    73
1070
     1
1070
    44
1040
1.0
1070
    74
1070
     0
1000
MTEXTEND
1000
MTEXTBEGIN
1070
    73
1070
     1
1070
    44
1040
1.0
1070
    74
1070
     0
1000
MTEXTEND
1000
MTEXTBEGIN
1070
    73
1070
     1
1070
    44
1040
1.0
1070
    74
1070
     0
1000
MTEXTEND
1000
MTEXTBEGIN
1070
    73
1070
     1
1070
    44
1040
1.0
1070
    74
1070
     0
1000
MTEXTEND
  0
LINE
  5
C32
330
1A
100
AcDbEntity
  8
SEIHIN
100
AcDbLine
 10
116.1097578373315
 20
89.69035120337366
 30
0.0
 11
116.1097578373315
 21
87.69035120337367
 31
0.0
  0
LINE
  5
C33
330
1A
100
AcDbEntity
  8
SEIHIN
100
AcDbLine
 10
115.6097578373315
 20
87.69035120337367
 30
0.0
 11
115.6097578373315
 21
89.69035120337366
 31
0.0
  0
LINE
  5
C34
330
1A
100
AcDbEntity
  8
SEIHIN
100
AcDbLine
 10
116.1097578373315
 20
87.69035120337367
 30
0.0
 11
115.6097578373315
 21
87.69035120337367
 31
0.0
  0
LINE
  5
C35
330
1A
100
AcDbEntity
  8
SEIHIN
100
AcDbLine
 10
115.6097578373315
 20
89.69035120337366
 30
0.0
 11
116.1097578373315
 21
89.69035120337366
 31
0.0
  0
LINE
  5
C36
330
1A
100
AcDbEntity
  8
SEIHIN
100
AcDbLine
 10
126.1097578373315
 20
89.69035120337366
 30
0.0
 11
126.1097578373315
 21
87.69035120337367
 31
0.0
  0
LINE
  5
C37
330
1A
100
AcDbEntity
  8
SEIHIN
100
AcDbLine
 10
125.6097578373315
 20
87.69035120337367
 30
0.0
 11
125.6097578373315
 21
89.69035120337366
 31
0.0
  0
LINE
  5
C38
330
1A
100
AcDbEntity
  8
SEIHIN
100
AcDbLine
 10
121.1097578373315
 20
89.69035120337366
 30
0.0
 11
121.1097578373315
 21
87.69035120337367
 31
0.0
  0
LINE
  5
C39
330
1A
100
AcDbEntity
  8
SEIHIN
100
AcDbLine
 10
120.6097578373315
 20
87.69035120337367
 30
0.0
 11
120.6097578373315
 21
89.69035120337366
 31
0.0
  0
LINE
  5
C3A
330
1A
100
AcDbEntity
  8
SEIHIN
100
AcDbLine
 10
121.1097578373315
 20
87.69035120337367
 30
0.0
 11
120.6097578373315
 21
87.69035120337367
 31
0.0
  0
LINE
  5
C3B
330
1A
100
AcDbEntity
  8
SEIHIN
100
AcDbLine
 10
126.1097578373315
 20
87.69035120337367
 30
0.0
 11
125.6097578373315
 21
87.69035120337367
 31
0.0
  0
LINE
  5
C3C
330
1A
100
AcDbEntity
  8
SEIHIN
100
AcDbLine
 10
120.6097578373315
 20
89.69035120337366
 30
0.0
 11
121.1097578373315
 21
89.69035120337366
 31
0.0
  0
LINE
  5
C3D
330
1A
100
AcDbEntity
  8
SEIHIN
100
AcDbLine
 10
125.6097578373315
 20
89.69035120337366
 30
0.0
 11
126.1097578373315
 21
89.69035120337366
 31
0.0
  0
MTEXT
  5
C3E
330
1A
100
AcDbEntity
  8
SEIHIN
100
AcDbMText
 10
133.9585279873315
 20
86.78227002737367
 30
0.0
 40
2.381249964
 41
0.0
 71
     1
 72
     5
  1
{\W1.022222;45}
1001
ACAD
1000
MTEXTBEGIN
1070
    73
1070
     1
1070
    44
1040
1.0
1070
    74
1070
     0
1000
MTEXTEND
1000
MTEXTBEGIN
1070
    73
1070
     1
1070
    44
1040
1.0
1070
    74
1070
     0
1000
MTEXTEND
1000
MTEXTBEGIN
1070
    73
1070
     1
1070
    44
1040
1.0
1070
    74
1070
     0
1000
MTEXTEND
1000
MTEXTBEGIN
1070
    73
1070
     1
1070
    44
1040
1.0
1070
    74
1070
     0
1000
MTEXTEND
1000
MTEXTBEGIN
1070
    73
1070
     1
1070
    44
1040
1.0
1070
    74
1070
     0
1000
MTEXTEND
1000
MTEXTBEGIN
1070
    73
1070
     1
1070
    44
1040
1.0
1070
    74
1070
     0
1000
MTEXTEND
1000
MTEXTBEGIN
1070
    73
1070
     1
1070
    44
1040
1.0
1070
    74
1070
     0
1000
MTEXTEND
  0
LINE
  5
C3F
330
1A
100
AcDbEntity
  8
SEIHIN
100
AcDbLine
 10
131.1091351273315
 20
89.69035120337366
 30
0.0
 11
131.1091351273315
 21
87.69035120337367
 31
0.0
  0
LINE
  5
C40
330
1A
100
AcDbEntity
  8
SEIHIN
100
AcDbLine
 10
130.6091351273315
 20
87.69035120337367
 30
0.0
 11
130.6091351273315
 21
89.69035120337366
 31
0.0
  0
LINE
  5
C41
330
1A
100
AcDbEntity
  8
SEIHIN
100
AcDbLine
 10
131.1091351273315
 20
87.69035120337367
 30
0.0
 11
130.6091351273315
 21
87.69035120337367
 31
0.0
  0
LINE
  5
C42
330
1A
100
AcDbEntity
  8
SEIHIN
100
AcDbLine
 10
130.6091351273315
 20
89.69035120337366
 30
0.0
 11
131.1091351273315
 21
89.69035120337366
 31
0.0
  0
LINE
  5
C43
330
1A
100
AcDbEntity
  8
SEIHIN
100
AcDbLine
 10
136.1097578373315
 20
89.69035120337366
 30
0.0
 11
136.1097578373315
 21
87.69035120337367
 31
0.0
  0
LINE
  5
C44
330
1A
100
AcDbEntity
  8
SEIHIN
100
AcDbLine
 10
135.6097578373315
 20
87.69035120337367
 30
0.0
 11
135.6097578373315
 21
89.69035120337366
 31
0.0
  0
LINE
  5
C45
330
1A
100
AcDbEntity
  8
SEIHIN
100
AcDbLine
 10
136.1097578373315
 20
87.69035120337367
 30
0.0
 11
135.6097578373315
 21
87.69035120337367
 31
0.0
  0
LINE
  5
C46
330
1A
100
AcDbEntity
  8
SEIHIN
100
AcDbLine
 10
135.6097578373315
 20
89.69035120337366
 30
0.0
 11
136.1097578373315
 21
89.69035120337366
 31
0.0
  0
LINE
  5
C49
330
1A
100
AcDbEntity
  8
SEIHIN
100
AcDbLine
 10
165.4596213773315
 20
86.94035120337366
 30
0.0
 11
165.4596213773315
 21
82.08150318337368
 31
0.0
  0
ARC
  5
C4A
330
1A
100
AcDbEntity
  8
SEIHIN
100
AcDbCircle
 10
144.5527012173315
 20
84.19035120337367
 30
0.0
 40
0.4999999962089669
100
AcDbArc
 50
270.0
 51
350.6360096398327
  0
LINE
  5
C4B
330
1A
100
AcDbEntity
  8
SEIHIN
100
AcDbLine
 10
172.5937324373315
 20
86.69033715337366
 30
0.0
 11
177.4286689273315
 21
78.31598150337367
 31
0.0
  0
ARC
  5
C4C
330
1A
100
AcDbEntity
  8
SEIHIN
100
AcDbCircle
 10
143.1936575673315
 20
99.69035120337366
 30
0.0
 40
15.99999999650688
100
AcDbArc
 50
288.1859804982271
 51
330.2479051608476
  0
LINE
  5
C4D
330
1A
100
AcDbEntity
  8
SEIHIN
100
AcDbLine
 10
166.9596213773315
 20
80.33274287337366
 30
0.0
 11
166.9596213773315
 21
86.94035120337366
 31
0.0
  0
ARC
  5
C4E
330
1A
100
AcDbEntity
  8
SEIHIN
100
AcDbCircle
 10
148.4993996773315
 20
83.5395276733737
 30
0.0
 40
1.00000000571721
100
AcDbArc
 50
108.1859940097359
 51
255.3791176229967
  0
LINE
  5
C4F
330
1A
100
AcDbEntity
  8
SEIHIN
100
AcDbLine
 10
183.9597578373315
 20
112.7124939643736
 30
0.0
 11
183.9597578373315
 21
80.06598150337367
 31
0.0
  0
LINE
  5
C50
330
1A
100
AcDbEntity
  8
SEIHIN
100
AcDbLine
 10
143.9120045773315
 20
81.19035120337366
 30
0.0
 11
163.3847329073315
 21
77.38834085337368
 31
0.0
  0
LINE
  5
C51
330
1A
100
AcDbEntity
  8
SEIHIN
100
AcDbLine
 10
162.0201701673315
 20
78.97890369337369
 30
0.0
 11
148.2469776373315
 21
82.57191043337366
 31
0.0
  0
ARC
  5
C52
330
1A
100
AcDbEntity
  8
SEIHIN
100
AcDbCircle
 10
143.9120045773315
 20
80.19035120337367
 30
0.0
 40
0.9999999985731333
100
AcDbArc
 50
78.80393204908905
 51
90.0
  0
ARC
  5
C53
330
1A
100
AcDbEntity
  8
SEIHIN
100
AcDbCircle
 10
164.6425148273315
 20
79.6016960533737
 30
0.0
 40
1.999999999179419
100
AcDbArc
 50
82.71282276529213
 51
183.1869153879589
  0
ARC
  5
C54
330
1A
100
AcDbEntity
  8
SEIHIN
100
AcDbCircle
 10
163.9596213773315
 20
80.33274287337366
 30
0.0
 40
3.00000000069325
100
AcDbArc
 50
258.9521053411593
 51
0.0
  0
ARC
  5
C55
330
1A
100
AcDbEntity
  8
SEIHIN
100
AcDbCircle
 10
162.1463811173315
 20
79.4627123233737
 30
0.0
 40
0.4999999958019847
100
AcDbArc
 50
255.3791256739049
 51
3.186915975958103
  0
ARC
  5
C56
330
1A
100
AcDbEntity
  8
SEIHIN
100
AcDbCircle
 10
164.9596213773315
 20
82.08150318337368
 30
0.0
 40
0.4999999963452644
100
AcDbArc
 50
262.7128226562795
 51
0.0
  0
ARC
  5
C57
330
1A
100
AcDbEntity
  8
SEIHIN
100
AcDbCircle
 10
180.4597578373315
 20
80.06598150337367
 30
0.0
 40
3.499999998594639
100
AcDbArc
 50
210.0000000265656
 51
0.0
  0
LINE
  5
C58
330
1A
100
AcDbEntity
  8
SEIHIN
100
AcDbLine
 10
178.9599081373315
 20
117.7124939623736
 30
0.0
 11
172.0115272273315
 21
117.7127028353736
 31
0.0
  0
LINE
  5
C59
330
1A
100
AcDbEntity
  8
SEIHIN
100
AcDbLine
 10
178.9598329873315
 20
115.2124939633736
 30
0.0
 11
172.0114520773315
 21
115.2127028373736
 31
0.0
  0
LINE
  5
C5A
330
1A
100
AcDbEntity
  8
SEIHIN
100
AcDbLine
 10
172.9599381973315
 20
107.7126743213737
 30
0.0
 11
172.0112266173315
 21
107.7127028403736
 31
0.0
  0
LINE
  5
C5B
330
1A
100
AcDbEntity
  8
SEIHIN
100
AcDbLine
 10
172.9600133573315
 20
110.2126743202736
 30
0.0
 11
172.0113017673315
 21
110.2127028391736
 31
0.0
  0
LINE
  5
C5C
330
1A
100
AcDbEntity
  8
SEIHIN
100
AcDbLine
 10
156.8177642573315
 20
106.3970471503736
 30
0.0
 11
149.5525283673315
 21
93.68659945337368
 31
0.0
  0
LINE
  5
C5D
330
1A
100
AcDbEntity
  8
SEIHIN
100
AcDbLine
 10
154.6473125773315
 20
107.6376677653736
 30
0.0
 11
147.2574059173315
 21
94.70910997337369
 31
0.0
  0
ARC
  5
C5E
330
1A
100
AcDbEntity
  8
SEIHIN
100
AcDbCircle
 10
172.0109260073315
 20
97.71270284337369
 30
0.0
 40
9.999999999145625
100
AcDbArc
 50
89.9982776315724
 51
150.2479051562262
  0
ARC
  5
C5F
330
1A
100
AcDbEntity
  8
SEIHIN
100
AcDbCircle
 10
172.0109260073315
 20
97.71270284337369
 30
0.0
 40
12.49999999966815
100
AcDbArc
 50
89.99827764303095
 51
150.2479051639018
  0
LINE
  5
C60
330
1A
100
AcDbEntity
  8
SEIHIN
100
AcDbLine
 10
161.1586676173315
 20
103.9158059203736
 30
0.0
 11
154.7443916573315
 21
92.69410295337365
 31
0.0
  0
ARC
  5
C61
330
1A
100
AcDbEntity
  8
SEIHIN
100
AcDbCircle
 10
143.1936575673315
 20
99.69035120337366
 30
0.0
 40
13.49999999718524
100
AcDbArc
 50
288.1859799493473
 51
306.1289274530567
  0
ARC
  5
C62
330
1A
100
AcDbEntity
  8
SEIHIN
100
AcDbCircle
 10
150.4207090373315
 20
93.19035120337366
 30
0.0
 40
1.000000000347428
100
AcDbArc
 50
150.247904938769
 51
270.0
  0
ARC
  5
C63
330
1A
100
AcDbEntity
  8
SEIHIN
100
AcDbCircle
 10
148.4993996773315
 20
83.5395276733737
 30
0.0
 40
3.500000003201731
100
AcDbArc
 50
108.1859864757694
 51
170.6360096381228
  0
ARC
  5
C64
330
1A
100
AcDbEntity
  8
SEIHIN
100
AcDbCircle
 10
142.9165025573315
 20
97.19035120337366
 30
0.0
 40
5.000000001115571
100
AcDbArc
 50
269.9999944996055
 51
330.2479051946069
  0
ARC
  5
C65
330
1A
100
AcDbEntity
  8
SEIHIN
100
AcDbCircle
 10
150.8585124173315
 20
89.19035120337367
 30
0.0
 40
0.499999998465137
100
AcDbArc
 50
306.1289277375728
 51
90.0
  0
LINE
  5
C66
330
1A
100
AcDbEntity
  8
SEIHIN
100
AcDbLine
 10
150.4207090373315
 20
92.19035120337366
 30
0.0
 11
153.8762109873315
 21
92.19035120337366
 31
0.0
  0
ARC
  5
C67
330
1A
100
AcDbEntity
  8
SEIHIN
100
AcDbCircle
 10
153.8762109873315
 20
93.19035120337366
 30
0.0
 40
1.000000000347427
100
AcDbArc
 50
270.0
 51
330.2479049387692
  0
LINE
  5
C68
330
1A
100
AcDbEntity
  8
SEIHIN
100
AcDbLine
 10
163.3291192973315
 20
102.6751853053736
 30
0.0
 11
157.0845483073315
 21
91.7503792633737
 31
0.0
  0
ARC
  5
C69
330
1A
100
AcDbEntity
  8
SEIHIN
100
AcDbCircle
 10
166.2096213773315
 20
86.94035120337366
 30
0.0
 40
0.75
100
AcDbArc
 50
0.0
 51
90.0
  0
ARC
  5
C6A
330
1A
100
AcDbEntity
  8
SEIHIN
100
AcDbCircle
 10
166.2096213773315
 20
86.94035120337366
 30
0.0
 40
0.75
100
AcDbArc
 50
90.0
 51
180.0
  0
ARC
  5
C6B
330
1A
100
AcDbEntity
  8
SEIHIN
100
AcDbCircle
 10
172.0109260073315
 20
97.71270284337369
 30
0.0
 40
17.50000000101337
100
AcDbArc
 50
89.99827762338702
 51
150.2479051726757
  0
ARC
  5
C6C
330
1A
100
AcDbEntity
  8
SEIHIN
100
AcDbCircle
 10
172.0109260073315
 20
97.71270284337369
 30
0.0
 40
20.0000000011359
100
AcDbArc
 50
89.99827763157158
 51
150.2479051754179
  0
ARC
  5
C6D
330
1A
100
AcDbEntity
  8
SEIHIN
100
AcDbCircle
 10
172.9597578373315
 20
101.7126743243736
 30
0.0
 40
5.999999999855404
100
AcDbArc
 50
0.0
 51
89.99827768886756
  0
LINE
  5
C72
330
1A
100
AcDbEntity
  8
SEIHIN
100
AcDbLine
 10
178.9597578373315
 20
101.7126743243736
 30
0.0
 11
178.9597578373315
 21
87.93297784337369
 31
0.0
  0
ARC
  5
C73
330
1A
100
AcDbEntity
  8
SEIHIN
100
AcDbCircle
 10
176.9597578373315
 20
87.93297784337369
 30
0.0
 40
1.999999998321968
100
AcDbArc
 50
225.0
 51
0.0
  0
LINE
  5
C74
330
1A
100
AcDbEntity
  8
SEIHIN
100
AcDbLine
 10
174.1668646173315
 20
87.89744393337366
 30
0.0
 11
175.5455442773315
 21
86.51876428337368
 31
0.0
  0
ARC
  5
C75
330
1A
100
AcDbEntity
  8
SEIHIN
100
AcDbCircle
 10
173.4597578373315
 20
87.19033715337365
 30
0.0
 40
0.9999999975222747
100
AcDbArc
 50
45.0
 51
210.0000001084147
  0
ARC
  5
C77
330
1A
100
AcDbEntity
  8
SEIHIN
100
AcDbCircle
 10
178.9597578373315
 20
112.7124939643736
 30
0.0
 40
5.000000000129504
100
AcDbArc
 50
0.0
 51
89.99827768886756
  0
ARC
  5
C78
330
1A
100
AcDbEntity
  8
SEIHIN
100
AcDbCircle
 10
178.9597578373315
 20
112.7124939643736
 30
0.0
 40
2.500000000064752
100
AcDbArc
 50
0.0
 51
89.99827768886756
  0
ARC
  5
C79
330
1A
100
AcDbEntity
  8
SEIHIN
100
AcDbCircle
 10
172.9597578373315
 20
101.7126743243736
 30
0.0
 40
8.500000001574836
100
AcDbArc
 50
37.86364634504803
 51
89.99827762146058
  0
LINE
  5
C7A
330
1A
100
AcDbEntity
  8
SEIHIN
100
AcDbLine
 10
181.4597578373315
 20
112.7124939643736
 30
0.0
 11
181.4597578373315
 21
107.5436262193736
 31
0.0
  0
ARC
  5
C7B
330
1A
100
AcDbEntity
  8
SEIHIN
100
AcDbCircle
 10
180.4597578373315
 20
107.5436262193736
 30
0.0
 40
0.9999999983429477
100
AcDbArc
 50
217.863646510539
 51
0.0
  0
LINE
  5
C7C
330
1A
100
AcDbEntity
  8
SEIHIN
100
AcDbLine
 10
90.39266080733154
 20
203.6238296605791
 30
0.0
 11
68.95965783733152
 21
203.6238296605791
 31
0.0
  0
LINE
  5
C7D
330
1A
100
AcDbEntity
  8
SEIHIN
100
AcDbLine
 10
90.39266080733154
 20
218.6238297005791
 30
0.0
 11
68.95965783733152
 21
218.6238297005791
 31
0.0
  0
LINE
  5
C7F
330
1A
100
AcDbEntity
  8
SEIHIN
100
AcDbLine
 10
63.95965783733152
 20
200.1238296605791
 30
0.0
 11
63.95965783733152
 21
222.1238297005792
 31
0.0
  0
LINE
  5
C80
330
1A
100
AcDbEntity
  8
SEIHIN
100
AcDbLine
 10
66.95965783733152
 20
220.6238297005791
 30
0.0
 11
66.95965783733152
 21
222.1238297005792
 31
0.0
  0
LINE
  5
C81
330
1A
100
AcDbEntity
  8
SEIHIN
100
AcDbLine
 10
60.95965783733152
 20
200.1238296605791
 30
0.0
 11
60.95965783733152
 21
222.1238297005792
 31
0.0
  0
ARC
  5
C83
330
1A
100
AcDbEntity
  8
SEIHIN
100
AcDbCircle
 10
68.95965783733152
 20
201.6238296605791
 30
0.0
 40
2.0
100
AcDbArc
 50
90.0
 51
180.0
  0
LINE
  5
C84
330
1A
100
AcDbEntity
  8
SEIHIN
100
AcDbLine
 10
60.95965783733152
 20
200.1238296605791
 30
0.0
 11
66.95965783733152
 21
200.1238296605791
 31
0.0
  0
ARC
  5
C85
330
1A
100
AcDbEntity
  8
SEIHIN
100
AcDbCircle
 10
68.95965783733152
 20
220.6238297005791
 30
0.0
 40
2.0
100
AcDbArc
 50
180.0
 51
270.0
  0
LINE
  5
C87
330
1A
100
AcDbEntity
  8
SEIHIN
100
AcDbLine
 10
80.96743441733153
 20
217.6417588005791
 30
0.0
 11
80.96743441733153
 21
205.1523735705791
 31
0.0
  0
LINE
  5
C88
330
1A
100
AcDbEntity
  8
SEIHIN
100
AcDbLine
 10
77.62560550733155
 20
217.3018698005791
 30
0.0
 11
77.62560550733155
 21
204.8124845305791
 31
0.0
  0
LINE
  5
C89
330
1A
100
AcDbEntity
  8
SEIHIN
100
AcDbLine
 10
66.95965783733152
 20
201.6238296605791
 30
0.0
 11
66.95965783733152
 21
200.1238296605791
 31
0.0
  0
LINE
  5
C8A
330
1A
100
AcDbEntity
  8
SEIHIN
100
AcDbLine
 10
60.95965783733152
 20
222.1238297005792
 30
0.0
 11
66.95965783733152
 21
222.1238297005792
 31
0.0
  0
LINE
  5
F65
330
1A
100
AcDbEntity
  8
NOKITOI
  6
PHANTOM
 62
     8
100
AcDbLine
 10
178.7978578322495
 20
102.3834512022668
 30
0.0
 11
178.4077578322495
 21
89.89905120226683
 31
0.0
  0
LINE
  5
F66
330
1A
100
AcDbEntity
  8
NOKITOI
  6
PHANTOM
 62
     8
100
AcDbLine
 10
177.5984578322491
 20
102.4209512022667
 30
0.0
 11
177.4491578322495
 21
97.64195120226702
 31
0.0
  0
LINE
  5
F67
330
1A
100
AcDbEntity
  8
NOKITOI
  6
PHANTOM
 62
     8
100
AcDbLine
 10
172.8853578322496
 20
99.64595120226693
 30
0.0
 11
171.8895578322495
 21
100.745951202267
 31
0.0
  0
LINE
  5
F68
330
1A
100
AcDbEntity
  8
NOKITOI
  6
PHANTOM
 62
     8
100
AcDbLine
 10
170.3374578322496
 20
95.4196512022669
 30
0.0
 11
170.0216578322493
 21
101.4196512022669
 31
0.0
  0
ARC
  5
F69
330
1A
100
AcDbEntity
  8
NOKITOI
  6
PHANTOM
 62
     8
100
AcDbCircle
 10
173.3473399658983
 20
94.44595993064684
 30
0.0
 40
5.199991271650611
100
AcDbArc
 50
37.92532860472995
 51
89.9998031407256
  0
LINE
  5
F6A
330
1A
100
AcDbEntity
  8
NOKITOI
  6
PHANTOM
 62
     8
100
AcDbLine
 10
64.83935783224985
 20
99.64595120226693
 30
0.0
 11
65.83515783224953
 21
100.745951202267
 31
0.0
  0
LINE
  5
F6B
330
1A
100
AcDbEntity
  8
NOKITOI
  6
PHANTOM
 62
     8
100
AcDbLine
 10
67.38735783224962
 20
95.41975120226686
 30
0.0
 11
67.70315783224948
 21
101.4196512022669
 31
0.0
  0
LINE
  5
F6C
330
1A
100
AcDbEntity
  8
NOKITOI
  6
PHANTOM
 62
     8
100
AcDbLine
 10
58.92685783224954
 20
102.3834512022668
 30
0.0
 11
59.31705783224936
 21
89.89915120226681
 31
0.0
  0
LINE
  5
F6D
330
1A
100
AcDbEntity
  8
NOKITOI
  6
PHANTOM
 62
     8
100
AcDbLine
 10
60.1262578322499
 20
102.4209512022667
 30
0.0
 11
60.27565783224924
 21
97.642051202267
 31
0.0
  0
ARC
  5
F6E
330
1A
100
AcDbEntity
  8
NOKITOI
  6
PHANTOM
 62
     8
100
AcDbCircle
 10
64.37757804491872
 20
94.44600993064694
 30
0.0
 40
5.2000412730095
100
AcDbArc
 50
90.0013245430618
 51
142.0757990790551
  0
ARC
  5
F6F
330
1A
100
AcDbEntity
  8
NOKITOI
  6
PHANTOM
 62
     8
100
AcDbCircle
 10
110.6759639142174
 20
92.44594557761059
 30
0.0
 40
41.79999437547816
100
AcDbArc
 50
184.4742952125247
 51
269.999854592109
  0
ARC
  5
F70
330
1A
100
AcDbEntity
  8
NOKITOI
  6
PHANTOM
 62
     8
100
AcDbCircle
 10
110.6759416057921
 20
92.44596567863698
 30
0.0
 40
43.00001447645168
100
AcDbArc
 50
186.5249107071177
 51
269.9998883751437
  0
ARC
  5
F71
330
1A
100
AcDbEntity
  8
NOKITOI
  6
PHANTOM
 62
     8
100
AcDbCircle
 10
60.81629379140037
 20
89.94591634812366
 30
0.0
 40
1.499965146287778
100
AcDbArc
 50
181.7866280217767
 51
269.9986264296971
  0
ARC
  5
F72
330
1A
100
AcDbEntity
  8
NOKITOI
  6
PHANTOM
 62
     8
100
AcDbCircle
 10
66.96094940808695
 20
87.44595871732338
 30
0.0
 40
0.9999924849789756
100
AcDbArc
 50
6.528264606673934
 51
89.99951732740965
  0
LINE
  5
F73
330
1A
100
AcDbEntity
  8
NOKITOI
  6
PHANTOM
 62
     8
100
AcDbLine
 10
68.50485783224991
 20
89.64595120226693
 30
0.0
 11
62.46395783224949
 21
89.64595120226693
 31
0.0
  0
LINE
  5
F74
330
1A
100
AcDbEntity
  8
NOKITOI
  6
PHANTOM
 62
     8
100
AcDbLine
 10
64.14395783224932
 20
95.51675120226708
 30
0.0
 11
64.47765783224946
 21
97.85295120226704
 31
0.0
  0
LINE
  5
F75
330
1A
100
AcDbEntity
  8
NOKITOI
  6
PHANTOM
 62
     8
100
AcDbLine
 10
66.88795783224946
 20
94.94595120226689
 30
0.0
 11
64.63885783224947
 21
94.94595120226689
 31
0.0
  0
ARC
  5
F76
330
1A
100
AcDbEntity
  8
NOKITOI
  6
PHANTOM
 62
     8
100
AcDbCircle
 10
64.63888443284719
 20
95.44592052538485
 30
0.0
 40
0.4999693238254178
100
AcDbArc
 50
171.8555038770531
 51
269.9969516090356
  0
ARC
  5
F77
330
1A
100
AcDbEntity
  8
NOKITOI
  6
PHANTOM
 62
     8
100
AcDbCircle
 10
66.88795094525454
 20
95.44594466718137
 30
0.0
 40
0.499993464961963
100
AcDbArc
 50
270.0007892017869
 51
356.997036131742
  0
LINE
  5
F78
330
1A
100
AcDbEntity
  8
NOKITOI
  6
PHANTOM
 62
     8
100
AcDbLine
 10
66.22385783224951
 20
96.14595120226693
 30
0.0
 11
65.44595783224991
 21
96.14595120226693
 31
0.0
  0
LINE
  5
F79
330
1A
100
AcDbEntity
  8
NOKITOI
  6
PHANTOM
 62
     8
100
AcDbLine
 10
65.85005783224966
 20
98.97435120226681
 30
0.0
 11
66.40505783224949
 21
99.58745120226707
 31
0.0
  0
LINE
  5
F7A
330
1A
100
AcDbEntity
  8
NOKITOI
  6
PHANTOM
 62
     8
100
AcDbLine
 10
65.44595783224991
 20
96.14595120226693
 30
0.0
 11
65.85005783224966
 21
98.97435120226681
 31
0.0
  0
ARC
  5
F7B
330
1A
100
AcDbEntity
  8
NOKITOI
  6
PHANTOM
 62
     8
100
AcDbCircle
 10
63.98267205066492
 20
97.9236365679659
 30
0.0
 40
0.5000073448410256
100
AcDbArc
 50
351.872947864124
 51
96.47829282996916
  0
LINE
  5
F7C
330
1A
100
AcDbEntity
  8
NOKITOI
  6
PHANTOM
 62
     8
100
AcDbLine
 10
64.83935783224985
 20
99.64595120226693
 30
0.0
 11
64.3774578322496
 21
99.64595120226693
 31
0.0
  0
LINE
  5
F7D
330
1A
100
AcDbEntity
  8
NOKITOI
  6
PHANTOM
 62
     8
100
AcDbLine
 10
66.22385783224951
 20
96.14595120226693
 30
0.0
 11
66.40505783224949
 21
99.58745120226707
 31
0.0
  0
LINE
  5
F7E
330
1A
100
AcDbEntity
  8
NOKITOI
  6
PHANTOM
 62
     8
100
AcDbLine
 10
60.8162578322495
 20
88.44595120226689
 30
0.0
 11
66.96095783224933
 21
88.44595120226689
 31
0.0
  0
LINE
  5
F7F
330
1A
100
AcDbEntity
  8
NOKITOI
  6
PHANTOM
 62
     8
100
AcDbLine
 10
60.46495783224924
 20
91.58355120226691
 30
0.0
 11
60.37945783224955
 21
94.32105120226685
 31
0.0
  0
ARC
  5
F80
330
1A
100
AcDbEntity
  8
NOKITOI
  6
PHANTOM
 62
     8
100
AcDbCircle
 10
64.37749571369619
 20
94.44599498479226
 30
0.0
 40
3.999989731271038
100
AcDbArc
 50
96.4773114201311
 51
181.7899836067311
  0
ARC
  5
F81
330
1A
100
AcDbEntity
  8
NOKITOI
  6
PHANTOM
 62
     8
100
AcDbCircle
 10
62.46397140438791
 20
91.6459380471805
 30
0.0
 40
1.999986844959662
100
AcDbArc
 50
181.7875531852356
 51
269.9996111843215
  0
ARC
  5
F82
330
1A
100
AcDbEntity
  8
NOKITOI
  6
PHANTOM
 62
     8
100
AcDbCircle
 10
68.50487040195782
 20
89.14593957753721
 30
0.0
 40
0.5000116248877111
100
AcDbArc
 50
4.474846808342103
 51
90.00144034898383
  0
LINE
  5
F83
330
1A
100
AcDbEntity
  8
NOKITOI
  6
PHANTOM
 62
     8
100
AcDbLine
 10
165.5574578322498
 20
58.92865120226691
 30
0.0
 11
155.5721578322496
 21
50.75885120226678
 31
0.0
  0
LINE
  5
F84
330
1A
100
AcDbEntity
  8
NOKITOI
  6
PHANTOM
 62
     8
100
AcDbLine
 10
166.5417578322495
 20
58.18355120226704
 30
0.0
 11
156.1386578322495
 21
49.67185120226702
 31
0.0
  0
LINE
  5
F85
330
1A
100
AcDbEntity
  8
NOKITOI
  6
PHANTOM
 62
     8
100
AcDbLine
 10
110.6759578322494
 20
50.64595120226693
 30
0.0
 11
155.2555578322495
 21
50.64585120226695
 31
0.0
  0
LINE
  5
F86
330
1A
100
AcDbEntity
  8
NOKITOI
  6
PHANTOM
 62
     8
100
AcDbLine
 10
155.5053578322495
 20
49.4458512022669
 30
0.0
 11
110.6759578322494
 21
49.44595120226688
 31
0.0
  0
LINE
  5
F87
330
1A
100
AcDbEntity
  8
NOKITOI
  6
PHANTOM
 62
     8
100
AcDbLine
 10
151.2555578322495
 20
50.64585120226695
 30
0.0
 11
131.3474578322498
 21
50.64585120226695
 31
0.0
  0
LINE
  5
F88
330
1A
100
AcDbEntity
  8
NOKITOI
  6
PHANTOM
 62
     8
100
AcDbLine
 10
151.5053578322495
 20
49.4458512022669
 30
0.0
 11
131.3474578322498
 21
49.4458512022669
 31
0.0
  0
ARC
  5
F89
330
1A
100
AcDbEntity
  8
NOKITOI
  6
PHANTOM
 62
     8
100
AcDbCircle
 10
155.2555642199982
 20
51.14585348225649
 30
0.0
 40
0.5000022800304047
100
AcDbArc
 50
269.9992680212791
 51
309.2854498596061
  0
ARC
  5
F8A
330
1A
100
AcDbEntity
  8
NOKITOI
  6
PHANTOM
 62
     8
100
AcDbCircle
 10
155.5053508996721
 20
50.4458487272608
 30
0.0
 40
0.9999975250179316
100
AcDbArc
 50
270.0003972084035
 51
309.2946416752297
  0
LINE
  5
F8B
330
1A
100
AcDbEntity
  8
NOKITOI
  6
PHANTOM
 62
     8
100
AcDbLine
 10
168.7313578322496
 20
89.19575120226694
 30
0.0
 11
165.7383578322492
 21
59.26595120226682
 31
0.0
  0
LINE
  5
F8C
330
1A
100
AcDbEntity
  8
NOKITOI
  6
PHANTOM
 62
     8
100
AcDbLine
 10
169.7723578322498
 20
87.54545120226692
 30
0.0
 11
166.9035578322496
 21
58.85805120226689
 31
0.0
  0
ARC
  5
F8D
330
1A
100
AcDbEntity
  8
NOKITOI
  6
PHANTOM
 62
     8
100
AcDbCircle
 10
165.2408404063713
 20
59.31561871587894
 30
0.0
 40
0.4999904508696396
100
AcDbArc
 50
309.2900846377951
 51
354.2990110749239
  0
ARC
  5
F8E
330
1A
100
AcDbEntity
  8
NOKITOI
  6
PHANTOM
 62
     8
100
AcDbCircle
 10
165.9085352593806
 20
58.9575091305943
 30
0.0
 40
0.9999908507640039
100
AcDbArc
 50
309.288709223069
 51
354.2862329477532
  0
ARC
  5
F8F
330
1A
100
AcDbEntity
  8
NOKITOI
  6
PHANTOM
 62
     8
100
AcDbCircle
 10
173.3473269053134
 20
94.4459869469307
 30
0.0
 40
3.99998565374706
100
AcDbArc
 50
358.208696659101
 51
83.52422380468341
  0
LINE
  5
F90
330
1A
100
AcDbEntity
  8
NOKITOI
  6
PHANTOM
 62
     8
100
AcDbLine
 10
169.2288578322491
 20
89.64595120226693
 30
0.0
 11
175.2607578322495
 21
89.64595120226693
 31
0.0
  0
LINE
  5
F91
330
1A
100
AcDbEntity
  8
NOKITOI
  6
PHANTOM
 62
     8
100
AcDbLine
 10
176.9084578322495
 20
88.44595120226689
 30
0.0
 11
170.7673578322497
 21
88.44595120226689
 31
0.0
  0
ARC
  5
F92
330
1A
100
AcDbEntity
  8
NOKITOI
  6
PHANTOM
 62
     8
100
AcDbCircle
 10
170.7673784820904
 20
87.44596989011609
 30
0.0
 40
0.9999813123640345
100
AcDbArc
 50
90.00118317084911
 51
174.2905900333514
  0
LINE
  5
F93
330
1A
100
AcDbEntity
  8
NOKITOI
  6
PHANTOM
 62
     8
100
AcDbLine
 10
173.5808578322494
 20
95.51665120226687
 30
0.0
 11
173.2470578322496
 21
97.85285120226706
 31
0.0
  0
ARC
  5
F94
330
1A
100
AcDbEntity
  8
NOKITOI
  6
PHANTOM
 62
     8
100
AcDbCircle
 10
173.0858680186857
 20
95.44596294699102
 30
0.0
 40
0.5000117448278309
100
AcDbArc
 50
269.9988327478016
 51
8.127314608715551
  0
ARC
  5
F95
330
1A
100
AcDbEntity
  8
NOKITOI
  6
PHANTOM
 62
     8
100
AcDbCircle
 10
170.8367619536562
 20
95.44594729223637
 30
0.0
 40
0.4999960899864752
100
AcDbArc
 50
183.0147243791741
 51
269.9995277178593
  0
LINE
  5
F96
330
1A
100
AcDbEntity
  8
NOKITOI
  6
PHANTOM
 62
     8
100
AcDbLine
 10
170.8367578322495
 20
94.94595120226689
 30
0.0
 11
173.0858578322491
 21
94.94595120226689
 31
0.0
  0
ARC
  5
F97
330
1A
100
AcDbEntity
  8
NOKITOI
  6
PHANTOM
 62
     8
100
AcDbCircle
 10
173.7420872047492
 20
97.92358143476178
 30
0.0
 40
0.4999578477751074
100
AcDbArc
 50
83.5260907122076
 51
188.1330561712932
  0
LINE
  5
F98
330
1A
100
AcDbEntity
  8
NOKITOI
  6
PHANTOM
 62
     8
100
AcDbLine
 10
172.8853578322496
 20
99.64595120226693
 30
0.0
 11
173.3473578322496
 21
99.64595120226693
 31
0.0
  0
LINE
  5
F99
330
1A
100
AcDbEntity
  8
NOKITOI
  6
PHANTOM
 62
     8
100
AcDbLine
 10
171.8747578322496
 20
98.97435120226681
 30
0.0
 11
171.3197578322493
 21
99.58735120226686
 31
0.0
  0
LINE
  5
F9A
330
1A
100
AcDbEntity
  8
NOKITOI
  6
PHANTOM
 62
     8
100
AcDbLine
 10
171.5008578322495
 20
96.14595120226693
 30
0.0
 11
172.2787578322491
 21
96.14595120226693
 31
0.0
  0
LINE
  5
F9B
330
1A
100
AcDbEntity
  8
NOKITOI
  6
PHANTOM
 62
     8
100
AcDbLine
 10
171.5008578322495
 20
96.14595120226693
 30
0.0
 11
171.3197578322493
 21
99.58735120226686
 31
0.0
  0
LINE
  5
F9C
330
1A
100
AcDbEntity
  8
NOKITOI
  6
PHANTOM
 62
     8
100
AcDbLine
 10
172.2787578322491
 20
96.14595120226693
 30
0.0
 11
171.8747578322496
 21
98.97435120226681
 31
0.0
  0
ARC
  5
F9D
330
1A
100
AcDbEntity
  8
NOKITOI
  6
PHANTOM
 62
     8
100
AcDbCircle
 10
169.2288709032541
 20
89.14596303254677
 30
0.0
 40
0.499988169890889
100
AcDbArc
 50
90.00149786226634
 51
174.2966061377162
  0
LINE
  5
F9E
330
1A
100
AcDbEntity
  8
NOKITOI
  6
PHANTOM
 62
     8
100
AcDbLine
 10
177.2598578322495
 20
91.58335120226695
 30
0.0
 11
177.3453578322492
 21
94.32095120226689
 31
0.0
  0
ARC
  5
F9F
330
1A
100
AcDbEntity
  8
NOKITOI
  6
PHANTOM
 62
     8
100
AcDbCircle
 10
175.2607958200738
 20
91.64588802283914
 30
0.0
 40
2.000036820932882
100
AcDbArc
 50
269.9989117490344
 51
358.2110591274195
  0
ARC
  5
FA0
330
1A
100
AcDbEntity
  8
NOKITOI
  6
PHANTOM
 62
     8
100
AcDbCircle
 10
176.9084750454276
 20
89.94596788541469
 30
0.0
 40
1.500016683246579
100
AcDbArc
 50
269.9993425123344
 51
358.2076423244113
  0
ARC
  5
FA1
330
1A
100
AcDbEntity
  8
NOKITOI
  6
PHANTOM
 62
     8
100
AcDbCircle
 10
60.92587058309942
 20
102.4459643573533
 30
0.0
 40
1.999986844954076
100
AcDbArc
 50
90.00036528735451
 51
181.7883072882703
  0
ARC
  5
FA2
330
1A
100
AcDbEntity
  8
NOKITOI
  6
PHANTOM
 62
     8
100
AcDbCircle
 10
67.20375163109162
 20
101.4459577373521
 30
0.0
 40
0.4999934649531607
100
AcDbArc
 50
356.9955363203376
 51
89.99928939038076
  0
LINE
  5
FA3
330
1A
100
AcDbEntity
  8
NOKITOI
  6
PHANTOM
 62
     8
100
AcDbLine
 10
67.20375783224932
 20
101.9459512022668
 30
0.0
 11
64.97225783224945
 21
101.9459512022668
 31
0.0
  0
LINE
  5
FA4
330
1A
100
AcDbEntity
  8
NOKITOI
  6
PHANTOM
 62
     8
100
AcDbLine
 10
64.48195783224952
 20
102.5440512022668
 30
0.0
 11
64.74275783224953
 21
103.8479512022669
 31
0.0
  0
LINE
  5
FA5
330
1A
100
AcDbEntity
  8
NOKITOI
  6
PHANTOM
 62
     8
100
AcDbLine
 10
60.92585783224928
 20
103.245951202267
 30
0.0
 11
63.39865783224974
 21
103.245951202267
 31
0.0
  0
ARC
  5
FA6
330
1A
100
AcDbEntity
  8
NOKITOI
  6
PHANTOM
 62
     8
100
AcDbCircle
 10
64.97225057769407
 20
102.4459600521103
 30
0.0
 40
0.5000088498959383
100
AcDbArc
 50
168.6864043304889
 51
270.0008312961442
  0
LINE
  5
FA7
330
1A
100
AcDbEntity
  8
NOKITOI
  6
PHANTOM
 62
     8
100
AcDbLine
 10
60.92585783224928
 20
104.4459512022668
 30
0.0
 11
64.2524578322496
 21
104.4459512022668
 31
0.0
  0
ARC
  5
FA8
330
1A
100
AcDbEntity
  8
NOKITOI
  6
PHANTOM
 62
     8
100
AcDbCircle
 10
64.25245704924106
 20
103.9459521572686
 30
0.0
 40
0.4999990449987349
100
AcDbArc
 50
348.6967198015447
 51
89.99991027369492
  0
LINE
  5
FA9
330
1A
100
AcDbEntity
  8
NOKITOI
  6
PHANTOM
 62
     8
100
AcDbLine
 10
62.89865783224974
 20
100.745951202267
 30
0.0
 11
65.83515783224953
 21
100.745951202267
 31
0.0
  0
LINE
  5
FAA
330
1A
100
AcDbEntity
  8
NOKITOI
  6
PHANTOM
 62
     8
100
AcDbLine
 10
63.39865783224974
 20
103.245951202267
 30
0.0
 11
62.89865783224974
 21
100.745951202267
 31
0.0
  0
ARC
  5
FAB
330
1A
100
AcDbEntity
  8
NOKITOI
  6
PHANTOM
 62
     8
100
AcDbCircle
 10
60.92586232704758
 20
102.4459558397937
 30
0.0
 40
0.7999953624857498
100
AcDbArc
 50
90.00032191805264
 51
181.7911273464193
  0
LINE
  5
FAC
330
1A
100
AcDbEntity
  8
NOKITOI
  6
PHANTOM
 62
     8
100
AcDbLine
 10
174.8261578322495
 20
100.745951202267
 30
0.0
 11
171.8895578322495
 21
100.745951202267
 31
0.0
  0
LINE
  5
FAD
330
1A
100
AcDbEntity
  8
NOKITOI
  6
PHANTOM
 62
     8
100
AcDbLine
 10
176.7988578322497
 20
104.4458512022669
 30
0.0
 11
173.4722578322494
 21
104.4459512022668
 31
0.0
  0
LINE
  5
FAE
330
1A
100
AcDbEntity
  8
NOKITOI
  6
PHANTOM
 62
     8
100
AcDbLine
 10
173.2427578322495
 20
102.543951202267
 30
0.0
 11
172.9819578322495
 21
103.8479512022669
 31
0.0
  0
ARC
  5
FAF
330
1A
100
AcDbEntity
  8
NOKITOI
  6
PHANTOM
 62
     8
100
AcDbCircle
 10
172.752457049241
 20
102.4459502472651
 30
0.0
 40
0.4999990449987399
100
AcDbArc
 50
270.000089726305
 51
11.30328019845521
  0
ARC
  5
FB0
330
1A
100
AcDbEntity
  8
NOKITOI
  6
PHANTOM
 62
     8
100
AcDbCircle
 10
173.472250577694
 20
103.9459423524234
 30
0.0
 40
0.500008849895925
100
AcDbArc
 50
89.99916870385415
 51
191.3135956695126
  0
ARC
  5
FB1
330
1A
100
AcDbEntity
  8
NOKITOI
  6
PHANTOM
 62
     8
100
AcDbCircle
 10
170.5209615417448
 20
101.4459551122976
 30
0.0
 40
0.4999960899831856
100
AcDbArc
 50
90.00042508015082
 51
183.0156217414647
  0
LINE
  5
FB2
330
1A
100
AcDbEntity
  8
NOKITOI
  6
PHANTOM
 62
     8
100
AcDbLine
 10
170.5209578322497
 20
101.9459512022668
 30
0.0
 11
172.7524578322496
 21
101.9459512022668
 31
0.0
  0
ARC
  5
FB3
330
1A
100
AcDbEntity
  8
NOKITOI
  6
PHANTOM
 62
     8
100
AcDbCircle
 10
176.7988465952553
 20
102.445962796084
 30
0.0
 40
1.999988406214315
100
AcDbArc
 50
358.2088726535936
 51
89.99967808195551
  0
ARC
  5
FB4
330
1A
100
AcDbEntity
  8
NOKITOI
  6
PHANTOM
 62
     8
100
AcDbCircle
 10
176.7989017986024
 20
102.4459058397939
 30
0.0
 40
0.7999453636812564
100
AcDbArc
 50
358.2123436447881
 51
90.00314907315425
  0
LINE
  5
FB5
330
1A
100
AcDbEntity
  8
NOKITOI
  6
PHANTOM
 62
     8
100
AcDbLine
 10
174.3261578322495
 20
103.245951202267
 30
0.0
 11
174.8261578322495
 21
100.745951202267
 31
0.0
  0
LINE
  5
FB6
330
1A
100
AcDbEntity
  8
NOKITOI
  6
PHANTOM
 62
     8
100
AcDbLine
 10
176.7988578322497
 20
103.2458512022668
 30
0.0
 11
174.3261578322495
 21
103.245951202267
 31
0.0
  0
DIMENSION
  5
1057
330
1A
100
AcDbEntity
  8
SUNPOU
100
AcDbDimension
  2
*D1
 10
35.07439519068202
 20
200.1238296605791
 30
0.0
 11
32.57439519068199
 21
211.1238296805791
 31
0.0
 70
    32
  3
STANDARD
100
AcDbAlignedDimension
 13
60.95965783733155
 23
222.1238297005792
 33
0.0
 14
60.95965783733155
 24
200.1238296605791
 34
0.0
 50
90.0
100
AcDbRotatedDimension
1001
ACAD
1000
DSTYLE
1002
{
1070
    41
1040
3.0
1070
    42
1040
3.0
1070
    43
1040
7.0
1070
    44
1040
1.5
1070
    73
1070
     0
1070
    74
1070
     0
1070
    77
1070
     3
1070
   140
1040
3.0
1070
   141
1040
3.0
1070
   147
1040
1.0
1070
   172
1070
     1
1070
   173
1070
     1
1070
   176
1070
   256
1070
   177
1070
   256
1070
   178
1070
   256
1070
   271
1070
     0
1070
   272
1070
     0
1070
   341
1005
B2
1070
     6
1000
OPEN
1070
     7
1000
OPEN
1002
}
  0
TEXT
  5
39C2
330
1A
100
AcDbEntity
  8
SUNPOU
100
AcDbText
 10
227.879543598582
 20
173.3960388000542
 30
0.0
 40
3.0
  1
（スライド幅）
100
AcDbText
  0
DIMENSION
  5
39C3
330
1A
100
AcDbEntity
  8
SUNPOU
100
AcDbDimension
  2
*D2
 10
249.9776771576982
 20
109.075663468557
 30
0.0
 11
240.586191652199
 21
133.4488044233047
 31
0.0
 70
    33
  3
STANDARD
100
AcDbAlignedDimension
 13
210.6710795413336
 23
147.5601320753692
 33
0.0
 14
233.9261865073315
 24
101.0499181433736
 34
0.0
1001
ACAD
1000
DSTYLE
1002
{
1070
    41
1040
3.0
1070
    42
1040
3.0
1070
    43
1040
7.0
1070
    44
1040
1.5
1070
    73
1070
     0
1070
    74
1070
     0
1070
    77
1070
     3
1070
   140
1040
3.0
1070
   141
1040
3.0
1070
   147
1040
1.0
1070
   172
1070
     1
1070
   173
1070
     1
1070
   176
1070
   256
1070
   177
1070
   256
1070
   178
1070
   256
1070
   271
1070
     0
1070
   272
1070
     0
1070
   341
1005
B2
1070
     6
1000
OPEN
1070
     7
1000
OPEN
1002
}
  0
DIMENSION
  5
39C4
330
1A
100
AcDbEntity
  8
SUNPOU
100
AcDbDimension
  2
*D3
 10
250.85581569377
 20
184.6238296805791
 30
0.0
 11
248.35581569377
 21
211.1238296805792
 31
0.0
 70
    32
  3
STANDARD
100
AcDbAlignedDimension
 13
233.0317593162479
 23
237.6238296805792
 33
0.0
 14
233.0317593162479
 24
184.6238296805791
 34
0.0
 50
90.0
100
AcDbRotatedDimension
1001
ACAD
1000
DSTYLE
1002
{
1070
    41
1040
3.0
1070
    42
1040
3.0
1070
    43
1040
7.0
1070
    44
1040
1.5
1070
    73
1070
     0
1070
    74
1070
     0
1070
    77
1070
     3
1070
   140
1040
3.0
1070
   141
1040
3.0
1070
   147
1040
1.0
1070
   172
1070
     1
1070
   173
1070
     1
1070
   176
1070
   256
1070
   177
1070
   256
1070
   178
1070
   256
1070
   271
1070
     0
1070
   272
1070
     0
1070
   341
1005
B2
1070
     6
1000
OPEN
1070
     7
1000
OPEN
1002
}
  0
LINE
  5
39C5
330
1A
100
AcDbEntity
  8
CENTER_L
100
AcDbLine
 10
224.117846672498
 20
102.3308403928496
 30
0.0
 11
237.7131399781552
 21
109.128487043303
 31
0.0
  0
DIMENSION
  5
39C6
330
1A
100
AcDbEntity
  8
SUNPOU
100
AcDbDimension
  2
*D4
 10
248.2993066051284
 20
166.9192985196875
 30
0.0
 11
230.7993066051283
 21
169.4192985196875
 31
0.0
 70
    32
  3
STANDARD
100
AcDbAlignedDimension
 13
213.2993066051283
 23
142.3036779412721
 33
0.0
 14
248.2993066051284
 24
142.3036779412721
 34
0.0
100
AcDbRotatedDimension
1001
ACAD
1000
DSTYLE
1002
{
1070
    41
1040
3.0
1070
    42
1040
3.0
1070
    43
1040
7.0
1070
    44
1040
1.5
1070
    73
1070
     0
1070
    74
1070
     0
1070
    77
1070
     3
1070
   140
1040
3.0
1070
   141
1040
3.0
1070
   147
1040
1.0
1070
   172
1070
     1
1070
   173
1070
     1
1070
   176
1070
   256
1070
   177
1070
   256
1070
   178
1070
   256
1070
   271
1070
     0
1070
   272
1070
     0
1070
   341
1005
B2
1070
     6
1000
OPEN
1070
     7
1000
OPEN
1002
}
  0
LINE
  5
3A92
330
1A
100
AcDbEntity
  8
SEIHIN
100
AcDbLine
 10
226.5918835028742
 20
106.3270386422334
 30
0.0
 11
230.6168058631398
 21
104.9853978540349
 31
0.0
  0
LINE
  5
3A93
330
1A
100
AcDbEntity
  8
SEIHIN
100
AcDbLine
 10
227.9335242902734
 20
110.351961000101
 30
0.0
 11
226.5918835028742
 21
106.3270386422334
 31
0.0
  0
LINE
  5
3A94
330
1A
100
AcDbEntity
  8
SEIHIN
100
AcDbLine
 10
226.5918835028742
 20
106.3270386422334
 30
0.0
 11
229.2751650767066
 21
107.668679427068
 31
0.0
  0
LINE
  5
3A9E
330
1A
100
AcDbEntity
  8
SEIHIN
100
AcDbLine
 10
217.6476115963186
 20
124.2155824564556
 30
0.0
 11
221.6725339565843
 21
122.8739416682571
 31
0.0
  0
LINE
  5
3A9F
330
1A
100
AcDbEntity
  8
CENTER_L
100
AcDbLine
 10
212.9375067810536
 20
124.6915201771273
 30
0.0
 11
226.5328000844885
 21
131.4891668264696
 31
0.0
  0
LINE
  5
3AA0
330
1A
100
AcDbEntity
  8
CENTER_L
100
AcDbLine
 10
216.738822343571
 20
117.0888890516203
 30
0.0
 11
230.3341156477614
 21
123.8865357013405
 31
0.0
  0
LINE
  5
3AA1
330
1A
100
AcDbEntity
  8
SEIHIN
100
AcDbLine
 10
218.9892523837178
 20
128.2405048143233
 30
0.0
 11
217.6476115963186
 21
124.2155824564556
 31
0.0
  0
LINE
  5
3AA2
330
1A
100
AcDbEntity
  8
SEIHIN
100
AcDbLine
 10
217.6476115963186
 20
124.2155824564556
 30
0.0
 11
220.3308931701511
 21
125.5572232412902
 31
0.0
  0
ELLIPSE
  5
3AA5
330
1A
100
AcDbEntity
  8
SEIHIN
100
AcDbEllipse
 10
233.0317593162479
 20
235.6238296805792
 30
0.0
 11
0.0000000000000207
 21
2.0
 31
0.0
210
0.0
220
0.0
230
1.0
 40
0.4472135955417542
 41
-1.570796326794891
 42
0.0000000000000233
  0
ELLIPSE
  5
3AA6
330
1A
100
AcDbEntity
  8
SEIHIN
100
AcDbEllipse
 10
233.0317593162479
 20
186.6238296805791
 30
0.0
 11
-0.0000000000000207
 21
2.0
 31
0.0
210
0.0
220
0.0
230
-1.0
 40
0.4472135955417542
 41
1.5707963267949
 42
3.141592653589816
  0
ELLIPSE
  5
3AA7
330
1A
100
AcDbEntity
  8
SEIHIN
100
AcDbEllipse
 10
220.2718097470515
 20
232.1238296805792
 30
0.0
 11
0.0000000000000584
 21
2.100000000067211
 31
0.0
210
0.0
220
0.0
230
-1.0
 40
0.4867014234079722
 41
3.141592653589749
 42
6.283185307179543
  0
ELLIPSE
  5
3AA8
330
1A
100
AcDbEntity
  8
SEIHIN
100
AcDbEllipse
 10
220.2718097470515
 20
232.1238296805792
 30
0.0
 11
0.0
 21
-2.100000000067211
 31
0.0
210
0.0
220
0.0
230
-1.0
 40
0.4867014234079722
 41
3.141592653589807
 42
6.283185307179601
  0
ELLIPSE
  5
3AA9
330
1A
100
AcDbEntity
  8
SEIHIN
100
AcDbEllipse
 10
220.2718097470515
 20
232.1238296805792
 30
0.0
 11
0.0
 21
-2.1000000000672
 31
0.0
210
0.0
220
0.0
230
-1.0
 40
0.4867014234079679
 41
-1.570796326794896
 42
4.712388980384689
  0
ELLIPSE
  5
3AAA
330
1A
100
AcDbEntity
  8
SEIHIN
100
AcDbEllipse
 10
224.0731253103244
 20
230.6238296805791
 30
0.0
 11
0.0
 21
-2.874999999613672
 31
0.0
210
0.0
220
0.0
230
-1.0
 40
0.3913043478762229
 41
-1.570796326794896
 42
4.712388980384689
  0
ELLIPSE
  5
3AAB
330
1A
100
AcDbEntity
  8
SEIHIN
100
AcDbEllipse
 10
227.6276262680315
 20
211.1238296805792
 30
0.0
 11
0.0
 21
-2.8559114857152
 31
0.0
210
0.0
220
0.0
230
-1.0
 40
0.4680467910551545
 41
-1.570796326794896
 42
4.712388980384689
  0
ELLIPSE
  5
3AAC
330
1A
100
AcDbEntity
  8
SEIHIN
100
AcDbEllipse
 10
218.7209242604648
 20
235.6238296805792
 30
0.0
 11
0.0000000000000022
 21
2.0
 31
0.0
210
0.0
220
0.0
230
1.0
 40
0.4472135955666233
 41
-0.0000000013028634
 42
1.570796326794896
  0
ELLIPSE
  5
3AAD
330
1A
100
AcDbEntity
  8
SEIHIN
100
AcDbEllipse
 10
217.6476116304647
 20
235.6238296805792
 30
0.0
 11
0.0000000000000022
 21
2.0
 31
0.0
210
0.0
220
0.0
230
1.0
 40
0.4472135955666233
 41
-0.0000000013028634
 42
1.570796326794896
  0
ELLIPSE
  5
3AAE
330
1A
100
AcDbEntity
  8
SEIHIN
100
AcDbEllipse
 10
224.0731253103244
 20
191.6238296805792
 30
0.0
 11
0.0
 21
2.874999999613672
 31
0.0
210
0.0
220
0.0
230
1.0
 40
0.3913043478762229
 41
-1.570796326794896
 42
4.712388980384689
  0
ELLIPSE
  5
3AAF
330
1A
100
AcDbEntity
  8
SEIHIN
100
AcDbEllipse
 10
220.2718097470515
 20
190.1238296805792
 30
0.0
 11
0.0000000000000584
 21
-2.100000000067211
 31
0.0
210
0.0
220
0.0
230
1.0
 40
0.4867014234079722
 41
3.14159265358975
 42
6.283185307179543
  0
ELLIPSE
  5
3AB0
330
1A
100
AcDbEntity
  8
SEIHIN
100
AcDbEllipse
 10
220.2718097470515
 20
190.1238296805792
 30
0.0
 11
0.0
 21
2.100000000067211
 31
0.0
210
0.0
220
0.0
230
1.0
 40
0.4867014234079722
 41
3.141592653589807
 42
6.2831853071796
  0
ELLIPSE
  5
3AB1
330
1A
100
AcDbEntity
  8
SEIHIN
100
AcDbEllipse
 10
220.2718097470515
 20
190.1238296805792
 30
0.0
 11
0.0
 21
2.1000000000672
 31
0.0
210
0.0
220
0.0
230
1.0
 40
0.4867014234079679
 41
-1.570796326794896
 42
4.712388980384689
  0
ELLIPSE
  5
3AB2
330
1A
100
AcDbEntity
  8
SEIHIN
100
AcDbEllipse
 10
217.6476116304647
 20
186.6238296805791
 30
0.0
 11
-0.0000000000000022
 21
2.0
 31
0.0
210
0.0
220
0.0
230
-1.0
 40
0.4472135955666233
 41
3.141592652286928
 42
4.71238898038469
  0
ELLIPSE
  5
3AB3
330
1A
100
AcDbEntity
  8
SEIHIN
100
AcDbEllipse
 10
218.7209242604648
 20
186.6238296805791
 30
0.0
 11
-0.0000000000000022
 21
2.0
 31
0.0
210
0.0
220
0.0
230
-1.0
 40
0.4472135955666233
 41
3.141592652286928
 42
4.71238898038469
  0
SPLINE
  5
3AB4
330
1A
100
AcDbEntity
  8
SEIHIN
100
AcDbSpline
210
0.0
220
0.0
230
1.0
 70
     8
 71
     3
 72
    43
 73
    39
 74
     0
 42
0.0000000001
 43
0.0000000001
 40
2.573801282421739
 40
2.573801282421739
 40
2.573801282421739
 40
2.573801282421739
 40
2.743484381278567
 40
2.743484381278567
 40
2.952958003969503
 40
2.952958003969503
 40
3.162431626660439
 40
3.162431626660439
 40
3.371905249351375
 40
3.371905249351375
 40
3.581378872042312
 40
3.581378872042312
 40
3.790852494733248
 40
3.790852494733248
 40
4.212890898554042
 40
4.212890898554042
 40
4.634929302374836
 40
4.634929302374836
 40
4.712388980384689
 40
4.712388980384689
 40
4.712388980384689
 40
5.035006403854932
 40
5.035006403854932
 40
5.40458618261824
 40
5.40458618261824
 40
5.774165961381548
 40
5.774165961381548
 40
6.00394318856648
 40
6.00394318856648
 40
6.233720415751411
 40
6.233720415751411
 40
6.426033209648384
 40
6.426033209648384
 40
6.618346003545356
 40
6.618346003545356
 40
6.810658797442329
 40
6.810658797442329
 40
6.85074050005261
 40
6.85074050005261
 40
6.85074050005261
 40
6.85074050005261
 10
226.1021659800811
 20
214.1238296905792
 30
0.0
 10
226.2011168143479
 20
214.2587332985558
 30
0.0
 10
226.3128281946941
 20
214.3850117194393
 30
0.0
 10
226.5993409924973
 20
214.642458817569
 30
0.0
 10
226.7848761934341
 20
214.7675625110599
 30
0.0
 10
227.2137302027636
 20
214.9424811320974
 30
0.0
 10
227.4578463210146
 20
214.9889125959502
 30
0.0
 10
227.9420843651026
 20
214.9673496139452
 30
0.0
 10
228.1773160770476
 20
214.900287423937
 30
0.0
 10
228.5840267808449
 20
214.6965412828023
 30
0.0
 10
228.7573226531531
 20
214.562371212294
 30
0.0
 10
229.0540538193996
 20
214.2640724733488
 30
0.0
 10
229.1786326527617
 20
214.099221042516
 30
0.0
 10
229.5052590024156
 20
213.5695271344435
 30
0.0
 10
229.6599929732586
 20
213.1696197211581
 30
0.0
 10
229.8798345824867
 20
212.3088128934947
 30
0.0
 10
229.9427061277529
 20
211.8478037268297
 30
0.0
 10
229.962770702849
 20
211.2954780918688
 30
0.0
 10
229.9643264744581
 20
211.2096539265248
 30
0.0
 10
229.9643264744581
 20
211.1238296805792
 30
0.0
 10
229.9643264744581
 20
210.7663740622544
 30
0.0
 10
229.9373627254048
 20
210.4090191208296
 30
0.0
 10
229.8214617426959
 20
209.6682794110294
 30
0.0
 10
229.7246424245252
 20
209.2890375592527
 30
0.0
 10
229.4532665998621
 20
208.5896657531988
 30
0.0
 10
229.2806201328742
 20
208.2680477316877
 30
0.0
 10
228.8988807019217
 20
207.8128837011167
 30
0.0
 10
228.7266607877038
 20
207.653391781704
 30
0.0
 10
228.3102242975018
 20
207.398275232666
 30
0.0
 10
228.0624869856147
 20
207.3048378467801
 30
0.0
 10
227.5782941403638
 20
207.2536248057216
 30
0.0
 10
227.3505063941049
 20
207.2775375916096
 30
0.0
 10
226.9366795622669
 20
207.4047037026339
 30
0.0
 10
226.7511755808186
 20
207.5053594345051
 30
0.0
 10
226.4307458573027
 20
207.7438101408342
 30
0.0
 10
226.2943660769471
 20
207.8814928394343
 30
0.0
 10
226.1504240353661
 20
208.0606422212841
 30
0.0
 10
226.1263107840079
 20
208.0920092935651
 30
0.0
 10
226.1028796654906
 20
208.1238296905791
 30
0.0
  0
ELLIPSE
  5
3AB5
330
1A
100
AcDbEntity
  8
SEIHIN
100
AcDbEllipse
 10
231.4521496407181
 20
232.1238296805792
 30
0.0
 11
0.0
 21
-2.1000000000672
 31
0.0
210
0.0
220
0.0
230
-1.0
 40
0.4867014234079679
 41
-1.570796326794896
 42
4.712388980384689
  0
ELLIPSE
  5
3AB6
330
1A
100
AcDbEntity
  8
SEIHIN
100
AcDbEllipse
 10
231.4521496407181
 20
190.1238296805792
 30
0.0
 11
0.0
 21
2.1000000000672
 31
0.0
210
0.0
220
0.0
230
1.0
 40
0.4867014234079679
 41
-1.570796326794896
 42
4.712388980384689
  0
LINE
  5
3AC1
330
1A
100
AcDbEntity
  8
SEIHIN
100
AcDbLine
 10
233.9261865073315
 20
220.9468816005792
 30
0.0
 11
233.9261865073315
 21
235.6238296805792
 31
0.0
  0
ARC
  5
3AC2
330
1A
100
AcDbEntity
  8
SEIHIN
100
AcDbCircle
 10
226.7107765703181
 20
232.1238296805792
 30
0.0
 40
5.185616510378905
100
AcDbArc
 50
336.1109838283917
 51
23.88901617160823
  0
ARC
  5
3AC3
330
1A
100
AcDbEntity
  8
SEIHIN
100
AcDbCircle
 10
215.5304366760515
 20
232.1238296805792
 30
0.0
 40
5.185616510927503
100
AcDbArc
 50
336.1109838310729
 51
23.88901616892705
  0
LINE
  5
3AC4
330
1A
100
AcDbEntity
  8
SEIHIN
100
AcDbLine
 10
216.7531844393314
 20
235.6238296805792
 30
0.0
 11
216.7531844393315
 21
220.3251695005791
 31
0.0
  0
LINE
  5
3AC5
330
1A
100
AcDbEntity
  8
SEIHIN
100
AcDbLine
 10
217.8264970693315
 20
220.9468812705791
 30
0.0
 11
217.8264970693315
 21
235.6238296805792
 31
0.0
  0
LINE
  5
3B07
330
1A
100
AcDbEntity
  8
SEIHIN
100
AcDbLine
 10
233.9261865073315
 20
201.3007777605792
 30
0.0
 11
233.9261865073315
 21
186.6238296805791
 31
0.0
  0
LINE
  5
3B08
330
1A
100
AcDbEntity
  8
SEIHIN
100
AcDbLine
 10
217.8264970693315
 20
201.3007780905792
 30
0.0
 11
217.8264970693315
 21
186.6238296805791
 31
0.0
  0
LINE
  5
3B09
330
1A
100
AcDbEntity
  8
SEIHIN
100
AcDbLine
 10
216.7531844393314
 20
186.6238296805791
 30
0.0
 11
216.7531844393315
 21
201.9224898605792
 31
0.0
  0
LINE
  5
3B0A
330
1A
100
AcDbEntity
  8
SEIHIN
100
AcDbLine
 10
233.0317593162479
 20
184.6238296805791
 30
0.0
 11
217.6476116304647
 21
184.6238296805791
 31
0.0
  0
ARC
  5
3B0B
330
1A
100
AcDbEntity
  8
SEIHIN
100
AcDbCircle
 10
201.9248219652784
 20
211.1238296605792
 30
0.0
 40
3.25
100
AcDbArc
 50
112.6198649480423
 51
247.3801350519576
  0
LINE
  5
3B0C
330
1A
100
AcDbEntity
  8
SEIHIN
100
AcDbLine
 10
196.4541677129379
 20
204.6238296605791
 30
0.0
 11
196.4541677129379
 21
203.6238296605792
 31
0.0
  0
LINE
  5
3B0D
330
1A
100
AcDbEntity
  8
SEIHIN
100
AcDbLine
 10
200.6748219652783
 20
208.1238296605791
 30
0.0
 11
200.6748219652783
 21
204.6238296605792
 31
0.0
  0
LINE
  5
3B0E
330
1A
100
AcDbEntity
  8
SEIHIN
100
AcDbLine
 10
196.4541677129379
 20
218.6238297005792
 30
0.0
 11
196.4541677129379
 21
217.6238297005792
 31
0.0
  0
LINE
  5
3B0F
330
1A
100
AcDbEntity
  8
SEIHIN
100
AcDbLine
 10
200.6748219652783
 20
217.6238297005792
 30
0.0
 11
200.6748219652783
 21
214.1238296605791
 31
0.0
  0
ARC
  5
3B10
330
1A
100
AcDbEntity
  8
SEIHIN
100
AcDbCircle
 10
210.103313691863
 20
211.1238296605791
 30
0.0
 40
3.25
100
AcDbArc
 50
292.6198649480456
 51
67.38013505196104
  0
LINE
  5
3B11
330
1A
100
AcDbEntity
  8
SEIHIN
100
AcDbLine
 10
231.8985194573315
 20
217.6238296805792
 30
0.0
 11
231.8985194573315
 21
204.6238296805792
 31
0.0
  0
LINE
  5
3B12
330
1A
100
AcDbEntity
  8
CENTER_L
100
AcDbLine
 10
216.9339779639749
 20
190.1238296905792
 30
0.0
 11
224.9785794046977
 21
190.1238296905792
 31
0.0
  0
LINE
  5
3B13
330
1A
100
AcDbEntity
  8
CENTER_L
100
AcDbLine
 10
219.8019396087825
 20
191.6488296705792
 30
0.0
 11
228.0524040955383
 21
191.6488296705792
 31
0.0
  0
LINE
  5
3B14
330
1A
100
AcDbEntity
  8
SEIHIN
100
AcDbLine
 10
219.3718611363315
 20
202.4048397805791
 30
0.0
 11
221.8857733673315
 21
202.4048397805791
 31
0.0
  0
ARC
  5
3B15
330
1A
100
AcDbEntity
  8
SEIHIN
100
AcDbCircle
 10
215.5304366760515
 20
190.1238296805792
 30
0.0
 40
5.185616510927503
100
AcDbArc
 50
336.1109838310729
 51
23.88901616892705
  0
LINE
  5
3B16
330
1A
100
AcDbEntity
  8
SEIHIN
100
AcDbLine
 10
211.3533136918629
 20
208.1238296905792
 30
0.0
 11
211.3533136918629
 21
204.6238296705792
 31
0.0
  0
LINE
  5
3B17
330
1A
100
AcDbEntity
  8
SEIHIN
100
AcDbLine
 10
213.7888195407847
 20
204.6238296605791
 30
0.0
 11
213.7888195407847
 21
203.6238296605792
 31
0.0
  0
ARC
  5
3B18
330
1A
100
AcDbEntity
  8
SEIHIN
100
AcDbCircle
 10
216.1264970664968
 20
201.3007780905792
 30
0.0
 40
1.700000002834682
100
AcDbArc
 50
0.0
 51
80.99999985768855
  0
LINE
  5
3B19
330
1A
100
AcDbEntity
  8
SEIHIN
100
AcDbLine
 10
216.3924356614968
 20
202.9798482705792
 30
0.0
 11
215.7484542564968
 21
203.6238296805791
 31
0.0
  0
ARC
  5
3B1A
330
1A
100
AcDbEntity
  8
SEIHIN
100
AcDbCircle
 10
216.2531844377628
 20
201.9224898605792
 30
0.0
 40
0.5000000015686251
100
AcDbArc
 50
0.0
 51
86.20816424113447
  0
ARC
  5
3B1B
330
1A
100
AcDbEntity
  8
SEIHIN
100
AcDbCircle
 10
216.3986741977629
 20
204.1176738505792
 30
0.0
 40
1.699999999832981
100
AcDbArc
 50
196.8876873722945
 51
266.2081650705318
  0
LINE
  5
3B1C
330
1A
100
AcDbEntity
  8
CENTER_L
100
AcDbLine
 10
226.9034989354898
 20
190.1238296905792
 30
0.0
 11
234.9481003762125
 21
190.1238296905792
 31
0.0
  0
ARC
  5
3B1D
330
1A
100
AcDbEntity
  8
SEIHIN
100
AcDbCircle
 10
216.7936482413244
 20
191.6238296805792
 30
0.0
 40
7.826647519730068
100
AcDbArc
 50
338.4486589039121
 51
21.55134109608789
  0
ARC
  5
3B1E
330
1A
100
AcDbEntity
  8
SEIHIN
100
AcDbCircle
 10
226.7107765703181
 20
190.1238296805792
 30
0.0
 40
5.185616510378905
100
AcDbArc
 50
336.1109838283917
 51
23.88901617160823
  0
LINE
  5
3B1F
330
1A
100
AcDbEntity
  8
SEIHIN
100
AcDbLine
 10
229.2759653353315
 20
200.6238296805792
 30
0.0
 11
230.6653670443314
 21
200.6238296805792
 31
0.0
  0
LINE
  5
3B20
330
1A
100
AcDbEntity
  8
SEIHIN
100
AcDbLine
 10
230.6653670443314
 20
200.6238296805792
 30
0.0
 11
229.2759653353315
 21
202.6950244905791
 31
0.0
  0
LINE
  5
3B21
330
1A
100
AcDbEntity
  8
SEIHIN
100
AcDbLine
 10
224.6842794363315
 20
202.4048397805791
 30
0.0
 11
228.5262962433315
 21
202.4048397805791
 31
0.0
  0
LINE
  5
3B22
330
1A
100
AcDbEntity
  8
SEIHIN
100
AcDbLine
 10
222.6011857943315
 20
200.6238296805792
 30
0.0
 11
223.9905875033314
 21
200.6238296805792
 31
0.0
  0
LINE
  5
3B23
330
1A
100
AcDbEntity
  8
SEIHIN
100
AcDbLine
 10
223.9905875033314
 20
200.6238296805792
 30
0.0
 11
222.6011857943315
 21
202.6950244905791
 31
0.0
  0
LINE
  5
3B24
330
1A
100
AcDbEntity
  8
SEIHIN
100
AcDbLine
 10
222.6011857943315
 20
200.6238296805792
 30
0.0
 11
222.6011857943315
 21
203.6238296805791
 31
0.0
  0
LINE
  5
3B25
330
1A
100
AcDbEntity
  8
SEIHIN
100
AcDbLine
 10
223.9905875033314
 20
203.6238296805791
 30
0.0
 11
223.9905875033314
 21
200.6238296805792
 31
0.0
  0
LINE
  5
3B26
330
1A
100
AcDbEntity
  8
SEIHIN
100
AcDbLine
 10
229.2759653353315
 20
200.6238296805792
 30
0.0
 11
229.2759653353315
 21
203.6238296805791
 31
0.0
  0
LINE
  5
3B27
330
1A
100
AcDbEntity
  8
SEIHIN
100
AcDbLine
 10
231.8985194573315
 20
203.6238296805791
 30
0.0
 11
231.8985194573315
 21
204.6238296805792
 31
0.0
  0
ARC
  5
3B28
330
1A
100
AcDbEntity
  8
SEIHIN
100
AcDbCircle
 10
232.2261865073314
 20
201.3007781005792
 30
0.0
 40
1.700000000521832
100
AcDbArc
 50
359.9999868556723
 51
80.99999999084433
  0
LINE
  5
3B29
330
1A
100
AcDbEntity
  8
SEIHIN
100
AcDbLine
 10
230.6653670443314
 20
203.6238296805791
 30
0.0
 11
230.6653670443314
 21
200.6238296805792
 31
0.0
  0
LINE
  5
3B2A
330
1A
100
AcDbEntity
  8
SEIHIN
100
AcDbLine
 10
231.4196669253315
 20
202.4048397805791
 30
0.0
 11
232.8426361123315
 21
202.4048397805791
 31
0.0
  0
LINE
  5
3B2B
330
1A
100
AcDbEntity
  8
SEIHIN
100
AcDbLine
 10
232.4921250983315
 20
202.9798482805791
 30
0.0
 11
231.8481436903315
 21
203.6238296805791
 31
0.0
  0
LINE
  5
3B2C
330
1A
100
AcDbEntity
  8
CENTER_L
100
AcDbLine
 10
216.9339779639749
 20
232.1238296705792
 30
0.0
 11
224.9785794046977
 21
232.1238296705792
 31
0.0
  0
LINE
  5
3B2D
330
1A
100
AcDbEntity
  8
CENTER_L
100
AcDbLine
 10
219.8019396087825
 20
230.5988296905791
 30
0.0
 11
228.0524040955383
 21
230.5988296905791
 31
0.0
  0
LINE
  5
3B2E
330
1A
100
AcDbEntity
  8
SEIHIN
100
AcDbLine
 10
219.3718611363315
 20
219.8428195905792
 30
0.0
 11
221.8857733673315
 21
219.8428195905792
 31
0.0
  0
LINE
  5
3B2F
330
1A
100
AcDbEntity
  8
SEIHIN
100
AcDbLine
 10
211.3533136918629
 20
214.1238296905792
 30
0.0
 11
211.3533136918629
 21
217.6238296905792
 31
0.0
  0
ARC
  5
3B30
330
1A
100
AcDbEntity
  8
SEIHIN
100
AcDbCircle
 10
216.1264970664968
 20
220.9468812705791
 30
0.0
 40
1.700000002834682
100
AcDbArc
 50
279.0000001423114
 51
0.0
  0
LINE
  5
3B31
330
1A
100
AcDbEntity
  8
SEIHIN
100
AcDbLine
 10
213.7888195407847
 20
218.6238297005792
 30
0.0
 11
213.7888195407847
 21
217.6238297005792
 31
0.0
  0
ARC
  5
3B32
330
1A
100
AcDbEntity
  8
SEIHIN
100
AcDbCircle
 10
216.2531844377628
 20
220.3251695005791
 30
0.0
 40
0.5000000015686251
100
AcDbArc
 50
273.7918357588654
 51
0.0
  0
LINE
  5
3B33
330
1A
100
AcDbEntity
  8
SEIHIN
100
AcDbLine
 10
216.3924356614968
 20
219.2678110905792
 30
0.0
 11
215.7484542564968
 21
218.6238296805792
 31
0.0
  0
ARC
  5
3B34
330
1A
100
AcDbEntity
  8
SEIHIN
100
AcDbCircle
 10
216.3986741977629
 20
218.1299855105792
 30
0.0
 40
1.699999999832981
100
AcDbArc
 50
93.79183492946813
 51
163.1123126277054
  0
LINE
  5
3B35
330
1A
100
AcDbEntity
  8
SEIHIN
100
AcDbLine
 10
230.6653670443314
 20
221.6238296805792
 30
0.0
 11
229.2759653353315
 21
219.5526348705791
 31
0.0
  0
LINE
  5
3B36
330
1A
100
AcDbEntity
  8
SEIHIN
100
AcDbLine
 10
229.2759653353315
 20
221.6238296805792
 30
0.0
 11
230.6653670443314
 21
221.6238296805792
 31
0.0
  0
LINE
  5
3B37
330
1A
100
AcDbEntity
  8
SEIHIN
100
AcDbLine
 10
224.6842794363315
 20
219.8428195905792
 30
0.0
 11
228.5262962433315
 21
219.8428195905792
 31
0.0
  0
LINE
  5
3B38
330
1A
100
AcDbEntity
  8
SEIHIN
100
AcDbLine
 10
223.9905875033314
 20
218.6238296805792
 30
0.0
 11
223.9905875033314
 21
221.6238296805792
 31
0.0
  0
LINE
  5
3B39
330
1A
100
AcDbEntity
  8
SEIHIN
100
AcDbLine
 10
222.6011857943315
 20
221.6238296805792
 30
0.0
 11
222.6011857943315
 21
218.6238296805792
 31
0.0
  0
LINE
  5
3B3A
330
1A
100
AcDbEntity
  8
SEIHIN
100
AcDbLine
 10
222.6011857943315
 20
221.6238296805792
 30
0.0
 11
223.9905875033314
 21
221.6238296805792
 31
0.0
  0
LINE
  5
3B3B
330
1A
100
AcDbEntity
  8
SEIHIN
100
AcDbLine
 10
223.9905875033314
 20
221.6238296805792
 30
0.0
 11
222.6011857943315
 21
219.5526348705791
 31
0.0
  0
LINE
  5
3B3C
330
1A
100
AcDbEntity
  8
SEIHIN
100
AcDbLine
 10
229.2759653353315
 20
221.6238296805792
 30
0.0
 11
229.2759653353315
 21
218.6238296805792
 31
0.0
  0
ARC
  5
3B3D
330
1A
100
AcDbEntity
  8
SEIHIN
100
AcDbCircle
 10
232.2261865073314
 20
220.9468812705791
 30
0.0
 40
1.700000000521829
100
AcDbArc
 50
279.0000000091556
 51
0.000011122122682
  0
LINE
  5
3B3E
330
1A
100
AcDbEntity
  8
SEIHIN
100
AcDbLine
 10
231.8985194573315
 20
218.6238296805792
 30
0.0
 11
231.8985194573315
 21
217.6238296805792
 31
0.0
  0
LINE
  5
3B3F
330
1A
100
AcDbEntity
  8
SEIHIN
100
AcDbLine
 10
230.6653670443314
 20
218.6238296805792
 30
0.0
 11
230.6653670443314
 21
221.6238296805792
 31
0.0
  0
LINE
  5
3B40
330
1A
100
AcDbEntity
  8
SEIHIN
100
AcDbLine
 10
232.4921250983315
 20
219.2678110905792
 30
0.0
 11
231.8481436903315
 21
218.6238296805792
 31
0.0
  0
LINE
  5
3B41
330
1A
100
AcDbEntity
  8
SEIHIN
100
AcDbLine
 10
231.4196669253315
 20
219.8428195905792
 30
0.0
 11
232.8426361123315
 21
219.8428195905792
 31
0.0
  0
LINE
  5
3B42
330
1A
100
AcDbEntity
  8
CENTER_L
100
AcDbLine
 10
226.9034989354898
 20
232.1238296705792
 30
0.0
 11
234.9481003762125
 21
232.1238296705792
 31
0.0
  0
ARC
  5
3B43
330
1A
100
AcDbEntity
  8
SEIHIN
100
AcDbCircle
 10
216.7936482413244
 20
230.6238296805791
 30
0.0
 40
7.826647519730068
100
AcDbArc
 50
338.4486589039121
 51
21.55134109608789
  0
LINE
  5
3B44
330
1A
100
AcDbEntity
  8
SEIHIN
100
AcDbLine
 10
233.0317593162479
 20
237.6238296805792
 30
0.0
 11
217.6476116304647
 21
237.6238296805792
 31
0.0
  0
LINE
  5
3B45
330
1A
100
AcDbEntity
  8
SEIHIN
100
AcDbLine
 10
334.9579968193315
 20
162.1871462023737
 30
0.0
 11
336.2996376193315
 21
159.5038646293737
 31
0.0
  0
LINE
  5
3B46
330
1A
100
AcDbEntity
  8
SEIHIN
100
AcDbLine
 10
336.2996376193315
 20
159.5038646293737
 30
0.0
 11
340.3050956193316
 21
161.5065936023736
 31
0.0
  0
LINE
  5
3B47
330
1A
100
AcDbEntity
  8
SEIHIN
100
AcDbLine
 10
338.0690276193316
 20
163.7426615797737
 30
0.0
 11
339.4106684193315
 21
161.0593800063736
 31
0.0
  0
LINE
  5
3B48
330
1A
100
AcDbEntity
  8
SEIHIN
100
AcDbLine
 10
351.7478149193316
 20
163.2179027773736
 30
0.0
 11
343.6979701193316
 21
159.1929804173736
 31
0.0
  0
LINE
  5
3B49
330
1A
100
AcDbEntity
  8
SEIHIN
100
AcDbLine
 10
310.1181778893316
 20
177.1590694433737
 30
0.0
 11
324.4290129393315
 21
148.5373993333736
 31
0.0
  0
LINE
  5
3B4A
330
1A
100
AcDbEntity
  8
SEIHIN
100
AcDbLine
 10
340.1202614193316
 20
159.6401940133736
 30
0.0
 11
319.0624497993316
 21
201.7558171933736
 31
0.0
  0
LINE
  5
3B4B
330
1A
100
AcDbEntity
  8
SEIHIN
100
AcDbLine
 10
341.0146886193316
 20
160.0874076083737
 30
0.0
 11
319.9568769893316
 21
202.2030307933737
 31
0.0
  0
LINE
  5
3B4C
330
1A
100
AcDbEntity
  8
CENTER_L
100
AcDbLine
 10
323.5409452391909
 20
209.5693361745527
 30
0.0
 11
352.156255872992
 21
152.3387148869547
 31
0.0
  0
LINE
  5
3B4D
330
1A
100
AcDbEntity
  8
SEIHIN
100
AcDbLine
 10
327.1122945093315
 20
147.6429721433737
 30
0.0
 11
370.9392268482216
 21
169.5564382788187
 31
0.0
  0
DIMENSION
  5
3B4E
330
1A
100
AcDbEntity
  8
SUNPOU
100
AcDbDimension
  2
*D5
 10
302.5028866195481
 20
135.3382682038563
 30
0.0
 11
296.689109882967
 21
152.5559916263931
 31
0.0
 70
    33
  3
STANDARD
100
AcDbAlignedDimension
 13
309.2237507000522
 23
178.9479238225575
 33
0.0
 14
325.3234401285264
 24
146.7485449543588
 34
0.0
1001
ACAD
1000
DSTYLE
1002
{
1070
    41
1040
3.0
1070
    42
1040
3.0
1070
    43
1040
7.0
1070
    44
1040
1.5
1070
    73
1070
     0
1070
    74
1070
     0
1070
    77
1070
     3
1070
   140
1040
3.0
1070
   141
1040
3.0
1070
   147
1040
1.0
1070
   172
1070
     1
1070
   173
1070
     1
1070
   176
1070
   256
1070
   177
1070
   256
1070
   178
1070
   256
1070
   271
1070
     0
1070
   272
1070
     0
1070
   341
1005
B2
1070
     6
1000
OPEN
1070
     7
1000
OPEN
1002
}
  0
LINE
  5
3B52
330
1A
100
AcDbEntity
  8
CENTER_L
100
AcDbLine
 10
239.117846672498
 20
102.3308403928496
 30
0.0
 11
252.7131399781551
 21
109.128487043303
 31
0.0
  0
LINE
  5
3B55
330
1A
100
AcDbEntity
  8
CENTER_L
100
AcDbLine
 10
227.9375067810537
 20
124.6915201771273
 30
0.0
 11
241.5328000844884
 21
131.4891668264696
 31
0.0
  0
LINE
  5
3B56
330
1A
100
AcDbEntity
  8
CENTER_L
100
AcDbLine
 10
231.7388223435709
 20
117.0888890516203
 30
0.0
 11
245.3341156477614
 21
123.8865357013405
 31
0.0
  0
DIMENSION
  5
3B59
330
1A
100
AcDbEntity
  8
SUNPOU
100
AcDbDimension
  2
*D6
 10
310.89636785781
 20
139.5350088215209
 30
0.0
 11
311.9025984509155
 21
143.1127175799189
 31
0.0
 70
    33
  3
STANDARD
100
AcDbAlignedDimension
 13
322.8637653594252
 23
151.6678944942799
 33
0.0
 14
325.3234401285264
 24
146.7485449543588
 34
0.0
1001
ACAD
1000
DSTYLE
1002
{
1070
    41
1040
3.0
1070
    42
1040
3.0
1070
    43
1040
7.0
1070
    44
1040
1.5
1070
    73
1070
     0
1070
    74
1070
     0
1070
    77
1070
     3
1070
   140
1040
3.0
1070
   141
1040
3.0
1070
   147
1040
1.0
1070
   172
1070
     1
1070
   173
1070
     1
1070
   176
1070
   256
1070
   177
1070
   256
1070
   178
1070
   256
1070
   271
1070
     0
1070
   272
1070
     0
1070
   341
1005
B2
1070
     6
1000
OPEN
1070
     7
1000
OPEN
1002
}
  0
LINE
  5
3B5A
330
1A
100
AcDbEntity
  8
CENTER_L
100
AcDbLine
 10
325.5023255809894
 20
158.6891479516518
 30
0.0
 11
330.0639042576737
 21
149.5659905950956
 31
0.0
  0
ARC
  5
3B5B
330
1A
100
AcDbEntity
  8
SEIHIN
100
AcDbCircle
 10
326.2178673193315
 20
149.4318265233737
 30
0.0
 40
1.999999997764122
100
AcDbArc
 50
206.5650511770769
 51
296.5650511770764
  0
CIRCLE
  5
3B5C
330
1A
100
AcDbEntity
  8
SEIHIN
100
AcDbCircle
 10
327.7831149193315
 20
154.1275692733736
 30
0.0
 40
2.099999995980733
  0
LINE
  5
3B5D
330
1A
100
AcDbEntity
  8
CENTER_L
100
AcDbLine
 10
323.2215362410533
 20
151.8467799350315
 30
0.0
 11
332.3446935976095
 21
156.4083586117158
 31
0.0
  0
LINE
  5
3B5E
330
1A
100
AcDbEntity
  8
SEIHIN
100
AcDbLine
 10
339.4106684193315
 20
161.0593800063736
 30
0.0
 11
342.3175567193315
 21
155.2456032653736
 31
0.0
  0
LINE
  5
3B5F
330
1A
100
AcDbEntity
  8
SEIHIN
100
AcDbLine
 10
338.6315199193315
 20
160.6698057943737
 30
0.0
 11
341.5384083193316
 21
154.8560290523736
 31
0.0
  0
ARC
  5
3B60
330
1A
100
AcDbEntity
  8
SEIHIN
100
AcDbCircle
 10
342.8035429193316
 20
160.9818347993737
 30
0.0
 40
1.999999965341132
100
AcDbArc
 50
206.5650522276385
 51
296.5650514076879
  0
LWPOLYLINE
  5
3B61
330
1A
100
AcDbEntity
  8
SUNPOU
100
AcDbPolyline
 90
        3
 70
     0
 43
0.0
 10
358.464693862475
 20
192.9246866867225
 10
369.5752291260625
 20
226.5328183733302
 10
385.4246789665669
 20
226.5328183733302
1001
ACAD
1000
DSTYLE
1002
{
1070
    41
1040
3.0
1070
    42
1040
3.0
1070
    43
1040
7.0
1070
    44
1040
1.5
1070
    73
1070
     0
1070
    74
1070
     0
1070
    77
1070
     0
1070
   140
1040
3.0
1070
   141
1040
3.0
1070
   147
1040
1.0
1070
   172
1070
     1
1070
   173
1070
     1
1070
   176
1070
   256
1070
   177
1070
   256
1070
   178
1070
   256
1070
   271
1070
     0
1070
   272
1070
     0
1070
   341
1005
B2
1070
   343
1005
B2
1070
   344
1005
B2
1002
}
  0
LINE
  5
3B62
330
1A
100
AcDbEntity
  8
SEIHIN
100
AcDbLine
 10
357.5228190193316
 20
200.8613900033736
 30
0.0
 11
371.8336540416941
 21
172.2397198496485
 31
0.0
  0
LINE
  5
3B63
330
1A
100
AcDbEntity
  8
CENTER_L
100
AcDbLine
 10
360.7874782410535
 20
170.6297509490315
 30
0.0
 11
369.9106355976097
 21
175.1913296257158
 31
0.0
  0
DIMENSION
  5
3B64
330
1A
100
AcDbEntity
  8
SUNPOU
100
AcDbDimension
  2
*D7
 10
374.0765077010283
 20
195.7218264618262
 30
0.0
 11
373.1820805190793
 21
203.1008507933173
 31
0.0
 70
    33
  3
STANDARD
100
AcDbAlignedDimension
 13
356.6283918251154
 23
202.6502443986185
 33
0.0
 14
362.8893821474191
 24
190.1282637063236
 34
0.0
1001
ACAD
1000
DSTYLE
1002
{
1070
    41
1040
3.0
1070
    42
1040
3.0
1070
    43
1040
7.0
1070
    44
1040
1.5
1070
    73
1070
     0
1070
    74
1070
     0
1070
    77
1070
     3
1070
   140
1040
3.0
1070
   141
1040
3.0
1070
   147
1040
1.0
1070
   172
1070
     1
1070
   173
1070
     1
1070
   176
1070
   256
1070
   177
1070
   256
1070
   178
1070
   256
1070
   271
1070
     0
1070
   272
1070
     0
1070
   341
1005
B2
1070
     6
1000
OPEN
1070
     7
1000
OPEN
1002
}
  0
DIMENSION
  5
3B65
330
1A
100
AcDbEntity
  8
SUNPOU
100
AcDbDimension
  2
*D8
 10
336.6187712546873
 20
230.3711115754942
 30
0.0
 11
316.7177662652707
 21
223.2156940456607
 31
0.0
 70
    33
  3
STANDARD
100
AcDbAlignedDimension
 13
314.3219856809894
 23
181.0498277316518
 33
0.0
 14
351.8879276809895
 24
199.8327987456518
 34
0.0
1001
ACAD
1000
DSTYLE
1002
{
1070
    41
1040
3.0
1070
    42
1040
3.0
1070
    43
1040
7.0
1070
    44
1040
1.5
1070
    73
1070
     0
1070
    74
1070
     0
1070
    77
1070
     3
1070
   140
1040
3.0
1070
   141
1040
3.0
1070
   147
1040
1.0
1070
   172
1070
     1
1070
   173
1070
     1
1070
   176
1070
   256
1070
   177
1070
   256
1070
   178
1070
   256
1070
   271
1070
     0
1070
   272
1070
     0
1070
   341
1005
B2
1070
     6
1000
OPEN
1070
     7
1000
OPEN
1002
}
  0
LWPOLYLINE
  5
3B66
330
1A
100
AcDbEntity
  8
SUNPOU
100
AcDbPolyline
 90
        3
 70
     0
 43
0.0
 10
312.2502861318168
 20
178.503293548352
 10
290.8351100570555
 20
196.9526322436772
 10
273.2533234201468
 20
196.9526322436772
1001
ACAD
1000
DSTYLE
1002
{
1070
    41
1040
3.0
1070
    42
1040
3.0
1070
    43
1040
7.0
1070
    44
1040
1.5
1070
    73
1070
     0
1070
    74
1070
     0
1070
    77
1070
     0
1070
   140
1040
3.0
1070
   141
1040
3.0
1070
   147
1040
1.0
1070
   172
1070
     1
1070
   173
1070
     1
1070
   176
1070
   256
1070
   177
1070
   256
1070
   178
1070
   256
1070
   271
1070
     0
1070
   272
1070
     0
1070
   341
1005
B2
1070
   343
1005
B2
1070
   344
1005
B2
1002
}
  0
DIMENSION
  5
3B67
330
1A
100
AcDbEntity
  8
SUNPOU
100
AcDbDimension
  2
*D9
 10
297.2563531998342
 20
166.8150381470046
 30
0.0
 11
298.2625837922412
 21
170.3927469067996
 31
0.0
 70
    33
  3
STANDARD
100
AcDbAlignedDimension
 13
309.2237507000522
 23
178.9479238225575
 33
0.0
 14
311.6834254705504
 24
174.0285742798424
 34
0.0
1001
ACAD
1000
DSTYLE
1002
{
1070
    41
1040
3.0
1070
    42
1040
3.0
1070
    43
1040
7.0
1070
    44
1040
1.5
1070
    73
1070
     0
1070
    74
1070
     0
1070
    77
1070
     3
1070
   140
1040
3.0
1070
   141
1040
3.0
1070
   147
1040
1.0
1070
   172
1070
     1
1070
   173
1070
     1
1070
   176
1070
   256
1070
   177
1070
   256
1070
   178
1070
   256
1070
   271
1070
     0
1070
   272
1070
     0
1070
   341
1005
B2
1070
     6
1000
OPEN
1070
     7
1000
OPEN
1002
}
  0
DIMENSION
  5
3B68
330
1A
100
AcDbEntity
  8
SUNPOU
100
AcDbDimension
  2
*D10
 10
337.6126247045728
 20
240.6817786179952
 30
0.0
 11
312.7922701527807
 21
231.0666863072091
 31
0.0
 70
    33
  3
STANDARD
100
AcDbAlignedDimension
 13
309.2237507000522
 23
178.9479238225575
 33
0.0
 14
356.6283918251154
 24
202.6502443986185
 34
0.0
1001
ACAD
1000
DSTYLE
1002
{
1070
    41
1040
3.0
1070
    42
1040
3.0
1070
    43
1040
7.0
1070
    44
1040
1.5
1070
    73
1070
     0
1070
    74
1070
     0
1070
    77
1070
     3
1070
   140
1040
3.0
1070
   141
1040
3.0
1070
   147
1040
1.0
1070
   172
1070
     1
1070
   173
1070
     1
1070
   176
1070
   256
1070
   177
1070
   256
1070
   178
1070
   256
1070
   271
1070
     0
1070
   272
1070
     0
1070
   341
1005
B2
1070
     6
1000
OPEN
1070
     7
1000
OPEN
1002
}
  0
TEXT
  5
3B69
330
1A
100
AcDbEntity
  8
SUNPOU
100
AcDbText
 10
274.2351100570555
 20
197.6616830502912
 30
0.0
 40
3.0
  1
4-φ4.2
100
AcDbText
  0
LINE
  5
3B6A
330
1A
100
AcDbEntity
  8
SEIHIN
100
AcDbLine
 10
353.5366692193316
 20
166.3483979453736
 30
0.0
 11
332.4788576193315
 21
208.4640211333737
 31
0.0
  0
LINE
  5
3B6B
330
1A
100
AcDbEntity
  8
SEIHIN
100
AcDbLine
 10
352.6422420193316
 20
165.9011843503736
 30
0.0
 11
331.5844304193315
 21
208.0168075333737
 31
0.0
  0
DIMENSION
  5
3B6C
330
1A
100
AcDbEntity
  8
SUNPOU
100
AcDbDimension
  2
*D11
 10
339.0983124919589
 20
222.0579272051413
 30
0.0
 11
320.5389482783629
 21
215.573330071718
 31
0.0
 70
    33
  3
STANDARD
100
AcDbAlignedDimension
 13
318.9506463976083
 23
175.1466082667731
 33
0.0
 14
353.8333068476085
 24
192.5879384887732
 34
0.0
1001
ACAD
1000
DSTYLE
1002
{
1070
    41
1040
3.0
1070
    42
1040
3.0
1070
    43
1040
7.0
1070
    44
1040
1.5
1070
    73
1070
     0
1070
    74
1070
     0
1070
    77
1070
     3
1070
   140
1040
3.0
1070
   141
1040
3.0
1070
   147
1040
1.0
1070
   172
1070
     1
1070
   173
1070
     1
1070
   176
1070
   256
1070
   177
1070
   256
1070
   178
1070
   256
1070
   271
1070
     0
1070
   272
1070
     0
1070
   341
1005
B2
1070
     6
1000
OPEN
1070
     7
1000
OPEN
1002
}
  0
ARC
  5
3B6D
330
1A
100
AcDbEntity
  8
SEIHIN
100
AcDbCircle
 10
340.9759160193315
 20
174.6993946733737
 30
0.0
 40
5.024896830989174
100
AcDbArc
 50
153.2223321449055
 51
79.90777135371754
  0
LINE
  5
3B6E
330
1A
100
AcDbEntity
  8
SEIHIN
100
AcDbLine
 10
334.9579968193315
 20
162.1871462023737
 30
0.0
 11
338.0690276193316
 21
163.7426615797737
 31
0.0
  0
LINE
  5
3B6F
330
1A
100
AcDbEntity
  8
SEIHIN
100
AcDbLine
 10
330.4663965193315
 20
178.9479238233736
 30
0.0
 11
338.0690276193316
 21
163.7426615797737
 31
0.0
  0
LINE
  5
3B70
330
1A
100
AcDbEntity
  8
SEIHIN
100
AcDbLine
 10
329.6872480193316
 20
178.5583496133737
 30
0.0
 11
337.2898792193315
 21
163.3530873671737
 31
0.0
  0
LINE
  5
3B71
330
1A
100
AcDbEntity
  8
SEIHIN
100
AcDbLine
 10
330.6963626193316
 20
201.9667053733736
 30
0.0
 11
341.8564447193316
 21
179.6465410333737
 31
0.0
  0
LINE
  5
3B72
330
1A
100
AcDbEntity
  8
SEIHIN
100
AcDbLine
 10
325.3297994593316
 20
199.2834237733736
 30
0.0
 11
336.4898816193315
 21
176.9632594633736
 31
0.0
  0
LINE
  5
3B73
330
1A
100
AcDbEntity
  8
SEIHIN
100
AcDbLine
 10
326.2178673193315
 20
187.4449821433737
 30
0.0
 11
329.1247557193316
 21
181.6312054033737
 31
0.0
  0
LINE
  5
3B74
330
1A
100
AcDbEntity
  8
SEIHIN
100
AcDbLine
 10
325.4387188993316
 20
187.0554079333736
 30
0.0
 11
328.3456072193316
 21
181.2416311833736
 31
0.0
  0
LINE
  5
3B75
330
1A
100
AcDbEntity
  8
SEIHIN
100
AcDbLine
 10
326.2178673193315
 20
187.4449821433737
 30
0.0
 11
311.0126050793316
 21
179.8423510133736
 31
0.0
  0
CIRCLE
  5
3B76
330
1A
100
AcDbEntity
  8
SEIHIN
100
AcDbCircle
 10
321.7457313693316
 20
169.5564383213736
 30
0.0
 40
3.250000001408088
  0
LINE
  5
3B77
330
1A
100
AcDbEntity
  8
CENTER_L
100
AcDbLine
 10
316.155561423932
 20
166.7613533496504
 30
0.0
 11
327.3359013147311
 21
172.3515232930968
 31
0.0
  0
LINE
  5
3B78
330
1A
100
AcDbEntity
  8
CENTER_L
100
AcDbLine
 10
312.0411963410535
 20
174.2074597150315
 30
0.0
 11
321.1643536976097
 21
178.7690383917158
 31
0.0
  0
LINE
  5
3B79
330
1A
100
AcDbEntity
  8
CENTER_L
100
AcDbLine
 10
318.9506463976083
 20
175.1466082667731
 30
0.0
 11
324.5408163410547
 21
163.966268375974
 31
0.0
  0
LINE
  5
3B7A
330
1A
100
AcDbEntity
  8
CENTER_L
100
AcDbLine
 10
314.3219856809894
 20
181.0498277316518
 30
0.0
 11
318.8835643576737
 21
171.9266703750955
 31
0.0
  0
ARC
  5
3B7B
330
1A
100
AcDbEntity
  8
SEIHIN
100
AcDbCircle
 10
311.9070322693316
 20
178.0534966333737
 30
0.0
 40
1.999999997764122
100
AcDbArc
 50
116.5650511770763
 51
206.5650511770769
  0
INSERT
  5
3B7C
330
1A
100
AcDbEntity
  8
SUNPOU
100
AcDbBlockReference
  2
_OPEN
 10
314.5231467969781
 20
176.5452066256739
 30
0.0
 41
2.999999999999992
 42
3.0
 43
3.0
 50
319.2548486777223
1001
ACAD
1000
DSTYLE
1002
{
1070
    41
1040
3.0
1070
    42
1040
3.0
1070
    43
1040
7.0
1070
    44
1040
1.5
1070
    73
1070
     0
1070
    74
1070
     0
1070
    77
1070
     0
1070
   140
1040
3.0
1070
   141
1040
3.0
1070
   147
1040
1.0
1070
   172
1070
     1
1070
   173
1070
     1
1070
   176
1070
   256
1070
   177
1070
   256
1070
   178
1070
   256
1070
   271
1070
     0
1070
   272
1070
     0
1070
   341
1005
B2
1070
   343
1005
B2
1070
   344
1005
B2
1002
}
  0
CIRCLE
  5
3B7D
330
1A
100
AcDbEntity
  8
SEIHIN
100
AcDbCircle
 10
316.6027750193315
 20
176.4882490533737
 30
0.0
 40
2.100000004315366
  0
LINE
  5
3B7E
330
1A
100
AcDbEntity
  8
SEIHIN
100
AcDbLine
 10
329.1247557193316
 20
181.6312054033737
 30
0.0
 11
326.0137249393316
 21
180.0756900233736
 31
0.0
  0
LINE
  5
3B7F
330
1A
100
AcDbEntity
  8
SEIHIN
100
AcDbLine
 10
330.4663965193315
 20
178.9479238233736
 30
0.0
 11
327.3553657193315
 21
177.3924084533737
 31
0.0
  0
LINE
  5
3B80
330
1A
100
AcDbEntity
  8
SEIHIN
100
AcDbLine
 10
326.0137249393316
 20
180.0756900233736
 30
0.0
 11
327.3553657193315
 21
177.3924084533737
 31
0.0
  0
LINE
  5
3B81
330
1A
100
AcDbEntity
  8
SEIHIN
100
AcDbLine
 10
329.1247557193316
 20
181.6312054033737
 30
0.0
 11
330.4663965193315
 21
178.9479238233736
 31
0.0
  0
LINE
  5
3B82
330
1A
100
AcDbEntity
  8
SEIHIN
100
AcDbLine
 10
319.0624497993316
 20
201.7558171933736
 30
0.0
 11
319.9568769893316
 21
202.2030307933737
 31
0.0
  0
ARC
  5
3B83
330
1A
100
AcDbEntity
  8
SEIHIN
100
AcDbCircle
 10
328.0130812193315
 20
200.6250642633736
 30
0.0
 40
3.000000012298682
100
AcDbArc
 50
26.5650581808209
 51
206.5650445149789
  0
LINE
  5
3B84
330
1A
100
AcDbEntity
  8
SEIHIN
100
AcDbLine
 10
322.1993044393315
 20
197.7181758933736
 30
0.0
 11
325.3297995993315
 21
199.2834234733736
 31
0.0
  0
LINE
  5
3B85
330
1A
100
AcDbEntity
  8
SEIHIN
100
AcDbLine
 10
330.6963627193316
 20
201.9667050533736
 30
0.0
 11
333.8268579193315
 21
203.5319526333736
 31
0.0
  0
LINE
  5
3B86
330
1A
100
AcDbEntity
  8
SEIHIN
100
AcDbLine
 10
343.8828043193315
 20
185.6561277633736
 30
0.0
 11
351.4854354193316
 21
170.4508655123736
 31
0.0
  0
LINE
  5
3B87
330
1A
100
AcDbEntity
  8
SEIHIN
100
AcDbLine
 10
344.6619528193315
 20
186.0457019733736
 30
0.0
 11
352.2645839193316
 21
170.8404397253737
 31
0.0
  0
CIRCLE
  5
3B88
330
1A
100
AcDbEntity
  8
SEIHIN
100
AcDbCircle
 10
356.6283918193316
 20
186.9977685433736
 30
0.0
 40
3.249999988758972
  0
LINE
  5
3B89
330
1A
100
AcDbEntity
  8
CENTER_L
100
AcDbLine
 10
351.038221873932
 20
184.2026835716504
 30
0.0
 11
362.2185617647311
 21
189.7928535150968
 31
0.0
  0
LINE
  5
3B8A
330
1A
100
AcDbEntity
  8
CENTER_L
100
AcDbLine
 10
353.8333068476085
 20
192.5879384887732
 30
0.0
 11
359.4234767910548
 21
181.4075985979741
 31
0.0
  0
LINE
  5
3B8B
330
1A
100
AcDbEntity
  8
SEIHIN
100
AcDbLine
 10
351.4854354193316
 20
170.4508655123736
 30
0.0
 11
352.8270762193316
 21
167.7675839393737
 31
0.0
  0
LINE
  5
3B8C
330
1A
100
AcDbEntity
  8
SEIHIN
100
AcDbLine
 10
354.5964662193316
 20
172.0063808893737
 30
0.0
 11
351.4854354193316
 21
170.4508655123736
 31
0.0
  0
LINE
  5
3B8D
330
1A
100
AcDbEntity
  8
SEIHIN
100
AcDbLine
 10
355.9381070193316
 20
169.3230993163737
 30
0.0
 11
351.9326490193315
 21
167.3203703433737
 31
0.0
  0
ARC
  5
3B8E
330
1A
100
AcDbEntity
  8
SEIHIN
100
AcDbCircle
 10
350.8533877193315
 20
165.0067571589737
 30
0.0
 40
1.999999965251689
100
AcDbArc
 50
296.5650514128148
 51
26.56505223788778
  0
CIRCLE
  5
3B8F
330
1A
100
AcDbEntity
  8
SEIHIN
100
AcDbCircle
 10
340.9759160193315
 20
174.6993946733737
 30
0.0
 40
2.999999911928945
  0
CIRCLE
  5
3B90
330
1A
100
AcDbEntity
  8
SEIHIN
100
AcDbCircle
 10
365.3490569193316
 20
172.9105402873736
 30
0.0
 40
2.10000000249889
  0
LINE
  5
3B91
330
1A
100
AcDbEntity
  8
CENTER_L
100
AcDbLine
 10
363.0682675809894
 20
177.4721189656518
 30
0.0
 11
367.6298462576736
 21
168.3489616090955
 31
0.0
  0
LINE
  5
3B92
330
1A
100
AcDbEntity
  8
SEIHIN
100
AcDbLine
 10
353.6062247193315
 20
168.1571581523737
 30
0.0
 11
356.5131130193315
 21
162.3433814103736
 31
0.0
  0
LINE
  5
3B93
330
1A
100
AcDbEntity
  8
SEIHIN
100
AcDbLine
 10
352.8270762193316
 20
167.7675839393737
 30
0.0
 11
355.7339646193316
 21
161.9538071973736
 31
0.0
  0
LINE
  5
3B94
330
1A
100
AcDbEntity
  8
SEIHIN
100
AcDbLine
 10
354.5964662193316
 20
172.0063808893737
 30
0.0
 11
355.9381070193316
 21
169.3230993163737
 31
0.0
  0
CIRCLE
  5
3B95
330
1A
100
AcDbEntity
  8
SEIHIN
100
AcDbCircle
 10
354.1687170193316
 20
195.2712200633736
 30
0.0
 40
2.100000001153092
  0
LINE
  5
3B96
330
1A
100
AcDbEntity
  8
CENTER_L
100
AcDbLine
 10
349.6071383410535
 20
192.9904307290315
 30
0.0
 11
358.7302956976097
 21
197.5520094057158
 31
0.0
  0
LINE
  5
3B97
330
1A
100
AcDbEntity
  8
CENTER_L
100
AcDbLine
 10
351.8879276809895
 20
199.8327987456518
 30
0.0
 11
356.4495063576738
 21
190.7096413890956
 31
0.0
  0
LINE
  5
3B98
330
1A
100
AcDbEntity
  8
SEIHIN
100
AcDbLine
 10
339.6342752193315
 20
194.1531860733737
 30
0.0
 11
354.8395374193316
 21
201.7558171933736
 31
0.0
  0
LINE
  5
3B99
330
1A
100
AcDbEntity
  8
SEIHIN
100
AcDbLine
 10
343.8828043193315
 20
185.6561277633736
 30
0.0
 11
346.9938351193315
 21
187.2116431333736
 31
0.0
  0
LINE
  5
3B9A
330
1A
100
AcDbEntity
  8
SEIHIN
100
AcDbLine
 10
342.5411635193316
 20
188.3394093333736
 30
0.0
 11
345.6521943193316
 21
189.8949247133737
 31
0.0
  0
LINE
  5
3B9B
330
1A
100
AcDbEntity
  8
SEIHIN
100
AcDbLine
 10
339.6342752193315
 20
194.1531860733737
 30
0.0
 11
342.5411635193316
 21
188.3394093333736
 31
0.0
  0
LINE
  5
3B9C
330
1A
100
AcDbEntity
  8
SEIHIN
100
AcDbLine
 10
340.4134236193316
 20
194.5427602833736
 30
0.0
 11
343.3203120193315
 21
188.7289835433737
 31
0.0
  0
LINE
  5
3B9D
330
1A
100
AcDbEntity
  8
SEIHIN
100
AcDbLine
 10
342.5411635193316
 20
188.3394093333736
 30
0.0
 11
343.8828043193315
 21
185.6561277633736
 31
0.0
  0
LINE
  5
3B9E
330
1A
100
AcDbEntity
  8
SEIHIN
100
AcDbLine
 10
345.6521943193316
 20
189.8949247133737
 30
0.0
 11
346.9938351193315
 21
187.2116431333736
 31
0.0
  0
INSERT
  5
3B9F
330
1A
100
AcDbEntity
  8
SUNPOU
100
AcDbBlockReference
  2
_OPEN
 10
357.5230443663869
 20
190.0763018414959
 30
0.0
 41
2.999999999999981
 42
3.0
 43
3.0
 50
251.7065953267104
1001
ACAD
1000
DSTYLE
1002
{
1070
    41
1040
3.0
1070
    42
1040
3.0
1070
    43
1040
7.0
1070
    44
1040
1.5
1070
    73
1070
     0
1070
    74
1070
     0
1070
    77
1070
     0
1070
   140
1040
3.0
1070
   141
1040
3.0
1070
   147
1040
1.0
1070
   172
1070
     1
1070
   173
1070
     1
1070
   176
1070
   256
1070
   177
1070
   256
1070
   178
1070
   256
1070
   271
1070
     0
1070
   272
1070
     0
1070
   341
1005
B2
1070
   343
1005
B2
1070
   344
1005
B2
1002
}
  0
ARC
  5
3BA0
330
1A
100
AcDbEntity
  8
SEIHIN
100
AcDbCircle
 10
355.7339646193316
 20
199.9669628133736
 30
0.0
 40
2.000000008944457
100
AcDbArc
 50
26.56505092084472
 51
116.5650514333117
  0
LINE
  5
3BA1
330
1A
100
AcDbEntity
  8
SEIHIN
100
AcDbLine
 10
331.5844304193315
 20
208.0168075333737
 30
0.0
 11
332.4788576193315
 21
208.4640211333737
 31
0.0
  0
ARC
  5
3BA2
330
1A
100
AcDbEntity
  8
SEIHIN
100
AcDbCircle
 10
370.0447996583319
 20
171.3452926613737
 30
0.0
 40
2.0
100
AcDbArc
 50
296.5650511415189
 51
26.56505108979721
  0
TEXT
  5
3BA3
330
1A
100
AcDbEntity
  8
SUNPOU
100
AcDbText
 10
369.9148343398884
 20
227.8371652859507
 30
0.0
 40
3.0
  1
2-φ6.5
100
AcDbText
  0
DIMENSION
  5
3D54
330
1A
100
AcDbEntity
  8
SUNPOU
100
AcDbDimension
  2
*D12
 10
213.2993066051283
 20
166.9789465803664
 30
0.0
 11
137.1294822212299
 21
169.4789465803664
 31
0.0
 70
    32
  3
STANDARD
100
AcDbAlignedDimension
 13
60.95965783733152
 23
93.39035120337365
 33
0.0
 14
213.2993066051283
 24
142.3036779412721
 34
0.0
100
AcDbRotatedDimension
1001
ACAD
1000
DSTYLE
1002
{
1070
    41
1040
3.0
1070
    42
1040
3.0
1070
    43
1040
7.0
1070
    44
1040
1.5
1070
    73
1070
     0
1070
    74
1070
     0
1070
    77
1070
     3
1070
   140
1040
3.0
1070
   141
1040
3.0
1070
   147
1040
1.0
1070
   172
1070
     1
1070
   173
1070
     1
1070
   176
1070
   256
1070
   177
1070
   256
1070
   178
1070
   256
1070
   271
1070
     0
1070
   272
1070
     0
1070
   341
1005
B2
1070
     6
1000
OPEN
1070
     7
1000
OPEN
1002
}
  0
DIMENSION
  5
3D9F
330
1A
100
AcDbEntity
  8
SUNPOU
100
AcDbDimension
  2
*D13
 10
213.2993066051283
 20
158.966078205421
 30
0.0
 11
196.1295322211576
 21
161.466078205421
 31
0.0
 70
    32
  3
STANDARD
100
AcDbAlignedDimension
 13
178.9597578371869
 23
101.7126743243736
 33
0.0
 14
213.2993066051283
 24
142.3036779412721
 34
0.0
100
AcDbRotatedDimension
1001
ACAD
1000
DSTYLE
1002
{
1070
    41
1040
3.0
1070
    42
1040
3.0
1070
    43
1040
7.0
1070
    44
1040
1.5
1070
    73
1070
     0
1070
    74
1070
     0
1070
    77
1070
     3
1070
   140
1040
3.0
1070
   141
1040
3.0
1070
   147
1040
1.0
1070
   172
1070
     1
1070
   173
1070
     1
1070
   176
1070
   256
1070
   177
1070
   256
1070
   178
1070
   256
1070
   271
1070
     0
1070
   272
1070
     0
1070
   341
1005
B2
1070
     6
1000
OPEN
1070
     7
1000
OPEN
1002
}
  0
ARC
  5
4094
330
1A
100
AcDbEntity
  8
SEIHIN
100
AcDbCircle
 10
195.7895093773315
 20
136.1415148073736
 30
0.0
 40
6.999999997855918
100
AcDbArc
 50
276.9999999683264
 51
350.7918456020169
  0
ARC
  5
4099
330
1A
100
AcDbEntity
  8
SEIHIN
100
AcDbCircle
 10
206.6461571873315
 20
134.3673310053736
 30
0.0
 40
4.000000003240687
100
AcDbArc
 50
26.56506216954043
 51
170.7918456269571
  0
ARC
  5
409A
330
1A
100
AcDbEntity
  8
SEIHIN
100
AcDbCircle
 10
206.6461571873315
 20
134.3673310053736
 30
0.0
 40
10.00000000249528
100
AcDbArc
 50
52.40698405646992
 51
170.7918456103775
  0
LINE
  5
40B4
330
1A
100
AcDbEntity
  8
SEIHIN
100
AcDbLine
 10
227.9335243273315
 20
98.05358705337368
 30
0.0
 11
211.8338348873315
 21
130.2529659273736
 31
0.0
  0
LINE
  5
40B5
330
1A
100
AcDbEntity
  8
SEIHIN
  6
DASHED
 62
     2
100
AcDbLine
 10
232.8264970673314
 20
133.2492970173736
 30
0.0
 11
248.9261865073315
 21
101.0499181433736
 31
0.0
  0
LINE
  5
40B6
330
1A
100
AcDbEntity
  8
SEIHIN
  6
DASHED
 62
     2
100
AcDbLine
 10
231.7531844373315
 20
132.7126407022736
 30
0.0
 11
247.8528738773315
 21
100.5132618233736
 31
0.0
  0
LINE
  5
40B7
330
1A
100
AcDbEntity
  8
SEIHIN
100
AcDbLine
 10
217.8264970673315
 20
133.2492970173736
 30
0.0
 11
233.9261865073315
 21
101.0499181433736
 31
0.0
  0
LINE
  5
40B8
330
1A
100
AcDbEntity
  8
SEIHIN
  6
DASHED
 62
     2
100
AcDbLine
 10
242.9335243273315
 20
98.05358705337368
 30
0.0
 11
226.8338348873315
 21
130.2529659273736
 31
0.0
  0
LINE
  5
40B9
330
1A
100
AcDbEntity
  8
SEIHIN
100
AcDbLine
 10
216.7531844373315
 20
132.7126407022736
 30
0.0
 11
232.8528738773315
 21
100.5132618233736
 31
0.0
  0
LINE
  5
40BB
330
1A
100
AcDbEntity
  8
SEIHIN
100
AcDbLine
 10
233.9261865073315
 20
101.0499181433736
 30
0.0
 11
227.9335243273315
 21
98.05358705337368
 31
0.0
  0
LINE
  5
40BC
330
1A
100
AcDbEntity
  8
SEIHIN
  6
DASHED
 62
     2
100
AcDbLine
 10
248.9261865073315
 20
101.0499181433736
 30
0.0
 11
242.9335243273315
 21
98.05358705337368
 31
0.0
  0
ARC
  5
40BD
330
1A
100
AcDbEntity
  8
SEIHIN
  6
DASHED
 62
     2
100
AcDbCircle
 10
221.6461571873315
 20
134.3673310053736
 30
0.0
 40
10.00000000249528
100
AcDbArc
 50
52.40698405646498
 51
170.7918456103775
  0
ARC
  5
40BE
330
1A
100
AcDbEntity
  8
SEIHIN
  6
DASHED
 62
     2
100
AcDbCircle
 10
221.6461571873315
 20
134.3673310053736
 30
0.0
 40
4.000000003240691
100
AcDbArc
 50
26.56506216954043
 51
170.7918456269571
  0
LINE
  5
40BF
330
1A
100
AcDbEntity
  8
SEIHIN
  6
DASHED
 62
     2
100
AcDbLine
 10
227.7466430228181
 20
142.2909711171488
 30
0.0
 11
232.3792834773315
 21
133.0256902191736
 31
0.0
  0
LINE
  5
40C0
330
1A
100
AcDbEntity
  8
SEIHIN
  6
DASHED
 62
     2
100
AcDbLine
 10
225.2238656073314
 20
136.1561860733736
 30
0.0
 11
227.9071475173314
 21
130.7896222413737
 31
0.0
  0
LINE
  5
40C1
330
1A
100
AcDbEntity
  8
SEIHIN
  6
DASHED
 62
     2
100
AcDbLine
 10
226.8338348873315
 20
130.2529659273736
 30
0.0
 11
232.8264970673314
 21
133.2492970173736
 31
0.0
  0
LINE
  5
40C3
330
1A
100
AcDbEntity
  8
SEIHIN
100
AcDbLine
 10
212.7466430228181
 20
142.2909711171489
 30
0.0
 11
217.3792834773315
 21
133.0256902191736
 31
0.0
  0
LINE
  5
40C4
330
1A
100
AcDbEntity
  8
SEIHIN
100
AcDbLine
 10
210.2238656073315
 20
136.1561860733736
 30
0.0
 11
212.9071475173315
 21
130.7896222413737
 31
0.0
  0
LINE
  5
40C5
330
1A
100
AcDbEntity
  8
SEIHIN
100
AcDbLine
 10
211.8338348873315
 20
130.2529659273736
 30
0.0
 11
217.8264970673315
 21
133.2492970173736
 31
0.0
  0
LINE
  5
4143
330
1A
100
AcDbEntity
  8
SEIHIN
100
AcDbLine
 10
125.7795972373315
 20
126.4764763823736
 30
0.0
 11
195.9097782673315
 21
135.1350233233736
 31
0.0
  0
LINE
  5
414C
330
1A
100
AcDbEntity
  8
SEIHIN
100
AcDbLine
 10
127.5886305373315
 20
120.6535387833736
 30
0.0
 11
196.6425947773315
 21
129.1936917453736
 31
0.0
  0
ARC
  5
4167
330
1A
100
AcDbEntity
  8
SEIHIN
100
AcDbCircle
 10
195.7879086773315
 20
136.1275694443736
 30
0.0
 40
0.9999999994877491
100
AcDbArc
 50
277.0000142374854
 51
350.7918456181773
  0
LINE
  5
4171
330
1A
100
AcDbEntity
  8
SEIHIN
100
AcDbLine
 10
109.4812595373315
 20
104.4862555533736
 30
0.0
 11
117.2334252373315
 21
120.3805508133736
 31
0.0
  0
LINE
  5
4172
330
1A
100
AcDbEntity
  8
SEIHIN
100
AcDbLine
 10
110.8597578373315
 20
93.62556389337369
 30
0.0
 11
122.1501575373315
 21
116.7743137433736
 31
0.0
  0
LINE
  5
4173
330
1A
100
AcDbEntity
  8
SEIHIN
100
AcDbLine
 10
108.7018418373315
 20
105.5740715033736
 30
0.0
 11
111.5895048373315
 21
108.6403529233736
 31
0.0
  0
LINE
  5
4175
330
1A
100
AcDbEntity
  8
SEIHIN
100
AcDbLine
 10
108.8095008373315
 20
105.6883898333736
 30
0.0
 11
111.2934054373315
 21
108.3259380333736
 31
0.0
  0
ARC
  5
4176
330
1A
100
AcDbEntity
  8
SEIHIN
100
AcDbCircle
 10
102.4193893373315
 20
101.7518793933736
 30
0.0
 40
9.89999994344371
100
AcDbArc
 50
135.9085672061389
 51
170.5325542265418
  0
LINE
  5
41A9
330
1A
100
AcDbEntity
  8
SEIHIN
100
AcDbLine
 10
122.5266798373315
 20
125.5534644693736
 30
0.0
 11
123.6775372373315
 21
129.3177492703736
 31
0.0
  0
LINE
  5
41AA
330
1A
100
AcDbEntity
  8
SEIHIN
100
AcDbLine
 10
123.9456839373315
 20
126.0904534213737
 30
0.0
 11
124.8251029373315
 21
128.9669032243736
 31
0.0
  0
ARC
  5
41AB
330
1A
100
AcDbEntity
  8
SEIHIN
100
AcDbCircle
 10
128.4417159373315
 20
113.7057157233736
 30
0.0
 40
7.000000031489973
100
AcDbArc
 50
96.99999997032122
 51
154.0000003277073
  0
ARC
  5
41AC
330
1A
100
AcDbEntity
  8
SEIHIN
100
AcDbCircle
 10
127.1201600373315
 20
115.5584687133736
 30
0.0
 40
11.00000001967632
100
AcDbArc
 50
97.00000011594648
 51
154.0000030732914
  0
LINE
  5
41AD
330
1A
100
AcDbEntity
  8
SEIHIN
100
AcDbLine
 10
124.8251029373315
 20
128.9669032243736
 30
0.0
 11
123.6775372373315
 21
129.3177492703736
 31
0.0
  0
LINE
  5
41AE
330
1A
100
AcDbEntity
  8
SEIHIN
100
AcDbLine
 10
112.5803598373315
 20
110.8403529233737
 30
0.0
 11
95.30890893733158
 21
110.8403529233737
 31
0.0
  0
LINE
  5
41AF
330
1A
100
AcDbEntity
  8
SEIHIN
100
AcDbLine
 10
95.30890893733158
 20
108.6403529233736
 30
0.0
 11
95.30890893733158
 21
109.8403529233737
 31
0.0
  0
LINE
  5
41B0
330
1A
100
AcDbEntity
  8
SEIHIN
100
AcDbLine
 10
95.30890893733158
 20
109.8403529233737
 30
0.0
 11
95.30890893733158
 21
110.8403529233737
 31
0.0
  0
DIMENSION
  5
44AB
330
1A
100
AcDbEntity
  8
SUNPOU
100
AcDbDimension
  2
*D14
 10
216.174884510447
 20
92.17426714383591
 30
0.0
 11
210.3611077678635
 21
109.3919905697524
 31
0.0
 70
    33
  3
STANDARD
100
AcDbAlignedDimension
 13
211.8338348873315
 23
130.2529659273736
 33
0.0
 14
227.9335243273315
 24
98.05358705337368
 34
0.0
1001
ACAD
1000
DSTYLE
1002
{
1070
    41
1040
3.0
1070
    42
1040
3.0
1070
    43
1040
7.0
1070
    44
1040
1.5
1070
    73
1070
     0
1070
    74
1070
     0
1070
    77
1070
     3
1070
   140
1040
3.0
1070
   141
1040
3.0
1070
   147
1040
1.0
1070
   172
1070
     1
1070
   173
1070
     1
1070
   176
1070
   256
1070
   177
1070
   256
1070
   178
1070
   256
1070
   271
1070
     0
1070
   272
1070
     0
1070
   341
1005
B2
1070
     6
1000
OPEN
1070
     7
1000
OPEN
1002
}
  0
DIMENSION
  5
44CA
330
1A
100
AcDbEntity
  8
SUNPOU
100
AcDbDimension
  2
*D15
 10
35.07439519068199
 20
101.0499181433737
 30
0.0
 11
32.57439519068198
 21
109.0499181433737
 31
0.0
 70
    32
  3
STANDARD
100
AcDbAlignedDimension
 13
63.99685783219076
 23
98.19035120223903
 33
0.0
 14
233.9261865073315
 24
101.0499181433736
 34
0.0
 50
90.0
100
AcDbRotatedDimension
1001
ACAD
1000
DSTYLE
1002
{
1070
    41
1040
3.0
1070
    42
1040
3.0
1070
    43
1040
7.0
1070
    44
1040
1.5
1070
    73
1070
     0
1070
    74
1070
     0
1070
    77
1070
     3
1070
   140
1040
3.0
1070
   141
1040
3.0
1070
   147
1040
1.0
1070
   172
1070
     1
1070
   173
1070
     1
1070
   176
1070
   256
1070
   177
1070
   256
1070
   178
1070
   256
1070
   271
1070
     0
1070
   272
1070
     0
1070
   341
1005
B2
1070
     6
1000
OPEN
1070
     7
1000
OPEN
1002
}
  0
LINE
  5
4547
330
1A
100
AcDbEntity
  8
SEIHIN
100
AcDbLine
 10
118.4025299812642
 20
218.6238297005791
 30
0.0
 11
118.4025299812642
 21
217.6238297005792
 31
0.0
  0
LINE
  5
4548
330
1A
100
AcDbEntity
  8
SEIHIN
100
AcDbLine
 10
118.4025299812642
 20
204.6238296605792
 30
0.0
 11
118.4025299812642
 21
203.6238296605791
 31
0.0
  0
LINE
  5
45F4
330
1A
100
AcDbEntity
  8
SUNPOU
100
AcDbLine
 10
233.9261865073315
 20
101.0499181433736
 30
0.0
 11
248.2109534201768
 21
72.48038432566854
 31
0.0
  0
LINE
  5
45F5
330
1A
100
AcDbEntity
  8
SUNPOU
100
AcDbLine
 10
243.2109534201768
 20
72.48038432566854
 30
0.0
 11
243.2109534201768
 21
82.48038432566854
 31
0.0
  0
TEXT
  5
45F6
330
1A
100
AcDbEntity
  8
SUNPOU
100
AcDbText
 10
244.2170300725695
 20
67.39698754527093
 30
0.0
 40
3.0
  1
5
100
AcDbText
  0
LINE
  5
45F7
330
1A
100
AcDbEntity
  8
SUNPOU
100
AcDbLine
 10
248.2109534201768
 20
72.48038432566854
 30
0.0
 11
243.2109534201768
 21
72.48038432566854
 31
0.0
  0
TEXT
  5
45F8
330
1A
100
AcDbEntity
  8
SUNPOU
100
AcDbText
 10
238.118119616043
 20
74.9102881562742
 30
0.0
 40
3.0
  1
10
100
AcDbText
  0
LINE
  5
472A
330
1A
100
AcDbEntity
  8
ZUWAKU
100
AcDbLine
 10
104.3233009651347
 20
7.600000176923909
 30
0.0
 11
223.7121823055964
 21
7.600000176923906
 31
0.0
  0
LINE
  5
472B
330
1A
100
AcDbEntity
  8
ZUWAKU
100
AcDbLine
 10
104.3233009651347
 20
7.800000176923907
 30
0.0
 11
223.7121823055964
 21
7.80000017692391
 31
0.0
  0
LINE
  5
472C
330
1A
100
AcDbEntity
  8
ZUWAKU
100
AcDbLine
 10
104.3233009651347
 20
7.700000176923907
 30
0.0
 11
223.7121823055964
 21
7.700000176923907
 31
0.0
  0
LINE
  5
472D
330
1A
100
AcDbEntity
  8
ZUWAKU
100
AcDbLine
 10
0.000000320100753
 20
15.40000017692389
 30
0.0
 11
398.7000003201007
 21
15.40000017692389
 31
0.0
  0
LINE
  5
472E
330
1A
100
AcDbEntity
  8
ZUWAKU
100
AcDbLine
 10
0.000000320100753
 20
15.30000017692389
 30
0.0
 11
398.7000003201007
 21
15.30000017692389
 31
0.0
  0
LINE
  5
472F
330
1A
100
AcDbEntity
  8
ZUWAKU
100
AcDbLine
 10
0.000000320100753
 20
15.20000017692389
 30
0.0
 11
398.7000003201007
 21
15.20000017692389
 31
0.0
  0
LINE
  5
4730
330
1A
100
AcDbEntity
  8
ZUWAKU
100
AcDbLine
 10
0.000000320100753
 20
15.10000017692389
 30
0.0
 11
398.7000003201007
 21
15.10000017692389
 31
0.0
  0
LINE
  5
4731
330
1A
100
AcDbEntity
  8
ZUWAKU
100
AcDbLine
 10
0.000000320100753
 20
15.00000017692389
 30
0.0
 11
398.7000003201007
 21
15.00000017692389
 31
0.0
  0
LWPOLYLINE
  5
4732
330
1A
100
AcDbEntity
  8
ZUWAKU
100
AcDbPolyline
 90
        4
 70
     1
 43
0.0
 10
0.1000003201007189
 20
275.7000001769239
 10
0.1000003201007189
 20
0.1000001769239134
 10
398.7000003201007
 20
0.1000001769239249
 10
398.7000003201007
 20
275.7000001769239
  0
LWPOLYLINE
  5
4733
330
1A
100
AcDbEntity
  8
ZUWAKU
100
AcDbPolyline
 90
        4
 70
     1
 43
0.0
 10
0.3000003201007075
 20
275.5000001769239
 10
0.3000003201007075
 20
0.300000176923902
 10
398.5000003201008
 20
0.3000001769239251
 10
398.5000003201007
 20
275.5000001769239
  0
LWPOLYLINE
  5
4734
330
1A
100
AcDbEntity
  8
ZUWAKU
100
AcDbPolyline
 90
        4
 70
     1
 43
0.0
 10
0.000000320100753
 20
275.8000001769238
 10
0.000000320100753
 20
0.0000001769238906
 10
398.8000003201008
 20
0.0000001769239244
 10
398.8000003201008
 20
275.8000001769239
  0
LWPOLYLINE
  5
4735
330
1A
100
AcDbEntity
  8
ZUWAKU
100
AcDbPolyline
 90
        4
 70
     1
 43
0.0
 10
0.2000003201007416
 20
275.6000001769239
 10
0.2000003201007416
 20
0.2000001769239361
 10
398.6000003201007
 20
0.2000001769239246
 10
398.6000003201007
 20
275.6000001769239
  0
LWPOLYLINE
  5
4736
330
1A
100
AcDbEntity
  8
ZUWAKU
100
AcDbPolyline
 90
        4
 70
     1
 43
0.0
 10
0.4000003201007303
 20
275.4000001769239
 10
0.4000003201007303
 20
0.4000001769239248
 10
398.4000003201007
 20
0.4000001769239248
 10
398.4000003201007
 20
275.4000001769239
  0
TEXT
  5
4737
330
1A
100
AcDbEntity
  8
MOJI
100
AcDbText
 10
46.47889511418532
 20
6.370589242061271
 30
0.0
 40
3.0
  1
新・丸トップＲＶ１０５
 41
0.9
  7
ｽﾀｲﾙ1
100
AcDbText
  0
HATCH
  5
4738
330
1A
100
AcDbEntity
  8
ZUWAKU
100
AcDbHatch
 10
0.0
 20
0.0
 30
0.0
210
0.0
220
0.0
230
1.0
  2
ANSI37
 70
     0
 71
     0
 91
        8
 92
        7
 72
     1
 73
     1
 93
       24
 10
7.251131650660681
 20
8.822424417415682
 42
-0.1989123673796348
 10
7.046106397491314
 20
9.317399164246207
 42
0.0
 10
7.046106397491314
 20
9.962500176923896
 42
-0.4142135623730912
 10
7.308606397491303
 20
10.22500017692389
 42
0.0
 10
8.796106397491257
 20
10.22500017692389
 42
0.4142135623731546
 10
9.058606397491303
 20
10.48750017692388
 42
0.0
 10
9.058606397491303
 20
11.36250017692389
 42
0.4142135623731586
 10
8.796106397491257
 20
11.62500017692389
 42
0.0
 10
7.046106397491314
 20
11.62500017692389
 42
0.4142135623730928
 10
5.646106397491337
 20
10.2250001769239
 42
0.0
 10
5.646106397491337
 20
9.317399164246271
 42
0.1989123673796619
 10
6.261182156999552
 20
7.832474923754467
 42
0.0
 10
7.71608114432189
 20
6.377575936432139
 42
-0.1989123673796613
 10
7.921106397491314
 20
5.882601189601546
 42
0.0
 10
7.921106397491314
 20
5.237500176923887
 42
-0.4142135623730911
 10
7.658606397491325
 20
4.975000176923892
 42
0.0
 10
6.171106397491371
 20
4.975000176923892
 42
0.4142135623731526
 10
5.908606397491325
 20
4.712500176923898
 42
0.0
 10
5.908606397491325
 20
3.837500176923887
 42
0.4142135623731526
 10
6.171106397491371
 20
3.575000176923893
 42
0.0
 10
7.921106397491314
 20
3.575000176923893
 42
0.4142135623731044
 10
9.321106397491348
 20
4.975000176923881
 42
0.0
 10
9.321106397491348
 20
5.882601189601517
 42
0.1989123673796604
 10
8.706030637983076
 20
7.367525430093287
 42
0.0
 97
        0
 92
        7
 72
     1
 73
     1
 93
       16
 10
11.77110639749133
 20
9.525000176923896
 42
-0.4142135623730935
 10
12.47110639749132
 20
10.22500017692389
 42
0.0
 10
13.4336063974913
 20
10.22500017692389
 42
0.4142135623731546
 10
13.69610639749134
 20
10.48750017692388
 42
0.0
 10
13.69610639749134
 20
11.36250017692389
 42
0.4142135623730951
 10
13.43360639749135
 20
11.62500017692389
 42
0.0
 10
12.47110639749126
 20
11.62500017692387
 42
0.4142135623730892
 10
10.3711063974913
 20
9.52500017692386
 42
0.0
 10
10.3711063974913
 20
5.675000176923905
 42
0.4142135623730969
 10
12.47110639749132
 20
3.575000176923893
 42
0.0
 10
13.4336063974913
 20
3.575000176923893
 42
0.4142135623731526
 10
13.69610639749134
 20
3.837500176923887
 42
0.0
 10
13.69610639749134
 20
4.712500176923898
 42
0.4142135623730891
 10
13.43360639749135
 20
4.975000176923892
 42
0.0
 10
12.47110639749132
 20
4.975000176923892
 42
-0.4142135623730928
 10
11.77110639749133
 20
5.675000176923886
 42
0.0
 97
        0
 92
        7
 72
     1
 73
     1
 93
        2
 10
12.1211063974913
 20
7.600000176923892
 42
1.0
 10
13.8711063974913
 20
7.600000176923892
 42
1.0
 97
        0
 92
        7
 72
     1
 73
     1
 93
       26
 10
18.65742963858031
 20
9.602523773705605
 42
0.0
 10
19.18824945514922
 20
11.2834531928404
 42
0.5069206636600134
 10
18.93793400555153
 20
11.62500017692389
 42
0.0
 10
18.08848931574692
 20
11.62500017692389
 42
0.3272098845218764
 10
17.83817386614924
 20
11.44154716100737
 42
0.0
 10
16.90403892883336
 20
8.483453192840432
 42
-0.3272098845219541
 10
16.65372347923562
 20
8.300000176923891
 42
0.0
 10
16.58360639749139
 20
8.300000176923891
 42
-0.4142135623731526
 10
16.32110639749134
 20
8.562500176923885
 42
0.0
 10
16.32110639749134
 20
11.36250017692389
 42
0.4142135623730951
 10
16.05860639749136
 20
11.62500017692389
 42
0.0
 10
15.1836063974913
 20
11.62500017692389
 42
0.4142135623730871
 10
14.92110639749131
 20
11.3625001769239
 42
0.0
 10
14.92110639749131
 20
3.837500176923887
 42
0.4142135623730891
 10
15.1836063974913
 20
3.575000176923893
 42
0.0
 10
16.0586063974913
 20
3.575000176923893
 42
0.4142135623731526
 10
16.32110639749134
 20
3.837500176923887
 42
0.0
 10
16.32110639749134
 20
6.637500176923898
 42
-0.4142135623731526
 10
16.58360639749139
 20
6.900000176923892
 42
0.0
 10
16.65372347923567
 20
6.900000176923892
 42
-0.3272098845218915
 10
16.90403892883336
 20
6.716547161007355
 42
0.0
 10
17.83817386614924
 20
3.758453192840429
 42
0.3272098845218902
 10
18.08848931574692
 20
3.575000176923893
 42
0.0
 10
18.93793400555153
 20
3.575000176923893
 42
0.5069206636600335
 10
19.18824945514922
 20
3.916547161007397
 42
0.0
 10
18.02505376591239
 20
7.600000176923961
 42
0.0
 97
        0
 92
        7
 72
     1
 73
     1
 93
        8
 10
21.7461063974913
 20
11.36250017692389
 42
0.4142135623731546
 10
21.48360639749125
 20
11.62500017692389
 42
0.0
 10
20.60860639749137
 20
11.62500017692389
 42
0.4142135623731507
 10
20.34610639749132
 20
11.3625001769239
 42
0.0
 10
20.34610639749132
 20
3.837500176923887
 42
0.4142135623731526
 10
20.60860639749137
 20
3.575000176923893
 42
0.0
 10
21.48360639749125
 20
3.575000176923893
 42
0.4142135623731526
 10
21.7461063974913
 20
3.837500176923887
 42
0.0
 97
        0
 92
        7
 72
     1
 73
     1
 93
       24
 10
24.19610639749135
 20
9.962500176923896
 42
-0.4142135623731546
 10
24.45860639749139
 20
10.22500017692389
 42
0.0
 10
25.94610639749134
 20
10.22500017692389
 42
0.4142135623730911
 10
26.20860639749134
 20
10.48750017692388
 42
0.0
 10
26.20860639749134
 20
11.36250017692389
 42
0.4142135623730952
 10
25.94610639749134
 20
11.62500017692389
 42
0.0
 10
24.19610639749135
 20
11.62500017692389
 42
0.4142135623731048
 10
22.79610639749131
 20
10.2250001769239
 42
0.0
 10
22.79610639749131
 20
9.317399164246271
 42
0.1989123673796613
 10
23.41118215699958
 20
7.832474923754496
 42
0.0
 10
24.86608114432192
 20
6.377575936432162
 42
-0.1989123673796402
 10
25.07110639749134
 20
5.882601189601626
 42
0.0
 10
25.07110639749134
 20
5.237500176923887
 42
-0.4142135623730911
 10
24.80860639749136
 20
4.975000176923892
 42
0.0
 10
23.32110639749135
 20
4.975000176923892
 42
0.4142135623731526
 10
23.0586063974913
 20
4.712500176923898
 42
0.0
 10
23.0586063974913
 20
3.837500176923887
 42
0.4142135623730891
 10
23.32110639749129
 20
3.575000176923893
 42
0.0
 10
25.07110639749134
 20
3.575000176923893
 42
0.4142135623730925
 10
26.47110639749132
 20
4.975000176923881
 42
0.0
 10
26.47110639749132
 20
5.882601189601517
 42
0.1989123673796675
 10
25.85603063798305
 20
7.367525430093344
 42
0.0
 10
24.40113165066077
 20
8.822424417415602
 42
-0.1989123673796652
 10
24.19610639749135
 20
9.317399164246186
 42
0.0
 97
        0
 92
        7
 72
     1
 73
     1
 93
       16
 10
28.92110639749131
 20
11.36250017692388
 42
0.414213562373103
 10
28.65860639749132
 20
11.62500017692389
 42
0.0
 10
27.78360639749132
 20
11.62500017692389
 42
0.4142135623730871
 10
27.52110639749133
 20
11.3625001769239
 42
0.0
 10
27.52110639749133
 20
4.975000176923881
 42
0.4142135623730926
 10
28.92110639749131
 20
3.575000176923893
 42
0.0
 10
30.67110639749131
 20
3.575000176923893
 42
0.4142135623731044
 10
32.07110639749135
 20
4.975000176923881
 42
0.0
 10
32.07110639749135
 20
11.36250017692389
 42
0.4142135623730951
 10
31.80860639749136
 20
11.62500017692389
 42
0.0
 10
30.9336063974913
 20
11.62500017692389
 42
0.4142135623730871
 10
30.67110639749131
 20
11.3625001769239
 42
0.0
 10
30.67110639749131
 20
5.500000176923879
 42
-0.414213562373088
 10
30.14610639749133
 20
4.975000176923892
 42
0.0
 10
29.44610639749134
 20
4.975000176923892
 42
-0.4142135623731197
 10
28.92110639749131
 20
5.500000176923879
 42
0.0
 97
        0
 92
        7
 72
     1
 73
     1
 93
        8
 10
34.52110639749133
 20
11.3625001769239
 42
0.4142135623730871
 10
34.25860639749135
 20
11.62500017692389
 42
0.0
 10
33.38360639749135
 20
11.62500017692389
 42
0.4142135623731507
 10
33.1211063974913
 20
11.3625001769239
 42
0.0
 10
33.1211063974913
 20
3.837500176923887
 42
0.4142135623730891
 10
33.38360639749129
 20
3.575000176923893
 42
0.0
 10
34.25860639749135
 20
3.575000176923893
 42
0.4142135623730891
 10
34.52110639749133
 20
3.837500176923887
 42
0.0
 97
        0
 75
     0
 76
     1
 52
0.0
 41
0.1
 77
     0
 78
     2
 53
45.0
 43
-450.4711518472387
 44
-6.599999823076075
 45
-0.2245064030267288
 46
0.2245064030267288
 79
     0
 53
135.0
 43
-450.4711518472387
 44
-6.599999823076075
 45
-0.2245064030267288
 46
-0.2245064030267288
 79
     0
 47
0.057451373970553
 98
        8
 10
8.039927801612407
 20
7.583586999866668
 10
11.20225782332033
 20
9.422031268149396
 10
12.58218426293058
 20
7.75594099995925
 10
15.45703031091932
 20
8.100649000144642
 10
20.91923632957912
 20
8.33045513391545
 10
23.44910076766552
 20
9.709288335127496
 10
28.27884330630093
 20
9.364579134471398
 10
33.91354012991212
 20
9.594385268242206
  0
LINE
  5
4739
330
1A
100
AcDbEntity
  8
ZUWAKU
100
AcDbLine
 10
12.47110639749132
 20
11.62500017692387
 30
0.0
 11
13.4336063974913
 21
11.62500017692389
 31
0.0
  0
LINE
  5
473A
330
1A
100
AcDbEntity
  8
ZUWAKU
100
AcDbLine
 10
13.4336063974913
 20
10.22500017692389
 30
0.0
 11
12.47110639749132
 21
10.22500017692389
 31
0.0
  0
LINE
  5
473B
330
1A
100
AcDbEntity
  8
ZUWAKU
100
AcDbLine
 10
12.47110639749132
 20
4.975000176923892
 30
0.0
 11
13.4336063974913
 21
4.975000176923892
 31
0.0
  0
LINE
  5
473C
330
1A
100
AcDbEntity
  8
ZUWAKU
100
AcDbLine
 10
13.4336063974913
 20
3.575000176923893
 30
0.0
 11
12.47110639749132
 21
3.575000176923893
 31
0.0
  0
CIRCLE
  5
473D
330
1A
100
AcDbEntity
  8
ZUWAKU
100
AcDbCircle
 10
12.9961063974913
 20
7.600000176923892
 30
0.0
 40
0.875
  0
ARC
  5
473E
330
1A
100
AcDbEntity
  8
ZUWAKU
100
AcDbCircle
 10
7.746106397491303
 20
9.317399164246243
 30
0.0
 40
0.7
100
AcDbArc
 50
180.0000000000016
 51
224.9999999999988
  0
LINE
  5
473F
330
1A
100
AcDbEntity
  8
ZUWAKU
100
AcDbLine
 10
11.77110639749133
 20
9.525000176923892
 30
0.0
 11
11.77110639749133
 21
5.675000176923894
 31
0.0
  0
LINE
  5
4740
330
1A
100
AcDbEntity
  8
ZUWAKU
100
AcDbLine
 10
10.3711063974913
 20
5.675000176923894
 30
0.0
 11
10.3711063974913
 21
9.525000176923871
 31
0.0
  0
ARC
  5
4741
330
1A
100
AcDbEntity
  8
ZUWAKU
100
AcDbCircle
 10
7.746106397491303
 20
9.317399164246243
 30
0.0
 40
2.099999999999999
100
AcDbArc
 50
180.0
 51
225.0
  0
ARC
  5
4742
330
1A
100
AcDbEntity
  8
ZUWAKU
100
AcDbCircle
 10
7.921106397491314
 20
4.975000176923892
 30
0.0
 40
1.399999999999999
100
AcDbArc
 50
270.0
 51
0.0
  0
ARC
  5
4743
330
1A
100
AcDbEntity
  8
ZUWAKU
100
AcDbCircle
 10
12.47110639749132
 20
5.675000176923894
 30
0.0
 40
2.099999999999999
100
AcDbArc
 50
180.0
 51
270.0
  0
ARC
  5
4744
330
1A
100
AcDbEntity
  8
ZUWAKU
100
AcDbCircle
 10
7.221106397491325
 20
5.882601189601544
 30
0.0
 40
2.099999999999999
100
AcDbArc
 50
0.0
 51
45.0
  0
LINE
  5
4745
330
1A
100
AcDbEntity
  8
ZUWAKU
100
AcDbLine
 10
8.706030637983076
 20
7.367525430093305
 30
0.0
 11
7.251131650660738
 21
8.822424417415643
 31
0.0
  0
LINE
  5
4746
330
1A
100
AcDbEntity
  8
ZUWAKU
100
AcDbLine
 10
7.921106397491314
 20
5.237500176923894
 30
0.0
 11
7.921106397491314
 21
5.882601189601565
 31
0.0
  0
ARC
  5
4747
330
1A
100
AcDbEntity
  8
ZUWAKU
100
AcDbCircle
 10
7.658606397491325
 20
5.237500176923894
 30
0.0
 40
0.2625
100
AcDbArc
 50
270.0
 51
0.0
  0
ARC
  5
4748
330
1A
100
AcDbEntity
  8
ZUWAKU
100
AcDbCircle
 10
7.221106397491325
 20
5.882601189601565
 30
0.0
 40
0.7
100
AcDbArc
 50
0.0
 51
45.0
  0
LINE
  5
4749
330
1A
100
AcDbEntity
  8
ZUWAKU
100
AcDbLine
 10
5.908606397491325
 20
3.837500176923892
 30
0.0
 11
5.908606397491325
 21
4.712500176923892
 31
0.0
  0
ARC
  5
474A
330
1A
100
AcDbEntity
  8
ZUWAKU
100
AcDbCircle
 10
6.171106397491314
 20
3.837500176923892
 30
0.0
 40
0.2625
100
AcDbArc
 50
180.0
 51
270.0
  0
ARC
  5
474B
330
1A
100
AcDbEntity
  8
ZUWAKU
100
AcDbCircle
 10
6.171106397491314
 20
4.712500176923892
 30
0.0
 40
0.2625
100
AcDbArc
 50
90.0
 51
180.0
  0
LINE
  5
474C
330
1A
100
AcDbEntity
  8
ZUWAKU
100
AcDbLine
 10
6.171106397491314
 20
3.575000176923893
 30
0.0
 11
7.921106397491314
 21
3.575000176923893
 31
0.0
  0
LINE
  5
474D
330
1A
100
AcDbEntity
  8
ZUWAKU
100
AcDbLine
 10
6.171106397491314
 20
4.975000176923892
 30
0.0
 11
7.658606397491325
 21
4.975000176923892
 31
0.0
  0
LINE
  5
474E
330
1A
100
AcDbEntity
  8
ZUWAKU
100
AcDbLine
 10
6.261182156999552
 20
7.832474923754482
 30
0.0
 11
7.71608114432189
 21
6.377575936432151
 31
0.0
  0
LINE
  5
474F
330
1A
100
AcDbEntity
  8
ZUWAKU
100
AcDbLine
 10
9.321106397491348
 20
4.975000176923892
 30
0.0
 11
9.321106397491348
 21
5.882601189601565
 31
0.0
  0
ARC
  5
4750
330
1A
100
AcDbEntity
  8
ZUWAKU
100
AcDbCircle
 10
12.47110639749132
 20
5.675000176923894
 30
0.0
 40
0.7
100
AcDbArc
 50
180.0
 51
270.0
  0
ARC
  5
4751
330
1A
100
AcDbEntity
  8
ZUWAKU
100
AcDbCircle
 10
8.796106397491314
 20
11.36250017692389
 30
0.0
 40
0.2625
100
AcDbArc
 50
0.0
 51
90.0
  0
ARC
  5
4752
330
1A
100
AcDbEntity
  8
ZUWAKU
100
AcDbCircle
 10
8.796106397491314
 20
10.48750017692389
 30
0.0
 40
0.2625
100
AcDbArc
 50
270.0
 51
0.0
  0
LINE
  5
4753
330
1A
100
AcDbEntity
  8
ZUWAKU
100
AcDbLine
 10
7.046106397491314
 20
11.62500017692389
 30
0.0
 11
8.796106397491314
 21
11.62500017692389
 31
0.0
  0
ARC
  5
4754
330
1A
100
AcDbEntity
  8
ZUWAKU
100
AcDbCircle
 10
7.308606397491303
 20
9.962500176923892
 30
0.0
 40
0.2625
100
AcDbArc
 50
90.0
 51
180.0
  0
LINE
  5
4755
330
1A
100
AcDbEntity
  8
ZUWAKU
100
AcDbLine
 10
7.046106397491314
 20
9.962500176923892
 30
0.0
 11
7.046106397491314
 21
9.317399164246221
 31
0.0
  0
LINE
  5
4756
330
1A
100
AcDbEntity
  8
ZUWAKU
100
AcDbLine
 10
8.796106397491314
 20
10.22500017692389
 30
0.0
 11
7.308606397491303
 21
10.22500017692389
 31
0.0
  0
LINE
  5
4757
330
1A
100
AcDbEntity
  8
ZUWAKU
100
AcDbLine
 10
5.646106397491337
 20
10.22500017692389
 30
0.0
 11
5.646106397491337
 21
9.317399164246221
 31
0.0
  0
ARC
  5
4758
330
1A
100
AcDbEntity
  8
ZUWAKU
100
AcDbCircle
 10
7.046106397491314
 20
10.22500017692389
 30
0.0
 40
1.399999999999999
100
AcDbArc
 50
90.0
 51
180.0
  0
LINE
  5
4759
330
1A
100
AcDbEntity
  8
ZUWAKU
100
AcDbLine
 10
9.058606397491303
 20
11.36250017692389
 30
0.0
 11
9.058606397491303
 21
10.48750017692389
 31
0.0
  0
ARC
  5
475A
330
1A
100
AcDbEntity
  8
ZUWAKU
100
AcDbCircle
 10
12.47110639749132
 20
9.525000176923892
 30
0.0
 40
0.7
100
AcDbArc
 50
90.0
 51
180.0
  0
ARC
  5
475B
330
1A
100
AcDbEntity
  8
ZUWAKU
100
AcDbCircle
 10
12.47110639749132
 20
9.525000176923871
 30
0.0
 40
2.099999999999999
100
AcDbArc
 50
90.0
 51
180.0
  0
LINE
  5
475C
330
1A
100
AcDbEntity
  8
ZUWAKU
100
AcDbLine
 10
39.66331509409485
 20
15.00000017692389
 30
0.0
 11
39.66331509409497
 21
0.4000001769239248
 31
0.0
  0
LINE
  5
475D
330
1A
100
AcDbEntity
  8
ZUWAKU
100
AcDbLine
 10
39.76331509409487
 20
15.00000017692389
 30
0.0
 11
39.76331509409499
 21
0.4000001769239248
 31
0.0
  0
LINE
  5
475E
330
1A
100
AcDbEntity
  8
ZUWAKU
100
AcDbLine
 10
39.56331509409494
 20
15.00000017692389
 30
0.0
 11
39.56331509409494
 21
0.4000001769239248
 31
0.0
  0
LINE
  5
475F
330
1A
100
AcDbEntity
  8
ZUWAKU
100
AcDbLine
 10
32.07110639749135
 20
4.975000176923892
 30
0.0
 11
32.07110639749135
 21
11.36250017692389
 31
0.0
  0
LINE
  5
4760
330
1A
100
AcDbEntity
  8
ZUWAKU
100
AcDbLine
 10
30.67110639749131
 20
11.36250017692389
 30
0.0
 11
30.67110639749131
 21
5.50000017692389
 31
0.0
  0
LINE
  5
4761
330
1A
100
AcDbEntity
  8
ZUWAKU
100
AcDbLine
 10
34.52110639749133
 20
3.837500176923892
 30
0.0
 11
34.52110639749133
 21
11.36250017692389
 31
0.0
  0
LINE
  5
4762
330
1A
100
AcDbEntity
  8
ZUWAKU
100
AcDbLine
 10
33.1211063974913
 20
11.36250017692389
 30
0.0
 11
33.1211063974913
 21
3.837500176923892
 31
0.0
  0
ARC
  5
4763
330
1A
100
AcDbEntity
  8
ZUWAKU
100
AcDbCircle
 10
24.89610639749133
 20
9.317399164246243
 30
0.0
 40
0.7
100
AcDbArc
 50
180.0000000000016
 51
224.9999999999988
  0
ARC
  5
4764
330
1A
100
AcDbEntity
  8
ZUWAKU
100
AcDbCircle
 10
24.89610639749133
 20
9.317399164246243
 30
0.0
 40
2.099999999999999
100
AcDbArc
 50
180.0
 51
225.0
  0
LINE
  5
4765
330
1A
100
AcDbEntity
  8
ZUWAKU
100
AcDbLine
 10
18.65742963858031
 20
9.602523773705605
 30
0.0
 11
18.02505376591239
 21
7.600000176923902
 31
0.0
  0
LINE
  5
4766
330
1A
100
AcDbEntity
  8
ZUWAKU
100
AcDbLine
 10
20.34610639749132
 20
11.36250017692389
 30
0.0
 11
20.34610639749132
 21
3.837500176923892
 31
0.0
  0
LINE
  5
4767
330
1A
100
AcDbEntity
  8
ZUWAKU
100
AcDbLine
 10
21.7461063974913
 20
3.837500176923892
 30
0.0
 11
21.7461063974913
 21
11.36250017692389
 31
0.0
  0
LINE
  5
4768
330
1A
100
AcDbEntity
  8
ZUWAKU
100
AcDbLine
 10
27.52110639749133
 20
11.36250017692389
 30
0.0
 11
27.52110639749133
 21
4.975000176923892
 31
0.0
  0
LINE
  5
4769
330
1A
100
AcDbEntity
  8
ZUWAKU
100
AcDbLine
 10
28.92110639749131
 20
5.50000017692389
 30
0.0
 11
28.92110639749131
 21
11.36250017692389
 31
0.0
  0
LINE
  5
476A
330
1A
100
AcDbEntity
  8
ZUWAKU
100
AcDbLine
 10
16.32110639749134
 20
8.562500176923894
 30
0.0
 11
16.32110639749134
 21
11.36250017692389
 31
0.0
  0
LINE
  5
476B
330
1A
100
AcDbEntity
  8
ZUWAKU
100
AcDbLine
 10
14.92110639749131
 20
11.36250017692389
 30
0.0
 11
14.92110639749131
 21
3.837500176923892
 31
0.0
  0
LINE
  5
476C
330
1A
100
AcDbEntity
  8
ZUWAKU
100
AcDbLine
 10
17.83817386614924
 20
11.44154716100737
 30
0.0
 11
16.90403892883336
 21
8.483453192840407
 31
0.0
  0
LINE
  5
476D
330
1A
100
AcDbEntity
  8
ZUWAKU
100
AcDbLine
 10
30.14610639749133
 20
4.975000176923892
 30
0.0
 11
29.44610639749134
 21
4.975000176923892
 31
0.0
  0
LINE
  5
476E
330
1A
100
AcDbEntity
  8
ZUWAKU
100
AcDbLine
 10
28.92110639749131
 20
3.575000176923893
 30
0.0
 11
30.67110639749131
 21
3.575000176923893
 31
0.0
  0
LINE
  5
476F
330
1A
100
AcDbEntity
  8
ZUWAKU
100
AcDbLine
 10
20.60860639749131
 20
3.575000176923893
 30
0.0
 11
21.48360639749131
 21
3.575000176923893
 31
0.0
  0
LINE
  5
4770
330
1A
100
AcDbEntity
  8
ZUWAKU
100
AcDbLine
 10
17.83817386614924
 20
3.758453192840406
 30
0.0
 11
16.90403892883336
 21
6.716547161007376
 31
0.0
  0
ARC
  5
4771
330
1A
100
AcDbEntity
  8
ZUWAKU
100
AcDbCircle
 10
16.65372347923567
 20
8.562500176923894
 30
0.0
 40
0.2625
100
AcDbArc
 50
270.0
 51
342.4744316262769
  0
LINE
  5
4772
330
1A
100
AcDbEntity
  8
ZUWAKU
100
AcDbLine
 10
16.65372347923567
 20
8.300000176923891
 30
0.0
 11
16.58360639749133
 21
8.300000176923891
 31
0.0
  0
LINE
  5
4773
330
1A
100
AcDbEntity
  8
ZUWAKU
100
AcDbLine
 10
16.58360639749133
 20
6.900000176923892
 30
0.0
 11
16.65372347923567
 21
6.900000176923892
 31
0.0
  0
ARC
  5
4774
330
1A
100
AcDbEntity
  8
ZUWAKU
100
AcDbCircle
 10
16.58360639749133
 20
8.562500176923894
 30
0.0
 40
0.2625
100
AcDbArc
 50
180.0
 51
270.0
  0
LINE
  5
4775
330
1A
100
AcDbEntity
  8
ZUWAKU
100
AcDbLine
 10
15.1836063974913
 20
3.575000176923893
 30
0.0
 11
16.0586063974913
 21
3.575000176923893
 31
0.0
  0
ARC
  5
4776
330
1A
100
AcDbEntity
  8
ZUWAKU
100
AcDbCircle
 10
16.0586063974913
 20
3.837500176923892
 30
0.0
 40
0.2625
100
AcDbArc
 50
270.0
 51
0.0
  0
LINE
  5
4777
330
1A
100
AcDbEntity
  8
ZUWAKU
100
AcDbLine
 10
16.32110639749134
 20
3.837500176923892
 30
0.0
 11
16.32110639749134
 21
6.637500176923893
 31
0.0
  0
LINE
  5
4778
330
1A
100
AcDbEntity
  8
ZUWAKU
100
AcDbLine
 10
13.69610639749134
 20
4.712500176923892
 30
0.0
 11
13.69610639749134
 21
3.837500176923892
 31
0.0
  0
ARC
  5
4779
330
1A
100
AcDbEntity
  8
ZUWAKU
100
AcDbCircle
 10
13.4336063974913
 20
3.837500176923892
 30
0.0
 40
0.2625
100
AcDbArc
 50
270.0
 51
0.0
  0
ARC
  5
477A
330
1A
100
AcDbEntity
  8
ZUWAKU
100
AcDbCircle
 10
13.4336063974913
 20
4.712500176923892
 30
0.0
 40
0.2625
100
AcDbArc
 50
0.0
 51
90.0
  0
ARC
  5
477B
330
1A
100
AcDbEntity
  8
ZUWAKU
100
AcDbCircle
 10
15.1836063974913
 20
3.837500176923892
 30
0.0
 40
0.2625
100
AcDbArc
 50
180.0
 51
270.0
  0
ARC
  5
477C
330
1A
100
AcDbEntity
  8
ZUWAKU
100
AcDbCircle
 10
16.65372347923567
 20
6.637500176923893
 30
0.0
 40
0.2625
100
AcDbArc
 50
17.52556837372303
 51
90.0
  0
ARC
  5
477D
330
1A
100
AcDbEntity
  8
ZUWAKU
100
AcDbCircle
 10
16.58360639749133
 20
6.637500176923893
 30
0.0
 40
0.2625
100
AcDbArc
 50
90.0
 51
180.0
  0
ARC
  5
477E
330
1A
100
AcDbEntity
  8
ZUWAKU
100
AcDbCircle
 10
20.60860639749131
 20
3.837500176923892
 30
0.0
 40
0.2625
100
AcDbArc
 50
180.0
 51
270.0
  0
LINE
  5
477F
330
1A
100
AcDbEntity
  8
ZUWAKU
100
AcDbLine
 10
18.08848931574698
 20
3.575000176923893
 30
0.0
 11
18.93793400555148
 21
3.575000176923893
 31
0.0
  0
ARC
  5
4780
330
1A
100
AcDbEntity
  8
ZUWAKU
100
AcDbCircle
 10
18.93793400555148
 20
3.837500176923892
 30
0.0
 40
0.2625
100
AcDbArc
 50
270.0
 51
17.52556837372303
  0
LINE
  5
4781
330
1A
100
AcDbEntity
  8
ZUWAKU
100
AcDbLine
 10
19.18824945514922
 20
3.916547161007379
 30
0.0
 11
18.02505376591239
 21
7.600000176923902
 31
0.0
  0
ARC
  5
4782
330
1A
100
AcDbEntity
  8
ZUWAKU
100
AcDbCircle
 10
18.08848931574698
 20
3.837500176923892
 30
0.0
 40
0.2625
100
AcDbArc
 50
197.525568373723
 51
270.0
  0
ARC
  5
4783
330
1A
100
AcDbEntity
  8
ZUWAKU
100
AcDbCircle
 10
28.92110639749131
 20
4.975000176923892
 30
0.0
 40
1.399999999999999
100
AcDbArc
 50
180.0
 51
270.0
  0
ARC
  5
4784
330
1A
100
AcDbEntity
  8
ZUWAKU
100
AcDbCircle
 10
25.07110639749134
 20
4.975000176923892
 30
0.0
 40
1.399999999999999
100
AcDbArc
 50
270.0
 51
0.0
  0
LINE
  5
4785
330
1A
100
AcDbEntity
  8
ZUWAKU
100
AcDbLine
 10
25.85603063798311
 20
7.367525430093305
 30
0.0
 11
24.40113165066071
 21
8.822424417415643
 31
0.0
  0
LINE
  5
4786
330
1A
100
AcDbEntity
  8
ZUWAKU
100
AcDbLine
 10
25.07110639749134
 20
5.237500176923894
 30
0.0
 11
25.07110639749134
 21
5.882601189601565
 31
0.0
  0
ARC
  5
4787
330
1A
100
AcDbEntity
  8
ZUWAKU
100
AcDbCircle
 10
24.3711063974913
 20
5.882601189601565
 30
0.0
 40
0.7
100
AcDbArc
 50
0.0
 51
45.0
  0
ARC
  5
4788
330
1A
100
AcDbEntity
  8
ZUWAKU
100
AcDbCircle
 10
24.8086063974913
 20
5.237500176923894
 30
0.0
 40
0.2625
100
AcDbArc
 50
270.0
 51
0.0
  0
LINE
  5
4789
330
1A
100
AcDbEntity
  8
ZUWAKU
100
AcDbLine
 10
23.0586063974913
 20
3.837500176923892
 30
0.0
 11
23.0586063974913
 21
4.712500176923892
 31
0.0
  0
ARC
  5
478A
330
1A
100
AcDbEntity
  8
ZUWAKU
100
AcDbCircle
 10
23.32110639749135
 20
3.837500176923892
 30
0.0
 40
0.2625
100
AcDbArc
 50
180.0
 51
270.0
  0
ARC
  5
478B
330
1A
100
AcDbEntity
  8
ZUWAKU
100
AcDbCircle
 10
21.48360639749131
 20
3.837500176923892
 30
0.0
 40
0.2625
100
AcDbArc
 50
270.0
 51
0.0
  0
ARC
  5
478C
330
1A
100
AcDbEntity
  8
ZUWAKU
100
AcDbCircle
 10
23.32110639749135
 20
4.712500176923892
 30
0.0
 40
0.2625
100
AcDbArc
 50
90.0
 51
180.0
  0
LINE
  5
478D
330
1A
100
AcDbEntity
  8
ZUWAKU
100
AcDbLine
 10
23.32110639749135
 20
4.975000176923892
 30
0.0
 11
24.8086063974913
 21
4.975000176923892
 31
0.0
  0
LINE
  5
478E
330
1A
100
AcDbEntity
  8
ZUWAKU
100
AcDbLine
 10
23.32110639749135
 20
3.575000176923893
 30
0.0
 11
25.07110639749134
 21
3.575000176923893
 31
0.0
  0
LINE
  5
478F
330
1A
100
AcDbEntity
  8
ZUWAKU
100
AcDbLine
 10
23.41118215699958
 20
7.832474923754482
 30
0.0
 11
24.86608114432192
 21
6.377575936432151
 31
0.0
  0
LINE
  5
4790
330
1A
100
AcDbEntity
  8
ZUWAKU
100
AcDbLine
 10
26.47110639749132
 20
4.975000176923892
 30
0.0
 11
26.47110639749132
 21
5.882601189601565
 31
0.0
  0
ARC
  5
4791
330
1A
100
AcDbEntity
  8
ZUWAKU
100
AcDbCircle
 10
24.3711063974913
 20
5.882601189601544
 30
0.0
 40
2.099999999999999
100
AcDbArc
 50
0.0
 51
45.0
  0
ARC
  5
4792
330
1A
100
AcDbEntity
  8
ZUWAKU
100
AcDbCircle
 10
29.44610639749134
 20
5.50000017692389
 30
0.0
 40
0.525
100
AcDbArc
 50
180.0
 51
270.0
  0
ARC
  5
4793
330
1A
100
AcDbEntity
  8
ZUWAKU
100
AcDbCircle
 10
30.67110639749131
 20
4.975000176923892
 30
0.0
 40
1.399999999999999
100
AcDbArc
 50
270.0
 51
0.0
  0
LINE
  5
4794
330
1A
100
AcDbEntity
  8
ZUWAKU
100
AcDbLine
 10
33.38360639749135
 20
3.575000176923893
 30
0.0
 11
34.25860639749135
 21
3.575000176923893
 31
0.0
  0
ARC
  5
4795
330
1A
100
AcDbEntity
  8
ZUWAKU
100
AcDbCircle
 10
33.38360639749135
 20
3.837500176923892
 30
0.0
 40
0.2625
100
AcDbArc
 50
180.0
 51
270.0
  0
ARC
  5
4796
330
1A
100
AcDbEntity
  8
ZUWAKU
100
AcDbCircle
 10
30.14610639749133
 20
5.50000017692389
 30
0.0
 40
0.525
100
AcDbArc
 50
270.0
 51
0.0
  0
ARC
  5
4797
330
1A
100
AcDbEntity
  8
ZUWAKU
100
AcDbCircle
 10
34.25860639749135
 20
3.837500176923892
 30
0.0
 40
0.2625
100
AcDbArc
 50
270.0
 51
0.0
  0
LINE
  5
4798
330
1A
100
AcDbEntity
  8
ZUWAKU
100
AcDbLine
 10
21.48360639749131
 20
11.62500017692389
 30
0.0
 11
20.60860639749131
 21
11.62500017692389
 31
0.0
  0
ARC
  5
4799
330
1A
100
AcDbEntity
  8
ZUWAKU
100
AcDbCircle
 10
16.0586063974913
 20
11.36250017692389
 30
0.0
 40
0.2625
100
AcDbArc
 50
0.0
 51
90.0
  0
LINE
  5
479A
330
1A
100
AcDbEntity
  8
ZUWAKU
100
AcDbLine
 10
16.0586063974913
 20
11.62500017692389
 30
0.0
 11
15.1836063974913
 21
11.62500017692389
 31
0.0
  0
ARC
  5
479B
330
1A
100
AcDbEntity
  8
ZUWAKU
100
AcDbCircle
 10
13.4336063974913
 20
11.36250017692389
 30
0.0
 40
0.2625
100
AcDbArc
 50
0.0
 51
90.0
  0
ARC
  5
479C
330
1A
100
AcDbEntity
  8
ZUWAKU
100
AcDbCircle
 10
15.1836063974913
 20
11.36250017692389
 30
0.0
 40
0.2625
100
AcDbArc
 50
90.0
 51
180.0
  0
ARC
  5
479D
330
1A
100
AcDbEntity
  8
ZUWAKU
100
AcDbCircle
 10
13.4336063974913
 20
10.48750017692389
 30
0.0
 40
0.2625
100
AcDbArc
 50
270.0
 51
0.0
  0
LINE
  5
479E
330
1A
100
AcDbEntity
  8
ZUWAKU
100
AcDbLine
 10
13.69610639749134
 20
11.36250017692389
 30
0.0
 11
13.69610639749134
 21
10.48750017692389
 31
0.0
  0
ARC
  5
479F
330
1A
100
AcDbEntity
  8
ZUWAKU
100
AcDbCircle
 10
20.60860639749131
 20
11.36250017692389
 30
0.0
 40
0.2625
100
AcDbArc
 50
90.0
 51
180.0
  0
LINE
  5
47A0
330
1A
100
AcDbEntity
  8
ZUWAKU
100
AcDbLine
 10
18.08848931574698
 20
11.62500017692389
 30
0.0
 11
18.93793400555148
 21
11.62500017692389
 31
0.0
  0
ARC
  5
47A1
330
1A
100
AcDbEntity
  8
ZUWAKU
100
AcDbCircle
 10
18.93793400555148
 20
11.36250017692389
 30
0.0
 40
0.2625
100
AcDbArc
 50
342.4744316262769
 51
90.0
  0
LINE
  5
47A2
330
1A
100
AcDbEntity
  8
ZUWAKU
100
AcDbLine
 10
19.18824945514922
 20
11.2834531928404
 30
0.0
 11
18.65742963858031
 21
9.602523773705605
 31
0.0
  0
ARC
  5
47A3
330
1A
100
AcDbEntity
  8
ZUWAKU
100
AcDbCircle
 10
18.08848931574698
 20
11.36250017692389
 30
0.0
 40
0.2625
100
AcDbArc
 50
90.0
 51
162.4744316262769
  0
LINE
  5
47A4
330
1A
100
AcDbEntity
  8
ZUWAKU
100
AcDbLine
 10
24.19610639749135
 20
11.62500017692389
 30
0.0
 11
25.94610639749134
 21
11.62500017692389
 31
0.0
  0
LINE
  5
47A5
330
1A
100
AcDbEntity
  8
ZUWAKU
100
AcDbLine
 10
25.94610639749134
 20
10.22500017692389
 30
0.0
 11
24.45860639749133
 21
10.22500017692389
 31
0.0
  0
ARC
  5
47A6
330
1A
100
AcDbEntity
  8
ZUWAKU
100
AcDbCircle
 10
24.45860639749133
 20
9.962500176923892
 30
0.0
 40
0.2625
100
AcDbArc
 50
90.0
 51
180.0
  0
LINE
  5
47A7
330
1A
100
AcDbEntity
  8
ZUWAKU
100
AcDbLine
 10
24.19610639749135
 20
9.962500176923892
 30
0.0
 11
24.19610639749135
 21
9.317399164246221
 31
0.0
  0
ARC
  5
47A8
330
1A
100
AcDbEntity
  8
ZUWAKU
100
AcDbCircle
 10
21.48360639749131
 20
11.36250017692389
 30
0.0
 40
0.2625
100
AcDbArc
 50
0.0
 51
90.0
  0
LINE
  5
47A9
330
1A
100
AcDbEntity
  8
ZUWAKU
100
AcDbLine
 10
22.79610639749131
 20
10.22500017692389
 30
0.0
 11
22.79610639749131
 21
9.317399164246221
 31
0.0
  0
ARC
  5
47AA
330
1A
100
AcDbEntity
  8
ZUWAKU
100
AcDbCircle
 10
24.19610639749135
 20
10.22500017692389
 30
0.0
 40
1.399999999999999
100
AcDbArc
 50
90.0
 51
180.0
  0
ARC
  5
47AB
330
1A
100
AcDbEntity
  8
ZUWAKU
100
AcDbCircle
 10
28.65860639749132
 20
11.36250017692389
 30
0.0
 40
0.2625
100
AcDbArc
 50
0.0
 51
90.0
  0
ARC
  5
47AC
330
1A
100
AcDbEntity
  8
ZUWAKU
100
AcDbCircle
 10
27.78360639749132
 20
11.36250017692389
 30
0.0
 40
0.2625
100
AcDbArc
 50
90.0
 51
180.0
  0
LINE
  5
47AD
330
1A
100
AcDbEntity
  8
ZUWAKU
100
AcDbLine
 10
28.65860639749132
 20
11.62500017692389
 30
0.0
 11
27.78360639749132
 21
11.62500017692389
 31
0.0
  0
ARC
  5
47AE
330
1A
100
AcDbEntity
  8
ZUWAKU
100
AcDbCircle
 10
25.94610639749134
 20
11.36250017692389
 30
0.0
 40
0.2625
100
AcDbArc
 50
0.0
 51
90.0
  0
ARC
  5
47AF
330
1A
100
AcDbEntity
  8
ZUWAKU
100
AcDbCircle
 10
25.94610639749134
 20
10.48750017692389
 30
0.0
 40
0.2625
100
AcDbArc
 50
270.0
 51
0.0
  0
LINE
  5
47B0
330
1A
100
AcDbEntity
  8
ZUWAKU
100
AcDbLine
 10
26.20860639749134
 20
11.36250017692389
 30
0.0
 11
26.20860639749134
 21
10.48750017692389
 31
0.0
  0
LINE
  5
47B1
330
1A
100
AcDbEntity
  8
ZUWAKU
100
AcDbLine
 10
34.25860639749135
 20
11.62500017692389
 30
0.0
 11
33.38360639749135
 21
11.62500017692389
 31
0.0
  0
ARC
  5
47B2
330
1A
100
AcDbEntity
  8
ZUWAKU
100
AcDbCircle
 10
33.38360639749135
 20
11.36250017692389
 30
0.0
 40
0.2625
100
AcDbArc
 50
90.0
 51
180.0
  0
ARC
  5
47B3
330
1A
100
AcDbEntity
  8
ZUWAKU
100
AcDbCircle
 10
31.8086063974913
 20
11.36250017692389
 30
0.0
 40
0.2625
100
AcDbArc
 50
0.0
 51
90.0
  0
LINE
  5
47B4
330
1A
100
AcDbEntity
  8
ZUWAKU
100
AcDbLine
 10
31.8086063974913
 20
11.62500017692389
 30
0.0
 11
30.9336063974913
 21
11.62500017692389
 31
0.0
  0
ARC
  5
47B5
330
1A
100
AcDbEntity
  8
ZUWAKU
100
AcDbCircle
 10
30.9336063974913
 20
11.36250017692389
 30
0.0
 40
0.2625
100
AcDbArc
 50
90.0
 51
180.0
  0
ARC
  5
47B6
330
1A
100
AcDbEntity
  8
ZUWAKU
100
AcDbCircle
 10
34.25860639749135
 20
11.36250017692389
 30
0.0
 40
0.2625
100
AcDbArc
 50
0.0
 51
90.0
  0
TEXT
  5
47B7
330
1A
100
AcDbEntity
  8
MOJI
100
AcDbText
 10
119.9136016605262
 20
9.002460705627584
 30
0.0
 40
2.799999999999999
  1
ブラケット正面打（吊）ワンタッチ自在式
 41
0.9
  7
ｽﾀｲﾙ1
100
AcDbText
  0
TEXT
  5
47B8
330
1A
100
AcDbEntity
  8
MOJI
100
AcDbText
 10
119.9136016605262
 20
1.602460705627601
 30
0.0
 40
2.799999999999999
  1
ＲＶ１０５－５－４５～６０
 41
0.9
  7
ｽﾀｲﾙ1
100
AcDbText
  0
LINE
  5
47B9
330
1A
100
AcDbEntity
  8
ZUWAKU
100
AcDbLine
 10
104.1233009651347
 20
15.00000017692389
 30
0.0
 11
104.1233009651347
 21
0.4000001769239248
 31
0.0
  0
LINE
  5
47BA
330
1A
100
AcDbEntity
  8
ZUWAKU
100
AcDbLine
 10
104.3233009651346
 20
15.00000017692389
 30
0.0
 11
104.3233009651347
 21
0.4000001769239248
 31
0.0
  0
LINE
  5
47BB
330
1A
100
AcDbEntity
  8
ZUWAKU
100
AcDbLine
 10
104.2233009651346
 20
15.00000017692389
 30
0.0
 11
104.2233009651347
 21
0.4000001769239248
 31
0.0
  0
TEXT
  5
47BC
330
1A
100
AcDbEntity
  8
ZUWAKU
100
AcDbText
 10
104.8620234762395
 20
4.827678446116699
 30
0.0
 40
2.0
  1
サイズ
 41
0.9
  7
ｽﾀｲﾙ1
100
AcDbText
  0
TEXT
  5
47BD
330
1A
100
AcDbEntity
  8
ZUWAKU
100
AcDbText
 10
104.8620234762394
 20
12.02767844611668
 30
0.0
 40
2.0
  1
品名
 41
0.9
  7
ｽﾀｲﾙ1
100
AcDbText
  0
LINE
  5
47BE
330
1A
100
AcDbEntity
  8
ZUWAKU
100
AcDbLine
 10
324.4086015752028
 20
7.600000176923906
 30
0.0
 11
348.6245055943713
 21
7.600000176923908
 31
0.0
  0
LINE
  5
47BF
330
1A
100
AcDbEntity
  8
ZUWAKU
100
AcDbLine
 10
324.4086015752029
 20
7.700000176923909
 30
0.0
 11
348.6245055943713
 21
7.700000176923907
 31
0.0
  0
LINE
  5
47C0
330
1A
100
AcDbEntity
  8
ZUWAKU
100
AcDbLine
 10
324.4086015752028
 20
7.800000176923907
 30
0.0
 11
348.6245055943713
 21
7.800000176923907
 31
0.0
  0
TEXT
  5
47C1
330
1A
100
AcDbEntity
  8
ZUWAKU
100
AcDbText
 10
329.1019691637519
 20
9.002460705627584
 30
0.0
 40
2.799999999999999
  1
　　．　　．　　
 41
0.9
  7
ｽﾀｲﾙ1
100
AcDbText
  0
LINE
  5
47C2
330
1A
100
AcDbEntity
  8
ZUWAKU
100
AcDbLine
 10
252.5995900691711
 20
7.600000176923909
 30
0.0
 11
276.2634782031569
 21
7.600000176923909
 31
0.0
  0
LINE
  5
47C3
330
1A
100
AcDbEntity
  8
ZUWAKU
100
AcDbLine
 10
252.5995900691711
 20
7.700000176923907
 30
0.0
 11
276.2634782031569
 21
7.700000176923907
 31
0.0
  0
LINE
  5
47C4
330
1A
100
AcDbEntity
  8
ZUWAKU
100
AcDbLine
 10
252.5995900691711
 20
7.800000176923907
 30
0.0
 11
276.2634782031569
 21
7.800000176923907
 31
0.0
  0
TEXT
  5
47C5
330
1A
100
AcDbEntity
  8
MOJI
100
AcDbText
 10
231.283639481095
 20
5.971309037753883
 30
0.0
 40
2.799999999999999
  1
ＬＫ１７Ｔ
 41
0.9
  7
ｽﾀｲﾙ1
100
AcDbText
  0
LINE
  5
47C6
330
1A
100
AcDbEntity
  8
ZUWAKU
100
AcDbLine
 10
223.8121823055963
 20
15.00000017692389
 30
0.0
 11
223.8121823055964
 21
0.4000001769239248
 31
0.0
  0
LINE
  5
47C7
330
1A
100
AcDbEntity
  8
ZUWAKU
100
AcDbLine
 10
223.9121823055963
 20
15.00000017692389
 30
0.0
 11
223.9121823055965
 21
0.4000001769239248
 31
0.0
  0
LINE
  5
47C8
330
1A
100
AcDbEntity
  8
ZUWAKU
100
AcDbLine
 10
223.7121823055964
 20
15.00000017692389
 30
0.0
 11
223.7121823055964
 21
0.4000001769239248
 31
0.0
  0
TEXT
  5
47C9
330
1A
100
AcDbEntity
  8
MOJI
100
AcDbText
 10
264.0204543062572
 20
9.002460705627584
 30
0.0
 40
2.799999999999999
  1
Ａ３
 41
0.9
  7
ｽﾀｲﾙ1
100
AcDbText
  0
LINE
  5
47CA
330
1A
100
AcDbEntity
  8
ZUWAKU
100
AcDbLine
 10
252.4995900691711
 20
15.00000017692389
 30
0.0
 11
252.4995900691712
 21
0.4000001769239248
 31
0.0
  0
LINE
  5
47CB
330
1A
100
AcDbEntity
  8
ZUWAKU
100
AcDbLine
 10
252.5995900691711
 20
15.00000017692389
 30
0.0
 11
252.5995900691713
 21
0.4000001769239248
 31
0.0
  0
LINE
  5
47CC
330
1A
100
AcDbEntity
  8
ZUWAKU
100
AcDbLine
 10
252.3995900691712
 20
15.00000017692389
 30
0.0
 11
252.3995900691712
 21
0.4000001769239248
 31
0.0
  0
TEXT
  5
47CD
330
1A
100
AcDbEntity
  8
ZUWAKU
100
AcDbText
 10
253.3383125802761
 20
4.827678446116699
 30
0.0
 40
2.0
  1
縮尺
 41
0.9
  7
ｽﾀｲﾙ1
100
AcDbText
  0
TEXT
  5
47CE
330
1A
100
AcDbEntity
  8
MOJI
100
AcDbText
 10
264.0204543062572
 20
1.602460705627601
 30
0.0
 40
2.799999999999999
  1
１/１
 41
0.9
  7
ｽﾀｲﾙ1
100
AcDbText
  0
TEXT
  5
47CF
330
1A
100
AcDbEntity
  8
ZUWAKU
100
AcDbText
 10
224.6509048167012
 20
12.02767844611668
 30
0.0
 40
2.0
  1
品番
 41
0.9
  7
ｽﾀｲﾙ1
100
AcDbText
  0
TEXT
  5
47D0
330
1A
100
AcDbEntity
  8
ZUWAKU
100
AcDbText
 10
253.338312580276
 20
12.02767844611668
 30
0.0
 40
2.0
  1
用紙
 41
0.9
  7
ｽﾀｲﾙ1
100
AcDbText
  0
LINE
  5
47D1
330
1A
100
AcDbEntity
  8
ZUWAKU
100
AcDbLine
 10
324.3086015752029
 20
15.00000017692389
 30
0.0
 11
324.308601575203
 21
0.4000001769239248
 31
0.0
  0
LINE
  5
47D2
330
1A
100
AcDbEntity
  8
ZUWAKU
100
AcDbLine
 10
324.4086015752029
 20
15.00000017692389
 30
0.0
 11
324.4086015752031
 21
0.4000001769239248
 31
0.0
  0
LINE
  5
47D3
330
1A
100
AcDbEntity
  8
ZUWAKU
100
AcDbLine
 10
324.208601575203
 20
15.00000017692389
 30
0.0
 11
324.208601575203
 21
0.4000001769239248
 31
0.0
  0
LINE
  5
47D4
330
1A
100
AcDbEntity
  8
ZUWAKU
100
AcDbLine
 10
276.3634782031568
 20
15.00000017692389
 30
0.0
 11
276.3634782031569
 21
0.4000001769239248
 31
0.0
  0
LINE
  5
47D5
330
1A
100
AcDbEntity
  8
ZUWAKU
100
AcDbLine
 10
276.4634782031569
 20
15.00000017692389
 30
0.0
 11
276.463478203157
 21
0.4000001769239248
 31
0.0
  0
LINE
  5
47D6
330
1A
100
AcDbEntity
  8
ZUWAKU
100
AcDbLine
 10
276.2634782031569
 20
15.00000017692389
 30
0.0
 11
276.2634782031569
 21
0.4000001769239248
 31
0.0
  0
TEXT
  5
47D7
330
1A
100
AcDbEntity
  8
ZUWAKU
100
AcDbText
 10
325.1473240863077
 20
12.02767844611668
 30
0.0
 40
2.0
  1
DATE
 41
0.9
  7
ｽﾀｲﾙ1
100
AcDbText
  0
LINE
  5
47D8
330
1A
100
AcDbEntity
  8
ZUWAKU
100
AcDbLine
 10
348.6245055943713
 20
15.00000017692389
 30
0.0
 11
348.6245055943713
 21
0.4000001769239248
 31
0.0
  0
LINE
  5
47D9
330
1A
100
AcDbEntity
  8
ZUWAKU
100
AcDbLine
 10
348.7245055943714
 20
15.00000017692389
 30
0.0
 11
348.7245055943714
 21
0.4000001769239248
 31
0.0
  0
LINE
  5
47DA
330
1A
100
AcDbEntity
  8
ZUWAKU
100
AcDbLine
 10
348.8245055943713
 20
15.00000017692389
 30
0.0
 11
348.8245055943714
 21
0.4000001769239248
 31
0.0
  0
LINE
  5
47DB
330
1A
100
AcDbEntity
  8
ZUWAKU
100
AcDbLine
 10
348.9245055943713
 20
15.00000017692389
 30
0.0
 11
348.9245055943714
 21
0.4000001769239248
 31
0.0
  0
TEXT
  5
47DC
330
1A
100
AcDbEntity
  8
ZUWAKU
100
AcDbText
 10
354.2640424162226
 20
8.776919844767292
 30
0.0
 40
3.0
  1
積水化学工業株式会社
 41
0.9
  7
ｽﾀｲﾙ1
100
AcDbText
  0
TEXT
  5
47DD
330
1A
100
AcDbEntity
  8
ZUWAKU
100
AcDbText
 10
354.2640424162226
 20
3.324420333850923
 30
0.0
 40
3.0
  1
建材事業部
 41
0.9
  7
ｽﾀｲﾙ1
100
AcDbText
  0
VIEWPORT
  5
22
330
17
100
AcDbEntity
 67
     1
  8
0
100
AcDbViewport
 10
313.6808219178082
 20
148.5
 30
0.0
 40
627.3616438356165
 41
297.0
 68
     2
 69
     1
1001
ACAD
1000
MVIEW
1002
{
1070
    16
1010
0.0
1020
0.0
1030
0.0
1010
0.0
1020
0.0
1030
1.0
1040
0.0
1040
297.0
1040
313.6808219178082
1040
148.5
1040
50.0
1040
0.0
1040
0.0
1070
     0
1070
   100
1070
     1
1070
     0
1070
     0
1070
     0
1070
     0
1070
     0
1040
0.0
1040
0.0
1040
0.0
1040
1.0
1040
1.0
1040
10.0
1040
10.0
1070
     0
1002
{
1002
}
1002
}
  0
VIEWPORT
  5
64
330
17
100
AcDbEntity
 67
     1
  8
VIEWPORT
100
AcDbViewport
 10
210.0
 20
148.5
 30
0.0
 40
420.0
 41
297.0
 68
     1
 69
     2
1001
ACAD
1000
MVIEW
1002
{
1070
    16
1010
0.0
1020
0.0
1030
0.0
1010
0.0
1020
0.0
1030
1.0
1040
0.0
1040
302.9399999999998
1040
210.0
1040
148.5
1040
50.0
1040
0.0
1040
0.0
1070
     0
1070
   100
1070
     1
1070
     0
1070
     0
1070
     0
1070
     0
1070
     0
1040
0.0
1040
0.0
1040
0.0
1040
5.0
1040
5.0
1040
0.0
1040
0.0
1070
     0
1002
{
1002
}
1002
}
  0
ENDSEC
  0
SECTION
  2
OBJECTS
  0
DICTIONARY
  5
C
330
0
100
AcDbDictionary
  3
ACAD_GROUP
350
D
  3
ACAD_LAYOUT
350
141
  3
ACAD_MLINESTYLE
350
E
  3
ACAD_PLOTSETTINGS
350
142
  3
ACAD_PLOTSTYLENAME
350
13F
  3
ACDBHEADERROUNDTRIPXREC
350
4872
  0
DICTIONARY
  5
73C
330
1A
100
AcDbDictionary
280
     1
  3
ACAD_LAYOUTSELFREF
360
4894
  0
DICTIONARY
  5
73A
330
17
100
AcDbDictionary
280
     1
  3
ACAD_LAYOUTSELFREF
360
4893
  0
DICTIONARY
  5
D
102
{ACAD_REACTORS
330
C
102
}
330
C
100
AcDbDictionary
  0
DICTIONARY
  5
141
102
{ACAD_REACTORS
330
C
102
}
330
C
100
AcDbDictionary
  0
DICTIONARY
  5
E
102
{ACAD_REACTORS
330
C
102
}
330
C
100
AcDbDictionary
  3
STANDARD
350
13
  0
DICTIONARY
  5
142
102
{ACAD_REACTORS
330
C
102
}
330
C
100
AcDbDictionary
  0
ACDBDICTIONARYWDFLT
  5
13F
102
{ACAD_REACTORS
330
C
102
}
330
C
100
AcDbDictionary
281
     1
  3
Normal
350
140
100
AcDbDictionaryWithDefault
340
140
1001
ACAD
1000
TREAT_AS_HARD
1070
     0
1000
TREAT_AS_HARD
1070
     0
1000
TREAT_AS_HARD
1070
     0
1000
TREAT_AS_HARD
1070
     0
1000
TREAT_AS_HARD
1070
     0
1000
TREAT_AS_HARD
1070
     0
1000
TREAT_AS_HARD
1070
     0
1000
TREAT_AS_HARD
1070
     0
  0
DICTIONARY
  5
4872
102
{ACAD_REACTORS
330
C
102
}
330
C
100
AcDbDictionary
  3
TSTACKALIGN
350
4873
  3
TSTACKSIZE
350
4874
  3
HYPERLINKBASE
350
4875
  3
STYLESHEET
350
4876
  3
LAYOUTDICT
350
4877
  3
PLOTSETDICT
350
4878
  3
PLOTSTYLNAMDICT
350
4879
  3
LWETCUNION
350
487A
  3
INSUNITS
350
487B
  3
CEPSNTYPE
350
487C
  3
FINGERPRINTGUID
350
487D
  3
VERSIONGUID
350
487E
  3
PSVPSCALE
350
487F
  3
DIMSTYLEDATA
350
4880
  3
PUCSORTHOREF
350
4881
  3
PUCSORTHOVIEW
350
4882
  3
PUCSBASE
350
4883
  3
PUCSORGTOP
350
4884
  3
PUCSORGBOTTOM
350
4885
  3
PUCSORGLEFT
350
4886
  3
PUCSORGRIGHT
350
4887
  3
PUCSORGFRONT
350
4888
  3
PUCSORGBACK
350
4889
  3
UCSORTHOREF
350
488A
  3
UCSORTHOVIEW
350
488B
  3
UCSBASE
350
488C
  3
UCSORGTOP
350
488D
  3
UCSORGBOTTOM
350
488E
  3
UCSORGLEFT
350
488F
  3
UCSORGRIGHT
350
4890
  3
UCSORGFRONT
350
4891
  3
UCSORGBACK
350
4892
  0
XRECORD
  5
4894
102
{ACAD_REACTORS
330
73C
102
}
330
73C
100
AcDbXrecord
340
1A
  0
XRECORD
  5
4893
102
{ACAD_REACTORS
330
73A
102
}
330
73A
100
AcDbXrecord
340
17
  0
MLINESTYLE
  5
13
102
{ACAD_REACTORS
330
E
102
}
330
E
100
AcDbMlineStyle
  2
STANDARD
 70
     0
  3

 62
     0
 51
90.0
 52
90.0
 71
     2
 49
0.5
 62
   256
  6
BYLAYER
 49
-0.5
 62
   256
  6
BYLAYER
  0
ACDBPLACEHOLDER
  5
140
102
{ACAD_REACTORS
330
13F
102
}
330
13F
100
AcDbPlaceHolder
280
     0
  0
XRECORD
  5
4873
102
{ACAD_REACTORS
330
4872
102
}
330
4872
100
AcDbXrecord
 90
        1
  0
XRECORD
  5
4874
102
{ACAD_REACTORS
330
4872
102
}
330
4872
100
AcDbXrecord
 90
       70
  0
XRECORD
  5
4875
102
{ACAD_REACTORS
330
4872
102
}
330
4872
100
AcDbXrecord
  1

  0
XRECORD
  5
4876
102
{ACAD_REACTORS
330
4872
102
}
330
4872
100
AcDbXrecord
  1
systemprinter.ctb
  0
XRECORD
  5
4877
102
{ACAD_REACTORS
330
4872
102
}
330
4872
100
AcDbXrecord
340
141
  0
XRECORD
  5
4878
102
{ACAD_REACTORS
330
4872
102
}
330
4872
100
AcDbXrecord
340
142
  0
XRECORD
  5
4879
102
{ACAD_REACTORS
330
4872
102
}
330
4872
100
AcDbXrecord
340
13F
  0
XRECORD
  5
487A
102
{ACAD_REACTORS
330
4872
102
}
330
4872
100
AcDbXrecord
 90
    10781
  0
XRECORD
  5
487B
102
{ACAD_REACTORS
330
4872
102
}
330
4872
100
AcDbXrecord
 90
        0
  0
XRECORD
  5
487C
102
{ACAD_REACTORS
330
4872
102
}
330
4872
100
AcDbXrecord
 90
        0
  0
XRECORD
  5
487D
102
{ACAD_REACTORS
330
4872
102
}
330
4872
100
AcDbXrecord
  1
{4E8D0500-CDD1-11D3-932C-444553540000}
  0
XRECORD
  5
487E
102
{ACAD_REACTORS
330
4872
102
}
330
4872
100
AcDbXrecord
  1
{80488177-AF0F-4770-A207-313E2D727983}
  0
XRECORD
  5
487F
102
{ACAD_REACTORS
330
4872
102
}
330
4872
100
AcDbXrecord
 40
0.0
  0
XRECORD
  5
4880
102
{ACAD_REACTORS
330
4872
102
}
330
4872
100
AcDbXrecord
1000
DSTYLE
1002
{
1070
   341
340
B2
1070
   343
340
B2
1070
   344
340
B2
1070
   371
 70
    -1
1070
   372
 70
    -1
1002
}
  0
XRECORD
  5
4881
102
{ACAD_REACTORS
330
4872
102
}
330
4872
100
AcDbXrecord
340
0
  0
XRECORD
  5
4882
102
{ACAD_REACTORS
330
4872
102
}
330
4872
100
AcDbXrecord
 70
     0
  0
XRECORD
  5
4883
102
{ACAD_REACTORS
330
4872
102
}
330
4872
100
AcDbXrecord
340
0
  0
XRECORD
  5
4884
102
{ACAD_REACTORS
330
4872
102
}
330
4872
100
AcDbXrecord
 10
0.0
 20
0.0
 30
0.0
  0
XRECORD
  5
4885
102
{ACAD_REACTORS
330
4872
102
}
330
4872
100
AcDbXrecord
 10
0.0
 20
0.0
 30
0.0
  0
XRECORD
  5
4886
102
{ACAD_REACTORS
330
4872
102
}
330
4872
100
AcDbXrecord
 10
0.0
 20
0.0
 30
0.0
  0
XRECORD
  5
4887
102
{ACAD_REACTORS
330
4872
102
}
330
4872
100
AcDbXrecord
 10
0.0
 20
0.0
 30
0.0
  0
XRECORD
  5
4888
102
{ACAD_REACTORS
330
4872
102
}
330
4872
100
AcDbXrecord
 10
0.0
 20
0.0
 30
0.0
  0
XRECORD
  5
4889
102
{ACAD_REACTORS
330
4872
102
}
330
4872
100
AcDbXrecord
 10
0.0
 20
0.0
 30
0.0
  0
XRECORD
  5
488A
102
{ACAD_REACTORS
330
4872
102
}
330
4872
100
AcDbXrecord
340
0
  0
XRECORD
  5
488B
102
{ACAD_REACTORS
330
4872
102
}
330
4872
100
AcDbXrecord
 70
     0
  0
XRECORD
  5
488C
102
{ACAD_REACTORS
330
4872
102
}
330
4872
100
AcDbXrecord
340
0
  0
XRECORD
  5
488D
102
{ACAD_REACTORS
330
4872
102
}
330
4872
100
AcDbXrecord
 10
0.0
 20
0.0
 30
0.0
  0
XRECORD
  5
488E
102
{ACAD_REACTORS
330
4872
102
}
330
4872
100
AcDbXrecord
 10
0.0
 20
0.0
 30
0.0
  0
XRECORD
  5
488F
102
{ACAD_REACTORS
330
4872
102
}
330
4872
100
AcDbXrecord
 10
0.0
 20
0.0
 30
0.0
  0
XRECORD
  5
4890
102
{ACAD_REACTORS
330
4872
102
}
330
4872
100
AcDbXrecord
 10
0.0
 20
0.0
 30
0.0
  0
XRECORD
  5
4891
102
{ACAD_REACTORS
330
4872
102
}
330
4872
100
AcDbXrecord
 10
0.0
 20
0.0
 30
0.0
  0
XRECORD
  5
4892
102
{ACAD_REACTORS
330
4872
102
}
330
4872
100
AcDbXrecord
 10
0.0
 20
0.0
 30
0.0
  0
ENDSEC
  0
EOF
