  0
SECTION
  2
HEADER
  9
$ACADVER
  1
AC1014
  9
$ACADMAINTVER
 70
     9
  9
$DWGCODEPAGE
  3
ANSI_932
  9
$INSBASE
 10
0.0
 20
0.0
 30
0.0
  9
$EXTMIN
 10
-0.0128164049386896
 20
-0.0090630292066862
 30
-0.0000000100021362
  9
$EXTMAX
 10
398.8000497813338
 20
275.8226172440017
 30
0.0000000100021363
  9
$LIMMIN
 10
0.0
 20
0.0
  9
$LIMMAX
 10
420.0
 20
297.0
  9
$ORTHOMODE
 70
     0
  9
$REGENMODE
 70
     1
  9
$FILLMODE
 70
     1
  9
$QTEXTMODE
 70
     0
  9
$MIRRTEXT
 70
     1
  9
$DRAGMODE
 70
     2
  9
$LTSCALE
 40
5.0
  9
$OSMODE
 70
    35
  9
$ATTMODE
 70
     1
  9
$TEXTSIZE
 40
3.0
  9
$TRACEWID
 40
1.0
  9
$TEXTSTYLE
  7
STANDARD
  9
$CLAYER
  8
CENTER_L
  9
$CELTYPE
  6
BYLAYER
  9
$CECOLOR
 62
   256
  9
$CELTSCALE
 40
1.0
  9
$DELOBJ
 70
     1
  9
$DISPSILH
 70
     0
  9
$DIMSCALE
 40
1.0
  9
$DIMASZ
 40
3.0
  9
$DIMEXO
 40
3.0
  9
$DIMDLI
 40
7.0
  9
$DIMRND
 40
0.0
  9
$DIMDLE
 40
0.0
  9
$DIMEXE
 40
1.5
  9
$DIMTP
 40
0.0
  9
$DIMTM
 40
0.0
  9
$DIMTXT
 40
3.0
  9
$DIMCEN
 40
3.0
  9
$DIMTSZ
 40
0.0
  9
$DIMTOL
 70
     0
  9
$DIMLIM
 70
     0
  9
$DIMTIH
 70
     0
  9
$DIMTOH
 70
     0
  9
$DIMSE1
 70
     0
  9
$DIMSE2
 70
     0
  9
$DIMTAD
 70
     3
  9
$DIMZIN
 70
     0
  9
$DIMBLK
  1

  9
$DIMASO
 70
     1
  9
$DIMSHO
 70
     1
  9
$DIMPOST
  1

  9
$DIMAPOST
  1

  9
$DIMALT
 70
     0
  9
$DIMALTD
 70
     2
  9
$DIMALTF
 40
25.4
  9
$DIMLFAC
 40
1.0
  9
$DIMTOFL
 70
     1
  9
$DIMTVP
 40
0.0
  9
$DIMTIX
 70
     0
  9
$DIMSOXD
 70
     0
  9
$DIMSAH
 70
     1
  9
$DIMBLK1
  1
OPEN
  9
$DIMBLK2
  1
OPEN
  9
$DIMSTYLE
  2
STANDARD
  9
$DIMCLRD
 70
   256
  9
$DIMCLRE
 70
   256
  9
$DIMCLRT
 70
   256
  9
$DIMTFAC
 40
1.0
  9
$DIMGAP
 40
1.0
  9
$DIMJUST
 70
     0
  9
$DIMSD1
 70
     0
  9
$DIMSD2
 70
     0
  9
$DIMTOLJ
 70
     1
  9
$DIMTZIN
 70
     0
  9
$DIMALTZ
 70
     0
  9
$DIMALTTZ
 70
     0
  9
$DIMFIT
 70
     3
  9
$DIMUPT
 70
     0
  9
$DIMUNIT
 70
     2
  9
$DIMDEC
 70
     0
  9
$DIMTDEC
 70
     0
  9
$DIMALTU
 70
     2
  9
$DIMALTTD
 70
     2
  9
$DIMTXSTY
  7
STANDARD
  9
$DIMAUNIT
 70
     0
  9
$LUNITS
 70
     2
  9
$LUPREC
 70
     4
  9
$SKETCHINC
 40
1.0
  9
$FILLETRAD
 40
10.0
  9
$AUNITS
 70
     0
  9
$AUPREC
 70
     0
  9
$MENU
  1
.
  9
$ELEVATION
 40
0.0
  9
$PELEVATION
 40
0.0
  9
$THICKNESS
 40
0.0
  9
$LIMCHECK
 70
     0
  9
$BLIPMODE
 70
     0
  9
$CHAMFERA
 40
10.0
  9
$CHAMFERB
 40
10.0
  9
$CHAMFERC
 40
20.0
  9
$CHAMFERD
 40
0.0
  9
$SKPOLY
 70
     0
  9
$TDCREATE
 40
2451569.441154629
  9
$TDUPDATE
 40
2453802.475595694
  9
$TDINDWG
 40
0.2128362269
  9
$TDUSRTIMER
 40
0.2128362269
  9
$USRTIMER
 70
     1
  9
$ANGBASE
 50
0.0
  9
$ANGDIR
 70
     0
  9
$PDMODE
 70
     0
  9
$PDSIZE
 40
0.0
  9
$PLINEWID
 40
0.0
  9
$COORDS
 70
     1
  9
$SPLFRAME
 70
     0
  9
$SPLINETYPE
 70
     6
  9
$SPLINESEGS
 70
     8
  9
$ATTDIA
 70
     0
  9
$ATTREQ
 70
     1
  9
$HANDLING
 70
 10241
  9
$HANDSEED
  5
55DE
  9
$SURFTAB1
 70
     6
  9
$SURFTAB2
 70
     6
  9
$SURFTYPE
 70
     6
  9
$SURFU
 70
     6
  9
$SURFV
 70
     6
  9
$UCSNAME
  2

  9
$UCSORG
 10
0.0
 20
0.0
 30
0.0
  9
$UCSXDIR
 10
1.0
 20
0.0
 30
0.0
  9
$UCSYDIR
 10
0.0
 20
1.0
 30
0.0
  9
$PUCSNAME
  2

  9
$PUCSORG
 10
0.0
 20
0.0
 30
0.0
  9
$PUCSXDIR
 10
1.0
 20
0.0
 30
0.0
  9
$PUCSYDIR
 10
0.0
 20
1.0
 30
0.0
  9
$USERI1
 70
     0
  9
$USERI2
 70
     0
  9
$USERI3
 70
     0
  9
$USERI4
 70
     0
  9
$USERI5
 70
     0
  9
$USERR1
 40
0.0
  9
$USERR2
 40
0.0
  9
$USERR3
 40
0.0
  9
$USERR4
 40
0.0
  9
$USERR5
 40
0.0
  9
$WORLDVIEW
 70
     1
  9
$SHADEDGE
 70
     3
  9
$SHADEDIF
 70
    70
  9
$TILEMODE
 70
     1
  9
$MAXACTVP
 70
    16
  9
$PINSBASE
 10
0.0
 20
0.0
 30
0.0
  9
$PLIMCHECK
 70
     0
  9
$PEXTMIN
 10
0.0
 20
0.0
 30
0.0
  9
$PEXTMAX
 10
420.0
 20
297.0
 30
0.0
  9
$PLIMMIN
 10
0.0
 20
0.0
  9
$PLIMMAX
 10
420.0
 20
297.0
  9
$UNITMODE
 70
     0
  9
$VISRETAIN
 70
     0
  9
$PLINEGEN
 70
     0
  9
$PSLTSCALE
 70
     1
  9
$TREEDEPTH
 70
  3020
  9
$PICKSTYLE
 70
     1
  9
$CMLSTYLE
  2
STANDARD
  9
$CMLJUST
 70
     0
  9
$CMLSCALE
 40
1.0
  9
$PROXYGRAPHICS
 70
     1
  9
$MEASUREMENT
 70
     1
  0
ENDSEC
  0
SECTION
  2
CLASSES
  0
CLASS
  1
ACDBDICTIONARYWDFLT
  2
AcDbDictionaryWithDefault
  3
AutoCAD 2000
 90
        0
280
     0
281
     0
  0
CLASS
  1
ACDBPLACEHOLDER
  2
AcDbPlaceHolder
  3
AutoCAD 2000
 90
        0
280
     0
281
     0
  0
CLASS
  1
LAYOUT
  2
AcDbLayout
  3
AutoCAD 2000
 90
        0
280
     0
281
     0
  0
CLASS
  1
LONG_TRANSACTION
  2
AcDbLongTransaction
  3
AutoCAD 2000
 90
        0
280
     0
281
     0
  0
CLASS
  1
LWPOLYLINE
  2
AcDbPolyline
  3
AutoCAD 2000
 90
        0
280
     0
281
     1
  0
CLASS
  1
HATCH
  2
AcDbHatch
  3
AutoCAD 2000
 90
        0
280
     0
281
     1
  0
CLASS
  1
XRECORD
  2
AcDbXrecord
  3
AutoCAD 2000
 90
        0
280
     0
281
     0
  0
CLASS
  1
LONG_TRANSACTION
  2
AcDbLongTransaction
  3
AutoCAD 2000
 90
        0
280
     0
281
     0
  0
CLASS
  1
LWPOLYLINE
  2
AcDbPolyline
  3
AutoCAD 2000
 90
        0
280
     0
281
     1
  0
CLASS
  1
HATCH
  2
AcDbHatch
  3
AutoCAD 2000
 90
        0
280
     0
281
     1
  0
CLASS
  1
XRECORD
  2
AcDbXrecord
  3
AutoCAD 2000
 90
        0
280
     0
281
     0
  0
CLASS
  1
LONG_TRANSACTION
  2
AcDbLongTransaction
  3
AutoCAD 2000
 90
        0
280
     0
281
     0
  0
CLASS
  1
LWPOLYLINE
  2
AcDbPolyline
  3
AutoCAD 2000
 90
        0
280
     0
281
     1
  0
CLASS
  1
HATCH
  2
AcDbHatch
  3
AutoCAD 2000
 90
        0
280
     0
281
     1
  0
CLASS
  1
XRECORD
  2
AcDbXrecord
  3
AutoCAD 2000
 90
        0
280
     0
281
     0
  0
CLASS
  1
LONG_TRANSACTION
  2
AcDbLongTransaction
  3
AutoCAD 2000
 90
        0
280
     0
281
     0
  0
CLASS
  1
LWPOLYLINE
  2
AcDbPolyline
  3
AutoCAD 2000
 90
        0
280
     0
281
     1
  0
CLASS
  1
HATCH
  2
AcDbHatch
  3
AutoCAD 2000
 90
        0
280
     0
281
     1
  0
CLASS
  1
XRECORD
  2
AcDbXrecord
  3
AutoCAD 2000
 90
        0
280
     0
281
     0
  0
CLASS
  1
LONG_TRANSACTION
  2
AcDbLongTransaction
  3
AutoCAD 2000
 90
        0
280
     0
281
     0
  0
CLASS
  1
LWPOLYLINE
  2
AcDbPolyline
  3
AutoCAD 2000
 90
        0
280
     0
281
     1
  0
CLASS
  1
HATCH
  2
AcDbHatch
  3
AutoCAD 2000
 90
        0
280
     0
281
     1
  0
CLASS
  1
XRECORD
  2
AcDbXrecord
  3
AutoCAD 2000
 90
        0
280
     0
281
     0
  0
CLASS
  1
LONG_TRANSACTION
  2
AcDbLongTransaction
  3
AutoCAD 2000
 90
        0
280
     0
281
     0
  0
CLASS
  1
LWPOLYLINE
  2
AcDbPolyline
  3
AutoCAD 2000
 90
        0
280
     0
281
     1
  0
CLASS
  1
HATCH
  2
AcDbHatch
  3
AutoCAD 2000
 90
        0
280
     0
281
     1
  0
CLASS
  1
XRECORD
  2
AcDbXrecord
  3
AutoCAD 2000
 90
        0
280
     0
281
     0
  0
CLASS
  1
LONG_TRANSACTION
  2
AcDbLongTransaction
  3
AutoCAD 2000
 90
        0
280
     0
281
     0
  0
CLASS
  1
LWPOLYLINE
  2
AcDbPolyline
  3
AutoCAD 2000
 90
        0
280
     0
281
     1
  0
CLASS
  1
HATCH
  2
AcDbHatch
  3
AutoCAD 2000
 90
        0
280
     0
281
     1
  0
CLASS
  1
XRECORD
  2
AcDbXrecord
  3
AutoCAD 2000
 90
        0
280
     0
281
     0
  0
CLASS
  1
LONG_TRANSACTION
  2
AcDbLongTransaction
  3
AutoCAD 2000
 90
        0
280
     0
281
     0
  0
CLASS
  1
LWPOLYLINE
  2
AcDbPolyline
  3
AutoCAD 2000
 90
        0
280
     0
281
     1
  0
CLASS
  1
HATCH
  2
AcDbHatch
  3
AutoCAD 2000
 90
        0
280
     0
281
     1
  0
CLASS
  1
XRECORD
  2
AcDbXrecord
  3
AutoCAD 2000
 90
        0
280
     0
281
     0
  0
CLASS
  1
LONG_TRANSACTION
  2
AcDbLongTransaction
  3
AutoCAD 2000
 90
        0
280
     0
281
     0
  0
CLASS
  1
LWPOLYLINE
  2
AcDbPolyline
  3
AutoCAD 2000
 90
        0
280
     0
281
     1
  0
CLASS
  1
HATCH
  2
AcDbHatch
  3
AutoCAD 2000
 90
        0
280
     0
281
     1
  0
CLASS
  1
XRECORD
  2
AcDbXrecord
  3
AutoCAD 2000
 90
        0
280
     0
281
     0
  0
CLASS
  1
LONG_TRANSACTION
  2
AcDbLongTransaction
  3
AutoCAD 2000
 90
        0
280
     0
281
     0
  0
CLASS
  1
LWPOLYLINE
  2
AcDbPolyline
  3
AutoCAD 2000
 90
        0
280
     0
281
     1
  0
CLASS
  1
HATCH
  2
AcDbHatch
  3
AutoCAD 2000
 90
        0
280
     0
281
     1
  0
CLASS
  1
XRECORD
  2
AcDbXrecord
  3
AutoCAD 2000
 90
        0
280
     0
281
     0
  0
CLASS
  1
LONG_TRANSACTION
  2
AcDbLongTransaction
  3
AutoCAD 2000
 90
        0
280
     0
281
     0
  0
CLASS
  1
LWPOLYLINE
  2
AcDbPolyline
  3
AutoCAD 2000
 90
        0
280
     0
281
     1
  0
CLASS
  1
HATCH
  2
AcDbHatch
  3
AutoCAD 2000
 90
        0
280
     0
281
     1
  0
CLASS
  1
XRECORD
  2
AcDbXrecord
  3
AutoCAD 2000
 90
        0
280
     0
281
     0
  0
CLASS
  1
LONG_TRANSACTION
  2
AcDbLongTransaction
  3
AutoCAD 2000
 90
        0
280
     0
281
     0
  0
CLASS
  1
LWPOLYLINE
  2
AcDbPolyline
  3
AutoCAD 2000
 90
        0
280
     0
281
     1
  0
CLASS
  1
HATCH
  2
AcDbHatch
  3
AutoCAD 2000
 90
        0
280
     0
281
     1
  0
CLASS
  1
XRECORD
  2
AcDbXrecord
  3
AutoCAD 2000
 90
        0
280
     0
281
     0
  0
ENDSEC
  0
SECTION
  2
TABLES
  0
TABLE
  2
VPORT
  5
8
330
0
100
AcDbSymbolTable
 70
     2
  0
VPORT
  5
55BA
330
8
100
AcDbSymbolTableRecord
100
AcDbViewportTableRecord
  2
*ACTIVE
 70
     0
 10
0.0
 20
0.0
 11
1.0
 21
1.0
 12
213.7014966704121
 22
141.9894122032584
 13
0.0
 23
0.0
 14
5.0
 24
5.0
 15
0.0
 25
0.0
 16
0.0
 26
0.0
 36
1.0
 17
0.0
 27
0.0
 37
0.0
 40
306.2270647607182
 41
1.795454545454545
 42
50.0
 43
0.0
 44
0.0
 50
0.0
 51
0.0
 71
     0
 72
   100
 73
     1
 74
     0
 75
     0
 76
     0
 77
     0
 78
     0
  0
ENDTAB
  0
TABLE
  2
LTYPE
  5
5
330
0
100
AcDbSymbolTable
 70
     4
  0
LTYPE
  5
14
330
5
100
AcDbSymbolTableRecord
100
AcDbLinetypeTableRecord
  2
BYBLOCK
 70
     0
  3

 72
    65
 73
     0
 40
0.0
  0
LTYPE
  5
15
330
5
100
AcDbSymbolTableRecord
100
AcDbLinetypeTableRecord
  2
BYLAYER
 70
     0
  3

 72
    65
 73
     0
 40
0.0
  0
LTYPE
  5
16
330
5
100
AcDbSymbolTableRecord
100
AcDbLinetypeTableRecord
  2
CONTINUOUS
 70
     0
  3
Solid line
 72
    65
 73
     0
 40
0.0
  0
LTYPE
  5
120
330
5
100
AcDbSymbolTableRecord
100
AcDbLinetypeTableRecord
  2
CENTER
 70
     0
  3
____ _ ____ _ ____ _ ____ _ ____ _ ____ _ ____ 
 72
    65
 73
     4
 40
2.0
 49
1.25
 74
     0
 49
-0.25
 74
     0
 49
0.25
 74
     0
 49
-0.25
 74
     0
  0
LTYPE
  5
122
330
5
100
AcDbSymbolTableRecord
100
AcDbLinetypeTableRecord
  2
PHANTOM
 70
     0
  3
______  __  __  ______  __  __  ______  __  __ 
 72
    65
 73
     6
 40
2.5
 49
1.25
 74
     0
 49
-0.25
 74
     0
 49
0.25
 74
     0
 49
-0.25
 74
     0
 49
0.25
 74
     0
 49
-0.25
 74
     0
  0
LTYPE
  5
12B
330
5
100
AcDbSymbolTableRecord
100
AcDbLinetypeTableRecord
  2
DASHED
 70
     0
  3
__ __ __ __ __ __ __ __ __ __ __ __ __ __ __ __
 72
    65
 73
     2
 40
0.75
 49
0.5
 74
     0
 49
-0.25
 74
     0
  0
ENDTAB
  0
TABLE
  2
LAYER
  5
2
330
0
100
AcDbSymbolTable
 70
     9
  0
LAYER
  5
F
330
2
100
AcDbSymbolTableRecord
100
AcDbLayerTableRecord
  2
0
 70
     0
 62
     7
  6
CONTINUOUS
  0
LAYER
  5
62
330
2
100
AcDbSymbolTableRecord
100
AcDbLayerTableRecord
  2
VIEWPORT
 70
     0
 62
     7
  6
CONTINUOUS
  0
LAYER
  5
6B
330
2
100
AcDbSymbolTableRecord
100
AcDbLayerTableRecord
  2
ZUWAKU
 70
     0
 62
     7
  6
CONTINUOUS
  0
LAYER
  5
48C
330
2
100
AcDbSymbolTableRecord
100
AcDbLayerTableRecord
  2
DEFPOINTS
 70
     0
 62
     7
  6
CONTINUOUS
  0
LAYER
  5
629
330
2
100
AcDbSymbolTableRecord
100
AcDbLayerTableRecord
  2
SEIHIN
 70
     0
 62
     3
  6
CONTINUOUS
  0
LAYER
  5
62A
330
2
100
AcDbSymbolTableRecord
100
AcDbLayerTableRecord
  2
SUNPOU
 70
     0
 62
     4
  6
CONTINUOUS
  0
LAYER
  5
62B
330
2
100
AcDbSymbolTableRecord
100
AcDbLayerTableRecord
  2
CENTER_L
 70
     0
 62
     1
  6
CENTER
  0
LAYER
  5
65C
330
2
100
AcDbSymbolTableRecord
100
AcDbLayerTableRecord
  2
NOKITOI
 70
     0
 62
     8
  6
PHANTOM
  0
LAYER
  5
5445
330
2
100
AcDbSymbolTableRecord
100
AcDbLayerTableRecord
  2
MOJI
 70
     0
 62
     2
  6
CONTINUOUS
  0
ENDTAB
  0
TABLE
  2
STYLE
  5
3
330
0
100
AcDbSymbolTable
 70
     2
  0
STYLE
  5
10
330
3
100
AcDbSymbolTableRecord
100
AcDbTextStyleTableRecord
  2
STANDARD
 70
     0
 40
0.0
 41
1.0
 50
0.0
 71
     0
 42
3.0
  3
TXT
  4
c:\PROGRAM FILES\AUTOCAD LT\ms\bigfont.shx
  0
STYLE
  5
5446
330
3
100
AcDbSymbolTableRecord
100
AcDbTextStyleTableRecord
  2
ｽﾀｲﾙ1
 70
     0
 40
0.0
 41
1.0
 50
0.0
 71
     0
 42
2.5
  3
MS PGothic.ttf
  4

1001
ACAD
1000
MS PGothic
1071
    32818
  0
ENDTAB
  0
TABLE
  2
VIEW
  5
6
330
0
100
AcDbSymbolTable
 70
     0
  0
ENDTAB
  0
TABLE
  2
UCS
  5
7
330
0
100
AcDbSymbolTable
 70
     0
  0
ENDTAB
  0
TABLE
  2
APPID
  5
9
330
0
100
AcDbSymbolTable
 70
     1
  0
APPID
  5
11
330
9
100
AcDbSymbolTableRecord
100
AcDbRegAppTableRecord
  2
ACAD
 70
     0
  0
ENDTAB
  0
TABLE
  2
DIMSTYLE
  5
A
330
0
100
AcDbSymbolTable
 70
     1
  0
DIMSTYLE
105
1D
102
{ACAD_REACTORS
330
1057
330
469E
330
469F
330
46A6
330
481F
330
4820
330
482B
330
482F
330
4831
330
4832
330
4833
330
483F
330
4AA9
330
5211
102
}
330
A
100
AcDbSymbolTableRecord
100
AcDbDimStyleTableRecord
  2
STANDARD
 70
     0
  3

  4

  5

  6

  7

 40
1.0
 41
0.18
 42
0.0625
 43
0.38
 44
0.18
 45
0.0
 46
0.0
 47
0.0
 48
0.0
140
0.18
141
0.09
142
0.0
143
25.4
144
1.0
145
0.0
146
1.0
147
0.09
 71
     0
 72
     0
 73
     1
 74
     1
 75
     0
 76
     0
 77
     0
 78
     0
170
     0
171
     2
172
     0
173
     0
174
     0
175
     0
176
     0
177
     0
178
     0
270
     2
271
     4
272
     4
273
     2
274
     2
340
10
275
     0
280
     0
281
     0
282
     0
283
     1
284
     0
285
     0
286
     0
287
     3
288
     0
  0
ENDTAB
  0
TABLE
  2
BLOCK_RECORD
  5
1
330
0
100
AcDbSymbolTable
 70
    15
  0
BLOCK_RECORD
  5
1A
102
{ACAD_XDICTIONARY
360
73C
102
}
330
1
100
AcDbSymbolTableRecord
100
AcDbBlockTableRecord
  2
*MODEL_SPACE
  0
BLOCK_RECORD
  5
17
102
{ACAD_XDICTIONARY
360
73A
102
}
330
1
100
AcDbSymbolTableRecord
100
AcDbBlockTableRecord
  2
*PAPER_SPACE
  0
BLOCK_RECORD
  5
B2
330
1
100
AcDbSymbolTableRecord
100
AcDbBlockTableRecord
  2
_OPEN
  0
BLOCK_RECORD
  5
1058
330
1
100
AcDbSymbolTableRecord
100
AcDbBlockTableRecord
  2
*D1
  0
BLOCK_RECORD
  5
487D
330
1
100
AcDbSymbolTableRecord
100
AcDbBlockTableRecord
  2
*D2
  0
BLOCK_RECORD
  5
4889
330
1
100
AcDbSymbolTableRecord
100
AcDbBlockTableRecord
  2
*D3
  0
BLOCK_RECORD
  5
48AD
330
1
100
AcDbSymbolTableRecord
100
AcDbBlockTableRecord
  2
*D4
  0
BLOCK_RECORD
  5
48D3
330
1
100
AcDbSymbolTableRecord
100
AcDbBlockTableRecord
  2
*D5
  0
BLOCK_RECORD
  5
48DF
330
1
100
AcDbSymbolTableRecord
100
AcDbBlockTableRecord
  2
*D6
  0
BLOCK_RECORD
  5
48EB
330
1
100
AcDbSymbolTableRecord
100
AcDbBlockTableRecord
  2
*D7
  0
BLOCK_RECORD
  5
48F9
330
1
100
AcDbSymbolTableRecord
100
AcDbBlockTableRecord
  2
*D8
  0
BLOCK_RECORD
  5
4905
330
1
100
AcDbSymbolTableRecord
100
AcDbBlockTableRecord
  2
*D9
  0
BLOCK_RECORD
  5
4913
330
1
100
AcDbSymbolTableRecord
100
AcDbBlockTableRecord
  2
*D10
  0
BLOCK_RECORD
  5
491F
330
1
100
AcDbSymbolTableRecord
100
AcDbBlockTableRecord
  2
*D11
  0
BLOCK_RECORD
  5
492B
330
1
100
AcDbSymbolTableRecord
100
AcDbBlockTableRecord
  2
*D12
  0
BLOCK_RECORD
  5
4AAA
330
1
100
AcDbSymbolTableRecord
100
AcDbBlockTableRecord
  2
*D13
  0
BLOCK_RECORD
  5
5212
330
1
100
AcDbSymbolTableRecord
100
AcDbBlockTableRecord
  2
*D14
  0
ENDTAB
  0
ENDSEC
  0
SECTION
  2
BLOCKS
  0
BLOCK
  5
1B
330
1A
100
AcDbEntity
  8
0
100
AcDbBlockBegin
  2
*MODEL_SPACE
 70
     0
 10
0.0
 20
0.0
 30
0.0
  3
*MODEL_SPACE
  1

  0
ENDBLK
  5
1C
330
1A
100
AcDbEntity
  8
0
100
AcDbBlockEnd
  0
BLOCK
  5
18
330
17
100
AcDbEntity
 67
     1
  8
0
100
AcDbBlockBegin
  2
*PAPER_SPACE
 70
     0
 10
0.0
 20
0.0
 30
0.0
  3
*PAPER_SPACE
  1

  0
ENDBLK
  5
19
330
17
100
AcDbEntity
 67
     1
  8
0
100
AcDbBlockEnd
  0
BLOCK
  5
B3
330
B2
100
AcDbEntity
  8
0
100
AcDbBlockBegin
  2
_OPEN
 70
     0
 10
0.0
 20
0.0
 30
0.0
  3
_OPEN
  1

  0
LINE
  5
B4
330
B2
100
AcDbEntity
  8
0
  6
BYBLOCK
 62
     0
100
AcDbLine
 10
-1.0
 20
0.1666666666666666
 30
0.0
 11
0.0
 21
0.0
 31
0.0
  0
LINE
  5
B5
330
B2
100
AcDbEntity
  8
0
  6
BYBLOCK
 62
     0
100
AcDbLine
 10
0.0
 20
0.0
 30
0.0
 11
-1.0
 21
-0.1666666666666666
 31
0.0
  0
LINE
  5
B6
330
B2
100
AcDbEntity
  8
0
  6
BYBLOCK
 62
     0
100
AcDbLine
 10
0.0
 20
0.0
 30
0.0
 11
-1.0
 21
0.0
 31
0.0
  0
ENDBLK
  5
B7
330
B2
100
AcDbEntity
  8
0
100
AcDbBlockEnd
  0
BLOCK
  5
1062
330
1058
100
AcDbEntity
  8
0
100
AcDbBlockBegin
  2
*D1
 70
     1
 10
0.0
 20
0.0
 30
0.0
  3
*D1
  1

  0
LINE
  5
5258
330
1058
100
AcDbEntity
  8
SUNPOU
100
AcDbLine
 10
61.43527530695191
 20
226.2676595628919
 30
0.0
 11
37.0500126603024
 21
226.2676595628919
 31
0.0
  0
LINE
  5
5259
330
1058
100
AcDbEntity
  8
SUNPOU
100
AcDbLine
 10
61.43527530695192
 20
204.2676595228919
 30
0.0
 11
37.0500126603024
 21
204.2676595228919
 31
0.0
  0
LINE
  5
525A
330
1058
100
AcDbEntity
  8
SUNPOU
100
AcDbLine
 10
38.55001266030241
 20
223.2676595628919
 30
0.0
 11
38.5500126603024
 21
207.2676595228919
 31
0.0
  0
INSERT
  5
525B
330
1058
100
AcDbEntity
  8
SUNPOU
100
AcDbBlockReference
  2
_OPEN
 10
38.55001266030241
 20
226.2676595628919
 30
0.0
 41
3.0
 42
3.0
 43
3.0
 50
90.0
  0
INSERT
  5
525C
330
1058
100
AcDbEntity
  8
SUNPOU
100
AcDbBlockReference
  2
_OPEN
 10
38.5500126603024
 20
204.2676595228919
 30
0.0
 41
3.0
 42
3.0
 43
3.0
 50
270.0
  0
MTEXT
  5
525D
330
1058
100
AcDbEntity
  8
SUNPOU
100
AcDbMText
 10
36.05001266030237
 20
215.2676595428919
 30
0.0
 40
3.0
 41
0.0
 71
     5
 72
     5
  1
\A1;22
 11
0.0000000000000001
 21
1.0
 31
0.0
1001
ACAD
1000
MTEXTBEGIN
1070
    73
1070
     1
1070
    44
1040
1.0
1070
    74
1070
     0
1000
MTEXTEND
1000
MTEXTBEGIN
1070
    73
1070
     1
1070
    44
1040
1.0
1070
    74
1070
     0
1000
MTEXTEND
1000
MTEXTBEGIN
1070
    73
1070
     1
1070
    44
1040
1.0
1070
    74
1070
     0
1000
MTEXTEND
1000
MTEXTBEGIN
1070
    73
1070
     1
1070
    44
1040
1.0
1070
    74
1070
     0
1000
MTEXTEND
1000
MTEXTBEGIN
1070
    73
1070
     1
1070
    44
1040
1.0
1070
    74
1070
     0
1000
MTEXTEND
1000
MTEXTBEGIN
1070
    73
1070
     1
1070
    44
1040
1.0
1070
    74
1070
     0
1000
MTEXTEND
  0
POINT
  5
525E
330
1058
100
AcDbEntity
  8
DEFPOINTS
 62
     0
100
AcDbPoint
 10
64.43527530695192
 20
226.2676595628918
 30
0.0
  0
POINT
  5
525F
330
1058
100
AcDbEntity
  8
DEFPOINTS
 62
     0
100
AcDbPoint
 10
64.43527530695192
 20
204.2676595228918
 30
0.0
  0
POINT
  5
5260
330
1058
100
AcDbEntity
  8
DEFPOINTS
 62
     0
100
AcDbPoint
 10
38.5500126603024
 20
204.2676595228919
 30
0.0
  0
ENDBLK
  5
1063
330
1058
100
AcDbEntity
  8
0
100
AcDbBlockEnd
  0
BLOCK
  5
4887
330
487D
100
AcDbEntity
  8
0
100
AcDbBlockBegin
  2
*D2
 70
     1
 10
0.0
 20
0.0
 30
0.0
  3
*D2
  1

  0
LINE
  5
5232
330
487D
100
AcDbEntity
  8
SUNPOU
100
AcDbLine
 10
216.3613882813602
 20
241.7008557322895
 30
0.0
 11
234.0690338442533
 21
241.7008557322895
 31
0.0
  0
LINE
  5
5233
330
487D
100
AcDbEntity
  8
SUNPOU
100
AcDbLine
 10
216.3613882813602
 20
188.8344633534941
 30
0.0
 11
234.0690338442533
 21
188.8344633534941
 31
0.0
  0
LINE
  5
5234
330
487D
100
AcDbEntity
  8
SUNPOU
100
AcDbLine
 10
232.5690338442533
 20
238.7008557322895
 30
0.0
 11
232.5690338442533
 21
191.8344633534941
 31
0.0
  0
INSERT
  5
5235
330
487D
100
AcDbEntity
  8
SUNPOU
100
AcDbBlockReference
  2
_OPEN
 10
232.5690338442533
 20
241.7008557322895
 30
0.0
 41
3.0
 42
3.0
 43
3.0
 50
90.0
  0
INSERT
  5
5236
330
487D
100
AcDbEntity
  8
SUNPOU
100
AcDbBlockReference
  2
_OPEN
 10
232.5690338442533
 20
188.8344633534941
 30
0.0
 41
3.0
 42
3.0
 43
3.0
 50
270.0
  0
MTEXT
  5
5237
330
487D
100
AcDbEntity
  8
SUNPOU
100
AcDbMText
 10
230.0690338442533
 20
215.2676595428919
 30
0.0
 40
3.0
 41
0.0
 71
     5
 72
     5
  1
\A1;53
 11
0.0000000000000001
 21
1.0
 31
0.0
1001
ACAD
1000
MTEXTBEGIN
1070
    73
1070
     1
1070
    44
1040
1.0
1070
    74
1070
     0
1000
MTEXTEND
1000
MTEXTBEGIN
1070
    73
1070
     1
1070
    44
1040
1.0
1070
    74
1070
     0
1000
MTEXTEND
1000
MTEXTBEGIN
1070
    73
1070
     1
1070
    44
1040
1.0
1070
    74
1070
     0
1000
MTEXTEND
1000
MTEXTBEGIN
1070
    73
1070
     1
1070
    44
1040
1.0
1070
    74
1070
     0
1000
MTEXTEND
1000
MTEXTBEGIN
1070
    73
1070
     1
1070
    44
1040
1.0
1070
    74
1070
     0
1000
MTEXTEND
1000
MTEXTBEGIN
1070
    73
1070
     1
1070
    44
1040
1.0
1070
    74
1070
     0
1000
MTEXTEND
  0
POINT
  5
5238
330
487D
100
AcDbEntity
  8
DEFPOINTS
 62
     0
100
AcDbPoint
 10
213.3613882813602
 20
241.7008557322895
 30
0.0
  0
POINT
  5
5239
330
487D
100
AcDbEntity
  8
DEFPOINTS
 62
     0
100
AcDbPoint
 10
213.3613882813602
 20
188.8344633534941
 30
0.0
  0
POINT
  5
523A
330
487D
100
AcDbEntity
  8
DEFPOINTS
 62
     0
100
AcDbPoint
 10
232.5690338442533
 20
188.8344633534941
 30
0.0
  0
ENDBLK
  5
4888
330
487D
100
AcDbEntity
  8
0
100
AcDbBlockEnd
  0
BLOCK
  5
4893
330
4889
100
AcDbEntity
  8
0
100
AcDbBlockBegin
  2
*D3
 70
     1
 10
0.0
 20
0.0
 30
0.0
  3
*D3
  1

  0
LINE
  5
5261
330
4889
100
AcDbEntity
  8
SUNPOU
100
AcDbLine
 10
216.0253224462202
 20
137.090027848847
 30
0.0
 11
216.0253224462202
 21
165.4245570740195
 31
0.0
  0
LINE
  5
5262
330
4889
100
AcDbEntity
  8
SUNPOU
100
AcDbLine
 10
231.0253224462202
 20
137.090027848847
 30
0.0
 11
231.0253224462202
 21
165.4245570740195
 31
0.0
  0
LINE
  5
5263
330
4889
100
AcDbEntity
  8
SUNPOU
100
AcDbLine
 10
219.0253224462202
 20
163.9245570740195
 30
0.0
 11
228.0253224462202
 21
163.9245570740195
 31
0.0
  0
INSERT
  5
5264
330
4889
100
AcDbEntity
  8
SUNPOU
100
AcDbBlockReference
  2
_OPEN
 10
216.0253224462202
 20
163.9245570740195
 30
0.0
 41
3.0
 42
3.0
 43
3.0
 50
180.0
  0
INSERT
  5
5265
330
4889
100
AcDbEntity
  8
SUNPOU
100
AcDbBlockReference
  2
_OPEN
 10
231.0253224462202
 20
163.9245570740195
 30
0.0
 41
3.0
 42
3.0
 43
3.0
  0
MTEXT
  5
5266
330
4889
100
AcDbEntity
  8
SUNPOU
100
AcDbMText
 10
223.5253224462202
 20
166.4245570740195
 30
0.0
 40
3.0
 41
0.0
 71
     5
 72
     5
  1
\A1;15
1001
ACAD
1000
MTEXTBEGIN
1070
    73
1070
     1
1070
    44
1040
1.0
1070
    74
1070
     0
1000
MTEXTEND
1000
MTEXTBEGIN
1070
    73
1070
     1
1070
    44
1040
1.0
1070
    74
1070
     0
1000
MTEXTEND
1000
MTEXTBEGIN
1070
    73
1070
     1
1070
    44
1040
1.0
1070
    74
1070
     0
1000
MTEXTEND
1000
MTEXTBEGIN
1070
    73
1070
     1
1070
    44
1040
1.0
1070
    74
1070
     0
1000
MTEXTEND
1000
MTEXTBEGIN
1070
    73
1070
     1
1070
    44
1040
1.0
1070
    74
1070
     0
1000
MTEXTEND
1000
MTEXTBEGIN
1070
    73
1070
     1
1070
    44
1040
1.0
1070
    74
1070
     0
1000
MTEXTEND
  0
POINT
  5
5267
330
4889
100
AcDbEntity
  8
DEFPOINTS
 62
     0
100
AcDbPoint
 10
216.0253224462202
 20
134.090027848847
 30
0.0
  0
POINT
  5
5268
330
4889
100
AcDbEntity
  8
DEFPOINTS
 62
     0
100
AcDbPoint
 10
231.0253224462202
 20
134.090027848847
 30
0.0
  0
POINT
  5
5269
330
4889
100
AcDbEntity
  8
DEFPOINTS
 62
     0
100
AcDbPoint
 10
231.0253224462202
 20
163.9245570740195
 30
0.0
  0
ENDBLK
  5
4894
330
4889
100
AcDbEntity
  8
0
100
AcDbBlockEnd
  0
BLOCK
  5
48B7
330
48AD
100
AcDbEntity
  8
0
100
AcDbBlockBegin
  2
*D4
 70
     1
 10
0.0
 20
0.0
 30
0.0
  3
*D4
  1

  0
LINE
  5
524F
330
48AD
100
AcDbEntity
  8
SUNPOU
100
AcDbLine
 10
64.43527530695189
 20
87.48761336739965
 30
0.0
 11
64.43527530695189
 21
165.4245570740195
 31
0.0
  0
LINE
  5
5250
330
48AD
100
AcDbEntity
  8
SUNPOU
100
AcDbLine
 10
216.0253224462202
 20
137.090027848847
 30
0.0
 11
216.0253224462202
 21
165.4245570740195
 31
0.0
  0
LINE
  5
5251
330
48AD
100
AcDbEntity
  8
SUNPOU
100
AcDbLine
 10
67.43527530695189
 20
163.9245570740195
 30
0.0
 11
213.0253224462202
 21
163.9245570740195
 31
0.0
  0
INSERT
  5
5252
330
48AD
100
AcDbEntity
  8
SUNPOU
100
AcDbBlockReference
  2
_OPEN
 10
64.43527530695189
 20
163.9245570740195
 30
0.0
 41
3.0
 42
3.0
 43
3.0
 50
180.0
  0
INSERT
  5
5253
330
48AD
100
AcDbEntity
  8
SUNPOU
100
AcDbBlockReference
  2
_OPEN
 10
216.0253224462202
 20
163.9245570740195
 30
0.0
 41
3.0
 42
3.0
 43
3.0
  0
MTEXT
  5
5254
330
48AD
100
AcDbEntity
  8
SUNPOU
100
AcDbMText
 10
140.230298876586
 20
166.4245570740195
 30
0.0
 40
3.0
 41
0.0
 71
     5
 72
     5
  1
\A1;152
1001
ACAD
1000
MTEXTBEGIN
1070
    73
1070
     1
1070
    44
1040
1.0
1070
    74
1070
     0
1000
MTEXTEND
1000
MTEXTBEGIN
1070
    73
1070
     1
1070
    44
1040
1.0
1070
    74
1070
     0
1000
MTEXTEND
1000
MTEXTBEGIN
1070
    73
1070
     1
1070
    44
1040
1.0
1070
    74
1070
     0
1000
MTEXTEND
1000
MTEXTBEGIN
1070
    73
1070
     1
1070
    44
1040
1.0
1070
    74
1070
     0
1000
MTEXTEND
1000
MTEXTBEGIN
1070
    73
1070
     1
1070
    44
1040
1.0
1070
    74
1070
     0
1000
MTEXTEND
1000
MTEXTBEGIN
1070
    73
1070
     1
1070
    44
1040
1.0
1070
    74
1070
     0
1000
MTEXTEND
  0
POINT
  5
5255
330
48AD
100
AcDbEntity
  8
DEFPOINTS
 62
     0
100
AcDbPoint
 10
64.43527530695189
 20
84.48761336739966
 30
0.0
  0
POINT
  5
5256
330
48AD
100
AcDbEntity
  8
DEFPOINTS
 62
     0
100
AcDbPoint
 10
216.0253224462202
 20
134.090027848847
 30
0.0
  0
POINT
  5
5257
330
48AD
100
AcDbEntity
  8
DEFPOINTS
 62
     0
100
AcDbPoint
 10
216.0253224462202
 20
163.9245570740195
 30
0.0
  0
ENDBLK
  5
48B8
330
48AD
100
AcDbEntity
  8
0
100
AcDbBlockEnd
  0
BLOCK
  5
48DD
330
48D3
100
AcDbEntity
  8
0
100
AcDbBlockBegin
  2
*D5
 70
     1
 10
0.0
 20
0.0
 30
0.0
  3
*D5
  1

  0
LINE
  5
527C
330
48D3
100
AcDbEntity
  8
SUNPOU
100
AcDbLine
 10
303.7920925146241
 20
174.6696416018298
 30
0.0
 11
285.7668435107878
 21
163.8544922020242
 31
0.0
  0
LINE
  5
527D
330
48D3
100
AcDbEntity
  8
SUNPOU
100
AcDbLine
 10
322.3139397051397
 20
143.7998962771788
 30
0.0
 11
304.2886907013035
 21
132.9847468773732
 31
0.0
  0
LINE
  5
527E
330
48D3
100
AcDbEntity
  8
SUNPOU
100
AcDbLine
 10
288.5965701654559
 20
162.0537570577398
 30
0.0
 11
304.0314428239303
 21
136.3289692876783
 31
0.0
  0
INSERT
  5
527F
330
48D3
100
AcDbEntity
  8
SUNPOU
100
AcDbBlockReference
  2
_OPEN
 10
287.0530828994352
 20
164.6262358350346
 30
0.0
 41
3.0
 42
3.0
 43
3.0
 50
120.9637565262393
  0
INSERT
  5
5280
330
48D3
100
AcDbEntity
  8
SUNPOU
100
AcDbBlockReference
  2
_OPEN
 10
305.5749300899509
 20
133.7564905103835
 30
0.0
 41
3.0
 42
3.0
 43
3.0
 50
300.9637565262394
  0
MTEXT
  5
5281
330
48D3
100
AcDbEntity
  8
SUNPOU
100
AcDbMText
 10
298.4577388091054
 20
150.4776025610596
 30
0.0
 40
3.0
 41
0.0
 71
     5
 72
     5
  1
\A1;36
 11
0.5144957553402124
 21
-0.8574929257649326
 31
0.0
1001
ACAD
1000
MTEXTBEGIN
1070
    73
1070
     1
1070
    44
1040
1.0
1070
    74
1070
     0
1000
MTEXTEND
1000
MTEXTBEGIN
1070
    73
1070
     1
1070
    44
1040
1.0
1070
    74
1070
     0
1000
MTEXTEND
1000
MTEXTBEGIN
1070
    73
1070
     1
1070
    44
1040
1.0
1070
    74
1070
     0
1000
MTEXTEND
1000
MTEXTBEGIN
1070
    73
1070
     1
1070
    44
1040
1.0
1070
    74
1070
     0
1000
MTEXTEND
1000
MTEXTBEGIN
1070
    73
1070
     1
1070
    44
1040
1.0
1070
    74
1070
     0
1000
MTEXTEND
1000
MTEXTBEGIN
1070
    73
1070
     1
1070
    44
1040
1.0
1070
    74
1070
     0
1000
MTEXTEND
  0
POINT
  5
5282
330
48D3
100
AcDbEntity
  8
DEFPOINTS
 62
     0
100
AcDbPoint
 10
306.3645712919188
 20
176.2131288678505
 30
0.0
  0
POINT
  5
5283
330
48D3
100
AcDbEntity
  8
DEFPOINTS
 62
     0
100
AcDbPoint
 10
324.8864184824345
 20
145.3433835431994
 30
0.0
  0
POINT
  5
5284
330
48D3
100
AcDbEntity
  8
DEFPOINTS
 62
     0
100
AcDbPoint
 10
305.5749300899509
 20
133.7564905103835
 30
0.0
  0
ENDBLK
  5
48DE
330
48D3
100
AcDbEntity
  8
0
100
AcDbBlockEnd
  0
BLOCK
  5
48E9
330
48DF
100
AcDbEntity
  8
0
100
AcDbBlockBegin
  2
*D6
 70
     1
 10
0.0
 20
0.0
 30
0.0
  3
*D6
  1

  0
LINE
  5
5246
330
48DF
100
AcDbEntity
  8
SUNPOU
100
AcDbLine
 10
215.6954786809435
 20
140.4707193744484
 30
0.0
 11
233.2187114863336
 21
150.9846590540222
 31
0.0
  0
LINE
  5
5247
330
48DF
100
AcDbEntity
  8
SUNPOU
100
AcDbLine
 10
242.4492579563265
 20
95.88108723328714
 30
0.0
 11
259.9724907617166
 21
106.395026912861
 31
0.0
  0
LINE
  5
5248
330
48DF
100
AcDbEntity
  8
SUNPOU
100
AcDbLine
 10
233.4759593635337
 20
147.6404366437038
 30
0.0
 11
257.1427641071418
 21
108.195762057292
 31
0.0
  0
INSERT
  5
5249
330
48DF
100
AcDbEntity
  8
SUNPOU
100
AcDbBlockReference
  2
_OPEN
 10
231.9324720976462
 20
150.2129154210785
 30
0.0
 41
3.0
 42
3.0
 43
3.0
 50
120.9637565232737
  0
INSERT
  5
524A
330
48DF
100
AcDbEntity
  8
SUNPOU
100
AcDbBlockReference
  2
_OPEN
 10
258.6862513730293
 20
105.6232832799173
 30
0.0
 41
3.0
 42
3.0
 43
3.0
 50
300.9637565232737
  0
MTEXT
  5
524B
330
48DF
100
AcDbEntity
  8
SUNPOU
100
AcDbMText
 10
247.4530940498167
 20
129.2043387387374
 30
0.0
 40
3.0
 41
0.0
 71
     5
 72
     5
  1
\A1;52
 11
0.5144957552958279
 21
-0.8574929257915632
 31
0.0
1001
ACAD
1000
MTEXTBEGIN
1070
    73
1070
     1
1070
    44
1040
1.0
1070
    74
1070
     0
1000
MTEXTEND
1000
MTEXTBEGIN
1070
    73
1070
     1
1070
    44
1040
1.0
1070
    74
1070
     0
1000
MTEXTEND
1000
MTEXTBEGIN
1070
    73
1070
     1
1070
    44
1040
1.0
1070
    74
1070
     0
1000
MTEXTEND
1000
MTEXTBEGIN
1070
    73
1070
     1
1070
    44
1040
1.0
1070
    74
1070
     0
1000
MTEXTEND
1000
MTEXTBEGIN
1070
    73
1070
     1
1070
    44
1040
1.0
1070
    74
1070
     0
1000
MTEXTEND
1000
MTEXTBEGIN
1070
    73
1070
     1
1070
    44
1040
1.0
1070
    74
1070
     0
1000
MTEXTEND
  0
POINT
  5
524C
330
48DF
100
AcDbEntity
  8
DEFPOINTS
 62
     0
100
AcDbPoint
 10
213.1229999035688
 20
138.9272321085609
 30
0.0
  0
POINT
  5
524D
330
48DF
100
AcDbEntity
  8
DEFPOINTS
 62
     0
100
AcDbPoint
 10
239.8767791789518
 20
94.33759996739969
 30
0.0
  0
POINT
  5
524E
330
48DF
100
AcDbEntity
  8
DEFPOINTS
 62
     0
100
AcDbPoint
 10
258.6862513730293
 20
105.6232832799173
 30
0.0
  0
ENDBLK
  5
48EA
330
48DF
100
AcDbEntity
  8
0
100
AcDbBlockEnd
  0
BLOCK
  5
48F7
330
48EB
100
AcDbEntity
  8
0
100
AcDbBlockBegin
  2
*D7
 70
     1
 10
0.0
 20
0.0
 30
0.0
  3
*D7
  1

  0
LINE
  5
5285
330
48EB
100
AcDbEntity
  8
SUNPOU
100
AcDbLine
 10
319.4842130512922
 20
148.5161073680133
 30
0.0
 11
309.2914765447437
 21
142.4004654654958
 31
0.0
  0
LINE
  5
5286
330
48EB
100
AcDbEntity
  8
SUNPOU
100
AcDbLine
 10
322.3139397051397
 20
143.7998962771788
 30
0.0
 11
312.1212031985912
 21
137.6842543746614
 31
0.0
  0
LINE
  5
5287
330
48EB
100
AcDbEntity
  8
SUNPOU
100
AcDbLine
 10
309.0342286673706
 20
145.744687875801
 30
0.0
 11
307.4907414013499
 21
148.3171666530958
 31
0.0
  0
LINE
  5
5288
330
48EB
100
AcDbEntity
  8
SUNPOU
100
AcDbLine
 10
314.9509298532592
 20
135.8835192303769
 30
0.0
 11
316.4944171192799
 21
133.3110404530821
 31
0.0
  0
LINE
  5
5289
330
48EB
100
AcDbEntity
  8
SUNPOU
100
AcDbLine
 10
310.5777159333911
 20
143.1722090985061
 30
0.0
 11
313.4074425872387
 21
138.4559980076717
 31
0.0
  0
INSERT
  5
528A
330
48EB
100
AcDbEntity
  8
SUNPOU
100
AcDbBlockReference
  2
_OPEN
 10
310.5777159333911
 20
143.1722090985061
 30
0.0
 41
3.0
 42
3.0
 43
3.0
 50
300.9637565262388
  0
INSERT
  5
528B
330
48EB
100
AcDbEntity
  8
SUNPOU
100
AcDbBlockReference
  2
_OPEN
 10
313.4074425872387
 20
138.4559980076717
 30
0.0
 41
3.0
 42
3.0
 43
3.0
 50
120.9637565262388
  0
MTEXT
  5
528C
330
48EB
100
AcDbEntity
  8
SUNPOU
100
AcDbMText
 10
314.1363115747272
 20
142.1003429414394
 30
0.0
 40
3.0
 41
0.0
 71
     5
 72
     5
  1
\A1;6
 11
0.5144957553402041
 21
-0.8574929257649376
 31
0.0
1001
ACAD
1000
MTEXTBEGIN
1070
    73
1070
     1
1070
    44
1040
1.0
1070
    74
1070
     0
1000
MTEXTEND
1000
MTEXTBEGIN
1070
    73
1070
     1
1070
    44
1040
1.0
1070
    74
1070
     0
1000
MTEXTEND
1000
MTEXTBEGIN
1070
    73
1070
     1
1070
    44
1040
1.0
1070
    74
1070
     0
1000
MTEXTEND
1000
MTEXTBEGIN
1070
    73
1070
     1
1070
    44
1040
1.0
1070
    74
1070
     0
1000
MTEXTEND
1000
MTEXTBEGIN
1070
    73
1070
     1
1070
    44
1040
1.0
1070
    74
1070
     0
1000
MTEXTEND
1000
MTEXTBEGIN
1070
    73
1070
     1
1070
    44
1040
1.0
1070
    74
1070
     0
1000
MTEXTEND
  0
POINT
  5
528D
330
48EB
100
AcDbEntity
  8
DEFPOINTS
 62
     0
100
AcDbPoint
 10
322.056691828587
 20
150.0595946340339
 30
0.0
  0
POINT
  5
528E
330
48EB
100
AcDbEntity
  8
DEFPOINTS
 62
     0
100
AcDbPoint
 10
324.8864184824345
 20
145.3433835431994
 30
0.0
  0
POINT
  5
528F
330
48EB
100
AcDbEntity
  8
DEFPOINTS
 62
     0
100
AcDbPoint
 10
313.4074425872387
 20
138.4559980076717
 30
0.0
  0
ENDBLK
  5
48F8
330
48EB
100
AcDbEntity
  8
0
100
AcDbBlockEnd
  0
BLOCK
  5
4903
330
48F9
100
AcDbEntity
  8
0
100
AcDbBlockBegin
  2
*D8
 70
     1
 10
0.0
 20
0.0
 30
0.0
  3
*D8
  1

  0
LINE
  5
5273
330
48F9
100
AcDbEntity
  8
SUNPOU
100
AcDbLine
 10
304.8210840253914
 20
178.7856076448412
 30
0.0
 11
280.9582524115982
 21
218.5569936592501
 31
0.0
  0
LINE
  5
5274
330
48F9
100
AcDbEntity
  8
SUNPOU
100
AcDbLine
 10
350.2682091173827
 20
206.0538827059184
 30
0.0
 11
326.4053775035895
 21
245.8252687203273
 31
0.0
  0
LINE
  5
5275
330
48F9
100
AcDbEntity
  8
SUNPOU
100
AcDbLine
 10
284.3024748218527
 20
218.8142415372822
 30
0.0
 11
324.6046423598625
 21
242.9955420653045
 31
0.0
  0
INSERT
  5
5276
330
48F9
100
AcDbEntity
  8
SUNPOU
100
AcDbBlockReference
  2
_OPEN
 10
281.729996044862
 20
217.2707542707548
 30
0.0
 41
3.0
 42
3.0
 43
3.0
 50
210.9637565375264
  0
INSERT
  5
5277
330
48F9
100
AcDbEntity
  8
SUNPOU
100
AcDbBlockReference
  2
_OPEN
 10
327.1771211368532
 20
244.5390293318319
 30
0.0
 41
3.0
 42
3.0
 43
3.0
 50
30.96375653752649
  0
MTEXT
  5
5278
330
48F9
100
AcDbEntity
  8
SUNPOU
100
AcDbMText
 10
303.1673192020848
 20
233.0486241154523
 30
0.0
 40
3.0
 41
0.0
 71
     5
 72
     5
  1
\A1;53
 11
0.8574929256635785
 21
0.514495755509136
 31
0.0
1001
ACAD
1000
MTEXTBEGIN
1070
    73
1070
     1
1070
    44
1040
1.0
1070
    74
1070
     0
1000
MTEXTEND
1000
MTEXTBEGIN
1070
    73
1070
     1
1070
    44
1040
1.0
1070
    74
1070
     0
1000
MTEXTEND
1000
MTEXTBEGIN
1070
    73
1070
     1
1070
    44
1040
1.0
1070
    74
1070
     0
1000
MTEXTEND
1000
MTEXTBEGIN
1070
    73
1070
     1
1070
    44
1040
1.0
1070
    74
1070
     0
1000
MTEXTEND
1000
MTEXTBEGIN
1070
    73
1070
     1
1070
    44
1040
1.0
1070
    74
1070
     0
1000
MTEXTEND
1000
MTEXTBEGIN
1070
    73
1070
     1
1070
    44
1040
1.0
1070
    74
1070
     0
1000
MTEXTEND
  0
POINT
  5
5279
330
48F9
100
AcDbEntity
  8
DEFPOINTS
 62
     0
100
AcDbPoint
 10
306.3645712919188
 20
176.2131288678505
 30
0.0
  0
POINT
  5
527A
330
48F9
100
AcDbEntity
  8
DEFPOINTS
 62
     0
100
AcDbPoint
 10
351.81169638391
 20
203.4814039289276
 30
0.0
  0
POINT
  5
527B
330
48F9
100
AcDbEntity
  8
DEFPOINTS
 62
     0
100
AcDbPoint
 10
327.1771211368532
 20
244.5390293318319
 30
0.0
  0
ENDBLK
  5
4904
330
48F9
100
AcDbEntity
  8
0
100
AcDbBlockEnd
  0
BLOCK
  5
4911
330
4905
100
AcDbEntity
  8
0
100
AcDbBlockBegin
  2
*D9
 70
     1
 10
0.0
 20
0.0
 30
0.0
  3
*D9
  1

  0
LINE
  5
52A2
330
4905
100
AcDbEntity
  8
SUNPOU
100
AcDbLine
 10
303.792092514624
 20
174.6696416018298
 30
0.0
 11
293.659704195226
 21
168.5902086115942
 31
0.0
  0
LINE
  5
52A3
330
4905
100
AcDbEntity
  8
SUNPOU
100
AcDbLine
 10
306.6218191687692
 20
169.9534305104994
 30
0.0
 11
296.4894308493711
 21
163.8739975202637
 31
0.0
  0
LINE
  5
52A4
330
4905
100
AcDbEntity
  8
SUNPOU
100
AcDbLine
 10
293.4024563178528
 20
171.9344310218993
 30
0.0
 11
291.8589690518321
 21
174.5069097991941
 31
0.0
  0
LINE
  5
52A5
330
4905
100
AcDbEntity
  8
SUNPOU
100
AcDbLine
 10
299.3191575040392
 20
162.0732623759793
 30
0.0
 11
300.8626447700598
 21
159.5007835986845
 31
0.0
  0
LINE
  5
52A6
330
4905
100
AcDbEntity
  8
SUNPOU
100
AcDbLine
 10
294.9459435838734
 20
169.3619522446045
 30
0.0
 11
297.7756702380185
 21
164.6457411532741
 31
0.0
  0
INSERT
  5
52A7
330
4905
100
AcDbEntity
  8
SUNPOU
100
AcDbBlockReference
  2
_OPEN
 10
294.9459435838734
 20
169.3619522446045
 30
0.0
 41
3.0
 42
3.0
 43
3.0
 50
300.9637565262393
  0
INSERT
  5
52A8
330
4905
100
AcDbEntity
  8
SUNPOU
100
AcDbBlockReference
  2
_OPEN
 10
297.7756702380185
 20
164.6457411532741
 30
0.0
 41
3.0
 42
3.0
 43
3.0
 50
120.9637565262393
  0
MTEXT
  5
52A9
330
4905
100
AcDbEntity
  8
SUNPOU
100
AcDbMText
 10
298.5045392253583
 20
168.2900860872898
 30
0.0
 40
3.0
 41
0.0
 71
     5
 72
     5
  1
\A1;6
 11
0.5144957553402114
 21
-0.8574929257649333
 31
0.0
1001
ACAD
1000
MTEXTBEGIN
1070
    73
1070
     1
1070
    44
1040
1.0
1070
    74
1070
     0
1000
MTEXTEND
1000
MTEXTBEGIN
1070
    73
1070
     1
1070
    44
1040
1.0
1070
    74
1070
     0
1000
MTEXTEND
1000
MTEXTBEGIN
1070
    73
1070
     1
1070
    44
1040
1.0
1070
    74
1070
     0
1000
MTEXTEND
1000
MTEXTBEGIN
1070
    73
1070
     1
1070
    44
1040
1.0
1070
    74
1070
     0
1000
MTEXTEND
1000
MTEXTBEGIN
1070
    73
1070
     1
1070
    44
1040
1.0
1070
    74
1070
     0
1000
MTEXTEND
1000
MTEXTBEGIN
1070
    73
1070
     1
1070
    44
1040
1.0
1070
    74
1070
     0
1000
MTEXTEND
  0
POINT
  5
52AA
330
4905
100
AcDbEntity
  8
DEFPOINTS
 62
     0
100
AcDbPoint
 10
306.3645712919188
 20
176.2131288678505
 30
0.0
  0
POINT
  5
52AB
330
4905
100
AcDbEntity
  8
DEFPOINTS
 62
     0
100
AcDbPoint
 10
309.194297946064
 20
171.49691777652
 30
0.0
  0
POINT
  5
52AC
330
4905
100
AcDbEntity
  8
DEFPOINTS
 62
     0
100
AcDbPoint
 10
297.7756702380185
 20
164.6457411532741
 30
0.0
  0
ENDBLK
  5
4912
330
4905
100
AcDbEntity
  8
0
100
AcDbBlockEnd
  0
BLOCK
  5
491D
330
4913
100
AcDbEntity
  8
0
100
AcDbBlockBegin
  2
*D10
 70
     1
 10
0.0
 20
0.0
 30
0.0
  3
*D10
  1

  0
LINE
  5
5290
330
4913
100
AcDbEntity
  8
SUNPOU
100
AcDbLine
 10
314.8108766013463
 20
175.7415077632357
 30
0.0
 11
295.7268377421927
 21
207.5482391571146
 31
0.0
  0
LINE
  5
5291
330
4913
100
AcDbEntity
  8
SUNPOU
100
AcDbLine
 10
348.2531006613464
 20
195.8068422232356
 30
0.0
 11
329.1690618021929
 21
227.6135736171146
 31
0.0
  0
LINE
  5
5292
330
4913
100
AcDbEntity
  8
SUNPOU
100
AcDbLine
 10
299.071060152336
 20
207.805487036593
 30
0.0
 11
327.3683266596897
 21
224.7838469613129
 31
0.0
  0
INSERT
  5
5293
330
4913
100
AcDbEntity
  8
SUNPOU
100
AcDbBlockReference
  2
_OPEN
 10
296.4985813760128
 20
206.261999768953
 30
0.0
 41
3.0
 42
3.0
 43
3.0
 50
210.9637565623077
  0
INSERT
  5
5294
330
4913
100
AcDbEntity
  8
SUNPOU
100
AcDbBlockReference
  2
_OPEN
 10
329.9408054360129
 20
226.327334228953
 30
0.0
 41
3.0
 42
3.0
 43
3.0
 50
30.96375656230774
  0
MTEXT
  5
5295
330
4913
100
AcDbEntity
  8
SUNPOU
100
AcDbMText
 10
311.9334540163127
 20
218.4383993125556
 30
0.0
 40
3.0
 41
0.0
 71
     5
 72
     5
  1
\A1;39
 11
0.8574929254410518
 21
0.5144957558800142
 31
0.0
1001
ACAD
1000
MTEXTBEGIN
1070
    73
1070
     1
1070
    44
1040
1.0
1070
    74
1070
     0
1000
MTEXTEND
1000
MTEXTBEGIN
1070
    73
1070
     1
1070
    44
1040
1.0
1070
    74
1070
     0
1000
MTEXTEND
1000
MTEXTBEGIN
1070
    73
1070
     1
1070
    44
1040
1.0
1070
    74
1070
     0
1000
MTEXTEND
1000
MTEXTBEGIN
1070
    73
1070
     1
1070
    44
1040
1.0
1070
    74
1070
     0
1000
MTEXTEND
1000
MTEXTBEGIN
1070
    73
1070
     1
1070
    44
1040
1.0
1070
    74
1070
     0
1000
MTEXTEND
1000
MTEXTBEGIN
1070
    73
1070
     1
1070
    44
1040
1.0
1070
    74
1070
     0
1000
MTEXTEND
  0
POINT
  5
5296
330
4913
100
AcDbEntity
  8
DEFPOINTS
 62
     0
100
AcDbPoint
 10
316.3543638689864
 20
173.1690289869125
 30
0.0
  0
POINT
  5
5297
330
4913
100
AcDbEntity
  8
DEFPOINTS
 62
     0
100
AcDbPoint
 10
349.7965879289865
 20
193.2343634469125
 30
0.0
  0
POINT
  5
5298
330
4913
100
AcDbEntity
  8
DEFPOINTS
 62
     0
100
AcDbPoint
 10
329.9408054360129
 20
226.327334228953
 30
0.0
  0
ENDBLK
  5
491E
330
4913
100
AcDbEntity
  8
0
100
AcDbBlockEnd
  0
BLOCK
  5
4929
330
491F
100
AcDbEntity
  8
0
100
AcDbBlockBegin
  2
*D11
 70
     1
 10
0.0
 20
0.0
 30
0.0
  3
*D11
  1

  0
LINE
  5
5299
330
491F
100
AcDbEntity
  8
SUNPOU
100
AcDbLine
 10
309.7430934134879
 20
181.2723371248966
 30
0.0
 11
290.0384330345406
 21
214.113437744317
 31
0.0
  0
LINE
  5
529A
330
491F
100
AcDbEntity
  8
SUNPOU
100
AcDbLine
 10
345.7577962834879
 20
202.8811588548967
 30
0.0
 11
326.0531359045406
 21
235.7222594743169
 31
0.0
  0
LINE
  5
529B
330
491F
100
AcDbEntity
  8
SUNPOU
100
AcDbLine
 10
293.3826554447776
 20
214.370685622577
 30
0.0
 11
324.2524007610064
 21
232.8925328191715
 31
0.0
  0
INSERT
  5
529C
330
491F
100
AcDbEntity
  8
SUNPOU
100
AcDbBlockReference
  2
_OPEN
 10
290.810176667892
 20
212.8271983558742
 30
0.0
 41
3.0
 42
3.0
 43
3.0
 50
210.9637565414317
  0
INSERT
  5
529D
330
491F
100
AcDbEntity
  8
SUNPOU
100
AcDbBlockReference
  2
_OPEN
 10
326.8248795378919
 20
234.4360200858742
 30
0.0
 41
3.0
 42
3.0
 43
3.0
 50
30.96375654143177
  0
MTEXT
  5
529E
330
491F
100
AcDbEntity
  8
SUNPOU
100
AcDbMText
 10
307.531288713973
 20
225.7753415349454
 30
0.0
 40
3.0
 41
0.0
 71
     5
 72
     5
  1
\A1;42
 11
0.8574929256285104
 21
0.5144957555675829
 31
0.0
1001
ACAD
1000
MTEXTBEGIN
1070
    73
1070
     1
1070
    44
1040
1.0
1070
    74
1070
     0
1000
MTEXTEND
1000
MTEXTBEGIN
1070
    73
1070
     1
1070
    44
1040
1.0
1070
    74
1070
     0
1000
MTEXTEND
1000
MTEXTBEGIN
1070
    73
1070
     1
1070
    44
1040
1.0
1070
    74
1070
     0
1000
MTEXTEND
1000
MTEXTBEGIN
1070
    73
1070
     1
1070
    44
1040
1.0
1070
    74
1070
     0
1000
MTEXTEND
1000
MTEXTBEGIN
1070
    73
1070
     1
1070
    44
1040
1.0
1070
    74
1070
     0
1000
MTEXTEND
1000
MTEXTBEGIN
1070
    73
1070
     1
1070
    44
1040
1.0
1070
    74
1070
     0
1000
MTEXTEND
  0
POINT
  5
529F
330
491F
100
AcDbEntity
  8
DEFPOINTS
 62
     0
100
AcDbPoint
 10
311.2865806801906
 20
178.6998583480111
 30
0.0
  0
POINT
  5
52A0
330
491F
100
AcDbEntity
  8
DEFPOINTS
 62
     0
100
AcDbPoint
 10
347.3012835501906
 20
200.3086800780111
 30
0.0
  0
POINT
  5
52A1
330
491F
100
AcDbEntity
  8
DEFPOINTS
 62
     0
100
AcDbPoint
 10
326.8248795378919
 20
234.4360200858742
 30
0.0
  0
ENDBLK
  5
492A
330
491F
100
AcDbEntity
  8
0
100
AcDbBlockEnd
  0
BLOCK
  5
4935
330
492B
100
AcDbEntity
  8
0
100
AcDbBlockBegin
  2
*D12
 70
     1
 10
0.0
 20
0.0
 30
0.0
  3
*D12
  1

  0
LINE
  5
52AD
330
492B
100
AcDbEntity
  8
SUNPOU
100
AcDbLine
 10
354.3841751642738
 20
205.0248911898334
 30
0.0
 11
364.7473112023142
 21
211.2427727831995
 31
0.0
  0
LINE
  5
52AE
330
492B
100
AcDbEntity
  8
SUNPOU
100
AcDbLine
 10
361.5871157052927
 20
193.0199902312603
 30
0.0
 11
371.9502517433331
 21
199.2378718246265
 31
0.0
  0
LINE
  5
52AF
330
492B
100
AcDbEntity
  8
SUNPOU
100
AcDbLine
 10
365.0045590730381
 20
207.8985503723829
 30
0.0
 11
369.1205250922454
 21
201.0386069745373
 31
0.0
  0
INSERT
  5
52B0
330
492B
100
AcDbEntity
  8
SUNPOU
100
AcDbBlockReference
  2
_OPEN
 10
363.4610718121324
 20
210.4710291527466
 30
0.0
 41
3.0
 42
3.0
 43
3.0
 50
120.9637564123175
  0
INSERT
  5
52B1
330
492B
100
AcDbEntity
  8
SUNPOU
100
AcDbBlockReference
  2
_OPEN
 10
370.6640123531512
 20
198.4661281941736
 30
0.0
 41
3.0
 42
3.0
 43
3.0
 50
300.9637564123175
  0
MTEXT
  5
52B2
330
492B
100
AcDbEntity
  8
SUNPOU
100
AcDbMText
 10
369.2062743996115
 20
205.7548180575483
 30
0.0
 40
3.0
 41
0.0
 71
     5
 72
     5
  1
\A1;14
 11
0.5144957536352493
 21
-0.8574929267879106
 31
0.0
1001
ACAD
1000
MTEXTBEGIN
1070
    73
1070
     1
1070
    44
1040
1.0
1070
    74
1070
     0
1000
MTEXTEND
1000
MTEXTBEGIN
1070
    73
1070
     1
1070
    44
1040
1.0
1070
    74
1070
     0
1000
MTEXTEND
1000
MTEXTBEGIN
1070
    73
1070
     1
1070
    44
1040
1.0
1070
    74
1070
     0
1000
MTEXTEND
1000
MTEXTBEGIN
1070
    73
1070
     1
1070
    44
1040
1.0
1070
    74
1070
     0
1000
MTEXTEND
1000
MTEXTBEGIN
1070
    73
1070
     1
1070
    44
1040
1.0
1070
    74
1070
     0
1000
MTEXTEND
1000
MTEXTBEGIN
1070
    73
1070
     1
1070
    44
1040
1.0
1070
    74
1070
     0
1000
MTEXTEND
  0
POINT
  5
52B3
330
492B
100
AcDbEntity
  8
DEFPOINTS
 62
     0
100
AcDbPoint
 10
351.8116963839101
 20
203.4814039289276
 30
0.0
  0
POINT
  5
52B4
330
492B
100
AcDbEntity
  8
DEFPOINTS
 62
     0
100
AcDbPoint
 10
359.014636924929
 20
191.4765029703546
 30
0.0
  0
POINT
  5
52B5
330
492B
100
AcDbEntity
  8
DEFPOINTS
 62
     0
100
AcDbPoint
 10
370.6640123531512
 20
198.4661281941736
 30
0.0
  0
ENDBLK
  5
4936
330
492B
100
AcDbEntity
  8
0
100
AcDbBlockEnd
  0
BLOCK
  5
4AB4
330
4AAA
100
AcDbEntity
  8
0
100
AcDbBlockBegin
  2
*D13
 70
     1
 10
0.0
 20
0.0
 30
0.0
  3
*D13
  1

  0
LINE
  5
5342
330
4AAA
100
AcDbEntity
  8
SUNPOU
100
AcDbLine
 10
182.4353753068073
 20
95.80993648839967
 30
0.0
 11
182.4353753068073
 21
154.8869325772902
 31
0.0
  0
LINE
  5
5343
330
4AAA
100
AcDbEntity
  8
SUNPOU
100
AcDbLine
 10
216.0253224462202
 20
137.090027848847
 30
0.0
 11
216.0253224462202
 21
154.8869325772902
 31
0.0
  0
LINE
  5
5344
330
4AAA
100
AcDbEntity
  8
SUNPOU
100
AcDbLine
 10
185.4353753068073
 20
153.3869325772902
 30
0.0
 11
213.0253224462202
 21
153.3869325772902
 31
0.0
  0
INSERT
  5
5345
330
4AAA
100
AcDbEntity
  8
SUNPOU
100
AcDbBlockReference
  2
_OPEN
 10
182.4353753068073
 20
153.3869325772902
 30
0.0
 41
3.0
 42
3.0
 43
3.0
 50
180.0
  0
INSERT
  5
5346
330
4AAA
100
AcDbEntity
  8
SUNPOU
100
AcDbBlockReference
  2
_OPEN
 10
216.0253224462202
 20
153.3869325772902
 30
0.0
 41
3.0
 42
3.0
 43
3.0
  0
MTEXT
  5
5347
330
4AAA
100
AcDbEntity
  8
SUNPOU
100
AcDbMText
 10
199.2303488765137
 20
155.8869325772902
 30
0.0
 40
3.0
 41
0.0
 71
     5
 72
     5
  1
\A1;34
1001
ACAD
1000
MTEXTBEGIN
1070
    73
1070
     1
1070
    44
1040
1.0
1070
    74
1070
     0
1000
MTEXTEND
1000
MTEXTBEGIN
1070
    73
1070
     1
1070
    44
1040
1.0
1070
    74
1070
     0
1000
MTEXTEND
1000
MTEXTBEGIN
1070
    73
1070
     1
1070
    44
1040
1.0
1070
    74
1070
     0
1000
MTEXTEND
1000
MTEXTBEGIN
1070
    73
1070
     1
1070
    44
1040
1.0
1070
    74
1070
     0
1000
MTEXTEND
1000
MTEXTBEGIN
1070
    73
1070
     1
1070
    44
1040
1.0
1070
    74
1070
     0
1000
MTEXTEND
  0
POINT
  5
5348
330
4AAA
100
AcDbEntity
  8
DEFPOINTS
 62
     0
100
AcDbPoint
 10
182.4353753068073
 20
92.80993648839967
 30
0.0
  0
POINT
  5
5349
330
4AAA
100
AcDbEntity
  8
DEFPOINTS
 62
     0
100
AcDbPoint
 10
216.0253224462202
 20
134.090027848847
 30
0.0
  0
POINT
  5
534A
330
4AAA
100
AcDbEntity
  8
DEFPOINTS
 62
     0
100
AcDbPoint
 10
216.0253224462202
 20
153.3869325772902
 30
0.0
  0
ENDBLK
  5
4AB5
330
4AAA
100
AcDbEntity
  8
0
100
AcDbBlockEnd
  0
BLOCK
  5
521E
330
5212
100
AcDbEntity
  8
0
100
AcDbBlockBegin
  2
*D14
 70
     1
 10
0.0
 20
0.0
 30
0.0
  3
*D14
  1

  0
LINE
  5
52FD
330
5212
100
AcDbEntity
  8
SUNPOU
100
AcDbLine
 10
64.47247530181113
 20
89.28761336626504
 30
0.0
 11
37.05001266030237
 21
89.28761336626504
 31
0.0
  0
LINE
  5
52FE
330
5212
100
AcDbEntity
  8
SUNPOU
100
AcDbLine
 10
236.8767791769519
 20
94.33759996739969
 30
0.0
 11
37.05001266030236
 21
94.33759996739974
 31
0.0
  0
LINE
  5
52FF
330
5212
100
AcDbEntity
  8
SUNPOU
100
AcDbLine
 10
38.55001266030237
 20
86.28761336626503
 30
0.0
 11
38.55001266030237
 21
83.28761336626504
 31
0.0
  0
LINE
  5
5300
330
5212
100
AcDbEntity
  8
SUNPOU
100
AcDbLine
 10
38.55001266030237
 20
97.33759996739975
 30
0.0
 11
38.55001266030237
 21
100.3375999673997
 31
0.0
  0
LINE
  5
5301
330
5212
100
AcDbEntity
  8
SUNPOU
100
AcDbLine
 10
38.55001266030237
 20
89.28761336626504
 30
0.0
 11
38.55001266030237
 21
94.33759996739974
 31
0.0
  0
INSERT
  5
5302
330
5212
100
AcDbEntity
  8
SUNPOU
100
AcDbBlockReference
  2
_OPEN
 10
38.55001266030237
 20
89.28761336626504
 30
0.0
 41
3.0
 42
3.0
 43
3.0
 50
90.0
  0
INSERT
  5
5303
330
5212
100
AcDbEntity
  8
SUNPOU
100
AcDbBlockReference
  2
_OPEN
 10
38.55001266030237
 20
94.33759996739974
 30
0.0
 41
3.0
 42
3.0
 43
3.0
 50
270.0
  0
MTEXT
  5
5304
330
5212
100
AcDbEntity
  8
SUNPOU
100
AcDbMText
 10
36.05001266030235
 20
91.81260666683241
 30
0.0
 40
3.0
 41
0.0
 71
     5
 72
     5
  1
\A1;5
 11
0.0000000000000001
 21
1.0
 31
0.0
1001
ACAD
1000
MTEXTBEGIN
1070
    73
1070
     1
1070
    44
1040
1.0
1070
    74
1070
     0
1000
MTEXTEND
1000
MTEXTBEGIN
1070
    73
1070
     1
1070
    44
1040
1.0
1070
    74
1070
     0
1000
MTEXTEND
1000
MTEXTBEGIN
1070
    73
1070
     1
1070
    44
1040
1.0
1070
    74
1070
     0
1000
MTEXTEND
1000
MTEXTBEGIN
1070
    73
1070
     1
1070
    44
1040
1.0
1070
    74
1070
     0
1000
MTEXTEND
1000
MTEXTBEGIN
1070
    73
1070
     1
1070
    44
1040
1.0
1070
    74
1070
     0
1000
MTEXTEND
  0
POINT
  5
5305
330
5212
100
AcDbEntity
  8
DEFPOINTS
 62
     0
100
AcDbPoint
 10
67.47247530181113
 20
89.28761336626504
 30
0.0
  0
POINT
  5
5306
330
5212
100
AcDbEntity
  8
DEFPOINTS
 62
     0
100
AcDbPoint
 10
239.8767791769519
 20
94.33759996739969
 30
0.0
  0
POINT
  5
5307
330
5212
100
AcDbEntity
  8
DEFPOINTS
 62
     0
100
AcDbPoint
 10
38.55001266030237
 20
94.33759996739974
 30
0.0
  0
ENDBLK
  5
521F
330
5212
100
AcDbEntity
  8
0
100
AcDbBlockEnd
  0
ENDSEC
  0
SECTION
  2
ENTITIES
  0
LINE
  5
363
330
1A
100
AcDbEntity
  8
SEIHIN
100
AcDbLine
 10
89.3353753069519
 20
70.09400971739967
 30
0.0
 11
114.3353753089519
 21
70.09400971739967
 31
0.0
  0
ARC
  5
364
330
1A
100
AcDbEntity
  8
SEIHIN
100
AcDbCircle
 10
104.8353753069519
 20
90.58761336739967
 30
0.0
 40
9.535085152808647
100
AcDbArc
 50
4.916661302937908
 51
179.999861547953
  0
LINE
  5
367
330
1A
100
AcDbEntity
  8
SEIHIN
100
AcDbLine
 10
95.30029015695191
 20
90.58763640839968
 30
0.0
 11
95.3002705069519
 21
82.25588590739969
 31
0.0
  0
LINE
  5
368
330
1A
100
AcDbEntity
  8
SEIHIN
100
AcDbLine
 10
89.3353753069519
 20
70.09400971739967
 30
0.0
 11
89.3353753069519
 21
89.09400971939968
 31
0.0
  0
LINE
  5
369
330
1A
100
AcDbEntity
  8
SEIHIN
100
AcDbLine
 10
93.30028663695191
 20
89.0940073613997
 30
0.0
 11
93.30027050695191
 21
82.25588590739969
 31
0.0
  0
LINE
  5
36A
330
1A
100
AcDbEntity
  8
SEIHIN
100
AcDbLine
 10
93.93537530695192
 20
89.28761336739967
 30
0.0
 11
93.93536115695189
 21
83.28761336739967
 31
0.0
  0
LINE
  5
36B
330
1A
100
AcDbEntity
  8
SEIHIN
100
AcDbLine
 10
94.93537530695192
 20
89.28761336739967
 30
0.0
 11
94.9353611569519
 21
83.28761100939969
 31
0.0
  0
LINE
  5
36F
330
1A
100
AcDbEntity
  8
SEIHIN
100
AcDbLine
 10
93.30027050695191
 20
82.25588590739969
 30
0.0
 11
95.3002705069519
 21
82.25588590739969
 31
0.0
  0
LINE
  5
370
330
1A
100
AcDbEntity
  8
SEIHIN
100
AcDbLine
 10
93.93536115695189
 20
83.28761336739967
 30
0.0
 11
95.30027293695189
 21
83.28761336739967
 31
0.0
  0
LINE
  5
371
330
1A
100
AcDbEntity
  8
SEIHIN
100
AcDbLine
 10
107.8353753069519
 20
79.78761336739967
 30
0.0
 11
107.8353753069519
 21
75.78761336739967
 31
0.0
  0
LINE
  5
372
330
1A
100
AcDbEntity
  8
SEIHIN
100
AcDbLine
 10
100.8353753069519
 20
79.78761336739967
 30
0.0
 11
100.8353753069519
 21
75.78761336739967
 31
0.0
  0
LINE
  5
374
330
1A
100
AcDbEntity
  8
SEIHIN
100
AcDbLine
 10
106.8353753069519
 20
74.78761336739967
 30
0.0
 11
101.8353753069519
 21
74.78761336739967
 31
0.0
  0
LINE
  5
375
330
1A
100
AcDbEntity
  8
SEIHIN
100
AcDbLine
 10
105.4900758469519
 20
72.78761336739967
 30
0.0
 11
103.1806747669519
 21
72.78761336739967
 31
0.0
  0
LINE
  5
376
330
1A
100
AcDbEntity
  8
SEIHIN
100
AcDbLine
 10
104.3353753069518
 20
74.78761336739967
 30
0.0
 11
103.1806747669519
 21
72.78761336739967
 31
0.0
  0
ARC
  5
377
330
1A
100
AcDbEntity
  8
SEIHIN
100
AcDbCircle
 10
101.8353753069519
 20
75.78761336739967
 30
0.0
 40
1.0
100
AcDbArc
 50
180.0
 51
270.0
  0
ARC
  5
378
330
1A
100
AcDbEntity
  8
SEIHIN
100
AcDbCircle
 10
106.8353753069519
 20
75.78761336739967
 30
0.0
 40
1.0
100
AcDbArc
 50
270.0
 51
0.0
  0
LINE
  5
379
330
1A
100
AcDbEntity
  8
SEIHIN
100
AcDbLine
 10
104.3353753069518
 20
74.78761336739967
 30
0.0
 11
105.4900758469519
 21
72.78761336739967
 31
0.0
  0
LINE
  5
37A
330
1A
100
AcDbEntity
  8
SEIHIN
100
AcDbLine
 10
104.0921253069519
 20
80.78761336739967
 30
0.0
 11
104.5921253069519
 21
80.78761336739967
 31
0.0
  0
LINE
  5
37B
330
1A
100
AcDbEntity
  8
SEIHIN
100
AcDbLine
 10
101.8353753069519
 20
80.78761336739967
 30
0.0
 11
106.8353753069519
 21
80.78761336739967
 31
0.0
  0
LINE
  5
37C
330
1A
100
AcDbEntity
  8
SEIHIN
100
AcDbLine
 10
104.0921253069519
 20
80.78761336739967
 30
0.0
 11
104.5921253069519
 21
80.78761336739967
 31
0.0
  0
LINE
  5
37D
330
1A
100
AcDbEntity
  8
SEIHIN
100
AcDbLine
 10
104.5921253069519
 20
78.78761336739967
 30
0.0
 11
104.0921253069519
 21
78.78761336739967
 31
0.0
  0
ARC
  5
37E
330
1A
100
AcDbEntity
  8
SEIHIN
100
AcDbCircle
 10
101.8353753069519
 20
79.78761336739967
 30
0.0
 40
1.0
100
AcDbArc
 50
90.0
 51
180.0
  0
LINE
  5
37F
330
1A
100
AcDbEntity
  8
SEIHIN
100
AcDbLine
 10
104.0921253069519
 20
78.78761336739967
 30
0.0
 11
104.0921253069519
 21
80.78761336739967
 31
0.0
  0
ARC
  5
380
330
1A
100
AcDbEntity
  8
SEIHIN
100
AcDbCircle
 10
106.8353753069519
 20
79.78761336739967
 30
0.0
 40
1.0
100
AcDbArc
 50
0.0
 51
90.0
  0
LINE
  5
381
330
1A
100
AcDbEntity
  8
SEIHIN
100
AcDbLine
 10
104.5921253069519
 20
80.78761336739967
 30
0.0
 11
104.5921253069519
 21
78.78761336739967
 31
0.0
  0
ARC
  5
384
330
1A
100
AcDbEntity
  8
SEIHIN
100
AcDbCircle
 10
90.33537530695189
 20
89.09400971939968
 30
0.0
 40
1.0
100
AcDbArc
 50
90.0
 51
180.0
  0
ARC
  5
387
330
1A
100
AcDbEntity
  8
SEIHIN
100
AcDbCircle
 10
92.30028663695192
 20
89.09400971939968
 30
0.0
 40
1.000000000001389
100
AcDbArc
 50
359.9998648965517
 51
90.0
  0
LINE
  5
388
330
1A
100
AcDbEntity
  8
SEIHIN
100
AcDbLine
 10
92.30028663695192
 20
90.09400971939967
 30
0.0
 11
90.33537530695189
 21
90.09400971939967
 31
0.0
  0
LINE
  5
389
330
1A
100
AcDbEntity
  8
SEIHIN
100
AcDbLine
 10
93.93537530695192
 20
89.28761336739967
 30
0.0
 11
95.30028708695192
 21
89.28761336739967
 31
0.0
  0
CIRCLE
  5
38B
330
1A
100
AcDbEntity
  8
SEIHIN
100
AcDbCircle
 10
104.3353753069518
 20
94.08761336739969
 30
0.0
 40
3.500000004238516
  0
LINE
  5
38F
330
1A
100
AcDbEntity
  8
SEIHIN
100
AcDbLine
 10
114.3353753089519
 20
70.09400971739967
 30
0.0
 11
114.3353753089519
 21
91.40483358639968
 31
0.0
  0
LINE
  5
3DF
330
1A
100
AcDbEntity
  8
SEIHIN
100
AcDbLine
 10
93.8682782769519
 20
226.2676595628918
 30
0.0
 11
93.8682782769519
 21
222.7676595628919
 31
0.0
  0
LINE
  5
3E0
330
1A
100
AcDbEntity
  8
SEIHIN
100
AcDbLine
 10
94.86827827695192
 20
223.2676595628919
 30
0.0
 11
94.86827827695192
 21
226.2676595628918
 31
0.0
  0
LINE
  5
3E4
330
1A
100
AcDbEntity
  8
SEIHIN
100
AcDbLine
 10
95.36827827695191
 20
222.7676595628919
 30
0.0
 11
212.3627127419519
 21
222.7676595628919
 31
0.0
  0
LINE
  5
3E5
330
1A
100
AcDbEntity
  8
SEIHIN
100
AcDbLine
 10
95.36827827695191
 20
207.7676595228918
 30
0.0
 11
212.3627127419519
 21
207.7676595228918
 31
0.0
  0
LINE
  5
3E6
330
1A
100
AcDbEntity
  8
SEIHIN
100
AcDbLine
 10
94.86827827695192
 20
208.7676595228919
 30
0.0
 11
212.3627127419519
 21
208.7676595228919
 31
0.0
  0
LINE
  5
3E7
330
1A
100
AcDbEntity
  8
SEIHIN
100
AcDbLine
 10
94.86827827695192
 20
221.7676595628919
 30
0.0
 11
212.3627127419519
 21
221.7676595628919
 31
0.0
  0
LINE
  5
3E8
330
1A
100
AcDbEntity
  8
SEIHIN
100
AcDbLine
 10
124.7416584069519
 20
218.2676595228918
 30
0.0
 11
206.5663592640014
 21
218.2676595228919
 31
0.0
  0
LINE
  5
3E9
330
1A
100
AcDbEntity
  8
SEIHIN
100
AcDbLine
 10
124.7416584069519
 20
212.2676595228919
 30
0.0
 11
206.5670729715017
 21
212.2676595228919
 31
0.0
  0
LINE
  5
3EB
330
1A
100
AcDbEntity
  8
SEIHIN
100
AcDbLine
 10
95.15466171695193
 20
208.9955858828919
 30
0.0
 11
122.7416584069519
 21
208.9955858828919
 31
0.0
  0
LINE
  5
3EC
330
1A
100
AcDbEntity
  8
SEIHIN
100
AcDbLine
 10
97.94418126695189
 20
211.1132155128919
 30
0.0
 11
120.0028683919518
 21
211.1132155128919
 31
0.0
  0
LINE
  5
3ED
330
1A
100
AcDbEntity
  8
SEIHIN
100
AcDbLine
 10
95.15466171695193
 20
221.5397331628919
 30
0.0
 11
122.7416584069519
 21
221.5397331628919
 31
0.0
  0
LINE
  5
3EE
330
1A
100
AcDbEntity
  8
SEIHIN
100
AcDbLine
 10
97.94418126695189
 20
219.4221035628919
 30
0.0
 11
120.0028683919518
 21
219.4221035628919
 31
0.0
  0
LINE
  5
3EF
330
1A
100
AcDbEntity
  8
SEIHIN
100
AcDbLine
 10
114.3353753089519
 20
207.2676595228919
 30
0.0
 11
95.30052881695189
 21
207.2677055228918
 31
0.0
  0
LINE
  5
3F0
330
1A
100
AcDbEntity
  8
SEIHIN
100
AcDbLine
 10
95.30056748695187
 20
223.2676595628919
 30
0.0
 11
114.3353753089519
 21
223.2676595628919
 31
0.0
  0
LINE
  5
3F1
330
1A
100
AcDbEntity
  8
SEIHIN
100
AcDbLine
 10
95.15466171695193
 20
213.3430481828919
 30
0.0
 11
97.94418126695189
 21
213.3430481828919
 31
0.0
  0
LINE
  5
3F2
330
1A
100
AcDbEntity
  8
SEIHIN
100
AcDbLine
 10
95.15466171695193
 20
217.1922708628919
 30
0.0
 11
97.94418126695189
 21
217.1922708628919
 31
0.0
  0
LINE
  5
3F3
330
1A
100
AcDbEntity
  8
SEIHIN
100
AcDbLine
 10
97.94418126695189
 20
220.5397331628919
 30
0.0
 11
95.15466171695193
 21
220.5397331628919
 31
0.0
  0
LINE
  5
3F4
330
1A
100
AcDbEntity
  8
SEIHIN
100
AcDbLine
 10
97.94418126695189
 20
209.9955858828919
 30
0.0
 11
95.15466171695193
 21
209.9955858828919
 31
0.0
  0
ARC
  5
3F5
330
1A
100
AcDbEntity
  8
SEIHIN
100
AcDbCircle
 10
95.15466171695193
 20
215.2676595228919
 30
0.0
 40
3.000000000000011
100
AcDbArc
 50
90.00000515662017
 51
269.9999952253516
  0
LINE
  5
3F6
330
1A
100
AcDbEntity
  8
SEIHIN
100
AcDbLine
 10
95.15466171695193
 20
220.5397331628919
 30
0.0
 11
95.15466171695193
 21
209.9955858828919
 31
0.0
  0
ARC
  5
3F7
330
1A
100
AcDbEntity
  8
SEIHIN
100
AcDbCircle
 10
94.86827827695192
 20
207.7676595228918
 30
0.0
 40
1.0
100
AcDbArc
 50
90.0
 51
180.0
  0
LINE
  5
3F8
330
1A
100
AcDbEntity
  8
SEIHIN
100
AcDbLine
 10
93.30052424695191
 20
207.7676595228918
 30
0.0
 11
89.3353753069519
 21
207.7676595228918
 31
0.0
  0
LINE
  5
3F9
330
1A
100
AcDbEntity
  8
SEIHIN
100
AcDbLine
 10
89.3353753069519
 20
207.2676595228919
 30
0.0
 11
93.30028262695192
 21
207.2676595228919
 31
0.0
  0
LINE
  5
3FA
330
1A
100
AcDbEntity
  8
SEIHIN
100
AcDbLine
 10
89.3353753069519
 20
207.2676595228919
 30
0.0
 11
89.3353753069519
 21
207.7676595228918
 31
0.0
  0
ARC
  5
3FB
330
1A
100
AcDbEntity
  8
SEIHIN
100
AcDbCircle
 10
95.36827827695191
 20
207.2676595228919
 30
0.0
 40
0.5
100
AcDbArc
 50
90.0
 51
180.0
  0
LINE
  5
3FC
330
1A
100
AcDbEntity
  8
SEIHIN
100
AcDbLine
 10
94.86827827695192
 20
207.2676595228919
 30
0.0
 11
94.86827827695192
 21
204.2676595228919
 31
0.0
  0
LINE
  5
3FD
330
1A
100
AcDbEntity
  8
SEIHIN
100
AcDbLine
 10
93.8682782769519
 20
204.2676595228919
 30
0.0
 11
93.8682782769519
 21
207.7676595228918
 31
0.0
  0
LINE
  5
3FE
330
1A
100
AcDbEntity
  8
SEIHIN
100
AcDbLine
 10
94.86827827695192
 20
204.2676595228919
 30
0.0
 11
93.8682782769519
 21
204.2676595228919
 31
0.0
  0
LINE
  5
3FF
330
1A
100
AcDbEntity
  8
SEIHIN
100
AcDbLine
 10
95.30052881695189
 20
207.2677055228918
 30
0.0
 11
95.30053002695188
 21
207.7676595228918
 31
0.0
  0
LINE
  5
400
330
1A
100
AcDbEntity
  8
SEIHIN
100
AcDbLine
 10
93.30052306695188
 20
207.2676595228919
 30
0.0
 11
93.30052424695191
 21
207.7676595228918
 31
0.0
  0
LINE
  5
401
330
1A
100
AcDbEntity
  8
SEIHIN
100
AcDbLine
 10
95.15466171695193
 20
209.9955858828919
 30
0.0
 11
95.15466171695193
 21
208.9955858828919
 31
0.0
  0
LINE
  5
402
330
1A
100
AcDbEntity
  8
SEIHIN
100
AcDbLine
 10
93.30055961695189
 20
222.7676595628919
 30
0.0
 11
89.3353753069519
 21
222.7676595628919
 31
0.0
  0
LINE
  5
403
330
1A
100
AcDbEntity
  8
SEIHIN
100
AcDbLine
 10
89.3353753069519
 20
223.2676595628919
 30
0.0
 11
93.30028262695192
 21
223.2676595628919
 31
0.0
  0
LINE
  5
404
330
1A
100
AcDbEntity
  8
SEIHIN
100
AcDbLine
 10
89.3353753069519
 20
222.7676595628919
 30
0.0
 11
89.3353753069519
 21
223.2676595628919
 31
0.0
  0
ARC
  5
405
330
1A
100
AcDbEntity
  8
SEIHIN
100
AcDbCircle
 10
94.86827827695192
 20
222.7676595628919
 30
0.0
 40
1.0
100
AcDbArc
 50
180.0
 51
270.0
  0
LINE
  5
406
330
1A
100
AcDbEntity
  8
SEIHIN
100
AcDbLine
 10
95.30056627695193
 20
222.7676595628919
 30
0.0
 11
95.30056748695187
 21
223.2676595628919
 31
0.0
  0
LINE
  5
407
330
1A
100
AcDbEntity
  8
SEIHIN
100
AcDbLine
 10
93.30055961695189
 20
222.7676595628919
 30
0.0
 11
93.30056079695191
 21
223.2676595628919
 31
0.0
  0
LINE
  5
408
330
1A
100
AcDbEntity
  8
SEIHIN
100
AcDbLine
 10
95.15466171695193
 20
220.5397331628919
 30
0.0
 11
95.15466171695193
 21
221.5397331628919
 31
0.0
  0
ARC
  5
409
330
1A
100
AcDbEntity
  8
SEIHIN
100
AcDbCircle
 10
95.36827827695191
 20
223.2676595628919
 30
0.0
 40
0.5
100
AcDbArc
 50
180.0
 51
270.0
  0
LINE
  5
40A
330
1A
100
AcDbEntity
  8
SEIHIN
100
AcDbLine
 10
97.94418126695189
 20
208.9955858828919
 30
0.0
 11
97.94418126695189
 21
221.5397331628919
 31
0.0
  0
ARC
  5
40B
330
1A
100
AcDbEntity
  8
SEIHIN
100
AcDbCircle
 10
104.3356164369519
 20
211.7859890228919
 30
0.0
 40
5.715337531631893
100
AcDbArc
 50
232.2375418744897
 51
307.7621812247566
  0
LINE
  5
40C
330
1A
100
AcDbEntity
  8
SEIHIN
100
AcDbLine
 10
97.94418126695189
 20
208.9955858828919
 30
0.0
 11
97.94418126695189
 21
210.1955858828919
 31
0.0
  0
LINE
  5
40D
330
1A
100
AcDbEntity
  8
SEIHIN
100
AcDbLine
 10
100.8356055169518
 20
223.2676595628919
 30
0.0
 11
107.8356055169519
 21
223.2676595628919
 31
0.0
  0
LINE
  5
40E
330
1A
100
AcDbEntity
  8
SEIHIN
100
AcDbLine
 10
107.8356055169519
 20
224.3320979628919
 30
0.0
 11
100.8356055169518
 21
224.3320979628919
 31
0.0
  0
LINE
  5
40F
330
1A
100
AcDbEntity
  8
SEIHIN
100
AcDbLine
 10
97.94418126695189
 20
221.5397331628919
 30
0.0
 11
97.94418126695189
 21
220.3397331628919
 31
0.0
  0
LINE
  5
410
330
1A
100
AcDbEntity
  8
SEIHIN
100
AcDbLine
 10
100.8356055169518
 20
224.3320979628919
 30
0.0
 11
100.8356055169518
 21
223.2676595628919
 31
0.0
  0
LINE
  5
411
330
1A
100
AcDbEntity
  8
SEIHIN
100
AcDbLine
 10
107.8356055169519
 20
223.2676595628919
 30
0.0
 11
107.8356055169519
 21
224.3320979628919
 31
0.0
  0
LINE
  5
412
330
1A
100
AcDbEntity
  8
SEIHIN
100
AcDbLine
 10
118.2797180314519
 20
212.1132155128919
 30
0.0
 11
118.2797180314519
 21
218.4221035328919
 31
0.0
  0
LINE
  5
413
330
1A
100
AcDbEntity
  8
SEIHIN
100
AcDbLine
 10
113.4377977959518
 20
212.1132155128919
 30
0.0
 11
113.4377977959518
 21
218.4221035328919
 31
0.0
  0
LINE
  5
414
330
1A
100
AcDbEntity
  8
SEIHIN
100
AcDbLine
 10
122.0028683919518
 20
217.4221035328919
 30
0.0
 11
122.0028683919518
 21
213.1132155128919
 31
0.0
  0
LINE
  5
415
330
1A
100
AcDbEntity
  8
SEIHIN
100
AcDbLine
 10
124.7416584069519
 20
210.9955858828919
 30
0.0
 11
124.7416584069519
 21
219.5397331628919
 31
0.0
  0
LINE
  5
416
330
1A
100
AcDbEntity
  8
SEIHIN
100
AcDbLine
 10
123.5940926999519
 20
210.9955858828919
 30
0.0
 11
123.5940926999519
 21
219.5397331628919
 31
0.0
  0
LINE
  5
417
330
1A
100
AcDbEntity
  8
SEIHIN
100
AcDbLine
 10
114.3353753089519
 20
207.2676595228919
 30
0.0
 11
114.3353753089519
 21
207.7676595228918
 31
0.0
  0
ARC
  5
418
330
1A
100
AcDbEntity
  8
SEIHIN
100
AcDbCircle
 10
121.5940926999519
 20
210.9955858828919
 30
0.0
 40
2.0
100
AcDbArc
 50
270.0
 51
0.0
  0
ARC
  5
419
330
1A
100
AcDbEntity
  8
SEIHIN
100
AcDbCircle
 10
122.7416584069519
 20
210.9955858828919
 30
0.0
 40
2.0
100
AcDbArc
 50
270.0
 51
0.0
  0
ARC
  5
41A
330
1A
100
AcDbEntity
  8
SEIHIN
100
AcDbCircle
 10
122.7416584069519
 20
210.9955858828919
 30
0.0
 40
2.0
100
AcDbArc
 50
270.0
 51
0.0
  0
ARC
  5
41B
330
1A
100
AcDbEntity
  8
SEIHIN
100
AcDbCircle
 10
120.0028683919518
 20
213.1132155128919
 30
0.0
 40
2.0
100
AcDbArc
 50
270.0
 51
0.0
  0
LINE
  5
41C
330
1A
100
AcDbEntity
  8
SEIHIN
100
AcDbLine
 10
114.3353753089519
 20
222.7676595628919
 30
0.0
 11
114.3353753089519
 21
223.2676595628919
 31
0.0
  0
ARC
  5
41D
330
1A
100
AcDbEntity
  8
SEIHIN
100
AcDbCircle
 10
121.5940926999519
 20
219.5397331628919
 30
0.0
 40
2.0
100
AcDbArc
 50
0.0
 51
90.0
  0
ARC
  5
41E
330
1A
100
AcDbEntity
  8
SEIHIN
100
AcDbCircle
 10
122.7416584069519
 20
219.5397331628919
 30
0.0
 40
2.0
100
AcDbArc
 50
0.0
 51
90.0
  0
ARC
  5
41F
330
1A
100
AcDbEntity
  8
SEIHIN
100
AcDbCircle
 10
122.7416584069519
 20
219.5397331628919
 30
0.0
 40
2.0
100
AcDbArc
 50
0.0
 51
90.0
  0
ARC
  5
420
330
1A
100
AcDbEntity
  8
SEIHIN
100
AcDbCircle
 10
120.0028683919518
 20
217.4221035328919
 30
0.0
 40
2.000000014999997
100
AcDbArc
 50
0.0
 51
90.0
  0
LINE
  5
43E
330
1A
100
AcDbEntity
  8
SEIHIN
100
AcDbLine
 10
94.86827827695192
 20
226.2676595628918
 30
0.0
 11
93.8682782769519
 21
226.2676595628918
 31
0.0
  0
LINE
  5
6FB
330
1A
100
AcDbEntity
  8
CENTER_L
100
AcDbLine
 10
53.83190878695188
 20
215.2676595428919
 30
0.0
 11
221.3903797919519
 21
215.2676595428919
 31
0.0
  0
LINE
  5
BDA
330
1A
100
AcDbEntity
  8
SEIHIN
100
AcDbLine
 10
83.80032641695192
 20
72.28761336739967
 30
0.0
 11
89.3353753069519
 21
72.28761336739967
 31
0.0
  0
LINE
  5
BDB
330
1A
100
AcDbEntity
  8
SEIHIN
100
AcDbLine
 10
89.3353753069519
 20
80.78761336739967
 30
0.0
 11
84.44305188695187
 21
80.78761336739967
 31
0.0
  0
LINE
  5
BDC
330
1A
100
AcDbEntity
  8
SEIHIN
100
AcDbLine
 10
83.45238821695193
 20
74.78761336739967
 30
0.0
 11
89.3353753069519
 21
74.78761336739967
 31
0.0
  0
LINE
  5
BDD
330
1A
100
AcDbEntity
  8
SEIHIN
100
AcDbLine
 10
84.44305188695187
 20
83.28761336739967
 30
0.0
 11
89.3353753069519
 21
83.28761336739967
 31
0.0
  0
LINE
  5
BDF
330
1A
100
AcDbEntity
  8
SEIHIN
100
AcDbLine
 10
72.4352388469519
 20
81.48761336739966
 30
0.0
 11
81.43062855695189
 21
73.21185482739969
 31
0.0
  0
ARC
  5
BE0
330
1A
100
AcDbEntity
  8
SEIHIN
100
AcDbCircle
 10
83.45238821695193
 20
75.78761336739967
 30
0.0
 40
1.000000002404392
100
AcDbArc
 50
226.2544208983734
 51
270.0
  0
LINE
  5
BE1
330
1A
100
AcDbEntity
  8
SEIHIN
100
AcDbLine
 10
85.2773891969519
 20
80.78761336739967
 30
0.0
 11
85.2773891969519
 21
74.78761336739967
 31
0.0
  0
ARC
  5
BE2
330
1A
100
AcDbEntity
  8
SEIHIN
100
AcDbCircle
 10
83.80032641695192
 20
75.78761336739967
 30
0.0
 40
3.50000000029082
100
AcDbArc
 50
227.385943991837
 51
270.0
  0
LINE
  5
BE4
330
1A
100
AcDbEntity
  8
SEIHIN
100
AcDbLine
 10
67.43527530695189
 20
81.48761336739966
 30
0.0
 11
72.4352388469519
 21
81.48761336739966
 31
0.0
  0
ARC
  5
BE5
330
1A
100
AcDbEntity
  8
SEIHIN
100
AcDbCircle
 10
69.1354435869519
 20
89.53741701739966
 30
0.0
 40
4.249794616209057
100
AcDbArc
 50
248.0382779466742
 51
298.0729204221733
  0
LINE
  5
BE6
330
1A
100
AcDbEntity
  8
SEIHIN
100
AcDbLine
 10
67.43527530695189
 20
81.48761336739966
 30
0.0
 11
72.4352388469519
 21
81.48761336739966
 31
0.0
  0
LINE
  5
BE7
330
1A
100
AcDbEntity
  8
SEIHIN
100
AcDbLine
 10
67.43527530695189
 20
81.48761336739966
 30
0.0
 11
72.4352388469519
 21
81.48761336739966
 31
0.0
  0
ELLIPSE
  5
BE8
330
1A
100
AcDbEntity
  8
SEIHIN
100
AcDbEllipse
 10
67.73308693695191
 20
86.05968956739969
 30
0.0
 11
-0.480711628724846
 21
0.1374237974682779
 31
0.0
210
0.0
220
0.0
230
1.0
 40
1.0
 41
0.0000000000000004
 42
1.465876859819378
  0
ARC
  5
BE9
330
1A
100
AcDbEntity
  8
SEIHIN
100
AcDbCircle
 10
67.93404215695193
 20
85.87997039739969
 30
0.0
 40
3.499985617108208
100
AcDbArc
 50
103.1906191421164
 51
181.5120868822297
  0
ARC
  5
BEA
330
1A
100
AcDbEntity
  8
SEIHIN
100
AcDbCircle
 10
67.43527530695189
 20
84.48761336739966
 30
0.0
 40
3.0
100
AcDbArc
 50
180.0
 51
270.0
  0
LINE
  5
BEB
330
1A
100
AcDbEntity
  8
SEIHIN
100
AcDbLine
 10
64.43527530695189
 20
85.78761336739967
 30
0.0
 11
64.43527530695189
 21
84.48761336739966
 31
0.0
  0
LINE
  5
BED
330
1A
100
AcDbEntity
  8
SEIHIN
100
AcDbLine
 10
67.13527530695188
 20
89.28761336739967
 30
0.0
 11
67.47252459695187
 21
89.28761336739967
 31
0.0
  0
LINE
  5
BEE
330
1A
100
AcDbEntity
  8
SEIHIN
100
AcDbLine
 10
67.95328065695191
 20
88.65023209739968
 30
0.0
 11
67.2522753069519
 21
86.19711336739966
 31
0.0
  0
ELLIPSE
  5
BEF
330
1A
100
AcDbEntity
  8
SEIHIN
100
AcDbEllipse
 10
67.4724931769519
 20
88.78758966739969
 30
0.0
 11
0.4807821249180666
 21
-0.1373763011067326
 31
0.0
210
0.0
220
0.0
230
1.0
 40
1.0
 41
0.0
 42
1.849150924921633
  0
LINE
  5
BF0
330
1A
100
AcDbEntity
  8
SEIHIN
100
AcDbLine
 10
71.13537530695191
 20
85.78761336739967
 30
0.0
 11
80.3688013569519
 21
85.78761336739967
 31
0.0
  0
LINE
  5
BF1
330
1A
100
AcDbEntity
  8
SEIHIN
100
AcDbLine
 10
82.76093089695189
 20
75.0651960473997
 30
0.0
 11
75.96987530695191
 21
81.56521336739968
 31
0.0
  0
LINE
  5
BF2
330
1A
100
AcDbEntity
  8
SEIHIN
100
AcDbLine
 10
79.71801976695189
 20
83.28761336739967
 30
0.0
 11
76.66137530695192
 21
83.28761336739967
 31
0.0
  0
LINE
  5
BF3
330
1A
100
AcDbEntity
  8
SEIHIN
100
AcDbLine
 10
71.13537530695191
 20
85.78761336739967
 30
0.0
 11
71.13537530695191
 21
81.48761336739966
 31
0.0
  0
ARC
  5
BF4
330
1A
100
AcDbEntity
  8
SEIHIN
100
AcDbCircle
 10
76.66137189695189
 20
82.2876048673997
 30
0.0
 40
1.000008503298284
100
AcDbArc
 50
89.99980462305257
 51
226.251772552069
  0
ARC
  5
BF5
330
1A
100
AcDbEntity
  8
SEIHIN
100
AcDbCircle
 10
84.44305188695187
 20
85.28761336739966
 30
0.0
 40
4.499999998880124
100
AcDbArc
 50
223.0923541928525
 51
270.0
  0
ARC
  5
BF6
330
1A
100
AcDbEntity
  8
SEIHIN
100
AcDbCircle
 10
80.3688013569519
 20
83.78761336739968
 30
0.0
 40
1.999999999554587
100
AcDbArc
 50
43.09235410287214
 51
90.0
  0
LINE
  5
BF7
330
1A
100
AcDbEntity
  8
SEIHIN
100
AcDbLine
 10
81.15691136695193
 20
82.21331987739967
 30
0.0
 11
80.44827321695192
 21
82.9707896973997
 31
0.0
  0
ARC
  5
BF8
330
1A
100
AcDbEntity
  8
SEIHIN
100
AcDbCircle
 10
79.71801976695189
 20
82.28761336739967
 30
0.0
 40
0.9999999997772931
100
AcDbArc
 50
43.09235410287214
 51
90.0
  0
ARC
  5
BF9
330
1A
100
AcDbEntity
  8
SEIHIN
100
AcDbCircle
 10
84.44305188695187
 20
85.28761336739966
 30
0.0
 40
1.999999999554585
100
AcDbArc
 50
223.0923541028721
 51
270.0
  0
LINE
  5
BFA
330
1A
100
AcDbEntity
  8
SEIHIN
100
AcDbLine
 10
82.9825449869519
 20
83.92126070739971
 30
0.0
 11
81.82930825695189
 21
85.15396602739969
 31
0.0
  0
LINE
  5
BFB
330
1A
100
AcDbEntity
  8
SEIHIN
100
AcDbLine
 10
154.3341298869519
 20
80.78761336739967
 30
0.0
 11
114.3353753069519
 21
80.78761336739967
 31
0.0
  0
LINE
  5
BFC
330
1A
100
AcDbEntity
  8
SEIHIN
100
AcDbLine
 10
114.3353753069519
 20
74.78761336739967
 30
0.0
 11
148.0283186869518
 21
74.78761336739967
 31
0.0
  0
LINE
  5
BFD
330
1A
100
AcDbEntity
  8
SEIHIN
100
AcDbLine
 10
114.3353753069519
 20
72.28761336739967
 30
0.0
 11
147.3876220469518
 21
72.28761336739967
 31
0.0
  0
LINE
  5
BFE
330
1A
100
AcDbEntity
  8
SEIHIN
100
AcDbLine
 10
114.3353753069519
 20
83.28761336739967
 30
0.0
 11
146.3921195469518
 21
83.28761336739967
 31
0.0
  0
LINE
  5
C00
330
1A
100
AcDbEntity
  8
SEIHIN
100
AcDbLine
 10
143.9352388469519
 20
80.78761336739967
 30
0.0
 11
143.9352388469519
 21
74.78761336739967
 31
0.0
  0
LINE
  5
C12
330
1A
100
AcDbEntity
  8
SEIHIN
100
AcDbLine
 10
119.5146753059519
 20
83.28761336739967
 30
0.0
 11
114.3353753069519
 21
83.28761336739967
 31
0.0
  0
LINE
  5
C49
330
1A
100
AcDbEntity
  8
SEIHIN
100
AcDbLine
 10
168.9352388469519
 20
78.03761336739967
 30
0.0
 11
168.9352388469519
 21
73.17876534739969
 31
0.0
  0
ARC
  5
C4A
330
1A
100
AcDbEntity
  8
SEIHIN
100
AcDbCircle
 10
148.0283186869518
 20
75.28761336739967
 30
0.0
 40
0.4999999962089669
100
AcDbArc
 50
270.0
 51
350.6360096398327
  0
LINE
  5
C4B
330
1A
100
AcDbEntity
  8
SEIHIN
100
AcDbLine
 10
176.0693499069519
 20
77.78759931739966
 30
0.0
 11
180.9042863969519
 21
69.41324366739968
 31
0.0
  0
ARC
  5
C4C
330
1A
100
AcDbEntity
  8
SEIHIN
100
AcDbCircle
 10
146.6692750369518
 20
90.78761336739967
 30
0.0
 40
15.99999999650688
100
AcDbArc
 50
288.1859804982271
 51
330.2479051608476
  0
LINE
  5
C4D
330
1A
100
AcDbEntity
  8
SEIHIN
100
AcDbLine
 10
170.4352388469519
 20
71.43000503739966
 30
0.0
 11
170.4352388469519
 21
78.03761336739967
 31
0.0
  0
ARC
  5
C4E
330
1A
100
AcDbEntity
  8
SEIHIN
100
AcDbCircle
 10
151.9750171469519
 20
74.63678983739971
 30
0.0
 40
1.00000000571721
100
AcDbArc
 50
108.1859940097359
 51
255.3791176229967
  0
LINE
  5
C4F
330
1A
100
AcDbEntity
  8
SEIHIN
100
AcDbLine
 10
187.4353753069519
 20
103.8097561283996
 30
0.0
 11
187.4353753069519
 21
71.16324366739968
 31
0.0
  0
LINE
  5
C50
330
1A
100
AcDbEntity
  8
SEIHIN
100
AcDbLine
 10
147.3876220469518
 20
72.28761336739967
 30
0.0
 11
166.8603503769518
 21
68.48560301739968
 31
0.0
  0
LINE
  5
C51
330
1A
100
AcDbEntity
  8
SEIHIN
100
AcDbLine
 10
165.4957876369518
 20
70.0761658573997
 30
0.0
 11
151.7225951069519
 21
73.66917259739967
 31
0.0
  0
ARC
  5
C52
330
1A
100
AcDbEntity
  8
SEIHIN
100
AcDbCircle
 10
147.3876220469518
 20
71.28761336739967
 30
0.0
 40
0.9999999985731333
100
AcDbArc
 50
78.80393204908905
 51
90.0
  0
ARC
  5
C53
330
1A
100
AcDbEntity
  8
SEIHIN
100
AcDbCircle
 10
168.1181322969518
 20
70.6989582173997
 30
0.0
 40
1.999999999179419
100
AcDbArc
 50
82.71282276529213
 51
183.1869153879589
  0
ARC
  5
C54
330
1A
100
AcDbEntity
  8
SEIHIN
100
AcDbCircle
 10
167.4352388469519
 20
71.43000503739966
 30
0.0
 40
3.00000000069325
100
AcDbArc
 50
258.9521053411593
 51
0.0
  0
ARC
  5
C55
330
1A
100
AcDbEntity
  8
SEIHIN
100
AcDbCircle
 10
165.6219985869519
 20
70.5599744873997
 30
0.0
 40
0.4999999958019847
100
AcDbArc
 50
255.3791256739049
 51
3.186915975958103
  0
ARC
  5
C56
330
1A
100
AcDbEntity
  8
SEIHIN
100
AcDbCircle
 10
168.4352388469519
 20
73.17876534739969
 30
0.0
 40
0.4999999963452644
100
AcDbArc
 50
262.7128226562795
 51
0.0
  0
ARC
  5
C57
330
1A
100
AcDbEntity
  8
SEIHIN
100
AcDbCircle
 10
183.9353753069519
 20
71.16324366739968
 30
0.0
 40
3.499999998594639
100
AcDbArc
 50
210.0000000265656
 51
0.0
  0
LINE
  5
C58
330
1A
100
AcDbEntity
  8
SEIHIN
100
AcDbLine
 10
182.4355256069519
 20
108.8097561263996
 30
0.0
 11
175.4871446969519
 21
108.8099649993996
 31
0.0
  0
LINE
  5
C59
330
1A
100
AcDbEntity
  8
SEIHIN
100
AcDbLine
 10
182.4354504569519
 20
106.3097561273996
 30
0.0
 11
175.4870695469518
 21
106.3099650013996
 31
0.0
  0
LINE
  5
C5A
330
1A
100
AcDbEntity
  8
SEIHIN
100
AcDbLine
 10
176.4355556669519
 20
98.8099364853997
 30
0.0
 11
175.4868440869519
 21
98.80996500439966
 31
0.0
  0
LINE
  5
C5B
330
1A
100
AcDbEntity
  8
SEIHIN
100
AcDbLine
 10
176.4356308269519
 20
101.3099364842996
 30
0.0
 11
175.4869192369518
 21
101.3099650031996
 31
0.0
  0
LINE
  5
C5C
330
1A
100
AcDbEntity
  8
SEIHIN
100
AcDbLine
 10
160.2933817269519
 20
97.49430931439968
 30
0.0
 11
153.0281458369519
 21
84.78386161739967
 31
0.0
  0
LINE
  5
C5D
330
1A
100
AcDbEntity
  8
SEIHIN
100
AcDbLine
 10
158.1229300469519
 20
98.7349299293997
 30
0.0
 11
150.7330233869519
 21
85.8063721373997
 31
0.0
  0
ARC
  5
C5E
330
1A
100
AcDbEntity
  8
SEIHIN
100
AcDbCircle
 10
175.4865434769519
 20
88.80996500739968
 30
0.0
 40
9.999999999145625
100
AcDbArc
 50
89.9982776315724
 51
150.2479051562262
  0
ARC
  5
C5F
330
1A
100
AcDbEntity
  8
SEIHIN
100
AcDbCircle
 10
175.4865434769519
 20
88.80996500739968
 30
0.0
 40
12.49999999966815
100
AcDbArc
 50
89.99827764303095
 51
150.2479051639018
  0
LINE
  5
C60
330
1A
100
AcDbEntity
  8
SEIHIN
100
AcDbLine
 10
164.6342850869518
 20
95.01306808439966
 30
0.0
 11
158.2200091269518
 21
83.79136511739966
 31
0.0
  0
ARC
  5
C61
330
1A
100
AcDbEntity
  8
SEIHIN
100
AcDbCircle
 10
146.6692750369518
 20
90.78761336739967
 30
0.0
 40
13.49999999718524
100
AcDbArc
 50
288.1859799493473
 51
306.1289274530567
  0
ARC
  5
C62
330
1A
100
AcDbEntity
  8
SEIHIN
100
AcDbCircle
 10
153.8963265069518
 20
84.28761336739967
 30
0.0
 40
1.000000000347428
100
AcDbArc
 50
150.247904938769
 51
270.0
  0
ARC
  5
C63
330
1A
100
AcDbEntity
  8
SEIHIN
100
AcDbCircle
 10
151.9750171469519
 20
74.63678983739971
 30
0.0
 40
3.500000003201731
100
AcDbArc
 50
108.1859864757694
 51
170.6360096381228
  0
ARC
  5
C64
330
1A
100
AcDbEntity
  8
SEIHIN
100
AcDbCircle
 10
146.3921200269519
 20
88.28761336739967
 30
0.0
 40
5.000000001115571
100
AcDbArc
 50
269.9999944996055
 51
330.2479051946069
  0
ARC
  5
C65
330
1A
100
AcDbEntity
  8
SEIHIN
100
AcDbCircle
 10
154.3341298869519
 20
80.28761336739966
 30
0.0
 40
0.499999998465137
100
AcDbArc
 50
306.1289277375728
 51
90.0
  0
LINE
  5
C66
330
1A
100
AcDbEntity
  8
SEIHIN
100
AcDbLine
 10
153.8963265069518
 20
83.28761336739967
 30
0.0
 11
157.3518284569519
 21
83.28761336739967
 31
0.0
  0
ARC
  5
C67
330
1A
100
AcDbEntity
  8
SEIHIN
100
AcDbCircle
 10
157.3518284569519
 20
84.28761336739967
 30
0.0
 40
1.000000000347427
100
AcDbArc
 50
270.0
 51
330.2479049387692
  0
LINE
  5
C68
330
1A
100
AcDbEntity
  8
SEIHIN
100
AcDbLine
 10
166.8047367669519
 20
93.7724474693997
 30
0.0
 11
160.5601657769519
 21
82.84764142739971
 31
0.0
  0
ARC
  5
C69
330
1A
100
AcDbEntity
  8
SEIHIN
100
AcDbCircle
 10
169.6852388469519
 20
78.03761336739967
 30
0.0
 40
0.75
100
AcDbArc
 50
0.0
 51
90.0
  0
ARC
  5
C6A
330
1A
100
AcDbEntity
  8
SEIHIN
100
AcDbCircle
 10
169.6852388469519
 20
78.03761336739967
 30
0.0
 40
0.75
100
AcDbArc
 50
90.0
 51
180.0
  0
ARC
  5
C6B
330
1A
100
AcDbEntity
  8
SEIHIN
100
AcDbCircle
 10
175.4865434769519
 20
88.80996500739968
 30
0.0
 40
17.50000000101337
100
AcDbArc
 50
89.99827762338702
 51
150.2479051726757
  0
ARC
  5
C6C
330
1A
100
AcDbEntity
  8
SEIHIN
100
AcDbCircle
 10
175.4865434769519
 20
88.80996500739968
 30
0.0
 40
20.0000000011359
100
AcDbArc
 50
89.99827763157158
 51
150.2479051754179
  0
ARC
  5
C6D
330
1A
100
AcDbEntity
  8
SEIHIN
100
AcDbCircle
 10
176.4353753069519
 20
92.80993648839967
 30
0.0
 40
5.999999999855404
100
AcDbArc
 50
0.0
 51
89.99827768886756
  0
LINE
  5
C72
330
1A
100
AcDbEntity
  8
SEIHIN
100
AcDbLine
 10
182.4353753069519
 20
92.80993648839967
 30
0.0
 11
182.4353753069519
 21
79.0302400073997
 31
0.0
  0
ARC
  5
C73
330
1A
100
AcDbEntity
  8
SEIHIN
100
AcDbCircle
 10
180.4353753069519
 20
79.0302400073997
 30
0.0
 40
1.999999998321968
100
AcDbArc
 50
225.0
 51
0.0
  0
LINE
  5
C74
330
1A
100
AcDbEntity
  8
SEIHIN
100
AcDbLine
 10
177.6424820869519
 20
78.99470609739967
 30
0.0
 11
179.0211617469519
 21
77.61602644739969
 31
0.0
  0
ARC
  5
C75
330
1A
100
AcDbEntity
  8
SEIHIN
100
AcDbCircle
 10
176.9353753069519
 20
78.28759931739966
 30
0.0
 40
0.9999999975222747
100
AcDbArc
 50
45.0
 51
210.0000001084147
  0
ARC
  5
C77
330
1A
100
AcDbEntity
  8
SEIHIN
100
AcDbCircle
 10
182.4353753069519
 20
103.8097561283996
 30
0.0
 40
5.000000000129504
100
AcDbArc
 50
0.0
 51
89.99827768886756
  0
ARC
  5
C78
330
1A
100
AcDbEntity
  8
SEIHIN
100
AcDbCircle
 10
182.4353753069519
 20
103.8097561283996
 30
0.0
 40
2.500000000064752
100
AcDbArc
 50
0.0
 51
89.99827768886756
  0
ARC
  5
C79
330
1A
100
AcDbEntity
  8
SEIHIN
100
AcDbCircle
 10
176.4353753069519
 20
92.80993648839967
 30
0.0
 40
8.500000001574836
100
AcDbArc
 50
37.86364634504803
 51
89.99827762146058
  0
LINE
  5
C7A
330
1A
100
AcDbEntity
  8
SEIHIN
100
AcDbLine
 10
184.9353753069519
 20
103.8097561283996
 30
0.0
 11
184.9353753069519
 21
98.64088838339966
 31
0.0
  0
ARC
  5
C7B
330
1A
100
AcDbEntity
  8
SEIHIN
100
AcDbCircle
 10
183.9353753069519
 20
98.64088838339966
 30
0.0
 40
0.9999999983429477
100
AcDbArc
 50
217.863646510539
 51
0.0
  0
LINE
  5
C7C
330
1A
100
AcDbEntity
  8
SEIHIN
100
AcDbLine
 10
93.8682782769519
 20
207.7676595228918
 30
0.0
 11
72.43527530695189
 21
207.7676595228918
 31
0.0
  0
LINE
  5
C7D
330
1A
100
AcDbEntity
  8
SEIHIN
100
AcDbLine
 10
93.8682782769519
 20
222.7676595628919
 30
0.0
 11
72.43527530695189
 21
222.7676595628919
 31
0.0
  0
LINE
  5
C7F
330
1A
100
AcDbEntity
  8
SEIHIN
100
AcDbLine
 10
67.43527530695189
 20
204.2676595228918
 30
0.0
 11
67.43527530695189
 21
226.2676595628918
 31
0.0
  0
LINE
  5
C80
330
1A
100
AcDbEntity
  8
SEIHIN
100
AcDbLine
 10
70.4352753069519
 20
224.7676595628919
 30
0.0
 11
70.4352753069519
 21
226.2676595628918
 31
0.0
  0
LINE
  5
C81
330
1A
100
AcDbEntity
  8
SEIHIN
100
AcDbLine
 10
64.43527530695189
 20
204.2676595228918
 30
0.0
 11
64.43527530695189
 21
226.2676595628918
 31
0.0
  0
ARC
  5
C83
330
1A
100
AcDbEntity
  8
SEIHIN
100
AcDbCircle
 10
72.43527530695189
 20
205.7676595228918
 30
0.0
 40
2.0
100
AcDbArc
 50
90.0
 51
180.0
  0
LINE
  5
C84
330
1A
100
AcDbEntity
  8
SEIHIN
100
AcDbLine
 10
64.43527530695189
 20
204.2676595228918
 30
0.0
 11
70.4352753069519
 21
204.2676595228918
 31
0.0
  0
ARC
  5
C85
330
1A
100
AcDbEntity
  8
SEIHIN
100
AcDbCircle
 10
72.43527530695189
 20
224.7676595628919
 30
0.0
 40
2.0
100
AcDbArc
 50
180.0
 51
270.0
  0
LINE
  5
C87
330
1A
100
AcDbEntity
  8
SEIHIN
100
AcDbLine
 10
84.44305188695194
 20
221.7855886628918
 30
0.0
 11
84.44305188695194
 21
209.2962034328918
 31
0.0
  0
LINE
  5
C88
330
1A
100
AcDbEntity
  8
SEIHIN
100
AcDbLine
 10
81.10122297695193
 20
221.4456996628918
 30
0.0
 11
81.10122297695193
 21
208.9563143928918
 31
0.0
  0
LINE
  5
C89
330
1A
100
AcDbEntity
  8
SEIHIN
100
AcDbLine
 10
70.4352753069519
 20
205.7676595228918
 30
0.0
 11
70.4352753069519
 21
204.2676595228918
 31
0.0
  0
LINE
  5
C8A
330
1A
100
AcDbEntity
  8
SEIHIN
100
AcDbLine
 10
64.43527530695189
 20
226.2676595628918
 30
0.0
 11
70.4352753069519
 21
226.2676595628918
 31
0.0
  0
LINE
  5
F65
330
1A
100
AcDbEntity
  8
NOKITOI
  6
PHANTOM
 62
     8
100
AcDbLine
 10
182.2734753018699
 20
93.48071336629288
 30
0.0
 11
181.8833753018698
 21
80.99631336629284
 31
0.0
  0
LINE
  5
F66
330
1A
100
AcDbEntity
  8
NOKITOI
  6
PHANTOM
 62
     8
100
AcDbLine
 10
181.0740753018695
 20
93.5182133662928
 30
0.0
 11
180.9247753018699
 21
88.73921336629303
 31
0.0
  0
LINE
  5
F67
330
1A
100
AcDbEntity
  8
NOKITOI
  6
PHANTOM
 62
     8
100
AcDbLine
 10
176.36097530187
 20
90.74321336629294
 30
0.0
 11
175.3651753018699
 21
91.84321336629308
 31
0.0
  0
LINE
  5
F68
330
1A
100
AcDbEntity
  8
NOKITOI
  6
PHANTOM
 62
     8
100
AcDbLine
 10
173.81307530187
 20
86.51691336629289
 30
0.0
 11
173.4972753018697
 21
92.5169133662929
 31
0.0
  0
ARC
  5
F69
330
1A
100
AcDbEntity
  8
NOKITOI
  6
PHANTOM
 62
     8
100
AcDbCircle
 10
176.8229574355187
 20
85.54322209467285
 30
0.0
 40
5.199991271650611
100
AcDbArc
 50
37.92532860472995
 51
89.9998031407256
  0
LINE
  5
F6A
330
1A
100
AcDbEntity
  8
NOKITOI
  6
PHANTOM
 62
     8
100
AcDbLine
 10
68.31497530187021
 20
90.74321336629294
 30
0.0
 11
69.31077530186991
 21
91.84321336629308
 31
0.0
  0
LINE
  5
F6B
330
1A
100
AcDbEntity
  8
NOKITOI
  6
PHANTOM
 62
     8
100
AcDbLine
 10
70.86297530187
 20
86.51701336629287
 30
0.0
 11
71.17877530186984
 21
92.5169133662929
 31
0.0
  0
LINE
  5
F6C
330
1A
100
AcDbEntity
  8
NOKITOI
  6
PHANTOM
 62
     8
100
AcDbLine
 10
62.40247530186991
 20
93.48071336629288
 30
0.0
 11
62.79267530186974
 21
80.9964133662928
 31
0.0
  0
LINE
  5
F6D
330
1A
100
AcDbEntity
  8
NOKITOI
  6
PHANTOM
 62
     8
100
AcDbLine
 10
63.60187530187028
 20
93.5182133662928
 30
0.0
 11
63.75127530186961
 21
88.73931336629301
 31
0.0
  0
ARC
  5
F6E
330
1A
100
AcDbEntity
  8
NOKITOI
  6
PHANTOM
 62
     8
100
AcDbCircle
 10
67.85319551453909
 20
85.54327209467293
 30
0.0
 40
5.2000412730095
100
AcDbArc
 50
90.0013245430618
 51
142.0757990790551
  0
ARC
  5
F6F
330
1A
100
AcDbEntity
  8
NOKITOI
  6
PHANTOM
 62
     8
100
AcDbCircle
 10
114.1515813838378
 20
83.54320774163658
 30
0.0
 40
41.79999437547816
100
AcDbArc
 50
184.4742952125247
 51
269.999854592109
  0
ARC
  5
F70
330
1A
100
AcDbEntity
  8
NOKITOI
  6
PHANTOM
 62
     8
100
AcDbCircle
 10
114.1515590754125
 20
83.54322784266299
 30
0.0
 40
43.00001447645168
100
AcDbArc
 50
186.5249107071177
 51
269.9998883751437
  0
ARC
  5
F71
330
1A
100
AcDbEntity
  8
NOKITOI
  6
PHANTOM
 62
     8
100
AcDbCircle
 10
64.29191126102074
 20
81.04317851214966
 30
0.0
 40
1.499965146287778
100
AcDbArc
 50
181.7866280217767
 51
269.9986264296971
  0
ARC
  5
F72
330
1A
100
AcDbEntity
  8
NOKITOI
  6
PHANTOM
 62
     8
100
AcDbCircle
 10
70.43656687770732
 20
78.54322088134939
 30
0.0
 40
0.9999924849789756
100
AcDbArc
 50
6.528264606673934
 51
89.99951732740965
  0
LINE
  5
F73
330
1A
100
AcDbEntity
  8
NOKITOI
  6
PHANTOM
 62
     8
100
AcDbLine
 10
71.98047530187029
 20
80.74321336629294
 30
0.0
 11
65.93957530186987
 21
80.74321336629294
 31
0.0
  0
LINE
  5
F74
330
1A
100
AcDbEntity
  8
NOKITOI
  6
PHANTOM
 62
     8
100
AcDbLine
 10
67.6195753018697
 20
86.61401336629309
 30
0.0
 11
67.95327530186984
 21
88.95021336629303
 31
0.0
  0
LINE
  5
F75
330
1A
100
AcDbEntity
  8
NOKITOI
  6
PHANTOM
 62
     8
100
AcDbLine
 10
70.36357530186984
 20
86.04321336629288
 30
0.0
 11
68.11447530186985
 21
86.04321336629288
 31
0.0
  0
ARC
  5
F76
330
1A
100
AcDbEntity
  8
NOKITOI
  6
PHANTOM
 62
     8
100
AcDbCircle
 10
68.11450190246756
 20
86.54318268941086
 30
0.0
 40
0.4999693238254178
100
AcDbArc
 50
171.8555038770531
 51
269.9969516090356
  0
ARC
  5
F77
330
1A
100
AcDbEntity
  8
NOKITOI
  6
PHANTOM
 62
     8
100
AcDbCircle
 10
70.36356841487492
 20
86.54320683120738
 30
0.0
 40
0.499993464961963
100
AcDbArc
 50
270.0007892017869
 51
356.997036131742
  0
LINE
  5
F78
330
1A
100
AcDbEntity
  8
NOKITOI
  6
PHANTOM
 62
     8
100
AcDbLine
 10
69.69947530186988
 20
87.24321336629293
 30
0.0
 11
68.92157530187029
 21
87.24321336629293
 31
0.0
  0
LINE
  5
F79
330
1A
100
AcDbEntity
  8
NOKITOI
  6
PHANTOM
 62
     8
100
AcDbLine
 10
69.32567530187004
 20
90.0716133662928
 30
0.0
 11
69.88067530186987
 21
90.68471336629306
 31
0.0
  0
LINE
  5
F7A
330
1A
100
AcDbEntity
  8
NOKITOI
  6
PHANTOM
 62
     8
100
AcDbLine
 10
68.92157530187029
 20
87.24321336629293
 30
0.0
 11
69.32567530187004
 21
90.0716133662928
 31
0.0
  0
ARC
  5
F7B
330
1A
100
AcDbEntity
  8
NOKITOI
  6
PHANTOM
 62
     8
100
AcDbCircle
 10
67.45828952028529
 20
89.02089873199191
 30
0.0
 40
0.5000073448410256
100
AcDbArc
 50
351.872947864124
 51
96.47829282996916
  0
LINE
  5
F7C
330
1A
100
AcDbEntity
  8
NOKITOI
  6
PHANTOM
 62
     8
100
AcDbLine
 10
68.31497530187021
 20
90.74321336629294
 30
0.0
 11
67.85307530186997
 21
90.74321336629294
 31
0.0
  0
LINE
  5
F7D
330
1A
100
AcDbEntity
  8
NOKITOI
  6
PHANTOM
 62
     8
100
AcDbLine
 10
69.69947530186988
 20
87.24321336629293
 30
0.0
 11
69.88067530186987
 21
90.68471336629306
 31
0.0
  0
LINE
  5
F7E
330
1A
100
AcDbEntity
  8
NOKITOI
  6
PHANTOM
 62
     8
100
AcDbLine
 10
64.29187530186988
 20
79.54321336629289
 30
0.0
 11
70.43657530186971
 21
79.54321336629289
 31
0.0
  0
LINE
  5
F7F
330
1A
100
AcDbEntity
  8
NOKITOI
  6
PHANTOM
 62
     8
100
AcDbLine
 10
63.94057530186961
 20
82.68081336629292
 30
0.0
 11
63.85507530186993
 21
85.41831336629286
 31
0.0
  0
ARC
  5
F80
330
1A
100
AcDbEntity
  8
NOKITOI
  6
PHANTOM
 62
     8
100
AcDbCircle
 10
67.85311318331657
 20
85.54325714881827
 30
0.0
 40
3.999989731271038
100
AcDbArc
 50
96.4773114201311
 51
181.7899836067311
  0
ARC
  5
F81
330
1A
100
AcDbEntity
  8
NOKITOI
  6
PHANTOM
 62
     8
100
AcDbCircle
 10
65.93958887400828
 20
82.74320021120649
 30
0.0
 40
1.999986844959662
100
AcDbArc
 50
181.7875531852356
 51
269.9996111843215
  0
ARC
  5
F82
330
1A
100
AcDbEntity
  8
NOKITOI
  6
PHANTOM
 62
     8
100
AcDbCircle
 10
71.98048787157819
 20
80.2432017415632
 30
0.0
 40
0.5000116248877111
100
AcDbArc
 50
4.474846808342103
 51
90.00144034898383
  0
LINE
  5
F83
330
1A
100
AcDbEntity
  8
NOKITOI
  6
PHANTOM
 62
     8
100
AcDbLine
 10
169.0330753018702
 20
50.02591336629291
 30
0.0
 11
159.0477753018699
 21
41.85611336629278
 31
0.0
  0
LINE
  5
F84
330
1A
100
AcDbEntity
  8
NOKITOI
  6
PHANTOM
 62
     8
100
AcDbLine
 10
170.0173753018698
 20
49.28081336629304
 30
0.0
 11
159.6142753018698
 21
40.76911336629303
 31
0.0
  0
LINE
  5
F85
330
1A
100
AcDbEntity
  8
NOKITOI
  6
PHANTOM
 62
     8
100
AcDbLine
 10
114.1515753018698
 20
41.74321336629293
 30
0.0
 11
158.7311753018698
 21
41.74311336629296
 31
0.0
  0
LINE
  5
F86
330
1A
100
AcDbEntity
  8
NOKITOI
  6
PHANTOM
 62
     8
100
AcDbLine
 10
158.9809753018699
 20
40.54311336629291
 30
0.0
 11
114.1515753018698
 21
40.54321336629288
 31
0.0
  0
LINE
  5
F87
330
1A
100
AcDbEntity
  8
NOKITOI
  6
PHANTOM
 62
     8
100
AcDbLine
 10
154.7311753018698
 20
41.74311336629296
 30
0.0
 11
134.8230753018702
 21
41.74311336629296
 31
0.0
  0
LINE
  5
F88
330
1A
100
AcDbEntity
  8
NOKITOI
  6
PHANTOM
 62
     8
100
AcDbLine
 10
154.9809753018699
 20
40.54311336629291
 30
0.0
 11
134.8230753018702
 21
40.54311336629291
 31
0.0
  0
ARC
  5
F89
330
1A
100
AcDbEntity
  8
NOKITOI
  6
PHANTOM
 62
     8
100
AcDbCircle
 10
158.7311816896186
 20
42.24311564628249
 30
0.0
 40
0.5000022800304047
100
AcDbArc
 50
269.9992680212791
 51
309.2854498596061
  0
ARC
  5
F8A
330
1A
100
AcDbEntity
  8
NOKITOI
  6
PHANTOM
 62
     8
100
AcDbCircle
 10
158.9809683692925
 20
41.5431108912868
 30
0.0
 40
0.9999975250179316
100
AcDbArc
 50
270.0003972084035
 51
309.2946416752297
  0
LINE
  5
F8B
330
1A
100
AcDbEntity
  8
NOKITOI
  6
PHANTOM
 62
     8
100
AcDbLine
 10
172.20697530187
 20
80.29301336629293
 30
0.0
 11
169.2139753018696
 21
50.36321336629282
 31
0.0
  0
LINE
  5
F8C
330
1A
100
AcDbEntity
  8
NOKITOI
  6
PHANTOM
 62
     8
100
AcDbLine
 10
173.2479753018702
 20
78.64271336629292
 30
0.0
 11
170.37917530187
 21
49.9553133662929
 31
0.0
  0
ARC
  5
F8D
330
1A
100
AcDbEntity
  8
NOKITOI
  6
PHANTOM
 62
     8
100
AcDbCircle
 10
168.7164578759916
 20
50.41288087990494
 30
0.0
 40
0.4999904508696396
100
AcDbArc
 50
309.2900846377951
 51
354.2990110749239
  0
ARC
  5
F8E
330
1A
100
AcDbEntity
  8
NOKITOI
  6
PHANTOM
 62
     8
100
AcDbCircle
 10
169.384152729001
 20
50.05477129462031
 30
0.0
 40
0.9999908507640039
100
AcDbArc
 50
309.288709223069
 51
354.2862329477532
  0
ARC
  5
F8F
330
1A
100
AcDbEntity
  8
NOKITOI
  6
PHANTOM
 62
     8
100
AcDbCircle
 10
176.8229443749337
 20
85.54324911095671
 30
0.0
 40
3.99998565374706
100
AcDbArc
 50
358.208696659101
 51
83.52422380468341
  0
LINE
  5
F90
330
1A
100
AcDbEntity
  8
NOKITOI
  6
PHANTOM
 62
     8
100
AcDbLine
 10
172.7044753018695
 20
80.74321336629294
 30
0.0
 11
178.7363753018699
 21
80.74321336629294
 31
0.0
  0
LINE
  5
F91
330
1A
100
AcDbEntity
  8
NOKITOI
  6
PHANTOM
 62
     8
100
AcDbLine
 10
180.3840753018699
 20
79.54321336629289
 30
0.0
 11
174.2429753018701
 21
79.54321336629289
 31
0.0
  0
ARC
  5
F92
330
1A
100
AcDbEntity
  8
NOKITOI
  6
PHANTOM
 62
     8
100
AcDbCircle
 10
174.2429959517108
 20
78.5432320541421
 30
0.0
 40
0.9999813123640345
100
AcDbArc
 50
90.00118317084911
 51
174.2905900333514
  0
LINE
  5
F93
330
1A
100
AcDbEntity
  8
NOKITOI
  6
PHANTOM
 62
     8
100
AcDbLine
 10
177.0564753018698
 20
86.61391336629288
 30
0.0
 11
176.7226753018699
 21
88.95011336629307
 31
0.0
  0
ARC
  5
F94
330
1A
100
AcDbEntity
  8
NOKITOI
  6
PHANTOM
 62
     8
100
AcDbCircle
 10
176.5614854883061
 20
86.54322511101701
 30
0.0
 40
0.5000117448278309
100
AcDbArc
 50
269.9988327478016
 51
8.127314608715551
  0
ARC
  5
F95
330
1A
100
AcDbEntity
  8
NOKITOI
  6
PHANTOM
 62
     8
100
AcDbCircle
 10
174.3123794232765
 20
86.54320945626238
 30
0.0
 40
0.4999960899864752
100
AcDbArc
 50
183.0147243791741
 51
269.9995277178593
  0
LINE
  5
F96
330
1A
100
AcDbEntity
  8
NOKITOI
  6
PHANTOM
 62
     8
100
AcDbLine
 10
174.3123753018699
 20
86.04321336629288
 30
0.0
 11
176.5614753018695
 21
86.04321336629288
 31
0.0
  0
ARC
  5
F97
330
1A
100
AcDbEntity
  8
NOKITOI
  6
PHANTOM
 62
     8
100
AcDbCircle
 10
177.2177046743696
 20
89.02084359878779
 30
0.0
 40
0.4999578477751074
100
AcDbArc
 50
83.5260907122076
 51
188.1330561712932
  0
LINE
  5
F98
330
1A
100
AcDbEntity
  8
NOKITOI
  6
PHANTOM
 62
     8
100
AcDbLine
 10
176.36097530187
 20
90.74321336629294
 30
0.0
 11
176.82297530187
 21
90.74321336629294
 31
0.0
  0
LINE
  5
F99
330
1A
100
AcDbEntity
  8
NOKITOI
  6
PHANTOM
 62
     8
100
AcDbLine
 10
175.3503753018699
 20
90.0716133662928
 30
0.0
 11
174.7953753018696
 21
90.68461336629287
 31
0.0
  0
LINE
  5
F9A
330
1A
100
AcDbEntity
  8
NOKITOI
  6
PHANTOM
 62
     8
100
AcDbLine
 10
174.9764753018699
 20
87.24321336629293
 30
0.0
 11
175.7543753018695
 21
87.24321336629293
 31
0.0
  0
LINE
  5
F9B
330
1A
100
AcDbEntity
  8
NOKITOI
  6
PHANTOM
 62
     8
100
AcDbLine
 10
174.9764753018699
 20
87.24321336629293
 30
0.0
 11
174.7953753018696
 21
90.68461336629287
 31
0.0
  0
LINE
  5
F9C
330
1A
100
AcDbEntity
  8
NOKITOI
  6
PHANTOM
 62
     8
100
AcDbLine
 10
175.7543753018695
 20
87.24321336629293
 30
0.0
 11
175.3503753018699
 21
90.0716133662928
 31
0.0
  0
ARC
  5
F9D
330
1A
100
AcDbEntity
  8
NOKITOI
  6
PHANTOM
 62
     8
100
AcDbCircle
 10
172.7044883728745
 20
80.24322519657278
 30
0.0
 40
0.499988169890889
100
AcDbArc
 50
90.00149786226634
 51
174.2966061377162
  0
LINE
  5
F9E
330
1A
100
AcDbEntity
  8
NOKITOI
  6
PHANTOM
 62
     8
100
AcDbLine
 10
180.7354753018699
 20
82.68061336629296
 30
0.0
 11
180.8209753018696
 21
85.41821336629288
 31
0.0
  0
ARC
  5
F9F
330
1A
100
AcDbEntity
  8
NOKITOI
  6
PHANTOM
 62
     8
100
AcDbCircle
 10
178.7364132896942
 20
82.74315018686513
 30
0.0
 40
2.000036820932882
100
AcDbArc
 50
269.9989117490344
 51
358.2110591274195
  0
ARC
  5
FA0
330
1A
100
AcDbEntity
  8
NOKITOI
  6
PHANTOM
 62
     8
100
AcDbCircle
 10
180.384092515048
 20
81.04323004944069
 30
0.0
 40
1.500016683246579
100
AcDbArc
 50
269.9993425123344
 51
358.2076423244113
  0
ARC
  5
FA1
330
1A
100
AcDbEntity
  8
NOKITOI
  6
PHANTOM
 62
     8
100
AcDbCircle
 10
64.4014880527198
 20
93.54322652137932
 30
0.0
 40
1.999986844954076
100
AcDbArc
 50
90.00036528735451
 51
181.7883072882703
  0
ARC
  5
FA2
330
1A
100
AcDbEntity
  8
NOKITOI
  6
PHANTOM
 62
     8
100
AcDbCircle
 10
70.679369100712
 20
92.54321990137816
 30
0.0
 40
0.4999934649531607
100
AcDbArc
 50
356.9955363203376
 51
89.99928939038076
  0
LINE
  5
FA3
330
1A
100
AcDbEntity
  8
NOKITOI
  6
PHANTOM
 62
     8
100
AcDbLine
 10
70.6793753018697
 20
93.04321336629289
 30
0.0
 11
68.44787530186983
 21
93.04321336629289
 31
0.0
  0
LINE
  5
FA4
330
1A
100
AcDbEntity
  8
NOKITOI
  6
PHANTOM
 62
     8
100
AcDbLine
 10
67.95757530186989
 20
93.64131336629283
 30
0.0
 11
68.21837530186991
 21
94.94521336629293
 31
0.0
  0
LINE
  5
FA5
330
1A
100
AcDbEntity
  8
NOKITOI
  6
PHANTOM
 62
     8
100
AcDbLine
 10
64.40147530186965
 20
94.34321336629308
 30
0.0
 11
66.87427530187012
 21
94.34321336629308
 31
0.0
  0
ARC
  5
FA6
330
1A
100
AcDbEntity
  8
NOKITOI
  6
PHANTOM
 62
     8
100
AcDbCircle
 10
68.44786804731445
 20
93.54322221613632
 30
0.0
 40
0.5000088498959383
100
AcDbArc
 50
168.6864043304889
 51
270.0008312961442
  0
LINE
  5
FA7
330
1A
100
AcDbEntity
  8
NOKITOI
  6
PHANTOM
 62
     8
100
AcDbLine
 10
64.40147530186965
 20
95.54321336629289
 30
0.0
 11
67.72807530186998
 21
95.54321336629289
 31
0.0
  0
ARC
  5
FA8
330
1A
100
AcDbEntity
  8
NOKITOI
  6
PHANTOM
 62
     8
100
AcDbCircle
 10
67.72807451886143
 20
95.04321432129462
 30
0.0
 40
0.4999990449987349
100
AcDbArc
 50
348.6967198015447
 51
89.99991027369492
  0
LINE
  5
FA9
330
1A
100
AcDbEntity
  8
NOKITOI
  6
PHANTOM
 62
     8
100
AcDbLine
 10
66.37427530187011
 20
91.84321336629308
 30
0.0
 11
69.31077530186991
 21
91.84321336629308
 31
0.0
  0
LINE
  5
FAA
330
1A
100
AcDbEntity
  8
NOKITOI
  6
PHANTOM
 62
     8
100
AcDbLine
 10
66.87427530187012
 20
94.34321336629308
 30
0.0
 11
66.37427530187011
 21
91.84321336629308
 31
0.0
  0
ARC
  5
FAB
330
1A
100
AcDbEntity
  8
NOKITOI
  6
PHANTOM
 62
     8
100
AcDbCircle
 10
64.40147979666796
 20
93.54321800381979
 30
0.0
 40
0.7999953624857498
100
AcDbArc
 50
90.00032191805264
 51
181.7911273464193
  0
LINE
  5
FAC
330
1A
100
AcDbEntity
  8
NOKITOI
  6
PHANTOM
 62
     8
100
AcDbLine
 10
178.3017753018699
 20
91.84321336629308
 30
0.0
 11
175.3651753018699
 21
91.84321336629308
 31
0.0
  0
LINE
  5
FAD
330
1A
100
AcDbEntity
  8
NOKITOI
  6
PHANTOM
 62
     8
100
AcDbLine
 10
180.2744753018701
 20
95.54311336629291
 30
0.0
 11
176.9478753018698
 21
95.54321336629289
 31
0.0
  0
LINE
  5
FAE
330
1A
100
AcDbEntity
  8
NOKITOI
  6
PHANTOM
 62
     8
100
AcDbLine
 10
176.7183753018699
 20
93.64121336629308
 30
0.0
 11
176.4575753018698
 21
94.94521336629293
 31
0.0
  0
ARC
  5
FAF
330
1A
100
AcDbEntity
  8
NOKITOI
  6
PHANTOM
 62
     8
100
AcDbCircle
 10
176.2280745188614
 20
93.54321241129117
 30
0.0
 40
0.4999990449987399
100
AcDbArc
 50
270.000089726305
 51
11.30328019845521
  0
ARC
  5
FB0
330
1A
100
AcDbEntity
  8
NOKITOI
  6
PHANTOM
 62
     8
100
AcDbCircle
 10
176.9478680473144
 20
95.04320451644947
 30
0.0
 40
0.500008849895925
100
AcDbArc
 50
89.99916870385415
 51
191.3135956695126
  0
ARC
  5
FB1
330
1A
100
AcDbEntity
  8
NOKITOI
  6
PHANTOM
 62
     8
100
AcDbCircle
 10
173.9965790113652
 20
92.54321727632362
 30
0.0
 40
0.4999960899831856
100
AcDbArc
 50
90.00042508015082
 51
183.0156217414647
  0
LINE
  5
FB2
330
1A
100
AcDbEntity
  8
NOKITOI
  6
PHANTOM
 62
     8
100
AcDbLine
 10
173.9965753018701
 20
93.04321336629289
 30
0.0
 11
176.2280753018699
 21
93.04321336629289
 31
0.0
  0
ARC
  5
FB3
330
1A
100
AcDbEntity
  8
NOKITOI
  6
PHANTOM
 62
     8
100
AcDbCircle
 10
180.2744640648757
 20
93.54322496011002
 30
0.0
 40
1.999988406214315
100
AcDbArc
 50
358.2088726535936
 51
89.99967808195551
  0
ARC
  5
FB4
330
1A
100
AcDbEntity
  8
NOKITOI
  6
PHANTOM
 62
     8
100
AcDbCircle
 10
180.2745192682228
 20
93.54316800381992
 30
0.0
 40
0.7999453636812564
100
AcDbArc
 50
358.2123436447881
 51
90.00314907315425
  0
LINE
  5
FB5
330
1A
100
AcDbEntity
  8
NOKITOI
  6
PHANTOM
 62
     8
100
AcDbLine
 10
177.8017753018698
 20
94.34321336629308
 30
0.0
 11
178.3017753018699
 21
91.84321336629308
 31
0.0
  0
LINE
  5
FB6
330
1A
100
AcDbEntity
  8
NOKITOI
  6
PHANTOM
 62
     8
100
AcDbLine
 10
180.2744753018701
 20
94.34311336629287
 30
0.0
 11
177.8017753018698
 21
94.34321336629308
 31
0.0
  0
DIMENSION
  5
1057
330
1A
100
AcDbEntity
  8
SUNPOU
100
AcDbDimension
  2
*D1
 10
38.5500126603024
 20
204.2676595228919
 30
0.0
 11
36.05001266030237
 21
215.2676595428919
 31
0.0
 70
    32
  3
STANDARD
100
AcDbAlignedDimension
 13
64.43527530695192
 23
226.2676595628918
 33
0.0
 14
64.43527530695192
 24
204.2676595228918
 34
0.0
 50
90.0
100
AcDbRotatedDimension
1001
ACAD
1000
DSTYLE
1002
{
1070
    41
1040
3.0
1070
    42
1040
3.0
1070
    43
1040
7.0
1070
    44
1040
1.5
1070
    73
1070
     0
1070
    74
1070
     0
1070
    77
1070
     3
1070
   140
1040
3.0
1070
   141
1040
3.0
1070
   147
1040
1.0
1070
   172
1070
     1
1070
   173
1070
     1
1070
   176
1070
   256
1070
   177
1070
   256
1070
   178
1070
   256
1070
   271
1070
     0
1070
   272
1070
     0
1070
   341
1005
B2
1070
     6
1000
OPEN
1070
     7
1000
OPEN
1002
}
  0
LINE
  5
3E0B
330
1A
100
AcDbEntity
  8
SEIHIN
100
AcDbLine
 10
121.9634093831214
 20
222.7676595628919
 30
0.0
 11
121.9634093831214
 21
221.7676595628919
 31
0.0
  0
LINE
  5
3E0C
330
1A
100
AcDbEntity
  8
SEIHIN
100
AcDbLine
 10
121.9634093831214
 20
208.7676595228919
 30
0.0
 11
121.9634093831214
 21
207.7676595228918
 31
0.0
  0
TEXT
  5
469D
330
1A
100
AcDbEntity
  8
SUNPOU
100
AcDbText
 10
225.110558122283
 20
167.6813940804911
 30
0.0
 40
3.0
  1
（スライド幅）
100
AcDbText
  0
DIMENSION
  5
469E
330
1A
100
AcDbEntity
  8
SUNPOU
100
AcDbDimension
  2
*D2
 10
232.5690338442533
 20
188.8344633534941
 30
0.0
 11
230.0690338442533
 21
215.2676595428919
 31
0.0
 70
    32
  3
STANDARD
100
AcDbAlignedDimension
 13
213.3613882813602
 23
241.7008557322895
 33
0.0
 14
213.3613882813602
 24
188.8344633534941
 34
0.0
 50
90.0
100
AcDbRotatedDimension
1001
ACAD
1000
DSTYLE
1002
{
1070
    41
1040
3.0
1070
    42
1040
3.0
1070
    43
1040
7.0
1070
    44
1040
1.5
1070
    73
1070
     0
1070
    74
1070
     0
1070
    77
1070
     3
1070
   140
1040
3.0
1070
   141
1040
3.0
1070
   147
1040
1.0
1070
   172
1070
     1
1070
   173
1070
     1
1070
   176
1070
   256
1070
   177
1070
   256
1070
   178
1070
   256
1070
   271
1070
     0
1070
   272
1070
     0
1070
   341
1005
B2
1070
     6
1000
OPEN
1070
     7
1000
OPEN
1002
}
  0
DIMENSION
  5
469F
330
1A
100
AcDbEntity
  8
SUNPOU
100
AcDbDimension
  2
*D3
 10
231.0253224462202
 20
163.9245570740195
 30
0.0
 11
223.5253224462202
 21
166.4245570740195
 31
0.0
 70
    32
  3
STANDARD
100
AcDbAlignedDimension
 13
216.0253224462202
 23
134.090027848847
 33
0.0
 14
231.0253224462202
 24
134.090027848847
 34
0.0
100
AcDbRotatedDimension
1001
ACAD
1000
DSTYLE
1002
{
1070
    41
1040
3.0
1070
    42
1040
3.0
1070
    43
1040
7.0
1070
    44
1040
1.5
1070
    73
1070
     0
1070
    74
1070
     0
1070
    77
1070
     3
1070
   140
1040
3.0
1070
   141
1040
3.0
1070
   147
1040
1.0
1070
   172
1070
     1
1070
   173
1070
     1
1070
   176
1070
   256
1070
   177
1070
   256
1070
   178
1070
   256
1070
   271
1070
     0
1070
   272
1070
     0
1070
   341
1005
B2
1070
     6
1000
OPEN
1070
     7
1000
OPEN
1002
}
  0
LINE
  5
46A0
330
1A
100
AcDbEntity
  8
CENTER_L
100
AcDbLine
 10
225.299399453244
 20
92.00521920535233
 30
0.0
 11
243.0495030155501
 21
102.6552813402777
 31
0.0
  0
DIMENSION
  5
46A6
330
1A
100
AcDbEntity
  8
SUNPOU
100
AcDbDimension
  2
*D4
 10
216.0253224462202
 20
163.9245570740195
 30
0.0
 11
140.230298876586
 21
166.4245570740195
 31
0.0
 70
    32
  3
STANDARD
100
AcDbAlignedDimension
 13
64.43527530695189
 23
84.48761336739966
 33
0.0
 14
216.0253224462202
 24
134.090027848847
 34
0.0
100
AcDbRotatedDimension
1001
ACAD
1000
DSTYLE
1002
{
1070
    41
1040
3.0
1070
    42
1040
3.0
1070
    43
1040
7.0
1070
    44
1040
1.5
1070
    73
1070
     0
1070
    74
1070
     0
1070
    77
1070
     3
1070
   140
1040
3.0
1070
   141
1040
3.0
1070
   147
1040
1.0
1070
   172
1070
     1
1070
   173
1070
     1
1070
   176
1070
   256
1070
   177
1070
   256
1070
   178
1070
   256
1070
   271
1070
     0
1070
   272
1070
     0
1070
   341
1005
B2
1070
     6
1000
OPEN
1070
     7
1000
OPEN
1002
}
  0
LINE
  5
476C
330
1A
100
AcDbEntity
  8
SEIHIN
100
AcDbLine
 10
233.1883343627775
 20
103.1526272480607
 30
0.0
 11
232.1593428515201
 21
99.03666120475545
 31
0.0
  0
LINE
  5
476D
330
1A
100
AcDbEntity
  8
SEIHIN
100
AcDbLine
 10
232.1593428515201
 20
99.03666120475543
 30
0.0
 11
234.7318216288149
 21
100.580148470776
 31
0.0
  0
LINE
  5
476E
330
1A
100
AcDbEntity
  8
SEIHIN
100
AcDbLine
 10
232.1593428515201
 20
99.03666120475545
 30
0.0
 11
236.2753088948524
 21
98.00766969349139
 31
0.0
  0
LINE
  5
4778
330
1A
100
AcDbEntity
  8
SEIHIN
100
AcDbLine
 10
221.8694277419041
 20
116.1865197244859
 30
0.0
 11
225.9853937852363
 21
115.1575282132218
 31
0.0
  0
LINE
  5
4779
330
1A
100
AcDbEntity
  8
CENTER_L
100
AcDbLine
 10
212.4370055680275
 20
113.4425423462223
 30
0.0
 11
230.1871091293124
 21
124.092604480535
 31
0.0
  0
LINE
  5
477A
330
1A
100
AcDbEntity
  8
CENTER_L
100
AcDbLine
 10
216.8102194869461
 20
106.1538524817516
 30
0.0
 11
234.5603230485782
 21
116.8039146162727
 31
0.0
  0
LINE
  5
477B
330
1A
100
AcDbEntity
  8
SEIHIN
100
AcDbLine
 10
224.4419065191989
 20
117.7300069905065
 30
0.0
 11
221.8694277419041
 21
116.1865197244858
 31
0.0
  0
LINE
  5
477C
330
1A
100
AcDbEntity
  8
SEIHIN
100
AcDbLine
 10
222.8984192531614
 20
120.3024857677912
 30
0.0
 11
221.8694277419041
 21
116.1865197244859
 31
0.0
  0
ELLIPSE
  5
477F
330
1A
100
AcDbEntity
  8
SEIHIN
100
AcDbEllipse
 10
195.868532602622
 20
239.7008557322895
 30
0.0
 11
0.0
 21
2.0
 31
0.0
210
0.0
220
0.0
230
-1.0
 40
0.5144957552958261
 41
4.712388980384689
 42
6.283185307179586
  0
ELLIPSE
  5
4780
330
1A
100
AcDbEntity
  8
SEIHIN
100
AcDbEllipse
 10
196.8842478906885
 20
239.7008557322895
 30
0.0
 11
0.0
 21
2.0
 31
0.0
210
0.0
220
0.0
230
-1.0
 40
0.5144957552958261
 41
4.712388980384689
 42
6.283185307179586
  0
ELLIPSE
  5
4781
330
1A
100
AcDbEntity
  8
SEIHIN
100
AcDbEllipse
 10
198.6982592539579
 20
236.9909967483061
 30
0.0
 11
0.0
 21
-2.099999999999994
 31
0.0
210
0.0
220
0.0
230
-1.0
 40
0.5144957554888068
 41
0.0
 42
6.283185307179586
  0
ELLIPSE
  5
4782
330
1A
100
AcDbEntity
  8
SEIHIN
100
AcDbEllipse
 10
197.6825439658914
 20
236.9909967483061
 30
0.0
 11
0.0
 21
-2.099999999999994
 31
0.0
210
0.0
220
0.0
230
-1.0
 40
0.5144957554888068
 41
3.630936211000929
 42
5.793841749782787
  0
ELLIPSE
  5
4783
330
1A
100
AcDbEntity
  8
SEIHIN
100
AcDbEllipse
 10
203.0714731732236
 20
235.4909967483062
 30
0.0
 11
0.0
 21
3.25
 31
0.0
210
0.0
220
0.0
230
-1.0
 40
0.5144957554888029
 41
0.0
 42
6.283185307179586
  0
ELLIPSE
  5
4784
330
1A
100
AcDbEntity
  8
SEIHIN
100
AcDbEllipse
 10
202.0557578851572
 20
235.4909967483062
 30
0.0
 11
0.0
 21
3.25
 31
0.0
210
0.0
220
0.0
230
-1.0
 40
0.5144957554888029
 41
0.3085972064891327
 42
2.832995447100647
  0
ELLIPSE
  5
4785
330
1A
100
AcDbEntity
  8
SEIHIN
100
AcDbEllipse
 10
213.3613882813602
 20
239.7008557322895
 30
0.0
 11
0.0
 21
2.0
 31
0.0
210
0.0
220
0.0
230
-1.0
 40
0.5144957552958261
 41
0.0
 42
1.570796326794896
  0
ELLIPSE
  5
4786
330
1A
100
AcDbEntity
  8
SEIHIN
100
AcDbEllipse
 10
210.5449378521291
 20
236.9909967483061
 30
0.0
 11
0.0
 21
-2.099999999999994
 31
0.0
210
0.0
220
0.0
230
-1.0
 40
0.5144957554888068
 41
3.630936211000929
 42
5.793841749782787
  0
ELLIPSE
  5
4787
330
1A
100
AcDbEntity
  8
SEIHIN
100
AcDbEllipse
 10
211.5606531401956
 20
236.9909967483061
 30
0.0
 11
0.0
 21
-2.099999999999994
 31
0.0
210
0.0
220
0.0
230
-1.0
 40
0.5144957554888068
 41
0.0
 42
6.283185307179586
  0
SPLINE
  5
4788
330
1A
100
AcDbEntity
  8
SEIHIN
100
AcDbSpline
210
0.0
220
0.0
230
1.0
 70
     8
 71
     3
 72
    43
 73
    39
 74
     0
 42
0.0000000001
 43
0.0000000001
 40
2.573801282421732
 40
2.573801282421732
 40
2.573801282421732
 40
2.573801282421732
 40
2.743484381259663
 40
2.743484381259663
 40
2.952958003953673
 40
2.952958003953673
 40
3.162431626647684
 40
3.162431626647684
 40
3.371905249341694
 40
3.371905249341694
 40
3.581378872035704
 40
3.581378872035704
 40
3.790852494729714
 40
3.790852494729714
 40
4.212890898547438
 40
4.212890898547438
 40
4.63492930236516
 40
4.63492930236516
 40
4.712388980384689
 40
4.712388980384689
 40
4.712388980384689
 40
5.035006403854932
 40
5.035006403854932
 40
5.40458618261824
 40
5.40458618261824
 40
5.774165961381548
 40
5.774165961381548
 40
6.00394318856648
 40
6.00394318856648
 40
6.233720415751411
 40
6.233720415751411
 40
6.426033209648384
 40
6.426033209648384
 40
6.618346003545356
 40
6.618346003545356
 40
6.810658797442329
 40
6.810658797442329
 40
6.85074050005263
 40
6.85074050005263
 40
6.85074050005263
 40
6.85074050005263
 10
206.5663592640015
 20
218.2676595528918
 30
0.0
 10
206.6653100982573
 20
218.4025631608533
 30
0.0
 10
206.7770214785897
 20
218.5288415817236
 30
0.0
 10
207.0635342763725
 20
218.7862886798487
 30
0.0
 10
207.2490694773068
 20
218.9113923733456
 30
0.0
 10
207.6779234866344
 20
219.0863109943975
 30
0.0
 10
207.9220396048867
 20
219.1327424582585
 30
0.0
 10
208.4062776489829
 20
219.1111794762663
 30
0.0
 10
208.6415093609341
 20
219.0441172862623
 30
0.0
 10
209.0482200647427
 20
218.8403711451307
 30
0.0
 10
209.2215159370558
 20
218.706201074622
 30
0.0
 10
209.5182471033097
 20
218.4079023356745
 30
0.0
 10
209.6428259366745
 20
218.2430509048398
 30
0.0
 10
209.9694522863301
 20
217.7133569967685
 30
0.0
 10
210.1241862571732
 20
217.3134495834869
 30
0.0
 10
210.3440278664026
 20
216.4526427558316
 30
0.0
 10
210.4068994116701
 20
215.9916335891709
 30
0.0
 10
210.426963986769
 20
215.439307954203
 30
0.0
 10
210.4285197583785
 20
215.3534837888482
 30
0.0
 10
210.4285197583785
 20
215.2676595428919
 30
0.0
 10
210.4285197583785
 20
214.9102039245672
 30
0.0
 10
210.4015560093252
 20
214.5528489831423
 30
0.0
 10
210.2856550266164
 20
213.8121092733421
 30
0.0
 10
210.1888357084456
 20
213.4328674215655
 30
0.0
 10
209.9174598837826
 20
212.7334956155115
 30
0.0
 10
209.7448134167946
 20
212.4118775940005
 30
0.0
 10
209.3630739858421
 20
211.9567135634294
 30
0.0
 10
209.1908540716242
 20
211.7972216440167
 30
0.0
 10
208.7744175814223
 20
211.5421050949787
 30
0.0
 10
208.5266802695351
 20
211.4486677090928
 30
0.0
 10
208.0424874242842
 20
211.3974546680343
 30
0.0
 10
207.8146996780254
 20
211.4213674539224
 30
0.0
 10
207.4008728461874
 20
211.5485335649466
 30
0.0
 10
207.215368864739
 20
211.6491892968178
 30
0.0
 10
206.8949391412231
 20
211.887640003147
 30
0.0
 10
206.7585593608676
 20
212.025322701747
 30
0.0
 10
206.6146173192865
 20
212.2044720835968
 30
0.0
 10
206.5905040679283
 20
212.2358391558778
 30
0.0
 10
206.567072949411
 20
212.2676595528919
 30
0.0
  0
ELLIPSE
  5
4789
330
1A
100
AcDbEntity
  8
SEIHIN
100
AcDbEllipse
 10
202.0557578851571
 20
195.0443223374774
 30
0.0
 11
0.0
 21
-3.25
 31
0.0
210
0.0
220
0.0
230
1.0
 40
0.5144957554888029
 41
0.3085972064891327
 42
2.832995447100647
  0
ELLIPSE
  5
478A
330
1A
100
AcDbEntity
  8
SEIHIN
100
AcDbEllipse
 10
203.0714731732236
 20
195.0443223374774
 30
0.0
 11
0.0
 21
-3.25
 31
0.0
210
0.0
220
0.0
230
1.0
 40
0.5144957554888029
 41
0.0
 42
6.283185307179586
  0
ELLIPSE
  5
478B
330
1A
100
AcDbEntity
  8
SEIHIN
100
AcDbEllipse
 10
197.6825439658914
 20
193.5443223374774
 30
0.0
 11
0.0
 21
2.099999999999994
 31
0.0
210
0.0
220
0.0
230
1.0
 40
0.5144957554888068
 41
3.630936211000929
 42
5.793841749782787
  0
ELLIPSE
  5
478C
330
1A
100
AcDbEntity
  8
SEIHIN
100
AcDbEllipse
 10
198.6982592539579
 20
193.5443223374774
 30
0.0
 11
0.0
 21
2.099999999999994
 31
0.0
210
0.0
220
0.0
230
1.0
 40
0.5144957554888068
 41
0.0
 42
6.283185307179586
  0
ELLIPSE
  5
478D
330
1A
100
AcDbEntity
  8
SEIHIN
100
AcDbEllipse
 10
195.868532602622
 20
190.8344633534941
 30
0.0
 11
0.0
 21
-2.0
 31
0.0
210
0.0
220
0.0
230
1.0
 40
0.5144957552958261
 41
4.712388980384689
 42
6.283185307179586
  0
ELLIPSE
  5
478E
330
1A
100
AcDbEntity
  8
SEIHIN
100
AcDbEllipse
 10
196.8842478906885
 20
190.8344633534941
 30
0.0
 11
0.0
 21
-2.0
 31
0.0
210
0.0
220
0.0
230
1.0
 40
0.5144957552958261
 41
4.712388980384689
 42
6.283185307179586
  0
ELLIPSE
  5
478F
330
1A
100
AcDbEntity
  8
SEIHIN
100
AcDbEllipse
 10
208.0918195519519
 20
215.2676595428919
 30
0.0
 11
0.0
 21
-2.8559114857152
 31
0.0
210
0.0
220
0.0
230
-1.0
 40
0.4680467910551545
 41
-1.570796326794896
 42
4.712388980384689
  0
ELLIPSE
  5
4790
330
1A
100
AcDbEntity
  8
SEIHIN
100
AcDbEllipse
 10
211.5606531401955
 20
193.5443223374774
 30
0.0
 11
0.0
 21
2.099999999999994
 31
0.0
210
0.0
220
0.0
230
1.0
 40
0.5144957554888068
 41
0.0
 42
6.283185307179586
  0
ELLIPSE
  5
4791
330
1A
100
AcDbEntity
  8
SEIHIN
100
AcDbEllipse
 10
210.5449378521291
 20
193.5443223374774
 30
0.0
 11
0.0
 21
2.099999999999994
 31
0.0
210
0.0
220
0.0
230
1.0
 40
0.5144957554888068
 41
3.630936211000929
 42
5.793841749782787
  0
ELLIPSE
  5
4792
330
1A
100
AcDbEntity
  8
SEIHIN
100
AcDbEllipse
 10
213.3613882813602
 20
190.8344633534941
 30
0.0
 11
0.0
 21
-2.0
 31
0.0
210
0.0
220
0.0
230
1.0
 40
0.5144957552958261
 41
0.0
 42
1.570796326794896
  0
LINE
  5
479D
330
1A
100
AcDbEntity
  8
SEIHIN
100
AcDbLine
 10
214.3903797919519
 20
225.0239077022895
 30
0.0
 11
214.3903797919519
 21
239.7008557322895
 31
0.0
  0
LINE
  5
479E
330
1A
100
AcDbEntity
  8
SEIHIN
100
AcDbLine
 10
194.8395410920304
 20
239.7008557322895
 30
0.0
 11
194.8395410920304
 21
224.5358032022895
 31
0.0
  0
LINE
  5
479F
330
1A
100
AcDbEntity
  8
SEIHIN
100
AcDbLine
 10
195.8552563800968
 20
225.0239073122895
 30
0.0
 11
195.8552563800968
 21
239.7008557322895
 31
0.0
  0
LINE
  5
47E1
330
1A
100
AcDbEntity
  8
SEIHIN
100
AcDbLine
 10
214.3903797919518
 20
205.5114113834941
 30
0.0
 11
214.3903797919518
 21
190.8344633534941
 31
0.0
  0
LINE
  5
47E2
330
1A
100
AcDbEntity
  8
SEIHIN
100
AcDbLine
 10
195.8552563800968
 20
205.5114117734941
 30
0.0
 11
195.8552563800968
 21
190.8344633534941
 31
0.0
  0
LINE
  5
47E3
330
1A
100
AcDbEntity
  8
SEIHIN
100
AcDbLine
 10
194.8395410920303
 20
190.8344633534941
 30
0.0
 11
194.8395410920303
 21
205.9995158834941
 31
0.0
  0
LINE
  5
47E4
330
1A
100
AcDbEntity
  8
SEIHIN
100
AcDbLine
 10
213.3613882813602
 20
188.8344633534941
 30
0.0
 11
195.868532602622
 21
188.8344633534941
 31
0.0
  0
ARC
  5
47E5
330
1A
100
AcDbEntity
  8
SEIHIN
100
AcDbCircle
 10
179.9140400498988
 20
215.2676595228919
 30
0.0
 40
3.25
100
AcDbArc
 50
112.6198649480422
 51
247.3801350519577
  0
LINE
  5
47E6
330
1A
100
AcDbEntity
  8
SEIHIN
100
AcDbLine
 10
174.4433857975583
 20
208.7676595228918
 30
0.0
 11
174.4433857975583
 21
207.7676595228919
 31
0.0
  0
LINE
  5
47E7
330
1A
100
AcDbEntity
  8
SEIHIN
100
AcDbLine
 10
178.6640400498987
 20
212.2676595228919
 30
0.0
 11
178.6640400498987
 21
208.7676595228919
 31
0.0
  0
LINE
  5
47E8
330
1A
100
AcDbEntity
  8
SEIHIN
100
AcDbLine
 10
174.4433857975583
 20
222.7676595628919
 30
0.0
 11
174.4433857975583
 21
221.7676595628919
 31
0.0
  0
LINE
  5
47E9
330
1A
100
AcDbEntity
  8
SEIHIN
100
AcDbLine
 10
178.6640400498987
 20
221.7676595628919
 30
0.0
 11
178.6640400498987
 21
218.2676595228918
 31
0.0
  0
LINE
  5
47EA
330
1A
100
AcDbEntity
  8
SEIHIN
100
AcDbLine
 10
211.3627127419519
 20
221.7676595528919
 30
0.0
 11
211.3627127419519
 21
208.7676595328919
 31
0.0
  0
LINE
  5
47EB
330
1A
100
AcDbEntity
  8
SEIHIN
100
AcDbLine
 10
212.3627127419519
 20
222.7676595528919
 30
0.0
 11
212.3627127419519
 21
207.7676595328919
 31
0.0
  0
ARC
  5
47EC
330
1A
100
AcDbEntity
  8
SEIHIN
100
AcDbCircle
 10
188.0925317764834
 20
215.2676595228918
 30
0.0
 40
3.25
100
AcDbArc
 50
292.6198649480456
 51
67.38013505196104
  0
LINE
  5
47ED
330
1A
100
AcDbEntity
  8
SEIHIN
100
AcDbLine
 10
197.3610792239519
 20
206.6154734534941
 30
0.0
 11
201.1978065499518
 21
206.6154734534941
 31
0.0
  0
LINE
  5
47EE
330
1A
100
AcDbEntity
  8
CENTER_L
100
AcDbLine
 10
198.9462409298456
 20
195.0443223374777
 30
0.0
 11
207.1967054166015
 21
195.0443223374777
 31
0.0
  0
LINE
  5
47EF
330
1A
100
AcDbEntity
  8
CENTER_L
100
AcDbLine
 10
194.6759585335964
 20
193.5443223374777
 30
0.0
 11
202.7205599743192
 21
193.5443223374777
 31
0.0
  0
LINE
  5
47F0
330
1A
100
AcDbEntity
  8
SEIHIN
100
AcDbLine
 10
189.3425317764833
 20
212.2676595528919
 30
0.0
 11
189.3425317764833
 21
208.7676595328919
 31
0.0
  0
LINE
  5
47F1
330
1A
100
AcDbEntity
  8
SEIHIN
100
AcDbLine
 10
191.778037625405
 20
208.7676595228918
 30
0.0
 11
191.778037625405
 21
207.7676595228919
 31
0.0
  0
ARC
  5
47F2
330
1A
100
AcDbEntity
  8
SEIHIN
100
AcDbCircle
 10
194.1552563760968
 20
205.5114117734941
 30
0.0
 40
1.700000002834678
100
AcDbArc
 50
0.0
 51
80.99999985768858
  0
ARC
  5
47F3
330
1A
100
AcDbEntity
  8
SEIHIN
100
AcDbCircle
 10
194.4850308480303
 20
208.1946998734941
 30
0.0
 40
1.700000003059988
100
AcDbArc
 50
194.5485451942484
 51
266.2081650705318
  0
LINE
  5
47F4
330
1A
100
AcDbEntity
  8
SEIHIN
100
AcDbLine
 10
194.4211949710968
 20
207.1904819534941
 30
0.0
 11
193.7772135660968
 21
207.8344633534941
 31
0.0
  0
ARC
  5
47F5
330
1A
100
AcDbEntity
  8
SEIHIN
100
AcDbCircle
 10
194.3395410880303
 20
205.9995158834941
 30
0.0
 40
0.5000000015686215
100
AcDbArc
 50
0.0
 51
86.20816424113447
  0
LINE
  5
47F6
330
1A
100
AcDbEntity
  8
CENTER_L
100
AcDbLine
 10
207.5383524198342
 20
193.5443223374777
 30
0.0
 11
215.5829538605569
 21
193.5443223374777
 31
0.0
  0
LINE
  5
47F7
330
1A
100
AcDbEntity
  8
SEIHIN
100
AcDbLine
 10
203.9409749279518
 20
206.6154734534941
 30
0.0
 11
207.7829917349518
 21
206.6154734534941
 31
0.0
  0
LINE
  5
47F8
330
1A
100
AcDbEntity
  8
SEIHIN
100
AcDbLine
 10
203.2416366009519
 20
207.8344633534941
 30
0.0
 11
203.2416366009519
 21
204.8344633534941
 31
0.0
  0
LINE
  5
47F9
330
1A
100
AcDbEntity
  8
SEIHIN
100
AcDbLine
 10
201.8522348909518
 20
204.8344633534941
 30
0.0
 11
201.8522348909518
 21
207.8344633534941
 31
0.0
  0
LINE
  5
47FA
330
1A
100
AcDbEntity
  8
SEIHIN
100
AcDbLine
 10
203.2416366009519
 20
204.8344633534941
 30
0.0
 11
201.8522348909518
 21
206.9056581634941
 31
0.0
  0
LINE
  5
47FB
330
1A
100
AcDbEntity
  8
SEIHIN
100
AcDbLine
 10
201.8522348909518
 20
204.8344633534941
 30
0.0
 11
203.2416366009519
 21
204.8344633534941
 31
0.0
  0
LINE
  5
47FC
330
1A
100
AcDbEntity
  8
SEIHIN
100
AcDbLine
 10
211.3823476129518
 20
206.6154734534941
 30
0.0
 11
212.8053167999519
 21
206.6154734534941
 31
0.0
  0
LINE
  5
47FD
330
1A
100
AcDbEntity
  8
SEIHIN
100
AcDbLine
 10
210.1540359559519
 20
207.8344633534941
 30
0.0
 11
210.1540359559519
 21
204.8344633534941
 31
0.0
  0
LINE
  5
47FE
330
1A
100
AcDbEntity
  8
SEIHIN
100
AcDbLine
 10
208.7646342469518
 20
204.8344633534941
 30
0.0
 11
208.7646342469518
 21
207.8344633534941
 31
0.0
  0
LINE
  5
47FF
330
1A
100
AcDbEntity
  8
SEIHIN
100
AcDbLine
 10
210.1540359559519
 20
204.8344633534941
 30
0.0
 11
208.7646342469518
 21
206.9056581634941
 31
0.0
  0
LINE
  5
4800
330
1A
100
AcDbEntity
  8
SEIHIN
100
AcDbLine
 10
208.7646342469518
 20
204.8344633534941
 30
0.0
 11
210.1540359559519
 21
204.8344633534941
 31
0.0
  0
ARC
  5
4801
330
1A
100
AcDbEntity
  8
SEIHIN
100
AcDbCircle
 10
212.6903797919518
 20
205.5114117734941
 30
0.0
 40
1.700000000521832
100
AcDbArc
 50
359.9999868556723
 51
80.99999999084429
  0
LINE
  5
4802
330
1A
100
AcDbEntity
  8
SEIHIN
100
AcDbLine
 10
212.9563183829518
 20
207.1904819534941
 30
0.0
 11
212.3123369749518
 21
207.8344633534941
 31
0.0
  0
LINE
  5
4803
330
1A
100
AcDbEntity
  8
CENTER_L
100
AcDbLine
 10
194.6759585335965
 20
236.9909967483061
 30
0.0
 11
202.7205599743193
 21
236.9909967483061
 31
0.0
  0
LINE
  5
4804
330
1A
100
AcDbEntity
  8
CENTER_L
100
AcDbLine
 10
198.9462409298457
 20
235.4909967483062
 30
0.0
 11
207.1967054166016
 21
235.4909967483062
 31
0.0
  0
LINE
  5
4805
330
1A
100
AcDbEntity
  8
SEIHIN
100
AcDbLine
 10
197.3610792239519
 20
223.9198456322895
 30
0.0
 11
201.1978065499519
 21
223.9198456322895
 31
0.0
  0
LINE
  5
4806
330
1A
100
AcDbEntity
  8
SEIHIN
100
AcDbLine
 10
189.3425317764833
 20
218.2676595528919
 30
0.0
 11
189.3425317764833
 21
221.7676595528919
 31
0.0
  0
ARC
  5
4807
330
1A
100
AcDbEntity
  8
SEIHIN
100
AcDbCircle
 10
194.1552563760968
 20
225.0239073122895
 30
0.0
 40
1.700000002834678
100
AcDbArc
 50
279.0000001423114
 51
0.0
  0
ARC
  5
4808
330
1A
100
AcDbEntity
  8
SEIHIN
100
AcDbCircle
 10
194.4850308480303
 20
222.3406192122895
 30
0.0
 40
1.700000003059988
100
AcDbArc
 50
93.79183492946813
 51
165.4514548057515
  0
LINE
  5
4809
330
1A
100
AcDbEntity
  8
SEIHIN
100
AcDbLine
 10
194.4211949710968
 20
223.3448371322895
 30
0.0
 11
193.7772135660969
 21
222.7008557322895
 31
0.0
  0
ARC
  5
480A
330
1A
100
AcDbEntity
  8
SEIHIN
100
AcDbCircle
 10
194.3395410880303
 20
224.5358032022895
 30
0.0
 40
0.5000000015686215
100
AcDbArc
 50
273.7918357588654
 51
0.0
  0
LINE
  5
480B
330
1A
100
AcDbEntity
  8
SEIHIN
100
AcDbLine
 10
191.778037625405
 20
222.7676595628919
 30
0.0
 11
191.778037625405
 21
221.7676595628919
 31
0.0
  0
LINE
  5
480C
330
1A
100
AcDbEntity
  8
SEIHIN
100
AcDbLine
 10
203.9409749279519
 20
223.9198456322895
 30
0.0
 11
207.7829917349518
 21
223.9198456322895
 31
0.0
  0
LINE
  5
480D
330
1A
100
AcDbEntity
  8
SEIHIN
100
AcDbLine
 10
203.2416366009519
 20
222.7008557322895
 30
0.0
 11
203.2416366009519
 21
225.7008557322895
 31
0.0
  0
LINE
  5
480E
330
1A
100
AcDbEntity
  8
SEIHIN
100
AcDbLine
 10
201.8522348909518
 20
225.7008557322895
 30
0.0
 11
201.8522348909518
 21
222.7008557322895
 31
0.0
  0
LINE
  5
480F
330
1A
100
AcDbEntity
  8
SEIHIN
100
AcDbLine
 10
201.8522348909518
 20
225.7008557322895
 30
0.0
 11
203.2416366009519
 21
225.7008557322895
 31
0.0
  0
LINE
  5
4810
330
1A
100
AcDbEntity
  8
SEIHIN
100
AcDbLine
 10
203.2416366009519
 20
225.7008557322895
 30
0.0
 11
201.8522348909518
 21
223.6296609222895
 31
0.0
  0
LINE
  5
4811
330
1A
100
AcDbEntity
  8
SEIHIN
100
AcDbLine
 10
211.3823476129519
 20
223.9198456322895
 30
0.0
 11
212.8053167999519
 21
223.9198456322895
 31
0.0
  0
LINE
  5
4812
330
1A
100
AcDbEntity
  8
SEIHIN
100
AcDbLine
 10
210.1540359559519
 20
222.7008557322895
 30
0.0
 11
210.1540359559519
 21
225.7008557322895
 31
0.0
  0
LINE
  5
4813
330
1A
100
AcDbEntity
  8
SEIHIN
100
AcDbLine
 10
208.7646342469519
 20
225.7008557322895
 30
0.0
 11
208.7646342469519
 21
222.7008557322895
 31
0.0
  0
LINE
  5
4814
330
1A
100
AcDbEntity
  8
SEIHIN
100
AcDbLine
 10
208.7646342469519
 20
225.7008557322895
 30
0.0
 11
210.1540359559519
 21
225.7008557322895
 31
0.0
  0
LINE
  5
4815
330
1A
100
AcDbEntity
  8
SEIHIN
100
AcDbLine
 10
210.1540359559519
 20
225.7008557322895
 30
0.0
 11
208.7646342469519
 21
223.6296609222895
 31
0.0
  0
LINE
  5
4816
330
1A
100
AcDbEntity
  8
SEIHIN
100
AcDbLine
 10
212.9563183829519
 20
223.3448371322895
 30
0.0
 11
212.3123369749519
 21
222.7008557322895
 31
0.0
  0
ARC
  5
4817
330
1A
100
AcDbEntity
  8
SEIHIN
100
AcDbCircle
 10
212.6903797919519
 20
225.0239073122895
 30
0.0
 40
1.700000000521832
100
AcDbArc
 50
279.0000000091557
 51
0.0000131443276943
  0
LINE
  5
4818
330
1A
100
AcDbEntity
  8
CENTER_L
100
AcDbLine
 10
207.5383524198342
 20
236.9909967483061
 30
0.0
 11
215.582953860557
 21
236.9909967483061
 31
0.0
  0
LINE
  5
4819
330
1A
100
AcDbEntity
  8
SEIHIN
100
AcDbLine
 10
213.3613882813602
 20
241.7008557322895
 30
0.0
 11
195.868532602622
 21
241.7008557322895
 31
0.0
  0
CIRCLE
  5
481A
330
1A
100
AcDbEntity
  8
SEIHIN
100
AcDbCircle
 10
326.7729029219518
 20
152.8893212893997
 30
0.0
 40
2.100000000249221
  0
LINE
  5
481B
330
1A
100
AcDbEntity
  8
CENTER_L
100
AcDbLine
 10
324.1489745701906
 20
157.2625352100112
 30
0.0
 11
329.3968312737131
 21
148.5161073687882
 31
0.0
  0
LINE
  5
481C
330
1A
100
AcDbEntity
  8
CENTER_L
100
AcDbLine
 10
322.3996890013403
 20
150.2653929376384
 30
0.0
 11
331.1461168425633
 21
155.5132496411609
 31
0.0
  0
LINE
  5
481D
330
1A
100
AcDbEntity
  8
SEIHIN
100
AcDbLine
 10
307.3935628019519
 20
174.4981430173996
 30
0.0
 11
323.8574269719519
 21
147.0583693943997
 31
0.0
  0
LINE
  5
481E
330
1A
100
AcDbEntity
  8
SEIHIN
100
AcDbLine
 10
326.6014043319519
 20
146.3723750533997
 30
0.0
 11
347.6099810019519
 21
158.9775210613996
 31
0.0
  0
DIMENSION
  5
481F
330
1A
100
AcDbEntity
  8
SUNPOU
100
AcDbDimension
  2
*D5
 10
305.5749300899509
 20
133.7564905103835
 30
0.0
 11
298.4577388091054
 21
150.4776025610596
 31
0.0
 70
    33
  3
STANDARD
100
AcDbAlignedDimension
 13
306.3645712919188
 23
176.2131288678505
 33
0.0
 14
324.8864184824345
 24
145.3433835431994
 34
0.0
1001
ACAD
1000
DSTYLE
1002
{
1070
    41
1040
3.0
1070
    42
1040
3.0
1070
    43
1040
7.0
1070
    44
1040
1.5
1070
    73
1070
     0
1070
    74
1070
     0
1070
    77
1070
     3
1070
   140
1040
3.0
1070
   141
1040
3.0
1070
   147
1040
1.0
1070
   172
1070
     1
1070
   173
1070
     1
1070
   176
1070
   256
1070
   177
1070
   256
1070
   178
1070
   256
1070
   271
1070
     0
1070
   272
1070
     0
1070
   341
1005
B2
1070
     6
1000
OPEN
1070
     7
1000
OPEN
1002
}
  0
DIMENSION
  5
4820
330
1A
100
AcDbEntity
  8
SUNPOU
100
AcDbDimension
  2
*D6
 10
258.6862513730293
 20
105.6232832799173
 30
0.0
 11
247.4530940498167
 21
129.2043387387374
 31
0.0
 70
    33
  3
STANDARD
100
AcDbAlignedDimension
 13
213.1229999035688
 23
138.9272321085609
 33
0.0
 14
239.8767791789519
 24
94.33759996739969
 34
0.0
1001
ACAD
1000
DSTYLE
1002
{
1070
    41
1040
3.0
1070
    42
1040
3.0
1070
    43
1040
7.0
1070
    44
1040
1.5
1070
    73
1070
     0
1070
    74
1070
     0
1070
    77
1070
     3
1070
   140
1040
3.0
1070
   141
1040
3.0
1070
   147
1040
1.0
1070
   172
1070
     1
1070
   173
1070
     1
1070
   176
1070
   256
1070
   177
1070
   256
1070
   178
1070
   256
1070
   271
1070
     0
1070
   272
1070
     0
1070
   341
1005
B2
1070
     6
1000
OPEN
1070
     7
1000
OPEN
1002
}
  0
LINE
  5
4825
330
1A
100
AcDbEntity
  8
CENTER_L
100
AcDbLine
 10
240.299399443244
 20
92.00521920535233
 30
0.0
 11
258.0495030055501
 21
102.6552813402777
 31
0.0
  0
LINE
  5
4827
330
1A
100
AcDbEntity
  8
CENTER_L
100
AcDbLine
 10
227.4370055580276
 20
113.4425423462223
 30
0.0
 11
245.1871091193124
 21
124.092604480535
 31
0.0
  0
LINE
  5
4828
330
1A
100
AcDbEntity
  8
CENTER_L
100
AcDbLine
 10
231.8102194769461
 20
106.1538524817516
 30
0.0
 11
249.5603230385782
 21
116.8039146162727
 31
0.0
  0
DIMENSION
  5
482B
330
1A
100
AcDbEntity
  8
SUNPOU
100
AcDbDimension
  2
*D7
 10
313.4074425872387
 20
138.4559980076717
 30
0.0
 11
314.1363115747272
 21
142.1003429414394
 31
0.0
 70
    33
  3
STANDARD
100
AcDbAlignedDimension
 13
322.056691828587
 23
150.0595946340339
 33
0.0
 14
324.8864184824345
 24
145.3433835431994
 34
0.0
1001
ACAD
1000
DSTYLE
1002
{
1070
    41
1040
3.0
1070
    42
1040
3.0
1070
    43
1040
7.0
1070
    44
1040
1.5
1070
    73
1070
     0
1070
    74
1070
     0
1070
    77
1070
     3
1070
   140
1040
3.0
1070
   141
1040
3.0
1070
   147
1040
1.0
1070
   172
1070
     1
1070
   173
1070
     1
1070
   176
1070
   256
1070
   177
1070
   256
1070
   178
1070
   256
1070
   271
1070
     0
1070
   272
1070
     0
1070
   341
1005
B2
1070
     6
1000
OPEN
1070
     7
1000
OPEN
1002
}
  0
ARC
  5
482C
330
1A
100
AcDbEntity
  8
SEIHIN
100
AcDbCircle
 10
325.5724128219518
 20
148.0873609053996
 30
0.0
 40
1.999999999452818
100
AcDbArc
 50
210.9637565566386
 51
300.9637565025945
  0
LWPOLYLINE
  5
482D
330
1A
100
AcDbEntity
  8
SUNPOU
100
AcDbPolyline
 90
        3
 70
     0
 43
0.0
 10
355.2359249040649
 20
193.7098447355999
 10
366.3464601676524
 20
227.3179764222075
 10
382.1959100081568
 20
227.3179764222075
1001
ACAD
1000
DSTYLE
1002
{
1070
    41
1040
3.0
1070
    42
1040
3.0
1070
    43
1040
7.0
1070
    44
1040
1.5
1070
    73
1070
     0
1070
    74
1070
     0
1070
    77
1070
     0
1070
   140
1040
3.0
1070
   141
1040
3.0
1070
   147
1040
1.0
1070
   172
1070
     1
1070
   173
1070
     1
1070
   176
1070
   256
1070
   177
1070
   256
1070
   178
1070
   256
1070
   271
1070
     0
1070
   272
1070
     0
1070
   341
1005
B2
1070
   343
1005
B2
1070
   344
1005
B2
1002
}
  0
TEXT
  5
482E
330
1A
100
AcDbEntity
  8
SUNPOU
100
AcDbText
 10
366.6860653814784
 20
228.6223233348281
 30
0.0
 40
3.0
  1
2-φ6.5
100
AcDbText
  0
DIMENSION
  5
482F
330
1A
100
AcDbEntity
  8
SUNPOU
100
AcDbDimension
  2
*D8
 10
327.1771211368532
 20
244.5390293318319
 30
0.0
 11
303.1673192020848
 21
233.0486241154523
 31
0.0
 70
    33
  3
STANDARD
100
AcDbAlignedDimension
 13
306.3645712919188
 23
176.2131288678505
 33
0.0
 14
351.81169638391
 24
203.4814039289276
 34
0.0
1001
ACAD
1000
DSTYLE
1002
{
1070
    41
1040
3.0
1070
    42
1040
3.0
1070
    43
1040
7.0
1070
    44
1040
1.5
1070
    73
1070
     0
1070
    74
1070
     0
1070
    77
1070
     3
1070
   140
1040
3.0
1070
   141
1040
3.0
1070
   147
1040
1.0
1070
   172
1070
     1
1070
   173
1070
     1
1070
   176
1070
   256
1070
   177
1070
   256
1070
   178
1070
   256
1070
   271
1070
     0
1070
   272
1070
     0
1070
   341
1005
B2
1070
     6
1000
OPEN
1070
     7
1000
OPEN
1002
}
  0
LWPOLYLINE
  5
4830
330
1A
100
AcDbEntity
  8
SUNPOU
100
AcDbPolyline
 90
        3
 70
     0
 43
0.0
 10
309.8002781302333
 20
176.9951222760346
 10
288.3851020554718
 20
195.4444609713598
 10
270.8033154185632
 20
195.4444609713598
1001
ACAD
1000
DSTYLE
1002
{
1070
    41
1040
3.0
1070
    42
1040
3.0
1070
    43
1040
7.0
1070
    44
1040
1.5
1070
    73
1070
     0
1070
    74
1070
     0
1070
    77
1070
     0
1070
   140
1040
3.0
1070
   141
1040
3.0
1070
   147
1040
1.0
1070
   172
1070
     1
1070
   173
1070
     1
1070
   176
1070
   256
1070
   177
1070
   256
1070
   178
1070
   256
1070
   271
1070
     0
1070
   272
1070
     0
1070
   341
1005
B2
1070
   343
1005
B2
1070
   344
1005
B2
1002
}
  0
DIMENSION
  5
4831
330
1A
100
AcDbEntity
  8
SUNPOU
100
AcDbDimension
  2
*D9
 10
297.7756702380185
 20
164.6457411532741
 30
0.0
 11
298.5045392253583
 21
168.2900860872898
 31
0.0
 70
    33
  3
STANDARD
100
AcDbAlignedDimension
 13
306.3645712919188
 23
176.2131288678505
 33
0.0
 14
309.194297946064
 24
171.49691777652
 34
0.0
1001
ACAD
1000
DSTYLE
1002
{
1070
    41
1040
3.0
1070
    42
1040
3.0
1070
    43
1040
7.0
1070
    44
1040
1.5
1070
    73
1070
     0
1070
    74
1070
     0
1070
    77
1070
     3
1070
   140
1040
3.0
1070
   141
1040
3.0
1070
   147
1040
1.0
1070
   172
1070
     1
1070
   173
1070
     1
1070
   176
1070
   256
1070
   177
1070
   256
1070
   178
1070
   256
1070
   271
1070
     0
1070
   272
1070
     0
1070
   341
1005
B2
1070
     6
1000
OPEN
1070
     7
1000
OPEN
1002
}
  0
DIMENSION
  5
4832
330
1A
100
AcDbEntity
  8
SUNPOU
100
AcDbDimension
  2
*D10
 10
329.9408054360129
 20
226.327334228953
 30
0.0
 11
311.9334540163127
 21
218.4383993125556
 31
0.0
 70
    33
  3
STANDARD
100
AcDbAlignedDimension
 13
316.3543638689864
 23
173.1690289869125
 33
0.0
 14
349.7965879289864
 24
193.2343634469125
 34
0.0
1001
ACAD
1000
DSTYLE
1002
{
1070
    41
1040
3.0
1070
    42
1040
3.0
1070
    43
1040
7.0
1070
    44
1040
1.5
1070
    73
1070
     0
1070
    74
1070
     0
1070
    77
1070
     3
1070
   140
1040
3.0
1070
   141
1040
3.0
1070
   147
1040
1.0
1070
   172
1070
     1
1070
   173
1070
     1
1070
   176
1070
   256
1070
   177
1070
   256
1070
   178
1070
   256
1070
   271
1070
     0
1070
   272
1070
     0
1070
   341
1005
B2
1070
     6
1000
OPEN
1070
     7
1000
OPEN
1002
}
  0
DIMENSION
  5
4833
330
1A
100
AcDbEntity
  8
SUNPOU
100
AcDbDimension
  2
*D11
 10
326.8248795378919
 20
234.4360200858742
 30
0.0
 11
307.531288713973
 21
225.7753415349454
 31
0.0
 70
    33
  3
STANDARD
100
AcDbAlignedDimension
 13
311.2865806801906
 23
178.6998583480111
 33
0.0
 14
347.3012835501906
 24
200.3086800780111
 34
0.0
1001
ACAD
1000
DSTYLE
1002
{
1070
    41
1040
3.0
1070
    42
1040
3.0
1070
    43
1040
7.0
1070
    44
1040
1.5
1070
    73
1070
     0
1070
    74
1070
     0
1070
    77
1070
     3
1070
   140
1040
3.0
1070
   141
1040
3.0
1070
   147
1040
1.0
1070
   172
1070
     1
1070
   173
1070
     1
1070
   176
1070
   256
1070
   177
1070
   256
1070
   178
1070
   256
1070
   271
1070
     0
1070
   272
1070
     0
1070
   341
1005
B2
1070
     6
1000
OPEN
1070
     7
1000
OPEN
1002
}
  0
TEXT
  5
4834
330
1A
100
AcDbEntity
  8
SUNPOU
100
AcDbText
 10
271.785102055472
 20
196.1535117779737
 30
0.0
 40
3.0
  1
4-φ4.2
100
AcDbText
  0
LINE
  5
4835
330
1A
100
AcDbEntity
  8
SEIHIN
100
AcDbLine
 10
335.5193308019519
 20
193.7059845573996
 30
0.0
 11
350.0967105019518
 21
202.4524123973997
 31
0.0
  0
LINE
  5
4836
330
1A
100
AcDbEntity
  8
CENTER_L
100
AcDbLine
 10
347.3012835501906
 20
200.3086800780111
 30
0.0
 11
352.5491402537131
 21
191.5622522367882
 31
0.0
  0
ARC
  5
4837
330
1A
100
AcDbEntity
  8
SEIHIN
100
AcDbCircle
 10
323.4359967519518
 20
199.2674948373996
 30
0.0
 40
3.000000003509581
100
AcDbArc
 50
30.96376350863518
 51
210.9637503088455
  0
LINE
  5
4838
330
1A
100
AcDbEntity
  8
SEIHIN
100
AcDbLine
 10
351.5133050019518
 20
167.0493607773996
 30
0.0
 11
327.2873986719519
 21
207.4258713673997
 31
0.0
  0
LINE
  5
4839
330
1A
100
AcDbEntity
  8
SEIHIN
100
AcDbLine
 10
350.6558121019519
 20
166.5348650273996
 30
0.0
 11
326.4299057519518
 21
206.9113756073996
 31
0.0
  0
LINE
  5
483A
330
1A
100
AcDbEntity
  8
SEIHIN
100
AcDbLine
 10
326.0084753419519
 20
200.8109824173997
 30
0.0
 11
338.8475638019518
 21
179.4125016673996
 31
0.0
  0
LINE
  5
483B
330
1A
100
AcDbEntity
  8
SEIHIN
100
AcDbLine
 10
338.6509111019519
 20
159.3319244503996
 30
0.0
 11
314.4250047919519
 21
199.7084350373996
 31
0.0
  0
LINE
  5
483C
330
1A
100
AcDbEntity
  8
SEIHIN
100
AcDbLine
 10
339.5084041019519
 20
159.8464202063996
 30
0.0
 11
315.2824977119519
 21
200.2229307873997
 31
0.0
  0
LINE
  5
483D
330
1A
100
AcDbEntity
  8
CENTER_L
100
AcDbLine
 10
317.2547314619447
 20
209.5696036771789
 30
0.0
 11
351.2114513058436
 21
152.9750705909513
 31
0.0
  0
LINE
  5
483E
330
1A
100
AcDbEntity
  8
SEIHIN
100
AcDbLine
 10
352.8406879019519
 20
201.7664180573997
 30
0.0
 11
369.3045520019519
 21
174.3266444273996
 31
0.0
  0
DIMENSION
  5
483F
330
1A
100
AcDbEntity
  8
SUNPOU
100
AcDbDimension
  2
*D12
 10
370.6640123531512
 20
198.4661281941736
 30
0.0
 11
369.2062743996115
 21
205.7548180575483
 31
0.0
 70
    33
  3
STANDARD
100
AcDbAlignedDimension
 13
351.81169638391
 23
203.4814039289276
 33
0.0
 14
359.0146369249289
 24
191.4765029703546
 34
0.0
1001
ACAD
1000
DSTYLE
1002
{
1070
    41
1040
3.0
1070
    42
1040
3.0
1070
    43
1040
7.0
1070
    44
1040
1.5
1070
    73
1070
     0
1070
    74
1070
     0
1070
    77
1070
     3
1070
   140
1040
3.0
1070
   141
1040
3.0
1070
   147
1040
1.0
1070
   172
1070
     1
1070
   173
1070
     1
1070
   176
1070
   256
1070
   177
1070
   256
1070
   178
1070
   256
1070
   271
1070
     0
1070
   272
1070
     0
1070
   341
1005
B2
1070
     6
1000
OPEN
1070
     7
1000
OPEN
1002
}
  0
LINE
  5
4840
330
1A
100
AcDbEntity
  8
SEIHIN
100
AcDbLine
 10
338.8635532019519
 20
188.1322805373997
 30
0.0
 11
341.8461178019518
 21
189.9218192873996
 31
0.0
  0
LINE
  5
4841
330
1A
100
AcDbEntity
  8
SEIHIN
100
AcDbLine
 10
338.8635532019519
 20
188.1322805373997
 30
0.0
 11
340.4070404019519
 21
185.5598017573996
 31
0.0
  0
LINE
  5
4842
330
1A
100
AcDbEntity
  8
SEIHIN
100
AcDbLine
 10
336.2663052019519
 20
194.1541692273997
 30
0.0
 11
339.6105276019519
 21
188.5804652073997
 31
0.0
  0
CIRCLE
  5
4843
330
1A
100
AcDbEntity
  8
SEIHIN
100
AcDbCircle
 10
338.3490574019518
 20
174.4123937273997
 30
0.0
 40
3.000000000763261
  0
ARC
  5
4844
330
1A
100
AcDbEntity
  8
SEIHIN
100
AcDbCircle
 10
341.2233899019519
 20
160.8754117163996
 30
0.0
 40
1.999999974757018
100
AcDbArc
 50
210.9637572690341
 51
300.963756271682
  0
LINE
  5
4845
330
1A
100
AcDbEntity
  8
SEIHIN
100
AcDbLine
 10
337.0875872019519
 20
160.2443222403997
 30
0.0
 11
340.4318096019518
 21
154.6706182232997
 31
0.0
  0
LINE
  5
4846
330
1A
100
AcDbEntity
  8
SEIHIN
100
AcDbLine
 10
337.8345617019518
 20
160.6925069133997
 30
0.0
 11
341.1787841019519
 21
155.1188028957997
 31
0.0
  0
ARC
  5
4847
330
1A
100
AcDbEntity
  8
SEIHIN
100
AcDbCircle
 10
338.3490574019518
 20
174.4123937273997
 30
0.0
 40
5.024896826847874
100
AcDbArc
 50
157.6210374072248
 51
84.3064754033603
  0
INSERT
  5
4848
330
1A
100
AcDbEntity
  8
SUNPOU
100
AcDbBlockReference
  2
_OPEN
 10
312.0731387953944
 20
175.0370353533564
 30
0.0
 41
2.999999999999992
 42
3.0
 43
3.0
 50
319.2548486777223
1001
ACAD
1000
DSTYLE
1002
{
1070
    41
1040
3.0
1070
    42
1040
3.0
1070
    43
1040
7.0
1070
    44
1040
1.5
1070
    73
1070
     0
1070
    74
1070
     0
1070
    77
1070
     0
1070
   140
1040
3.0
1070
   141
1040
3.0
1070
   147
1040
1.0
1070
   172
1070
     1
1070
   173
1070
     1
1070
   176
1070
   256
1070
   177
1070
   256
1070
   178
1070
   256
1070
   271
1070
     0
1070
   272
1070
     0
1070
   341
1005
B2
1070
   343
1005
B2
1070
   344
1005
B2
1002
}
  0
CIRCLE
  5
4849
330
1A
100
AcDbEntity
  8
SEIHIN
100
AcDbCircle
 10
313.9105090319518
 20
174.3266444273996
 30
0.0
 40
2.09999999907906
  0
LINE
  5
484A
330
1A
100
AcDbEntity
  8
CENTER_L
100
AcDbLine
 10
311.2865806801906
 20
178.6998583480111
 30
0.0
 11
316.5344373837132
 21
169.9534305067882
 31
0.0
  0
ARC
  5
484B
330
1A
100
AcDbEntity
  8
SEIHIN
100
AcDbCircle
 10
309.1085486519518
 20
175.5271345273997
 30
0.0
 40
1.999999998338071
100
AcDbArc
 50
120.963756532072
 51
210.9637565320762
  0
LINE
  5
484C
330
1A
100
AcDbEntity
  8
CENTER_L
100
AcDbLine
 10
309.5372951113404
 20
171.7027160756384
 30
0.0
 11
318.2837229525633
 21
176.9505727791608
 31
0.0
  0
LINE
  5
484D
330
1A
100
AcDbEntity
  8
SEIHIN
100
AcDbLine
 10
327.5446465519519
 20
177.8423654273997
 30
0.0
 11
336.2910744019519
 21
163.2649856903997
 31
0.0
  0
LINE
  5
484E
330
1A
100
AcDbEntity
  8
SEIHIN
100
AcDbLine
 10
326.7976721019518
 20
177.3941807573996
 30
0.0
 11
335.5440999019518
 21
162.8168010173997
 31
0.0
  0
LINE
  5
484F
330
1A
100
AcDbEntity
  8
CENTER_L
100
AcDbLine
 10
314.210631552439
 20
164.5940997244341
 30
0.0
 11
324.9292931314647
 21
171.0252966703652
 31
0.0
  0
LINE
  5
4850
330
1A
100
AcDbEntity
  8
CENTER_L
100
AcDbLine
 10
316.3543638689864
 20
173.1690289869125
 30
0.0
 11
322.7855608149174
 21
162.4503674078868
 31
0.0
  0
CIRCLE
  5
4851
330
1A
100
AcDbEntity
  8
SEIHIN
100
AcDbCircle
 10
319.5699623419519
 20
167.8096981973997
 30
0.0
 40
3.250000004060681
  0
LINE
  5
4852
330
1A
100
AcDbEntity
  8
SEIHIN
100
AcDbLine
 10
334.8519971019519
 20
158.9029681623997
 30
0.0
 11
338.6920546019518
 21
161.2070026683996
 31
0.0
  0
LINE
  5
4853
330
1A
100
AcDbEntity
  8
SEIHIN
100
AcDbLine
 10
333.3085098019519
 20
161.4754469393997
 30
0.0
 11
336.2910744019519
 21
163.2649856903997
 31
0.0
  0
LINE
  5
4854
330
1A
100
AcDbEntity
  8
SEIHIN
100
AcDbLine
 10
333.3085098019519
 20
161.4754469393997
 30
0.0
 11
334.8519971019519
 21
158.9029681623997
 31
0.0
  0
LINE
  5
4855
330
1A
100
AcDbEntity
  8
SEIHIN
100
AcDbLine
 10
336.2910744019519
 20
163.2649856903997
 30
0.0
 11
337.8345617019518
 21
160.6925069133997
 31
0.0
  0
LINE
  5
4856
330
1A
100
AcDbEntity
  8
SEIHIN
100
AcDbLine
 10
323.0185947019518
 20
178.6253054573997
 30
0.0
 11
324.5620819719519
 21
176.0528266773997
 31
0.0
  0
LINE
  5
4857
330
1A
100
AcDbEntity
  8
SEIHIN
100
AcDbLine
 10
326.0011592919519
 20
180.4148442073996
 30
0.0
 11
323.0185947019518
 21
178.6253054573997
 31
0.0
  0
LINE
  5
4858
330
1A
100
AcDbEntity
  8
SEIHIN
100
AcDbLine
 10
320.8635178019518
 20
197.7240078473996
 30
0.0
 11
333.7026062019518
 21
176.3255271373997
 31
0.0
  0
LINE
  5
4859
330
1A
100
AcDbEntity
  8
SEIHIN
100
AcDbLine
 10
322.6569368819518
 20
185.9885482173996
 30
0.0
 11
326.0011592919519
 21
180.4148442073996
 31
0.0
  0
LINE
  5
485A
330
1A
100
AcDbEntity
  8
SEIHIN
100
AcDbLine
 10
321.9099624219519
 20
185.5403635473996
 30
0.0
 11
325.2541848319518
 21
179.9666595273997
 31
0.0
  0
LINE
  5
485B
330
1A
100
AcDbEntity
  8
SEIHIN
100
AcDbLine
 10
322.6569368819518
 20
185.9885482173996
 30
0.0
 11
308.0795571419518
 21
177.2421203773997
 31
0.0
  0
LINE
  5
485C
330
1A
100
AcDbEntity
  8
SEIHIN
100
AcDbLine
 10
317.8622927319519
 20
195.9232724273997
 30
0.0
 11
320.8635179719518
 21
197.7240075673996
 31
0.0
  0
LINE
  5
485D
330
1A
100
AcDbEntity
  8
SEIHIN
100
AcDbLine
 10
318.3061349266007
 20
195.1835354382636
 30
0.0
 11
317.4486419997318
 21
194.6690396823214
 31
0.0
  0
LINE
  5
485E
330
1A
100
AcDbEntity
  8
SEIHIN
100
AcDbLine
 10
326.0011592919519
 20
180.4148442073996
 30
0.0
 11
327.5446465519519
 21
177.8423654273997
 31
0.0
  0
LINE
  5
485F
330
1A
100
AcDbEntity
  8
SEIHIN
100
AcDbLine
 10
327.5446465519519
 20
177.8423654273997
 30
0.0
 11
324.5620819719519
 21
176.0528266773997
 31
0.0
  0
LINE
  5
4860
330
1A
100
AcDbEntity
  8
SEIHIN
100
AcDbLine
 10
335.5193308019519
 20
193.7059845573996
 30
0.0
 11
338.8635532019519
 21
188.1322805373997
 31
0.0
  0
CIRCLE
  5
4861
330
1A
100
AcDbEntity
  8
SEIHIN
100
AcDbCircle
 10
362.7876058019518
 20
174.4981430173996
 30
0.0
 40
2.099999993088218
  0
LINE
  5
4862
330
1A
100
AcDbEntity
  8
CENTER_L
100
AcDbLine
 10
360.1636774501906
 20
178.8713569380111
 30
0.0
 11
365.4115341537131
 21
170.1249290967882
 31
0.0
  0
LINE
  5
4863
330
1A
100
AcDbEntity
  8
SEIHIN
100
AcDbLine
 10
340.4070404019519
 20
185.5598017573996
 30
0.0
 11
349.1534683019518
 21
170.9824220173997
 31
0.0
  0
LINE
  5
4864
330
1A
100
AcDbEntity
  8
SEIHIN
100
AcDbLine
 10
341.1540149019518
 20
186.0079864273997
 30
0.0
 11
349.9004427019518
 21
171.4306066973996
 31
0.0
  0
LINE
  5
4865
330
1A
100
AcDbEntity
  8
CENTER_L
100
AcDbLine
 10
358.4143918813404
 20
171.8742146656384
 30
0.0
 11
367.1608197225633
 21
177.1220713691608
 31
0.0
  0
LINE
  5
4866
330
1A
100
AcDbEntity
  8
SEIHIN
100
AcDbLine
 10
368.6185577019518
 20
171.5826670673997
 30
0.0
 11
347.6099810019519
 21
158.9775210613996
 31
0.0
  0
LINE
  5
4867
330
1A
100
AcDbEntity
  8
SEIHIN
100
AcDbLine
 10
351.4439300019519
 20
168.8581279173997
 30
0.0
 11
354.7881524019518
 21
163.2844238993997
 31
0.0
  0
LINE
  5
4868
330
1A
100
AcDbEntity
  8
SEIHIN
100
AcDbLine
 10
350.6969555019519
 20
168.4099432473997
 30
0.0
 11
354.0411780019518
 21
162.8362392273996
 31
0.0
  0
ARC
  5
4869
330
1A
100
AcDbEntity
  8
SEIHIN
100
AcDbCircle
 10
348.9408262019518
 20
165.5058735173996
 30
0.0
 40
2.000000044213948
100
AcDbArc
 50
300.9637586987388
 51
30.96375579511135
  0
LINE
  5
486A
330
1A
100
AcDbEntity
  8
SEIHIN
100
AcDbLine
 10
349.9698178019518
 20
163.7908876643996
 30
0.0
 11
342.2523814019518
 21
159.1604258653997
 31
0.0
  0
LINE
  5
486B
330
1A
100
AcDbEntity
  8
SEIHIN
100
AcDbLine
 10
353.6795201019518
 20
170.1994819973996
 30
0.0
 11
349.8394626019518
 21
167.8954474873996
 31
0.0
  0
LINE
  5
486C
330
1A
100
AcDbEntity
  8
SEIHIN
100
AcDbLine
 10
349.1534683019518
 20
170.9824220173997
 30
0.0
 11
350.6969555019519
 21
168.4099432473997
 31
0.0
  0
LINE
  5
486D
330
1A
100
AcDbEntity
  8
SEIHIN
100
AcDbLine
 10
352.1360329019519
 20
172.7719607673997
 30
0.0
 11
349.1534683019518
 21
170.9824220173997
 31
0.0
  0
LINE
  5
486E
330
1A
100
AcDbEntity
  8
SEIHIN
100
AcDbLine
 10
352.1360329019519
 20
172.7719607673997
 30
0.0
 11
353.6795201019518
 21
170.1994819973996
 31
0.0
  0
ARC
  5
486F
330
1A
100
AcDbEntity
  8
SEIHIN
100
AcDbCircle
 10
367.5895662019519
 20
173.2976529173997
 30
0.0
 40
1.999999974328267
100
AcDbArc
 50
300.9637562864189
 51
30.96375726903408
  0
CIRCLE
  5
4870
330
1A
100
AcDbEntity
  8
SEIHIN
100
AcDbCircle
 10
353.0121864019519
 20
187.8750326573996
 30
0.0
 40
3.249999974956403
  0
LINE
  5
4871
330
1A
100
AcDbEntity
  8
CENTER_L
100
AcDbLine
 10
347.6528556124391
 20
184.6594341844341
 30
0.0
 11
358.3715171914647
 21
191.0906311303651
 31
0.0
  0
LINE
  5
4872
330
1A
100
AcDbEntity
  8
CENTER_L
100
AcDbLine
 10
349.7965879289864
 20
193.2343634469125
 30
0.0
 11
356.2277848749173
 21
182.5157018678868
 31
0.0
  0
LINE
  5
4873
330
1A
100
AcDbEntity
  8
SEIHIN
100
AcDbLine
 10
340.4070404019519
 20
185.5598017573996
 30
0.0
 11
343.3896050019519
 21
187.3493405073996
 31
0.0
  0
LINE
  5
4874
330
1A
100
AcDbEntity
  8
CENTER_L
100
AcDbLine
 10
345.5519979813403
 20
193.3115378056384
 30
0.0
 11
354.2984258225634
 21
198.5593945091608
 31
0.0
  0
LINE
  5
4875
330
1A
100
AcDbEntity
  8
SEIHIN
100
AcDbLine
 10
341.8461178019518
 20
189.9218192873996
 30
0.0
 11
343.3896050019519
 21
187.3493405073996
 31
0.0
  0
INSERT
  5
4876
330
1A
100
AcDbEntity
  8
SUNPOU
100
AcDbBlockReference
  2
_OPEN
 10
354.2942754079768
 20
190.8614598903733
 30
0.0
 41
2.999999999999981
 42
3.0
 43
3.0
 50
251.7065953267104
1001
ACAD
1000
DSTYLE
1002
{
1070
    41
1040
3.0
1070
    42
1040
3.0
1070
    43
1040
7.0
1070
    44
1040
1.5
1070
    73
1070
     0
1070
    74
1070
     0
1070
    77
1070
     0
1070
   140
1040
3.0
1070
   141
1040
3.0
1070
   147
1040
1.0
1070
   172
1070
     1
1070
   173
1070
     1
1070
   176
1070
   256
1070
   177
1070
   256
1070
   178
1070
   256
1070
   271
1070
     0
1070
   272
1070
     0
1070
   341
1005
B2
1070
   343
1005
B2
1070
   344
1005
B2
1002
}
  0
CIRCLE
  5
4877
330
1A
100
AcDbEntity
  8
SEIHIN
100
AcDbCircle
 10
349.9252119019519
 20
195.9354661573996
 30
0.0
 40
2.099999996653719
  0
LINE
  5
4878
330
1A
100
AcDbEntity
  8
SEIHIN
100
AcDbLine
 10
314.4250047919519
 20
199.7084350373996
 30
0.0
 11
315.2824977119519
 21
200.2229307873997
 31
0.0
  0
LINE
  5
4879
330
1A
100
AcDbEntity
  8
SEIHIN
100
AcDbLine
 10
326.0084755319518
 20
200.8109821073996
 30
0.0
 11
329.0097007719519
 21
202.6117172473997
 31
0.0
  0
LINE
  5
487A
330
1A
100
AcDbEntity
  8
SEIHIN
100
AcDbLine
 10
330.3110358834696
 20
202.3864760098776
 30
0.0
 11
329.4535429622472
 21
201.8719802573232
 31
0.0
  0
LINE
  5
487B
330
1A
100
AcDbEntity
  8
SEIHIN
100
AcDbLine
 10
326.4299057519518
 20
206.9113756073996
 30
0.0
 11
327.2873986719519
 21
207.4258713673997
 31
0.0
  0
ARC
  5
487C
330
1A
100
AcDbEntity
  8
SEIHIN
100
AcDbCircle
 10
351.1257020019519
 20
200.7374265473996
 30
0.0
 40
2.00000001720292
100
AcDbArc
 50
30.96375579511135
 51
120.9637562864191
  0
DIMENSION
  5
4AA9
330
1A
100
AcDbEntity
  8
SUNPOU
100
AcDbDimension
  2
*D13
 10
216.0253224462202
 20
153.3869325772902
 30
0.0
 11
199.2303488765137
 21
155.8869325772902
 31
0.0
 70
    32
  3
STANDARD
100
AcDbAlignedDimension
 13
182.4353753068073
 23
92.80993648839967
 33
0.0
 14
216.0253224462202
 24
134.090027848847
 34
0.0
100
AcDbRotatedDimension
1001
ACAD
1000
DSTYLE
1002
{
1070
    41
1040
3.0
1070
    42
1040
3.0
1070
    43
1040
7.0
1070
    44
1040
1.5
1070
    73
1070
     0
1070
    74
1070
     0
1070
    77
1070
     3
1070
   140
1040
3.0
1070
   141
1040
3.0
1070
   147
1040
1.0
1070
   172
1070
     1
1070
   173
1070
     1
1070
   176
1070
   256
1070
   177
1070
   256
1070
   178
1070
   256
1070
   271
1070
     0
1070
   272
1070
     0
1070
   341
1005
B2
1070
     6
1000
OPEN
1070
     7
1000
OPEN
1002
}
  0
ARC
  5
4DA7
330
1A
100
AcDbEntity
  8
SEIHIN
100
AcDbCircle
 10
199.2651268469519
 20
127.2387769713996
 30
0.0
 40
6.999999997855918
100
AcDbArc
 50
276.999999968328
 51
350.7918456020166
  0
ARC
  5
4DAD
330
1A
100
AcDbEntity
  8
SEIHIN
100
AcDbCircle
 10
210.1217746569519
 20
125.4645931693996
 30
0.0
 40
4.000000001168301
100
AcDbArc
 50
30.96376790583797
 51
170.7918456269571
  0
ARC
  5
4DAE
330
1A
100
AcDbEntity
  8
SEIHIN
100
AcDbCircle
 10
210.1217746569519
 20
125.4645931693996
 30
0.0
 40
9.99999999933528
100
AcDbArc
 50
56.8056893546995
 51
170.7918456103774
  0
LINE
  5
4DCA
330
1A
100
AcDbEntity
  8
SEIHIN
  6
DASHED
 62
     2
100
AcDbLine
 10
236.3549319769519
 20
125.2073452923996
 30
0.0
 11
254.8767791769519
 21
94.33759996739969
 31
0.0
  0
LINE
  5
4DCB
330
1A
100
AcDbEntity
  8
SEIHIN
100
AcDbLine
 10
221.3549319769519
 20
125.2073452923996
 30
0.0
 11
239.8767791769519
 21
94.33759996739969
 31
0.0
  0
LINE
  5
4DCC
330
1A
100
AcDbEntity
  8
SEIHIN
100
AcDbLine
 10
220.3259404669519
 20
124.5899503853996
 30
0.0
 11
238.8477876669519
 21
93.72020505739971
 31
0.0
  0
LINE
  5
4DCD
330
1A
100
AcDbEntity
  8
SEIHIN
  6
DASHED
 62
     2
100
AcDbLine
 10
235.3259404669519
 20
124.5899503853996
 30
0.0
 11
253.8477876669519
 21
93.72020505739971
 31
0.0
  0
LINE
  5
4DCE
330
1A
100
AcDbEntity
  8
SEIHIN
100
AcDbLine
 10
234.1315765769519
 20
90.8904784073997
 30
0.0
 11
215.6097293769519
 21
121.7602237303996
 31
0.0
  0
LINE
  5
4DCF
330
1A
100
AcDbEntity
  8
SEIHIN
  6
DASHED
 62
     2
100
AcDbLine
 10
249.1315765769519
 20
90.8904784073997
 30
0.0
 11
230.6097293769519
 21
121.7602237303996
 31
0.0
  0
LINE
  5
4DD0
330
1A
100
AcDbEntity
  8
SEIHIN
100
AcDbLine
 10
239.8767791769519
 20
94.33759996739969
 30
0.0
 11
234.1315765769519
 21
90.8904784073997
 31
0.0
  0
LINE
  5
4DD1
330
1A
100
AcDbEntity
  8
SEIHIN
  6
DASHED
 62
     2
100
AcDbLine
 10
254.8767791769519
 20
94.33759996739969
 30
0.0
 11
249.1315765769519
 21
90.8904784073997
 31
0.0
  0
ARC
  5
4DD2
330
1A
100
AcDbEntity
  8
SEIHIN
  6
DASHED
 62
     2
100
AcDbCircle
 10
225.1217746569519
 20
125.4645931693996
 30
0.0
 40
4.000000001168301
100
AcDbArc
 50
30.96376790583797
 51
170.7918456269571
  0
ARC
  5
4DD3
330
1A
100
AcDbEntity
  8
SEIHIN
  6
DASHED
 62
     2
100
AcDbCircle
 10
225.1217746569519
 20
125.4645931693996
 30
0.0
 40
9.999999999335283
100
AcDbArc
 50
56.80568935469441
 51
170.7918456103774
  0
LINE
  5
4DD4
330
1A
100
AcDbEntity
  8
SEIHIN
  6
DASHED
 62
     2
100
AcDbLine
 10
230.5965759745277
 20
133.8327799813545
 30
0.0
 11
235.9261855169519
 21
124.9500974143996
 31
0.0
  0
LINE
  5
4DD5
330
1A
100
AcDbEntity
  8
SEIHIN
  6
DASHED
 62
     2
100
AcDbLine
 10
228.5517459469519
 20
127.5225768693996
 30
0.0
 11
231.6387208869519
 21
122.3776186370996
 31
0.0
  0
LINE
  5
4DD6
330
1A
100
AcDbEntity
  8
SEIHIN
  6
DASHED
 62
     2
100
AcDbLine
 10
230.6097293769519
 20
121.7602237303996
 30
0.0
 11
236.3549319769519
 21
125.2073452923996
 31
0.0
  0
LINE
  5
4DD8
330
1A
100
AcDbEntity
  8
SEIHIN
100
AcDbLine
 10
215.5965759745277
 20
133.8327799813545
 30
0.0
 11
220.9261855169519
 21
124.9500974143996
 31
0.0
  0
LINE
  5
4DD9
330
1A
100
AcDbEntity
  8
SEIHIN
100
AcDbLine
 10
213.5517459469518
 20
127.5225768693996
 30
0.0
 11
216.6387208869519
 21
122.3776186370996
 31
0.0
  0
LINE
  5
4DDA
330
1A
100
AcDbEntity
  8
SEIHIN
100
AcDbLine
 10
215.6097293769519
 20
121.7602237303996
 30
0.0
 11
221.3549319769519
 21
125.2073452923996
 31
0.0
  0
LINE
  5
4E57
330
1A
100
AcDbEntity
  8
SEIHIN
100
AcDbLine
 10
129.2552147069519
 20
117.5737385463996
 30
0.0
 11
199.3853957369519
 21
126.2322854873996
 31
0.0
  0
LINE
  5
4E60
330
1A
100
AcDbEntity
  8
SEIHIN
100
AcDbLine
 10
131.0642480069519
 20
111.7508009473996
 30
0.0
 11
200.1182122469518
 21
120.2909539093996
 31
0.0
  0
ARC
  5
4E7B
330
1A
100
AcDbEntity
  8
SEIHIN
100
AcDbCircle
 10
199.2635261469519
 20
127.2248316083997
 30
0.0
 40
0.9999999994877491
100
AcDbArc
 50
277.000014237487
 51
350.7918456181771
  0
LINE
  5
4E84
330
1A
100
AcDbEntity
  8
SEIHIN
100
AcDbLine
 10
112.9568770069519
 20
95.58351771739967
 30
0.0
 11
120.7090427069519
 21
111.4778129773996
 31
0.0
  0
LINE
  5
4E86
330
1A
100
AcDbEntity
  8
SEIHIN
100
AcDbLine
 10
112.2851183069519
 20
96.78565199739967
 30
0.0
 11
114.7690229069519
 21
99.4232001973997
 31
0.0
  0
ARC
  5
4E87
330
1A
100
AcDbEntity
  8
SEIHIN
100
AcDbCircle
 10
105.8950068069519
 20
92.84914155739967
 30
0.0
 40
9.89999994344371
100
AcDbArc
 50
135.9085672061378
 51
170.532554226542
  0
LINE
  5
4E89
330
1A
100
AcDbEntity
  8
SEIHIN
100
AcDbLine
 10
112.1774593069519
 20
96.67133366739967
 30
0.0
 11
115.0651223069519
 21
99.73761508739967
 31
0.0
  0
LINE
  5
4E8A
330
1A
100
AcDbEntity
  8
SEIHIN
100
AcDbLine
 10
114.3353753069519
 20
84.72282605739968
 30
0.0
 11
125.6257750069519
 21
107.8715759073996
 31
0.0
  0
LINE
  5
4E94
330
1A
100
AcDbEntity
  8
SEIHIN
100
AcDbLine
 10
119.0853753069519
 20
80.78761336739967
 30
0.0
 11
119.0853753069519
 21
78.78761336739967
 31
0.0
  0
LINE
  5
4E95
330
1A
100
AcDbEntity
  8
SEIHIN
100
AcDbLine
 10
119.5853753069519
 20
78.78761336739967
 30
0.0
 11
119.5853753069519
 21
80.78761336739967
 31
0.0
  0
MTEXT
  5
4E96
330
1A
100
AcDbEntity
  8
SEIHIN
100
AcDbMText
 10
121.2443831069519
 20
77.69939058139965
 30
0.0
 40
2.381249964
 41
0.0
 71
     1
 72
     5
  1
{\W1.135802;60}
210
0.0
220
0.0
230
-1.0
 11
-1.0
 21
0.0
 31
0.0
1001
ACAD
1000
MTEXTBEGIN
1070
    73
1070
     1
1070
    44
1040
1.0
1070
    74
1070
     0
1000
MTEXTEND
1000
MTEXTBEGIN
1070
    73
1070
     1
1070
    44
1040
1.0
1070
    74
1070
     0
1000
MTEXTEND
1000
MTEXTBEGIN
1070
    73
1070
     1
1070
    44
1040
1.0
1070
    74
1070
     0
1000
MTEXTEND
1000
MTEXTBEGIN
1070
    73
1070
     1
1070
    44
1040
1.0
1070
    74
1070
     0
1000
MTEXTEND
1000
MTEXTBEGIN
1070
    73
1070
     1
1070
    44
1040
1.0
1070
    74
1070
     0
1000
MTEXTEND
1000
MTEXTBEGIN
1070
    73
1070
     1
1070
    44
1040
1.0
1070
    74
1070
     0
1000
MTEXTEND
  0
LINE
  5
4E97
330
1A
100
AcDbEntity
  8
SEIHIN
100
AcDbLine
 10
119.0853753069519
 20
78.78761336739967
 30
0.0
 11
119.5853753069519
 21
78.78761336739967
 31
0.0
  0
LINE
  5
4E98
330
1A
100
AcDbEntity
  8
SEIHIN
100
AcDbLine
 10
119.5853753069519
 20
80.78761336739967
 30
0.0
 11
119.0853753069519
 21
80.78761336739967
 31
0.0
  0
LINE
  5
4EA6
330
1A
100
AcDbEntity
  8
SEIHIN
100
AcDbLine
 10
114.5853753069518
 20
78.78761336739967
 30
0.0
 11
114.5853753069518
 21
80.78761336739967
 31
0.0
  0
LINE
  5
4EA7
330
1A
100
AcDbEntity
  8
SEIHIN
100
AcDbLine
 10
114.3353753069519
 20
78.78761336739967
 30
0.0
 11
114.5853753069518
 21
78.78761336739967
 31
0.0
  0
LINE
  5
4EA8
330
1A
100
AcDbEntity
  8
SEIHIN
100
AcDbLine
 10
114.5853753069518
 20
80.78761336739967
 30
0.0
 11
114.3353753069519
 21
80.78761336739967
 31
0.0
  0
MTEXT
  5
4EAC
330
1A
100
AcDbEntity
  8
SEIHIN
100
AcDbMText
 10
106.2366052069519
 20
77.87953219139968
 30
0.0
 40
2.381249964
 41
0.0
 71
     1
 72
     5
  1
{\W1.022222;45}
210
0.0
220
0.0
230
-1.0
 11
-1.0
 21
0.0
 31
0.0
1001
ACAD
1000
MTEXTBEGIN
1070
    73
1070
     1
1070
    44
1040
1.0
1070
    74
1070
     0
1000
MTEXTEND
1000
MTEXTBEGIN
1070
    73
1070
     1
1070
    44
1040
1.0
1070
    74
1070
     0
1000
MTEXTEND
1000
MTEXTBEGIN
1070
    73
1070
     1
1070
    44
1040
1.0
1070
    74
1070
     0
1000
MTEXTEND
1000
MTEXTBEGIN
1070
    73
1070
     1
1070
    44
1040
1.0
1070
    74
1070
     0
1000
MTEXTEND
1000
MTEXTBEGIN
1070
    73
1070
     1
1070
    44
1040
1.0
1070
    74
1070
     0
1000
MTEXTEND
1000
MTEXTBEGIN
1070
    73
1070
     1
1070
    44
1040
1.0
1070
    74
1070
     0
1000
MTEXTEND
  0
LINE
  5
4EBC
330
1A
100
AcDbEntity
  8
SEIHIN
100
AcDbLine
 10
127.4213014069519
 20
117.1877155853997
 30
0.0
 11
128.3007204069519
 21
120.0641653883996
 31
0.0
  0
LINE
  5
4EBD
330
1A
100
AcDbEntity
  8
SEIHIN
100
AcDbLine
 10
126.0022973069519
 20
116.6507266333997
 30
0.0
 11
127.1531547069519
 21
120.4150114343996
 31
0.0
  0
ARC
  5
4EBE
330
1A
100
AcDbEntity
  8
SEIHIN
100
AcDbCircle
 10
131.9173334069519
 20
104.8029778873996
 30
0.0
 40
7.000000031489973
100
AcDbArc
 50
96.99999997031959
 51
154.000000327707
  0
ARC
  5
4EBF
330
1A
100
AcDbEntity
  8
SEIHIN
100
AcDbCircle
 10
130.5957775069519
 20
106.6557308773996
 30
0.0
 40
11.00000001967632
100
AcDbArc
 50
97.00000011594569
 51
154.0000030732918
  0
LINE
  5
4EC0
330
1A
100
AcDbEntity
  8
SEIHIN
100
AcDbLine
 10
128.3007204069519
 20
120.0641653883996
 30
0.0
 11
127.1531547069519
 21
120.4150114343996
 31
0.0
  0
LINE
  5
4EC1
330
1A
100
AcDbEntity
  8
SEIHIN
100
AcDbLine
 10
116.0559773069519
 20
101.9376150873997
 30
0.0
 11
98.78452640695195
 21
101.9376150873997
 31
0.0
  0
LINE
  5
4EC2
330
1A
100
AcDbEntity
  8
SEIHIN
100
AcDbLine
 10
98.78452640695195
 20
100.9376150873997
 30
0.0
 11
98.78452640695195
 21
101.9376150873997
 31
0.0
  0
LINE
  5
4EC3
330
1A
100
AcDbEntity
  8
SEIHIN
100
AcDbLine
 10
98.78452640695195
 20
99.73761508739967
 30
0.0
 11
98.78452640695195
 21
100.9376150873997
 31
0.0
  0
DIMENSION
  5
5211
330
1A
100
AcDbEntity
  8
SUNPOU
100
AcDbDimension
  2
*D14
 10
38.55001266030237
 20
94.33759996739974
 30
0.0
 11
36.05001266030235
 21
91.81260666683241
 31
0.0
 70
    32
  3
STANDARD
100
AcDbAlignedDimension
 13
67.47247530181113
 23
89.28761336626504
 33
0.0
 14
239.8767791769519
 24
94.33759996739969
 34
0.0
 50
90.0
100
AcDbRotatedDimension
1001
ACAD
1000
DSTYLE
1002
{
1070
    41
1040
3.0
1070
    42
1040
3.0
1070
    43
1040
7.0
1070
    44
1040
1.5
1070
    73
1070
     0
1070
    74
1070
     0
1070
    77
1070
     3
1070
   140
1040
3.0
1070
   141
1040
3.0
1070
   147
1040
1.0
1070
   172
1070
     1
1070
   173
1070
     1
1070
   176
1070
   256
1070
   177
1070
   256
1070
   178
1070
   256
1070
   271
1070
     0
1070
   272
1070
     0
1070
   341
1005
B2
1070
     6
1000
OPEN
1070
     7
1000
OPEN
1002
}
  0
LINE
  5
538E
330
1A
100
AcDbEntity
  8
SUNPOU
100
AcDbLine
 10
239.8767791769519
 20
94.33759996739969
 30
0.0
 11
257.0184994703514
 21
65.76806614969452
 31
0.0
  0
TEXT
  5
538F
330
1A
100
AcDbEntity
  8
SUNPOU
100
AcDbText
 10
252.7330285952085
 20
61.27208729449468
 30
0.0
 40
3.0
  1
6
100
AcDbText
  0
LINE
  5
5390
330
1A
100
AcDbEntity
  8
SUNPOU
100
AcDbLine
 10
257.0184994703514
 20
65.76806614969452
 30
0.0
 11
251.0184994703514
 21
65.76806614969452
 31
0.0
  0
TEXT
  5
5391
330
1A
100
AcDbEntity
  8
SUNPOU
100
AcDbText
 10
245.9256656662176
 20
68.19796998030018
 30
0.0
 40
3.0
  1
10
100
AcDbText
  0
LINE
  5
5392
330
1A
100
AcDbEntity
  8
SUNPOU
100
AcDbLine
 10
251.0184994703514
 20
65.76806614969452
 30
0.0
 11
251.0184994703514
 21
75.76806614969452
 31
0.0
  0
LINE
  5
5500
330
1A
100
AcDbEntity
  8
ZUWAKU
100
AcDbLine
 10
104.3233009651347
 20
7.600000176923909
 30
0.0
 11
223.7121823055964
 21
7.600000176923906
 31
0.0
  0
LINE
  5
5501
330
1A
100
AcDbEntity
  8
ZUWAKU
100
AcDbLine
 10
104.3233009651347
 20
7.800000176923907
 30
0.0
 11
223.7121823055964
 21
7.80000017692391
 31
0.0
  0
LINE
  5
5502
330
1A
100
AcDbEntity
  8
ZUWAKU
100
AcDbLine
 10
104.3233009651347
 20
7.700000176923907
 30
0.0
 11
223.7121823055964
 21
7.700000176923907
 31
0.0
  0
LINE
  5
5503
330
1A
100
AcDbEntity
  8
ZUWAKU
100
AcDbLine
 10
0.000000320100753
 20
15.40000017692389
 30
0.0
 11
398.7000003201007
 21
15.40000017692389
 31
0.0
  0
LINE
  5
5504
330
1A
100
AcDbEntity
  8
ZUWAKU
100
AcDbLine
 10
0.000000320100753
 20
15.30000017692389
 30
0.0
 11
398.7000003201007
 21
15.30000017692389
 31
0.0
  0
LINE
  5
5505
330
1A
100
AcDbEntity
  8
ZUWAKU
100
AcDbLine
 10
0.000000320100753
 20
15.20000017692389
 30
0.0
 11
398.7000003201007
 21
15.20000017692389
 31
0.0
  0
LINE
  5
5506
330
1A
100
AcDbEntity
  8
ZUWAKU
100
AcDbLine
 10
0.000000320100753
 20
15.10000017692389
 30
0.0
 11
398.7000003201007
 21
15.10000017692389
 31
0.0
  0
LINE
  5
5507
330
1A
100
AcDbEntity
  8
ZUWAKU
100
AcDbLine
 10
0.000000320100753
 20
15.00000017692389
 30
0.0
 11
398.7000003201007
 21
15.00000017692389
 31
0.0
  0
LWPOLYLINE
  5
5508
330
1A
100
AcDbEntity
  8
ZUWAKU
100
AcDbPolyline
 90
        4
 70
     1
 43
0.0
 10
0.1000003201007189
 20
275.7000001769239
 10
0.1000003201007189
 20
0.1000001769239134
 10
398.7000003201007
 20
0.1000001769239249
 10
398.7000003201007
 20
275.7000001769239
  0
LWPOLYLINE
  5
5509
330
1A
100
AcDbEntity
  8
ZUWAKU
100
AcDbPolyline
 90
        4
 70
     1
 43
0.0
 10
0.3000003201007075
 20
275.5000001769239
 10
0.3000003201007075
 20
0.300000176923902
 10
398.5000003201008
 20
0.3000001769239251
 10
398.5000003201007
 20
275.5000001769239
  0
LWPOLYLINE
  5
550A
330
1A
100
AcDbEntity
  8
ZUWAKU
100
AcDbPolyline
 90
        4
 70
     1
 43
0.0
 10
0.000000320100753
 20
275.8000001769238
 10
0.000000320100753
 20
0.0000001769238906
 10
398.8000003201008
 20
0.0000001769239244
 10
398.8000003201008
 20
275.8000001769239
  0
LWPOLYLINE
  5
550B
330
1A
100
AcDbEntity
  8
ZUWAKU
100
AcDbPolyline
 90
        4
 70
     1
 43
0.0
 10
0.2000003201007416
 20
275.6000001769239
 10
0.2000003201007416
 20
0.2000001769239361
 10
398.6000003201007
 20
0.2000001769239246
 10
398.6000003201007
 20
275.6000001769239
  0
LWPOLYLINE
  5
550C
330
1A
100
AcDbEntity
  8
ZUWAKU
100
AcDbPolyline
 90
        4
 70
     1
 43
0.0
 10
0.4000003201007303
 20
275.4000001769239
 10
0.4000003201007303
 20
0.4000001769239248
 10
398.4000003201007
 20
0.4000001769239248
 10
398.4000003201007
 20
275.4000001769239
  0
TEXT
  5
550D
330
1A
100
AcDbEntity
  8
MOJI
100
AcDbText
 10
46.47889511418532
 20
6.370589242061271
 30
0.0
 40
3.0
  1
新・丸トップＲＶ１０５
 41
0.9
  7
ｽﾀｲﾙ1
100
AcDbText
  0
HATCH
  5
550E
330
1A
100
AcDbEntity
  8
ZUWAKU
100
AcDbHatch
 10
0.0
 20
0.0
 30
0.0
210
0.0
220
0.0
230
1.0
  2
ANSI37
 70
     0
 71
     0
 91
        8
 92
        7
 72
     1
 73
     1
 93
       24
 10
7.251131650660681
 20
8.822424417415682
 42
-0.1989123673796348
 10
7.046106397491314
 20
9.317399164246207
 42
0.0
 10
7.046106397491314
 20
9.962500176923896
 42
-0.4142135623730912
 10
7.308606397491303
 20
10.22500017692389
 42
0.0
 10
8.796106397491257
 20
10.22500017692389
 42
0.4142135623731546
 10
9.058606397491303
 20
10.48750017692388
 42
0.0
 10
9.058606397491303
 20
11.36250017692389
 42
0.4142135623731586
 10
8.796106397491257
 20
11.62500017692389
 42
0.0
 10
7.046106397491314
 20
11.62500017692389
 42
0.4142135623730928
 10
5.646106397491337
 20
10.2250001769239
 42
0.0
 10
5.646106397491337
 20
9.317399164246271
 42
0.1989123673796619
 10
6.261182156999552
 20
7.832474923754467
 42
0.0
 10
7.71608114432189
 20
6.377575936432139
 42
-0.1989123673796613
 10
7.921106397491314
 20
5.882601189601546
 42
0.0
 10
7.921106397491314
 20
5.237500176923887
 42
-0.4142135623730911
 10
7.658606397491325
 20
4.975000176923892
 42
0.0
 10
6.171106397491371
 20
4.975000176923892
 42
0.4142135623731526
 10
5.908606397491325
 20
4.712500176923898
 42
0.0
 10
5.908606397491325
 20
3.837500176923887
 42
0.4142135623731526
 10
6.171106397491371
 20
3.575000176923893
 42
0.0
 10
7.921106397491314
 20
3.575000176923893
 42
0.4142135623731044
 10
9.321106397491348
 20
4.975000176923881
 42
0.0
 10
9.321106397491348
 20
5.882601189601517
 42
0.1989123673796604
 10
8.706030637983076
 20
7.367525430093287
 42
0.0
 97
        0
 92
        7
 72
     1
 73
     1
 93
       16
 10
11.77110639749133
 20
9.525000176923896
 42
-0.4142135623730935
 10
12.47110639749132
 20
10.22500017692389
 42
0.0
 10
13.4336063974913
 20
10.22500017692389
 42
0.4142135623731546
 10
13.69610639749134
 20
10.48750017692388
 42
0.0
 10
13.69610639749134
 20
11.36250017692389
 42
0.4142135623730951
 10
13.43360639749135
 20
11.62500017692389
 42
0.0
 10
12.47110639749126
 20
11.62500017692387
 42
0.4142135623730892
 10
10.3711063974913
 20
9.52500017692386
 42
0.0
 10
10.3711063974913
 20
5.675000176923905
 42
0.4142135623730969
 10
12.47110639749132
 20
3.575000176923893
 42
0.0
 10
13.4336063974913
 20
3.575000176923893
 42
0.4142135623731526
 10
13.69610639749134
 20
3.837500176923887
 42
0.0
 10
13.69610639749134
 20
4.712500176923898
 42
0.4142135623730891
 10
13.43360639749135
 20
4.975000176923892
 42
0.0
 10
12.47110639749132
 20
4.975000176923892
 42
-0.4142135623730928
 10
11.77110639749133
 20
5.675000176923886
 42
0.0
 97
        0
 92
        7
 72
     1
 73
     1
 93
        2
 10
12.1211063974913
 20
7.600000176923892
 42
1.0
 10
13.8711063974913
 20
7.600000176923892
 42
1.0
 97
        0
 92
        7
 72
     1
 73
     1
 93
       26
 10
18.65742963858031
 20
9.602523773705605
 42
0.0
 10
19.18824945514922
 20
11.2834531928404
 42
0.5069206636600134
 10
18.93793400555153
 20
11.62500017692389
 42
0.0
 10
18.08848931574692
 20
11.62500017692389
 42
0.3272098845218764
 10
17.83817386614924
 20
11.44154716100737
 42
0.0
 10
16.90403892883336
 20
8.483453192840432
 42
-0.3272098845219541
 10
16.65372347923562
 20
8.300000176923891
 42
0.0
 10
16.58360639749139
 20
8.300000176923891
 42
-0.4142135623731526
 10
16.32110639749134
 20
8.562500176923885
 42
0.0
 10
16.32110639749134
 20
11.36250017692389
 42
0.4142135623730951
 10
16.05860639749136
 20
11.62500017692389
 42
0.0
 10
15.1836063974913
 20
11.62500017692389
 42
0.4142135623730871
 10
14.92110639749131
 20
11.3625001769239
 42
0.0
 10
14.92110639749131
 20
3.837500176923887
 42
0.4142135623730891
 10
15.1836063974913
 20
3.575000176923893
 42
0.0
 10
16.0586063974913
 20
3.575000176923893
 42
0.4142135623731526
 10
16.32110639749134
 20
3.837500176923887
 42
0.0
 10
16.32110639749134
 20
6.637500176923898
 42
-0.4142135623731526
 10
16.58360639749139
 20
6.900000176923892
 42
0.0
 10
16.65372347923567
 20
6.900000176923892
 42
-0.3272098845218915
 10
16.90403892883336
 20
6.716547161007355
 42
0.0
 10
17.83817386614924
 20
3.758453192840429
 42
0.3272098845218902
 10
18.08848931574692
 20
3.575000176923893
 42
0.0
 10
18.93793400555153
 20
3.575000176923893
 42
0.5069206636600335
 10
19.18824945514922
 20
3.916547161007397
 42
0.0
 10
18.02505376591239
 20
7.600000176923961
 42
0.0
 97
        0
 92
        7
 72
     1
 73
     1
 93
        8
 10
21.7461063974913
 20
11.36250017692389
 42
0.4142135623731546
 10
21.48360639749125
 20
11.62500017692389
 42
0.0
 10
20.60860639749137
 20
11.62500017692389
 42
0.4142135623731507
 10
20.34610639749132
 20
11.3625001769239
 42
0.0
 10
20.34610639749132
 20
3.837500176923887
 42
0.4142135623731526
 10
20.60860639749137
 20
3.575000176923893
 42
0.0
 10
21.48360639749125
 20
3.575000176923893
 42
0.4142135623731526
 10
21.7461063974913
 20
3.837500176923887
 42
0.0
 97
        0
 92
        7
 72
     1
 73
     1
 93
       24
 10
24.19610639749135
 20
9.962500176923896
 42
-0.4142135623731546
 10
24.45860639749139
 20
10.22500017692389
 42
0.0
 10
25.94610639749134
 20
10.22500017692389
 42
0.4142135623730911
 10
26.20860639749134
 20
10.48750017692388
 42
0.0
 10
26.20860639749134
 20
11.36250017692389
 42
0.4142135623730952
 10
25.94610639749134
 20
11.62500017692389
 42
0.0
 10
24.19610639749135
 20
11.62500017692389
 42
0.4142135623731048
 10
22.79610639749131
 20
10.2250001769239
 42
0.0
 10
22.79610639749131
 20
9.317399164246271
 42
0.1989123673796613
 10
23.41118215699958
 20
7.832474923754496
 42
0.0
 10
24.86608114432192
 20
6.377575936432162
 42
-0.1989123673796402
 10
25.07110639749134
 20
5.882601189601626
 42
0.0
 10
25.07110639749134
 20
5.237500176923887
 42
-0.4142135623730911
 10
24.80860639749136
 20
4.975000176923892
 42
0.0
 10
23.32110639749135
 20
4.975000176923892
 42
0.4142135623731526
 10
23.0586063974913
 20
4.712500176923898
 42
0.0
 10
23.0586063974913
 20
3.837500176923887
 42
0.4142135623730891
 10
23.32110639749129
 20
3.575000176923893
 42
0.0
 10
25.07110639749134
 20
3.575000176923893
 42
0.4142135623730925
 10
26.47110639749132
 20
4.975000176923881
 42
0.0
 10
26.47110639749132
 20
5.882601189601517
 42
0.1989123673796675
 10
25.85603063798305
 20
7.367525430093344
 42
0.0
 10
24.40113165066077
 20
8.822424417415602
 42
-0.1989123673796652
 10
24.19610639749135
 20
9.317399164246186
 42
0.0
 97
        0
 92
        7
 72
     1
 73
     1
 93
       16
 10
28.92110639749131
 20
11.36250017692388
 42
0.414213562373103
 10
28.65860639749132
 20
11.62500017692389
 42
0.0
 10
27.78360639749132
 20
11.62500017692389
 42
0.4142135623730871
 10
27.52110639749133
 20
11.3625001769239
 42
0.0
 10
27.52110639749133
 20
4.975000176923881
 42
0.4142135623730926
 10
28.92110639749131
 20
3.575000176923893
 42
0.0
 10
30.67110639749131
 20
3.575000176923893
 42
0.4142135623731044
 10
32.07110639749135
 20
4.975000176923881
 42
0.0
 10
32.07110639749135
 20
11.36250017692389
 42
0.4142135623730951
 10
31.80860639749136
 20
11.62500017692389
 42
0.0
 10
30.9336063974913
 20
11.62500017692389
 42
0.4142135623730871
 10
30.67110639749131
 20
11.3625001769239
 42
0.0
 10
30.67110639749131
 20
5.500000176923879
 42
-0.414213562373088
 10
30.14610639749133
 20
4.975000176923892
 42
0.0
 10
29.44610639749134
 20
4.975000176923892
 42
-0.4142135623731197
 10
28.92110639749131
 20
5.500000176923879
 42
0.0
 97
        0
 92
        7
 72
     1
 73
     1
 93
        8
 10
34.52110639749133
 20
11.3625001769239
 42
0.4142135623730871
 10
34.25860639749135
 20
11.62500017692389
 42
0.0
 10
33.38360639749135
 20
11.62500017692389
 42
0.4142135623731507
 10
33.1211063974913
 20
11.3625001769239
 42
0.0
 10
33.1211063974913
 20
3.837500176923887
 42
0.4142135623730891
 10
33.38360639749129
 20
3.575000176923893
 42
0.0
 10
34.25860639749135
 20
3.575000176923893
 42
0.4142135623730891
 10
34.52110639749133
 20
3.837500176923887
 42
0.0
 97
        0
 75
     0
 76
     1
 52
0.0
 41
0.1
 77
     0
 78
     2
 53
45.0
 43
-450.4711518472387
 44
-6.599999823076075
 45
-0.2245064030267288
 46
0.2245064030267288
 79
     0
 53
135.0
 43
-450.4711518472387
 44
-6.599999823076075
 45
-0.2245064030267288
 46
-0.2245064030267288
 79
     0
 47
0.057451373970553
 98
        8
 10
8.039927801612407
 20
7.583586999866668
 10
11.20225782332033
 20
9.422031268149396
 10
12.58218426293058
 20
7.75594099995925
 10
15.45703031091932
 20
8.100649000144642
 10
20.91923632957912
 20
8.33045513391545
 10
23.44910076766552
 20
9.709288335127496
 10
28.27884330630093
 20
9.364579134471398
 10
33.91354012991212
 20
9.594385268242206
  0
LINE
  5
550F
330
1A
100
AcDbEntity
  8
ZUWAKU
100
AcDbLine
 10
12.47110639749132
 20
11.62500017692387
 30
0.0
 11
13.4336063974913
 21
11.62500017692389
 31
0.0
  0
LINE
  5
5510
330
1A
100
AcDbEntity
  8
ZUWAKU
100
AcDbLine
 10
13.4336063974913
 20
10.22500017692389
 30
0.0
 11
12.47110639749132
 21
10.22500017692389
 31
0.0
  0
LINE
  5
5511
330
1A
100
AcDbEntity
  8
ZUWAKU
100
AcDbLine
 10
12.47110639749132
 20
4.975000176923892
 30
0.0
 11
13.4336063974913
 21
4.975000176923892
 31
0.0
  0
LINE
  5
5512
330
1A
100
AcDbEntity
  8
ZUWAKU
100
AcDbLine
 10
13.4336063974913
 20
3.575000176923893
 30
0.0
 11
12.47110639749132
 21
3.575000176923893
 31
0.0
  0
CIRCLE
  5
5513
330
1A
100
AcDbEntity
  8
ZUWAKU
100
AcDbCircle
 10
12.9961063974913
 20
7.600000176923892
 30
0.0
 40
0.875
  0
ARC
  5
5514
330
1A
100
AcDbEntity
  8
ZUWAKU
100
AcDbCircle
 10
7.746106397491303
 20
9.317399164246243
 30
0.0
 40
0.7
100
AcDbArc
 50
180.0000000000016
 51
224.9999999999988
  0
LINE
  5
5515
330
1A
100
AcDbEntity
  8
ZUWAKU
100
AcDbLine
 10
11.77110639749133
 20
9.525000176923892
 30
0.0
 11
11.77110639749133
 21
5.675000176923894
 31
0.0
  0
LINE
  5
5516
330
1A
100
AcDbEntity
  8
ZUWAKU
100
AcDbLine
 10
10.3711063974913
 20
5.675000176923894
 30
0.0
 11
10.3711063974913
 21
9.525000176923871
 31
0.0
  0
ARC
  5
5517
330
1A
100
AcDbEntity
  8
ZUWAKU
100
AcDbCircle
 10
7.746106397491303
 20
9.317399164246243
 30
0.0
 40
2.099999999999999
100
AcDbArc
 50
180.0
 51
225.0
  0
ARC
  5
5518
330
1A
100
AcDbEntity
  8
ZUWAKU
100
AcDbCircle
 10
7.921106397491314
 20
4.975000176923892
 30
0.0
 40
1.399999999999999
100
AcDbArc
 50
270.0
 51
0.0
  0
ARC
  5
5519
330
1A
100
AcDbEntity
  8
ZUWAKU
100
AcDbCircle
 10
12.47110639749132
 20
5.675000176923894
 30
0.0
 40
2.099999999999999
100
AcDbArc
 50
180.0
 51
270.0
  0
ARC
  5
551A
330
1A
100
AcDbEntity
  8
ZUWAKU
100
AcDbCircle
 10
7.221106397491325
 20
5.882601189601544
 30
0.0
 40
2.099999999999999
100
AcDbArc
 50
0.0
 51
45.0
  0
LINE
  5
551B
330
1A
100
AcDbEntity
  8
ZUWAKU
100
AcDbLine
 10
8.706030637983076
 20
7.367525430093305
 30
0.0
 11
7.251131650660738
 21
8.822424417415643
 31
0.0
  0
LINE
  5
551C
330
1A
100
AcDbEntity
  8
ZUWAKU
100
AcDbLine
 10
7.921106397491314
 20
5.237500176923894
 30
0.0
 11
7.921106397491314
 21
5.882601189601565
 31
0.0
  0
ARC
  5
551D
330
1A
100
AcDbEntity
  8
ZUWAKU
100
AcDbCircle
 10
7.658606397491325
 20
5.237500176923894
 30
0.0
 40
0.2625
100
AcDbArc
 50
270.0
 51
0.0
  0
ARC
  5
551E
330
1A
100
AcDbEntity
  8
ZUWAKU
100
AcDbCircle
 10
7.221106397491325
 20
5.882601189601565
 30
0.0
 40
0.7
100
AcDbArc
 50
0.0
 51
45.0
  0
LINE
  5
551F
330
1A
100
AcDbEntity
  8
ZUWAKU
100
AcDbLine
 10
5.908606397491325
 20
3.837500176923892
 30
0.0
 11
5.908606397491325
 21
4.712500176923892
 31
0.0
  0
ARC
  5
5520
330
1A
100
AcDbEntity
  8
ZUWAKU
100
AcDbCircle
 10
6.171106397491314
 20
3.837500176923892
 30
0.0
 40
0.2625
100
AcDbArc
 50
180.0
 51
270.0
  0
ARC
  5
5521
330
1A
100
AcDbEntity
  8
ZUWAKU
100
AcDbCircle
 10
6.171106397491314
 20
4.712500176923892
 30
0.0
 40
0.2625
100
AcDbArc
 50
90.0
 51
180.0
  0
LINE
  5
5522
330
1A
100
AcDbEntity
  8
ZUWAKU
100
AcDbLine
 10
6.171106397491314
 20
3.575000176923893
 30
0.0
 11
7.921106397491314
 21
3.575000176923893
 31
0.0
  0
LINE
  5
5523
330
1A
100
AcDbEntity
  8
ZUWAKU
100
AcDbLine
 10
6.171106397491314
 20
4.975000176923892
 30
0.0
 11
7.658606397491325
 21
4.975000176923892
 31
0.0
  0
LINE
  5
5524
330
1A
100
AcDbEntity
  8
ZUWAKU
100
AcDbLine
 10
6.261182156999552
 20
7.832474923754482
 30
0.0
 11
7.71608114432189
 21
6.377575936432151
 31
0.0
  0
LINE
  5
5525
330
1A
100
AcDbEntity
  8
ZUWAKU
100
AcDbLine
 10
9.321106397491348
 20
4.975000176923892
 30
0.0
 11
9.321106397491348
 21
5.882601189601565
 31
0.0
  0
ARC
  5
5526
330
1A
100
AcDbEntity
  8
ZUWAKU
100
AcDbCircle
 10
12.47110639749132
 20
5.675000176923894
 30
0.0
 40
0.7
100
AcDbArc
 50
180.0
 51
270.0
  0
ARC
  5
5527
330
1A
100
AcDbEntity
  8
ZUWAKU
100
AcDbCircle
 10
8.796106397491314
 20
11.36250017692389
 30
0.0
 40
0.2625
100
AcDbArc
 50
0.0
 51
90.0
  0
ARC
  5
5528
330
1A
100
AcDbEntity
  8
ZUWAKU
100
AcDbCircle
 10
8.796106397491314
 20
10.48750017692389
 30
0.0
 40
0.2625
100
AcDbArc
 50
270.0
 51
0.0
  0
LINE
  5
5529
330
1A
100
AcDbEntity
  8
ZUWAKU
100
AcDbLine
 10
7.046106397491314
 20
11.62500017692389
 30
0.0
 11
8.796106397491314
 21
11.62500017692389
 31
0.0
  0
ARC
  5
552A
330
1A
100
AcDbEntity
  8
ZUWAKU
100
AcDbCircle
 10
7.308606397491303
 20
9.962500176923892
 30
0.0
 40
0.2625
100
AcDbArc
 50
90.0
 51
180.0
  0
LINE
  5
552B
330
1A
100
AcDbEntity
  8
ZUWAKU
100
AcDbLine
 10
7.046106397491314
 20
9.962500176923892
 30
0.0
 11
7.046106397491314
 21
9.317399164246221
 31
0.0
  0
LINE
  5
552C
330
1A
100
AcDbEntity
  8
ZUWAKU
100
AcDbLine
 10
8.796106397491314
 20
10.22500017692389
 30
0.0
 11
7.308606397491303
 21
10.22500017692389
 31
0.0
  0
LINE
  5
552D
330
1A
100
AcDbEntity
  8
ZUWAKU
100
AcDbLine
 10
5.646106397491337
 20
10.22500017692389
 30
0.0
 11
5.646106397491337
 21
9.317399164246221
 31
0.0
  0
ARC
  5
552E
330
1A
100
AcDbEntity
  8
ZUWAKU
100
AcDbCircle
 10
7.046106397491314
 20
10.22500017692389
 30
0.0
 40
1.399999999999999
100
AcDbArc
 50
90.0
 51
180.0
  0
LINE
  5
552F
330
1A
100
AcDbEntity
  8
ZUWAKU
100
AcDbLine
 10
9.058606397491303
 20
11.36250017692389
 30
0.0
 11
9.058606397491303
 21
10.48750017692389
 31
0.0
  0
ARC
  5
5530
330
1A
100
AcDbEntity
  8
ZUWAKU
100
AcDbCircle
 10
12.47110639749132
 20
9.525000176923892
 30
0.0
 40
0.7
100
AcDbArc
 50
90.0
 51
180.0
  0
ARC
  5
5531
330
1A
100
AcDbEntity
  8
ZUWAKU
100
AcDbCircle
 10
12.47110639749132
 20
9.525000176923871
 30
0.0
 40
2.099999999999999
100
AcDbArc
 50
90.0
 51
180.0
  0
LINE
  5
5532
330
1A
100
AcDbEntity
  8
ZUWAKU
100
AcDbLine
 10
39.66331509409485
 20
15.00000017692389
 30
0.0
 11
39.66331509409497
 21
0.4000001769239248
 31
0.0
  0
LINE
  5
5533
330
1A
100
AcDbEntity
  8
ZUWAKU
100
AcDbLine
 10
39.76331509409487
 20
15.00000017692389
 30
0.0
 11
39.76331509409499
 21
0.4000001769239248
 31
0.0
  0
LINE
  5
5534
330
1A
100
AcDbEntity
  8
ZUWAKU
100
AcDbLine
 10
39.56331509409494
 20
15.00000017692389
 30
0.0
 11
39.56331509409494
 21
0.4000001769239248
 31
0.0
  0
LINE
  5
5535
330
1A
100
AcDbEntity
  8
ZUWAKU
100
AcDbLine
 10
32.07110639749135
 20
4.975000176923892
 30
0.0
 11
32.07110639749135
 21
11.36250017692389
 31
0.0
  0
LINE
  5
5536
330
1A
100
AcDbEntity
  8
ZUWAKU
100
AcDbLine
 10
30.67110639749131
 20
11.36250017692389
 30
0.0
 11
30.67110639749131
 21
5.50000017692389
 31
0.0
  0
LINE
  5
5537
330
1A
100
AcDbEntity
  8
ZUWAKU
100
AcDbLine
 10
34.52110639749133
 20
3.837500176923892
 30
0.0
 11
34.52110639749133
 21
11.36250017692389
 31
0.0
  0
LINE
  5
5538
330
1A
100
AcDbEntity
  8
ZUWAKU
100
AcDbLine
 10
33.1211063974913
 20
11.36250017692389
 30
0.0
 11
33.1211063974913
 21
3.837500176923892
 31
0.0
  0
ARC
  5
5539
330
1A
100
AcDbEntity
  8
ZUWAKU
100
AcDbCircle
 10
24.89610639749133
 20
9.317399164246243
 30
0.0
 40
0.7
100
AcDbArc
 50
180.0000000000016
 51
224.9999999999988
  0
ARC
  5
553A
330
1A
100
AcDbEntity
  8
ZUWAKU
100
AcDbCircle
 10
24.89610639749133
 20
9.317399164246243
 30
0.0
 40
2.099999999999999
100
AcDbArc
 50
180.0
 51
225.0
  0
LINE
  5
553B
330
1A
100
AcDbEntity
  8
ZUWAKU
100
AcDbLine
 10
18.65742963858031
 20
9.602523773705605
 30
0.0
 11
18.02505376591239
 21
7.600000176923902
 31
0.0
  0
LINE
  5
553C
330
1A
100
AcDbEntity
  8
ZUWAKU
100
AcDbLine
 10
20.34610639749132
 20
11.36250017692389
 30
0.0
 11
20.34610639749132
 21
3.837500176923892
 31
0.0
  0
LINE
  5
553D
330
1A
100
AcDbEntity
  8
ZUWAKU
100
AcDbLine
 10
21.7461063974913
 20
3.837500176923892
 30
0.0
 11
21.7461063974913
 21
11.36250017692389
 31
0.0
  0
LINE
  5
553E
330
1A
100
AcDbEntity
  8
ZUWAKU
100
AcDbLine
 10
27.52110639749133
 20
11.36250017692389
 30
0.0
 11
27.52110639749133
 21
4.975000176923892
 31
0.0
  0
LINE
  5
553F
330
1A
100
AcDbEntity
  8
ZUWAKU
100
AcDbLine
 10
28.92110639749131
 20
5.50000017692389
 30
0.0
 11
28.92110639749131
 21
11.36250017692389
 31
0.0
  0
LINE
  5
5540
330
1A
100
AcDbEntity
  8
ZUWAKU
100
AcDbLine
 10
16.32110639749134
 20
8.562500176923894
 30
0.0
 11
16.32110639749134
 21
11.36250017692389
 31
0.0
  0
LINE
  5
5541
330
1A
100
AcDbEntity
  8
ZUWAKU
100
AcDbLine
 10
14.92110639749131
 20
11.36250017692389
 30
0.0
 11
14.92110639749131
 21
3.837500176923892
 31
0.0
  0
LINE
  5
5542
330
1A
100
AcDbEntity
  8
ZUWAKU
100
AcDbLine
 10
17.83817386614924
 20
11.44154716100737
 30
0.0
 11
16.90403892883336
 21
8.483453192840407
 31
0.0
  0
LINE
  5
5543
330
1A
100
AcDbEntity
  8
ZUWAKU
100
AcDbLine
 10
30.14610639749133
 20
4.975000176923892
 30
0.0
 11
29.44610639749134
 21
4.975000176923892
 31
0.0
  0
LINE
  5
5544
330
1A
100
AcDbEntity
  8
ZUWAKU
100
AcDbLine
 10
28.92110639749131
 20
3.575000176923893
 30
0.0
 11
30.67110639749131
 21
3.575000176923893
 31
0.0
  0
LINE
  5
5545
330
1A
100
AcDbEntity
  8
ZUWAKU
100
AcDbLine
 10
20.60860639749131
 20
3.575000176923893
 30
0.0
 11
21.48360639749131
 21
3.575000176923893
 31
0.0
  0
LINE
  5
5546
330
1A
100
AcDbEntity
  8
ZUWAKU
100
AcDbLine
 10
17.83817386614924
 20
3.758453192840406
 30
0.0
 11
16.90403892883336
 21
6.716547161007376
 31
0.0
  0
ARC
  5
5547
330
1A
100
AcDbEntity
  8
ZUWAKU
100
AcDbCircle
 10
16.65372347923567
 20
8.562500176923894
 30
0.0
 40
0.2625
100
AcDbArc
 50
270.0
 51
342.4744316262769
  0
LINE
  5
5548
330
1A
100
AcDbEntity
  8
ZUWAKU
100
AcDbLine
 10
16.65372347923567
 20
8.300000176923891
 30
0.0
 11
16.58360639749133
 21
8.300000176923891
 31
0.0
  0
LINE
  5
5549
330
1A
100
AcDbEntity
  8
ZUWAKU
100
AcDbLine
 10
16.58360639749133
 20
6.900000176923892
 30
0.0
 11
16.65372347923567
 21
6.900000176923892
 31
0.0
  0
ARC
  5
554A
330
1A
100
AcDbEntity
  8
ZUWAKU
100
AcDbCircle
 10
16.58360639749133
 20
8.562500176923894
 30
0.0
 40
0.2625
100
AcDbArc
 50
180.0
 51
270.0
  0
LINE
  5
554B
330
1A
100
AcDbEntity
  8
ZUWAKU
100
AcDbLine
 10
15.1836063974913
 20
3.575000176923893
 30
0.0
 11
16.0586063974913
 21
3.575000176923893
 31
0.0
  0
ARC
  5
554C
330
1A
100
AcDbEntity
  8
ZUWAKU
100
AcDbCircle
 10
16.0586063974913
 20
3.837500176923892
 30
0.0
 40
0.2625
100
AcDbArc
 50
270.0
 51
0.0
  0
LINE
  5
554D
330
1A
100
AcDbEntity
  8
ZUWAKU
100
AcDbLine
 10
16.32110639749134
 20
3.837500176923892
 30
0.0
 11
16.32110639749134
 21
6.637500176923893
 31
0.0
  0
LINE
  5
554E
330
1A
100
AcDbEntity
  8
ZUWAKU
100
AcDbLine
 10
13.69610639749134
 20
4.712500176923892
 30
0.0
 11
13.69610639749134
 21
3.837500176923892
 31
0.0
  0
ARC
  5
554F
330
1A
100
AcDbEntity
  8
ZUWAKU
100
AcDbCircle
 10
13.4336063974913
 20
3.837500176923892
 30
0.0
 40
0.2625
100
AcDbArc
 50
270.0
 51
0.0
  0
ARC
  5
5550
330
1A
100
AcDbEntity
  8
ZUWAKU
100
AcDbCircle
 10
13.4336063974913
 20
4.712500176923892
 30
0.0
 40
0.2625
100
AcDbArc
 50
0.0
 51
90.0
  0
ARC
  5
5551
330
1A
100
AcDbEntity
  8
ZUWAKU
100
AcDbCircle
 10
15.1836063974913
 20
3.837500176923892
 30
0.0
 40
0.2625
100
AcDbArc
 50
180.0
 51
270.0
  0
ARC
  5
5552
330
1A
100
AcDbEntity
  8
ZUWAKU
100
AcDbCircle
 10
16.65372347923567
 20
6.637500176923893
 30
0.0
 40
0.2625
100
AcDbArc
 50
17.52556837372303
 51
90.0
  0
ARC
  5
5553
330
1A
100
AcDbEntity
  8
ZUWAKU
100
AcDbCircle
 10
16.58360639749133
 20
6.637500176923893
 30
0.0
 40
0.2625
100
AcDbArc
 50
90.0
 51
180.0
  0
ARC
  5
5554
330
1A
100
AcDbEntity
  8
ZUWAKU
100
AcDbCircle
 10
20.60860639749131
 20
3.837500176923892
 30
0.0
 40
0.2625
100
AcDbArc
 50
180.0
 51
270.0
  0
LINE
  5
5555
330
1A
100
AcDbEntity
  8
ZUWAKU
100
AcDbLine
 10
18.08848931574698
 20
3.575000176923893
 30
0.0
 11
18.93793400555148
 21
3.575000176923893
 31
0.0
  0
ARC
  5
5556
330
1A
100
AcDbEntity
  8
ZUWAKU
100
AcDbCircle
 10
18.93793400555148
 20
3.837500176923892
 30
0.0
 40
0.2625
100
AcDbArc
 50
270.0
 51
17.52556837372303
  0
LINE
  5
5557
330
1A
100
AcDbEntity
  8
ZUWAKU
100
AcDbLine
 10
19.18824945514922
 20
3.916547161007379
 30
0.0
 11
18.02505376591239
 21
7.600000176923902
 31
0.0
  0
ARC
  5
5558
330
1A
100
AcDbEntity
  8
ZUWAKU
100
AcDbCircle
 10
18.08848931574698
 20
3.837500176923892
 30
0.0
 40
0.2625
100
AcDbArc
 50
197.525568373723
 51
270.0
  0
ARC
  5
5559
330
1A
100
AcDbEntity
  8
ZUWAKU
100
AcDbCircle
 10
28.92110639749131
 20
4.975000176923892
 30
0.0
 40
1.399999999999999
100
AcDbArc
 50
180.0
 51
270.0
  0
ARC
  5
555A
330
1A
100
AcDbEntity
  8
ZUWAKU
100
AcDbCircle
 10
25.07110639749134
 20
4.975000176923892
 30
0.0
 40
1.399999999999999
100
AcDbArc
 50
270.0
 51
0.0
  0
LINE
  5
555B
330
1A
100
AcDbEntity
  8
ZUWAKU
100
AcDbLine
 10
25.85603063798311
 20
7.367525430093305
 30
0.0
 11
24.40113165066071
 21
8.822424417415643
 31
0.0
  0
LINE
  5
555C
330
1A
100
AcDbEntity
  8
ZUWAKU
100
AcDbLine
 10
25.07110639749134
 20
5.237500176923894
 30
0.0
 11
25.07110639749134
 21
5.882601189601565
 31
0.0
  0
ARC
  5
555D
330
1A
100
AcDbEntity
  8
ZUWAKU
100
AcDbCircle
 10
24.3711063974913
 20
5.882601189601565
 30
0.0
 40
0.7
100
AcDbArc
 50
0.0
 51
45.0
  0
ARC
  5
555E
330
1A
100
AcDbEntity
  8
ZUWAKU
100
AcDbCircle
 10
24.8086063974913
 20
5.237500176923894
 30
0.0
 40
0.2625
100
AcDbArc
 50
270.0
 51
0.0
  0
LINE
  5
555F
330
1A
100
AcDbEntity
  8
ZUWAKU
100
AcDbLine
 10
23.0586063974913
 20
3.837500176923892
 30
0.0
 11
23.0586063974913
 21
4.712500176923892
 31
0.0
  0
ARC
  5
5560
330
1A
100
AcDbEntity
  8
ZUWAKU
100
AcDbCircle
 10
23.32110639749135
 20
3.837500176923892
 30
0.0
 40
0.2625
100
AcDbArc
 50
180.0
 51
270.0
  0
ARC
  5
5561
330
1A
100
AcDbEntity
  8
ZUWAKU
100
AcDbCircle
 10
21.48360639749131
 20
3.837500176923892
 30
0.0
 40
0.2625
100
AcDbArc
 50
270.0
 51
0.0
  0
ARC
  5
5562
330
1A
100
AcDbEntity
  8
ZUWAKU
100
AcDbCircle
 10
23.32110639749135
 20
4.712500176923892
 30
0.0
 40
0.2625
100
AcDbArc
 50
90.0
 51
180.0
  0
LINE
  5
5563
330
1A
100
AcDbEntity
  8
ZUWAKU
100
AcDbLine
 10
23.32110639749135
 20
4.975000176923892
 30
0.0
 11
24.8086063974913
 21
4.975000176923892
 31
0.0
  0
LINE
  5
5564
330
1A
100
AcDbEntity
  8
ZUWAKU
100
AcDbLine
 10
23.32110639749135
 20
3.575000176923893
 30
0.0
 11
25.07110639749134
 21
3.575000176923893
 31
0.0
  0
LINE
  5
5565
330
1A
100
AcDbEntity
  8
ZUWAKU
100
AcDbLine
 10
23.41118215699958
 20
7.832474923754482
 30
0.0
 11
24.86608114432192
 21
6.377575936432151
 31
0.0
  0
LINE
  5
5566
330
1A
100
AcDbEntity
  8
ZUWAKU
100
AcDbLine
 10
26.47110639749132
 20
4.975000176923892
 30
0.0
 11
26.47110639749132
 21
5.882601189601565
 31
0.0
  0
ARC
  5
5567
330
1A
100
AcDbEntity
  8
ZUWAKU
100
AcDbCircle
 10
24.3711063974913
 20
5.882601189601544
 30
0.0
 40
2.099999999999999
100
AcDbArc
 50
0.0
 51
45.0
  0
ARC
  5
5568
330
1A
100
AcDbEntity
  8
ZUWAKU
100
AcDbCircle
 10
29.44610639749134
 20
5.50000017692389
 30
0.0
 40
0.525
100
AcDbArc
 50
180.0
 51
270.0
  0
ARC
  5
5569
330
1A
100
AcDbEntity
  8
ZUWAKU
100
AcDbCircle
 10
30.67110639749131
 20
4.975000176923892
 30
0.0
 40
1.399999999999999
100
AcDbArc
 50
270.0
 51
0.0
  0
LINE
  5
556A
330
1A
100
AcDbEntity
  8
ZUWAKU
100
AcDbLine
 10
33.38360639749135
 20
3.575000176923893
 30
0.0
 11
34.25860639749135
 21
3.575000176923893
 31
0.0
  0
ARC
  5
556B
330
1A
100
AcDbEntity
  8
ZUWAKU
100
AcDbCircle
 10
33.38360639749135
 20
3.837500176923892
 30
0.0
 40
0.2625
100
AcDbArc
 50
180.0
 51
270.0
  0
ARC
  5
556C
330
1A
100
AcDbEntity
  8
ZUWAKU
100
AcDbCircle
 10
30.14610639749133
 20
5.50000017692389
 30
0.0
 40
0.525
100
AcDbArc
 50
270.0
 51
0.0
  0
ARC
  5
556D
330
1A
100
AcDbEntity
  8
ZUWAKU
100
AcDbCircle
 10
34.25860639749135
 20
3.837500176923892
 30
0.0
 40
0.2625
100
AcDbArc
 50
270.0
 51
0.0
  0
LINE
  5
556E
330
1A
100
AcDbEntity
  8
ZUWAKU
100
AcDbLine
 10
21.48360639749131
 20
11.62500017692389
 30
0.0
 11
20.60860639749131
 21
11.62500017692389
 31
0.0
  0
ARC
  5
556F
330
1A
100
AcDbEntity
  8
ZUWAKU
100
AcDbCircle
 10
16.0586063974913
 20
11.36250017692389
 30
0.0
 40
0.2625
100
AcDbArc
 50
0.0
 51
90.0
  0
LINE
  5
5570
330
1A
100
AcDbEntity
  8
ZUWAKU
100
AcDbLine
 10
16.0586063974913
 20
11.62500017692389
 30
0.0
 11
15.1836063974913
 21
11.62500017692389
 31
0.0
  0
ARC
  5
5571
330
1A
100
AcDbEntity
  8
ZUWAKU
100
AcDbCircle
 10
13.4336063974913
 20
11.36250017692389
 30
0.0
 40
0.2625
100
AcDbArc
 50
0.0
 51
90.0
  0
ARC
  5
5572
330
1A
100
AcDbEntity
  8
ZUWAKU
100
AcDbCircle
 10
15.1836063974913
 20
11.36250017692389
 30
0.0
 40
0.2625
100
AcDbArc
 50
90.0
 51
180.0
  0
ARC
  5
5573
330
1A
100
AcDbEntity
  8
ZUWAKU
100
AcDbCircle
 10
13.4336063974913
 20
10.48750017692389
 30
0.0
 40
0.2625
100
AcDbArc
 50
270.0
 51
0.0
  0
LINE
  5
5574
330
1A
100
AcDbEntity
  8
ZUWAKU
100
AcDbLine
 10
13.69610639749134
 20
11.36250017692389
 30
0.0
 11
13.69610639749134
 21
10.48750017692389
 31
0.0
  0
ARC
  5
5575
330
1A
100
AcDbEntity
  8
ZUWAKU
100
AcDbCircle
 10
20.60860639749131
 20
11.36250017692389
 30
0.0
 40
0.2625
100
AcDbArc
 50
90.0
 51
180.0
  0
LINE
  5
5576
330
1A
100
AcDbEntity
  8
ZUWAKU
100
AcDbLine
 10
18.08848931574698
 20
11.62500017692389
 30
0.0
 11
18.93793400555148
 21
11.62500017692389
 31
0.0
  0
ARC
  5
5577
330
1A
100
AcDbEntity
  8
ZUWAKU
100
AcDbCircle
 10
18.93793400555148
 20
11.36250017692389
 30
0.0
 40
0.2625
100
AcDbArc
 50
342.4744316262769
 51
90.0
  0
LINE
  5
5578
330
1A
100
AcDbEntity
  8
ZUWAKU
100
AcDbLine
 10
19.18824945514922
 20
11.2834531928404
 30
0.0
 11
18.65742963858031
 21
9.602523773705605
 31
0.0
  0
ARC
  5
5579
330
1A
100
AcDbEntity
  8
ZUWAKU
100
AcDbCircle
 10
18.08848931574698
 20
11.36250017692389
 30
0.0
 40
0.2625
100
AcDbArc
 50
90.0
 51
162.4744316262769
  0
LINE
  5
557A
330
1A
100
AcDbEntity
  8
ZUWAKU
100
AcDbLine
 10
24.19610639749135
 20
11.62500017692389
 30
0.0
 11
25.94610639749134
 21
11.62500017692389
 31
0.0
  0
LINE
  5
557B
330
1A
100
AcDbEntity
  8
ZUWAKU
100
AcDbLine
 10
25.94610639749134
 20
10.22500017692389
 30
0.0
 11
24.45860639749133
 21
10.22500017692389
 31
0.0
  0
ARC
  5
557C
330
1A
100
AcDbEntity
  8
ZUWAKU
100
AcDbCircle
 10
24.45860639749133
 20
9.962500176923892
 30
0.0
 40
0.2625
100
AcDbArc
 50
90.0
 51
180.0
  0
LINE
  5
557D
330
1A
100
AcDbEntity
  8
ZUWAKU
100
AcDbLine
 10
24.19610639749135
 20
9.962500176923892
 30
0.0
 11
24.19610639749135
 21
9.317399164246221
 31
0.0
  0
ARC
  5
557E
330
1A
100
AcDbEntity
  8
ZUWAKU
100
AcDbCircle
 10
21.48360639749131
 20
11.36250017692389
 30
0.0
 40
0.2625
100
AcDbArc
 50
0.0
 51
90.0
  0
LINE
  5
557F
330
1A
100
AcDbEntity
  8
ZUWAKU
100
AcDbLine
 10
22.79610639749131
 20
10.22500017692389
 30
0.0
 11
22.79610639749131
 21
9.317399164246221
 31
0.0
  0
ARC
  5
5580
330
1A
100
AcDbEntity
  8
ZUWAKU
100
AcDbCircle
 10
24.19610639749135
 20
10.22500017692389
 30
0.0
 40
1.399999999999999
100
AcDbArc
 50
90.0
 51
180.0
  0
ARC
  5
5581
330
1A
100
AcDbEntity
  8
ZUWAKU
100
AcDbCircle
 10
28.65860639749132
 20
11.36250017692389
 30
0.0
 40
0.2625
100
AcDbArc
 50
0.0
 51
90.0
  0
ARC
  5
5582
330
1A
100
AcDbEntity
  8
ZUWAKU
100
AcDbCircle
 10
27.78360639749132
 20
11.36250017692389
 30
0.0
 40
0.2625
100
AcDbArc
 50
90.0
 51
180.0
  0
LINE
  5
5583
330
1A
100
AcDbEntity
  8
ZUWAKU
100
AcDbLine
 10
28.65860639749132
 20
11.62500017692389
 30
0.0
 11
27.78360639749132
 21
11.62500017692389
 31
0.0
  0
ARC
  5
5584
330
1A
100
AcDbEntity
  8
ZUWAKU
100
AcDbCircle
 10
25.94610639749134
 20
11.36250017692389
 30
0.0
 40
0.2625
100
AcDbArc
 50
0.0
 51
90.0
  0
ARC
  5
5585
330
1A
100
AcDbEntity
  8
ZUWAKU
100
AcDbCircle
 10
25.94610639749134
 20
10.48750017692389
 30
0.0
 40
0.2625
100
AcDbArc
 50
270.0
 51
0.0
  0
LINE
  5
5586
330
1A
100
AcDbEntity
  8
ZUWAKU
100
AcDbLine
 10
26.20860639749134
 20
11.36250017692389
 30
0.0
 11
26.20860639749134
 21
10.48750017692389
 31
0.0
  0
LINE
  5
5587
330
1A
100
AcDbEntity
  8
ZUWAKU
100
AcDbLine
 10
34.25860639749135
 20
11.62500017692389
 30
0.0
 11
33.38360639749135
 21
11.62500017692389
 31
0.0
  0
ARC
  5
5588
330
1A
100
AcDbEntity
  8
ZUWAKU
100
AcDbCircle
 10
33.38360639749135
 20
11.36250017692389
 30
0.0
 40
0.2625
100
AcDbArc
 50
90.0
 51
180.0
  0
ARC
  5
5589
330
1A
100
AcDbEntity
  8
ZUWAKU
100
AcDbCircle
 10
31.8086063974913
 20
11.36250017692389
 30
0.0
 40
0.2625
100
AcDbArc
 50
0.0
 51
90.0
  0
LINE
  5
558A
330
1A
100
AcDbEntity
  8
ZUWAKU
100
AcDbLine
 10
31.8086063974913
 20
11.62500017692389
 30
0.0
 11
30.9336063974913
 21
11.62500017692389
 31
0.0
  0
ARC
  5
558B
330
1A
100
AcDbEntity
  8
ZUWAKU
100
AcDbCircle
 10
30.9336063974913
 20
11.36250017692389
 30
0.0
 40
0.2625
100
AcDbArc
 50
90.0
 51
180.0
  0
ARC
  5
558C
330
1A
100
AcDbEntity
  8
ZUWAKU
100
AcDbCircle
 10
34.25860639749135
 20
11.36250017692389
 30
0.0
 40
0.2625
100
AcDbArc
 50
0.0
 51
90.0
  0
TEXT
  5
558D
330
1A
100
AcDbEntity
  8
MOJI
100
AcDbText
 10
119.9136016605262
 20
9.002460705627584
 30
0.0
 40
2.799999999999999
  1
ブラケット正面打（吊）ワンタッチ自在式
 41
0.9
  7
ｽﾀｲﾙ1
100
AcDbText
  0
TEXT
  5
558E
330
1A
100
AcDbEntity
  8
MOJI
100
AcDbText
 10
119.9136016605262
 20
1.602460705627601
 30
0.0
 40
2.799999999999999
  1
ＲＶ１０５－６－４５～６０
 41
0.9
  7
ｽﾀｲﾙ1
100
AcDbText
  0
LINE
  5
558F
330
1A
100
AcDbEntity
  8
ZUWAKU
100
AcDbLine
 10
104.1233009651347
 20
15.00000017692389
 30
0.0
 11
104.1233009651347
 21
0.4000001769239248
 31
0.0
  0
LINE
  5
5590
330
1A
100
AcDbEntity
  8
ZUWAKU
100
AcDbLine
 10
104.3233009651346
 20
15.00000017692389
 30
0.0
 11
104.3233009651347
 21
0.4000001769239248
 31
0.0
  0
LINE
  5
5591
330
1A
100
AcDbEntity
  8
ZUWAKU
100
AcDbLine
 10
104.2233009651346
 20
15.00000017692389
 30
0.0
 11
104.2233009651347
 21
0.4000001769239248
 31
0.0
  0
TEXT
  5
5592
330
1A
100
AcDbEntity
  8
ZUWAKU
100
AcDbText
 10
104.8620234762395
 20
4.827678446116699
 30
0.0
 40
2.0
  1
サイズ
 41
0.9
  7
ｽﾀｲﾙ1
100
AcDbText
  0
TEXT
  5
5593
330
1A
100
AcDbEntity
  8
ZUWAKU
100
AcDbText
 10
104.8620234762394
 20
12.02767844611668
 30
0.0
 40
2.0
  1
品名
 41
0.9
  7
ｽﾀｲﾙ1
100
AcDbText
  0
LINE
  5
5594
330
1A
100
AcDbEntity
  8
ZUWAKU
100
AcDbLine
 10
324.4086015752028
 20
7.600000176923906
 30
0.0
 11
348.6245055943713
 21
7.600000176923908
 31
0.0
  0
LINE
  5
5595
330
1A
100
AcDbEntity
  8
ZUWAKU
100
AcDbLine
 10
324.4086015752029
 20
7.700000176923909
 30
0.0
 11
348.6245055943713
 21
7.700000176923907
 31
0.0
  0
LINE
  5
5596
330
1A
100
AcDbEntity
  8
ZUWAKU
100
AcDbLine
 10
324.4086015752028
 20
7.800000176923907
 30
0.0
 11
348.6245055943713
 21
7.800000176923907
 31
0.0
  0
TEXT
  5
5597
330
1A
100
AcDbEntity
  8
ZUWAKU
100
AcDbText
 10
329.1019691637519
 20
9.002460705627584
 30
0.0
 40
2.799999999999999
  1
　　．　　．　　
 41
0.9
  7
ｽﾀｲﾙ1
100
AcDbText
  0
LINE
  5
5598
330
1A
100
AcDbEntity
  8
ZUWAKU
100
AcDbLine
 10
252.5995900691711
 20
7.600000176923909
 30
0.0
 11
276.2634782031569
 21
7.600000176923909
 31
0.0
  0
LINE
  5
5599
330
1A
100
AcDbEntity
  8
ZUWAKU
100
AcDbLine
 10
252.5995900691711
 20
7.700000176923907
 30
0.0
 11
276.2634782031569
 21
7.700000176923907
 31
0.0
  0
LINE
  5
559A
330
1A
100
AcDbEntity
  8
ZUWAKU
100
AcDbLine
 10
252.5995900691711
 20
7.800000176923907
 30
0.0
 11
276.2634782031569
 21
7.800000176923907
 31
0.0
  0
TEXT
  5
559B
330
1A
100
AcDbEntity
  8
MOJI
100
AcDbText
 10
231.283639481095
 20
5.971309037753883
 30
0.0
 40
2.799999999999999
  1
ＬＫ１８Ｔ
 41
0.9
  7
ｽﾀｲﾙ1
100
AcDbText
  0
LINE
  5
559C
330
1A
100
AcDbEntity
  8
ZUWAKU
100
AcDbLine
 10
223.8121823055963
 20
15.00000017692389
 30
0.0
 11
223.8121823055964
 21
0.4000001769239248
 31
0.0
  0
LINE
  5
559D
330
1A
100
AcDbEntity
  8
ZUWAKU
100
AcDbLine
 10
223.9121823055963
 20
15.00000017692389
 30
0.0
 11
223.9121823055965
 21
0.4000001769239248
 31
0.0
  0
LINE
  5
559E
330
1A
100
AcDbEntity
  8
ZUWAKU
100
AcDbLine
 10
223.7121823055964
 20
15.00000017692389
 30
0.0
 11
223.7121823055964
 21
0.4000001769239248
 31
0.0
  0
TEXT
  5
559F
330
1A
100
AcDbEntity
  8
MOJI
100
AcDbText
 10
264.0204543062572
 20
9.002460705627584
 30
0.0
 40
2.799999999999999
  1
Ａ３
 41
0.9
  7
ｽﾀｲﾙ1
100
AcDbText
  0
LINE
  5
55A0
330
1A
100
AcDbEntity
  8
ZUWAKU
100
AcDbLine
 10
252.4995900691711
 20
15.00000017692389
 30
0.0
 11
252.4995900691712
 21
0.4000001769239248
 31
0.0
  0
LINE
  5
55A1
330
1A
100
AcDbEntity
  8
ZUWAKU
100
AcDbLine
 10
252.5995900691711
 20
15.00000017692389
 30
0.0
 11
252.5995900691713
 21
0.4000001769239248
 31
0.0
  0
LINE
  5
55A2
330
1A
100
AcDbEntity
  8
ZUWAKU
100
AcDbLine
 10
252.3995900691712
 20
15.00000017692389
 30
0.0
 11
252.3995900691712
 21
0.4000001769239248
 31
0.0
  0
TEXT
  5
55A3
330
1A
100
AcDbEntity
  8
ZUWAKU
100
AcDbText
 10
253.3383125802761
 20
4.827678446116699
 30
0.0
 40
2.0
  1
縮尺
 41
0.9
  7
ｽﾀｲﾙ1
100
AcDbText
  0
TEXT
  5
55A4
330
1A
100
AcDbEntity
  8
MOJI
100
AcDbText
 10
264.0204543062572
 20
1.602460705627601
 30
0.0
 40
2.799999999999999
  1
１/１
 41
0.9
  7
ｽﾀｲﾙ1
100
AcDbText
  0
TEXT
  5
55A5
330
1A
100
AcDbEntity
  8
ZUWAKU
100
AcDbText
 10
224.6509048167012
 20
12.02767844611668
 30
0.0
 40
2.0
  1
品番
 41
0.9
  7
ｽﾀｲﾙ1
100
AcDbText
  0
TEXT
  5
55A6
330
1A
100
AcDbEntity
  8
ZUWAKU
100
AcDbText
 10
253.338312580276
 20
12.02767844611668
 30
0.0
 40
2.0
  1
用紙
 41
0.9
  7
ｽﾀｲﾙ1
100
AcDbText
  0
LINE
  5
55A7
330
1A
100
AcDbEntity
  8
ZUWAKU
100
AcDbLine
 10
324.3086015752029
 20
15.00000017692389
 30
0.0
 11
324.308601575203
 21
0.4000001769239248
 31
0.0
  0
LINE
  5
55A8
330
1A
100
AcDbEntity
  8
ZUWAKU
100
AcDbLine
 10
324.4086015752029
 20
15.00000017692389
 30
0.0
 11
324.4086015752031
 21
0.4000001769239248
 31
0.0
  0
LINE
  5
55A9
330
1A
100
AcDbEntity
  8
ZUWAKU
100
AcDbLine
 10
324.208601575203
 20
15.00000017692389
 30
0.0
 11
324.208601575203
 21
0.4000001769239248
 31
0.0
  0
LINE
  5
55AA
330
1A
100
AcDbEntity
  8
ZUWAKU
100
AcDbLine
 10
276.3634782031568
 20
15.00000017692389
 30
0.0
 11
276.3634782031569
 21
0.4000001769239248
 31
0.0
  0
LINE
  5
55AB
330
1A
100
AcDbEntity
  8
ZUWAKU
100
AcDbLine
 10
276.4634782031569
 20
15.00000017692389
 30
0.0
 11
276.463478203157
 21
0.4000001769239248
 31
0.0
  0
LINE
  5
55AC
330
1A
100
AcDbEntity
  8
ZUWAKU
100
AcDbLine
 10
276.2634782031569
 20
15.00000017692389
 30
0.0
 11
276.2634782031569
 21
0.4000001769239248
 31
0.0
  0
TEXT
  5
55AD
330
1A
100
AcDbEntity
  8
ZUWAKU
100
AcDbText
 10
325.1473240863077
 20
12.02767844611668
 30
0.0
 40
2.0
  1
DATE
 41
0.9
  7
ｽﾀｲﾙ1
100
AcDbText
  0
LINE
  5
55AE
330
1A
100
AcDbEntity
  8
ZUWAKU
100
AcDbLine
 10
348.6245055943713
 20
15.00000017692389
 30
0.0
 11
348.6245055943713
 21
0.4000001769239248
 31
0.0
  0
LINE
  5
55AF
330
1A
100
AcDbEntity
  8
ZUWAKU
100
AcDbLine
 10
348.7245055943714
 20
15.00000017692389
 30
0.0
 11
348.7245055943714
 21
0.4000001769239248
 31
0.0
  0
LINE
  5
55B0
330
1A
100
AcDbEntity
  8
ZUWAKU
100
AcDbLine
 10
348.8245055943713
 20
15.00000017692389
 30
0.0
 11
348.8245055943714
 21
0.4000001769239248
 31
0.0
  0
LINE
  5
55B1
330
1A
100
AcDbEntity
  8
ZUWAKU
100
AcDbLine
 10
348.9245055943713
 20
15.00000017692389
 30
0.0
 11
348.9245055943714
 21
0.4000001769239248
 31
0.0
  0
TEXT
  5
55B2
330
1A
100
AcDbEntity
  8
ZUWAKU
100
AcDbText
 10
354.2640424162226
 20
8.776919844767292
 30
0.0
 40
3.0
  1
積水化学工業株式会社
 41
0.9
  7
ｽﾀｲﾙ1
100
AcDbText
  0
TEXT
  5
55B3
330
1A
100
AcDbEntity
  8
ZUWAKU
100
AcDbText
 10
354.2640424162226
 20
3.324420333850923
 30
0.0
 40
3.0
  1
建材事業部
 41
0.9
  7
ｽﾀｲﾙ1
100
AcDbText
  0
VIEWPORT
  5
22
330
17
100
AcDbEntity
 67
     1
  8
0
100
AcDbViewport
 10
313.6808219178082
 20
148.5
 30
0.0
 40
627.3616438356165
 41
297.0
 68
     2
 69
     1
1001
ACAD
1000
MVIEW
1002
{
1070
    16
1010
0.0
1020
0.0
1030
0.0
1010
0.0
1020
0.0
1030
1.0
1040
0.0
1040
297.0
1040
313.6808219178082
1040
148.5
1040
50.0
1040
0.0
1040
0.0
1070
     0
1070
   100
1070
     1
1070
     0
1070
     0
1070
     0
1070
     0
1070
     0
1040
0.0
1040
0.0
1040
0.0
1040
1.0
1040
1.0
1040
10.0
1040
10.0
1070
     0
1002
{
1002
}
1002
}
  0
VIEWPORT
  5
64
330
17
100
AcDbEntity
 67
     1
  8
VIEWPORT
100
AcDbViewport
 10
210.0
 20
148.5
 30
0.0
 40
420.0
 41
297.0
 68
     1
 69
     2
1001
ACAD
1000
MVIEW
1002
{
1070
    16
1010
0.0
1020
0.0
1030
0.0
1010
0.0
1020
0.0
1030
1.0
1040
0.0
1040
302.9399999999998
1040
210.0
1040
148.5
1040
50.0
1040
0.0
1040
0.0
1070
     0
1070
   100
1070
     1
1070
     0
1070
     0
1070
     0
1070
     0
1070
     0
1040
0.0
1040
0.0
1040
0.0
1040
5.0
1040
5.0
1040
0.0
1040
0.0
1070
     0
1002
{
1002
}
1002
}
  0
ENDSEC
  0
SECTION
  2
OBJECTS
  0
DICTIONARY
  5
C
330
0
100
AcDbDictionary
  3
ACAD_GROUP
350
D
  3
ACAD_LAYOUT
350
141
  3
ACAD_MLINESTYLE
350
E
  3
ACAD_PLOTSETTINGS
350
142
  3
ACAD_PLOTSTYLENAME
350
13F
  3
ACDBHEADERROUNDTRIPXREC
350
55BB
  0
DICTIONARY
  5
73C
330
1A
100
AcDbDictionary
280
     1
  3
ACAD_LAYOUTSELFREF
360
55DD
  0
DICTIONARY
  5
73A
330
17
100
AcDbDictionary
280
     1
  3
ACAD_LAYOUTSELFREF
360
55DC
  0
DICTIONARY
  5
D
102
{ACAD_REACTORS
330
C
102
}
330
C
100
AcDbDictionary
  0
DICTIONARY
  5
141
102
{ACAD_REACTORS
330
C
102
}
330
C
100
AcDbDictionary
  0
DICTIONARY
  5
E
102
{ACAD_REACTORS
330
C
102
}
330
C
100
AcDbDictionary
  3
STANDARD
350
13
  0
DICTIONARY
  5
142
102
{ACAD_REACTORS
330
C
102
}
330
C
100
AcDbDictionary
  0
ACDBDICTIONARYWDFLT
  5
13F
102
{ACAD_REACTORS
330
C
102
}
330
C
100
AcDbDictionary
281
     1
  3
Normal
350
140
100
AcDbDictionaryWithDefault
340
140
1001
ACAD
1000
TREAT_AS_HARD
1070
     0
1000
TREAT_AS_HARD
1070
     0
1000
TREAT_AS_HARD
1070
     0
1000
TREAT_AS_HARD
1070
     0
1000
TREAT_AS_HARD
1070
     0
1000
TREAT_AS_HARD
1070
     0
1000
TREAT_AS_HARD
1070
     0
1000
TREAT_AS_HARD
1070
     0
1000
TREAT_AS_HARD
1070
     0
1000
TREAT_AS_HARD
1070
     0
1000
TREAT_AS_HARD
1070
     0
  0
DICTIONARY
  5
55BB
102
{ACAD_REACTORS
330
C
102
}
330
C
100
AcDbDictionary
  3
TSTACKALIGN
350
55BC
  3
TSTACKSIZE
350
55BD
  3
HYPERLINKBASE
350
55BE
  3
STYLESHEET
350
55BF
  3
LAYOUTDICT
350
55C0
  3
PLOTSETDICT
350
55C1
  3
PLOTSTYLNAMDICT
350
55C2
  3
LWETCUNION
350
55C3
  3
INSUNITS
350
55C4
  3
CEPSNTYPE
350
55C5
  3
FINGERPRINTGUID
350
55C6
  3
VERSIONGUID
350
55C7
  3
PSVPSCALE
350
55C8
  3
DIMSTYLEDATA
350
55C9
  3
PUCSORTHOREF
350
55CA
  3
PUCSORTHOVIEW
350
55CB
  3
PUCSBASE
350
55CC
  3
PUCSORGTOP
350
55CD
  3
PUCSORGBOTTOM
350
55CE
  3
PUCSORGLEFT
350
55CF
  3
PUCSORGRIGHT
350
55D0
  3
PUCSORGFRONT
350
55D1
  3
PUCSORGBACK
350
55D2
  3
UCSORTHOREF
350
55D3
  3
UCSORTHOVIEW
350
55D4
  3
UCSBASE
350
55D5
  3
UCSORGTOP
350
55D6
  3
UCSORGBOTTOM
350
55D7
  3
UCSORGLEFT
350
55D8
  3
UCSORGRIGHT
350
55D9
  3
UCSORGFRONT
350
55DA
  3
UCSORGBACK
350
55DB
  0
XRECORD
  5
55DD
102
{ACAD_REACTORS
330
73C
102
}
330
73C
100
AcDbXrecord
340
1A
  0
XRECORD
  5
55DC
102
{ACAD_REACTORS
330
73A
102
}
330
73A
100
AcDbXrecord
340
17
  0
MLINESTYLE
  5
13
102
{ACAD_REACTORS
330
E
102
}
330
E
100
AcDbMlineStyle
  2
STANDARD
 70
     0
  3

 62
     0
 51
90.0
 52
90.0
 71
     2
 49
0.5
 62
   256
  6
BYLAYER
 49
-0.5
 62
   256
  6
BYLAYER
  0
ACDBPLACEHOLDER
  5
140
102
{ACAD_REACTORS
330
13F
102
}
330
13F
100
AcDbPlaceHolder
280
     0
  0
XRECORD
  5
55BC
102
{ACAD_REACTORS
330
55BB
102
}
330
55BB
100
AcDbXrecord
 90
        1
  0
XRECORD
  5
55BD
102
{ACAD_REACTORS
330
55BB
102
}
330
55BB
100
AcDbXrecord
 90
       70
  0
XRECORD
  5
55BE
102
{ACAD_REACTORS
330
55BB
102
}
330
55BB
100
AcDbXrecord
  1

  0
XRECORD
  5
55BF
102
{ACAD_REACTORS
330
55BB
102
}
330
55BB
100
AcDbXrecord
  1
systemprinter.ctb
  0
XRECORD
  5
55C0
102
{ACAD_REACTORS
330
55BB
102
}
330
55BB
100
AcDbXrecord
340
141
  0
XRECORD
  5
55C1
102
{ACAD_REACTORS
330
55BB
102
}
330
55BB
100
AcDbXrecord
340
142
  0
XRECORD
  5
55C2
102
{ACAD_REACTORS
330
55BB
102
}
330
55BB
100
AcDbXrecord
340
13F
  0
XRECORD
  5
55C3
102
{ACAD_REACTORS
330
55BB
102
}
330
55BB
100
AcDbXrecord
 90
    10781
  0
XRECORD
  5
55C4
102
{ACAD_REACTORS
330
55BB
102
}
330
55BB
100
AcDbXrecord
 90
        0
  0
XRECORD
  5
55C5
102
{ACAD_REACTORS
330
55BB
102
}
330
55BB
100
AcDbXrecord
 90
        0
  0
XRECORD
  5
55C6
102
{ACAD_REACTORS
330
55BB
102
}
330
55BB
100
AcDbXrecord
  1
{4E8D0500-CDD1-11D3-932C-444553540000}
  0
XRECORD
  5
55C7
102
{ACAD_REACTORS
330
55BB
102
}
330
55BB
100
AcDbXrecord
  1
{F04DF3F1-8CAC-40D3-8DA5-AB38901E7ECC}
  0
XRECORD
  5
55C8
102
{ACAD_REACTORS
330
55BB
102
}
330
55BB
100
AcDbXrecord
 40
0.0
  0
XRECORD
  5
55C9
102
{ACAD_REACTORS
330
55BB
102
}
330
55BB
100
AcDbXrecord
1000
DSTYLE
1002
{
1070
   341
340
B2
1070
   343
340
B2
1070
   344
340
B2
1070
   371
 70
    -1
1070
   372
 70
    -1
1002
}
  0
XRECORD
  5
55CA
102
{ACAD_REACTORS
330
55BB
102
}
330
55BB
100
AcDbXrecord
340
0
  0
XRECORD
  5
55CB
102
{ACAD_REACTORS
330
55BB
102
}
330
55BB
100
AcDbXrecord
 70
     0
  0
XRECORD
  5
55CC
102
{ACAD_REACTORS
330
55BB
102
}
330
55BB
100
AcDbXrecord
340
0
  0
XRECORD
  5
55CD
102
{ACAD_REACTORS
330
55BB
102
}
330
55BB
100
AcDbXrecord
 10
0.0
 20
0.0
 30
0.0
  0
XRECORD
  5
55CE
102
{ACAD_REACTORS
330
55BB
102
}
330
55BB
100
AcDbXrecord
 10
0.0
 20
0.0
 30
0.0
  0
XRECORD
  5
55CF
102
{ACAD_REACTORS
330
55BB
102
}
330
55BB
100
AcDbXrecord
 10
0.0
 20
0.0
 30
0.0
  0
XRECORD
  5
55D0
102
{ACAD_REACTORS
330
55BB
102
}
330
55BB
100
AcDbXrecord
 10
0.0
 20
0.0
 30
0.0
  0
XRECORD
  5
55D1
102
{ACAD_REACTORS
330
55BB
102
}
330
55BB
100
AcDbXrecord
 10
0.0
 20
0.0
 30
0.0
  0
XRECORD
  5
55D2
102
{ACAD_REACTORS
330
55BB
102
}
330
55BB
100
AcDbXrecord
 10
0.0
 20
0.0
 30
0.0
  0
XRECORD
  5
55D3
102
{ACAD_REACTORS
330
55BB
102
}
330
55BB
100
AcDbXrecord
340
0
  0
XRECORD
  5
55D4
102
{ACAD_REACTORS
330
55BB
102
}
330
55BB
100
AcDbXrecord
 70
     0
  0
XRECORD
  5
55D5
102
{ACAD_REACTORS
330
55BB
102
}
330
55BB
100
AcDbXrecord
340
0
  0
XRECORD
  5
55D6
102
{ACAD_REACTORS
330
55BB
102
}
330
55BB
100
AcDbXrecord
 10
0.0
 20
0.0
 30
0.0
  0
XRECORD
  5
55D7
102
{ACAD_REACTORS
330
55BB
102
}
330
55BB
100
AcDbXrecord
 10
0.0
 20
0.0
 30
0.0
  0
XRECORD
  5
55D8
102
{ACAD_REACTORS
330
55BB
102
}
330
55BB
100
AcDbXrecord
 10
0.0
 20
0.0
 30
0.0
  0
XRECORD
  5
55D9
102
{ACAD_REACTORS
330
55BB
102
}
330
55BB
100
AcDbXrecord
 10
0.0
 20
0.0
 30
0.0
  0
XRECORD
  5
55DA
102
{ACAD_REACTORS
330
55BB
102
}
330
55BB
100
AcDbXrecord
 10
0.0
 20
0.0
 30
0.0
  0
XRECORD
  5
55DB
102
{ACAD_REACTORS
330
55BB
102
}
330
55BB
100
AcDbXrecord
 10
0.0
 20
0.0
 30
0.0
  0
ENDSEC
  0
EOF
