  0
SECTION
  2
HEADER
  9
$ACADVER
  1
AC1014
  9
$ACADMAINTVER
 70
     9
  9
$DWGCODEPAGE
  3
ANSI_932
  9
$INSBASE
 10
0.0
 20
0.0
 30
0.0
  9
$EXTMIN
 10
-0.0000003224365628
 20
0.0000000308041308
 30
-0.00000001
  9
$EXTMAX
 10
398.7999996775635
 20
275.8000000308042
 30
0.00000001
  9
$LIMMIN
 10
0.0
 20
0.0
  9
$LIMMAX
 10
420.0
 20
297.0
  9
$ORTHOMODE
 70
     1
  9
$REGENMODE
 70
     1
  9
$FILLMODE
 70
     1
  9
$QTEXTMODE
 70
     0
  9
$MIRRTEXT
 70
     1
  9
$DRAGMODE
 70
     2
  9
$LTSCALE
 40
5.0
  9
$OSMODE
 70
    37
  9
$ATTMODE
 70
     1
  9
$TEXTSIZE
 40
3.0
  9
$TRACEWID
 40
1.0
  9
$TEXTSTYLE
  7
STANDARD
  9
$CLAYER
  8
SUNPOU
  9
$CELTYPE
  6
BYLAYER
  9
$CECOLOR
 62
   256
  9
$CELTSCALE
 40
1.0
  9
$DELOBJ
 70
     1
  9
$DISPSILH
 70
     0
  9
$DIMSCALE
 40
1.0
  9
$DIMASZ
 40
3.0
  9
$DIMEXO
 40
3.0
  9
$DIMDLI
 40
7.0
  9
$DIMRND
 40
0.0
  9
$DIMDLE
 40
0.0
  9
$DIMEXE
 40
1.5
  9
$DIMTP
 40
0.0
  9
$DIMTM
 40
0.0
  9
$DIMTXT
 40
3.0
  9
$DIMCEN
 40
3.0
  9
$DIMTSZ
 40
0.0
  9
$DIMTOL
 70
     0
  9
$DIMLIM
 70
     0
  9
$DIMTIH
 70
     0
  9
$DIMTOH
 70
     0
  9
$DIMSE1
 70
     0
  9
$DIMSE2
 70
     0
  9
$DIMTAD
 70
     3
  9
$DIMZIN
 70
     0
  9
$DIMBLK
  1

  9
$DIMASO
 70
     1
  9
$DIMSHO
 70
     1
  9
$DIMPOST
  1

  9
$DIMAPOST
  1

  9
$DIMALT
 70
     0
  9
$DIMALTD
 70
     2
  9
$DIMALTF
 40
25.4
  9
$DIMLFAC
 40
1.0
  9
$DIMTOFL
 70
     1
  9
$DIMTVP
 40
0.0
  9
$DIMTIX
 70
     0
  9
$DIMSOXD
 70
     0
  9
$DIMSAH
 70
     1
  9
$DIMBLK1
  1
OPEN
  9
$DIMBLK2
  1
OPEN
  9
$DIMSTYLE
  2
STANDARD
  9
$DIMCLRD
 70
   256
  9
$DIMCLRE
 70
   256
  9
$DIMCLRT
 70
   256
  9
$DIMTFAC
 40
1.0
  9
$DIMGAP
 40
1.0
  9
$DIMJUST
 70
     0
  9
$DIMSD1
 70
     0
  9
$DIMSD2
 70
     0
  9
$DIMTOLJ
 70
     1
  9
$DIMTZIN
 70
     0
  9
$DIMALTZ
 70
     0
  9
$DIMALTTZ
 70
     0
  9
$DIMFIT
 70
     3
  9
$DIMUPT
 70
     0
  9
$DIMUNIT
 70
     2
  9
$DIMDEC
 70
     0
  9
$DIMTDEC
 70
     0
  9
$DIMALTU
 70
     2
  9
$DIMALTTD
 70
     2
  9
$DIMTXSTY
  7
STANDARD
  9
$DIMAUNIT
 70
     0
  9
$LUNITS
 70
     2
  9
$LUPREC
 70
     4
  9
$SKETCHINC
 40
1.0
  9
$FILLETRAD
 40
2.0
  9
$AUNITS
 70
     0
  9
$AUPREC
 70
     0
  9
$MENU
  1
.
  9
$ELEVATION
 40
0.0
  9
$PELEVATION
 40
0.0
  9
$THICKNESS
 40
0.0
  9
$LIMCHECK
 70
     0
  9
$BLIPMODE
 70
     0
  9
$CHAMFERA
 40
10.0
  9
$CHAMFERB
 40
10.0
  9
$CHAMFERC
 40
20.0
  9
$CHAMFERD
 40
0.0
  9
$SKPOLY
 70
     0
  9
$TDCREATE
 40
2451589.469382176
  9
$TDUPDATE
 40
2454515.419154514
  9
$TDINDWG
 40
0.2588370139
  9
$TDUSRTIMER
 40
0.2588370139
  9
$USRTIMER
 70
     1
  9
$ANGBASE
 50
0.0
  9
$ANGDIR
 70
     0
  9
$PDMODE
 70
     0
  9
$PDSIZE
 40
0.0
  9
$PLINEWID
 40
0.0
  9
$COORDS
 70
     2
  9
$SPLFRAME
 70
     0
  9
$SPLINETYPE
 70
     6
  9
$SPLINESEGS
 70
     8
  9
$ATTDIA
 70
     0
  9
$ATTREQ
 70
     1
  9
$HANDLING
 70
 10241
  9
$HANDSEED
  5
3E53
  9
$SURFTAB1
 70
     6
  9
$SURFTAB2
 70
     6
  9
$SURFTYPE
 70
     6
  9
$SURFU
 70
     6
  9
$SURFV
 70
     6
  9
$UCSNAME
  2

  9
$UCSORG
 10
0.0
 20
0.0
 30
0.0
  9
$UCSXDIR
 10
1.0
 20
0.0
 30
0.0
  9
$UCSYDIR
 10
0.0
 20
1.0
 30
0.0
  9
$PUCSNAME
  2

  9
$PUCSORG
 10
0.0
 20
0.0
 30
0.0
  9
$PUCSXDIR
 10
1.0
 20
0.0
 30
0.0
  9
$PUCSYDIR
 10
0.0
 20
1.0
 30
0.0
  9
$USERI1
 70
     0
  9
$USERI2
 70
     0
  9
$USERI3
 70
     0
  9
$USERI4
 70
     0
  9
$USERI5
 70
     0
  9
$USERR1
 40
0.0
  9
$USERR2
 40
0.0
  9
$USERR3
 40
0.0
  9
$USERR4
 40
0.0
  9
$USERR5
 40
0.0
  9
$WORLDVIEW
 70
     1
  9
$SHADEDGE
 70
     3
  9
$SHADEDIF
 70
    70
  9
$TILEMODE
 70
     1
  9
$MAXACTVP
 70
    16
  9
$PINSBASE
 10
0.0
 20
0.0
 30
0.0
  9
$PLIMCHECK
 70
     0
  9
$PEXTMIN
 10
0.0
 20
0.0
 30
0.0
  9
$PEXTMAX
 10
420.0
 20
297.0
 30
0.0
  9
$PLIMMIN
 10
0.0
 20
0.0
  9
$PLIMMAX
 10
420.0
 20
297.0
  9
$UNITMODE
 70
     0
  9
$VISRETAIN
 70
     0
  9
$PLINEGEN
 70
     0
  9
$PSLTSCALE
 70
     1
  9
$TREEDEPTH
 70
  3020
  9
$PICKSTYLE
 70
     1
  9
$CMLSTYLE
  2
STANDARD
  9
$CMLJUST
 70
     0
  9
$CMLSCALE
 40
1.0
  9
$PROXYGRAPHICS
 70
     1
  9
$MEASUREMENT
 70
     0
  0
ENDSEC
  0
SECTION
  2
CLASSES
  0
CLASS
  1
ACDBDICTIONARYWDFLT
  2
AcDbDictionaryWithDefault
  3
AutoCAD 2000
 90
        0
280
     0
281
     0
  0
CLASS
  1
ACDBPLACEHOLDER
  2
AcDbPlaceHolder
  3
AutoCAD 2000
 90
        0
280
     0
281
     0
  0
CLASS
  1
LAYOUT
  2
AcDbLayout
  3
AutoCAD 2000
 90
        0
280
     0
281
     0
  0
CLASS
  1
LONG_TRANSACTION
  2
AcDbLongTransaction
  3
AutoCAD 2000
 90
        0
280
     0
281
     0
  0
CLASS
  1
LWPOLYLINE
  2
AcDbPolyline
  3
AutoCAD 2000
 90
        0
280
     0
281
     1
  0
CLASS
  1
HATCH
  2
AcDbHatch
  3
AutoCAD 2000
 90
        0
280
     0
281
     1
  0
CLASS
  1
XRECORD
  2
AcDbXrecord
  3
AutoCAD 2000
 90
        0
280
     0
281
     0
  0
CLASS
  1
LONG_TRANSACTION
  2
AcDbLongTransaction
  3
AutoCAD 2000
 90
        0
280
     0
281
     0
  0
CLASS
  1
LWPOLYLINE
  2
AcDbPolyline
  3
AutoCAD 2000
 90
        0
280
     0
281
     1
  0
CLASS
  1
HATCH
  2
AcDbHatch
  3
AutoCAD 2000
 90
        0
280
     0
281
     1
  0
CLASS
  1
XRECORD
  2
AcDbXrecord
  3
AutoCAD 2000
 90
        0
280
     0
281
     0
  0
CLASS
  1
DICTIONARYVAR
  2
AcDbDictionaryVar
  3
AutoCAD 2000
 90
        0
280
     0
281
     0
  0
CLASS
  1
LONG_TRANSACTION
  2
AcDbLongTransaction
  3
AutoCAD 2000
 90
        0
280
     0
281
     0
  0
CLASS
  1
LWPOLYLINE
  2
AcDbPolyline
  3
AutoCAD 2000
 90
        0
280
     0
281
     1
  0
CLASS
  1
HATCH
  2
AcDbHatch
  3
AutoCAD 2000
 90
        0
280
     0
281
     1
  0
CLASS
  1
XRECORD
  2
AcDbXrecord
  3
AutoCAD 2000
 90
        0
280
     0
281
     0
  0
CLASS
  1
LONG_TRANSACTION
  2
AcDbLongTransaction
  3
AutoCAD 2000
 90
        0
280
     0
281
     0
  0
CLASS
  1
LWPOLYLINE
  2
AcDbPolyline
  3
AutoCAD 2000
 90
        0
280
     0
281
     1
  0
CLASS
  1
HATCH
  2
AcDbHatch
  3
AutoCAD 2000
 90
        0
280
     0
281
     1
  0
CLASS
  1
XRECORD
  2
AcDbXrecord
  3
AutoCAD 2000
 90
        0
280
     0
281
     0
  0
CLASS
  1
LONG_TRANSACTION
  2
AcDbLongTransaction
  3
AutoCAD 2000
 90
        0
280
     0
281
     0
  0
CLASS
  1
LWPOLYLINE
  2
AcDbPolyline
  3
AutoCAD 2000
 90
        0
280
     0
281
     1
  0
CLASS
  1
HATCH
  2
AcDbHatch
  3
AutoCAD 2000
 90
        0
280
     0
281
     1
  0
CLASS
  1
XRECORD
  2
AcDbXrecord
  3
AutoCAD 2000
 90
        0
280
     0
281
     0
  0
CLASS
  1
LONG_TRANSACTION
  2
AcDbLongTransaction
  3
AutoCAD 2000
 90
        0
280
     0
281
     0
  0
CLASS
  1
LWPOLYLINE
  2
AcDbPolyline
  3
AutoCAD 2000
 90
        0
280
     0
281
     1
  0
CLASS
  1
HATCH
  2
AcDbHatch
  3
AutoCAD 2000
 90
        0
280
     0
281
     1
  0
CLASS
  1
XRECORD
  2
AcDbXrecord
  3
AutoCAD 2000
 90
        0
280
     0
281
     0
  0
CLASS
  1
LONG_TRANSACTION
  2
AcDbLongTransaction
  3
AutoCAD 2000
 90
        0
280
     0
281
     0
  0
CLASS
  1
LWPOLYLINE
  2
AcDbPolyline
  3
AutoCAD 2000
 90
        0
280
     0
281
     1
  0
CLASS
  1
HATCH
  2
AcDbHatch
  3
AutoCAD 2000
 90
        0
280
     0
281
     1
  0
CLASS
  1
XRECORD
  2
AcDbXrecord
  3
AutoCAD 2000
 90
        0
280
     0
281
     0
  0
CLASS
  1
LONG_TRANSACTION
  2
AcDbLongTransaction
  3
AutoCAD 2000
 90
        0
280
     0
281
     0
  0
CLASS
  1
LWPOLYLINE
  2
AcDbPolyline
  3
AutoCAD 2000
 90
        0
280
     0
281
     1
  0
CLASS
  1
HATCH
  2
AcDbHatch
  3
AutoCAD 2000
 90
        0
280
     0
281
     1
  0
CLASS
  1
XRECORD
  2
AcDbXrecord
  3
AutoCAD 2000
 90
        0
280
     0
281
     0
  0
CLASS
  1
LONG_TRANSACTION
  2
AcDbLongTransaction
  3
AutoCAD 2000
 90
        0
280
     0
281
     0
  0
CLASS
  1
LWPOLYLINE
  2
AcDbPolyline
  3
AutoCAD 2000
 90
        0
280
     0
281
     1
  0
CLASS
  1
HATCH
  2
AcDbHatch
  3
AutoCAD 2000
 90
        0
280
     0
281
     1
  0
CLASS
  1
XRECORD
  2
AcDbXrecord
  3
AutoCAD 2000
 90
        0
280
     0
281
     0
  0
CLASS
  1
LONG_TRANSACTION
  2
AcDbLongTransaction
  3
AutoCAD 2000
 90
        0
280
     0
281
     0
  0
CLASS
  1
LWPOLYLINE
  2
AcDbPolyline
  3
AutoCAD 2000
 90
        0
280
     0
281
     1
  0
CLASS
  1
HATCH
  2
AcDbHatch
  3
AutoCAD 2000
 90
        0
280
     0
281
     1
  0
CLASS
  1
XRECORD
  2
AcDbXrecord
  3
AutoCAD 2000
 90
        0
280
     0
281
     0
  0
CLASS
  1
LONG_TRANSACTION
  2
AcDbLongTransaction
  3
AutoCAD 2000
 90
        0
280
     0
281
     0
  0
CLASS
  1
LWPOLYLINE
  2
AcDbPolyline
  3
AutoCAD 2000
 90
        0
280
     0
281
     1
  0
CLASS
  1
HATCH
  2
AcDbHatch
  3
AutoCAD 2000
 90
        0
280
     0
281
     1
  0
CLASS
  1
XRECORD
  2
AcDbXrecord
  3
AutoCAD 2000
 90
        0
280
     0
281
     0
  0
CLASS
  1
LONG_TRANSACTION
  2
AcDbLongTransaction
  3
AutoCAD 2000
 90
        0
280
     0
281
     0
  0
CLASS
  1
LWPOLYLINE
  2
AcDbPolyline
  3
AutoCAD 2000
 90
        0
280
     0
281
     1
  0
CLASS
  1
HATCH
  2
AcDbHatch
  3
AutoCAD 2000
 90
        0
280
     0
281
     1
  0
CLASS
  1
XRECORD
  2
AcDbXrecord
  3
AutoCAD 2000
 90
        0
280
     0
281
     0
  0
ENDSEC
  0
SECTION
  2
TABLES
  0
TABLE
  2
VPORT
  5
8
330
0
100
AcDbSymbolTable
 70
     2
  0
VPORT
  5
3E2F
330
8
100
AcDbSymbolTableRecord
100
AcDbViewportTableRecord
  2
*ACTIVE
 70
     0
 10
0.0
 20
0.0
 11
1.0
 21
1.0
 12
212.2788318171456
 22
166.2470787828678
 13
0.0
 23
0.0
 14
5.0
 24
5.0
 15
0.0
 25
0.0
 16
0.0
 26
0.0
 36
1.0
 17
0.0
 27
0.0
 37
0.0
 40
350.777963229673
 41
1.570153061224489
 42
50.0
 43
0.0
 44
0.0
 50
0.0
 51
0.0
 71
     0
 72
   100
 73
     1
 74
     0
 75
     0
 76
     0
 77
     0
 78
     0
  0
ENDTAB
  0
TABLE
  2
LTYPE
  5
5
330
0
100
AcDbSymbolTable
 70
     4
  0
LTYPE
  5
14
330
5
100
AcDbSymbolTableRecord
100
AcDbLinetypeTableRecord
  2
BYBLOCK
 70
     0
  3

 72
    65
 73
     0
 40
0.0
  0
LTYPE
  5
15
330
5
100
AcDbSymbolTableRecord
100
AcDbLinetypeTableRecord
  2
BYLAYER
 70
     0
  3

 72
    65
 73
     0
 40
0.0
  0
LTYPE
  5
16
330
5
100
AcDbSymbolTableRecord
100
AcDbLinetypeTableRecord
  2
CONTINUOUS
 70
     0
  3
Solid line
 72
    65
 73
     0
 40
0.0
  0
LTYPE
  5
120
330
5
100
AcDbSymbolTableRecord
100
AcDbLinetypeTableRecord
  2
CENTER
 70
     0
  3
____ _ ____ _ ____ _ ____ _ ____ _ ____ _ ____ 
 72
    65
 73
     4
 40
2.0
 49
1.25
 74
     0
 49
-0.25
 74
     0
 49
0.25
 74
     0
 49
-0.25
 74
     0
  0
LTYPE
  5
122
330
5
100
AcDbSymbolTableRecord
100
AcDbLinetypeTableRecord
  2
PHANTOM
 70
     0
  3
______  __  __  ______  __  __  ______  __  __ 
 72
    65
 73
     6
 40
2.5
 49
1.25
 74
     0
 49
-0.25
 74
     0
 49
0.25
 74
     0
 49
-0.25
 74
     0
 49
0.25
 74
     0
 49
-0.25
 74
     0
  0
LTYPE
  5
2BBB
330
5
100
AcDbSymbolTableRecord
100
AcDbLinetypeTableRecord
  2
DASHED
 70
     0
  3
__ __ __ __ __ __ __ __ __ __ __ __ __ __ __ __
 72
    65
 73
     2
 40
0.75
 49
0.5
 74
     0
 49
-0.25
 74
     0
  0
ENDTAB
  0
TABLE
  2
LAYER
  5
2
330
0
100
AcDbSymbolTable
 70
     9
  0
LAYER
  5
F
330
2
100
AcDbSymbolTableRecord
100
AcDbLayerTableRecord
  2
0
 70
     0
 62
     7
  6
CONTINUOUS
  0
LAYER
  5
62
330
2
100
AcDbSymbolTableRecord
100
AcDbLayerTableRecord
  2
VIEWPORT
 70
     0
 62
     7
  6
CONTINUOUS
  0
LAYER
  5
6B
330
2
100
AcDbSymbolTableRecord
100
AcDbLayerTableRecord
  2
ZUWAKU
 70
     0
 62
     7
  6
CONTINUOUS
  0
LAYER
  5
3EF
330
2
100
AcDbSymbolTableRecord
100
AcDbLayerTableRecord
  2
DEFPOINTS
 70
     0
 62
     7
  6
CONTINUOUS
  0
LAYER
  5
54D
330
2
100
AcDbSymbolTableRecord
100
AcDbLayerTableRecord
  2
SEIHIN
 70
     0
 62
     3
  6
CONTINUOUS
  0
LAYER
  5
54E
330
2
100
AcDbSymbolTableRecord
100
AcDbLayerTableRecord
  2
SUNPOU
 70
     0
 62
     4
  6
CONTINUOUS
  0
LAYER
  5
54F
330
2
100
AcDbSymbolTableRecord
100
AcDbLayerTableRecord
  2
CENTER_L
 70
     0
 62
     1
  6
CENTER
  0
LAYER
  5
550
330
2
100
AcDbSymbolTableRecord
100
AcDbLayerTableRecord
  2
NOKITOI
 70
     0
 62
     8
  6
PHANTOM
  0
LAYER
  5
2988
330
2
100
AcDbSymbolTableRecord
100
AcDbLayerTableRecord
  2
MOJI
 70
     0
 62
     2
  6
CONTINUOUS
  0
ENDTAB
  0
TABLE
  2
STYLE
  5
3
330
0
100
AcDbSymbolTable
 70
     2
  0
STYLE
  5
10
330
3
100
AcDbSymbolTableRecord
100
AcDbTextStyleTableRecord
  2
STANDARD
 70
     0
 40
0.0
 41
1.0
 50
0.0
 71
     0
 42
3.0
  3
TXT
  4
c:\PROGRAM FILES\AUTOCAD LT\ms\bigfont.shx
  0
STYLE
  5
2989
330
3
100
AcDbSymbolTableRecord
100
AcDbTextStyleTableRecord
  2
ｽﾀｲﾙ1
 70
     0
 40
0.0
 41
1.0
 50
0.0
 71
     0
 42
2.5
  3
MS PGothic.ttf
  4

1001
ACAD
1000
MS PGothic
1071
    32818
  0
ENDTAB
  0
TABLE
  2
VIEW
  5
6
330
0
100
AcDbSymbolTable
 70
     0
  0
ENDTAB
  0
TABLE
  2
UCS
  5
7
330
0
100
AcDbSymbolTable
 70
     0
  0
ENDTAB
  0
TABLE
  2
APPID
  5
9
330
0
100
AcDbSymbolTable
 70
     1
  0
APPID
  5
11
330
9
100
AcDbSymbolTableRecord
100
AcDbRegAppTableRecord
  2
ACAD
 70
     0
  0
ENDTAB
  0
TABLE
  2
DIMSTYLE
  5
A
330
0
100
AcDbSymbolTable
 70
     1
  0
DIMSTYLE
105
1D
102
{ACAD_REACTORS
330
3B05
330
3B06
330
3B07
330
3B0A
330
3B0C
330
3B0D
330
3B0E
330
3BF8
330
3C93
330
3C95
330
3C9B
330
3CBE
330
3CBF
330
3CC1
330
3CC3
102
}
330
A
100
AcDbSymbolTableRecord
100
AcDbDimStyleTableRecord
  2
STANDARD
 70
     0
  3

  4

  5

  6

  7

 40
1.0
 41
0.18
 42
0.0625
 43
0.38
 44
0.18
 45
0.0
 46
0.0
 47
0.0
 48
0.0
140
0.18
141
0.09
142
0.0
143
25.4
144
1.0
145
0.0
146
1.0
147
0.09
 71
     0
 72
     0
 73
     1
 74
     1
 75
     0
 76
     0
 77
     0
 78
     0
170
     0
171
     2
172
     0
173
     0
174
     0
175
     0
176
     0
177
     0
178
     0
270
     2
271
     4
272
     4
273
     2
274
     2
340
10
275
     0
280
     0
281
     0
282
     0
283
     1
284
     0
285
     0
286
     0
287
     3
288
     0
  0
ENDTAB
  0
TABLE
  2
BLOCK_RECORD
  5
1
330
0
100
AcDbSymbolTable
 70
    16
  0
BLOCK_RECORD
  5
1A
102
{ACAD_XDICTIONARY
360
7A2
102
}
330
1
100
AcDbSymbolTableRecord
100
AcDbBlockTableRecord
  2
*MODEL_SPACE
  0
BLOCK_RECORD
  5
17
102
{ACAD_XDICTIONARY
360
7A0
102
}
330
1
100
AcDbSymbolTableRecord
100
AcDbBlockTableRecord
  2
*PAPER_SPACE
  0
BLOCK_RECORD
  5
B2
330
1
100
AcDbSymbolTableRecord
100
AcDbBlockTableRecord
  2
_OPEN
  0
BLOCK_RECORD
  5
3CE6
330
1
100
AcDbSymbolTableRecord
100
AcDbBlockTableRecord
  2
*D1
  0
BLOCK_RECORD
  5
3CF2
330
1
100
AcDbSymbolTableRecord
100
AcDbBlockTableRecord
  2
*D2
  0
BLOCK_RECORD
  5
3CFE
330
1
100
AcDbSymbolTableRecord
100
AcDbBlockTableRecord
  2
*D3
  0
BLOCK_RECORD
  5
3D0A
330
1
100
AcDbSymbolTableRecord
100
AcDbBlockTableRecord
  2
*D4
  0
BLOCK_RECORD
  5
3D16
330
1
100
AcDbSymbolTableRecord
100
AcDbBlockTableRecord
  2
*D5
  0
BLOCK_RECORD
  5
3D22
330
1
100
AcDbSymbolTableRecord
100
AcDbBlockTableRecord
  2
*D6
  0
BLOCK_RECORD
  5
3D2E
330
1
100
AcDbSymbolTableRecord
100
AcDbBlockTableRecord
  2
*D7
  0
BLOCK_RECORD
  5
3D3A
330
1
100
AcDbSymbolTableRecord
100
AcDbBlockTableRecord
  2
*D8
  0
BLOCK_RECORD
  5
3D46
330
1
100
AcDbSymbolTableRecord
100
AcDbBlockTableRecord
  2
*D9
  0
BLOCK_RECORD
  5
3D54
330
1
100
AcDbSymbolTableRecord
100
AcDbBlockTableRecord
  2
*D10
  0
BLOCK_RECORD
  5
3D60
330
1
100
AcDbSymbolTableRecord
100
AcDbBlockTableRecord
  2
*D11
  0
BLOCK_RECORD
  5
3D6E
330
1
100
AcDbSymbolTableRecord
100
AcDbBlockTableRecord
  2
*D12
  0
BLOCK_RECORD
  5
3D7A
330
1
100
AcDbSymbolTableRecord
100
AcDbBlockTableRecord
  2
*D13
  0
BLOCK_RECORD
  5
3D86
330
1
100
AcDbSymbolTableRecord
100
AcDbBlockTableRecord
  2
*D14
  0
BLOCK_RECORD
  5
3D92
330
1
100
AcDbSymbolTableRecord
100
AcDbBlockTableRecord
  2
*D15
  0
ENDTAB
  0
ENDSEC
  0
SECTION
  2
BLOCKS
  0
BLOCK
  5
1B
330
1A
100
AcDbEntity
  8
0
100
AcDbBlockBegin
  2
*MODEL_SPACE
 70
     0
 10
0.0
 20
0.0
 30
0.0
  3
*MODEL_SPACE
  1

  0
ENDBLK
  5
1C
330
1A
100
AcDbEntity
  8
0
100
AcDbBlockEnd
  0
BLOCK
  5
18
330
17
100
AcDbEntity
 67
     1
  8
0
100
AcDbBlockBegin
  2
*PAPER_SPACE
 70
     0
 10
0.0
 20
0.0
 30
0.0
  3
*PAPER_SPACE
  1

  0
ENDBLK
  5
19
330
17
100
AcDbEntity
 67
     1
  8
0
100
AcDbBlockEnd
  0
BLOCK
  5
B3
330
B2
100
AcDbEntity
  8
0
100
AcDbBlockBegin
  2
_OPEN
 70
     0
 10
0.0
 20
0.0
 30
0.0
  3
_OPEN
  1

  0
LINE
  5
B4
330
B2
100
AcDbEntity
  8
0
  6
BYBLOCK
 62
     0
100
AcDbLine
 10
-1.0
 20
0.1666666666666666
 30
0.0
 11
0.0
 21
0.0
 31
0.0
  0
LINE
  5
B5
330
B2
100
AcDbEntity
  8
0
  6
BYBLOCK
 62
     0
100
AcDbLine
 10
0.0
 20
0.0
 30
0.0
 11
-1.0
 21
-0.1666666666666666
 31
0.0
  0
LINE
  5
B6
330
B2
100
AcDbEntity
  8
0
  6
BYBLOCK
 62
     0
100
AcDbLine
 10
0.0
 20
0.0
 30
0.0
 11
-1.0
 21
0.0
 31
0.0
  0
ENDBLK
  5
B7
330
B2
100
AcDbEntity
  8
0
100
AcDbBlockEnd
  0
BLOCK
  5
3CF0
330
3CE6
100
AcDbEntity
  8
0
100
AcDbBlockBegin
  2
*D1
 70
     1
 10
0.0
 20
0.0
 30
0.0
  3
*D1
  1

  0
LINE
  5
3D9E
330
3CE6
100
AcDbEntity
  8
SUNPOU
100
AcDbLine
 10
192.5165000408489
 20
128.7676406750579
 30
0.0
 11
209.7801154905162
 21
135.6730868493746
 31
0.0
  0
LINE
  5
3D9F
330
3CE6
100
AcDbEntity
  8
SUNPOU
100
AcDbLine
 10
211.8288151978811
 20
80.48685274367196
 30
0.0
 11
229.0924306475484
 21
87.39229891798862
 31
0.0
  0
LINE
  5
3DA0
330
3CE6
100
AcDbEntity
  8
SUNPOU
100
AcDbLine
 10
209.5015724823242
 20
132.3305707622648
 30
0.0
 11
226.5855435827758
 21
89.62064297680802
 31
0.0
  0
INSERT
  5
3DA1
330
3CE6
100
AcDbEntity
  8
SUNPOU
100
AcDbBlockReference
  2
_OPEN
 10
208.3874004540339
 20
135.1160008352294
 30
0.0
 41
3.0
 42
3.0
 43
3.0
 50
111.801409470472
  0
INSERT
  5
3DA2
330
3CE6
100
AcDbEntity
  8
SUNPOU
100
AcDbBlockReference
  2
_OPEN
 10
227.6997156110661
 20
86.83521290384346
 30
0.0
 41
3.0
 42
3.0
 43
3.0
 50
291.801409470472
  0
MTEXT
  5
3DA3
330
3CE6
100
AcDbEntity
  8
SUNPOU
100
AcDbMText
 10
220.3647497600205
 20
111.9040835597783
 30
0.0
 40
3.0
 41
0.0
 71
     5
 72
     1
  1
\A1;52
 11
0.371390676096772
 21
-0.928476690988192
 31
0.0
1001
ACAD
1000
MTEXTBEGIN
1070
    73
1070
     1
1070
    44
1040
1.0
1070
    74
1070
     0
1000
MTEXTEND
  0
POINT
  5
3DA4
330
3CE6
100
AcDbEntity
  8
DEFPOINTS
 62
     0
100
AcDbPoint
 10
189.7310699678843
 20
127.6534686467676
 30
0.0
  0
POINT
  5
3DA5
330
3CE6
100
AcDbEntity
  8
DEFPOINTS
 62
     0
100
AcDbPoint
 10
209.0433851249165
 20
79.37268071538163
 30
0.0
  0
POINT
  5
3DA6
330
3CE6
100
AcDbEntity
  8
DEFPOINTS
 62
     0
100
AcDbPoint
 10
227.6997156110661
 20
86.83521290384346
 30
0.0
  0
ENDBLK
  5
3CF1
330
3CE6
100
AcDbEntity
  8
0
100
AcDbBlockEnd
  0
BLOCK
  5
3CFC
330
3CF2
100
AcDbEntity
  8
0
100
AcDbBlockBegin
  2
*D2
 70
     1
 10
0.0
 20
0.0
 30
0.0
  3
*D2
  1

  0
LINE
  5
3DA7
330
3CF2
100
AcDbEntity
  8
SUNPOU
100
AcDbLine
 10
191.8261222890942
 20
125.4158377984988
 30
0.0
 11
191.8261222890942
 21
150.0614539340805
 31
0.0
  0
LINE
  5
3DA8
330
3CF2
100
AcDbEntity
  8
SUNPOU
100
AcDbLine
 10
226.826122296536
 20
125.4158378014755
 30
0.0
 11
226.826122296536
 21
150.0614539340805
 31
0.0
  0
LINE
  5
3DA9
330
3CF2
100
AcDbEntity
  8
SUNPOU
100
AcDbLine
 10
194.8261222890941
 20
148.5614539340805
 30
0.0
 11
223.826122296536
 21
148.5614539340805
 31
0.0
  0
INSERT
  5
3DAA
330
3CF2
100
AcDbEntity
  8
SUNPOU
100
AcDbBlockReference
  2
_OPEN
 10
191.8261222890942
 20
148.5614539340805
 30
0.0
 41
3.0
 42
3.0
 43
3.0
 50
180.0
  0
INSERT
  5
3DAB
330
3CF2
100
AcDbEntity
  8
SUNPOU
100
AcDbBlockReference
  2
_OPEN
 10
226.826122296536
 20
148.5614539340805
 30
0.0
 41
3.0
 42
3.0
 43
3.0
  0
MTEXT
  5
3DAC
330
3CF2
100
AcDbEntity
  8
SUNPOU
100
AcDbMText
 10
209.3261222928151
 20
151.0614539340805
 30
0.0
 40
3.0
 41
0.0
 71
     5
 72
     1
  1
\A1;35
1001
ACAD
1000
MTEXTBEGIN
1070
    73
1070
     1
1070
    44
1040
1.0
1070
    74
1070
     0
1000
MTEXTEND
  0
POINT
  5
3DAD
330
3CF2
100
AcDbEntity
  8
DEFPOINTS
 62
     0
100
AcDbPoint
 10
191.8261222890942
 20
122.4158377984988
 30
0.0
  0
POINT
  5
3DAE
330
3CF2
100
AcDbEntity
  8
DEFPOINTS
 62
     0
100
AcDbPoint
 10
226.826122296536
 20
122.4158378014755
 30
0.0
  0
POINT
  5
3DAF
330
3CF2
100
AcDbEntity
  8
DEFPOINTS
 62
     0
100
AcDbPoint
 10
226.826122296536
 20
148.5614539340805
 30
0.0
  0
ENDBLK
  5
3CFD
330
3CF2
100
AcDbEntity
  8
0
100
AcDbBlockEnd
  0
BLOCK
  5
3D08
330
3CFE
100
AcDbEntity
  8
0
100
AcDbBlockBegin
  2
*D3
 70
     1
 10
0.0
 20
0.0
 30
0.0
  3
*D3
  1

  0
LINE
  5
3DB0
330
3CFE
100
AcDbEntity
  8
SUNPOU
100
AcDbLine
 10
198.4587508475149
 20
113.9120136145876
 30
0.0
 11
207.8687592522209
 21
117.676016977033
 31
0.0
  0
LINE
  5
3DB1
330
3CFE
100
AcDbEntity
  8
SUNPOU
100
AcDbLine
 10
211.8288151975149
 20
80.48685274458764
 30
0.0
 11
221.2388236022209
 21
84.25085610703311
 31
0.0
  0
LINE
  5
3DB2
330
3CFE
100
AcDbEntity
  8
SUNPOU
100
AcDbLine
 10
207.5902162451277
 20
114.3335008898317
 30
0.0
 11
218.7319365367158
 21
86.47920016502842
 31
0.0
  0
INSERT
  5
3DB3
330
3CFE
100
AcDbEntity
  8
SUNPOU
100
AcDbBlockReference
  2
_OPEN
 10
206.4760442159218
 20
117.11893096243
 30
0.0
 41
3.0
 42
3.0
 43
3.0
 50
111.8014094893072
  0
INSERT
  5
3DB4
330
3CFE
100
AcDbEntity
  8
SUNPOU
100
AcDbBlockReference
  2
_OPEN
 10
219.8461085659217
 20
83.69377009243011
 30
0.0
 41
3.0
 42
3.0
 43
3.0
 50
291.8014094893072
  0
MTEXT
  5
3DB5
330
3CFE
100
AcDbEntity
  8
SUNPOU
100
AcDbMText
 10
215.482268118087
 20
101.334827218435
 30
0.0
 40
3.0
 41
0.0
 71
     5
 72
     1
  1
\A1;36
 11
0.3713906764019972
 21
-0.9284766908661019
 31
0.0
1001
ACAD
1000
MTEXTBEGIN
1070
    73
1070
     1
1070
    44
1040
1.0
1070
    74
1070
     0
1000
MTEXTEND
  0
POINT
  5
3DB6
330
3CFE
100
AcDbEntity
  8
DEFPOINTS
 62
     0
100
AcDbPoint
 10
195.6733207749166
 20
112.7978415853815
 30
0.0
  0
POINT
  5
3DB7
330
3CFE
100
AcDbEntity
  8
DEFPOINTS
 62
     0
100
AcDbPoint
 10
209.0433851249166
 20
79.37268071538165
 30
0.0
  0
POINT
  5
3DB8
330
3CFE
100
AcDbEntity
  8
DEFPOINTS
 62
     0
100
AcDbPoint
 10
219.8461085659217
 20
83.69377009243011
 30
0.0
  0
ENDBLK
  5
3D09
330
3CFE
100
AcDbEntity
  8
0
100
AcDbBlockEnd
  0
BLOCK
  5
3D14
330
3D0A
100
AcDbEntity
  8
0
100
AcDbBlockBegin
  2
*D4
 70
     1
 10
0.0
 20
0.0
 30
0.0
  3
*D4
  1

  0
LINE
  5
3DB9
330
3D0A
100
AcDbEntity
  8
SUNPOU
100
AcDbLine
 10
209.0433855649167
 20
238.5880590379836
 30
0.0
 11
228.9750157585774
 21
238.5880590379836
 31
0.0
  0
LINE
  5
3DBA
330
3D0A
100
AcDbEntity
  8
SUNPOU
100
AcDbLine
 10
209.0433855649167
 20
185.5880589979835
 30
0.0
 11
228.9750157585773
 21
185.5880589979835
 31
0.0
  0
LINE
  5
3DBB
330
3D0A
100
AcDbEntity
  8
SUNPOU
100
AcDbLine
 10
227.4750157585774
 20
235.5880590379836
 30
0.0
 11
227.4750157585774
 21
188.5880589979835
 31
0.0
  0
INSERT
  5
3DBC
330
3D0A
100
AcDbEntity
  8
SUNPOU
100
AcDbBlockReference
  2
_OPEN
 10
227.4750157585774
 20
238.5880590379836
 30
0.0
 41
3.0
 42
3.0
 43
3.0
 50
90.0
  0
INSERT
  5
3DBD
330
3D0A
100
AcDbEntity
  8
SUNPOU
100
AcDbBlockReference
  2
_OPEN
 10
227.4750157585774
 20
185.5880589979835
 30
0.0
 41
3.0
 42
3.0
 43
3.0
 50
270.0
  0
MTEXT
  5
3DBE
330
3D0A
100
AcDbEntity
  8
SUNPOU
100
AcDbMText
 10
224.9750157585773
 20
212.0880590179836
 30
0.0
 40
3.0
 41
0.0
 71
     5
 72
     1
  1
\A1;53
 11
0.0000000000000001
 21
1.0
 31
0.0
1001
ACAD
1000
MTEXTBEGIN
1070
    73
1070
     1
1070
    44
1040
1.0
1070
    74
1070
     0
1000
MTEXTEND
  0
POINT
  5
3DBF
330
3D0A
100
AcDbEntity
  8
DEFPOINTS
 62
     0
100
AcDbPoint
 10
206.0433855649167
 20
238.5880590379836
 30
0.0
  0
POINT
  5
3DC0
330
3D0A
100
AcDbEntity
  8
DEFPOINTS
 62
     0
100
AcDbPoint
 10
206.0433855649167
 20
185.5880589979835
 30
0.0
  0
POINT
  5
3DC1
330
3D0A
100
AcDbEntity
  8
DEFPOINTS
 62
     0
100
AcDbPoint
 10
227.4750157585774
 20
185.5880589979835
 30
0.0
  0
ENDBLK
  5
3D15
330
3D0A
100
AcDbEntity
  8
0
100
AcDbBlockEnd
  0
BLOCK
  5
3D20
330
3D16
100
AcDbEntity
  8
0
100
AcDbBlockBegin
  2
*D5
 70
     1
 10
0.0
 20
0.0
 30
0.0
  3
*D5
  1

  0
LINE
  5
3DC2
330
3D16
100
AcDbEntity
  8
SUNPOU
100
AcDbLine
 10
182.3690041149167
 20
91.23476253454402
 30
0.0
 11
182.3690041149167
 21
141.2755064337849
 31
0.0
  0
LINE
  5
3DC3
330
3D16
100
AcDbEntity
  8
SUNPOU
100
AcDbLine
 10
191.8261222890942
 20
125.4158377984988
 30
0.0
 11
191.8261222890942
 21
141.2755064337849
 31
0.0
  0
LINE
  5
3DC4
330
3D16
100
AcDbEntity
  8
SUNPOU
100
AcDbLine
 10
185.3690041149167
 20
139.7755064337849
 30
0.0
 11
188.8261222890942
 21
139.7755064337849
 31
0.0
  0
INSERT
  5
3DC5
330
3D16
100
AcDbEntity
  8
SUNPOU
100
AcDbBlockReference
  2
_OPEN
 10
182.3690041149167
 20
139.7755064337849
 30
0.0
 41
3.0
 42
3.0
 43
3.0
 50
180.0
  0
INSERT
  5
3DC6
330
3D16
100
AcDbEntity
  8
SUNPOU
100
AcDbBlockReference
  2
_OPEN
 10
191.8261222890942
 20
139.7755064337849
 30
0.0
 41
3.0
 42
3.0
 43
3.0
  0
MTEXT
  5
3DC7
330
3D16
100
AcDbEntity
  8
SUNPOU
100
AcDbMText
 10
187.0975632020055
 20
142.2755064337849
 30
0.0
 40
3.0
 41
0.0
 71
     5
 72
     1
  1
\A1;9
1001
ACAD
1000
MTEXTBEGIN
1070
    73
1070
     1
1070
    44
1040
1.0
1070
    74
1070
     0
1000
MTEXTEND
  0
POINT
  5
3DC8
330
3D16
100
AcDbEntity
  8
DEFPOINTS
 62
     0
100
AcDbPoint
 10
182.3690041149167
 20
88.23476253454401
 30
0.0
  0
POINT
  5
3DC9
330
3D16
100
AcDbEntity
  8
DEFPOINTS
 62
     0
100
AcDbPoint
 10
191.8261222890942
 20
122.4158377984988
 30
0.0
  0
POINT
  5
3DCA
330
3D16
100
AcDbEntity
  8
DEFPOINTS
 62
     0
100
AcDbPoint
 10
191.8261222890942
 20
139.7755064337849
 30
0.0
  0
ENDBLK
  5
3D21
330
3D16
100
AcDbEntity
  8
0
100
AcDbBlockEnd
  0
BLOCK
  5
3D2C
330
3D22
100
AcDbEntity
  8
0
100
AcDbBlockBegin
  2
*D6
 70
     1
 10
0.0
 20
0.0
 30
0.0
  3
*D6
  1

  0
LINE
  5
3DCB
330
3D22
100
AcDbEntity
  8
SUNPOU
100
AcDbLine
 10
69.65830411491666
 20
89.44396253454417
 30
0.0
 11
69.65830411491666
 21
150.0614539340805
 31
0.0
  0
LINE
  5
3DCC
330
3D22
100
AcDbEntity
  8
SUNPOU
100
AcDbLine
 10
191.8261222890942
 20
125.4158377984988
 30
0.0
 11
191.8261222890942
 21
150.0614539340805
 31
0.0
  0
LINE
  5
3DCD
330
3D22
100
AcDbEntity
  8
SUNPOU
100
AcDbLine
 10
72.65830411491666
 20
148.5614539340805
 30
0.0
 11
188.8261222890942
 21
148.5614539340805
 31
0.0
  0
INSERT
  5
3DCE
330
3D22
100
AcDbEntity
  8
SUNPOU
100
AcDbBlockReference
  2
_OPEN
 10
69.65830411491666
 20
148.5614539340805
 30
0.0
 41
3.0
 42
3.0
 43
3.0
 50
180.0
  0
INSERT
  5
3DCF
330
3D22
100
AcDbEntity
  8
SUNPOU
100
AcDbBlockReference
  2
_OPEN
 10
191.8261222890942
 20
148.5614539340805
 30
0.0
 41
3.0
 42
3.0
 43
3.0
  0
MTEXT
  5
3DD0
330
3D22
100
AcDbEntity
  8
SUNPOU
100
AcDbMText
 10
130.7422132020054
 20
151.0614539340805
 30
0.0
 40
3.0
 41
0.0
 71
     5
 72
     1
  1
\A1;122
1001
ACAD
1000
MTEXTBEGIN
1070
    73
1070
     1
1070
    44
1040
1.0
1070
    74
1070
     0
1000
MTEXTEND
  0
POINT
  5
3DD1
330
3D22
100
AcDbEntity
  8
DEFPOINTS
 62
     0
100
AcDbPoint
 10
69.65830411491666
 20
86.44396253454416
 30
0.0
  0
POINT
  5
3DD2
330
3D22
100
AcDbEntity
  8
DEFPOINTS
 62
     0
100
AcDbPoint
 10
191.8261222890942
 20
122.4158377984988
 30
0.0
  0
POINT
  5
3DD3
330
3D22
100
AcDbEntity
  8
DEFPOINTS
 62
     0
100
AcDbPoint
 10
191.8261222890942
 20
148.5614539340805
 30
0.0
  0
ENDBLK
  5
3D2D
330
3D22
100
AcDbEntity
  8
0
100
AcDbBlockEnd
  0
BLOCK
  5
3D38
330
3D2E
100
AcDbEntity
  8
0
100
AcDbBlockBegin
  2
*D7
 70
     1
 10
0.0
 20
0.0
 30
0.0
  3
*D7
  1

  0
LINE
  5
3DD4
330
3D2E
100
AcDbEntity
  8
SUNPOU
100
AcDbLine
 10
206.0433851249166
 20
79.37268071538165
 30
0.0
 11
43.99785034310046
 21
79.37268071538169
 31
0.0
  0
LINE
  5
3DD5
330
3D2E
100
AcDbEntity
  8
SUNPOU
100
AcDbLine
 10
68.15075411491665
 20
87.93636253538153
 30
0.0
 11
43.99785034310045
 21
87.93636253538153
 31
0.0
  0
LINE
  5
3DD6
330
3D2E
100
AcDbEntity
  8
SUNPOU
100
AcDbLine
 10
45.49785034310046
 20
82.37268071538169
 30
0.0
 11
45.49785034310046
 21
84.93636253538154
 31
0.0
  0
INSERT
  5
3DD7
330
3D2E
100
AcDbEntity
  8
SUNPOU
100
AcDbBlockReference
  2
_OPEN
 10
45.49785034310045
 20
79.37268071538169
 30
0.0
 41
3.0
 42
3.0
 43
3.0
 50
270.0
  0
INSERT
  5
3DD8
330
3D2E
100
AcDbEntity
  8
SUNPOU
100
AcDbBlockReference
  2
_OPEN
 10
45.49785034310046
 20
87.93636253538153
 30
0.0
 41
3.0
 42
3.0
 43
3.0
 50
90.0
  0
MTEXT
  5
3DD9
330
3D2E
100
AcDbEntity
  8
SUNPOU
100
AcDbMText
 10
42.99785034310044
 20
83.65452162538161
 30
0.0
 40
3.0
 41
0.0
 71
     5
 72
     1
  1
\A1;9
 11
0.0000000000000001
 21
1.0
 31
0.0
1001
ACAD
1000
MTEXTBEGIN
1070
    73
1070
     1
1070
    44
1040
1.0
1070
    74
1070
     0
1000
MTEXTEND
  0
POINT
  5
3DDA
330
3D2E
100
AcDbEntity
  8
DEFPOINTS
 62
     0
100
AcDbPoint
 10
209.0433851249165
 20
79.37268071538165
 30
0.0
  0
POINT
  5
3DDB
330
3D2E
100
AcDbEntity
  8
DEFPOINTS
 62
     0
100
AcDbPoint
 10
71.15075411491665
 20
87.93636253538153
 30
0.0
  0
POINT
  5
3DDC
330
3D2E
100
AcDbEntity
  8
DEFPOINTS
 62
     0
100
AcDbPoint
 10
45.49785034310046
 20
87.93636253538153
 30
0.0
  0
ENDBLK
  5
3D39
330
3D2E
100
AcDbEntity
  8
0
100
AcDbBlockEnd
  0
BLOCK
  5
3D44
330
3D3A
100
AcDbEntity
  8
0
100
AcDbBlockBegin
  2
*D8
 70
     1
 10
0.0
 20
0.0
 30
0.0
  3
*D8
  1

  0
LINE
  5
3DDD
330
3D3A
100
AcDbEntity
  8
SUNPOU
100
AcDbLine
 10
66.90075411491665
 20
223.0880586479836
 30
0.0
 11
43.99785034310048
 21
223.0880586479836
 31
0.0
  0
LINE
  5
3DDE
330
3D3A
100
AcDbEntity
  8
SUNPOU
100
AcDbLine
 10
66.90075411491665
 20
201.0880586079835
 30
0.0
 11
43.99785034310048
 21
201.0880586079836
 31
0.0
  0
LINE
  5
3DDF
330
3D3A
100
AcDbEntity
  8
SUNPOU
100
AcDbLine
 10
45.49785034310048
 20
220.0880586479836
 30
0.0
 11
45.49785034310048
 21
204.0880586079836
 31
0.0
  0
INSERT
  5
3DE0
330
3D3A
100
AcDbEntity
  8
SUNPOU
100
AcDbBlockReference
  2
_OPEN
 10
45.49785034310048
 20
223.0880586479836
 30
0.0
 41
3.0
 42
3.0
 43
3.0
 50
90.0
  0
INSERT
  5
3DE1
330
3D3A
100
AcDbEntity
  8
SUNPOU
100
AcDbBlockReference
  2
_OPEN
 10
45.49785034310048
 20
201.0880586079836
 30
0.0
 41
3.0
 42
3.0
 43
3.0
 50
270.0
  0
MTEXT
  5
3DE2
330
3D3A
100
AcDbEntity
  8
SUNPOU
100
AcDbMText
 10
42.99785034310045
 20
212.0880586279836
 30
0.0
 40
3.0
 41
0.0
 71
     5
 72
     1
  1
\A1;22
 11
0.0000000000000001
 21
1.0
 31
0.0
1001
ACAD
1000
MTEXTBEGIN
1070
    73
1070
     1
1070
    44
1040
1.0
1070
    74
1070
     0
1000
MTEXTEND
  0
POINT
  5
3DE3
330
3D3A
100
AcDbEntity
  8
DEFPOINTS
 62
     0
100
AcDbPoint
 10
69.90075411491665
 20
223.0880586479836
 30
0.0
  0
POINT
  5
3DE4
330
3D3A
100
AcDbEntity
  8
DEFPOINTS
 62
     0
100
AcDbPoint
 10
69.90075411491665
 20
201.0880586079835
 30
0.0
  0
POINT
  5
3DE5
330
3D3A
100
AcDbEntity
  8
DEFPOINTS
 62
     0
100
AcDbPoint
 10
45.49785034310048
 20
201.0880586079836
 30
0.0
  0
ENDBLK
  5
3D45
330
3D3A
100
AcDbEntity
  8
0
100
AcDbBlockEnd
  0
BLOCK
  5
3D52
330
3D46
100
AcDbEntity
  8
0
100
AcDbBlockBegin
  2
*D9
 70
     1
 10
0.0
 20
0.0
 30
0.0
  3
*D9
  1

  0
LINE
  5
3DE6
330
3D46
100
AcDbEntity
  8
SUNPOU
100
AcDbLine
 10
288.0032796148437
 20
149.7298247584632
 30
0.0
 11
270.7336603899967
 21
142.8219768889327
 31
0.0
  0
LINE
  5
3DE7
330
3D46
100
AcDbEntity
  8
SUNPOU
100
AcDbLine
 10
287.6318890191769
 20
143.6575872072443
 30
0.0
 11
272.7763091557245
 21
137.715355107376
 31
0.0
  0
LINE
  5
3DE8
330
3D46
100
AcDbEntity
  8
SUNPOU
100
AcDbLine
 10
271.0122033672969
 20
146.1644929786167
 30
0.0
 11
269.8980313132635
 21
148.949923041284
 31
0.0
  0
LINE
  5
3DE9
330
3D46
100
AcDbEntity
  8
SUNPOU
100
AcDbLine
 10
275.2831962410916
 20
135.4870110717253
 30
0.0
 11
276.3973682951251
 21
132.701581009058
 31
0.0
  0
LINE
  5
3DEA
330
3D46
100
AcDbEntity
  8
SUNPOU
100
AcDbLine
 10
272.1263754213303
 20
143.3790629159494
 30
0.0
 11
274.1690241870581
 21
138.2724411343927
 31
0.0
  0
INSERT
  5
3DEB
330
3D46
100
AcDbEntity
  8
SUNPOU
100
AcDbBlockReference
  2
_OPEN
 10
272.1263754213303
 20
143.3790629159494
 30
0.0
 41
3.0
 42
3.0
 43
3.0
 50
291.8014100000028
  0
INSERT
  5
3DEC
330
3D46
100
AcDbEntity
  8
SUNPOU
100
AcDbBlockReference
  2
_OPEN
 10
274.1690241870581
 20
138.2724411343927
 30
0.0
 41
3.0
 42
3.0
 43
3.0
 50
111.8014100000028
  0
MTEXT
  5
3DED
330
3D46
100
AcDbEntity
  8
SUNPOU
100
AcDbMText
 10
275.4688915230838
 20
141.7542287368656
 30
0.0
 40
3.0
 41
0.0
 71
     5
 72
     1
  1
\A1;6
 11
0.3713906846778061
 21
-0.9284766875557783
 31
0.0
1001
ACAD
1000
MTEXTBEGIN
1070
    73
1070
     1
1070
    44
1040
1.0
1070
    74
1070
     0
1000
MTEXTEND
  0
POINT
  5
3DEE
330
3D46
100
AcDbEntity
  8
DEFPOINTS
 62
     0
100
AcDbPoint
 10
290.788709677511
 20
150.8439968124966
 30
0.0
  0
POINT
  5
3DEF
330
3D46
100
AcDbEntity
  8
DEFPOINTS
 62
     0
100
AcDbPoint
 10
290.4173190818442
 20
144.7717592612777
 30
0.0
  0
POINT
  5
3DF0
330
3D46
100
AcDbEntity
  8
DEFPOINTS
 62
     0
100
AcDbPoint
 10
274.1690241870581
 20
138.2724411343927
 30
0.0
  0
ENDBLK
  5
3D53
330
3D46
100
AcDbEntity
  8
0
100
AcDbBlockEnd
  0
BLOCK
  5
3D5E
330
3D54
100
AcDbEntity
  8
0
100
AcDbBlockBegin
  2
*D10
 70
     1
 10
0.0
 20
0.0
 30
0.0
  3
*D10
  1

  0
LINE
  5
3DF1
330
3D54
100
AcDbEntity
  8
SUNPOU
100
AcDbLine
 10
288.0032796148437
 20
149.7298247584632
 30
0.0
 11
261.5664336840391
 21
139.155086111217
 31
0.0
  0
LINE
  5
3DF2
330
3D54
100
AcDbEntity
  8
SUNPOU
100
AcDbLine
 10
301.373344263243
 20
116.3046640064546
 30
0.0
 11
274.93649833244
 21
105.7299253592091
 31
0.0
  0
LINE
  5
3DF3
330
3D54
100
AcDbEntity
  8
SUNPOU
100
AcDbLine
 10
264.0733207694061
 20
136.9267420755664
 30
0.0
 11
275.2150413097402
 21
109.0724414488931
 31
0.0
  0
INSERT
  5
3DF4
330
3D54
100
AcDbEntity
  8
SUNPOU
100
AcDbBlockReference
  2
_OPEN
 10
262.9591487153727
 20
139.7121721382337
 30
0.0
 41
3.0
 42
3.0
 43
3.0
 50
111.8014100000028
  0
INSERT
  5
3DF5
330
3D54
100
AcDbEntity
  8
SUNPOU
100
AcDbBlockReference
  2
_OPEN
 10
276.3292133637737
 20
106.2870113862258
 30
0.0
 41
3.0
 42
3.0
 43
3.0
 50
291.8014100000028
  0
MTEXT
  5
3DF6
330
3D54
100
AcDbEntity
  8
SUNPOU
100
AcDbMText
 10
271.9653727584627
 20
123.9280684739243
 30
0.0
 40
3.0
 41
0.0
 71
     5
 72
     1
  1
\A1;36
 11
0.3713906846778061
 21
-0.9284766875557783
 31
0.0
1001
ACAD
1000
MTEXTBEGIN
1070
    73
1070
     1
1070
    44
1040
1.0
1070
    74
1070
     0
1000
MTEXTEND
  0
POINT
  5
3DF7
330
3D54
100
AcDbEntity
  8
DEFPOINTS
 62
     0
100
AcDbPoint
 10
290.788709677511
 20
150.8439968124966
 30
0.0
  0
POINT
  5
3DF8
330
3D54
100
AcDbEntity
  8
DEFPOINTS
 62
     0
100
AcDbPoint
 10
304.1587743259103
 20
117.418836060488
 30
0.0
  0
POINT
  5
3DF9
330
3D54
100
AcDbEntity
  8
DEFPOINTS
 62
     0
100
AcDbPoint
 10
276.3292133637737
 20
106.2870113862258
 30
0.0
  0
ENDBLK
  5
3D5F
330
3D54
100
AcDbEntity
  8
0
100
AcDbBlockEnd
  0
BLOCK
  5
3D6C
330
3D60
100
AcDbEntity
  8
0
100
AcDbBlockBegin
  2
*D11
 70
     1
 10
0.0
 20
0.0
 30
0.0
  3
*D11
  1

  0
LINE
  5
3DFA
330
3D60
100
AcDbEntity
  8
SUNPOU
100
AcDbLine
 10
296.9166561361208
 20
120.4456700183495
 30
0.0
 11
282.0610762726683
 21
114.503437918481
 31
0.0
  0
LINE
  5
3DFB
330
3D60
100
AcDbEntity
  8
SUNPOU
100
AcDbLine
 10
301.373344263243
 20
116.3046640064546
 30
0.0
 11
284.1037250383963
 21
109.3968161369242
 31
0.0
  0
LINE
  5
3DFC
330
3D60
100
AcDbEntity
  8
SUNPOU
100
AcDbLine
 10
282.3396192499686
 20
117.8459540081651
 30
0.0
 11
281.2254471959352
 21
120.6313840708324
 31
0.0
  0
LINE
  5
3DFD
330
3D60
100
AcDbEntity
  8
SUNPOU
100
AcDbLine
 10
286.6106121237634
 20
107.1684721012736
 30
0.0
 11
287.7247841777968
 21
104.3830420386062
 31
0.0
  0
LINE
  5
3DFE
330
3D60
100
AcDbEntity
  8
SUNPOU
100
AcDbLine
 10
283.453791304002
 20
115.0605239454978
 30
0.0
 11
285.49644006973
 21
109.9539021639409
 31
0.0
  0
INSERT
  5
3DFF
330
3D60
100
AcDbEntity
  8
SUNPOU
100
AcDbBlockReference
  2
_OPEN
 10
283.453791304002
 20
115.0605239454978
 30
0.0
 41
3.0
 42
3.0
 43
3.0
 50
291.8014100000028
  0
INSERT
  5
3E00
330
3D60
100
AcDbEntity
  8
SUNPOU
100
AcDbBlockReference
  2
_OPEN
 10
285.49644006973
 20
109.9539021639409
 30
0.0
 41
3.0
 42
3.0
 43
3.0
 50
111.8014100000028
  0
MTEXT
  5
3E01
330
3D60
100
AcDbEntity
  8
SUNPOU
100
AcDbMText
 10
286.7963074057555
 20
113.4356897664138
 30
0.0
 40
3.0
 41
0.0
 71
     5
 72
     1
  1
\A1;6
 11
0.3713906846778061
 21
-0.9284766875557783
 31
0.0
1001
ACAD
1000
MTEXTBEGIN
1070
    73
1070
     1
1070
    44
1040
1.0
1070
    74
1070
     0
1000
MTEXTEND
  0
POINT
  5
3E02
330
3D60
100
AcDbEntity
  8
DEFPOINTS
 62
     0
100
AcDbPoint
 10
299.7020861987881
 20
121.5598420723829
 30
0.0
  0
POINT
  5
3E03
330
3D60
100
AcDbEntity
  8
DEFPOINTS
 62
     0
100
AcDbPoint
 10
304.1587743259103
 20
117.418836060488
 30
0.0
  0
POINT
  5
3E04
330
3D60
100
AcDbEntity
  8
DEFPOINTS
 62
     0
100
AcDbPoint
 10
285.49644006973
 20
109.9539021639409
 30
0.0
  0
ENDBLK
  5
3D6D
330
3D60
100
AcDbEntity
  8
0
100
AcDbBlockEnd
  0
BLOCK
  5
3D78
330
3D6E
100
AcDbEntity
  8
0
100
AcDbBlockBegin
  2
*D12
 70
     1
 10
0.0
 20
0.0
 30
0.0
  3
*D12
  1

  0
LINE
  5
3E05
330
3D6E
100
AcDbEntity
  8
SUNPOU
100
AcDbLine
 10
339.0694974304124
 20
170.1563124157403
 30
0.0
 11
354.4590044509613
 21
176.3121153839997
 31
0.0
  0
LINE
  5
3E06
330
3D6E
100
AcDbEntity
  8
SUNPOU
100
AcDbLine
 10
346.1259203910126
 20
157.9004201593147
 30
0.0
 11
359.6584740364507
 21
163.3134417582188
 31
0.0
  0
LINE
  5
3E07
330
3D6E
100
AcDbEntity
  8
SUNPOU
100
AcDbLine
 10
354.180461473661
 20
172.9695992943157
 30
0.0
 11
357.1515869510835
 21
165.5417857938694
 31
0.0
  0
INSERT
  5
3E08
330
3D6E
100
AcDbEntity
  8
SUNPOU
100
AcDbBlockReference
  2
_OPEN
 10
353.0662894196276
 20
175.755029356983
 30
0.0
 41
3.0
 42
3.0
 43
3.0
 50
111.8014100000028
  0
INSERT
  5
3E09
330
3D6E
100
AcDbEntity
  8
SUNPOU
100
AcDbBlockReference
  2
_OPEN
 10
358.2657590051169
 20
162.756355731202
 30
0.0
 41
3.0
 42
3.0
 43
3.0
 50
291.8014100000028
  0
MTEXT
  5
3E0A
330
3D6E
100
AcDbEntity
  8
SUNPOU
100
AcDbMText
 10
357.9872159312618
 20
170.1841692557871
 30
0.0
 40
3.0
 41
0.0
 71
     5
 72
     1
  1
\A1;14
 11
0.3713906846778061
 21
-0.9284766875557783
 31
0.0
1001
ACAD
1000
MTEXTBEGIN
1070
    73
1070
     1
1070
    44
1040
1.0
1070
    74
1070
     0
1000
MTEXTEND
  0
POINT
  5
3E0B
330
3D6E
100
AcDbEntity
  8
DEFPOINTS
 62
     0
100
AcDbPoint
 10
336.2840673677451
 20
169.0421403617069
 30
0.0
  0
POINT
  5
3E0C
330
3D6E
100
AcDbEntity
  8
DEFPOINTS
 62
     0
100
AcDbPoint
 10
343.3404903283453
 20
156.7862481052813
 30
0.0
  0
POINT
  5
3E0D
330
3D6E
100
AcDbEntity
  8
DEFPOINTS
 62
     0
100
AcDbPoint
 10
358.2657590051169
 20
162.756355731202
 30
0.0
  0
ENDBLK
  5
3D79
330
3D6E
100
AcDbEntity
  8
0
100
AcDbBlockEnd
  0
BLOCK
  5
3D84
330
3D7A
100
AcDbEntity
  8
0
100
AcDbBlockBegin
  2
*D13
 70
     1
 10
0.0
 20
0.0
 30
0.0
  3
*D13
  1

  0
LINE
  5
3E0E
330
3D7A
100
AcDbEntity
  8
SUNPOU
100
AcDbLine
 10
292.7013716296168
 20
155.4863802578193
 30
0.0
 11
277.4989436119403
 21
193.4924493139288
 31
0.0
  0
LINE
  5
3E0F
330
3D7A
100
AcDbEntity
  8
SUNPOU
100
AcDbLine
 10
331.6973925069602
 20
171.0847890142852
 30
0.0
 11
316.4949644892842
 21
209.0908580703937
 31
0.0
  0
LINE
  5
3E10
330
3D7A
100
AcDbEntity
  8
SUNPOU
100
AcDbLine
 10
280.8414597016244
 20
193.2139063366283
 30
0.0
 11
314.2666204536335
 21
206.5839709850267
 31
0.0
  0
INSERT
  5
3E11
330
3D7A
100
AcDbEntity
  8
SUNPOU
100
AcDbBlockReference
  2
_OPEN
 10
278.056029638957
 20
192.0997342825951
 30
0.0
 41
3.0
 42
3.0
 43
3.0
 50
201.8014099999984
  0
INSERT
  5
3E12
330
3D7A
100
AcDbEntity
  8
SUNPOU
100
AcDbBlockReference
  2
_OPEN
 10
317.0520505163008
 20
207.69814303906
 30
0.0
 41
3.0
 42
3.0
 43
3.0
 50
21.80140999999843
  0
MTEXT
  5
3E13
330
3D7A
100
AcDbEntity
  8
SUNPOU
100
AcDbMText
 10
296.6255633659345
 20
202.220130379717
 30
0.0
 40
3.0
 41
0.0
 71
     5
 72
     1
  1
\A1;42
 11
0.9284766875558071
 21
0.3713906846777345
 31
0.0
1001
ACAD
1000
MTEXTBEGIN
1070
    73
1070
     1
1070
    44
1040
1.0
1070
    74
1070
     0
1000
MTEXTEND
  0
POINT
  5
3E14
330
3D7A
100
AcDbEntity
  8
DEFPOINTS
 62
     0
100
AcDbPoint
 10
293.8155436836499
 20
152.7009501951519
 30
0.0
  0
POINT
  5
3E15
330
3D7A
100
AcDbEntity
  8
DEFPOINTS
 62
     0
100
AcDbPoint
 10
332.8115645609934
 20
168.2993589516178
 30
0.0
  0
POINT
  5
3E16
330
3D7A
100
AcDbEntity
  8
DEFPOINTS
 62
     0
100
AcDbPoint
 10
317.0520505163008
 20
207.69814303906
 30
0.0
  0
ENDBLK
  5
3D85
330
3D7A
100
AcDbEntity
  8
0
100
AcDbBlockEnd
  0
BLOCK
  5
3D90
330
3D86
100
AcDbEntity
  8
0
100
AcDbBlockBegin
  2
*D14
 70
     1
 10
0.0
 20
0.0
 30
0.0
  3
*D14
  1

  0
LINE
  5
3E17
330
3D86
100
AcDbEntity
  8
SUNPOU
100
AcDbLine
 10
288.5603656177218
 20
151.029692130697
 30
0.0
 11
269.4433674247237
 21
198.8221863706831
 31
0.0
  0
LINE
  5
3E18
330
3D86
100
AcDbEntity
  8
SUNPOU
100
AcDbLine
 10
337.769630058179
 20
170.7133984186183
 30
0.0
 11
318.6526318651815
 21
218.5058926586031
 31
0.0
  0
LINE
  5
3E19
330
3D86
100
AcDbEntity
  8
SUNPOU
100
AcDbLine
 10
272.7858835144078
 20
198.5436433933827
 30
0.0
 11
316.4242878295307
 21
215.9990055732362
 31
0.0
  0
INSERT
  5
3E1A
330
3D86
100
AcDbEntity
  8
SUNPOU
100
AcDbBlockReference
  2
_OPEN
 10
270.0004534517403
 20
197.4294713393495
 30
0.0
 41
3.0
 42
3.0
 43
3.0
 50
201.8014099999984
  0
INSERT
  5
3E1B
330
3D86
100
AcDbEntity
  8
SUNPOU
100
AcDbBlockReference
  2
_OPEN
 10
319.2097178921981
 20
217.1131776272694
 30
0.0
 41
3.0
 42
3.0
 43
3.0
 50
21.80140999999843
  0
MTEXT
  5
3E1C
330
3D86
100
AcDbEntity
  8
SUNPOU
100
AcDbMText
 10
293.6766089602749
 20
209.5925162021989
 30
0.0
 40
3.0
 41
0.0
 71
     5
 72
     1
  1
\A1;53
 11
0.9284766875558071
 21
0.3713906846777345
 31
0.0
1001
ACAD
1000
MTEXTBEGIN
1070
    73
1070
     1
1070
    44
1040
1.0
1070
    74
1070
     0
1000
MTEXTEND
  0
POINT
  5
3E1D
330
3D86
100
AcDbEntity
  8
DEFPOINTS
 62
     0
100
AcDbPoint
 10
289.674537671755
 20
148.2442620680295
 30
0.0
  0
POINT
  5
3E1E
330
3D86
100
AcDbEntity
  8
DEFPOINTS
 62
     0
100
AcDbPoint
 10
338.8838021122122
 20
167.9279683559509
 30
0.0
  0
POINT
  5
3E1F
330
3D86
100
AcDbEntity
  8
DEFPOINTS
 62
     0
100
AcDbPoint
 10
319.2097178921981
 20
217.1131776272694
 30
0.0
  0
ENDBLK
  5
3D91
330
3D86
100
AcDbEntity
  8
0
100
AcDbBlockEnd
  0
BLOCK
  5
3D9C
330
3D92
100
AcDbEntity
  8
0
100
AcDbBlockBegin
  2
*D15
 70
     1
 10
0.0
 20
0.0
 30
0.0
  3
*D15
  1

  0
LINE
  5
3E20
330
3D92
100
AcDbEntity
  8
SUNPOU
100
AcDbLine
 10
296.9054004155911
 20
149.0151820809557
 30
0.0
 11
282.0193373829087
 21
186.2303386951425
 31
0.0
  0
LINE
  5
3E21
330
3D92
100
AcDbEntity
  8
SUNPOU
100
AcDbLine
 10
333.1159912302673
 20
163.4994187833884
 30
0.0
 11
318.2299281975853
 21
200.7145753975742
 31
0.0
  0
LINE
  5
3E22
330
3D92
100
AcDbEntity
  8
SUNPOU
100
AcDbLine
 10
285.3618534725928
 20
185.951795717842
 30
0.0
 11
316.0015841619344
 21
198.2076883122072
 31
0.0
  0
INSERT
  5
3E23
330
3D92
100
AcDbEntity
  8
SUNPOU
100
AcDbBlockReference
  2
_OPEN
 10
282.5764234099253
 20
184.8376236638088
 30
0.0
 41
3.0
 42
3.0
 43
3.0
 50
201.8014099999984
  0
INSERT
  5
3E24
330
3D92
100
AcDbEntity
  8
SUNPOU
100
AcDbBlockReference
  2
_OPEN
 10
318.7870142246018
 20
199.3218603662405
 30
0.0
 41
3.0
 42
3.0
 43
3.0
 50
21.80140999999843
  0
MTEXT
  5
3E25
330
3D92
100
AcDbEntity
  8
SUNPOU
100
AcDbMText
 10
299.7532421055692
 20
194.4009337339141
 30
0.0
 40
3.0
 41
0.0
 71
     5
 72
     1
  1
\A1;39
 11
0.9284766875558071
 21
0.3713906846777345
 31
0.0
1001
ACAD
1000
MTEXTBEGIN
1070
    73
1070
     1
1070
    44
1040
1.0
1070
    74
1070
     0
1000
MTEXTEND
  0
POINT
  5
3E26
330
3D92
100
AcDbEntity
  8
DEFPOINTS
 62
     0
100
AcDbPoint
 10
298.0195724696244
 20
146.2297520182883
 30
0.0
  0
POINT
  5
3E27
330
3D92
100
AcDbEntity
  8
DEFPOINTS
 62
     0
100
AcDbPoint
 10
334.2301632843005
 20
160.7139887207209
 30
0.0
  0
POINT
  5
3E28
330
3D92
100
AcDbEntity
  8
DEFPOINTS
 62
     0
100
AcDbPoint
 10
318.7870142246018
 20
199.3218603662405
 30
0.0
  0
ENDBLK
  5
3D9D
330
3D92
100
AcDbEntity
  8
0
100
AcDbBlockEnd
  0
ENDSEC
  0
SECTION
  2
ENTITIES
  0
LWPOLYLINE
  5
2A43
330
1A
100
AcDbEntity
  8
ZUWAKU
100
AcDbPolyline
 90
        4
 70
     1
 43
0.0
 10
0.3999996775634145
 20
275.4000000308041
 10
0.3999996775634145
 20
0.4000000308041649
 10
398.3999996775634
 20
0.4000000308041649
 10
398.3999996775634
 20
275.4000000308041
  0
LWPOLYLINE
  5
2A44
330
1A
100
AcDbEntity
  8
ZUWAKU
100
AcDbPolyline
 90
        4
 70
     1
 43
0.0
 10
0.1999996775634258
 20
275.6000000308041
 10
0.1999996775634258
 20
0.2000000308041763
 10
398.5999996775634
 20
0.2000000308041647
 10
398.5999996775634
 20
275.6000000308041
  0
LWPOLYLINE
  5
2A45
330
1A
100
AcDbEntity
  8
ZUWAKU
100
AcDbPolyline
 90
        4
 70
     1
 43
0.0
 10
-0.0000003224365628
 20
275.8000000308041
 10
-0.0000003224365628
 20
0.0000000308041308
 10
398.7999996775635
 20
0.0000000308041646
 10
398.7999996775635
 20
275.8000000308042
  0
LWPOLYLINE
  5
2A46
330
1A
100
AcDbEntity
  8
ZUWAKU
100
AcDbPolyline
 90
        4
 70
     1
 43
0.0
 10
0.2999996775633917
 20
275.5000000308041
 10
0.2999996775633917
 20
0.3000000308041422
 10
398.4999996775635
 20
0.3000000308041653
 10
398.4999996775634
 20
275.5000000308041
  0
LWPOLYLINE
  5
2A47
330
1A
100
AcDbEntity
  8
ZUWAKU
100
AcDbPolyline
 90
        4
 70
     1
 43
0.0
 10
0.0999996775634031
 20
275.7000000308041
 10
0.0999996775634031
 20
0.1000000308041535
 10
398.6999996775633
 20
0.1000000308041651
 10
398.6999996775634
 20
275.7000000308041
  0
LINE
  5
2A48
330
1A
100
AcDbEntity
  8
ZUWAKU
100
AcDbLine
 10
-0.0000003224365628
 20
15.00000003080413
 30
0.0
 11
398.6999996775633
 21
15.00000003080413
 31
0.0
  0
LINE
  5
2A49
330
1A
100
AcDbEntity
  8
ZUWAKU
100
AcDbLine
 10
-0.0000003224365628
 20
15.10000003080413
 30
0.0
 11
398.6999996775633
 21
15.10000003080413
 31
0.0
  0
LINE
  5
2A4A
330
1A
100
AcDbEntity
  8
ZUWAKU
100
AcDbLine
 10
-0.0000003224365628
 20
15.20000003080413
 30
0.0
 11
398.6999996775633
 21
15.20000003080413
 31
0.0
  0
LINE
  5
2A4B
330
1A
100
AcDbEntity
  8
ZUWAKU
100
AcDbLine
 10
-0.0000003224365628
 20
15.30000003080413
 30
0.0
 11
398.6999996775633
 21
15.30000003080413
 31
0.0
  0
LINE
  5
2A4C
330
1A
100
AcDbEntity
  8
ZUWAKU
100
AcDbLine
 10
-0.0000003224365628
 20
15.40000003080413
 30
0.0
 11
398.6999996775633
 21
15.40000003080413
 31
0.0
  0
LINE
  5
2A4D
330
1A
100
AcDbEntity
  8
ZUWAKU
100
AcDbLine
 10
104.3233003225974
 20
7.700000030804147
 30
0.0
 11
223.7121816630591
 21
7.700000030804147
 31
0.0
  0
LINE
  5
2A4E
330
1A
100
AcDbEntity
  8
ZUWAKU
100
AcDbLine
 10
104.3233003225974
 20
7.800000030804147
 30
0.0
 11
223.7121816630591
 21
7.800000030804151
 31
0.0
  0
LINE
  5
2A4F
330
1A
100
AcDbEntity
  8
ZUWAKU
100
AcDbLine
 10
104.3233003225974
 20
7.600000030804149
 30
0.0
 11
223.7121816630591
 21
7.600000030804146
 31
0.0
  0
TEXT
  5
2A50
330
1A
100
AcDbEntity
  8
MOJI
100
AcDbText
 10
46.478894471648
 20
6.370589095941511
 30
0.0
 40
3.0
  1
ライナートップ
 41
0.9
  7
ｽﾀｲﾙ1
100
AcDbText
  0
CIRCLE
  5
2A51
330
1A
100
AcDbEntity
  8
ZUWAKU
100
AcDbCircle
 10
12.99610575495398
 20
7.600000030804132
 30
0.0
 40
0.875
  0
LINE
  5
2A52
330
1A
100
AcDbEntity
  8
ZUWAKU
100
AcDbLine
 10
13.43360575495398
 20
3.575000030804133
 30
0.0
 11
12.47110575495401
 21
3.575000030804133
 31
0.0
  0
LINE
  5
2A53
330
1A
100
AcDbEntity
  8
ZUWAKU
100
AcDbLine
 10
12.47110575495401
 20
4.975000030804132
 30
0.0
 11
13.43360575495398
 21
4.975000030804132
 31
0.0
  0
LINE
  5
2A54
330
1A
100
AcDbEntity
  8
ZUWAKU
100
AcDbLine
 10
13.43360575495398
 20
10.22500003080413
 30
0.0
 11
12.47110575495401
 21
10.22500003080413
 31
0.0
  0
LINE
  5
2A55
330
1A
100
AcDbEntity
  8
ZUWAKU
100
AcDbLine
 10
12.47110575495401
 20
11.62500003080411
 30
0.0
 11
13.43360575495398
 21
11.62500003080413
 31
0.0
  0
HATCH
  5
2A56
330
1A
100
AcDbEntity
  8
ZUWAKU
100
AcDbHatch
 10
0.0
 20
0.0
 30
0.0
210
0.0
220
0.0
230
1.0
  2
ANSI37
 70
     0
 71
     0
 91
        8
 92
        7
 72
     1
 73
     1
 93
       24
 10
7.251131008123365
 20
8.822424271295922
 42
-0.1989123673796348
 10
7.046105754953998
 20
9.317399018126447
 42
0.0
 10
7.046105754953998
 20
9.962500030804136
 42
-0.4142135623730912
 10
7.308605754953987
 20
10.22500003080413
 42
0.0
 10
8.796105754953941
 20
10.22500003080413
 42
0.4142135623731546
 10
9.058605754953987
 20
10.48750003080412
 42
0.0
 10
9.058605754953987
 20
11.36250003080413
 42
0.4142135623731586
 10
8.796105754953941
 20
11.62500003080413
 42
0.0
 10
7.046105754953998
 20
11.62500003080413
 42
0.4142135623730928
 10
5.646105754954021
 20
10.22500003080414
 42
0.0
 10
5.646105754954021
 20
9.317399018126511
 42
0.1989123673796619
 10
6.261181514462236
 20
7.832474777634708
 42
0.0
 10
7.716080501784574
 20
6.377575790312379
 42
-0.1989123673796613
 10
7.921105754953998
 20
5.882601043481786
 42
0.0
 10
7.921105754953998
 20
5.237500030804127
 42
-0.4142135623730911
 10
7.65860575495401
 20
4.975000030804132
 42
0.0
 10
6.171105754954055
 20
4.975000030804132
 42
0.4142135623731526
 10
5.90860575495401
 20
4.712500030804138
 42
0.0
 10
5.90860575495401
 20
3.837500030804127
 42
0.4142135623731526
 10
6.171105754954055
 20
3.575000030804133
 42
0.0
 10
7.921105754953998
 20
3.575000030804133
 42
0.4142135623731044
 10
9.321105754954032
 20
4.975000030804121
 42
0.0
 10
9.321105754954032
 20
5.882601043481757
 42
0.1989123673796604
 10
8.70602999544576
 20
7.367525283973527
 42
0.0
 97
        0
 92
        7
 72
     1
 73
     1
 93
       16
 10
11.77110575495402
 20
9.525000030804136
 42
-0.4142135623730935
 10
12.47110575495401
 20
10.22500003080413
 42
0.0
 10
13.43360575495398
 20
10.22500003080413
 42
0.4142135623731546
 10
13.69610575495403
 20
10.48750003080412
 42
0.0
 10
13.69610575495403
 20
11.36250003080413
 42
0.4142135623730951
 10
13.43360575495404
 20
11.62500003080413
 42
0.0
 10
12.47110575495395
 20
11.62500003080411
 42
0.4142135623730892
 10
10.37110575495398
 20
9.5250000308041
 42
0.0
 10
10.37110575495398
 20
5.675000030804145
 42
0.4142135623730969
 10
12.47110575495401
 20
3.575000030804133
 42
0.0
 10
13.43360575495398
 20
3.575000030804133
 42
0.4142135623731526
 10
13.69610575495403
 20
3.837500030804127
 42
0.0
 10
13.69610575495403
 20
4.712500030804138
 42
0.4142135623730891
 10
13.43360575495404
 20
4.975000030804132
 42
0.0
 10
12.47110575495401
 20
4.975000030804132
 42
-0.4142135623730928
 10
11.77110575495402
 20
5.675000030804126
 42
0.0
 97
        0
 92
        7
 72
     1
 73
     1
 93
        2
 10
12.12110575495398
 20
7.600000030804132
 42
1.0
 10
13.87110575495398
 20
7.600000030804132
 42
1.0
 97
        0
 92
        7
 72
     1
 73
     1
 93
       26
 10
18.65742899604299
 20
9.602523627585846
 42
0.0
 10
19.1882488126119
 20
11.28345304672064
 42
0.5069206636600134
 10
18.93793336301422
 20
11.62500003080413
 42
0.0
 10
18.08848867320961
 20
11.62500003080413
 42
0.3272098845218764
 10
17.83817322361193
 20
11.44154701488761
 42
0.0
 10
16.90403828629604
 20
8.483453046720672
 42
-0.3272098845219541
 10
16.6537228366983
 20
8.300000030804131
 42
0.0
 10
16.58360575495407
 20
8.300000030804131
 42
-0.4142135623731526
 10
16.32110575495403
 20
8.562500030804125
 42
0.0
 10
16.32110575495403
 20
11.36250003080413
 42
0.4142135623730951
 10
16.05860575495404
 20
11.62500003080413
 42
0.0
 10
15.18360575495398
 20
11.62500003080413
 42
0.4142135623730871
 10
14.921105754954
 20
11.36250003080414
 42
0.0
 10
14.921105754954
 20
3.837500030804127
 42
0.4142135623730891
 10
15.18360575495398
 20
3.575000030804133
 42
0.0
 10
16.05860575495398
 20
3.575000030804133
 42
0.4142135623731526
 10
16.32110575495403
 20
3.837500030804127
 42
0.0
 10
16.32110575495403
 20
6.637500030804138
 42
-0.4142135623731526
 10
16.58360575495407
 20
6.900000030804132
 42
0.0
 10
16.65372283669836
 20
6.900000030804132
 42
-0.3272098845218915
 10
16.90403828629604
 20
6.716547014887595
 42
0.0
 10
17.83817322361193
 20
3.758453046720669
 42
0.3272098845218902
 10
18.08848867320961
 20
3.575000030804133
 42
0.0
 10
18.93793336301422
 20
3.575000030804133
 42
0.5069206636600335
 10
19.1882488126119
 20
3.916547014887637
 42
0.0
 10
18.02505312337507
 20
7.600000030804201
 42
0.0
 97
        0
 92
        7
 72
     1
 73
     1
 93
        8
 10
21.74610575495398
 20
11.36250003080413
 42
0.4142135623731546
 10
21.48360575495394
 20
11.62500003080413
 42
0.0
 10
20.60860575495405
 20
11.62500003080413
 42
0.4142135623731507
 10
20.346105754954
 20
11.36250003080414
 42
0.0
 10
20.346105754954
 20
3.837500030804127
 42
0.4142135623731526
 10
20.60860575495405
 20
3.575000030804133
 42
0.0
 10
21.48360575495394
 20
3.575000030804133
 42
0.4142135623731526
 10
21.74610575495398
 20
3.837500030804127
 42
0.0
 97
        0
 92
        7
 72
     1
 73
     1
 93
       24
 10
24.19610575495403
 20
9.962500030804136
 42
-0.4142135623731546
 10
24.45860575495407
 20
10.22500003080413
 42
0.0
 10
25.94610575495403
 20
10.22500003080413
 42
0.4142135623730911
 10
26.20860575495402
 20
10.48750003080412
 42
0.0
 10
26.20860575495402
 20
11.36250003080413
 42
0.4142135623730952
 10
25.94610575495403
 20
11.62500003080413
 42
0.0
 10
24.19610575495403
 20
11.62500003080413
 42
0.4142135623731048
 10
22.796105754954
 20
10.22500003080414
 42
0.0
 10
22.796105754954
 20
9.317399018126511
 42
0.1989123673796613
 10
23.41118151446227
 20
7.832474777634736
 42
0.0
 10
24.8660805017846
 20
6.377575790312402
 42
-0.1989123673796402
 10
25.07110575495403
 20
5.882601043481866
 42
0.0
 10
25.07110575495403
 20
5.237500030804127
 42
-0.4142135623730911
 10
24.80860575495404
 20
4.975000030804132
 42
0.0
 10
23.32110575495403
 20
4.975000030804132
 42
0.4142135623731526
 10
23.05860575495398
 20
4.712500030804138
 42
0.0
 10
23.05860575495398
 20
3.837500030804127
 42
0.4142135623730891
 10
23.32110575495397
 20
3.575000030804133
 42
0.0
 10
25.07110575495403
 20
3.575000030804133
 42
0.4142135623730925
 10
26.47110575495401
 20
4.975000030804121
 42
0.0
 10
26.47110575495401
 20
5.882601043481757
 42
0.1989123673796675
 10
25.85602999544573
 20
7.367525283973584
 42
0.0
 10
24.40113100812345
 20
8.822424271295842
 42
-0.1989123673796652
 10
24.19610575495403
 20
9.317399018126426
 42
0.0
 97
        0
 92
        7
 72
     1
 73
     1
 93
       16
 10
28.92110575495399
 20
11.36250003080412
 42
0.414213562373103
 10
28.65860575495401
 20
11.62500003080413
 42
0.0
 10
27.78360575495401
 20
11.62500003080413
 42
0.4142135623730871
 10
27.52110575495402
 20
11.36250003080414
 42
0.0
 10
27.52110575495402
 20
4.975000030804121
 42
0.4142135623730926
 10
28.92110575495399
 20
3.575000030804133
 42
0.0
 10
30.671105754954
 20
3.575000030804133
 42
0.4142135623731044
 10
32.07110575495403
 20
4.975000030804121
 42
0.0
 10
32.07110575495403
 20
11.36250003080413
 42
0.4142135623730951
 10
31.80860575495404
 20
11.62500003080413
 42
0.0
 10
30.93360575495399
 20
11.62500003080413
 42
0.4142135623730871
 10
30.671105754954
 20
11.36250003080414
 42
0.0
 10
30.671105754954
 20
5.50000003080412
 42
-0.414213562373088
 10
30.14610575495402
 20
4.975000030804132
 42
0.0
 10
29.44610575495403
 20
4.975000030804132
 42
-0.4142135623731197
 10
28.92110575495399
 20
5.50000003080412
 42
0.0
 97
        0
 92
        7
 72
     1
 73
     1
 93
        8
 10
34.52110575495402
 20
11.36250003080414
 42
0.4142135623730871
 10
34.25860575495403
 20
11.62500003080413
 42
0.0
 10
33.38360575495403
 20
11.62500003080413
 42
0.4142135623731507
 10
33.12110575495399
 20
11.36250003080414
 42
0.0
 10
33.12110575495399
 20
3.837500030804127
 42
0.4142135623730891
 10
33.38360575495397
 20
3.575000030804133
 42
0.0
 10
34.25860575495403
 20
3.575000030804133
 42
0.4142135623730891
 10
34.52110575495402
 20
3.837500030804127
 42
0.0
 97
        0
 75
     0
 76
     1
 52
0.0
 41
0.1
 77
     0
 78
     2
 53
45.0
 43
-450.471152489776
 44
-6.599999969195835
 45
-0.2245064030267288
 46
0.2245064030267288
 79
     0
 53
135.0
 43
-450.471152489776
 44
-6.599999969195835
 45
-0.2245064030267288
 46
-0.2245064030267288
 79
     0
 47
0.057451373970553
 98
        8
 10
8.039927159075091
 20
7.583586853746908
 10
11.20225718078302
 20
9.422031122029636
 10
12.58218362039326
 20
7.75594085383949
 10
15.457029668382
 20
8.100648854024882
 10
20.9192356870418
 20
8.33045498779569
 10
23.44910012512821
 20
9.709288189007736
 10
28.27884266376361
 20
9.364578988351638
 10
33.9135394873748
 20
9.594385122122446
  0
ARC
  5
2A57
330
1A
100
AcDbEntity
  8
ZUWAKU
100
AcDbCircle
 10
7.746105754953987
 20
9.317399018126483
 30
0.0
 40
2.099999999999999
100
AcDbArc
 50
180.0
 51
225.0
  0
LINE
  5
2A58
330
1A
100
AcDbEntity
  8
ZUWAKU
100
AcDbLine
 10
10.37110575495398
 20
5.675000030804135
 30
0.0
 11
10.37110575495398
 21
9.525000030804111
 31
0.0
  0
LINE
  5
2A59
330
1A
100
AcDbEntity
  8
ZUWAKU
100
AcDbLine
 10
11.77110575495402
 20
9.525000030804132
 30
0.0
 11
11.77110575495402
 21
5.675000030804135
 31
0.0
  0
ARC
  5
2A5A
330
1A
100
AcDbEntity
  8
ZUWAKU
100
AcDbCircle
 10
7.746105754953987
 20
9.317399018126483
 30
0.0
 40
0.7
100
AcDbArc
 50
180.0000000000016
 51
224.9999999999988
  0
ARC
  5
2A5B
330
1A
100
AcDbEntity
  8
ZUWAKU
100
AcDbCircle
 10
12.47110575495401
 20
5.675000030804135
 30
0.0
 40
2.099999999999999
100
AcDbArc
 50
180.0
 51
270.0
  0
ARC
  5
2A5C
330
1A
100
AcDbEntity
  8
ZUWAKU
100
AcDbCircle
 10
7.921105754953998
 20
4.975000030804132
 30
0.0
 40
1.399999999999999
100
AcDbArc
 50
270.0
 51
0.0
  0
ARC
  5
2A5D
330
1A
100
AcDbEntity
  8
ZUWAKU
100
AcDbCircle
 10
7.22110575495401
 20
5.882601043481784
 30
0.0
 40
2.099999999999999
100
AcDbArc
 50
0.0
 51
45.0
  0
LINE
  5
2A5E
330
1A
100
AcDbEntity
  8
ZUWAKU
100
AcDbLine
 10
6.261181514462236
 20
7.832474777634722
 30
0.0
 11
7.716080501784574
 21
6.377575790312391
 31
0.0
  0
LINE
  5
2A5F
330
1A
100
AcDbEntity
  8
ZUWAKU
100
AcDbLine
 10
6.171105754953998
 20
4.975000030804132
 30
0.0
 11
7.65860575495401
 21
4.975000030804132
 31
0.0
  0
LINE
  5
2A60
330
1A
100
AcDbEntity
  8
ZUWAKU
100
AcDbLine
 10
6.171105754953998
 20
3.575000030804133
 30
0.0
 11
7.921105754953998
 21
3.575000030804133
 31
0.0
  0
ARC
  5
2A61
330
1A
100
AcDbEntity
  8
ZUWAKU
100
AcDbCircle
 10
6.171105754953998
 20
4.712500030804132
 30
0.0
 40
0.2625
100
AcDbArc
 50
90.0
 51
180.0
  0
ARC
  5
2A62
330
1A
100
AcDbEntity
  8
ZUWAKU
100
AcDbCircle
 10
6.171105754953998
 20
3.837500030804132
 30
0.0
 40
0.2625
100
AcDbArc
 50
180.0
 51
270.0
  0
LINE
  5
2A63
330
1A
100
AcDbEntity
  8
ZUWAKU
100
AcDbLine
 10
5.90860575495401
 20
3.837500030804132
 30
0.0
 11
5.90860575495401
 21
4.712500030804132
 31
0.0
  0
ARC
  5
2A64
330
1A
100
AcDbEntity
  8
ZUWAKU
100
AcDbCircle
 10
7.22110575495401
 20
5.882601043481805
 30
0.0
 40
0.7
100
AcDbArc
 50
0.0
 51
45.0
  0
ARC
  5
2A65
330
1A
100
AcDbEntity
  8
ZUWAKU
100
AcDbCircle
 10
7.65860575495401
 20
5.237500030804135
 30
0.0
 40
0.2625
100
AcDbArc
 50
270.0
 51
0.0
  0
LINE
  5
2A66
330
1A
100
AcDbEntity
  8
ZUWAKU
100
AcDbLine
 10
7.921105754953998
 20
5.237500030804135
 30
0.0
 11
7.921105754953998
 21
5.882601043481805
 31
0.0
  0
LINE
  5
2A67
330
1A
100
AcDbEntity
  8
ZUWAKU
100
AcDbLine
 10
8.70602999544576
 20
7.367525283973545
 30
0.0
 11
7.251131008123422
 21
8.822424271295883
 31
0.0
  0
ARC
  5
2A68
330
1A
100
AcDbEntity
  8
ZUWAKU
100
AcDbCircle
 10
12.47110575495401
 20
5.675000030804135
 30
0.0
 40
0.7
100
AcDbArc
 50
180.0
 51
270.0
  0
LINE
  5
2A69
330
1A
100
AcDbEntity
  8
ZUWAKU
100
AcDbLine
 10
9.321105754954032
 20
4.975000030804132
 30
0.0
 11
9.321105754954032
 21
5.882601043481805
 31
0.0
  0
ARC
  5
2A6A
330
1A
100
AcDbEntity
  8
ZUWAKU
100
AcDbCircle
 10
8.796105754953998
 20
10.48750003080413
 30
0.0
 40
0.2625
100
AcDbArc
 50
270.0
 51
0.0
  0
ARC
  5
2A6B
330
1A
100
AcDbEntity
  8
ZUWAKU
100
AcDbCircle
 10
8.796105754953998
 20
11.36250003080413
 30
0.0
 40
0.2625
100
AcDbArc
 50
0.0
 51
90.0
  0
ARC
  5
2A6C
330
1A
100
AcDbEntity
  8
ZUWAKU
100
AcDbCircle
 10
7.046105754953998
 20
10.22500003080413
 30
0.0
 40
1.399999999999999
100
AcDbArc
 50
90.0
 51
180.0
  0
LINE
  5
2A6D
330
1A
100
AcDbEntity
  8
ZUWAKU
100
AcDbLine
 10
5.646105754954021
 20
10.22500003080413
 30
0.0
 11
5.646105754954021
 21
9.317399018126462
 31
0.0
  0
LINE
  5
2A6E
330
1A
100
AcDbEntity
  8
ZUWAKU
100
AcDbLine
 10
8.796105754953998
 20
10.22500003080413
 30
0.0
 11
7.308605754953987
 21
10.22500003080413
 31
0.0
  0
LINE
  5
2A6F
330
1A
100
AcDbEntity
  8
ZUWAKU
100
AcDbLine
 10
7.046105754953998
 20
9.962500030804132
 30
0.0
 11
7.046105754953998
 21
9.317399018126462
 31
0.0
  0
ARC
  5
2A70
330
1A
100
AcDbEntity
  8
ZUWAKU
100
AcDbCircle
 10
7.308605754953987
 20
9.962500030804132
 30
0.0
 40
0.2625
100
AcDbArc
 50
90.0
 51
180.0
  0
LINE
  5
2A71
330
1A
100
AcDbEntity
  8
ZUWAKU
100
AcDbLine
 10
7.046105754953998
 20
11.62500003080413
 30
0.0
 11
8.796105754953998
 21
11.62500003080413
 31
0.0
  0
ARC
  5
2A72
330
1A
100
AcDbEntity
  8
ZUWAKU
100
AcDbCircle
 10
12.47110575495401
 20
9.525000030804111
 30
0.0
 40
2.099999999999999
100
AcDbArc
 50
90.0
 51
180.0
  0
ARC
  5
2A73
330
1A
100
AcDbEntity
  8
ZUWAKU
100
AcDbCircle
 10
12.47110575495401
 20
9.525000030804132
 30
0.0
 40
0.7
100
AcDbArc
 50
90.0
 51
180.0
  0
LINE
  5
2A74
330
1A
100
AcDbEntity
  8
ZUWAKU
100
AcDbLine
 10
9.058605754953987
 20
11.36250003080413
 30
0.0
 11
9.058605754953987
 21
10.48750003080413
 31
0.0
  0
LINE
  5
2A75
330
1A
100
AcDbEntity
  8
ZUWAKU
100
AcDbLine
 10
17.83817322361193
 20
11.44154701488761
 30
0.0
 11
16.90403828629604
 21
8.483453046720647
 31
0.0
  0
LINE
  5
2A76
330
1A
100
AcDbEntity
  8
ZUWAKU
100
AcDbLine
 10
14.921105754954
 20
11.36250003080413
 30
0.0
 11
14.921105754954
 21
3.837500030804132
 31
0.0
  0
LINE
  5
2A77
330
1A
100
AcDbEntity
  8
ZUWAKU
100
AcDbLine
 10
16.32110575495403
 20
8.562500030804134
 30
0.0
 11
16.32110575495403
 21
11.36250003080413
 31
0.0
  0
LINE
  5
2A78
330
1A
100
AcDbEntity
  8
ZUWAKU
100
AcDbLine
 10
28.92110575495399
 20
5.50000003080413
 30
0.0
 11
28.92110575495399
 21
11.36250003080413
 31
0.0
  0
LINE
  5
2A79
330
1A
100
AcDbEntity
  8
ZUWAKU
100
AcDbLine
 10
27.52110575495402
 20
11.36250003080413
 30
0.0
 11
27.52110575495402
 21
4.975000030804132
 31
0.0
  0
LINE
  5
2A7A
330
1A
100
AcDbEntity
  8
ZUWAKU
100
AcDbLine
 10
21.74610575495398
 20
3.837500030804132
 30
0.0
 11
21.74610575495398
 21
11.36250003080413
 31
0.0
  0
LINE
  5
2A7B
330
1A
100
AcDbEntity
  8
ZUWAKU
100
AcDbLine
 10
20.346105754954
 20
11.36250003080413
 30
0.0
 11
20.346105754954
 21
3.837500030804132
 31
0.0
  0
LINE
  5
2A7C
330
1A
100
AcDbEntity
  8
ZUWAKU
100
AcDbLine
 10
18.65742899604299
 20
9.602523627585846
 30
0.0
 11
18.02505312337507
 21
7.600000030804142
 31
0.0
  0
ARC
  5
2A7D
330
1A
100
AcDbEntity
  8
ZUWAKU
100
AcDbCircle
 10
24.89610575495402
 20
9.317399018126483
 30
0.0
 40
2.099999999999999
100
AcDbArc
 50
180.0
 51
225.0
  0
ARC
  5
2A7E
330
1A
100
AcDbEntity
  8
ZUWAKU
100
AcDbCircle
 10
24.89610575495402
 20
9.317399018126483
 30
0.0
 40
0.7
100
AcDbArc
 50
180.0000000000016
 51
224.9999999999988
  0
LINE
  5
2A7F
330
1A
100
AcDbEntity
  8
ZUWAKU
100
AcDbLine
 10
33.12110575495399
 20
11.36250003080413
 30
0.0
 11
33.12110575495399
 21
3.837500030804132
 31
0.0
  0
LINE
  5
2A80
330
1A
100
AcDbEntity
  8
ZUWAKU
100
AcDbLine
 10
34.52110575495402
 20
3.837500030804132
 30
0.0
 11
34.52110575495402
 21
11.36250003080413
 31
0.0
  0
LINE
  5
2A81
330
1A
100
AcDbEntity
  8
ZUWAKU
100
AcDbLine
 10
30.671105754954
 20
11.36250003080413
 30
0.0
 11
30.671105754954
 21
5.50000003080413
 31
0.0
  0
LINE
  5
2A82
330
1A
100
AcDbEntity
  8
ZUWAKU
100
AcDbLine
 10
32.07110575495403
 20
4.975000030804132
 30
0.0
 11
32.07110575495403
 21
11.36250003080413
 31
0.0
  0
LINE
  5
2A83
330
1A
100
AcDbEntity
  8
ZUWAKU
100
AcDbLine
 10
39.56331445155763
 20
15.00000003080413
 30
0.0
 11
39.56331445155763
 21
0.4000000308041649
 31
0.0
  0
LINE
  5
2A84
330
1A
100
AcDbEntity
  8
ZUWAKU
100
AcDbLine
 10
39.76331445155756
 20
15.00000003080413
 30
0.0
 11
39.76331445155767
 21
0.4000000308041649
 31
0.0
  0
LINE
  5
2A85
330
1A
100
AcDbEntity
  8
ZUWAKU
100
AcDbLine
 10
39.66331445155754
 20
15.00000003080413
 30
0.0
 11
39.66331445155765
 21
0.4000000308041649
 31
0.0
  0
LINE
  5
2A86
330
1A
100
AcDbEntity
  8
ZUWAKU
100
AcDbLine
 10
28.92110575495399
 20
3.575000030804133
 30
0.0
 11
30.671105754954
 21
3.575000030804133
 31
0.0
  0
LINE
  5
2A87
330
1A
100
AcDbEntity
  8
ZUWAKU
100
AcDbLine
 10
30.14610575495402
 20
4.975000030804132
 30
0.0
 11
29.44610575495403
 21
4.975000030804132
 31
0.0
  0
LINE
  5
2A88
330
1A
100
AcDbEntity
  8
ZUWAKU
100
AcDbLine
 10
20.608605754954
 20
3.575000030804133
 30
0.0
 11
21.483605754954
 21
3.575000030804133
 31
0.0
  0
LINE
  5
2A89
330
1A
100
AcDbEntity
  8
ZUWAKU
100
AcDbLine
 10
17.83817322361193
 20
3.758453046720646
 30
0.0
 11
16.90403828629604
 21
6.716547014887616
 31
0.0
  0
ARC
  5
2A8A
330
1A
100
AcDbEntity
  8
ZUWAKU
100
AcDbCircle
 10
16.58360575495402
 20
6.637500030804133
 30
0.0
 40
0.2625
100
AcDbArc
 50
90.0
 51
180.0
  0
ARC
  5
2A8B
330
1A
100
AcDbEntity
  8
ZUWAKU
100
AcDbCircle
 10
16.65372283669836
 20
6.637500030804133
 30
0.0
 40
0.2625
100
AcDbArc
 50
17.52556837372303
 51
90.0
  0
ARC
  5
2A8C
330
1A
100
AcDbEntity
  8
ZUWAKU
100
AcDbCircle
 10
15.18360575495398
 20
3.837500030804132
 30
0.0
 40
0.2625
100
AcDbArc
 50
180.0
 51
270.0
  0
ARC
  5
2A8D
330
1A
100
AcDbEntity
  8
ZUWAKU
100
AcDbCircle
 10
13.43360575495398
 20
4.712500030804132
 30
0.0
 40
0.2625
100
AcDbArc
 50
0.0
 51
90.0
  0
ARC
  5
2A8E
330
1A
100
AcDbEntity
  8
ZUWAKU
100
AcDbCircle
 10
13.43360575495398
 20
3.837500030804132
 30
0.0
 40
0.2625
100
AcDbArc
 50
270.0
 51
0.0
  0
LINE
  5
2A8F
330
1A
100
AcDbEntity
  8
ZUWAKU
100
AcDbLine
 10
13.69610575495403
 20
4.712500030804132
 30
0.0
 11
13.69610575495403
 21
3.837500030804132
 31
0.0
  0
LINE
  5
2A90
330
1A
100
AcDbEntity
  8
ZUWAKU
100
AcDbLine
 10
16.32110575495403
 20
3.837500030804132
 30
0.0
 11
16.32110575495403
 21
6.637500030804133
 31
0.0
  0
ARC
  5
2A91
330
1A
100
AcDbEntity
  8
ZUWAKU
100
AcDbCircle
 10
16.05860575495398
 20
3.837500030804132
 30
0.0
 40
0.2625
100
AcDbArc
 50
270.0
 51
0.0
  0
LINE
  5
2A92
330
1A
100
AcDbEntity
  8
ZUWAKU
100
AcDbLine
 10
15.18360575495398
 20
3.575000030804133
 30
0.0
 11
16.05860575495398
 21
3.575000030804133
 31
0.0
  0
ARC
  5
2A93
330
1A
100
AcDbEntity
  8
ZUWAKU
100
AcDbCircle
 10
16.58360575495402
 20
8.562500030804134
 30
0.0
 40
0.2625
100
AcDbArc
 50
180.0
 51
270.0
  0
LINE
  5
2A94
330
1A
100
AcDbEntity
  8
ZUWAKU
100
AcDbLine
 10
16.58360575495402
 20
6.900000030804132
 30
0.0
 11
16.65372283669836
 21
6.900000030804132
 31
0.0
  0
LINE
  5
2A95
330
1A
100
AcDbEntity
  8
ZUWAKU
100
AcDbLine
 10
16.65372283669836
 20
8.300000030804131
 30
0.0
 11
16.58360575495402
 21
8.300000030804131
 31
0.0
  0
ARC
  5
2A96
330
1A
100
AcDbEntity
  8
ZUWAKU
100
AcDbCircle
 10
16.65372283669836
 20
8.562500030804134
 30
0.0
 40
0.2625
100
AcDbArc
 50
270.0
 51
342.4744316262769
  0
ARC
  5
2A97
330
1A
100
AcDbEntity
  8
ZUWAKU
100
AcDbCircle
 10
18.08848867320966
 20
3.837500030804132
 30
0.0
 40
0.2625
100
AcDbArc
 50
197.525568373723
 51
270.0
  0
LINE
  5
2A98
330
1A
100
AcDbEntity
  8
ZUWAKU
100
AcDbLine
 10
19.1882488126119
 20
3.916547014887619
 30
0.0
 11
18.02505312337507
 21
7.600000030804142
 31
0.0
  0
ARC
  5
2A99
330
1A
100
AcDbEntity
  8
ZUWAKU
100
AcDbCircle
 10
18.93793336301416
 20
3.837500030804132
 30
0.0
 40
0.2625
100
AcDbArc
 50
270.0
 51
17.52556837372303
  0
LINE
  5
2A9A
330
1A
100
AcDbEntity
  8
ZUWAKU
100
AcDbLine
 10
18.08848867320966
 20
3.575000030804133
 30
0.0
 11
18.93793336301416
 21
3.575000030804133
 31
0.0
  0
ARC
  5
2A9B
330
1A
100
AcDbEntity
  8
ZUWAKU
100
AcDbCircle
 10
20.608605754954
 20
3.837500030804132
 30
0.0
 40
0.2625
100
AcDbArc
 50
180.0
 51
270.0
  0
ARC
  5
2A9C
330
1A
100
AcDbEntity
  8
ZUWAKU
100
AcDbCircle
 10
25.07110575495403
 20
4.975000030804132
 30
0.0
 40
1.399999999999999
100
AcDbArc
 50
270.0
 51
0.0
  0
ARC
  5
2A9D
330
1A
100
AcDbEntity
  8
ZUWAKU
100
AcDbCircle
 10
28.92110575495399
 20
4.975000030804132
 30
0.0
 40
1.399999999999999
100
AcDbArc
 50
180.0
 51
270.0
  0
LINE
  5
2A9E
330
1A
100
AcDbEntity
  8
ZUWAKU
100
AcDbLine
 10
25.85602999544579
 20
7.367525283973545
 30
0.0
 11
24.4011310081234
 21
8.822424271295883
 31
0.0
  0
LINE
  5
2A9F
330
1A
100
AcDbEntity
  8
ZUWAKU
100
AcDbLine
 10
23.41118151446227
 20
7.832474777634722
 30
0.0
 11
24.8660805017846
 21
6.377575790312391
 31
0.0
  0
LINE
  5
2AA0
330
1A
100
AcDbEntity
  8
ZUWAKU
100
AcDbLine
 10
23.32110575495403
 20
3.575000030804133
 30
0.0
 11
25.07110575495403
 21
3.575000030804133
 31
0.0
  0
LINE
  5
2AA1
330
1A
100
AcDbEntity
  8
ZUWAKU
100
AcDbLine
 10
23.32110575495403
 20
4.975000030804132
 30
0.0
 11
24.80860575495398
 21
4.975000030804132
 31
0.0
  0
ARC
  5
2AA2
330
1A
100
AcDbEntity
  8
ZUWAKU
100
AcDbCircle
 10
23.32110575495403
 20
4.712500030804132
 30
0.0
 40
0.2625
100
AcDbArc
 50
90.0
 51
180.0
  0
ARC
  5
2AA3
330
1A
100
AcDbEntity
  8
ZUWAKU
100
AcDbCircle
 10
21.483605754954
 20
3.837500030804132
 30
0.0
 40
0.2625
100
AcDbArc
 50
270.0
 51
0.0
  0
ARC
  5
2AA4
330
1A
100
AcDbEntity
  8
ZUWAKU
100
AcDbCircle
 10
23.32110575495403
 20
3.837500030804132
 30
0.0
 40
0.2625
100
AcDbArc
 50
180.0
 51
270.0
  0
LINE
  5
2AA5
330
1A
100
AcDbEntity
  8
ZUWAKU
100
AcDbLine
 10
23.05860575495398
 20
3.837500030804132
 30
0.0
 11
23.05860575495398
 21
4.712500030804132
 31
0.0
  0
ARC
  5
2AA6
330
1A
100
AcDbEntity
  8
ZUWAKU
100
AcDbCircle
 10
24.80860575495398
 20
5.237500030804135
 30
0.0
 40
0.2625
100
AcDbArc
 50
270.0
 51
0.0
  0
ARC
  5
2AA7
330
1A
100
AcDbEntity
  8
ZUWAKU
100
AcDbCircle
 10
24.37110575495399
 20
5.882601043481805
 30
0.0
 40
0.7
100
AcDbArc
 50
0.0
 51
45.0
  0
LINE
  5
2AA8
330
1A
100
AcDbEntity
  8
ZUWAKU
100
AcDbLine
 10
25.07110575495403
 20
5.237500030804135
 30
0.0
 11
25.07110575495403
 21
5.882601043481805
 31
0.0
  0
ARC
  5
2AA9
330
1A
100
AcDbEntity
  8
ZUWAKU
100
AcDbCircle
 10
29.44610575495403
 20
5.50000003080413
 30
0.0
 40
0.525
100
AcDbArc
 50
180.0
 51
270.0
  0
ARC
  5
2AAA
330
1A
100
AcDbEntity
  8
ZUWAKU
100
AcDbCircle
 10
24.37110575495399
 20
5.882601043481784
 30
0.0
 40
2.099999999999999
100
AcDbArc
 50
0.0
 51
45.0
  0
LINE
  5
2AAB
330
1A
100
AcDbEntity
  8
ZUWAKU
100
AcDbLine
 10
26.47110575495401
 20
4.975000030804132
 30
0.0
 11
26.47110575495401
 21
5.882601043481805
 31
0.0
  0
ARC
  5
2AAC
330
1A
100
AcDbEntity
  8
ZUWAKU
100
AcDbCircle
 10
30.671105754954
 20
4.975000030804132
 30
0.0
 40
1.399999999999999
100
AcDbArc
 50
270.0
 51
0.0
  0
LINE
  5
2AAD
330
1A
100
AcDbEntity
  8
ZUWAKU
100
AcDbLine
 10
33.38360575495403
 20
3.575000030804133
 30
0.0
 11
34.25860575495403
 21
3.575000030804133
 31
0.0
  0
ARC
  5
2AAE
330
1A
100
AcDbEntity
  8
ZUWAKU
100
AcDbCircle
 10
30.14610575495402
 20
5.50000003080413
 30
0.0
 40
0.525
100
AcDbArc
 50
270.0
 51
0.0
  0
ARC
  5
2AAF
330
1A
100
AcDbEntity
  8
ZUWAKU
100
AcDbCircle
 10
33.38360575495403
 20
3.837500030804132
 30
0.0
 40
0.2625
100
AcDbArc
 50
180.0
 51
270.0
  0
ARC
  5
2AB0
330
1A
100
AcDbEntity
  8
ZUWAKU
100
AcDbCircle
 10
34.25860575495403
 20
3.837500030804132
 30
0.0
 40
0.2625
100
AcDbArc
 50
270.0
 51
0.0
  0
LINE
  5
2AB1
330
1A
100
AcDbEntity
  8
ZUWAKU
100
AcDbLine
 10
21.483605754954
 20
11.62500003080413
 30
0.0
 11
20.608605754954
 21
11.62500003080413
 31
0.0
  0
LINE
  5
2AB2
330
1A
100
AcDbEntity
  8
ZUWAKU
100
AcDbLine
 10
13.69610575495403
 20
11.36250003080413
 30
0.0
 11
13.69610575495403
 21
10.48750003080413
 31
0.0
  0
ARC
  5
2AB3
330
1A
100
AcDbEntity
  8
ZUWAKU
100
AcDbCircle
 10
13.43360575495398
 20
10.48750003080413
 30
0.0
 40
0.2625
100
AcDbArc
 50
270.0
 51
0.0
  0
ARC
  5
2AB4
330
1A
100
AcDbEntity
  8
ZUWAKU
100
AcDbCircle
 10
15.18360575495398
 20
11.36250003080413
 30
0.0
 40
0.2625
100
AcDbArc
 50
90.0
 51
180.0
  0
ARC
  5
2AB5
330
1A
100
AcDbEntity
  8
ZUWAKU
100
AcDbCircle
 10
13.43360575495398
 20
11.36250003080413
 30
0.0
 40
0.2625
100
AcDbArc
 50
0.0
 51
90.0
  0
LINE
  5
2AB6
330
1A
100
AcDbEntity
  8
ZUWAKU
100
AcDbLine
 10
16.05860575495398
 20
11.62500003080413
 30
0.0
 11
15.18360575495398
 21
11.62500003080413
 31
0.0
  0
ARC
  5
2AB7
330
1A
100
AcDbEntity
  8
ZUWAKU
100
AcDbCircle
 10
16.05860575495398
 20
11.36250003080413
 30
0.0
 40
0.2625
100
AcDbArc
 50
0.0
 51
90.0
  0
ARC
  5
2AB8
330
1A
100
AcDbEntity
  8
ZUWAKU
100
AcDbCircle
 10
18.08848867320966
 20
11.36250003080413
 30
0.0
 40
0.2625
100
AcDbArc
 50
90.0
 51
162.4744316262769
  0
LINE
  5
2AB9
330
1A
100
AcDbEntity
  8
ZUWAKU
100
AcDbLine
 10
19.1882488126119
 20
11.28345304672064
 30
0.0
 11
18.65742899604299
 21
9.602523627585846
 31
0.0
  0
ARC
  5
2ABA
330
1A
100
AcDbEntity
  8
ZUWAKU
100
AcDbCircle
 10
18.93793336301416
 20
11.36250003080413
 30
0.0
 40
0.2625
100
AcDbArc
 50
342.4744316262769
 51
90.0
  0
LINE
  5
2ABB
330
1A
100
AcDbEntity
  8
ZUWAKU
100
AcDbLine
 10
18.08848867320966
 20
11.62500003080413
 30
0.0
 11
18.93793336301416
 21
11.62500003080413
 31
0.0
  0
ARC
  5
2ABC
330
1A
100
AcDbEntity
  8
ZUWAKU
100
AcDbCircle
 10
20.608605754954
 20
11.36250003080413
 30
0.0
 40
0.2625
100
AcDbArc
 50
90.0
 51
180.0
  0
LINE
  5
2ABD
330
1A
100
AcDbEntity
  8
ZUWAKU
100
AcDbLine
 10
25.94610575495403
 20
10.22500003080413
 30
0.0
 11
24.45860575495402
 21
10.22500003080413
 31
0.0
  0
LINE
  5
2ABE
330
1A
100
AcDbEntity
  8
ZUWAKU
100
AcDbLine
 10
24.19610575495403
 20
11.62500003080413
 30
0.0
 11
25.94610575495403
 21
11.62500003080413
 31
0.0
  0
ARC
  5
2ABF
330
1A
100
AcDbEntity
  8
ZUWAKU
100
AcDbCircle
 10
24.19610575495403
 20
10.22500003080413
 30
0.0
 40
1.399999999999999
100
AcDbArc
 50
90.0
 51
180.0
  0
LINE
  5
2AC0
330
1A
100
AcDbEntity
  8
ZUWAKU
100
AcDbLine
 10
22.796105754954
 20
10.22500003080413
 30
0.0
 11
22.796105754954
 21
9.317399018126462
 31
0.0
  0
ARC
  5
2AC1
330
1A
100
AcDbEntity
  8
ZUWAKU
100
AcDbCircle
 10
21.483605754954
 20
11.36250003080413
 30
0.0
 40
0.2625
100
AcDbArc
 50
0.0
 51
90.0
  0
LINE
  5
2AC2
330
1A
100
AcDbEntity
  8
ZUWAKU
100
AcDbLine
 10
24.19610575495403
 20
9.962500030804132
 30
0.0
 11
24.19610575495403
 21
9.317399018126462
 31
0.0
  0
ARC
  5
2AC3
330
1A
100
AcDbEntity
  8
ZUWAKU
100
AcDbCircle
 10
24.45860575495402
 20
9.962500030804132
 30
0.0
 40
0.2625
100
AcDbArc
 50
90.0
 51
180.0
  0
LINE
  5
2AC4
330
1A
100
AcDbEntity
  8
ZUWAKU
100
AcDbLine
 10
26.20860575495402
 20
11.36250003080413
 30
0.0
 11
26.20860575495402
 21
10.48750003080413
 31
0.0
  0
ARC
  5
2AC5
330
1A
100
AcDbEntity
  8
ZUWAKU
100
AcDbCircle
 10
25.94610575495403
 20
10.48750003080413
 30
0.0
 40
0.2625
100
AcDbArc
 50
270.0
 51
0.0
  0
ARC
  5
2AC6
330
1A
100
AcDbEntity
  8
ZUWAKU
100
AcDbCircle
 10
25.94610575495403
 20
11.36250003080413
 30
0.0
 40
0.2625
100
AcDbArc
 50
0.0
 51
90.0
  0
LINE
  5
2AC7
330
1A
100
AcDbEntity
  8
ZUWAKU
100
AcDbLine
 10
28.65860575495401
 20
11.62500003080413
 30
0.0
 11
27.78360575495401
 21
11.62500003080413
 31
0.0
  0
ARC
  5
2AC8
330
1A
100
AcDbEntity
  8
ZUWAKU
100
AcDbCircle
 10
27.78360575495401
 20
11.36250003080413
 30
0.0
 40
0.2625
100
AcDbArc
 50
90.0
 51
180.0
  0
ARC
  5
2AC9
330
1A
100
AcDbEntity
  8
ZUWAKU
100
AcDbCircle
 10
28.65860575495401
 20
11.36250003080413
 30
0.0
 40
0.2625
100
AcDbArc
 50
0.0
 51
90.0
  0
LINE
  5
2ACA
330
1A
100
AcDbEntity
  8
ZUWAKU
100
AcDbLine
 10
34.25860575495403
 20
11.62500003080413
 30
0.0
 11
33.38360575495403
 21
11.62500003080413
 31
0.0
  0
ARC
  5
2ACB
330
1A
100
AcDbEntity
  8
ZUWAKU
100
AcDbCircle
 10
30.93360575495399
 20
11.36250003080413
 30
0.0
 40
0.2625
100
AcDbArc
 50
90.0
 51
180.0
  0
LINE
  5
2ACC
330
1A
100
AcDbEntity
  8
ZUWAKU
100
AcDbLine
 10
31.80860575495398
 20
11.62500003080413
 30
0.0
 11
30.93360575495399
 21
11.62500003080413
 31
0.0
  0
ARC
  5
2ACD
330
1A
100
AcDbEntity
  8
ZUWAKU
100
AcDbCircle
 10
31.80860575495398
 20
11.36250003080413
 30
0.0
 40
0.2625
100
AcDbArc
 50
0.0
 51
90.0
  0
ARC
  5
2ACE
330
1A
100
AcDbEntity
  8
ZUWAKU
100
AcDbCircle
 10
33.38360575495403
 20
11.36250003080413
 30
0.0
 40
0.2625
100
AcDbArc
 50
90.0
 51
180.0
  0
ARC
  5
2ACF
330
1A
100
AcDbEntity
  8
ZUWAKU
100
AcDbCircle
 10
34.25860575495403
 20
11.36250003080413
 30
0.0
 40
0.2625
100
AcDbArc
 50
0.0
 51
90.0
  0
TEXT
  5
2AD0
330
1A
100
AcDbEntity
  8
MOJI
100
AcDbText
 10
119.9136010179889
 20
1.602460559507841
 30
0.0
 40
2.799999999999999
  1
Ｘ７０Ｕ－４－１０～３０
 41
0.9
  7
ｽﾀｲﾙ1
100
AcDbText
  0
TEXT
  5
2AD1
330
1A
100
AcDbEntity
  8
MOJI
100
AcDbText
 10
119.9136010179889
 20
9.002460559507824
 30
0.0
 40
2.799999999999999
  1
ブラケット正面打（吊）ワンタッチ自在式
 41
0.9
  7
ｽﾀｲﾙ1
100
AcDbText
  0
LINE
  5
2AD2
330
1A
100
AcDbEntity
  8
ZUWAKU
100
AcDbLine
 10
104.2233003225973
 20
15.00000003080413
 30
0.0
 11
104.2233003225974
 21
0.4000000308041649
 31
0.0
  0
LINE
  5
2AD3
330
1A
100
AcDbEntity
  8
ZUWAKU
100
AcDbLine
 10
104.3233003225973
 20
15.00000003080413
 30
0.0
 11
104.3233003225974
 21
0.4000000308041649
 31
0.0
  0
LINE
  5
2AD4
330
1A
100
AcDbEntity
  8
ZUWAKU
100
AcDbLine
 10
104.1233003225974
 20
15.00000003080413
 30
0.0
 11
104.1233003225974
 21
0.4000000308041649
 31
0.0
  0
TEXT
  5
2AD5
330
1A
100
AcDbEntity
  8
ZUWAKU
100
AcDbText
 10
104.8620228337022
 20
4.827678299996939
 30
0.0
 40
2.0
  1
サイズ
 41
0.9
  7
ｽﾀｲﾙ1
100
AcDbText
  0
TEXT
  5
2AD6
330
1A
100
AcDbEntity
  8
ZUWAKU
100
AcDbText
 10
104.862022833702
 20
12.02767829999692
 30
0.0
 40
2.0
  1
品名
 41
0.9
  7
ｽﾀｲﾙ1
100
AcDbText
  0
TEXT
  5
2AD7
330
1A
100
AcDbEntity
  8
ZUWAKU
100
AcDbText
 10
329.1019685212146
 20
9.002460559507824
 30
0.0
 40
2.799999999999999
  1
　　．　　．　　
 41
0.9
  7
ｽﾀｲﾙ1
100
AcDbText
  0
LINE
  5
2AD8
330
1A
100
AcDbEntity
  8
ZUWAKU
100
AcDbLine
 10
324.4086009326655
 20
7.800000030804147
 30
0.0
 11
348.624504951834
 21
7.800000030804147
 31
0.0
  0
LINE
  5
2AD9
330
1A
100
AcDbEntity
  8
ZUWAKU
100
AcDbLine
 10
324.4086009326656
 20
7.700000030804149
 30
0.0
 11
348.624504951834
 21
7.700000030804147
 31
0.0
  0
LINE
  5
2ADA
330
1A
100
AcDbEntity
  8
ZUWAKU
100
AcDbLine
 10
324.4086009326655
 20
7.600000030804146
 30
0.0
 11
348.624504951834
 21
7.600000030804148
 31
0.0
  0
LINE
  5
2ADB
330
1A
100
AcDbEntity
  8
ZUWAKU
100
AcDbLine
 10
252.5995894266338
 20
7.800000030804147
 30
0.0
 11
276.2634775606196
 21
7.800000030804147
 31
0.0
  0
LINE
  5
2ADC
330
1A
100
AcDbEntity
  8
ZUWAKU
100
AcDbLine
 10
252.5995894266338
 20
7.700000030804147
 30
0.0
 11
276.2634775606196
 21
7.700000030804147
 31
0.0
  0
LINE
  5
2ADD
330
1A
100
AcDbEntity
  8
ZUWAKU
100
AcDbLine
 10
252.5995894266338
 20
7.600000030804149
 30
0.0
 11
276.2634775606196
 21
7.600000030804149
 31
0.0
  0
LINE
  5
2ADE
330
1A
100
AcDbEntity
  8
ZUWAKU
100
AcDbLine
 10
252.3995894266339
 20
15.00000003080413
 30
0.0
 11
252.3995894266339
 21
0.4000000308041649
 31
0.0
  0
LINE
  5
2ADF
330
1A
100
AcDbEntity
  8
ZUWAKU
100
AcDbLine
 10
252.5995894266338
 20
15.00000003080413
 30
0.0
 11
252.599589426634
 21
0.4000000308041649
 31
0.0
  0
LINE
  5
2AE0
330
1A
100
AcDbEntity
  8
ZUWAKU
100
AcDbLine
 10
252.4995894266338
 20
15.00000003080413
 30
0.0
 11
252.4995894266339
 21
0.4000000308041649
 31
0.0
  0
TEXT
  5
2AE1
330
1A
100
AcDbEntity
  8
MOJI
100
AcDbText
 10
264.0204536637198
 20
9.002460559507824
 30
0.0
 40
2.799999999999999
  1
Ａ３
 41
0.9
  7
ｽﾀｲﾙ1
100
AcDbText
  0
LINE
  5
2AE2
330
1A
100
AcDbEntity
  8
ZUWAKU
100
AcDbLine
 10
223.7121816630591
 20
15.00000003080413
 30
0.0
 11
223.7121816630591
 21
0.4000000308041649
 31
0.0
  0
LINE
  5
2AE3
330
1A
100
AcDbEntity
  8
ZUWAKU
100
AcDbLine
 10
223.912181663059
 20
15.00000003080413
 30
0.0
 11
223.9121816630591
 21
0.4000000308041649
 31
0.0
  0
LINE
  5
2AE4
330
1A
100
AcDbEntity
  8
ZUWAKU
100
AcDbLine
 10
223.812181663059
 20
15.00000003080413
 30
0.0
 11
223.8121816630591
 21
0.4000000308041649
 31
0.0
  0
TEXT
  5
2AE5
330
1A
100
AcDbEntity
  8
MOJI
100
AcDbText
 10
231.2836388385577
 20
5.971308891634123
 30
0.0
 40
2.799999999999999
  1
ＬＫ３２Ｔ
 41
0.9
  7
ｽﾀｲﾙ1
100
AcDbText
  0
TEXT
  5
2AE6
330
1A
100
AcDbEntity
  8
ZUWAKU
100
AcDbText
 10
253.3383119377388
 20
4.827678299996939
 30
0.0
 40
2.0
  1
縮尺
 41
0.9
  7
ｽﾀｲﾙ1
100
AcDbText
  0
TEXT
  5
2AE7
330
1A
100
AcDbEntity
  8
MOJI
100
AcDbText
 10
264.0204536637198
 20
1.602460559507841
 30
0.0
 40
2.799999999999999
  1
１/１
 41
0.9
  7
ｽﾀｲﾙ1
100
AcDbText
  0
TEXT
  5
2AE8
330
1A
100
AcDbEntity
  8
ZUWAKU
100
AcDbText
 10
224.6509041741638
 20
12.02767829999692
 30
0.0
 40
2.0
  1
品番
 41
0.9
  7
ｽﾀｲﾙ1
100
AcDbText
  0
TEXT
  5
2AE9
330
1A
100
AcDbEntity
  8
ZUWAKU
100
AcDbText
 10
253.3383119377386
 20
12.02767829999692
 30
0.0
 40
2.0
  1
用紙
 41
0.9
  7
ｽﾀｲﾙ1
100
AcDbText
  0
LINE
  5
2AEA
330
1A
100
AcDbEntity
  8
ZUWAKU
100
AcDbLine
 10
276.2634775606196
 20
15.00000003080413
 30
0.0
 11
276.2634775606196
 21
0.4000000308041649
 31
0.0
  0
LINE
  5
2AEB
330
1A
100
AcDbEntity
  8
ZUWAKU
100
AcDbLine
 10
276.4634775606196
 20
15.00000003080413
 30
0.0
 11
276.4634775606197
 21
0.4000000308041649
 31
0.0
  0
LINE
  5
2AEC
330
1A
100
AcDbEntity
  8
ZUWAKU
100
AcDbLine
 10
276.3634775606195
 20
15.00000003080413
 30
0.0
 11
276.3634775606196
 21
0.4000000308041649
 31
0.0
  0
LINE
  5
2AED
330
1A
100
AcDbEntity
  8
ZUWAKU
100
AcDbLine
 10
324.2086009326657
 20
15.00000003080413
 30
0.0
 11
324.2086009326657
 21
0.4000000308041649
 31
0.0
  0
LINE
  5
2AEE
330
1A
100
AcDbEntity
  8
ZUWAKU
100
AcDbLine
 10
324.4086009326656
 20
15.00000003080413
 30
0.0
 11
324.4086009326657
 21
0.4000000308041649
 31
0.0
  0
LINE
  5
2AEF
330
1A
100
AcDbEntity
  8
ZUWAKU
100
AcDbLine
 10
324.3086009326656
 20
15.00000003080413
 30
0.0
 11
324.3086009326657
 21
0.4000000308041649
 31
0.0
  0
TEXT
  5
2AF0
330
1A
100
AcDbEntity
  8
ZUWAKU
100
AcDbText
 10
325.1473234437704
 20
12.02767829999692
 30
0.0
 40
2.0
  1
DATE
 41
0.9
  7
ｽﾀｲﾙ1
100
AcDbText
  0
TEXT
  5
2AF1
330
1A
100
AcDbEntity
  8
ZUWAKU
100
AcDbText
 10
354.2640417736853
 20
8.776919698647532
 30
0.0
 40
3.0
  1
積水化学工業株式会社
 41
0.9
  7
ｽﾀｲﾙ1
100
AcDbText
  0
LINE
  5
2AF2
330
1A
100
AcDbEntity
  8
ZUWAKU
100
AcDbLine
 10
348.924504951834
 20
15.00000003080413
 30
0.0
 11
348.9245049518341
 21
0.4000000308041649
 31
0.0
  0
LINE
  5
2AF3
330
1A
100
AcDbEntity
  8
ZUWAKU
100
AcDbLine
 10
348.824504951834
 20
15.00000003080413
 30
0.0
 11
348.8245049518341
 21
0.4000000308041649
 31
0.0
  0
LINE
  5
2AF4
330
1A
100
AcDbEntity
  8
ZUWAKU
100
AcDbLine
 10
348.7245049518341
 20
15.00000003080413
 30
0.0
 11
348.7245049518341
 21
0.4000000308041649
 31
0.0
  0
LINE
  5
2AF5
330
1A
100
AcDbEntity
  8
ZUWAKU
100
AcDbLine
 10
348.624504951834
 20
15.00000003080413
 30
0.0
 11
348.624504951834
 21
0.4000000308041649
 31
0.0
  0
TEXT
  5
2AF6
330
1A
100
AcDbEntity
  8
ZUWAKU
100
AcDbText
 10
354.2640417736853
 20
3.324420187731163
 30
0.0
 40
3.0
  1
建材事業部
 41
0.9
  7
ｽﾀｲﾙ1
100
AcDbText
  0
LINE
  5
3B03
330
1A
100
AcDbEntity
  8
SUNPOU
100
AcDbLine
 10
209.0433851249165
 20
79.37268071538165
 30
0.0
 11
220.4711986519987
 21
50.80314689767648
 31
0.0
  0
TEXT
  5
3B04
330
1A
100
AcDbEntity
  8
SUNPOU
100
AcDbText
 10
204.4868698875375
 20
155.4632219877156
 30
0.0
 40
3.0
  1
（スライド幅）
100
AcDbText
  0
DIMENSION
  5
3B05
330
1A
100
AcDbEntity
  8
SUNPOU
100
AcDbDimension
  2
*D1
 10
227.6997156110661
 20
86.83521290384346
 30
0.0
 11
220.3647497600205
 21
111.9040835597783
 31
0.0
 70
    33
  3
STANDARD
100
AcDbAlignedDimension
 13
189.7310699678844
 23
127.6534686467676
 33
0.0
 14
209.0433851249165
 24
79.37268071538165
 34
0.0
1001
ACAD
1000
DSTYLE
1002
{
1070
    41
1040
3.0
1070
    42
1040
3.0
1070
    43
1040
7.0
1070
    44
1040
1.5
1070
    73
1070
     0
1070
    74
1070
     0
1070
    77
1070
     3
1070
   140
1040
3.0
1070
   141
1040
3.0
1070
   147
1040
1.0
1070
   172
1070
     1
1070
   173
1070
     1
1070
   176
1070
   256
1070
   177
1070
   256
1070
   178
1070
   256
1070
   271
1070
     0
1070
   272
1070
     0
1070
   341
1005
B2
1070
     6
1000
OPEN
1070
     7
1000
OPEN
1002
}
  0
DIMENSION
  5
3B06
330
1A
100
AcDbEntity
  8
SUNPOU
100
AcDbDimension
  2
*D2
 10
226.826122296536
 20
148.5614539340805
 30
0.0
 11
209.3261222928151
 21
151.0614539340805
 31
0.0
 70
    32
  3
STANDARD
100
AcDbAlignedDimension
 13
191.8261222890942
 23
122.4158377984988
 33
0.0
 14
226.826122296536
 24
122.4158378014755
 34
0.0
100
AcDbRotatedDimension
1001
ACAD
1000
DSTYLE
1002
{
1070
    41
1040
3.0
1070
    42
1040
3.0
1070
    43
1040
7.0
1070
    44
1040
1.5
1070
    73
1070
     0
1070
    74
1070
     0
1070
    77
1070
     3
1070
   140
1040
3.0
1070
   141
1040
3.0
1070
   147
1040
1.0
1070
   172
1070
     1
1070
   173
1070
     1
1070
   176
1070
   256
1070
   177
1070
   256
1070
   178
1070
   256
1070
   271
1070
     0
1070
   272
1070
     0
1070
   341
1005
B2
1070
     6
1000
OPEN
1070
     7
1000
OPEN
1002
}
  0
DIMENSION
  5
3B07
330
1A
100
AcDbEntity
  8
SUNPOU
100
AcDbDimension
  2
*D3
 10
219.8461085659217
 20
83.69377009243011
 30
0.0
 11
215.482268118087
 21
101.334827218435
 31
0.0
 70
    33
  3
STANDARD
100
AcDbAlignedDimension
 13
195.6733207749165
 23
112.7978415853815
 33
0.0
 14
209.0433851249165
 24
79.37268071538165
 34
0.0
1001
ACAD
1000
DSTYLE
1002
{
1070
    41
1040
3.0
1070
    42
1040
3.0
1070
    43
1040
7.0
1070
    44
1040
1.5
1070
    73
1070
     0
1070
    74
1070
     0
1070
    77
1070
     3
1070
   140
1040
3.0
1070
   141
1040
3.0
1070
   147
1040
1.0
1070
   172
1070
     1
1070
   173
1070
     1
1070
   176
1070
   256
1070
   177
1070
   256
1070
   178
1070
   256
1070
   271
1070
     0
1070
   272
1070
     0
1070
   341
1005
B2
1070
     6
1000
OPEN
1070
     7
1000
OPEN
1002
}
  0
ARC
  5
3B08
330
1A
100
AcDbEntity
  8
SEIHIN
  6
DASHED
 62
     2
100
AcDbCircle
 10
219.6244481549167
 20
114.8404903053816
 30
0.0
 40
4.000000003295027
100
AcDbArc
 50
21.80141959393119
 51
170.7918455562607
  0
ARC
  5
3B09
330
1A
100
AcDbEntity
  8
SEIHIN
  6
DASHED
 62
     2
100
AcDbCircle
 10
219.6244481549167
 20
114.8404903053816
 30
0.0
 40
10.00000000188134
100
AcDbArc
 50
47.64334225536839
 51
170.7918456273463
  0
DIMENSION
  5
3B0A
330
1A
100
AcDbEntity
  8
SUNPOU
100
AcDbDimension
  2
*D4
 10
227.4750157585774
 20
185.5880589979835
 30
0.0
 11
224.9750157585773
 21
212.0880590179836
 31
0.0
 70
    32
  3
STANDARD
100
AcDbAlignedDimension
 13
206.0433855649167
 23
238.5880590379836
 33
0.0
 14
206.0433855649167
 24
185.5880589979835
 34
0.0
 50
90.0
100
AcDbRotatedDimension
1001
ACAD
1000
DSTYLE
1002
{
1070
    41
1040
3.0
1070
    42
1040
3.0
1070
    43
1040
7.0
1070
    44
1040
1.5
1070
    73
1070
     0
1070
    74
1070
     0
1070
    77
1070
     3
1070
   140
1040
3.0
1070
   141
1040
3.0
1070
   147
1040
1.0
1070
   172
1070
     1
1070
   173
1070
     1
1070
   176
1070
   256
1070
   177
1070
   256
1070
   178
1070
   256
1070
   271
1070
     0
1070
   272
1070
     0
1070
   341
1005
B2
1070
     6
1000
OPEN
1070
     7
1000
OPEN
1002
}
  0
LINE
  5
3B0B
330
1A
100
AcDbEntity
  8
CENTER_L
100
AcDbLine
 10
65.29728759491664
 20
212.0880586279836
 30
0.0
 11
216.0433851249166
 21
212.0880586279836
 31
0.0
  0
DIMENSION
  5
3B0C
330
1A
100
AcDbEntity
  8
SUNPOU
100
AcDbDimension
  2
*D5
 10
191.8261222890942
 20
139.7755064337849
 30
0.0
 11
187.0975632020055
 21
142.2755064337849
 31
0.0
 70
    32
  3
STANDARD
100
AcDbAlignedDimension
 13
182.3690041149167
 23
88.23476253454401
 33
0.0
 14
191.8261222890942
 24
122.4158377984988
 34
0.0
100
AcDbRotatedDimension
1001
ACAD
1000
DSTYLE
1002
{
1070
    41
1040
3.0
1070
    42
1040
3.0
1070
    43
1040
7.0
1070
    44
1040
1.5
1070
    73
1070
     0
1070
    74
1070
     0
1070
    77
1070
     3
1070
   140
1040
3.0
1070
   141
1040
3.0
1070
   147
1040
1.0
1070
   172
1070
     1
1070
   173
1070
     1
1070
   176
1070
   256
1070
   177
1070
   256
1070
   178
1070
   256
1070
   271
1070
     0
1070
   272
1070
     0
1070
   341
1005
B2
1070
     6
1000
OPEN
1070
     7
1000
OPEN
1002
}
  0
DIMENSION
  5
3B0D
330
1A
100
AcDbEntity
  8
SUNPOU
100
AcDbDimension
  2
*D6
 10
191.8261222890942
 20
148.5614539340805
 30
0.0
 11
130.7422132020054
 21
151.0614539340805
 31
0.0
 70
    32
  3
STANDARD
100
AcDbAlignedDimension
 13
69.65830411491666
 23
86.44396253454416
 33
0.0
 14
191.8261222890942
 24
122.4158377984988
 34
0.0
100
AcDbRotatedDimension
1001
ACAD
1000
DSTYLE
1002
{
1070
    41
1040
3.0
1070
    42
1040
3.0
1070
    43
1040
7.0
1070
    44
1040
1.5
1070
    73
1070
     0
1070
    74
1070
     0
1070
    77
1070
     3
1070
   140
1040
3.0
1070
   141
1040
3.0
1070
   147
1040
1.0
1070
   172
1070
     1
1070
   173
1070
     1
1070
   176
1070
   256
1070
   177
1070
   256
1070
   178
1070
   256
1070
   271
1070
     0
1070
   272
1070
     0
1070
   341
1005
B2
1070
     6
1000
OPEN
1070
     7
1000
OPEN
1002
}
  0
DIMENSION
  5
3B0E
330
1A
100
AcDbEntity
  8
SUNPOU
100
AcDbDimension
  2
*D7
 10
45.49785034310046
 20
87.93636253538153
 30
0.0
 11
42.99785034310044
 21
83.65452162538161
 31
0.0
 70
    32
  3
STANDARD
100
AcDbAlignedDimension
 13
209.0433851249165
 23
79.37268071538165
 33
0.0
 14
71.15075411491665
 24
87.93636253538153
 34
0.0
 50
90.0
100
AcDbRotatedDimension
1001
ACAD
1000
DSTYLE
1002
{
1070
    41
1040
3.0
1070
    42
1040
3.0
1070
    43
1040
7.0
1070
    44
1040
1.5
1070
    73
1070
     0
1070
    74
1070
     0
1070
    77
1070
     3
1070
   140
1040
3.0
1070
   141
1040
3.0
1070
   147
1040
1.0
1070
   172
1070
     1
1070
   173
1070
     1
1070
   176
1070
   256
1070
   177
1070
   256
1070
   178
1070
   256
1070
   271
1070
     0
1070
   272
1070
     0
1070
   341
1005
B2
1070
     6
1000
OPEN
1070
     7
1000
OPEN
1002
}
  0
ARC
  5
3B0F
330
1A
100
AcDbEntity
  8
NOKITOI
  6
PHANTOM
 62
     8
100
AcDbCircle
 10
78.48127795370766
 20
38.12602242506022
 30
0.0
 40
14.22848866365036
100
AcDbArc
 50
51.52529185494234
 51
71.45345265407094
  0
ARC
  5
3B10
330
1A
100
AcDbEntity
  8
NOKITOI
  6
PHANTOM
 62
     8
100
AcDbCircle
 10
78.48121118470356
 20
38.12605456165033
 30
0.0
 40
12.93471022655885
100
AcDbArc
 50
8.676219579621381
 51
74.45245455808946
  0
LINE
  5
3B11
330
1A
100
AcDbEntity
  8
SEIHIN
100
AcDbLine
 10
84.00935411491662
 20
79.12366253538164
 30
0.0
 11
91.06455411491664
 21
73.99266253538161
 31
0.0
  0
LINE
  5
3B12
330
1A
100
AcDbEntity
  8
SEIHIN
100
AcDbLine
 10
92.93097063491661
 20
84.03636253538161
 30
0.0
 11
73.40075411491665
 21
84.03636253538161
 31
0.0
  0
LINE
  5
3B13
330
1A
100
AcDbEntity
  8
NOKITOI
  6
PHANTOM
 62
     8
100
AcDbLine
 10
82.34990411491668
 20
52.353962534544
 30
0.0
 11
76.41890411491676
 21
80.5238625345442
 31
0.0
  0
LINE
  5
3B14
330
1A
100
AcDbEntity
  8
NOKITOI
  6
PHANTOM
 62
     8
100
AcDbLine
 10
81.24130411491677
 20
51.34106253454405
 30
0.0
 11
75.40270411491661
 21
79.0723625345442
 31
0.0
  0
ARC
  5
3B15
330
1A
100
AcDbEntity
  8
NOKITOI
  6
PHANTOM
 62
     8
100
AcDbCircle
 10
82.21494413930424
 20
51.54601987031822
 30
0.0
 40
0.9949785960395137
100
AcDbArc
 50
191.8875585738772
 51
254.4495841050101
  0
ARC
  5
3B16
330
1A
100
AcDbEntity
  8
NOKITOI
  6
PHANTOM
 62
     8
100
AcDbCircle
 10
83.32352399668815
 20
52.5589401974641
 30
0.0
 40
0.995060928010462
100
AcDbArc
 50
191.8877567214151
 51
251.4524867922939
  0
LINE
  5
3B17
330
1A
100
AcDbEntity
  8
NOKITOI
  6
PHANTOM
 62
     8
100
AcDbLine
 10
69.65830411491669
 20
86.44396253454415
 30
0.0
 11
69.65830411491669
 21
82.51376253454413
 31
0.0
  0
LINE
  5
3B18
330
1A
100
AcDbEntity
  8
NOKITOI
  6
PHANTOM
 62
     8
100
AcDbLine
 10
68.36480411491681
 20
80.22536253454399
 30
0.0
 11
68.36480411491681
 21
88.23486253454399
 31
0.0
  0
LINE
  5
3B19
330
1A
100
AcDbEntity
  8
SEIHIN
100
AcDbLine
 10
69.90075411491665
 20
86.68636253538158
 30
0.0
 11
69.90075411491665
 21
83.03636253538162
 31
0.0
  0
LINE
  5
3B1A
330
1A
100
AcDbEntity
  8
NOKITOI
  6
PHANTOM
 62
     8
100
AcDbLine
 10
71.64830411491681
 20
80.5238625345442
 30
0.0
 11
76.41890411491676
 21
80.5238625345442
 31
0.0
  0
LINE
  5
3B1B
330
1A
100
AcDbEntity
  8
SEIHIN
100
AcDbLine
 10
71.90075411491665
 20
81.0363625353816
 30
0.0
 11
78.1276541149166
 21
81.0363625353816
 31
0.0
  0
LINE
  5
3B1C
330
1A
100
AcDbEntity
  8
NOKITOI
  6
PHANTOM
 62
     8
100
AcDbLine
 10
75.20800411491683
 20
79.23036253454398
 30
0.0
 11
69.35980411491681
 21
79.23036253454398
 31
0.0
  0
ARC
  5
3B1D
330
1A
100
AcDbEntity
  8
NOKITOI
  6
PHANTOM
 62
     8
100
AcDbCircle
 10
71.64825411491671
 20
82.51381253454423
 30
0.0
 40
1.989950000628206
100
AcDbArc
 50
180.0014396286229
 51
270.0014396286237
  0
ARC
  5
3B1E
330
1A
100
AcDbEntity
  8
NOKITOI
  6
PHANTOM
 62
     8
100
AcDbCircle
 10
69.35980411491681
 20
80.22536253454399
 30
0.0
 40
0.9950000000000045
100
AcDbArc
 50
180.0
 51
270.0
  0
ARC
  5
3B1F
330
1A
100
AcDbEntity
  8
SEIHIN
100
AcDbCircle
 10
71.90075411491665
 20
83.03636253538162
 30
0.0
 40
2.0
100
AcDbArc
 50
180.0
 51
270.0
  0
ARC
  5
3B20
330
1A
100
AcDbEntity
  8
NOKITOI
  6
PHANTOM
 62
     8
100
AcDbCircle
 10
75.20798567230253
 20
79.03137749798088
 30
0.0
 40
0.1989850374177657
100
AcDbArc
 50
11.88631382809262
 51
89.9946896310657
  0
ARC
  5
3B21
330
1A
100
AcDbEntity
  8
SEIHIN
100
AcDbCircle
 10
78.12756310491659
 20
71.03639213538162
 30
0.0
 40
9.999970400385993
100
AcDbArc
 50
53.97197877308379
 51
89.99947854956749
  0
LINE
  5
3B22
330
1A
100
AcDbEntity
  8
NOKITOI
  6
PHANTOM
 62
     8
100
AcDbLine
 10
69.35980411491681
 20
89.22986253454411
 30
0.0
 11
73.59100411491676
 21
89.22986253454411
 31
0.0
  0
ARC
  5
3B23
330
1A
100
AcDbEntity
  8
NOKITOI
  6
PHANTOM
 62
     8
100
AcDbCircle
 10
71.8000041149167
 20
86.44396253454415
 30
0.0
 40
1.492399999999918
100
AcDbArc
 50
0.0000000000016284
 51
90.00000000000245
  0
LINE
  5
3B24
330
1A
100
AcDbEntity
  8
SEIHIN
100
AcDbLine
 10
72.40075411491665
 20
85.03636253538161
 30
0.0
 11
69.90075411491665
 21
85.03626253538163
 31
0.0
  0
ARC
  5
3B25
330
1A
100
AcDbEntity
  8
SEIHIN
100
AcDbCircle
 10
71.15075411491665
 20
86.68636253538158
 30
0.0
 40
1.25
100
AcDbArc
 50
0.0
 51
180.0
  0
LINE
  5
3B26
330
1A
100
AcDbEntity
  8
NOKITOI
  6
PHANTOM
 62
     8
100
AcDbLine
 10
71.8000041149167
 20
87.93636253454399
 30
0.0
 11
71.15080411491675
 21
87.93636253454399
 31
0.0
  0
ARC
  5
3B27
330
1A
100
AcDbEntity
  8
NOKITOI
  6
PHANTOM
 62
     8
100
AcDbCircle
 10
71.15075411491665
 20
86.44391253454404
 30
0.0
 40
1.49245000083754
100
AcDbArc
 50
89.99808047909004
 51
179.99808047909
  0
ARC
  5
3B28
330
1A
100
AcDbEntity
  8
NOKITOI
  6
PHANTOM
 62
     8
100
AcDbCircle
 10
69.35980411491681
 20
88.2348625345441
 30
0.0
 40
0.9950000000000613
100
AcDbArc
 50
90.00000000000325
 51
180.0000000000032
  0
ARC
  5
3B29
330
1A
100
AcDbEntity
  8
NOKITOI
  6
PHANTOM
 62
     8
100
AcDbCircle
 10
73.59095411491665
 20
88.23491253454415
 30
0.0
 40
0.9949500012563332
100
AcDbArc
 50
359.9971206704047
 51
89.99712067040476
  0
LINE
  5
3B2A
330
1A
100
AcDbEntity
  8
NOKITOI
  6
PHANTOM
 62
     8
100
AcDbLine
 10
73.29250411491677
 20
84.03006253454412
 30
0.0
 11
73.29250411491677
 21
86.44396253454415
 31
0.0
  0
LINE
  5
3B2B
330
1A
100
AcDbEntity
  8
NOKITOI
  6
PHANTOM
 62
     8
100
AcDbLine
 10
74.58590411491667
 20
84.03006253454412
 30
0.0
 11
73.29250411491677
 21
84.03006253454412
 31
0.0
  0
LINE
  5
3B2C
330
1A
100
AcDbEntity
  8
NOKITOI
  6
PHANTOM
 62
     8
100
AcDbLine
 10
74.58590411491667
 20
88.23486253454399
 30
0.0
 11
74.58590411491667
 21
84.03006253454412
 31
0.0
  0
LINE
  5
3B2D
330
1A
100
AcDbEntity
  8
SEIHIN
100
AcDbLine
 10
72.40075411491665
 20
86.68636253538158
 30
0.0
 11
72.40075411491665
 21
85.03636253538161
 31
0.0
  0
ARC
  5
3B2E
330
1A
100
AcDbEntity
  8
SEIHIN
100
AcDbCircle
 10
73.40075411491665
 20
85.03636253538161
 30
0.0
 40
1.0
100
AcDbArc
 50
180.0
 51
270.0
  0
LINE
  5
3B2F
330
1A
100
AcDbEntity
  8
CENTER_L
  6
CENTER
 62
     1
100
AcDbLine
 10
125.3668041149168
 20
29.23231253454417
 30
0.0
 11
125.3668041149168
 21
50.53231253454419
 31
0.0
  0
LINE
  5
3B30
330
1A
100
AcDbEntity
  8
NOKITOI
  6
PHANTOM
 62
     8
100
AcDbLine
 10
97.36820411491676
 20
40.7247625345442
 30
0.0
 11
97.36830411491684
 21
49.22206253454413
 31
0.0
  0
LINE
  5
3B31
330
1A
100
AcDbEntity
  8
NOKITOI
  6
PHANTOM
 62
     8
100
AcDbLine
 10
153.3654041149167
 20
40.7247625345442
 30
0.0
 11
153.3655041149166
 21
49.22176253454399
 31
0.0
  0
ARC
  5
3B32
330
1A
100
AcDbEntity
  8
NOKITOI
  6
PHANTOM
 62
     8
100
AcDbCircle
 10
172.2522929585958
 20
38.12604995307003
 30
0.0
 40
12.93449408578155
100
AcDbArc
 50
105.547333235354
 51
171.3240617643019
  0
ARC
  5
3B33
330
1A
100
AcDbEntity
  8
NOKITOI
  6
PHANTOM
 62
     8
100
AcDbCircle
 10
172.2523985815049
 20
38.1259562942788
 30
0.0
 40
12.93461262833301
100
AcDbArc
 50
105.5476727870196
 51
171.3237222126368
  0
LINE
  5
3B34
330
1A
100
AcDbEntity
  8
NOKITOI
  6
PHANTOM
 62
     8
100
AcDbLine
 10
97.56720411491683
 20
40.52576253454413
 30
0.0
 11
153.1664041149168
 21
40.52566253454403
 31
0.0
  0
LINE
  5
3B35
330
1A
100
AcDbEntity
  8
NOKITOI
  6
PHANTOM
 62
     8
100
AcDbLine
 10
92.25150411491682
 20
39.2323625345441
 30
0.0
 11
158.4821041149168
 21
39.23226253454425
 31
0.0
  0
LINE
  5
3B36
330
1A
100
AcDbEntity
  8
NOKITOI
  6
PHANTOM
 62
     8
100
AcDbLine
 10
158.4821041149168
 20
39.23226253454425
 30
0.0
 11
92.25150411491682
 21
39.2323625345441
 31
0.0
  0
LINE
  5
3B37
330
1A
100
AcDbEntity
  8
NOKITOI
  6
PHANTOM
 62
     8
100
AcDbLine
 10
95.70590411491668
 20
47.92206253454418
 30
0.0
 11
89.48500411491677
 21
47.92206253454418
 31
0.0
  0
ARC
  5
3B38
330
1A
100
AcDbEntity
  8
NOKITOI
  6
PHANTOM
 62
     8
100
AcDbCircle
 10
92.92648107378857
 20
41.0323813988324
 30
0.0
 40
0.5000188648192144
100
AcDbArc
 50
191.386728855441
 51
270.0026402191986
  0
ARC
  5
3B39
330
1A
100
AcDbEntity
  8
NOKITOI
  6
PHANTOM
 62
     8
100
AcDbCircle
 10
78.48120931193006
 20
38.12605191877605
 30
0.0
 40
14.23472333170272
100
AcDbArc
 50
11.37541821407338
 51
40.79334907830746
  0
ARC
  5
3B3A
330
1A
100
AcDbEntity
  8
NOKITOI
  6
PHANTOM
 62
     8
100
AcDbCircle
 10
92.25151172893442
 20
40.22735599430018
 30
0.0
 40
0.9949934597852239
100
AcDbArc
 50
188.6761125650602
 51
269.9995615538234
  0
ARC
  5
3B3B
330
1A
100
AcDbEntity
  8
NOKITOI
  6
PHANTOM
 62
     8
100
AcDbCircle
 10
89.48500777421992
 20
47.62207052642373
 30
0.0
 40
0.2999920081427447
100
AcDbArc
 50
90.00069889403132
 51
220.7967284175802
  0
LINE
  5
3B3C
330
1A
100
AcDbEntity
  8
NOKITOI
  6
PHANTOM
 62
     8
100
AcDbLine
 10
96.06820411491668
 20
41.03236253454418
 30
0.0
 11
96.06820411491668
 21
47.5596625345442
 31
0.0
  0
ARC
  5
3B3D
330
1A
100
AcDbEntity
  8
NOKITOI
  6
PHANTOM
 62
     8
100
AcDbCircle
 10
95.56820411491656
 20
41.03236253454418
 30
0.0
 40
0.5000000000000569
100
AcDbArc
 50
270.0000000000065
 51
0.0000000000065138
  0
LINE
  5
3B3E
330
1A
100
AcDbEntity
  8
NOKITOI
  6
PHANTOM
 62
     8
100
AcDbLine
 10
92.92640411491669
 20
40.53236253454406
 30
0.0
 11
95.56820411491669
 21
40.53236253454406
 31
0.0
  0
ARC
  5
3B3F
330
1A
100
AcDbEntity
  8
NOKITOI
  6
PHANTOM
 62
     8
100
AcDbCircle
 10
97.56720411491683
 20
40.7247625345442
 30
0.0
 40
0.1990000000000691
100
AcDbArc
 50
179.9999999999837
 51
269.9999999999837
  0
LINE
  5
3B40
330
1A
100
AcDbEntity
  8
NOKITOI
  6
PHANTOM
 62
     8
100
AcDbLine
 10
96.5632041149167
 20
48.41696253454398
 30
0.0
 11
95.70590411491668
 21
47.92206253454418
 31
0.0
  0
LINE
  5
3B41
330
1A
100
AcDbEntity
  8
NOKITOI
  6
PHANTOM
 62
     8
100
AcDbLine
 10
96.5632041149167
 20
48.41696253454398
 30
0.0
 11
96.06820411491668
 21
47.5596625345442
 31
0.0
  0
LINE
  5
3B42
330
1A
100
AcDbEntity
  8
NOKITOI
  6
PHANTOM
 62
     8
100
AcDbLine
 10
149.1664041149168
 20
40.52566253454403
 30
0.0
 11
134.4120041149166
 21
40.52566253454403
 31
0.0
  0
LINE
  5
3B43
330
1A
100
AcDbEntity
  8
NOKITOI
  6
PHANTOM
 62
     8
100
AcDbLine
 10
161.2484041149165
 20
47.92166253454405
 30
0.0
 11
155.0278041149168
 21
47.92166253454405
 31
0.0
  0
ARC
  5
3B44
330
1A
100
AcDbEntity
  8
NOKITOI
  6
PHANTOM
 62
     8
100
AcDbCircle
 10
157.807227156045
 20
41.03228139883242
 30
0.0
 40
0.5000188648190603
100
AcDbArc
 50
269.9973597808037
 51
348.6132711445597
  0
ARC
  5
3B45
330
1A
100
AcDbEntity
  8
NOKITOI
  6
PHANTOM
 62
     8
100
AcDbCircle
 10
172.2523625696075
 20
38.12587766998785
 30
0.0
 40
14.23462403148678
100
AcDbArc
 50
139.2075062369008
 51
168.623785948384
  0
LINE
  5
3B46
330
1A
100
AcDbEntity
  8
NOKITOI
  6
PHANTOM
 62
     8
100
AcDbLine
 10
154.6655041149168
 20
47.55936253454405
 30
0.0
 11
154.6655041149168
 21
41.03226253454408
 31
0.0
  0
ARC
  5
3B47
330
1A
100
AcDbEntity
  8
NOKITOI
  6
PHANTOM
 62
     8
100
AcDbCircle
 10
153.1663541149167
 20
40.72471253454409
 30
0.0
 40
0.1990500062799141
100
AcDbArc
 50
270.0143923080609
 51
0.0143923080609162
  0
LINE
  5
3B48
330
1A
100
AcDbEntity
  8
NOKITOI
  6
PHANTOM
 62
     8
100
AcDbLine
 10
157.8072041149168
 20
40.5322625345442
 30
0.0
 11
155.1655041149168
 21
40.5322625345442
 31
0.0
  0
ARC
  5
3B49
330
1A
100
AcDbEntity
  8
NOKITOI
  6
PHANTOM
 62
     8
100
AcDbCircle
 10
155.1655041149166
 20
41.0322625345442
 30
0.0
 40
0.4999999999999432
100
AcDbArc
 50
180.0000000000065
 51
270.0000000000065
  0
LINE
  5
3B4A
330
1A
100
AcDbEntity
  8
NOKITOI
  6
PHANTOM
 62
     8
100
AcDbLine
 10
154.1705041149166
 20
48.41666253454405
 30
0.0
 11
155.0278041149168
 21
47.92166253454405
 31
0.0
  0
LINE
  5
3B4B
330
1A
100
AcDbEntity
  8
NOKITOI
  6
PHANTOM
 62
     8
100
AcDbLine
 10
154.1705041149166
 20
48.41666253454405
 30
0.0
 11
154.6655041149168
 21
47.55936253454405
 31
0.0
  0
ARC
  5
3B4C
330
1A
100
AcDbEntity
  8
NOKITOI
  6
PHANTOM
 62
     8
100
AcDbCircle
 10
158.4821540430127
 20
40.22730542214276
 30
0.0
 40
0.9950428888512103
100
AcDbArc
 50
269.9971250795227
 51
351.3214426795066
  0
ARC
  5
3B4D
330
1A
100
AcDbEntity
  8
NOKITOI
  6
PHANTOM
 62
     8
100
AcDbCircle
 10
161.248417792768
 20
47.6216326708502
 30
0.0
 40
0.3000298640056128
100
AcDbArc
 50
319.2190584222772
 51
90.00261201719977
  0
LINE
  5
3B4E
330
1A
100
AcDbEntity
  8
SEIHIN
100
AcDbLine
 10
130.4442355089166
 20
104.2288916253816
 30
0.0
 11
174.6192852949166
 21
109.6529057153816
 31
0.0
  0
LINE
  5
3B4F
330
1A
100
AcDbEntity
  8
SEIHIN
100
AcDbLine
 10
128.5669258729166
 20
110.0434459353816
 30
0.0
 11
173.8880692349165
 21
115.6081826253816
 31
0.0
  0
LINE
  5
3B50
330
1A
100
AcDbEntity
  8
SEIHIN
100
AcDbLine
 10
162.2481541149165
 20
101.8377625353816
 30
0.0
 11
148.6209541149166
 21
84.60586253538162
 31
0.0
  0
LINE
  5
3B51
330
1A
100
AcDbEntity
  8
SEIHIN
100
AcDbLine
 10
117.9309706369166
 20
75.53626253538164
 30
0.0
 11
151.8011541149165
 21
75.53626253538164
 31
0.0
  0
LINE
  5
3B52
330
1A
100
AcDbEntity
  8
SEIHIN
100
AcDbLine
 10
154.0337541149166
 20
73.03626253538164
 30
0.0
 11
117.9309706369166
 21
73.03626253538164
 31
0.0
  0
LINE
  5
3B53
330
1A
100
AcDbEntity
  8
SEIHIN
100
AcDbLine
 10
154.9644541149166
 20
81.53636253538161
 30
0.0
 11
117.9309706369166
 21
81.53636253538161
 31
0.0
  0
LINE
  5
3B54
330
1A
100
AcDbEntity
  8
SEIHIN
100
AcDbLine
 10
119.3638505759166
 20
87.08270689238162
 30
0.0
 11
124.8537869379166
 21
100.0161864603816
 31
0.0
  0
LINE
  5
3B55
330
1A
100
AcDbEntity
  8
SEIHIN
100
AcDbLine
 10
100.2361609749166
 20
100.1715723773816
 30
0.0
 11
99.46700808491662
 21
94.72561940038161
 31
0.0
  0
CIRCLE
  5
3B56
330
1A
100
AcDbEntity
  8
SEIHIN
100
AcDbCircle
 10
107.9309706349166
 20
94.83636253538163
 30
0.0
 40
3.500000004238516
  0
ARC
  5
3B57
330
1A
100
AcDbEntity
  8
SEIHIN
100
AcDbCircle
 10
108.4309706349166
 20
91.33636253538162
 30
0.0
 40
9.535085152808647
100
AcDbArc
 50
4.916661302937096
 51
179.9998615479522
  0
LINE
  5
3B58
330
1A
100
AcDbEntity
  8
SEIHIN
100
AcDbLine
 10
92.93097063491661
 20
70.84275888538162
 30
0.0
 11
117.9309706369166
 21
70.84275888538162
 31
0.0
  0
LINE
  5
3B59
330
1A
100
AcDbEntity
  8
SEIHIN
100
AcDbLine
 10
92.93097063491661
 20
70.84275888538162
 30
0.0
 11
92.93097063491661
 21
89.84275888738158
 31
0.0
  0
LINE
  5
3B5A
330
1A
100
AcDbEntity
  8
NOKITOI
  6
PHANTOM
 62
     8
100
AcDbLine
 10
97.36830411491684
 20
49.22206253454413
 30
0.0
 11
87.45760411491682
 21
49.22206253454413
 31
0.0
  0
ARC
  5
3B5B
330
1A
100
AcDbEntity
  8
NOKITOI
  6
PHANTOM
 62
     8
100
AcDbCircle
 10
87.45760742727583
 20
49.42106137875867
 30
0.0
 40
0.1989988442421132
100
AcDbArc
 50
231.5280949042409
 51
269.9990463050553
  0
LINE
  5
3B5C
330
1A
100
AcDbEntity
  8
SEIHIN
100
AcDbLine
 10
96.89588196491662
 20
89.84275652938164
 30
0.0
 11
96.8958658349166
 21
83.00463507538159
 31
0.0
  0
LINE
  5
3B5D
330
1A
100
AcDbEntity
  8
SEIHIN
100
AcDbLine
 10
98.89588548491662
 20
91.33638557638164
 30
0.0
 11
98.89586583491661
 21
83.00463507538159
 31
0.0
  0
LINE
  5
3B5E
330
1A
100
AcDbEntity
  8
SEIHIN
100
AcDbLine
 10
92.93097063491661
 20
81.53636253538161
 30
0.0
 11
88.01765411491658
 21
81.53636253538161
 31
0.0
  0
ARC
  5
3B5F
330
1A
100
AcDbEntity
  8
SEIHIN
100
AcDbCircle
 10
94.16785367491661
 20
78.5363951953816
 30
0.0
 40
3.000032662681521
100
AcDbArc
 50
233.9758085673714
 51
245.6512385050323
  0
ARC
  5
3B60
330
1A
100
AcDbEntity
  8
SEIHIN
100
AcDbCircle
 10
94.00539222491659
 20
78.0363826553816
 30
0.0
 40
5.000020122542945
100
AcDbArc
 50
233.9730830341292
 51
257.5913101544815
  0
LINE
  5
3B61
330
1A
100
AcDbEntity
  8
SEIHIN
100
AcDbLine
 10
87.4294541149166
 20
79.72756253538159
 30
0.0
 11
92.40345411491659
 21
76.11006253538164
 31
0.0
  0
ARC
  5
3B62
330
1A
100
AcDbEntity
  8
SEIHIN
100
AcDbCircle
 10
88.01764300491663
 20
80.53632836538161
 30
0.0
 40
1.00003416926274
100
AcDbArc
 50
89.99936346563975
 51
233.9728323870002
  0
LINE
  5
3B63
330
1A
100
AcDbEntity
  8
SEIHIN
100
AcDbLine
 10
96.8958658349166
 20
83.00463507538159
 30
0.0
 11
98.89586583491661
 21
83.00463507538159
 31
0.0
  0
LINE
  5
3B64
330
1A
100
AcDbEntity
  8
SEIHIN
100
AcDbLine
 10
98.53097063491663
 20
90.03636253538161
 30
0.0
 11
98.5309564849166
 21
84.03636017738165
 31
0.0
  0
LINE
  5
3B65
330
1A
100
AcDbEntity
  8
SEIHIN
100
AcDbLine
 10
97.53097063491663
 20
90.03636253538161
 30
0.0
 11
97.5309564849166
 21
84.03636253538161
 31
0.0
  0
LINE
  5
3B66
330
1A
100
AcDbEntity
  8
SEIHIN
100
AcDbLine
 10
96.89586826859141
 20
84.03636253538161
 30
0.0
 11
98.8958682649166
 21
84.03636253538161
 31
0.0
  0
ARC
  5
3B67
330
1A
100
AcDbEntity
  8
SEIHIN
100
AcDbCircle
 10
95.89588196491661
 20
89.84275888738158
 30
0.0
 40
1.000000000001389
100
AcDbArc
 50
359.9998648965509
 51
90.0
  0
LINE
  5
3B68
330
1A
100
AcDbEntity
  8
SEIHIN
100
AcDbLine
 10
95.89588196491661
 20
90.8427588873816
 30
0.0
 11
93.9309706349166
 21
90.8427588873816
 31
0.0
  0
ARC
  5
3B69
330
1A
100
AcDbEntity
  8
SEIHIN
100
AcDbCircle
 10
93.9309706349166
 20
89.84275888738158
 30
0.0
 40
1.0
100
AcDbArc
 50
90.0
 51
180.0
  0
LINE
  5
3B6A
330
1A
100
AcDbEntity
  8
SEIHIN
100
AcDbLine
 10
97.53097063491663
 20
90.03636253538161
 30
0.0
 11
98.89588241491663
 21
90.03636253538161
 31
0.0
  0
LINE
  5
3B6B
330
1A
100
AcDbEntity
  8
SEIHIN
100
AcDbLine
 10
105.4309706349165
 20
81.53636253538161
 30
0.0
 11
110.4309706349166
 21
81.53636253538161
 31
0.0
  0
LINE
  5
3B6C
330
1A
100
AcDbEntity
  8
SEIHIN
100
AcDbLine
 10
107.9309706349166
 20
75.53636253538162
 30
0.0
 11
109.0856711749166
 21
73.53636253538161
 31
0.0
  0
LINE
  5
3B6D
330
1A
100
AcDbEntity
  8
SEIHIN
100
AcDbLine
 10
109.0856711749166
 20
73.53636253538161
 30
0.0
 11
106.7762700949166
 21
73.53636253538161
 31
0.0
  0
LINE
  5
3B6E
330
1A
100
AcDbEntity
  8
SEIHIN
100
AcDbLine
 10
110.4309706349166
 20
75.53636253538162
 30
0.0
 11
105.4309706349165
 21
75.53636253538162
 31
0.0
  0
MTEXT
  5
3B6F
330
1A
100
AcDbEntity
  8
SEIHIN
100
AcDbMText
 10
106.2771664149166
 20
78.41634977938162
 30
0.0
 40
2.381249964
 41
0.0
 71
     1
 72
     5
  1
{\W1.460317;10}
1001
ACAD
1000
MTEXTBEGIN
1070
    73
1070
     1
1070
    44
1040
1.0
1070
    74
1070
     0
1000
MTEXTEND
1000
MTEXTBEGIN
1070
    73
1070
     1
1070
    44
1040
1.0
1070
    74
1070
     0
1000
MTEXTEND
1000
MTEXTBEGIN
1070
    73
1070
     1
1070
    44
1040
1.0
1070
    74
1070
     0
1000
MTEXTEND
1000
MTEXTBEGIN
1070
    73
1070
     1
1070
    44
1040
1.0
1070
    74
1070
     0
1000
MTEXTEND
1000
MTEXTBEGIN
1070
    73
1070
     1
1070
    44
1040
1.0
1070
    74
1070
     0
1000
MTEXTEND
1000
MTEXTBEGIN
1070
    73
1070
     1
1070
    44
1040
1.0
1070
    74
1070
     0
1000
MTEXTEND
1000
MTEXTBEGIN
1070
    73
1070
     1
1070
    44
1040
1.0
1070
    74
1070
     0
1000
MTEXTEND
1000
MTEXTBEGIN
1070
    73
1070
     1
1070
    44
1040
1.0
1070
    74
1070
     0
1000
MTEXTEND
1000
MTEXTBEGIN
1070
    73
1070
     1
1070
    44
1040
1.0
1070
    74
1070
     0
1000
MTEXTEND
1000
MTEXTBEGIN
1070
    73
1070
     1
1070
    44
1040
1.0
1070
    74
1070
     0
1000
MTEXTEND
1000
MTEXTBEGIN
1070
    73
1070
     1
1070
    44
1040
1.0
1070
    74
1070
     0
1000
MTEXTEND
1000
MTEXTBEGIN
1070
    73
1070
     1
1070
    44
1040
1.0
1070
    74
1070
     0
1000
MTEXTEND
  0
LINE
  5
3B70
330
1A
100
AcDbEntity
  8
SEIHIN
100
AcDbLine
 10
104.4309706349165
 20
80.53636253538162
 30
0.0
 11
104.4309706349165
 21
76.53636253538161
 31
0.0
  0
ARC
  5
3B71
330
1A
100
AcDbEntity
  8
SEIHIN
100
AcDbCircle
 10
105.4309706349165
 20
76.53636253538161
 30
0.0
 40
1.0
100
AcDbArc
 50
180.0
 51
270.0
  0
LINE
  5
3B72
330
1A
100
AcDbEntity
  8
SEIHIN
100
AcDbLine
 10
107.9309706349166
 20
75.53636253538162
 30
0.0
 11
106.7762700949166
 21
73.53636253538161
 31
0.0
  0
ARC
  5
3B73
330
1A
100
AcDbEntity
  8
SEIHIN
100
AcDbCircle
 10
105.4309706349165
 20
80.53636253538162
 30
0.0
 40
1.0
100
AcDbArc
 50
90.0
 51
180.0
  0
LINE
  5
3B74
330
1A
100
AcDbEntity
  8
SEIHIN
100
AcDbLine
 10
108.1809706349166
 20
81.53636253538161
 30
0.0
 11
108.1809706349166
 21
79.53636253538161
 31
0.0
  0
LINE
  5
3B75
330
1A
100
AcDbEntity
  8
SEIHIN
100
AcDbLine
 10
107.6809706349166
 20
79.53636253538161
 30
0.0
 11
107.6809706349166
 21
81.53636253538161
 31
0.0
  0
LINE
  5
3B76
330
1A
100
AcDbEntity
  8
SEIHIN
100
AcDbLine
 10
108.1809706349166
 20
79.53636253538161
 30
0.0
 11
107.6809706349166
 21
79.53636253538161
 31
0.0
  0
LINE
  5
3B77
330
1A
100
AcDbEntity
  8
SEIHIN
100
AcDbLine
 10
107.6809706349166
 20
81.53636253538161
 30
0.0
 11
108.1809706349166
 21
81.53636253538161
 31
0.0
  0
LINE
  5
3B78
330
1A
100
AcDbEntity
  8
SEIHIN
100
AcDbLine
 10
107.6877206349166
 20
81.53636253538161
 30
0.0
 11
108.1877206349166
 21
81.53636253538161
 31
0.0
  0
LINE
  5
3B79
330
1A
100
AcDbEntity
  8
SEIHIN
100
AcDbLine
 10
111.4309706349166
 20
80.53636253538162
 30
0.0
 11
111.4309706349166
 21
76.53636253538161
 31
0.0
  0
ARC
  5
3B7A
330
1A
100
AcDbEntity
  8
SEIHIN
100
AcDbCircle
 10
110.4309706349166
 20
76.53636253538161
 30
0.0
 40
1.0
100
AcDbArc
 50
270.0
 51
0.0
  0
ARC
  5
3B7B
330
1A
100
AcDbEntity
  8
SEIHIN
100
AcDbCircle
 10
110.4309706349166
 20
80.53636253538162
 30
0.0
 40
1.0
100
AcDbArc
 50
0.0
 51
90.0
  0
LINE
  5
3B7C
330
1A
100
AcDbEntity
  8
SEIHIN
100
AcDbLine
 10
117.9309706369166
 20
70.84275888538162
 30
0.0
 11
117.9309706369166
 21
92.15358275438161
 31
0.0
  0
LINE
  5
3B7D
330
1A
100
AcDbEntity
  8
SEIHIN
100
AcDbLine
 10
147.4443541149166
 20
84.03636253538161
 30
0.0
 11
117.9309706369166
 21
84.03636253538161
 31
0.0
  0
MTEXT
  5
3B7E
330
1A
100
AcDbEntity
  8
SEIHIN
100
AcDbMText
 10
118.8797912089166
 20
78.4481397593816
 30
0.0
 40
2.381249964
 41
0.0
 71
     1
 72
     5
  1
{\W1.703704;0}
1001
ACAD
1000
MTEXTBEGIN
1070
    73
1070
     1
1070
    44
1040
1.0
1070
    74
1070
     0
1000
MTEXTEND
1000
MTEXTBEGIN
1070
    73
1070
     1
1070
    44
1040
1.0
1070
    74
1070
     0
1000
MTEXTEND
1000
MTEXTBEGIN
1070
    73
1070
     1
1070
    44
1040
1.0
1070
    74
1070
     0
1000
MTEXTEND
1000
MTEXTBEGIN
1070
    73
1070
     1
1070
    44
1040
1.0
1070
    74
1070
     0
1000
MTEXTEND
1000
MTEXTBEGIN
1070
    73
1070
     1
1070
    44
1040
1.0
1070
    74
1070
     0
1000
MTEXTEND
1000
MTEXTBEGIN
1070
    73
1070
     1
1070
    44
1040
1.0
1070
    74
1070
     0
1000
MTEXTEND
1000
MTEXTBEGIN
1070
    73
1070
     1
1070
    44
1040
1.0
1070
    74
1070
     0
1000
MTEXTEND
1000
MTEXTBEGIN
1070
    73
1070
     1
1070
    44
1040
1.0
1070
    74
1070
     0
1000
MTEXTEND
1000
MTEXTBEGIN
1070
    73
1070
     1
1070
    44
1040
1.0
1070
    74
1070
     0
1000
MTEXTEND
1000
MTEXTBEGIN
1070
    73
1070
     1
1070
    44
1040
1.0
1070
    74
1070
     0
1000
MTEXTEND
1000
MTEXTBEGIN
1070
    73
1070
     1
1070
    44
1040
1.0
1070
    74
1070
     0
1000
MTEXTEND
1000
MTEXTBEGIN
1070
    73
1070
     1
1070
    44
1040
1.0
1070
    74
1070
     0
1000
MTEXTEND
  0
LINE
  5
3B7F
330
1A
100
AcDbEntity
  8
SEIHIN
100
AcDbLine
 10
118.1809706369166
 20
79.53636253538161
 30
0.0
 11
117.9309706369166
 21
79.53636253538161
 31
0.0
  0
LINE
  5
3B80
330
1A
100
AcDbEntity
  8
SEIHIN
100
AcDbLine
 10
117.9309706369166
 20
81.53636253538161
 30
0.0
 11
118.1809706369166
 21
81.53636253538161
 31
0.0
  0
LINE
  5
3B81
330
1A
100
AcDbEntity
  8
SEIHIN
100
AcDbLine
 10
118.1809706369166
 20
81.53636253538161
 30
0.0
 11
118.1809706369166
 21
79.53636253538161
 31
0.0
  0
LINE
  5
3B82
330
1A
100
AcDbEntity
  8
SEIHIN
100
AcDbLine
 10
123.1809706374166
 20
81.53636253538161
 30
0.0
 11
123.1809706374166
 21
79.53636253538161
 31
0.0
  0
LINE
  5
3B83
330
1A
100
AcDbEntity
  8
SEIHIN
100
AcDbLine
 10
122.6809706374166
 20
79.53636253538161
 30
0.0
 11
122.6809706374166
 21
81.53636253538161
 31
0.0
  0
LINE
  5
3B84
330
1A
100
AcDbEntity
  8
SEIHIN
100
AcDbLine
 10
123.1809706374166
 20
79.53636253538161
 30
0.0
 11
122.6809706374166
 21
79.53636253538161
 31
0.0
  0
LINE
  5
3B85
330
1A
100
AcDbEntity
  8
SEIHIN
100
AcDbLine
 10
122.6809706374166
 20
81.53636253538161
 30
0.0
 11
123.1809706374166
 21
81.53636253538161
 31
0.0
  0
MTEXT
  5
3B86
330
1A
100
AcDbEntity
  8
SEIHIN
100
AcDbMText
 10
126.0219628939166
 20
78.4481397593816
 30
0.0
 40
2.381249964
 41
0.0
 71
     1
 72
     5
  1
{\W1.135802;30}
1001
ACAD
1000
MTEXTBEGIN
1070
    73
1070
     1
1070
    44
1040
1.0
1070
    74
1070
     0
1000
MTEXTEND
1000
MTEXTBEGIN
1070
    73
1070
     1
1070
    44
1040
1.0
1070
    74
1070
     0
1000
MTEXTEND
1000
MTEXTBEGIN
1070
    73
1070
     1
1070
    44
1040
1.0
1070
    74
1070
     0
1000
MTEXTEND
1000
MTEXTBEGIN
1070
    73
1070
     1
1070
    44
1040
1.0
1070
    74
1070
     0
1000
MTEXTEND
1000
MTEXTBEGIN
1070
    73
1070
     1
1070
    44
1040
1.0
1070
    74
1070
     0
1000
MTEXTEND
1000
MTEXTBEGIN
1070
    73
1070
     1
1070
    44
1040
1.0
1070
    74
1070
     0
1000
MTEXTEND
1000
MTEXTBEGIN
1070
    73
1070
     1
1070
    44
1040
1.0
1070
    74
1070
     0
1000
MTEXTEND
1000
MTEXTBEGIN
1070
    73
1070
     1
1070
    44
1040
1.0
1070
    74
1070
     0
1000
MTEXTEND
1000
MTEXTBEGIN
1070
    73
1070
     1
1070
    44
1040
1.0
1070
    74
1070
     0
1000
MTEXTEND
1000
MTEXTBEGIN
1070
    73
1070
     1
1070
    44
1040
1.0
1070
    74
1070
     0
1000
MTEXTEND
1000
MTEXTBEGIN
1070
    73
1070
     1
1070
    44
1040
1.0
1070
    74
1070
     0
1000
MTEXTEND
1000
MTEXTBEGIN
1070
    73
1070
     1
1070
    44
1040
1.0
1070
    74
1070
     0
1000
MTEXTEND
  0
LINE
  5
3B87
330
1A
100
AcDbEntity
  8
SEIHIN
100
AcDbLine
 10
127.6809706369166
 20
79.53636253538161
 30
0.0
 11
127.6809706369166
 21
81.53636253538161
 31
0.0
  0
LINE
  5
3B88
330
1A
100
AcDbEntity
  8
SEIHIN
100
AcDbLine
 10
128.1809706369166
 20
79.53636253538161
 30
0.0
 11
127.6809706369166
 21
79.53636253538161
 31
0.0
  0
LINE
  5
3B89
330
1A
100
AcDbEntity
  8
SEIHIN
100
AcDbLine
 10
128.1809706369166
 20
81.53636253538161
 30
0.0
 11
128.1809706369166
 21
79.53636253538161
 31
0.0
  0
LINE
  5
3B8A
330
1A
100
AcDbEntity
  8
SEIHIN
100
AcDbLine
 10
127.6809706369166
 20
81.53636253538161
 30
0.0
 11
128.1809706369166
 21
81.53636253538161
 31
0.0
  0
LINE
  5
3B8B
330
1A
100
AcDbEntity
  8
SEIHIN
100
AcDbLine
 10
132.6809706349166
 20
79.53636253538161
 30
0.0
 11
132.6809706349166
 21
81.53636253538161
 31
0.0
  0
LINE
  5
3B8C
330
1A
100
AcDbEntity
  8
SEIHIN
100
AcDbLine
 10
133.1809706349166
 20
79.53636253538161
 30
0.0
 11
132.6809706349166
 21
79.53636253538161
 31
0.0
  0
LINE
  5
3B8D
330
1A
100
AcDbEntity
  8
SEIHIN
100
AcDbLine
 10
133.1809706349166
 20
81.53636253538161
 30
0.0
 11
133.1809706349166
 21
79.53636253538161
 31
0.0
  0
LINE
  5
3B8E
330
1A
100
AcDbEntity
  8
SEIHIN
100
AcDbLine
 10
132.6809706349166
 20
81.53636253538161
 30
0.0
 11
133.1809706349166
 21
81.53636253538161
 31
0.0
  0
ARC
  5
3B8F
330
1A
100
AcDbEntity
  8
SEIHIN
100
AcDbCircle
 10
114.7613263089166
 20
89.03636253538161
 30
0.0
 40
4.999999999848357
100
AcDbArc
 50
309.3405856316249
 51
336.9999999929871
  0
LINE
  5
3B90
330
1A
100
AcDbEntity
  8
SEIHIN
100
AcDbLine
 10
140.4023541149166
 20
81.53636253538161
 30
0.0
 11
140.4023541149166
 21
75.53636253538162
 31
0.0
  0
ARC
  5
3B91
330
1A
100
AcDbEntity
  8
SEIHIN
100
AcDbCircle
 10
147.4444291049166
 20
85.53639883638163
 30
0.0
 40
1.5000363023233
100
AcDbArc
 50
269.9971356623169
 51
321.6588485138866
  0
ARC
  5
3B92
330
1A
100
AcDbEntity
  8
SEIHIN
100
AcDbCircle
 10
117.5472962629166
 20
96.83222878238161
 30
0.0
 40
2.000000000156595
100
AcDbArc
 50
81.39257542428609
 51
140.269156698892
  0
LINE
  5
3B93
330
1A
100
AcDbEntity
  8
SEIHIN
100
AcDbLine
 10
116.6807313869166
 20
96.11750219638162
 30
0.0
 11
119.7819352619166
 21
103.4234806853816
 31
0.0
  0
LINE
  5
3B94
330
1A
100
AcDbEntity
  8
SEIHIN
100
AcDbLine
 10
117.9213180299166
 20
100.8058326573816
 30
0.0
 11
106.2448620349166
 21
102.4549434673816
 31
0.0
  0
LINE
  5
3B95
330
1A
100
AcDbEntity
  8
SEIHIN
100
AcDbLine
 10
117.9865436469166
 20
99.78669633738162
 30
0.0
 11
105.5802242249165
 21
101.5388885693816
 31
0.0
  0
ARC
  5
3B96
330
1A
100
AcDbEntity
  8
SEIHIN
100
AcDbCircle
 10
101.2263342449166
 20
100.0317263963816
 30
0.0
 40
1.000000000382153
100
AcDbArc
 50
81.96106612019018
 51
171.9610661362135
  0
ARC
  5
3B97
330
1A
100
AcDbEntity
  8
SEIHIN
100
AcDbCircle
 10
104.5758949449166
 20
101.5785035583816
 30
0.0
 40
1.000000000947164
100
AcDbArc
 50
261.9610661282026
 51
351.9610660794812
  0
LINE
  5
3B98
330
1A
100
AcDbEntity
  8
SEIHIN
100
AcDbLine
 10
104.4360489649166
 20
100.5883302893816
 30
0.0
 11
101.3661802249166
 21
101.0218996643816
 31
0.0
  0
LINE
  5
3B99
330
1A
100
AcDbEntity
  8
SEIHIN
100
AcDbLine
 10
105.5660682149166
 20
101.4386575773815
 30
0.0
 11
105.6459518349166
 21
102.0042700053816
 31
0.0
  0
ARC
  5
3B9A
330
1A
100
AcDbEntity
  8
SEIHIN
100
AcDbCircle
 10
106.1707436649166
 20
101.9301516353816
 30
0.0
 40
0.5299999987318778
100
AcDbArc
 50
81.96106605535982
 51
171.9610660251237
  0
LINE
  5
3B9B
330
1A
100
AcDbEntity
  8
SEIHIN
100
AcDbLine
 10
115.6020554099166
 20
97.62073935938161
 30
0.0
 11
116.0091850959166
 21
98.11059259538161
 31
0.0
  0
ARC
  5
3B9C
330
1A
100
AcDbEntity
  8
SEIHIN
100
AcDbCircle
 10
129.9074886499166
 20
99.12543826838163
 30
0.0
 40
11.00000000016632
100
AcDbArc
 50
96.99999999830872
 51
156.9999999827012
  0
ARC
  5
3B9D
330
1A
100
AcDbEntity
  8
SEIHIN
100
AcDbCircle
 10
131.2973209129166
 20
97.28106856138163
 30
0.0
 40
7.000000001556344
100
AcDbArc
 50
96.99999999882715
 51
157.000000005866
  0
LINE
  5
3B9E
330
1A
100
AcDbEntity
  8
SEIHIN
100
AcDbLine
 10
117.9213180299166
 20
100.8058326573816
 30
0.0
 11
119.0225604239166
 21
101.6345056713816
 31
0.0
  0
ARC
  5
3B9F
330
1A
100
AcDbEntity
  8
SEIHIN
100
AcDbCircle
 10
118.0564666379166
 20
100.2817829723816
 30
0.0
 40
0.5000000001979524
100
AcDbArc
 50
261.9610660227497
 51
306.9610660182878
  0
LINE
  5
3BA0
330
1A
100
AcDbEntity
  8
SEIHIN
100
AcDbLine
 10
129.2432741329166
 20
112.4264355753816
 30
0.0
 11
128.3372537349166
 21
112.8496696053816
 31
0.0
  0
LINE
  5
3BA1
330
1A
100
AcDbEntity
  8
SEIHIN
100
AcDbLine
 10
126.8936026349166
 20
109.7044973553815
 30
0.0
 11
128.3372537349166
 21
112.8496696053816
 31
0.0
  0
LINE
  5
3BA2
330
1A
100
AcDbEntity
  8
SEIHIN
100
AcDbLine
 10
128.1261413919166
 20
109.9802437453816
 30
0.0
 11
129.2432741329166
 21
112.4264355753816
 31
0.0
  0
LINE
  5
3BA3
330
1A
100
AcDbEntity
  8
SEIHIN
100
AcDbLine
 10
202.8225912949165
 20
76.88436318538163
 30
0.0
 11
189.4525269449166
 21
110.3095240553816
 31
0.0
  0
LINE
  5
3BA4
330
1A
100
AcDbEntity
  8
SEIHIN
100
AcDbLine
 10
195.6733207749165
 20
112.7978415853815
 30
0.0
 11
209.0433851249165
 21
79.37268071538165
 31
0.0
  0
LINE
  5
3BA5
330
1A
100
AcDbEntity
  8
SEIHIN
100
AcDbLine
 10
194.5591487449166
 20
112.3521727753816
 30
0.0
 11
207.9292130949165
 21
78.92701190538161
 31
0.0
  0
ARC
  5
3BA6
330
1A
100
AcDbEntity
  8
SEIHIN
100
AcDbCircle
 10
180.2207541149166
 20
98.23636253538161
 30
0.0
 40
3.0
100
AcDbArc
 50
270.0
 51
90.0
  0
ARC
  5
3BA7
330
1A
100
AcDbEntity
  8
SEIHIN
100
AcDbCircle
 10
177.3707541149166
 20
93.73626253518159
 30
0.0
 40
10.0000000001
100
AcDbArc
 50
0.0
 51
90.0
  0
ARC
  5
3BA8
330
1A
100
AcDbEntity
  8
SEIHIN
100
AcDbCircle
 10
169.3166492249166
 20
92.2362601673816
 30
0.0
 40
3.000002368933987
100
AcDbArc
 50
89.99990660795349
 51
141.6619327663495
  0
LINE
  5
3BA9
330
1A
100
AcDbEntity
  8
SEIHIN
100
AcDbLine
 10
164.0589541149166
 20
100.0971625353816
 30
0.0
 11
152.6391541149166
 21
85.65666253538159
 31
0.0
  0
ARC
  5
3BAA
330
1A
100
AcDbEntity
  8
SEIHIN
100
AcDbCircle
 10
182.8707541149166
 20
75.36737915538163
 30
0.0
 40
4.500000000783715
100
AcDbArc
 50
216.0326608768124
 51
0.0
  0
ARC
  5
3BAB
330
1A
100
AcDbEntity
  8
SEIHIN
100
AcDbCircle
 10
176.3707541149166
 20
86.73626253538163
 30
0.0
 40
5.999999999899999
100
AcDbArc
 50
0.0
 51
90.0
  0
LINE
  5
3BAC
330
1A
100
AcDbEntity
  8
NOKITOI
  6
PHANTOM
 62
     8
100
AcDbLine
 10
169.4924041149168
 20
51.34086253454398
 30
0.0
 11
175.3311041149166
 21
79.072262534544
 31
0.0
  0
LINE
  5
3BAD
330
1A
100
AcDbEntity
  8
NOKITOI
  6
PHANTOM
 62
     8
100
AcDbLine
 10
168.3837041149168
 20
52.35336253454415
 30
0.0
 11
173.8387041149166
 21
78.26226253454405
 31
0.0
  0
ARC
  5
3BAE
330
1A
100
AcDbEntity
  8
NOKITOI
  6
PHANTOM
 62
     8
100
AcDbCircle
 10
172.2524186184653
 20
38.12597045873258
 30
0.0
 40
14.22809199964113
100
AcDbArc
 50
108.5474584936554
 51
128.7537062451651
  0
LINE
  5
3BAF
330
1A
100
AcDbEntity
  8
NOKITOI
  6
PHANTOM
 62
     8
100
AcDbLine
 10
153.3655041149166
 20
49.22176253454399
 30
0.0
 11
163.3460041149166
 21
49.22166253454412
 31
0.0
  0
ARC
  5
3BB0
330
1A
100
AcDbEntity
  8
NOKITOI
  6
PHANTOM
 62
     8
100
AcDbCircle
 10
168.5187784517689
 20
51.54594178593157
 30
0.0
 40
0.9949690575286499
100
AcDbArc
 50
285.5437330810335
 51
348.1110361155306
  0
ARC
  5
3BB1
330
1A
100
AcDbEntity
  8
NOKITOI
  6
PHANTOM
 62
     8
100
AcDbCircle
 10
167.4101476844678
 20
52.55841148631299
 30
0.0
 40
0.9950135261271753
100
AcDbArc
 50
288.5445751594485
 51
348.1074736523477
  0
LINE
  5
3BB2
330
1A
100
AcDbEntity
  8
SEIHIN
100
AcDbLine
 10
157.9634541149166
 20
75.92186253538159
 30
0.0
 11
171.3578541149166
 21
77.63136253538164
 31
0.0
  0
LINE
  5
3BB3
330
1A
100
AcDbEntity
  8
SEIHIN
100
AcDbLine
 10
154.0337541149166
 20
73.03626253538164
 30
0.0
 11
171.5484541149165
 21
76.44726253538164
 31
0.0
  0
LINE
  5
3BB4
330
1A
100
AcDbEntity
  8
SEIHIN
100
AcDbLine
 10
167.5731541149166
 20
90.83766253538163
 30
0.0
 11
157.0524541149165
 21
77.53416253538159
 31
0.0
  0
LINE
  5
3BB5
330
1A
100
AcDbEntity
  8
SEIHIN
100
AcDbLine
 10
166.9635541149166
 20
94.0971625351816
 30
0.0
 11
159.3075541149166
 21
84.41606253538163
 31
0.0
  0
LINE
  5
3BB6
330
1A
100
AcDbEntity
  8
SEIHIN
100
AcDbLine
 10
152.5855541149165
 20
75.9159625353816
 30
0.0
 11
155.7488541149166
 21
79.91606253538162
 31
0.0
  0
ARC
  5
3BB7
330
1A
100
AcDbEntity
  8
SEIHIN
100
AcDbCircle
 10
151.8011827449166
 20
76.53627639538161
 30
0.0
 40
1.000013862902801
100
AcDbArc
 50
269.9983596445684
 51
321.6615704529417
  0
ARC
  5
3BB8
330
1A
100
AcDbEntity
  8
SEIHIN
100
AcDbCircle
 10
157.8368589149166
 20
76.91385404538164
 30
0.0
 40
1.000036752725678
100
AcDbArc
 50
141.6629998625315
 51
277.2726171970297
  0
ARC
  5
3BB9
330
1A
100
AcDbEntity
  8
SEIHIN
100
AcDbCircle
 10
154.9644608249166
 20
80.53634867538164
 30
0.0
 40
1.00001386218148
100
AcDbArc
 50
321.6635952327493
 51
90.0003844493519
  0
LINE
  5
3BBA
330
1A
100
AcDbEntity
  8
SEIHIN
100
AcDbLine
 10
158.5231541149166
 20
84.03636253538161
 30
0.0
 11
153.4235541149166
 21
84.03636253538161
 31
0.0
  0
ARC
  5
3BBB
330
1A
100
AcDbEntity
  8
SEIHIN
100
AcDbCircle
 10
153.4235624149166
 20
85.03634538538165
 30
0.0
 40
0.9999828485094189
100
AcDbArc
 50
141.6672292746693
 51
269.9995244368737
  0
ARC
  5
3BBC
330
1A
100
AcDbEntity
  8
SEIHIN
100
AcDbCircle
 10
158.5231827449165
 20
85.03637639738162
 30
0.0
 40
1.000013864523104
100
AcDbArc
 50
269.9983596445718
 51
321.6615703630643
  0
LINE
  5
3BBD
330
1A
100
AcDbEntity
  8
NOKITOI
  6
PHANTOM
 62
     8
100
AcDbLine
 10
181.0690041149168
 20
80.530162534544
 30
0.0
 11
181.0690041149168
 21
87.92966253454421
 31
0.0
  0
LINE
  5
3BBE
330
1A
100
AcDbEntity
  8
NOKITOI
  6
PHANTOM
 62
     8
100
AcDbLine
 10
182.3690041149167
 20
80.22516253454403
 30
0.0
 11
182.3690041149167
 21
88.23476253454401
 31
0.0
  0
LINE
  5
3BBF
330
1A
100
AcDbEntity
  8
NOKITOI
  6
PHANTOM
 62
     8
100
AcDbLine
 10
173.8387041149166
 20
78.26226253454405
 30
0.0
 11
176.1478041149165
 21
89.22966253454404
 31
0.0
  0
LINE
  5
3BC0
330
1A
100
AcDbEntity
  8
NOKITOI
  6
PHANTOM
 62
     8
100
AcDbLine
 10
177.2026041149165
 20
87.92966253454421
 30
0.0
 11
175.6447041149168
 21
80.53026253454408
 31
0.0
  0
LINE
  5
3BC1
330
1A
100
AcDbEntity
  8
SEIHIN
100
AcDbLine
 10
182.3707541149166
 20
77.14146137538159
 30
0.0
 11
182.3707541149166
 21
86.73626253538163
 31
0.0
  0
ARC
  5
3BC2
330
1A
100
AcDbEntity
  8
SEIHIN
100
AcDbCircle
 10
171.4337566349166
 20
77.03622287538161
 30
0.0
 40
0.5999603391169003
100
AcDbArc
 50
269.9997593418182
 51
97.26811277064525
  0
LINE
  5
3BC3
330
1A
100
AcDbEntity
  8
SEIHIN
100
AcDbLine
 10
178.2810541149166
 20
78.97676253538162
 30
0.0
 11
181.5896885249165
 21
76.72793733538163
 31
0.0
  0
ARC
  5
3BC4
330
1A
100
AcDbEntity
  8
SEIHIN
100
AcDbCircle
 10
177.4378459449166
 20
77.7362513353816
 30
0.0
 40
1.500013201217973
100
AcDbArc
 50
61.61017886408406
 51
226.1911119609332
  0
LINE
  5
3BC5
330
1A
100
AcDbEntity
  8
SEIHIN
100
AcDbLine
 10
179.2316860049165
 20
72.72027067538164
 30
0.0
 11
176.2248541149166
 21
76.85386253538161
 31
0.0
  0
ARC
  5
3BC6
330
1A
100
AcDbEntity
  8
SEIHIN
100
AcDbCircle
 10
181.8707541149166
 20
77.14146137538159
 30
0.0
 40
0.4999999987699835
100
AcDbArc
 50
235.7966882627013
 51
0.0
  0
LINE
  5
3BC7
330
1A
100
AcDbEntity
  8
NOKITOI
  6
PHANTOM
 62
     8
100
AcDbLine
 10
175.5258041149166
 20
79.23016253454415
 30
0.0
 11
181.3740041149167
 21
79.23016253454415
 31
0.0
  0
LINE
  5
3BC8
330
1A
100
AcDbEntity
  8
NOKITOI
  6
PHANTOM
 62
     8
100
AcDbLine
 10
181.0690041149168
 20
80.530162534544
 30
0.0
 11
175.6447041149168
 21
80.53026253454408
 31
0.0
  0
ARC
  5
3BC9
330
1A
100
AcDbEntity
  8
NOKITOI
  6
PHANTOM
 62
     8
100
AcDbCircle
 10
175.5258225575309
 20
79.03127749798085
 30
0.0
 40
0.1989850374179911
100
AcDbArc
 50
90.00531036897097
 51
168.1136861719431
  0
ARC
  5
3BCA
330
1A
100
AcDbEntity
  8
NOKITOI
  6
PHANTOM
 62
     8
100
AcDbCircle
 10
181.3740041149168
 20
80.2251625345441
 30
0.0
 40
0.9949999999999192
100
AcDbArc
 50
269.9999999999951
 51
359.9999999999951
  0
LINE
  5
3BCB
330
1A
100
AcDbEntity
  8
SEIHIN
100
AcDbLine
 10
169.3166541149166
 20
95.23626253538163
 30
0.0
 11
180.2207541149166
 21
95.2363625353816
 31
0.0
  0
LINE
  5
3BCC
330
1A
100
AcDbEntity
  8
SEIHIN
100
AcDbLine
 10
176.3707541149166
 20
92.73626253518159
 30
0.0
 11
171.4950541149166
 21
92.73626253518159
 31
0.0
  0
ARC
  5
3BCD
330
1A
100
AcDbEntity
  8
SEIHIN
100
AcDbCircle
 10
171.4949919549165
 20
87.7362324423816
 30
0.0
 40
5.000030094599926
100
AcDbArc
 50
89.99928770315646
 51
141.6617877220316
  0
LINE
  5
3BCE
330
1A
100
AcDbEntity
  8
NOKITOI
  6
PHANTOM
 62
     8
100
AcDbLine
 10
181.0690041149168
 20
87.92966253454421
 30
0.0
 11
177.2026041149165
 21
87.92966253454421
 31
0.0
  0
LINE
  5
3BCF
330
1A
100
AcDbEntity
  8
NOKITOI
  6
PHANTOM
 62
     8
100
AcDbLine
 10
181.3740041149167
 20
89.22976253454413
 30
0.0
 11
176.1703041149167
 21
89.22966253454404
 31
0.0
  0
ARC
  5
3BD0
330
1A
100
AcDbEntity
  8
NOKITOI
  6
PHANTOM
 62
     8
100
AcDbCircle
 10
181.3740041149167
 20
88.23476253454414
 30
0.0
 40
0.9950000000000613
100
AcDbArc
 50
359.9999999999967
 51
89.99999999999674
  0
TEXT
  5
3BD1
330
1A
100
AcDbEntity
  8
SUNPOU
100
AcDbText
 10
210.7521792658022
 20
54.96228922239255
 30
0.0
 40
3.0
  1
10
100
AcDbText
  0
LINE
  5
3BD2
330
1A
100
AcDbEntity
  8
CENTER_L
100
AcDbLine
 10
213.3143779034219
 20
87.54327559325565
 30
0.0
 11
199.2015322001535
 21
81.89813731648554
 31
0.0
  0
LINE
  5
3BD3
330
1A
100
AcDbEntity
  8
SEIHIN
100
AcDbLine
 10
187.3707541149166
 20
75.36737915538163
 30
0.0
 11
187.3707541149166
 21
93.73626253518159
 31
0.0
  0
LINE
  5
3BD4
330
1A
100
AcDbEntity
  8
SEIHIN
100
AcDbLine
 10
202.1726580844255
 20
85.24065222562956
 30
0.0
 11
206.0722601758679
 21
83.56939420689213
 31
0.0
  0
LINE
  5
3BD5
330
1A
100
AcDbEntity
  8
SEIHIN
100
AcDbLine
 10
209.0433851249165
 20
79.37268071538165
 30
0.0
 11
202.8225912949165
 21
76.88436318538163
 31
0.0
  0
LINE
  5
3BD6
330
1A
100
AcDbEntity
  8
SEIHIN
100
AcDbLine
 10
202.1726580844255
 20
85.24065222562956
 30
0.0
 11
204.9580881570195
 21
86.35482425484626
 31
0.0
  0
LINE
  5
3BD7
330
1A
100
AcDbEntity
  8
SEIHIN
100
AcDbLine
 10
203.843916118318
 20
89.14025435243358
 30
0.0
 11
202.1726580844255
 21
85.24065222562956
 31
0.0
  0
ARC
  5
3BD8
330
1A
100
AcDbEntity
  8
SEIHIN
100
AcDbCircle
 10
184.6244481549166
 20
114.8404903053816
 30
0.0
 40
4.00000000329503
100
AcDbArc
 50
21.80141959393467
 51
170.7918455562607
  0
ARC
  5
3BD9
330
1A
100
AcDbEntity
  8
SEIHIN
100
AcDbCircle
 10
184.6244481549166
 20
114.8404903053816
 30
0.0
 40
10.00000000188134
100
AcDbArc
 50
47.64334225536839
 51
170.7918456273463
  0
LINE
  5
3BDA
330
1A
100
AcDbEntity
  8
SEIHIN
100
AcDbLine
 10
180.2207541149166
 20
101.2363625353815
 30
0.0
 11
166.4120541149165
 21
101.2362625353816
 31
0.0
  0
LINE
  5
3BDB
330
1A
100
AcDbEntity
  8
SEIHIN
100
AcDbLine
 10
166.1700541149166
 20
103.7362625353816
 30
0.0
 11
177.3707541149166
 21
103.7362625353816
 31
0.0
  0
ARC
  5
3BDC
330
1A
100
AcDbEntity
  8
SEIHIN
100
AcDbCircle
 10
166.4120492249165
 20
98.2362601673816
 30
0.0
 40
3.000002368996017
100
AcDbArc
 50
89.99990660795349
 51
141.6619327633552
  0
ARC
  5
3BDD
330
1A
100
AcDbEntity
  8
SEIHIN
100
AcDbCircle
 10
166.1699919549166
 20
98.7362324423816
 30
0.0
 40
5.000030094699926
100
AcDbArc
 50
89.99928770315646
 51
141.6617877220316
  0
ARC
  5
3BDE
330
1A
100
AcDbEntity
  8
SEIHIN
100
AcDbCircle
 10
173.7661996449166
 20
116.6007287453816
 30
0.0
 40
0.9999999993115235
100
AcDbArc
 50
277.000014244469
 51
350.791845391947
  0
ARC
  5
3BDF
330
1A
100
AcDbEntity
  8
SEIHIN
100
AcDbCircle
 10
173.7661996449166
 20
116.6007287453816
 30
0.0
 40
6.999999996543326
100
AcDbArc
 50
276.9999999703212
 51
350.7918456343345
  0
LINE
  5
3BE0
330
1A
100
AcDbEntity
  8
SEIHIN
100
AcDbLine
 10
191.361883946596
 20
122.2301424616488
 30
0.0
 11
195.2090824249166
 21
112.6121462453816
 31
0.0
  0
LINE
  5
3BE1
330
1A
100
AcDbEntity
  8
CENTER_L
100
AcDbLine
 10
190.2881559669775
 20
104.1815778960922
 30
0.0
 11
204.4010016702459
 21
109.8267161728623
 31
0.0
  0
LINE
  5
3BE2
330
1A
100
AcDbEntity
  8
CENTER_L
100
AcDbLine
 10
193.2592813781934
 20
96.7537643691635
 30
0.0
 11
207.3721270814619
 21
102.3989026459334
 31
0.0
  0
LINE
  5
3BE3
330
1A
100
AcDbEntity
  8
SEIHIN
100
AcDbLine
 10
196.4161025931517
 20
107.709788170905
 30
0.0
 11
194.7448445592592
 21
103.810186044101
 31
0.0
  0
LINE
  5
3BE4
330
1A
100
AcDbEntity
  8
SEIHIN
100
AcDbLine
 10
194.7448445592592
 20
103.810186044101
 30
0.0
 11
197.5302746318532
 21
104.9243580733177
 31
0.0
  0
LINE
  5
3BE5
330
1A
100
AcDbEntity
  8
SEIHIN
100
AcDbLine
 10
194.7448445592592
 20
103.810186044101
 30
0.0
 11
198.6444466507015
 21
102.1389280253635
 31
0.0
  0
LINE
  5
3BE6
330
1A
100
AcDbEntity
  8
SEIHIN
100
AcDbLine
 10
189.4525269449166
 20
110.3095240553816
 30
0.0
 11
195.6733207749165
 21
112.7978415853815
 31
0.0
  0
LINE
  5
3BE7
330
1A
100
AcDbEntity
  8
SEIHIN
100
AcDbLine
 10
188.3383546549165
 20
116.3260536653816
 30
0.0
 11
190.5666989749166
 21
110.7551928653816
 31
0.0
  0
SPLINE
  5
3BE8
330
1A
100
AcDbEntity
  8
SEIHIN
 62
     3
100
AcDbSpline
210
0.0
220
0.0
230
1.0
 70
     8
 71
     3
 72
    43
 73
    39
 74
     0
 42
0.0000000001
 43
0.0000000001
 40
2.573801265649998
 40
2.573801265649998
 40
2.573801265649998
 40
2.573801265649998
 40
2.743484381278567
 40
2.743484381278567
 40
2.952958003969503
 40
2.952958003969503
 40
3.162431626660439
 40
3.162431626660439
 40
3.371905249351375
 40
3.371905249351375
 40
3.581378872042312
 40
3.581378872042312
 40
3.790852494733248
 40
3.790852494733248
 40
4.212890898554042
 40
4.212890898554042
 40
4.634929302374836
 40
4.634929302374836
 40
4.712388980384689
 40
4.712388980384689
 40
4.712388980384689
 40
5.035006403854932
 40
5.035006403854932
 40
5.40458618261824
 40
5.40458618261824
 40
5.774165961381548
 40
5.774165961381548
 40
6.00394318856648
 40
6.00394318856648
 40
6.233720415751411
 40
6.233720415751411
 40
6.426033209648384
 40
6.426033209648384
 40
6.618346003545356
 40
6.618346003545356
 40
6.810658797442329
 40
6.810658797442329
 40
6.850740483263655
 40
6.850740483263655
 40
6.850740483263655
 40
6.850740483263655
 10
201.219364567625
 20
215.0880586079814
 30
0.0
 10
201.3183154091497
 20
215.2229622309971
 30
0.0
 10
201.4300267989056
 20
215.3492406654557
 30
0.0
 10
201.7165396093825
 20
215.6066877749735
 30
0.0
 10
201.9020748103192
 20
215.7317914684643
 30
0.0
 10
202.3309288196487
 20
215.9067100895018
 30
0.0
 10
202.5750449378997
 20
215.9531415533546
 30
0.0
 10
203.0592829819878
 20
215.9315785713496
 30
0.0
 10
203.2945146939327
 20
215.8645163813415
 30
0.0
 10
203.70122539773
 20
215.6607702402067
 30
0.0
 10
203.8745212700383
 20
215.5266001696984
 30
0.0
 10
204.1712524362848
 20
215.2283014307532
 30
0.0
 10
204.2958312696469
 20
215.0634499999204
 30
0.0
 10
204.6224576193008
 20
214.533756091848
 30
0.0
 10
204.7771915901438
 20
214.1338486785625
 30
0.0
 10
204.9970331993718
 20
213.2730418508991
 30
0.0
 10
205.0599047446381
 20
212.8120326842341
 30
0.0
 10
205.0799693197341
 20
212.2597070492732
 30
0.0
 10
205.0815250913432
 20
212.1738828839292
 30
0.0
 10
205.0815250913432
 20
212.0880586379836
 30
0.0
 10
205.0815250913432
 20
211.7306030196588
 30
0.0
 10
205.05456134229
 20
211.3732480782341
 30
0.0
 10
204.9386603595811
 20
210.6325083684338
 30
0.0
 10
204.8418410414103
 20
210.2532665166572
 30
0.0
 10
204.5704652167473
 20
209.5538947106032
 30
0.0
 10
204.3978187497593
 20
209.2322766890922
 30
0.0
 10
204.0160793188068
 20
208.7771126585211
 30
0.0
 10
203.843859404589
 20
208.6176207391084
 30
0.0
 10
203.427422914387
 20
208.3625041900705
 30
0.0
 10
203.1796856024998
 20
208.2690668041845
 30
0.0
 10
202.695492757249
 20
208.217853763126
 30
0.0
 10
202.4677050109901
 20
208.2417665490141
 30
0.0
 10
202.0538781791521
 20
208.3689326600384
 30
0.0
 10
201.8683741977037
 20
208.4695883919095
 30
0.0
 10
201.5479444741878
 20
208.7080390982387
 30
0.0
 10
201.4115646938323
 20
208.8457217968387
 30
0.0
 10
201.2676226626501
 20
209.0248711657462
 30
0.0
 10
201.2435094210935
 20
209.0562382246922
 30
0.0
 10
201.2200783118195
 20
209.0880586079979
 30
0.0
  0
ELLIPSE
  5
3BE9
330
1A
100
AcDbEntity
  8
SEIHIN
 62
     3
100
AcDbEllipse
 10
197.9016648333286
 20
233.0880586279836
 30
0.0
 11
0.0
 21
-2.1000000000672
 31
0.0
210
0.0
220
0.0
230
-1.0
 40
0.4867014234079679
 41
-1.570796326794896
 42
4.712388980384689
  0
ELLIPSE
  5
3BEA
330
1A
100
AcDbEntity
  8
SEIHIN
 62
     3
100
AcDbEllipse
 10
200.8727902445446
 20
231.5630586379835
 30
0.0
 11
0.0
 21
-2.874999999613672
 31
0.0
210
0.0
220
0.0
230
-1.0
 40
0.3913043478762229
 41
-1.570796326794896
 42
4.712388980384689
  0
ELLIPSE
  5
3BEB
330
1A
100
AcDbEntity
  8
SEIHIN
 62
     3
100
AcDbEllipse
 10
206.8150410665046
 20
233.0880586279836
 30
0.0
 11
0.0
 21
-2.1000000000672
 31
0.0
210
0.0
220
0.0
230
-1.0
 40
0.4867014234079679
 41
-1.570796326794896
 42
4.712388980384689
  0
ELLIPSE
  5
3BEC
330
1A
100
AcDbEntity
  8
SEIHIN
100
AcDbEllipse
 10
195.2161021271102
 20
187.5880586179836
 30
0.0
 11
0.0
 21
-2.0
 31
0.0
210
0.0
220
0.0
230
-1.0
 40
0.371390676096766
 41
0.0
 42
1.570796326794896
  0
ELLIPSE
  5
3BED
330
1A
100
AcDbEntity
  8
SEIHIN
100
AcDbEllipse
 10
196.4161021271101
 20
187.5880586179836
 30
0.0
 11
0.0
 21
-2.0
 31
0.0
210
0.0
220
0.0
230
-1.0
 40
0.371390676096766
 41
0.0
 42
1.570796326794896
  0
ELLIPSE
  5
3BEE
330
1A
100
AcDbEntity
  8
SEIHIN
100
AcDbEllipse
 10
208.3006037727231
 20
187.5880586179835
 30
0.0
 11
0.0
 21
-2.0
 31
0.0
210
0.0
220
0.0
230
-1.0
 40
0.371390676096766
 41
4.712388980384689
 42
6.283185307179586
  0
ELLIPSE
  5
3BEF
330
1A
100
AcDbEntity
  8
SEIHIN
 62
     3
100
AcDbEllipse
 10
202.7448248849166
 20
212.0880586379836
 30
0.0
 11
0.0
 21
-2.8559114857152
 31
0.0
210
0.0
220
0.0
230
-1.0
 40
0.4680467910551545
 41
-1.570796326794896
 42
4.712388980384689
  0
ELLIPSE
  5
3BF0
330
1A
100
AcDbEntity
  8
SEIHIN
 62
     3
100
AcDbEllipse
 10
197.9016648333286
 20
191.0880586279836
 30
0.0
 11
0.0
 21
2.1000000000672
 31
0.0
210
0.0
220
0.0
230
1.0
 40
0.4867014234079679
 41
-1.570796326794896
 42
4.712388980384689
  0
ELLIPSE
  5
3BF1
330
1A
100
AcDbEntity
  8
SEIHIN
 62
     3
100
AcDbEllipse
 10
200.8727902445446
 20
192.6130586179836
 30
0.0
 11
0.0
 21
2.874999999613672
 31
0.0
210
0.0
220
0.0
230
1.0
 40
0.3913043478762229
 41
-1.570796326794896
 42
4.712388980384689
  0
ELLIPSE
  5
3BF2
330
1A
100
AcDbEntity
  8
SEIHIN
 62
     3
100
AcDbEllipse
 10
206.8150410665046
 20
191.0880586279836
 30
0.0
 11
0.0
 21
2.1000000000672
 31
0.0
210
0.0
220
0.0
230
1.0
 40
0.4867014234079679
 41
-1.570796326794896
 42
4.712388980384689
  0
ELLIPSE
  5
3BF3
330
1A
100
AcDbEntity
  8
SEIHIN
100
AcDbEllipse
 10
195.2161021271102
 20
236.5880586379836
 30
0.0
 11
0.0
 21
2.0
 31
0.0
210
0.0
220
0.0
230
1.0
 40
0.371390676096766
 41
0.0
 42
1.570796326794896
  0
ELLIPSE
  5
3BF4
330
1A
100
AcDbEntity
  8
SEIHIN
100
AcDbEllipse
 10
196.4161021271101
 20
236.5880586379836
 30
0.0
 11
0.0
 21
2.0
 31
0.0
210
0.0
220
0.0
230
1.0
 40
0.371390676096766
 41
0.0
 42
1.570796326794896
  0
ELLIPSE
  5
3BF5
330
1A
100
AcDbEntity
  8
SEIHIN
100
AcDbEllipse
 10
208.3006037727231
 20
236.5880586379837
 30
0.0
 11
0.0
 21
2.0
 31
0.0
210
0.0
220
0.0
230
1.0
 40
0.371390676096766
 41
4.712388980384689
 42
6.283185307179586
  0
LINE
  5
3BF6
330
1A
100
AcDbEntity
  8
SEIHIN
100
AcDbLine
 10
93.80365708491661
 20
219.5880586479836
 30
0.0
 11
72.40075411491665
 21
219.5880586479836
 31
0.0
  0
LINE
  5
3BF7
330
1A
100
AcDbEntity
  8
SEIHIN
100
AcDbLine
 10
93.80365708491661
 20
204.5880586079836
 30
0.0
 11
72.40075411491665
 21
204.5880586079836
 31
0.0
  0
DIMENSION
  5
3BF8
330
1A
100
AcDbEntity
  8
SUNPOU
100
AcDbDimension
  2
*D8
 10
45.49785034310048
 20
201.0880586079836
 30
0.0
 11
42.99785034310045
 21
212.0880586279836
 31
0.0
 70
    32
  3
STANDARD
100
AcDbAlignedDimension
 13
69.90075411491665
 23
223.0880586479836
 33
0.0
 14
69.90075411491665
 24
201.0880586079835
 34
0.0
 50
90.0
100
AcDbRotatedDimension
1001
ACAD
1000
DSTYLE
1002
{
1070
    41
1040
3.0
1070
    42
1040
3.0
1070
    43
1040
7.0
1070
    44
1040
1.5
1070
    73
1070
     0
1070
    74
1070
     0
1070
    77
1070
     3
1070
   140
1040
3.0
1070
   141
1040
3.0
1070
   147
1040
1.0
1070
   172
1070
     1
1070
   173
1070
     1
1070
   176
1070
   256
1070
   177
1070
   256
1070
   178
1070
   256
1070
   271
1070
     0
1070
   272
1070
     0
1070
   341
1005
B2
1070
     6
1000
OPEN
1070
     7
1000
OPEN
1002
}
  0
LINE
  5
3BF9
330
1A
100
AcDbEntity
  8
SEIHIN
100
AcDbLine
 10
72.40075411491665
 20
219.5880586479836
 30
0.0
 11
72.40075411491665
 21
204.5880586079836
 31
0.0
  0
LINE
  5
3BFA
330
1A
100
AcDbEntity
  8
SEIHIN
100
AcDbLine
 10
69.90075411491665
 20
201.0880586079835
 30
0.0
 11
69.90075411491665
 21
223.0880586479836
 31
0.0
  0
LINE
  5
3BFB
330
1A
100
AcDbEntity
  8
SEIHIN
100
AcDbLine
 10
69.90075411491665
 20
201.0880586079835
 30
0.0
 11
72.40075411491665
 21
201.0880586079835
 31
0.0
  0
LINE
  5
3BFC
330
1A
100
AcDbEntity
  8
SEIHIN
100
AcDbLine
 10
72.40075411491665
 20
201.0880586079835
 30
0.0
 11
72.40075411491665
 21
204.5880586079836
 31
0.0
  0
LINE
  5
3BFD
330
1A
100
AcDbEntity
  8
SEIHIN
100
AcDbLine
 10
72.40075411491665
 20
219.5880586479836
 30
0.0
 11
72.40075411491665
 21
223.0880586479836
 31
0.0
  0
LINE
  5
3BFE
330
1A
100
AcDbEntity
  8
SEIHIN
100
AcDbLine
 10
72.40075411491665
 20
223.0880586479836
 30
0.0
 11
72.40075411491665
 21
219.5880586479836
 31
0.0
  0
LINE
  5
3BFF
330
1A
100
AcDbEntity
  8
SEIHIN
100
AcDbLine
 10
69.90075411491665
 20
223.0880586479836
 30
0.0
 11
72.40075411491665
 21
223.0880586479836
 31
0.0
  0
ARC
  5
3C00
330
1A
100
AcDbEntity
  8
SEIHIN
 62
     3
100
AcDbCircle
 10
202.0736679865046
 20
233.0880586279836
 30
0.0
 40
5.185616519156494
100
AcDbArc
 50
336.1109838713462
 51
23.88901612865375
  0
ARC
  5
3C01
330
1A
100
AcDbEntity
  8
SEIHIN
 62
     3
100
AcDbCircle
 10
193.1602917633286
 20
233.0880586279836
 30
0.0
 40
5.185616510013183
100
AcDbArc
 50
336.1109838266
 51
23.88901617340001
  0
LINE
  5
3C02
330
1A
100
AcDbEntity
  8
SEIHIN
 62
     3
100
AcDbLine
 10
209.0433851249165
 20
221.9111105379836
 30
0.0
 11
209.0433851249165
 21
236.5880586379837
 31
0.0
  0
LINE
  5
3C03
330
1A
100
AcDbEntity
  8
SEIHIN
 62
     3
100
AcDbLine
 10
195.6733207749167
 20
221.9111102379836
 30
0.0
 11
195.6733207749167
 21
236.5880586379836
 31
0.0
  0
LINE
  5
3C04
330
1A
100
AcDbEntity
  8
SEIHIN
 62
     3
100
AcDbLine
 10
194.4733207749166
 20
236.5880586379836
 30
0.0
 11
194.4733207749166
 21
221.2893984379836
 31
0.0
  0
LINE
  5
3C05
330
1A
100
AcDbEntity
  8
SEIHIN
100
AcDbLine
 10
128.3372537349166
 20
215.0880586079836
 30
0.0
 11
201.219364567622
 21
215.0880586079836
 31
0.0
  0
LINE
  5
3C06
330
1A
100
AcDbEntity
  8
SEIHIN
100
AcDbLine
 10
128.3372537349166
 20
209.0880586079836
 30
0.0
 11
201.2200783118262
 21
209.0880586079836
 31
0.0
  0
LINE
  5
3C07
330
1A
100
AcDbEntity
  8
SEIHIN
100
AcDbLine
 10
98.96387360491662
 20
219.5880586479836
 30
0.0
 11
207.0157180749165
 21
219.5880586479836
 31
0.0
  0
LINE
  5
3C08
330
1A
100
AcDbEntity
  8
SEIHIN
100
AcDbLine
 10
98.96387360491662
 20
204.5880586079836
 30
0.0
 11
207.0157180749165
 21
204.5880586079836
 31
0.0
  0
LINE
  5
3C09
330
1A
100
AcDbEntity
  8
SEIHIN
100
AcDbLine
 10
98.46387360491661
 20
205.5880586079836
 30
0.0
 11
207.0157180749166
 21
205.5880586079836
 31
0.0
  0
LINE
  5
3C0A
330
1A
100
AcDbEntity
  8
SEIHIN
100
AcDbLine
 10
98.46387360491661
 20
218.5880586479836
 30
0.0
 11
207.0157180749166
 21
218.5880586479836
 31
0.0
  0
LINE
  5
3C0B
330
1A
100
AcDbEntity
  8
SEIHIN
100
AcDbLine
 10
117.9309706369166
 20
204.0880586079836
 30
0.0
 11
98.8961241449166
 21
204.0881046079836
 31
0.0
  0
LINE
  5
3C0C
330
1A
100
AcDbEntity
  8
SEIHIN
100
AcDbLine
 10
98.89616281491658
 20
220.0880586479836
 30
0.0
 11
117.9309706369166
 21
220.0880586479836
 31
0.0
  0
LINE
  5
3C0D
330
1A
100
AcDbEntity
  8
SEIHIN
100
AcDbLine
 10
98.75025704491662
 20
205.8159849679836
 30
0.0
 11
126.3372537349165
 21
205.8159849679836
 31
0.0
  0
LINE
  5
3C0E
330
1A
100
AcDbEntity
  8
SEIHIN
100
AcDbLine
 10
101.5397765949165
 20
207.9336145979835
 30
0.0
 11
123.5984637199166
 21
207.9336145979835
 31
0.0
  0
LINE
  5
3C0F
330
1A
100
AcDbEntity
  8
SEIHIN
100
AcDbLine
 10
98.75025704491662
 20
218.3601322479836
 30
0.0
 11
126.3372537349165
 21
218.3601322479836
 31
0.0
  0
LINE
  5
3C10
330
1A
100
AcDbEntity
  8
SEIHIN
100
AcDbLine
 10
101.5397765949165
 20
216.2425026479835
 30
0.0
 11
123.5984637199166
 21
216.2425026479835
 31
0.0
  0
LINE
  5
3C11
330
1A
100
AcDbEntity
  8
SEIHIN
100
AcDbLine
 10
117.0333931239166
 20
208.9336145979836
 30
0.0
 11
117.0333931239166
 21
215.2425026179836
 31
0.0
  0
LINE
  5
3C12
330
1A
100
AcDbEntity
  8
SEIHIN
100
AcDbLine
 10
101.5397765949165
 20
205.8159849679836
 30
0.0
 11
101.5397765949165
 21
218.3601322479836
 31
0.0
  0
ARC
  5
3C13
330
1A
100
AcDbEntity
  8
SEIHIN
100
AcDbCircle
 10
98.75025704491662
 20
212.0880586079836
 30
0.0
 40
3.000000000000011
100
AcDbArc
 50
90.00000515662017
 51
269.9999952253516
  0
LINE
  5
3C14
330
1A
100
AcDbEntity
  8
SEIHIN
100
AcDbLine
 10
98.75025704491662
 20
217.3601322479836
 30
0.0
 11
98.75025704491662
 21
206.8159849679836
 31
0.0
  0
LINE
  5
3C15
330
1A
100
AcDbEntity
  8
SEIHIN
100
AcDbLine
 10
98.75025704491662
 20
210.1634472679835
 30
0.0
 11
101.5397765949165
 21
210.1634472679835
 31
0.0
  0
LINE
  5
3C16
330
1A
100
AcDbEntity
  8
SEIHIN
100
AcDbLine
 10
101.5397765949165
 20
206.8159849679836
 30
0.0
 11
98.75025704491662
 21
206.8159849679836
 31
0.0
  0
ARC
  5
3C17
330
1A
100
AcDbEntity
  8
SEIHIN
100
AcDbCircle
 10
98.46387360491661
 20
204.5880586079836
 30
0.0
 40
1.0
100
AcDbArc
 50
90.0
 51
180.0
  0
LINE
  5
3C18
330
1A
100
AcDbEntity
  8
SEIHIN
100
AcDbLine
 10
92.93097063491661
 20
204.0880586079836
 30
0.0
 11
96.89587795491661
 21
204.0880586079836
 31
0.0
  0
LINE
  5
3C19
330
1A
100
AcDbEntity
  8
SEIHIN
100
AcDbLine
 10
96.89611957491662
 20
204.5880586079836
 30
0.0
 11
92.93097063491661
 21
204.5880586079836
 31
0.0
  0
LINE
  5
3C1A
330
1A
100
AcDbEntity
  8
SEIHIN
100
AcDbLine
 10
92.93097063491661
 20
204.0880586079836
 30
0.0
 11
92.93097063491661
 21
204.5880586079836
 31
0.0
  0
ARC
  5
3C1B
330
1A
100
AcDbEntity
  8
SEIHIN
100
AcDbCircle
 10
98.96387360491662
 20
204.0880586079836
 30
0.0
 40
0.5
100
AcDbArc
 50
90.0
 51
180.0
  0
LINE
  5
3C1C
330
1A
100
AcDbEntity
  8
SEIHIN
100
AcDbLine
 10
98.46387360491661
 20
204.0880586079836
 30
0.0
 11
98.46387360491661
 21
201.0880586079835
 31
0.0
  0
LINE
  5
3C1D
330
1A
100
AcDbEntity
  8
SEIHIN
100
AcDbLine
 10
97.46387360491661
 20
201.0880586079835
 30
0.0
 11
97.46387360491661
 21
204.5880586079836
 31
0.0
  0
LINE
  5
3C1E
330
1A
100
AcDbEntity
  8
SEIHIN
100
AcDbLine
 10
98.46387360491661
 20
201.0880586079835
 30
0.0
 11
97.46387360491661
 21
201.0880586079835
 31
0.0
  0
LINE
  5
3C1F
330
1A
100
AcDbEntity
  8
SEIHIN
100
AcDbLine
 10
98.8961241449166
 20
204.0881046079836
 30
0.0
 11
98.89612535491659
 21
204.5880586079836
 31
0.0
  0
LINE
  5
3C20
330
1A
100
AcDbEntity
  8
SEIHIN
100
AcDbLine
 10
96.89611839491659
 20
204.0880586079836
 30
0.0
 11
96.89611957491662
 21
204.5880586079836
 31
0.0
  0
LINE
  5
3C21
330
1A
100
AcDbEntity
  8
SEIHIN
100
AcDbLine
 10
98.75025704491662
 20
206.8159849679836
 30
0.0
 11
98.75025704491662
 21
205.8159849679836
 31
0.0
  0
ARC
  5
3C22
330
1A
100
AcDbEntity
  8
SEIHIN
100
AcDbCircle
 10
107.9312117649166
 20
208.6063881079835
 30
0.0
 40
5.715337531631893
100
AcDbArc
 50
232.2375418744901
 51
307.7621812247561
  0
LINE
  5
3C23
330
1A
100
AcDbEntity
  8
SEIHIN
100
AcDbLine
 10
101.5397765949165
 20
205.8159849679836
 30
0.0
 11
101.5397765949165
 21
207.0159849679836
 31
0.0
  0
LINE
  5
3C24
330
1A
100
AcDbEntity
  8
SEIHIN
100
AcDbLine
 10
101.5397765949165
 20
217.3601322479836
 30
0.0
 11
98.75025704491662
 21
217.3601322479836
 31
0.0
  0
LINE
  5
3C25
330
1A
100
AcDbEntity
  8
SEIHIN
100
AcDbLine
 10
98.75025704491662
 20
214.0126699479836
 30
0.0
 11
101.5397765949165
 21
214.0126699479836
 31
0.0
  0
LINE
  5
3C26
330
1A
100
AcDbEntity
  8
SEIHIN
100
AcDbLine
 10
98.46387360491661
 20
220.0880586479836
 30
0.0
 11
98.46387360491661
 21
223.0880586479836
 31
0.0
  0
LINE
  5
3C27
330
1A
100
AcDbEntity
  8
SEIHIN
100
AcDbLine
 10
97.46387360491661
 20
223.0880586479836
 30
0.0
 11
97.46387360491661
 21
219.5880586479836
 31
0.0
  0
LINE
  5
3C28
330
1A
100
AcDbEntity
  8
SEIHIN
100
AcDbLine
 10
92.93097063491661
 20
220.0880586479836
 30
0.0
 11
96.89587795491661
 21
220.0880586479836
 31
0.0
  0
LINE
  5
3C29
330
1A
100
AcDbEntity
  8
SEIHIN
100
AcDbLine
 10
96.89615494491659
 20
219.5880586479836
 30
0.0
 11
92.93097063491661
 21
219.5880586479836
 31
0.0
  0
LINE
  5
3C2A
330
1A
100
AcDbEntity
  8
SEIHIN
100
AcDbLine
 10
92.93097063491661
 20
219.5880586479836
 30
0.0
 11
92.93097063491661
 21
220.0880586479836
 31
0.0
  0
LINE
  5
3C2B
330
1A
100
AcDbEntity
  8
SEIHIN
100
AcDbLine
 10
98.89616160491664
 20
219.5880586479836
 30
0.0
 11
98.89616281491658
 21
220.0880586479836
 31
0.0
  0
LINE
  5
3C2C
330
1A
100
AcDbEntity
  8
SEIHIN
100
AcDbLine
 10
96.89615494491659
 20
219.5880586479836
 30
0.0
 11
96.89615612491662
 21
220.0880586479836
 31
0.0
  0
LINE
  5
3C2D
330
1A
100
AcDbEntity
  8
SEIHIN
100
AcDbLine
 10
98.75025704491662
 20
217.3601322479836
 30
0.0
 11
98.75025704491662
 21
218.3601322479836
 31
0.0
  0
ARC
  5
3C2E
330
1A
100
AcDbEntity
  8
SEIHIN
100
AcDbCircle
 10
98.96387360491662
 20
220.0880586479836
 30
0.0
 40
0.5
100
AcDbArc
 50
180.0
 51
270.0
  0
ARC
  5
3C2F
330
1A
100
AcDbEntity
  8
SEIHIN
100
AcDbCircle
 10
98.46387360491661
 20
219.5880586479836
 30
0.0
 40
1.0
100
AcDbArc
 50
180.0
 51
270.0
  0
LINE
  5
3C30
330
1A
100
AcDbEntity
  8
SEIHIN
100
AcDbLine
 10
98.46387360491661
 20
223.0880586479836
 30
0.0
 11
97.46387360491661
 21
223.0880586479836
 31
0.0
  0
LINE
  5
3C31
330
1A
100
AcDbEntity
  8
SEIHIN
100
AcDbLine
 10
111.4312008449166
 20
221.1524970479836
 30
0.0
 11
104.4312008449165
 21
221.1524970479836
 31
0.0
  0
LINE
  5
3C32
330
1A
100
AcDbEntity
  8
SEIHIN
100
AcDbLine
 10
104.4312008449165
 20
220.0880586479836
 30
0.0
 11
111.4312008449166
 21
220.0880586479836
 31
0.0
  0
LINE
  5
3C33
330
1A
100
AcDbEntity
  8
SEIHIN
100
AcDbLine
 10
101.5397765949165
 20
218.3601322479836
 30
0.0
 11
101.5397765949165
 21
217.1601322479836
 31
0.0
  0
LINE
  5
3C34
330
1A
100
AcDbEntity
  8
SEIHIN
100
AcDbLine
 10
104.4312008449165
 20
221.1524970479836
 30
0.0
 11
104.4312008449165
 21
220.0880586479836
 31
0.0
  0
LINE
  5
3C35
330
1A
100
AcDbEntity
  8
SEIHIN
100
AcDbLine
 10
111.4312008449166
 20
220.0880586479836
 30
0.0
 11
111.4312008449166
 21
221.1524970479836
 31
0.0
  0
LINE
  5
3C36
330
1A
100
AcDbEntity
  8
SEIHIN
100
AcDbLine
 10
125.5984637199165
 20
214.2425026179836
 30
0.0
 11
125.5984637199165
 21
209.9336145979835
 31
0.0
  0
LINE
  5
3C37
330
1A
100
AcDbEntity
  8
SEIHIN
100
AcDbLine
 10
128.3372537349166
 20
207.8159849679836
 30
0.0
 11
128.3372537349166
 21
216.3601322479836
 31
0.0
  0
LINE
  5
3C38
330
1A
100
AcDbEntity
  8
SEIHIN
100
AcDbLine
 10
127.1896880279166
 20
207.8159849679836
 30
0.0
 11
127.1896880279166
 21
216.3601322479836
 31
0.0
  0
LINE
  5
3C39
330
1A
100
AcDbEntity
  8
SEIHIN
100
AcDbLine
 10
121.8753133594166
 20
208.9336145979836
 30
0.0
 11
121.8753133594166
 21
215.2425026179836
 31
0.0
  0
ARC
  5
3C3A
330
1A
100
AcDbEntity
  8
SEIHIN
100
AcDbCircle
 10
123.5984637199166
 20
209.9336145979835
 30
0.0
 40
2.0
100
AcDbArc
 50
270.0
 51
0.0
  0
ARC
  5
3C3B
330
1A
100
AcDbEntity
  8
SEIHIN
100
AcDbCircle
 10
125.1896880279166
 20
207.8159849679836
 30
0.0
 40
2.0
100
AcDbArc
 50
270.0
 51
0.0
  0
LINE
  5
3C3C
330
1A
100
AcDbEntity
  8
SEIHIN
100
AcDbLine
 10
122.4559994407248
 20
205.5880586079836
 30
0.0
 11
122.4559994407247
 21
204.5880586079836
 31
0.0
  0
LINE
  5
3C3D
330
1A
100
AcDbEntity
  8
SEIHIN
100
AcDbLine
 10
117.9309706369166
 20
204.0880586079836
 30
0.0
 11
117.9309706369166
 21
204.5880586079836
 31
0.0
  0
ARC
  5
3C3E
330
1A
100
AcDbEntity
  8
SEIHIN
100
AcDbCircle
 10
126.3372537349165
 20
207.8159849679836
 30
0.0
 40
2.0
100
AcDbArc
 50
270.0
 51
0.0
  0
ARC
  5
3C3F
330
1A
100
AcDbEntity
  8
SEIHIN
100
AcDbCircle
 10
126.3372537349165
 20
207.8159849679836
 30
0.0
 40
2.0
100
AcDbArc
 50
270.0
 51
0.0
  0
ARC
  5
3C40
330
1A
100
AcDbEntity
  8
SEIHIN
100
AcDbCircle
 10
125.1896880279166
 20
216.3601322479836
 30
0.0
 40
2.0
100
AcDbArc
 50
0.0
 51
90.0
  0
ARC
  5
3C41
330
1A
100
AcDbEntity
  8
SEIHIN
100
AcDbCircle
 10
123.5984637199166
 20
214.2425026179836
 30
0.0
 40
2.000000014999997
100
AcDbArc
 50
0.0
 51
90.0
  0
LINE
  5
3C42
330
1A
100
AcDbEntity
  8
SEIHIN
100
AcDbLine
 10
117.9309706369166
 20
219.5880586479836
 30
0.0
 11
117.9309706369166
 21
220.0880586479836
 31
0.0
  0
LINE
  5
3C43
330
1A
100
AcDbEntity
  8
SEIHIN
100
AcDbLine
 10
122.4559994407247
 20
219.5880586479836
 30
0.0
 11
122.4559994407248
 21
218.5880586479836
 31
0.0
  0
ARC
  5
3C44
330
1A
100
AcDbEntity
  8
SEIHIN
100
AcDbCircle
 10
126.3372537349165
 20
216.3601322479836
 30
0.0
 40
2.0
100
AcDbArc
 50
0.0
 51
90.0
  0
ARC
  5
3C45
330
1A
100
AcDbEntity
  8
SEIHIN
100
AcDbCircle
 10
126.3372537349165
 20
216.3601322479836
 30
0.0
 40
2.0
100
AcDbArc
 50
0.0
 51
90.0
  0
LINE
  5
3C46
330
1A
100
AcDbEntity
  8
SEIHIN
 62
     3
100
AcDbLine
 10
194.4733207749166
 20
187.5880586179836
 30
0.0
 11
194.4733207749166
 21
202.7531111479836
 31
0.0
  0
LINE
  5
3C47
330
1A
100
AcDbEntity
  8
SEIHIN
 62
     3
100
AcDbLine
 10
195.6733207749167
 20
202.2650070279836
 30
0.0
 11
195.6733207749167
 21
187.5880586179836
 31
0.0
  0
LINE
  5
3C48
330
1A
100
AcDbEntity
  8
SEIHIN
 62
     3
100
AcDbLine
 10
209.0433851249165
 20
202.2650066479836
 30
0.0
 11
209.0433851249165
 21
187.5880586179835
 31
0.0
  0
LINE
  5
3C49
330
1A
100
AcDbEntity
  8
SEIHIN
 62
     3
100
AcDbLine
 10
208.3006037727231
 20
185.5880586179836
 30
0.0
 11
195.2161021271102
 21
185.5880586179836
 31
0.0
  0
ARC
  5
3C4A
330
1A
100
AcDbEntity
  8
SEIHIN
100
AcDbCircle
 10
179.9031129328635
 20
212.0880586079836
 30
0.0
 40
3.25
100
AcDbArc
 50
112.6198649480423
 51
247.3801350519576
  0
LINE
  5
3C4B
330
1A
100
AcDbEntity
  8
SEIHIN
100
AcDbLine
 10
174.2313432762696
 20
205.5880586079836
 30
0.0
 11
174.2313432762696
 21
204.5880586079836
 31
0.0
  0
LINE
  5
3C4C
330
1A
100
AcDbEntity
  8
SEIHIN
100
AcDbLine
 10
178.6531129328635
 20
209.0880586079836
 30
0.0
 11
178.6531129328635
 21
205.5880586079836
 31
0.0
  0
LINE
  5
3C4D
330
1A
100
AcDbEntity
  8
SEIHIN
100
AcDbLine
 10
174.2313432762696
 20
219.5880586479836
 30
0.0
 11
174.2313432762696
 21
218.5880586479836
 31
0.0
  0
LINE
  5
3C4E
330
1A
100
AcDbEntity
  8
SEIHIN
100
AcDbLine
 10
178.6531129328635
 20
218.5880586479836
 30
0.0
 11
178.6531129328635
 21
215.0880586079836
 31
0.0
  0
ARC
  5
3C4F
330
1A
100
AcDbEntity
  8
SEIHIN
100
AcDbCircle
 10
188.0816046594479
 20
212.0880586079836
 30
0.0
 40
3.25
100
AcDbArc
 50
292.6198649480423
 51
67.38013505195765
  0
LINE
  5
3C50
330
1A
100
AcDbEntity
  8
SEIHIN
 62
     3
100
AcDbLine
 10
207.0157180749165
 20
219.5880586379836
 30
0.0
 11
207.0157180749165
 21
204.5880586179836
 31
0.0
  0
LINE
  5
3C51
330
1A
100
AcDbEntity
  8
SEIHIN
 62
     3
100
AcDbLine
 10
198.5908318149166
 20
201.5880586179836
 30
0.0
 11
199.9802335249167
 21
201.5880586179836
 31
0.0
  0
LINE
  5
3C52
330
1A
100
AcDbEntity
  8
CENTER_L
100
AcDbLine
 10
193.8793641129741
 20
191.0880586379836
 30
0.0
 11
201.9239655536969
 21
191.0880586379836
 31
0.0
  0
LINE
  5
3C53
330
1A
100
AcDbEntity
  8
CENTER_L
100
AcDbLine
 10
196.7473257577817
 20
192.6130586179836
 30
0.0
 11
204.9977902445376
 21
192.6130586179836
 31
0.0
  0
LINE
  5
3C54
330
1A
100
AcDbEntity
  8
SEIHIN
 62
     3
100
AcDbLine
 10
199.9802335249167
 20
201.5880586179836
 30
0.0
 11
198.5908318149166
 21
203.6592534279836
 31
0.0
  0
ARC
  5
3C55
330
1A
100
AcDbEntity
  8
SEIHIN
 62
     3
100
AcDbCircle
 10
193.1602917633286
 20
191.0880586279836
 30
0.0
 40
5.185616510013183
100
AcDbArc
 50
336.1109838266
 51
23.88901617340001
  0
LINE
  5
3C56
330
1A
100
AcDbEntity
  8
SEIHIN
100
AcDbLine
 10
189.331604659448
 20
209.0880586379836
 30
0.0
 11
189.331604659448
 21
205.5880586179836
 31
0.0
  0
LINE
  5
3C57
330
1A
100
AcDbEntity
  8
SEIHIN
100
AcDbLine
 10
192.1693987558013
 20
205.5880586179836
 30
0.0
 11
192.1693987558013
 21
204.5880586179836
 31
0.0
  0
ARC
  5
3C58
330
1A
100
AcDbEntity
  8
SEIHIN
 62
     3
100
AcDbCircle
 10
193.9733207749166
 20
202.2650070279836
 30
0.0
 40
1.700000000443591
100
AcDbArc
 50
0.0
 51
81.00000002413244
  0
ARC
  5
3C59
330
1A
100
AcDbEntity
  8
SEIHIN
 62
     3
100
AcDbCircle
 10
193.9733207749166
 20
202.7531111479836
 30
0.0
 40
0.4999999992379602
100
AcDbArc
 50
0.0
 51
86.20816538453839
  0
LINE
  5
3C5A
330
1A
100
AcDbEntity
  8
SEIHIN
 62
     3
100
AcDbLine
 10
194.2392593649166
 20
203.9440772079836
 30
0.0
 11
193.5952779549166
 21
204.5880586179836
 31
0.0
  0
ARC
  5
3C5B
330
1A
100
AcDbEntity
  8
SEIHIN
 62
     3
100
AcDbCircle
 10
194.1188105349166
 20
204.9482951379836
 30
0.0
 40
1.700000004646646
100
AcDbArc
 50
194.548545520478
 51
266.2081647342351
  0
LINE
  5
3C5C
330
1A
100
AcDbEntity
  8
SEIHIN
 62
     3
100
AcDbLine
 10
196.8733207749166
 20
203.0896443979835
 30
0.0
 11
198.2498678649166
 21
203.0896443979835
 31
0.0
  0
LINE
  5
3C5D
330
1A
100
AcDbEntity
  8
SEIHIN
 62
     3
100
AcDbLine
 10
198.5908318149166
 20
201.5880586179836
 30
0.0
 11
198.5908318149166
 21
204.5880586179836
 31
0.0
  0
LINE
  5
3C5E
330
1A
100
AcDbEntity
  8
CENTER_L
100
AcDbLine
 10
203.848885084489
 20
191.0880586379836
 30
0.0
 11
211.8934865252118
 21
191.0880586379836
 31
0.0
  0
ARC
  5
3C5F
330
1A
100
AcDbEntity
  8
SEIHIN
 62
     3
100
AcDbCircle
 10
193.5933131745445
 20
192.6130586179836
 30
0.0
 40
7.826647520660156
100
AcDbArc
 50
338.4486589066005
 51
21.55134109339949
  0
ARC
  5
3C60
330
1A
100
AcDbEntity
  8
SEIHIN
 62
     3
100
AcDbCircle
 10
202.0736679865046
 20
191.0880586279836
 30
0.0
 40
5.185616519156494
100
AcDbArc
 50
336.1109838713462
 51
23.88901612865375
  0
LINE
  5
3C61
330
1A
100
AcDbEntity
  8
SEIHIN
 62
     3
100
AcDbLine
 10
207.6093237149166
 20
203.9440772079836
 30
0.0
 11
206.9653423049166
 21
204.5880586179836
 31
0.0
  0
LINE
  5
3C62
330
1A
100
AcDbEntity
  8
SEIHIN
 62
     3
100
AcDbLine
 10
206.7442033749167
 20
203.0880586179836
 30
0.0
 11
208.3489964049165
 21
203.0880586179836
 31
0.0
  0
LINE
  5
3C63
330
1A
100
AcDbEntity
  8
SEIHIN
 62
     3
100
AcDbLine
 10
207.0157180749165
 20
204.5880586179836
 30
0.0
 11
207.0157180749165
 21
205.5880586179836
 31
0.0
  0
LINE
  5
3C64
330
1A
100
AcDbEntity
  8
SEIHIN
 62
     3
100
AcDbLine
 10
200.4080378049166
 20
203.0896443979835
 30
0.0
 11
204.5583645949166
 21
203.0896443979835
 31
0.0
  0
LINE
  5
3C65
330
1A
100
AcDbEntity
  8
SEIHIN
 62
     3
100
AcDbLine
 10
199.9802335249167
 20
204.5880586179836
 30
0.0
 11
199.9802335249167
 21
201.5880586179836
 31
0.0
  0
LINE
  5
3C66
330
1A
100
AcDbEntity
  8
SEIHIN
 62
     3
100
AcDbLine
 10
204.9733959249167
 20
201.5880586179836
 30
0.0
 11
206.3627976349167
 21
201.5880586179836
 31
0.0
  0
LINE
  5
3C67
330
1A
100
AcDbEntity
  8
SEIHIN
 62
     3
100
AcDbLine
 10
206.3627976349167
 20
201.5880586179836
 30
0.0
 11
204.9733959249167
 21
203.6592534279836
 31
0.0
  0
LINE
  5
3C68
330
1A
100
AcDbEntity
  8
SEIHIN
 62
     3
100
AcDbLine
 10
204.9733959249167
 20
201.5880586179836
 30
0.0
 11
204.9733959249167
 21
204.5880586179836
 31
0.0
  0
LINE
  5
3C69
330
1A
100
AcDbEntity
  8
SEIHIN
 62
     3
100
AcDbLine
 10
206.3627976349167
 20
204.5880586179836
 30
0.0
 11
206.3627976349167
 21
201.5880586179836
 31
0.0
  0
ARC
  5
3C6A
330
1A
100
AcDbEntity
  8
SEIHIN
 62
     3
100
AcDbCircle
 10
207.3433851249166
 20
202.2650070279836
 30
0.0
 40
1.700000000443612
100
AcDbArc
 50
359.9999871927081
 51
81.00000002413244
  0
LINE
  5
3C6B
330
1A
100
AcDbEntity
  8
CENTER_L
100
AcDbLine
 10
196.7473257577817
 20
231.5630586379835
 30
0.0
 11
204.9977902445376
 21
231.5630586379835
 31
0.0
  0
LINE
  5
3C6C
330
1A
100
AcDbEntity
  8
CENTER_L
100
AcDbLine
 10
193.8793641129741
 20
233.0880586179836
 30
0.0
 11
201.9239655536969
 21
233.0880586179836
 31
0.0
  0
LINE
  5
3C6D
330
1A
100
AcDbEntity
  8
SEIHIN
 62
     3
100
AcDbLine
 10
199.9802335249167
 20
222.5880586379836
 30
0.0
 11
198.5908318149166
 21
220.5168638379836
 31
0.0
  0
LINE
  5
3C6E
330
1A
100
AcDbEntity
  8
SEIHIN
 62
     3
100
AcDbLine
 10
198.5908318149166
 20
222.5880586379836
 30
0.0
 11
199.9802335249167
 21
222.5880586379836
 31
0.0
  0
LINE
  5
3C6F
330
1A
100
AcDbEntity
  8
SEIHIN
100
AcDbLine
 10
189.331604659448
 20
215.0880586379836
 30
0.0
 11
189.331604659448
 21
218.5880586379836
 31
0.0
  0
ARC
  5
3C70
330
1A
100
AcDbEntity
  8
SEIHIN
 62
     3
100
AcDbCircle
 10
193.9733207749166
 20
221.9111102379836
 30
0.0
 40
1.700000010320475
100
AcDbArc
 50
278.9999998704205
 51
0.0
  0
ARC
  5
3C71
330
1A
100
AcDbEntity
  8
SEIHIN
 62
     3
100
AcDbCircle
 10
193.9733207749166
 20
221.2893984379836
 30
0.0
 40
0.5000000241832313
100
AcDbArc
 50
273.7918342365531
 51
0.0
  0
LINE
  5
3C72
330
1A
100
AcDbEntity
  8
SEIHIN
 62
     3
100
AcDbLine
 10
194.2392593649166
 20
220.2320400379836
 30
0.0
 11
193.5952779549166
 21
219.5880586379836
 31
0.0
  0
LINE
  5
3C73
330
1A
100
AcDbEntity
  8
SEIHIN
100
AcDbLine
 10
192.1693987558013
 20
218.5880586379836
 30
0.0
 11
192.1693987558013
 21
219.5880586379836
 31
0.0
  0
ARC
  5
3C74
330
1A
100
AcDbEntity
  8
SEIHIN
 62
     3
100
AcDbCircle
 10
194.1188105349166
 20
219.0942144379836
 30
0.0
 40
1.699999989349252
100
AcDbArc
 50
93.79183535491854
 51
163.1123117581124
  0
LINE
  5
3C75
330
1A
100
AcDbEntity
  8
SEIHIN
 62
     3
100
AcDbLine
 10
196.8733207749166
 20
221.0864728379836
 30
0.0
 11
198.2498678649166
 21
221.0864728379836
 31
0.0
  0
LINE
  5
3C76
330
1A
100
AcDbEntity
  8
SEIHIN
 62
     3
100
AcDbLine
 10
198.5908318149166
 20
222.5880586379836
 30
0.0
 11
198.5908318149166
 21
219.5880586379836
 31
0.0
  0
LINE
  5
3C77
330
1A
100
AcDbEntity
  8
SEIHIN
 62
     3
100
AcDbLine
 10
206.7442033749167
 20
221.0880586379836
 30
0.0
 11
208.3489964049165
 21
221.0880586379836
 31
0.0
  0
LINE
  5
3C78
330
1A
100
AcDbEntity
  8
SEIHIN
 62
     3
100
AcDbLine
 10
207.6093237149166
 20
220.2320400379836
 30
0.0
 11
206.9653423049166
 21
219.5880586379836
 31
0.0
  0
LINE
  5
3C79
330
1A
100
AcDbEntity
  8
SEIHIN
 62
     3
100
AcDbLine
 10
200.4080378049166
 20
221.0864728379836
 30
0.0
 11
204.5583645949166
 21
221.0864728379836
 31
0.0
  0
LINE
  5
3C7A
330
1A
100
AcDbEntity
  8
SEIHIN
 62
     3
100
AcDbLine
 10
199.9802335249167
 20
219.5880586379836
 30
0.0
 11
199.9802335249167
 21
222.5880586379836
 31
0.0
  0
LINE
  5
3C7B
330
1A
100
AcDbEntity
  8
SEIHIN
 62
     3
100
AcDbLine
 10
206.3627976349167
 20
222.5880586379836
 30
0.0
 11
204.9733959249167
 21
220.5168638379836
 31
0.0
  0
LINE
  5
3C7C
330
1A
100
AcDbEntity
  8
SEIHIN
 62
     3
100
AcDbLine
 10
204.9733959249167
 20
222.5880586379836
 30
0.0
 11
206.3627976349167
 21
222.5880586379836
 31
0.0
  0
LINE
  5
3C7D
330
1A
100
AcDbEntity
  8
SEIHIN
 62
     3
100
AcDbLine
 10
207.0157180749165
 20
219.5880586379836
 30
0.0
 11
207.0157180749165
 21
218.5880586379836
 31
0.0
  0
LINE
  5
3C7E
330
1A
100
AcDbEntity
  8
SEIHIN
 62
     3
100
AcDbLine
 10
206.3627976349167
 20
219.5880586379836
 30
0.0
 11
206.3627976349167
 21
222.5880586379836
 31
0.0
  0
LINE
  5
3C7F
330
1A
100
AcDbEntity
  8
SEIHIN
 62
     3
100
AcDbLine
 10
204.9733959249167
 20
222.5880586379836
 30
0.0
 11
204.9733959249167
 21
219.5880586379836
 31
0.0
  0
ARC
  5
3C80
330
1A
100
AcDbEntity
  8
SEIHIN
 62
     3
100
AcDbCircle
 10
207.3433851249166
 20
221.9111102379836
 30
0.0
 40
1.700000010320488
100
AcDbArc
 50
278.9999998704205
 51
0.0000101110185475
  0
LINE
  5
3C81
330
1A
100
AcDbEntity
  8
CENTER_L
100
AcDbLine
 10
203.848885084489
 20
233.0880586179836
 30
0.0
 11
211.8934865252118
 21
233.0880586179836
 31
0.0
  0
ARC
  5
3C82
330
1A
100
AcDbEntity
  8
SEIHIN
 62
     3
100
AcDbCircle
 10
193.5933131745445
 20
231.5630586379835
 30
0.0
 40
7.826647520660156
100
AcDbArc
 50
338.4486589066005
 51
21.55134109339949
  0
LINE
  5
3C83
330
1A
100
AcDbEntity
  8
SEIHIN
 62
     3
100
AcDbLine
 10
208.3006037727231
 20
238.5880586379836
 30
0.0
 11
195.2161021271102
 21
238.5880586379836
 31
0.0
  0
LINE
  5
3C84
330
1A
100
AcDbEntity
  8
CENTER_L
100
AcDbLine
 10
346.6272980100057
 20
133.760026227043
 30
0.0
 11
342.0963316779373
 21
145.0874417627228
 31
0.0
  0
CIRCLE
  5
3C85
330
1A
100
AcDbEntity
  8
SEIHIN
100
AcDbCircle
 10
320.2214208468279
 20
143.2304882110975
 30
0.0
 40
2.999999969510066
  0
LINE
  5
3C86
330
1A
100
AcDbEntity
  8
SEIHIN
100
AcDbLine
 10
309.2922154578042
 20
148.0135861467899
 30
0.0
 11
315.6058570973262
 21
132.2294824583413
 31
0.0
  0
LINE
  5
3C87
330
1A
100
AcDbEntity
  8
SEIHIN
100
AcDbLine
 10
310.1010248703983
 20
148.3371099202385
 30
0.0
 11
316.4146665099203
 21
132.55300623179
 31
0.0
  0
LINE
  5
3C88
330
1A
100
AcDbEntity
  8
SEIHIN
100
AcDbLine
 10
324.8369845963296
 20
154.2314939638536
 30
0.0
 11
331.1506262358514
 21
138.447390275405
 31
0.0
  0
LINE
  5
3C89
330
1A
100
AcDbEntity
  8
SEIHIN
100
AcDbLine
 10
324.0281751837354
 20
153.9079701904049
 30
0.0
 11
330.3418168232572
 21
138.1238665019564
 31
0.0
  0
ARC
  5
3C8A
330
1A
100
AcDbEntity
  8
SEIHIN
100
AcDbCircle
 10
320.2214208468279
 20
143.2304882110975
 30
0.0
 40
5.024896822470276
100
AcDbArc
 50
148.4586907698118
 51
75.14412923018949
  0
LINE
  5
3C8B
330
1A
100
AcDbEntity
  8
CENTER_L
100
AcDbLine
 10
307.3620186601422
 20
142.3948590638516
 30
0.0
 11
293.8991067414153
 21
137.0096941563569
 31
0.0
  0
CIRCLE
  5
3C8C
330
1A
100
AcDbEntity
  8
SEIHIN
100
AcDbCircle
 10
300.6305627007787
 20
139.7022766101043
 30
0.0
 40
3.249999972626075
  0
LINE
  5
3C8D
330
1A
100
AcDbEntity
  8
CENTER_L
100
AcDbLine
 10
303.3231451545261
 20
132.9708206507409
 30
0.0
 11
297.9379802470314
 21
146.4337325694678
 31
0.0
  0
LINE
  5
3C8E
330
1A
100
AcDbEntity
  8
CENTER_L
100
AcDbLine
 10
298.3465100157182
 20
141.373534659472
 30
0.0
 11
293.8155436836499
 21
152.7009501951519
 31
0.0
  0
LINE
  5
3C8F
330
1A
100
AcDbEntity
  8
SEIHIN
100
AcDbLine
 10
319.0466001749565
 20
128.6657545834831
 30
0.0
 11
301.5590390986713
 21
172.3846561375891
 31
0.0
  0
LINE
  5
3C90
330
1A
100
AcDbEntity
  8
SEIHIN
100
AcDbLine
 10
318.1181234874007
 20
128.2943638988054
 30
0.0
 11
300.6305624111155
 21
172.0132654529113
 31
0.0
  0
LINE
  5
3C91
330
1A
100
AcDbEntity
  8
SEIHIN
100
AcDbLine
 10
331.1167971131819
 20
133.4938334842941
 30
0.0
 11
313.6292360368966
 21
177.2127350384
 31
0.0
  0
LINE
  5
3C92
330
1A
100
AcDbEntity
  8
SEIHIN
100
AcDbLine
 10
332.0452738007376
 20
133.8652241689718
 30
0.0
 11
314.5577127244524
 21
177.5841257230777
 31
0.0
  0
DIMENSION
  5
3C93
330
1A
100
AcDbEntity
  8
SUNPOU
100
AcDbDimension
  2
*D9
 10
274.1690241870581
 20
138.2724411343927
 30
0.0
 11
275.4688915230838
 21
141.7542287368656
 31
0.0
 70
    32
  3
STANDARD
100
AcDbAlignedDimension
 13
290.7887096775111
 23
150.8439968124966
 33
0.0
 14
290.4173190818442
 24
144.7717592612777
 34
0.0
 50
111.8014100000028
100
AcDbRotatedDimension
1001
ACAD
1000
DSTYLE
1002
{
1070
    41
1040
3.0
1070
    42
1040
3.0
1070
    43
1040
7.0
1070
    44
1040
1.5
1070
    73
1070
     0
1070
    74
1070
     0
1070
    77
1070
     3
1070
   140
1040
3.0
1070
   141
1040
3.0
1070
   147
1040
1.0
1070
   172
1070
     1
1070
   173
1070
     1
1070
   176
1070
   256
1070
   177
1070
   256
1070
   178
1070
   256
1070
   271
1070
     0
1070
   272
1070
     0
1070
   341
1005
B2
1070
     6
1000
OPEN
1070
     7
1000
OPEN
1002
}
  0
LINE
  5
3C94
330
1A
100
AcDbEntity
  8
SEIHIN
100
AcDbLine
 10
338.8838021122122
 20
167.9279683559508
 30
0.0
 11
350.7683040219006
 21
138.2167143541653
 31
0.0
  0
DIMENSION
  5
3C95
330
1A
100
AcDbEntity
  8
SUNPOU
100
AcDbDimension
  2
*D10
 10
276.3292133637737
 20
106.2870113862258
 30
0.0
 11
271.9653727584627
 21
123.9280684739243
 31
0.0
 70
    32
  3
STANDARD
100
AcDbAlignedDimension
 13
290.7887096775111
 23
150.8439968124966
 33
0.0
 14
304.1587743259104
 24
117.418836060488
 34
0.0
 50
111.8014100000028
100
AcDbRotatedDimension
1001
ACAD
1000
DSTYLE
1002
{
1070
    41
1040
3.0
1070
    42
1040
3.0
1070
    43
1040
7.0
1070
    44
1040
1.5
1070
    73
1070
     0
1070
    74
1070
     0
1070
    77
1070
     3
1070
   140
1040
3.0
1070
   141
1040
3.0
1070
   147
1040
1.0
1070
   172
1070
     1
1070
   173
1070
     1
1070
   176
1070
   256
1070
   177
1070
   256
1070
   178
1070
   256
1070
   271
1070
     0
1070
   272
1070
     0
1070
   341
1005
B2
1070
     6
1000
OPEN
1070
     7
1000
OPEN
1002
}
  0
LINE
  5
3C96
330
1A
100
AcDbEntity
  8
CENTER_L
100
AcDbLine
 10
304.9944027750396
 20
181.2980324008851
 30
0.0
 11
329.5061879637717
 21
120.0185710222025
 31
0.0
  0
LINE
  5
3C97
330
1A
100
AcDbEntity
  8
SEIHIN
100
AcDbLine
 10
289.674537671755
 20
148.2442620680295
 30
0.0
 11
301.5590395814434
 21
118.533008066244
 31
0.0
  0
LINE
  5
3C98
330
1A
100
AcDbEntity
  8
CENTER_L
100
AcDbLine
 10
350.0255226118115
 20
141.6892171609171
 30
0.0
 11
338.6981070761317
 21
137.1582508288488
 31
0.0
  0
LINE
  5
3C99
330
1A
100
AcDbEntity
  8
SEIHIN
100
AcDbLine
 10
349.6541320161446
 20
135.6169796096982
 30
0.0
 11
304.1587743259104
 21
117.418836060488
 31
0.0
  0
TEXT
  5
3C9A
330
1A
100
AcDbEntity
  8
SUNPOU
100
AcDbText
 10
217.2273228635896
 20
45.71975011727888
 30
0.0
 40
3.0
  1
4
100
AcDbText
  0
DIMENSION
  5
3C9B
330
1A
100
AcDbEntity
  8
SUNPOU
100
AcDbDimension
  2
*D11
 10
285.49644006973
 20
109.9539021639409
 30
0.0
 11
286.7963074057555
 21
113.4356897664138
 31
0.0
 70
    32
  3
STANDARD
100
AcDbAlignedDimension
 13
299.7020861987881
 23
121.5598420723829
 33
0.0
 14
304.1587743259104
 24
117.418836060488
 34
0.0
 50
111.8014100000028
100
AcDbRotatedDimension
1001
ACAD
1000
DSTYLE
1002
{
1070
    41
1040
3.0
1070
    42
1040
3.0
1070
    43
1040
7.0
1070
    44
1040
1.5
1070
    73
1070
     0
1070
    74
1070
     0
1070
    77
1070
     3
1070
   140
1040
3.0
1070
   141
1040
3.0
1070
   147
1040
1.0
1070
   172
1070
     1
1070
   173
1070
     1
1070
   176
1070
   256
1070
   177
1070
   256
1070
   178
1070
   256
1070
   271
1070
     0
1070
   272
1070
     0
1070
   341
1005
B2
1070
     6
1000
OPEN
1070
     7
1000
OPEN
1002
}
  0
LINE
  5
3C9C
330
1A
100
AcDbEntity
  8
SEIHIN
  6
DASHED
 62
     2
100
AcDbLine
 10
230.6733207749167
 20
112.7978415853815
 30
0.0
 11
244.0433850949166
 21
79.37268071538165
 31
0.0
  0
LINE
  5
3C9D
330
1A
100
AcDbEntity
  8
SEIHIN
  6
DASHED
 62
     2
100
AcDbLine
 10
229.5591487449167
 20
112.3521727753816
 30
0.0
 11
242.9292130949166
 21
78.92701190538161
 31
0.0
  0
LINE
  5
3C9E
330
1A
100
AcDbEntity
  8
SEIHIN
  6
DASHED
 62
     2
100
AcDbLine
 10
237.8225912949166
 20
76.88436318538163
 30
0.0
 11
224.4525269449166
 21
110.3095240553816
 31
0.0
  0
LINE
  5
3C9F
330
1A
100
AcDbEntity
  8
SUNPOU
100
AcDbLine
 10
216.4711986519987
 20
50.80314689767648
 30
0.0
 11
216.4711986519987
 21
60.80314689767648
 31
0.0
  0
LINE
  5
3CA0
330
1A
100
AcDbEntity
  8
SUNPOU
100
AcDbLine
 10
220.4711986519987
 20
50.80314689767648
 30
0.0
 11
216.4711986519987
 21
50.80314689767648
 31
0.0
  0
LINE
  5
3CA1
330
1A
100
AcDbEntity
  8
CENTER_L
100
AcDbLine
 10
248.3143779034219
 20
87.54327559325565
 30
0.0
 11
234.2015322001535
 21
81.89813731648554
 31
0.0
  0
LINE
  5
3CA2
330
1A
100
AcDbEntity
  8
SEIHIN
  6
DASHED
 62
     2
100
AcDbLine
 10
244.0433850949166
 20
79.37268071538165
 30
0.0
 11
237.8225912949166
 21
76.88436318538163
 31
0.0
  0
LINE
  5
3CA3
330
1A
100
AcDbEntity
  8
SEIHIN
  6
DASHED
 62
     2
100
AcDbLine
 10
226.3618839465961
 20
122.2301424616488
 30
0.0
 11
230.2090824249167
 21
112.6121462453816
 31
0.0
  0
LINE
  5
3CA4
330
1A
100
AcDbEntity
  8
CENTER_L
100
AcDbLine
 10
225.2881559669775
 20
104.1815778960922
 30
0.0
 11
239.401001670246
 21
109.8267161728623
 31
0.0
  0
LINE
  5
3CA5
330
1A
100
AcDbEntity
  8
CENTER_L
100
AcDbLine
 10
228.2592813781934
 20
96.7537643691635
 30
0.0
 11
242.372127081462
 21
102.3989026459334
 31
0.0
  0
LINE
  5
3CA6
330
1A
100
AcDbEntity
  8
SEIHIN
  6
DASHED
 62
     2
100
AcDbLine
 10
223.3383546549167
 20
116.3260536653816
 30
0.0
 11
225.5666989749167
 21
110.7551928653816
 31
0.0
  0
LINE
  5
3CA7
330
1A
100
AcDbEntity
  8
SEIHIN
  6
DASHED
 62
     2
100
AcDbLine
 10
224.4525269449167
 20
110.3095240553816
 30
0.0
 11
230.6733207749167
 21
112.7978415853815
 31
0.0
  0
LINE
  5
3CA8
330
1A
100
AcDbEntity
  8
SEIHIN
100
AcDbLine
 10
313.1852035203019
 20
131.2612210023587
 30
0.0
 11
316.4146665099203
 21
132.55300623179
 31
0.0
  0
LINE
  5
3CA9
330
1A
100
AcDbEntity
  8
SEIHIN
100
AcDbLine
 10
313.1852035203019
 20
131.2612210023587
 30
0.0
 11
314.2993755743352
 21
128.4757909396913
 31
0.0
  0
LINE
  5
3CAA
330
1A
100
AcDbEntity
  8
CENTER_L
100
AcDbLine
 10
307.6312771326623
 20
118.1616174705771
 30
0.0
 11
303.1003108005939
 21
129.4890330062569
 31
0.0
  0
ARC
  5
3CAB
330
1A
100
AcDbEntity
  8
SEIHIN
100
AcDbCircle
 10
303.4159929565549
 20
119.2757894355996
 30
0.0
 40
2.0
100
AcDbArc
 50
201.8014099999988
 51
291.8014099999993
  0
LINE
  5
3CAC
330
1A
100
AcDbEntity
  8
CENTER_L
100
AcDbLine
 10
311.029501734468
 20
126.0908084044511
 30
0.0
 11
299.7020861987881
 21
121.5598420723829
 31
0.0
  0
CIRCLE
  5
3CAD
330
1A
100
AcDbEntity
  8
SEIHIN
100
AcDbCircle
 10
305.3657939666281
 20
123.825325238417
 30
0.0
 40
2.099999986565482
  0
LINE
  5
3CAE
330
1A
100
AcDbEntity
  8
SEIHIN
100
AcDbLine
 10
330.3418168232572
 20
138.1238665019564
 30
0.0
 11
331.4559888772905
 21
135.338436439289
 31
0.0
  0
LINE
  5
3CAF
330
1A
100
AcDbEntity
  8
SEIHIN
100
AcDbLine
 10
333.5712798128757
 20
139.4156517313877
 30
0.0
 11
330.3418168232572
 21
138.1238665019564
 31
0.0
  0
ARC
  5
3CB0
330
1A
100
AcDbEntity
  8
SEIHIN
100
AcDbCircle
 10
329.2598437380703
 20
132.7510521149385
 30
0.0
 40
2.0
100
AcDbArc
 50
291.8014099999993
 51
21.80140999999843
  0
LINE
  5
3CB1
330
1A
100
AcDbEntity
  8
SEIHIN
100
AcDbLine
 10
316.4146665099203
 20
132.55300623179
 30
0.0
 11
317.5288385639535
 21
129.7675761691226
 31
0.0
  0
LINE
  5
3CB2
330
1A
100
AcDbEntity
  8
SEIHIN
100
AcDbLine
 10
330.0026251074257
 20
130.8940987398269
 30
0.0
 11
321.6463349194236
 21
127.5515825777271
 31
0.0
  0
LINE
  5
3CB3
330
1A
100
AcDbEntity
  8
SEIHIN
100
AcDbLine
 10
317.5288385639535
 20
129.7675761691226
 30
0.0
 11
319.9428780143589
 21
123.7324777000099
 31
0.0
  0
LINE
  5
3CB4
330
1A
100
AcDbEntity
  8
SEIHIN
100
AcDbLine
 10
316.7200291513593
 20
129.4440523956739
 30
0.0
 11
319.1340686017649
 21
123.4089539265613
 31
0.0
  0
LINE
  5
3CB5
330
1A
100
AcDbEntity
  8
SEIHIN
100
AcDbLine
 10
314.2993755743352
 20
128.4757909396913
 30
0.0
 11
318.4573152515093
 21
130.1389668538004
 31
0.0
  0
ARC
  5
3CB6
330
1A
100
AcDbEntity
  8
SEIHIN
100
AcDbCircle
 10
320.9035535500681
 20
129.4085359528386
 30
0.0
 40
2.0
100
AcDbArc
 50
201.8014099999988
 51
291.8014099999993
  0
LINE
  5
3CB7
330
1A
100
AcDbEntity
  8
SEIHIN
100
AcDbLine
 10
331.4559888772905
 20
135.338436439289
 30
0.0
 11
333.870028327696
 21
129.3033379701763
 31
0.0
  0
LINE
  5
3CB8
330
1A
100
AcDbEntity
  8
SEIHIN
100
AcDbLine
 10
332.2647982898847
 20
135.6619602127376
 30
0.0
 11
334.6788377402902
 21
129.626861743625
 31
0.0
  0
LINE
  5
3CB9
330
1A
100
AcDbEntity
  8
SEIHIN
100
AcDbLine
 10
334.6854518669088
 20
136.6302216687203
 30
0.0
 11
330.5275121897347
 21
134.9670457546112
 31
0.0
  0
LINE
  5
3CBA
330
1A
100
AcDbEntity
  8
SEIHIN
100
AcDbLine
 10
333.5712798128757
 20
139.4156517313877
 30
0.0
 11
334.6854518669088
 21
136.6302216687203
 31
0.0
  0
CIRCLE
  5
3CBB
330
1A
100
AcDbEntity
  8
SEIHIN
100
AcDbCircle
 10
344.3618148439715
 20
139.4237339948829
 30
0.0
 40
2.099999986565493
  0
ARC
  5
3CBC
330
1A
100
AcDbEntity
  8
SEIHIN
100
AcDbCircle
 10
348.9113506467891
 20
137.4739329848098
 30
0.0
 40
2.0
100
AcDbArc
 50
291.8014099999993
 51
21.80140999999843
  0
LWPOLYLINE
  5
3CBD
330
1A
100
AcDbEntity
  8
SUNPOU
100
AcDbPolyline
 90
        3
 70
     0
 43
0.0
 10
339.6295242763223
 20
159.7393219332015
 10
350.7400595399097
 20
193.3474536198091
 10
366.589509380414
 20
193.3474536198091
1001
ACAD
1000
DSTYLE
1002
{
1070
    41
1040
3.0
1070
    42
1040
3.0
1070
    43
1040
7.0
1070
    44
1040
1.5
1070
    73
1070
     0
1070
    74
1070
     0
1070
    77
1070
     0
1070
   140
1040
3.0
1070
   141
1040
3.0
1070
   147
1040
1.0
1070
   172
1070
     1
1070
   173
1070
     1
1070
   176
1070
   256
1070
   177
1070
   256
1070
   178
1070
   256
1070
   271
1070
     0
1070
   272
1070
     0
1070
   341
1005
B2
1070
   343
1005
B2
1070
   344
1005
B2
1002
}
  0
DIMENSION
  5
3CBE
330
1A
100
AcDbEntity
  8
SUNPOU
100
AcDbDimension
  2
*D12
 10
358.2657590051169
 20
162.756355731202
 30
0.0
 11
357.9872159312618
 21
170.1841692557871
 31
0.0
 70
    32
  3
STANDARD
100
AcDbAlignedDimension
 13
336.2840673677451
 23
169.0421403617069
 33
0.0
 14
343.3404903283454
 24
156.7862481052813
 34
0.0
 50
111.8014100000028
100
AcDbRotatedDimension
1001
ACAD
1000
DSTYLE
1002
{
1070
    41
1040
3.0
1070
    42
1040
3.0
1070
    43
1040
7.0
1070
    44
1040
1.5
1070
    73
1070
     0
1070
    74
1070
     0
1070
    77
1070
     3
1070
   140
1040
3.0
1070
   141
1040
3.0
1070
   147
1040
1.0
1070
   172
1070
     1
1070
   173
1070
     1
1070
   176
1070
   256
1070
   177
1070
   256
1070
   178
1070
   256
1070
   271
1070
     0
1070
   272
1070
     0
1070
   341
1005
B2
1070
     6
1000
OPEN
1070
     7
1000
OPEN
1002
}
  0
DIMENSION
  5
3CBF
330
1A
100
AcDbEntity
  8
SUNPOU
100
AcDbDimension
  2
*D13
 10
317.0520505163008
 20
207.69814303906
 30
0.0
 11
296.6255633659345
 21
202.220130379717
 31
0.0
 70
    32
  3
STANDARD
100
AcDbAlignedDimension
 13
293.8155436836499
 23
152.7009501951519
 33
0.0
 14
332.8115645609934
 24
168.2993589516178
 34
0.0
 50
21.80140999999843
100
AcDbRotatedDimension
1001
ACAD
1000
DSTYLE
1002
{
1070
    41
1040
3.0
1070
    42
1040
3.0
1070
    43
1040
7.0
1070
    44
1040
1.5
1070
    73
1070
     0
1070
    74
1070
     0
1070
    77
1070
     3
1070
   140
1040
3.0
1070
   141
1040
3.0
1070
   147
1040
1.0
1070
   172
1070
     1
1070
   173
1070
     1
1070
   176
1070
   256
1070
   177
1070
   256
1070
   178
1070
   256
1070
   271
1070
     0
1070
   272
1070
     0
1070
   341
1005
B2
1070
     6
1000
OPEN
1070
     7
1000
OPEN
1002
}
  0
LWPOLYLINE
  5
3CC0
330
1A
100
AcDbEntity
  8
SUNPOU
100
AcDbPolyline
 90
        3
 70
     0
 43
0.0
 10
291.8611682383131
 20
149.5573818532188
 10
270.4459921635517
 20
168.006720548544
 10
252.864205526643
 20
168.006720548544
1001
ACAD
1000
DSTYLE
1002
{
1070
    41
1040
3.0
1070
    42
1040
3.0
1070
    43
1040
7.0
1070
    44
1040
1.5
1070
    73
1070
     0
1070
    74
1070
     0
1070
    77
1070
     0
1070
   140
1040
3.0
1070
   141
1040
3.0
1070
   147
1040
1.0
1070
   172
1070
     1
1070
   173
1070
     1
1070
   176
1070
   256
1070
   177
1070
   256
1070
   178
1070
   256
1070
   271
1070
     0
1070
   272
1070
     0
1070
   341
1005
B2
1070
   343
1005
B2
1070
   344
1005
B2
1002
}
  0
DIMENSION
  5
3CC1
330
1A
100
AcDbEntity
  8
SUNPOU
100
AcDbDimension
  2
*D14
 10
319.2097178921981
 20
217.1131776272694
 30
0.0
 11
293.6766089602749
 21
209.5925162021989
 31
0.0
 70
    32
  3
STANDARD
100
AcDbAlignedDimension
 13
289.674537671755
 23
148.2442620680295
 33
0.0
 14
338.8838021122122
 24
167.9279683559508
 34
0.0
 50
21.80140999999843
100
AcDbRotatedDimension
1001
ACAD
1000
DSTYLE
1002
{
1070
    41
1040
3.0
1070
    42
1040
3.0
1070
    43
1040
7.0
1070
    44
1040
1.5
1070
    73
1070
     0
1070
    74
1070
     0
1070
    77
1070
     3
1070
   140
1040
3.0
1070
   141
1040
3.0
1070
   147
1040
1.0
1070
   172
1070
     1
1070
   173
1070
     1
1070
   176
1070
   256
1070
   177
1070
   256
1070
   178
1070
   256
1070
   271
1070
     0
1070
   272
1070
     0
1070
   341
1005
B2
1070
     6
1000
OPEN
1070
     7
1000
OPEN
1002
}
  0
TEXT
  5
3CC2
330
1A
100
AcDbEntity
  8
SUNPOU
100
AcDbText
 10
253.8459921635519
 20
168.715771355158
 30
0.0
 40
3.0
  1
4-φ4.2
100
AcDbText
  0
DIMENSION
  5
3CC3
330
1A
100
AcDbEntity
  8
SUNPOU
100
AcDbDimension
  2
*D15
 10
318.7870142246018
 20
199.3218603662405
 30
0.0
 11
299.7532421055692
 21
194.4009337339141
 31
0.0
 70
    32
  3
STANDARD
100
AcDbAlignedDimension
 13
298.0195724696244
 23
146.2297520182883
 33
0.0
 14
334.2301632843005
 24
160.7139887207209
 34
0.0
 50
21.80140999999843
100
AcDbRotatedDimension
1001
ACAD
1000
DSTYLE
1002
{
1070
    41
1040
3.0
1070
    42
1040
3.0
1070
    43
1040
7.0
1070
    44
1040
1.5
1070
    73
1070
     0
1070
    74
1070
     0
1070
    77
1070
     3
1070
   140
1040
3.0
1070
   141
1040
3.0
1070
   147
1040
1.0
1070
   172
1070
     1
1070
   173
1070
     1
1070
   176
1070
   256
1070
   177
1070
   256
1070
   178
1070
   256
1070
   271
1070
     0
1070
   272
1070
     0
1070
   341
1005
B2
1070
     6
1000
OPEN
1070
     7
1000
OPEN
1002
}
  0
LINE
  5
3CC4
330
1A
100
AcDbEntity
  8
SEIHIN
100
AcDbLine
 10
313.6292360368966
 20
177.2127350384
 30
0.0
 11
314.5577127244524
 21
177.5841257230777
 31
0.0
  0
LINE
  5
3CC5
330
1A
100
AcDbEntity
  8
SEIHIN
100
AcDbLine
 10
312.2418023073683
 20
171.2572810707717
 30
0.0
 11
315.4914707138137
 21
172.5571484671439
 31
0.0
  0
LINE
  5
3CC6
330
1A
100
AcDbEntity
  8
SEIHIN
100
AcDbLine
 10
306.6709420631885
 20
169.0289372598177
 30
0.0
 11
315.9388860470855
 21
145.8590779024468
 31
0.0
  0
LINE
  5
3CC7
330
1A
100
AcDbEntity
  8
SEIHIN
100
AcDbLine
 10
312.2418021736676
 20
171.2572814050233
 30
0.0
 11
321.5097461724202
 21
148.0874220105134
 31
0.0
  0
LINE
  5
3CC8
330
1A
100
AcDbEntity
  8
SEIHIN
100
AcDbLine
 10
306.5728133659597
 20
157.1576384520186
 30
0.0
 11
290.7887096775111
 21
150.8439968124966
 31
0.0
  0
LINE
  5
3CC9
330
1A
100
AcDbEntity
  8
CENTER_L
100
AcDbLine
 10
301.7447346175241
 20
149.3027255933461
 30
0.0
 11
290.4173190818442
 21
144.7717592612777
 31
0.0
  0
CIRCLE
  5
3CCA
330
1A
100
AcDbEntity
  8
SEIHIN
100
AcDbCircle
 10
296.0810268496842
 20
147.0372424273119
 30
0.0
 40
2.099999971727392
  0
ARC
  5
3CCB
330
1A
100
AcDbEntity
  8
SEIHIN
100
AcDbCircle
 10
291.5314910468666
 20
148.9870434373851
 30
0.0
 40
2.0
100
AcDbArc
 50
111.8014099999993
 51
201.8014099999988
  0
INSERT
  5
3CCC
330
1A
100
AcDbEntity
  8
SUNPOU
100
AcDbBlockReference
  2
_OPEN
 10
294.1340289034743
 20
147.5992949305407
 30
0.0
 41
2.999999999999992
 42
3.0
 43
3.0
 50
319.2548486777223
1001
ACAD
1000
DSTYLE
1002
{
1070
    41
1040
3.0
1070
    42
1040
3.0
1070
    43
1040
7.0
1070
    44
1040
1.5
1070
    73
1070
     0
1070
    74
1070
     0
1070
    77
1070
     0
1070
   140
1040
3.0
1070
   141
1040
3.0
1070
   147
1040
1.0
1070
   172
1070
     1
1070
   173
1070
     1
1070
   176
1070
   256
1070
   177
1070
   256
1070
   178
1070
   256
1070
   271
1070
     0
1070
   272
1070
     0
1070
   341
1005
B2
1070
   343
1005
B2
1070
   344
1005
B2
1002
}
  0
LINE
  5
3CCD
330
1A
100
AcDbEntity
  8
SEIHIN
100
AcDbLine
 10
305.7640039533656
 20
156.8341146785699
 30
0.0
 11
308.178043403771
 21
150.7990162094572
 31
0.0
  0
LINE
  5
3CCE
330
1A
100
AcDbEntity
  8
SEIHIN
100
AcDbLine
 10
306.5728133659597
 20
157.1576384520186
 30
0.0
 11
308.9868528163651
 21
151.1225399829059
 31
0.0
  0
LINE
  5
3CCF
330
1A
100
AcDbEntity
  8
SEIHIN
100
AcDbLine
 10
305.7573898267467
 20
149.8307547534746
 30
0.0
 11
306.8715618807801
 21
147.0453246908072
 31
0.0
  0
LINE
  5
3CD0
330
1A
100
AcDbEntity
  8
SEIHIN
100
AcDbLine
 10
308.9868528163651
 20
151.1225399829059
 30
0.0
 11
305.7573898267467
 21
149.8307547534746
 31
0.0
  0
LINE
  5
3CD1
330
1A
100
AcDbEntity
  8
SEIHIN
100
AcDbLine
 10
310.1010248703983
 20
148.3371099202385
 30
0.0
 11
306.8715618807801
 21
147.0453246908072
 31
0.0
  0
LINE
  5
3CD2
330
1A
100
AcDbEntity
  8
SEIHIN
100
AcDbLine
 10
308.9868528163651
 20
151.1225399829059
 30
0.0
 11
310.1010248703983
 21
148.3371099202385
 31
0.0
  0
LINE
  5
3CD3
330
1A
100
AcDbEntity
  8
SEIHIN
100
AcDbLine
 10
303.4212737755883
 20
167.729069566333
 30
0.0
 11
306.6709421820335
 21
169.0289369627052
 31
0.0
  0
ARC
  5
3CD4
330
1A
100
AcDbEntity
  8
SEIHIN
100
AcDbCircle
 10
309.4563722447009
 20
170.1431090167384
 30
0.0
 40
3.000000000000019
100
AcDbArc
 50
21.80141687549203
 51
201.8014038884508
  0
LINE
  5
3CD5
330
1A
100
AcDbEntity
  8
SEIHIN
100
AcDbLine
 10
300.6305624111155
 20
172.0132654529113
 30
0.0
 11
301.5590390986713
 21
172.3846561375891
 31
0.0
  0
LINE
  5
3CD6
330
1A
100
AcDbEntity
  8
CENTER_L
100
AcDbLine
 10
337.3425308930616
 20
156.9719434159379
 30
0.0
 11
332.8115645609934
 21
168.2993589516178
 31
0.0
  0
LINE
  5
3CD7
330
1A
100
AcDbEntity
  8
SEIHIN
100
AcDbLine
 10
320.4999636792966
 20
162.728498722185
 30
0.0
 11
336.2840673677451
 21
169.0421403617069
 31
0.0
  0
LINE
  5
3CD8
330
1A
100
AcDbEntity
  8
CENTER_L
100
AcDbLine
 10
340.7407554948675
 20
164.901134349812
 30
0.0
 11
329.4133399591876
 21
160.3701680177437
 31
0.0
  0
LINE
  5
3CD9
330
1A
100
AcDbEntity
  8
CENTER_L
100
AcDbLine
 10
343.5726094748183
 20
156.8790957662843
 30
0.0
 11
330.1096975560913
 21
151.4939308587896
 31
0.0
  0
LINE
  5
3CDA
330
1A
100
AcDbEntity
  8
SEIHIN
100
AcDbLine
 10
321.3087730918908
 20
163.0520224956337
 30
0.0
 11
323.7228125422962
 21
157.016924026521
 31
0.0
  0
LINE
  5
3CDB
330
1A
100
AcDbEntity
  8
SEIHIN
100
AcDbLine
 10
320.4999636792966
 20
162.728498722185
 30
0.0
 11
322.914003129702
 21
156.6934002530723
 31
0.0
  0
LINE
  5
3CDC
330
1A
100
AcDbEntity
  8
SEIHIN
100
AcDbLine
 10
326.1434661193205
 20
157.9851854825036
 30
0.0
 11
327.2576381733537
 21
155.1997554198362
 31
0.0
  0
LINE
  5
3CDD
330
1A
100
AcDbEntity
  8
SEIHIN
100
AcDbLine
 10
324.0281751837354
 20
153.9079701904049
 30
0.0
 11
327.2576381733537
 21
155.1997554198362
 31
0.0
  0
LINE
  5
3CDE
330
1A
100
AcDbEntity
  8
SEIHIN
100
AcDbLine
 10
322.914003129702
 20
156.6934002530723
 30
0.0
 11
324.0281751837354
 21
153.9079701904049
 31
0.0
  0
LINE
  5
3CDF
330
1A
100
AcDbEntity
  8
SEIHIN
100
AcDbLine
 10
322.914003129702
 20
156.6934002530723
 30
0.0
 11
326.1434661193205
 21
157.9851854825036
 31
0.0
  0
CIRCLE
  5
3CE0
330
1A
100
AcDbEntity
  8
SEIHIN
100
AcDbCircle
 10
336.8411535154549
 20
154.1865133125369
 30
0.0
 40
3.249999972626095
  0
LINE
  5
3CE1
330
1A
100
AcDbEntity
  8
CENTER_L
100
AcDbLine
 10
339.5337359692021
 20
147.4550573531735
 30
0.0
 11
334.1485710617075
 21
160.9179692719004
 31
0.0
  0
CIRCLE
  5
3CE2
330
1A
100
AcDbEntity
  8
SEIHIN
100
AcDbCircle
 10
335.0770477270275
 20
162.6356511837778
 30
0.0
 40
2.099999971727392
  0
INSERT
  5
3CE3
330
1A
100
AcDbEntity
  8
SUNPOU
100
AcDbBlockReference
  2
_OPEN
 10
338.6878747802341
 20
156.8909370879748
 30
0.0
 41
2.999999999999981
 42
3.0
 43
3.0
 50
251.7065953267104
1001
ACAD
1000
DSTYLE
1002
{
1070
    41
1040
3.0
1070
    42
1040
3.0
1070
    43
1040
7.0
1070
    44
1040
1.5
1070
    73
1070
     0
1070
    74
1070
     0
1070
    77
1070
     0
1070
   140
1040
3.0
1070
   141
1040
3.0
1070
   147
1040
1.0
1070
   172
1070
     1
1070
   173
1070
     1
1070
   176
1070
   256
1070
   177
1070
   256
1070
   178
1070
   256
1070
   271
1070
     0
1070
   272
1070
     0
1070
   341
1005
B2
1070
   343
1005
B2
1070
   344
1005
B2
1002
}
  0
ARC
  5
3CE4
330
1A
100
AcDbEntity
  8
SEIHIN
100
AcDbCircle
 10
337.0268487371006
 20
167.1851869865953
 30
0.0
 40
2.0
100
AcDbArc
 50
21.80140999999843
 51
111.8014099999993
  0
TEXT
  5
3CE5
330
1A
100
AcDbEntity
  8
SUNPOU
100
AcDbText
 10
351.0796647537357
 20
194.6518005324296
 30
0.0
 40
3.0
  1
2-φ6.5
100
AcDbText
  0
VIEWPORT
  5
22
330
17
100
AcDbEntity
 67
     1
  8
0
100
AcDbViewport
 10
313.6808219178082
 20
148.5
 30
0.0
 40
627.3616438356165
 41
297.0
 68
     2
 69
     1
1001
ACAD
1000
MVIEW
1002
{
1070
    16
1010
0.0
1020
0.0
1030
0.0
1010
0.0
1020
0.0
1030
1.0
1040
0.0
1040
297.0
1040
313.6808219178082
1040
148.5
1040
50.0
1040
0.0
1040
0.0
1070
     0
1070
   100
1070
     1
1070
     0
1070
     0
1070
     0
1070
     0
1070
     0
1040
0.0
1040
0.0
1040
0.0
1040
1.0
1040
1.0
1040
10.0
1040
10.0
1070
     0
1002
{
1002
}
1002
}
  0
VIEWPORT
  5
64
330
17
100
AcDbEntity
 67
     1
  8
VIEWPORT
100
AcDbViewport
 10
210.0
 20
148.5
 30
0.0
 40
420.0
 41
297.0
 68
     1
 69
     2
1001
ACAD
1000
MVIEW
1002
{
1070
    16
1010
0.0
1020
0.0
1030
0.0
1010
0.0
1020
0.0
1030
1.0
1040
0.0
1040
302.9399999999998
1040
210.0
1040
148.5
1040
50.0
1040
0.0
1040
0.0
1070
     0
1070
   100
1070
     1
1070
     0
1070
     0
1070
     0
1070
     0
1070
     0
1040
0.0
1040
0.0
1040
0.0
1040
5.0
1040
5.0
1040
0.0
1040
0.0
1070
     0
1002
{
1002
}
1002
}
  0
ENDSEC
  0
SECTION
  2
OBJECTS
  0
DICTIONARY
  5
C
330
0
100
AcDbDictionary
  3
ACAD_GROUP
350
D
  3
ACAD_LAYOUT
350
141
  3
ACAD_MLINESTYLE
350
E
  3
ACAD_PLOTSETTINGS
350
142
  3
ACAD_PLOTSTYLENAME
350
13F
  3
ACADDIM
350
1A14
  3
ACDBVARIABLEDICTIONARY
350
120D
  3
ACDBHEADERROUNDTRIPXREC
350
3E30
  0
DICTIONARY
  5
7A2
330
1A
100
AcDbDictionary
280
     1
  3
ACAD_LAYOUTSELFREF
360
3E52
  0
DICTIONARY
  5
7A0
330
17
100
AcDbDictionary
280
     1
  3
ACAD_LAYOUTSELFREF
360
3E51
  0
DICTIONARY
  5
D
102
{ACAD_REACTORS
330
C
102
}
330
C
100
AcDbDictionary
  0
DICTIONARY
  5
141
102
{ACAD_REACTORS
330
C
102
}
330
C
100
AcDbDictionary
  0
DICTIONARY
  5
E
102
{ACAD_REACTORS
330
C
102
}
330
C
100
AcDbDictionary
  3
STANDARD
350
13
  0
DICTIONARY
  5
142
102
{ACAD_REACTORS
330
C
102
}
330
C
100
AcDbDictionary
  0
ACDBDICTIONARYWDFLT
  5
13F
102
{ACAD_REACTORS
330
C
102
}
330
C
100
AcDbDictionary
281
     1
  3
Normal
350
140
100
AcDbDictionaryWithDefault
340
140
1001
ACAD
1000
TREAT_AS_HARD
1070
     0
1000
TREAT_AS_HARD
1070
     0
1000
TREAT_AS_HARD
1070
     0
1000
TREAT_AS_HARD
1070
     0
1000
TREAT_AS_HARD
1070
     0
1000
TREAT_AS_HARD
1070
     0
1000
TREAT_AS_HARD
1070
     0
1000
TREAT_AS_HARD
1070
     0
1000
TREAT_AS_HARD
1070
     0
1000
TREAT_AS_HARD
1070
     0
1000
TREAT_AS_HARD
1070
     0
  0
XRECORD
  5
1A14
102
{ACAD_REACTORS
330
C
102
}
330
C
100
AcDbXrecord
 90
   990106
  3

 60
     0
 61
     0
 62
     1
 63
     3
 64
     0
 65
     0
 66
     0
 67
     3
 68
     1
 69
     0
 70
     0
 71
     0
 72
     0
 40
0.0
170
     0
340
0
  0
DICTIONARY
  5
120D
102
{ACAD_REACTORS
330
C
102
}
330
C
100
AcDbDictionary
  3
SORTENTS
350
120E
  0
DICTIONARY
  5
3E30
102
{ACAD_REACTORS
330
C
102
}
330
C
100
AcDbDictionary
  3
TSTACKALIGN
350
3E31
  3
TSTACKSIZE
350
3E32
  3
HYPERLINKBASE
350
3E33
  3
STYLESHEET
350
3E34
  3
LAYOUTDICT
350
3E35
  3
PLOTSETDICT
350
3E36
  3
PLOTSTYLNAMDICT
350
3E37
  3
LWETCUNION
350
3E38
  3
INSUNITS
350
3E39
  3
CEPSNTYPE
350
3E3A
  3
FINGERPRINTGUID
350
3E3B
  3
VERSIONGUID
350
3E3C
  3
PSVPSCALE
350
3E3D
  3
DIMSTYLEDATA
350
3E3E
  3
PUCSORTHOREF
350
3E3F
  3
PUCSORTHOVIEW
350
3E40
  3
PUCSBASE
350
3E41
  3
PUCSORGTOP
350
3E42
  3
PUCSORGBOTTOM
350
3E43
  3
PUCSORGLEFT
350
3E44
  3
PUCSORGRIGHT
350
3E45
  3
PUCSORGFRONT
350
3E46
  3
PUCSORGBACK
350
3E47
  3
UCSORTHOREF
350
3E48
  3
UCSORTHOVIEW
350
3E49
  3
UCSBASE
350
3E4A
  3
UCSORGTOP
350
3E4B
  3
UCSORGBOTTOM
350
3E4C
  3
UCSORGLEFT
350
3E4D
  3
UCSORGRIGHT
350
3E4E
  3
UCSORGFRONT
350
3E4F
  3
UCSORGBACK
350
3E50
  0
XRECORD
  5
3E52
102
{ACAD_REACTORS
330
7A2
102
}
330
7A2
100
AcDbXrecord
340
1A
  0
XRECORD
  5
3E51
102
{ACAD_REACTORS
330
7A0
102
}
330
7A0
100
AcDbXrecord
340
17
  0
MLINESTYLE
  5
13
102
{ACAD_REACTORS
330
E
102
}
330
E
100
AcDbMlineStyle
  2
STANDARD
 70
     0
  3

 62
     0
 51
90.0
 52
90.0
 71
     2
 49
0.5
 62
   256
  6
BYLAYER
 49
-0.5
 62
   256
  6
BYLAYER
  0
ACDBPLACEHOLDER
  5
140
102
{ACAD_REACTORS
330
13F
102
}
330
13F
100
AcDbPlaceHolder
280
     0
  0
DICTIONARYVAR
  5
120E
102
{ACAD_REACTORS
330
120D
102
}
330
120D
100
DictionaryVariables
280
     0
  1
96
  0
XRECORD
  5
3E31
102
{ACAD_REACTORS
330
3E30
102
}
330
3E30
100
AcDbXrecord
 90
        1
  0
XRECORD
  5
3E32
102
{ACAD_REACTORS
330
3E30
102
}
330
3E30
100
AcDbXrecord
 90
       70
  0
XRECORD
  5
3E33
102
{ACAD_REACTORS
330
3E30
102
}
330
3E30
100
AcDbXrecord
  1

  0
XRECORD
  5
3E34
102
{ACAD_REACTORS
330
3E30
102
}
330
3E30
100
AcDbXrecord
  1
systemprinter.ctb
  0
XRECORD
  5
3E35
102
{ACAD_REACTORS
330
3E30
102
}
330
3E30
100
AcDbXrecord
340
141
  0
XRECORD
  5
3E36
102
{ACAD_REACTORS
330
3E30
102
}
330
3E30
100
AcDbXrecord
340
142
  0
XRECORD
  5
3E37
102
{ACAD_REACTORS
330
3E30
102
}
330
3E30
100
AcDbXrecord
340
13F
  0
XRECORD
  5
3E38
102
{ACAD_REACTORS
330
3E30
102
}
330
3E30
100
AcDbXrecord
 90
    10781
  0
XRECORD
  5
3E39
102
{ACAD_REACTORS
330
3E30
102
}
330
3E30
100
AcDbXrecord
 90
        0
  0
XRECORD
  5
3E3A
102
{ACAD_REACTORS
330
3E30
102
}
330
3E30
100
AcDbXrecord
 90
        0
  0
XRECORD
  5
3E3B
102
{ACAD_REACTORS
330
3E30
102
}
330
3E30
100
AcDbXrecord
  1
{4E8D0500-CDD1-11D3-932C-444553540000}
  0
XRECORD
  5
3E3C
102
{ACAD_REACTORS
330
3E30
102
}
330
3E30
100
AcDbXrecord
  1
{E4027DFE-7362-4F01-9A38-62165A18FE43}
  0
XRECORD
  5
3E3D
102
{ACAD_REACTORS
330
3E30
102
}
330
3E30
100
AcDbXrecord
 40
0.0
  0
XRECORD
  5
3E3E
102
{ACAD_REACTORS
330
3E30
102
}
330
3E30
100
AcDbXrecord
1000
DSTYLE
1002
{
1070
   341
340
B2
1070
   343
340
B2
1070
   344
340
B2
1070
   371
 70
    -1
1070
   372
 70
    -1
1002
}
  0
XRECORD
  5
3E3F
102
{ACAD_REACTORS
330
3E30
102
}
330
3E30
100
AcDbXrecord
340
0
  0
XRECORD
  5
3E40
102
{ACAD_REACTORS
330
3E30
102
}
330
3E30
100
AcDbXrecord
 70
     0
  0
XRECORD
  5
3E41
102
{ACAD_REACTORS
330
3E30
102
}
330
3E30
100
AcDbXrecord
340
0
  0
XRECORD
  5
3E42
102
{ACAD_REACTORS
330
3E30
102
}
330
3E30
100
AcDbXrecord
 10
0.0
 20
0.0
 30
0.0
  0
XRECORD
  5
3E43
102
{ACAD_REACTORS
330
3E30
102
}
330
3E30
100
AcDbXrecord
 10
0.0
 20
0.0
 30
0.0
  0
XRECORD
  5
3E44
102
{ACAD_REACTORS
330
3E30
102
}
330
3E30
100
AcDbXrecord
 10
0.0
 20
0.0
 30
0.0
  0
XRECORD
  5
3E45
102
{ACAD_REACTORS
330
3E30
102
}
330
3E30
100
AcDbXrecord
 10
0.0
 20
0.0
 30
0.0
  0
XRECORD
  5
3E46
102
{ACAD_REACTORS
330
3E30
102
}
330
3E30
100
AcDbXrecord
 10
0.0
 20
0.0
 30
0.0
  0
XRECORD
  5
3E47
102
{ACAD_REACTORS
330
3E30
102
}
330
3E30
100
AcDbXrecord
 10
0.0
 20
0.0
 30
0.0
  0
XRECORD
  5
3E48
102
{ACAD_REACTORS
330
3E30
102
}
330
3E30
100
AcDbXrecord
340
0
  0
XRECORD
  5
3E49
102
{ACAD_REACTORS
330
3E30
102
}
330
3E30
100
AcDbXrecord
 70
     0
  0
XRECORD
  5
3E4A
102
{ACAD_REACTORS
330
3E30
102
}
330
3E30
100
AcDbXrecord
340
0
  0
XRECORD
  5
3E4B
102
{ACAD_REACTORS
330
3E30
102
}
330
3E30
100
AcDbXrecord
 10
0.0
 20
0.0
 30
0.0
  0
XRECORD
  5
3E4C
102
{ACAD_REACTORS
330
3E30
102
}
330
3E30
100
AcDbXrecord
 10
0.0
 20
0.0
 30
0.0
  0
XRECORD
  5
3E4D
102
{ACAD_REACTORS
330
3E30
102
}
330
3E30
100
AcDbXrecord
 10
0.0
 20
0.0
 30
0.0
  0
XRECORD
  5
3E4E
102
{ACAD_REACTORS
330
3E30
102
}
330
3E30
100
AcDbXrecord
 10
0.0
 20
0.0
 30
0.0
  0
XRECORD
  5
3E4F
102
{ACAD_REACTORS
330
3E30
102
}
330
3E30
100
AcDbXrecord
 10
0.0
 20
0.0
 30
0.0
  0
XRECORD
  5
3E50
102
{ACAD_REACTORS
330
3E30
102
}
330
3E30
100
AcDbXrecord
 10
0.0
 20
0.0
 30
0.0
  0
ENDSEC
  0
EOF
