  0
SECTION
  2
HEADER
  9
$ACADVER
  1
AC1014
  9
$ACADMAINTVER
 70
     9
  9
$DWGCODEPAGE
  3
ANSI_932
  9
$INSBASE
 10
0.0
 20
0.0
 30
0.0
  9
$EXTMIN
 10
-0.0000003224365628
 20
0.0000000308041308
 30
-0.00000001
  9
$EXTMAX
 10
398.7999996775635
 20
275.8000000308042
 30
0.00000001
  9
$LIMMIN
 10
0.0
 20
0.0
  9
$LIMMAX
 10
420.0
 20
297.0
  9
$ORTHOMODE
 70
     1
  9
$REGENMODE
 70
     1
  9
$FILLMODE
 70
     1
  9
$QTEXTMODE
 70
     0
  9
$MIRRTEXT
 70
     1
  9
$DRAGMODE
 70
     2
  9
$LTSCALE
 40
5.0
  9
$OSMODE
 70
    37
  9
$ATTMODE
 70
     1
  9
$TEXTSIZE
 40
3.0
  9
$TRACEWID
 40
1.0
  9
$TEXTSTYLE
  7
STANDARD
  9
$CLAYER
  8
SUNPOU
  9
$CELTYPE
  6
BYLAYER
  9
$CECOLOR
 62
   256
  9
$CELTSCALE
 40
1.0
  9
$DELOBJ
 70
     1
  9
$DISPSILH
 70
     0
  9
$DIMSCALE
 40
1.0
  9
$DIMASZ
 40
3.0
  9
$DIMEXO
 40
3.0
  9
$DIMDLI
 40
7.0
  9
$DIMRND
 40
0.0
  9
$DIMDLE
 40
0.0
  9
$DIMEXE
 40
1.5
  9
$DIMTP
 40
0.0
  9
$DIMTM
 40
0.0
  9
$DIMTXT
 40
3.0
  9
$DIMCEN
 40
3.0
  9
$DIMTSZ
 40
0.0
  9
$DIMTOL
 70
     0
  9
$DIMLIM
 70
     0
  9
$DIMTIH
 70
     0
  9
$DIMTOH
 70
     0
  9
$DIMSE1
 70
     0
  9
$DIMSE2
 70
     0
  9
$DIMTAD
 70
     3
  9
$DIMZIN
 70
     0
  9
$DIMBLK
  1

  9
$DIMASO
 70
     1
  9
$DIMSHO
 70
     1
  9
$DIMPOST
  1

  9
$DIMAPOST
  1

  9
$DIMALT
 70
     0
  9
$DIMALTD
 70
     2
  9
$DIMALTF
 40
25.4
  9
$DIMLFAC
 40
1.0
  9
$DIMTOFL
 70
     1
  9
$DIMTVP
 40
0.0
  9
$DIMTIX
 70
     0
  9
$DIMSOXD
 70
     0
  9
$DIMSAH
 70
     1
  9
$DIMBLK1
  1
OPEN
  9
$DIMBLK2
  1
OPEN
  9
$DIMSTYLE
  2
STANDARD
  9
$DIMCLRD
 70
   256
  9
$DIMCLRE
 70
   256
  9
$DIMCLRT
 70
   256
  9
$DIMTFAC
 40
1.0
  9
$DIMGAP
 40
1.0
  9
$DIMJUST
 70
     0
  9
$DIMSD1
 70
     0
  9
$DIMSD2
 70
     0
  9
$DIMTOLJ
 70
     1
  9
$DIMTZIN
 70
     0
  9
$DIMALTZ
 70
     0
  9
$DIMALTTZ
 70
     0
  9
$DIMFIT
 70
     3
  9
$DIMUPT
 70
     0
  9
$DIMUNIT
 70
     2
  9
$DIMDEC
 70
     0
  9
$DIMTDEC
 70
     0
  9
$DIMALTU
 70
     2
  9
$DIMALTTD
 70
     2
  9
$DIMTXSTY
  7
STANDARD
  9
$DIMAUNIT
 70
     0
  9
$LUNITS
 70
     2
  9
$LUPREC
 70
     4
  9
$SKETCHINC
 40
1.0
  9
$FILLETRAD
 40
2.0
  9
$AUNITS
 70
     0
  9
$AUPREC
 70
     0
  9
$MENU
  1
.
  9
$ELEVATION
 40
0.0
  9
$PELEVATION
 40
0.0
  9
$THICKNESS
 40
0.0
  9
$LIMCHECK
 70
     0
  9
$BLIPMODE
 70
     0
  9
$CHAMFERA
 40
10.0
  9
$CHAMFERB
 40
10.0
  9
$CHAMFERC
 40
20.0
  9
$CHAMFERD
 40
0.0
  9
$SKPOLY
 70
     0
  9
$TDCREATE
 40
2451589.469382176
  9
$TDUPDATE
 40
2454515.394692604
  9
$TDINDWG
 40
0.2628322454
  9
$TDUSRTIMER
 40
0.2628322454
  9
$USRTIMER
 70
     1
  9
$ANGBASE
 50
0.0
  9
$ANGDIR
 70
     0
  9
$PDMODE
 70
     0
  9
$PDSIZE
 40
0.0
  9
$PLINEWID
 40
0.0
  9
$COORDS
 70
     2
  9
$SPLFRAME
 70
     0
  9
$SPLINETYPE
 70
     6
  9
$SPLINESEGS
 70
     8
  9
$ATTDIA
 70
     0
  9
$ATTREQ
 70
     1
  9
$HANDLING
 70
 10241
  9
$HANDSEED
  5
4FBC
  9
$SURFTAB1
 70
     6
  9
$SURFTAB2
 70
     6
  9
$SURFTYPE
 70
     6
  9
$SURFU
 70
     6
  9
$SURFV
 70
     6
  9
$UCSNAME
  2

  9
$UCSORG
 10
0.0
 20
0.0
 30
0.0
  9
$UCSXDIR
 10
1.0
 20
0.0
 30
0.0
  9
$UCSYDIR
 10
0.0
 20
1.0
 30
0.0
  9
$PUCSNAME
  2

  9
$PUCSORG
 10
0.0
 20
0.0
 30
0.0
  9
$PUCSXDIR
 10
1.0
 20
0.0
 30
0.0
  9
$PUCSYDIR
 10
0.0
 20
1.0
 30
0.0
  9
$USERI1
 70
     0
  9
$USERI2
 70
     0
  9
$USERI3
 70
     0
  9
$USERI4
 70
     0
  9
$USERI5
 70
     0
  9
$USERR1
 40
0.0
  9
$USERR2
 40
0.0
  9
$USERR3
 40
0.0
  9
$USERR4
 40
0.0
  9
$USERR5
 40
0.0
  9
$WORLDVIEW
 70
     1
  9
$SHADEDGE
 70
     3
  9
$SHADEDIF
 70
    70
  9
$TILEMODE
 70
     1
  9
$MAXACTVP
 70
    16
  9
$PINSBASE
 10
0.0
 20
0.0
 30
0.0
  9
$PLIMCHECK
 70
     0
  9
$PEXTMIN
 10
0.0
 20
0.0
 30
0.0
  9
$PEXTMAX
 10
420.0
 20
297.0
 30
0.0
  9
$PLIMMIN
 10
0.0
 20
0.0
  9
$PLIMMAX
 10
420.0
 20
297.0
  9
$UNITMODE
 70
     0
  9
$VISRETAIN
 70
     0
  9
$PLINEGEN
 70
     0
  9
$PSLTSCALE
 70
     1
  9
$TREEDEPTH
 70
  3020
  9
$PICKSTYLE
 70
     1
  9
$CMLSTYLE
  2
STANDARD
  9
$CMLJUST
 70
     0
  9
$CMLSCALE
 40
1.0
  9
$PROXYGRAPHICS
 70
     1
  9
$MEASUREMENT
 70
     0
  0
ENDSEC
  0
SECTION
  2
CLASSES
  0
CLASS
  1
ACDBDICTIONARYWDFLT
  2
AcDbDictionaryWithDefault
  3
AutoCAD 2000
 90
        0
280
     0
281
     0
  0
CLASS
  1
ACDBPLACEHOLDER
  2
AcDbPlaceHolder
  3
AutoCAD 2000
 90
        0
280
     0
281
     0
  0
CLASS
  1
LAYOUT
  2
AcDbLayout
  3
AutoCAD 2000
 90
        0
280
     0
281
     0
  0
CLASS
  1
LONG_TRANSACTION
  2
AcDbLongTransaction
  3
AutoCAD 2000
 90
        0
280
     0
281
     0
  0
CLASS
  1
LWPOLYLINE
  2
AcDbPolyline
  3
AutoCAD 2000
 90
        0
280
     0
281
     1
  0
CLASS
  1
HATCH
  2
AcDbHatch
  3
AutoCAD 2000
 90
        0
280
     0
281
     1
  0
CLASS
  1
XRECORD
  2
AcDbXrecord
  3
AutoCAD 2000
 90
        0
280
     0
281
     0
  0
CLASS
  1
LONG_TRANSACTION
  2
AcDbLongTransaction
  3
AutoCAD 2000
 90
        0
280
     0
281
     0
  0
CLASS
  1
LWPOLYLINE
  2
AcDbPolyline
  3
AutoCAD 2000
 90
        0
280
     0
281
     1
  0
CLASS
  1
HATCH
  2
AcDbHatch
  3
AutoCAD 2000
 90
        0
280
     0
281
     1
  0
CLASS
  1
XRECORD
  2
AcDbXrecord
  3
AutoCAD 2000
 90
        0
280
     0
281
     0
  0
CLASS
  1
DICTIONARYVAR
  2
AcDbDictionaryVar
  3
AutoCAD 2000
 90
        0
280
     0
281
     0
  0
CLASS
  1
LONG_TRANSACTION
  2
AcDbLongTransaction
  3
AutoCAD 2000
 90
        0
280
     0
281
     0
  0
CLASS
  1
LWPOLYLINE
  2
AcDbPolyline
  3
AutoCAD 2000
 90
        0
280
     0
281
     1
  0
CLASS
  1
HATCH
  2
AcDbHatch
  3
AutoCAD 2000
 90
        0
280
     0
281
     1
  0
CLASS
  1
XRECORD
  2
AcDbXrecord
  3
AutoCAD 2000
 90
        0
280
     0
281
     0
  0
CLASS
  1
LONG_TRANSACTION
  2
AcDbLongTransaction
  3
AutoCAD 2000
 90
        0
280
     0
281
     0
  0
CLASS
  1
LWPOLYLINE
  2
AcDbPolyline
  3
AutoCAD 2000
 90
        0
280
     0
281
     1
  0
CLASS
  1
HATCH
  2
AcDbHatch
  3
AutoCAD 2000
 90
        0
280
     0
281
     1
  0
CLASS
  1
XRECORD
  2
AcDbXrecord
  3
AutoCAD 2000
 90
        0
280
     0
281
     0
  0
CLASS
  1
LONG_TRANSACTION
  2
AcDbLongTransaction
  3
AutoCAD 2000
 90
        0
280
     0
281
     0
  0
CLASS
  1
LWPOLYLINE
  2
AcDbPolyline
  3
AutoCAD 2000
 90
        0
280
     0
281
     1
  0
CLASS
  1
HATCH
  2
AcDbHatch
  3
AutoCAD 2000
 90
        0
280
     0
281
     1
  0
CLASS
  1
XRECORD
  2
AcDbXrecord
  3
AutoCAD 2000
 90
        0
280
     0
281
     0
  0
CLASS
  1
LONG_TRANSACTION
  2
AcDbLongTransaction
  3
AutoCAD 2000
 90
        0
280
     0
281
     0
  0
CLASS
  1
LWPOLYLINE
  2
AcDbPolyline
  3
AutoCAD 2000
 90
        0
280
     0
281
     1
  0
CLASS
  1
HATCH
  2
AcDbHatch
  3
AutoCAD 2000
 90
        0
280
     0
281
     1
  0
CLASS
  1
XRECORD
  2
AcDbXrecord
  3
AutoCAD 2000
 90
        0
280
     0
281
     0
  0
CLASS
  1
LONG_TRANSACTION
  2
AcDbLongTransaction
  3
AutoCAD 2000
 90
        0
280
     0
281
     0
  0
CLASS
  1
LWPOLYLINE
  2
AcDbPolyline
  3
AutoCAD 2000
 90
        0
280
     0
281
     1
  0
CLASS
  1
HATCH
  2
AcDbHatch
  3
AutoCAD 2000
 90
        0
280
     0
281
     1
  0
CLASS
  1
XRECORD
  2
AcDbXrecord
  3
AutoCAD 2000
 90
        0
280
     0
281
     0
  0
CLASS
  1
LONG_TRANSACTION
  2
AcDbLongTransaction
  3
AutoCAD 2000
 90
        0
280
     0
281
     0
  0
CLASS
  1
LWPOLYLINE
  2
AcDbPolyline
  3
AutoCAD 2000
 90
        0
280
     0
281
     1
  0
CLASS
  1
HATCH
  2
AcDbHatch
  3
AutoCAD 2000
 90
        0
280
     0
281
     1
  0
CLASS
  1
XRECORD
  2
AcDbXrecord
  3
AutoCAD 2000
 90
        0
280
     0
281
     0
  0
CLASS
  1
LONG_TRANSACTION
  2
AcDbLongTransaction
  3
AutoCAD 2000
 90
        0
280
     0
281
     0
  0
CLASS
  1
LWPOLYLINE
  2
AcDbPolyline
  3
AutoCAD 2000
 90
        0
280
     0
281
     1
  0
CLASS
  1
HATCH
  2
AcDbHatch
  3
AutoCAD 2000
 90
        0
280
     0
281
     1
  0
CLASS
  1
XRECORD
  2
AcDbXrecord
  3
AutoCAD 2000
 90
        0
280
     0
281
     0
  0
CLASS
  1
LONG_TRANSACTION
  2
AcDbLongTransaction
  3
AutoCAD 2000
 90
        0
280
     0
281
     0
  0
CLASS
  1
LWPOLYLINE
  2
AcDbPolyline
  3
AutoCAD 2000
 90
        0
280
     0
281
     1
  0
CLASS
  1
HATCH
  2
AcDbHatch
  3
AutoCAD 2000
 90
        0
280
     0
281
     1
  0
CLASS
  1
XRECORD
  2
AcDbXrecord
  3
AutoCAD 2000
 90
        0
280
     0
281
     0
  0
CLASS
  1
LONG_TRANSACTION
  2
AcDbLongTransaction
  3
AutoCAD 2000
 90
        0
280
     0
281
     0
  0
CLASS
  1
LWPOLYLINE
  2
AcDbPolyline
  3
AutoCAD 2000
 90
        0
280
     0
281
     1
  0
CLASS
  1
HATCH
  2
AcDbHatch
  3
AutoCAD 2000
 90
        0
280
     0
281
     1
  0
CLASS
  1
XRECORD
  2
AcDbXrecord
  3
AutoCAD 2000
 90
        0
280
     0
281
     0
  0
CLASS
  1
LONG_TRANSACTION
  2
AcDbLongTransaction
  3
AutoCAD 2000
 90
        0
280
     0
281
     0
  0
CLASS
  1
LWPOLYLINE
  2
AcDbPolyline
  3
AutoCAD 2000
 90
        0
280
     0
281
     1
  0
CLASS
  1
HATCH
  2
AcDbHatch
  3
AutoCAD 2000
 90
        0
280
     0
281
     1
  0
CLASS
  1
XRECORD
  2
AcDbXrecord
  3
AutoCAD 2000
 90
        0
280
     0
281
     0
  0
ENDSEC
  0
SECTION
  2
TABLES
  0
TABLE
  2
VPORT
  5
8
330
0
100
AcDbSymbolTable
 70
     2
  0
VPORT
  5
4F98
330
8
100
AcDbSymbolTableRecord
100
AcDbViewportTableRecord
  2
*ACTIVE
 70
     0
 10
0.0
 20
0.0
 11
1.0
 21
1.0
 12
212.2788318171456
 22
166.2470787828678
 13
0.0
 23
0.0
 14
5.0
 24
5.0
 15
0.0
 25
0.0
 16
0.0
 26
0.0
 36
1.0
 17
0.0
 27
0.0
 37
0.0
 40
350.777963229673
 41
1.570153061224489
 42
50.0
 43
0.0
 44
0.0
 50
0.0
 51
0.0
 71
     0
 72
   100
 73
     1
 74
     0
 75
     0
 76
     0
 77
     0
 78
     0
  0
ENDTAB
  0
TABLE
  2
LTYPE
  5
5
330
0
100
AcDbSymbolTable
 70
     4
  0
LTYPE
  5
14
330
5
100
AcDbSymbolTableRecord
100
AcDbLinetypeTableRecord
  2
BYBLOCK
 70
     0
  3

 72
    65
 73
     0
 40
0.0
  0
LTYPE
  5
15
330
5
100
AcDbSymbolTableRecord
100
AcDbLinetypeTableRecord
  2
BYLAYER
 70
     0
  3

 72
    65
 73
     0
 40
0.0
  0
LTYPE
  5
16
330
5
100
AcDbSymbolTableRecord
100
AcDbLinetypeTableRecord
  2
CONTINUOUS
 70
     0
  3
Solid line
 72
    65
 73
     0
 40
0.0
  0
LTYPE
  5
120
330
5
100
AcDbSymbolTableRecord
100
AcDbLinetypeTableRecord
  2
CENTER
 70
     0
  3
____ _ ____ _ ____ _ ____ _ ____ _ ____ _ ____ 
 72
    65
 73
     4
 40
2.0
 49
1.25
 74
     0
 49
-0.25
 74
     0
 49
0.25
 74
     0
 49
-0.25
 74
     0
  0
LTYPE
  5
122
330
5
100
AcDbSymbolTableRecord
100
AcDbLinetypeTableRecord
  2
PHANTOM
 70
     0
  3
______  __  __  ______  __  __  ______  __  __ 
 72
    65
 73
     6
 40
2.5
 49
1.25
 74
     0
 49
-0.25
 74
     0
 49
0.25
 74
     0
 49
-0.25
 74
     0
 49
0.25
 74
     0
 49
-0.25
 74
     0
  0
LTYPE
  5
2BBB
330
5
100
AcDbSymbolTableRecord
100
AcDbLinetypeTableRecord
  2
DASHED
 70
     0
  3
__ __ __ __ __ __ __ __ __ __ __ __ __ __ __ __
 72
    65
 73
     2
 40
0.75
 49
0.5
 74
     0
 49
-0.25
 74
     0
  0
ENDTAB
  0
TABLE
  2
LAYER
  5
2
330
0
100
AcDbSymbolTable
 70
     9
  0
LAYER
  5
F
330
2
100
AcDbSymbolTableRecord
100
AcDbLayerTableRecord
  2
0
 70
     0
 62
     7
  6
CONTINUOUS
  0
LAYER
  5
62
330
2
100
AcDbSymbolTableRecord
100
AcDbLayerTableRecord
  2
VIEWPORT
 70
     0
 62
     7
  6
CONTINUOUS
  0
LAYER
  5
6B
330
2
100
AcDbSymbolTableRecord
100
AcDbLayerTableRecord
  2
ZUWAKU
 70
     0
 62
     7
  6
CONTINUOUS
  0
LAYER
  5
3EF
330
2
100
AcDbSymbolTableRecord
100
AcDbLayerTableRecord
  2
DEFPOINTS
 70
     0
 62
     7
  6
CONTINUOUS
  0
LAYER
  5
54D
330
2
100
AcDbSymbolTableRecord
100
AcDbLayerTableRecord
  2
SEIHIN
 70
     0
 62
     3
  6
CONTINUOUS
  0
LAYER
  5
54E
330
2
100
AcDbSymbolTableRecord
100
AcDbLayerTableRecord
  2
SUNPOU
 70
     0
 62
     4
  6
CONTINUOUS
  0
LAYER
  5
54F
330
2
100
AcDbSymbolTableRecord
100
AcDbLayerTableRecord
  2
CENTER_L
 70
     0
 62
     1
  6
CENTER
  0
LAYER
  5
550
330
2
100
AcDbSymbolTableRecord
100
AcDbLayerTableRecord
  2
NOKITOI
 70
     0
 62
     8
  6
PHANTOM
  0
LAYER
  5
2988
330
2
100
AcDbSymbolTableRecord
100
AcDbLayerTableRecord
  2
MOJI
 70
     0
 62
     2
  6
CONTINUOUS
  0
ENDTAB
  0
TABLE
  2
STYLE
  5
3
330
0
100
AcDbSymbolTable
 70
     2
  0
STYLE
  5
10
330
3
100
AcDbSymbolTableRecord
100
AcDbTextStyleTableRecord
  2
STANDARD
 70
     0
 40
0.0
 41
1.0
 50
0.0
 71
     0
 42
3.0
  3
TXT
  4
c:\PROGRAM FILES\AUTOCAD LT\ms\bigfont.shx
  0
STYLE
  5
2989
330
3
100
AcDbSymbolTableRecord
100
AcDbTextStyleTableRecord
  2
ｽﾀｲﾙ1
 70
     0
 40
0.0
 41
1.0
 50
0.0
 71
     0
 42
2.5
  3
MS PGothic.ttf
  4

1001
ACAD
1000
MS PGothic
1071
    32818
  0
ENDTAB
  0
TABLE
  2
VIEW
  5
6
330
0
100
AcDbSymbolTable
 70
     0
  0
ENDTAB
  0
TABLE
  2
UCS
  5
7
330
0
100
AcDbSymbolTable
 70
     0
  0
ENDTAB
  0
TABLE
  2
APPID
  5
9
330
0
100
AcDbSymbolTable
 70
     1
  0
APPID
  5
11
330
9
100
AcDbSymbolTableRecord
100
AcDbRegAppTableRecord
  2
ACAD
 70
     0
  0
ENDTAB
  0
TABLE
  2
DIMSTYLE
  5
A
330
0
100
AcDbSymbolTable
 70
     1
  0
DIMSTYLE
105
1D
102
{ACAD_REACTORS
330
4C66
330
4C67
330
4C69
330
4C6A
330
4C6E
330
4C6F
330
4C70
330
4D5C
330
4DF1
330
4E00
330
4E0B
330
4E0C
330
4E0E
330
4E0F
330
4E13
102
}
330
A
100
AcDbSymbolTableRecord
100
AcDbDimStyleTableRecord
  2
STANDARD
 70
     0
  3

  4

  5

  6

  7

 40
1.0
 41
0.18
 42
0.0625
 43
0.38
 44
0.18
 45
0.0
 46
0.0
 47
0.0
 48
0.0
140
0.18
141
0.09
142
0.0
143
25.4
144
1.0
145
0.0
146
1.0
147
0.09
 71
     0
 72
     0
 73
     1
 74
     1
 75
     0
 76
     0
 77
     0
 78
     0
170
     0
171
     2
172
     0
173
     0
174
     0
175
     0
176
     0
177
     0
178
     0
270
     2
271
     4
272
     4
273
     2
274
     2
340
10
275
     0
280
     0
281
     0
282
     0
283
     1
284
     0
285
     0
286
     0
287
     3
288
     0
  0
ENDTAB
  0
TABLE
  2
BLOCK_RECORD
  5
1
330
0
100
AcDbSymbolTable
 70
    76
  0
BLOCK_RECORD
  5
1A
102
{ACAD_XDICTIONARY
360
7A2
102
}
330
1
100
AcDbSymbolTableRecord
100
AcDbBlockTableRecord
  2
*MODEL_SPACE
  0
BLOCK_RECORD
  5
17
102
{ACAD_XDICTIONARY
360
7A0
102
}
330
1
100
AcDbSymbolTableRecord
100
AcDbBlockTableRecord
  2
*PAPER_SPACE
  0
BLOCK_RECORD
  5
B2
330
1
100
AcDbSymbolTableRecord
100
AcDbBlockTableRecord
  2
_OPEN
  0
BLOCK_RECORD
  5
4E4B
330
1
100
AcDbSymbolTableRecord
100
AcDbBlockTableRecord
  2
*D61
  0
BLOCK_RECORD
  5
4E57
330
1
100
AcDbSymbolTableRecord
100
AcDbBlockTableRecord
  2
*D62
  0
BLOCK_RECORD
  5
4E63
330
1
100
AcDbSymbolTableRecord
100
AcDbBlockTableRecord
  2
*D63
  0
BLOCK_RECORD
  5
4E6F
330
1
100
AcDbSymbolTableRecord
100
AcDbBlockTableRecord
  2
*D64
  0
BLOCK_RECORD
  5
4E7B
330
1
100
AcDbSymbolTableRecord
100
AcDbBlockTableRecord
  2
*D65
  0
BLOCK_RECORD
  5
4E87
330
1
100
AcDbSymbolTableRecord
100
AcDbBlockTableRecord
  2
*D66
  0
BLOCK_RECORD
  5
4E93
330
1
100
AcDbSymbolTableRecord
100
AcDbBlockTableRecord
  2
*D67
  0
BLOCK_RECORD
  5
4EA1
330
1
100
AcDbSymbolTableRecord
100
AcDbBlockTableRecord
  2
*D68
  0
BLOCK_RECORD
  5
4EAD
330
1
100
AcDbSymbolTableRecord
100
AcDbBlockTableRecord
  2
*D69
  0
BLOCK_RECORD
  5
4EB9
330
1
100
AcDbSymbolTableRecord
100
AcDbBlockTableRecord
  2
*D70
  0
BLOCK_RECORD
  5
4EC7
330
1
100
AcDbSymbolTableRecord
100
AcDbBlockTableRecord
  2
*D71
  0
BLOCK_RECORD
  5
4ED3
330
1
100
AcDbSymbolTableRecord
100
AcDbBlockTableRecord
  2
*D72
  0
BLOCK_RECORD
  5
4EDF
330
1
100
AcDbSymbolTableRecord
100
AcDbBlockTableRecord
  2
*D73
  0
BLOCK_RECORD
  5
4EED
330
1
100
AcDbSymbolTableRecord
100
AcDbBlockTableRecord
  2
*D74
  0
BLOCK_RECORD
  5
4EF9
330
1
100
AcDbSymbolTableRecord
100
AcDbBlockTableRecord
  2
*D75
  0
ENDTAB
  0
ENDSEC
  0
SECTION
  2
BLOCKS
  0
BLOCK
  5
1B
330
1A
100
AcDbEntity
  8
0
100
AcDbBlockBegin
  2
*MODEL_SPACE
 70
     0
 10
0.0
 20
0.0
 30
0.0
  3
*MODEL_SPACE
  1

  0
ENDBLK
  5
1C
330
1A
100
AcDbEntity
  8
0
100
AcDbBlockEnd
  0
BLOCK
  5
18
330
17
100
AcDbEntity
 67
     1
  8
0
100
AcDbBlockBegin
  2
*PAPER_SPACE
 70
     0
 10
0.0
 20
0.0
 30
0.0
  3
*PAPER_SPACE
  1

  0
ENDBLK
  5
19
330
17
100
AcDbEntity
 67
     1
  8
0
100
AcDbBlockEnd
  0
BLOCK
  5
B3
330
B2
100
AcDbEntity
  8
0
100
AcDbBlockBegin
  2
_OPEN
 70
     0
 10
0.0
 20
0.0
 30
0.0
  3
_OPEN
  1

  0
LINE
  5
B4
330
B2
100
AcDbEntity
  8
0
  6
BYBLOCK
 62
     0
100
AcDbLine
 10
-1.0
 20
0.1666666666666666
 30
0.0
 11
0.0
 21
0.0
 31
0.0
  0
LINE
  5
B5
330
B2
100
AcDbEntity
  8
0
  6
BYBLOCK
 62
     0
100
AcDbLine
 10
0.0
 20
0.0
 30
0.0
 11
-1.0
 21
-0.1666666666666666
 31
0.0
  0
LINE
  5
B6
330
B2
100
AcDbEntity
  8
0
  6
BYBLOCK
 62
     0
100
AcDbLine
 10
0.0
 20
0.0
 30
0.0
 11
-1.0
 21
0.0
 31
0.0
  0
ENDBLK
  5
B7
330
B2
100
AcDbEntity
  8
0
100
AcDbBlockEnd
  0
BLOCK
  5
4E55
330
4E4B
100
AcDbEntity
  8
0
100
AcDbBlockBegin
  2
*D61
 70
     1
 10
0.0
 20
0.0
 30
0.0
  3
*D61
  1

  0
LINE
  5
4F05
330
4E4B
100
AcDbEntity
  8
SUNPOU
100
AcDbLine
 10
193.6644882410862
 20
134.6975162843258
 30
0.0
 11
208.374338104953
 21
142.0524412162592
 31
0.0
  0
LINE
  5
4F06
330
4E4B
100
AcDbEntity
  8
SUNPOU
100
AcDbLine
 10
216.9195952070841
 20
88.18730235233024
 30
0.0
 11
231.6294450709509
 21
95.5422272842637
 31
0.0
  0
LINE
  5
4F07
330
4E4B
100
AcDbEntity
  8
SUNPOU
100
AcDbLine
 10
208.374338104953
 20
138.6983392500095
 30
0.0
 11
228.9461634979511
 21
97.55468846401351
 31
0.0
  0
INSERT
  5
4F08
330
4E4B
100
AcDbEntity
  8
SUNPOU
100
AcDbBlockReference
  2
_OPEN
 10
207.0326973184531
 20
141.3816208230093
 30
0.0
 41
3.0
 42
3.0
 43
3.0
 50
116.5650511770781
  0
INSERT
  5
4F09
330
4E4B
100
AcDbEntity
  8
SUNPOU
100
AcDbBlockReference
  2
_OPEN
 10
230.287804284451
 20
94.87140689101376
 30
0.0
 41
3.0
 42
3.0
 43
3.0
 50
296.5650511770781
  0
MTEXT
  5
4F0A
330
4E4B
100
AcDbEntity
  8
SUNPOU
100
AcDbMText
 10
220.8963187789519
 20
119.2445478457614
 30
0.0
 40
3.0
 41
0.0
 71
     5
 72
     1
  1
\A1;52
 11
0.44721359549996
 21
-0.8944271909999148
 31
0.0
1001
ACAD
1000
MTEXTBEGIN
1070
    73
1070
     1
1070
    44
1040
1.0
1070
    74
1070
     0
1000
MTEXTEND
  0
POINT
  5
4F0B
330
4E4B
100
AcDbEntity
  8
DEFPOINTS
 62
     0
100
AcDbPoint
 10
190.9812066680864
 20
133.3558754978259
 30
0.0
  0
POINT
  5
4F0C
330
4E4B
100
AcDbEntity
  8
DEFPOINTS
 62
     0
100
AcDbPoint
 10
214.2363136340843
 20
86.84566156583036
 30
0.0
  0
POINT
  5
4F0D
330
4E4B
100
AcDbEntity
  8
DEFPOINTS
 62
     0
100
AcDbPoint
 10
230.287804284451
 20
94.87140689101376
 30
0.0
  0
ENDBLK
  5
4E56
330
4E4B
100
AcDbEntity
  8
0
100
AcDbBlockEnd
  0
BLOCK
  5
4E61
330
4E57
100
AcDbEntity
  8
0
100
AcDbBlockBegin
  2
*D62
 70
     1
 10
0.0
 20
0.0
 30
0.0
  3
*D62
  1

  0
LINE
  5
4F0E
330
4E57
100
AcDbEntity
  8
SUNPOU
100
AcDbLine
 10
216.3418864430008
 20
243.9106427484323
 30
0.0
 11
232.6659428205229
 21
243.9106427484323
 31
0.0
  0
LINE
  5
4F0F
330
4E57
100
AcDbEntity
  8
SUNPOU
100
AcDbLine
 10
216.3418864430008
 20
190.9106427484323
 30
0.0
 11
232.6659428205228
 21
190.9106427484323
 31
0.0
  0
LINE
  5
4F10
330
4E57
100
AcDbEntity
  8
SUNPOU
100
AcDbLine
 10
231.1659428205229
 20
240.9106427484323
 30
0.0
 11
231.1659428205229
 21
193.9106427484323
 31
0.0
  0
INSERT
  5
4F11
330
4E57
100
AcDbEntity
  8
SUNPOU
100
AcDbBlockReference
  2
_OPEN
 10
231.1659428205229
 20
243.9106427484323
 30
0.0
 41
3.0
 42
3.0
 43
3.0
 50
90.0
  0
INSERT
  5
4F12
330
4E57
100
AcDbEntity
  8
SUNPOU
100
AcDbBlockReference
  2
_OPEN
 10
231.1659428205229
 20
190.9106427484323
 30
0.0
 41
3.0
 42
3.0
 43
3.0
 50
270.0
  0
MTEXT
  5
4F13
330
4E57
100
AcDbEntity
  8
SUNPOU
100
AcDbMText
 10
228.6659428205228
 20
217.4106427484324
 30
0.0
 40
3.0
 41
0.0
 71
     5
 72
     1
  1
\A1;53
 11
0.0000000000000001
 21
1.0
 31
0.0
1001
ACAD
1000
MTEXTBEGIN
1070
    73
1070
     1
1070
    44
1040
1.0
1070
    74
1070
     0
1000
MTEXTEND
  0
POINT
  5
4F14
330
4E57
100
AcDbEntity
  8
DEFPOINTS
 62
     0
100
AcDbPoint
 10
213.3418864430009
 20
243.9106427484323
 30
0.0
  0
POINT
  5
4F15
330
4E57
100
AcDbEntity
  8
DEFPOINTS
 62
     0
100
AcDbPoint
 10
213.3418864430009
 20
190.9106427484323
 30
0.0
  0
POINT
  5
4F16
330
4E57
100
AcDbEntity
  8
DEFPOINTS
 62
     0
100
AcDbPoint
 10
231.1659428205229
 20
190.9106427484323
 30
0.0
  0
ENDBLK
  5
4E62
330
4E57
100
AcDbEntity
  8
0
100
AcDbBlockEnd
  0
BLOCK
  5
4E6D
330
4E63
100
AcDbEntity
  8
0
100
AcDbBlockBegin
  2
*D63
 70
     1
 10
0.0
 20
0.0
 30
0.0
  3
*D63
  1

  0
LINE
  5
4F17
330
4E63
100
AcDbEntity
  8
SUNPOU
100
AcDbLine
 10
193.6094337318812
 20
131.0994213637288
 30
0.0
 11
193.6094337318812
 21
161.4904667309698
 31
0.0
  0
LINE
  5
4F18
330
4E63
100
AcDbEntity
  8
SUNPOU
100
AcDbLine
 10
228.6094337318812
 20
131.0994213637288
 30
0.0
 11
228.6094337318812
 21
161.4904667309698
 31
0.0
  0
LINE
  5
4F19
330
4E63
100
AcDbEntity
  8
SUNPOU
100
AcDbLine
 10
196.6094337318812
 20
159.9904667309698
 30
0.0
 11
225.6094337318812
 21
159.9904667309698
 31
0.0
  0
INSERT
  5
4F1A
330
4E63
100
AcDbEntity
  8
SUNPOU
100
AcDbBlockReference
  2
_OPEN
 10
193.6094337318812
 20
159.9904667309698
 30
0.0
 41
3.0
 42
3.0
 43
3.0
 50
180.0
  0
INSERT
  5
4F1B
330
4E63
100
AcDbEntity
  8
SUNPOU
100
AcDbBlockReference
  2
_OPEN
 10
228.6094337318812
 20
159.9904667309698
 30
0.0
 41
3.0
 42
3.0
 43
3.0
  0
MTEXT
  5
4F1C
330
4E63
100
AcDbEntity
  8
SUNPOU
100
AcDbMText
 10
211.1094337318812
 20
162.4904667309698
 30
0.0
 40
3.0
 41
0.0
 71
     5
 72
     1
  1
\A1;35
1001
ACAD
1000
MTEXTBEGIN
1070
    73
1070
     1
1070
    44
1040
1.0
1070
    74
1070
     0
1000
MTEXTEND
  0
POINT
  5
4F1D
330
4E63
100
AcDbEntity
  8
DEFPOINTS
 62
     0
100
AcDbPoint
 10
193.6094337318812
 20
128.0994213637288
 30
0.0
  0
POINT
  5
4F1E
330
4E63
100
AcDbEntity
  8
DEFPOINTS
 62
     0
100
AcDbPoint
 10
228.6094337318812
 20
128.0994213637288
 30
0.0
  0
POINT
  5
4F1F
330
4E63
100
AcDbEntity
  8
DEFPOINTS
 62
     0
100
AcDbPoint
 10
228.6094337318812
 20
159.9904667309698
 30
0.0
  0
ENDBLK
  5
4E6E
330
4E63
100
AcDbEntity
  8
0
100
AcDbBlockEnd
  0
BLOCK
  5
4E79
330
4E6F
100
AcDbEntity
  8
0
100
AcDbBlockBegin
  2
*D64
 70
     1
 10
0.0
 20
0.0
 30
0.0
  3
*D64
  1

  0
LINE
  5
4F20
330
4E6F
100
AcDbEntity
  8
SUNPOU
100
AcDbLine
 10
200.8199057689842
 20
120.3866812225302
 30
0.0
 11
208.5297843754511
 21
124.241620526482
 31
0.0
  0
LINE
  5
4F21
330
4E6F
100
AcDbEntity
  8
SUNPOU
100
AcDbLine
 10
216.9195952069841
 20
88.18730235253026
 30
0.0
 11
224.6294738134511
 21
92.04224165648204
 31
0.0
  0
LINE
  5
4F22
330
4E6F
100
AcDbEntity
  8
SUNPOU
100
AcDbLine
 10
208.5297843757011
 20
120.8875185602323
 30
0.0
 11
221.9461922403013
 21
94.05470283603186
 31
0.0
  0
INSERT
  5
4F23
330
4E6F
100
AcDbEntity
  8
SUNPOU
100
AcDbBlockReference
  2
_OPEN
 10
207.1881435890012
 20
123.5708001331321
 30
0.0
 41
3.0
 42
3.0
 43
3.0
 50
116.5650511813485
  0
INSERT
  5
4F24
330
4E6F
100
AcDbEntity
  8
SUNPOU
100
AcDbBlockReference
  2
_OPEN
 10
223.2878330270012
 20
91.37142126313211
 30
0.0
 41
3.0
 42
3.0
 43
3.0
 50
296.5650511813485
  0
MTEXT
  5
4F25
330
4E6F
100
AcDbEntity
  8
SUNPOU
100
AcDbMText
 10
217.4740562854176
 20
108.5891446870486
 30
0.0
 40
3.0
 41
0.0
 71
     5
 72
     1
  1
\A1;36
 11
0.4472135955666242
 21
-0.8944271909665827
 31
0.0
1001
ACAD
1000
MTEXTBEGIN
1070
    73
1070
     1
1070
    44
1040
1.0
1070
    74
1070
     0
1000
MTEXTEND
  0
POINT
  5
4F26
330
4E6F
100
AcDbEntity
  8
DEFPOINTS
 62
     0
100
AcDbPoint
 10
198.1366241960844
 20
119.0450404358303
 30
0.0
  0
POINT
  5
4F27
330
4E6F
100
AcDbEntity
  8
DEFPOINTS
 62
     0
100
AcDbPoint
 10
214.2363136340843
 20
86.84566156583036
 30
0.0
  0
POINT
  5
4F28
330
4E6F
100
AcDbEntity
  8
DEFPOINTS
 62
     0
100
AcDbPoint
 10
223.2878330270012
 20
91.37142126313211
 30
0.0
  0
ENDBLK
  5
4E7A
330
4E6F
100
AcDbEntity
  8
0
100
AcDbBlockEnd
  0
BLOCK
  5
4E85
330
4E7B
100
AcDbEntity
  8
0
100
AcDbBlockBegin
  2
*D65
 70
     1
 10
0.0
 20
0.0
 30
0.0
  3
*D65
  1

  0
LINE
  5
4F29
330
4E7B
100
AcDbEntity
  8
SUNPOU
100
AcDbLine
 10
184.7008402740846
 20
96.55734665499279
 30
0.0
 11
184.7008402740846
 21
152.1519959448827
 31
0.0
  0
LINE
  5
4F2A
330
4E7B
100
AcDbEntity
  8
SUNPOU
100
AcDbLine
 10
193.6094337318812
 20
131.0994213637288
 30
0.0
 11
193.6094337318812
 21
152.1519959448827
 31
0.0
  0
LINE
  5
4F2B
330
4E7B
100
AcDbEntity
  8
SUNPOU
100
AcDbLine
 10
187.7008402740846
 20
150.6519959448827
 30
0.0
 11
190.6094337318812
 21
150.6519959448827
 31
0.0
  0
INSERT
  5
4F2C
330
4E7B
100
AcDbEntity
  8
SUNPOU
100
AcDbBlockReference
  2
_OPEN
 10
184.7008402740846
 20
150.6519959448827
 30
0.0
 41
3.0
 42
3.0
 43
3.0
 50
180.0
  0
INSERT
  5
4F2D
330
4E7B
100
AcDbEntity
  8
SUNPOU
100
AcDbBlockReference
  2
_OPEN
 10
193.6094337318812
 20
150.6519959448827
 30
0.0
 41
3.0
 42
3.0
 43
3.0
  0
MTEXT
  5
4F2E
330
4E7B
100
AcDbEntity
  8
SUNPOU
100
AcDbMText
 10
189.1551370029829
 20
153.1519959448827
 30
0.0
 40
3.0
 41
0.0
 71
     5
 72
     1
  1
\A1;9
1001
ACAD
1000
MTEXTBEGIN
1070
    73
1070
     1
1070
    44
1040
1.0
1070
    74
1070
     0
1000
MTEXTEND
  0
POINT
  5
4F2F
330
4E7B
100
AcDbEntity
  8
DEFPOINTS
 62
     0
100
AcDbPoint
 10
184.7008402740846
 20
93.55734665499278
 30
0.0
  0
POINT
  5
4F30
330
4E7B
100
AcDbEntity
  8
DEFPOINTS
 62
     0
100
AcDbPoint
 10
193.6094337318812
 20
128.0994213637288
 30
0.0
  0
POINT
  5
4F31
330
4E7B
100
AcDbEntity
  8
DEFPOINTS
 62
     0
100
AcDbPoint
 10
193.6094337318812
 20
150.6519959448827
 30
0.0
  0
ENDBLK
  5
4E86
330
4E7B
100
AcDbEntity
  8
0
100
AcDbBlockEnd
  0
BLOCK
  5
4E91
330
4E87
100
AcDbEntity
  8
0
100
AcDbBlockBegin
  2
*D66
 70
     1
 10
0.0
 20
0.0
 30
0.0
  3
*D66
  1

  0
LINE
  5
4F32
330
4E87
100
AcDbEntity
  8
SUNPOU
100
AcDbLine
 10
72.23259027408443
 20
95.00894665583031
 30
0.0
 11
72.23259027408443
 21
161.4904667309698
 31
0.0
  0
LINE
  5
4F33
330
4E87
100
AcDbEntity
  8
SUNPOU
100
AcDbLine
 10
193.6094337318812
 20
131.0994213637288
 30
0.0
 11
193.6094337318812
 21
161.4904667309698
 31
0.0
  0
LINE
  5
4F34
330
4E87
100
AcDbEntity
  8
SUNPOU
100
AcDbLine
 10
75.23259027408442
 20
159.9904667309698
 30
0.0
 11
190.6094337318812
 21
159.9904667309698
 31
0.0
  0
INSERT
  5
4F35
330
4E87
100
AcDbEntity
  8
SUNPOU
100
AcDbBlockReference
  2
_OPEN
 10
72.23259027408443
 20
159.9904667309698
 30
0.0
 41
3.0
 42
3.0
 43
3.0
 50
180.0
  0
INSERT
  5
4F36
330
4E87
100
AcDbEntity
  8
SUNPOU
100
AcDbBlockReference
  2
_OPEN
 10
193.6094337318812
 20
159.9904667309698
 30
0.0
 41
3.0
 42
3.0
 43
3.0
  0
MTEXT
  5
4F37
330
4E87
100
AcDbEntity
  8
SUNPOU
100
AcDbMText
 10
132.9210120029828
 20
162.4904667309698
 30
0.0
 40
3.0
 41
0.0
 71
     5
 72
     1
  1
\A1;121
1001
ACAD
1000
MTEXTBEGIN
1070
    73
1070
     1
1070
    44
1040
1.0
1070
    74
1070
     0
1000
MTEXTEND
  0
POINT
  5
4F38
330
4E87
100
AcDbEntity
  8
DEFPOINTS
 62
     0
100
AcDbPoint
 10
72.23259027408443
 20
92.0089466558303
 30
0.0
  0
POINT
  5
4F39
330
4E87
100
AcDbEntity
  8
DEFPOINTS
 62
     0
100
AcDbPoint
 10
193.6094337318812
 20
128.0994213637288
 30
0.0
  0
POINT
  5
4F3A
330
4E87
100
AcDbEntity
  8
DEFPOINTS
 62
     0
100
AcDbPoint
 10
193.6094337318812
 20
159.9904667309698
 30
0.0
  0
ENDBLK
  5
4E92
330
4E87
100
AcDbEntity
  8
0
100
AcDbBlockEnd
  0
BLOCK
  5
4E9F
330
4E93
100
AcDbEntity
  8
0
100
AcDbBlockBegin
  2
*D67
 70
     1
 10
0.0
 20
0.0
 30
0.0
  3
*D67
  1

  0
LINE
  5
4F3B
330
4E93
100
AcDbEntity
  8
SUNPOU
100
AcDbLine
 10
70.48259027408443
 20
93.2589466558303
 30
0.0
 11
46.82968650226823
 21
93.2589466558303
 31
0.0
  0
LINE
  5
4F3C
330
4E93
100
AcDbEntity
  8
SUNPOU
100
AcDbLine
 10
211.2363136340843
 20
86.84566156583036
 30
0.0
 11
46.82968650226822
 21
86.84566156583041
 31
0.0
  0
LINE
  5
4F3D
330
4E93
100
AcDbEntity
  8
SUNPOU
100
AcDbLine
 10
48.32968650226823
 20
96.25894665583031
 30
0.0
 11
48.32968650226823
 21
99.2589466558303
 31
0.0
  0
LINE
  5
4F3E
330
4E93
100
AcDbEntity
  8
SUNPOU
100
AcDbLine
 10
48.32968650226823
 20
83.84566156583041
 30
0.0
 11
48.32968650226823
 21
80.84566156583042
 31
0.0
  0
LINE
  5
4F3F
330
4E93
100
AcDbEntity
  8
SUNPOU
100
AcDbLine
 10
48.32968650226823
 20
93.2589466558303
 30
0.0
 11
48.32968650226823
 21
86.84566156583041
 31
0.0
  0
INSERT
  5
4F40
330
4E93
100
AcDbEntity
  8
SUNPOU
100
AcDbBlockReference
  2
_OPEN
 10
48.32968650226823
 20
93.2589466558303
 30
0.0
 41
3.0
 42
3.0
 43
3.0
 50
270.0
  0
INSERT
  5
4F41
330
4E93
100
AcDbEntity
  8
SUNPOU
100
AcDbBlockReference
  2
_OPEN
 10
48.32968650226823
 20
86.84566156583041
 30
0.0
 41
3.0
 42
3.0
 43
3.0
 50
90.0
  0
MTEXT
  5
4F42
330
4E93
100
AcDbEntity
  8
SUNPOU
100
AcDbMText
 10
45.82968650226821
 20
90.05230411083037
 30
0.0
 40
3.0
 41
0.0
 71
     5
 72
     1
  1
\A1;6
 11
0.0000000000000001
 21
1.0
 31
0.0
1001
ACAD
1000
MTEXTBEGIN
1070
    73
1070
     1
1070
    44
1040
1.0
1070
    74
1070
     0
1000
MTEXTEND
  0
POINT
  5
4F43
330
4E93
100
AcDbEntity
  8
DEFPOINTS
 62
     0
100
AcDbPoint
 10
73.48259027408443
 20
93.2589466558303
 30
0.0
  0
POINT
  5
4F44
330
4E93
100
AcDbEntity
  8
DEFPOINTS
 62
     0
100
AcDbPoint
 10
214.2363136340843
 20
86.84566156583036
 30
0.0
  0
POINT
  5
4F45
330
4E93
100
AcDbEntity
  8
DEFPOINTS
 62
     0
100
AcDbPoint
 10
48.32968650226823
 20
86.84566156583041
 30
0.0
  0
ENDBLK
  5
4EA0
330
4E93
100
AcDbEntity
  8
0
100
AcDbBlockEnd
  0
BLOCK
  5
4EAB
330
4EA1
100
AcDbEntity
  8
0
100
AcDbBlockBegin
  2
*D68
 70
     1
 10
0.0
 20
0.0
 30
0.0
  3
*D68
  1

  0
LINE
  5
4F46
330
4EA1
100
AcDbEntity
  8
SUNPOU
100
AcDbLine
 10
69.23259027408443
 20
228.4106427684323
 30
0.0
 11
46.32968650226827
 21
228.4106427684323
 31
0.0
  0
LINE
  5
4F47
330
4EA1
100
AcDbEntity
  8
SUNPOU
100
AcDbLine
 10
69.23259027408443
 20
206.4106427284323
 30
0.0
 11
46.32968650226826
 21
206.4106427284323
 31
0.0
  0
LINE
  5
4F48
330
4EA1
100
AcDbEntity
  8
SUNPOU
100
AcDbLine
 10
47.82968650226826
 20
225.4106427684323
 30
0.0
 11
47.82968650226826
 21
209.4106427284323
 31
0.0
  0
INSERT
  5
4F49
330
4EA1
100
AcDbEntity
  8
SUNPOU
100
AcDbBlockReference
  2
_OPEN
 10
47.82968650226826
 20
228.4106427684323
 30
0.0
 41
3.0
 42
3.0
 43
3.0
 50
90.0
  0
INSERT
  5
4F4A
330
4EA1
100
AcDbEntity
  8
SUNPOU
100
AcDbBlockReference
  2
_OPEN
 10
47.82968650226826
 20
206.4106427284323
 30
0.0
 41
3.0
 42
3.0
 43
3.0
 50
270.0
  0
MTEXT
  5
4F4B
330
4EA1
100
AcDbEntity
  8
SUNPOU
100
AcDbMText
 10
45.32968650226822
 20
217.4106427484323
 30
0.0
 40
3.0
 41
0.0
 71
     5
 72
     1
  1
\A1;22
 11
0.0000000000000001
 21
1.0
 31
0.0
1001
ACAD
1000
MTEXTBEGIN
1070
    73
1070
     1
1070
    44
1040
1.0
1070
    74
1070
     0
1000
MTEXTEND
  0
POINT
  5
4F4C
330
4EA1
100
AcDbEntity
  8
DEFPOINTS
 62
     0
100
AcDbPoint
 10
72.23259027408443
 20
228.4106427684323
 30
0.0
  0
POINT
  5
4F4D
330
4EA1
100
AcDbEntity
  8
DEFPOINTS
 62
     0
100
AcDbPoint
 10
72.23259027408443
 20
206.4106427284323
 30
0.0
  0
POINT
  5
4F4E
330
4EA1
100
AcDbEntity
  8
DEFPOINTS
 62
     0
100
AcDbPoint
 10
47.82968650226826
 20
206.4106427284323
 30
0.0
  0
ENDBLK
  5
4EAC
330
4EA1
100
AcDbEntity
  8
0
100
AcDbBlockEnd
  0
BLOCK
  5
4EB7
330
4EAD
100
AcDbEntity
  8
0
100
AcDbBlockBegin
  2
*D69
 70
     1
 10
0.0
 20
0.0
 30
0.0
  3
*D69
  1

  0
LINE
  5
4F4F
330
4EAD
100
AcDbEntity
  8
SUNPOU
100
AcDbLine
 10
286.8505962536178
 20
163.4020264588893
 30
0.0
 11
265.3716835312331
 21
152.6625701014492
 31
0.0
  0
LINE
  5
4F50
330
4EAD
100
AcDbEntity
  8
SUNPOU
100
AcDbLine
 10
302.9502856820921
 20
131.2026475906907
 30
0.0
 11
281.4713729597075
 21
120.4631912332505
 31
0.0
  0
LINE
  5
4F51
330
4EAD
100
AcDbEntity
  8
SUNPOU
100
AcDbLine
 10
268.0549651039516
 20
150.6501089213243
 30
0.0
 11
281.4713729601762
 21
123.8172931995002
 31
0.0
  0
INSERT
  5
4F52
330
4EAD
100
AcDbEntity
  8
SUNPOU
100
AcDbBlockReference
  2
_OPEN
 10
266.7133243178267
 20
153.3333904945116
 30
0.0
 41
3.0
 42
3.0
 43
3.0
 50
116.5650511690706
  0
INSERT
  5
4F53
330
4EAD
100
AcDbEntity
  8
SUNPOU
100
AcDbBlockReference
  2
_OPEN
 10
282.813013746301
 20
121.134011626313
 30
0.0
 41
3.0
 42
3.0
 43
3.0
 50
296.5650511690706
  0
MTEXT
  5
4F54
330
4EAD
100
AcDbEntity
  8
SUNPOU
100
AcDbMText
 10
276.9992370097199
 20
138.3517350488497
 30
0.0
 40
3.0
 41
0.0
 71
     5
 72
     1
  1
\A1;36
 11
0.4472135953749576
 21
-0.8944271910624163
 31
0.0
1001
ACAD
1000
MTEXTBEGIN
1070
    73
1070
     1
1070
    44
1040
1.0
1070
    74
1070
     0
1000
MTEXTEND
  0
POINT
  5
4F55
330
4EAD
100
AcDbEntity
  8
DEFPOINTS
 62
     0
100
AcDbPoint
 10
289.533877826805
 20
164.7436672450141
 30
0.0
  0
POINT
  5
4F56
330
4EAD
100
AcDbEntity
  8
DEFPOINTS
 62
     0
100
AcDbPoint
 10
305.6335672552793
 20
132.5442883768155
 30
0.0
  0
POINT
  5
4F57
330
4EAD
100
AcDbEntity
  8
DEFPOINTS
 62
     0
100
AcDbPoint
 10
282.813013746301
 20
121.134011626313
 30
0.0
  0
ENDBLK
  5
4EB8
330
4EAD
100
AcDbEntity
  8
0
100
AcDbBlockEnd
  0
BLOCK
  5
4EC5
330
4EB9
100
AcDbEntity
  8
0
100
AcDbBlockBegin
  2
*D70
 70
     1
 10
0.0
 20
0.0
 30
0.0
  3
*D70
  1

  0
LINE
  5
4F58
330
4EB9
100
AcDbEntity
  8
SUNPOU
100
AcDbLine
 10
300.4906109129909
 20
136.1219971306117
 30
0.0
 11
287.4051794288683
 21
129.5792813908363
 31
0.0
  0
LINE
  5
4F59
330
4EB9
100
AcDbEntity
  8
SUNPOU
100
AcDbLine
 10
302.9502856820921
 20
131.2026475906906
 30
0.0
 11
289.8648541979695
 21
124.6599318509152
 31
0.0
  0
LINE
  5
4F5A
330
4EB9
100
AcDbEntity
  8
SUNPOU
100
AcDbLine
 10
287.405179429337
 20
132.933383357086
 30
0.0
 11
286.0635386432121
 21
135.6166649302732
 31
0.0
  0
LINE
  5
4F5B
330
4EB9
100
AcDbEntity
  8
SUNPOU
100
AcDbLine
 10
292.5481357706879
 20
122.6474706707904
 30
0.0
 11
293.8897765568128
 21
119.9641890976032
 31
0.0
  0
LINE
  5
4F5C
330
4EB9
100
AcDbEntity
  8
SUNPOU
100
AcDbLine
 10
288.7468202154619
 20
130.2501017838987
 30
0.0
 11
291.206494984563
 21
125.3307522439777
 31
0.0
  0
INSERT
  5
4F5D
330
4EB9
100
AcDbEntity
  8
SUNPOU
100
AcDbBlockReference
  2
_OPEN
 10
288.7468202154619
 20
130.2501017838987
 30
0.0
 41
3.0
 42
3.0
 43
3.0
 50
296.5650511690707
  0
INSERT
  5
4F5E
330
4EB9
100
AcDbEntity
  8
SUNPOU
100
AcDbBlockReference
  2
_OPEN
 10
291.206494984563
 20
125.3307522439777
 30
0.0
 41
3.0
 42
3.0
 43
3.0
 50
116.5650511690707
  0
MTEXT
  5
4F5F
330
4EB9
100
AcDbEntity
  8
SUNPOU
100
AcDbMText
 10
292.2127255776686
 20
128.9084610023756
 30
0.0
 40
3.0
 41
0.0
 71
     5
 72
     1
  1
\A1;6
 11
0.4472135953749599
 21
-0.8944271910624149
 31
0.0
1001
ACAD
1000
MTEXTBEGIN
1070
    73
1070
     1
1070
    44
1040
1.0
1070
    74
1070
     0
1000
MTEXTEND
  0
POINT
  5
4F60
330
4EB9
100
AcDbEntity
  8
DEFPOINTS
 62
     0
100
AcDbPoint
 10
303.1738924861781
 20
137.4636379167366
 30
0.0
  0
POINT
  5
4F61
330
4EB9
100
AcDbEntity
  8
DEFPOINTS
 62
     0
100
AcDbPoint
 10
305.6335672552793
 20
132.5442883768155
 30
0.0
  0
POINT
  5
4F62
330
4EB9
100
AcDbEntity
  8
DEFPOINTS
 62
     0
100
AcDbPoint
 10
291.206494984563
 20
125.3307522439777
 30
0.0
  0
ENDBLK
  5
4EC6
330
4EB9
100
AcDbEntity
  8
0
100
AcDbBlockEnd
  0
BLOCK
  5
4ED1
330
4EC7
100
AcDbEntity
  8
0
100
AcDbBlockBegin
  2
*D71
 70
     1
 10
0.0
 20
0.0
 30
0.0
  3
*D71
  1

  0
LINE
  5
4F63
330
4EC7
100
AcDbEntity
  8
SUNPOU
100
AcDbLine
 10
339.6218005269117
 20
189.7876286034876
 30
0.0
 11
349.467285292999
 21
194.7103709677839
 31
0.0
  0
LINE
  5
4F64
330
4EC7
100
AcDbEntity
  8
SUNPOU
100
AcDbLine
 10
345.8827908492155
 20
177.2656479111927
 30
0.0
 11
355.7282756153027
 21
182.188390275489
 31
0.0
  0
LINE
  5
4F65
330
4EC7
100
AcDbEntity
  8
SUNPOU
100
AcDbLine
 10
349.4672852878896
 20
191.3562690015342
 30
0.0
 11
353.0449940453686
 21
184.2008514593263
 31
0.0
  0
INSERT
  5
4F66
330
4EC7
100
AcDbEntity
  8
SUNPOU
100
AcDbBlockReference
  2
_OPEN
 10
348.1256445054772
 20
194.0395505765777
 30
0.0
 41
3.0
 42
3.0
 43
3.0
 50
116.5650510897982
  0
INSERT
  5
4F67
330
4EC7
100
AcDbEntity
  8
SUNPOU
100
AcDbBlockReference
  2
_OPEN
 10
354.386634827781
 20
181.5175698842828
 30
0.0
 41
3.0
 42
3.0
 43
3.0
 50
296.5650510897982
  0
MTEXT
  5
4F68
330
4EC7
100
AcDbEntity
  8
SUNPOU
100
AcDbMText
 10
353.492207645832
 20
188.8965942157739
 30
0.0
 40
3.0
 41
0.0
 71
     5
 72
     1
  1
\A1;14
 11
0.4472135941374604
 21
-0.8944271916811649
 31
0.0
1001
ACAD
1000
MTEXTBEGIN
1070
    73
1070
     1
1070
    44
1040
1.0
1070
    74
1070
     0
1000
MTEXTEND
  0
POINT
  5
4F69
330
4EC7
100
AcDbEntity
  8
DEFPOINTS
 62
     0
100
AcDbPoint
 10
336.9385189518682
 20
188.4459878210752
 30
0.0
  0
POINT
  5
4F6A
330
4EC7
100
AcDbEntity
  8
DEFPOINTS
 62
     0
100
AcDbPoint
 10
343.1995092741719
 20
175.9240071287803
 30
0.0
  0
POINT
  5
4F6B
330
4EC7
100
AcDbEntity
  8
DEFPOINTS
 62
     0
100
AcDbPoint
 10
354.386634827781
 20
181.5175698842828
 30
0.0
  0
ENDBLK
  5
4ED2
330
4EC7
100
AcDbEntity
  8
0
100
AcDbBlockEnd
  0
BLOCK
  5
4EDD
330
4ED3
100
AcDbEntity
  8
0
100
AcDbBlockBegin
  2
*D72
 70
     1
 10
0.0
 20
0.0
 30
0.0
  3
*D72
  1

  0
LINE
  5
4F6C
330
4ED3
100
AcDbEntity
  8
SUNPOU
100
AcDbLine
 10
293.2904720204425
 20
169.5288527267082
 30
0.0
 11
278.6921359877902
 21
198.7255247702508
 31
0.0
  0
LINE
  5
4F6D
330
4ED3
100
AcDbEntity
  8
SUNPOU
100
AcDbLine
 10
330.8564140204425
 20
188.3118237407082
 30
0.0
 11
316.2580779877903
 21
217.5084957842508
 31
0.0
  0
LINE
  5
4F6E
330
4ED3
100
AcDbEntity
  8
SUNPOU
100
AcDbLine
 10
282.0462379540399
 20
198.7255247712508
 30
0.0
 11
314.2456168088405
 21
214.825214210651
 31
0.0
  0
INSERT
  5
4F6F
330
4ED3
100
AcDbEntity
  8
SUNPOU
100
AcDbBlockReference
  2
_OPEN
 10
279.3629563814401
 20
197.3838839839509
 30
0.0
 41
3.0
 42
3.0
 43
3.0
 50
206.5650511941603
  0
INSERT
  5
4F70
330
4ED3
100
AcDbEntity
  8
SUNPOU
100
AcDbBlockReference
  2
_OPEN
 10
316.9288983814402
 20
216.1668549979509
 30
0.0
 41
3.0
 42
3.0
 43
3.0
 50
26.56505119416025
  0
MTEXT
  5
4F71
330
4ED3
100
AcDbEntity
  8
SUNPOU
100
AcDbMText
 10
297.0278933920237
 20
209.0114374681173
 30
0.0
 40
3.0
 41
0.0
 71
     5
 72
     1
  1
\A1;42
 11
0.8944271908665829
 21
0.4472135957666241
 31
0.0
1001
ACAD
1000
MTEXTBEGIN
1070
    73
1070
     1
1070
    44
1040
1.0
1070
    74
1070
     0
1000
MTEXTEND
  0
POINT
  5
4F72
330
4ED3
100
AcDbEntity
  8
DEFPOINTS
 62
     0
100
AcDbPoint
 10
294.6321128077423
 20
166.8455711541085
 30
0.0
  0
POINT
  5
4F73
330
4ED3
100
AcDbEntity
  8
DEFPOINTS
 62
     0
100
AcDbPoint
 10
332.1980548077424
 20
185.6285421681085
 30
0.0
  0
POINT
  5
4F74
330
4ED3
100
AcDbEntity
  8
DEFPOINTS
 62
     0
100
AcDbPoint
 10
316.9288983814402
 20
216.1668549979509
 30
0.0
  0
ENDBLK
  5
4EDE
330
4ED3
100
AcDbEntity
  8
0
100
AcDbBlockEnd
  0
BLOCK
  5
4EEB
330
4EDF
100
AcDbEntity
  8
0
100
AcDbBlockBegin
  2
*D73
 70
     1
 10
0.0
 20
0.0
 30
0.0
  3
*D73
  1

  0
LINE
  5
4F75
330
4EDF
100
AcDbEntity
  8
SUNPOU
100
AcDbLine
 10
286.8505962536177
 20
163.4020264588893
 30
0.0
 11
273.7651647694952
 21
156.8593107191141
 31
0.0
  0
LINE
  5
4F76
330
4EDF
100
AcDbEntity
  8
SUNPOU
100
AcDbLine
 10
289.3102710241158
 20
158.4826769161742
 30
0.0
 11
276.2248395399934
 21
151.939961176399
 31
0.0
  0
LINE
  5
4F77
330
4EDF
100
AcDbEntity
  8
SUNPOU
100
AcDbLine
 10
273.7651647699641
 20
160.2134126853638
 30
0.0
 11
272.4235239838392
 21
162.896694258551
 31
0.0
  0
LINE
  5
4F78
330
4EDF
100
AcDbEntity
  8
SUNPOU
100
AcDbLine
 10
278.9081211127119
 20
149.9274999962742
 30
0.0
 11
280.2497618988367
 21
147.2442184230869
 31
0.0
  0
LINE
  5
4F79
330
4EDF
100
AcDbEntity
  8
SUNPOU
100
AcDbLine
 10
275.1068055560889
 20
157.5301311121765
 30
0.0
 11
277.566480326587
 21
152.6107815694614
 31
0.0
  0
INSERT
  5
4F7A
330
4EDF
100
AcDbEntity
  8
SUNPOU
100
AcDbBlockReference
  2
_OPEN
 10
275.1068055560889
 20
157.5301311121765
 30
0.0
 41
3.0
 42
3.0
 43
3.0
 50
296.5650511690702
  0
INSERT
  5
4F7B
330
4EDF
100
AcDbEntity
  8
SUNPOU
100
AcDbBlockReference
  2
_OPEN
 10
277.566480326587
 20
152.6107815694614
 30
0.0
 41
3.0
 42
3.0
 43
3.0
 50
116.5650511690702
  0
MTEXT
  5
4F7C
330
4EDF
100
AcDbEntity
  8
SUNPOU
100
AcDbMText
 10
278.572710918994
 20
156.1884903292563
 30
0.0
 40
3.0
 41
0.0
 71
     5
 72
     1
  1
\A1;6
 11
0.4472135953749519
 21
-0.8944271910624188
 31
0.0
1001
ACAD
1000
MTEXTBEGIN
1070
    73
1070
     1
1070
    44
1040
1.0
1070
    74
1070
     0
1000
MTEXTEND
  0
POINT
  5
4F7D
330
4EDF
100
AcDbEntity
  8
DEFPOINTS
 62
     0
100
AcDbPoint
 10
289.533877826805
 20
164.7436672450141
 30
0.0
  0
POINT
  5
4F7E
330
4EDF
100
AcDbEntity
  8
DEFPOINTS
 62
     0
100
AcDbPoint
 10
291.9935525973031
 20
159.824317702299
 30
0.0
  0
POINT
  5
4F7F
330
4EDF
100
AcDbEntity
  8
DEFPOINTS
 62
     0
100
AcDbPoint
 10
277.566480326587
 20
152.6107815694614
 30
0.0
  0
ENDBLK
  5
4EEC
330
4EDF
100
AcDbEntity
  8
0
100
AcDbBlockEnd
  0
BLOCK
  5
4EF7
330
4EED
100
AcDbEntity
  8
0
100
AcDbBlockBegin
  2
*D74
 70
     1
 10
0.0
 20
0.0
 30
0.0
  3
*D74
  1

  0
LINE
  5
4F80
330
4EED
100
AcDbEntity
  8
SUNPOU
100
AcDbLine
 10
288.1922370396925
 20
167.4269488177076
 30
0.0
 11
269.8472903127061
 21
204.1168422507376
 31
0.0
  0
LINE
  5
4F81
330
4EED
100
AcDbEntity
  8
SUNPOU
100
AcDbLine
 10
335.5968781647558
 20
191.1292693937686
 30
0.0
 11
317.2519314377693
 21
227.8191628267986
 31
0.0
  0
LINE
  5
4F82
330
4EED
100
AcDbEntity
  8
SUNPOU
100
AcDbLine
 10
273.2013922789558
 20
204.1168422515034
 30
0.0
 11
315.2394702586322
 21
225.1358812533394
 31
0.0
  0
INSERT
  5
4F83
330
4EED
100
AcDbEntity
  8
SUNPOU
100
AcDbBlockReference
  2
_OPEN
 10
270.5181107062624
 20
202.7752014643909
 30
0.0
 41
3.0
 42
3.0
 43
3.0
 50
206.5650511901599
  0
INSERT
  5
4F84
330
4EED
100
AcDbEntity
  8
SUNPOU
100
AcDbBlockReference
  2
_OPEN
 10
317.9227518313256
 20
226.4775220404519
 30
0.0
 41
3.0
 42
3.0
 43
3.0
 50
26.56505119015989
  0
MTEXT
  5
4F85
330
4EED
100
AcDbEntity
  8
SUNPOU
100
AcDbMText
 10
293.1023972795335
 20
216.8624297296659
 30
0.0
 40
3.0
 41
0.0
 71
     5
 72
     1
  1
\A1;53
 11
0.894427190897807
 21
0.4472135957041756
 31
0.0
1001
ACAD
1000
MTEXTBEGIN
1070
    73
1070
     1
1070
    44
1040
1.0
1070
    74
1070
     0
1000
MTEXTEND
  0
POINT
  5
4F86
330
4EED
100
AcDbEntity
  8
DEFPOINTS
 62
     0
100
AcDbPoint
 10
289.533877826805
 20
164.7436672450141
 30
0.0
  0
POINT
  5
4F87
330
4EED
100
AcDbEntity
  8
DEFPOINTS
 62
     0
100
AcDbPoint
 10
336.9385189518683
 20
188.4459878210752
 30
0.0
  0
POINT
  5
4F88
330
4EED
100
AcDbEntity
  8
DEFPOINTS
 62
     0
100
AcDbPoint
 10
317.9227518313256
 20
226.4775220404519
 30
0.0
  0
ENDBLK
  5
4EF8
330
4EED
100
AcDbEntity
  8
0
100
AcDbBlockEnd
  0
BLOCK
  5
4F03
330
4EF9
100
AcDbEntity
  8
0
100
AcDbBlockBegin
  2
*D75
 70
     1
 10
0.0
 20
0.0
 30
0.0
  3
*D75
  1

  0
LINE
  5
4F89
330
4EF9
100
AcDbEntity
  8
SUNPOU
100
AcDbLine
 10
297.9191327380459
 20
163.6256332623219
 30
0.0
 11
283.8549587755541
 21
191.7539811921439
 31
0.0
  0
LINE
  5
4F8A
330
4EF9
100
AcDbEntity
  8
SUNPOU
100
AcDbLine
 10
332.801793188046
 20
181.0669634843219
 30
0.0
 11
318.7376192255541
 21
209.195311414144
 31
0.0
  0
LINE
  5
4F8B
330
4EF9
100
AcDbEntity
  8
SUNPOU
100
AcDbLine
 10
287.2090607418038
 20
191.7539811919131
 30
0.0
 11
316.7251580456197
 21
206.5120298412827
 31
0.0
  0
INSERT
  5
4F8C
330
4EF9
100
AcDbEntity
  8
SUNPOU
100
AcDbBlockReference
  2
_OPEN
 10
284.5257791687117
 20
190.4123404055979
 30
0.0
 41
3.0
 42
3.0
 43
3.0
 50
206.5650511731359
  0
INSERT
  5
4F8D
330
4EF9
100
AcDbEntity
  8
SUNPOU
100
AcDbBlockReference
  2
_OPEN
 10
319.4084396187117
 20
207.8536706275979
 30
0.0
 41
3.0
 42
3.0
 43
3.0
 50
26.56505117313592
  0
MTEXT
  5
4F8E
330
4EF9
100
AcDbEntity
  8
SUNPOU
100
AcDbMText
 10
300.8490754051157
 20
201.3690734941746
 30
0.0
 40
3.0
 41
0.0
 71
     5
 72
     1
  1
\A1;39
 11
0.894427191030685
 21
0.4472135954384196
 31
0.0
1001
ACAD
1000
MTEXTBEGIN
1070
    73
1070
     1
1070
    44
1040
1.0
1070
    74
1070
     0
1000
MTEXTEND
  0
POINT
  5
4F8F
330
4EF9
100
AcDbEntity
  8
DEFPOINTS
 62
     0
100
AcDbPoint
 10
299.2607735243612
 20
160.9423516892299
 30
0.0
  0
POINT
  5
4F90
330
4EF9
100
AcDbEntity
  8
DEFPOINTS
 62
     0
100
AcDbPoint
 10
334.1434339743613
 20
178.3836819112299
 30
0.0
  0
POINT
  5
4F91
330
4EF9
100
AcDbEntity
  8
DEFPOINTS
 62
     0
100
AcDbPoint
 10
319.4084396187117
 20
207.8536706275979
 30
0.0
  0
ENDBLK
  5
4F04
330
4EF9
100
AcDbEntity
  8
0
100
AcDbBlockEnd
  0
ENDSEC
  0
SECTION
  2
ENTITIES
  0
LWPOLYLINE
  5
2A43
330
1A
100
AcDbEntity
  8
ZUWAKU
100
AcDbPolyline
 90
        4
 70
     1
 43
0.0
 10
0.3999996775634145
 20
275.4000000308041
 10
0.3999996775634145
 20
0.4000000308041649
 10
398.3999996775634
 20
0.4000000308041649
 10
398.3999996775634
 20
275.4000000308041
  0
LWPOLYLINE
  5
2A44
330
1A
100
AcDbEntity
  8
ZUWAKU
100
AcDbPolyline
 90
        4
 70
     1
 43
0.0
 10
0.1999996775634258
 20
275.6000000308041
 10
0.1999996775634258
 20
0.2000000308041763
 10
398.5999996775634
 20
0.2000000308041647
 10
398.5999996775634
 20
275.6000000308041
  0
LWPOLYLINE
  5
2A45
330
1A
100
AcDbEntity
  8
ZUWAKU
100
AcDbPolyline
 90
        4
 70
     1
 43
0.0
 10
-0.0000003224365628
 20
275.8000000308041
 10
-0.0000003224365628
 20
0.0000000308041308
 10
398.7999996775635
 20
0.0000000308041646
 10
398.7999996775635
 20
275.8000000308042
  0
LWPOLYLINE
  5
2A46
330
1A
100
AcDbEntity
  8
ZUWAKU
100
AcDbPolyline
 90
        4
 70
     1
 43
0.0
 10
0.2999996775633917
 20
275.5000000308041
 10
0.2999996775633917
 20
0.3000000308041422
 10
398.4999996775635
 20
0.3000000308041653
 10
398.4999996775634
 20
275.5000000308041
  0
LWPOLYLINE
  5
2A47
330
1A
100
AcDbEntity
  8
ZUWAKU
100
AcDbPolyline
 90
        4
 70
     1
 43
0.0
 10
0.0999996775634031
 20
275.7000000308041
 10
0.0999996775634031
 20
0.1000000308041535
 10
398.6999996775633
 20
0.1000000308041651
 10
398.6999996775634
 20
275.7000000308041
  0
LINE
  5
2A48
330
1A
100
AcDbEntity
  8
ZUWAKU
100
AcDbLine
 10
-0.0000003224365628
 20
15.00000003080413
 30
0.0
 11
398.6999996775633
 21
15.00000003080413
 31
0.0
  0
LINE
  5
2A49
330
1A
100
AcDbEntity
  8
ZUWAKU
100
AcDbLine
 10
-0.0000003224365628
 20
15.10000003080413
 30
0.0
 11
398.6999996775633
 21
15.10000003080413
 31
0.0
  0
LINE
  5
2A4A
330
1A
100
AcDbEntity
  8
ZUWAKU
100
AcDbLine
 10
-0.0000003224365628
 20
15.20000003080413
 30
0.0
 11
398.6999996775633
 21
15.20000003080413
 31
0.0
  0
LINE
  5
2A4B
330
1A
100
AcDbEntity
  8
ZUWAKU
100
AcDbLine
 10
-0.0000003224365628
 20
15.30000003080413
 30
0.0
 11
398.6999996775633
 21
15.30000003080413
 31
0.0
  0
LINE
  5
2A4C
330
1A
100
AcDbEntity
  8
ZUWAKU
100
AcDbLine
 10
-0.0000003224365628
 20
15.40000003080413
 30
0.0
 11
398.6999996775633
 21
15.40000003080413
 31
0.0
  0
LINE
  5
2A4D
330
1A
100
AcDbEntity
  8
ZUWAKU
100
AcDbLine
 10
104.3233003225974
 20
7.700000030804147
 30
0.0
 11
223.7121816630591
 21
7.700000030804147
 31
0.0
  0
LINE
  5
2A4E
330
1A
100
AcDbEntity
  8
ZUWAKU
100
AcDbLine
 10
104.3233003225974
 20
7.800000030804147
 30
0.0
 11
223.7121816630591
 21
7.800000030804151
 31
0.0
  0
LINE
  5
2A4F
330
1A
100
AcDbEntity
  8
ZUWAKU
100
AcDbLine
 10
104.3233003225974
 20
7.600000030804149
 30
0.0
 11
223.7121816630591
 21
7.600000030804146
 31
0.0
  0
TEXT
  5
2A50
330
1A
100
AcDbEntity
  8
MOJI
100
AcDbText
 10
46.478894471648
 20
6.370589095941511
 30
0.0
 40
3.0
  1
ライナートップ
 41
0.9
  7
ｽﾀｲﾙ1
100
AcDbText
  0
CIRCLE
  5
2A51
330
1A
100
AcDbEntity
  8
ZUWAKU
100
AcDbCircle
 10
12.99610575495398
 20
7.600000030804132
 30
0.0
 40
0.875
  0
LINE
  5
2A52
330
1A
100
AcDbEntity
  8
ZUWAKU
100
AcDbLine
 10
13.43360575495398
 20
3.575000030804133
 30
0.0
 11
12.47110575495401
 21
3.575000030804133
 31
0.0
  0
LINE
  5
2A53
330
1A
100
AcDbEntity
  8
ZUWAKU
100
AcDbLine
 10
12.47110575495401
 20
4.975000030804132
 30
0.0
 11
13.43360575495398
 21
4.975000030804132
 31
0.0
  0
LINE
  5
2A54
330
1A
100
AcDbEntity
  8
ZUWAKU
100
AcDbLine
 10
13.43360575495398
 20
10.22500003080413
 30
0.0
 11
12.47110575495401
 21
10.22500003080413
 31
0.0
  0
LINE
  5
2A55
330
1A
100
AcDbEntity
  8
ZUWAKU
100
AcDbLine
 10
12.47110575495401
 20
11.62500003080411
 30
0.0
 11
13.43360575495398
 21
11.62500003080413
 31
0.0
  0
HATCH
  5
2A56
330
1A
100
AcDbEntity
  8
ZUWAKU
100
AcDbHatch
 10
0.0
 20
0.0
 30
0.0
210
0.0
220
0.0
230
1.0
  2
ANSI37
 70
     0
 71
     0
 91
        8
 92
        7
 72
     1
 73
     1
 93
       24
 10
7.251131008123365
 20
8.822424271295922
 42
-0.1989123673796348
 10
7.046105754953998
 20
9.317399018126447
 42
0.0
 10
7.046105754953998
 20
9.962500030804136
 42
-0.4142135623730912
 10
7.308605754953987
 20
10.22500003080413
 42
0.0
 10
8.796105754953941
 20
10.22500003080413
 42
0.4142135623731546
 10
9.058605754953987
 20
10.48750003080412
 42
0.0
 10
9.058605754953987
 20
11.36250003080413
 42
0.4142135623731586
 10
8.796105754953941
 20
11.62500003080413
 42
0.0
 10
7.046105754953998
 20
11.62500003080413
 42
0.4142135623730928
 10
5.646105754954021
 20
10.22500003080414
 42
0.0
 10
5.646105754954021
 20
9.317399018126511
 42
0.1989123673796619
 10
6.261181514462236
 20
7.832474777634708
 42
0.0
 10
7.716080501784574
 20
6.377575790312379
 42
-0.1989123673796613
 10
7.921105754953998
 20
5.882601043481786
 42
0.0
 10
7.921105754953998
 20
5.237500030804127
 42
-0.4142135623730911
 10
7.65860575495401
 20
4.975000030804132
 42
0.0
 10
6.171105754954055
 20
4.975000030804132
 42
0.4142135623731526
 10
5.90860575495401
 20
4.712500030804138
 42
0.0
 10
5.90860575495401
 20
3.837500030804127
 42
0.4142135623731526
 10
6.171105754954055
 20
3.575000030804133
 42
0.0
 10
7.921105754953998
 20
3.575000030804133
 42
0.4142135623731044
 10
9.321105754954032
 20
4.975000030804121
 42
0.0
 10
9.321105754954032
 20
5.882601043481757
 42
0.1989123673796604
 10
8.70602999544576
 20
7.367525283973527
 42
0.0
 97
        0
 92
        7
 72
     1
 73
     1
 93
       16
 10
11.77110575495402
 20
9.525000030804136
 42
-0.4142135623730935
 10
12.47110575495401
 20
10.22500003080413
 42
0.0
 10
13.43360575495398
 20
10.22500003080413
 42
0.4142135623731546
 10
13.69610575495403
 20
10.48750003080412
 42
0.0
 10
13.69610575495403
 20
11.36250003080413
 42
0.4142135623730951
 10
13.43360575495404
 20
11.62500003080413
 42
0.0
 10
12.47110575495395
 20
11.62500003080411
 42
0.4142135623730892
 10
10.37110575495398
 20
9.5250000308041
 42
0.0
 10
10.37110575495398
 20
5.675000030804145
 42
0.4142135623730969
 10
12.47110575495401
 20
3.575000030804133
 42
0.0
 10
13.43360575495398
 20
3.575000030804133
 42
0.4142135623731526
 10
13.69610575495403
 20
3.837500030804127
 42
0.0
 10
13.69610575495403
 20
4.712500030804138
 42
0.4142135623730891
 10
13.43360575495404
 20
4.975000030804132
 42
0.0
 10
12.47110575495401
 20
4.975000030804132
 42
-0.4142135623730928
 10
11.77110575495402
 20
5.675000030804126
 42
0.0
 97
        0
 92
        7
 72
     1
 73
     1
 93
        2
 10
12.12110575495398
 20
7.600000030804132
 42
1.0
 10
13.87110575495398
 20
7.600000030804132
 42
1.0
 97
        0
 92
        7
 72
     1
 73
     1
 93
       26
 10
18.65742899604299
 20
9.602523627585846
 42
0.0
 10
19.1882488126119
 20
11.28345304672064
 42
0.5069206636600134
 10
18.93793336301422
 20
11.62500003080413
 42
0.0
 10
18.08848867320961
 20
11.62500003080413
 42
0.3272098845218764
 10
17.83817322361193
 20
11.44154701488761
 42
0.0
 10
16.90403828629604
 20
8.483453046720672
 42
-0.3272098845219541
 10
16.6537228366983
 20
8.300000030804131
 42
0.0
 10
16.58360575495407
 20
8.300000030804131
 42
-0.4142135623731526
 10
16.32110575495403
 20
8.562500030804125
 42
0.0
 10
16.32110575495403
 20
11.36250003080413
 42
0.4142135623730951
 10
16.05860575495404
 20
11.62500003080413
 42
0.0
 10
15.18360575495398
 20
11.62500003080413
 42
0.4142135623730871
 10
14.921105754954
 20
11.36250003080414
 42
0.0
 10
14.921105754954
 20
3.837500030804127
 42
0.4142135623730891
 10
15.18360575495398
 20
3.575000030804133
 42
0.0
 10
16.05860575495398
 20
3.575000030804133
 42
0.4142135623731526
 10
16.32110575495403
 20
3.837500030804127
 42
0.0
 10
16.32110575495403
 20
6.637500030804138
 42
-0.4142135623731526
 10
16.58360575495407
 20
6.900000030804132
 42
0.0
 10
16.65372283669836
 20
6.900000030804132
 42
-0.3272098845218915
 10
16.90403828629604
 20
6.716547014887595
 42
0.0
 10
17.83817322361193
 20
3.758453046720669
 42
0.3272098845218902
 10
18.08848867320961
 20
3.575000030804133
 42
0.0
 10
18.93793336301422
 20
3.575000030804133
 42
0.5069206636600335
 10
19.1882488126119
 20
3.916547014887637
 42
0.0
 10
18.02505312337507
 20
7.600000030804201
 42
0.0
 97
        0
 92
        7
 72
     1
 73
     1
 93
        8
 10
21.74610575495398
 20
11.36250003080413
 42
0.4142135623731546
 10
21.48360575495394
 20
11.62500003080413
 42
0.0
 10
20.60860575495405
 20
11.62500003080413
 42
0.4142135623731507
 10
20.346105754954
 20
11.36250003080414
 42
0.0
 10
20.346105754954
 20
3.837500030804127
 42
0.4142135623731526
 10
20.60860575495405
 20
3.575000030804133
 42
0.0
 10
21.48360575495394
 20
3.575000030804133
 42
0.4142135623731526
 10
21.74610575495398
 20
3.837500030804127
 42
0.0
 97
        0
 92
        7
 72
     1
 73
     1
 93
       24
 10
24.19610575495403
 20
9.962500030804136
 42
-0.4142135623731546
 10
24.45860575495407
 20
10.22500003080413
 42
0.0
 10
25.94610575495403
 20
10.22500003080413
 42
0.4142135623730911
 10
26.20860575495402
 20
10.48750003080412
 42
0.0
 10
26.20860575495402
 20
11.36250003080413
 42
0.4142135623730952
 10
25.94610575495403
 20
11.62500003080413
 42
0.0
 10
24.19610575495403
 20
11.62500003080413
 42
0.4142135623731048
 10
22.796105754954
 20
10.22500003080414
 42
0.0
 10
22.796105754954
 20
9.317399018126511
 42
0.1989123673796613
 10
23.41118151446227
 20
7.832474777634736
 42
0.0
 10
24.8660805017846
 20
6.377575790312402
 42
-0.1989123673796402
 10
25.07110575495403
 20
5.882601043481866
 42
0.0
 10
25.07110575495403
 20
5.237500030804127
 42
-0.4142135623730911
 10
24.80860575495404
 20
4.975000030804132
 42
0.0
 10
23.32110575495403
 20
4.975000030804132
 42
0.4142135623731526
 10
23.05860575495398
 20
4.712500030804138
 42
0.0
 10
23.05860575495398
 20
3.837500030804127
 42
0.4142135623730891
 10
23.32110575495397
 20
3.575000030804133
 42
0.0
 10
25.07110575495403
 20
3.575000030804133
 42
0.4142135623730925
 10
26.47110575495401
 20
4.975000030804121
 42
0.0
 10
26.47110575495401
 20
5.882601043481757
 42
0.1989123673796675
 10
25.85602999544573
 20
7.367525283973584
 42
0.0
 10
24.40113100812345
 20
8.822424271295842
 42
-0.1989123673796652
 10
24.19610575495403
 20
9.317399018126426
 42
0.0
 97
        0
 92
        7
 72
     1
 73
     1
 93
       16
 10
28.92110575495399
 20
11.36250003080412
 42
0.414213562373103
 10
28.65860575495401
 20
11.62500003080413
 42
0.0
 10
27.78360575495401
 20
11.62500003080413
 42
0.4142135623730871
 10
27.52110575495402
 20
11.36250003080414
 42
0.0
 10
27.52110575495402
 20
4.975000030804121
 42
0.4142135623730926
 10
28.92110575495399
 20
3.575000030804133
 42
0.0
 10
30.671105754954
 20
3.575000030804133
 42
0.4142135623731044
 10
32.07110575495403
 20
4.975000030804121
 42
0.0
 10
32.07110575495403
 20
11.36250003080413
 42
0.4142135623730951
 10
31.80860575495404
 20
11.62500003080413
 42
0.0
 10
30.93360575495399
 20
11.62500003080413
 42
0.4142135623730871
 10
30.671105754954
 20
11.36250003080414
 42
0.0
 10
30.671105754954
 20
5.50000003080412
 42
-0.414213562373088
 10
30.14610575495402
 20
4.975000030804132
 42
0.0
 10
29.44610575495403
 20
4.975000030804132
 42
-0.4142135623731197
 10
28.92110575495399
 20
5.50000003080412
 42
0.0
 97
        0
 92
        7
 72
     1
 73
     1
 93
        8
 10
34.52110575495402
 20
11.36250003080414
 42
0.4142135623730871
 10
34.25860575495403
 20
11.62500003080413
 42
0.0
 10
33.38360575495403
 20
11.62500003080413
 42
0.4142135623731507
 10
33.12110575495399
 20
11.36250003080414
 42
0.0
 10
33.12110575495399
 20
3.837500030804127
 42
0.4142135623730891
 10
33.38360575495397
 20
3.575000030804133
 42
0.0
 10
34.25860575495403
 20
3.575000030804133
 42
0.4142135623730891
 10
34.52110575495402
 20
3.837500030804127
 42
0.0
 97
        0
 75
     0
 76
     1
 52
0.0
 41
0.1
 77
     0
 78
     2
 53
45.0
 43
-450.471152489776
 44
-6.599999969195835
 45
-0.2245064030267288
 46
0.2245064030267288
 79
     0
 53
135.0
 43
-450.471152489776
 44
-6.599999969195835
 45
-0.2245064030267288
 46
-0.2245064030267288
 79
     0
 47
0.057451373970553
 98
        8
 10
8.039927159075091
 20
7.583586853746908
 10
11.20225718078302
 20
9.422031122029636
 10
12.58218362039326
 20
7.75594085383949
 10
15.457029668382
 20
8.100648854024882
 10
20.9192356870418
 20
8.33045498779569
 10
23.44910012512821
 20
9.709288189007736
 10
28.27884266376361
 20
9.364578988351638
 10
33.9135394873748
 20
9.594385122122446
  0
ARC
  5
2A57
330
1A
100
AcDbEntity
  8
ZUWAKU
100
AcDbCircle
 10
7.746105754953987
 20
9.317399018126483
 30
0.0
 40
2.099999999999999
100
AcDbArc
 50
180.0
 51
225.0
  0
LINE
  5
2A58
330
1A
100
AcDbEntity
  8
ZUWAKU
100
AcDbLine
 10
10.37110575495398
 20
5.675000030804135
 30
0.0
 11
10.37110575495398
 21
9.525000030804111
 31
0.0
  0
LINE
  5
2A59
330
1A
100
AcDbEntity
  8
ZUWAKU
100
AcDbLine
 10
11.77110575495402
 20
9.525000030804132
 30
0.0
 11
11.77110575495402
 21
5.675000030804135
 31
0.0
  0
ARC
  5
2A5A
330
1A
100
AcDbEntity
  8
ZUWAKU
100
AcDbCircle
 10
7.746105754953987
 20
9.317399018126483
 30
0.0
 40
0.7
100
AcDbArc
 50
180.0000000000016
 51
224.9999999999988
  0
ARC
  5
2A5B
330
1A
100
AcDbEntity
  8
ZUWAKU
100
AcDbCircle
 10
12.47110575495401
 20
5.675000030804135
 30
0.0
 40
2.099999999999999
100
AcDbArc
 50
180.0
 51
270.0
  0
ARC
  5
2A5C
330
1A
100
AcDbEntity
  8
ZUWAKU
100
AcDbCircle
 10
7.921105754953998
 20
4.975000030804132
 30
0.0
 40
1.399999999999999
100
AcDbArc
 50
270.0
 51
0.0
  0
ARC
  5
2A5D
330
1A
100
AcDbEntity
  8
ZUWAKU
100
AcDbCircle
 10
7.22110575495401
 20
5.882601043481784
 30
0.0
 40
2.099999999999999
100
AcDbArc
 50
0.0
 51
45.0
  0
LINE
  5
2A5E
330
1A
100
AcDbEntity
  8
ZUWAKU
100
AcDbLine
 10
6.261181514462236
 20
7.832474777634722
 30
0.0
 11
7.716080501784574
 21
6.377575790312391
 31
0.0
  0
LINE
  5
2A5F
330
1A
100
AcDbEntity
  8
ZUWAKU
100
AcDbLine
 10
6.171105754953998
 20
4.975000030804132
 30
0.0
 11
7.65860575495401
 21
4.975000030804132
 31
0.0
  0
LINE
  5
2A60
330
1A
100
AcDbEntity
  8
ZUWAKU
100
AcDbLine
 10
6.171105754953998
 20
3.575000030804133
 30
0.0
 11
7.921105754953998
 21
3.575000030804133
 31
0.0
  0
ARC
  5
2A61
330
1A
100
AcDbEntity
  8
ZUWAKU
100
AcDbCircle
 10
6.171105754953998
 20
4.712500030804132
 30
0.0
 40
0.2625
100
AcDbArc
 50
90.0
 51
180.0
  0
ARC
  5
2A62
330
1A
100
AcDbEntity
  8
ZUWAKU
100
AcDbCircle
 10
6.171105754953998
 20
3.837500030804132
 30
0.0
 40
0.2625
100
AcDbArc
 50
180.0
 51
270.0
  0
LINE
  5
2A63
330
1A
100
AcDbEntity
  8
ZUWAKU
100
AcDbLine
 10
5.90860575495401
 20
3.837500030804132
 30
0.0
 11
5.90860575495401
 21
4.712500030804132
 31
0.0
  0
ARC
  5
2A64
330
1A
100
AcDbEntity
  8
ZUWAKU
100
AcDbCircle
 10
7.22110575495401
 20
5.882601043481805
 30
0.0
 40
0.7
100
AcDbArc
 50
0.0
 51
45.0
  0
ARC
  5
2A65
330
1A
100
AcDbEntity
  8
ZUWAKU
100
AcDbCircle
 10
7.65860575495401
 20
5.237500030804135
 30
0.0
 40
0.2625
100
AcDbArc
 50
270.0
 51
0.0
  0
LINE
  5
2A66
330
1A
100
AcDbEntity
  8
ZUWAKU
100
AcDbLine
 10
7.921105754953998
 20
5.237500030804135
 30
0.0
 11
7.921105754953998
 21
5.882601043481805
 31
0.0
  0
LINE
  5
2A67
330
1A
100
AcDbEntity
  8
ZUWAKU
100
AcDbLine
 10
8.70602999544576
 20
7.367525283973545
 30
0.0
 11
7.251131008123422
 21
8.822424271295883
 31
0.0
  0
ARC
  5
2A68
330
1A
100
AcDbEntity
  8
ZUWAKU
100
AcDbCircle
 10
12.47110575495401
 20
5.675000030804135
 30
0.0
 40
0.7
100
AcDbArc
 50
180.0
 51
270.0
  0
LINE
  5
2A69
330
1A
100
AcDbEntity
  8
ZUWAKU
100
AcDbLine
 10
9.321105754954032
 20
4.975000030804132
 30
0.0
 11
9.321105754954032
 21
5.882601043481805
 31
0.0
  0
ARC
  5
2A6A
330
1A
100
AcDbEntity
  8
ZUWAKU
100
AcDbCircle
 10
8.796105754953998
 20
10.48750003080413
 30
0.0
 40
0.2625
100
AcDbArc
 50
270.0
 51
0.0
  0
ARC
  5
2A6B
330
1A
100
AcDbEntity
  8
ZUWAKU
100
AcDbCircle
 10
8.796105754953998
 20
11.36250003080413
 30
0.0
 40
0.2625
100
AcDbArc
 50
0.0
 51
90.0
  0
ARC
  5
2A6C
330
1A
100
AcDbEntity
  8
ZUWAKU
100
AcDbCircle
 10
7.046105754953998
 20
10.22500003080413
 30
0.0
 40
1.399999999999999
100
AcDbArc
 50
90.0
 51
180.0
  0
LINE
  5
2A6D
330
1A
100
AcDbEntity
  8
ZUWAKU
100
AcDbLine
 10
5.646105754954021
 20
10.22500003080413
 30
0.0
 11
5.646105754954021
 21
9.317399018126462
 31
0.0
  0
LINE
  5
2A6E
330
1A
100
AcDbEntity
  8
ZUWAKU
100
AcDbLine
 10
8.796105754953998
 20
10.22500003080413
 30
0.0
 11
7.308605754953987
 21
10.22500003080413
 31
0.0
  0
LINE
  5
2A6F
330
1A
100
AcDbEntity
  8
ZUWAKU
100
AcDbLine
 10
7.046105754953998
 20
9.962500030804132
 30
0.0
 11
7.046105754953998
 21
9.317399018126462
 31
0.0
  0
ARC
  5
2A70
330
1A
100
AcDbEntity
  8
ZUWAKU
100
AcDbCircle
 10
7.308605754953987
 20
9.962500030804132
 30
0.0
 40
0.2625
100
AcDbArc
 50
90.0
 51
180.0
  0
LINE
  5
2A71
330
1A
100
AcDbEntity
  8
ZUWAKU
100
AcDbLine
 10
7.046105754953998
 20
11.62500003080413
 30
0.0
 11
8.796105754953998
 21
11.62500003080413
 31
0.0
  0
ARC
  5
2A72
330
1A
100
AcDbEntity
  8
ZUWAKU
100
AcDbCircle
 10
12.47110575495401
 20
9.525000030804111
 30
0.0
 40
2.099999999999999
100
AcDbArc
 50
90.0
 51
180.0
  0
ARC
  5
2A73
330
1A
100
AcDbEntity
  8
ZUWAKU
100
AcDbCircle
 10
12.47110575495401
 20
9.525000030804132
 30
0.0
 40
0.7
100
AcDbArc
 50
90.0
 51
180.0
  0
LINE
  5
2A74
330
1A
100
AcDbEntity
  8
ZUWAKU
100
AcDbLine
 10
9.058605754953987
 20
11.36250003080413
 30
0.0
 11
9.058605754953987
 21
10.48750003080413
 31
0.0
  0
LINE
  5
2A75
330
1A
100
AcDbEntity
  8
ZUWAKU
100
AcDbLine
 10
17.83817322361193
 20
11.44154701488761
 30
0.0
 11
16.90403828629604
 21
8.483453046720647
 31
0.0
  0
LINE
  5
2A76
330
1A
100
AcDbEntity
  8
ZUWAKU
100
AcDbLine
 10
14.921105754954
 20
11.36250003080413
 30
0.0
 11
14.921105754954
 21
3.837500030804132
 31
0.0
  0
LINE
  5
2A77
330
1A
100
AcDbEntity
  8
ZUWAKU
100
AcDbLine
 10
16.32110575495403
 20
8.562500030804134
 30
0.0
 11
16.32110575495403
 21
11.36250003080413
 31
0.0
  0
LINE
  5
2A78
330
1A
100
AcDbEntity
  8
ZUWAKU
100
AcDbLine
 10
28.92110575495399
 20
5.50000003080413
 30
0.0
 11
28.92110575495399
 21
11.36250003080413
 31
0.0
  0
LINE
  5
2A79
330
1A
100
AcDbEntity
  8
ZUWAKU
100
AcDbLine
 10
27.52110575495402
 20
11.36250003080413
 30
0.0
 11
27.52110575495402
 21
4.975000030804132
 31
0.0
  0
LINE
  5
2A7A
330
1A
100
AcDbEntity
  8
ZUWAKU
100
AcDbLine
 10
21.74610575495398
 20
3.837500030804132
 30
0.0
 11
21.74610575495398
 21
11.36250003080413
 31
0.0
  0
LINE
  5
2A7B
330
1A
100
AcDbEntity
  8
ZUWAKU
100
AcDbLine
 10
20.346105754954
 20
11.36250003080413
 30
0.0
 11
20.346105754954
 21
3.837500030804132
 31
0.0
  0
LINE
  5
2A7C
330
1A
100
AcDbEntity
  8
ZUWAKU
100
AcDbLine
 10
18.65742899604299
 20
9.602523627585846
 30
0.0
 11
18.02505312337507
 21
7.600000030804142
 31
0.0
  0
ARC
  5
2A7D
330
1A
100
AcDbEntity
  8
ZUWAKU
100
AcDbCircle
 10
24.89610575495402
 20
9.317399018126483
 30
0.0
 40
2.099999999999999
100
AcDbArc
 50
180.0
 51
225.0
  0
ARC
  5
2A7E
330
1A
100
AcDbEntity
  8
ZUWAKU
100
AcDbCircle
 10
24.89610575495402
 20
9.317399018126483
 30
0.0
 40
0.7
100
AcDbArc
 50
180.0000000000016
 51
224.9999999999988
  0
LINE
  5
2A7F
330
1A
100
AcDbEntity
  8
ZUWAKU
100
AcDbLine
 10
33.12110575495399
 20
11.36250003080413
 30
0.0
 11
33.12110575495399
 21
3.837500030804132
 31
0.0
  0
LINE
  5
2A80
330
1A
100
AcDbEntity
  8
ZUWAKU
100
AcDbLine
 10
34.52110575495402
 20
3.837500030804132
 30
0.0
 11
34.52110575495402
 21
11.36250003080413
 31
0.0
  0
LINE
  5
2A81
330
1A
100
AcDbEntity
  8
ZUWAKU
100
AcDbLine
 10
30.671105754954
 20
11.36250003080413
 30
0.0
 11
30.671105754954
 21
5.50000003080413
 31
0.0
  0
LINE
  5
2A82
330
1A
100
AcDbEntity
  8
ZUWAKU
100
AcDbLine
 10
32.07110575495403
 20
4.975000030804132
 30
0.0
 11
32.07110575495403
 21
11.36250003080413
 31
0.0
  0
LINE
  5
2A83
330
1A
100
AcDbEntity
  8
ZUWAKU
100
AcDbLine
 10
39.56331445155763
 20
15.00000003080413
 30
0.0
 11
39.56331445155763
 21
0.4000000308041649
 31
0.0
  0
LINE
  5
2A84
330
1A
100
AcDbEntity
  8
ZUWAKU
100
AcDbLine
 10
39.76331445155756
 20
15.00000003080413
 30
0.0
 11
39.76331445155767
 21
0.4000000308041649
 31
0.0
  0
LINE
  5
2A85
330
1A
100
AcDbEntity
  8
ZUWAKU
100
AcDbLine
 10
39.66331445155754
 20
15.00000003080413
 30
0.0
 11
39.66331445155765
 21
0.4000000308041649
 31
0.0
  0
LINE
  5
2A86
330
1A
100
AcDbEntity
  8
ZUWAKU
100
AcDbLine
 10
28.92110575495399
 20
3.575000030804133
 30
0.0
 11
30.671105754954
 21
3.575000030804133
 31
0.0
  0
LINE
  5
2A87
330
1A
100
AcDbEntity
  8
ZUWAKU
100
AcDbLine
 10
30.14610575495402
 20
4.975000030804132
 30
0.0
 11
29.44610575495403
 21
4.975000030804132
 31
0.0
  0
LINE
  5
2A88
330
1A
100
AcDbEntity
  8
ZUWAKU
100
AcDbLine
 10
20.608605754954
 20
3.575000030804133
 30
0.0
 11
21.483605754954
 21
3.575000030804133
 31
0.0
  0
LINE
  5
2A89
330
1A
100
AcDbEntity
  8
ZUWAKU
100
AcDbLine
 10
17.83817322361193
 20
3.758453046720646
 30
0.0
 11
16.90403828629604
 21
6.716547014887616
 31
0.0
  0
ARC
  5
2A8A
330
1A
100
AcDbEntity
  8
ZUWAKU
100
AcDbCircle
 10
16.58360575495402
 20
6.637500030804133
 30
0.0
 40
0.2625
100
AcDbArc
 50
90.0
 51
180.0
  0
ARC
  5
2A8B
330
1A
100
AcDbEntity
  8
ZUWAKU
100
AcDbCircle
 10
16.65372283669836
 20
6.637500030804133
 30
0.0
 40
0.2625
100
AcDbArc
 50
17.52556837372303
 51
90.0
  0
ARC
  5
2A8C
330
1A
100
AcDbEntity
  8
ZUWAKU
100
AcDbCircle
 10
15.18360575495398
 20
3.837500030804132
 30
0.0
 40
0.2625
100
AcDbArc
 50
180.0
 51
270.0
  0
ARC
  5
2A8D
330
1A
100
AcDbEntity
  8
ZUWAKU
100
AcDbCircle
 10
13.43360575495398
 20
4.712500030804132
 30
0.0
 40
0.2625
100
AcDbArc
 50
0.0
 51
90.0
  0
ARC
  5
2A8E
330
1A
100
AcDbEntity
  8
ZUWAKU
100
AcDbCircle
 10
13.43360575495398
 20
3.837500030804132
 30
0.0
 40
0.2625
100
AcDbArc
 50
270.0
 51
0.0
  0
LINE
  5
2A8F
330
1A
100
AcDbEntity
  8
ZUWAKU
100
AcDbLine
 10
13.69610575495403
 20
4.712500030804132
 30
0.0
 11
13.69610575495403
 21
3.837500030804132
 31
0.0
  0
LINE
  5
2A90
330
1A
100
AcDbEntity
  8
ZUWAKU
100
AcDbLine
 10
16.32110575495403
 20
3.837500030804132
 30
0.0
 11
16.32110575495403
 21
6.637500030804133
 31
0.0
  0
ARC
  5
2A91
330
1A
100
AcDbEntity
  8
ZUWAKU
100
AcDbCircle
 10
16.05860575495398
 20
3.837500030804132
 30
0.0
 40
0.2625
100
AcDbArc
 50
270.0
 51
0.0
  0
LINE
  5
2A92
330
1A
100
AcDbEntity
  8
ZUWAKU
100
AcDbLine
 10
15.18360575495398
 20
3.575000030804133
 30
0.0
 11
16.05860575495398
 21
3.575000030804133
 31
0.0
  0
ARC
  5
2A93
330
1A
100
AcDbEntity
  8
ZUWAKU
100
AcDbCircle
 10
16.58360575495402
 20
8.562500030804134
 30
0.0
 40
0.2625
100
AcDbArc
 50
180.0
 51
270.0
  0
LINE
  5
2A94
330
1A
100
AcDbEntity
  8
ZUWAKU
100
AcDbLine
 10
16.58360575495402
 20
6.900000030804132
 30
0.0
 11
16.65372283669836
 21
6.900000030804132
 31
0.0
  0
LINE
  5
2A95
330
1A
100
AcDbEntity
  8
ZUWAKU
100
AcDbLine
 10
16.65372283669836
 20
8.300000030804131
 30
0.0
 11
16.58360575495402
 21
8.300000030804131
 31
0.0
  0
ARC
  5
2A96
330
1A
100
AcDbEntity
  8
ZUWAKU
100
AcDbCircle
 10
16.65372283669836
 20
8.562500030804134
 30
0.0
 40
0.2625
100
AcDbArc
 50
270.0
 51
342.4744316262769
  0
ARC
  5
2A97
330
1A
100
AcDbEntity
  8
ZUWAKU
100
AcDbCircle
 10
18.08848867320966
 20
3.837500030804132
 30
0.0
 40
0.2625
100
AcDbArc
 50
197.525568373723
 51
270.0
  0
LINE
  5
2A98
330
1A
100
AcDbEntity
  8
ZUWAKU
100
AcDbLine
 10
19.1882488126119
 20
3.916547014887619
 30
0.0
 11
18.02505312337507
 21
7.600000030804142
 31
0.0
  0
ARC
  5
2A99
330
1A
100
AcDbEntity
  8
ZUWAKU
100
AcDbCircle
 10
18.93793336301416
 20
3.837500030804132
 30
0.0
 40
0.2625
100
AcDbArc
 50
270.0
 51
17.52556837372303
  0
LINE
  5
2A9A
330
1A
100
AcDbEntity
  8
ZUWAKU
100
AcDbLine
 10
18.08848867320966
 20
3.575000030804133
 30
0.0
 11
18.93793336301416
 21
3.575000030804133
 31
0.0
  0
ARC
  5
2A9B
330
1A
100
AcDbEntity
  8
ZUWAKU
100
AcDbCircle
 10
20.608605754954
 20
3.837500030804132
 30
0.0
 40
0.2625
100
AcDbArc
 50
180.0
 51
270.0
  0
ARC
  5
2A9C
330
1A
100
AcDbEntity
  8
ZUWAKU
100
AcDbCircle
 10
25.07110575495403
 20
4.975000030804132
 30
0.0
 40
1.399999999999999
100
AcDbArc
 50
270.0
 51
0.0
  0
ARC
  5
2A9D
330
1A
100
AcDbEntity
  8
ZUWAKU
100
AcDbCircle
 10
28.92110575495399
 20
4.975000030804132
 30
0.0
 40
1.399999999999999
100
AcDbArc
 50
180.0
 51
270.0
  0
LINE
  5
2A9E
330
1A
100
AcDbEntity
  8
ZUWAKU
100
AcDbLine
 10
25.85602999544579
 20
7.367525283973545
 30
0.0
 11
24.4011310081234
 21
8.822424271295883
 31
0.0
  0
LINE
  5
2A9F
330
1A
100
AcDbEntity
  8
ZUWAKU
100
AcDbLine
 10
23.41118151446227
 20
7.832474777634722
 30
0.0
 11
24.8660805017846
 21
6.377575790312391
 31
0.0
  0
LINE
  5
2AA0
330
1A
100
AcDbEntity
  8
ZUWAKU
100
AcDbLine
 10
23.32110575495403
 20
3.575000030804133
 30
0.0
 11
25.07110575495403
 21
3.575000030804133
 31
0.0
  0
LINE
  5
2AA1
330
1A
100
AcDbEntity
  8
ZUWAKU
100
AcDbLine
 10
23.32110575495403
 20
4.975000030804132
 30
0.0
 11
24.80860575495398
 21
4.975000030804132
 31
0.0
  0
ARC
  5
2AA2
330
1A
100
AcDbEntity
  8
ZUWAKU
100
AcDbCircle
 10
23.32110575495403
 20
4.712500030804132
 30
0.0
 40
0.2625
100
AcDbArc
 50
90.0
 51
180.0
  0
ARC
  5
2AA3
330
1A
100
AcDbEntity
  8
ZUWAKU
100
AcDbCircle
 10
21.483605754954
 20
3.837500030804132
 30
0.0
 40
0.2625
100
AcDbArc
 50
270.0
 51
0.0
  0
ARC
  5
2AA4
330
1A
100
AcDbEntity
  8
ZUWAKU
100
AcDbCircle
 10
23.32110575495403
 20
3.837500030804132
 30
0.0
 40
0.2625
100
AcDbArc
 50
180.0
 51
270.0
  0
LINE
  5
2AA5
330
1A
100
AcDbEntity
  8
ZUWAKU
100
AcDbLine
 10
23.05860575495398
 20
3.837500030804132
 30
0.0
 11
23.05860575495398
 21
4.712500030804132
 31
0.0
  0
ARC
  5
2AA6
330
1A
100
AcDbEntity
  8
ZUWAKU
100
AcDbCircle
 10
24.80860575495398
 20
5.237500030804135
 30
0.0
 40
0.2625
100
AcDbArc
 50
270.0
 51
0.0
  0
ARC
  5
2AA7
330
1A
100
AcDbEntity
  8
ZUWAKU
100
AcDbCircle
 10
24.37110575495399
 20
5.882601043481805
 30
0.0
 40
0.7
100
AcDbArc
 50
0.0
 51
45.0
  0
LINE
  5
2AA8
330
1A
100
AcDbEntity
  8
ZUWAKU
100
AcDbLine
 10
25.07110575495403
 20
5.237500030804135
 30
0.0
 11
25.07110575495403
 21
5.882601043481805
 31
0.0
  0
ARC
  5
2AA9
330
1A
100
AcDbEntity
  8
ZUWAKU
100
AcDbCircle
 10
29.44610575495403
 20
5.50000003080413
 30
0.0
 40
0.525
100
AcDbArc
 50
180.0
 51
270.0
  0
ARC
  5
2AAA
330
1A
100
AcDbEntity
  8
ZUWAKU
100
AcDbCircle
 10
24.37110575495399
 20
5.882601043481784
 30
0.0
 40
2.099999999999999
100
AcDbArc
 50
0.0
 51
45.0
  0
LINE
  5
2AAB
330
1A
100
AcDbEntity
  8
ZUWAKU
100
AcDbLine
 10
26.47110575495401
 20
4.975000030804132
 30
0.0
 11
26.47110575495401
 21
5.882601043481805
 31
0.0
  0
ARC
  5
2AAC
330
1A
100
AcDbEntity
  8
ZUWAKU
100
AcDbCircle
 10
30.671105754954
 20
4.975000030804132
 30
0.0
 40
1.399999999999999
100
AcDbArc
 50
270.0
 51
0.0
  0
LINE
  5
2AAD
330
1A
100
AcDbEntity
  8
ZUWAKU
100
AcDbLine
 10
33.38360575495403
 20
3.575000030804133
 30
0.0
 11
34.25860575495403
 21
3.575000030804133
 31
0.0
  0
ARC
  5
2AAE
330
1A
100
AcDbEntity
  8
ZUWAKU
100
AcDbCircle
 10
30.14610575495402
 20
5.50000003080413
 30
0.0
 40
0.525
100
AcDbArc
 50
270.0
 51
0.0
  0
ARC
  5
2AAF
330
1A
100
AcDbEntity
  8
ZUWAKU
100
AcDbCircle
 10
33.38360575495403
 20
3.837500030804132
 30
0.0
 40
0.2625
100
AcDbArc
 50
180.0
 51
270.0
  0
ARC
  5
2AB0
330
1A
100
AcDbEntity
  8
ZUWAKU
100
AcDbCircle
 10
34.25860575495403
 20
3.837500030804132
 30
0.0
 40
0.2625
100
AcDbArc
 50
270.0
 51
0.0
  0
LINE
  5
2AB1
330
1A
100
AcDbEntity
  8
ZUWAKU
100
AcDbLine
 10
21.483605754954
 20
11.62500003080413
 30
0.0
 11
20.608605754954
 21
11.62500003080413
 31
0.0
  0
LINE
  5
2AB2
330
1A
100
AcDbEntity
  8
ZUWAKU
100
AcDbLine
 10
13.69610575495403
 20
11.36250003080413
 30
0.0
 11
13.69610575495403
 21
10.48750003080413
 31
0.0
  0
ARC
  5
2AB3
330
1A
100
AcDbEntity
  8
ZUWAKU
100
AcDbCircle
 10
13.43360575495398
 20
10.48750003080413
 30
0.0
 40
0.2625
100
AcDbArc
 50
270.0
 51
0.0
  0
ARC
  5
2AB4
330
1A
100
AcDbEntity
  8
ZUWAKU
100
AcDbCircle
 10
15.18360575495398
 20
11.36250003080413
 30
0.0
 40
0.2625
100
AcDbArc
 50
90.0
 51
180.0
  0
ARC
  5
2AB5
330
1A
100
AcDbEntity
  8
ZUWAKU
100
AcDbCircle
 10
13.43360575495398
 20
11.36250003080413
 30
0.0
 40
0.2625
100
AcDbArc
 50
0.0
 51
90.0
  0
LINE
  5
2AB6
330
1A
100
AcDbEntity
  8
ZUWAKU
100
AcDbLine
 10
16.05860575495398
 20
11.62500003080413
 30
0.0
 11
15.18360575495398
 21
11.62500003080413
 31
0.0
  0
ARC
  5
2AB7
330
1A
100
AcDbEntity
  8
ZUWAKU
100
AcDbCircle
 10
16.05860575495398
 20
11.36250003080413
 30
0.0
 40
0.2625
100
AcDbArc
 50
0.0
 51
90.0
  0
ARC
  5
2AB8
330
1A
100
AcDbEntity
  8
ZUWAKU
100
AcDbCircle
 10
18.08848867320966
 20
11.36250003080413
 30
0.0
 40
0.2625
100
AcDbArc
 50
90.0
 51
162.4744316262769
  0
LINE
  5
2AB9
330
1A
100
AcDbEntity
  8
ZUWAKU
100
AcDbLine
 10
19.1882488126119
 20
11.28345304672064
 30
0.0
 11
18.65742899604299
 21
9.602523627585846
 31
0.0
  0
ARC
  5
2ABA
330
1A
100
AcDbEntity
  8
ZUWAKU
100
AcDbCircle
 10
18.93793336301416
 20
11.36250003080413
 30
0.0
 40
0.2625
100
AcDbArc
 50
342.4744316262769
 51
90.0
  0
LINE
  5
2ABB
330
1A
100
AcDbEntity
  8
ZUWAKU
100
AcDbLine
 10
18.08848867320966
 20
11.62500003080413
 30
0.0
 11
18.93793336301416
 21
11.62500003080413
 31
0.0
  0
ARC
  5
2ABC
330
1A
100
AcDbEntity
  8
ZUWAKU
100
AcDbCircle
 10
20.608605754954
 20
11.36250003080413
 30
0.0
 40
0.2625
100
AcDbArc
 50
90.0
 51
180.0
  0
LINE
  5
2ABD
330
1A
100
AcDbEntity
  8
ZUWAKU
100
AcDbLine
 10
25.94610575495403
 20
10.22500003080413
 30
0.0
 11
24.45860575495402
 21
10.22500003080413
 31
0.0
  0
LINE
  5
2ABE
330
1A
100
AcDbEntity
  8
ZUWAKU
100
AcDbLine
 10
24.19610575495403
 20
11.62500003080413
 30
0.0
 11
25.94610575495403
 21
11.62500003080413
 31
0.0
  0
ARC
  5
2ABF
330
1A
100
AcDbEntity
  8
ZUWAKU
100
AcDbCircle
 10
24.19610575495403
 20
10.22500003080413
 30
0.0
 40
1.399999999999999
100
AcDbArc
 50
90.0
 51
180.0
  0
LINE
  5
2AC0
330
1A
100
AcDbEntity
  8
ZUWAKU
100
AcDbLine
 10
22.796105754954
 20
10.22500003080413
 30
0.0
 11
22.796105754954
 21
9.317399018126462
 31
0.0
  0
ARC
  5
2AC1
330
1A
100
AcDbEntity
  8
ZUWAKU
100
AcDbCircle
 10
21.483605754954
 20
11.36250003080413
 30
0.0
 40
0.2625
100
AcDbArc
 50
0.0
 51
90.0
  0
LINE
  5
2AC2
330
1A
100
AcDbEntity
  8
ZUWAKU
100
AcDbLine
 10
24.19610575495403
 20
9.962500030804132
 30
0.0
 11
24.19610575495403
 21
9.317399018126462
 31
0.0
  0
ARC
  5
2AC3
330
1A
100
AcDbEntity
  8
ZUWAKU
100
AcDbCircle
 10
24.45860575495402
 20
9.962500030804132
 30
0.0
 40
0.2625
100
AcDbArc
 50
90.0
 51
180.0
  0
LINE
  5
2AC4
330
1A
100
AcDbEntity
  8
ZUWAKU
100
AcDbLine
 10
26.20860575495402
 20
11.36250003080413
 30
0.0
 11
26.20860575495402
 21
10.48750003080413
 31
0.0
  0
ARC
  5
2AC5
330
1A
100
AcDbEntity
  8
ZUWAKU
100
AcDbCircle
 10
25.94610575495403
 20
10.48750003080413
 30
0.0
 40
0.2625
100
AcDbArc
 50
270.0
 51
0.0
  0
ARC
  5
2AC6
330
1A
100
AcDbEntity
  8
ZUWAKU
100
AcDbCircle
 10
25.94610575495403
 20
11.36250003080413
 30
0.0
 40
0.2625
100
AcDbArc
 50
0.0
 51
90.0
  0
LINE
  5
2AC7
330
1A
100
AcDbEntity
  8
ZUWAKU
100
AcDbLine
 10
28.65860575495401
 20
11.62500003080413
 30
0.0
 11
27.78360575495401
 21
11.62500003080413
 31
0.0
  0
ARC
  5
2AC8
330
1A
100
AcDbEntity
  8
ZUWAKU
100
AcDbCircle
 10
27.78360575495401
 20
11.36250003080413
 30
0.0
 40
0.2625
100
AcDbArc
 50
90.0
 51
180.0
  0
ARC
  5
2AC9
330
1A
100
AcDbEntity
  8
ZUWAKU
100
AcDbCircle
 10
28.65860575495401
 20
11.36250003080413
 30
0.0
 40
0.2625
100
AcDbArc
 50
0.0
 51
90.0
  0
LINE
  5
2ACA
330
1A
100
AcDbEntity
  8
ZUWAKU
100
AcDbLine
 10
34.25860575495403
 20
11.62500003080413
 30
0.0
 11
33.38360575495403
 21
11.62500003080413
 31
0.0
  0
ARC
  5
2ACB
330
1A
100
AcDbEntity
  8
ZUWAKU
100
AcDbCircle
 10
30.93360575495399
 20
11.36250003080413
 30
0.0
 40
0.2625
100
AcDbArc
 50
90.0
 51
180.0
  0
LINE
  5
2ACC
330
1A
100
AcDbEntity
  8
ZUWAKU
100
AcDbLine
 10
31.80860575495398
 20
11.62500003080413
 30
0.0
 11
30.93360575495399
 21
11.62500003080413
 31
0.0
  0
ARC
  5
2ACD
330
1A
100
AcDbEntity
  8
ZUWAKU
100
AcDbCircle
 10
31.80860575495398
 20
11.36250003080413
 30
0.0
 40
0.2625
100
AcDbArc
 50
0.0
 51
90.0
  0
ARC
  5
2ACE
330
1A
100
AcDbEntity
  8
ZUWAKU
100
AcDbCircle
 10
33.38360575495403
 20
11.36250003080413
 30
0.0
 40
0.2625
100
AcDbArc
 50
90.0
 51
180.0
  0
ARC
  5
2ACF
330
1A
100
AcDbEntity
  8
ZUWAKU
100
AcDbCircle
 10
34.25860575495403
 20
11.36250003080413
 30
0.0
 40
0.2625
100
AcDbArc
 50
0.0
 51
90.0
  0
TEXT
  5
2AD0
330
1A
100
AcDbEntity
  8
MOJI
100
AcDbText
 10
119.9136010179889
 20
1.602460559507841
 30
0.0
 40
2.799999999999999
  1
Ｘ７０Ｕ－５－１０～３０
 41
0.9
  7
ｽﾀｲﾙ1
100
AcDbText
  0
TEXT
  5
2AD1
330
1A
100
AcDbEntity
  8
MOJI
100
AcDbText
 10
119.9136010179889
 20
9.002460559507824
 30
0.0
 40
2.799999999999999
  1
ブラケット正面打（吊）ワンタッチ自在式
 41
0.9
  7
ｽﾀｲﾙ1
100
AcDbText
  0
LINE
  5
2AD2
330
1A
100
AcDbEntity
  8
ZUWAKU
100
AcDbLine
 10
104.2233003225973
 20
15.00000003080413
 30
0.0
 11
104.2233003225974
 21
0.4000000308041649
 31
0.0
  0
LINE
  5
2AD3
330
1A
100
AcDbEntity
  8
ZUWAKU
100
AcDbLine
 10
104.3233003225973
 20
15.00000003080413
 30
0.0
 11
104.3233003225974
 21
0.4000000308041649
 31
0.0
  0
LINE
  5
2AD4
330
1A
100
AcDbEntity
  8
ZUWAKU
100
AcDbLine
 10
104.1233003225974
 20
15.00000003080413
 30
0.0
 11
104.1233003225974
 21
0.4000000308041649
 31
0.0
  0
TEXT
  5
2AD5
330
1A
100
AcDbEntity
  8
ZUWAKU
100
AcDbText
 10
104.8620228337022
 20
4.827678299996939
 30
0.0
 40
2.0
  1
サイズ
 41
0.9
  7
ｽﾀｲﾙ1
100
AcDbText
  0
TEXT
  5
2AD6
330
1A
100
AcDbEntity
  8
ZUWAKU
100
AcDbText
 10
104.862022833702
 20
12.02767829999692
 30
0.0
 40
2.0
  1
品名
 41
0.9
  7
ｽﾀｲﾙ1
100
AcDbText
  0
TEXT
  5
2AD7
330
1A
100
AcDbEntity
  8
ZUWAKU
100
AcDbText
 10
329.1019685212146
 20
9.002460559507824
 30
0.0
 40
2.799999999999999
  1
　　．　　．　　
 41
0.9
  7
ｽﾀｲﾙ1
100
AcDbText
  0
LINE
  5
2AD8
330
1A
100
AcDbEntity
  8
ZUWAKU
100
AcDbLine
 10
324.4086009326655
 20
7.800000030804147
 30
0.0
 11
348.624504951834
 21
7.800000030804147
 31
0.0
  0
LINE
  5
2AD9
330
1A
100
AcDbEntity
  8
ZUWAKU
100
AcDbLine
 10
324.4086009326656
 20
7.700000030804149
 30
0.0
 11
348.624504951834
 21
7.700000030804147
 31
0.0
  0
LINE
  5
2ADA
330
1A
100
AcDbEntity
  8
ZUWAKU
100
AcDbLine
 10
324.4086009326655
 20
7.600000030804146
 30
0.0
 11
348.624504951834
 21
7.600000030804148
 31
0.0
  0
LINE
  5
2ADB
330
1A
100
AcDbEntity
  8
ZUWAKU
100
AcDbLine
 10
252.5995894266338
 20
7.800000030804147
 30
0.0
 11
276.2634775606196
 21
7.800000030804147
 31
0.0
  0
LINE
  5
2ADC
330
1A
100
AcDbEntity
  8
ZUWAKU
100
AcDbLine
 10
252.5995894266338
 20
7.700000030804147
 30
0.0
 11
276.2634775606196
 21
7.700000030804147
 31
0.0
  0
LINE
  5
2ADD
330
1A
100
AcDbEntity
  8
ZUWAKU
100
AcDbLine
 10
252.5995894266338
 20
7.600000030804149
 30
0.0
 11
276.2634775606196
 21
7.600000030804149
 31
0.0
  0
LINE
  5
2ADE
330
1A
100
AcDbEntity
  8
ZUWAKU
100
AcDbLine
 10
252.3995894266339
 20
15.00000003080413
 30
0.0
 11
252.3995894266339
 21
0.4000000308041649
 31
0.0
  0
LINE
  5
2ADF
330
1A
100
AcDbEntity
  8
ZUWAKU
100
AcDbLine
 10
252.5995894266338
 20
15.00000003080413
 30
0.0
 11
252.599589426634
 21
0.4000000308041649
 31
0.0
  0
LINE
  5
2AE0
330
1A
100
AcDbEntity
  8
ZUWAKU
100
AcDbLine
 10
252.4995894266338
 20
15.00000003080413
 30
0.0
 11
252.4995894266339
 21
0.4000000308041649
 31
0.0
  0
TEXT
  5
2AE1
330
1A
100
AcDbEntity
  8
MOJI
100
AcDbText
 10
264.0204536637198
 20
9.002460559507824
 30
0.0
 40
2.799999999999999
  1
Ａ３
 41
0.9
  7
ｽﾀｲﾙ1
100
AcDbText
  0
LINE
  5
2AE2
330
1A
100
AcDbEntity
  8
ZUWAKU
100
AcDbLine
 10
223.7121816630591
 20
15.00000003080413
 30
0.0
 11
223.7121816630591
 21
0.4000000308041649
 31
0.0
  0
LINE
  5
2AE3
330
1A
100
AcDbEntity
  8
ZUWAKU
100
AcDbLine
 10
223.912181663059
 20
15.00000003080413
 30
0.0
 11
223.9121816630591
 21
0.4000000308041649
 31
0.0
  0
LINE
  5
2AE4
330
1A
100
AcDbEntity
  8
ZUWAKU
100
AcDbLine
 10
223.812181663059
 20
15.00000003080413
 30
0.0
 11
223.8121816630591
 21
0.4000000308041649
 31
0.0
  0
TEXT
  5
2AE5
330
1A
100
AcDbEntity
  8
MOJI
100
AcDbText
 10
231.2836388385577
 20
5.971308891634123
 30
0.0
 40
2.799999999999999
  1
ＬＫ３３Ｔ
 41
0.9
  7
ｽﾀｲﾙ1
100
AcDbText
  0
TEXT
  5
2AE6
330
1A
100
AcDbEntity
  8
ZUWAKU
100
AcDbText
 10
253.3383119377388
 20
4.827678299996939
 30
0.0
 40
2.0
  1
縮尺
 41
0.9
  7
ｽﾀｲﾙ1
100
AcDbText
  0
TEXT
  5
2AE7
330
1A
100
AcDbEntity
  8
MOJI
100
AcDbText
 10
264.0204536637198
 20
1.602460559507841
 30
0.0
 40
2.799999999999999
  1
１/１
 41
0.9
  7
ｽﾀｲﾙ1
100
AcDbText
  0
TEXT
  5
2AE8
330
1A
100
AcDbEntity
  8
ZUWAKU
100
AcDbText
 10
224.6509041741638
 20
12.02767829999692
 30
0.0
 40
2.0
  1
品番
 41
0.9
  7
ｽﾀｲﾙ1
100
AcDbText
  0
TEXT
  5
2AE9
330
1A
100
AcDbEntity
  8
ZUWAKU
100
AcDbText
 10
253.3383119377386
 20
12.02767829999692
 30
0.0
 40
2.0
  1
用紙
 41
0.9
  7
ｽﾀｲﾙ1
100
AcDbText
  0
LINE
  5
2AEA
330
1A
100
AcDbEntity
  8
ZUWAKU
100
AcDbLine
 10
276.2634775606196
 20
15.00000003080413
 30
0.0
 11
276.2634775606196
 21
0.4000000308041649
 31
0.0
  0
LINE
  5
2AEB
330
1A
100
AcDbEntity
  8
ZUWAKU
100
AcDbLine
 10
276.4634775606196
 20
15.00000003080413
 30
0.0
 11
276.4634775606197
 21
0.4000000308041649
 31
0.0
  0
LINE
  5
2AEC
330
1A
100
AcDbEntity
  8
ZUWAKU
100
AcDbLine
 10
276.3634775606195
 20
15.00000003080413
 30
0.0
 11
276.3634775606196
 21
0.4000000308041649
 31
0.0
  0
LINE
  5
2AED
330
1A
100
AcDbEntity
  8
ZUWAKU
100
AcDbLine
 10
324.2086009326657
 20
15.00000003080413
 30
0.0
 11
324.2086009326657
 21
0.4000000308041649
 31
0.0
  0
LINE
  5
2AEE
330
1A
100
AcDbEntity
  8
ZUWAKU
100
AcDbLine
 10
324.4086009326656
 20
15.00000003080413
 30
0.0
 11
324.4086009326657
 21
0.4000000308041649
 31
0.0
  0
LINE
  5
2AEF
330
1A
100
AcDbEntity
  8
ZUWAKU
100
AcDbLine
 10
324.3086009326656
 20
15.00000003080413
 30
0.0
 11
324.3086009326657
 21
0.4000000308041649
 31
0.0
  0
TEXT
  5
2AF0
330
1A
100
AcDbEntity
  8
ZUWAKU
100
AcDbText
 10
325.1473234437704
 20
12.02767829999692
 30
0.0
 40
2.0
  1
DATE
 41
0.9
  7
ｽﾀｲﾙ1
100
AcDbText
  0
TEXT
  5
2AF1
330
1A
100
AcDbEntity
  8
ZUWAKU
100
AcDbText
 10
354.2640417736853
 20
8.776919698647532
 30
0.0
 40
3.0
  1
積水化学工業株式会社
 41
0.9
  7
ｽﾀｲﾙ1
100
AcDbText
  0
LINE
  5
2AF2
330
1A
100
AcDbEntity
  8
ZUWAKU
100
AcDbLine
 10
348.924504951834
 20
15.00000003080413
 30
0.0
 11
348.9245049518341
 21
0.4000000308041649
 31
0.0
  0
LINE
  5
2AF3
330
1A
100
AcDbEntity
  8
ZUWAKU
100
AcDbLine
 10
348.824504951834
 20
15.00000003080413
 30
0.0
 11
348.8245049518341
 21
0.4000000308041649
 31
0.0
  0
LINE
  5
2AF4
330
1A
100
AcDbEntity
  8
ZUWAKU
100
AcDbLine
 10
348.7245049518341
 20
15.00000003080413
 30
0.0
 11
348.7245049518341
 21
0.4000000308041649
 31
0.0
  0
LINE
  5
2AF5
330
1A
100
AcDbEntity
  8
ZUWAKU
100
AcDbLine
 10
348.624504951834
 20
15.00000003080413
 30
0.0
 11
348.624504951834
 21
0.4000000308041649
 31
0.0
  0
TEXT
  5
2AF6
330
1A
100
AcDbEntity
  8
ZUWAKU
100
AcDbText
 10
354.2640417736853
 20
3.324420187731163
 30
0.0
 40
3.0
  1
建材事業部
 41
0.9
  7
ｽﾀｲﾙ1
100
AcDbText
  0
LINE
  5
4C64
330
1A
100
AcDbEntity
  8
SUNPOU
100
AcDbLine
 10
214.2363136340843
 20
86.84566156583036
 30
0.0
 11
228.5210805469296
 21
58.27612774812521
 31
0.0
  0
TEXT
  5
4C65
330
1A
100
AcDbEntity
  8
SUNPOU
100
AcDbText
 10
208.1896707253349
 20
166.4672070113365
 30
0.0
 40
3.0
  1
（スライド幅）
100
AcDbText
  0
DIMENSION
  5
4C66
330
1A
100
AcDbEntity
  8
SUNPOU
100
AcDbDimension
  2
*D61
 10
230.287804284451
 20
94.87140689101376
 30
0.0
 11
220.8963187789519
 21
119.2445478457614
 31
0.0
 70
    33
  3
STANDARD
100
AcDbAlignedDimension
 13
190.9812066680864
 23
133.3558754978259
 33
0.0
 14
214.2363136340843
 24
86.84566156583036
 34
0.0
1001
ACAD
1000
DSTYLE
1002
{
1070
    41
1040
3.0
1070
    42
1040
3.0
1070
    43
1040
7.0
1070
    44
1040
1.5
1070
    73
1070
     0
1070
    74
1070
     0
1070
    77
1070
     3
1070
   140
1040
3.0
1070
   141
1040
3.0
1070
   147
1040
1.0
1070
   172
1070
     1
1070
   173
1070
     1
1070
   176
1070
   256
1070
   177
1070
   256
1070
   178
1070
   256
1070
   271
1070
     0
1070
   272
1070
     0
1070
   341
1005
B2
1070
     6
1000
OPEN
1070
     7
1000
OPEN
1002
}
  0
DIMENSION
  5
4C67
330
1A
100
AcDbEntity
  8
SUNPOU
100
AcDbDimension
  2
*D62
 10
231.1659428205229
 20
190.9106427484323
 30
0.0
 11
228.6659428205228
 21
217.4106427484324
 31
0.0
 70
    32
  3
STANDARD
100
AcDbAlignedDimension
 13
213.3418864430009
 23
243.9106427484323
 33
0.0
 14
213.3418864430009
 24
190.9106427484323
 34
0.0
 50
90.0
100
AcDbRotatedDimension
1001
ACAD
1000
DSTYLE
1002
{
1070
    41
1040
3.0
1070
    42
1040
3.0
1070
    43
1040
7.0
1070
    44
1040
1.5
1070
    73
1070
     0
1070
    74
1070
     0
1070
    77
1070
     3
1070
   140
1040
3.0
1070
   141
1040
3.0
1070
   147
1040
1.0
1070
   172
1070
     1
1070
   173
1070
     1
1070
   176
1070
   256
1070
   177
1070
   256
1070
   178
1070
   256
1070
   271
1070
     0
1070
   272
1070
     0
1070
   341
1005
B2
1070
     6
1000
OPEN
1070
     7
1000
OPEN
1002
}
  0
LINE
  5
4C68
330
1A
100
AcDbEntity
  8
CENTER_L
100
AcDbLine
 10
204.4279737992509
 20
88.12658381530628
 30
0.0
 11
218.023267104908
 21
94.9242304657597
 31
0.0
  0
DIMENSION
  5
4C69
330
1A
100
AcDbEntity
  8
SUNPOU
100
AcDbDimension
  2
*D63
 10
228.6094337318812
 20
159.9904667309698
 30
0.0
 11
211.1094337318812
 21
162.4904667309698
 31
0.0
 70
    32
  3
STANDARD
100
AcDbAlignedDimension
 13
193.6094337318812
 23
128.0994213637288
 33
0.0
 14
228.6094337318812
 24
128.0994213637288
 34
0.0
100
AcDbRotatedDimension
1001
ACAD
1000
DSTYLE
1002
{
1070
    41
1040
3.0
1070
    42
1040
3.0
1070
    43
1040
7.0
1070
    44
1040
1.5
1070
    73
1070
     0
1070
    74
1070
     0
1070
    77
1070
     3
1070
   140
1040
3.0
1070
   141
1040
3.0
1070
   147
1040
1.0
1070
   172
1070
     1
1070
   173
1070
     1
1070
   176
1070
   256
1070
   177
1070
   256
1070
   178
1070
   256
1070
   271
1070
     0
1070
   272
1070
     0
1070
   341
1005
B2
1070
     6
1000
OPEN
1070
     7
1000
OPEN
1002
}
  0
DIMENSION
  5
4C6A
330
1A
100
AcDbEntity
  8
SUNPOU
100
AcDbDimension
  2
*D64
 10
223.2878330270012
 20
91.37142126313211
 30
0.0
 11
217.4740562854176
 21
108.5891446870486
 31
0.0
 70
    33
  3
STANDARD
100
AcDbAlignedDimension
 13
198.1366241960844
 23
119.0450404358303
 33
0.0
 14
214.2363136340843
 24
86.84566156583036
 34
0.0
1001
ACAD
1000
DSTYLE
1002
{
1070
    41
1040
3.0
1070
    42
1040
3.0
1070
    43
1040
7.0
1070
    44
1040
1.5
1070
    73
1070
     0
1070
    74
1070
     0
1070
    77
1070
     3
1070
   140
1040
3.0
1070
   141
1040
3.0
1070
   147
1040
1.0
1070
   172
1070
     1
1070
   173
1070
     1
1070
   176
1070
   256
1070
   177
1070
   256
1070
   178
1070
   256
1070
   271
1070
     0
1070
   272
1070
     0
1070
   341
1005
B2
1070
     6
1000
OPEN
1070
     7
1000
OPEN
1002
}
  0
ARC
  5
4C6B
330
1A
100
AcDbEntity
  8
SEIHIN
  6
DASHED
 62
     2
100
AcDbCircle
 10
221.9562843140843
 20
120.1630744258303
 30
0.0
 40
4.000000003240687
100
AcDbArc
 50
26.56506216953752
 51
170.791845626957
  0
ARC
  5
4C6C
330
1A
100
AcDbEntity
  8
SEIHIN
  6
DASHED
 62
     2
100
AcDbCircle
 10
221.9562843140843
 20
120.1630744258303
 30
0.0
 40
9.99999999926616
100
AcDbArc
 50
52.40698403634237
 51
170.7918456103775
  0
LINE
  5
4C6D
330
1A
100
AcDbEntity
  8
CENTER_L
100
AcDbLine
 10
67.62912375408442
 20
217.4106427484323
 30
0.0
 11
218.3752212840843
 21
217.4106427484323
 31
0.0
  0
DIMENSION
  5
4C6E
330
1A
100
AcDbEntity
  8
SUNPOU
100
AcDbDimension
  2
*D65
 10
193.6094337318812
 20
150.6519959448827
 30
0.0
 11
189.1551370029829
 21
153.1519959448827
 31
0.0
 70
    32
  3
STANDARD
100
AcDbAlignedDimension
 13
184.7008402740846
 23
93.55734665499278
 33
0.0
 14
193.6094337318812
 24
128.0994213637288
 34
0.0
100
AcDbRotatedDimension
1001
ACAD
1000
DSTYLE
1002
{
1070
    41
1040
3.0
1070
    42
1040
3.0
1070
    43
1040
7.0
1070
    44
1040
1.5
1070
    73
1070
     0
1070
    74
1070
     0
1070
    77
1070
     3
1070
   140
1040
3.0
1070
   141
1040
3.0
1070
   147
1040
1.0
1070
   172
1070
     1
1070
   173
1070
     1
1070
   176
1070
   256
1070
   177
1070
   256
1070
   178
1070
   256
1070
   271
1070
     0
1070
   272
1070
     0
1070
   341
1005
B2
1070
     6
1000
OPEN
1070
     7
1000
OPEN
1002
}
  0
DIMENSION
  5
4C6F
330
1A
100
AcDbEntity
  8
SUNPOU
100
AcDbDimension
  2
*D66
 10
193.6094337318812
 20
159.9904667309698
 30
0.0
 11
132.9210120029828
 21
162.4904667309698
 31
0.0
 70
    32
  3
STANDARD
100
AcDbAlignedDimension
 13
72.23259027408443
 23
92.0089466558303
 33
0.0
 14
193.6094337318812
 24
128.0994213637288
 34
0.0
100
AcDbRotatedDimension
1001
ACAD
1000
DSTYLE
1002
{
1070
    41
1040
3.0
1070
    42
1040
3.0
1070
    43
1040
7.0
1070
    44
1040
1.5
1070
    73
1070
     0
1070
    74
1070
     0
1070
    77
1070
     3
1070
   140
1040
3.0
1070
   141
1040
3.0
1070
   147
1040
1.0
1070
   172
1070
     1
1070
   173
1070
     1
1070
   176
1070
   256
1070
   177
1070
   256
1070
   178
1070
   256
1070
   271
1070
     0
1070
   272
1070
     0
1070
   341
1005
B2
1070
     6
1000
OPEN
1070
     7
1000
OPEN
1002
}
  0
DIMENSION
  5
4C70
330
1A
100
AcDbEntity
  8
SUNPOU
100
AcDbDimension
  2
*D67
 10
48.32968650226823
 20
86.84566156583041
 30
0.0
 11
45.82968650226821
 21
90.05230411083037
 31
0.0
 70
    32
  3
STANDARD
100
AcDbAlignedDimension
 13
73.48259027408443
 23
93.2589466558303
 33
0.0
 14
214.2363136340843
 24
86.84566156583036
 34
0.0
 50
90.0
100
AcDbRotatedDimension
1001
ACAD
1000
DSTYLE
1002
{
1070
    41
1040
3.0
1070
    42
1040
3.0
1070
    43
1040
7.0
1070
    44
1040
1.5
1070
    73
1070
     0
1070
    74
1070
     0
1070
    77
1070
     3
1070
   140
1040
3.0
1070
   141
1040
3.0
1070
   147
1040
1.0
1070
   172
1070
     1
1070
   173
1070
     1
1070
   176
1070
   256
1070
   177
1070
   256
1070
   178
1070
   256
1070
   271
1070
     0
1070
   272
1070
     0
1070
   341
1005
B2
1070
     6
1000
OPEN
1070
     7
1000
OPEN
1002
}
  0
ARC
  5
4C71
330
1A
100
AcDbEntity
  8
NOKITOI
  6
PHANTOM
 62
     8
100
AcDbCircle
 10
80.81311411287543
 20
43.44860654550894
 30
0.0
 40
14.22848866365036
100
AcDbArc
 50
51.52529185494234
 51
71.45345265407101
  0
ARC
  5
4C72
330
1A
100
AcDbEntity
  8
NOKITOI
  6
PHANTOM
 62
     8
100
AcDbCircle
 10
80.81304734387135
 20
43.44863868209905
 30
0.0
 40
12.93471022655885
100
AcDbArc
 50
8.676219579621381
 51
74.45245455808946
  0
LINE
  5
4C73
330
1A
100
AcDbEntity
  8
SEIHIN
100
AcDbLine
 10
86.3411902740844
 20
84.44624665583035
 30
0.0
 11
93.39639027408441
 21
79.31524665583032
 31
0.0
  0
LINE
  5
4C74
330
1A
100
AcDbEntity
  8
SEIHIN
100
AcDbLine
 10
95.26280679408438
 20
89.35894665583033
 30
0.0
 11
75.73259027408443
 21
89.35894665583033
 31
0.0
  0
LINE
  5
4C75
330
1A
100
AcDbEntity
  8
NOKITOI
  6
PHANTOM
 62
     8
100
AcDbLine
 10
84.68174027408446
 20
57.67654665499271
 30
0.0
 11
78.75074027408453
 21
85.84644665499292
 31
0.0
  0
LINE
  5
4C76
330
1A
100
AcDbEntity
  8
NOKITOI
  6
PHANTOM
 62
     8
100
AcDbLine
 10
83.57314027408454
 20
56.66364665499276
 30
0.0
 11
77.7345402740844
 21
84.39494665499291
 31
0.0
  0
ARC
  5
4C77
330
1A
100
AcDbEntity
  8
NOKITOI
  6
PHANTOM
 62
     8
100
AcDbCircle
 10
84.54678029847201
 20
56.86860399076692
 30
0.0
 40
0.9949785960395137
100
AcDbArc
 50
191.8875585738772
 51
254.4495841050101
  0
ARC
  5
4C78
330
1A
100
AcDbEntity
  8
NOKITOI
  6
PHANTOM
 62
     8
100
AcDbCircle
 10
85.65536015585593
 20
57.88152431791281
 30
0.0
 40
0.995060928010462
100
AcDbArc
 50
191.8877567214151
 51
251.4524867922939
  0
LINE
  5
4C79
330
1A
100
AcDbEntity
  8
NOKITOI
  6
PHANTOM
 62
     8
100
AcDbLine
 10
71.99014027408447
 20
91.76654665499285
 30
0.0
 11
71.99014027408447
 21
87.83634665499283
 31
0.0
  0
LINE
  5
4C7A
330
1A
100
AcDbEntity
  8
NOKITOI
  6
PHANTOM
 62
     8
100
AcDbLine
 10
70.69664027408459
 20
85.54794665499271
 30
0.0
 11
70.69664027408459
 21
93.55744665499271
 31
0.0
  0
LINE
  5
4C7B
330
1A
100
AcDbEntity
  8
SEIHIN
100
AcDbLine
 10
72.23259027408443
 20
92.0089466558303
 30
0.0
 11
72.23259027408443
 21
88.35894665583031
 31
0.0
  0
LINE
  5
4C7C
330
1A
100
AcDbEntity
  8
NOKITOI
  6
PHANTOM
 62
     8
100
AcDbLine
 10
73.98014027408459
 20
85.84644665499292
 30
0.0
 11
78.75074027408453
 21
85.84644665499292
 31
0.0
  0
LINE
  5
4C7D
330
1A
100
AcDbEntity
  8
SEIHIN
100
AcDbLine
 10
74.23259027408443
 20
86.35894665583032
 30
0.0
 11
80.45949027408438
 21
86.35894665583032
 31
0.0
  0
LINE
  5
4C7E
330
1A
100
AcDbEntity
  8
NOKITOI
  6
PHANTOM
 62
     8
100
AcDbLine
 10
77.53984027408461
 20
84.5529466549927
 30
0.0
 11
71.69164027408459
 21
84.5529466549927
 31
0.0
  0
ARC
  5
4C7F
330
1A
100
AcDbEntity
  8
NOKITOI
  6
PHANTOM
 62
     8
100
AcDbCircle
 10
73.98009027408448
 20
87.83639665499293
 30
0.0
 40
1.989950000628206
100
AcDbArc
 50
180.0014396286229
 51
270.0014396286237
  0
ARC
  5
4C80
330
1A
100
AcDbEntity
  8
NOKITOI
  6
PHANTOM
 62
     8
100
AcDbCircle
 10
71.69164027408459
 20
85.54794665499271
 30
0.0
 40
0.9950000000000045
100
AcDbArc
 50
180.0
 51
270.0
  0
ARC
  5
4C81
330
1A
100
AcDbEntity
  8
SEIHIN
100
AcDbCircle
 10
74.23259027408443
 20
88.35894665583031
 30
0.0
 40
2.0
100
AcDbArc
 50
180.0
 51
270.0
  0
ARC
  5
4C82
330
1A
100
AcDbEntity
  8
NOKITOI
  6
PHANTOM
 62
     8
100
AcDbCircle
 10
77.5398218314703
 20
84.35396161842959
 30
0.0
 40
0.1989850374177657
100
AcDbArc
 50
11.88631382809262
 51
89.9946896310657
  0
ARC
  5
4C83
330
1A
100
AcDbEntity
  8
SEIHIN
100
AcDbCircle
 10
80.45939926408436
 20
76.35897625583033
 30
0.0
 40
9.999970400385993
100
AcDbArc
 50
53.97197877308379
 51
89.99947854956749
  0
LINE
  5
4C84
330
1A
100
AcDbEntity
  8
NOKITOI
  6
PHANTOM
 62
     8
100
AcDbLine
 10
71.69164027408459
 20
94.55244665499282
 30
0.0
 11
75.92284027408453
 21
94.55244665499282
 31
0.0
  0
ARC
  5
4C85
330
1A
100
AcDbEntity
  8
NOKITOI
  6
PHANTOM
 62
     8
100
AcDbCircle
 10
74.13184027408448
 20
91.76654665499285
 30
0.0
 40
1.492399999999918
100
AcDbArc
 50
0.0000000000016284
 51
90.00000000000245
  0
LINE
  5
4C86
330
1A
100
AcDbEntity
  8
SEIHIN
100
AcDbLine
 10
74.73259027408443
 20
90.35894665583033
 30
0.0
 11
72.23259027408443
 21
90.35884665583035
 31
0.0
  0
ARC
  5
4C87
330
1A
100
AcDbEntity
  8
SEIHIN
100
AcDbCircle
 10
73.48259027408443
 20
92.0089466558303
 30
0.0
 40
1.25
100
AcDbArc
 50
0.0
 51
180.0
  0
LINE
  5
4C88
330
1A
100
AcDbEntity
  8
NOKITOI
  6
PHANTOM
 62
     8
100
AcDbLine
 10
74.13184027408448
 20
93.25894665499271
 30
0.0
 11
73.48264027408453
 21
93.25894665499271
 31
0.0
  0
ARC
  5
4C89
330
1A
100
AcDbEntity
  8
NOKITOI
  6
PHANTOM
 62
     8
100
AcDbCircle
 10
73.48259027408443
 20
91.76649665499274
 30
0.0
 40
1.49245000083754
100
AcDbArc
 50
89.99808047909004
 51
179.99808047909
  0
ARC
  5
4C8A
330
1A
100
AcDbEntity
  8
NOKITOI
  6
PHANTOM
 62
     8
100
AcDbCircle
 10
71.69164027408459
 20
93.55744665499281
 30
0.0
 40
0.9950000000000613
100
AcDbArc
 50
90.00000000000325
 51
180.0000000000032
  0
ARC
  5
4C8B
330
1A
100
AcDbEntity
  8
NOKITOI
  6
PHANTOM
 62
     8
100
AcDbCircle
 10
75.92279027408443
 20
93.55749665499287
 30
0.0
 40
0.9949500012563332
100
AcDbArc
 50
359.9971206704047
 51
89.99712067040476
  0
LINE
  5
4C8C
330
1A
100
AcDbEntity
  8
NOKITOI
  6
PHANTOM
 62
     8
100
AcDbLine
 10
75.62434027408454
 20
89.35264665499284
 30
0.0
 11
75.62434027408454
 21
91.76654665499285
 31
0.0
  0
LINE
  5
4C8D
330
1A
100
AcDbEntity
  8
NOKITOI
  6
PHANTOM
 62
     8
100
AcDbLine
 10
76.91774027408445
 20
89.35264665499284
 30
0.0
 11
75.62434027408454
 21
89.35264665499284
 31
0.0
  0
LINE
  5
4C8E
330
1A
100
AcDbEntity
  8
NOKITOI
  6
PHANTOM
 62
     8
100
AcDbLine
 10
76.91774027408445
 20
93.55744665499271
 30
0.0
 11
76.91774027408445
 21
89.35264665499284
 31
0.0
  0
LINE
  5
4C8F
330
1A
100
AcDbEntity
  8
SEIHIN
100
AcDbLine
 10
74.73259027408443
 20
92.0089466558303
 30
0.0
 11
74.73259027408443
 21
90.35894665583033
 31
0.0
  0
ARC
  5
4C90
330
1A
100
AcDbEntity
  8
SEIHIN
100
AcDbCircle
 10
75.73259027408443
 20
90.35894665583033
 30
0.0
 40
1.0
100
AcDbArc
 50
180.0
 51
270.0
  0
LINE
  5
4C91
330
1A
100
AcDbEntity
  8
CENTER_L
  6
CENTER
 62
     1
100
AcDbLine
 10
127.6986402740845
 20
34.55489665499289
 30
0.0
 11
127.6986402740845
 21
55.8548966549929
 31
0.0
  0
LINE
  5
4C92
330
1A
100
AcDbEntity
  8
NOKITOI
  6
PHANTOM
 62
     8
100
AcDbLine
 10
99.70004027408453
 20
46.0473466549929
 30
0.0
 11
99.70014027408462
 21
54.54464665499284
 31
0.0
  0
LINE
  5
4C93
330
1A
100
AcDbEntity
  8
NOKITOI
  6
PHANTOM
 62
     8
100
AcDbLine
 10
155.6972402740845
 20
46.0473466549929
 30
0.0
 11
155.6973402740844
 21
54.54434665499269
 31
0.0
  0
ARC
  5
4C94
330
1A
100
AcDbEntity
  8
NOKITOI
  6
PHANTOM
 62
     8
100
AcDbCircle
 10
174.5841291177636
 20
43.44863407351875
 30
0.0
 40
12.93449408578155
100
AcDbArc
 50
105.547333235354
 51
171.3240617643019
  0
ARC
  5
4C95
330
1A
100
AcDbEntity
  8
NOKITOI
  6
PHANTOM
 62
     8
100
AcDbCircle
 10
174.5842347406726
 20
43.44854041472752
 30
0.0
 40
12.93461262833301
100
AcDbArc
 50
105.5476727870196
 51
171.3237222126368
  0
LINE
  5
4C96
330
1A
100
AcDbEntity
  8
NOKITOI
  6
PHANTOM
 62
     8
100
AcDbLine
 10
99.8990402740846
 20
45.84834665499283
 30
0.0
 11
155.4982402740845
 21
45.84824665499275
 31
0.0
  0
LINE
  5
4C97
330
1A
100
AcDbEntity
  8
NOKITOI
  6
PHANTOM
 62
     8
100
AcDbLine
 10
94.5833402740846
 20
44.55494665499282
 30
0.0
 11
160.8139402740845
 21
44.55484665499295
 31
0.0
  0
LINE
  5
4C98
330
1A
100
AcDbEntity
  8
NOKITOI
  6
PHANTOM
 62
     8
100
AcDbLine
 10
160.8139402740845
 20
44.55484665499295
 30
0.0
 11
94.5833402740846
 21
44.55494665499282
 31
0.0
  0
LINE
  5
4C99
330
1A
100
AcDbEntity
  8
NOKITOI
  6
PHANTOM
 62
     8
100
AcDbLine
 10
98.03774027408445
 20
53.24464665499289
 30
0.0
 11
91.81684027408454
 21
53.24464665499289
 31
0.0
  0
ARC
  5
4C9A
330
1A
100
AcDbEntity
  8
NOKITOI
  6
PHANTOM
 62
     8
100
AcDbCircle
 10
95.25831723295636
 20
46.35496551928111
 30
0.0
 40
0.5000188648192144
100
AcDbArc
 50
191.386728855441
 51
270.0026402191986
  0
ARC
  5
4C9B
330
1A
100
AcDbEntity
  8
NOKITOI
  6
PHANTOM
 62
     8
100
AcDbCircle
 10
80.81304547109784
 20
43.44863603922476
 30
0.0
 40
14.23472333170272
100
AcDbArc
 50
11.37541821407338
 51
40.79334907830746
  0
ARC
  5
4C9C
330
1A
100
AcDbEntity
  8
NOKITOI
  6
PHANTOM
 62
     8
100
AcDbCircle
 10
94.58334788810219
 20
45.54994011474889
 30
0.0
 40
0.9949934597852239
100
AcDbArc
 50
188.6761125650602
 51
269.9995615538234
  0
ARC
  5
4C9D
330
1A
100
AcDbEntity
  8
NOKITOI
  6
PHANTOM
 62
     8
100
AcDbCircle
 10
91.8168439333877
 20
52.94465464687243
 30
0.0
 40
0.2999920081427447
100
AcDbArc
 50
90.00069889403132
 51
220.79672841758
  0
LINE
  5
4C9E
330
1A
100
AcDbEntity
  8
NOKITOI
  6
PHANTOM
 62
     8
100
AcDbLine
 10
98.40004027408447
 20
46.35494665499289
 30
0.0
 11
98.40004027408447
 21
52.88224665499291
 31
0.0
  0
ARC
  5
4C9F
330
1A
100
AcDbEntity
  8
NOKITOI
  6
PHANTOM
 62
     8
100
AcDbCircle
 10
97.90004027408436
 20
46.35494665499289
 30
0.0
 40
0.5000000000000569
100
AcDbArc
 50
270.0000000000065
 51
0.0000000000065138
  0
LINE
  5
4CA0
330
1A
100
AcDbEntity
  8
NOKITOI
  6
PHANTOM
 62
     8
100
AcDbLine
 10
95.25824027408447
 20
45.85494665499277
 30
0.0
 11
97.90004027408446
 21
45.85494665499277
 31
0.0
  0
ARC
  5
4CA1
330
1A
100
AcDbEntity
  8
NOKITOI
  6
PHANTOM
 62
     8
100
AcDbCircle
 10
99.8990402740846
 20
46.0473466549929
 30
0.0
 40
0.1990000000000691
100
AcDbArc
 50
179.9999999999837
 51
269.9999999999837
  0
LINE
  5
4CA2
330
1A
100
AcDbEntity
  8
NOKITOI
  6
PHANTOM
 62
     8
100
AcDbLine
 10
98.89504027408447
 20
53.73954665499269
 30
0.0
 11
98.03774027408445
 21
53.24464665499289
 31
0.0
  0
LINE
  5
4CA3
330
1A
100
AcDbEntity
  8
NOKITOI
  6
PHANTOM
 62
     8
100
AcDbLine
 10
98.89504027408447
 20
53.73954665499269
 30
0.0
 11
98.40004027408447
 21
52.88224665499291
 31
0.0
  0
LINE
  5
4CA4
330
1A
100
AcDbEntity
  8
NOKITOI
  6
PHANTOM
 62
     8
100
AcDbLine
 10
151.4982402740846
 20
45.84824665499275
 30
0.0
 11
136.7438402740844
 21
45.84824665499275
 31
0.0
  0
LINE
  5
4CA5
330
1A
100
AcDbEntity
  8
NOKITOI
  6
PHANTOM
 62
     8
100
AcDbLine
 10
163.5802402740843
 20
53.24424665499276
 30
0.0
 11
157.3596402740846
 21
53.24424665499276
 31
0.0
  0
ARC
  5
4CA6
330
1A
100
AcDbEntity
  8
NOKITOI
  6
PHANTOM
 62
     8
100
AcDbCircle
 10
160.1390633152128
 20
46.35486551928113
 30
0.0
 40
0.5000188648190603
100
AcDbArc
 50
269.9973597808037
 51
348.6132711445597
  0
ARC
  5
4CA7
330
1A
100
AcDbEntity
  8
NOKITOI
  6
PHANTOM
 62
     8
100
AcDbCircle
 10
174.5841987287753
 20
43.44846179043656
 30
0.0
 40
14.23462403148678
100
AcDbArc
 50
139.2075062369009
 51
168.623785948384
  0
LINE
  5
4CA8
330
1A
100
AcDbEntity
  8
NOKITOI
  6
PHANTOM
 62
     8
100
AcDbLine
 10
156.9973402740846
 20
52.88194665499275
 30
0.0
 11
156.9973402740846
 21
46.35484665499279
 31
0.0
  0
ARC
  5
4CA9
330
1A
100
AcDbEntity
  8
NOKITOI
  6
PHANTOM
 62
     8
100
AcDbCircle
 10
155.4981902740844
 20
46.0472966549928
 30
0.0
 40
0.1990500062799141
100
AcDbArc
 50
270.0143923080609
 51
0.0143923080609162
  0
LINE
  5
4CAA
330
1A
100
AcDbEntity
  8
NOKITOI
  6
PHANTOM
 62
     8
100
AcDbLine
 10
160.1390402740846
 20
45.85484665499291
 30
0.0
 11
157.4973402740845
 21
45.85484665499291
 31
0.0
  0
ARC
  5
4CAB
330
1A
100
AcDbEntity
  8
NOKITOI
  6
PHANTOM
 62
     8
100
AcDbCircle
 10
157.4973402740844
 20
46.35484665499291
 30
0.0
 40
0.4999999999999432
100
AcDbArc
 50
180.0000000000065
 51
270.0000000000065
  0
LINE
  5
4CAC
330
1A
100
AcDbEntity
  8
NOKITOI
  6
PHANTOM
 62
     8
100
AcDbLine
 10
156.5023402740843
 20
53.73924665499277
 30
0.0
 11
157.3596402740846
 21
53.24424665499276
 31
0.0
  0
LINE
  5
4CAD
330
1A
100
AcDbEntity
  8
NOKITOI
  6
PHANTOM
 62
     8
100
AcDbLine
 10
156.5023402740843
 20
53.73924665499277
 30
0.0
 11
156.9973402740846
 21
52.88194665499275
 31
0.0
  0
ARC
  5
4CAE
330
1A
100
AcDbEntity
  8
NOKITOI
  6
PHANTOM
 62
     8
100
AcDbCircle
 10
160.8139902021805
 20
45.54988954259147
 30
0.0
 40
0.9950428888512103
100
AcDbArc
 50
269.9971250795227
 51
351.3214426795066
  0
ARC
  5
4CAF
330
1A
100
AcDbEntity
  8
NOKITOI
  6
PHANTOM
 62
     8
100
AcDbCircle
 10
163.5802539519358
 20
52.94421679129891
 30
0.0
 40
0.3000298640056128
100
AcDbArc
 50
319.2190584222774
 51
90.00261201719977
  0
LINE
  5
4CB0
330
1A
100
AcDbEntity
  8
SEIHIN
100
AcDbLine
 10
130.8987620320843
 20
115.3660300568303
 30
0.0
 11
176.2199053940843
 21
120.9307667438303
 31
0.0
  0
LINE
  5
4CB1
330
1A
100
AcDbEntity
  8
SEIHIN
100
AcDbLine
 10
132.7760716680844
 20
109.5514757428303
 30
0.0
 11
176.9511214540843
 21
114.9754898338303
 31
0.0
  0
LINE
  5
4CB2
330
1A
100
AcDbEntity
  8
SEIHIN
100
AcDbLine
 10
164.5799902740843
 20
107.1603466558303
 30
0.0
 11
150.9527902740844
 21
89.92844665583033
 31
0.0
  0
LINE
  5
4CB3
330
1A
100
AcDbEntity
  8
SEIHIN
100
AcDbLine
 10
120.2628067960844
 20
80.85884665583035
 30
0.0
 11
154.1329902740843
 21
80.85884665583035
 31
0.0
  0
LINE
  5
4CB4
330
1A
100
AcDbEntity
  8
SEIHIN
100
AcDbLine
 10
156.3655902740844
 20
78.35884665583034
 30
0.0
 11
120.2628067960844
 21
78.35884665583034
 31
0.0
  0
LINE
  5
4CB5
330
1A
100
AcDbEntity
  8
SEIHIN
100
AcDbLine
 10
157.2962902740844
 20
86.85894665583033
 30
0.0
 11
120.2628067960844
 21
86.85894665583033
 31
0.0
  0
LINE
  5
4CB6
330
1A
100
AcDbEntity
  8
SEIHIN
100
AcDbLine
 10
121.6956867350843
 20
92.40529101583035
 30
0.0
 11
127.1856230970843
 21
105.3387705808303
 31
0.0
  0
LINE
  5
4CB7
330
1A
100
AcDbEntity
  8
SEIHIN
100
AcDbLine
 10
102.5679971340843
 20
105.4941564978303
 30
0.0
 11
101.7988442440843
 21
100.0482035158303
 31
0.0
  0
CIRCLE
  5
4CB8
330
1A
100
AcDbEntity
  8
SEIHIN
100
AcDbCircle
 10
110.2628067940843
 20
100.1589466558303
 30
0.0
 40
3.500000004238516
  0
ARC
  5
4CB9
330
1A
100
AcDbEntity
  8
SEIHIN
100
AcDbCircle
 10
110.7628067940843
 20
96.65894665583033
 30
0.0
 40
9.535085152808647
100
AcDbArc
 50
4.916661302937096
 51
179.9998615479522
  0
LINE
  5
4CBA
330
1A
100
AcDbEntity
  8
SEIHIN
100
AcDbLine
 10
95.26280679408438
 20
76.16534300583032
 30
0.0
 11
120.2628067960844
 21
76.16534300583032
 31
0.0
  0
LINE
  5
4CBB
330
1A
100
AcDbEntity
  8
SEIHIN
100
AcDbLine
 10
95.26280679408438
 20
76.16534300583032
 30
0.0
 11
95.26280679408438
 21
95.1653430078303
 31
0.0
  0
LINE
  5
4CBC
330
1A
100
AcDbEntity
  8
NOKITOI
  6
PHANTOM
 62
     8
100
AcDbLine
 10
99.70014027408462
 20
54.54464665499284
 30
0.0
 11
89.78944027408459
 21
54.54464665499284
 31
0.0
  0
ARC
  5
4CBD
330
1A
100
AcDbEntity
  8
NOKITOI
  6
PHANTOM
 62
     8
100
AcDbCircle
 10
89.7894435864436
 20
54.74364549920739
 30
0.0
 40
0.1989988442421132
100
AcDbArc
 50
231.5280949042407
 51
269.9990463050553
  0
LINE
  5
4CBE
330
1A
100
AcDbEntity
  8
SEIHIN
100
AcDbLine
 10
99.2277181240844
 20
95.16534064983034
 30
0.0
 11
99.22770199408439
 21
88.32721919583031
 31
0.0
  0
LINE
  5
4CBF
330
1A
100
AcDbEntity
  8
SEIHIN
100
AcDbLine
 10
101.2277216440844
 20
96.65896969683036
 30
0.0
 11
101.2277019940843
 21
88.32721919583031
 31
0.0
  0
LINE
  5
4CC0
330
1A
100
AcDbEntity
  8
SEIHIN
100
AcDbLine
 10
95.26280679408438
 20
86.85894665583033
 30
0.0
 11
90.34949027408435
 21
86.85894665583033
 31
0.0
  0
ARC
  5
4CC1
330
1A
100
AcDbEntity
  8
SEIHIN
100
AcDbCircle
 10
96.4996898340844
 20
83.85897931583031
 30
0.0
 40
3.000032662681521
100
AcDbArc
 50
233.9758085673714
 51
245.6512385050324
  0
ARC
  5
4CC2
330
1A
100
AcDbEntity
  8
SEIHIN
100
AcDbCircle
 10
96.33722838408438
 20
83.35896677583031
 30
0.0
 40
5.000020122542945
100
AcDbArc
 50
233.9730830341292
 51
257.5913101544815
  0
LINE
  5
4CC3
330
1A
100
AcDbEntity
  8
SEIHIN
100
AcDbLine
 10
89.76129027408438
 20
85.05014665583031
 30
0.0
 11
94.73529027408437
 21
81.43264665583036
 31
0.0
  0
ARC
  5
4CC4
330
1A
100
AcDbEntity
  8
SEIHIN
100
AcDbCircle
 10
90.34947916408441
 20
85.85891248583033
 30
0.0
 40
1.00003416926274
100
AcDbArc
 50
89.99936346563975
 51
233.9728323870002
  0
LINE
  5
4CC5
330
1A
100
AcDbEntity
  8
SEIHIN
100
AcDbLine
 10
99.22770199408439
 20
88.32721919583031
 30
0.0
 11
101.2277019940843
 21
88.32721919583031
 31
0.0
  0
LINE
  5
4CC6
330
1A
100
AcDbEntity
  8
SEIHIN
100
AcDbLine
 10
100.8628067940844
 20
95.35894665583033
 30
0.0
 11
100.8627926440843
 21
89.35894429783036
 31
0.0
  0
LINE
  5
4CC7
330
1A
100
AcDbEntity
  8
SEIHIN
100
AcDbLine
 10
99.86280679408441
 20
95.35894665583033
 30
0.0
 11
99.86279264408437
 21
89.35894665583033
 31
0.0
  0
LINE
  5
4CC8
330
1A
100
AcDbEntity
  8
SEIHIN
100
AcDbLine
 10
99.2277044277592
 20
89.35894665583033
 30
0.0
 11
101.2277044240843
 21
89.35894665583033
 31
0.0
  0
ARC
  5
4CC9
330
1A
100
AcDbEntity
  8
SEIHIN
100
AcDbCircle
 10
98.2277181240844
 20
95.1653430078303
 30
0.0
 40
1.000000000001389
100
AcDbArc
 50
359.9998648965509
 51
90.0
  0
LINE
  5
4CCA
330
1A
100
AcDbEntity
  8
SEIHIN
100
AcDbLine
 10
98.2277181240844
 20
96.1653430078303
 30
0.0
 11
96.26280679408438
 21
96.1653430078303
 31
0.0
  0
ARC
  5
4CCB
330
1A
100
AcDbEntity
  8
SEIHIN
100
AcDbCircle
 10
96.26280679408438
 20
95.1653430078303
 30
0.0
 40
1.0
100
AcDbArc
 50
90.0
 51
180.0
  0
LINE
  5
4CCC
330
1A
100
AcDbEntity
  8
SEIHIN
100
AcDbLine
 10
99.86280679408441
 20
95.35894665583033
 30
0.0
 11
101.2277185740844
 21
95.35894665583033
 31
0.0
  0
LINE
  5
4CCD
330
1A
100
AcDbEntity
  8
SEIHIN
100
AcDbLine
 10
107.7628067940843
 20
86.85894665583033
 30
0.0
 11
112.7628067940843
 21
86.85894665583033
 31
0.0
  0
LINE
  5
4CCE
330
1A
100
AcDbEntity
  8
SEIHIN
100
AcDbLine
 10
110.2628067940843
 20
80.85894665583031
 30
0.0
 11
111.4175073340843
 21
78.85894665583032
 31
0.0
  0
LINE
  5
4CCF
330
1A
100
AcDbEntity
  8
SEIHIN
100
AcDbLine
 10
111.4175073340843
 20
78.85894665583032
 30
0.0
 11
109.1081062540844
 21
78.85894665583032
 31
0.0
  0
LINE
  5
4CD0
330
1A
100
AcDbEntity
  8
SEIHIN
100
AcDbLine
 10
112.7628067940843
 20
80.85894665583031
 30
0.0
 11
107.7628067940843
 21
80.85894665583031
 31
0.0
  0
MTEXT
  5
4CD1
330
1A
100
AcDbEntity
  8
SEIHIN
100
AcDbMText
 10
108.6090025740843
 20
83.73893389983033
 30
0.0
 40
2.381249964
 41
0.0
 71
     1
 72
     5
  1
{\W1.460317;10}
1001
ACAD
1000
MTEXTBEGIN
1070
    73
1070
     1
1070
    44
1040
1.0
1070
    74
1070
     0
1000
MTEXTEND
1000
MTEXTBEGIN
1070
    73
1070
     1
1070
    44
1040
1.0
1070
    74
1070
     0
1000
MTEXTEND
1000
MTEXTBEGIN
1070
    73
1070
     1
1070
    44
1040
1.0
1070
    74
1070
     0
1000
MTEXTEND
1000
MTEXTBEGIN
1070
    73
1070
     1
1070
    44
1040
1.0
1070
    74
1070
     0
1000
MTEXTEND
1000
MTEXTBEGIN
1070
    73
1070
     1
1070
    44
1040
1.0
1070
    74
1070
     0
1000
MTEXTEND
1000
MTEXTBEGIN
1070
    73
1070
     1
1070
    44
1040
1.0
1070
    74
1070
     0
1000
MTEXTEND
1000
MTEXTBEGIN
1070
    73
1070
     1
1070
    44
1040
1.0
1070
    74
1070
     0
1000
MTEXTEND
1000
MTEXTBEGIN
1070
    73
1070
     1
1070
    44
1040
1.0
1070
    74
1070
     0
1000
MTEXTEND
1000
MTEXTBEGIN
1070
    73
1070
     1
1070
    44
1040
1.0
1070
    74
1070
     0
1000
MTEXTEND
1000
MTEXTBEGIN
1070
    73
1070
     1
1070
    44
1040
1.0
1070
    74
1070
     0
1000
MTEXTEND
1000
MTEXTBEGIN
1070
    73
1070
     1
1070
    44
1040
1.0
1070
    74
1070
     0
1000
MTEXTEND
1000
MTEXTBEGIN
1070
    73
1070
     1
1070
    44
1040
1.0
1070
    74
1070
     0
1000
MTEXTEND
1000
MTEXTBEGIN
1070
    73
1070
     1
1070
    44
1040
1.0
1070
    74
1070
     0
1000
MTEXTEND
1000
MTEXTBEGIN
1070
    73
1070
     1
1070
    44
1040
1.0
1070
    74
1070
     0
1000
MTEXTEND
1000
MTEXTBEGIN
1070
    73
1070
     1
1070
    44
1040
1.0
1070
    74
1070
     0
1000
MTEXTEND
  0
LINE
  5
4CD2
330
1A
100
AcDbEntity
  8
SEIHIN
100
AcDbLine
 10
106.7628067940843
 20
85.85894665583031
 30
0.0
 11
106.7628067940843
 21
81.85894665583033
 31
0.0
  0
ARC
  5
4CD3
330
1A
100
AcDbEntity
  8
SEIHIN
100
AcDbCircle
 10
107.7628067940843
 20
81.85894665583033
 30
0.0
 40
1.0
100
AcDbArc
 50
180.0
 51
270.0
  0
LINE
  5
4CD4
330
1A
100
AcDbEntity
  8
SEIHIN
100
AcDbLine
 10
110.2628067940843
 20
80.85894665583031
 30
0.0
 11
109.1081062540844
 21
78.85894665583032
 31
0.0
  0
ARC
  5
4CD5
330
1A
100
AcDbEntity
  8
SEIHIN
100
AcDbCircle
 10
107.7628067940843
 20
85.85894665583031
 30
0.0
 40
1.0
100
AcDbArc
 50
90.0
 51
180.0
  0
LINE
  5
4CD6
330
1A
100
AcDbEntity
  8
SEIHIN
100
AcDbLine
 10
110.5128067940843
 20
86.85894665583033
 30
0.0
 11
110.5128067940843
 21
84.85894665583032
 31
0.0
  0
LINE
  5
4CD7
330
1A
100
AcDbEntity
  8
SEIHIN
100
AcDbLine
 10
110.0128067940843
 20
84.85894665583032
 30
0.0
 11
110.0128067940843
 21
86.85894665583033
 31
0.0
  0
LINE
  5
4CD8
330
1A
100
AcDbEntity
  8
SEIHIN
100
AcDbLine
 10
110.5128067940843
 20
84.85894665583032
 30
0.0
 11
110.0128067940843
 21
84.85894665583032
 31
0.0
  0
LINE
  5
4CD9
330
1A
100
AcDbEntity
  8
SEIHIN
100
AcDbLine
 10
110.0128067940843
 20
86.85894665583033
 30
0.0
 11
110.5128067940843
 21
86.85894665583033
 31
0.0
  0
LINE
  5
4CDA
330
1A
100
AcDbEntity
  8
SEIHIN
100
AcDbLine
 10
110.0195567940843
 20
86.85894665583033
 30
0.0
 11
110.5195567940844
 21
86.85894665583033
 31
0.0
  0
LINE
  5
4CDB
330
1A
100
AcDbEntity
  8
SEIHIN
100
AcDbLine
 10
113.7628067940843
 20
85.85894665583031
 30
0.0
 11
113.7628067940843
 21
81.85894665583033
 31
0.0
  0
ARC
  5
4CDC
330
1A
100
AcDbEntity
  8
SEIHIN
100
AcDbCircle
 10
112.7628067940843
 20
81.85894665583033
 30
0.0
 40
1.0
100
AcDbArc
 50
270.0
 51
0.0
  0
ARC
  5
4CDD
330
1A
100
AcDbEntity
  8
SEIHIN
100
AcDbCircle
 10
112.7628067940843
 20
85.85894665583031
 30
0.0
 40
1.0
100
AcDbArc
 50
0.0
 51
90.0
  0
LINE
  5
4CDE
330
1A
100
AcDbEntity
  8
SEIHIN
100
AcDbLine
 10
120.2628067960844
 20
76.16534300583032
 30
0.0
 11
120.2628067960844
 21
97.47616687483031
 31
0.0
  0
LINE
  5
4CDF
330
1A
100
AcDbEntity
  8
SEIHIN
100
AcDbLine
 10
149.7761902740843
 20
89.35894665583033
 30
0.0
 11
120.2628067960844
 21
89.35894665583033
 31
0.0
  0
MTEXT
  5
4CE0
330
1A
100
AcDbEntity
  8
SEIHIN
100
AcDbMText
 10
121.2116273680843
 20
83.77072387983032
 30
0.0
 40
2.381249964
 41
0.0
 71
     1
 72
     5
  1
{\W1.703704;0}
1001
ACAD
1000
MTEXTBEGIN
1070
    73
1070
     1
1070
    44
1040
1.0
1070
    74
1070
     0
1000
MTEXTEND
1000
MTEXTBEGIN
1070
    73
1070
     1
1070
    44
1040
1.0
1070
    74
1070
     0
1000
MTEXTEND
1000
MTEXTBEGIN
1070
    73
1070
     1
1070
    44
1040
1.0
1070
    74
1070
     0
1000
MTEXTEND
1000
MTEXTBEGIN
1070
    73
1070
     1
1070
    44
1040
1.0
1070
    74
1070
     0
1000
MTEXTEND
1000
MTEXTBEGIN
1070
    73
1070
     1
1070
    44
1040
1.0
1070
    74
1070
     0
1000
MTEXTEND
1000
MTEXTBEGIN
1070
    73
1070
     1
1070
    44
1040
1.0
1070
    74
1070
     0
1000
MTEXTEND
1000
MTEXTBEGIN
1070
    73
1070
     1
1070
    44
1040
1.0
1070
    74
1070
     0
1000
MTEXTEND
1000
MTEXTBEGIN
1070
    73
1070
     1
1070
    44
1040
1.0
1070
    74
1070
     0
1000
MTEXTEND
1000
MTEXTBEGIN
1070
    73
1070
     1
1070
    44
1040
1.0
1070
    74
1070
     0
1000
MTEXTEND
1000
MTEXTBEGIN
1070
    73
1070
     1
1070
    44
1040
1.0
1070
    74
1070
     0
1000
MTEXTEND
1000
MTEXTBEGIN
1070
    73
1070
     1
1070
    44
1040
1.0
1070
    74
1070
     0
1000
MTEXTEND
1000
MTEXTBEGIN
1070
    73
1070
     1
1070
    44
1040
1.0
1070
    74
1070
     0
1000
MTEXTEND
1000
MTEXTBEGIN
1070
    73
1070
     1
1070
    44
1040
1.0
1070
    74
1070
     0
1000
MTEXTEND
1000
MTEXTBEGIN
1070
    73
1070
     1
1070
    44
1040
1.0
1070
    74
1070
     0
1000
MTEXTEND
1000
MTEXTBEGIN
1070
    73
1070
     1
1070
    44
1040
1.0
1070
    74
1070
     0
1000
MTEXTEND
  0
LINE
  5
4CE1
330
1A
100
AcDbEntity
  8
SEIHIN
100
AcDbLine
 10
120.5128067960844
 20
84.85894665583032
 30
0.0
 11
120.2628067960844
 21
84.85894665583032
 31
0.0
  0
LINE
  5
4CE2
330
1A
100
AcDbEntity
  8
SEIHIN
100
AcDbLine
 10
120.2628067960844
 20
86.85894665583033
 30
0.0
 11
120.5128067960844
 21
86.85894665583033
 31
0.0
  0
LINE
  5
4CE3
330
1A
100
AcDbEntity
  8
SEIHIN
100
AcDbLine
 10
120.5128067960844
 20
86.85894665583033
 30
0.0
 11
120.5128067960844
 21
84.85894665583032
 31
0.0
  0
LINE
  5
4CE4
330
1A
100
AcDbEntity
  8
SEIHIN
100
AcDbLine
 10
125.5128067965844
 20
86.85894665583033
 30
0.0
 11
125.5128067965844
 21
84.85894665583032
 31
0.0
  0
LINE
  5
4CE5
330
1A
100
AcDbEntity
  8
SEIHIN
100
AcDbLine
 10
125.0128067965844
 20
84.85894665583032
 30
0.0
 11
125.0128067965844
 21
86.85894665583033
 31
0.0
  0
LINE
  5
4CE6
330
1A
100
AcDbEntity
  8
SEIHIN
100
AcDbLine
 10
125.5128067965844
 20
84.85894665583032
 30
0.0
 11
125.0128067965844
 21
84.85894665583032
 31
0.0
  0
LINE
  5
4CE7
330
1A
100
AcDbEntity
  8
SEIHIN
100
AcDbLine
 10
125.0128067965844
 20
86.85894665583033
 30
0.0
 11
125.5128067965844
 21
86.85894665583033
 31
0.0
  0
MTEXT
  5
4CE8
330
1A
100
AcDbEntity
  8
SEIHIN
100
AcDbMText
 10
128.3537990530843
 20
83.77072387983032
 30
0.0
 40
2.381249964
 41
0.0
 71
     1
 72
     5
  1
{\W1.135802;30}
1001
ACAD
1000
MTEXTBEGIN
1070
    73
1070
     1
1070
    44
1040
1.0
1070
    74
1070
     0
1000
MTEXTEND
1000
MTEXTBEGIN
1070
    73
1070
     1
1070
    44
1040
1.0
1070
    74
1070
     0
1000
MTEXTEND
1000
MTEXTBEGIN
1070
    73
1070
     1
1070
    44
1040
1.0
1070
    74
1070
     0
1000
MTEXTEND
1000
MTEXTBEGIN
1070
    73
1070
     1
1070
    44
1040
1.0
1070
    74
1070
     0
1000
MTEXTEND
1000
MTEXTBEGIN
1070
    73
1070
     1
1070
    44
1040
1.0
1070
    74
1070
     0
1000
MTEXTEND
1000
MTEXTBEGIN
1070
    73
1070
     1
1070
    44
1040
1.0
1070
    74
1070
     0
1000
MTEXTEND
1000
MTEXTBEGIN
1070
    73
1070
     1
1070
    44
1040
1.0
1070
    74
1070
     0
1000
MTEXTEND
1000
MTEXTBEGIN
1070
    73
1070
     1
1070
    44
1040
1.0
1070
    74
1070
     0
1000
MTEXTEND
1000
MTEXTBEGIN
1070
    73
1070
     1
1070
    44
1040
1.0
1070
    74
1070
     0
1000
MTEXTEND
1000
MTEXTBEGIN
1070
    73
1070
     1
1070
    44
1040
1.0
1070
    74
1070
     0
1000
MTEXTEND
1000
MTEXTBEGIN
1070
    73
1070
     1
1070
    44
1040
1.0
1070
    74
1070
     0
1000
MTEXTEND
1000
MTEXTBEGIN
1070
    73
1070
     1
1070
    44
1040
1.0
1070
    74
1070
     0
1000
MTEXTEND
1000
MTEXTBEGIN
1070
    73
1070
     1
1070
    44
1040
1.0
1070
    74
1070
     0
1000
MTEXTEND
1000
MTEXTBEGIN
1070
    73
1070
     1
1070
    44
1040
1.0
1070
    74
1070
     0
1000
MTEXTEND
1000
MTEXTBEGIN
1070
    73
1070
     1
1070
    44
1040
1.0
1070
    74
1070
     0
1000
MTEXTEND
  0
LINE
  5
4CE9
330
1A
100
AcDbEntity
  8
SEIHIN
100
AcDbLine
 10
130.0128067960844
 20
84.85894665583032
 30
0.0
 11
130.0128067960844
 21
86.85894665583033
 31
0.0
  0
LINE
  5
4CEA
330
1A
100
AcDbEntity
  8
SEIHIN
100
AcDbLine
 10
130.5128067960844
 20
84.85894665583032
 30
0.0
 11
130.0128067960844
 21
84.85894665583032
 31
0.0
  0
LINE
  5
4CEB
330
1A
100
AcDbEntity
  8
SEIHIN
100
AcDbLine
 10
130.5128067960844
 20
86.85894665583033
 30
0.0
 11
130.5128067960844
 21
84.85894665583032
 31
0.0
  0
LINE
  5
4CEC
330
1A
100
AcDbEntity
  8
SEIHIN
100
AcDbLine
 10
130.0128067960844
 20
86.85894665583033
 30
0.0
 11
130.5128067960844
 21
86.85894665583033
 31
0.0
  0
LINE
  5
4CED
330
1A
100
AcDbEntity
  8
SEIHIN
100
AcDbLine
 10
135.0128067940843
 20
84.85894665583032
 30
0.0
 11
135.0128067940843
 21
86.85894665583033
 31
0.0
  0
LINE
  5
4CEE
330
1A
100
AcDbEntity
  8
SEIHIN
100
AcDbLine
 10
135.5128067940843
 20
84.85894665583032
 30
0.0
 11
135.0128067940843
 21
84.85894665583032
 31
0.0
  0
LINE
  5
4CEF
330
1A
100
AcDbEntity
  8
SEIHIN
100
AcDbLine
 10
135.5128067940843
 20
86.85894665583033
 30
0.0
 11
135.5128067940843
 21
84.85894665583032
 31
0.0
  0
LINE
  5
4CF0
330
1A
100
AcDbEntity
  8
SEIHIN
100
AcDbLine
 10
135.0128067940843
 20
86.85894665583033
 30
0.0
 11
135.5128067940843
 21
86.85894665583033
 31
0.0
  0
ARC
  5
4CF1
330
1A
100
AcDbEntity
  8
SEIHIN
100
AcDbCircle
 10
117.0931624680843
 20
94.35894665583038
 30
0.0
 40
4.999999998488868
100
AcDbArc
 50
309.3405856461536
 51
337.0000000246323
  0
LINE
  5
4CF2
330
1A
100
AcDbEntity
  8
SEIHIN
100
AcDbLine
 10
142.7341902740844
 20
86.85894665583033
 30
0.0
 11
142.7341902740844
 21
80.85894665583031
 31
0.0
  0
ARC
  5
4CF3
330
1A
100
AcDbEntity
  8
SEIHIN
100
AcDbCircle
 10
149.7762652640843
 20
90.85898295683035
 30
0.0
 40
1.5000363023233
100
AcDbArc
 50
269.9971356623169
 51
321.6588485138866
  0
LINE
  5
4CF4
330
1A
100
AcDbEntity
  8
SEIHIN
100
AcDbLine
 10
119.0125675460843
 20
101.4400863158303
 30
0.0
 11
122.1137714210843
 21
108.7460648018303
 31
0.0
  0
ARC
  5
4CF5
330
1A
100
AcDbEntity
  8
SEIHIN
100
AcDbCircle
 10
119.8791324220843
 20
102.1548129058303
 30
0.0
 40
1.999999998034308
100
AcDbArc
 50
81.3925754114239
 51
140.2691567429563
  0
LINE
  5
4CF6
330
1A
100
AcDbEntity
  8
SEIHIN
100
AcDbLine
 10
120.2531541890843
 20
106.1284167778303
 30
0.0
 11
108.5766981940843
 21
107.7775275878303
 31
0.0
  0
LINE
  5
4CF7
330
1A
100
AcDbEntity
  8
SEIHIN
100
AcDbLine
 10
120.3183798060843
 20
105.1092804578303
 30
0.0
 11
107.9120603840843
 21
106.8614726888303
 31
0.0
  0
ARC
  5
4CF8
330
1A
100
AcDbEntity
  8
SEIHIN
100
AcDbCircle
 10
103.5581704040843
 20
105.3543105168303
 30
0.0
 40
1.000000000382152
100
AcDbArc
 50
81.96106612019013
 51
171.9610661362135
  0
ARC
  5
4CF9
330
1A
100
AcDbEntity
  8
SEIHIN
100
AcDbCircle
 10
106.9077311040844
 20
106.9010876788303
 30
0.0
 40
1.000000000947164
100
AcDbArc
 50
261.9610661282026
 51
351.9610660794812
  0
LINE
  5
4CFA
330
1A
100
AcDbEntity
  8
SEIHIN
100
AcDbLine
 10
106.7678851240843
 20
105.9109144098303
 30
0.0
 11
103.6980163840843
 21
106.3444837848303
 31
0.0
  0
ARC
  5
4CFB
330
1A
100
AcDbEntity
  8
SEIHIN
100
AcDbCircle
 10
108.5025798240843
 20
107.2527357558303
 30
0.0
 40
0.5299999986619547
100
AcDbArc
 50
81.96106605535986
 51
171.9610661321678
  0
LINE
  5
4CFC
330
1A
100
AcDbEntity
  8
SEIHIN
100
AcDbLine
 10
107.8979043740843
 20
106.7612416978303
 30
0.0
 11
107.9777879940843
 21
107.3268541258303
 31
0.0
  0
LINE
  5
4CFD
330
1A
100
AcDbEntity
  8
SEIHIN
100
AcDbLine
 10
117.9338915690844
 20
102.9433234758303
 30
0.0
 11
118.3410212550843
 21
103.4331767158303
 31
0.0
  0
ARC
  5
4CFE
330
1A
100
AcDbEntity
  8
SEIHIN
100
AcDbCircle
 10
132.2393248090844
 20
104.4480223888303
 30
0.0
 40
10.99999999988113
100
AcDbArc
 50
96.99999999767374
 51
157.0000000018785
  0
ARC
  5
4CFF
330
1A
100
AcDbEntity
  8
SEIHIN
100
AcDbCircle
 10
133.6291570720843
 20
102.6036526858303
 30
0.0
 40
6.999999997300971
100
AcDbArc
 50
97.00000000580986
 51
157.0000000360039
  0
LINE
  5
4D00
330
1A
100
AcDbEntity
  8
SEIHIN
100
AcDbLine
 10
120.2531541890843
 20
106.1284167778303
 30
0.0
 11
121.3543965830844
 21
106.9570897918303
 31
0.0
  0
ARC
  5
4D01
330
1A
100
AcDbEntity
  8
SEIHIN
100
AcDbCircle
 10
120.3883027970843
 20
105.6043670918303
 30
0.0
 40
0.4999999993033452
100
AcDbArc
 50
261.9610660067247
 51
306.9610660871877
  0
LINE
  5
4D02
330
1A
100
AcDbEntity
  8
SEIHIN
100
AcDbLine
 10
131.5751102920843
 20
117.7490196978303
 30
0.0
 11
130.6690898940843
 21
118.1722537208303
 31
0.0
  0
LINE
  5
4D03
330
1A
100
AcDbEntity
  8
SEIHIN
100
AcDbLine
 10
129.2254387940843
 20
115.0270814718303
 30
0.0
 11
130.6690898940843
 21
118.1722537208303
 31
0.0
  0
LINE
  5
4D04
330
1A
100
AcDbEntity
  8
SEIHIN
100
AcDbLine
 10
130.4579775510843
 20
115.3028278658303
 30
0.0
 11
131.5751102920843
 21
117.7490196978303
 31
0.0
  0
LINE
  5
4D05
330
1A
100
AcDbEntity
  8
SEIHIN
100
AcDbLine
 10
208.2436514540844
 20
83.84933047583036
 30
0.0
 11
192.1439620140843
 21
116.0487093478303
 31
0.0
  0
LINE
  5
4D06
330
1A
100
AcDbEntity
  8
SEIHIN
100
AcDbLine
 10
198.1366241940843
 20
119.0450404368303
 30
0.0
 11
214.2363136340843
 21
86.84566156583036
 31
0.0
  0
LINE
  5
4D07
330
1A
100
AcDbEntity
  8
SEIHIN
100
AcDbLine
 10
197.0633115640843
 20
118.5083841228303
 30
0.0
 11
213.1630010040843
 21
86.30900524583035
 31
0.0
  0
ARC
  5
4D08
330
1A
100
AcDbEntity
  8
SEIHIN
100
AcDbCircle
 10
182.5525902740844
 20
103.5589466558303
 30
0.0
 40
3.0
100
AcDbArc
 50
270.0
 51
90.0
  0
ARC
  5
4D09
330
1A
100
AcDbEntity
  8
SEIHIN
100
AcDbCircle
 10
179.7025902740843
 20
99.0588466556303
 30
0.0
 40
10.0000000001
100
AcDbArc
 50
0.0
 51
90.0
  0
ARC
  5
4D0A
330
1A
100
AcDbEntity
  8
SEIHIN
100
AcDbCircle
 10
171.6484853840843
 20
97.55884428783032
 30
0.0
 40
3.000002368933987
100
AcDbArc
 50
89.99990660795349
 51
141.6619327663495
  0
LINE
  5
4D0B
330
1A
100
AcDbEntity
  8
SEIHIN
100
AcDbLine
 10
166.3907902740843
 20
105.4197466558303
 30
0.0
 11
154.9709902740843
 21
90.97924665583031
 31
0.0
  0
ARC
  5
4D0C
330
1A
100
AcDbEntity
  8
SEIHIN
100
AcDbCircle
 10
185.2025902740844
 20
80.68996327583034
 30
0.0
 40
4.500000000783715
100
AcDbArc
 50
216.0326608768124
 51
0.0
  0
ARC
  5
4D0D
330
1A
100
AcDbEntity
  8
SEIHIN
100
AcDbCircle
 10
178.7025902740843
 20
92.05884665583033
 30
0.0
 40
5.999999999899999
100
AcDbArc
 50
0.0
 51
90.0
  0
LINE
  5
4D0E
330
1A
100
AcDbEntity
  8
NOKITOI
  6
PHANTOM
 62
     8
100
AcDbLine
 10
171.8242402740846
 20
56.6634466549927
 30
0.0
 11
177.6629402740844
 21
84.3948466549927
 31
0.0
  0
LINE
  5
4D0F
330
1A
100
AcDbEntity
  8
NOKITOI
  6
PHANTOM
 62
     8
100
AcDbLine
 10
170.7155402740846
 20
57.67594665499285
 30
0.0
 11
176.1705402740844
 21
83.58484665499275
 31
0.0
  0
ARC
  5
4D10
330
1A
100
AcDbEntity
  8
NOKITOI
  6
PHANTOM
 62
     8
100
AcDbCircle
 10
174.5842547776331
 20
43.44855457918129
 30
0.0
 40
14.22809199964113
100
AcDbArc
 50
108.5474584936554
 51
128.7537062451649
  0
LINE
  5
4D11
330
1A
100
AcDbEntity
  8
NOKITOI
  6
PHANTOM
 62
     8
100
AcDbLine
 10
155.6973402740844
 20
54.54434665499269
 30
0.0
 11
165.6778402740844
 21
54.54424665499283
 31
0.0
  0
ARC
  5
4D12
330
1A
100
AcDbEntity
  8
NOKITOI
  6
PHANTOM
 62
     8
100
AcDbCircle
 10
170.8506146109367
 20
56.86852590638029
 30
0.0
 40
0.9949690575286499
100
AcDbArc
 50
285.5437330810334
 51
348.1110361155306
  0
ARC
  5
4D13
330
1A
100
AcDbEntity
  8
NOKITOI
  6
PHANTOM
 62
     8
100
AcDbCircle
 10
169.7419838436356
 20
57.8809956067617
 30
0.0
 40
0.9950135261271753
100
AcDbArc
 50
288.5445751594485
 51
348.1074736523477
  0
LINE
  5
4D14
330
1A
100
AcDbEntity
  8
SEIHIN
100
AcDbLine
 10
160.2952902740843
 20
81.2444466558303
 30
0.0
 11
173.6896902740844
 21
82.95394665583035
 31
0.0
  0
LINE
  5
4D15
330
1A
100
AcDbEntity
  8
SEIHIN
100
AcDbLine
 10
156.3655902740844
 20
78.35884665583034
 30
0.0
 11
173.8802902740843
 21
81.76984665583034
 31
0.0
  0
LINE
  5
4D16
330
1A
100
AcDbEntity
  8
SEIHIN
100
AcDbLine
 10
169.9049902740844
 20
96.16024665583035
 30
0.0
 11
159.3842902740843
 21
82.8567466558303
 31
0.0
  0
LINE
  5
4D17
330
1A
100
AcDbEntity
  8
SEIHIN
100
AcDbLine
 10
169.2953902740844
 20
99.41974665563032
 30
0.0
 11
161.6393902740844
 21
89.73864665583034
 31
0.0
  0
LINE
  5
4D18
330
1A
100
AcDbEntity
  8
SEIHIN
100
AcDbLine
 10
154.9173902740843
 20
81.2385466558303
 30
0.0
 11
158.0806902740844
 21
85.23864665583033
 31
0.0
  0
ARC
  5
4D19
330
1A
100
AcDbEntity
  8
SEIHIN
100
AcDbCircle
 10
154.1330189040843
 20
81.85886051583031
 30
0.0
 40
1.000013862902801
100
AcDbArc
 50
269.9983596445684
 51
321.6615704529417
  0
ARC
  5
4D1A
330
1A
100
AcDbEntity
  8
SEIHIN
100
AcDbCircle
 10
160.1686950740843
 20
82.23643816583035
 30
0.0
 40
1.000036752725678
100
AcDbArc
 50
141.6629998625316
 51
277.2726171970298
  0
ARC
  5
4D1B
330
1A
100
AcDbEntity
  8
SEIHIN
100
AcDbCircle
 10
157.2962969840844
 20
85.85893279583036
 30
0.0
 40
1.00001386218148
100
AcDbArc
 50
321.6635952327493
 51
90.0003844493519
  0
LINE
  5
4D1C
330
1A
100
AcDbEntity
  8
SEIHIN
100
AcDbLine
 10
160.8549902740844
 20
89.35894665583033
 30
0.0
 11
155.7553902740844
 21
89.35894665583033
 31
0.0
  0
ARC
  5
4D1D
330
1A
100
AcDbEntity
  8
SEIHIN
100
AcDbCircle
 10
155.7553985740843
 20
90.35892950583036
 30
0.0
 40
0.9999828485094189
100
AcDbArc
 50
141.6672292746693
 51
269.9995244368737
  0
ARC
  5
4D1E
330
1A
100
AcDbEntity
  8
SEIHIN
100
AcDbCircle
 10
160.8550189040843
 20
90.35896051783032
 30
0.0
 40
1.000013864523104
100
AcDbArc
 50
269.9983596445718
 51
321.6615703630643
  0
LINE
  5
4D1F
330
1A
100
AcDbEntity
  8
NOKITOI
  6
PHANTOM
 62
     8
100
AcDbLine
 10
183.4008402740846
 20
85.85274665499269
 30
0.0
 11
183.4008402740846
 21
93.25224665499291
 31
0.0
  0
LINE
  5
4D20
330
1A
100
AcDbEntity
  8
NOKITOI
  6
PHANTOM
 62
     8
100
AcDbLine
 10
184.7008402740845
 20
85.54774665499275
 30
0.0
 11
184.7008402740845
 21
93.55734665499273
 31
0.0
  0
LINE
  5
4D21
330
1A
100
AcDbEntity
  8
NOKITOI
  6
PHANTOM
 62
     8
100
AcDbLine
 10
176.1705402740844
 20
83.58484665499275
 30
0.0
 11
178.4796402740843
 21
94.55224665499276
 31
0.0
  0
LINE
  5
4D22
330
1A
100
AcDbEntity
  8
NOKITOI
  6
PHANTOM
 62
     8
100
AcDbLine
 10
179.5344402740843
 20
93.25224665499291
 30
0.0
 11
177.9765402740845
 21
85.85284665499278
 31
0.0
  0
LINE
  5
4D23
330
1A
100
AcDbEntity
  8
SEIHIN
100
AcDbLine
 10
184.7025902740844
 20
82.46404549583031
 30
0.0
 11
184.7025902740844
 21
92.05884665583033
 31
0.0
  0
ARC
  5
4D24
330
1A
100
AcDbEntity
  8
SEIHIN
100
AcDbCircle
 10
173.7655927940844
 20
82.35880699583033
 30
0.0
 40
0.5999603391169003
100
AcDbArc
 50
269.9997593418182
 51
97.26811277064527
  0
LINE
  5
4D25
330
1A
100
AcDbEntity
  8
SEIHIN
100
AcDbLine
 10
180.6128902740844
 20
84.29934665583033
 30
0.0
 11
183.9215246840843
 21
82.05052145583033
 31
0.0
  0
ARC
  5
4D26
330
1A
100
AcDbEntity
  8
SEIHIN
100
AcDbCircle
 10
179.7696821040843
 20
83.05883545583032
 30
0.0
 40
1.500013201217973
100
AcDbArc
 50
61.61017886408406
 51
226.1911119609332
  0
LINE
  5
4D27
330
1A
100
AcDbEntity
  8
SEIHIN
100
AcDbLine
 10
181.5635221640843
 20
78.04285479583035
 30
0.0
 11
178.5566902740844
 21
82.17644665583032
 31
0.0
  0
ARC
  5
4D28
330
1A
100
AcDbEntity
  8
SEIHIN
100
AcDbCircle
 10
184.2025902740844
 20
82.46404549583031
 30
0.0
 40
0.4999999987699835
100
AcDbArc
 50
235.7966882627013
 51
0.0
  0
LINE
  5
4D29
330
1A
100
AcDbEntity
  8
NOKITOI
  6
PHANTOM
 62
     8
100
AcDbLine
 10
177.8576402740844
 20
84.55274665499286
 30
0.0
 11
183.7058402740845
 21
84.55274665499286
 31
0.0
  0
LINE
  5
4D2A
330
1A
100
AcDbEntity
  8
NOKITOI
  6
PHANTOM
 62
     8
100
AcDbLine
 10
183.4008402740846
 20
85.85274665499269
 30
0.0
 11
177.9765402740845
 21
85.85284665499278
 31
0.0
  0
ARC
  5
4D2B
330
1A
100
AcDbEntity
  8
NOKITOI
  6
PHANTOM
 62
     8
100
AcDbCircle
 10
177.8576587166987
 20
84.35386161842956
 30
0.0
 40
0.1989850374179911
100
AcDbArc
 50
90.00531036897097
 51
168.1136861719431
  0
ARC
  5
4D2C
330
1A
100
AcDbEntity
  8
NOKITOI
  6
PHANTOM
 62
     8
100
AcDbCircle
 10
183.7058402740846
 20
85.5477466549928
 30
0.0
 40
0.9949999999999192
100
AcDbArc
 50
269.9999999999951
 51
359.9999999999951
  0
LINE
  5
4D2D
330
1A
100
AcDbEntity
  8
SEIHIN
100
AcDbLine
 10
171.6484902740844
 20
100.5588466558303
 30
0.0
 11
182.5525902740844
 21
100.5589466558303
 31
0.0
  0
LINE
  5
4D2E
330
1A
100
AcDbEntity
  8
SEIHIN
100
AcDbLine
 10
178.7025902740843
 20
98.05884665563031
 30
0.0
 11
173.8268902740844
 21
98.05884665563031
 31
0.0
  0
ARC
  5
4D2F
330
1A
100
AcDbEntity
  8
SEIHIN
100
AcDbCircle
 10
173.8268281140843
 20
93.05881656283032
 30
0.0
 40
5.000030094599926
100
AcDbArc
 50
89.99928770315646
 51
141.6617877220316
  0
LINE
  5
4D30
330
1A
100
AcDbEntity
  8
NOKITOI
  6
PHANTOM
 62
     8
100
AcDbLine
 10
183.4008402740846
 20
93.25224665499291
 30
0.0
 11
179.5344402740843
 21
93.25224665499291
 31
0.0
  0
LINE
  5
4D31
330
1A
100
AcDbEntity
  8
NOKITOI
  6
PHANTOM
 62
     8
100
AcDbLine
 10
183.7058402740845
 20
94.55234665499284
 30
0.0
 11
178.5021402740845
 21
94.55224665499276
 31
0.0
  0
ARC
  5
4D32
330
1A
100
AcDbEntity
  8
NOKITOI
  6
PHANTOM
 62
     8
100
AcDbCircle
 10
183.7058402740845
 20
93.55734665499284
 30
0.0
 40
0.9950000000000613
100
AcDbArc
 50
359.9999999999967
 51
89.99999999999674
  0
LINE
  5
4D33
330
1A
100
AcDbEntity
  8
SEIHIN
100
AcDbLine
 10
189.7025902740844
 20
80.68996327583034
 30
0.0
 11
189.7025902740844
 21
99.0588466556303
 31
0.0
  0
LINE
  5
4D34
330
1A
100
AcDbEntity
  8
SEIHIN
100
AcDbLine
 10
214.2363136340843
 20
86.84566156583036
 30
0.0
 11
208.2436514540844
 21
83.84933047583036
 31
0.0
  0
LINE
  5
4D35
330
1A
100
AcDbEntity
  8
SEIHIN
100
AcDbLine
 10
206.902010629627
 20
92.12278206469012
 30
0.0
 11
210.9269329898927
 21
90.78114127649159
 31
0.0
  0
LINE
  5
4D36
330
1A
100
AcDbEntity
  8
SEIHIN
100
AcDbLine
 10
208.2436514170262
 20
96.14770442255776
 30
0.0
 11
206.902010629627
 21
92.12278206469012
 31
0.0
  0
LINE
  5
4D37
330
1A
100
AcDbEntity
  8
SEIHIN
100
AcDbLine
 10
206.902010629627
 20
92.12278206469013
 30
0.0
 11
209.5852922034594
 21
93.46442284952468
 31
0.0
  0
ARC
  5
4D38
330
1A
100
AcDbEntity
  8
SEIHIN
100
AcDbCircle
 10
186.9562843140844
 20
120.1630744258303
 30
0.0
 40
4.000000003240691
100
AcDbArc
 50
26.56506216954025
 51
170.791845626957
  0
ARC
  5
4D39
330
1A
100
AcDbEntity
  8
SEIHIN
100
AcDbCircle
 10
186.9562843140844
 20
120.1630744258303
 30
0.0
 40
9.999999999266158
100
AcDbArc
 50
52.40698403634237
 51
170.7918456103775
  0
LINE
  5
4D3A
330
1A
100
AcDbEntity
  8
SEIHIN
100
AcDbLine
 10
182.5525902740844
 20
106.5589466558303
 30
0.0
 11
168.7438902740843
 21
106.5588466558303
 31
0.0
  0
LINE
  5
4D3B
330
1A
100
AcDbEntity
  8
SEIHIN
100
AcDbLine
 10
168.5018902740844
 20
109.0588466558303
 30
0.0
 11
179.7025902740843
 21
109.0588466558303
 31
0.0
  0
ARC
  5
4D3C
330
1A
100
AcDbEntity
  8
SEIHIN
100
AcDbCircle
 10
168.7438853840843
 20
103.5588442878303
 30
0.0
 40
3.000002368996017
100
AcDbArc
 50
89.99990660795349
 51
141.6619327633552
  0
ARC
  5
4D3D
330
1A
100
AcDbEntity
  8
SEIHIN
100
AcDbCircle
 10
168.5018281140843
 20
104.0588165628303
 30
0.0
 40
5.000030094699926
100
AcDbArc
 50
89.99928770315646
 51
141.6617877220316
  0
ARC
  5
4D3E
330
1A
100
AcDbEntity
  8
SEIHIN
100
AcDbCircle
 10
176.0980358040843
 20
121.9233128648304
 30
0.0
 40
0.9999999994877535
100
AcDbArc
 50
277.0000142374863
 51
350.7918456181773
  0
ARC
  5
4D3F
330
1A
100
AcDbEntity
  8
SEIHIN
100
AcDbCircle
 10
176.0980358040843
 20
121.9233128648304
 30
0.0
 40
6.999999997359642
100
AcDbArc
 50
276.9999999693237
 51
350.7918456020168
  0
LINE
  5
4D40
330
1A
100
AcDbEntity
  8
SEIHIN
100
AcDbLine
 10
193.0567701503846
 20
128.0867145329038
 30
0.0
 11
197.6894106040844
 21
118.8214336398303
 31
0.0
  0
LINE
  5
4D41
330
1A
100
AcDbEntity
  8
SEIHIN
100
AcDbLine
 10
197.9577387230715
 20
110.0113258789123
 30
0.0
 11
201.9826610833371
 21
108.6696850907138
 31
0.0
  0
LINE
  5
4D42
330
1A
100
AcDbEntity
  8
CENTER_L
100
AcDbLine
 10
193.2476339078064
 20
110.487263599584
 30
0.0
 11
206.8429272112413
 21
117.2849102489263
 31
0.0
  0
LINE
  5
4D43
330
1A
100
AcDbEntity
  8
CENTER_L
100
AcDbLine
 10
197.0489494703238
 20
102.884632474077
 30
0.0
 11
210.6442427745142
 21
109.6822791237971
 31
0.0
  0
LINE
  5
4D44
330
1A
100
AcDbEntity
  8
SEIHIN
100
AcDbLine
 10
199.2993795104707
 20
114.0362482367799
 30
0.0
 11
197.9577387230715
 21
110.0113258789123
 31
0.0
  0
LINE
  5
4D45
330
1A
100
AcDbEntity
  8
SEIHIN
100
AcDbLine
 10
197.9577387230715
 20
110.0113258789123
 30
0.0
 11
200.6410202969039
 21
111.3529666637469
 31
0.0
  0
LINE
  5
4D46
330
1A
100
AcDbEntity
  8
SEIHIN
100
AcDbLine
 10
192.1439620140843
 20
116.0487093478303
 30
0.0
 11
198.1366241940843
 21
119.0450404368303
 31
0.0
  0
LINE
  5
4D47
330
1A
100
AcDbEntity
  8
SEIHIN
100
AcDbLine
 10
190.5339927340843
 20
121.9519294938304
 30
0.0
 11
193.2172746440843
 21
116.5853656618303
 31
0.0
  0
ELLIPSE
  5
4D48
330
1A
100
AcDbEntity
  8
SEIHIN
100
AcDbEllipse
 10
213.3418864430009
 20
241.9106427484323
 30
0.0
 11
0.0
 21
2.0
 31
0.0
210
0.0
220
0.0
230
1.0
 40
0.4472135955417543
 41
4.712388980384689
 42
6.283185307179586
  0
ELLIPSE
  5
4D49
330
1A
100
AcDbEntity
  8
SEIHIN
100
AcDbEllipse
 10
213.3418864430009
 20
192.9106427484323
 30
0.0
 11
0.0
 21
-2.0
 31
0.0
210
0.0
220
0.0
230
-1.0
 40
0.4472135955417543
 41
4.712388980384689
 42
6.283185307179586
  0
ELLIPSE
  5
4D4A
330
1A
100
AcDbEntity
  8
SEIHIN
100
AcDbEllipse
 10
200.5819368738044
 20
238.4106427484323
 30
0.0
 11
0.0
 21
-2.1000000000672
 31
0.0
210
0.0
220
0.0
230
-1.0
 40
0.4867014234079679
 41
0.0000000000000009
 42
3.141592653589807
  0
ELLIPSE
  5
4D4B
330
1A
100
AcDbEntity
  8
SEIHIN
100
AcDbEllipse
 10
200.5819368738044
 20
238.4106427484323
 30
0.0
 11
0.0
 21
-2.1000000000672
 31
0.0
210
0.0
220
0.0
230
-1.0
 40
0.4867014234079679
 41
3.141592653589791
 42
6.2831853071796
  0
ELLIPSE
  5
4D4C
330
1A
100
AcDbEntity
  8
SEIHIN
100
AcDbEllipse
 10
200.5819368738044
 20
238.4106427484323
 30
0.0
 11
0.0
 21
-2.1000000000672
 31
0.0
210
0.0
220
0.0
230
-1.0
 40
0.4867014234079679
 41
-1.570796326794896
 42
4.712388980384689
  0
ELLIPSE
  5
4D4D
330
1A
100
AcDbEntity
  8
SEIHIN
100
AcDbEllipse
 10
204.3832524370773
 20
236.9106427484323
 30
0.0
 11
0.0
 21
-2.874999999613672
 31
0.0
210
0.0
220
0.0
230
-1.0
 40
0.3913043478762229
 41
-1.570796326794896
 42
4.712388980384689
  0
ELLIPSE
  5
4D4E
330
1A
100
AcDbEntity
  8
SEIHIN
100
AcDbEllipse
 10
207.9377533947844
 20
217.4106427484323
 30
0.0
 11
0.0
 21
-2.8559114857152
 31
0.0
210
0.0
220
0.0
230
-1.0
 40
0.4680467910551545
 41
-1.570796326794896
 42
4.712388980384689
  0
ELLIPSE
  5
4D4F
330
1A
100
AcDbEntity
  8
SEIHIN
100
AcDbEllipse
 10
199.0310513872176
 20
241.9106427484323
 30
0.0
 11
0.0
 21
2.0
 31
0.0
210
0.0
220
0.0
230
1.0
 40
0.4472135955666233
 41
6.28318530587672
 42
7.853981633974482
  0
ELLIPSE
  5
4D50
330
1A
100
AcDbEntity
  8
SEIHIN
100
AcDbEllipse
 10
197.9577387572176
 20
241.9106427484323
 30
0.0
 11
0.0
 21
2.0
 31
0.0
210
0.0
220
0.0
230
1.0
 40
0.4472135955666233
 41
6.28318530587672
 42
7.853981633974482
  0
ELLIPSE
  5
4D51
330
1A
100
AcDbEntity
  8
SEIHIN
100
AcDbEllipse
 10
204.3832524370773
 20
197.9106427484323
 30
0.0
 11
0.0
 21
2.874999999613672
 31
0.0
210
0.0
220
0.0
230
1.0
 40
0.3913043478762229
 41
-1.570796326794896
 42
4.712388980384689
  0
ELLIPSE
  5
4D52
330
1A
100
AcDbEntity
  8
SEIHIN
100
AcDbEllipse
 10
200.5819368738044
 20
196.4106427484323
 30
0.0
 11
0.0
 21
2.1000000000672
 31
0.0
210
0.0
220
0.0
230
1.0
 40
0.4867014234079679
 41
0.0000000000000009
 42
3.141592653589807
  0
ELLIPSE
  5
4D53
330
1A
100
AcDbEntity
  8
SEIHIN
100
AcDbEllipse
 10
200.5819368738044
 20
196.4106427484323
 30
0.0
 11
0.0
 21
2.1000000000672
 31
0.0
210
0.0
220
0.0
230
1.0
 40
0.4867014234079679
 41
3.141592653589791
 42
6.2831853071796
  0
ELLIPSE
  5
4D54
330
1A
100
AcDbEntity
  8
SEIHIN
100
AcDbEllipse
 10
200.5819368738044
 20
196.4106427484323
 30
0.0
 11
0.0
 21
2.1000000000672
 31
0.0
210
0.0
220
0.0
230
1.0
 40
0.4867014234079679
 41
-1.570796326794896
 42
4.712388980384689
  0
ELLIPSE
  5
4D55
330
1A
100
AcDbEntity
  8
SEIHIN
100
AcDbEllipse
 10
197.9577387572176
 20
192.9106427484322
 30
0.0
 11
0.0
 21
-2.0
 31
0.0
210
0.0
220
0.0
230
-1.0
 40
0.4472135955666233
 41
6.28318530587672
 42
7.853981633974482
  0
ELLIPSE
  5
4D56
330
1A
100
AcDbEntity
  8
SEIHIN
100
AcDbEllipse
 10
199.0310513872176
 20
192.9106427484323
 30
0.0
 11
0.0
 21
-2.0
 31
0.0
210
0.0
220
0.0
230
-1.0
 40
0.4472135955666233
 41
6.28318530587672
 42
7.853981633974482
  0
SPLINE
  5
4D57
330
1A
100
AcDbEntity
  8
SEIHIN
100
AcDbSpline
210
0.0
220
0.0
230
1.0
 70
     8
 71
     3
 72
    43
 73
    39
 74
     0
 42
0.0000000001
 43
0.0000000001
 40
2.573801282421739
 40
2.573801282421739
 40
2.573801282421739
 40
2.573801282421739
 40
2.743484381278567
 40
2.743484381278567
 40
2.952958003969503
 40
2.952958003969503
 40
3.162431626660439
 40
3.162431626660439
 40
3.371905249351375
 40
3.371905249351375
 40
3.581378872042312
 40
3.581378872042312
 40
3.790852494733248
 40
3.790852494733248
 40
4.212890898554042
 40
4.212890898554042
 40
4.634929302374836
 40
4.634929302374836
 40
4.712388980384689
 40
4.712388980384689
 40
4.712388980384689
 40
5.035006403854932
 40
5.035006403854932
 40
5.40458618261824
 40
5.40458618261824
 40
5.774165961381548
 40
5.774165961381548
 40
6.00394318856648
 40
6.00394318856648
 40
6.233720415751411
 40
6.233720415751411
 40
6.426033209648384
 40
6.426033209648384
 40
6.618346003545356
 40
6.618346003545356
 40
6.810658797442329
 40
6.810658797442329
 40
6.85074050005261
 40
6.85074050005261
 40
6.85074050005261
 40
6.85074050005261
 10
206.412293106834
 20
220.4106427584323
 30
0.0
 10
206.5112439411008
 20
220.5455463664089
 30
0.0
 10
206.622955321447
 20
220.6718247872924
 30
0.0
 10
206.9094681192502
 20
220.9292718854222
 30
0.0
 10
207.095003320187
 20
221.054375578913
 30
0.0
 10
207.5238573295164
 20
221.2292941999505
 30
0.0
 10
207.7679734477675
 20
221.2757256638034
 30
0.0
 10
208.2522114918555
 20
221.2541626817984
 30
0.0
 10
208.4874432038005
 20
221.1871004917902
 30
0.0
 10
208.8941539075977
 20
220.9833543506554
 30
0.0
 10
209.067449779906
 20
220.8491842801471
 30
0.0
 10
209.3641809461525
 20
220.5508855412019
 30
0.0
 10
209.4887597795146
 20
220.3860341103691
 30
0.0
 10
209.8153861291685
 20
219.8563402022966
 30
0.0
 10
209.9701201000115
 20
219.4564327890112
 30
0.0
 10
210.1899617092396
 20
218.5956259613478
 30
0.0
 10
210.2528332545058
 20
218.1346167946828
 30
0.0
 10
210.2728978296018
 20
217.582291159722
 30
0.0
 10
210.2744536012109
 20
217.4964669943779
 30
0.0
 10
210.2744536012109
 20
217.4106427484323
 30
0.0
 10
210.2744536012109
 20
217.0531871301076
 30
0.0
 10
210.2474898521577
 20
216.6958321886828
 30
0.0
 10
210.1315888694488
 20
215.9550924788825
 30
0.0
 10
210.0347695512781
 20
215.5758506271059
 30
0.0
 10
209.763393726615
 20
214.8764788210519
 30
0.0
 10
209.5907472596271
 20
214.5548607995409
 30
0.0
 10
209.2090078286746
 20
214.0996967689698
 30
0.0
 10
209.0367879144567
 20
213.9402048495571
 30
0.0
 10
208.6203514242547
 20
213.6850883005191
 30
0.0
 10
208.3726141123676
 20
213.5916509146332
 30
0.0
 10
207.8884212671167
 20
213.5404378735747
 30
0.0
 10
207.6606335208579
 20
213.5643506594628
 30
0.0
 10
207.2468066890198
 20
213.691516770487
 30
0.0
 10
207.0613027075715
 20
213.7921725023582
 30
0.0
 10
206.7408729840555
 20
214.0306232086874
 30
0.0
 10
206.6044932037001
 20
214.1683059072874
 30
0.0
 10
206.460551162119
 20
214.3474552891373
 30
0.0
 10
206.4364379107607
 20
214.3788223614182
 30
0.0
 10
206.4130067922435
 20
214.4106427584323
 30
0.0
  0
ELLIPSE
  5
4D58
330
1A
100
AcDbEntity
  8
SEIHIN
100
AcDbEllipse
 10
211.762276767471
 20
238.4106427484323
 30
0.0
 11
0.0
 21
-2.1000000000672
 31
0.0
210
0.0
220
0.0
230
-1.0
 40
0.4867014234079679
 41
-1.570796326794896
 42
4.712388980384689
  0
ELLIPSE
  5
4D59
330
1A
100
AcDbEntity
  8
SEIHIN
100
AcDbEllipse
 10
211.762276767471
 20
196.4106427484323
 30
0.0
 11
0.0
 21
2.1000000000672
 31
0.0
210
0.0
220
0.0
230
1.0
 40
0.4867014234079679
 41
-1.570796326794896
 42
4.712388980384689
  0
LINE
  5
4D5A
330
1A
100
AcDbEntity
  8
SEIHIN
100
AcDbLine
 10
96.13549324408438
 20
224.9106427684323
 30
0.0
 11
74.73259027408443
 21
224.9106427684323
 31
0.0
  0
LINE
  5
4D5B
330
1A
100
AcDbEntity
  8
SEIHIN
100
AcDbLine
 10
96.13549324408438
 20
209.9106427284323
 30
0.0
 11
74.73259027408443
 21
209.9106427284323
 31
0.0
  0
DIMENSION
  5
4D5C
330
1A
100
AcDbEntity
  8
SUNPOU
100
AcDbDimension
  2
*D68
 10
47.82968650226826
 20
206.4106427284323
 30
0.0
 11
45.32968650226822
 21
217.4106427484323
 31
0.0
 70
    32
  3
STANDARD
100
AcDbAlignedDimension
 13
72.23259027408443
 23
228.4106427684323
 33
0.0
 14
72.23259027408443
 24
206.4106427284323
 34
0.0
 50
90.0
100
AcDbRotatedDimension
1001
ACAD
1000
DSTYLE
1002
{
1070
    41
1040
3.0
1070
    42
1040
3.0
1070
    43
1040
7.0
1070
    44
1040
1.5
1070
    73
1070
     0
1070
    74
1070
     0
1070
    77
1070
     3
1070
   140
1040
3.0
1070
   141
1040
3.0
1070
   147
1040
1.0
1070
   172
1070
     1
1070
   173
1070
     1
1070
   176
1070
   256
1070
   177
1070
   256
1070
   178
1070
   256
1070
   271
1070
     0
1070
   272
1070
     0
1070
   341
1005
B2
1070
     6
1000
OPEN
1070
     7
1000
OPEN
1002
}
  0
LINE
  5
4D5D
330
1A
100
AcDbEntity
  8
SEIHIN
100
AcDbLine
 10
74.73259027408443
 20
224.9106427684323
 30
0.0
 11
74.73259027408443
 21
209.9106427284323
 31
0.0
  0
LINE
  5
4D5E
330
1A
100
AcDbEntity
  8
SEIHIN
100
AcDbLine
 10
72.23259027408443
 20
206.4106427284323
 30
0.0
 11
72.23259027408443
 21
228.4106427684323
 31
0.0
  0
LINE
  5
4D5F
330
1A
100
AcDbEntity
  8
SEIHIN
100
AcDbLine
 10
72.23259027408443
 20
206.4106427284323
 30
0.0
 11
74.73259027408443
 21
206.4106427284323
 31
0.0
  0
LINE
  5
4D60
330
1A
100
AcDbEntity
  8
SEIHIN
100
AcDbLine
 10
74.73259027408443
 20
206.4106427284323
 30
0.0
 11
74.73259027408443
 21
209.9106427284323
 31
0.0
  0
LINE
  5
4D61
330
1A
100
AcDbEntity
  8
SEIHIN
100
AcDbLine
 10
74.73259027408443
 20
224.9106427684323
 30
0.0
 11
74.73259027408443
 21
228.4106427684323
 31
0.0
  0
LINE
  5
4D62
330
1A
100
AcDbEntity
  8
SEIHIN
100
AcDbLine
 10
74.73259027408443
 20
228.4106427684323
 30
0.0
 11
74.73259027408443
 21
224.9106427684323
 31
0.0
  0
LINE
  5
4D63
330
1A
100
AcDbEntity
  8
SEIHIN
100
AcDbLine
 10
72.23259027408443
 20
228.4106427684323
 30
0.0
 11
74.73259027408443
 21
228.4106427684323
 31
0.0
  0
LINE
  5
4D64
330
1A
100
AcDbEntity
  8
SEIHIN
100
AcDbLine
 10
214.2363136340843
 20
227.2336946684323
 30
0.0
 11
214.2363136340843
 21
241.9106427484323
 31
0.0
  0
ARC
  5
4D65
330
1A
100
AcDbEntity
  8
SEIHIN
100
AcDbCircle
 10
207.020903697071
 20
238.4106427484323
 30
0.0
 40
5.185616510378905
100
AcDbArc
 50
336.1109838283912
 51
23.88901617160872
  0
ARC
  5
4D66
330
1A
100
AcDbEntity
  8
SEIHIN
100
AcDbCircle
 10
195.8405638028044
 20
238.4106427484323
 30
0.0
 40
5.185616510927503
100
AcDbArc
 50
336.1109838310729
 51
23.88901616892705
  0
LINE
  5
4D67
330
1A
100
AcDbEntity
  8
SEIHIN
100
AcDbLine
 10
197.0633115660843
 20
241.9106427484323
 30
0.0
 11
197.0633115660844
 21
226.6119825684323
 31
0.0
  0
LINE
  5
4D68
330
1A
100
AcDbEntity
  8
SEIHIN
100
AcDbLine
 10
198.1366241960844
 20
227.2336943384323
 30
0.0
 11
198.1366241960843
 21
241.9106427484323
 31
0.0
  0
LINE
  5
4D69
330
1A
100
AcDbEntity
  8
SEIHIN
100
AcDbLine
 10
130.6690898940843
 20
220.4106427284323
 30
0.0
 11
206.412293106834
 21
220.4106427284323
 31
0.0
  0
LINE
  5
4D6A
330
1A
100
AcDbEntity
  8
SEIHIN
100
AcDbLine
 10
130.6690898940843
 20
214.4106427284323
 30
0.0
 11
206.4130068143342
 21
214.4106427284323
 31
0.0
  0
LINE
  5
4D6B
330
1A
100
AcDbEntity
  8
SEIHIN
100
AcDbLine
 10
101.2957097640843
 20
224.9106427684323
 30
0.0
 11
209.3475542340843
 21
224.9106427684323
 31
0.0
  0
LINE
  5
4D6C
330
1A
100
AcDbEntity
  8
SEIHIN
100
AcDbLine
 10
101.2957097640843
 20
209.9106427284323
 30
0.0
 11
209.3475542340843
 21
209.9106427284323
 31
0.0
  0
LINE
  5
4D6D
330
1A
100
AcDbEntity
  8
SEIHIN
100
AcDbLine
 10
100.7957097640843
 20
210.9106427284323
 30
0.0
 11
212.2086465840844
 21
210.9106427284323
 31
0.0
  0
LINE
  5
4D6E
330
1A
100
AcDbEntity
  8
SEIHIN
100
AcDbLine
 10
100.7957097640843
 20
223.9106427684323
 30
0.0
 11
212.2086465840844
 21
223.9106427684323
 31
0.0
  0
LINE
  5
4D6F
330
1A
100
AcDbEntity
  8
SEIHIN
100
AcDbLine
 10
120.2628067960844
 20
209.4106427284323
 30
0.0
 11
101.2279603040843
 21
209.4106887284323
 31
0.0
  0
LINE
  5
4D70
330
1A
100
AcDbEntity
  8
SEIHIN
100
AcDbLine
 10
101.2279989740843
 20
225.4106427684323
 30
0.0
 11
120.2628067960844
 21
225.4106427684323
 31
0.0
  0
LINE
  5
4D71
330
1A
100
AcDbEntity
  8
SEIHIN
100
AcDbLine
 10
101.0820932040844
 20
211.1385690884323
 30
0.0
 11
128.6690898940843
 21
211.1385690884323
 31
0.0
  0
LINE
  5
4D72
330
1A
100
AcDbEntity
  8
SEIHIN
100
AcDbLine
 10
103.8716127540843
 20
213.2561987184323
 30
0.0
 11
125.9302998790843
 21
213.2561987184323
 31
0.0
  0
LINE
  5
4D73
330
1A
100
AcDbEntity
  8
SEIHIN
100
AcDbLine
 10
101.0820932040844
 20
223.6827163684323
 30
0.0
 11
128.6690898940843
 21
223.6827163684323
 31
0.0
  0
LINE
  5
4D74
330
1A
100
AcDbEntity
  8
SEIHIN
100
AcDbLine
 10
103.8716127540843
 20
221.5650867684323
 30
0.0
 11
125.9302998790843
 21
221.5650867684323
 31
0.0
  0
LINE
  5
4D75
330
1A
100
AcDbEntity
  8
SEIHIN
100
AcDbLine
 10
119.3652292830843
 20
214.2561987184322
 30
0.0
 11
119.3652292830843
 21
220.5650867384323
 31
0.0
  0
LINE
  5
4D76
330
1A
100
AcDbEntity
  8
SEIHIN
100
AcDbLine
 10
103.8716127540843
 20
211.1385690884323
 30
0.0
 11
103.8716127540843
 21
223.6827163684323
 31
0.0
  0
ARC
  5
4D77
330
1A
100
AcDbEntity
  8
SEIHIN
100
AcDbCircle
 10
101.0820932040844
 20
217.4106427284323
 30
0.0
 40
3.000000000000011
100
AcDbArc
 50
90.00000515662017
 51
269.9999952253516
  0
LINE
  5
4D78
330
1A
100
AcDbEntity
  8
SEIHIN
100
AcDbLine
 10
101.0820932040844
 20
222.6827163684323
 30
0.0
 11
101.0820932040844
 21
212.1385690884323
 31
0.0
  0
LINE
  5
4D79
330
1A
100
AcDbEntity
  8
SEIHIN
100
AcDbLine
 10
101.0820932040844
 20
215.4860313884323
 30
0.0
 11
103.8716127540843
 21
215.4860313884323
 31
0.0
  0
LINE
  5
4D7A
330
1A
100
AcDbEntity
  8
SEIHIN
100
AcDbLine
 10
103.8716127540843
 20
212.1385690884323
 30
0.0
 11
101.0820932040844
 21
212.1385690884323
 31
0.0
  0
ARC
  5
4D7B
330
1A
100
AcDbEntity
  8
SEIHIN
100
AcDbCircle
 10
100.7957097640843
 20
209.9106427284323
 30
0.0
 40
1.0
100
AcDbArc
 50
90.0
 51
180.0
  0
LINE
  5
4D7C
330
1A
100
AcDbEntity
  8
SEIHIN
100
AcDbLine
 10
95.26280679408438
 20
209.4106427284323
 30
0.0
 11
99.2277141140844
 21
209.4106427284323
 31
0.0
  0
LINE
  5
4D7D
330
1A
100
AcDbEntity
  8
SEIHIN
100
AcDbLine
 10
99.22795573408439
 20
209.9106427284323
 30
0.0
 11
95.26280679408438
 21
209.9106427284323
 31
0.0
  0
LINE
  5
4D7E
330
1A
100
AcDbEntity
  8
SEIHIN
100
AcDbLine
 10
95.26280679408438
 20
209.4106427284323
 30
0.0
 11
95.26280679408438
 21
209.9106427284323
 31
0.0
  0
ARC
  5
4D7F
330
1A
100
AcDbEntity
  8
SEIHIN
100
AcDbCircle
 10
101.2957097640843
 20
209.4106427284323
 30
0.0
 40
0.5
100
AcDbArc
 50
90.0
 51
180.0
  0
LINE
  5
4D80
330
1A
100
AcDbEntity
  8
SEIHIN
100
AcDbLine
 10
100.7957097640843
 20
209.4106427284323
 30
0.0
 11
100.7957097640843
 21
206.4106427284323
 31
0.0
  0
LINE
  5
4D81
330
1A
100
AcDbEntity
  8
SEIHIN
100
AcDbLine
 10
99.79570976408439
 20
206.4106427284323
 30
0.0
 11
99.79570976408439
 21
209.9106427284323
 31
0.0
  0
LINE
  5
4D82
330
1A
100
AcDbEntity
  8
SEIHIN
100
AcDbLine
 10
100.7957097640843
 20
206.4106427284323
 30
0.0
 11
99.79570976408439
 21
206.4106427284323
 31
0.0
  0
LINE
  5
4D83
330
1A
100
AcDbEntity
  8
SEIHIN
100
AcDbLine
 10
101.2279603040843
 20
209.4106887284323
 30
0.0
 11
101.2279615140843
 21
209.9106427284323
 31
0.0
  0
LINE
  5
4D84
330
1A
100
AcDbEntity
  8
SEIHIN
100
AcDbLine
 10
99.22795455408436
 20
209.4106427284323
 30
0.0
 11
99.22795573408439
 21
209.9106427284323
 31
0.0
  0
LINE
  5
4D85
330
1A
100
AcDbEntity
  8
SEIHIN
100
AcDbLine
 10
101.0820932040844
 20
212.1385690884323
 30
0.0
 11
101.0820932040844
 21
211.1385690884323
 31
0.0
  0
ARC
  5
4D86
330
1A
100
AcDbEntity
  8
SEIHIN
100
AcDbCircle
 10
110.2630479240843
 20
213.9289722284323
 30
0.0
 40
5.715337531631893
100
AcDbArc
 50
232.2375418744902
 51
307.7621812247562
  0
LINE
  5
4D87
330
1A
100
AcDbEntity
  8
SEIHIN
100
AcDbLine
 10
103.8716127540843
 20
211.1385690884323
 30
0.0
 11
103.8716127540843
 21
212.3385690884323
 31
0.0
  0
LINE
  5
4D88
330
1A
100
AcDbEntity
  8
SEIHIN
100
AcDbLine
 10
103.8716127540843
 20
222.6827163684323
 30
0.0
 11
101.0820932040844
 21
222.6827163684323
 31
0.0
  0
LINE
  5
4D89
330
1A
100
AcDbEntity
  8
SEIHIN
100
AcDbLine
 10
101.0820932040844
 20
219.3352540684323
 30
0.0
 11
103.8716127540843
 21
219.3352540684323
 31
0.0
  0
LINE
  5
4D8A
330
1A
100
AcDbEntity
  8
SEIHIN
100
AcDbLine
 10
100.7957097640843
 20
225.4106427684323
 30
0.0
 11
100.7957097640843
 21
228.4106427684323
 31
0.0
  0
LINE
  5
4D8B
330
1A
100
AcDbEntity
  8
SEIHIN
100
AcDbLine
 10
99.79570976408439
 20
228.4106427684323
 30
0.0
 11
99.79570976408439
 21
224.9106427684323
 31
0.0
  0
LINE
  5
4D8C
330
1A
100
AcDbEntity
  8
SEIHIN
100
AcDbLine
 10
95.26280679408438
 20
225.4106427684323
 30
0.0
 11
99.2277141140844
 21
225.4106427684323
 31
0.0
  0
LINE
  5
4D8D
330
1A
100
AcDbEntity
  8
SEIHIN
100
AcDbLine
 10
99.22799110408437
 20
224.9106427684323
 30
0.0
 11
95.26280679408438
 21
224.9106427684323
 31
0.0
  0
LINE
  5
4D8E
330
1A
100
AcDbEntity
  8
SEIHIN
100
AcDbLine
 10
95.26280679408438
 20
224.9106427684323
 30
0.0
 11
95.26280679408438
 21
225.4106427684323
 31
0.0
  0
LINE
  5
4D8F
330
1A
100
AcDbEntity
  8
SEIHIN
100
AcDbLine
 10
101.2279977640844
 20
224.9106427684323
 30
0.0
 11
101.2279989740843
 21
225.4106427684323
 31
0.0
  0
LINE
  5
4D90
330
1A
100
AcDbEntity
  8
SEIHIN
100
AcDbLine
 10
99.22799110408437
 20
224.9106427684323
 30
0.0
 11
99.2279922840844
 21
225.4106427684323
 31
0.0
  0
LINE
  5
4D91
330
1A
100
AcDbEntity
  8
SEIHIN
100
AcDbLine
 10
101.0820932040844
 20
222.6827163684323
 30
0.0
 11
101.0820932040844
 21
223.6827163684323
 31
0.0
  0
ARC
  5
4D92
330
1A
100
AcDbEntity
  8
SEIHIN
100
AcDbCircle
 10
101.2957097640843
 20
225.4106427684323
 30
0.0
 40
0.5
100
AcDbArc
 50
180.0
 51
270.0
  0
ARC
  5
4D93
330
1A
100
AcDbEntity
  8
SEIHIN
100
AcDbCircle
 10
100.7957097640843
 20
224.9106427684323
 30
0.0
 40
1.0
100
AcDbArc
 50
180.0
 51
270.0
  0
LINE
  5
4D94
330
1A
100
AcDbEntity
  8
SEIHIN
100
AcDbLine
 10
100.7957097640843
 20
228.4106427684323
 30
0.0
 11
99.79570976408439
 21
228.4106427684323
 31
0.0
  0
LINE
  5
4D95
330
1A
100
AcDbEntity
  8
SEIHIN
100
AcDbLine
 10
113.7630370040843
 20
226.4750811684323
 30
0.0
 11
106.7630370040843
 21
226.4750811684323
 31
0.0
  0
LINE
  5
4D96
330
1A
100
AcDbEntity
  8
SEIHIN
100
AcDbLine
 10
106.7630370040843
 20
225.4106427684323
 30
0.0
 11
113.7630370040843
 21
225.4106427684323
 31
0.0
  0
LINE
  5
4D97
330
1A
100
AcDbEntity
  8
SEIHIN
100
AcDbLine
 10
103.8716127540843
 20
223.6827163684323
 30
0.0
 11
103.8716127540843
 21
222.4827163684323
 31
0.0
  0
LINE
  5
4D98
330
1A
100
AcDbEntity
  8
SEIHIN
100
AcDbLine
 10
106.7630370040843
 20
226.4750811684323
 30
0.0
 11
106.7630370040843
 21
225.4106427684323
 31
0.0
  0
LINE
  5
4D99
330
1A
100
AcDbEntity
  8
SEIHIN
100
AcDbLine
 10
113.7630370040843
 20
225.4106427684323
 30
0.0
 11
113.7630370040843
 21
226.4750811684323
 31
0.0
  0
LINE
  5
4D9A
330
1A
100
AcDbEntity
  8
SEIHIN
100
AcDbLine
 10
127.9302998790843
 20
219.5650867384323
 30
0.0
 11
127.9302998790843
 21
215.2561987184323
 31
0.0
  0
LINE
  5
4D9B
330
1A
100
AcDbEntity
  8
SEIHIN
100
AcDbLine
 10
130.6690898940843
 20
213.1385690884323
 30
0.0
 11
130.6690898940843
 21
221.6827163684323
 31
0.0
  0
LINE
  5
4D9C
330
1A
100
AcDbEntity
  8
SEIHIN
100
AcDbLine
 10
129.5215241870844
 20
213.1385690884323
 30
0.0
 11
129.5215241870844
 21
221.6827163684323
 31
0.0
  0
LINE
  5
4D9D
330
1A
100
AcDbEntity
  8
SEIHIN
100
AcDbLine
 10
124.2071495185844
 20
214.2561987184322
 30
0.0
 11
124.2071495185844
 21
220.5650867384323
 31
0.0
  0
ARC
  5
4D9E
330
1A
100
AcDbEntity
  8
SEIHIN
100
AcDbCircle
 10
125.9302998790843
 20
215.2561987184323
 30
0.0
 40
2.0
100
AcDbArc
 50
270.0
 51
0.0
  0
ARC
  5
4D9F
330
1A
100
AcDbEntity
  8
SEIHIN
100
AcDbCircle
 10
127.5215241870844
 20
213.1385690884323
 30
0.0
 40
2.0
100
AcDbArc
 50
270.0
 51
0.0
  0
LINE
  5
4DA0
330
1A
100
AcDbEntity
  8
SEIHIN
100
AcDbLine
 10
124.7878355998925
 20
210.9106427284323
 30
0.0
 11
124.7878355998925
 21
209.9106427284323
 31
0.0
  0
LINE
  5
4DA1
330
1A
100
AcDbEntity
  8
SEIHIN
100
AcDbLine
 10
120.2628067960844
 20
209.4106427284323
 30
0.0
 11
120.2628067960844
 21
209.9106427284323
 31
0.0
  0
ARC
  5
4DA2
330
1A
100
AcDbEntity
  8
SEIHIN
100
AcDbCircle
 10
128.6690898940843
 20
213.1385690884323
 30
0.0
 40
2.0
100
AcDbArc
 50
270.0
 51
0.0
  0
ARC
  5
4DA3
330
1A
100
AcDbEntity
  8
SEIHIN
100
AcDbCircle
 10
128.6690898940843
 20
213.1385690884323
 30
0.0
 40
2.0
100
AcDbArc
 50
270.0
 51
0.0
  0
ARC
  5
4DA4
330
1A
100
AcDbEntity
  8
SEIHIN
100
AcDbCircle
 10
127.5215241870844
 20
221.6827163684323
 30
0.0
 40
2.0
100
AcDbArc
 50
0.0
 51
90.0
  0
ARC
  5
4DA5
330
1A
100
AcDbEntity
  8
SEIHIN
100
AcDbCircle
 10
125.9302998790843
 20
219.5650867384323
 30
0.0
 40
2.000000014999997
100
AcDbArc
 50
0.0
 51
90.0
  0
LINE
  5
4DA6
330
1A
100
AcDbEntity
  8
SEIHIN
100
AcDbLine
 10
120.2628067960844
 20
224.9106427684323
 30
0.0
 11
120.2628067960844
 21
225.4106427684323
 31
0.0
  0
LINE
  5
4DA7
330
1A
100
AcDbEntity
  8
SEIHIN
100
AcDbLine
 10
124.7878355998925
 20
224.9106427684323
 30
0.0
 11
124.7878355998925
 21
223.9106427684323
 31
0.0
  0
ARC
  5
4DA8
330
1A
100
AcDbEntity
  8
SEIHIN
100
AcDbCircle
 10
128.6690898940843
 20
221.6827163684323
 30
0.0
 40
2.0
100
AcDbArc
 50
0.0
 51
90.0
  0
ARC
  5
4DA9
330
1A
100
AcDbEntity
  8
SEIHIN
100
AcDbCircle
 10
128.6690898940843
 20
221.6827163684323
 30
0.0
 40
2.0
100
AcDbArc
 50
0.0
 51
90.0
  0
LINE
  5
4DAA
330
1A
100
AcDbEntity
  8
SEIHIN
100
AcDbLine
 10
214.2363136340843
 20
207.5875908284323
 30
0.0
 11
214.2363136340843
 21
192.9106427484323
 31
0.0
  0
LINE
  5
4DAB
330
1A
100
AcDbEntity
  8
SEIHIN
100
AcDbLine
 10
198.1366241960844
 20
207.5875911584323
 30
0.0
 11
198.1366241960843
 21
192.9106427484323
 31
0.0
  0
LINE
  5
4DAC
330
1A
100
AcDbEntity
  8
SEIHIN
100
AcDbLine
 10
197.0633115660843
 20
192.9106427484322
 30
0.0
 11
197.0633115660844
 21
208.2093029284323
 31
0.0
  0
LINE
  5
4DAD
330
1A
100
AcDbEntity
  8
SEIHIN
100
AcDbLine
 10
213.3418864430009
 20
190.9106427484323
 30
0.0
 11
197.9577387572176
 21
190.9106427484323
 31
0.0
  0
ARC
  5
4DAE
330
1A
100
AcDbEntity
  8
SEIHIN
100
AcDbCircle
 10
182.2349490920312
 20
217.4106427284323
 30
0.0
 40
3.25
100
AcDbArc
 50
112.6198649480422
 51
247.3801350519577
  0
LINE
  5
4DAF
330
1A
100
AcDbEntity
  8
SEIHIN
100
AcDbLine
 10
176.7642948396908
 20
210.9106427284323
 30
0.0
 11
176.7642948396908
 21
209.9106427284323
 31
0.0
  0
LINE
  5
4DB0
330
1A
100
AcDbEntity
  8
SEIHIN
100
AcDbLine
 10
180.9849490920312
 20
214.4106427284323
 30
0.0
 11
180.9849490920312
 21
210.9106427284323
 31
0.0
  0
LINE
  5
4DB1
330
1A
100
AcDbEntity
  8
SEIHIN
100
AcDbLine
 10
176.7642948396908
 20
224.9106427684323
 30
0.0
 11
176.7642948396908
 21
223.9106427684323
 31
0.0
  0
LINE
  5
4DB2
330
1A
100
AcDbEntity
  8
SEIHIN
100
AcDbLine
 10
180.9849490920312
 20
223.9106427684323
 30
0.0
 11
180.9849490920312
 21
220.4106427284323
 31
0.0
  0
ARC
  5
4DB3
330
1A
100
AcDbEntity
  8
SEIHIN
100
AcDbCircle
 10
190.4134408186159
 20
217.4106427284323
 30
0.0
 40
3.25
100
AcDbArc
 50
292.6198649480444
 51
67.38013505195993
  0
LINE
  5
4DB4
330
1A
100
AcDbEntity
  8
SEIHIN
100
AcDbLine
 10
212.2086465840844
 20
223.9106427484323
 30
0.0
 11
212.2086465840844
 21
210.9106427484323
 31
0.0
  0
LINE
  5
4DB5
330
1A
100
AcDbEntity
  8
CENTER_L
100
AcDbLine
 10
197.2441050907278
 20
196.4106427584323
 30
0.0
 11
205.2887065314505
 21
196.4106427584323
 31
0.0
  0
LINE
  5
4DB6
330
1A
100
AcDbEntity
  8
CENTER_L
100
AcDbLine
 10
200.1120667355353
 20
197.9356427384323
 30
0.0
 11
208.3625312222912
 21
197.9356427384323
 31
0.0
  0
LINE
  5
4DB7
330
1A
100
AcDbEntity
  8
SEIHIN
100
AcDbLine
 10
199.6819882630844
 20
208.6916528484323
 30
0.0
 11
202.1959004940844
 21
208.6916528484323
 31
0.0
  0
ARC
  5
4DB8
330
1A
100
AcDbEntity
  8
SEIHIN
100
AcDbCircle
 10
195.8405638028044
 20
196.4106427484323
 30
0.0
 40
5.185616510927503
100
AcDbArc
 50
336.1109838310729
 51
23.88901616892705
  0
LINE
  5
4DB9
330
1A
100
AcDbEntity
  8
SEIHIN
100
AcDbLine
 10
191.6634408186158
 20
214.4106427584323
 30
0.0
 11
191.6634408186158
 21
210.9106427384323
 31
0.0
  0
LINE
  5
4DBA
330
1A
100
AcDbEntity
  8
SEIHIN
100
AcDbLine
 10
194.0989466675375
 20
210.9106427284323
 30
0.0
 11
194.0989466675375
 21
209.9106427284323
 31
0.0
  0
ARC
  5
4DBB
330
1A
100
AcDbEntity
  8
SEIHIN
100
AcDbCircle
 10
196.4366241932497
 20
207.5875911584323
 30
0.0
 40
1.700000002834682
100
AcDbArc
 50
0.0
 51
80.99999985768858
  0
LINE
  5
4DBC
330
1A
100
AcDbEntity
  8
SEIHIN
100
AcDbLine
 10
196.7025627882497
 20
209.2666613384323
 30
0.0
 11
196.0585813832497
 21
209.9106427484323
 31
0.0
  0
ARC
  5
4DBD
330
1A
100
AcDbEntity
  8
SEIHIN
100
AcDbCircle
 10
196.5633115645157
 20
208.2093029284323
 30
0.0
 40
0.5000000015686251
100
AcDbArc
 50
0.0
 51
86.20816424113447
  0
ARC
  5
4DBE
330
1A
100
AcDbEntity
  8
SEIHIN
100
AcDbCircle
 10
196.7088013245157
 20
210.4044869184323
 30
0.0
 40
1.699999999832981
100
AcDbArc
 50
196.8876873722945
 51
266.2081650705318
  0
LINE
  5
4DBF
330
1A
100
AcDbEntity
  8
CENTER_L
100
AcDbLine
 10
207.2136260622426
 20
196.4106427584323
 30
0.0
 11
215.2582275029654
 21
196.4106427584323
 31
0.0
  0
ARC
  5
4DC0
330
1A
100
AcDbEntity
  8
SEIHIN
100
AcDbCircle
 10
197.1037753680773
 20
197.9106427484323
 30
0.0
 40
7.826647519730068
100
AcDbArc
 50
338.4486589039116
 51
21.55134109608833
  0
ARC
  5
4DC1
330
1A
100
AcDbEntity
  8
SEIHIN
100
AcDbCircle
 10
207.020903697071
 20
196.4106427484323
 30
0.0
 40
5.185616510378905
100
AcDbArc
 50
336.1109838283912
 51
23.88901617160872
  0
LINE
  5
4DC2
330
1A
100
AcDbEntity
  8
SEIHIN
100
AcDbLine
 10
209.5860924620843
 20
206.9106427484323
 30
0.0
 11
210.9754941710844
 21
206.9106427484323
 31
0.0
  0
LINE
  5
4DC3
330
1A
100
AcDbEntity
  8
SEIHIN
100
AcDbLine
 10
210.9754941710844
 20
206.9106427484323
 30
0.0
 11
209.5860924620843
 21
208.9818375584322
 31
0.0
  0
LINE
  5
4DC4
330
1A
100
AcDbEntity
  8
SEIHIN
100
AcDbLine
 10
204.9944065630843
 20
208.6916528484323
 30
0.0
 11
208.8364233700844
 21
208.6916528484323
 31
0.0
  0
LINE
  5
4DC5
330
1A
100
AcDbEntity
  8
SEIHIN
100
AcDbLine
 10
202.9113129210843
 20
206.9106427484323
 30
0.0
 11
204.3007146300844
 21
206.9106427484323
 31
0.0
  0
LINE
  5
4DC6
330
1A
100
AcDbEntity
  8
SEIHIN
100
AcDbLine
 10
204.3007146300844
 20
206.9106427484323
 30
0.0
 11
202.9113129210843
 21
208.9818375584322
 31
0.0
  0
LINE
  5
4DC7
330
1A
100
AcDbEntity
  8
SEIHIN
100
AcDbLine
 10
202.9113129210843
 20
206.9106427484323
 30
0.0
 11
202.9113129210843
 21
209.9106427484323
 31
0.0
  0
LINE
  5
4DC8
330
1A
100
AcDbEntity
  8
SEIHIN
100
AcDbLine
 10
204.3007146300844
 20
209.9106427484323
 30
0.0
 11
204.3007146300844
 21
206.9106427484323
 31
0.0
  0
LINE
  5
4DC9
330
1A
100
AcDbEntity
  8
SEIHIN
100
AcDbLine
 10
209.5860924620843
 20
206.9106427484323
 30
0.0
 11
209.5860924620843
 21
209.9106427484323
 31
0.0
  0
LINE
  5
4DCA
330
1A
100
AcDbEntity
  8
SEIHIN
100
AcDbLine
 10
212.2086465840844
 20
209.9106427484323
 30
0.0
 11
212.2086465840844
 21
210.9106427484323
 31
0.0
  0
ARC
  5
4DCB
330
1A
100
AcDbEntity
  8
SEIHIN
100
AcDbCircle
 10
212.5363136340844
 20
207.5875911684323
 30
0.0
 40
1.700000000521832
100
AcDbArc
 50
359.9999868556723
 51
80.99999999084429
  0
LINE
  5
4DCC
330
1A
100
AcDbEntity
  8
SEIHIN
100
AcDbLine
 10
210.9754941710844
 20
209.9106427484323
 30
0.0
 11
210.9754941710844
 21
206.9106427484323
 31
0.0
  0
LINE
  5
4DCD
330
1A
100
AcDbEntity
  8
SEIHIN
100
AcDbLine
 10
211.7297940520844
 20
208.6916528484323
 30
0.0
 11
213.1527632390844
 21
208.6916528484323
 31
0.0
  0
LINE
  5
4DCE
330
1A
100
AcDbEntity
  8
SEIHIN
100
AcDbLine
 10
212.8022522250843
 20
209.2666613484323
 30
0.0
 11
212.1582708170843
 21
209.9106427484323
 31
0.0
  0
LINE
  5
4DCF
330
1A
100
AcDbEntity
  8
CENTER_L
100
AcDbLine
 10
197.2441050907278
 20
238.4106427384323
 30
0.0
 11
205.2887065314505
 21
238.4106427384323
 31
0.0
  0
LINE
  5
4DD0
330
1A
100
AcDbEntity
  8
CENTER_L
100
AcDbLine
 10
200.1120667355353
 20
236.8856427584323
 30
0.0
 11
208.3625312222912
 21
236.8856427584323
 31
0.0
  0
LINE
  5
4DD1
330
1A
100
AcDbEntity
  8
SEIHIN
100
AcDbLine
 10
199.6819882630844
 20
226.1296326584323
 30
0.0
 11
202.1959004940844
 21
226.1296326584323
 31
0.0
  0
LINE
  5
4DD2
330
1A
100
AcDbEntity
  8
SEIHIN
100
AcDbLine
 10
191.6634408186158
 20
220.4106427584323
 30
0.0
 11
191.6634408186158
 21
223.9106427584323
 31
0.0
  0
ARC
  5
4DD3
330
1A
100
AcDbEntity
  8
SEIHIN
100
AcDbCircle
 10
196.4366241932497
 20
227.2336943384323
 30
0.0
 40
1.700000002834682
100
AcDbArc
 50
279.0000001423114
 51
0.0
  0
LINE
  5
4DD4
330
1A
100
AcDbEntity
  8
SEIHIN
100
AcDbLine
 10
194.0989466675375
 20
224.9106427684323
 30
0.0
 11
194.0989466675375
 21
223.9106427684323
 31
0.0
  0
ARC
  5
4DD5
330
1A
100
AcDbEntity
  8
SEIHIN
100
AcDbCircle
 10
196.5633115645157
 20
226.6119825684323
 30
0.0
 40
0.5000000015686251
100
AcDbArc
 50
273.7918357588654
 51
0.0
  0
LINE
  5
4DD6
330
1A
100
AcDbEntity
  8
SEIHIN
100
AcDbLine
 10
196.7025627882497
 20
225.5546241584323
 30
0.0
 11
196.0585813832497
 21
224.9106427484323
 31
0.0
  0
ARC
  5
4DD7
330
1A
100
AcDbEntity
  8
SEIHIN
100
AcDbCircle
 10
196.7088013245157
 20
224.4167985784323
 30
0.0
 40
1.699999999832981
100
AcDbArc
 50
93.79183492946813
 51
163.1123126277054
  0
LINE
  5
4DD8
330
1A
100
AcDbEntity
  8
SEIHIN
100
AcDbLine
 10
210.9754941710844
 20
227.9106427484323
 30
0.0
 11
209.5860924620843
 21
225.8394479384323
 31
0.0
  0
LINE
  5
4DD9
330
1A
100
AcDbEntity
  8
SEIHIN
100
AcDbLine
 10
209.5860924620843
 20
227.9106427484323
 30
0.0
 11
210.9754941710844
 21
227.9106427484323
 31
0.0
  0
LINE
  5
4DDA
330
1A
100
AcDbEntity
  8
SEIHIN
100
AcDbLine
 10
204.9944065630843
 20
226.1296326584323
 30
0.0
 11
208.8364233700844
 21
226.1296326584323
 31
0.0
  0
LINE
  5
4DDB
330
1A
100
AcDbEntity
  8
SEIHIN
100
AcDbLine
 10
204.3007146300844
 20
224.9106427484323
 30
0.0
 11
204.3007146300844
 21
227.9106427484323
 31
0.0
  0
LINE
  5
4DDC
330
1A
100
AcDbEntity
  8
SEIHIN
100
AcDbLine
 10
202.9113129210843
 20
227.9106427484323
 30
0.0
 11
202.9113129210843
 21
224.9106427484323
 31
0.0
  0
LINE
  5
4DDD
330
1A
100
AcDbEntity
  8
SEIHIN
100
AcDbLine
 10
202.9113129210843
 20
227.9106427484323
 30
0.0
 11
204.3007146300844
 21
227.9106427484323
 31
0.0
  0
LINE
  5
4DDE
330
1A
100
AcDbEntity
  8
SEIHIN
100
AcDbLine
 10
204.3007146300844
 20
227.9106427484323
 30
0.0
 11
202.9113129210843
 21
225.8394479384323
 31
0.0
  0
LINE
  5
4DDF
330
1A
100
AcDbEntity
  8
SEIHIN
100
AcDbLine
 10
209.5860924620843
 20
227.9106427484323
 30
0.0
 11
209.5860924620843
 21
224.9106427484323
 31
0.0
  0
ARC
  5
4DE0
330
1A
100
AcDbEntity
  8
SEIHIN
100
AcDbCircle
 10
212.5363136340844
 20
227.2336943384323
 30
0.0
 40
1.700000000521829
100
AcDbArc
 50
279.0000000091557
 51
0.000011122122682
  0
LINE
  5
4DE1
330
1A
100
AcDbEntity
  8
SEIHIN
100
AcDbLine
 10
212.2086465840844
 20
224.9106427484323
 30
0.0
 11
212.2086465840844
 21
223.9106427484323
 31
0.0
  0
LINE
  5
4DE2
330
1A
100
AcDbEntity
  8
SEIHIN
100
AcDbLine
 10
210.9754941710844
 20
224.9106427484323
 30
0.0
 11
210.9754941710844
 21
227.9106427484323
 31
0.0
  0
LINE
  5
4DE3
330
1A
100
AcDbEntity
  8
SEIHIN
100
AcDbLine
 10
212.8022522250843
 20
225.5546241584323
 30
0.0
 11
212.1582708170843
 21
224.9106427484323
 31
0.0
  0
LINE
  5
4DE4
330
1A
100
AcDbEntity
  8
SEIHIN
100
AcDbLine
 10
211.7297940520844
 20
226.1296326584323
 30
0.0
 11
213.1527632390844
 21
226.1296326584323
 31
0.0
  0
LINE
  5
4DE5
330
1A
100
AcDbEntity
  8
CENTER_L
100
AcDbLine
 10
207.2136260622426
 20
238.4106427384323
 30
0.0
 11
215.2582275029654
 21
238.4106427384323
 31
0.0
  0
ARC
  5
4DE6
330
1A
100
AcDbEntity
  8
SEIHIN
100
AcDbCircle
 10
197.1037753680773
 20
236.9106427484323
 30
0.0
 40
7.826647519730068
100
AcDbArc
 50
338.4486589039116
 51
21.55134109608833
  0
LINE
  5
4DE7
330
1A
100
AcDbEntity
  8
SEIHIN
100
AcDbLine
 10
213.3418864430009
 20
243.9106427484323
 30
0.0
 11
197.9577387572176
 21
243.9106427484323
 31
0.0
  0
LINE
  5
4DE8
330
1A
100
AcDbEntity
  8
SEIHIN
100
AcDbLine
 10
315.2681239460844
 20
147.9828896248303
 30
0.0
 11
316.6097647460844
 21
145.2996080518303
 31
0.0
  0
LINE
  5
4DE9
330
1A
100
AcDbEntity
  8
SEIHIN
100
AcDbLine
 10
316.6097647460844
 20
145.2996080518303
 30
0.0
 11
320.6152227460844
 21
147.3023370248303
 31
0.0
  0
LINE
  5
4DEA
330
1A
100
AcDbEntity
  8
SEIHIN
100
AcDbLine
 10
318.3791547460844
 20
149.5384050022303
 30
0.0
 11
319.7207955460844
 21
146.8551234288303
 31
0.0
  0
LINE
  5
4DEB
330
1A
100
AcDbEntity
  8
SEIHIN
100
AcDbLine
 10
332.0579420460844
 20
149.0136461998303
 30
0.0
 11
324.0080972460844
 21
144.9887238398303
 31
0.0
  0
LINE
  5
4DEC
330
1A
100
AcDbEntity
  8
SEIHIN
100
AcDbLine
 10
290.4283050160844
 20
162.9548128658303
 30
0.0
 11
304.7391400660844
 21
134.3331427558303
 31
0.0
  0
LINE
  5
4DED
330
1A
100
AcDbEntity
  8
SEIHIN
100
AcDbLine
 10
320.4303885460844
 20
145.4359374358303
 30
0.0
 11
299.3725769260844
 21
187.5515606158303
 31
0.0
  0
LINE
  5
4DEE
330
1A
100
AcDbEntity
  8
SEIHIN
100
AcDbLine
 10
321.3248157460844
 20
145.8831510308303
 30
0.0
 11
300.2670041160844
 21
187.9987742158304
 31
0.0
  0
LINE
  5
4DEF
330
1A
100
AcDbEntity
  8
CENTER_L
100
AcDbLine
 10
303.8510723659438
 20
195.3650795970093
 30
0.0
 11
332.4663829997449
 21
138.1344583094113
 31
0.0
  0
LINE
  5
4DF0
330
1A
100
AcDbEntity
  8
SEIHIN
100
AcDbLine
 10
307.4224216360844
 20
133.4387155658303
 30
0.0
 11
351.2493539749744
 21
155.3521817012754
 31
0.0
  0
DIMENSION
  5
4DF1
330
1A
100
AcDbEntity
  8
SUNPOU
100
AcDbDimension
  2
*D69
 10
282.813013746301
 20
121.134011626313
 30
0.0
 11
276.9992370097199
 21
138.3517350488497
 31
0.0
 70
    33
  3
STANDARD
100
AcDbAlignedDimension
 13
289.533877826805
 23
164.7436672450141
 33
0.0
 14
305.6335672552793
 24
132.5442883768155
 34
0.0
1001
ACAD
1000
DSTYLE
1002
{
1070
    41
1040
3.0
1070
    42
1040
3.0
1070
    43
1040
7.0
1070
    44
1040
1.5
1070
    73
1070
     0
1070
    74
1070
     0
1070
    77
1070
     3
1070
   140
1040
3.0
1070
   141
1040
3.0
1070
   147
1040
1.0
1070
   172
1070
     1
1070
   173
1070
     1
1070
   176
1070
   256
1070
   177
1070
   256
1070
   178
1070
   256
1070
   271
1070
     0
1070
   272
1070
     0
1070
   341
1005
B2
1070
     6
1000
OPEN
1070
     7
1000
OPEN
1002
}
  0
TEXT
  5
4DF2
330
1A
100
AcDbEntity
  8
SUNPOU
100
AcDbText
 10
224.5271571993224
 20
53.1927309677276
 30
0.0
 40
3.0
  1
5
100
AcDbText
  0
LINE
  5
4DF3
330
1A
100
AcDbEntity
  8
SEIHIN
  6
DASHED
 62
     2
100
AcDbLine
 10
233.1366241940843
 20
119.0450404368303
 30
0.0
 11
249.2363136540843
 21
86.84566156583036
 31
0.0
  0
LINE
  5
4DF4
330
1A
100
AcDbEntity
  8
SEIHIN
  6
DASHED
 62
     2
100
AcDbLine
 10
243.2436514540843
 20
83.84933047583036
 30
0.0
 11
227.1439620140843
 21
116.0487093478303
 31
0.0
  0
LINE
  5
4DF5
330
1A
100
AcDbEntity
  8
SEIHIN
  6
DASHED
 62
     2
100
AcDbLine
 10
232.0633115640843
 20
118.5083841228303
 30
0.0
 11
248.1630010540843
 21
86.30900524583035
 31
0.0
  0
LINE
  5
4DF6
330
1A
100
AcDbEntity
  8
CENTER_L
100
AcDbLine
 10
239.4279738192508
 20
88.12658381530628
 30
0.0
 11
253.0232671249079
 21
94.9242304657597
 31
0.0
  0
LINE
  5
4DF7
330
1A
100
AcDbEntity
  8
SUNPOU
100
AcDbLine
 10
223.5210805469296
 20
58.27612774812521
 30
0.0
 11
223.5210805469296
 21
68.27612774812521
 31
0.0
  0
LINE
  5
4DF8
330
1A
100
AcDbEntity
  8
SUNPOU
100
AcDbLine
 10
228.5210805469296
 20
58.27612774812521
 30
0.0
 11
223.5210805469296
 21
58.27612774812521
 31
0.0
  0
TEXT
  5
4DF9
330
1A
100
AcDbEntity
  8
SUNPOU
100
AcDbText
 10
218.4282467427959
 20
60.70603157873087
 30
0.0
 40
3.0
  1
10
100
AcDbText
  0
LINE
  5
4DFA
330
1A
100
AcDbEntity
  8
SEIHIN
  6
DASHED
 62
     2
100
AcDbLine
 10
249.2363136540843
 20
86.84566156583036
 30
0.0
 11
243.2436514540843
 21
83.84933047583036
 31
0.0
  0
LINE
  5
4DFB
330
1A
100
AcDbEntity
  8
SEIHIN
  6
DASHED
 62
     2
100
AcDbLine
 10
228.0567701503846
 20
128.0867145329038
 30
0.0
 11
232.6894106040843
 21
118.8214336398303
 31
0.0
  0
LINE
  5
4DFC
330
1A
100
AcDbEntity
  8
CENTER_L
100
AcDbLine
 10
228.2476339278064
 20
110.487263599584
 30
0.0
 11
241.8429272312412
 21
117.2849102489263
 31
0.0
  0
LINE
  5
4DFD
330
1A
100
AcDbEntity
  8
CENTER_L
100
AcDbLine
 10
232.0489494903238
 20
102.884632474077
 30
0.0
 11
245.6442427945142
 21
109.6822791237971
 31
0.0
  0
LINE
  5
4DFE
330
1A
100
AcDbEntity
  8
SEIHIN
  6
DASHED
 62
     2
100
AcDbLine
 10
225.5339927340843
 20
121.9519294938304
 30
0.0
 11
228.2172746440843
 21
116.5853656618303
 31
0.0
  0
LINE
  5
4DFF
330
1A
100
AcDbEntity
  8
SEIHIN
  6
DASHED
 62
     2
100
AcDbLine
 10
227.1439620140843
 20
116.0487093478303
 30
0.0
 11
233.1366241940843
 21
119.0450404368303
 31
0.0
  0
DIMENSION
  5
4E00
330
1A
100
AcDbEntity
  8
SUNPOU
100
AcDbDimension
  2
*D70
 10
291.206494984563
 20
125.3307522439777
 30
0.0
 11
292.2127255776686
 21
128.9084610023756
 31
0.0
 70
    33
  3
STANDARD
100
AcDbAlignedDimension
 13
303.1738924861781
 23
137.4636379167366
 33
0.0
 14
305.6335672552793
 24
132.5442883768155
 34
0.0
1001
ACAD
1000
DSTYLE
1002
{
1070
    41
1040
3.0
1070
    42
1040
3.0
1070
    43
1040
7.0
1070
    44
1040
1.5
1070
    73
1070
     0
1070
    74
1070
     0
1070
    77
1070
     3
1070
   140
1040
3.0
1070
   141
1040
3.0
1070
   147
1040
1.0
1070
   172
1070
     1
1070
   173
1070
     1
1070
   176
1070
   256
1070
   177
1070
   256
1070
   178
1070
   256
1070
   271
1070
     0
1070
   272
1070
     0
1070
   341
1005
B2
1070
     6
1000
OPEN
1070
     7
1000
OPEN
1002
}
  0
LINE
  5
4E01
330
1A
100
AcDbEntity
  8
CENTER_L
100
AcDbLine
 10
305.8124527077422
 20
144.4848913741085
 30
0.0
 11
310.3740313844265
 21
135.3617340175522
 31
0.0
  0
ARC
  5
4E02
330
1A
100
AcDbEntity
  8
SEIHIN
100
AcDbCircle
 10
306.5279944460844
 20
135.2275699458304
 30
0.0
 40
1.999999997764122
100
AcDbArc
 50
206.5650511770767
 51
296.5650511770764
  0
CIRCLE
  5
4E03
330
1A
100
AcDbEntity
  8
SEIHIN
100
AcDbCircle
 10
308.0932420460844
 20
139.9233126958303
 30
0.0
 40
2.099999995980733
  0
LINE
  5
4E04
330
1A
100
AcDbEntity
  8
CENTER_L
100
AcDbLine
 10
303.5316633678062
 20
137.6425233574881
 30
0.0
 11
312.6548207243625
 21
142.2041020341725
 31
0.0
  0
LINE
  5
4E05
330
1A
100
AcDbEntity
  8
SEIHIN
100
AcDbLine
 10
319.7207955460844
 20
146.8551234288303
 30
0.0
 11
322.6276838460844
 21
141.0413466878303
 31
0.0
  0
LINE
  5
4E06
330
1A
100
AcDbEntity
  8
SEIHIN
100
AcDbLine
 10
318.9416470460844
 20
146.4655492168303
 30
0.0
 11
321.8485354460844
 21
140.6517724748303
 31
0.0
  0
ARC
  5
4E07
330
1A
100
AcDbEntity
  8
SEIHIN
100
AcDbCircle
 10
323.1136700460844
 20
146.7775782218303
 30
0.0
 40
1.999999965341132
100
AcDbArc
 50
206.5650522276384
 51
296.5650514076879
  0
LWPOLYLINE
  5
4E08
330
1A
100
AcDbEntity
  8
SUNPOU
100
AcDbPolyline
 90
        3
 70
     0
 43
0.0
 10
338.7748209892277
 20
178.7204301091792
 10
349.8853562528153
 20
212.3285617957868
 10
365.7348060933196
 20
212.3285617957868
1001
ACAD
1000
DSTYLE
1002
{
1070
    41
1040
3.0
1070
    42
1040
3.0
1070
    43
1040
7.0
1070
    44
1040
1.5
1070
    73
1070
     0
1070
    74
1070
     0
1070
    77
1070
     0
1070
   140
1040
3.0
1070
   141
1040
3.0
1070
   147
1040
1.0
1070
   172
1070
     1
1070
   173
1070
     1
1070
   176
1070
   256
1070
   177
1070
   256
1070
   178
1070
   256
1070
   271
1070
     0
1070
   272
1070
     0
1070
   341
1005
B2
1070
   343
1005
B2
1070
   344
1005
B2
1002
}
  0
LINE
  5
4E09
330
1A
100
AcDbEntity
  8
SEIHIN
100
AcDbLine
 10
337.8329461460844
 20
186.6571334258303
 30
0.0
 11
352.143781168447
 21
158.0354632721052
 31
0.0
  0
LINE
  5
4E0A
330
1A
100
AcDbEntity
  8
CENTER_L
100
AcDbLine
 10
341.0976053678063
 20
156.4254943714881
 30
0.0
 11
350.2207627243625
 21
160.9870730481724
 31
0.0
  0
DIMENSION
  5
4E0B
330
1A
100
AcDbEntity
  8
SUNPOU
100
AcDbDimension
  2
*D71
 10
354.386634827781
 20
181.5175698842828
 30
0.0
 11
353.492207645832
 21
188.8965942157739
 31
0.0
 70
    33
  3
STANDARD
100
AcDbAlignedDimension
 13
336.9385189518682
 23
188.4459878210751
 33
0.0
 14
343.1995092741719
 24
175.9240071287803
 34
0.0
1001
ACAD
1000
DSTYLE
1002
{
1070
    41
1040
3.0
1070
    42
1040
3.0
1070
    43
1040
7.0
1070
    44
1040
1.5
1070
    73
1070
     0
1070
    74
1070
     0
1070
    77
1070
     3
1070
   140
1040
3.0
1070
   141
1040
3.0
1070
   147
1040
1.0
1070
   172
1070
     1
1070
   173
1070
     1
1070
   176
1070
   256
1070
   177
1070
   256
1070
   178
1070
   256
1070
   271
1070
     0
1070
   272
1070
     0
1070
   341
1005
B2
1070
     6
1000
OPEN
1070
     7
1000
OPEN
1002
}
  0
DIMENSION
  5
4E0C
330
1A
100
AcDbEntity
  8
SUNPOU
100
AcDbDimension
  2
*D72
 10
316.9288983814402
 20
216.1668549979509
 30
0.0
 11
297.0278933920237
 21
209.0114374681173
 31
0.0
 70
    33
  3
STANDARD
100
AcDbAlignedDimension
 13
294.6321128077423
 23
166.8455711541085
 33
0.0
 14
332.1980548077423
 24
185.6285421681085
 34
0.0
1001
ACAD
1000
DSTYLE
1002
{
1070
    41
1040
3.0
1070
    42
1040
3.0
1070
    43
1040
7.0
1070
    44
1040
1.5
1070
    73
1070
     0
1070
    74
1070
     0
1070
    77
1070
     3
1070
   140
1040
3.0
1070
   141
1040
3.0
1070
   147
1040
1.0
1070
   172
1070
     1
1070
   173
1070
     1
1070
   176
1070
   256
1070
   177
1070
   256
1070
   178
1070
   256
1070
   271
1070
     0
1070
   272
1070
     0
1070
   341
1005
B2
1070
     6
1000
OPEN
1070
     7
1000
OPEN
1002
}
  0
LWPOLYLINE
  5
4E0D
330
1A
100
AcDbEntity
  8
SUNPOU
100
AcDbPolyline
 90
        3
 70
     0
 43
0.0
 10
292.5604132585697
 20
164.2990369708087
 10
271.1452371838082
 20
182.7483756661339
 10
253.5634505468996
 20
182.7483756661339
1001
ACAD
1000
DSTYLE
1002
{
1070
    41
1040
3.0
1070
    42
1040
3.0
1070
    43
1040
7.0
1070
    44
1040
1.5
1070
    73
1070
     0
1070
    74
1070
     0
1070
    77
1070
     0
1070
   140
1040
3.0
1070
   141
1040
3.0
1070
   147
1040
1.0
1070
   172
1070
     1
1070
   173
1070
     1
1070
   176
1070
   256
1070
   177
1070
   256
1070
   178
1070
   256
1070
   271
1070
     0
1070
   272
1070
     0
1070
   341
1005
B2
1070
   343
1005
B2
1070
   344
1005
B2
1002
}
  0
DIMENSION
  5
4E0E
330
1A
100
AcDbEntity
  8
SUNPOU
100
AcDbDimension
  2
*D73
 10
277.566480326587
 20
152.6107815694614
 30
0.0
 11
278.572710918994
 21
156.1884903292563
 31
0.0
 70
    33
  3
STANDARD
100
AcDbAlignedDimension
 13
289.533877826805
 23
164.7436672450141
 33
0.0
 14
291.9935525973031
 24
159.8243177022991
 34
0.0
1001
ACAD
1000
DSTYLE
1002
{
1070
    41
1040
3.0
1070
    42
1040
3.0
1070
    43
1040
7.0
1070
    44
1040
1.5
1070
    73
1070
     0
1070
    74
1070
     0
1070
    77
1070
     3
1070
   140
1040
3.0
1070
   141
1040
3.0
1070
   147
1040
1.0
1070
   172
1070
     1
1070
   173
1070
     1
1070
   176
1070
   256
1070
   177
1070
   256
1070
   178
1070
   256
1070
   271
1070
     0
1070
   272
1070
     0
1070
   341
1005
B2
1070
     6
1000
OPEN
1070
     7
1000
OPEN
1002
}
  0
DIMENSION
  5
4E0F
330
1A
100
AcDbEntity
  8
SUNPOU
100
AcDbDimension
  2
*D74
 10
317.9227518313256
 20
226.4775220404519
 30
0.0
 11
293.1023972795335
 21
216.8624297296659
 31
0.0
 70
    33
  3
STANDARD
100
AcDbAlignedDimension
 13
289.533877826805
 23
164.7436672450141
 33
0.0
 14
336.9385189518682
 24
188.4459878210751
 34
0.0
1001
ACAD
1000
DSTYLE
1002
{
1070
    41
1040
3.0
1070
    42
1040
3.0
1070
    43
1040
7.0
1070
    44
1040
1.5
1070
    73
1070
     0
1070
    74
1070
     0
1070
    77
1070
     3
1070
   140
1040
3.0
1070
   141
1040
3.0
1070
   147
1040
1.0
1070
   172
1070
     1
1070
   173
1070
     1
1070
   176
1070
   256
1070
   177
1070
   256
1070
   178
1070
   256
1070
   271
1070
     0
1070
   272
1070
     0
1070
   341
1005
B2
1070
     6
1000
OPEN
1070
     7
1000
OPEN
1002
}
  0
TEXT
  5
4E10
330
1A
100
AcDbEntity
  8
SUNPOU
100
AcDbText
 10
254.5452371838084
 20
183.4574264727478
 30
0.0
 40
3.0
  1
4-φ4.2
100
AcDbText
  0
LINE
  5
4E11
330
1A
100
AcDbEntity
  8
SEIHIN
100
AcDbLine
 10
333.8467963460844
 20
152.1441413678303
 30
0.0
 11
312.7889847460844
 21
194.2597645558303
 31
0.0
  0
LINE
  5
4E12
330
1A
100
AcDbEntity
  8
SEIHIN
100
AcDbLine
 10
332.9523691460844
 20
151.6969277728303
 30
0.0
 11
311.8945575460843
 21
193.8125509558303
 31
0.0
  0
DIMENSION
  5
4E13
330
1A
100
AcDbEntity
  8
SUNPOU
100
AcDbDimension
  2
*D75
 10
319.4084396187117
 20
207.8536706275979
 30
0.0
 11
300.8490754051157
 21
201.3690734941746
 31
0.0
 70
    33
  3
STANDARD
100
AcDbAlignedDimension
 13
299.2607735243612
 23
160.9423516892298
 33
0.0
 14
334.1434339743613
 24
178.3836819112299
 34
0.0
1001
ACAD
1000
DSTYLE
1002
{
1070
    41
1040
3.0
1070
    42
1040
3.0
1070
    43
1040
7.0
1070
    44
1040
1.5
1070
    73
1070
     0
1070
    74
1070
     0
1070
    77
1070
     3
1070
   140
1040
3.0
1070
   141
1040
3.0
1070
   147
1040
1.0
1070
   172
1070
     1
1070
   173
1070
     1
1070
   176
1070
   256
1070
   177
1070
   256
1070
   178
1070
   256
1070
   271
1070
     0
1070
   272
1070
     0
1070
   341
1005
B2
1070
     6
1000
OPEN
1070
     7
1000
OPEN
1002
}
  0
ARC
  5
4E14
330
1A
100
AcDbEntity
  8
SEIHIN
100
AcDbCircle
 10
321.2860431460843
 20
160.4951380958303
 30
0.0
 40
5.024896830989174
100
AcDbArc
 50
153.2223321449061
 51
79.90777135371757
  0
LINE
  5
4E15
330
1A
100
AcDbEntity
  8
SEIHIN
100
AcDbLine
 10
315.2681239460844
 20
147.9828896248303
 30
0.0
 11
318.3791547460844
 21
149.5384050022303
 31
0.0
  0
LINE
  5
4E16
330
1A
100
AcDbEntity
  8
SEIHIN
100
AcDbLine
 10
310.7765236460843
 20
164.7436672458303
 30
0.0
 11
318.3791547460844
 21
149.5384050022303
 31
0.0
  0
LINE
  5
4E17
330
1A
100
AcDbEntity
  8
SEIHIN
100
AcDbLine
 10
309.9973751460844
 20
164.3540930358303
 30
0.0
 11
317.6000063460844
 21
149.1488307896303
 31
0.0
  0
LINE
  5
4E18
330
1A
100
AcDbEntity
  8
SEIHIN
100
AcDbLine
 10
311.0064897460844
 20
187.7624487958303
 30
0.0
 11
322.1665718460844
 21
165.4422844558303
 31
0.0
  0
LINE
  5
4E19
330
1A
100
AcDbEntity
  8
SEIHIN
100
AcDbLine
 10
305.6399265860844
 20
185.0791671958303
 30
0.0
 11
316.8000087460844
 21
162.7590028858303
 31
0.0
  0
LINE
  5
4E1A
330
1A
100
AcDbEntity
  8
SEIHIN
100
AcDbLine
 10
306.5279944460844
 20
173.2407255658303
 30
0.0
 11
309.4348828460844
 21
167.4269488258303
 31
0.0
  0
LINE
  5
4E1B
330
1A
100
AcDbEntity
  8
SEIHIN
100
AcDbLine
 10
305.7488460260844
 20
172.8511513558303
 30
0.0
 11
308.6557343460844
 21
167.0373746058303
 31
0.0
  0
LINE
  5
4E1C
330
1A
100
AcDbEntity
  8
SEIHIN
100
AcDbLine
 10
306.5279944460844
 20
173.2407255658303
 30
0.0
 11
291.3227322060844
 21
165.6380944358303
 31
0.0
  0
CIRCLE
  5
4E1D
330
1A
100
AcDbEntity
  8
SEIHIN
100
AcDbCircle
 10
302.0558584960844
 20
155.3521817438303
 30
0.0
 40
3.250000001408088
  0
LINE
  5
4E1E
330
1A
100
AcDbEntity
  8
CENTER_L
100
AcDbLine
 10
296.4656885506848
 20
152.5570967721071
 30
0.0
 11
307.646028441484
 21
158.1472667155535
 31
0.0
  0
LINE
  5
4E1F
330
1A
100
AcDbEntity
  8
CENTER_L
100
AcDbLine
 10
292.3513234678063
 20
160.0032031374881
 30
0.0
 11
301.4744808243625
 21
164.5647818141725
 31
0.0
  0
LINE
  5
4E20
330
1A
100
AcDbEntity
  8
CENTER_L
100
AcDbLine
 10
299.2607735243612
 20
160.9423516892298
 30
0.0
 11
304.8509434678076
 21
149.7620117984307
 31
0.0
  0
LINE
  5
4E21
330
1A
100
AcDbEntity
  8
CENTER_L
100
AcDbLine
 10
294.6321128077423
 20
166.8455711541085
 30
0.0
 11
299.1936914844266
 21
157.7224137975522
 31
0.0
  0
ARC
  5
4E22
330
1A
100
AcDbEntity
  8
SEIHIN
100
AcDbCircle
 10
292.2171593960844
 20
163.8492400558303
 30
0.0
 40
1.999999997764122
100
AcDbArc
 50
116.5650511770767
 51
206.5650511770767
  0
INSERT
  5
4E23
330
1A
100
AcDbEntity
  8
SUNPOU
100
AcDbBlockReference
  2
_OPEN
 10
294.8332739237308
 20
162.3409500481306
 30
0.0
 41
2.999999999999992
 42
3.0
 43
3.0
 50
319.2548486777223
1001
ACAD
1000
DSTYLE
1002
{
1070
    41
1040
3.0
1070
    42
1040
3.0
1070
    43
1040
7.0
1070
    44
1040
1.5
1070
    73
1070
     0
1070
    74
1070
     0
1070
    77
1070
     0
1070
   140
1040
3.0
1070
   141
1040
3.0
1070
   147
1040
1.0
1070
   172
1070
     1
1070
   173
1070
     1
1070
   176
1070
   256
1070
   177
1070
   256
1070
   178
1070
   256
1070
   271
1070
     0
1070
   272
1070
     0
1070
   341
1005
B2
1070
   343
1005
B2
1070
   344
1005
B2
1002
}
  0
CIRCLE
  5
4E24
330
1A
100
AcDbEntity
  8
SEIHIN
100
AcDbCircle
 10
296.9129021460844
 20
162.2839924758303
 30
0.0
 40
2.100000004315366
  0
LINE
  5
4E25
330
1A
100
AcDbEntity
  8
SEIHIN
100
AcDbLine
 10
309.4348828460844
 20
167.4269488258303
 30
0.0
 11
306.3238520660844
 21
165.8714334458303
 31
0.0
  0
LINE
  5
4E26
330
1A
100
AcDbEntity
  8
SEIHIN
100
AcDbLine
 10
310.7765236460843
 20
164.7436672458303
 30
0.0
 11
307.6654928460844
 21
163.1881518758303
 31
0.0
  0
LINE
  5
4E27
330
1A
100
AcDbEntity
  8
SEIHIN
100
AcDbLine
 10
306.3238520660844
 20
165.8714334458303
 30
0.0
 11
307.6654928460844
 21
163.1881518758303
 31
0.0
  0
LINE
  5
4E28
330
1A
100
AcDbEntity
  8
SEIHIN
100
AcDbLine
 10
309.4348828460844
 20
167.4269488258303
 30
0.0
 11
310.7765236460843
 21
164.7436672458303
 31
0.0
  0
LINE
  5
4E29
330
1A
100
AcDbEntity
  8
SEIHIN
100
AcDbLine
 10
299.3725769260844
 20
187.5515606158303
 30
0.0
 11
300.2670041160844
 21
187.9987742158304
 31
0.0
  0
ARC
  5
4E2A
330
1A
100
AcDbEntity
  8
SEIHIN
100
AcDbCircle
 10
308.3232083460844
 20
186.4208076858303
 30
0.0
 40
3.000000012298682
100
AcDbArc
 50
26.56505818082145
 51
206.5650445149795
  0
LINE
  5
4E2B
330
1A
100
AcDbEntity
  8
SEIHIN
100
AcDbLine
 10
302.5094315660844
 20
183.5139193158303
 30
0.0
 11
305.6399267260843
 21
185.0791668958303
 31
0.0
  0
LINE
  5
4E2C
330
1A
100
AcDbEntity
  8
SEIHIN
100
AcDbLine
 10
311.0064898460844
 20
187.7624484758303
 30
0.0
 11
314.1369850460844
 21
189.3276960558303
 31
0.0
  0
LINE
  5
4E2D
330
1A
100
AcDbEntity
  8
SEIHIN
100
AcDbLine
 10
324.1929314460843
 20
171.4518711858303
 30
0.0
 11
331.7955625460844
 21
156.2466089348303
 31
0.0
  0
LINE
  5
4E2E
330
1A
100
AcDbEntity
  8
SEIHIN
100
AcDbLine
 10
324.9720799460844
 20
171.8414453958303
 30
0.0
 11
332.5747110460844
 21
156.6361831478303
 31
0.0
  0
CIRCLE
  5
4E2F
330
1A
100
AcDbEntity
  8
SEIHIN
100
AcDbCircle
 10
336.9385189460844
 20
172.7935119658303
 30
0.0
 40
3.249999988758972
  0
LINE
  5
4E30
330
1A
100
AcDbEntity
  8
CENTER_L
100
AcDbLine
 10
331.3483490006849
 20
169.9984269941071
 30
0.0
 11
342.528688891484
 21
175.5885969375535
 31
0.0
  0
LINE
  5
4E31
330
1A
100
AcDbEntity
  8
CENTER_L
100
AcDbLine
 10
334.1434339743613
 20
178.3836819112299
 30
0.0
 11
339.7336039178076
 21
167.2033420204307
 31
0.0
  0
LINE
  5
4E32
330
1A
100
AcDbEntity
  8
SEIHIN
100
AcDbLine
 10
331.7955625460844
 20
156.2466089348303
 30
0.0
 11
333.1372033460844
 21
153.5633273618303
 31
0.0
  0
LINE
  5
4E33
330
1A
100
AcDbEntity
  8
SEIHIN
100
AcDbLine
 10
334.9065933460844
 20
157.8021243118303
 30
0.0
 11
331.7955625460844
 21
156.2466089348303
 31
0.0
  0
LINE
  5
4E34
330
1A
100
AcDbEntity
  8
SEIHIN
100
AcDbLine
 10
336.2482341460844
 20
155.1188427388303
 30
0.0
 11
332.2427761460844
 21
153.1161137658303
 31
0.0
  0
ARC
  5
4E35
330
1A
100
AcDbEntity
  8
SEIHIN
100
AcDbCircle
 10
331.1635148460844
 20
150.8025005814303
 30
0.0
 40
1.999999965251689
100
AcDbArc
 50
296.5650514128148
 51
26.56505223788815
  0
CIRCLE
  5
4E36
330
1A
100
AcDbEntity
  8
SEIHIN
100
AcDbCircle
 10
321.2860431460843
 20
160.4951380958303
 30
0.0
 40
2.999999911928945
  0
CIRCLE
  5
4E37
330
1A
100
AcDbEntity
  8
SEIHIN
100
AcDbCircle
 10
345.6591840460844
 20
158.7062837098303
 30
0.0
 40
2.10000000249889
  0
LINE
  5
4E38
330
1A
100
AcDbEntity
  8
CENTER_L
100
AcDbLine
 10
343.3783947077423
 20
163.2678623881085
 30
0.0
 11
347.9399733844266
 21
154.1447050315522
 31
0.0
  0
LINE
  5
4E39
330
1A
100
AcDbEntity
  8
SEIHIN
100
AcDbLine
 10
333.9163518460844
 20
153.9529015748303
 30
0.0
 11
336.8232401460844
 21
148.1391248328303
 31
0.0
  0
LINE
  5
4E3A
330
1A
100
AcDbEntity
  8
SEIHIN
100
AcDbLine
 10
333.1372033460844
 20
153.5633273618303
 30
0.0
 11
336.0440917460844
 21
147.7495506198303
 31
0.0
  0
LINE
  5
4E3B
330
1A
100
AcDbEntity
  8
SEIHIN
100
AcDbLine
 10
334.9065933460844
 20
157.8021243118303
 30
0.0
 11
336.2482341460844
 21
155.1188427388303
 31
0.0
  0
CIRCLE
  5
4E3C
330
1A
100
AcDbEntity
  8
SEIHIN
100
AcDbCircle
 10
334.4788441460844
 20
181.0669634858303
 30
0.0
 40
2.100000001153092
  0
LINE
  5
4E3D
330
1A
100
AcDbEntity
  8
CENTER_L
100
AcDbLine
 10
329.9172654678063
 20
178.7861741514881
 30
0.0
 11
339.0404228243626
 21
183.3477528281725
 31
0.0
  0
LINE
  5
4E3E
330
1A
100
AcDbEntity
  8
CENTER_L
100
AcDbLine
 10
332.1980548077423
 20
185.6285421681085
 30
0.0
 11
336.7596334844266
 21
176.5053848115522
 31
0.0
  0
LINE
  5
4E3F
330
1A
100
AcDbEntity
  8
SEIHIN
100
AcDbLine
 10
319.9444023460844
 20
179.9489294958303
 30
0.0
 11
335.1496645460844
 21
187.5515606158303
 31
0.0
  0
LINE
  5
4E40
330
1A
100
AcDbEntity
  8
SEIHIN
100
AcDbLine
 10
324.1929314460843
 20
171.4518711858303
 30
0.0
 11
327.3039622460844
 21
173.0073865558303
 31
0.0
  0
LINE
  5
4E41
330
1A
100
AcDbEntity
  8
SEIHIN
100
AcDbLine
 10
322.8512906460844
 20
174.1351527558303
 30
0.0
 11
325.9623214460844
 21
175.6906681358303
 31
0.0
  0
LINE
  5
4E42
330
1A
100
AcDbEntity
  8
SEIHIN
100
AcDbLine
 10
319.9444023460844
 20
179.9489294958303
 30
0.0
 11
322.8512906460844
 21
174.1351527558303
 31
0.0
  0
LINE
  5
4E43
330
1A
100
AcDbEntity
  8
SEIHIN
100
AcDbLine
 10
320.7235507460844
 20
180.3385037058303
 30
0.0
 11
323.6304391460844
 21
174.5247269658303
 31
0.0
  0
LINE
  5
4E44
330
1A
100
AcDbEntity
  8
SEIHIN
100
AcDbLine
 10
322.8512906460844
 20
174.1351527558303
 30
0.0
 11
324.1929314460843
 21
171.4518711858303
 31
0.0
  0
LINE
  5
4E45
330
1A
100
AcDbEntity
  8
SEIHIN
100
AcDbLine
 10
325.9623214460844
 20
175.6906681358303
 30
0.0
 11
327.3039622460844
 21
173.0073865558303
 31
0.0
  0
INSERT
  5
4E46
330
1A
100
AcDbEntity
  8
SUNPOU
100
AcDbBlockReference
  2
_OPEN
 10
337.8331714931397
 20
175.8720452639526
 30
0.0
 41
2.999999999999981
 42
3.0
 43
3.0
 50
251.7065953267104
1001
ACAD
1000
DSTYLE
1002
{
1070
    41
1040
3.0
1070
    42
1040
3.0
1070
    43
1040
7.0
1070
    44
1040
1.5
1070
    73
1070
     0
1070
    74
1070
     0
1070
    77
1070
     0
1070
   140
1040
3.0
1070
   141
1040
3.0
1070
   147
1040
1.0
1070
   172
1070
     1
1070
   173
1070
     1
1070
   176
1070
   256
1070
   177
1070
   256
1070
   178
1070
   256
1070
   271
1070
     0
1070
   272
1070
     0
1070
   341
1005
B2
1070
   343
1005
B2
1070
   344
1005
B2
1002
}
  0
ARC
  5
4E47
330
1A
100
AcDbEntity
  8
SEIHIN
100
AcDbCircle
 10
336.0440917460844
 20
185.7627062358303
 30
0.0
 40
2.000000008944457
100
AcDbArc
 50
26.56505092084454
 51
116.5650514333117
  0
LINE
  5
4E48
330
1A
100
AcDbEntity
  8
SEIHIN
100
AcDbLine
 10
311.8945575460843
 20
193.8125509558303
 30
0.0
 11
312.7889847460844
 21
194.2597645558303
 31
0.0
  0
ARC
  5
4E49
330
1A
100
AcDbEntity
  8
SEIHIN
100
AcDbCircle
 10
350.3549267850847
 20
157.1410360838303
 30
0.0
 40
2.0
100
AcDbArc
 50
296.5650511415189
 51
26.56505108979775
  0
TEXT
  5
4E4A
330
1A
100
AcDbEntity
  8
SUNPOU
100
AcDbText
 10
350.2249614666412
 20
213.6329087084074
 30
0.0
 40
3.0
  1
2-φ6.5
100
AcDbText
  0
VIEWPORT
  5
22
330
17
100
AcDbEntity
 67
     1
  8
0
100
AcDbViewport
 10
313.6808219178082
 20
148.5
 30
0.0
 40
627.3616438356165
 41
297.0
 68
     2
 69
     1
1001
ACAD
1000
MVIEW
1002
{
1070
    16
1010
0.0
1020
0.0
1030
0.0
1010
0.0
1020
0.0
1030
1.0
1040
0.0
1040
297.0
1040
313.6808219178082
1040
148.5
1040
50.0
1040
0.0
1040
0.0
1070
     0
1070
   100
1070
     1
1070
     0
1070
     0
1070
     0
1070
     0
1070
     0
1040
0.0
1040
0.0
1040
0.0
1040
1.0
1040
1.0
1040
10.0
1040
10.0
1070
     0
1002
{
1002
}
1002
}
  0
VIEWPORT
  5
64
330
17
100
AcDbEntity
 67
     1
  8
VIEWPORT
100
AcDbViewport
 10
210.0
 20
148.5
 30
0.0
 40
420.0
 41
297.0
 68
     1
 69
     2
1001
ACAD
1000
MVIEW
1002
{
1070
    16
1010
0.0
1020
0.0
1030
0.0
1010
0.0
1020
0.0
1030
1.0
1040
0.0
1040
302.9399999999998
1040
210.0
1040
148.5
1040
50.0
1040
0.0
1040
0.0
1070
     0
1070
   100
1070
     1
1070
     0
1070
     0
1070
     0
1070
     0
1070
     0
1040
0.0
1040
0.0
1040
0.0
1040
5.0
1040
5.0
1040
0.0
1040
0.0
1070
     0
1002
{
1002
}
1002
}
  0
ENDSEC
  0
SECTION
  2
OBJECTS
  0
DICTIONARY
  5
C
330
0
100
AcDbDictionary
  3
ACAD_GROUP
350
D
  3
ACAD_LAYOUT
350
141
  3
ACAD_MLINESTYLE
350
E
  3
ACAD_PLOTSETTINGS
350
142
  3
ACAD_PLOTSTYLENAME
350
13F
  3
ACADDIM
350
1A14
  3
ACDBVARIABLEDICTIONARY
350
120D
  3
ACDBHEADERROUNDTRIPXREC
350
4F99
  0
DICTIONARY
  5
7A2
330
1A
100
AcDbDictionary
280
     1
  3
ACAD_LAYOUTSELFREF
360
4FBB
  0
DICTIONARY
  5
7A0
330
17
100
AcDbDictionary
280
     1
  3
ACAD_LAYOUTSELFREF
360
4FBA
  0
DICTIONARY
  5
D
102
{ACAD_REACTORS
330
C
102
}
330
C
100
AcDbDictionary
  0
DICTIONARY
  5
141
102
{ACAD_REACTORS
330
C
102
}
330
C
100
AcDbDictionary
  0
DICTIONARY
  5
E
102
{ACAD_REACTORS
330
C
102
}
330
C
100
AcDbDictionary
  3
STANDARD
350
13
  0
DICTIONARY
  5
142
102
{ACAD_REACTORS
330
C
102
}
330
C
100
AcDbDictionary
  0
ACDBDICTIONARYWDFLT
  5
13F
102
{ACAD_REACTORS
330
C
102
}
330
C
100
AcDbDictionary
281
     1
  3
Normal
350
140
100
AcDbDictionaryWithDefault
340
140
1001
ACAD
1000
TREAT_AS_HARD
1070
     0
1000
TREAT_AS_HARD
1070
     0
1000
TREAT_AS_HARD
1070
     0
1000
TREAT_AS_HARD
1070
     0
1000
TREAT_AS_HARD
1070
     0
1000
TREAT_AS_HARD
1070
     0
1000
TREAT_AS_HARD
1070
     0
1000
TREAT_AS_HARD
1070
     0
1000
TREAT_AS_HARD
1070
     0
1000
TREAT_AS_HARD
1070
     0
1000
TREAT_AS_HARD
1070
     0
  0
XRECORD
  5
1A14
102
{ACAD_REACTORS
330
C
102
}
330
C
100
AcDbXrecord
 90
   990106
  3

 60
     0
 61
     0
 62
     1
 63
     3
 64
     0
 65
     0
 66
     0
 67
     3
 68
     1
 69
     0
 70
     0
 71
     0
 72
     0
 40
0.0
170
     0
340
0
  0
DICTIONARY
  5
120D
102
{ACAD_REACTORS
330
C
102
}
330
C
100
AcDbDictionary
  3
SORTENTS
350
120E
  0
DICTIONARY
  5
4F99
102
{ACAD_REACTORS
330
C
102
}
330
C
100
AcDbDictionary
  3
TSTACKALIGN
350
4F9A
  3
TSTACKSIZE
350
4F9B
  3
HYPERLINKBASE
350
4F9C
  3
STYLESHEET
350
4F9D
  3
LAYOUTDICT
350
4F9E
  3
PLOTSETDICT
350
4F9F
  3
PLOTSTYLNAMDICT
350
4FA0
  3
LWETCUNION
350
4FA1
  3
INSUNITS
350
4FA2
  3
CEPSNTYPE
350
4FA3
  3
FINGERPRINTGUID
350
4FA4
  3
VERSIONGUID
350
4FA5
  3
PSVPSCALE
350
4FA6
  3
DIMSTYLEDATA
350
4FA7
  3
PUCSORTHOREF
350
4FA8
  3
PUCSORTHOVIEW
350
4FA9
  3
PUCSBASE
350
4FAA
  3
PUCSORGTOP
350
4FAB
  3
PUCSORGBOTTOM
350
4FAC
  3
PUCSORGLEFT
350
4FAD
  3
PUCSORGRIGHT
350
4FAE
  3
PUCSORGFRONT
350
4FAF
  3
PUCSORGBACK
350
4FB0
  3
UCSORTHOREF
350
4FB1
  3
UCSORTHOVIEW
350
4FB2
  3
UCSBASE
350
4FB3
  3
UCSORGTOP
350
4FB4
  3
UCSORGBOTTOM
350
4FB5
  3
UCSORGLEFT
350
4FB6
  3
UCSORGRIGHT
350
4FB7
  3
UCSORGFRONT
350
4FB8
  3
UCSORGBACK
350
4FB9
  0
XRECORD
  5
4FBB
102
{ACAD_REACTORS
330
7A2
102
}
330
7A2
100
AcDbXrecord
340
1A
  0
XRECORD
  5
4FBA
102
{ACAD_REACTORS
330
7A0
102
}
330
7A0
100
AcDbXrecord
340
17
  0
MLINESTYLE
  5
13
102
{ACAD_REACTORS
330
E
102
}
330
E
100
AcDbMlineStyle
  2
STANDARD
 70
     0
  3

 62
     0
 51
90.0
 52
90.0
 71
     2
 49
0.5
 62
   256
  6
BYLAYER
 49
-0.5
 62
   256
  6
BYLAYER
  0
ACDBPLACEHOLDER
  5
140
102
{ACAD_REACTORS
330
13F
102
}
330
13F
100
AcDbPlaceHolder
280
     0
  0
DICTIONARYVAR
  5
120E
102
{ACAD_REACTORS
330
120D
102
}
330
120D
100
DictionaryVariables
280
     0
  1
96
  0
XRECORD
  5
4F9A
102
{ACAD_REACTORS
330
4F99
102
}
330
4F99
100
AcDbXrecord
 90
        1
  0
XRECORD
  5
4F9B
102
{ACAD_REACTORS
330
4F99
102
}
330
4F99
100
AcDbXrecord
 90
       70
  0
XRECORD
  5
4F9C
102
{ACAD_REACTORS
330
4F99
102
}
330
4F99
100
AcDbXrecord
  1

  0
XRECORD
  5
4F9D
102
{ACAD_REACTORS
330
4F99
102
}
330
4F99
100
AcDbXrecord
  1
systemprinter.ctb
  0
XRECORD
  5
4F9E
102
{ACAD_REACTORS
330
4F99
102
}
330
4F99
100
AcDbXrecord
340
141
  0
XRECORD
  5
4F9F
102
{ACAD_REACTORS
330
4F99
102
}
330
4F99
100
AcDbXrecord
340
142
  0
XRECORD
  5
4FA0
102
{ACAD_REACTORS
330
4F99
102
}
330
4F99
100
AcDbXrecord
340
13F
  0
XRECORD
  5
4FA1
102
{ACAD_REACTORS
330
4F99
102
}
330
4F99
100
AcDbXrecord
 90
    10781
  0
XRECORD
  5
4FA2
102
{ACAD_REACTORS
330
4F99
102
}
330
4F99
100
AcDbXrecord
 90
        0
  0
XRECORD
  5
4FA3
102
{ACAD_REACTORS
330
4F99
102
}
330
4F99
100
AcDbXrecord
 90
        0
  0
XRECORD
  5
4FA4
102
{ACAD_REACTORS
330
4F99
102
}
330
4F99
100
AcDbXrecord
  1
{4E8D0500-CDD1-11D3-932C-444553540000}
  0
XRECORD
  5
4FA5
102
{ACAD_REACTORS
330
4F99
102
}
330
4F99
100
AcDbXrecord
  1
{188B39F3-1FDD-4590-9EF3-2ABEEFBA0C37}
  0
XRECORD
  5
4FA6
102
{ACAD_REACTORS
330
4F99
102
}
330
4F99
100
AcDbXrecord
 40
0.0
  0
XRECORD
  5
4FA7
102
{ACAD_REACTORS
330
4F99
102
}
330
4F99
100
AcDbXrecord
1000
DSTYLE
1002
{
1070
   341
340
B2
1070
   343
340
B2
1070
   344
340
B2
1070
   371
 70
    -1
1070
   372
 70
    -1
1002
}
  0
XRECORD
  5
4FA8
102
{ACAD_REACTORS
330
4F99
102
}
330
4F99
100
AcDbXrecord
340
0
  0
XRECORD
  5
4FA9
102
{ACAD_REACTORS
330
4F99
102
}
330
4F99
100
AcDbXrecord
 70
     0
  0
XRECORD
  5
4FAA
102
{ACAD_REACTORS
330
4F99
102
}
330
4F99
100
AcDbXrecord
340
0
  0
XRECORD
  5
4FAB
102
{ACAD_REACTORS
330
4F99
102
}
330
4F99
100
AcDbXrecord
 10
0.0
 20
0.0
 30
0.0
  0
XRECORD
  5
4FAC
102
{ACAD_REACTORS
330
4F99
102
}
330
4F99
100
AcDbXrecord
 10
0.0
 20
0.0
 30
0.0
  0
XRECORD
  5
4FAD
102
{ACAD_REACTORS
330
4F99
102
}
330
4F99
100
AcDbXrecord
 10
0.0
 20
0.0
 30
0.0
  0
XRECORD
  5
4FAE
102
{ACAD_REACTORS
330
4F99
102
}
330
4F99
100
AcDbXrecord
 10
0.0
 20
0.0
 30
0.0
  0
XRECORD
  5
4FAF
102
{ACAD_REACTORS
330
4F99
102
}
330
4F99
100
AcDbXrecord
 10
0.0
 20
0.0
 30
0.0
  0
XRECORD
  5
4FB0
102
{ACAD_REACTORS
330
4F99
102
}
330
4F99
100
AcDbXrecord
 10
0.0
 20
0.0
 30
0.0
  0
XRECORD
  5
4FB1
102
{ACAD_REACTORS
330
4F99
102
}
330
4F99
100
AcDbXrecord
340
0
  0
XRECORD
  5
4FB2
102
{ACAD_REACTORS
330
4F99
102
}
330
4F99
100
AcDbXrecord
 70
     0
  0
XRECORD
  5
4FB3
102
{ACAD_REACTORS
330
4F99
102
}
330
4F99
100
AcDbXrecord
340
0
  0
XRECORD
  5
4FB4
102
{ACAD_REACTORS
330
4F99
102
}
330
4F99
100
AcDbXrecord
 10
0.0
 20
0.0
 30
0.0
  0
XRECORD
  5
4FB5
102
{ACAD_REACTORS
330
4F99
102
}
330
4F99
100
AcDbXrecord
 10
0.0
 20
0.0
 30
0.0
  0
XRECORD
  5
4FB6
102
{ACAD_REACTORS
330
4F99
102
}
330
4F99
100
AcDbXrecord
 10
0.0
 20
0.0
 30
0.0
  0
XRECORD
  5
4FB7
102
{ACAD_REACTORS
330
4F99
102
}
330
4F99
100
AcDbXrecord
 10
0.0
 20
0.0
 30
0.0
  0
XRECORD
  5
4FB8
102
{ACAD_REACTORS
330
4F99
102
}
330
4F99
100
AcDbXrecord
 10
0.0
 20
0.0
 30
0.0
  0
XRECORD
  5
4FB9
102
{ACAD_REACTORS
330
4F99
102
}
330
4F99
100
AcDbXrecord
 10
0.0
 20
0.0
 30
0.0
  0
ENDSEC
  0
EOF
