  0
SECTION
  2
HEADER
  9
$ACADVER
  1
AC1014
  9
$ACADMAINTVER
 70
     9
  9
$DWGCODEPAGE
  3
ANSI_932
  9
$INSBASE
 10
0.0
 20
0.0
 30
0.0
  9
$EXTMIN
 10
-0.0000003224365628
 20
0.0000000308041308
 30
-0.00000001
  9
$EXTMAX
 10
398.7999996775635
 20
275.8000000308042
 30
0.00000001
  9
$LIMMIN
 10
0.0
 20
0.0
  9
$LIMMAX
 10
420.0
 20
297.0
  9
$ORTHOMODE
 70
     1
  9
$REGENMODE
 70
     1
  9
$FILLMODE
 70
     1
  9
$QTEXTMODE
 70
     0
  9
$MIRRTEXT
 70
     1
  9
$DRAGMODE
 70
     2
  9
$LTSCALE
 40
5.0
  9
$OSMODE
 70
    37
  9
$ATTMODE
 70
     1
  9
$TEXTSIZE
 40
3.0
  9
$TRACEWID
 40
1.0
  9
$TEXTSTYLE
  7
STANDARD
  9
$CLAYER
  8
SUNPOU
  9
$CELTYPE
  6
BYLAYER
  9
$CECOLOR
 62
   256
  9
$CELTSCALE
 40
1.0
  9
$DELOBJ
 70
     1
  9
$DISPSILH
 70
     0
  9
$DIMSCALE
 40
1.0
  9
$DIMASZ
 40
3.0
  9
$DIMEXO
 40
3.0
  9
$DIMDLI
 40
7.0
  9
$DIMRND
 40
0.0
  9
$DIMDLE
 40
0.0
  9
$DIMEXE
 40
1.5
  9
$DIMTP
 40
0.0
  9
$DIMTM
 40
0.0
  9
$DIMTXT
 40
3.0
  9
$DIMCEN
 40
3.0
  9
$DIMTSZ
 40
0.0
  9
$DIMTOL
 70
     0
  9
$DIMLIM
 70
     0
  9
$DIMTIH
 70
     0
  9
$DIMTOH
 70
     0
  9
$DIMSE1
 70
     0
  9
$DIMSE2
 70
     0
  9
$DIMTAD
 70
     3
  9
$DIMZIN
 70
     0
  9
$DIMBLK
  1

  9
$DIMASO
 70
     1
  9
$DIMSHO
 70
     1
  9
$DIMPOST
  1

  9
$DIMAPOST
  1

  9
$DIMALT
 70
     0
  9
$DIMALTD
 70
     2
  9
$DIMALTF
 40
25.4
  9
$DIMLFAC
 40
1.0
  9
$DIMTOFL
 70
     1
  9
$DIMTVP
 40
0.0
  9
$DIMTIX
 70
     0
  9
$DIMSOXD
 70
     0
  9
$DIMSAH
 70
     1
  9
$DIMBLK1
  1
OPEN
  9
$DIMBLK2
  1
OPEN
  9
$DIMSTYLE
  2
STANDARD
  9
$DIMCLRD
 70
   256
  9
$DIMCLRE
 70
   256
  9
$DIMCLRT
 70
   256
  9
$DIMTFAC
 40
1.0
  9
$DIMGAP
 40
1.0
  9
$DIMJUST
 70
     0
  9
$DIMSD1
 70
     0
  9
$DIMSD2
 70
     0
  9
$DIMTOLJ
 70
     1
  9
$DIMTZIN
 70
     0
  9
$DIMALTZ
 70
     0
  9
$DIMALTTZ
 70
     0
  9
$DIMFIT
 70
     3
  9
$DIMUPT
 70
     0
  9
$DIMUNIT
 70
     2
  9
$DIMDEC
 70
     0
  9
$DIMTDEC
 70
     0
  9
$DIMALTU
 70
     2
  9
$DIMALTTD
 70
     2
  9
$DIMTXSTY
  7
STANDARD
  9
$DIMAUNIT
 70
     0
  9
$LUNITS
 70
     2
  9
$LUPREC
 70
     4
  9
$SKETCHINC
 40
1.0
  9
$FILLETRAD
 40
2.0
  9
$AUNITS
 70
     0
  9
$AUPREC
 70
     0
  9
$MENU
  1
.
  9
$ELEVATION
 40
0.0
  9
$PELEVATION
 40
0.0
  9
$THICKNESS
 40
0.0
  9
$LIMCHECK
 70
     0
  9
$BLIPMODE
 70
     0
  9
$CHAMFERA
 40
10.0
  9
$CHAMFERB
 40
10.0
  9
$CHAMFERC
 40
20.0
  9
$CHAMFERD
 40
0.0
  9
$SKPOLY
 70
     0
  9
$TDCREATE
 40
2451589.469382176
  9
$TDUPDATE
 40
2454515.395894884
  9
$TDINDWG
 40
0.2633603125
  9
$TDUSRTIMER
 40
0.2633603125
  9
$USRTIMER
 70
     1
  9
$ANGBASE
 50
0.0
  9
$ANGDIR
 70
     0
  9
$PDMODE
 70
     0
  9
$PDSIZE
 40
0.0
  9
$PLINEWID
 40
0.0
  9
$COORDS
 70
     2
  9
$SPLFRAME
 70
     0
  9
$SPLINETYPE
 70
     6
  9
$SPLINESEGS
 70
     8
  9
$ATTDIA
 70
     0
  9
$ATTREQ
 70
     1
  9
$HANDLING
 70
 10241
  9
$HANDSEED
  5
556E
  9
$SURFTAB1
 70
     6
  9
$SURFTAB2
 70
     6
  9
$SURFTYPE
 70
     6
  9
$SURFU
 70
     6
  9
$SURFV
 70
     6
  9
$UCSNAME
  2

  9
$UCSORG
 10
0.0
 20
0.0
 30
0.0
  9
$UCSXDIR
 10
1.0
 20
0.0
 30
0.0
  9
$UCSYDIR
 10
0.0
 20
1.0
 30
0.0
  9
$PUCSNAME
  2

  9
$PUCSORG
 10
0.0
 20
0.0
 30
0.0
  9
$PUCSXDIR
 10
1.0
 20
0.0
 30
0.0
  9
$PUCSYDIR
 10
0.0
 20
1.0
 30
0.0
  9
$USERI1
 70
     0
  9
$USERI2
 70
     0
  9
$USERI3
 70
     0
  9
$USERI4
 70
     0
  9
$USERI5
 70
     0
  9
$USERR1
 40
0.0
  9
$USERR2
 40
0.0
  9
$USERR3
 40
0.0
  9
$USERR4
 40
0.0
  9
$USERR5
 40
0.0
  9
$WORLDVIEW
 70
     1
  9
$SHADEDGE
 70
     3
  9
$SHADEDIF
 70
    70
  9
$TILEMODE
 70
     1
  9
$MAXACTVP
 70
    16
  9
$PINSBASE
 10
0.0
 20
0.0
 30
0.0
  9
$PLIMCHECK
 70
     0
  9
$PEXTMIN
 10
0.0
 20
0.0
 30
0.0
  9
$PEXTMAX
 10
420.0
 20
297.0
 30
0.0
  9
$PLIMMIN
 10
0.0
 20
0.0
  9
$PLIMMAX
 10
420.0
 20
297.0
  9
$UNITMODE
 70
     0
  9
$VISRETAIN
 70
     0
  9
$PLINEGEN
 70
     0
  9
$PSLTSCALE
 70
     1
  9
$TREEDEPTH
 70
  3020
  9
$PICKSTYLE
 70
     1
  9
$CMLSTYLE
  2
STANDARD
  9
$CMLJUST
 70
     0
  9
$CMLSCALE
 40
1.0
  9
$PROXYGRAPHICS
 70
     1
  9
$MEASUREMENT
 70
     0
  0
ENDSEC
  0
SECTION
  2
CLASSES
  0
CLASS
  1
ACDBDICTIONARYWDFLT
  2
AcDbDictionaryWithDefault
  3
AutoCAD 2000
 90
        0
280
     0
281
     0
  0
CLASS
  1
ACDBPLACEHOLDER
  2
AcDbPlaceHolder
  3
AutoCAD 2000
 90
        0
280
     0
281
     0
  0
CLASS
  1
LAYOUT
  2
AcDbLayout
  3
AutoCAD 2000
 90
        0
280
     0
281
     0
  0
CLASS
  1
LONG_TRANSACTION
  2
AcDbLongTransaction
  3
AutoCAD 2000
 90
        0
280
     0
281
     0
  0
CLASS
  1
LWPOLYLINE
  2
AcDbPolyline
  3
AutoCAD 2000
 90
        0
280
     0
281
     1
  0
CLASS
  1
HATCH
  2
AcDbHatch
  3
AutoCAD 2000
 90
        0
280
     0
281
     1
  0
CLASS
  1
XRECORD
  2
AcDbXrecord
  3
AutoCAD 2000
 90
        0
280
     0
281
     0
  0
CLASS
  1
LONG_TRANSACTION
  2
AcDbLongTransaction
  3
AutoCAD 2000
 90
        0
280
     0
281
     0
  0
CLASS
  1
LWPOLYLINE
  2
AcDbPolyline
  3
AutoCAD 2000
 90
        0
280
     0
281
     1
  0
CLASS
  1
HATCH
  2
AcDbHatch
  3
AutoCAD 2000
 90
        0
280
     0
281
     1
  0
CLASS
  1
XRECORD
  2
AcDbXrecord
  3
AutoCAD 2000
 90
        0
280
     0
281
     0
  0
CLASS
  1
DICTIONARYVAR
  2
AcDbDictionaryVar
  3
AutoCAD 2000
 90
        0
280
     0
281
     0
  0
CLASS
  1
LONG_TRANSACTION
  2
AcDbLongTransaction
  3
AutoCAD 2000
 90
        0
280
     0
281
     0
  0
CLASS
  1
LWPOLYLINE
  2
AcDbPolyline
  3
AutoCAD 2000
 90
        0
280
     0
281
     1
  0
CLASS
  1
HATCH
  2
AcDbHatch
  3
AutoCAD 2000
 90
        0
280
     0
281
     1
  0
CLASS
  1
XRECORD
  2
AcDbXrecord
  3
AutoCAD 2000
 90
        0
280
     0
281
     0
  0
CLASS
  1
LONG_TRANSACTION
  2
AcDbLongTransaction
  3
AutoCAD 2000
 90
        0
280
     0
281
     0
  0
CLASS
  1
LWPOLYLINE
  2
AcDbPolyline
  3
AutoCAD 2000
 90
        0
280
     0
281
     1
  0
CLASS
  1
HATCH
  2
AcDbHatch
  3
AutoCAD 2000
 90
        0
280
     0
281
     1
  0
CLASS
  1
XRECORD
  2
AcDbXrecord
  3
AutoCAD 2000
 90
        0
280
     0
281
     0
  0
CLASS
  1
LONG_TRANSACTION
  2
AcDbLongTransaction
  3
AutoCAD 2000
 90
        0
280
     0
281
     0
  0
CLASS
  1
LWPOLYLINE
  2
AcDbPolyline
  3
AutoCAD 2000
 90
        0
280
     0
281
     1
  0
CLASS
  1
HATCH
  2
AcDbHatch
  3
AutoCAD 2000
 90
        0
280
     0
281
     1
  0
CLASS
  1
XRECORD
  2
AcDbXrecord
  3
AutoCAD 2000
 90
        0
280
     0
281
     0
  0
CLASS
  1
LONG_TRANSACTION
  2
AcDbLongTransaction
  3
AutoCAD 2000
 90
        0
280
     0
281
     0
  0
CLASS
  1
LWPOLYLINE
  2
AcDbPolyline
  3
AutoCAD 2000
 90
        0
280
     0
281
     1
  0
CLASS
  1
HATCH
  2
AcDbHatch
  3
AutoCAD 2000
 90
        0
280
     0
281
     1
  0
CLASS
  1
XRECORD
  2
AcDbXrecord
  3
AutoCAD 2000
 90
        0
280
     0
281
     0
  0
CLASS
  1
LONG_TRANSACTION
  2
AcDbLongTransaction
  3
AutoCAD 2000
 90
        0
280
     0
281
     0
  0
CLASS
  1
LWPOLYLINE
  2
AcDbPolyline
  3
AutoCAD 2000
 90
        0
280
     0
281
     1
  0
CLASS
  1
HATCH
  2
AcDbHatch
  3
AutoCAD 2000
 90
        0
280
     0
281
     1
  0
CLASS
  1
XRECORD
  2
AcDbXrecord
  3
AutoCAD 2000
 90
        0
280
     0
281
     0
  0
CLASS
  1
LONG_TRANSACTION
  2
AcDbLongTransaction
  3
AutoCAD 2000
 90
        0
280
     0
281
     0
  0
CLASS
  1
LWPOLYLINE
  2
AcDbPolyline
  3
AutoCAD 2000
 90
        0
280
     0
281
     1
  0
CLASS
  1
HATCH
  2
AcDbHatch
  3
AutoCAD 2000
 90
        0
280
     0
281
     1
  0
CLASS
  1
XRECORD
  2
AcDbXrecord
  3
AutoCAD 2000
 90
        0
280
     0
281
     0
  0
CLASS
  1
LONG_TRANSACTION
  2
AcDbLongTransaction
  3
AutoCAD 2000
 90
        0
280
     0
281
     0
  0
CLASS
  1
LWPOLYLINE
  2
AcDbPolyline
  3
AutoCAD 2000
 90
        0
280
     0
281
     1
  0
CLASS
  1
HATCH
  2
AcDbHatch
  3
AutoCAD 2000
 90
        0
280
     0
281
     1
  0
CLASS
  1
XRECORD
  2
AcDbXrecord
  3
AutoCAD 2000
 90
        0
280
     0
281
     0
  0
CLASS
  1
LONG_TRANSACTION
  2
AcDbLongTransaction
  3
AutoCAD 2000
 90
        0
280
     0
281
     0
  0
CLASS
  1
LWPOLYLINE
  2
AcDbPolyline
  3
AutoCAD 2000
 90
        0
280
     0
281
     1
  0
CLASS
  1
HATCH
  2
AcDbHatch
  3
AutoCAD 2000
 90
        0
280
     0
281
     1
  0
CLASS
  1
XRECORD
  2
AcDbXrecord
  3
AutoCAD 2000
 90
        0
280
     0
281
     0
  0
CLASS
  1
LONG_TRANSACTION
  2
AcDbLongTransaction
  3
AutoCAD 2000
 90
        0
280
     0
281
     0
  0
CLASS
  1
LWPOLYLINE
  2
AcDbPolyline
  3
AutoCAD 2000
 90
        0
280
     0
281
     1
  0
CLASS
  1
HATCH
  2
AcDbHatch
  3
AutoCAD 2000
 90
        0
280
     0
281
     1
  0
CLASS
  1
XRECORD
  2
AcDbXrecord
  3
AutoCAD 2000
 90
        0
280
     0
281
     0
  0
CLASS
  1
LONG_TRANSACTION
  2
AcDbLongTransaction
  3
AutoCAD 2000
 90
        0
280
     0
281
     0
  0
CLASS
  1
LWPOLYLINE
  2
AcDbPolyline
  3
AutoCAD 2000
 90
        0
280
     0
281
     1
  0
CLASS
  1
HATCH
  2
AcDbHatch
  3
AutoCAD 2000
 90
        0
280
     0
281
     1
  0
CLASS
  1
XRECORD
  2
AcDbXrecord
  3
AutoCAD 2000
 90
        0
280
     0
281
     0
  0
ENDSEC
  0
SECTION
  2
TABLES
  0
TABLE
  2
VPORT
  5
8
330
0
100
AcDbSymbolTable
 70
     2
  0
VPORT
  5
554A
330
8
100
AcDbSymbolTableRecord
100
AcDbViewportTableRecord
  2
*ACTIVE
 70
     0
 10
0.0
 20
0.0
 11
1.0
 21
1.0
 12
212.2788318171456
 22
166.2470787828678
 13
0.0
 23
0.0
 14
5.0
 24
5.0
 15
0.0
 25
0.0
 16
0.0
 26
0.0
 36
1.0
 17
0.0
 27
0.0
 37
0.0
 40
350.777963229673
 41
1.570153061224489
 42
50.0
 43
0.0
 44
0.0
 50
0.0
 51
0.0
 71
     0
 72
   100
 73
     1
 74
     0
 75
     0
 76
     0
 77
     0
 78
     0
  0
ENDTAB
  0
TABLE
  2
LTYPE
  5
5
330
0
100
AcDbSymbolTable
 70
     4
  0
LTYPE
  5
14
330
5
100
AcDbSymbolTableRecord
100
AcDbLinetypeTableRecord
  2
BYBLOCK
 70
     0
  3

 72
    65
 73
     0
 40
0.0
  0
LTYPE
  5
15
330
5
100
AcDbSymbolTableRecord
100
AcDbLinetypeTableRecord
  2
BYLAYER
 70
     0
  3

 72
    65
 73
     0
 40
0.0
  0
LTYPE
  5
16
330
5
100
AcDbSymbolTableRecord
100
AcDbLinetypeTableRecord
  2
CONTINUOUS
 70
     0
  3
Solid line
 72
    65
 73
     0
 40
0.0
  0
LTYPE
  5
120
330
5
100
AcDbSymbolTableRecord
100
AcDbLinetypeTableRecord
  2
CENTER
 70
     0
  3
____ _ ____ _ ____ _ ____ _ ____ _ ____ _ ____ 
 72
    65
 73
     4
 40
2.0
 49
1.25
 74
     0
 49
-0.25
 74
     0
 49
0.25
 74
     0
 49
-0.25
 74
     0
  0
LTYPE
  5
122
330
5
100
AcDbSymbolTableRecord
100
AcDbLinetypeTableRecord
  2
PHANTOM
 70
     0
  3
______  __  __  ______  __  __  ______  __  __ 
 72
    65
 73
     6
 40
2.5
 49
1.25
 74
     0
 49
-0.25
 74
     0
 49
0.25
 74
     0
 49
-0.25
 74
     0
 49
0.25
 74
     0
 49
-0.25
 74
     0
  0
LTYPE
  5
2BBB
330
5
100
AcDbSymbolTableRecord
100
AcDbLinetypeTableRecord
  2
DASHED
 70
     0
  3
__ __ __ __ __ __ __ __ __ __ __ __ __ __ __ __
 72
    65
 73
     2
 40
0.75
 49
0.5
 74
     0
 49
-0.25
 74
     0
  0
ENDTAB
  0
TABLE
  2
LAYER
  5
2
330
0
100
AcDbSymbolTable
 70
     9
  0
LAYER
  5
F
330
2
100
AcDbSymbolTableRecord
100
AcDbLayerTableRecord
  2
0
 70
     0
 62
     7
  6
CONTINUOUS
  0
LAYER
  5
62
330
2
100
AcDbSymbolTableRecord
100
AcDbLayerTableRecord
  2
VIEWPORT
 70
     0
 62
     7
  6
CONTINUOUS
  0
LAYER
  5
6B
330
2
100
AcDbSymbolTableRecord
100
AcDbLayerTableRecord
  2
ZUWAKU
 70
     0
 62
     7
  6
CONTINUOUS
  0
LAYER
  5
3EF
330
2
100
AcDbSymbolTableRecord
100
AcDbLayerTableRecord
  2
DEFPOINTS
 70
     0
 62
     7
  6
CONTINUOUS
  0
LAYER
  5
54D
330
2
100
AcDbSymbolTableRecord
100
AcDbLayerTableRecord
  2
SEIHIN
 70
     0
 62
     3
  6
CONTINUOUS
  0
LAYER
  5
54E
330
2
100
AcDbSymbolTableRecord
100
AcDbLayerTableRecord
  2
SUNPOU
 70
     0
 62
     4
  6
CONTINUOUS
  0
LAYER
  5
54F
330
2
100
AcDbSymbolTableRecord
100
AcDbLayerTableRecord
  2
CENTER_L
 70
     0
 62
     1
  6
CENTER
  0
LAYER
  5
550
330
2
100
AcDbSymbolTableRecord
100
AcDbLayerTableRecord
  2
NOKITOI
 70
     0
 62
     8
  6
PHANTOM
  0
LAYER
  5
2988
330
2
100
AcDbSymbolTableRecord
100
AcDbLayerTableRecord
  2
MOJI
 70
     0
 62
     2
  6
CONTINUOUS
  0
ENDTAB
  0
TABLE
  2
STYLE
  5
3
330
0
100
AcDbSymbolTable
 70
     2
  0
STYLE
  5
10
330
3
100
AcDbSymbolTableRecord
100
AcDbTextStyleTableRecord
  2
STANDARD
 70
     0
 40
0.0
 41
1.0
 50
0.0
 71
     0
 42
3.0
  3
TXT
  4
c:\PROGRAM FILES\AUTOCAD LT\ms\bigfont.shx
  0
STYLE
  5
2989
330
3
100
AcDbSymbolTableRecord
100
AcDbTextStyleTableRecord
  2
ｽﾀｲﾙ1
 70
     0
 40
0.0
 41
1.0
 50
0.0
 71
     0
 42
2.5
  3
MS PGothic.ttf
  4

1001
ACAD
1000
MS PGothic
1071
    32818
  0
ENDTAB
  0
TABLE
  2
VIEW
  5
6
330
0
100
AcDbSymbolTable
 70
     0
  0
ENDTAB
  0
TABLE
  2
UCS
  5
7
330
0
100
AcDbSymbolTable
 70
     0
  0
ENDTAB
  0
TABLE
  2
APPID
  5
9
330
0
100
AcDbSymbolTable
 70
     1
  0
APPID
  5
11
330
9
100
AcDbSymbolTableRecord
100
AcDbRegAppTableRecord
  2
ACAD
 70
     0
  0
ENDTAB
  0
TABLE
  2
DIMSTYLE
  5
A
330
0
100
AcDbSymbolTable
 70
     1
  0
DIMSTYLE
105
1D
102
{ACAD_REACTORS
330
5230
330
5231
330
5233
330
5234
330
5238
330
5239
330
5327
330
53B1
330
53C0
330
53C4
330
53C6
330
53C7
330
53C8
330
53D4
102
}
330
A
100
AcDbSymbolTableRecord
100
AcDbDimStyleTableRecord
  2
STANDARD
 70
     0
  3

  4

  5

  6

  7

 40
1.0
 41
0.18
 42
0.0625
 43
0.38
 44
0.18
 45
0.0
 46
0.0
 47
0.0
 48
0.0
140
0.18
141
0.09
142
0.0
143
25.4
144
1.0
145
0.0
146
1.0
147
0.09
 71
     0
 72
     0
 73
     1
 74
     1
 75
     0
 76
     0
 77
     0
 78
     0
170
     0
171
     2
172
     0
173
     0
174
     0
175
     0
176
     0
177
     0
178
     0
270
     2
271
     4
272
     4
273
     2
274
     2
340
10
275
     0
280
     0
281
     0
282
     0
283
     1
284
     0
285
     0
286
     0
287
     3
288
     0
  0
ENDTAB
  0
TABLE
  2
BLOCK_RECORD
  5
1
330
0
100
AcDbSymbolTable
 70
    15
  0
BLOCK_RECORD
  5
1A
102
{ACAD_XDICTIONARY
360
7A2
102
}
330
1
100
AcDbSymbolTableRecord
100
AcDbBlockTableRecord
  2
*MODEL_SPACE
  0
BLOCK_RECORD
  5
17
102
{ACAD_XDICTIONARY
360
7A0
102
}
330
1
100
AcDbSymbolTableRecord
100
AcDbBlockTableRecord
  2
*PAPER_SPACE
  0
BLOCK_RECORD
  5
B2
330
1
100
AcDbSymbolTableRecord
100
AcDbBlockTableRecord
  2
_OPEN
  0
BLOCK_RECORD
  5
5412
330
1
100
AcDbSymbolTableRecord
100
AcDbBlockTableRecord
  2
*D1
  0
BLOCK_RECORD
  5
541E
330
1
100
AcDbSymbolTableRecord
100
AcDbBlockTableRecord
  2
*D2
  0
BLOCK_RECORD
  5
542A
330
1
100
AcDbSymbolTableRecord
100
AcDbBlockTableRecord
  2
*D3
  0
BLOCK_RECORD
  5
5436
330
1
100
AcDbSymbolTableRecord
100
AcDbBlockTableRecord
  2
*D4
  0
BLOCK_RECORD
  5
5442
330
1
100
AcDbSymbolTableRecord
100
AcDbBlockTableRecord
  2
*D5
  0
BLOCK_RECORD
  5
544E
330
1
100
AcDbSymbolTableRecord
100
AcDbBlockTableRecord
  2
*D6
  0
BLOCK_RECORD
  5
545C
330
1
100
AcDbSymbolTableRecord
100
AcDbBlockTableRecord
  2
*D7
  0
BLOCK_RECORD
  5
5468
330
1
100
AcDbSymbolTableRecord
100
AcDbBlockTableRecord
  2
*D8
  0
BLOCK_RECORD
  5
5474
330
1
100
AcDbSymbolTableRecord
100
AcDbBlockTableRecord
  2
*D9
  0
BLOCK_RECORD
  5
5482
330
1
100
AcDbSymbolTableRecord
100
AcDbBlockTableRecord
  2
*D10
  0
BLOCK_RECORD
  5
548E
330
1
100
AcDbSymbolTableRecord
100
AcDbBlockTableRecord
  2
*D11
  0
BLOCK_RECORD
  5
549C
330
1
100
AcDbSymbolTableRecord
100
AcDbBlockTableRecord
  2
*D12
  0
BLOCK_RECORD
  5
54A8
330
1
100
AcDbSymbolTableRecord
100
AcDbBlockTableRecord
  2
*D13
  0
BLOCK_RECORD
  5
54B4
330
1
100
AcDbSymbolTableRecord
100
AcDbBlockTableRecord
  2
*D14
  0
ENDTAB
  0
ENDSEC
  0
SECTION
  2
BLOCKS
  0
BLOCK
  5
1B
330
1A
100
AcDbEntity
  8
0
100
AcDbBlockBegin
  2
*MODEL_SPACE
 70
     0
 10
0.0
 20
0.0
 30
0.0
  3
*MODEL_SPACE
  1

  0
ENDBLK
  5
1C
330
1A
100
AcDbEntity
  8
0
100
AcDbBlockEnd
  0
BLOCK
  5
18
330
17
100
AcDbEntity
 67
     1
  8
0
100
AcDbBlockBegin
  2
*PAPER_SPACE
 70
     0
 10
0.0
 20
0.0
 30
0.0
  3
*PAPER_SPACE
  1

  0
ENDBLK
  5
19
330
17
100
AcDbEntity
 67
     1
  8
0
100
AcDbBlockEnd
  0
BLOCK
  5
B3
330
B2
100
AcDbEntity
  8
0
100
AcDbBlockBegin
  2
_OPEN
 70
     0
 10
0.0
 20
0.0
 30
0.0
  3
_OPEN
  1

  0
LINE
  5
B4
330
B2
100
AcDbEntity
  8
0
  6
BYBLOCK
 62
     0
100
AcDbLine
 10
-1.0
 20
0.1666666666666666
 30
0.0
 11
0.0
 21
0.0
 31
0.0
  0
LINE
  5
B5
330
B2
100
AcDbEntity
  8
0
  6
BYBLOCK
 62
     0
100
AcDbLine
 10
0.0
 20
0.0
 30
0.0
 11
-1.0
 21
-0.1666666666666666
 31
0.0
  0
LINE
  5
B6
330
B2
100
AcDbEntity
  8
0
  6
BYBLOCK
 62
     0
100
AcDbLine
 10
0.0
 20
0.0
 30
0.0
 11
-1.0
 21
0.0
 31
0.0
  0
ENDBLK
  5
B7
330
B2
100
AcDbEntity
  8
0
100
AcDbBlockEnd
  0
BLOCK
  5
541C
330
5412
100
AcDbEntity
  8
0
100
AcDbBlockBegin
  2
*D1
 70
     1
 10
0.0
 20
0.0
 30
0.0
  3
*D1
  1

  0
LINE
  5
54C0
330
5412
100
AcDbEntity
  8
SUNPOU
100
AcDbLine
 10
218.6822973036405
 20
238.2055414017528
 30
0.0
 11
236.3899428665336
 21
238.2055414017528
 31
0.0
  0
LINE
  5
54C1
330
5412
100
AcDbEntity
  8
SUNPOU
100
AcDbLine
 10
218.6822973036405
 20
185.3391490229575
 30
0.0
 11
236.3899428665336
 21
185.3391490229575
 31
0.0
  0
LINE
  5
54C2
330
5412
100
AcDbEntity
  8
SUNPOU
100
AcDbLine
 10
234.8899428665336
 20
235.2055414017529
 30
0.0
 11
234.8899428665335
 21
188.3391490229575
 31
0.0
  0
INSERT
  5
54C3
330
5412
100
AcDbEntity
  8
SUNPOU
100
AcDbBlockReference
  2
_OPEN
 10
234.8899428665336
 20
238.2055414017528
 30
0.0
 41
3.0
 42
3.0
 43
3.0
 50
90.0
  0
INSERT
  5
54C4
330
5412
100
AcDbEntity
  8
SUNPOU
100
AcDbBlockReference
  2
_OPEN
 10
234.8899428665335
 20
185.3391490229575
 30
0.0
 41
3.0
 42
3.0
 43
3.0
 50
270.0
  0
MTEXT
  5
54C5
330
5412
100
AcDbEntity
  8
SUNPOU
100
AcDbMText
 10
232.3899428665335
 20
211.7723452123552
 30
0.0
 40
3.0
 41
0.0
 71
     5
 72
     1
  1
\A1;53
 11
0.0000000000000001
 21
1.0
 31
0.0
1001
ACAD
1000
MTEXTBEGIN
1070
    73
1070
     1
1070
    44
1040
1.0
1070
    74
1070
     0
1000
MTEXTEND
  0
POINT
  5
54C6
330
5412
100
AcDbEntity
  8
DEFPOINTS
 62
     0
100
AcDbPoint
 10
215.6822973036405
 20
238.2055414017528
 30
0.0
  0
POINT
  5
54C7
330
5412
100
AcDbEntity
  8
DEFPOINTS
 62
     0
100
AcDbPoint
 10
215.6822973036404
 20
185.3391490229575
 30
0.0
  0
POINT
  5
54C8
330
5412
100
AcDbEntity
  8
DEFPOINTS
 62
     0
100
AcDbPoint
 10
234.8899428665335
 20
185.3391490229575
 30
0.0
  0
ENDBLK
  5
541D
330
5412
100
AcDbEntity
  8
0
100
AcDbBlockEnd
  0
BLOCK
  5
5428
330
541E
100
AcDbEntity
  8
0
100
AcDbBlockBegin
  2
*D2
 70
     1
 10
0.0
 20
0.0
 30
0.0
  3
*D2
  1

  0
LINE
  5
54C9
330
541E
100
AcDbEntity
  8
SUNPOU
100
AcDbLine
 10
192.8598320669552
 20
126.1502115872871
 30
0.0
 11
192.8598320669552
 21
154.4847407963731
 31
0.0
  0
LINE
  5
54CA
330
541E
100
AcDbEntity
  8
SUNPOU
100
AcDbLine
 10
227.8598320519552
 20
126.1502115872871
 30
0.0
 11
227.8598320519552
 21
154.4847407963731
 31
0.0
  0
LINE
  5
54CB
330
541E
100
AcDbEntity
  8
SUNPOU
100
AcDbLine
 10
195.8598320669552
 20
152.984740796373
 30
0.0
 11
224.8598320519552
 21
152.984740796373
 31
0.0
  0
INSERT
  5
54CC
330
541E
100
AcDbEntity
  8
SUNPOU
100
AcDbBlockReference
  2
_OPEN
 10
192.8598320669552
 20
152.984740796373
 30
0.0
 41
3.0
 42
3.0
 43
3.0
 50
180.0
  0
INSERT
  5
54CD
330
541E
100
AcDbEntity
  8
SUNPOU
100
AcDbBlockReference
  2
_OPEN
 10
227.8598320519552
 20
152.984740796373
 30
0.0
 41
3.0
 42
3.0
 43
3.0
  0
MTEXT
  5
54CE
330
541E
100
AcDbEntity
  8
SUNPOU
100
AcDbMText
 10
210.3598320594552
 20
155.4847407963731
 30
0.0
 40
3.0
 41
0.0
 71
     5
 72
     1
  1
\A1;35
1001
ACAD
1000
MTEXTBEGIN
1070
    73
1070
     1
1070
    44
1040
1.0
1070
    74
1070
     0
1000
MTEXTEND
  0
POINT
  5
54CF
330
541E
100
AcDbEntity
  8
DEFPOINTS
 62
     0
100
AcDbPoint
 10
192.8598320669552
 20
123.1502115872871
 30
0.0
  0
POINT
  5
54D0
330
541E
100
AcDbEntity
  8
DEFPOINTS
 62
     0
100
AcDbPoint
 10
227.8598320519552
 20
123.1502115872871
 30
0.0
  0
POINT
  5
54D1
330
541E
100
AcDbEntity
  8
DEFPOINTS
 62
     0
100
AcDbPoint
 10
227.8598320519552
 20
152.984740796373
 30
0.0
  0
ENDBLK
  5
5429
330
541E
100
AcDbEntity
  8
0
100
AcDbBlockEnd
  0
BLOCK
  5
5434
330
542A
100
AcDbEntity
  8
0
100
AcDbBlockBegin
  2
*D3
 70
     1
 10
0.0
 20
0.0
 30
0.0
  3
*D3
  1

  0
LINE
  5
54D2
330
542A
100
AcDbEntity
  8
SUNPOU
100
AcDbLine
 10
200.7619203962594
 20
115.8110162762196
 30
0.0
 11
206.1228937737378
 21
119.0276003032276
 31
0.0
  0
LINE
  5
54D3
330
542A
100
AcDbEntity
  8
SUNPOU
100
AcDbLine
 10
219.2837675912594
 20
84.94127095621967
 30
0.0
 11
224.6447409687378
 21
88.15785498322767
 31
0.0
  0
LINE
  5
54D4
330
542A
100
AcDbEntity
  8
SUNPOU
100
AcDbLine
 10
206.3801416516906
 20
115.6833778929671
 30
0.0
 11
221.8150143137577
 21
89.95859012702181
 31
0.0
  0
INSERT
  5
54D5
330
542A
100
AcDbEntity
  8
SUNPOU
100
AcDbBlockReference
  2
_OPEN
 10
204.8366543852242
 20
118.2558566699944
 30
0.0
 41
3.0
 42
3.0
 43
3.0
 50
120.9637565361677
  0
INSERT
  5
54D6
330
542A
100
AcDbEntity
  8
SUNPOU
100
AcDbBlockReference
  2
_OPEN
 10
223.3585015802241
 20
87.38611134999448
 30
0.0
 41
3.0
 42
3.0
 43
3.0
 50
300.9637565361677
  0
MTEXT
  5
54D7
330
542A
100
AcDbEntity
  8
SUNPOU
100
AcDbMText
 10
216.2413102969136
 20
104.1072233987164
 30
0.0
 40
3.0
 41
0.0
 71
     5
 72
     1
  1
\A1;36
 11
0.5144957554888008
 21
-0.8574929256757796
 31
0.0
1001
ACAD
1000
MTEXTBEGIN
1070
    73
1070
     1
1070
    44
1040
1.0
1070
    74
1070
     0
1000
MTEXTEND
  0
POINT
  5
54D8
330
542A
100
AcDbEntity
  8
DEFPOINTS
 62
     0
100
AcDbPoint
 10
198.1894416192321
 20
114.2675290097532
 30
0.0
  0
POINT
  5
54D9
330
542A
100
AcDbEntity
  8
DEFPOINTS
 62
     0
100
AcDbPoint
 10
216.7112888142321
 20
83.39778368975329
 30
0.0
  0
POINT
  5
54DA
330
542A
100
AcDbEntity
  8
DEFPOINTS
 62
     0
100
AcDbPoint
 10
223.3585015802241
 20
87.38611134999448
 30
0.0
  0
ENDBLK
  5
5435
330
542A
100
AcDbEntity
  8
0
100
AcDbBlockEnd
  0
BLOCK
  5
5440
330
5436
100
AcDbEntity
  8
0
100
AcDbBlockBegin
  2
*D4
 70
     1
 10
0.0
 20
0.0
 30
0.0
  3
*D4
  1

  0
LINE
  5
54DB
330
5436
100
AcDbEntity
  8
SUNPOU
100
AcDbLine
 10
195.4323108438428
 20
124.6936988539864
 30
0.0
 11
205.9437947371954
 21
131.0005891923134
 31
0.0
  0
LINE
  5
54DC
330
5436
100
AcDbEntity
  8
SUNPOU
100
AcDbLine
 10
219.2837675911198
 20
84.94127095645252
 30
0.0
 11
229.7952514844724
 21
91.24816129477952
 31
0.0
  0
LINE
  5
54DD
330
5436
100
AcDbEntity
  8
SUNPOU
100
AcDbLine
 10
206.2010426154508
 20
127.6563667820761
 30
0.0
 11
226.9655248293293
 21
93.04889643831755
 31
0.0
  0
INSERT
  5
54DE
330
5436
100
AcDbEntity
  8
SUNPOU
100
AcDbBlockReference
  2
_OPEN
 10
204.6575553487516
 20
130.2288455589637
 30
0.0
 41
3.0
 42
3.0
 43
3.0
 50
120.9637565413536
  0
INSERT
  5
54DF
330
5436
100
AcDbEntity
  8
SUNPOU
100
AcDbBlockReference
  2
_OPEN
 10
228.5090120960286
 20
90.47641766142991
 30
0.0
 41
3.0
 42
3.0
 43
3.0
 50
300.9637565413536
  0
MTEXT
  5
54E0
330
5436
100
AcDbEntity
  8
SUNPOU
100
AcDbMText
 10
218.7270160364631
 20
111.6388709991128
 30
0.0
 40
3.0
 41
0.0
 71
     5
 72
     1
  1
\A1;46
 11
0.514495755566414
 21
-0.8574929256292119
 31
0.0
1001
ACAD
1000
MTEXTBEGIN
1070
    73
1070
     1
1070
    44
1040
1.0
1070
    74
1070
     0
1000
MTEXTEND
  0
POINT
  5
54E1
330
5436
100
AcDbEntity
  8
DEFPOINTS
 62
     0
100
AcDbPoint
 10
192.8598320669552
 20
123.1502115872871
 30
0.0
  0
POINT
  5
54E2
330
5436
100
AcDbEntity
  8
DEFPOINTS
 62
     0
100
AcDbPoint
 10
216.7112888142321
 20
83.39778368975329
 30
0.0
  0
POINT
  5
54E3
330
5436
100
AcDbEntity
  8
DEFPOINTS
 62
     0
100
AcDbPoint
 10
228.5090120960286
 20
90.47641766142991
 30
0.0
  0
ENDBLK
  5
5441
330
5436
100
AcDbEntity
  8
0
100
AcDbBlockEnd
  0
BLOCK
  5
544C
330
5442
100
AcDbEntity
  8
0
100
AcDbBlockBegin
  2
*D5
 70
     1
 10
0.0
 20
0.0
 30
0.0
  3
*D5
  1

  0
LINE
  5
54E4
330
5442
100
AcDbEntity
  8
SUNPOU
100
AcDbLine
 10
72.23259025423221
 20
89.37064911975324
 30
0.0
 11
72.23259025423221
 21
154.4847407963731
 31
0.0
  0
LINE
  5
54E5
330
5442
100
AcDbEntity
  8
SUNPOU
100
AcDbLine
 10
192.8598320669552
 20
126.1502115872871
 30
0.0
 11
192.8598320669552
 21
154.4847407963731
 31
0.0
  0
LINE
  5
54E6
330
5442
100
AcDbEntity
  8
SUNPOU
100
AcDbLine
 10
75.23259025423221
 20
152.984740796373
 30
0.0
 11
189.8598320669552
 21
152.984740796373
 31
0.0
  0
INSERT
  5
54E7
330
5442
100
AcDbEntity
  8
SUNPOU
100
AcDbBlockReference
  2
_OPEN
 10
72.23259025423221
 20
152.984740796373
 30
0.0
 41
3.0
 42
3.0
 43
3.0
 50
180.0
  0
INSERT
  5
54E8
330
5442
100
AcDbEntity
  8
SUNPOU
100
AcDbBlockReference
  2
_OPEN
 10
192.8598320669552
 20
152.984740796373
 30
0.0
 41
3.0
 42
3.0
 43
3.0
  0
MTEXT
  5
54E9
330
5442
100
AcDbEntity
  8
SUNPOU
100
AcDbMText
 10
132.5462111605937
 20
155.4847407963731
 30
0.0
 40
3.0
 41
0.0
 71
     5
 72
     1
  1
\A1;121
1001
ACAD
1000
MTEXTBEGIN
1070
    73
1070
     1
1070
    44
1040
1.0
1070
    74
1070
     0
1000
MTEXTEND
  0
POINT
  5
54EA
330
5442
100
AcDbEntity
  8
DEFPOINTS
 62
     0
100
AcDbPoint
 10
72.23259025423221
 20
86.37064911975324
 30
0.0
  0
POINT
  5
54EB
330
5442
100
AcDbEntity
  8
DEFPOINTS
 62
     0
100
AcDbPoint
 10
192.8598320669552
 20
123.1502115872871
 30
0.0
  0
POINT
  5
54EC
330
5442
100
AcDbEntity
  8
DEFPOINTS
 62
     0
100
AcDbPoint
 10
192.8598320669552
 20
152.984740796373
 30
0.0
  0
ENDBLK
  5
544D
330
5442
100
AcDbEntity
  8
0
100
AcDbBlockEnd
  0
BLOCK
  5
545A
330
544E
100
AcDbEntity
  8
0
100
AcDbBlockBegin
  2
*D6
 70
     1
 10
0.0
 20
0.0
 30
0.0
  3
*D6
  1

  0
LINE
  5
54ED
330
544E
100
AcDbEntity
  8
SUNPOU
100
AcDbLine
 10
70.4825902542322
 20
87.62064911975318
 30
0.0
 11
46.32968648241601
 21
87.62064911975318
 31
0.0
  0
LINE
  5
54EE
330
544E
100
AcDbEntity
  8
SUNPOU
100
AcDbLine
 10
213.7112888142321
 20
83.39778368975329
 30
0.0
 11
46.32968648241603
 21
83.39778368975332
 31
0.0
  0
LINE
  5
54EF
330
544E
100
AcDbEntity
  8
SUNPOU
100
AcDbLine
 10
47.82968648241602
 20
90.62064911975317
 30
0.0
 11
47.82968648241602
 21
93.62064911975318
 31
0.0
  0
LINE
  5
54F0
330
544E
100
AcDbEntity
  8
SUNPOU
100
AcDbLine
 10
47.82968648241602
 20
80.39778368975332
 30
0.0
 11
47.82968648241601
 21
77.39778368975333
 31
0.0
  0
LINE
  5
54F1
330
544E
100
AcDbEntity
  8
SUNPOU
100
AcDbLine
 10
47.82968648241602
 20
87.62064911975318
 30
0.0
 11
47.82968648241602
 21
83.39778368975332
 31
0.0
  0
INSERT
  5
54F2
330
544E
100
AcDbEntity
  8
SUNPOU
100
AcDbBlockReference
  2
_OPEN
 10
47.82968648241602
 20
87.62064911975318
 30
0.0
 41
3.0
 42
3.0
 43
3.0
 50
270.0
  0
INSERT
  5
54F3
330
544E
100
AcDbEntity
  8
SUNPOU
100
AcDbBlockReference
  2
_OPEN
 10
47.82968648241602
 20
83.39778368975332
 30
0.0
 41
3.0
 42
3.0
 43
3.0
 50
90.0
  0
MTEXT
  5
54F4
330
544E
100
AcDbEntity
  8
SUNPOU
100
AcDbMText
 10
45.329686482416
 20
85.50921640475326
 30
0.0
 40
3.0
 41
0.0
 71
     5
 72
     1
  1
\A1;4
 11
0.0000000000000001
 21
1.0
 31
0.0
1001
ACAD
1000
MTEXTBEGIN
1070
    73
1070
     1
1070
    44
1040
1.0
1070
    74
1070
     0
1000
MTEXTEND
  0
POINT
  5
54F5
330
544E
100
AcDbEntity
  8
DEFPOINTS
 62
     0
100
AcDbPoint
 10
73.48259025423221
 20
87.62064911975318
 30
0.0
  0
POINT
  5
54F6
330
544E
100
AcDbEntity
  8
DEFPOINTS
 62
     0
100
AcDbPoint
 10
216.7112888142321
 20
83.39778368975329
 30
0.0
  0
POINT
  5
54F7
330
544E
100
AcDbEntity
  8
DEFPOINTS
 62
     0
100
AcDbPoint
 10
47.82968648241602
 20
83.39778368975332
 30
0.0
  0
ENDBLK
  5
545B
330
544E
100
AcDbEntity
  8
0
100
AcDbBlockEnd
  0
BLOCK
  5
5466
330
545C
100
AcDbEntity
  8
0
100
AcDbBlockBegin
  2
*D7
 70
     1
 10
0.0
 20
0.0
 30
0.0
  3
*D7
  1

  0
LINE
  5
54F8
330
545C
100
AcDbEntity
  8
SUNPOU
100
AcDbLine
 10
69.2325902542322
 20
222.7723452323552
 30
0.0
 11
46.32968648241604
 21
222.7723452323553
 31
0.0
  0
LINE
  5
54F9
330
545C
100
AcDbEntity
  8
SUNPOU
100
AcDbLine
 10
69.2325902542322
 20
200.7723451923552
 30
0.0
 11
46.32968648241603
 21
200.7723451923552
 31
0.0
  0
LINE
  5
54FA
330
545C
100
AcDbEntity
  8
SUNPOU
100
AcDbLine
 10
47.82968648241604
 20
219.7723452323553
 30
0.0
 11
47.82968648241603
 21
203.7723451923552
 31
0.0
  0
INSERT
  5
54FB
330
545C
100
AcDbEntity
  8
SUNPOU
100
AcDbBlockReference
  2
_OPEN
 10
47.82968648241604
 20
222.7723452323553
 30
0.0
 41
3.0
 42
3.0
 43
3.0
 50
90.0
  0
INSERT
  5
54FC
330
545C
100
AcDbEntity
  8
SUNPOU
100
AcDbBlockReference
  2
_OPEN
 10
47.82968648241603
 20
200.7723451923552
 30
0.0
 41
3.0
 42
3.0
 43
3.0
 50
270.0
  0
MTEXT
  5
54FD
330
545C
100
AcDbEntity
  8
SUNPOU
100
AcDbMText
 10
45.32968648241601
 20
211.7723452123553
 30
0.0
 40
3.0
 41
0.0
 71
     5
 72
     1
  1
\A1;22
 11
0.0000000000000001
 21
1.0
 31
0.0
1001
ACAD
1000
MTEXTBEGIN
1070
    73
1070
     1
1070
    44
1040
1.0
1070
    74
1070
     0
1000
MTEXTEND
  0
POINT
  5
54FE
330
545C
100
AcDbEntity
  8
DEFPOINTS
 62
     0
100
AcDbPoint
 10
72.23259025423221
 20
222.7723452323552
 30
0.0
  0
POINT
  5
54FF
330
545C
100
AcDbEntity
  8
DEFPOINTS
 62
     0
100
AcDbPoint
 10
72.23259025423221
 20
200.7723451923552
 30
0.0
  0
POINT
  5
5500
330
545C
100
AcDbEntity
  8
DEFPOINTS
 62
     0
100
AcDbPoint
 10
47.82968648241603
 20
200.7723451923552
 30
0.0
  0
ENDBLK
  5
5467
330
545C
100
AcDbEntity
  8
0
100
AcDbBlockEnd
  0
BLOCK
  5
5472
330
5468
100
AcDbEntity
  8
0
100
AcDbBlockBegin
  2
*D8
 70
     1
 10
0.0
 20
0.0
 30
0.0
  3
*D8
  1

  0
LINE
  5
5501
330
5468
100
AcDbEntity
  8
SUNPOU
100
AcDbLine
 10
280.6266021419044
 20
163.7298253241834
 30
0.0
 11
262.6013531380681
 21
152.9146759243779
 31
0.0
  0
LINE
  5
5502
330
5468
100
AcDbEntity
  8
SUNPOU
100
AcDbLine
 10
299.1484493324199
 20
132.8600799995324
 30
0.0
 11
281.1232003285837
 21
122.0449305997269
 31
0.0
  0
LINE
  5
5503
330
5468
100
AcDbEntity
  8
SUNPOU
100
AcDbLine
 10
265.4310797927361
 20
151.1139407800934
 30
0.0
 11
280.8659524512105
 21
125.389153010032
 31
0.0
  0
INSERT
  5
5504
330
5468
100
AcDbEntity
  8
SUNPOU
100
AcDbBlockReference
  2
_OPEN
 10
263.8875925267155
 20
153.6864195573882
 30
0.0
 41
3.0
 42
3.0
 43
3.0
 50
120.9637565262392
  0
INSERT
  5
5505
330
5468
100
AcDbEntity
  8
SUNPOU
100
AcDbBlockReference
  2
_OPEN
 10
282.4094397172311
 20
122.8166742327372
 30
0.0
 41
3.0
 42
3.0
 43
3.0
 50
300.9637565262392
  0
MTEXT
  5
5506
330
5468
100
AcDbEntity
  8
SUNPOU
100
AcDbMText
 10
275.2922484363856
 20
139.5377862834132
 30
0.0
 40
3.0
 41
0.0
 71
     5
 72
     1
  1
\A1;36
 11
0.5144957553402099
 21
-0.8574929257649344
 31
0.0
1001
ACAD
1000
MTEXTBEGIN
1070
    73
1070
     1
1070
    44
1040
1.0
1070
    74
1070
     0
1000
MTEXTEND
  0
POINT
  5
5507
330
5468
100
AcDbEntity
  8
DEFPOINTS
 62
     0
100
AcDbPoint
 10
283.1990809191992
 20
165.2733125902041
 30
0.0
  0
POINT
  5
5508
330
5468
100
AcDbEntity
  8
DEFPOINTS
 62
     0
100
AcDbPoint
 10
301.7209281097148
 20
134.403567265553
 30
0.0
  0
POINT
  5
5509
330
5468
100
AcDbEntity
  8
DEFPOINTS
 62
     0
100
AcDbPoint
 10
282.4094397172311
 20
122.8166742327372
 30
0.0
  0
ENDBLK
  5
5473
330
5468
100
AcDbEntity
  8
0
100
AcDbBlockEnd
  0
BLOCK
  5
5480
330
5474
100
AcDbEntity
  8
0
100
AcDbBlockBegin
  2
*D9
 70
     1
 10
0.0
 20
0.0
 30
0.0
  3
*D9
  1

  0
LINE
  5
550A
330
5474
100
AcDbEntity
  8
SUNPOU
100
AcDbLine
 10
296.3187226785724
 20
137.5762910903669
 30
0.0
 11
286.125986172024
 21
131.4606491878494
 31
0.0
  0
LINE
  5
550B
330
5474
100
AcDbEntity
  8
SUNPOU
100
AcDbLine
 10
299.1484493324199
 20
132.8600799995324
 30
0.0
 11
288.9557128258715
 21
126.7444380970149
 31
0.0
  0
LINE
  5
550C
330
5474
100
AcDbEntity
  8
SUNPOU
100
AcDbLine
 10
285.8687382946507
 20
134.8048715981545
 30
0.0
 11
284.3252510286301
 21
137.3773503754494
 31
0.0
  0
LINE
  5
550D
330
5474
100
AcDbEntity
  8
SUNPOU
100
AcDbLine
 10
291.7854394805394
 20
124.9437029527304
 30
0.0
 11
293.3289267465601
 21
122.3712241754356
 31
0.0
  0
LINE
  5
550E
330
5474
100
AcDbEntity
  8
SUNPOU
100
AcDbLine
 10
287.4122255606713
 20
132.2323928208597
 30
0.0
 11
290.2419522145189
 21
127.5161817300253
 31
0.0
  0
INSERT
  5
550F
330
5474
100
AcDbEntity
  8
SUNPOU
100
AcDbBlockReference
  2
_OPEN
 10
287.4122255606713
 20
132.2323928208597
 30
0.0
 41
3.0
 42
3.0
 43
3.0
 50
300.9637565262388
  0
INSERT
  5
5510
330
5474
100
AcDbEntity
  8
SUNPOU
100
AcDbBlockReference
  2
_OPEN
 10
290.2419522145189
 20
127.5161817300253
 30
0.0
 41
3.0
 42
3.0
 43
3.0
 50
120.9637565262388
  0
MTEXT
  5
5511
330
5474
100
AcDbEntity
  8
SUNPOU
100
AcDbMText
 10
290.9708212020075
 20
131.160526663793
 30
0.0
 40
3.0
 41
0.0
 71
     5
 72
     1
  1
\A1;6
 11
0.5144957553402041
 21
-0.8574929257649376
 31
0.0
1001
ACAD
1000
MTEXTBEGIN
1070
    73
1070
     1
1070
    44
1040
1.0
1070
    74
1070
     0
1000
MTEXTEND
  0
POINT
  5
5512
330
5474
100
AcDbEntity
  8
DEFPOINTS
 62
     0
100
AcDbPoint
 10
298.8912014558673
 20
139.1197783563875
 30
0.0
  0
POINT
  5
5513
330
5474
100
AcDbEntity
  8
DEFPOINTS
 62
     0
100
AcDbPoint
 10
301.7209281097148
 20
134.403567265553
 30
0.0
  0
POINT
  5
5514
330
5474
100
AcDbEntity
  8
DEFPOINTS
 62
     0
100
AcDbPoint
 10
290.2419522145189
 20
127.5161817300253
 30
0.0
  0
ENDBLK
  5
5481
330
5474
100
AcDbEntity
  8
0
100
AcDbBlockEnd
  0
BLOCK
  5
548C
330
5482
100
AcDbEntity
  8
0
100
AcDbBlockBegin
  2
*D10
 70
     1
 10
0.0
 20
0.0
 30
0.0
  3
*D10
  1

  0
LINE
  5
5515
330
5482
100
AcDbEntity
  8
SUNPOU
100
AcDbLine
 10
281.6555936526717
 20
167.8457913671948
 30
0.0
 11
257.7927620388785
 21
207.6171773816038
 31
0.0
  0
LINE
  5
5516
330
5482
100
AcDbEntity
  8
SUNPOU
100
AcDbLine
 10
327.102718744663
 20
195.1140664282719
 30
0.0
 11
303.2398871308698
 21
234.8854524426809
 31
0.0
  0
LINE
  5
5517
330
5482
100
AcDbEntity
  8
SUNPOU
100
AcDbLine
 10
261.136984449133
 20
207.8744252596358
 30
0.0
 11
301.4391519871427
 21
232.0557257876581
 31
0.0
  0
INSERT
  5
5518
330
5482
100
AcDbEntity
  8
SUNPOU
100
AcDbBlockReference
  2
_OPEN
 10
258.5645056721422
 20
206.3309379931084
 30
0.0
 41
3.0
 42
3.0
 43
3.0
 50
210.9637565375264
  0
INSERT
  5
5519
330
5482
100
AcDbEntity
  8
SUNPOU
100
AcDbBlockReference
  2
_OPEN
 10
304.0116307641335
 20
233.5992130541856
 30
0.0
 41
3.0
 42
3.0
 43
3.0
 50
30.96375653752649
  0
MTEXT
  5
551A
330
5482
100
AcDbEntity
  8
SUNPOU
100
AcDbMText
 10
280.001828829365
 20
222.1088078378059
 30
0.0
 40
3.0
 41
0.0
 71
     5
 72
     1
  1
\A1;53
 11
0.8574929256635785
 21
0.514495755509136
 31
0.0
1001
ACAD
1000
MTEXTBEGIN
1070
    73
1070
     1
1070
    44
1040
1.0
1070
    74
1070
     0
1000
MTEXTEND
  0
POINT
  5
551B
330
5482
100
AcDbEntity
  8
DEFPOINTS
 62
     0
100
AcDbPoint
 10
283.1990809191991
 20
165.273312590204
 30
0.0
  0
POINT
  5
551C
330
5482
100
AcDbEntity
  8
DEFPOINTS
 62
     0
100
AcDbPoint
 10
328.6462060111904
 20
192.5415876512812
 30
0.0
  0
POINT
  5
551D
330
5482
100
AcDbEntity
  8
DEFPOINTS
 62
     0
100
AcDbPoint
 10
304.0116307641335
 20
233.5992130541856
 30
0.0
  0
ENDBLK
  5
548D
330
5482
100
AcDbEntity
  8
0
100
AcDbBlockEnd
  0
BLOCK
  5
549A
330
548E
100
AcDbEntity
  8
0
100
AcDbBlockBegin
  2
*D11
 70
     1
 10
0.0
 20
0.0
 30
0.0
  3
*D11
  1

  0
LINE
  5
551E
330
548E
100
AcDbEntity
  8
SUNPOU
100
AcDbLine
 10
280.6266021419044
 20
163.7298253241834
 30
0.0
 11
270.4942138225063
 21
157.6503923339477
 31
0.0
  0
LINE
  5
551F
330
548E
100
AcDbEntity
  8
SUNPOU
100
AcDbLine
 10
283.4563287960495
 20
159.013614232853
 30
0.0
 11
273.3239404766514
 21
152.9341812426173
 31
0.0
  0
LINE
  5
5520
330
548E
100
AcDbEntity
  8
SUNPOU
100
AcDbLine
 10
270.236965945133
 20
160.9946147442528
 30
0.0
 11
268.6934786791124
 21
163.5670935215476
 31
0.0
  0
LINE
  5
5521
330
548E
100
AcDbEntity
  8
SUNPOU
100
AcDbLine
 10
276.1536671313194
 20
151.1334460983328
 30
0.0
 11
277.6971543973401
 21
148.560967321038
 31
0.0
  0
LINE
  5
5522
330
548E
100
AcDbEntity
  8
SUNPOU
100
AcDbLine
 10
271.7804532111537
 20
158.422135966958
 30
0.0
 11
274.6101798652988
 21
153.7059248756276
 31
0.0
  0
INSERT
  5
5523
330
548E
100
AcDbEntity
  8
SUNPOU
100
AcDbBlockReference
  2
_OPEN
 10
271.7804532111537
 20
158.422135966958
 30
0.0
 41
3.0
 42
3.0
 43
3.0
 50
300.9637565262393
  0
INSERT
  5
5524
330
548E
100
AcDbEntity
  8
SUNPOU
100
AcDbBlockReference
  2
_OPEN
 10
274.6101798652988
 20
153.7059248756276
 30
0.0
 41
3.0
 42
3.0
 43
3.0
 50
120.9637565262393
  0
MTEXT
  5
5525
330
548E
100
AcDbEntity
  8
SUNPOU
100
AcDbMText
 10
275.3390488526386
 20
157.3502698096433
 30
0.0
 40
3.0
 41
0.0
 71
     5
 72
     1
  1
\A1;6
 11
0.5144957553402114
 21
-0.8574929257649333
 31
0.0
1001
ACAD
1000
MTEXTBEGIN
1070
    73
1070
     1
1070
    44
1040
1.0
1070
    74
1070
     0
1000
MTEXTEND
  0
POINT
  5
5526
330
548E
100
AcDbEntity
  8
DEFPOINTS
 62
     0
100
AcDbPoint
 10
283.1990809191992
 20
165.273312590204
 30
0.0
  0
POINT
  5
5527
330
548E
100
AcDbEntity
  8
DEFPOINTS
 62
     0
100
AcDbPoint
 10
286.0288075733442
 20
160.5571014988736
 30
0.0
  0
POINT
  5
5528
330
548E
100
AcDbEntity
  8
DEFPOINTS
 62
     0
100
AcDbPoint
 10
274.6101798652988
 20
153.7059248756276
 30
0.0
  0
ENDBLK
  5
549B
330
548E
100
AcDbEntity
  8
0
100
AcDbBlockEnd
  0
BLOCK
  5
54A6
330
549C
100
AcDbEntity
  8
0
100
AcDbBlockBegin
  2
*D12
 70
     1
 10
0.0
 20
0.0
 30
0.0
  3
*D12
  1

  0
LINE
  5
5529
330
549C
100
AcDbEntity
  8
SUNPOU
100
AcDbLine
 10
291.6453862286266
 20
164.8016914855893
 30
0.0
 11
272.5613473694731
 21
196.6084228794681
 31
0.0
  0
LINE
  5
552A
330
549C
100
AcDbEntity
  8
SUNPOU
100
AcDbLine
 10
325.0876102886266
 20
184.8670259455893
 30
0.0
 11
306.003571429473
 21
216.6737573394681
 31
0.0
  0
LINE
  5
552B
330
549C
100
AcDbEntity
  8
SUNPOU
100
AcDbLine
 10
275.9055697796162
 20
196.8656707589466
 30
0.0
 11
304.2028362869698
 21
213.8440306836665
 31
0.0
  0
INSERT
  5
552C
330
549C
100
AcDbEntity
  8
SUNPOU
100
AcDbBlockReference
  2
_OPEN
 10
273.333091003293
 20
195.3221834913065
 30
0.0
 41
3.0
 42
3.0
 43
3.0
 50
210.9637565623077
  0
INSERT
  5
552D
330
549C
100
AcDbEntity
  8
SUNPOU
100
AcDbBlockReference
  2
_OPEN
 10
306.775315063293
 20
215.3875179513065
 30
0.0
 41
3.0
 42
3.0
 43
3.0
 50
30.96375656230778
  0
MTEXT
  5
552E
330
549C
100
AcDbEntity
  8
SUNPOU
100
AcDbMText
 10
288.767963643593
 20
207.4985830349092
 30
0.0
 40
3.0
 41
0.0
 71
     5
 72
     1
  1
\A1;39
 11
0.8574929254410513
 21
0.5144957558800148
 31
0.0
1001
ACAD
1000
MTEXTBEGIN
1070
    73
1070
     1
1070
    44
1040
1.0
1070
    74
1070
     0
1000
MTEXTEND
  0
POINT
  5
552F
330
549C
100
AcDbEntity
  8
DEFPOINTS
 62
     0
100
AcDbPoint
 10
293.1888734962667
 20
162.2292127092661
 30
0.0
  0
POINT
  5
5530
330
549C
100
AcDbEntity
  8
DEFPOINTS
 62
     0
100
AcDbPoint
 10
326.6310975562666
 20
182.2945471692661
 30
0.0
  0
POINT
  5
5531
330
549C
100
AcDbEntity
  8
DEFPOINTS
 62
     0
100
AcDbPoint
 10
306.775315063293
 20
215.3875179513065
 30
0.0
  0
ENDBLK
  5
54A7
330
549C
100
AcDbEntity
  8
0
100
AcDbBlockEnd
  0
BLOCK
  5
54B2
330
54A8
100
AcDbEntity
  8
0
100
AcDbBlockBegin
  2
*D13
 70
     1
 10
0.0
 20
0.0
 30
0.0
  3
*D13
  1

  0
LINE
  5
5532
330
54A8
100
AcDbEntity
  8
SUNPOU
100
AcDbLine
 10
286.5776030407681
 20
170.3325208472502
 30
0.0
 11
266.8729426618209
 21
203.1736214666707
 31
0.0
  0
LINE
  5
5533
330
54A8
100
AcDbEntity
  8
SUNPOU
100
AcDbLine
 10
322.5923059107681
 20
191.9413425772502
 30
0.0
 11
302.8876455318208
 21
224.7824431966706
 31
0.0
  0
LINE
  5
5534
330
54A8
100
AcDbEntity
  8
SUNPOU
100
AcDbLine
 10
270.2171650720578
 20
203.4308693449306
 30
0.0
 11
301.0869103882867
 21
221.9527165415251
 31
0.0
  0
INSERT
  5
5535
330
54A8
100
AcDbEntity
  8
SUNPOU
100
AcDbBlockReference
  2
_OPEN
 10
267.6446862951722
 20
201.8873820782279
 30
0.0
 41
3.0
 42
3.0
 43
3.0
 50
210.9637565414316
  0
INSERT
  5
5536
330
54A8
100
AcDbEntity
  8
SUNPOU
100
AcDbBlockReference
  2
_OPEN
 10
303.6593891651722
 20
223.4962038082279
 30
0.0
 41
3.0
 42
3.0
 43
3.0
 50
30.96375654143173
  0
MTEXT
  5
5537
330
54A8
100
AcDbEntity
  8
SUNPOU
100
AcDbMText
 10
284.3657983412533
 20
214.8355252572991
 30
0.0
 40
3.0
 41
0.0
 71
     5
 72
     1
  1
\A1;42
 11
0.8574929256285107
 21
0.5144957555675824
 31
0.0
1001
ACAD
1000
MTEXTBEGIN
1070
    73
1070
     1
1070
    44
1040
1.0
1070
    74
1070
     0
1000
MTEXTEND
  0
POINT
  5
5538
330
54A8
100
AcDbEntity
  8
DEFPOINTS
 62
     0
100
AcDbPoint
 10
288.1210903074709
 20
167.7600420703647
 30
0.0
  0
POINT
  5
5539
330
54A8
100
AcDbEntity
  8
DEFPOINTS
 62
     0
100
AcDbPoint
 10
324.1357931774708
 20
189.3688638003647
 30
0.0
  0
POINT
  5
553A
330
54A8
100
AcDbEntity
  8
DEFPOINTS
 62
     0
100
AcDbPoint
 10
303.6593891651722
 20
223.4962038082279
 30
0.0
  0
ENDBLK
  5
54B3
330
54A8
100
AcDbEntity
  8
0
100
AcDbBlockEnd
  0
BLOCK
  5
54BE
330
54B4
100
AcDbEntity
  8
0
100
AcDbBlockBegin
  2
*D14
 70
     1
 10
0.0
 20
0.0
 30
0.0
  3
*D14
  1

  0
LINE
  5
553B
330
54B4
100
AcDbEntity
  8
SUNPOU
100
AcDbLine
 10
331.2186847915541
 20
194.0850749121869
 30
0.0
 11
341.5818208295945
 21
200.302956505553
 31
0.0
  0
LINE
  5
553C
330
54B4
100
AcDbEntity
  8
SUNPOU
100
AcDbLine
 10
338.4216253325729
 20
182.0801739536139
 30
0.0
 11
348.7847613706133
 21
188.29805554698
 31
0.0
  0
LINE
  5
553D
330
54B4
100
AcDbEntity
  8
SUNPOU
100
AcDbLine
 10
341.8390687003184
 20
196.9587340947364
 30
0.0
 11
345.9550347195257
 21
190.0987906968908
 31
0.0
  0
INSERT
  5
553E
330
54B4
100
AcDbEntity
  8
SUNPOU
100
AcDbBlockReference
  2
_OPEN
 10
340.2955814394126
 20
199.5312128751001
 30
0.0
 41
3.0
 42
3.0
 43
3.0
 50
120.9637564123172
  0
INSERT
  5
553F
330
54B4
100
AcDbEntity
  8
SUNPOU
100
AcDbBlockReference
  2
_OPEN
 10
347.4985219804314
 20
187.5263119165271
 30
0.0
 41
3.0
 42
3.0
 43
3.0
 50
300.9637564123172
  0
MTEXT
  5
5540
330
54B4
100
AcDbEntity
  8
SUNPOU
100
AcDbMText
 10
346.0407840268918
 20
194.8150017799017
 30
0.0
 40
3.0
 41
0.0
 71
     5
 72
     1
  1
\A1;14
 11
0.5144957536352454
 21
-0.8574929267879129
 31
0.0
1001
ACAD
1000
MTEXTBEGIN
1070
    73
1070
     1
1070
    44
1040
1.0
1070
    74
1070
     0
1000
MTEXTEND
  0
POINT
  5
5541
330
54B4
100
AcDbEntity
  8
DEFPOINTS
 62
     0
100
AcDbPoint
 10
328.6462060111904
 20
192.5415876512812
 30
0.0
  0
POINT
  5
5542
330
54B4
100
AcDbEntity
  8
DEFPOINTS
 62
     0
100
AcDbPoint
 10
335.8491465522092
 20
180.5366866927082
 30
0.0
  0
POINT
  5
5543
330
54B4
100
AcDbEntity
  8
DEFPOINTS
 62
     0
100
AcDbPoint
 10
347.4985219804314
 20
187.5263119165271
 30
0.0
  0
ENDBLK
  5
54BF
330
54B4
100
AcDbEntity
  8
0
100
AcDbBlockEnd
  0
ENDSEC
  0
SECTION
  2
ENTITIES
  0
LWPOLYLINE
  5
2A43
330
1A
100
AcDbEntity
  8
ZUWAKU
100
AcDbPolyline
 90
        4
 70
     1
 43
0.0
 10
0.3999996775634145
 20
275.4000000308041
 10
0.3999996775634145
 20
0.4000000308041649
 10
398.3999996775634
 20
0.4000000308041649
 10
398.3999996775634
 20
275.4000000308041
  0
LWPOLYLINE
  5
2A44
330
1A
100
AcDbEntity
  8
ZUWAKU
100
AcDbPolyline
 90
        4
 70
     1
 43
0.0
 10
0.1999996775634258
 20
275.6000000308041
 10
0.1999996775634258
 20
0.2000000308041763
 10
398.5999996775634
 20
0.2000000308041647
 10
398.5999996775634
 20
275.6000000308041
  0
LWPOLYLINE
  5
2A45
330
1A
100
AcDbEntity
  8
ZUWAKU
100
AcDbPolyline
 90
        4
 70
     1
 43
0.0
 10
-0.0000003224365628
 20
275.8000000308041
 10
-0.0000003224365628
 20
0.0000000308041308
 10
398.7999996775635
 20
0.0000000308041646
 10
398.7999996775635
 20
275.8000000308042
  0
LWPOLYLINE
  5
2A46
330
1A
100
AcDbEntity
  8
ZUWAKU
100
AcDbPolyline
 90
        4
 70
     1
 43
0.0
 10
0.2999996775633917
 20
275.5000000308041
 10
0.2999996775633917
 20
0.3000000308041422
 10
398.4999996775635
 20
0.3000000308041653
 10
398.4999996775634
 20
275.5000000308041
  0
LWPOLYLINE
  5
2A47
330
1A
100
AcDbEntity
  8
ZUWAKU
100
AcDbPolyline
 90
        4
 70
     1
 43
0.0
 10
0.0999996775634031
 20
275.7000000308041
 10
0.0999996775634031
 20
0.1000000308041535
 10
398.6999996775633
 20
0.1000000308041651
 10
398.6999996775634
 20
275.7000000308041
  0
LINE
  5
2A48
330
1A
100
AcDbEntity
  8
ZUWAKU
100
AcDbLine
 10
-0.0000003224365628
 20
15.00000003080413
 30
0.0
 11
398.6999996775633
 21
15.00000003080413
 31
0.0
  0
LINE
  5
2A49
330
1A
100
AcDbEntity
  8
ZUWAKU
100
AcDbLine
 10
-0.0000003224365628
 20
15.10000003080413
 30
0.0
 11
398.6999996775633
 21
15.10000003080413
 31
0.0
  0
LINE
  5
2A4A
330
1A
100
AcDbEntity
  8
ZUWAKU
100
AcDbLine
 10
-0.0000003224365628
 20
15.20000003080413
 30
0.0
 11
398.6999996775633
 21
15.20000003080413
 31
0.0
  0
LINE
  5
2A4B
330
1A
100
AcDbEntity
  8
ZUWAKU
100
AcDbLine
 10
-0.0000003224365628
 20
15.30000003080413
 30
0.0
 11
398.6999996775633
 21
15.30000003080413
 31
0.0
  0
LINE
  5
2A4C
330
1A
100
AcDbEntity
  8
ZUWAKU
100
AcDbLine
 10
-0.0000003224365628
 20
15.40000003080413
 30
0.0
 11
398.6999996775633
 21
15.40000003080413
 31
0.0
  0
LINE
  5
2A4D
330
1A
100
AcDbEntity
  8
ZUWAKU
100
AcDbLine
 10
104.3233003225974
 20
7.700000030804147
 30
0.0
 11
223.7121816630591
 21
7.700000030804147
 31
0.0
  0
LINE
  5
2A4E
330
1A
100
AcDbEntity
  8
ZUWAKU
100
AcDbLine
 10
104.3233003225974
 20
7.800000030804147
 30
0.0
 11
223.7121816630591
 21
7.800000030804151
 31
0.0
  0
LINE
  5
2A4F
330
1A
100
AcDbEntity
  8
ZUWAKU
100
AcDbLine
 10
104.3233003225974
 20
7.600000030804149
 30
0.0
 11
223.7121816630591
 21
7.600000030804146
 31
0.0
  0
TEXT
  5
2A50
330
1A
100
AcDbEntity
  8
MOJI
100
AcDbText
 10
46.478894471648
 20
6.370589095941511
 30
0.0
 40
3.0
  1
ライナートップ
 41
0.9
  7
ｽﾀｲﾙ1
100
AcDbText
  0
CIRCLE
  5
2A51
330
1A
100
AcDbEntity
  8
ZUWAKU
100
AcDbCircle
 10
12.99610575495398
 20
7.600000030804132
 30
0.0
 40
0.875
  0
LINE
  5
2A52
330
1A
100
AcDbEntity
  8
ZUWAKU
100
AcDbLine
 10
13.43360575495398
 20
3.575000030804133
 30
0.0
 11
12.47110575495401
 21
3.575000030804133
 31
0.0
  0
LINE
  5
2A53
330
1A
100
AcDbEntity
  8
ZUWAKU
100
AcDbLine
 10
12.47110575495401
 20
4.975000030804132
 30
0.0
 11
13.43360575495398
 21
4.975000030804132
 31
0.0
  0
LINE
  5
2A54
330
1A
100
AcDbEntity
  8
ZUWAKU
100
AcDbLine
 10
13.43360575495398
 20
10.22500003080413
 30
0.0
 11
12.47110575495401
 21
10.22500003080413
 31
0.0
  0
LINE
  5
2A55
330
1A
100
AcDbEntity
  8
ZUWAKU
100
AcDbLine
 10
12.47110575495401
 20
11.62500003080411
 30
0.0
 11
13.43360575495398
 21
11.62500003080413
 31
0.0
  0
HATCH
  5
2A56
330
1A
100
AcDbEntity
  8
ZUWAKU
100
AcDbHatch
 10
0.0
 20
0.0
 30
0.0
210
0.0
220
0.0
230
1.0
  2
ANSI37
 70
     0
 71
     0
 91
        8
 92
        7
 72
     1
 73
     1
 93
       24
 10
7.251131008123365
 20
8.822424271295922
 42
-0.1989123673796348
 10
7.046105754953998
 20
9.317399018126447
 42
0.0
 10
7.046105754953998
 20
9.962500030804136
 42
-0.4142135623730912
 10
7.308605754953987
 20
10.22500003080413
 42
0.0
 10
8.796105754953941
 20
10.22500003080413
 42
0.4142135623731546
 10
9.058605754953987
 20
10.48750003080412
 42
0.0
 10
9.058605754953987
 20
11.36250003080413
 42
0.4142135623731586
 10
8.796105754953941
 20
11.62500003080413
 42
0.0
 10
7.046105754953998
 20
11.62500003080413
 42
0.4142135623730928
 10
5.646105754954021
 20
10.22500003080414
 42
0.0
 10
5.646105754954021
 20
9.317399018126511
 42
0.1989123673796619
 10
6.261181514462236
 20
7.832474777634708
 42
0.0
 10
7.716080501784574
 20
6.377575790312379
 42
-0.1989123673796613
 10
7.921105754953998
 20
5.882601043481786
 42
0.0
 10
7.921105754953998
 20
5.237500030804127
 42
-0.4142135623730911
 10
7.65860575495401
 20
4.975000030804132
 42
0.0
 10
6.171105754954055
 20
4.975000030804132
 42
0.4142135623731526
 10
5.90860575495401
 20
4.712500030804138
 42
0.0
 10
5.90860575495401
 20
3.837500030804127
 42
0.4142135623731526
 10
6.171105754954055
 20
3.575000030804133
 42
0.0
 10
7.921105754953998
 20
3.575000030804133
 42
0.4142135623731044
 10
9.321105754954032
 20
4.975000030804121
 42
0.0
 10
9.321105754954032
 20
5.882601043481757
 42
0.1989123673796604
 10
8.70602999544576
 20
7.367525283973527
 42
0.0
 97
        0
 92
        7
 72
     1
 73
     1
 93
       16
 10
11.77110575495402
 20
9.525000030804136
 42
-0.4142135623730935
 10
12.47110575495401
 20
10.22500003080413
 42
0.0
 10
13.43360575495398
 20
10.22500003080413
 42
0.4142135623731546
 10
13.69610575495403
 20
10.48750003080412
 42
0.0
 10
13.69610575495403
 20
11.36250003080413
 42
0.4142135623730951
 10
13.43360575495404
 20
11.62500003080413
 42
0.0
 10
12.47110575495395
 20
11.62500003080411
 42
0.4142135623730892
 10
10.37110575495398
 20
9.5250000308041
 42
0.0
 10
10.37110575495398
 20
5.675000030804145
 42
0.4142135623730969
 10
12.47110575495401
 20
3.575000030804133
 42
0.0
 10
13.43360575495398
 20
3.575000030804133
 42
0.4142135623731526
 10
13.69610575495403
 20
3.837500030804127
 42
0.0
 10
13.69610575495403
 20
4.712500030804138
 42
0.4142135623730891
 10
13.43360575495404
 20
4.975000030804132
 42
0.0
 10
12.47110575495401
 20
4.975000030804132
 42
-0.4142135623730928
 10
11.77110575495402
 20
5.675000030804126
 42
0.0
 97
        0
 92
        7
 72
     1
 73
     1
 93
        2
 10
12.12110575495398
 20
7.600000030804132
 42
1.0
 10
13.87110575495398
 20
7.600000030804132
 42
1.0
 97
        0
 92
        7
 72
     1
 73
     1
 93
       26
 10
18.65742899604299
 20
9.602523627585846
 42
0.0
 10
19.1882488126119
 20
11.28345304672064
 42
0.5069206636600134
 10
18.93793336301422
 20
11.62500003080413
 42
0.0
 10
18.08848867320961
 20
11.62500003080413
 42
0.3272098845218764
 10
17.83817322361193
 20
11.44154701488761
 42
0.0
 10
16.90403828629604
 20
8.483453046720672
 42
-0.3272098845219541
 10
16.6537228366983
 20
8.300000030804131
 42
0.0
 10
16.58360575495407
 20
8.300000030804131
 42
-0.4142135623731526
 10
16.32110575495403
 20
8.562500030804125
 42
0.0
 10
16.32110575495403
 20
11.36250003080413
 42
0.4142135623730951
 10
16.05860575495404
 20
11.62500003080413
 42
0.0
 10
15.18360575495398
 20
11.62500003080413
 42
0.4142135623730871
 10
14.921105754954
 20
11.36250003080414
 42
0.0
 10
14.921105754954
 20
3.837500030804127
 42
0.4142135623730891
 10
15.18360575495398
 20
3.575000030804133
 42
0.0
 10
16.05860575495398
 20
3.575000030804133
 42
0.4142135623731526
 10
16.32110575495403
 20
3.837500030804127
 42
0.0
 10
16.32110575495403
 20
6.637500030804138
 42
-0.4142135623731526
 10
16.58360575495407
 20
6.900000030804132
 42
0.0
 10
16.65372283669836
 20
6.900000030804132
 42
-0.3272098845218915
 10
16.90403828629604
 20
6.716547014887595
 42
0.0
 10
17.83817322361193
 20
3.758453046720669
 42
0.3272098845218902
 10
18.08848867320961
 20
3.575000030804133
 42
0.0
 10
18.93793336301422
 20
3.575000030804133
 42
0.5069206636600335
 10
19.1882488126119
 20
3.916547014887637
 42
0.0
 10
18.02505312337507
 20
7.600000030804201
 42
0.0
 97
        0
 92
        7
 72
     1
 73
     1
 93
        8
 10
21.74610575495398
 20
11.36250003080413
 42
0.4142135623731546
 10
21.48360575495394
 20
11.62500003080413
 42
0.0
 10
20.60860575495405
 20
11.62500003080413
 42
0.4142135623731507
 10
20.346105754954
 20
11.36250003080414
 42
0.0
 10
20.346105754954
 20
3.837500030804127
 42
0.4142135623731526
 10
20.60860575495405
 20
3.575000030804133
 42
0.0
 10
21.48360575495394
 20
3.575000030804133
 42
0.4142135623731526
 10
21.74610575495398
 20
3.837500030804127
 42
0.0
 97
        0
 92
        7
 72
     1
 73
     1
 93
       24
 10
24.19610575495403
 20
9.962500030804136
 42
-0.4142135623731546
 10
24.45860575495407
 20
10.22500003080413
 42
0.0
 10
25.94610575495403
 20
10.22500003080413
 42
0.4142135623730911
 10
26.20860575495402
 20
10.48750003080412
 42
0.0
 10
26.20860575495402
 20
11.36250003080413
 42
0.4142135623730952
 10
25.94610575495403
 20
11.62500003080413
 42
0.0
 10
24.19610575495403
 20
11.62500003080413
 42
0.4142135623731048
 10
22.796105754954
 20
10.22500003080414
 42
0.0
 10
22.796105754954
 20
9.317399018126511
 42
0.1989123673796613
 10
23.41118151446227
 20
7.832474777634736
 42
0.0
 10
24.8660805017846
 20
6.377575790312402
 42
-0.1989123673796402
 10
25.07110575495403
 20
5.882601043481866
 42
0.0
 10
25.07110575495403
 20
5.237500030804127
 42
-0.4142135623730911
 10
24.80860575495404
 20
4.975000030804132
 42
0.0
 10
23.32110575495403
 20
4.975000030804132
 42
0.4142135623731526
 10
23.05860575495398
 20
4.712500030804138
 42
0.0
 10
23.05860575495398
 20
3.837500030804127
 42
0.4142135623730891
 10
23.32110575495397
 20
3.575000030804133
 42
0.0
 10
25.07110575495403
 20
3.575000030804133
 42
0.4142135623730925
 10
26.47110575495401
 20
4.975000030804121
 42
0.0
 10
26.47110575495401
 20
5.882601043481757
 42
0.1989123673796675
 10
25.85602999544573
 20
7.367525283973584
 42
0.0
 10
24.40113100812345
 20
8.822424271295842
 42
-0.1989123673796652
 10
24.19610575495403
 20
9.317399018126426
 42
0.0
 97
        0
 92
        7
 72
     1
 73
     1
 93
       16
 10
28.92110575495399
 20
11.36250003080412
 42
0.414213562373103
 10
28.65860575495401
 20
11.62500003080413
 42
0.0
 10
27.78360575495401
 20
11.62500003080413
 42
0.4142135623730871
 10
27.52110575495402
 20
11.36250003080414
 42
0.0
 10
27.52110575495402
 20
4.975000030804121
 42
0.4142135623730926
 10
28.92110575495399
 20
3.575000030804133
 42
0.0
 10
30.671105754954
 20
3.575000030804133
 42
0.4142135623731044
 10
32.07110575495403
 20
4.975000030804121
 42
0.0
 10
32.07110575495403
 20
11.36250003080413
 42
0.4142135623730951
 10
31.80860575495404
 20
11.62500003080413
 42
0.0
 10
30.93360575495399
 20
11.62500003080413
 42
0.4142135623730871
 10
30.671105754954
 20
11.36250003080414
 42
0.0
 10
30.671105754954
 20
5.50000003080412
 42
-0.414213562373088
 10
30.14610575495402
 20
4.975000030804132
 42
0.0
 10
29.44610575495403
 20
4.975000030804132
 42
-0.4142135623731197
 10
28.92110575495399
 20
5.50000003080412
 42
0.0
 97
        0
 92
        7
 72
     1
 73
     1
 93
        8
 10
34.52110575495402
 20
11.36250003080414
 42
0.4142135623730871
 10
34.25860575495403
 20
11.62500003080413
 42
0.0
 10
33.38360575495403
 20
11.62500003080413
 42
0.4142135623731507
 10
33.12110575495399
 20
11.36250003080414
 42
0.0
 10
33.12110575495399
 20
3.837500030804127
 42
0.4142135623730891
 10
33.38360575495397
 20
3.575000030804133
 42
0.0
 10
34.25860575495403
 20
3.575000030804133
 42
0.4142135623730891
 10
34.52110575495402
 20
3.837500030804127
 42
0.0
 97
        0
 75
     0
 76
     1
 52
0.0
 41
0.1
 77
     0
 78
     2
 53
45.0
 43
-450.471152489776
 44
-6.599999969195835
 45
-0.2245064030267288
 46
0.2245064030267288
 79
     0
 53
135.0
 43
-450.471152489776
 44
-6.599999969195835
 45
-0.2245064030267288
 46
-0.2245064030267288
 79
     0
 47
0.057451373970553
 98
        8
 10
8.039927159075091
 20
7.583586853746908
 10
11.20225718078302
 20
9.422031122029636
 10
12.58218362039326
 20
7.75594085383949
 10
15.457029668382
 20
8.100648854024882
 10
20.9192356870418
 20
8.33045498779569
 10
23.44910012512821
 20
9.709288189007736
 10
28.27884266376361
 20
9.364578988351638
 10
33.9135394873748
 20
9.594385122122446
  0
ARC
  5
2A57
330
1A
100
AcDbEntity
  8
ZUWAKU
100
AcDbCircle
 10
7.746105754953987
 20
9.317399018126483
 30
0.0
 40
2.099999999999999
100
AcDbArc
 50
180.0
 51
225.0
  0
LINE
  5
2A58
330
1A
100
AcDbEntity
  8
ZUWAKU
100
AcDbLine
 10
10.37110575495398
 20
5.675000030804135
 30
0.0
 11
10.37110575495398
 21
9.525000030804111
 31
0.0
  0
LINE
  5
2A59
330
1A
100
AcDbEntity
  8
ZUWAKU
100
AcDbLine
 10
11.77110575495402
 20
9.525000030804132
 30
0.0
 11
11.77110575495402
 21
5.675000030804135
 31
0.0
  0
ARC
  5
2A5A
330
1A
100
AcDbEntity
  8
ZUWAKU
100
AcDbCircle
 10
7.746105754953987
 20
9.317399018126483
 30
0.0
 40
0.7
100
AcDbArc
 50
180.0000000000016
 51
224.9999999999988
  0
ARC
  5
2A5B
330
1A
100
AcDbEntity
  8
ZUWAKU
100
AcDbCircle
 10
12.47110575495401
 20
5.675000030804135
 30
0.0
 40
2.099999999999999
100
AcDbArc
 50
180.0
 51
270.0
  0
ARC
  5
2A5C
330
1A
100
AcDbEntity
  8
ZUWAKU
100
AcDbCircle
 10
7.921105754953998
 20
4.975000030804132
 30
0.0
 40
1.399999999999999
100
AcDbArc
 50
270.0
 51
0.0
  0
ARC
  5
2A5D
330
1A
100
AcDbEntity
  8
ZUWAKU
100
AcDbCircle
 10
7.22110575495401
 20
5.882601043481784
 30
0.0
 40
2.099999999999999
100
AcDbArc
 50
0.0
 51
45.0
  0
LINE
  5
2A5E
330
1A
100
AcDbEntity
  8
ZUWAKU
100
AcDbLine
 10
6.261181514462236
 20
7.832474777634722
 30
0.0
 11
7.716080501784574
 21
6.377575790312391
 31
0.0
  0
LINE
  5
2A5F
330
1A
100
AcDbEntity
  8
ZUWAKU
100
AcDbLine
 10
6.171105754953998
 20
4.975000030804132
 30
0.0
 11
7.65860575495401
 21
4.975000030804132
 31
0.0
  0
LINE
  5
2A60
330
1A
100
AcDbEntity
  8
ZUWAKU
100
AcDbLine
 10
6.171105754953998
 20
3.575000030804133
 30
0.0
 11
7.921105754953998
 21
3.575000030804133
 31
0.0
  0
ARC
  5
2A61
330
1A
100
AcDbEntity
  8
ZUWAKU
100
AcDbCircle
 10
6.171105754953998
 20
4.712500030804132
 30
0.0
 40
0.2625
100
AcDbArc
 50
90.0
 51
180.0
  0
ARC
  5
2A62
330
1A
100
AcDbEntity
  8
ZUWAKU
100
AcDbCircle
 10
6.171105754953998
 20
3.837500030804132
 30
0.0
 40
0.2625
100
AcDbArc
 50
180.0
 51
270.0
  0
LINE
  5
2A63
330
1A
100
AcDbEntity
  8
ZUWAKU
100
AcDbLine
 10
5.90860575495401
 20
3.837500030804132
 30
0.0
 11
5.90860575495401
 21
4.712500030804132
 31
0.0
  0
ARC
  5
2A64
330
1A
100
AcDbEntity
  8
ZUWAKU
100
AcDbCircle
 10
7.22110575495401
 20
5.882601043481805
 30
0.0
 40
0.7
100
AcDbArc
 50
0.0
 51
45.0
  0
ARC
  5
2A65
330
1A
100
AcDbEntity
  8
ZUWAKU
100
AcDbCircle
 10
7.65860575495401
 20
5.237500030804135
 30
0.0
 40
0.2625
100
AcDbArc
 50
270.0
 51
0.0
  0
LINE
  5
2A66
330
1A
100
AcDbEntity
  8
ZUWAKU
100
AcDbLine
 10
7.921105754953998
 20
5.237500030804135
 30
0.0
 11
7.921105754953998
 21
5.882601043481805
 31
0.0
  0
LINE
  5
2A67
330
1A
100
AcDbEntity
  8
ZUWAKU
100
AcDbLine
 10
8.70602999544576
 20
7.367525283973545
 30
0.0
 11
7.251131008123422
 21
8.822424271295883
 31
0.0
  0
ARC
  5
2A68
330
1A
100
AcDbEntity
  8
ZUWAKU
100
AcDbCircle
 10
12.47110575495401
 20
5.675000030804135
 30
0.0
 40
0.7
100
AcDbArc
 50
180.0
 51
270.0
  0
LINE
  5
2A69
330
1A
100
AcDbEntity
  8
ZUWAKU
100
AcDbLine
 10
9.321105754954032
 20
4.975000030804132
 30
0.0
 11
9.321105754954032
 21
5.882601043481805
 31
0.0
  0
ARC
  5
2A6A
330
1A
100
AcDbEntity
  8
ZUWAKU
100
AcDbCircle
 10
8.796105754953998
 20
10.48750003080413
 30
0.0
 40
0.2625
100
AcDbArc
 50
270.0
 51
0.0
  0
ARC
  5
2A6B
330
1A
100
AcDbEntity
  8
ZUWAKU
100
AcDbCircle
 10
8.796105754953998
 20
11.36250003080413
 30
0.0
 40
0.2625
100
AcDbArc
 50
0.0
 51
90.0
  0
ARC
  5
2A6C
330
1A
100
AcDbEntity
  8
ZUWAKU
100
AcDbCircle
 10
7.046105754953998
 20
10.22500003080413
 30
0.0
 40
1.399999999999999
100
AcDbArc
 50
90.0
 51
180.0
  0
LINE
  5
2A6D
330
1A
100
AcDbEntity
  8
ZUWAKU
100
AcDbLine
 10
5.646105754954021
 20
10.22500003080413
 30
0.0
 11
5.646105754954021
 21
9.317399018126462
 31
0.0
  0
LINE
  5
2A6E
330
1A
100
AcDbEntity
  8
ZUWAKU
100
AcDbLine
 10
8.796105754953998
 20
10.22500003080413
 30
0.0
 11
7.308605754953987
 21
10.22500003080413
 31
0.0
  0
LINE
  5
2A6F
330
1A
100
AcDbEntity
  8
ZUWAKU
100
AcDbLine
 10
7.046105754953998
 20
9.962500030804132
 30
0.0
 11
7.046105754953998
 21
9.317399018126462
 31
0.0
  0
ARC
  5
2A70
330
1A
100
AcDbEntity
  8
ZUWAKU
100
AcDbCircle
 10
7.308605754953987
 20
9.962500030804132
 30
0.0
 40
0.2625
100
AcDbArc
 50
90.0
 51
180.0
  0
LINE
  5
2A71
330
1A
100
AcDbEntity
  8
ZUWAKU
100
AcDbLine
 10
7.046105754953998
 20
11.62500003080413
 30
0.0
 11
8.796105754953998
 21
11.62500003080413
 31
0.0
  0
ARC
  5
2A72
330
1A
100
AcDbEntity
  8
ZUWAKU
100
AcDbCircle
 10
12.47110575495401
 20
9.525000030804111
 30
0.0
 40
2.099999999999999
100
AcDbArc
 50
90.0
 51
180.0
  0
ARC
  5
2A73
330
1A
100
AcDbEntity
  8
ZUWAKU
100
AcDbCircle
 10
12.47110575495401
 20
9.525000030804132
 30
0.0
 40
0.7
100
AcDbArc
 50
90.0
 51
180.0
  0
LINE
  5
2A74
330
1A
100
AcDbEntity
  8
ZUWAKU
100
AcDbLine
 10
9.058605754953987
 20
11.36250003080413
 30
0.0
 11
9.058605754953987
 21
10.48750003080413
 31
0.0
  0
LINE
  5
2A75
330
1A
100
AcDbEntity
  8
ZUWAKU
100
AcDbLine
 10
17.83817322361193
 20
11.44154701488761
 30
0.0
 11
16.90403828629604
 21
8.483453046720647
 31
0.0
  0
LINE
  5
2A76
330
1A
100
AcDbEntity
  8
ZUWAKU
100
AcDbLine
 10
14.921105754954
 20
11.36250003080413
 30
0.0
 11
14.921105754954
 21
3.837500030804132
 31
0.0
  0
LINE
  5
2A77
330
1A
100
AcDbEntity
  8
ZUWAKU
100
AcDbLine
 10
16.32110575495403
 20
8.562500030804134
 30
0.0
 11
16.32110575495403
 21
11.36250003080413
 31
0.0
  0
LINE
  5
2A78
330
1A
100
AcDbEntity
  8
ZUWAKU
100
AcDbLine
 10
28.92110575495399
 20
5.50000003080413
 30
0.0
 11
28.92110575495399
 21
11.36250003080413
 31
0.0
  0
LINE
  5
2A79
330
1A
100
AcDbEntity
  8
ZUWAKU
100
AcDbLine
 10
27.52110575495402
 20
11.36250003080413
 30
0.0
 11
27.52110575495402
 21
4.975000030804132
 31
0.0
  0
LINE
  5
2A7A
330
1A
100
AcDbEntity
  8
ZUWAKU
100
AcDbLine
 10
21.74610575495398
 20
3.837500030804132
 30
0.0
 11
21.74610575495398
 21
11.36250003080413
 31
0.0
  0
LINE
  5
2A7B
330
1A
100
AcDbEntity
  8
ZUWAKU
100
AcDbLine
 10
20.346105754954
 20
11.36250003080413
 30
0.0
 11
20.346105754954
 21
3.837500030804132
 31
0.0
  0
LINE
  5
2A7C
330
1A
100
AcDbEntity
  8
ZUWAKU
100
AcDbLine
 10
18.65742899604299
 20
9.602523627585846
 30
0.0
 11
18.02505312337507
 21
7.600000030804142
 31
0.0
  0
ARC
  5
2A7D
330
1A
100
AcDbEntity
  8
ZUWAKU
100
AcDbCircle
 10
24.89610575495402
 20
9.317399018126483
 30
0.0
 40
2.099999999999999
100
AcDbArc
 50
180.0
 51
225.0
  0
ARC
  5
2A7E
330
1A
100
AcDbEntity
  8
ZUWAKU
100
AcDbCircle
 10
24.89610575495402
 20
9.317399018126483
 30
0.0
 40
0.7
100
AcDbArc
 50
180.0000000000016
 51
224.9999999999988
  0
LINE
  5
2A7F
330
1A
100
AcDbEntity
  8
ZUWAKU
100
AcDbLine
 10
33.12110575495399
 20
11.36250003080413
 30
0.0
 11
33.12110575495399
 21
3.837500030804132
 31
0.0
  0
LINE
  5
2A80
330
1A
100
AcDbEntity
  8
ZUWAKU
100
AcDbLine
 10
34.52110575495402
 20
3.837500030804132
 30
0.0
 11
34.52110575495402
 21
11.36250003080413
 31
0.0
  0
LINE
  5
2A81
330
1A
100
AcDbEntity
  8
ZUWAKU
100
AcDbLine
 10
30.671105754954
 20
11.36250003080413
 30
0.0
 11
30.671105754954
 21
5.50000003080413
 31
0.0
  0
LINE
  5
2A82
330
1A
100
AcDbEntity
  8
ZUWAKU
100
AcDbLine
 10
32.07110575495403
 20
4.975000030804132
 30
0.0
 11
32.07110575495403
 21
11.36250003080413
 31
0.0
  0
LINE
  5
2A83
330
1A
100
AcDbEntity
  8
ZUWAKU
100
AcDbLine
 10
39.56331445155763
 20
15.00000003080413
 30
0.0
 11
39.56331445155763
 21
0.4000000308041649
 31
0.0
  0
LINE
  5
2A84
330
1A
100
AcDbEntity
  8
ZUWAKU
100
AcDbLine
 10
39.76331445155756
 20
15.00000003080413
 30
0.0
 11
39.76331445155767
 21
0.4000000308041649
 31
0.0
  0
LINE
  5
2A85
330
1A
100
AcDbEntity
  8
ZUWAKU
100
AcDbLine
 10
39.66331445155754
 20
15.00000003080413
 30
0.0
 11
39.66331445155765
 21
0.4000000308041649
 31
0.0
  0
LINE
  5
2A86
330
1A
100
AcDbEntity
  8
ZUWAKU
100
AcDbLine
 10
28.92110575495399
 20
3.575000030804133
 30
0.0
 11
30.671105754954
 21
3.575000030804133
 31
0.0
  0
LINE
  5
2A87
330
1A
100
AcDbEntity
  8
ZUWAKU
100
AcDbLine
 10
30.14610575495402
 20
4.975000030804132
 30
0.0
 11
29.44610575495403
 21
4.975000030804132
 31
0.0
  0
LINE
  5
2A88
330
1A
100
AcDbEntity
  8
ZUWAKU
100
AcDbLine
 10
20.608605754954
 20
3.575000030804133
 30
0.0
 11
21.483605754954
 21
3.575000030804133
 31
0.0
  0
LINE
  5
2A89
330
1A
100
AcDbEntity
  8
ZUWAKU
100
AcDbLine
 10
17.83817322361193
 20
3.758453046720646
 30
0.0
 11
16.90403828629604
 21
6.716547014887616
 31
0.0
  0
ARC
  5
2A8A
330
1A
100
AcDbEntity
  8
ZUWAKU
100
AcDbCircle
 10
16.58360575495402
 20
6.637500030804133
 30
0.0
 40
0.2625
100
AcDbArc
 50
90.0
 51
180.0
  0
ARC
  5
2A8B
330
1A
100
AcDbEntity
  8
ZUWAKU
100
AcDbCircle
 10
16.65372283669836
 20
6.637500030804133
 30
0.0
 40
0.2625
100
AcDbArc
 50
17.52556837372303
 51
90.0
  0
ARC
  5
2A8C
330
1A
100
AcDbEntity
  8
ZUWAKU
100
AcDbCircle
 10
15.18360575495398
 20
3.837500030804132
 30
0.0
 40
0.2625
100
AcDbArc
 50
180.0
 51
270.0
  0
ARC
  5
2A8D
330
1A
100
AcDbEntity
  8
ZUWAKU
100
AcDbCircle
 10
13.43360575495398
 20
4.712500030804132
 30
0.0
 40
0.2625
100
AcDbArc
 50
0.0
 51
90.0
  0
ARC
  5
2A8E
330
1A
100
AcDbEntity
  8
ZUWAKU
100
AcDbCircle
 10
13.43360575495398
 20
3.837500030804132
 30
0.0
 40
0.2625
100
AcDbArc
 50
270.0
 51
0.0
  0
LINE
  5
2A8F
330
1A
100
AcDbEntity
  8
ZUWAKU
100
AcDbLine
 10
13.69610575495403
 20
4.712500030804132
 30
0.0
 11
13.69610575495403
 21
3.837500030804132
 31
0.0
  0
LINE
  5
2A90
330
1A
100
AcDbEntity
  8
ZUWAKU
100
AcDbLine
 10
16.32110575495403
 20
3.837500030804132
 30
0.0
 11
16.32110575495403
 21
6.637500030804133
 31
0.0
  0
ARC
  5
2A91
330
1A
100
AcDbEntity
  8
ZUWAKU
100
AcDbCircle
 10
16.05860575495398
 20
3.837500030804132
 30
0.0
 40
0.2625
100
AcDbArc
 50
270.0
 51
0.0
  0
LINE
  5
2A92
330
1A
100
AcDbEntity
  8
ZUWAKU
100
AcDbLine
 10
15.18360575495398
 20
3.575000030804133
 30
0.0
 11
16.05860575495398
 21
3.575000030804133
 31
0.0
  0
ARC
  5
2A93
330
1A
100
AcDbEntity
  8
ZUWAKU
100
AcDbCircle
 10
16.58360575495402
 20
8.562500030804134
 30
0.0
 40
0.2625
100
AcDbArc
 50
180.0
 51
270.0
  0
LINE
  5
2A94
330
1A
100
AcDbEntity
  8
ZUWAKU
100
AcDbLine
 10
16.58360575495402
 20
6.900000030804132
 30
0.0
 11
16.65372283669836
 21
6.900000030804132
 31
0.0
  0
LINE
  5
2A95
330
1A
100
AcDbEntity
  8
ZUWAKU
100
AcDbLine
 10
16.65372283669836
 20
8.300000030804131
 30
0.0
 11
16.58360575495402
 21
8.300000030804131
 31
0.0
  0
ARC
  5
2A96
330
1A
100
AcDbEntity
  8
ZUWAKU
100
AcDbCircle
 10
16.65372283669836
 20
8.562500030804134
 30
0.0
 40
0.2625
100
AcDbArc
 50
270.0
 51
342.4744316262769
  0
ARC
  5
2A97
330
1A
100
AcDbEntity
  8
ZUWAKU
100
AcDbCircle
 10
18.08848867320966
 20
3.837500030804132
 30
0.0
 40
0.2625
100
AcDbArc
 50
197.525568373723
 51
270.0
  0
LINE
  5
2A98
330
1A
100
AcDbEntity
  8
ZUWAKU
100
AcDbLine
 10
19.1882488126119
 20
3.916547014887619
 30
0.0
 11
18.02505312337507
 21
7.600000030804142
 31
0.0
  0
ARC
  5
2A99
330
1A
100
AcDbEntity
  8
ZUWAKU
100
AcDbCircle
 10
18.93793336301416
 20
3.837500030804132
 30
0.0
 40
0.2625
100
AcDbArc
 50
270.0
 51
17.52556837372303
  0
LINE
  5
2A9A
330
1A
100
AcDbEntity
  8
ZUWAKU
100
AcDbLine
 10
18.08848867320966
 20
3.575000030804133
 30
0.0
 11
18.93793336301416
 21
3.575000030804133
 31
0.0
  0
ARC
  5
2A9B
330
1A
100
AcDbEntity
  8
ZUWAKU
100
AcDbCircle
 10
20.608605754954
 20
3.837500030804132
 30
0.0
 40
0.2625
100
AcDbArc
 50
180.0
 51
270.0
  0
ARC
  5
2A9C
330
1A
100
AcDbEntity
  8
ZUWAKU
100
AcDbCircle
 10
25.07110575495403
 20
4.975000030804132
 30
0.0
 40
1.399999999999999
100
AcDbArc
 50
270.0
 51
0.0
  0
ARC
  5
2A9D
330
1A
100
AcDbEntity
  8
ZUWAKU
100
AcDbCircle
 10
28.92110575495399
 20
4.975000030804132
 30
0.0
 40
1.399999999999999
100
AcDbArc
 50
180.0
 51
270.0
  0
LINE
  5
2A9E
330
1A
100
AcDbEntity
  8
ZUWAKU
100
AcDbLine
 10
25.85602999544579
 20
7.367525283973545
 30
0.0
 11
24.4011310081234
 21
8.822424271295883
 31
0.0
  0
LINE
  5
2A9F
330
1A
100
AcDbEntity
  8
ZUWAKU
100
AcDbLine
 10
23.41118151446227
 20
7.832474777634722
 30
0.0
 11
24.8660805017846
 21
6.377575790312391
 31
0.0
  0
LINE
  5
2AA0
330
1A
100
AcDbEntity
  8
ZUWAKU
100
AcDbLine
 10
23.32110575495403
 20
3.575000030804133
 30
0.0
 11
25.07110575495403
 21
3.575000030804133
 31
0.0
  0
LINE
  5
2AA1
330
1A
100
AcDbEntity
  8
ZUWAKU
100
AcDbLine
 10
23.32110575495403
 20
4.975000030804132
 30
0.0
 11
24.80860575495398
 21
4.975000030804132
 31
0.0
  0
ARC
  5
2AA2
330
1A
100
AcDbEntity
  8
ZUWAKU
100
AcDbCircle
 10
23.32110575495403
 20
4.712500030804132
 30
0.0
 40
0.2625
100
AcDbArc
 50
90.0
 51
180.0
  0
ARC
  5
2AA3
330
1A
100
AcDbEntity
  8
ZUWAKU
100
AcDbCircle
 10
21.483605754954
 20
3.837500030804132
 30
0.0
 40
0.2625
100
AcDbArc
 50
270.0
 51
0.0
  0
ARC
  5
2AA4
330
1A
100
AcDbEntity
  8
ZUWAKU
100
AcDbCircle
 10
23.32110575495403
 20
3.837500030804132
 30
0.0
 40
0.2625
100
AcDbArc
 50
180.0
 51
270.0
  0
LINE
  5
2AA5
330
1A
100
AcDbEntity
  8
ZUWAKU
100
AcDbLine
 10
23.05860575495398
 20
3.837500030804132
 30
0.0
 11
23.05860575495398
 21
4.712500030804132
 31
0.0
  0
ARC
  5
2AA6
330
1A
100
AcDbEntity
  8
ZUWAKU
100
AcDbCircle
 10
24.80860575495398
 20
5.237500030804135
 30
0.0
 40
0.2625
100
AcDbArc
 50
270.0
 51
0.0
  0
ARC
  5
2AA7
330
1A
100
AcDbEntity
  8
ZUWAKU
100
AcDbCircle
 10
24.37110575495399
 20
5.882601043481805
 30
0.0
 40
0.7
100
AcDbArc
 50
0.0
 51
45.0
  0
LINE
  5
2AA8
330
1A
100
AcDbEntity
  8
ZUWAKU
100
AcDbLine
 10
25.07110575495403
 20
5.237500030804135
 30
0.0
 11
25.07110575495403
 21
5.882601043481805
 31
0.0
  0
ARC
  5
2AA9
330
1A
100
AcDbEntity
  8
ZUWAKU
100
AcDbCircle
 10
29.44610575495403
 20
5.50000003080413
 30
0.0
 40
0.525
100
AcDbArc
 50
180.0
 51
270.0
  0
ARC
  5
2AAA
330
1A
100
AcDbEntity
  8
ZUWAKU
100
AcDbCircle
 10
24.37110575495399
 20
5.882601043481784
 30
0.0
 40
2.099999999999999
100
AcDbArc
 50
0.0
 51
45.0
  0
LINE
  5
2AAB
330
1A
100
AcDbEntity
  8
ZUWAKU
100
AcDbLine
 10
26.47110575495401
 20
4.975000030804132
 30
0.0
 11
26.47110575495401
 21
5.882601043481805
 31
0.0
  0
ARC
  5
2AAC
330
1A
100
AcDbEntity
  8
ZUWAKU
100
AcDbCircle
 10
30.671105754954
 20
4.975000030804132
 30
0.0
 40
1.399999999999999
100
AcDbArc
 50
270.0
 51
0.0
  0
LINE
  5
2AAD
330
1A
100
AcDbEntity
  8
ZUWAKU
100
AcDbLine
 10
33.38360575495403
 20
3.575000030804133
 30
0.0
 11
34.25860575495403
 21
3.575000030804133
 31
0.0
  0
ARC
  5
2AAE
330
1A
100
AcDbEntity
  8
ZUWAKU
100
AcDbCircle
 10
30.14610575495402
 20
5.50000003080413
 30
0.0
 40
0.525
100
AcDbArc
 50
270.0
 51
0.0
  0
ARC
  5
2AAF
330
1A
100
AcDbEntity
  8
ZUWAKU
100
AcDbCircle
 10
33.38360575495403
 20
3.837500030804132
 30
0.0
 40
0.2625
100
AcDbArc
 50
180.0
 51
270.0
  0
ARC
  5
2AB0
330
1A
100
AcDbEntity
  8
ZUWAKU
100
AcDbCircle
 10
34.25860575495403
 20
3.837500030804132
 30
0.0
 40
0.2625
100
AcDbArc
 50
270.0
 51
0.0
  0
LINE
  5
2AB1
330
1A
100
AcDbEntity
  8
ZUWAKU
100
AcDbLine
 10
21.483605754954
 20
11.62500003080413
 30
0.0
 11
20.608605754954
 21
11.62500003080413
 31
0.0
  0
LINE
  5
2AB2
330
1A
100
AcDbEntity
  8
ZUWAKU
100
AcDbLine
 10
13.69610575495403
 20
11.36250003080413
 30
0.0
 11
13.69610575495403
 21
10.48750003080413
 31
0.0
  0
ARC
  5
2AB3
330
1A
100
AcDbEntity
  8
ZUWAKU
100
AcDbCircle
 10
13.43360575495398
 20
10.48750003080413
 30
0.0
 40
0.2625
100
AcDbArc
 50
270.0
 51
0.0
  0
ARC
  5
2AB4
330
1A
100
AcDbEntity
  8
ZUWAKU
100
AcDbCircle
 10
15.18360575495398
 20
11.36250003080413
 30
0.0
 40
0.2625
100
AcDbArc
 50
90.0
 51
180.0
  0
ARC
  5
2AB5
330
1A
100
AcDbEntity
  8
ZUWAKU
100
AcDbCircle
 10
13.43360575495398
 20
11.36250003080413
 30
0.0
 40
0.2625
100
AcDbArc
 50
0.0
 51
90.0
  0
LINE
  5
2AB6
330
1A
100
AcDbEntity
  8
ZUWAKU
100
AcDbLine
 10
16.05860575495398
 20
11.62500003080413
 30
0.0
 11
15.18360575495398
 21
11.62500003080413
 31
0.0
  0
ARC
  5
2AB7
330
1A
100
AcDbEntity
  8
ZUWAKU
100
AcDbCircle
 10
16.05860575495398
 20
11.36250003080413
 30
0.0
 40
0.2625
100
AcDbArc
 50
0.0
 51
90.0
  0
ARC
  5
2AB8
330
1A
100
AcDbEntity
  8
ZUWAKU
100
AcDbCircle
 10
18.08848867320966
 20
11.36250003080413
 30
0.0
 40
0.2625
100
AcDbArc
 50
90.0
 51
162.4744316262769
  0
LINE
  5
2AB9
330
1A
100
AcDbEntity
  8
ZUWAKU
100
AcDbLine
 10
19.1882488126119
 20
11.28345304672064
 30
0.0
 11
18.65742899604299
 21
9.602523627585846
 31
0.0
  0
ARC
  5
2ABA
330
1A
100
AcDbEntity
  8
ZUWAKU
100
AcDbCircle
 10
18.93793336301416
 20
11.36250003080413
 30
0.0
 40
0.2625
100
AcDbArc
 50
342.4744316262769
 51
90.0
  0
LINE
  5
2ABB
330
1A
100
AcDbEntity
  8
ZUWAKU
100
AcDbLine
 10
18.08848867320966
 20
11.62500003080413
 30
0.0
 11
18.93793336301416
 21
11.62500003080413
 31
0.0
  0
ARC
  5
2ABC
330
1A
100
AcDbEntity
  8
ZUWAKU
100
AcDbCircle
 10
20.608605754954
 20
11.36250003080413
 30
0.0
 40
0.2625
100
AcDbArc
 50
90.0
 51
180.0
  0
LINE
  5
2ABD
330
1A
100
AcDbEntity
  8
ZUWAKU
100
AcDbLine
 10
25.94610575495403
 20
10.22500003080413
 30
0.0
 11
24.45860575495402
 21
10.22500003080413
 31
0.0
  0
LINE
  5
2ABE
330
1A
100
AcDbEntity
  8
ZUWAKU
100
AcDbLine
 10
24.19610575495403
 20
11.62500003080413
 30
0.0
 11
25.94610575495403
 21
11.62500003080413
 31
0.0
  0
ARC
  5
2ABF
330
1A
100
AcDbEntity
  8
ZUWAKU
100
AcDbCircle
 10
24.19610575495403
 20
10.22500003080413
 30
0.0
 40
1.399999999999999
100
AcDbArc
 50
90.0
 51
180.0
  0
LINE
  5
2AC0
330
1A
100
AcDbEntity
  8
ZUWAKU
100
AcDbLine
 10
22.796105754954
 20
10.22500003080413
 30
0.0
 11
22.796105754954
 21
9.317399018126462
 31
0.0
  0
ARC
  5
2AC1
330
1A
100
AcDbEntity
  8
ZUWAKU
100
AcDbCircle
 10
21.483605754954
 20
11.36250003080413
 30
0.0
 40
0.2625
100
AcDbArc
 50
0.0
 51
90.0
  0
LINE
  5
2AC2
330
1A
100
AcDbEntity
  8
ZUWAKU
100
AcDbLine
 10
24.19610575495403
 20
9.962500030804132
 30
0.0
 11
24.19610575495403
 21
9.317399018126462
 31
0.0
  0
ARC
  5
2AC3
330
1A
100
AcDbEntity
  8
ZUWAKU
100
AcDbCircle
 10
24.45860575495402
 20
9.962500030804132
 30
0.0
 40
0.2625
100
AcDbArc
 50
90.0
 51
180.0
  0
LINE
  5
2AC4
330
1A
100
AcDbEntity
  8
ZUWAKU
100
AcDbLine
 10
26.20860575495402
 20
11.36250003080413
 30
0.0
 11
26.20860575495402
 21
10.48750003080413
 31
0.0
  0
ARC
  5
2AC5
330
1A
100
AcDbEntity
  8
ZUWAKU
100
AcDbCircle
 10
25.94610575495403
 20
10.48750003080413
 30
0.0
 40
0.2625
100
AcDbArc
 50
270.0
 51
0.0
  0
ARC
  5
2AC6
330
1A
100
AcDbEntity
  8
ZUWAKU
100
AcDbCircle
 10
25.94610575495403
 20
11.36250003080413
 30
0.0
 40
0.2625
100
AcDbArc
 50
0.0
 51
90.0
  0
LINE
  5
2AC7
330
1A
100
AcDbEntity
  8
ZUWAKU
100
AcDbLine
 10
28.65860575495401
 20
11.62500003080413
 30
0.0
 11
27.78360575495401
 21
11.62500003080413
 31
0.0
  0
ARC
  5
2AC8
330
1A
100
AcDbEntity
  8
ZUWAKU
100
AcDbCircle
 10
27.78360575495401
 20
11.36250003080413
 30
0.0
 40
0.2625
100
AcDbArc
 50
90.0
 51
180.0
  0
ARC
  5
2AC9
330
1A
100
AcDbEntity
  8
ZUWAKU
100
AcDbCircle
 10
28.65860575495401
 20
11.36250003080413
 30
0.0
 40
0.2625
100
AcDbArc
 50
0.0
 51
90.0
  0
LINE
  5
2ACA
330
1A
100
AcDbEntity
  8
ZUWAKU
100
AcDbLine
 10
34.25860575495403
 20
11.62500003080413
 30
0.0
 11
33.38360575495403
 21
11.62500003080413
 31
0.0
  0
ARC
  5
2ACB
330
1A
100
AcDbEntity
  8
ZUWAKU
100
AcDbCircle
 10
30.93360575495399
 20
11.36250003080413
 30
0.0
 40
0.2625
100
AcDbArc
 50
90.0
 51
180.0
  0
LINE
  5
2ACC
330
1A
100
AcDbEntity
  8
ZUWAKU
100
AcDbLine
 10
31.80860575495398
 20
11.62500003080413
 30
0.0
 11
30.93360575495399
 21
11.62500003080413
 31
0.0
  0
ARC
  5
2ACD
330
1A
100
AcDbEntity
  8
ZUWAKU
100
AcDbCircle
 10
31.80860575495398
 20
11.36250003080413
 30
0.0
 40
0.2625
100
AcDbArc
 50
0.0
 51
90.0
  0
ARC
  5
2ACE
330
1A
100
AcDbEntity
  8
ZUWAKU
100
AcDbCircle
 10
33.38360575495403
 20
11.36250003080413
 30
0.0
 40
0.2625
100
AcDbArc
 50
90.0
 51
180.0
  0
ARC
  5
2ACF
330
1A
100
AcDbEntity
  8
ZUWAKU
100
AcDbCircle
 10
34.25860575495403
 20
11.36250003080413
 30
0.0
 40
0.2625
100
AcDbArc
 50
0.0
 51
90.0
  0
TEXT
  5
2AD0
330
1A
100
AcDbEntity
  8
MOJI
100
AcDbText
 10
119.9136010179889
 20
1.602460559507841
 30
0.0
 40
2.799999999999999
  1
Ｘ７０Ｕ－６－１０～３０
 41
0.9
  7
ｽﾀｲﾙ1
100
AcDbText
  0
TEXT
  5
2AD1
330
1A
100
AcDbEntity
  8
MOJI
100
AcDbText
 10
119.9136010179889
 20
9.002460559507824
 30
0.0
 40
2.799999999999999
  1
ブラケット正面打（吊）ワンタッチ自在式
 41
0.9
  7
ｽﾀｲﾙ1
100
AcDbText
  0
LINE
  5
2AD2
330
1A
100
AcDbEntity
  8
ZUWAKU
100
AcDbLine
 10
104.2233003225973
 20
15.00000003080413
 30
0.0
 11
104.2233003225974
 21
0.4000000308041649
 31
0.0
  0
LINE
  5
2AD3
330
1A
100
AcDbEntity
  8
ZUWAKU
100
AcDbLine
 10
104.3233003225973
 20
15.00000003080413
 30
0.0
 11
104.3233003225974
 21
0.4000000308041649
 31
0.0
  0
LINE
  5
2AD4
330
1A
100
AcDbEntity
  8
ZUWAKU
100
AcDbLine
 10
104.1233003225974
 20
15.00000003080413
 30
0.0
 11
104.1233003225974
 21
0.4000000308041649
 31
0.0
  0
TEXT
  5
2AD5
330
1A
100
AcDbEntity
  8
ZUWAKU
100
AcDbText
 10
104.8620228337022
 20
4.827678299996939
 30
0.0
 40
2.0
  1
サイズ
 41
0.9
  7
ｽﾀｲﾙ1
100
AcDbText
  0
TEXT
  5
2AD6
330
1A
100
AcDbEntity
  8
ZUWAKU
100
AcDbText
 10
104.862022833702
 20
12.02767829999692
 30
0.0
 40
2.0
  1
品名
 41
0.9
  7
ｽﾀｲﾙ1
100
AcDbText
  0
TEXT
  5
2AD7
330
1A
100
AcDbEntity
  8
ZUWAKU
100
AcDbText
 10
329.1019685212146
 20
9.002460559507824
 30
0.0
 40
2.799999999999999
  1
　　．　　．　　
 41
0.9
  7
ｽﾀｲﾙ1
100
AcDbText
  0
LINE
  5
2AD8
330
1A
100
AcDbEntity
  8
ZUWAKU
100
AcDbLine
 10
324.4086009326655
 20
7.800000030804147
 30
0.0
 11
348.624504951834
 21
7.800000030804147
 31
0.0
  0
LINE
  5
2AD9
330
1A
100
AcDbEntity
  8
ZUWAKU
100
AcDbLine
 10
324.4086009326656
 20
7.700000030804149
 30
0.0
 11
348.624504951834
 21
7.700000030804147
 31
0.0
  0
LINE
  5
2ADA
330
1A
100
AcDbEntity
  8
ZUWAKU
100
AcDbLine
 10
324.4086009326655
 20
7.600000030804146
 30
0.0
 11
348.624504951834
 21
7.600000030804148
 31
0.0
  0
LINE
  5
2ADB
330
1A
100
AcDbEntity
  8
ZUWAKU
100
AcDbLine
 10
252.5995894266338
 20
7.800000030804147
 30
0.0
 11
276.2634775606196
 21
7.800000030804147
 31
0.0
  0
LINE
  5
2ADC
330
1A
100
AcDbEntity
  8
ZUWAKU
100
AcDbLine
 10
252.5995894266338
 20
7.700000030804147
 30
0.0
 11
276.2634775606196
 21
7.700000030804147
 31
0.0
  0
LINE
  5
2ADD
330
1A
100
AcDbEntity
  8
ZUWAKU
100
AcDbLine
 10
252.5995894266338
 20
7.600000030804149
 30
0.0
 11
276.2634775606196
 21
7.600000030804149
 31
0.0
  0
LINE
  5
2ADE
330
1A
100
AcDbEntity
  8
ZUWAKU
100
AcDbLine
 10
252.3995894266339
 20
15.00000003080413
 30
0.0
 11
252.3995894266339
 21
0.4000000308041649
 31
0.0
  0
LINE
  5
2ADF
330
1A
100
AcDbEntity
  8
ZUWAKU
100
AcDbLine
 10
252.5995894266338
 20
15.00000003080413
 30
0.0
 11
252.599589426634
 21
0.4000000308041649
 31
0.0
  0
LINE
  5
2AE0
330
1A
100
AcDbEntity
  8
ZUWAKU
100
AcDbLine
 10
252.4995894266338
 20
15.00000003080413
 30
0.0
 11
252.4995894266339
 21
0.4000000308041649
 31
0.0
  0
TEXT
  5
2AE1
330
1A
100
AcDbEntity
  8
MOJI
100
AcDbText
 10
264.0204536637198
 20
9.002460559507824
 30
0.0
 40
2.799999999999999
  1
Ａ３
 41
0.9
  7
ｽﾀｲﾙ1
100
AcDbText
  0
LINE
  5
2AE2
330
1A
100
AcDbEntity
  8
ZUWAKU
100
AcDbLine
 10
223.7121816630591
 20
15.00000003080413
 30
0.0
 11
223.7121816630591
 21
0.4000000308041649
 31
0.0
  0
LINE
  5
2AE3
330
1A
100
AcDbEntity
  8
ZUWAKU
100
AcDbLine
 10
223.912181663059
 20
15.00000003080413
 30
0.0
 11
223.9121816630591
 21
0.4000000308041649
 31
0.0
  0
LINE
  5
2AE4
330
1A
100
AcDbEntity
  8
ZUWAKU
100
AcDbLine
 10
223.812181663059
 20
15.00000003080413
 30
0.0
 11
223.8121816630591
 21
0.4000000308041649
 31
0.0
  0
TEXT
  5
2AE5
330
1A
100
AcDbEntity
  8
MOJI
100
AcDbText
 10
231.2836388385577
 20
5.971308891634123
 30
0.0
 40
2.799999999999999
  1
ＬＫ３４Ｔ
 41
0.9
  7
ｽﾀｲﾙ1
100
AcDbText
  0
TEXT
  5
2AE6
330
1A
100
AcDbEntity
  8
ZUWAKU
100
AcDbText
 10
253.3383119377388
 20
4.827678299996939
 30
0.0
 40
2.0
  1
縮尺
 41
0.9
  7
ｽﾀｲﾙ1
100
AcDbText
  0
TEXT
  5
2AE7
330
1A
100
AcDbEntity
  8
MOJI
100
AcDbText
 10
264.0204536637198
 20
1.602460559507841
 30
0.0
 40
2.799999999999999
  1
１/１
 41
0.9
  7
ｽﾀｲﾙ1
100
AcDbText
  0
TEXT
  5
2AE8
330
1A
100
AcDbEntity
  8
ZUWAKU
100
AcDbText
 10
224.6509041741638
 20
12.02767829999692
 30
0.0
 40
2.0
  1
品番
 41
0.9
  7
ｽﾀｲﾙ1
100
AcDbText
  0
TEXT
  5
2AE9
330
1A
100
AcDbEntity
  8
ZUWAKU
100
AcDbText
 10
253.3383119377386
 20
12.02767829999692
 30
0.0
 40
2.0
  1
用紙
 41
0.9
  7
ｽﾀｲﾙ1
100
AcDbText
  0
LINE
  5
2AEA
330
1A
100
AcDbEntity
  8
ZUWAKU
100
AcDbLine
 10
276.2634775606196
 20
15.00000003080413
 30
0.0
 11
276.2634775606196
 21
0.4000000308041649
 31
0.0
  0
LINE
  5
2AEB
330
1A
100
AcDbEntity
  8
ZUWAKU
100
AcDbLine
 10
276.4634775606196
 20
15.00000003080413
 30
0.0
 11
276.4634775606197
 21
0.4000000308041649
 31
0.0
  0
LINE
  5
2AEC
330
1A
100
AcDbEntity
  8
ZUWAKU
100
AcDbLine
 10
276.3634775606195
 20
15.00000003080413
 30
0.0
 11
276.3634775606196
 21
0.4000000308041649
 31
0.0
  0
LINE
  5
2AED
330
1A
100
AcDbEntity
  8
ZUWAKU
100
AcDbLine
 10
324.2086009326657
 20
15.00000003080413
 30
0.0
 11
324.2086009326657
 21
0.4000000308041649
 31
0.0
  0
LINE
  5
2AEE
330
1A
100
AcDbEntity
  8
ZUWAKU
100
AcDbLine
 10
324.4086009326656
 20
15.00000003080413
 30
0.0
 11
324.4086009326657
 21
0.4000000308041649
 31
0.0
  0
LINE
  5
2AEF
330
1A
100
AcDbEntity
  8
ZUWAKU
100
AcDbLine
 10
324.3086009326656
 20
15.00000003080413
 30
0.0
 11
324.3086009326657
 21
0.4000000308041649
 31
0.0
  0
TEXT
  5
2AF0
330
1A
100
AcDbEntity
  8
ZUWAKU
100
AcDbText
 10
325.1473234437704
 20
12.02767829999692
 30
0.0
 40
2.0
  1
DATE
 41
0.9
  7
ｽﾀｲﾙ1
100
AcDbText
  0
TEXT
  5
2AF1
330
1A
100
AcDbEntity
  8
ZUWAKU
100
AcDbText
 10
354.2640417736853
 20
8.776919698647532
 30
0.0
 40
3.0
  1
積水化学工業株式会社
 41
0.9
  7
ｽﾀｲﾙ1
100
AcDbText
  0
LINE
  5
2AF2
330
1A
100
AcDbEntity
  8
ZUWAKU
100
AcDbLine
 10
348.924504951834
 20
15.00000003080413
 30
0.0
 11
348.9245049518341
 21
0.4000000308041649
 31
0.0
  0
LINE
  5
2AF3
330
1A
100
AcDbEntity
  8
ZUWAKU
100
AcDbLine
 10
348.824504951834
 20
15.00000003080413
 30
0.0
 11
348.8245049518341
 21
0.4000000308041649
 31
0.0
  0
LINE
  5
2AF4
330
1A
100
AcDbEntity
  8
ZUWAKU
100
AcDbLine
 10
348.7245049518341
 20
15.00000003080413
 30
0.0
 11
348.7245049518341
 21
0.4000000308041649
 31
0.0
  0
LINE
  5
2AF5
330
1A
100
AcDbEntity
  8
ZUWAKU
100
AcDbLine
 10
348.624504951834
 20
15.00000003080413
 30
0.0
 11
348.624504951834
 21
0.4000000308041649
 31
0.0
  0
TEXT
  5
2AF6
330
1A
100
AcDbEntity
  8
ZUWAKU
100
AcDbText
 10
354.2640417736853
 20
3.324420187731163
 30
0.0
 40
3.0
  1
建材事業部
 41
0.9
  7
ｽﾀｲﾙ1
100
AcDbText
  0
LINE
  5
522E
330
1A
100
AcDbEntity
  8
SUNPOU
100
AcDbLine
 10
216.7112888142321
 20
83.39778368975329
 30
0.0
 11
233.8530091076316
 21
54.82824987204812
 31
0.0
  0
TEXT
  5
522F
330
1A
100
AcDbEntity
  8
SUNPOU
100
AcDbText
 10
206.9113905413155
 20
159.9185576028447
 30
0.0
 40
3.0
  1
（スライド幅）
100
AcDbText
  0
DIMENSION
  5
5230
330
1A
100
AcDbEntity
  8
SUNPOU
100
AcDbDimension
  2
*D1
 10
234.8899428665335
 20
185.3391490229575
 30
0.0
 11
232.3899428665335
 21
211.7723452123552
 31
0.0
 70
    32
  3
STANDARD
100
AcDbAlignedDimension
 13
215.6822973036405
 23
238.2055414017528
 33
0.0
 14
215.6822973036404
 24
185.3391490229575
 34
0.0
 50
90.0
100
AcDbRotatedDimension
1001
ACAD
1000
DSTYLE
1002
{
1070
    41
1040
3.0
1070
    42
1040
3.0
1070
    43
1040
7.0
1070
    44
1040
1.5
1070
    73
1070
     0
1070
    74
1070
     0
1070
    77
1070
     3
1070
   140
1040
3.0
1070
   141
1040
3.0
1070
   147
1040
1.0
1070
   172
1070
     1
1070
   173
1070
     1
1070
   176
1070
   256
1070
   177
1070
   256
1070
   178
1070
   256
1070
   271
1070
     0
1070
   272
1070
     0
1070
   341
1005
B2
1070
     6
1000
OPEN
1070
     7
1000
OPEN
1002
}
  0
DIMENSION
  5
5231
330
1A
100
AcDbEntity
  8
SUNPOU
100
AcDbDimension
  2
*D2
 10
227.8598320519552
 20
152.984740796373
 30
0.0
 11
210.3598320594552
 21
155.4847407963731
 31
0.0
 70
    32
  3
STANDARD
100
AcDbAlignedDimension
 13
192.8598320669552
 23
123.1502115872871
 33
0.0
 14
227.8598320519552
 24
123.1502115872871
 34
0.0
100
AcDbRotatedDimension
1001
ACAD
1000
DSTYLE
1002
{
1070
    41
1040
3.0
1070
    42
1040
3.0
1070
    43
1040
7.0
1070
    44
1040
1.5
1070
    73
1070
     0
1070
    74
1070
     0
1070
    77
1070
     3
1070
   140
1040
3.0
1070
   141
1040
3.0
1070
   147
1040
1.0
1070
   172
1070
     1
1070
   173
1070
     1
1070
   176
1070
   256
1070
   177
1070
   256
1070
   178
1070
   256
1070
   271
1070
     0
1070
   272
1070
     0
1070
   341
1005
B2
1070
     6
1000
OPEN
1070
     7
1000
OPEN
1002
}
  0
LINE
  5
5232
330
1A
100
AcDbEntity
  8
CENTER_L
100
AcDbLine
 10
202.1339090805243
 20
81.06540292770594
 30
0.0
 11
219.8840126428304
 21
91.71546506263133
 31
0.0
  0
DIMENSION
  5
5233
330
1A
100
AcDbEntity
  8
SUNPOU
100
AcDbDimension
  2
*D3
 10
223.3585015802241
 20
87.38611134999448
 30
0.0
 11
216.2413102969136
 21
104.1072233987164
 31
0.0
 70
    33
  3
STANDARD
100
AcDbAlignedDimension
 13
198.1894416192321
 23
114.2675290097532
 33
0.0
 14
216.7112888142321
 24
83.39778368975329
 34
0.0
1001
ACAD
1000
DSTYLE
1002
{
1070
    41
1040
3.0
1070
    42
1040
3.0
1070
    43
1040
7.0
1070
    44
1040
1.5
1070
    73
1070
     0
1070
    74
1070
     0
1070
    77
1070
     3
1070
   140
1040
3.0
1070
   141
1040
3.0
1070
   147
1040
1.0
1070
   172
1070
     1
1070
   173
1070
     1
1070
   176
1070
   256
1070
   177
1070
   256
1070
   178
1070
   256
1070
   271
1070
     0
1070
   272
1070
     0
1070
   341
1005
B2
1070
     6
1000
OPEN
1070
     7
1000
OPEN
1002
}
  0
DIMENSION
  5
5234
330
1A
100
AcDbEntity
  8
SUNPOU
100
AcDbDimension
  2
*D4
 10
228.5090120960286
 20
90.47641766142991
 30
0.0
 11
218.7270160364631
 21
111.6388709991128
 31
0.0
 70
    33
  3
STANDARD
100
AcDbAlignedDimension
 13
192.8598320669552
 23
123.1502115872871
 33
0.0
 14
216.7112888142321
 24
83.39778368975329
 34
0.0
1001
ACAD
1000
DSTYLE
1002
{
1070
    41
1040
3.0
1070
    42
1040
3.0
1070
    43
1040
7.0
1070
    44
1040
1.5
1070
    73
1070
     0
1070
    74
1070
     0
1070
    77
1070
     3
1070
   140
1040
3.0
1070
   141
1040
3.0
1070
   147
1040
1.0
1070
   172
1070
     1
1070
   173
1070
     1
1070
   176
1070
   256
1070
   177
1070
   256
1070
   178
1070
   256
1070
   271
1070
     0
1070
   272
1070
     0
1070
   341
1005
B2
1070
     6
1000
OPEN
1070
     7
1000
OPEN
1002
}
  0
ARC
  5
5235
330
1A
100
AcDbEntity
  8
SEIHIN
  6
DASHED
 62
     2
100
AcDbCircle
 10
221.9562842792321
 20
114.5247768897533
 30
0.0
 40
4.000000001168293
100
AcDbArc
 50
30.96376790583805
 51
170.791845626957
  0
ARC
  5
5236
330
1A
100
AcDbEntity
  8
SEIHIN
  6
DASHED
 62
     2
100
AcDbCircle
 10
221.9562842792321
 20
114.5247768897533
 30
0.0
 40
10.00000000018544
100
AcDbArc
 50
56.80568942011983
 51
170.7918456103775
  0
LINE
  5
5237
330
1A
100
AcDbEntity
  8
CENTER_L
100
AcDbLine
 10
67.62912373423219
 20
211.7723452123552
 30
0.0
 11
218.3752212642321
 21
211.7723452123552
 31
0.0
  0
DIMENSION
  5
5238
330
1A
100
AcDbEntity
  8
SUNPOU
100
AcDbDimension
  2
*D5
 10
192.8598320669552
 20
152.984740796373
 30
0.0
 11
132.5462111605937
 21
155.4847407963731
 31
0.0
 70
    32
  3
STANDARD
100
AcDbAlignedDimension
 13
72.23259025423221
 23
86.37064911975324
 33
0.0
 14
192.8598320669552
 24
123.1502115872871
 34
0.0
100
AcDbRotatedDimension
1001
ACAD
1000
DSTYLE
1002
{
1070
    41
1040
3.0
1070
    42
1040
3.0
1070
    43
1040
7.0
1070
    44
1040
1.5
1070
    73
1070
     0
1070
    74
1070
     0
1070
    77
1070
     3
1070
   140
1040
3.0
1070
   141
1040
3.0
1070
   147
1040
1.0
1070
   172
1070
     1
1070
   173
1070
     1
1070
   176
1070
   256
1070
   177
1070
   256
1070
   178
1070
   256
1070
   271
1070
     0
1070
   272
1070
     0
1070
   341
1005
B2
1070
     6
1000
OPEN
1070
     7
1000
OPEN
1002
}
  0
DIMENSION
  5
5239
330
1A
100
AcDbEntity
  8
SUNPOU
100
AcDbDimension
  2
*D6
 10
47.82968648241602
 20
83.39778368975332
 30
0.0
 11
45.329686482416
 21
85.50921640475326
 31
0.0
 70
    32
  3
STANDARD
100
AcDbAlignedDimension
 13
73.48259025423221
 23
87.62064911975318
 33
0.0
 14
216.7112888142321
 24
83.39778368975329
 34
0.0
 50
90.0
100
AcDbRotatedDimension
1001
ACAD
1000
DSTYLE
1002
{
1070
    41
1040
3.0
1070
    42
1040
3.0
1070
    43
1040
7.0
1070
    44
1040
1.5
1070
    73
1070
     0
1070
    74
1070
     0
1070
    77
1070
     3
1070
   140
1040
3.0
1070
   141
1040
3.0
1070
   147
1040
1.0
1070
   172
1070
     1
1070
   173
1070
     1
1070
   176
1070
   256
1070
   177
1070
   256
1070
   178
1070
   256
1070
   271
1070
     0
1070
   272
1070
     0
1070
   341
1005
B2
1070
     6
1000
OPEN
1070
     7
1000
OPEN
1002
}
  0
ARC
  5
523A
330
1A
100
AcDbEntity
  8
NOKITOI
  6
PHANTOM
 62
     8
100
AcDbCircle
 10
80.81311409302321
 20
37.81030900943187
 30
0.0
 40
14.22848866365036
100
AcDbArc
 50
51.52529185494234
 51
71.45345265407094
  0
ARC
  5
523B
330
1A
100
AcDbEntity
  8
NOKITOI
  6
PHANTOM
 62
     8
100
AcDbCircle
 10
80.81304732401912
 20
37.81034114602198
 30
0.0
 40
12.93471022655885
100
AcDbArc
 50
8.676219579621381
 51
74.45245455808946
  0
LINE
  5
523C
330
1A
100
AcDbEntity
  8
SEIHIN
100
AcDbLine
 10
86.34119025423217
 20
78.80794911975328
 30
0.0
 11
93.39639025423219
 21
73.67694911975326
 31
0.0
  0
LINE
  5
523D
330
1A
100
AcDbEntity
  8
SEIHIN
100
AcDbLine
 10
95.26280677423216
 20
83.72064911975327
 30
0.0
 11
75.73259025423221
 21
83.72064911975327
 31
0.0
  0
LINE
  5
523E
330
1A
100
AcDbEntity
  8
NOKITOI
  6
PHANTOM
 62
     8
100
AcDbLine
 10
84.68174025423223
 20
52.03824911891564
 30
0.0
 11
78.75074025423231
 21
80.20814911891585
 31
0.0
  0
LINE
  5
523F
330
1A
100
AcDbEntity
  8
NOKITOI
  6
PHANTOM
 62
     8
100
AcDbLine
 10
83.57314025423233
 20
51.0253491189157
 30
0.0
 11
77.73454025423217
 21
78.75664911891584
 31
0.0
  0
ARC
  5
5240
330
1A
100
AcDbEntity
  8
NOKITOI
  6
PHANTOM
 62
     8
100
AcDbCircle
 10
84.54678027861978
 20
51.23030645468986
 30
0.0
 40
0.9949785960395137
100
AcDbArc
 50
191.8875585738772
 51
254.4495841050101
  0
ARC
  5
5241
330
1A
100
AcDbEntity
  8
NOKITOI
  6
PHANTOM
 62
     8
100
AcDbCircle
 10
85.6553601360037
 20
52.24322678183574
 30
0.0
 40
0.995060928010462
100
AcDbArc
 50
191.8877567214151
 51
251.4524867922939
  0
LINE
  5
5242
330
1A
100
AcDbEntity
  8
NOKITOI
  6
PHANTOM
 62
     8
100
AcDbLine
 10
71.99014025423224
 20
86.12824911891578
 30
0.0
 11
71.99014025423224
 21
82.19804911891577
 31
0.0
  0
LINE
  5
5243
330
1A
100
AcDbEntity
  8
NOKITOI
  6
PHANTOM
 62
     8
100
AcDbLine
 10
70.69664025423236
 20
79.90964911891563
 30
0.0
 11
70.69664025423236
 21
87.91914911891565
 31
0.0
  0
LINE
  5
5244
330
1A
100
AcDbEntity
  8
SEIHIN
100
AcDbLine
 10
72.23259025423221
 20
86.37064911975324
 30
0.0
 11
72.23259025423221
 21
82.72064911975325
 31
0.0
  0
LINE
  5
5245
330
1A
100
AcDbEntity
  8
NOKITOI
  6
PHANTOM
 62
     8
100
AcDbLine
 10
73.98014025423236
 20
80.20814911891585
 30
0.0
 11
78.75074025423231
 21
80.20814911891585
 31
0.0
  0
LINE
  5
5246
330
1A
100
AcDbEntity
  8
SEIHIN
100
AcDbLine
 10
74.2325902542322
 20
80.72064911975326
 30
0.0
 11
80.45949025423215
 21
80.72064911975326
 31
0.0
  0
LINE
  5
5247
330
1A
100
AcDbEntity
  8
NOKITOI
  6
PHANTOM
 62
     8
100
AcDbLine
 10
77.53984025423239
 20
78.91464911891564
 30
0.0
 11
71.69164025423237
 21
78.91464911891564
 31
0.0
  0
ARC
  5
5248
330
1A
100
AcDbEntity
  8
NOKITOI
  6
PHANTOM
 62
     8
100
AcDbCircle
 10
73.98009025423227
 20
82.19809911891587
 30
0.0
 40
1.989950000628206
100
AcDbArc
 50
180.0014396286229
 51
270.0014396286237
  0
ARC
  5
5249
330
1A
100
AcDbEntity
  8
NOKITOI
  6
PHANTOM
 62
     8
100
AcDbCircle
 10
71.69164025423237
 20
79.90964911891563
 30
0.0
 40
0.9950000000000045
100
AcDbArc
 50
180.0
 51
270.0
  0
ARC
  5
524A
330
1A
100
AcDbEntity
  8
SEIHIN
100
AcDbCircle
 10
74.2325902542322
 20
82.72064911975325
 30
0.0
 40
2.0
100
AcDbArc
 50
180.0
 51
270.0
  0
ARC
  5
524B
330
1A
100
AcDbEntity
  8
NOKITOI
  6
PHANTOM
 62
     8
100
AcDbCircle
 10
77.53982181161808
 20
78.71566408235253
 30
0.0
 40
0.1989850374177657
100
AcDbArc
 50
11.88631382809262
 51
89.9946896310657
  0
ARC
  5
524C
330
1A
100
AcDbEntity
  8
SEIHIN
100
AcDbCircle
 10
80.45939924423214
 20
70.72067871975327
 30
0.0
 40
9.999970400385993
100
AcDbArc
 50
53.97197877308379
 51
89.99947854956749
  0
LINE
  5
524D
330
1A
100
AcDbEntity
  8
NOKITOI
  6
PHANTOM
 62
     8
100
AcDbLine
 10
71.69164025423237
 20
88.91414911891576
 30
0.0
 11
75.92284025423231
 21
88.91414911891576
 31
0.0
  0
ARC
  5
524E
330
1A
100
AcDbEntity
  8
NOKITOI
  6
PHANTOM
 62
     8
100
AcDbCircle
 10
74.13184025423226
 20
86.12824911891578
 30
0.0
 40
1.492399999999918
100
AcDbArc
 50
0.0000000000016284
 51
90.00000000000245
  0
LINE
  5
524F
330
1A
100
AcDbEntity
  8
SEIHIN
100
AcDbLine
 10
74.73259025423221
 20
84.72064911975326
 30
0.0
 11
72.23259025423221
 21
84.72054911975329
 31
0.0
  0
ARC
  5
5250
330
1A
100
AcDbEntity
  8
SEIHIN
100
AcDbCircle
 10
73.48259025423221
 20
86.37064911975324
 30
0.0
 40
1.25
100
AcDbArc
 50
0.0
 51
180.0
  0
LINE
  5
5251
330
1A
100
AcDbEntity
  8
NOKITOI
  6
PHANTOM
 62
     8
100
AcDbLine
 10
74.13184025423226
 20
87.62064911891565
 30
0.0
 11
73.4826402542323
 21
87.62064911891565
 31
0.0
  0
ARC
  5
5252
330
1A
100
AcDbEntity
  8
NOKITOI
  6
PHANTOM
 62
     8
100
AcDbCircle
 10
73.48259025423221
 20
86.12819911891568
 30
0.0
 40
1.49245000083754
100
AcDbArc
 50
89.99808047909004
 51
179.99808047909
  0
ARC
  5
5253
330
1A
100
AcDbEntity
  8
NOKITOI
  6
PHANTOM
 62
     8
100
AcDbCircle
 10
71.69164025423237
 20
87.91914911891575
 30
0.0
 40
0.9950000000000613
100
AcDbArc
 50
90.00000000000325
 51
180.0000000000032
  0
ARC
  5
5254
330
1A
100
AcDbEntity
  8
NOKITOI
  6
PHANTOM
 62
     8
100
AcDbCircle
 10
75.92279025423221
 20
87.9191991189158
 30
0.0
 40
0.9949500012563332
100
AcDbArc
 50
359.9971206704047
 51
89.99712067040476
  0
LINE
  5
5255
330
1A
100
AcDbEntity
  8
NOKITOI
  6
PHANTOM
 62
     8
100
AcDbLine
 10
75.62434025423232
 20
83.71434911891578
 30
0.0
 11
75.62434025423232
 21
86.12824911891578
 31
0.0
  0
LINE
  5
5256
330
1A
100
AcDbEntity
  8
NOKITOI
  6
PHANTOM
 62
     8
100
AcDbLine
 10
76.91774025423223
 20
83.71434911891578
 30
0.0
 11
75.62434025423232
 21
83.71434911891578
 31
0.0
  0
LINE
  5
5257
330
1A
100
AcDbEntity
  8
NOKITOI
  6
PHANTOM
 62
     8
100
AcDbLine
 10
76.91774025423223
 20
87.91914911891565
 30
0.0
 11
76.91774025423223
 21
83.71434911891578
 31
0.0
  0
LINE
  5
5258
330
1A
100
AcDbEntity
  8
SEIHIN
100
AcDbLine
 10
74.73259025423221
 20
86.37064911975324
 30
0.0
 11
74.73259025423221
 21
84.72064911975326
 31
0.0
  0
ARC
  5
5259
330
1A
100
AcDbEntity
  8
SEIHIN
100
AcDbCircle
 10
75.73259025423221
 20
84.72064911975326
 30
0.0
 40
1.0
100
AcDbArc
 50
180.0
 51
270.0
  0
LINE
  5
525A
330
1A
100
AcDbEntity
  8
CENTER_L
  6
CENTER
 62
     1
100
AcDbLine
 10
127.6986402542323
 20
28.91659911891582
 30
0.0
 11
127.6986402542323
 21
50.21659911891584
 31
0.0
  0
LINE
  5
525B
330
1A
100
AcDbEntity
  8
NOKITOI
  6
PHANTOM
 62
     8
100
AcDbLine
 10
99.7000402542323
 20
40.40904911891584
 30
0.0
 11
99.70014025423239
 21
48.90634911891578
 31
0.0
  0
LINE
  5
525C
330
1A
100
AcDbEntity
  8
NOKITOI
  6
PHANTOM
 62
     8
100
AcDbLine
 10
155.6972402542323
 20
40.40904911891584
 30
0.0
 11
155.6973402542321
 21
48.90604911891563
 31
0.0
  0
ARC
  5
525D
330
1A
100
AcDbEntity
  8
NOKITOI
  6
PHANTOM
 62
     8
100
AcDbCircle
 10
174.5841290979114
 20
37.81033653744168
 30
0.0
 40
12.93449408578155
100
AcDbArc
 50
105.547333235354
 51
171.3240617643019
  0
ARC
  5
525E
330
1A
100
AcDbEntity
  8
NOKITOI
  6
PHANTOM
 62
     8
100
AcDbCircle
 10
174.5842347208204
 20
37.81024287865045
 30
0.0
 40
12.93461262833301
100
AcDbArc
 50
105.5476727870196
 51
171.3237222126368
  0
LINE
  5
525F
330
1A
100
AcDbEntity
  8
NOKITOI
  6
PHANTOM
 62
     8
100
AcDbLine
 10
99.89904025423237
 20
40.21004911891577
 30
0.0
 11
155.4982402542323
 21
40.20994911891569
 31
0.0
  0
LINE
  5
5260
330
1A
100
AcDbEntity
  8
NOKITOI
  6
PHANTOM
 62
     8
100
AcDbLine
 10
94.58334025423239
 20
38.91664911891576
 30
0.0
 11
160.8139402542323
 21
38.91654911891589
 31
0.0
  0
LINE
  5
5261
330
1A
100
AcDbEntity
  8
NOKITOI
  6
PHANTOM
 62
     8
100
AcDbLine
 10
160.8139402542323
 20
38.91654911891589
 30
0.0
 11
94.58334025423239
 21
38.91664911891576
 31
0.0
  0
LINE
  5
5262
330
1A
100
AcDbEntity
  8
NOKITOI
  6
PHANTOM
 62
     8
100
AcDbLine
 10
98.03774025423223
 20
47.60634911891583
 30
0.0
 11
91.81684025423232
 21
47.60634911891583
 31
0.0
  0
ARC
  5
5263
330
1A
100
AcDbEntity
  8
NOKITOI
  6
PHANTOM
 62
     8
100
AcDbCircle
 10
95.25831721310414
 20
40.71666798320404
 30
0.0
 40
0.5000188648192144
100
AcDbArc
 50
191.386728855441
 51
270.0026402191986
  0
ARC
  5
5264
330
1A
100
AcDbEntity
  8
NOKITOI
  6
PHANTOM
 62
     8
100
AcDbCircle
 10
80.81304545124561
 20
37.8103385031477
 30
0.0
 40
14.23472333170272
100
AcDbArc
 50
11.37541821407338
 51
40.79334907830746
  0
ARC
  5
5265
330
1A
100
AcDbEntity
  8
NOKITOI
  6
PHANTOM
 62
     8
100
AcDbCircle
 10
94.58334786824996
 20
39.91164257867183
 30
0.0
 40
0.9949934597852239
100
AcDbArc
 50
188.6761125650602
 51
269.9995615538234
  0
ARC
  5
5266
330
1A
100
AcDbEntity
  8
NOKITOI
  6
PHANTOM
 62
     8
100
AcDbCircle
 10
91.81684391353547
 20
47.30635711079537
 30
0.0
 40
0.2999920081427447
100
AcDbArc
 50
90.00069889403132
 51
220.7967284175802
  0
LINE
  5
5267
330
1A
100
AcDbEntity
  8
NOKITOI
  6
PHANTOM
 62
     8
100
AcDbLine
 10
98.40004025423224
 20
40.71664911891582
 30
0.0
 11
98.40004025423224
 21
47.24394911891585
 31
0.0
  0
ARC
  5
5268
330
1A
100
AcDbEntity
  8
NOKITOI
  6
PHANTOM
 62
     8
100
AcDbCircle
 10
97.90004025423213
 20
40.71664911891582
 30
0.0
 40
0.5000000000000569
100
AcDbArc
 50
270.0000000000065
 51
0.0000000000065138
  0
LINE
  5
5269
330
1A
100
AcDbEntity
  8
NOKITOI
  6
PHANTOM
 62
     8
100
AcDbLine
 10
95.25824025423224
 20
40.21664911891571
 30
0.0
 11
97.90004025423224
 21
40.21664911891571
 31
0.0
  0
ARC
  5
526A
330
1A
100
AcDbEntity
  8
NOKITOI
  6
PHANTOM
 62
     8
100
AcDbCircle
 10
99.89904025423237
 20
40.40904911891584
 30
0.0
 40
0.1990000000000691
100
AcDbArc
 50
179.9999999999837
 51
269.9999999999837
  0
LINE
  5
526B
330
1A
100
AcDbEntity
  8
NOKITOI
  6
PHANTOM
 62
     8
100
AcDbLine
 10
98.89504025423224
 20
48.10124911891563
 30
0.0
 11
98.03774025423223
 21
47.60634911891583
 31
0.0
  0
LINE
  5
526C
330
1A
100
AcDbEntity
  8
NOKITOI
  6
PHANTOM
 62
     8
100
AcDbLine
 10
98.89504025423224
 20
48.10124911891563
 30
0.0
 11
98.40004025423224
 21
47.24394911891585
 31
0.0
  0
LINE
  5
526D
330
1A
100
AcDbEntity
  8
NOKITOI
  6
PHANTOM
 62
     8
100
AcDbLine
 10
151.4982402542323
 20
40.20994911891569
 30
0.0
 11
136.7438402542322
 21
40.20994911891569
 31
0.0
  0
LINE
  5
526E
330
1A
100
AcDbEntity
  8
NOKITOI
  6
PHANTOM
 62
     8
100
AcDbLine
 10
163.5802402542321
 20
47.6059491189157
 30
0.0
 11
157.3596402542323
 21
47.6059491189157
 31
0.0
  0
ARC
  5
526F
330
1A
100
AcDbEntity
  8
NOKITOI
  6
PHANTOM
 62
     8
100
AcDbCircle
 10
160.1390632953605
 20
40.71656798320407
 30
0.0
 40
0.5000188648190603
100
AcDbArc
 50
269.9973597808037
 51
348.6132711445597
  0
ARC
  5
5270
330
1A
100
AcDbEntity
  8
NOKITOI
  6
PHANTOM
 62
     8
100
AcDbCircle
 10
174.5841987089231
 20
37.8101642543595
 30
0.0
 40
14.23462403148678
100
AcDbArc
 50
139.2075062369008
 51
168.623785948384
  0
LINE
  5
5271
330
1A
100
AcDbEntity
  8
NOKITOI
  6
PHANTOM
 62
     8
100
AcDbLine
 10
156.9973402542323
 20
47.24364911891569
 30
0.0
 11
156.9973402542323
 21
40.71654911891573
 31
0.0
  0
ARC
  5
5272
330
1A
100
AcDbEntity
  8
NOKITOI
  6
PHANTOM
 62
     8
100
AcDbCircle
 10
155.4981902542322
 20
40.40899911891574
 30
0.0
 40
0.1990500062799141
100
AcDbArc
 50
270.0143923080609
 51
0.0143923080609162
  0
LINE
  5
5273
330
1A
100
AcDbEntity
  8
NOKITOI
  6
PHANTOM
 62
     8
100
AcDbLine
 10
160.1390402542323
 20
40.21654911891585
 30
0.0
 11
157.4973402542323
 21
40.21654911891585
 31
0.0
  0
ARC
  5
5274
330
1A
100
AcDbEntity
  8
NOKITOI
  6
PHANTOM
 62
     8
100
AcDbCircle
 10
157.4973402542322
 20
40.71654911891585
 30
0.0
 40
0.4999999999999432
100
AcDbArc
 50
180.0000000000065
 51
270.0000000000065
  0
LINE
  5
5275
330
1A
100
AcDbEntity
  8
NOKITOI
  6
PHANTOM
 62
     8
100
AcDbLine
 10
156.5023402542321
 20
48.10094911891571
 30
0.0
 11
157.3596402542323
 21
47.6059491189157
 31
0.0
  0
LINE
  5
5276
330
1A
100
AcDbEntity
  8
NOKITOI
  6
PHANTOM
 62
     8
100
AcDbLine
 10
156.5023402542321
 20
48.10094911891571
 30
0.0
 11
156.9973402542323
 21
47.24364911891569
 31
0.0
  0
ARC
  5
5277
330
1A
100
AcDbEntity
  8
NOKITOI
  6
PHANTOM
 62
     8
100
AcDbCircle
 10
160.8139901823282
 20
39.91159200651441
 30
0.0
 40
0.9950428888512103
100
AcDbArc
 50
269.9971250795227
 51
351.3214426795066
  0
ARC
  5
5278
330
1A
100
AcDbEntity
  8
NOKITOI
  6
PHANTOM
 62
     8
100
AcDbCircle
 10
163.5802539320836
 20
47.30591925522185
 30
0.0
 40
0.3000298640056128
100
AcDbArc
 50
319.2190584222772
 51
90.00261201719977
  0
LINE
  5
5279
330
1A
100
AcDbEntity
  8
SEIHIN
100
AcDbLine
 10
130.8987620122321
 20
109.7277325207533
 30
0.0
 11
176.2199053742321
 21
115.2924692077533
 31
0.0
  0
LINE
  5
527A
330
1A
100
AcDbEntity
  8
SEIHIN
100
AcDbLine
 10
132.7760716482321
 20
103.9131782067532
 30
0.0
 11
176.9511214342321
 21
109.3371922977532
 31
0.0
  0
LINE
  5
527B
330
1A
100
AcDbEntity
  8
SEIHIN
100
AcDbLine
 10
164.5799902542321
 20
101.5220491197532
 30
0.0
 11
150.9527902542321
 21
84.29014911975327
 31
0.0
  0
LINE
  5
527C
330
1A
100
AcDbEntity
  8
SEIHIN
100
AcDbLine
 10
120.2628067762322
 20
75.22054911975328
 30
0.0
 11
154.1329902542321
 21
75.22054911975328
 31
0.0
  0
LINE
  5
527D
330
1A
100
AcDbEntity
  8
SEIHIN
100
AcDbLine
 10
156.3655902542322
 20
72.72054911975328
 30
0.0
 11
120.2628067762322
 21
72.72054911975328
 31
0.0
  0
LINE
  5
527E
330
1A
100
AcDbEntity
  8
SEIHIN
100
AcDbLine
 10
157.2962902542322
 20
81.22064911975327
 30
0.0
 11
120.2628067762322
 21
81.22064911975327
 31
0.0
  0
LINE
  5
527F
330
1A
100
AcDbEntity
  8
SEIHIN
100
AcDbLine
 10
121.6956867152321
 20
86.76699347975329
 30
0.0
 11
127.1856230772321
 21
99.70047304475333
 31
0.0
  0
LINE
  5
5280
330
1A
100
AcDbEntity
  8
SEIHIN
100
AcDbLine
 10
102.5679971142321
 20
99.85585896175331
 30
0.0
 11
101.7988442242321
 21
94.40990597975332
 31
0.0
  0
CIRCLE
  5
5281
330
1A
100
AcDbEntity
  8
SEIHIN
100
AcDbCircle
 10
110.2628067742321
 20
94.52064911975327
 30
0.0
 40
3.500000004238516
  0
ARC
  5
5282
330
1A
100
AcDbEntity
  8
SEIHIN
100
AcDbCircle
 10
110.7628067742321
 20
91.02064911975327
 30
0.0
 40
9.535085152808647
100
AcDbArc
 50
4.916661302937096
 51
179.9998615479522
  0
LINE
  5
5283
330
1A
100
AcDbEntity
  8
SEIHIN
100
AcDbLine
 10
95.26280677423216
 20
70.52704546975326
 30
0.0
 11
120.2628067762322
 21
70.52704546975326
 31
0.0
  0
LINE
  5
5284
330
1A
100
AcDbEntity
  8
SEIHIN
100
AcDbLine
 10
95.26280677423216
 20
70.52704546975326
 30
0.0
 11
95.26280677423216
 21
89.52704547175324
 31
0.0
  0
LINE
  5
5285
330
1A
100
AcDbEntity
  8
NOKITOI
  6
PHANTOM
 62
     8
100
AcDbLine
 10
99.70014025423239
 20
48.90634911891578
 30
0.0
 11
89.78944025423237
 21
48.90634911891578
 31
0.0
  0
ARC
  5
5286
330
1A
100
AcDbEntity
  8
NOKITOI
  6
PHANTOM
 62
     8
100
AcDbCircle
 10
89.78944356659139
 20
49.10534796313033
 30
0.0
 40
0.1989988442421132
100
AcDbArc
 50
231.5280949042409
 51
269.9990463050553
  0
LINE
  5
5287
330
1A
100
AcDbEntity
  8
SEIHIN
100
AcDbLine
 10
99.22771810423217
 20
89.52704311375327
 30
0.0
 11
99.22770197423217
 21
82.68892165975325
 31
0.0
  0
LINE
  5
5288
330
1A
100
AcDbEntity
  8
SEIHIN
100
AcDbLine
 10
101.2277216242321
 20
91.02067216075329
 30
0.0
 11
101.2277019742321
 21
82.68892165975325
 31
0.0
  0
LINE
  5
5289
330
1A
100
AcDbEntity
  8
SEIHIN
100
AcDbLine
 10
95.26280677423216
 20
81.22064911975327
 30
0.0
 11
90.34949025423214
 21
81.22064911975327
 31
0.0
  0
ARC
  5
528A
330
1A
100
AcDbEntity
  8
SEIHIN
100
AcDbCircle
 10
96.49968981423217
 20
78.22068177975324
 30
0.0
 40
3.000032662681521
100
AcDbArc
 50
233.9758085673714
 51
245.6512385050323
  0
ARC
  5
528B
330
1A
100
AcDbEntity
  8
SEIHIN
100
AcDbCircle
 10
96.33722836423215
 20
77.72066923975325
 30
0.0
 40
5.000020122542945
100
AcDbArc
 50
233.9730830341292
 51
257.5913101544815
  0
LINE
  5
528C
330
1A
100
AcDbEntity
  8
SEIHIN
100
AcDbLine
 10
89.76129025423217
 20
79.41184911975324
 30
0.0
 11
94.73529025423216
 21
75.79434911975329
 31
0.0
  0
ARC
  5
528D
330
1A
100
AcDbEntity
  8
SEIHIN
100
AcDbCircle
 10
90.34947914423218
 20
80.22061494975327
 30
0.0
 40
1.00003416926274
100
AcDbArc
 50
89.99936346563975
 51
233.9728323870002
  0
LINE
  5
528E
330
1A
100
AcDbEntity
  8
SEIHIN
100
AcDbLine
 10
99.22770197423217
 20
82.68892165975325
 30
0.0
 11
101.2277019742321
 21
82.68892165975325
 31
0.0
  0
LINE
  5
528F
330
1A
100
AcDbEntity
  8
SEIHIN
100
AcDbLine
 10
100.8628067742321
 20
89.72064911975326
 30
0.0
 11
100.8627926242321
 21
83.7206467617533
 31
0.0
  0
LINE
  5
5290
330
1A
100
AcDbEntity
  8
SEIHIN
100
AcDbLine
 10
99.86280677423218
 20
89.72064911975326
 30
0.0
 11
99.86279262423217
 21
83.72064911975327
 31
0.0
  0
LINE
  5
5291
330
1A
100
AcDbEntity
  8
SEIHIN
100
AcDbLine
 10
99.22770440790698
 20
83.72064911975327
 30
0.0
 11
101.2277044042321
 21
83.72064911975327
 31
0.0
  0
ARC
  5
5292
330
1A
100
AcDbEntity
  8
SEIHIN
100
AcDbCircle
 10
98.22771810423217
 20
89.52704547175324
 30
0.0
 40
1.000000000001389
100
AcDbArc
 50
359.9998648965509
 51
90.0
  0
LINE
  5
5293
330
1A
100
AcDbEntity
  8
SEIHIN
100
AcDbLine
 10
98.22771810423217
 20
90.52704547175324
 30
0.0
 11
96.26280677423217
 21
90.52704547175324
 31
0.0
  0
ARC
  5
5294
330
1A
100
AcDbEntity
  8
SEIHIN
100
AcDbCircle
 10
96.26280677423217
 20
89.52704547175324
 30
0.0
 40
1.0
100
AcDbArc
 50
90.0
 51
180.0
  0
LINE
  5
5295
330
1A
100
AcDbEntity
  8
SEIHIN
100
AcDbLine
 10
99.86280677423218
 20
89.72064911975326
 30
0.0
 11
101.2277185542321
 21
89.72064911975326
 31
0.0
  0
LINE
  5
5296
330
1A
100
AcDbEntity
  8
SEIHIN
100
AcDbLine
 10
107.7628067742321
 20
81.22064911975327
 30
0.0
 11
112.7628067742321
 21
81.22064911975327
 31
0.0
  0
LINE
  5
5297
330
1A
100
AcDbEntity
  8
SEIHIN
100
AcDbLine
 10
110.2628067742321
 20
75.22064911975326
 30
0.0
 11
111.4175073142321
 21
73.22064911975326
 31
0.0
  0
LINE
  5
5298
330
1A
100
AcDbEntity
  8
SEIHIN
100
AcDbLine
 10
111.4175073142321
 20
73.22064911975326
 30
0.0
 11
109.1081062342321
 21
73.22064911975326
 31
0.0
  0
LINE
  5
5299
330
1A
100
AcDbEntity
  8
SEIHIN
100
AcDbLine
 10
112.7628067742321
 20
75.22064911975326
 30
0.0
 11
107.7628067742321
 21
75.22064911975326
 31
0.0
  0
MTEXT
  5
529A
330
1A
100
AcDbEntity
  8
SEIHIN
100
AcDbMText
 10
108.6090025542321
 20
78.10063636375327
 30
0.0
 40
2.381249964
 41
0.0
 71
     1
 72
     5
  1
{\W1.460317;10}
1001
ACAD
1000
MTEXTBEGIN
1070
    73
1070
     1
1070
    44
1040
1.0
1070
    74
1070
     0
1000
MTEXTEND
1000
MTEXTBEGIN
1070
    73
1070
     1
1070
    44
1040
1.0
1070
    74
1070
     0
1000
MTEXTEND
1000
MTEXTBEGIN
1070
    73
1070
     1
1070
    44
1040
1.0
1070
    74
1070
     0
1000
MTEXTEND
1000
MTEXTBEGIN
1070
    73
1070
     1
1070
    44
1040
1.0
1070
    74
1070
     0
1000
MTEXTEND
1000
MTEXTBEGIN
1070
    73
1070
     1
1070
    44
1040
1.0
1070
    74
1070
     0
1000
MTEXTEND
1000
MTEXTBEGIN
1070
    73
1070
     1
1070
    44
1040
1.0
1070
    74
1070
     0
1000
MTEXTEND
1000
MTEXTBEGIN
1070
    73
1070
     1
1070
    44
1040
1.0
1070
    74
1070
     0
1000
MTEXTEND
1000
MTEXTBEGIN
1070
    73
1070
     1
1070
    44
1040
1.0
1070
    74
1070
     0
1000
MTEXTEND
1000
MTEXTBEGIN
1070
    73
1070
     1
1070
    44
1040
1.0
1070
    74
1070
     0
1000
MTEXTEND
1000
MTEXTBEGIN
1070
    73
1070
     1
1070
    44
1040
1.0
1070
    74
1070
     0
1000
MTEXTEND
1000
MTEXTBEGIN
1070
    73
1070
     1
1070
    44
1040
1.0
1070
    74
1070
     0
1000
MTEXTEND
1000
MTEXTBEGIN
1070
    73
1070
     1
1070
    44
1040
1.0
1070
    74
1070
     0
1000
MTEXTEND
1000
MTEXTBEGIN
1070
    73
1070
     1
1070
    44
1040
1.0
1070
    74
1070
     0
1000
MTEXTEND
1000
MTEXTBEGIN
1070
    73
1070
     1
1070
    44
1040
1.0
1070
    74
1070
     0
1000
MTEXTEND
1000
MTEXTBEGIN
1070
    73
1070
     1
1070
    44
1040
1.0
1070
    74
1070
     0
1000
MTEXTEND
1000
MTEXTBEGIN
1070
    73
1070
     1
1070
    44
1040
1.0
1070
    74
1070
     0
1000
MTEXTEND
1000
MTEXTBEGIN
1070
    73
1070
     1
1070
    44
1040
1.0
1070
    74
1070
     0
1000
MTEXTEND
  0
LINE
  5
529B
330
1A
100
AcDbEntity
  8
SEIHIN
100
AcDbLine
 10
106.7628067742321
 20
80.22064911975325
 30
0.0
 11
106.7628067742321
 21
76.22064911975326
 31
0.0
  0
ARC
  5
529C
330
1A
100
AcDbEntity
  8
SEIHIN
100
AcDbCircle
 10
107.7628067742321
 20
76.22064911975326
 30
0.0
 40
1.0
100
AcDbArc
 50
180.0
 51
270.0
  0
LINE
  5
529D
330
1A
100
AcDbEntity
  8
SEIHIN
100
AcDbLine
 10
110.2628067742321
 20
75.22064911975326
 30
0.0
 11
109.1081062342321
 21
73.22064911975326
 31
0.0
  0
ARC
  5
529E
330
1A
100
AcDbEntity
  8
SEIHIN
100
AcDbCircle
 10
107.7628067742321
 20
80.22064911975325
 30
0.0
 40
1.0
100
AcDbArc
 50
90.0
 51
180.0
  0
LINE
  5
529F
330
1A
100
AcDbEntity
  8
SEIHIN
100
AcDbLine
 10
110.5128067742321
 20
81.22064911975327
 30
0.0
 11
110.5128067742321
 21
79.22064911975326
 31
0.0
  0
LINE
  5
52A0
330
1A
100
AcDbEntity
  8
SEIHIN
100
AcDbLine
 10
110.0128067742321
 20
79.22064911975326
 30
0.0
 11
110.0128067742321
 21
81.22064911975327
 31
0.0
  0
LINE
  5
52A1
330
1A
100
AcDbEntity
  8
SEIHIN
100
AcDbLine
 10
110.5128067742321
 20
79.22064911975326
 30
0.0
 11
110.0128067742321
 21
79.22064911975326
 31
0.0
  0
LINE
  5
52A2
330
1A
100
AcDbEntity
  8
SEIHIN
100
AcDbLine
 10
110.0128067742321
 20
81.22064911975327
 30
0.0
 11
110.5128067742321
 21
81.22064911975327
 31
0.0
  0
LINE
  5
52A3
330
1A
100
AcDbEntity
  8
SEIHIN
100
AcDbLine
 10
110.0195567742321
 20
81.22064911975327
 30
0.0
 11
110.5195567742321
 21
81.22064911975327
 31
0.0
  0
LINE
  5
52A4
330
1A
100
AcDbEntity
  8
SEIHIN
100
AcDbLine
 10
113.7628067742321
 20
80.22064911975325
 30
0.0
 11
113.7628067742321
 21
76.22064911975326
 31
0.0
  0
ARC
  5
52A5
330
1A
100
AcDbEntity
  8
SEIHIN
100
AcDbCircle
 10
112.7628067742321
 20
76.22064911975326
 30
0.0
 40
1.0
100
AcDbArc
 50
270.0
 51
0.0
  0
ARC
  5
52A6
330
1A
100
AcDbEntity
  8
SEIHIN
100
AcDbCircle
 10
112.7628067742321
 20
80.22064911975325
 30
0.0
 40
1.0
100
AcDbArc
 50
0.0
 51
90.0
  0
LINE
  5
52A7
330
1A
100
AcDbEntity
  8
SEIHIN
100
AcDbLine
 10
120.2628067762322
 20
70.52704546975326
 30
0.0
 11
120.2628067762322
 21
91.83786933875325
 31
0.0
  0
LINE
  5
52A8
330
1A
100
AcDbEntity
  8
SEIHIN
100
AcDbLine
 10
149.7761902542321
 20
83.72064911975327
 30
0.0
 11
120.2628067762322
 21
83.72064911975327
 31
0.0
  0
MTEXT
  5
52A9
330
1A
100
AcDbEntity
  8
SEIHIN
100
AcDbMText
 10
121.2116273482321
 20
78.13242634375325
 30
0.0
 40
2.381249964
 41
0.0
 71
     1
 72
     5
  1
{\W1.703704;0}
1001
ACAD
1000
MTEXTBEGIN
1070
    73
1070
     1
1070
    44
1040
1.0
1070
    74
1070
     0
1000
MTEXTEND
1000
MTEXTBEGIN
1070
    73
1070
     1
1070
    44
1040
1.0
1070
    74
1070
     0
1000
MTEXTEND
1000
MTEXTBEGIN
1070
    73
1070
     1
1070
    44
1040
1.0
1070
    74
1070
     0
1000
MTEXTEND
1000
MTEXTBEGIN
1070
    73
1070
     1
1070
    44
1040
1.0
1070
    74
1070
     0
1000
MTEXTEND
1000
MTEXTBEGIN
1070
    73
1070
     1
1070
    44
1040
1.0
1070
    74
1070
     0
1000
MTEXTEND
1000
MTEXTBEGIN
1070
    73
1070
     1
1070
    44
1040
1.0
1070
    74
1070
     0
1000
MTEXTEND
1000
MTEXTBEGIN
1070
    73
1070
     1
1070
    44
1040
1.0
1070
    74
1070
     0
1000
MTEXTEND
1000
MTEXTBEGIN
1070
    73
1070
     1
1070
    44
1040
1.0
1070
    74
1070
     0
1000
MTEXTEND
1000
MTEXTBEGIN
1070
    73
1070
     1
1070
    44
1040
1.0
1070
    74
1070
     0
1000
MTEXTEND
1000
MTEXTBEGIN
1070
    73
1070
     1
1070
    44
1040
1.0
1070
    74
1070
     0
1000
MTEXTEND
1000
MTEXTBEGIN
1070
    73
1070
     1
1070
    44
1040
1.0
1070
    74
1070
     0
1000
MTEXTEND
1000
MTEXTBEGIN
1070
    73
1070
     1
1070
    44
1040
1.0
1070
    74
1070
     0
1000
MTEXTEND
1000
MTEXTBEGIN
1070
    73
1070
     1
1070
    44
1040
1.0
1070
    74
1070
     0
1000
MTEXTEND
1000
MTEXTBEGIN
1070
    73
1070
     1
1070
    44
1040
1.0
1070
    74
1070
     0
1000
MTEXTEND
1000
MTEXTBEGIN
1070
    73
1070
     1
1070
    44
1040
1.0
1070
    74
1070
     0
1000
MTEXTEND
1000
MTEXTBEGIN
1070
    73
1070
     1
1070
    44
1040
1.0
1070
    74
1070
     0
1000
MTEXTEND
1000
MTEXTBEGIN
1070
    73
1070
     1
1070
    44
1040
1.0
1070
    74
1070
     0
1000
MTEXTEND
  0
LINE
  5
52AA
330
1A
100
AcDbEntity
  8
SEIHIN
100
AcDbLine
 10
120.5128067762321
 20
79.22064911975326
 30
0.0
 11
120.2628067762322
 21
79.22064911975326
 31
0.0
  0
LINE
  5
52AB
330
1A
100
AcDbEntity
  8
SEIHIN
100
AcDbLine
 10
120.2628067762322
 20
81.22064911975327
 30
0.0
 11
120.5128067762321
 21
81.22064911975327
 31
0.0
  0
LINE
  5
52AC
330
1A
100
AcDbEntity
  8
SEIHIN
100
AcDbLine
 10
120.5128067762321
 20
81.22064911975327
 30
0.0
 11
120.5128067762321
 21
79.22064911975326
 31
0.0
  0
LINE
  5
52AD
330
1A
100
AcDbEntity
  8
SEIHIN
100
AcDbLine
 10
125.5128067767321
 20
81.22064911975327
 30
0.0
 11
125.5128067767321
 21
79.22064911975326
 31
0.0
  0
LINE
  5
52AE
330
1A
100
AcDbEntity
  8
SEIHIN
100
AcDbLine
 10
125.0128067767321
 20
79.22064911975326
 30
0.0
 11
125.0128067767321
 21
81.22064911975327
 31
0.0
  0
LINE
  5
52AF
330
1A
100
AcDbEntity
  8
SEIHIN
100
AcDbLine
 10
125.5128067767321
 20
79.22064911975326
 30
0.0
 11
125.0128067767321
 21
79.22064911975326
 31
0.0
  0
LINE
  5
52B0
330
1A
100
AcDbEntity
  8
SEIHIN
100
AcDbLine
 10
125.0128067767321
 20
81.22064911975327
 30
0.0
 11
125.5128067767321
 21
81.22064911975327
 31
0.0
  0
MTEXT
  5
52B1
330
1A
100
AcDbEntity
  8
SEIHIN
100
AcDbMText
 10
128.3537990332321
 20
78.13242634375325
 30
0.0
 40
2.381249964
 41
0.0
 71
     1
 72
     5
  1
{\W1.135802;30}
1001
ACAD
1000
MTEXTBEGIN
1070
    73
1070
     1
1070
    44
1040
1.0
1070
    74
1070
     0
1000
MTEXTEND
1000
MTEXTBEGIN
1070
    73
1070
     1
1070
    44
1040
1.0
1070
    74
1070
     0
1000
MTEXTEND
1000
MTEXTBEGIN
1070
    73
1070
     1
1070
    44
1040
1.0
1070
    74
1070
     0
1000
MTEXTEND
1000
MTEXTBEGIN
1070
    73
1070
     1
1070
    44
1040
1.0
1070
    74
1070
     0
1000
MTEXTEND
1000
MTEXTBEGIN
1070
    73
1070
     1
1070
    44
1040
1.0
1070
    74
1070
     0
1000
MTEXTEND
1000
MTEXTBEGIN
1070
    73
1070
     1
1070
    44
1040
1.0
1070
    74
1070
     0
1000
MTEXTEND
1000
MTEXTBEGIN
1070
    73
1070
     1
1070
    44
1040
1.0
1070
    74
1070
     0
1000
MTEXTEND
1000
MTEXTBEGIN
1070
    73
1070
     1
1070
    44
1040
1.0
1070
    74
1070
     0
1000
MTEXTEND
1000
MTEXTBEGIN
1070
    73
1070
     1
1070
    44
1040
1.0
1070
    74
1070
     0
1000
MTEXTEND
1000
MTEXTBEGIN
1070
    73
1070
     1
1070
    44
1040
1.0
1070
    74
1070
     0
1000
MTEXTEND
1000
MTEXTBEGIN
1070
    73
1070
     1
1070
    44
1040
1.0
1070
    74
1070
     0
1000
MTEXTEND
1000
MTEXTBEGIN
1070
    73
1070
     1
1070
    44
1040
1.0
1070
    74
1070
     0
1000
MTEXTEND
1000
MTEXTBEGIN
1070
    73
1070
     1
1070
    44
1040
1.0
1070
    74
1070
     0
1000
MTEXTEND
1000
MTEXTBEGIN
1070
    73
1070
     1
1070
    44
1040
1.0
1070
    74
1070
     0
1000
MTEXTEND
1000
MTEXTBEGIN
1070
    73
1070
     1
1070
    44
1040
1.0
1070
    74
1070
     0
1000
MTEXTEND
1000
MTEXTBEGIN
1070
    73
1070
     1
1070
    44
1040
1.0
1070
    74
1070
     0
1000
MTEXTEND
1000
MTEXTBEGIN
1070
    73
1070
     1
1070
    44
1040
1.0
1070
    74
1070
     0
1000
MTEXTEND
  0
LINE
  5
52B2
330
1A
100
AcDbEntity
  8
SEIHIN
100
AcDbLine
 10
130.0128067762321
 20
79.22064911975326
 30
0.0
 11
130.0128067762321
 21
81.22064911975327
 31
0.0
  0
LINE
  5
52B3
330
1A
100
AcDbEntity
  8
SEIHIN
100
AcDbLine
 10
130.5128067762322
 20
79.22064911975326
 30
0.0
 11
130.0128067762321
 21
79.22064911975326
 31
0.0
  0
LINE
  5
52B4
330
1A
100
AcDbEntity
  8
SEIHIN
100
AcDbLine
 10
130.5128067762322
 20
81.22064911975327
 30
0.0
 11
130.5128067762322
 21
79.22064911975326
 31
0.0
  0
LINE
  5
52B5
330
1A
100
AcDbEntity
  8
SEIHIN
100
AcDbLine
 10
130.0128067762321
 20
81.22064911975327
 30
0.0
 11
130.5128067762322
 21
81.22064911975327
 31
0.0
  0
LINE
  5
52B6
330
1A
100
AcDbEntity
  8
SEIHIN
100
AcDbLine
 10
135.0128067742321
 20
79.22064911975326
 30
0.0
 11
135.0128067742321
 21
81.22064911975327
 31
0.0
  0
LINE
  5
52B7
330
1A
100
AcDbEntity
  8
SEIHIN
100
AcDbLine
 10
135.5128067742321
 20
79.22064911975326
 30
0.0
 11
135.0128067742321
 21
79.22064911975326
 31
0.0
  0
LINE
  5
52B8
330
1A
100
AcDbEntity
  8
SEIHIN
100
AcDbLine
 10
135.5128067742321
 20
81.22064911975327
 30
0.0
 11
135.5128067742321
 21
79.22064911975326
 31
0.0
  0
LINE
  5
52B9
330
1A
100
AcDbEntity
  8
SEIHIN
100
AcDbLine
 10
135.0128067742321
 20
81.22064911975327
 30
0.0
 11
135.5128067742321
 21
81.22064911975327
 31
0.0
  0
ARC
  5
52BA
330
1A
100
AcDbEntity
  8
SEIHIN
100
AcDbCircle
 10
117.0931624482321
 20
88.72064911975332
 30
0.0
 40
4.999999998488868
100
AcDbArc
 50
309.3405856461535
 51
337.0000000246323
  0
LINE
  5
52BB
330
1A
100
AcDbEntity
  8
SEIHIN
100
AcDbLine
 10
142.7341902542321
 20
81.22064911975327
 30
0.0
 11
142.7341902542321
 21
75.22064911975326
 31
0.0
  0
ARC
  5
52BC
330
1A
100
AcDbEntity
  8
SEIHIN
100
AcDbCircle
 10
149.7762652442321
 20
85.22068542075329
 30
0.0
 40
1.5000363023233
100
AcDbArc
 50
269.9971356623169
 51
321.6588485138866
  0
LINE
  5
52BD
330
1A
100
AcDbEntity
  8
SEIHIN
100
AcDbLine
 10
119.0125675262321
 20
95.80178877975328
 30
0.0
 11
122.1137714012321
 21
103.1077672657533
 31
0.0
  0
ARC
  5
52BE
330
1A
100
AcDbEntity
  8
SEIHIN
100
AcDbCircle
 10
119.8791324022321
 20
96.51651536975329
 30
0.0
 40
1.999999998034308
100
AcDbArc
 50
81.3925754114239
 51
140.2691567429563
  0
LINE
  5
52BF
330
1A
100
AcDbEntity
  8
SEIHIN
100
AcDbLine
 10
120.2531541692321
 20
100.4901192417532
 30
0.0
 11
108.5766981742321
 21
102.1392300517533
 31
0.0
  0
LINE
  5
52C0
330
1A
100
AcDbEntity
  8
SEIHIN
100
AcDbLine
 10
120.3183797862321
 20
99.47098292175333
 30
0.0
 11
107.9120603642321
 21
101.2231751527532
 31
0.0
  0
ARC
  5
52C1
330
1A
100
AcDbEntity
  8
SEIHIN
100
AcDbCircle
 10
103.5581703842321
 20
99.71601298075331
 30
0.0
 40
1.000000000382152
100
AcDbArc
 50
81.96106612019018
 51
171.9610661362135
  0
ARC
  5
52C2
330
1A
100
AcDbEntity
  8
SEIHIN
100
AcDbCircle
 10
106.9077310842321
 20
101.2627901427533
 30
0.0
 40
1.000000000947164
100
AcDbArc
 50
261.9610661282026
 51
351.9610660794812
  0
LINE
  5
52C3
330
1A
100
AcDbEntity
  8
SEIHIN
100
AcDbLine
 10
106.7678851042321
 20
100.2726168737532
 30
0.0
 11
103.6980163642321
 21
100.7061862487532
 31
0.0
  0
ARC
  5
52C4
330
1A
100
AcDbEntity
  8
SEIHIN
100
AcDbCircle
 10
108.5025798042321
 20
101.6144382197533
 30
0.0
 40
0.5299999986619547
100
AcDbArc
 50
81.96106605535982
 51
171.9610661321678
  0
LINE
  5
52C5
330
1A
100
AcDbEntity
  8
SEIHIN
100
AcDbLine
 10
107.8979043542321
 20
101.1229441617533
 30
0.0
 11
107.9777879742321
 21
101.6885565897533
 31
0.0
  0
LINE
  5
52C6
330
1A
100
AcDbEntity
  8
SEIHIN
100
AcDbLine
 10
117.9338915492321
 20
97.3050259397533
 30
0.0
 11
118.3410212352321
 21
97.7948791797533
 31
0.0
  0
ARC
  5
52C7
330
1A
100
AcDbEntity
  8
SEIHIN
100
AcDbCircle
 10
132.2393247892321
 20
98.80972485275329
 30
0.0
 40
10.99999999988113
100
AcDbArc
 50
96.99999999767376
 51
157.0000000018785
  0
ARC
  5
52C8
330
1A
100
AcDbEntity
  8
SEIHIN
100
AcDbCircle
 10
133.6291570522321
 20
96.9653551497533
 30
0.0
 40
6.999999997300971
100
AcDbArc
 50
97.00000000580986
 51
157.0000000360039
  0
LINE
  5
52C9
330
1A
100
AcDbEntity
  8
SEIHIN
100
AcDbLine
 10
120.2531541692321
 20
100.4901192417532
 30
0.0
 11
121.3543965632321
 21
101.3187922557532
 31
0.0
  0
ARC
  5
52CA
330
1A
100
AcDbEntity
  8
SEIHIN
100
AcDbCircle
 10
120.3883027772321
 20
99.96606955575328
 30
0.0
 40
0.4999999993033452
100
AcDbArc
 50
261.9610660067247
 51
306.9610660871877
  0
LINE
  5
52CB
330
1A
100
AcDbEntity
  8
SEIHIN
100
AcDbLine
 10
131.5751102722321
 20
112.1107221617533
 30
0.0
 11
130.6690898742321
 21
112.5339561847533
 31
0.0
  0
LINE
  5
52CC
330
1A
100
AcDbEntity
  8
SEIHIN
100
AcDbLine
 10
129.2254387742321
 20
109.3887839357532
 30
0.0
 11
130.6690898742321
 21
112.5339561847533
 31
0.0
  0
LINE
  5
52CD
330
1A
100
AcDbEntity
  8
SEIHIN
100
AcDbLine
 10
130.4579775312321
 20
109.6645303297532
 30
0.0
 11
131.5751102722321
 21
112.1107221617533
 31
0.0
  0
LINE
  5
52CE
330
1A
100
AcDbEntity
  8
SEIHIN
100
AcDbLine
 10
197.1604501042321
 20
113.6501341057533
 30
0.0
 11
215.6822973042321
 21
82.78038877975331
 31
0.0
  0
LINE
  5
52CF
330
1A
100
AcDbEntity
  8
SEIHIN
100
AcDbLine
 10
198.1894416142321
 20
114.2675290117533
 30
0.0
 11
216.7112888142321
 21
83.39778368975329
 31
0.0
  0
LINE
  5
52D0
330
1A
100
AcDbEntity
  8
SEIHIN
100
AcDbLine
 10
210.9660862042321
 20
79.95066212975331
 30
0.0
 11
192.4442390142321
 21
110.8204074507532
 31
0.0
  0
ARC
  5
52D1
330
1A
100
AcDbEntity
  8
SEIHIN
100
AcDbCircle
 10
182.5525902542322
 20
97.92064911975325
 30
0.0
 40
3.0
100
AcDbArc
 50
270.0
 51
90.0
  0
ARC
  5
52D2
330
1A
100
AcDbEntity
  8
SEIHIN
100
AcDbCircle
 10
179.7025902542321
 20
93.42054911955324
 30
0.0
 40
10.0000000001
100
AcDbArc
 50
0.0
 51
90.0
  0
ARC
  5
52D3
330
1A
100
AcDbEntity
  8
SEIHIN
100
AcDbCircle
 10
171.6484853642321
 20
91.92054675175326
 30
0.0
 40
3.000002368933987
100
AcDbArc
 50
89.99990660795349
 51
141.6619327663495
  0
LINE
  5
52D4
330
1A
100
AcDbEntity
  8
SEIHIN
100
AcDbLine
 10
166.3907902542321
 20
99.78144911975329
 30
0.0
 11
154.9709902542321
 21
85.34094911975325
 31
0.0
  0
ARC
  5
52D5
330
1A
100
AcDbEntity
  8
SEIHIN
100
AcDbCircle
 10
185.2025902542321
 20
75.05166573975327
 30
0.0
 40
4.500000000783715
100
AcDbArc
 50
216.0326608768124
 51
0.0
  0
ARC
  5
52D6
330
1A
100
AcDbEntity
  8
SEIHIN
100
AcDbCircle
 10
178.7025902542321
 20
86.42054911975327
 30
0.0
 40
5.999999999899999
100
AcDbArc
 50
0.0
 51
90.0
  0
LINE
  5
52D7
330
1A
100
AcDbEntity
  8
NOKITOI
  6
PHANTOM
 62
     8
100
AcDbLine
 10
171.8242402542323
 20
51.02514911891564
 30
0.0
 11
177.6629402542321
 21
78.75654911891564
 31
0.0
  0
LINE
  5
52D8
330
1A
100
AcDbEntity
  8
NOKITOI
  6
PHANTOM
 62
     8
100
AcDbLine
 10
170.7155402542323
 20
52.03764911891579
 30
0.0
 11
176.1705402542322
 21
77.94654911891569
 31
0.0
  0
ARC
  5
52D9
330
1A
100
AcDbEntity
  8
NOKITOI
  6
PHANTOM
 62
     8
100
AcDbCircle
 10
174.5842547577809
 20
37.81025704310422
 30
0.0
 40
14.22809199964113
100
AcDbArc
 50
108.5474584936554
 51
128.7537062451651
  0
LINE
  5
52DA
330
1A
100
AcDbEntity
  8
NOKITOI
  6
PHANTOM
 62
     8
100
AcDbLine
 10
155.6973402542321
 20
48.90604911891563
 30
0.0
 11
165.6778402542322
 21
48.90594911891577
 31
0.0
  0
ARC
  5
52DB
330
1A
100
AcDbEntity
  8
NOKITOI
  6
PHANTOM
 62
     8
100
AcDbCircle
 10
170.8506145910844
 20
51.23022837030323
 30
0.0
 40
0.9949690575286499
100
AcDbArc
 50
285.5437330810335
 51
348.1110361155306
  0
ARC
  5
52DC
330
1A
100
AcDbEntity
  8
NOKITOI
  6
PHANTOM
 62
     8
100
AcDbCircle
 10
169.7419838237834
 20
52.24269807068464
 30
0.0
 40
0.9950135261271753
100
AcDbArc
 50
288.5445751594485
 51
348.1074736523477
  0
LINE
  5
52DD
330
1A
100
AcDbEntity
  8
SEIHIN
100
AcDbLine
 10
160.2952902542321
 20
75.60614911975324
 30
0.0
 11
173.6896902542321
 21
77.31564911975329
 31
0.0
  0
LINE
  5
52DE
330
1A
100
AcDbEntity
  8
SEIHIN
100
AcDbLine
 10
156.3655902542322
 20
72.72054911975328
 30
0.0
 11
173.8802902542321
 21
76.13154911975328
 31
0.0
  0
LINE
  5
52DF
330
1A
100
AcDbEntity
  8
SEIHIN
100
AcDbLine
 10
169.9049902542322
 20
90.52194911975329
 30
0.0
 11
159.3842902542321
 21
77.21844911975324
 31
0.0
  0
LINE
  5
52E0
330
1A
100
AcDbEntity
  8
SEIHIN
100
AcDbLine
 10
169.2953902542321
 20
93.78144911955326
 30
0.0
 11
161.6393902542322
 21
84.10034911975328
 31
0.0
  0
LINE
  5
52E1
330
1A
100
AcDbEntity
  8
SEIHIN
100
AcDbLine
 10
154.9173902542321
 20
75.60024911975324
 30
0.0
 11
158.0806902542321
 21
79.60034911975327
 31
0.0
  0
ARC
  5
52E2
330
1A
100
AcDbEntity
  8
SEIHIN
100
AcDbCircle
 10
154.1330188842321
 20
76.22056297975325
 30
0.0
 40
1.000013862902801
100
AcDbArc
 50
269.9983596445684
 51
321.6615704529417
  0
ARC
  5
52E3
330
1A
100
AcDbEntity
  8
SEIHIN
100
AcDbCircle
 10
160.1686950542321
 20
76.59814062975328
 30
0.0
 40
1.000036752725678
100
AcDbArc
 50
141.6629998625315
 51
277.2726171970297
  0
ARC
  5
52E4
330
1A
100
AcDbEntity
  8
SEIHIN
100
AcDbCircle
 10
157.2962969642321
 20
80.2206352597533
 30
0.0
 40
1.00001386218148
100
AcDbArc
 50
321.6635952327493
 51
90.0003844493519
  0
LINE
  5
52E5
330
1A
100
AcDbEntity
  8
SEIHIN
100
AcDbLine
 10
160.8549902542321
 20
83.72064911975327
 30
0.0
 11
155.7553902542321
 21
83.72064911975327
 31
0.0
  0
ARC
  5
52E6
330
1A
100
AcDbEntity
  8
SEIHIN
100
AcDbCircle
 10
155.7553985542321
 20
84.7206319697533
 30
0.0
 40
0.9999828485094189
100
AcDbArc
 50
141.6672292746693
 51
269.9995244368737
  0
ARC
  5
52E7
330
1A
100
AcDbEntity
  8
SEIHIN
100
AcDbCircle
 10
160.8550188842321
 20
84.72066298175326
 30
0.0
 40
1.000013864523104
100
AcDbArc
 50
269.9983596445718
 51
321.6615703630643
  0
LINE
  5
52E8
330
1A
100
AcDbEntity
  8
NOKITOI
  6
PHANTOM
 62
     8
100
AcDbLine
 10
183.4008402542323
 20
80.21444911891563
 30
0.0
 11
183.4008402542323
 21
87.61394911891585
 31
0.0
  0
LINE
  5
52E9
330
1A
100
AcDbEntity
  8
NOKITOI
  6
PHANTOM
 62
     8
100
AcDbLine
 10
184.7008402542323
 20
79.90944911891569
 30
0.0
 11
184.7008402542323
 21
87.91904911891567
 31
0.0
  0
LINE
  5
52EA
330
1A
100
AcDbEntity
  8
NOKITOI
  6
PHANTOM
 62
     8
100
AcDbLine
 10
176.1705402542322
 20
77.94654911891569
 30
0.0
 11
178.4796402542321
 21
88.9139491189157
 31
0.0
  0
LINE
  5
52EB
330
1A
100
AcDbEntity
  8
NOKITOI
  6
PHANTOM
 62
     8
100
AcDbLine
 10
179.5344402542321
 20
87.61394911891585
 30
0.0
 11
177.9765402542323
 21
80.21454911891572
 31
0.0
  0
LINE
  5
52EC
330
1A
100
AcDbEntity
  8
SEIHIN
100
AcDbLine
 10
184.7025902542321
 20
76.82574795975324
 30
0.0
 11
184.7025902542321
 21
86.42054911975327
 31
0.0
  0
ARC
  5
52ED
330
1A
100
AcDbEntity
  8
SEIHIN
100
AcDbCircle
 10
173.7655927742321
 20
76.72050945975326
 30
0.0
 40
0.5999603391169003
100
AcDbArc
 50
269.9997593418182
 51
97.26811277064525
  0
LINE
  5
52EE
330
1A
100
AcDbEntity
  8
SEIHIN
100
AcDbLine
 10
180.6128902542321
 20
78.66104911975327
 30
0.0
 11
183.9215246642321
 21
76.41222391975327
 31
0.0
  0
ARC
  5
52EF
330
1A
100
AcDbEntity
  8
SEIHIN
100
AcDbCircle
 10
179.7696820842321
 20
77.42053791975326
 30
0.0
 40
1.500013201217973
100
AcDbArc
 50
61.61017886408406
 51
226.1911119609332
  0
LINE
  5
52F0
330
1A
100
AcDbEntity
  8
SEIHIN
100
AcDbLine
 10
181.5635221442321
 20
72.40455725975329
 30
0.0
 11
178.5566902542321
 21
76.53814911975326
 31
0.0
  0
ARC
  5
52F1
330
1A
100
AcDbEntity
  8
SEIHIN
100
AcDbCircle
 10
184.2025902542321
 20
76.82574795975324
 30
0.0
 40
0.4999999987699835
100
AcDbArc
 50
235.7966882627013
 51
0.0
  0
LINE
  5
52F2
330
1A
100
AcDbEntity
  8
NOKITOI
  6
PHANTOM
 62
     8
100
AcDbLine
 10
177.8576402542322
 20
78.91444911891579
 30
0.0
 11
183.7058402542323
 21
78.91444911891579
 31
0.0
  0
LINE
  5
52F3
330
1A
100
AcDbEntity
  8
NOKITOI
  6
PHANTOM
 62
     8
100
AcDbLine
 10
183.4008402542323
 20
80.21444911891563
 30
0.0
 11
177.9765402542323
 21
80.21454911891572
 31
0.0
  0
ARC
  5
52F4
330
1A
100
AcDbEntity
  8
NOKITOI
  6
PHANTOM
 62
     8
100
AcDbCircle
 10
177.8576586968465
 20
78.7155640823525
 30
0.0
 40
0.1989850374179911
100
AcDbArc
 50
90.00531036897097
 51
168.1136861719431
  0
ARC
  5
52F5
330
1A
100
AcDbEntity
  8
NOKITOI
  6
PHANTOM
 62
     8
100
AcDbCircle
 10
183.7058402542324
 20
79.90944911891574
 30
0.0
 40
0.9949999999999192
100
AcDbArc
 50
269.9999999999951
 51
359.9999999999951
  0
LINE
  5
52F6
330
1A
100
AcDbEntity
  8
SEIHIN
100
AcDbLine
 10
171.6484902542321
 20
94.92054911975328
 30
0.0
 11
182.5525902542322
 21
94.92064911975324
 31
0.0
  0
LINE
  5
52F7
330
1A
100
AcDbEntity
  8
SEIHIN
100
AcDbLine
 10
178.7025902542321
 20
92.42054911955325
 30
0.0
 11
173.8268902542321
 21
92.42054911955325
 31
0.0
  0
ARC
  5
52F8
330
1A
100
AcDbEntity
  8
SEIHIN
100
AcDbCircle
 10
173.8268280942321
 20
87.42051902675326
 30
0.0
 40
5.000030094599926
100
AcDbArc
 50
89.99928770315646
 51
141.6617877220316
  0
LINE
  5
52F9
330
1A
100
AcDbEntity
  8
NOKITOI
  6
PHANTOM
 62
     8
100
AcDbLine
 10
183.4008402542323
 20
87.61394911891585
 30
0.0
 11
179.5344402542321
 21
87.61394911891585
 31
0.0
  0
LINE
  5
52FA
330
1A
100
AcDbEntity
  8
NOKITOI
  6
PHANTOM
 62
     8
100
AcDbLine
 10
183.7058402542323
 20
88.91404911891578
 30
0.0
 11
178.5021402542322
 21
88.9139491189157
 31
0.0
  0
ARC
  5
52FB
330
1A
100
AcDbEntity
  8
NOKITOI
  6
PHANTOM
 62
     8
100
AcDbCircle
 10
183.7058402542323
 20
87.91904911891577
 30
0.0
 40
0.9950000000000613
100
AcDbArc
 50
359.9999999999967
 51
89.99999999999674
  0
LINE
  5
52FC
330
1A
100
AcDbEntity
  8
SEIHIN
100
AcDbLine
 10
189.7025902542321
 20
75.05166573975327
 30
0.0
 11
189.7025902542321
 21
93.42054911955324
 31
0.0
  0
LINE
  5
52FD
330
1A
100
AcDbEntity
  8
SEIHIN
100
AcDbLine
 10
216.7112888142321
 20
83.39778368975329
 30
0.0
 11
210.9660862042321
 21
79.95066212975331
 31
0.0
  0
LINE
  5
52FE
330
1A
100
AcDbEntity
  8
SEIHIN
100
AcDbLine
 10
210.0228439900577
 20
92.21281097041437
 30
0.0
 11
208.9938524788004
 21
88.09684492710905
 31
0.0
  0
LINE
  5
52FF
330
1A
100
AcDbEntity
  8
SEIHIN
100
AcDbLine
 10
208.9938524788004
 20
88.09684492710903
 30
0.0
 11
211.5663312560952
 21
89.64033219312966
 31
0.0
  0
LINE
  5
5300
330
1A
100
AcDbEntity
  8
SEIHIN
100
AcDbLine
 10
208.9938524788004
 20
88.09684492710905
 30
0.0
 11
213.1098185221327
 21
87.06785341584497
 31
0.0
  0
ARC
  5
5301
330
1A
100
AcDbEntity
  8
SEIHIN
100
AcDbCircle
 10
186.9562842942321
 20
114.5247768897533
 30
0.0
 40
4.000000001168297
100
AcDbArc
 50
30.96376790583805
 51
170.791845626957
  0
ARC
  5
5302
330
1A
100
AcDbEntity
  8
SEIHIN
100
AcDbCircle
 10
186.9562842942321
 20
114.5247768897533
 30
0.0
 40
10.00000000018544
100
AcDbArc
 50
56.80568942011983
 51
170.7918456103775
  0
LINE
  5
5303
330
1A
100
AcDbEntity
  8
SEIHIN
100
AcDbLine
 10
182.5525902542322
 20
100.9206491197532
 30
0.0
 11
168.7438902542321
 21
100.9205491197532
 31
0.0
  0
LINE
  5
5304
330
1A
100
AcDbEntity
  8
SEIHIN
100
AcDbLine
 10
168.5018902542321
 20
103.4205491197532
 30
0.0
 11
179.7025902542321
 21
103.4205491197532
 31
0.0
  0
ARC
  5
5305
330
1A
100
AcDbEntity
  8
SEIHIN
100
AcDbCircle
 10
168.7438853642321
 20
97.92054675175325
 30
0.0
 40
3.000002368996017
100
AcDbArc
 50
89.99990660795349
 51
141.6619327633552
  0
ARC
  5
5306
330
1A
100
AcDbEntity
  8
SEIHIN
100
AcDbCircle
 10
168.5018280942321
 20
98.42051902675326
 30
0.0
 40
5.000030094699926
100
AcDbArc
 50
89.99928770315646
 51
141.6617877220316
  0
ARC
  5
5307
330
1A
100
AcDbEntity
  8
SEIHIN
100
AcDbCircle
 10
176.0980357842321
 20
116.2850153287533
 30
0.0
 40
0.9999999994877535
100
AcDbArc
 50
277.0000142374863
 51
350.7918456181773
  0
ARC
  5
5308
330
1A
100
AcDbEntity
  8
SEIHIN
100
AcDbCircle
 10
176.0980357842321
 20
116.2850153287533
 30
0.0
 40
6.999999997359642
100
AcDbArc
 50
276.9999999693237
 51
350.7918456020168
  0
LINE
  5
5309
330
1A
100
AcDbEntity
  8
SEIHIN
100
AcDbLine
 10
192.4310856027186
 20
122.8929637086707
 30
0.0
 11
197.7606951542321
 21
114.0102811347533
 31
0.0
  0
LINE
  5
530A
330
1A
100
AcDbEntity
  8
SEIHIN
100
AcDbLine
 10
198.7039373691844
 20
105.2467034468394
 30
0.0
 11
202.8199034125166
 21
104.2177119355754
 31
0.0
  0
LINE
  5
530B
330
1A
100
AcDbEntity
  8
CENTER_L
100
AcDbLine
 10
189.2715151953078
 20
102.5027260685759
 30
0.0
 11
207.0216187565927
 21
113.1527882028886
 31
0.0
  0
LINE
  5
530C
330
1A
100
AcDbEntity
  8
CENTER_L
100
AcDbLine
 10
193.6447291142264
 20
95.21403620410525
 30
0.0
 11
211.3948326758584
 21
105.8640983386263
 31
0.0
  0
LINE
  5
530D
330
1A
100
AcDbEntity
  8
SEIHIN
100
AcDbLine
 10
201.2764161464792
 20
106.79019071286
 30
0.0
 11
198.7039373691844
 21
105.2467034468394
 31
0.0
  0
LINE
  5
530E
330
1A
100
AcDbEntity
  8
SEIHIN
100
AcDbLine
 10
199.7329288804417
 20
109.3626694901448
 30
0.0
 11
198.7039373691844
 21
105.2467034468394
 31
0.0
  0
LINE
  5
530F
330
1A
100
AcDbEntity
  8
SEIHIN
100
AcDbLine
 10
190.3862555842321
 20
116.5827605897533
 30
0.0
 11
193.4732305242321
 21
111.4378023577532
 31
0.0
  0
LINE
  5
5310
330
1A
100
AcDbEntity
  8
SEIHIN
100
AcDbLine
 10
192.4442390142321
 20
110.8204074507532
 30
0.0
 11
198.1894416142321
 21
114.2675290117533
 31
0.0
  0
ELLIPSE
  5
5311
330
1A
100
AcDbEntity
  8
SEIHIN
100
AcDbEllipse
 10
198.1894416249023
 20
236.2055414017528
 30
0.0
 11
0.0
 21
2.0
 31
0.0
210
0.0
220
0.0
230
-1.0
 40
0.5144957552958261
 41
4.712388980384689
 42
6.283185307179586
  0
ELLIPSE
  5
5312
330
1A
100
AcDbEntity
  8
SEIHIN
100
AcDbEllipse
 10
199.2051569129687
 20
236.2055414017528
 30
0.0
 11
0.0
 21
2.0
 31
0.0
210
0.0
220
0.0
230
-1.0
 40
0.5144957552958261
 41
4.712388980384689
 42
6.283185307179586
  0
ELLIPSE
  5
5313
330
1A
100
AcDbEntity
  8
SEIHIN
100
AcDbEllipse
 10
201.0191682762382
 20
233.4956824177695
 30
0.0
 11
0.0
 21
-2.099999999999994
 31
0.0
210
0.0
220
0.0
230
-1.0
 40
0.5144957554888068
 41
0.0
 42
6.283185307179586
  0
ELLIPSE
  5
5314
330
1A
100
AcDbEntity
  8
SEIHIN
100
AcDbEllipse
 10
200.0034529881717
 20
233.4956824177695
 30
0.0
 11
0.0
 21
-2.099999999999994
 31
0.0
210
0.0
220
0.0
230
-1.0
 40
0.5144957554888068
 41
3.630936211000929
 42
5.793841749782787
  0
ELLIPSE
  5
5315
330
1A
100
AcDbEntity
  8
SEIHIN
100
AcDbEllipse
 10
205.3923821955039
 20
231.9956824177695
 30
0.0
 11
0.0
 21
3.25
 31
0.0
210
0.0
220
0.0
230
-1.0
 40
0.5144957554888029
 41
0.0
 42
6.283185307179586
  0
ELLIPSE
  5
5316
330
1A
100
AcDbEntity
  8
SEIHIN
100
AcDbEllipse
 10
204.3766669074374
 20
231.9956824177695
 30
0.0
 11
0.0
 21
3.25
 31
0.0
210
0.0
220
0.0
230
-1.0
 40
0.5144957554888029
 41
0.3085972064891327
 42
2.832995447100647
  0
ELLIPSE
  5
5317
330
1A
100
AcDbEntity
  8
SEIHIN
100
AcDbEllipse
 10
215.6822973036405
 20
236.2055414017528
 30
0.0
 11
0.0
 21
2.0
 31
0.0
210
0.0
220
0.0
230
-1.0
 40
0.5144957552958261
 41
0.0
 42
1.570796326794896
  0
ELLIPSE
  5
5318
330
1A
100
AcDbEntity
  8
SEIHIN
100
AcDbEllipse
 10
212.8658468744094
 20
233.4956824177695
 30
0.0
 11
0.0
 21
-2.099999999999994
 31
0.0
210
0.0
220
0.0
230
-1.0
 40
0.5144957554888068
 41
3.630936211000929
 42
5.793841749782787
  0
ELLIPSE
  5
5319
330
1A
100
AcDbEntity
  8
SEIHIN
100
AcDbEllipse
 10
213.8815621624758
 20
233.4956824177695
 30
0.0
 11
0.0
 21
-2.099999999999994
 31
0.0
210
0.0
220
0.0
230
-1.0
 40
0.5144957554888068
 41
0.0
 42
6.283185307179586
  0
SPLINE
  5
531A
330
1A
100
AcDbEntity
  8
SEIHIN
100
AcDbSpline
210
0.0
220
0.0
230
1.0
 70
     8
 71
     3
 72
    43
 73
    39
 74
     0
 42
0.0000000001
 43
0.0000000001
 40
2.573801282421732
 40
2.573801282421732
 40
2.573801282421732
 40
2.573801282421732
 40
2.743484381259663
 40
2.743484381259663
 40
2.952958003953673
 40
2.952958003953673
 40
3.162431626647684
 40
3.162431626647684
 40
3.371905249341694
 40
3.371905249341694
 40
3.581378872035704
 40
3.581378872035704
 40
3.790852494729714
 40
3.790852494729714
 40
4.212890898547438
 40
4.212890898547438
 40
4.63492930236516
 40
4.63492930236516
 40
4.712388980384689
 40
4.712388980384689
 40
4.712388980384689
 40
5.035006403854932
 40
5.035006403854932
 40
5.40458618261824
 40
5.40458618261824
 40
5.774165961381548
 40
5.774165961381548
 40
6.00394318856648
 40
6.00394318856648
 40
6.233720415751411
 40
6.233720415751411
 40
6.426033209648384
 40
6.426033209648384
 40
6.618346003545356
 40
6.618346003545356
 40
6.810658797442329
 40
6.810658797442329
 40
6.85074050005263
 40
6.85074050005263
 40
6.85074050005263
 40
6.85074050005263
 10
208.8872682862817
 20
214.7723452223552
 30
0.0
 10
208.9862191205376
 20
214.9072488303167
 30
0.0
 10
209.09793050087
 20
215.0335272511869
 30
0.0
 10
209.3844432986528
 20
215.290974349312
 30
0.0
 10
209.569978499587
 20
215.416078042809
 30
0.0
 10
209.9988325089147
 20
215.5909966638608
 30
0.0
 10
210.242948627167
 20
215.6374281277219
 30
0.0
 10
210.7271866712631
 20
215.6158651457297
 30
0.0
 10
210.9624183832144
 20
215.5488029557256
 30
0.0
 10
211.3691290870229
 20
215.3450568145941
 30
0.0
 10
211.542424959336
 20
215.2108867440853
 30
0.0
 10
211.83915612559
 20
214.9125880051378
 30
0.0
 10
211.9637349589547
 20
214.7477365743032
 30
0.0
 10
212.2903613086104
 20
214.2180426662319
 30
0.0
 10
212.4450952794534
 20
213.8181352529503
 30
0.0
 10
212.6649368886829
 20
212.957328425295
 30
0.0
 10
212.7278084339504
 20
212.4963192586343
 30
0.0
 10
212.7478730090492
 20
211.9439936236664
 30
0.0
 10
212.7494287806587
 20
211.8581694583116
 30
0.0
 10
212.7494287806587
 20
211.7723452123552
 30
0.0
 10
212.7494287806587
 20
211.4148895940305
 30
0.0
 10
212.7224650316055
 20
211.0575346526057
 30
0.0
 10
212.6065640488966
 20
210.3167949428054
 30
0.0
 10
212.5097447307259
 20
209.9375530910288
 30
0.0
 10
212.2383689060628
 20
209.2381812849748
 30
0.0
 10
212.0657224390749
 20
208.9165632634638
 30
0.0
 10
211.6839830081223
 20
208.4613992328927
 30
0.0
 10
211.5117630939045
 20
208.3019073134801
 30
0.0
 10
211.0953266037025
 20
208.0467907644421
 30
0.0
 10
210.8475892918153
 20
207.9533533785562
 30
0.0
 10
210.3633964465645
 20
207.9021403374976
 30
0.0
 10
210.1356087003056
 20
207.9260531233857
 30
0.0
 10
209.7217818684676
 20
208.05321923441
 30
0.0
 10
209.5362778870192
 20
208.1538749662812
 30
0.0
 10
209.2158481635034
 20
208.3923256726103
 30
0.0
 10
209.0794683831478
 20
208.5300083712103
 30
0.0
 10
208.9355263415668
 20
208.7091577530602
 30
0.0
 10
208.9114130902085
 20
208.7405248253412
 30
0.0
 10
208.8879819716913
 20
208.7723452223553
 30
0.0
  0
ELLIPSE
  5
531B
330
1A
100
AcDbEntity
  8
SEIHIN
100
AcDbEllipse
 10
204.3766669074374
 20
191.5490080069408
 30
0.0
 11
0.0
 21
-3.25
 31
0.0
210
0.0
220
0.0
230
1.0
 40
0.5144957554888029
 41
0.3085972064891327
 42
2.832995447100647
  0
ELLIPSE
  5
531C
330
1A
100
AcDbEntity
  8
SEIHIN
100
AcDbEllipse
 10
205.3923821955038
 20
191.5490080069408
 30
0.0
 11
0.0
 21
-3.25
 31
0.0
210
0.0
220
0.0
230
1.0
 40
0.5144957554888029
 41
0.0
 42
6.283185307179586
  0
ELLIPSE
  5
531D
330
1A
100
AcDbEntity
  8
SEIHIN
100
AcDbEllipse
 10
200.0034529881717
 20
190.0490080069408
 30
0.0
 11
0.0
 21
2.099999999999994
 31
0.0
210
0.0
220
0.0
230
1.0
 40
0.5144957554888068
 41
3.630936211000929
 42
5.793841749782787
  0
ELLIPSE
  5
531E
330
1A
100
AcDbEntity
  8
SEIHIN
100
AcDbEllipse
 10
201.0191682762381
 20
190.0490080069408
 30
0.0
 11
0.0
 21
2.099999999999994
 31
0.0
210
0.0
220
0.0
230
1.0
 40
0.5144957554888068
 41
0.0
 42
6.283185307179586
  0
ELLIPSE
  5
531F
330
1A
100
AcDbEntity
  8
SEIHIN
100
AcDbEllipse
 10
198.1894416249022
 20
187.3391490229575
 30
0.0
 11
0.0
 21
-2.0
 31
0.0
210
0.0
220
0.0
230
1.0
 40
0.5144957552958261
 41
4.712388980384689
 42
6.283185307179586
  0
ELLIPSE
  5
5320
330
1A
100
AcDbEntity
  8
SEIHIN
100
AcDbEllipse
 10
199.2051569129687
 20
187.3391490229575
 30
0.0
 11
0.0
 21
-2.0
 31
0.0
210
0.0
220
0.0
230
1.0
 40
0.5144957552958261
 41
4.712388980384689
 42
6.283185307179586
  0
ELLIPSE
  5
5321
330
1A
100
AcDbEntity
  8
SEIHIN
100
AcDbEllipse
 10
210.4127285742321
 20
211.7723452123552
 30
0.0
 11
0.0
 21
-2.8559114857152
 31
0.0
210
0.0
220
0.0
230
-1.0
 40
0.4680467910551545
 41
-1.570796326794896
 42
4.712388980384689
  0
ELLIPSE
  5
5322
330
1A
100
AcDbEntity
  8
SEIHIN
100
AcDbEllipse
 10
213.8815621624758
 20
190.0490080069408
 30
0.0
 11
0.0
 21
2.099999999999994
 31
0.0
210
0.0
220
0.0
230
1.0
 40
0.5144957554888068
 41
0.0
 42
6.283185307179586
  0
ELLIPSE
  5
5323
330
1A
100
AcDbEntity
  8
SEIHIN
100
AcDbEllipse
 10
212.8658468744093
 20
190.0490080069408
 30
0.0
 11
0.0
 21
2.099999999999994
 31
0.0
210
0.0
220
0.0
230
1.0
 40
0.5144957554888068
 41
3.630936211000929
 42
5.793841749782787
  0
ELLIPSE
  5
5324
330
1A
100
AcDbEntity
  8
SEIHIN
100
AcDbEllipse
 10
215.6822973036404
 20
187.3391490229575
 30
0.0
 11
0.0
 21
-2.0
 31
0.0
210
0.0
220
0.0
230
1.0
 40
0.5144957552958261
 41
0.0
 42
1.570796326794896
  0
LINE
  5
5325
330
1A
100
AcDbEntity
  8
SEIHIN
100
AcDbLine
 10
96.13549322423217
 20
219.2723452323552
 30
0.0
 11
74.73259025423221
 21
219.2723452323552
 31
0.0
  0
LINE
  5
5326
330
1A
100
AcDbEntity
  8
SEIHIN
100
AcDbLine
 10
96.13549322423217
 20
204.2723451923552
 30
0.0
 11
74.73259025423221
 21
204.2723451923552
 31
0.0
  0
DIMENSION
  5
5327
330
1A
100
AcDbEntity
  8
SUNPOU
100
AcDbDimension
  2
*D7
 10
47.82968648241603
 20
200.7723451923552
 30
0.0
 11
45.32968648241601
 21
211.7723452123553
 31
0.0
 70
    32
  3
STANDARD
100
AcDbAlignedDimension
 13
72.23259025423221
 23
222.7723452323552
 33
0.0
 14
72.23259025423221
 24
200.7723451923552
 34
0.0
 50
90.0
100
AcDbRotatedDimension
1001
ACAD
1000
DSTYLE
1002
{
1070
    41
1040
3.0
1070
    42
1040
3.0
1070
    43
1040
7.0
1070
    44
1040
1.5
1070
    73
1070
     0
1070
    74
1070
     0
1070
    77
1070
     3
1070
   140
1040
3.0
1070
   141
1040
3.0
1070
   147
1040
1.0
1070
   172
1070
     1
1070
   173
1070
     1
1070
   176
1070
   256
1070
   177
1070
   256
1070
   178
1070
   256
1070
   271
1070
     0
1070
   272
1070
     0
1070
   341
1005
B2
1070
     6
1000
OPEN
1070
     7
1000
OPEN
1002
}
  0
LINE
  5
5328
330
1A
100
AcDbEntity
  8
SEIHIN
100
AcDbLine
 10
74.73259025423221
 20
219.2723452323552
 30
0.0
 11
74.73259025423221
 21
204.2723451923552
 31
0.0
  0
LINE
  5
5329
330
1A
100
AcDbEntity
  8
SEIHIN
100
AcDbLine
 10
72.23259025423221
 20
200.7723451923552
 30
0.0
 11
72.23259025423221
 21
222.7723452323552
 31
0.0
  0
LINE
  5
532A
330
1A
100
AcDbEntity
  8
SEIHIN
100
AcDbLine
 10
72.23259025423221
 20
200.7723451923552
 30
0.0
 11
74.73259025423221
 21
200.7723451923552
 31
0.0
  0
LINE
  5
532B
330
1A
100
AcDbEntity
  8
SEIHIN
100
AcDbLine
 10
74.73259025423221
 20
200.7723451923552
 30
0.0
 11
74.73259025423221
 21
204.2723451923552
 31
0.0
  0
LINE
  5
532C
330
1A
100
AcDbEntity
  8
SEIHIN
100
AcDbLine
 10
74.73259025423221
 20
219.2723452323552
 30
0.0
 11
74.73259025423221
 21
222.7723452323552
 31
0.0
  0
LINE
  5
532D
330
1A
100
AcDbEntity
  8
SEIHIN
100
AcDbLine
 10
74.73259025423221
 20
222.7723452323552
 30
0.0
 11
74.73259025423221
 21
219.2723452323552
 31
0.0
  0
LINE
  5
532E
330
1A
100
AcDbEntity
  8
SEIHIN
100
AcDbLine
 10
72.23259025423221
 20
222.7723452323552
 30
0.0
 11
74.73259025423221
 21
222.7723452323552
 31
0.0
  0
LINE
  5
532F
330
1A
100
AcDbEntity
  8
SEIHIN
100
AcDbLine
 10
216.7112888142321
 20
221.5285933717529
 30
0.0
 11
216.7112888142321
 21
236.2055414017528
 31
0.0
  0
LINE
  5
5330
330
1A
100
AcDbEntity
  8
SEIHIN
100
AcDbLine
 10
197.1604501143106
 20
236.2055414017528
 30
0.0
 11
197.1604501143106
 21
221.0404888717528
 31
0.0
  0
LINE
  5
5331
330
1A
100
AcDbEntity
  8
SEIHIN
100
AcDbLine
 10
198.1761654023771
 20
221.5285929817528
 30
0.0
 11
198.1761654023771
 21
236.2055414017528
 31
0.0
  0
LINE
  5
5332
330
1A
100
AcDbEntity
  8
SEIHIN
100
AcDbLine
 10
130.6690898742321
 20
214.7723451923552
 30
0.0
 11
208.8872682862817
 21
214.7723451923552
 31
0.0
  0
LINE
  5
5333
330
1A
100
AcDbEntity
  8
SEIHIN
100
AcDbLine
 10
130.6690898742321
 20
208.7723451923552
 30
0.0
 11
208.887981993782
 21
208.7723451923552
 31
0.0
  0
LINE
  5
5334
330
1A
100
AcDbEntity
  8
SEIHIN
100
AcDbLine
 10
101.2957097442321
 20
219.2723452323552
 30
0.0
 11
214.6836217642322
 21
219.2723452323552
 31
0.0
  0
LINE
  5
5335
330
1A
100
AcDbEntity
  8
SEIHIN
100
AcDbLine
 10
101.2957097442321
 20
204.2723451923552
 30
0.0
 11
214.6836217642322
 21
204.2723451923553
 31
0.0
  0
LINE
  5
5336
330
1A
100
AcDbEntity
  8
SEIHIN
100
AcDbLine
 10
100.7957097442321
 20
205.2723451923552
 30
0.0
 11
214.6836217642322
 21
205.2723451923552
 31
0.0
  0
LINE
  5
5337
330
1A
100
AcDbEntity
  8
SEIHIN
100
AcDbLine
 10
100.7957097442321
 20
218.2723452323553
 30
0.0
 11
214.6836217642322
 21
218.2723452323552
 31
0.0
  0
LINE
  5
5338
330
1A
100
AcDbEntity
  8
SEIHIN
100
AcDbLine
 10
120.2628067762322
 20
203.7723451923552
 30
0.0
 11
101.2279602842321
 21
203.7723911923552
 31
0.0
  0
LINE
  5
5339
330
1A
100
AcDbEntity
  8
SEIHIN
100
AcDbLine
 10
101.2279989542321
 20
219.7723452323553
 30
0.0
 11
120.2628067762322
 21
219.7723452323553
 31
0.0
  0
LINE
  5
533A
330
1A
100
AcDbEntity
  8
SEIHIN
100
AcDbLine
 10
101.0820931842321
 20
205.5002715523552
 30
0.0
 11
128.6690898742321
 21
205.5002715523552
 31
0.0
  0
LINE
  5
533B
330
1A
100
AcDbEntity
  8
SEIHIN
100
AcDbLine
 10
103.8716127342321
 20
207.6179011823552
 30
0.0
 11
125.9302998592321
 21
207.6179011823552
 31
0.0
  0
LINE
  5
533C
330
1A
100
AcDbEntity
  8
SEIHIN
100
AcDbLine
 10
101.0820931842321
 20
218.0444188323552
 30
0.0
 11
128.6690898742321
 21
218.0444188323552
 31
0.0
  0
LINE
  5
533D
330
1A
100
AcDbEntity
  8
SEIHIN
100
AcDbLine
 10
103.8716127342321
 20
215.9267892323552
 30
0.0
 11
125.9302998592321
 21
215.9267892323552
 31
0.0
  0
LINE
  5
533E
330
1A
100
AcDbEntity
  8
SEIHIN
100
AcDbLine
 10
119.3652292632321
 20
208.6179011823552
 30
0.0
 11
119.3652292632321
 21
214.9267892023552
 31
0.0
  0
LINE
  5
533F
330
1A
100
AcDbEntity
  8
SEIHIN
100
AcDbLine
 10
103.8716127342321
 20
205.5002715523552
 30
0.0
 11
103.8716127342321
 21
218.0444188323552
 31
0.0
  0
ARC
  5
5340
330
1A
100
AcDbEntity
  8
SEIHIN
100
AcDbCircle
 10
101.0820931842321
 20
211.7723451923552
 30
0.0
 40
3.000000000000011
100
AcDbArc
 50
90.00000515662017
 51
269.9999952253516
  0
LINE
  5
5341
330
1A
100
AcDbEntity
  8
SEIHIN
100
AcDbLine
 10
101.0820931842321
 20
217.0444188323553
 30
0.0
 11
101.0820931842321
 21
206.5002715523553
 31
0.0
  0
LINE
  5
5342
330
1A
100
AcDbEntity
  8
SEIHIN
100
AcDbLine
 10
101.0820931842321
 20
209.8477338523552
 30
0.0
 11
103.8716127342321
 21
209.8477338523552
 31
0.0
  0
LINE
  5
5343
330
1A
100
AcDbEntity
  8
SEIHIN
100
AcDbLine
 10
103.8716127342321
 20
206.5002715523553
 30
0.0
 11
101.0820931842321
 21
206.5002715523553
 31
0.0
  0
ARC
  5
5344
330
1A
100
AcDbEntity
  8
SEIHIN
100
AcDbCircle
 10
100.7957097442321
 20
204.2723451923552
 30
0.0
 40
1.0
100
AcDbArc
 50
90.0
 51
180.0
  0
LINE
  5
5345
330
1A
100
AcDbEntity
  8
SEIHIN
100
AcDbLine
 10
95.26280677423216
 20
203.7723451923552
 30
0.0
 11
99.22771409423218
 21
203.7723451923552
 31
0.0
  0
LINE
  5
5346
330
1A
100
AcDbEntity
  8
SEIHIN
100
AcDbLine
 10
99.22795571423216
 20
204.2723451923552
 30
0.0
 11
95.26280677423216
 21
204.2723451923552
 31
0.0
  0
LINE
  5
5347
330
1A
100
AcDbEntity
  8
SEIHIN
100
AcDbLine
 10
95.26280677423216
 20
203.7723451923552
 30
0.0
 11
95.26280677423216
 21
204.2723451923552
 31
0.0
  0
ARC
  5
5348
330
1A
100
AcDbEntity
  8
SEIHIN
100
AcDbCircle
 10
101.2957097442321
 20
203.7723451923552
 30
0.0
 40
0.5
100
AcDbArc
 50
90.0
 51
180.0
  0
LINE
  5
5349
330
1A
100
AcDbEntity
  8
SEIHIN
100
AcDbLine
 10
100.7957097442321
 20
203.7723451923552
 30
0.0
 11
100.7957097442321
 21
200.7723451923552
 31
0.0
  0
LINE
  5
534A
330
1A
100
AcDbEntity
  8
SEIHIN
100
AcDbLine
 10
99.79570974423218
 20
200.7723451923552
 30
0.0
 11
99.79570974423218
 21
204.2723451923552
 31
0.0
  0
LINE
  5
534B
330
1A
100
AcDbEntity
  8
SEIHIN
100
AcDbLine
 10
100.7957097442321
 20
200.7723451923552
 30
0.0
 11
99.79570974423218
 21
200.7723451923552
 31
0.0
  0
LINE
  5
534C
330
1A
100
AcDbEntity
  8
SEIHIN
100
AcDbLine
 10
101.2279602842321
 20
203.7723911923552
 30
0.0
 11
101.2279614942321
 21
204.2723451923552
 31
0.0
  0
LINE
  5
534D
330
1A
100
AcDbEntity
  8
SEIHIN
100
AcDbLine
 10
99.22795453423214
 20
203.7723451923552
 30
0.0
 11
99.22795571423216
 21
204.2723451923552
 31
0.0
  0
LINE
  5
534E
330
1A
100
AcDbEntity
  8
SEIHIN
100
AcDbLine
 10
101.0820931842321
 20
206.5002715523553
 30
0.0
 11
101.0820931842321
 21
205.5002715523552
 31
0.0
  0
ARC
  5
534F
330
1A
100
AcDbEntity
  8
SEIHIN
100
AcDbCircle
 10
110.2630479042321
 20
208.2906746923552
 30
0.0
 40
5.715337531631893
100
AcDbArc
 50
232.2375418744901
 51
307.7621812247561
  0
LINE
  5
5350
330
1A
100
AcDbEntity
  8
SEIHIN
100
AcDbLine
 10
103.8716127342321
 20
205.5002715523552
 30
0.0
 11
103.8716127342321
 21
206.7002715523552
 31
0.0
  0
LINE
  5
5351
330
1A
100
AcDbEntity
  8
SEIHIN
100
AcDbLine
 10
103.8716127342321
 20
217.0444188323553
 30
0.0
 11
101.0820931842321
 21
217.0444188323553
 31
0.0
  0
LINE
  5
5352
330
1A
100
AcDbEntity
  8
SEIHIN
100
AcDbLine
 10
101.0820931842321
 20
213.6969565323552
 30
0.0
 11
103.8716127342321
 21
213.6969565323552
 31
0.0
  0
LINE
  5
5353
330
1A
100
AcDbEntity
  8
SEIHIN
100
AcDbLine
 10
100.7957097442321
 20
219.7723452323553
 30
0.0
 11
100.7957097442321
 21
222.7723452323552
 31
0.0
  0
LINE
  5
5354
330
1A
100
AcDbEntity
  8
SEIHIN
100
AcDbLine
 10
99.79570974423218
 20
222.7723452323552
 30
0.0
 11
99.79570974423218
 21
219.2723452323552
 31
0.0
  0
LINE
  5
5355
330
1A
100
AcDbEntity
  8
SEIHIN
100
AcDbLine
 10
95.26280677423216
 20
219.7723452323553
 30
0.0
 11
99.22771409423218
 21
219.7723452323553
 31
0.0
  0
LINE
  5
5356
330
1A
100
AcDbEntity
  8
SEIHIN
100
AcDbLine
 10
99.22799108423214
 20
219.2723452323552
 30
0.0
 11
95.26280677423216
 21
219.2723452323552
 31
0.0
  0
LINE
  5
5357
330
1A
100
AcDbEntity
  8
SEIHIN
100
AcDbLine
 10
95.26280677423216
 20
219.2723452323552
 30
0.0
 11
95.26280677423216
 21
219.7723452323553
 31
0.0
  0
LINE
  5
5358
330
1A
100
AcDbEntity
  8
SEIHIN
100
AcDbLine
 10
101.2279977442321
 20
219.2723452323552
 30
0.0
 11
101.2279989542321
 21
219.7723452323553
 31
0.0
  0
LINE
  5
5359
330
1A
100
AcDbEntity
  8
SEIHIN
100
AcDbLine
 10
99.22799108423214
 20
219.2723452323552
 30
0.0
 11
99.22799226423217
 21
219.7723452323553
 31
0.0
  0
LINE
  5
535A
330
1A
100
AcDbEntity
  8
SEIHIN
100
AcDbLine
 10
101.0820931842321
 20
217.0444188323553
 30
0.0
 11
101.0820931842321
 21
218.0444188323552
 31
0.0
  0
ARC
  5
535B
330
1A
100
AcDbEntity
  8
SEIHIN
100
AcDbCircle
 10
101.2957097442321
 20
219.7723452323553
 30
0.0
 40
0.5
100
AcDbArc
 50
180.0
 51
270.0
  0
ARC
  5
535C
330
1A
100
AcDbEntity
  8
SEIHIN
100
AcDbCircle
 10
100.7957097442321
 20
219.2723452323552
 30
0.0
 40
1.0
100
AcDbArc
 50
180.0
 51
270.0
  0
LINE
  5
535D
330
1A
100
AcDbEntity
  8
SEIHIN
100
AcDbLine
 10
100.7957097442321
 20
222.7723452323552
 30
0.0
 11
99.79570974423218
 21
222.7723452323552
 31
0.0
  0
LINE
  5
535E
330
1A
100
AcDbEntity
  8
SEIHIN
100
AcDbLine
 10
113.7630369842321
 20
220.8367836323552
 30
0.0
 11
106.7630369842321
 21
220.8367836323552
 31
0.0
  0
LINE
  5
535F
330
1A
100
AcDbEntity
  8
SEIHIN
100
AcDbLine
 10
106.7630369842321
 20
219.7723452323553
 30
0.0
 11
113.7630369842321
 21
219.7723452323553
 31
0.0
  0
LINE
  5
5360
330
1A
100
AcDbEntity
  8
SEIHIN
100
AcDbLine
 10
103.8716127342321
 20
218.0444188323552
 30
0.0
 11
103.8716127342321
 21
216.8444188323552
 31
0.0
  0
LINE
  5
5361
330
1A
100
AcDbEntity
  8
SEIHIN
100
AcDbLine
 10
106.7630369842321
 20
220.8367836323552
 30
0.0
 11
106.7630369842321
 21
219.7723452323553
 31
0.0
  0
LINE
  5
5362
330
1A
100
AcDbEntity
  8
SEIHIN
100
AcDbLine
 10
113.7630369842321
 20
219.7723452323553
 30
0.0
 11
113.7630369842321
 21
220.8367836323552
 31
0.0
  0
LINE
  5
5363
330
1A
100
AcDbEntity
  8
SEIHIN
100
AcDbLine
 10
127.9302998592321
 20
213.9267892023553
 30
0.0
 11
127.9302998592321
 21
209.6179011823552
 31
0.0
  0
LINE
  5
5364
330
1A
100
AcDbEntity
  8
SEIHIN
100
AcDbLine
 10
130.6690898742321
 20
207.5002715523552
 30
0.0
 11
130.6690898742321
 21
216.0444188323552
 31
0.0
  0
LINE
  5
5365
330
1A
100
AcDbEntity
  8
SEIHIN
100
AcDbLine
 10
129.5215241672321
 20
207.5002715523552
 30
0.0
 11
129.5215241672321
 21
216.0444188323552
 31
0.0
  0
LINE
  5
5366
330
1A
100
AcDbEntity
  8
SEIHIN
100
AcDbLine
 10
124.2071494987321
 20
208.6179011823552
 30
0.0
 11
124.2071494987321
 21
214.9267892023552
 31
0.0
  0
ARC
  5
5367
330
1A
100
AcDbEntity
  8
SEIHIN
100
AcDbCircle
 10
125.9302998592321
 20
209.6179011823552
 30
0.0
 40
2.0
100
AcDbArc
 50
270.0
 51
0.0
  0
ARC
  5
5368
330
1A
100
AcDbEntity
  8
SEIHIN
100
AcDbCircle
 10
127.5215241672322
 20
207.5002715523552
 30
0.0
 40
2.0
100
AcDbArc
 50
270.0
 51
0.0
  0
LINE
  5
5369
330
1A
100
AcDbEntity
  8
SEIHIN
100
AcDbLine
 10
124.7878355800403
 20
205.2723451923552
 30
0.0
 11
124.7878355800403
 21
204.2723451923552
 31
0.0
  0
LINE
  5
536A
330
1A
100
AcDbEntity
  8
SEIHIN
100
AcDbLine
 10
120.2628067762322
 20
203.7723451923552
 30
0.0
 11
120.2628067762322
 21
204.2723451923552
 31
0.0
  0
ARC
  5
536B
330
1A
100
AcDbEntity
  8
SEIHIN
100
AcDbCircle
 10
128.6690898742321
 20
207.5002715523552
 30
0.0
 40
2.0
100
AcDbArc
 50
270.0
 51
0.0
  0
ARC
  5
536C
330
1A
100
AcDbEntity
  8
SEIHIN
100
AcDbCircle
 10
128.6690898742321
 20
207.5002715523552
 30
0.0
 40
2.0
100
AcDbArc
 50
270.0
 51
0.0
  0
ARC
  5
536D
330
1A
100
AcDbEntity
  8
SEIHIN
100
AcDbCircle
 10
127.5215241672322
 20
216.0444188323552
 30
0.0
 40
2.0
100
AcDbArc
 50
0.0
 51
90.0
  0
ARC
  5
536E
330
1A
100
AcDbEntity
  8
SEIHIN
100
AcDbCircle
 10
125.9302998592321
 20
213.9267892023553
 30
0.0
 40
2.000000014999997
100
AcDbArc
 50
0.0
 51
90.0
  0
LINE
  5
536F
330
1A
100
AcDbEntity
  8
SEIHIN
100
AcDbLine
 10
120.2628067762322
 20
219.2723452323552
 30
0.0
 11
120.2628067762322
 21
219.7723452323553
 31
0.0
  0
LINE
  5
5370
330
1A
100
AcDbEntity
  8
SEIHIN
100
AcDbLine
 10
124.7878355800403
 20
219.2723452323552
 30
0.0
 11
124.7878355800403
 21
218.2723452323553
 31
0.0
  0
ARC
  5
5371
330
1A
100
AcDbEntity
  8
SEIHIN
100
AcDbCircle
 10
128.6690898742321
 20
216.0444188323552
 30
0.0
 40
2.0
100
AcDbArc
 50
0.0
 51
90.0
  0
ARC
  5
5372
330
1A
100
AcDbEntity
  8
SEIHIN
100
AcDbCircle
 10
128.6690898742321
 20
216.0444188323552
 30
0.0
 40
2.0
100
AcDbArc
 50
0.0
 51
90.0
  0
LINE
  5
5373
330
1A
100
AcDbEntity
  8
SEIHIN
100
AcDbLine
 10
216.7112888142321
 20
202.0160970529574
 30
0.0
 11
216.7112888142321
 21
187.3391490229575
 31
0.0
  0
LINE
  5
5374
330
1A
100
AcDbEntity
  8
SEIHIN
100
AcDbLine
 10
198.176165402377
 20
202.0160974429574
 30
0.0
 11
198.176165402377
 21
187.3391490229575
 31
0.0
  0
LINE
  5
5375
330
1A
100
AcDbEntity
  8
SEIHIN
100
AcDbLine
 10
197.1604501143106
 20
187.3391490229575
 30
0.0
 11
197.1604501143106
 21
202.5042015529574
 31
0.0
  0
LINE
  5
5376
330
1A
100
AcDbEntity
  8
SEIHIN
100
AcDbLine
 10
215.6822973036404
 20
185.3391490229575
 30
0.0
 11
198.1894416249022
 21
185.3391490229575
 31
0.0
  0
ARC
  5
5377
330
1A
100
AcDbEntity
  8
SEIHIN
100
AcDbCircle
 10
182.234949072179
 20
211.7723451923552
 30
0.0
 40
3.25
100
AcDbArc
 50
112.6198649480423
 51
247.3801350519576
  0
LINE
  5
5378
330
1A
100
AcDbEntity
  8
SEIHIN
100
AcDbLine
 10
176.7642948198385
 20
205.2723451923552
 30
0.0
 11
176.7642948198385
 21
204.2723451923552
 31
0.0
  0
LINE
  5
5379
330
1A
100
AcDbEntity
  8
SEIHIN
100
AcDbLine
 10
180.984949072179
 20
208.7723451923552
 30
0.0
 11
180.984949072179
 21
205.2723451923552
 31
0.0
  0
LINE
  5
537A
330
1A
100
AcDbEntity
  8
SEIHIN
100
AcDbLine
 10
176.7642948198385
 20
219.2723452323552
 30
0.0
 11
176.7642948198385
 21
218.2723452323552
 31
0.0
  0
LINE
  5
537B
330
1A
100
AcDbEntity
  8
SEIHIN
100
AcDbLine
 10
180.984949072179
 20
218.2723452323553
 30
0.0
 11
180.984949072179
 21
214.7723451923552
 31
0.0
  0
LINE
  5
537C
330
1A
100
AcDbEntity
  8
SEIHIN
100
AcDbLine
 10
213.6836217642322
 20
218.2723452223553
 30
0.0
 11
213.6836217642322
 21
205.2723452023553
 31
0.0
  0
LINE
  5
537D
330
1A
100
AcDbEntity
  8
SEIHIN
100
AcDbLine
 10
214.6836217642322
 20
219.2723452223553
 30
0.0
 11
214.6836217642322
 21
204.2723452023552
 31
0.0
  0
ARC
  5
537E
330
1A
100
AcDbEntity
  8
SEIHIN
100
AcDbCircle
 10
190.4134407987637
 20
211.7723451923552
 30
0.0
 40
3.25
100
AcDbArc
 50
292.6198649480445
 51
67.38013505195993
  0
LINE
  5
537F
330
1A
100
AcDbEntity
  8
SEIHIN
100
AcDbLine
 10
199.6819882462321
 20
203.1201591229575
 30
0.0
 11
203.5187155722321
 21
203.1201591229575
 31
0.0
  0
LINE
  5
5380
330
1A
100
AcDbEntity
  8
CENTER_L
100
AcDbLine
 10
201.2671499521259
 20
191.549008006941
 30
0.0
 11
209.5176144388818
 21
191.549008006941
 31
0.0
  0
LINE
  5
5381
330
1A
100
AcDbEntity
  8
CENTER_L
100
AcDbLine
 10
196.9968675558767
 20
190.0490080069411
 30
0.0
 11
205.0414689965995
 21
190.0490080069411
 31
0.0
  0
LINE
  5
5382
330
1A
100
AcDbEntity
  8
SEIHIN
100
AcDbLine
 10
191.6634407987635
 20
208.7723452223552
 30
0.0
 11
191.6634407987635
 21
205.2723452023552
 31
0.0
  0
LINE
  5
5383
330
1A
100
AcDbEntity
  8
SEIHIN
100
AcDbLine
 10
194.0989466476853
 20
205.2723451923552
 30
0.0
 11
194.0989466476853
 21
204.2723451923552
 31
0.0
  0
ARC
  5
5384
330
1A
100
AcDbEntity
  8
SEIHIN
100
AcDbCircle
 10
196.4761653983771
 20
202.0160974429574
 30
0.0
 40
1.700000002834678
100
AcDbArc
 50
0.0
 51
80.99999985768855
  0
ARC
  5
5385
330
1A
100
AcDbEntity
  8
SEIHIN
100
AcDbCircle
 10
196.8059398703106
 20
204.6993855429575
 30
0.0
 40
1.700000003059988
100
AcDbArc
 50
194.5485451942487
 51
266.2081650705318
  0
LINE
  5
5386
330
1A
100
AcDbEntity
  8
SEIHIN
100
AcDbLine
 10
196.7421039933771
 20
203.6951676229574
 30
0.0
 11
196.0981225883771
 21
204.3391490229575
 31
0.0
  0
ARC
  5
5387
330
1A
100
AcDbEntity
  8
SEIHIN
100
AcDbCircle
 10
196.6604501103106
 20
202.5042015529574
 30
0.0
 40
0.5000000015686215
100
AcDbArc
 50
0.0
 51
86.20816424113447
  0
LINE
  5
5388
330
1A
100
AcDbEntity
  8
CENTER_L
100
AcDbLine
 10
209.8592614421144
 20
190.0490080069411
 30
0.0
 11
217.9038628828372
 21
190.0490080069411
 31
0.0
  0
LINE
  5
5389
330
1A
100
AcDbEntity
  8
SEIHIN
100
AcDbLine
 10
206.2618839502321
 20
203.1201591229575
 30
0.0
 11
210.1039007572321
 21
203.1201591229575
 31
0.0
  0
LINE
  5
538A
330
1A
100
AcDbEntity
  8
SEIHIN
100
AcDbLine
 10
205.5625456232321
 20
204.3391490229575
 30
0.0
 11
205.5625456232321
 21
201.3391490229575
 31
0.0
  0
LINE
  5
538B
330
1A
100
AcDbEntity
  8
SEIHIN
100
AcDbLine
 10
204.1731439132321
 20
201.3391490229575
 30
0.0
 11
204.1731439132321
 21
204.3391490229575
 31
0.0
  0
LINE
  5
538C
330
1A
100
AcDbEntity
  8
SEIHIN
100
AcDbLine
 10
205.5625456232321
 20
201.3391490229575
 30
0.0
 11
204.1731439132321
 21
203.4103438329574
 31
0.0
  0
LINE
  5
538D
330
1A
100
AcDbEntity
  8
SEIHIN
100
AcDbLine
 10
204.1731439132321
 20
201.3391490229575
 30
0.0
 11
205.5625456232321
 21
201.3391490229575
 31
0.0
  0
LINE
  5
538E
330
1A
100
AcDbEntity
  8
SEIHIN
100
AcDbLine
 10
213.7032566352321
 20
203.1201591229575
 30
0.0
 11
215.1262258222321
 21
203.1201591229575
 31
0.0
  0
LINE
  5
538F
330
1A
100
AcDbEntity
  8
SEIHIN
100
AcDbLine
 10
212.4749449782321
 20
204.3391490229575
 30
0.0
 11
212.4749449782321
 21
201.3391490229575
 31
0.0
  0
LINE
  5
5390
330
1A
100
AcDbEntity
  8
SEIHIN
100
AcDbLine
 10
211.0855432692321
 20
201.3391490229575
 30
0.0
 11
211.0855432692321
 21
204.3391490229575
 31
0.0
  0
LINE
  5
5391
330
1A
100
AcDbEntity
  8
SEIHIN
100
AcDbLine
 10
212.4749449782321
 20
201.3391490229575
 30
0.0
 11
211.0855432692321
 21
203.4103438329574
 31
0.0
  0
LINE
  5
5392
330
1A
100
AcDbEntity
  8
SEIHIN
100
AcDbLine
 10
211.0855432692321
 20
201.3391490229575
 30
0.0
 11
212.4749449782321
 21
201.3391490229575
 31
0.0
  0
ARC
  5
5393
330
1A
100
AcDbEntity
  8
SEIHIN
100
AcDbCircle
 10
215.0112888142321
 20
202.0160974429574
 30
0.0
 40
1.700000000521832
100
AcDbArc
 50
359.9999868556723
 51
80.99999999084433
  0
LINE
  5
5394
330
1A
100
AcDbEntity
  8
SEIHIN
100
AcDbLine
 10
215.2772274052321
 20
203.6951676229574
 30
0.0
 11
214.6332459972321
 21
204.3391490229575
 31
0.0
  0
LINE
  5
5395
330
1A
100
AcDbEntity
  8
CENTER_L
100
AcDbLine
 10
196.9968675558767
 20
233.4956824177695
 30
0.0
 11
205.0414689965995
 21
233.4956824177695
 31
0.0
  0
LINE
  5
5396
330
1A
100
AcDbEntity
  8
CENTER_L
100
AcDbLine
 10
201.267149952126
 20
231.9956824177695
 30
0.0
 11
209.5176144388818
 21
231.9956824177695
 31
0.0
  0
LINE
  5
5397
330
1A
100
AcDbEntity
  8
SEIHIN
100
AcDbLine
 10
199.6819882462321
 20
220.4245313017528
 30
0.0
 11
203.5187155722321
 21
220.4245313017528
 31
0.0
  0
LINE
  5
5398
330
1A
100
AcDbEntity
  8
SEIHIN
100
AcDbLine
 10
191.6634407987635
 20
214.7723452223552
 30
0.0
 11
191.6634407987635
 21
218.2723452223553
 31
0.0
  0
ARC
  5
5399
330
1A
100
AcDbEntity
  8
SEIHIN
100
AcDbCircle
 10
196.4761653983771
 20
221.5285929817528
 30
0.0
 40
1.700000002834678
100
AcDbArc
 50
279.0000001423114
 51
0.0
  0
ARC
  5
539A
330
1A
100
AcDbEntity
  8
SEIHIN
100
AcDbCircle
 10
196.8059398703106
 20
218.8453048817528
 30
0.0
 40
1.700000003059988
100
AcDbArc
 50
93.79183492946813
 51
165.4514548057512
  0
LINE
  5
539B
330
1A
100
AcDbEntity
  8
SEIHIN
100
AcDbLine
 10
196.7421039933771
 20
219.8495228017529
 30
0.0
 11
196.0981225883771
 21
219.2055414017528
 31
0.0
  0
ARC
  5
539C
330
1A
100
AcDbEntity
  8
SEIHIN
100
AcDbCircle
 10
196.6604501103106
 20
221.0404888717528
 30
0.0
 40
0.5000000015686215
100
AcDbArc
 50
273.7918357588654
 51
0.0
  0
LINE
  5
539D
330
1A
100
AcDbEntity
  8
SEIHIN
100
AcDbLine
 10
194.0989466476853
 20
219.2723452323552
 30
0.0
 11
194.0989466476853
 21
218.2723452323552
 31
0.0
  0
LINE
  5
539E
330
1A
100
AcDbEntity
  8
SEIHIN
100
AcDbLine
 10
206.2618839502321
 20
220.4245313017528
 30
0.0
 11
210.1039007572321
 21
220.4245313017528
 31
0.0
  0
LINE
  5
539F
330
1A
100
AcDbEntity
  8
SEIHIN
100
AcDbLine
 10
205.5625456232321
 20
219.2055414017528
 30
0.0
 11
205.5625456232321
 21
222.2055414017528
 31
0.0
  0
LINE
  5
53A0
330
1A
100
AcDbEntity
  8
SEIHIN
100
AcDbLine
 10
204.1731439132321
 20
222.2055414017528
 30
0.0
 11
204.1731439132321
 21
219.2055414017528
 31
0.0
  0
LINE
  5
53A1
330
1A
100
AcDbEntity
  8
SEIHIN
100
AcDbLine
 10
204.1731439132321
 20
222.2055414017528
 30
0.0
 11
205.5625456232321
 21
222.2055414017528
 31
0.0
  0
LINE
  5
53A2
330
1A
100
AcDbEntity
  8
SEIHIN
100
AcDbLine
 10
205.5625456232321
 20
222.2055414017528
 30
0.0
 11
204.1731439132321
 21
220.1343465917529
 31
0.0
  0
LINE
  5
53A3
330
1A
100
AcDbEntity
  8
SEIHIN
100
AcDbLine
 10
213.7032566352321
 20
220.4245313017528
 30
0.0
 11
215.1262258222321
 21
220.4245313017528
 31
0.0
  0
LINE
  5
53A4
330
1A
100
AcDbEntity
  8
SEIHIN
100
AcDbLine
 10
212.4749449782321
 20
219.2055414017528
 30
0.0
 11
212.4749449782321
 21
222.2055414017528
 31
0.0
  0
LINE
  5
53A5
330
1A
100
AcDbEntity
  8
SEIHIN
100
AcDbLine
 10
211.0855432692321
 20
222.2055414017528
 30
0.0
 11
211.0855432692321
 21
219.2055414017528
 31
0.0
  0
LINE
  5
53A6
330
1A
100
AcDbEntity
  8
SEIHIN
100
AcDbLine
 10
211.0855432692321
 20
222.2055414017528
 30
0.0
 11
212.4749449782321
 21
222.2055414017528
 31
0.0
  0
LINE
  5
53A7
330
1A
100
AcDbEntity
  8
SEIHIN
100
AcDbLine
 10
212.4749449782321
 20
222.2055414017528
 30
0.0
 11
211.0855432692321
 21
220.1343465917529
 31
0.0
  0
LINE
  5
53A8
330
1A
100
AcDbEntity
  8
SEIHIN
100
AcDbLine
 10
215.2772274052321
 20
219.8495228017529
 30
0.0
 11
214.6332459972321
 21
219.2055414017528
 31
0.0
  0
ARC
  5
53A9
330
1A
100
AcDbEntity
  8
SEIHIN
100
AcDbCircle
 10
215.0112888142321
 20
221.5285929817528
 30
0.0
 40
1.700000000521832
100
AcDbArc
 50
279.0000000091556
 51
0.0000131443276943
  0
LINE
  5
53AA
330
1A
100
AcDbEntity
  8
CENTER_L
100
AcDbLine
 10
209.8592614421145
 20
233.4956824177695
 30
0.0
 11
217.9038628828372
 21
233.4956824177695
 31
0.0
  0
LINE
  5
53AB
330
1A
100
AcDbEntity
  8
SEIHIN
100
AcDbLine
 10
215.6822973036405
 20
238.2055414017528
 30
0.0
 11
198.1894416249023
 21
238.2055414017528
 31
0.0
  0
CIRCLE
  5
53AC
330
1A
100
AcDbEntity
  8
SEIHIN
100
AcDbCircle
 10
303.6074125492321
 20
141.9495050117533
 30
0.0
 40
2.100000000249221
  0
LINE
  5
53AD
330
1A
100
AcDbEntity
  8
CENTER_L
100
AcDbLine
 10
300.9834841974708
 20
146.3227189323648
 30
0.0
 11
306.2313409009934
 21
137.5762910911418
 31
0.0
  0
LINE
  5
53AE
330
1A
100
AcDbEntity
  8
CENTER_L
100
AcDbLine
 10
299.2341986286206
 20
139.325576659992
 30
0.0
 11
307.9806264698436
 21
144.5734333635145
 31
0.0
  0
LINE
  5
53AF
330
1A
100
AcDbEntity
  8
SEIHIN
100
AcDbLine
 10
284.2280724292322
 20
163.5583267397532
 30
0.0
 11
300.6919365992321
 21
136.1185531167533
 31
0.0
  0
LINE
  5
53B0
330
1A
100
AcDbEntity
  8
SEIHIN
100
AcDbLine
 10
303.4359139592321
 20
135.4325587757533
 30
0.0
 11
324.4444906292321
 21
148.0377047837532
 31
0.0
  0
DIMENSION
  5
53B1
330
1A
100
AcDbEntity
  8
SUNPOU
100
AcDbDimension
  2
*D8
 10
282.4094397172311
 20
122.8166742327372
 30
0.0
 11
275.2922484363856
 21
139.5377862834132
 31
0.0
 70
    33
  3
STANDARD
100
AcDbAlignedDimension
 13
283.1990809191992
 23
165.2733125902041
 33
0.0
 14
301.7209281097148
 24
134.403567265553
 34
0.0
1001
ACAD
1000
DSTYLE
1002
{
1070
    41
1040
3.0
1070
    42
1040
3.0
1070
    43
1040
7.0
1070
    44
1040
1.5
1070
    73
1070
     0
1070
    74
1070
     0
1070
    77
1070
     3
1070
   140
1040
3.0
1070
   141
1040
3.0
1070
   147
1040
1.0
1070
   172
1070
     1
1070
   173
1070
     1
1070
   176
1070
   256
1070
   177
1070
   256
1070
   178
1070
   256
1070
   271
1070
     0
1070
   272
1070
     0
1070
   341
1005
B2
1070
     6
1000
OPEN
1070
     7
1000
OPEN
1002
}
  0
LINE
  5
53B2
330
1A
100
AcDbEntity
  8
SEIHIN
  6
DASHED
 62
     2
100
AcDbLine
 10
233.1894415992321
 20
114.2675290117533
 30
0.0
 11
251.7112888192321
 21
83.39778368975329
 31
0.0
  0
LINE
  5
53B3
330
1A
100
AcDbEntity
  8
SEIHIN
  6
DASHED
 62
     2
100
AcDbLine
 10
232.1604500892321
 20
113.6501341057533
 30
0.0
 11
250.6822973192321
 21
82.78038877975331
 31
0.0
  0
LINE
  5
53B4
330
1A
100
AcDbEntity
  8
SEIHIN
  6
DASHED
 62
     2
100
AcDbLine
 10
245.9660862192321
 20
79.95066212975331
 30
0.0
 11
227.4442389992321
 21
110.8204074507532
 31
0.0
  0
LINE
  5
53B5
330
1A
100
AcDbEntity
  8
SEIHIN
  6
DASHED
 62
     2
100
AcDbLine
 10
251.7112888192321
 20
83.39778368975329
 30
0.0
 11
245.9660862092321
 21
79.95066212975331
 31
0.0
  0
LINE
  5
53B6
330
1A
100
AcDbEntity
  8
CENTER_L
100
AcDbLine
 10
237.1339090855243
 20
81.06540292770594
 30
0.0
 11
254.8840126478304
 21
91.71546506263133
 31
0.0
  0
LINE
  5
53B7
330
1A
100
AcDbEntity
  8
SUNPOU
100
AcDbLine
 10
227.8530091076316
 20
54.82824987204812
 30
0.0
 11
227.8530091076316
 21
64.82824987204812
 31
0.0
  0
TEXT
  5
53B8
330
1A
100
AcDbEntity
  8
SUNPOU
100
AcDbText
 10
222.7601753034979
 20
57.25815370265379
 30
0.0
 40
3.0
  1
10
100
AcDbText
  0
TEXT
  5
53B9
330
1A
100
AcDbEntity
  8
SUNPOU
100
AcDbText
 10
229.5675382324887
 20
50.33227101684828
 30
0.0
 40
3.0
  1
6
100
AcDbText
  0
LINE
  5
53BA
330
1A
100
AcDbEntity
  8
SUNPOU
100
AcDbLine
 10
233.8530091076316
 20
54.82824987204812
 30
0.0
 11
227.8530091076316
 21
54.82824987204812
 31
0.0
  0
LINE
  5
53BB
330
1A
100
AcDbEntity
  8
SEIHIN
  6
DASHED
 62
     2
100
AcDbLine
 10
227.4310855877186
 20
122.8929637086707
 30
0.0
 11
232.7606951392321
 21
114.0102811347533
 31
0.0
  0
LINE
  5
53BC
330
1A
100
AcDbEntity
  8
CENTER_L
100
AcDbLine
 10
224.2715152003078
 20
102.5027260685759
 30
0.0
 11
242.0216187615927
 21
113.1527882028886
 31
0.0
  0
LINE
  5
53BD
330
1A
100
AcDbEntity
  8
CENTER_L
100
AcDbLine
 10
228.6447291192263
 20
95.21403620410525
 30
0.0
 11
246.3948326808584
 21
105.8640983386263
 31
0.0
  0
LINE
  5
53BE
330
1A
100
AcDbEntity
  8
SEIHIN
  6
DASHED
 62
     2
100
AcDbLine
 10
225.3862555692321
 20
116.5827605897533
 30
0.0
 11
228.4732305092321
 21
111.4378023577532
 31
0.0
  0
LINE
  5
53BF
330
1A
100
AcDbEntity
  8
SEIHIN
  6
DASHED
 62
     2
100
AcDbLine
 10
227.4442389992321
 20
110.8204074507532
 30
0.0
 11
233.1894415992321
 21
114.2675290117533
 31
0.0
  0
DIMENSION
  5
53C0
330
1A
100
AcDbEntity
  8
SUNPOU
100
AcDbDimension
  2
*D9
 10
290.2419522145189
 20
127.5161817300253
 30
0.0
 11
290.9708212020075
 21
131.160526663793
 31
0.0
 70
    33
  3
STANDARD
100
AcDbAlignedDimension
 13
298.8912014558673
 23
139.1197783563875
 33
0.0
 14
301.7209281097148
 24
134.403567265553
 34
0.0
1001
ACAD
1000
DSTYLE
1002
{
1070
    41
1040
3.0
1070
    42
1040
3.0
1070
    43
1040
7.0
1070
    44
1040
1.5
1070
    73
1070
     0
1070
    74
1070
     0
1070
    77
1070
     3
1070
   140
1040
3.0
1070
   141
1040
3.0
1070
   147
1040
1.0
1070
   172
1070
     1
1070
   173
1070
     1
1070
   176
1070
   256
1070
   177
1070
   256
1070
   178
1070
   256
1070
   271
1070
     0
1070
   272
1070
     0
1070
   341
1005
B2
1070
     6
1000
OPEN
1070
     7
1000
OPEN
1002
}
  0
ARC
  5
53C1
330
1A
100
AcDbEntity
  8
SEIHIN
100
AcDbCircle
 10
302.4069224492321
 20
137.1475446277532
 30
0.0
 40
1.999999999452818
100
AcDbArc
 50
210.9637565566384
 51
300.9637565025945
  0
LWPOLYLINE
  5
53C2
330
1A
100
AcDbEntity
  8
SUNPOU
100
AcDbPolyline
 90
        3
 70
     0
 43
0.0
 10
332.0704345313452
 20
182.7700284579535
 10
343.1809697949327
 20
216.3781601445611
 10
359.0304196354371
 20
216.3781601445611
1001
ACAD
1000
DSTYLE
1002
{
1070
    41
1040
3.0
1070
    42
1040
3.0
1070
    43
1040
7.0
1070
    44
1040
1.5
1070
    73
1070
     0
1070
    74
1070
     0
1070
    77
1070
     0
1070
   140
1040
3.0
1070
   141
1040
3.0
1070
   147
1040
1.0
1070
   172
1070
     1
1070
   173
1070
     1
1070
   176
1070
   256
1070
   177
1070
   256
1070
   178
1070
   256
1070
   271
1070
     0
1070
   272
1070
     0
1070
   341
1005
B2
1070
   343
1005
B2
1070
   344
1005
B2
1002
}
  0
TEXT
  5
53C3
330
1A
100
AcDbEntity
  8
SUNPOU
100
AcDbText
 10
343.5205750087587
 20
217.6825070571817
 30
0.0
 40
3.0
  1
2-φ6.5
100
AcDbText
  0
DIMENSION
  5
53C4
330
1A
100
AcDbEntity
  8
SUNPOU
100
AcDbDimension
  2
*D10
 10
304.0116307641335
 20
233.5992130541856
 30
0.0
 11
280.001828829365
 21
222.1088078378059
 31
0.0
 70
    33
  3
STANDARD
100
AcDbAlignedDimension
 13
283.1990809191992
 23
165.2733125902041
 33
0.0
 14
328.6462060111904
 24
192.5415876512812
 34
0.0
1001
ACAD
1000
DSTYLE
1002
{
1070
    41
1040
3.0
1070
    42
1040
3.0
1070
    43
1040
7.0
1070
    44
1040
1.5
1070
    73
1070
     0
1070
    74
1070
     0
1070
    77
1070
     3
1070
   140
1040
3.0
1070
   141
1040
3.0
1070
   147
1040
1.0
1070
   172
1070
     1
1070
   173
1070
     1
1070
   176
1070
   256
1070
   177
1070
   256
1070
   178
1070
   256
1070
   271
1070
     0
1070
   272
1070
     0
1070
   341
1005
B2
1070
     6
1000
OPEN
1070
     7
1000
OPEN
1002
}
  0
LWPOLYLINE
  5
53C5
330
1A
100
AcDbEntity
  8
SUNPOU
100
AcDbPolyline
 90
        3
 70
     0
 43
0.0
 10
286.6347877575136
 20
166.0553059983882
 10
265.2196116827521
 20
184.5046446937134
 10
247.6378250458434
 20
184.5046446937134
1001
ACAD
1000
DSTYLE
1002
{
1070
    41
1040
3.0
1070
    42
1040
3.0
1070
    43
1040
7.0
1070
    44
1040
1.5
1070
    73
1070
     0
1070
    74
1070
     0
1070
    77
1070
     0
1070
   140
1040
3.0
1070
   141
1040
3.0
1070
   147
1040
1.0
1070
   172
1070
     1
1070
   173
1070
     1
1070
   176
1070
   256
1070
   177
1070
   256
1070
   178
1070
   256
1070
   271
1070
     0
1070
   272
1070
     0
1070
   341
1005
B2
1070
   343
1005
B2
1070
   344
1005
B2
1002
}
  0
DIMENSION
  5
53C6
330
1A
100
AcDbEntity
  8
SUNPOU
100
AcDbDimension
  2
*D11
 10
274.6101798652988
 20
153.7059248756276
 30
0.0
 11
275.3390488526386
 21
157.3502698096433
 31
0.0
 70
    33
  3
STANDARD
100
AcDbAlignedDimension
 13
283.1990809191992
 23
165.2733125902041
 33
0.0
 14
286.0288075733443
 24
160.5571014988736
 34
0.0
1001
ACAD
1000
DSTYLE
1002
{
1070
    41
1040
3.0
1070
    42
1040
3.0
1070
    43
1040
7.0
1070
    44
1040
1.5
1070
    73
1070
     0
1070
    74
1070
     0
1070
    77
1070
     3
1070
   140
1040
3.0
1070
   141
1040
3.0
1070
   147
1040
1.0
1070
   172
1070
     1
1070
   173
1070
     1
1070
   176
1070
   256
1070
   177
1070
   256
1070
   178
1070
   256
1070
   271
1070
     0
1070
   272
1070
     0
1070
   341
1005
B2
1070
     6
1000
OPEN
1070
     7
1000
OPEN
1002
}
  0
DIMENSION
  5
53C7
330
1A
100
AcDbEntity
  8
SUNPOU
100
AcDbDimension
  2
*D12
 10
306.775315063293
 20
215.3875179513065
 30
0.0
 11
288.767963643593
 21
207.4985830349092
 31
0.0
 70
    33
  3
STANDARD
100
AcDbAlignedDimension
 13
293.1888734962667
 23
162.2292127092661
 33
0.0
 14
326.6310975562666
 24
182.2945471692661
 34
0.0
1001
ACAD
1000
DSTYLE
1002
{
1070
    41
1040
3.0
1070
    42
1040
3.0
1070
    43
1040
7.0
1070
    44
1040
1.5
1070
    73
1070
     0
1070
    74
1070
     0
1070
    77
1070
     3
1070
   140
1040
3.0
1070
   141
1040
3.0
1070
   147
1040
1.0
1070
   172
1070
     1
1070
   173
1070
     1
1070
   176
1070
   256
1070
   177
1070
   256
1070
   178
1070
   256
1070
   271
1070
     0
1070
   272
1070
     0
1070
   341
1005
B2
1070
     6
1000
OPEN
1070
     7
1000
OPEN
1002
}
  0
DIMENSION
  5
53C8
330
1A
100
AcDbEntity
  8
SUNPOU
100
AcDbDimension
  2
*D13
 10
303.6593891651722
 20
223.4962038082279
 30
0.0
 11
284.3657983412533
 21
214.8355252572991
 31
0.0
 70
    33
  3
STANDARD
100
AcDbAlignedDimension
 13
288.1210903074709
 23
167.7600420703647
 33
0.0
 14
324.1357931774709
 24
189.3688638003647
 34
0.0
1001
ACAD
1000
DSTYLE
1002
{
1070
    41
1040
3.0
1070
    42
1040
3.0
1070
    43
1040
7.0
1070
    44
1040
1.5
1070
    73
1070
     0
1070
    74
1070
     0
1070
    77
1070
     3
1070
   140
1040
3.0
1070
   141
1040
3.0
1070
   147
1040
1.0
1070
   172
1070
     1
1070
   173
1070
     1
1070
   176
1070
   256
1070
   177
1070
   256
1070
   178
1070
   256
1070
   271
1070
     0
1070
   272
1070
     0
1070
   341
1005
B2
1070
     6
1000
OPEN
1070
     7
1000
OPEN
1002
}
  0
TEXT
  5
53C9
330
1A
100
AcDbEntity
  8
SUNPOU
100
AcDbText
 10
248.6196116827523
 20
185.2136955003274
 30
0.0
 40
3.0
  1
4-φ4.2
100
AcDbText
  0
LINE
  5
53CA
330
1A
100
AcDbEntity
  8
SEIHIN
100
AcDbLine
 10
312.3538404292322
 20
182.7661682797532
 30
0.0
 11
326.9312201292321
 21
191.5125961197533
 31
0.0
  0
LINE
  5
53CB
330
1A
100
AcDbEntity
  8
CENTER_L
100
AcDbLine
 10
324.1357931774709
 20
189.3688638003647
 30
0.0
 11
329.3836498809934
 21
180.6224359591418
 31
0.0
  0
ARC
  5
53CC
330
1A
100
AcDbEntity
  8
SEIHIN
100
AcDbCircle
 10
300.2705063792321
 20
188.3276785597532
 30
0.0
 40
3.000000003509581
100
AcDbArc
 50
30.96376350863535
 51
210.9637503088462
  0
LINE
  5
53CD
330
1A
100
AcDbEntity
  8
SEIHIN
100
AcDbLine
 10
328.3478146292321
 20
156.1095444997532
 30
0.0
 11
304.1219082992321
 21
196.4860550897533
 31
0.0
  0
LINE
  5
53CE
330
1A
100
AcDbEntity
  8
SEIHIN
100
AcDbLine
 10
327.4903217292321
 20
155.5950487497532
 30
0.0
 11
303.2644153792321
 21
195.9715593297532
 31
0.0
  0
LINE
  5
53CF
330
1A
100
AcDbEntity
  8
SEIHIN
100
AcDbLine
 10
302.8429849692321
 20
189.8711661397533
 30
0.0
 11
315.6820734292321
 21
168.4726853897532
 31
0.0
  0
LINE
  5
53D0
330
1A
100
AcDbEntity
  8
SEIHIN
100
AcDbLine
 10
315.4854207292322
 20
148.3921081727532
 30
0.0
 11
291.2595144192321
 21
188.7686187597532
 31
0.0
  0
LINE
  5
53D1
330
1A
100
AcDbEntity
  8
SEIHIN
100
AcDbLine
 10
316.3429137292321
 20
148.9066039287532
 30
0.0
 11
292.1170073392321
 21
189.2831145097533
 31
0.0
  0
LINE
  5
53D2
330
1A
100
AcDbEntity
  8
CENTER_L
100
AcDbLine
 10
294.089241089225
 20
198.6297873995325
 30
0.0
 11
328.0459609331239
 21
142.0352543133049
 31
0.0
  0
LINE
  5
53D3
330
1A
100
AcDbEntity
  8
SEIHIN
100
AcDbLine
 10
329.6751975292322
 20
190.8266017797533
 30
0.0
 11
346.1390616292321
 21
163.3868281497532
 31
0.0
  0
DIMENSION
  5
53D4
330
1A
100
AcDbEntity
  8
SUNPOU
100
AcDbDimension
  2
*D14
 10
347.4985219804314
 20
187.5263119165271
 30
0.0
 11
346.0407840268918
 21
194.8150017799017
 31
0.0
 70
    33
  3
STANDARD
100
AcDbAlignedDimension
 13
328.6462060111904
 23
192.5415876512812
 33
0.0
 14
335.8491465522092
 24
180.5366866927082
 34
0.0
1001
ACAD
1000
DSTYLE
1002
{
1070
    41
1040
3.0
1070
    42
1040
3.0
1070
    43
1040
7.0
1070
    44
1040
1.5
1070
    73
1070
     0
1070
    74
1070
     0
1070
    77
1070
     3
1070
   140
1040
3.0
1070
   141
1040
3.0
1070
   147
1040
1.0
1070
   172
1070
     1
1070
   173
1070
     1
1070
   176
1070
   256
1070
   177
1070
   256
1070
   178
1070
   256
1070
   271
1070
     0
1070
   272
1070
     0
1070
   341
1005
B2
1070
     6
1000
OPEN
1070
     7
1000
OPEN
1002
}
  0
LINE
  5
53D5
330
1A
100
AcDbEntity
  8
SEIHIN
100
AcDbLine
 10
315.6980628292322
 20
177.1924642597532
 30
0.0
 11
318.6806274292321
 21
178.9820030097532
 31
0.0
  0
LINE
  5
53D6
330
1A
100
AcDbEntity
  8
SEIHIN
100
AcDbLine
 10
315.6980628292322
 20
177.1924642597532
 30
0.0
 11
317.2415500292322
 21
174.6199854797532
 31
0.0
  0
LINE
  5
53D7
330
1A
100
AcDbEntity
  8
SEIHIN
100
AcDbLine
 10
313.1008148292321
 20
183.2143529497533
 30
0.0
 11
316.4450372292321
 21
177.6406489297533
 31
0.0
  0
CIRCLE
  5
53D8
330
1A
100
AcDbEntity
  8
SEIHIN
100
AcDbCircle
 10
315.1835670292321
 20
163.4725774497533
 30
0.0
 40
3.000000000763261
  0
ARC
  5
53D9
330
1A
100
AcDbEntity
  8
SEIHIN
100
AcDbCircle
 10
318.0578995292322
 20
149.9355954387532
 30
0.0
 40
1.999999974757018
100
AcDbArc
 50
210.9637572690345
 51
300.9637562716816
  0
LINE
  5
53DA
330
1A
100
AcDbEntity
  8
SEIHIN
100
AcDbLine
 10
313.9220968292322
 20
149.3045059627533
 30
0.0
 11
317.2663192292322
 21
143.7308019456533
 31
0.0
  0
LINE
  5
53DB
330
1A
100
AcDbEntity
  8
SEIHIN
100
AcDbLine
 10
314.6690713292321
 20
149.7526906357533
 30
0.0
 11
318.0132937292321
 21
144.1789866181533
 31
0.0
  0
ARC
  5
53DC
330
1A
100
AcDbEntity
  8
SEIHIN
100
AcDbCircle
 10
315.1835670292321
 20
163.4725774497533
 30
0.0
 40
5.024896826847874
100
AcDbArc
 50
157.6210374072251
 51
84.30647540336028
  0
INSERT
  5
53DD
330
1A
100
AcDbEntity
  8
SUNPOU
100
AcDbBlockReference
  2
_OPEN
 10
288.9076484226747
 20
164.09721907571
 30
0.0
 41
2.999999999999992
 42
3.0
 43
3.0
 50
319.2548486777223
1001
ACAD
1000
DSTYLE
1002
{
1070
    41
1040
3.0
1070
    42
1040
3.0
1070
    43
1040
7.0
1070
    44
1040
1.5
1070
    73
1070
     0
1070
    74
1070
     0
1070
    77
1070
     0
1070
   140
1040
3.0
1070
   141
1040
3.0
1070
   147
1040
1.0
1070
   172
1070
     1
1070
   173
1070
     1
1070
   176
1070
   256
1070
   177
1070
   256
1070
   178
1070
   256
1070
   271
1070
     0
1070
   272
1070
     0
1070
   341
1005
B2
1070
   343
1005
B2
1070
   344
1005
B2
1002
}
  0
CIRCLE
  5
53DE
330
1A
100
AcDbEntity
  8
SEIHIN
100
AcDbCircle
 10
290.7450186592321
 20
163.3868281497532
 30
0.0
 40
2.09999999907906
  0
LINE
  5
53DF
330
1A
100
AcDbEntity
  8
CENTER_L
100
AcDbLine
 10
288.1210903074709
 20
167.7600420703647
 30
0.0
 11
293.3689470109934
 21
159.0136142291418
 31
0.0
  0
ARC
  5
53E0
330
1A
100
AcDbEntity
  8
SEIHIN
100
AcDbCircle
 10
285.9430582792321
 20
164.5873182497533
 30
0.0
 40
1.999999998338071
100
AcDbArc
 50
120.9637565320724
 51
210.9637565320759
  0
LINE
  5
53E1
330
1A
100
AcDbEntity
  8
CENTER_L
100
AcDbLine
 10
286.3718047386207
 20
160.762899797992
 30
0.0
 11
295.1182325798436
 21
166.0107565015144
 31
0.0
  0
LINE
  5
53E2
330
1A
100
AcDbEntity
  8
SEIHIN
100
AcDbLine
 10
304.3791561792322
 20
166.9025491497533
 30
0.0
 11
313.1255840292321
 21
152.3251694127533
 31
0.0
  0
LINE
  5
53E3
330
1A
100
AcDbEntity
  8
SEIHIN
100
AcDbLine
 10
303.6321817292321
 20
166.4543644797532
 30
0.0
 11
312.3786095292321
 21
151.8769847397533
 31
0.0
  0
LINE
  5
53E4
330
1A
100
AcDbEntity
  8
CENTER_L
100
AcDbLine
 10
291.0451411797193
 20
153.6542834467877
 30
0.0
 11
301.763802758745
 21
160.0854803927188
 31
0.0
  0
LINE
  5
53E5
330
1A
100
AcDbEntity
  8
CENTER_L
100
AcDbLine
 10
293.1888734962667
 20
162.2292127092661
 30
0.0
 11
299.6200704421976
 21
151.5105511302404
 31
0.0
  0
CIRCLE
  5
53E6
330
1A
100
AcDbEntity
  8
SEIHIN
100
AcDbCircle
 10
296.4044719692322
 20
156.8698819197533
 30
0.0
 40
3.250000004060681
  0
LINE
  5
53E7
330
1A
100
AcDbEntity
  8
SEIHIN
100
AcDbLine
 10
311.6865067292321
 20
147.9631518847533
 30
0.0
 11
315.5265642292321
 21
150.2671863907532
 31
0.0
  0
LINE
  5
53E8
330
1A
100
AcDbEntity
  8
SEIHIN
100
AcDbLine
 10
310.1430194292321
 20
150.5356306617533
 30
0.0
 11
313.1255840292321
 21
152.3251694127533
 31
0.0
  0
LINE
  5
53E9
330
1A
100
AcDbEntity
  8
SEIHIN
100
AcDbLine
 10
310.1430194292321
 20
150.5356306617533
 30
0.0
 11
311.6865067292321
 21
147.9631518847533
 31
0.0
  0
LINE
  5
53EA
330
1A
100
AcDbEntity
  8
SEIHIN
100
AcDbLine
 10
313.1255840292321
 20
152.3251694127533
 30
0.0
 11
314.6690713292321
 21
149.7526906357533
 31
0.0
  0
LINE
  5
53EB
330
1A
100
AcDbEntity
  8
SEIHIN
100
AcDbLine
 10
299.8531043292321
 20
167.6854891797533
 30
0.0
 11
301.3965915992321
 21
165.1130103997533
 31
0.0
  0
LINE
  5
53EC
330
1A
100
AcDbEntity
  8
SEIHIN
100
AcDbLine
 10
302.8356689192321
 20
169.4750279297533
 30
0.0
 11
299.8531043292321
 21
167.6854891797533
 31
0.0
  0
LINE
  5
53ED
330
1A
100
AcDbEntity
  8
SEIHIN
100
AcDbLine
 10
297.6980274292321
 20
186.7841915697532
 30
0.0
 11
310.5371158292321
 21
165.3857108597533
 31
0.0
  0
LINE
  5
53EE
330
1A
100
AcDbEntity
  8
SEIHIN
100
AcDbLine
 10
299.4914465092321
 20
175.0487319397532
 30
0.0
 11
302.8356689192321
 21
169.4750279297533
 31
0.0
  0
LINE
  5
53EF
330
1A
100
AcDbEntity
  8
SEIHIN
100
AcDbLine
 10
298.7444720492321
 20
174.6005472697532
 30
0.0
 11
302.0886944592321
 21
169.0268432497533
 31
0.0
  0
LINE
  5
53F0
330
1A
100
AcDbEntity
  8
SEIHIN
100
AcDbLine
 10
299.4914465092321
 20
175.0487319397532
 30
0.0
 11
284.9140667692322
 21
166.3023040997533
 31
0.0
  0
LINE
  5
53F1
330
1A
100
AcDbEntity
  8
SEIHIN
100
AcDbLine
 10
294.6968023592322
 20
184.9834561497532
 30
0.0
 11
297.6980275992321
 21
186.7841912897532
 31
0.0
  0
LINE
  5
53F2
330
1A
100
AcDbEntity
  8
SEIHIN
100
AcDbLine
 10
295.1406445538809
 20
184.2437191606172
 30
0.0
 11
294.2831516270121
 21
183.729223404675
 31
0.0
  0
LINE
  5
53F3
330
1A
100
AcDbEntity
  8
SEIHIN
100
AcDbLine
 10
302.8356689192321
 20
169.4750279297533
 30
0.0
 11
304.3791561792322
 21
166.9025491497533
 31
0.0
  0
LINE
  5
53F4
330
1A
100
AcDbEntity
  8
SEIHIN
100
AcDbLine
 10
304.3791561792322
 20
166.9025491497533
 30
0.0
 11
301.3965915992321
 21
165.1130103997533
 31
0.0
  0
LINE
  5
53F5
330
1A
100
AcDbEntity
  8
SEIHIN
100
AcDbLine
 10
312.3538404292322
 20
182.7661682797532
 30
0.0
 11
315.6980628292322
 21
177.1924642597532
 31
0.0
  0
CIRCLE
  5
53F6
330
1A
100
AcDbEntity
  8
SEIHIN
100
AcDbCircle
 10
339.6221154292321
 20
163.5583267397532
 30
0.0
 40
2.099999993088218
  0
LINE
  5
53F7
330
1A
100
AcDbEntity
  8
CENTER_L
100
AcDbLine
 10
336.9981870774708
 20
167.9315406603647
 30
0.0
 11
342.2460437809934
 21
159.1851128191418
 31
0.0
  0
LINE
  5
53F8
330
1A
100
AcDbEntity
  8
SEIHIN
100
AcDbLine
 10
317.2415500292322
 20
174.6199854797532
 30
0.0
 11
325.9879779292321
 21
160.0426057397533
 31
0.0
  0
LINE
  5
53F9
330
1A
100
AcDbEntity
  8
SEIHIN
100
AcDbLine
 10
317.9885245292321
 20
175.0681701497533
 30
0.0
 11
326.7349523292321
 21
160.4907904197532
 31
0.0
  0
LINE
  5
53FA
330
1A
100
AcDbEntity
  8
CENTER_L
100
AcDbLine
 10
335.2489015086206
 20
160.934398387992
 30
0.0
 11
343.9953293498436
 21
166.1822550915144
 31
0.0
  0
LINE
  5
53FB
330
1A
100
AcDbEntity
  8
SEIHIN
100
AcDbLine
 10
345.4530673292321
 20
160.6428507897533
 30
0.0
 11
324.4444906292321
 21
148.0377047837532
 31
0.0
  0
LINE
  5
53FC
330
1A
100
AcDbEntity
  8
SEIHIN
100
AcDbLine
 10
328.2784396292321
 20
157.9183116397533
 30
0.0
 11
331.6226620292321
 21
152.3446076217533
 31
0.0
  0
LINE
  5
53FD
330
1A
100
AcDbEntity
  8
SEIHIN
100
AcDbLine
 10
327.5314651292321
 20
157.4701269697533
 30
0.0
 11
330.8756876292321
 21
151.8964229497532
 31
0.0
  0
ARC
  5
53FE
330
1A
100
AcDbEntity
  8
SEIHIN
100
AcDbCircle
 10
325.7753358292321
 20
154.5660572397532
 30
0.0
 40
2.000000044213948
100
AcDbArc
 50
300.9637586987388
 51
30.96375579511198
  0
LINE
  5
53FF
330
1A
100
AcDbEntity
  8
SEIHIN
100
AcDbLine
 10
326.8043274292321
 20
152.8510713867532
 30
0.0
 11
319.0868910292321
 21
148.2206095877532
 31
0.0
  0
LINE
  5
5400
330
1A
100
AcDbEntity
  8
SEIHIN
100
AcDbLine
 10
330.5140297292321
 20
159.2596657197533
 30
0.0
 11
326.6739722292321
 21
156.9556312097532
 31
0.0
  0
LINE
  5
5401
330
1A
100
AcDbEntity
  8
SEIHIN
100
AcDbLine
 10
325.9879779292321
 20
160.0426057397533
 30
0.0
 11
327.5314651292321
 21
157.4701269697533
 31
0.0
  0
LINE
  5
5402
330
1A
100
AcDbEntity
  8
SEIHIN
100
AcDbLine
 10
328.9705425292321
 20
161.8321444897533
 30
0.0
 11
325.9879779292321
 21
160.0426057397533
 31
0.0
  0
LINE
  5
5403
330
1A
100
AcDbEntity
  8
SEIHIN
100
AcDbLine
 10
328.9705425292321
 20
161.8321444897533
 30
0.0
 11
330.5140297292321
 21
159.2596657197533
 31
0.0
  0
ARC
  5
5404
330
1A
100
AcDbEntity
  8
SEIHIN
100
AcDbCircle
 10
344.4240758292322
 20
162.3578366397533
 30
0.0
 40
1.999999974328267
100
AcDbArc
 50
300.9637562864189
 51
30.9637572690345
  0
CIRCLE
  5
5405
330
1A
100
AcDbEntity
  8
SEIHIN
100
AcDbCircle
 10
329.8466960292322
 20
176.9352163797532
 30
0.0
 40
3.249999974956403
  0
LINE
  5
5406
330
1A
100
AcDbEntity
  8
CENTER_L
100
AcDbLine
 10
324.4873652397193
 20
173.7196179067877
 30
0.0
 11
335.206026818745
 21
180.1508148527187
 31
0.0
  0
LINE
  5
5407
330
1A
100
AcDbEntity
  8
CENTER_L
100
AcDbLine
 10
326.6310975562666
 20
182.2945471692661
 30
0.0
 11
333.0622945021977
 21
171.5758855902404
 31
0.0
  0
LINE
  5
5408
330
1A
100
AcDbEntity
  8
SEIHIN
100
AcDbLine
 10
317.2415500292322
 20
174.6199854797532
 30
0.0
 11
320.2241146292322
 21
176.4095242297532
 31
0.0
  0
LINE
  5
5409
330
1A
100
AcDbEntity
  8
CENTER_L
100
AcDbLine
 10
322.3865076086207
 20
182.371721527992
 30
0.0
 11
331.1329354498436
 21
187.6195782315144
 31
0.0
  0
LINE
  5
540A
330
1A
100
AcDbEntity
  8
SEIHIN
100
AcDbLine
 10
318.6806274292321
 20
178.9820030097532
 30
0.0
 11
320.2241146292322
 21
176.4095242297532
 31
0.0
  0
INSERT
  5
540B
330
1A
100
AcDbEntity
  8
SUNPOU
100
AcDbBlockReference
  2
_OPEN
 10
331.1287850352572
 20
179.9216436127269
 30
0.0
 41
2.999999999999981
 42
3.0
 43
3.0
 50
251.7065953267104
1001
ACAD
1000
DSTYLE
1002
{
1070
    41
1040
3.0
1070
    42
1040
3.0
1070
    43
1040
7.0
1070
    44
1040
1.5
1070
    73
1070
     0
1070
    74
1070
     0
1070
    77
1070
     0
1070
   140
1040
3.0
1070
   141
1040
3.0
1070
   147
1040
1.0
1070
   172
1070
     1
1070
   173
1070
     1
1070
   176
1070
   256
1070
   177
1070
   256
1070
   178
1070
   256
1070
   271
1070
     0
1070
   272
1070
     0
1070
   341
1005
B2
1070
   343
1005
B2
1070
   344
1005
B2
1002
}
  0
CIRCLE
  5
540C
330
1A
100
AcDbEntity
  8
SEIHIN
100
AcDbCircle
 10
326.7597215292322
 20
184.9956498797532
 30
0.0
 40
2.099999996653719
  0
LINE
  5
540D
330
1A
100
AcDbEntity
  8
SEIHIN
100
AcDbLine
 10
291.2595144192321
 20
188.7686187597532
 30
0.0
 11
292.1170073392321
 21
189.2831145097533
 31
0.0
  0
LINE
  5
540E
330
1A
100
AcDbEntity
  8
SEIHIN
100
AcDbLine
 10
302.8429851592321
 20
189.8711658297532
 30
0.0
 11
305.8442103992321
 21
191.6719009697533
 31
0.0
  0
LINE
  5
540F
330
1A
100
AcDbEntity
  8
SEIHIN
100
AcDbLine
 10
307.1455455107499
 20
191.4466597322311
 30
0.0
 11
306.2880525895276
 21
190.9321639796768
 31
0.0
  0
LINE
  5
5410
330
1A
100
AcDbEntity
  8
SEIHIN
100
AcDbLine
 10
303.2644153792321
 20
195.9715593297532
 30
0.0
 11
304.1219082992321
 21
196.4860550897533
 31
0.0
  0
ARC
  5
5411
330
1A
100
AcDbEntity
  8
SEIHIN
100
AcDbCircle
 10
327.9602116292321
 20
189.7976102697533
 30
0.0
 40
2.00000001720292
100
AcDbArc
 50
30.96375579511198
 51
120.9637562864194
  0
VIEWPORT
  5
22
330
17
100
AcDbEntity
 67
     1
  8
0
100
AcDbViewport
 10
313.6808219178082
 20
148.5
 30
0.0
 40
627.3616438356165
 41
297.0
 68
     2
 69
     1
1001
ACAD
1000
MVIEW
1002
{
1070
    16
1010
0.0
1020
0.0
1030
0.0
1010
0.0
1020
0.0
1030
1.0
1040
0.0
1040
297.0
1040
313.6808219178082
1040
148.5
1040
50.0
1040
0.0
1040
0.0
1070
     0
1070
   100
1070
     1
1070
     0
1070
     0
1070
     0
1070
     0
1070
     0
1040
0.0
1040
0.0
1040
0.0
1040
1.0
1040
1.0
1040
10.0
1040
10.0
1070
     0
1002
{
1002
}
1002
}
  0
VIEWPORT
  5
64
330
17
100
AcDbEntity
 67
     1
  8
VIEWPORT
100
AcDbViewport
 10
210.0
 20
148.5
 30
0.0
 40
420.0
 41
297.0
 68
     1
 69
     2
1001
ACAD
1000
MVIEW
1002
{
1070
    16
1010
0.0
1020
0.0
1030
0.0
1010
0.0
1020
0.0
1030
1.0
1040
0.0
1040
302.9399999999998
1040
210.0
1040
148.5
1040
50.0
1040
0.0
1040
0.0
1070
     0
1070
   100
1070
     1
1070
     0
1070
     0
1070
     0
1070
     0
1070
     0
1040
0.0
1040
0.0
1040
0.0
1040
5.0
1040
5.0
1040
0.0
1040
0.0
1070
     0
1002
{
1002
}
1002
}
  0
ENDSEC
  0
SECTION
  2
OBJECTS
  0
DICTIONARY
  5
C
330
0
100
AcDbDictionary
  3
ACAD_GROUP
350
D
  3
ACAD_LAYOUT
350
141
  3
ACAD_MLINESTYLE
350
E
  3
ACAD_PLOTSETTINGS
350
142
  3
ACAD_PLOTSTYLENAME
350
13F
  3
ACADDIM
350
1A14
  3
ACDBVARIABLEDICTIONARY
350
120D
  3
ACDBHEADERROUNDTRIPXREC
350
554B
  0
DICTIONARY
  5
7A2
330
1A
100
AcDbDictionary
280
     1
  3
ACAD_LAYOUTSELFREF
360
556D
  0
DICTIONARY
  5
7A0
330
17
100
AcDbDictionary
280
     1
  3
ACAD_LAYOUTSELFREF
360
556C
  0
DICTIONARY
  5
D
102
{ACAD_REACTORS
330
C
102
}
330
C
100
AcDbDictionary
  0
DICTIONARY
  5
141
102
{ACAD_REACTORS
330
C
102
}
330
C
100
AcDbDictionary
  0
DICTIONARY
  5
E
102
{ACAD_REACTORS
330
C
102
}
330
C
100
AcDbDictionary
  3
STANDARD
350
13
  0
DICTIONARY
  5
142
102
{ACAD_REACTORS
330
C
102
}
330
C
100
AcDbDictionary
  0
ACDBDICTIONARYWDFLT
  5
13F
102
{ACAD_REACTORS
330
C
102
}
330
C
100
AcDbDictionary
281
     1
  3
Normal
350
140
100
AcDbDictionaryWithDefault
340
140
1001
ACAD
1000
TREAT_AS_HARD
1070
     0
1000
TREAT_AS_HARD
1070
     0
1000
TREAT_AS_HARD
1070
     0
1000
TREAT_AS_HARD
1070
     0
1000
TREAT_AS_HARD
1070
     0
1000
TREAT_AS_HARD
1070
     0
1000
TREAT_AS_HARD
1070
     0
1000
TREAT_AS_HARD
1070
     0
1000
TREAT_AS_HARD
1070
     0
1000
TREAT_AS_HARD
1070
     0
1000
TREAT_AS_HARD
1070
     0
  0
XRECORD
  5
1A14
102
{ACAD_REACTORS
330
C
102
}
330
C
100
AcDbXrecord
 90
   990106
  3

 60
     0
 61
     0
 62
     1
 63
     3
 64
     0
 65
     0
 66
     0
 67
     3
 68
     1
 69
     0
 70
     0
 71
     0
 72
     0
 40
0.0
170
     0
340
0
  0
DICTIONARY
  5
120D
102
{ACAD_REACTORS
330
C
102
}
330
C
100
AcDbDictionary
  3
SORTENTS
350
120E
  0
DICTIONARY
  5
554B
102
{ACAD_REACTORS
330
C
102
}
330
C
100
AcDbDictionary
  3
TSTACKALIGN
350
554C
  3
TSTACKSIZE
350
554D
  3
HYPERLINKBASE
350
554E
  3
STYLESHEET
350
554F
  3
LAYOUTDICT
350
5550
  3
PLOTSETDICT
350
5551
  3
PLOTSTYLNAMDICT
350
5552
  3
LWETCUNION
350
5553
  3
INSUNITS
350
5554
  3
CEPSNTYPE
350
5555
  3
FINGERPRINTGUID
350
5556
  3
VERSIONGUID
350
5557
  3
PSVPSCALE
350
5558
  3
DIMSTYLEDATA
350
5559
  3
PUCSORTHOREF
350
555A
  3
PUCSORTHOVIEW
350
555B
  3
PUCSBASE
350
555C
  3
PUCSORGTOP
350
555D
  3
PUCSORGBOTTOM
350
555E
  3
PUCSORGLEFT
350
555F
  3
PUCSORGRIGHT
350
5560
  3
PUCSORGFRONT
350
5561
  3
PUCSORGBACK
350
5562
  3
UCSORTHOREF
350
5563
  3
UCSORTHOVIEW
350
5564
  3
UCSBASE
350
5565
  3
UCSORGTOP
350
5566
  3
UCSORGBOTTOM
350
5567
  3
UCSORGLEFT
350
5568
  3
UCSORGRIGHT
350
5569
  3
UCSORGFRONT
350
556A
  3
UCSORGBACK
350
556B
  0
XRECORD
  5
556D
102
{ACAD_REACTORS
330
7A2
102
}
330
7A2
100
AcDbXrecord
340
1A
  0
XRECORD
  5
556C
102
{ACAD_REACTORS
330
7A0
102
}
330
7A0
100
AcDbXrecord
340
17
  0
MLINESTYLE
  5
13
102
{ACAD_REACTORS
330
E
102
}
330
E
100
AcDbMlineStyle
  2
STANDARD
 70
     0
  3

 62
     0
 51
90.0
 52
90.0
 71
     2
 49
0.5
 62
   256
  6
BYLAYER
 49
-0.5
 62
   256
  6
BYLAYER
  0
ACDBPLACEHOLDER
  5
140
102
{ACAD_REACTORS
330
13F
102
}
330
13F
100
AcDbPlaceHolder
280
     0
  0
DICTIONARYVAR
  5
120E
102
{ACAD_REACTORS
330
120D
102
}
330
120D
100
DictionaryVariables
280
     0
  1
96
  0
XRECORD
  5
554C
102
{ACAD_REACTORS
330
554B
102
}
330
554B
100
AcDbXrecord
 90
        1
  0
XRECORD
  5
554D
102
{ACAD_REACTORS
330
554B
102
}
330
554B
100
AcDbXrecord
 90
       70
  0
XRECORD
  5
554E
102
{ACAD_REACTORS
330
554B
102
}
330
554B
100
AcDbXrecord
  1

  0
XRECORD
  5
554F
102
{ACAD_REACTORS
330
554B
102
}
330
554B
100
AcDbXrecord
  1
systemprinter.ctb
  0
XRECORD
  5
5550
102
{ACAD_REACTORS
330
554B
102
}
330
554B
100
AcDbXrecord
340
141
  0
XRECORD
  5
5551
102
{ACAD_REACTORS
330
554B
102
}
330
554B
100
AcDbXrecord
340
142
  0
XRECORD
  5
5552
102
{ACAD_REACTORS
330
554B
102
}
330
554B
100
AcDbXrecord
340
13F
  0
XRECORD
  5
5553
102
{ACAD_REACTORS
330
554B
102
}
330
554B
100
AcDbXrecord
 90
    10781
  0
XRECORD
  5
5554
102
{ACAD_REACTORS
330
554B
102
}
330
554B
100
AcDbXrecord
 90
        0
  0
XRECORD
  5
5555
102
{ACAD_REACTORS
330
554B
102
}
330
554B
100
AcDbXrecord
 90
        0
  0
XRECORD
  5
5556
102
{ACAD_REACTORS
330
554B
102
}
330
554B
100
AcDbXrecord
  1
{4E8D0500-CDD1-11D3-932C-444553540000}
  0
XRECORD
  5
5557
102
{ACAD_REACTORS
330
554B
102
}
330
554B
100
AcDbXrecord
  1
{EF1529E5-A4DF-4562-9CA3-4E78B8DC4C66}
  0
XRECORD
  5
5558
102
{ACAD_REACTORS
330
554B
102
}
330
554B
100
AcDbXrecord
 40
0.0
  0
XRECORD
  5
5559
102
{ACAD_REACTORS
330
554B
102
}
330
554B
100
AcDbXrecord
1000
DSTYLE
1002
{
1070
   341
340
B2
1070
   343
340
B2
1070
   344
340
B2
1070
   371
 70
    -1
1070
   372
 70
    -1
1002
}
  0
XRECORD
  5
555A
102
{ACAD_REACTORS
330
554B
102
}
330
554B
100
AcDbXrecord
340
0
  0
XRECORD
  5
555B
102
{ACAD_REACTORS
330
554B
102
}
330
554B
100
AcDbXrecord
 70
     0
  0
XRECORD
  5
555C
102
{ACAD_REACTORS
330
554B
102
}
330
554B
100
AcDbXrecord
340
0
  0
XRECORD
  5
555D
102
{ACAD_REACTORS
330
554B
102
}
330
554B
100
AcDbXrecord
 10
0.0
 20
0.0
 30
0.0
  0
XRECORD
  5
555E
102
{ACAD_REACTORS
330
554B
102
}
330
554B
100
AcDbXrecord
 10
0.0
 20
0.0
 30
0.0
  0
XRECORD
  5
555F
102
{ACAD_REACTORS
330
554B
102
}
330
554B
100
AcDbXrecord
 10
0.0
 20
0.0
 30
0.0
  0
XRECORD
  5
5560
102
{ACAD_REACTORS
330
554B
102
}
330
554B
100
AcDbXrecord
 10
0.0
 20
0.0
 30
0.0
  0
XRECORD
  5
5561
102
{ACAD_REACTORS
330
554B
102
}
330
554B
100
AcDbXrecord
 10
0.0
 20
0.0
 30
0.0
  0
XRECORD
  5
5562
102
{ACAD_REACTORS
330
554B
102
}
330
554B
100
AcDbXrecord
 10
0.0
 20
0.0
 30
0.0
  0
XRECORD
  5
5563
102
{ACAD_REACTORS
330
554B
102
}
330
554B
100
AcDbXrecord
340
0
  0
XRECORD
  5
5564
102
{ACAD_REACTORS
330
554B
102
}
330
554B
100
AcDbXrecord
 70
     0
  0
XRECORD
  5
5565
102
{ACAD_REACTORS
330
554B
102
}
330
554B
100
AcDbXrecord
340
0
  0
XRECORD
  5
5566
102
{ACAD_REACTORS
330
554B
102
}
330
554B
100
AcDbXrecord
 10
0.0
 20
0.0
 30
0.0
  0
XRECORD
  5
5567
102
{ACAD_REACTORS
330
554B
102
}
330
554B
100
AcDbXrecord
 10
0.0
 20
0.0
 30
0.0
  0
XRECORD
  5
5568
102
{ACAD_REACTORS
330
554B
102
}
330
554B
100
AcDbXrecord
 10
0.0
 20
0.0
 30
0.0
  0
XRECORD
  5
5569
102
{ACAD_REACTORS
330
554B
102
}
330
554B
100
AcDbXrecord
 10
0.0
 20
0.0
 30
0.0
  0
XRECORD
  5
556A
102
{ACAD_REACTORS
330
554B
102
}
330
554B
100
AcDbXrecord
 10
0.0
 20
0.0
 30
0.0
  0
XRECORD
  5
556B
102
{ACAD_REACTORS
330
554B
102
}
330
554B
100
AcDbXrecord
 10
0.0
 20
0.0
 30
0.0
  0
ENDSEC
  0
EOF
