  0
SECTION
  2
HEADER
  9
$ACADVER
  1
AC1015
  9
$ACADMAINTVER
 70
     6
  9
$DWGCODEPAGE
  3
ANSI_932
  9
$INSBASE
 10
0.0
 20
0.0
 30
0.0
  9
$EXTMIN
 10
-0.0000003224365628
 20
0.0000000308041308
 30
0.0
  9
$EXTMAX
 10
398.7999996775635
 20
275.8000000308042
 30
0.0
  9
$LIMMIN
 10
0.0
 20
0.0
  9
$LIMMAX
 10
420.0
 20
297.0
  9
$ORTHOMODE
 70
     1
  9
$REGENMODE
 70
     1
  9
$FILLMODE
 70
     1
  9
$QTEXTMODE
 70
     0
  9
$MIRRTEXT
 70
     1
  9
$LTSCALE
 40
5.0
  9
$ATTMODE
 70
     1
  9
$TEXTSIZE
 40
3.0
  9
$TRACEWID
 40
1.0
  9
$TEXTSTYLE
  7
STANDARD
  9
$CLAYER
  8
SUNPOU
  9
$CELTYPE
  6
BYLAYER
  9
$CECOLOR
 62
   256
  9
$CELTSCALE
 40
1.0
  9
$DISPSILH
 70
     0
  9
$DIMSCALE
 40
1.0
  9
$DIMASZ
 40
3.0
  9
$DIMEXO
 40
3.0
  9
$DIMDLI
 40
7.0
  9
$DIMRND
 40
0.0
  9
$DIMDLE
 40
0.0
  9
$DIMEXE
 40
1.5
  9
$DIMTP
 40
0.0
  9
$DIMTM
 40
0.0
  9
$DIMTXT
 40
3.0
  9
$DIMCEN
 40
3.0
  9
$DIMTSZ
 40
0.0
  9
$DIMTOL
 70
     0
  9
$DIMLIM
 70
     0
  9
$DIMTIH
 70
     0
  9
$DIMTOH
 70
     0
  9
$DIMSE1
 70
     0
  9
$DIMSE2
 70
     0
  9
$DIMTAD
 70
     3
  9
$DIMZIN
 70
     0
  9
$DIMBLK
  1

  9
$DIMASO
 70
     1
  9
$DIMSHO
 70
     1
  9
$DIMPOST
  1

  9
$DIMAPOST
  1

  9
$DIMALT
 70
     0
  9
$DIMALTD
 70
     2
  9
$DIMALTF
 40
25.4
  9
$DIMLFAC
 40
1.0
  9
$DIMTOFL
 70
     1
  9
$DIMTVP
 40
0.0
  9
$DIMTIX
 70
     0
  9
$DIMSOXD
 70
     0
  9
$DIMSAH
 70
     1
  9
$DIMBLK1
  1
OPEN
  9
$DIMBLK2
  1
OPEN
  9
$DIMSTYLE
  2
STANDARD
  9
$DIMCLRD
 70
   256
  9
$DIMCLRE
 70
   256
  9
$DIMCLRT
 70
   256
  9
$DIMTFAC
 40
1.0
  9
$DIMGAP
 40
1.0
  9
$DIMJUST
 70
     0
  9
$DIMSD1
 70
     0
  9
$DIMSD2
 70
     0
  9
$DIMTOLJ
 70
     1
  9
$DIMTZIN
 70
     0
  9
$DIMALTZ
 70
     0
  9
$DIMALTTZ
 70
     0
  9
$DIMUPT
 70
     0
  9
$DIMDEC
 70
     0
  9
$DIMTDEC
 70
     0
  9
$DIMALTU
 70
     2
  9
$DIMALTTD
 70
     2
  9
$DIMTXSTY
  7
STANDARD
  9
$DIMAUNIT
 70
     0
  9
$DIMADEC
 70
     0
  9
$DIMALTRND
 40
0.0
  9
$DIMAZIN
 70
     0
  9
$DIMDSEP
 70
    46
  9
$DIMATFIT
 70
     3
  9
$DIMFRAC
 70
     0
  9
$DIMLDRBLK
  1
OPEN
  9
$DIMLUNIT
 70
     2
  9
$DIMLWD
 70
    -1
  9
$DIMLWE
 70
    -1
  9
$DIMTMOVE
 70
     0
  9
$LUNITS
 70
     2
  9
$LUPREC
 70
     4
  9
$SKETCHINC
 40
1.0
  9
$FILLETRAD
 40
2.0
  9
$AUNITS
 70
     0
  9
$AUPREC
 70
     0
  9
$MENU
  1
.
  9
$ELEVATION
 40
0.0
  9
$PELEVATION
 40
0.0
  9
$THICKNESS
 40
0.0
  9
$LIMCHECK
 70
     0
  9
$CHAMFERA
 40
1.0
  9
$CHAMFERB
 40
1.0
  9
$CHAMFERC
 40
20.0
  9
$CHAMFERD
 40
0.0
  9
$SKPOLY
 70
     0
  9
$TDCREATE
 40
2451589.469382176
  9
$TDUCREATE
 40
2451589.094382176
  9
$TDUPDATE
 40
2456210.690916759
  9
$TDUUPDATE
 40
2456210.315916759
  9
$TDINDWG
 40
0.2862147454
  9
$TDUSRTIMER
 40
0.2862147454
  9
$USRTIMER
 70
     1
  9
$ANGBASE
 50
0.0
  9
$ANGDIR
 70
     0
  9
$PDMODE
 70
     0
  9
$PDSIZE
 40
0.0
  9
$PLINEWID
 40
0.0
  9
$SPLFRAME
 70
     0
  9
$SPLINETYPE
 70
     6
  9
$SPLINESEGS
 70
     8
  9
$HANDSEED
  5
3E93
  9
$SURFTAB1
 70
     6
  9
$SURFTAB2
 70
     6
  9
$SURFTYPE
 70
     6
  9
$SURFU
 70
     6
  9
$SURFV
 70
     6
  9
$UCSBASE
  2

  9
$UCSNAME
  2

  9
$UCSORG
 10
0.0
 20
0.0
 30
0.0
  9
$UCSXDIR
 10
1.0
 20
0.0
 30
0.0
  9
$UCSYDIR
 10
0.0
 20
1.0
 30
0.0
  9
$UCSORTHOREF
  2

  9
$UCSORTHOVIEW
 70
     0
  9
$UCSORGTOP
 10
0.0
 20
0.0
 30
0.0
  9
$UCSORGBOTTOM
 10
0.0
 20
0.0
 30
0.0
  9
$UCSORGLEFT
 10
0.0
 20
0.0
 30
0.0
  9
$UCSORGRIGHT
 10
0.0
 20
0.0
 30
0.0
  9
$UCSORGFRONT
 10
0.0
 20
0.0
 30
0.0
  9
$UCSORGBACK
 10
0.0
 20
0.0
 30
0.0
  9
$PUCSBASE
  2

  9
$PUCSNAME
  2

  9
$PUCSORG
 10
0.0
 20
0.0
 30
0.0
  9
$PUCSXDIR
 10
1.0
 20
0.0
 30
0.0
  9
$PUCSYDIR
 10
0.0
 20
1.0
 30
0.0
  9
$PUCSORTHOREF
  2

  9
$PUCSORTHOVIEW
 70
     0
  9
$PUCSORGTOP
 10
0.0
 20
0.0
 30
0.0
  9
$PUCSORGBOTTOM
 10
0.0
 20
0.0
 30
0.0
  9
$PUCSORGLEFT
 10
0.0
 20
0.0
 30
0.0
  9
$PUCSORGRIGHT
 10
0.0
 20
0.0
 30
0.0
  9
$PUCSORGFRONT
 10
0.0
 20
0.0
 30
0.0
  9
$PUCSORGBACK
 10
0.0
 20
0.0
 30
0.0
  9
$USERI1
 70
     0
  9
$USERI2
 70
     0
  9
$USERI3
 70
     0
  9
$USERI4
 70
     0
  9
$USERI5
 70
     0
  9
$USERR1
 40
0.0
  9
$USERR2
 40
0.0
  9
$USERR3
 40
0.0
  9
$USERR4
 40
0.0
  9
$USERR5
 40
0.0
  9
$WORLDVIEW
 70
     1
  9
$SHADEDGE
 70
     3
  9
$SHADEDIF
 70
    70
  9
$TILEMODE
 70
     1
  9
$MAXACTVP
 70
    16
  9
$PINSBASE
 10
0.0
 20
0.0
 30
0.0
  9
$PLIMCHECK
 70
     0
  9
$PEXTMIN
 10
0.0
 20
0.0
 30
0.0
  9
$PEXTMAX
 10
420.0
 20
297.0
 30
0.0
  9
$PLIMMIN
 10
0.0
 20
0.0
  9
$PLIMMAX
 10
420.0
 20
297.0
  9
$UNITMODE
 70
     0
  9
$VISRETAIN
 70
     0
  9
$PLINEGEN
 70
     0
  9
$PSLTSCALE
 70
     1
  9
$TREEDEPTH
 70
  3020
  9
$CMLSTYLE
  2
STANDARD
  9
$CMLJUST
 70
     0
  9
$CMLSCALE
 40
1.0
  9
$PROXYGRAPHICS
 70
     1
  9
$MEASUREMENT
 70
     0
  9
$CELWEIGHT
370
    -1
  9
$ENDCAPS
280
     0
  9
$JOINSTYLE
280
     0
  9
$LWDISPLAY
290
     0
  9
$INSUNITS
 70
     0
  9
$HYPERLINKBASE
  1

  9
$STYLESHEET
  1
print.ctb
  9
$XEDIT
290
     1
  9
$CEPSNTYPE
380
     0
  9
$PSTYLEMODE
290
     1
  9
$FINGERPRINTGUID
  2
{4E8D0500-CDD1-11D3-932C-444553540000}
  9
$VERSIONGUID
  2
{C64763F5-AB4A-4218-A13D-31F143E8C0D2}
  9
$EXTNAMES
290
     1
  9
$PSVPSCALE
 40
0.0
  9
$OLESTARTUP
290
     0
  0
ENDSEC
  0
SECTION
  2
CLASSES
  0
CLASS
  1
ACDBDICTIONARYWDFLT
  2
AcDbDictionaryWithDefault
  3
AutoCAD 2000
 90
        0
280
     0
281
     0
  0
CLASS
  1
ACDBPLACEHOLDER
  2
AcDbPlaceHolder
  3
AutoCAD 2000
 90
        0
280
     0
281
     0
  0
CLASS
  1
LAYOUT
  2
AcDbLayout
  3
AutoCAD 2000
 90
        0
280
     0
281
     0
  0
CLASS
  1
LONG_TRANSACTION
  2
AcDbLongTransaction
  3
AutoCAD 2000
 90
    32768
280
     0
281
     0
  0
CLASS
  1
LWPOLYLINE
  2
AcDbPolyline
  3
AutoCAD 2000
 90
    32768
280
     0
281
     1
  0
CLASS
  1
HATCH
  2
AcDbHatch
  3
AutoCAD 2000
 90
    32768
280
     0
281
     1
  0
CLASS
  1
XRECORD
  2
AcDbXrecord
  3
AutoCAD 2000
 90
    32768
280
     0
281
     0
  0
CLASS
  1
LONG_TRANSACTION
  2
AcDbLongTransaction
  3
AutoCAD 2000
 90
    32768
280
     0
281
     0
  0
CLASS
  1
LWPOLYLINE
  2
AcDbPolyline
  3
AutoCAD 2000
 90
    32768
280
     0
281
     1
  0
CLASS
  1
HATCH
  2
AcDbHatch
  3
AutoCAD 2000
 90
    32768
280
     0
281
     1
  0
CLASS
  1
XRECORD
  2
AcDbXrecord
  3
AutoCAD 2000
 90
    32768
280
     0
281
     0
  0
CLASS
  1
DICTIONARYVAR
  2
AcDbDictionaryVar
  3
AutoCAD 2000
 90
        0
280
     0
281
     0
  0
CLASS
  1
LONG_TRANSACTION
  2
AcDbLongTransaction
  3
AutoCAD 2000
 90
    32768
280
     0
281
     0
  0
CLASS
  1
LWPOLYLINE
  2
AcDbPolyline
  3
AutoCAD 2000
 90
    32768
280
     0
281
     1
  0
CLASS
  1
HATCH
  2
AcDbHatch
  3
AutoCAD 2000
 90
    32768
280
     0
281
     1
  0
CLASS
  1
XRECORD
  2
AcDbXrecord
  3
AutoCAD 2000
 90
    32768
280
     0
281
     0
  0
CLASS
  1
LONG_TRANSACTION
  2
AcDbLongTransaction
  3
AutoCAD 2000
 90
    32768
280
     0
281
     0
  0
CLASS
  1
LWPOLYLINE
  2
AcDbPolyline
  3
AutoCAD 2000
 90
    32768
280
     0
281
     1
  0
CLASS
  1
HATCH
  2
AcDbHatch
  3
AutoCAD 2000
 90
    32768
280
     0
281
     1
  0
CLASS
  1
XRECORD
  2
AcDbXrecord
  3
AutoCAD 2000
 90
    32768
280
     0
281
     0
  0
CLASS
  1
LONG_TRANSACTION
  2
AcDbLongTransaction
  3
AutoCAD 2000
 90
    32768
280
     0
281
     0
  0
CLASS
  1
LWPOLYLINE
  2
AcDbPolyline
  3
AutoCAD 2000
 90
    32768
280
     0
281
     1
  0
CLASS
  1
HATCH
  2
AcDbHatch
  3
AutoCAD 2000
 90
    32768
280
     0
281
     1
  0
CLASS
  1
XRECORD
  2
AcDbXrecord
  3
AutoCAD 2000
 90
    32768
280
     0
281
     0
  0
CLASS
  1
LONG_TRANSACTION
  2
AcDbLongTransaction
  3
AutoCAD 2000
 90
    32768
280
     0
281
     0
  0
CLASS
  1
LWPOLYLINE
  2
AcDbPolyline
  3
AutoCAD 2000
 90
    32768
280
     0
281
     1
  0
CLASS
  1
HATCH
  2
AcDbHatch
  3
AutoCAD 2000
 90
    32768
280
     0
281
     1
  0
CLASS
  1
XRECORD
  2
AcDbXrecord
  3
AutoCAD 2000
 90
    32768
280
     0
281
     0
  0
CLASS
  1
LONG_TRANSACTION
  2
AcDbLongTransaction
  3
AutoCAD 2000
 90
    32768
280
     0
281
     0
  0
CLASS
  1
LWPOLYLINE
  2
AcDbPolyline
  3
AutoCAD 2000
 90
    32768
280
     0
281
     1
  0
CLASS
  1
HATCH
  2
AcDbHatch
  3
AutoCAD 2000
 90
    32768
280
     0
281
     1
  0
CLASS
  1
XRECORD
  2
AcDbXrecord
  3
AutoCAD 2000
 90
    32768
280
     0
281
     0
  0
CLASS
  1
LONG_TRANSACTION
  2
AcDbLongTransaction
  3
AutoCAD 2000
 90
    32768
280
     0
281
     0
  0
CLASS
  1
LWPOLYLINE
  2
AcDbPolyline
  3
AutoCAD 2000
 90
    32768
280
     0
281
     1
  0
CLASS
  1
HATCH
  2
AcDbHatch
  3
AutoCAD 2000
 90
    32768
280
     0
281
     1
  0
CLASS
  1
XRECORD
  2
AcDbXrecord
  3
AutoCAD 2000
 90
    32768
280
     0
281
     0
  0
CLASS
  1
LONG_TRANSACTION
  2
AcDbLongTransaction
  3
AutoCAD 2000
 90
    32768
280
     0
281
     0
  0
CLASS
  1
LWPOLYLINE
  2
AcDbPolyline
  3
AutoCAD 2000
 90
    32768
280
     0
281
     1
  0
CLASS
  1
HATCH
  2
AcDbHatch
  3
AutoCAD 2000
 90
    32768
280
     0
281
     1
  0
CLASS
  1
XRECORD
  2
AcDbXrecord
  3
AutoCAD 2000
 90
    32768
280
     0
281
     0
  0
CLASS
  1
LONG_TRANSACTION
  2
AcDbLongTransaction
  3
AutoCAD 2000
 90
    32768
280
     0
281
     0
  0
CLASS
  1
LWPOLYLINE
  2
AcDbPolyline
  3
AutoCAD 2000
 90
    32768
280
     0
281
     1
  0
CLASS
  1
HATCH
  2
AcDbHatch
  3
AutoCAD 2000
 90
    32768
280
     0
281
     1
  0
CLASS
  1
XRECORD
  2
AcDbXrecord
  3
AutoCAD 2000
 90
    32768
280
     0
281
     0
  0
CLASS
  1
LONG_TRANSACTION
  2
AcDbLongTransaction
  3
AutoCAD 2000
 90
    32768
280
     0
281
     0
  0
CLASS
  1
LWPOLYLINE
  2
AcDbPolyline
  3
AutoCAD 2000
 90
    32768
280
     0
281
     1
  0
CLASS
  1
HATCH
  2
AcDbHatch
  3
AutoCAD 2000
 90
    32768
280
     0
281
     1
  0
CLASS
  1
XRECORD
  2
AcDbXrecord
  3
AutoCAD 2000
 90
    32768
280
     0
281
     0
  0
CLASS
  1
LONG_TRANSACTION
  2
AcDbLongTransaction
  3
AutoCAD 2000
 90
    32768
280
     0
281
     0
  0
CLASS
  1
LWPOLYLINE
  2
AcDbPolyline
  3
AutoCAD 2000
 90
    32768
280
     0
281
     1
  0
CLASS
  1
HATCH
  2
AcDbHatch
  3
AutoCAD 2000
 90
    32768
280
     0
281
     1
  0
CLASS
  1
XRECORD
  2
AcDbXrecord
  3
AutoCAD 2000
 90
    32768
280
     0
281
     0
  0
ENDSEC
  0
SECTION
  2
TABLES
  0
TABLE
  2
VPORT
  5
8
330
0
100
AcDbSymbolTable
 70
     2
  0
VPORT
  5
3E92
330
8
100
AcDbSymbolTableRecord
100
AcDbViewportTableRecord
  2
*Active
 70
     0
 10
0.0
 20
0.0
 11
1.0
 21
1.0
 12
209.9863966362972
 22
148.4930021393675
 13
0.0
 23
0.0
 14
5.0
 24
5.0
 15
0.0
 25
0.0
 16
0.0
 26
0.0
 36
1.0
 17
0.0
 27
0.0
 37
0.0
 40
299.2841663891981
 41
1.557397959183673
 42
50.0
 43
0.0
 44
0.0
 50
0.0
 51
0.0
 71
     0
 72
   100
 73
     1
 74
     0
 75
     0
 76
     0
 77
     0
 78
     0
281
     0
 65
     1
110
0.0
120
0.0
130
0.0
111
1.0
121
0.0
131
0.0
112
0.0
122
1.0
132
0.0
 79
     0
146
0.0
  0
ENDTAB
  0
TABLE
  2
LTYPE
  5
5
330
0
100
AcDbSymbolTable
 70
     4
  0
LTYPE
  5
14
330
5
100
AcDbSymbolTableRecord
100
AcDbLinetypeTableRecord
  2
BYBLOCK
 70
     0
  3

 72
    65
 73
     0
 40
0.0
  0
LTYPE
  5
15
330
5
100
AcDbSymbolTableRecord
100
AcDbLinetypeTableRecord
  2
BYLAYER
 70
     0
  3

 72
    65
 73
     0
 40
0.0
  0
LTYPE
  5
16
330
5
100
AcDbSymbolTableRecord
100
AcDbLinetypeTableRecord
  2
CONTINUOUS
 70
     0
  3
Solid line
 72
    65
 73
     0
 40
0.0
  0
LTYPE
  5
120
330
5
100
AcDbSymbolTableRecord
100
AcDbLinetypeTableRecord
  2
CENTER
 70
     0
  3
____ _ ____ _ ____ _ ____ _ ____ _ ____ _ ____ 
 72
    65
 73
     4
 40
2.0
 49
1.25
 74
     0
 49
-0.25
 74
     0
 49
0.25
 74
     0
 49
-0.25
 74
     0
  0
LTYPE
  5
122
330
5
100
AcDbSymbolTableRecord
100
AcDbLinetypeTableRecord
  2
PHANTOM
 70
     0
  3
______  __  __  ______  __  __  ______  __  __ 
 72
    65
 73
     6
 40
2.5
 49
1.25
 74
     0
 49
-0.25
 74
     0
 49
0.25
 74
     0
 49
-0.25
 74
     0
 49
0.25
 74
     0
 49
-0.25
 74
     0
  0
LTYPE
  5
2BBB
330
5
100
AcDbSymbolTableRecord
100
AcDbLinetypeTableRecord
  2
DASHED
 70
     0
  3
__ __ __ __ __ __ __ __ __ __ __ __ __ __ __ __
 72
    65
 73
     2
 40
0.75
 49
0.5
 74
     0
 49
-0.25
 74
     0
  0
ENDTAB
  0
TABLE
  2
LAYER
  5
2
330
0
100
AcDbSymbolTable
 70
     9
  0
LAYER
  5
F
330
2
100
AcDbSymbolTableRecord
100
AcDbLayerTableRecord
  2
0
 70
     0
 62
     7
  6
CONTINUOUS
370
    -3
390
140
  0
LAYER
  5
62
330
2
100
AcDbSymbolTableRecord
100
AcDbLayerTableRecord
  2
VIEWPORT
 70
     0
 62
     7
  6
CONTINUOUS
370
    -3
390
140
  0
LAYER
  5
6B
330
2
100
AcDbSymbolTableRecord
100
AcDbLayerTableRecord
  2
ZUWAKU
 70
     0
 62
     7
  6
CONTINUOUS
370
    -3
390
140
  0
LAYER
  5
3EF
330
2
100
AcDbSymbolTableRecord
100
AcDbLayerTableRecord
  2
Defpoints
 70
     0
 62
     7
  6
CONTINUOUS
290
     0
370
    -3
390
140
  0
LAYER
  5
54D
330
2
100
AcDbSymbolTableRecord
100
AcDbLayerTableRecord
  2
SEIHIN
 70
     0
 62
     3
  6
CONTINUOUS
370
    -3
390
140
  0
LAYER
  5
54E
330
2
100
AcDbSymbolTableRecord
100
AcDbLayerTableRecord
  2
SUNPOU
 70
     0
 62
     4
  6
CONTINUOUS
370
    -3
390
140
  0
LAYER
  5
54F
330
2
100
AcDbSymbolTableRecord
100
AcDbLayerTableRecord
  2
CENTER L
 70
     0
 62
     1
  6
CENTER
370
    -3
390
140
  0
LAYER
  5
550
330
2
100
AcDbSymbolTableRecord
100
AcDbLayerTableRecord
  2
NOKITOI
 70
     0
 62
     8
  6
PHANTOM
370
    -3
390
140
  0
LAYER
  5
2988
330
2
100
AcDbSymbolTableRecord
100
AcDbLayerTableRecord
  2
moji
 70
     0
 62
     2
  6
CONTINUOUS
370
    -3
390
140
  0
ENDTAB
  0
TABLE
  2
STYLE
  5
3
330
0
100
AcDbSymbolTable
 70
     2
  0
STYLE
  5
10
330
3
100
AcDbSymbolTableRecord
100
AcDbTextStyleTableRecord
  2
STANDARD
 70
     0
 40
0.0
 41
1.0
 50
0.0
 71
     0
 42
3.0
  3
TXT
  4
c:\PROGRAM FILES\AUTOCAD LT\ms\bigfont.shx
  0
STYLE
  5
2989
330
3
100
AcDbSymbolTableRecord
100
AcDbTextStyleTableRecord
  2
ｽﾀｲﾙ1
 70
     0
 40
0.0
 41
1.0
 50
0.0
 71
     0
 42
2.5
  3
MS PGothic.ttf
  4

1001
ACAD
1000
MS PGothic
1071
    32818
  0
ENDTAB
  0
TABLE
  2
VIEW
  5
6
330
0
100
AcDbSymbolTable
 70
     0
  0
ENDTAB
  0
TABLE
  2
UCS
  5
7
330
0
100
AcDbSymbolTable
 70
     0
  0
ENDTAB
  0
TABLE
  2
APPID
  5
9
330
0
100
AcDbSymbolTable
 70
     1
  0
APPID
  5
11
330
9
100
AcDbSymbolTableRecord
100
AcDbRegAppTableRecord
  2
ACAD
 70
     0
  0
ENDTAB
  0
TABLE
  2
DIMSTYLE
  5
A
330
0
100
AcDbSymbolTable
 70
     1
100
AcDbDimStyleTable
 71
     0
  0
DIMSTYLE
105
1D
102
{ACAD_REACTORS
330
32D4
330
32D5
330
32D6
330
32DB
330
3310
330
3413
330
341C
330
3421
330
3431
330
344A
330
344B
330
3454
330
3459
330
345A
330
347A
102
}
330
A
100
AcDbSymbolTableRecord
100
AcDbDimStyleTableRecord
  2
STANDARD
 70
     0
340
10
  0
ENDTAB
  0
TABLE
  2
BLOCK_RECORD
  5
1
330
0
100
AcDbSymbolTable
 70
    17
  0
BLOCK_RECORD
  5
1A
102
{ACAD_XDICTIONARY
360
7A2
102
}
330
1
100
AcDbSymbolTableRecord
100
AcDbBlockTableRecord
  2
*MODEL_SPACE
340
143
  0
BLOCK_RECORD
  5
17
102
{ACAD_XDICTIONARY
360
7A0
102
}
330
1
100
AcDbSymbolTableRecord
100
AcDbBlockTableRecord
  2
*PAPER_SPACE
340
144
  0
BLOCK_RECORD
  5
B2
330
1
100
AcDbSymbolTableRecord
100
AcDbBlockTableRecord
  2
_OPEN
340
0
102
{BLKREFS
331
3462
331
347B
331
3538
331
3539
331
3C8C
331
3C8D
331
3C76
331
3C77
331
3C96
331
3C97
331
3C80
331
3C81
331
3565
331
3566
331
356E
331
356F
331
3577
331
3578
331
3582
331
3583
331
358D
331
358E
331
3596
331
3597
331
359F
331
35A0
331
35A8
331
35A9
331
35B1
331
35B2
331
35BA
331
35BB
102
}
  0
BLOCK_RECORD
  5
347D
330
1
100
AcDbSymbolTableRecord
100
AcDbBlockTableRecord
  2
*D1
340
0
  0
BLOCK_RECORD
  5
3489
330
1
100
AcDbSymbolTableRecord
100
AcDbBlockTableRecord
  2
*D2
340
0
  0
BLOCK_RECORD
  5
3495
330
1
100
AcDbSymbolTableRecord
100
AcDbBlockTableRecord
  2
*D3
340
0
  0
BLOCK_RECORD
  5
34A1
330
1
100
AcDbSymbolTableRecord
100
AcDbBlockTableRecord
  2
*D4
340
0
  0
BLOCK_RECORD
  5
34AD
330
1
100
AcDbSymbolTableRecord
100
AcDbBlockTableRecord
  2
*D5
340
0
  0
BLOCK_RECORD
  5
34B9
330
1
100
AcDbSymbolTableRecord
100
AcDbBlockTableRecord
  2
*D6
340
0
  0
BLOCK_RECORD
  5
34C5
330
1
100
AcDbSymbolTableRecord
100
AcDbBlockTableRecord
  2
*D7
340
0
  0
BLOCK_RECORD
  5
34D1
330
1
100
AcDbSymbolTableRecord
100
AcDbBlockTableRecord
  2
*D8
340
0
  0
BLOCK_RECORD
  5
34DD
330
1
100
AcDbSymbolTableRecord
100
AcDbBlockTableRecord
  2
*D9
340
0
  0
BLOCK_RECORD
  5
34EB
330
1
100
AcDbSymbolTableRecord
100
AcDbBlockTableRecord
  2
*D10
340
0
  0
BLOCK_RECORD
  5
34F9
330
1
100
AcDbSymbolTableRecord
100
AcDbBlockTableRecord
  2
*D11
340
0
  0
BLOCK_RECORD
  5
3505
330
1
100
AcDbSymbolTableRecord
100
AcDbBlockTableRecord
  2
*D12
340
0
  0
BLOCK_RECORD
  5
3511
330
1
100
AcDbSymbolTableRecord
100
AcDbBlockTableRecord
  2
*D13
340
0
  0
BLOCK_RECORD
  5
351D
330
1
100
AcDbSymbolTableRecord
100
AcDbBlockTableRecord
  2
*D14
340
0
  0
BLOCK_RECORD
  5
3529
330
1
100
AcDbSymbolTableRecord
100
AcDbBlockTableRecord
  2
*D15
340
0
  0
BLOCK_RECORD
  5
3CEF
330
1
100
AcDbSymbolTableRecord
100
AcDbBlockTableRecord
  2
*X16
340
0
102
{BLKREFS
331
2A56
102
}
  0
ENDTAB
  0
ENDSEC
  0
SECTION
  2
BLOCKS
  0
BLOCK
  5
1B
330
1A
100
AcDbEntity
  8
0
100
AcDbBlockBegin
  2
*MODEL_SPACE
 70
     0
 10
0.0
 20
0.0
 30
0.0
  3
*MODEL_SPACE
  1

  0
ENDBLK
  5
1C
330
1A
100
AcDbEntity
  8
0
100
AcDbBlockEnd
  0
BLOCK
  5
18
330
17
100
AcDbEntity
 67
     1
  8
0
100
AcDbBlockBegin
  2
*PAPER_SPACE
 70
     0
 10
0.0
 20
0.0
 30
0.0
  3
*PAPER_SPACE
  1

  0
ENDBLK
  5
19
330
17
100
AcDbEntity
 67
     1
  8
0
100
AcDbBlockEnd
  0
BLOCK
  5
B3
330
B2
100
AcDbEntity
  8
0
100
AcDbBlockBegin
  2
_OPEN
 70
     0
 10
0.0
 20
0.0
 30
0.0
  3
_OPEN
  1

  0
LINE
  5
B4
330
B2
100
AcDbEntity
  8
0
  6
ByBlock
 62
     0
100
AcDbLine
 10
-1.0
 20
0.1666666666666666
 30
0.0
 11
0.0
 21
0.0
 31
0.0
  0
LINE
  5
B5
330
B2
100
AcDbEntity
  8
0
  6
ByBlock
 62
     0
100
AcDbLine
 10
0.0
 20
0.0
 30
0.0
 11
-1.0
 21
-0.1666666666666666
 31
0.0
  0
LINE
  5
B6
330
B2
100
AcDbEntity
  8
0
  6
ByBlock
 62
     0
100
AcDbLine
 10
0.0
 20
0.0
 30
0.0
 11
-1.0
 21
0.0
 31
0.0
  0
ENDBLK
  5
B7
330
B2
100
AcDbEntity
  8
0
100
AcDbBlockEnd
  0
BLOCK
  5
3487
330
347D
100
AcDbEntity
  8
0
100
AcDbBlockBegin
  2
*D1
 70
     1
 10
0.0
 20
0.0
 30
0.0
  3
*D1
  1

  0
LINE
  5
3535
330
347D
100
AcDbEntity
  8
SUNPOU
370
    -2
100
AcDbLine
 10
209.1212704033797
 20
136.406963832289
 30
0.0
 11
248.186594286559
 21
136.406963832289
 31
0.0
  0
LINE
  5
3536
330
347D
100
AcDbEntity
  8
SUNPOU
370
    -2
100
AcDbLine
 10
218.6212704033798
 20
84.40696382664464
 30
0.0
 11
248.186594286559
 21
84.40696382664462
 31
0.0
  0
LINE
  5
3537
330
347D
100
AcDbEntity
  8
SUNPOU
370
    -2
100
AcDbLine
 10
246.686594286559
 20
133.406963832289
 30
0.0
 11
246.686594286559
 21
87.40696382664463
 31
0.0
  0
INSERT
  5
3538
330
347D
100
AcDbEntity
  8
SUNPOU
370
    -2
100
AcDbBlockReference
  2
_OPEN
 10
246.686594286559
 20
136.406963832289
 30
0.0
 41
3.0
 42
3.0
 43
3.0
 50
90.0
  0
INSERT
  5
3539
330
347D
100
AcDbEntity
  8
SUNPOU
370
    -2
100
AcDbBlockReference
  2
_OPEN
 10
246.686594286559
 20
84.40696382664462
 30
0.0
 41
3.0
 42
3.0
 43
3.0
 50
270.0
  0
MTEXT
  5
353A
330
347D
100
AcDbEntity
  8
SUNPOU
100
AcDbMText
 10
244.186594286559
 20
110.4069638294669
 30
0.0
 40
3.0
 41
0.0
 71
     5
 72
     5
  1
\A1;52
 11
0.0000000000000001
 21
1.0
 31
0.0
 73
     1
 44
1.0
1001
ACAD
1000
MTEXTBEGIN
1070
    73
1070
     1
1070
    44
1040
1.0
1070
    74
1070
     0
1000
MTEXTEND
  0
POINT
  5
353B
330
347D
100
AcDbEntity
  8
Defpoints
 62
     0
100
AcDbPoint
 10
206.1212704033798
 20
136.406963832289
 30
0.0
  0
POINT
  5
353C
330
347D
100
AcDbEntity
  8
Defpoints
 62
     0
100
AcDbPoint
 10
215.6212704033797
 20
84.40696382664464
 30
0.0
  0
POINT
  5
353D
330
347D
100
AcDbEntity
  8
Defpoints
 62
     0
100
AcDbPoint
 10
246.686594286559
 20
84.40696382664462
 30
0.0
  0
ENDBLK
  5
3488
330
347D
100
AcDbEntity
  8
0
100
AcDbBlockEnd
  0
BLOCK
  5
3493
330
3489
100
AcDbEntity
  8
0
100
AcDbBlockBegin
  2
*D2
 70
     1
 10
0.0
 20
0.0
 30
0.0
  3
*D2
  1

  0
LINE
  5
3C89
330
3489
100
AcDbEntity
  8
SUNPOU
370
    -2
100
AcDbLine
 10
170.6212704034798
 20
100.3197353658071
 30
0.0
 11
170.6212704034798
 21
150.4763918534648
 31
0.0
  0
LINE
  5
3C8A
330
3489
100
AcDbEntity
  8
SUNPOU
370
    -2
100
AcDbLine
 10
215.6212704033797
 20
123.4069638286446
 30
0.0
 11
215.6212704033797
 21
150.4763918534648
 31
0.0
  0
LINE
  5
3C8B
330
3489
100
AcDbEntity
  8
SUNPOU
370
    -2
100
AcDbLine
 10
173.6212704034798
 20
148.9763918534648
 30
0.0
 11
212.6212704033798
 21
148.9763918534648
 31
0.0
  0
INSERT
  5
3C8C
330
3489
100
AcDbEntity
  8
SUNPOU
370
    -2
100
AcDbBlockReference
  2
_OPEN
 10
170.6212704034798
 20
148.9763918534648
 30
0.0
 41
3.0
 42
3.0
 43
3.0
 50
180.0
  0
INSERT
  5
3C8D
330
3489
100
AcDbEntity
  8
SUNPOU
370
    -2
100
AcDbBlockReference
  2
_OPEN
 10
215.6212704033797
 20
148.9763918534648
 30
0.0
 41
3.0
 42
3.0
 43
3.0
  0
MTEXT
  5
3C8E
330
3489
100
AcDbEntity
  8
SUNPOU
100
AcDbMText
 10
193.1212704034298
 20
151.4763918534648
 30
0.0
 40
3.0
 41
0.0
 71
     5
 72
     5
  1
\A1;45
 73
     1
 44
1.0
1001
ACAD
1000
MTEXTBEGIN
1070
    73
1070
     1
1070
    44
1040
1.0
1070
    74
1070
     0
1000
MTEXTEND
  0
POINT
  5
3C8F
330
3489
100
AcDbEntity
  8
Defpoints
 62
     0
100
AcDbPoint
 10
170.6212704034798
 20
97.31973536580717
 30
0.0
  0
POINT
  5
3C90
330
3489
100
AcDbEntity
  8
Defpoints
 62
     0
100
AcDbPoint
 10
215.6212704033797
 20
120.4069638286446
 30
0.0
  0
POINT
  5
3C91
330
3489
100
AcDbEntity
  8
Defpoints
 62
     0
100
AcDbPoint
 10
215.6212704033797
 20
148.9763918534648
 30
0.0
  0
ENDBLK
  5
3494
330
3489
100
AcDbEntity
  8
0
100
AcDbBlockEnd
  0
BLOCK
  5
349F
330
3495
100
AcDbEntity
  8
0
100
AcDbBlockBegin
  2
*D3
 70
     1
 10
0.0
 20
0.0
 30
0.0
  3
*D3
  1

  0
LINE
  5
3C73
330
3495
100
AcDbEntity
  8
SUNPOU
370
    -2
100
AcDbLine
 10
58.15127040347983
 20
98.77133536664462
 30
0.0
 11
58.15127040347983
 21
158.8498659135242
 31
0.0
  0
LINE
  5
3C74
330
3495
100
AcDbEntity
  8
SUNPOU
370
    -2
100
AcDbLine
 10
215.6212704033797
 20
123.4069638286446
 30
0.0
 11
215.6212704033797
 21
158.8498659135242
 31
0.0
  0
LINE
  5
3C75
330
3495
100
AcDbEntity
  8
SUNPOU
370
    -2
100
AcDbLine
 10
61.15127040347983
 20
157.3498659135242
 30
0.0
 11
212.6212704033798
 21
157.3498659135242
 31
0.0
  0
INSERT
  5
3C76
330
3495
100
AcDbEntity
  8
SUNPOU
370
    -2
100
AcDbBlockReference
  2
_OPEN
 10
58.15127040347983
 20
157.3498659135242
 30
0.0
 41
3.0
 42
3.0
 43
3.0
 50
180.0
  0
INSERT
  5
3C77
330
3495
100
AcDbEntity
  8
SUNPOU
370
    -2
100
AcDbBlockReference
  2
_OPEN
 10
215.6212704033797
 20
157.3498659135242
 30
0.0
 41
3.0
 42
3.0
 43
3.0
  0
MTEXT
  5
3C78
330
3495
100
AcDbEntity
  8
SUNPOU
100
AcDbMText
 10
136.8862704034298
 20
159.8498659135242
 30
0.0
 40
3.0
 41
0.0
 71
     5
 72
     5
  1
\A1;157
 73
     1
 44
1.0
1001
ACAD
1000
MTEXTBEGIN
1070
    73
1070
     1
1070
    44
1040
1.0
1070
    74
1070
     0
1000
MTEXTEND
  0
POINT
  5
3C79
330
3495
100
AcDbEntity
  8
Defpoints
 62
     0
100
AcDbPoint
 10
58.15127040347983
 20
95.77133536664462
 30
0.0
  0
POINT
  5
3C7A
330
3495
100
AcDbEntity
  8
Defpoints
 62
     0
100
AcDbPoint
 10
215.6212704033797
 20
120.4069638286446
 30
0.0
  0
POINT
  5
3C7B
330
3495
100
AcDbEntity
  8
Defpoints
 62
     0
100
AcDbPoint
 10
215.6212704033797
 20
157.3498659135242
 30
0.0
  0
ENDBLK
  5
34A0
330
3495
100
AcDbEntity
  8
0
100
AcDbBlockEnd
  0
BLOCK
  5
34AB
330
34A1
100
AcDbEntity
  8
0
100
AcDbBlockBegin
  2
*D4
 70
     1
 10
0.0
 20
0.0
 30
0.0
  3
*D4
  1

  0
LINE
  5
3C93
330
34A1
100
AcDbEntity
  8
SUNPOU
370
    -2
100
AcDbLine
 10
56.40127040347983
 20
97.02133536664456
 30
0.0
 11
42.86124349156373
 21
97.02133536664456
 31
0.0
  0
LINE
  5
3C94
330
34A1
100
AcDbEntity
  8
SUNPOU
370
    -2
100
AcDbLine
 10
212.6212704033798
 20
84.40696382664464
 30
0.0
 11
42.86124349156372
 21
84.40696382664468
 31
0.0
  0
LINE
  5
3C95
330
34A1
100
AcDbEntity
  8
SUNPOU
370
    -2
100
AcDbLine
 10
44.36124349156372
 20
94.02133536664456
 30
0.0
 11
44.36124349156372
 21
87.40696382664468
 31
0.0
  0
INSERT
  5
3C96
330
34A1
100
AcDbEntity
  8
SUNPOU
370
    -2
100
AcDbBlockReference
  2
_OPEN
 10
44.36124349156372
 20
97.02133536664456
 30
0.0
 41
3.0
 42
3.0
 43
3.0
 50
90.0
  0
INSERT
  5
3C97
330
34A1
100
AcDbEntity
  8
SUNPOU
370
    -2
100
AcDbBlockReference
  2
_OPEN
 10
44.36124349156372
 20
84.40696382664468
 30
0.0
 41
3.0
 42
3.0
 43
3.0
 50
270.0
  0
MTEXT
  5
3C98
330
34A1
100
AcDbEntity
  8
SUNPOU
100
AcDbMText
 10
41.86124349156371
 20
90.71414959664464
 30
0.0
 40
3.0
 41
0.0
 71
     5
 72
     5
  1
\A1;13
 11
0.0000000000000001
 21
1.0
 31
0.0
 73
     1
 44
1.0
1001
ACAD
1000
MTEXTBEGIN
1070
    73
1070
     1
1070
    44
1040
1.0
1070
    74
1070
     0
1000
MTEXTEND
  0
POINT
  5
3C99
330
34A1
100
AcDbEntity
  8
Defpoints
 62
     0
100
AcDbPoint
 10
59.40127040347983
 20
97.02133536664456
 30
0.0
  0
POINT
  5
3C9A
330
34A1
100
AcDbEntity
  8
Defpoints
 62
     0
100
AcDbPoint
 10
215.6212704033797
 20
84.40696382664464
 30
0.0
  0
POINT
  5
3C9B
330
34A1
100
AcDbEntity
  8
Defpoints
 62
     0
100
AcDbPoint
 10
44.36124349156372
 20
84.40696382664468
 30
0.0
  0
ENDBLK
  5
34AC
330
34A1
100
AcDbEntity
  8
0
100
AcDbBlockEnd
  0
BLOCK
  5
34B7
330
34AD
100
AcDbEntity
  8
0
100
AcDbBlockBegin
  2
*D5
 70
     1
 10
0.0
 20
0.0
 30
0.0
  3
*D5
  1

  0
LINE
  5
3C7D
330
34AD
100
AcDbEntity
  8
SUNPOU
370
    -2
100
AcDbLine
 10
55.15127040347984
 20
232.1730314792466
 30
0.0
 11
32.24836663166366
 21
232.1730314792466
 31
0.0
  0
LINE
  5
3C7E
330
34AD
100
AcDbEntity
  8
SUNPOU
370
    -2
100
AcDbLine
 10
55.15127040347984
 20
210.1730314392466
 30
0.0
 11
32.24836663166366
 21
210.1730314392466
 31
0.0
  0
LINE
  5
3C7F
330
34AD
100
AcDbEntity
  8
SUNPOU
370
    -2
100
AcDbLine
 10
33.74836663166366
 20
229.1730314792466
 30
0.0
 11
33.74836663166366
 21
213.1730314392466
 31
0.0
  0
INSERT
  5
3C80
330
34AD
100
AcDbEntity
  8
SUNPOU
370
    -2
100
AcDbBlockReference
  2
_OPEN
 10
33.74836663166366
 20
232.1730314792466
 30
0.0
 41
3.0
 42
3.0
 43
3.0
 50
90.0
  0
INSERT
  5
3C81
330
34AD
100
AcDbEntity
  8
SUNPOU
370
    -2
100
AcDbBlockReference
  2
_OPEN
 10
33.74836663166366
 20
210.1730314392466
 30
0.0
 41
3.0
 42
3.0
 43
3.0
 50
270.0
  0
MTEXT
  5
3C82
330
34AD
100
AcDbEntity
  8
SUNPOU
100
AcDbMText
 10
31.24836663166362
 20
221.1730314592466
 30
0.0
 40
3.0
 41
0.0
 71
     5
 72
     5
  1
\A1;22
 11
0.0000000000000001
 21
1.0
 31
0.0
 73
     1
 44
1.0
1001
ACAD
1000
MTEXTBEGIN
1070
    73
1070
     1
1070
    44
1040
1.0
1070
    74
1070
     0
1000
MTEXTEND
  0
POINT
  5
3C83
330
34AD
100
AcDbEntity
  8
Defpoints
 62
     0
100
AcDbPoint
 10
58.15127040347983
 20
232.1730314792466
 30
0.0
  0
POINT
  5
3C84
330
34AD
100
AcDbEntity
  8
Defpoints
 62
     0
100
AcDbPoint
 10
58.15127040347983
 20
210.1730314392466
 30
0.0
  0
POINT
  5
3C85
330
34AD
100
AcDbEntity
  8
Defpoints
 62
     0
100
AcDbPoint
 10
33.74836663166366
 20
210.1730314392466
 30
0.0
  0
ENDBLK
  5
34B8
330
34AD
100
AcDbEntity
  8
0
100
AcDbBlockEnd
  0
BLOCK
  5
34C3
330
34B9
100
AcDbEntity
  8
0
100
AcDbBlockBegin
  2
*D6
 70
     1
 10
0.0
 20
0.0
 30
0.0
  3
*D6
  1

  0
LINE
  5
3562
330
34B9
100
AcDbEntity
  8
SUNPOU
370
    -2
100
AcDbLine
 10
297.0567606007234
 20
118.6213353666446
 30
0.0
 11
297.0567606007234
 21
170.095427156496
 31
0.0
  0
LINE
  5
3563
330
34B9
100
AcDbEntity
  8
SUNPOU
370
    -2
100
AcDbLine
 10
350.0567606007234
 20
118.6213353666446
 30
0.0
 11
350.0567606007234
 21
170.095427156496
 31
0.0
  0
LINE
  5
3564
330
34B9
100
AcDbEntity
  8
SUNPOU
370
    -2
100
AcDbLine
 10
300.0567606007234
 20
168.595427156496
 30
0.0
 11
347.0567606007234
 21
168.595427156496
 31
0.0
  0
INSERT
  5
3565
330
34B9
100
AcDbEntity
  8
SUNPOU
370
    -2
100
AcDbBlockReference
  2
_OPEN
 10
297.0567606007234
 20
168.595427156496
 30
0.0
 41
3.0
 42
3.0
 43
3.0
 50
180.0
  0
INSERT
  5
3566
330
34B9
100
AcDbEntity
  8
SUNPOU
370
    -2
100
AcDbBlockReference
  2
_OPEN
 10
350.0567606007234
 20
168.595427156496
 30
0.0
 41
3.0
 42
3.0
 43
3.0
  0
MTEXT
  5
3567
330
34B9
100
AcDbEntity
  8
SUNPOU
100
AcDbMText
 10
323.5567606007234
 20
171.095427156496
 30
0.0
 40
3.0
 41
0.0
 71
     5
 72
     5
  1
\A1;53
 73
     1
 44
1.0
1001
ACAD
1000
MTEXTBEGIN
1070
    73
1070
     1
1070
    44
1040
1.0
1070
    74
1070
     0
1000
MTEXTEND
  0
POINT
  5
3568
330
34B9
100
AcDbEntity
  8
Defpoints
 62
     0
100
AcDbPoint
 10
297.0567606007234
 20
115.6213353666446
 30
0.0
  0
POINT
  5
3569
330
34B9
100
AcDbEntity
  8
Defpoints
 62
     0
100
AcDbPoint
 10
350.0567606007234
 20
115.6213353666446
 30
0.0
  0
POINT
  5
356A
330
34B9
100
AcDbEntity
  8
Defpoints
 62
     0
100
AcDbPoint
 10
350.0567606007234
 20
168.595427156496
 30
0.0
  0
ENDBLK
  5
34C4
330
34B9
100
AcDbEntity
  8
0
100
AcDbBlockEnd
  0
BLOCK
  5
34CF
330
34C5
100
AcDbEntity
  8
0
100
AcDbBlockBegin
  2
*D7
 70
     1
 10
0.0
 20
0.0
 30
0.0
  3
*D7
  1

  0
LINE
  5
356B
330
34C5
100
AcDbEntity
  8
SUNPOU
370
    -2
100
AcDbLine
 10
218.6212704033798
 20
120.4069638286446
 30
0.0
 11
222.5770443983635
 21
120.4069638286446
 31
0.0
  0
LINE
  5
356C
330
34C5
100
AcDbEntity
  8
SUNPOU
370
    -2
100
AcDbLine
 10
218.6212704033798
 20
84.40696382664464
 30
0.0
 11
222.5770443983635
 21
84.40696382664464
 31
0.0
  0
LINE
  5
356D
330
34C5
100
AcDbEntity
  8
SUNPOU
370
    -2
100
AcDbLine
 10
221.0770443983635
 20
117.4069638286446
 30
0.0
 11
221.0770443983635
 21
87.40696382664465
 31
0.0
  0
INSERT
  5
356E
330
34C5
100
AcDbEntity
  8
SUNPOU
370
    -2
100
AcDbBlockReference
  2
_OPEN
 10
221.0770443983635
 20
120.4069638286446
 30
0.0
 41
3.0
 42
3.0
 43
3.0
 50
90.0
  0
INSERT
  5
356F
330
34C5
100
AcDbEntity
  8
SUNPOU
370
    -2
100
AcDbBlockReference
  2
_OPEN
 10
221.0770443983635
 20
84.40696382664464
 30
0.0
 41
3.0
 42
3.0
 43
3.0
 50
270.0
  0
MTEXT
  5
3570
330
34C5
100
AcDbEntity
  8
SUNPOU
100
AcDbMText
 10
218.5770443983635
 20
102.4069638276446
 30
0.0
 40
3.0
 41
0.0
 71
     5
 72
     5
  1
\A1;36
 11
0.0000000000000001
 21
1.0
 31
0.0
 73
     1
 44
1.0
1001
ACAD
1000
MTEXTBEGIN
1070
    73
1070
     1
1070
    44
1040
1.0
1070
    74
1070
     0
1000
MTEXTEND
  0
POINT
  5
3571
330
34C5
100
AcDbEntity
  8
Defpoints
 62
     0
100
AcDbPoint
 10
215.6212704033797
 20
120.4069638286446
 30
0.0
  0
POINT
  5
3572
330
34C5
100
AcDbEntity
  8
Defpoints
 62
     0
100
AcDbPoint
 10
215.6212704033797
 20
84.40696382664464
 30
0.0
  0
POINT
  5
3573
330
34C5
100
AcDbEntity
  8
Defpoints
 62
     0
100
AcDbPoint
 10
221.0770443983635
 20
84.40696382664464
 30
0.0
  0
ENDBLK
  5
34D0
330
34C5
100
AcDbEntity
  8
0
100
AcDbBlockEnd
  0
BLOCK
  5
34DB
330
34D1
100
AcDbEntity
  8
0
100
AcDbBlockBegin
  2
*D8
 70
     1
 10
0.0
 20
0.0
 30
0.0
  3
*D8
  1

  0
LINE
  5
3574
330
34D1
100
AcDbEntity
  8
SUNPOU
370
    -2
100
AcDbLine
 10
296.0567606007234
 20
117.6213353666446
 30
0.0
 11
267.5834060349795
 21
117.6213353666446
 31
0.0
  0
LINE
  5
3575
330
34D1
100
AcDbEntity
  8
SUNPOU
370
    -2
100
AcDbLine
 10
296.0567606007234
 20
81.62133536664464
 30
0.0
 11
267.5834060349795
 21
81.62133536664466
 31
0.0
  0
LINE
  5
3576
330
34D1
100
AcDbEntity
  8
SUNPOU
370
    -2
100
AcDbLine
 10
269.0834060349795
 20
114.6213353666446
 30
0.0
 11
269.0834060349795
 21
84.62133536664465
 31
0.0
  0
INSERT
  5
3577
330
34D1
100
AcDbEntity
  8
SUNPOU
370
    -2
100
AcDbBlockReference
  2
_OPEN
 10
269.0834060349795
 20
117.6213353666446
 30
0.0
 41
3.0
 42
3.0
 43
3.0
 50
90.0
  0
INSERT
  5
3578
330
34D1
100
AcDbEntity
  8
SUNPOU
370
    -2
100
AcDbBlockReference
  2
_OPEN
 10
269.0834060349795
 20
81.62133536664466
 30
0.0
 41
3.0
 42
3.0
 43
3.0
 50
270.0
  0
MTEXT
  5
3579
330
34D1
100
AcDbEntity
  8
SUNPOU
100
AcDbMText
 10
266.5834060349796
 20
99.6213353666447
 30
0.0
 40
3.0
 41
0.0
 71
     5
 72
     5
  1
\A1;36
 11
0.0000000000000001
 21
1.0
 31
0.0
 73
     1
 44
1.0
1001
ACAD
1000
MTEXTBEGIN
1070
    73
1070
     1
1070
    44
1040
1.0
1070
    74
1070
     0
1000
MTEXTEND
  0
POINT
  5
357A
330
34D1
100
AcDbEntity
  8
Defpoints
 62
     0
100
AcDbPoint
 10
299.0567606007234
 20
117.6213353666446
 30
0.0
  0
POINT
  5
357B
330
34D1
100
AcDbEntity
  8
Defpoints
 62
     0
100
AcDbPoint
 10
299.0567606007234
 20
81.62133536664464
 30
0.0
  0
POINT
  5
357C
330
34D1
100
AcDbEntity
  8
Defpoints
 62
     0
100
AcDbPoint
 10
269.0834060349795
 20
81.62133536664466
 30
0.0
  0
ENDBLK
  5
34DC
330
34D1
100
AcDbEntity
  8
0
100
AcDbBlockEnd
  0
BLOCK
  5
34E9
330
34DD
100
AcDbEntity
  8
0
100
AcDbBlockBegin
  2
*D9
 70
     1
 10
0.0
 20
0.0
 30
0.0
  3
*D9
  1

  0
LINE
  5
357D
330
34DD
100
AcDbEntity
  8
SUNPOU
370
    -2
100
AcDbLine
 10
293.456760628996
 20
87.12133536664465
 30
0.0
 11
277.456811397573
 21
87.12133536664465
 31
0.0
  0
LINE
  5
357E
330
34DD
100
AcDbEntity
  8
SUNPOU
370
    -2
100
AcDbLine
 10
296.0567606007234
 20
81.62133536664464
 30
0.0
 11
277.456811397573
 21
81.62133536664466
 31
0.0
  0
LINE
  5
357F
330
34DD
100
AcDbEntity
  8
SUNPOU
370
    -2
100
AcDbLine
 10
278.956811397573
 20
90.12133536664466
 30
0.0
 11
278.956811397573
 21
93.12133536664466
 31
0.0
  0
LINE
  5
3580
330
34DD
100
AcDbEntity
  8
SUNPOU
370
    -2
100
AcDbLine
 10
278.956811397573
 20
78.62133536664465
 30
0.0
 11
278.956811397573
 21
75.62133536664465
 31
0.0
  0
LINE
  5
3581
330
34DD
100
AcDbEntity
  8
SUNPOU
370
    -2
100
AcDbLine
 10
278.956811397573
 20
87.12133536664465
 30
0.0
 11
278.956811397573
 21
81.62133536664466
 31
0.0
  0
INSERT
  5
3582
330
34DD
100
AcDbEntity
  8
SUNPOU
370
    -2
100
AcDbBlockReference
  2
_OPEN
 10
278.956811397573
 20
87.12133536664465
 30
0.0
 41
3.0
 42
3.0
 43
3.0
 50
270.0
  0
INSERT
  5
3583
330
34DD
100
AcDbEntity
  8
SUNPOU
370
    -2
100
AcDbBlockReference
  2
_OPEN
 10
278.956811397573
 20
81.62133536664466
 30
0.0
 41
3.0
 42
3.0
 43
3.0
 50
90.0
  0
MTEXT
  5
3584
330
34DD
100
AcDbEntity
  8
SUNPOU
100
AcDbMText
 10
276.456811397573
 20
84.3713353666447
 30
0.0
 40
3.0
 41
0.0
 71
     5
 72
     5
  1
\A1;6
 11
0.0000000000000001
 21
1.0
 31
0.0
 73
     1
 44
1.0
1001
ACAD
1000
MTEXTBEGIN
1070
    73
1070
     1
1070
    44
1040
1.0
1070
    74
1070
     0
1000
MTEXTEND
  0
POINT
  5
3585
330
34DD
100
AcDbEntity
  8
Defpoints
 62
     0
100
AcDbPoint
 10
296.456760628996
 20
87.12133536664465
 30
0.0
  0
POINT
  5
3586
330
34DD
100
AcDbEntity
  8
Defpoints
 62
     0
100
AcDbPoint
 10
299.0567606007234
 20
81.62133536664464
 30
0.0
  0
POINT
  5
3587
330
34DD
100
AcDbEntity
  8
Defpoints
 62
     0
100
AcDbPoint
 10
278.956811397573
 20
81.62133536664466
 30
0.0
  0
ENDBLK
  5
34EA
330
34DD
100
AcDbEntity
  8
0
100
AcDbBlockEnd
  0
BLOCK
  5
34F7
330
34EB
100
AcDbEntity
  8
0
100
AcDbBlockBegin
  2
*D10
 70
     1
 10
0.0
 20
0.0
 30
0.0
  3
*D10
  1

  0
LINE
  5
3588
330
34EB
100
AcDbEntity
  8
SUNPOU
370
    -2
100
AcDbLine
 10
296.0567606007234
 20
117.6213353666446
 30
0.0
 11
277.4568113975731
 21
117.6213353666446
 31
0.0
  0
LINE
  5
3589
330
34EB
100
AcDbEntity
  8
SUNPOU
370
    -2
100
AcDbLine
 10
293.456760628996
 20
112.1213353666446
 30
0.0
 11
277.4568113975731
 21
112.1213353666446
 31
0.0
  0
LINE
  5
358A
330
34EB
100
AcDbEntity
  8
SUNPOU
370
    -2
100
AcDbLine
 10
278.9568113975731
 20
120.6213353666446
 30
0.0
 11
278.9568113975731
 21
123.6213353666446
 31
0.0
  0
LINE
  5
358B
330
34EB
100
AcDbEntity
  8
SUNPOU
370
    -2
100
AcDbLine
 10
278.9568113975731
 20
109.1213353666446
 30
0.0
 11
278.9568113975731
 21
106.1213353666446
 31
0.0
  0
LINE
  5
358C
330
34EB
100
AcDbEntity
  8
SUNPOU
370
    -2
100
AcDbLine
 10
278.9568113975731
 20
117.6213353666446
 30
0.0
 11
278.9568113975731
 21
112.1213353666446
 31
0.0
  0
INSERT
  5
358D
330
34EB
100
AcDbEntity
  8
SUNPOU
370
    -2
100
AcDbBlockReference
  2
_OPEN
 10
278.9568113975731
 20
117.6213353666446
 30
0.0
 41
3.0
 42
3.0
 43
3.0
 50
270.0
  0
INSERT
  5
358E
330
34EB
100
AcDbEntity
  8
SUNPOU
370
    -2
100
AcDbBlockReference
  2
_OPEN
 10
278.9568113975731
 20
112.1213353666446
 30
0.0
 41
3.0
 42
3.0
 43
3.0
 50
90.0
  0
MTEXT
  5
358F
330
34EB
100
AcDbEntity
  8
SUNPOU
100
AcDbMText
 10
276.4568113975731
 20
114.8713353666447
 30
0.0
 40
3.0
 41
0.0
 71
     5
 72
     5
  1
\A1;6
 11
0.0000000000000001
 21
1.0
 31
0.0
 73
     1
 44
1.0
1001
ACAD
1000
MTEXTBEGIN
1070
    73
1070
     1
1070
    44
1040
1.0
1070
    74
1070
     0
1000
MTEXTEND
  0
POINT
  5
3590
330
34EB
100
AcDbEntity
  8
Defpoints
 62
     0
100
AcDbPoint
 10
299.0567606007234
 20
117.6213353666446
 30
0.0
  0
POINT
  5
3591
330
34EB
100
AcDbEntity
  8
Defpoints
 62
     0
100
AcDbPoint
 10
296.456760628996
 20
112.1213353666446
 30
0.0
  0
POINT
  5
3592
330
34EB
100
AcDbEntity
  8
Defpoints
 62
     0
100
AcDbPoint
 10
278.9568113975731
 20
112.1213353666446
 30
0.0
  0
ENDBLK
  5
34F8
330
34EB
100
AcDbEntity
  8
0
100
AcDbBlockEnd
  0
BLOCK
  5
3503
330
34F9
100
AcDbEntity
  8
0
100
AcDbBlockBegin
  2
*D11
 70
     1
 10
0.0
 20
0.0
 30
0.0
  3
*D11
  1

  0
LINE
  5
3593
330
34F9
100
AcDbEntity
  8
SUNPOU
370
    -2
100
AcDbLine
 10
215.6212704033797
 20
123.4069638286446
 30
0.0
 11
215.6212704033797
 21
158.8498659135242
 31
0.0
  0
LINE
  5
3594
330
34F9
100
AcDbEntity
  8
SUNPOU
370
    -2
100
AcDbLine
 10
230.6212704033798
 20
123.4069638286446
 30
0.0
 11
230.6212704033798
 21
158.8498659135242
 31
0.0
  0
LINE
  5
3595
330
34F9
100
AcDbEntity
  8
SUNPOU
370
    -2
100
AcDbLine
 10
218.6212704033798
 20
157.3498659135242
 30
0.0
 11
227.6212704033798
 21
157.3498659135242
 31
0.0
  0
INSERT
  5
3596
330
34F9
100
AcDbEntity
  8
SUNPOU
370
    -2
100
AcDbBlockReference
  2
_OPEN
 10
215.6212704033797
 20
157.3498659135242
 30
0.0
 41
3.0
 42
3.0
 43
3.0
 50
180.0
  0
INSERT
  5
3597
330
34F9
100
AcDbEntity
  8
SUNPOU
370
    -2
100
AcDbBlockReference
  2
_OPEN
 10
230.6212704033798
 20
157.3498659135242
 30
0.0
 41
3.0
 42
3.0
 43
3.0
  0
MTEXT
  5
3598
330
34F9
100
AcDbEntity
  8
SUNPOU
100
AcDbMText
 10
223.1212704033798
 20
159.8498659135242
 30
0.0
 40
3.0
 41
0.0
 71
     5
 72
     5
  1
\A1;15
 73
     1
 44
1.0
1001
ACAD
1000
MTEXTBEGIN
1070
    73
1070
     1
1070
    44
1040
1.0
1070
    74
1070
     0
1000
MTEXTEND
  0
POINT
  5
3599
330
34F9
100
AcDbEntity
  8
Defpoints
 62
     0
100
AcDbPoint
 10
215.6212704033797
 20
120.4069638286446
 30
0.0
  0
POINT
  5
359A
330
34F9
100
AcDbEntity
  8
Defpoints
 62
     0
100
AcDbPoint
 10
230.6212704033798
 20
120.4069638286446
 30
0.0
  0
POINT
  5
359B
330
34F9
100
AcDbEntity
  8
Defpoints
 62
     0
100
AcDbPoint
 10
230.6212704033798
 20
157.3498659135242
 30
0.0
  0
ENDBLK
  5
3504
330
34F9
100
AcDbEntity
  8
0
100
AcDbBlockEnd
  0
BLOCK
  5
350F
330
3505
100
AcDbEntity
  8
0
100
AcDbBlockBegin
  2
*D12
 70
     1
 10
0.0
 20
0.0
 30
0.0
  3
*D12
  1

  0
LINE
  5
359C
330
3505
100
AcDbEntity
  8
SUNPOU
370
    -2
100
AcDbLine
 10
218.6212704033798
 20
247.6730314792466
 30
0.0
 11
240.0172813207783
 21
247.6730314792466
 31
0.0
  0
LINE
  5
359D
330
3505
100
AcDbEntity
  8
SUNPOU
370
    -2
100
AcDbLine
 10
218.6212704033798
 20
194.6730314392466
 30
0.0
 11
240.0172813207783
 21
194.6730314392466
 31
0.0
  0
LINE
  5
359E
330
3505
100
AcDbEntity
  8
SUNPOU
370
    -2
100
AcDbLine
 10
238.5172813207783
 20
244.6730314792466
 30
0.0
 11
238.5172813207783
 21
197.6730314392466
 31
0.0
  0
INSERT
  5
359F
330
3505
100
AcDbEntity
  8
SUNPOU
370
    -2
100
AcDbBlockReference
  2
_OPEN
 10
238.5172813207783
 20
247.6730314792466
 30
0.0
 41
3.0
 42
3.0
 43
3.0
 50
90.0
  0
INSERT
  5
35A0
330
3505
100
AcDbEntity
  8
SUNPOU
370
    -2
100
AcDbBlockReference
  2
_OPEN
 10
238.5172813207783
 20
194.6730314392466
 30
0.0
 41
3.0
 42
3.0
 43
3.0
 50
270.0
  0
MTEXT
  5
35A1
330
3505
100
AcDbEntity
  8
SUNPOU
100
AcDbMText
 10
236.0172813207782
 20
221.1730314592466
 30
0.0
 40
3.0
 41
0.0
 71
     5
 72
     5
  1
\A1;53
 11
0.0000000000000001
 21
1.0
 31
0.0
 73
     1
 44
1.0
1001
ACAD
1000
MTEXTBEGIN
1070
    73
1070
     1
1070
    44
1040
1.0
1070
    74
1070
     0
1000
MTEXTEND
  0
POINT
  5
35A2
330
3505
100
AcDbEntity
  8
Defpoints
 62
     0
100
AcDbPoint
 10
215.6212704033797
 20
247.6730314792466
 30
0.0
  0
POINT
  5
35A3
330
3505
100
AcDbEntity
  8
Defpoints
 62
     0
100
AcDbPoint
 10
215.6212704033797
 20
194.6730314392466
 30
0.0
  0
POINT
  5
35A4
330
3505
100
AcDbEntity
  8
Defpoints
 62
     0
100
AcDbPoint
 10
238.5172813207783
 20
194.6730314392466
 30
0.0
  0
ENDBLK
  5
3510
330
3505
100
AcDbEntity
  8
0
100
AcDbBlockEnd
  0
BLOCK
  5
351B
330
3511
100
AcDbEntity
  8
0
100
AcDbBlockBegin
  2
*D13
 70
     1
 10
0.0
 20
0.0
 30
0.0
  3
*D13
  1

  0
LINE
  5
35A5
330
3511
100
AcDbEntity
  8
SUNPOU
370
    -2
100
AcDbLine
 10
302.5567606007234
 20
121.221335338372
 30
0.0
 11
302.5567606007234
 21
162.1551245928535
 31
0.0
  0
LINE
  5
35A6
330
3511
100
AcDbEntity
  8
SUNPOU
370
    -2
100
AcDbLine
 10
344.5567606007234
 20
121.221335338372
 30
0.0
 11
344.5567606007234
 21
162.1551245928535
 31
0.0
  0
LINE
  5
35A7
330
3511
100
AcDbEntity
  8
SUNPOU
370
    -2
100
AcDbLine
 10
305.5567606007234
 20
160.6551245928535
 30
0.0
 11
341.5567606007234
 21
160.6551245928535
 31
0.0
  0
INSERT
  5
35A8
330
3511
100
AcDbEntity
  8
SUNPOU
370
    -2
100
AcDbBlockReference
  2
_OPEN
 10
302.5567606007234
 20
160.6551245928535
 30
0.0
 41
3.0
 42
3.0
 43
3.0
 50
180.0
  0
INSERT
  5
35A9
330
3511
100
AcDbEntity
  8
SUNPOU
370
    -2
100
AcDbBlockReference
  2
_OPEN
 10
344.5567606007234
 20
160.6551245928535
 30
0.0
 41
3.0
 42
3.0
 43
3.0
  0
MTEXT
  5
35AA
330
3511
100
AcDbEntity
  8
SUNPOU
100
AcDbMText
 10
323.5567606007234
 20
163.1551245928535
 30
0.0
 40
3.0
 41
0.0
 71
     5
 72
     5
  1
\A1;42
 73
     1
 44
1.0
1001
ACAD
1000
MTEXTBEGIN
1070
    73
1070
     1
1070
    44
1040
1.0
1070
    74
1070
     0
1000
MTEXTEND
  0
POINT
  5
35AB
330
3511
100
AcDbEntity
  8
Defpoints
 62
     0
100
AcDbPoint
 10
302.5567606007234
 20
118.221335338372
 30
0.0
  0
POINT
  5
35AC
330
3511
100
AcDbEntity
  8
Defpoints
 62
     0
100
AcDbPoint
 10
344.5567606007234
 20
118.221335338372
 30
0.0
  0
POINT
  5
35AD
330
3511
100
AcDbEntity
  8
Defpoints
 62
     0
100
AcDbPoint
 10
344.5567606007234
 20
160.6551245928535
 30
0.0
  0
ENDBLK
  5
351C
330
3511
100
AcDbEntity
  8
0
100
AcDbBlockEnd
  0
BLOCK
  5
3527
330
351D
100
AcDbEntity
  8
0
100
AcDbBlockBegin
  2
*D14
 70
     1
 10
0.0
 20
0.0
 30
0.0
  3
*D14
  1

  0
LINE
  5
35AE
330
351D
100
AcDbEntity
  8
SUNPOU
370
    -2
100
AcDbLine
 10
304.0567606007234
 20
113.6516415613725
 30
0.0
 11
304.0567606007234
 21
153.733592043246
 31
0.0
  0
LINE
  5
35AF
330
351D
100
AcDbEntity
  8
SUNPOU
370
    -2
100
AcDbLine
 10
343.0567606007234
 20
113.6516415613725
 30
0.0
 11
343.0567606007234
 21
153.733592043246
 31
0.0
  0
LINE
  5
35B0
330
351D
100
AcDbEntity
  8
SUNPOU
370
    -2
100
AcDbLine
 10
307.0567606007234
 20
152.233592043246
 30
0.0
 11
340.0567606007234
 21
152.233592043246
 31
0.0
  0
INSERT
  5
35B1
330
351D
100
AcDbEntity
  8
SUNPOU
370
    -2
100
AcDbBlockReference
  2
_OPEN
 10
304.0567606007234
 20
152.233592043246
 30
0.0
 41
3.0
 42
3.0
 43
3.0
 50
180.0
  0
INSERT
  5
35B2
330
351D
100
AcDbEntity
  8
SUNPOU
370
    -2
100
AcDbBlockReference
  2
_OPEN
 10
343.0567606007234
 20
152.233592043246
 30
0.0
 41
3.0
 42
3.0
 43
3.0
  0
MTEXT
  5
35B3
330
351D
100
AcDbEntity
  8
SUNPOU
100
AcDbMText
 10
323.5567606007234
 20
154.733592043246
 30
0.0
 40
3.0
 41
0.0
 71
     5
 72
     5
  1
\A1;39
 73
     1
 44
1.0
1001
ACAD
1000
MTEXTBEGIN
1070
    73
1070
     1
1070
    44
1040
1.0
1070
    74
1070
     0
1000
MTEXTEND
  0
POINT
  5
35B4
330
351D
100
AcDbEntity
  8
Defpoints
 62
     0
100
AcDbPoint
 10
304.0567606007234
 20
110.6516415613725
 30
0.0
  0
POINT
  5
35B5
330
351D
100
AcDbEntity
  8
Defpoints
 62
     0
100
AcDbPoint
 10
343.0567606007234
 20
110.6516415613725
 30
0.0
  0
POINT
  5
35B6
330
351D
100
AcDbEntity
  8
Defpoints
 62
     0
100
AcDbPoint
 10
343.0567606007234
 20
152.233592043246
 30
0.0
  0
ENDBLK
  5
3528
330
351D
100
AcDbEntity
  8
0
100
AcDbBlockEnd
  0
BLOCK
  5
3533
330
3529
100
AcDbEntity
  8
0
100
AcDbBlockBegin
  2
*D15
 70
     1
 10
0.0
 20
0.0
 30
0.0
  3
*D15
  1

  0
LINE
  5
35B7
330
3529
100
AcDbEntity
  8
SUNPOU
370
    -2
100
AcDbLine
 10
351.0567606007234
 20
117.6213353666446
 30
0.0
 11
367.6317669814031
 21
117.6213353666446
 31
0.0
  0
LINE
  5
35B8
330
3529
100
AcDbEntity
  8
SUNPOU
370
    -2
100
AcDbLine
 10
353.0567606007234
 20
103.6213353666446
 30
0.0
 11
367.6317669814031
 21
103.6213353666446
 31
0.0
  0
LINE
  5
35B9
330
3529
100
AcDbEntity
  8
SUNPOU
370
    -2
100
AcDbLine
 10
366.1317669814032
 20
114.6213353666446
 30
0.0
 11
366.1317669814032
 21
106.6213353666446
 31
0.0
  0
INSERT
  5
35BA
330
3529
100
AcDbEntity
  8
SUNPOU
370
    -2
100
AcDbBlockReference
  2
_OPEN
 10
366.1317669814032
 20
117.6213353666446
 30
0.0
 41
3.0
 42
3.0
 43
3.0
 50
90.0
  0
INSERT
  5
35BB
330
3529
100
AcDbEntity
  8
SUNPOU
370
    -2
100
AcDbBlockReference
  2
_OPEN
 10
366.1317669814032
 20
103.6213353666446
 30
0.0
 41
3.0
 42
3.0
 43
3.0
 50
270.0
  0
MTEXT
  5
35BC
330
3529
100
AcDbEntity
  8
SUNPOU
100
AcDbMText
 10
363.6317669814031
 20
110.6213353666446
 30
0.0
 40
3.0
 41
0.0
 71
     5
 72
     5
  1
\A1;14
 11
0.0000000000000001
 21
1.0
 31
0.0
 73
     1
 44
1.0
1001
ACAD
1000
MTEXTBEGIN
1070
    73
1070
     1
1070
    44
1040
1.0
1070
    74
1070
     0
1000
MTEXTEND
  0
POINT
  5
35BD
330
3529
100
AcDbEntity
  8
Defpoints
 62
     0
100
AcDbPoint
 10
348.0567606007234
 20
117.6213353666446
 30
0.0
  0
POINT
  5
35BE
330
3529
100
AcDbEntity
  8
Defpoints
 62
     0
100
AcDbPoint
 10
350.0567606007234
 20
103.6213353666446
 30
0.0
  0
POINT
  5
35BF
330
3529
100
AcDbEntity
  8
Defpoints
 62
     0
100
AcDbPoint
 10
366.1317669814032
 20
103.6213353666446
 30
0.0
  0
ENDBLK
  5
3534
330
3529
100
AcDbEntity
  8
0
100
AcDbBlockEnd
  0
BLOCK
  5
3E83
330
3CEF
100
AcDbEntity
  8
0
100
AcDbBlockBegin
  2
*X16
 70
     1
 10
0.0
 20
0.0
 30
0.0
  3
*X16
  1

  0
LINE
  5
3CF0
330
3CEF
100
AcDbEntity
  8
0
 62
     0
100
AcDbLine
 10
34.52110575495393
 20
11.30208456594675
 30
0.0
 11
34.19819029009662
 21
11.62500003080407
 31
0.0
  0
LINE
  5
3CF1
330
3CEF
100
AcDbEntity
  8
0
 62
     0
100
AcDbLine
 10
34.52110575495393
 20
10.85307175989331
 30
0.0
 11
33.74917748404311
 21
11.6250000308041
 31
0.0
  0
LINE
  5
3CF2
330
3CEF
100
AcDbEntity
  8
0
 62
     0
100
AcDbLine
 10
34.52110575495393
 20
10.40405895383983
 30
0.0
 11
33.31053878194651
 21
11.61462592684722
 31
0.0
  0
LINE
  5
3CF3
330
3CEF
100
AcDbEntity
  8
0
 62
     0
100
AcDbLine
 10
34.52110575495399
 20
9.955046147786362
 30
0.0
 11
33.1211057549539
 21
11.35504614778642
 31
0.0
  0
LINE
  5
3CF4
330
3CEF
100
AcDbEntity
  8
0
 62
     0
100
AcDbLine
 10
34.52110575495396
 20
9.506033341732887
 30
0.0
 11
33.1211057549539
 21
10.90603334173297
 31
0.0
  0
LINE
  5
3CF5
330
3CEF
100
AcDbEntity
  8
0
 62
     0
100
AcDbLine
 10
34.52110575495396
 20
9.057020535679441
 30
0.0
 11
33.12110575495393
 21
10.45702053567947
 31
0.0
  0
LINE
  5
3CF6
330
3CEF
100
AcDbEntity
  8
0
 62
     0
100
AcDbLine
 10
32.07110575495397
 20
11.05800772962598
 30
0.0
 11
31.50411345377586
 21
11.6250000308041
 31
0.0
  0
LINE
  5
3CF7
330
3CEF
100
AcDbEntity
  8
0
 62
     0
100
AcDbLine
 10
34.52110575495396
 20
8.608007729625995
 30
0.0
 11
33.12110575495395
 21
10.00800772962602
 31
0.0
  0
LINE
  5
3CF8
330
3CEF
100
AcDbEntity
  8
0
 62
     0
100
AcDbLine
 10
32.07110575495397
 20
10.60899492357253
 30
0.0
 11
31.05510064772241
 21
11.6250000308041
 31
0.0
  0
LINE
  5
3CF9
330
3CEF
100
AcDbEntity
  8
0
 62
     0
100
AcDbLine
 10
34.52110575495396
 20
8.158994923572549
 30
0.0
 11
33.12110575495393
 21
9.558994923572555
 31
0.0
  0
LINE
  5
3CFA
330
3CEF
100
AcDbEntity
  8
0
 62
     0
100
AcDbLine
 10
32.07110575495397
 20
10.15998211751906
 30
0.0
 11
30.71835027238543
 21
11.5127376000876
 31
0.0
  0
LINE
  5
3CFB
330
3CEF
100
AcDbEntity
  8
0
 62
     0
100
AcDbLine
 10
34.52110575495396
 20
7.709982117519075
 30
0.0
 11
33.12110575495393
 21
9.109982117519109
 31
0.0
  0
LINE
  5
3CFC
330
3CEF
100
AcDbEntity
  8
0
 62
     0
100
AcDbLine
 10
32.07110575495397
 20
9.710969311465589
 30
0.0
 11
30.67110575495394
 21
11.11096931146562
 31
0.0
  0
LINE
  5
3CFD
330
3CEF
100
AcDbEntity
  8
0
 62
     0
100
AcDbLine
 10
34.52110575495396
 20
7.260969311465629
 30
0.0
 11
33.12110575495393
 21
8.660969311465635
 31
0.0
  0
LINE
  5
3CFE
330
3CEF
100
AcDbEntity
  8
0
 62
     0
100
AcDbLine
 10
32.07110575495397
 20
9.261956505412172
 30
0.0
 11
30.67110575495394
 21
10.6619565054122
 31
0.0
  0
LINE
  5
3CFF
330
3CEF
100
AcDbEntity
  8
0
 62
     0
100
AcDbLine
 10
34.52110575495399
 20
6.811956505412126
 30
0.0
 11
33.12110575495393
 21
8.211956505412217
 31
0.0
  0
LINE
  5
3D00
330
3CEF
100
AcDbEntity
  8
0
 62
     0
100
AcDbLine
 10
32.07110575495395
 20
8.812943699358697
 30
0.0
 11
30.67110575495394
 21
10.21294369935873
 31
0.0
  0
LINE
  5
3D01
330
3CEF
100
AcDbEntity
  8
0
 62
     0
100
AcDbLine
 10
34.52110575495399
 20
6.36294369935868
 30
0.0
 11
33.12110575495393
 21
7.762943699358743
 31
0.0
  0
LINE
  5
3D02
330
3CEF
100
AcDbEntity
  8
0
 62
     0
100
AcDbLine
 10
32.07110575495395
 20
8.363930893305251
 30
0.0
 11
30.67110575495391
 21
9.763930893305257
 31
0.0
  0
LINE
  5
3D03
330
3CEF
100
AcDbEntity
  8
0
 62
     0
100
AcDbLine
 10
34.52110575495396
 20
5.913930893305206
 30
0.0
 11
33.1211057549539
 21
7.313930893305268
 31
0.0
  0
LINE
  5
3D04
330
3CEF
100
AcDbEntity
  8
0
 62
     0
100
AcDbLine
 10
32.07110575495397
 20
7.914918087251805
 30
0.0
 11
30.67110575495394
 21
9.31491808725184
 31
0.0
  0
LINE
  5
3D05
330
3CEF
100
AcDbEntity
  8
0
 62
     0
100
AcDbLine
 10
28.92110575495397
 20
11.06491808725181
 30
0.0
 11
28.36102381140165
 21
11.62500003080413
 31
0.0
  0
LINE
  5
3D06
330
3CEF
100
AcDbEntity
  8
0
 62
     0
100
AcDbLine
 10
34.52110575495399
 20
5.464918087251788
 30
0.0
 11
33.12110575495395
 21
6.864918087251794
 31
0.0
  0
LINE
  5
3D07
330
3CEF
100
AcDbEntity
  8
0
 62
     0
100
AcDbLine
 10
32.07110575495395
 20
7.465905281198359
 30
0.0
 11
30.67110575495391
 21
8.865905281198365
 31
0.0
  0
LINE
  5
3D08
330
3CEF
100
AcDbEntity
  8
0
 62
     0
100
AcDbLine
 10
28.92110575495394
 20
10.61590528119833
 30
0.0
 11
27.91201100534817
 21
11.62500003080413
 31
0.0
  0
LINE
  5
3D09
330
3CEF
100
AcDbEntity
  8
0
 62
     0
100
AcDbLine
 10
34.52110575495399
 20
5.015905281198314
 30
0.0
 11
33.12110575495395
 21
6.415905281198348
 31
0.0
  0
LINE
  5
3D0A
330
3CEF
100
AcDbEntity
  8
0
 62
     0
100
AcDbLine
 10
32.07110575495395
 20
7.016892475144885
 30
0.0
 11
30.67110575495394
 21
8.416892475144862
 31
0.0
  0
LINE
  5
3D0B
330
3CEF
100
AcDbEntity
  8
0
 62
     0
100
AcDbLine
 10
28.92110575495394
 20
10.16689247514489
 30
0.0
 11
27.57122439329194
 21
11.51677383680689
 31
0.0
  0
LINE
  5
3D0C
330
3CEF
100
AcDbEntity
  8
0
 62
     0
100
AcDbLine
 10
34.52110575495396
 20
4.566892475144868
 30
0.0
 11
33.12110575495393
 21
5.966892475144874
 31
0.0
  0
LINE
  5
3D0D
330
3CEF
100
AcDbEntity
  8
0
 62
     0
100
AcDbLine
 10
32.07110575495395
 20
6.567879669091411
 30
0.0
 11
30.67110575495397
 21
7.967879669091416
 31
0.0
  0
LINE
  5
3D0E
330
3CEF
100
AcDbEntity
  8
0
 62
     0
100
AcDbLine
 10
28.92110575495397
 20
9.717879669091416
 30
0.0
 11
27.52110575495393
 21
11.11787966909145
 31
0.0
  0
LINE
  5
3D0F
330
3CEF
100
AcDbEntity
  8
0
 62
     0
100
AcDbLine
 10
34.52110575495399
 20
4.117879669091394
 30
0.0
 11
33.12110575495395
 21
5.517879669091428
 31
0.0
  0
LINE
  5
3D10
330
3CEF
100
AcDbEntity
  8
0
 62
     0
100
AcDbLine
 10
32.07110575495395
 20
6.118866863037993
 30
0.0
 11
30.67110575495397
 21
7.51886686303797
 31
0.0
  0
LINE
  5
3D11
330
3CEF
100
AcDbEntity
  8
0
 62
     0
100
AcDbLine
 10
28.92110575495399
 20
9.268866863037942
 30
0.0
 11
27.5211057549539
 21
10.668866863038
 31
0.0
  0
LINE
  5
3D12
330
3CEF
100
AcDbEntity
  8
0
 62
     0
100
AcDbLine
 10
34.48512307750908
 20
3.704849540482854
 30
0.0
 11
33.12110575495395
 21
5.068866863037982
 31
0.0
  0
LINE
  5
3D13
330
3CEF
100
AcDbEntity
  8
0
 62
     0
100
AcDbLine
 10
32.07110575495395
 20
5.669854056984519
 30
0.0
 11
30.67110575495394
 21
7.069854056984496
 31
0.0
  0
LINE
  5
3D14
330
3CEF
100
AcDbEntity
  8
0
 62
     0
100
AcDbLine
 10
28.92110575495397
 20
8.819854056984496
 30
0.0
 11
27.5211057549539
 21
10.21985405698455
 31
0.0
  0
LINE
  5
3D15
330
3CEF
100
AcDbEntity
  8
0
 62
     0
100
AcDbLine
 10
34.1659597811344
 20
3.575000030804034
 30
0.0
 11
33.12110575495393
 21
4.619854056984536
 31
0.0
  0
LINE
  5
3D16
330
3CEF
100
AcDbEntity
  8
0
 62
     0
100
AcDbLine
 10
28.92110575495397
 20
8.370841250931022
 30
0.0
 11
27.52110575495393
 21
9.770841250931056
 31
0.0
  0
LINE
  5
3D17
330
3CEF
100
AcDbEntity
  8
0
 62
     0
100
AcDbLine
 10
32.07110575495391
 20
5.220841250931073
 30
0.0
 11
30.67110575495394
 21
6.62084125093105
 31
0.0
  0
LINE
  5
3D18
330
3CEF
100
AcDbEntity
  8
0
 62
     0
100
AcDbLine
 10
26.20860575495396
 20
11.08334125093102
 30
0.0
 11
25.66694697508089
 21
11.62500003080407
 31
0.0
  0
LINE
  5
3D19
330
3CEF
100
AcDbEntity
  8
0
 62
     0
100
AcDbLine
 10
33.7169469750809
 20
3.575000030804062
 30
0.0
 11
33.12110575495393
 21
4.170841250931061
 31
0.0
  0
LINE
  5
3D1A
330
3CEF
100
AcDbEntity
  8
0
 62
     0
100
AcDbLine
 10
28.92110575495397
 20
7.921828444877576
 30
0.0
 11
27.52110575495396
 21
9.32182844487761
 31
0.0
  0
LINE
  5
3D1B
330
3CEF
100
AcDbEntity
  8
0
 62
     0
100
AcDbLine
 10
26.20860575495396
 20
10.63432844487758
 30
0.0
 11
25.21793416902747
 21
11.6250000308041
 31
0.0
  0
LINE
  5
3D1C
330
3CEF
100
AcDbEntity
  8
0
 62
     0
100
AcDbLine
 10
32.05812660463121
 20
4.784807595200362
 30
0.0
 11
30.67110575495394
 21
6.171828444877604
 31
0.0
  0
LINE
  5
3D1D
330
3CEF
100
AcDbEntity
  8
0
 62
     0
100
AcDbLine
 10
28.92110575495397
 20
7.47281563882413
 30
0.0
 11
27.52110575495393
 21
8.872815638824164
 31
0.0
  0
LINE
  5
3D1E
330
3CEF
100
AcDbEntity
  8
0
 62
     0
100
AcDbLine
 10
26.11081548189705
 20
10.28310591188105
 30
0.0
 11
24.76892136297397
 21
11.62500003080413
 31
0.0
  0
LINE
  5
3D1F
330
3CEF
100
AcDbEntity
  8
0
 62
     0
100
AcDbLine
 10
31.96163395700259
 20
4.432287436775482
 30
0.0
 11
30.67110575495394
 21
5.722815638824158
 31
0.0
  0
LINE
  5
3D20
330
3CEF
100
AcDbEntity
  8
0
 62
     0
100
AcDbLine
 10
28.92110575495397
 20
7.023802832770655
 30
0.0
 11
27.52110575495393
 21
8.423802832770689
 31
0.0
  0
LINE
  5
3D21
330
3CEF
100
AcDbEntity
  8
0
 62
     0
100
AcDbLine
 10
25.71990855692055
 20
10.22500003080404
 30
0.0
 11
24.31990855692052
 21
11.62500003080407
 31
0.0
  0
LINE
  5
3D22
330
3CEF
100
AcDbEntity
  8
0
 62
     0
100
AcDbLine
 10
31.7991180190408
 20
4.145790568683793
 30
0.0
 11
30.63534788537419
 21
5.309560702350438
 31
0.0
  0
LINE
  5
3D23
330
3CEF
100
AcDbEntity
  8
0
 62
     0
100
AcDbLine
 10
28.92110575495397
 20
6.574790026717238
 30
0.0
 11
27.52110575495393
 21
7.974790026717244
 31
0.0
  0
LINE
  5
3D24
330
3CEF
100
AcDbEntity
  8
0
 62
     0
100
AcDbLine
 10
25.27089575086714
 20
10.22500003080406
 30
0.0
 11
23.90211238627836
 21
11.59378339539284
 31
0.0
  0
LINE
  5
3D25
330
3CEF
100
AcDbEntity
  8
0
 62
     0
100
AcDbLine
 10
31.58309712037828
 20
3.912798661292896
 30
0.0
 11
30.43455506614043
 21
5.061340715530747
 31
0.0
  0
LINE
  5
3D26
330
3CEF
100
AcDbEntity
  8
0
 62
     0
100
AcDbLine
 10
28.92110575495397
 20
6.125777220663763
 30
0.0
 11
27.52110575495393
 21
7.525777220663798
 31
0.0
  0
LINE
  5
3D27
330
3CEF
100
AcDbEntity
  8
0
 62
     0
100
AcDbLine
 10
24.82188294481364
 20
10.22500003080409
 30
0.0
 11
23.56979217401166
 21
11.47709080160604
 31
0.0
  0
LINE
  5
3D28
330
3CEF
100
AcDbEntity
  8
0
 62
     0
100
AcDbLine
 10
31.31501594791527
 20
3.731867027702463
 30
0.0
 11
30.07188294481363
 21
4.975000030804096
 31
0.0
  0
LINE
  5
3D29
330
3CEF
100
AcDbEntity
  8
0
 62
     0
100
AcDbLine
 10
28.92110575495394
 20
5.676764414610289
 30
0.0
 11
27.52110575495393
 21
7.076764414610323
 31
0.0
  0
LINE
  5
3D2A
330
3CEF
100
AcDbEntity
  8
0
 62
     0
100
AcDbLine
 10
24.38376505276917
 20
10.21410511679505
 30
0.0
 11
23.29849170540657
 21
11.29937846415765
 31
0.0
  0
LINE
  5
3D2B
330
3CEF
100
AcDbEntity
  8
0
 62
     0
100
AcDbLine
 10
30.98680966795962
 20
3.61106050160464
 30
0.0
 11
29.62287013876022
 21
4.975000030804039
 31
0.0
  0
LINE
  5
3D2C
330
3CEF
100
AcDbEntity
  8
0
 62
     0
100
AcDbLine
 10
24.19610575495397
 20
9.952751608556809
 30
0.0
 11
23.07943567588429
 21
11.06942168762645
 31
0.0
  0
LINE
  5
3D2D
330
3CEF
100
AcDbEntity
  8
0
 62
     0
100
AcDbLine
 10
30.57385733270669
 20
3.575000030804091
 30
0.0
 11
27.5211057549539
 21
6.627751608556877
 31
0.0
  0
LINE
  5
3D2E
330
3CEF
100
AcDbEntity
  8
0
 62
     0
100
AcDbLine
 10
24.196105754954
 20
9.503738802503363
 30
0.0
 11
22.91355021970778
 21
10.78629433774958
 31
0.0
  0
LINE
  5
3D2F
330
3CEF
100
AcDbEntity
  8
0
 62
     0
100
AcDbLine
 10
30.12484452665324
 20
3.575000030804091
 30
0.0
 11
27.52110575495393
 21
6.178738802503431
 31
0.0
  0
LINE
  5
3D30
330
3CEF
100
AcDbEntity
  8
0
 62
     0
100
AcDbLine
 10
24.2993778955059
 20
8.951453855897995
 30
0.0
 11
22.81246096002573
 21
10.43837079137813
 31
0.0
  0
LINE
  5
3D31
330
3CEF
100
AcDbEntity
  8
0
 62
     0
100
AcDbLine
 10
29.6758317205998
 20
3.575000030804091
 30
0.0
 11
27.52110575495396
 21
5.729725996449928
 31
0.0
  0
LINE
  5
3D32
330
3CEF
100
AcDbEntity
  8
0
 62
     0
100
AcDbLine
 10
26.40790760629966
 20
6.39391133905076
 30
0.0
 11
22.79610575495394
 21
10.00571319039647
 31
0.0
  0
LINE
  5
3D33
330
3CEF
100
AcDbEntity
  8
0
 62
     0
100
AcDbLine
 10
21.74610575495393
 20
11.05571319039646
 30
0.0
 11
21.17681891454631
 21
11.6250000308041
 31
0.0
  0
LINE
  5
3D34
330
3CEF
100
AcDbEntity
  8
0
 62
     0
100
AcDbLine
 10
29.22681891454633
 20
3.575000030804091
 30
0.0
 11
27.52110575495393
 21
5.280713190396454
 31
0.0
  0
LINE
  5
3D35
330
3CEF
100
AcDbEntity
  8
0
 62
     0
100
AcDbLine
 10
26.47110575495392
 20
5.881700384343076
 30
0.0
 11
22.79610575495397
 21
9.556700384343031
 31
0.0
  0
LINE
  5
3D36
330
3CEF
100
AcDbEntity
  8
0
 62
     0
100
AcDbLine
 10
21.74610575495398
 20
10.60670038434298
 30
0.0
 11
20.72780610849286
 21
11.6250000308041
 31
0.0
  0
LINE
  5
3D37
330
3CEF
100
AcDbEntity
  8
0
 62
     0
100
AcDbLine
 10
28.76958216912044
 20
3.583223970176561
 30
0.0
 11
27.52932969432643
 21
4.823476444970566
 31
0.0
  0
LINE
  5
3D38
330
3CEF
100
AcDbEntity
  8
0
 62
     0
100
AcDbLine
 10
21.74610575495398
 20
10.15768757828954
 30
0.0
 11
20.39241081106632
 21
11.51138252217717
 31
0.0
  0
LINE
  5
3D39
330
3CEF
100
AcDbEntity
  8
0
 62
     0
100
AcDbLine
 10
26.47110575495395
 20
5.432687578289574
 30
0.0
 11
22.80781108889516
 21
9.095982244348363
 31
0.0
  0
LINE
  5
3D3A
330
3CEF
100
AcDbEntity
  8
0
 62
     0
100
AcDbLine
 10
21.74610575495398
 20
9.708674772236065
 30
0.0
 11
20.34610575495395
 21
11.1086747722361
 31
0.0
  0
LINE
  5
3D3B
330
3CEF
100
AcDbEntity
  8
0
 62
     0
100
AcDbLine
 10
26.47110575495392
 20
4.983674772236099
 30
0.0
 11
22.96687079781517
 21
8.487909729374877
 31
0.0
  0
LINE
  5
3D3C
330
3CEF
100
AcDbEntity
  8
0
 62
     0
100
AcDbLine
 10
21.74610575495398
 20
9.259661966182619
 30
0.0
 11
20.34610575495395
 21
10.65966196618262
 31
0.0
  0
LINE
  5
3D3D
330
3CEF
100
AcDbEntity
  8
0
 62
     0
100
AcDbLine
 10
26.41682484615944
 20
4.588942874977163
 30
0.0
 11
25.06900745164029
 21
5.936760269496318
 31
0.0
  0
LINE
  5
3D3E
330
3CEF
100
AcDbEntity
  8
0
 62
     0
100
AcDbLine
 10
21.74610575495398
 20
8.810649160129173
 30
0.0
 11
20.34610575495395
 21
10.2106491601292
 31
0.0
  0
LINE
  5
3D3F
330
3CEF
100
AcDbEntity
  8
0
 62
     0
100
AcDbLine
 10
19.20036230466547
 20
11.35639261041765
 30
0.0
 11
18.93175488427903
 21
11.62500003080413
 31
0.0
  0
LINE
  5
3D40
330
3CEF
100
AcDbEntity
  8
0
 62
     0
100
AcDbLine
 10
26.28288699227866
 20
4.273867922804498
 30
0.0
 11
25.071105754954
 21
5.485649160129156
 31
0.0
  0
LINE
  5
3D41
330
3CEF
100
AcDbEntity
  8
0
 62
     0
100
AcDbLine
 10
21.74610575495396
 20
8.361636354075699
 30
0.0
 11
20.34610575495395
 21
9.761636354075733
 31
0.0
  0
LINE
  5
3D42
330
3CEF
100
AcDbEntity
  8
0
 62
     0
100
AcDbLine
 10
19.10089847253917
 20
11.00684363649048
 30
0.0
 11
18.48274207822555
 21
11.62500003080413
 31
0.0
  0
LINE
  5
3D43
330
3CEF
100
AcDbEntity
  8
0
 62
     0
100
AcDbLine
 10
26.09139359319101
 20
4.016348515838672
 30
0.0
 11
25.02246316351076
 21
5.085278945518922
 31
0.0
  0
LINE
  5
3D44
330
3CEF
100
AcDbEntity
  8
0
 62
     0
100
AcDbLine
 10
21.74610575495396
 20
7.912623548022253
 30
0.0
 11
20.34610575495392
 21
9.312623548022259
 31
0.0
  0
LINE
  5
3D45
330
3CEF
100
AcDbEntity
  8
0
 62
     0
100
AcDbLine
 10
18.99313539908632
 20
10.66559390388985
 30
0.0
 11
18.03852761735103
 21
11.62020168562517
 31
0.0
  0
LINE
  5
3D46
330
3CEF
100
AcDbEntity
  8
0
 62
     0
100
AcDbLine
 10
25.8482341106332
 20
3.810495192342983
 30
0.0
 11
24.68372927217217
 21
4.975000030804039
 31
0.0
  0
LINE
  5
3D47
330
3CEF
100
AcDbEntity
  8
0
 62
     0
100
AcDbLine
 10
21.74610575495398
 20
7.463610741968807
 30
0.0
 11
20.34610575495395
 21
8.863610741968841
 31
0.0
  0
LINE
  5
3D48
330
3CEF
100
AcDbEntity
  8
0
 62
     0
100
AcDbLine
 10
18.88537232563356
 20
10.32434417128922
 30
0.0
 11
17.82137232563354
 21
11.38834417128924
 31
0.0
  0
LINE
  5
3D49
330
3CEF
100
AcDbEntity
  8
0
 62
     0
100
AcDbLine
 10
25.55019213640301
 20
3.659524360519753
 30
0.0
 11
24.23471646611869
 21
4.975000030804096
 31
0.0
  0
LINE
  5
3D4A
330
3CEF
100
AcDbEntity
  8
0
 62
     0
100
AcDbLine
 10
21.74610575495396
 20
7.014597935915361
 30
0.0
 11
20.34610575495392
 21
8.414597935915367
 31
0.0
  0
LINE
  5
3D4B
330
3CEF
100
AcDbEntity
  8
0
 62
     0
100
AcDbLine
 10
18.77760925218069
 20
9.983094438688624
 30
0.0
 11
17.71360925218064
 21
11.04709443868867
 31
0.0
  0
LINE
  5
3D4C
330
3CEF
100
AcDbEntity
  8
0
 62
     0
100
AcDbLine
 10
25.18135581057928
 20
3.579347880290043
 30
0.0
 11
23.78570366006525
 21
4.975000030804039
 31
0.0
  0
LINE
  5
3D4D
330
3CEF
100
AcDbEntity
  8
0
 62
     0
100
AcDbLine
 10
21.74610575495396
 20
6.565585129861887
 30
0.0
 11
20.34610575495395
 21
7.965585129861864
 31
0.0
  0
LINE
  5
3D4E
330
3CEF
100
AcDbEntity
  8
0
 62
     0
100
AcDbLine
 10
18.66984617872785
 20
9.641844706087994
 30
0.0
 11
17.6058461787278
 21
10.70584470608801
 31
0.0
  0
LINE
  5
3D4F
330
3CEF
100
AcDbEntity
  8
0
 62
     0
100
AcDbLine
 10
24.73669085401175
 20
3.575000030804091
 30
0.0
 11
23.33669085401175
 21
4.975000030804068
 31
0.0
  0
LINE
  5
3D50
330
3CEF
100
AcDbEntity
  8
0
 62
     0
100
AcDbLine
 10
21.74610575495396
 20
6.116572323808441
 30
0.0
 11
20.34610575495398
 21
7.516572323808446
 31
0.0
  0
LINE
  5
3D51
330
3CEF
100
AcDbEntity
  8
0
 62
     0
100
AcDbLine
 10
18.56208310527503
 20
9.300594973487392
 30
0.0
 11
17.49808310527498
 21
10.36459497348741
 31
0.0
  0
LINE
  5
3D52
330
3CEF
100
AcDbEntity
  8
0
 62
     0
100
AcDbLine
 10
24.28767804795836
 20
3.575000030804062
 30
0.0
 11
23.07087219931011
 21
4.791805879452311
 31
0.0
  0
LINE
  5
3D53
330
3CEF
100
AcDbEntity
  8
0
 62
     0
100
AcDbLine
 10
18.45432003182222
 20
8.959345240886705
 30
0.0
 11
17.39032003182219
 21
10.02334524088675
 31
0.0
  0
LINE
  5
3D54
330
3CEF
100
AcDbEntity
  8
0
 62
     0
100
AcDbLine
 10
21.74610575495396
 20
5.667559517754995
 30
0.0
 11
20.34610575495398
 21
7.067559517754972
 31
0.0
  0
LINE
  5
3D55
330
3CEF
100
AcDbEntity
  8
0
 62
     0
100
AcDbLine
 10
16.32110575495397
 20
11.09255951775497
 30
0.0
 11
15.78866524190482
 21
11.6250000308041
 31
0.0
  0
LINE
  5
3D56
330
3CEF
100
AcDbEntity
  8
0
 62
     0
100
AcDbLine
 10
23.83866524190486
 20
3.575000030804091
 30
0.0
 11
23.05860575495393
 21
4.355059517754995
 31
0.0
  0
LINE
  5
3D57
330
3CEF
100
AcDbEntity
  8
0
 62
     0
100
AcDbLine
 10
18.34655695836931
 20
8.61809550828616
 30
0.0
 11
17.28255695836932
 21
9.682095508286153
 31
0.0
  0
LINE
  5
3D58
330
3CEF
100
AcDbEntity
  8
0
 62
     0
100
AcDbLine
 10
21.74610575495396
 20
5.21854671170152
 30
0.0
 11
20.34610575495395
 21
6.618546711701526
 31
0.0
  0
LINE
  5
3D59
330
3CEF
100
AcDbEntity
  8
0
 62
     0
100
AcDbLine
 10
16.32110575495397
 20
10.6435467117015
 30
0.0
 11
15.33965243585137
 21
11.6250000308041
 31
0.0
  0
LINE
  5
3D5A
330
3CEF
100
AcDbEntity
  8
0
 62
     0
100
AcDbLine
 10
23.38965243585141
 20
3.575000030804034
 30
0.0
 11
23.05860575495393
 21
3.906046711701549
 31
0.0
  0
LINE
  5
3D5B
330
3CEF
100
AcDbEntity
  8
0
 62
     0
100
AcDbLine
 10
18.2387938849165
 20
8.276845775685501
 30
0.0
 11
17.17479388491648
 21
9.340845775685522
 31
0.0
  0
LINE
  5
3D5C
330
3CEF
100
AcDbEntity
  8
0
 62
     0
100
AcDbLine
 10
16.32110575495394
 20
10.19453390564802
 30
0.0
 11
14.98338329050514
 21
11.53225637009686
 31
0.0
  0
LINE
  5
3D5D
330
3CEF
100
AcDbEntity
  8
0
 62
     0
100
AcDbLine
 10
21.74610575495393
 20
4.769533905648074
 30
0.0
 11
20.34610575495395
 21
6.169533905648052
 31
0.0
  0
LINE
  5
3D5E
330
3CEF
100
AcDbEntity
  8
0
 62
     0
100
AcDbLine
 10
18.13103081146368
 20
7.935596043084899
 30
0.0
 11
17.06703081146366
 21
8.99959604308492
 31
0.0
  0
LINE
  5
3D5F
330
3CEF
100
AcDbEntity
  8
0
 62
     0
100
AcDbLine
 10
16.32110575495397
 20
9.745521099594611
 30
0.0
 11
14.92110575495394
 21
11.14552109959461
 31
0.0
  0
LINE
  5
3D60
330
3CEF
100
AcDbEntity
  8
0
 62
     0
100
AcDbLine
 10
21.74610575495396
 20
4.320521099594628
 30
0.0
 11
20.34610575495395
 21
5.720521099594606
 31
0.0
  0
LINE
  5
3D61
330
3CEF
100
AcDbEntity
  8
0
 62
     0
100
AcDbLine
 10
18.02848655676766
 20
7.589127491727452
 30
0.0
 11
16.95926773801082
 21
8.65834631048429
 31
0.0
  0
LINE
  5
3D62
330
3CEF
100
AcDbEntity
  8
0
 62
     0
100
AcDbLine
 10
16.32110575495397
 20
9.296508293541137
 30
0.0
 11
14.92110575495394
 21
10.69650829354117
 31
0.0
  0
LINE
  5
3D63
330
3CEF
100
AcDbEntity
  8
0
 62
     0
100
AcDbLine
 10
21.74610575495393
 20
3.871508293541154
 30
0.0
 11
20.34610575495395
 21
5.27150829354116
 31
0.0
  0
LINE
  5
3D64
330
3CEF
100
AcDbEntity
  8
0
 62
     0
100
AcDbLine
 10
18.23572323648465
 20
6.932878005956979
 30
0.0
 11
16.81399399016851
 21
8.354607252273126
 31
0.0
  0
LINE
  5
3D65
330
3CEF
100
AcDbEntity
  8
0
 62
     0
100
AcDbLine
 10
16.321105754954
 20
8.847495487487634
 30
0.0
 11
14.92110575495391
 21
10.24749548748769
 31
0.0
  0
LINE
  5
3D66
330
3CEF
100
AcDbEntity
  8
0
 62
     0
100
AcDbLine
 10
21.57658325628776
 20
3.592017986153848
 30
0.0
 11
20.34610575495395
 21
4.822495487487685
 31
0.0
  0
LINE
  5
3D67
330
3CEF
100
AcDbEntity
  8
0
 62
     0
100
AcDbLine
 10
18.44295991620166
 20
6.276628520186562
 30
0.0
 11
14.92110575495394
 21
9.798482681434279
 31
0.0
  0
LINE
  5
3D68
330
3CEF
100
AcDbEntity
  8
0
 62
     0
100
AcDbLine
 10
13.696105754954
 20
11.02348268143421
 30
0.0
 11
13.09458840558411
 21
11.6250000308041
 31
0.0
  0
LINE
  5
3D69
330
3CEF
100
AcDbEntity
  8
0
 62
     0
100
AcDbLine
 10
21.14458840558413
 20
3.575000030804091
 30
0.0
 11
20.346105754954
 21
4.373482681434211
 31
0.0
  0
LINE
  5
3D6A
330
3CEF
100
AcDbEntity
  8
0
 62
     0
100
AcDbLine
 10
18.6501965959186
 20
5.620379034416146
 30
0.0
 11
14.92110575495394
 21
9.349469875380805
 31
0.0
  0
LINE
  5
3D6B
330
3CEF
100
AcDbEntity
  8
0
 62
     0
100
AcDbLine
 10
13.696105754954
 20
10.57446987538074
 30
0.0
 11
12.64557559953061
 21
11.62500003080413
 31
0.0
  0
LINE
  5
3D6C
330
3CEF
100
AcDbEntity
  8
0
 62
     0
100
AcDbLine
 10
20.69557559953065
 20
3.575000030804062
 30
0.0
 11
20.34610575495398
 21
3.924469875380765
 31
0.0
  0
LINE
  5
3D6D
330
3CEF
100
AcDbEntity
  8
0
 62
     0
100
AcDbLine
 10
13.56265240725895
 20
10.25891041702232
 30
0.0
 11
12.21254154815324
 21
11.609021276128
 31
0.0
  0
LINE
  5
3D6E
330
3CEF
100
AcDbEntity
  8
0
 62
     0
100
AcDbLine
 10
18.8574332756356
 20
4.964129548645672
 30
0.0
 11
14.92110575495391
 21
8.900457069327359
 31
0.0
  0
LINE
  5
3D6F
330
3CEF
100
AcDbEntity
  8
0
 62
     0
100
AcDbLine
 10
16.48986021612478
 20
6.882689802103044
 30
0.0
 11
14.92110575495394
 21
8.451444263273884
 31
0.0
  0
LINE
  5
3D70
330
3CEF
100
AcDbEntity
  8
0
 62
     0
100
AcDbLine
 10
13.14754998742373
 20
10.22500003080406
 30
0.0
 11
11.8435200133596
 21
11.52903000486821
 31
0.0
  0
LINE
  5
3D71
330
3CEF
100
AcDbEntity
  8
0
 62
     0
100
AcDbLine
 10
19.06466995535259
 20
4.307880062875227
 30
0.0
 11
17.01851610919862
 21
6.354033909029197
 31
0.0
  0
LINE
  5
3D72
330
3CEF
100
AcDbEntity
  8
0
 62
     0
100
AcDbLine
 10
16.32110575495394
 20
6.602431457220433
 30
0.0
 11
14.92110575495391
 21
8.002431457220438
 31
0.0
  0
LINE
  5
3D73
330
3CEF
100
AcDbEntity
  8
0
 62
     0
100
AcDbLine
 10
12.69853718137022
 20
10.22500003080412
 30
0.0
 11
11.52415930544424
 21
11.39937790673011
 31
0.0
  0
LINE
  5
3D74
330
3CEF
100
AcDbEntity
  8
0
 62
     0
100
AcDbLine
 10
19.18218938420798
 20
3.741347827966365
 30
0.0
 11
17.2257527889156
 21
5.697784423258781
 31
0.0
  0
LINE
  5
3D75
330
3CEF
100
AcDbEntity
  8
0
 62
     0
100
AcDbLine
 10
16.32110575495394
 20
6.153418651166958
 30
0.0
 11
14.92110575495391
 21
7.553418651166992
 31
0.0
  0
LINE
  5
3D76
330
3CEF
100
AcDbEntity
  8
0
 62
     0
100
AcDbLine
 10
12.27698043009846
 20
10.19754397602244
 30
0.0
 11
11.24478481777697
 21
11.22973958834393
 31
0.0
  0
LINE
  5
3D77
330
3CEF
100
AcDbEntity
  8
0
 62
     0
100
AcDbLine
 10
18.89952437531681
 20
3.575000030804091
 30
0.0
 11
17.43298946863262
 21
5.04153493748825
 31
0.0
  0
LINE
  5
3D78
330
3CEF
100
AcDbEntity
  8
0
 62
     0
100
AcDbLine
 10
16.32110575495391
 20
5.704405845113484
 30
0.0
 11
14.92110575495391
 21
7.104405845113518
 31
0.0
  0
LINE
  5
3D79
330
3CEF
100
AcDbEntity
  8
0
 62
     0
100
AcDbLine
 10
11.99105233367896
 20
10.03445926638846
 30
0.0
 11
11.00095721347108
 21
11.02455438659635
 31
0.0
  0
LINE
  5
3D7A
330
3CEF
100
AcDbEntity
  8
0
 62
     0
100
AcDbLine
 10
18.45051156926334
 20
3.575000030804091
 30
0.0
 11
17.64022614834959
 21
4.385285451717834
 31
0.0
  0
LINE
  5
3D7B
330
3CEF
100
AcDbEntity
  8
0
 62
     0
100
AcDbLine
 10
13.86382032135284
 20
7.712678472661167
 30
0.0
 11
13.10878419681097
 21
8.467714597203041
 31
0.0
  0
LINE
  5
3D7C
330
3CEF
100
AcDbEntity
  8
0
 62
     0
100
AcDbLine
 10
16.32110575495394
 20
5.255393039060066
 30
0.0
 11
14.92110575495391
 21
6.655393039060101
 31
0.0
  0
LINE
  5
3D7D
330
3CEF
100
AcDbEntity
  8
0
 62
     0
100
AcDbLine
 10
11.81299154861449
 20
9.763507245399523
 30
0.0
 11
10.79127420046546
 21
10.78522459354854
 31
0.0
  0
LINE
  5
3D7E
330
3CEF
100
AcDbEntity
  8
0
 62
     0
100
AcDbLine
 10
17.97633226110758
 20
3.600166532906428
 30
0.0
 11
17.85115517531193
 21
3.725343618702083
 31
0.0
  0
LINE
  5
3D7F
330
3CEF
100
AcDbEntity
  8
0
 62
     0
100
AcDbLine
 10
13.82056349128188
 20
7.306922496678652
 30
0.0
 11
12.70302822082845
 21
8.424457767132082
 31
0.0
  0
LINE
  5
3D80
330
3CEF
100
AcDbEntity
  8
0
 62
     0
100
AcDbLine
 10
11.77110575495402
 20
9.356380233006518
 30
0.0
 11
10.61680468998463
 21
10.5106812979759
 31
0.0
  0
LINE
  5
3D81
330
3CEF
100
AcDbEntity
  8
0
 62
     0
100
AcDbLine
 10
16.32110575495394
 20
4.806380233006592
 30
0.0
 11
14.92110575495391
 21
6.206380233006626
 31
0.0
  0
LINE
  5
3D82
330
3CEF
100
AcDbEntity
  8
0
 62
     0
100
AcDbLine
 10
13.65463571163286
 20
7.023837470274173
 30
0.0
 11
12.41994319442397
 21
8.258529987483058
 31
0.0
  0
LINE
  5
3D83
330
3CEF
100
AcDbEntity
  8
0
 62
     0
100
AcDbLine
 10
11.77110575495402
 20
8.907367426953044
 30
0.0
 11
10.48151483637954
 21
10.19695834552752
 31
0.0
  0
LINE
  5
3D84
330
3CEF
100
AcDbEntity
  8
0
 62
     0
100
AcDbLine
 10
16.32110575495397
 20
4.357367426953089
 30
0.0
 11
14.92110575495394
 21
5.757367426953123
 31
0.0
  0
LINE
  5
3D85
330
3CEF
100
AcDbEntity
  8
0
 62
     0
100
AcDbLine
 10
11.77110575495402
 20
8.458354620899598
 30
0.0
 11
10.39415789991662
 21
9.835302475937027
 31
0.0
  0
LINE
  5
3D86
330
3CEF
100
AcDbEntity
  8
0
 62
     0
100
AcDbLine
 10
13.40371899056464
 20
6.825741385289006
 30
0.0
 11
12.22184710943881
 21
8.007613266414836
 31
0.0
  0
LINE
  5
3D87
330
3CEF
100
AcDbEntity
  8
0
 62
     0
100
AcDbLine
 10
9.05860575495393
 20
11.17085462089969
 30
0.0
 11
8.604460345049488
 21
11.62500003080416
 31
0.0
  0
LINE
  5
3D88
330
3CEF
100
AcDbEntity
  8
0
 62
     0
100
AcDbLine
 10
16.32110575495397
 20
3.908354620899672
 30
0.0
 11
14.92110575495394
 21
5.308354620899677
 31
0.0
  0
LINE
  5
3D89
330
3CEF
100
AcDbEntity
  8
0
 62
     0
100
AcDbLine
 10
11.77110575495402
 20
8.009341814846152
 30
0.0
 11
10.37110575495395
 21
9.409341814846214
 31
0.0
  0
LINE
  5
3D8A
330
3CEF
100
AcDbEntity
  8
0
 62
     0
100
AcDbLine
 10
13.05355926935092
 20
6.726888300449246
 30
0.0
 11
12.12299402459905
 21
7.657453545201121
 31
0.0
  0
LINE
  5
3D8B
330
3CEF
100
AcDbEntity
  8
0
 62
     0
100
AcDbLine
 10
9.05860575495393
 20
10.72184181484624
 30
0.0
 11
8.155447538996014
 21
11.62500003080413
 31
0.0
  0
LINE
  5
3D8C
330
3CEF
100
AcDbEntity
  8
0
 62
     0
100
AcDbLine
 10
16.17715385431867
 20
3.603293715481498
 30
0.0
 11
14.92110575495394
 21
4.859341814846231
 31
0.0
  0
LINE
  5
3D8D
330
3CEF
100
AcDbEntity
  8
0
 62
     0
100
AcDbLine
 10
11.77110575495402
 20
7.560329008792677
 30
0.0
 11
10.37110575495393
 21
8.96032900879274
 31
0.0
  0
LINE
  5
3D8E
330
3CEF
100
AcDbEntity
  8
0
 62
     0
100
AcDbLine
 10
9.004088769818793
 20
10.3273459939279
 30
0.0
 11
7.706434732942597
 21
11.62500003080407
 31
0.0
  0
LINE
  5
3D8F
330
3CEF
100
AcDbEntity
  8
0
 62
     0
100
AcDbLine
 10
15.75643473294261
 20
3.575000030804062
 30
0.0
 11
14.92110575495394
 21
4.410329008792757
 31
0.0
  0
LINE
  5
3D90
330
3CEF
100
AcDbEntity
  8
0
 62
     0
100
AcDbLine
 10
11.77110575495399
 20
7.111316202739232
 30
0.0
 11
10.37110575495393
 21
8.511316202739294
 31
0.0
  0
LINE
  5
3D91
330
3CEF
100
AcDbEntity
  8
0
 62
     0
100
AcDbLine
 10
8.657421926889128
 20
10.22500003080409
 30
0.0
 11
7.257421926889151
 21
11.62500003080407
 31
0.0
  0
LINE
  5
3D92
330
3CEF
100
AcDbEntity
  8
0
 62
     0
100
AcDbLine
 10
15.30742192688916
 20
3.575000030804062
 30
0.0
 11
14.92110575495391
 21
3.961316202739311
 31
0.0
  0
LINE
  5
3D93
330
3CEF
100
AcDbEntity
  8
0
 62
     0
100
AcDbLine
 10
11.77110575495402
 20
6.662303396685786
 30
0.0
 11
10.37110575495395
 21
8.062303396685848
 31
0.0
  0
LINE
  5
3D94
330
3CEF
100
AcDbEntity
  8
0
 62
     0
100
AcDbLine
 10
8.208409120835682
 20
10.22500003080409
 30
0.0
 11
6.825844484783232
 21
11.60756466685657
 31
0.0
  0
LINE
  5
3D95
330
3CEF
100
AcDbEntity
  8
0
 62
     0
100
AcDbLine
 10
13.69480453053552
 20
4.738604621104258
 30
0.0
 11
13.45971034525416
 21
4.973698806385641
 31
0.0
  0
LINE
  5
3D96
330
3CEF
100
AcDbEntity
  8
0
 62
     0
100
AcDbLine
 10
11.77110575495399
 20
6.213290590632311
 30
0.0
 11
10.37110575495393
 21
7.613290590632402
 31
0.0
  0
LINE
  5
3D97
330
3CEF
100
AcDbEntity
  8
0
 62
     0
100
AcDbLine
 10
7.759396314782236
 20
10.22500003080409
 30
0.0
 11
6.479277080543994
 21
11.50511926504233
 31
0.0
  0
LINE
  5
3D98
330
3CEF
100
AcDbEntity
  8
0
 62
     0
100
AcDbLine
 10
13.69610575495397
 20
4.288290590632328
 30
0.0
 11
13.00939631478223
 21
4.975000030804096
 31
0.0
  0
LINE
  5
3D99
330
3CEF
100
AcDbEntity
  8
0
 62
     0
100
AcDbLine
 10
11.77110575495399
 20
5.764277784578865
 30
0.0
 11
10.37110575495393
 21
7.164277784578928
 31
0.0
  0
LINE
  5
3D9A
330
3CEF
100
AcDbEntity
  8
0
 62
     0
100
AcDbLine
 10
7.310383508728762
 20
10.22500003080406
 30
0.0
 11
6.197153750620373
 21
11.33822978891245
 31
0.0
  0
LINE
  5
3D9B
330
3CEF
100
AcDbEntity
  8
0
 62
     0
100
AcDbLine
 10
13.69610575495397
 20
3.839277784578882
 30
0.0
 11
12.56038350872876
 21
4.975000030804068
 31
0.0
  0
LINE
  5
3D9C
330
3CEF
100
AcDbEntity
  8
0
 62
     0
100
AcDbLine
 10
7.055237094921466
 20
10.03113363855797
 30
0.0
 11
5.968107344499998
 21
11.11826338897944
 31
0.0
  0
LINE
  5
3D9D
330
3CEF
100
AcDbEntity
  8
0
 62
     0
100
AcDbLine
 10
13.50223936270782
 20
3.584131370771615
 30
0.0
 11
10.37110575495393
 21
6.715264978525482
 31
0.0
  0
LINE
  5
3D9E
330
3CEF
100
AcDbEntity
  8
0
 62
     0
100
AcDbLine
 10
7.046105754953941
 20
9.591252172471996
 30
0.0
 11
5.791366743265456
 21
10.84599118416051
 31
0.0
  0
LINE
  5
3D9F
330
3CEF
100
AcDbEntity
  8
0
 62
     0
100
AcDbLine
 10
13.0623578966219
 20
3.575000030804062
 30
0.0
 11
10.37110575495393
 21
6.266252172472036
 31
0.0
  0
LINE
  5
3DA0
330
3CEF
100
AcDbEntity
  8
0
 62
     0
100
AcDbLine
 10
7.077173609021713
 20
9.11117151235075
 30
0.0
 11
5.675926692118594
 21
10.51241842925389
 31
0.0
  0
LINE
  5
3DA1
330
3CEF
100
AcDbEntity
  8
0
 62
     0
100
AcDbLine
 10
12.61334509056843
 20
3.575000030804034
 30
0.0
 11
10.37110575495393
 21
5.817239366418561
 31
0.0
  0
LINE
  5
3DA2
330
3CEF
100
AcDbEntity
  8
0
 62
     0
100
AcDbLine
 10
9.223293800565329
 20
6.516038514753716
 30
0.0
 11
5.646105754953936
 21
10.09322656036511
 31
0.0
  0
LINE
  5
3DA3
330
3CEF
100
AcDbEntity
  8
0
 62
     0
100
AcDbLine
 10
12.13769624098659
 20
3.601636074332446
 30
0.0
 11
10.39774179848231
 21
5.341590516836731
 31
0.0
  0
LINE
  5
3DA4
330
3CEF
100
AcDbEntity
  8
0
 62
     0
100
AcDbLine
 10
9.319241057607939
 20
5.97107845165766
 30
0.0
 11
5.646105754953964
 21
9.644213754311635
 31
0.0
  0
LINE
  5
3DA5
330
3CEF
100
AcDbEntity
  8
0
 62
     0
100
AcDbLine
 10
11.4507922846858
 20
3.839527224579768
 30
0.0
 11
10.6356329487296
 21
4.654686560535992
 31
0.0
  0
LINE
  5
3DA6
330
3CEF
100
AcDbEntity
  8
0
 62
     0
100
AcDbLine
 10
9.321105754954004
 20
5.520200948258121
 30
0.0
 11
5.649887978665162
 21
9.191418724546934
 31
0.0
  0
LINE
  5
3DA7
330
3CEF
100
AcDbEntity
  8
0
 62
     0
100
AcDbLine
 10
9.321105754953975
 20
5.071188142204675
 30
0.0
 11
5.76153335782709
 21
8.630760539331532
 31
0.0
  0
LINE
  5
3DA8
330
3CEF
100
AcDbEntity
  8
0
 62
     0
100
AcDbLine
 10
9.284845756888017
 20
4.658435334217216
 30
0.0
 11
7.903149935078488
 21
6.040131156026745
 31
0.0
  0
LINE
  5
3DA9
330
3CEF
100
AcDbEntity
  8
0
 62
     0
100
AcDbLine
 10
9.163876787373595
 20
4.330391497678164
 30
0.0
 11
7.92110575495397
 21
5.573162530097789
 31
0.0
  0
LINE
  5
3DAA
330
3CEF
100
AcDbEntity
  8
0
 62
     0
100
AcDbLine
 10
8.98281716368271
 20
4.062438315315574
 30
0.0
 11
7.903156238803632
 21
5.142099240194653
 31
0.0
  0
LINE
  5
3DAB
330
3CEF
100
AcDbEntity
  8
0
 62
     0
100
AcDbLine
 10
8.749703977549273
 20
3.846538695395565
 30
0.0
 11
7.621242642140742
 21
4.975000030804096
 31
0.0
  0
LINE
  5
3DAC
330
3CEF
100
AcDbEntity
  8
0
 62
     0
100
AcDbLine
 10
8.463071753682868
 20
3.684158113208525
 30
0.0
 11
7.172229836087296
 21
4.975000030804096
 31
0.0
  0
LINE
  5
3DAD
330
3CEF
100
AcDbEntity
  8
0
 62
     0
100
AcDbLine
 10
8.110365459139899
 20
3.587851601698019
 30
0.0
 11
6.723217030033822
 21
4.975000030804096
 31
0.0
  0
LINE
  5
3DAE
330
3CEF
100
AcDbEntity
  8
0
 62
     0
100
AcDbLine
 10
7.674204223980382
 20
3.575000030804034
 30
0.0
 11
6.274204223980376
 21
4.975000030804068
 31
0.0
  0
LINE
  5
3DAF
330
3CEF
100
AcDbEntity
  8
0
 62
     0
100
AcDbLine
 10
7.225191417926907
 20
3.575000030804091
 30
0.0
 11
5.948529470517968
 21
4.851661978213059
 31
0.0
  0
LINE
  5
3DB0
330
3CEF
100
AcDbEntity
  8
0
 62
     0
100
AcDbLine
 10
6.776178611873461
 20
3.575000030804091
 30
0.0
 11
5.908605754953981
 21
4.442572887723571
 31
0.0
  0
LINE
  5
3DB1
330
3CEF
100
AcDbEntity
  8
0
 62
     0
100
AcDbLine
 10
6.327165805819987
 20
3.575000030804091
 30
0.0
 11
5.908605754953981
 21
3.993560081670096
 31
0.0
  0
LINE
  5
3DB2
330
3CEF
100
AcDbEntity
  8
0
 62
     0
100
AcDbLine
 10
34.31694939728746
 20
3.581565919362873
 30
0.0
 11
34.51453986639535
 21
3.779156388470767
 31
0.0
  0
LINE
  5
3DB3
330
3CEF
100
AcDbEntity
  8
0
 62
     0
100
AcDbLine
 10
33.86137070267523
 20
3.575000030804062
 30
0.0
 11
34.52110575495408
 21
4.23473508308291
 31
0.0
  0
LINE
  5
3DB4
330
3CEF
100
AcDbEntity
  8
0
 62
     0
100
AcDbLine
 10
33.41235789662178
 20
3.575000030804062
 30
0.0
 11
34.52110575495408
 21
4.683747889136355
 31
0.0
  0
LINE
  5
3DB5
330
3CEF
100
AcDbEntity
  8
0
 62
     0
100
AcDbLine
 10
33.13670453657991
 20
3.748359476815664
 30
0.0
 11
34.52110575495405
 21
5.13276069518983
 31
0.0
  0
LINE
  5
3DB6
330
3CEF
100
AcDbEntity
  8
0
 62
     0
100
AcDbLine
 10
33.12110575495401
 20
4.181773501243242
 30
0.0
 11
34.52110575495405
 21
5.581773501243247
 31
0.0
  0
LINE
  5
3DB7
330
3CEF
100
AcDbEntity
  8
0
 62
     0
100
AcDbLine
 10
33.12110575495404
 20
4.630786307296688
 30
0.0
 11
34.52110575495405
 21
6.030786307296722
 31
0.0
  0
LINE
  5
3DB8
330
3CEF
100
AcDbEntity
  8
0
 62
     0
100
AcDbLine
 10
33.12110575495401
 20
5.079799113350162
 30
0.0
 11
34.52110575495405
 21
6.479799113350196
 31
0.0
  0
LINE
  5
3DB9
330
3CEF
100
AcDbEntity
  8
0
 62
     0
100
AcDbLine
 10
33.12110575495401
 20
5.528811919403608
 30
0.0
 11
34.52110575495405
 21
6.928811919403642
 31
0.0
  0
LINE
  5
3DBA
330
3CEF
100
AcDbEntity
  8
0
 62
     0
100
AcDbLine
 10
31.33438818598665
 20
3.742094350436246
 30
0.0
 11
31.90401143532193
 21
4.311717599771554
 31
0.0
  0
LINE
  5
3DBB
330
3CEF
100
AcDbEntity
  8
0
 62
     0
100
AcDbLine
 10
33.12110575495401
 20
5.977824725457054
 30
0.0
 11
34.52110575495405
 21
7.377824725457088
 31
0.0
  0
LINE
  5
3DBC
330
3CEF
100
AcDbEntity
  8
0
 62
     0
100
AcDbLine
 10
30.71910410272525
 20
3.575823073228292
 30
0.0
 11
32.07028271252991
 21
4.927001683032926
 31
0.0
  0
LINE
  5
3DBD
330
3CEF
100
AcDbEntity
  8
0
 62
     0
100
AcDbLine
 10
33.12110575495401
 20
6.426837531510528
 30
0.0
 11
34.52110575495405
 21
7.826837531510534
 31
0.0
  0
LINE
  5
3DBE
330
3CEF
100
AcDbEntity
  8
0
 62
     0
100
AcDbLine
 10
30.26926825424755
 20
3.575000030804062
 30
0.0
 11
32.07110575495406
 21
5.376837531510545
 31
0.0
  0
LINE
  5
3DBF
330
3CEF
100
AcDbEntity
  8
0
 62
     0
100
AcDbLine
 10
33.12110575495401
 20
6.875850337563974
 30
0.0
 11
34.52110575495402
 21
8.275850337564008
 31
0.0
  0
LINE
  5
3DC0
330
3CEF
100
AcDbEntity
  8
0
 62
     0
100
AcDbLine
 10
29.8202554481941
 20
3.575000030804062
 30
0.0
 11
32.07110575495403
 21
5.82585033756402
 31
0.0
  0
LINE
  5
3DC1
330
3CEF
100
AcDbEntity
  8
0
 62
     0
100
AcDbLine
 10
33.12110575495401
 20
7.32486314361742
 30
0.0
 11
34.52110575495405
 21
8.724863143617454
 31
0.0
  0
LINE
  5
3DC2
330
3CEF
100
AcDbEntity
  8
0
 62
     0
100
AcDbLine
 10
29.37124264214068
 20
3.575000030804091
 30
0.0
 11
32.07110575495406
 21
6.274863143617466
 31
0.0
  0
LINE
  5
3DC3
330
3CEF
100
AcDbEntity
  8
0
 62
     0
100
AcDbLine
 10
30.6188101539135
 20
5.271580348630379
 30
0.0
 11
32.07110575495406
 21
6.723875949670912
 31
0.0
  0
LINE
  5
3DC4
330
3CEF
100
AcDbEntity
  8
0
 62
     0
100
AcDbLine
 10
33.12110575495401
 20
7.773875949670866
 30
0.0
 11
34.52110575495405
 21
9.1738759496709
 31
0.0
  0
LINE
  5
3DC5
330
3CEF
100
AcDbEntity
  8
0
 62
     0
100
AcDbLine
 10
28.92222983608718
 20
3.575000030804062
 30
0.0
 11
30.37452543712774
 21
5.027295631844594
 31
0.0
  0
LINE
  5
3DC6
330
3CEF
100
AcDbEntity
  8
0
 62
     0
100
AcDbLine
 10
30.671105754954
 20
5.772888755724352
 30
0.0
 11
32.07110575495403
 21
7.172888755724386
 31
0.0
  0
LINE
  5
3DC7
330
3CEF
100
AcDbEntity
  8
0
 62
     0
100
AcDbLine
 10
33.12110575495399
 20
8.222888755724341
 30
0.0
 11
34.52110575495402
 21
9.622888755724375
 31
0.0
  0
LINE
  5
3DC8
330
3CEF
100
AcDbEntity
  8
0
 62
     0
100
AcDbLine
 10
28.52919190572234
 20
3.630974906492667
 30
0.0
 11
29.87321703003377
 21
4.975000030804096
 31
0.0
  0
LINE
  5
3DC9
330
3CEF
100
AcDbEntity
  8
0
 62
     0
100
AcDbLine
 10
30.67110575495402
 20
6.221901561777855
 30
0.0
 11
32.07110575495403
 21
7.621901561777832
 31
0.0
  0
LINE
  5
3DCA
330
3CEF
100
AcDbEntity
  8
0
 62
     0
100
AcDbLine
 10
33.12110575495399
 20
8.671901561777815
 30
0.0
 11
34.52110575495402
 21
10.07190156177782
 31
0.0
  0
LINE
  5
3DCB
330
3CEF
100
AcDbEntity
  8
0
 62
     0
100
AcDbLine
 10
28.21519847211726
 20
3.765994278941093
 30
0.0
 11
29.42464311680248
 21
4.975438923626313
 31
0.0
  0
LINE
  5
3DCC
330
3CEF
100
AcDbEntity
  8
0
 62
     0
100
AcDbLine
 10
30.67110575495405
 20
6.670914367831301
 30
0.0
 11
32.07110575495403
 21
8.070914367831278
 31
0.0
  0
LINE
  5
3DCD
330
3CEF
100
AcDbEntity
  8
0
 62
     0
100
AcDbLine
 10
33.12110575495401
 20
9.120914367831232
 30
0.0
 11
34.52110575495402
 21
10.52091436783126
 31
0.0
  0
LINE
  5
3DCE
330
3CEF
100
AcDbEntity
  8
0
 62
     0
100
AcDbLine
 10
27.95856853143473
 20
3.958377144311953
 30
0.0
 11
29.10290382244614
 21
5.102712435323383
 31
0.0
  0
LINE
  5
3DCF
330
3CEF
100
AcDbEntity
  8
0
 62
     0
100
AcDbLine
 10
30.67110575495405
 20
7.119927173884747
 30
0.0
 11
32.07110575495403
 21
8.519927173884752
 31
0.0
  0
LINE
  5
3DD0
330
3CEF
100
AcDbEntity
  8
0
 62
     0
100
AcDbLine
 10
33.12110575495399
 20
9.569927173884707
 30
0.0
 11
34.52110575495402
 21
10.96992717388474
 31
0.0
  0
LINE
  5
3DD1
330
3CEF
100
AcDbEntity
  8
0
 62
     0
100
AcDbLine
 10
27.75358644382217
 20
4.202407862752863
 30
0.0
 11
28.93428468324143
 21
5.383106102172149
 31
0.0
  0
LINE
  5
3DD2
330
3CEF
100
AcDbEntity
  8
0
 62
     0
100
AcDbLine
 10
30.67110575495402
 20
7.568939979938221
 30
0.0
 11
32.07110575495406
 21
8.968939979938255
 31
0.0
  0
LINE
  5
3DD3
330
3CEF
100
AcDbEntity
  8
0
 62
     0
100
AcDbLine
 10
33.12110575495399
 20
10.01893997993815
 30
0.0
 11
34.51603117817879
 21
11.41386540316298
 31
0.0
  0
LINE
  5
3DD4
330
3CEF
100
AcDbEntity
  8
0
 62
     0
100
AcDbLine
 10
27.60362400460516
 20
4.50145822958936
 30
0.0
 11
28.92110575495403
 21
5.818939979938193
 31
0.0
  0
LINE
  5
3DD5
330
3CEF
100
AcDbEntity
  8
0
 62
     0
100
AcDbLine
 10
30.67110575495405
 20
8.017952785991639
 30
0.0
 11
32.07110575495409
 21
9.417952785991673
 31
0.0
  0
LINE
  5
3DD6
330
3CEF
100
AcDbEntity
  8
0
 62
     0
100
AcDbLine
 10
33.12110575495399
 20
10.46795278599159
 30
0.0
 11
34.27747400563905
 21
11.62432103667666
 31
0.0
  0
LINE
  5
3DD7
330
3CEF
100
AcDbEntity
  8
0
 62
     0
100
AcDbLine
 10
27.52491723712694
 20
4.871764268164554
 30
0.0
 11
28.92110575495403
 21
6.267952785991639
 31
0.0
  0
LINE
  5
3DD8
330
3CEF
100
AcDbEntity
  8
0
 62
     0
100
AcDbLine
 10
30.67110575495402
 20
8.466965592045113
 30
0.0
 11
32.07110575495406
 21
9.866965592045147
 31
0.0
  0
LINE
  5
3DD9
330
3CEF
100
AcDbEntity
  8
0
 62
     0
100
AcDbLine
 10
33.12110575495401
 20
10.9169655920451
 30
0.0
 11
33.82914019371301
 21
11.6250000308041
 31
0.0
  0
LINE
  5
3DDA
330
3CEF
100
AcDbEntity
  8
0
 62
     0
100
AcDbLine
 10
27.52110575495405
 20
5.316965592045107
 30
0.0
 11
28.92110575495405
 21
6.716965592045141
 31
0.0
  0
LINE
  5
3DDB
330
3CEF
100
AcDbEntity
  8
0
 62
     0
100
AcDbLine
 10
30.67110575495402
 20
8.915978398098587
 30
0.0
 11
32.07110575495406
 21
10.31597839809859
 31
0.0
  0
LINE
  5
3DDC
330
3CEF
100
AcDbEntity
  8
0
 62
     0
100
AcDbLine
 10
27.52110575495402
 20
5.765978398098582
 30
0.0
 11
28.92110575495405
 21
7.165978398098616
 31
0.0
  0
LINE
  5
3DDD
330
3CEF
100
AcDbEntity
  8
0
 62
     0
100
AcDbLine
 10
33.12112911232773
 20
11.36600175547229
 30
0.0
 11
33.38010403028587
 21
11.62497667343041
 31
0.0
  0
LINE
  5
3DDE
330
3CEF
100
AcDbEntity
  8
0
 62
     0
100
AcDbLine
 10
25.36032793959802
 20
3.605200582742554
 30
0.0
 11
26.4409052030156
 21
4.685777846160164
 31
0.0
  0
LINE
  5
3DDF
330
3CEF
100
AcDbEntity
  8
0
 62
     0
100
AcDbLine
 10
27.52110575495402
 20
6.214991204152028
 30
0.0
 11
28.92110575495405
 21
7.614991204152062
 31
0.0
  0
LINE
  5
3DE0
330
3CEF
100
AcDbEntity
  8
0
 62
     0
100
AcDbLine
 10
30.67110575495402
 20
9.364991204152033
 30
0.0
 11
32.07110575495403
 21
10.76499120415206
 31
0.0
  0
LINE
  5
3DE1
330
3CEF
100
AcDbEntity
  8
0
 62
     0
100
AcDbLine
 10
24.88111458160608
 20
3.575000030804119
 30
0.0
 11
26.47110575495401
 21
5.164991204152045
 31
0.0
  0
LINE
  5
3DE2
330
3CEF
100
AcDbEntity
  8
0
 62
     0
100
AcDbLine
 10
27.52110575495402
 20
6.664004010205474
 30
0.0
 11
28.92110575495405
 21
8.064004010205508
 31
0.0
  0
LINE
  5
3DE3
330
3CEF
100
AcDbEntity
  8
0
 62
     0
100
AcDbLine
 10
30.67110575495402
 20
9.814004010205479
 30
0.0
 11
32.07110575495406
 21
11.21400401020551
 31
0.0
  0
LINE
  5
3DE4
330
3CEF
100
AcDbEntity
  8
0
 62
     0
100
AcDbLine
 10
24.43210177555263
 20
3.575000030804091
 30
0.0
 11
26.47110575495403
 21
5.614004010205462
 31
0.0
  0
LINE
  5
3DE5
330
3CEF
100
AcDbEntity
  8
0
 62
     0
100
AcDbLine
 10
27.52110575495402
 20
7.113016816258948
 30
0.0
 11
28.92110575495405
 21
8.513016816258954
 31
0.0
  0
LINE
  5
3DE6
330
3CEF
100
AcDbEntity
  8
0
 62
     0
100
AcDbLine
 10
30.67110575495402
 20
10.26301681625892
 30
0.0
 11
31.97423702753698
 21
11.56614808884191
 31
0.0
  0
LINE
  5
3DE7
330
3CEF
100
AcDbEntity
  8
0
 62
     0
100
AcDbLine
 10
23.98308896949919
 20
3.575000030804119
 30
0.0
 11
26.46394645474754
 21
6.055857516052469
 31
0.0
  0
LINE
  5
3DE8
330
3CEF
100
AcDbEntity
  8
0
 62
     0
100
AcDbLine
 10
27.52110575495402
 20
7.562029622312394
 30
0.0
 11
28.92110575495403
 21
8.962029622312428
 31
0.0
  0
LINE
  5
3DE9
330
3CEF
100
AcDbEntity
  8
0
 62
     0
100
AcDbLine
 10
30.671105754954
 20
10.7120296223124
 30
0.0
 11
31.58407616344573
 21
11.62500003080413
 31
0.0
  0
LINE
  5
3DEA
330
3CEF
100
AcDbEntity
  8
0
 62
     0
100
AcDbLine
 10
23.53407616344572
 20
3.575000030804119
 30
0.0
 11
26.39649026943317
 21
6.437414136791545
 31
0.0
  0
LINE
  5
3DEB
330
3CEF
100
AcDbEntity
  8
0
 62
     0
100
AcDbLine
 10
27.52110575495402
 20
8.01104242836584
 30
0.0
 11
28.92110575495405
 21
9.411042428365874
 31
0.0
  0
LINE
  5
3DEC
330
3CEF
100
AcDbEntity
  8
0
 62
     0
100
AcDbLine
 10
25.07110575495409
 20
5.56104242836588
 30
0.0
 11
26.2761965409739
 21
6.766133214385689
 31
0.0
  0
LINE
  5
3DED
330
3CEF
100
AcDbEntity
  8
0
 62
     0
100
AcDbLine
 10
30.67110575495402
 20
11.16104242836584
 30
0.0
 11
31.13506335739231
 21
11.62500003080413
 31
0.0
  0
LINE
  5
3DEE
330
3CEF
100
AcDbEntity
  8
0
 62
     0
100
AcDbLine
 10
23.14919103395783
 20
3.639127707369652
 30
0.0
 11
24.48506335739228
 21
4.975000030804096
 31
0.0
  0
LINE
  5
3DEF
330
3CEF
100
AcDbEntity
  8
0
 62
     0
100
AcDbLine
 10
25.06117046739038
 20
6.000119946855647
 30
0.0
 11
26.11444688854362
 21
7.05339636800889
 31
0.0
  0
LINE
  5
3DF0
330
3CEF
100
AcDbEntity
  8
0
 62
     0
100
AcDbLine
 10
27.52110575495402
 20
8.460055234419286
 30
0.0
 11
28.92110575495403
 21
9.86005523441932
 31
0.0
  0
LINE
  5
3DF1
330
3CEF
100
AcDbEntity
  8
0
 62
     0
100
AcDbLine
 10
23.05860575495404
 20
3.997555234419309
 30
0.0
 11
24.0360505513388
 21
4.975000030804096
 31
0.0
  0
LINE
  5
3DF2
330
3CEF
100
AcDbEntity
  8
0
 62
     0
100
AcDbLine
 10
24.92397804882094
 20
6.311940334339709
 30
0.0
 11
25.91651132957972
 21
7.304473615098487
 31
0.0
  0
LINE
  5
3DF3
330
3CEF
100
AcDbEntity
  8
0
 62
     0
100
AcDbLine
 10
27.52110575495399
 20
8.90906804047276
 30
0.0
 11
28.92110575495403
 21
10.30906804047279
 31
0.0
  0
LINE
  5
3DF4
330
3CEF
100
AcDbEntity
  8
0
 62
     0
100
AcDbLine
 10
23.05860575495401
 20
4.446568040472783
 30
0.0
 11
23.58703774528535
 21
4.975000030804125
 31
0.0
  0
LINE
  5
3DF5
330
3CEF
100
AcDbEntity
  8
0
 62
     0
100
AcDbLine
 10
27.52110575495402
 20
9.358080846526206
 30
0.0
 11
28.92110575495405
 21
10.75808084652621
 31
0.0
  0
LINE
  5
3DF6
330
3CEF
100
AcDbEntity
  8
0
 62
     0
100
AcDbLine
 10
24.70334060026241
 20
6.540315691834564
 30
0.0
 11
25.69329009392356
 21
7.530265185495721
 31
0.0
  0
LINE
  5
3DF7
330
3CEF
100
AcDbEntity
  8
0
 62
     0
100
AcDbLine
 10
24.47883419723567
 20
6.764822094861301
 30
0.0
 11
25.46878369089682
 21
7.754771588522459
 31
0.0
  0
LINE
  5
3DF8
330
3CEF
100
AcDbEntity
  8
0
 62
     0
100
AcDbLine
 10
27.52110575495399
 20
9.807093652579652
 30
0.0
 11
28.92110575495403
 21
11.20709365257968
 31
0.0
  0
LINE
  5
3DF9
330
3CEF
100
AcDbEntity
  8
0
 62
     0
100
AcDbLine
 10
21.28901213317843
 20
3.575000030804091
 30
0.0
 11
21.74610575495401
 21
4.032093652579646
 31
0.0
  0
LINE
  5
3DFA
330
3CEF
100
AcDbEntity
  8
0
 62
     0
100
AcDbLine
 10
24.25432779420893
 20
6.989328497888038
 30
0.0
 11
25.24427728787009
 21
7.979277991549196
 31
0.0
  0
LINE
  5
3DFB
330
3CEF
100
AcDbEntity
  8
0
 62
     0
100
AcDbLine
 10
27.52110575495399
 20
10.25610645863312
 30
0.0
 11
28.82801530090469
 21
11.5630160045838
 31
0.0
  0
LINE
  5
3DFC
330
3CEF
100
AcDbEntity
  8
0
 62
     0
100
AcDbLine
 10
20.83999932712495
 20
3.575000030804091
 30
0.0
 11
21.74610575495404
 21
4.481106458633149
 31
0.0
  0
LINE
  5
3DFD
330
3CEF
100
AcDbEntity
  8
0
 62
     0
100
AcDbLine
 10
24.02982139118219
 20
7.213834900914775
 30
0.0
 11
25.01977088484335
 21
8.203784394575933
 31
0.0
  0
LINE
  5
3DFE
330
3CEF
100
AcDbEntity
  8
0
 62
     0
100
AcDbLine
 10
27.52110575495399
 20
10.70511926468657
 30
0.0
 11
28.44098652107155
 21
11.62500003080416
 31
0.0
  0
LINE
  5
3DFF
330
3CEF
100
AcDbEntity
  8
0
 62
     0
100
AcDbLine
 10
20.4467920900025
 20
3.630805599735083
 30
0.0
 11
21.74610575495401
 21
4.930119264686624
 31
0.0
  0
LINE
  5
3E00
330
3CEF
100
AcDbEntity
  8
0
 62
     0
100
AcDbLine
 10
23.80531498815548
 20
7.438341303941484
 30
0.0
 11
24.79526448181664
 21
8.428290797602642
 31
0.0
  0
LINE
  5
3E01
330
3CEF
100
AcDbEntity
  8
0
 62
     0
100
AcDbLine
 10
27.52110575495399
 20
11.15413207074001
 30
0.0
 11
27.99197371501813
 21
11.62500003080413
 31
0.0
  0
LINE
  5
3E02
330
3CEF
100
AcDbEntity
  8
0
 62
     0
100
AcDbLine
 10
20.34610575495404
 20
3.979132070740064
 30
0.0
 11
21.74610575495404
 21
5.379132070740041
 31
0.0
  0
LINE
  5
3E03
330
3CEF
100
AcDbEntity
  8
0
 62
     0
100
AcDbLine
 10
23.58080858512875
 20
7.662847706968221
 30
0.0
 11
24.5707580787899
 21
8.652797200629379
 31
0.0
  0
LINE
  5
3E04
330
3CEF
100
AcDbEntity
  8
0
 62
     0
100
AcDbLine
 10
20.34610575495404
 20
4.428144876793538
 30
0.0
 11
21.74610575495401
 21
5.828144876793516
 31
0.0
  0
LINE
  5
3E05
330
3CEF
100
AcDbEntity
  8
0
 62
     0
100
AcDbLine
 10
23.35731663460808
 20
7.888368562501057
 30
0.0
 11
24.34930340129909
 21
8.880355329192042
 31
0.0
  0
LINE
  5
3E06
330
3CEF
100
AcDbEntity
  8
0
 62
     0
100
AcDbLine
 10
20.34610575495404
 20
4.877157682846984
 30
0.0
 11
21.74610575495401
 21
6.27715768284699
 31
0.0
  0
LINE
  5
3E07
330
3CEF
100
AcDbEntity
  8
0
 62
     0
100
AcDbLine
 10
25.69394810291112
 20
10.22500003080409
 30
0.0
 11
26.20860575495405
 21
10.73965768284699
 31
0.0
  0
LINE
  5
3E08
330
3CEF
100
AcDbEntity
  8
0
 62
     0
100
AcDbLine
 10
19.09977764259892
 20
3.630829570491869
 30
0.0
 11
19.14460382332643
 21
3.675655751219409
 31
0.0
  0
LINE
  5
3E09
330
3CEF
100
AcDbEntity
  8
0
 62
     0
100
AcDbLine
 10
23.15831554519709
 20
8.13838027914349
 30
0.0
 11
24.2081326839064
 21
9.188197417852791
 31
0.0
  0
LINE
  5
3E0A
330
3CEF
100
AcDbEntity
  8
0
 62
     0
100
AcDbLine
 10
20.34610575495404
 20
5.32617048890043
 30
0.0
 11
21.74610575495404
 21
6.726170488900407
 31
0.0
  0
LINE
  5
3E0B
330
3CEF
100
AcDbEntity
  8
0
 62
     0
100
AcDbLine
 10
25.24493529685773
 20
10.22500003080412
 30
0.0
 11
26.20860575495405
 21
11.18867048890044
 31
0.0
  0
LINE
  5
3E0C
330
3CEF
100
AcDbEntity
  8
0
 62
     0
100
AcDbLine
 10
18.59493529685769
 20
3.575000030804091
 30
0.0
 11
19.12782484501096
 21
4.107889578957355
 31
0.0
  0
LINE
  5
3E0D
330
3CEF
100
AcDbEntity
  8
0
 62
     0
100
AcDbLine
 10
22.99539841299875
 20
8.424475952998619
 30
0.0
 11
24.19610575495409
 21
9.625183294953956
 31
0.0
  0
LINE
  5
3E0E
330
3CEF
100
AcDbEntity
  8
0
 62
     0
100
AcDbLine
 10
20.34610575495404
 20
5.775183294953876
 30
0.0
 11
21.74610575495401
 21
7.175183294953882
 31
0.0
  0
LINE
  5
3E0F
330
3CEF
100
AcDbEntity
  8
0
 62
     0
100
AcDbLine
 10
24.79592249080423
 20
10.22500003080409
 30
0.0
 11
26.12527128905509
 21
11.55434882905495
 31
0.0
  0
LINE
  5
3E10
330
3CEF
100
AcDbEntity
  8
0
 62
     0
100
AcDbLine
 10
18.14592249080419
 20
3.575000030804062
 30
0.0
 11
19.02006177155811
 21
4.449139311557985
 31
0.0
  0
LINE
  5
3E11
330
3CEF
100
AcDbEntity
  8
0
 62
     0
100
AcDbLine
 10
20.346105754954
 20
6.22419610100735
 30
0.0
 11
21.74610575495401
 21
7.624196101007328
 31
0.0
  0
LINE
  5
3E12
330
3CEF
100
AcDbEntity
  8
0
 62
     0
100
AcDbLine
 10
22.8737073816637
 20
8.751797727717047
 30
0.0
 11
25.74690968475079
 21
11.62500003080413
 31
0.0
  0
LINE
  5
3E13
330
3CEF
100
AcDbEntity
  8
0
 62
     0
100
AcDbLine
 10
17.8499153354767
 20
3.728005681530049
 30
0.0
 11
18.91229869810527
 21
4.790389044158615
 31
0.0
  0
LINE
  5
3E14
330
3CEF
100
AcDbEntity
  8
0
 62
     0
100
AcDbLine
 10
20.346105754954
 20
6.673208907060825
 30
0.0
 11
21.74610575495398
 21
8.073208907060802
 31
0.0
  0
LINE
  5
3E15
330
3CEF
100
AcDbEntity
  8
0
 62
     0
100
AcDbLine
 10
22.80435395212086
 20
9.131457104227678
 30
0.0
 11
25.29789687869734
 21
11.62500003080413
 31
0.0
  0
LINE
  5
3E16
330
3CEF
100
AcDbEntity
  8
0
 62
     0
100
AcDbLine
 10
17.7405356246524
 20
4.067638776759224
 30
0.0
 11
18.80453562465243
 21
5.131638776759245
 31
0.0
  0
LINE
  5
3E17
330
3CEF
100
AcDbEntity
  8
0
 62
     0
100
AcDbLine
 10
20.34610575495404
 20
7.122221713114242
 30
0.0
 11
21.74610575495401
 21
8.522221713114248
 31
0.0
  0
LINE
  5
3E18
330
3CEF
100
AcDbEntity
  8
0
 62
     0
100
AcDbLine
 10
22.79610575495402
 20
9.572221713114231
 30
0.0
 11
24.84888407264389
 21
11.62500003080413
 31
0.0
  0
LINE
  5
3E19
330
3CEF
100
AcDbEntity
  8
0
 62
     0
100
AcDbLine
 10
17.63277255119959
 20
4.408888509359826
 30
0.0
 11
18.69677255119964
 21
5.472888509359847
 31
0.0
  0
LINE
  5
3E1A
330
3CEF
100
AcDbEntity
  8
0
 62
     0
100
AcDbLine
 10
20.346105754954
 20
7.571234519167717
 30
0.0
 11
21.74610575495401
 21
8.971234519167694
 31
0.0
  0
LINE
  5
3E1B
330
3CEF
100
AcDbEntity
  8
0
 62
     0
100
AcDbLine
 10
22.79610575495405
 20
10.02123451916773
 30
0.0
 11
24.39987126659045
 21
11.62500003080413
 31
0.0
  0
LINE
  5
3E1C
330
3CEF
100
AcDbEntity
  8
0
 62
     0
100
AcDbLine
 10
17.52500947774672
 20
4.750138241960428
 30
0.0
 11
18.58900947774682
 21
5.814138241960534
 31
0.0
  0
LINE
  5
3E1D
330
3CEF
100
AcDbEntity
  8
0
 62
     0
100
AcDbLine
 10
20.346105754954
 20
8.020247325221163
 30
0.0
 11
21.74610575495404
 21
9.420247325221197
 31
0.0
  0
LINE
  5
3E1E
330
3CEF
100
AcDbEntity
  8
0
 62
     0
100
AcDbLine
 10
17.4172464042939
 20
5.091387974561087
 30
0.0
 11
18.48124640429395
 21
6.155387974561108
 31
0.0
  0
LINE
  5
3E1F
330
3CEF
100
AcDbEntity
  8
0
 62
     0
100
AcDbLine
 10
22.82276409001462
 20
10.49690566028181
 30
0.0
 11
23.92420012547629
 21
11.59834169574347
 31
0.0
  0
LINE
  5
3E20
330
3CEF
100
AcDbEntity
  8
0
 62
     0
100
AcDbLine
 10
15.90085846053691
 20
3.575000030804091
 30
0.0
 11
16.321105754954
 21
3.995247325221185
 31
0.0
  0
LINE
  5
3E21
330
3CEF
100
AcDbEntity
  8
0
 62
     0
100
AcDbLine
 10
17.30948333084112
 20
5.432637707161688
 30
0.0
 11
18.37348333084113
 21
6.496637707161738
 31
0.0
  0
LINE
  5
3E22
330
3CEF
100
AcDbEntity
  8
0
 62
     0
100
AcDbLine
 10
20.346105754954
 20
8.469260131274609
 30
0.0
 11
21.74610575495404
 21
9.869260131274643
 31
0.0
  0
LINE
  5
3E23
330
3CEF
100
AcDbEntity
  8
0
 62
     0
100
AcDbLine
 10
15.45184565448349
 20
3.575000030804062
 30
0.0
 11
16.32110575495403
 21
4.444260131274631
 31
0.0
  0
LINE
  5
3E24
330
3CEF
100
AcDbEntity
  8
0
 62
     0
100
AcDbLine
 10
17.20172025738827
 20
5.773887439762319
 30
0.0
 11
18.26572025738829
 21
6.837887439762369
 31
0.0
  0
LINE
  5
3E25
330
3CEF
100
AcDbEntity
  8
0
 62
     0
100
AcDbLine
 10
20.346105754954
 20
8.918272937328083
 30
0.0
 11
21.74610575495404
 21
10.31827293732809
 31
0.0
  0
LINE
  5
3E26
330
3CEF
100
AcDbEntity
  8
0
 62
     0
100
AcDbLine
 10
15.04340772225566
 20
3.615574904629738
 30
0.0
 11
16.32110575495403
 21
4.893272937328077
 31
0.0
  0
LINE
  5
3E27
330
3CEF
100
AcDbEntity
  8
0
 62
     0
100
AcDbLine
 10
17.09395718393543
 20
6.115137172362949
 30
0.0
 11
18.15795718393545
 21
7.179137172362999
 31
0.0
  0
LINE
  5
3E28
330
3CEF
100
AcDbEntity
  8
0
 62
     0
100
AcDbLine
 10
20.346105754954
 20
9.367285743381529
 30
0.0
 11
21.74610575495401
 21
10.76728574338156
 31
0.0
  0
LINE
  5
3E29
330
3CEF
100
AcDbEntity
  8
0
 62
     0
100
AcDbLine
 10
14.92110575495402
 20
3.942285743381546
 30
0.0
 11
16.32110575495406
 21
5.34228574338158
 31
0.0
  0
LINE
  5
3E2A
330
3CEF
100
AcDbEntity
  8
0
 62
     0
100
AcDbLine
 10
16.98619411048261
 20
6.456386904963551
 30
0.0
 11
18.05019411048269
 21
7.520386904963629
 31
0.0
  0
LINE
  5
3E2B
330
3CEF
100
AcDbEntity
  8
0
 62
     0
100
AcDbLine
 10
20.346105754954
 20
9.816298549434975
 30
0.0
 11
21.74610575495404
 21
11.21629854943501
 31
0.0
  0
LINE
  5
3E2C
330
3CEF
100
AcDbEntity
  8
0
 62
     0
100
AcDbLine
 10
14.92110575495402
 20
4.391298549434992
 30
0.0
 11
16.32110575495406
 21
5.791298549435026
 31
0.0
  0
LINE
  5
3E2D
330
3CEF
100
AcDbEntity
  8
0
 62
     0
100
AcDbLine
 10
16.86879471699674
 20
6.788000317531185
 30
0.0
 11
18.18394175096219
 21
8.10314735149663
 31
0.0
  0
LINE
  5
3E2E
330
3CEF
100
AcDbEntity
  8
0
 62
     0
100
AcDbLine
 10
20.34610575495404
 20
10.26531135548847
 30
0.0
 11
21.64796804370482
 21
11.56717364423923
 31
0.0
  0
LINE
  5
3E2F
330
3CEF
100
AcDbEntity
  8
0
 62
     0
100
AcDbLine
 10
14.92110575495402
 20
4.840311355488466
 30
0.0
 11
16.32110575495406
 21
6.240311355488472
 31
0.0
  0
LINE
  5
3E30
330
3CEF
100
AcDbEntity
  8
0
 62
     0
100
AcDbLine
 10
16.52520203206305
 20
6.893420438650963
 30
0.0
 11
18.39117843067919
 21
8.759396837267104
 31
0.0
  0
LINE
  5
3E31
330
3CEF
100
AcDbEntity
  8
0
 62
     0
100
AcDbLine
 10
14.92110575495402
 20
5.289324161541912
 30
0.0
 11
16.32768534710717
 21
6.695903753695063
 31
0.0
  0
LINE
  5
3E32
330
3CEF
100
AcDbEntity
  8
0
 62
     0
100
AcDbLine
 10
20.34610575495404
 20
10.71432416154192
 30
0.0
 11
21.25678162421621
 21
11.62500003080413
 31
0.0
  0
LINE
  5
3E33
330
3CEF
100
AcDbEntity
  8
0
 62
     0
100
AcDbLine
 10
13.2067816242162
 20
3.575000030804091
 30
0.0
 11
13.69610575495403
 21
4.064324161541946
 31
0.0
  0
LINE
  5
3E34
330
3CEF
100
AcDbEntity
  8
0
 62
     0
100
AcDbLine
 10
14.921105754954
 20
5.738336967595387
 30
0.0
 11
18.59841511039616
 21
9.415646323037549
 31
0.0
  0
LINE
  5
3E35
330
3CEF
100
AcDbEntity
  8
0
 62
     0
100
AcDbLine
 10
20.346105754954
 20
11.16333696759539
 30
0.0
 11
20.80776881816274
 21
11.62500003080413
 31
0.0
  0
LINE
  5
3E36
330
3CEF
100
AcDbEntity
  8
0
 62
     0
100
AcDbLine
 10
12.75776881816273
 20
3.575000030804119
 30
0.0
 11
13.69610575495406
 21
4.513336967595449
 31
0.0
  0
LINE
  5
3E37
330
3CEF
100
AcDbEntity
  8
0
 62
     0
100
AcDbLine
 10
14.92110575495402
 20
6.187349773648804
 30
0.0
 11
18.80565179011321
 21
10.07189580880802
 31
0.0
  0
LINE
  5
3E38
330
3CEF
100
AcDbEntity
  8
0
 62
     0
100
AcDbLine
 10
12.31459632428433
 20
3.580840342979143
 30
0.0
 11
13.62543861315094
 21
4.891682631845725
 31
0.0
  0
LINE
  5
3E39
330
3CEF
100
AcDbEntity
  8
0
 62
     0
100
AcDbLine
 10
14.921105754954
 20
6.636362579702279
 30
0.0
 11
16.58474320605583
 21
8.300000030804113
 31
0.0
  0
LINE
  5
3E3A
330
3CEF
100
AcDbEntity
  8
0
 62
     0
100
AcDbLine
 10
16.96673462367618
 20
8.681991448424469
 30
0.0
 11
19.01288846983018
 21
10.72814529457846
 31
0.0
  0
LINE
  5
3E3B
330
3CEF
100
AcDbEntity
  8
0
 62
     0
100
AcDbLine
 10
11.93051606556085
 20
3.645772890309103
 30
0.0
 11
13.25974320605581
 21
4.975000030804096
 31
0.0
  0
LINE
  5
3E3C
330
3CEF
100
AcDbEntity
  8
0
 62
     0
100
AcDbLine
 10
14.921105754954
 20
7.085375385755753
 30
0.0
 11
16.33010104030816
 21
8.494370671109891
 31
0.0
  0
LINE
  5
3E3D
330
3CEF
100
AcDbEntity
  8
0
 62
     0
100
AcDbLine
 10
17.17397130339316
 20
9.338240934194885
 30
0.0
 11
19.20042419573084
 21
11.3646938265326
 31
0.0
  0
LINE
  5
3E3E
330
3CEF
100
AcDbEntity
  8
0
 62
     0
100
AcDbLine
 10
11.59994893714764
 20
3.764218567949399
 30
0.0
 11
12.81073040000237
 21
4.975000030804096
 31
0.0
  0
LINE
  5
3E3F
330
3CEF
100
AcDbEntity
  8
0
 62
     0
100
AcDbLine
 10
14.92110575495402
 20
7.534388191809171
 30
0.0
 11
16.32110575495403
 21
8.934388191809205
 31
0.0
  0
LINE
  5
3E40
330
3CEF
100
AcDbEntity
  8
0
 62
     0
100
AcDbLine
 10
17.38120798311021
 20
9.994490419965387
 30
0.0
 11
19.00341825944624
 21
11.61670069630142
 31
0.0
  0
LINE
  5
3E41
330
3CEF
100
AcDbEntity
  8
0
 62
     0
100
AcDbLine
 10
11.31114729506549
 20
3.924429731920639
 30
0.0
 11
12.36917822431192
 21
4.982460661167095
 31
0.0
  0
LINE
  5
3E42
330
3CEF
100
AcDbEntity
  8
0
 62
     0
100
AcDbLine
 10
14.921105754954
 20
7.983400997862645
 30
0.0
 11
16.32110575495403
 21
9.383400997862679
 31
0.0
  0
LINE
  5
3E43
330
3CEF
100
AcDbEntity
  8
0
 62
     0
100
AcDbLine
 10
17.58844466282718
 20
10.6507399057358
 30
0.0
 11
18.56270478789545
 21
11.6250000308041
 31
0.0
  0
LINE
  5
3E44
330
3CEF
100
AcDbEntity
  8
0
 62
     0
100
AcDbLine
 10
11.05866981187446
 20
4.120965054783084
 30
0.0
 11
12.05202015380277
 21
5.11431539671139
 31
0.0
  0
LINE
  5
3E45
330
3CEF
100
AcDbEntity
  8
0
 62
     0
100
AcDbLine
 10
14.921105754954
 20
8.432413803916091
 30
0.0
 11
16.32110575495403
 21
9.832413803916125
 31
0.0
  0
LINE
  5
3E46
330
3CEF
100
AcDbEntity
  8
0
 62
     0
100
AcDbLine
 10
13.25192282084225
 20
6.763230869804374
 30
0.0
 11
13.83287491595379
 21
7.344182964915916
 31
0.0
  0
LINE
  5
3E47
330
3CEF
100
AcDbEntity
  8
0
 62
     0
100
AcDbLine
 10
17.79568134254413
 20
11.30698939150625
 30
0.0
 11
18.11369198184203
 21
11.62500003080416
 31
0.0
  0
LINE
  5
3E48
330
3CEF
100
AcDbEntity
  8
0
 62
     0
100
AcDbLine
 10
10.84045127520954
 20
4.351759324171666
 30
0.0
 11
11.84689467816667
 21
5.358202727128798
 31
0.0
  0
LINE
  5
3E49
330
3CEF
100
AcDbEntity
  8
0
 62
     0
100
AcDbLine
 10
12.78943640002734
 20
6.749757255042936
 30
0.0
 11
13.84634853071523
 21
7.806669385730799
 31
0.0
  0
LINE
  5
3E4A
330
3CEF
100
AcDbEntity
  8
0
 62
     0
100
AcDbLine
 10
14.92110575495402
 20
8.881426609969594
 30
0.0
 11
16.32110575495406
 21
10.28142660996962
 31
0.0
  0
LINE
  5
3E4B
330
3CEF
100
AcDbEntity
  8
0
 62
     0
100
AcDbLine
 10
10.65694166273806
 20
4.61726251775363
 30
0.0
 11
11.77110575495402
 21
5.731426609969616
 31
0.0
  0
LINE
  5
3E4C
330
3CEF
100
AcDbEntity
  8
0
 62
     0
100
AcDbLine
 10
12.48236311531724
 20
6.891696776386226
 30
0.0
 11
13.70440900937191
 21
8.113742670440927
 31
0.0
  0
LINE
  5
3E4D
330
3CEF
100
AcDbEntity
  8
0
 62
     0
100
AcDbLine
 10
14.92110575495402
 20
9.33043941602304
 30
0.0
 11
16.32110575495406
 21
10.73043941602307
 31
0.0
  0
LINE
  5
3E4E
330
3CEF
100
AcDbEntity
  8
0
 62
     0
100
AcDbLine
 10
10.51128290777569
 20
4.920616568844707
 30
0.0
 11
11.77110575495402
 21
6.180439416023034
 31
0.0
  0
LINE
  5
3E4F
330
3CEF
100
AcDbEntity
  8
0
 62
     0
100
AcDbLine
 10
12.26338315182238
 20
7.121729618944868
 30
0.0
 11
13.4743761668133
 21
8.332722633935759
 31
0.0
  0
LINE
  5
3E50
330
3CEF
100
AcDbEntity
  8
0
 62
     0
100
AcDbLine
 10
14.92110575495402
 20
9.779452222076514
 30
0.0
 11
16.32110575495406
 21
11.17945222207652
 31
0.0
  0
LINE
  5
3E51
330
3CEF
100
AcDbEntity
  8
0
 62
     0
100
AcDbLine
 10
10.41071422568836
 20
5.269060692810853
 30
0.0
 11
11.77110575495402
 21
6.629452222076508
 31
0.0
  0
LINE
  5
3E52
330
3CEF
100
AcDbEntity
  8
0
 62
     0
100
AcDbLine
 10
12.13535778561819
 20
7.44271705879413
 30
0.0
 11
13.15338872696401
 21
8.460748000139972
 31
0.0
  0
LINE
  5
3E53
330
3CEF
100
AcDbEntity
  8
0
 62
     0
100
AcDbLine
 10
10.37110575495398
 20
5.678465028129949
 30
0.0
 11
11.77110575495402
 21
7.078465028129954
 31
0.0
  0
LINE
  5
3E54
330
3CEF
100
AcDbEntity
  8
0
 62
     0
100
AcDbLine
 10
14.92110575495402
 20
10.22846502812996
 30
0.0
 11
16.24248070077646
 21
11.54983997395243
 31
0.0
  0
LINE
  5
3E55
330
3CEF
100
AcDbEntity
  8
0
 62
     0
100
AcDbLine
 10
8.328107376016191
 20
3.635466649192153
 30
0.0
 11
9.260639136566055
 21
4.567998409742017
 31
0.0
  0
LINE
  5
3E56
330
3CEF
100
AcDbEntity
  8
0
 62
     0
100
AcDbLine
 10
12.19456432735859
 20
7.95093640658797
 30
0.0
 11
12.6451693791702
 21
8.401541458399577
 31
0.0
  0
LINE
  5
3E57
330
3CEF
100
AcDbEntity
  8
0
 62
     0
100
AcDbLine
 10
10.37110575495398
 20
6.127477834183366
 30
0.0
 11
11.77110575495402
 21
7.5274778341834
 31
0.0
  0
LINE
  5
3E58
330
3CEF
100
AcDbEntity
  8
0
 62
     0
100
AcDbLine
 10
14.92110575495402
 20
10.6774778341834
 30
0.0
 11
15.86862795157472
 21
11.6250000308041
 31
0.0
  0
LINE
  5
3E59
330
3CEF
100
AcDbEntity
  8
0
 62
     0
100
AcDbLine
 10
7.818627951574711
 20
3.575000030804091
 30
0.0
 11
9.321105754954089
 21
5.07747783418344
 31
0.0
  0
LINE
  5
3E5A
330
3CEF
100
AcDbEntity
  8
0
 62
     0
100
AcDbLine
 10
10.37110575495398
 20
6.576490640236841
 30
0.0
 11
11.77110575495402
 21
7.976490640236875
 31
0.0
  0
LINE
  5
3E5B
330
3CEF
100
AcDbEntity
  8
0
 62
     0
100
AcDbLine
 10
14.92110575495402
 20
11.12649064023685
 30
0.0
 11
15.41961514552127
 21
11.62500003080413
 31
0.0
  0
LINE
  5
3E5C
330
3CEF
100
AcDbEntity
  8
0
 62
     0
100
AcDbLine
 10
7.369615145521208
 20
3.575000030804062
 30
0.0
 11
9.321105754954061
 21
5.526490640236914
 31
0.0
  0
LINE
  5
3E5D
330
3CEF
100
AcDbEntity
  8
0
 62
     0
100
AcDbLine
 10
10.37110575495398
 20
7.025503446290287
 30
0.0
 11
11.77110575495399
 21
8.425503446290321
 31
0.0
  0
LINE
  5
3E5E
330
3CEF
100
AcDbEntity
  8
0
 62
     0
100
AcDbLine
 10
6.920602339467791
 20
3.575000030804119
 30
0.0
 11
9.319136078673437
 21
5.973533770009765
 31
0.0
  0
LINE
  5
3E5F
330
3CEF
100
AcDbEntity
  8
0
 62
     0
100
AcDbLine
 10
10.37110575495398
 20
7.474516252343761
 30
0.0
 11
11.77110575495402
 21
8.874516252343795
 31
0.0
  0
LINE
  5
3E60
330
3CEF
100
AcDbEntity
  8
0
 62
     0
100
AcDbLine
 10
13.12158953341437
 20
10.22500003080415
 30
0.0
 11
13.69610575495409
 21
10.79951625234386
 31
0.0
  0
LINE
  5
3E61
330
3CEF
100
AcDbEntity
  8
0
 62
     0
100
AcDbLine
 10
6.471589533414316
 20
3.575000030804091
 30
0.0
 11
9.264305160512776
 21
6.36771565790255
 31
0.0
  0
LINE
  5
3E62
330
3CEF
100
AcDbEntity
  8
0
 62
     0
100
AcDbLine
 10
10.37110575495398
 20
7.923529058397207
 30
0.0
 11
11.77110575495402
 21
9.323529058397213
 31
0.0
  0
LINE
  5
3E63
330
3CEF
100
AcDbEntity
  8
0
 62
     0
100
AcDbLine
 10
7.921105754954027
 20
5.473529058397247
 30
0.0
 11
9.153135788490715
 21
6.705559091933935
 31
0.0
  0
LINE
  5
3E64
330
3CEF
100
AcDbEntity
  8
0
 62
     0
100
AcDbLine
 10
12.67257672736087
 20
10.22500003080409
 30
0.0
 11
13.69610575495409
 21
11.24852905839728
 31
0.0
  0
LINE
  5
3E65
330
3CEF
100
AcDbEntity
  8
0
 62
     0
100
AcDbLine
 10
6.051439664990851
 20
3.603862968434071
 30
0.0
 11
7.422576727360876
 21
4.975000030804096
 31
0.0
  0
LINE
  5
3E66
330
3CEF
100
AcDbEntity
  8
0
 62
     0
100
AcDbLine
 10
10.37110575495395
 20
8.372541864450653
 30
0.0
 11
11.85401310784385
 21
9.855449217340549
 31
0.0
  0
LINE
  5
3E67
330
3CEF
100
AcDbEntity
  8
0
 62
     0
100
AcDbLine
 10
7.920026209149398
 20
5.921462318646064
 30
0.0
 11
8.998920021154702
 21
7.000356130651397
 31
0.0
  0
LINE
  5
3E68
330
3CEF
100
AcDbEntity
  8
0
 62
     0
100
AcDbLine
 10
12.14065656841762
 20
10.14209267791432
 30
0.0
 11
13.57937204749413
 21
11.58080815699079
 31
0.0
  0
LINE
  5
3E69
330
3CEF
100
AcDbEntity
  8
0
 62
     0
100
AcDbLine
 10
5.908605754954038
 20
3.910041864450704
 30
0.0
 11
6.97356392130743
 21
4.975000030804096
 31
0.0
  0
LINE
  5
3E6A
330
3CEF
100
AcDbEntity
  8
0
 62
     0
100
AcDbLine
 10
7.810224699399043
 20
6.260673614949212
 30
0.0
 11
8.807799038735254
 21
7.258247954285423
 31
0.0
  0
LINE
  5
3E6B
330
3CEF
100
AcDbEntity
  8
0
 62
     0
100
AcDbLine
 10
10.37110575495395
 20
8.821554670504127
 30
0.0
 11
13.17455111525399
 21
11.62500003080416
 31
0.0
  0
LINE
  5
3E6C
330
3CEF
100
AcDbEntity
  8
0
 62
     0
100
AcDbLine
 10
5.90860575495401
 20
4.359054670504178
 30
0.0
 11
6.524551115253956
 21
4.975000030804125
 31
0.0
  0
LINE
  5
3E6D
330
3CEF
100
AcDbEntity
  8
0
 62
     0
100
AcDbLine
 10
7.59709728524669
 20
6.496559006850276
 30
0.0
 11
8.587046778907875
 21
7.486508500511462
 31
0.0
  0
LINE
  5
3E6E
330
3CEF
100
AcDbEntity
  8
0
 62
     0
100
AcDbLine
 10
10.37110575495398
 20
9.270567476557545
 30
0.0
 11
12.72553830920045
 21
11.62500003080404
 31
0.0
  0
LINE
  5
3E6F
330
3CEF
100
AcDbEntity
  8
0
 62
     0
100
AcDbLine
 10
5.943081715963899
 20
4.842543437567485
 30
0.0
 11
6.041062348190706
 21
4.940524069794292
 31
0.0
  0
LINE
  5
3E70
330
3CEF
100
AcDbEntity
  8
0
 62
     0
100
AcDbLine
 10
10.38109331203227
 20
9.729567839689309
 30
0.0
 11
12.26653794606878
 21
11.61501247372584
 31
0.0
  0
LINE
  5
3E71
330
3CEF
100
AcDbEntity
  8
0
 62
     0
100
AcDbLine
 10
7.372590882219952
 20
6.721065409877013
 30
0.0
 11
8.362540375881138
 21
7.711014903538199
 31
0.0
  0
LINE
  5
3E72
330
3CEF
100
AcDbEntity
  8
0
 62
     0
100
AcDbLine
 10
10.53082502816516
 20
10.3283123618757
 30
0.0
 11
11.66779342388241
 21
11.46528075759295
 31
0.0
  0
LINE
  5
3E73
330
3CEF
100
AcDbEntity
  8
0
 62
     0
100
AcDbLine
 10
7.148084479193215
 20
6.94557181290375
 30
0.0
 11
8.138033972854401
 21
7.935521306564936
 31
0.0
  0
LINE
  5
3E74
330
3CEF
100
AcDbEntity
  8
0
 62
     0
100
AcDbLine
 10
6.923578076166506
 20
7.170078215930459
 30
0.0
 11
7.913527569827664
 21
8.160027709591588
 31
0.0
  0
LINE
  5
3E75
330
3CEF
100
AcDbEntity
  8
0
 62
     0
100
AcDbLine
 10
6.699071673139769
 20
7.394584618957196
 30
0.0
 11
7.689021166800927
 21
8.384534112618325
 31
0.0
  0
LINE
  5
3E76
330
3CEF
100
AcDbEntity
  8
0
 62
     0
100
AcDbLine
 10
6.474565270113032
 20
7.619091021983933
 30
0.0
 11
7.464514763774189
 21
8.609040515645062
 31
0.0
  0
LINE
  5
3E77
330
3CEF
100
AcDbEntity
  8
0
 62
     0
100
AcDbLine
 10
8.631461472879777
 20
10.22500003080415
 30
0.0
 11
9.058605754953958
 21
10.65214431287833
 31
0.0
  0
LINE
  5
3E78
330
3CEF
100
AcDbEntity
  8
0
 62
     0
100
AcDbLine
 10
6.250100524100361
 20
7.843639082024736
 30
0.0
 11
7.240133345816587
 21
8.833671903740963
 31
0.0
  0
LINE
  5
3E79
330
3CEF
100
AcDbEntity
  8
0
 62
     0
100
AcDbLine
 10
8.182448666826303
 20
10.22500003080409
 30
0.0
 11
9.058605754954015
 21
11.10115711893181
 31
0.0
  0
LINE
  5
3E7A
330
3CEF
100
AcDbEntity
  8
0
 62
     0
100
AcDbLine
 10
6.044366561824574
 20
8.086917925802339
 30
0.0
 11
7.075184905172619
 21
9.117736269150412
 31
0.0
  0
LINE
  5
3E7B
330
3CEF
100
AcDbEntity
  8
0
 62
     0
100
AcDbLine
 10
7.733435860772829
 20
10.22500003080409
 30
0.0
 11
9.015326305073443
 21
11.50689047510471
 31
0.0
  0
LINE
  5
3E7C
330
3CEF
100
AcDbEntity
  8
0
 62
     0
100
AcDbLine
 10
5.87413625869334
 20
8.365700428724579
 30
0.0
 11
7.046105754954055
 21
9.537669924985294
 31
0.0
  0
LINE
  5
3E7D
330
3CEF
100
AcDbEntity
  8
0
 62
     0
100
AcDbLine
 10
7.283189730134324
 20
10.22376670621903
 30
0.0
 11
8.684423054719417
 21
11.62500003080413
 31
0.0
  0
LINE
  5
3E7E
330
3CEF
100
AcDbEntity
  8
0
 62
     0
100
AcDbLine
 10
5.743789610827292
 20
8.684366586912005
 30
0.0
 11
7.047339079539085
 21
9.987916055623827
 31
0.0
  0
LINE
  5
3E7F
330
3CEF
100
AcDbEntity
  8
0
 62
     0
100
AcDbLine
 10
5.662883629703259
 20
9.052473411841418
 30
0.0
 11
8.235410248665971
 21
11.62500003080413
 31
0.0
  0
LINE
  5
3E80
330
3CEF
100
AcDbEntity
  8
0
 62
     0
100
AcDbLine
 10
5.646105754954049
 20
9.484708343145683
 30
0.0
 11
7.786397442612496
 21
11.62500003080413
 31
0.0
  0
LINE
  5
3E81
330
3CEF
100
AcDbEntity
  8
0
 62
     0
100
AcDbLine
 10
5.646105754954049
 20
9.933721149199129
 30
0.0
 11
7.33738463655905
 21
11.62500003080413
 31
0.0
  0
LINE
  5
3E82
330
3CEF
100
AcDbEntity
  8
0
 62
     0
100
AcDbLine
 10
5.656201760173161
 20
10.39282996047171
 30
0.0
 11
6.878275825286465
 21
11.61490402558501
 31
0.0
  0
ENDBLK
  5
3E84
330
3CEF
100
AcDbEntity
  8
0
100
AcDbBlockEnd
  0
ENDSEC
  0
SECTION
  2
ENTITIES
  0
LWPOLYLINE
  5
2A43
330
1A
100
AcDbEntity
  8
ZUWAKU
100
AcDbPolyline
 90
        4
 70
     1
 43
0.0
 10
0.3999996775634145
 20
275.4000000308041
 10
0.3999996775634145
 20
0.4000000308041649
 10
398.3999996775634
 20
0.4000000308041649
 10
398.3999996775634
 20
275.4000000308041
  0
LWPOLYLINE
  5
2A44
330
1A
100
AcDbEntity
  8
ZUWAKU
100
AcDbPolyline
 90
        4
 70
     1
 43
0.0
 10
0.1999996775634258
 20
275.6000000308041
 10
0.1999996775634258
 20
0.2000000308041763
 10
398.5999996775634
 20
0.2000000308041647
 10
398.5999996775634
 20
275.6000000308041
  0
LWPOLYLINE
  5
2A45
330
1A
100
AcDbEntity
  8
ZUWAKU
100
AcDbPolyline
 90
        4
 70
     1
 43
0.0
 10
-0.0000003224365628
 20
275.8000000308041
 10
-0.0000003224365628
 20
0.0000000308041308
 10
398.7999996775635
 20
0.0000000308041646
 10
398.7999996775635
 20
275.8000000308042
  0
LWPOLYLINE
  5
2A46
330
1A
100
AcDbEntity
  8
ZUWAKU
100
AcDbPolyline
 90
        4
 70
     1
 43
0.0
 10
0.2999996775633917
 20
275.5000000308041
 10
0.2999996775633917
 20
0.3000000308041422
 10
398.4999996775635
 20
0.3000000308041653
 10
398.4999996775634
 20
275.5000000308041
  0
LWPOLYLINE
  5
2A47
330
1A
100
AcDbEntity
  8
ZUWAKU
100
AcDbPolyline
 90
        4
 70
     1
 43
0.0
 10
0.0999996775634031
 20
275.7000000308041
 10
0.0999996775634031
 20
0.1000000308041535
 10
398.6999996775633
 20
0.1000000308041651
 10
398.6999996775634
 20
275.7000000308041
  0
LINE
  5
2A48
330
1A
100
AcDbEntity
  8
ZUWAKU
100
AcDbLine
 10
-0.0000003224365628
 20
15.00000003080413
 30
0.0
 11
398.6999996775633
 21
15.00000003080413
 31
0.0
  0
LINE
  5
2A49
330
1A
100
AcDbEntity
  8
ZUWAKU
100
AcDbLine
 10
-0.0000003224365628
 20
15.10000003080413
 30
0.0
 11
398.6999996775633
 21
15.10000003080413
 31
0.0
  0
LINE
  5
2A4A
330
1A
100
AcDbEntity
  8
ZUWAKU
100
AcDbLine
 10
-0.0000003224365628
 20
15.20000003080413
 30
0.0
 11
398.6999996775633
 21
15.20000003080413
 31
0.0
  0
LINE
  5
2A4B
330
1A
100
AcDbEntity
  8
ZUWAKU
100
AcDbLine
 10
-0.0000003224365628
 20
15.30000003080413
 30
0.0
 11
398.6999996775633
 21
15.30000003080413
 31
0.0
  0
LINE
  5
2A4C
330
1A
100
AcDbEntity
  8
ZUWAKU
100
AcDbLine
 10
-0.0000003224365628
 20
15.40000003080413
 30
0.0
 11
398.6999996775633
 21
15.40000003080413
 31
0.0
  0
LINE
  5
2A4D
330
1A
100
AcDbEntity
  8
ZUWAKU
100
AcDbLine
 10
104.3233003225974
 20
7.700000030804147
 30
0.0
 11
223.7121816630591
 21
7.700000030804147
 31
0.0
  0
LINE
  5
2A4E
330
1A
100
AcDbEntity
  8
ZUWAKU
100
AcDbLine
 10
104.3233003225974
 20
7.800000030804147
 30
0.0
 11
223.7121816630591
 21
7.800000030804151
 31
0.0
  0
LINE
  5
2A4F
330
1A
100
AcDbEntity
  8
ZUWAKU
100
AcDbLine
 10
104.3233003225974
 20
7.600000030804149
 30
0.0
 11
223.7121816630591
 21
7.600000030804146
 31
0.0
  0
TEXT
  5
2A50
330
1A
100
AcDbEntity
  8
moji
100
AcDbText
 10
46.478894471648
 20
6.370589095941511
 30
0.0
 40
3.0
  1
ライナートップ
 41
0.9
  7
ｽﾀｲﾙ1
100
AcDbText
  0
CIRCLE
  5
2A51
330
1A
100
AcDbEntity
  8
ZUWAKU
100
AcDbCircle
 10
12.99610575495398
 20
7.600000030804132
 30
0.0
 40
0.875
  0
LINE
  5
2A52
330
1A
100
AcDbEntity
  8
ZUWAKU
100
AcDbLine
 10
13.43360575495398
 20
3.575000030804133
 30
0.0
 11
12.47110575495401
 21
3.575000030804133
 31
0.0
  0
LINE
  5
2A53
330
1A
100
AcDbEntity
  8
ZUWAKU
100
AcDbLine
 10
12.47110575495401
 20
4.975000030804132
 30
0.0
 11
13.43360575495398
 21
4.975000030804132
 31
0.0
  0
LINE
  5
2A54
330
1A
100
AcDbEntity
  8
ZUWAKU
100
AcDbLine
 10
13.43360575495398
 20
10.22500003080413
 30
0.0
 11
12.47110575495401
 21
10.22500003080413
 31
0.0
  0
LINE
  5
2A55
330
1A
100
AcDbEntity
  8
ZUWAKU
100
AcDbLine
 10
12.47110575495401
 20
11.62500003080411
 30
0.0
 11
13.43360575495398
 21
11.62500003080413
 31
0.0
  0
INSERT
  5
2A56
330
1A
100
AcDbEntity
  8
ZUWAKU
  6
Continuous
100
AcDbBlockReference
  2
*X16
 10
0.0
 20
0.0
 30
0.0
1001
ACAD
1000
HATCH
1002
{
1070
    19
1000
ANSI37
1040
0.1
1040
0.0
1000
R14_HATCH_DATA
1000
2A56
1011
1.0
1021
0.0
1031
0.0
1011
0.0
1021
1.0
1031
0.0
1011
0.0
1021
0.0
1031
1.0
1040
0.0
1010
0.0
1020
0.0
1030
1.0
1000
ANSI37
1070
     0
1070
     0
1071
        8
1071
        7
1070
     1
1070
     1
1071
       24
1040
7.251131008123365
1040
8.822424271295922
1040
-0.1989123673796348
1040
7.046105754953998
1040
9.317399018126447
1040
0.0
1040
7.046105754953998
1040
9.962500030804136
1040
-0.4142135623730912
1040
7.308605754953987
1040
10.22500003080413
1040
0.0
1040
8.796105754953941
1040
10.22500003080413
1040
0.4142135623731546
1040
9.058605754953987
1040
10.48750003080412
1040
0.0
1040
9.058605754953987
1040
11.36250003080413
1040
0.4142135623731586
1040
8.796105754953941
1040
11.62500003080413
1040
0.0
1040
7.046105754953998
1040
11.62500003080413
1040
0.4142135623730928
1040
5.646105754954021
1040
10.22500003080414
1040
0.0
1040
5.646105754954021
1040
9.317399018126511
1040
0.1989123673796619
1040
6.261181514462236
1040
7.832474777634708
1040
0.0
1040
7.716080501784574
1040
6.377575790312379
1040
-0.1989123673796613
1040
7.921105754953998
1040
5.882601043481786
1040
0.0
1040
7.921105754953998
1040
5.237500030804127
1040
-0.4142135623730911
1040
7.65860575495401
1040
4.975000030804132
1040
0.0
1040
6.171105754954055
1040
4.975000030804132
1040
0.4142135623731526
1040
5.90860575495401
1040
4.712500030804138
1040
0.0
1040
5.90860575495401
1040
3.837500030804127
1040
0.4142135623731526
1040
6.171105754954055
1040
3.575000030804133
1040
0.0
1040
7.921105754953998
1040
3.575000030804133
1040
0.4142135623731044
1040
9.321105754954032
1040
4.975000030804121
1040
0.0
1040
9.321105754954032
1040
5.882601043481757
1040
0.1989123673796604
1040
8.70602999544576
1040
7.367525283973527
1040
0.0
1071
        0
1071
        7
1070
     1
1070
     1
1071
       16
1040
11.77110575495402
1040
9.525000030804136
1040
-0.4142135623730935
1040
12.47110575495401
1040
10.22500003080413
1040
0.0
1040
13.43360575495398
1040
10.22500003080413
1040
0.4142135623731546
1040
13.69610575495403
1040
10.48750003080412
1040
0.0
1040
13.69610575495403
1040
11.36250003080413
1040
0.4142135623730951
1040
13.43360575495404
1040
11.62500003080413
1040
0.0
1040
12.47110575495395
1040
11.62500003080411
1040
0.4142135623730892
1040
10.37110575495398
1040
9.5250000308041
1040
0.0
1040
10.37110575495398
1040
5.675000030804145
1040
0.4142135623730969
1040
12.47110575495401
1040
3.575000030804133
1040
0.0
1040
13.43360575495398
1040
3.575000030804133
1040
0.4142135623731526
1040
13.69610575495403
1040
3.837500030804127
1040
0.0
1040
13.69610575495403
1040
4.712500030804138
1040
0.4142135623730891
1040
13.43360575495404
1040
4.975000030804132
1040
0.0
1040
12.47110575495401
1040
4.975000030804132
1040
-0.4142135623730928
1040
11.77110575495402
1040
5.675000030804126
1040
0.0
1071
        0
1071
        7
1070
     1
1070
     1
1071
        2
1040
12.12110575495398
1040
7.600000030804132
1040
1.0
1040
13.87110575495398
1040
7.600000030804132
1040
1.0
1071
        0
1071
        7
1070
     1
1070
     1
1071
       26
1040
18.65742899604299
1040
9.602523627585846
1040
0.0
1040
19.1882488126119
1040
11.28345304672064
1040
0.5069206636600134
1040
18.93793336301422
1040
11.62500003080413
1040
0.0
1040
18.08848867320961
1040
11.62500003080413
1040
0.3272098845218764
1040
17.83817322361193
1040
11.44154701488761
1040
0.0
1040
16.90403828629604
1040
8.483453046720672
1040
-0.3272098845219541
1040
16.6537228366983
1040
8.300000030804131
1040
0.0
1040
16.58360575495407
1040
8.300000030804131
1040
-0.4142135623731526
1040
16.32110575495403
1040
8.562500030804125
1040
0.0
1040
16.32110575495403
1040
11.36250003080413
1040
0.4142135623730951
1040
16.05860575495404
1040
11.62500003080413
1040
0.0
1040
15.18360575495398
1040
11.62500003080413
1040
0.4142135623730871
1040
14.921105754954
1040
11.36250003080414
1040
0.0
1040
14.921105754954
1040
3.837500030804127
1040
0.4142135623730891
1040
15.18360575495398
1040
3.575000030804133
1040
0.0
1040
16.05860575495398
1040
3.575000030804133
1040
0.4142135623731526
1040
16.32110575495403
1040
3.837500030804127
1040
0.0
1040
16.32110575495403
1040
6.637500030804138
1040
-0.4142135623731526
1040
16.58360575495407
1040
6.900000030804132
1040
0.0
1040
16.65372283669836
1040
6.900000030804132
1040
-0.3272098845218915
1040
16.90403828629604
1040
6.716547014887595
1040
0.0
1040
17.83817322361193
1040
3.758453046720669
1040
0.3272098845218902
1040
18.08848867320961
1040
3.575000030804133
1040
0.0
1040
18.93793336301422
1040
3.575000030804133
1040
0.5069206636600335
1040
19.1882488126119
1040
3.916547014887637
1040
0.0
1040
18.02505312337507
1040
7.600000030804201
1040
0.0
1071
        0
1071
        7
1070
     1
1070
     1
1071
        8
1040
21.74610575495398
1040
11.36250003080413
1040
0.4142135623731546
1040
21.48360575495394
1040
11.62500003080413
1040
0.0
1040
20.60860575495405
1040
11.62500003080413
1040
0.4142135623731507
1040
20.346105754954
1040
11.36250003080414
1040
0.0
1040
20.346105754954
1040
3.837500030804127
1040
0.4142135623731526
1040
20.60860575495405
1040
3.575000030804133
1040
0.0
1040
21.48360575495394
1040
3.575000030804133
1040
0.4142135623731526
1040
21.74610575495398
1040
3.837500030804127
1040
0.0
1071
        0
1071
        7
1070
     1
1070
     1
1071
       24
1040
24.19610575495403
1040
9.962500030804136
1040
-0.4142135623731546
1040
24.45860575495407
1040
10.22500003080413
1040
0.0
1040
25.94610575495403
1040
10.22500003080413
1040
0.4142135623730911
1040
26.20860575495402
1040
10.48750003080412
1040
0.0
1040
26.20860575495402
1040
11.36250003080413
1040
0.4142135623730952
1040
25.94610575495403
1040
11.62500003080413
1040
0.0
1040
24.19610575495403
1040
11.62500003080413
1040
0.4142135623731048
1040
22.796105754954
1040
10.22500003080414
1040
0.0
1040
22.796105754954
1040
9.317399018126511
1040
0.1989123673796613
1040
23.41118151446227
1040
7.832474777634736
1040
0.0
1040
24.8660805017846
1040
6.377575790312402
1040
-0.1989123673796402
1040
25.07110575495403
1040
5.882601043481866
1040
0.0
1040
25.07110575495403
1040
5.237500030804127
1040
-0.4142135623730911
1040
24.80860575495404
1040
4.975000030804132
1040
0.0
1040
23.32110575495403
1040
4.975000030804132
1040
0.4142135623731526
1040
23.05860575495398
1040
4.712500030804138
1040
0.0
1040
23.05860575495398
1040
3.837500030804127
1040
0.4142135623730891
1040
23.32110575495397
1040
3.575000030804133
1040
0.0
1040
25.07110575495403
1040
3.575000030804133
1040
0.4142135623730925
1040
26.47110575495401
1040
4.975000030804121
1040
0.0
1040
26.47110575495401
1040
5.882601043481757
1040
0.1989123673796675
1040
25.85602999544573
1040
7.367525283973584
1040
0.0
1040
24.40113100812345
1040
8.822424271295842
1040
-0.1989123673796652
1040
24.19610575495403
1040
9.317399018126426
1040
0.0
1071
        0
1071
        7
1070
     1
1070
     1
1071
       16
1040
28.92110575495399
1040
11.36250003080412
1040
0.414213562373103
1040
28.65860575495401
1040
11.62500003080413
1040
0.0
1040
27.78360575495401
1040
11.62500003080413
1040
0.4142135623730871
1040
27.52110575495402
1040
11.36250003080414
1040
0.0
1040
27.52110575495402
1040
4.975000030804121
1040
0.4142135623730926
1040
28.92110575495399
1040
3.575000030804133
1040
0.0
1040
30.671105754954
1040
3.575000030804133
1040
0.4142135623731044
1040
32.07110575495403
1040
4.975000030804121
1040
0.0
1040
32.07110575495403
1040
11.36250003080413
1040
0.4142135623730951
1040
31.80860575495404
1040
11.62500003080413
1040
0.0
1040
30.93360575495399
1040
11.62500003080413
1040
0.4142135623730871
1040
30.671105754954
1040
11.36250003080414
1040
0.0
1040
30.671105754954
1040
5.50000003080412
1040
-0.414213562373088
1040
30.14610575495402
1040
4.975000030804132
1040
0.0
1040
29.44610575495403
1040
4.975000030804132
1040
-0.4142135623731197
1040
28.92110575495399
1040
5.50000003080412
1040
0.0
1071
        0
1071
        7
1070
     1
1070
     1
1071
        8
1040
34.52110575495402
1040
11.36250003080414
1040
0.4142135623730871
1040
34.25860575495403
1040
11.62500003080413
1040
0.0
1040
33.38360575495403
1040
11.62500003080413
1040
0.4142135623731507
1040
33.12110575495399
1040
11.36250003080414
1040
0.0
1040
33.12110575495399
1040
3.837500030804127
1040
0.4142135623730891
1040
33.38360575495397
1040
3.575000030804133
1040
0.0
1040
34.25860575495403
1040
3.575000030804133
1040
0.4142135623730891
1040
34.52110575495402
1040
3.837500030804127
1040
0.0
1071
        0
1070
     0
1070
     1
1040
0.0
1040
0.1
1070
     0
1070
     2
1040
0.7853981633974483
1040
-450.471152489776
1040
-6.599999969195835
1040
-0.2245064030267288
1040
0.2245064030267288
1070
     0
1040
2.356194490192344
1040
-450.471152489776
1040
-6.599999969195835
1040
-0.2245064030267288
1040
-0.2245064030267288
1070
     0
1040
0.057451373970553
1071
        8
1040
8.039927159075091
1040
7.583586853746908
1040
0.0
1040
11.20225718078302
1040
9.422031122029636
1040
0.0
1040
12.58218362039326
1040
7.75594085383949
1040
0.0
1040
15.457029668382
1040
8.100648854024882
1040
0.0
1040
20.9192356870418
1040
8.33045498779569
1040
0.0
1040
23.44910012512821
1040
9.709288189007736
1040
0.0
1040
28.27884266376361
1040
9.364578988351638
1040
0.0
1040
33.9135394873748
1040
9.594385122122446
1040
0.0
1002
}
  0
ARC
  5
2A57
330
1A
100
AcDbEntity
  8
ZUWAKU
100
AcDbCircle
 10
7.746105754953987
 20
9.317399018126483
 30
0.0
 40
2.099999999999999
100
AcDbArc
 50
180.0
 51
225.0
  0
LINE
  5
2A58
330
1A
100
AcDbEntity
  8
ZUWAKU
100
AcDbLine
 10
10.37110575495398
 20
5.675000030804135
 30
0.0
 11
10.37110575495398
 21
9.525000030804111
 31
0.0
  0
LINE
  5
2A59
330
1A
100
AcDbEntity
  8
ZUWAKU
100
AcDbLine
 10
11.77110575495402
 20
9.525000030804132
 30
0.0
 11
11.77110575495402
 21
5.675000030804135
 31
0.0
  0
ARC
  5
2A5A
330
1A
100
AcDbEntity
  8
ZUWAKU
100
AcDbCircle
 10
7.746105754953987
 20
9.317399018126483
 30
0.0
 40
0.7
100
AcDbArc
 50
180.0000000000016
 51
224.9999999999988
  0
ARC
  5
2A5B
330
1A
100
AcDbEntity
  8
ZUWAKU
100
AcDbCircle
 10
12.47110575495401
 20
5.675000030804135
 30
0.0
 40
2.099999999999999
100
AcDbArc
 50
180.0
 51
270.0
  0
ARC
  5
2A5C
330
1A
100
AcDbEntity
  8
ZUWAKU
100
AcDbCircle
 10
7.921105754953998
 20
4.975000030804132
 30
0.0
 40
1.399999999999999
100
AcDbArc
 50
270.0
 51
0.0
  0
ARC
  5
2A5D
330
1A
100
AcDbEntity
  8
ZUWAKU
100
AcDbCircle
 10
7.22110575495401
 20
5.882601043481784
 30
0.0
 40
2.099999999999999
100
AcDbArc
 50
0.0
 51
45.0
  0
LINE
  5
2A5E
330
1A
100
AcDbEntity
  8
ZUWAKU
100
AcDbLine
 10
6.261181514462236
 20
7.832474777634722
 30
0.0
 11
7.716080501784574
 21
6.377575790312391
 31
0.0
  0
LINE
  5
2A5F
330
1A
100
AcDbEntity
  8
ZUWAKU
100
AcDbLine
 10
6.171105754953998
 20
4.975000030804132
 30
0.0
 11
7.65860575495401
 21
4.975000030804132
 31
0.0
  0
LINE
  5
2A60
330
1A
100
AcDbEntity
  8
ZUWAKU
100
AcDbLine
 10
6.171105754953998
 20
3.575000030804133
 30
0.0
 11
7.921105754953998
 21
3.575000030804133
 31
0.0
  0
ARC
  5
2A61
330
1A
100
AcDbEntity
  8
ZUWAKU
100
AcDbCircle
 10
6.171105754953998
 20
4.712500030804132
 30
0.0
 40
0.2625
100
AcDbArc
 50
90.0
 51
180.0
  0
ARC
  5
2A62
330
1A
100
AcDbEntity
  8
ZUWAKU
100
AcDbCircle
 10
6.171105754953998
 20
3.837500030804132
 30
0.0
 40
0.2625
100
AcDbArc
 50
180.0
 51
270.0
  0
LINE
  5
2A63
330
1A
100
AcDbEntity
  8
ZUWAKU
100
AcDbLine
 10
5.90860575495401
 20
3.837500030804132
 30
0.0
 11
5.90860575495401
 21
4.712500030804132
 31
0.0
  0
ARC
  5
2A64
330
1A
100
AcDbEntity
  8
ZUWAKU
100
AcDbCircle
 10
7.22110575495401
 20
5.882601043481805
 30
0.0
 40
0.7
100
AcDbArc
 50
0.0
 51
45.0
  0
ARC
  5
2A65
330
1A
100
AcDbEntity
  8
ZUWAKU
100
AcDbCircle
 10
7.65860575495401
 20
5.237500030804135
 30
0.0
 40
0.2625
100
AcDbArc
 50
270.0
 51
0.0
  0
LINE
  5
2A66
330
1A
100
AcDbEntity
  8
ZUWAKU
100
AcDbLine
 10
7.921105754953998
 20
5.237500030804135
 30
0.0
 11
7.921105754953998
 21
5.882601043481805
 31
0.0
  0
LINE
  5
2A67
330
1A
100
AcDbEntity
  8
ZUWAKU
100
AcDbLine
 10
8.70602999544576
 20
7.367525283973545
 30
0.0
 11
7.251131008123422
 21
8.822424271295883
 31
0.0
  0
ARC
  5
2A68
330
1A
100
AcDbEntity
  8
ZUWAKU
100
AcDbCircle
 10
12.47110575495401
 20
5.675000030804135
 30
0.0
 40
0.7
100
AcDbArc
 50
180.0
 51
270.0
  0
LINE
  5
2A69
330
1A
100
AcDbEntity
  8
ZUWAKU
100
AcDbLine
 10
9.321105754954032
 20
4.975000030804132
 30
0.0
 11
9.321105754954032
 21
5.882601043481805
 31
0.0
  0
ARC
  5
2A6A
330
1A
100
AcDbEntity
  8
ZUWAKU
100
AcDbCircle
 10
8.796105754953998
 20
10.48750003080413
 30
0.0
 40
0.2625
100
AcDbArc
 50
270.0
 51
0.0
  0
ARC
  5
2A6B
330
1A
100
AcDbEntity
  8
ZUWAKU
100
AcDbCircle
 10
8.796105754953998
 20
11.36250003080413
 30
0.0
 40
0.2625
100
AcDbArc
 50
0.0
 51
90.0
  0
ARC
  5
2A6C
330
1A
100
AcDbEntity
  8
ZUWAKU
100
AcDbCircle
 10
7.046105754953998
 20
10.22500003080413
 30
0.0
 40
1.399999999999999
100
AcDbArc
 50
90.0
 51
180.0
  0
LINE
  5
2A6D
330
1A
100
AcDbEntity
  8
ZUWAKU
100
AcDbLine
 10
5.646105754954021
 20
10.22500003080413
 30
0.0
 11
5.646105754954021
 21
9.317399018126462
 31
0.0
  0
LINE
  5
2A6E
330
1A
100
AcDbEntity
  8
ZUWAKU
100
AcDbLine
 10
8.796105754953998
 20
10.22500003080413
 30
0.0
 11
7.308605754953987
 21
10.22500003080413
 31
0.0
  0
LINE
  5
2A6F
330
1A
100
AcDbEntity
  8
ZUWAKU
100
AcDbLine
 10
7.046105754953998
 20
9.962500030804132
 30
0.0
 11
7.046105754953998
 21
9.317399018126462
 31
0.0
  0
ARC
  5
2A70
330
1A
100
AcDbEntity
  8
ZUWAKU
100
AcDbCircle
 10
7.308605754953987
 20
9.962500030804132
 30
0.0
 40
0.2625
100
AcDbArc
 50
90.0
 51
180.0
  0
LINE
  5
2A71
330
1A
100
AcDbEntity
  8
ZUWAKU
100
AcDbLine
 10
7.046105754953998
 20
11.62500003080413
 30
0.0
 11
8.796105754953998
 21
11.62500003080413
 31
0.0
  0
ARC
  5
2A72
330
1A
100
AcDbEntity
  8
ZUWAKU
100
AcDbCircle
 10
12.47110575495401
 20
9.525000030804111
 30
0.0
 40
2.099999999999999
100
AcDbArc
 50
90.0
 51
180.0
  0
ARC
  5
2A73
330
1A
100
AcDbEntity
  8
ZUWAKU
100
AcDbCircle
 10
12.47110575495401
 20
9.525000030804132
 30
0.0
 40
0.7
100
AcDbArc
 50
90.0
 51
180.0
  0
LINE
  5
2A74
330
1A
100
AcDbEntity
  8
ZUWAKU
100
AcDbLine
 10
9.058605754953987
 20
11.36250003080413
 30
0.0
 11
9.058605754953987
 21
10.48750003080413
 31
0.0
  0
LINE
  5
2A75
330
1A
100
AcDbEntity
  8
ZUWAKU
100
AcDbLine
 10
17.83817322361193
 20
11.44154701488761
 30
0.0
 11
16.90403828629604
 21
8.483453046720647
 31
0.0
  0
LINE
  5
2A76
330
1A
100
AcDbEntity
  8
ZUWAKU
100
AcDbLine
 10
14.921105754954
 20
11.36250003080413
 30
0.0
 11
14.921105754954
 21
3.837500030804132
 31
0.0
  0
LINE
  5
2A77
330
1A
100
AcDbEntity
  8
ZUWAKU
100
AcDbLine
 10
16.32110575495403
 20
8.562500030804134
 30
0.0
 11
16.32110575495403
 21
11.36250003080413
 31
0.0
  0
LINE
  5
2A78
330
1A
100
AcDbEntity
  8
ZUWAKU
100
AcDbLine
 10
28.92110575495399
 20
5.50000003080413
 30
0.0
 11
28.92110575495399
 21
11.36250003080413
 31
0.0
  0
LINE
  5
2A79
330
1A
100
AcDbEntity
  8
ZUWAKU
100
AcDbLine
 10
27.52110575495402
 20
11.36250003080413
 30
0.0
 11
27.52110575495402
 21
4.975000030804132
 31
0.0
  0
LINE
  5
2A7A
330
1A
100
AcDbEntity
  8
ZUWAKU
100
AcDbLine
 10
21.74610575495398
 20
3.837500030804132
 30
0.0
 11
21.74610575495398
 21
11.36250003080413
 31
0.0
  0
LINE
  5
2A7B
330
1A
100
AcDbEntity
  8
ZUWAKU
100
AcDbLine
 10
20.346105754954
 20
11.36250003080413
 30
0.0
 11
20.346105754954
 21
3.837500030804132
 31
0.0
  0
LINE
  5
2A7C
330
1A
100
AcDbEntity
  8
ZUWAKU
100
AcDbLine
 10
18.65742899604299
 20
9.602523627585846
 30
0.0
 11
18.02505312337507
 21
7.600000030804142
 31
0.0
  0
ARC
  5
2A7D
330
1A
100
AcDbEntity
  8
ZUWAKU
100
AcDbCircle
 10
24.89610575495402
 20
9.317399018126483
 30
0.0
 40
2.099999999999999
100
AcDbArc
 50
180.0
 51
225.0
  0
ARC
  5
2A7E
330
1A
100
AcDbEntity
  8
ZUWAKU
100
AcDbCircle
 10
24.89610575495402
 20
9.317399018126483
 30
0.0
 40
0.7
100
AcDbArc
 50
180.0000000000016
 51
224.9999999999988
  0
LINE
  5
2A7F
330
1A
100
AcDbEntity
  8
ZUWAKU
100
AcDbLine
 10
33.12110575495399
 20
11.36250003080413
 30
0.0
 11
33.12110575495399
 21
3.837500030804132
 31
0.0
  0
LINE
  5
2A80
330
1A
100
AcDbEntity
  8
ZUWAKU
100
AcDbLine
 10
34.52110575495402
 20
3.837500030804132
 30
0.0
 11
34.52110575495402
 21
11.36250003080413
 31
0.0
  0
LINE
  5
2A81
330
1A
100
AcDbEntity
  8
ZUWAKU
100
AcDbLine
 10
30.671105754954
 20
11.36250003080413
 30
0.0
 11
30.671105754954
 21
5.50000003080413
 31
0.0
  0
LINE
  5
2A82
330
1A
100
AcDbEntity
  8
ZUWAKU
100
AcDbLine
 10
32.07110575495403
 20
4.975000030804132
 30
0.0
 11
32.07110575495403
 21
11.36250003080413
 31
0.0
  0
LINE
  5
2A83
330
1A
100
AcDbEntity
  8
ZUWAKU
100
AcDbLine
 10
39.56331445155763
 20
15.00000003080413
 30
0.0
 11
39.56331445155763
 21
0.4000000308041649
 31
0.0
  0
LINE
  5
2A84
330
1A
100
AcDbEntity
  8
ZUWAKU
100
AcDbLine
 10
39.76331445155756
 20
15.00000003080413
 30
0.0
 11
39.76331445155767
 21
0.4000000308041649
 31
0.0
  0
LINE
  5
2A85
330
1A
100
AcDbEntity
  8
ZUWAKU
100
AcDbLine
 10
39.66331445155754
 20
15.00000003080413
 30
0.0
 11
39.66331445155765
 21
0.4000000308041649
 31
0.0
  0
LINE
  5
2A86
330
1A
100
AcDbEntity
  8
ZUWAKU
100
AcDbLine
 10
28.92110575495399
 20
3.575000030804133
 30
0.0
 11
30.671105754954
 21
3.575000030804133
 31
0.0
  0
LINE
  5
2A87
330
1A
100
AcDbEntity
  8
ZUWAKU
100
AcDbLine
 10
30.14610575495402
 20
4.975000030804132
 30
0.0
 11
29.44610575495403
 21
4.975000030804132
 31
0.0
  0
LINE
  5
2A88
330
1A
100
AcDbEntity
  8
ZUWAKU
100
AcDbLine
 10
20.608605754954
 20
3.575000030804133
 30
0.0
 11
21.483605754954
 21
3.575000030804133
 31
0.0
  0
LINE
  5
2A89
330
1A
100
AcDbEntity
  8
ZUWAKU
100
AcDbLine
 10
17.83817322361193
 20
3.758453046720646
 30
0.0
 11
16.90403828629604
 21
6.716547014887616
 31
0.0
  0
ARC
  5
2A8A
330
1A
100
AcDbEntity
  8
ZUWAKU
100
AcDbCircle
 10
16.58360575495402
 20
6.637500030804133
 30
0.0
 40
0.2625
100
AcDbArc
 50
90.0
 51
180.0
  0
ARC
  5
2A8B
330
1A
100
AcDbEntity
  8
ZUWAKU
100
AcDbCircle
 10
16.65372283669836
 20
6.637500030804133
 30
0.0
 40
0.2625
100
AcDbArc
 50
17.52556837372303
 51
90.0
  0
ARC
  5
2A8C
330
1A
100
AcDbEntity
  8
ZUWAKU
100
AcDbCircle
 10
15.18360575495398
 20
3.837500030804132
 30
0.0
 40
0.2625
100
AcDbArc
 50
180.0
 51
270.0
  0
ARC
  5
2A8D
330
1A
100
AcDbEntity
  8
ZUWAKU
100
AcDbCircle
 10
13.43360575495398
 20
4.712500030804132
 30
0.0
 40
0.2625
100
AcDbArc
 50
0.0
 51
90.0
  0
ARC
  5
2A8E
330
1A
100
AcDbEntity
  8
ZUWAKU
100
AcDbCircle
 10
13.43360575495398
 20
3.837500030804132
 30
0.0
 40
0.2625
100
AcDbArc
 50
270.0
 51
0.0
  0
LINE
  5
2A8F
330
1A
100
AcDbEntity
  8
ZUWAKU
100
AcDbLine
 10
13.69610575495403
 20
4.712500030804132
 30
0.0
 11
13.69610575495403
 21
3.837500030804132
 31
0.0
  0
LINE
  5
2A90
330
1A
100
AcDbEntity
  8
ZUWAKU
100
AcDbLine
 10
16.32110575495403
 20
3.837500030804132
 30
0.0
 11
16.32110575495403
 21
6.637500030804133
 31
0.0
  0
ARC
  5
2A91
330
1A
100
AcDbEntity
  8
ZUWAKU
100
AcDbCircle
 10
16.05860575495398
 20
3.837500030804132
 30
0.0
 40
0.2625
100
AcDbArc
 50
270.0
 51
0.0
  0
LINE
  5
2A92
330
1A
100
AcDbEntity
  8
ZUWAKU
100
AcDbLine
 10
15.18360575495398
 20
3.575000030804133
 30
0.0
 11
16.05860575495398
 21
3.575000030804133
 31
0.0
  0
ARC
  5
2A93
330
1A
100
AcDbEntity
  8
ZUWAKU
100
AcDbCircle
 10
16.58360575495402
 20
8.562500030804134
 30
0.0
 40
0.2625
100
AcDbArc
 50
180.0
 51
270.0
  0
LINE
  5
2A94
330
1A
100
AcDbEntity
  8
ZUWAKU
100
AcDbLine
 10
16.58360575495402
 20
6.900000030804132
 30
0.0
 11
16.65372283669836
 21
6.900000030804132
 31
0.0
  0
LINE
  5
2A95
330
1A
100
AcDbEntity
  8
ZUWAKU
100
AcDbLine
 10
16.65372283669836
 20
8.300000030804131
 30
0.0
 11
16.58360575495402
 21
8.300000030804131
 31
0.0
  0
ARC
  5
2A96
330
1A
100
AcDbEntity
  8
ZUWAKU
100
AcDbCircle
 10
16.65372283669836
 20
8.562500030804134
 30
0.0
 40
0.2625
100
AcDbArc
 50
270.0
 51
342.4744316262769
  0
ARC
  5
2A97
330
1A
100
AcDbEntity
  8
ZUWAKU
100
AcDbCircle
 10
18.08848867320966
 20
3.837500030804132
 30
0.0
 40
0.2625
100
AcDbArc
 50
197.525568373723
 51
270.0
  0
LINE
  5
2A98
330
1A
100
AcDbEntity
  8
ZUWAKU
100
AcDbLine
 10
19.1882488126119
 20
3.916547014887619
 30
0.0
 11
18.02505312337507
 21
7.600000030804142
 31
0.0
  0
ARC
  5
2A99
330
1A
100
AcDbEntity
  8
ZUWAKU
100
AcDbCircle
 10
18.93793336301416
 20
3.837500030804132
 30
0.0
 40
0.2625
100
AcDbArc
 50
270.0
 51
17.52556837372303
  0
LINE
  5
2A9A
330
1A
100
AcDbEntity
  8
ZUWAKU
100
AcDbLine
 10
18.08848867320966
 20
3.575000030804133
 30
0.0
 11
18.93793336301416
 21
3.575000030804133
 31
0.0
  0
ARC
  5
2A9B
330
1A
100
AcDbEntity
  8
ZUWAKU
100
AcDbCircle
 10
20.608605754954
 20
3.837500030804132
 30
0.0
 40
0.2625
100
AcDbArc
 50
180.0
 51
270.0
  0
ARC
  5
2A9C
330
1A
100
AcDbEntity
  8
ZUWAKU
100
AcDbCircle
 10
25.07110575495403
 20
4.975000030804132
 30
0.0
 40
1.399999999999999
100
AcDbArc
 50
270.0
 51
0.0
  0
ARC
  5
2A9D
330
1A
100
AcDbEntity
  8
ZUWAKU
100
AcDbCircle
 10
28.92110575495399
 20
4.975000030804132
 30
0.0
 40
1.399999999999999
100
AcDbArc
 50
180.0
 51
270.0
  0
LINE
  5
2A9E
330
1A
100
AcDbEntity
  8
ZUWAKU
100
AcDbLine
 10
25.85602999544579
 20
7.367525283973545
 30
0.0
 11
24.4011310081234
 21
8.822424271295883
 31
0.0
  0
LINE
  5
2A9F
330
1A
100
AcDbEntity
  8
ZUWAKU
100
AcDbLine
 10
23.41118151446227
 20
7.832474777634722
 30
0.0
 11
24.8660805017846
 21
6.377575790312391
 31
0.0
  0
LINE
  5
2AA0
330
1A
100
AcDbEntity
  8
ZUWAKU
100
AcDbLine
 10
23.32110575495403
 20
3.575000030804133
 30
0.0
 11
25.07110575495403
 21
3.575000030804133
 31
0.0
  0
LINE
  5
2AA1
330
1A
100
AcDbEntity
  8
ZUWAKU
100
AcDbLine
 10
23.32110575495403
 20
4.975000030804132
 30
0.0
 11
24.80860575495398
 21
4.975000030804132
 31
0.0
  0
ARC
  5
2AA2
330
1A
100
AcDbEntity
  8
ZUWAKU
100
AcDbCircle
 10
23.32110575495403
 20
4.712500030804132
 30
0.0
 40
0.2625
100
AcDbArc
 50
90.0
 51
180.0
  0
ARC
  5
2AA3
330
1A
100
AcDbEntity
  8
ZUWAKU
100
AcDbCircle
 10
21.483605754954
 20
3.837500030804132
 30
0.0
 40
0.2625
100
AcDbArc
 50
270.0
 51
0.0
  0
ARC
  5
2AA4
330
1A
100
AcDbEntity
  8
ZUWAKU
100
AcDbCircle
 10
23.32110575495403
 20
3.837500030804132
 30
0.0
 40
0.2625
100
AcDbArc
 50
180.0
 51
270.0
  0
LINE
  5
2AA5
330
1A
100
AcDbEntity
  8
ZUWAKU
100
AcDbLine
 10
23.05860575495398
 20
3.837500030804132
 30
0.0
 11
23.05860575495398
 21
4.712500030804132
 31
0.0
  0
ARC
  5
2AA6
330
1A
100
AcDbEntity
  8
ZUWAKU
100
AcDbCircle
 10
24.80860575495398
 20
5.237500030804135
 30
0.0
 40
0.2625
100
AcDbArc
 50
270.0
 51
0.0
  0
ARC
  5
2AA7
330
1A
100
AcDbEntity
  8
ZUWAKU
100
AcDbCircle
 10
24.37110575495399
 20
5.882601043481805
 30
0.0
 40
0.7
100
AcDbArc
 50
0.0
 51
45.0
  0
LINE
  5
2AA8
330
1A
100
AcDbEntity
  8
ZUWAKU
100
AcDbLine
 10
25.07110575495403
 20
5.237500030804135
 30
0.0
 11
25.07110575495403
 21
5.882601043481805
 31
0.0
  0
ARC
  5
2AA9
330
1A
100
AcDbEntity
  8
ZUWAKU
100
AcDbCircle
 10
29.44610575495403
 20
5.50000003080413
 30
0.0
 40
0.525
100
AcDbArc
 50
180.0
 51
270.0
  0
ARC
  5
2AAA
330
1A
100
AcDbEntity
  8
ZUWAKU
100
AcDbCircle
 10
24.37110575495399
 20
5.882601043481784
 30
0.0
 40
2.099999999999999
100
AcDbArc
 50
0.0
 51
45.0
  0
LINE
  5
2AAB
330
1A
100
AcDbEntity
  8
ZUWAKU
100
AcDbLine
 10
26.47110575495401
 20
4.975000030804132
 30
0.0
 11
26.47110575495401
 21
5.882601043481805
 31
0.0
  0
ARC
  5
2AAC
330
1A
100
AcDbEntity
  8
ZUWAKU
100
AcDbCircle
 10
30.671105754954
 20
4.975000030804132
 30
0.0
 40
1.399999999999999
100
AcDbArc
 50
270.0
 51
0.0
  0
LINE
  5
2AAD
330
1A
100
AcDbEntity
  8
ZUWAKU
100
AcDbLine
 10
33.38360575495403
 20
3.575000030804133
 30
0.0
 11
34.25860575495403
 21
3.575000030804133
 31
0.0
  0
ARC
  5
2AAE
330
1A
100
AcDbEntity
  8
ZUWAKU
100
AcDbCircle
 10
30.14610575495402
 20
5.50000003080413
 30
0.0
 40
0.525
100
AcDbArc
 50
270.0
 51
0.0
  0
ARC
  5
2AAF
330
1A
100
AcDbEntity
  8
ZUWAKU
100
AcDbCircle
 10
33.38360575495403
 20
3.837500030804132
 30
0.0
 40
0.2625
100
AcDbArc
 50
180.0
 51
270.0
  0
ARC
  5
2AB0
330
1A
100
AcDbEntity
  8
ZUWAKU
100
AcDbCircle
 10
34.25860575495403
 20
3.837500030804132
 30
0.0
 40
0.2625
100
AcDbArc
 50
270.0
 51
0.0
  0
LINE
  5
2AB1
330
1A
100
AcDbEntity
  8
ZUWAKU
100
AcDbLine
 10
21.483605754954
 20
11.62500003080413
 30
0.0
 11
20.608605754954
 21
11.62500003080413
 31
0.0
  0
LINE
  5
2AB2
330
1A
100
AcDbEntity
  8
ZUWAKU
100
AcDbLine
 10
13.69610575495403
 20
11.36250003080413
 30
0.0
 11
13.69610575495403
 21
10.48750003080413
 31
0.0
  0
ARC
  5
2AB3
330
1A
100
AcDbEntity
  8
ZUWAKU
100
AcDbCircle
 10
13.43360575495398
 20
10.48750003080413
 30
0.0
 40
0.2625
100
AcDbArc
 50
270.0
 51
0.0
  0
ARC
  5
2AB4
330
1A
100
AcDbEntity
  8
ZUWAKU
100
AcDbCircle
 10
15.18360575495398
 20
11.36250003080413
 30
0.0
 40
0.2625
100
AcDbArc
 50
90.0
 51
180.0
  0
ARC
  5
2AB5
330
1A
100
AcDbEntity
  8
ZUWAKU
100
AcDbCircle
 10
13.43360575495398
 20
11.36250003080413
 30
0.0
 40
0.2625
100
AcDbArc
 50
0.0
 51
90.0
  0
LINE
  5
2AB6
330
1A
100
AcDbEntity
  8
ZUWAKU
100
AcDbLine
 10
16.05860575495398
 20
11.62500003080413
 30
0.0
 11
15.18360575495398
 21
11.62500003080413
 31
0.0
  0
ARC
  5
2AB7
330
1A
100
AcDbEntity
  8
ZUWAKU
100
AcDbCircle
 10
16.05860575495398
 20
11.36250003080413
 30
0.0
 40
0.2625
100
AcDbArc
 50
0.0
 51
90.0
  0
ARC
  5
2AB8
330
1A
100
AcDbEntity
  8
ZUWAKU
100
AcDbCircle
 10
18.08848867320966
 20
11.36250003080413
 30
0.0
 40
0.2625
100
AcDbArc
 50
90.0
 51
162.4744316262769
  0
LINE
  5
2AB9
330
1A
100
AcDbEntity
  8
ZUWAKU
100
AcDbLine
 10
19.1882488126119
 20
11.28345304672064
 30
0.0
 11
18.65742899604299
 21
9.602523627585846
 31
0.0
  0
ARC
  5
2ABA
330
1A
100
AcDbEntity
  8
ZUWAKU
100
AcDbCircle
 10
18.93793336301416
 20
11.36250003080413
 30
0.0
 40
0.2625
100
AcDbArc
 50
342.4744316262769
 51
90.0
  0
LINE
  5
2ABB
330
1A
100
AcDbEntity
  8
ZUWAKU
100
AcDbLine
 10
18.08848867320966
 20
11.62500003080413
 30
0.0
 11
18.93793336301416
 21
11.62500003080413
 31
0.0
  0
ARC
  5
2ABC
330
1A
100
AcDbEntity
  8
ZUWAKU
100
AcDbCircle
 10
20.608605754954
 20
11.36250003080413
 30
0.0
 40
0.2625
100
AcDbArc
 50
90.0
 51
180.0
  0
LINE
  5
2ABD
330
1A
100
AcDbEntity
  8
ZUWAKU
100
AcDbLine
 10
25.94610575495403
 20
10.22500003080413
 30
0.0
 11
24.45860575495402
 21
10.22500003080413
 31
0.0
  0
LINE
  5
2ABE
330
1A
100
AcDbEntity
  8
ZUWAKU
100
AcDbLine
 10
24.19610575495403
 20
11.62500003080413
 30
0.0
 11
25.94610575495403
 21
11.62500003080413
 31
0.0
  0
ARC
  5
2ABF
330
1A
100
AcDbEntity
  8
ZUWAKU
100
AcDbCircle
 10
24.19610575495403
 20
10.22500003080413
 30
0.0
 40
1.399999999999999
100
AcDbArc
 50
90.0
 51
180.0
  0
LINE
  5
2AC0
330
1A
100
AcDbEntity
  8
ZUWAKU
100
AcDbLine
 10
22.796105754954
 20
10.22500003080413
 30
0.0
 11
22.796105754954
 21
9.317399018126462
 31
0.0
  0
ARC
  5
2AC1
330
1A
100
AcDbEntity
  8
ZUWAKU
100
AcDbCircle
 10
21.483605754954
 20
11.36250003080413
 30
0.0
 40
0.2625
100
AcDbArc
 50
0.0
 51
90.0
  0
LINE
  5
2AC2
330
1A
100
AcDbEntity
  8
ZUWAKU
100
AcDbLine
 10
24.19610575495403
 20
9.962500030804132
 30
0.0
 11
24.19610575495403
 21
9.317399018126462
 31
0.0
  0
ARC
  5
2AC3
330
1A
100
AcDbEntity
  8
ZUWAKU
100
AcDbCircle
 10
24.45860575495402
 20
9.962500030804132
 30
0.0
 40
0.2625
100
AcDbArc
 50
90.0
 51
180.0
  0
LINE
  5
2AC4
330
1A
100
AcDbEntity
  8
ZUWAKU
100
AcDbLine
 10
26.20860575495402
 20
11.36250003080413
 30
0.0
 11
26.20860575495402
 21
10.48750003080413
 31
0.0
  0
ARC
  5
2AC5
330
1A
100
AcDbEntity
  8
ZUWAKU
100
AcDbCircle
 10
25.94610575495403
 20
10.48750003080413
 30
0.0
 40
0.2625
100
AcDbArc
 50
270.0
 51
0.0
  0
ARC
  5
2AC6
330
1A
100
AcDbEntity
  8
ZUWAKU
100
AcDbCircle
 10
25.94610575495403
 20
11.36250003080413
 30
0.0
 40
0.2625
100
AcDbArc
 50
0.0
 51
90.0
  0
LINE
  5
2AC7
330
1A
100
AcDbEntity
  8
ZUWAKU
100
AcDbLine
 10
28.65860575495401
 20
11.62500003080413
 30
0.0
 11
27.78360575495401
 21
11.62500003080413
 31
0.0
  0
ARC
  5
2AC8
330
1A
100
AcDbEntity
  8
ZUWAKU
100
AcDbCircle
 10
27.78360575495401
 20
11.36250003080413
 30
0.0
 40
0.2625
100
AcDbArc
 50
90.0
 51
180.0
  0
ARC
  5
2AC9
330
1A
100
AcDbEntity
  8
ZUWAKU
100
AcDbCircle
 10
28.65860575495401
 20
11.36250003080413
 30
0.0
 40
0.2625
100
AcDbArc
 50
0.0
 51
90.0
  0
LINE
  5
2ACA
330
1A
100
AcDbEntity
  8
ZUWAKU
100
AcDbLine
 10
34.25860575495403
 20
11.62500003080413
 30
0.0
 11
33.38360575495403
 21
11.62500003080413
 31
0.0
  0
ARC
  5
2ACB
330
1A
100
AcDbEntity
  8
ZUWAKU
100
AcDbCircle
 10
30.93360575495399
 20
11.36250003080413
 30
0.0
 40
0.2625
100
AcDbArc
 50
90.0
 51
180.0
  0
LINE
  5
2ACC
330
1A
100
AcDbEntity
  8
ZUWAKU
100
AcDbLine
 10
31.80860575495398
 20
11.62500003080413
 30
0.0
 11
30.93360575495399
 21
11.62500003080413
 31
0.0
  0
ARC
  5
2ACD
330
1A
100
AcDbEntity
  8
ZUWAKU
100
AcDbCircle
 10
31.80860575495398
 20
11.36250003080413
 30
0.0
 40
0.2625
100
AcDbArc
 50
0.0
 51
90.0
  0
ARC
  5
2ACE
330
1A
100
AcDbEntity
  8
ZUWAKU
100
AcDbCircle
 10
33.38360575495403
 20
11.36250003080413
 30
0.0
 40
0.2625
100
AcDbArc
 50
90.0
 51
180.0
  0
ARC
  5
2ACF
330
1A
100
AcDbEntity
  8
ZUWAKU
100
AcDbCircle
 10
34.25860575495403
 20
11.36250003080413
 30
0.0
 40
0.2625
100
AcDbArc
 50
0.0
 51
90.0
  0
TEXT
  5
2AD0
330
1A
100
AcDbEntity
  8
moji
100
AcDbText
 10
119.9136010179889
 20
1.602460559507841
 30
0.0
 40
2.799999999999999
  1
Ｘ７０Ｕ－０－４５～６０
 41
0.9
  7
ｽﾀｲﾙ1
100
AcDbText
  0
TEXT
  5
2AD1
330
1A
100
AcDbEntity
  8
moji
100
AcDbText
 10
119.9136010179889
 20
9.002460559507824
 30
0.0
 40
2.799999999999999
  1
ブラケット正面打（吊）ワンタッチ自在式
 41
0.9
  7
ｽﾀｲﾙ1
100
AcDbText
  0
LINE
  5
2AD2
330
1A
100
AcDbEntity
  8
ZUWAKU
100
AcDbLine
 10
104.2233003225973
 20
15.00000003080413
 30
0.0
 11
104.2233003225974
 21
0.4000000308041649
 31
0.0
  0
LINE
  5
2AD3
330
1A
100
AcDbEntity
  8
ZUWAKU
100
AcDbLine
 10
104.3233003225973
 20
15.00000003080413
 30
0.0
 11
104.3233003225974
 21
0.4000000308041649
 31
0.0
  0
LINE
  5
2AD4
330
1A
100
AcDbEntity
  8
ZUWAKU
100
AcDbLine
 10
104.1233003225974
 20
15.00000003080413
 30
0.0
 11
104.1233003225974
 21
0.4000000308041649
 31
0.0
  0
TEXT
  5
2AD5
330
1A
100
AcDbEntity
  8
ZUWAKU
100
AcDbText
 10
104.8620228337022
 20
4.827678299996939
 30
0.0
 40
2.0
  1
サイズ
 41
0.9
  7
ｽﾀｲﾙ1
100
AcDbText
  0
TEXT
  5
2AD6
330
1A
100
AcDbEntity
  8
ZUWAKU
100
AcDbText
 10
104.862022833702
 20
12.02767829999692
 30
0.0
 40
2.0
  1
品名
 41
0.9
  7
ｽﾀｲﾙ1
100
AcDbText
  0
TEXT
  5
2AD7
330
1A
100
AcDbEntity
  8
ZUWAKU
100
AcDbText
 10
329.1019685212146
 20
9.002460559507824
 30
0.0
 40
2.799999999999999
  1
　　．　　．　　
 41
0.9
  7
ｽﾀｲﾙ1
100
AcDbText
  0
LINE
  5
2AD8
330
1A
100
AcDbEntity
  8
ZUWAKU
100
AcDbLine
 10
324.4086009326655
 20
7.800000030804147
 30
0.0
 11
348.624504951834
 21
7.800000030804147
 31
0.0
  0
LINE
  5
2AD9
330
1A
100
AcDbEntity
  8
ZUWAKU
100
AcDbLine
 10
324.4086009326656
 20
7.700000030804149
 30
0.0
 11
348.624504951834
 21
7.700000030804147
 31
0.0
  0
LINE
  5
2ADA
330
1A
100
AcDbEntity
  8
ZUWAKU
100
AcDbLine
 10
324.4086009326655
 20
7.600000030804146
 30
0.0
 11
348.624504951834
 21
7.600000030804148
 31
0.0
  0
LINE
  5
2ADB
330
1A
100
AcDbEntity
  8
ZUWAKU
100
AcDbLine
 10
252.5995894266338
 20
7.800000030804147
 30
0.0
 11
276.2634775606196
 21
7.800000030804147
 31
0.0
  0
LINE
  5
2ADC
330
1A
100
AcDbEntity
  8
ZUWAKU
100
AcDbLine
 10
252.5995894266338
 20
7.700000030804147
 30
0.0
 11
276.2634775606196
 21
7.700000030804147
 31
0.0
  0
LINE
  5
2ADD
330
1A
100
AcDbEntity
  8
ZUWAKU
100
AcDbLine
 10
252.5995894266338
 20
7.600000030804149
 30
0.0
 11
276.2634775606196
 21
7.600000030804149
 31
0.0
  0
LINE
  5
2ADE
330
1A
100
AcDbEntity
  8
ZUWAKU
100
AcDbLine
 10
252.3995894266339
 20
15.00000003080413
 30
0.0
 11
252.3995894266339
 21
0.4000000308041649
 31
0.0
  0
LINE
  5
2ADF
330
1A
100
AcDbEntity
  8
ZUWAKU
100
AcDbLine
 10
252.5995894266338
 20
15.00000003080413
 30
0.0
 11
252.599589426634
 21
0.4000000308041649
 31
0.0
  0
LINE
  5
2AE0
330
1A
100
AcDbEntity
  8
ZUWAKU
100
AcDbLine
 10
252.4995894266338
 20
15.00000003080413
 30
0.0
 11
252.4995894266339
 21
0.4000000308041649
 31
0.0
  0
TEXT
  5
2AE1
330
1A
100
AcDbEntity
  8
moji
100
AcDbText
 10
264.0204536637198
 20
9.002460559507824
 30
0.0
 40
2.799999999999999
  1
Ａ３
 41
0.9
  7
ｽﾀｲﾙ1
100
AcDbText
  0
LINE
  5
2AE2
330
1A
100
AcDbEntity
  8
ZUWAKU
100
AcDbLine
 10
223.7121816630591
 20
15.00000003080413
 30
0.0
 11
223.7121816630591
 21
0.4000000308041649
 31
0.0
  0
LINE
  5
2AE3
330
1A
100
AcDbEntity
  8
ZUWAKU
100
AcDbLine
 10
223.912181663059
 20
15.00000003080413
 30
0.0
 11
223.9121816630591
 21
0.4000000308041649
 31
0.0
  0
LINE
  5
2AE4
330
1A
100
AcDbEntity
  8
ZUWAKU
100
AcDbLine
 10
223.812181663059
 20
15.00000003080413
 30
0.0
 11
223.8121816630591
 21
0.4000000308041649
 31
0.0
  0
TEXT
  5
2AE5
330
1A
100
AcDbEntity
  8
moji
100
AcDbText
 10
231.2836388385577
 20
5.971308891634123
 30
0.0
 40
2.799999999999999
  1
ＬＫ３５Ｔ
 41
0.9
  7
ｽﾀｲﾙ1
100
AcDbText
  0
TEXT
  5
2AE6
330
1A
100
AcDbEntity
  8
ZUWAKU
100
AcDbText
 10
253.3383119377388
 20
4.827678299996939
 30
0.0
 40
2.0
  1
縮尺
 41
0.9
  7
ｽﾀｲﾙ1
100
AcDbText
  0
TEXT
  5
2AE7
330
1A
100
AcDbEntity
  8
moji
100
AcDbText
 10
264.0204536637198
 20
1.602460559507841
 30
0.0
 40
2.799999999999999
  1
１/１
 41
0.9
  7
ｽﾀｲﾙ1
100
AcDbText
  0
TEXT
  5
2AE8
330
1A
100
AcDbEntity
  8
ZUWAKU
100
AcDbText
 10
224.6509041741638
 20
12.02767829999692
 30
0.0
 40
2.0
  1
品番
 41
0.9
  7
ｽﾀｲﾙ1
100
AcDbText
  0
TEXT
  5
2AE9
330
1A
100
AcDbEntity
  8
ZUWAKU
100
AcDbText
 10
253.3383119377386
 20
12.02767829999692
 30
0.0
 40
2.0
  1
用紙
 41
0.9
  7
ｽﾀｲﾙ1
100
AcDbText
  0
LINE
  5
2AEA
330
1A
100
AcDbEntity
  8
ZUWAKU
100
AcDbLine
 10
276.2634775606196
 20
15.00000003080413
 30
0.0
 11
276.2634775606196
 21
0.4000000308041649
 31
0.0
  0
LINE
  5
2AEB
330
1A
100
AcDbEntity
  8
ZUWAKU
100
AcDbLine
 10
276.4634775606196
 20
15.00000003080413
 30
0.0
 11
276.4634775606197
 21
0.4000000308041649
 31
0.0
  0
LINE
  5
2AEC
330
1A
100
AcDbEntity
  8
ZUWAKU
100
AcDbLine
 10
276.3634775606195
 20
15.00000003080413
 30
0.0
 11
276.3634775606196
 21
0.4000000308041649
 31
0.0
  0
LINE
  5
2AED
330
1A
100
AcDbEntity
  8
ZUWAKU
100
AcDbLine
 10
324.2086009326657
 20
15.00000003080413
 30
0.0
 11
324.2086009326657
 21
0.4000000308041649
 31
0.0
  0
LINE
  5
2AEE
330
1A
100
AcDbEntity
  8
ZUWAKU
100
AcDbLine
 10
324.4086009326656
 20
15.00000003080413
 30
0.0
 11
324.4086009326657
 21
0.4000000308041649
 31
0.0
  0
LINE
  5
2AEF
330
1A
100
AcDbEntity
  8
ZUWAKU
100
AcDbLine
 10
324.3086009326656
 20
15.00000003080413
 30
0.0
 11
324.3086009326657
 21
0.4000000308041649
 31
0.0
  0
TEXT
  5
2AF0
330
1A
100
AcDbEntity
  8
ZUWAKU
100
AcDbText
 10
325.1473234437704
 20
12.02767829999692
 30
0.0
 40
2.0
  1
DATE
 41
0.9
  7
ｽﾀｲﾙ1
100
AcDbText
  0
TEXT
  5
2AF1
330
1A
100
AcDbEntity
  8
ZUWAKU
100
AcDbText
 10
354.2640417736853
 20
6.176919698647532
 30
0.0
 40
3.0
  1
積水化学工業株式会社
 41
0.9
  7
ｽﾀｲﾙ1
100
AcDbText
  0
LINE
  5
2AF2
330
1A
100
AcDbEntity
  8
ZUWAKU
100
AcDbLine
 10
348.924504951834
 20
15.00000003080413
 30
0.0
 11
348.9245049518341
 21
0.4000000308041649
 31
0.0
  0
LINE
  5
2AF3
330
1A
100
AcDbEntity
  8
ZUWAKU
100
AcDbLine
 10
348.824504951834
 20
15.00000003080413
 30
0.0
 11
348.8245049518341
 21
0.4000000308041649
 31
0.0
  0
LINE
  5
2AF4
330
1A
100
AcDbEntity
  8
ZUWAKU
100
AcDbLine
 10
348.7245049518341
 20
15.00000003080413
 30
0.0
 11
348.7245049518341
 21
0.4000000308041649
 31
0.0
  0
LINE
  5
2AF5
330
1A
100
AcDbEntity
  8
ZUWAKU
100
AcDbLine
 10
348.624504951834
 20
15.00000003080413
 30
0.0
 11
348.624504951834
 21
0.4000000308041649
 31
0.0
  0
DIMENSION
  5
32D4
330
1A
100
AcDbEntity
  8
SUNPOU
100
AcDbDimension
  2
*D1
 10
246.686594286559
 20
84.40696382664462
 30
0.0
 11
244.186594286559
 21
110.4069638294669
 31
0.0
 70
    32
 71
     5
 42
-1.0
  3
STANDARD
100
AcDbAlignedDimension
 13
206.1212704033798
 23
136.406963832289
 33
0.0
 14
215.6212704033797
 24
84.40696382664464
 34
0.0
 50
90.0
100
AcDbRotatedDimension
1001
ACAD
1000
DSTYLE
1002
{
1070
    41
1040
3.0
1070
    42
1040
3.0
1070
    43
1040
7.0
1070
    44
1040
1.5
1070
    73
1070
     0
1070
    74
1070
     0
1070
    77
1070
     3
1070
   140
1040
3.0
1070
   141
1040
3.0
1070
   147
1040
1.0
1070
   172
1070
     1
1070
   173
1070
     1
1070
   176
1070
   256
1070
   177
1070
   256
1070
   178
1070
   256
1070
   271
1070
     0
1070
   272
1070
     0
1070
   341
1005
B2
1070
     6
1000
OPEN
1070
     7
1000
OPEN
1002
}
  0
DIMENSION
  5
32D5
330
1A
100
AcDbEntity
  8
SUNPOU
100
AcDbDimension
  2
*D2
 10
215.6212704033797
 20
148.9763918534648
 30
0.0
 11
193.1212704034298
 21
151.4763918534648
 31
0.0
 70
    32
 71
     5
 42
-1.0
  3
STANDARD
100
AcDbAlignedDimension
 13
170.6212704034798
 23
97.31973536580717
 33
0.0
 14
215.6212704033797
 24
120.4069638286446
 34
0.0
100
AcDbRotatedDimension
1001
ACAD
1000
DSTYLE
1002
{
1070
    41
1040
3.0
1070
    42
1040
3.0
1070
    43
1040
7.0
1070
    44
1040
1.5
1070
    73
1070
     0
1070
    74
1070
     0
1070
    77
1070
     3
1070
   140
1040
3.0
1070
   141
1040
3.0
1070
   147
1040
1.0
1070
   172
1070
     1
1070
   173
1070
     1
1070
   176
1070
   256
1070
   177
1070
   256
1070
   178
1070
   256
1070
   271
1070
     0
1070
   272
1070
     0
1070
   341
1005
B2
1070
     6
1000
OPEN
1070
     7
1000
OPEN
1002
}
  0
DIMENSION
  5
32D6
330
1A
100
AcDbEntity
  8
SUNPOU
100
AcDbDimension
  2
*D3
 10
215.6212704033797
 20
157.3498659135242
 30
0.0
 11
136.8862704034298
 21
159.8498659135242
 31
0.0
 70
    32
 71
     5
 42
-1.0
  3
STANDARD
100
AcDbAlignedDimension
 13
58.15127040347983
 23
95.77133536664462
 33
0.0
 14
215.6212704033797
 24
120.4069638286446
 34
0.0
100
AcDbRotatedDimension
1001
ACAD
1000
DSTYLE
1002
{
1070
    41
1040
3.0
1070
    42
1040
3.0
1070
    43
1040
7.0
1070
    44
1040
1.5
1070
    73
1070
     0
1070
    74
1070
     0
1070
    77
1070
     3
1070
   140
1040
3.0
1070
   141
1040
3.0
1070
   147
1040
1.0
1070
   172
1070
     1
1070
   173
1070
     1
1070
   176
1070
   256
1070
   177
1070
   256
1070
   178
1070
   256
1070
   271
1070
     0
1070
   272
1070
     0
1070
   341
1005
B2
1070
     6
1000
OPEN
1070
     7
1000
OPEN
1002
}
  0
ARC
  5
32D9
330
1A
100
AcDbEntity
  8
SEIHIN
  6
DASHED
 62
     2
100
AcDbCircle
 10
221.1212704033798
 20
126.4069638286446
 30
0.0
 40
10.00000000364439
100
AcDbArc
 50
25.84193278616217
 51
169.1831807790583
  0
DIMENSION
  5
32DB
330
1A
100
AcDbEntity
  8
SUNPOU
100
AcDbDimension
  2
*D4
 10
44.36124349156372
 20
84.40696382664468
 30
0.0
 11
41.86124349156371
 21
90.71414959664464
 31
0.0
 70
    32
 71
     5
 42
-1.0
  3
STANDARD
100
AcDbAlignedDimension
 13
59.40127040347983
 23
97.02133536664456
 33
0.0
 14
215.6212704033797
 24
84.40696382664464
 34
0.0
 50
90.0
100
AcDbRotatedDimension
1001
ACAD
1000
DSTYLE
1002
{
1070
    41
1040
3.0
1070
    42
1040
3.0
1070
    43
1040
7.0
1070
    44
1040
1.5
1070
    73
1070
     0
1070
    74
1070
     0
1070
    77
1070
     3
1070
   140
1040
3.0
1070
   141
1040
3.0
1070
   147
1040
1.0
1070
   172
1070
     1
1070
   173
1070
     1
1070
   176
1070
   256
1070
   177
1070
   256
1070
   178
1070
   256
1070
   271
1070
     0
1070
   272
1070
     0
1070
   341
1005
B2
1070
     6
1000
OPEN
1070
     7
1000
OPEN
1002
}
  0
LINE
  5
32DC
330
1A
100
AcDbEntity
  8
SEIHIN
100
AcDbLine
 10
215.6212704033797
 20
247.6730314792466
 30
0.0
 11
214.4212704033798
 21
247.6730314792466
 31
0.0
  0
ARC
  5
32DD
330
1A
100
AcDbEntity
  8
SEIHIN
100
AcDbCircle
 10
213.9212704033798
 20
230.9960829792466
 30
0.0
 40
0.4999999650868415
100
AcDbArc
 50
279.0000009749314
 51
0.0
  0
ARC
  5
32DE
330
1A
100
AcDbEntity
  8
SEIHIN
100
AcDbCircle
 10
213.9212704033798
 20
230.9960829792466
 30
0.0
 40
1.699999960936061
100
AcDbArc
 50
279.0000003976588
 51
0.0
  0
ARC
  5
32DF
330
1A
100
AcDbEntity
  8
SEIHIN
100
AcDbCircle
 10
213.9212704033798
 20
211.3499798492466
 30
0.0
 40
0.4999999996559329
100
AcDbArc
 50
0.0
 51
81.00000027989365
  0
ARC
  5
32E0
330
1A
100
AcDbEntity
  8
SEIHIN
100
AcDbCircle
 10
213.9212704033798
 20
211.3499798492466
 30
0.0
 40
1.700000000443591
100
AcDbArc
 50
0.0
 51
81.00000002413159
  0
LINE
  5
32E1
330
1A
100
AcDbEntity
  8
SEIHIN
100
AcDbLine
 10
215.6212704033797
 20
194.6730314392466
 30
0.0
 11
214.4212704033798
 21
194.6730314392466
 31
0.0
  0
LINE
  5
32E2
330
1A
100
AcDbEntity
  8
SEIHIN
100
AcDbLine
 10
97.8272667533799
 20
228.6730314792466
 30
0.0
 11
215.1212704033798
 21
228.6730314792466
 31
0.0
  0
LINE
  5
32E3
330
1A
100
AcDbEntity
  8
SEIHIN
100
AcDbLine
 10
97.8272667533799
 20
213.6730314392466
 30
0.0
 11
215.1212704033798
 21
213.6730314392466
 31
0.0
  0
LINE
  5
32E4
330
1A
100
AcDbEntity
  8
SEIHIN
100
AcDbLine
 10
97.32726675337989
 20
214.6730314392466
 30
0.0
 11
215.1212704033798
 21
214.6730314392466
 31
0.0
  0
LINE
  5
32E5
330
1A
100
AcDbEntity
  8
SEIHIN
100
AcDbLine
 10
97.32726675337989
 20
227.6730314792466
 30
0.0
 11
215.1212704033798
 21
227.6730314792466
 31
0.0
  0
LINE
  5
32E6
330
1A
100
AcDbEntity
  8
CENTER L
100
AcDbLine
 10
207.4212704033798
 20
240.6730314592466
 30
0.0
 11
222.6212704033798
 21
240.6730314592466
 31
0.0
  0
LINE
  5
32E7
330
1A
100
AcDbEntity
  8
CENTER L
100
AcDbLine
 10
207.4212704033798
 20
201.6730314592466
 30
0.0
 11
222.6212704033798
 21
201.6730314592466
 31
0.0
  0
LINE
  5
32E8
330
1A
100
AcDbEntity
  8
CENTER L
100
AcDbLine
 10
207.4212704033798
 20
200.1730314592466
 30
0.0
 11
222.6212704033798
 21
200.1730314592466
 31
0.0
  0
LINE
  5
32E9
330
1A
100
AcDbEntity
  8
CENTER L
100
AcDbLine
 10
207.4212704033798
 20
242.1730314592466
 30
0.0
 11
222.6212704033798
 21
242.1730314592466
 31
0.0
  0
LINE
  5
32EA
330
1A
100
AcDbEntity
  8
CENTER L
100
AcDbLine
 10
47.88772585177276
 20
221.1730314592466
 30
0.0
 11
222.6212704033798
 21
221.1730314592466
 31
0.0
  0
LINE
  5
32F0
330
1A
100
AcDbEntity
  8
SEIHIN
100
AcDbLine
 10
92.66705023337989
 20
228.6730314792466
 30
0.0
 11
60.65127040347983
 21
228.6730314792466
 31
0.0
  0
LINE
  5
32F1
330
1A
100
AcDbEntity
  8
SEIHIN
100
AcDbLine
 10
92.66705023337989
 20
213.6730314392466
 30
0.0
 11
60.65127040347983
 21
213.6730314392466
 31
0.0
  0
LINE
  5
330B
330
1A
100
AcDbEntity
  8
NOKITOI
  6
PHANTOM
 62
     8
100
AcDbLine
 10
73.44929726337994
 20
93.11503536580715
 30
0.0
 11
72.15589726338004
 21
93.11503536580715
 31
0.0
  0
DIMENSION
  5
3310
330
1A
100
AcDbEntity
  8
SUNPOU
100
AcDbDimension
  2
*D5
 10
33.74836663166366
 20
210.1730314392466
 30
0.0
 11
31.24836663166362
 21
221.1730314592466
 31
0.0
 70
    32
 71
     5
 42
-1.0
  3
STANDARD
100
AcDbAlignedDimension
 13
58.15127040347983
 23
232.1730314792466
 33
0.0
 14
58.15127040347983
 24
210.1730314392466
 34
0.0
 50
90.0
100
AcDbRotatedDimension
1001
ACAD
1000
DSTYLE
1002
{
1070
    41
1040
3.0
1070
    42
1040
3.0
1070
    43
1040
7.0
1070
    44
1040
1.5
1070
    73
1070
     0
1070
    74
1070
     0
1070
    77
1070
     3
1070
   140
1040
3.0
1070
   141
1040
3.0
1070
   147
1040
1.0
1070
   172
1070
     1
1070
   173
1070
     1
1070
   176
1070
   256
1070
   177
1070
   256
1070
   178
1070
   256
1070
   271
1070
     0
1070
   272
1070
     0
1070
   341
1005
B2
1070
     6
1000
OPEN
1070
     7
1000
OPEN
1002
}
  0
LINE
  5
3311
330
1A
100
AcDbEntity
  8
SEIHIN
100
AcDbLine
 10
60.65127040347983
 20
228.6730314792466
 30
0.0
 11
60.65127040347983
 21
213.6730314392466
 31
0.0
  0
LINE
  5
3312
330
1A
100
AcDbEntity
  8
SEIHIN
100
AcDbLine
 10
58.15127040347983
 20
210.1730314392466
 30
0.0
 11
58.15127040347983
 21
232.1730314792466
 31
0.0
  0
LINE
  5
3313
330
1A
100
AcDbEntity
  8
SEIHIN
100
AcDbLine
 10
58.15127040347983
 20
210.1730314392466
 30
0.0
 11
60.65127040347983
 21
210.1730314392466
 31
0.0
  0
LINE
  5
3314
330
1A
100
AcDbEntity
  8
SEIHIN
100
AcDbLine
 10
60.65127040347983
 20
210.1730314392466
 30
0.0
 11
60.65127040347983
 21
213.6730314392466
 31
0.0
  0
LINE
  5
3315
330
1A
100
AcDbEntity
  8
SEIHIN
100
AcDbLine
 10
58.15127040347983
 20
232.1730314792466
 30
0.0
 11
60.65127040347983
 21
232.1730314792466
 31
0.0
  0
LINE
  5
3316
330
1A
100
AcDbEntity
  8
SEIHIN
100
AcDbLine
 10
60.65127040347983
 20
228.6730314792466
 30
0.0
 11
60.65127040347983
 21
232.1730314792466
 31
0.0
  0
LINE
  5
3317
330
1A
100
AcDbEntity
  8
SEIHIN
100
AcDbLine
 10
60.65127040347983
 20
232.1730314792466
 30
0.0
 11
60.65127040347983
 21
228.6730314792466
 31
0.0
  0
LINE
  5
339D
330
1A
100
AcDbEntity
  8
SEIHIN
100
AcDbLine
 10
127.2006468833798
 20
224.1730314392466
 30
0.0
 11
211.1212704033798
 21
224.1730314392466
 31
0.0
  0
LINE
  5
339E
330
1A
100
AcDbEntity
  8
SEIHIN
100
AcDbLine
 10
127.2006468833798
 20
218.1730314392466
 30
0.0
 11
211.1212711133798
 21
218.1730314392466
 31
0.0
  0
LINE
  5
33B1
330
1A
100
AcDbEntity
  8
SEIHIN
100
AcDbLine
 10
116.7943637853799
 20
213.1730314392466
 30
0.0
 11
97.75951729337988
 21
213.1730774392466
 31
0.0
  0
LINE
  5
33B2
330
1A
100
AcDbEntity
  8
SEIHIN
100
AcDbLine
 10
97.75955596337986
 20
229.1730314792466
 30
0.0
 11
116.7943637853799
 21
229.1730314792466
 31
0.0
  0
LINE
  5
33B3
330
1A
100
AcDbEntity
  8
SEIHIN
100
AcDbLine
 10
97.6136501933799
 20
214.9009577992466
 30
0.0
 11
125.2006468833798
 21
214.9009577992466
 31
0.0
  0
LINE
  5
33B4
330
1A
100
AcDbEntity
  8
SEIHIN
100
AcDbLine
 10
100.4031697433798
 20
217.0185874292466
 30
0.0
 11
122.4618568683798
 21
217.0185874292466
 31
0.0
  0
LINE
  5
33B5
330
1A
100
AcDbEntity
  8
SEIHIN
100
AcDbLine
 10
97.6136501933799
 20
227.4451050792466
 30
0.0
 11
125.2006468833798
 21
227.4451050792466
 31
0.0
  0
LINE
  5
33B6
330
1A
100
AcDbEntity
  8
SEIHIN
100
AcDbLine
 10
100.4031697433798
 20
225.3274754792466
 30
0.0
 11
122.4618568683798
 21
225.3274754792466
 31
0.0
  0
LINE
  5
33B7
330
1A
100
AcDbEntity
  8
SEIHIN
100
AcDbLine
 10
100.4031697433798
 20
227.4451050792466
 30
0.0
 11
100.4031697433798
 21
226.2451050792466
 31
0.0
  0
LINE
  5
33B8
330
1A
100
AcDbEntity
  8
SEIHIN
100
AcDbLine
 10
100.4031697433798
 20
214.9009577992466
 30
0.0
 11
100.4031697433798
 21
227.4451050792466
 31
0.0
  0
LINE
  5
33B9
330
1A
100
AcDbEntity
  8
SEIHIN
100
AcDbLine
 10
97.6136501933799
 20
226.4451050792466
 30
0.0
 11
97.6136501933799
 21
215.9009577992466
 31
0.0
  0
LINE
  5
33BA
330
1A
100
AcDbEntity
  8
SEIHIN
100
AcDbLine
 10
97.6136501933799
 20
219.2484200992466
 30
0.0
 11
100.4031697433798
 21
219.2484200992466
 31
0.0
  0
LINE
  5
33BB
330
1A
100
AcDbEntity
  8
SEIHIN
100
AcDbLine
 10
97.6136501933799
 20
223.0976427792466
 30
0.0
 11
100.4031697433798
 21
223.0976427792466
 31
0.0
  0
LINE
  5
33BC
330
1A
100
AcDbEntity
  8
SEIHIN
100
AcDbLine
 10
100.4031697433798
 20
215.9009577992466
 30
0.0
 11
97.6136501933799
 21
215.9009577992466
 31
0.0
  0
LINE
  5
33BD
330
1A
100
AcDbEntity
  8
SEIHIN
100
AcDbLine
 10
91.79436378337987
 20
213.1730314392466
 30
0.0
 11
95.75927110337989
 21
213.1730314392466
 31
0.0
  0
LINE
  5
33BE
330
1A
100
AcDbEntity
  8
SEIHIN
100
AcDbLine
 10
95.75951272337988
 20
213.6730314392466
 30
0.0
 11
91.79436378337987
 21
213.6730314392466
 31
0.0
  0
LINE
  5
33BF
330
1A
100
AcDbEntity
  8
SEIHIN
100
AcDbLine
 10
91.79436378337987
 20
213.1730314392466
 30
0.0
 11
91.79436378337987
 21
213.6730314392466
 31
0.0
  0
LINE
  5
33C0
330
1A
100
AcDbEntity
  8
SEIHIN
100
AcDbLine
 10
97.6136501933799
 20
215.9009577992466
 30
0.0
 11
97.6136501933799
 21
214.9009577992466
 31
0.0
  0
ARC
  5
33C1
330
1A
100
AcDbEntity
  8
SEIHIN
100
AcDbCircle
 10
97.8272667533799
 20
213.1730314392466
 30
0.0
 40
0.5
100
AcDbArc
 50
90.0
 51
180.0
  0
LINE
  5
33C2
330
1A
100
AcDbEntity
  8
SEIHIN
100
AcDbLine
 10
97.32726675337989
 20
213.1730314392466
 30
0.0
 11
97.32726675337989
 21
210.1730314392466
 31
0.0
  0
LINE
  5
33C3
330
1A
100
AcDbEntity
  8
SEIHIN
100
AcDbLine
 10
96.32726675337989
 20
210.1730314392466
 30
0.0
 11
96.32726675337989
 21
213.6730314392466
 31
0.0
  0
LINE
  5
33C4
330
1A
100
AcDbEntity
  8
SEIHIN
100
AcDbLine
 10
97.32726675337989
 20
210.1730314392466
 30
0.0
 11
96.32726675337989
 21
210.1730314392466
 31
0.0
  0
LINE
  5
33C5
330
1A
100
AcDbEntity
  8
SEIHIN
100
AcDbLine
 10
97.75951729337988
 20
213.1730774392466
 30
0.0
 11
97.75951850337987
 21
213.6730314392466
 31
0.0
  0
LINE
  5
33C6
330
1A
100
AcDbEntity
  8
SEIHIN
100
AcDbLine
 10
95.75951154337985
 20
213.1730314392466
 30
0.0
 11
95.75951272337988
 21
213.6730314392466
 31
0.0
  0
ARC
  5
33C7
330
1A
100
AcDbEntity
  8
SEIHIN
100
AcDbCircle
 10
97.32726675337989
 20
213.6730314392466
 30
0.0
 40
1.0
100
AcDbArc
 50
90.0
 51
180.0
  0
ARC
  5
33C8
330
1A
100
AcDbEntity
  8
SEIHIN
100
AcDbCircle
 10
97.6136501933799
 20
221.1730314392466
 30
0.0
 40
3.000000000000011
100
AcDbArc
 50
90.00000515662017
 51
269.9999952253516
  0
ARC
  5
33C9
330
1A
100
AcDbEntity
  8
SEIHIN
100
AcDbCircle
 10
106.7946049133798
 20
217.6913609392466
 30
0.0
 40
5.715337531631893
100
AcDbArc
 50
232.2375418744902
 51
307.7621812247562
  0
LINE
  5
33CA
330
1A
100
AcDbEntity
  8
SEIHIN
100
AcDbLine
 10
100.4031697433798
 20
214.9009577992466
 30
0.0
 11
100.4031697433798
 21
216.1009577992466
 31
0.0
  0
LINE
  5
33CB
330
1A
100
AcDbEntity
  8
SEIHIN
100
AcDbLine
 10
115.8967862723798
 20
218.0185874292466
 30
0.0
 11
115.8967862723798
 21
224.3274754492466
 31
0.0
  0
LINE
  5
33CC
330
1A
100
AcDbEntity
  8
SEIHIN
100
AcDbLine
 10
100.4031697433798
 20
226.4451050792466
 30
0.0
 11
97.6136501933799
 21
226.4451050792466
 31
0.0
  0
LINE
  5
33CD
330
1A
100
AcDbEntity
  8
SEIHIN
100
AcDbLine
 10
91.79436378337987
 20
229.1730314792466
 30
0.0
 11
95.75927110337989
 21
229.1730314792466
 31
0.0
  0
LINE
  5
33CE
330
1A
100
AcDbEntity
  8
SEIHIN
100
AcDbLine
 10
95.75954809337986
 20
228.6730314792466
 30
0.0
 11
91.79436378337987
 21
228.6730314792466
 31
0.0
  0
LINE
  5
33CF
330
1A
100
AcDbEntity
  8
SEIHIN
100
AcDbLine
 10
91.79436378337987
 20
228.6730314792466
 30
0.0
 11
91.79436378337987
 21
229.1730314792466
 31
0.0
  0
LINE
  5
33D0
330
1A
100
AcDbEntity
  8
SEIHIN
100
AcDbLine
 10
97.32726675337989
 20
232.1730314792466
 30
0.0
 11
96.32726675337989
 21
232.1730314792466
 31
0.0
  0
LINE
  5
33D1
330
1A
100
AcDbEntity
  8
SEIHIN
100
AcDbLine
 10
97.75955475337992
 20
228.6730314792466
 30
0.0
 11
97.75955596337986
 21
229.1730314792466
 31
0.0
  0
LINE
  5
33D2
330
1A
100
AcDbEntity
  8
SEIHIN
100
AcDbLine
 10
95.75954809337986
 20
228.6730314792466
 30
0.0
 11
95.75954927337988
 21
229.1730314792466
 31
0.0
  0
LINE
  5
33D3
330
1A
100
AcDbEntity
  8
SEIHIN
100
AcDbLine
 10
97.6136501933799
 20
226.4451050792466
 30
0.0
 11
97.6136501933799
 21
227.4451050792466
 31
0.0
  0
ARC
  5
33D4
330
1A
100
AcDbEntity
  8
SEIHIN
100
AcDbCircle
 10
97.8272667533799
 20
229.1730314792466
 30
0.0
 40
0.5
100
AcDbArc
 50
180.0
 51
270.0
  0
ARC
  5
33D5
330
1A
100
AcDbEntity
  8
SEIHIN
100
AcDbCircle
 10
97.32726675337989
 20
228.6730314792466
 30
0.0
 40
1.0
100
AcDbArc
 50
180.0
 51
270.0
  0
LINE
  5
33D6
330
1A
100
AcDbEntity
  8
SEIHIN
100
AcDbLine
 10
97.32726675337989
 20
229.1730314792466
 30
0.0
 11
97.32726675337989
 21
232.1730314792466
 31
0.0
  0
LINE
  5
33D7
330
1A
100
AcDbEntity
  8
SEIHIN
100
AcDbLine
 10
96.32726675337989
 20
232.1730314792466
 30
0.0
 11
96.32726675337989
 21
228.6730314792466
 31
0.0
  0
LINE
  5
33D8
330
1A
100
AcDbEntity
  8
SEIHIN
100
AcDbLine
 10
110.2945939933798
 20
230.2374698792466
 30
0.0
 11
103.2945939933798
 21
230.2374698792466
 31
0.0
  0
LINE
  5
33D9
330
1A
100
AcDbEntity
  8
SEIHIN
100
AcDbLine
 10
103.2945939933798
 20
229.1730314792466
 30
0.0
 11
110.2945939933798
 21
229.1730314792466
 31
0.0
  0
LINE
  5
33DA
330
1A
100
AcDbEntity
  8
SEIHIN
100
AcDbLine
 10
103.2945939933798
 20
230.2374698792466
 30
0.0
 11
103.2945939933798
 21
229.1730314792466
 31
0.0
  0
LINE
  5
33DB
330
1A
100
AcDbEntity
  8
SEIHIN
100
AcDbLine
 10
110.2945939933798
 20
229.1730314792466
 30
0.0
 11
110.2945939933798
 21
230.2374698792466
 31
0.0
  0
ARC
  5
33DC
330
1A
100
AcDbEntity
  8
SEIHIN
100
AcDbCircle
 10
125.2006468833798
 20
225.4451050792466
 30
0.0
 40
2.0
100
AcDbArc
 50
0.0
 51
90.0
  0
ARC
  5
33DD
330
1A
100
AcDbEntity
  8
SEIHIN
100
AcDbCircle
 10
125.2006468833798
 20
225.4451050792466
 30
0.0
 40
2.0
100
AcDbArc
 50
0.0
 51
90.0
  0
ARC
  5
33DE
330
1A
100
AcDbEntity
  8
SEIHIN
100
AcDbCircle
 10
124.0530811763799
 20
225.4451050792466
 30
0.0
 40
2.0
100
AcDbArc
 50
0.0
 51
90.0
  0
ARC
  5
33DF
330
1A
100
AcDbEntity
  8
SEIHIN
100
AcDbCircle
 10
122.4618568683798
 20
223.3274754492466
 30
0.0
 40
2.000000014999997
100
AcDbArc
 50
0.0
 51
90.0
  0
ARC
  5
33E0
330
1A
100
AcDbEntity
  8
SEIHIN
100
AcDbCircle
 10
122.4618568683798
 20
219.0185874292466
 30
0.0
 40
2.0
100
AcDbArc
 50
270.0
 51
0.0
  0
ARC
  5
33E1
330
1A
100
AcDbEntity
  8
SEIHIN
100
AcDbCircle
 10
124.0530811763799
 20
216.9009577992466
 30
0.0
 40
2.0
100
AcDbArc
 50
270.0
 51
0.0
  0
LINE
  5
33E2
330
1A
100
AcDbEntity
  8
SEIHIN
100
AcDbLine
 10
116.7943637853799
 20
213.1730314392466
 30
0.0
 11
116.7943637853799
 21
213.6730314392466
 31
0.0
  0
LINE
  5
33E3
330
1A
100
AcDbEntity
  8
SEIHIN
100
AcDbLine
 10
121.319392589188
 20
214.6730314392466
 30
0.0
 11
121.319392589188
 21
213.6730314392466
 31
0.0
  0
LINE
  5
33E4
330
1A
100
AcDbEntity
  8
SEIHIN
100
AcDbLine
 10
120.7387065078799
 20
218.0185874292466
 30
0.0
 11
120.7387065078799
 21
224.3274754492466
 31
0.0
  0
ARC
  5
33E5
330
1A
100
AcDbEntity
  8
SEIHIN
100
AcDbCircle
 10
125.2006468833798
 20
216.9009577992466
 30
0.0
 40
2.0
100
AcDbArc
 50
270.0
 51
0.0
  0
ARC
  5
33E6
330
1A
100
AcDbEntity
  8
SEIHIN
100
AcDbCircle
 10
125.2006468833798
 20
216.9009577992466
 30
0.0
 40
2.0
100
AcDbArc
 50
270.0
 51
0.0
  0
LINE
  5
33E7
330
1A
100
AcDbEntity
  8
SEIHIN
100
AcDbLine
 10
124.4618568683798
 20
223.3274754492466
 30
0.0
 11
124.4618568683798
 21
219.0185874292466
 31
0.0
  0
LINE
  5
33E8
330
1A
100
AcDbEntity
  8
SEIHIN
100
AcDbLine
 10
127.2006468833798
 20
216.9009577992466
 30
0.0
 11
127.2006468833798
 21
225.4451050792466
 31
0.0
  0
LINE
  5
33E9
330
1A
100
AcDbEntity
  8
SEIHIN
100
AcDbLine
 10
126.0530811763799
 20
216.9009577992466
 30
0.0
 11
126.0530811763799
 21
225.4451050792466
 31
0.0
  0
LINE
  5
33EA
330
1A
100
AcDbEntity
  8
SEIHIN
100
AcDbLine
 10
116.7943637853799
 20
228.6730314792466
 30
0.0
 11
116.7943637853799
 21
229.1730314792466
 31
0.0
  0
LINE
  5
33EB
330
1A
100
AcDbEntity
  8
SEIHIN
100
AcDbLine
 10
121.319392589188
 20
228.6730314792466
 30
0.0
 11
121.319392589188
 21
227.6730314792466
 31
0.0
  0
LINE
  5
33FB
330
1A
100
AcDbEntity
  8
SEIHIN
100
AcDbLine
 10
199.3403396008941
 20
227.6730314792466
 30
0.0
 11
199.3403396008941
 21
224.1730314392466
 31
0.0
  0
LINE
  5
33FC
330
1A
100
AcDbEntity
  8
SEIHIN
100
AcDbLine
 10
211.1212704033798
 20
224.1730314392466
 30
0.0
 11
211.1212704033798
 21
227.6730314792466
 31
0.0
  0
ARC
  5
33FD
330
1A
100
AcDbEntity
  8
SEIHIN
100
AcDbCircle
 10
200.5903396008941
 20
221.1730314392466
 30
0.0
 40
3.249999999999984
100
AcDbArc
 50
112.6198649480409
 51
247.3801350519594
  0
LINE
  5
33FE
330
1A
100
AcDbEntity
  8
SEIHIN
100
AcDbLine
 10
195.7818595647328
 20
214.6730314392466
 30
0.0
 11
195.7818595647328
 21
213.6730314392466
 31
0.0
  0
LINE
  5
33FF
330
1A
100
AcDbEntity
  8
SEIHIN
100
AcDbLine
 10
214.4212704033798
 20
194.6730314392466
 30
0.0
 11
214.4212704033798
 21
211.3499798492466
 31
0.0
  0
LINE
  5
3400
330
1A
100
AcDbEntity
  8
SEIHIN
100
AcDbLine
 10
199.3403396008941
 20
218.1730314392466
 30
0.0
 11
199.3403396008941
 21
214.6730314392466
 31
0.0
  0
LINE
  5
3401
330
1A
100
AcDbEntity
  8
SEIHIN
100
AcDbLine
 10
211.1212704033798
 20
218.1730314392466
 30
0.0
 11
211.1212704033798
 21
214.6730314392466
 31
0.0
  0
ARC
  5
3402
330
1A
100
AcDbEntity
  8
SEIHIN
100
AcDbCircle
 10
210.6212704033798
 20
214.1000717792466
 30
0.0
 40
0.499999998318523
100
AcDbArc
 50
238.6583206989034
 51
261.0000002798936
  0
LINE
  5
3403
330
1A
100
AcDbEntity
  8
SEIHIN
100
AcDbLine
 10
210.3553318133797
 20
212.4210015992466
 30
0.0
 11
213.9994876333798
 21
211.8438240192466
 31
0.0
  0
ARC
  5
3404
330
1A
100
AcDbEntity
  8
SEIHIN
100
AcDbCircle
 10
210.6212704033798
 20
214.1000717792466
 30
0.0
 40
1.700000000774792
100
AcDbArc
 50
194.5485451942491
 51
261.0000000241316
  0
LINE
  5
3405
330
1A
100
AcDbEntity
  8
SEIHIN
100
AcDbLine
 10
214.4212704033798
 20
209.7520899392466
 30
0.0
 11
212.4212704033798
 21
212.0937890792466
 31
0.0
  0
LINE
  5
3406
330
1A
100
AcDbEntity
  8
SEIHIN
100
AcDbLine
 10
210.5430531733798
 20
213.6062276092466
 30
0.0
 11
214.1872089933798
 21
213.0290500292466
 31
0.0
  0
ARC
  5
3407
330
1A
100
AcDbEntity
  8
SEIHIN
100
AcDbCircle
 10
211.1212707933798
 20
221.1730314392466
 30
0.0
 40
3.000000000000029
100
AcDbArc
 50
270.0000061115495
 51
90.00000954929655
  0
LINE
  5
3408
330
1A
100
AcDbEntity
  8
SEIHIN
100
AcDbLine
 10
211.5212704033798
 20
225.3438475792466
 30
0.0
 11
211.5212704033798
 21
224.1462452392466
 31
0.0
  0
ARC
  5
3409
330
1A
100
AcDbEntity
  8
SEIHIN
100
AcDbCircle
 10
210.5212704033798
 20
225.3438475792466
 30
0.0
 40
0.9999999999999971
100
AcDbArc
 50
0.0
 51
53.13010235415639
  0
LINE
  5
340A
330
1A
100
AcDbEntity
  8
SEIHIN
100
AcDbLine
 10
211.5212704033798
 20
217.0022152992466
 30
0.0
 11
211.5212704033798
 21
218.1998176392466
 31
0.0
  0
ARC
  5
340B
330
1A
100
AcDbEntity
  8
SEIHIN
100
AcDbCircle
 10
210.5212704033798
 20
217.0022152992466
 30
0.0
 40
0.9999999999999971
100
AcDbArc
 50
306.8698976458433
 51
0.0
  0
LINE
  5
340C
330
1A
100
AcDbEntity
  8
SEIHIN
100
AcDbLine
 10
195.7818595647328
 20
228.6730314792466
 30
0.0
 11
195.7818595647328
 21
227.6730314792466
 31
0.0
  0
LINE
  5
340D
330
1A
100
AcDbEntity
  8
SEIHIN
100
AcDbLine
 10
214.4212704033798
 20
247.6730314792466
 30
0.0
 11
214.4212704033798
 21
230.9960829792466
 31
0.0
  0
ARC
  5
340E
330
1A
100
AcDbEntity
  8
SEIHIN
100
AcDbCircle
 10
210.6212704033798
 20
228.2459910792466
 30
0.0
 40
0.5000000387562692
100
AcDbArc
 50
98.99999918232442
 51
121.3416757248727
  0
LINE
  5
340F
330
1A
100
AcDbEntity
  8
SEIHIN
100
AcDbLine
 10
210.3553318133797
 20
229.9250612792466
 30
0.0
 11
213.9994876333798
 21
230.5022388792466
 31
0.0
  0
ARC
  5
3410
330
1A
100
AcDbEntity
  8
SEIHIN
100
AcDbCircle
 10
210.6212704033798
 20
228.2459910792466
 30
0.0
 40
1.700000018187683
100
AcDbArc
 50
98.99999987042138
 51
165.4514528483881
  0
LINE
  5
3411
330
1A
100
AcDbEntity
  8
SEIHIN
100
AcDbLine
 10
210.5430531733798
 20
228.7398352792466
 30
0.0
 11
214.1872089933798
 21
229.3170128792466
 31
0.0
  0
LINE
  5
3412
330
1A
100
AcDbEntity
  8
SEIHIN
100
AcDbLine
 10
214.4212704033798
 20
232.5939729792466
 30
0.0
 11
212.4212704033798
 21
230.2522737792466
 31
0.0
  0
DIMENSION
  5
3413
330
1A
100
AcDbEntity
  8
SUNPOU
100
AcDbDimension
  2
*D6
 10
350.0567606007234
 20
168.595427156496
 30
0.0
 11
323.5567606007234
 21
171.095427156496
 31
0.0
 70
    32
 71
     5
 42
-1.0
  3
STANDARD
100
AcDbAlignedDimension
 13
297.0567606007234
 23
115.6213353666446
 33
0.0
 14
350.0567606007234
 24
115.6213353666446
 34
0.0
100
AcDbRotatedDimension
1001
ACAD
1000
DSTYLE
1002
{
1070
    41
1040
3.0
1070
    42
1040
3.0
1070
    43
1040
7.0
1070
    44
1040
1.5
1070
    73
1070
     0
1070
    74
1070
     0
1070
    77
1070
     3
1070
   140
1040
3.0
1070
   141
1040
3.0
1070
   147
1040
1.0
1070
   172
1070
     1
1070
   173
1070
     1
1070
   176
1070
   256
1070
   177
1070
   256
1070
   178
1070
   256
1070
   271
1070
     0
1070
   272
1070
     0
1070
   341
1005
B2
1070
     6
1000
OPEN
1070
     7
1000
OPEN
1002
}
  0
LINE
  5
3414
330
1A
100
AcDbEntity
  8
CENTER L
100
AcDbLine
 10
350.3067605733495
 20
103.6213353666446
 30
0.0
 11
335.8067606280974
 21
103.6213353666446
 31
0.0
  0
LINE
  5
3415
330
1A
100
AcDbEntity
  8
CENTER L
100
AcDbLine
 10
350.6567605724508
 20
87.12133536664465
 30
0.0
 11
338.456760628996
 21
87.12133536664465
 31
0.0
  0
LINE
  5
3416
330
1A
100
AcDbEntity
  8
CENTER L
100
AcDbLine
 10
350.6567605724508
 20
112.1213353666446
 30
0.0
 11
338.456760628996
 21
112.1213353666446
 31
0.0
  0
CIRCLE
  5
3417
330
1A
100
AcDbEntity
  8
SEIHIN
100
AcDbCircle
 10
344.5567606007234
 20
112.1213353666446
 30
0.0
 40
2.099999971727392
  0
LINE
  5
3418
330
1A
100
AcDbEntity
  8
SEIHIN
100
AcDbLine
 10
331.0567606007234
 20
117.6213353666446
 30
0.0
 11
348.0567606007234
 21
117.6213353666446
 31
0.0
  0
CIRCLE
  5
3419
330
1A
100
AcDbEntity
  8
SEIHIN
100
AcDbCircle
 10
343.0567606007234
 20
103.6213353666446
 30
0.0
 40
3.249999972626095
  0
CIRCLE
  5
341A
330
1A
100
AcDbEntity
  8
SEIHIN
100
AcDbCircle
 10
344.5567606007234
 20
87.12133536664465
 30
0.0
 40
2.099999986565493
  0
LINE
  5
341B
330
1A
100
AcDbEntity
  8
SEIHIN
100
AcDbLine
 10
348.0567606007234
 20
81.62133536664464
 30
0.0
 11
299.0567606007234
 21
81.62133536664464
 31
0.0
  0
DIMENSION
  5
341C
330
1A
100
AcDbEntity
  8
SUNPOU
100
AcDbDimension
  2
*D7
 10
221.0770443983635
 20
84.40696382664464
 30
0.0
 11
218.5770443983635
 21
102.4069638276446
 31
0.0
 70
    32
 71
     5
 42
-1.0
  3
STANDARD
100
AcDbAlignedDimension
 13
215.6212704033797
 23
120.4069638286446
 33
0.0
 14
215.6212704033797
 24
84.40696382664464
 34
0.0
 50
90.0
100
AcDbRotatedDimension
1001
ACAD
1000
DSTYLE
1002
{
1070
    41
1040
3.0
1070
    42
1040
3.0
1070
    43
1040
7.0
1070
    44
1040
1.5
1070
    73
1070
     0
1070
    74
1070
     0
1070
    77
1070
     3
1070
   140
1040
3.0
1070
   141
1040
3.0
1070
   147
1040
1.0
1070
   172
1070
     1
1070
   173
1070
     1
1070
   176
1070
   256
1070
   177
1070
   256
1070
   178
1070
   256
1070
   271
1070
     0
1070
   272
1070
     0
1070
   341
1005
B2
1070
     6
1000
OPEN
1070
     7
1000
OPEN
1002
}
  0
LINE
  5
341D
330
1A
100
AcDbEntity
  8
SEIHIN
  6
DASHED
 62
     2
100
AcDbLine
 10
229.4212704033798
 20
120.4069638286446
 30
0.0
 11
229.4212704033798
 21
84.40696382664464
 31
0.0
  0
LINE
  5
341F
330
1A
100
AcDbEntity
  8
SEIHIN
  6
DASHED
 62
     2
100
AcDbLine
 10
223.9212704033798
 20
84.40696382664464
 30
0.0
 11
223.9212704033798
 21
120.4069638286446
 31
0.0
  0
LINE
  5
3420
330
1A
100
AcDbEntity
  8
SEIHIN
  6
DASHED
 62
     2
100
AcDbLine
 10
230.6212704033798
 20
120.4069638286446
 30
0.0
 11
230.6212704033798
 21
84.40696382664464
 31
0.0
  0
DIMENSION
  5
3421
330
1A
100
AcDbEntity
  8
SUNPOU
100
AcDbDimension
  2
*D8
 10
269.0834060349795
 20
81.62133536664466
 30
0.0
 11
266.5834060349796
 21
99.6213353666447
 31
0.0
 70
    32
 71
     5
 42
-1.0
  3
STANDARD
100
AcDbAlignedDimension
 13
299.0567606007234
 23
117.6213353666446
 33
0.0
 14
299.0567606007234
 24
81.62133536664464
 34
0.0
 50
90.0
100
AcDbRotatedDimension
1001
ACAD
1000
DSTYLE
1002
{
1070
    41
1040
3.0
1070
    42
1040
3.0
1070
    43
1040
7.0
1070
    44
1040
1.5
1070
    73
1070
     0
1070
    74
1070
     0
1070
    77
1070
     3
1070
   140
1040
3.0
1070
   141
1040
3.0
1070
   147
1040
1.0
1070
   172
1070
     1
1070
   173
1070
     1
1070
   176
1070
   256
1070
   177
1070
   256
1070
   178
1070
   256
1070
   271
1070
     0
1070
   272
1070
     0
1070
   341
1005
B2
1070
     6
1000
OPEN
1070
     7
1000
OPEN
1002
}
  0
LINE
  5
3422
330
1A
100
AcDbEntity
  8
CENTER L
100
AcDbLine
 10
323.5567606007234
 20
140.6213353666446
 30
0.0
 11
323.5567606007234
 21
74.62133536664464
 31
0.0
  0
LINE
  5
3423
330
1A
100
AcDbEntity
  8
CENTER L
100
AcDbLine
 10
343.0567606007234
 20
96.37133539401858
 30
0.0
 11
343.0567606007234
 21
110.8713353392707
 31
0.0
  0
LINE
  5
3424
330
1A
100
AcDbEntity
  8
CENTER L
100
AcDbLine
 10
304.0567606007234
 20
96.37133539401858
 30
0.0
 11
304.0567606007234
 21
110.8713353392707
 31
0.0
  0
LINE
  5
3425
330
1A
100
AcDbEntity
  8
SEIHIN
100
AcDbLine
 10
331.9278750007234
 20
108.1213353666446
 30
0.0
 11
331.9278750007234
 21
91.12133536664464
 31
0.0
  0
LINE
  5
3426
330
1A
100
AcDbEntity
  8
SEIHIN
100
AcDbLine
 10
331.0567606007234
 20
108.1213353666446
 30
0.0
 11
331.0567606007234
 21
91.12133536664464
 31
0.0
  0
CIRCLE
  5
3427
330
1A
100
AcDbEntity
  8
SEIHIN
100
AcDbCircle
 10
304.0567606007234
 20
103.6213353666446
 30
0.0
 40
3.249999972626075
  0
LINE
  5
3428
330
1A
100
AcDbEntity
  8
SEIHIN
100
AcDbLine
 10
315.1856462007234
 20
108.1213353666446
 30
0.0
 11
315.1856462007234
 21
91.12133536664464
 31
0.0
  0
CIRCLE
  5
3429
330
1A
100
AcDbEntity
  8
SEIHIN
100
AcDbCircle
 10
323.5567606007234
 20
99.62133536664465
 30
0.0
 40
2.999999969510066
  0
LINE
  5
342A
330
1A
100
AcDbEntity
  8
SEIHIN
100
AcDbLine
 10
297.0567606007234
 20
115.6213353666446
 30
0.0
 11
297.0567606007234
 21
83.62133536664464
 31
0.0
  0
LINE
  5
342B
330
1A
100
AcDbEntity
  8
SEIHIN
100
AcDbLine
 10
316.0567606007234
 20
108.1213353666446
 30
0.0
 11
316.0567606007234
 21
91.12133536664464
 31
0.0
  0
ARC
  5
342C
330
1A
100
AcDbEntity
  8
SEIHIN
100
AcDbCircle
 10
323.5567606007234
 20
99.62133536664465
 30
0.0
 40
5.024896822470276
100
AcDbArc
 50
126.6572807698119
 51
53.34271923018806
  0
LINE
  5
342D
330
1A
100
AcDbEntity
  8
SEIHIN
100
AcDbLine
 10
330.0567606007234
 20
86.53463718664466
 30
0.0
 11
330.0567606007234
 21
133.6213353666446
 31
0.0
  0
LINE
  5
342E
330
1A
100
AcDbEntity
  8
SEIHIN
100
AcDbLine
 10
317.0567606007234
 20
86.53463718664466
 30
0.0
 11
317.0567606007234
 21
133.6213353666446
 31
0.0
  0
LINE
  5
342F
330
1A
100
AcDbEntity
  8
SEIHIN
100
AcDbLine
 10
331.0567606007234
 20
86.53463718664466
 30
0.0
 11
331.0567606007234
 21
133.6213353666446
 31
0.0
  0
LINE
  5
3430
330
1A
100
AcDbEntity
  8
SEIHIN
100
AcDbLine
 10
316.0567606007234
 20
86.53463718664466
 30
0.0
 11
316.0567606007234
 21
133.6213353666446
 31
0.0
  0
DIMENSION
  5
3431
330
1A
100
AcDbEntity
  8
SUNPOU
100
AcDbDimension
  2
*D9
 10
278.956811397573
 20
81.62133536664466
 30
0.0
 11
276.456811397573
 21
84.3713353666447
 31
0.0
 70
    32
 71
     5
 42
-1.0
  3
STANDARD
100
AcDbAlignedDimension
 13
296.456760628996
 23
87.12133536664465
 33
0.0
 14
299.0567606007234
 24
81.62133536664464
 34
0.0
 50
90.0
100
AcDbRotatedDimension
1001
ACAD
1000
DSTYLE
1002
{
1070
    41
1040
3.0
1070
    42
1040
3.0
1070
    43
1040
7.0
1070
    44
1040
1.5
1070
    73
1070
     0
1070
    74
1070
     0
1070
    77
1070
     3
1070
   140
1040
3.0
1070
   141
1040
3.0
1070
   147
1040
1.0
1070
   172
1070
     1
1070
   173
1070
     1
1070
   176
1070
   256
1070
   177
1070
   256
1070
   178
1070
   256
1070
   271
1070
     0
1070
   272
1070
     0
1070
   341
1005
B2
1070
     6
1000
OPEN
1070
     7
1000
OPEN
1002
}
  0
LINE
  5
3432
330
1A
100
AcDbEntity
  8
CENTER L
100
AcDbLine
 10
238.9610538833798
 20
90.40696382664464
 30
0.0
 11
223.7610538833798
 21
90.40696382664464
 31
0.0
  0
LINE
  5
3433
330
1A
100
AcDbEntity
  8
SEIHIN
  6
DASHED
 62
     2
100
AcDbLine
 10
230.6212704033798
 20
84.40696382664464
 30
0.0
 11
223.9212704033798
 21
84.40696382664464
 31
0.0
  0
LINE
  5
3434
330
1A
100
AcDbEntity
  8
SEIHIN
100
AcDbLine
 10
312.5785225007234
 20
91.12133536664464
 30
0.0
 11
316.0567606007234
 21
91.12133536664464
 31
0.0
  0
LINE
  5
3435
330
1A
100
AcDbEntity
  8
SEIHIN
100
AcDbLine
 10
312.5785225007234
 20
88.12133536664465
 30
0.0
 11
317.0567606007234
 21
88.12133536664465
 31
0.0
  0
LINE
  5
3436
330
1A
100
AcDbEntity
  8
CENTER L
100
AcDbLine
 10
308.6567605724508
 20
87.12133536664465
 30
0.0
 11
296.456760628996
 21
87.12133536664465
 31
0.0
  0
LINE
  5
3437
330
1A
100
AcDbEntity
  8
CENTER L
100
AcDbLine
 10
302.5567606007234
 20
81.02133539491726
 30
0.0
 11
302.5567606007234
 21
93.22133533837202
 31
0.0
  0
CIRCLE
  5
3438
330
1A
100
AcDbEntity
  8
SEIHIN
100
AcDbCircle
 10
302.5567606007234
 20
87.12133536664465
 30
0.0
 40
2.099999986565482
  0
ARC
  5
3439
330
1A
100
AcDbEntity
  8
SEIHIN
100
AcDbCircle
 10
299.0567606007234
 20
83.62133536664464
 30
0.0
 40
2.0
100
AcDbArc
 50
180.0
 51
270.0
  0
LINE
  5
343A
330
1A
100
AcDbEntity
  8
SEIHIN
100
AcDbLine
 10
312.5785225007234
 20
91.12133536664464
 30
0.0
 11
312.5785225007234
 21
88.12133536664465
 31
0.0
  0
ARC
  5
343B
330
1A
100
AcDbEntity
  8
SEIHIN
100
AcDbCircle
 10
328.0567606007234
 20
86.53463718664466
 30
0.0
 40
2.0
100
AcDbArc
 50
270.0
 51
0.0
  0
LINE
  5
343C
330
1A
100
AcDbEntity
  8
SEIHIN
100
AcDbLine
 10
328.0567606007234
 20
84.53463718664465
 30
0.0
 11
319.0567606007234
 21
84.53463718664465
 31
0.0
  0
ARC
  5
343D
330
1A
100
AcDbEntity
  8
SEIHIN
100
AcDbCircle
 10
319.0567606007234
 20
86.53463718664466
 30
0.0
 40
2.0
100
AcDbArc
 50
180.0
 51
270.0
  0
LINE
  5
343E
330
1A
100
AcDbEntity
  8
SEIHIN
100
AcDbLine
 10
316.0567606007234
 20
91.12133536664464
 30
0.0
 11
316.0567606007234
 21
88.12133536664465
 31
0.0
  0
LINE
  5
343F
330
1A
100
AcDbEntity
  8
SEIHIN
100
AcDbLine
 10
315.1856462007234
 20
88.12133536664465
 30
0.0
 11
315.1856462007234
 21
81.62133536664464
 31
0.0
  0
LINE
  5
3440
330
1A
100
AcDbEntity
  8
SEIHIN
100
AcDbLine
 10
316.0567606007234
 20
88.12133536664465
 30
0.0
 11
316.0567606007234
 21
81.62133536664464
 31
0.0
  0
LINE
  5
3441
330
1A
100
AcDbEntity
  8
CENTER L
100
AcDbLine
 10
344.5567606007234
 20
81.02133539491726
 30
0.0
 11
344.5567606007234
 21
93.22133533837202
 31
0.0
  0
LINE
  5
3442
330
1A
100
AcDbEntity
  8
SEIHIN
100
AcDbLine
 10
334.5349987007234
 20
88.12133536664465
 30
0.0
 11
330.0567606007234
 21
88.12133536664465
 31
0.0
  0
LINE
  5
3443
330
1A
100
AcDbEntity
  8
SEIHIN
100
AcDbLine
 10
334.5349987007234
 20
91.12133536664464
 30
0.0
 11
331.0567606007234
 21
91.12133536664464
 31
0.0
  0
LINE
  5
3444
330
1A
100
AcDbEntity
  8
SEIHIN
100
AcDbLine
 10
331.0567606007234
 20
91.12133536664464
 30
0.0
 11
331.0567606007234
 21
88.12133536664465
 31
0.0
  0
LINE
  5
3445
330
1A
100
AcDbEntity
  8
SEIHIN
100
AcDbLine
 10
331.0567606007234
 20
88.12133536664465
 30
0.0
 11
331.0567606007234
 21
81.62133536664464
 31
0.0
  0
LINE
  5
3446
330
1A
100
AcDbEntity
  8
SEIHIN
100
AcDbLine
 10
331.9278750007234
 20
88.12133536664465
 30
0.0
 11
331.9278750007234
 21
81.62133536664464
 31
0.0
  0
LINE
  5
3447
330
1A
100
AcDbEntity
  8
SEIHIN
100
AcDbLine
 10
334.5349987007234
 20
91.12133536664464
 30
0.0
 11
334.5349987007234
 21
88.12133536664465
 31
0.0
  0
TEXT
  5
3448
330
1A
100
AcDbEntity
  8
SUNPOU
100
AcDbText
 10
269.0996244245101
 20
143.5151356893752
 30
0.0
 40
3.0
  1
4-φ4.2
100
AcDbText
  0
LWPOLYLINE
  5
3449
330
1A
100
AcDbEntity
  8
SUNPOU
100
AcDbPolyline
 90
        3
 70
     0
 43
0.0
 10
299.5015646834992
 20
116.1637659385693
 10
286.1812556979887
 20
142.1277524913874
 10
268.1951119232578
 20
142.1277524913874
1001
ACAD
1000
DSTYLE
1002
{
1070
    41
1040
3.0
1070
    42
1040
3.0
1070
    43
1040
7.0
1070
    44
1040
1.5
1070
    73
1070
     0
1070
    74
1070
     0
1070
    77
1070
     0
1070
   140
1040
3.0
1070
   141
1040
3.0
1070
   147
1040
1.0
1070
   172
1070
     1
1070
   173
1070
     1
1070
   176
1070
   256
1070
   177
1070
   256
1070
   178
1070
   256
1070
   271
1070
     0
1070
   272
1070
     0
1070
   341
1005
B2
1070
   343
1005
B2
1070
   344
1005
B2
1002
}
  0
DIMENSION
  5
344A
330
1A
100
AcDbEntity
  8
SUNPOU
100
AcDbDimension
  2
*D10
 10
278.9568113975731
 20
112.1213353666446
 30
0.0
 11
276.4568113975731
 21
114.8713353666447
 31
0.0
 70
    32
 71
     5
 42
-1.0
  3
STANDARD
100
AcDbAlignedDimension
 13
299.0567606007234
 23
117.6213353666446
 33
0.0
 14
296.456760628996
 24
112.1213353666446
 34
0.0
 50
90.0
100
AcDbRotatedDimension
1001
ACAD
1000
DSTYLE
1002
{
1070
    41
1040
3.0
1070
    42
1040
3.0
1070
    43
1040
7.0
1070
    44
1040
1.5
1070
    73
1070
     0
1070
    74
1070
     0
1070
    77
1070
     3
1070
   140
1040
3.0
1070
   141
1040
3.0
1070
   147
1040
1.0
1070
   172
1070
     1
1070
   173
1070
     1
1070
   176
1070
   256
1070
   177
1070
   256
1070
   178
1070
   256
1070
   271
1070
     0
1070
   272
1070
     0
1070
   341
1005
B2
1070
     6
1000
OPEN
1070
     7
1000
OPEN
1002
}
  0
DIMENSION
  5
344B
330
1A
100
AcDbEntity
  8
SUNPOU
100
AcDbDimension
  2
*D11
 10
230.6212704033798
 20
157.3498659135242
 30
0.0
 11
223.1212704033798
 21
159.8498659135242
 31
0.0
 70
    32
 71
     5
 42
-1.0
  3
STANDARD
100
AcDbAlignedDimension
 13
215.6212704033797
 23
120.4069638286446
 33
0.0
 14
230.6212704033798
 24
120.4069638286446
 34
0.0
100
AcDbRotatedDimension
1001
ACAD
1000
DSTYLE
1002
{
1070
    41
1040
3.0
1070
    42
1040
3.0
1070
    43
1040
7.0
1070
    44
1040
1.5
1070
    73
1070
     0
1070
    74
1070
     0
1070
    77
1070
     3
1070
   140
1040
3.0
1070
   141
1040
3.0
1070
   147
1040
1.0
1070
   172
1070
     1
1070
   173
1070
     1
1070
   176
1070
   256
1070
   177
1070
   256
1070
   178
1070
   256
1070
   271
1070
     0
1070
   272
1070
     0
1070
   341
1005
B2
1070
     6
1000
OPEN
1070
     7
1000
OPEN
1002
}
  0
LINE
  5
344C
330
1A
100
AcDbEntity
  8
CENTER L
100
AcDbLine
 10
238.9610538833798
 20
115.4069638266446
 30
0.0
 11
223.7610538833798
 21
115.4069638266446
 31
0.0
  0
LINE
  5
344D
330
1A
100
AcDbEntity
  8
CENTER L
100
AcDbLine
 10
238.9610538833798
 20
106.9069638266446
 30
0.0
 11
223.7610538833798
 21
106.9069638266446
 31
0.0
  0
LINE
  5
344F
330
1A
100
AcDbEntity
  8
SEIHIN
  6
DASHED
 62
     2
100
AcDbLine
 10
225.1212704033798
 20
126.4069644806446
 30
0.0
 11
225.1212704033798
 21
120.4069638286446
 31
0.0
  0
LINE
  5
3450
330
1A
100
AcDbEntity
  8
SEIHIN
  6
DASHED
 62
     2
100
AcDbLine
 10
230.1212704033797
 20
130.7658627766446
 30
0.0
 11
230.1212704033797
 21
120.4069638286446
 31
0.0
  0
LINE
  5
3451
330
1A
100
AcDbEntity
  8
SEIHIN
  6
DASHED
 62
     2
100
AcDbLine
 10
223.9212704033798
 20
120.4069638286446
 30
0.0
 11
230.6212704033798
 21
120.4069638286446
 31
0.0
  0
ARC
  5
3452
330
1A
100
AcDbEntity
  8
SEIHIN
  6
DASHED
 62
     2
100
AcDbCircle
 10
221.1212704033798
 20
126.4069638286446
 30
0.0
 40
4.000000000161865
100
AcDbArc
 50
0.0000093392110014
 51
169.1831807624262
  0
TEXT
  5
3453
330
1A
100
AcDbEntity
  8
SUNPOU
100
AcDbText
 10
214.2212704010234
 20
162.8562510518337
 30
0.0
 40
3.0
  1
（スライド幅）
100
AcDbText
  0
DIMENSION
  5
3454
330
1A
100
AcDbEntity
  8
SUNPOU
100
AcDbDimension
  2
*D12
 10
238.5172813207783
 20
194.6730314392466
 30
0.0
 11
236.0172813207782
 21
221.1730314592466
 31
0.0
 70
    32
 71
     5
 42
-1.0
  3
STANDARD
100
AcDbAlignedDimension
 13
215.6212704033797
 23
247.6730314792466
 33
0.0
 14
215.6212704033797
 24
194.6730314392466
 34
0.0
 50
90.0
100
AcDbRotatedDimension
1001
ACAD
1000
DSTYLE
1002
{
1070
    41
1040
3.0
1070
    42
1040
3.0
1070
    43
1040
7.0
1070
    44
1040
1.5
1070
    73
1070
     0
1070
    74
1070
     0
1070
    77
1070
     3
1070
   140
1040
3.0
1070
   141
1040
3.0
1070
   147
1040
1.0
1070
   172
1070
     1
1070
   173
1070
     1
1070
   176
1070
   256
1070
   177
1070
   256
1070
   178
1070
   256
1070
   271
1070
     0
1070
   272
1070
     0
1070
   341
1005
B2
1070
     6
1000
OPEN
1070
     7
1000
OPEN
1002
}
  0
LINE
  5
3455
330
1A
100
AcDbEntity
  8
SEIHIN
100
AcDbLine
 10
215.6212704033797
 20
211.3499798492466
 30
0.0
 11
215.6212704033797
 21
194.6730314392466
 31
0.0
  0
LINE
  5
3456
330
1A
100
AcDbEntity
  8
SEIHIN
100
AcDbLine
 10
215.1212704033798
 20
213.6730314392466
 30
0.0
 11
215.1212704033798
 21
214.6730314392466
 31
0.0
  0
LINE
  5
3457
330
1A
100
AcDbEntity
  8
SEIHIN
100
AcDbLine
 10
215.6212704033797
 20
230.9960829792466
 30
0.0
 11
215.6212704033797
 21
247.6730314792466
 31
0.0
  0
LINE
  5
3458
330
1A
100
AcDbEntity
  8
SEIHIN
100
AcDbLine
 10
215.1212704033798
 20
228.6730314792466
 30
0.0
 11
215.1212704033798
 21
227.6730314792466
 31
0.0
  0
DIMENSION
  5
3459
330
1A
100
AcDbEntity
  8
SUNPOU
100
AcDbDimension
  2
*D13
 10
344.5567606007234
 20
160.6551245928535
 30
0.0
 11
323.5567606007234
 21
163.1551245928535
 31
0.0
 70
    32
 71
     5
 42
-1.0
  3
STANDARD
100
AcDbAlignedDimension
 13
302.5567606007234
 23
118.221335338372
 33
0.0
 14
344.5567606007234
 24
118.221335338372
 34
0.0
100
AcDbRotatedDimension
1001
ACAD
1000
DSTYLE
1002
{
1070
    41
1040
3.0
1070
    42
1040
3.0
1070
    43
1040
7.0
1070
    44
1040
1.5
1070
    73
1070
     0
1070
    74
1070
     0
1070
    77
1070
     3
1070
   140
1040
3.0
1070
   141
1040
3.0
1070
   147
1040
1.0
1070
   172
1070
     1
1070
   173
1070
     1
1070
   176
1070
   256
1070
   177
1070
   256
1070
   178
1070
   256
1070
   271
1070
     0
1070
   272
1070
     0
1070
   341
1005
B2
1070
     6
1000
OPEN
1070
     7
1000
OPEN
1002
}
  0
DIMENSION
  5
345A
330
1A
100
AcDbEntity
  8
SUNPOU
100
AcDbDimension
  2
*D14
 10
343.0567606007234
 20
152.233592043246
 30
0.0
 11
323.5567606007234
 21
154.733592043246
 31
0.0
 70
    32
 71
     5
 42
-1.0
  3
STANDARD
100
AcDbAlignedDimension
 13
304.0567606007234
 23
110.6516415613725
 33
0.0
 14
343.0567606007234
 24
110.6516415613725
 34
0.0
100
AcDbRotatedDimension
1001
ACAD
1000
DSTYLE
1002
{
1070
    41
1040
3.0
1070
    42
1040
3.0
1070
    43
1040
7.0
1070
    44
1040
1.5
1070
    73
1070
     0
1070
    74
1070
     0
1070
    77
1070
     3
1070
   140
1040
3.0
1070
   141
1040
3.0
1070
   147
1040
1.0
1070
   172
1070
     1
1070
   173
1070
     1
1070
   176
1070
   256
1070
   177
1070
   256
1070
   178
1070
   256
1070
   271
1070
     0
1070
   272
1070
     0
1070
   341
1005
B2
1070
     6
1000
OPEN
1070
     7
1000
OPEN
1002
}
  0
LINE
  5
345B
330
1A
100
AcDbEntity
  8
SEIHIN
100
AcDbLine
 10
316.0567606007234
 20
111.1213353666446
 30
0.0
 11
312.5785225007234
 21
111.1213353666446
 31
0.0
  0
LINE
  5
345C
330
1A
100
AcDbEntity
  8
SEIHIN
100
AcDbLine
 10
316.0567606007234
 20
108.1213353666446
 30
0.0
 11
312.5785225007234
 21
108.1213353666446
 31
0.0
  0
LINE
  5
345D
330
1A
100
AcDbEntity
  8
SEIHIN
100
AcDbLine
 10
316.0567606007234
 20
117.6213353666446
 30
0.0
 11
299.0567606007234
 21
117.6213353666446
 31
0.0
  0
LINE
  5
345E
330
1A
100
AcDbEntity
  8
CENTER L
100
AcDbLine
 10
308.6567605724508
 20
112.1213353666446
 30
0.0
 11
296.456760628996
 21
112.1213353666446
 31
0.0
  0
LINE
  5
345F
330
1A
100
AcDbEntity
  8
CENTER L
100
AcDbLine
 10
311.3067605733495
 20
103.6213353666446
 30
0.0
 11
296.8067606280973
 21
103.6213353666446
 31
0.0
  0
LINE
  5
3460
330
1A
100
AcDbEntity
  8
CENTER L
100
AcDbLine
 10
302.5567606007234
 20
106.0213353949172
 30
0.0
 11
302.5567606007234
 21
118.221335338372
 31
0.0
  0
CIRCLE
  5
3461
330
1A
100
AcDbEntity
  8
SEIHIN
100
AcDbCircle
 10
302.5567606007234
 20
112.1213353666446
 30
0.0
 40
2.099999971727392
  0
INSERT
  5
3462
330
1A
100
AcDbEntity
  8
SUNPOU
100
AcDbBlockReference
  2
_OPEN
 10
300.8709577471684
 20
113.4945408380626
 30
0.0
 41
3.0
 42
3.0
 43
3.0
 50
297.15919302573
1001
ACAD
1000
DSTYLE
1002
{
1070
    41
1040
3.0
1070
    42
1040
3.0
1070
    43
1040
7.0
1070
    44
1040
1.5
1070
    73
1070
     0
1070
    74
1070
     0
1070
    77
1070
     0
1070
   140
1040
3.0
1070
   141
1040
3.0
1070
   147
1040
1.0
1070
   172
1070
     1
1070
   173
1070
     1
1070
   176
1070
   256
1070
   177
1070
   256
1070
   178
1070
   256
1070
   271
1070
     0
1070
   272
1070
     0
1070
   341
1005
B2
1070
   343
1005
B2
1070
   344
1005
B2
1002
}
  0
ARC
  5
3463
330
1A
100
AcDbEntity
  8
SEIHIN
100
AcDbCircle
 10
299.0567606007234
 20
115.6213353666446
 30
0.0
 40
2.0
100
AcDbArc
 50
90.0
 51
180.0
  0
LINE
  5
3464
330
1A
100
AcDbEntity
  8
SEIHIN
100
AcDbLine
 10
312.5785225007234
 20
111.1213353666446
 30
0.0
 11
312.5785225007234
 21
108.1213353666446
 31
0.0
  0
LINE
  5
3465
330
1A
100
AcDbEntity
  8
SEIHIN
100
AcDbLine
 10
326.5567606007234
 20
128.6071151566446
 30
0.0
 11
330.0567606007234
 21
128.6071151566446
 31
0.0
  0
LINE
  5
3466
330
1A
100
AcDbEntity
  8
SEIHIN
100
AcDbLine
 10
320.5567606007234
 20
128.6071154766446
 30
0.0
 11
320.5567606007234
 21
103.6524131476446
 31
0.0
  0
LINE
  5
3467
330
1A
100
AcDbEntity
  8
SEIHIN
100
AcDbLine
 10
326.5567606007234
 20
128.6071155166446
 30
0.0
 11
326.5567606007234
 21
103.6524131476446
 31
0.0
  0
LINE
  5
3468
330
1A
100
AcDbEntity
  8
SEIHIN
100
AcDbLine
 10
315.1856462007234
 20
117.6213353666446
 30
0.0
 11
315.1856462007234
 21
111.1213353666446
 31
0.0
  0
LINE
  5
3469
330
1A
100
AcDbEntity
  8
SEIHIN
100
AcDbLine
 10
316.0567606007234
 20
117.6213353666446
 30
0.0
 11
316.0567606007234
 21
111.1213353666446
 31
0.0
  0
LINE
  5
346A
330
1A
100
AcDbEntity
  8
SEIHIN
100
AcDbLine
 10
316.0567606007234
 20
111.1213353666446
 30
0.0
 11
316.0567606007234
 21
108.1213353666446
 31
0.0
  0
ARC
  5
346B
330
1A
100
AcDbEntity
  8
SEIHIN
100
AcDbCircle
 10
323.5567606007234
 20
128.6071151566446
 30
0.0
 40
3.000000000000019
100
AcDbArc
 50
0.0000068754932962
 51
179.99999388845
  0
LINE
  5
346C
330
1A
100
AcDbEntity
  8
SEIHIN
100
AcDbLine
 10
317.0567606007234
 20
128.6071151566446
 30
0.0
 11
320.5567606007234
 21
128.6071151566446
 31
0.0
  0
LINE
  5
346D
330
1A
100
AcDbEntity
  8
SEIHIN
100
AcDbLine
 10
316.0567606007234
 20
133.6213353666446
 30
0.0
 11
317.0567606007234
 21
133.6213353666446
 31
0.0
  0
LINE
  5
346E
330
1A
100
AcDbEntity
  8
SEIHIN
100
AcDbLine
 10
331.9278750007234
 20
117.6213353666446
 30
0.0
 11
331.9278750007234
 21
111.1213353666446
 31
0.0
  0
LINE
  5
346F
330
1A
100
AcDbEntity
  8
SEIHIN
100
AcDbLine
 10
331.0567606007234
 20
117.6213353666446
 30
0.0
 11
331.0567606007234
 21
111.1213353666446
 31
0.0
  0
LINE
  5
3470
330
1A
100
AcDbEntity
  8
SEIHIN
100
AcDbLine
 10
331.0567606007234
 20
111.1213353666446
 30
0.0
 11
334.5349987007234
 21
111.1213353666446
 31
0.0
  0
LINE
  5
3471
330
1A
100
AcDbEntity
  8
SEIHIN
100
AcDbLine
 10
331.0567606007234
 20
108.1213353666446
 30
0.0
 11
334.5349987007234
 21
108.1213353666446
 31
0.0
  0
LINE
  5
3472
330
1A
100
AcDbEntity
  8
SEIHIN
100
AcDbLine
 10
331.0567606007234
 20
111.1213353666446
 30
0.0
 11
331.0567606007234
 21
108.1213353666446
 31
0.0
  0
LINE
  5
3473
330
1A
100
AcDbEntity
  8
SEIHIN
100
AcDbLine
 10
334.5349987007234
 20
111.1213353666446
 30
0.0
 11
334.5349987007234
 21
108.1213353666446
 31
0.0
  0
LINE
  5
3474
330
1A
100
AcDbEntity
  8
CENTER L
100
AcDbLine
 10
344.5567606007234
 20
106.0213353949172
 30
0.0
 11
344.5567606007234
 21
118.221335338372
 31
0.0
  0
LINE
  5
3475
330
1A
100
AcDbEntity
  8
SEIHIN
100
AcDbLine
 10
330.0567606007234
 20
133.6213353666446
 30
0.0
 11
331.0567606007234
 21
133.6213353666446
 31
0.0
  0
LINE
  5
3476
330
1A
100
AcDbEntity
  8
SEIHIN
100
AcDbLine
 10
350.0567606007234
 20
115.6213353666446
 30
0.0
 11
350.0567606007234
 21
83.62133536664464
 31
0.0
  0
ARC
  5
3477
330
1A
100
AcDbEntity
  8
SEIHIN
100
AcDbCircle
 10
348.0567606007234
 20
83.62133536664464
 30
0.0
 40
2.0
100
AcDbArc
 50
270.0
 51
0.0
  0
LWPOLYLINE
  5
3478
330
1A
100
AcDbEntity
  8
SUNPOU
100
AcDbPolyline
 90
        3
 70
     0
 43
0.0
 10
347.0978070206082
 20
108.13869104065
 10
356.3835667546813
 20
127.8130212095087
 10
371.5273424006736
 20
127.8130212095087
1001
ACAD
1000
DSTYLE
1002
{
1070
    41
1040
3.0
1070
    42
1040
3.0
1070
    43
1040
7.0
1070
    44
1040
1.5
1070
    73
1070
     0
1070
    74
1070
     0
1070
    77
1070
     0
1070
   140
1040
3.0
1070
   141
1040
3.0
1070
   147
1040
1.0
1070
   172
1070
     1
1070
   173
1070
     1
1070
   176
1070
   256
1070
   177
1070
   256
1070
   178
1070
   256
1070
   271
1070
     0
1070
   272
1070
     0
1070
   341
1005
B2
1070
   343
1005
B2
1070
   344
1005
B2
1002
}
  0
TEXT
  5
3479
330
1A
100
AcDbEntity
  8
SUNPOU
100
AcDbText
 10
356.5575425754843
 20
129.6143797144915
 30
0.0
 40
3.0
  1
2-φ6.5
100
AcDbText
  0
DIMENSION
  5
347A
330
1A
100
AcDbEntity
  8
SUNPOU
100
AcDbDimension
  2
*D15
 10
366.1317669814032
 20
103.6213353666446
 30
0.0
 11
363.6317669814031
 21
110.6213353666446
 31
0.0
 70
    32
 71
     5
 42
-1.0
  3
STANDARD
100
AcDbAlignedDimension
 13
348.0567606007234
 23
117.6213353666446
 33
0.0
 14
350.0567606007234
 24
103.6213353666446
 34
0.0
 50
90.0
100
AcDbRotatedDimension
1001
ACAD
1000
DSTYLE
1002
{
1070
    41
1040
3.0
1070
    42
1040
3.0
1070
    43
1040
7.0
1070
    44
1040
1.5
1070
    73
1070
     0
1070
    74
1070
     0
1070
    77
1070
     3
1070
   140
1040
3.0
1070
   141
1040
3.0
1070
   147
1040
1.0
1070
   172
1070
     1
1070
   173
1070
     1
1070
   176
1070
   256
1070
   177
1070
   256
1070
   178
1070
   256
1070
   271
1070
     0
1070
   272
1070
     0
1070
   341
1005
B2
1070
     6
1000
OPEN
1070
     7
1000
OPEN
1002
}
  0
INSERT
  5
347B
330
1A
100
AcDbEntity
  8
SUNPOU
100
AcDbBlockReference
  2
_OPEN
 10
345.817340187901
 20
105.4256844630066
 30
0.0
 41
2.999999999999998
 42
3.0
 43
3.0
 50
244.7339377342673
1001
ACAD
1000
DSTYLE
1002
{
1070
    41
1040
3.0
1070
    42
1040
3.0
1070
    43
1040
7.0
1070
    44
1040
1.5
1070
    73
1070
     0
1070
    74
1070
     0
1070
    77
1070
     0
1070
   140
1040
3.0
1070
   141
1040
3.0
1070
   147
1040
1.0
1070
   172
1070
     1
1070
   173
1070
     1
1070
   176
1070
   256
1070
   177
1070
   256
1070
   178
1070
   256
1070
   271
1070
     0
1070
   272
1070
     0
1070
   341
1005
B2
1070
   343
1005
B2
1070
   344
1005
B2
1002
}
  0
ARC
  5
347C
330
1A
100
AcDbEntity
  8
SEIHIN
100
AcDbCircle
 10
348.0567606007234
 20
115.6213353666446
 30
0.0
 40
2.0
100
AcDbArc
 50
0.0
 51
90.0
  0
LINE
  5
3B0C
102
{ACAD_REACTORS
330
3B98
330
3B9A
102
}
330
1A
100
AcDbEntity
  8
SEIHIN
 62
     6
100
AcDbLine
 10
91.79436378337987
 20
90.62133536664465
 30
0.0
 11
76.26817040347981
 21
90.62133536664465
 31
0.0
  0
LINE
  5
3B0D
102
{ACAD_REACTORS
330
3B98
330
3B9A
102
}
330
1A
100
AcDbEntity
  8
SEIHIN
 62
     6
100
AcDbLine
 10
91.79436378337999
 20
82.12123536664467
 30
0.0
 11
82.32747312007161
 21
82.12123536664467
 31
0.0
  0
LINE
  5
3B0E
102
{ACAD_REACTORS
330
3B98
330
3B9A
102
}
330
1A
100
AcDbEntity
  8
SEIHIN
 62
     6
100
AcDbLine
 10
82.32747312007148
 20
84.62123536664467
 30
0.0
 11
91.79436378337999
 21
84.62123536664467
 31
0.0
  0
LINE
  5
3B0F
102
{ACAD_REACTORS
330
3B98
330
3B9A
102
}
330
1A
100
AcDbEntity
  8
SEIHIN
 62
     6
100
AcDbLine
 10
91.79436378337987
 20
93.12133536664465
 30
0.0
 11
61.65127040347982
 21
93.12133536664465
 31
0.0
  0
ARC
  5
3B10
102
{ACAD_REACTORS
330
3B98
330
3B9A
102
}
330
1A
100
AcDbEntity
  8
SEIHIN
 62
     6
100
AcDbCircle
 10
66.37807939347982
 20
80.12136496664465
 30
0.0
 40
9.999970400385993
100
AcDbArc
 50
53.97197877308379
 51
89.99947854956749
  0
LINE
  5
3B11
102
{ACAD_REACTORS
330
3B98
330
3B9A
102
}
330
1A
100
AcDbEntity
  8
SEIHIN
 62
     6
100
AcDbLine
 10
58.15127040347983
 20
95.77133536664462
 30
0.0
 11
58.15127040347983
 21
92.12133536664465
 31
0.0
  0
LINE
  5
3B12
102
{ACAD_REACTORS
330
3B98
330
3B9A
102
}
330
1A
100
AcDbEntity
  8
SEIHIN
 62
     6
100
AcDbLine
 10
60.15127040347983
 20
90.12133536664464
 30
0.0
 11
66.37817040347982
 21
90.12133536664464
 31
0.0
  0
ARC
  5
3B13
102
{ACAD_REACTORS
330
3B98
330
3B9A
102
}
330
1A
100
AcDbEntity
  8
SEIHIN
 62
     6
100
AcDbCircle
 10
60.15127040347983
 20
92.12133536664465
 30
0.0
 40
2.0
100
AcDbArc
 50
180.0
 51
270.0
  0
ARC
  5
3B14
102
{ACAD_REACTORS
330
3B98
330
3B9A
102
}
330
1A
100
AcDbEntity
  8
SEIHIN
 62
     6
100
AcDbCircle
 10
61.65127040347982
 20
94.12133536664464
 30
0.0
 40
1.0
100
AcDbArc
 50
180.0
 51
270.0
  0
ARC
  5
3B15
102
{ACAD_REACTORS
330
3B98
330
3B9A
102
}
330
1A
100
AcDbEntity
  8
SEIHIN
 62
     6
100
AcDbCircle
 10
59.40127040347983
 20
95.77133536664462
 30
0.0
 40
1.25
100
AcDbArc
 50
0.0
 51
180.0
  0
LINE
  5
3B16
102
{ACAD_REACTORS
330
3B98
330
3B9A
102
}
330
1A
100
AcDbEntity
  8
SEIHIN
 62
     6
100
AcDbLine
 10
60.65127040347983
 20
94.12133536664464
 30
0.0
 11
58.15127040347983
 21
94.12123536664466
 31
0.0
  0
LINE
  5
3B17
102
{ACAD_REACTORS
330
3B98
330
3B9A
102
}
330
1A
100
AcDbEntity
  8
SEIHIN
 62
     6
100
AcDbLine
 10
60.65127040347983
 20
95.77133536664462
 30
0.0
 11
60.65127040347983
 21
94.12133536664464
 31
0.0
  0
LINE
  5
3B18
102
{ACAD_REACTORS
330
3B98
330
3B9A
102
}
330
1A
100
AcDbEntity
  8
SEIHIN
 62
     6
100
AcDbLine
 10
75.67997040347989
 20
88.81253536664463
 30
0.0
 11
80.65397040347983
 21
85.19503536664467
 31
0.0
  0
LINE
  5
3B19
102
{ACAD_REACTORS
330
3B98
330
3B9A
102
}
330
1A
100
AcDbEntity
  8
SEIHIN
 62
     6
100
AcDbLine
 10
72.25987040347985
 20
88.20863536664466
 30
0.0
 11
79.31507040347987
 21
83.07763536664465
 31
0.0
  0
ARC
  5
3B1A
102
{ACAD_REACTORS
330
3B98
330
3B9A
102
}
330
1A
100
AcDbEntity
  8
SEIHIN
 62
     6
100
AcDbCircle
 10
76.26815929347987
 20
89.62130119664465
 30
0.0
 40
1.00003416926274
100
AcDbArc
 50
89.99936346563975
 51
233.9728323870002
  0
ARC
  5
3B1B
102
{ACAD_REACTORS
330
3B98
330
3B9A
102
}
330
1A
100
AcDbEntity
  8
SEIHIN
 62
     6
100
AcDbCircle
 10
82.42615759098823
 20
87.63635843702985
 30
0.0
 40
3.016737601179326
100
AcDbArc
 50
234.0236295846642
 51
268.1253879708497
  0
ARC
  5
3B1C
102
{ACAD_REACTORS
330
3B98
330
3B9A
102
}
330
1A
100
AcDbEntity
  8
SEIHIN
 62
     6
100
AcDbCircle
 10
82.25864059320537
 20
87.12676053019192
 30
0.0
 40
5.005998409873809
100
AcDbArc
 50
233.984179540385
 51
270.7878423526516
  0
LINE
  5
3B1D
102
{ACAD_REACTORS
330
3B98
330
3B99
330
3B9A
102
}
330
1A
100
AcDbEntity
  8
CENTER L
100
AcDbLine
 10
218.9610538833798
 20
106.9069638266446
 30
0.0
 11
203.7610538833799
 21
106.9069638266446
 31
0.0
  0
LINE
  5
3B1E
102
{ACAD_REACTORS
330
3B98
330
3B99
330
3B9A
102
}
330
1A
100
AcDbEntity
  8
CENTER L
100
AcDbLine
 10
218.9610538833798
 20
115.4069638266446
 30
0.0
 11
203.7610538833798
 21
115.4069638266446
 31
0.0
  0
LINE
  5
3B1F
102
{ACAD_REACTORS
330
3B98
330
3B99
330
3B9A
102
}
330
1A
100
AcDbEntity
  8
CENTER L
100
AcDbLine
 10
218.9610538833798
 20
90.40696382664464
 30
0.0
 11
203.7610538833798
 21
90.40696382664464
 31
0.0
  0
ARC
  5
3B20
102
{ACAD_REACTORS
330
3B98
330
3B9A
102
}
330
1A
100
AcDbEntity
  8
SEIHIN
 62
     6
100
AcDbCircle
 10
154.4205082434797
 20
107.8212052736446
 30
0.0
 40
5.000030094699926
100
AcDbArc
 50
89.99928770315646
 51
141.6617877220316
  0
LINE
  5
3B21
102
{ACAD_REACTORS
330
3B98
330
3B9A
102
}
330
1A
100
AcDbEntity
  8
SEIHIN
 62
     6
100
AcDbLine
 10
155.2140704034798
 20
103.1821353664446
 30
0.0
 11
147.5580704034798
 21
93.50103536664466
 31
0.0
  0
LINE
  5
3B22
102
{ACAD_REACTORS
330
3B98
330
3B9A
102
}
330
1A
100
AcDbEntity
  8
SEIHIN
 62
     6
100
AcDbLine
 10
155.8236704034798
 20
99.92263536664466
 30
0.0
 11
145.3029704034798
 21
86.61913536664462
 31
0.0
  0
LINE
  5
3B23
102
{ACAD_REACTORS
330
3B98
330
3B9A
102
}
330
1A
100
AcDbEntity
  8
SEIHIN
 62
     6
100
AcDbLine
 10
142.2842704034798
 20
82.12123536664467
 30
0.0
 11
159.7989704034798
 21
85.53223536664466
 31
0.0
  0
LINE
  5
3B24
102
{ACAD_REACTORS
330
3B98
330
3B9A
102
}
330
1A
100
AcDbEntity
  8
SEIHIN
 62
     6
100
AcDbLine
 10
146.2139704034797
 20
85.00683536664462
 30
0.0
 11
159.6083704034799
 21
86.71633536664467
 31
0.0
  0
LINE
  5
3B25
102
{ACAD_REACTORS
330
3B98
330
3B9A
102
}
330
1A
100
AcDbEntity
  8
SEIHIN
 62
     6
100
AcDbLine
 10
152.3094704034799
 20
109.1821353666446
 30
0.0
 11
140.8896704034797
 21
94.74163536664462
 31
0.0
  0
LINE
  5
3B26
102
{ACAD_REACTORS
330
3B98
330
3B99
330
3B9A
102
}
330
1A
100
AcDbEntity
  8
SEIHIN
100
AcDbLine
 10
129.3076285833798
 20
113.3138644576446
 30
0.0
 11
196.1698002633799
 21
121.5235068446446
 31
0.0
  0
LINE
  5
3B27
102
{ACAD_REACTORS
330
3B98
330
3B99
330
3B9A
102
}
330
1A
100
AcDbEntity
  8
SEIHIN
100
AcDbLine
 10
127.4303189833798
 20
119.1284187716446
 30
0.0
 11
195.4385855133799
 21
127.4787839166446
 31
0.0
  0
LINE
  5
3B28
102
{ACAD_REACTORS
330
3B98
330
3B99
330
3B9A
102
}
330
1A
100
AcDbEntity
  8
SEIHIN
100
AcDbLine
 10
118.2272436833799
 20
96.16767972664469
 30
0.0
 11
123.7171800833799
 21
109.1011592956446
 31
0.0
  0
LINE
  5
3B29
102
{ACAD_REACTORS
330
3B98
330
3B9A
102
}
330
1A
100
AcDbEntity
  8
SEIHIN
 62
     6
100
AcDbLine
 10
150.4986704034798
 20
110.9227353666446
 30
0.0
 11
136.8714704034798
 21
93.69083536664465
 31
0.0
  0
LINE
  5
3B2A
102
{ACAD_REACTORS
330
3B98
330
3B99
330
3B9A
102
}
330
1A
100
AcDbEntity
  8
SEIHIN
100
AcDbLine
 10
99.09955408337982
 20
109.2565452126446
 30
0.0
 11
98.33040118337994
 21
103.8105922366446
 31
0.0
  0
ARC
  5
3B2B
102
{ACAD_REACTORS
330
3B98
330
3B99
330
3B9A
102
}
330
1A
100
AcDbEntity
  8
SEIHIN
100
AcDbCircle
 10
107.2943637833799
 20
100.4213353666446
 30
0.0
 40
9.535085152808647
100
AcDbArc
 50
4.916661302937096
 51
179.9998615479522
  0
CIRCLE
  5
3B2C
102
{ACAD_REACTORS
330
3B98
330
3B99
330
3B9A
102
}
330
1A
100
AcDbEntity
  8
SEIHIN
100
AcDbCircle
 10
106.7943637833799
 20
103.9213353666446
 30
0.0
 40
3.500000004238516
  0
LINE
  5
3B2D
102
{ACAD_REACTORS
330
3B98
330
3B9A
102
}
330
1A
100
AcDbEntity
  8
SEIHIN
 62
     6
100
AcDbLine
 10
135.6948704034798
 20
93.12133536664465
 30
0.0
 11
116.7943637853799
 21
93.12133536664465
 31
0.0
  0
LINE
  5
3B2E
102
{ACAD_REACTORS
330
3B98
330
3B9A
102
}
330
1A
100
AcDbEntity
  8
SEIHIN
 62
     6
100
AcDbLine
 10
143.2149704034798
 20
90.62133536664465
 30
0.0
 11
116.79436378538
 21
90.62133536664465
 31
0.0
  0
LINE
  5
3B2F
102
{ACAD_REACTORS
330
3B98
330
3B9A
102
}
330
1A
100
AcDbEntity
  8
SEIHIN
 62
     6
100
AcDbLine
 10
116.7943637853799
 20
84.62123536664467
 30
0.0
 11
140.0516704034798
 21
84.62123536664467
 31
0.0
  0
LINE
  5
3B30
102
{ACAD_REACTORS
330
3B98
330
3B9A
102
}
330
1A
100
AcDbEntity
  8
SEIHIN
 62
     6
100
AcDbLine
 10
142.2842704034798
 20
82.12123536664467
 30
0.0
 11
116.7943637853799
 21
82.12123536664467
 31
0.0
  0
LINE
  5
3B31
102
{ACAD_REACTORS
330
3B98
330
3B99
330
3B9A
102
}
330
1A
100
AcDbEntity
  8
SEIHIN
100
AcDbLine
 10
116.7943637853799
 20
79.92773171664464
 30
0.0
 11
116.7943637853799
 21
101.2385555856446
 31
0.0
  0
LINE
  5
3B32
102
{ACAD_REACTORS
330
3B98
330
3B99
330
3B9A
102
}
330
1A
100
AcDbEntity
  8
SEIHIN
100
AcDbLine
 10
91.79436378337999
 20
79.92773171664464
 30
0.0
 11
91.79436378337999
 21
98.92773171864462
 31
0.0
  0
LINE
  5
3B33
102
{ACAD_REACTORS
330
3B98
330
3B99
330
3B9A
102
}
330
1A
100
AcDbEntity
  8
SEIHIN
100
AcDbLine
 10
91.79436378337999
 20
79.92773171664464
 30
0.0
 11
116.7943637853799
 21
79.92773171664464
 31
0.0
  0
LINE
  5
3B34
102
{ACAD_REACTORS
330
3B98
330
3B99
330
3B9A
102
}
330
1A
100
AcDbEntity
  8
SEIHIN
100
AcDbLine
 10
97.75927863338001
 20
100.4213584076446
 30
0.0
 11
97.75925898338
 21
92.08960790664463
 31
0.0
  0
LINE
  5
3B35
102
{ACAD_REACTORS
330
3B98
330
3B99
330
3B9A
102
}
330
1A
100
AcDbEntity
  8
SEIHIN
100
AcDbLine
 10
95.75927511337994
 20
98.92772936064467
 30
0.0
 11
95.75925898337999
 21
92.08960790664463
 31
0.0
  0
LINE
  5
3B36
102
{ACAD_REACTORS
330
3B98
330
3B99
330
3B9A
102
}
330
1A
100
AcDbEntity
  8
SEIHIN
100
AcDbLine
 10
95.75925898337999
 20
92.08960790664463
 30
0.0
 11
97.75925898338
 21
92.08960790664463
 31
0.0
  0
LINE
  5
3B37
102
{ACAD_REACTORS
330
3B98
330
3B99
330
3B9A
102
}
330
1A
100
AcDbEntity
  8
SEIHIN
100
AcDbLine
 10
94.75927511337994
 20
99.92773171864463
 30
0.0
 11
92.79436378337999
 21
99.92773171864463
 31
0.0
  0
ARC
  5
3B38
102
{ACAD_REACTORS
330
3B98
330
3B99
330
3B9A
102
}
330
1A
100
AcDbEntity
  8
SEIHIN
100
AcDbCircle
 10
92.79436378337999
 20
98.92773171864462
 30
0.0
 40
1.0
100
AcDbArc
 50
90.0
 51
180.0
  0
LINE
  5
3B39
102
{ACAD_REACTORS
330
3B98
330
3B99
330
3B9A
102
}
330
1A
100
AcDbEntity
  8
SEIHIN
100
AcDbLine
 10
97.39436378337991
 20
99.12133536664464
 30
0.0
 11
97.39434963337993
 21
93.12133300864468
 31
0.0
  0
LINE
  5
3B3A
102
{ACAD_REACTORS
330
3B98
330
3B99
330
3B9A
102
}
330
1A
100
AcDbEntity
  8
SEIHIN
100
AcDbLine
 10
96.3943637833799
 20
99.12133536664464
 30
0.0
 11
96.39434963337993
 21
93.12133536664465
 31
0.0
  0
LINE
  5
3B3B
102
{ACAD_REACTORS
330
3B98
330
3B99
330
3B9A
102
}
330
1A
100
AcDbEntity
  8
SEIHIN
100
AcDbLine
 10
95.7592614170548
 20
93.12133536664465
 30
0.0
 11
97.75926141337999
 21
93.12133536664465
 31
0.0
  0
ARC
  5
3B3C
102
{ACAD_REACTORS
330
3B98
330
3B99
330
3B9A
102
}
330
1A
100
AcDbEntity
  8
SEIHIN
100
AcDbCircle
 10
94.75927511337994
 20
98.92773171864462
 30
0.0
 40
1.000000000001389
100
AcDbArc
 50
359.9998648965509
 51
90.0
  0
LINE
  5
3B3D
102
{ACAD_REACTORS
330
3B98
330
3B99
330
3B9A
102
}
330
1A
100
AcDbEntity
  8
SEIHIN
100
AcDbLine
 10
96.3943637833799
 20
99.12133536664464
 30
0.0
 11
97.75927556337997
 21
99.12133536664464
 31
0.0
  0
LINE
  5
3B3E
102
{ACAD_REACTORS
330
3B98
330
3B99
330
3B9A
102
}
330
1A
100
AcDbEntity
  8
SEIHIN
100
AcDbLine
 10
110.29436378338
 20
89.62133536664465
 30
0.0
 11
110.29436378338
 21
85.62133536664465
 31
0.0
  0
LINE
  5
3B3F
102
{ACAD_REACTORS
330
3B98
330
3B99
330
3B9A
102
}
330
1A
100
AcDbEntity
  8
SEIHIN
100
AcDbLine
 10
103.2943637833799
 20
89.62133536664465
 30
0.0
 11
103.2943637833799
 21
85.62133536664465
 31
0.0
  0
MTEXT
  5
3B40
102
{ACAD_REACTORS
330
3B98
330
3B9A
102
}
330
1A
100
AcDbEntity
  8
SEIHIN
 62
     6
100
AcDbMText
 10
108.7024013184068
 20
87.71325420064465
 30
0.0
 40
2.381249964
 41
0.0
 71
     1
 72
     5
  1
{\W1.022222;45}
210
0.0
220
0.0
230
-1.0
 11
-1.0
 21
0.0
 31
0.0
 73
     1
 44
1.0
1001
ACAD
1000
MTEXTBEGIN
1070
    73
1070
     1
1070
    44
1040
1.0
1070
    74
1070
     0
1000
MTEXTEND
1000
MTEXTBEGIN
1070
    73
1070
     1
1070
    44
1040
1.0
1070
    74
1070
     0
1000
MTEXTEND
1000
MTEXTBEGIN
1070
    73
1070
     1
1070
    44
1040
1.0
1070
    74
1070
     0
1000
MTEXTEND
1000
MTEXTBEGIN
1070
    73
1070
     1
1070
    44
1040
1.0
1070
    74
1070
     0
1000
MTEXTEND
1000
MTEXTBEGIN
1070
    73
1070
     1
1070
    44
1040
1.0
1070
    74
1070
     0
1000
MTEXTEND
1000
MTEXTBEGIN
1070
    73
1070
     1
1070
    44
1040
1.0
1070
    74
1070
     0
1000
MTEXTEND
1000
MTEXTBEGIN
1070
    73
1070
     1
1070
    44
1040
1.0
1070
    74
1070
     0
1000
MTEXTEND
  0
LINE
  5
3B41
102
{ACAD_REACTORS
330
3B98
330
3B99
330
3B9A
102
}
330
1A
100
AcDbEntity
  8
SEIHIN
100
AcDbLine
 10
109.2943637833799
 20
84.62133536664465
 30
0.0
 11
104.2943637833799
 21
84.62133536664465
 31
0.0
  0
LINE
  5
3B42
102
{ACAD_REACTORS
330
3B98
330
3B99
330
3B9A
102
}
330
1A
100
AcDbEntity
  8
SEIHIN
100
AcDbLine
 10
107.94906432338
 20
82.62133536664464
 30
0.0
 11
105.6396632433799
 21
82.62133536664464
 31
0.0
  0
LINE
  5
3B43
102
{ACAD_REACTORS
330
3B98
330
3B99
330
3B9A
102
}
330
1A
100
AcDbEntity
  8
SEIHIN
100
AcDbLine
 10
106.7943637833799
 20
84.62133536664465
 30
0.0
 11
105.6396632433799
 21
82.62133536664464
 31
0.0
  0
ARC
  5
3B44
102
{ACAD_REACTORS
330
3B98
330
3B99
330
3B9A
102
}
330
1A
100
AcDbEntity
  8
SEIHIN
100
AcDbCircle
 10
104.2943637833799
 20
85.62133536664465
 30
0.0
 40
1.0
100
AcDbArc
 50
180.0
 51
270.0
  0
LINE
  5
3B45
102
{ACAD_REACTORS
330
3B98
330
3B99
330
3B9A
102
}
330
1A
100
AcDbEntity
  8
SEIHIN
100
AcDbLine
 10
106.7943637833799
 20
84.62133536664465
 30
0.0
 11
107.94906432338
 21
82.62133536664464
 31
0.0
  0
LINE
  5
3B46
102
{ACAD_REACTORS
330
3B98
330
3B9A
102
}
330
1A
100
AcDbEntity
  8
SEIHIN
 62
     6
100
AcDbLine
 10
106.7943060483528
 20
84.62123536664467
 30
0.0
 11
106.7944215184071
 21
84.62123536664467
 31
0.0
  0
ARC
  5
3B47
102
{ACAD_REACTORS
330
3B98
330
3B99
330
3B9A
102
}
330
1A
100
AcDbEntity
  8
SEIHIN
100
AcDbCircle
 10
109.2943637833799
 20
85.62133536664465
 30
0.0
 40
1.0
100
AcDbArc
 50
270.0
 51
0.0
  0
LINE
  5
3B48
102
{ACAD_REACTORS
330
3B98
330
3B99
330
3B9A
102
}
330
1A
100
AcDbEntity
  8
SEIHIN
100
AcDbLine
 10
104.2943637833799
 20
90.62133536664465
 30
0.0
 11
109.2943637833799
 21
90.62133536664465
 31
0.0
  0
LINE
  5
3B49
102
{ACAD_REACTORS
330
3B98
330
3B9A
102
}
330
1A
100
AcDbEntity
  8
SEIHIN
 62
     6
100
AcDbLine
 10
109.2943637833799
 20
90.62133536664465
 30
0.0
 11
106.1814869254798
 21
90.62133536664465
 31
0.0
  0
ARC
  5
3B4A
102
{ACAD_REACTORS
330
3B98
330
3B99
330
3B9A
102
}
330
1A
100
AcDbEntity
  8
SEIHIN
100
AcDbCircle
 10
104.2943637833799
 20
89.62133536664465
 30
0.0
 40
1.0
100
AcDbArc
 50
90.0
 51
180.0
  0
LINE
  5
3B4B
102
{ACAD_REACTORS
330
3B98
330
3B99
330
3B9A
102
}
330
1A
100
AcDbEntity
  8
SEIHIN
100
AcDbLine
 10
106.55111378338
 20
90.62133536664465
 30
0.0
 11
107.05111378338
 21
90.62133536664465
 31
0.0
  0
LINE
  5
3B4C
102
{ACAD_REACTORS
330
3B98
330
3B99
330
3B9A
102
}
330
1A
100
AcDbEntity
  8
SEIHIN
100
AcDbLine
 10
106.5443637833799
 20
90.62133536664465
 30
0.0
 11
107.04436378338
 21
90.62133536664465
 31
0.0
  0
LINE
  5
3B4D
102
{ACAD_REACTORS
330
3B98
330
3B9A
102
}
330
1A
100
AcDbEntity
  8
SEIHIN
 62
     6
100
AcDbLine
 10
106.5511715184069
 20
90.62133536664465
 30
0.0
 11
107.0511715184069
 21
90.62133536664465
 31
0.0
  0
LINE
  5
3B4E
102
{ACAD_REACTORS
330
3B98
330
3B9A
102
}
330
1A
100
AcDbEntity
  8
SEIHIN
 62
     6
100
AcDbLine
 10
106.5444215184069
 20
90.62133536664465
 30
0.0
 11
107.0444215184069
 21
90.62133536664465
 31
0.0
  0
LINE
  5
3B4F
102
{ACAD_REACTORS
330
3B98
330
3B9A
102
}
330
1A
100
AcDbEntity
  8
SEIHIN
 62
     6
100
AcDbLine
 10
107.0444215184069
 20
88.62133536664464
 30
0.0
 11
106.5444215184069
 21
88.62133536664464
 31
0.0
  0
LINE
  5
3B50
102
{ACAD_REACTORS
330
3B98
330
3B9A
102
}
330
1A
100
AcDbEntity
  8
SEIHIN
 62
     6
100
AcDbLine
 10
106.5444215184069
 20
88.62133536664464
 30
0.0
 11
106.5444215184069
 21
90.62133536664465
 31
0.0
  0
LINE
  5
3B51
102
{ACAD_REACTORS
330
3B98
330
3B9A
102
}
330
1A
100
AcDbEntity
  8
SEIHIN
 62
     6
100
AcDbLine
 10
107.0444215184069
 20
90.62133536664465
 30
0.0
 11
107.0444215184069
 21
88.62133536664464
 31
0.0
  0
ARC
  5
3B52
102
{ACAD_REACTORS
330
3B98
330
3B99
330
3B9A
102
}
330
1A
100
AcDbEntity
  8
SEIHIN
100
AcDbCircle
 10
109.2943637833799
 20
89.62133536664465
 30
0.0
 40
1.0
100
AcDbArc
 50
0.0
 51
90.0
  0
LINE
  5
3B53
102
{ACAD_REACTORS
330
3B98
330
3B9A
102
}
330
1A
100
AcDbEntity
  8
SEIHIN
 62
     6
100
AcDbLine
 10
117.0511715184068
 20
88.62133536664464
 30
0.0
 11
116.7944215184069
 21
88.62133536664464
 31
0.0
  0
LINE
  5
3B54
102
{ACAD_REACTORS
330
3B98
330
3B9A
102
}
330
1A
100
AcDbEntity
  8
SEIHIN
 62
     6
100
AcDbLine
 10
117.0511715184068
 20
88.62133536664464
 30
0.0
 11
117.0511715184068
 21
90.62133536664465
 31
0.0
  0
ARC
  5
3B55
102
{ACAD_REACTORS
330
3B98
330
3B99
330
3B9A
102
}
330
1A
100
AcDbEntity
  8
SEIHIN
100
AcDbCircle
 10
113.6247193833798
 20
98.12133536664465
 30
0.0
 40
5.00000003649864
100
AcDbArc
 50
309.3405862842468
 51
337.0000001723857
  0
MTEXT
  5
3B56
102
{ACAD_REACTORS
330
3B98
330
3B9A
102
}
330
1A
100
AcDbEntity
  8
SEIHIN
 62
     6
100
AcDbMText
 10
123.7101792184068
 20
87.53311259064464
 30
0.0
 40
2.381249964
 41
0.0
 71
     1
 72
     5
  1
{\W1.135802;60}
210
0.0
220
0.0
230
-1.0
 11
-1.0
 21
0.0
 31
0.0
 73
     1
 44
1.0
1001
ACAD
1000
MTEXTBEGIN
1070
    73
1070
     1
1070
    44
1040
1.0
1070
    74
1070
     0
1000
MTEXTEND
1000
MTEXTBEGIN
1070
    73
1070
     1
1070
    44
1040
1.0
1070
    74
1070
     0
1000
MTEXTEND
1000
MTEXTBEGIN
1070
    73
1070
     1
1070
    44
1040
1.0
1070
    74
1070
     0
1000
MTEXTEND
1000
MTEXTBEGIN
1070
    73
1070
     1
1070
    44
1040
1.0
1070
    74
1070
     0
1000
MTEXTEND
1000
MTEXTBEGIN
1070
    73
1070
     1
1070
    44
1040
1.0
1070
    74
1070
     0
1000
MTEXTEND
1000
MTEXTBEGIN
1070
    73
1070
     1
1070
    44
1040
1.0
1070
    74
1070
     0
1000
MTEXTEND
1000
MTEXTBEGIN
1070
    73
1070
     1
1070
    44
1040
1.0
1070
    74
1070
     0
1000
MTEXTEND
  0
LINE
  5
3B57
102
{ACAD_REACTORS
330
3B98
330
3B9A
102
}
330
1A
100
AcDbEntity
  8
SEIHIN
 62
     6
100
AcDbLine
 10
121.5511715184068
 20
88.62133536664464
 30
0.0
 11
122.0511715184068
 21
88.62133536664464
 31
0.0
  0
LINE
  5
3B58
102
{ACAD_REACTORS
330
3B98
330
3B9A
102
}
330
1A
100
AcDbEntity
  8
SEIHIN
 62
     6
100
AcDbLine
 10
122.0511715184068
 20
90.62133536664465
 30
0.0
 11
121.5511715184068
 21
90.62133536664465
 31
0.0
  0
LINE
  5
3B59
102
{ACAD_REACTORS
330
3B98
330
3B9A
102
}
330
1A
100
AcDbEntity
  8
SEIHIN
 62
     6
100
AcDbLine
 10
121.5511715184068
 20
90.62133536664465
 30
0.0
 11
121.5511715184068
 21
88.62133536664464
 31
0.0
  0
LINE
  5
3B5A
102
{ACAD_REACTORS
330
3B98
330
3B9A
102
}
330
1A
100
AcDbEntity
  8
SEIHIN
 62
     6
100
AcDbLine
 10
122.0511715184068
 20
88.62133536664464
 30
0.0
 11
122.0511715184068
 21
90.62133536664465
 31
0.0
  0
LINE
  5
3B5B
102
{ACAD_REACTORS
330
3B98
330
3B9A
102
}
330
1A
100
AcDbEntity
  8
SEIHIN
 62
     6
100
AcDbLine
 10
128.6528704034798
 20
90.62133536664465
 30
0.0
 11
128.6528704034798
 21
84.62133536664465
 31
0.0
  0
ARC
  5
3B5C
102
{ACAD_REACTORS
330
3B98
330
3B9A
102
}
330
1A
100
AcDbEntity
  8
SEIHIN
 62
     6
100
AcDbCircle
 10
143.2149771134798
 20
89.62132150664467
 30
0.0
 40
1.00001386218148
100
AcDbArc
 50
321.6635952327493
 51
90.0003844493519
  0
LINE
  5
3B5D
102
{ACAD_REACTORS
330
3B98
330
3B9A
102
}
330
1A
100
AcDbEntity
  8
SEIHIN
 62
     6
100
AcDbLine
 10
140.8360704034798
 20
85.00093536664463
 30
0.0
 11
143.9993704034798
 21
89.00103536664465
 31
0.0
  0
ARC
  5
3B5E
102
{ACAD_REACTORS
330
3B98
330
3B9A
102
}
330
1A
100
AcDbEntity
  8
SEIHIN
 62
     6
100
AcDbCircle
 10
140.0516990334799
 20
85.62124922664464
 30
0.0
 40
1.000013862902801
100
AcDbArc
 50
269.9983596445684
 51
321.6615704529417
  0
ARC
  5
3B5F
102
{ACAD_REACTORS
330
3B98
330
3B9A
102
}
330
1A
100
AcDbEntity
  8
SEIHIN
 62
     6
100
AcDbCircle
 10
146.0873752034799
 20
85.99882687664466
 30
0.0
 40
1.000036752725678
100
AcDbArc
 50
141.6629998625316
 51
277.2726171970298
  0
LINE
  5
3B60
102
{ACAD_REACTORS
330
3B98
330
3B9A
102
}
330
1A
100
AcDbEntity
  8
SEIHIN
 62
     6
100
AcDbLine
 10
146.7736704034797
 20
93.12133536664465
 30
0.0
 11
141.6740704034797
 21
93.12133536664465
 31
0.0
  0
ARC
  5
3B61
102
{ACAD_REACTORS
330
3B98
330
3B9A
102
}
330
1A
100
AcDbEntity
  8
SEIHIN
 62
     6
100
AcDbCircle
 10
135.6949453934798
 20
94.62137166764467
 30
0.0
 40
1.5000363023233
100
AcDbArc
 50
269.9971356623169
 51
321.6588485138866
  0
ARC
  5
3B62
102
{ACAD_REACTORS
330
3B98
330
3B9A
102
}
330
1A
100
AcDbEntity
  8
SEIHIN
 62
     6
100
AcDbCircle
 10
141.6740787034797
 20
94.12131821664468
 30
0.0
 40
0.9999828485094189
100
AcDbArc
 50
141.6672292746693
 51
269.9995244368737
  0
ARC
  5
3B63
102
{ACAD_REACTORS
330
3B98
330
3B9A
102
}
330
1A
100
AcDbEntity
  8
SEIHIN
 62
     6
100
AcDbCircle
 10
146.7736990334798
 20
94.12134922864465
 30
0.0
 40
1.000013864523104
100
AcDbArc
 50
269.9983596445718
 51
321.6615703630643
  0
ARC
  5
3B64
102
{ACAD_REACTORS
330
3B98
330
3B99
330
3B9A
102
}
330
1A
100
AcDbEntity
  8
SEIHIN
100
AcDbCircle
 10
128.7708817833799
 20
108.2104111036446
 30
0.0
 40
11.00000000680566
100
AcDbArc
 50
97.00000011658158
 51
157.0000000263018
  0
LINE
  5
3B65
102
{ACAD_REACTORS
330
3B98
330
3B99
330
3B9A
102
}
330
1A
100
AcDbEntity
  8
SEIHIN
100
AcDbLine
 10
103.2994420833799
 20
109.6733031246446
 30
0.0
 11
100.2295732833799
 21
110.1068724996446
 31
0.0
  0
ARC
  5
3B66
102
{ACAD_REACTORS
330
3B98
330
3B99
330
3B9A
102
}
330
1A
100
AcDbEntity
  8
SEIHIN
100
AcDbCircle
 10
100.0897273833799
 20
109.1166992316446
 30
0.0
 40
1.000000009640918
100
AcDbArc
 50
81.96107065881095
 51
171.9610663765923
  0
LINE
  5
3B67
102
{ACAD_REACTORS
330
3B98
330
3B99
330
3B9A
102
}
330
1A
100
AcDbEntity
  8
SEIHIN
100
AcDbLine
 10
116.7847111833798
 20
109.8908054926446
 30
0.0
 11
105.1082551833798
 21
111.5399163026446
 31
0.0
  0
LINE
  5
3B68
102
{ACAD_REACTORS
330
3B98
330
3B99
330
3B9A
102
}
330
1A
100
AcDbEntity
  8
SEIHIN
100
AcDbLine
 10
116.8499367833798
 20
108.8716691726446
 30
0.0
 11
104.4436172833799
 21
110.6238614046446
 31
0.0
  0
ARC
  5
3B69
102
{ACAD_REACTORS
330
3B98
330
3B99
330
3B9A
102
}
330
1A
100
AcDbEntity
  8
SEIHIN
100
AcDbCircle
 10
103.4392880833799
 20
110.6634763936446
 30
0.0
 40
0.9999999676895662
100
AcDbArc
 50
261.9610649935477
 51
351.9610655186018
  0
LINE
  5
3B6A
102
{ACAD_REACTORS
330
3B98
330
3B99
330
3B9A
102
}
330
1A
100
AcDbEntity
  8
SEIHIN
100
AcDbLine
 10
104.4294612833799
 20
110.5236304126446
 30
0.0
 11
104.5093449833798
 21
111.0892428406446
 31
0.0
  0
ARC
  5
3B6B
102
{ACAD_REACTORS
330
3B98
330
3B99
330
3B9A
102
}
330
1A
100
AcDbEntity
  8
SEIHIN
100
AcDbCircle
 10
105.0341367833798
 20
111.0151244706446
 30
0.0
 40
0.5299999859769696
100
AcDbArc
 50
81.96106284407187
 51
171.9610655715811
  0
LINE
  5
3B6C
102
{ACAD_REACTORS
330
3B98
330
3B99
330
3B9A
102
}
330
1A
100
AcDbEntity
  8
SEIHIN
100
AcDbLine
 10
115.5441244833798
 20
105.2024750266446
 30
0.0
 11
118.64532838338
 21
112.5084535166446
 31
0.0
  0
LINE
  5
3B6D
102
{ACAD_REACTORS
330
3B98
330
3B99
330
3B9A
102
}
330
1A
100
AcDbEntity
  8
SEIHIN
100
AcDbLine
 10
116.7847111833798
 20
109.8908054926446
 30
0.0
 11
117.8859534833799
 21
110.7194785066446
 31
0.0
  0
LINE
  5
3B6E
102
{ACAD_REACTORS
330
3B98
330
3B99
330
3B9A
102
}
330
1A
100
AcDbEntity
  8
SEIHIN
100
AcDbLine
 10
114.4654484833799
 20
106.7057121966447
 30
0.0
 11
114.8725781833799
 21
107.1955654266447
 31
0.0
  0
ARC
  5
3B6F
102
{ACAD_REACTORS
330
3B98
330
3B99
330
3B9A
102
}
330
1A
100
AcDbEntity
  8
SEIHIN
100
AcDbCircle
 10
116.9198597833798
 20
109.3667558066446
 30
0.0
 40
0.5000000014358297
100
AcDbArc
 50
261.9610649855335
 51
306.9610665450052
  0
ARC
  5
3B70
102
{ACAD_REACTORS
330
3B98
330
3B99
330
3B9A
102
}
330
1A
100
AcDbEntity
  8
SEIHIN
100
AcDbCircle
 10
116.4106893833799
 20
105.9172016166446
 30
0.0
 40
2.000000009547898
100
AcDbArc
 50
81.39257647660745
 51
140.269157328916
  0
ARC
  5
3B71
102
{ACAD_REACTORS
330
3B98
330
3B99
330
3B9A
102
}
330
1A
100
AcDbEntity
  8
SEIHIN
100
AcDbCircle
 10
130.1607139833799
 20
106.3660413966446
 30
0.0
 40
6.999999965304857
100
AcDbArc
 50
96.99999996932376
 51
156.9999997660007
  0
LINE
  5
3B72
102
{ACAD_REACTORS
330
3B98
330
3B99
330
3B9A
102
}
330
1A
100
AcDbEntity
  8
SEIHIN
100
AcDbLine
 10
125.7569957833799
 20
118.7894701866446
 30
0.0
 11
127.2006468833798
 21
121.9346424356446
 31
0.0
  0
LINE
  5
3B73
102
{ACAD_REACTORS
330
3B98
330
3B99
330
3B9A
102
}
330
1A
100
AcDbEntity
  8
SEIHIN
100
AcDbLine
 10
128.1066672833798
 20
121.5114084126446
 30
0.0
 11
127.2006468833798
 21
121.9346424356446
 31
0.0
  0
LINE
  5
3B74
102
{ACAD_REACTORS
330
3B98
330
3B99
330
3B9A
102
}
330
1A
100
AcDbEntity
  8
SEIHIN
100
AcDbLine
 10
126.9895344833798
 20
119.0652165806446
 30
0.0
 11
128.1066672833798
 21
121.5114084126446
 31
0.0
  0
LINE
  5
3B75
102
{ACAD_REACTORS
330
3B98
330
3B99
330
3B9A
102
}
330
1A
100
AcDbEntity
  8
SEIHIN
100
AcDbLine
 10
208.9212704033798
 20
84.40696382664464
 30
0.0
 11
208.9212704033798
 21
120.4069638286446
 31
0.0
  0
LINE
  5
3B76
102
{ACAD_REACTORS
330
3B98
330
3B99
330
3B9A
102
}
330
1A
100
AcDbEntity
  8
SEIHIN
100
AcDbLine
 10
215.6212704033797
 20
120.4069638286446
 30
0.0
 11
215.6212704033797
 21
84.40696382664464
 31
0.0
  0
LINE
  5
3B77
102
{ACAD_REACTORS
330
3B98
330
3B99
330
3B9A
102
}
330
1A
100
AcDbEntity
  8
SEIHIN
100
AcDbLine
 10
214.4212704033798
 20
120.4069638286446
 30
0.0
 11
214.4212704033798
 21
84.40696382664464
 31
0.0
  0
ARC
  5
3B78
102
{ACAD_REACTORS
330
3B98
330
3B9A
102
}
330
1A
100
AcDbEntity
  8
SEIHIN
 62
     6
100
AcDbCircle
 10
157.5671655134798
 20
101.3212329986446
 30
0.0
 40
3.000002368933987
100
AcDbArc
 50
89.99990660795349
 51
141.6619327663495
  0
ARC
  5
3B79
102
{ACAD_REACTORS
330
3B98
330
3B9A
102
}
330
1A
100
AcDbEntity
  8
SEIHIN
 62
     6
100
AcDbCircle
 10
165.6212704034798
 20
102.8212353664446
 30
0.0
 40
10.0000000001
100
AcDbArc
 50
0.0
 51
90.0
  0
ARC
  5
3B7A
102
{ACAD_REACTORS
330
3B98
330
3B9A
102
}
330
1A
100
AcDbEntity
  8
SEIHIN
 62
     6
100
AcDbCircle
 10
171.1212704034798
 20
84.45235198664466
 30
0.0
 40
4.500000000783715
100
AcDbArc
 50
216.0326608768124
 51
0.0
  0
ARC
  5
3B7B
102
{ACAD_REACTORS
330
3B98
330
3B9A
102
}
330
1A
100
AcDbEntity
  8
SEIHIN
 62
     6
100
AcDbCircle
 10
164.6212704034798
 20
95.82123536664466
 30
0.0
 40
5.999999999899999
100
AcDbArc
 50
0.0
 51
90.0
  0
LINE
  5
3B7C
102
{ACAD_REACTORS
330
3B98
330
3B9A
102
}
330
1A
100
AcDbEntity
  8
SEIHIN
 62
     6
100
AcDbLine
 10
166.5315704034798
 20
88.06173536664465
 30
0.0
 11
169.8402048134798
 21
85.81291016664465
 31
0.0
  0
ARC
  5
3B7D
102
{ACAD_REACTORS
330
3B98
330
3B9A
102
}
330
1A
100
AcDbEntity
  8
SEIHIN
 62
     6
100
AcDbCircle
 10
159.6842729234799
 20
86.12119570664464
 30
0.0
 40
0.5999603391169003
100
AcDbArc
 50
269.9997593418182
 51
97.26811277064527
  0
ARC
  5
3B7E
102
{ACAD_REACTORS
330
3B98
330
3B9A
102
}
330
1A
100
AcDbEntity
  8
SEIHIN
 62
     6
100
AcDbCircle
 10
165.6883622334798
 20
86.82122416664464
 30
0.0
 40
1.500013201217973
100
AcDbArc
 50
61.61017886408406
 51
226.1911119609331
  0
LINE
  5
3B7F
102
{ACAD_REACTORS
330
3B98
330
3B9A
102
}
330
1A
100
AcDbEntity
  8
SEIHIN
 62
     6
100
AcDbLine
 10
167.4822022934798
 20
81.80524350664468
 30
0.0
 11
164.4753704034798
 21
85.93883536664463
 31
0.0
  0
ARC
  5
3B80
102
{ACAD_REACTORS
330
3B98
330
3B9A
102
}
330
1A
100
AcDbEntity
  8
SEIHIN
 62
     6
100
AcDbCircle
 10
159.7455082434798
 20
96.82120527364464
 30
0.0
 40
5.000030094599926
100
AcDbArc
 50
89.99928770315646
 51
141.6617877220316
  0
LINE
  5
3B81
102
{ACAD_REACTORS
330
3B98
330
3B9A
102
}
330
1A
100
AcDbEntity
  8
SEIHIN
 62
     6
100
AcDbLine
 10
164.6212704034798
 20
101.8212353664446
 30
0.0
 11
159.7455704034798
 21
101.8212353664446
 31
0.0
  0
LINE
  5
3B82
102
{ACAD_REACTORS
330
3B98
330
3B9A
102
}
330
1A
100
AcDbEntity
  8
SEIHIN
 62
     6
100
AcDbLine
 10
175.6212704034798
 20
84.45235198664466
 30
0.0
 11
175.6212704034798
 21
102.8212353664446
 31
0.0
  0
LINE
  5
3B83
102
{ACAD_REACTORS
330
3B98
330
3B9A
102
}
330
1A
100
AcDbEntity
  8
SEIHIN
 62
     6
100
AcDbLine
 10
170.6212704034798
 20
86.22643420664463
 30
0.0
 11
170.6212704034798
 21
95.82123536664466
 31
0.0
  0
ARC
  5
3B84
102
{ACAD_REACTORS
330
3B98
330
3B9A
102
}
330
1A
100
AcDbEntity
  8
SEIHIN
 62
     6
100
AcDbCircle
 10
170.1212704034798
 20
86.22643420664463
 30
0.0
 40
0.4999999987699835
100
AcDbArc
 50
235.7966882627013
 51
0.0
  0
LINE
  5
3B85
102
{ACAD_REACTORS
330
3B98
330
3B99
330
3B9A
102
}
330
1A
100
AcDbEntity
  8
SEIHIN
100
AcDbLine
 10
211.4212704033799
 20
92.40696382664465
 30
0.0
 11
214.4212704033798
 21
95.40696382664464
 31
0.0
  0
LINE
  5
3B86
102
{ACAD_REACTORS
330
3B98
330
3B99
330
3B9A
102
}
330
1A
100
AcDbEntity
  8
SEIHIN
100
AcDbLine
 10
215.6212704033797
 20
84.40696382664464
 30
0.0
 11
208.9212704033798
 21
84.40696382664464
 31
0.0
  0
LINE
  5
3B87
102
{ACAD_REACTORS
330
3B98
330
3B99
330
3B9A
102
}
330
1A
100
AcDbEntity
  8
SEIHIN
100
AcDbLine
 10
211.4212704033799
 20
92.40696382664465
 30
0.0
 11
214.4212704033798
 21
92.40696382664465
 31
0.0
  0
LINE
  5
3B88
102
{ACAD_REACTORS
330
3B98
330
3B99
330
3B9A
102
}
330
1A
100
AcDbEntity
  8
SEIHIN
100
AcDbLine
 10
211.4212704033799
 20
92.40696382664465
 30
0.0
 11
214.4212704033798
 21
89.40696382664464
 31
0.0
  0
LINE
  5
3B89
102
{ACAD_REACTORS
330
3B98
330
3B9A
102
}
330
1A
100
AcDbEntity
  8
SEIHIN
 62
     6
100
AcDbLine
 10
168.4712704034798
 20
110.3213353666446
 30
0.0
 11
154.6625704034798
 21
110.3212353666446
 31
0.0
  0
LINE
  5
3B8A
102
{ACAD_REACTORS
330
3B98
330
3B9A
102
}
330
1A
100
AcDbEntity
  8
SEIHIN
 62
     6
100
AcDbLine
 10
157.5671704034798
 20
104.3212353666446
 30
0.0
 11
168.4712704034798
 21
104.3213353666446
 31
0.0
  0
LINE
  5
3B8B
102
{ACAD_REACTORS
330
3B98
330
3B9A
102
}
330
1A
100
AcDbEntity
  8
SEIHIN
 62
     6
100
AcDbLine
 10
154.4205704034798
 20
112.8212353666446
 30
0.0
 11
165.6212704034798
 21
112.8212353666446
 31
0.0
  0
ARC
  5
3B8C
102
{ACAD_REACTORS
330
3B98
330
3B9A
102
}
330
1A
100
AcDbEntity
  8
SEIHIN
 62
     6
100
AcDbCircle
 10
154.6625655134798
 20
107.3212329986446
 30
0.0
 40
3.000002368996017
100
AcDbArc
 50
89.99990660795349
 51
141.6619327633552
  0
ARC
  5
3B8D
102
{ACAD_REACTORS
330
3B98
330
3B9A
102
}
330
1A
100
AcDbEntity
  8
SEIHIN
 62
     6
100
AcDbCircle
 10
168.4712704034798
 20
107.3213353666446
 30
0.0
 40
3.0
100
AcDbArc
 50
270.0
 51
90.0
  0
LINE
  5
3B8E
102
{ACAD_REACTORS
330
3B98
330
3B99
330
3B9A
102
}
330
1A
100
AcDbEntity
  8
SEIHIN
100
AcDbLine
 10
215.1212704033798
 20
130.7658627766446
 30
0.0
 11
215.1212704033798
 21
120.4069638286446
 31
0.0
  0
ARC
  5
3B8F
102
{ACAD_REACTORS
330
3B98
330
3B99
330
3B9A
102
}
330
1A
100
AcDbEntity
  8
SEIHIN
100
AcDbCircle
 10
195.3167161733799
 20
128.4713300666446
 30
0.0
 40
0.9999999979783014
100
AcDbArc
 50
276.9999998178141
 51
349.18318062299
  0
ARC
  5
3B90
102
{ACAD_REACTORS
330
3B98
330
3B99
330
3B9A
102
}
330
1A
100
AcDbEntity
  8
SEIHIN
100
AcDbCircle
 10
206.1212704033798
 20
126.4069638286446
 30
0.0
 40
4.000000000161865
100
AcDbArc
 50
0.0000093392110014
 51
169.1831807624262
  0
ARC
  5
3B91
102
{ACAD_REACTORS
330
3B98
330
3B99
330
3B9A
102
}
330
1A
100
AcDbEntity
  8
SEIHIN
100
AcDbCircle
 10
195.3167161733799
 20
128.4713300666446
 30
0.0
 40
7.000000001110058
100
AcDbArc
 50
276.999989166152
 51
349.1831807662659
  0
LINE
  5
3B92
102
{ACAD_REACTORS
330
3B98
330
3B99
330
3B9A
102
}
330
1A
100
AcDbEntity
  8
SEIHIN
100
AcDbLine
 10
211.4212704033799
 20
112.4069638266446
 30
0.0
 11
214.4212704033798
 21
109.4069638266446
 31
0.0
  0
LINE
  5
3B93
102
{ACAD_REACTORS
330
3B98
330
3B99
330
3B9A
102
}
330
1A
100
AcDbEntity
  8
SEIHIN
100
AcDbLine
 10
211.4212704033799
 20
112.4069638266446
 30
0.0
 11
214.4212704033798
 21
112.4069638266446
 31
0.0
  0
LINE
  5
3B94
102
{ACAD_REACTORS
330
3B98
330
3B99
330
3B9A
102
}
330
1A
100
AcDbEntity
  8
SEIHIN
100
AcDbLine
 10
211.4212704033799
 20
112.4069638266446
 30
0.0
 11
214.4212704033798
 21
115.4069638266446
 31
0.0
  0
LINE
  5
3B95
102
{ACAD_REACTORS
330
3B98
330
3B99
330
3B9A
102
}
330
1A
100
AcDbEntity
  8
SEIHIN
100
AcDbLine
 10
208.9212704033798
 20
120.4069638286446
 30
0.0
 11
215.6212704033797
 21
120.4069638286446
 31
0.0
  0
LINE
  5
3B96
102
{ACAD_REACTORS
330
3B98
330
3B99
330
3B9A
102
}
330
1A
100
AcDbEntity
  8
SEIHIN
100
AcDbLine
 10
210.1212704033798
 20
126.4069644806446
 30
0.0
 11
210.1212704033798
 21
120.4069638286446
 31
0.0
  0
ARC
  5
3B97
102
{ACAD_REACTORS
330
3B98
330
3B99
330
3B9A
102
}
330
1A
100
AcDbEntity
  8
SEIHIN
100
AcDbCircle
 10
206.1212704033798
 20
126.4069638286446
 30
0.0
 40
10.00000000364439
100
AcDbArc
 50
25.84193278616217
 51
169.1831807790583
  0
LINE
  5
3B9B
102
{ACAD_REACTORS
330
3C72
102
}
330
1A
100
AcDbEntity
  8
NOKITOI
  6
PHANTOM
 62
     8
100
AcDbLine
 10
70.2350313937605
 20
61.68734704871798
 30
0.0
 11
64.30403139376057
 21
89.85724704871818
 31
0.0
  0
LINE
  5
3B9C
102
{ACAD_REACTORS
330
3C72
102
}
330
1A
100
AcDbEntity
  8
NOKITOI
  6
PHANTOM
 62
     8
100
AcDbLine
 10
69.12643139376058
 20
60.67444704871803
 30
0.0
 11
63.28783139376042
 21
88.40574704871817
 31
0.0
  0
ARC
  5
3B9D
102
{ACAD_REACTORS
330
3C72
102
}
330
1A
100
AcDbEntity
  8
NOKITOI
  6
PHANTOM
 62
     8
100
AcDbCircle
 10
66.36633846354738
 20
47.45943907582431
 30
0.0
 40
12.93471022655885
100
AcDbArc
 50
8.676219579621381
 51
74.45245455808946
  0
LINE
  5
3B9E
102
{ACAD_REACTORS
330
3C72
102
}
330
1A
100
AcDbEntity
  8
NOKITOI
  6
PHANTOM
 62
     8
100
AcDbLine
 10
84.44833139376049
 20
57.75034704871797
 30
0.0
 11
83.59103139376049
 21
57.25544704871817
 31
0.0
  0
LINE
  5
3B9F
102
{ACAD_REACTORS
330
3C72
102
}
330
1A
100
AcDbEntity
  8
NOKITOI
  6
PHANTOM
 62
     8
100
AcDbLine
 10
85.25343139376065
 20
58.55544704871812
 30
0.0
 11
75.34273139376063
 21
58.55544704871812
 31
0.0
  0
ARC
  5
3BA0
102
{ACAD_REACTORS
330
3C72
102
}
330
1A
100
AcDbEntity
  8
NOKITOI
  6
PHANTOM
 62
     8
100
AcDbCircle
 10
66.36640523255147
 20
47.45940693923421
 30
0.0
 40
14.22848866365036
100
AcDbArc
 50
51.52529185494234
 51
71.45345265407101
  0
ARC
  5
3BA1
102
{ACAD_REACTORS
330
3C72
102
}
330
1A
100
AcDbEntity
  8
NOKITOI
  6
PHANTOM
 62
     8
100
AcDbCircle
 10
71.20865127553196
 20
61.89232471163808
 30
0.0
 40
0.995060928010462
100
AcDbArc
 50
191.8877567214151
 51
251.4524867922939
  0
ARC
  5
3BA2
102
{ACAD_REACTORS
330
3C72
102
}
330
1A
100
AcDbEntity
  8
NOKITOI
  6
PHANTOM
 62
     8
100
AcDbCircle
 10
70.10007141814805
 20
60.8794043844922
 30
0.0
 40
0.9949785960395137
100
AcDbArc
 50
191.8875585738772
 51
254.4495841050101
  0
ARC
  5
3BA3
102
{ACAD_REACTORS
330
3C72
102
}
330
1A
100
AcDbEntity
  8
NOKITOI
  6
PHANTOM
 62
     8
100
AcDbCircle
 10
75.34273470611964
 20
58.75444589293266
 30
0.0
 40
0.1989988442421132
100
AcDbArc
 50
231.5280949042407
 51
269.9990463050553
  0
LINE
  5
3BA4
102
{ACAD_REACTORS
330
3C72
102
}
330
1A
100
AcDbEntity
  8
NOKITOI
  6
PHANTOM
 62
     8
100
AcDbLine
 10
83.59103139376049
 20
57.25544704871817
 30
0.0
 11
77.37013139376057
 21
57.25544704871817
 31
0.0
  0
ARC
  5
3BA5
102
{ACAD_REACTORS
330
3C72
102
}
330
1A
100
AcDbEntity
  8
NOKITOI
  6
PHANTOM
 62
     8
100
AcDbCircle
 10
77.37013505306373
 20
56.95545504059771
 30
0.0
 40
0.2999920081427447
100
AcDbArc
 50
90.00069889403132
 51
220.79672841758
  0
LINE
  5
3BB3
102
{ACAD_REACTORS
330
3C72
102
}
330
1A
100
AcDbEntity
  8
NOKITOI
  6
PHANTOM
 62
     8
100
AcDbLine
 10
56.24993139376062
 20
89.55874704871797
 30
0.0
 11
56.24993139376062
 21
97.56824704871798
 31
0.0
  0
ARC
  5
3BB4
102
{ACAD_REACTORS
330
3C72
102
}
330
1A
100
AcDbEntity
  8
NOKITOI
  6
PHANTOM
 62
     8
100
AcDbCircle
 10
59.53338139376052
 20
91.84719704871822
 30
0.0
 40
1.989950000628206
100
AcDbArc
 50
180.0014396286229
 51
270.0014396286237
  0
LINE
  5
3BB5
102
{ACAD_REACTORS
330
3C72
102
}
330
1A
100
AcDbEntity
  8
NOKITOI
  6
PHANTOM
 62
     8
100
AcDbLine
 10
63.09313139376064
 20
88.56374704871797
 30
0.0
 11
57.24493139376062
 21
88.56374704871797
 31
0.0
  0
LINE
  5
3BB6
102
{ACAD_REACTORS
330
3C72
102
}
330
1A
100
AcDbEntity
  8
NOKITOI
  6
PHANTOM
 62
     8
100
AcDbLine
 10
59.53343139376062
 20
89.85724704871818
 30
0.0
 11
64.30403139376057
 21
89.85724704871818
 31
0.0
  0
ARC
  5
3BB7
102
{ACAD_REACTORS
330
3C72
102
}
330
1A
100
AcDbEntity
  8
NOKITOI
  6
PHANTOM
 62
     8
100
AcDbCircle
 10
57.24493139376062
 20
89.55874704871797
 30
0.0
 40
0.9950000000000045
100
AcDbArc
 50
180.0
 51
270.0
  0
ARC
  5
3BB8
102
{ACAD_REACTORS
330
3C72
102
}
330
1A
100
AcDbEntity
  8
NOKITOI
  6
PHANTOM
 62
     8
100
AcDbCircle
 10
63.09311295114634
 20
88.36476201215488
 30
0.0
 40
0.1989850374177657
100
AcDbArc
 50
11.88631382809262
 51
89.9946896310657
  0
LINE
  5
3BB9
102
{ACAD_REACTORS
330
3C72
102
}
330
1A
100
AcDbEntity
  8
NOKITOI
  6
PHANTOM
 62
     8
100
AcDbLine
 10
59.68513139376051
 20
97.269747048718
 30
0.0
 11
59.03593139376056
 21
97.269747048718
 31
0.0
  0
LINE
  5
3BBA
102
{ACAD_REACTORS
330
3C72
102
}
330
1A
100
AcDbEntity
  8
NOKITOI
  6
PHANTOM
 62
     8
100
AcDbLine
 10
57.24493139376062
 20
98.56324704871809
 30
0.0
 11
61.47613139376057
 21
98.56324704871809
 31
0.0
  0
ARC
  5
3BBB
102
{ACAD_REACTORS
330
3C72
102
}
330
1A
100
AcDbEntity
  8
NOKITOI
  6
PHANTOM
 62
     8
100
AcDbCircle
 10
59.03588139376046
 20
95.77729704871803
 30
0.0
 40
1.49245000083754
100
AcDbArc
 50
89.99808047909004
 51
179.99808047909
  0
LINE
  5
3BBC
102
{ACAD_REACTORS
330
3C72
102
}
330
1A
100
AcDbEntity
  8
NOKITOI
  6
PHANTOM
 62
     8
100
AcDbLine
 10
57.5434313937605
 20
95.77734704871813
 30
0.0
 11
57.5434313937605
 21
91.84714704871812
 31
0.0
  0
ARC
  5
3BBD
102
{ACAD_REACTORS
330
3C72
102
}
330
1A
100
AcDbEntity
  8
NOKITOI
  6
PHANTOM
 62
     8
100
AcDbCircle
 10
57.24493139376062
 20
97.5682470487181
 30
0.0
 40
0.9950000000000613
100
AcDbArc
 50
90.00000000000325
 51
180.0000000000032
  0
LINE
  5
3BBE
102
{ACAD_REACTORS
330
3C72
102
}
330
1A
100
AcDbEntity
  8
NOKITOI
  6
PHANTOM
 62
     8
100
AcDbLine
 10
62.47103139376048
 20
97.56824704871798
 30
0.0
 11
62.47103139376048
 21
93.36344704871811
 31
0.0
  0
ARC
  5
3BBF
102
{ACAD_REACTORS
330
3C72
102
}
330
1A
100
AcDbEntity
  8
NOKITOI
  6
PHANTOM
 62
     8
100
AcDbCircle
 10
59.68513139376051
 20
95.77734704871813
 30
0.0
 40
1.492399999999918
100
AcDbArc
 50
0.0000000000016284
 51
90.00000000000245
  0
LINE
  5
3BC0
102
{ACAD_REACTORS
330
3C72
102
}
330
1A
100
AcDbEntity
  8
NOKITOI
  6
PHANTOM
 62
     8
100
AcDbLine
 10
62.47103139376048
 20
93.36344704871811
 30
0.0
 11
61.17763139376058
 21
93.36344704871811
 31
0.0
  0
LINE
  5
3BC1
102
{ACAD_REACTORS
330
3C72
102
}
330
1A
100
AcDbEntity
  8
NOKITOI
  6
PHANTOM
 62
     8
100
AcDbLine
 10
61.17763139376058
 20
93.36344704871811
 30
0.0
 11
61.17763139376058
 21
95.77734704871813
 31
0.0
  0
ARC
  5
3BC2
102
{ACAD_REACTORS
330
3C72
102
}
330
1A
100
AcDbEntity
  8
NOKITOI
  6
PHANTOM
 62
     8
100
AcDbCircle
 10
61.47608139376046
 20
97.56829704871814
 30
0.0
 40
0.9949500012563332
100
AcDbArc
 50
359.9971206704047
 51
89.99712067040476
  0
LINE
  5
3BC3
102
{ACAD_REACTORS
330
3C72
102
}
330
1A
100
AcDbEntity
  8
NOKITOI
  6
PHANTOM
 62
     8
100
AcDbLine
 10
142.5506313937606
 20
56.89274704871803
 30
0.0
 11
142.5506313937606
 21
50.36564704871807
 31
0.0
  0
LINE
  5
3BC4
102
{ACAD_REACTORS
330
3C72
102
}
330
1A
100
AcDbEntity
  8
NOKITOI
  6
PHANTOM
 62
     8
100
AcDbLine
 10
141.2505313937605
 20
50.05814704871818
 30
0.0
 11
141.2506313937604
 21
58.55514704871797
 31
0.0
  0
ARC
  5
3BC5
102
{ACAD_REACTORS
330
3C72
102
}
330
1A
100
AcDbEntity
  8
NOKITOI
  6
PHANTOM
 62
     8
100
AcDbCircle
 10
160.1374898484513
 20
47.45926218416184
 30
0.0
 40
14.23462403148678
100
AcDbArc
 50
139.2075062369009
 51
168.623785948384
  0
ARC
  5
3BC6
102
{ACAD_REACTORS
330
3C72
102
}
330
1A
100
AcDbEntity
  8
NOKITOI
  6
PHANTOM
 62
     8
100
AcDbCircle
 10
160.1375258603487
 20
47.45934080845279
 30
0.0
 40
12.93461262833301
100
AcDbArc
 50
105.5476727870196
 51
171.3237222126368
  0
ARC
  5
3BC7
102
{ACAD_REACTORS
330
3C72
102
}
330
1A
100
AcDbEntity
  8
NOKITOI
  6
PHANTOM
 62
     8
100
AcDbCircle
 10
160.1374202374397
 20
47.45943446724402
 30
0.0
 40
12.93449408578155
100
AcDbArc
 50
105.547333235354
 51
171.3240617643019
  0
LINE
  5
3BC8
102
{ACAD_REACTORS
330
3C72
102
}
330
1A
100
AcDbEntity
  8
CENTER L
  6
CENTER
 62
     1
100
AcDbLine
 10
113.2519313937606
 20
38.56569704871816
 30
0.0
 11
113.2519313937606
 21
59.86569704871818
 31
0.0
  0
LINE
  5
3BC9
102
{ACAD_REACTORS
330
3C72
102
}
330
1A
100
AcDbEntity
  8
NOKITOI
  6
PHANTOM
 62
     8
100
AcDbLine
 10
83.95333139376049
 20
50.36574704871816
 30
0.0
 11
83.95333139376049
 21
56.89304704871819
 31
0.0
  0
LINE
  5
3BCA
102
{ACAD_REACTORS
330
3C72
102
}
330
1A
100
AcDbEntity
  8
NOKITOI
  6
PHANTOM
 62
     8
100
AcDbLine
 10
85.25333139376057
 20
50.05814704871818
 30
0.0
 11
85.25343139376065
 21
58.55544704871812
 31
0.0
  0
ARC
  5
3BCB
102
{ACAD_REACTORS
330
3C72
102
}
330
1A
100
AcDbEntity
  8
NOKITOI
  6
PHANTOM
 62
     8
100
AcDbCircle
 10
66.36633659077387
 20
47.45943643295004
 30
0.0
 40
14.23472333170272
100
AcDbArc
 50
11.37541821407338
 51
40.79334907830746
  0
LINE
  5
3BCC
102
{ACAD_REACTORS
330
3C72
102
}
330
1A
100
AcDbEntity
  8
NOKITOI
  6
PHANTOM
 62
     8
100
AcDbLine
 10
137.0515313937606
 20
49.85904704871803
 30
0.0
 11
122.2971313937604
 21
49.85904704871803
 31
0.0
  0
LINE
  5
3BCD
102
{ACAD_REACTORS
330
3C72
102
}
330
1A
100
AcDbEntity
  8
NOKITOI
  6
PHANTOM
 62
     8
100
AcDbLine
 10
146.3672313937606
 20
48.56564704871823
 30
0.0
 11
80.13663139376063
 21
48.56574704871809
 31
0.0
  0
LINE
  5
3BCE
102
{ACAD_REACTORS
330
3C72
102
}
330
1A
100
AcDbEntity
  8
NOKITOI
  6
PHANTOM
 62
     8
100
AcDbLine
 10
80.13663139376063
 20
48.56574704871809
 30
0.0
 11
146.3672313937606
 21
48.56564704871823
 31
0.0
  0
LINE
  5
3BCF
102
{ACAD_REACTORS
330
3C72
102
}
330
1A
100
AcDbEntity
  8
NOKITOI
  6
PHANTOM
 62
     8
100
AcDbLine
 10
85.45233139376064
 20
49.85914704871811
 30
0.0
 11
141.0515313937606
 21
49.85904704871803
 31
0.0
  0
ARC
  5
3BD0
102
{ACAD_REACTORS
330
3C72
102
}
330
1A
100
AcDbEntity
  8
NOKITOI
  6
PHANTOM
 62
     8
100
AcDbCircle
 10
83.45333139376037
 20
50.36574704871816
 30
0.0
 40
0.5000000000000569
100
AcDbArc
 50
270.0000000000065
 51
0.0000000000065138
  0
ARC
  5
3BD1
102
{ACAD_REACTORS
330
3C72
102
}
330
1A
100
AcDbEntity
  8
NOKITOI
  6
PHANTOM
 62
     8
100
AcDbCircle
 10
80.81160835263238
 20
50.36576591300638
 30
0.0
 40
0.5000188648192144
100
AcDbArc
 50
191.386728855441
 51
270.0026402191986
  0
ARC
  5
3BD2
102
{ACAD_REACTORS
330
3C72
102
}
330
1A
100
AcDbEntity
  8
NOKITOI
  6
PHANTOM
 62
     8
100
AcDbCircle
 10
80.13663900777823
 20
49.56074050847417
 30
0.0
 40
0.9949934597852239
100
AcDbArc
 50
188.6761125650602
 51
269.9995615538234
  0
LINE
  5
3BD3
102
{ACAD_REACTORS
330
3C72
102
}
330
1A
100
AcDbEntity
  8
NOKITOI
  6
PHANTOM
 62
     8
100
AcDbLine
 10
80.8115313937605
 20
49.86574704871805
 30
0.0
 11
83.4533313937605
 21
49.86574704871805
 31
0.0
  0
ARC
  5
3BD4
102
{ACAD_REACTORS
330
3C72
102
}
330
1A
100
AcDbEntity
  8
NOKITOI
  6
PHANTOM
 62
     8
100
AcDbCircle
 10
85.45233139376064
 20
50.05814704871818
 30
0.0
 40
0.1990000000000691
100
AcDbArc
 50
179.9999999999837
 51
269.9999999999837
  0
ARC
  5
3BD5
102
{ACAD_REACTORS
330
3C72
102
}
330
1A
100
AcDbEntity
  8
NOKITOI
  6
PHANTOM
 62
     8
100
AcDbCircle
 10
141.0514813937605
 20
50.05809704871808
 30
0.0
 40
0.1990500062799141
100
AcDbArc
 50
270.0143923080609
 51
0.0143923080609162
  0
ARC
  5
3BD6
102
{ACAD_REACTORS
330
3C72
102
}
330
1A
100
AcDbEntity
  8
NOKITOI
  6
PHANTOM
 62
     8
100
AcDbCircle
 10
143.0506313937605
 20
50.36564704871818
 30
0.0
 40
0.4999999999999432
100
AcDbArc
 50
180.0000000000065
 51
270.0000000000065
  0
ARC
  5
3BD7
102
{ACAD_REACTORS
330
3C72
102
}
330
1A
100
AcDbEntity
  8
NOKITOI
  6
PHANTOM
 62
     8
100
AcDbCircle
 10
145.6923544348888
 20
50.3656659130064
 30
0.0
 40
0.5000188648190603
100
AcDbArc
 50
269.9973597808037
 51
348.6132711445597
  0
LINE
  5
3BD8
102
{ACAD_REACTORS
330
3C72
102
}
330
1A
100
AcDbEntity
  8
NOKITOI
  6
PHANTOM
 62
     8
100
AcDbLine
 10
145.6923313937606
 20
49.86564704871819
 30
0.0
 11
143.0506313937606
 21
49.86564704871819
 31
0.0
  0
ARC
  5
3BD9
102
{ACAD_REACTORS
330
3C72
102
}
330
1A
100
AcDbEntity
  8
NOKITOI
  6
PHANTOM
 62
     8
100
AcDbCircle
 10
146.3672813218565
 20
49.56068993631674
 30
0.0
 40
0.9950428888512103
100
AcDbArc
 50
269.9971250795227
 51
351.3214426795066
  0
LINE
  5
3BE3
102
{ACAD_REACTORS
330
3C72
102
}
330
1A
100
AcDbEntity
  8
NOKITOI
  6
PHANTOM
 62
     8
100
AcDbLine
 10
84.44833139376049
 20
57.75034704871797
 30
0.0
 11
83.95333139376049
 21
56.89304704871819
 31
0.0
  0
LINE
  5
3C30
102
{ACAD_REACTORS
330
3C72
102
}
330
1A
100
AcDbEntity
  8
NOKITOI
  6
PHANTOM
 62
     8
100
AcDbLine
 10
169.2591313937605
 20
98.56314704871813
 30
0.0
 11
164.0554313937605
 21
98.56304704871803
 31
0.0
  0
LINE
  5
3C31
102
{ACAD_REACTORS
330
3C72
102
}
330
1A
100
AcDbEntity
  8
NOKITOI
  6
PHANTOM
 62
     8
100
AcDbLine
 10
168.9541313937606
 20
97.2630470487182
 30
0.0
 11
165.0877313937604
 21
97.2630470487182
 31
0.0
  0
LINE
  5
3C32
102
{ACAD_REACTORS
330
3C72
102
}
330
1A
100
AcDbEntity
  8
NOKITOI
  6
PHANTOM
 62
     8
100
AcDbLine
 10
168.9541313937606
 20
89.86354704871798
 30
0.0
 11
163.5298313937606
 21
89.86364704871807
 31
0.0
  0
LINE
  5
3C33
102
{ACAD_REACTORS
330
3C72
102
}
330
1A
100
AcDbEntity
  8
NOKITOI
  6
PHANTOM
 62
     8
100
AcDbLine
 10
163.4109313937604
 20
88.56354704871813
 30
0.0
 11
169.2591313937605
 21
88.56354704871813
 31
0.0
  0
LINE
  5
3C35
102
{ACAD_REACTORS
330
3C72
102
}
330
1A
100
AcDbEntity
  8
NOKITOI
  6
PHANTOM
 62
     8
100
AcDbLine
 10
156.2688313937606
 20
61.68674704871813
 30
0.0
 11
161.7238313937604
 21
87.59564704871804
 31
0.0
  0
LINE
  5
3C36
102
{ACAD_REACTORS
330
3C72
102
}
330
1A
100
AcDbEntity
  8
NOKITOI
  6
PHANTOM
 62
     8
100
AcDbLine
 10
157.3775313937606
 20
60.67424704871797
 30
0.0
 11
163.2162313937604
 21
88.40564704871798
 31
0.0
  0
LINE
  5
3C37
102
{ACAD_REACTORS
330
3C72
102
}
330
1A
100
AcDbEntity
  8
NOKITOI
  6
PHANTOM
 62
     8
100
AcDbLine
 10
141.2506313937604
 20
58.55514704871797
 30
0.0
 11
151.2311313937604
 21
58.55504704871811
 31
0.0
  0
LINE
  5
3C38
102
{ACAD_REACTORS
330
3C72
102
}
330
1A
100
AcDbEntity
  8
NOKITOI
  6
PHANTOM
 62
     8
100
AcDbLine
 10
149.1335313937604
 20
57.25504704871804
 30
0.0
 11
142.9129313937606
 21
57.25504704871804
 31
0.0
  0
LINE
  5
3C39
102
{ACAD_REACTORS
330
3C72
102
}
330
1A
100
AcDbEntity
  8
NOKITOI
  6
PHANTOM
 62
     8
100
AcDbLine
 10
142.0556313937604
 20
57.75004704871804
 30
0.0
 11
142.5506313937606
 21
56.89274704871803
 31
0.0
  0
LINE
  5
3C3A
102
{ACAD_REACTORS
330
3C72
102
}
330
1A
100
AcDbEntity
  8
NOKITOI
  6
PHANTOM
 62
     8
100
AcDbLine
 10
142.0556313937604
 20
57.75004704871804
 30
0.0
 11
142.9129313937606
 21
57.25504704871804
 31
0.0
  0
ARC
  5
3C3B
102
{ACAD_REACTORS
330
3C72
102
}
330
1A
100
AcDbEntity
  8
NOKITOI
  6
PHANTOM
 62
     8
100
AcDbCircle
 10
149.1335450716118
 20
56.95501718502419
 30
0.0
 40
0.3000298640056128
100
AcDbArc
 50
319.2190584222774
 51
90.00261201719977
  0
ARC
  5
3C3C
102
{ACAD_REACTORS
330
3C72
102
}
330
1A
100
AcDbEntity
  8
NOKITOI
  6
PHANTOM
 62
     8
100
AcDbCircle
 10
160.1375458973091
 20
47.45935497290656
 30
0.0
 40
14.22809199964113
100
AcDbArc
 50
108.5474584936554
 51
128.7537062451649
  0
ARC
  5
3C3D
102
{ACAD_REACTORS
330
3C72
102
}
330
1A
100
AcDbEntity
  8
NOKITOI
  6
PHANTOM
 62
     8
100
AcDbCircle
 10
155.2952749633116
 20
61.89179600048698
 30
0.0
 40
0.9950135261271753
100
AcDbArc
 50
288.5445751594485
 51
348.1074736523477
  0
ARC
  5
3C3E
102
{ACAD_REACTORS
330
3C72
102
}
330
1A
100
AcDbEntity
  8
NOKITOI
  6
PHANTOM
 62
     8
100
AcDbCircle
 10
156.4039057306127
 20
60.87932630010556
 30
0.0
 40
0.9949690575286499
100
AcDbArc
 50
285.5437330810334
 51
348.1110361155306
  0
LINE
  5
3C46
102
{ACAD_REACTORS
330
3C72
102
}
330
1A
100
AcDbEntity
  8
NOKITOI
  6
PHANTOM
 62
     8
100
AcDbLine
 10
165.0877313937604
 20
97.2630470487182
 30
0.0
 11
163.5298313937606
 21
89.86364704871807
 31
0.0
  0
LINE
  5
3C47
102
{ACAD_REACTORS
330
3C72
102
}
330
1A
100
AcDbEntity
  8
NOKITOI
  6
PHANTOM
 62
     8
100
AcDbLine
 10
161.7238313937604
 20
87.59564704871804
 30
0.0
 11
164.0329313937604
 21
98.56304704871803
 31
0.0
  0
ARC
  5
3C4C
102
{ACAD_REACTORS
330
3C72
102
}
330
1A
100
AcDbEntity
  8
NOKITOI
  6
PHANTOM
 62
     8
100
AcDbCircle
 10
163.4109498363747
 20
88.36466201215484
 30
0.0
 40
0.1989850374179911
100
AcDbArc
 50
90.00531036897097
 51
168.1136861719431
  0
LINE
  5
3C4D
102
{ACAD_REACTORS
330
3C72
102
}
330
1A
100
AcDbEntity
  8
NOKITOI
  6
PHANTOM
 62
     8
100
AcDbLine
 10
170.2541313937605
 20
89.55854704871802
 30
0.0
 11
170.2541313937605
 21
97.568147048718
 31
0.0
  0
LINE
  5
3C4E
102
{ACAD_REACTORS
330
3C72
102
}
330
1A
100
AcDbEntity
  8
NOKITOI
  6
PHANTOM
 62
     8
100
AcDbLine
 10
168.9541313937606
 20
89.86354704871798
 30
0.0
 11
168.9541313937606
 21
97.2630470487182
 31
0.0
  0
ARC
  5
3C4F
102
{ACAD_REACTORS
330
3C72
102
}
330
1A
100
AcDbEntity
  8
NOKITOI
  6
PHANTOM
 62
     8
100
AcDbCircle
 10
169.2591313937606
 20
89.55854704871809
 30
0.0
 40
0.9949999999999192
100
AcDbArc
 50
269.9999999999951
 51
359.9999999999951
  0
ARC
  5
3C50
102
{ACAD_REACTORS
330
3C72
102
}
330
1A
100
AcDbEntity
  8
NOKITOI
  6
PHANTOM
 62
     8
100
AcDbCircle
 10
169.2591313937605
 20
97.56814704871812
 30
0.0
 40
0.9950000000000613
100
AcDbArc
 50
359.9999999999967
 51
89.99999999999674
  0
VIEWPORT
  5
22
330
17
100
AcDbEntity
 67
     1
  8
0
100
AcDbViewport
 10
313.6808219178082
 20
148.5
 30
0.0
 40
627.3616438356165
 41
297.0
 68
     2
 69
     1
 12
313.6808219178082
 22
148.5
 13
0.0
 23
0.0
 14
1.0
 24
1.0
 15
10.0
 25
10.0
 16
0.0
 26
0.0
 36
1.0
 17
0.0
 27
0.0
 37
0.0
 42
50.0
 43
0.0
 44
0.0
 45
297.0
 50
0.0
 51
0.0
 72
   100
 90
    32768
  1

281
     0
 71
     1
 74
     0
110
0.0
120
0.0
130
0.0
111
1.0
121
0.0
131
0.0
112
0.0
122
1.0
132
0.0
 79
     0
146
0.0
  0
VIEWPORT
  5
64
330
17
100
AcDbEntity
 67
     1
  8
VIEWPORT
100
AcDbViewport
 10
210.0
 20
148.5
 30
0.0
 40
420.0
 41
297.0
 68
     1
 69
     2
 12
210.0
 22
148.5
 13
0.0
 23
0.0
 14
5.0
 24
5.0
 15
0.0
 25
0.0
 16
0.0
 26
0.0
 36
1.0
 17
0.0
 27
0.0
 37
0.0
 42
50.0
 43
0.0
 44
0.0
 45
302.9399999999998
 50
0.0
 51
0.0
 72
   100
 90
    32768
  1

281
     0
 71
     1
 74
     0
110
0.0
120
0.0
130
0.0
111
1.0
121
0.0
131
0.0
112
0.0
122
1.0
132
0.0
 79
     0
146
0.0
  0
ENDSEC
  0
SECTION
  2
OBJECTS
  0
DICTIONARY
  5
C
330
0
100
AcDbDictionary
281
     1
  3
ACAD_GROUP
350
D
  3
ACAD_LAYOUT
350
141
  3
ACAD_MLINESTYLE
350
E
  3
ACAD_PLOTSETTINGS
350
142
  3
ACAD_PLOTSTYLENAME
350
13F
  3
AcadDim
350
1A14
  3
AcDbVariableDictionary
350
120D
  0
DICTIONARY
  5
7A2
330
1A
100
AcDbDictionary
280
     1
281
     1
  3
ACAD_LAYOUTSELFREF
360
3CCF
  0
DICTIONARY
  5
7A0
330
17
100
AcDbDictionary
280
     1
281
     1
  3
ACAD_LAYOUTSELFREF
360
3CCE
  0
DICTIONARY
  5
D
102
{ACAD_REACTORS
330
C
102
}
330
C
100
AcDbDictionary
281
     1
  3
*A1
350
3C72
  3
*A2
350
3AFF
  3
*A3
350
3B0B
  3
*A4
350
3B98
  3
*A5
350
3B99
  3
*A6
350
3B9A
  3
*A7
350
3C6F
  3
*A8
350
3C70
  3
*A9
350
3C71
  0
DICTIONARY
  5
141
102
{ACAD_REACTORS
330
C
102
}
330
C
100
AcDbDictionary
281
     1
  3
Model
350
143
  3
ﾚｲｱｳﾄ1
350
144
  0
DICTIONARY
  5
E
102
{ACAD_REACTORS
330
C
102
}
330
C
100
AcDbDictionary
281
     1
  3
STANDARD
350
13
  0
DICTIONARY
  5
142
102
{ACAD_REACTORS
330
C
102
}
330
C
100
AcDbDictionary
281
     1
  0
ACDBDICTIONARYWDFLT
  5
13F
102
{ACAD_REACTORS
330
C
102
}
330
C
100
AcDbDictionary
281
     1
  3
Normal
350
140
100
AcDbDictionaryWithDefault
340
140
1001
ACAD
1000
TREAT_AS_HARD
1070
     0
1000
TREAT_AS_HARD
1070
     0
1000
TREAT_AS_HARD
1070
     0
1000
TREAT_AS_HARD
1070
     0
1000
TREAT_AS_HARD
1070
     0
1000
TREAT_AS_HARD
1070
     0
1000
TREAT_AS_HARD
1070
     0
1000
TREAT_AS_HARD
1070
     0
1000
TREAT_AS_HARD
1070
     0
1000
TREAT_AS_HARD
1070
     0
1000
TREAT_AS_HARD
1070
     0
1000
TREAT_AS_HARD
1070
     0
  0
XRECORD
  5
1A14
102
{ACAD_REACTORS
330
C
102
}
330
C
100
AcDbXrecord
280
     1
 90
   990106
  3

 60
     0
 61
     0
 62
     1
 63
     3
 64
     0
 65
     0
 66
     0
 67
     3
 68
     1
 69
     0
 70
     0
 71
     0
 72
     0
 40
0.0
170
     0
340
0
  0
DICTIONARY
  5
120D
102
{ACAD_REACTORS
330
C
102
}
330
C
100
AcDbDictionary
281
     1
  3
SORTENTS
350
120E
  0
XRECORD
  5
3CCF
102
{ACAD_REACTORS
330
7A2
102
}
330
7A2
100
AcDbXrecord
280
     1
340
1A
  0
XRECORD
  5
3CCE
102
{ACAD_REACTORS
330
7A0
102
}
330
7A0
100
AcDbXrecord
280
     1
340
17
  0
GROUP
  5
3C72
102
{ACAD_REACTORS
330
D
102
}
330
D
100
AcDbGroup
300

 70
     1
 71
     1
340
3C4E
340
3C4D
340
3C47
340
3C46
340
3BBC
340
3BB3
340
3BCF
340
3BCE
340
3BCD
340
3BC8
340
3B9F
340
3B9C
340
3B9B
340
3BE3
340
3B9E
340
3B9D
340
3BCB
340
3BC9
340
3BD1
340
3BD2
340
3BD3
340
3BD0
340
3BA4
340
3BA5
340
3BA0
340
3BA2
340
3BA1
340
3BA3
340
3BB6
340
3BB5
340
3BB7
340
3BB4
340
3BB8
340
3BCA
340
3BD4
340
3C37
340
3BC7
340
3BC6
340
3BCC
340
3C3A
340
3C39
340
3BC4
340
3BD5
340
3BC5
340
3BC3
340
3BD8
340
3BD7
340
3BD6
340
3BD9
340
3C38
340
3C3B
340
3C36
340
3C35
340
3C3C
340
3C3E
340
3C3D
340
3C33
340
3C32
340
3C4C
340
3C4F
340
3BBF
340
3BBA
340
3BBD
340
3BBB
340
3BB9
340
3BC2
340
3BC1
340
3BC0
340
3BBE
340
3C31
340
3C30
340
3C50
  0
GROUP
  5
3AFF
102
{ACAD_REACTORS
330
D
102
}
330
D
100
AcDbGroup
300

 70
     1
 71
     1
  0
GROUP
  5
3B0B
102
{ACAD_REACTORS
330
D
102
}
330
D
100
AcDbGroup
300

 70
     1
 71
     1
  0
GROUP
  5
3B98
102
{ACAD_REACTORS
330
D
102
}
330
D
100
AcDbGroup
300

 70
     1
 71
     1
340
3B79
340
3B7A
340
3B27
340
3B26
340
3B49
340
3B40
340
3B2C
340
3B68
340
3B67
340
3B2B
340
3B43
340
3B42
340
3B48
340
3B41
340
3B33
340
3B2A
340
3B0F
340
3B19
340
3B11
340
3B12
340
3B13
340
3B10
340
3B14
340
3B17
340
3B16
340
3B15
340
3B32
340
3B0E
340
3B0D
340
3B0C
340
3B1C
340
3B1B
340
3B18
340
3B1A
340
3B35
340
3B34
340
3B36
340
3B3F
340
3B44
340
3B4A
340
3B3A
340
3B39
340
3B3B
340
3B37
340
3B38
340
3B3D
340
3B3C
340
3B69
340
3B66
340
3B65
340
3B6B
340
3B6A
340
3B8D
340
3B25
340
3B29
340
3B78
340
3B28
340
3B30
340
3B2F
340
3B2E
340
3B31
340
3B2D
340
3B56
340
3B3E
340
3B47
340
3B46
340
3B45
340
3B52
340
3B51
340
3B50
340
3B4F
340
3B4E
340
3B4D
340
3B4C
340
3B4B
340
3B54
340
3B53
340
3B5A
340
3B59
340
3B58
340
3B57
340
3B55
340
3B5B
340
3B61
340
3B24
340
3B23
340
3B22
340
3B62
340
3B5D
340
3B5E
340
3B5F
340
3B5C
340
3B63
340
3B60
340
3B21
340
3B83
340
3B7E
340
3B7D
340
3B7C
340
3B7F
340
3B84
340
3B8A
340
3B81
340
3B80
340
3B7B
340
3B64
340
3B6E
340
3B6D
340
3B6C
340
3B70
340
3B6F
340
3B71
340
3B73
340
3B72
340
3B74
340
3B89
340
3B8B
340
3B8C
340
3B20
340
3B77
340
3B76
340
3B75
340
3B1F
340
3B82
340
3B85
340
3B88
340
3B86
340
3B87
340
3B90
340
3B97
340
3B1E
340
3B1D
340
3B8F
340
3B91
340
3B8E
340
3B94
340
3B92
340
3B93
340
3B95
340
3B96
  0
GROUP
  5
3B99
102
{ACAD_REACTORS
330
D
102
}
330
D
100
AcDbGroup
300

 70
     1
 71
     1
340
3B85
340
3B75
340
3B76
340
3B77
340
3B34
340
3B39
340
3B35
340
3B3A
340
3B31
340
3B32
340
3B33
340
3B36
340
3B3B
340
3B41
340
3B48
340
3B42
340
3B43
340
3B3F
340
3B44
340
3B4A
340
3B3E
340
3B47
340
3B45
340
3B52
340
3B4B
340
3B4C
340
3B1F
340
3B87
340
3B86
340
3B88
340
3B97
340
3B8F
340
3B91
340
3B26
340
3B27
340
3B2B
340
3B3C
340
3B38
340
3B3D
340
3B37
340
3B64
340
3B67
340
3B68
340
3B2C
340
3B2A
340
3B6A
340
3B65
340
3B66
340
3B69
340
3B6B
340
3B28
340
3B55
340
3B6C
340
3B6D
340
3B6F
340
3B6E
340
3B70
340
3B71
340
3B72
340
3B73
340
3B74
340
3B1D
340
3B1E
340
3B93
340
3B92
340
3B94
340
3B95
340
3B90
340
3B96
340
3B8E
  0
GROUP
  5
3B9A
102
{ACAD_REACTORS
330
D
102
}
330
D
100
AcDbGroup
300

 70
     1
 71
     1
340
3B10
340
3B0F
340
3B17
340
3B11
340
3B12
340
3B16
340
3B13
340
3B14
340
3B15
340
3B97
340
3B91
340
3B83
340
3B82
340
3B55
340
3B3A
340
3B39
340
3B35
340
3B34
340
3B32
340
3B31
340
3B29
340
3B25
340
3B22
340
3B21
340
3B61
340
3B30
340
3B2F
340
3B2E
340
3B4A
340
3B44
340
3B33
340
3B0E
340
3B0D
340
3B0C
340
3B19
340
3B1C
340
3B18
340
3B1A
340
3B1B
340
3B3F
340
3B3B
340
3B36
340
3B56
340
3B2D
340
3B45
340
3B43
340
3B42
340
3B51
340
3B50
340
3B3E
340
3B41
340
3B40
340
3B4F
340
3B46
340
3B47
340
3B49
340
3B48
340
3B4E
340
3B4D
340
3B4C
340
3B4B
340
3B52
340
3B54
340
3B53
340
3B5A
340
3B59
340
3B57
340
3B58
340
3B5B
340
3B7C
340
3B7A
340
3B24
340
3B23
340
3B60
340
3B5D
340
3B5E
340
3B62
340
3B5C
340
3B5F
340
3B63
340
3B7F
340
3B7D
340
3B7E
340
3B84
340
3B27
340
3B26
340
3B69
340
3B2C
340
3B2B
340
3B2A
340
3B3C
340
3B38
340
3B37
340
3B3D
340
3B66
340
3B65
340
3B64
340
3B28
340
3B6C
340
3B68
340
3B67
340
3B6B
340
3B6A
340
3B70
340
3B6E
340
3B6F
340
3B6D
340
3B71
340
3B74
340
3B73
340
3B72
340
3B8D
340
3B7B
340
3B79
340
3B8C
340
3B20
340
3B8A
340
3B81
340
3B80
340
3B78
340
3B8B
340
3B89
340
3B8F
340
3B85
340
3B77
340
3B76
340
3B75
340
3B1F
340
3B86
340
3B88
340
3B87
340
3B1E
340
3B1D
340
3B92
340
3B94
340
3B93
340
3B90
340
3B8E
340
3B95
340
3B96
  0
GROUP
  5
3C6F
102
{ACAD_REACTORS
330
D
102
}
330
D
100
AcDbGroup
300

 70
     1
 71
     1
  0
GROUP
  5
3C70
102
{ACAD_REACTORS
330
D
102
}
330
D
100
AcDbGroup
300

 70
     1
 71
     1
  0
GROUP
  5
3C71
102
{ACAD_REACTORS
330
D
102
}
330
D
100
AcDbGroup
300

 70
     1
 71
     1
  0
LAYOUT
  5
143
102
{ACAD_REACTORS
330
141
102
}
330
141
100
AcDbPlotSettings
  1

  2
Acrobat Distiller
  4
A3
  6

 40
3.174999952316284
 41
3.174999952316284
 42
3.17498779296875
 43
3.17498779296875
 44
297.0318298339843
 45
420.1583251953125
 46
7.0
 47
7.0
 48
-10.98217039623477
 49
-8.760143579390614
140
409.0066258026172
141
284.4195676955944
142
1.0
143
1.0
 70
 11952
 72
     1
 73
     1
 74
     2
  7
print.ctb
 75
    16
147
1.0
148
0.0
149
0.0
100
AcDbLayout
  1
Model
 70
     1
 71
     0
 10
0.0
 20
0.0
 11
12.0
 21
9.0
 12
0.0
 22
0.0
 32
0.0
 14
0.0
 24
0.0
 34
0.0
 15
0.0
 25
0.0
 35
0.0
146
0.0
 13
0.0
 23
0.0
 33
0.0
 16
1.0
 26
0.0
 36
0.0
 17
0.0
 27
1.0
 37
0.0
 76
     0
330
1A
  0
LAYOUT
  5
144
102
{ACAD_REACTORS
330
141
102
}
330
141
100
AcDbPlotSettings
  1

  2
Canon LBP-A404 LIPS3
  4

  6

 40
0.0
 41
0.0
 42
0.0
 43
0.0
 44
0.0
 45
0.0
 46
0.0
 47
0.0
 48
0.0
 49
0.0
140
0.0
141
0.0
142
1.0
143
1.0
 70
   688
 72
     0
 73
     0
 74
     5
  7
print.ctb
 75
    16
147
1.0
148
0.0
149
0.0
100
AcDbLayout
  1
ﾚｲｱｳﾄ1
 70
     1
 71
     1
 10
0.0
 20
0.0
 11
420.0
 21
297.0
 12
0.0
 22
0.0
 32
0.0
 14
0.0
 24
0.0
 34
0.0
 15
420.0
 25
297.0
 35
0.0
146
0.0
 13
0.0
 23
0.0
 33
0.0
 16
1.0
 26
0.0
 36
0.0
 17
0.0
 27
1.0
 37
0.0
 76
     0
330
17
331
64
  0
MLINESTYLE
  5
13
102
{ACAD_REACTORS
330
E
102
}
330
E
100
AcDbMlineStyle
  2
STANDARD
 70
     0
  3

 62
     0
 51
90.0
 52
90.0
 71
     2
 49
0.5
 62
   256
  6
BYLAYER
 49
-0.5
 62
   256
  6
BYLAYER
  0
ACDBPLACEHOLDER
  5
140
102
{ACAD_REACTORS
330
13F
102
}
330
13F
  0
DICTIONARYVAR
  5
120E
102
{ACAD_REACTORS
330
120D
102
}
330
120D
100
DictionaryVariables
280
     0
  1
96
  0
ENDSEC
  0
EOF
