  0
SECTION
  2
HEADER
  9
$ACADVER
  1
AC1015
  9
$ACADMAINTVER
 70
     6
  9
$DWGCODEPAGE
  3
ANSI_932
  9
$INSBASE
 10
0.0
 20
0.0
 30
0.0
  9
$EXTMIN
 10
-0.0000003224365628
 20
0.0000000308041308
 30
-0.00000001
  9
$EXTMAX
 10
398.7999996775635
 20
275.8000000308042
 30
0.00000001
  9
$LIMMIN
 10
0.0
 20
0.0
  9
$LIMMAX
 10
420.0
 20
297.0
  9
$ORTHOMODE
 70
     1
  9
$REGENMODE
 70
     1
  9
$FILLMODE
 70
     1
  9
$QTEXTMODE
 70
     0
  9
$MIRRTEXT
 70
     1
  9
$LTSCALE
 40
5.0
  9
$ATTMODE
 70
     1
  9
$TEXTSIZE
 40
3.0
  9
$TRACEWID
 40
1.0
  9
$TEXTSTYLE
  7
STANDARD
  9
$CLAYER
  8
SUNPOU
  9
$CELTYPE
  6
BYLAYER
  9
$CECOLOR
 62
   256
  9
$CELTSCALE
 40
1.0
  9
$DISPSILH
 70
     0
  9
$DIMSCALE
 40
1.0
  9
$DIMASZ
 40
3.0
  9
$DIMEXO
 40
3.0
  9
$DIMDLI
 40
7.0
  9
$DIMRND
 40
0.0
  9
$DIMDLE
 40
0.0
  9
$DIMEXE
 40
1.5
  9
$DIMTP
 40
0.0
  9
$DIMTM
 40
0.0
  9
$DIMTXT
 40
3.0
  9
$DIMCEN
 40
3.0
  9
$DIMTSZ
 40
0.0
  9
$DIMTOL
 70
     0
  9
$DIMLIM
 70
     0
  9
$DIMTIH
 70
     0
  9
$DIMTOH
 70
     0
  9
$DIMSE1
 70
     0
  9
$DIMSE2
 70
     0
  9
$DIMTAD
 70
     3
  9
$DIMZIN
 70
     0
  9
$DIMBLK
  1

  9
$DIMASO
 70
     1
  9
$DIMSHO
 70
     1
  9
$DIMPOST
  1

  9
$DIMAPOST
  1

  9
$DIMALT
 70
     0
  9
$DIMALTD
 70
     2
  9
$DIMALTF
 40
25.4
  9
$DIMLFAC
 40
1.0
  9
$DIMTOFL
 70
     1
  9
$DIMTVP
 40
0.0
  9
$DIMTIX
 70
     0
  9
$DIMSOXD
 70
     0
  9
$DIMSAH
 70
     1
  9
$DIMBLK1
  1
OPEN
  9
$DIMBLK2
  1
OPEN
  9
$DIMSTYLE
  2
STANDARD
  9
$DIMCLRD
 70
   256
  9
$DIMCLRE
 70
   256
  9
$DIMCLRT
 70
   256
  9
$DIMTFAC
 40
1.0
  9
$DIMGAP
 40
1.0
  9
$DIMJUST
 70
     0
  9
$DIMSD1
 70
     0
  9
$DIMSD2
 70
     0
  9
$DIMTOLJ
 70
     1
  9
$DIMTZIN
 70
     0
  9
$DIMALTZ
 70
     0
  9
$DIMALTTZ
 70
     0
  9
$DIMUPT
 70
     0
  9
$DIMDEC
 70
     0
  9
$DIMTDEC
 70
     0
  9
$DIMALTU
 70
     2
  9
$DIMALTTD
 70
     2
  9
$DIMTXSTY
  7
STANDARD
  9
$DIMAUNIT
 70
     0
  9
$DIMADEC
 70
     0
  9
$DIMALTRND
 40
0.0
  9
$DIMAZIN
 70
     0
  9
$DIMDSEP
 70
    46
  9
$DIMATFIT
 70
     3
  9
$DIMFRAC
 70
     0
  9
$DIMLDRBLK
  1
OPEN
  9
$DIMLUNIT
 70
     2
  9
$DIMLWD
 70
    -1
  9
$DIMLWE
 70
    -1
  9
$DIMTMOVE
 70
     0
  9
$LUNITS
 70
     2
  9
$LUPREC
 70
     4
  9
$SKETCHINC
 40
1.0
  9
$FILLETRAD
 40
2.0
  9
$AUNITS
 70
     0
  9
$AUPREC
 70
     0
  9
$MENU
  1
.
  9
$ELEVATION
 40
0.0
  9
$PELEVATION
 40
0.0
  9
$THICKNESS
 40
0.0
  9
$LIMCHECK
 70
     0
  9
$CHAMFERA
 40
10.0
  9
$CHAMFERB
 40
10.0
  9
$CHAMFERC
 40
20.0
  9
$CHAMFERD
 40
0.0
  9
$SKPOLY
 70
     0
  9
$TDCREATE
 40
2451589.469382176
  9
$TDUCREATE
 40
2451589.094382176
  9
$TDUPDATE
 40
2456210.691012430
  9
$TDUUPDATE
 40
2456210.316012430
  9
$TDINDWG
 40
0.2769104167
  9
$TDUSRTIMER
 40
0.2769104167
  9
$USRTIMER
 70
     1
  9
$ANGBASE
 50
0.0
  9
$ANGDIR
 70
     0
  9
$PDMODE
 70
     0
  9
$PDSIZE
 40
0.0
  9
$PLINEWID
 40
0.0
  9
$SPLFRAME
 70
     0
  9
$SPLINETYPE
 70
     6
  9
$SPLINESEGS
 70
     8
  9
$HANDSEED
  5
48C4
  9
$SURFTAB1
 70
     6
  9
$SURFTAB2
 70
     6
  9
$SURFTYPE
 70
     6
  9
$SURFU
 70
     6
  9
$SURFV
 70
     6
  9
$UCSBASE
  2

  9
$UCSNAME
  2

  9
$UCSORG
 10
0.0
 20
0.0
 30
0.0
  9
$UCSXDIR
 10
1.0
 20
0.0
 30
0.0
  9
$UCSYDIR
 10
0.0
 20
1.0
 30
0.0
  9
$UCSORTHOREF
  2

  9
$UCSORTHOVIEW
 70
     0
  9
$UCSORGTOP
 10
0.0
 20
0.0
 30
0.0
  9
$UCSORGBOTTOM
 10
0.0
 20
0.0
 30
0.0
  9
$UCSORGLEFT
 10
0.0
 20
0.0
 30
0.0
  9
$UCSORGRIGHT
 10
0.0
 20
0.0
 30
0.0
  9
$UCSORGFRONT
 10
0.0
 20
0.0
 30
0.0
  9
$UCSORGBACK
 10
0.0
 20
0.0
 30
0.0
  9
$PUCSBASE
  2

  9
$PUCSNAME
  2

  9
$PUCSORG
 10
0.0
 20
0.0
 30
0.0
  9
$PUCSXDIR
 10
1.0
 20
0.0
 30
0.0
  9
$PUCSYDIR
 10
0.0
 20
1.0
 30
0.0
  9
$PUCSORTHOREF
  2

  9
$PUCSORTHOVIEW
 70
     0
  9
$PUCSORGTOP
 10
0.0
 20
0.0
 30
0.0
  9
$PUCSORGBOTTOM
 10
0.0
 20
0.0
 30
0.0
  9
$PUCSORGLEFT
 10
0.0
 20
0.0
 30
0.0
  9
$PUCSORGRIGHT
 10
0.0
 20
0.0
 30
0.0
  9
$PUCSORGFRONT
 10
0.0
 20
0.0
 30
0.0
  9
$PUCSORGBACK
 10
0.0
 20
0.0
 30
0.0
  9
$USERI1
 70
     0
  9
$USERI2
 70
     0
  9
$USERI3
 70
     0
  9
$USERI4
 70
     0
  9
$USERI5
 70
     0
  9
$USERR1
 40
0.0
  9
$USERR2
 40
0.0
  9
$USERR3
 40
0.0
  9
$USERR4
 40
0.0
  9
$USERR5
 40
0.0
  9
$WORLDVIEW
 70
     1
  9
$SHADEDGE
 70
     3
  9
$SHADEDIF
 70
    70
  9
$TILEMODE
 70
     1
  9
$MAXACTVP
 70
    16
  9
$PINSBASE
 10
0.0
 20
0.0
 30
0.0
  9
$PLIMCHECK
 70
     0
  9
$PEXTMIN
 10
0.0
 20
0.0
 30
0.0
  9
$PEXTMAX
 10
420.0
 20
297.0
 30
0.0
  9
$PLIMMIN
 10
0.0
 20
0.0
  9
$PLIMMAX
 10
420.0
 20
297.0
  9
$UNITMODE
 70
     0
  9
$VISRETAIN
 70
     0
  9
$PLINEGEN
 70
     0
  9
$PSLTSCALE
 70
     1
  9
$TREEDEPTH
 70
  3020
  9
$CMLSTYLE
  2
STANDARD
  9
$CMLJUST
 70
     0
  9
$CMLSCALE
 40
1.0
  9
$PROXYGRAPHICS
 70
     1
  9
$MEASUREMENT
 70
     0
  9
$CELWEIGHT
370
    -1
  9
$ENDCAPS
280
     0
  9
$JOINSTYLE
280
     0
  9
$LWDISPLAY
290
     0
  9
$INSUNITS
 70
     0
  9
$HYPERLINKBASE
  1

  9
$STYLESHEET
  1
print.ctb
  9
$XEDIT
290
     1
  9
$CEPSNTYPE
380
     0
  9
$PSTYLEMODE
290
     1
  9
$FINGERPRINTGUID
  2
{4E8D0500-CDD1-11D3-932C-444553540000}
  9
$VERSIONGUID
  2
{843C9383-F235-4AC5-BCD3-E21300A3B7AA}
  9
$EXTNAMES
290
     1
  9
$PSVPSCALE
 40
0.0
  9
$OLESTARTUP
290
     0
  0
ENDSEC
  0
SECTION
  2
CLASSES
  0
CLASS
  1
ACDBDICTIONARYWDFLT
  2
AcDbDictionaryWithDefault
  3
AutoCAD 2000
 90
        0
280
     0
281
     0
  0
CLASS
  1
ACDBPLACEHOLDER
  2
AcDbPlaceHolder
  3
AutoCAD 2000
 90
        0
280
     0
281
     0
  0
CLASS
  1
LAYOUT
  2
AcDbLayout
  3
AutoCAD 2000
 90
        0
280
     0
281
     0
  0
CLASS
  1
LONG_TRANSACTION
  2
AcDbLongTransaction
  3
AutoCAD 2000
 90
    32768
280
     0
281
     0
  0
CLASS
  1
LWPOLYLINE
  2
AcDbPolyline
  3
AutoCAD 2000
 90
    32768
280
     0
281
     1
  0
CLASS
  1
HATCH
  2
AcDbHatch
  3
AutoCAD 2000
 90
    32768
280
     0
281
     1
  0
CLASS
  1
XRECORD
  2
AcDbXrecord
  3
AutoCAD 2000
 90
    32768
280
     0
281
     0
  0
CLASS
  1
LONG_TRANSACTION
  2
AcDbLongTransaction
  3
AutoCAD 2000
 90
    32768
280
     0
281
     0
  0
CLASS
  1
LWPOLYLINE
  2
AcDbPolyline
  3
AutoCAD 2000
 90
    32768
280
     0
281
     1
  0
CLASS
  1
HATCH
  2
AcDbHatch
  3
AutoCAD 2000
 90
    32768
280
     0
281
     1
  0
CLASS
  1
XRECORD
  2
AcDbXrecord
  3
AutoCAD 2000
 90
    32768
280
     0
281
     0
  0
CLASS
  1
DICTIONARYVAR
  2
AcDbDictionaryVar
  3
AutoCAD 2000
 90
        0
280
     0
281
     0
  0
CLASS
  1
LONG_TRANSACTION
  2
AcDbLongTransaction
  3
AutoCAD 2000
 90
    32768
280
     0
281
     0
  0
CLASS
  1
LWPOLYLINE
  2
AcDbPolyline
  3
AutoCAD 2000
 90
    32768
280
     0
281
     1
  0
CLASS
  1
HATCH
  2
AcDbHatch
  3
AutoCAD 2000
 90
    32768
280
     0
281
     1
  0
CLASS
  1
XRECORD
  2
AcDbXrecord
  3
AutoCAD 2000
 90
    32768
280
     0
281
     0
  0
CLASS
  1
LONG_TRANSACTION
  2
AcDbLongTransaction
  3
AutoCAD 2000
 90
    32768
280
     0
281
     0
  0
CLASS
  1
LWPOLYLINE
  2
AcDbPolyline
  3
AutoCAD 2000
 90
    32768
280
     0
281
     1
  0
CLASS
  1
HATCH
  2
AcDbHatch
  3
AutoCAD 2000
 90
    32768
280
     0
281
     1
  0
CLASS
  1
XRECORD
  2
AcDbXrecord
  3
AutoCAD 2000
 90
    32768
280
     0
281
     0
  0
CLASS
  1
LONG_TRANSACTION
  2
AcDbLongTransaction
  3
AutoCAD 2000
 90
    32768
280
     0
281
     0
  0
CLASS
  1
LWPOLYLINE
  2
AcDbPolyline
  3
AutoCAD 2000
 90
    32768
280
     0
281
     1
  0
CLASS
  1
HATCH
  2
AcDbHatch
  3
AutoCAD 2000
 90
    32768
280
     0
281
     1
  0
CLASS
  1
XRECORD
  2
AcDbXrecord
  3
AutoCAD 2000
 90
    32768
280
     0
281
     0
  0
CLASS
  1
LONG_TRANSACTION
  2
AcDbLongTransaction
  3
AutoCAD 2000
 90
    32768
280
     0
281
     0
  0
CLASS
  1
LWPOLYLINE
  2
AcDbPolyline
  3
AutoCAD 2000
 90
    32768
280
     0
281
     1
  0
CLASS
  1
HATCH
  2
AcDbHatch
  3
AutoCAD 2000
 90
    32768
280
     0
281
     1
  0
CLASS
  1
XRECORD
  2
AcDbXrecord
  3
AutoCAD 2000
 90
    32768
280
     0
281
     0
  0
CLASS
  1
LONG_TRANSACTION
  2
AcDbLongTransaction
  3
AutoCAD 2000
 90
    32768
280
     0
281
     0
  0
CLASS
  1
LWPOLYLINE
  2
AcDbPolyline
  3
AutoCAD 2000
 90
    32768
280
     0
281
     1
  0
CLASS
  1
HATCH
  2
AcDbHatch
  3
AutoCAD 2000
 90
    32768
280
     0
281
     1
  0
CLASS
  1
XRECORD
  2
AcDbXrecord
  3
AutoCAD 2000
 90
    32768
280
     0
281
     0
  0
CLASS
  1
LONG_TRANSACTION
  2
AcDbLongTransaction
  3
AutoCAD 2000
 90
    32768
280
     0
281
     0
  0
CLASS
  1
LWPOLYLINE
  2
AcDbPolyline
  3
AutoCAD 2000
 90
    32768
280
     0
281
     1
  0
CLASS
  1
HATCH
  2
AcDbHatch
  3
AutoCAD 2000
 90
    32768
280
     0
281
     1
  0
CLASS
  1
XRECORD
  2
AcDbXrecord
  3
AutoCAD 2000
 90
    32768
280
     0
281
     0
  0
CLASS
  1
LONG_TRANSACTION
  2
AcDbLongTransaction
  3
AutoCAD 2000
 90
    32768
280
     0
281
     0
  0
CLASS
  1
LWPOLYLINE
  2
AcDbPolyline
  3
AutoCAD 2000
 90
    32768
280
     0
281
     1
  0
CLASS
  1
HATCH
  2
AcDbHatch
  3
AutoCAD 2000
 90
    32768
280
     0
281
     1
  0
CLASS
  1
XRECORD
  2
AcDbXrecord
  3
AutoCAD 2000
 90
    32768
280
     0
281
     0
  0
CLASS
  1
LONG_TRANSACTION
  2
AcDbLongTransaction
  3
AutoCAD 2000
 90
    32768
280
     0
281
     0
  0
CLASS
  1
LWPOLYLINE
  2
AcDbPolyline
  3
AutoCAD 2000
 90
    32768
280
     0
281
     1
  0
CLASS
  1
HATCH
  2
AcDbHatch
  3
AutoCAD 2000
 90
    32768
280
     0
281
     1
  0
CLASS
  1
XRECORD
  2
AcDbXrecord
  3
AutoCAD 2000
 90
    32768
280
     0
281
     0
  0
CLASS
  1
LONG_TRANSACTION
  2
AcDbLongTransaction
  3
AutoCAD 2000
 90
    32768
280
     0
281
     0
  0
CLASS
  1
LWPOLYLINE
  2
AcDbPolyline
  3
AutoCAD 2000
 90
    32768
280
     0
281
     1
  0
CLASS
  1
HATCH
  2
AcDbHatch
  3
AutoCAD 2000
 90
    32768
280
     0
281
     1
  0
CLASS
  1
XRECORD
  2
AcDbXrecord
  3
AutoCAD 2000
 90
    32768
280
     0
281
     0
  0
CLASS
  1
LONG_TRANSACTION
  2
AcDbLongTransaction
  3
AutoCAD 2000
 90
    32768
280
     0
281
     0
  0
CLASS
  1
LWPOLYLINE
  2
AcDbPolyline
  3
AutoCAD 2000
 90
    32768
280
     0
281
     1
  0
CLASS
  1
HATCH
  2
AcDbHatch
  3
AutoCAD 2000
 90
    32768
280
     0
281
     1
  0
CLASS
  1
XRECORD
  2
AcDbXrecord
  3
AutoCAD 2000
 90
    32768
280
     0
281
     0
  0
ENDSEC
  0
SECTION
  2
TABLES
  0
TABLE
  2
VPORT
  5
8
330
0
100
AcDbSymbolTable
 70
     2
  0
VPORT
  5
48C3
330
8
100
AcDbSymbolTableRecord
100
AcDbViewportTableRecord
  2
*Active
 70
     0
 10
0.0
 20
0.0
 11
1.0
 21
1.0
 12
209.970500407217
 22
148.4954684853966
 13
0.0
 23
0.0
 14
5.0
 24
5.0
 15
0.0
 25
0.0
 16
0.0
 26
0.0
 36
1.0
 17
0.0
 27
0.0
 37
0.0
 40
299.279195995035
 41
1.557397959183673
 42
50.0
 43
0.0
 44
0.0
 50
0.0
 51
0.0
 71
     0
 72
   100
 73
     1
 74
     0
 75
     0
 76
     0
 77
     0
 78
     0
281
     0
 65
     1
110
0.0
120
0.0
130
0.0
111
1.0
121
0.0
131
0.0
112
0.0
122
1.0
132
0.0
 79
     0
146
0.0
  0
ENDTAB
  0
TABLE
  2
LTYPE
  5
5
330
0
100
AcDbSymbolTable
 70
     4
  0
LTYPE
  5
14
330
5
100
AcDbSymbolTableRecord
100
AcDbLinetypeTableRecord
  2
BYBLOCK
 70
     0
  3

 72
    65
 73
     0
 40
0.0
  0
LTYPE
  5
15
330
5
100
AcDbSymbolTableRecord
100
AcDbLinetypeTableRecord
  2
BYLAYER
 70
     0
  3

 72
    65
 73
     0
 40
0.0
  0
LTYPE
  5
16
330
5
100
AcDbSymbolTableRecord
100
AcDbLinetypeTableRecord
  2
CONTINUOUS
 70
     0
  3
Solid line
 72
    65
 73
     0
 40
0.0
  0
LTYPE
  5
120
330
5
100
AcDbSymbolTableRecord
100
AcDbLinetypeTableRecord
  2
CENTER
 70
     0
  3
____ _ ____ _ ____ _ ____ _ ____ _ ____ _ ____ 
 72
    65
 73
     4
 40
2.0
 49
1.25
 74
     0
 49
-0.25
 74
     0
 49
0.25
 74
     0
 49
-0.25
 74
     0
  0
LTYPE
  5
122
330
5
100
AcDbSymbolTableRecord
100
AcDbLinetypeTableRecord
  2
PHANTOM
 70
     0
  3
______  __  __  ______  __  __  ______  __  __ 
 72
    65
 73
     6
 40
2.5
 49
1.25
 74
     0
 49
-0.25
 74
     0
 49
0.25
 74
     0
 49
-0.25
 74
     0
 49
0.25
 74
     0
 49
-0.25
 74
     0
  0
LTYPE
  5
2BBB
330
5
100
AcDbSymbolTableRecord
100
AcDbLinetypeTableRecord
  2
DASHED
 70
     0
  3
__ __ __ __ __ __ __ __ __ __ __ __ __ __ __ __
 72
    65
 73
     2
 40
0.75
 49
0.5
 74
     0
 49
-0.25
 74
     0
  0
ENDTAB
  0
TABLE
  2
LAYER
  5
2
330
0
100
AcDbSymbolTable
 70
     9
  0
LAYER
  5
F
330
2
100
AcDbSymbolTableRecord
100
AcDbLayerTableRecord
  2
0
 70
     0
 62
     7
  6
CONTINUOUS
370
    -3
390
140
  0
LAYER
  5
62
330
2
100
AcDbSymbolTableRecord
100
AcDbLayerTableRecord
  2
VIEWPORT
 70
     0
 62
     7
  6
CONTINUOUS
370
    -3
390
140
  0
LAYER
  5
6B
330
2
100
AcDbSymbolTableRecord
100
AcDbLayerTableRecord
  2
ZUWAKU
 70
     0
 62
     7
  6
CONTINUOUS
370
    -3
390
140
  0
LAYER
  5
3EF
330
2
100
AcDbSymbolTableRecord
100
AcDbLayerTableRecord
  2
Defpoints
 70
     0
 62
     7
  6
CONTINUOUS
290
     0
370
    -3
390
140
  0
LAYER
  5
54D
330
2
100
AcDbSymbolTableRecord
100
AcDbLayerTableRecord
  2
SEIHIN
 70
     0
 62
     3
  6
CONTINUOUS
370
    -3
390
140
  0
LAYER
  5
54E
330
2
100
AcDbSymbolTableRecord
100
AcDbLayerTableRecord
  2
SUNPOU
 70
     0
 62
     4
  6
CONTINUOUS
370
    -3
390
140
  0
LAYER
  5
54F
330
2
100
AcDbSymbolTableRecord
100
AcDbLayerTableRecord
  2
CENTER L
 70
     0
 62
     1
  6
CENTER
370
    -3
390
140
  0
LAYER
  5
550
330
2
100
AcDbSymbolTableRecord
100
AcDbLayerTableRecord
  2
NOKITOI
 70
     0
 62
     8
  6
PHANTOM
370
    -3
390
140
  0
LAYER
  5
2988
330
2
100
AcDbSymbolTableRecord
100
AcDbLayerTableRecord
  2
moji
 70
     0
 62
     2
  6
CONTINUOUS
370
    -3
390
140
  0
ENDTAB
  0
TABLE
  2
STYLE
  5
3
330
0
100
AcDbSymbolTable
 70
     2
  0
STYLE
  5
10
330
3
100
AcDbSymbolTableRecord
100
AcDbTextStyleTableRecord
  2
STANDARD
 70
     0
 40
0.0
 41
1.0
 50
0.0
 71
     0
 42
3.0
  3
TXT
  4
c:\PROGRAM FILES\AUTOCAD LT\ms\bigfont.shx
  0
STYLE
  5
2989
330
3
100
AcDbSymbolTableRecord
100
AcDbTextStyleTableRecord
  2
ｽﾀｲﾙ1
 70
     0
 40
0.0
 41
1.0
 50
0.0
 71
     0
 42
2.5
  3
MS PGothic.ttf
  4

1001
ACAD
1000
MS PGothic
1071
    32818
  0
ENDTAB
  0
TABLE
  2
VIEW
  5
6
330
0
100
AcDbSymbolTable
 70
     0
  0
ENDTAB
  0
TABLE
  2
UCS
  5
7
330
0
100
AcDbSymbolTable
 70
     0
  0
ENDTAB
  0
TABLE
  2
APPID
  5
9
330
0
100
AcDbSymbolTable
 70
     1
  0
APPID
  5
11
330
9
100
AcDbSymbolTableRecord
100
AcDbRegAppTableRecord
  2
ACAD
 70
     0
  0
ENDTAB
  0
TABLE
  2
DIMSTYLE
  5
A
330
0
100
AcDbSymbolTable
 70
     1
100
AcDbDimStyleTable
 71
     0
  0
DIMSTYLE
105
1D
102
{ACAD_REACTORS
330
40C6
330
40C7
330
40C8
330
40C9
330
40D6
330
40D7
330
4199
330
41EF
330
41F1
330
4215
330
423B
330
4242
330
4244
330
427F
330
4280
102
}
330
A
100
AcDbSymbolTableRecord
100
AcDbDimStyleTableRecord
  2
STANDARD
 70
     0
340
10
  0
ENDTAB
  0
TABLE
  2
BLOCK_RECORD
  5
1
330
0
100
AcDbSymbolTable
 70
    17
  0
BLOCK_RECORD
  5
1A
102
{ACAD_XDICTIONARY
360
7A2
102
}
330
1
100
AcDbSymbolTableRecord
100
AcDbBlockTableRecord
  2
*MODEL_SPACE
340
143
  0
BLOCK_RECORD
  5
17
102
{ACAD_XDICTIONARY
360
7A0
102
}
330
1
100
AcDbSymbolTableRecord
100
AcDbBlockTableRecord
  2
*PAPER_SPACE
340
144
  0
BLOCK_RECORD
  5
B2
330
1
100
AcDbSymbolTableRecord
100
AcDbBlockTableRecord
  2
_OPEN
340
0
102
{BLKREFS
331
423A
331
428A
331
435C
331
435D
331
4365
331
4366
331
469D
331
469E
331
46A6
331
46A7
331
4692
331
4693
331
4689
331
468A
331
46C7
331
46C8
331
439F
331
43A0
331
43A8
331
43A9
331
43B3
331
43B4
331
43BC
331
43BD
331
46B3
331
46B4
331
43CE
331
43CF
331
43D7
331
43D8
331
43E0
331
43E1
102
}
  0
BLOCK_RECORD
  5
429F
330
1
100
AcDbSymbolTableRecord
100
AcDbBlockTableRecord
  2
*D1
340
0
  0
BLOCK_RECORD
  5
42AB
330
1
100
AcDbSymbolTableRecord
100
AcDbBlockTableRecord
  2
*D2
340
0
  0
BLOCK_RECORD
  5
42B7
330
1
100
AcDbSymbolTableRecord
100
AcDbBlockTableRecord
  2
*D3
340
0
  0
BLOCK_RECORD
  5
42C5
330
1
100
AcDbSymbolTableRecord
100
AcDbBlockTableRecord
  2
*D4
340
0
  0
BLOCK_RECORD
  5
42D1
330
1
100
AcDbSymbolTableRecord
100
AcDbBlockTableRecord
  2
*D5
340
0
  0
BLOCK_RECORD
  5
42DD
330
1
100
AcDbSymbolTableRecord
100
AcDbBlockTableRecord
  2
*D6
340
0
  0
BLOCK_RECORD
  5
42E9
330
1
100
AcDbSymbolTableRecord
100
AcDbBlockTableRecord
  2
*D7
340
0
  0
BLOCK_RECORD
  5
42F5
330
1
100
AcDbSymbolTableRecord
100
AcDbBlockTableRecord
  2
*D8
340
0
  0
BLOCK_RECORD
  5
4303
330
1
100
AcDbSymbolTableRecord
100
AcDbBlockTableRecord
  2
*D9
340
0
  0
BLOCK_RECORD
  5
430F
330
1
100
AcDbSymbolTableRecord
100
AcDbBlockTableRecord
  2
*D10
340
0
  0
BLOCK_RECORD
  5
431D
330
1
100
AcDbSymbolTableRecord
100
AcDbBlockTableRecord
  2
*D11
340
0
  0
BLOCK_RECORD
  5
4329
330
1
100
AcDbSymbolTableRecord
100
AcDbBlockTableRecord
  2
*D12
340
0
  0
BLOCK_RECORD
  5
4335
330
1
100
AcDbSymbolTableRecord
100
AcDbBlockTableRecord
  2
*D13
340
0
  0
BLOCK_RECORD
  5
4341
330
1
100
AcDbSymbolTableRecord
100
AcDbBlockTableRecord
  2
*D14
340
0
  0
BLOCK_RECORD
  5
434D
330
1
100
AcDbSymbolTableRecord
100
AcDbBlockTableRecord
  2
*D15
340
0
  0
BLOCK_RECORD
  5
4720
330
1
100
AcDbSymbolTableRecord
100
AcDbBlockTableRecord
  2
*X16
340
0
102
{BLKREFS
331
2A56
102
}
  0
ENDTAB
  0
ENDSEC
  0
SECTION
  2
BLOCKS
  0
BLOCK
  5
1B
330
1A
100
AcDbEntity
  8
0
100
AcDbBlockBegin
  2
*MODEL_SPACE
 70
     0
 10
0.0
 20
0.0
 30
0.0
  3
*MODEL_SPACE
  1

  0
ENDBLK
  5
1C
330
1A
100
AcDbEntity
  8
0
100
AcDbBlockEnd
  0
BLOCK
  5
18
330
17
100
AcDbEntity
 67
     1
  8
0
100
AcDbBlockBegin
  2
*PAPER_SPACE
 70
     0
 10
0.0
 20
0.0
 30
0.0
  3
*PAPER_SPACE
  1

  0
ENDBLK
  5
19
330
17
100
AcDbEntity
 67
     1
  8
0
100
AcDbBlockEnd
  0
BLOCK
  5
B3
330
B2
100
AcDbEntity
  8
0
100
AcDbBlockBegin
  2
_OPEN
 70
     0
 10
0.0
 20
0.0
 30
0.0
  3
_OPEN
  1

  0
LINE
  5
B4
330
B2
100
AcDbEntity
  8
0
  6
ByBlock
 62
     0
100
AcDbLine
 10
-1.0
 20
0.1666666666666666
 30
0.0
 11
0.0
 21
0.0
 31
0.0
  0
LINE
  5
B5
330
B2
100
AcDbEntity
  8
0
  6
ByBlock
 62
     0
100
AcDbLine
 10
0.0
 20
0.0
 30
0.0
 11
-1.0
 21
-0.1666666666666666
 31
0.0
  0
LINE
  5
B6
330
B2
100
AcDbEntity
  8
0
  6
ByBlock
 62
     0
100
AcDbLine
 10
0.0
 20
0.0
 30
0.0
 11
-1.0
 21
0.0
 31
0.0
  0
ENDBLK
  5
B7
330
B2
100
AcDbEntity
  8
0
100
AcDbBlockEnd
  0
BLOCK
  5
42A9
330
429F
100
AcDbEntity
  8
0
100
AcDbBlockBegin
  2
*D1
 70
     1
 10
0.0
 20
0.0
 30
0.0
  3
*D1
  1

  0
LINE
  5
4359
330
429F
100
AcDbEntity
  8
SUNPOU
370
    -2
100
AcDbLine
 10
207.9420409477557
 20
136.8758530430639
 30
0.0
 11
231.3972301442904
 21
146.2579287141368
 31
0.0
  0
LINE
  5
435A
330
429F
100
AcDbEntity
  8
SUNPOU
370
    -2
100
AcDbLine
 10
227.2543561047877
 20
88.59506511167785
 30
0.0
 11
250.7095453013224
 21
97.97714078275079
 31
0.0
  0
LINE
  5
435B
330
429F
100
AcDbEntity
  8
SUNPOU
370
    -2
100
AcDbLine
 10
231.1186871360984
 20
142.915412627027
 30
0.0
 11
248.2026582365498
 21
100.2054848415702
 31
0.0
  0
INSERT
  5
435C
330
429F
100
AcDbEntity
  8
SUNPOU
370
    -2
100
AcDbBlockReference
  2
_OPEN
 10
230.0045151078081
 20
145.7008426999916
 30
0.0
 41
3.0
 42
3.0
 43
3.0
 50
111.8014094704718
  0
INSERT
  5
435D
330
429F
100
AcDbEntity
  8
SUNPOU
370
    -2
100
AcDbBlockReference
  2
_OPEN
 10
249.3168302648401
 20
97.42005476860564
 30
0.0
 41
3.0
 42
3.0
 43
3.0
 50
291.8014094704718
  0
MTEXT
  5
435E
330
429F
100
AcDbEntity
  8
SUNPOU
100
AcDbMText
 10
241.9818644137945
 20
122.4889254245405
 30
0.0
 40
3.0
 41
0.0
 71
     5
 72
     5
  1
\A1;52
 11
0.3713906760967692
 21
-0.9284766909881932
 31
0.0
 73
     1
 44
1.0
1001
ACAD
1000
MTEXTBEGIN
1070
    73
1070
     1
1070
    44
1040
1.0
1070
    74
1070
     0
1000
MTEXTEND
  0
POINT
  5
435F
330
429F
100
AcDbEntity
  8
Defpoints
 62
     0
100
AcDbPoint
 10
205.1566108747912
 20
135.7616810147735
 30
0.0
  0
POINT
  5
4360
330
429F
100
AcDbEntity
  8
Defpoints
 62
     0
100
AcDbPoint
 10
224.4689260318232
 20
87.48089308338753
 30
0.0
  0
POINT
  5
4361
330
429F
100
AcDbEntity
  8
Defpoints
 62
     0
100
AcDbPoint
 10
249.3168302648401
 20
97.42005476860564
 30
0.0
  0
ENDBLK
  5
42AA
330
429F
100
AcDbEntity
  8
0
100
AcDbBlockEnd
  0
BLOCK
  5
42B5
330
42AB
100
AcDbEntity
  8
0
100
AcDbBlockBegin
  2
*D2
 70
     1
 10
0.0
 20
0.0
 30
0.0
  3
*D2
  1

  0
LINE
  5
4362
330
42AB
100
AcDbEntity
  8
SUNPOU
370
    -2
100
AcDbLine
 10
202.0926377792133
 20
117.3035643952102
 30
0.0
 11
193.2556703391514
 21
113.7687774187625
 31
0.0
  0
LINE
  5
4363
330
42AB
100
AcDbEntity
  8
SUNPOU
370
    -2
100
AcDbLine
 10
215.4627021292133
 20
83.87840352421028
 30
0.0
 11
206.6257346891514
 21
80.34361654776249
 31
0.0
  0
LINE
  5
4364
330
42AB
100
AcDbEntity
  8
SUNPOU
370
    -2
100
AcDbLine
 10
195.7625574046336
 20
111.5404333607413
 30
0.0
 11
206.9042776962791
 21
83.68613263496092
 31
0.0
  0
INSERT
  5
4365
330
42AB
100
AcDbEntity
  8
SUNPOU
370
    -2
100
AcDbBlockReference
  2
_OPEN
 10
194.6483853754563
 20
114.3258634333511
 30
0.0
 41
3.0
 42
3.0
 43
3.0
 50
111.8014094887161
  0
INSERT
  5
4366
330
42AB
100
AcDbEntity
  8
SUNPOU
370
    -2
100
AcDbBlockReference
  2
_OPEN
 10
208.0184497254563
 20
80.90070256235113
 30
0.0
 41
3.0
 42
3.0
 43
3.0
 50
291.8014094887161
  0
MTEXT
  5
4367
330
42AB
100
AcDbEntity
  8
SUNPOU
100
AcDbMText
 10
203.6546092776311
 20
98.5417596888322
 30
0.0
 40
3.0
 41
0.0
 71
     5
 72
     5
  1
\A1;36
 11
0.371390676392418
 21
-0.9284766908699335
 31
0.0
 73
     1
 44
1.0
1001
ACAD
1000
MTEXTBEGIN
1070
    73
1070
     1
1070
    44
1040
1.0
1070
    74
1070
     0
1000
MTEXTEND
  0
POINT
  5
4368
330
42AB
100
AcDbEntity
  8
Defpoints
 62
     0
100
AcDbPoint
 10
204.8780678518231
 20
118.4177364243875
 30
0.0
  0
POINT
  5
4369
330
42AB
100
AcDbEntity
  8
Defpoints
 62
     0
100
AcDbPoint
 10
218.2481322018231
 20
84.99257555338752
 30
0.0
  0
POINT
  5
436A
330
42AB
100
AcDbEntity
  8
Defpoints
 62
     0
100
AcDbPoint
 10
208.0184497254563
 20
80.90070256235113
 30
0.0
  0
ENDBLK
  5
42B6
330
42AB
100
AcDbEntity
  8
0
100
AcDbBlockEnd
  0
BLOCK
  5
42C3
330
42B7
100
AcDbEntity
  8
0
100
AcDbBlockBegin
  2
*D3
 70
     1
 10
0.0
 20
0.0
 30
0.0
  3
*D3
  1

  0
LINE
  5
4698
330
42B7
100
AcDbEntity
  8
SUNPOU
370
    -2
100
AcDbLine
 10
221.4689260318231
 20
87.48089308338753
 30
0.0
 11
36.73626812000701
 21
87.48089308338757
 31
0.0
  0
LINE
  5
4699
330
42B7
100
AcDbEntity
  8
SUNPOU
370
    -2
100
AcDbLine
 10
51.87886168182302
 20
93.25894644338745
 30
0.0
 11
36.736268120007
 21
93.25894644338745
 31
0.0
  0
LINE
  5
469A
330
42B7
100
AcDbEntity
  8
SUNPOU
370
    -2
100
AcDbLine
 10
38.236268120007
 20
84.48089308338756
 30
0.0
 11
38.236268120007
 21
81.48089308338757
 31
0.0
  0
LINE
  5
469B
330
42B7
100
AcDbEntity
  8
SUNPOU
370
    -2
100
AcDbLine
 10
38.236268120007
 20
96.25894644338746
 30
0.0
 11
38.236268120007
 21
99.25894644338747
 31
0.0
  0
LINE
  5
469C
330
42B7
100
AcDbEntity
  8
SUNPOU
370
    -2
100
AcDbLine
 10
38.236268120007
 20
87.48089308338757
 30
0.0
 11
38.236268120007
 21
93.25894644338745
 31
0.0
  0
INSERT
  5
469D
330
42B7
100
AcDbEntity
  8
SUNPOU
370
    -2
100
AcDbBlockReference
  2
_OPEN
 10
38.236268120007
 20
87.48089308338757
 30
0.0
 41
3.0
 42
3.0
 43
3.0
 50
90.0
  0
INSERT
  5
469E
330
42B7
100
AcDbEntity
  8
SUNPOU
370
    -2
100
AcDbBlockReference
  2
_OPEN
 10
38.236268120007
 20
93.25894644338745
 30
0.0
 41
3.0
 42
3.0
 43
3.0
 50
270.0
  0
MTEXT
  5
469F
330
42B7
100
AcDbEntity
  8
SUNPOU
100
AcDbMText
 10
35.73626812000699
 20
90.36991976338752
 30
0.0
 40
3.0
 41
0.0
 71
     5
 72
     5
  1
\A1;6
 11
0.0000000000000001
 21
1.0
 31
0.0
 73
     1
 44
1.0
1001
ACAD
1000
MTEXTBEGIN
1070
    73
1070
     1
1070
    44
1040
1.0
1070
    74
1070
     0
1000
MTEXTEND
  0
POINT
  5
46A0
330
42B7
100
AcDbEntity
  8
Defpoints
 62
     0
100
AcDbPoint
 10
224.4689260318231
 20
87.48089308338752
 30
0.0
  0
POINT
  5
46A1
330
42B7
100
AcDbEntity
  8
Defpoints
 62
     0
100
AcDbPoint
 10
54.87886168182303
 20
93.25894644338745
 30
0.0
  0
POINT
  5
46A2
330
42B7
100
AcDbEntity
  8
Defpoints
 62
     0
100
AcDbPoint
 10
38.236268120007
 20
93.25894644338745
 30
0.0
  0
ENDBLK
  5
42C4
330
42B7
100
AcDbEntity
  8
0
100
AcDbBlockEnd
  0
BLOCK
  5
42CF
330
42C5
100
AcDbEntity
  8
0
100
AcDbBlockBegin
  2
*D4
 70
     1
 10
0.0
 20
0.0
 30
0.0
  3
*D4
  1

  0
LINE
  5
46A3
330
42C5
100
AcDbEntity
  8
SUNPOU
370
    -2
100
AcDbLine
 10
211.098861681823
 20
123.9060539553875
 30
0.0
 11
211.098861681823
 21
156.3046116596687
 31
0.0
  0
LINE
  5
46A4
330
42C5
100
AcDbEntity
  8
SUNPOU
370
    -2
100
AcDbLine
 10
226.098861681823
 20
123.9060539553875
 30
0.0
 11
226.098861681823
 21
156.3046116596687
 31
0.0
  0
LINE
  5
46A5
330
42C5
100
AcDbEntity
  8
SUNPOU
370
    -2
100
AcDbLine
 10
214.098861681823
 20
154.8046116596688
 30
0.0
 11
223.098861681823
 21
154.8046116596688
 31
0.0
  0
INSERT
  5
46A6
330
42C5
100
AcDbEntity
  8
SUNPOU
370
    -2
100
AcDbBlockReference
  2
_OPEN
 10
211.098861681823
 20
154.8046116596688
 30
0.0
 41
3.0
 42
3.0
 43
3.0
 50
180.0
  0
INSERT
  5
46A7
330
42C5
100
AcDbEntity
  8
SUNPOU
370
    -2
100
AcDbBlockReference
  2
_OPEN
 10
226.098861681823
 20
154.8046116596688
 30
0.0
 41
3.0
 42
3.0
 43
3.0
  0
MTEXT
  5
46A8
330
42C5
100
AcDbEntity
  8
SUNPOU
100
AcDbMText
 10
218.598861681823
 20
157.3046116596688
 30
0.0
 40
3.0
 41
0.0
 71
     5
 72
     5
  1
\A1;15
 73
     1
 44
1.0
1001
ACAD
1000
MTEXTBEGIN
1070
    73
1070
     1
1070
    44
1040
1.0
1070
    74
1070
     0
1000
MTEXTEND
  0
POINT
  5
46A9
330
42C5
100
AcDbEntity
  8
Defpoints
 62
     0
100
AcDbPoint
 10
211.098861681823
 20
120.9060539553875
 30
0.0
  0
POINT
  5
46AA
330
42C5
100
AcDbEntity
  8
Defpoints
 62
     0
100
AcDbPoint
 10
226.098861681823
 20
120.9060539553875
 30
0.0
  0
POINT
  5
46AB
330
42C5
100
AcDbEntity
  8
Defpoints
 62
     0
100
AcDbPoint
 10
226.098861681823
 20
154.8046116596688
 30
0.0
  0
ENDBLK
  5
42D0
330
42C5
100
AcDbEntity
  8
0
100
AcDbBlockEnd
  0
BLOCK
  5
42DB
330
42D1
100
AcDbEntity
  8
0
100
AcDbBlockBegin
  2
*D5
 70
     1
 10
0.0
 20
0.0
 30
0.0
  3
*D5
  1

  0
LINE
  5
468F
330
42D1
100
AcDbEntity
  8
SUNPOU
370
    -2
100
AcDbLine
 10
53.62886168182303
 20
95.00894644338746
 30
0.0
 11
53.62886168182303
 21
156.3046116596687
 31
0.0
  0
LINE
  5
4690
330
42D1
100
AcDbEntity
  8
SUNPOU
370
    -2
100
AcDbLine
 10
211.098861681823
 20
123.9060539553875
 30
0.0
 11
211.098861681823
 21
156.3046116596687
 31
0.0
  0
LINE
  5
4691
330
42D1
100
AcDbEntity
  8
SUNPOU
370
    -2
100
AcDbLine
 10
56.62886168182303
 20
154.8046116596688
 30
0.0
 11
208.098861681823
 21
154.8046116596688
 31
0.0
  0
INSERT
  5
4692
330
42D1
100
AcDbEntity
  8
SUNPOU
370
    -2
100
AcDbBlockReference
  2
_OPEN
 10
53.62886168182303
 20
154.8046116596688
 30
0.0
 41
3.0
 42
3.0
 43
3.0
 50
180.0
  0
INSERT
  5
4693
330
42D1
100
AcDbEntity
  8
SUNPOU
370
    -2
100
AcDbBlockReference
  2
_OPEN
 10
211.098861681823
 20
154.8046116596688
 30
0.0
 41
3.0
 42
3.0
 43
3.0
  0
MTEXT
  5
4694
330
42D1
100
AcDbEntity
  8
SUNPOU
100
AcDbMText
 10
132.363861681823
 20
157.3046116596688
 30
0.0
 40
3.0
 41
0.0
 71
     5
 72
     5
  1
\A1;157
 73
     1
 44
1.0
1001
ACAD
1000
MTEXTBEGIN
1070
    73
1070
     1
1070
    44
1040
1.0
1070
    74
1070
     0
1000
MTEXTEND
  0
POINT
  5
4695
330
42D1
100
AcDbEntity
  8
Defpoints
 62
     0
100
AcDbPoint
 10
53.62886168182303
 20
92.00894644338745
 30
0.0
  0
POINT
  5
4696
330
42D1
100
AcDbEntity
  8
Defpoints
 62
     0
100
AcDbPoint
 10
211.098861681823
 20
120.9060539553875
 30
0.0
  0
POINT
  5
4697
330
42D1
100
AcDbEntity
  8
Defpoints
 62
     0
100
AcDbPoint
 10
211.098861681823
 20
154.8046116596688
 30
0.0
  0
ENDBLK
  5
42DC
330
42D1
100
AcDbEntity
  8
0
100
AcDbBlockEnd
  0
BLOCK
  5
42E7
330
42DD
100
AcDbEntity
  8
0
100
AcDbBlockBegin
  2
*D6
 70
     1
 10
0.0
 20
0.0
 30
0.0
  3
*D6
  1

  0
LINE
  5
4686
330
42DD
100
AcDbEntity
  8
SUNPOU
370
    -2
100
AcDbLine
 10
166.098861681823
 20
95.37616412606144
 30
0.0
 11
166.098861681823
 21
148.7102317915378
 31
0.0
  0
LINE
  5
4687
330
42DD
100
AcDbEntity
  8
SUNPOU
370
    -2
100
AcDbLine
 10
211.098861681823
 20
123.9060539553875
 30
0.0
 11
211.098861681823
 21
148.7102317915378
 31
0.0
  0
LINE
  5
4688
330
42DD
100
AcDbEntity
  8
SUNPOU
370
    -2
100
AcDbLine
 10
169.098861681823
 20
147.2102317915378
 30
0.0
 11
208.098861681823
 21
147.2102317915378
 31
0.0
  0
INSERT
  5
4689
330
42DD
100
AcDbEntity
  8
SUNPOU
370
    -2
100
AcDbBlockReference
  2
_OPEN
 10
166.098861681823
 20
147.2102317915378
 30
0.0
 41
3.0
 42
3.0
 43
3.0
 50
180.0
  0
INSERT
  5
468A
330
42DD
100
AcDbEntity
  8
SUNPOU
370
    -2
100
AcDbBlockReference
  2
_OPEN
 10
211.098861681823
 20
147.2102317915378
 30
0.0
 41
3.0
 42
3.0
 43
3.0
  0
MTEXT
  5
468B
330
42DD
100
AcDbEntity
  8
SUNPOU
100
AcDbMText
 10
188.598861681823
 20
149.7102317915378
 30
0.0
 40
3.0
 41
0.0
 71
     5
 72
     5
  1
\A1;45
 73
     1
 44
1.0
1001
ACAD
1000
MTEXTBEGIN
1070
    73
1070
     1
1070
    44
1040
1.0
1070
    74
1070
     0
1000
MTEXTEND
  0
POINT
  5
468C
330
42DD
100
AcDbEntity
  8
Defpoints
 62
     0
100
AcDbPoint
 10
166.098861681823
 20
92.37616412606143
 30
0.0
  0
POINT
  5
468D
330
42DD
100
AcDbEntity
  8
Defpoints
 62
     0
100
AcDbPoint
 10
211.098861681823
 20
120.9060539553875
 30
0.0
  0
POINT
  5
468E
330
42DD
100
AcDbEntity
  8
Defpoints
 62
     0
100
AcDbPoint
 10
211.098861681823
 20
147.2102317915378
 30
0.0
  0
ENDBLK
  5
42E8
330
42DD
100
AcDbEntity
  8
0
100
AcDbBlockEnd
  0
BLOCK
  5
42F3
330
42E9
100
AcDbEntity
  8
0
100
AcDbBlockBegin
  2
*D7
 70
     1
 10
0.0
 20
0.0
 30
0.0
  3
*D7
  1

  0
LINE
  5
46C4
330
42E9
100
AcDbEntity
  8
SUNPOU
370
    -2
100
AcDbLine
 10
48.12886168182302
 20
228.4106425559894
 30
0.0
 11
36.73626812000701
 21
228.4106425559894
 31
0.0
  0
LINE
  5
46C5
330
42E9
100
AcDbEntity
  8
SUNPOU
370
    -2
100
AcDbLine
 10
48.12886168182302
 20
206.4106425159894
 30
0.0
 11
36.736268120007
 21
206.4106425159894
 31
0.0
  0
LINE
  5
46C6
330
42E9
100
AcDbEntity
  8
SUNPOU
370
    -2
100
AcDbLine
 10
38.23626812000701
 20
225.4106425559895
 30
0.0
 11
38.23626812000701
 21
209.4106425159894
 31
0.0
  0
INSERT
  5
46C7
330
42E9
100
AcDbEntity
  8
SUNPOU
370
    -2
100
AcDbBlockReference
  2
_OPEN
 10
38.23626812000701
 20
228.4106425559894
 30
0.0
 41
3.0
 42
3.0
 43
3.0
 50
90.0
  0
INSERT
  5
46C8
330
42E9
100
AcDbEntity
  8
SUNPOU
370
    -2
100
AcDbBlockReference
  2
_OPEN
 10
38.236268120007
 20
206.4106425159894
 30
0.0
 41
3.0
 42
3.0
 43
3.0
 50
270.0
  0
MTEXT
  5
46C9
330
42E9
100
AcDbEntity
  8
SUNPOU
100
AcDbMText
 10
35.73626812000697
 20
217.4106425359894
 30
0.0
 40
3.0
 41
0.0
 71
     5
 72
     5
  1
\A1;22
 11
0.0000000000000001
 21
1.0
 31
0.0
 73
     1
 44
1.0
1001
ACAD
1000
MTEXTBEGIN
1070
    73
1070
     1
1070
    44
1040
1.0
1070
    74
1070
     0
1000
MTEXTEND
  0
POINT
  5
46CA
330
42E9
100
AcDbEntity
  8
Defpoints
 62
     0
100
AcDbPoint
 10
51.12886168182303
 20
228.4106425559894
 30
0.0
  0
POINT
  5
46CB
330
42E9
100
AcDbEntity
  8
Defpoints
 62
     0
100
AcDbPoint
 10
51.12886168182303
 20
206.4106425159894
 30
0.0
  0
POINT
  5
46CC
330
42E9
100
AcDbEntity
  8
Defpoints
 62
     0
100
AcDbPoint
 10
38.236268120007
 20
206.4106425159894
 30
0.0
  0
ENDBLK
  5
42F4
330
42E9
100
AcDbEntity
  8
0
100
AcDbBlockEnd
  0
BLOCK
  5
4301
330
42F5
100
AcDbEntity
  8
0
100
AcDbBlockBegin
  2
*D8
 70
     1
 10
0.0
 20
0.0
 30
0.0
  3
*D8
  1

  0
LINE
  5
439A
330
42F5
100
AcDbEntity
  8
SUNPOU
370
    -2
100
AcDbLine
 10
288.0841738889619
 20
151.7001785757675
 30
0.0
 11
270.8145546641147
 21
144.7923307062369
 31
0.0
  0
LINE
  5
439B
330
42F5
100
AcDbEntity
  8
SUNPOU
370
    -2
100
AcDbLine
 10
287.7127832932949
 20
145.6279410245486
 30
0.0
 11
272.8572034298426
 21
139.6857089246802
 31
0.0
  0
LINE
  5
439C
330
42F5
100
AcDbEntity
  8
SUNPOU
370
    -2
100
AcDbLine
 10
271.0930976414149
 20
148.1348467959209
 30
0.0
 11
269.9789255873815
 21
150.9202768585883
 31
0.0
  0
LINE
  5
439D
330
42F5
100
AcDbEntity
  8
SUNPOU
370
    -2
100
AcDbLine
 10
275.3640905152096
 20
137.4573648890296
 30
0.0
 11
276.4782625692431
 21
134.6719348263623
 31
0.0
  0
LINE
  5
439E
330
42F5
100
AcDbEntity
  8
SUNPOU
370
    -2
100
AcDbLine
 10
272.2072696954483
 20
145.3494167332536
 30
0.0
 11
274.2499184611762
 21
140.2427949516969
 31
0.0
  0
INSERT
  5
439F
330
42F5
100
AcDbEntity
  8
SUNPOU
370
    -2
100
AcDbBlockReference
  2
_OPEN
 10
272.2072696954483
 20
145.3494167332536
 30
0.0
 41
3.0
 42
3.0
 43
3.0
 50
291.8014100000028
  0
INSERT
  5
43A0
330
42F5
100
AcDbEntity
  8
SUNPOU
370
    -2
100
AcDbBlockReference
  2
_OPEN
 10
274.2499184611762
 20
140.2427949516969
 30
0.0
 41
3.0
 42
3.0
 43
3.0
 50
111.8014100000028
  0
MTEXT
  5
43A1
330
42F5
100
AcDbEntity
  8
SUNPOU
100
AcDbMText
 10
275.5497857972018
 20
143.7245825541698
 30
0.0
 40
3.0
 41
0.0
 71
     5
 72
     5
  1
\A1;6
 11
0.3713906846778061
 21
-0.9284766875557783
 31
0.0
 73
     1
 44
1.0
1001
ACAD
1000
MTEXTBEGIN
1070
    73
1070
     1
1070
    44
1040
1.0
1070
    74
1070
     0
1000
MTEXTEND
  0
POINT
  5
43A2
330
42F5
100
AcDbEntity
  8
Defpoints
 62
     0
100
AcDbPoint
 10
290.8696039516292
 20
152.8143506298009
 30
0.0
  0
POINT
  5
43A3
330
42F5
100
AcDbEntity
  8
Defpoints
 62
     0
100
AcDbPoint
 10
290.4982133559622
 20
146.742113078582
 30
0.0
  0
POINT
  5
43A4
330
42F5
100
AcDbEntity
  8
Defpoints
 62
     0
100
AcDbPoint
 10
274.2499184611762
 20
140.2427949516969
 30
0.0
  0
ENDBLK
  5
4302
330
42F5
100
AcDbEntity
  8
0
100
AcDbBlockEnd
  0
BLOCK
  5
430D
330
4303
100
AcDbEntity
  8
0
100
AcDbBlockBegin
  2
*D9
 70
     1
 10
0.0
 20
0.0
 30
0.0
  3
*D9
  1

  0
LINE
  5
43A5
330
4303
100
AcDbEntity
  8
SUNPOU
370
    -2
100
AcDbLine
 10
288.0841738889619
 20
151.7001785757675
 30
0.0
 11
261.647327958157
 21
141.1254399285213
 31
0.0
  0
LINE
  5
43A6
330
4303
100
AcDbEntity
  8
SUNPOU
370
    -2
100
AcDbLine
 10
301.4542385373611
 20
118.2750178237588
 30
0.0
 11
275.017392606558
 21
107.7002791765133
 31
0.0
  0
LINE
  5
43A7
330
4303
100
AcDbEntity
  8
SUNPOU
370
    -2
100
AcDbLine
 10
264.1542150435241
 20
138.8970958928706
 30
0.0
 11
275.2959355838583
 21
111.0427952661973
 31
0.0
  0
INSERT
  5
43A8
330
4303
100
AcDbEntity
  8
SUNPOU
370
    -2
100
AcDbBlockReference
  2
_OPEN
 10
263.0400429894907
 20
141.682525955538
 30
0.0
 41
3.0
 42
3.0
 43
3.0
 50
111.8014100000028
  0
INSERT
  5
43A9
330
4303
100
AcDbEntity
  8
SUNPOU
370
    -2
100
AcDbBlockReference
  2
_OPEN
 10
276.4101076378917
 20
108.25736520353
 30
0.0
 41
3.0
 42
3.0
 43
3.0
 50
291.8014100000028
  0
MTEXT
  5
43AA
330
4303
100
AcDbEntity
  8
SUNPOU
100
AcDbMText
 10
272.0462670325807
 20
125.8984222912285
 30
0.0
 40
3.0
 41
0.0
 71
     5
 72
     5
  1
\A1;36
 11
0.3713906846778061
 21
-0.9284766875557783
 31
0.0
 73
     1
 44
1.0
1001
ACAD
1000
MTEXTBEGIN
1070
    73
1070
     1
1070
    44
1040
1.0
1070
    74
1070
     0
1000
MTEXTEND
  0
POINT
  5
43AB
330
4303
100
AcDbEntity
  8
Defpoints
 62
     0
100
AcDbPoint
 10
290.8696039516292
 20
152.8143506298009
 30
0.0
  0
POINT
  5
43AC
330
4303
100
AcDbEntity
  8
Defpoints
 62
     0
100
AcDbPoint
 10
304.2396686000285
 20
119.3891898777923
 30
0.0
  0
POINT
  5
43AD
330
4303
100
AcDbEntity
  8
Defpoints
 62
     0
100
AcDbPoint
 10
276.4101076378917
 20
108.25736520353
 30
0.0
  0
ENDBLK
  5
430E
330
4303
100
AcDbEntity
  8
0
100
AcDbBlockEnd
  0
BLOCK
  5
431B
330
430F
100
AcDbEntity
  8
0
100
AcDbBlockBegin
  2
*D10
 70
     1
 10
0.0
 20
0.0
 30
0.0
  3
*D10
  1

  0
LINE
  5
43AE
330
430F
100
AcDbEntity
  8
SUNPOU
370
    -2
100
AcDbLine
 10
296.9975504102389
 20
122.4160238356537
 30
0.0
 11
282.1419705467864
 21
116.4737917357853
 31
0.0
  0
LINE
  5
43AF
330
430F
100
AcDbEntity
  8
SUNPOU
370
    -2
100
AcDbLine
 10
301.4542385373611
 20
118.2750178237588
 30
0.0
 11
284.1846193125144
 21
111.3671699542284
 31
0.0
  0
LINE
  5
43B0
330
430F
100
AcDbEntity
  8
SUNPOU
370
    -2
100
AcDbLine
 10
282.4205135240866
 20
119.8163078254693
 30
0.0
 11
281.3063414700532
 21
122.6017378881367
 31
0.0
  0
LINE
  5
43B1
330
430F
100
AcDbEntity
  8
SUNPOU
370
    -2
100
AcDbLine
 10
286.6915063978814
 20
109.1388259185778
 30
0.0
 11
287.8056784519149
 21
106.3533958559105
 31
0.0
  0
LINE
  5
43B2
330
430F
100
AcDbEntity
  8
SUNPOU
370
    -2
100
AcDbLine
 10
283.53468557812
 20
117.030877762802
 30
0.0
 11
285.577334343848
 21
111.9242559812451
 31
0.0
  0
INSERT
  5
43B3
330
430F
100
AcDbEntity
  8
SUNPOU
370
    -2
100
AcDbBlockReference
  2
_OPEN
 10
283.53468557812
 20
117.030877762802
 30
0.0
 41
3.0
 42
3.0
 43
3.0
 50
291.8014100000028
  0
INSERT
  5
43B4
330
430F
100
AcDbEntity
  8
SUNPOU
370
    -2
100
AcDbBlockReference
  2
_OPEN
 10
285.577334343848
 20
111.9242559812451
 30
0.0
 41
3.0
 42
3.0
 43
3.0
 50
111.8014100000028
  0
MTEXT
  5
43B5
330
430F
100
AcDbEntity
  8
SUNPOU
100
AcDbMText
 10
286.8772016798735
 20
115.4060435837181
 30
0.0
 40
3.0
 41
0.0
 71
     5
 72
     5
  1
\A1;6
 11
0.3713906846778061
 21
-0.9284766875557783
 31
0.0
 73
     1
 44
1.0
1001
ACAD
1000
MTEXTBEGIN
1070
    73
1070
     1
1070
    44
1040
1.0
1070
    74
1070
     0
1000
MTEXTEND
  0
POINT
  5
43B6
330
430F
100
AcDbEntity
  8
Defpoints
 62
     0
100
AcDbPoint
 10
299.7829804729062
 20
123.5301958896871
 30
0.0
  0
POINT
  5
43B7
330
430F
100
AcDbEntity
  8
Defpoints
 62
     0
100
AcDbPoint
 10
304.2396686000285
 20
119.3891898777923
 30
0.0
  0
POINT
  5
43B8
330
430F
100
AcDbEntity
  8
Defpoints
 62
     0
100
AcDbPoint
 10
285.577334343848
 20
111.9242559812451
 30
0.0
  0
ENDBLK
  5
431C
330
430F
100
AcDbEntity
  8
0
100
AcDbBlockEnd
  0
BLOCK
  5
4327
330
431D
100
AcDbEntity
  8
0
100
AcDbBlockBegin
  2
*D11
 70
     1
 10
0.0
 20
0.0
 30
0.0
  3
*D11
  1

  0
LINE
  5
43B9
330
431D
100
AcDbEntity
  8
SUNPOU
370
    -2
100
AcDbLine
 10
339.1503917045306
 20
172.1266662330446
 30
0.0
 11
354.5398987250792
 21
178.2824692013039
 31
0.0
  0
LINE
  5
43BA
330
431D
100
AcDbEntity
  8
SUNPOU
370
    -2
100
AcDbLine
 10
346.2068146651308
 20
159.870773976619
 30
0.0
 11
359.7393683105685
 21
165.2837955755229
 31
0.0
  0
LINE
  5
43BB
330
431D
100
AcDbEntity
  8
SUNPOU
370
    -2
100
AcDbLine
 10
354.2613557477789
 20
174.9399531116199
 30
0.0
 11
357.2324812252014
 21
167.5121396111736
 31
0.0
  0
INSERT
  5
43BC
330
431D
100
AcDbEntity
  8
SUNPOU
370
    -2
100
AcDbBlockReference
  2
_OPEN
 10
353.1471836937455
 20
177.7253831742872
 30
0.0
 41
3.0
 42
3.0
 43
3.0
 50
111.8014100000028
  0
INSERT
  5
43BD
330
431D
100
AcDbEntity
  8
SUNPOU
370
    -2
100
AcDbBlockReference
  2
_OPEN
 10
358.3466532792348
 20
164.7267095485062
 30
0.0
 41
3.0
 42
3.0
 43
3.0
 50
291.8014100000028
  0
MTEXT
  5
43BE
330
431D
100
AcDbEntity
  8
SUNPOU
100
AcDbMText
 10
358.0681102053797
 20
172.1545230730912
 30
0.0
 40
3.0
 41
0.0
 71
     5
 72
     5
  1
\A1;14
 11
0.3713906846778061
 21
-0.9284766875557783
 31
0.0
 73
     1
 44
1.0
1001
ACAD
1000
MTEXTBEGIN
1070
    73
1070
     1
1070
    44
1040
1.0
1070
    74
1070
     0
1000
MTEXTEND
  0
POINT
  5
43BF
330
431D
100
AcDbEntity
  8
Defpoints
 62
     0
100
AcDbPoint
 10
336.3649616418632
 20
171.0124941790112
 30
0.0
  0
POINT
  5
43C0
330
431D
100
AcDbEntity
  8
Defpoints
 62
     0
100
AcDbPoint
 10
343.4213846024634
 20
158.7566019225855
 30
0.0
  0
POINT
  5
43C1
330
431D
100
AcDbEntity
  8
Defpoints
 62
     0
100
AcDbPoint
 10
358.3466532792348
 20
164.7267095485062
 30
0.0
  0
ENDBLK
  5
4328
330
431D
100
AcDbEntity
  8
0
100
AcDbBlockEnd
  0
BLOCK
  5
4333
330
4329
100
AcDbEntity
  8
0
100
AcDbBlockBegin
  2
*D12
 70
     1
 10
0.0
 20
0.0
 30
0.0
  3
*D12
  1

  0
LINE
  5
46B0
330
4329
100
AcDbEntity
  8
SUNPOU
370
    -2
100
AcDbLine
 10
224.4689264718232
 20
243.9106429159895
 30
0.0
 11
244.400556665484
 21
243.9106429159895
 31
0.0
  0
LINE
  5
46B1
330
4329
100
AcDbEntity
  8
SUNPOU
370
    -2
100
AcDbLine
 10
224.4689264718232
 20
190.9106428759894
 30
0.0
 11
244.4005566654839
 21
190.9106428759894
 31
0.0
  0
LINE
  5
46B2
330
4329
100
AcDbEntity
  8
SUNPOU
370
    -2
100
AcDbLine
 10
242.900556665484
 20
240.9106429159895
 30
0.0
 11
242.900556665484
 21
193.9106428759894
 31
0.0
  0
INSERT
  5
46B3
330
4329
100
AcDbEntity
  8
SUNPOU
370
    -2
100
AcDbBlockReference
  2
_OPEN
 10
242.900556665484
 20
243.9106429159895
 30
0.0
 41
3.0
 42
3.0
 43
3.0
 50
90.0
  0
INSERT
  5
46B4
330
4329
100
AcDbEntity
  8
SUNPOU
370
    -2
100
AcDbBlockReference
  2
_OPEN
 10
242.900556665484
 20
190.9106428759894
 30
0.0
 41
3.0
 42
3.0
 43
3.0
 50
270.0
  0
MTEXT
  5
46B5
330
4329
100
AcDbEntity
  8
SUNPOU
100
AcDbMText
 10
240.4005566654839
 20
217.4106428959895
 30
0.0
 40
3.0
 41
0.0
 71
     5
 72
     5
  1
\A1;53
 11
0.0000000000000001
 21
1.0
 31
0.0
 73
     1
 44
1.0
1001
ACAD
1000
MTEXTBEGIN
1070
    73
1070
     1
1070
    44
1040
1.0
1070
    74
1070
     0
1000
MTEXTEND
  0
POINT
  5
46B6
330
4329
100
AcDbEntity
  8
Defpoints
 62
     0
100
AcDbPoint
 10
221.4689264718233
 20
243.9106429159895
 30
0.0
  0
POINT
  5
46B7
330
4329
100
AcDbEntity
  8
Defpoints
 62
     0
100
AcDbPoint
 10
221.4689264718233
 20
190.9106428759894
 30
0.0
  0
POINT
  5
46B8
330
4329
100
AcDbEntity
  8
Defpoints
 62
     0
100
AcDbPoint
 10
242.900556665484
 20
190.9106428759894
 30
0.0
  0
ENDBLK
  5
4334
330
4329
100
AcDbEntity
  8
0
100
AcDbBlockEnd
  0
BLOCK
  5
433F
330
4335
100
AcDbEntity
  8
0
100
AcDbBlockBegin
  2
*D13
 70
     1
 10
0.0
 20
0.0
 30
0.0
  3
*D13
  1

  0
LINE
  5
43CB
330
4335
100
AcDbEntity
  8
SUNPOU
370
    -2
100
AcDbLine
 10
288.6412598918399
 20
153.0000459480012
 30
0.0
 11
269.524261698842
 21
200.7925401879878
 31
0.0
  0
LINE
  5
43CC
330
4335
100
AcDbEntity
  8
SUNPOU
370
    -2
100
AcDbLine
 10
337.850524332297
 20
172.6837522359225
 30
0.0
 11
318.7335261392999
 21
220.4762464759074
 31
0.0
  0
LINE
  5
43CD
330
4335
100
AcDbEntity
  8
SUNPOU
370
    -2
100
AcDbLine
 10
272.866777788526
 20
200.5139972106873
 30
0.0
 11
316.5051821036491
 21
217.9693593905406
 31
0.0
  0
INSERT
  5
43CE
330
4335
100
AcDbEntity
  8
SUNPOU
370
    -2
100
AcDbBlockReference
  2
_OPEN
 10
270.0813477258586
 20
199.3998251566541
 30
0.0
 41
3.0
 42
3.0
 43
3.0
 50
201.801409999998
  0
INSERT
  5
43CF
330
4335
100
AcDbEntity
  8
SUNPOU
370
    -2
100
AcDbBlockReference
  2
_OPEN
 10
319.2906121663165
 20
219.0835314445738
 30
0.0
 41
3.0
 42
3.0
 43
3.0
 50
21.80140999999806
  0
MTEXT
  5
43D0
330
4335
100
AcDbEntity
  8
SUNPOU
100
AcDbMText
 10
293.7575032343932
 20
211.5628700195035
 30
0.0
 40
3.0
 41
0.0
 71
     5
 72
     5
  1
\A1;53
 11
0.9284766875558092
 21
0.3713906846777284
 31
0.0
 73
     1
 44
1.0
1001
ACAD
1000
MTEXTBEGIN
1070
    73
1070
     1
1070
    44
1040
1.0
1070
    74
1070
     0
1000
MTEXTEND
  0
POINT
  5
43D1
330
4335
100
AcDbEntity
  8
Defpoints
 62
     0
100
AcDbPoint
 10
289.755431945873
 20
150.2146158853338
 30
0.0
  0
POINT
  5
43D2
330
4335
100
AcDbEntity
  8
Defpoints
 62
     0
100
AcDbPoint
 10
338.9646963863302
 20
169.8983221732551
 30
0.0
  0
POINT
  5
43D3
330
4335
100
AcDbEntity
  8
Defpoints
 62
     0
100
AcDbPoint
 10
319.2906121663165
 20
219.0835314445738
 30
0.0
  0
ENDBLK
  5
4340
330
4335
100
AcDbEntity
  8
0
100
AcDbBlockEnd
  0
BLOCK
  5
434B
330
4341
100
AcDbEntity
  8
0
100
AcDbBlockBegin
  2
*D14
 70
     1
 10
0.0
 20
0.0
 30
0.0
  3
*D14
  1

  0
LINE
  5
43D4
330
4341
100
AcDbEntity
  8
SUNPOU
370
    -2
100
AcDbLine
 10
292.7822659037349
 20
157.4567340751236
 30
0.0
 11
277.5798378860586
 21
195.4628031312334
 31
0.0
  0
LINE
  5
43D5
330
4341
100
AcDbEntity
  8
SUNPOU
370
    -2
100
AcDbLine
 10
331.7782867810783
 20
173.0551428315895
 30
0.0
 11
316.5758587634026
 21
211.0612118876979
 31
0.0
  0
LINE
  5
43D6
330
4341
100
AcDbEntity
  8
SUNPOU
370
    -2
100
AcDbLine
 10
280.9223539757427
 20
195.1842601539329
 30
0.0
 11
314.3475147277518
 21
208.5543248023311
 31
0.0
  0
INSERT
  5
43D7
330
4341
100
AcDbEntity
  8
SUNPOU
370
    -2
100
AcDbBlockReference
  2
_OPEN
 10
278.1369239130753
 20
194.0700880998997
 30
0.0
 41
3.0
 42
3.0
 43
3.0
 50
201.801409999998
  0
INSERT
  5
43D8
330
4341
100
AcDbEntity
  8
SUNPOU
370
    -2
100
AcDbBlockReference
  2
_OPEN
 10
317.1329447904192
 20
209.6684968563642
 30
0.0
 41
3.0
 42
3.0
 43
3.0
 50
21.80140999999806
  0
MTEXT
  5
43D9
330
4341
100
AcDbEntity
  8
SUNPOU
100
AcDbMText
 10
296.7064576400529
 20
204.1904841970215
 30
0.0
 40
3.0
 41
0.0
 71
     5
 72
     5
  1
\A1;42
 11
0.9284766875558092
 21
0.3713906846777284
 31
0.0
 73
     1
 44
1.0
1001
ACAD
1000
MTEXTBEGIN
1070
    73
1070
     1
1070
    44
1040
1.0
1070
    74
1070
     0
1000
MTEXTEND
  0
POINT
  5
43DA
330
4341
100
AcDbEntity
  8
Defpoints
 62
     0
100
AcDbPoint
 10
293.8964379577681
 20
154.6713040124561
 30
0.0
  0
POINT
  5
43DB
330
4341
100
AcDbEntity
  8
Defpoints
 62
     0
100
AcDbPoint
 10
332.8924588351115
 20
170.269712768922
 30
0.0
  0
POINT
  5
43DC
330
4341
100
AcDbEntity
  8
Defpoints
 62
     0
100
AcDbPoint
 10
317.1329447904192
 20
209.6684968563642
 30
0.0
  0
ENDBLK
  5
434C
330
4341
100
AcDbEntity
  8
0
100
AcDbBlockEnd
  0
BLOCK
  5
4357
330
434D
100
AcDbEntity
  8
0
100
AcDbBlockBegin
  2
*D15
 70
     1
 10
0.0
 20
0.0
 30
0.0
  3
*D15
  1

  0
LINE
  5
43DD
330
434D
100
AcDbEntity
  8
SUNPOU
370
    -2
100
AcDbLine
 10
296.9862946897092
 20
150.98553589826
 30
0.0
 11
282.100231657027
 21
188.2006925124471
 31
0.0
  0
LINE
  5
43DE
330
434D
100
AcDbEntity
  8
SUNPOU
370
    -2
100
AcDbLine
 10
333.1968855043854
 20
165.4697726006926
 30
0.0
 11
318.3108224717036
 21
202.6849292148785
 31
0.0
  0
LINE
  5
43DF
330
434D
100
AcDbEntity
  8
SUNPOU
370
    -2
100
AcDbLine
 10
285.442747746711
 20
187.9221495351465
 30
0.0
 11
316.0824784360527
 21
200.1780421295116
 31
0.0
  0
INSERT
  5
43E0
330
434D
100
AcDbEntity
  8
SUNPOU
370
    -2
100
AcDbBlockReference
  2
_OPEN
 10
282.6573176840435
 20
186.8079774811134
 30
0.0
 41
3.0
 42
3.0
 43
3.0
 50
201.801409999998
  0
INSERT
  5
43E1
330
434D
100
AcDbEntity
  8
SUNPOU
370
    -2
100
AcDbBlockReference
  2
_OPEN
 10
318.8679084987202
 20
201.2922141835448
 30
0.0
 41
3.0
 42
3.0
 43
3.0
 50
21.80140999999806
  0
MTEXT
  5
43E2
330
434D
100
AcDbEntity
  8
SUNPOU
100
AcDbMText
 10
299.8341363796875
 20
196.3712875512186
 30
0.0
 40
3.0
 41
0.0
 71
     5
 72
     5
  1
\A1;39
 11
0.9284766875558092
 21
0.3713906846777284
 31
0.0
 73
     1
 44
1.0
1001
ACAD
1000
MTEXTBEGIN
1070
    73
1070
     1
1070
    44
1040
1.0
1070
    74
1070
     0
1000
MTEXTEND
  0
POINT
  5
43E3
330
434D
100
AcDbEntity
  8
Defpoints
 62
     0
100
AcDbPoint
 10
298.1004667437424
 20
148.2001058355925
 30
0.0
  0
POINT
  5
43E4
330
434D
100
AcDbEntity
  8
Defpoints
 62
     0
100
AcDbPoint
 10
334.3110575584186
 20
162.6843425380252
 30
0.0
  0
POINT
  5
43E5
330
434D
100
AcDbEntity
  8
Defpoints
 62
     0
100
AcDbPoint
 10
318.8679084987202
 20
201.2922141835448
 30
0.0
  0
ENDBLK
  5
4358
330
434D
100
AcDbEntity
  8
0
100
AcDbBlockEnd
  0
BLOCK
  5
48B4
330
4720
100
AcDbEntity
  8
0
100
AcDbBlockBegin
  2
*X16
 70
     1
 10
0.0
 20
0.0
 30
0.0
  3
*X16
  1

  0
LINE
  5
4721
330
4720
100
AcDbEntity
  8
0
 62
     0
100
AcDbLine
 10
34.52110575495393
 20
11.30208456594675
 30
0.0
 11
34.19819029009662
 21
11.62500003080407
 31
0.0
  0
LINE
  5
4722
330
4720
100
AcDbEntity
  8
0
 62
     0
100
AcDbLine
 10
34.52110575495393
 20
10.85307175989331
 30
0.0
 11
33.74917748404311
 21
11.6250000308041
 31
0.0
  0
LINE
  5
4723
330
4720
100
AcDbEntity
  8
0
 62
     0
100
AcDbLine
 10
34.52110575495393
 20
10.40405895383983
 30
0.0
 11
33.31053878194651
 21
11.61462592684722
 31
0.0
  0
LINE
  5
4724
330
4720
100
AcDbEntity
  8
0
 62
     0
100
AcDbLine
 10
34.52110575495399
 20
9.955046147786362
 30
0.0
 11
33.1211057549539
 21
11.35504614778642
 31
0.0
  0
LINE
  5
4725
330
4720
100
AcDbEntity
  8
0
 62
     0
100
AcDbLine
 10
34.52110575495396
 20
9.506033341732887
 30
0.0
 11
33.1211057549539
 21
10.90603334173297
 31
0.0
  0
LINE
  5
4726
330
4720
100
AcDbEntity
  8
0
 62
     0
100
AcDbLine
 10
34.52110575495396
 20
9.057020535679441
 30
0.0
 11
33.12110575495393
 21
10.45702053567947
 31
0.0
  0
LINE
  5
4727
330
4720
100
AcDbEntity
  8
0
 62
     0
100
AcDbLine
 10
32.07110575495397
 20
11.05800772962598
 30
0.0
 11
31.50411345377586
 21
11.6250000308041
 31
0.0
  0
LINE
  5
4728
330
4720
100
AcDbEntity
  8
0
 62
     0
100
AcDbLine
 10
34.52110575495396
 20
8.608007729625995
 30
0.0
 11
33.12110575495395
 21
10.00800772962602
 31
0.0
  0
LINE
  5
4729
330
4720
100
AcDbEntity
  8
0
 62
     0
100
AcDbLine
 10
32.07110575495397
 20
10.60899492357253
 30
0.0
 11
31.05510064772241
 21
11.6250000308041
 31
0.0
  0
LINE
  5
472A
330
4720
100
AcDbEntity
  8
0
 62
     0
100
AcDbLine
 10
34.52110575495396
 20
8.158994923572549
 30
0.0
 11
33.12110575495393
 21
9.558994923572555
 31
0.0
  0
LINE
  5
472B
330
4720
100
AcDbEntity
  8
0
 62
     0
100
AcDbLine
 10
32.07110575495397
 20
10.15998211751906
 30
0.0
 11
30.71835027238543
 21
11.5127376000876
 31
0.0
  0
LINE
  5
472C
330
4720
100
AcDbEntity
  8
0
 62
     0
100
AcDbLine
 10
34.52110575495396
 20
7.709982117519075
 30
0.0
 11
33.12110575495393
 21
9.109982117519109
 31
0.0
  0
LINE
  5
472D
330
4720
100
AcDbEntity
  8
0
 62
     0
100
AcDbLine
 10
32.07110575495397
 20
9.710969311465589
 30
0.0
 11
30.67110575495394
 21
11.11096931146562
 31
0.0
  0
LINE
  5
472E
330
4720
100
AcDbEntity
  8
0
 62
     0
100
AcDbLine
 10
34.52110575495396
 20
7.260969311465629
 30
0.0
 11
33.12110575495393
 21
8.660969311465635
 31
0.0
  0
LINE
  5
472F
330
4720
100
AcDbEntity
  8
0
 62
     0
100
AcDbLine
 10
32.07110575495397
 20
9.261956505412172
 30
0.0
 11
30.67110575495394
 21
10.6619565054122
 31
0.0
  0
LINE
  5
4730
330
4720
100
AcDbEntity
  8
0
 62
     0
100
AcDbLine
 10
34.52110575495399
 20
6.811956505412126
 30
0.0
 11
33.12110575495393
 21
8.211956505412217
 31
0.0
  0
LINE
  5
4731
330
4720
100
AcDbEntity
  8
0
 62
     0
100
AcDbLine
 10
32.07110575495395
 20
8.812943699358697
 30
0.0
 11
30.67110575495394
 21
10.21294369935873
 31
0.0
  0
LINE
  5
4732
330
4720
100
AcDbEntity
  8
0
 62
     0
100
AcDbLine
 10
34.52110575495399
 20
6.36294369935868
 30
0.0
 11
33.12110575495393
 21
7.762943699358743
 31
0.0
  0
LINE
  5
4733
330
4720
100
AcDbEntity
  8
0
 62
     0
100
AcDbLine
 10
32.07110575495395
 20
8.363930893305251
 30
0.0
 11
30.67110575495391
 21
9.763930893305257
 31
0.0
  0
LINE
  5
4734
330
4720
100
AcDbEntity
  8
0
 62
     0
100
AcDbLine
 10
34.52110575495396
 20
5.913930893305206
 30
0.0
 11
33.1211057549539
 21
7.313930893305268
 31
0.0
  0
LINE
  5
4735
330
4720
100
AcDbEntity
  8
0
 62
     0
100
AcDbLine
 10
32.07110575495397
 20
7.914918087251805
 30
0.0
 11
30.67110575495394
 21
9.31491808725184
 31
0.0
  0
LINE
  5
4736
330
4720
100
AcDbEntity
  8
0
 62
     0
100
AcDbLine
 10
28.92110575495397
 20
11.06491808725181
 30
0.0
 11
28.36102381140165
 21
11.62500003080413
 31
0.0
  0
LINE
  5
4737
330
4720
100
AcDbEntity
  8
0
 62
     0
100
AcDbLine
 10
34.52110575495399
 20
5.464918087251788
 30
0.0
 11
33.12110575495395
 21
6.864918087251794
 31
0.0
  0
LINE
  5
4738
330
4720
100
AcDbEntity
  8
0
 62
     0
100
AcDbLine
 10
32.07110575495395
 20
7.465905281198359
 30
0.0
 11
30.67110575495391
 21
8.865905281198365
 31
0.0
  0
LINE
  5
4739
330
4720
100
AcDbEntity
  8
0
 62
     0
100
AcDbLine
 10
28.92110575495394
 20
10.61590528119833
 30
0.0
 11
27.91201100534817
 21
11.62500003080413
 31
0.0
  0
LINE
  5
473A
330
4720
100
AcDbEntity
  8
0
 62
     0
100
AcDbLine
 10
34.52110575495399
 20
5.015905281198314
 30
0.0
 11
33.12110575495395
 21
6.415905281198348
 31
0.0
  0
LINE
  5
473B
330
4720
100
AcDbEntity
  8
0
 62
     0
100
AcDbLine
 10
32.07110575495395
 20
7.016892475144885
 30
0.0
 11
30.67110575495394
 21
8.416892475144862
 31
0.0
  0
LINE
  5
473C
330
4720
100
AcDbEntity
  8
0
 62
     0
100
AcDbLine
 10
28.92110575495394
 20
10.16689247514489
 30
0.0
 11
27.57122439329194
 21
11.51677383680689
 31
0.0
  0
LINE
  5
473D
330
4720
100
AcDbEntity
  8
0
 62
     0
100
AcDbLine
 10
34.52110575495396
 20
4.566892475144868
 30
0.0
 11
33.12110575495393
 21
5.966892475144874
 31
0.0
  0
LINE
  5
473E
330
4720
100
AcDbEntity
  8
0
 62
     0
100
AcDbLine
 10
32.07110575495395
 20
6.567879669091411
 30
0.0
 11
30.67110575495397
 21
7.967879669091416
 31
0.0
  0
LINE
  5
473F
330
4720
100
AcDbEntity
  8
0
 62
     0
100
AcDbLine
 10
28.92110575495397
 20
9.717879669091416
 30
0.0
 11
27.52110575495393
 21
11.11787966909145
 31
0.0
  0
LINE
  5
4740
330
4720
100
AcDbEntity
  8
0
 62
     0
100
AcDbLine
 10
34.52110575495399
 20
4.117879669091394
 30
0.0
 11
33.12110575495395
 21
5.517879669091428
 31
0.0
  0
LINE
  5
4741
330
4720
100
AcDbEntity
  8
0
 62
     0
100
AcDbLine
 10
32.07110575495395
 20
6.118866863037993
 30
0.0
 11
30.67110575495397
 21
7.51886686303797
 31
0.0
  0
LINE
  5
4742
330
4720
100
AcDbEntity
  8
0
 62
     0
100
AcDbLine
 10
28.92110575495399
 20
9.268866863037942
 30
0.0
 11
27.5211057549539
 21
10.668866863038
 31
0.0
  0
LINE
  5
4743
330
4720
100
AcDbEntity
  8
0
 62
     0
100
AcDbLine
 10
34.48512307750908
 20
3.704849540482854
 30
0.0
 11
33.12110575495395
 21
5.068866863037982
 31
0.0
  0
LINE
  5
4744
330
4720
100
AcDbEntity
  8
0
 62
     0
100
AcDbLine
 10
32.07110575495395
 20
5.669854056984519
 30
0.0
 11
30.67110575495394
 21
7.069854056984496
 31
0.0
  0
LINE
  5
4745
330
4720
100
AcDbEntity
  8
0
 62
     0
100
AcDbLine
 10
28.92110575495397
 20
8.819854056984496
 30
0.0
 11
27.5211057549539
 21
10.21985405698455
 31
0.0
  0
LINE
  5
4746
330
4720
100
AcDbEntity
  8
0
 62
     0
100
AcDbLine
 10
34.1659597811344
 20
3.575000030804034
 30
0.0
 11
33.12110575495393
 21
4.619854056984536
 31
0.0
  0
LINE
  5
4747
330
4720
100
AcDbEntity
  8
0
 62
     0
100
AcDbLine
 10
28.92110575495397
 20
8.370841250931022
 30
0.0
 11
27.52110575495393
 21
9.770841250931056
 31
0.0
  0
LINE
  5
4748
330
4720
100
AcDbEntity
  8
0
 62
     0
100
AcDbLine
 10
32.07110575495391
 20
5.220841250931073
 30
0.0
 11
30.67110575495394
 21
6.62084125093105
 31
0.0
  0
LINE
  5
4749
330
4720
100
AcDbEntity
  8
0
 62
     0
100
AcDbLine
 10
26.20860575495396
 20
11.08334125093102
 30
0.0
 11
25.66694697508089
 21
11.62500003080407
 31
0.0
  0
LINE
  5
474A
330
4720
100
AcDbEntity
  8
0
 62
     0
100
AcDbLine
 10
33.7169469750809
 20
3.575000030804062
 30
0.0
 11
33.12110575495393
 21
4.170841250931061
 31
0.0
  0
LINE
  5
474B
330
4720
100
AcDbEntity
  8
0
 62
     0
100
AcDbLine
 10
28.92110575495397
 20
7.921828444877576
 30
0.0
 11
27.52110575495396
 21
9.32182844487761
 31
0.0
  0
LINE
  5
474C
330
4720
100
AcDbEntity
  8
0
 62
     0
100
AcDbLine
 10
26.20860575495396
 20
10.63432844487758
 30
0.0
 11
25.21793416902747
 21
11.6250000308041
 31
0.0
  0
LINE
  5
474D
330
4720
100
AcDbEntity
  8
0
 62
     0
100
AcDbLine
 10
32.05812660463121
 20
4.784807595200362
 30
0.0
 11
30.67110575495394
 21
6.171828444877604
 31
0.0
  0
LINE
  5
474E
330
4720
100
AcDbEntity
  8
0
 62
     0
100
AcDbLine
 10
28.92110575495397
 20
7.47281563882413
 30
0.0
 11
27.52110575495393
 21
8.872815638824164
 31
0.0
  0
LINE
  5
474F
330
4720
100
AcDbEntity
  8
0
 62
     0
100
AcDbLine
 10
26.11081548189705
 20
10.28310591188105
 30
0.0
 11
24.76892136297397
 21
11.62500003080413
 31
0.0
  0
LINE
  5
4750
330
4720
100
AcDbEntity
  8
0
 62
     0
100
AcDbLine
 10
31.96163395700259
 20
4.432287436775482
 30
0.0
 11
30.67110575495394
 21
5.722815638824158
 31
0.0
  0
LINE
  5
4751
330
4720
100
AcDbEntity
  8
0
 62
     0
100
AcDbLine
 10
28.92110575495397
 20
7.023802832770655
 30
0.0
 11
27.52110575495393
 21
8.423802832770689
 31
0.0
  0
LINE
  5
4752
330
4720
100
AcDbEntity
  8
0
 62
     0
100
AcDbLine
 10
25.71990855692055
 20
10.22500003080404
 30
0.0
 11
24.31990855692052
 21
11.62500003080407
 31
0.0
  0
LINE
  5
4753
330
4720
100
AcDbEntity
  8
0
 62
     0
100
AcDbLine
 10
31.7991180190408
 20
4.145790568683793
 30
0.0
 11
30.63534788537419
 21
5.309560702350438
 31
0.0
  0
LINE
  5
4754
330
4720
100
AcDbEntity
  8
0
 62
     0
100
AcDbLine
 10
28.92110575495397
 20
6.574790026717238
 30
0.0
 11
27.52110575495393
 21
7.974790026717244
 31
0.0
  0
LINE
  5
4755
330
4720
100
AcDbEntity
  8
0
 62
     0
100
AcDbLine
 10
25.27089575086714
 20
10.22500003080406
 30
0.0
 11
23.90211238627836
 21
11.59378339539284
 31
0.0
  0
LINE
  5
4756
330
4720
100
AcDbEntity
  8
0
 62
     0
100
AcDbLine
 10
31.58309712037828
 20
3.912798661292896
 30
0.0
 11
30.43455506614043
 21
5.061340715530747
 31
0.0
  0
LINE
  5
4757
330
4720
100
AcDbEntity
  8
0
 62
     0
100
AcDbLine
 10
28.92110575495397
 20
6.125777220663763
 30
0.0
 11
27.52110575495393
 21
7.525777220663798
 31
0.0
  0
LINE
  5
4758
330
4720
100
AcDbEntity
  8
0
 62
     0
100
AcDbLine
 10
24.82188294481364
 20
10.22500003080409
 30
0.0
 11
23.56979217401166
 21
11.47709080160604
 31
0.0
  0
LINE
  5
4759
330
4720
100
AcDbEntity
  8
0
 62
     0
100
AcDbLine
 10
31.31501594791527
 20
3.731867027702463
 30
0.0
 11
30.07188294481363
 21
4.975000030804096
 31
0.0
  0
LINE
  5
475A
330
4720
100
AcDbEntity
  8
0
 62
     0
100
AcDbLine
 10
28.92110575495394
 20
5.676764414610289
 30
0.0
 11
27.52110575495393
 21
7.076764414610323
 31
0.0
  0
LINE
  5
475B
330
4720
100
AcDbEntity
  8
0
 62
     0
100
AcDbLine
 10
24.38376505276917
 20
10.21410511679505
 30
0.0
 11
23.29849170540657
 21
11.29937846415765
 31
0.0
  0
LINE
  5
475C
330
4720
100
AcDbEntity
  8
0
 62
     0
100
AcDbLine
 10
30.98680966795962
 20
3.61106050160464
 30
0.0
 11
29.62287013876022
 21
4.975000030804039
 31
0.0
  0
LINE
  5
475D
330
4720
100
AcDbEntity
  8
0
 62
     0
100
AcDbLine
 10
24.19610575495397
 20
9.952751608556809
 30
0.0
 11
23.07943567588429
 21
11.06942168762645
 31
0.0
  0
LINE
  5
475E
330
4720
100
AcDbEntity
  8
0
 62
     0
100
AcDbLine
 10
30.57385733270669
 20
3.575000030804091
 30
0.0
 11
27.5211057549539
 21
6.627751608556877
 31
0.0
  0
LINE
  5
475F
330
4720
100
AcDbEntity
  8
0
 62
     0
100
AcDbLine
 10
24.196105754954
 20
9.503738802503363
 30
0.0
 11
22.91355021970778
 21
10.78629433774958
 31
0.0
  0
LINE
  5
4760
330
4720
100
AcDbEntity
  8
0
 62
     0
100
AcDbLine
 10
30.12484452665324
 20
3.575000030804091
 30
0.0
 11
27.52110575495393
 21
6.178738802503431
 31
0.0
  0
LINE
  5
4761
330
4720
100
AcDbEntity
  8
0
 62
     0
100
AcDbLine
 10
24.2993778955059
 20
8.951453855897995
 30
0.0
 11
22.81246096002573
 21
10.43837079137813
 31
0.0
  0
LINE
  5
4762
330
4720
100
AcDbEntity
  8
0
 62
     0
100
AcDbLine
 10
29.6758317205998
 20
3.575000030804091
 30
0.0
 11
27.52110575495396
 21
5.729725996449928
 31
0.0
  0
LINE
  5
4763
330
4720
100
AcDbEntity
  8
0
 62
     0
100
AcDbLine
 10
26.40790760629966
 20
6.39391133905076
 30
0.0
 11
22.79610575495394
 21
10.00571319039647
 31
0.0
  0
LINE
  5
4764
330
4720
100
AcDbEntity
  8
0
 62
     0
100
AcDbLine
 10
21.74610575495393
 20
11.05571319039646
 30
0.0
 11
21.17681891454631
 21
11.6250000308041
 31
0.0
  0
LINE
  5
4765
330
4720
100
AcDbEntity
  8
0
 62
     0
100
AcDbLine
 10
29.22681891454633
 20
3.575000030804091
 30
0.0
 11
27.52110575495393
 21
5.280713190396454
 31
0.0
  0
LINE
  5
4766
330
4720
100
AcDbEntity
  8
0
 62
     0
100
AcDbLine
 10
26.47110575495392
 20
5.881700384343076
 30
0.0
 11
22.79610575495397
 21
9.556700384343031
 31
0.0
  0
LINE
  5
4767
330
4720
100
AcDbEntity
  8
0
 62
     0
100
AcDbLine
 10
21.74610575495398
 20
10.60670038434298
 30
0.0
 11
20.72780610849286
 21
11.6250000308041
 31
0.0
  0
LINE
  5
4768
330
4720
100
AcDbEntity
  8
0
 62
     0
100
AcDbLine
 10
28.76958216912044
 20
3.583223970176561
 30
0.0
 11
27.52932969432643
 21
4.823476444970566
 31
0.0
  0
LINE
  5
4769
330
4720
100
AcDbEntity
  8
0
 62
     0
100
AcDbLine
 10
21.74610575495398
 20
10.15768757828954
 30
0.0
 11
20.39241081106632
 21
11.51138252217717
 31
0.0
  0
LINE
  5
476A
330
4720
100
AcDbEntity
  8
0
 62
     0
100
AcDbLine
 10
26.47110575495395
 20
5.432687578289574
 30
0.0
 11
22.80781108889516
 21
9.095982244348363
 31
0.0
  0
LINE
  5
476B
330
4720
100
AcDbEntity
  8
0
 62
     0
100
AcDbLine
 10
21.74610575495398
 20
9.708674772236065
 30
0.0
 11
20.34610575495395
 21
11.1086747722361
 31
0.0
  0
LINE
  5
476C
330
4720
100
AcDbEntity
  8
0
 62
     0
100
AcDbLine
 10
26.47110575495392
 20
4.983674772236099
 30
0.0
 11
22.96687079781517
 21
8.487909729374877
 31
0.0
  0
LINE
  5
476D
330
4720
100
AcDbEntity
  8
0
 62
     0
100
AcDbLine
 10
21.74610575495398
 20
9.259661966182619
 30
0.0
 11
20.34610575495395
 21
10.65966196618262
 31
0.0
  0
LINE
  5
476E
330
4720
100
AcDbEntity
  8
0
 62
     0
100
AcDbLine
 10
26.41682484615944
 20
4.588942874977163
 30
0.0
 11
25.06900745164029
 21
5.936760269496318
 31
0.0
  0
LINE
  5
476F
330
4720
100
AcDbEntity
  8
0
 62
     0
100
AcDbLine
 10
21.74610575495398
 20
8.810649160129173
 30
0.0
 11
20.34610575495395
 21
10.2106491601292
 31
0.0
  0
LINE
  5
4770
330
4720
100
AcDbEntity
  8
0
 62
     0
100
AcDbLine
 10
19.20036230466547
 20
11.35639261041765
 30
0.0
 11
18.93175488427903
 21
11.62500003080413
 31
0.0
  0
LINE
  5
4771
330
4720
100
AcDbEntity
  8
0
 62
     0
100
AcDbLine
 10
26.28288699227866
 20
4.273867922804498
 30
0.0
 11
25.071105754954
 21
5.485649160129156
 31
0.0
  0
LINE
  5
4772
330
4720
100
AcDbEntity
  8
0
 62
     0
100
AcDbLine
 10
21.74610575495396
 20
8.361636354075699
 30
0.0
 11
20.34610575495395
 21
9.761636354075733
 31
0.0
  0
LINE
  5
4773
330
4720
100
AcDbEntity
  8
0
 62
     0
100
AcDbLine
 10
19.10089847253917
 20
11.00684363649048
 30
0.0
 11
18.48274207822555
 21
11.62500003080413
 31
0.0
  0
LINE
  5
4774
330
4720
100
AcDbEntity
  8
0
 62
     0
100
AcDbLine
 10
26.09139359319101
 20
4.016348515838672
 30
0.0
 11
25.02246316351076
 21
5.085278945518922
 31
0.0
  0
LINE
  5
4775
330
4720
100
AcDbEntity
  8
0
 62
     0
100
AcDbLine
 10
21.74610575495396
 20
7.912623548022253
 30
0.0
 11
20.34610575495392
 21
9.312623548022259
 31
0.0
  0
LINE
  5
4776
330
4720
100
AcDbEntity
  8
0
 62
     0
100
AcDbLine
 10
18.99313539908632
 20
10.66559390388985
 30
0.0
 11
18.03852761735103
 21
11.62020168562517
 31
0.0
  0
LINE
  5
4777
330
4720
100
AcDbEntity
  8
0
 62
     0
100
AcDbLine
 10
25.8482341106332
 20
3.810495192342983
 30
0.0
 11
24.68372927217217
 21
4.975000030804039
 31
0.0
  0
LINE
  5
4778
330
4720
100
AcDbEntity
  8
0
 62
     0
100
AcDbLine
 10
21.74610575495398
 20
7.463610741968807
 30
0.0
 11
20.34610575495395
 21
8.863610741968841
 31
0.0
  0
LINE
  5
4779
330
4720
100
AcDbEntity
  8
0
 62
     0
100
AcDbLine
 10
18.88537232563356
 20
10.32434417128922
 30
0.0
 11
17.82137232563354
 21
11.38834417128924
 31
0.0
  0
LINE
  5
477A
330
4720
100
AcDbEntity
  8
0
 62
     0
100
AcDbLine
 10
25.55019213640301
 20
3.659524360519753
 30
0.0
 11
24.23471646611869
 21
4.975000030804096
 31
0.0
  0
LINE
  5
477B
330
4720
100
AcDbEntity
  8
0
 62
     0
100
AcDbLine
 10
21.74610575495396
 20
7.014597935915361
 30
0.0
 11
20.34610575495392
 21
8.414597935915367
 31
0.0
  0
LINE
  5
477C
330
4720
100
AcDbEntity
  8
0
 62
     0
100
AcDbLine
 10
18.77760925218069
 20
9.983094438688624
 30
0.0
 11
17.71360925218064
 21
11.04709443868867
 31
0.0
  0
LINE
  5
477D
330
4720
100
AcDbEntity
  8
0
 62
     0
100
AcDbLine
 10
25.18135581057928
 20
3.579347880290043
 30
0.0
 11
23.78570366006525
 21
4.975000030804039
 31
0.0
  0
LINE
  5
477E
330
4720
100
AcDbEntity
  8
0
 62
     0
100
AcDbLine
 10
21.74610575495396
 20
6.565585129861887
 30
0.0
 11
20.34610575495395
 21
7.965585129861864
 31
0.0
  0
LINE
  5
477F
330
4720
100
AcDbEntity
  8
0
 62
     0
100
AcDbLine
 10
18.66984617872785
 20
9.641844706087994
 30
0.0
 11
17.6058461787278
 21
10.70584470608801
 31
0.0
  0
LINE
  5
4780
330
4720
100
AcDbEntity
  8
0
 62
     0
100
AcDbLine
 10
24.73669085401175
 20
3.575000030804091
 30
0.0
 11
23.33669085401175
 21
4.975000030804068
 31
0.0
  0
LINE
  5
4781
330
4720
100
AcDbEntity
  8
0
 62
     0
100
AcDbLine
 10
21.74610575495396
 20
6.116572323808441
 30
0.0
 11
20.34610575495398
 21
7.516572323808446
 31
0.0
  0
LINE
  5
4782
330
4720
100
AcDbEntity
  8
0
 62
     0
100
AcDbLine
 10
18.56208310527503
 20
9.300594973487392
 30
0.0
 11
17.49808310527498
 21
10.36459497348741
 31
0.0
  0
LINE
  5
4783
330
4720
100
AcDbEntity
  8
0
 62
     0
100
AcDbLine
 10
24.28767804795836
 20
3.575000030804062
 30
0.0
 11
23.07087219931011
 21
4.791805879452311
 31
0.0
  0
LINE
  5
4784
330
4720
100
AcDbEntity
  8
0
 62
     0
100
AcDbLine
 10
18.45432003182222
 20
8.959345240886705
 30
0.0
 11
17.39032003182219
 21
10.02334524088675
 31
0.0
  0
LINE
  5
4785
330
4720
100
AcDbEntity
  8
0
 62
     0
100
AcDbLine
 10
21.74610575495396
 20
5.667559517754995
 30
0.0
 11
20.34610575495398
 21
7.067559517754972
 31
0.0
  0
LINE
  5
4786
330
4720
100
AcDbEntity
  8
0
 62
     0
100
AcDbLine
 10
16.32110575495397
 20
11.09255951775497
 30
0.0
 11
15.78866524190482
 21
11.6250000308041
 31
0.0
  0
LINE
  5
4787
330
4720
100
AcDbEntity
  8
0
 62
     0
100
AcDbLine
 10
23.83866524190486
 20
3.575000030804091
 30
0.0
 11
23.05860575495393
 21
4.355059517754995
 31
0.0
  0
LINE
  5
4788
330
4720
100
AcDbEntity
  8
0
 62
     0
100
AcDbLine
 10
18.34655695836931
 20
8.61809550828616
 30
0.0
 11
17.28255695836932
 21
9.682095508286153
 31
0.0
  0
LINE
  5
4789
330
4720
100
AcDbEntity
  8
0
 62
     0
100
AcDbLine
 10
21.74610575495396
 20
5.21854671170152
 30
0.0
 11
20.34610575495395
 21
6.618546711701526
 31
0.0
  0
LINE
  5
478A
330
4720
100
AcDbEntity
  8
0
 62
     0
100
AcDbLine
 10
16.32110575495397
 20
10.6435467117015
 30
0.0
 11
15.33965243585137
 21
11.6250000308041
 31
0.0
  0
LINE
  5
478B
330
4720
100
AcDbEntity
  8
0
 62
     0
100
AcDbLine
 10
23.38965243585141
 20
3.575000030804034
 30
0.0
 11
23.05860575495393
 21
3.906046711701549
 31
0.0
  0
LINE
  5
478C
330
4720
100
AcDbEntity
  8
0
 62
     0
100
AcDbLine
 10
18.2387938849165
 20
8.276845775685501
 30
0.0
 11
17.17479388491648
 21
9.340845775685522
 31
0.0
  0
LINE
  5
478D
330
4720
100
AcDbEntity
  8
0
 62
     0
100
AcDbLine
 10
16.32110575495394
 20
10.19453390564802
 30
0.0
 11
14.98338329050514
 21
11.53225637009686
 31
0.0
  0
LINE
  5
478E
330
4720
100
AcDbEntity
  8
0
 62
     0
100
AcDbLine
 10
21.74610575495393
 20
4.769533905648074
 30
0.0
 11
20.34610575495395
 21
6.169533905648052
 31
0.0
  0
LINE
  5
478F
330
4720
100
AcDbEntity
  8
0
 62
     0
100
AcDbLine
 10
18.13103081146368
 20
7.935596043084899
 30
0.0
 11
17.06703081146366
 21
8.99959604308492
 31
0.0
  0
LINE
  5
4790
330
4720
100
AcDbEntity
  8
0
 62
     0
100
AcDbLine
 10
16.32110575495397
 20
9.745521099594611
 30
0.0
 11
14.92110575495394
 21
11.14552109959461
 31
0.0
  0
LINE
  5
4791
330
4720
100
AcDbEntity
  8
0
 62
     0
100
AcDbLine
 10
21.74610575495396
 20
4.320521099594628
 30
0.0
 11
20.34610575495395
 21
5.720521099594606
 31
0.0
  0
LINE
  5
4792
330
4720
100
AcDbEntity
  8
0
 62
     0
100
AcDbLine
 10
18.02848655676766
 20
7.589127491727452
 30
0.0
 11
16.95926773801082
 21
8.65834631048429
 31
0.0
  0
LINE
  5
4793
330
4720
100
AcDbEntity
  8
0
 62
     0
100
AcDbLine
 10
16.32110575495397
 20
9.296508293541137
 30
0.0
 11
14.92110575495394
 21
10.69650829354117
 31
0.0
  0
LINE
  5
4794
330
4720
100
AcDbEntity
  8
0
 62
     0
100
AcDbLine
 10
21.74610575495393
 20
3.871508293541154
 30
0.0
 11
20.34610575495395
 21
5.27150829354116
 31
0.0
  0
LINE
  5
4795
330
4720
100
AcDbEntity
  8
0
 62
     0
100
AcDbLine
 10
18.23572323648465
 20
6.932878005956979
 30
0.0
 11
16.81399399016851
 21
8.354607252273126
 31
0.0
  0
LINE
  5
4796
330
4720
100
AcDbEntity
  8
0
 62
     0
100
AcDbLine
 10
16.321105754954
 20
8.847495487487634
 30
0.0
 11
14.92110575495391
 21
10.24749548748769
 31
0.0
  0
LINE
  5
4797
330
4720
100
AcDbEntity
  8
0
 62
     0
100
AcDbLine
 10
21.57658325628776
 20
3.592017986153848
 30
0.0
 11
20.34610575495395
 21
4.822495487487685
 31
0.0
  0
LINE
  5
4798
330
4720
100
AcDbEntity
  8
0
 62
     0
100
AcDbLine
 10
18.44295991620166
 20
6.276628520186562
 30
0.0
 11
14.92110575495394
 21
9.798482681434279
 31
0.0
  0
LINE
  5
4799
330
4720
100
AcDbEntity
  8
0
 62
     0
100
AcDbLine
 10
13.696105754954
 20
11.02348268143421
 30
0.0
 11
13.09458840558411
 21
11.6250000308041
 31
0.0
  0
LINE
  5
479A
330
4720
100
AcDbEntity
  8
0
 62
     0
100
AcDbLine
 10
21.14458840558413
 20
3.575000030804091
 30
0.0
 11
20.346105754954
 21
4.373482681434211
 31
0.0
  0
LINE
  5
479B
330
4720
100
AcDbEntity
  8
0
 62
     0
100
AcDbLine
 10
18.6501965959186
 20
5.620379034416146
 30
0.0
 11
14.92110575495394
 21
9.349469875380805
 31
0.0
  0
LINE
  5
479C
330
4720
100
AcDbEntity
  8
0
 62
     0
100
AcDbLine
 10
13.696105754954
 20
10.57446987538074
 30
0.0
 11
12.64557559953061
 21
11.62500003080413
 31
0.0
  0
LINE
  5
479D
330
4720
100
AcDbEntity
  8
0
 62
     0
100
AcDbLine
 10
20.69557559953065
 20
3.575000030804062
 30
0.0
 11
20.34610575495398
 21
3.924469875380765
 31
0.0
  0
LINE
  5
479E
330
4720
100
AcDbEntity
  8
0
 62
     0
100
AcDbLine
 10
13.56265240725895
 20
10.25891041702232
 30
0.0
 11
12.21254154815324
 21
11.609021276128
 31
0.0
  0
LINE
  5
479F
330
4720
100
AcDbEntity
  8
0
 62
     0
100
AcDbLine
 10
18.8574332756356
 20
4.964129548645672
 30
0.0
 11
14.92110575495391
 21
8.900457069327359
 31
0.0
  0
LINE
  5
47A0
330
4720
100
AcDbEntity
  8
0
 62
     0
100
AcDbLine
 10
16.48986021612478
 20
6.882689802103044
 30
0.0
 11
14.92110575495394
 21
8.451444263273884
 31
0.0
  0
LINE
  5
47A1
330
4720
100
AcDbEntity
  8
0
 62
     0
100
AcDbLine
 10
13.14754998742373
 20
10.22500003080406
 30
0.0
 11
11.8435200133596
 21
11.52903000486821
 31
0.0
  0
LINE
  5
47A2
330
4720
100
AcDbEntity
  8
0
 62
     0
100
AcDbLine
 10
19.06466995535259
 20
4.307880062875227
 30
0.0
 11
17.01851610919862
 21
6.354033909029197
 31
0.0
  0
LINE
  5
47A3
330
4720
100
AcDbEntity
  8
0
 62
     0
100
AcDbLine
 10
16.32110575495394
 20
6.602431457220433
 30
0.0
 11
14.92110575495391
 21
8.002431457220438
 31
0.0
  0
LINE
  5
47A4
330
4720
100
AcDbEntity
  8
0
 62
     0
100
AcDbLine
 10
12.69853718137022
 20
10.22500003080412
 30
0.0
 11
11.52415930544424
 21
11.39937790673011
 31
0.0
  0
LINE
  5
47A5
330
4720
100
AcDbEntity
  8
0
 62
     0
100
AcDbLine
 10
19.18218938420798
 20
3.741347827966365
 30
0.0
 11
17.2257527889156
 21
5.697784423258781
 31
0.0
  0
LINE
  5
47A6
330
4720
100
AcDbEntity
  8
0
 62
     0
100
AcDbLine
 10
16.32110575495394
 20
6.153418651166958
 30
0.0
 11
14.92110575495391
 21
7.553418651166992
 31
0.0
  0
LINE
  5
47A7
330
4720
100
AcDbEntity
  8
0
 62
     0
100
AcDbLine
 10
12.27698043009846
 20
10.19754397602244
 30
0.0
 11
11.24478481777697
 21
11.22973958834393
 31
0.0
  0
LINE
  5
47A8
330
4720
100
AcDbEntity
  8
0
 62
     0
100
AcDbLine
 10
18.89952437531681
 20
3.575000030804091
 30
0.0
 11
17.43298946863262
 21
5.04153493748825
 31
0.0
  0
LINE
  5
47A9
330
4720
100
AcDbEntity
  8
0
 62
     0
100
AcDbLine
 10
16.32110575495391
 20
5.704405845113484
 30
0.0
 11
14.92110575495391
 21
7.104405845113518
 31
0.0
  0
LINE
  5
47AA
330
4720
100
AcDbEntity
  8
0
 62
     0
100
AcDbLine
 10
11.99105233367896
 20
10.03445926638846
 30
0.0
 11
11.00095721347108
 21
11.02455438659635
 31
0.0
  0
LINE
  5
47AB
330
4720
100
AcDbEntity
  8
0
 62
     0
100
AcDbLine
 10
18.45051156926334
 20
3.575000030804091
 30
0.0
 11
17.64022614834959
 21
4.385285451717834
 31
0.0
  0
LINE
  5
47AC
330
4720
100
AcDbEntity
  8
0
 62
     0
100
AcDbLine
 10
13.86382032135284
 20
7.712678472661167
 30
0.0
 11
13.10878419681097
 21
8.467714597203041
 31
0.0
  0
LINE
  5
47AD
330
4720
100
AcDbEntity
  8
0
 62
     0
100
AcDbLine
 10
16.32110575495394
 20
5.255393039060066
 30
0.0
 11
14.92110575495391
 21
6.655393039060101
 31
0.0
  0
LINE
  5
47AE
330
4720
100
AcDbEntity
  8
0
 62
     0
100
AcDbLine
 10
11.81299154861449
 20
9.763507245399523
 30
0.0
 11
10.79127420046546
 21
10.78522459354854
 31
0.0
  0
LINE
  5
47AF
330
4720
100
AcDbEntity
  8
0
 62
     0
100
AcDbLine
 10
17.97633226110758
 20
3.600166532906428
 30
0.0
 11
17.85115517531193
 21
3.725343618702083
 31
0.0
  0
LINE
  5
47B0
330
4720
100
AcDbEntity
  8
0
 62
     0
100
AcDbLine
 10
13.82056349128188
 20
7.306922496678652
 30
0.0
 11
12.70302822082845
 21
8.424457767132082
 31
0.0
  0
LINE
  5
47B1
330
4720
100
AcDbEntity
  8
0
 62
     0
100
AcDbLine
 10
11.77110575495402
 20
9.356380233006518
 30
0.0
 11
10.61680468998463
 21
10.5106812979759
 31
0.0
  0
LINE
  5
47B2
330
4720
100
AcDbEntity
  8
0
 62
     0
100
AcDbLine
 10
16.32110575495394
 20
4.806380233006592
 30
0.0
 11
14.92110575495391
 21
6.206380233006626
 31
0.0
  0
LINE
  5
47B3
330
4720
100
AcDbEntity
  8
0
 62
     0
100
AcDbLine
 10
13.65463571163286
 20
7.023837470274173
 30
0.0
 11
12.41994319442397
 21
8.258529987483058
 31
0.0
  0
LINE
  5
47B4
330
4720
100
AcDbEntity
  8
0
 62
     0
100
AcDbLine
 10
11.77110575495402
 20
8.907367426953044
 30
0.0
 11
10.48151483637954
 21
10.19695834552752
 31
0.0
  0
LINE
  5
47B5
330
4720
100
AcDbEntity
  8
0
 62
     0
100
AcDbLine
 10
16.32110575495397
 20
4.357367426953089
 30
0.0
 11
14.92110575495394
 21
5.757367426953123
 31
0.0
  0
LINE
  5
47B6
330
4720
100
AcDbEntity
  8
0
 62
     0
100
AcDbLine
 10
11.77110575495402
 20
8.458354620899598
 30
0.0
 11
10.39415789991662
 21
9.835302475937027
 31
0.0
  0
LINE
  5
47B7
330
4720
100
AcDbEntity
  8
0
 62
     0
100
AcDbLine
 10
13.40371899056464
 20
6.825741385289006
 30
0.0
 11
12.22184710943881
 21
8.007613266414836
 31
0.0
  0
LINE
  5
47B8
330
4720
100
AcDbEntity
  8
0
 62
     0
100
AcDbLine
 10
9.05860575495393
 20
11.17085462089969
 30
0.0
 11
8.604460345049488
 21
11.62500003080416
 31
0.0
  0
LINE
  5
47B9
330
4720
100
AcDbEntity
  8
0
 62
     0
100
AcDbLine
 10
16.32110575495397
 20
3.908354620899672
 30
0.0
 11
14.92110575495394
 21
5.308354620899677
 31
0.0
  0
LINE
  5
47BA
330
4720
100
AcDbEntity
  8
0
 62
     0
100
AcDbLine
 10
11.77110575495402
 20
8.009341814846152
 30
0.0
 11
10.37110575495395
 21
9.409341814846214
 31
0.0
  0
LINE
  5
47BB
330
4720
100
AcDbEntity
  8
0
 62
     0
100
AcDbLine
 10
13.05355926935092
 20
6.726888300449246
 30
0.0
 11
12.12299402459905
 21
7.657453545201121
 31
0.0
  0
LINE
  5
47BC
330
4720
100
AcDbEntity
  8
0
 62
     0
100
AcDbLine
 10
9.05860575495393
 20
10.72184181484624
 30
0.0
 11
8.155447538996014
 21
11.62500003080413
 31
0.0
  0
LINE
  5
47BD
330
4720
100
AcDbEntity
  8
0
 62
     0
100
AcDbLine
 10
16.17715385431867
 20
3.603293715481498
 30
0.0
 11
14.92110575495394
 21
4.859341814846231
 31
0.0
  0
LINE
  5
47BE
330
4720
100
AcDbEntity
  8
0
 62
     0
100
AcDbLine
 10
11.77110575495402
 20
7.560329008792677
 30
0.0
 11
10.37110575495393
 21
8.96032900879274
 31
0.0
  0
LINE
  5
47BF
330
4720
100
AcDbEntity
  8
0
 62
     0
100
AcDbLine
 10
9.004088769818793
 20
10.3273459939279
 30
0.0
 11
7.706434732942597
 21
11.62500003080407
 31
0.0
  0
LINE
  5
47C0
330
4720
100
AcDbEntity
  8
0
 62
     0
100
AcDbLine
 10
15.75643473294261
 20
3.575000030804062
 30
0.0
 11
14.92110575495394
 21
4.410329008792757
 31
0.0
  0
LINE
  5
47C1
330
4720
100
AcDbEntity
  8
0
 62
     0
100
AcDbLine
 10
11.77110575495399
 20
7.111316202739232
 30
0.0
 11
10.37110575495393
 21
8.511316202739294
 31
0.0
  0
LINE
  5
47C2
330
4720
100
AcDbEntity
  8
0
 62
     0
100
AcDbLine
 10
8.657421926889128
 20
10.22500003080409
 30
0.0
 11
7.257421926889151
 21
11.62500003080407
 31
0.0
  0
LINE
  5
47C3
330
4720
100
AcDbEntity
  8
0
 62
     0
100
AcDbLine
 10
15.30742192688916
 20
3.575000030804062
 30
0.0
 11
14.92110575495391
 21
3.961316202739311
 31
0.0
  0
LINE
  5
47C4
330
4720
100
AcDbEntity
  8
0
 62
     0
100
AcDbLine
 10
11.77110575495402
 20
6.662303396685786
 30
0.0
 11
10.37110575495395
 21
8.062303396685848
 31
0.0
  0
LINE
  5
47C5
330
4720
100
AcDbEntity
  8
0
 62
     0
100
AcDbLine
 10
8.208409120835682
 20
10.22500003080409
 30
0.0
 11
6.825844484783232
 21
11.60756466685657
 31
0.0
  0
LINE
  5
47C6
330
4720
100
AcDbEntity
  8
0
 62
     0
100
AcDbLine
 10
13.69480453053552
 20
4.738604621104258
 30
0.0
 11
13.45971034525416
 21
4.973698806385641
 31
0.0
  0
LINE
  5
47C7
330
4720
100
AcDbEntity
  8
0
 62
     0
100
AcDbLine
 10
11.77110575495399
 20
6.213290590632311
 30
0.0
 11
10.37110575495393
 21
7.613290590632402
 31
0.0
  0
LINE
  5
47C8
330
4720
100
AcDbEntity
  8
0
 62
     0
100
AcDbLine
 10
7.759396314782236
 20
10.22500003080409
 30
0.0
 11
6.479277080543994
 21
11.50511926504233
 31
0.0
  0
LINE
  5
47C9
330
4720
100
AcDbEntity
  8
0
 62
     0
100
AcDbLine
 10
13.69610575495397
 20
4.288290590632328
 30
0.0
 11
13.00939631478223
 21
4.975000030804096
 31
0.0
  0
LINE
  5
47CA
330
4720
100
AcDbEntity
  8
0
 62
     0
100
AcDbLine
 10
11.77110575495399
 20
5.764277784578865
 30
0.0
 11
10.37110575495393
 21
7.164277784578928
 31
0.0
  0
LINE
  5
47CB
330
4720
100
AcDbEntity
  8
0
 62
     0
100
AcDbLine
 10
7.310383508728762
 20
10.22500003080406
 30
0.0
 11
6.197153750620373
 21
11.33822978891245
 31
0.0
  0
LINE
  5
47CC
330
4720
100
AcDbEntity
  8
0
 62
     0
100
AcDbLine
 10
13.69610575495397
 20
3.839277784578882
 30
0.0
 11
12.56038350872876
 21
4.975000030804068
 31
0.0
  0
LINE
  5
47CD
330
4720
100
AcDbEntity
  8
0
 62
     0
100
AcDbLine
 10
7.055237094921466
 20
10.03113363855797
 30
0.0
 11
5.968107344499998
 21
11.11826338897944
 31
0.0
  0
LINE
  5
47CE
330
4720
100
AcDbEntity
  8
0
 62
     0
100
AcDbLine
 10
13.50223936270782
 20
3.584131370771615
 30
0.0
 11
10.37110575495393
 21
6.715264978525482
 31
0.0
  0
LINE
  5
47CF
330
4720
100
AcDbEntity
  8
0
 62
     0
100
AcDbLine
 10
7.046105754953941
 20
9.591252172471996
 30
0.0
 11
5.791366743265456
 21
10.84599118416051
 31
0.0
  0
LINE
  5
47D0
330
4720
100
AcDbEntity
  8
0
 62
     0
100
AcDbLine
 10
13.0623578966219
 20
3.575000030804062
 30
0.0
 11
10.37110575495393
 21
6.266252172472036
 31
0.0
  0
LINE
  5
47D1
330
4720
100
AcDbEntity
  8
0
 62
     0
100
AcDbLine
 10
7.077173609021713
 20
9.11117151235075
 30
0.0
 11
5.675926692118594
 21
10.51241842925389
 31
0.0
  0
LINE
  5
47D2
330
4720
100
AcDbEntity
  8
0
 62
     0
100
AcDbLine
 10
12.61334509056843
 20
3.575000030804034
 30
0.0
 11
10.37110575495393
 21
5.817239366418561
 31
0.0
  0
LINE
  5
47D3
330
4720
100
AcDbEntity
  8
0
 62
     0
100
AcDbLine
 10
9.223293800565329
 20
6.516038514753716
 30
0.0
 11
5.646105754953936
 21
10.09322656036511
 31
0.0
  0
LINE
  5
47D4
330
4720
100
AcDbEntity
  8
0
 62
     0
100
AcDbLine
 10
12.13769624098659
 20
3.601636074332446
 30
0.0
 11
10.39774179848231
 21
5.341590516836731
 31
0.0
  0
LINE
  5
47D5
330
4720
100
AcDbEntity
  8
0
 62
     0
100
AcDbLine
 10
9.319241057607939
 20
5.97107845165766
 30
0.0
 11
5.646105754953964
 21
9.644213754311635
 31
0.0
  0
LINE
  5
47D6
330
4720
100
AcDbEntity
  8
0
 62
     0
100
AcDbLine
 10
11.4507922846858
 20
3.839527224579768
 30
0.0
 11
10.6356329487296
 21
4.654686560535992
 31
0.0
  0
LINE
  5
47D7
330
4720
100
AcDbEntity
  8
0
 62
     0
100
AcDbLine
 10
9.321105754954004
 20
5.520200948258121
 30
0.0
 11
5.649887978665162
 21
9.191418724546934
 31
0.0
  0
LINE
  5
47D8
330
4720
100
AcDbEntity
  8
0
 62
     0
100
AcDbLine
 10
9.321105754953975
 20
5.071188142204675
 30
0.0
 11
5.76153335782709
 21
8.630760539331532
 31
0.0
  0
LINE
  5
47D9
330
4720
100
AcDbEntity
  8
0
 62
     0
100
AcDbLine
 10
9.284845756888017
 20
4.658435334217216
 30
0.0
 11
7.903149935078488
 21
6.040131156026745
 31
0.0
  0
LINE
  5
47DA
330
4720
100
AcDbEntity
  8
0
 62
     0
100
AcDbLine
 10
9.163876787373595
 20
4.330391497678164
 30
0.0
 11
7.92110575495397
 21
5.573162530097789
 31
0.0
  0
LINE
  5
47DB
330
4720
100
AcDbEntity
  8
0
 62
     0
100
AcDbLine
 10
8.98281716368271
 20
4.062438315315574
 30
0.0
 11
7.903156238803632
 21
5.142099240194653
 31
0.0
  0
LINE
  5
47DC
330
4720
100
AcDbEntity
  8
0
 62
     0
100
AcDbLine
 10
8.749703977549273
 20
3.846538695395565
 30
0.0
 11
7.621242642140742
 21
4.975000030804096
 31
0.0
  0
LINE
  5
47DD
330
4720
100
AcDbEntity
  8
0
 62
     0
100
AcDbLine
 10
8.463071753682868
 20
3.684158113208525
 30
0.0
 11
7.172229836087296
 21
4.975000030804096
 31
0.0
  0
LINE
  5
47DE
330
4720
100
AcDbEntity
  8
0
 62
     0
100
AcDbLine
 10
8.110365459139899
 20
3.587851601698019
 30
0.0
 11
6.723217030033822
 21
4.975000030804096
 31
0.0
  0
LINE
  5
47DF
330
4720
100
AcDbEntity
  8
0
 62
     0
100
AcDbLine
 10
7.674204223980382
 20
3.575000030804034
 30
0.0
 11
6.274204223980376
 21
4.975000030804068
 31
0.0
  0
LINE
  5
47E0
330
4720
100
AcDbEntity
  8
0
 62
     0
100
AcDbLine
 10
7.225191417926907
 20
3.575000030804091
 30
0.0
 11
5.948529470517968
 21
4.851661978213059
 31
0.0
  0
LINE
  5
47E1
330
4720
100
AcDbEntity
  8
0
 62
     0
100
AcDbLine
 10
6.776178611873461
 20
3.575000030804091
 30
0.0
 11
5.908605754953981
 21
4.442572887723571
 31
0.0
  0
LINE
  5
47E2
330
4720
100
AcDbEntity
  8
0
 62
     0
100
AcDbLine
 10
6.327165805819987
 20
3.575000030804091
 30
0.0
 11
5.908605754953981
 21
3.993560081670096
 31
0.0
  0
LINE
  5
47E3
330
4720
100
AcDbEntity
  8
0
 62
     0
100
AcDbLine
 10
34.31694939728746
 20
3.581565919362873
 30
0.0
 11
34.51453986639535
 21
3.779156388470767
 31
0.0
  0
LINE
  5
47E4
330
4720
100
AcDbEntity
  8
0
 62
     0
100
AcDbLine
 10
33.86137070267523
 20
3.575000030804062
 30
0.0
 11
34.52110575495408
 21
4.23473508308291
 31
0.0
  0
LINE
  5
47E5
330
4720
100
AcDbEntity
  8
0
 62
     0
100
AcDbLine
 10
33.41235789662178
 20
3.575000030804062
 30
0.0
 11
34.52110575495408
 21
4.683747889136355
 31
0.0
  0
LINE
  5
47E6
330
4720
100
AcDbEntity
  8
0
 62
     0
100
AcDbLine
 10
33.13670453657991
 20
3.748359476815664
 30
0.0
 11
34.52110575495405
 21
5.13276069518983
 31
0.0
  0
LINE
  5
47E7
330
4720
100
AcDbEntity
  8
0
 62
     0
100
AcDbLine
 10
33.12110575495401
 20
4.181773501243242
 30
0.0
 11
34.52110575495405
 21
5.581773501243247
 31
0.0
  0
LINE
  5
47E8
330
4720
100
AcDbEntity
  8
0
 62
     0
100
AcDbLine
 10
33.12110575495404
 20
4.630786307296688
 30
0.0
 11
34.52110575495405
 21
6.030786307296722
 31
0.0
  0
LINE
  5
47E9
330
4720
100
AcDbEntity
  8
0
 62
     0
100
AcDbLine
 10
33.12110575495401
 20
5.079799113350162
 30
0.0
 11
34.52110575495405
 21
6.479799113350196
 31
0.0
  0
LINE
  5
47EA
330
4720
100
AcDbEntity
  8
0
 62
     0
100
AcDbLine
 10
33.12110575495401
 20
5.528811919403608
 30
0.0
 11
34.52110575495405
 21
6.928811919403642
 31
0.0
  0
LINE
  5
47EB
330
4720
100
AcDbEntity
  8
0
 62
     0
100
AcDbLine
 10
31.33438818598665
 20
3.742094350436246
 30
0.0
 11
31.90401143532193
 21
4.311717599771554
 31
0.0
  0
LINE
  5
47EC
330
4720
100
AcDbEntity
  8
0
 62
     0
100
AcDbLine
 10
33.12110575495401
 20
5.977824725457054
 30
0.0
 11
34.52110575495405
 21
7.377824725457088
 31
0.0
  0
LINE
  5
47ED
330
4720
100
AcDbEntity
  8
0
 62
     0
100
AcDbLine
 10
30.71910410272525
 20
3.575823073228292
 30
0.0
 11
32.07028271252991
 21
4.927001683032926
 31
0.0
  0
LINE
  5
47EE
330
4720
100
AcDbEntity
  8
0
 62
     0
100
AcDbLine
 10
33.12110575495401
 20
6.426837531510528
 30
0.0
 11
34.52110575495405
 21
7.826837531510534
 31
0.0
  0
LINE
  5
47EF
330
4720
100
AcDbEntity
  8
0
 62
     0
100
AcDbLine
 10
30.26926825424755
 20
3.575000030804062
 30
0.0
 11
32.07110575495406
 21
5.376837531510545
 31
0.0
  0
LINE
  5
47F0
330
4720
100
AcDbEntity
  8
0
 62
     0
100
AcDbLine
 10
33.12110575495401
 20
6.875850337563974
 30
0.0
 11
34.52110575495402
 21
8.275850337564008
 31
0.0
  0
LINE
  5
47F1
330
4720
100
AcDbEntity
  8
0
 62
     0
100
AcDbLine
 10
29.8202554481941
 20
3.575000030804062
 30
0.0
 11
32.07110575495403
 21
5.82585033756402
 31
0.0
  0
LINE
  5
47F2
330
4720
100
AcDbEntity
  8
0
 62
     0
100
AcDbLine
 10
33.12110575495401
 20
7.32486314361742
 30
0.0
 11
34.52110575495405
 21
8.724863143617454
 31
0.0
  0
LINE
  5
47F3
330
4720
100
AcDbEntity
  8
0
 62
     0
100
AcDbLine
 10
29.37124264214068
 20
3.575000030804091
 30
0.0
 11
32.07110575495406
 21
6.274863143617466
 31
0.0
  0
LINE
  5
47F4
330
4720
100
AcDbEntity
  8
0
 62
     0
100
AcDbLine
 10
30.6188101539135
 20
5.271580348630379
 30
0.0
 11
32.07110575495406
 21
6.723875949670912
 31
0.0
  0
LINE
  5
47F5
330
4720
100
AcDbEntity
  8
0
 62
     0
100
AcDbLine
 10
33.12110575495401
 20
7.773875949670866
 30
0.0
 11
34.52110575495405
 21
9.1738759496709
 31
0.0
  0
LINE
  5
47F6
330
4720
100
AcDbEntity
  8
0
 62
     0
100
AcDbLine
 10
28.92222983608718
 20
3.575000030804062
 30
0.0
 11
30.37452543712774
 21
5.027295631844594
 31
0.0
  0
LINE
  5
47F7
330
4720
100
AcDbEntity
  8
0
 62
     0
100
AcDbLine
 10
30.671105754954
 20
5.772888755724352
 30
0.0
 11
32.07110575495403
 21
7.172888755724386
 31
0.0
  0
LINE
  5
47F8
330
4720
100
AcDbEntity
  8
0
 62
     0
100
AcDbLine
 10
33.12110575495399
 20
8.222888755724341
 30
0.0
 11
34.52110575495402
 21
9.622888755724375
 31
0.0
  0
LINE
  5
47F9
330
4720
100
AcDbEntity
  8
0
 62
     0
100
AcDbLine
 10
28.52919190572234
 20
3.630974906492667
 30
0.0
 11
29.87321703003377
 21
4.975000030804096
 31
0.0
  0
LINE
  5
47FA
330
4720
100
AcDbEntity
  8
0
 62
     0
100
AcDbLine
 10
30.67110575495402
 20
6.221901561777855
 30
0.0
 11
32.07110575495403
 21
7.621901561777832
 31
0.0
  0
LINE
  5
47FB
330
4720
100
AcDbEntity
  8
0
 62
     0
100
AcDbLine
 10
33.12110575495399
 20
8.671901561777815
 30
0.0
 11
34.52110575495402
 21
10.07190156177782
 31
0.0
  0
LINE
  5
47FC
330
4720
100
AcDbEntity
  8
0
 62
     0
100
AcDbLine
 10
28.21519847211726
 20
3.765994278941093
 30
0.0
 11
29.42464311680248
 21
4.975438923626313
 31
0.0
  0
LINE
  5
47FD
330
4720
100
AcDbEntity
  8
0
 62
     0
100
AcDbLine
 10
30.67110575495405
 20
6.670914367831301
 30
0.0
 11
32.07110575495403
 21
8.070914367831278
 31
0.0
  0
LINE
  5
47FE
330
4720
100
AcDbEntity
  8
0
 62
     0
100
AcDbLine
 10
33.12110575495401
 20
9.120914367831232
 30
0.0
 11
34.52110575495402
 21
10.52091436783126
 31
0.0
  0
LINE
  5
47FF
330
4720
100
AcDbEntity
  8
0
 62
     0
100
AcDbLine
 10
27.95856853143473
 20
3.958377144311953
 30
0.0
 11
29.10290382244614
 21
5.102712435323383
 31
0.0
  0
LINE
  5
4800
330
4720
100
AcDbEntity
  8
0
 62
     0
100
AcDbLine
 10
30.67110575495405
 20
7.119927173884747
 30
0.0
 11
32.07110575495403
 21
8.519927173884752
 31
0.0
  0
LINE
  5
4801
330
4720
100
AcDbEntity
  8
0
 62
     0
100
AcDbLine
 10
33.12110575495399
 20
9.569927173884707
 30
0.0
 11
34.52110575495402
 21
10.96992717388474
 31
0.0
  0
LINE
  5
4802
330
4720
100
AcDbEntity
  8
0
 62
     0
100
AcDbLine
 10
27.75358644382217
 20
4.202407862752863
 30
0.0
 11
28.93428468324143
 21
5.383106102172149
 31
0.0
  0
LINE
  5
4803
330
4720
100
AcDbEntity
  8
0
 62
     0
100
AcDbLine
 10
30.67110575495402
 20
7.568939979938221
 30
0.0
 11
32.07110575495406
 21
8.968939979938255
 31
0.0
  0
LINE
  5
4804
330
4720
100
AcDbEntity
  8
0
 62
     0
100
AcDbLine
 10
33.12110575495399
 20
10.01893997993815
 30
0.0
 11
34.51603117817879
 21
11.41386540316298
 31
0.0
  0
LINE
  5
4805
330
4720
100
AcDbEntity
  8
0
 62
     0
100
AcDbLine
 10
27.60362400460516
 20
4.50145822958936
 30
0.0
 11
28.92110575495403
 21
5.818939979938193
 31
0.0
  0
LINE
  5
4806
330
4720
100
AcDbEntity
  8
0
 62
     0
100
AcDbLine
 10
30.67110575495405
 20
8.017952785991639
 30
0.0
 11
32.07110575495409
 21
9.417952785991673
 31
0.0
  0
LINE
  5
4807
330
4720
100
AcDbEntity
  8
0
 62
     0
100
AcDbLine
 10
33.12110575495399
 20
10.46795278599159
 30
0.0
 11
34.27747400563905
 21
11.62432103667666
 31
0.0
  0
LINE
  5
4808
330
4720
100
AcDbEntity
  8
0
 62
     0
100
AcDbLine
 10
27.52491723712694
 20
4.871764268164554
 30
0.0
 11
28.92110575495403
 21
6.267952785991639
 31
0.0
  0
LINE
  5
4809
330
4720
100
AcDbEntity
  8
0
 62
     0
100
AcDbLine
 10
30.67110575495402
 20
8.466965592045113
 30
0.0
 11
32.07110575495406
 21
9.866965592045147
 31
0.0
  0
LINE
  5
480A
330
4720
100
AcDbEntity
  8
0
 62
     0
100
AcDbLine
 10
33.12110575495401
 20
10.9169655920451
 30
0.0
 11
33.82914019371301
 21
11.6250000308041
 31
0.0
  0
LINE
  5
480B
330
4720
100
AcDbEntity
  8
0
 62
     0
100
AcDbLine
 10
27.52110575495405
 20
5.316965592045107
 30
0.0
 11
28.92110575495405
 21
6.716965592045141
 31
0.0
  0
LINE
  5
480C
330
4720
100
AcDbEntity
  8
0
 62
     0
100
AcDbLine
 10
30.67110575495402
 20
8.915978398098587
 30
0.0
 11
32.07110575495406
 21
10.31597839809859
 31
0.0
  0
LINE
  5
480D
330
4720
100
AcDbEntity
  8
0
 62
     0
100
AcDbLine
 10
27.52110575495402
 20
5.765978398098582
 30
0.0
 11
28.92110575495405
 21
7.165978398098616
 31
0.0
  0
LINE
  5
480E
330
4720
100
AcDbEntity
  8
0
 62
     0
100
AcDbLine
 10
33.12112911232773
 20
11.36600175547229
 30
0.0
 11
33.38010403028587
 21
11.62497667343041
 31
0.0
  0
LINE
  5
480F
330
4720
100
AcDbEntity
  8
0
 62
     0
100
AcDbLine
 10
25.36032793959802
 20
3.605200582742554
 30
0.0
 11
26.4409052030156
 21
4.685777846160164
 31
0.0
  0
LINE
  5
4810
330
4720
100
AcDbEntity
  8
0
 62
     0
100
AcDbLine
 10
27.52110575495402
 20
6.214991204152028
 30
0.0
 11
28.92110575495405
 21
7.614991204152062
 31
0.0
  0
LINE
  5
4811
330
4720
100
AcDbEntity
  8
0
 62
     0
100
AcDbLine
 10
30.67110575495402
 20
9.364991204152033
 30
0.0
 11
32.07110575495403
 21
10.76499120415206
 31
0.0
  0
LINE
  5
4812
330
4720
100
AcDbEntity
  8
0
 62
     0
100
AcDbLine
 10
24.88111458160608
 20
3.575000030804119
 30
0.0
 11
26.47110575495401
 21
5.164991204152045
 31
0.0
  0
LINE
  5
4813
330
4720
100
AcDbEntity
  8
0
 62
     0
100
AcDbLine
 10
27.52110575495402
 20
6.664004010205474
 30
0.0
 11
28.92110575495405
 21
8.064004010205508
 31
0.0
  0
LINE
  5
4814
330
4720
100
AcDbEntity
  8
0
 62
     0
100
AcDbLine
 10
30.67110575495402
 20
9.814004010205479
 30
0.0
 11
32.07110575495406
 21
11.21400401020551
 31
0.0
  0
LINE
  5
4815
330
4720
100
AcDbEntity
  8
0
 62
     0
100
AcDbLine
 10
24.43210177555263
 20
3.575000030804091
 30
0.0
 11
26.47110575495403
 21
5.614004010205462
 31
0.0
  0
LINE
  5
4816
330
4720
100
AcDbEntity
  8
0
 62
     0
100
AcDbLine
 10
27.52110575495402
 20
7.113016816258948
 30
0.0
 11
28.92110575495405
 21
8.513016816258954
 31
0.0
  0
LINE
  5
4817
330
4720
100
AcDbEntity
  8
0
 62
     0
100
AcDbLine
 10
30.67110575495402
 20
10.26301681625892
 30
0.0
 11
31.97423702753698
 21
11.56614808884191
 31
0.0
  0
LINE
  5
4818
330
4720
100
AcDbEntity
  8
0
 62
     0
100
AcDbLine
 10
23.98308896949919
 20
3.575000030804119
 30
0.0
 11
26.46394645474754
 21
6.055857516052469
 31
0.0
  0
LINE
  5
4819
330
4720
100
AcDbEntity
  8
0
 62
     0
100
AcDbLine
 10
27.52110575495402
 20
7.562029622312394
 30
0.0
 11
28.92110575495403
 21
8.962029622312428
 31
0.0
  0
LINE
  5
481A
330
4720
100
AcDbEntity
  8
0
 62
     0
100
AcDbLine
 10
30.671105754954
 20
10.7120296223124
 30
0.0
 11
31.58407616344573
 21
11.62500003080413
 31
0.0
  0
LINE
  5
481B
330
4720
100
AcDbEntity
  8
0
 62
     0
100
AcDbLine
 10
23.53407616344572
 20
3.575000030804119
 30
0.0
 11
26.39649026943317
 21
6.437414136791545
 31
0.0
  0
LINE
  5
481C
330
4720
100
AcDbEntity
  8
0
 62
     0
100
AcDbLine
 10
27.52110575495402
 20
8.01104242836584
 30
0.0
 11
28.92110575495405
 21
9.411042428365874
 31
0.0
  0
LINE
  5
481D
330
4720
100
AcDbEntity
  8
0
 62
     0
100
AcDbLine
 10
25.07110575495409
 20
5.56104242836588
 30
0.0
 11
26.2761965409739
 21
6.766133214385689
 31
0.0
  0
LINE
  5
481E
330
4720
100
AcDbEntity
  8
0
 62
     0
100
AcDbLine
 10
30.67110575495402
 20
11.16104242836584
 30
0.0
 11
31.13506335739231
 21
11.62500003080413
 31
0.0
  0
LINE
  5
481F
330
4720
100
AcDbEntity
  8
0
 62
     0
100
AcDbLine
 10
23.14919103395783
 20
3.639127707369652
 30
0.0
 11
24.48506335739228
 21
4.975000030804096
 31
0.0
  0
LINE
  5
4820
330
4720
100
AcDbEntity
  8
0
 62
     0
100
AcDbLine
 10
25.06117046739038
 20
6.000119946855647
 30
0.0
 11
26.11444688854362
 21
7.05339636800889
 31
0.0
  0
LINE
  5
4821
330
4720
100
AcDbEntity
  8
0
 62
     0
100
AcDbLine
 10
27.52110575495402
 20
8.460055234419286
 30
0.0
 11
28.92110575495403
 21
9.86005523441932
 31
0.0
  0
LINE
  5
4822
330
4720
100
AcDbEntity
  8
0
 62
     0
100
AcDbLine
 10
23.05860575495404
 20
3.997555234419309
 30
0.0
 11
24.0360505513388
 21
4.975000030804096
 31
0.0
  0
LINE
  5
4823
330
4720
100
AcDbEntity
  8
0
 62
     0
100
AcDbLine
 10
24.92397804882094
 20
6.311940334339709
 30
0.0
 11
25.91651132957972
 21
7.304473615098487
 31
0.0
  0
LINE
  5
4824
330
4720
100
AcDbEntity
  8
0
 62
     0
100
AcDbLine
 10
27.52110575495399
 20
8.90906804047276
 30
0.0
 11
28.92110575495403
 21
10.30906804047279
 31
0.0
  0
LINE
  5
4825
330
4720
100
AcDbEntity
  8
0
 62
     0
100
AcDbLine
 10
23.05860575495401
 20
4.446568040472783
 30
0.0
 11
23.58703774528535
 21
4.975000030804125
 31
0.0
  0
LINE
  5
4826
330
4720
100
AcDbEntity
  8
0
 62
     0
100
AcDbLine
 10
27.52110575495402
 20
9.358080846526206
 30
0.0
 11
28.92110575495405
 21
10.75808084652621
 31
0.0
  0
LINE
  5
4827
330
4720
100
AcDbEntity
  8
0
 62
     0
100
AcDbLine
 10
24.70334060026241
 20
6.540315691834564
 30
0.0
 11
25.69329009392356
 21
7.530265185495721
 31
0.0
  0
LINE
  5
4828
330
4720
100
AcDbEntity
  8
0
 62
     0
100
AcDbLine
 10
24.47883419723567
 20
6.764822094861301
 30
0.0
 11
25.46878369089682
 21
7.754771588522459
 31
0.0
  0
LINE
  5
4829
330
4720
100
AcDbEntity
  8
0
 62
     0
100
AcDbLine
 10
27.52110575495399
 20
9.807093652579652
 30
0.0
 11
28.92110575495403
 21
11.20709365257968
 31
0.0
  0
LINE
  5
482A
330
4720
100
AcDbEntity
  8
0
 62
     0
100
AcDbLine
 10
21.28901213317843
 20
3.575000030804091
 30
0.0
 11
21.74610575495401
 21
4.032093652579646
 31
0.0
  0
LINE
  5
482B
330
4720
100
AcDbEntity
  8
0
 62
     0
100
AcDbLine
 10
24.25432779420893
 20
6.989328497888038
 30
0.0
 11
25.24427728787009
 21
7.979277991549196
 31
0.0
  0
LINE
  5
482C
330
4720
100
AcDbEntity
  8
0
 62
     0
100
AcDbLine
 10
27.52110575495399
 20
10.25610645863312
 30
0.0
 11
28.82801530090469
 21
11.5630160045838
 31
0.0
  0
LINE
  5
482D
330
4720
100
AcDbEntity
  8
0
 62
     0
100
AcDbLine
 10
20.83999932712495
 20
3.575000030804091
 30
0.0
 11
21.74610575495404
 21
4.481106458633149
 31
0.0
  0
LINE
  5
482E
330
4720
100
AcDbEntity
  8
0
 62
     0
100
AcDbLine
 10
24.02982139118219
 20
7.213834900914775
 30
0.0
 11
25.01977088484335
 21
8.203784394575933
 31
0.0
  0
LINE
  5
482F
330
4720
100
AcDbEntity
  8
0
 62
     0
100
AcDbLine
 10
27.52110575495399
 20
10.70511926468657
 30
0.0
 11
28.44098652107155
 21
11.62500003080416
 31
0.0
  0
LINE
  5
4830
330
4720
100
AcDbEntity
  8
0
 62
     0
100
AcDbLine
 10
20.4467920900025
 20
3.630805599735083
 30
0.0
 11
21.74610575495401
 21
4.930119264686624
 31
0.0
  0
LINE
  5
4831
330
4720
100
AcDbEntity
  8
0
 62
     0
100
AcDbLine
 10
23.80531498815548
 20
7.438341303941484
 30
0.0
 11
24.79526448181664
 21
8.428290797602642
 31
0.0
  0
LINE
  5
4832
330
4720
100
AcDbEntity
  8
0
 62
     0
100
AcDbLine
 10
27.52110575495399
 20
11.15413207074001
 30
0.0
 11
27.99197371501813
 21
11.62500003080413
 31
0.0
  0
LINE
  5
4833
330
4720
100
AcDbEntity
  8
0
 62
     0
100
AcDbLine
 10
20.34610575495404
 20
3.979132070740064
 30
0.0
 11
21.74610575495404
 21
5.379132070740041
 31
0.0
  0
LINE
  5
4834
330
4720
100
AcDbEntity
  8
0
 62
     0
100
AcDbLine
 10
23.58080858512875
 20
7.662847706968221
 30
0.0
 11
24.5707580787899
 21
8.652797200629379
 31
0.0
  0
LINE
  5
4835
330
4720
100
AcDbEntity
  8
0
 62
     0
100
AcDbLine
 10
20.34610575495404
 20
4.428144876793538
 30
0.0
 11
21.74610575495401
 21
5.828144876793516
 31
0.0
  0
LINE
  5
4836
330
4720
100
AcDbEntity
  8
0
 62
     0
100
AcDbLine
 10
23.35731663460808
 20
7.888368562501057
 30
0.0
 11
24.34930340129909
 21
8.880355329192042
 31
0.0
  0
LINE
  5
4837
330
4720
100
AcDbEntity
  8
0
 62
     0
100
AcDbLine
 10
20.34610575495404
 20
4.877157682846984
 30
0.0
 11
21.74610575495401
 21
6.27715768284699
 31
0.0
  0
LINE
  5
4838
330
4720
100
AcDbEntity
  8
0
 62
     0
100
AcDbLine
 10
25.69394810291112
 20
10.22500003080409
 30
0.0
 11
26.20860575495405
 21
10.73965768284699
 31
0.0
  0
LINE
  5
4839
330
4720
100
AcDbEntity
  8
0
 62
     0
100
AcDbLine
 10
19.09977764259892
 20
3.630829570491869
 30
0.0
 11
19.14460382332643
 21
3.675655751219409
 31
0.0
  0
LINE
  5
483A
330
4720
100
AcDbEntity
  8
0
 62
     0
100
AcDbLine
 10
23.15831554519709
 20
8.13838027914349
 30
0.0
 11
24.2081326839064
 21
9.188197417852791
 31
0.0
  0
LINE
  5
483B
330
4720
100
AcDbEntity
  8
0
 62
     0
100
AcDbLine
 10
20.34610575495404
 20
5.32617048890043
 30
0.0
 11
21.74610575495404
 21
6.726170488900407
 31
0.0
  0
LINE
  5
483C
330
4720
100
AcDbEntity
  8
0
 62
     0
100
AcDbLine
 10
25.24493529685773
 20
10.22500003080412
 30
0.0
 11
26.20860575495405
 21
11.18867048890044
 31
0.0
  0
LINE
  5
483D
330
4720
100
AcDbEntity
  8
0
 62
     0
100
AcDbLine
 10
18.59493529685769
 20
3.575000030804091
 30
0.0
 11
19.12782484501096
 21
4.107889578957355
 31
0.0
  0
LINE
  5
483E
330
4720
100
AcDbEntity
  8
0
 62
     0
100
AcDbLine
 10
22.99539841299875
 20
8.424475952998619
 30
0.0
 11
24.19610575495409
 21
9.625183294953956
 31
0.0
  0
LINE
  5
483F
330
4720
100
AcDbEntity
  8
0
 62
     0
100
AcDbLine
 10
20.34610575495404
 20
5.775183294953876
 30
0.0
 11
21.74610575495401
 21
7.175183294953882
 31
0.0
  0
LINE
  5
4840
330
4720
100
AcDbEntity
  8
0
 62
     0
100
AcDbLine
 10
24.79592249080423
 20
10.22500003080409
 30
0.0
 11
26.12527128905509
 21
11.55434882905495
 31
0.0
  0
LINE
  5
4841
330
4720
100
AcDbEntity
  8
0
 62
     0
100
AcDbLine
 10
18.14592249080419
 20
3.575000030804062
 30
0.0
 11
19.02006177155811
 21
4.449139311557985
 31
0.0
  0
LINE
  5
4842
330
4720
100
AcDbEntity
  8
0
 62
     0
100
AcDbLine
 10
20.346105754954
 20
6.22419610100735
 30
0.0
 11
21.74610575495401
 21
7.624196101007328
 31
0.0
  0
LINE
  5
4843
330
4720
100
AcDbEntity
  8
0
 62
     0
100
AcDbLine
 10
22.8737073816637
 20
8.751797727717047
 30
0.0
 11
25.74690968475079
 21
11.62500003080413
 31
0.0
  0
LINE
  5
4844
330
4720
100
AcDbEntity
  8
0
 62
     0
100
AcDbLine
 10
17.8499153354767
 20
3.728005681530049
 30
0.0
 11
18.91229869810527
 21
4.790389044158615
 31
0.0
  0
LINE
  5
4845
330
4720
100
AcDbEntity
  8
0
 62
     0
100
AcDbLine
 10
20.346105754954
 20
6.673208907060825
 30
0.0
 11
21.74610575495398
 21
8.073208907060802
 31
0.0
  0
LINE
  5
4846
330
4720
100
AcDbEntity
  8
0
 62
     0
100
AcDbLine
 10
22.80435395212086
 20
9.131457104227678
 30
0.0
 11
25.29789687869734
 21
11.62500003080413
 31
0.0
  0
LINE
  5
4847
330
4720
100
AcDbEntity
  8
0
 62
     0
100
AcDbLine
 10
17.7405356246524
 20
4.067638776759224
 30
0.0
 11
18.80453562465243
 21
5.131638776759245
 31
0.0
  0
LINE
  5
4848
330
4720
100
AcDbEntity
  8
0
 62
     0
100
AcDbLine
 10
20.34610575495404
 20
7.122221713114242
 30
0.0
 11
21.74610575495401
 21
8.522221713114248
 31
0.0
  0
LINE
  5
4849
330
4720
100
AcDbEntity
  8
0
 62
     0
100
AcDbLine
 10
22.79610575495402
 20
9.572221713114231
 30
0.0
 11
24.84888407264389
 21
11.62500003080413
 31
0.0
  0
LINE
  5
484A
330
4720
100
AcDbEntity
  8
0
 62
     0
100
AcDbLine
 10
17.63277255119959
 20
4.408888509359826
 30
0.0
 11
18.69677255119964
 21
5.472888509359847
 31
0.0
  0
LINE
  5
484B
330
4720
100
AcDbEntity
  8
0
 62
     0
100
AcDbLine
 10
20.346105754954
 20
7.571234519167717
 30
0.0
 11
21.74610575495401
 21
8.971234519167694
 31
0.0
  0
LINE
  5
484C
330
4720
100
AcDbEntity
  8
0
 62
     0
100
AcDbLine
 10
22.79610575495405
 20
10.02123451916773
 30
0.0
 11
24.39987126659045
 21
11.62500003080413
 31
0.0
  0
LINE
  5
484D
330
4720
100
AcDbEntity
  8
0
 62
     0
100
AcDbLine
 10
17.52500947774672
 20
4.750138241960428
 30
0.0
 11
18.58900947774682
 21
5.814138241960534
 31
0.0
  0
LINE
  5
484E
330
4720
100
AcDbEntity
  8
0
 62
     0
100
AcDbLine
 10
20.346105754954
 20
8.020247325221163
 30
0.0
 11
21.74610575495404
 21
9.420247325221197
 31
0.0
  0
LINE
  5
484F
330
4720
100
AcDbEntity
  8
0
 62
     0
100
AcDbLine
 10
17.4172464042939
 20
5.091387974561087
 30
0.0
 11
18.48124640429395
 21
6.155387974561108
 31
0.0
  0
LINE
  5
4850
330
4720
100
AcDbEntity
  8
0
 62
     0
100
AcDbLine
 10
22.82276409001462
 20
10.49690566028181
 30
0.0
 11
23.92420012547629
 21
11.59834169574347
 31
0.0
  0
LINE
  5
4851
330
4720
100
AcDbEntity
  8
0
 62
     0
100
AcDbLine
 10
15.90085846053691
 20
3.575000030804091
 30
0.0
 11
16.321105754954
 21
3.995247325221185
 31
0.0
  0
LINE
  5
4852
330
4720
100
AcDbEntity
  8
0
 62
     0
100
AcDbLine
 10
17.30948333084112
 20
5.432637707161688
 30
0.0
 11
18.37348333084113
 21
6.496637707161738
 31
0.0
  0
LINE
  5
4853
330
4720
100
AcDbEntity
  8
0
 62
     0
100
AcDbLine
 10
20.346105754954
 20
8.469260131274609
 30
0.0
 11
21.74610575495404
 21
9.869260131274643
 31
0.0
  0
LINE
  5
4854
330
4720
100
AcDbEntity
  8
0
 62
     0
100
AcDbLine
 10
15.45184565448349
 20
3.575000030804062
 30
0.0
 11
16.32110575495403
 21
4.444260131274631
 31
0.0
  0
LINE
  5
4855
330
4720
100
AcDbEntity
  8
0
 62
     0
100
AcDbLine
 10
17.20172025738827
 20
5.773887439762319
 30
0.0
 11
18.26572025738829
 21
6.837887439762369
 31
0.0
  0
LINE
  5
4856
330
4720
100
AcDbEntity
  8
0
 62
     0
100
AcDbLine
 10
20.346105754954
 20
8.918272937328083
 30
0.0
 11
21.74610575495404
 21
10.31827293732809
 31
0.0
  0
LINE
  5
4857
330
4720
100
AcDbEntity
  8
0
 62
     0
100
AcDbLine
 10
15.04340772225566
 20
3.615574904629738
 30
0.0
 11
16.32110575495403
 21
4.893272937328077
 31
0.0
  0
LINE
  5
4858
330
4720
100
AcDbEntity
  8
0
 62
     0
100
AcDbLine
 10
17.09395718393543
 20
6.115137172362949
 30
0.0
 11
18.15795718393545
 21
7.179137172362999
 31
0.0
  0
LINE
  5
4859
330
4720
100
AcDbEntity
  8
0
 62
     0
100
AcDbLine
 10
20.346105754954
 20
9.367285743381529
 30
0.0
 11
21.74610575495401
 21
10.76728574338156
 31
0.0
  0
LINE
  5
485A
330
4720
100
AcDbEntity
  8
0
 62
     0
100
AcDbLine
 10
14.92110575495402
 20
3.942285743381546
 30
0.0
 11
16.32110575495406
 21
5.34228574338158
 31
0.0
  0
LINE
  5
485B
330
4720
100
AcDbEntity
  8
0
 62
     0
100
AcDbLine
 10
16.98619411048261
 20
6.456386904963551
 30
0.0
 11
18.05019411048269
 21
7.520386904963629
 31
0.0
  0
LINE
  5
485C
330
4720
100
AcDbEntity
  8
0
 62
     0
100
AcDbLine
 10
20.346105754954
 20
9.816298549434975
 30
0.0
 11
21.74610575495404
 21
11.21629854943501
 31
0.0
  0
LINE
  5
485D
330
4720
100
AcDbEntity
  8
0
 62
     0
100
AcDbLine
 10
14.92110575495402
 20
4.391298549434992
 30
0.0
 11
16.32110575495406
 21
5.791298549435026
 31
0.0
  0
LINE
  5
485E
330
4720
100
AcDbEntity
  8
0
 62
     0
100
AcDbLine
 10
16.86879471699674
 20
6.788000317531185
 30
0.0
 11
18.18394175096219
 21
8.10314735149663
 31
0.0
  0
LINE
  5
485F
330
4720
100
AcDbEntity
  8
0
 62
     0
100
AcDbLine
 10
20.34610575495404
 20
10.26531135548847
 30
0.0
 11
21.64796804370482
 21
11.56717364423923
 31
0.0
  0
LINE
  5
4860
330
4720
100
AcDbEntity
  8
0
 62
     0
100
AcDbLine
 10
14.92110575495402
 20
4.840311355488466
 30
0.0
 11
16.32110575495406
 21
6.240311355488472
 31
0.0
  0
LINE
  5
4861
330
4720
100
AcDbEntity
  8
0
 62
     0
100
AcDbLine
 10
16.52520203206305
 20
6.893420438650963
 30
0.0
 11
18.39117843067919
 21
8.759396837267104
 31
0.0
  0
LINE
  5
4862
330
4720
100
AcDbEntity
  8
0
 62
     0
100
AcDbLine
 10
14.92110575495402
 20
5.289324161541912
 30
0.0
 11
16.32768534710717
 21
6.695903753695063
 31
0.0
  0
LINE
  5
4863
330
4720
100
AcDbEntity
  8
0
 62
     0
100
AcDbLine
 10
20.34610575495404
 20
10.71432416154192
 30
0.0
 11
21.25678162421621
 21
11.62500003080413
 31
0.0
  0
LINE
  5
4864
330
4720
100
AcDbEntity
  8
0
 62
     0
100
AcDbLine
 10
13.2067816242162
 20
3.575000030804091
 30
0.0
 11
13.69610575495403
 21
4.064324161541946
 31
0.0
  0
LINE
  5
4865
330
4720
100
AcDbEntity
  8
0
 62
     0
100
AcDbLine
 10
14.921105754954
 20
5.738336967595387
 30
0.0
 11
18.59841511039616
 21
9.415646323037549
 31
0.0
  0
LINE
  5
4866
330
4720
100
AcDbEntity
  8
0
 62
     0
100
AcDbLine
 10
20.346105754954
 20
11.16333696759539
 30
0.0
 11
20.80776881816274
 21
11.62500003080413
 31
0.0
  0
LINE
  5
4867
330
4720
100
AcDbEntity
  8
0
 62
     0
100
AcDbLine
 10
12.75776881816273
 20
3.575000030804119
 30
0.0
 11
13.69610575495406
 21
4.513336967595449
 31
0.0
  0
LINE
  5
4868
330
4720
100
AcDbEntity
  8
0
 62
     0
100
AcDbLine
 10
14.92110575495402
 20
6.187349773648804
 30
0.0
 11
18.80565179011321
 21
10.07189580880802
 31
0.0
  0
LINE
  5
4869
330
4720
100
AcDbEntity
  8
0
 62
     0
100
AcDbLine
 10
12.31459632428433
 20
3.580840342979143
 30
0.0
 11
13.62543861315094
 21
4.891682631845725
 31
0.0
  0
LINE
  5
486A
330
4720
100
AcDbEntity
  8
0
 62
     0
100
AcDbLine
 10
14.921105754954
 20
6.636362579702279
 30
0.0
 11
16.58474320605583
 21
8.300000030804113
 31
0.0
  0
LINE
  5
486B
330
4720
100
AcDbEntity
  8
0
 62
     0
100
AcDbLine
 10
16.96673462367618
 20
8.681991448424469
 30
0.0
 11
19.01288846983018
 21
10.72814529457846
 31
0.0
  0
LINE
  5
486C
330
4720
100
AcDbEntity
  8
0
 62
     0
100
AcDbLine
 10
11.93051606556085
 20
3.645772890309103
 30
0.0
 11
13.25974320605581
 21
4.975000030804096
 31
0.0
  0
LINE
  5
486D
330
4720
100
AcDbEntity
  8
0
 62
     0
100
AcDbLine
 10
14.921105754954
 20
7.085375385755753
 30
0.0
 11
16.33010104030816
 21
8.494370671109891
 31
0.0
  0
LINE
  5
486E
330
4720
100
AcDbEntity
  8
0
 62
     0
100
AcDbLine
 10
17.17397130339316
 20
9.338240934194885
 30
0.0
 11
19.20042419573084
 21
11.3646938265326
 31
0.0
  0
LINE
  5
486F
330
4720
100
AcDbEntity
  8
0
 62
     0
100
AcDbLine
 10
11.59994893714764
 20
3.764218567949399
 30
0.0
 11
12.81073040000237
 21
4.975000030804096
 31
0.0
  0
LINE
  5
4870
330
4720
100
AcDbEntity
  8
0
 62
     0
100
AcDbLine
 10
14.92110575495402
 20
7.534388191809171
 30
0.0
 11
16.32110575495403
 21
8.934388191809205
 31
0.0
  0
LINE
  5
4871
330
4720
100
AcDbEntity
  8
0
 62
     0
100
AcDbLine
 10
17.38120798311021
 20
9.994490419965387
 30
0.0
 11
19.00341825944624
 21
11.61670069630142
 31
0.0
  0
LINE
  5
4872
330
4720
100
AcDbEntity
  8
0
 62
     0
100
AcDbLine
 10
11.31114729506549
 20
3.924429731920639
 30
0.0
 11
12.36917822431192
 21
4.982460661167095
 31
0.0
  0
LINE
  5
4873
330
4720
100
AcDbEntity
  8
0
 62
     0
100
AcDbLine
 10
14.921105754954
 20
7.983400997862645
 30
0.0
 11
16.32110575495403
 21
9.383400997862679
 31
0.0
  0
LINE
  5
4874
330
4720
100
AcDbEntity
  8
0
 62
     0
100
AcDbLine
 10
17.58844466282718
 20
10.6507399057358
 30
0.0
 11
18.56270478789545
 21
11.6250000308041
 31
0.0
  0
LINE
  5
4875
330
4720
100
AcDbEntity
  8
0
 62
     0
100
AcDbLine
 10
11.05866981187446
 20
4.120965054783084
 30
0.0
 11
12.05202015380277
 21
5.11431539671139
 31
0.0
  0
LINE
  5
4876
330
4720
100
AcDbEntity
  8
0
 62
     0
100
AcDbLine
 10
14.921105754954
 20
8.432413803916091
 30
0.0
 11
16.32110575495403
 21
9.832413803916125
 31
0.0
  0
LINE
  5
4877
330
4720
100
AcDbEntity
  8
0
 62
     0
100
AcDbLine
 10
13.25192282084225
 20
6.763230869804374
 30
0.0
 11
13.83287491595379
 21
7.344182964915916
 31
0.0
  0
LINE
  5
4878
330
4720
100
AcDbEntity
  8
0
 62
     0
100
AcDbLine
 10
17.79568134254413
 20
11.30698939150625
 30
0.0
 11
18.11369198184203
 21
11.62500003080416
 31
0.0
  0
LINE
  5
4879
330
4720
100
AcDbEntity
  8
0
 62
     0
100
AcDbLine
 10
10.84045127520954
 20
4.351759324171666
 30
0.0
 11
11.84689467816667
 21
5.358202727128798
 31
0.0
  0
LINE
  5
487A
330
4720
100
AcDbEntity
  8
0
 62
     0
100
AcDbLine
 10
12.78943640002734
 20
6.749757255042936
 30
0.0
 11
13.84634853071523
 21
7.806669385730799
 31
0.0
  0
LINE
  5
487B
330
4720
100
AcDbEntity
  8
0
 62
     0
100
AcDbLine
 10
14.92110575495402
 20
8.881426609969594
 30
0.0
 11
16.32110575495406
 21
10.28142660996962
 31
0.0
  0
LINE
  5
487C
330
4720
100
AcDbEntity
  8
0
 62
     0
100
AcDbLine
 10
10.65694166273806
 20
4.61726251775363
 30
0.0
 11
11.77110575495402
 21
5.731426609969616
 31
0.0
  0
LINE
  5
487D
330
4720
100
AcDbEntity
  8
0
 62
     0
100
AcDbLine
 10
12.48236311531724
 20
6.891696776386226
 30
0.0
 11
13.70440900937191
 21
8.113742670440927
 31
0.0
  0
LINE
  5
487E
330
4720
100
AcDbEntity
  8
0
 62
     0
100
AcDbLine
 10
14.92110575495402
 20
9.33043941602304
 30
0.0
 11
16.32110575495406
 21
10.73043941602307
 31
0.0
  0
LINE
  5
487F
330
4720
100
AcDbEntity
  8
0
 62
     0
100
AcDbLine
 10
10.51128290777569
 20
4.920616568844707
 30
0.0
 11
11.77110575495402
 21
6.180439416023034
 31
0.0
  0
LINE
  5
4880
330
4720
100
AcDbEntity
  8
0
 62
     0
100
AcDbLine
 10
12.26338315182238
 20
7.121729618944868
 30
0.0
 11
13.4743761668133
 21
8.332722633935759
 31
0.0
  0
LINE
  5
4881
330
4720
100
AcDbEntity
  8
0
 62
     0
100
AcDbLine
 10
14.92110575495402
 20
9.779452222076514
 30
0.0
 11
16.32110575495406
 21
11.17945222207652
 31
0.0
  0
LINE
  5
4882
330
4720
100
AcDbEntity
  8
0
 62
     0
100
AcDbLine
 10
10.41071422568836
 20
5.269060692810853
 30
0.0
 11
11.77110575495402
 21
6.629452222076508
 31
0.0
  0
LINE
  5
4883
330
4720
100
AcDbEntity
  8
0
 62
     0
100
AcDbLine
 10
12.13535778561819
 20
7.44271705879413
 30
0.0
 11
13.15338872696401
 21
8.460748000139972
 31
0.0
  0
LINE
  5
4884
330
4720
100
AcDbEntity
  8
0
 62
     0
100
AcDbLine
 10
10.37110575495398
 20
5.678465028129949
 30
0.0
 11
11.77110575495402
 21
7.078465028129954
 31
0.0
  0
LINE
  5
4885
330
4720
100
AcDbEntity
  8
0
 62
     0
100
AcDbLine
 10
14.92110575495402
 20
10.22846502812996
 30
0.0
 11
16.24248070077646
 21
11.54983997395243
 31
0.0
  0
LINE
  5
4886
330
4720
100
AcDbEntity
  8
0
 62
     0
100
AcDbLine
 10
8.328107376016191
 20
3.635466649192153
 30
0.0
 11
9.260639136566055
 21
4.567998409742017
 31
0.0
  0
LINE
  5
4887
330
4720
100
AcDbEntity
  8
0
 62
     0
100
AcDbLine
 10
12.19456432735859
 20
7.95093640658797
 30
0.0
 11
12.6451693791702
 21
8.401541458399577
 31
0.0
  0
LINE
  5
4888
330
4720
100
AcDbEntity
  8
0
 62
     0
100
AcDbLine
 10
10.37110575495398
 20
6.127477834183366
 30
0.0
 11
11.77110575495402
 21
7.5274778341834
 31
0.0
  0
LINE
  5
4889
330
4720
100
AcDbEntity
  8
0
 62
     0
100
AcDbLine
 10
14.92110575495402
 20
10.6774778341834
 30
0.0
 11
15.86862795157472
 21
11.6250000308041
 31
0.0
  0
LINE
  5
488A
330
4720
100
AcDbEntity
  8
0
 62
     0
100
AcDbLine
 10
7.818627951574711
 20
3.575000030804091
 30
0.0
 11
9.321105754954089
 21
5.07747783418344
 31
0.0
  0
LINE
  5
488B
330
4720
100
AcDbEntity
  8
0
 62
     0
100
AcDbLine
 10
10.37110575495398
 20
6.576490640236841
 30
0.0
 11
11.77110575495402
 21
7.976490640236875
 31
0.0
  0
LINE
  5
488C
330
4720
100
AcDbEntity
  8
0
 62
     0
100
AcDbLine
 10
14.92110575495402
 20
11.12649064023685
 30
0.0
 11
15.41961514552127
 21
11.62500003080413
 31
0.0
  0
LINE
  5
488D
330
4720
100
AcDbEntity
  8
0
 62
     0
100
AcDbLine
 10
7.369615145521208
 20
3.575000030804062
 30
0.0
 11
9.321105754954061
 21
5.526490640236914
 31
0.0
  0
LINE
  5
488E
330
4720
100
AcDbEntity
  8
0
 62
     0
100
AcDbLine
 10
10.37110575495398
 20
7.025503446290287
 30
0.0
 11
11.77110575495399
 21
8.425503446290321
 31
0.0
  0
LINE
  5
488F
330
4720
100
AcDbEntity
  8
0
 62
     0
100
AcDbLine
 10
6.920602339467791
 20
3.575000030804119
 30
0.0
 11
9.319136078673437
 21
5.973533770009765
 31
0.0
  0
LINE
  5
4890
330
4720
100
AcDbEntity
  8
0
 62
     0
100
AcDbLine
 10
10.37110575495398
 20
7.474516252343761
 30
0.0
 11
11.77110575495402
 21
8.874516252343795
 31
0.0
  0
LINE
  5
4891
330
4720
100
AcDbEntity
  8
0
 62
     0
100
AcDbLine
 10
13.12158953341437
 20
10.22500003080415
 30
0.0
 11
13.69610575495409
 21
10.79951625234386
 31
0.0
  0
LINE
  5
4892
330
4720
100
AcDbEntity
  8
0
 62
     0
100
AcDbLine
 10
6.471589533414316
 20
3.575000030804091
 30
0.0
 11
9.264305160512776
 21
6.36771565790255
 31
0.0
  0
LINE
  5
4893
330
4720
100
AcDbEntity
  8
0
 62
     0
100
AcDbLine
 10
10.37110575495398
 20
7.923529058397207
 30
0.0
 11
11.77110575495402
 21
9.323529058397213
 31
0.0
  0
LINE
  5
4894
330
4720
100
AcDbEntity
  8
0
 62
     0
100
AcDbLine
 10
7.921105754954027
 20
5.473529058397247
 30
0.0
 11
9.153135788490715
 21
6.705559091933935
 31
0.0
  0
LINE
  5
4895
330
4720
100
AcDbEntity
  8
0
 62
     0
100
AcDbLine
 10
12.67257672736087
 20
10.22500003080409
 30
0.0
 11
13.69610575495409
 21
11.24852905839728
 31
0.0
  0
LINE
  5
4896
330
4720
100
AcDbEntity
  8
0
 62
     0
100
AcDbLine
 10
6.051439664990851
 20
3.603862968434071
 30
0.0
 11
7.422576727360876
 21
4.975000030804096
 31
0.0
  0
LINE
  5
4897
330
4720
100
AcDbEntity
  8
0
 62
     0
100
AcDbLine
 10
10.37110575495395
 20
8.372541864450653
 30
0.0
 11
11.85401310784385
 21
9.855449217340549
 31
0.0
  0
LINE
  5
4898
330
4720
100
AcDbEntity
  8
0
 62
     0
100
AcDbLine
 10
7.920026209149398
 20
5.921462318646064
 30
0.0
 11
8.998920021154702
 21
7.000356130651397
 31
0.0
  0
LINE
  5
4899
330
4720
100
AcDbEntity
  8
0
 62
     0
100
AcDbLine
 10
12.14065656841762
 20
10.14209267791432
 30
0.0
 11
13.57937204749413
 21
11.58080815699079
 31
0.0
  0
LINE
  5
489A
330
4720
100
AcDbEntity
  8
0
 62
     0
100
AcDbLine
 10
5.908605754954038
 20
3.910041864450704
 30
0.0
 11
6.97356392130743
 21
4.975000030804096
 31
0.0
  0
LINE
  5
489B
330
4720
100
AcDbEntity
  8
0
 62
     0
100
AcDbLine
 10
7.810224699399043
 20
6.260673614949212
 30
0.0
 11
8.807799038735254
 21
7.258247954285423
 31
0.0
  0
LINE
  5
489C
330
4720
100
AcDbEntity
  8
0
 62
     0
100
AcDbLine
 10
10.37110575495395
 20
8.821554670504127
 30
0.0
 11
13.17455111525399
 21
11.62500003080416
 31
0.0
  0
LINE
  5
489D
330
4720
100
AcDbEntity
  8
0
 62
     0
100
AcDbLine
 10
5.90860575495401
 20
4.359054670504178
 30
0.0
 11
6.524551115253956
 21
4.975000030804125
 31
0.0
  0
LINE
  5
489E
330
4720
100
AcDbEntity
  8
0
 62
     0
100
AcDbLine
 10
7.59709728524669
 20
6.496559006850276
 30
0.0
 11
8.587046778907875
 21
7.486508500511462
 31
0.0
  0
LINE
  5
489F
330
4720
100
AcDbEntity
  8
0
 62
     0
100
AcDbLine
 10
10.37110575495398
 20
9.270567476557545
 30
0.0
 11
12.72553830920045
 21
11.62500003080404
 31
0.0
  0
LINE
  5
48A0
330
4720
100
AcDbEntity
  8
0
 62
     0
100
AcDbLine
 10
5.943081715963899
 20
4.842543437567485
 30
0.0
 11
6.041062348190706
 21
4.940524069794292
 31
0.0
  0
LINE
  5
48A1
330
4720
100
AcDbEntity
  8
0
 62
     0
100
AcDbLine
 10
10.38109331203227
 20
9.729567839689309
 30
0.0
 11
12.26653794606878
 21
11.61501247372584
 31
0.0
  0
LINE
  5
48A2
330
4720
100
AcDbEntity
  8
0
 62
     0
100
AcDbLine
 10
7.372590882219952
 20
6.721065409877013
 30
0.0
 11
8.362540375881138
 21
7.711014903538199
 31
0.0
  0
LINE
  5
48A3
330
4720
100
AcDbEntity
  8
0
 62
     0
100
AcDbLine
 10
10.53082502816516
 20
10.3283123618757
 30
0.0
 11
11.66779342388241
 21
11.46528075759295
 31
0.0
  0
LINE
  5
48A4
330
4720
100
AcDbEntity
  8
0
 62
     0
100
AcDbLine
 10
7.148084479193215
 20
6.94557181290375
 30
0.0
 11
8.138033972854401
 21
7.935521306564936
 31
0.0
  0
LINE
  5
48A5
330
4720
100
AcDbEntity
  8
0
 62
     0
100
AcDbLine
 10
6.923578076166506
 20
7.170078215930459
 30
0.0
 11
7.913527569827664
 21
8.160027709591588
 31
0.0
  0
LINE
  5
48A6
330
4720
100
AcDbEntity
  8
0
 62
     0
100
AcDbLine
 10
6.699071673139769
 20
7.394584618957196
 30
0.0
 11
7.689021166800927
 21
8.384534112618325
 31
0.0
  0
LINE
  5
48A7
330
4720
100
AcDbEntity
  8
0
 62
     0
100
AcDbLine
 10
6.474565270113032
 20
7.619091021983933
 30
0.0
 11
7.464514763774189
 21
8.609040515645062
 31
0.0
  0
LINE
  5
48A8
330
4720
100
AcDbEntity
  8
0
 62
     0
100
AcDbLine
 10
8.631461472879777
 20
10.22500003080415
 30
0.0
 11
9.058605754953958
 21
10.65214431287833
 31
0.0
  0
LINE
  5
48A9
330
4720
100
AcDbEntity
  8
0
 62
     0
100
AcDbLine
 10
6.250100524100361
 20
7.843639082024736
 30
0.0
 11
7.240133345816587
 21
8.833671903740963
 31
0.0
  0
LINE
  5
48AA
330
4720
100
AcDbEntity
  8
0
 62
     0
100
AcDbLine
 10
8.182448666826303
 20
10.22500003080409
 30
0.0
 11
9.058605754954015
 21
11.10115711893181
 31
0.0
  0
LINE
  5
48AB
330
4720
100
AcDbEntity
  8
0
 62
     0
100
AcDbLine
 10
6.044366561824574
 20
8.086917925802339
 30
0.0
 11
7.075184905172619
 21
9.117736269150412
 31
0.0
  0
LINE
  5
48AC
330
4720
100
AcDbEntity
  8
0
 62
     0
100
AcDbLine
 10
7.733435860772829
 20
10.22500003080409
 30
0.0
 11
9.015326305073443
 21
11.50689047510471
 31
0.0
  0
LINE
  5
48AD
330
4720
100
AcDbEntity
  8
0
 62
     0
100
AcDbLine
 10
5.87413625869334
 20
8.365700428724579
 30
0.0
 11
7.046105754954055
 21
9.537669924985294
 31
0.0
  0
LINE
  5
48AE
330
4720
100
AcDbEntity
  8
0
 62
     0
100
AcDbLine
 10
7.283189730134324
 20
10.22376670621903
 30
0.0
 11
8.684423054719417
 21
11.62500003080413
 31
0.0
  0
LINE
  5
48AF
330
4720
100
AcDbEntity
  8
0
 62
     0
100
AcDbLine
 10
5.743789610827292
 20
8.684366586912005
 30
0.0
 11
7.047339079539085
 21
9.987916055623827
 31
0.0
  0
LINE
  5
48B0
330
4720
100
AcDbEntity
  8
0
 62
     0
100
AcDbLine
 10
5.662883629703259
 20
9.052473411841418
 30
0.0
 11
8.235410248665971
 21
11.62500003080413
 31
0.0
  0
LINE
  5
48B1
330
4720
100
AcDbEntity
  8
0
 62
     0
100
AcDbLine
 10
5.646105754954049
 20
9.484708343145683
 30
0.0
 11
7.786397442612496
 21
11.62500003080413
 31
0.0
  0
LINE
  5
48B2
330
4720
100
AcDbEntity
  8
0
 62
     0
100
AcDbLine
 10
5.646105754954049
 20
9.933721149199129
 30
0.0
 11
7.33738463655905
 21
11.62500003080413
 31
0.0
  0
LINE
  5
48B3
330
4720
100
AcDbEntity
  8
0
 62
     0
100
AcDbLine
 10
5.656201760173161
 20
10.39282996047171
 30
0.0
 11
6.878275825286465
 21
11.61490402558501
 31
0.0
  0
ENDBLK
  5
48B5
330
4720
100
AcDbEntity
  8
0
100
AcDbBlockEnd
  0
ENDSEC
  0
SECTION
  2
ENTITIES
  0
LWPOLYLINE
  5
2A43
330
1A
100
AcDbEntity
  8
ZUWAKU
100
AcDbPolyline
 90
        4
 70
     1
 43
0.0
 10
0.3999996775634145
 20
275.4000000308041
 10
0.3999996775634145
 20
0.4000000308041649
 10
398.3999996775634
 20
0.4000000308041649
 10
398.3999996775634
 20
275.4000000308041
  0
LWPOLYLINE
  5
2A44
330
1A
100
AcDbEntity
  8
ZUWAKU
100
AcDbPolyline
 90
        4
 70
     1
 43
0.0
 10
0.1999996775634258
 20
275.6000000308041
 10
0.1999996775634258
 20
0.2000000308041763
 10
398.5999996775634
 20
0.2000000308041647
 10
398.5999996775634
 20
275.6000000308041
  0
LWPOLYLINE
  5
2A45
330
1A
100
AcDbEntity
  8
ZUWAKU
100
AcDbPolyline
 90
        4
 70
     1
 43
0.0
 10
-0.0000003224365628
 20
275.8000000308041
 10
-0.0000003224365628
 20
0.0000000308041308
 10
398.7999996775635
 20
0.0000000308041646
 10
398.7999996775635
 20
275.8000000308042
  0
LWPOLYLINE
  5
2A46
330
1A
100
AcDbEntity
  8
ZUWAKU
100
AcDbPolyline
 90
        4
 70
     1
 43
0.0
 10
0.2999996775633917
 20
275.5000000308041
 10
0.2999996775633917
 20
0.3000000308041422
 10
398.4999996775635
 20
0.3000000308041653
 10
398.4999996775634
 20
275.5000000308041
  0
LWPOLYLINE
  5
2A47
330
1A
100
AcDbEntity
  8
ZUWAKU
100
AcDbPolyline
 90
        4
 70
     1
 43
0.0
 10
0.0999996775634031
 20
275.7000000308041
 10
0.0999996775634031
 20
0.1000000308041535
 10
398.6999996775633
 20
0.1000000308041651
 10
398.6999996775634
 20
275.7000000308041
  0
LINE
  5
2A48
330
1A
100
AcDbEntity
  8
ZUWAKU
100
AcDbLine
 10
-0.0000003224365628
 20
15.00000003080413
 30
0.0
 11
398.6999996775633
 21
15.00000003080413
 31
0.0
  0
LINE
  5
2A49
330
1A
100
AcDbEntity
  8
ZUWAKU
100
AcDbLine
 10
-0.0000003224365628
 20
15.10000003080413
 30
0.0
 11
398.6999996775633
 21
15.10000003080413
 31
0.0
  0
LINE
  5
2A4A
330
1A
100
AcDbEntity
  8
ZUWAKU
100
AcDbLine
 10
-0.0000003224365628
 20
15.20000003080413
 30
0.0
 11
398.6999996775633
 21
15.20000003080413
 31
0.0
  0
LINE
  5
2A4B
330
1A
100
AcDbEntity
  8
ZUWAKU
100
AcDbLine
 10
-0.0000003224365628
 20
15.30000003080413
 30
0.0
 11
398.6999996775633
 21
15.30000003080413
 31
0.0
  0
LINE
  5
2A4C
330
1A
100
AcDbEntity
  8
ZUWAKU
100
AcDbLine
 10
-0.0000003224365628
 20
15.40000003080413
 30
0.0
 11
398.6999996775633
 21
15.40000003080413
 31
0.0
  0
LINE
  5
2A4D
330
1A
100
AcDbEntity
  8
ZUWAKU
100
AcDbLine
 10
104.3233003225974
 20
7.700000030804147
 30
0.0
 11
223.7121816630591
 21
7.700000030804147
 31
0.0
  0
LINE
  5
2A4E
330
1A
100
AcDbEntity
  8
ZUWAKU
100
AcDbLine
 10
104.3233003225974
 20
7.800000030804147
 30
0.0
 11
223.7121816630591
 21
7.800000030804151
 31
0.0
  0
LINE
  5
2A4F
330
1A
100
AcDbEntity
  8
ZUWAKU
100
AcDbLine
 10
104.3233003225974
 20
7.600000030804149
 30
0.0
 11
223.7121816630591
 21
7.600000030804146
 31
0.0
  0
TEXT
  5
2A50
330
1A
100
AcDbEntity
  8
moji
100
AcDbText
 10
46.478894471648
 20
6.370589095941511
 30
0.0
 40
3.0
  1
ライナートップ
 41
0.9
  7
ｽﾀｲﾙ1
100
AcDbText
  0
CIRCLE
  5
2A51
330
1A
100
AcDbEntity
  8
ZUWAKU
100
AcDbCircle
 10
12.99610575495398
 20
7.600000030804132
 30
0.0
 40
0.875
  0
LINE
  5
2A52
330
1A
100
AcDbEntity
  8
ZUWAKU
100
AcDbLine
 10
13.43360575495398
 20
3.575000030804133
 30
0.0
 11
12.47110575495401
 21
3.575000030804133
 31
0.0
  0
LINE
  5
2A53
330
1A
100
AcDbEntity
  8
ZUWAKU
100
AcDbLine
 10
12.47110575495401
 20
4.975000030804132
 30
0.0
 11
13.43360575495398
 21
4.975000030804132
 31
0.0
  0
LINE
  5
2A54
330
1A
100
AcDbEntity
  8
ZUWAKU
100
AcDbLine
 10
13.43360575495398
 20
10.22500003080413
 30
0.0
 11
12.47110575495401
 21
10.22500003080413
 31
0.0
  0
LINE
  5
2A55
330
1A
100
AcDbEntity
  8
ZUWAKU
100
AcDbLine
 10
12.47110575495401
 20
11.62500003080411
 30
0.0
 11
13.43360575495398
 21
11.62500003080413
 31
0.0
  0
INSERT
  5
2A56
330
1A
100
AcDbEntity
  8
ZUWAKU
  6
Continuous
100
AcDbBlockReference
  2
*X16
 10
0.0
 20
0.0
 30
0.0
1001
ACAD
1000
HATCH
1002
{
1070
    19
1000
ANSI37
1040
0.1
1040
0.0
1000
R14_HATCH_DATA
1000
2A56
1011
1.0
1021
0.0
1031
0.0
1011
0.0
1021
1.0
1031
0.0
1011
0.0
1021
0.0
1031
1.0
1040
0.0
1010
0.0
1020
0.0
1030
1.0
1000
ANSI37
1070
     0
1070
     0
1071
        8
1071
        7
1070
     1
1070
     1
1071
       24
1040
7.251131008123365
1040
8.822424271295922
1040
-0.1989123673796348
1040
7.046105754953998
1040
9.317399018126447
1040
0.0
1040
7.046105754953998
1040
9.962500030804136
1040
-0.4142135623730912
1040
7.308605754953987
1040
10.22500003080413
1040
0.0
1040
8.796105754953941
1040
10.22500003080413
1040
0.4142135623731546
1040
9.058605754953987
1040
10.48750003080412
1040
0.0
1040
9.058605754953987
1040
11.36250003080413
1040
0.4142135623731586
1040
8.796105754953941
1040
11.62500003080413
1040
0.0
1040
7.046105754953998
1040
11.62500003080413
1040
0.4142135623730928
1040
5.646105754954021
1040
10.22500003080414
1040
0.0
1040
5.646105754954021
1040
9.317399018126511
1040
0.1989123673796619
1040
6.261181514462236
1040
7.832474777634708
1040
0.0
1040
7.716080501784574
1040
6.377575790312379
1040
-0.1989123673796613
1040
7.921105754953998
1040
5.882601043481786
1040
0.0
1040
7.921105754953998
1040
5.237500030804127
1040
-0.4142135623730911
1040
7.65860575495401
1040
4.975000030804132
1040
0.0
1040
6.171105754954055
1040
4.975000030804132
1040
0.4142135623731526
1040
5.90860575495401
1040
4.712500030804138
1040
0.0
1040
5.90860575495401
1040
3.837500030804127
1040
0.4142135623731526
1040
6.171105754954055
1040
3.575000030804133
1040
0.0
1040
7.921105754953998
1040
3.575000030804133
1040
0.4142135623731044
1040
9.321105754954032
1040
4.975000030804121
1040
0.0
1040
9.321105754954032
1040
5.882601043481757
1040
0.1989123673796604
1040
8.70602999544576
1040
7.367525283973527
1040
0.0
1071
        0
1071
        7
1070
     1
1070
     1
1071
       16
1040
11.77110575495402
1040
9.525000030804136
1040
-0.4142135623730935
1040
12.47110575495401
1040
10.22500003080413
1040
0.0
1040
13.43360575495398
1040
10.22500003080413
1040
0.4142135623731546
1040
13.69610575495403
1040
10.48750003080412
1040
0.0
1040
13.69610575495403
1040
11.36250003080413
1040
0.4142135623730951
1040
13.43360575495404
1040
11.62500003080413
1040
0.0
1040
12.47110575495395
1040
11.62500003080411
1040
0.4142135623730892
1040
10.37110575495398
1040
9.5250000308041
1040
0.0
1040
10.37110575495398
1040
5.675000030804145
1040
0.4142135623730969
1040
12.47110575495401
1040
3.575000030804133
1040
0.0
1040
13.43360575495398
1040
3.575000030804133
1040
0.4142135623731526
1040
13.69610575495403
1040
3.837500030804127
1040
0.0
1040
13.69610575495403
1040
4.712500030804138
1040
0.4142135623730891
1040
13.43360575495404
1040
4.975000030804132
1040
0.0
1040
12.47110575495401
1040
4.975000030804132
1040
-0.4142135623730928
1040
11.77110575495402
1040
5.675000030804126
1040
0.0
1071
        0
1071
        7
1070
     1
1070
     1
1071
        2
1040
12.12110575495398
1040
7.600000030804132
1040
1.0
1040
13.87110575495398
1040
7.600000030804132
1040
1.0
1071
        0
1071
        7
1070
     1
1070
     1
1071
       26
1040
18.65742899604299
1040
9.602523627585846
1040
0.0
1040
19.1882488126119
1040
11.28345304672064
1040
0.5069206636600134
1040
18.93793336301422
1040
11.62500003080413
1040
0.0
1040
18.08848867320961
1040
11.62500003080413
1040
0.3272098845218764
1040
17.83817322361193
1040
11.44154701488761
1040
0.0
1040
16.90403828629604
1040
8.483453046720672
1040
-0.3272098845219541
1040
16.6537228366983
1040
8.300000030804131
1040
0.0
1040
16.58360575495407
1040
8.300000030804131
1040
-0.4142135623731526
1040
16.32110575495403
1040
8.562500030804125
1040
0.0
1040
16.32110575495403
1040
11.36250003080413
1040
0.4142135623730951
1040
16.05860575495404
1040
11.62500003080413
1040
0.0
1040
15.18360575495398
1040
11.62500003080413
1040
0.4142135623730871
1040
14.921105754954
1040
11.36250003080414
1040
0.0
1040
14.921105754954
1040
3.837500030804127
1040
0.4142135623730891
1040
15.18360575495398
1040
3.575000030804133
1040
0.0
1040
16.05860575495398
1040
3.575000030804133
1040
0.4142135623731526
1040
16.32110575495403
1040
3.837500030804127
1040
0.0
1040
16.32110575495403
1040
6.637500030804138
1040
-0.4142135623731526
1040
16.58360575495407
1040
6.900000030804132
1040
0.0
1040
16.65372283669836
1040
6.900000030804132
1040
-0.3272098845218915
1040
16.90403828629604
1040
6.716547014887595
1040
0.0
1040
17.83817322361193
1040
3.758453046720669
1040
0.3272098845218902
1040
18.08848867320961
1040
3.575000030804133
1040
0.0
1040
18.93793336301422
1040
3.575000030804133
1040
0.5069206636600335
1040
19.1882488126119
1040
3.916547014887637
1040
0.0
1040
18.02505312337507
1040
7.600000030804201
1040
0.0
1071
        0
1071
        7
1070
     1
1070
     1
1071
        8
1040
21.74610575495398
1040
11.36250003080413
1040
0.4142135623731546
1040
21.48360575495394
1040
11.62500003080413
1040
0.0
1040
20.60860575495405
1040
11.62500003080413
1040
0.4142135623731507
1040
20.346105754954
1040
11.36250003080414
1040
0.0
1040
20.346105754954
1040
3.837500030804127
1040
0.4142135623731526
1040
20.60860575495405
1040
3.575000030804133
1040
0.0
1040
21.48360575495394
1040
3.575000030804133
1040
0.4142135623731526
1040
21.74610575495398
1040
3.837500030804127
1040
0.0
1071
        0
1071
        7
1070
     1
1070
     1
1071
       24
1040
24.19610575495403
1040
9.962500030804136
1040
-0.4142135623731546
1040
24.45860575495407
1040
10.22500003080413
1040
0.0
1040
25.94610575495403
1040
10.22500003080413
1040
0.4142135623730911
1040
26.20860575495402
1040
10.48750003080412
1040
0.0
1040
26.20860575495402
1040
11.36250003080413
1040
0.4142135623730952
1040
25.94610575495403
1040
11.62500003080413
1040
0.0
1040
24.19610575495403
1040
11.62500003080413
1040
0.4142135623731048
1040
22.796105754954
1040
10.22500003080414
1040
0.0
1040
22.796105754954
1040
9.317399018126511
1040
0.1989123673796613
1040
23.41118151446227
1040
7.832474777634736
1040
0.0
1040
24.8660805017846
1040
6.377575790312402
1040
-0.1989123673796402
1040
25.07110575495403
1040
5.882601043481866
1040
0.0
1040
25.07110575495403
1040
5.237500030804127
1040
-0.4142135623730911
1040
24.80860575495404
1040
4.975000030804132
1040
0.0
1040
23.32110575495403
1040
4.975000030804132
1040
0.4142135623731526
1040
23.05860575495398
1040
4.712500030804138
1040
0.0
1040
23.05860575495398
1040
3.837500030804127
1040
0.4142135623730891
1040
23.32110575495397
1040
3.575000030804133
1040
0.0
1040
25.07110575495403
1040
3.575000030804133
1040
0.4142135623730925
1040
26.47110575495401
1040
4.975000030804121
1040
0.0
1040
26.47110575495401
1040
5.882601043481757
1040
0.1989123673796675
1040
25.85602999544573
1040
7.367525283973584
1040
0.0
1040
24.40113100812345
1040
8.822424271295842
1040
-0.1989123673796652
1040
24.19610575495403
1040
9.317399018126426
1040
0.0
1071
        0
1071
        7
1070
     1
1070
     1
1071
       16
1040
28.92110575495399
1040
11.36250003080412
1040
0.414213562373103
1040
28.65860575495401
1040
11.62500003080413
1040
0.0
1040
27.78360575495401
1040
11.62500003080413
1040
0.4142135623730871
1040
27.52110575495402
1040
11.36250003080414
1040
0.0
1040
27.52110575495402
1040
4.975000030804121
1040
0.4142135623730926
1040
28.92110575495399
1040
3.575000030804133
1040
0.0
1040
30.671105754954
1040
3.575000030804133
1040
0.4142135623731044
1040
32.07110575495403
1040
4.975000030804121
1040
0.0
1040
32.07110575495403
1040
11.36250003080413
1040
0.4142135623730951
1040
31.80860575495404
1040
11.62500003080413
1040
0.0
1040
30.93360575495399
1040
11.62500003080413
1040
0.4142135623730871
1040
30.671105754954
1040
11.36250003080414
1040
0.0
1040
30.671105754954
1040
5.50000003080412
1040
-0.414213562373088
1040
30.14610575495402
1040
4.975000030804132
1040
0.0
1040
29.44610575495403
1040
4.975000030804132
1040
-0.4142135623731197
1040
28.92110575495399
1040
5.50000003080412
1040
0.0
1071
        0
1071
        7
1070
     1
1070
     1
1071
        8
1040
34.52110575495402
1040
11.36250003080414
1040
0.4142135623730871
1040
34.25860575495403
1040
11.62500003080413
1040
0.0
1040
33.38360575495403
1040
11.62500003080413
1040
0.4142135623731507
1040
33.12110575495399
1040
11.36250003080414
1040
0.0
1040
33.12110575495399
1040
3.837500030804127
1040
0.4142135623730891
1040
33.38360575495397
1040
3.575000030804133
1040
0.0
1040
34.25860575495403
1040
3.575000030804133
1040
0.4142135623730891
1040
34.52110575495402
1040
3.837500030804127
1040
0.0
1071
        0
1070
     0
1070
     1
1040
0.0
1040
0.1
1070
     0
1070
     2
1040
0.7853981633974483
1040
-450.471152489776
1040
-6.599999969195835
1040
-0.2245064030267288
1040
0.2245064030267288
1070
     0
1040
2.356194490192344
1040
-450.471152489776
1040
-6.599999969195835
1040
-0.2245064030267288
1040
-0.2245064030267288
1070
     0
1040
0.057451373970553
1071
        8
1040
8.039927159075091
1040
7.583586853746908
1040
0.0
1040
11.20225718078302
1040
9.422031122029636
1040
0.0
1040
12.58218362039326
1040
7.75594085383949
1040
0.0
1040
15.457029668382
1040
8.100648854024882
1040
0.0
1040
20.9192356870418
1040
8.33045498779569
1040
0.0
1040
23.44910012512821
1040
9.709288189007736
1040
0.0
1040
28.27884266376361
1040
9.364578988351638
1040
0.0
1040
33.9135394873748
1040
9.594385122122446
1040
0.0
1002
}
  0
ARC
  5
2A57
330
1A
100
AcDbEntity
  8
ZUWAKU
100
AcDbCircle
 10
7.746105754953987
 20
9.317399018126483
 30
0.0
 40
2.099999999999999
100
AcDbArc
 50
180.0
 51
225.0
  0
LINE
  5
2A58
330
1A
100
AcDbEntity
  8
ZUWAKU
100
AcDbLine
 10
10.37110575495398
 20
5.675000030804135
 30
0.0
 11
10.37110575495398
 21
9.525000030804111
 31
0.0
  0
LINE
  5
2A59
330
1A
100
AcDbEntity
  8
ZUWAKU
100
AcDbLine
 10
11.77110575495402
 20
9.525000030804132
 30
0.0
 11
11.77110575495402
 21
5.675000030804135
 31
0.0
  0
ARC
  5
2A5A
330
1A
100
AcDbEntity
  8
ZUWAKU
100
AcDbCircle
 10
7.746105754953987
 20
9.317399018126483
 30
0.0
 40
0.7
100
AcDbArc
 50
180.0000000000016
 51
224.9999999999988
  0
ARC
  5
2A5B
330
1A
100
AcDbEntity
  8
ZUWAKU
100
AcDbCircle
 10
12.47110575495401
 20
5.675000030804135
 30
0.0
 40
2.099999999999999
100
AcDbArc
 50
180.0
 51
270.0
  0
ARC
  5
2A5C
330
1A
100
AcDbEntity
  8
ZUWAKU
100
AcDbCircle
 10
7.921105754953998
 20
4.975000030804132
 30
0.0
 40
1.399999999999999
100
AcDbArc
 50
270.0
 51
0.0
  0
ARC
  5
2A5D
330
1A
100
AcDbEntity
  8
ZUWAKU
100
AcDbCircle
 10
7.22110575495401
 20
5.882601043481784
 30
0.0
 40
2.099999999999999
100
AcDbArc
 50
0.0
 51
45.0
  0
LINE
  5
2A5E
330
1A
100
AcDbEntity
  8
ZUWAKU
100
AcDbLine
 10
6.261181514462236
 20
7.832474777634722
 30
0.0
 11
7.716080501784574
 21
6.377575790312391
 31
0.0
  0
LINE
  5
2A5F
330
1A
100
AcDbEntity
  8
ZUWAKU
100
AcDbLine
 10
6.171105754953998
 20
4.975000030804132
 30
0.0
 11
7.65860575495401
 21
4.975000030804132
 31
0.0
  0
LINE
  5
2A60
330
1A
100
AcDbEntity
  8
ZUWAKU
100
AcDbLine
 10
6.171105754953998
 20
3.575000030804133
 30
0.0
 11
7.921105754953998
 21
3.575000030804133
 31
0.0
  0
ARC
  5
2A61
330
1A
100
AcDbEntity
  8
ZUWAKU
100
AcDbCircle
 10
6.171105754953998
 20
4.712500030804132
 30
0.0
 40
0.2625
100
AcDbArc
 50
90.0
 51
180.0
  0
ARC
  5
2A62
330
1A
100
AcDbEntity
  8
ZUWAKU
100
AcDbCircle
 10
6.171105754953998
 20
3.837500030804132
 30
0.0
 40
0.2625
100
AcDbArc
 50
180.0
 51
270.0
  0
LINE
  5
2A63
330
1A
100
AcDbEntity
  8
ZUWAKU
100
AcDbLine
 10
5.90860575495401
 20
3.837500030804132
 30
0.0
 11
5.90860575495401
 21
4.712500030804132
 31
0.0
  0
ARC
  5
2A64
330
1A
100
AcDbEntity
  8
ZUWAKU
100
AcDbCircle
 10
7.22110575495401
 20
5.882601043481805
 30
0.0
 40
0.7
100
AcDbArc
 50
0.0
 51
45.0
  0
ARC
  5
2A65
330
1A
100
AcDbEntity
  8
ZUWAKU
100
AcDbCircle
 10
7.65860575495401
 20
5.237500030804135
 30
0.0
 40
0.2625
100
AcDbArc
 50
270.0
 51
0.0
  0
LINE
  5
2A66
330
1A
100
AcDbEntity
  8
ZUWAKU
100
AcDbLine
 10
7.921105754953998
 20
5.237500030804135
 30
0.0
 11
7.921105754953998
 21
5.882601043481805
 31
0.0
  0
LINE
  5
2A67
330
1A
100
AcDbEntity
  8
ZUWAKU
100
AcDbLine
 10
8.70602999544576
 20
7.367525283973545
 30
0.0
 11
7.251131008123422
 21
8.822424271295883
 31
0.0
  0
ARC
  5
2A68
330
1A
100
AcDbEntity
  8
ZUWAKU
100
AcDbCircle
 10
12.47110575495401
 20
5.675000030804135
 30
0.0
 40
0.7
100
AcDbArc
 50
180.0
 51
270.0
  0
LINE
  5
2A69
330
1A
100
AcDbEntity
  8
ZUWAKU
100
AcDbLine
 10
9.321105754954032
 20
4.975000030804132
 30
0.0
 11
9.321105754954032
 21
5.882601043481805
 31
0.0
  0
ARC
  5
2A6A
330
1A
100
AcDbEntity
  8
ZUWAKU
100
AcDbCircle
 10
8.796105754953998
 20
10.48750003080413
 30
0.0
 40
0.2625
100
AcDbArc
 50
270.0
 51
0.0
  0
ARC
  5
2A6B
330
1A
100
AcDbEntity
  8
ZUWAKU
100
AcDbCircle
 10
8.796105754953998
 20
11.36250003080413
 30
0.0
 40
0.2625
100
AcDbArc
 50
0.0
 51
90.0
  0
ARC
  5
2A6C
330
1A
100
AcDbEntity
  8
ZUWAKU
100
AcDbCircle
 10
7.046105754953998
 20
10.22500003080413
 30
0.0
 40
1.399999999999999
100
AcDbArc
 50
90.0
 51
180.0
  0
LINE
  5
2A6D
330
1A
100
AcDbEntity
  8
ZUWAKU
100
AcDbLine
 10
5.646105754954021
 20
10.22500003080413
 30
0.0
 11
5.646105754954021
 21
9.317399018126462
 31
0.0
  0
LINE
  5
2A6E
330
1A
100
AcDbEntity
  8
ZUWAKU
100
AcDbLine
 10
8.796105754953998
 20
10.22500003080413
 30
0.0
 11
7.308605754953987
 21
10.22500003080413
 31
0.0
  0
LINE
  5
2A6F
330
1A
100
AcDbEntity
  8
ZUWAKU
100
AcDbLine
 10
7.046105754953998
 20
9.962500030804132
 30
0.0
 11
7.046105754953998
 21
9.317399018126462
 31
0.0
  0
ARC
  5
2A70
330
1A
100
AcDbEntity
  8
ZUWAKU
100
AcDbCircle
 10
7.308605754953987
 20
9.962500030804132
 30
0.0
 40
0.2625
100
AcDbArc
 50
90.0
 51
180.0
  0
LINE
  5
2A71
330
1A
100
AcDbEntity
  8
ZUWAKU
100
AcDbLine
 10
7.046105754953998
 20
11.62500003080413
 30
0.0
 11
8.796105754953998
 21
11.62500003080413
 31
0.0
  0
ARC
  5
2A72
330
1A
100
AcDbEntity
  8
ZUWAKU
100
AcDbCircle
 10
12.47110575495401
 20
9.525000030804111
 30
0.0
 40
2.099999999999999
100
AcDbArc
 50
90.0
 51
180.0
  0
ARC
  5
2A73
330
1A
100
AcDbEntity
  8
ZUWAKU
100
AcDbCircle
 10
12.47110575495401
 20
9.525000030804132
 30
0.0
 40
0.7
100
AcDbArc
 50
90.0
 51
180.0
  0
LINE
  5
2A74
330
1A
100
AcDbEntity
  8
ZUWAKU
100
AcDbLine
 10
9.058605754953987
 20
11.36250003080413
 30
0.0
 11
9.058605754953987
 21
10.48750003080413
 31
0.0
  0
LINE
  5
2A75
330
1A
100
AcDbEntity
  8
ZUWAKU
100
AcDbLine
 10
17.83817322361193
 20
11.44154701488761
 30
0.0
 11
16.90403828629604
 21
8.483453046720647
 31
0.0
  0
LINE
  5
2A76
330
1A
100
AcDbEntity
  8
ZUWAKU
100
AcDbLine
 10
14.921105754954
 20
11.36250003080413
 30
0.0
 11
14.921105754954
 21
3.837500030804132
 31
0.0
  0
LINE
  5
2A77
330
1A
100
AcDbEntity
  8
ZUWAKU
100
AcDbLine
 10
16.32110575495403
 20
8.562500030804134
 30
0.0
 11
16.32110575495403
 21
11.36250003080413
 31
0.0
  0
LINE
  5
2A78
330
1A
100
AcDbEntity
  8
ZUWAKU
100
AcDbLine
 10
28.92110575495399
 20
5.50000003080413
 30
0.0
 11
28.92110575495399
 21
11.36250003080413
 31
0.0
  0
LINE
  5
2A79
330
1A
100
AcDbEntity
  8
ZUWAKU
100
AcDbLine
 10
27.52110575495402
 20
11.36250003080413
 30
0.0
 11
27.52110575495402
 21
4.975000030804132
 31
0.0
  0
LINE
  5
2A7A
330
1A
100
AcDbEntity
  8
ZUWAKU
100
AcDbLine
 10
21.74610575495398
 20
3.837500030804132
 30
0.0
 11
21.74610575495398
 21
11.36250003080413
 31
0.0
  0
LINE
  5
2A7B
330
1A
100
AcDbEntity
  8
ZUWAKU
100
AcDbLine
 10
20.346105754954
 20
11.36250003080413
 30
0.0
 11
20.346105754954
 21
3.837500030804132
 31
0.0
  0
LINE
  5
2A7C
330
1A
100
AcDbEntity
  8
ZUWAKU
100
AcDbLine
 10
18.65742899604299
 20
9.602523627585846
 30
0.0
 11
18.02505312337507
 21
7.600000030804142
 31
0.0
  0
ARC
  5
2A7D
330
1A
100
AcDbEntity
  8
ZUWAKU
100
AcDbCircle
 10
24.89610575495402
 20
9.317399018126483
 30
0.0
 40
2.099999999999999
100
AcDbArc
 50
180.0
 51
225.0
  0
ARC
  5
2A7E
330
1A
100
AcDbEntity
  8
ZUWAKU
100
AcDbCircle
 10
24.89610575495402
 20
9.317399018126483
 30
0.0
 40
0.7
100
AcDbArc
 50
180.0000000000016
 51
224.9999999999988
  0
LINE
  5
2A7F
330
1A
100
AcDbEntity
  8
ZUWAKU
100
AcDbLine
 10
33.12110575495399
 20
11.36250003080413
 30
0.0
 11
33.12110575495399
 21
3.837500030804132
 31
0.0
  0
LINE
  5
2A80
330
1A
100
AcDbEntity
  8
ZUWAKU
100
AcDbLine
 10
34.52110575495402
 20
3.837500030804132
 30
0.0
 11
34.52110575495402
 21
11.36250003080413
 31
0.0
  0
LINE
  5
2A81
330
1A
100
AcDbEntity
  8
ZUWAKU
100
AcDbLine
 10
30.671105754954
 20
11.36250003080413
 30
0.0
 11
30.671105754954
 21
5.50000003080413
 31
0.0
  0
LINE
  5
2A82
330
1A
100
AcDbEntity
  8
ZUWAKU
100
AcDbLine
 10
32.07110575495403
 20
4.975000030804132
 30
0.0
 11
32.07110575495403
 21
11.36250003080413
 31
0.0
  0
LINE
  5
2A83
330
1A
100
AcDbEntity
  8
ZUWAKU
100
AcDbLine
 10
39.56331445155763
 20
15.00000003080413
 30
0.0
 11
39.56331445155763
 21
0.4000000308041649
 31
0.0
  0
LINE
  5
2A84
330
1A
100
AcDbEntity
  8
ZUWAKU
100
AcDbLine
 10
39.76331445155756
 20
15.00000003080413
 30
0.0
 11
39.76331445155767
 21
0.4000000308041649
 31
0.0
  0
LINE
  5
2A85
330
1A
100
AcDbEntity
  8
ZUWAKU
100
AcDbLine
 10
39.66331445155754
 20
15.00000003080413
 30
0.0
 11
39.66331445155765
 21
0.4000000308041649
 31
0.0
  0
LINE
  5
2A86
330
1A
100
AcDbEntity
  8
ZUWAKU
100
AcDbLine
 10
28.92110575495399
 20
3.575000030804133
 30
0.0
 11
30.671105754954
 21
3.575000030804133
 31
0.0
  0
LINE
  5
2A87
330
1A
100
AcDbEntity
  8
ZUWAKU
100
AcDbLine
 10
30.14610575495402
 20
4.975000030804132
 30
0.0
 11
29.44610575495403
 21
4.975000030804132
 31
0.0
  0
LINE
  5
2A88
330
1A
100
AcDbEntity
  8
ZUWAKU
100
AcDbLine
 10
20.608605754954
 20
3.575000030804133
 30
0.0
 11
21.483605754954
 21
3.575000030804133
 31
0.0
  0
LINE
  5
2A89
330
1A
100
AcDbEntity
  8
ZUWAKU
100
AcDbLine
 10
17.83817322361193
 20
3.758453046720646
 30
0.0
 11
16.90403828629604
 21
6.716547014887616
 31
0.0
  0
ARC
  5
2A8A
330
1A
100
AcDbEntity
  8
ZUWAKU
100
AcDbCircle
 10
16.58360575495402
 20
6.637500030804133
 30
0.0
 40
0.2625
100
AcDbArc
 50
90.0
 51
180.0
  0
ARC
  5
2A8B
330
1A
100
AcDbEntity
  8
ZUWAKU
100
AcDbCircle
 10
16.65372283669836
 20
6.637500030804133
 30
0.0
 40
0.2625
100
AcDbArc
 50
17.52556837372303
 51
90.0
  0
ARC
  5
2A8C
330
1A
100
AcDbEntity
  8
ZUWAKU
100
AcDbCircle
 10
15.18360575495398
 20
3.837500030804132
 30
0.0
 40
0.2625
100
AcDbArc
 50
180.0
 51
270.0
  0
ARC
  5
2A8D
330
1A
100
AcDbEntity
  8
ZUWAKU
100
AcDbCircle
 10
13.43360575495398
 20
4.712500030804132
 30
0.0
 40
0.2625
100
AcDbArc
 50
0.0
 51
90.0
  0
ARC
  5
2A8E
330
1A
100
AcDbEntity
  8
ZUWAKU
100
AcDbCircle
 10
13.43360575495398
 20
3.837500030804132
 30
0.0
 40
0.2625
100
AcDbArc
 50
270.0
 51
0.0
  0
LINE
  5
2A8F
330
1A
100
AcDbEntity
  8
ZUWAKU
100
AcDbLine
 10
13.69610575495403
 20
4.712500030804132
 30
0.0
 11
13.69610575495403
 21
3.837500030804132
 31
0.0
  0
LINE
  5
2A90
330
1A
100
AcDbEntity
  8
ZUWAKU
100
AcDbLine
 10
16.32110575495403
 20
3.837500030804132
 30
0.0
 11
16.32110575495403
 21
6.637500030804133
 31
0.0
  0
ARC
  5
2A91
330
1A
100
AcDbEntity
  8
ZUWAKU
100
AcDbCircle
 10
16.05860575495398
 20
3.837500030804132
 30
0.0
 40
0.2625
100
AcDbArc
 50
270.0
 51
0.0
  0
LINE
  5
2A92
330
1A
100
AcDbEntity
  8
ZUWAKU
100
AcDbLine
 10
15.18360575495398
 20
3.575000030804133
 30
0.0
 11
16.05860575495398
 21
3.575000030804133
 31
0.0
  0
ARC
  5
2A93
330
1A
100
AcDbEntity
  8
ZUWAKU
100
AcDbCircle
 10
16.58360575495402
 20
8.562500030804134
 30
0.0
 40
0.2625
100
AcDbArc
 50
180.0
 51
270.0
  0
LINE
  5
2A94
330
1A
100
AcDbEntity
  8
ZUWAKU
100
AcDbLine
 10
16.58360575495402
 20
6.900000030804132
 30
0.0
 11
16.65372283669836
 21
6.900000030804132
 31
0.0
  0
LINE
  5
2A95
330
1A
100
AcDbEntity
  8
ZUWAKU
100
AcDbLine
 10
16.65372283669836
 20
8.300000030804131
 30
0.0
 11
16.58360575495402
 21
8.300000030804131
 31
0.0
  0
ARC
  5
2A96
330
1A
100
AcDbEntity
  8
ZUWAKU
100
AcDbCircle
 10
16.65372283669836
 20
8.562500030804134
 30
0.0
 40
0.2625
100
AcDbArc
 50
270.0
 51
342.4744316262769
  0
ARC
  5
2A97
330
1A
100
AcDbEntity
  8
ZUWAKU
100
AcDbCircle
 10
18.08848867320966
 20
3.837500030804132
 30
0.0
 40
0.2625
100
AcDbArc
 50
197.525568373723
 51
270.0
  0
LINE
  5
2A98
330
1A
100
AcDbEntity
  8
ZUWAKU
100
AcDbLine
 10
19.1882488126119
 20
3.916547014887619
 30
0.0
 11
18.02505312337507
 21
7.600000030804142
 31
0.0
  0
ARC
  5
2A99
330
1A
100
AcDbEntity
  8
ZUWAKU
100
AcDbCircle
 10
18.93793336301416
 20
3.837500030804132
 30
0.0
 40
0.2625
100
AcDbArc
 50
270.0
 51
17.52556837372303
  0
LINE
  5
2A9A
330
1A
100
AcDbEntity
  8
ZUWAKU
100
AcDbLine
 10
18.08848867320966
 20
3.575000030804133
 30
0.0
 11
18.93793336301416
 21
3.575000030804133
 31
0.0
  0
ARC
  5
2A9B
330
1A
100
AcDbEntity
  8
ZUWAKU
100
AcDbCircle
 10
20.608605754954
 20
3.837500030804132
 30
0.0
 40
0.2625
100
AcDbArc
 50
180.0
 51
270.0
  0
ARC
  5
2A9C
330
1A
100
AcDbEntity
  8
ZUWAKU
100
AcDbCircle
 10
25.07110575495403
 20
4.975000030804132
 30
0.0
 40
1.399999999999999
100
AcDbArc
 50
270.0
 51
0.0
  0
ARC
  5
2A9D
330
1A
100
AcDbEntity
  8
ZUWAKU
100
AcDbCircle
 10
28.92110575495399
 20
4.975000030804132
 30
0.0
 40
1.399999999999999
100
AcDbArc
 50
180.0
 51
270.0
  0
LINE
  5
2A9E
330
1A
100
AcDbEntity
  8
ZUWAKU
100
AcDbLine
 10
25.85602999544579
 20
7.367525283973545
 30
0.0
 11
24.4011310081234
 21
8.822424271295883
 31
0.0
  0
LINE
  5
2A9F
330
1A
100
AcDbEntity
  8
ZUWAKU
100
AcDbLine
 10
23.41118151446227
 20
7.832474777634722
 30
0.0
 11
24.8660805017846
 21
6.377575790312391
 31
0.0
  0
LINE
  5
2AA0
330
1A
100
AcDbEntity
  8
ZUWAKU
100
AcDbLine
 10
23.32110575495403
 20
3.575000030804133
 30
0.0
 11
25.07110575495403
 21
3.575000030804133
 31
0.0
  0
LINE
  5
2AA1
330
1A
100
AcDbEntity
  8
ZUWAKU
100
AcDbLine
 10
23.32110575495403
 20
4.975000030804132
 30
0.0
 11
24.80860575495398
 21
4.975000030804132
 31
0.0
  0
ARC
  5
2AA2
330
1A
100
AcDbEntity
  8
ZUWAKU
100
AcDbCircle
 10
23.32110575495403
 20
4.712500030804132
 30
0.0
 40
0.2625
100
AcDbArc
 50
90.0
 51
180.0
  0
ARC
  5
2AA3
330
1A
100
AcDbEntity
  8
ZUWAKU
100
AcDbCircle
 10
21.483605754954
 20
3.837500030804132
 30
0.0
 40
0.2625
100
AcDbArc
 50
270.0
 51
0.0
  0
ARC
  5
2AA4
330
1A
100
AcDbEntity
  8
ZUWAKU
100
AcDbCircle
 10
23.32110575495403
 20
3.837500030804132
 30
0.0
 40
0.2625
100
AcDbArc
 50
180.0
 51
270.0
  0
LINE
  5
2AA5
330
1A
100
AcDbEntity
  8
ZUWAKU
100
AcDbLine
 10
23.05860575495398
 20
3.837500030804132
 30
0.0
 11
23.05860575495398
 21
4.712500030804132
 31
0.0
  0
ARC
  5
2AA6
330
1A
100
AcDbEntity
  8
ZUWAKU
100
AcDbCircle
 10
24.80860575495398
 20
5.237500030804135
 30
0.0
 40
0.2625
100
AcDbArc
 50
270.0
 51
0.0
  0
ARC
  5
2AA7
330
1A
100
AcDbEntity
  8
ZUWAKU
100
AcDbCircle
 10
24.37110575495399
 20
5.882601043481805
 30
0.0
 40
0.7
100
AcDbArc
 50
0.0
 51
45.0
  0
LINE
  5
2AA8
330
1A
100
AcDbEntity
  8
ZUWAKU
100
AcDbLine
 10
25.07110575495403
 20
5.237500030804135
 30
0.0
 11
25.07110575495403
 21
5.882601043481805
 31
0.0
  0
ARC
  5
2AA9
330
1A
100
AcDbEntity
  8
ZUWAKU
100
AcDbCircle
 10
29.44610575495403
 20
5.50000003080413
 30
0.0
 40
0.525
100
AcDbArc
 50
180.0
 51
270.0
  0
ARC
  5
2AAA
330
1A
100
AcDbEntity
  8
ZUWAKU
100
AcDbCircle
 10
24.37110575495399
 20
5.882601043481784
 30
0.0
 40
2.099999999999999
100
AcDbArc
 50
0.0
 51
45.0
  0
LINE
  5
2AAB
330
1A
100
AcDbEntity
  8
ZUWAKU
100
AcDbLine
 10
26.47110575495401
 20
4.975000030804132
 30
0.0
 11
26.47110575495401
 21
5.882601043481805
 31
0.0
  0
ARC
  5
2AAC
330
1A
100
AcDbEntity
  8
ZUWAKU
100
AcDbCircle
 10
30.671105754954
 20
4.975000030804132
 30
0.0
 40
1.399999999999999
100
AcDbArc
 50
270.0
 51
0.0
  0
LINE
  5
2AAD
330
1A
100
AcDbEntity
  8
ZUWAKU
100
AcDbLine
 10
33.38360575495403
 20
3.575000030804133
 30
0.0
 11
34.25860575495403
 21
3.575000030804133
 31
0.0
  0
ARC
  5
2AAE
330
1A
100
AcDbEntity
  8
ZUWAKU
100
AcDbCircle
 10
30.14610575495402
 20
5.50000003080413
 30
0.0
 40
0.525
100
AcDbArc
 50
270.0
 51
0.0
  0
ARC
  5
2AAF
330
1A
100
AcDbEntity
  8
ZUWAKU
100
AcDbCircle
 10
33.38360575495403
 20
3.837500030804132
 30
0.0
 40
0.2625
100
AcDbArc
 50
180.0
 51
270.0
  0
ARC
  5
2AB0
330
1A
100
AcDbEntity
  8
ZUWAKU
100
AcDbCircle
 10
34.25860575495403
 20
3.837500030804132
 30
0.0
 40
0.2625
100
AcDbArc
 50
270.0
 51
0.0
  0
LINE
  5
2AB1
330
1A
100
AcDbEntity
  8
ZUWAKU
100
AcDbLine
 10
21.483605754954
 20
11.62500003080413
 30
0.0
 11
20.608605754954
 21
11.62500003080413
 31
0.0
  0
LINE
  5
2AB2
330
1A
100
AcDbEntity
  8
ZUWAKU
100
AcDbLine
 10
13.69610575495403
 20
11.36250003080413
 30
0.0
 11
13.69610575495403
 21
10.48750003080413
 31
0.0
  0
ARC
  5
2AB3
330
1A
100
AcDbEntity
  8
ZUWAKU
100
AcDbCircle
 10
13.43360575495398
 20
10.48750003080413
 30
0.0
 40
0.2625
100
AcDbArc
 50
270.0
 51
0.0
  0
ARC
  5
2AB4
330
1A
100
AcDbEntity
  8
ZUWAKU
100
AcDbCircle
 10
15.18360575495398
 20
11.36250003080413
 30
0.0
 40
0.2625
100
AcDbArc
 50
90.0
 51
180.0
  0
ARC
  5
2AB5
330
1A
100
AcDbEntity
  8
ZUWAKU
100
AcDbCircle
 10
13.43360575495398
 20
11.36250003080413
 30
0.0
 40
0.2625
100
AcDbArc
 50
0.0
 51
90.0
  0
LINE
  5
2AB6
330
1A
100
AcDbEntity
  8
ZUWAKU
100
AcDbLine
 10
16.05860575495398
 20
11.62500003080413
 30
0.0
 11
15.18360575495398
 21
11.62500003080413
 31
0.0
  0
ARC
  5
2AB7
330
1A
100
AcDbEntity
  8
ZUWAKU
100
AcDbCircle
 10
16.05860575495398
 20
11.36250003080413
 30
0.0
 40
0.2625
100
AcDbArc
 50
0.0
 51
90.0
  0
ARC
  5
2AB8
330
1A
100
AcDbEntity
  8
ZUWAKU
100
AcDbCircle
 10
18.08848867320966
 20
11.36250003080413
 30
0.0
 40
0.2625
100
AcDbArc
 50
90.0
 51
162.4744316262769
  0
LINE
  5
2AB9
330
1A
100
AcDbEntity
  8
ZUWAKU
100
AcDbLine
 10
19.1882488126119
 20
11.28345304672064
 30
0.0
 11
18.65742899604299
 21
9.602523627585846
 31
0.0
  0
ARC
  5
2ABA
330
1A
100
AcDbEntity
  8
ZUWAKU
100
AcDbCircle
 10
18.93793336301416
 20
11.36250003080413
 30
0.0
 40
0.2625
100
AcDbArc
 50
342.4744316262769
 51
90.0
  0
LINE
  5
2ABB
330
1A
100
AcDbEntity
  8
ZUWAKU
100
AcDbLine
 10
18.08848867320966
 20
11.62500003080413
 30
0.0
 11
18.93793336301416
 21
11.62500003080413
 31
0.0
  0
ARC
  5
2ABC
330
1A
100
AcDbEntity
  8
ZUWAKU
100
AcDbCircle
 10
20.608605754954
 20
11.36250003080413
 30
0.0
 40
0.2625
100
AcDbArc
 50
90.0
 51
180.0
  0
LINE
  5
2ABD
330
1A
100
AcDbEntity
  8
ZUWAKU
100
AcDbLine
 10
25.94610575495403
 20
10.22500003080413
 30
0.0
 11
24.45860575495402
 21
10.22500003080413
 31
0.0
  0
LINE
  5
2ABE
330
1A
100
AcDbEntity
  8
ZUWAKU
100
AcDbLine
 10
24.19610575495403
 20
11.62500003080413
 30
0.0
 11
25.94610575495403
 21
11.62500003080413
 31
0.0
  0
ARC
  5
2ABF
330
1A
100
AcDbEntity
  8
ZUWAKU
100
AcDbCircle
 10
24.19610575495403
 20
10.22500003080413
 30
0.0
 40
1.399999999999999
100
AcDbArc
 50
90.0
 51
180.0
  0
LINE
  5
2AC0
330
1A
100
AcDbEntity
  8
ZUWAKU
100
AcDbLine
 10
22.796105754954
 20
10.22500003080413
 30
0.0
 11
22.796105754954
 21
9.317399018126462
 31
0.0
  0
ARC
  5
2AC1
330
1A
100
AcDbEntity
  8
ZUWAKU
100
AcDbCircle
 10
21.483605754954
 20
11.36250003080413
 30
0.0
 40
0.2625
100
AcDbArc
 50
0.0
 51
90.0
  0
LINE
  5
2AC2
330
1A
100
AcDbEntity
  8
ZUWAKU
100
AcDbLine
 10
24.19610575495403
 20
9.962500030804132
 30
0.0
 11
24.19610575495403
 21
9.317399018126462
 31
0.0
  0
ARC
  5
2AC3
330
1A
100
AcDbEntity
  8
ZUWAKU
100
AcDbCircle
 10
24.45860575495402
 20
9.962500030804132
 30
0.0
 40
0.2625
100
AcDbArc
 50
90.0
 51
180.0
  0
LINE
  5
2AC4
330
1A
100
AcDbEntity
  8
ZUWAKU
100
AcDbLine
 10
26.20860575495402
 20
11.36250003080413
 30
0.0
 11
26.20860575495402
 21
10.48750003080413
 31
0.0
  0
ARC
  5
2AC5
330
1A
100
AcDbEntity
  8
ZUWAKU
100
AcDbCircle
 10
25.94610575495403
 20
10.48750003080413
 30
0.0
 40
0.2625
100
AcDbArc
 50
270.0
 51
0.0
  0
ARC
  5
2AC6
330
1A
100
AcDbEntity
  8
ZUWAKU
100
AcDbCircle
 10
25.94610575495403
 20
11.36250003080413
 30
0.0
 40
0.2625
100
AcDbArc
 50
0.0
 51
90.0
  0
LINE
  5
2AC7
330
1A
100
AcDbEntity
  8
ZUWAKU
100
AcDbLine
 10
28.65860575495401
 20
11.62500003080413
 30
0.0
 11
27.78360575495401
 21
11.62500003080413
 31
0.0
  0
ARC
  5
2AC8
330
1A
100
AcDbEntity
  8
ZUWAKU
100
AcDbCircle
 10
27.78360575495401
 20
11.36250003080413
 30
0.0
 40
0.2625
100
AcDbArc
 50
90.0
 51
180.0
  0
ARC
  5
2AC9
330
1A
100
AcDbEntity
  8
ZUWAKU
100
AcDbCircle
 10
28.65860575495401
 20
11.36250003080413
 30
0.0
 40
0.2625
100
AcDbArc
 50
0.0
 51
90.0
  0
LINE
  5
2ACA
330
1A
100
AcDbEntity
  8
ZUWAKU
100
AcDbLine
 10
34.25860575495403
 20
11.62500003080413
 30
0.0
 11
33.38360575495403
 21
11.62500003080413
 31
0.0
  0
ARC
  5
2ACB
330
1A
100
AcDbEntity
  8
ZUWAKU
100
AcDbCircle
 10
30.93360575495399
 20
11.36250003080413
 30
0.0
 40
0.2625
100
AcDbArc
 50
90.0
 51
180.0
  0
LINE
  5
2ACC
330
1A
100
AcDbEntity
  8
ZUWAKU
100
AcDbLine
 10
31.80860575495398
 20
11.62500003080413
 30
0.0
 11
30.93360575495399
 21
11.62500003080413
 31
0.0
  0
ARC
  5
2ACD
330
1A
100
AcDbEntity
  8
ZUWAKU
100
AcDbCircle
 10
31.80860575495398
 20
11.36250003080413
 30
0.0
 40
0.2625
100
AcDbArc
 50
0.0
 51
90.0
  0
ARC
  5
2ACE
330
1A
100
AcDbEntity
  8
ZUWAKU
100
AcDbCircle
 10
33.38360575495403
 20
11.36250003080413
 30
0.0
 40
0.2625
100
AcDbArc
 50
90.0
 51
180.0
  0
ARC
  5
2ACF
330
1A
100
AcDbEntity
  8
ZUWAKU
100
AcDbCircle
 10
34.25860575495403
 20
11.36250003080413
 30
0.0
 40
0.2625
100
AcDbArc
 50
0.0
 51
90.0
  0
TEXT
  5
2AD0
330
1A
100
AcDbEntity
  8
moji
100
AcDbText
 10
119.9136010179889
 20
1.602460559507841
 30
0.0
 40
2.799999999999999
  1
Ｘ７０Ｕ－４－４５～６０
 41
0.9
  7
ｽﾀｲﾙ1
100
AcDbText
  0
TEXT
  5
2AD1
330
1A
100
AcDbEntity
  8
moji
100
AcDbText
 10
119.9136010179889
 20
9.002460559507824
 30
0.0
 40
2.799999999999999
  1
ブラケット正面打（吊）ワンタッチ自在式
 41
0.9
  7
ｽﾀｲﾙ1
100
AcDbText
  0
LINE
  5
2AD2
330
1A
100
AcDbEntity
  8
ZUWAKU
100
AcDbLine
 10
104.2233003225973
 20
15.00000003080413
 30
0.0
 11
104.2233003225974
 21
0.4000000308041649
 31
0.0
  0
LINE
  5
2AD3
330
1A
100
AcDbEntity
  8
ZUWAKU
100
AcDbLine
 10
104.3233003225973
 20
15.00000003080413
 30
0.0
 11
104.3233003225974
 21
0.4000000308041649
 31
0.0
  0
LINE
  5
2AD4
330
1A
100
AcDbEntity
  8
ZUWAKU
100
AcDbLine
 10
104.1233003225974
 20
15.00000003080413
 30
0.0
 11
104.1233003225974
 21
0.4000000308041649
 31
0.0
  0
TEXT
  5
2AD5
330
1A
100
AcDbEntity
  8
ZUWAKU
100
AcDbText
 10
104.8620228337022
 20
4.827678299996939
 30
0.0
 40
2.0
  1
サイズ
 41
0.9
  7
ｽﾀｲﾙ1
100
AcDbText
  0
TEXT
  5
2AD6
330
1A
100
AcDbEntity
  8
ZUWAKU
100
AcDbText
 10
104.862022833702
 20
12.02767829999692
 30
0.0
 40
2.0
  1
品名
 41
0.9
  7
ｽﾀｲﾙ1
100
AcDbText
  0
TEXT
  5
2AD7
330
1A
100
AcDbEntity
  8
ZUWAKU
100
AcDbText
 10
329.1019685212146
 20
9.002460559507824
 30
0.0
 40
2.799999999999999
  1
　　．　　．　　
 41
0.9
  7
ｽﾀｲﾙ1
100
AcDbText
  0
LINE
  5
2AD8
330
1A
100
AcDbEntity
  8
ZUWAKU
100
AcDbLine
 10
324.4086009326655
 20
7.800000030804147
 30
0.0
 11
348.624504951834
 21
7.800000030804147
 31
0.0
  0
LINE
  5
2AD9
330
1A
100
AcDbEntity
  8
ZUWAKU
100
AcDbLine
 10
324.4086009326656
 20
7.700000030804149
 30
0.0
 11
348.624504951834
 21
7.700000030804147
 31
0.0
  0
LINE
  5
2ADA
330
1A
100
AcDbEntity
  8
ZUWAKU
100
AcDbLine
 10
324.4086009326655
 20
7.600000030804146
 30
0.0
 11
348.624504951834
 21
7.600000030804148
 31
0.0
  0
LINE
  5
2ADB
330
1A
100
AcDbEntity
  8
ZUWAKU
100
AcDbLine
 10
252.5995894266338
 20
7.800000030804147
 30
0.0
 11
276.2634775606196
 21
7.800000030804147
 31
0.0
  0
LINE
  5
2ADC
330
1A
100
AcDbEntity
  8
ZUWAKU
100
AcDbLine
 10
252.5995894266338
 20
7.700000030804147
 30
0.0
 11
276.2634775606196
 21
7.700000030804147
 31
0.0
  0
LINE
  5
2ADD
330
1A
100
AcDbEntity
  8
ZUWAKU
100
AcDbLine
 10
252.5995894266338
 20
7.600000030804149
 30
0.0
 11
276.2634775606196
 21
7.600000030804149
 31
0.0
  0
LINE
  5
2ADE
330
1A
100
AcDbEntity
  8
ZUWAKU
100
AcDbLine
 10
252.3995894266339
 20
15.00000003080413
 30
0.0
 11
252.3995894266339
 21
0.4000000308041649
 31
0.0
  0
LINE
  5
2ADF
330
1A
100
AcDbEntity
  8
ZUWAKU
100
AcDbLine
 10
252.5995894266338
 20
15.00000003080413
 30
0.0
 11
252.599589426634
 21
0.4000000308041649
 31
0.0
  0
LINE
  5
2AE0
330
1A
100
AcDbEntity
  8
ZUWAKU
100
AcDbLine
 10
252.4995894266338
 20
15.00000003080413
 30
0.0
 11
252.4995894266339
 21
0.4000000308041649
 31
0.0
  0
TEXT
  5
2AE1
330
1A
100
AcDbEntity
  8
moji
100
AcDbText
 10
264.0204536637198
 20
9.002460559507824
 30
0.0
 40
2.799999999999999
  1
Ａ３
 41
0.9
  7
ｽﾀｲﾙ1
100
AcDbText
  0
LINE
  5
2AE2
330
1A
100
AcDbEntity
  8
ZUWAKU
100
AcDbLine
 10
223.7121816630591
 20
15.00000003080413
 30
0.0
 11
223.7121816630591
 21
0.4000000308041649
 31
0.0
  0
LINE
  5
2AE3
330
1A
100
AcDbEntity
  8
ZUWAKU
100
AcDbLine
 10
223.912181663059
 20
15.00000003080413
 30
0.0
 11
223.9121816630591
 21
0.4000000308041649
 31
0.0
  0
LINE
  5
2AE4
330
1A
100
AcDbEntity
  8
ZUWAKU
100
AcDbLine
 10
223.812181663059
 20
15.00000003080413
 30
0.0
 11
223.8121816630591
 21
0.4000000308041649
 31
0.0
  0
TEXT
  5
2AE5
330
1A
100
AcDbEntity
  8
moji
100
AcDbText
 10
231.2836388385577
 20
5.971308891634123
 30
0.0
 40
2.799999999999999
  1
ＬＫ３６Ｔ
 41
0.9
  7
ｽﾀｲﾙ1
100
AcDbText
  0
TEXT
  5
2AE6
330
1A
100
AcDbEntity
  8
ZUWAKU
100
AcDbText
 10
253.3383119377388
 20
4.827678299996939
 30
0.0
 40
2.0
  1
縮尺
 41
0.9
  7
ｽﾀｲﾙ1
100
AcDbText
  0
TEXT
  5
2AE7
330
1A
100
AcDbEntity
  8
moji
100
AcDbText
 10
264.0204536637198
 20
1.602460559507841
 30
0.0
 40
2.799999999999999
  1
１/１
 41
0.9
  7
ｽﾀｲﾙ1
100
AcDbText
  0
TEXT
  5
2AE8
330
1A
100
AcDbEntity
  8
ZUWAKU
100
AcDbText
 10
224.6509041741638
 20
12.02767829999692
 30
0.0
 40
2.0
  1
品番
 41
0.9
  7
ｽﾀｲﾙ1
100
AcDbText
  0
TEXT
  5
2AE9
330
1A
100
AcDbEntity
  8
ZUWAKU
100
AcDbText
 10
253.3383119377386
 20
12.02767829999692
 30
0.0
 40
2.0
  1
用紙
 41
0.9
  7
ｽﾀｲﾙ1
100
AcDbText
  0
LINE
  5
2AEA
330
1A
100
AcDbEntity
  8
ZUWAKU
100
AcDbLine
 10
276.2634775606196
 20
15.00000003080413
 30
0.0
 11
276.2634775606196
 21
0.4000000308041649
 31
0.0
  0
LINE
  5
2AEB
330
1A
100
AcDbEntity
  8
ZUWAKU
100
AcDbLine
 10
276.4634775606196
 20
15.00000003080413
 30
0.0
 11
276.4634775606197
 21
0.4000000308041649
 31
0.0
  0
LINE
  5
2AEC
330
1A
100
AcDbEntity
  8
ZUWAKU
100
AcDbLine
 10
276.3634775606195
 20
15.00000003080413
 30
0.0
 11
276.3634775606196
 21
0.4000000308041649
 31
0.0
  0
LINE
  5
2AED
330
1A
100
AcDbEntity
  8
ZUWAKU
100
AcDbLine
 10
324.2086009326657
 20
15.00000003080413
 30
0.0
 11
324.2086009326657
 21
0.4000000308041649
 31
0.0
  0
LINE
  5
2AEE
330
1A
100
AcDbEntity
  8
ZUWAKU
100
AcDbLine
 10
324.4086009326656
 20
15.00000003080413
 30
0.0
 11
324.4086009326657
 21
0.4000000308041649
 31
0.0
  0
LINE
  5
2AEF
330
1A
100
AcDbEntity
  8
ZUWAKU
100
AcDbLine
 10
324.3086009326656
 20
15.00000003080413
 30
0.0
 11
324.3086009326657
 21
0.4000000308041649
 31
0.0
  0
TEXT
  5
2AF0
330
1A
100
AcDbEntity
  8
ZUWAKU
100
AcDbText
 10
325.1473234437704
 20
12.02767829999692
 30
0.0
 40
2.0
  1
DATE
 41
0.9
  7
ｽﾀｲﾙ1
100
AcDbText
  0
TEXT
  5
2AF1
330
1A
100
AcDbEntity
  8
ZUWAKU
100
AcDbText
 10
354.2640417736853
 20
6.176919698647532
 30
0.0
 40
3.0
  1
積水化学工業株式会社
 41
0.9
  7
ｽﾀｲﾙ1
100
AcDbText
  0
LINE
  5
2AF2
330
1A
100
AcDbEntity
  8
ZUWAKU
100
AcDbLine
 10
348.924504951834
 20
15.00000003080413
 30
0.0
 11
348.9245049518341
 21
0.4000000308041649
 31
0.0
  0
LINE
  5
2AF3
330
1A
100
AcDbEntity
  8
ZUWAKU
100
AcDbLine
 10
348.824504951834
 20
15.00000003080413
 30
0.0
 11
348.8245049518341
 21
0.4000000308041649
 31
0.0
  0
LINE
  5
2AF4
330
1A
100
AcDbEntity
  8
ZUWAKU
100
AcDbLine
 10
348.7245049518341
 20
15.00000003080413
 30
0.0
 11
348.7245049518341
 21
0.4000000308041649
 31
0.0
  0
LINE
  5
2AF5
330
1A
100
AcDbEntity
  8
ZUWAKU
100
AcDbLine
 10
348.624504951834
 20
15.00000003080413
 30
0.0
 11
348.624504951834
 21
0.4000000308041649
 31
0.0
  0
DIMENSION
  5
40C6
330
1A
100
AcDbEntity
  8
SUNPOU
100
AcDbDimension
  2
*D1
 10
249.3168302648401
 20
97.42005476860564
 30
0.0
 11
241.9818644137945
 21
122.4889254245405
 31
0.0
 70
    33
 71
     5
 42
-1.0
  3
STANDARD
100
AcDbAlignedDimension
 13
205.1566108747911
 23
135.7616810147735
 33
0.0
 14
224.4689260318231
 24
87.48089308338752
 34
0.0
1001
ACAD
1000
DSTYLE
1002
{
1070
    41
1040
3.0
1070
    42
1040
3.0
1070
    43
1040
7.0
1070
    44
1040
1.5
1070
    73
1070
     0
1070
    74
1070
     0
1070
    77
1070
     3
1070
   140
1040
3.0
1070
   141
1040
3.0
1070
   147
1040
1.0
1070
   172
1070
     1
1070
   173
1070
     1
1070
   176
1070
   256
1070
   177
1070
   256
1070
   178
1070
   256
1070
   271
1070
     0
1070
   272
1070
     0
1070
   341
1005
B2
1070
     6
1000
OPEN
1070
     7
1000
OPEN
1002
}
  0
DIMENSION
  5
40C7
330
1A
100
AcDbEntity
  8
SUNPOU
100
AcDbDimension
  2
*D2
 10
208.0184497254563
 20
80.90070256235113
 30
0.0
 11
203.6546092776311
 21
98.5417596888322
 31
0.0
 70
    33
 71
     5
 42
-1.0
  3
STANDARD
100
AcDbAlignedDimension
 13
204.8780678518231
 23
118.4177364243875
 33
0.0
 14
218.2481322018231
 24
84.99257555338749
 34
0.0
1001
ACAD
1000
DSTYLE
1002
{
1070
    41
1040
3.0
1070
    42
1040
3.0
1070
    43
1040
7.0
1070
    44
1040
1.5
1070
    73
1070
     0
1070
    74
1070
     0
1070
    77
1070
     3
1070
   140
1040
3.0
1070
   141
1040
3.0
1070
   147
1040
1.0
1070
   172
1070
     1
1070
   173
1070
     1
1070
   176
1070
   256
1070
   177
1070
   256
1070
   178
1070
   256
1070
   271
1070
     0
1070
   272
1070
     0
1070
   341
1005
B2
1070
     6
1000
OPEN
1070
     7
1000
OPEN
1002
}
  0
DIMENSION
  5
40C8
330
1A
100
AcDbEntity
  8
SUNPOU
100
AcDbDimension
  2
*D3
 10
38.236268120007
 20
93.25894644338745
 30
0.0
 11
35.73626812000699
 21
90.36991976338752
 31
0.0
 70
    32
 71
     5
 42
-1.0
  3
STANDARD
100
AcDbAlignedDimension
 13
224.4689260318231
 23
87.48089308338752
 33
0.0
 14
54.87886168182303
 24
93.25894644338745
 34
0.0
 50
90.0
100
AcDbRotatedDimension
1001
ACAD
1000
DSTYLE
1002
{
1070
    41
1040
3.0
1070
    42
1040
3.0
1070
    43
1040
7.0
1070
    44
1040
1.5
1070
    73
1070
     0
1070
    74
1070
     0
1070
    77
1070
     3
1070
   140
1040
3.0
1070
   141
1040
3.0
1070
   147
1040
1.0
1070
   172
1070
     1
1070
   173
1070
     1
1070
   176
1070
   256
1070
   177
1070
   256
1070
   178
1070
   256
1070
   271
1070
     0
1070
   272
1070
     0
1070
   341
1005
B2
1070
     6
1000
OPEN
1070
     7
1000
OPEN
1002
}
  0
DIMENSION
  5
40C9
330
1A
100
AcDbEntity
  8
SUNPOU
100
AcDbDimension
  2
*D4
 10
226.098861681823
 20
154.8046116596688
 30
0.0
 11
218.598861681823
 21
157.3046116596688
 31
0.0
 70
    32
 71
     5
 42
-1.0
  3
STANDARD
100
AcDbAlignedDimension
 13
211.098861681823
 23
120.9060539553875
 33
0.0
 14
226.098861681823
 24
120.9060539553875
 34
0.0
100
AcDbRotatedDimension
1001
ACAD
1000
DSTYLE
1002
{
1070
    41
1040
3.0
1070
    42
1040
3.0
1070
    43
1040
7.0
1070
    44
1040
1.5
1070
    73
1070
     0
1070
    74
1070
     0
1070
    77
1070
     3
1070
   140
1040
3.0
1070
   141
1040
3.0
1070
   147
1040
1.0
1070
   172
1070
     1
1070
   173
1070
     1
1070
   176
1070
   256
1070
   177
1070
   256
1070
   178
1070
   256
1070
   271
1070
     0
1070
   272
1070
     0
1070
   341
1005
B2
1070
     6
1000
OPEN
1070
     7
1000
OPEN
1002
}
  0
LINE
  5
40CA
330
1A
100
AcDbEntity
  8
SEIHIN
100
AcDbLine
 10
206.7874248568034
 20
130.3383548207271
 30
0.0
 11
210.6346233418231
 21
120.7203586173875
 31
0.0
  0
LINE
  5
40CB
330
1A
100
AcDbEntity
  8
SEIHIN
100
AcDbLine
 10
204.8780678518231
 20
118.4177364243875
 30
0.0
 11
211.098861681823
 21
120.9060539553875
 31
0.0
  0
LINE
  5
40CC
330
1A
100
AcDbEntity
  8
SEIHIN
100
AcDbLine
 10
218.2481322018231
 20
84.99257555338749
 30
0.0
 11
204.8780678518231
 21
118.4177364243875
 31
0.0
  0
ARC
  5
40CD
330
1A
100
AcDbEntity
  8
SEIHIN
  6
DASHED
 62
     2
100
AcDbCircle
 10
215.0499890618231
 20
122.9487026753874
 30
0.0
 40
9.999999996030268
100
AcDbArc
 50
47.64334219921093
 51
170.7918456294877
  0
LINE
  5
40CE
330
1A
100
AcDbEntity
  8
CENTER L
100
AcDbLine
 10
205.713696873884
 20
112.2897902640981
 30
0.0
 11
219.8265425771525
 21
117.9349285408682
 31
0.0
  0
LINE
  5
40CF
330
1A
100
AcDbEntity
  8
SEIHIN
100
AcDbLine
 10
121.0756715118231
 20
220.4106425159894
 30
0.0
 11
216.6449054745286
 21
220.4106424859895
 31
0.0
  0
LINE
  5
40D0
330
1A
100
AcDbEntity
  8
SEIHIN
100
AcDbLine
 10
121.0756715118231
 20
214.4106425159894
 30
0.0
 11
216.6456192187328
 21
214.4106424859895
 31
0.0
  0
LINE
  5
40D1
330
1A
100
AcDbEntity
  8
SEIHIN
100
AcDbLine
 10
91.70229138182316
 20
224.9106425559895
 30
0.0
 11
222.4412589818232
 21
224.9106425259895
 31
0.0
  0
LINE
  5
40D2
330
1A
100
AcDbEntity
  8
SEIHIN
100
AcDbLine
 10
91.70229138182316
 20
209.9106425159894
 30
0.0
 11
222.4412589818232
 21
209.9106424859895
 31
0.0
  0
LINE
  5
40D3
330
1A
100
AcDbEntity
  8
SEIHIN
100
AcDbLine
 10
91.20229138182315
 20
210.9106425159894
 30
0.0
 11
222.4412589818232
 21
210.9106424859894
 31
0.0
  0
LINE
  5
40D4
330
1A
100
AcDbEntity
  8
SEIHIN
100
AcDbLine
 10
91.20229138182315
 20
223.9106425559895
 30
0.0
 11
222.4412589818232
 21
223.9106425259895
 31
0.0
  0
LINE
  5
40D5
330
1A
100
AcDbEntity
  8
CENTER L
100
AcDbLine
 10
45.76610602816368
 20
217.4106425359894
 30
0.0
 11
231.4689260318231
 21
217.4106425059895
 31
0.0
  0
DIMENSION
  5
40D6
330
1A
100
AcDbEntity
  8
SUNPOU
100
AcDbDimension
  2
*D5
 10
211.098861681823
 20
154.8046116596688
 30
0.0
 11
132.363861681823
 21
157.3046116596688
 31
0.0
 70
    32
 71
     5
 42
-1.0
  3
STANDARD
100
AcDbAlignedDimension
 13
53.62886168182303
 23
92.00894644338745
 33
0.0
 14
211.098861681823
 24
120.9060539553875
 34
0.0
100
AcDbRotatedDimension
1001
ACAD
1000
DSTYLE
1002
{
1070
    41
1040
3.0
1070
    42
1040
3.0
1070
    43
1040
7.0
1070
    44
1040
1.5
1070
    73
1070
     0
1070
    74
1070
     0
1070
    77
1070
     3
1070
   140
1040
3.0
1070
   141
1040
3.0
1070
   147
1040
1.0
1070
   172
1070
     1
1070
   173
1070
     1
1070
   176
1070
   256
1070
   177
1070
   256
1070
   178
1070
   256
1070
   271
1070
     0
1070
   272
1070
     0
1070
   341
1005
B2
1070
     6
1000
OPEN
1070
     7
1000
OPEN
1002
}
  0
DIMENSION
  5
40D7
330
1A
100
AcDbEntity
  8
SUNPOU
100
AcDbDimension
  2
*D6
 10
211.098861681823
 20
147.2102317915378
 30
0.0
 11
188.598861681823
 21
149.7102317915378
 31
0.0
 70
    32
 71
     5
 42
-1.0
  3
STANDARD
100
AcDbAlignedDimension
 13
166.098861681823
 23
92.37616412606143
 33
0.0
 14
211.098861681823
 24
120.9060539553875
 34
0.0
100
AcDbRotatedDimension
1001
ACAD
1000
DSTYLE
1002
{
1070
    41
1040
3.0
1070
    42
1040
3.0
1070
    43
1040
7.0
1070
    44
1040
1.5
1070
    73
1070
     0
1070
    74
1070
     0
1070
    77
1070
     3
1070
   140
1040
3.0
1070
   141
1040
3.0
1070
   147
1040
1.0
1070
   172
1070
     1
1070
   173
1070
     1
1070
   176
1070
   256
1070
   177
1070
   256
1070
   178
1070
   256
1070
   271
1070
     0
1070
   272
1070
     0
1070
   341
1005
B2
1070
     6
1000
OPEN
1070
     7
1000
OPEN
1002
}
  0
LINE
  5
4117
330
1A
100
AcDbEntity
  8
SEIHIN
100
AcDbLine
 10
121.3053436118231
 20
115.3660298483874
 30
0.0
 11
189.3136101418231
 21
123.7163949933874
 31
0.0
  0
LINE
  5
4118
330
1A
100
AcDbEntity
  8
SEIHIN
100
AcDbLine
 10
123.1826532118231
 20
109.5514755343875
 30
0.0
 11
190.0448248918231
 21
117.7611179213875
 31
0.0
  0
LINE
  5
411D
330
1A
100
AcDbEntity
  8
SEIHIN
100
AcDbLine
 10
92.97457871182308
 20
105.4941562893874
 30
0.0
 11
92.20542581182309
 21
100.0482033133874
 31
0.0
  0
LINE
  5
411E
330
1A
100
AcDbEntity
  8
SEIHIN
100
AcDbLine
 10
112.1022683118231
 20
92.40529080338751
 30
0.0
 11
117.5922047118231
 21
105.3387703723875
 31
0.0
  0
CIRCLE
  5
411F
330
1A
100
AcDbEntity
  8
SEIHIN
100
AcDbCircle
 10
100.6693884118231
 20
100.1589464433874
 30
0.0
 40
3.500000004238516
  0
ARC
  5
4120
330
1A
100
AcDbEntity
  8
SEIHIN
100
AcDbCircle
 10
101.1693884118231
 20
96.65894644338749
 30
0.0
 40
9.535085152808647
100
AcDbArc
 50
4.916661302937096
 51
179.9998615479522
  0
LINE
  5
4121
330
1A
100
AcDbEntity
  8
SEIHIN
100
AcDbLine
 10
85.66938841182315
 20
76.16534279338748
 30
0.0
 11
110.6693884138231
 21
76.16534279338748
 31
0.0
  0
LINE
  5
4122
330
1A
100
AcDbEntity
  8
SEIHIN
100
AcDbLine
 10
85.66938841182315
 20
76.16534279338748
 30
0.0
 11
85.66938841182315
 21
95.16534279538745
 31
0.0
  0
LINE
  5
4125
330
1A
100
AcDbEntity
  8
SEIHIN
100
AcDbLine
 10
89.63429974182316
 20
95.16534043738749
 30
0.0
 11
89.63428361182314
 21
88.32721898338746
 31
0.0
  0
LINE
  5
4126
330
1A
100
AcDbEntity
  8
SEIHIN
100
AcDbLine
 10
91.63430326182316
 20
96.65896948438751
 30
0.0
 11
91.63428361182315
 21
88.32721898338746
 31
0.0
  0
LINE
  5
412C
330
1A
100
AcDbEntity
  8
SEIHIN
100
AcDbLine
 10
89.63428361182314
 20
88.32721898338746
 30
0.0
 11
91.63428361182315
 21
88.32721898338746
 31
0.0
  0
LINE
  5
412D
330
1A
100
AcDbEntity
  8
SEIHIN
100
AcDbLine
 10
91.26938841182317
 20
95.35894644338748
 30
0.0
 11
91.26937426182314
 21
89.35894408538752
 31
0.0
  0
LINE
  5
412E
330
1A
100
AcDbEntity
  8
SEIHIN
100
AcDbLine
 10
90.26938841182317
 20
95.35894644338748
 30
0.0
 11
90.26937426182314
 21
89.35894644338748
 31
0.0
  0
LINE
  5
412F
330
1A
100
AcDbEntity
  8
SEIHIN
100
AcDbLine
 10
89.63428604549795
 20
89.35894644338748
 30
0.0
 11
91.63428604182314
 21
89.35894644338748
 31
0.0
  0
ARC
  5
4130
330
1A
100
AcDbEntity
  8
SEIHIN
100
AcDbCircle
 10
88.63429974182315
 20
95.16534279538745
 30
0.0
 40
1.000000000001389
100
AcDbArc
 50
359.9998648965509
 51
90.0
  0
LINE
  5
4131
330
1A
100
AcDbEntity
  8
SEIHIN
100
AcDbLine
 10
88.63429974182315
 20
96.16534279538747
 30
0.0
 11
86.66938841182314
 21
96.16534279538747
 31
0.0
  0
ARC
  5
4132
330
1A
100
AcDbEntity
  8
SEIHIN
100
AcDbCircle
 10
86.66938841182314
 20
95.16534279538745
 30
0.0
 40
1.0
100
AcDbArc
 50
90.0
 51
180.0
  0
LINE
  5
4133
330
1A
100
AcDbEntity
  8
SEIHIN
100
AcDbLine
 10
90.26938841182317
 20
95.35894644338748
 30
0.0
 11
91.63430019182317
 21
95.35894644338748
 31
0.0
  0
LINE
  5
4135
330
1A
100
AcDbEntity
  8
SEIHIN
100
AcDbLine
 10
98.16938841182315
 20
86.85894644338748
 30
0.0
 11
103.1693884118231
 21
86.85894644338748
 31
0.0
  0
LINE
  5
4138
330
1A
100
AcDbEntity
  8
SEIHIN
100
AcDbLine
 10
103.1693884118231
 20
80.85894644338749
 30
0.0
 11
98.16938841182315
 21
80.85894644338749
 31
0.0
  0
LINE
  5
4139
330
1A
100
AcDbEntity
  8
SEIHIN
100
AcDbLine
 10
97.16938841182315
 20
85.85894644338749
 30
0.0
 11
97.16938841182315
 21
81.85894644338748
 31
0.0
  0
ARC
  5
413A
330
1A
100
AcDbEntity
  8
SEIHIN
100
AcDbCircle
 10
98.16938841182315
 20
81.85894644338748
 30
0.0
 40
1.0
100
AcDbArc
 50
180.0
 51
270.0
  0
ARC
  5
413C
330
1A
100
AcDbEntity
  8
SEIHIN
100
AcDbCircle
 10
98.16938841182315
 20
85.85894644338749
 30
0.0
 40
1.0
100
AcDbArc
 50
90.0
 51
180.0
  0
LINE
  5
4142
330
1A
100
AcDbEntity
  8
SEIHIN
100
AcDbLine
 10
104.1693884118231
 20
85.85894644338749
 30
0.0
 11
104.1693884118231
 21
81.85894644338748
 31
0.0
  0
ARC
  5
4143
330
1A
100
AcDbEntity
  8
SEIHIN
100
AcDbCircle
 10
103.1693884118231
 20
81.85894644338748
 30
0.0
 40
1.0
100
AcDbArc
 50
270.0
 51
0.0
  0
ARC
  5
4144
330
1A
100
AcDbEntity
  8
SEIHIN
100
AcDbCircle
 10
103.1693884118231
 20
85.85894644338749
 30
0.0
 40
1.0
100
AcDbArc
 50
0.0
 51
90.0
  0
LINE
  5
4145
330
1A
100
AcDbEntity
  8
SEIHIN
100
AcDbLine
 10
110.6693884138231
 20
76.16534279338748
 30
0.0
 11
110.6693884138231
 21
97.47616666238748
 31
0.0
  0
ARC
  5
414E
330
1A
100
AcDbEntity
  8
SEIHIN
100
AcDbCircle
 10
107.4997440118231
 20
94.35894644338748
 30
0.0
 40
5.00000003649864
100
AcDbArc
 50
309.3405862842468
 51
337.0000001723857
  0
LINE
  5
4151
330
1A
100
AcDbEntity
  8
SEIHIN
100
AcDbLine
 10
109.4191491118231
 20
101.4400861033875
 30
0.0
 11
112.5203530118231
 21
108.7460645933875
 31
0.0
  0
ARC
  5
4152
330
1A
100
AcDbEntity
  8
SEIHIN
100
AcDbCircle
 10
110.2857140118231
 20
102.1548126933875
 30
0.0
 40
2.000000009547898
100
AcDbArc
 50
81.39257647660745
 51
140.269157328916
  0
LINE
  5
4153
330
1A
100
AcDbEntity
  8
SEIHIN
100
AcDbLine
 10
110.6597358118231
 20
106.1284165693875
 30
0.0
 11
98.98327981182314
 21
107.7775273793875
 31
0.0
  0
LINE
  5
4154
330
1A
100
AcDbEntity
  8
SEIHIN
100
AcDbLine
 10
110.7249614118231
 20
105.1092802493875
 30
0.0
 11
98.31864191182313
 21
106.8614724813875
 31
0.0
  0
ARC
  5
4155
330
1A
100
AcDbEntity
  8
SEIHIN
100
AcDbCircle
 10
93.96475201182312
 20
105.3543103083874
 30
0.0
 40
1.000000009640918
100
AcDbArc
 50
81.96107065881095
 51
171.9610663765923
  0
ARC
  5
4156
330
1A
100
AcDbEntity
  8
SEIHIN
100
AcDbCircle
 10
97.3143127118231
 20
106.9010874703874
 30
0.0
 40
0.9999999676895662
100
AcDbArc
 50
261.9610649935477
 51
351.9610655186018
  0
LINE
  5
4157
330
1A
100
AcDbEntity
  8
SEIHIN
100
AcDbLine
 10
97.17446671182308
 20
105.9109142013875
 30
0.0
 11
94.10459791182308
 21
106.3444835763875
 31
0.0
  0
LINE
  5
4158
330
1A
100
AcDbEntity
  8
SEIHIN
100
AcDbLine
 10
98.30448591182312
 20
106.7612414893874
 30
0.0
 11
98.3843696118231
 21
107.3268539173874
 31
0.0
  0
ARC
  5
4159
330
1A
100
AcDbEntity
  8
SEIHIN
100
AcDbCircle
 10
98.9091614118231
 20
107.2527355473875
 30
0.0
 40
0.5299999859769696
100
AcDbArc
 50
81.96106284407187
 51
171.9610655715811
  0
LINE
  5
415A
330
1A
100
AcDbEntity
  8
SEIHIN
100
AcDbLine
 10
108.340473111823
 20
102.9433232733874
 30
0.0
 11
108.7476028118231
 21
103.4331765033875
 31
0.0
  0
ARC
  5
415B
330
1A
100
AcDbEntity
  8
SEIHIN
100
AcDbCircle
 10
122.6459064123243
 20
104.4480221763057
 30
0.0
 40
11.00000000680566
100
AcDbArc
 50
97.00000011658158
 51
157.0000000263018
  0
ARC
  5
415C
330
1A
100
AcDbEntity
  8
SEIHIN
100
AcDbCircle
 10
124.035738611823
 20
102.6036524733875
 30
0.0
 40
6.999999965304857
100
AcDbArc
 50
96.99999996932376
 51
156.9999997660007
  0
LINE
  5
415D
330
1A
100
AcDbEntity
  8
SEIHIN
100
AcDbLine
 10
110.6597358118231
 20
106.1284165693875
 30
0.0
 11
111.7609781118231
 21
106.9570895833875
 31
0.0
  0
ARC
  5
415E
330
1A
100
AcDbEntity
  8
SEIHIN
100
AcDbCircle
 10
110.7948844118231
 20
105.6043668833875
 30
0.0
 40
0.5000000014358297
100
AcDbArc
 50
261.9610649855335
 51
306.9610665450052
  0
LINE
  5
415F
330
1A
100
AcDbEntity
  8
SEIHIN
100
AcDbLine
 10
121.9816919118231
 20
117.7490194893874
 30
0.0
 11
121.0756715118231
 21
118.1722535123874
 31
0.0
  0
LINE
  5
4160
330
1A
100
AcDbEntity
  8
SEIHIN
100
AcDbLine
 10
119.6320204118231
 20
115.0270812633875
 30
0.0
 11
121.0756715118231
 21
118.1722535123874
 31
0.0
  0
LINE
  5
4161
330
1A
100
AcDbEntity
  8
SEIHIN
100
AcDbLine
 10
120.864559111823
 20
115.3028276573875
 30
0.0
 11
121.9816919118231
 21
117.7490194893874
 31
0.0
  0
ARC
  5
4192
330
1A
100
AcDbEntity
  8
SEIHIN
100
AcDbCircle
 10
200.0499890618231
 20
122.9487026753874
 30
0.0
 40
3.999999997588011
100
AcDbArc
 50
21.80141956733515
 51
170.7918456040361
  0
LINE
  5
4193
330
1A
100
AcDbEntity
  8
SEIHIN
100
AcDbLine
 10
203.763895561823
 20
124.4342660333874
 30
0.0
 11
205.992239881823
 21
118.8634052353875
 31
0.0
  0
ARC
  5
4194
330
1A
100
AcDbEntity
  8
SEIHIN
100
AcDbCircle
 10
189.1917405518231
 20
124.7089411133874
 30
0.0
 40
1.00000000424709
100
AcDbArc
 50
277.0000142444682
 51
350.7918454836308
  0
ARC
  5
4195
330
1A
100
AcDbEntity
  8
SEIHIN
100
AcDbCircle
 10
189.1933412518231
 20
124.7228864733875
 30
0.0
 40
7.000000001095694
100
AcDbArc
 50
277.0000000535576
 51
350.7918456474332
  0
ARC
  5
4196
330
1A
100
AcDbEntity
  8
SEIHIN
100
AcDbCircle
 10
200.0499890618231
 20
122.9487026753874
 30
0.0
 40
9.999999996030272
100
AcDbArc
 50
47.64334219921152
 51
170.7918456294877
  0
LINE
  5
4197
330
1A
100
AcDbEntity
  8
SEIHIN
100
AcDbLine
 10
86.54207486182315
 20
224.9106425559895
 30
0.0
 11
53.62886168182303
 21
224.9106425559895
 31
0.0
  0
LINE
  5
4198
330
1A
100
AcDbEntity
  8
SEIHIN
100
AcDbLine
 10
86.54207486182315
 20
209.9106425159894
 30
0.0
 11
53.62886168182303
 21
209.9106425159895
 31
0.0
  0
DIMENSION
  5
4199
330
1A
100
AcDbEntity
  8
SUNPOU
100
AcDbDimension
  2
*D7
 10
38.236268120007
 20
206.4106425159894
 30
0.0
 11
35.73626812000697
 21
217.4106425359894
 31
0.0
 70
    32
 71
     5
 42
-1.0
  3
STANDARD
100
AcDbAlignedDimension
 13
51.12886168182303
 23
228.4106425559894
 33
0.0
 14
51.12886168182303
 24
206.4106425159894
 34
0.0
 50
90.0
100
AcDbRotatedDimension
1001
ACAD
1000
DSTYLE
1002
{
1070
    41
1040
3.0
1070
    42
1040
3.0
1070
    43
1040
7.0
1070
    44
1040
1.5
1070
    73
1070
     0
1070
    74
1070
     0
1070
    77
1070
     3
1070
   140
1040
3.0
1070
   141
1040
3.0
1070
   147
1040
1.0
1070
   172
1070
     1
1070
   173
1070
     1
1070
   176
1070
   256
1070
   177
1070
   256
1070
   178
1070
   256
1070
   271
1070
     0
1070
   272
1070
     0
1070
   341
1005
B2
1070
     6
1000
OPEN
1070
     7
1000
OPEN
1002
}
  0
LINE
  5
419A
330
1A
100
AcDbEntity
  8
SEIHIN
100
AcDbLine
 10
53.62886168182303
 20
224.9106425559894
 30
0.0
 11
53.62886168182303
 21
209.9106425159894
 31
0.0
  0
LINE
  5
419B
330
1A
100
AcDbEntity
  8
SEIHIN
100
AcDbLine
 10
51.12886168182303
 20
206.4106425159894
 30
0.0
 11
51.12886168182303
 21
228.4106425559894
 31
0.0
  0
LINE
  5
419C
330
1A
100
AcDbEntity
  8
SEIHIN
100
AcDbLine
 10
51.12886168182303
 20
206.4106425159894
 30
0.0
 11
53.62886168182303
 21
206.4106425159894
 31
0.0
  0
LINE
  5
419D
330
1A
100
AcDbEntity
  8
SEIHIN
100
AcDbLine
 10
53.62886168182303
 20
206.4106425159894
 30
0.0
 11
53.62886168182303
 21
209.9106425159894
 31
0.0
  0
LINE
  5
419E
330
1A
100
AcDbEntity
  8
SEIHIN
100
AcDbLine
 10
53.62886168182303
 20
224.9106425559894
 30
0.0
 11
53.62886168182303
 21
228.4106425559894
 31
0.0
  0
LINE
  5
419F
330
1A
100
AcDbEntity
  8
SEIHIN
100
AcDbLine
 10
53.62886168182303
 20
228.4106425559894
 30
0.0
 11
53.62886168182303
 21
224.9106425559894
 31
0.0
  0
LINE
  5
41A0
330
1A
100
AcDbEntity
  8
SEIHIN
100
AcDbLine
 10
51.12886168182303
 20
228.4106425559894
 30
0.0
 11
53.62886168182303
 21
228.4106425559894
 31
0.0
  0
LINE
  5
41A1
330
1A
100
AcDbEntity
  8
SEIHIN
100
AcDbLine
 10
110.6693884138231
 20
209.4106425159894
 30
0.0
 11
91.63454192182314
 21
209.4106885159894
 31
0.0
  0
LINE
  5
41A2
330
1A
100
AcDbEntity
  8
SEIHIN
100
AcDbLine
 10
91.63458059182312
 20
225.4106425559895
 30
0.0
 11
110.6693884138231
 21
225.4106425559895
 31
0.0
  0
LINE
  5
41A3
330
1A
100
AcDbEntity
  8
SEIHIN
100
AcDbLine
 10
91.48867482182316
 20
211.1385688759895
 30
0.0
 11
119.0756715118231
 21
211.1385688759895
 31
0.0
  0
LINE
  5
41A4
330
1A
100
AcDbEntity
  8
SEIHIN
100
AcDbLine
 10
94.27819437182312
 20
213.2561985059894
 30
0.0
 11
116.3368814968231
 21
213.2561985059894
 31
0.0
  0
LINE
  5
41A5
330
1A
100
AcDbEntity
  8
SEIHIN
100
AcDbLine
 10
91.48867482182316
 20
223.6827161559895
 30
0.0
 11
119.0756715118231
 21
223.6827161559895
 31
0.0
  0
LINE
  5
41A6
330
1A
100
AcDbEntity
  8
SEIHIN
100
AcDbLine
 10
94.27819437182312
 20
221.5650865559894
 30
0.0
 11
116.3368814968231
 21
221.5650865559894
 31
0.0
  0
LINE
  5
41A7
330
1A
100
AcDbEntity
  8
SEIHIN
100
AcDbLine
 10
109.7718109008231
 20
214.2561985059894
 30
0.0
 11
109.7718109008231
 21
220.5650865259895
 31
0.0
  0
LINE
  5
41A8
330
1A
100
AcDbEntity
  8
SEIHIN
100
AcDbLine
 10
94.27819437182312
 20
211.1385688759895
 30
0.0
 11
94.27819437182312
 21
223.6827161559895
 31
0.0
  0
ARC
  5
41A9
330
1A
100
AcDbEntity
  8
SEIHIN
100
AcDbCircle
 10
91.48867482182316
 20
217.4106425159894
 30
0.0
 40
3.000000000000011
100
AcDbArc
 50
90.00000515662017
 51
269.9999952253516
  0
LINE
  5
41AA
330
1A
100
AcDbEntity
  8
SEIHIN
100
AcDbLine
 10
91.48867482182316
 20
222.6827161559895
 30
0.0
 11
91.48867482182316
 21
212.1385688759894
 31
0.0
  0
LINE
  5
41AB
330
1A
100
AcDbEntity
  8
SEIHIN
100
AcDbLine
 10
91.48867482182316
 20
215.4860311759894
 30
0.0
 11
94.27819437182312
 21
215.4860311759894
 31
0.0
  0
LINE
  5
41AC
330
1A
100
AcDbEntity
  8
SEIHIN
100
AcDbLine
 10
94.27819437182312
 20
212.1385688759894
 30
0.0
 11
91.48867482182316
 21
212.1385688759894
 31
0.0
  0
ARC
  5
41AD
330
1A
100
AcDbEntity
  8
SEIHIN
100
AcDbCircle
 10
91.20229138182315
 20
209.9106425159894
 30
0.0
 40
1.0
100
AcDbArc
 50
90.0
 51
180.0
  0
LINE
  5
41AE
330
1A
100
AcDbEntity
  8
SEIHIN
100
AcDbLine
 10
85.66938841182315
 20
209.4106425159894
 30
0.0
 11
89.63429573182315
 21
209.4106425159894
 31
0.0
  0
LINE
  5
41AF
330
1A
100
AcDbEntity
  8
SEIHIN
100
AcDbLine
 10
89.63453735182316
 20
209.9106425159894
 30
0.0
 11
85.66938841182315
 21
209.9106425159894
 31
0.0
  0
LINE
  5
41B0
330
1A
100
AcDbEntity
  8
SEIHIN
100
AcDbLine
 10
85.66938841182315
 20
209.4106425159894
 30
0.0
 11
85.66938841182315
 21
209.9106425159894
 31
0.0
  0
ARC
  5
41B1
330
1A
100
AcDbEntity
  8
SEIHIN
100
AcDbCircle
 10
91.70229138182316
 20
209.4106425159894
 30
0.0
 40
0.5
100
AcDbArc
 50
90.0
 51
180.0
  0
LINE
  5
41B2
330
1A
100
AcDbEntity
  8
SEIHIN
100
AcDbLine
 10
91.20229138182315
 20
209.4106425159894
 30
0.0
 11
91.20229138182315
 21
206.4106425159894
 31
0.0
  0
LINE
  5
41B3
330
1A
100
AcDbEntity
  8
SEIHIN
100
AcDbLine
 10
90.20229138182315
 20
206.4106425159894
 30
0.0
 11
90.20229138182315
 21
209.9106425159894
 31
0.0
  0
LINE
  5
41B4
330
1A
100
AcDbEntity
  8
SEIHIN
100
AcDbLine
 10
91.20229138182315
 20
206.4106425159894
 30
0.0
 11
90.20229138182315
 21
206.4106425159894
 31
0.0
  0
LINE
  5
41B5
330
1A
100
AcDbEntity
  8
SEIHIN
100
AcDbLine
 10
91.63454192182314
 20
209.4106885159894
 30
0.0
 11
91.63454313182313
 21
209.9106425159894
 31
0.0
  0
LINE
  5
41B6
330
1A
100
AcDbEntity
  8
SEIHIN
100
AcDbLine
 10
89.63453617182313
 20
209.4106425159894
 30
0.0
 11
89.63453735182316
 21
209.9106425159894
 31
0.0
  0
LINE
  5
41B7
330
1A
100
AcDbEntity
  8
SEIHIN
100
AcDbLine
 10
91.48867482182316
 20
212.1385688759894
 30
0.0
 11
91.48867482182316
 21
211.1385688759895
 31
0.0
  0
ARC
  5
41B8
330
1A
100
AcDbEntity
  8
SEIHIN
100
AcDbCircle
 10
100.6696295418231
 20
213.9289720159894
 30
0.0
 40
5.715337531631893
100
AcDbArc
 50
232.2375418744902
 51
307.7621812247562
  0
LINE
  5
41B9
330
1A
100
AcDbEntity
  8
SEIHIN
100
AcDbLine
 10
94.27819437182312
 20
211.1385688759895
 30
0.0
 11
94.27819437182312
 21
212.3385688759895
 31
0.0
  0
LINE
  5
41BA
330
1A
100
AcDbEntity
  8
SEIHIN
100
AcDbLine
 10
94.27819437182312
 20
222.6827161559895
 30
0.0
 11
91.48867482182316
 21
222.6827161559895
 31
0.0
  0
LINE
  5
41BB
330
1A
100
AcDbEntity
  8
SEIHIN
100
AcDbLine
 10
91.48867482182316
 20
219.3352538559894
 30
0.0
 11
94.27819437182312
 21
219.3352538559894
 31
0.0
  0
LINE
  5
41BC
330
1A
100
AcDbEntity
  8
SEIHIN
100
AcDbLine
 10
91.20229138182315
 20
225.4106425559895
 30
0.0
 11
91.20229138182315
 21
228.4106425559895
 31
0.0
  0
LINE
  5
41BD
330
1A
100
AcDbEntity
  8
SEIHIN
100
AcDbLine
 10
90.20229138182315
 20
228.4106425559895
 30
0.0
 11
90.20229138182315
 21
224.9106425559895
 31
0.0
  0
LINE
  5
41BE
330
1A
100
AcDbEntity
  8
SEIHIN
100
AcDbLine
 10
85.66938841182315
 20
225.4106425559895
 30
0.0
 11
89.63429573182315
 21
225.4106425559895
 31
0.0
  0
LINE
  5
41BF
330
1A
100
AcDbEntity
  8
SEIHIN
100
AcDbLine
 10
89.63457272182314
 20
224.9106425559895
 30
0.0
 11
85.66938841182315
 21
224.9106425559895
 31
0.0
  0
LINE
  5
41C0
330
1A
100
AcDbEntity
  8
SEIHIN
100
AcDbLine
 10
85.66938841182315
 20
224.9106425559895
 30
0.0
 11
85.66938841182315
 21
225.4106425559895
 31
0.0
  0
LINE
  5
41C1
330
1A
100
AcDbEntity
  8
SEIHIN
100
AcDbLine
 10
91.63457938182318
 20
224.9106425559895
 30
0.0
 11
91.63458059182312
 21
225.4106425559895
 31
0.0
  0
LINE
  5
41C2
330
1A
100
AcDbEntity
  8
SEIHIN
100
AcDbLine
 10
89.63457272182314
 20
224.9106425559895
 30
0.0
 11
89.63457390182316
 21
225.4106425559895
 31
0.0
  0
LINE
  5
41C3
330
1A
100
AcDbEntity
  8
SEIHIN
100
AcDbLine
 10
91.48867482182316
 20
222.6827161559895
 30
0.0
 11
91.48867482182316
 21
223.6827161559895
 31
0.0
  0
ARC
  5
41C4
330
1A
100
AcDbEntity
  8
SEIHIN
100
AcDbCircle
 10
91.70229138182316
 20
225.4106425559895
 30
0.0
 40
0.5
100
AcDbArc
 50
180.0
 51
270.0
  0
ARC
  5
41C5
330
1A
100
AcDbEntity
  8
SEIHIN
100
AcDbCircle
 10
91.20229138182315
 20
224.9106425559895
 30
0.0
 40
1.0
100
AcDbArc
 50
180.0
 51
270.0
  0
LINE
  5
41C6
330
1A
100
AcDbEntity
  8
SEIHIN
100
AcDbLine
 10
91.20229138182315
 20
228.4106425559895
 30
0.0
 11
90.20229138182315
 21
228.4106425559895
 31
0.0
  0
LINE
  5
41C7
330
1A
100
AcDbEntity
  8
SEIHIN
100
AcDbLine
 10
104.1696186218231
 20
226.4750809559894
 30
0.0
 11
97.16961862182314
 21
226.4750809559894
 31
0.0
  0
LINE
  5
41C8
330
1A
100
AcDbEntity
  8
SEIHIN
100
AcDbLine
 10
97.16961862182314
 20
225.4106425559895
 30
0.0
 11
104.1696186218231
 21
225.4106425559895
 31
0.0
  0
LINE
  5
41C9
330
1A
100
AcDbEntity
  8
SEIHIN
100
AcDbLine
 10
94.27819437182312
 20
223.6827161559895
 30
0.0
 11
94.27819437182312
 21
222.4827161559894
 31
0.0
  0
LINE
  5
41CA
330
1A
100
AcDbEntity
  8
SEIHIN
100
AcDbLine
 10
97.16961862182314
 20
226.4750809559894
 30
0.0
 11
97.16961862182314
 21
225.4106425559895
 31
0.0
  0
LINE
  5
41CB
330
1A
100
AcDbEntity
  8
SEIHIN
100
AcDbLine
 10
104.1696186218231
 20
225.4106425559895
 30
0.0
 11
104.1696186218231
 21
226.4750809559894
 31
0.0
  0
LINE
  5
41CC
330
1A
100
AcDbEntity
  8
SEIHIN
100
AcDbLine
 10
118.3368814968231
 20
219.5650865259894
 30
0.0
 11
118.3368814968231
 21
215.2561985059894
 31
0.0
  0
LINE
  5
41CD
330
1A
100
AcDbEntity
  8
SEIHIN
100
AcDbLine
 10
121.0756715118231
 20
213.1385688759895
 30
0.0
 11
121.0756715118231
 21
221.6827161559895
 31
0.0
  0
LINE
  5
41CE
330
1A
100
AcDbEntity
  8
SEIHIN
100
AcDbLine
 10
119.9281058048231
 20
213.1385688759895
 30
0.0
 11
119.9281058048231
 21
221.6827161559895
 31
0.0
  0
LINE
  5
41CF
330
1A
100
AcDbEntity
  8
SEIHIN
100
AcDbLine
 10
114.6137311363231
 20
214.2561985059894
 30
0.0
 11
114.6137311363231
 21
220.5650865259895
 31
0.0
  0
ARC
  5
41D0
330
1A
100
AcDbEntity
  8
SEIHIN
100
AcDbCircle
 10
116.3368814968231
 20
215.2561985059894
 30
0.0
 40
2.0
100
AcDbArc
 50
270.0
 51
0.0
  0
ARC
  5
41D1
330
1A
100
AcDbEntity
  8
SEIHIN
100
AcDbCircle
 10
117.9281058048232
 20
213.1385688759895
 30
0.0
 40
2.0
100
AcDbArc
 50
270.0
 51
0.0
  0
LINE
  5
41D2
330
1A
100
AcDbEntity
  8
SEIHIN
100
AcDbLine
 10
115.1944172176313
 20
210.9106425159894
 30
0.0
 11
115.1944172176313
 21
209.9106425159894
 31
0.0
  0
LINE
  5
41D3
330
1A
100
AcDbEntity
  8
SEIHIN
100
AcDbLine
 10
110.6693884138231
 20
209.4106425159894
 30
0.0
 11
110.6693884138231
 21
209.9106425159894
 31
0.0
  0
ARC
  5
41D4
330
1A
100
AcDbEntity
  8
SEIHIN
100
AcDbCircle
 10
119.0756715118231
 20
213.1385688759895
 30
0.0
 40
2.0
100
AcDbArc
 50
270.0
 51
0.0
  0
ARC
  5
41D5
330
1A
100
AcDbEntity
  8
SEIHIN
100
AcDbCircle
 10
119.0756715118231
 20
213.1385688759895
 30
0.0
 40
2.0
100
AcDbArc
 50
270.0
 51
0.0
  0
ARC
  5
41D6
330
1A
100
AcDbEntity
  8
SEIHIN
100
AcDbCircle
 10
117.9281058048232
 20
221.6827161559895
 30
0.0
 40
2.0
100
AcDbArc
 50
0.0
 51
90.0
  0
ARC
  5
41D7
330
1A
100
AcDbEntity
  8
SEIHIN
100
AcDbCircle
 10
116.3368814968231
 20
219.5650865259894
 30
0.0
 40
2.000000014999997
100
AcDbArc
 50
0.0
 51
90.0
  0
LINE
  5
41D8
330
1A
100
AcDbEntity
  8
SEIHIN
100
AcDbLine
 10
110.6693884138231
 20
224.9106425559895
 30
0.0
 11
110.6693884138231
 21
225.4106425559895
 31
0.0
  0
LINE
  5
41D9
330
1A
100
AcDbEntity
  8
SEIHIN
100
AcDbLine
 10
115.1944172176313
 20
224.9106425559895
 30
0.0
 11
115.1944172176313
 21
223.9106425559895
 31
0.0
  0
ARC
  5
41DA
330
1A
100
AcDbEntity
  8
SEIHIN
100
AcDbCircle
 10
119.0756715118231
 20
221.6827161559895
 30
0.0
 40
2.0
100
AcDbArc
 50
0.0
 51
90.0
  0
ARC
  5
41DB
330
1A
100
AcDbEntity
  8
SEIHIN
100
AcDbCircle
 10
119.0756715118231
 20
221.6827161559895
 30
0.0
 40
2.0
100
AcDbArc
 50
0.0
 51
90.0
  0
ARC
  5
41DC
330
1A
100
AcDbEntity
  8
SEIHIN
100
AcDbCircle
 10
195.32865383977
 20
217.4106424859895
 30
0.0
 40
3.25
100
AcDbArc
 50
112.6198649480422
 51
247.3801350519577
  0
LINE
  5
41DD
330
1A
100
AcDbEntity
  8
SEIHIN
100
AcDbLine
 10
189.6568841831762
 20
210.9106424859894
 30
0.0
 11
189.6568841831762
 21
209.9106424859895
 31
0.0
  0
LINE
  5
41DE
330
1A
100
AcDbEntity
  8
SEIHIN
100
AcDbLine
 10
194.07865383977
 20
214.4106424859895
 30
0.0
 11
194.07865383977
 21
210.9106424859894
 31
0.0
  0
LINE
  5
41DF
330
1A
100
AcDbEntity
  8
SEIHIN
100
AcDbLine
 10
189.6568841831762
 20
224.9106425259895
 30
0.0
 11
189.6568841831762
 21
223.9106425259895
 31
0.0
  0
LINE
  5
41E0
330
1A
100
AcDbEntity
  8
SEIHIN
100
AcDbLine
 10
194.07865383977
 20
223.9106425259895
 30
0.0
 11
194.07865383977
 21
220.4106424859895
 31
0.0
  0
CIRCLE
  5
41E1
330
1A
100
AcDbEntity
  8
SEIHIN
100
AcDbCircle
 10
320.302315120946
 20
145.2008420284017
 30
0.0
 40
2.999999969510066
  0
LINE
  5
41E2
330
1A
100
AcDbEntity
  8
SEIHIN
100
AcDbLine
 10
309.3731097319224
 20
149.9839399640942
 30
0.0
 11
315.6867513714443
 21
134.1998362756456
 31
0.0
  0
LINE
  5
41E3
330
1A
100
AcDbEntity
  8
SEIHIN
100
AcDbLine
 10
310.1819191445164
 20
150.3074637375428
 30
0.0
 11
316.4955607840384
 21
134.5233600490943
 31
0.0
  0
LINE
  5
41E4
330
1A
100
AcDbEntity
  8
SEIHIN
100
AcDbLine
 10
324.9178788704477
 20
156.2018477811578
 30
0.0
 11
331.2315205099695
 21
140.4177440927093
 31
0.0
  0
LINE
  5
41E5
330
1A
100
AcDbEntity
  8
SEIHIN
100
AcDbLine
 10
324.1090694578535
 20
155.8783240077092
 30
0.0
 11
330.4227110973753
 21
140.0942203192606
 31
0.0
  0
ARC
  5
41E6
330
1A
100
AcDbEntity
  8
SEIHIN
100
AcDbCircle
 10
320.302315120946
 20
145.2008420284017
 30
0.0
 40
5.024896822470276
100
AcDbArc
 50
148.4586907698118
 51
75.14412923018949
  0
LINE
  5
41E7
330
1A
100
AcDbEntity
  8
CENTER L
100
AcDbLine
 10
303.4040394286442
 20
134.9411744680451
 30
0.0
 11
298.0188745211496
 21
148.4040863867721
 31
0.0
  0
LINE
  5
41E8
330
1A
100
AcDbEntity
  8
CENTER L
100
AcDbLine
 10
298.4274042898363
 20
143.3438884767763
 30
0.0
 11
293.8964379577681
 21
154.6713040124561
 31
0.0
  0
LINE
  5
41E9
330
1A
100
AcDbEntity
  8
CENTER L
100
AcDbLine
 10
301.8256288916422
 20
151.2730794106504
 30
0.0
 11
290.4982133559623
 21
146.742113078582
 31
0.0
  0
CIRCLE
  5
41EA
330
1A
100
AcDbEntity
  8
SEIHIN
100
AcDbCircle
 10
296.1619211238022
 20
149.0075962446162
 30
0.0
 40
2.099999971727392
  0
LINE
  5
41EB
330
1A
100
AcDbEntity
  8
SEIHIN
100
AcDbLine
 10
319.1274944490746
 20
130.6361084007874
 30
0.0
 11
301.6399333727894
 21
174.3550099548933
 31
0.0
  0
LINE
  5
41EC
330
1A
100
AcDbEntity
  8
SEIHIN
100
AcDbLine
 10
318.1990177615188
 20
130.2647177161097
 30
0.0
 11
300.7114566852337
 21
173.9836192702156
 31
0.0
  0
LINE
  5
41ED
330
1A
100
AcDbEntity
  8
SEIHIN
100
AcDbLine
 10
331.1976913873
 20
135.4641873015983
 30
0.0
 11
313.7101303110148
 21
179.1830888557042
 31
0.0
  0
LINE
  5
41EE
330
1A
100
AcDbEntity
  8
SEIHIN
100
AcDbLine
 10
332.1261680748558
 20
135.8355779862761
 30
0.0
 11
314.6386069985705
 21
179.554479540382
 31
0.0
  0
DIMENSION
  5
41EF
330
1A
100
AcDbEntity
  8
SUNPOU
100
AcDbDimension
  2
*D8
 10
274.2499184611762
 20
140.2427949516969
 30
0.0
 11
275.5497857972018
 21
143.7245825541698
 31
0.0
 70
    32
 71
     5
 42
-1.0
  3
STANDARD
100
AcDbAlignedDimension
 13
290.8696039516292
 23
152.8143506298009
 33
0.0
 14
290.4982133559623
 24
146.742113078582
 34
0.0
 50
111.8014100000028
100
AcDbRotatedDimension
1001
ACAD
1000
DSTYLE
1002
{
1070
    41
1040
3.0
1070
    42
1040
3.0
1070
    43
1040
7.0
1070
    44
1040
1.5
1070
    73
1070
     0
1070
    74
1070
     0
1070
    77
1070
     3
1070
   140
1040
3.0
1070
   141
1040
3.0
1070
   147
1040
1.0
1070
   172
1070
     1
1070
   173
1070
     1
1070
   176
1070
   256
1070
   177
1070
   256
1070
   178
1070
   256
1070
   271
1070
     0
1070
   272
1070
     0
1070
   341
1005
B2
1070
     6
1000
OPEN
1070
     7
1000
OPEN
1002
}
  0
LINE
  5
41F0
330
1A
100
AcDbEntity
  8
SEIHIN
100
AcDbLine
 10
338.9646963863303
 20
169.8983221732551
 30
0.0
 11
350.8491982960187
 21
140.1870681714696
 31
0.0
  0
DIMENSION
  5
41F1
330
1A
100
AcDbEntity
  8
SUNPOU
100
AcDbDimension
  2
*D9
 10
276.4101076378917
 20
108.25736520353
 30
0.0
 11
272.0462670325807
 21
125.8984222912285
 31
0.0
 70
    32
 71
     5
 42
-1.0
  3
STANDARD
100
AcDbAlignedDimension
 13
290.8696039516292
 23
152.8143506298009
 33
0.0
 14
304.2396686000285
 24
119.3891898777923
 34
0.0
 50
111.8014100000028
100
AcDbRotatedDimension
1001
ACAD
1000
DSTYLE
1002
{
1070
    41
1040
3.0
1070
    42
1040
3.0
1070
    43
1040
7.0
1070
    44
1040
1.5
1070
    73
1070
     0
1070
    74
1070
     0
1070
    77
1070
     3
1070
   140
1040
3.0
1070
   141
1040
3.0
1070
   147
1040
1.0
1070
   172
1070
     1
1070
   173
1070
     1
1070
   176
1070
   256
1070
   177
1070
   256
1070
   178
1070
   256
1070
   271
1070
     0
1070
   272
1070
     0
1070
   341
1005
B2
1070
     6
1000
OPEN
1070
     7
1000
OPEN
1002
}
  0
LINE
  5
41F2
330
1A
100
AcDbEntity
  8
CENTER L
100
AcDbLine
 10
305.0752970491577
 20
183.2683862181894
 30
0.0
 11
329.5870822378899
 21
121.9889248395068
 31
0.0
  0
LINE
  5
41F3
330
1A
100
AcDbEntity
  8
SEIHIN
100
AcDbLine
 10
289.755431945873
 20
150.2146158853338
 30
0.0
 11
301.6399338555615
 21
120.5033618835483
 31
0.0
  0
LINE
  5
41F4
330
1A
100
AcDbEntity
  8
CENTER L
100
AcDbLine
 10
350.1064168859296
 20
143.6595709782213
 30
0.0
 11
338.7790013502498
 21
139.1286046461531
 31
0.0
  0
LINE
  5
41F5
330
1A
100
AcDbEntity
  8
SEIHIN
100
AcDbLine
 10
349.7350262902626
 20
137.5873334270025
 30
0.0
 11
304.2396686000285
 21
119.3891898777923
 31
0.0
  0
TEXT
  5
41F6
330
1A
100
AcDbEntity
  8
SUNPOU
100
AcDbText
 10
232.6528637704961
 20
53.82796248528475
 30
0.0
 40
3.0
  1
4
100
AcDbText
  0
LINE
  5
41F7
330
1A
100
AcDbEntity
  8
SEIHIN
100
AcDbLine
 10
209.9846896518231
 20
120.4603851443874
 30
0.0
 11
223.3547540018231
 21
87.03522427338748
 31
0.0
  0
LINE
  5
41F8
330
1A
100
AcDbEntity
  8
SEIHIN
100
AcDbLine
 10
211.098861681823
 20
120.9060539553875
 30
0.0
 11
224.4689260318231
 21
87.48089308338752
 31
0.0
  0
LINE
  5
41F9
330
1A
100
AcDbEntity
  8
SEIHIN
  6
DASHED
 62
     2
100
AcDbLine
 10
233.2481322018231
 20
84.99257555338749
 30
0.0
 11
219.8780678518231
 21
118.4177364243875
 31
0.0
  0
LINE
  5
41FA
330
1A
100
AcDbEntity
  8
SEIHIN
  6
DASHED
 62
     2
100
AcDbLine
 10
226.098861681823
 20
120.9060539553875
 30
0.0
 11
239.4689260318231
 21
87.48089308338752
 31
0.0
  0
LINE
  5
41FB
330
1A
100
AcDbEntity
  8
SEIHIN
  6
DASHED
 62
     2
100
AcDbLine
 10
224.984689651823
 20
120.4603851443874
 30
0.0
 11
238.3547540018231
 21
87.03522427338748
 31
0.0
  0
LINE
  5
41FC
330
1A
100
AcDbEntity
  8
CENTER L
100
AcDbLine
 10
243.7399188403284
 20
95.65148796126152
 30
0.0
 11
229.6270731370599
 21
90.00634968449139
 31
0.0
  0
LINE
  5
41FD
330
1A
100
AcDbEntity
  8
SUNPOU
100
AcDbLine
 10
224.4689260318231
 20
87.48089308338752
 30
0.0
 11
235.8967395589052
 21
58.91135926568235
 31
0.0
  0
LINE
  5
41FE
330
1A
100
AcDbEntity
  8
SUNPOU
100
AcDbLine
 10
231.8967395589052
 20
58.91135926568235
 30
0.0
 11
231.8967395589052
 21
68.91135926568235
 31
0.0
  0
TEXT
  5
41FF
330
1A
100
AcDbEntity
  8
SUNPOU
100
AcDbText
 10
226.1777201727088
 20
63.07050159039842
 30
0.0
 40
3.0
  1
10
100
AcDbText
  0
LINE
  5
4200
330
1A
100
AcDbEntity
  8
SUNPOU
100
AcDbLine
 10
235.8967395589052
 20
58.91135926568235
 30
0.0
 11
231.8967395589052
 21
58.91135926568235
 31
0.0
  0
LINE
  5
4201
330
1A
100
AcDbEntity
  8
CENTER L
100
AcDbLine
 10
228.7399188103285
 20
95.65148796126152
 30
0.0
 11
214.62707310706
 21
90.00634968449139
 31
0.0
  0
LINE
  5
4202
330
1A
100
AcDbEntity
  8
SEIHIN
100
AcDbLine
 10
224.4689260318231
 20
87.48089308338752
 30
0.0
 11
218.2481322018231
 21
84.99257555338749
 31
0.0
  0
LINE
  5
4203
330
1A
100
AcDbEntity
  8
SEIHIN
100
AcDbLine
 10
219.2694570252246
 20
97.24846672043945
 30
0.0
 11
217.5981989913321
 21
93.34886459363543
 31
0.0
  0
LINE
  5
4204
330
1A
100
AcDbEntity
  8
SEIHIN
100
AcDbLine
 10
217.5981989913321
 20
93.34886459363543
 30
0.0
 11
221.4978010827744
 21
91.67760657489798
 31
0.0
  0
LINE
  5
4205
330
1A
100
AcDbEntity
  8
SEIHIN
100
AcDbLine
 10
217.5981989913321
 20
93.34886459363543
 30
0.0
 11
220.3836290639261
 21
94.46303662285213
 31
0.0
  0
LINE
  5
4206
330
1A
100
AcDbEntity
  8
SEIHIN
  6
DASHED
 62
     2
100
AcDbLine
 10
239.4689260318231
 20
87.48089308338752
 30
0.0
 11
233.2481322018231
 21
84.99257555338749
 31
0.0
  0
ARC
  5
4207
330
1A
100
AcDbEntity
  8
SEIHIN
  6
DASHED
 62
     2
100
AcDbCircle
 10
215.0499890618231
 20
122.9487026753874
 30
0.0
 40
3.999999997588018
100
AcDbArc
 50
21.80141956733515
 51
170.7918456040361
  0
LINE
  5
4208
330
1A
100
AcDbEntity
  8
SEIHIN
  6
DASHED
 62
     2
100
AcDbLine
 10
221.7874248568035
 20
130.3383548207271
 30
0.0
 11
225.6346233418231
 21
120.7203586173875
 31
0.0
  0
LINE
  5
4209
330
1A
100
AcDbEntity
  8
SEIHIN
  6
DASHED
 62
     2
100
AcDbLine
 10
218.763895561823
 20
124.4342660333874
 30
0.0
 11
220.9922398818231
 21
118.8634052353875
 31
0.0
  0
LINE
  5
420A
330
1A
100
AcDbEntity
  8
SEIHIN
  6
DASHED
 62
     2
100
AcDbLine
 10
219.8780678518231
 20
118.4177364243875
 30
0.0
 11
226.098861681823
 21
120.9060539553875
 31
0.0
  0
LINE
  5
420B
330
1A
100
AcDbEntity
  8
CENTER L
100
AcDbLine
 10
220.713696903884
 20
112.2897902640981
 30
0.0
 11
234.8265426071524
 21
117.9349285408682
 31
0.0
  0
LINE
  5
420C
330
1A
100
AcDbEntity
  8
CENTER L
100
AcDbLine
 10
223.6848223150999
 20
104.8619767371693
 30
0.0
 11
237.7976680183684
 21
110.5071150139393
 31
0.0
  0
LINE
  5
420D
330
1A
100
AcDbEntity
  8
SEIHIN
100
AcDbLine
 10
210.1703854661658
 20
111.9183984121068
 30
0.0
 11
212.9558155387598
 21
113.0325704413235
 31
0.0
  0
LINE
  5
420E
330
1A
100
AcDbEntity
  8
SEIHIN
100
AcDbLine
 10
211.8416435000582
 20
115.8180005389108
 30
0.0
 11
210.1703854661658
 21
111.9183984121068
 31
0.0
  0
LINE
  5
420F
330
1A
100
AcDbEntity
  8
CENTER L
100
AcDbLine
 10
208.6848222850999
 20
104.8619767371693
 30
0.0
 11
222.7976679883685
 21
110.5071150139393
 31
0.0
  0
LINE
  5
4210
330
1A
100
AcDbEntity
  8
SEIHIN
100
AcDbLine
 10
210.1703854661658
 20
111.9183984121068
 30
0.0
 11
214.0699875576081
 21
110.2471403933694
 31
0.0
  0
LINE
  5
4211
330
1A
100
AcDbEntity
  8
CENTER L
100
AcDbLine
 10
307.4429129342604
 20
144.3652128811559
 30
0.0
 11
293.9800010155334
 21
138.9800479736612
 31
0.0
  0
LINE
  5
4212
330
1A
100
AcDbEntity
  8
CENTER L
100
AcDbLine
 10
307.7121714067804
 20
120.1319712878814
 30
0.0
 11
303.181205074712
 21
131.4593868235611
 31
0.0
  0
LINE
  5
4213
330
1A
100
AcDbEntity
  8
CENTER L
100
AcDbLine
 10
311.1103960085861
 20
128.0611622217554
 30
0.0
 11
299.7829804729063
 21
123.5301958896872
 31
0.0
  0
CIRCLE
  5
4214
330
1A
100
AcDbEntity
  8
SEIHIN
100
AcDbCircle
 10
305.4466882407462
 20
125.7956790557213
 30
0.0
 40
2.099999986565482
  0
DIMENSION
  5
4215
330
1A
100
AcDbEntity
  8
SUNPOU
100
AcDbDimension
  2
*D10
 10
285.577334343848
 20
111.9242559812451
 30
0.0
 11
286.8772016798735
 21
115.4060435837181
 31
0.0
 70
    32
 71
     5
 42
-1.0
  3
STANDARD
100
AcDbAlignedDimension
 13
299.7829804729063
 23
123.5301958896872
 33
0.0
 14
304.2396686000285
 24
119.3891898777923
 34
0.0
 50
111.8014100000028
100
AcDbRotatedDimension
1001
ACAD
1000
DSTYLE
1002
{
1070
    41
1040
3.0
1070
    42
1040
3.0
1070
    43
1040
7.0
1070
    44
1040
1.5
1070
    73
1070
     0
1070
    74
1070
     0
1070
    77
1070
     3
1070
   140
1040
3.0
1070
   141
1040
3.0
1070
   147
1040
1.0
1070
   172
1070
     1
1070
   173
1070
     1
1070
   176
1070
   256
1070
   177
1070
   256
1070
   178
1070
   256
1070
   271
1070
     0
1070
   272
1070
     0
1070
   341
1005
B2
1070
     6
1000
OPEN
1070
     7
1000
OPEN
1002
}
  0
ARC
  5
4216
330
1A
100
AcDbEntity
  8
SEIHIN
100
AcDbCircle
 10
303.496887230673
 20
121.2461432529039
 30
0.0
 40
2.0
100
AcDbArc
 50
201.8014099999988
 51
291.8014099999993
  0
CIRCLE
  5
4217
330
1A
100
AcDbEntity
  8
SEIHIN
100
AcDbCircle
 10
300.7114569748968
 20
141.6726304274085
 30
0.0
 40
3.249999972626075
  0
LINE
  5
4218
330
1A
100
AcDbEntity
  8
SEIHIN
100
AcDbLine
 10
330.0835193815438
 20
132.8644525571312
 30
0.0
 11
321.7272291935417
 21
129.5219363950313
 31
0.0
  0
LINE
  5
4219
330
1A
100
AcDbEntity
  8
SEIHIN
100
AcDbLine
 10
313.2660977944201
 20
133.231574819663
 30
0.0
 11
316.4955607840384
 21
134.5233600490943
 31
0.0
  0
LINE
  5
421A
330
1A
100
AcDbEntity
  8
SEIHIN
100
AcDbLine
 10
314.3802698484533
 20
130.4461447569956
 30
0.0
 11
318.5382095256274
 21
132.1093206711046
 31
0.0
  0
LINE
  5
421B
330
1A
100
AcDbEntity
  8
SEIHIN
100
AcDbLine
 10
313.2660977944201
 20
133.231574819663
 30
0.0
 11
314.3802698484533
 21
130.4461447569956
 31
0.0
  0
ARC
  5
421C
330
1A
100
AcDbEntity
  8
SEIHIN
100
AcDbCircle
 10
320.9844478241862
 20
131.3788897701429
 30
0.0
 40
2.0
100
AcDbArc
 50
201.8014099999988
 51
291.8014099999993
  0
LINE
  5
421D
330
1A
100
AcDbEntity
  8
SEIHIN
100
AcDbLine
 10
317.6097328380716
 20
131.7379299864269
 30
0.0
 11
320.0237722884771
 21
125.7028315173142
 31
0.0
  0
LINE
  5
421E
330
1A
100
AcDbEntity
  8
SEIHIN
100
AcDbLine
 10
316.8009234254775
 20
131.4144062129782
 30
0.0
 11
319.214962875883
 21
125.3793077438655
 31
0.0
  0
LINE
  5
421F
330
1A
100
AcDbEntity
  8
SEIHIN
100
AcDbLine
 10
316.4955607840384
 20
134.5233600490943
 30
0.0
 11
317.6097328380716
 21
131.7379299864269
 31
0.0
  0
LINE
  5
4220
330
1A
100
AcDbEntity
  8
SEIHIN
100
AcDbLine
 10
331.5368831514086
 20
137.3087902565932
 30
0.0
 11
333.9509226018141
 21
131.2736917874806
 31
0.0
  0
LINE
  5
4221
330
1A
100
AcDbEntity
  8
SEIHIN
100
AcDbLine
 10
332.3456925640028
 20
137.6323140300419
 30
0.0
 11
334.7597320144083
 21
131.5972155609292
 31
0.0
  0
ARC
  5
4222
330
1A
100
AcDbEntity
  8
SEIHIN
100
AcDbCircle
 10
329.3407380121884
 20
134.7214059322428
 30
0.0
 40
2.0
100
AcDbArc
 50
291.8014099999993
 51
21.80140999999843
  0
LINE
  5
4223
330
1A
100
AcDbEntity
  8
SEIHIN
100
AcDbLine
 10
330.4227110973753
 20
140.0942203192606
 30
0.0
 11
331.5368831514086
 21
137.3087902565932
 31
0.0
  0
LINE
  5
4224
330
1A
100
AcDbEntity
  8
SEIHIN
100
AcDbLine
 10
333.6521740869938
 20
141.3860055486919
 30
0.0
 11
330.4227110973753
 21
140.0942203192606
 31
0.0
  0
LINE
  5
4225
330
1A
100
AcDbEntity
  8
SEIHIN
100
AcDbLine
 10
334.7663461410269
 20
138.6005754860245
 30
0.0
 11
330.6084064638528
 21
136.9373995719155
 31
0.0
  0
LINE
  5
4226
330
1A
100
AcDbEntity
  8
SEIHIN
100
AcDbLine
 10
333.6521740869938
 20
141.3860055486919
 30
0.0
 11
334.7663461410269
 21
138.6005754860245
 31
0.0
  0
CIRCLE
  5
4227
330
1A
100
AcDbEntity
  8
SEIHIN
100
AcDbCircle
 10
344.4427091180897
 20
141.3940878121872
 30
0.0
 40
2.099999986565493
  0
LINE
  5
4228
330
1A
100
AcDbEntity
  8
CENTER L
100
AcDbLine
 10
346.7081922841238
 20
135.7303800443473
 30
0.0
 11
342.1772259520555
 21
147.0577955800271
 31
0.0
  0
ARC
  5
4229
330
1A
100
AcDbEntity
  8
SEIHIN
100
AcDbCircle
 10
348.9922449209071
 20
139.4442868021141
 30
0.0
 40
2.0
100
AcDbArc
 50
291.8014099999993
 51
21.80140999999843
  0
SPLINE
  5
422A
330
1A
100
AcDbEntity
  8
SEIHIN
 62
     3
100
AcDbSpline
210
0.0
220
0.0
230
1.0
 70
     8
 71
     3
 72
    43
 73
    39
 74
     0
 42
0.0000000001
 43
0.0000000001
 40
2.573801265649998
 40
2.573801265649998
 40
2.573801265649998
 40
2.573801265649998
 40
2.743484381278567
 40
2.743484381278567
 40
2.952958003969503
 40
2.952958003969503
 40
3.162431626660439
 40
3.162431626660439
 40
3.371905249351375
 40
3.371905249351375
 40
3.581378872042312
 40
3.581378872042312
 40
3.790852494733248
 40
3.790852494733248
 40
4.212890898554042
 40
4.212890898554042
 40
4.634929302374836
 40
4.634929302374836
 40
4.712388980384689
 40
4.712388980384689
 40
4.712388980384689
 40
5.035006403854932
 40
5.035006403854932
 40
5.40458618261824
 40
5.40458618261824
 40
5.774165961381548
 40
5.774165961381548
 40
6.00394318856648
 40
6.00394318856648
 40
6.233720415751411
 40
6.233720415751411
 40
6.426033209648384
 40
6.426033209648384
 40
6.618346003545356
 40
6.618346003545356
 40
6.810658797442329
 40
6.810658797442329
 40
6.850740483263655
 40
6.850740483263655
 40
6.850740483263655
 40
6.850740483263655
 10
216.6449054745315
 20
220.4106424859873
 30
0.0
 10
216.7438563160562
 20
220.545546109003
 30
0.0
 10
216.8555677058122
 20
220.6718245434616
 30
0.0
 10
217.142080516289
 20
220.9292716529794
 30
0.0
 10
217.3276157172258
 20
221.0543753464702
 30
0.0
 10
217.7564697265553
 20
221.2292939675077
 30
0.0
 10
218.0005858448063
 20
221.2757254313606
 30
0.0
 10
218.4848238888944
 20
221.2541624493555
 30
0.0
 10
218.7200556008393
 20
221.1871002593474
 30
0.0
 10
219.1267663046366
 20
220.9833541182126
 30
0.0
 10
219.3000621769448
 20
220.8491840477043
 30
0.0
 10
219.5967933431914
 20
220.5508853087591
 30
0.0
 10
219.7213721765534
 20
220.3860338779263
 30
0.0
 10
220.0479985262073
 20
219.8563399698539
 30
0.0
 10
220.2027324970504
 20
219.4564325565684
 30
0.0
 10
220.4225741062784
 20
218.595625728905
 30
0.0
 10
220.4854456515446
 20
218.13461656224
 30
0.0
 10
220.5055102266407
 20
217.5822909272791
 30
0.0
 10
220.5070659982498
 20
217.4964667619351
 30
0.0
 10
220.5070659982498
 20
217.4106425159895
 30
0.0
 10
220.5070659982498
 20
217.0531868976647
 30
0.0
 10
220.4801022491965
 20
216.69583195624
 30
0.0
 10
220.3642012664877
 20
215.9550922464397
 30
0.0
 10
220.2673819483169
 20
215.5758503946631
 30
0.0
 10
219.9960061236538
 20
214.8764785886091
 30
0.0
 10
219.8233596566659
 20
214.5548605670981
 30
0.0
 10
219.4416202257134
 20
214.099696536527
 30
0.0
 10
219.2694003114956
 20
213.9402046171143
 30
0.0
 10
218.8529638212936
 20
213.6850880680764
 30
0.0
 10
218.6052265094064
 20
213.5916506821904
 30
0.0
 10
218.1210336641556
 20
213.5404376411319
 30
0.0
 10
217.8932459178967
 20
213.56435042702
 30
0.0
 10
217.4794190860587
 20
213.6915165380443
 30
0.0
 10
217.2939151046103
 20
213.7921722699154
 30
0.0
 10
216.9734853810944
 20
214.0306229762446
 30
0.0
 10
216.8371056007389
 20
214.1683056748446
 30
0.0
 10
216.6931635695567
 20
214.3474550437521
 30
0.0
 10
216.6690503280001
 20
214.3788221026981
 30
0.0
 10
216.645619218726
 20
214.4106424860038
 30
0.0
  0
ELLIPSE
  5
422B
330
1A
100
AcDbEntity
  8
SEIHIN
 62
     3
100
AcDbEllipse
 10
213.3272057402352
 20
238.4106425059895
 30
0.0
 11
0.0
 21
-2.1000000000672
 31
0.0
210
0.0
220
0.0
230
-1.0
 40
0.4867014234079679
 41
-1.570796326794896
 42
4.712388980384689
  0
ELLIPSE
  5
422C
330
1A
100
AcDbEntity
  8
SEIHIN
 62
     3
100
AcDbEllipse
 10
216.2983311514512
 20
236.8856425159894
 30
0.0
 11
0.0
 21
-2.874999999613672
 31
0.0
210
0.0
220
0.0
230
-1.0
 40
0.3913043478762229
 41
-1.570796326794896
 42
4.712388980384689
  0
ELLIPSE
  5
422D
330
1A
100
AcDbEntity
  8
SEIHIN
 62
     3
100
AcDbEllipse
 10
222.2405819734112
 20
238.4106425059895
 30
0.0
 11
0.0
 21
-2.1000000000672
 31
0.0
210
0.0
220
0.0
230
-1.0
 40
0.4867014234079679
 41
-1.570796326794896
 42
4.712388980384689
  0
ELLIPSE
  5
422E
330
1A
100
AcDbEntity
  8
SEIHIN
100
AcDbEllipse
 10
210.6416430340167
 20
192.9106424959895
 30
0.0
 11
-0.0000000000000022
 21
2.0
 31
0.0
210
0.0
220
0.0
230
-1.0
 40
0.3713906760967661
 41
3.141592653589794
 42
4.712388980384689
  0
ELLIPSE
  5
422F
330
1A
100
AcDbEntity
  8
SEIHIN
100
AcDbEllipse
 10
211.8416430340167
 20
192.9106424959895
 30
0.0
 11
-0.0000000000000022
 21
2.0
 31
0.0
210
0.0
220
0.0
230
-1.0
 40
0.3713906760967661
 41
3.141592653589794
 42
4.712388980384689
  0
ELLIPSE
  5
4230
330
1A
100
AcDbEntity
  8
SEIHIN
100
AcDbEllipse
 10
223.7261446796297
 20
192.9106424959894
 30
0.0
 11
0.0000000000000022
 21
1.999999999999999
 31
0.0
210
0.0
220
0.0
230
-1.0
 40
0.371390676096766
 41
1.570796326794896
 42
3.14159265358979
  0
ELLIPSE
  5
4231
330
1A
100
AcDbEntity
  8
SEIHIN
 62
     3
100
AcDbEllipse
 10
218.1703657918232
 20
217.4106425159895
 30
0.0
 11
0.0
 21
-2.8559114857152
 31
0.0
210
0.0
220
0.0
230
-1.0
 40
0.4680467910551545
 41
-1.570796326794896
 42
4.712388980384689
  0
ELLIPSE
  5
4232
330
1A
100
AcDbEntity
  8
SEIHIN
 62
     3
100
AcDbEllipse
 10
213.3272057402352
 20
196.4106425059895
 30
0.0
 11
0.0
 21
2.1000000000672
 31
0.0
210
0.0
220
0.0
230
1.0
 40
0.4867014234079679
 41
-1.570796326794896
 42
4.712388980384689
  0
ELLIPSE
  5
4233
330
1A
100
AcDbEntity
  8
SEIHIN
 62
     3
100
AcDbEllipse
 10
216.2983311514512
 20
197.9356424959895
 30
0.0
 11
0.0
 21
2.874999999613672
 31
0.0
210
0.0
220
0.0
230
1.0
 40
0.3913043478762229
 41
-1.570796326794896
 42
4.712388980384689
  0
ELLIPSE
  5
4234
330
1A
100
AcDbEntity
  8
SEIHIN
 62
     3
100
AcDbEllipse
 10
222.2405819734112
 20
196.4106425059895
 30
0.0
 11
0.0
 21
2.1000000000672
 31
0.0
210
0.0
220
0.0
230
1.0
 40
0.4867014234079679
 41
-1.570796326794896
 42
4.712388980384689
  0
ELLIPSE
  5
4235
330
1A
100
AcDbEntity
  8
SEIHIN
100
AcDbEllipse
 10
210.6416430340167
 20
241.9106425159895
 30
0.0
 11
0.0000000000000022
 21
2.0
 31
0.0
210
0.0
220
0.0
230
1.0
 40
0.3713906760967661
 41
0.0000000000000029
 42
1.570796326794896
  0
ELLIPSE
  5
4236
330
1A
100
AcDbEntity
  8
SEIHIN
100
AcDbEllipse
 10
211.8416430340167
 20
241.9106425159895
 30
0.0
 11
0.0000000000000022
 21
2.0
 31
0.0
210
0.0
220
0.0
230
1.0
 40
0.3713906760967661
 41
0.0000000000000029
 42
1.570796326794896
  0
ELLIPSE
  5
4237
330
1A
100
AcDbEntity
  8
SEIHIN
100
AcDbEllipse
 10
223.7261446796297
 20
241.9106425159896
 30
0.0
 11
-0.0000000000000195
 21
1.999999999999999
 31
0.0
210
0.0
220
0.0
230
1.0
 40
0.3713906760967661
 41
4.712388980384686
 42
6.283185307179559
  0
LINE
  5
4238
330
1A
100
AcDbEntity
  8
CENTER L
100
AcDbLine
 10
340.8216497689856
 20
166.8714881671163
 30
0.0
 11
329.4942342333058
 21
162.3405218350479
 31
0.0
  0
CIRCLE
  5
4239
330
1A
100
AcDbEntity
  8
SEIHIN
100
AcDbCircle
 10
336.922047789573
 20
156.1568671298412
 30
0.0
 40
3.249999972626095
  0
INSERT
  5
423A
330
1A
100
AcDbEntity
  8
SUNPOU
100
AcDbBlockReference
  2
_OPEN
 10
338.7687690543522
 20
158.8612909052791
 30
0.0
 41
2.999999999999981
 42
3.0
 43
3.0
 50
251.7065953267104
1001
ACAD
1000
DSTYLE
1002
{
1070
    41
1040
3.0
1070
    42
1040
3.0
1070
    43
1040
7.0
1070
    44
1040
1.5
1070
    73
1070
     0
1070
    74
1070
     0
1070
    77
1070
     0
1070
   140
1040
3.0
1070
   141
1040
3.0
1070
   147
1040
1.0
1070
   172
1070
     1
1070
   173
1070
     1
1070
   176
1070
   256
1070
   177
1070
   256
1070
   178
1070
   256
1070
   271
1070
     0
1070
   272
1070
     0
1070
   341
1005
B2
1070
   343
1005
B2
1070
   344
1005
B2
1002
}
  0
DIMENSION
  5
423B
330
1A
100
AcDbEntity
  8
SUNPOU
100
AcDbDimension
  2
*D11
 10
358.3466532792348
 20
164.7267095485062
 30
0.0
 11
358.0681102053797
 21
172.1545230730912
 31
0.0
 70
    32
 71
     5
 42
-1.0
  3
STANDARD
100
AcDbAlignedDimension
 13
336.3649616418633
 23
171.0124941790112
 33
0.0
 14
343.4213846024635
 24
158.7566019225856
 34
0.0
 50
111.8014100000028
100
AcDbRotatedDimension
1001
ACAD
1000
DSTYLE
1002
{
1070
    41
1040
3.0
1070
    42
1040
3.0
1070
    43
1040
7.0
1070
    44
1040
1.5
1070
    73
1070
     0
1070
    74
1070
     0
1070
    77
1070
     3
1070
   140
1040
3.0
1070
   141
1040
3.0
1070
   147
1040
1.0
1070
   172
1070
     1
1070
   173
1070
     1
1070
   176
1070
   256
1070
   177
1070
   256
1070
   178
1070
   256
1070
   271
1070
     0
1070
   272
1070
     0
1070
   341
1005
B2
1070
     6
1000
OPEN
1070
     7
1000
OPEN
1002
}
  0
LINE
  5
423C
330
1A
100
AcDbEntity
  8
CENTER L
100
AcDbLine
 10
343.6535037489364
 20
158.8494495835885
 30
0.0
 11
330.1905918302094
 21
153.4642846760939
 31
0.0
  0
ARC
  5
423D
330
1A
100
AcDbEntity
  8
SEIHIN
 62
     3
100
AcDbCircle
 10
217.4992088934112
 20
238.4106425059895
 30
0.0
 40
5.185616519156494
100
AcDbArc
 50
336.1109838713462
 51
23.88901612865375
  0
ARC
  5
423E
330
1A
100
AcDbEntity
  8
SEIHIN
 62
     3
100
AcDbCircle
 10
208.5858326702352
 20
238.4106425059895
 30
0.0
 40
5.185616510013183
100
AcDbArc
 50
336.1109838266
 51
23.88901617340001
  0
LINE
  5
423F
330
1A
100
AcDbEntity
  8
SEIHIN
 62
     3
100
AcDbLine
 10
224.4689260318231
 20
227.2336944159895
 30
0.0
 11
224.4689260318231
 21
241.9106425159896
 31
0.0
  0
LINE
  5
4240
330
1A
100
AcDbEntity
  8
SEIHIN
 62
     3
100
AcDbLine
 10
211.0988616818232
 20
227.2336941159895
 30
0.0
 11
211.0988616818232
 21
241.9106425159895
 31
0.0
  0
LINE
  5
4241
330
1A
100
AcDbEntity
  8
SEIHIN
 62
     3
100
AcDbLine
 10
209.8988616818232
 20
241.9106425159895
 30
0.0
 11
209.8988616818232
 21
226.6119823159895
 31
0.0
  0
DIMENSION
  5
4242
330
1A
100
AcDbEntity
  8
SUNPOU
100
AcDbDimension
  2
*D12
 10
242.900556665484
 20
190.9106428759894
 30
0.0
 11
240.4005566654839
 21
217.4106428959895
 31
0.0
 70
    32
 71
     5
 42
-1.0
  3
STANDARD
100
AcDbAlignedDimension
 13
221.4689264718233
 23
243.9106429159895
 33
0.0
 14
221.4689264718233
 24
190.9106428759894
 34
0.0
 50
90.0
100
AcDbRotatedDimension
1001
ACAD
1000
DSTYLE
1002
{
1070
    41
1040
3.0
1070
    42
1040
3.0
1070
    43
1040
7.0
1070
    44
1040
1.5
1070
    73
1070
     0
1070
    74
1070
     0
1070
    77
1070
     3
1070
   140
1040
3.0
1070
   141
1040
3.0
1070
   147
1040
1.0
1070
   172
1070
     1
1070
   173
1070
     1
1070
   176
1070
   256
1070
   177
1070
   256
1070
   178
1070
   256
1070
   271
1070
     0
1070
   272
1070
     0
1070
   341
1005
B2
1070
     6
1000
OPEN
1070
     7
1000
OPEN
1002
}
  0
LWPOLYLINE
  5
4243
330
1A
100
AcDbEntity
  8
SUNPOU
100
AcDbPolyline
 90
        3
 70
     0
 43
0.0
 10
291.9420625124312
 20
151.5277356705231
 10
270.5268864376698
 20
169.9770743658483
 10
252.9450998007611
 20
169.9770743658483
1001
ACAD
1000
DSTYLE
1002
{
1070
    41
1040
3.0
1070
    42
1040
3.0
1070
    43
1040
7.0
1070
    44
1040
1.5
1070
    73
1070
     0
1070
    74
1070
     0
1070
    77
1070
     0
1070
   140
1040
3.0
1070
   141
1040
3.0
1070
   147
1040
1.0
1070
   172
1070
     1
1070
   173
1070
     1
1070
   176
1070
   256
1070
   177
1070
   256
1070
   178
1070
   256
1070
   271
1070
     0
1070
   272
1070
     0
1070
   341
1005
B2
1070
   343
1005
B2
1070
   344
1005
B2
1002
}
  0
DIMENSION
  5
4244
330
1A
100
AcDbEntity
  8
SUNPOU
100
AcDbDimension
  2
*D13
 10
319.2906121663165
 20
219.0835314445738
 30
0.0
 11
293.7575032343932
 21
211.5628700195035
 31
0.0
 70
    32
 71
     5
 42
-1.0
  3
STANDARD
100
AcDbAlignedDimension
 13
289.755431945873
 23
150.2146158853338
 33
0.0
 14
338.9646963863303
 24
169.8983221732551
 34
0.0
 50
21.80140999999805
100
AcDbRotatedDimension
1001
ACAD
1000
DSTYLE
1002
{
1070
    41
1040
3.0
1070
    42
1040
3.0
1070
    43
1040
7.0
1070
    44
1040
1.5
1070
    73
1070
     0
1070
    74
1070
     0
1070
    77
1070
     3
1070
   140
1040
3.0
1070
   141
1040
3.0
1070
   147
1040
1.0
1070
   172
1070
     1
1070
   173
1070
     1
1070
   176
1070
   256
1070
   177
1070
   256
1070
   178
1070
   256
1070
   271
1070
     0
1070
   272
1070
     0
1070
   341
1005
B2
1070
     6
1000
OPEN
1070
     7
1000
OPEN
1002
}
  0
LINE
  5
4245
330
1A
100
AcDbEntity
  8
SEIHIN
 62
     3
100
AcDbLine
 10
209.8988616818232
 20
192.9106424959895
 30
0.0
 11
209.8988616818232
 21
208.0756950259895
 31
0.0
  0
LINE
  5
4246
330
1A
100
AcDbEntity
  8
SEIHIN
 62
     3
100
AcDbLine
 10
211.0988616818232
 20
207.5875909059895
 30
0.0
 11
211.0988616818232
 21
192.9106424959895
 31
0.0
  0
LINE
  5
4247
330
1A
100
AcDbEntity
  8
SEIHIN
 62
     3
100
AcDbLine
 10
224.4689260318231
 20
207.5875905259895
 30
0.0
 11
224.4689260318231
 21
192.9106424959894
 31
0.0
  0
TEXT
  5
4248
330
1A
100
AcDbEntity
  8
SUNPOU
100
AcDbText
 10
211.951313968437
 20
161.6106649498371
 30
0.0
 40
3.0
  1
（スライド幅）
100
AcDbText
  0
LINE
  5
4249
330
1A
100
AcDbEntity
  8
SEIHIN
 62
     3
100
AcDbLine
 10
223.7261446796297
 20
190.9106424959895
 30
0.0
 11
210.6416430340167
 21
190.9106424959895
 31
0.0
  0
TEXT
  5
424A
330
1A
100
AcDbEntity
  8
SUNPOU
100
AcDbText
 10
253.92688643767
 20
170.6861251724623
 30
0.0
 40
3.0
  1
4-φ4.2
100
AcDbText
  0
ARC
  5
424B
330
1A
100
AcDbEntity
  8
SEIHIN
100
AcDbCircle
 10
203.5071455663546
 20
217.4106424894554
 30
0.0
 40
3.25
100
AcDbArc
 50
292.61986494804
 51
67.38013505195553
  0
LINE
  5
424C
330
1A
100
AcDbEntity
  8
SEIHIN
100
AcDbLine
 10
222.4412589818232
 20
224.9106424959895
 30
0.0
 11
222.4412589818232
 21
209.9106425159895
 31
0.0
  0
LINE
  5
424D
330
1A
100
AcDbEntity
  8
SEIHIN
 62
     3
100
AcDbLine
 10
215.8335787118232
 20
208.4122282759894
 30
0.0
 11
219.9839055018232
 21
208.4122282759894
 31
0.0
  0
LINE
  5
424E
330
1A
100
AcDbEntity
  8
CENTER L
100
AcDbLine
 10
212.1728666646883
 20
197.9356424959895
 30
0.0
 11
220.4233311514442
 21
197.9356424959895
 31
0.0
  0
ARC
  5
424F
330
1A
100
AcDbEntity
  8
SEIHIN
 62
     3
100
AcDbCircle
 10
209.0188540814511
 20
197.9356424959895
 30
0.0
 40
7.826647520660156
100
AcDbArc
 50
338.4486589066005
 51
21.55134109339949
  0
LINE
  5
4250
330
1A
100
AcDbEntity
  8
CENTER L
100
AcDbLine
 10
209.3049050198807
 20
196.4106425159895
 30
0.0
 11
217.3495064606035
 21
196.4106425159895
 31
0.0
  0
ARC
  5
4251
330
1A
100
AcDbEntity
  8
SEIHIN
 62
     3
100
AcDbCircle
 10
208.5858326702352
 20
196.4106425059895
 30
0.0
 40
5.185616510013183
100
AcDbArc
 50
336.1109838266
 51
23.88901617340001
  0
LINE
  5
4252
330
1A
100
AcDbEntity
  8
SEIHIN
 62
     3
100
AcDbLine
 10
209.6648002718232
 20
209.2666610859895
 30
0.0
 11
209.0208188618232
 21
209.9106424959895
 31
0.0
  0
ARC
  5
4253
330
1A
100
AcDbEntity
  8
SEIHIN
 62
     3
100
AcDbCircle
 10
209.5443514418232
 20
210.2708790159895
 30
0.0
 40
1.700000004646646
100
AcDbArc
 50
194.548545520478
 51
266.2081647342351
  0
LINE
  5
4254
330
1A
100
AcDbEntity
  8
SEIHIN
100
AcDbLine
 10
207.5949396627078
 20
210.9106424959895
 30
0.0
 11
207.5949396627078
 21
209.9106424959895
 31
0.0
  0
LINE
  5
4255
330
1A
100
AcDbEntity
  8
SEIHIN
100
AcDbLine
 10
204.7571455663546
 20
214.4106425159895
 30
0.0
 11
204.7571455663546
 21
210.9106424959895
 31
0.0
  0
LINE
  5
4256
330
1A
100
AcDbEntity
  8
SEIHIN
 62
     3
100
AcDbLine
 10
212.2988616818232
 20
208.4122282759894
 30
0.0
 11
213.6754087718232
 21
208.4122282759894
 31
0.0
  0
ARC
  5
4257
330
1A
100
AcDbEntity
  8
SEIHIN
 62
     3
100
AcDbCircle
 10
209.3988616818232
 20
208.0756950259895
 30
0.0
 40
0.4999999992379602
100
AcDbArc
 50
0.0
 51
86.20816538453839
  0
ARC
  5
4258
330
1A
100
AcDbEntity
  8
SEIHIN
 62
     3
100
AcDbCircle
 10
209.3988616818232
 20
207.5875909059895
 30
0.0
 40
1.700000000443591
100
AcDbArc
 50
0.0
 51
81.00000002413239
  0
LINE
  5
4259
330
1A
100
AcDbEntity
  8
SEIHIN
 62
     3
100
AcDbLine
 10
214.0163727218232
 20
206.9106424959895
 30
0.0
 11
215.4057744318233
 21
206.9106424959895
 31
0.0
  0
LINE
  5
425A
330
1A
100
AcDbEntity
  8
SEIHIN
 62
     3
100
AcDbLine
 10
214.0163727218232
 20
206.9106424959895
 30
0.0
 11
214.0163727218232
 21
209.9106424959895
 31
0.0
  0
LINE
  5
425B
330
1A
100
AcDbEntity
  8
SEIHIN
 62
     3
100
AcDbLine
 10
215.4057744318233
 20
206.9106424959895
 30
0.0
 11
214.0163727218232
 21
208.9818373059895
 31
0.0
  0
LINE
  5
425C
330
1A
100
AcDbEntity
  8
SEIHIN
 62
     3
100
AcDbLine
 10
215.4057744318233
 20
209.9106424959895
 30
0.0
 11
215.4057744318233
 21
206.9106424959895
 31
0.0
  0
LINE
  5
425D
330
1A
100
AcDbEntity
  8
CENTER L
100
AcDbLine
 10
219.2744259913956
 20
196.4106425159895
 30
0.0
 11
227.3190274321184
 21
196.4106425159895
 31
0.0
  0
ARC
  5
425E
330
1A
100
AcDbEntity
  8
SEIHIN
 62
     3
100
AcDbCircle
 10
217.4992088934112
 20
196.4106425059895
 30
0.0
 40
5.185616519156494
100
AcDbArc
 50
336.1109838713462
 51
23.88901612865375
  0
LINE
  5
425F
330
1A
100
AcDbEntity
  8
SEIHIN
 62
     3
100
AcDbLine
 10
222.4412589818232
 20
209.9106424959895
 30
0.0
 11
222.4412589818232
 21
210.9106424959895
 31
0.0
  0
LINE
  5
4260
330
1A
100
AcDbEntity
  8
SEIHIN
 62
     3
100
AcDbLine
 10
220.3989368318232
 20
206.9106424959895
 30
0.0
 11
221.7883385418232
 21
206.9106424959895
 31
0.0
  0
LINE
  5
4261
330
1A
100
AcDbEntity
  8
SEIHIN
 62
     3
100
AcDbLine
 10
221.7883385418232
 20
206.9106424959895
 30
0.0
 11
220.3989368318232
 21
208.9818373059895
 31
0.0
  0
LINE
  5
4262
330
1A
100
AcDbEntity
  8
SEIHIN
 62
     3
100
AcDbLine
 10
220.3989368318232
 20
206.9106424959895
 30
0.0
 11
220.3989368318232
 21
209.9106424959895
 31
0.0
  0
LINE
  5
4263
330
1A
100
AcDbEntity
  8
SEIHIN
 62
     3
100
AcDbLine
 10
223.0348646218232
 20
209.2666610859895
 30
0.0
 11
222.3908832118232
 21
209.9106424959895
 31
0.0
  0
LINE
  5
4264
330
1A
100
AcDbEntity
  8
SEIHIN
 62
     3
100
AcDbLine
 10
222.1697442818233
 20
208.4106424959895
 30
0.0
 11
223.7745373118231
 21
208.4106424959895
 31
0.0
  0
ARC
  5
4265
330
1A
100
AcDbEntity
  8
SEIHIN
 62
     3
100
AcDbCircle
 10
222.7689260318232
 20
207.5875909059895
 30
0.0
 40
1.700000000443612
100
AcDbArc
 50
359.9999871927081
 51
81.00000002413239
  0
LINE
  5
4266
330
1A
100
AcDbEntity
  8
SEIHIN
 62
     3
100
AcDbLine
 10
221.7883385418232
 20
209.9106424959895
 30
0.0
 11
221.7883385418232
 21
206.9106424959895
 31
0.0
  0
LINE
  5
4267
330
1A
100
AcDbEntity
  8
CENTER L
100
AcDbLine
 10
212.1728666646883
 20
236.8856425159894
 30
0.0
 11
220.4233311514442
 21
236.8856425159894
 31
0.0
  0
LINE
  5
4268
330
1A
100
AcDbEntity
  8
SEIHIN
 62
     3
100
AcDbLine
 10
215.8335787118232
 20
226.4090567159895
 30
0.0
 11
219.9839055018232
 21
226.4090567159895
 31
0.0
  0
LINE
  5
4269
330
1A
100
AcDbEntity
  8
SEIHIN
 62
     3
100
AcDbLine
 10
209.6648002718232
 20
225.5546239159895
 30
0.0
 11
209.0208188618232
 21
224.9106425159895
 31
0.0
  0
ARC
  5
426A
330
1A
100
AcDbEntity
  8
SEIHIN
 62
     3
100
AcDbCircle
 10
209.5443514418232
 20
224.4167983159895
 30
0.0
 40
1.699999989349252
100
AcDbArc
 50
93.79183535491852
 51
163.1123117581124
  0
LINE
  5
426B
330
1A
100
AcDbEntity
  8
SEIHIN
100
AcDbLine
 10
204.7571455663546
 20
220.4106425159895
 30
0.0
 11
204.7571455663546
 21
223.9106425159895
 31
0.0
  0
LINE
  5
426C
330
1A
100
AcDbEntity
  8
SEIHIN
100
AcDbLine
 10
207.5949396627078
 20
223.9106425159895
 30
0.0
 11
207.5949396627078
 21
224.9106425159895
 31
0.0
  0
LINE
  5
426D
330
1A
100
AcDbEntity
  8
SEIHIN
 62
     3
100
AcDbLine
 10
212.2988616818232
 20
226.4090567159895
 30
0.0
 11
213.6754087718232
 21
226.4090567159895
 31
0.0
  0
ARC
  5
426E
330
1A
100
AcDbEntity
  8
SEIHIN
 62
     3
100
AcDbCircle
 10
209.3988616818232
 20
226.6119823159895
 30
0.0
 40
0.5000000241832313
100
AcDbArc
 50
273.791834236553
 51
0.0
  0
ARC
  5
426F
330
1A
100
AcDbEntity
  8
SEIHIN
 62
     3
100
AcDbCircle
 10
209.3988616818232
 20
227.2336941159895
 30
0.0
 40
1.700000010320475
100
AcDbArc
 50
278.9999998704205
 51
0.0
  0
LINE
  5
4270
330
1A
100
AcDbEntity
  8
SEIHIN
 62
     3
100
AcDbLine
 10
215.4057744318233
 20
227.9106425159895
 30
0.0
 11
214.0163727218232
 21
225.8394477159895
 31
0.0
  0
LINE
  5
4271
330
1A
100
AcDbEntity
  8
SEIHIN
 62
     3
100
AcDbLine
 10
214.0163727218232
 20
227.9106425159895
 30
0.0
 11
215.4057744318233
 21
227.9106425159895
 31
0.0
  0
LINE
  5
4272
330
1A
100
AcDbEntity
  8
SEIHIN
 62
     3
100
AcDbLine
 10
215.4057744318233
 20
224.9106425159895
 30
0.0
 11
215.4057744318233
 21
227.9106425159895
 31
0.0
  0
LINE
  5
4273
330
1A
100
AcDbEntity
  8
SEIHIN
 62
     3
100
AcDbLine
 10
214.0163727218232
 20
227.9106425159895
 30
0.0
 11
214.0163727218232
 21
224.9106425159895
 31
0.0
  0
ARC
  5
4274
330
1A
100
AcDbEntity
  8
SEIHIN
 62
     3
100
AcDbCircle
 10
209.0188540814511
 20
236.8856425159894
 30
0.0
 40
7.826647520660156
100
AcDbArc
 50
338.4486589066005
 51
21.55134109339949
  0
LINE
  5
4275
330
1A
100
AcDbEntity
  8
CENTER L
100
AcDbLine
 10
209.3049050198807
 20
238.4106424959895
 30
0.0
 11
217.3495064606035
 21
238.4106424959895
 31
0.0
  0
LINE
  5
4276
330
1A
100
AcDbEntity
  8
SEIHIN
 62
     3
100
AcDbLine
 10
221.7883385418232
 20
227.9106425159895
 30
0.0
 11
220.3989368318232
 21
225.8394477159895
 31
0.0
  0
LINE
  5
4277
330
1A
100
AcDbEntity
  8
SEIHIN
 62
     3
100
AcDbLine
 10
220.3989368318232
 20
227.9106425159895
 30
0.0
 11
221.7883385418232
 21
227.9106425159895
 31
0.0
  0
LINE
  5
4278
330
1A
100
AcDbEntity
  8
SEIHIN
 62
     3
100
AcDbLine
 10
220.3989368318232
 20
227.9106425159895
 30
0.0
 11
220.3989368318232
 21
224.9106425159895
 31
0.0
  0
LINE
  5
4279
330
1A
100
AcDbEntity
  8
SEIHIN
 62
     3
100
AcDbLine
 10
222.1697442818233
 20
226.4106425159895
 30
0.0
 11
223.7745373118231
 21
226.4106425159895
 31
0.0
  0
ARC
  5
427A
330
1A
100
AcDbEntity
  8
SEIHIN
 62
     3
100
AcDbCircle
 10
222.7689260318232
 20
227.2336941159895
 30
0.0
 40
1.700000010320488
100
AcDbArc
 50
278.9999998704205
 51
0.0000101110185475
  0
LINE
  5
427B
330
1A
100
AcDbEntity
  8
SEIHIN
 62
     3
100
AcDbLine
 10
222.4412589818232
 20
224.9106425159895
 30
0.0
 11
222.4412589818232
 21
223.9106425159895
 31
0.0
  0
LINE
  5
427C
330
1A
100
AcDbEntity
  8
SEIHIN
 62
     3
100
AcDbLine
 10
221.7883385418232
 20
224.9106425159895
 30
0.0
 11
221.7883385418232
 21
227.9106425159895
 31
0.0
  0
LINE
  5
427D
330
1A
100
AcDbEntity
  8
SEIHIN
 62
     3
100
AcDbLine
 10
223.0348646218232
 20
225.5546239159895
 30
0.0
 11
222.3908832118232
 21
224.9106425159895
 31
0.0
  0
LINE
  5
427E
330
1A
100
AcDbEntity
  8
CENTER L
100
AcDbLine
 10
219.2744259913956
 20
238.4106424959895
 30
0.0
 11
227.3190274321184
 21
238.4106424959895
 31
0.0
  0
DIMENSION
  5
427F
330
1A
100
AcDbEntity
  8
SUNPOU
100
AcDbDimension
  2
*D14
 10
317.1329447904192
 20
209.6684968563642
 30
0.0
 11
296.7064576400529
 21
204.1904841970215
 31
0.0
 70
    32
 71
     5
 42
-1.0
  3
STANDARD
100
AcDbAlignedDimension
 13
293.8964379577681
 23
154.6713040124561
 33
0.0
 14
332.8924588351115
 24
170.269712768922
 34
0.0
 50
21.80140999999805
100
AcDbRotatedDimension
1001
ACAD
1000
DSTYLE
1002
{
1070
    41
1040
3.0
1070
    42
1040
3.0
1070
    43
1040
7.0
1070
    44
1040
1.5
1070
    73
1070
     0
1070
    74
1070
     0
1070
    77
1070
     3
1070
   140
1040
3.0
1070
   141
1040
3.0
1070
   147
1040
1.0
1070
   172
1070
     1
1070
   173
1070
     1
1070
   176
1070
   256
1070
   177
1070
   256
1070
   178
1070
   256
1070
   271
1070
     0
1070
   272
1070
     0
1070
   341
1005
B2
1070
     6
1000
OPEN
1070
     7
1000
OPEN
1002
}
  0
DIMENSION
  5
4280
330
1A
100
AcDbEntity
  8
SUNPOU
100
AcDbDimension
  2
*D15
 10
318.8679084987202
 20
201.2922141835448
 30
0.0
 11
299.8341363796875
 21
196.3712875512186
 31
0.0
 70
    32
 71
     5
 42
-1.0
  3
STANDARD
100
AcDbAlignedDimension
 13
298.1004667437425
 23
148.2001058355925
 33
0.0
 14
334.3110575584186
 24
162.6843425380252
 34
0.0
 50
21.80140999999805
100
AcDbRotatedDimension
1001
ACAD
1000
DSTYLE
1002
{
1070
    41
1040
3.0
1070
    42
1040
3.0
1070
    43
1040
7.0
1070
    44
1040
1.5
1070
    73
1070
     0
1070
    74
1070
     0
1070
    77
1070
     3
1070
   140
1040
3.0
1070
   141
1040
3.0
1070
   147
1040
1.0
1070
   172
1070
     1
1070
   173
1070
     1
1070
   176
1070
   256
1070
   177
1070
   256
1070
   178
1070
   256
1070
   271
1070
     0
1070
   272
1070
     0
1070
   341
1005
B2
1070
     6
1000
OPEN
1070
     7
1000
OPEN
1002
}
  0
LINE
  5
4281
330
1A
100
AcDbEntity
  8
SEIHIN
100
AcDbLine
 10
305.8382841008648
 20
151.8011085707789
 30
0.0
 11
306.9524561548982
 21
149.0156785081115
 31
0.0
  0
LINE
  5
4282
330
1A
100
AcDbEntity
  8
SEIHIN
100
AcDbLine
 10
305.8448982274837
 20
158.8044684958742
 30
0.0
 11
308.2589376778891
 21
152.7693700267615
 31
0.0
  0
LINE
  5
4283
330
1A
100
AcDbEntity
  8
SEIHIN
100
AcDbLine
 10
306.7518363373066
 20
170.9992910771219
 30
0.0
 11
316.0197803212036
 21
147.8294317197511
 31
0.0
  0
LINE
  5
4284
330
1A
100
AcDbEntity
  8
SEIHIN
100
AcDbLine
 10
306.6537076400777
 20
159.1279922693229
 30
0.0
 11
309.0677470904832
 21
153.0928938002102
 31
0.0
  0
LINE
  5
4285
330
1A
100
AcDbEntity
  8
SEIHIN
100
AcDbLine
 10
309.0677470904832
 20
153.0928938002102
 30
0.0
 11
305.8382841008648
 21
151.8011085707789
 31
0.0
  0
ARC
  5
4286
330
1A
100
AcDbEntity
  8
SEIHIN
100
AcDbCircle
 10
309.537266518819
 20
172.1134628340427
 30
0.0
 40
3.000000000000019
100
AcDbArc
 50
21.80141687549203
 51
201.8014038884508
  0
LINE
  5
4287
330
1A
100
AcDbEntity
  8
SEIHIN
100
AcDbLine
 10
303.5021680497064
 20
169.6994233836372
 30
0.0
 11
306.7518364561517
 21
170.9992907800094
 31
0.0
  0
ARC
  5
4288
330
1A
100
AcDbEntity
  8
SEIHIN
100
AcDbCircle
 10
291.6123853209847
 20
150.9573972546894
 30
0.0
 40
2.0
100
AcDbArc
 50
111.8014099999993
 51
201.8014099999988
  0
LINE
  5
4289
330
1A
100
AcDbEntity
  8
SEIHIN
100
AcDbLine
 10
306.6537076400777
 20
159.1279922693229
 30
0.0
 11
290.8696039516292
 21
152.8143506298009
 31
0.0
  0
INSERT
  5
428A
330
1A
100
AcDbEntity
  8
SUNPOU
100
AcDbBlockReference
  2
_OPEN
 10
294.2149231775924
 20
149.569648747845
 30
0.0
 41
2.999999999999992
 42
3.0
 43
3.0
 50
319.2548486777223
1001
ACAD
1000
DSTYLE
1002
{
1070
    41
1040
3.0
1070
    42
1040
3.0
1070
    43
1040
7.0
1070
    44
1040
1.5
1070
    73
1070
     0
1070
    74
1070
     0
1070
    77
1070
     0
1070
   140
1040
3.0
1070
   141
1040
3.0
1070
   147
1040
1.0
1070
   172
1070
     1
1070
   173
1070
     1
1070
   176
1070
   256
1070
   177
1070
   256
1070
   178
1070
   256
1070
   271
1070
     0
1070
   272
1070
     0
1070
   341
1005
B2
1070
   343
1005
B2
1070
   344
1005
B2
1002
}
  0
LINE
  5
428B
330
1A
100
AcDbEntity
  8
SEIHIN
100
AcDbLine
 10
300.7114566852337
 20
173.9836192702156
 30
0.0
 11
301.6399333727894
 21
174.3550099548933
 31
0.0
  0
ARC
  5
428C
330
1A
100
AcDbEntity
  8
SEIHIN
100
AcDbCircle
 10
337.1077430112188
 20
169.1555408038996
 30
0.0
 40
2.0
100
AcDbArc
 50
21.80140999999843
 51
111.8014099999993
  0
LINE
  5
428D
330
1A
100
AcDbEntity
  8
SEIHIN
100
AcDbLine
 10
320.5808579534147
 20
164.6988525394892
 30
0.0
 11
336.3649616418633
 21
171.0124941790112
 31
0.0
  0
LINE
  5
428E
330
1A
100
AcDbEntity
  8
SEIHIN
100
AcDbLine
 10
312.3226964477857
 20
173.2276352223276
 30
0.0
 11
321.5906404465384
 21
150.0577758278177
 31
0.0
  0
LINE
  5
428F
330
1A
100
AcDbEntity
  8
SEIHIN
100
AcDbLine
 10
322.9948974038201
 20
158.6637540703766
 30
0.0
 11
324.1090694578535
 21
155.8783240077092
 31
0.0
  0
LINE
  5
4290
330
1A
100
AcDbEntity
  8
SEIHIN
100
AcDbLine
 10
321.3896673660089
 20
165.0223763129379
 30
0.0
 11
323.8037068164143
 21
158.9872778438252
 31
0.0
  0
LINE
  5
4291
330
1A
100
AcDbEntity
  8
SEIHIN
100
AcDbLine
 10
322.9948974038201
 20
158.6637540703766
 30
0.0
 11
326.2243603934386
 21
159.9555392998078
 31
0.0
  0
LINE
  5
4292
330
1A
100
AcDbEntity
  8
SEIHIN
100
AcDbLine
 10
320.5808579534147
 20
164.6988525394892
 30
0.0
 11
322.9948974038201
 21
158.6637540703766
 31
0.0
  0
LINE
  5
4293
330
1A
100
AcDbEntity
  8
SEIHIN
100
AcDbLine
 10
309.0677470904832
 20
153.0928938002102
 30
0.0
 11
310.1819191445164
 21
150.3074637375428
 31
0.0
  0
LINE
  5
4294
330
1A
100
AcDbEntity
  8
SEIHIN
100
AcDbLine
 10
310.1819191445164
 20
150.3074637375428
 30
0.0
 11
306.9524561548982
 21
149.0156785081115
 31
0.0
  0
LINE
  5
4295
330
1A
100
AcDbEntity
  8
SEIHIN
100
AcDbLine
 10
326.2243603934386
 20
159.9555392998078
 30
0.0
 11
327.3385324474718
 21
157.1701092371404
 31
0.0
  0
LINE
  5
4296
330
1A
100
AcDbEntity
  8
CENTER L
100
AcDbLine
 10
339.6146302433202
 20
149.4254111704777
 30
0.0
 11
334.2294653358256
 21
162.8883230892047
 31
0.0
  0
LINE
  5
4297
330
1A
100
AcDbEntity
  8
SEIHIN
100
AcDbLine
 10
324.1090694578535
 20
155.8783240077092
 30
0.0
 11
327.3385324474718
 21
157.1701092371404
 31
0.0
  0
CIRCLE
  5
4298
330
1A
100
AcDbEntity
  8
SEIHIN
100
AcDbCircle
 10
335.1579420011457
 20
164.6060050010821
 30
0.0
 40
2.099999971727392
  0
LINE
  5
4299
330
1A
100
AcDbEntity
  8
CENTER L
100
AcDbLine
 10
337.4234251671798
 20
158.9422972332422
 30
0.0
 11
332.8924588351115
 21
170.269712768922
 31
0.0
  0
LINE
  5
429A
330
1A
100
AcDbEntity
  8
SEIHIN
100
AcDbLine
 10
312.3226965814864
 20
173.227634888076
 30
0.0
 11
315.5723649879318
 21
174.5275022844482
 31
0.0
  0
LINE
  5
429B
330
1A
100
AcDbEntity
  8
SEIHIN
100
AcDbLine
 10
313.7101303110148
 20
179.1830888557042
 30
0.0
 11
314.6386069985705
 21
179.554479540382
 31
0.0
  0
LINE
  5
429C
330
1A
100
AcDbEntity
  8
SEIHIN
 62
     3
100
AcDbLine
 10
223.7261446796297
 20
243.9106425159895
 30
0.0
 11
210.6416430340167
 21
243.9106425159895
 31
0.0
  0
LWPOLYLINE
  5
429D
330
1A
100
AcDbEntity
  8
SUNPOU
100
AcDbPolyline
 90
        3
 70
     0
 43
0.0
 10
339.7104185504404
 20
161.7096757505057
 10
350.8209538140278
 20
195.3178074371134
 10
366.6704036545321
 20
195.3178074371134
1001
ACAD
1000
DSTYLE
1002
{
1070
    41
1040
3.0
1070
    42
1040
3.0
1070
    43
1040
7.0
1070
    44
1040
1.5
1070
    73
1070
     0
1070
    74
1070
     0
1070
    77
1070
     0
1070
   140
1040
3.0
1070
   141
1040
3.0
1070
   147
1040
1.0
1070
   172
1070
     1
1070
   173
1070
     1
1070
   176
1070
   256
1070
   177
1070
   256
1070
   178
1070
   256
1070
   271
1070
     0
1070
   272
1070
     0
1070
   341
1005
B2
1070
   343
1005
B2
1070
   344
1005
B2
1002
}
  0
TEXT
  5
429E
330
1A
100
AcDbEntity
  8
SUNPOU
100
AcDbText
 10
351.1605590278537
 20
196.6221543497339
 30
0.0
 40
3.0
  1
2-φ6.5
100
AcDbText
  0
ARC
  5
43EC
102
{ACAD_REACTORS
330
445B
102
}
330
1A
100
AcDbEntity
  8
NOKITOI
  6
PHANTOM
 62
     8
100
AcDbCircle
 10
61.71877103792169
 20
43.91619004243927
 30
0.0
 40
12.93471022655885
100
AcDbArc
 50
8.676219579621381
 51
74.45245455808946
  0
ARC
  5
43ED
102
{ACAD_REACTORS
330
445B
102
}
330
1A
100
AcDbEntity
  8
NOKITOI
  6
PHANTOM
 62
     8
100
AcDbCircle
 10
61.71883780692579
 20
43.91615790584916
 30
0.0
 40
14.22848866365036
100
AcDbArc
 50
51.52529185494234
 51
71.45345265407101
  0
LINE
  5
43EE
102
{ACAD_REACTORS
330
445B
102
}
330
1A
100
AcDbEntity
  8
NOKITOI
  6
PHANTOM
 62
     8
100
AcDbLine
 10
64.4788639681349
 20
57.13119801533299
 30
0.0
 11
58.64026396813475
 21
84.86249801533313
 31
0.0
  0
LINE
  5
43EF
102
{ACAD_REACTORS
330
445B
102
}
330
1A
100
AcDbEntity
  8
NOKITOI
  6
PHANTOM
 62
     8
100
AcDbLine
 10
65.58746396813481
 20
58.14409801533293
 30
0.0
 11
59.65646396813489
 21
86.31399801533314
 31
0.0
  0
ARC
  5
43F0
102
{ACAD_REACTORS
330
445B
102
}
330
1A
100
AcDbEntity
  8
NOKITOI
  6
PHANTOM
 62
     8
100
AcDbCircle
 10
65.45250399252236
 20
57.33615535110715
 30
0.0
 40
0.9949785960395137
100
AcDbArc
 50
191.8875585738772
 51
254.4495841050101
  0
ARC
  5
43F1
102
{ACAD_REACTORS
330
445B
102
}
330
1A
100
AcDbEntity
  8
NOKITOI
  6
PHANTOM
 62
     8
100
AcDbCircle
 10
66.56108384990628
 20
58.34907567825303
 30
0.0
 40
0.995060928010462
100
AcDbArc
 50
191.8877567214151
 51
251.4524867922939
  0
ARC
  5
43F2
102
{ACAD_REACTORS
330
445B
102
}
330
1A
100
AcDbEntity
  8
NOKITOI
  6
PHANTOM
 62
     8
100
AcDbCircle
 10
54.38831396813478
 20
92.23404801533297
 30
0.0
 40
1.49245000083754
100
AcDbArc
 50
89.99808047909004
 51
179.99808047909
  0
LINE
  5
43F3
102
{ACAD_REACTORS
330
445B
102
}
330
1A
100
AcDbEntity
  8
NOKITOI
  6
PHANTOM
 62
     8
100
AcDbLine
 10
52.59736396813494
 20
95.01999801533305
 30
0.0
 11
56.82856396813488
 21
95.01999801533305
 31
0.0
  0
ARC
  5
43F4
102
{ACAD_REACTORS
330
445B
102
}
330
1A
100
AcDbEntity
  8
NOKITOI
  6
PHANTOM
 62
     8
100
AcDbCircle
 10
54.88581396813484
 20
88.30394801533316
 30
0.0
 40
1.989950000628206
100
AcDbArc
 50
180.0014396286229
 51
270.0014396286237
  0
LINE
  5
43F5
102
{ACAD_REACTORS
330
445B
102
}
330
1A
100
AcDbEntity
  8
NOKITOI
  6
PHANTOM
 62
     8
100
AcDbLine
 10
58.44556396813496
 20
85.02049801533292
 30
0.0
 11
52.59736396813494
 21
85.02049801533292
 31
0.0
  0
LINE
  5
43F6
102
{ACAD_REACTORS
330
445B
102
}
330
1A
100
AcDbEntity
  8
NOKITOI
  6
PHANTOM
 62
     8
100
AcDbLine
 10
51.60236396813494
 20
86.01549801533293
 30
0.0
 11
51.60236396813494
 21
94.02499801533293
 31
0.0
  0
ARC
  5
43F7
102
{ACAD_REACTORS
330
445B
102
}
330
1A
100
AcDbEntity
  8
NOKITOI
  6
PHANTOM
 62
     8
100
AcDbCircle
 10
52.59736396813494
 20
86.01549801533293
 30
0.0
 40
0.9950000000000045
100
AcDbArc
 50
180.0
 51
270.0
  0
ARC
  5
43F8
102
{ACAD_REACTORS
330
445B
102
}
330
1A
100
AcDbEntity
  8
NOKITOI
  6
PHANTOM
 62
     8
100
AcDbCircle
 10
52.59736396813494
 20
94.02499801533304
 30
0.0
 40
0.9950000000000613
100
AcDbArc
 50
90.00000000000325
 51
180.0000000000032
  0
LINE
  5
43F9
102
{ACAD_REACTORS
330
445B
102
}
330
1A
100
AcDbEntity
  8
NOKITOI
  6
PHANTOM
 62
     8
100
AcDbLine
 10
57.8234639681348
 20
94.02499801533293
 30
0.0
 11
57.8234639681348
 21
89.82019801533306
 31
0.0
  0
LINE
  5
43FA
102
{ACAD_REACTORS
330
445B
102
}
330
1A
100
AcDbEntity
  8
NOKITOI
  6
PHANTOM
 62
     8
100
AcDbLine
 10
56.5300639681349
 20
89.82019801533306
 30
0.0
 11
56.5300639681349
 21
92.23409801533307
 31
0.0
  0
LINE
  5
43FB
102
{ACAD_REACTORS
330
445B
102
}
330
1A
100
AcDbEntity
  8
NOKITOI
  6
PHANTOM
 62
     8
100
AcDbLine
 10
52.89586396813482
 20
92.23409801533307
 30
0.0
 11
52.89586396813482
 21
88.30389801533305
 31
0.0
  0
ARC
  5
43FC
102
{ACAD_REACTORS
330
445B
102
}
330
1A
100
AcDbEntity
  8
NOKITOI
  6
PHANTOM
 62
     8
100
AcDbCircle
 10
58.44554552552065
 20
84.82151297876981
 30
0.0
 40
0.1989850374177657
100
AcDbArc
 50
11.88631382809262
 51
89.9946896310657
  0
LINE
  5
43FD
102
{ACAD_REACTORS
330
445B
102
}
330
1A
100
AcDbEntity
  8
NOKITOI
  6
PHANTOM
 62
     8
100
AcDbLine
 10
57.8234639681348
 20
89.82019801533306
 30
0.0
 11
56.5300639681349
 21
89.82019801533306
 31
0.0
  0
LINE
  5
43FE
102
{ACAD_REACTORS
330
445B
102
}
330
1A
100
AcDbEntity
  8
NOKITOI
  6
PHANTOM
 62
     8
100
AcDbLine
 10
54.88586396813494
 20
86.31399801533314
 30
0.0
 11
59.65646396813489
 21
86.31399801533314
 31
0.0
  0
ARC
  5
43FF
102
{ACAD_REACTORS
330
445B
102
}
330
1A
100
AcDbEntity
  8
NOKITOI
  6
PHANTOM
 62
     8
100
AcDbCircle
 10
56.82851396813479
 20
94.02504801533309
 30
0.0
 40
0.9949500012563332
100
AcDbArc
 50
359.9971206704047
 51
89.99712067040476
  0
LINE
  5
4400
102
{ACAD_REACTORS
330
445B
102
}
330
1A
100
AcDbEntity
  8
NOKITOI
  6
PHANTOM
 62
     8
100
AcDbLine
 10
55.03756396813483
 20
93.72649801533293
 30
0.0
 11
54.38836396813488
 21
93.72649801533293
 31
0.0
  0
ARC
  5
4401
102
{ACAD_REACTORS
330
445B
102
}
330
1A
100
AcDbEntity
  8
NOKITOI
  6
PHANTOM
 62
     8
100
AcDbCircle
 10
55.03756396813483
 20
92.23409801533307
 30
0.0
 40
1.492399999999918
100
AcDbArc
 50
0.0000000000016284
 51
90.00000000000245
  0
ARC
  5
4402
102
{ACAD_REACTORS
330
445B
102
}
330
1A
100
AcDbEntity
  8
NOKITOI
  6
PHANTOM
 62
     8
100
AcDbCircle
 10
155.4899784716834
 20
43.91610593952151
 30
0.0
 40
14.22809199964113
100
AcDbArc
 50
108.5474584936554
 51
128.7537062451649
  0
ARC
  5
4403
102
{ACAD_REACTORS
330
445B
102
}
330
1A
100
AcDbEntity
  8
NOKITOI
  6
PHANTOM
 62
     8
100
AcDbCircle
 10
155.489958434723
 20
43.91609177506774
 30
0.0
 40
12.93461262833301
100
AcDbArc
 50
105.5476727870196
 51
171.3237222126368
  0
ARC
  5
4404
102
{ACAD_REACTORS
330
445B
102
}
330
1A
100
AcDbEntity
  8
NOKITOI
  6
PHANTOM
 62
     8
100
AcDbCircle
 10
155.489852811814
 20
43.91618543385897
 30
0.0
 40
12.93449408578155
100
AcDbArc
 50
105.547333235354
 51
171.3240617643019
  0
LINE
  5
4405
102
{ACAD_REACTORS
330
445B
102
}
330
1A
100
AcDbEntity
  8
CENTER L
  6
CENTER
 62
     1
100
AcDbLine
 10
108.6043639681349
 20
35.02244801533311
 30
0.0
 11
108.6043639681349
 21
56.32244801533312
 31
0.0
  0
LINE
  5
4406
102
{ACAD_REACTORS
330
445B
102
}
330
1A
100
AcDbEntity
  8
NOKITOI
  6
PHANTOM
 62
     8
100
AcDbLine
 10
141.7196639681349
 20
45.02239801533318
 30
0.0
 11
75.48906396813496
 21
45.02249801533304
 31
0.0
  0
LINE
  5
4407
102
{ACAD_REACTORS
330
445B
102
}
330
1A
100
AcDbEntity
  8
NOKITOI
  6
PHANTOM
 62
     8
100
AcDbLine
 10
75.48906396813496
 20
45.02249801533304
 30
0.0
 11
141.7196639681349
 21
45.02239801533318
 31
0.0
  0
LINE
  5
4408
102
{ACAD_REACTORS
330
445B
102
}
330
1A
100
AcDbEntity
  8
NOKITOI
  6
PHANTOM
 62
     8
100
AcDbLine
 10
80.80476396813494
 20
46.31589801533306
 30
0.0
 11
136.4039639681349
 21
46.31579801533297
 31
0.0
  0
LINE
  5
4409
102
{ACAD_REACTORS
330
445B
102
}
330
1A
100
AcDbEntity
  8
NOKITOI
  6
PHANTOM
 62
     8
100
AcDbLine
 10
80.60586396813496
 20
55.01219801533307
 30
0.0
 11
70.69516396813495
 21
55.01219801533307
 31
0.0
  0
LINE
  5
440A
102
{ACAD_REACTORS
330
445B
102
}
330
1A
100
AcDbEntity
  8
NOKITOI
  6
PHANTOM
 62
     8
100
AcDbLine
 10
76.16396396813482
 20
46.322498015333
 30
0.0
 11
78.80576396813481
 21
46.322498015333
 31
0.0
  0
LINE
  5
440B
102
{ACAD_REACTORS
330
445B
102
}
330
1A
100
AcDbEntity
  8
NOKITOI
  6
PHANTOM
 62
     8
100
AcDbLine
 10
78.94346396813481
 20
53.71219801533311
 30
0.0
 11
72.72256396813489
 21
53.71219801533311
 31
0.0
  0
ARC
  5
440C
102
{ACAD_REACTORS
330
445B
102
}
330
1A
100
AcDbEntity
  8
NOKITOI
  6
PHANTOM
 62
     8
100
AcDbCircle
 10
61.71876916514818
 20
43.91618739956498
 30
0.0
 40
14.23472333170272
100
AcDbArc
 50
11.37541821407338
 51
40.79334907830746
  0
ARC
  5
440D
102
{ACAD_REACTORS
330
445B
102
}
330
1A
100
AcDbEntity
  8
NOKITOI
  6
PHANTOM
 62
     8
100
AcDbCircle
 10
75.48907158215254
 20
46.01749147508911
 30
0.0
 40
0.9949934597852239
100
AcDbArc
 50
188.6761125650602
 51
269.9995615538234
  0
ARC
  5
440E
102
{ACAD_REACTORS
330
445B
102
}
330
1A
100
AcDbEntity
  8
NOKITOI
  6
PHANTOM
 62
     8
100
AcDbCircle
 10
76.16404092700671
 20
46.82251687962133
 30
0.0
 40
0.5000188648192144
100
AcDbArc
 50
191.386728855441
 51
270.0026402191986
  0
ARC
  5
440F
102
{ACAD_REACTORS
330
445B
102
}
330
1A
100
AcDbEntity
  8
NOKITOI
  6
PHANTOM
 62
     8
100
AcDbCircle
 10
70.69516728049396
 20
55.21119685954761
 30
0.0
 40
0.1989988442421132
100
AcDbArc
 50
231.5280949042407
 51
269.9990463050553
  0
ARC
  5
4410
102
{ACAD_REACTORS
330
445B
102
}
330
1A
100
AcDbEntity
  8
NOKITOI
  6
PHANTOM
 62
     8
100
AcDbCircle
 10
72.72256762743805
 20
53.41220600721266
 30
0.0
 40
0.2999920081427447
100
AcDbArc
 50
90.00069889403132
 51
220.79672841758
  0
LINE
  5
4411
102
{ACAD_REACTORS
330
445B
102
}
330
1A
100
AcDbEntity
  8
NOKITOI
  6
PHANTOM
 62
     8
100
AcDbLine
 10
79.30576396813481
 20
46.82249801533311
 30
0.0
 11
79.30576396813481
 21
53.34979801533314
 31
0.0
  0
LINE
  5
4412
102
{ACAD_REACTORS
330
445B
102
}
330
1A
100
AcDbEntity
  8
NOKITOI
  6
PHANTOM
 62
     8
100
AcDbLine
 10
80.60576396813488
 20
46.51489801533313
 30
0.0
 11
80.60586396813496
 21
55.01219801533307
 31
0.0
  0
ARC
  5
4413
102
{ACAD_REACTORS
330
445B
102
}
330
1A
100
AcDbEntity
  8
NOKITOI
  6
PHANTOM
 62
     8
100
AcDbCircle
 10
80.80476396813494
 20
46.51489801533313
 30
0.0
 40
0.1990000000000691
100
AcDbArc
 50
179.9999999999837
 51
269.9999999999837
  0
ARC
  5
4414
102
{ACAD_REACTORS
330
445B
102
}
330
1A
100
AcDbEntity
  8
NOKITOI
  6
PHANTOM
 62
     8
100
AcDbCircle
 10
78.8057639681347
 20
46.82249801533311
 30
0.0
 40
0.5000000000000569
100
AcDbArc
 50
270.0000000000065
 51
0.0000000000065138
  0
LINE
  5
4415
102
{ACAD_REACTORS
330
445B
102
}
330
1A
100
AcDbEntity
  8
NOKITOI
  6
PHANTOM
 62
     8
100
AcDbLine
 10
79.80076396813482
 20
54.20709801533291
 30
0.0
 11
79.30576396813481
 21
53.34979801533314
 31
0.0
  0
LINE
  5
4416
102
{ACAD_REACTORS
330
445B
102
}
330
1A
100
AcDbEntity
  8
NOKITOI
  6
PHANTOM
 62
     8
100
AcDbLine
 10
79.80076396813482
 20
54.20709801533291
 30
0.0
 11
78.94346396813481
 21
53.71219801533311
 31
0.0
  0
LINE
  5
4417
102
{ACAD_REACTORS
330
445B
102
}
330
1A
100
AcDbEntity
  8
NOKITOI
  6
PHANTOM
 62
     8
100
AcDbLine
 10
132.4039639681349
 20
46.31579801533297
 30
0.0
 11
117.6495639681347
 21
46.31579801533297
 31
0.0
  0
LINE
  5
4418
102
{ACAD_REACTORS
330
445B
102
}
330
1A
100
AcDbEntity
  8
NOKITOI
  6
PHANTOM
 62
     8
100
AcDbLine
 10
136.6030639681347
 20
55.01189801533292
 30
0.0
 11
146.5835639681347
 21
55.01179801533305
 31
0.0
  0
ARC
  5
4419
102
{ACAD_REACTORS
330
445B
102
}
330
1A
100
AcDbEntity
  8
NOKITOI
  6
PHANTOM
 62
     8
100
AcDbCircle
 10
155.4899224228256
 20
43.91601315077679
 30
0.0
 40
14.23462403148678
100
AcDbArc
 50
139.2075062369009
 51
168.623785948384
  0
LINE
  5
441A
102
{ACAD_REACTORS
330
445B
102
}
330
1A
100
AcDbEntity
  8
NOKITOI
  6
PHANTOM
 62
     8
100
AcDbLine
 10
144.4859639681347
 20
53.71179801533298
 30
0.0
 11
138.2653639681349
 21
53.71179801533298
 31
0.0
  0
LINE
  5
441B
102
{ACAD_REACTORS
330
445B
102
}
330
1A
100
AcDbEntity
  8
NOKITOI
  6
PHANTOM
 62
     8
100
AcDbLine
 10
137.9030639681349
 20
53.34949801533298
 30
0.0
 11
137.9030639681349
 21
46.82239801533301
 31
0.0
  0
LINE
  5
441C
102
{ACAD_REACTORS
330
445B
102
}
330
1A
100
AcDbEntity
  8
NOKITOI
  6
PHANTOM
 62
     8
100
AcDbLine
 10
136.6029639681348
 20
46.51489801533313
 30
0.0
 11
136.6030639681347
 21
55.01189801533292
 31
0.0
  0
LINE
  5
441D
102
{ACAD_REACTORS
330
445B
102
}
330
1A
100
AcDbEntity
  8
NOKITOI
  6
PHANTOM
 62
     8
100
AcDbLine
 10
141.0447639681349
 20
46.32239801533313
 30
0.0
 11
138.4030639681349
 21
46.32239801533313
 31
0.0
  0
ARC
  5
441E
102
{ACAD_REACTORS
330
445B
102
}
330
1A
100
AcDbEntity
  8
NOKITOI
  6
PHANTOM
 62
     8
100
AcDbCircle
 10
138.4030639681348
 20
46.82239801533313
 30
0.0
 40
0.4999999999999432
100
AcDbArc
 50
180.0000000000065
 51
270.0000000000065
  0
ARC
  5
441F
102
{ACAD_REACTORS
330
445B
102
}
330
1A
100
AcDbEntity
  8
NOKITOI
  6
PHANTOM
 62
     8
100
AcDbCircle
 10
136.4039139681348
 20
46.51484801533302
 30
0.0
 40
0.1990500062799141
100
AcDbArc
 50
270.0143923080609
 51
0.0143923080609162
  0
ARC
  5
4420
102
{ACAD_REACTORS
330
445B
102
}
330
1A
100
AcDbEntity
  8
NOKITOI
  6
PHANTOM
 62
     8
100
AcDbCircle
 10
141.7197138962308
 20
46.01744090293169
 30
0.0
 40
0.9950428888512103
100
AcDbArc
 50
269.9971250795227
 51
351.3214426795066
  0
ARC
  5
4421
102
{ACAD_REACTORS
330
445B
102
}
330
1A
100
AcDbEntity
  8
NOKITOI
  6
PHANTOM
 62
     8
100
AcDbCircle
 10
141.0447870092631
 20
46.82241687962135
 30
0.0
 40
0.5000188648190603
100
AcDbArc
 50
269.9973597808037
 51
348.6132711445597
  0
LINE
  5
4422
102
{ACAD_REACTORS
330
445B
102
}
330
1A
100
AcDbEntity
  8
NOKITOI
  6
PHANTOM
 62
     8
100
AcDbLine
 10
137.4080639681347
 20
54.20679801533299
 30
0.0
 11
137.9030639681349
 21
53.34949801533298
 31
0.0
  0
LINE
  5
4423
102
{ACAD_REACTORS
330
445B
102
}
330
1A
100
AcDbEntity
  8
NOKITOI
  6
PHANTOM
 62
     8
100
AcDbLine
 10
137.4080639681347
 20
54.20679801533299
 30
0.0
 11
138.2653639681349
 21
53.71179801533298
 31
0.0
  0
ARC
  5
4424
102
{ACAD_REACTORS
330
445B
102
}
330
1A
100
AcDbEntity
  8
NOKITOI
  6
PHANTOM
 62
     8
100
AcDbCircle
 10
144.4859776459862
 20
53.41176815163914
 30
0.0
 40
0.3000298640056128
100
AcDbArc
 50
319.2190584222774
 51
90.00261201719977
  0
LINE
  5
444C
102
{ACAD_REACTORS
330
445B
102
}
330
1A
100
AcDbEntity
  8
NOKITOI
  6
PHANTOM
 62
     8
100
AcDbLine
 10
151.6212639681349
 20
58.14349801533308
 30
0.0
 11
157.0762639681347
 21
84.05239801533298
 31
0.0
  0
LINE
  5
444D
102
{ACAD_REACTORS
330
445B
102
}
330
1A
100
AcDbEntity
  8
NOKITOI
  6
PHANTOM
 62
     8
100
AcDbLine
 10
152.7299639681349
 20
57.13099801533292
 30
0.0
 11
158.5686639681347
 21
84.86239801533292
 31
0.0
  0
ARC
  5
444E
102
{ACAD_REACTORS
330
445B
102
}
330
1A
100
AcDbEntity
  8
NOKITOI
  6
PHANTOM
 62
     8
100
AcDbCircle
 10
150.6477075376859
 20
58.34854696710192
 30
0.0
 40
0.9950135261271753
100
AcDbArc
 50
288.5445751594485
 51
348.1074736523477
  0
ARC
  5
444F
102
{ACAD_REACTORS
330
445B
102
}
330
1A
100
AcDbEntity
  8
NOKITOI
  6
PHANTOM
 62
     8
100
AcDbCircle
 10
151.756338304987
 20
57.33607726672051
 30
0.0
 40
0.9949690575286499
100
AcDbArc
 50
285.5437330810334
 51
348.1110361155306
  0
LINE
  5
4450
102
{ACAD_REACTORS
330
445B
102
}
330
1A
100
AcDbEntity
  8
NOKITOI
  6
PHANTOM
 62
     8
100
AcDbLine
 10
160.4401639681347
 20
93.71979801533314
 30
0.0
 11
158.8822639681349
 21
86.320398015333
 31
0.0
  0
LINE
  5
4451
102
{ACAD_REACTORS
330
445B
102
}
330
1A
100
AcDbEntity
  8
NOKITOI
  6
PHANTOM
 62
     8
100
AcDbLine
 10
157.0762639681347
 20
84.05239801533298
 30
0.0
 11
159.3853639681347
 21
95.01979801533298
 31
0.0
  0
LINE
  5
4452
102
{ACAD_REACTORS
330
445B
102
}
330
1A
100
AcDbEntity
  8
NOKITOI
  6
PHANTOM
 62
     8
100
AcDbLine
 10
165.6065639681349
 20
86.01529801533297
 30
0.0
 11
165.6065639681349
 21
94.02489801533295
 31
0.0
  0
LINE
  5
4453
102
{ACAD_REACTORS
330
445B
102
}
330
1A
100
AcDbEntity
  8
NOKITOI
  6
PHANTOM
 62
     8
100
AcDbLine
 10
164.3065639681349
 20
86.32029801533292
 30
0.0
 11
164.3065639681349
 21
93.71979801533314
 31
0.0
  0
LINE
  5
4454
102
{ACAD_REACTORS
330
445B
102
}
330
1A
100
AcDbEntity
  8
NOKITOI
  6
PHANTOM
 62
     8
100
AcDbLine
 10
164.3065639681349
 20
86.32029801533292
 30
0.0
 11
158.8822639681349
 21
86.320398015333
 31
0.0
  0
LINE
  5
4455
102
{ACAD_REACTORS
330
445B
102
}
330
1A
100
AcDbEntity
  8
NOKITOI
  6
PHANTOM
 62
     8
100
AcDbLine
 10
158.7633639681347
 20
85.02029801533309
 30
0.0
 11
164.6115639681348
 21
85.02029801533309
 31
0.0
  0
ARC
  5
4456
102
{ACAD_REACTORS
330
445B
102
}
330
1A
100
AcDbEntity
  8
NOKITOI
  6
PHANTOM
 62
     8
100
AcDbCircle
 10
158.763382410749
 20
84.82141297876978
 30
0.0
 40
0.1989850374179911
100
AcDbArc
 50
90.00531036897097
 51
168.1136861719431
  0
ARC
  5
4457
102
{ACAD_REACTORS
330
445B
102
}
330
1A
100
AcDbEntity
  8
NOKITOI
  6
PHANTOM
 62
     8
100
AcDbCircle
 10
164.611563968135
 20
86.01529801533303
 30
0.0
 40
0.9949999999999192
100
AcDbArc
 50
269.9999999999951
 51
359.9999999999951
  0
LINE
  5
4458
102
{ACAD_REACTORS
330
445B
102
}
330
1A
100
AcDbEntity
  8
NOKITOI
  6
PHANTOM
 62
     8
100
AcDbLine
 10
164.6115639681348
 20
95.01989801533307
 30
0.0
 11
159.4078639681348
 21
95.01979801533298
 31
0.0
  0
LINE
  5
4459
102
{ACAD_REACTORS
330
445B
102
}
330
1A
100
AcDbEntity
  8
NOKITOI
  6
PHANTOM
 62
     8
100
AcDbLine
 10
164.3065639681349
 20
93.71979801533314
 30
0.0
 11
160.4401639681347
 21
93.71979801533314
 31
0.0
  0
ARC
  5
445A
102
{ACAD_REACTORS
330
445B
102
}
330
1A
100
AcDbEntity
  8
NOKITOI
  6
PHANTOM
 62
     8
100
AcDbCircle
 10
164.6115639681348
 20
94.02489801533306
 30
0.0
 40
0.9950000000000613
100
AcDbArc
 50
359.9999999999967
 51
89.99999999999674
  0
LINE
  5
44F0
330
1A
100
AcDbEntity
  8
SEIHIN
 62
     6
100
AcDbLine
 10
149.898161681823
 20
109.0588464433875
 30
0.0
 11
161.098861681823
 21
109.0588464433875
 31
0.0
  0
LINE
  5
44F1
330
1A
100
AcDbEntity
  8
SEIHIN
 62
     6
100
AcDbLine
 10
153.0447616818229
 20
100.5588464433875
 30
0.0
 11
163.948861681823
 21
100.5589464433874
 31
0.0
  0
LINE
  5
44F2
330
1A
100
AcDbEntity
  8
SEIHIN
 62
     6
100
AcDbLine
 10
163.948861681823
 20
106.5589464433874
 30
0.0
 11
150.140161681823
 21
106.5588464433874
 31
0.0
  0
LINE
  5
44F3
330
1A
100
AcDbEntity
  8
SEIHIN
 62
     6
100
AcDbLine
 10
160.098861681823
 20
98.05884644318746
 30
0.0
 11
155.223161681823
 21
98.05884644318746
 31
0.0
  0
LINE
  5
44FA
330
1A
100
AcDbEntity
  8
SEIHIN
 62
     6
100
AcDbLine
 10
55.62886168182302
 20
86.35894644338748
 30
0.0
 11
61.85576168182302
 21
86.35894644338748
 31
0.0
  0
LINE
  5
44FB
330
1A
100
AcDbEntity
  8
SEIHIN
 62
     6
100
AcDbLine
 10
85.66938841182317
 20
89.35894644338748
 30
0.0
 11
57.12886168182302
 21
89.35894644338748
 31
0.0
  0
ARC
  5
44FC
330
1A
100
AcDbEntity
  8
SEIHIN
 62
     6
100
AcDbCircle
 10
55.62886168182302
 20
88.35894644338749
 30
0.0
 40
2.0
100
AcDbArc
 50
180.0
 51
270.0
  0
ARC
  5
44FD
330
1A
100
AcDbEntity
  8
SEIHIN
 62
     6
100
AcDbCircle
 10
54.87886168182303
 20
92.00894644338745
 30
0.0
 40
1.25
100
AcDbArc
 50
0.0
 51
180.0
  0
LINE
  5
44FE
330
1A
100
AcDbEntity
  8
SEIHIN
 62
     6
100
AcDbLine
 10
56.12886168182303
 20
90.35894644338748
 30
0.0
 11
53.62886168182303
 21
90.3588464433875
 31
0.0
  0
LINE
  5
44FF
330
1A
100
AcDbEntity
  8
SEIHIN
 62
     6
100
AcDbLine
 10
53.62886168182303
 20
92.00894644338745
 30
0.0
 11
53.62886168182303
 21
88.35894644338749
 31
0.0
  0
LINE
  5
4500
330
1A
100
AcDbEntity
  8
SEIHIN
 62
     6
100
AcDbLine
 10
56.12886168182303
 20
92.00894644338745
 30
0.0
 11
56.12886168182303
 21
90.35894644338748
 31
0.0
  0
ARC
  5
4501
330
1A
100
AcDbEntity
  8
SEIHIN
 62
     6
100
AcDbCircle
 10
57.12886168182302
 20
90.35894644338748
 30
0.0
 40
1.0
100
AcDbArc
 50
180.0
 51
270.0
  0
ARC
  5
4502
330
1A
100
AcDbEntity
  8
SEIHIN
 62
     6
100
AcDbCircle
 10
77.73623187154857
 20
83.36437160693476
 30
0.0
 40
5.005998409873809
100
AcDbArc
 50
233.9841795403847
 51
270.7878423526504
  0
LINE
  5
4503
330
1A
100
AcDbEntity
  8
SEIHIN
 62
     6
100
AcDbLine
 10
71.1575616818231
 20
85.05014644338746
 30
0.0
 11
76.13156168182303
 21
81.43264644338751
 31
0.0
  0
LINE
  5
4504
330
1A
100
AcDbEntity
  8
SEIHIN
 62
     6
100
AcDbLine
 10
85.66938841182315
 20
86.85894644338748
 30
0.0
 11
71.74576168182301
 21
86.85894644338748
 31
0.0
  0
ARC
  5
4505
330
1A
100
AcDbEntity
  8
SEIHIN
 62
     6
100
AcDbCircle
 10
71.74575057182306
 20
85.85891227338748
 30
0.0
 40
1.00003416926274
100
AcDbArc
 50
89.99936346563893
 51
233.972832387
  0
ARC
  5
4506
330
1A
100
AcDbEntity
  8
SEIHIN
 62
     6
100
AcDbCircle
 10
61.85567067182302
 20
76.35897604338748
 30
0.0
 40
9.999970400385993
100
AcDbArc
 50
53.97197877308379
 51
89.99947854956749
  0
LINE
  5
4507
330
1A
100
AcDbEntity
  8
SEIHIN
 62
     6
100
AcDbLine
 10
67.73746168182305
 20
84.4462464433875
 30
0.0
 11
74.79266168182306
 21
79.31524644338748
 31
0.0
  0
LINE
  5
4509
330
1A
100
AcDbEntity
  8
SEIHIN
 62
     6
100
AcDbLine
 10
77.80506439841468
 20
80.85884644338751
 30
0.0
 11
85.66938841182315
 21
80.85884644338751
 31
0.0
  0
LINE
  5
450A
330
1A
100
AcDbEntity
  8
SEIHIN
 62
     6
100
AcDbLine
 10
85.66938841182315
 20
78.35884644338752
 30
0.0
 11
77.8050643984148
 21
78.35884644338751
 31
0.0
  0
ARC
  5
450B
330
1A
100
AcDbEntity
  8
SEIHIN
 62
     6
100
AcDbCircle
 10
77.90374886933142
 20
83.87396951377269
 30
0.0
 40
3.016737601179326
100
AcDbArc
 50
234.0236295846626
 51
268.1253879708488
  0
LINE
  5
4510
330
1A
100
AcDbEntity
  8
SEIHIN
 62
     6
100
AcDbLine
 10
137.761861681823
 20
78.35884644338751
 30
0.0
 11
110.6693884138231
 21
78.35884644338751
 31
0.0
  0
LINE
  5
4511
330
1A
100
AcDbEntity
  8
SEIHIN
 62
     6
100
AcDbLine
 10
110.6693884138232
 20
80.85884644338751
 30
0.0
 11
135.529261681823
 21
80.85884644338751
 31
0.0
  0
LINE
  5
4512
330
1A
100
AcDbEntity
  8
SEIHIN
 62
     6
100
AcDbLine
 10
138.692561681823
 20
86.85894644338748
 30
0.0
 11
110.6693884138231
 21
86.85894644338748
 31
0.0
  0
LINE
  5
4513
330
1A
100
AcDbEntity
  8
SEIHIN
 62
     6
100
AcDbLine
 10
131.1724616818229
 20
89.35894644338748
 30
0.0
 11
110.6693884138232
 21
89.35894644338748
 31
0.0
  0
MTEXT
  5
4522
330
1A
100
AcDbEntity
  8
SEIHIN
 62
     6
100
AcDbMText
 10
102.5773104767959
 20
83.95086527738749
 30
0.0
 40
2.381249964
 41
0.0
 71
     1
 72
     5
  1
{\W1.022222;45}
210
0.0
220
0.0
230
-1.0
 11
-1.0
 21
0.0
 31
0.0
 73
     1
 44
1.0
1001
ACAD
1000
MTEXTBEGIN
1070
    73
1070
     1
1070
    44
1040
1.0
1070
    74
1070
     0
1000
MTEXTEND
1000
MTEXTBEGIN
1070
    73
1070
     1
1070
    44
1040
1.0
1070
    74
1070
     0
1000
MTEXTEND
1000
MTEXTBEGIN
1070
    73
1070
     1
1070
    44
1040
1.0
1070
    74
1070
     0
1000
MTEXTEND
1000
MTEXTBEGIN
1070
    73
1070
     1
1070
    44
1040
1.0
1070
    74
1070
     0
1000
MTEXTEND
1000
MTEXTBEGIN
1070
    73
1070
     1
1070
    44
1040
1.0
1070
    74
1070
     0
1000
MTEXTEND
1000
MTEXTBEGIN
1070
    73
1070
     1
1070
    44
1040
1.0
1070
    74
1070
     0
1000
MTEXTEND
1000
MTEXTBEGIN
1070
    73
1070
     1
1070
    44
1040
1.0
1070
    74
1070
     0
1000
MTEXTEND
  0
LINE
  5
4523
330
1A
100
AcDbEntity
  8
SEIHIN
 62
     6
100
AcDbLine
 10
100.919330676796
 20
86.85894644338748
 30
0.0
 11
100.919330676796
 21
84.85894644338747
 31
0.0
  0
LINE
  5
4524
330
1A
100
AcDbEntity
  8
SEIHIN
 62
     6
100
AcDbLine
 10
100.419330676796
 20
84.85894644338747
 30
0.0
 11
100.419330676796
 21
86.85894644338748
 31
0.0
  0
LINE
  5
4525
330
1A
100
AcDbEntity
  8
SEIHIN
 62
     6
100
AcDbLine
 10
100.919330676796
 20
84.85894644338747
 30
0.0
 11
100.419330676796
 21
84.85894644338747
 31
0.0
  0
MTEXT
  5
4531
330
1A
100
AcDbEntity
  8
SEIHIN
 62
     6
100
AcDbMText
 10
117.5850883767959
 20
83.77072366738747
 30
0.0
 40
2.381249964
 41
0.0
 71
     1
 72
     5
  1
{\W1.135802;60}
210
0.0
220
0.0
230
-1.0
 11
-1.0
 21
0.0
 31
0.0
 73
     1
 44
1.0
1001
ACAD
1000
MTEXTBEGIN
1070
    73
1070
     1
1070
    44
1040
1.0
1070
    74
1070
     0
1000
MTEXTEND
1000
MTEXTBEGIN
1070
    73
1070
     1
1070
    44
1040
1.0
1070
    74
1070
     0
1000
MTEXTEND
1000
MTEXTBEGIN
1070
    73
1070
     1
1070
    44
1040
1.0
1070
    74
1070
     0
1000
MTEXTEND
1000
MTEXTBEGIN
1070
    73
1070
     1
1070
    44
1040
1.0
1070
    74
1070
     0
1000
MTEXTEND
1000
MTEXTBEGIN
1070
    73
1070
     1
1070
    44
1040
1.0
1070
    74
1070
     0
1000
MTEXTEND
1000
MTEXTBEGIN
1070
    73
1070
     1
1070
    44
1040
1.0
1070
    74
1070
     0
1000
MTEXTEND
1000
MTEXTBEGIN
1070
    73
1070
     1
1070
    44
1040
1.0
1070
    74
1070
     0
1000
MTEXTEND
  0
LINE
  5
4532
330
1A
100
AcDbEntity
  8
SEIHIN
 62
     6
100
AcDbLine
 10
110.9260806767959
 20
84.85894644338747
 30
0.0
 11
110.9260806767959
 21
86.85894644338748
 31
0.0
  0
LINE
  5
4533
330
1A
100
AcDbEntity
  8
SEIHIN
 62
     6
100
AcDbLine
 10
110.9260806767959
 20
84.85894644338747
 30
0.0
 11
110.669330676796
 21
84.85894644338747
 31
0.0
  0
LINE
  5
4534
330
1A
100
AcDbEntity
  8
SEIHIN
 62
     6
100
AcDbLine
 10
115.9260806767959
 20
84.85894644338747
 30
0.0
 11
115.9260806767959
 21
86.85894644338748
 31
0.0
  0
LINE
  5
4535
330
1A
100
AcDbEntity
  8
SEIHIN
 62
     6
100
AcDbLine
 10
115.4260806767959
 20
86.85894644338748
 30
0.0
 11
115.4260806767959
 21
84.85894644338747
 31
0.0
  0
LINE
  5
4536
330
1A
100
AcDbEntity
  8
SEIHIN
 62
     6
100
AcDbLine
 10
117.52876279675
 20
86.85894644338748
 30
0.0
 11
117.02876279675
 21
86.85894644338748
 31
0.0
  0
LINE
  5
4537
330
1A
100
AcDbEntity
  8
SEIHIN
 62
     6
100
AcDbLine
 10
115.4260806767959
 20
84.85894644338747
 30
0.0
 11
115.9260806767959
 21
84.85894644338747
 31
0.0
  0
LINE
  5
4538
330
1A
100
AcDbEntity
  8
SEIHIN
 62
     6
100
AcDbLine
 10
124.130461681823
 20
86.85894644338748
 30
0.0
 11
124.130461681823
 21
80.85894644338749
 31
0.0
  0
LINE
  5
454B
330
1A
100
AcDbEntity
  8
SEIHIN
 62
     6
100
AcDbLine
 10
145.976261681823
 20
107.1603464433874
 30
0.0
 11
132.349061681823
 21
89.92844644338749
 31
0.0
  0
LINE
  5
454C
330
1A
100
AcDbEntity
  8
SEIHIN
 62
     6
100
AcDbLine
 10
147.7870616818231
 20
105.4197464433875
 30
0.0
 11
136.3672616818229
 21
90.97924644338746
 31
0.0
  0
LINE
  5
454D
330
1A
100
AcDbEntity
  8
SEIHIN
 62
     6
100
AcDbLine
 10
150.691661681823
 20
99.41974644318747
 30
0.0
 11
143.035661681823
 21
89.7386464433875
 31
0.0
  0
LINE
  5
454E
330
1A
100
AcDbEntity
  8
SEIHIN
 62
     6
100
AcDbLine
 10
142.251261681823
 20
89.35894644338748
 30
0.0
 11
137.1516616818229
 21
89.35894644338748
 31
0.0
  0
ARC
  5
454F
330
1A
100
AcDbEntity
  8
SEIHIN
 62
     6
100
AcDbCircle
 10
141.564966481823
 20
82.2364379533875
 30
0.0
 40
1.000036752725678
100
AcDbArc
 50
141.6629998625321
 51
277.272617197029
  0
LINE
  5
4550
330
1A
100
AcDbEntity
  8
SEIHIN
 62
     6
100
AcDbLine
 10
137.761861681823
 20
78.35884644338751
 30
0.0
 11
155.276561681823
 21
81.7698464433875
 31
0.0
  0
ARC
  5
4551
330
1A
100
AcDbEntity
  8
SEIHIN
 62
     6
100
AcDbCircle
 10
138.692568391823
 20
85.85893258338751
 30
0.0
 40
1.00001386218148
100
AcDbArc
 50
321.6635952327505
 51
90.0003844493511
  0
LINE
  5
4552
330
1A
100
AcDbEntity
  8
SEIHIN
 62
     6
100
AcDbLine
 10
136.313661681823
 20
81.23854644338747
 30
0.0
 11
139.476961681823
 21
85.23864644338749
 31
0.0
  0
ARC
  5
4553
330
1A
100
AcDbEntity
  8
SEIHIN
 62
     6
100
AcDbCircle
 10
135.5292903118231
 20
81.85886030338748
 30
0.0
 40
1.000013862902801
100
AcDbArc
 50
269.9983596445701
 51
321.6615704529413
  0
ARC
  5
4554
330
1A
100
AcDbEntity
  8
SEIHIN
 62
     6
100
AcDbCircle
 10
131.172536671823
 20
90.85898274438751
 30
0.0
 40
1.5000363023233
100
AcDbArc
 50
269.9971356623178
 51
321.6588485138848
  0
ARC
  5
4555
330
1A
100
AcDbEntity
  8
SEIHIN
 62
     6
100
AcDbCircle
 10
137.1516699818229
 20
90.35892929338752
 30
0.0
 40
0.9999828485094189
100
AcDbArc
 50
141.6672292746687
 51
269.9995244368721
  0
LINE
  5
4556
330
1A
100
AcDbEntity
  8
SEIHIN
 62
     6
100
AcDbLine
 10
151.301261681823
 20
96.1602464433875
 30
0.0
 11
140.780561681823
 21
82.85674644338746
 31
0.0
  0
LINE
  5
4557
330
1A
100
AcDbEntity
  8
SEIHIN
 62
     6
100
AcDbLine
 10
141.6915616818229
 20
81.24444644338746
 30
0.0
 11
155.0859616818231
 21
82.95394644338751
 31
0.0
  0
ARC
  5
4558
330
1A
100
AcDbEntity
  8
SEIHIN
 62
     6
100
AcDbCircle
 10
155.1618642018231
 20
82.35880678338748
 30
0.0
 40
0.5999603391169003
100
AcDbArc
 50
269.9997593418174
 51
97.26811277064443
  0
ARC
  5
4559
330
1A
100
AcDbEntity
  8
SEIHIN
 62
     6
100
AcDbCircle
 10
142.251290311823
 20
90.35896030538749
 30
0.0
 40
1.000013864523104
100
AcDbArc
 50
269.9983596445733
 51
321.6615703630647
  0
ARC
  5
455A
330
1A
100
AcDbEntity
  8
SEIHIN
 62
     6
100
AcDbCircle
 10
155.223099521823
 20
93.05881635038748
 30
0.0
 40
5.000030094599926
100
AcDbArc
 50
89.99928770315809
 51
141.6617877220316
  0
ARC
  5
455B
330
1A
100
AcDbEntity
  8
SEIHIN
 62
     6
100
AcDbCircle
 10
150.140156791823
 20
103.5588440753874
 30
0.0
 40
3.000002368996017
100
AcDbArc
 50
89.99990660795187
 51
141.6619327633548
  0
ARC
  5
455C
330
1A
100
AcDbEntity
  8
SEIHIN
 62
     6
100
AcDbCircle
 10
149.8980995218229
 20
104.0588163503874
 30
0.0
 40
5.000030094699926
100
AcDbArc
 50
89.99928770315809
 51
141.6617877220316
  0
ARC
  5
455D
330
1A
100
AcDbEntity
  8
SEIHIN
 62
     6
100
AcDbCircle
 10
153.0447567918231
 20
97.55884407538747
 30
0.0
 40
3.000002368933987
100
AcDbArc
 50
89.99990660795187
 51
141.6619327663509
  0
ARC
  5
4561
330
1A
100
AcDbEntity
  8
SEIHIN
 62
     6
100
AcDbCircle
 10
160.098861681823
 20
92.0588464433875
 30
0.0
 40
5.999999999899999
100
AcDbArc
 50
0.0
 51
90.0
  0
ARC
  5
4562
330
1A
100
AcDbEntity
  8
SEIHIN
 62
     6
100
AcDbCircle
 10
161.098861681823
 20
99.05884644318746
 30
0.0
 40
10.0000000001
100
AcDbArc
 50
0.0
 51
90.0
  0
LINE
  5
4563
330
1A
100
AcDbEntity
  8
SEIHIN
 62
     6
100
AcDbLine
 10
166.098861681823
 20
82.46404528338747
 30
0.0
 11
166.098861681823
 21
92.0588464433875
 31
0.0
  0
LINE
  5
4564
330
1A
100
AcDbEntity
  8
SEIHIN
 62
     6
100
AcDbLine
 10
171.098861681823
 20
80.6899630633875
 30
0.0
 11
171.098861681823
 21
99.05884644318746
 31
0.0
  0
LINE
  5
4565
330
1A
100
AcDbEntity
  8
SEIHIN
 62
     6
100
AcDbLine
 10
162.009161681823
 20
84.29934644338748
 30
0.0
 11
165.317796091823
 21
82.05052124338749
 31
0.0
  0
ARC
  5
4566
330
1A
100
AcDbEntity
  8
SEIHIN
 62
     6
100
AcDbCircle
 10
166.598861681823
 20
80.6899630633875
 30
0.0
 40
4.500000000783715
100
AcDbArc
 50
216.0326608768134
 51
0.0
  0
LINE
  5
4567
330
1A
100
AcDbEntity
  8
SEIHIN
 62
     6
100
AcDbLine
 10
162.959793571823
 20
78.04285458338751
 30
0.0
 11
159.952961681823
 21
82.17644644338747
 31
0.0
  0
ARC
  5
4568
330
1A
100
AcDbEntity
  8
SEIHIN
 62
     6
100
AcDbCircle
 10
161.165953511823
 20
83.05883524338748
 30
0.0
 40
1.500013201217973
100
AcDbArc
 50
61.61017886408334
 51
226.1911119609337
  0
ARC
  5
4569
330
1A
100
AcDbEntity
  8
SEIHIN
 62
     6
100
AcDbCircle
 10
165.598861681823
 20
82.46404528338747
 30
0.0
 40
0.4999999987699835
100
AcDbArc
 50
235.7966882627013
 51
0.0
  0
ARC
  5
456A
330
1A
100
AcDbEntity
  8
SEIHIN
 62
     6
100
AcDbCircle
 10
163.948861681823
 20
103.5589464433874
 30
0.0
 40
3.0
100
AcDbArc
 50
270.0
 51
90.0
  0
LINE
  5
4609
330
1A
100
AcDbEntity
  8
SEIHIN
100
AcDbLine
 10
100.669330676796
 20
80.85904644338745
 30
0.0
 11
101.824031216796
 21
78.85904644338745
 31
0.0
  0
LINE
  5
460A
330
1A
100
AcDbEntity
  8
SEIHIN
100
AcDbLine
 10
100.669330676796
 20
80.85904644338745
 30
0.0
 11
99.51463013679603
 21
78.85904644338745
 31
0.0
  0
LINE
  5
460B
330
1A
100
AcDbEntity
  8
SEIHIN
100
AcDbLine
 10
101.824031216796
 20
78.85904644338745
 30
0.0
 11
99.51463013679603
 21
78.85904644338745
 31
0.0
  0
LINE
  5
460C
330
1A
100
AcDbEntity
  8
SEIHIN
 62
     6
100
AcDbLine
 10
100.6692729417689
 20
80.85894644338749
 30
0.0
 11
100.6693884118231
 21
80.85894644338749
 31
0.0
  0
VIEWPORT
  5
22
330
17
100
AcDbEntity
 67
     1
  8
0
100
AcDbViewport
 10
313.6808219178082
 20
148.5
 30
0.0
 40
627.3616438356165
 41
297.0
 68
     2
 69
     1
 12
313.6808219178082
 22
148.5
 13
0.0
 23
0.0
 14
1.0
 24
1.0
 15
10.0
 25
10.0
 16
0.0
 26
0.0
 36
1.0
 17
0.0
 27
0.0
 37
0.0
 42
50.0
 43
0.0
 44
0.0
 45
297.0
 50
0.0
 51
0.0
 72
   100
 90
    32768
  1

281
     0
 71
     1
 74
     0
110
0.0
120
0.0
130
0.0
111
1.0
121
0.0
131
0.0
112
0.0
122
1.0
132
0.0
 79
     0
146
0.0
  0
VIEWPORT
  5
64
330
17
100
AcDbEntity
 67
     1
  8
VIEWPORT
100
AcDbViewport
 10
210.0
 20
148.5
 30
0.0
 40
420.0
 41
297.0
 68
     1
 69
     2
 12
210.0
 22
148.5
 13
0.0
 23
0.0
 14
5.0
 24
5.0
 15
0.0
 25
0.0
 16
0.0
 26
0.0
 36
1.0
 17
0.0
 27
0.0
 37
0.0
 42
50.0
 43
0.0
 44
0.0
 45
302.9399999999998
 50
0.0
 51
0.0
 72
   100
 90
    32768
  1

281
     0
 71
     1
 74
     0
110
0.0
120
0.0
130
0.0
111
1.0
121
0.0
131
0.0
112
0.0
122
1.0
132
0.0
 79
     0
146
0.0
  0
ENDSEC
  0
SECTION
  2
OBJECTS
  0
DICTIONARY
  5
C
330
0
100
AcDbDictionary
281
     1
  3
ACAD_GROUP
350
D
  3
ACAD_LAYOUT
350
141
  3
ACAD_MLINESTYLE
350
E
  3
ACAD_PLOTSETTINGS
350
142
  3
ACAD_PLOTSTYLENAME
350
13F
  3
AcadDim
350
1A14
  3
AcDbVariableDictionary
350
120D
  0
DICTIONARY
  5
7A2
330
1A
100
AcDbDictionary
280
     1
281
     1
  3
ACAD_LAYOUTSELFREF
360
4700
  0
DICTIONARY
  5
7A0
330
17
100
AcDbDictionary
280
     1
281
     1
  3
ACAD_LAYOUTSELFREF
360
46FF
  0
DICTIONARY
  5
D
102
{ACAD_REACTORS
330
C
102
}
330
C
100
AcDbDictionary
281
     1
  3
*A1
350
445B
  0
DICTIONARY
  5
141
102
{ACAD_REACTORS
330
C
102
}
330
C
100
AcDbDictionary
281
     1
  3
Model
350
143
  3
ﾚｲｱｳﾄ1
350
144
  0
DICTIONARY
  5
E
102
{ACAD_REACTORS
330
C
102
}
330
C
100
AcDbDictionary
281
     1
  3
STANDARD
350
13
  0
DICTIONARY
  5
142
102
{ACAD_REACTORS
330
C
102
}
330
C
100
AcDbDictionary
281
     1
  0
ACDBDICTIONARYWDFLT
  5
13F
102
{ACAD_REACTORS
330
C
102
}
330
C
100
AcDbDictionary
281
     1
  3
Normal
350
140
100
AcDbDictionaryWithDefault
340
140
1001
ACAD
1000
TREAT_AS_HARD
1070
     0
1000
TREAT_AS_HARD
1070
     0
1000
TREAT_AS_HARD
1070
     0
1000
TREAT_AS_HARD
1070
     0
1000
TREAT_AS_HARD
1070
     0
1000
TREAT_AS_HARD
1070
     0
1000
TREAT_AS_HARD
1070
     0
1000
TREAT_AS_HARD
1070
     0
1000
TREAT_AS_HARD
1070
     0
1000
TREAT_AS_HARD
1070
     0
1000
TREAT_AS_HARD
1070
     0
1000
TREAT_AS_HARD
1070
     0
  0
XRECORD
  5
1A14
102
{ACAD_REACTORS
330
C
102
}
330
C
100
AcDbXrecord
280
     1
 90
   990106
  3

 60
     0
 61
     0
 62
     1
 63
     3
 64
     0
 65
     0
 66
     0
 67
     3
 68
     1
 69
     0
 70
     0
 71
     0
 72
     0
 40
0.0
170
     0
340
0
  0
DICTIONARY
  5
120D
102
{ACAD_REACTORS
330
C
102
}
330
C
100
AcDbDictionary
281
     1
  3
SORTENTS
350
120E
  0
XRECORD
  5
4700
102
{ACAD_REACTORS
330
7A2
102
}
330
7A2
100
AcDbXrecord
280
     1
340
1A
  0
XRECORD
  5
46FF
102
{ACAD_REACTORS
330
7A0
102
}
330
7A0
100
AcDbXrecord
280
     1
340
17
  0
GROUP
  5
445B
102
{ACAD_REACTORS
330
D
102
}
330
D
100
AcDbGroup
300

 70
     1
 71
     1
340
4405
340
4404
340
4403
340
4402
340
43ED
340
43EC
340
4408
340
4407
340
4406
340
4409
340
440F
340
4411
340
440C
340
440E
340
440D
340
4414
340
440A
340
440B
340
4410
340
4416
340
4415
340
4412
340
4413
340
4423
340
4422
340
4418
340
4417
340
441C
340
441F
340
441B
340
4419
340
4421
340
441E
340
441D
340
4420
340
441A
340
4424
340
43EF
340
43EE
340
43F1
340
43F0
340
4401
340
43FE
340
43F5
340
43F3
340
43FB
340
43F6
340
43F7
340
43F4
340
43F8
340
4400
340
43F2
340
43FA
340
43F9
340
43FC
340
43FD
340
43FF
340
444D
340
444C
340
444F
340
444E
340
4453
340
4452
340
4451
340
4450
340
4455
340
4454
340
4456
340
4457
340
4459
340
4458
340
445A
  0
LAYOUT
  5
143
102
{ACAD_REACTORS
330
141
102
}
330
141
100
AcDbPlotSettings
  1

  2
Acrobat Distiller
  4
A3
  6

 40
3.174999952316284
 41
3.174999952316284
 42
3.17498779296875
 43
3.17498779296875
 44
297.0318298339843
 45
420.1583251953125
 46
7.0
 47
7.0
 48
-10.98217039623477
 49
-8.760143579390614
140
409.0066258026172
141
284.4195676955944
142
1.0
143
1.0
 70
 11952
 72
     1
 73
     1
 74
     2
  7
print.ctb
 75
    16
147
1.0
148
0.0
149
0.0
100
AcDbLayout
  1
Model
 70
     1
 71
     0
 10
0.0
 20
0.0
 11
12.0
 21
9.0
 12
0.0
 22
0.0
 32
0.0
 14
0.0
 24
0.0
 34
0.0
 15
0.0
 25
0.0
 35
0.0
146
0.0
 13
0.0
 23
0.0
 33
0.0
 16
1.0
 26
0.0
 36
0.0
 17
0.0
 27
1.0
 37
0.0
 76
     0
330
1A
  0
LAYOUT
  5
144
102
{ACAD_REACTORS
330
141
102
}
330
141
100
AcDbPlotSettings
  1

  2
Canon LBP-A404 LIPS3
  4

  6

 40
0.0
 41
0.0
 42
0.0
 43
0.0
 44
0.0
 45
0.0
 46
0.0
 47
0.0
 48
0.0
 49
0.0
140
0.0
141
0.0
142
1.0
143
1.0
 70
   688
 72
     0
 73
     0
 74
     5
  7
print.ctb
 75
    16
147
1.0
148
0.0
149
0.0
100
AcDbLayout
  1
ﾚｲｱｳﾄ1
 70
     1
 71
     1
 10
0.0
 20
0.0
 11
420.0
 21
297.0
 12
0.0
 22
0.0
 32
0.0
 14
0.0
 24
0.0
 34
0.0
 15
420.0
 25
297.0
 35
0.0
146
0.0
 13
0.0
 23
0.0
 33
0.0
 16
1.0
 26
0.0
 36
0.0
 17
0.0
 27
1.0
 37
0.0
 76
     0
330
17
331
64
  0
MLINESTYLE
  5
13
102
{ACAD_REACTORS
330
E
102
}
330
E
100
AcDbMlineStyle
  2
STANDARD
 70
     0
  3

 62
     0
 51
90.0
 52
90.0
 71
     2
 49
0.5
 62
   256
  6
BYLAYER
 49
-0.5
 62
   256
  6
BYLAYER
  0
ACDBPLACEHOLDER
  5
140
102
{ACAD_REACTORS
330
13F
102
}
330
13F
  0
DICTIONARYVAR
  5
120E
102
{ACAD_REACTORS
330
120D
102
}
330
120D
100
DictionaryVariables
280
     0
  1
96
  0
ENDSEC
  0
EOF
