  0
SECTION
  2
HEADER
  9
$ACADVER
  1
AC1014
  9
$ACADMAINTVER
 70
     9
  9
$DWGCODEPAGE
  3
ANSI_932
  9
$INSBASE
 10
0.0
 20
0.0
 30
0.0
  9
$EXTMIN
 10
-0.0128167273850295
 20
-0.0090630292066862
 30
-0.0000000100021362
  9
$EXTMAX
 10
398.8000497650584
 20
275.8226172440017
 30
0.0000000100021363
  9
$LIMMIN
 10
0.0
 20
0.0
  9
$LIMMAX
 10
420.0
 20
297.0
  9
$ORTHOMODE
 70
     1
  9
$REGENMODE
 70
     1
  9
$FILLMODE
 70
     1
  9
$QTEXTMODE
 70
     0
  9
$MIRRTEXT
 70
     1
  9
$DRAGMODE
 70
     2
  9
$LTSCALE
 40
5.0
  9
$OSMODE
 70
    37
  9
$ATTMODE
 70
     1
  9
$TEXTSIZE
 40
3.0
  9
$TRACEWID
 40
1.0
  9
$TEXTSTYLE
  7
STANDARD
  9
$CLAYER
  8
SUNPOU
  9
$CELTYPE
  6
BYLAYER
  9
$CECOLOR
 62
   256
  9
$CELTSCALE
 40
1.0
  9
$DELOBJ
 70
     1
  9
$DISPSILH
 70
     0
  9
$DIMSCALE
 40
1.0
  9
$DIMASZ
 40
3.0
  9
$DIMEXO
 40
3.0
  9
$DIMDLI
 40
7.0
  9
$DIMRND
 40
0.0
  9
$DIMDLE
 40
0.0
  9
$DIMEXE
 40
1.5
  9
$DIMTP
 40
0.0
  9
$DIMTM
 40
0.0
  9
$DIMTXT
 40
3.0
  9
$DIMCEN
 40
3.0
  9
$DIMTSZ
 40
0.0
  9
$DIMTOL
 70
     0
  9
$DIMLIM
 70
     0
  9
$DIMTIH
 70
     0
  9
$DIMTOH
 70
     0
  9
$DIMSE1
 70
     0
  9
$DIMSE2
 70
     0
  9
$DIMTAD
 70
     3
  9
$DIMZIN
 70
     0
  9
$DIMBLK
  1

  9
$DIMASO
 70
     1
  9
$DIMSHO
 70
     1
  9
$DIMPOST
  1

  9
$DIMAPOST
  1

  9
$DIMALT
 70
     0
  9
$DIMALTD
 70
     2
  9
$DIMALTF
 40
25.4
  9
$DIMLFAC
 40
1.0
  9
$DIMTOFL
 70
     1
  9
$DIMTVP
 40
0.0
  9
$DIMTIX
 70
     0
  9
$DIMSOXD
 70
     0
  9
$DIMSAH
 70
     1
  9
$DIMBLK1
  1
OPEN
  9
$DIMBLK2
  1
OPEN
  9
$DIMSTYLE
  2
STANDARD
  9
$DIMCLRD
 70
   256
  9
$DIMCLRE
 70
   256
  9
$DIMCLRT
 70
   256
  9
$DIMTFAC
 40
1.0
  9
$DIMGAP
 40
1.0
  9
$DIMJUST
 70
     0
  9
$DIMSD1
 70
     0
  9
$DIMSD2
 70
     0
  9
$DIMTOLJ
 70
     1
  9
$DIMTZIN
 70
     0
  9
$DIMALTZ
 70
     0
  9
$DIMALTTZ
 70
     0
  9
$DIMFIT
 70
     3
  9
$DIMUPT
 70
     0
  9
$DIMUNIT
 70
     2
  9
$DIMDEC
 70
     0
  9
$DIMTDEC
 70
     0
  9
$DIMALTU
 70
     2
  9
$DIMALTTD
 70
     2
  9
$DIMTXSTY
  7
STANDARD
  9
$DIMAUNIT
 70
     0
  9
$LUNITS
 70
     2
  9
$LUPREC
 70
     4
  9
$SKETCHINC
 40
1.0
  9
$FILLETRAD
 40
2.0
  9
$AUNITS
 70
     0
  9
$AUPREC
 70
     0
  9
$MENU
  1
.
  9
$ELEVATION
 40
0.0
  9
$PELEVATION
 40
0.0
  9
$THICKNESS
 40
0.0
  9
$LIMCHECK
 70
     0
  9
$BLIPMODE
 70
     0
  9
$CHAMFERA
 40
10.0
  9
$CHAMFERB
 40
10.0
  9
$CHAMFERC
 40
20.0
  9
$CHAMFERD
 40
0.0
  9
$SKPOLY
 70
     0
  9
$TDCREATE
 40
2451589.469382176
  9
$TDUPDATE
 40
2454515.395265798
  9
$TDINDWG
 40
0.2641908333
  9
$TDUSRTIMER
 40
0.2641908333
  9
$USRTIMER
 70
     1
  9
$ANGBASE
 50
0.0
  9
$ANGDIR
 70
     0
  9
$PDMODE
 70
     0
  9
$PDSIZE
 40
0.0
  9
$PLINEWID
 40
0.0
  9
$COORDS
 70
     2
  9
$SPLFRAME
 70
     0
  9
$SPLINETYPE
 70
     6
  9
$SPLINESEGS
 70
     8
  9
$ATTDIA
 70
     0
  9
$ATTREQ
 70
     1
  9
$HANDLING
 70
 10241
  9
$HANDSEED
  5
5558
  9
$SURFTAB1
 70
     6
  9
$SURFTAB2
 70
     6
  9
$SURFTYPE
 70
     6
  9
$SURFU
 70
     6
  9
$SURFV
 70
     6
  9
$UCSNAME
  2

  9
$UCSORG
 10
0.0
 20
0.0
 30
0.0
  9
$UCSXDIR
 10
1.0
 20
0.0
 30
0.0
  9
$UCSYDIR
 10
0.0
 20
1.0
 30
0.0
  9
$PUCSNAME
  2

  9
$PUCSORG
 10
0.0
 20
0.0
 30
0.0
  9
$PUCSXDIR
 10
1.0
 20
0.0
 30
0.0
  9
$PUCSYDIR
 10
0.0
 20
1.0
 30
0.0
  9
$USERI1
 70
     0
  9
$USERI2
 70
     0
  9
$USERI3
 70
     0
  9
$USERI4
 70
     0
  9
$USERI5
 70
     0
  9
$USERR1
 40
0.0
  9
$USERR2
 40
0.0
  9
$USERR3
 40
0.0
  9
$USERR4
 40
0.0
  9
$USERR5
 40
0.0
  9
$WORLDVIEW
 70
     1
  9
$SHADEDGE
 70
     3
  9
$SHADEDIF
 70
    70
  9
$TILEMODE
 70
     1
  9
$MAXACTVP
 70
    16
  9
$PINSBASE
 10
0.0
 20
0.0
 30
0.0
  9
$PLIMCHECK
 70
     0
  9
$PEXTMIN
 10
0.0
 20
0.0
 30
0.0
  9
$PEXTMAX
 10
420.0
 20
297.0
 30
0.0
  9
$PLIMMIN
 10
0.0
 20
0.0
  9
$PLIMMAX
 10
420.0
 20
297.0
  9
$UNITMODE
 70
     0
  9
$VISRETAIN
 70
     0
  9
$PLINEGEN
 70
     0
  9
$PSLTSCALE
 70
     1
  9
$TREEDEPTH
 70
  3020
  9
$PICKSTYLE
 70
     1
  9
$CMLSTYLE
  2
STANDARD
  9
$CMLJUST
 70
     0
  9
$CMLSCALE
 40
1.0
  9
$PROXYGRAPHICS
 70
     1
  9
$MEASUREMENT
 70
     0
  0
ENDSEC
  0
SECTION
  2
CLASSES
  0
CLASS
  1
ACDBDICTIONARYWDFLT
  2
AcDbDictionaryWithDefault
  3
AutoCAD 2000
 90
        0
280
     0
281
     0
  0
CLASS
  1
ACDBPLACEHOLDER
  2
AcDbPlaceHolder
  3
AutoCAD 2000
 90
        0
280
     0
281
     0
  0
CLASS
  1
LAYOUT
  2
AcDbLayout
  3
AutoCAD 2000
 90
        0
280
     0
281
     0
  0
CLASS
  1
LONG_TRANSACTION
  2
AcDbLongTransaction
  3
AutoCAD 2000
 90
        0
280
     0
281
     0
  0
CLASS
  1
LWPOLYLINE
  2
AcDbPolyline
  3
AutoCAD 2000
 90
        0
280
     0
281
     1
  0
CLASS
  1
HATCH
  2
AcDbHatch
  3
AutoCAD 2000
 90
        0
280
     0
281
     1
  0
CLASS
  1
XRECORD
  2
AcDbXrecord
  3
AutoCAD 2000
 90
        0
280
     0
281
     0
  0
CLASS
  1
LONG_TRANSACTION
  2
AcDbLongTransaction
  3
AutoCAD 2000
 90
        0
280
     0
281
     0
  0
CLASS
  1
LWPOLYLINE
  2
AcDbPolyline
  3
AutoCAD 2000
 90
        0
280
     0
281
     1
  0
CLASS
  1
HATCH
  2
AcDbHatch
  3
AutoCAD 2000
 90
        0
280
     0
281
     1
  0
CLASS
  1
XRECORD
  2
AcDbXrecord
  3
AutoCAD 2000
 90
        0
280
     0
281
     0
  0
CLASS
  1
DICTIONARYVAR
  2
AcDbDictionaryVar
  3
AutoCAD 2000
 90
        0
280
     0
281
     0
  0
CLASS
  1
LONG_TRANSACTION
  2
AcDbLongTransaction
  3
AutoCAD 2000
 90
        0
280
     0
281
     0
  0
CLASS
  1
LWPOLYLINE
  2
AcDbPolyline
  3
AutoCAD 2000
 90
        0
280
     0
281
     1
  0
CLASS
  1
HATCH
  2
AcDbHatch
  3
AutoCAD 2000
 90
        0
280
     0
281
     1
  0
CLASS
  1
XRECORD
  2
AcDbXrecord
  3
AutoCAD 2000
 90
        0
280
     0
281
     0
  0
CLASS
  1
LONG_TRANSACTION
  2
AcDbLongTransaction
  3
AutoCAD 2000
 90
        0
280
     0
281
     0
  0
CLASS
  1
LWPOLYLINE
  2
AcDbPolyline
  3
AutoCAD 2000
 90
        0
280
     0
281
     1
  0
CLASS
  1
HATCH
  2
AcDbHatch
  3
AutoCAD 2000
 90
        0
280
     0
281
     1
  0
CLASS
  1
XRECORD
  2
AcDbXrecord
  3
AutoCAD 2000
 90
        0
280
     0
281
     0
  0
CLASS
  1
LONG_TRANSACTION
  2
AcDbLongTransaction
  3
AutoCAD 2000
 90
        0
280
     0
281
     0
  0
CLASS
  1
LWPOLYLINE
  2
AcDbPolyline
  3
AutoCAD 2000
 90
        0
280
     0
281
     1
  0
CLASS
  1
HATCH
  2
AcDbHatch
  3
AutoCAD 2000
 90
        0
280
     0
281
     1
  0
CLASS
  1
XRECORD
  2
AcDbXrecord
  3
AutoCAD 2000
 90
        0
280
     0
281
     0
  0
CLASS
  1
LONG_TRANSACTION
  2
AcDbLongTransaction
  3
AutoCAD 2000
 90
        0
280
     0
281
     0
  0
CLASS
  1
LWPOLYLINE
  2
AcDbPolyline
  3
AutoCAD 2000
 90
        0
280
     0
281
     1
  0
CLASS
  1
HATCH
  2
AcDbHatch
  3
AutoCAD 2000
 90
        0
280
     0
281
     1
  0
CLASS
  1
XRECORD
  2
AcDbXrecord
  3
AutoCAD 2000
 90
        0
280
     0
281
     0
  0
CLASS
  1
LONG_TRANSACTION
  2
AcDbLongTransaction
  3
AutoCAD 2000
 90
        0
280
     0
281
     0
  0
CLASS
  1
LWPOLYLINE
  2
AcDbPolyline
  3
AutoCAD 2000
 90
        0
280
     0
281
     1
  0
CLASS
  1
HATCH
  2
AcDbHatch
  3
AutoCAD 2000
 90
        0
280
     0
281
     1
  0
CLASS
  1
XRECORD
  2
AcDbXrecord
  3
AutoCAD 2000
 90
        0
280
     0
281
     0
  0
CLASS
  1
LONG_TRANSACTION
  2
AcDbLongTransaction
  3
AutoCAD 2000
 90
        0
280
     0
281
     0
  0
CLASS
  1
LWPOLYLINE
  2
AcDbPolyline
  3
AutoCAD 2000
 90
        0
280
     0
281
     1
  0
CLASS
  1
HATCH
  2
AcDbHatch
  3
AutoCAD 2000
 90
        0
280
     0
281
     1
  0
CLASS
  1
XRECORD
  2
AcDbXrecord
  3
AutoCAD 2000
 90
        0
280
     0
281
     0
  0
CLASS
  1
LONG_TRANSACTION
  2
AcDbLongTransaction
  3
AutoCAD 2000
 90
        0
280
     0
281
     0
  0
CLASS
  1
LWPOLYLINE
  2
AcDbPolyline
  3
AutoCAD 2000
 90
        0
280
     0
281
     1
  0
CLASS
  1
HATCH
  2
AcDbHatch
  3
AutoCAD 2000
 90
        0
280
     0
281
     1
  0
CLASS
  1
XRECORD
  2
AcDbXrecord
  3
AutoCAD 2000
 90
        0
280
     0
281
     0
  0
CLASS
  1
LONG_TRANSACTION
  2
AcDbLongTransaction
  3
AutoCAD 2000
 90
        0
280
     0
281
     0
  0
CLASS
  1
LWPOLYLINE
  2
AcDbPolyline
  3
AutoCAD 2000
 90
        0
280
     0
281
     1
  0
CLASS
  1
HATCH
  2
AcDbHatch
  3
AutoCAD 2000
 90
        0
280
     0
281
     1
  0
CLASS
  1
XRECORD
  2
AcDbXrecord
  3
AutoCAD 2000
 90
        0
280
     0
281
     0
  0
CLASS
  1
LONG_TRANSACTION
  2
AcDbLongTransaction
  3
AutoCAD 2000
 90
        0
280
     0
281
     0
  0
CLASS
  1
LWPOLYLINE
  2
AcDbPolyline
  3
AutoCAD 2000
 90
        0
280
     0
281
     1
  0
CLASS
  1
HATCH
  2
AcDbHatch
  3
AutoCAD 2000
 90
        0
280
     0
281
     1
  0
CLASS
  1
XRECORD
  2
AcDbXrecord
  3
AutoCAD 2000
 90
        0
280
     0
281
     0
  0
CLASS
  1
LONG_TRANSACTION
  2
AcDbLongTransaction
  3
AutoCAD 2000
 90
        0
280
     0
281
     0
  0
CLASS
  1
LWPOLYLINE
  2
AcDbPolyline
  3
AutoCAD 2000
 90
        0
280
     0
281
     1
  0
CLASS
  1
HATCH
  2
AcDbHatch
  3
AutoCAD 2000
 90
        0
280
     0
281
     1
  0
CLASS
  1
XRECORD
  2
AcDbXrecord
  3
AutoCAD 2000
 90
        0
280
     0
281
     0
  0
ENDSEC
  0
SECTION
  2
TABLES
  0
TABLE
  2
VPORT
  5
8
330
0
100
AcDbSymbolTable
 70
     2
  0
VPORT
  5
5534
330
8
100
AcDbSymbolTableRecord
100
AcDbViewportTableRecord
  2
*ACTIVE
 70
     0
 10
0.0
 20
0.0
 11
1.0
 21
1.0
 12
211.831410527111
 22
147.9028229623224
 13
0.0
 23
0.0
 14
5.0
 24
5.0
 15
0.0
 25
0.0
 16
0.0
 26
0.0
 36
1.0
 17
0.0
 27
0.0
 37
0.0
 40
350.7779630663307
 41
1.570153061224489
 42
50.0
 43
0.0
 44
0.0
 50
0.0
 51
0.0
 71
     0
 72
   100
 73
     1
 74
     0
 75
     0
 76
     0
 77
     0
 78
     0
  0
ENDTAB
  0
TABLE
  2
LTYPE
  5
5
330
0
100
AcDbSymbolTable
 70
     4
  0
LTYPE
  5
14
330
5
100
AcDbSymbolTableRecord
100
AcDbLinetypeTableRecord
  2
BYBLOCK
 70
     0
  3

 72
    65
 73
     0
 40
0.0
  0
LTYPE
  5
15
330
5
100
AcDbSymbolTableRecord
100
AcDbLinetypeTableRecord
  2
BYLAYER
 70
     0
  3

 72
    65
 73
     0
 40
0.0
  0
LTYPE
  5
16
330
5
100
AcDbSymbolTableRecord
100
AcDbLinetypeTableRecord
  2
CONTINUOUS
 70
     0
  3
Solid line
 72
    65
 73
     0
 40
0.0
  0
LTYPE
  5
120
330
5
100
AcDbSymbolTableRecord
100
AcDbLinetypeTableRecord
  2
CENTER
 70
     0
  3
____ _ ____ _ ____ _ ____ _ ____ _ ____ _ ____ 
 72
    65
 73
     4
 40
2.0
 49
1.25
 74
     0
 49
-0.25
 74
     0
 49
0.25
 74
     0
 49
-0.25
 74
     0
  0
LTYPE
  5
122
330
5
100
AcDbSymbolTableRecord
100
AcDbLinetypeTableRecord
  2
PHANTOM
 70
     0
  3
______  __  __  ______  __  __  ______  __  __ 
 72
    65
 73
     6
 40
2.5
 49
1.25
 74
     0
 49
-0.25
 74
     0
 49
0.25
 74
     0
 49
-0.25
 74
     0
 49
0.25
 74
     0
 49
-0.25
 74
     0
  0
LTYPE
  5
2BBB
330
5
100
AcDbSymbolTableRecord
100
AcDbLinetypeTableRecord
  2
DASHED
 70
     0
  3
__ __ __ __ __ __ __ __ __ __ __ __ __ __ __ __
 72
    65
 73
     2
 40
0.75
 49
0.5
 74
     0
 49
-0.25
 74
     0
  0
ENDTAB
  0
TABLE
  2
LAYER
  5
2
330
0
100
AcDbSymbolTable
 70
     9
  0
LAYER
  5
F
330
2
100
AcDbSymbolTableRecord
100
AcDbLayerTableRecord
  2
0
 70
     0
 62
     7
  6
CONTINUOUS
  0
LAYER
  5
62
330
2
100
AcDbSymbolTableRecord
100
AcDbLayerTableRecord
  2
VIEWPORT
 70
     0
 62
     7
  6
CONTINUOUS
  0
LAYER
  5
6B
330
2
100
AcDbSymbolTableRecord
100
AcDbLayerTableRecord
  2
ZUWAKU
 70
     0
 62
     7
  6
CONTINUOUS
  0
LAYER
  5
3EF
330
2
100
AcDbSymbolTableRecord
100
AcDbLayerTableRecord
  2
DEFPOINTS
 70
     0
 62
     7
  6
CONTINUOUS
  0
LAYER
  5
54D
330
2
100
AcDbSymbolTableRecord
100
AcDbLayerTableRecord
  2
SEIHIN
 70
     0
 62
     3
  6
CONTINUOUS
  0
LAYER
  5
54E
330
2
100
AcDbSymbolTableRecord
100
AcDbLayerTableRecord
  2
SUNPOU
 70
     0
 62
     4
  6
CONTINUOUS
  0
LAYER
  5
54F
330
2
100
AcDbSymbolTableRecord
100
AcDbLayerTableRecord
  2
CENTER_L
 70
     0
 62
     1
  6
CENTER
  0
LAYER
  5
550
330
2
100
AcDbSymbolTableRecord
100
AcDbLayerTableRecord
  2
NOKITOI
 70
     0
 62
     8
  6
PHANTOM
  0
LAYER
  5
2988
330
2
100
AcDbSymbolTableRecord
100
AcDbLayerTableRecord
  2
MOJI
 70
     0
 62
     2
  6
CONTINUOUS
  0
ENDTAB
  0
TABLE
  2
STYLE
  5
3
330
0
100
AcDbSymbolTable
 70
     2
  0
STYLE
  5
10
330
3
100
AcDbSymbolTableRecord
100
AcDbTextStyleTableRecord
  2
STANDARD
 70
     0
 40
0.0
 41
1.0
 50
0.0
 71
     0
 42
3.0
  3
TXT
  4
c:\PROGRAM FILES\AUTOCAD LT\ms\bigfont.shx
  0
STYLE
  5
2989
330
3
100
AcDbSymbolTableRecord
100
AcDbTextStyleTableRecord
  2
ｽﾀｲﾙ1
 70
     0
 40
0.0
 41
1.0
 50
0.0
 71
     0
 42
2.5
  3
MS PGothic.ttf
  4

1001
ACAD
1000
MS PGothic
1071
    32818
  0
ENDTAB
  0
TABLE
  2
VIEW
  5
6
330
0
100
AcDbSymbolTable
 70
     0
  0
ENDTAB
  0
TABLE
  2
UCS
  5
7
330
0
100
AcDbSymbolTable
 70
     0
  0
ENDTAB
  0
TABLE
  2
APPID
  5
9
330
0
100
AcDbSymbolTable
 70
     1
  0
APPID
  5
11
330
9
100
AcDbSymbolTableRecord
100
AcDbRegAppTableRecord
  2
ACAD
 70
     0
  0
ENDTAB
  0
TABLE
  2
DIMSTYLE
  5
A
330
0
100
AcDbSymbolTable
 70
     1
  0
DIMSTYLE
105
1D
102
{ACAD_REACTORS
330
5224
330
522C
330
522D
330
5235
330
5236
330
52F8
330
534F
330
5355
330
5373
330
5397
330
539D
330
539E
330
53A0
330
53D4
102
}
330
A
100
AcDbSymbolTableRecord
100
AcDbDimStyleTableRecord
  2
STANDARD
 70
     0
  3

  4

  5

  6

  7

 40
1.0
 41
0.18
 42
0.0625
 43
0.38
 44
0.18
 45
0.0
 46
0.0
 47
0.0
 48
0.0
140
0.18
141
0.09
142
0.0
143
25.4
144
1.0
145
0.0
146
1.0
147
0.09
 71
     0
 72
     0
 73
     1
 74
     1
 75
     0
 76
     0
 77
     0
 78
     0
170
     0
171
     2
172
     0
173
     0
174
     0
175
     0
176
     0
177
     0
178
     0
270
     2
271
     4
272
     4
273
     2
274
     2
340
10
275
     0
280
     0
281
     0
282
     0
283
     1
284
     0
285
     0
286
     0
287
     3
288
     0
  0
ENDTAB
  0
TABLE
  2
BLOCK_RECORD
  5
1
330
0
100
AcDbSymbolTable
 70
    15
  0
BLOCK_RECORD
  5
1A
102
{ACAD_XDICTIONARY
360
7A2
102
}
330
1
100
AcDbSymbolTableRecord
100
AcDbBlockTableRecord
  2
*MODEL_SPACE
  0
BLOCK_RECORD
  5
17
102
{ACAD_XDICTIONARY
360
7A0
102
}
330
1
100
AcDbSymbolTableRecord
100
AcDbBlockTableRecord
  2
*PAPER_SPACE
  0
BLOCK_RECORD
  5
B2
330
1
100
AcDbSymbolTableRecord
100
AcDbBlockTableRecord
  2
_OPEN
  0
BLOCK_RECORD
  5
5400
330
1
100
AcDbSymbolTableRecord
100
AcDbBlockTableRecord
  2
*D1
  0
BLOCK_RECORD
  5
540C
330
1
100
AcDbSymbolTableRecord
100
AcDbBlockTableRecord
  2
*D2
  0
BLOCK_RECORD
  5
5418
330
1
100
AcDbSymbolTableRecord
100
AcDbBlockTableRecord
  2
*D3
  0
BLOCK_RECORD
  5
5424
330
1
100
AcDbSymbolTableRecord
100
AcDbBlockTableRecord
  2
*D4
  0
BLOCK_RECORD
  5
5430
330
1
100
AcDbSymbolTableRecord
100
AcDbBlockTableRecord
  2
*D5
  0
BLOCK_RECORD
  5
543C
330
1
100
AcDbSymbolTableRecord
100
AcDbBlockTableRecord
  2
*D6
  0
BLOCK_RECORD
  5
5448
330
1
100
AcDbSymbolTableRecord
100
AcDbBlockTableRecord
  2
*D7
  0
BLOCK_RECORD
  5
5456
330
1
100
AcDbSymbolTableRecord
100
AcDbBlockTableRecord
  2
*D8
  0
BLOCK_RECORD
  5
5462
330
1
100
AcDbSymbolTableRecord
100
AcDbBlockTableRecord
  2
*D9
  0
BLOCK_RECORD
  5
5470
330
1
100
AcDbSymbolTableRecord
100
AcDbBlockTableRecord
  2
*D10
  0
BLOCK_RECORD
  5
547C
330
1
100
AcDbSymbolTableRecord
100
AcDbBlockTableRecord
  2
*D11
  0
BLOCK_RECORD
  5
5488
330
1
100
AcDbSymbolTableRecord
100
AcDbBlockTableRecord
  2
*D12
  0
BLOCK_RECORD
  5
5494
330
1
100
AcDbSymbolTableRecord
100
AcDbBlockTableRecord
  2
*D13
  0
BLOCK_RECORD
  5
54A0
330
1
100
AcDbSymbolTableRecord
100
AcDbBlockTableRecord
  2
*D14
  0
ENDTAB
  0
ENDSEC
  0
SECTION
  2
BLOCKS
  0
BLOCK
  5
1B
330
1A
100
AcDbEntity
  8
0
100
AcDbBlockBegin
  2
*MODEL_SPACE
 70
     0
 10
0.0
 20
0.0
 30
0.0
  3
*MODEL_SPACE
  1

  0
ENDBLK
  5
1C
330
1A
100
AcDbEntity
  8
0
100
AcDbBlockEnd
  0
BLOCK
  5
18
330
17
100
AcDbEntity
 67
     1
  8
0
100
AcDbBlockBegin
  2
*PAPER_SPACE
 70
     0
 10
0.0
 20
0.0
 30
0.0
  3
*PAPER_SPACE
  1

  0
ENDBLK
  5
19
330
17
100
AcDbEntity
 67
     1
  8
0
100
AcDbBlockEnd
  0
BLOCK
  5
B3
330
B2
100
AcDbEntity
  8
0
100
AcDbBlockBegin
  2
_OPEN
 70
     0
 10
0.0
 20
0.0
 30
0.0
  3
_OPEN
  1

  0
LINE
  5
B4
330
B2
100
AcDbEntity
  8
0
  6
BYBLOCK
 62
     0
100
AcDbLine
 10
-1.0
 20
0.1666666666666666
 30
0.0
 11
0.0
 21
0.0
 31
0.0
  0
LINE
  5
B5
330
B2
100
AcDbEntity
  8
0
  6
BYBLOCK
 62
     0
100
AcDbLine
 10
0.0
 20
0.0
 30
0.0
 11
-1.0
 21
-0.1666666666666666
 31
0.0
  0
LINE
  5
B6
330
B2
100
AcDbEntity
  8
0
  6
BYBLOCK
 62
     0
100
AcDbLine
 10
0.0
 20
0.0
 30
0.0
 11
-1.0
 21
0.0
 31
0.0
  0
ENDBLK
  5
B7
330
B2
100
AcDbEntity
  8
0
100
AcDbBlockEnd
  0
BLOCK
  5
540A
330
5400
100
AcDbEntity
  8
0
100
AcDbBlockBegin
  2
*D1
 70
     1
 10
0.0
 20
0.0
 30
0.0
  3
*D1
  1

  0
LINE
  5
54AC
330
5400
100
AcDbEntity
  8
SUNPOU
100
AcDbLine
 10
219.1732050782361
 20
136.3554850523908
 30
0.0
 11
239.2524142495305
 21
146.395089638038
 31
0.0
  0
LINE
  5
54AD
330
5400
100
AcDbEntity
  8
SUNPOU
100
AcDbLine
 10
242.428312044234
 20
89.84527112039522
 30
0.0
 11
262.5075212155283
 21
99.88487570604242
 31
0.0
  0
LINE
  5
54AE
330
5400
100
AcDbEntity
  8
SUNPOU
100
AcDbLine
 10
239.2524142495305
 20
143.0409876717883
 30
0.0
 11
259.8242396425286
 21
101.8973368857922
 31
0.0
  0
INSERT
  5
54AF
330
5400
100
AcDbEntity
  8
SUNPOU
100
AcDbBlockReference
  2
_OPEN
 10
237.9107734630307
 20
145.7242692447881
 30
0.0
 41
3.0
 42
3.0
 43
3.0
 50
116.5650511770779
  0
INSERT
  5
54B0
330
5400
100
AcDbEntity
  8
SUNPOU
100
AcDbBlockReference
  2
_OPEN
 10
261.1658804290285
 20
99.21405531279248
 30
0.0
 41
3.0
 42
3.0
 43
3.0
 50
296.5650511770779
  0
MTEXT
  5
54B1
330
5400
100
AcDbEntity
  8
SUNPOU
100
AcDbMText
 10
251.7743949235293
 20
123.5871962675402
 30
0.0
 40
3.0
 41
0.0
 71
     5
 72
     1
  1
\A1;52
 11
0.4472135954999581
 21
-0.8944271909999159
 31
0.0
1001
ACAD
1000
MTEXTBEGIN
1070
    73
1070
     1
1070
    44
1040
1.0
1070
    74
1070
     0
1000
MTEXTEND
  0
POINT
  5
54B2
330
5400
100
AcDbEntity
  8
DEFPOINTS
 62
     0
100
AcDbPoint
 10
216.4899235052364
 20
135.0138442658909
 30
0.0
  0
POINT
  5
54B3
330
5400
100
AcDbEntity
  8
DEFPOINTS
 62
     0
100
AcDbPoint
 10
239.7450304712342
 20
88.50363033389534
 30
0.0
  0
POINT
  5
54B4
330
5400
100
AcDbEntity
  8
DEFPOINTS
 62
     0
100
AcDbPoint
 10
261.1658804290285
 20
99.21405531279248
 30
0.0
  0
ENDBLK
  5
540B
330
5400
100
AcDbEntity
  8
0
100
AcDbBlockEnd
  0
BLOCK
  5
5416
330
540C
100
AcDbEntity
  8
0
100
AcDbBlockBegin
  2
*D2
 70
     1
 10
0.0
 20
0.0
 30
0.0
  3
*D2
  1

  0
LINE
  5
54B5
330
540C
100
AcDbEntity
  8
SUNPOU
100
AcDbLine
 10
219.0127005817309
 20
132.9682901051756
 30
0.0
 11
219.0127005817309
 21
158.5757484530963
 31
0.0
  0
LINE
  5
54B6
330
540C
100
AcDbEntity
  8
SUNPOU
100
AcDbLine
 10
234.0127005897668
 20
132.9682900839523
 30
0.0
 11
234.0127005897668
 21
158.5757484530963
 31
0.0
  0
LINE
  5
54B7
330
540C
100
AcDbEntity
  8
SUNPOU
100
AcDbLine
 10
222.0127005817309
 20
157.0757484530963
 30
0.0
 11
231.0127005897669
 21
157.0757484530963
 31
0.0
  0
INSERT
  5
54B8
330
540C
100
AcDbEntity
  8
SUNPOU
100
AcDbBlockReference
  2
_OPEN
 10
219.0127005817309
 20
157.0757484530963
 30
0.0
 41
3.0
 42
3.0
 43
3.0
 50
180.0
  0
INSERT
  5
54B9
330
540C
100
AcDbEntity
  8
SUNPOU
100
AcDbBlockReference
  2
_OPEN
 10
234.0127005897668
 20
157.0757484530963
 30
0.0
 41
3.0
 42
3.0
 43
3.0
  0
MTEXT
  5
54BA
330
540C
100
AcDbEntity
  8
SUNPOU
100
AcDbMText
 10
226.5127005857489
 20
159.5757484530963
 30
0.0
 40
3.0
 41
0.0
 71
     5
 72
     1
  1
\A1;15
1001
ACAD
1000
MTEXTBEGIN
1070
    73
1070
     1
1070
    44
1040
1.0
1070
    74
1070
     0
1000
MTEXTEND
  0
POINT
  5
54BB
330
540C
100
AcDbEntity
  8
DEFPOINTS
 62
     0
100
AcDbPoint
 10
219.0127005817309
 20
129.9682901051756
 30
0.0
  0
POINT
  5
54BC
330
540C
100
AcDbEntity
  8
DEFPOINTS
 62
     0
100
AcDbPoint
 10
234.0127005897668
 20
129.9682900839523
 30
0.0
  0
POINT
  5
54BD
330
540C
100
AcDbEntity
  8
DEFPOINTS
 62
     0
100
AcDbPoint
 10
234.0127005897668
 20
157.0757484530963
 30
0.0
  0
ENDBLK
  5
5417
330
540C
100
AcDbEntity
  8
0
100
AcDbBlockEnd
  0
BLOCK
  5
5422
330
5418
100
AcDbEntity
  8
0
100
AcDbBlockBegin
  2
*D3
 70
     1
 10
0.0
 20
0.0
 30
0.0
  3
*D3
  1

  0
LINE
  5
54BE
330
5418
100
AcDbEntity
  8
SUNPOU
100
AcDbLine
 10
214.9693972783344
 20
116.3650373311954
 30
0.0
 11
205.7396208942104
 21
111.7501491382735
 31
0.0
  0
LINE
  5
54BF
330
5418
100
AcDbEntity
  8
SUNPOU
100
AcDbLine
 10
231.0690867183344
 20
84.16565845719544
 30
0.0
 11
221.8393103342104
 21
79.5507702642735
 31
0.0
  0
LINE
  5
54C0
330
5418
100
AcDbEntity
  8
SUNPOU
100
AcDbLine
 10
208.4229024673602
 20
109.7376879587236
 30
0.0
 11
221.8393103339604
 21
82.90487223052318
 31
0.0
  0
INSERT
  5
54C1
330
5418
100
AcDbEntity
  8
SUNPOU
100
AcDbBlockReference
  2
_OPEN
 10
207.0812616806603
 20
112.4209695316234
 30
0.0
 41
3.0
 42
3.0
 43
3.0
 50
116.5650511813485
  0
INSERT
  5
54C2
330
5418
100
AcDbEntity
  8
SUNPOU
100
AcDbBlockReference
  2
_OPEN
 10
223.1809511206603
 20
80.22159065762343
 30
0.0
 41
3.0
 42
3.0
 43
3.0
 50
296.5650511813485
  0
MTEXT
  5
54C3
330
5418
100
AcDbEntity
  8
SUNPOU
100
AcDbMText
 10
217.3671743780767
 20
97.43931408354001
 30
0.0
 40
3.0
 41
0.0
 71
     5
 72
     1
  1
\A1;36
 11
0.4472135955666247
 21
-0.8944271909665825
 31
0.0
1001
ACAD
1000
MTEXTBEGIN
1070
    73
1070
     1
1070
    44
1040
1.0
1070
    74
1070
     0
1000
MTEXTEND
  0
POINT
  5
54C4
330
5418
100
AcDbEntity
  8
DEFPOINTS
 62
     0
100
AcDbPoint
 10
217.6526788512342
 20
117.7066781178953
 30
0.0
  0
POINT
  5
54C5
330
5418
100
AcDbEntity
  8
DEFPOINTS
 62
     0
100
AcDbPoint
 10
233.7523682912342
 20
85.5072992438953
 30
0.0
  0
POINT
  5
54C6
330
5418
100
AcDbEntity
  8
DEFPOINTS
 62
     0
100
AcDbPoint
 10
223.1809511206603
 20
80.22159065762343
 30
0.0
  0
ENDBLK
  5
5423
330
5418
100
AcDbEntity
  8
0
100
AcDbBlockEnd
  0
BLOCK
  5
542E
330
5424
100
AcDbEntity
  8
0
100
AcDbBlockBegin
  2
*D4
 70
     1
 10
0.0
 20
0.0
 30
0.0
  3
*D4
  1

  0
LINE
  5
54C7
330
5424
100
AcDbEntity
  8
SUNPOU
100
AcDbLine
 10
187.5224339712344
 20
95.42968696305768
 30
0.0
 11
187.5224339712344
 21
149.8511320111401
 31
0.0
  0
LINE
  5
54C8
330
5424
100
AcDbEntity
  8
SUNPOU
100
AcDbLine
 10
219.0127005817309
 20
132.9682901051756
 30
0.0
 11
219.0127005817309
 21
149.8511320111401
 31
0.0
  0
LINE
  5
54C9
330
5424
100
AcDbEntity
  8
SUNPOU
100
AcDbLine
 10
190.5224339712344
 20
148.3511320111401
 30
0.0
 11
216.0127005817308
 21
148.3511320111401
 31
0.0
  0
INSERT
  5
54CA
330
5424
100
AcDbEntity
  8
SUNPOU
100
AcDbBlockReference
  2
_OPEN
 10
187.5224339712344
 20
148.3511320111401
 30
0.0
 41
3.0
 42
3.0
 43
3.0
 50
180.0
  0
INSERT
  5
54CB
330
5424
100
AcDbEntity
  8
SUNPOU
100
AcDbBlockReference
  2
_OPEN
 10
219.0127005817309
 20
148.3511320111401
 30
0.0
 41
3.0
 42
3.0
 43
3.0
  0
MTEXT
  5
54CC
330
5424
100
AcDbEntity
  8
SUNPOU
100
AcDbMText
 10
203.2675672764826
 20
150.8511320111401
 30
0.0
 40
3.0
 41
0.0
 71
     5
 72
     1
  1
\A1;31
1001
ACAD
1000
MTEXTBEGIN
1070
    73
1070
     1
1070
    44
1040
1.0
1070
    74
1070
     0
1000
MTEXTEND
  0
POINT
  5
54CD
330
5424
100
AcDbEntity
  8
DEFPOINTS
 62
     0
100
AcDbPoint
 10
187.5224339712344
 20
92.42968696305769
 30
0.0
  0
POINT
  5
54CE
330
5424
100
AcDbEntity
  8
DEFPOINTS
 62
     0
100
AcDbPoint
 10
219.0127005817309
 20
129.9682901051756
 30
0.0
  0
POINT
  5
54CF
330
5424
100
AcDbEntity
  8
DEFPOINTS
 62
     0
100
AcDbPoint
 10
219.0127005817309
 20
148.3511320111401
 30
0.0
  0
ENDBLK
  5
542F
330
5424
100
AcDbEntity
  8
0
100
AcDbBlockEnd
  0
BLOCK
  5
543A
330
5430
100
AcDbEntity
  8
0
100
AcDbBlockBegin
  2
*D5
 70
     1
 10
0.0
 20
0.0
 30
0.0
  3
*D5
  1

  0
LINE
  5
54D0
330
5430
100
AcDbEntity
  8
SUNPOU
100
AcDbLine
 10
75.05418397123429
 20
93.88128696389527
 30
0.0
 11
75.05418397123429
 21
158.5757484530963
 31
0.0
  0
LINE
  5
54D1
330
5430
100
AcDbEntity
  8
SUNPOU
100
AcDbLine
 10
219.0127005817309
 20
132.9682901051756
 30
0.0
 11
219.0127005817309
 21
158.5757484530963
 31
0.0
  0
LINE
  5
54D2
330
5430
100
AcDbEntity
  8
SUNPOU
100
AcDbLine
 10
78.05418397123429
 20
157.0757484530963
 30
0.0
 11
216.0127005817308
 21
157.0757484530963
 31
0.0
  0
INSERT
  5
54D3
330
5430
100
AcDbEntity
  8
SUNPOU
100
AcDbBlockReference
  2
_OPEN
 10
75.05418397123429
 20
157.0757484530963
 30
0.0
 41
3.0
 42
3.0
 43
3.0
 50
180.0
  0
INSERT
  5
54D4
330
5430
100
AcDbEntity
  8
SUNPOU
100
AcDbBlockReference
  2
_OPEN
 10
219.0127005817309
 20
157.0757484530963
 30
0.0
 41
3.0
 42
3.0
 43
3.0
  0
MTEXT
  5
54D5
330
5430
100
AcDbEntity
  8
SUNPOU
100
AcDbMText
 10
147.0334422764826
 20
159.5757484530963
 30
0.0
 40
3.0
 41
0.0
 71
     5
 72
     1
  1
\A1;144
1001
ACAD
1000
MTEXTBEGIN
1070
    73
1070
     1
1070
    44
1040
1.0
1070
    74
1070
     0
1000
MTEXTEND
  0
POINT
  5
54D6
330
5430
100
AcDbEntity
  8
DEFPOINTS
 62
     0
100
AcDbPoint
 10
75.05418397123429
 20
90.88128696389526
 30
0.0
  0
POINT
  5
54D7
330
5430
100
AcDbEntity
  8
DEFPOINTS
 62
     0
100
AcDbPoint
 10
219.0127005817309
 20
129.9682901051756
 30
0.0
  0
POINT
  5
54D8
330
5430
100
AcDbEntity
  8
DEFPOINTS
 62
     0
100
AcDbPoint
 10
219.0127005817309
 20
157.0757484530963
 30
0.0
  0
ENDBLK
  5
543B
330
5430
100
AcDbEntity
  8
0
100
AcDbBlockEnd
  0
BLOCK
  5
5446
330
543C
100
AcDbEntity
  8
0
100
AcDbBlockBegin
  2
*D6
 70
     1
 10
0.0
 20
0.0
 30
0.0
  3
*D6
  1

  0
LINE
  5
54D9
330
543C
100
AcDbEntity
  8
SUNPOU
100
AcDbLine
 10
72.0541839712343
 20
227.2829830764973
 30
0.0
 11
49.15128019941813
 21
227.2829830764973
 31
0.0
  0
LINE
  5
54DA
330
543C
100
AcDbEntity
  8
SUNPOU
100
AcDbLine
 10
72.0541839712343
 20
205.2829830364972
 30
0.0
 11
49.15128019941812
 21
205.2829830364973
 31
0.0
  0
LINE
  5
54DB
330
543C
100
AcDbEntity
  8
SUNPOU
100
AcDbLine
 10
50.65128019941813
 20
224.2829830764973
 30
0.0
 11
50.65128019941813
 21
208.2829830364973
 31
0.0
  0
INSERT
  5
54DC
330
543C
100
AcDbEntity
  8
SUNPOU
100
AcDbBlockReference
  2
_OPEN
 10
50.65128019941813
 20
227.2829830764973
 30
0.0
 41
3.0
 42
3.0
 43
3.0
 50
90.0
  0
INSERT
  5
54DD
330
543C
100
AcDbEntity
  8
SUNPOU
100
AcDbBlockReference
  2
_OPEN
 10
50.65128019941813
 20
205.2829830364973
 30
0.0
 41
3.0
 42
3.0
 43
3.0
 50
270.0
  0
MTEXT
  5
54DE
330
543C
100
AcDbEntity
  8
SUNPOU
100
AcDbMText
 10
48.15128019941809
 20
216.2829830564973
 30
0.0
 40
3.0
 41
0.0
 71
     5
 72
     1
  1
\A1;22
 11
0.0000000000000001
 21
1.0
 31
0.0
1001
ACAD
1000
MTEXTBEGIN
1070
    73
1070
     1
1070
    44
1040
1.0
1070
    74
1070
     0
1000
MTEXTEND
  0
POINT
  5
54DF
330
543C
100
AcDbEntity
  8
DEFPOINTS
 62
     0
100
AcDbPoint
 10
75.05418397123429
 20
227.2829830764973
 30
0.0
  0
POINT
  5
54E0
330
543C
100
AcDbEntity
  8
DEFPOINTS
 62
     0
100
AcDbPoint
 10
75.05418397123429
 20
205.2829830364972
 30
0.0
  0
POINT
  5
54E1
330
543C
100
AcDbEntity
  8
DEFPOINTS
 62
     0
100
AcDbPoint
 10
50.65128019941813
 20
205.2829830364973
 30
0.0
  0
ENDBLK
  5
5447
330
543C
100
AcDbEntity
  8
0
100
AcDbBlockEnd
  0
BLOCK
  5
5454
330
5448
100
AcDbEntity
  8
0
100
AcDbBlockBegin
  2
*D7
 70
     1
 10
0.0
 20
0.0
 30
0.0
  3
*D7
  1

  0
LINE
  5
54E2
330
5448
100
AcDbEntity
  8
SUNPOU
100
AcDbLine
 10
290.6994016568979
 20
154.2300395280198
 30
0.0
 11
277.6139701727755
 21
147.6873237882446
 31
0.0
  0
LINE
  5
54E3
330
5448
100
AcDbEntity
  8
SUNPOU
100
AcDbLine
 10
293.159076427396
 20
149.3106899853047
 30
0.0
 11
280.0736449432736
 21
142.7679742455296
 31
0.0
  0
LINE
  5
54E4
330
5448
100
AcDbEntity
  8
SUNPOU
100
AcDbLine
 10
277.6139701732442
 20
151.0414257544943
 30
0.0
 11
276.2723293871194
 21
153.7247073276816
 31
0.0
  0
LINE
  5
54E5
330
5448
100
AcDbEntity
  8
SUNPOU
100
AcDbLine
 10
282.7569265159921
 20
140.7555130654048
 30
0.0
 11
284.0985673021169
 21
138.0722314922175
 31
0.0
  0
LINE
  5
54E6
330
5448
100
AcDbEntity
  8
SUNPOU
100
AcDbLine
 10
278.9556109593691
 20
148.3581441813071
 30
0.0
 11
281.4152857298672
 21
143.438794638592
 31
0.0
  0
INSERT
  5
54E7
330
5448
100
AcDbEntity
  8
SUNPOU
100
AcDbBlockReference
  2
_OPEN
 10
278.9556109593691
 20
148.3581441813071
 30
0.0
 41
3.0
 42
3.0
 43
3.0
 50
296.5650511690702
  0
INSERT
  5
54E8
330
5448
100
AcDbEntity
  8
SUNPOU
100
AcDbBlockReference
  2
_OPEN
 10
281.4152857298672
 20
143.438794638592
 30
0.0
 41
3.0
 42
3.0
 43
3.0
 50
116.5650511690702
  0
MTEXT
  5
54E9
330
5448
100
AcDbEntity
  8
SUNPOU
100
AcDbMText
 10
282.4215163222742
 20
147.0165033983869
 30
0.0
 40
3.0
 41
0.0
 71
     5
 72
     1
  1
\A1;6
 11
0.4472135953749519
 21
-0.8944271910624188
 31
0.0
1001
ACAD
1000
MTEXTBEGIN
1070
    73
1070
     1
1070
    44
1040
1.0
1070
    74
1070
     0
1000
MTEXTEND
  0
POINT
  5
54EA
330
5448
100
AcDbEntity
  8
DEFPOINTS
 62
     0
100
AcDbPoint
 10
293.3826832300851
 20
155.5716803141447
 30
0.0
  0
POINT
  5
54EB
330
5448
100
AcDbEntity
  8
DEFPOINTS
 62
     0
100
AcDbPoint
 10
295.8423580005832
 20
150.6523307714296
 30
0.0
  0
POINT
  5
54EC
330
5448
100
AcDbEntity
  8
DEFPOINTS
 62
     0
100
AcDbPoint
 10
281.4152857298672
 20
143.438794638592
 30
0.0
  0
ENDBLK
  5
5455
330
5448
100
AcDbEntity
  8
0
100
AcDbBlockEnd
  0
BLOCK
  5
5460
330
5456
100
AcDbEntity
  8
0
100
AcDbBlockBegin
  2
*D8
 70
     1
 10
0.0
 20
0.0
 30
0.0
  3
*D8
  1

  0
LINE
  5
54ED
330
5456
100
AcDbEntity
  8
SUNPOU
100
AcDbLine
 10
290.6994016568978
 20
154.2300395280197
 30
0.0
 11
269.2204889345132
 21
143.4905831705797
 31
0.0
  0
LINE
  5
54EE
330
5456
100
AcDbEntity
  8
SUNPOU
100
AcDbLine
 10
306.7990910853722
 20
122.0306606598211
 30
0.0
 11
285.3201783629875
 21
111.2912043023811
 31
0.0
  0
LINE
  5
54EF
330
5456
100
AcDbEntity
  8
SUNPOU
100
AcDbLine
 10
271.9037705072318
 20
141.4781219904549
 30
0.0
 11
285.3201783634563
 21
114.6453062686308
 31
0.0
  0
INSERT
  5
54F0
330
5456
100
AcDbEntity
  8
SUNPOU
100
AcDbBlockReference
  2
_OPEN
 10
270.5621297211068
 20
144.1614035636421
 30
0.0
 41
3.0
 42
3.0
 43
3.0
 50
116.5650511690706
  0
INSERT
  5
54F1
330
5456
100
AcDbEntity
  8
SUNPOU
100
AcDbBlockReference
  2
_OPEN
 10
286.6618191495811
 20
111.9620246954435
 30
0.0
 41
3.0
 42
3.0
 43
3.0
 50
296.5650511690706
  0
MTEXT
  5
54F2
330
5456
100
AcDbEntity
  8
SUNPOU
100
AcDbMText
 10
280.848042413
 20
129.1797481179802
 30
0.0
 40
3.0
 41
0.0
 71
     5
 72
     1
  1
\A1;36
 11
0.4472135953749576
 21
-0.8944271910624163
 31
0.0
1001
ACAD
1000
MTEXTBEGIN
1070
    73
1070
     1
1070
    44
1040
1.0
1070
    74
1070
     0
1000
MTEXTEND
  0
POINT
  5
54F3
330
5456
100
AcDbEntity
  8
DEFPOINTS
 62
     0
100
AcDbPoint
 10
293.3826832300851
 20
155.5716803141446
 30
0.0
  0
POINT
  5
54F4
330
5456
100
AcDbEntity
  8
DEFPOINTS
 62
     0
100
AcDbPoint
 10
309.4823726585594
 20
123.372301445946
 30
0.0
  0
POINT
  5
54F5
330
5456
100
AcDbEntity
  8
DEFPOINTS
 62
     0
100
AcDbPoint
 10
286.6618191495811
 20
111.9620246954435
 30
0.0
  0
ENDBLK
  5
5461
330
5456
100
AcDbEntity
  8
0
100
AcDbBlockEnd
  0
BLOCK
  5
546E
330
5462
100
AcDbEntity
  8
0
100
AcDbBlockBegin
  2
*D9
 70
     1
 10
0.0
 20
0.0
 30
0.0
  3
*D9
  1

  0
LINE
  5
54F6
330
5462
100
AcDbEntity
  8
SUNPOU
100
AcDbLine
 10
304.3394163162709
 20
126.9500101997423
 30
0.0
 11
291.2539848321483
 21
120.4072944599668
 31
0.0
  0
LINE
  5
54F7
330
5462
100
AcDbEntity
  8
SUNPOU
100
AcDbLine
 10
306.7990910853721
 20
122.0306606598212
 30
0.0
 11
293.7136596012495
 21
115.4879449200457
 31
0.0
  0
LINE
  5
54F8
330
5462
100
AcDbEntity
  8
SUNPOU
100
AcDbLine
 10
291.2539848326171
 20
123.7613964262165
 30
0.0
 11
289.9123440464923
 21
126.4446779994038
 31
0.0
  0
LINE
  5
54F9
330
5462
100
AcDbEntity
  8
SUNPOU
100
AcDbLine
 10
296.3969411739681
 20
113.475483739921
 30
0.0
 11
297.7385819600929
 21
110.7922021667337
 31
0.0
  0
LINE
  5
54FA
330
5462
100
AcDbEntity
  8
SUNPOU
100
AcDbLine
 10
292.595625618742
 20
121.0781148530293
 30
0.0
 11
295.0553003878432
 21
116.1587653131082
 31
0.0
  0
INSERT
  5
54FB
330
5462
100
AcDbEntity
  8
SUNPOU
100
AcDbBlockReference
  2
_OPEN
 10
292.595625618742
 20
121.0781148530293
 30
0.0
 41
3.0
 42
3.0
 43
3.0
 50
296.5650511690707
  0
INSERT
  5
54FC
330
5462
100
AcDbEntity
  8
SUNPOU
100
AcDbBlockReference
  2
_OPEN
 10
295.0553003878432
 20
116.1587653131082
 30
0.0
 41
3.0
 42
3.0
 43
3.0
 50
116.5650511690707
  0
MTEXT
  5
54FD
330
5462
100
AcDbEntity
  8
SUNPOU
100
AcDbMText
 10
296.0615309809486
 20
119.7364740715061
 30
0.0
 40
3.0
 41
0.0
 71
     5
 72
     1
  1
\A1;6
 11
0.4472135953749599
 21
-0.8944271910624149
 31
0.0
1001
ACAD
1000
MTEXTBEGIN
1070
    73
1070
     1
1070
    44
1040
1.0
1070
    74
1070
     0
1000
MTEXTEND
  0
POINT
  5
54FE
330
5462
100
AcDbEntity
  8
DEFPOINTS
 62
     0
100
AcDbPoint
 10
307.0226978894581
 20
128.2916509858671
 30
0.0
  0
POINT
  5
54FF
330
5462
100
AcDbEntity
  8
DEFPOINTS
 62
     0
100
AcDbPoint
 10
309.4823726585593
 20
123.372301445946
 30
0.0
  0
POINT
  5
5500
330
5462
100
AcDbEntity
  8
DEFPOINTS
 62
     0
100
AcDbPoint
 10
295.0553003878432
 20
116.1587653131082
 30
0.0
  0
ENDBLK
  5
546F
330
5462
100
AcDbEntity
  8
0
100
AcDbBlockEnd
  0
BLOCK
  5
547A
330
5470
100
AcDbEntity
  8
0
100
AcDbBlockBegin
  2
*D10
 70
     1
 10
0.0
 20
0.0
 30
0.0
  3
*D10
  1

  0
LINE
  5
5501
330
5470
100
AcDbEntity
  8
SUNPOU
100
AcDbLine
 10
343.4706059301919
 20
180.6156416726181
 30
0.0
 11
353.3160906962791
 21
185.5383840369144
 31
0.0
  0
LINE
  5
5502
330
5470
100
AcDbEntity
  8
SUNPOU
100
AcDbLine
 10
349.7315962524956
 20
168.0936609803232
 30
0.0
 11
359.5770810185829
 21
173.0164033446195
 31
0.0
  0
LINE
  5
5503
330
5470
100
AcDbEntity
  8
SUNPOU
100
AcDbLine
 10
353.3160906911697
 20
182.1842820706648
 30
0.0
 11
356.8937994486487
 21
175.0288645284569
 31
0.0
  0
INSERT
  5
5504
330
5470
100
AcDbEntity
  8
SUNPOU
100
AcDbBlockReference
  2
_OPEN
 10
351.9744499087574
 20
184.8675636457082
 30
0.0
 41
3.0
 42
3.0
 43
3.0
 50
116.5650510897982
  0
INSERT
  5
5505
330
5470
100
AcDbEntity
  8
SUNPOU
100
AcDbBlockReference
  2
_OPEN
 10
358.2354402310611
 20
172.3455829534134
 30
0.0
 41
3.0
 42
3.0
 43
3.0
 50
296.5650510897982
  0
MTEXT
  5
5506
330
5470
100
AcDbEntity
  8
SUNPOU
100
AcDbMText
 10
357.3410130491121
 20
179.7246072849044
 30
0.0
 40
3.0
 41
0.0
 71
     5
 72
     1
  1
\A1;14
 11
0.4472135941374604
 21
-0.8944271916811649
 31
0.0
1001
ACAD
1000
MTEXTBEGIN
1070
    73
1070
     1
1070
    44
1040
1.0
1070
    74
1070
     0
1000
MTEXTEND
  0
POINT
  5
5507
330
5470
100
AcDbEntity
  8
DEFPOINTS
 62
     0
100
AcDbPoint
 10
340.7873243551484
 20
179.2740008902057
 30
0.0
  0
POINT
  5
5508
330
5470
100
AcDbEntity
  8
DEFPOINTS
 62
     0
100
AcDbPoint
 10
347.0483146774521
 20
166.7520201979108
 30
0.0
  0
POINT
  5
5509
330
5470
100
AcDbEntity
  8
DEFPOINTS
 62
     0
100
AcDbPoint
 10
358.2354402310611
 20
172.3455829534134
 30
0.0
  0
ENDBLK
  5
547B
330
5470
100
AcDbEntity
  8
0
100
AcDbBlockEnd
  0
BLOCK
  5
5486
330
547C
100
AcDbEntity
  8
0
100
AcDbBlockBegin
  2
*D11
 70
     1
 10
0.0
 20
0.0
 30
0.0
  3
*D11
  1

  0
LINE
  5
550A
330
547C
100
AcDbEntity
  8
SUNPOU
100
AcDbLine
 10
241.8506032801507
 20
242.7829830284007
 30
0.0
 11
258.1746596576727
 21
242.7829830284007
 31
0.0
  0
LINE
  5
550B
330
547C
100
AcDbEntity
  8
SUNPOU
100
AcDbLine
 10
241.8506032801507
 20
189.7829830284008
 30
0.0
 11
258.1746596576727
 21
189.7829830284008
 31
0.0
  0
LINE
  5
550C
330
547C
100
AcDbEntity
  8
SUNPOU
100
AcDbLine
 10
256.6746596576726
 20
239.7829830284007
 30
0.0
 11
256.6746596576726
 21
192.7829830284007
 31
0.0
  0
INSERT
  5
550D
330
547C
100
AcDbEntity
  8
SUNPOU
100
AcDbBlockReference
  2
_OPEN
 10
256.6746596576726
 20
242.7829830284007
 30
0.0
 41
3.0
 42
3.0
 43
3.0
 50
90.0
  0
INSERT
  5
550E
330
547C
100
AcDbEntity
  8
SUNPOU
100
AcDbBlockReference
  2
_OPEN
 10
256.6746596576726
 20
189.7829830284008
 30
0.0
 41
3.0
 42
3.0
 43
3.0
 50
270.0
  0
MTEXT
  5
550F
330
547C
100
AcDbEntity
  8
SUNPOU
100
AcDbMText
 10
254.1746596576726
 20
216.2829830284008
 30
0.0
 40
3.0
 41
0.0
 71
     5
 72
     1
  1
\A1;53
 11
0.0000000000000001
 21
1.0
 31
0.0
1001
ACAD
1000
MTEXTBEGIN
1070
    73
1070
     1
1070
    44
1040
1.0
1070
    74
1070
     0
1000
MTEXTEND
  0
POINT
  5
5510
330
547C
100
AcDbEntity
  8
DEFPOINTS
 62
     0
100
AcDbPoint
 10
238.8506032801506
 20
242.7829830284007
 30
0.0
  0
POINT
  5
5511
330
547C
100
AcDbEntity
  8
DEFPOINTS
 62
     0
100
AcDbPoint
 10
238.8506032801506
 20
189.7829830284008
 30
0.0
  0
POINT
  5
5512
330
547C
100
AcDbEntity
  8
DEFPOINTS
 62
     0
100
AcDbPoint
 10
256.6746596576726
 20
189.7829830284008
 30
0.0
  0
ENDBLK
  5
5487
330
547C
100
AcDbEntity
  8
0
100
AcDbBlockEnd
  0
BLOCK
  5
5492
330
5488
100
AcDbEntity
  8
0
100
AcDbBlockBegin
  2
*D12
 70
     1
 10
0.0
 20
0.0
 30
0.0
  3
*D12
  1

  0
LINE
  5
5513
330
5488
100
AcDbEntity
  8
SUNPOU
100
AcDbLine
 10
297.1392774237225
 20
160.3568657958387
 30
0.0
 11
282.5409413910703
 21
189.5535378393813
 31
0.0
  0
LINE
  5
5514
330
5488
100
AcDbEntity
  8
SUNPOU
100
AcDbLine
 10
334.7052194237226
 20
179.1398368098387
 30
0.0
 11
320.1068833910704
 21
208.3365088533814
 31
0.0
  0
LINE
  5
5515
330
5488
100
AcDbEntity
  8
SUNPOU
100
AcDbLine
 10
285.8950433573199
 20
189.5535378403813
 30
0.0
 11
318.0944222121206
 21
205.6532272797816
 31
0.0
  0
INSERT
  5
5516
330
5488
100
AcDbEntity
  8
SUNPOU
100
AcDbBlockReference
  2
_OPEN
 10
283.2117617847202
 20
188.2118970530815
 30
0.0
 41
3.0
 42
3.0
 43
3.0
 50
206.5650511941603
  0
INSERT
  5
5517
330
5488
100
AcDbEntity
  8
SUNPOU
100
AcDbBlockReference
  2
_OPEN
 10
320.7777037847203
 20
206.9948680670815
 30
0.0
 41
3.0
 42
3.0
 43
3.0
 50
26.56505119416025
  0
MTEXT
  5
5518
330
5488
100
AcDbEntity
  8
SUNPOU
100
AcDbMText
 10
300.8766987953037
 20
199.8394505372479
 30
0.0
 40
3.0
 41
0.0
 71
     5
 72
     1
  1
\A1;42
 11
0.8944271908665829
 21
0.4472135957666241
 31
0.0
1001
ACAD
1000
MTEXTBEGIN
1070
    73
1070
     1
1070
    44
1040
1.0
1070
    74
1070
     0
1000
MTEXTEND
  0
POINT
  5
5519
330
5488
100
AcDbEntity
  8
DEFPOINTS
 62
     0
100
AcDbPoint
 10
298.4809182110224
 20
157.673584223239
 30
0.0
  0
POINT
  5
551A
330
5488
100
AcDbEntity
  8
DEFPOINTS
 62
     0
100
AcDbPoint
 10
336.0468602110225
 20
176.456555237239
 30
0.0
  0
POINT
  5
551B
330
5488
100
AcDbEntity
  8
DEFPOINTS
 62
     0
100
AcDbPoint
 10
320.7777037847203
 20
206.9948680670815
 30
0.0
  0
ENDBLK
  5
5493
330
5488
100
AcDbEntity
  8
0
100
AcDbBlockEnd
  0
BLOCK
  5
549E
330
5494
100
AcDbEntity
  8
0
100
AcDbBlockBegin
  2
*D13
 70
     1
 10
0.0
 20
0.0
 30
0.0
  3
*D13
  1

  0
LINE
  5
551C
330
5494
100
AcDbEntity
  8
SUNPOU
100
AcDbLine
 10
292.0410424429726
 20
158.254961886838
 30
0.0
 11
273.6960957159862
 21
194.944855319868
 31
0.0
  0
LINE
  5
551D
330
5494
100
AcDbEntity
  8
SUNPOU
100
AcDbLine
 10
339.4456835680359
 20
181.9572824628991
 30
0.0
 11
321.1007368410495
 21
218.6471758959291
 31
0.0
  0
LINE
  5
551E
330
5494
100
AcDbEntity
  8
SUNPOU
100
AcDbLine
 10
277.0501976822358
 20
194.9448553206338
 30
0.0
 11
319.0882756619123
 21
215.9638943224698
 31
0.0
  0
INSERT
  5
551F
330
5494
100
AcDbEntity
  8
SUNPOU
100
AcDbBlockReference
  2
_OPEN
 10
274.3669161095425
 20
193.6032145335213
 30
0.0
 41
3.0
 42
3.0
 43
3.0
 50
206.5650511901599
  0
INSERT
  5
5520
330
5494
100
AcDbEntity
  8
SUNPOU
100
AcDbBlockReference
  2
_OPEN
 10
321.7715572346057
 20
217.3055351095824
 30
0.0
 41
3.0
 42
3.0
 43
3.0
 50
26.56505119015989
  0
MTEXT
  5
5521
330
5494
100
AcDbEntity
  8
SUNPOU
100
AcDbMText
 10
296.9512026828136
 20
207.6904427987963
 30
0.0
 40
3.0
 41
0.0
 71
     5
 72
     1
  1
\A1;53
 11
0.894427190897807
 21
0.4472135957041756
 31
0.0
1001
ACAD
1000
MTEXTBEGIN
1070
    73
1070
     1
1070
    44
1040
1.0
1070
    74
1070
     0
1000
MTEXTEND
  0
POINT
  5
5522
330
5494
100
AcDbEntity
  8
DEFPOINTS
 62
     0
100
AcDbPoint
 10
293.3826832300851
 20
155.5716803141446
 30
0.0
  0
POINT
  5
5523
330
5494
100
AcDbEntity
  8
DEFPOINTS
 62
     0
100
AcDbPoint
 10
340.7873243551484
 20
179.2740008902057
 30
0.0
  0
POINT
  5
5524
330
5494
100
AcDbEntity
  8
DEFPOINTS
 62
     0
100
AcDbPoint
 10
321.7715572346057
 20
217.3055351095824
 30
0.0
  0
ENDBLK
  5
549F
330
5494
100
AcDbEntity
  8
0
100
AcDbBlockEnd
  0
BLOCK
  5
54AA
330
54A0
100
AcDbEntity
  8
0
100
AcDbBlockBegin
  2
*D14
 70
     1
 10
0.0
 20
0.0
 30
0.0
  3
*D14
  1

  0
LINE
  5
5525
330
54A0
100
AcDbEntity
  8
SUNPOU
100
AcDbLine
 10
301.767938141326
 20
154.4536463314524
 30
0.0
 11
287.7037641788341
 21
182.5819942612744
 31
0.0
  0
LINE
  5
5526
330
54A0
100
AcDbEntity
  8
SUNPOU
100
AcDbLine
 10
336.6505985913261
 20
171.8949765534524
 30
0.0
 11
322.5864246288342
 21
200.0233244832744
 31
0.0
  0
LINE
  5
5527
330
54A0
100
AcDbEntity
  8
SUNPOU
100
AcDbLine
 10
291.0578661450839
 20
182.5819942610436
 30
0.0
 11
320.5739634488999
 21
197.3400429104132
 31
0.0
  0
INSERT
  5
5528
330
54A0
100
AcDbEntity
  8
SUNPOU
100
AcDbBlockReference
  2
_OPEN
 10
288.3745845719918
 20
181.2403534747284
 30
0.0
 41
3.0
 42
3.0
 43
3.0
 50
206.5650511731359
  0
INSERT
  5
5529
330
54A0
100
AcDbEntity
  8
SUNPOU
100
AcDbBlockReference
  2
_OPEN
 10
323.2572450219919
 20
198.6816836967284
 30
0.0
 41
3.0
 42
3.0
 43
3.0
 50
26.56505117313592
  0
MTEXT
  5
552A
330
54A0
100
AcDbEntity
  8
SUNPOU
100
AcDbMText
 10
304.6978808083958
 20
192.1970865633051
 30
0.0
 40
3.0
 41
0.0
 71
     5
 72
     1
  1
\A1;39
 11
0.894427191030685
 21
0.4472135954384196
 31
0.0
1001
ACAD
1000
MTEXTBEGIN
1070
    73
1070
     1
1070
    44
1040
1.0
1070
    74
1070
     0
1000
MTEXTEND
  0
POINT
  5
552B
330
54A0
100
AcDbEntity
  8
DEFPOINTS
 62
     0
100
AcDbPoint
 10
303.1095789276413
 20
151.7703647583604
 30
0.0
  0
POINT
  5
552C
330
54A0
100
AcDbEntity
  8
DEFPOINTS
 62
     0
100
AcDbPoint
 10
337.9922393776414
 20
169.2116949803604
 30
0.0
  0
POINT
  5
552D
330
54A0
100
AcDbEntity
  8
DEFPOINTS
 62
     0
100
AcDbPoint
 10
323.2572450219919
 20
198.6816836967284
 30
0.0
  0
ENDBLK
  5
54AB
330
54A0
100
AcDbEntity
  8
0
100
AcDbBlockEnd
  0
ENDSEC
  0
SECTION
  2
ENTITIES
  0
LWPOLYLINE
  5
2A43
330
1A
100
AcDbEntity
  8
ZUWAKU
100
AcDbPolyline
 90
        4
 70
     1
 43
0.0
 10
0.3999996775634145
 20
275.4000000308041
 10
0.3999996775634145
 20
0.4000000308041649
 10
398.3999996775634
 20
0.4000000308041649
 10
398.3999996775634
 20
275.4000000308041
  0
LWPOLYLINE
  5
2A44
330
1A
100
AcDbEntity
  8
ZUWAKU
100
AcDbPolyline
 90
        4
 70
     1
 43
0.0
 10
0.1999996775634258
 20
275.6000000308041
 10
0.1999996775634258
 20
0.2000000308041763
 10
398.5999996775634
 20
0.2000000308041647
 10
398.5999996775634
 20
275.6000000308041
  0
LWPOLYLINE
  5
2A45
330
1A
100
AcDbEntity
  8
ZUWAKU
100
AcDbPolyline
 90
        4
 70
     1
 43
0.0
 10
-0.0000003224365628
 20
275.8000000308041
 10
-0.0000003224365628
 20
0.0000000308041308
 10
398.7999996775635
 20
0.0000000308041646
 10
398.7999996775635
 20
275.8000000308042
  0
LWPOLYLINE
  5
2A46
330
1A
100
AcDbEntity
  8
ZUWAKU
100
AcDbPolyline
 90
        4
 70
     1
 43
0.0
 10
0.2999996775633917
 20
275.5000000308041
 10
0.2999996775633917
 20
0.3000000308041422
 10
398.4999996775635
 20
0.3000000308041653
 10
398.4999996775634
 20
275.5000000308041
  0
LWPOLYLINE
  5
2A47
330
1A
100
AcDbEntity
  8
ZUWAKU
100
AcDbPolyline
 90
        4
 70
     1
 43
0.0
 10
0.0999996775634031
 20
275.7000000308041
 10
0.0999996775634031
 20
0.1000000308041535
 10
398.6999996775633
 20
0.1000000308041651
 10
398.6999996775634
 20
275.7000000308041
  0
LINE
  5
2A48
330
1A
100
AcDbEntity
  8
ZUWAKU
100
AcDbLine
 10
-0.0000003224365628
 20
15.00000003080413
 30
0.0
 11
398.6999996775633
 21
15.00000003080413
 31
0.0
  0
LINE
  5
2A49
330
1A
100
AcDbEntity
  8
ZUWAKU
100
AcDbLine
 10
-0.0000003224365628
 20
15.10000003080413
 30
0.0
 11
398.6999996775633
 21
15.10000003080413
 31
0.0
  0
LINE
  5
2A4A
330
1A
100
AcDbEntity
  8
ZUWAKU
100
AcDbLine
 10
-0.0000003224365628
 20
15.20000003080413
 30
0.0
 11
398.6999996775633
 21
15.20000003080413
 31
0.0
  0
LINE
  5
2A4B
330
1A
100
AcDbEntity
  8
ZUWAKU
100
AcDbLine
 10
-0.0000003224365628
 20
15.30000003080413
 30
0.0
 11
398.6999996775633
 21
15.30000003080413
 31
0.0
  0
LINE
  5
2A4C
330
1A
100
AcDbEntity
  8
ZUWAKU
100
AcDbLine
 10
-0.0000003224365628
 20
15.40000003080413
 30
0.0
 11
398.6999996775633
 21
15.40000003080413
 31
0.0
  0
LINE
  5
2A4D
330
1A
100
AcDbEntity
  8
ZUWAKU
100
AcDbLine
 10
104.3233003225974
 20
7.700000030804147
 30
0.0
 11
223.7121816630591
 21
7.700000030804147
 31
0.0
  0
LINE
  5
2A4E
330
1A
100
AcDbEntity
  8
ZUWAKU
100
AcDbLine
 10
104.3233003225974
 20
7.800000030804147
 30
0.0
 11
223.7121816630591
 21
7.800000030804151
 31
0.0
  0
LINE
  5
2A4F
330
1A
100
AcDbEntity
  8
ZUWAKU
100
AcDbLine
 10
104.3233003225974
 20
7.600000030804149
 30
0.0
 11
223.7121816630591
 21
7.600000030804146
 31
0.0
  0
TEXT
  5
2A50
330
1A
100
AcDbEntity
  8
MOJI
100
AcDbText
 10
46.478894471648
 20
6.370589095941511
 30
0.0
 40
3.0
  1
ライナートップ
 41
0.9
  7
ｽﾀｲﾙ1
100
AcDbText
  0
CIRCLE
  5
2A51
330
1A
100
AcDbEntity
  8
ZUWAKU
100
AcDbCircle
 10
12.99610575495398
 20
7.600000030804132
 30
0.0
 40
0.875
  0
LINE
  5
2A52
330
1A
100
AcDbEntity
  8
ZUWAKU
100
AcDbLine
 10
13.43360575495398
 20
3.575000030804133
 30
0.0
 11
12.47110575495401
 21
3.575000030804133
 31
0.0
  0
LINE
  5
2A53
330
1A
100
AcDbEntity
  8
ZUWAKU
100
AcDbLine
 10
12.47110575495401
 20
4.975000030804132
 30
0.0
 11
13.43360575495398
 21
4.975000030804132
 31
0.0
  0
LINE
  5
2A54
330
1A
100
AcDbEntity
  8
ZUWAKU
100
AcDbLine
 10
13.43360575495398
 20
10.22500003080413
 30
0.0
 11
12.47110575495401
 21
10.22500003080413
 31
0.0
  0
LINE
  5
2A55
330
1A
100
AcDbEntity
  8
ZUWAKU
100
AcDbLine
 10
12.47110575495401
 20
11.62500003080411
 30
0.0
 11
13.43360575495398
 21
11.62500003080413
 31
0.0
  0
HATCH
  5
2A56
330
1A
100
AcDbEntity
  8
ZUWAKU
100
AcDbHatch
 10
0.0
 20
0.0
 30
0.0
210
0.0
220
0.0
230
1.0
  2
ANSI37
 70
     0
 71
     0
 91
        8
 92
        7
 72
     1
 73
     1
 93
       24
 10
7.251131008123365
 20
8.822424271295922
 42
-0.1989123673796348
 10
7.046105754953998
 20
9.317399018126447
 42
0.0
 10
7.046105754953998
 20
9.962500030804136
 42
-0.4142135623730912
 10
7.308605754953987
 20
10.22500003080413
 42
0.0
 10
8.796105754953941
 20
10.22500003080413
 42
0.4142135623731546
 10
9.058605754953987
 20
10.48750003080412
 42
0.0
 10
9.058605754953987
 20
11.36250003080413
 42
0.4142135623731586
 10
8.796105754953941
 20
11.62500003080413
 42
0.0
 10
7.046105754953998
 20
11.62500003080413
 42
0.4142135623730928
 10
5.646105754954021
 20
10.22500003080414
 42
0.0
 10
5.646105754954021
 20
9.317399018126511
 42
0.1989123673796619
 10
6.261181514462236
 20
7.832474777634708
 42
0.0
 10
7.716080501784574
 20
6.377575790312379
 42
-0.1989123673796613
 10
7.921105754953998
 20
5.882601043481786
 42
0.0
 10
7.921105754953998
 20
5.237500030804127
 42
-0.4142135623730911
 10
7.65860575495401
 20
4.975000030804132
 42
0.0
 10
6.171105754954055
 20
4.975000030804132
 42
0.4142135623731526
 10
5.90860575495401
 20
4.712500030804138
 42
0.0
 10
5.90860575495401
 20
3.837500030804127
 42
0.4142135623731526
 10
6.171105754954055
 20
3.575000030804133
 42
0.0
 10
7.921105754953998
 20
3.575000030804133
 42
0.4142135623731044
 10
9.321105754954032
 20
4.975000030804121
 42
0.0
 10
9.321105754954032
 20
5.882601043481757
 42
0.1989123673796604
 10
8.70602999544576
 20
7.367525283973527
 42
0.0
 97
        0
 92
        7
 72
     1
 73
     1
 93
       16
 10
11.77110575495402
 20
9.525000030804136
 42
-0.4142135623730935
 10
12.47110575495401
 20
10.22500003080413
 42
0.0
 10
13.43360575495398
 20
10.22500003080413
 42
0.4142135623731546
 10
13.69610575495403
 20
10.48750003080412
 42
0.0
 10
13.69610575495403
 20
11.36250003080413
 42
0.4142135623730951
 10
13.43360575495404
 20
11.62500003080413
 42
0.0
 10
12.47110575495395
 20
11.62500003080411
 42
0.4142135623730892
 10
10.37110575495398
 20
9.5250000308041
 42
0.0
 10
10.37110575495398
 20
5.675000030804145
 42
0.4142135623730969
 10
12.47110575495401
 20
3.575000030804133
 42
0.0
 10
13.43360575495398
 20
3.575000030804133
 42
0.4142135623731526
 10
13.69610575495403
 20
3.837500030804127
 42
0.0
 10
13.69610575495403
 20
4.712500030804138
 42
0.4142135623730891
 10
13.43360575495404
 20
4.975000030804132
 42
0.0
 10
12.47110575495401
 20
4.975000030804132
 42
-0.4142135623730928
 10
11.77110575495402
 20
5.675000030804126
 42
0.0
 97
        0
 92
        7
 72
     1
 73
     1
 93
        2
 10
12.12110575495398
 20
7.600000030804132
 42
1.0
 10
13.87110575495398
 20
7.600000030804132
 42
1.0
 97
        0
 92
        7
 72
     1
 73
     1
 93
       26
 10
18.65742899604299
 20
9.602523627585846
 42
0.0
 10
19.1882488126119
 20
11.28345304672064
 42
0.5069206636600134
 10
18.93793336301422
 20
11.62500003080413
 42
0.0
 10
18.08848867320961
 20
11.62500003080413
 42
0.3272098845218764
 10
17.83817322361193
 20
11.44154701488761
 42
0.0
 10
16.90403828629604
 20
8.483453046720672
 42
-0.3272098845219541
 10
16.6537228366983
 20
8.300000030804131
 42
0.0
 10
16.58360575495407
 20
8.300000030804131
 42
-0.4142135623731526
 10
16.32110575495403
 20
8.562500030804125
 42
0.0
 10
16.32110575495403
 20
11.36250003080413
 42
0.4142135623730951
 10
16.05860575495404
 20
11.62500003080413
 42
0.0
 10
15.18360575495398
 20
11.62500003080413
 42
0.4142135623730871
 10
14.921105754954
 20
11.36250003080414
 42
0.0
 10
14.921105754954
 20
3.837500030804127
 42
0.4142135623730891
 10
15.18360575495398
 20
3.575000030804133
 42
0.0
 10
16.05860575495398
 20
3.575000030804133
 42
0.4142135623731526
 10
16.32110575495403
 20
3.837500030804127
 42
0.0
 10
16.32110575495403
 20
6.637500030804138
 42
-0.4142135623731526
 10
16.58360575495407
 20
6.900000030804132
 42
0.0
 10
16.65372283669836
 20
6.900000030804132
 42
-0.3272098845218915
 10
16.90403828629604
 20
6.716547014887595
 42
0.0
 10
17.83817322361193
 20
3.758453046720669
 42
0.3272098845218902
 10
18.08848867320961
 20
3.575000030804133
 42
0.0
 10
18.93793336301422
 20
3.575000030804133
 42
0.5069206636600335
 10
19.1882488126119
 20
3.916547014887637
 42
0.0
 10
18.02505312337507
 20
7.600000030804201
 42
0.0
 97
        0
 92
        7
 72
     1
 73
     1
 93
        8
 10
21.74610575495398
 20
11.36250003080413
 42
0.4142135623731546
 10
21.48360575495394
 20
11.62500003080413
 42
0.0
 10
20.60860575495405
 20
11.62500003080413
 42
0.4142135623731507
 10
20.346105754954
 20
11.36250003080414
 42
0.0
 10
20.346105754954
 20
3.837500030804127
 42
0.4142135623731526
 10
20.60860575495405
 20
3.575000030804133
 42
0.0
 10
21.48360575495394
 20
3.575000030804133
 42
0.4142135623731526
 10
21.74610575495398
 20
3.837500030804127
 42
0.0
 97
        0
 92
        7
 72
     1
 73
     1
 93
       24
 10
24.19610575495403
 20
9.962500030804136
 42
-0.4142135623731546
 10
24.45860575495407
 20
10.22500003080413
 42
0.0
 10
25.94610575495403
 20
10.22500003080413
 42
0.4142135623730911
 10
26.20860575495402
 20
10.48750003080412
 42
0.0
 10
26.20860575495402
 20
11.36250003080413
 42
0.4142135623730952
 10
25.94610575495403
 20
11.62500003080413
 42
0.0
 10
24.19610575495403
 20
11.62500003080413
 42
0.4142135623731048
 10
22.796105754954
 20
10.22500003080414
 42
0.0
 10
22.796105754954
 20
9.317399018126511
 42
0.1989123673796613
 10
23.41118151446227
 20
7.832474777634736
 42
0.0
 10
24.8660805017846
 20
6.377575790312402
 42
-0.1989123673796402
 10
25.07110575495403
 20
5.882601043481866
 42
0.0
 10
25.07110575495403
 20
5.237500030804127
 42
-0.4142135623730911
 10
24.80860575495404
 20
4.975000030804132
 42
0.0
 10
23.32110575495403
 20
4.975000030804132
 42
0.4142135623731526
 10
23.05860575495398
 20
4.712500030804138
 42
0.0
 10
23.05860575495398
 20
3.837500030804127
 42
0.4142135623730891
 10
23.32110575495397
 20
3.575000030804133
 42
0.0
 10
25.07110575495403
 20
3.575000030804133
 42
0.4142135623730925
 10
26.47110575495401
 20
4.975000030804121
 42
0.0
 10
26.47110575495401
 20
5.882601043481757
 42
0.1989123673796675
 10
25.85602999544573
 20
7.367525283973584
 42
0.0
 10
24.40113100812345
 20
8.822424271295842
 42
-0.1989123673796652
 10
24.19610575495403
 20
9.317399018126426
 42
0.0
 97
        0
 92
        7
 72
     1
 73
     1
 93
       16
 10
28.92110575495399
 20
11.36250003080412
 42
0.414213562373103
 10
28.65860575495401
 20
11.62500003080413
 42
0.0
 10
27.78360575495401
 20
11.62500003080413
 42
0.4142135623730871
 10
27.52110575495402
 20
11.36250003080414
 42
0.0
 10
27.52110575495402
 20
4.975000030804121
 42
0.4142135623730926
 10
28.92110575495399
 20
3.575000030804133
 42
0.0
 10
30.671105754954
 20
3.575000030804133
 42
0.4142135623731044
 10
32.07110575495403
 20
4.975000030804121
 42
0.0
 10
32.07110575495403
 20
11.36250003080413
 42
0.4142135623730951
 10
31.80860575495404
 20
11.62500003080413
 42
0.0
 10
30.93360575495399
 20
11.62500003080413
 42
0.4142135623730871
 10
30.671105754954
 20
11.36250003080414
 42
0.0
 10
30.671105754954
 20
5.50000003080412
 42
-0.414213562373088
 10
30.14610575495402
 20
4.975000030804132
 42
0.0
 10
29.44610575495403
 20
4.975000030804132
 42
-0.4142135623731197
 10
28.92110575495399
 20
5.50000003080412
 42
0.0
 97
        0
 92
        7
 72
     1
 73
     1
 93
        8
 10
34.52110575495402
 20
11.36250003080414
 42
0.4142135623730871
 10
34.25860575495403
 20
11.62500003080413
 42
0.0
 10
33.38360575495403
 20
11.62500003080413
 42
0.4142135623731507
 10
33.12110575495399
 20
11.36250003080414
 42
0.0
 10
33.12110575495399
 20
3.837500030804127
 42
0.4142135623730891
 10
33.38360575495397
 20
3.575000030804133
 42
0.0
 10
34.25860575495403
 20
3.575000030804133
 42
0.4142135623730891
 10
34.52110575495402
 20
3.837500030804127
 42
0.0
 97
        0
 75
     0
 76
     1
 52
0.0
 41
0.1
 77
     0
 78
     2
 53
45.0
 43
-450.471152489776
 44
-6.599999969195835
 45
-0.2245064030267288
 46
0.2245064030267288
 79
     0
 53
135.0
 43
-450.471152489776
 44
-6.599999969195835
 45
-0.2245064030267288
 46
-0.2245064030267288
 79
     0
 47
0.057451373970553
 98
        8
 10
8.039927159075091
 20
7.583586853746908
 10
11.20225718078302
 20
9.422031122029636
 10
12.58218362039326
 20
7.75594085383949
 10
15.457029668382
 20
8.100648854024882
 10
20.9192356870418
 20
8.33045498779569
 10
23.44910012512821
 20
9.709288189007736
 10
28.27884266376361
 20
9.364578988351638
 10
33.9135394873748
 20
9.594385122122446
  0
ARC
  5
2A57
330
1A
100
AcDbEntity
  8
ZUWAKU
100
AcDbCircle
 10
7.746105754953987
 20
9.317399018126483
 30
0.0
 40
2.099999999999999
100
AcDbArc
 50
180.0
 51
225.0
  0
LINE
  5
2A58
330
1A
100
AcDbEntity
  8
ZUWAKU
100
AcDbLine
 10
10.37110575495398
 20
5.675000030804135
 30
0.0
 11
10.37110575495398
 21
9.525000030804111
 31
0.0
  0
LINE
  5
2A59
330
1A
100
AcDbEntity
  8
ZUWAKU
100
AcDbLine
 10
11.77110575495402
 20
9.525000030804132
 30
0.0
 11
11.77110575495402
 21
5.675000030804135
 31
0.0
  0
ARC
  5
2A5A
330
1A
100
AcDbEntity
  8
ZUWAKU
100
AcDbCircle
 10
7.746105754953987
 20
9.317399018126483
 30
0.0
 40
0.7
100
AcDbArc
 50
180.0000000000016
 51
224.9999999999988
  0
ARC
  5
2A5B
330
1A
100
AcDbEntity
  8
ZUWAKU
100
AcDbCircle
 10
12.47110575495401
 20
5.675000030804135
 30
0.0
 40
2.099999999999999
100
AcDbArc
 50
180.0
 51
270.0
  0
ARC
  5
2A5C
330
1A
100
AcDbEntity
  8
ZUWAKU
100
AcDbCircle
 10
7.921105754953998
 20
4.975000030804132
 30
0.0
 40
1.399999999999999
100
AcDbArc
 50
270.0
 51
0.0
  0
ARC
  5
2A5D
330
1A
100
AcDbEntity
  8
ZUWAKU
100
AcDbCircle
 10
7.22110575495401
 20
5.882601043481784
 30
0.0
 40
2.099999999999999
100
AcDbArc
 50
0.0
 51
45.0
  0
LINE
  5
2A5E
330
1A
100
AcDbEntity
  8
ZUWAKU
100
AcDbLine
 10
6.261181514462236
 20
7.832474777634722
 30
0.0
 11
7.716080501784574
 21
6.377575790312391
 31
0.0
  0
LINE
  5
2A5F
330
1A
100
AcDbEntity
  8
ZUWAKU
100
AcDbLine
 10
6.171105754953998
 20
4.975000030804132
 30
0.0
 11
7.65860575495401
 21
4.975000030804132
 31
0.0
  0
LINE
  5
2A60
330
1A
100
AcDbEntity
  8
ZUWAKU
100
AcDbLine
 10
6.171105754953998
 20
3.575000030804133
 30
0.0
 11
7.921105754953998
 21
3.575000030804133
 31
0.0
  0
ARC
  5
2A61
330
1A
100
AcDbEntity
  8
ZUWAKU
100
AcDbCircle
 10
6.171105754953998
 20
4.712500030804132
 30
0.0
 40
0.2625
100
AcDbArc
 50
90.0
 51
180.0
  0
ARC
  5
2A62
330
1A
100
AcDbEntity
  8
ZUWAKU
100
AcDbCircle
 10
6.171105754953998
 20
3.837500030804132
 30
0.0
 40
0.2625
100
AcDbArc
 50
180.0
 51
270.0
  0
LINE
  5
2A63
330
1A
100
AcDbEntity
  8
ZUWAKU
100
AcDbLine
 10
5.90860575495401
 20
3.837500030804132
 30
0.0
 11
5.90860575495401
 21
4.712500030804132
 31
0.0
  0
ARC
  5
2A64
330
1A
100
AcDbEntity
  8
ZUWAKU
100
AcDbCircle
 10
7.22110575495401
 20
5.882601043481805
 30
0.0
 40
0.7
100
AcDbArc
 50
0.0
 51
45.0
  0
ARC
  5
2A65
330
1A
100
AcDbEntity
  8
ZUWAKU
100
AcDbCircle
 10
7.65860575495401
 20
5.237500030804135
 30
0.0
 40
0.2625
100
AcDbArc
 50
270.0
 51
0.0
  0
LINE
  5
2A66
330
1A
100
AcDbEntity
  8
ZUWAKU
100
AcDbLine
 10
7.921105754953998
 20
5.237500030804135
 30
0.0
 11
7.921105754953998
 21
5.882601043481805
 31
0.0
  0
LINE
  5
2A67
330
1A
100
AcDbEntity
  8
ZUWAKU
100
AcDbLine
 10
8.70602999544576
 20
7.367525283973545
 30
0.0
 11
7.251131008123422
 21
8.822424271295883
 31
0.0
  0
ARC
  5
2A68
330
1A
100
AcDbEntity
  8
ZUWAKU
100
AcDbCircle
 10
12.47110575495401
 20
5.675000030804135
 30
0.0
 40
0.7
100
AcDbArc
 50
180.0
 51
270.0
  0
LINE
  5
2A69
330
1A
100
AcDbEntity
  8
ZUWAKU
100
AcDbLine
 10
9.321105754954032
 20
4.975000030804132
 30
0.0
 11
9.321105754954032
 21
5.882601043481805
 31
0.0
  0
ARC
  5
2A6A
330
1A
100
AcDbEntity
  8
ZUWAKU
100
AcDbCircle
 10
8.796105754953998
 20
10.48750003080413
 30
0.0
 40
0.2625
100
AcDbArc
 50
270.0
 51
0.0
  0
ARC
  5
2A6B
330
1A
100
AcDbEntity
  8
ZUWAKU
100
AcDbCircle
 10
8.796105754953998
 20
11.36250003080413
 30
0.0
 40
0.2625
100
AcDbArc
 50
0.0
 51
90.0
  0
ARC
  5
2A6C
330
1A
100
AcDbEntity
  8
ZUWAKU
100
AcDbCircle
 10
7.046105754953998
 20
10.22500003080413
 30
0.0
 40
1.399999999999999
100
AcDbArc
 50
90.0
 51
180.0
  0
LINE
  5
2A6D
330
1A
100
AcDbEntity
  8
ZUWAKU
100
AcDbLine
 10
5.646105754954021
 20
10.22500003080413
 30
0.0
 11
5.646105754954021
 21
9.317399018126462
 31
0.0
  0
LINE
  5
2A6E
330
1A
100
AcDbEntity
  8
ZUWAKU
100
AcDbLine
 10
8.796105754953998
 20
10.22500003080413
 30
0.0
 11
7.308605754953987
 21
10.22500003080413
 31
0.0
  0
LINE
  5
2A6F
330
1A
100
AcDbEntity
  8
ZUWAKU
100
AcDbLine
 10
7.046105754953998
 20
9.962500030804132
 30
0.0
 11
7.046105754953998
 21
9.317399018126462
 31
0.0
  0
ARC
  5
2A70
330
1A
100
AcDbEntity
  8
ZUWAKU
100
AcDbCircle
 10
7.308605754953987
 20
9.962500030804132
 30
0.0
 40
0.2625
100
AcDbArc
 50
90.0
 51
180.0
  0
LINE
  5
2A71
330
1A
100
AcDbEntity
  8
ZUWAKU
100
AcDbLine
 10
7.046105754953998
 20
11.62500003080413
 30
0.0
 11
8.796105754953998
 21
11.62500003080413
 31
0.0
  0
ARC
  5
2A72
330
1A
100
AcDbEntity
  8
ZUWAKU
100
AcDbCircle
 10
12.47110575495401
 20
9.525000030804111
 30
0.0
 40
2.099999999999999
100
AcDbArc
 50
90.0
 51
180.0
  0
ARC
  5
2A73
330
1A
100
AcDbEntity
  8
ZUWAKU
100
AcDbCircle
 10
12.47110575495401
 20
9.525000030804132
 30
0.0
 40
0.7
100
AcDbArc
 50
90.0
 51
180.0
  0
LINE
  5
2A74
330
1A
100
AcDbEntity
  8
ZUWAKU
100
AcDbLine
 10
9.058605754953987
 20
11.36250003080413
 30
0.0
 11
9.058605754953987
 21
10.48750003080413
 31
0.0
  0
LINE
  5
2A75
330
1A
100
AcDbEntity
  8
ZUWAKU
100
AcDbLine
 10
17.83817322361193
 20
11.44154701488761
 30
0.0
 11
16.90403828629604
 21
8.483453046720647
 31
0.0
  0
LINE
  5
2A76
330
1A
100
AcDbEntity
  8
ZUWAKU
100
AcDbLine
 10
14.921105754954
 20
11.36250003080413
 30
0.0
 11
14.921105754954
 21
3.837500030804132
 31
0.0
  0
LINE
  5
2A77
330
1A
100
AcDbEntity
  8
ZUWAKU
100
AcDbLine
 10
16.32110575495403
 20
8.562500030804134
 30
0.0
 11
16.32110575495403
 21
11.36250003080413
 31
0.0
  0
LINE
  5
2A78
330
1A
100
AcDbEntity
  8
ZUWAKU
100
AcDbLine
 10
28.92110575495399
 20
5.50000003080413
 30
0.0
 11
28.92110575495399
 21
11.36250003080413
 31
0.0
  0
LINE
  5
2A79
330
1A
100
AcDbEntity
  8
ZUWAKU
100
AcDbLine
 10
27.52110575495402
 20
11.36250003080413
 30
0.0
 11
27.52110575495402
 21
4.975000030804132
 31
0.0
  0
LINE
  5
2A7A
330
1A
100
AcDbEntity
  8
ZUWAKU
100
AcDbLine
 10
21.74610575495398
 20
3.837500030804132
 30
0.0
 11
21.74610575495398
 21
11.36250003080413
 31
0.0
  0
LINE
  5
2A7B
330
1A
100
AcDbEntity
  8
ZUWAKU
100
AcDbLine
 10
20.346105754954
 20
11.36250003080413
 30
0.0
 11
20.346105754954
 21
3.837500030804132
 31
0.0
  0
LINE
  5
2A7C
330
1A
100
AcDbEntity
  8
ZUWAKU
100
AcDbLine
 10
18.65742899604299
 20
9.602523627585846
 30
0.0
 11
18.02505312337507
 21
7.600000030804142
 31
0.0
  0
ARC
  5
2A7D
330
1A
100
AcDbEntity
  8
ZUWAKU
100
AcDbCircle
 10
24.89610575495402
 20
9.317399018126483
 30
0.0
 40
2.099999999999999
100
AcDbArc
 50
180.0
 51
225.0
  0
ARC
  5
2A7E
330
1A
100
AcDbEntity
  8
ZUWAKU
100
AcDbCircle
 10
24.89610575495402
 20
9.317399018126483
 30
0.0
 40
0.7
100
AcDbArc
 50
180.0000000000016
 51
224.9999999999988
  0
LINE
  5
2A7F
330
1A
100
AcDbEntity
  8
ZUWAKU
100
AcDbLine
 10
33.12110575495399
 20
11.36250003080413
 30
0.0
 11
33.12110575495399
 21
3.837500030804132
 31
0.0
  0
LINE
  5
2A80
330
1A
100
AcDbEntity
  8
ZUWAKU
100
AcDbLine
 10
34.52110575495402
 20
3.837500030804132
 30
0.0
 11
34.52110575495402
 21
11.36250003080413
 31
0.0
  0
LINE
  5
2A81
330
1A
100
AcDbEntity
  8
ZUWAKU
100
AcDbLine
 10
30.671105754954
 20
11.36250003080413
 30
0.0
 11
30.671105754954
 21
5.50000003080413
 31
0.0
  0
LINE
  5
2A82
330
1A
100
AcDbEntity
  8
ZUWAKU
100
AcDbLine
 10
32.07110575495403
 20
4.975000030804132
 30
0.0
 11
32.07110575495403
 21
11.36250003080413
 31
0.0
  0
LINE
  5
2A83
330
1A
100
AcDbEntity
  8
ZUWAKU
100
AcDbLine
 10
39.56331445155763
 20
15.00000003080413
 30
0.0
 11
39.56331445155763
 21
0.4000000308041649
 31
0.0
  0
LINE
  5
2A84
330
1A
100
AcDbEntity
  8
ZUWAKU
100
AcDbLine
 10
39.76331445155756
 20
15.00000003080413
 30
0.0
 11
39.76331445155767
 21
0.4000000308041649
 31
0.0
  0
LINE
  5
2A85
330
1A
100
AcDbEntity
  8
ZUWAKU
100
AcDbLine
 10
39.66331445155754
 20
15.00000003080413
 30
0.0
 11
39.66331445155765
 21
0.4000000308041649
 31
0.0
  0
LINE
  5
2A86
330
1A
100
AcDbEntity
  8
ZUWAKU
100
AcDbLine
 10
28.92110575495399
 20
3.575000030804133
 30
0.0
 11
30.671105754954
 21
3.575000030804133
 31
0.0
  0
LINE
  5
2A87
330
1A
100
AcDbEntity
  8
ZUWAKU
100
AcDbLine
 10
30.14610575495402
 20
4.975000030804132
 30
0.0
 11
29.44610575495403
 21
4.975000030804132
 31
0.0
  0
LINE
  5
2A88
330
1A
100
AcDbEntity
  8
ZUWAKU
100
AcDbLine
 10
20.608605754954
 20
3.575000030804133
 30
0.0
 11
21.483605754954
 21
3.575000030804133
 31
0.0
  0
LINE
  5
2A89
330
1A
100
AcDbEntity
  8
ZUWAKU
100
AcDbLine
 10
17.83817322361193
 20
3.758453046720646
 30
0.0
 11
16.90403828629604
 21
6.716547014887616
 31
0.0
  0
ARC
  5
2A8A
330
1A
100
AcDbEntity
  8
ZUWAKU
100
AcDbCircle
 10
16.58360575495402
 20
6.637500030804133
 30
0.0
 40
0.2625
100
AcDbArc
 50
90.0
 51
180.0
  0
ARC
  5
2A8B
330
1A
100
AcDbEntity
  8
ZUWAKU
100
AcDbCircle
 10
16.65372283669836
 20
6.637500030804133
 30
0.0
 40
0.2625
100
AcDbArc
 50
17.52556837372303
 51
90.0
  0
ARC
  5
2A8C
330
1A
100
AcDbEntity
  8
ZUWAKU
100
AcDbCircle
 10
15.18360575495398
 20
3.837500030804132
 30
0.0
 40
0.2625
100
AcDbArc
 50
180.0
 51
270.0
  0
ARC
  5
2A8D
330
1A
100
AcDbEntity
  8
ZUWAKU
100
AcDbCircle
 10
13.43360575495398
 20
4.712500030804132
 30
0.0
 40
0.2625
100
AcDbArc
 50
0.0
 51
90.0
  0
ARC
  5
2A8E
330
1A
100
AcDbEntity
  8
ZUWAKU
100
AcDbCircle
 10
13.43360575495398
 20
3.837500030804132
 30
0.0
 40
0.2625
100
AcDbArc
 50
270.0
 51
0.0
  0
LINE
  5
2A8F
330
1A
100
AcDbEntity
  8
ZUWAKU
100
AcDbLine
 10
13.69610575495403
 20
4.712500030804132
 30
0.0
 11
13.69610575495403
 21
3.837500030804132
 31
0.0
  0
LINE
  5
2A90
330
1A
100
AcDbEntity
  8
ZUWAKU
100
AcDbLine
 10
16.32110575495403
 20
3.837500030804132
 30
0.0
 11
16.32110575495403
 21
6.637500030804133
 31
0.0
  0
ARC
  5
2A91
330
1A
100
AcDbEntity
  8
ZUWAKU
100
AcDbCircle
 10
16.05860575495398
 20
3.837500030804132
 30
0.0
 40
0.2625
100
AcDbArc
 50
270.0
 51
0.0
  0
LINE
  5
2A92
330
1A
100
AcDbEntity
  8
ZUWAKU
100
AcDbLine
 10
15.18360575495398
 20
3.575000030804133
 30
0.0
 11
16.05860575495398
 21
3.575000030804133
 31
0.0
  0
ARC
  5
2A93
330
1A
100
AcDbEntity
  8
ZUWAKU
100
AcDbCircle
 10
16.58360575495402
 20
8.562500030804134
 30
0.0
 40
0.2625
100
AcDbArc
 50
180.0
 51
270.0
  0
LINE
  5
2A94
330
1A
100
AcDbEntity
  8
ZUWAKU
100
AcDbLine
 10
16.58360575495402
 20
6.900000030804132
 30
0.0
 11
16.65372283669836
 21
6.900000030804132
 31
0.0
  0
LINE
  5
2A95
330
1A
100
AcDbEntity
  8
ZUWAKU
100
AcDbLine
 10
16.65372283669836
 20
8.300000030804131
 30
0.0
 11
16.58360575495402
 21
8.300000030804131
 31
0.0
  0
ARC
  5
2A96
330
1A
100
AcDbEntity
  8
ZUWAKU
100
AcDbCircle
 10
16.65372283669836
 20
8.562500030804134
 30
0.0
 40
0.2625
100
AcDbArc
 50
270.0
 51
342.4744316262769
  0
ARC
  5
2A97
330
1A
100
AcDbEntity
  8
ZUWAKU
100
AcDbCircle
 10
18.08848867320966
 20
3.837500030804132
 30
0.0
 40
0.2625
100
AcDbArc
 50
197.525568373723
 51
270.0
  0
LINE
  5
2A98
330
1A
100
AcDbEntity
  8
ZUWAKU
100
AcDbLine
 10
19.1882488126119
 20
3.916547014887619
 30
0.0
 11
18.02505312337507
 21
7.600000030804142
 31
0.0
  0
ARC
  5
2A99
330
1A
100
AcDbEntity
  8
ZUWAKU
100
AcDbCircle
 10
18.93793336301416
 20
3.837500030804132
 30
0.0
 40
0.2625
100
AcDbArc
 50
270.0
 51
17.52556837372303
  0
LINE
  5
2A9A
330
1A
100
AcDbEntity
  8
ZUWAKU
100
AcDbLine
 10
18.08848867320966
 20
3.575000030804133
 30
0.0
 11
18.93793336301416
 21
3.575000030804133
 31
0.0
  0
ARC
  5
2A9B
330
1A
100
AcDbEntity
  8
ZUWAKU
100
AcDbCircle
 10
20.608605754954
 20
3.837500030804132
 30
0.0
 40
0.2625
100
AcDbArc
 50
180.0
 51
270.0
  0
ARC
  5
2A9C
330
1A
100
AcDbEntity
  8
ZUWAKU
100
AcDbCircle
 10
25.07110575495403
 20
4.975000030804132
 30
0.0
 40
1.399999999999999
100
AcDbArc
 50
270.0
 51
0.0
  0
ARC
  5
2A9D
330
1A
100
AcDbEntity
  8
ZUWAKU
100
AcDbCircle
 10
28.92110575495399
 20
4.975000030804132
 30
0.0
 40
1.399999999999999
100
AcDbArc
 50
180.0
 51
270.0
  0
LINE
  5
2A9E
330
1A
100
AcDbEntity
  8
ZUWAKU
100
AcDbLine
 10
25.85602999544579
 20
7.367525283973545
 30
0.0
 11
24.4011310081234
 21
8.822424271295883
 31
0.0
  0
LINE
  5
2A9F
330
1A
100
AcDbEntity
  8
ZUWAKU
100
AcDbLine
 10
23.41118151446227
 20
7.832474777634722
 30
0.0
 11
24.8660805017846
 21
6.377575790312391
 31
0.0
  0
LINE
  5
2AA0
330
1A
100
AcDbEntity
  8
ZUWAKU
100
AcDbLine
 10
23.32110575495403
 20
3.575000030804133
 30
0.0
 11
25.07110575495403
 21
3.575000030804133
 31
0.0
  0
LINE
  5
2AA1
330
1A
100
AcDbEntity
  8
ZUWAKU
100
AcDbLine
 10
23.32110575495403
 20
4.975000030804132
 30
0.0
 11
24.80860575495398
 21
4.975000030804132
 31
0.0
  0
ARC
  5
2AA2
330
1A
100
AcDbEntity
  8
ZUWAKU
100
AcDbCircle
 10
23.32110575495403
 20
4.712500030804132
 30
0.0
 40
0.2625
100
AcDbArc
 50
90.0
 51
180.0
  0
ARC
  5
2AA3
330
1A
100
AcDbEntity
  8
ZUWAKU
100
AcDbCircle
 10
21.483605754954
 20
3.837500030804132
 30
0.0
 40
0.2625
100
AcDbArc
 50
270.0
 51
0.0
  0
ARC
  5
2AA4
330
1A
100
AcDbEntity
  8
ZUWAKU
100
AcDbCircle
 10
23.32110575495403
 20
3.837500030804132
 30
0.0
 40
0.2625
100
AcDbArc
 50
180.0
 51
270.0
  0
LINE
  5
2AA5
330
1A
100
AcDbEntity
  8
ZUWAKU
100
AcDbLine
 10
23.05860575495398
 20
3.837500030804132
 30
0.0
 11
23.05860575495398
 21
4.712500030804132
 31
0.0
  0
ARC
  5
2AA6
330
1A
100
AcDbEntity
  8
ZUWAKU
100
AcDbCircle
 10
24.80860575495398
 20
5.237500030804135
 30
0.0
 40
0.2625
100
AcDbArc
 50
270.0
 51
0.0
  0
ARC
  5
2AA7
330
1A
100
AcDbEntity
  8
ZUWAKU
100
AcDbCircle
 10
24.37110575495399
 20
5.882601043481805
 30
0.0
 40
0.7
100
AcDbArc
 50
0.0
 51
45.0
  0
LINE
  5
2AA8
330
1A
100
AcDbEntity
  8
ZUWAKU
100
AcDbLine
 10
25.07110575495403
 20
5.237500030804135
 30
0.0
 11
25.07110575495403
 21
5.882601043481805
 31
0.0
  0
ARC
  5
2AA9
330
1A
100
AcDbEntity
  8
ZUWAKU
100
AcDbCircle
 10
29.44610575495403
 20
5.50000003080413
 30
0.0
 40
0.525
100
AcDbArc
 50
180.0
 51
270.0
  0
ARC
  5
2AAA
330
1A
100
AcDbEntity
  8
ZUWAKU
100
AcDbCircle
 10
24.37110575495399
 20
5.882601043481784
 30
0.0
 40
2.099999999999999
100
AcDbArc
 50
0.0
 51
45.0
  0
LINE
  5
2AAB
330
1A
100
AcDbEntity
  8
ZUWAKU
100
AcDbLine
 10
26.47110575495401
 20
4.975000030804132
 30
0.0
 11
26.47110575495401
 21
5.882601043481805
 31
0.0
  0
ARC
  5
2AAC
330
1A
100
AcDbEntity
  8
ZUWAKU
100
AcDbCircle
 10
30.671105754954
 20
4.975000030804132
 30
0.0
 40
1.399999999999999
100
AcDbArc
 50
270.0
 51
0.0
  0
LINE
  5
2AAD
330
1A
100
AcDbEntity
  8
ZUWAKU
100
AcDbLine
 10
33.38360575495403
 20
3.575000030804133
 30
0.0
 11
34.25860575495403
 21
3.575000030804133
 31
0.0
  0
ARC
  5
2AAE
330
1A
100
AcDbEntity
  8
ZUWAKU
100
AcDbCircle
 10
30.14610575495402
 20
5.50000003080413
 30
0.0
 40
0.525
100
AcDbArc
 50
270.0
 51
0.0
  0
ARC
  5
2AAF
330
1A
100
AcDbEntity
  8
ZUWAKU
100
AcDbCircle
 10
33.38360575495403
 20
3.837500030804132
 30
0.0
 40
0.2625
100
AcDbArc
 50
180.0
 51
270.0
  0
ARC
  5
2AB0
330
1A
100
AcDbEntity
  8
ZUWAKU
100
AcDbCircle
 10
34.25860575495403
 20
3.837500030804132
 30
0.0
 40
0.2625
100
AcDbArc
 50
270.0
 51
0.0
  0
LINE
  5
2AB1
330
1A
100
AcDbEntity
  8
ZUWAKU
100
AcDbLine
 10
21.483605754954
 20
11.62500003080413
 30
0.0
 11
20.608605754954
 21
11.62500003080413
 31
0.0
  0
LINE
  5
2AB2
330
1A
100
AcDbEntity
  8
ZUWAKU
100
AcDbLine
 10
13.69610575495403
 20
11.36250003080413
 30
0.0
 11
13.69610575495403
 21
10.48750003080413
 31
0.0
  0
ARC
  5
2AB3
330
1A
100
AcDbEntity
  8
ZUWAKU
100
AcDbCircle
 10
13.43360575495398
 20
10.48750003080413
 30
0.0
 40
0.2625
100
AcDbArc
 50
270.0
 51
0.0
  0
ARC
  5
2AB4
330
1A
100
AcDbEntity
  8
ZUWAKU
100
AcDbCircle
 10
15.18360575495398
 20
11.36250003080413
 30
0.0
 40
0.2625
100
AcDbArc
 50
90.0
 51
180.0
  0
ARC
  5
2AB5
330
1A
100
AcDbEntity
  8
ZUWAKU
100
AcDbCircle
 10
13.43360575495398
 20
11.36250003080413
 30
0.0
 40
0.2625
100
AcDbArc
 50
0.0
 51
90.0
  0
LINE
  5
2AB6
330
1A
100
AcDbEntity
  8
ZUWAKU
100
AcDbLine
 10
16.05860575495398
 20
11.62500003080413
 30
0.0
 11
15.18360575495398
 21
11.62500003080413
 31
0.0
  0
ARC
  5
2AB7
330
1A
100
AcDbEntity
  8
ZUWAKU
100
AcDbCircle
 10
16.05860575495398
 20
11.36250003080413
 30
0.0
 40
0.2625
100
AcDbArc
 50
0.0
 51
90.0
  0
ARC
  5
2AB8
330
1A
100
AcDbEntity
  8
ZUWAKU
100
AcDbCircle
 10
18.08848867320966
 20
11.36250003080413
 30
0.0
 40
0.2625
100
AcDbArc
 50
90.0
 51
162.4744316262769
  0
LINE
  5
2AB9
330
1A
100
AcDbEntity
  8
ZUWAKU
100
AcDbLine
 10
19.1882488126119
 20
11.28345304672064
 30
0.0
 11
18.65742899604299
 21
9.602523627585846
 31
0.0
  0
ARC
  5
2ABA
330
1A
100
AcDbEntity
  8
ZUWAKU
100
AcDbCircle
 10
18.93793336301416
 20
11.36250003080413
 30
0.0
 40
0.2625
100
AcDbArc
 50
342.4744316262769
 51
90.0
  0
LINE
  5
2ABB
330
1A
100
AcDbEntity
  8
ZUWAKU
100
AcDbLine
 10
18.08848867320966
 20
11.62500003080413
 30
0.0
 11
18.93793336301416
 21
11.62500003080413
 31
0.0
  0
ARC
  5
2ABC
330
1A
100
AcDbEntity
  8
ZUWAKU
100
AcDbCircle
 10
20.608605754954
 20
11.36250003080413
 30
0.0
 40
0.2625
100
AcDbArc
 50
90.0
 51
180.0
  0
LINE
  5
2ABD
330
1A
100
AcDbEntity
  8
ZUWAKU
100
AcDbLine
 10
25.94610575495403
 20
10.22500003080413
 30
0.0
 11
24.45860575495402
 21
10.22500003080413
 31
0.0
  0
LINE
  5
2ABE
330
1A
100
AcDbEntity
  8
ZUWAKU
100
AcDbLine
 10
24.19610575495403
 20
11.62500003080413
 30
0.0
 11
25.94610575495403
 21
11.62500003080413
 31
0.0
  0
ARC
  5
2ABF
330
1A
100
AcDbEntity
  8
ZUWAKU
100
AcDbCircle
 10
24.19610575495403
 20
10.22500003080413
 30
0.0
 40
1.399999999999999
100
AcDbArc
 50
90.0
 51
180.0
  0
LINE
  5
2AC0
330
1A
100
AcDbEntity
  8
ZUWAKU
100
AcDbLine
 10
22.796105754954
 20
10.22500003080413
 30
0.0
 11
22.796105754954
 21
9.317399018126462
 31
0.0
  0
ARC
  5
2AC1
330
1A
100
AcDbEntity
  8
ZUWAKU
100
AcDbCircle
 10
21.483605754954
 20
11.36250003080413
 30
0.0
 40
0.2625
100
AcDbArc
 50
0.0
 51
90.0
  0
LINE
  5
2AC2
330
1A
100
AcDbEntity
  8
ZUWAKU
100
AcDbLine
 10
24.19610575495403
 20
9.962500030804132
 30
0.0
 11
24.19610575495403
 21
9.317399018126462
 31
0.0
  0
ARC
  5
2AC3
330
1A
100
AcDbEntity
  8
ZUWAKU
100
AcDbCircle
 10
24.45860575495402
 20
9.962500030804132
 30
0.0
 40
0.2625
100
AcDbArc
 50
90.0
 51
180.0
  0
LINE
  5
2AC4
330
1A
100
AcDbEntity
  8
ZUWAKU
100
AcDbLine
 10
26.20860575495402
 20
11.36250003080413
 30
0.0
 11
26.20860575495402
 21
10.48750003080413
 31
0.0
  0
ARC
  5
2AC5
330
1A
100
AcDbEntity
  8
ZUWAKU
100
AcDbCircle
 10
25.94610575495403
 20
10.48750003080413
 30
0.0
 40
0.2625
100
AcDbArc
 50
270.0
 51
0.0
  0
ARC
  5
2AC6
330
1A
100
AcDbEntity
  8
ZUWAKU
100
AcDbCircle
 10
25.94610575495403
 20
11.36250003080413
 30
0.0
 40
0.2625
100
AcDbArc
 50
0.0
 51
90.0
  0
LINE
  5
2AC7
330
1A
100
AcDbEntity
  8
ZUWAKU
100
AcDbLine
 10
28.65860575495401
 20
11.62500003080413
 30
0.0
 11
27.78360575495401
 21
11.62500003080413
 31
0.0
  0
ARC
  5
2AC8
330
1A
100
AcDbEntity
  8
ZUWAKU
100
AcDbCircle
 10
27.78360575495401
 20
11.36250003080413
 30
0.0
 40
0.2625
100
AcDbArc
 50
90.0
 51
180.0
  0
ARC
  5
2AC9
330
1A
100
AcDbEntity
  8
ZUWAKU
100
AcDbCircle
 10
28.65860575495401
 20
11.36250003080413
 30
0.0
 40
0.2625
100
AcDbArc
 50
0.0
 51
90.0
  0
LINE
  5
2ACA
330
1A
100
AcDbEntity
  8
ZUWAKU
100
AcDbLine
 10
34.25860575495403
 20
11.62500003080413
 30
0.0
 11
33.38360575495403
 21
11.62500003080413
 31
0.0
  0
ARC
  5
2ACB
330
1A
100
AcDbEntity
  8
ZUWAKU
100
AcDbCircle
 10
30.93360575495399
 20
11.36250003080413
 30
0.0
 40
0.2625
100
AcDbArc
 50
90.0
 51
180.0
  0
LINE
  5
2ACC
330
1A
100
AcDbEntity
  8
ZUWAKU
100
AcDbLine
 10
31.80860575495398
 20
11.62500003080413
 30
0.0
 11
30.93360575495399
 21
11.62500003080413
 31
0.0
  0
ARC
  5
2ACD
330
1A
100
AcDbEntity
  8
ZUWAKU
100
AcDbCircle
 10
31.80860575495398
 20
11.36250003080413
 30
0.0
 40
0.2625
100
AcDbArc
 50
0.0
 51
90.0
  0
ARC
  5
2ACE
330
1A
100
AcDbEntity
  8
ZUWAKU
100
AcDbCircle
 10
33.38360575495403
 20
11.36250003080413
 30
0.0
 40
0.2625
100
AcDbArc
 50
90.0
 51
180.0
  0
ARC
  5
2ACF
330
1A
100
AcDbEntity
  8
ZUWAKU
100
AcDbCircle
 10
34.25860575495403
 20
11.36250003080413
 30
0.0
 40
0.2625
100
AcDbArc
 50
0.0
 51
90.0
  0
TEXT
  5
2AD0
330
1A
100
AcDbEntity
  8
MOJI
100
AcDbText
 10
119.9136010179889
 20
1.602460559507841
 30
0.0
 40
2.799999999999999
  1
Ｘ７０Ｕ－５－４５～６０
 41
0.9
  7
ｽﾀｲﾙ1
100
AcDbText
  0
TEXT
  5
2AD1
330
1A
100
AcDbEntity
  8
MOJI
100
AcDbText
 10
119.9136010179889
 20
9.002460559507824
 30
0.0
 40
2.799999999999999
  1
ブラケット正面打（吊）ワンタッチ自在式
 41
0.9
  7
ｽﾀｲﾙ1
100
AcDbText
  0
LINE
  5
2AD2
330
1A
100
AcDbEntity
  8
ZUWAKU
100
AcDbLine
 10
104.2233003225973
 20
15.00000003080413
 30
0.0
 11
104.2233003225974
 21
0.4000000308041649
 31
0.0
  0
LINE
  5
2AD3
330
1A
100
AcDbEntity
  8
ZUWAKU
100
AcDbLine
 10
104.3233003225973
 20
15.00000003080413
 30
0.0
 11
104.3233003225974
 21
0.4000000308041649
 31
0.0
  0
LINE
  5
2AD4
330
1A
100
AcDbEntity
  8
ZUWAKU
100
AcDbLine
 10
104.1233003225974
 20
15.00000003080413
 30
0.0
 11
104.1233003225974
 21
0.4000000308041649
 31
0.0
  0
TEXT
  5
2AD5
330
1A
100
AcDbEntity
  8
ZUWAKU
100
AcDbText
 10
104.8620228337022
 20
4.827678299996939
 30
0.0
 40
2.0
  1
サイズ
 41
0.9
  7
ｽﾀｲﾙ1
100
AcDbText
  0
TEXT
  5
2AD6
330
1A
100
AcDbEntity
  8
ZUWAKU
100
AcDbText
 10
104.862022833702
 20
12.02767829999692
 30
0.0
 40
2.0
  1
品名
 41
0.9
  7
ｽﾀｲﾙ1
100
AcDbText
  0
TEXT
  5
2AD7
330
1A
100
AcDbEntity
  8
ZUWAKU
100
AcDbText
 10
329.1019685212146
 20
9.002460559507824
 30
0.0
 40
2.799999999999999
  1
　　．　　．　　
 41
0.9
  7
ｽﾀｲﾙ1
100
AcDbText
  0
LINE
  5
2AD8
330
1A
100
AcDbEntity
  8
ZUWAKU
100
AcDbLine
 10
324.4086009326655
 20
7.800000030804147
 30
0.0
 11
348.624504951834
 21
7.800000030804147
 31
0.0
  0
LINE
  5
2AD9
330
1A
100
AcDbEntity
  8
ZUWAKU
100
AcDbLine
 10
324.4086009326656
 20
7.700000030804149
 30
0.0
 11
348.624504951834
 21
7.700000030804147
 31
0.0
  0
LINE
  5
2ADA
330
1A
100
AcDbEntity
  8
ZUWAKU
100
AcDbLine
 10
324.4086009326655
 20
7.600000030804146
 30
0.0
 11
348.624504951834
 21
7.600000030804148
 31
0.0
  0
LINE
  5
2ADB
330
1A
100
AcDbEntity
  8
ZUWAKU
100
AcDbLine
 10
252.5995894266338
 20
7.800000030804147
 30
0.0
 11
276.2634775606196
 21
7.800000030804147
 31
0.0
  0
LINE
  5
2ADC
330
1A
100
AcDbEntity
  8
ZUWAKU
100
AcDbLine
 10
252.5995894266338
 20
7.700000030804147
 30
0.0
 11
276.2634775606196
 21
7.700000030804147
 31
0.0
  0
LINE
  5
2ADD
330
1A
100
AcDbEntity
  8
ZUWAKU
100
AcDbLine
 10
252.5995894266338
 20
7.600000030804149
 30
0.0
 11
276.2634775606196
 21
7.600000030804149
 31
0.0
  0
LINE
  5
2ADE
330
1A
100
AcDbEntity
  8
ZUWAKU
100
AcDbLine
 10
252.3995894266339
 20
15.00000003080413
 30
0.0
 11
252.3995894266339
 21
0.4000000308041649
 31
0.0
  0
LINE
  5
2ADF
330
1A
100
AcDbEntity
  8
ZUWAKU
100
AcDbLine
 10
252.5995894266338
 20
15.00000003080413
 30
0.0
 11
252.599589426634
 21
0.4000000308041649
 31
0.0
  0
LINE
  5
2AE0
330
1A
100
AcDbEntity
  8
ZUWAKU
100
AcDbLine
 10
252.4995894266338
 20
15.00000003080413
 30
0.0
 11
252.4995894266339
 21
0.4000000308041649
 31
0.0
  0
TEXT
  5
2AE1
330
1A
100
AcDbEntity
  8
MOJI
100
AcDbText
 10
264.0204536637198
 20
9.002460559507824
 30
0.0
 40
2.799999999999999
  1
Ａ３
 41
0.9
  7
ｽﾀｲﾙ1
100
AcDbText
  0
LINE
  5
2AE2
330
1A
100
AcDbEntity
  8
ZUWAKU
100
AcDbLine
 10
223.7121816630591
 20
15.00000003080413
 30
0.0
 11
223.7121816630591
 21
0.4000000308041649
 31
0.0
  0
LINE
  5
2AE3
330
1A
100
AcDbEntity
  8
ZUWAKU
100
AcDbLine
 10
223.912181663059
 20
15.00000003080413
 30
0.0
 11
223.9121816630591
 21
0.4000000308041649
 31
0.0
  0
LINE
  5
2AE4
330
1A
100
AcDbEntity
  8
ZUWAKU
100
AcDbLine
 10
223.812181663059
 20
15.00000003080413
 30
0.0
 11
223.8121816630591
 21
0.4000000308041649
 31
0.0
  0
TEXT
  5
2AE5
330
1A
100
AcDbEntity
  8
MOJI
100
AcDbText
 10
231.2836388385577
 20
5.971308891634123
 30
0.0
 40
2.799999999999999
  1
ＬＫ３７Ｔ
 41
0.9
  7
ｽﾀｲﾙ1
100
AcDbText
  0
TEXT
  5
2AE6
330
1A
100
AcDbEntity
  8
ZUWAKU
100
AcDbText
 10
253.3383119377388
 20
4.827678299996939
 30
0.0
 40
2.0
  1
縮尺
 41
0.9
  7
ｽﾀｲﾙ1
100
AcDbText
  0
TEXT
  5
2AE7
330
1A
100
AcDbEntity
  8
MOJI
100
AcDbText
 10
264.0204536637198
 20
1.602460559507841
 30
0.0
 40
2.799999999999999
  1
１/１
 41
0.9
  7
ｽﾀｲﾙ1
100
AcDbText
  0
TEXT
  5
2AE8
330
1A
100
AcDbEntity
  8
ZUWAKU
100
AcDbText
 10
224.6509041741638
 20
12.02767829999692
 30
0.0
 40
2.0
  1
品番
 41
0.9
  7
ｽﾀｲﾙ1
100
AcDbText
  0
TEXT
  5
2AE9
330
1A
100
AcDbEntity
  8
ZUWAKU
100
AcDbText
 10
253.3383119377386
 20
12.02767829999692
 30
0.0
 40
2.0
  1
用紙
 41
0.9
  7
ｽﾀｲﾙ1
100
AcDbText
  0
LINE
  5
2AEA
330
1A
100
AcDbEntity
  8
ZUWAKU
100
AcDbLine
 10
276.2634775606196
 20
15.00000003080413
 30
0.0
 11
276.2634775606196
 21
0.4000000308041649
 31
0.0
  0
LINE
  5
2AEB
330
1A
100
AcDbEntity
  8
ZUWAKU
100
AcDbLine
 10
276.4634775606196
 20
15.00000003080413
 30
0.0
 11
276.4634775606197
 21
0.4000000308041649
 31
0.0
  0
LINE
  5
2AEC
330
1A
100
AcDbEntity
  8
ZUWAKU
100
AcDbLine
 10
276.3634775606195
 20
15.00000003080413
 30
0.0
 11
276.3634775606196
 21
0.4000000308041649
 31
0.0
  0
LINE
  5
2AED
330
1A
100
AcDbEntity
  8
ZUWAKU
100
AcDbLine
 10
324.2086009326657
 20
15.00000003080413
 30
0.0
 11
324.2086009326657
 21
0.4000000308041649
 31
0.0
  0
LINE
  5
2AEE
330
1A
100
AcDbEntity
  8
ZUWAKU
100
AcDbLine
 10
324.4086009326656
 20
15.00000003080413
 30
0.0
 11
324.4086009326657
 21
0.4000000308041649
 31
0.0
  0
LINE
  5
2AEF
330
1A
100
AcDbEntity
  8
ZUWAKU
100
AcDbLine
 10
324.3086009326656
 20
15.00000003080413
 30
0.0
 11
324.3086009326657
 21
0.4000000308041649
 31
0.0
  0
TEXT
  5
2AF0
330
1A
100
AcDbEntity
  8
ZUWAKU
100
AcDbText
 10
325.1473234437704
 20
12.02767829999692
 30
0.0
 40
2.0
  1
DATE
 41
0.9
  7
ｽﾀｲﾙ1
100
AcDbText
  0
TEXT
  5
2AF1
330
1A
100
AcDbEntity
  8
ZUWAKU
100
AcDbText
 10
354.2640417736853
 20
8.776919698647532
 30
0.0
 40
3.0
  1
積水化学工業株式会社
 41
0.9
  7
ｽﾀｲﾙ1
100
AcDbText
  0
LINE
  5
2AF2
330
1A
100
AcDbEntity
  8
ZUWAKU
100
AcDbLine
 10
348.924504951834
 20
15.00000003080413
 30
0.0
 11
348.9245049518341
 21
0.4000000308041649
 31
0.0
  0
LINE
  5
2AF3
330
1A
100
AcDbEntity
  8
ZUWAKU
100
AcDbLine
 10
348.824504951834
 20
15.00000003080413
 30
0.0
 11
348.8245049518341
 21
0.4000000308041649
 31
0.0
  0
LINE
  5
2AF4
330
1A
100
AcDbEntity
  8
ZUWAKU
100
AcDbLine
 10
348.7245049518341
 20
15.00000003080413
 30
0.0
 11
348.7245049518341
 21
0.4000000308041649
 31
0.0
  0
LINE
  5
2AF5
330
1A
100
AcDbEntity
  8
ZUWAKU
100
AcDbLine
 10
348.624504951834
 20
15.00000003080413
 30
0.0
 11
348.624504951834
 21
0.4000000308041649
 31
0.0
  0
TEXT
  5
2AF6
330
1A
100
AcDbEntity
  8
ZUWAKU
100
AcDbText
 10
354.2640417736853
 20
3.324420187731163
 30
0.0
 40
3.0
  1
建材事業部
 41
0.9
  7
ｽﾀｲﾙ1
100
AcDbText
  0
DIMENSION
  5
5224
330
1A
100
AcDbEntity
  8
SUNPOU
100
AcDbDimension
  2
*D1
 10
261.1658804290285
 20
99.21405531279248
 30
0.0
 11
251.7743949235293
 21
123.5871962675402
 31
0.0
 70
    33
  3
STANDARD
100
AcDbAlignedDimension
 13
216.4899235052363
 23
135.0138442658909
 33
0.0
 14
239.7450304712342
 24
88.50363033389532
 34
0.0
1001
ACAD
1000
DSTYLE
1002
{
1070
    41
1040
3.0
1070
    42
1040
3.0
1070
    43
1040
7.0
1070
    44
1040
1.5
1070
    73
1070
     0
1070
    74
1070
     0
1070
    77
1070
     3
1070
   140
1040
3.0
1070
   141
1040
3.0
1070
   147
1040
1.0
1070
   172
1070
     1
1070
   173
1070
     1
1070
   176
1070
   256
1070
   177
1070
   256
1070
   178
1070
   256
1070
   271
1070
     0
1070
   272
1070
     0
1070
   341
1005
B2
1070
     6
1000
OPEN
1070
     7
1000
OPEN
1002
}
  0
LINE
  5
5225
330
1A
100
AcDbEntity
  8
SEIHIN
100
AcDbLine
 10
217.6526788512342
 20
117.7066781178953
 30
0.0
 11
223.6453410312341
 21
120.7030092068953
 31
0.0
  0
ARC
  5
5226
330
1A
100
AcDbEntity
  8
SEIHIN
  6
DASHED
 62
     2
100
AcDbCircle
 10
227.4650011412342
 20
121.8210431958953
 30
0.0
 40
9.999999997159656
100
AcDbArc
 50
52.40698390314825
 51
170.7918456294877
  0
LINE
  5
5227
330
1A
100
AcDbEntity
  8
SEIHIN
100
AcDbLine
 10
218.5654869946695
 20
129.7446832871177
 30
0.0
 11
223.1981274312342
 21
120.4794024098953
 31
0.0
  0
LINE
  5
5228
330
1A
100
AcDbEntity
  8
SEIHIN
100
AcDbLine
 10
233.7523682912341
 20
85.50729924389532
 30
0.0
 11
217.6526788512342
 21
117.7066781178953
 31
0.0
  0
ARC
  5
5229
330
1A
100
AcDbEntity
  8
SEIHIN
100
AcDbCircle
 10
222.2175181616655
 20
223.2891388584008
 30
0.0
 40
1.699999999832981
100
AcDbArc
 50
93.79183492946813
 51
163.1123126277053
  0
ARC
  5
522A
330
1A
100
AcDbEntity
  8
SEIHIN
100
AcDbCircle
 10
222.2175181616655
 20
209.2768271984007
 30
0.0
 40
1.699999999832981
100
AcDbArc
 50
196.8876873722945
 51
266.2081650705318
  0
LINE
  5
522B
330
1A
100
AcDbEntity
  8
CENTER_L
100
AcDbLine
 10
218.7563507449562
 20
112.1452323676489
 30
0.0
 11
232.3516440483911
 21
118.9428790169912
 31
0.0
  0
DIMENSION
  5
522C
330
1A
100
AcDbEntity
  8
SUNPOU
100
AcDbDimension
  2
*D2
 10
234.0127005897668
 20
157.0757484530963
 30
0.0
 11
226.5127005857489
 21
159.5757484530963
 31
0.0
 70
    32
  3
STANDARD
100
AcDbAlignedDimension
 13
219.0127005817309
 23
129.9682901051756
 33
0.0
 14
234.0127005897668
 24
129.9682900839523
 34
0.0
100
AcDbRotatedDimension
1001
ACAD
1000
DSTYLE
1002
{
1070
    41
1040
3.0
1070
    42
1040
3.0
1070
    43
1040
7.0
1070
    44
1040
1.5
1070
    73
1070
     0
1070
    74
1070
     0
1070
    77
1070
     3
1070
   140
1040
3.0
1070
   141
1040
3.0
1070
   147
1040
1.0
1070
   172
1070
     1
1070
   173
1070
     1
1070
   176
1070
   256
1070
   177
1070
   256
1070
   178
1070
   256
1070
   271
1070
     0
1070
   272
1070
     0
1070
   341
1005
B2
1070
     6
1000
OPEN
1070
     7
1000
OPEN
1002
}
  0
DIMENSION
  5
522D
330
1A
100
AcDbEntity
  8
SUNPOU
100
AcDbDimension
  2
*D3
 10
223.1809511206603
 20
80.22159065762343
 30
0.0
 11
217.3671743780767
 21
97.43931408354001
 31
0.0
 70
    33
  3
STANDARD
100
AcDbAlignedDimension
 13
217.6526788512342
 23
117.7066781178953
 33
0.0
 14
233.7523682912342
 24
85.50729924389532
 34
0.0
1001
ACAD
1000
DSTYLE
1002
{
1070
    41
1040
3.0
1070
    42
1040
3.0
1070
    43
1040
7.0
1070
    44
1040
1.5
1070
    73
1070
     0
1070
    74
1070
     0
1070
    77
1070
     3
1070
   140
1040
3.0
1070
   141
1040
3.0
1070
   147
1040
1.0
1070
   172
1070
     1
1070
   173
1070
     1
1070
   176
1070
   256
1070
   177
1070
   256
1070
   178
1070
   256
1070
   271
1070
     0
1070
   272
1070
     0
1070
   341
1005
B2
1070
     6
1000
OPEN
1070
     7
1000
OPEN
1002
}
  0
LINE
  5
522E
330
1A
100
AcDbEntity
  8
SEIHIN
100
AcDbLine
 10
133.4906835912342
 20
219.2829830364972
 30
0.0
 11
231.9210099439839
 21
219.2829830078003
 31
0.0
  0
LINE
  5
522F
330
1A
100
AcDbEntity
  8
SEIHIN
100
AcDbLine
 10
133.4906835912342
 20
213.2829830364972
 30
0.0
 11
231.9217236519262
 21
213.2829830078002
 31
0.0
  0
LINE
  5
5230
330
1A
100
AcDbEntity
  8
SEIHIN
100
AcDbLine
 10
104.1173034612342
 20
223.7829830764973
 30
0.0
 11
237.7173634212342
 21
223.7829830474684
 31
0.0
  0
LINE
  5
5231
330
1A
100
AcDbEntity
  8
SEIHIN
100
AcDbLine
 10
104.1173034612342
 20
208.7829830364972
 30
0.0
 11
237.7173634212342
 21
208.7829830074684
 31
0.0
  0
LINE
  5
5232
330
1A
100
AcDbEntity
  8
SEIHIN
100
AcDbLine
 10
103.6173034612342
 20
209.7829830364972
 30
0.0
 11
237.7173634212341
 21
209.7829830074648
 31
0.0
  0
LINE
  5
5233
330
1A
100
AcDbEntity
  8
SEIHIN
100
AcDbLine
 10
103.6173034612342
 20
222.7829830764973
 30
0.0
 11
237.7173634212341
 21
222.7829830474649
 31
0.0
  0
LINE
  5
5234
330
1A
100
AcDbEntity
  8
CENTER_L
100
AcDbLine
 10
70.45071745123428
 20
216.2829830564973
 30
0.0
 11
251.2142867912343
 21
216.2829830264973
 31
0.0
  0
DIMENSION
  5
5235
330
1A
100
AcDbEntity
  8
SUNPOU
100
AcDbDimension
  2
*D4
 10
219.0127005817309
 20
148.3511320111401
 30
0.0
 11
203.2675672764826
 21
150.8511320111401
 31
0.0
 70
    32
  3
STANDARD
100
AcDbAlignedDimension
 13
187.5224339712344
 23
92.42968696305769
 33
0.0
 14
219.0127005817309
 24
129.9682901051756
 34
0.0
100
AcDbRotatedDimension
1001
ACAD
1000
DSTYLE
1002
{
1070
    41
1040
3.0
1070
    42
1040
3.0
1070
    43
1040
7.0
1070
    44
1040
1.5
1070
    73
1070
     0
1070
    74
1070
     0
1070
    77
1070
     3
1070
   140
1040
3.0
1070
   141
1040
3.0
1070
   147
1040
1.0
1070
   172
1070
     1
1070
   173
1070
     1
1070
   176
1070
   256
1070
   177
1070
   256
1070
   178
1070
   256
1070
   271
1070
     0
1070
   272
1070
     0
1070
   341
1005
B2
1070
     6
1000
OPEN
1070
     7
1000
OPEN
1002
}
  0
DIMENSION
  5
5236
330
1A
100
AcDbEntity
  8
SUNPOU
100
AcDbDimension
  2
*D5
 10
219.0127005817309
 20
157.0757484530963
 30
0.0
 11
147.0334422764826
 21
159.5757484530963
 31
0.0
 70
    32
  3
STANDARD
100
AcDbAlignedDimension
 13
75.05418397123429
 23
90.88128696389526
 33
0.0
 14
219.0127005817309
 24
129.9682901051756
 34
0.0
100
AcDbRotatedDimension
1001
ACAD
1000
DSTYLE
1002
{
1070
    41
1040
3.0
1070
    42
1040
3.0
1070
    43
1040
7.0
1070
    44
1040
1.5
1070
    73
1070
     0
1070
    74
1070
     0
1070
    77
1070
     3
1070
   140
1040
3.0
1070
   141
1040
3.0
1070
   147
1040
1.0
1070
   172
1070
     1
1070
   173
1070
     1
1070
   176
1070
   256
1070
   177
1070
   256
1070
   178
1070
   256
1070
   271
1070
     0
1070
   272
1070
     0
1070
   341
1005
B2
1070
     6
1000
OPEN
1070
     7
1000
OPEN
1002
}
  0
ARC
  5
5237
330
1A
100
AcDbEntity
  8
NOKITOI
  6
PHANTOM
 62
     8
100
AcDbCircle
 10
83.63470781002531
 20
42.3209468535739
 30
0.0
 40
14.22848866365036
100
AcDbArc
 50
51.52529185494234
 51
71.45345265407101
  0
ARC
  5
5238
330
1A
100
AcDbEntity
  8
NOKITOI
  6
PHANTOM
 62
     8
100
AcDbCircle
 10
83.63464104102121
 20
42.32097899016401
 30
0.0
 40
12.93471022655885
100
AcDbArc
 50
8.676219579621381
 51
74.45245455808946
  0
LINE
  5
5239
330
1A
100
AcDbEntity
  8
SEIHIN
100
AcDbLine
 10
89.16278397123425
 20
83.31858696389531
 30
0.0
 11
96.21798397123427
 21
78.18758696389529
 31
0.0
  0
LINE
  5
523A
330
1A
100
AcDbEntity
  8
SEIHIN
100
AcDbLine
 10
98.08440049123426
 20
88.23128696389529
 30
0.0
 11
78.55418397123429
 21
88.23128696389529
 31
0.0
  0
LINE
  5
523B
330
1A
100
AcDbEntity
  8
NOKITOI
  6
PHANTOM
 62
     8
100
AcDbLine
 10
87.50333397123432
 20
56.54888696305767
 30
0.0
 11
81.57233397123439
 21
84.71878696305788
 31
0.0
  0
LINE
  5
523C
330
1A
100
AcDbEntity
  8
NOKITOI
  6
PHANTOM
 62
     8
100
AcDbLine
 10
86.39473397123442
 20
55.53598696305773
 30
0.0
 11
80.55613397123426
 21
83.26728696305787
 31
0.0
  0
ARC
  5
523D
330
1A
100
AcDbEntity
  8
NOKITOI
  6
PHANTOM
 62
     8
100
AcDbCircle
 10
87.36837399562189
 20
55.74094429883189
 30
0.0
 40
0.9949785960395137
100
AcDbArc
 50
191.8875585738772
 51
254.4495841050101
  0
ARC
  5
523E
330
1A
100
AcDbEntity
  8
NOKITOI
  6
PHANTOM
 62
     8
100
AcDbCircle
 10
88.4769538530058
 20
56.75386462597777
 30
0.0
 40
0.995060928010462
100
AcDbArc
 50
191.8877567214151
 51
251.4524867922939
  0
LINE
  5
523F
330
1A
100
AcDbEntity
  8
NOKITOI
  6
PHANTOM
 62
     8
100
AcDbLine
 10
74.81173397123433
 20
90.63888696305781
 30
0.0
 11
74.81173397123433
 21
86.70868696305779
 31
0.0
  0
LINE
  5
5240
330
1A
100
AcDbEntity
  8
NOKITOI
  6
PHANTOM
 62
     8
100
AcDbLine
 10
73.51823397123445
 20
84.42028696305767
 30
0.0
 11
73.51823397123445
 21
92.42978696305767
 31
0.0
  0
LINE
  5
5241
330
1A
100
AcDbEntity
  8
SEIHIN
100
AcDbLine
 10
75.05418397123429
 20
90.88128696389526
 30
0.0
 11
75.05418397123429
 21
87.23128696389528
 31
0.0
  0
LINE
  5
5242
330
1A
100
AcDbEntity
  8
NOKITOI
  6
PHANTOM
 62
     8
100
AcDbLine
 10
76.80173397123446
 20
84.71878696305788
 30
0.0
 11
81.57233397123439
 21
84.71878696305788
 31
0.0
  0
LINE
  5
5243
330
1A
100
AcDbEntity
  8
SEIHIN
100
AcDbLine
 10
77.0541839712343
 20
85.23128696389528
 30
0.0
 11
83.28108397123424
 21
85.23128696389528
 31
0.0
  0
LINE
  5
5244
330
1A
100
AcDbEntity
  8
NOKITOI
  6
PHANTOM
 62
     8
100
AcDbLine
 10
80.36143397123447
 20
83.42528696305766
 30
0.0
 11
74.51323397123445
 21
83.42528696305766
 31
0.0
  0
ARC
  5
5245
330
1A
100
AcDbEntity
  8
NOKITOI
  6
PHANTOM
 62
     8
100
AcDbCircle
 10
76.80168397123435
 20
86.7087369630579
 30
0.0
 40
1.989950000628206
100
AcDbArc
 50
180.0014396286229
 51
270.0014396286237
  0
ARC
  5
5246
330
1A
100
AcDbEntity
  8
NOKITOI
  6
PHANTOM
 62
     8
100
AcDbCircle
 10
74.51323397123445
 20
84.42028696305767
 30
0.0
 40
0.9950000000000045
100
AcDbArc
 50
180.0
 51
270.0
  0
ARC
  5
5247
330
1A
100
AcDbEntity
  8
SEIHIN
100
AcDbCircle
 10
77.0541839712343
 20
87.23128696389528
 30
0.0
 40
2.0
100
AcDbArc
 50
180.0
 51
270.0
  0
ARC
  5
5248
330
1A
100
AcDbEntity
  8
NOKITOI
  6
PHANTOM
 62
     8
100
AcDbCircle
 10
80.36141552862018
 20
83.22630192649455
 30
0.0
 40
0.1989850374177657
100
AcDbArc
 50
11.88631382809262
 51
89.9946896310657
  0
ARC
  5
5249
330
1A
100
AcDbEntity
  8
SEIHIN
100
AcDbCircle
 10
83.28099296123424
 20
75.23131656389529
 30
0.0
 40
9.999970400385993
100
AcDbArc
 50
53.97197877308379
 51
89.99947854956749
  0
LINE
  5
524A
330
1A
100
AcDbEntity
  8
NOKITOI
  6
PHANTOM
 62
     8
100
AcDbLine
 10
74.51323397123445
 20
93.42478696305779
 30
0.0
 11
78.7444339712344
 21
93.42478696305779
 31
0.0
  0
ARC
  5
524B
330
1A
100
AcDbEntity
  8
NOKITOI
  6
PHANTOM
 62
     8
100
AcDbCircle
 10
76.95343397123434
 20
90.63888696305781
 30
0.0
 40
1.492399999999918
100
AcDbArc
 50
0.0000000000016284
 51
90.00000000000245
  0
LINE
  5
524C
330
1A
100
AcDbEntity
  8
SEIHIN
100
AcDbLine
 10
77.55418397123429
 20
89.23128696389529
 30
0.0
 11
75.05418397123429
 21
89.23118696389531
 31
0.0
  0
ARC
  5
524D
330
1A
100
AcDbEntity
  8
SEIHIN
100
AcDbCircle
 10
76.30418397123429
 20
90.88128696389526
 30
0.0
 40
1.25
100
AcDbArc
 50
0.0
 51
180.0
  0
LINE
  5
524E
330
1A
100
AcDbEntity
  8
NOKITOI
  6
PHANTOM
 62
     8
100
AcDbLine
 10
76.95343397123434
 20
92.13128696305767
 30
0.0
 11
76.3042339712344
 21
92.13128696305767
 31
0.0
  0
ARC
  5
524F
330
1A
100
AcDbEntity
  8
NOKITOI
  6
PHANTOM
 62
     8
100
AcDbCircle
 10
76.30418397123429
 20
90.6388369630577
 30
0.0
 40
1.49245000083754
100
AcDbArc
 50
89.99808047909004
 51
179.99808047909
  0
ARC
  5
5250
330
1A
100
AcDbEntity
  8
NOKITOI
  6
PHANTOM
 62
     8
100
AcDbCircle
 10
74.51323397123445
 20
92.42978696305778
 30
0.0
 40
0.9950000000000613
100
AcDbArc
 50
90.00000000000325
 51
180.0000000000032
  0
ARC
  5
5251
330
1A
100
AcDbEntity
  8
NOKITOI
  6
PHANTOM
 62
     8
100
AcDbCircle
 10
78.7443839712343
 20
92.42983696305783
 30
0.0
 40
0.9949500012563332
100
AcDbArc
 50
359.9971206704047
 51
89.99712067040476
  0
LINE
  5
5252
330
1A
100
AcDbEntity
  8
NOKITOI
  6
PHANTOM
 62
     8
100
AcDbLine
 10
78.44593397123441
 20
88.2249869630578
 30
0.0
 11
78.44593397123441
 21
90.63888696305781
 31
0.0
  0
LINE
  5
5253
330
1A
100
AcDbEntity
  8
NOKITOI
  6
PHANTOM
 62
     8
100
AcDbLine
 10
79.73933397123431
 20
88.2249869630578
 30
0.0
 11
78.44593397123441
 21
88.2249869630578
 31
0.0
  0
LINE
  5
5254
330
1A
100
AcDbEntity
  8
NOKITOI
  6
PHANTOM
 62
     8
100
AcDbLine
 10
79.73933397123431
 20
92.42978696305767
 30
0.0
 11
79.73933397123431
 21
88.2249869630578
 31
0.0
  0
LINE
  5
5255
330
1A
100
AcDbEntity
  8
SEIHIN
100
AcDbLine
 10
77.55418397123429
 20
90.88128696389526
 30
0.0
 11
77.55418397123429
 21
89.23128696389529
 31
0.0
  0
ARC
  5
5256
330
1A
100
AcDbEntity
  8
SEIHIN
100
AcDbCircle
 10
78.55418397123429
 20
89.23128696389529
 30
0.0
 40
1.0
100
AcDbArc
 50
180.0
 51
270.0
  0
LINE
  5
5257
330
1A
100
AcDbEntity
  8
CENTER_L
  6
CENTER
 62
     1
100
AcDbLine
 10
130.5202339712344
 20
33.42723696305785
 30
0.0
 11
130.5202339712344
 21
54.72723696305786
 31
0.0
  0
LINE
  5
5258
330
1A
100
AcDbEntity
  8
NOKITOI
  6
PHANTOM
 62
     8
100
AcDbLine
 10
102.5216339712343
 20
44.91968696305787
 30
0.0
 11
102.5217339712344
 21
53.41698696305781
 31
0.0
  0
LINE
  5
5259
330
1A
100
AcDbEntity
  8
NOKITOI
  6
PHANTOM
 62
     8
100
AcDbLine
 10
158.5188339712344
 20
44.91968696305787
 30
0.0
 11
158.5189339712342
 21
53.41668696305766
 31
0.0
  0
ARC
  5
525A
330
1A
100
AcDbEntity
  8
NOKITOI
  6
PHANTOM
 62
     8
100
AcDbCircle
 10
177.4057228149135
 20
42.32097438158371
 30
0.0
 40
12.93449408578155
100
AcDbArc
 50
105.547333235354
 51
171.3240617643019
  0
ARC
  5
525B
330
1A
100
AcDbEntity
  8
NOKITOI
  6
PHANTOM
 62
     8
100
AcDbCircle
 10
177.4058284378225
 20
42.32088072279248
 30
0.0
 40
12.93461262833301
100
AcDbArc
 50
105.5476727870196
 51
171.3237222126368
  0
LINE
  5
525C
330
1A
100
AcDbEntity
  8
NOKITOI
  6
PHANTOM
 62
     8
100
AcDbLine
 10
102.7206339712344
 20
44.7206869630578
 30
0.0
 11
158.3198339712344
 21
44.72058696305771
 31
0.0
  0
LINE
  5
525D
330
1A
100
AcDbEntity
  8
NOKITOI
  6
PHANTOM
 62
     8
100
AcDbLine
 10
97.40493397123447
 20
43.42728696305778
 30
0.0
 11
163.6355339712344
 21
43.42718696305792
 31
0.0
  0
LINE
  5
525E
330
1A
100
AcDbEntity
  8
NOKITOI
  6
PHANTOM
 62
     8
100
AcDbLine
 10
163.6355339712344
 20
43.42718696305792
 30
0.0
 11
97.40493397123447
 21
43.42728696305778
 31
0.0
  0
LINE
  5
525F
330
1A
100
AcDbEntity
  8
NOKITOI
  6
PHANTOM
 62
     8
100
AcDbLine
 10
100.8593339712343
 20
52.11698696305785
 30
0.0
 11
94.6384339712344
 21
52.11698696305785
 31
0.0
  0
ARC
  5
5260
330
1A
100
AcDbEntity
  8
NOKITOI
  6
PHANTOM
 62
     8
100
AcDbCircle
 10
98.07991093010622
 20
45.22730582734607
 30
0.0
 40
0.5000188648192144
100
AcDbArc
 50
191.386728855441
 51
270.0026402191986
  0
ARC
  5
5261
330
1A
100
AcDbEntity
  8
NOKITOI
  6
PHANTOM
 62
     8
100
AcDbCircle
 10
83.6346391682477
 20
42.32097634728972
 30
0.0
 40
14.23472333170272
100
AcDbArc
 50
11.37541821407338
 51
40.79334907830746
  0
ARC
  5
5262
330
1A
100
AcDbEntity
  8
NOKITOI
  6
PHANTOM
 62
     8
100
AcDbCircle
 10
97.40494158525207
 20
44.42228042281385
 30
0.0
 40
0.9949934597852239
100
AcDbArc
 50
188.6761125650602
 51
269.9995615538234
  0
ARC
  5
5263
330
1A
100
AcDbEntity
  8
NOKITOI
  6
PHANTOM
 62
     8
100
AcDbCircle
 10
94.63843763053757
 20
51.8169949549374
 30
0.0
 40
0.2999920081427447
100
AcDbArc
 50
90.00069889403132
 51
220.79672841758
  0
LINE
  5
5264
330
1A
100
AcDbEntity
  8
NOKITOI
  6
PHANTOM
 62
     8
100
AcDbLine
 10
101.2216339712343
 20
45.22728696305785
 30
0.0
 11
101.2216339712343
 21
51.75458696305788
 31
0.0
  0
ARC
  5
5265
330
1A
100
AcDbEntity
  8
NOKITOI
  6
PHANTOM
 62
     8
100
AcDbCircle
 10
100.7216339712342
 20
45.22728696305785
 30
0.0
 40
0.5000000000000569
100
AcDbArc
 50
270.0000000000065
 51
0.0000000000065138
  0
LINE
  5
5266
330
1A
100
AcDbEntity
  8
NOKITOI
  6
PHANTOM
 62
     8
100
AcDbLine
 10
98.07983397123434
 20
44.72728696305773
 30
0.0
 11
100.7216339712343
 21
44.72728696305773
 31
0.0
  0
ARC
  5
5267
330
1A
100
AcDbEntity
  8
NOKITOI
  6
PHANTOM
 62
     8
100
AcDbCircle
 10
102.7206339712344
 20
44.91968696305787
 30
0.0
 40
0.1990000000000691
100
AcDbArc
 50
179.9999999999837
 51
269.9999999999837
  0
LINE
  5
5268
330
1A
100
AcDbEntity
  8
NOKITOI
  6
PHANTOM
 62
     8
100
AcDbLine
 10
101.7166339712343
 20
52.61188696305765
 30
0.0
 11
100.8593339712343
 21
52.11698696305785
 31
0.0
  0
LINE
  5
5269
330
1A
100
AcDbEntity
  8
NOKITOI
  6
PHANTOM
 62
     8
100
AcDbLine
 10
101.7166339712343
 20
52.61188696305765
 30
0.0
 11
101.2216339712343
 21
51.75458696305788
 31
0.0
  0
LINE
  5
526A
330
1A
100
AcDbEntity
  8
NOKITOI
  6
PHANTOM
 62
     8
100
AcDbLine
 10
154.3198339712344
 20
44.72058696305771
 30
0.0
 11
139.5654339712343
 21
44.72058696305771
 31
0.0
  0
LINE
  5
526B
330
1A
100
AcDbEntity
  8
NOKITOI
  6
PHANTOM
 62
     8
100
AcDbLine
 10
166.4018339712342
 20
52.11658696305772
 30
0.0
 11
160.1812339712344
 21
52.11658696305772
 31
0.0
  0
ARC
  5
526C
330
1A
100
AcDbEntity
  8
NOKITOI
  6
PHANTOM
 62
     8
100
AcDbCircle
 10
162.9606570123626
 20
45.22720582734609
 30
0.0
 40
0.5000188648190603
100
AcDbArc
 50
269.9973597808037
 51
348.6132711445597
  0
ARC
  5
526D
330
1A
100
AcDbEntity
  8
NOKITOI
  6
PHANTOM
 62
     8
100
AcDbCircle
 10
177.4057924259252
 20
42.32080209850153
 30
0.0
 40
14.23462403148678
100
AcDbArc
 50
139.2075062369009
 51
168.623785948384
  0
LINE
  5
526E
330
1A
100
AcDbEntity
  8
NOKITOI
  6
PHANTOM
 62
     8
100
AcDbLine
 10
159.8189339712344
 20
51.75428696305772
 30
0.0
 11
159.8189339712344
 21
45.22718696305775
 31
0.0
  0
ARC
  5
526F
330
1A
100
AcDbEntity
  8
NOKITOI
  6
PHANTOM
 62
     8
100
AcDbCircle
 10
158.3197839712343
 20
44.91963696305776
 30
0.0
 40
0.1990500062799141
100
AcDbArc
 50
270.0143923080609
 51
0.0143923080609162
  0
LINE
  5
5270
330
1A
100
AcDbEntity
  8
NOKITOI
  6
PHANTOM
 62
     8
100
AcDbLine
 10
162.9606339712344
 20
44.72718696305787
 30
0.0
 11
160.3189339712344
 21
44.72718696305787
 31
0.0
  0
ARC
  5
5271
330
1A
100
AcDbEntity
  8
NOKITOI
  6
PHANTOM
 62
     8
100
AcDbCircle
 10
160.3189339712343
 20
45.22718696305787
 30
0.0
 40
0.4999999999999432
100
AcDbArc
 50
180.0000000000065
 51
270.0000000000065
  0
LINE
  5
5272
330
1A
100
AcDbEntity
  8
NOKITOI
  6
PHANTOM
 62
     8
100
AcDbLine
 10
159.3239339712342
 20
52.61158696305773
 30
0.0
 11
160.1812339712344
 21
52.11658696305772
 31
0.0
  0
LINE
  5
5273
330
1A
100
AcDbEntity
  8
NOKITOI
  6
PHANTOM
 62
     8
100
AcDbLine
 10
159.3239339712342
 20
52.61158696305773
 30
0.0
 11
159.8189339712344
 21
51.75428696305772
 31
0.0
  0
ARC
  5
5274
330
1A
100
AcDbEntity
  8
NOKITOI
  6
PHANTOM
 62
     8
100
AcDbCircle
 10
163.6355838993303
 20
44.42222985065643
 30
0.0
 40
0.9950428888512103
100
AcDbArc
 50
269.9971250795227
 51
351.3214426795066
  0
ARC
  5
5275
330
1A
100
AcDbEntity
  8
NOKITOI
  6
PHANTOM
 62
     8
100
AcDbCircle
 10
166.4018476490857
 20
51.81655709936388
 30
0.0
 40
0.3000298640056128
100
AcDbArc
 50
319.2190584222774
 51
90.00261201719977
  0
LINE
  5
5276
330
1A
100
AcDbEntity
  8
SEIHIN
100
AcDbLine
 10
135.5976652912342
 20
108.4238160548953
 30
0.0
 11
202.4598369712342
 21
116.6334584418952
 31
0.0
  0
LINE
  5
5277
330
1A
100
AcDbEntity
  8
SEIHIN
100
AcDbLine
 10
133.7203556912342
 20
114.2383703688952
 30
0.0
 11
201.7286222212342
 21
122.5887355138953
 31
0.0
  0
LINE
  5
5278
330
1A
100
AcDbEntity
  8
SEIHIN
100
AcDbLine
 10
167.4015839712342
 20
106.0326869638952
 30
0.0
 11
153.7743839712342
 21
88.8007869638953
 31
0.0
  0
LINE
  5
5279
330
1A
100
AcDbEntity
  8
SEIHIN
100
AcDbLine
 10
123.0844004932342
 20
79.73118696389531
 30
0.0
 11
156.9545839712342
 21
79.73118696389531
 31
0.0
  0
LINE
  5
527A
330
1A
100
AcDbEntity
  8
SEIHIN
100
AcDbLine
 10
159.1871839712342
 20
77.23118696389531
 30
0.0
 11
123.0844004932342
 21
77.23118696389531
 31
0.0
  0
LINE
  5
527B
330
1A
100
AcDbEntity
  8
SEIHIN
100
AcDbLine
 10
160.1178839712342
 20
85.73128696389529
 30
0.0
 11
123.0844004932342
 21
85.73128696389529
 31
0.0
  0
LINE
  5
527C
330
1A
100
AcDbEntity
  8
SEIHIN
100
AcDbLine
 10
105.3895907912341
 20
104.3664968098952
 30
0.0
 11
104.6204378912341
 21
98.92054383389529
 31
0.0
  0
LINE
  5
527D
330
1A
100
AcDbEntity
  8
SEIHIN
100
AcDbLine
 10
124.5172803912342
 20
91.27763132389532
 30
0.0
 11
130.0072167912341
 21
104.2111108928952
 31
0.0
  0
CIRCLE
  5
527E
330
1A
100
AcDbEntity
  8
SEIHIN
100
AcDbCircle
 10
113.0844004912342
 20
99.03128696389529
 30
0.0
 40
3.500000004238516
  0
ARC
  5
527F
330
1A
100
AcDbEntity
  8
SEIHIN
100
AcDbCircle
 10
113.5844004912342
 20
95.5312869638953
 30
0.0
 40
9.535085152808647
100
AcDbArc
 50
4.916661302937096
 51
179.9998615479522
  0
LINE
  5
5280
330
1A
100
AcDbEntity
  8
SEIHIN
100
AcDbLine
 10
98.08440049123426
 20
75.03768331389529
 30
0.0
 11
123.0844004932342
 21
75.03768331389529
 31
0.0
  0
LINE
  5
5281
330
1A
100
AcDbEntity
  8
SEIHIN
100
AcDbLine
 10
98.08440049123426
 20
75.03768331389529
 30
0.0
 11
98.08440049123426
 21
94.03768331589526
 31
0.0
  0
LINE
  5
5282
330
1A
100
AcDbEntity
  8
NOKITOI
  6
PHANTOM
 62
     8
100
AcDbLine
 10
102.5217339712344
 20
53.41698696305781
 30
0.0
 11
92.61103397123447
 21
53.41698696305781
 31
0.0
  0
ARC
  5
5283
330
1A
100
AcDbEntity
  8
NOKITOI
  6
PHANTOM
 62
     8
100
AcDbCircle
 10
92.61103728359348
 20
53.61598580727235
 30
0.0
 40
0.1989988442421132
100
AcDbArc
 50
231.5280949042407
 51
269.9990463050553
  0
LINE
  5
5284
330
1A
100
AcDbEntity
  8
SEIHIN
100
AcDbLine
 10
102.0493118212342
 20
94.0376809578953
 30
0.0
 11
102.0492956912342
 21
87.19955950389527
 31
0.0
  0
LINE
  5
5285
330
1A
100
AcDbEntity
  8
SEIHIN
100
AcDbLine
 10
104.0493153412342
 20
95.53131000489532
 30
0.0
 11
104.0492956912342
 21
87.19955950389527
 31
0.0
  0
LINE
  5
5286
330
1A
100
AcDbEntity
  8
SEIHIN
100
AcDbLine
 10
98.08440049123426
 20
85.73128696389529
 30
0.0
 11
93.17108397123423
 21
85.73128696389529
 31
0.0
  0
ARC
  5
5287
330
1A
100
AcDbEntity
  8
SEIHIN
100
AcDbCircle
 10
99.32128353123426
 20
82.73131962389527
 30
0.0
 40
3.000032662681521
100
AcDbArc
 50
233.9758085673714
 51
245.6512385050324
  0
ARC
  5
5288
330
1A
100
AcDbEntity
  8
SEIHIN
100
AcDbCircle
 10
99.15882208123424
 20
82.23130708389527
 30
0.0
 40
5.000020122542945
100
AcDbArc
 50
233.9730830341292
 51
257.5913101544815
  0
LINE
  5
5289
330
1A
100
AcDbEntity
  8
SEIHIN
100
AcDbLine
 10
92.58288397123425
 20
83.92248696389527
 30
0.0
 11
97.55688397123424
 21
80.30498696389532
 31
0.0
  0
ARC
  5
528A
330
1A
100
AcDbEntity
  8
SEIHIN
100
AcDbCircle
 10
93.17107286123428
 20
84.73125279389529
 30
0.0
 40
1.00003416926274
100
AcDbArc
 50
89.99936346563975
 51
233.9728323870002
  0
LINE
  5
528B
330
1A
100
AcDbEntity
  8
SEIHIN
100
AcDbLine
 10
102.0492956912342
 20
87.19955950389527
 30
0.0
 11
104.0492956912342
 21
87.19955950389527
 31
0.0
  0
LINE
  5
528C
330
1A
100
AcDbEntity
  8
SEIHIN
100
AcDbLine
 10
103.6844004912342
 20
94.23128696389529
 30
0.0
 11
103.6843863412342
 21
88.23128460589533
 31
0.0
  0
LINE
  5
528D
330
1A
100
AcDbEntity
  8
SEIHIN
100
AcDbLine
 10
102.6844004912342
 20
94.23128696389529
 30
0.0
 11
102.6843863412342
 21
88.23128696389529
 31
0.0
  0
LINE
  5
528E
330
1A
100
AcDbEntity
  8
SEIHIN
100
AcDbLine
 10
102.049298124909
 20
88.23128696389529
 30
0.0
 11
104.0492981212342
 21
88.23128696389529
 31
0.0
  0
ARC
  5
528F
330
1A
100
AcDbEntity
  8
SEIHIN
100
AcDbCircle
 10
101.0493118212342
 20
94.03768331589526
 30
0.0
 40
1.000000000001389
100
AcDbArc
 50
359.9998648965509
 51
90.0
  0
LINE
  5
5290
330
1A
100
AcDbEntity
  8
SEIHIN
100
AcDbLine
 10
101.0493118212342
 20
95.03768331589526
 30
0.0
 11
99.08440049123425
 21
95.03768331589526
 31
0.0
  0
ARC
  5
5291
330
1A
100
AcDbEntity
  8
SEIHIN
100
AcDbCircle
 10
99.08440049123425
 20
94.03768331589526
 30
0.0
 40
1.0
100
AcDbArc
 50
90.0
 51
180.0
  0
LINE
  5
5292
330
1A
100
AcDbEntity
  8
SEIHIN
100
AcDbLine
 10
102.6844004912342
 20
94.23128696389529
 30
0.0
 11
104.0493122712342
 21
94.23128696389529
 31
0.0
  0
MTEXT
  5
5293
330
1A
100
AcDbEntity
  8
SEIHIN
100
AcDbMText
 10
114.9923802912342
 20
82.8232057978953
 30
0.0
 40
2.381249964
 41
0.0
 71
     1
 72
     5
  1
{\W1.022222;45}
210
0.0
220
0.0
230
-1.0
 11
-1.0
 21
0.0
 31
0.0
1001
ACAD
1000
MTEXTBEGIN
1070
    73
1070
     1
1070
    44
1040
1.0
1070
    74
1070
     0
1000
MTEXTEND
1000
MTEXTBEGIN
1070
    73
1070
     1
1070
    44
1040
1.0
1070
    74
1070
     0
1000
MTEXTEND
1000
MTEXTBEGIN
1070
    73
1070
     1
1070
    44
1040
1.0
1070
    74
1070
     0
1000
MTEXTEND
1000
MTEXTBEGIN
1070
    73
1070
     1
1070
    44
1040
1.0
1070
    74
1070
     0
1000
MTEXTEND
1000
MTEXTBEGIN
1070
    73
1070
     1
1070
    44
1040
1.0
1070
    74
1070
     0
1000
MTEXTEND
1000
MTEXTBEGIN
1070
    73
1070
     1
1070
    44
1040
1.0
1070
    74
1070
     0
1000
MTEXTEND
1000
MTEXTBEGIN
1070
    73
1070
     1
1070
    44
1040
1.0
1070
    74
1070
     0
1000
MTEXTEND
  0
LINE
  5
5294
330
1A
100
AcDbEntity
  8
SEIHIN
100
AcDbLine
 10
110.5844004912342
 20
85.73128696389529
 30
0.0
 11
115.5844004912342
 21
85.73128696389529
 31
0.0
  0
LINE
  5
5295
330
1A
100
AcDbEntity
  8
SEIHIN
100
AcDbLine
 10
113.0844004912342
 20
79.73128696389529
 30
0.0
 11
114.2391010312342
 21
77.73128696389528
 31
0.0
  0
LINE
  5
5296
330
1A
100
AcDbEntity
  8
SEIHIN
100
AcDbLine
 10
114.2391010312342
 20
77.73128696389528
 30
0.0
 11
111.9296999512342
 21
77.73128696389528
 31
0.0
  0
LINE
  5
5297
330
1A
100
AcDbEntity
  8
SEIHIN
100
AcDbLine
 10
115.5844004912342
 20
79.73128696389529
 30
0.0
 11
110.5844004912342
 21
79.73128696389529
 31
0.0
  0
LINE
  5
5298
330
1A
100
AcDbEntity
  8
SEIHIN
100
AcDbLine
 10
109.5844004912342
 20
84.73128696389528
 30
0.0
 11
109.5844004912342
 21
80.73128696389529
 31
0.0
  0
ARC
  5
5299
330
1A
100
AcDbEntity
  8
SEIHIN
100
AcDbCircle
 10
110.5844004912342
 20
80.73128696389529
 30
0.0
 40
1.0
100
AcDbArc
 50
180.0
 51
270.0
  0
LINE
  5
529A
330
1A
100
AcDbEntity
  8
SEIHIN
100
AcDbLine
 10
113.0844004912342
 20
79.73128696389529
 30
0.0
 11
111.9296999512342
 21
77.73128696389528
 31
0.0
  0
ARC
  5
529B
330
1A
100
AcDbEntity
  8
SEIHIN
100
AcDbCircle
 10
110.5844004912342
 20
84.73128696389528
 30
0.0
 40
1.0
100
AcDbArc
 50
90.0
 51
180.0
  0
LINE
  5
529C
330
1A
100
AcDbEntity
  8
SEIHIN
100
AcDbLine
 10
113.3344004912342
 20
85.73128696389529
 30
0.0
 11
113.3344004912342
 21
83.73128696389528
 31
0.0
  0
LINE
  5
529D
330
1A
100
AcDbEntity
  8
SEIHIN
100
AcDbLine
 10
112.8344004912342
 20
83.73128696389528
 30
0.0
 11
112.8344004912342
 21
85.73128696389529
 31
0.0
  0
LINE
  5
529E
330
1A
100
AcDbEntity
  8
SEIHIN
100
AcDbLine
 10
113.3344004912342
 20
83.73128696389528
 30
0.0
 11
112.8344004912342
 21
83.73128696389528
 31
0.0
  0
LINE
  5
529F
330
1A
100
AcDbEntity
  8
SEIHIN
100
AcDbLine
 10
112.8344004912342
 20
85.73128696389529
 30
0.0
 11
113.3344004912342
 21
85.73128696389529
 31
0.0
  0
LINE
  5
52A0
330
1A
100
AcDbEntity
  8
SEIHIN
100
AcDbLine
 10
112.8411504912342
 20
85.73128696389529
 30
0.0
 11
113.3411504912342
 21
85.73128696389529
 31
0.0
  0
LINE
  5
52A1
330
1A
100
AcDbEntity
  8
SEIHIN
100
AcDbLine
 10
116.5844004912342
 20
84.73128696389528
 30
0.0
 11
116.5844004912342
 21
80.73128696389529
 31
0.0
  0
ARC
  5
52A2
330
1A
100
AcDbEntity
  8
SEIHIN
100
AcDbCircle
 10
115.5844004912342
 20
80.73128696389529
 30
0.0
 40
1.0
100
AcDbArc
 50
270.0
 51
0.0
  0
ARC
  5
52A3
330
1A
100
AcDbEntity
  8
SEIHIN
100
AcDbCircle
 10
115.5844004912342
 20
84.73128696389528
 30
0.0
 40
1.0
100
AcDbArc
 50
0.0
 51
90.0
  0
LINE
  5
52A4
330
1A
100
AcDbEntity
  8
SEIHIN
100
AcDbLine
 10
123.0844004932342
 20
75.03768331389529
 30
0.0
 11
123.0844004932342
 21
96.34850718289527
 31
0.0
  0
LINE
  5
52A5
330
1A
100
AcDbEntity
  8
SEIHIN
100
AcDbLine
 10
152.5977839712342
 20
88.23128696389529
 30
0.0
 11
123.0844004932342
 21
88.23128696389529
 31
0.0
  0
MTEXT
  5
52A6
330
1A
100
AcDbEntity
  8
SEIHIN
100
AcDbMText
 10
130.0001581912342
 20
82.64306418789528
 30
0.0
 40
2.381249964
 41
0.0
 71
     1
 72
     5
  1
{\W1.135802;60}
210
0.0
220
0.0
230
-1.0
 11
-1.0
 21
0.0
 31
0.0
1001
ACAD
1000
MTEXTBEGIN
1070
    73
1070
     1
1070
    44
1040
1.0
1070
    74
1070
     0
1000
MTEXTEND
1000
MTEXTBEGIN
1070
    73
1070
     1
1070
    44
1040
1.0
1070
    74
1070
     0
1000
MTEXTEND
1000
MTEXTBEGIN
1070
    73
1070
     1
1070
    44
1040
1.0
1070
    74
1070
     0
1000
MTEXTEND
1000
MTEXTBEGIN
1070
    73
1070
     1
1070
    44
1040
1.0
1070
    74
1070
     0
1000
MTEXTEND
1000
MTEXTBEGIN
1070
    73
1070
     1
1070
    44
1040
1.0
1070
    74
1070
     0
1000
MTEXTEND
1000
MTEXTBEGIN
1070
    73
1070
     1
1070
    44
1040
1.0
1070
    74
1070
     0
1000
MTEXTEND
1000
MTEXTBEGIN
1070
    73
1070
     1
1070
    44
1040
1.0
1070
    74
1070
     0
1000
MTEXTEND
  0
LINE
  5
52A7
330
1A
100
AcDbEntity
  8
SEIHIN
100
AcDbLine
 10
123.3411504912341
 20
83.73128696389528
 30
0.0
 11
123.0844004912342
 21
83.73128696389528
 31
0.0
  0
LINE
  5
52A8
330
1A
100
AcDbEntity
  8
SEIHIN
100
AcDbLine
 10
123.3411504912341
 20
83.73128696389528
 30
0.0
 11
123.3411504912341
 21
85.73128696389529
 31
0.0
  0
LINE
  5
52A9
330
1A
100
AcDbEntity
  8
SEIHIN
100
AcDbLine
 10
128.3411504912342
 20
85.73128696389529
 30
0.0
 11
127.8411504912342
 21
85.73128696389529
 31
0.0
  0
LINE
  5
52AA
330
1A
100
AcDbEntity
  8
SEIHIN
100
AcDbLine
 10
127.8411504912342
 20
85.73128696389529
 30
0.0
 11
127.8411504912342
 21
83.73128696389528
 31
0.0
  0
LINE
  5
52AB
330
1A
100
AcDbEntity
  8
SEIHIN
100
AcDbLine
 10
127.8411504912342
 20
83.73128696389528
 30
0.0
 11
128.3411504912342
 21
83.73128696389528
 31
0.0
  0
LINE
  5
52AC
330
1A
100
AcDbEntity
  8
SEIHIN
100
AcDbLine
 10
128.3411504912342
 20
83.73128696389528
 30
0.0
 11
128.3411504912342
 21
85.73128696389529
 31
0.0
  0
ARC
  5
52AD
330
1A
100
AcDbEntity
  8
SEIHIN
100
AcDbCircle
 10
119.9147560912342
 20
93.23128696389529
 30
0.0
 40
5.00000003649864
100
AcDbArc
 50
309.3405862842468
 51
337.0000001723857
  0
LINE
  5
52AE
330
1A
100
AcDbEntity
  8
SEIHIN
100
AcDbLine
 10
145.5557839712342
 20
85.73128696389529
 30
0.0
 11
145.5557839712342
 21
79.73128696389529
 31
0.0
  0
ARC
  5
52AF
330
1A
100
AcDbEntity
  8
SEIHIN
100
AcDbCircle
 10
152.5978589612342
 20
89.73132326489531
 30
0.0
 40
1.5000363023233
100
AcDbArc
 50
269.9971356623169
 51
321.6588485138866
  0
ARC
  5
52B0
330
1A
100
AcDbEntity
  8
SEIHIN
100
AcDbCircle
 10
122.7007260912342
 20
101.0271532138953
 30
0.0
 40
2.000000009547898
100
AcDbArc
 50
81.39257647660745
 51
140.269157328916
  0
LINE
  5
52B1
330
1A
100
AcDbEntity
  8
SEIHIN
100
AcDbLine
 10
123.0747478912341
 20
105.0007570898953
 30
0.0
 11
111.3982918912342
 21
106.6498678998953
 31
0.0
  0
LINE
  5
52B2
330
1A
100
AcDbEntity
  8
SEIHIN
100
AcDbLine
 10
123.1399734912342
 20
103.9816207698952
 30
0.0
 11
110.7336539912342
 21
105.7338130018953
 31
0.0
  0
LINE
  5
52B3
330
1A
100
AcDbEntity
  8
SEIHIN
100
AcDbLine
 10
121.8341611912341
 20
100.3124266238953
 30
0.0
 11
124.9353650912342
 21
107.6184051138953
 31
0.0
  0
ARC
  5
52B4
330
1A
100
AcDbEntity
  8
SEIHIN
100
AcDbCircle
 10
106.3797640912342
 20
104.2266508288952
 30
0.0
 40
1.000000009640918
100
AcDbArc
 50
81.96107065881095
 51
171.9610663765923
  0
ARC
  5
52B5
330
1A
100
AcDbEntity
  8
SEIHIN
100
AcDbCircle
 10
109.7293247912342
 20
105.7734279908953
 30
0.0
 40
0.9999999676895662
100
AcDbArc
 50
261.9610649935477
 51
351.9610655186018
  0
LINE
  5
52B6
330
1A
100
AcDbEntity
  8
SEIHIN
100
AcDbLine
 10
109.5894787912341
 20
104.7832547218953
 30
0.0
 11
106.5196099912341
 21
105.2168240968953
 31
0.0
  0
LINE
  5
52B7
330
1A
100
AcDbEntity
  8
SEIHIN
100
AcDbLine
 10
110.7194979912341
 20
105.6335820098952
 30
0.0
 11
110.7993816912341
 21
106.1991944378952
 31
0.0
  0
ARC
  5
52B8
330
1A
100
AcDbEntity
  8
SEIHIN
100
AcDbCircle
 10
111.3241734912341
 20
106.1250760678952
 30
0.0
 40
0.5299999859769696
100
AcDbArc
 50
81.96106284407187
 51
171.9610655715811
  0
LINE
  5
52B9
330
1A
100
AcDbEntity
  8
SEIHIN
100
AcDbLine
 10
120.7554851912341
 20
101.8156637938952
 30
0.0
 11
121.1626148912342
 21
102.3055170238953
 31
0.0
  0
ARC
  5
52BA
330
1A
100
AcDbEntity
  8
SEIHIN
100
AcDbCircle
 10
135.0609184912341
 20
103.3203627008953
 30
0.0
 40
11.00000000680566
100
AcDbArc
 50
97.00000011658158
 51
157.0000000263018
  0
ARC
  5
52BB
330
1A
100
AcDbEntity
  8
SEIHIN
100
AcDbCircle
 10
136.4507506912342
 20
101.4759929938953
 30
0.0
 40
6.999999965304857
100
AcDbArc
 50
96.99999996932376
 51
156.9999997660007
  0
LINE
  5
52BC
330
1A
100
AcDbEntity
  8
SEIHIN
100
AcDbLine
 10
123.0747478912341
 20
105.0007570898953
 30
0.0
 11
124.1759901912342
 21
105.8294301038953
 31
0.0
  0
ARC
  5
52BD
330
1A
100
AcDbEntity
  8
SEIHIN
100
AcDbCircle
 10
123.2098964912342
 20
104.4767074038953
 30
0.0
 40
0.5000000014358297
100
AcDbArc
 50
261.9610649855335
 51
306.9610665450052
  0
LINE
  5
52BE
330
1A
100
AcDbEntity
  8
SEIHIN
100
AcDbLine
 10
134.3967039912342
 20
116.6213600098952
 30
0.0
 11
133.4906835912342
 21
117.0445940328953
 31
0.0
  0
LINE
  5
52BF
330
1A
100
AcDbEntity
  8
SEIHIN
100
AcDbLine
 10
132.0470324912342
 20
113.8994217838953
 30
0.0
 11
133.4906835912342
 21
117.0445940328953
 31
0.0
  0
LINE
  5
52C0
330
1A
100
AcDbEntity
  8
SEIHIN
100
AcDbLine
 10
133.2795711912341
 20
114.1751681778953
 30
0.0
 11
134.3967039912342
 21
116.6213600098952
 31
0.0
  0
ARC
  5
52C1
330
1A
100
AcDbEntity
  8
SEIHIN
100
AcDbCircle
 10
185.3741839712342
 20
102.4312869638952
 30
0.0
 40
3.0
100
AcDbArc
 50
270.0
 51
90.0
  0
ARC
  5
52C2
330
1A
100
AcDbEntity
  8
SEIHIN
100
AcDbCircle
 10
182.5241839712342
 20
97.93118696369527
 30
0.0
 40
10.0000000001
100
AcDbArc
 50
0.0
 51
90.0
  0
ARC
  5
52C3
330
1A
100
AcDbEntity
  8
SEIHIN
100
AcDbCircle
 10
174.4700790812342
 20
96.43118459589528
 30
0.0
 40
3.000002368933987
100
AcDbArc
 50
89.99990660795349
 51
141.6619327663495
  0
LINE
  5
52C4
330
1A
100
AcDbEntity
  8
SEIHIN
100
AcDbLine
 10
169.2123839712342
 20
104.2920869638953
 30
0.0
 11
157.7925839712342
 21
89.85158696389527
 31
0.0
  0
ARC
  5
52C5
330
1A
100
AcDbEntity
  8
SEIHIN
100
AcDbCircle
 10
188.0241839712342
 20
79.5623035838953
 30
0.0
 40
4.500000000783715
100
AcDbArc
 50
216.0326608768124
 51
0.0
  0
ARC
  5
52C6
330
1A
100
AcDbEntity
  8
SEIHIN
100
AcDbCircle
 10
181.5241839712342
 20
90.93118696389529
 30
0.0
 40
5.999999999899999
100
AcDbArc
 50
0.0
 51
90.0
  0
LINE
  5
52C7
330
1A
100
AcDbEntity
  8
NOKITOI
  6
PHANTOM
 62
     8
100
AcDbLine
 10
174.6458339712344
 20
55.53578696305766
 30
0.0
 11
180.4845339712342
 21
83.26718696305766
 31
0.0
  0
LINE
  5
52C8
330
1A
100
AcDbEntity
  8
NOKITOI
  6
PHANTOM
 62
     8
100
AcDbLine
 10
173.5371339712344
 20
56.54828696305782
 30
0.0
 11
178.9921339712343
 21
82.45718696305772
 31
0.0
  0
ARC
  5
52C9
330
1A
100
AcDbEntity
  8
NOKITOI
  6
PHANTOM
 62
     8
100
AcDbCircle
 10
177.405848474783
 20
42.32089488724625
 30
0.0
 40
14.22809199964113
100
AcDbArc
 50
108.5474584936554
 51
128.7537062451649
  0
LINE
  5
52CA
330
1A
100
AcDbEntity
  8
NOKITOI
  6
PHANTOM
 62
     8
100
AcDbLine
 10
158.5189339712342
 20
53.41668696305766
 30
0.0
 11
168.4994339712342
 21
53.41658696305779
 31
0.0
  0
ARC
  5
52CB
330
1A
100
AcDbEntity
  8
NOKITOI
  6
PHANTOM
 62
     8
100
AcDbCircle
 10
173.6722083080865
 20
55.74086621444525
 30
0.0
 40
0.9949690575286499
100
AcDbArc
 50
285.5437330810334
 51
348.1110361155306
  0
ARC
  5
52CC
330
1A
100
AcDbEntity
  8
NOKITOI
  6
PHANTOM
 62
     8
100
AcDbCircle
 10
172.5635775407855
 20
56.75333591482666
 30
0.0
 40
0.9950135261271753
100
AcDbArc
 50
288.5445751594485
 51
348.1074736523477
  0
LINE
  5
52CD
330
1A
100
AcDbEntity
  8
SEIHIN
100
AcDbLine
 10
163.1168839712342
 20
80.11678696389527
 30
0.0
 11
176.5112839712342
 21
81.82628696389532
 31
0.0
  0
LINE
  5
52CE
330
1A
100
AcDbEntity
  8
SEIHIN
100
AcDbLine
 10
159.1871839712342
 20
77.23118696389531
 30
0.0
 11
176.7018839712342
 21
80.64218696389531
 31
0.0
  0
LINE
  5
52CF
330
1A
100
AcDbEntity
  8
SEIHIN
100
AcDbLine
 10
172.7265839712342
 20
95.03258696389531
 30
0.0
 11
162.2058839712342
 21
81.72908696389526
 31
0.0
  0
LINE
  5
52D0
330
1A
100
AcDbEntity
  8
SEIHIN
100
AcDbLine
 10
172.1169839712342
 20
98.29208696369528
 30
0.0
 11
164.4609839712342
 21
88.61098696389531
 31
0.0
  0
LINE
  5
52D1
330
1A
100
AcDbEntity
  8
SEIHIN
100
AcDbLine
 10
157.7389839712342
 20
80.11088696389526
 30
0.0
 11
160.9022839712342
 21
84.1109869638953
 31
0.0
  0
ARC
  5
52D2
330
1A
100
AcDbEntity
  8
SEIHIN
100
AcDbCircle
 10
156.9546126012342
 20
80.73120082389527
 30
0.0
 40
1.000013862902801
100
AcDbArc
 50
269.9983596445684
 51
321.6615704529417
  0
ARC
  5
52D3
330
1A
100
AcDbEntity
  8
SEIHIN
100
AcDbCircle
 10
162.9902887712342
 20
81.10877847389531
 30
0.0
 40
1.000036752725678
100
AcDbArc
 50
141.6629998625316
 51
277.2726171970298
  0
ARC
  5
52D4
330
1A
100
AcDbEntity
  8
SEIHIN
100
AcDbCircle
 10
160.1178906812342
 20
84.73127310389532
 30
0.0
 40
1.00001386218148
100
AcDbArc
 50
321.6635952327493
 51
90.0003844493519
  0
LINE
  5
52D5
330
1A
100
AcDbEntity
  8
SEIHIN
100
AcDbLine
 10
163.6765839712342
 20
88.23128696389529
 30
0.0
 11
158.5769839712342
 21
88.23128696389529
 31
0.0
  0
ARC
  5
52D6
330
1A
100
AcDbEntity
  8
SEIHIN
100
AcDbCircle
 10
158.5769922712342
 20
89.23126981389533
 30
0.0
 40
0.9999828485094189
100
AcDbArc
 50
141.6672292746693
 51
269.9995244368737
  0
ARC
  5
52D7
330
1A
100
AcDbEntity
  8
SEIHIN
100
AcDbCircle
 10
163.6766126012342
 20
89.23130082589528
 30
0.0
 40
1.000013864523104
100
AcDbArc
 50
269.9983596445718
 51
321.6615703630643
  0
LINE
  5
52D8
330
1A
100
AcDbEntity
  8
NOKITOI
  6
PHANTOM
 62
     8
100
AcDbLine
 10
186.2224339712344
 20
84.72508696305766
 30
0.0
 11
186.2224339712344
 21
92.12458696305787
 31
0.0
  0
LINE
  5
52D9
330
1A
100
AcDbEntity
  8
NOKITOI
  6
PHANTOM
 62
     8
100
AcDbLine
 10
187.5224339712344
 20
84.42008696305771
 30
0.0
 11
187.5224339712344
 21
92.42968696305769
 31
0.0
  0
LINE
  5
52DA
330
1A
100
AcDbEntity
  8
NOKITOI
  6
PHANTOM
 62
     8
100
AcDbLine
 10
178.9921339712343
 20
82.45718696305772
 30
0.0
 11
181.3012339712342
 21
93.42458696305772
 31
0.0
  0
LINE
  5
52DB
330
1A
100
AcDbEntity
  8
NOKITOI
  6
PHANTOM
 62
     8
100
AcDbLine
 10
182.3560339712342
 20
92.12458696305787
 30
0.0
 11
180.7981339712344
 21
84.72518696305774
 31
0.0
  0
LINE
  5
52DC
330
1A
100
AcDbEntity
  8
SEIHIN
100
AcDbLine
 10
187.5241839712342
 20
81.33638580389527
 30
0.0
 11
187.5241839712342
 21
90.93118696389529
 31
0.0
  0
ARC
  5
52DD
330
1A
100
AcDbEntity
  8
SEIHIN
100
AcDbCircle
 10
176.5871864912342
 20
81.23114730389529
 30
0.0
 40
0.5999603391169003
100
AcDbArc
 50
269.9997593418182
 51
97.26811277064527
  0
LINE
  5
52DE
330
1A
100
AcDbEntity
  8
SEIHIN
100
AcDbLine
 10
183.4344839712342
 20
83.17168696389529
 30
0.0
 11
186.7431183812342
 21
80.9228617638953
 31
0.0
  0
ARC
  5
52DF
330
1A
100
AcDbEntity
  8
SEIHIN
100
AcDbCircle
 10
182.5912758012342
 20
81.93117576389528
 30
0.0
 40
1.500013201217973
100
AcDbArc
 50
61.61017886408406
 51
226.1911119609332
  0
LINE
  5
52E0
330
1A
100
AcDbEntity
  8
SEIHIN
100
AcDbLine
 10
184.3851158612342
 20
76.91519510389531
 30
0.0
 11
181.3782839712342
 21
81.04878696389528
 31
0.0
  0
ARC
  5
52E1
330
1A
100
AcDbEntity
  8
SEIHIN
100
AcDbCircle
 10
187.0241839712342
 20
81.33638580389527
 30
0.0
 40
0.4999999987699835
100
AcDbArc
 50
235.7966882627013
 51
0.0
  0
LINE
  5
52E2
330
1A
100
AcDbEntity
  8
NOKITOI
  6
PHANTOM
 62
     8
100
AcDbLine
 10
180.6792339712342
 20
83.42508696305783
 30
0.0
 11
186.5274339712344
 21
83.42508696305783
 31
0.0
  0
LINE
  5
52E3
330
1A
100
AcDbEntity
  8
NOKITOI
  6
PHANTOM
 62
     8
100
AcDbLine
 10
186.2224339712344
 20
84.72508696305766
 30
0.0
 11
180.7981339712344
 21
84.72518696305774
 31
0.0
  0
ARC
  5
52E4
330
1A
100
AcDbEntity
  8
NOKITOI
  6
PHANTOM
 62
     8
100
AcDbCircle
 10
180.6792524138485
 20
83.22620192649452
 30
0.0
 40
0.1989850374179911
100
AcDbArc
 50
90.00531036897097
 51
168.1136861719431
  0
ARC
  5
52E5
330
1A
100
AcDbEntity
  8
NOKITOI
  6
PHANTOM
 62
     8
100
AcDbCircle
 10
186.5274339712345
 20
84.42008696305776
 30
0.0
 40
0.9949999999999192
100
AcDbArc
 50
269.9999999999951
 51
359.9999999999951
  0
LINE
  5
52E6
330
1A
100
AcDbEntity
  8
SEIHIN
100
AcDbLine
 10
174.4700839712342
 20
99.43118696389531
 30
0.0
 11
185.3741839712342
 21
99.43128696389528
 31
0.0
  0
LINE
  5
52E7
330
1A
100
AcDbEntity
  8
SEIHIN
100
AcDbLine
 10
181.5241839712342
 20
96.93118696369527
 30
0.0
 11
176.6484839712342
 21
96.93118696369527
 31
0.0
  0
ARC
  5
52E8
330
1A
100
AcDbEntity
  8
SEIHIN
100
AcDbCircle
 10
176.6484218112342
 20
91.93115687089528
 30
0.0
 40
5.000030094599926
100
AcDbArc
 50
89.99928770315646
 51
141.6617877220316
  0
LINE
  5
52E9
330
1A
100
AcDbEntity
  8
NOKITOI
  6
PHANTOM
 62
     8
100
AcDbLine
 10
186.2224339712344
 20
92.12458696305787
 30
0.0
 11
182.3560339712342
 21
92.12458696305787
 31
0.0
  0
LINE
  5
52EA
330
1A
100
AcDbEntity
  8
NOKITOI
  6
PHANTOM
 62
     8
100
AcDbLine
 10
186.5274339712344
 20
93.42468696305781
 30
0.0
 11
181.3237339712344
 21
93.42458696305772
 31
0.0
  0
ARC
  5
52EB
330
1A
100
AcDbEntity
  8
NOKITOI
  6
PHANTOM
 62
     8
100
AcDbCircle
 10
186.5274339712344
 20
92.4296869630578
 30
0.0
 40
0.9950000000000613
100
AcDbArc
 50
359.9999999999967
 51
89.99999999999674
  0
LINE
  5
52EC
330
1A
100
AcDbEntity
  8
SEIHIN
100
AcDbLine
 10
192.5241839712342
 20
79.5623035838953
 30
0.0
 11
192.5241839712342
 21
97.93118696369527
 31
0.0
  0
LINE
  5
52ED
330
1A
100
AcDbEntity
  8
SEIHIN
100
AcDbLine
 10
185.3741839712342
 20
105.4312869638952
 30
0.0
 11
171.5654839712342
 21
105.4311869638953
 31
0.0
  0
LINE
  5
52EE
330
1A
100
AcDbEntity
  8
SEIHIN
100
AcDbLine
 10
171.3234839712342
 20
107.9311869638952
 30
0.0
 11
182.5241839712342
 21
107.9311869638952
 31
0.0
  0
ARC
  5
52EF
330
1A
100
AcDbEntity
  8
SEIHIN
100
AcDbCircle
 10
171.5654790812342
 20
102.4311845958952
 30
0.0
 40
3.000002368996017
100
AcDbArc
 50
89.99990660795349
 51
141.6619327633552
  0
ARC
  5
52F0
330
1A
100
AcDbEntity
  8
SEIHIN
100
AcDbCircle
 10
171.3234218112342
 20
102.9311568708952
 30
0.0
 40
5.000030094699926
100
AcDbArc
 50
89.99928770315646
 51
141.6617877220316
  0
ARC
  5
52F1
330
1A
100
AcDbEntity
  8
SEIHIN
100
AcDbCircle
 10
201.6067526312342
 20
123.5812816338952
 30
0.0
 40
1.00000000424709
100
AcDbArc
 50
277.0000142444682
 51
350.7918454836308
  0
LINE
  5
52F2
330
1A
100
AcDbEntity
  8
SEIHIN
100
AcDbLine
 10
216.0427095612341
 20
123.6098982638953
 30
0.0
 11
218.7259914812341
 21
118.2433344318953
 31
0.0
  0
ARC
  5
52F3
330
1A
100
AcDbEntity
  8
SEIHIN
100
AcDbCircle
 10
212.4650011412342
 20
121.8210431958953
 30
0.0
 40
3.999999998305117
100
AcDbArc
 50
26.56506216954025
 51
170.7918456040361
  0
ARC
  5
52F4
330
1A
100
AcDbEntity
  8
SEIHIN
100
AcDbCircle
 10
201.6083533312342
 20
123.5952269938953
 30
0.0
 40
7.000000001095694
100
AcDbArc
 50
277.0000000535576
 51
350.7918456474332
  0
ARC
  5
52F5
330
1A
100
AcDbEntity
  8
SEIHIN
100
AcDbCircle
 10
212.4650011412342
 20
121.8210431958953
 30
0.0
 40
9.999999997159658
100
AcDbArc
 50
52.40698390314768
 51
170.7918456294877
  0
LINE
  5
52F6
330
1A
100
AcDbEntity
  8
SEIHIN
100
AcDbLine
 10
98.95708694123426
 20
223.7829830764973
 30
0.0
 11
77.55418397123429
 21
223.7829830764973
 31
0.0
  0
LINE
  5
52F7
330
1A
100
AcDbEntity
  8
SEIHIN
100
AcDbLine
 10
98.95708694123426
 20
208.7829830364972
 30
0.0
 11
77.55418397123429
 21
208.7829830364972
 31
0.0
  0
DIMENSION
  5
52F8
330
1A
100
AcDbEntity
  8
SUNPOU
100
AcDbDimension
  2
*D6
 10
50.65128019941813
 20
205.2829830364973
 30
0.0
 11
48.15128019941809
 21
216.2829830564973
 31
0.0
 70
    32
  3
STANDARD
100
AcDbAlignedDimension
 13
75.05418397123429
 23
227.2829830764973
 33
0.0
 14
75.05418397123429
 24
205.2829830364972
 34
0.0
 50
90.0
100
AcDbRotatedDimension
1001
ACAD
1000
DSTYLE
1002
{
1070
    41
1040
3.0
1070
    42
1040
3.0
1070
    43
1040
7.0
1070
    44
1040
1.5
1070
    73
1070
     0
1070
    74
1070
     0
1070
    77
1070
     3
1070
   140
1040
3.0
1070
   141
1040
3.0
1070
   147
1040
1.0
1070
   172
1070
     1
1070
   173
1070
     1
1070
   176
1070
   256
1070
   177
1070
   256
1070
   178
1070
   256
1070
   271
1070
     0
1070
   272
1070
     0
1070
   341
1005
B2
1070
     6
1000
OPEN
1070
     7
1000
OPEN
1002
}
  0
LINE
  5
52F9
330
1A
100
AcDbEntity
  8
SEIHIN
100
AcDbLine
 10
77.55418397123429
 20
223.7829830764973
 30
0.0
 11
77.55418397123429
 21
208.7829830364972
 31
0.0
  0
LINE
  5
52FA
330
1A
100
AcDbEntity
  8
SEIHIN
100
AcDbLine
 10
75.05418397123429
 20
205.2829830364972
 30
0.0
 11
75.05418397123429
 21
227.2829830764973
 31
0.0
  0
LINE
  5
52FB
330
1A
100
AcDbEntity
  8
SEIHIN
100
AcDbLine
 10
75.05418397123429
 20
205.2829830364972
 30
0.0
 11
77.55418397123429
 21
205.2829830364972
 31
0.0
  0
LINE
  5
52FC
330
1A
100
AcDbEntity
  8
SEIHIN
100
AcDbLine
 10
77.55418397123429
 20
205.2829830364972
 30
0.0
 11
77.55418397123429
 21
208.7829830364972
 31
0.0
  0
LINE
  5
52FD
330
1A
100
AcDbEntity
  8
SEIHIN
100
AcDbLine
 10
77.55418397123429
 20
223.7829830764973
 30
0.0
 11
77.55418397123429
 21
227.2829830764973
 31
0.0
  0
LINE
  5
52FE
330
1A
100
AcDbEntity
  8
SEIHIN
100
AcDbLine
 10
77.55418397123429
 20
227.2829830764973
 30
0.0
 11
77.55418397123429
 21
223.7829830764973
 31
0.0
  0
LINE
  5
52FF
330
1A
100
AcDbEntity
  8
SEIHIN
100
AcDbLine
 10
75.05418397123429
 20
227.2829830764973
 30
0.0
 11
77.55418397123429
 21
227.2829830764973
 31
0.0
  0
LINE
  5
5300
330
1A
100
AcDbEntity
  8
SEIHIN
100
AcDbLine
 10
123.0844004932342
 20
208.2829830364973
 30
0.0
 11
104.0495540012342
 21
208.2830290364972
 31
0.0
  0
LINE
  5
5301
330
1A
100
AcDbEntity
  8
SEIHIN
100
AcDbLine
 10
104.0495926712342
 20
224.2829830764973
 30
0.0
 11
123.0844004932342
 21
224.2829830764973
 31
0.0
  0
LINE
  5
5302
330
1A
100
AcDbEntity
  8
SEIHIN
100
AcDbLine
 10
103.9036869012342
 20
210.0109093964973
 30
0.0
 11
131.4906835912342
 21
210.0109093964973
 31
0.0
  0
LINE
  5
5303
330
1A
100
AcDbEntity
  8
SEIHIN
100
AcDbLine
 10
106.6932064512342
 20
212.1285390264972
 30
0.0
 11
128.7518935762342
 21
212.1285390264972
 31
0.0
  0
LINE
  5
5304
330
1A
100
AcDbEntity
  8
SEIHIN
100
AcDbLine
 10
103.9036869012342
 20
222.5550566764973
 30
0.0
 11
131.4906835912342
 21
222.5550566764973
 31
0.0
  0
LINE
  5
5305
330
1A
100
AcDbEntity
  8
SEIHIN
100
AcDbLine
 10
106.6932064512342
 20
220.4374270764972
 30
0.0
 11
128.7518935762342
 21
220.4374270764972
 31
0.0
  0
LINE
  5
5306
330
1A
100
AcDbEntity
  8
SEIHIN
100
AcDbLine
 10
122.1868229802342
 20
213.1285390264972
 30
0.0
 11
122.1868229802342
 21
219.4374270464972
 31
0.0
  0
LINE
  5
5307
330
1A
100
AcDbEntity
  8
SEIHIN
100
AcDbLine
 10
106.6932064512342
 20
210.0109093964973
 30
0.0
 11
106.6932064512342
 21
222.5550566764973
 31
0.0
  0
ARC
  5
5308
330
1A
100
AcDbEntity
  8
SEIHIN
100
AcDbCircle
 10
103.9036869012342
 20
216.2829830364973
 30
0.0
 40
3.000000000000011
100
AcDbArc
 50
90.00000515662017
 51
269.9999952253516
  0
LINE
  5
5309
330
1A
100
AcDbEntity
  8
SEIHIN
100
AcDbLine
 10
103.9036869012342
 20
221.5550566764973
 30
0.0
 11
103.9036869012342
 21
211.0109093964973
 31
0.0
  0
LINE
  5
530A
330
1A
100
AcDbEntity
  8
SEIHIN
100
AcDbLine
 10
103.9036869012342
 20
214.3583716964972
 30
0.0
 11
106.6932064512342
 21
214.3583716964972
 31
0.0
  0
LINE
  5
530B
330
1A
100
AcDbEntity
  8
SEIHIN
100
AcDbLine
 10
106.6932064512342
 20
211.0109093964973
 30
0.0
 11
103.9036869012342
 21
211.0109093964973
 31
0.0
  0
ARC
  5
530C
330
1A
100
AcDbEntity
  8
SEIHIN
100
AcDbCircle
 10
103.6173034612342
 20
208.7829830364972
 30
0.0
 40
1.0
100
AcDbArc
 50
90.0
 51
180.0
  0
LINE
  5
530D
330
1A
100
AcDbEntity
  8
SEIHIN
100
AcDbLine
 10
98.08440049123426
 20
208.2829830364973
 30
0.0
 11
102.0493078112342
 21
208.2829830364973
 31
0.0
  0
LINE
  5
530E
330
1A
100
AcDbEntity
  8
SEIHIN
100
AcDbLine
 10
102.0495494312342
 20
208.7829830364972
 30
0.0
 11
98.08440049123426
 21
208.7829830364972
 31
0.0
  0
LINE
  5
530F
330
1A
100
AcDbEntity
  8
SEIHIN
100
AcDbLine
 10
98.08440049123426
 20
208.2829830364973
 30
0.0
 11
98.08440049123426
 21
208.7829830364972
 31
0.0
  0
ARC
  5
5310
330
1A
100
AcDbEntity
  8
SEIHIN
100
AcDbCircle
 10
104.1173034612342
 20
208.2829830364973
 30
0.0
 40
0.5
100
AcDbArc
 50
90.0
 51
180.0
  0
LINE
  5
5311
330
1A
100
AcDbEntity
  8
SEIHIN
100
AcDbLine
 10
103.6173034612342
 20
208.2829830364973
 30
0.0
 11
103.6173034612342
 21
205.2829830364972
 31
0.0
  0
LINE
  5
5312
330
1A
100
AcDbEntity
  8
SEIHIN
100
AcDbLine
 10
102.6173034612342
 20
205.2829830364972
 30
0.0
 11
102.6173034612342
 21
208.7829830364972
 31
0.0
  0
LINE
  5
5313
330
1A
100
AcDbEntity
  8
SEIHIN
100
AcDbLine
 10
103.6173034612342
 20
205.2829830364972
 30
0.0
 11
102.6173034612342
 21
205.2829830364972
 31
0.0
  0
LINE
  5
5314
330
1A
100
AcDbEntity
  8
SEIHIN
100
AcDbLine
 10
104.0495540012342
 20
208.2830290364972
 30
0.0
 11
104.0495552112342
 21
208.7829830364972
 31
0.0
  0
LINE
  5
5315
330
1A
100
AcDbEntity
  8
SEIHIN
100
AcDbLine
 10
102.0495482512342
 20
208.2829830364973
 30
0.0
 11
102.0495494312342
 21
208.7829830364972
 31
0.0
  0
LINE
  5
5316
330
1A
100
AcDbEntity
  8
SEIHIN
100
AcDbLine
 10
103.9036869012342
 20
211.0109093964973
 30
0.0
 11
103.9036869012342
 21
210.0109093964973
 31
0.0
  0
ARC
  5
5317
330
1A
100
AcDbEntity
  8
SEIHIN
100
AcDbCircle
 10
113.0846416212342
 20
212.8013125364972
 30
0.0
 40
5.715337531631893
100
AcDbArc
 50
232.2375418744902
 51
307.7621812247562
  0
LINE
  5
5318
330
1A
100
AcDbEntity
  8
SEIHIN
100
AcDbLine
 10
106.6932064512342
 20
210.0109093964973
 30
0.0
 11
106.6932064512342
 21
211.2109093964972
 31
0.0
  0
LINE
  5
5319
330
1A
100
AcDbEntity
  8
SEIHIN
100
AcDbLine
 10
106.6932064512342
 20
221.5550566764973
 30
0.0
 11
103.9036869012342
 21
221.5550566764973
 31
0.0
  0
LINE
  5
531A
330
1A
100
AcDbEntity
  8
SEIHIN
100
AcDbLine
 10
103.9036869012342
 20
218.2075943764973
 30
0.0
 11
106.6932064512342
 21
218.2075943764973
 31
0.0
  0
LINE
  5
531B
330
1A
100
AcDbEntity
  8
SEIHIN
100
AcDbLine
 10
103.6173034612342
 20
224.2829830764973
 30
0.0
 11
103.6173034612342
 21
227.2829830764973
 31
0.0
  0
LINE
  5
531C
330
1A
100
AcDbEntity
  8
SEIHIN
100
AcDbLine
 10
102.6173034612342
 20
227.2829830764973
 30
0.0
 11
102.6173034612342
 21
223.7829830764973
 31
0.0
  0
LINE
  5
531D
330
1A
100
AcDbEntity
  8
SEIHIN
100
AcDbLine
 10
98.08440049123426
 20
224.2829830764973
 30
0.0
 11
102.0493078112342
 21
224.2829830764973
 31
0.0
  0
LINE
  5
531E
330
1A
100
AcDbEntity
  8
SEIHIN
100
AcDbLine
 10
102.0495848012342
 20
223.7829830764973
 30
0.0
 11
98.08440049123426
 21
223.7829830764973
 31
0.0
  0
LINE
  5
531F
330
1A
100
AcDbEntity
  8
SEIHIN
100
AcDbLine
 10
98.08440049123426
 20
223.7829830764973
 30
0.0
 11
98.08440049123426
 21
224.2829830764973
 31
0.0
  0
LINE
  5
5320
330
1A
100
AcDbEntity
  8
SEIHIN
100
AcDbLine
 10
104.0495914612342
 20
223.7829830764973
 30
0.0
 11
104.0495926712342
 21
224.2829830764973
 31
0.0
  0
LINE
  5
5321
330
1A
100
AcDbEntity
  8
SEIHIN
100
AcDbLine
 10
102.0495848012342
 20
223.7829830764973
 30
0.0
 11
102.0495859812342
 21
224.2829830764973
 31
0.0
  0
LINE
  5
5322
330
1A
100
AcDbEntity
  8
SEIHIN
100
AcDbLine
 10
103.9036869012342
 20
221.5550566764973
 30
0.0
 11
103.9036869012342
 21
222.5550566764973
 31
0.0
  0
ARC
  5
5323
330
1A
100
AcDbEntity
  8
SEIHIN
100
AcDbCircle
 10
104.1173034612342
 20
224.2829830764973
 30
0.0
 40
0.5
100
AcDbArc
 50
180.0
 51
270.0
  0
ARC
  5
5324
330
1A
100
AcDbEntity
  8
SEIHIN
100
AcDbCircle
 10
103.6173034612342
 20
223.7829830764973
 30
0.0
 40
1.0
100
AcDbArc
 50
180.0
 51
270.0
  0
LINE
  5
5325
330
1A
100
AcDbEntity
  8
SEIHIN
100
AcDbLine
 10
103.6173034612342
 20
227.2829830764973
 30
0.0
 11
102.6173034612342
 21
227.2829830764973
 31
0.0
  0
LINE
  5
5326
330
1A
100
AcDbEntity
  8
SEIHIN
100
AcDbLine
 10
116.5846307012342
 20
225.3474214764973
 30
0.0
 11
109.5846307012342
 21
225.3474214764973
 31
0.0
  0
LINE
  5
5327
330
1A
100
AcDbEntity
  8
SEIHIN
100
AcDbLine
 10
109.5846307012342
 20
224.2829830764973
 30
0.0
 11
116.5846307012342
 21
224.2829830764973
 31
0.0
  0
LINE
  5
5328
330
1A
100
AcDbEntity
  8
SEIHIN
100
AcDbLine
 10
106.6932064512342
 20
222.5550566764973
 30
0.0
 11
106.6932064512342
 21
221.3550566764972
 31
0.0
  0
LINE
  5
5329
330
1A
100
AcDbEntity
  8
SEIHIN
100
AcDbLine
 10
109.5846307012342
 20
225.3474214764973
 30
0.0
 11
109.5846307012342
 21
224.2829830764973
 31
0.0
  0
LINE
  5
532A
330
1A
100
AcDbEntity
  8
SEIHIN
100
AcDbLine
 10
116.5846307012342
 20
224.2829830764973
 30
0.0
 11
116.5846307012342
 21
225.3474214764973
 31
0.0
  0
LINE
  5
532B
330
1A
100
AcDbEntity
  8
SEIHIN
100
AcDbLine
 10
130.7518935762342
 20
218.4374270464973
 30
0.0
 11
130.7518935762342
 21
214.1285390264972
 31
0.0
  0
LINE
  5
532C
330
1A
100
AcDbEntity
  8
SEIHIN
100
AcDbLine
 10
133.4906835912342
 20
212.0109093964972
 30
0.0
 11
133.4906835912342
 21
220.5550566764973
 31
0.0
  0
LINE
  5
532D
330
1A
100
AcDbEntity
  8
SEIHIN
100
AcDbLine
 10
132.3431178842342
 20
212.0109093964972
 30
0.0
 11
132.3431178842342
 21
220.5550566764973
 31
0.0
  0
LINE
  5
532E
330
1A
100
AcDbEntity
  8
SEIHIN
100
AcDbLine
 10
127.0287432157342
 20
213.1285390264972
 30
0.0
 11
127.0287432157342
 21
219.4374270464972
 31
0.0
  0
ARC
  5
532F
330
1A
100
AcDbEntity
  8
SEIHIN
100
AcDbCircle
 10
128.7518935762342
 20
214.1285390264972
 30
0.0
 40
2.0
100
AcDbArc
 50
270.0
 51
0.0
  0
ARC
  5
5330
330
1A
100
AcDbEntity
  8
SEIHIN
100
AcDbCircle
 10
130.3431178842342
 20
212.0109093964972
 30
0.0
 40
2.0
100
AcDbArc
 50
270.0
 51
0.0
  0
LINE
  5
5331
330
1A
100
AcDbEntity
  8
SEIHIN
100
AcDbLine
 10
127.6094292970424
 20
209.7829830364972
 30
0.0
 11
127.6094292970424
 21
208.7829830364972
 31
0.0
  0
LINE
  5
5332
330
1A
100
AcDbEntity
  8
SEIHIN
100
AcDbLine
 10
123.0844004932342
 20
208.2829830364973
 30
0.0
 11
123.0844004932342
 21
208.7829830364972
 31
0.0
  0
ARC
  5
5333
330
1A
100
AcDbEntity
  8
SEIHIN
100
AcDbCircle
 10
131.4906835912342
 20
212.0109093964972
 30
0.0
 40
2.0
100
AcDbArc
 50
270.0
 51
0.0
  0
ARC
  5
5334
330
1A
100
AcDbEntity
  8
SEIHIN
100
AcDbCircle
 10
131.4906835912342
 20
212.0109093964972
 30
0.0
 40
2.0
100
AcDbArc
 50
270.0
 51
0.0
  0
ARC
  5
5335
330
1A
100
AcDbEntity
  8
SEIHIN
100
AcDbCircle
 10
130.3431178842342
 20
220.5550566764973
 30
0.0
 40
2.0
100
AcDbArc
 50
0.0
 51
90.0
  0
ARC
  5
5336
330
1A
100
AcDbEntity
  8
SEIHIN
100
AcDbCircle
 10
128.7518935762342
 20
218.4374270464973
 30
0.0
 40
2.000000014999997
100
AcDbArc
 50
0.0
 51
90.0
  0
LINE
  5
5337
330
1A
100
AcDbEntity
  8
SEIHIN
100
AcDbLine
 10
123.0844004932342
 20
223.7829830764973
 30
0.0
 11
123.0844004932342
 21
224.2829830764973
 31
0.0
  0
LINE
  5
5338
330
1A
100
AcDbEntity
  8
SEIHIN
100
AcDbLine
 10
127.6094292970424
 20
223.7829830764973
 30
0.0
 11
127.6094292970424
 21
222.7829830764973
 31
0.0
  0
ARC
  5
5339
330
1A
100
AcDbEntity
  8
SEIHIN
100
AcDbCircle
 10
131.4906835912342
 20
220.5550566764973
 30
0.0
 40
2.0
100
AcDbArc
 50
0.0
 51
90.0
  0
ARC
  5
533A
330
1A
100
AcDbEntity
  8
SEIHIN
100
AcDbCircle
 10
131.4906835912342
 20
220.5550566764973
 30
0.0
 40
2.0
100
AcDbArc
 50
0.0
 51
90.0
  0
ARC
  5
533B
330
1A
100
AcDbEntity
  8
SEIHIN
100
AcDbCircle
 10
214.147440994661
 20
216.2829830069411
 30
0.0
 40
3.25
100
AcDbArc
 50
292.6198649480422
 51
67.38013505195772
  0
ARC
  5
533C
330
1A
100
AcDbEntity
  8
SEIHIN
100
AcDbCircle
 10
206.8401027837117
 20
216.2829830090644
 30
0.0
 40
3.25
100
AcDbArc
 50
112.6198649480422
 51
247.3801350519577
  0
LINE
  5
533D
330
1A
100
AcDbEntity
  8
SEIHIN
100
AcDbLine
 10
202.2370977371665
 20
209.7829830151463
 30
0.0
 11
202.2370977371665
 21
208.7829830151776
 31
0.0
  0
LINE
  5
533E
330
1A
100
AcDbEntity
  8
SEIHIN
100
AcDbLine
 10
205.5901027837117
 20
213.2829830090644
 30
0.0
 11
205.5901027837117
 21
209.7829830090644
 31
0.0
  0
LINE
  5
533F
330
1A
100
AcDbEntity
  8
SEIHIN
100
AcDbLine
 10
218.7949086571575
 20
209.7829830115615
 30
0.0
 11
218.7949086571575
 21
208.7829830115799
 31
0.0
  0
LINE
  5
5340
330
1A
100
AcDbEntity
  8
SEIHIN
100
AcDbLine
 10
215.3974409946613
 20
213.2829830069411
 30
0.0
 11
215.3974409946613
 21
209.7829830069411
 31
0.0
  0
LINE
  5
5341
330
1A
100
AcDbEntity
  8
SEIHIN
100
AcDbLine
 10
202.2370977371665
 20
223.7829830551776
 30
0.0
 11
202.2370977371665
 21
222.7829830551463
 31
0.0
  0
LINE
  5
5342
330
1A
100
AcDbEntity
  8
SEIHIN
100
AcDbLine
 10
205.5901027837117
 20
222.7829830490644
 30
0.0
 11
205.5901027837117
 21
219.2829830090644
 31
0.0
  0
LINE
  5
5343
330
1A
100
AcDbEntity
  8
SEIHIN
100
AcDbLine
 10
215.3974409946613
 20
222.7829830469412
 30
0.0
 11
215.3974409946613
 21
219.2829830069412
 31
0.0
  0
LINE
  5
5344
330
1A
100
AcDbEntity
  8
SEIHIN
100
AcDbLine
 10
218.7949086571575
 20
223.7829830515799
 30
0.0
 11
218.7949086571575
 21
222.7829830515616
 31
0.0
  0
LINE
  5
5345
330
1A
100
AcDbEntity
  8
CENTER_L
100
AcDbLine
 10
347.2272001110224
 20
154.095875457239
 30
0.0
 11
351.7887787877067
 21
144.9727181006827
 31
0.0
  0
LINE
  5
5346
330
1A
100
AcDbEntity
  8
SEIHIN
100
AcDbLine
 10
335.6443679493645
 20
147.0746220039608
 30
0.0
 11
336.9860087493645
 21
144.3913404309608
 31
0.0
  0
LINE
  5
5347
330
1A
100
AcDbEntity
  8
SEIHIN
100
AcDbLine
 10
338.7553987493645
 20
148.6301373809608
 30
0.0
 11
340.0970395493645
 21
145.9468558079608
 31
0.0
  0
LINE
  5
5348
330
1A
100
AcDbEntity
  8
SEIHIN
100
AcDbLine
 10
314.6253290493644
 20
155.5716803149608
 30
0.0
 11
322.2279601493645
 21
140.3664180713608
 31
0.0
  0
LINE
  5
5349
330
1A
100
AcDbEntity
  8
SEIHIN
100
AcDbLine
 10
313.8461805493645
 20
155.1821061049609
 30
0.0
 11
321.4488117493645
 21
139.9768438587609
 31
0.0
  0
CIRCLE
  5
534A
330
1A
100
AcDbEntity
  8
SEIHIN
100
AcDbCircle
 10
305.9046638993645
 20
146.1801948129608
 30
0.0
 40
3.250000001408088
  0
LINE
  5
534B
330
1A
100
AcDbEntity
  8
CENTER_L
100
AcDbLine
 10
303.1095789276413
 20
151.7703647583603
 30
0.0
 11
308.6997488710877
 21
140.5900248675612
 31
0.0
  0
LINE
  5
534C
330
1A
100
AcDbEntity
  8
CENTER_L
100
AcDbLine
 10
300.3144939539649
 20
143.3851098412376
 30
0.0
 11
311.4948338447641
 21
148.975279784684
 31
0.0
  0
LINE
  5
534D
330
1A
100
AcDbEntity
  8
SEIHIN
100
AcDbLine
 10
337.6956017493645
 20
142.9721544369608
 30
0.0
 11
316.6377901493645
 21
185.0877776249608
 31
0.0
  0
LINE
  5
534E
330
1A
100
AcDbEntity
  8
SEIHIN
100
AcDbLine
 10
336.8011745493645
 20
142.5249408419608
 30
0.0
 11
315.7433629493644
 21
184.6405640249608
 31
0.0
  0
DIMENSION
  5
534F
330
1A
100
AcDbEntity
  8
SUNPOU
100
AcDbDimension
  2
*D7
 10
281.4152857298672
 20
143.438794638592
 30
0.0
 11
282.4215163222742
 21
147.0165033983869
 31
0.0
 70
    33
  3
STANDARD
100
AcDbAlignedDimension
 13
293.3826832300851
 23
155.5716803141447
 33
0.0
 14
295.8423580005832
 24
150.6523307714296
 34
0.0
1001
ACAD
1000
DSTYLE
1002
{
1070
    41
1040
3.0
1070
    42
1040
3.0
1070
    43
1040
7.0
1070
    44
1040
1.5
1070
    73
1070
     0
1070
    74
1070
     0
1070
    77
1070
     3
1070
   140
1040
3.0
1070
   141
1040
3.0
1070
   147
1040
1.0
1070
   172
1070
     1
1070
   173
1070
     1
1070
   176
1070
   256
1070
   177
1070
   256
1070
   178
1070
   256
1070
   271
1070
     0
1070
   272
1070
     0
1070
   341
1005
B2
1070
     6
1000
OPEN
1070
     7
1000
OPEN
1002
}
  0
LINE
  5
5350
330
1A
100
AcDbEntity
  8
SEIHIN
100
AcDbLine
 10
294.2771104193645
 20
153.7828259349609
 30
0.0
 11
308.5879454693645
 21
125.1611558249608
 31
0.0
  0
LINE
  5
5351
330
1A
100
AcDbEntity
  8
SEIHIN
100
AcDbLine
 10
311.2712270393645
 20
124.2667286349608
 30
0.0
 11
355.0981593782545
 21
146.1801947704059
 31
0.0
  0
LINE
  5
5352
330
1A
100
AcDbEntity
  8
SEIHIN
100
AcDbLine
 10
324.2791939493645
 20
136.2639505049608
 30
0.0
 11
303.2213823293645
 21
178.3795736849608
 31
0.0
  0
LINE
  5
5353
330
1A
100
AcDbEntity
  8
SEIHIN
100
AcDbLine
 10
325.1736211493645
 20
136.7111640999609
 30
0.0
 11
304.1158095193645
 21
178.8267872849609
 31
0.0
  0
LINE
  5
5354
330
1A
100
AcDbEntity
  8
CENTER_L
100
AcDbLine
 10
307.6998777692239
 20
186.1930926661398
 30
0.0
 11
336.315188403025
 21
128.9624713785418
 31
0.0
  0
DIMENSION
  5
5355
330
1A
100
AcDbEntity
  8
SUNPOU
100
AcDbDimension
  2
*D8
 10
286.6618191495811
 20
111.9620246954435
 30
0.0
 11
280.848042413
 21
129.1797481179802
 31
0.0
 70
    33
  3
STANDARD
100
AcDbAlignedDimension
 13
293.3826832300851
 23
155.5716803141447
 33
0.0
 14
309.4823726585594
 24
123.372301445946
 34
0.0
1001
ACAD
1000
DSTYLE
1002
{
1070
    41
1040
3.0
1070
    42
1040
3.0
1070
    43
1040
7.0
1070
    44
1040
1.5
1070
    73
1070
     0
1070
    74
1070
     0
1070
    77
1070
     3
1070
   140
1040
3.0
1070
   141
1040
3.0
1070
   147
1040
1.0
1070
   172
1070
     1
1070
   173
1070
     1
1070
   176
1070
   256
1070
   177
1070
   256
1070
   178
1070
   256
1070
   271
1070
     0
1070
   272
1070
     0
1070
   341
1005
B2
1070
     6
1000
OPEN
1070
     7
1000
OPEN
1002
}
  0
LINE
  5
5356
330
1A
100
AcDbEntity
  8
SEIHIN
100
AcDbLine
 10
222.5720284012342
 20
120.1663528928953
 30
0.0
 11
238.6717178412341
 21
87.96697401389531
 31
0.0
  0
LINE
  5
5357
330
1A
100
AcDbEntity
  8
SEIHIN
100
AcDbLine
 10
223.6453410312341
 20
120.7030092068953
 30
0.0
 11
239.7450304712342
 21
88.50363033389532
 31
0.0
  0
LINE
  5
5358
330
1A
100
AcDbEntity
  8
SEIHIN
  6
DASHED
 62
     2
100
AcDbLine
 10
248.7523682912341
 20
85.50729924389532
 30
0.0
 11
232.6526788512342
 21
117.7066781178953
 31
0.0
  0
LINE
  5
5359
330
1A
100
AcDbEntity
  8
SEIHIN
  6
DASHED
 62
     2
100
AcDbLine
 10
237.5720284012341
 20
120.1663528928953
 30
0.0
 11
253.6717178412343
 21
87.96697401389531
 31
0.0
  0
LINE
  5
535A
330
1A
100
AcDbEntity
  8
SEIHIN
  6
DASHED
 62
     2
100
AcDbLine
 10
238.6453410312341
 20
120.7030092068953
 30
0.0
 11
254.7450304712342
 21
88.50363033389532
 31
0.0
  0
LINE
  5
535B
330
1A
100
AcDbEntity
  8
SUNPOU
100
AcDbLine
 10
254.0297973840794
 20
59.93409651619017
 30
0.0
 11
249.0297973840795
 21
59.93409651619017
 31
0.0
  0
LINE
  5
535C
330
1A
100
AcDbEntity
  8
SUNPOU
100
AcDbLine
 10
239.7450304712342
 20
88.50363033389532
 30
0.0
 11
254.0297973840794
 21
59.93409651619017
 31
0.0
  0
LINE
  5
535D
330
1A
100
AcDbEntity
  8
SEIHIN
  6
DASHED
 62
     2
100
AcDbLine
 10
254.7450304712342
 20
88.50363033389532
 30
0.0
 11
248.7523682912341
 21
85.50729924389532
 31
0.0
  0
LINE
  5
535E
330
1A
100
AcDbEntity
  8
CENTER_L
100
AcDbLine
 10
244.9366906364006
 20
89.78455258337124
 30
0.0
 11
258.5319839420578
 21
96.58219923382468
 31
0.0
  0
TEXT
  5
535F
330
1A
100
AcDbEntity
  8
SUNPOU
100
AcDbText
 10
243.9369635799457
 20
62.36400034679583
 30
0.0
 40
3.0
  1
10
100
AcDbText
  0
LINE
  5
5360
330
1A
100
AcDbEntity
  8
SUNPOU
100
AcDbLine
 10
249.0297973840795
 20
59.93409651619017
 30
0.0
 11
249.0297973840795
 21
69.93409651619017
 31
0.0
  0
TEXT
  5
5361
330
1A
100
AcDbEntity
  8
SUNPOU
100
AcDbText
 10
250.0358740364722
 20
54.85069973579256
 30
0.0
 40
3.0
  1
5
100
AcDbText
  0
LINE
  5
5362
330
1A
100
AcDbEntity
  8
SEIHIN
100
AcDbLine
 10
239.7450304712342
 20
88.50363033389532
 30
0.0
 11
233.7523682912341
 21
85.50729924389532
 31
0.0
  0
LINE
  5
5363
330
1A
100
AcDbEntity
  8
CENTER_L
100
AcDbLine
 10
229.9366906364006
 20
89.78455258337124
 30
0.0
 11
243.5319839420578
 21
96.58219923382468
 31
0.0
  0
LINE
  5
5364
330
1A
100
AcDbEntity
  8
SEIHIN
100
AcDbLine
 10
232.4107274667768
 20
93.78075083275508
 30
0.0
 11
236.4356498270424
 21
92.43911004455656
 31
0.0
  0
LINE
  5
5365
330
1A
100
AcDbEntity
  8
SEIHIN
100
AcDbLine
 10
232.4107274667768
 20
93.78075083275509
 30
0.0
 11
235.0940090406092
 21
95.12239161758964
 31
0.0
  0
LINE
  5
5366
330
1A
100
AcDbEntity
  8
SEIHIN
100
AcDbLine
 10
233.752368254176
 20
97.80567319062273
 30
0.0
 11
232.4107274667768
 21
93.78075083275508
 31
0.0
  0
LINE
  5
5367
330
1A
100
AcDbEntity
  8
SEIHIN
  6
DASHED
 62
     2
100
AcDbLine
 10
231.0427095612341
 20
123.6098982638953
 30
0.0
 11
233.7259914812341
 21
118.2433344318953
 31
0.0
  0
LINE
  5
5368
330
1A
100
AcDbEntity
  8
SEIHIN
  6
DASHED
 62
     2
100
AcDbLine
 10
233.5654869946694
 20
129.7446832871178
 30
0.0
 11
238.1981274312342
 21
120.4794024098953
 31
0.0
  0
ARC
  5
5369
330
1A
100
AcDbEntity
  8
SEIHIN
  6
DASHED
 62
     2
100
AcDbCircle
 10
227.4650011412342
 20
121.8210431958953
 30
0.0
 40
3.999999998305123
100
AcDbArc
 50
26.56506216954025
 51
170.7918456040361
  0
LINE
  5
536A
330
1A
100
AcDbEntity
  8
SEIHIN
  6
DASHED
 62
     2
100
AcDbLine
 10
232.6526788512342
 20
117.7066781178953
 30
0.0
 11
238.6453410312341
 21
120.7030092068953
 31
0.0
  0
LINE
  5
536B
330
1A
100
AcDbEntity
  8
CENTER_L
100
AcDbLine
 10
233.7563507449562
 20
112.1452323676489
 30
0.0
 11
247.3516440483911
 21
118.9428790169912
 31
0.0
  0
LINE
  5
536C
330
1A
100
AcDbEntity
  8
SEIHIN
100
AcDbLine
 10
223.4664555602213
 20
111.6692946469772
 30
0.0
 11
227.4913779204869
 21
110.3276538587787
 31
0.0
  0
LINE
  5
536D
330
1A
100
AcDbEntity
  8
CENTER_L
100
AcDbLine
 10
222.5576663074736
 20
104.542601242142
 30
0.0
 11
236.152959611664
 21
111.3402478918621
 31
0.0
  0
LINE
  5
536E
330
1A
100
AcDbEntity
  8
SEIHIN
100
AcDbLine
 10
223.4664555602213
 20
111.6692946469772
 30
0.0
 11
226.1497371340537
 21
113.0109354318118
 31
0.0
  0
LINE
  5
536F
330
1A
100
AcDbEntity
  8
SEIHIN
100
AcDbLine
 10
224.8080963476204
 20
115.6942170048449
 30
0.0
 11
223.4664555602213
 21
111.6692946469772
 31
0.0
  0
LINE
  5
5370
330
1A
100
AcDbEntity
  8
CENTER_L
100
AcDbLine
 10
237.5576663074736
 20
104.542601242142
 30
0.0
 11
251.152959611664
 21
111.3402478918621
 31
0.0
  0
LINE
  5
5371
330
1A
100
AcDbEntity
  8
SEIHIN
100
AcDbLine
 10
319.1169293493645
 20
138.8109026939608
 30
0.0
 11
322.2279601493645
 21
140.3664180713608
 31
0.0
  0
LINE
  5
5372
330
1A
100
AcDbEntity
  8
SEIHIN
100
AcDbLine
 10
319.1169293493645
 20
138.8109026939608
 30
0.0
 11
320.4585701493645
 21
136.1276211209609
 31
0.0
  0
DIMENSION
  5
5373
330
1A
100
AcDbEntity
  8
SUNPOU
100
AcDbDimension
  2
*D9
 10
295.0553003878432
 20
116.1587653131082
 30
0.0
 11
296.0615309809486
 21
119.7364740715061
 31
0.0
 70
    33
  3
STANDARD
100
AcDbAlignedDimension
 13
307.0226978894582
 23
128.2916509858671
 33
0.0
 14
309.4823726585594
 24
123.372301445946
 34
0.0
1001
ACAD
1000
DSTYLE
1002
{
1070
    41
1040
3.0
1070
    42
1040
3.0
1070
    43
1040
7.0
1070
    44
1040
1.5
1070
    73
1070
     0
1070
    74
1070
     0
1070
    77
1070
     3
1070
   140
1040
3.0
1070
   141
1040
3.0
1070
   147
1040
1.0
1070
   172
1070
     1
1070
   173
1070
     1
1070
   176
1070
   256
1070
   177
1070
   256
1070
   178
1070
   256
1070
   271
1070
     0
1070
   272
1070
     0
1070
   341
1005
B2
1070
     6
1000
OPEN
1070
     7
1000
OPEN
1002
}
  0
LINE
  5
5374
330
1A
100
AcDbEntity
  8
CENTER_L
100
AcDbLine
 10
309.6612581110223
 20
135.312904443239
 30
0.0
 11
314.2228367877066
 21
126.1897470866827
 31
0.0
  0
CIRCLE
  5
5375
330
1A
100
AcDbEntity
  8
SEIHIN
100
AcDbCircle
 10
311.9420474493645
 20
130.7513257649608
 30
0.0
 40
2.099999995980733
  0
ARC
  5
5376
330
1A
100
AcDbEntity
  8
SEIHIN
100
AcDbCircle
 10
310.3767998493645
 20
126.0555830149609
 30
0.0
 40
1.999999997764122
100
AcDbArc
 50
206.5650511770767
 51
296.5650511770767
  0
LINE
  5
5377
330
1A
100
AcDbEntity
  8
CENTER_L
100
AcDbLine
 10
307.3804687710863
 20
128.4705364266187
 30
0.0
 11
316.5036261276426
 21
133.032115103303
 31
0.0
  0
LINE
  5
5378
330
1A
100
AcDbEntity
  8
SEIHIN
100
AcDbLine
 10
335.9067474493645
 20
139.8416592689608
 30
0.0
 11
327.8569026493645
 21
135.8167369089608
 31
0.0
  0
LINE
  5
5379
330
1A
100
AcDbEntity
  8
SEIHIN
100
AcDbLine
 10
322.7904524493645
 20
137.2935622859609
 30
0.0
 11
325.6973408493645
 21
131.4797855439608
 31
0.0
  0
LINE
  5
537A
330
1A
100
AcDbEntity
  8
SEIHIN
100
AcDbLine
 10
323.5696009493645
 20
137.6831364979608
 30
0.0
 11
326.4764892493645
 21
131.8693597569608
 31
0.0
  0
ARC
  5
537B
330
1A
100
AcDbEntity
  8
SEIHIN
100
AcDbCircle
 10
326.9624754493645
 20
137.6055912909608
 30
0.0
 40
1.999999965341132
100
AcDbArc
 50
206.5650522276384
 51
296.5650514076882
  0
LINE
  5
537C
330
1A
100
AcDbEntity
  8
SEIHIN
100
AcDbLine
 10
322.2279601493645
 20
140.3664180713608
 30
0.0
 11
323.5696009493645
 21
137.6831364979608
 31
0.0
  0
LINE
  5
537D
330
1A
100
AcDbEntity
  8
SEIHIN
100
AcDbLine
 10
320.4585701493645
 20
136.1276211209609
 30
0.0
 11
324.4640281493645
 21
138.1303500939608
 31
0.0
  0
ARC
  5
537E
330
1A
100
AcDbEntity
  8
SEIHIN
100
AcDbCircle
 10
335.0123202493644
 20
141.6305136505608
 30
0.0
 40
1.999999965251689
100
AcDbArc
 50
296.5650514128148
 51
26.56505223788815
  0
LINE
  5
537F
330
1A
100
AcDbEntity
  8
SEIHIN
100
AcDbLine
 10
337.7651572493645
 20
144.7809146439609
 30
0.0
 11
340.6720455493644
 21
138.9671379019608
 31
0.0
  0
LINE
  5
5380
330
1A
100
AcDbEntity
  8
SEIHIN
100
AcDbLine
 10
336.9860087493645
 20
144.3913404309608
 30
0.0
 11
339.8928971493645
 21
138.5775636889608
 31
0.0
  0
LINE
  5
5381
330
1A
100
AcDbEntity
  8
SEIHIN
100
AcDbLine
 10
340.0970395493645
 20
145.9468558079608
 30
0.0
 11
336.0915815493645
 21
143.9441268349609
 31
0.0
  0
ELLIPSE
  5
5382
330
1A
100
AcDbEntity
  8
SEIHIN
100
AcDbEllipse
 10
226.0906537109542
 20
237.2829830284008
 30
0.0
 11
0.0000000000000584
 21
2.100000000067211
 31
0.0
210
0.0
220
0.0
230
-1.0
 40
0.4867014234079722
 41
3.141592653589749
 42
6.283185307179543
  0
ELLIPSE
  5
5383
330
1A
100
AcDbEntity
  8
SEIHIN
100
AcDbEllipse
 10
226.0906537109542
 20
237.2829830284008
 30
0.0
 11
0.0
 21
-2.100000000067211
 31
0.0
210
0.0
220
0.0
230
-1.0
 40
0.4867014234079722
 41
3.141592653589807
 42
6.283185307179601
  0
ELLIPSE
  5
5384
330
1A
100
AcDbEntity
  8
SEIHIN
100
AcDbEllipse
 10
226.0906537109542
 20
237.2829830284008
 30
0.0
 11
0.0
 21
-2.1000000000672
 31
0.0
210
0.0
220
0.0
230
-1.0
 40
0.4867014234079679
 41
-1.570796326794896
 42
4.712388980384689
  0
ELLIPSE
  5
5385
330
1A
100
AcDbEntity
  8
SEIHIN
100
AcDbEllipse
 10
229.8919692742271
 20
235.7829830284007
 30
0.0
 11
0.0
 21
-2.874999999613672
 31
0.0
210
0.0
220
0.0
230
-1.0
 40
0.3913043478762229
 41
-1.570796326794896
 42
4.712388980384689
  0
ELLIPSE
  5
5386
330
1A
100
AcDbEntity
  8
SEIHIN
100
AcDbEllipse
 10
233.4464702319341
 20
216.2829830284008
 30
0.0
 11
0.0
 21
-2.8559114857152
 31
0.0
210
0.0
220
0.0
230
-1.0
 40
0.4680467910551545
 41
-1.570796326794896
 42
4.712388980384689
  0
ELLIPSE
  5
5387
330
1A
100
AcDbEntity
  8
SEIHIN
100
AcDbEllipse
 10
237.2709936046208
 20
237.2829830284008
 30
0.0
 11
0.0
 21
-2.1000000000672
 31
0.0
210
0.0
220
0.0
230
-1.0
 40
0.4867014234079679
 41
-1.570796326794896
 42
4.712388980384689
  0
ELLIPSE
  5
5388
330
1A
100
AcDbEntity
  8
SEIHIN
100
AcDbEllipse
 10
224.5397682243674
 20
240.7829830284007
 30
0.0
 11
0.0000000000000022
 21
2.0
 31
0.0
210
0.0
220
0.0
230
1.0
 40
0.4472135955666233
 41
-0.0000000013028634
 42
1.570796326794896
  0
ELLIPSE
  5
5389
330
1A
100
AcDbEntity
  8
SEIHIN
100
AcDbEllipse
 10
238.8506032801506
 20
240.7829830284007
 30
0.0
 11
0.0000000000000207
 21
2.0
 31
0.0
210
0.0
220
0.0
230
1.0
 40
0.4472135955417542
 41
-1.570796326794891
 42
0.0000000000000233
  0
ELLIPSE
  5
538A
330
1A
100
AcDbEntity
  8
SEIHIN
100
AcDbEllipse
 10
223.4664555943674
 20
240.7829830284007
 30
0.0
 11
0.0000000000000022
 21
2.0
 31
0.0
210
0.0
220
0.0
230
1.0
 40
0.4472135955666233
 41
-0.0000000013028634
 42
1.570796326794896
  0
ELLIPSE
  5
538B
330
1A
100
AcDbEntity
  8
SEIHIN
100
AcDbEllipse
 10
237.2709936046208
 20
195.2829830284007
 30
0.0
 11
0.0
 21
2.1000000000672
 31
0.0
210
0.0
220
0.0
230
1.0
 40
0.4867014234079679
 41
-1.570796326794896
 42
4.712388980384689
  0
ELLIPSE
  5
538C
330
1A
100
AcDbEntity
  8
SEIHIN
100
AcDbEllipse
 10
229.8919692742271
 20
196.7829830284007
 30
0.0
 11
0.0
 21
2.874999999613672
 31
0.0
210
0.0
220
0.0
230
1.0
 40
0.3913043478762229
 41
-1.570796326794896
 42
4.712388980384689
  0
ELLIPSE
  5
538D
330
1A
100
AcDbEntity
  8
SEIHIN
100
AcDbEllipse
 10
226.0906537109542
 20
195.2829830284007
 30
0.0
 11
0.0000000000000584
 21
-2.100000000067211
 31
0.0
210
0.0
220
0.0
230
1.0
 40
0.4867014234079722
 41
3.14159265358975
 42
6.283185307179543
  0
ELLIPSE
  5
538E
330
1A
100
AcDbEntity
  8
SEIHIN
100
AcDbEllipse
 10
226.0906537109542
 20
195.2829830284007
 30
0.0
 11
0.0
 21
2.100000000067211
 31
0.0
210
0.0
220
0.0
230
1.0
 40
0.4867014234079722
 41
3.141592653589807
 42
6.2831853071796
  0
ELLIPSE
  5
538F
330
1A
100
AcDbEntity
  8
SEIHIN
100
AcDbEllipse
 10
226.0906537109542
 20
195.2829830284007
 30
0.0
 11
0.0
 21
2.1000000000672
 31
0.0
210
0.0
220
0.0
230
1.0
 40
0.4867014234079679
 41
-1.570796326794896
 42
4.712388980384689
  0
ELLIPSE
  5
5390
330
1A
100
AcDbEntity
  8
SEIHIN
100
AcDbEllipse
 10
223.4664555943674
 20
191.7829830284007
 30
0.0
 11
-0.0000000000000022
 21
2.0
 31
0.0
210
0.0
220
0.0
230
-1.0
 40
0.4472135955666233
 41
3.141592652286928
 42
4.71238898038469
  0
ELLIPSE
  5
5391
330
1A
100
AcDbEntity
  8
SEIHIN
100
AcDbEllipse
 10
224.5397682243674
 20
191.7829830284007
 30
0.0
 11
-0.0000000000000022
 21
2.0
 31
0.0
210
0.0
220
0.0
230
-1.0
 40
0.4472135955666233
 41
3.141592652286928
 42
4.71238898038469
  0
ELLIPSE
  5
5392
330
1A
100
AcDbEntity
  8
SEIHIN
100
AcDbEllipse
 10
238.8506032801506
 20
191.7829830284007
 30
0.0
 11
-0.0000000000000207
 21
2.0
 31
0.0
210
0.0
220
0.0
230
-1.0
 40
0.4472135955417542
 41
1.5707963267949
 42
3.141592653589816
  0
SPLINE
  5
5393
330
1A
100
AcDbEntity
  8
SEIHIN
100
AcDbSpline
210
0.0
220
0.0
230
1.0
 70
     8
 71
     3
 72
    43
 73
    39
 74
     0
 42
0.0000000001
 43
0.0000000001
 40
2.573801282421739
 40
2.573801282421739
 40
2.573801282421739
 40
2.573801282421739
 40
2.743484381278567
 40
2.743484381278567
 40
2.952958003969503
 40
2.952958003969503
 40
3.162431626660439
 40
3.162431626660439
 40
3.371905249351375
 40
3.371905249351375
 40
3.581378872042312
 40
3.581378872042312
 40
3.790852494733248
 40
3.790852494733248
 40
4.212890898554042
 40
4.212890898554042
 40
4.634929302374836
 40
4.634929302374836
 40
4.712388980384689
 40
4.712388980384689
 40
4.712388980384689
 40
5.035006403854932
 40
5.035006403854932
 40
5.40458618261824
 40
5.40458618261824
 40
5.774165961381548
 40
5.774165961381548
 40
6.00394318856648
 40
6.00394318856648
 40
6.233720415751411
 40
6.233720415751411
 40
6.426033209648384
 40
6.426033209648384
 40
6.618346003545356
 40
6.618346003545356
 40
6.810658797442329
 40
6.810658797442329
 40
6.85074050005261
 40
6.85074050005261
 40
6.85074050005261
 40
6.85074050005261
 10
231.9210099439838
 20
219.2829830384007
 30
0.0
 10
232.0199607782506
 20
219.4178866463774
 30
0.0
 10
232.1316721585968
 20
219.5441650672609
 30
0.0
 10
232.4181849564
 20
219.8016121653906
 30
0.0
 10
232.6037201573368
 20
219.9267158588814
 30
0.0
 10
233.0325741666662
 20
220.101634479919
 30
0.0
 10
233.2766902849173
 20
220.1480659437718
 30
0.0
 10
233.7609283290053
 20
220.1265029617668
 30
0.0
 10
233.9961600409502
 20
220.0594407717586
 30
0.0
 10
234.4028707447475
 20
219.8556946306239
 30
0.0
 10
234.5761666170558
 20
219.7215245601156
 30
0.0
 10
234.8728977833023
 20
219.4232258211704
 30
0.0
 10
234.9974766166644
 20
219.2583743903376
 30
0.0
 10
235.3241029663183
 20
218.7286804822651
 30
0.0
 10
235.4788369371613
 20
218.3287730689797
 30
0.0
 10
235.6986785463893
 20
217.4679662413163
 30
0.0
 10
235.7615500916556
 20
217.0069570746513
 30
0.0
 10
235.7816146667516
 20
216.4546314396904
 30
0.0
 10
235.7831704383607
 20
216.3688072743464
 30
0.0
 10
235.7831704383607
 20
216.2829830284008
 30
0.0
 10
235.7831704383607
 20
215.925527410076
 30
0.0
 10
235.7562066893075
 20
215.5681724686512
 30
0.0
 10
235.6403057065986
 20
214.827432758851
 30
0.0
 10
235.5434863884279
 20
214.4481909070743
 30
0.0
 10
235.2721105637648
 20
213.7488191010204
 30
0.0
 10
235.0994640967769
 20
213.4272010795093
 30
0.0
 10
234.7177246658243
 20
212.9720370489383
 30
0.0
 10
234.5455047516065
 20
212.8125451295256
 30
0.0
 10
234.1290682614045
 20
212.5574285804876
 30
0.0
 10
233.8813309495173
 20
212.4639911946017
 30
0.0
 10
233.3971381042665
 20
212.4127781535432
 30
0.0
 10
233.1693503580076
 20
212.4366909394312
 30
0.0
 10
232.7555235261696
 20
212.5638570504555
 30
0.0
 10
232.5700195447212
 20
212.6645127823267
 30
0.0
 10
232.2495898212053
 20
212.9029634886558
 30
0.0
 10
232.1132100408498
 20
213.0406461872558
 30
0.0
 10
231.9692679992688
 20
213.2197955691057
 30
0.0
 10
231.9451547479105
 20
213.2511626413867
 30
0.0
 10
231.9217236293933
 20
213.2829830384007
 30
0.0
  0
LINE
  5
5394
330
1A
100
AcDbEntity
  8
CENTER_L
100
AcDbLine
 10
344.9464107710864
 20
147.2535074406187
 30
0.0
 11
354.0695681276426
 21
151.815086117303
 31
0.0
  0
LWPOLYLINE
  5
5395
330
1A
100
AcDbEntity
  8
SUNPOU
100
AcDbPolyline
 90
        3
 70
     0
 43
0.0
 10
342.6236263925078
 20
169.5484431783097
 10
353.7341616560954
 20
203.1565748649173
 10
369.5836114965997
 20
203.1565748649173
1001
ACAD
1000
DSTYLE
1002
{
1070
    41
1040
3.0
1070
    42
1040
3.0
1070
    43
1040
7.0
1070
    44
1040
1.5
1070
    73
1070
     0
1070
    74
1070
     0
1070
    77
1070
     0
1070
   140
1040
3.0
1070
   141
1040
3.0
1070
   147
1040
1.0
1070
   172
1070
     1
1070
   173
1070
     1
1070
   176
1070
   256
1070
   177
1070
   256
1070
   178
1070
   256
1070
   271
1070
     0
1070
   272
1070
     0
1070
   341
1005
B2
1070
   343
1005
B2
1070
   344
1005
B2
1002
}
  0
LINE
  5
5396
330
1A
100
AcDbEntity
  8
SEIHIN
100
AcDbLine
 10
341.6817515493645
 20
177.4851464949608
 30
0.0
 11
355.9925865717271
 21
148.8634763412357
 31
0.0
  0
DIMENSION
  5
5397
330
1A
100
AcDbEntity
  8
SUNPOU
100
AcDbDimension
  2
*D10
 10
358.2354402310611
 20
172.3455829534134
 30
0.0
 11
357.3410130491121
 21
179.7246072849044
 31
0.0
 70
    33
  3
STANDARD
100
AcDbAlignedDimension
 13
340.7873243551483
 23
179.2740008902057
 33
0.0
 14
347.048314677452
 24
166.7520201979108
 34
0.0
1001
ACAD
1000
DSTYLE
1002
{
1070
    41
1040
3.0
1070
    42
1040
3.0
1070
    43
1040
7.0
1070
    44
1040
1.5
1070
    73
1070
     0
1070
    74
1070
     0
1070
    77
1070
     3
1070
   140
1040
3.0
1070
   141
1040
3.0
1070
   147
1040
1.0
1070
   172
1070
     1
1070
   173
1070
     1
1070
   176
1070
   256
1070
   177
1070
   256
1070
   178
1070
   256
1070
   271
1070
     0
1070
   272
1070
     0
1070
   341
1005
B2
1070
     6
1000
OPEN
1070
     7
1000
OPEN
1002
}
  0
LINE
  5
5398
330
1A
100
AcDbEntity
  8
SEIHIN
100
AcDbLine
 10
239.7450304712342
 20
226.1060349484008
 30
0.0
 11
239.7450304712342
 21
240.7829830284007
 31
0.0
  0
ARC
  5
5399
330
1A
100
AcDbEntity
  8
SEIHIN
100
AcDbCircle
 10
232.5296205342208
 20
237.2829830284008
 30
0.0
 40
5.185616510378905
100
AcDbArc
 50
336.1109838283912
 51
23.88901617160872
  0
LINE
  5
539A
330
1A
100
AcDbEntity
  8
SEIHIN
100
AcDbLine
 10
223.6453410332342
 20
226.1060346184007
 30
0.0
 11
223.6453410332341
 21
240.7829830284007
 31
0.0
  0
ARC
  5
539B
330
1A
100
AcDbEntity
  8
SEIHIN
100
AcDbCircle
 10
221.3492806399542
 20
237.2829830284008
 30
0.0
 40
5.185616510927503
100
AcDbArc
 50
336.1109838310729
 51
23.88901616892705
  0
LINE
  5
539C
330
1A
100
AcDbEntity
  8
SEIHIN
100
AcDbLine
 10
222.5720284032341
 20
240.7829830284007
 30
0.0
 11
222.5720284032342
 21
225.4843228484007
 31
0.0
  0
DIMENSION
  5
539D
330
1A
100
AcDbEntity
  8
SUNPOU
100
AcDbDimension
  2
*D11
 10
256.6746596576726
 20
189.7829830284008
 30
0.0
 11
254.1746596576726
 21
216.2829830284008
 31
0.0
 70
    32
  3
STANDARD
100
AcDbAlignedDimension
 13
238.8506032801506
 23
242.7829830284007
 33
0.0
 14
238.8506032801506
 24
189.7829830284008
 34
0.0
 50
90.0
100
AcDbRotatedDimension
1001
ACAD
1000
DSTYLE
1002
{
1070
    41
1040
3.0
1070
    42
1040
3.0
1070
    43
1040
7.0
1070
    44
1040
1.5
1070
    73
1070
     0
1070
    74
1070
     0
1070
    77
1070
     3
1070
   140
1040
3.0
1070
   141
1040
3.0
1070
   147
1040
1.0
1070
   172
1070
     1
1070
   173
1070
     1
1070
   176
1070
   256
1070
   177
1070
   256
1070
   178
1070
   256
1070
   271
1070
     0
1070
   272
1070
     0
1070
   341
1005
B2
1070
     6
1000
OPEN
1070
     7
1000
OPEN
1002
}
  0
DIMENSION
  5
539E
330
1A
100
AcDbEntity
  8
SUNPOU
100
AcDbDimension
  2
*D12
 10
320.7777037847203
 20
206.9948680670815
 30
0.0
 11
300.8766987953037
 21
199.8394505372479
 31
0.0
 70
    33
  3
STANDARD
100
AcDbAlignedDimension
 13
298.4809182110224
 23
157.673584223239
 33
0.0
 14
336.0468602110224
 24
176.456555237239
 34
0.0
1001
ACAD
1000
DSTYLE
1002
{
1070
    41
1040
3.0
1070
    42
1040
3.0
1070
    43
1040
7.0
1070
    44
1040
1.5
1070
    73
1070
     0
1070
    74
1070
     0
1070
    77
1070
     3
1070
   140
1040
3.0
1070
   141
1040
3.0
1070
   147
1040
1.0
1070
   172
1070
     1
1070
   173
1070
     1
1070
   176
1070
   256
1070
   177
1070
   256
1070
   178
1070
   256
1070
   271
1070
     0
1070
   272
1070
     0
1070
   341
1005
B2
1070
     6
1000
OPEN
1070
     7
1000
OPEN
1002
}
  0
LWPOLYLINE
  5
539F
330
1A
100
AcDbEntity
  8
SUNPOU
100
AcDbPolyline
 90
        3
 70
     0
 43
0.0
 10
296.4092186618498
 20
155.1270500399392
 10
274.9940425870883
 20
173.5763887352644
 10
257.4122559501797
 20
173.5763887352644
1001
ACAD
1000
DSTYLE
1002
{
1070
    41
1040
3.0
1070
    42
1040
3.0
1070
    43
1040
7.0
1070
    44
1040
1.5
1070
    73
1070
     0
1070
    74
1070
     0
1070
    77
1070
     0
1070
   140
1040
3.0
1070
   141
1040
3.0
1070
   147
1040
1.0
1070
   172
1070
     1
1070
   173
1070
     1
1070
   176
1070
   256
1070
   177
1070
   256
1070
   178
1070
   256
1070
   271
1070
     0
1070
   272
1070
     0
1070
   341
1005
B2
1070
   343
1005
B2
1070
   344
1005
B2
1002
}
  0
DIMENSION
  5
53A0
330
1A
100
AcDbEntity
  8
SUNPOU
100
AcDbDimension
  2
*D13
 10
321.7715572346057
 20
217.3055351095824
 30
0.0
 11
296.9512026828136
 21
207.6904427987963
 31
0.0
 70
    33
  3
STANDARD
100
AcDbAlignedDimension
 13
293.3826832300851
 23
155.5716803141447
 33
0.0
 14
340.7873243551483
 24
179.2740008902057
 34
0.0
1001
ACAD
1000
DSTYLE
1002
{
1070
    41
1040
3.0
1070
    42
1040
3.0
1070
    43
1040
7.0
1070
    44
1040
1.5
1070
    73
1070
     0
1070
    74
1070
     0
1070
    77
1070
     3
1070
   140
1040
3.0
1070
   141
1040
3.0
1070
   147
1040
1.0
1070
   172
1070
     1
1070
   173
1070
     1
1070
   176
1070
   256
1070
   177
1070
   256
1070
   178
1070
   256
1070
   271
1070
     0
1070
   272
1070
     0
1070
   341
1005
B2
1070
     6
1000
OPEN
1070
     7
1000
OPEN
1002
}
  0
LINE
  5
53A1
330
1A
100
AcDbEntity
  8
SEIHIN
100
AcDbLine
 10
239.7450304712342
 20
206.4599311084007
 30
0.0
 11
239.7450304712342
 21
191.7829830284007
 31
0.0
  0
LINE
  5
53A2
330
1A
100
AcDbEntity
  8
SEIHIN
100
AcDbLine
 10
223.6453410332342
 20
206.4599314384008
 30
0.0
 11
223.6453410332341
 21
191.7829830284007
 31
0.0
  0
LINE
  5
53A3
330
1A
100
AcDbEntity
  8
SEIHIN
100
AcDbLine
 10
222.5720284032341
 20
191.7829830284007
 30
0.0
 11
222.5720284032342
 21
207.0816432084007
 31
0.0
  0
TEXT
  5
53A4
330
1A
100
AcDbEntity
  8
SUNPOU
100
AcDbText
 10
224.1340326904621
 20
163.7641276866495
 30
0.0
 40
3.0
  1
（スライド幅）
100
AcDbText
  0
LINE
  5
53A5
330
1A
100
AcDbEntity
  8
SEIHIN
100
AcDbLine
 10
238.8506032801506
 20
189.7829830284008
 30
0.0
 11
223.4664555943674
 21
189.7829830284008
 31
0.0
  0
TEXT
  5
53A6
330
1A
100
AcDbEntity
  8
SUNPOU
100
AcDbText
 10
258.3940425870885
 20
174.2854395418784
 30
0.0
 40
3.0
  1
4-φ4.2
100
AcDbText
  0
LINE
  5
53A7
330
1A
100
AcDbEntity
  8
SEIHIN
100
AcDbLine
 10
237.7173634212342
 20
222.7829830284008
 30
0.0
 11
237.7173634212342
 21
209.7829830284008
 31
0.0
  0
LINE
  5
53A8
330
1A
100
AcDbEntity
  8
CENTER_L
100
AcDbLine
 10
232.7375100476558
 20
195.2829830364973
 30
0.0
 11
240.7821114883786
 21
195.2829830364973
 31
0.0
  0
LINE
  5
53A9
330
1A
100
AcDbEntity
  8
CENTER_L
100
AcDbLine
 10
222.767989076141
 20
195.2829830364973
 30
0.0
 11
230.8125905168637
 21
195.2829830364973
 31
0.0
  0
LINE
  5
53AA
330
1A
100
AcDbEntity
  8
CENTER_L
100
AcDbLine
 10
225.6359507209485
 20
196.8079830164973
 30
0.0
 11
233.8864152077044
 21
196.8079830164973
 31
0.0
  0
ARC
  5
53AB
330
1A
100
AcDbEntity
  8
SEIHIN
100
AcDbCircle
 10
221.3492806399542
 20
195.2829830284007
 30
0.0
 40
5.185616510927503
100
AcDbArc
 50
336.1109838310729
 51
23.88901616892705
  0
ARC
  5
53AC
330
1A
100
AcDbEntity
  8
SEIHIN
100
AcDbCircle
 10
222.6124922052271
 20
196.7829830284007
 30
0.0
 40
7.826647519730068
100
AcDbArc
 50
338.4486589039116
 51
21.55134109608833
  0
LINE
  5
53AD
330
1A
100
AcDbEntity
  8
SEIHIN
100
AcDbLine
 10
229.8094314672341
 20
205.7829830284008
 30
0.0
 11
228.4200297582342
 21
207.8541778384007
 31
0.0
  0
LINE
  5
53AE
330
1A
100
AcDbEntity
  8
SEIHIN
100
AcDbLine
 10
228.4200297582342
 20
205.7829830284008
 30
0.0
 11
229.8094314672341
 21
205.7829830284008
 31
0.0
  0
ARC
  5
53AF
330
1A
100
AcDbEntity
  8
SEIHIN
100
AcDbCircle
 10
221.9453410303995
 20
206.4599314384008
 30
0.0
 40
1.700000002834682
100
AcDbArc
 50
0.0
 51
80.99999985768858
  0
ARC
  5
53B0
330
1A
100
AcDbEntity
  8
SEIHIN
100
AcDbCircle
 10
222.0720284016655
 20
207.0816432084007
 30
0.0
 40
0.5000000015686251
100
AcDbArc
 50
0.0
 51
86.20816424113447
  0
LINE
  5
53B1
330
1A
100
AcDbEntity
  8
SEIHIN
100
AcDbLine
 10
222.2112796253995
 20
208.1390016184008
 30
0.0
 11
221.5672982203995
 21
208.7829830284007
 31
0.0
  0
LINE
  5
53B2
330
1A
100
AcDbEntity
  8
SEIHIN
100
AcDbLine
 10
228.4200297582342
 20
205.7829830284008
 30
0.0
 11
228.4200297582342
 21
208.7829830284007
 31
0.0
  0
LINE
  5
53B3
330
1A
100
AcDbEntity
  8
SEIHIN
100
AcDbLine
 10
225.1907051002342
 20
207.5639931284007
 30
0.0
 11
227.7046173312342
 21
207.5639931284007
 31
0.0
  0
LINE
  5
53B4
330
1A
100
AcDbEntity
  8
SEIHIN
100
AcDbLine
 10
230.5031234002341
 20
207.5639931284007
 30
0.0
 11
234.3451402072342
 21
207.5639931284007
 31
0.0
  0
LINE
  5
53B5
330
1A
100
AcDbEntity
  8
SEIHIN
100
AcDbLine
 10
229.8094314672341
 20
208.7829830284007
 30
0.0
 11
229.8094314672341
 21
205.7829830284008
 31
0.0
  0
LINE
  5
53B6
330
1A
100
AcDbEntity
  8
SEIHIN
100
AcDbLine
 10
236.4842110082341
 20
208.7829830284007
 30
0.0
 11
236.4842110082341
 21
205.7829830284008
 31
0.0
  0
LINE
  5
53B7
330
1A
100
AcDbEntity
  8
SEIHIN
100
AcDbLine
 10
235.0948092992342
 20
205.7829830284008
 30
0.0
 11
235.0948092992342
 21
208.7829830284007
 31
0.0
  0
LINE
  5
53B8
330
1A
100
AcDbEntity
  8
SEIHIN
100
AcDbLine
 10
236.4842110082341
 20
205.7829830284008
 30
0.0
 11
235.0948092992342
 21
207.8541778384007
 31
0.0
  0
LINE
  5
53B9
330
1A
100
AcDbEntity
  8
SEIHIN
100
AcDbLine
 10
235.0948092992342
 20
205.7829830284008
 30
0.0
 11
236.4842110082341
 21
205.7829830284008
 31
0.0
  0
ARC
  5
53BA
330
1A
100
AcDbEntity
  8
SEIHIN
100
AcDbCircle
 10
232.5296205342208
 20
195.2829830284007
 30
0.0
 40
5.185616510378905
100
AcDbArc
 50
336.1109838283912
 51
23.88901617160872
  0
LINE
  5
53BB
330
1A
100
AcDbEntity
  8
SEIHIN
100
AcDbLine
 10
237.7173634212342
 20
208.7829830284007
 30
0.0
 11
237.7173634212342
 21
209.7829830284008
 31
0.0
  0
LINE
  5
53BC
330
1A
100
AcDbEntity
  8
SEIHIN
100
AcDbLine
 10
237.2385108892341
 20
207.5639931284007
 30
0.0
 11
238.6614800762342
 21
207.5639931284007
 31
0.0
  0
ARC
  5
53BD
330
1A
100
AcDbEntity
  8
SEIHIN
100
AcDbCircle
 10
238.0450304712341
 20
206.4599314484007
 30
0.0
 40
1.700000000521832
100
AcDbArc
 50
359.9999868556723
 51
80.99999999084101
  0
LINE
  5
53BE
330
1A
100
AcDbEntity
  8
SEIHIN
100
AcDbLine
 10
238.3109690622342
 20
208.1390016284007
 30
0.0
 11
237.6669876542341
 21
208.7829830284007
 31
0.0
  0
LINE
  5
53BF
330
1A
100
AcDbEntity
  8
CENTER_L
100
AcDbLine
 10
232.7375100476558
 20
237.2829830164973
 30
0.0
 11
240.7821114883786
 21
237.2829830164973
 31
0.0
  0
LINE
  5
53C0
330
1A
100
AcDbEntity
  8
SEIHIN
100
AcDbLine
 10
228.4200297582342
 20
226.7829830284008
 30
0.0
 11
229.8094314672341
 21
226.7829830284008
 31
0.0
  0
LINE
  5
53C1
330
1A
100
AcDbEntity
  8
SEIHIN
100
AcDbLine
 10
229.8094314672341
 20
226.7829830284008
 30
0.0
 11
228.4200297582342
 21
224.7117882184007
 31
0.0
  0
LINE
  5
53C2
330
1A
100
AcDbEntity
  8
SEIHIN
100
AcDbLine
 10
222.2112796253995
 20
224.4269644384008
 30
0.0
 11
221.5672982203995
 21
223.7829830284007
 31
0.0
  0
ARC
  5
53C3
330
1A
100
AcDbEntity
  8
SEIHIN
100
AcDbCircle
 10
222.0720284016655
 20
225.4843228484007
 30
0.0
 40
0.5000000015686251
100
AcDbArc
 50
273.7918357588654
 51
0.0
  0
ARC
  5
53C4
330
1A
100
AcDbEntity
  8
SEIHIN
100
AcDbCircle
 10
221.9453410303995
 20
226.1060346184007
 30
0.0
 40
1.700000002834682
100
AcDbArc
 50
279.0000001423114
 51
0.0
  0
LINE
  5
53C5
330
1A
100
AcDbEntity
  8
SEIHIN
100
AcDbLine
 10
225.1907051002342
 20
225.0019729384007
 30
0.0
 11
227.7046173312342
 21
225.0019729384007
 31
0.0
  0
LINE
  5
53C6
330
1A
100
AcDbEntity
  8
SEIHIN
100
AcDbLine
 10
228.4200297582342
 20
226.7829830284008
 30
0.0
 11
228.4200297582342
 21
223.7829830284007
 31
0.0
  0
LINE
  5
53C7
330
1A
100
AcDbEntity
  8
SEIHIN
100
AcDbLine
 10
230.5031234002341
 20
225.0019729384007
 30
0.0
 11
234.3451402072342
 21
225.0019729384007
 31
0.0
  0
LINE
  5
53C8
330
1A
100
AcDbEntity
  8
SEIHIN
100
AcDbLine
 10
229.8094314672341
 20
223.7829830284007
 30
0.0
 11
229.8094314672341
 21
226.7829830284008
 31
0.0
  0
LINE
  5
53C9
330
1A
100
AcDbEntity
  8
SEIHIN
100
AcDbLine
 10
235.0948092992342
 20
226.7829830284008
 30
0.0
 11
236.4842110082341
 21
226.7829830284008
 31
0.0
  0
LINE
  5
53CA
330
1A
100
AcDbEntity
  8
SEIHIN
100
AcDbLine
 10
235.0948092992342
 20
226.7829830284008
 30
0.0
 11
235.0948092992342
 21
223.7829830284007
 31
0.0
  0
LINE
  5
53CB
330
1A
100
AcDbEntity
  8
SEIHIN
100
AcDbLine
 10
236.4842110082341
 20
223.7829830284007
 30
0.0
 11
236.4842110082341
 21
226.7829830284008
 31
0.0
  0
LINE
  5
53CC
330
1A
100
AcDbEntity
  8
SEIHIN
100
AcDbLine
 10
236.4842110082341
 20
226.7829830284008
 30
0.0
 11
235.0948092992342
 21
224.7117882184007
 31
0.0
  0
LINE
  5
53CD
330
1A
100
AcDbEntity
  8
CENTER_L
100
AcDbLine
 10
222.767989076141
 20
237.2829830164973
 30
0.0
 11
230.8125905168637
 21
237.2829830164973
 31
0.0
  0
LINE
  5
53CE
330
1A
100
AcDbEntity
  8
CENTER_L
100
AcDbLine
 10
225.6359507209485
 20
235.7579830364973
 30
0.0
 11
233.8864152077044
 21
235.7579830364973
 31
0.0
  0
ARC
  5
53CF
330
1A
100
AcDbEntity
  8
SEIHIN
100
AcDbCircle
 10
222.6124922052271
 20
235.7829830284007
 30
0.0
 40
7.826647519730068
100
AcDbArc
 50
338.4486589039116
 51
21.55134109608833
  0
LINE
  5
53D0
330
1A
100
AcDbEntity
  8
SEIHIN
100
AcDbLine
 10
238.3109690622342
 20
224.4269644384008
 30
0.0
 11
237.6669876542341
 21
223.7829830284007
 31
0.0
  0
LINE
  5
53D1
330
1A
100
AcDbEntity
  8
SEIHIN
100
AcDbLine
 10
237.7173634212342
 20
223.7829830284007
 30
0.0
 11
237.7173634212342
 21
222.7829830284008
 31
0.0
  0
LINE
  5
53D2
330
1A
100
AcDbEntity
  8
SEIHIN
100
AcDbLine
 10
237.2385108892341
 20
225.0019729384007
 30
0.0
 11
238.6614800762342
 21
225.0019729384007
 31
0.0
  0
ARC
  5
53D3
330
1A
100
AcDbEntity
  8
SEIHIN
100
AcDbCircle
 10
238.0450304712341
 20
226.1060346184007
 30
0.0
 40
1.700000000521829
100
AcDbArc
 50
279.0000000091557
 51
0.000011122122682
  0
DIMENSION
  5
53D4
330
1A
100
AcDbEntity
  8
SUNPOU
100
AcDbDimension
  2
*D14
 10
323.2572450219919
 20
198.6816836967284
 30
0.0
 11
304.6978808083958
 21
192.1970865633051
 31
0.0
 70
    33
  3
STANDARD
100
AcDbAlignedDimension
 13
303.1095789276413
 23
151.7703647583603
 33
0.0
 14
337.9922393776414
 24
169.2116949803604
 34
0.0
1001
ACAD
1000
DSTYLE
1002
{
1070
    41
1040
3.0
1070
    42
1040
3.0
1070
    43
1040
7.0
1070
    44
1040
1.5
1070
    73
1070
     0
1070
    74
1070
     0
1070
    77
1070
     3
1070
   140
1040
3.0
1070
   141
1040
3.0
1070
   147
1040
1.0
1070
   172
1070
     1
1070
   173
1070
     1
1070
   176
1070
   256
1070
   177
1070
   256
1070
   178
1070
   256
1070
   271
1070
     0
1070
   272
1070
     0
1070
   341
1005
B2
1070
     6
1000
OPEN
1070
     7
1000
OPEN
1002
}
  0
LINE
  5
53D5
330
1A
100
AcDbEntity
  8
SEIHIN
100
AcDbLine
 10
314.8552951493645
 20
178.5904618649608
 30
0.0
 11
326.0153772493645
 21
156.2702975249608
 31
0.0
  0
LINE
  5
53D6
330
1A
100
AcDbEntity
  8
SEIHIN
100
AcDbLine
 10
309.4887319893645
 20
175.9071802649608
 30
0.0
 11
320.6488141493645
 21
153.5870159549608
 31
0.0
  0
CIRCLE
  5
53D7
330
1A
100
AcDbEntity
  8
SEIHIN
100
AcDbCircle
 10
300.7617075493645
 20
153.1120055449608
 30
0.0
 40
2.100000004315366
  0
LINE
  5
53D8
330
1A
100
AcDbEntity
  8
CENTER_L
100
AcDbLine
 10
296.2001288710863
 20
150.8312162066187
 30
0.0
 11
305.3232862276426
 21
155.392794883303
 31
0.0
  0
LINE
  5
53D9
330
1A
100
AcDbEntity
  8
CENTER_L
100
AcDbLine
 10
298.4809182110224
 20
157.673584223239
 30
0.0
 11
303.0424968877067
 21
148.5504268666827
 31
0.0
  0
LINE
  5
53DA
330
1A
100
AcDbEntity
  8
SEIHIN
100
AcDbLine
 10
310.3767998493645
 20
164.0687386349608
 30
0.0
 11
295.1715376093645
 21
156.4661075049608
 31
0.0
  0
ARC
  5
53DB
330
1A
100
AcDbEntity
  8
SEIHIN
100
AcDbCircle
 10
296.0659647993645
 20
154.6772531249608
 30
0.0
 40
1.999999997764122
100
AcDbArc
 50
116.5650511770767
 51
206.5650511770767
  0
INSERT
  5
53DC
330
1A
100
AcDbEntity
  8
SUNPOU
100
AcDbBlockReference
  2
_OPEN
 10
298.6820793270109
 20
153.1689631172611
 30
0.0
 41
2.999999999999992
 42
3.0
 43
3.0
 50
319.2548486777223
1001
ACAD
1000
DSTYLE
1002
{
1070
    41
1040
3.0
1070
    42
1040
3.0
1070
    43
1040
7.0
1070
    44
1040
1.5
1070
    73
1070
     0
1070
    74
1070
     0
1070
    77
1070
     0
1070
   140
1040
3.0
1070
   141
1040
3.0
1070
   147
1040
1.0
1070
   172
1070
     1
1070
   173
1070
     1
1070
   176
1070
   256
1070
   177
1070
   256
1070
   178
1070
   256
1070
   271
1070
     0
1070
   272
1070
     0
1070
   341
1005
B2
1070
   343
1005
B2
1070
   344
1005
B2
1002
}
  0
LINE
  5
53DD
330
1A
100
AcDbEntity
  8
SEIHIN
100
AcDbLine
 10
313.2836882493645
 20
158.2549618949609
 30
0.0
 11
314.6253290493644
 21
155.5716803149608
 31
0.0
  0
LINE
  5
53DE
330
1A
100
AcDbEntity
  8
SEIHIN
100
AcDbLine
 10
313.2836882493645
 20
158.2549618949609
 30
0.0
 11
310.1726574693645
 21
156.6994465149608
 31
0.0
  0
LINE
  5
53DF
330
1A
100
AcDbEntity
  8
SEIHIN
100
AcDbLine
 10
310.1726574693645
 20
156.6994465149608
 30
0.0
 11
311.5142982493645
 21
154.0161649449609
 31
0.0
  0
LINE
  5
53E0
330
1A
100
AcDbEntity
  8
SEIHIN
100
AcDbLine
 10
314.6253290493644
 20
155.5716803149608
 30
0.0
 11
311.5142982493645
 21
154.0161649449609
 31
0.0
  0
LINE
  5
53E1
330
1A
100
AcDbEntity
  8
SEIHIN
100
AcDbLine
 10
310.3767998493645
 20
164.0687386349608
 30
0.0
 11
313.2836882493645
 21
158.2549618949609
 31
0.0
  0
LINE
  5
53E2
330
1A
100
AcDbEntity
  8
SEIHIN
100
AcDbLine
 10
309.5976514293645
 20
163.6791644249608
 30
0.0
 11
312.5045397493645
 21
157.8653876749608
 31
0.0
  0
ARC
  5
53E3
330
1A
100
AcDbEntity
  8
SEIHIN
100
AcDbCircle
 10
312.1720137493645
 20
177.2488207549608
 30
0.0
 40
3.000000012298682
100
AcDbArc
 50
26.56505818082145
 51
206.5650445149795
  0
LINE
  5
53E4
330
1A
100
AcDbEntity
  8
SEIHIN
100
AcDbLine
 10
306.3582369693644
 20
174.3419323849608
 30
0.0
 11
309.4887321293644
 21
175.9071799649608
 31
0.0
  0
LINE
  5
53E5
330
1A
100
AcDbEntity
  8
SEIHIN
100
AcDbLine
 10
303.2213823293645
 20
178.3795736849608
 30
0.0
 11
304.1158095193645
 21
178.8267872849609
 31
0.0
  0
LINE
  5
53E6
330
1A
100
AcDbEntity
  8
SEIHIN
100
AcDbLine
 10
314.8552952493645
 20
178.5904615449608
 30
0.0
 11
317.9857904493645
 21
180.1557091249608
 31
0.0
  0
LINE
  5
53E7
330
1A
100
AcDbEntity
  8
SEIHIN
100
AcDbLine
 10
315.7433629493644
 20
184.6405640249608
 30
0.0
 11
316.6377901493645
 21
185.0877776249608
 31
0.0
  0
LINE
  5
53E8
330
1A
100
AcDbEntity
  8
CENTER_L
100
AcDbLine
 10
336.0468602110224
 20
176.456555237239
 30
0.0
 11
340.6084388877067
 21
167.3333978806827
 31
0.0
  0
LINE
  5
53E9
330
1A
100
AcDbEntity
  8
SEIHIN
100
AcDbLine
 10
323.7932077493645
 20
170.7769425649608
 30
0.0
 11
326.7000960493645
 21
164.9631658249608
 31
0.0
  0
LINE
  5
53EA
330
1A
100
AcDbEntity
  8
SEIHIN
100
AcDbLine
 10
324.5723561493645
 20
171.1665167749608
 30
0.0
 11
327.4792445493645
 21
165.3527400349608
 31
0.0
  0
INSERT
  5
53EB
330
1A
100
AcDbEntity
  8
SUNPOU
100
AcDbBlockReference
  2
_OPEN
 10
341.6819768964198
 20
166.7000583330831
 30
0.0
 41
2.999999999999981
 42
3.0
 43
3.0
 50
251.7065953267104
1001
ACAD
1000
DSTYLE
1002
{
1070
    41
1040
3.0
1070
    42
1040
3.0
1070
    43
1040
7.0
1070
    44
1040
1.5
1070
    73
1070
     0
1070
    74
1070
     0
1070
    77
1070
     0
1070
   140
1040
3.0
1070
   141
1040
3.0
1070
   147
1040
1.0
1070
   172
1070
     1
1070
   173
1070
     1
1070
   176
1070
   256
1070
   177
1070
   256
1070
   178
1070
   256
1070
   271
1070
     0
1070
   272
1070
     0
1070
   341
1005
B2
1070
   343
1005
B2
1070
   344
1005
B2
1002
}
  0
LINE
  5
53EC
330
1A
100
AcDbEntity
  8
CENTER_L
100
AcDbLine
 10
337.9922393776414
 20
169.2116949803604
 30
0.0
 11
343.5824093210877
 21
158.0313550895613
 31
0.0
  0
LINE
  5
53ED
330
1A
100
AcDbEntity
  8
SEIHIN
100
AcDbLine
 10
328.0417368493644
 20
162.2798842549608
 30
0.0
 11
335.6443679493645
 21
147.0746220039608
 31
0.0
  0
LINE
  5
53EE
330
1A
100
AcDbEntity
  8
SEIHIN
100
AcDbLine
 10
328.8208853493645
 20
162.6694584649608
 30
0.0
 11
336.4235164493645
 21
147.4641962169608
 31
0.0
  0
LINE
  5
53EF
330
1A
100
AcDbEntity
  8
CENTER_L
100
AcDbLine
 10
335.197154403965
 20
160.8264400632377
 30
0.0
 11
346.3774942947641
 21
166.416610006684
 31
0.0
  0
ARC
  5
53F0
330
1A
100
AcDbEntity
  8
SEIHIN
100
AcDbCircle
 10
325.1348485493644
 20
151.3231511649609
 30
0.0
 40
5.024896830989174
100
AcDbArc
 50
153.2223321449061
 51
79.90777135371757
  0
CIRCLE
  5
53F1
330
1A
100
AcDbEntity
  8
SEIHIN
100
AcDbCircle
 10
325.1348485493644
 20
151.3231511649609
 30
0.0
 40
2.999999911928945
  0
LINE
  5
53F2
330
1A
100
AcDbEntity
  8
SEIHIN
100
AcDbLine
 10
326.7000960493645
 20
164.9631658249608
 30
0.0
 11
329.8111268493645
 21
166.5186812049608
 31
0.0
  0
LINE
  5
53F3
330
1A
100
AcDbEntity
  8
SEIHIN
100
AcDbLine
 10
326.7000960493645
 20
164.9631658249608
 30
0.0
 11
328.0417368493644
 21
162.2798842549608
 31
0.0
  0
LINE
  5
53F4
330
1A
100
AcDbEntity
  8
SEIHIN
100
AcDbLine
 10
328.0417368493644
 20
162.2798842549608
 30
0.0
 11
331.1527676493645
 21
163.8353996249608
 31
0.0
  0
LINE
  5
53F5
330
1A
100
AcDbEntity
  8
SEIHIN
100
AcDbLine
 10
329.8111268493645
 20
166.5186812049608
 30
0.0
 11
331.1527676493645
 21
163.8353996249608
 31
0.0
  0
LINE
  5
53F6
330
1A
100
AcDbEntity
  8
SEIHIN
100
AcDbLine
 10
338.7553987493645
 20
148.6301373809608
 30
0.0
 11
335.6443679493645
 21
147.0746220039608
 31
0.0
  0
CIRCLE
  5
53F7
330
1A
100
AcDbEntity
  8
SEIHIN
100
AcDbCircle
 10
349.5079894493645
 20
149.5342967789608
 30
0.0
 40
2.10000000249889
  0
CIRCLE
  5
53F8
330
1A
100
AcDbEntity
  8
SEIHIN
100
AcDbCircle
 10
340.7873243493645
 20
163.6215250349608
 30
0.0
 40
3.249999988758972
  0
LINE
  5
53F9
330
1A
100
AcDbEntity
  8
CENTER_L
100
AcDbLine
 10
333.7660708710864
 20
169.6141872206187
 30
0.0
 11
342.8892282276427
 21
174.175765897303
 31
0.0
  0
LINE
  5
53FA
330
1A
100
AcDbEntity
  8
SEIHIN
100
AcDbLine
 10
323.7932077493645
 20
170.7769425649608
 30
0.0
 11
338.9984699493645
 21
178.3795736849608
 31
0.0
  0
CIRCLE
  5
53FB
330
1A
100
AcDbEntity
  8
SEIHIN
100
AcDbCircle
 10
338.3276495493645
 20
171.8949765549608
 30
0.0
 40
2.100000001153092
  0
ARC
  5
53FC
330
1A
100
AcDbEntity
  8
SEIHIN
100
AcDbCircle
 10
339.8928971493645
 20
176.5907193049608
 30
0.0
 40
2.000000008944457
100
AcDbArc
 50
26.56505092084454
 51
116.5650514333117
  0
LINE
  5
53FD
330
1A
100
AcDbEntity
  8
SEIHIN
100
AcDbLine
 10
238.8506032801506
 20
242.7829830284007
 30
0.0
 11
223.4664555943674
 21
242.7829830284007
 31
0.0
  0
ARC
  5
53FE
330
1A
100
AcDbEntity
  8
SEIHIN
100
AcDbCircle
 10
354.2037321883648
 20
147.9690491529608
 30
0.0
 40
2.0
100
AcDbArc
 50
296.5650511415189
 51
26.56505108979775
  0
TEXT
  5
53FF
330
1A
100
AcDbEntity
  8
SUNPOU
100
AcDbText
 10
354.0737668699213
 20
204.4609217775379
 30
0.0
 40
3.0
  1
2-φ6.5
100
AcDbText
  0
VIEWPORT
  5
22
330
17
100
AcDbEntity
 67
     1
  8
0
100
AcDbViewport
 10
313.6808219178082
 20
148.5
 30
0.0
 40
627.3616438356165
 41
297.0
 68
     2
 69
     1
1001
ACAD
1000
MVIEW
1002
{
1070
    16
1010
0.0
1020
0.0
1030
0.0
1010
0.0
1020
0.0
1030
1.0
1040
0.0
1040
297.0
1040
313.6808219178082
1040
148.5
1040
50.0
1040
0.0
1040
0.0
1070
     0
1070
   100
1070
     1
1070
     0
1070
     0
1070
     0
1070
     0
1070
     0
1040
0.0
1040
0.0
1040
0.0
1040
1.0
1040
1.0
1040
10.0
1040
10.0
1070
     0
1002
{
1002
}
1002
}
  0
VIEWPORT
  5
64
330
17
100
AcDbEntity
 67
     1
  8
VIEWPORT
100
AcDbViewport
 10
210.0
 20
148.5
 30
0.0
 40
420.0
 41
297.0
 68
     1
 69
     2
1001
ACAD
1000
MVIEW
1002
{
1070
    16
1010
0.0
1020
0.0
1030
0.0
1010
0.0
1020
0.0
1030
1.0
1040
0.0
1040
302.9399999999998
1040
210.0
1040
148.5
1040
50.0
1040
0.0
1040
0.0
1070
     0
1070
   100
1070
     1
1070
     0
1070
     0
1070
     0
1070
     0
1070
     0
1040
0.0
1040
0.0
1040
0.0
1040
5.0
1040
5.0
1040
0.0
1040
0.0
1070
     0
1002
{
1002
}
1002
}
  0
ENDSEC
  0
SECTION
  2
OBJECTS
  0
DICTIONARY
  5
C
330
0
100
AcDbDictionary
  3
ACAD_GROUP
350
D
  3
ACAD_LAYOUT
350
141
  3
ACAD_MLINESTYLE
350
E
  3
ACAD_PLOTSETTINGS
350
142
  3
ACAD_PLOTSTYLENAME
350
13F
  3
ACADDIM
350
1A14
  3
ACDBVARIABLEDICTIONARY
350
120D
  3
ACDBHEADERROUNDTRIPXREC
350
5535
  0
DICTIONARY
  5
7A2
330
1A
100
AcDbDictionary
280
     1
  3
ACAD_LAYOUTSELFREF
360
5557
  0
DICTIONARY
  5
7A0
330
17
100
AcDbDictionary
280
     1
  3
ACAD_LAYOUTSELFREF
360
5556
  0
DICTIONARY
  5
D
102
{ACAD_REACTORS
330
C
102
}
330
C
100
AcDbDictionary
  0
DICTIONARY
  5
141
102
{ACAD_REACTORS
330
C
102
}
330
C
100
AcDbDictionary
  0
DICTIONARY
  5
E
102
{ACAD_REACTORS
330
C
102
}
330
C
100
AcDbDictionary
  3
STANDARD
350
13
  0
DICTIONARY
  5
142
102
{ACAD_REACTORS
330
C
102
}
330
C
100
AcDbDictionary
  0
ACDBDICTIONARYWDFLT
  5
13F
102
{ACAD_REACTORS
330
C
102
}
330
C
100
AcDbDictionary
281
     1
  3
Normal
350
140
100
AcDbDictionaryWithDefault
340
140
1001
ACAD
1000
TREAT_AS_HARD
1070
     0
1000
TREAT_AS_HARD
1070
     0
1000
TREAT_AS_HARD
1070
     0
1000
TREAT_AS_HARD
1070
     0
1000
TREAT_AS_HARD
1070
     0
1000
TREAT_AS_HARD
1070
     0
1000
TREAT_AS_HARD
1070
     0
1000
TREAT_AS_HARD
1070
     0
1000
TREAT_AS_HARD
1070
     0
1000
TREAT_AS_HARD
1070
     0
1000
TREAT_AS_HARD
1070
     0
  0
XRECORD
  5
1A14
102
{ACAD_REACTORS
330
C
102
}
330
C
100
AcDbXrecord
 90
   990106
  3

 60
     0
 61
     0
 62
     1
 63
     3
 64
     0
 65
     0
 66
     0
 67
     3
 68
     1
 69
     0
 70
     0
 71
     0
 72
     0
 40
0.0
170
     0
340
0
  0
DICTIONARY
  5
120D
102
{ACAD_REACTORS
330
C
102
}
330
C
100
AcDbDictionary
  3
SORTENTS
350
120E
  0
DICTIONARY
  5
5535
102
{ACAD_REACTORS
330
C
102
}
330
C
100
AcDbDictionary
  3
TSTACKALIGN
350
5536
  3
TSTACKSIZE
350
5537
  3
HYPERLINKBASE
350
5538
  3
STYLESHEET
350
5539
  3
LAYOUTDICT
350
553A
  3
PLOTSETDICT
350
553B
  3
PLOTSTYLNAMDICT
350
553C
  3
LWETCUNION
350
553D
  3
INSUNITS
350
553E
  3
CEPSNTYPE
350
553F
  3
FINGERPRINTGUID
350
5540
  3
VERSIONGUID
350
5541
  3
PSVPSCALE
350
5542
  3
DIMSTYLEDATA
350
5543
  3
PUCSORTHOREF
350
5544
  3
PUCSORTHOVIEW
350
5545
  3
PUCSBASE
350
5546
  3
PUCSORGTOP
350
5547
  3
PUCSORGBOTTOM
350
5548
  3
PUCSORGLEFT
350
5549
  3
PUCSORGRIGHT
350
554A
  3
PUCSORGFRONT
350
554B
  3
PUCSORGBACK
350
554C
  3
UCSORTHOREF
350
554D
  3
UCSORTHOVIEW
350
554E
  3
UCSBASE
350
554F
  3
UCSORGTOP
350
5550
  3
UCSORGBOTTOM
350
5551
  3
UCSORGLEFT
350
5552
  3
UCSORGRIGHT
350
5553
  3
UCSORGFRONT
350
5554
  3
UCSORGBACK
350
5555
  0
XRECORD
  5
5557
102
{ACAD_REACTORS
330
7A2
102
}
330
7A2
100
AcDbXrecord
340
1A
  0
XRECORD
  5
5556
102
{ACAD_REACTORS
330
7A0
102
}
330
7A0
100
AcDbXrecord
340
17
  0
MLINESTYLE
  5
13
102
{ACAD_REACTORS
330
E
102
}
330
E
100
AcDbMlineStyle
  2
STANDARD
 70
     0
  3

 62
     0
 51
90.0
 52
90.0
 71
     2
 49
0.5
 62
   256
  6
BYLAYER
 49
-0.5
 62
   256
  6
BYLAYER
  0
ACDBPLACEHOLDER
  5
140
102
{ACAD_REACTORS
330
13F
102
}
330
13F
100
AcDbPlaceHolder
280
     0
  0
DICTIONARYVAR
  5
120E
102
{ACAD_REACTORS
330
120D
102
}
330
120D
100
DictionaryVariables
280
     0
  1
96
  0
XRECORD
  5
5536
102
{ACAD_REACTORS
330
5535
102
}
330
5535
100
AcDbXrecord
 90
        1
  0
XRECORD
  5
5537
102
{ACAD_REACTORS
330
5535
102
}
330
5535
100
AcDbXrecord
 90
       70
  0
XRECORD
  5
5538
102
{ACAD_REACTORS
330
5535
102
}
330
5535
100
AcDbXrecord
  1

  0
XRECORD
  5
5539
102
{ACAD_REACTORS
330
5535
102
}
330
5535
100
AcDbXrecord
  1
systemprinter.ctb
  0
XRECORD
  5
553A
102
{ACAD_REACTORS
330
5535
102
}
330
5535
100
AcDbXrecord
340
141
  0
XRECORD
  5
553B
102
{ACAD_REACTORS
330
5535
102
}
330
5535
100
AcDbXrecord
340
142
  0
XRECORD
  5
553C
102
{ACAD_REACTORS
330
5535
102
}
330
5535
100
AcDbXrecord
340
13F
  0
XRECORD
  5
553D
102
{ACAD_REACTORS
330
5535
102
}
330
5535
100
AcDbXrecord
 90
    10781
  0
XRECORD
  5
553E
102
{ACAD_REACTORS
330
5535
102
}
330
5535
100
AcDbXrecord
 90
        0
  0
XRECORD
  5
553F
102
{ACAD_REACTORS
330
5535
102
}
330
5535
100
AcDbXrecord
 90
        0
  0
XRECORD
  5
5540
102
{ACAD_REACTORS
330
5535
102
}
330
5535
100
AcDbXrecord
  1
{4E8D0500-CDD1-11D3-932C-444553540000}
  0
XRECORD
  5
5541
102
{ACAD_REACTORS
330
5535
102
}
330
5535
100
AcDbXrecord
  1
{E1E29A08-D49A-4E9C-B1E8-1CED49FD5F73}
  0
XRECORD
  5
5542
102
{ACAD_REACTORS
330
5535
102
}
330
5535
100
AcDbXrecord
 40
0.0
  0
XRECORD
  5
5543
102
{ACAD_REACTORS
330
5535
102
}
330
5535
100
AcDbXrecord
1000
DSTYLE
1002
{
1070
   341
340
B2
1070
   343
340
B2
1070
   344
340
B2
1070
   371
 70
    -1
1070
   372
 70
    -1
1002
}
  0
XRECORD
  5
5544
102
{ACAD_REACTORS
330
5535
102
}
330
5535
100
AcDbXrecord
340
0
  0
XRECORD
  5
5545
102
{ACAD_REACTORS
330
5535
102
}
330
5535
100
AcDbXrecord
 70
     0
  0
XRECORD
  5
5546
102
{ACAD_REACTORS
330
5535
102
}
330
5535
100
AcDbXrecord
340
0
  0
XRECORD
  5
5547
102
{ACAD_REACTORS
330
5535
102
}
330
5535
100
AcDbXrecord
 10
0.0
 20
0.0
 30
0.0
  0
XRECORD
  5
5548
102
{ACAD_REACTORS
330
5535
102
}
330
5535
100
AcDbXrecord
 10
0.0
 20
0.0
 30
0.0
  0
XRECORD
  5
5549
102
{ACAD_REACTORS
330
5535
102
}
330
5535
100
AcDbXrecord
 10
0.0
 20
0.0
 30
0.0
  0
XRECORD
  5
554A
102
{ACAD_REACTORS
330
5535
102
}
330
5535
100
AcDbXrecord
 10
0.0
 20
0.0
 30
0.0
  0
XRECORD
  5
554B
102
{ACAD_REACTORS
330
5535
102
}
330
5535
100
AcDbXrecord
 10
0.0
 20
0.0
 30
0.0
  0
XRECORD
  5
554C
102
{ACAD_REACTORS
330
5535
102
}
330
5535
100
AcDbXrecord
 10
0.0
 20
0.0
 30
0.0
  0
XRECORD
  5
554D
102
{ACAD_REACTORS
330
5535
102
}
330
5535
100
AcDbXrecord
340
0
  0
XRECORD
  5
554E
102
{ACAD_REACTORS
330
5535
102
}
330
5535
100
AcDbXrecord
 70
     0
  0
XRECORD
  5
554F
102
{ACAD_REACTORS
330
5535
102
}
330
5535
100
AcDbXrecord
340
0
  0
XRECORD
  5
5550
102
{ACAD_REACTORS
330
5535
102
}
330
5535
100
AcDbXrecord
 10
0.0
 20
0.0
 30
0.0
  0
XRECORD
  5
5551
102
{ACAD_REACTORS
330
5535
102
}
330
5535
100
AcDbXrecord
 10
0.0
 20
0.0
 30
0.0
  0
XRECORD
  5
5552
102
{ACAD_REACTORS
330
5535
102
}
330
5535
100
AcDbXrecord
 10
0.0
 20
0.0
 30
0.0
  0
XRECORD
  5
5553
102
{ACAD_REACTORS
330
5535
102
}
330
5535
100
AcDbXrecord
 10
0.0
 20
0.0
 30
0.0
  0
XRECORD
  5
5554
102
{ACAD_REACTORS
330
5535
102
}
330
5535
100
AcDbXrecord
 10
0.0
 20
0.0
 30
0.0
  0
XRECORD
  5
5555
102
{ACAD_REACTORS
330
5535
102
}
330
5535
100
AcDbXrecord
 10
0.0
 20
0.0
 30
0.0
  0
ENDSEC
  0
EOF
