  0
SECTION
  2
HEADER
  9
$ACADVER
  1
AC1014
  9
$ACADMAINTVER
 70
     9
  9
$DWGCODEPAGE
  3
ANSI_932
  9
$INSBASE
 10
0.0
 20
0.0
 30
0.0
  9
$EXTMIN
 10
-0.0128167273850295
 20
-0.0090630292066862
 30
-0.0000000100021362
  9
$EXTMAX
 10
398.8000497650584
 20
275.8226172440017
 30
0.0000000100021363
  9
$LIMMIN
 10
0.0
 20
0.0
  9
$LIMMAX
 10
420.0
 20
297.0
  9
$ORTHOMODE
 70
     1
  9
$REGENMODE
 70
     1
  9
$FILLMODE
 70
     1
  9
$QTEXTMODE
 70
     0
  9
$MIRRTEXT
 70
     1
  9
$DRAGMODE
 70
     2
  9
$LTSCALE
 40
5.0
  9
$OSMODE
 70
    37
  9
$ATTMODE
 70
     1
  9
$TEXTSIZE
 40
3.0
  9
$TRACEWID
 40
1.0
  9
$TEXTSTYLE
  7
STANDARD
  9
$CLAYER
  8
SUNPOU
  9
$CELTYPE
  6
BYLAYER
  9
$CECOLOR
 62
   256
  9
$CELTSCALE
 40
1.0
  9
$DELOBJ
 70
     1
  9
$DISPSILH
 70
     0
  9
$DIMSCALE
 40
1.0
  9
$DIMASZ
 40
3.0
  9
$DIMEXO
 40
3.0
  9
$DIMDLI
 40
7.0
  9
$DIMRND
 40
0.0
  9
$DIMDLE
 40
0.0
  9
$DIMEXE
 40
1.5
  9
$DIMTP
 40
0.0
  9
$DIMTM
 40
0.0
  9
$DIMTXT
 40
3.0
  9
$DIMCEN
 40
3.0
  9
$DIMTSZ
 40
0.0
  9
$DIMTOL
 70
     0
  9
$DIMLIM
 70
     0
  9
$DIMTIH
 70
     0
  9
$DIMTOH
 70
     0
  9
$DIMSE1
 70
     0
  9
$DIMSE2
 70
     0
  9
$DIMTAD
 70
     3
  9
$DIMZIN
 70
     0
  9
$DIMBLK
  1

  9
$DIMASO
 70
     1
  9
$DIMSHO
 70
     1
  9
$DIMPOST
  1

  9
$DIMAPOST
  1

  9
$DIMALT
 70
     0
  9
$DIMALTD
 70
     2
  9
$DIMALTF
 40
25.4
  9
$DIMLFAC
 40
1.0
  9
$DIMTOFL
 70
     1
  9
$DIMTVP
 40
0.0
  9
$DIMTIX
 70
     0
  9
$DIMSOXD
 70
     0
  9
$DIMSAH
 70
     1
  9
$DIMBLK1
  1
OPEN
  9
$DIMBLK2
  1
OPEN
  9
$DIMSTYLE
  2
STANDARD
  9
$DIMCLRD
 70
   256
  9
$DIMCLRE
 70
   256
  9
$DIMCLRT
 70
   256
  9
$DIMTFAC
 40
1.0
  9
$DIMGAP
 40
1.0
  9
$DIMJUST
 70
     0
  9
$DIMSD1
 70
     0
  9
$DIMSD2
 70
     0
  9
$DIMTOLJ
 70
     1
  9
$DIMTZIN
 70
     0
  9
$DIMALTZ
 70
     0
  9
$DIMALTTZ
 70
     0
  9
$DIMFIT
 70
     3
  9
$DIMUPT
 70
     0
  9
$DIMUNIT
 70
     2
  9
$DIMDEC
 70
     0
  9
$DIMTDEC
 70
     0
  9
$DIMALTU
 70
     2
  9
$DIMALTTD
 70
     2
  9
$DIMTXSTY
  7
STANDARD
  9
$DIMAUNIT
 70
     0
  9
$LUNITS
 70
     2
  9
$LUPREC
 70
     4
  9
$SKETCHINC
 40
1.0
  9
$FILLETRAD
 40
2.0
  9
$AUNITS
 70
     0
  9
$AUPREC
 70
     0
  9
$MENU
  1
.
  9
$ELEVATION
 40
0.0
  9
$PELEVATION
 40
0.0
  9
$THICKNESS
 40
0.0
  9
$LIMCHECK
 70
     0
  9
$BLIPMODE
 70
     0
  9
$CHAMFERA
 40
10.0
  9
$CHAMFERB
 40
10.0
  9
$CHAMFERC
 40
20.0
  9
$CHAMFERD
 40
0.0
  9
$SKPOLY
 70
     0
  9
$TDCREATE
 40
2451589.469382176
  9
$TDUPDATE
 40
2454515.396611828
  9
$TDINDWG
 40
0.2644777894
  9
$TDUSRTIMER
 40
0.2644777894
  9
$USRTIMER
 70
     1
  9
$ANGBASE
 50
0.0
  9
$ANGDIR
 70
     0
  9
$PDMODE
 70
     0
  9
$PDSIZE
 40
0.0
  9
$PLINEWID
 40
0.0
  9
$COORDS
 70
     2
  9
$SPLFRAME
 70
     0
  9
$SPLINETYPE
 70
     6
  9
$SPLINESEGS
 70
     8
  9
$ATTDIA
 70
     0
  9
$ATTREQ
 70
     1
  9
$HANDLING
 70
 10241
  9
$HANDSEED
  5
5B2F
  9
$SURFTAB1
 70
     6
  9
$SURFTAB2
 70
     6
  9
$SURFTYPE
 70
     6
  9
$SURFU
 70
     6
  9
$SURFV
 70
     6
  9
$UCSNAME
  2

  9
$UCSORG
 10
0.0
 20
0.0
 30
0.0
  9
$UCSXDIR
 10
1.0
 20
0.0
 30
0.0
  9
$UCSYDIR
 10
0.0
 20
1.0
 30
0.0
  9
$PUCSNAME
  2

  9
$PUCSORG
 10
0.0
 20
0.0
 30
0.0
  9
$PUCSXDIR
 10
1.0
 20
0.0
 30
0.0
  9
$PUCSYDIR
 10
0.0
 20
1.0
 30
0.0
  9
$USERI1
 70
     0
  9
$USERI2
 70
     0
  9
$USERI3
 70
     0
  9
$USERI4
 70
     0
  9
$USERI5
 70
     0
  9
$USERR1
 40
0.0
  9
$USERR2
 40
0.0
  9
$USERR3
 40
0.0
  9
$USERR4
 40
0.0
  9
$USERR5
 40
0.0
  9
$WORLDVIEW
 70
     1
  9
$SHADEDGE
 70
     3
  9
$SHADEDIF
 70
    70
  9
$TILEMODE
 70
     1
  9
$MAXACTVP
 70
    16
  9
$PINSBASE
 10
0.0
 20
0.0
 30
0.0
  9
$PLIMCHECK
 70
     0
  9
$PEXTMIN
 10
0.0
 20
0.0
 30
0.0
  9
$PEXTMAX
 10
420.0
 20
297.0
 30
0.0
  9
$PLIMMIN
 10
0.0
 20
0.0
  9
$PLIMMAX
 10
420.0
 20
297.0
  9
$UNITMODE
 70
     0
  9
$VISRETAIN
 70
     0
  9
$PLINEGEN
 70
     0
  9
$PSLTSCALE
 70
     1
  9
$TREEDEPTH
 70
  3020
  9
$PICKSTYLE
 70
     1
  9
$CMLSTYLE
  2
STANDARD
  9
$CMLJUST
 70
     0
  9
$CMLSCALE
 40
1.0
  9
$PROXYGRAPHICS
 70
     1
  9
$MEASUREMENT
 70
     0
  0
ENDSEC
  0
SECTION
  2
CLASSES
  0
CLASS
  1
ACDBDICTIONARYWDFLT
  2
AcDbDictionaryWithDefault
  3
AutoCAD 2000
 90
        0
280
     0
281
     0
  0
CLASS
  1
ACDBPLACEHOLDER
  2
AcDbPlaceHolder
  3
AutoCAD 2000
 90
        0
280
     0
281
     0
  0
CLASS
  1
LAYOUT
  2
AcDbLayout
  3
AutoCAD 2000
 90
        0
280
     0
281
     0
  0
CLASS
  1
LONG_TRANSACTION
  2
AcDbLongTransaction
  3
AutoCAD 2000
 90
        0
280
     0
281
     0
  0
CLASS
  1
LWPOLYLINE
  2
AcDbPolyline
  3
AutoCAD 2000
 90
        0
280
     0
281
     1
  0
CLASS
  1
HATCH
  2
AcDbHatch
  3
AutoCAD 2000
 90
        0
280
     0
281
     1
  0
CLASS
  1
XRECORD
  2
AcDbXrecord
  3
AutoCAD 2000
 90
        0
280
     0
281
     0
  0
CLASS
  1
LONG_TRANSACTION
  2
AcDbLongTransaction
  3
AutoCAD 2000
 90
        0
280
     0
281
     0
  0
CLASS
  1
LWPOLYLINE
  2
AcDbPolyline
  3
AutoCAD 2000
 90
        0
280
     0
281
     1
  0
CLASS
  1
HATCH
  2
AcDbHatch
  3
AutoCAD 2000
 90
        0
280
     0
281
     1
  0
CLASS
  1
XRECORD
  2
AcDbXrecord
  3
AutoCAD 2000
 90
        0
280
     0
281
     0
  0
CLASS
  1
DICTIONARYVAR
  2
AcDbDictionaryVar
  3
AutoCAD 2000
 90
        0
280
     0
281
     0
  0
CLASS
  1
LONG_TRANSACTION
  2
AcDbLongTransaction
  3
AutoCAD 2000
 90
        0
280
     0
281
     0
  0
CLASS
  1
LWPOLYLINE
  2
AcDbPolyline
  3
AutoCAD 2000
 90
        0
280
     0
281
     1
  0
CLASS
  1
HATCH
  2
AcDbHatch
  3
AutoCAD 2000
 90
        0
280
     0
281
     1
  0
CLASS
  1
XRECORD
  2
AcDbXrecord
  3
AutoCAD 2000
 90
        0
280
     0
281
     0
  0
CLASS
  1
LONG_TRANSACTION
  2
AcDbLongTransaction
  3
AutoCAD 2000
 90
        0
280
     0
281
     0
  0
CLASS
  1
LWPOLYLINE
  2
AcDbPolyline
  3
AutoCAD 2000
 90
        0
280
     0
281
     1
  0
CLASS
  1
HATCH
  2
AcDbHatch
  3
AutoCAD 2000
 90
        0
280
     0
281
     1
  0
CLASS
  1
XRECORD
  2
AcDbXrecord
  3
AutoCAD 2000
 90
        0
280
     0
281
     0
  0
CLASS
  1
LONG_TRANSACTION
  2
AcDbLongTransaction
  3
AutoCAD 2000
 90
        0
280
     0
281
     0
  0
CLASS
  1
LWPOLYLINE
  2
AcDbPolyline
  3
AutoCAD 2000
 90
        0
280
     0
281
     1
  0
CLASS
  1
HATCH
  2
AcDbHatch
  3
AutoCAD 2000
 90
        0
280
     0
281
     1
  0
CLASS
  1
XRECORD
  2
AcDbXrecord
  3
AutoCAD 2000
 90
        0
280
     0
281
     0
  0
CLASS
  1
LONG_TRANSACTION
  2
AcDbLongTransaction
  3
AutoCAD 2000
 90
        0
280
     0
281
     0
  0
CLASS
  1
LWPOLYLINE
  2
AcDbPolyline
  3
AutoCAD 2000
 90
        0
280
     0
281
     1
  0
CLASS
  1
HATCH
  2
AcDbHatch
  3
AutoCAD 2000
 90
        0
280
     0
281
     1
  0
CLASS
  1
XRECORD
  2
AcDbXrecord
  3
AutoCAD 2000
 90
        0
280
     0
281
     0
  0
CLASS
  1
LONG_TRANSACTION
  2
AcDbLongTransaction
  3
AutoCAD 2000
 90
        0
280
     0
281
     0
  0
CLASS
  1
LWPOLYLINE
  2
AcDbPolyline
  3
AutoCAD 2000
 90
        0
280
     0
281
     1
  0
CLASS
  1
HATCH
  2
AcDbHatch
  3
AutoCAD 2000
 90
        0
280
     0
281
     1
  0
CLASS
  1
XRECORD
  2
AcDbXrecord
  3
AutoCAD 2000
 90
        0
280
     0
281
     0
  0
CLASS
  1
LONG_TRANSACTION
  2
AcDbLongTransaction
  3
AutoCAD 2000
 90
        0
280
     0
281
     0
  0
CLASS
  1
LWPOLYLINE
  2
AcDbPolyline
  3
AutoCAD 2000
 90
        0
280
     0
281
     1
  0
CLASS
  1
HATCH
  2
AcDbHatch
  3
AutoCAD 2000
 90
        0
280
     0
281
     1
  0
CLASS
  1
XRECORD
  2
AcDbXrecord
  3
AutoCAD 2000
 90
        0
280
     0
281
     0
  0
CLASS
  1
LONG_TRANSACTION
  2
AcDbLongTransaction
  3
AutoCAD 2000
 90
        0
280
     0
281
     0
  0
CLASS
  1
LWPOLYLINE
  2
AcDbPolyline
  3
AutoCAD 2000
 90
        0
280
     0
281
     1
  0
CLASS
  1
HATCH
  2
AcDbHatch
  3
AutoCAD 2000
 90
        0
280
     0
281
     1
  0
CLASS
  1
XRECORD
  2
AcDbXrecord
  3
AutoCAD 2000
 90
        0
280
     0
281
     0
  0
CLASS
  1
LONG_TRANSACTION
  2
AcDbLongTransaction
  3
AutoCAD 2000
 90
        0
280
     0
281
     0
  0
CLASS
  1
LWPOLYLINE
  2
AcDbPolyline
  3
AutoCAD 2000
 90
        0
280
     0
281
     1
  0
CLASS
  1
HATCH
  2
AcDbHatch
  3
AutoCAD 2000
 90
        0
280
     0
281
     1
  0
CLASS
  1
XRECORD
  2
AcDbXrecord
  3
AutoCAD 2000
 90
        0
280
     0
281
     0
  0
CLASS
  1
LONG_TRANSACTION
  2
AcDbLongTransaction
  3
AutoCAD 2000
 90
        0
280
     0
281
     0
  0
CLASS
  1
LWPOLYLINE
  2
AcDbPolyline
  3
AutoCAD 2000
 90
        0
280
     0
281
     1
  0
CLASS
  1
HATCH
  2
AcDbHatch
  3
AutoCAD 2000
 90
        0
280
     0
281
     1
  0
CLASS
  1
XRECORD
  2
AcDbXrecord
  3
AutoCAD 2000
 90
        0
280
     0
281
     0
  0
CLASS
  1
LONG_TRANSACTION
  2
AcDbLongTransaction
  3
AutoCAD 2000
 90
        0
280
     0
281
     0
  0
CLASS
  1
LWPOLYLINE
  2
AcDbPolyline
  3
AutoCAD 2000
 90
        0
280
     0
281
     1
  0
CLASS
  1
HATCH
  2
AcDbHatch
  3
AutoCAD 2000
 90
        0
280
     0
281
     1
  0
CLASS
  1
XRECORD
  2
AcDbXrecord
  3
AutoCAD 2000
 90
        0
280
     0
281
     0
  0
ENDSEC
  0
SECTION
  2
TABLES
  0
TABLE
  2
VPORT
  5
8
330
0
100
AcDbSymbolTable
 70
     2
  0
VPORT
  5
5B0B
330
8
100
AcDbSymbolTableRecord
100
AcDbViewportTableRecord
  2
*ACTIVE
 70
     0
 10
0.0
 20
0.0
 11
1.0
 21
1.0
 12
211.831410527111
 22
136.2698802866942
 13
0.0
 23
0.0
 14
5.0
 24
5.0
 15
0.0
 25
0.0
 16
0.0
 26
0.0
 36
1.0
 17
0.0
 27
0.0
 37
0.0
 40
350.7779630663305
 41
1.570153061224489
 42
50.0
 43
0.0
 44
0.0
 50
0.0
 51
0.0
 71
     0
 72
   100
 73
     1
 74
     0
 75
     0
 76
     0
 77
     0
 78
     0
  0
ENDTAB
  0
TABLE
  2
LTYPE
  5
5
330
0
100
AcDbSymbolTable
 70
     4
  0
LTYPE
  5
14
330
5
100
AcDbSymbolTableRecord
100
AcDbLinetypeTableRecord
  2
BYBLOCK
 70
     0
  3

 72
    65
 73
     0
 40
0.0
  0
LTYPE
  5
15
330
5
100
AcDbSymbolTableRecord
100
AcDbLinetypeTableRecord
  2
BYLAYER
 70
     0
  3

 72
    65
 73
     0
 40
0.0
  0
LTYPE
  5
16
330
5
100
AcDbSymbolTableRecord
100
AcDbLinetypeTableRecord
  2
CONTINUOUS
 70
     0
  3
Solid line
 72
    65
 73
     0
 40
0.0
  0
LTYPE
  5
120
330
5
100
AcDbSymbolTableRecord
100
AcDbLinetypeTableRecord
  2
CENTER
 70
     0
  3
____ _ ____ _ ____ _ ____ _ ____ _ ____ _ ____ 
 72
    65
 73
     4
 40
2.0
 49
1.25
 74
     0
 49
-0.25
 74
     0
 49
0.25
 74
     0
 49
-0.25
 74
     0
  0
LTYPE
  5
122
330
5
100
AcDbSymbolTableRecord
100
AcDbLinetypeTableRecord
  2
PHANTOM
 70
     0
  3
______  __  __  ______  __  __  ______  __  __ 
 72
    65
 73
     6
 40
2.5
 49
1.25
 74
     0
 49
-0.25
 74
     0
 49
0.25
 74
     0
 49
-0.25
 74
     0
 49
0.25
 74
     0
 49
-0.25
 74
     0
  0
LTYPE
  5
2BBB
330
5
100
AcDbSymbolTableRecord
100
AcDbLinetypeTableRecord
  2
DASHED
 70
     0
  3
__ __ __ __ __ __ __ __ __ __ __ __ __ __ __ __
 72
    65
 73
     2
 40
0.75
 49
0.5
 74
     0
 49
-0.25
 74
     0
  0
ENDTAB
  0
TABLE
  2
LAYER
  5
2
330
0
100
AcDbSymbolTable
 70
     9
  0
LAYER
  5
F
330
2
100
AcDbSymbolTableRecord
100
AcDbLayerTableRecord
  2
0
 70
     0
 62
     7
  6
CONTINUOUS
  0
LAYER
  5
62
330
2
100
AcDbSymbolTableRecord
100
AcDbLayerTableRecord
  2
VIEWPORT
 70
     0
 62
     7
  6
CONTINUOUS
  0
LAYER
  5
6B
330
2
100
AcDbSymbolTableRecord
100
AcDbLayerTableRecord
  2
ZUWAKU
 70
     0
 62
     7
  6
CONTINUOUS
  0
LAYER
  5
3EF
330
2
100
AcDbSymbolTableRecord
100
AcDbLayerTableRecord
  2
DEFPOINTS
 70
     0
 62
     7
  6
CONTINUOUS
  0
LAYER
  5
54D
330
2
100
AcDbSymbolTableRecord
100
AcDbLayerTableRecord
  2
SEIHIN
 70
     0
 62
     3
  6
CONTINUOUS
  0
LAYER
  5
54E
330
2
100
AcDbSymbolTableRecord
100
AcDbLayerTableRecord
  2
SUNPOU
 70
     0
 62
     4
  6
CONTINUOUS
  0
LAYER
  5
54F
330
2
100
AcDbSymbolTableRecord
100
AcDbLayerTableRecord
  2
CENTER_L
 70
     0
 62
     1
  6
CENTER
  0
LAYER
  5
550
330
2
100
AcDbSymbolTableRecord
100
AcDbLayerTableRecord
  2
NOKITOI
 70
     0
 62
     8
  6
PHANTOM
  0
LAYER
  5
2988
330
2
100
AcDbSymbolTableRecord
100
AcDbLayerTableRecord
  2
MOJI
 70
     0
 62
     2
  6
CONTINUOUS
  0
ENDTAB
  0
TABLE
  2
STYLE
  5
3
330
0
100
AcDbSymbolTable
 70
     2
  0
STYLE
  5
10
330
3
100
AcDbSymbolTableRecord
100
AcDbTextStyleTableRecord
  2
STANDARD
 70
     0
 40
0.0
 41
1.0
 50
0.0
 71
     0
 42
3.0
  3
TXT
  4
c:\PROGRAM FILES\AUTOCAD LT\ms\bigfont.shx
  0
STYLE
  5
2989
330
3
100
AcDbSymbolTableRecord
100
AcDbTextStyleTableRecord
  2
ｽﾀｲﾙ1
 70
     0
 40
0.0
 41
1.0
 50
0.0
 71
     0
 42
2.5
  3
MS PGothic.ttf
  4

1001
ACAD
1000
MS PGothic
1071
    32818
  0
ENDTAB
  0
TABLE
  2
VIEW
  5
6
330
0
100
AcDbSymbolTable
 70
     0
  0
ENDTAB
  0
TABLE
  2
UCS
  5
7
330
0
100
AcDbSymbolTable
 70
     0
  0
ENDTAB
  0
TABLE
  2
APPID
  5
9
330
0
100
AcDbSymbolTable
 70
     1
  0
APPID
  5
11
330
9
100
AcDbSymbolTableRecord
100
AcDbRegAppTableRecord
  2
ACAD
 70
     0
  0
ENDTAB
  0
TABLE
  2
DIMSTYLE
  5
A
330
0
100
AcDbSymbolTable
 70
     1
  0
DIMSTYLE
105
1D
102
{ACAD_REACTORS
330
57E3
330
57E4
330
57E5
330
57E8
330
57F6
330
57F7
330
58B9
330
5906
330
590A
330
5947
330
5948
330
5949
330
5981
330
5989
330
59AE
102
}
330
A
100
AcDbSymbolTableRecord
100
AcDbDimStyleTableRecord
  2
STANDARD
 70
     0
  3

  4

  5

  6

  7

 40
1.0
 41
0.18
 42
0.0625
 43
0.38
 44
0.18
 45
0.0
 46
0.0
 47
0.0
 48
0.0
140
0.18
141
0.09
142
0.0
143
25.4
144
1.0
145
0.0
146
1.0
147
0.09
 71
     0
 72
     0
 73
     1
 74
     1
 75
     0
 76
     0
 77
     0
 78
     0
170
     0
171
     2
172
     0
173
     0
174
     0
175
     0
176
     0
177
     0
178
     0
270
     2
271
     4
272
     4
273
     2
274
     2
340
10
275
     0
280
     0
281
     0
282
     0
283
     1
284
     0
285
     0
286
     0
287
     3
288
     0
  0
ENDTAB
  0
TABLE
  2
BLOCK_RECORD
  5
1
330
0
100
AcDbSymbolTable
 70
    16
  0
BLOCK_RECORD
  5
1A
102
{ACAD_XDICTIONARY
360
7A2
102
}
330
1
100
AcDbSymbolTableRecord
100
AcDbBlockTableRecord
  2
*MODEL_SPACE
  0
BLOCK_RECORD
  5
17
102
{ACAD_XDICTIONARY
360
7A0
102
}
330
1
100
AcDbSymbolTableRecord
100
AcDbBlockTableRecord
  2
*PAPER_SPACE
  0
BLOCK_RECORD
  5
B2
330
1
100
AcDbSymbolTableRecord
100
AcDbBlockTableRecord
  2
_OPEN
  0
BLOCK_RECORD
  5
59BE
330
1
100
AcDbSymbolTableRecord
100
AcDbBlockTableRecord
  2
*D1
  0
BLOCK_RECORD
  5
59CC
330
1
100
AcDbSymbolTableRecord
100
AcDbBlockTableRecord
  2
*D2
  0
BLOCK_RECORD
  5
59D8
330
1
100
AcDbSymbolTableRecord
100
AcDbBlockTableRecord
  2
*D3
  0
BLOCK_RECORD
  5
59E4
330
1
100
AcDbSymbolTableRecord
100
AcDbBlockTableRecord
  2
*D4
  0
BLOCK_RECORD
  5
59F0
330
1
100
AcDbSymbolTableRecord
100
AcDbBlockTableRecord
  2
*D5
  0
BLOCK_RECORD
  5
59FC
330
1
100
AcDbSymbolTableRecord
100
AcDbBlockTableRecord
  2
*D6
  0
BLOCK_RECORD
  5
5A08
330
1
100
AcDbSymbolTableRecord
100
AcDbBlockTableRecord
  2
*D7
  0
BLOCK_RECORD
  5
5A14
330
1
100
AcDbSymbolTableRecord
100
AcDbBlockTableRecord
  2
*D8
  0
BLOCK_RECORD
  5
5A22
330
1
100
AcDbSymbolTableRecord
100
AcDbBlockTableRecord
  2
*D9
  0
BLOCK_RECORD
  5
5A2E
330
1
100
AcDbSymbolTableRecord
100
AcDbBlockTableRecord
  2
*D10
  0
BLOCK_RECORD
  5
5A3A
330
1
100
AcDbSymbolTableRecord
100
AcDbBlockTableRecord
  2
*D11
  0
BLOCK_RECORD
  5
5A46
330
1
100
AcDbSymbolTableRecord
100
AcDbBlockTableRecord
  2
*D12
  0
BLOCK_RECORD
  5
5A52
330
1
100
AcDbSymbolTableRecord
100
AcDbBlockTableRecord
  2
*D13
  0
BLOCK_RECORD
  5
5A5E
330
1
100
AcDbSymbolTableRecord
100
AcDbBlockTableRecord
  2
*D14
  0
BLOCK_RECORD
  5
5A6C
330
1
100
AcDbSymbolTableRecord
100
AcDbBlockTableRecord
  2
*D15
  0
ENDTAB
  0
ENDSEC
  0
SECTION
  2
BLOCKS
  0
BLOCK
  5
1B
330
1A
100
AcDbEntity
  8
0
100
AcDbBlockBegin
  2
*MODEL_SPACE
 70
     0
 10
0.0
 20
0.0
 30
0.0
  3
*MODEL_SPACE
  1

  0
ENDBLK
  5
1C
330
1A
100
AcDbEntity
  8
0
100
AcDbBlockEnd
  0
BLOCK
  5
18
330
17
100
AcDbEntity
 67
     1
  8
0
100
AcDbBlockBegin
  2
*PAPER_SPACE
 70
     0
 10
0.0
 20
0.0
 30
0.0
  3
*PAPER_SPACE
  1

  0
ENDBLK
  5
19
330
17
100
AcDbEntity
 67
     1
  8
0
100
AcDbBlockEnd
  0
BLOCK
  5
B3
330
B2
100
AcDbEntity
  8
0
100
AcDbBlockBegin
  2
_OPEN
 70
     0
 10
0.0
 20
0.0
 30
0.0
  3
_OPEN
  1

  0
LINE
  5
B4
330
B2
100
AcDbEntity
  8
0
  6
BYBLOCK
 62
     0
100
AcDbLine
 10
-1.0
 20
0.1666666666666666
 30
0.0
 11
0.0
 21
0.0
 31
0.0
  0
LINE
  5
B5
330
B2
100
AcDbEntity
  8
0
  6
BYBLOCK
 62
     0
100
AcDbLine
 10
0.0
 20
0.0
 30
0.0
 11
-1.0
 21
-0.1666666666666666
 31
0.0
  0
LINE
  5
B6
330
B2
100
AcDbEntity
  8
0
  6
BYBLOCK
 62
     0
100
AcDbLine
 10
0.0
 20
0.0
 30
0.0
 11
-1.0
 21
0.0
 31
0.0
  0
ENDBLK
  5
B7
330
B2
100
AcDbEntity
  8
0
100
AcDbBlockEnd
  0
BLOCK
  5
59CA
330
59BE
100
AcDbEntity
  8
0
100
AcDbBlockBegin
  2
*D1
 70
     1
 10
0.0
 20
0.0
 30
0.0
  3
*D1
  1

  0
LINE
  5
5A78
330
59BE
100
AcDbEntity
  8
SUNPOU
100
AcDbLine
 10
64.27513529531792
 20
88.18447953750824
 30
0.0
 11
40.12218152247825
 21
88.18447953750824
 31
0.0
  0
LINE
  5
5A79
330
59BE
100
AcDbEntity
  8
SUNPOU
100
AcDbLine
 10
230.1909069842943
 20
86.74724256834588
 30
0.0
 11
40.12218152247824
 21
86.74724256834593
 31
0.0
  0
LINE
  5
5A7A
330
59BE
100
AcDbEntity
  8
SUNPOU
100
AcDbLine
 10
41.62218152247826
 20
91.18447953750825
 30
0.0
 11
41.62218152247826
 21
94.18447953750826
 31
0.0
  0
LINE
  5
5A7B
330
59BE
100
AcDbEntity
  8
SUNPOU
100
AcDbLine
 10
41.62218152247826
 20
83.74724256834594
 30
0.0
 11
41.62218152247825
 21
77.74724256834594
 31
0.0
  0
LINE
  5
5A7C
330
59BE
100
AcDbEntity
  8
SUNPOU
100
AcDbLine
 10
41.62218152247826
 20
88.18447953750824
 30
0.0
 11
41.62218152247826
 21
86.74724256834593
 31
0.0
  0
INSERT
  5
5A7D
330
59BE
100
AcDbEntity
  8
SUNPOU
100
AcDbBlockReference
  2
_OPEN
 10
41.62218152247826
 20
88.18447953750824
 30
0.0
 41
3.0
 42
3.0
 43
3.0
 50
270.0
  0
INSERT
  5
5A7E
330
59BE
100
AcDbEntity
  8
SUNPOU
100
AcDbBlockReference
  2
_OPEN
 10
41.62218152247826
 20
86.74724256834593
 30
0.0
 41
3.0
 42
3.0
 43
3.0
 50
90.0
  0
MTEXT
  5
5A7F
330
59BE
100
AcDbEntity
  8
SUNPOU
100
AcDbMText
 10
39.12218152247824
 20
79.24724256834595
 30
0.0
 40
3.0
 41
0.0
 71
     5
 72
     1
  1
\A1;1
 11
0.0000000000000001
 21
1.0
 31
0.0
1001
ACAD
1000
MTEXTBEGIN
1070
    73
1070
     1
1070
    44
1040
1.0
1070
    74
1070
     0
1000
MTEXTEND
  0
POINT
  5
5A80
330
59BE
100
AcDbEntity
  8
DEFPOINTS
 62
     0
100
AcDbPoint
 10
67.27513529531792
 20
88.18447953750824
 30
0.0
  0
POINT
  5
5A81
330
59BE
100
AcDbEntity
  8
DEFPOINTS
 62
     0
100
AcDbPoint
 10
233.1909069842943
 20
86.74724256834588
 30
0.0
  0
POINT
  5
5A82
330
59BE
100
AcDbEntity
  8
DEFPOINTS
 62
     0
100
AcDbPoint
 10
41.62218152247826
 20
86.74724256834593
 30
0.0
  0
ENDBLK
  5
59CB
330
59BE
100
AcDbEntity
  8
0
100
AcDbBlockEnd
  0
BLOCK
  5
59D6
330
59CC
100
AcDbEntity
  8
0
100
AcDbBlockBegin
  2
*D2
 70
     1
 10
0.0
 20
0.0
 30
0.0
  3
*D2
  1

  0
LINE
  5
5A83
330
59CC
100
AcDbEntity
  8
SUNPOU
100
AcDbLine
 10
209.0096064792006
 20
132.8803619716808
 30
0.0
 11
229.4843471078537
 21
145.1652063488725
 31
0.0
  0
LINE
  5
5A84
330
59CC
100
AcDbEntity
  8
SUNPOU
100
AcDbLine
 10
235.763385761432
 20
88.29072983462845
 30
0.0
 11
256.238126390085
 21
100.5755742118202
 31
0.0
  0
LINE
  5
5A85
330
59CC
100
AcDbEntity
  8
SUNPOU
100
AcDbLine
 10
229.7415949855674
 20
141.8209839385936
 30
0.0
 11
253.4083997352336
 21
102.3763093558165
 31
0.0
  0
INSERT
  5
5A86
330
59CC
100
AcDbEntity
  8
SUNPOU
100
AcDbBlockReference
  2
_OPEN
 10
228.1981077192849
 20
144.3934627157313
 30
0.0
 41
3.0
 42
3.0
 43
3.0
 50
120.9637565320734
  0
INSERT
  5
5A87
330
59CC
100
AcDbEntity
  8
SUNPOU
100
AcDbBlockReference
  2
_OPEN
 10
254.9518870015162
 20
99.80383057867896
 30
0.0
 41
3.0
 42
3.0
 43
3.0
 50
300.9637565320734
  0
MTEXT
  5
5A88
330
59CC
100
AcDbEntity
  8
SUNPOU
100
AcDbMText
 10
243.7187296746819
 20
123.3848860357739
 30
0.0
 40
3.0
 41
0.0
 71
     5
 72
     1
  1
\A1;52
 11
0.5144957554275253
 21
-0.8574929257125448
 31
0.0
1001
ACAD
1000
MTEXTBEGIN
1070
    73
1070
     1
1070
    44
1040
1.0
1070
    74
1070
     0
1000
MTEXTEND
  0
POINT
  5
5A89
330
59CC
100
AcDbEntity
  8
DEFPOINTS
 62
     0
100
AcDbPoint
 10
206.437127702063
 20
131.3368747053982
 30
0.0
  0
POINT
  5
5A8A
330
59CC
100
AcDbEntity
  8
DEFPOINTS
 62
     0
100
AcDbPoint
 10
233.1909069842943
 20
86.74724256834586
 30
0.0
  0
POINT
  5
5A8B
330
59CC
100
AcDbEntity
  8
DEFPOINTS
 62
     0
100
AcDbPoint
 10
254.9518870015162
 20
99.80383057867896
 30
0.0
  0
ENDBLK
  5
59D7
330
59CC
100
AcDbEntity
  8
0
100
AcDbBlockEnd
  0
BLOCK
  5
59E2
330
59D8
100
AcDbEntity
  8
0
100
AcDbBlockBegin
  2
*D3
 70
     1
 10
0.0
 20
0.0
 30
0.0
  3
*D3
  1

  0
LINE
  5
5A8C
330
59D8
100
AcDbEntity
  8
SUNPOU
100
AcDbLine
 10
206.351378417017
 20
112.6263790652961
 30
0.0
 11
193.6352069712532
 21
104.9966761994031
 31
0.0
  0
LINE
  5
5A8D
330
59D8
100
AcDbEntity
  8
SUNPOU
100
AcDbLine
 10
224.873225607017
 20
81.75663374229618
 30
0.0
 11
212.1570541612532
 21
74.12693087640322
 31
0.0
  0
LINE
  5
5A8E
330
59D8
100
AcDbEntity
  8
SUNPOU
100
AcDbLine
 10
196.4649336259416
 20
103.1959410551507
 30
0.0
 11
211.8998062838421
 21
77.47115328670543
 31
0.0
  0
INSERT
  5
5A8F
330
59D8
100
AcDbEntity
  8
SUNPOU
100
AcDbBlockReference
  2
_OPEN
 10
194.9214463598919
 20
105.768419832428
 30
0.0
 41
3.0
 42
3.0
 43
3.0
 50
120.9637565268875
  0
INSERT
  5
5A90
330
59D8
100
AcDbEntity
  8
SUNPOU
100
AcDbBlockReference
  2
_OPEN
 10
213.4432935498919
 20
74.89867450942809
 30
0.0
 41
3.0
 42
3.0
 43
3.0
 50
300.9637565268875
  0
MTEXT
  5
5A91
330
59D8
100
AcDbEntity
  8
SUNPOU
100
AcDbMText
 10
206.3261022692897
 20
91.61978655930283
 30
0.0
 40
3.0
 41
0.0
 71
     5
 72
     1
  1
\A1;36
 11
0.5144957553499127
 21
-0.8574929257591124
 31
0.0
1001
ACAD
1000
MTEXTBEGIN
1070
    73
1070
     1
1070
    44
1040
1.0
1070
    74
1070
     0
1000
MTEXTEND
  0
POINT
  5
5A92
330
59D8
100
AcDbEntity
  8
DEFPOINTS
 62
     0
100
AcDbPoint
 10
208.9238571942943
 20
114.1698663313458
 30
0.0
  0
POINT
  5
5A93
330
59D8
100
AcDbEntity
  8
DEFPOINTS
 62
     0
100
AcDbPoint
 10
227.4457043842943
 20
83.30012100834592
 30
0.0
  0
POINT
  5
5A94
330
59D8
100
AcDbEntity
  8
DEFPOINTS
 62
     0
100
AcDbPoint
 10
213.4432935498919
 20
74.89867450942809
 30
0.0
  0
ENDBLK
  5
59E3
330
59D8
100
AcDbEntity
  8
0
100
AcDbBlockEnd
  0
BLOCK
  5
59EE
330
59E4
100
AcDbEntity
  8
0
100
AcDbBlockBegin
  2
*D4
 70
     1
 10
0.0
 20
0.0
 30
0.0
  3
*D4
  1

  0
LINE
  5
5A95
330
59E4
100
AcDbEntity
  8
SUNPOU
100
AcDbLine
 10
209.2845533414844
 20
129.5071716258729
 30
0.0
 11
209.2845533414844
 21
155.0485712149657
 31
0.0
  0
LINE
  5
5A96
330
59E4
100
AcDbEntity
  8
SUNPOU
100
AcDbLine
 10
224.3394502615227
 20
129.4996704442131
 30
0.0
 11
224.3394502615227
 21
155.0485712149657
 31
0.0
  0
LINE
  5
5A97
330
59E4
100
AcDbEntity
  8
SUNPOU
100
AcDbLine
 10
212.2845533414844
 20
153.5485712149657
 30
0.0
 11
221.3394502615226
 21
153.5485712149657
 31
0.0
  0
INSERT
  5
5A98
330
59E4
100
AcDbEntity
  8
SUNPOU
100
AcDbBlockReference
  2
_OPEN
 10
209.2845533414844
 20
153.5485712149657
 30
0.0
 41
3.0
 42
3.0
 43
3.0
 50
180.0
  0
INSERT
  5
5A99
330
59E4
100
AcDbEntity
  8
SUNPOU
100
AcDbBlockReference
  2
_OPEN
 10
224.3394502615227
 20
153.5485712149657
 30
0.0
 41
3.0
 42
3.0
 43
3.0
  0
MTEXT
  5
5A9A
330
59E4
100
AcDbEntity
  8
SUNPOU
100
AcDbMText
 10
216.8120018015035
 20
156.0485712149657
 30
0.0
 40
3.0
 41
0.0
 71
     5
 72
     1
  1
\A1;15
1001
ACAD
1000
MTEXTBEGIN
1070
    73
1070
     1
1070
    44
1040
1.0
1070
    74
1070
     0
1000
MTEXTEND
  0
POINT
  5
5A9B
330
59E4
100
AcDbEntity
  8
DEFPOINTS
 62
     0
100
AcDbPoint
 10
209.2845533414844
 20
126.5071716258729
 30
0.0
  0
POINT
  5
5A9C
330
59E4
100
AcDbEntity
  8
DEFPOINTS
 62
     0
100
AcDbPoint
 10
224.3394502615227
 20
126.4996704442131
 30
0.0
  0
POINT
  5
5A9D
330
59E4
100
AcDbEntity
  8
DEFPOINTS
 62
     0
100
AcDbPoint
 10
224.3394502615227
 20
153.5485712149657
 30
0.0
  0
ENDBLK
  5
59EF
330
59E4
100
AcDbEntity
  8
0
100
AcDbBlockEnd
  0
BLOCK
  5
59FA
330
59F0
100
AcDbEntity
  8
0
100
AcDbBlockBegin
  2
*D5
 70
     1
 10
0.0
 20
0.0
 30
0.0
  3
*D5
  1

  0
LINE
  5
5A9E
330
59F0
100
AcDbEntity
  8
SUNPOU
100
AcDbLine
 10
178.4933352942945
 20
91.48287953750838
 30
0.0
 11
178.4933352942945
 21
146.1663518082139
 31
0.0
  0
LINE
  5
5A9F
330
59F0
100
AcDbEntity
  8
SUNPOU
100
AcDbLine
 10
209.2845533414844
 20
129.5071716258729
 30
0.0
 11
209.2845533414844
 21
146.1663518082139
 31
0.0
  0
LINE
  5
5AA0
330
59F0
100
AcDbEntity
  8
SUNPOU
100
AcDbLine
 10
181.4933352942945
 20
144.6663518082138
 30
0.0
 11
206.2845533414844
 21
144.6663518082138
 31
0.0
  0
INSERT
  5
5AA1
330
59F0
100
AcDbEntity
  8
SUNPOU
100
AcDbBlockReference
  2
_OPEN
 10
178.4933352942945
 20
144.6663518082138
 30
0.0
 41
3.0
 42
3.0
 43
3.0
 50
180.0
  0
INSERT
  5
5AA2
330
59F0
100
AcDbEntity
  8
SUNPOU
100
AcDbBlockReference
  2
_OPEN
 10
209.2845533414844
 20
144.6663518082138
 30
0.0
 41
3.0
 42
3.0
 43
3.0
  0
MTEXT
  5
5AA3
330
59F0
100
AcDbEntity
  8
SUNPOU
100
AcDbMText
 10
193.8889443178895
 20
147.1663518082139
 30
0.0
 40
3.0
 41
0.0
 71
     5
 72
     1
  1
\A1;31
1001
ACAD
1000
MTEXTBEGIN
1070
    73
1070
     1
1070
    44
1040
1.0
1070
    74
1070
     0
1000
MTEXTEND
  0
POINT
  5
5AA4
330
59F0
100
AcDbEntity
  8
DEFPOINTS
 62
     0
100
AcDbPoint
 10
178.4933352942945
 20
88.48287953750839
 30
0.0
  0
POINT
  5
5AA5
330
59F0
100
AcDbEntity
  8
DEFPOINTS
 62
     0
100
AcDbPoint
 10
209.2845533414844
 20
126.5071716258729
 30
0.0
  0
POINT
  5
5AA6
330
59F0
100
AcDbEntity
  8
DEFPOINTS
 62
     0
100
AcDbPoint
 10
209.2845533414844
 20
144.6663518082138
 30
0.0
  0
ENDBLK
  5
59FB
330
59F0
100
AcDbEntity
  8
0
100
AcDbBlockEnd
  0
BLOCK
  5
5A06
330
59FC
100
AcDbEntity
  8
0
100
AcDbBlockBegin
  2
*D6
 70
     1
 10
0.0
 20
0.0
 30
0.0
  3
*D6
  1

  0
LINE
  5
5AA7
330
59FC
100
AcDbEntity
  8
SUNPOU
100
AcDbLine
 10
66.02508529429446
 20
89.93447953834584
 30
0.0
 11
66.02508529429446
 21
155.0485712149657
 31
0.0
  0
LINE
  5
5AA8
330
59FC
100
AcDbEntity
  8
SUNPOU
100
AcDbLine
 10
209.2845533414844
 20
129.5071716258729
 30
0.0
 11
209.2845533414844
 21
155.0485712149657
 31
0.0
  0
LINE
  5
5AA9
330
59FC
100
AcDbEntity
  8
SUNPOU
100
AcDbLine
 10
69.02508529429446
 20
153.5485712149657
 30
0.0
 11
206.2845533414844
 21
153.5485712149657
 31
0.0
  0
INSERT
  5
5AAA
330
59FC
100
AcDbEntity
  8
SUNPOU
100
AcDbBlockReference
  2
_OPEN
 10
66.02508529429446
 20
153.5485712149657
 30
0.0
 41
3.0
 42
3.0
 43
3.0
 50
180.0
  0
INSERT
  5
5AAB
330
59FC
100
AcDbEntity
  8
SUNPOU
100
AcDbBlockReference
  2
_OPEN
 10
209.2845533414844
 20
153.5485712149657
 30
0.0
 41
3.0
 42
3.0
 43
3.0
  0
MTEXT
  5
5AAC
330
59FC
100
AcDbEntity
  8
SUNPOU
100
AcDbMText
 10
137.6548193178894
 20
156.0485712149657
 30
0.0
 40
3.0
 41
0.0
 71
     5
 72
     1
  1
\A1;143
1001
ACAD
1000
MTEXTBEGIN
1070
    73
1070
     1
1070
    44
1040
1.0
1070
    74
1070
     0
1000
MTEXTEND
  0
POINT
  5
5AAD
330
59FC
100
AcDbEntity
  8
DEFPOINTS
 62
     0
100
AcDbPoint
 10
66.02508529429446
 20
86.93447953834583
 30
0.0
  0
POINT
  5
5AAE
330
59FC
100
AcDbEntity
  8
DEFPOINTS
 62
     0
100
AcDbPoint
 10
209.2845533414844
 20
126.5071716258729
 30
0.0
  0
POINT
  5
5AAF
330
59FC
100
AcDbEntity
  8
DEFPOINTS
 62
     0
100
AcDbPoint
 10
209.2845533414844
 20
153.5485712149657
 30
0.0
  0
ENDBLK
  5
5A07
330
59FC
100
AcDbEntity
  8
0
100
AcDbBlockEnd
  0
BLOCK
  5
5A12
330
5A08
100
AcDbEntity
  8
0
100
AcDbBlockBegin
  2
*D7
 70
     1
 10
0.0
 20
0.0
 30
0.0
  3
*D7
  1

  0
LINE
  5
5AB0
330
5A08
100
AcDbEntity
  8
SUNPOU
100
AcDbLine
 10
63.02508529429446
 20
223.3361756509479
 30
0.0
 11
40.12218152247829
 21
223.3361756509479
 31
0.0
  0
LINE
  5
5AB1
330
5A08
100
AcDbEntity
  8
SUNPOU
100
AcDbLine
 10
63.02508529429445
 20
201.3361756109478
 30
0.0
 11
40.12218152247828
 21
201.3361756109478
 31
0.0
  0
LINE
  5
5AB2
330
5A08
100
AcDbEntity
  8
SUNPOU
100
AcDbLine
 10
41.62218152247829
 20
220.3361756509479
 30
0.0
 11
41.62218152247828
 21
204.3361756109479
 31
0.0
  0
INSERT
  5
5AB3
330
5A08
100
AcDbEntity
  8
SUNPOU
100
AcDbBlockReference
  2
_OPEN
 10
41.62218152247829
 20
223.3361756509479
 30
0.0
 41
3.0
 42
3.0
 43
3.0
 50
90.0
  0
INSERT
  5
5AB4
330
5A08
100
AcDbEntity
  8
SUNPOU
100
AcDbBlockReference
  2
_OPEN
 10
41.62218152247828
 20
201.3361756109478
 30
0.0
 41
3.0
 42
3.0
 43
3.0
 50
270.0
  0
MTEXT
  5
5AB5
330
5A08
100
AcDbEntity
  8
SUNPOU
100
AcDbMText
 10
39.12218152247826
 20
212.3361756309479
 30
0.0
 40
3.0
 41
0.0
 71
     5
 72
     1
  1
\A1;22
 11
0.0000000000000001
 21
1.0
 31
0.0
1001
ACAD
1000
MTEXTBEGIN
1070
    73
1070
     1
1070
    44
1040
1.0
1070
    74
1070
     0
1000
MTEXTEND
  0
POINT
  5
5AB6
330
5A08
100
AcDbEntity
  8
DEFPOINTS
 62
     0
100
AcDbPoint
 10
66.02508529429446
 20
223.3361756509478
 30
0.0
  0
POINT
  5
5AB7
330
5A08
100
AcDbEntity
  8
DEFPOINTS
 62
     0
100
AcDbPoint
 10
66.02508529429446
 20
201.3361756109478
 30
0.0
  0
POINT
  5
5AB8
330
5A08
100
AcDbEntity
  8
DEFPOINTS
 62
     0
100
AcDbPoint
 10
41.62218152247828
 20
201.3361756109478
 30
0.0
  0
ENDBLK
  5
5A13
330
5A08
100
AcDbEntity
  8
0
100
AcDbBlockEnd
  0
BLOCK
  5
5A20
330
5A14
100
AcDbEntity
  8
0
100
AcDbBlockBegin
  2
*D8
 70
     1
 10
0.0
 20
0.0
 30
0.0
  3
*D8
  1

  0
LINE
  5
5AB9
330
5A14
100
AcDbEntity
  8
SUNPOU
100
AcDbLine
 10
312.7983408586347
 20
140.9257499689595
 30
0.0
 11
302.6056043520861
 21
134.810108066442
 31
0.0
  0
LINE
  5
5ABA
330
5A14
100
AcDbEntity
  8
SUNPOU
100
AcDbLine
 10
315.6280675124822
 20
136.209538878125
 30
0.0
 11
305.4353310059336
 21
130.0938969756075
 31
0.0
  0
LINE
  5
5ABB
330
5A14
100
AcDbEntity
  8
SUNPOU
100
AcDbLine
 10
302.348356474713
 20
138.1543304767471
 30
0.0
 11
300.8048692086923
 21
140.7268092540419
 31
0.0
  0
LINE
  5
5ABC
330
5A14
100
AcDbEntity
  8
SUNPOU
100
AcDbLine
 10
308.2650576606017
 20
128.293161831323
 30
0.0
 11
309.8085449266223
 21
125.7206830540282
 31
0.0
  0
LINE
  5
5ABD
330
5A14
100
AcDbEntity
  8
SUNPOU
100
AcDbLine
 10
303.8918437407335
 20
135.5818516994523
 30
0.0
 11
306.7215703945811
 21
130.8656406086178
 31
0.0
  0
INSERT
  5
5ABE
330
5A14
100
AcDbEntity
  8
SUNPOU
100
AcDbBlockReference
  2
_OPEN
 10
303.8918437407335
 20
135.5818516994523
 30
0.0
 41
3.0
 42
3.0
 43
3.0
 50
300.9637565262388
  0
INSERT
  5
5ABF
330
5A14
100
AcDbEntity
  8
SUNPOU
100
AcDbBlockReference
  2
_OPEN
 10
306.7215703945811
 20
130.8656406086178
 30
0.0
 41
3.0
 42
3.0
 43
3.0
 50
120.9637565262388
  0
MTEXT
  5
5AC0
330
5A14
100
AcDbEntity
  8
SUNPOU
100
AcDbMText
 10
307.4504393820696
 20
134.5099855423856
 30
0.0
 40
3.0
 41
0.0
 71
     5
 72
     1
  1
\A1;6
 11
0.5144957553402041
 21
-0.8574929257649376
 31
0.0
1001
ACAD
1000
MTEXTBEGIN
1070
    73
1070
     1
1070
    44
1040
1.0
1070
    74
1070
     0
1000
MTEXTEND
  0
POINT
  5
5AC1
330
5A14
100
AcDbEntity
  8
DEFPOINTS
 62
     0
100
AcDbPoint
 10
315.3708196359295
 20
142.4692372349801
 30
0.0
  0
POINT
  5
5AC2
330
5A14
100
AcDbEntity
  8
DEFPOINTS
 62
     0
100
AcDbPoint
 10
318.200546289777
 20
137.7530261441456
 30
0.0
  0
POINT
  5
5AC3
330
5A14
100
AcDbEntity
  8
DEFPOINTS
 62
     0
100
AcDbPoint
 10
306.7215703945811
 20
130.8656406086178
 30
0.0
  0
ENDBLK
  5
5A21
330
5A14
100
AcDbEntity
  8
0
100
AcDbBlockEnd
  0
BLOCK
  5
5A2C
330
5A22
100
AcDbEntity
  8
0
100
AcDbBlockBegin
  2
*D9
 70
     1
 10
0.0
 20
0.0
 30
0.0
  3
*D9
  1

  0
LINE
  5
5AC4
330
5A22
100
AcDbEntity
  8
SUNPOU
100
AcDbLine
 10
297.1062203219666
 20
167.079284202776
 30
0.0
 11
279.0809713181304
 21
156.2641348029706
 31
0.0
  0
LINE
  5
5AC5
330
5A22
100
AcDbEntity
  8
SUNPOU
100
AcDbLine
 10
315.6280675124822
 20
136.209538878125
 30
0.0
 11
297.602818508646
 21
125.3943894783196
 31
0.0
  0
LINE
  5
5AC6
330
5A22
100
AcDbEntity
  8
SUNPOU
100
AcDbLine
 10
281.9106979727985
 20
154.4633996586861
 30
0.0
 11
297.3455706312728
 21
128.7386118886247
 31
0.0
  0
INSERT
  5
5AC7
330
5A22
100
AcDbEntity
  8
SUNPOU
100
AcDbBlockReference
  2
_OPEN
 10
280.3672107067778
 20
157.0358784359809
 30
0.0
 41
3.0
 42
3.0
 43
3.0
 50
120.9637565262392
  0
INSERT
  5
5AC8
330
5A22
100
AcDbEntity
  8
SUNPOU
100
AcDbBlockReference
  2
_OPEN
 10
298.8890578972934
 20
126.1661331113299
 30
0.0
 41
3.0
 42
3.0
 43
3.0
 50
300.9637565262392
  0
MTEXT
  5
5AC9
330
5A22
100
AcDbEntity
  8
SUNPOU
100
AcDbMText
 10
291.7718666164479
 20
142.8872451620059
 30
0.0
 40
3.0
 41
0.0
 71
     5
 72
     1
  1
\A1;36
 11
0.5144957553402099
 21
-0.8574929257649344
 31
0.0
1001
ACAD
1000
MTEXTBEGIN
1070
    73
1070
     1
1070
    44
1040
1.0
1070
    74
1070
     0
1000
MTEXTEND
  0
POINT
  5
5ACA
330
5A22
100
AcDbEntity
  8
DEFPOINTS
 62
     0
100
AcDbPoint
 10
299.6786990992614
 20
168.6227714687967
 30
0.0
  0
POINT
  5
5ACB
330
5A22
100
AcDbEntity
  8
DEFPOINTS
 62
     0
100
AcDbPoint
 10
318.200546289777
 20
137.7530261441457
 30
0.0
  0
POINT
  5
5ACC
330
5A22
100
AcDbEntity
  8
DEFPOINTS
 62
     0
100
AcDbPoint
 10
298.8890578972934
 20
126.1661331113299
 30
0.0
  0
ENDBLK
  5
5A2D
330
5A22
100
AcDbEntity
  8
0
100
AcDbBlockEnd
  0
BLOCK
  5
5A38
330
5A2E
100
AcDbEntity
  8
0
100
AcDbBlockBegin
  2
*D10
 70
     1
 10
0.0
 20
0.0
 30
0.0
  3
*D10
  1

  0
LINE
  5
5ACD
330
5A2E
100
AcDbEntity
  8
SUNPOU
100
AcDbLine
 10
308.1250044086889
 20
168.1511503641818
 30
0.0
 11
289.0409655495353
 21
199.9578817580606
 31
0.0
  0
LINE
  5
5ACE
330
5A2E
100
AcDbEntity
  8
SUNPOU
100
AcDbLine
 10
341.5672284686888
 20
188.2164848241818
 30
0.0
 11
322.4831896095353
 21
220.0232162180606
 31
0.0
  0
LINE
  5
5ACF
330
5A2E
100
AcDbEntity
  8
SUNPOU
100
AcDbLine
 10
292.3851879596785
 20
200.2151296375391
 30
0.0
 11
320.6824544670321
 21
217.193489562259
 31
0.0
  0
INSERT
  5
5AD0
330
5A2E
100
AcDbEntity
  8
SUNPOU
100
AcDbBlockReference
  2
_OPEN
 10
289.8127091833553
 20
198.671642369899
 30
0.0
 41
3.0
 42
3.0
 43
3.0
 50
210.9637565623078
  0
INSERT
  5
5AD1
330
5A2E
100
AcDbEntity
  8
SUNPOU
100
AcDbBlockReference
  2
_OPEN
 10
323.2549332433553
 20
218.736976829899
 30
0.0
 41
3.0
 42
3.0
 43
3.0
 50
30.96375656230781
  0
MTEXT
  5
5AD2
330
5A2E
100
AcDbEntity
  8
SUNPOU
100
AcDbMText
 10
305.2475818236553
 20
210.8480419135017
 30
0.0
 40
3.0
 41
0.0
 71
     5
 72
     1
  1
\A1;39
 11
0.8574929254410509
 21
0.5144957558800153
 31
0.0
1001
ACAD
1000
MTEXTBEGIN
1070
    73
1070
     1
1070
    44
1040
1.0
1070
    74
1070
     0
1000
MTEXTEND
  0
POINT
  5
5AD3
330
5A2E
100
AcDbEntity
  8
DEFPOINTS
 62
     0
100
AcDbPoint
 10
309.6684916763289
 20
165.5786715878587
 30
0.0
  0
POINT
  5
5AD4
330
5A2E
100
AcDbEntity
  8
DEFPOINTS
 62
     0
100
AcDbPoint
 10
343.1107157363288
 20
185.6440060478587
 30
0.0
  0
POINT
  5
5AD5
330
5A2E
100
AcDbEntity
  8
DEFPOINTS
 62
     0
100
AcDbPoint
 10
323.2549332433553
 20
218.736976829899
 30
0.0
  0
ENDBLK
  5
5A39
330
5A2E
100
AcDbEntity
  8
0
100
AcDbBlockEnd
  0
BLOCK
  5
5A44
330
5A3A
100
AcDbEntity
  8
0
100
AcDbBlockBegin
  2
*D11
 70
     1
 10
0.0
 20
0.0
 30
0.0
  3
*D11
  1

  0
LINE
  5
5AD6
330
5A3A
100
AcDbEntity
  8
SUNPOU
100
AcDbLine
 10
298.135211832734
 20
171.1952502457874
 30
0.0
 11
274.2723802189408
 21
210.9666362601964
 31
0.0
  0
LINE
  5
5AD7
330
5A3A
100
AcDbEntity
  8
SUNPOU
100
AcDbLine
 10
343.5823369247252
 20
198.4635253068645
 30
0.0
 11
319.719505310932
 21
238.2349113212736
 31
0.0
  0
LINE
  5
5AD8
330
5A3A
100
AcDbEntity
  8
SUNPOU
100
AcDbLine
 10
277.6166026291952
 20
211.2238841382285
 30
0.0
 11
317.918770167205
 21
235.4051846662508
 31
0.0
  0
INSERT
  5
5AD9
330
5A3A
100
AcDbEntity
  8
SUNPOU
100
AcDbBlockReference
  2
_OPEN
 10
275.0441238522045
 20
209.6803968717011
 30
0.0
 41
3.0
 42
3.0
 43
3.0
 50
210.9637565375264
  0
INSERT
  5
5ADA
330
5A3A
100
AcDbEntity
  8
SUNPOU
100
AcDbBlockReference
  2
_OPEN
 10
320.4912489441957
 20
236.9486719327782
 30
0.0
 41
3.0
 42
3.0
 43
3.0
 50
30.96375653752649
  0
MTEXT
  5
5ADB
330
5A3A
100
AcDbEntity
  8
SUNPOU
100
AcDbMText
 10
296.4814470094272
 20
225.4582667163986
 30
0.0
 40
3.0
 41
0.0
 71
     5
 72
     1
  1
\A1;53
 11
0.8574929256635785
 21
0.514495755509136
 31
0.0
1001
ACAD
1000
MTEXTBEGIN
1070
    73
1070
     1
1070
    44
1040
1.0
1070
    74
1070
     0
1000
MTEXTEND
  0
POINT
  5
5ADC
330
5A3A
100
AcDbEntity
  8
DEFPOINTS
 62
     0
100
AcDbPoint
 10
299.6786990992614
 20
168.6227714687966
 30
0.0
  0
POINT
  5
5ADD
330
5A3A
100
AcDbEntity
  8
DEFPOINTS
 62
     0
100
AcDbPoint
 10
345.1258241912526
 20
195.8910465298738
 30
0.0
  0
POINT
  5
5ADE
330
5A3A
100
AcDbEntity
  8
DEFPOINTS
 62
     0
100
AcDbPoint
 10
320.4912489441957
 20
236.9486719327782
 30
0.0
  0
ENDBLK
  5
5A45
330
5A3A
100
AcDbEntity
  8
0
100
AcDbBlockEnd
  0
BLOCK
  5
5A50
330
5A46
100
AcDbEntity
  8
0
100
AcDbBlockBegin
  2
*D12
 70
     1
 10
0.0
 20
0.0
 30
0.0
  3
*D12
  1

  0
LINE
  5
5ADF
330
5A46
100
AcDbEntity
  8
SUNPOU
100
AcDbLine
 10
235.1619154737027
 20
238.7693718203454
 30
0.0
 11
252.8695610365958
 21
238.7693718203454
 31
0.0
  0
LINE
  5
5AE0
330
5A46
100
AcDbEntity
  8
SUNPOU
100
AcDbLine
 10
235.1619154737027
 20
185.9029794415501
 30
0.0
 11
252.8695610365958
 21
185.9029794415501
 31
0.0
  0
LINE
  5
5AE1
330
5A46
100
AcDbEntity
  8
SUNPOU
100
AcDbLine
 10
251.3695610365958
 20
235.7693718203455
 30
0.0
 11
251.3695610365958
 21
188.9029794415501
 31
0.0
  0
INSERT
  5
5AE2
330
5A46
100
AcDbEntity
  8
SUNPOU
100
AcDbBlockReference
  2
_OPEN
 10
251.3695610365958
 20
238.7693718203454
 30
0.0
 41
3.0
 42
3.0
 43
3.0
 50
90.0
  0
INSERT
  5
5AE3
330
5A46
100
AcDbEntity
  8
SUNPOU
100
AcDbBlockReference
  2
_OPEN
 10
251.3695610365958
 20
185.9029794415501
 30
0.0
 41
3.0
 42
3.0
 43
3.0
 50
270.0
  0
MTEXT
  5
5AE4
330
5A46
100
AcDbEntity
  8
SUNPOU
100
AcDbMText
 10
248.8695610365958
 20
212.3361756309478
 30
0.0
 40
3.0
 41
0.0
 71
     5
 72
     1
  1
\A1;53
 11
0.0000000000000001
 21
1.0
 31
0.0
1001
ACAD
1000
MTEXTBEGIN
1070
    73
1070
     1
1070
    44
1040
1.0
1070
    74
1070
     0
1000
MTEXTEND
  0
POINT
  5
5AE5
330
5A46
100
AcDbEntity
  8
DEFPOINTS
 62
     0
100
AcDbPoint
 10
232.1619154737027
 20
238.7693718203454
 30
0.0
  0
POINT
  5
5AE6
330
5A46
100
AcDbEntity
  8
DEFPOINTS
 62
     0
100
AcDbPoint
 10
232.1619154737027
 20
185.9029794415501
 30
0.0
  0
POINT
  5
5AE7
330
5A46
100
AcDbEntity
  8
DEFPOINTS
 62
     0
100
AcDbPoint
 10
251.3695610365958
 20
185.9029794415501
 30
0.0
  0
ENDBLK
  5
5A51
330
5A46
100
AcDbEntity
  8
0
100
AcDbBlockEnd
  0
BLOCK
  5
5A5C
330
5A52
100
AcDbEntity
  8
0
100
AcDbBlockBegin
  2
*D13
 70
     1
 10
0.0
 20
0.0
 30
0.0
  3
*D13
  1

  0
LINE
  5
5AE8
330
5A52
100
AcDbEntity
  8
SUNPOU
100
AcDbLine
 10
303.0572212208304
 20
173.6819797258429
 30
0.0
 11
283.3525608418832
 21
206.5230803452632
 31
0.0
  0
LINE
  5
5AE9
330
5A52
100
AcDbEntity
  8
SUNPOU
100
AcDbLine
 10
339.0719240908304
 20
195.2908014558428
 30
0.0
 11
319.3672637118832
 21
228.1319020752632
 31
0.0
  0
LINE
  5
5AEA
330
5A52
100
AcDbEntity
  8
SUNPOU
100
AcDbLine
 10
286.6967832521201
 20
206.7803282235232
 30
0.0
 11
317.5665285683491
 21
225.3021754201177
 31
0.0
  0
INSERT
  5
5AEB
330
5A52
100
AcDbEntity
  8
SUNPOU
100
AcDbBlockReference
  2
_OPEN
 10
284.1243044752346
 20
205.2368409568205
 30
0.0
 41
3.0
 42
3.0
 43
3.0
 50
210.9637565414316
  0
INSERT
  5
5AEC
330
5A52
100
AcDbEntity
  8
SUNPOU
100
AcDbBlockReference
  2
_OPEN
 10
320.1390073452346
 20
226.8456626868204
 30
0.0
 41
3.0
 42
3.0
 43
3.0
 50
30.96375654143169
  0
MTEXT
  5
5AED
330
5A52
100
AcDbEntity
  8
SUNPOU
100
AcDbMText
 10
300.8454165213157
 20
218.1849841358917
 30
0.0
 40
3.0
 41
0.0
 71
     5
 72
     1
  1
\A1;42
 11
0.8574929256285111
 21
0.5144957555675818
 31
0.0
1001
ACAD
1000
MTEXTBEGIN
1070
    73
1070
     1
1070
    44
1040
1.0
1070
    74
1070
     0
1000
MTEXTEND
  0
POINT
  5
5AEE
330
5A52
100
AcDbEntity
  8
DEFPOINTS
 62
     0
100
AcDbPoint
 10
304.6007084875332
 20
171.1095009489573
 30
0.0
  0
POINT
  5
5AEF
330
5A52
100
AcDbEntity
  8
DEFPOINTS
 62
     0
100
AcDbPoint
 10
340.6154113575332
 20
192.7183226789573
 30
0.0
  0
POINT
  5
5AF0
330
5A52
100
AcDbEntity
  8
DEFPOINTS
 62
     0
100
AcDbPoint
 10
320.1390073452346
 20
226.8456626868204
 30
0.0
  0
ENDBLK
  5
5A5D
330
5A52
100
AcDbEntity
  8
0
100
AcDbBlockEnd
  0
BLOCK
  5
5A6A
330
5A5E
100
AcDbEntity
  8
0
100
AcDbBlockBegin
  2
*D14
 70
     1
 10
0.0
 20
0.0
 30
0.0
  3
*D14
  1

  0
LINE
  5
5AF1
330
5A5E
100
AcDbEntity
  8
SUNPOU
100
AcDbLine
 10
297.1062203219666
 20
167.079284202776
 30
0.0
 11
286.9738320025686
 21
160.9998512125404
 31
0.0
  0
LINE
  5
5AF2
330
5A5E
100
AcDbEntity
  8
SUNPOU
100
AcDbLine
 10
299.9359469761117
 20
162.3630731114456
 30
0.0
 11
289.8035586567138
 21
156.28364012121
 31
0.0
  0
LINE
  5
5AF3
330
5A5E
100
AcDbEntity
  8
SUNPOU
100
AcDbLine
 10
286.7165841251954
 20
164.3440736228455
 30
0.0
 11
285.1730968591748
 21
166.9165524001403
 31
0.0
  0
LINE
  5
5AF4
330
5A5E
100
AcDbEntity
  8
SUNPOU
100
AcDbLine
 10
292.6332853113818
 20
154.4829049769255
 30
0.0
 11
294.1767725774024
 21
151.9104261996307
 31
0.0
  0
LINE
  5
5AF5
330
5A5E
100
AcDbEntity
  8
SUNPOU
100
AcDbLine
 10
288.260071391216
 20
161.7715948455507
 30
0.0
 11
291.0897980453611
 21
157.0553837542203
 31
0.0
  0
INSERT
  5
5AF6
330
5A5E
100
AcDbEntity
  8
SUNPOU
100
AcDbBlockReference
  2
_OPEN
 10
288.260071391216
 20
161.7715948455507
 30
0.0
 41
3.0
 42
3.0
 43
3.0
 50
300.9637565262393
  0
INSERT
  5
5AF7
330
5A5E
100
AcDbEntity
  8
SUNPOU
100
AcDbBlockReference
  2
_OPEN
 10
291.0897980453611
 20
157.0553837542203
 30
0.0
 41
3.0
 42
3.0
 43
3.0
 50
120.9637565262393
  0
MTEXT
  5
5AF8
330
5A5E
100
AcDbEntity
  8
SUNPOU
100
AcDbMText
 10
291.8186670327009
 20
160.699728688236
 30
0.0
 40
3.0
 41
0.0
 71
     5
 72
     1
  1
\A1;6
 11
0.5144957553402114
 21
-0.8574929257649333
 31
0.0
1001
ACAD
1000
MTEXTBEGIN
1070
    73
1070
     1
1070
    44
1040
1.0
1070
    74
1070
     0
1000
MTEXTEND
  0
POINT
  5
5AF9
330
5A5E
100
AcDbEntity
  8
DEFPOINTS
 62
     0
100
AcDbPoint
 10
299.6786990992614
 20
168.6227714687967
 30
0.0
  0
POINT
  5
5AFA
330
5A5E
100
AcDbEntity
  8
DEFPOINTS
 62
     0
100
AcDbPoint
 10
302.5084257534065
 20
163.9065603774662
 30
0.0
  0
POINT
  5
5AFB
330
5A5E
100
AcDbEntity
  8
DEFPOINTS
 62
     0
100
AcDbPoint
 10
291.0897980453611
 20
157.0553837542203
 30
0.0
  0
ENDBLK
  5
5A6B
330
5A5E
100
AcDbEntity
  8
0
100
AcDbBlockEnd
  0
BLOCK
  5
5A76
330
5A6C
100
AcDbEntity
  8
0
100
AcDbBlockBegin
  2
*D15
 70
     1
 10
0.0
 20
0.0
 30
0.0
  3
*D15
  1

  0
LINE
  5
5AFC
330
5A6C
100
AcDbEntity
  8
SUNPOU
100
AcDbLine
 10
347.6983029716163
 20
197.4345337907795
 30
0.0
 11
358.0614390096566
 21
203.6524153841456
 31
0.0
  0
LINE
  5
5AFD
330
5A6C
100
AcDbEntity
  8
SUNPOU
100
AcDbLine
 10
354.9012435126352
 20
185.4296328322065
 30
0.0
 11
365.2643795506755
 21
191.6475144255726
 31
0.0
  0
LINE
  5
5AFE
330
5A6C
100
AcDbEntity
  8
SUNPOU
100
AcDbLine
 10
358.3186868803805
 20
200.308192973329
 30
0.0
 11
362.4346528995879
 21
193.4482495754835
 31
0.0
  0
INSERT
  5
5AFF
330
5A6C
100
AcDbEntity
  8
SUNPOU
100
AcDbBlockReference
  2
_OPEN
 10
356.7751996194747
 20
202.8806717536927
 30
0.0
 41
3.0
 42
3.0
 43
3.0
 50
120.9637564123175
  0
INSERT
  5
5B00
330
5A6C
100
AcDbEntity
  8
SUNPOU
100
AcDbBlockReference
  2
_OPEN
 10
363.9781401604936
 20
190.8757707951197
 30
0.0
 41
3.0
 42
3.0
 43
3.0
 50
300.9637564123175
  0
MTEXT
  5
5B01
330
5A6C
100
AcDbEntity
  8
SUNPOU
100
AcDbMText
 10
362.5204022069539
 20
198.1644606584944
 30
0.0
 40
3.0
 41
0.0
 71
     5
 72
     1
  1
\A1;14
 11
0.5144957536352493
 21
-0.8574929267879106
 31
0.0
1001
ACAD
1000
MTEXTBEGIN
1070
    73
1070
     1
1070
    44
1040
1.0
1070
    74
1070
     0
1000
MTEXTEND
  0
POINT
  5
5B02
330
5A6C
100
AcDbEntity
  8
DEFPOINTS
 62
     0
100
AcDbPoint
 10
345.1258241912526
 20
195.8910465298738
 30
0.0
  0
POINT
  5
5B03
330
5A6C
100
AcDbEntity
  8
DEFPOINTS
 62
     0
100
AcDbPoint
 10
352.3287647322715
 20
183.8861455713008
 30
0.0
  0
POINT
  5
5B04
330
5A6C
100
AcDbEntity
  8
DEFPOINTS
 62
     0
100
AcDbPoint
 10
363.9781401604936
 20
190.8757707951197
 30
0.0
  0
ENDBLK
  5
5A77
330
5A6C
100
AcDbEntity
  8
0
100
AcDbBlockEnd
  0
ENDSEC
  0
SECTION
  2
ENTITIES
  0
LWPOLYLINE
  5
2A43
330
1A
100
AcDbEntity
  8
ZUWAKU
100
AcDbPolyline
 90
        4
 70
     1
 43
0.0
 10
0.3999996775634145
 20
275.4000000308041
 10
0.3999996775634145
 20
0.4000000308041649
 10
398.3999996775634
 20
0.4000000308041649
 10
398.3999996775634
 20
275.4000000308041
  0
LWPOLYLINE
  5
2A44
330
1A
100
AcDbEntity
  8
ZUWAKU
100
AcDbPolyline
 90
        4
 70
     1
 43
0.0
 10
0.1999996775634258
 20
275.6000000308041
 10
0.1999996775634258
 20
0.2000000308041763
 10
398.5999996775634
 20
0.2000000308041647
 10
398.5999996775634
 20
275.6000000308041
  0
LWPOLYLINE
  5
2A45
330
1A
100
AcDbEntity
  8
ZUWAKU
100
AcDbPolyline
 90
        4
 70
     1
 43
0.0
 10
-0.0000003224365628
 20
275.8000000308041
 10
-0.0000003224365628
 20
0.0000000308041308
 10
398.7999996775635
 20
0.0000000308041646
 10
398.7999996775635
 20
275.8000000308042
  0
LWPOLYLINE
  5
2A46
330
1A
100
AcDbEntity
  8
ZUWAKU
100
AcDbPolyline
 90
        4
 70
     1
 43
0.0
 10
0.2999996775633917
 20
275.5000000308041
 10
0.2999996775633917
 20
0.3000000308041422
 10
398.4999996775635
 20
0.3000000308041653
 10
398.4999996775634
 20
275.5000000308041
  0
LWPOLYLINE
  5
2A47
330
1A
100
AcDbEntity
  8
ZUWAKU
100
AcDbPolyline
 90
        4
 70
     1
 43
0.0
 10
0.0999996775634031
 20
275.7000000308041
 10
0.0999996775634031
 20
0.1000000308041535
 10
398.6999996775633
 20
0.1000000308041651
 10
398.6999996775634
 20
275.7000000308041
  0
LINE
  5
2A48
330
1A
100
AcDbEntity
  8
ZUWAKU
100
AcDbLine
 10
-0.0000003224365628
 20
15.00000003080413
 30
0.0
 11
398.6999996775633
 21
15.00000003080413
 31
0.0
  0
LINE
  5
2A49
330
1A
100
AcDbEntity
  8
ZUWAKU
100
AcDbLine
 10
-0.0000003224365628
 20
15.10000003080413
 30
0.0
 11
398.6999996775633
 21
15.10000003080413
 31
0.0
  0
LINE
  5
2A4A
330
1A
100
AcDbEntity
  8
ZUWAKU
100
AcDbLine
 10
-0.0000003224365628
 20
15.20000003080413
 30
0.0
 11
398.6999996775633
 21
15.20000003080413
 31
0.0
  0
LINE
  5
2A4B
330
1A
100
AcDbEntity
  8
ZUWAKU
100
AcDbLine
 10
-0.0000003224365628
 20
15.30000003080413
 30
0.0
 11
398.6999996775633
 21
15.30000003080413
 31
0.0
  0
LINE
  5
2A4C
330
1A
100
AcDbEntity
  8
ZUWAKU
100
AcDbLine
 10
-0.0000003224365628
 20
15.40000003080413
 30
0.0
 11
398.6999996775633
 21
15.40000003080413
 31
0.0
  0
LINE
  5
2A4D
330
1A
100
AcDbEntity
  8
ZUWAKU
100
AcDbLine
 10
104.3233003225974
 20
7.700000030804147
 30
0.0
 11
223.7121816630591
 21
7.700000030804147
 31
0.0
  0
LINE
  5
2A4E
330
1A
100
AcDbEntity
  8
ZUWAKU
100
AcDbLine
 10
104.3233003225974
 20
7.800000030804147
 30
0.0
 11
223.7121816630591
 21
7.800000030804151
 31
0.0
  0
LINE
  5
2A4F
330
1A
100
AcDbEntity
  8
ZUWAKU
100
AcDbLine
 10
104.3233003225974
 20
7.600000030804149
 30
0.0
 11
223.7121816630591
 21
7.600000030804146
 31
0.0
  0
TEXT
  5
2A50
330
1A
100
AcDbEntity
  8
MOJI
100
AcDbText
 10
46.478894471648
 20
6.370589095941511
 30
0.0
 40
3.0
  1
ライナートップ
 41
0.9
  7
ｽﾀｲﾙ1
100
AcDbText
  0
CIRCLE
  5
2A51
330
1A
100
AcDbEntity
  8
ZUWAKU
100
AcDbCircle
 10
12.99610575495398
 20
7.600000030804132
 30
0.0
 40
0.875
  0
LINE
  5
2A52
330
1A
100
AcDbEntity
  8
ZUWAKU
100
AcDbLine
 10
13.43360575495398
 20
3.575000030804133
 30
0.0
 11
12.47110575495401
 21
3.575000030804133
 31
0.0
  0
LINE
  5
2A53
330
1A
100
AcDbEntity
  8
ZUWAKU
100
AcDbLine
 10
12.47110575495401
 20
4.975000030804132
 30
0.0
 11
13.43360575495398
 21
4.975000030804132
 31
0.0
  0
LINE
  5
2A54
330
1A
100
AcDbEntity
  8
ZUWAKU
100
AcDbLine
 10
13.43360575495398
 20
10.22500003080413
 30
0.0
 11
12.47110575495401
 21
10.22500003080413
 31
0.0
  0
LINE
  5
2A55
330
1A
100
AcDbEntity
  8
ZUWAKU
100
AcDbLine
 10
12.47110575495401
 20
11.62500003080411
 30
0.0
 11
13.43360575495398
 21
11.62500003080413
 31
0.0
  0
HATCH
  5
2A56
330
1A
100
AcDbEntity
  8
ZUWAKU
100
AcDbHatch
 10
0.0
 20
0.0
 30
0.0
210
0.0
220
0.0
230
1.0
  2
ANSI37
 70
     0
 71
     0
 91
        8
 92
        7
 72
     1
 73
     1
 93
       24
 10
7.251131008123365
 20
8.822424271295922
 42
-0.1989123673796348
 10
7.046105754953998
 20
9.317399018126447
 42
0.0
 10
7.046105754953998
 20
9.962500030804136
 42
-0.4142135623730912
 10
7.308605754953987
 20
10.22500003080413
 42
0.0
 10
8.796105754953941
 20
10.22500003080413
 42
0.4142135623731546
 10
9.058605754953987
 20
10.48750003080412
 42
0.0
 10
9.058605754953987
 20
11.36250003080413
 42
0.4142135623731586
 10
8.796105754953941
 20
11.62500003080413
 42
0.0
 10
7.046105754953998
 20
11.62500003080413
 42
0.4142135623730928
 10
5.646105754954021
 20
10.22500003080414
 42
0.0
 10
5.646105754954021
 20
9.317399018126511
 42
0.1989123673796619
 10
6.261181514462236
 20
7.832474777634708
 42
0.0
 10
7.716080501784574
 20
6.377575790312379
 42
-0.1989123673796613
 10
7.921105754953998
 20
5.882601043481786
 42
0.0
 10
7.921105754953998
 20
5.237500030804127
 42
-0.4142135623730911
 10
7.65860575495401
 20
4.975000030804132
 42
0.0
 10
6.171105754954055
 20
4.975000030804132
 42
0.4142135623731526
 10
5.90860575495401
 20
4.712500030804138
 42
0.0
 10
5.90860575495401
 20
3.837500030804127
 42
0.4142135623731526
 10
6.171105754954055
 20
3.575000030804133
 42
0.0
 10
7.921105754953998
 20
3.575000030804133
 42
0.4142135623731044
 10
9.321105754954032
 20
4.975000030804121
 42
0.0
 10
9.321105754954032
 20
5.882601043481757
 42
0.1989123673796604
 10
8.70602999544576
 20
7.367525283973527
 42
0.0
 97
        0
 92
        7
 72
     1
 73
     1
 93
       16
 10
11.77110575495402
 20
9.525000030804136
 42
-0.4142135623730935
 10
12.47110575495401
 20
10.22500003080413
 42
0.0
 10
13.43360575495398
 20
10.22500003080413
 42
0.4142135623731546
 10
13.69610575495403
 20
10.48750003080412
 42
0.0
 10
13.69610575495403
 20
11.36250003080413
 42
0.4142135623730951
 10
13.43360575495404
 20
11.62500003080413
 42
0.0
 10
12.47110575495395
 20
11.62500003080411
 42
0.4142135623730892
 10
10.37110575495398
 20
9.5250000308041
 42
0.0
 10
10.37110575495398
 20
5.675000030804145
 42
0.4142135623730969
 10
12.47110575495401
 20
3.575000030804133
 42
0.0
 10
13.43360575495398
 20
3.575000030804133
 42
0.4142135623731526
 10
13.69610575495403
 20
3.837500030804127
 42
0.0
 10
13.69610575495403
 20
4.712500030804138
 42
0.4142135623730891
 10
13.43360575495404
 20
4.975000030804132
 42
0.0
 10
12.47110575495401
 20
4.975000030804132
 42
-0.4142135623730928
 10
11.77110575495402
 20
5.675000030804126
 42
0.0
 97
        0
 92
        7
 72
     1
 73
     1
 93
        2
 10
12.12110575495398
 20
7.600000030804132
 42
1.0
 10
13.87110575495398
 20
7.600000030804132
 42
1.0
 97
        0
 92
        7
 72
     1
 73
     1
 93
       26
 10
18.65742899604299
 20
9.602523627585846
 42
0.0
 10
19.1882488126119
 20
11.28345304672064
 42
0.5069206636600134
 10
18.93793336301422
 20
11.62500003080413
 42
0.0
 10
18.08848867320961
 20
11.62500003080413
 42
0.3272098845218764
 10
17.83817322361193
 20
11.44154701488761
 42
0.0
 10
16.90403828629604
 20
8.483453046720672
 42
-0.3272098845219541
 10
16.6537228366983
 20
8.300000030804131
 42
0.0
 10
16.58360575495407
 20
8.300000030804131
 42
-0.4142135623731526
 10
16.32110575495403
 20
8.562500030804125
 42
0.0
 10
16.32110575495403
 20
11.36250003080413
 42
0.4142135623730951
 10
16.05860575495404
 20
11.62500003080413
 42
0.0
 10
15.18360575495398
 20
11.62500003080413
 42
0.4142135623730871
 10
14.921105754954
 20
11.36250003080414
 42
0.0
 10
14.921105754954
 20
3.837500030804127
 42
0.4142135623730891
 10
15.18360575495398
 20
3.575000030804133
 42
0.0
 10
16.05860575495398
 20
3.575000030804133
 42
0.4142135623731526
 10
16.32110575495403
 20
3.837500030804127
 42
0.0
 10
16.32110575495403
 20
6.637500030804138
 42
-0.4142135623731526
 10
16.58360575495407
 20
6.900000030804132
 42
0.0
 10
16.65372283669836
 20
6.900000030804132
 42
-0.3272098845218915
 10
16.90403828629604
 20
6.716547014887595
 42
0.0
 10
17.83817322361193
 20
3.758453046720669
 42
0.3272098845218902
 10
18.08848867320961
 20
3.575000030804133
 42
0.0
 10
18.93793336301422
 20
3.575000030804133
 42
0.5069206636600335
 10
19.1882488126119
 20
3.916547014887637
 42
0.0
 10
18.02505312337507
 20
7.600000030804201
 42
0.0
 97
        0
 92
        7
 72
     1
 73
     1
 93
        8
 10
21.74610575495398
 20
11.36250003080413
 42
0.4142135623731546
 10
21.48360575495394
 20
11.62500003080413
 42
0.0
 10
20.60860575495405
 20
11.62500003080413
 42
0.4142135623731507
 10
20.346105754954
 20
11.36250003080414
 42
0.0
 10
20.346105754954
 20
3.837500030804127
 42
0.4142135623731526
 10
20.60860575495405
 20
3.575000030804133
 42
0.0
 10
21.48360575495394
 20
3.575000030804133
 42
0.4142135623731526
 10
21.74610575495398
 20
3.837500030804127
 42
0.0
 97
        0
 92
        7
 72
     1
 73
     1
 93
       24
 10
24.19610575495403
 20
9.962500030804136
 42
-0.4142135623731546
 10
24.45860575495407
 20
10.22500003080413
 42
0.0
 10
25.94610575495403
 20
10.22500003080413
 42
0.4142135623730911
 10
26.20860575495402
 20
10.48750003080412
 42
0.0
 10
26.20860575495402
 20
11.36250003080413
 42
0.4142135623730952
 10
25.94610575495403
 20
11.62500003080413
 42
0.0
 10
24.19610575495403
 20
11.62500003080413
 42
0.4142135623731048
 10
22.796105754954
 20
10.22500003080414
 42
0.0
 10
22.796105754954
 20
9.317399018126511
 42
0.1989123673796613
 10
23.41118151446227
 20
7.832474777634736
 42
0.0
 10
24.8660805017846
 20
6.377575790312402
 42
-0.1989123673796402
 10
25.07110575495403
 20
5.882601043481866
 42
0.0
 10
25.07110575495403
 20
5.237500030804127
 42
-0.4142135623730911
 10
24.80860575495404
 20
4.975000030804132
 42
0.0
 10
23.32110575495403
 20
4.975000030804132
 42
0.4142135623731526
 10
23.05860575495398
 20
4.712500030804138
 42
0.0
 10
23.05860575495398
 20
3.837500030804127
 42
0.4142135623730891
 10
23.32110575495397
 20
3.575000030804133
 42
0.0
 10
25.07110575495403
 20
3.575000030804133
 42
0.4142135623730925
 10
26.47110575495401
 20
4.975000030804121
 42
0.0
 10
26.47110575495401
 20
5.882601043481757
 42
0.1989123673796675
 10
25.85602999544573
 20
7.367525283973584
 42
0.0
 10
24.40113100812345
 20
8.822424271295842
 42
-0.1989123673796652
 10
24.19610575495403
 20
9.317399018126426
 42
0.0
 97
        0
 92
        7
 72
     1
 73
     1
 93
       16
 10
28.92110575495399
 20
11.36250003080412
 42
0.414213562373103
 10
28.65860575495401
 20
11.62500003080413
 42
0.0
 10
27.78360575495401
 20
11.62500003080413
 42
0.4142135623730871
 10
27.52110575495402
 20
11.36250003080414
 42
0.0
 10
27.52110575495402
 20
4.975000030804121
 42
0.4142135623730926
 10
28.92110575495399
 20
3.575000030804133
 42
0.0
 10
30.671105754954
 20
3.575000030804133
 42
0.4142135623731044
 10
32.07110575495403
 20
4.975000030804121
 42
0.0
 10
32.07110575495403
 20
11.36250003080413
 42
0.4142135623730951
 10
31.80860575495404
 20
11.62500003080413
 42
0.0
 10
30.93360575495399
 20
11.62500003080413
 42
0.4142135623730871
 10
30.671105754954
 20
11.36250003080414
 42
0.0
 10
30.671105754954
 20
5.50000003080412
 42
-0.414213562373088
 10
30.14610575495402
 20
4.975000030804132
 42
0.0
 10
29.44610575495403
 20
4.975000030804132
 42
-0.4142135623731197
 10
28.92110575495399
 20
5.50000003080412
 42
0.0
 97
        0
 92
        7
 72
     1
 73
     1
 93
        8
 10
34.52110575495402
 20
11.36250003080414
 42
0.4142135623730871
 10
34.25860575495403
 20
11.62500003080413
 42
0.0
 10
33.38360575495403
 20
11.62500003080413
 42
0.4142135623731507
 10
33.12110575495399
 20
11.36250003080414
 42
0.0
 10
33.12110575495399
 20
3.837500030804127
 42
0.4142135623730891
 10
33.38360575495397
 20
3.575000030804133
 42
0.0
 10
34.25860575495403
 20
3.575000030804133
 42
0.4142135623730891
 10
34.52110575495402
 20
3.837500030804127
 42
0.0
 97
        0
 75
     0
 76
     1
 52
0.0
 41
0.1
 77
     0
 78
     2
 53
45.0
 43
-450.471152489776
 44
-6.599999969195835
 45
-0.2245064030267288
 46
0.2245064030267288
 79
     0
 53
135.0
 43
-450.471152489776
 44
-6.599999969195835
 45
-0.2245064030267288
 46
-0.2245064030267288
 79
     0
 47
0.057451373970553
 98
        8
 10
8.039927159075091
 20
7.583586853746908
 10
11.20225718078302
 20
9.422031122029636
 10
12.58218362039326
 20
7.75594085383949
 10
15.457029668382
 20
8.100648854024882
 10
20.9192356870418
 20
8.33045498779569
 10
23.44910012512821
 20
9.709288189007736
 10
28.27884266376361
 20
9.364578988351638
 10
33.9135394873748
 20
9.594385122122446
  0
ARC
  5
2A57
330
1A
100
AcDbEntity
  8
ZUWAKU
100
AcDbCircle
 10
7.746105754953987
 20
9.317399018126483
 30
0.0
 40
2.099999999999999
100
AcDbArc
 50
180.0
 51
225.0
  0
LINE
  5
2A58
330
1A
100
AcDbEntity
  8
ZUWAKU
100
AcDbLine
 10
10.37110575495398
 20
5.675000030804135
 30
0.0
 11
10.37110575495398
 21
9.525000030804111
 31
0.0
  0
LINE
  5
2A59
330
1A
100
AcDbEntity
  8
ZUWAKU
100
AcDbLine
 10
11.77110575495402
 20
9.525000030804132
 30
0.0
 11
11.77110575495402
 21
5.675000030804135
 31
0.0
  0
ARC
  5
2A5A
330
1A
100
AcDbEntity
  8
ZUWAKU
100
AcDbCircle
 10
7.746105754953987
 20
9.317399018126483
 30
0.0
 40
0.7
100
AcDbArc
 50
180.0000000000016
 51
224.9999999999988
  0
ARC
  5
2A5B
330
1A
100
AcDbEntity
  8
ZUWAKU
100
AcDbCircle
 10
12.47110575495401
 20
5.675000030804135
 30
0.0
 40
2.099999999999999
100
AcDbArc
 50
180.0
 51
270.0
  0
ARC
  5
2A5C
330
1A
100
AcDbEntity
  8
ZUWAKU
100
AcDbCircle
 10
7.921105754953998
 20
4.975000030804132
 30
0.0
 40
1.399999999999999
100
AcDbArc
 50
270.0
 51
0.0
  0
ARC
  5
2A5D
330
1A
100
AcDbEntity
  8
ZUWAKU
100
AcDbCircle
 10
7.22110575495401
 20
5.882601043481784
 30
0.0
 40
2.099999999999999
100
AcDbArc
 50
0.0
 51
45.0
  0
LINE
  5
2A5E
330
1A
100
AcDbEntity
  8
ZUWAKU
100
AcDbLine
 10
6.261181514462236
 20
7.832474777634722
 30
0.0
 11
7.716080501784574
 21
6.377575790312391
 31
0.0
  0
LINE
  5
2A5F
330
1A
100
AcDbEntity
  8
ZUWAKU
100
AcDbLine
 10
6.171105754953998
 20
4.975000030804132
 30
0.0
 11
7.65860575495401
 21
4.975000030804132
 31
0.0
  0
LINE
  5
2A60
330
1A
100
AcDbEntity
  8
ZUWAKU
100
AcDbLine
 10
6.171105754953998
 20
3.575000030804133
 30
0.0
 11
7.921105754953998
 21
3.575000030804133
 31
0.0
  0
ARC
  5
2A61
330
1A
100
AcDbEntity
  8
ZUWAKU
100
AcDbCircle
 10
6.171105754953998
 20
4.712500030804132
 30
0.0
 40
0.2625
100
AcDbArc
 50
90.0
 51
180.0
  0
ARC
  5
2A62
330
1A
100
AcDbEntity
  8
ZUWAKU
100
AcDbCircle
 10
6.171105754953998
 20
3.837500030804132
 30
0.0
 40
0.2625
100
AcDbArc
 50
180.0
 51
270.0
  0
LINE
  5
2A63
330
1A
100
AcDbEntity
  8
ZUWAKU
100
AcDbLine
 10
5.90860575495401
 20
3.837500030804132
 30
0.0
 11
5.90860575495401
 21
4.712500030804132
 31
0.0
  0
ARC
  5
2A64
330
1A
100
AcDbEntity
  8
ZUWAKU
100
AcDbCircle
 10
7.22110575495401
 20
5.882601043481805
 30
0.0
 40
0.7
100
AcDbArc
 50
0.0
 51
45.0
  0
ARC
  5
2A65
330
1A
100
AcDbEntity
  8
ZUWAKU
100
AcDbCircle
 10
7.65860575495401
 20
5.237500030804135
 30
0.0
 40
0.2625
100
AcDbArc
 50
270.0
 51
0.0
  0
LINE
  5
2A66
330
1A
100
AcDbEntity
  8
ZUWAKU
100
AcDbLine
 10
7.921105754953998
 20
5.237500030804135
 30
0.0
 11
7.921105754953998
 21
5.882601043481805
 31
0.0
  0
LINE
  5
2A67
330
1A
100
AcDbEntity
  8
ZUWAKU
100
AcDbLine
 10
8.70602999544576
 20
7.367525283973545
 30
0.0
 11
7.251131008123422
 21
8.822424271295883
 31
0.0
  0
ARC
  5
2A68
330
1A
100
AcDbEntity
  8
ZUWAKU
100
AcDbCircle
 10
12.47110575495401
 20
5.675000030804135
 30
0.0
 40
0.7
100
AcDbArc
 50
180.0
 51
270.0
  0
LINE
  5
2A69
330
1A
100
AcDbEntity
  8
ZUWAKU
100
AcDbLine
 10
9.321105754954032
 20
4.975000030804132
 30
0.0
 11
9.321105754954032
 21
5.882601043481805
 31
0.0
  0
ARC
  5
2A6A
330
1A
100
AcDbEntity
  8
ZUWAKU
100
AcDbCircle
 10
8.796105754953998
 20
10.48750003080413
 30
0.0
 40
0.2625
100
AcDbArc
 50
270.0
 51
0.0
  0
ARC
  5
2A6B
330
1A
100
AcDbEntity
  8
ZUWAKU
100
AcDbCircle
 10
8.796105754953998
 20
11.36250003080413
 30
0.0
 40
0.2625
100
AcDbArc
 50
0.0
 51
90.0
  0
ARC
  5
2A6C
330
1A
100
AcDbEntity
  8
ZUWAKU
100
AcDbCircle
 10
7.046105754953998
 20
10.22500003080413
 30
0.0
 40
1.399999999999999
100
AcDbArc
 50
90.0
 51
180.0
  0
LINE
  5
2A6D
330
1A
100
AcDbEntity
  8
ZUWAKU
100
AcDbLine
 10
5.646105754954021
 20
10.22500003080413
 30
0.0
 11
5.646105754954021
 21
9.317399018126462
 31
0.0
  0
LINE
  5
2A6E
330
1A
100
AcDbEntity
  8
ZUWAKU
100
AcDbLine
 10
8.796105754953998
 20
10.22500003080413
 30
0.0
 11
7.308605754953987
 21
10.22500003080413
 31
0.0
  0
LINE
  5
2A6F
330
1A
100
AcDbEntity
  8
ZUWAKU
100
AcDbLine
 10
7.046105754953998
 20
9.962500030804132
 30
0.0
 11
7.046105754953998
 21
9.317399018126462
 31
0.0
  0
ARC
  5
2A70
330
1A
100
AcDbEntity
  8
ZUWAKU
100
AcDbCircle
 10
7.308605754953987
 20
9.962500030804132
 30
0.0
 40
0.2625
100
AcDbArc
 50
90.0
 51
180.0
  0
LINE
  5
2A71
330
1A
100
AcDbEntity
  8
ZUWAKU
100
AcDbLine
 10
7.046105754953998
 20
11.62500003080413
 30
0.0
 11
8.796105754953998
 21
11.62500003080413
 31
0.0
  0
ARC
  5
2A72
330
1A
100
AcDbEntity
  8
ZUWAKU
100
AcDbCircle
 10
12.47110575495401
 20
9.525000030804111
 30
0.0
 40
2.099999999999999
100
AcDbArc
 50
90.0
 51
180.0
  0
ARC
  5
2A73
330
1A
100
AcDbEntity
  8
ZUWAKU
100
AcDbCircle
 10
12.47110575495401
 20
9.525000030804132
 30
0.0
 40
0.7
100
AcDbArc
 50
90.0
 51
180.0
  0
LINE
  5
2A74
330
1A
100
AcDbEntity
  8
ZUWAKU
100
AcDbLine
 10
9.058605754953987
 20
11.36250003080413
 30
0.0
 11
9.058605754953987
 21
10.48750003080413
 31
0.0
  0
LINE
  5
2A75
330
1A
100
AcDbEntity
  8
ZUWAKU
100
AcDbLine
 10
17.83817322361193
 20
11.44154701488761
 30
0.0
 11
16.90403828629604
 21
8.483453046720647
 31
0.0
  0
LINE
  5
2A76
330
1A
100
AcDbEntity
  8
ZUWAKU
100
AcDbLine
 10
14.921105754954
 20
11.36250003080413
 30
0.0
 11
14.921105754954
 21
3.837500030804132
 31
0.0
  0
LINE
  5
2A77
330
1A
100
AcDbEntity
  8
ZUWAKU
100
AcDbLine
 10
16.32110575495403
 20
8.562500030804134
 30
0.0
 11
16.32110575495403
 21
11.36250003080413
 31
0.0
  0
LINE
  5
2A78
330
1A
100
AcDbEntity
  8
ZUWAKU
100
AcDbLine
 10
28.92110575495399
 20
5.50000003080413
 30
0.0
 11
28.92110575495399
 21
11.36250003080413
 31
0.0
  0
LINE
  5
2A79
330
1A
100
AcDbEntity
  8
ZUWAKU
100
AcDbLine
 10
27.52110575495402
 20
11.36250003080413
 30
0.0
 11
27.52110575495402
 21
4.975000030804132
 31
0.0
  0
LINE
  5
2A7A
330
1A
100
AcDbEntity
  8
ZUWAKU
100
AcDbLine
 10
21.74610575495398
 20
3.837500030804132
 30
0.0
 11
21.74610575495398
 21
11.36250003080413
 31
0.0
  0
LINE
  5
2A7B
330
1A
100
AcDbEntity
  8
ZUWAKU
100
AcDbLine
 10
20.346105754954
 20
11.36250003080413
 30
0.0
 11
20.346105754954
 21
3.837500030804132
 31
0.0
  0
LINE
  5
2A7C
330
1A
100
AcDbEntity
  8
ZUWAKU
100
AcDbLine
 10
18.65742899604299
 20
9.602523627585846
 30
0.0
 11
18.02505312337507
 21
7.600000030804142
 31
0.0
  0
ARC
  5
2A7D
330
1A
100
AcDbEntity
  8
ZUWAKU
100
AcDbCircle
 10
24.89610575495402
 20
9.317399018126483
 30
0.0
 40
2.099999999999999
100
AcDbArc
 50
180.0
 51
225.0
  0
ARC
  5
2A7E
330
1A
100
AcDbEntity
  8
ZUWAKU
100
AcDbCircle
 10
24.89610575495402
 20
9.317399018126483
 30
0.0
 40
0.7
100
AcDbArc
 50
180.0000000000016
 51
224.9999999999988
  0
LINE
  5
2A7F
330
1A
100
AcDbEntity
  8
ZUWAKU
100
AcDbLine
 10
33.12110575495399
 20
11.36250003080413
 30
0.0
 11
33.12110575495399
 21
3.837500030804132
 31
0.0
  0
LINE
  5
2A80
330
1A
100
AcDbEntity
  8
ZUWAKU
100
AcDbLine
 10
34.52110575495402
 20
3.837500030804132
 30
0.0
 11
34.52110575495402
 21
11.36250003080413
 31
0.0
  0
LINE
  5
2A81
330
1A
100
AcDbEntity
  8
ZUWAKU
100
AcDbLine
 10
30.671105754954
 20
11.36250003080413
 30
0.0
 11
30.671105754954
 21
5.50000003080413
 31
0.0
  0
LINE
  5
2A82
330
1A
100
AcDbEntity
  8
ZUWAKU
100
AcDbLine
 10
32.07110575495403
 20
4.975000030804132
 30
0.0
 11
32.07110575495403
 21
11.36250003080413
 31
0.0
  0
LINE
  5
2A83
330
1A
100
AcDbEntity
  8
ZUWAKU
100
AcDbLine
 10
39.56331445155763
 20
15.00000003080413
 30
0.0
 11
39.56331445155763
 21
0.4000000308041649
 31
0.0
  0
LINE
  5
2A84
330
1A
100
AcDbEntity
  8
ZUWAKU
100
AcDbLine
 10
39.76331445155756
 20
15.00000003080413
 30
0.0
 11
39.76331445155767
 21
0.4000000308041649
 31
0.0
  0
LINE
  5
2A85
330
1A
100
AcDbEntity
  8
ZUWAKU
100
AcDbLine
 10
39.66331445155754
 20
15.00000003080413
 30
0.0
 11
39.66331445155765
 21
0.4000000308041649
 31
0.0
  0
LINE
  5
2A86
330
1A
100
AcDbEntity
  8
ZUWAKU
100
AcDbLine
 10
28.92110575495399
 20
3.575000030804133
 30
0.0
 11
30.671105754954
 21
3.575000030804133
 31
0.0
  0
LINE
  5
2A87
330
1A
100
AcDbEntity
  8
ZUWAKU
100
AcDbLine
 10
30.14610575495402
 20
4.975000030804132
 30
0.0
 11
29.44610575495403
 21
4.975000030804132
 31
0.0
  0
LINE
  5
2A88
330
1A
100
AcDbEntity
  8
ZUWAKU
100
AcDbLine
 10
20.608605754954
 20
3.575000030804133
 30
0.0
 11
21.483605754954
 21
3.575000030804133
 31
0.0
  0
LINE
  5
2A89
330
1A
100
AcDbEntity
  8
ZUWAKU
100
AcDbLine
 10
17.83817322361193
 20
3.758453046720646
 30
0.0
 11
16.90403828629604
 21
6.716547014887616
 31
0.0
  0
ARC
  5
2A8A
330
1A
100
AcDbEntity
  8
ZUWAKU
100
AcDbCircle
 10
16.58360575495402
 20
6.637500030804133
 30
0.0
 40
0.2625
100
AcDbArc
 50
90.0
 51
180.0
  0
ARC
  5
2A8B
330
1A
100
AcDbEntity
  8
ZUWAKU
100
AcDbCircle
 10
16.65372283669836
 20
6.637500030804133
 30
0.0
 40
0.2625
100
AcDbArc
 50
17.52556837372303
 51
90.0
  0
ARC
  5
2A8C
330
1A
100
AcDbEntity
  8
ZUWAKU
100
AcDbCircle
 10
15.18360575495398
 20
3.837500030804132
 30
0.0
 40
0.2625
100
AcDbArc
 50
180.0
 51
270.0
  0
ARC
  5
2A8D
330
1A
100
AcDbEntity
  8
ZUWAKU
100
AcDbCircle
 10
13.43360575495398
 20
4.712500030804132
 30
0.0
 40
0.2625
100
AcDbArc
 50
0.0
 51
90.0
  0
ARC
  5
2A8E
330
1A
100
AcDbEntity
  8
ZUWAKU
100
AcDbCircle
 10
13.43360575495398
 20
3.837500030804132
 30
0.0
 40
0.2625
100
AcDbArc
 50
270.0
 51
0.0
  0
LINE
  5
2A8F
330
1A
100
AcDbEntity
  8
ZUWAKU
100
AcDbLine
 10
13.69610575495403
 20
4.712500030804132
 30
0.0
 11
13.69610575495403
 21
3.837500030804132
 31
0.0
  0
LINE
  5
2A90
330
1A
100
AcDbEntity
  8
ZUWAKU
100
AcDbLine
 10
16.32110575495403
 20
3.837500030804132
 30
0.0
 11
16.32110575495403
 21
6.637500030804133
 31
0.0
  0
ARC
  5
2A91
330
1A
100
AcDbEntity
  8
ZUWAKU
100
AcDbCircle
 10
16.05860575495398
 20
3.837500030804132
 30
0.0
 40
0.2625
100
AcDbArc
 50
270.0
 51
0.0
  0
LINE
  5
2A92
330
1A
100
AcDbEntity
  8
ZUWAKU
100
AcDbLine
 10
15.18360575495398
 20
3.575000030804133
 30
0.0
 11
16.05860575495398
 21
3.575000030804133
 31
0.0
  0
ARC
  5
2A93
330
1A
100
AcDbEntity
  8
ZUWAKU
100
AcDbCircle
 10
16.58360575495402
 20
8.562500030804134
 30
0.0
 40
0.2625
100
AcDbArc
 50
180.0
 51
270.0
  0
LINE
  5
2A94
330
1A
100
AcDbEntity
  8
ZUWAKU
100
AcDbLine
 10
16.58360575495402
 20
6.900000030804132
 30
0.0
 11
16.65372283669836
 21
6.900000030804132
 31
0.0
  0
LINE
  5
2A95
330
1A
100
AcDbEntity
  8
ZUWAKU
100
AcDbLine
 10
16.65372283669836
 20
8.300000030804131
 30
0.0
 11
16.58360575495402
 21
8.300000030804131
 31
0.0
  0
ARC
  5
2A96
330
1A
100
AcDbEntity
  8
ZUWAKU
100
AcDbCircle
 10
16.65372283669836
 20
8.562500030804134
 30
0.0
 40
0.2625
100
AcDbArc
 50
270.0
 51
342.4744316262769
  0
ARC
  5
2A97
330
1A
100
AcDbEntity
  8
ZUWAKU
100
AcDbCircle
 10
18.08848867320966
 20
3.837500030804132
 30
0.0
 40
0.2625
100
AcDbArc
 50
197.525568373723
 51
270.0
  0
LINE
  5
2A98
330
1A
100
AcDbEntity
  8
ZUWAKU
100
AcDbLine
 10
19.1882488126119
 20
3.916547014887619
 30
0.0
 11
18.02505312337507
 21
7.600000030804142
 31
0.0
  0
ARC
  5
2A99
330
1A
100
AcDbEntity
  8
ZUWAKU
100
AcDbCircle
 10
18.93793336301416
 20
3.837500030804132
 30
0.0
 40
0.2625
100
AcDbArc
 50
270.0
 51
17.52556837372303
  0
LINE
  5
2A9A
330
1A
100
AcDbEntity
  8
ZUWAKU
100
AcDbLine
 10
18.08848867320966
 20
3.575000030804133
 30
0.0
 11
18.93793336301416
 21
3.575000030804133
 31
0.0
  0
ARC
  5
2A9B
330
1A
100
AcDbEntity
  8
ZUWAKU
100
AcDbCircle
 10
20.608605754954
 20
3.837500030804132
 30
0.0
 40
0.2625
100
AcDbArc
 50
180.0
 51
270.0
  0
ARC
  5
2A9C
330
1A
100
AcDbEntity
  8
ZUWAKU
100
AcDbCircle
 10
25.07110575495403
 20
4.975000030804132
 30
0.0
 40
1.399999999999999
100
AcDbArc
 50
270.0
 51
0.0
  0
ARC
  5
2A9D
330
1A
100
AcDbEntity
  8
ZUWAKU
100
AcDbCircle
 10
28.92110575495399
 20
4.975000030804132
 30
0.0
 40
1.399999999999999
100
AcDbArc
 50
180.0
 51
270.0
  0
LINE
  5
2A9E
330
1A
100
AcDbEntity
  8
ZUWAKU
100
AcDbLine
 10
25.85602999544579
 20
7.367525283973545
 30
0.0
 11
24.4011310081234
 21
8.822424271295883
 31
0.0
  0
LINE
  5
2A9F
330
1A
100
AcDbEntity
  8
ZUWAKU
100
AcDbLine
 10
23.41118151446227
 20
7.832474777634722
 30
0.0
 11
24.8660805017846
 21
6.377575790312391
 31
0.0
  0
LINE
  5
2AA0
330
1A
100
AcDbEntity
  8
ZUWAKU
100
AcDbLine
 10
23.32110575495403
 20
3.575000030804133
 30
0.0
 11
25.07110575495403
 21
3.575000030804133
 31
0.0
  0
LINE
  5
2AA1
330
1A
100
AcDbEntity
  8
ZUWAKU
100
AcDbLine
 10
23.32110575495403
 20
4.975000030804132
 30
0.0
 11
24.80860575495398
 21
4.975000030804132
 31
0.0
  0
ARC
  5
2AA2
330
1A
100
AcDbEntity
  8
ZUWAKU
100
AcDbCircle
 10
23.32110575495403
 20
4.712500030804132
 30
0.0
 40
0.2625
100
AcDbArc
 50
90.0
 51
180.0
  0
ARC
  5
2AA3
330
1A
100
AcDbEntity
  8
ZUWAKU
100
AcDbCircle
 10
21.483605754954
 20
3.837500030804132
 30
0.0
 40
0.2625
100
AcDbArc
 50
270.0
 51
0.0
  0
ARC
  5
2AA4
330
1A
100
AcDbEntity
  8
ZUWAKU
100
AcDbCircle
 10
23.32110575495403
 20
3.837500030804132
 30
0.0
 40
0.2625
100
AcDbArc
 50
180.0
 51
270.0
  0
LINE
  5
2AA5
330
1A
100
AcDbEntity
  8
ZUWAKU
100
AcDbLine
 10
23.05860575495398
 20
3.837500030804132
 30
0.0
 11
23.05860575495398
 21
4.712500030804132
 31
0.0
  0
ARC
  5
2AA6
330
1A
100
AcDbEntity
  8
ZUWAKU
100
AcDbCircle
 10
24.80860575495398
 20
5.237500030804135
 30
0.0
 40
0.2625
100
AcDbArc
 50
270.0
 51
0.0
  0
ARC
  5
2AA7
330
1A
100
AcDbEntity
  8
ZUWAKU
100
AcDbCircle
 10
24.37110575495399
 20
5.882601043481805
 30
0.0
 40
0.7
100
AcDbArc
 50
0.0
 51
45.0
  0
LINE
  5
2AA8
330
1A
100
AcDbEntity
  8
ZUWAKU
100
AcDbLine
 10
25.07110575495403
 20
5.237500030804135
 30
0.0
 11
25.07110575495403
 21
5.882601043481805
 31
0.0
  0
ARC
  5
2AA9
330
1A
100
AcDbEntity
  8
ZUWAKU
100
AcDbCircle
 10
29.44610575495403
 20
5.50000003080413
 30
0.0
 40
0.525
100
AcDbArc
 50
180.0
 51
270.0
  0
ARC
  5
2AAA
330
1A
100
AcDbEntity
  8
ZUWAKU
100
AcDbCircle
 10
24.37110575495399
 20
5.882601043481784
 30
0.0
 40
2.099999999999999
100
AcDbArc
 50
0.0
 51
45.0
  0
LINE
  5
2AAB
330
1A
100
AcDbEntity
  8
ZUWAKU
100
AcDbLine
 10
26.47110575495401
 20
4.975000030804132
 30
0.0
 11
26.47110575495401
 21
5.882601043481805
 31
0.0
  0
ARC
  5
2AAC
330
1A
100
AcDbEntity
  8
ZUWAKU
100
AcDbCircle
 10
30.671105754954
 20
4.975000030804132
 30
0.0
 40
1.399999999999999
100
AcDbArc
 50
270.0
 51
0.0
  0
LINE
  5
2AAD
330
1A
100
AcDbEntity
  8
ZUWAKU
100
AcDbLine
 10
33.38360575495403
 20
3.575000030804133
 30
0.0
 11
34.25860575495403
 21
3.575000030804133
 31
0.0
  0
ARC
  5
2AAE
330
1A
100
AcDbEntity
  8
ZUWAKU
100
AcDbCircle
 10
30.14610575495402
 20
5.50000003080413
 30
0.0
 40
0.525
100
AcDbArc
 50
270.0
 51
0.0
  0
ARC
  5
2AAF
330
1A
100
AcDbEntity
  8
ZUWAKU
100
AcDbCircle
 10
33.38360575495403
 20
3.837500030804132
 30
0.0
 40
0.2625
100
AcDbArc
 50
180.0
 51
270.0
  0
ARC
  5
2AB0
330
1A
100
AcDbEntity
  8
ZUWAKU
100
AcDbCircle
 10
34.25860575495403
 20
3.837500030804132
 30
0.0
 40
0.2625
100
AcDbArc
 50
270.0
 51
0.0
  0
LINE
  5
2AB1
330
1A
100
AcDbEntity
  8
ZUWAKU
100
AcDbLine
 10
21.483605754954
 20
11.62500003080413
 30
0.0
 11
20.608605754954
 21
11.62500003080413
 31
0.0
  0
LINE
  5
2AB2
330
1A
100
AcDbEntity
  8
ZUWAKU
100
AcDbLine
 10
13.69610575495403
 20
11.36250003080413
 30
0.0
 11
13.69610575495403
 21
10.48750003080413
 31
0.0
  0
ARC
  5
2AB3
330
1A
100
AcDbEntity
  8
ZUWAKU
100
AcDbCircle
 10
13.43360575495398
 20
10.48750003080413
 30
0.0
 40
0.2625
100
AcDbArc
 50
270.0
 51
0.0
  0
ARC
  5
2AB4
330
1A
100
AcDbEntity
  8
ZUWAKU
100
AcDbCircle
 10
15.18360575495398
 20
11.36250003080413
 30
0.0
 40
0.2625
100
AcDbArc
 50
90.0
 51
180.0
  0
ARC
  5
2AB5
330
1A
100
AcDbEntity
  8
ZUWAKU
100
AcDbCircle
 10
13.43360575495398
 20
11.36250003080413
 30
0.0
 40
0.2625
100
AcDbArc
 50
0.0
 51
90.0
  0
LINE
  5
2AB6
330
1A
100
AcDbEntity
  8
ZUWAKU
100
AcDbLine
 10
16.05860575495398
 20
11.62500003080413
 30
0.0
 11
15.18360575495398
 21
11.62500003080413
 31
0.0
  0
ARC
  5
2AB7
330
1A
100
AcDbEntity
  8
ZUWAKU
100
AcDbCircle
 10
16.05860575495398
 20
11.36250003080413
 30
0.0
 40
0.2625
100
AcDbArc
 50
0.0
 51
90.0
  0
ARC
  5
2AB8
330
1A
100
AcDbEntity
  8
ZUWAKU
100
AcDbCircle
 10
18.08848867320966
 20
11.36250003080413
 30
0.0
 40
0.2625
100
AcDbArc
 50
90.0
 51
162.4744316262769
  0
LINE
  5
2AB9
330
1A
100
AcDbEntity
  8
ZUWAKU
100
AcDbLine
 10
19.1882488126119
 20
11.28345304672064
 30
0.0
 11
18.65742899604299
 21
9.602523627585846
 31
0.0
  0
ARC
  5
2ABA
330
1A
100
AcDbEntity
  8
ZUWAKU
100
AcDbCircle
 10
18.93793336301416
 20
11.36250003080413
 30
0.0
 40
0.2625
100
AcDbArc
 50
342.4744316262769
 51
90.0
  0
LINE
  5
2ABB
330
1A
100
AcDbEntity
  8
ZUWAKU
100
AcDbLine
 10
18.08848867320966
 20
11.62500003080413
 30
0.0
 11
18.93793336301416
 21
11.62500003080413
 31
0.0
  0
ARC
  5
2ABC
330
1A
100
AcDbEntity
  8
ZUWAKU
100
AcDbCircle
 10
20.608605754954
 20
11.36250003080413
 30
0.0
 40
0.2625
100
AcDbArc
 50
90.0
 51
180.0
  0
LINE
  5
2ABD
330
1A
100
AcDbEntity
  8
ZUWAKU
100
AcDbLine
 10
25.94610575495403
 20
10.22500003080413
 30
0.0
 11
24.45860575495402
 21
10.22500003080413
 31
0.0
  0
LINE
  5
2ABE
330
1A
100
AcDbEntity
  8
ZUWAKU
100
AcDbLine
 10
24.19610575495403
 20
11.62500003080413
 30
0.0
 11
25.94610575495403
 21
11.62500003080413
 31
0.0
  0
ARC
  5
2ABF
330
1A
100
AcDbEntity
  8
ZUWAKU
100
AcDbCircle
 10
24.19610575495403
 20
10.22500003080413
 30
0.0
 40
1.399999999999999
100
AcDbArc
 50
90.0
 51
180.0
  0
LINE
  5
2AC0
330
1A
100
AcDbEntity
  8
ZUWAKU
100
AcDbLine
 10
22.796105754954
 20
10.22500003080413
 30
0.0
 11
22.796105754954
 21
9.317399018126462
 31
0.0
  0
ARC
  5
2AC1
330
1A
100
AcDbEntity
  8
ZUWAKU
100
AcDbCircle
 10
21.483605754954
 20
11.36250003080413
 30
0.0
 40
0.2625
100
AcDbArc
 50
0.0
 51
90.0
  0
LINE
  5
2AC2
330
1A
100
AcDbEntity
  8
ZUWAKU
100
AcDbLine
 10
24.19610575495403
 20
9.962500030804132
 30
0.0
 11
24.19610575495403
 21
9.317399018126462
 31
0.0
  0
ARC
  5
2AC3
330
1A
100
AcDbEntity
  8
ZUWAKU
100
AcDbCircle
 10
24.45860575495402
 20
9.962500030804132
 30
0.0
 40
0.2625
100
AcDbArc
 50
90.0
 51
180.0
  0
LINE
  5
2AC4
330
1A
100
AcDbEntity
  8
ZUWAKU
100
AcDbLine
 10
26.20860575495402
 20
11.36250003080413
 30
0.0
 11
26.20860575495402
 21
10.48750003080413
 31
0.0
  0
ARC
  5
2AC5
330
1A
100
AcDbEntity
  8
ZUWAKU
100
AcDbCircle
 10
25.94610575495403
 20
10.48750003080413
 30
0.0
 40
0.2625
100
AcDbArc
 50
270.0
 51
0.0
  0
ARC
  5
2AC6
330
1A
100
AcDbEntity
  8
ZUWAKU
100
AcDbCircle
 10
25.94610575495403
 20
11.36250003080413
 30
0.0
 40
0.2625
100
AcDbArc
 50
0.0
 51
90.0
  0
LINE
  5
2AC7
330
1A
100
AcDbEntity
  8
ZUWAKU
100
AcDbLine
 10
28.65860575495401
 20
11.62500003080413
 30
0.0
 11
27.78360575495401
 21
11.62500003080413
 31
0.0
  0
ARC
  5
2AC8
330
1A
100
AcDbEntity
  8
ZUWAKU
100
AcDbCircle
 10
27.78360575495401
 20
11.36250003080413
 30
0.0
 40
0.2625
100
AcDbArc
 50
90.0
 51
180.0
  0
ARC
  5
2AC9
330
1A
100
AcDbEntity
  8
ZUWAKU
100
AcDbCircle
 10
28.65860575495401
 20
11.36250003080413
 30
0.0
 40
0.2625
100
AcDbArc
 50
0.0
 51
90.0
  0
LINE
  5
2ACA
330
1A
100
AcDbEntity
  8
ZUWAKU
100
AcDbLine
 10
34.25860575495403
 20
11.62500003080413
 30
0.0
 11
33.38360575495403
 21
11.62500003080413
 31
0.0
  0
ARC
  5
2ACB
330
1A
100
AcDbEntity
  8
ZUWAKU
100
AcDbCircle
 10
30.93360575495399
 20
11.36250003080413
 30
0.0
 40
0.2625
100
AcDbArc
 50
90.0
 51
180.0
  0
LINE
  5
2ACC
330
1A
100
AcDbEntity
  8
ZUWAKU
100
AcDbLine
 10
31.80860575495398
 20
11.62500003080413
 30
0.0
 11
30.93360575495399
 21
11.62500003080413
 31
0.0
  0
ARC
  5
2ACD
330
1A
100
AcDbEntity
  8
ZUWAKU
100
AcDbCircle
 10
31.80860575495398
 20
11.36250003080413
 30
0.0
 40
0.2625
100
AcDbArc
 50
0.0
 51
90.0
  0
ARC
  5
2ACE
330
1A
100
AcDbEntity
  8
ZUWAKU
100
AcDbCircle
 10
33.38360575495403
 20
11.36250003080413
 30
0.0
 40
0.2625
100
AcDbArc
 50
90.0
 51
180.0
  0
ARC
  5
2ACF
330
1A
100
AcDbEntity
  8
ZUWAKU
100
AcDbCircle
 10
34.25860575495403
 20
11.36250003080413
 30
0.0
 40
0.2625
100
AcDbArc
 50
0.0
 51
90.0
  0
TEXT
  5
2AD0
330
1A
100
AcDbEntity
  8
MOJI
100
AcDbText
 10
119.9136010179889
 20
1.602460559507841
 30
0.0
 40
2.799999999999999
  1
Ｘ７０Ｕ－６－４５～６０
 41
0.9
  7
ｽﾀｲﾙ1
100
AcDbText
  0
TEXT
  5
2AD1
330
1A
100
AcDbEntity
  8
MOJI
100
AcDbText
 10
119.9136010179889
 20
9.002460559507824
 30
0.0
 40
2.799999999999999
  1
ブラケット正面打（吊）ワンタッチ自在式
 41
0.9
  7
ｽﾀｲﾙ1
100
AcDbText
  0
LINE
  5
2AD2
330
1A
100
AcDbEntity
  8
ZUWAKU
100
AcDbLine
 10
104.2233003225973
 20
15.00000003080413
 30
0.0
 11
104.2233003225974
 21
0.4000000308041649
 31
0.0
  0
LINE
  5
2AD3
330
1A
100
AcDbEntity
  8
ZUWAKU
100
AcDbLine
 10
104.3233003225973
 20
15.00000003080413
 30
0.0
 11
104.3233003225974
 21
0.4000000308041649
 31
0.0
  0
LINE
  5
2AD4
330
1A
100
AcDbEntity
  8
ZUWAKU
100
AcDbLine
 10
104.1233003225974
 20
15.00000003080413
 30
0.0
 11
104.1233003225974
 21
0.4000000308041649
 31
0.0
  0
TEXT
  5
2AD5
330
1A
100
AcDbEntity
  8
ZUWAKU
100
AcDbText
 10
104.8620228337022
 20
4.827678299996939
 30
0.0
 40
2.0
  1
サイズ
 41
0.9
  7
ｽﾀｲﾙ1
100
AcDbText
  0
TEXT
  5
2AD6
330
1A
100
AcDbEntity
  8
ZUWAKU
100
AcDbText
 10
104.862022833702
 20
12.02767829999692
 30
0.0
 40
2.0
  1
品名
 41
0.9
  7
ｽﾀｲﾙ1
100
AcDbText
  0
TEXT
  5
2AD7
330
1A
100
AcDbEntity
  8
ZUWAKU
100
AcDbText
 10
329.1019685212146
 20
9.002460559507824
 30
0.0
 40
2.799999999999999
  1
　　．　　．　　
 41
0.9
  7
ｽﾀｲﾙ1
100
AcDbText
  0
LINE
  5
2AD8
330
1A
100
AcDbEntity
  8
ZUWAKU
100
AcDbLine
 10
324.4086009326655
 20
7.800000030804147
 30
0.0
 11
348.624504951834
 21
7.800000030804147
 31
0.0
  0
LINE
  5
2AD9
330
1A
100
AcDbEntity
  8
ZUWAKU
100
AcDbLine
 10
324.4086009326656
 20
7.700000030804149
 30
0.0
 11
348.624504951834
 21
7.700000030804147
 31
0.0
  0
LINE
  5
2ADA
330
1A
100
AcDbEntity
  8
ZUWAKU
100
AcDbLine
 10
324.4086009326655
 20
7.600000030804146
 30
0.0
 11
348.624504951834
 21
7.600000030804148
 31
0.0
  0
LINE
  5
2ADB
330
1A
100
AcDbEntity
  8
ZUWAKU
100
AcDbLine
 10
252.5995894266338
 20
7.800000030804147
 30
0.0
 11
276.2634775606196
 21
7.800000030804147
 31
0.0
  0
LINE
  5
2ADC
330
1A
100
AcDbEntity
  8
ZUWAKU
100
AcDbLine
 10
252.5995894266338
 20
7.700000030804147
 30
0.0
 11
276.2634775606196
 21
7.700000030804147
 31
0.0
  0
LINE
  5
2ADD
330
1A
100
AcDbEntity
  8
ZUWAKU
100
AcDbLine
 10
252.5995894266338
 20
7.600000030804149
 30
0.0
 11
276.2634775606196
 21
7.600000030804149
 31
0.0
  0
LINE
  5
2ADE
330
1A
100
AcDbEntity
  8
ZUWAKU
100
AcDbLine
 10
252.3995894266339
 20
15.00000003080413
 30
0.0
 11
252.3995894266339
 21
0.4000000308041649
 31
0.0
  0
LINE
  5
2ADF
330
1A
100
AcDbEntity
  8
ZUWAKU
100
AcDbLine
 10
252.5995894266338
 20
15.00000003080413
 30
0.0
 11
252.599589426634
 21
0.4000000308041649
 31
0.0
  0
LINE
  5
2AE0
330
1A
100
AcDbEntity
  8
ZUWAKU
100
AcDbLine
 10
252.4995894266338
 20
15.00000003080413
 30
0.0
 11
252.4995894266339
 21
0.4000000308041649
 31
0.0
  0
TEXT
  5
2AE1
330
1A
100
AcDbEntity
  8
MOJI
100
AcDbText
 10
264.0204536637198
 20
9.002460559507824
 30
0.0
 40
2.799999999999999
  1
Ａ３
 41
0.9
  7
ｽﾀｲﾙ1
100
AcDbText
  0
LINE
  5
2AE2
330
1A
100
AcDbEntity
  8
ZUWAKU
100
AcDbLine
 10
223.7121816630591
 20
15.00000003080413
 30
0.0
 11
223.7121816630591
 21
0.4000000308041649
 31
0.0
  0
LINE
  5
2AE3
330
1A
100
AcDbEntity
  8
ZUWAKU
100
AcDbLine
 10
223.912181663059
 20
15.00000003080413
 30
0.0
 11
223.9121816630591
 21
0.4000000308041649
 31
0.0
  0
LINE
  5
2AE4
330
1A
100
AcDbEntity
  8
ZUWAKU
100
AcDbLine
 10
223.812181663059
 20
15.00000003080413
 30
0.0
 11
223.8121816630591
 21
0.4000000308041649
 31
0.0
  0
TEXT
  5
2AE5
330
1A
100
AcDbEntity
  8
MOJI
100
AcDbText
 10
231.2836388385577
 20
5.971308891634123
 30
0.0
 40
2.799999999999999
  1
ＬＫ３８Ｔ
 41
0.9
  7
ｽﾀｲﾙ1
100
AcDbText
  0
TEXT
  5
2AE6
330
1A
100
AcDbEntity
  8
ZUWAKU
100
AcDbText
 10
253.3383119377388
 20
4.827678299996939
 30
0.0
 40
2.0
  1
縮尺
 41
0.9
  7
ｽﾀｲﾙ1
100
AcDbText
  0
TEXT
  5
2AE7
330
1A
100
AcDbEntity
  8
MOJI
100
AcDbText
 10
264.0204536637198
 20
1.602460559507841
 30
0.0
 40
2.799999999999999
  1
１/１
 41
0.9
  7
ｽﾀｲﾙ1
100
AcDbText
  0
TEXT
  5
2AE8
330
1A
100
AcDbEntity
  8
ZUWAKU
100
AcDbText
 10
224.6509041741638
 20
12.02767829999692
 30
0.0
 40
2.0
  1
品番
 41
0.9
  7
ｽﾀｲﾙ1
100
AcDbText
  0
TEXT
  5
2AE9
330
1A
100
AcDbEntity
  8
ZUWAKU
100
AcDbText
 10
253.3383119377386
 20
12.02767829999692
 30
0.0
 40
2.0
  1
用紙
 41
0.9
  7
ｽﾀｲﾙ1
100
AcDbText
  0
LINE
  5
2AEA
330
1A
100
AcDbEntity
  8
ZUWAKU
100
AcDbLine
 10
276.2634775606196
 20
15.00000003080413
 30
0.0
 11
276.2634775606196
 21
0.4000000308041649
 31
0.0
  0
LINE
  5
2AEB
330
1A
100
AcDbEntity
  8
ZUWAKU
100
AcDbLine
 10
276.4634775606196
 20
15.00000003080413
 30
0.0
 11
276.4634775606197
 21
0.4000000308041649
 31
0.0
  0
LINE
  5
2AEC
330
1A
100
AcDbEntity
  8
ZUWAKU
100
AcDbLine
 10
276.3634775606195
 20
15.00000003080413
 30
0.0
 11
276.3634775606196
 21
0.4000000308041649
 31
0.0
  0
LINE
  5
2AED
330
1A
100
AcDbEntity
  8
ZUWAKU
100
AcDbLine
 10
324.2086009326657
 20
15.00000003080413
 30
0.0
 11
324.2086009326657
 21
0.4000000308041649
 31
0.0
  0
LINE
  5
2AEE
330
1A
100
AcDbEntity
  8
ZUWAKU
100
AcDbLine
 10
324.4086009326656
 20
15.00000003080413
 30
0.0
 11
324.4086009326657
 21
0.4000000308041649
 31
0.0
  0
LINE
  5
2AEF
330
1A
100
AcDbEntity
  8
ZUWAKU
100
AcDbLine
 10
324.3086009326656
 20
15.00000003080413
 30
0.0
 11
324.3086009326657
 21
0.4000000308041649
 31
0.0
  0
TEXT
  5
2AF0
330
1A
100
AcDbEntity
  8
ZUWAKU
100
AcDbText
 10
325.1473234437704
 20
12.02767829999692
 30
0.0
 40
2.0
  1
DATE
 41
0.9
  7
ｽﾀｲﾙ1
100
AcDbText
  0
TEXT
  5
2AF1
330
1A
100
AcDbEntity
  8
ZUWAKU
100
AcDbText
 10
354.2640417736853
 20
8.776919698647532
 30
0.0
 40
3.0
  1
積水化学工業株式会社
 41
0.9
  7
ｽﾀｲﾙ1
100
AcDbText
  0
LINE
  5
2AF2
330
1A
100
AcDbEntity
  8
ZUWAKU
100
AcDbLine
 10
348.924504951834
 20
15.00000003080413
 30
0.0
 11
348.9245049518341
 21
0.4000000308041649
 31
0.0
  0
LINE
  5
2AF3
330
1A
100
AcDbEntity
  8
ZUWAKU
100
AcDbLine
 10
348.824504951834
 20
15.00000003080413
 30
0.0
 11
348.8245049518341
 21
0.4000000308041649
 31
0.0
  0
LINE
  5
2AF4
330
1A
100
AcDbEntity
  8
ZUWAKU
100
AcDbLine
 10
348.7245049518341
 20
15.00000003080413
 30
0.0
 11
348.7245049518341
 21
0.4000000308041649
 31
0.0
  0
LINE
  5
2AF5
330
1A
100
AcDbEntity
  8
ZUWAKU
100
AcDbLine
 10
348.624504951834
 20
15.00000003080413
 30
0.0
 11
348.624504951834
 21
0.4000000308041649
 31
0.0
  0
TEXT
  5
2AF6
330
1A
100
AcDbEntity
  8
ZUWAKU
100
AcDbText
 10
354.2640417736853
 20
3.324420187731163
 30
0.0
 40
3.0
  1
建材事業部
 41
0.9
  7
ｽﾀｲﾙ1
100
AcDbText
  0
DIMENSION
  5
57E3
330
1A
100
AcDbEntity
  8
SUNPOU
100
AcDbDimension
  2
*D1
 10
41.62218152247826
 20
86.74724256834593
 30
0.0
 11
39.12218152247824
 21
79.24724256834595
 31
0.0
 70
    32
  3
STANDARD
100
AcDbAlignedDimension
 13
67.27513529531792
 23
88.18447953750824
 33
0.0
 14
233.1909069842943
 24
86.74724256834588
 34
0.0
 50
90.0
100
AcDbRotatedDimension
1001
ACAD
1000
DSTYLE
1002
{
1070
    41
1040
3.0
1070
    42
1040
3.0
1070
    43
1040
7.0
1070
    44
1040
1.5
1070
    73
1070
     0
1070
    74
1070
     0
1070
    77
1070
     3
1070
   140
1040
3.0
1070
   141
1040
3.0
1070
   147
1040
1.0
1070
   172
1070
     1
1070
   173
1070
     1
1070
   176
1070
   256
1070
   177
1070
   256
1070
   178
1070
   256
1070
   271
1070
     0
1070
   272
1070
     0
1070
   341
1005
B2
1070
     6
1000
OPEN
1070
     7
1000
OPEN
1002
}
  0
DIMENSION
  5
57E4
330
1A
100
AcDbEntity
  8
SUNPOU
100
AcDbDimension
  2
*D2
 10
254.9518870015162
 20
99.80383057867896
 30
0.0
 11
243.7187296746819
 21
123.3848860357739
 31
0.0
 70
    33
  3
STANDARD
100
AcDbAlignedDimension
 13
206.437127702063
 23
131.3368747053982
 33
0.0
 14
233.1909069842943
 24
86.74724256834588
 34
0.0
1001
ACAD
1000
DSTYLE
1002
{
1070
    41
1040
3.0
1070
    42
1040
3.0
1070
    43
1040
7.0
1070
    44
1040
1.5
1070
    73
1070
     0
1070
    74
1070
     0
1070
    77
1070
     3
1070
   140
1040
3.0
1070
   141
1040
3.0
1070
   147
1040
1.0
1070
   172
1070
     1
1070
   173
1070
     1
1070
   176
1070
   256
1070
   177
1070
   256
1070
   178
1070
   256
1070
   271
1070
     0
1070
   272
1070
     0
1070
   341
1005
B2
1070
     6
1000
OPEN
1070
     7
1000
OPEN
1002
}
  0
DIMENSION
  5
57E5
330
1A
100
AcDbEntity
  8
SUNPOU
100
AcDbDimension
  2
*D3
 10
213.4432935498919
 20
74.89867450942809
 30
0.0
 11
206.3261022692897
 21
91.61978655930283
 31
0.0
 70
    33
  3
STANDARD
100
AcDbAlignedDimension
 13
208.9238571942944
 23
114.1698663313458
 33
0.0
 14
227.4457043842943
 24
83.30012100834592
 34
0.0
1001
ACAD
1000
DSTYLE
1002
{
1070
    41
1040
3.0
1070
    42
1040
3.0
1070
    43
1040
7.0
1070
    44
1040
1.5
1070
    73
1070
     0
1070
    74
1070
     0
1070
    77
1070
     3
1070
   140
1040
3.0
1070
   141
1040
3.0
1070
   147
1040
1.0
1070
   172
1070
     1
1070
   173
1070
     1
1070
   176
1070
   256
1070
   177
1070
   256
1070
   178
1070
   256
1070
   271
1070
     0
1070
   272
1070
     0
1070
   341
1005
B2
1070
     6
1000
OPEN
1070
     7
1000
OPEN
1002
}
  0
LINE
  5
57E6
330
1A
100
AcDbEntity
  8
CENTER_L
100
AcDbLine
 10
210.1243472842885
 20
98.56349508269786
 30
0.0
 11
227.8744508459206
 21
109.2135572172189
 31
0.0
  0
LINE
  5
57E7
330
1A
100
AcDbEntity
  8
CENTER_L
100
AcDbLine
 10
205.75113336537
 20
105.8521849471685
 30
0.0
 11
223.5012369266549
 21
116.5022470814812
 31
0.0
  0
DIMENSION
  5
57E8
330
1A
100
AcDbEntity
  8
SUNPOU
100
AcDbDimension
  2
*D4
 10
224.3394502615227
 20
153.5485712149657
 30
0.0
 11
216.8120018015035
 21
156.0485712149657
 31
0.0
 70
    32
  3
STANDARD
100
AcDbAlignedDimension
 13
209.2845533414844
 23
126.5071716258729
 33
0.0
 14
224.3394502615227
 24
126.4996704442131
 34
0.0
100
AcDbRotatedDimension
1001
ACAD
1000
DSTYLE
1002
{
1070
    41
1040
3.0
1070
    42
1040
3.0
1070
    43
1040
7.0
1070
    44
1040
1.5
1070
    73
1070
     0
1070
    74
1070
     0
1070
    77
1070
     3
1070
   140
1040
3.0
1070
   141
1040
3.0
1070
   147
1040
1.0
1070
   172
1070
     1
1070
   173
1070
     1
1070
   176
1070
   256
1070
   177
1070
   256
1070
   178
1070
   256
1070
   271
1070
     0
1070
   272
1070
     0
1070
   341
1005
B2
1070
     6
1000
OPEN
1070
     7
1000
OPEN
1002
}
  0
LINE
  5
57E9
330
1A
100
AcDbEntity
  8
SEIHIN
 62
     3
100
AcDbLine
 10
208.9107038015227
 20
126.2424225662131
 30
0.0
 11
214.2403133342944
 21
117.3597400153459
 31
0.0
  0
LINE
  5
57EA
330
1A
100
AcDbEntity
  8
SEIHIN
 62
     3
100
AcDbLine
 10
208.9238571942944
 20
114.1698663313458
 30
0.0
 11
214.6690597942943
 21
117.6169878933458
 31
0.0
  0
LINE
  5
57EB
330
1A
100
AcDbEntity
  8
SEIHIN
 62
     3
100
AcDbLine
 10
227.4457043842943
 20
83.30012100834592
 30
0.0
 11
208.9238571942944
 21
114.1698663313458
 31
0.0
  0
ARC
  5
57EC
330
1A
100
AcDbEntity
  8
SEIHIN
  6
DASHED
 62
     2
100
AcDbCircle
 10
218.4359024642943
 20
117.8742357703458
 30
0.0
 40
9.999999996632222
100
AcDbArc
 50
56.80568921000829
 51
170.7918456294877
  0
ARC
  5
57ED
330
1A
100
AcDbEntity
  8
SEIHIN
100
AcDbCircle
 10
213.2855580403728
 20
219.4091353003454
 30
0.0
 40
1.700000003059988
100
AcDbArc
 50
93.79183492946813
 51
165.4514548057512
  0
ARC
  5
57EE
330
1A
100
AcDbEntity
  8
SEIHIN
100
AcDbCircle
 10
213.2855580403728
 20
205.2632159615501
 30
0.0
 40
1.700000003059988
100
AcDbArc
 50
194.5485451942487
 51
266.2081650705318
  0
LINE
  5
57EF
330
1A
100
AcDbEntity
  8
SEIHIN
100
AcDbLine
 10
124.4615849142943
 20
215.3361756109478
 30
0.0
 11
225.366886456344
 21
215.3361756109478
 31
0.0
  0
LINE
  5
57F0
330
1A
100
AcDbEntity
  8
SEIHIN
100
AcDbLine
 10
124.4615849142943
 20
209.3361756109478
 30
0.0
 11
225.3676001638442
 21
209.3361756109478
 31
0.0
  0
LINE
  5
57F1
330
1A
100
AcDbEntity
  8
SEIHIN
100
AcDbLine
 10
95.08820478429441
 20
219.8361756509478
 30
0.0
 11
231.1632399342944
 21
219.8361756509478
 31
0.0
  0
LINE
  5
57F2
330
1A
100
AcDbEntity
  8
SEIHIN
100
AcDbLine
 10
95.08820478429441
 20
204.8361756109478
 30
0.0
 11
231.1632399342944
 21
204.8361756109479
 31
0.0
  0
LINE
  5
57F3
330
1A
100
AcDbEntity
  8
SEIHIN
100
AcDbLine
 10
94.58820478429442
 20
205.8361756109478
 30
0.0
 11
231.1632399342944
 21
205.8361756109478
 31
0.0
  0
LINE
  5
57F4
330
1A
100
AcDbEntity
  8
SEIHIN
100
AcDbLine
 10
94.58820478429442
 20
218.8361756509479
 30
0.0
 11
231.1632399342944
 21
218.8361756509478
 31
0.0
  0
LINE
  5
57F5
330
1A
100
AcDbEntity
  8
CENTER_L
100
AcDbLine
 10
61.42161877429444
 20
212.3361756309478
 30
0.0
 11
234.8548394342943
 21
212.3361756309478
 31
0.0
  0
DIMENSION
  5
57F6
330
1A
100
AcDbEntity
  8
SUNPOU
100
AcDbDimension
  2
*D5
 10
209.2845533414844
 20
144.6663518082138
 30
0.0
 11
193.8889443178895
 21
147.1663518082139
 31
0.0
 70
    32
  3
STANDARD
100
AcDbAlignedDimension
 13
178.4933352942945
 23
88.48287953750839
 33
0.0
 14
209.2845533414844
 24
126.5071716258729
 34
0.0
100
AcDbRotatedDimension
1001
ACAD
1000
DSTYLE
1002
{
1070
    41
1040
3.0
1070
    42
1040
3.0
1070
    43
1040
7.0
1070
    44
1040
1.5
1070
    73
1070
     0
1070
    74
1070
     0
1070
    77
1070
     3
1070
   140
1040
3.0
1070
   141
1040
3.0
1070
   147
1040
1.0
1070
   172
1070
     1
1070
   173
1070
     1
1070
   176
1070
   256
1070
   177
1070
   256
1070
   178
1070
   256
1070
   271
1070
     0
1070
   272
1070
     0
1070
   341
1005
B2
1070
     6
1000
OPEN
1070
     7
1000
OPEN
1002
}
  0
DIMENSION
  5
57F7
330
1A
100
AcDbEntity
  8
SUNPOU
100
AcDbDimension
  2
*D6
 10
209.2845533414844
 20
153.5485712149657
 30
0.0
 11
137.6548193178894
 21
156.0485712149657
 31
0.0
 70
    32
  3
STANDARD
100
AcDbAlignedDimension
 13
66.02508529429446
 23
86.93447953834583
 33
0.0
 14
209.2845533414844
 24
126.5071716258729
 34
0.0
100
AcDbRotatedDimension
1001
ACAD
1000
DSTYLE
1002
{
1070
    41
1040
3.0
1070
    42
1040
3.0
1070
    43
1040
7.0
1070
    44
1040
1.5
1070
    73
1070
     0
1070
    74
1070
     0
1070
    77
1070
     3
1070
   140
1040
3.0
1070
   141
1040
3.0
1070
   147
1040
1.0
1070
   172
1070
     1
1070
   173
1070
     1
1070
   176
1070
   256
1070
   177
1070
   256
1070
   178
1070
   256
1070
   271
1070
     0
1070
   272
1070
     0
1070
   341
1005
B2
1070
     6
1000
OPEN
1070
     7
1000
OPEN
1002
}
  0
ARC
  5
57F8
330
1A
100
AcDbEntity
  8
NOKITOI
  6
PHANTOM
 62
     8
100
AcDbCircle
 10
74.60560913308547
 20
38.37413942802447
 30
0.0
 40
14.22848866365036
100
AcDbArc
 50
51.52529185494234
 51
71.45345265407094
  0
ARC
  5
57F9
330
1A
100
AcDbEntity
  8
NOKITOI
  6
PHANTOM
 62
     8
100
AcDbCircle
 10
74.60554236408137
 20
38.37417156461458
 30
0.0
 40
12.93471022655885
100
AcDbArc
 50
8.676219579621381
 51
74.45245455808946
  0
LINE
  5
57FA
330
1A
100
AcDbEntity
  8
SEIHIN
100
AcDbLine
 10
80.13368529429442
 20
79.37177953834589
 30
0.0
 11
87.18888529429444
 21
74.24077953834586
 31
0.0
  0
LINE
  5
57FB
330
1A
100
AcDbEntity
  8
SEIHIN
100
AcDbLine
 10
89.0553018142944
 20
84.28447953834586
 30
0.0
 11
69.52508529429445
 21
84.28447953834586
 31
0.0
  0
LINE
  5
57FC
330
1A
100
AcDbEntity
  8
NOKITOI
  6
PHANTOM
 62
     8
100
AcDbLine
 10
78.47423529429448
 20
52.60207953750825
 30
0.0
 11
72.54323529429456
 21
80.77197953750845
 31
0.0
  0
LINE
  5
57FD
330
1A
100
AcDbEntity
  8
NOKITOI
  6
PHANTOM
 62
     8
100
AcDbLine
 10
77.36563529429457
 20
51.5891795375083
 30
0.0
 11
71.52703529429442
 21
79.32047953750845
 31
0.0
  0
ARC
  5
57FE
330
1A
100
AcDbEntity
  8
NOKITOI
  6
PHANTOM
 62
     8
100
AcDbCircle
 10
78.33927531868204
 20
51.79413687328247
 30
0.0
 40
0.9949785960395137
100
AcDbArc
 50
191.8875585738772
 51
254.4495841050101
  0
ARC
  5
57FF
330
1A
100
AcDbEntity
  8
NOKITOI
  6
PHANTOM
 62
     8
100
AcDbCircle
 10
79.44785517606596
 20
52.80705720042835
 30
0.0
 40
0.995060928010462
100
AcDbArc
 50
191.8877567214151
 51
251.4524867922939
  0
LINE
  5
5800
330
1A
100
AcDbEntity
  8
NOKITOI
  6
PHANTOM
 62
     8
100
AcDbLine
 10
65.78263529429449
 20
86.6920795375084
 30
0.0
 11
65.78263529429449
 21
82.76187953750838
 31
0.0
  0
LINE
  5
5801
330
1A
100
AcDbEntity
  8
NOKITOI
  6
PHANTOM
 62
     8
100
AcDbLine
 10
64.48913529429461
 20
80.47347953750824
 30
0.0
 11
64.48913529429461
 21
88.48297953750824
 31
0.0
  0
LINE
  5
5802
330
1A
100
AcDbEntity
  8
SEIHIN
100
AcDbLine
 10
66.02508529429446
 20
86.93447953834583
 30
0.0
 11
66.02508529429446
 21
83.28447953834587
 31
0.0
  0
LINE
  5
5803
330
1A
100
AcDbEntity
  8
NOKITOI
  6
PHANTOM
 62
     8
100
AcDbLine
 10
67.77263529429461
 20
80.77197953750845
 30
0.0
 11
72.54323529429456
 21
80.77197953750845
 31
0.0
  0
LINE
  5
5804
330
1A
100
AcDbEntity
  8
SEIHIN
100
AcDbLine
 10
68.02508529429445
 20
81.28447953834585
 30
0.0
 11
74.2519852942944
 21
81.28447953834585
 31
0.0
  0
LINE
  5
5805
330
1A
100
AcDbEntity
  8
NOKITOI
  6
PHANTOM
 62
     8
100
AcDbLine
 10
71.33233529429464
 20
79.47847953750823
 30
0.0
 11
65.48413529429462
 21
79.47847953750823
 31
0.0
  0
ARC
  5
5806
330
1A
100
AcDbEntity
  8
NOKITOI
  6
PHANTOM
 62
     8
100
AcDbCircle
 10
67.77258529429452
 20
82.76192953750848
 30
0.0
 40
1.989950000628206
100
AcDbArc
 50
180.0014396286229
 51
270.0014396286237
  0
ARC
  5
5807
330
1A
100
AcDbEntity
  8
NOKITOI
  6
PHANTOM
 62
     8
100
AcDbCircle
 10
65.48413529429462
 20
80.47347953750824
 30
0.0
 40
0.9950000000000045
100
AcDbArc
 50
180.0
 51
270.0
  0
ARC
  5
5808
330
1A
100
AcDbEntity
  8
SEIHIN
100
AcDbCircle
 10
68.02508529429445
 20
83.28447953834587
 30
0.0
 40
2.0
100
AcDbArc
 50
180.0
 51
270.0
  0
ARC
  5
5809
330
1A
100
AcDbEntity
  8
NOKITOI
  6
PHANTOM
 62
     8
100
AcDbCircle
 10
71.33231685168033
 20
79.27949450094513
 30
0.0
 40
0.1989850374177657
100
AcDbArc
 50
11.88631382809262
 51
89.9946896310657
  0
ARC
  5
580A
330
1A
100
AcDbEntity
  8
SEIHIN
100
AcDbCircle
 10
74.25189428429439
 20
71.28450913834587
 30
0.0
 40
9.999970400385993
100
AcDbArc
 50
53.97197877308379
 51
89.99947854956749
  0
LINE
  5
580B
330
1A
100
AcDbEntity
  8
NOKITOI
  6
PHANTOM
 62
     8
100
AcDbLine
 10
65.48413529429462
 20
89.47797953750836
 30
0.0
 11
69.71533529429456
 21
89.47797953750836
 31
0.0
  0
ARC
  5
580C
330
1A
100
AcDbEntity
  8
NOKITOI
  6
PHANTOM
 62
     8
100
AcDbCircle
 10
67.92433529429451
 20
86.6920795375084
 30
0.0
 40
1.492399999999918
100
AcDbArc
 50
0.0000000000016284
 51
90.00000000000245
  0
LINE
  5
580D
330
1A
100
AcDbEntity
  8
SEIHIN
100
AcDbLine
 10
68.52508529429446
 20
85.28447953834586
 30
0.0
 11
66.02508529429446
 21
85.28437953834588
 31
0.0
  0
ARC
  5
580E
330
1A
100
AcDbEntity
  8
SEIHIN
100
AcDbCircle
 10
67.27508529429446
 20
86.93447953834583
 30
0.0
 40
1.25
100
AcDbArc
 50
0.0
 51
180.0
  0
LINE
  5
580F
330
1A
100
AcDbEntity
  8
NOKITOI
  6
PHANTOM
 62
     8
100
AcDbLine
 10
67.92433529429451
 20
88.18447953750824
 30
0.0
 11
67.27513529429455
 21
88.18447953750824
 31
0.0
  0
ARC
  5
5810
330
1A
100
AcDbEntity
  8
NOKITOI
  6
PHANTOM
 62
     8
100
AcDbCircle
 10
67.27508529429446
 20
86.69202953750829
 30
0.0
 40
1.49245000083754
100
AcDbArc
 50
89.99808047909004
 51
179.99808047909
  0
ARC
  5
5811
330
1A
100
AcDbEntity
  8
NOKITOI
  6
PHANTOM
 62
     8
100
AcDbCircle
 10
65.48413529429462
 20
88.48297953750835
 30
0.0
 40
0.9950000000000613
100
AcDbArc
 50
90.00000000000325
 51
180.0000000000032
  0
ARC
  5
5812
330
1A
100
AcDbEntity
  8
NOKITOI
  6
PHANTOM
 62
     8
100
AcDbCircle
 10
69.71528529429446
 20
88.4830295375084
 30
0.0
 40
0.9949500012563332
100
AcDbArc
 50
359.9971206704047
 51
89.99712067040476
  0
LINE
  5
5813
330
1A
100
AcDbEntity
  8
NOKITOI
  6
PHANTOM
 62
     8
100
AcDbLine
 10
69.41683529429457
 20
84.27817953750837
 30
0.0
 11
69.41683529429457
 21
86.6920795375084
 31
0.0
  0
LINE
  5
5814
330
1A
100
AcDbEntity
  8
NOKITOI
  6
PHANTOM
 62
     8
100
AcDbLine
 10
70.71023529429448
 20
84.27817953750837
 30
0.0
 11
69.41683529429457
 21
84.27817953750837
 31
0.0
  0
LINE
  5
5815
330
1A
100
AcDbEntity
  8
NOKITOI
  6
PHANTOM
 62
     8
100
AcDbLine
 10
70.71023529429448
 20
88.48297953750824
 30
0.0
 11
70.71023529429448
 21
84.27817953750837
 31
0.0
  0
LINE
  5
5816
330
1A
100
AcDbEntity
  8
SEIHIN
100
AcDbLine
 10
68.52508529429446
 20
86.93447953834583
 30
0.0
 11
68.52508529429446
 21
85.28447953834586
 31
0.0
  0
ARC
  5
5817
330
1A
100
AcDbEntity
  8
SEIHIN
100
AcDbCircle
 10
69.52508529429445
 20
85.28447953834586
 30
0.0
 40
1.0
100
AcDbArc
 50
180.0
 51
270.0
  0
LINE
  5
5818
330
1A
100
AcDbEntity
  8
CENTER_L
  6
CENTER
 62
     1
100
AcDbLine
 10
121.4911352942946
 20
29.48042953750842
 30
0.0
 11
121.4911352942946
 21
50.78042953750844
 31
0.0
  0
LINE
  5
5819
330
1A
100
AcDbEntity
  8
NOKITOI
  6
PHANTOM
 62
     8
100
AcDbLine
 10
93.49253529429455
 20
40.97287953750845
 30
0.0
 11
93.49263529429464
 21
49.47017953750838
 31
0.0
  0
LINE
  5
581A
330
1A
100
AcDbEntity
  8
NOKITOI
  6
PHANTOM
 62
     8
100
AcDbLine
 10
149.4897352942945
 20
40.97287953750845
 30
0.0
 11
149.4898352942944
 21
49.46987953750824
 31
0.0
  0
ARC
  5
581B
330
1A
100
AcDbEntity
  8
NOKITOI
  6
PHANTOM
 62
     8
100
AcDbCircle
 10
168.3766241379736
 20
38.37416695603428
 30
0.0
 40
12.93449408578155
100
AcDbArc
 50
105.547333235354
 51
171.3240617643019
  0
ARC
  5
581C
330
1A
100
AcDbEntity
  8
NOKITOI
  6
PHANTOM
 62
     8
100
AcDbCircle
 10
168.3767297608827
 20
38.37407329724305
 30
0.0
 40
12.93461262833301
100
AcDbArc
 50
105.5476727870196
 51
171.3237222126368
  0
LINE
  5
581D
330
1A
100
AcDbEntity
  8
NOKITOI
  6
PHANTOM
 62
     8
100
AcDbLine
 10
93.69153529429462
 20
40.77387953750838
 30
0.0
 11
149.2907352942946
 21
40.77377953750828
 31
0.0
  0
LINE
  5
581E
330
1A
100
AcDbEntity
  8
NOKITOI
  6
PHANTOM
 62
     8
100
AcDbLine
 10
88.37583529429464
 20
39.48047953750835
 30
0.0
 11
154.6064352942946
 21
39.4803795375085
 31
0.0
  0
LINE
  5
581F
330
1A
100
AcDbEntity
  8
NOKITOI
  6
PHANTOM
 62
     8
100
AcDbLine
 10
154.6064352942946
 20
39.4803795375085
 30
0.0
 11
88.37583529429464
 21
39.48047953750835
 31
0.0
  0
LINE
  5
5820
330
1A
100
AcDbEntity
  8
NOKITOI
  6
PHANTOM
 62
     8
100
AcDbLine
 10
91.83023529429448
 20
48.17017953750843
 30
0.0
 11
85.60933529429457
 21
48.17017953750843
 31
0.0
  0
ARC
  5
5821
330
1A
100
AcDbEntity
  8
NOKITOI
  6
PHANTOM
 62
     8
100
AcDbCircle
 10
89.05081225316639
 20
41.28049840179665
 30
0.0
 40
0.5000188648192144
100
AcDbArc
 50
191.386728855441
 51
270.0026402191986
  0
ARC
  5
5822
330
1A
100
AcDbEntity
  8
NOKITOI
  6
PHANTOM
 62
     8
100
AcDbCircle
 10
74.60554049130786
 20
38.3741689217403
 30
0.0
 40
14.23472333170272
100
AcDbArc
 50
11.37541821407338
 51
40.79334907830746
  0
ARC
  5
5823
330
1A
100
AcDbEntity
  8
NOKITOI
  6
PHANTOM
 62
     8
100
AcDbCircle
 10
88.37584290831221
 20
40.47547299726443
 30
0.0
 40
0.9949934597852239
100
AcDbArc
 50
188.6761125650602
 51
269.9995615538234
  0
ARC
  5
5824
330
1A
100
AcDbEntity
  8
NOKITOI
  6
PHANTOM
 62
     8
100
AcDbCircle
 10
85.60933895359772
 20
47.87018752938798
 30
0.0
 40
0.2999920081427447
100
AcDbArc
 50
90.00069889403132
 51
220.7967284175802
  0
LINE
  5
5825
330
1A
100
AcDbEntity
  8
NOKITOI
  6
PHANTOM
 62
     8
100
AcDbLine
 10
92.19253529429449
 20
41.28047953750843
 30
0.0
 11
92.19253529429449
 21
47.80777953750845
 31
0.0
  0
ARC
  5
5826
330
1A
100
AcDbEntity
  8
NOKITOI
  6
PHANTOM
 62
     8
100
AcDbCircle
 10
91.69253529429438
 20
41.28047953750843
 30
0.0
 40
0.5000000000000569
100
AcDbArc
 50
270.0000000000065
 51
0.0000000000065138
  0
LINE
  5
5827
330
1A
100
AcDbEntity
  8
NOKITOI
  6
PHANTOM
 62
     8
100
AcDbLine
 10
89.05073529429449
 20
40.78047953750831
 30
0.0
 11
91.69253529429449
 21
40.78047953750831
 31
0.0
  0
ARC
  5
5828
330
1A
100
AcDbEntity
  8
NOKITOI
  6
PHANTOM
 62
     8
100
AcDbCircle
 10
93.69153529429462
 20
40.97287953750845
 30
0.0
 40
0.1990000000000691
100
AcDbArc
 50
179.9999999999837
 51
269.9999999999837
  0
LINE
  5
5829
330
1A
100
AcDbEntity
  8
NOKITOI
  6
PHANTOM
 62
     8
100
AcDbLine
 10
92.68753529429449
 20
48.66507953750823
 30
0.0
 11
91.83023529429448
 21
48.17017953750843
 31
0.0
  0
LINE
  5
582A
330
1A
100
AcDbEntity
  8
NOKITOI
  6
PHANTOM
 62
     8
100
AcDbLine
 10
92.68753529429449
 20
48.66507953750823
 30
0.0
 11
92.19253529429449
 21
47.80777953750845
 31
0.0
  0
LINE
  5
582B
330
1A
100
AcDbEntity
  8
NOKITOI
  6
PHANTOM
 62
     8
100
AcDbLine
 10
145.2907352942946
 20
40.77377953750828
 30
0.0
 11
130.5363352942944
 21
40.77377953750828
 31
0.0
  0
LINE
  5
582C
330
1A
100
AcDbEntity
  8
NOKITOI
  6
PHANTOM
 62
     8
100
AcDbLine
 10
157.3727352942943
 20
48.1697795375083
 30
0.0
 11
151.1521352942946
 21
48.1697795375083
 31
0.0
  0
ARC
  5
582D
330
1A
100
AcDbEntity
  8
NOKITOI
  6
PHANTOM
 62
     8
100
AcDbCircle
 10
153.9315583354228
 20
41.28039840179667
 30
0.0
 40
0.5000188648190603
100
AcDbArc
 50
269.9973597808037
 51
348.6132711445597
  0
ARC
  5
582E
330
1A
100
AcDbEntity
  8
NOKITOI
  6
PHANTOM
 62
     8
100
AcDbCircle
 10
168.3766937489853
 20
38.3739946729521
 30
0.0
 40
14.23462403148678
100
AcDbArc
 50
139.2075062369008
 51
168.623785948384
  0
LINE
  5
582F
330
1A
100
AcDbEntity
  8
NOKITOI
  6
PHANTOM
 62
     8
100
AcDbLine
 10
150.7898352942946
 20
47.8074795375083
 30
0.0
 11
150.7898352942946
 21
41.28037953750833
 31
0.0
  0
ARC
  5
5830
330
1A
100
AcDbEntity
  8
NOKITOI
  6
PHANTOM
 62
     8
100
AcDbCircle
 10
149.2906852942945
 20
40.97282953750834
 30
0.0
 40
0.1990500062799141
100
AcDbArc
 50
270.0143923080609
 51
0.0143923080609162
  0
LINE
  5
5831
330
1A
100
AcDbEntity
  8
NOKITOI
  6
PHANTOM
 62
     8
100
AcDbLine
 10
153.9315352942946
 20
40.78037953750845
 30
0.0
 11
151.2898352942946
 21
40.78037953750845
 31
0.0
  0
ARC
  5
5832
330
1A
100
AcDbEntity
  8
NOKITOI
  6
PHANTOM
 62
     8
100
AcDbCircle
 10
151.2898352942945
 20
41.28037953750845
 30
0.0
 40
0.4999999999999432
100
AcDbArc
 50
180.0000000000065
 51
270.0000000000065
  0
LINE
  5
5833
330
1A
100
AcDbEntity
  8
NOKITOI
  6
PHANTOM
 62
     8
100
AcDbLine
 10
150.2948352942943
 20
48.6647795375083
 30
0.0
 11
151.1521352942946
 21
48.1697795375083
 31
0.0
  0
LINE
  5
5834
330
1A
100
AcDbEntity
  8
NOKITOI
  6
PHANTOM
 62
     8
100
AcDbLine
 10
150.2948352942943
 20
48.6647795375083
 30
0.0
 11
150.7898352942946
 21
47.8074795375083
 31
0.0
  0
ARC
  5
5835
330
1A
100
AcDbEntity
  8
NOKITOI
  6
PHANTOM
 62
     8
100
AcDbCircle
 10
154.6064852223905
 20
40.47542242510701
 30
0.0
 40
0.9950428888512103
100
AcDbArc
 50
269.9971250795227
 51
351.3214426795066
  0
ARC
  5
5836
330
1A
100
AcDbEntity
  8
NOKITOI
  6
PHANTOM
 62
     8
100
AcDbCircle
 10
157.3727489721458
 20
47.86974967381445
 30
0.0
 40
0.3000298640056128
100
AcDbArc
 50
319.2190584222772
 51
90.00261201719977
  0
LINE
  5
5837
330
1A
100
AcDbEntity
  8
SEIHIN
 62
     3
100
AcDbLine
 10
124.6912570142943
 20
110.2915629433458
 30
0.0
 11
192.6995235442943
 21
118.6419280883458
 31
0.0
  0
LINE
  5
5838
330
1A
100
AcDbEntity
  8
SEIHIN
 62
     3
100
AcDbLine
 10
126.5685666142944
 20
104.4770086293459
 30
0.0
 11
193.4307382942943
 21
112.6866510163458
 31
0.0
  0
LINE
  5
5839
330
1A
100
AcDbEntity
  8
SEIHIN
100
AcDbLine
 10
158.3724852942943
 20
102.0858795383458
 30
0.0
 11
144.7452852942944
 21
84.85397953834587
 31
0.0
  0
LINE
  5
583A
330
1A
100
AcDbEntity
  8
SEIHIN
100
AcDbLine
 10
114.0553018162944
 20
75.78437953834589
 30
0.0
 11
147.9254852942943
 21
75.78437953834589
 31
0.0
  0
LINE
  5
583B
330
1A
100
AcDbEntity
  8
SEIHIN
100
AcDbLine
 10
150.1580852942944
 20
73.28437953834589
 30
0.0
 11
114.0553018162944
 21
73.28437953834589
 31
0.0
  0
LINE
  5
583C
330
1A
100
AcDbEntity
  8
SEIHIN
100
AcDbLine
 10
151.0887852942944
 20
81.78447953834586
 30
0.0
 11
114.0553018162944
 21
81.78447953834586
 31
0.0
  0
LINE
  5
583D
330
1A
100
AcDbEntity
  8
SEIHIN
 62
     3
100
AcDbLine
 10
96.36049211429435
 20
100.4196893843458
 30
0.0
 11
95.59133921429435
 21
94.97373640834586
 31
0.0
  0
LINE
  5
583E
330
1A
100
AcDbEntity
  8
SEIHIN
 62
     3
100
AcDbLine
 10
115.4881817142944
 20
87.3308238983459
 30
0.0
 11
120.9781181142943
 21
100.2643034673458
 31
0.0
  0
CIRCLE
  5
583F
330
1A
100
AcDbEntity
  8
SEIHIN
100
AcDbCircle
 10
104.0553018142944
 20
95.08447953834588
 30
0.0
 40
3.500000004238516
  0
ARC
  5
5840
330
1A
100
AcDbEntity
  8
SEIHIN
100
AcDbCircle
 10
104.5553018142944
 20
91.58447953834587
 30
0.0
 40
9.535085152808647
100
AcDbArc
 50
4.916661302937096
 51
179.9998615479522
  0
LINE
  5
5841
330
1A
100
AcDbEntity
  8
SEIHIN
100
AcDbLine
 10
89.0553018142944
 20
71.09087588834587
 30
0.0
 11
114.0553018162944
 21
71.09087588834587
 31
0.0
  0
LINE
  5
5842
330
1A
100
AcDbEntity
  8
SEIHIN
100
AcDbLine
 10
89.0553018142944
 20
71.09087588834587
 30
0.0
 11
89.0553018142944
 21
90.09087589034583
 31
0.0
  0
LINE
  5
5843
330
1A
100
AcDbEntity
  8
NOKITOI
  6
PHANTOM
 62
     8
100
AcDbLine
 10
93.49263529429464
 20
49.47017953750838
 30
0.0
 11
83.58193529429462
 21
49.47017953750838
 31
0.0
  0
ARC
  5
5844
330
1A
100
AcDbEntity
  8
NOKITOI
  6
PHANTOM
 62
     8
100
AcDbCircle
 10
83.58193860665364
 20
49.66917838172292
 30
0.0
 40
0.1989988442421132
100
AcDbArc
 50
231.5280949042409
 51
269.9990463050553
  0
LINE
  5
5845
330
1A
100
AcDbEntity
  8
SEIHIN
100
AcDbLine
 10
93.02021314429442
 20
90.09087353234589
 30
0.0
 11
93.02019701429442
 21
83.25275207834584
 31
0.0
  0
LINE
  5
5846
330
1A
100
AcDbEntity
  8
SEIHIN
100
AcDbLine
 10
95.02021666429442
 20
91.58450257934589
 30
0.0
 11
95.02019701429441
 21
83.25275207834584
 31
0.0
  0
LINE
  5
5847
330
1A
100
AcDbEntity
  8
SEIHIN
100
AcDbLine
 10
89.0553018142944
 20
81.78447953834586
 30
0.0
 11
84.14198529429439
 21
81.78447953834586
 31
0.0
  0
ARC
  5
5848
330
1A
100
AcDbEntity
  8
SEIHIN
100
AcDbCircle
 10
90.29218485429442
 20
78.78451219834585
 30
0.0
 40
3.000032662681521
100
AcDbArc
 50
233.9758085673714
 51
245.6512385050323
  0
ARC
  5
5849
330
1A
100
AcDbEntity
  8
SEIHIN
100
AcDbCircle
 10
90.1297234042944
 20
78.28449965834585
 30
0.0
 40
5.000020122542945
100
AcDbArc
 50
233.9730830341292
 51
257.5913101544815
  0
LINE
  5
584A
330
1A
100
AcDbEntity
  8
SEIHIN
100
AcDbLine
 10
83.55378529429442
 20
79.97567953834584
 30
0.0
 11
88.52778529429441
 21
76.35817953834589
 31
0.0
  0
ARC
  5
584B
330
1A
100
AcDbEntity
  8
SEIHIN
100
AcDbCircle
 10
84.14197418429443
 20
80.78444536834586
 30
0.0
 40
1.00003416926274
100
AcDbArc
 50
89.99936346563975
 51
233.9728323870002
  0
LINE
  5
584C
330
1A
100
AcDbEntity
  8
SEIHIN
100
AcDbLine
 10
93.02019701429442
 20
83.25275207834584
 30
0.0
 11
95.02019701429441
 21
83.25275207834584
 31
0.0
  0
LINE
  5
584D
330
1A
100
AcDbEntity
  8
SEIHIN
100
AcDbLine
 10
94.65530181429443
 20
90.28447953834586
 30
0.0
 11
94.65528766429441
 21
84.2844771803459
 31
0.0
  0
LINE
  5
584E
330
1A
100
AcDbEntity
  8
SEIHIN
100
AcDbLine
 10
93.65530181429443
 20
90.28447953834586
 30
0.0
 11
93.6552876642944
 21
84.28447953834586
 31
0.0
  0
LINE
  5
584F
330
1A
100
AcDbEntity
  8
SEIHIN
100
AcDbLine
 10
93.02019944796922
 20
84.28447953834586
 30
0.0
 11
95.0201994442944
 21
84.28447953834586
 31
0.0
  0
ARC
  5
5850
330
1A
100
AcDbEntity
  8
SEIHIN
100
AcDbCircle
 10
92.02021314429442
 20
90.09087589034583
 30
0.0
 40
1.000000000001389
100
AcDbArc
 50
359.9998648965509
 51
90.0
  0
LINE
  5
5851
330
1A
100
AcDbEntity
  8
SEIHIN
100
AcDbLine
 10
92.02021314429442
 20
91.09087589034585
 30
0.0
 11
90.0553018142944
 21
91.09087589034585
 31
0.0
  0
ARC
  5
5852
330
1A
100
AcDbEntity
  8
SEIHIN
100
AcDbCircle
 10
90.0553018142944
 20
90.09087589034583
 30
0.0
 40
1.0
100
AcDbArc
 50
90.0
 51
180.0
  0
LINE
  5
5853
330
1A
100
AcDbEntity
  8
SEIHIN
100
AcDbLine
 10
93.65530181429443
 20
90.28447953834586
 30
0.0
 11
95.02021359429443
 21
90.28447953834586
 31
0.0
  0
MTEXT
  5
5854
330
1A
100
AcDbEntity
  8
SEIHIN
 62
     3
100
AcDbMText
 10
105.9632816142943
 20
78.87639837234587
 30
0.0
 40
2.381249964
 41
0.0
 71
     1
 72
     5
  1
{\W1.022222;45}
210
0.0
220
0.0
230
-1.0
 11
-1.0
 21
0.0
 31
0.0
1001
ACAD
1000
MTEXTBEGIN
1070
    73
1070
     1
1070
    44
1040
1.0
1070
    74
1070
     0
1000
MTEXTEND
1000
MTEXTBEGIN
1070
    73
1070
     1
1070
    44
1040
1.0
1070
    74
1070
     0
1000
MTEXTEND
1000
MTEXTBEGIN
1070
    73
1070
     1
1070
    44
1040
1.0
1070
    74
1070
     0
1000
MTEXTEND
1000
MTEXTBEGIN
1070
    73
1070
     1
1070
    44
1040
1.0
1070
    74
1070
     0
1000
MTEXTEND
1000
MTEXTBEGIN
1070
    73
1070
     1
1070
    44
1040
1.0
1070
    74
1070
     0
1000
MTEXTEND
1000
MTEXTBEGIN
1070
    73
1070
     1
1070
    44
1040
1.0
1070
    74
1070
     0
1000
MTEXTEND
1000
MTEXTBEGIN
1070
    73
1070
     1
1070
    44
1040
1.0
1070
    74
1070
     0
1000
MTEXTEND
  0
LINE
  5
5855
330
1A
100
AcDbEntity
  8
SEIHIN
100
AcDbLine
 10
101.5553018142944
 20
81.78447953834586
 30
0.0
 11
106.5553018142944
 21
81.78447953834586
 31
0.0
  0
LINE
  5
5856
330
1A
100
AcDbEntity
  8
SEIHIN
100
AcDbLine
 10
104.0553018142944
 20
75.78447953834587
 30
0.0
 11
105.2100023542944
 21
73.78447953834586
 31
0.0
  0
LINE
  5
5857
330
1A
100
AcDbEntity
  8
SEIHIN
100
AcDbLine
 10
105.2100023542944
 20
73.78447953834586
 30
0.0
 11
102.9006012742944
 21
73.78447953834586
 31
0.0
  0
LINE
  5
5858
330
1A
100
AcDbEntity
  8
SEIHIN
100
AcDbLine
 10
106.5553018142944
 20
75.78447953834587
 30
0.0
 11
101.5553018142944
 21
75.78447953834587
 31
0.0
  0
LINE
  5
5859
330
1A
100
AcDbEntity
  8
SEIHIN
100
AcDbLine
 10
100.5553018142944
 20
80.78447953834587
 30
0.0
 11
100.5553018142944
 21
76.78447953834586
 31
0.0
  0
ARC
  5
585A
330
1A
100
AcDbEntity
  8
SEIHIN
100
AcDbCircle
 10
101.5553018142944
 20
76.78447953834586
 30
0.0
 40
1.0
100
AcDbArc
 50
180.0
 51
270.0
  0
LINE
  5
585B
330
1A
100
AcDbEntity
  8
SEIHIN
100
AcDbLine
 10
104.0553018142944
 20
75.78447953834587
 30
0.0
 11
102.9006012742944
 21
73.78447953834586
 31
0.0
  0
ARC
  5
585C
330
1A
100
AcDbEntity
  8
SEIHIN
100
AcDbCircle
 10
101.5553018142944
 20
80.78447953834587
 30
0.0
 40
1.0
100
AcDbArc
 50
90.0
 51
180.0
  0
LINE
  5
585D
330
1A
100
AcDbEntity
  8
SEIHIN
100
AcDbLine
 10
104.3053018142944
 20
81.78447953834586
 30
0.0
 11
104.3053018142944
 21
79.78447953834586
 31
0.0
  0
LINE
  5
585E
330
1A
100
AcDbEntity
  8
SEIHIN
100
AcDbLine
 10
103.8053018142944
 20
79.78447953834586
 30
0.0
 11
103.8053018142944
 21
81.78447953834586
 31
0.0
  0
LINE
  5
585F
330
1A
100
AcDbEntity
  8
SEIHIN
100
AcDbLine
 10
104.3053018142944
 20
79.78447953834586
 30
0.0
 11
103.8053018142944
 21
79.78447953834586
 31
0.0
  0
LINE
  5
5860
330
1A
100
AcDbEntity
  8
SEIHIN
100
AcDbLine
 10
103.8053018142944
 20
81.78447953834586
 30
0.0
 11
104.3053018142944
 21
81.78447953834586
 31
0.0
  0
LINE
  5
5861
330
1A
100
AcDbEntity
  8
SEIHIN
100
AcDbLine
 10
103.8120518142944
 20
81.78447953834586
 30
0.0
 11
104.3120518142944
 21
81.78447953834586
 31
0.0
  0
LINE
  5
5862
330
1A
100
AcDbEntity
  8
SEIHIN
100
AcDbLine
 10
107.5553018142944
 20
80.78447953834587
 30
0.0
 11
107.5553018142944
 21
76.78447953834586
 31
0.0
  0
ARC
  5
5863
330
1A
100
AcDbEntity
  8
SEIHIN
100
AcDbCircle
 10
106.5553018142944
 20
76.78447953834586
 30
0.0
 40
1.0
100
AcDbArc
 50
270.0
 51
0.0
  0
ARC
  5
5864
330
1A
100
AcDbEntity
  8
SEIHIN
100
AcDbCircle
 10
106.5553018142944
 20
80.78447953834587
 30
0.0
 40
1.0
100
AcDbArc
 50
0.0
 51
90.0
  0
LINE
  5
5865
330
1A
100
AcDbEntity
  8
SEIHIN
100
AcDbLine
 10
114.0553018162944
 20
71.09087588834587
 30
0.0
 11
114.0553018162944
 21
92.40169975734586
 31
0.0
  0
LINE
  5
5866
330
1A
100
AcDbEntity
  8
SEIHIN
100
AcDbLine
 10
143.5686852942944
 20
84.28447953834586
 30
0.0
 11
114.0553018162944
 21
84.28447953834586
 31
0.0
  0
MTEXT
  5
5867
330
1A
100
AcDbEntity
  8
SEIHIN
 62
     3
100
AcDbMText
 10
120.9710595142943
 20
78.69625676234585
 30
0.0
 40
2.381249964
 41
0.0
 71
     1
 72
     5
  1
{\W1.135802;60}
210
0.0
220
0.0
230
-1.0
 11
-1.0
 21
0.0
 31
0.0
1001
ACAD
1000
MTEXTBEGIN
1070
    73
1070
     1
1070
    44
1040
1.0
1070
    74
1070
     0
1000
MTEXTEND
1000
MTEXTBEGIN
1070
    73
1070
     1
1070
    44
1040
1.0
1070
    74
1070
     0
1000
MTEXTEND
1000
MTEXTBEGIN
1070
    73
1070
     1
1070
    44
1040
1.0
1070
    74
1070
     0
1000
MTEXTEND
1000
MTEXTBEGIN
1070
    73
1070
     1
1070
    44
1040
1.0
1070
    74
1070
     0
1000
MTEXTEND
1000
MTEXTBEGIN
1070
    73
1070
     1
1070
    44
1040
1.0
1070
    74
1070
     0
1000
MTEXTEND
1000
MTEXTBEGIN
1070
    73
1070
     1
1070
    44
1040
1.0
1070
    74
1070
     0
1000
MTEXTEND
1000
MTEXTBEGIN
1070
    73
1070
     1
1070
    44
1040
1.0
1070
    74
1070
     0
1000
MTEXTEND
  0
LINE
  5
5868
330
1A
100
AcDbEntity
  8
SEIHIN
 62
     3
100
AcDbLine
 10
114.3120518142943
 20
79.78447953834586
 30
0.0
 11
114.0553018142944
 21
79.78447953834586
 31
0.0
  0
LINE
  5
5869
330
1A
100
AcDbEntity
  8
SEIHIN
 62
     3
100
AcDbLine
 10
114.3120518142943
 20
79.78447953834586
 30
0.0
 11
114.3120518142943
 21
81.78447953834586
 31
0.0
  0
LINE
  5
586A
330
1A
100
AcDbEntity
  8
SEIHIN
 62
     3
100
AcDbLine
 10
119.3120518142943
 20
81.78447953834586
 30
0.0
 11
118.8120518142943
 21
81.78447953834586
 31
0.0
  0
LINE
  5
586B
330
1A
100
AcDbEntity
  8
SEIHIN
 62
     3
100
AcDbLine
 10
118.8120518142943
 20
81.78447953834586
 30
0.0
 11
118.8120518142943
 21
79.78447953834586
 31
0.0
  0
LINE
  5
586C
330
1A
100
AcDbEntity
  8
SEIHIN
 62
     3
100
AcDbLine
 10
118.8120518142943
 20
79.78447953834586
 30
0.0
 11
119.3120518142943
 21
79.78447953834586
 31
0.0
  0
LINE
  5
586D
330
1A
100
AcDbEntity
  8
SEIHIN
 62
     3
100
AcDbLine
 10
119.3120518142943
 20
79.78447953834586
 30
0.0
 11
119.3120518142943
 21
81.78447953834586
 31
0.0
  0
ARC
  5
586E
330
1A
100
AcDbEntity
  8
SEIHIN
 62
     3
100
AcDbCircle
 10
110.8856574142943
 20
89.28447953834586
 30
0.0
 40
5.00000003649864
100
AcDbArc
 50
309.3405862842468
 51
337.0000001723857
  0
LINE
  5
586F
330
1A
100
AcDbEntity
  8
SEIHIN
100
AcDbLine
 10
136.5266852942944
 20
81.78447953834586
 30
0.0
 11
136.5266852942944
 21
75.78447953834587
 31
0.0
  0
ARC
  5
5870
330
1A
100
AcDbEntity
  8
SEIHIN
100
AcDbCircle
 10
143.5687602842943
 20
85.78451583934588
 30
0.0
 40
1.5000363023233
100
AcDbArc
 50
269.9971356623169
 51
321.6588485138866
  0
ARC
  5
5871
330
1A
100
AcDbEntity
  8
SEIHIN
 62
     3
100
AcDbCircle
 10
113.6716274142943
 20
97.08034578834588
 30
0.0
 40
2.000000009547898
100
AcDbArc
 50
81.39257647660745
 51
140.269157328916
  0
LINE
  5
5872
330
1A
100
AcDbEntity
  8
SEIHIN
 62
     3
100
AcDbLine
 10
112.8050625142943
 20
96.36561919834589
 30
0.0
 11
115.9062664142944
 21
103.6715976883459
 31
0.0
  0
LINE
  5
5873
330
1A
100
AcDbEntity
  8
SEIHIN
 62
     3
100
AcDbLine
 10
114.1108748142943
 20
100.0348133443458
 30
0.0
 11
101.7045553142943
 21
101.7870055763459
 31
0.0
  0
LINE
  5
5874
330
1A
100
AcDbEntity
  8
SEIHIN
 62
     3
100
AcDbLine
 10
114.0456492142943
 20
101.0539496643459
 30
0.0
 11
102.3691932142944
 21
102.7030604743458
 31
0.0
  0
ARC
  5
5875
330
1A
100
AcDbEntity
  8
SEIHIN
 62
     3
100
AcDbCircle
 10
97.35066541429439
 20
100.2798434033458
 30
0.0
 40
1.000000009640918
100
AcDbArc
 50
81.96107065881092
 51
171.9610663765923
  0
ARC
  5
5876
330
1A
100
AcDbEntity
  8
SEIHIN
 62
     3
100
AcDbCircle
 10
100.7002261142943
 20
101.8266205653458
 30
0.0
 40
0.9999999676895662
100
AcDbArc
 50
261.9610649935477
 51
351.9610655186018
  0
LINE
  5
5877
330
1A
100
AcDbEntity
  8
SEIHIN
 62
     3
100
AcDbLine
 10
100.5603801142943
 20
100.8364472963459
 30
0.0
 11
97.49051131429434
 21
101.2700166713458
 31
0.0
  0
ARC
  5
5878
330
1A
100
AcDbEntity
  8
SEIHIN
 62
     3
100
AcDbCircle
 10
102.2950748142943
 20
102.1782686423458
 30
0.0
 40
0.5299999859769696
100
AcDbArc
 50
81.96106284407184
 51
171.9610655715811
  0
LINE
  5
5879
330
1A
100
AcDbEntity
  8
SEIHIN
 62
     3
100
AcDbLine
 10
101.6903993142943
 20
101.6867745843458
 30
0.0
 11
101.7702830142943
 21
102.2523870123458
 31
0.0
  0
LINE
  5
587A
330
1A
100
AcDbEntity
  8
SEIHIN
 62
     3
100
AcDbLine
 10
111.7263865142943
 20
97.86885636834586
 30
0.0
 11
112.1335162142943
 21
98.35870959834592
 31
0.0
  0
ARC
  5
587B
330
1A
100
AcDbEntity
  8
SEIHIN
 62
     3
100
AcDbCircle
 10
126.0318198142943
 20
99.3735552753459
 30
0.0
 40
11.00000000680566
100
AcDbArc
 50
97.00000011658156
 51
157.0000000263018
  0
ARC
  5
587C
330
1A
100
AcDbEntity
  8
SEIHIN
 62
     3
100
AcDbCircle
 10
127.4216520142943
 20
97.5291855683459
 30
0.0
 40
6.999999965304857
100
AcDbArc
 50
96.99999996932376
 51
156.9999997660007
  0
LINE
  5
587D
330
1A
100
AcDbEntity
  8
SEIHIN
 62
     3
100
AcDbLine
 10
114.0456492142943
 20
101.0539496643459
 30
0.0
 11
115.1468915142944
 21
101.8826226783459
 31
0.0
  0
ARC
  5
587E
330
1A
100
AcDbEntity
  8
SEIHIN
 62
     3
100
AcDbCircle
 10
114.1807978142944
 20
100.5298999783458
 30
0.0
 40
0.5000000014358297
100
AcDbArc
 50
261.9610649855335
 51
306.9610665450052
  0
LINE
  5
587F
330
1A
100
AcDbEntity
  8
SEIHIN
 62
     3
100
AcDbLine
 10
125.3676053142944
 20
112.6745525843458
 30
0.0
 11
124.4615849142943
 21
113.0977866073458
 31
0.0
  0
LINE
  5
5880
330
1A
100
AcDbEntity
  8
SEIHIN
 62
     3
100
AcDbLine
 10
123.0179338142944
 20
109.9526143583458
 30
0.0
 11
124.4615849142943
 21
113.0977866073458
 31
0.0
  0
LINE
  5
5881
330
1A
100
AcDbEntity
  8
SEIHIN
 62
     3
100
AcDbLine
 10
124.2504725142943
 20
110.2283607523458
 30
0.0
 11
125.3676053142944
 21
112.6745525843458
 31
0.0
  0
ARC
  5
5882
330
1A
100
AcDbEntity
  8
SEIHIN
100
AcDbCircle
 10
176.3450852942944
 20
98.48447953834586
 30
0.0
 40
3.0
100
AcDbArc
 50
270.0
 51
90.0
  0
ARC
  5
5883
330
1A
100
AcDbEntity
  8
SEIHIN
100
AcDbCircle
 10
173.4950852942944
 20
93.98437953814584
 30
0.0
 40
10.0000000001
100
AcDbArc
 50
0.0
 51
90.0
  0
ARC
  5
5884
330
1A
100
AcDbEntity
  8
SEIHIN
100
AcDbCircle
 10
165.4409804042944
 20
92.48437717034585
 30
0.0
 40
3.000002368933987
100
AcDbArc
 50
89.99990660795349
 51
141.6619327663495
  0
LINE
  5
5885
330
1A
100
AcDbEntity
  8
SEIHIN
100
AcDbLine
 10
160.1832852942944
 20
100.3452795383458
 30
0.0
 11
148.7634852942944
 21
85.90477953834584
 31
0.0
  0
ARC
  5
5886
330
1A
100
AcDbEntity
  8
SEIHIN
100
AcDbCircle
 10
178.9950852942944
 20
75.61549615834588
 30
0.0
 40
4.500000000783715
100
AcDbArc
 50
216.0326608768124
 51
0.0
  0
ARC
  5
5887
330
1A
100
AcDbEntity
  8
SEIHIN
100
AcDbCircle
 10
172.4950852942944
 20
86.98437953834588
 30
0.0
 40
5.999999999899999
100
AcDbArc
 50
0.0
 51
90.0
  0
LINE
  5
5888
330
1A
100
AcDbEntity
  8
NOKITOI
  6
PHANTOM
 62
     8
100
AcDbLine
 10
165.6167352942946
 20
51.58897953750823
 30
0.0
 11
171.4554352942944
 21
79.32037953750825
 31
0.0
  0
LINE
  5
5889
330
1A
100
AcDbEntity
  8
NOKITOI
  6
PHANTOM
 62
     8
100
AcDbLine
 10
164.5080352942946
 20
52.60147953750839
 30
0.0
 11
169.9630352942944
 21
78.5103795375083
 31
0.0
  0
ARC
  5
588A
330
1A
100
AcDbEntity
  8
NOKITOI
  6
PHANTOM
 62
     8
100
AcDbCircle
 10
168.3767497978431
 20
38.37408746169683
 30
0.0
 40
14.22809199964113
100
AcDbArc
 50
108.5474584936554
 51
128.7537062451651
  0
LINE
  5
588B
330
1A
100
AcDbEntity
  8
NOKITOI
  6
PHANTOM
 62
     8
100
AcDbLine
 10
149.4898352942944
 20
49.46987953750824
 30
0.0
 11
159.4703352942944
 21
49.46977953750837
 31
0.0
  0
ARC
  5
588C
330
1A
100
AcDbEntity
  8
NOKITOI
  6
PHANTOM
 62
     8
100
AcDbCircle
 10
164.6431096311467
 20
51.79405878889582
 30
0.0
 40
0.9949690575286499
100
AcDbArc
 50
285.5437330810335
 51
348.1110361155306
  0
ARC
  5
588D
330
1A
100
AcDbEntity
  8
NOKITOI
  6
PHANTOM
 62
     8
100
AcDbCircle
 10
163.5344788638456
 20
52.80652848927724
 30
0.0
 40
0.9950135261271753
100
AcDbArc
 50
288.5445751594485
 51
348.1074736523477
  0
LINE
  5
588E
330
1A
100
AcDbEntity
  8
SEIHIN
100
AcDbLine
 10
154.0877852942944
 20
76.16997953834584
 30
0.0
 11
167.4821852942944
 21
77.87947953834589
 31
0.0
  0
LINE
  5
588F
330
1A
100
AcDbEntity
  8
SEIHIN
100
AcDbLine
 10
150.1580852942944
 20
73.28437953834589
 30
0.0
 11
167.6727852942943
 21
76.69537953834589
 31
0.0
  0
LINE
  5
5890
330
1A
100
AcDbEntity
  8
SEIHIN
100
AcDbLine
 10
163.6974852942944
 20
91.08577953834588
 30
0.0
 11
153.1767852942944
 21
77.78227953834584
 31
0.0
  0
LINE
  5
5891
330
1A
100
AcDbEntity
  8
SEIHIN
100
AcDbLine
 10
163.0878852942944
 20
94.34527953814585
 30
0.0
 11
155.4318852942944
 21
84.66417953834588
 31
0.0
  0
LINE
  5
5892
330
1A
100
AcDbEntity
  8
SEIHIN
100
AcDbLine
 10
148.7098852942944
 20
76.16407953834585
 30
0.0
 11
151.8731852942944
 21
80.16417953834588
 31
0.0
  0
ARC
  5
5893
330
1A
100
AcDbEntity
  8
SEIHIN
100
AcDbCircle
 10
147.9255139242944
 20
76.78439339834586
 30
0.0
 40
1.000013862902801
100
AcDbArc
 50
269.9983596445684
 51
321.6615704529417
  0
ARC
  5
5894
330
1A
100
AcDbEntity
  8
SEIHIN
100
AcDbCircle
 10
153.9611900942944
 20
77.16197104834589
 30
0.0
 40
1.000036752725678
100
AcDbArc
 50
141.6629998625315
 51
277.2726171970297
  0
ARC
  5
5895
330
1A
100
AcDbEntity
  8
SEIHIN
100
AcDbCircle
 10
151.0887920042944
 20
80.78446567834589
 30
0.0
 40
1.00001386218148
100
AcDbArc
 50
321.6635952327493
 51
90.0003844493519
  0
LINE
  5
5896
330
1A
100
AcDbEntity
  8
SEIHIN
100
AcDbLine
 10
154.6474852942944
 20
84.28447953834586
 30
0.0
 11
149.5478852942944
 21
84.28447953834586
 31
0.0
  0
ARC
  5
5897
330
1A
100
AcDbEntity
  8
SEIHIN
100
AcDbCircle
 10
149.5478935942944
 20
85.2844623883459
 30
0.0
 40
0.9999828485094189
100
AcDbArc
 50
141.6672292746693
 51
269.9995244368737
  0
ARC
  5
5898
330
1A
100
AcDbEntity
  8
SEIHIN
100
AcDbCircle
 10
154.6475139242944
 20
85.28449340034587
 30
0.0
 40
1.000013864523104
100
AcDbArc
 50
269.9983596445718
 51
321.6615703630643
  0
LINE
  5
5899
330
1A
100
AcDbEntity
  8
NOKITOI
  6
PHANTOM
 62
     8
100
AcDbLine
 10
177.1933352942946
 20
80.77827953750825
 30
0.0
 11
177.1933352942946
 21
88.17777953750846
 31
0.0
  0
LINE
  5
589A
330
1A
100
AcDbEntity
  8
NOKITOI
  6
PHANTOM
 62
     8
100
AcDbLine
 10
178.4933352942945
 20
80.47327953750828
 30
0.0
 11
178.4933352942945
 21
88.48287953750826
 31
0.0
  0
LINE
  5
589B
330
1A
100
AcDbEntity
  8
NOKITOI
  6
PHANTOM
 62
     8
100
AcDbLine
 10
169.9630352942944
 20
78.5103795375083
 30
0.0
 11
172.2721352942944
 21
89.47777953750829
 31
0.0
  0
LINE
  5
589C
330
1A
100
AcDbEntity
  8
NOKITOI
  6
PHANTOM
 62
     8
100
AcDbLine
 10
173.3269352942944
 20
88.17777953750846
 30
0.0
 11
171.7690352942946
 21
80.77837953750833
 31
0.0
  0
LINE
  5
589D
330
1A
100
AcDbEntity
  8
SEIHIN
100
AcDbLine
 10
178.4950852942944
 20
77.38957837834584
 30
0.0
 11
178.4950852942944
 21
86.98437953834588
 31
0.0
  0
ARC
  5
589E
330
1A
100
AcDbEntity
  8
SEIHIN
100
AcDbCircle
 10
167.5580878142944
 20
77.28433987834586
 30
0.0
 40
0.5999603391169003
100
AcDbArc
 50
269.9997593418182
 51
97.26811277064525
  0
LINE
  5
589F
330
1A
100
AcDbEntity
  8
SEIHIN
100
AcDbLine
 10
174.4053852942944
 20
79.22487953834587
 30
0.0
 11
177.7140197042944
 21
76.97605433834588
 31
0.0
  0
ARC
  5
58A0
330
1A
100
AcDbEntity
  8
SEIHIN
100
AcDbCircle
 10
173.5621771242944
 20
77.98436833834585
 30
0.0
 40
1.500013201217973
100
AcDbArc
 50
61.61017886408406
 51
226.1911119609332
  0
LINE
  5
58A1
330
1A
100
AcDbEntity
  8
SEIHIN
100
AcDbLine
 10
175.3560171842943
 20
72.96838767834589
 30
0.0
 11
172.3491852942944
 21
77.10197953834586
 31
0.0
  0
ARC
  5
58A2
330
1A
100
AcDbEntity
  8
SEIHIN
100
AcDbCircle
 10
177.9950852942944
 20
77.38957837834584
 30
0.0
 40
0.4999999987699835
100
AcDbArc
 50
235.7966882627013
 51
0.0
  0
LINE
  5
58A3
330
1A
100
AcDbEntity
  8
NOKITOI
  6
PHANTOM
 62
     8
100
AcDbLine
 10
171.6501352942944
 20
79.4782795375084
 30
0.0
 11
177.4983352942945
 21
79.4782795375084
 31
0.0
  0
LINE
  5
58A4
330
1A
100
AcDbEntity
  8
NOKITOI
  6
PHANTOM
 62
     8
100
AcDbLine
 10
177.1933352942946
 20
80.77827953750825
 30
0.0
 11
171.7690352942946
 21
80.77837953750833
 31
0.0
  0
ARC
  5
58A5
330
1A
100
AcDbEntity
  8
NOKITOI
  6
PHANTOM
 62
     8
100
AcDbCircle
 10
171.6501537369087
 20
79.2793945009451
 30
0.0
 40
0.1989850374179911
100
AcDbArc
 50
90.00531036897097
 51
168.1136861719431
  0
ARC
  5
58A6
330
1A
100
AcDbEntity
  8
NOKITOI
  6
PHANTOM
 62
     8
100
AcDbCircle
 10
177.4983352942946
 20
80.47327953750835
 30
0.0
 40
0.9949999999999192
100
AcDbArc
 50
269.9999999999951
 51
359.9999999999951
  0
LINE
  5
58A7
330
1A
100
AcDbEntity
  8
SEIHIN
100
AcDbLine
 10
165.4409852942944
 20
95.48437953834588
 30
0.0
 11
176.3450852942944
 21
95.48447953834585
 31
0.0
  0
LINE
  5
58A8
330
1A
100
AcDbEntity
  8
SEIHIN
100
AcDbLine
 10
172.4950852942944
 20
92.98437953814584
 30
0.0
 11
167.6193852942944
 21
92.98437953814584
 31
0.0
  0
ARC
  5
58A9
330
1A
100
AcDbEntity
  8
SEIHIN
100
AcDbCircle
 10
167.6193231342944
 20
87.98434944534585
 30
0.0
 40
5.000030094599926
100
AcDbArc
 50
89.99928770315646
 51
141.6617877220316
  0
LINE
  5
58AA
330
1A
100
AcDbEntity
  8
NOKITOI
  6
PHANTOM
 62
     8
100
AcDbLine
 10
177.1933352942946
 20
88.17777953750846
 30
0.0
 11
173.3269352942944
 21
88.17777953750846
 31
0.0
  0
LINE
  5
58AB
330
1A
100
AcDbEntity
  8
NOKITOI
  6
PHANTOM
 62
     8
100
AcDbLine
 10
177.4983352942945
 20
89.47787953750838
 30
0.0
 11
172.2946352942945
 21
89.47777953750829
 31
0.0
  0
ARC
  5
58AC
330
1A
100
AcDbEntity
  8
NOKITOI
  6
PHANTOM
 62
     8
100
AcDbCircle
 10
177.4983352942945
 20
88.48287953750839
 30
0.0
 40
0.9950000000000613
100
AcDbArc
 50
359.9999999999967
 51
89.99999999999674
  0
LINE
  5
58AD
330
1A
100
AcDbEntity
  8
SEIHIN
100
AcDbLine
 10
183.4950852942944
 20
75.61549615834588
 30
0.0
 11
183.4950852942944
 21
93.98437953814584
 31
0.0
  0
LINE
  5
58AE
330
1A
100
AcDbEntity
  8
SEIHIN
100
AcDbLine
 10
176.3450852942944
 20
101.4844795383458
 30
0.0
 11
162.5363852942944
 21
101.4843795383458
 31
0.0
  0
LINE
  5
58AF
330
1A
100
AcDbEntity
  8
SEIHIN
100
AcDbLine
 10
162.2943852942944
 20
103.9843795383458
 30
0.0
 11
173.4950852942944
 21
103.9843795383458
 31
0.0
  0
ARC
  5
58B0
330
1A
100
AcDbEntity
  8
SEIHIN
100
AcDbCircle
 10
162.5363804042943
 20
98.48437717034585
 30
0.0
 40
3.000002368996017
100
AcDbArc
 50
89.99990660795349
 51
141.6619327633552
  0
ARC
  5
58B1
330
1A
100
AcDbEntity
  8
SEIHIN
100
AcDbCircle
 10
162.2943231342944
 20
98.98434944534585
 30
0.0
 40
5.000030094699926
100
AcDbArc
 50
89.99928770315646
 51
141.6617877220316
  0
ARC
  5
58B2
330
1A
100
AcDbEntity
  8
SEIHIN
 62
     3
100
AcDbCircle
 10
203.4359024642943
 20
117.8742357703458
 30
0.0
 40
4.000000000005695
100
AcDbArc
 50
30.96376780757603
 51
170.7918456040361
  0
LINE
  5
58B3
330
1A
100
AcDbEntity
  8
SEIHIN
 62
     3
100
AcDbLine
 10
206.8658737642943
 20
119.9322194683458
 30
0.0
 11
209.9528487042943
 21
114.7872612383458
 31
0.0
  0
ARC
  5
58B4
330
1A
100
AcDbEntity
  8
SEIHIN
 62
     3
100
AcDbCircle
 10
192.5776539542943
 20
119.6344742083458
 30
0.0
 40
1.00000000424709
100
AcDbArc
 50
277.0000142444682
 51
350.7918454836308
  0
ARC
  5
58B5
330
1A
100
AcDbEntity
  8
SEIHIN
 62
     3
100
AcDbCircle
 10
192.5792546542943
 20
119.6484195683459
 30
0.0
 40
7.000000001095694
100
AcDbArc
 50
277.0000000535576
 51
350.7918456474332
  0
ARC
  5
58B6
330
1A
100
AcDbEntity
  8
SEIHIN
 62
     3
100
AcDbCircle
 10
203.4359024642943
 20
117.8742357703458
 30
0.0
 40
9.999999996632224
100
AcDbArc
 50
56.80568921000887
 51
170.7918456294877
  0
LINE
  5
58B7
330
1A
100
AcDbEntity
  8
SEIHIN
100
AcDbLine
 10
89.9279882642944
 20
219.8361756509478
 30
0.0
 11
68.52508529429446
 21
219.8361756509478
 31
0.0
  0
LINE
  5
58B8
330
1A
100
AcDbEntity
  8
SEIHIN
100
AcDbLine
 10
89.9279882642944
 20
204.8361756109478
 30
0.0
 11
68.52508529429446
 21
204.8361756109478
 31
0.0
  0
DIMENSION
  5
58B9
330
1A
100
AcDbEntity
  8
SUNPOU
100
AcDbDimension
  2
*D7
 10
41.62218152247828
 20
201.3361756109478
 30
0.0
 11
39.12218152247826
 21
212.3361756309479
 31
0.0
 70
    32
  3
STANDARD
100
AcDbAlignedDimension
 13
66.02508529429446
 23
223.3361756509478
 33
0.0
 14
66.02508529429446
 24
201.3361756109478
 34
0.0
 50
90.0
100
AcDbRotatedDimension
1001
ACAD
1000
DSTYLE
1002
{
1070
    41
1040
3.0
1070
    42
1040
3.0
1070
    43
1040
7.0
1070
    44
1040
1.5
1070
    73
1070
     0
1070
    74
1070
     0
1070
    77
1070
     3
1070
   140
1040
3.0
1070
   141
1040
3.0
1070
   147
1040
1.0
1070
   172
1070
     1
1070
   173
1070
     1
1070
   176
1070
   256
1070
   177
1070
   256
1070
   178
1070
   256
1070
   271
1070
     0
1070
   272
1070
     0
1070
   341
1005
B2
1070
     6
1000
OPEN
1070
     7
1000
OPEN
1002
}
  0
LINE
  5
58BA
330
1A
100
AcDbEntity
  8
SEIHIN
100
AcDbLine
 10
68.52508529429446
 20
219.8361756509478
 30
0.0
 11
68.52508529429446
 21
204.8361756109478
 31
0.0
  0
LINE
  5
58BB
330
1A
100
AcDbEntity
  8
SEIHIN
100
AcDbLine
 10
66.02508529429446
 20
201.3361756109478
 30
0.0
 11
66.02508529429446
 21
223.3361756509478
 31
0.0
  0
LINE
  5
58BC
330
1A
100
AcDbEntity
  8
SEIHIN
100
AcDbLine
 10
66.02508529429446
 20
201.3361756109478
 30
0.0
 11
68.52508529429446
 21
201.3361756109478
 31
0.0
  0
LINE
  5
58BD
330
1A
100
AcDbEntity
  8
SEIHIN
100
AcDbLine
 10
68.52508529429446
 20
201.3361756109478
 30
0.0
 11
68.52508529429446
 21
204.8361756109478
 31
0.0
  0
LINE
  5
58BE
330
1A
100
AcDbEntity
  8
SEIHIN
100
AcDbLine
 10
68.52508529429446
 20
219.8361756509478
 30
0.0
 11
68.52508529429446
 21
223.3361756509478
 31
0.0
  0
LINE
  5
58BF
330
1A
100
AcDbEntity
  8
SEIHIN
100
AcDbLine
 10
68.52508529429446
 20
223.3361756509478
 30
0.0
 11
68.52508529429446
 21
219.8361756509478
 31
0.0
  0
LINE
  5
58C0
330
1A
100
AcDbEntity
  8
SEIHIN
100
AcDbLine
 10
66.02508529429446
 20
223.3361756509478
 30
0.0
 11
68.52508529429446
 21
223.3361756509478
 31
0.0
  0
LINE
  5
58C1
330
1A
100
AcDbEntity
  8
SEIHIN
100
AcDbLine
 10
114.0553018162944
 20
204.3361756109478
 30
0.0
 11
95.02045532429439
 21
204.3362216109478
 31
0.0
  0
LINE
  5
58C2
330
1A
100
AcDbEntity
  8
SEIHIN
100
AcDbLine
 10
95.02049399429438
 20
220.3361756509479
 30
0.0
 11
114.0553018162944
 21
220.3361756509479
 31
0.0
  0
LINE
  5
58C3
330
1A
100
AcDbEntity
  8
SEIHIN
100
AcDbLine
 10
94.87458822429443
 20
206.0641019709478
 30
0.0
 11
122.4615849142944
 21
206.0641019709478
 31
0.0
  0
LINE
  5
58C4
330
1A
100
AcDbEntity
  8
SEIHIN
100
AcDbLine
 10
97.6641077742944
 20
208.1817316009478
 30
0.0
 11
119.7227948992944
 21
208.1817316009478
 31
0.0
  0
LINE
  5
58C5
330
1A
100
AcDbEntity
  8
SEIHIN
100
AcDbLine
 10
94.87458822429443
 20
218.6082492509478
 30
0.0
 11
122.4615849142944
 21
218.6082492509478
 31
0.0
  0
LINE
  5
58C6
330
1A
100
AcDbEntity
  8
SEIHIN
100
AcDbLine
 10
97.6641077742944
 20
216.4906196509478
 30
0.0
 11
119.7227948992944
 21
216.4906196509478
 31
0.0
  0
LINE
  5
58C7
330
1A
100
AcDbEntity
  8
SEIHIN
100
AcDbLine
 10
113.1577243032944
 20
209.1817316009478
 30
0.0
 11
113.1577243032944
 21
215.4906196209478
 31
0.0
  0
LINE
  5
58C8
330
1A
100
AcDbEntity
  8
SEIHIN
100
AcDbLine
 10
97.6641077742944
 20
206.0641019709478
 30
0.0
 11
97.6641077742944
 21
218.6082492509478
 31
0.0
  0
ARC
  5
58C9
330
1A
100
AcDbEntity
  8
SEIHIN
100
AcDbCircle
 10
94.87458822429443
 20
212.3361756109478
 30
0.0
 40
3.000000000000011
100
AcDbArc
 50
90.00000515662017
 51
269.9999952253516
  0
LINE
  5
58CA
330
1A
100
AcDbEntity
  8
SEIHIN
100
AcDbLine
 10
94.87458822429443
 20
217.6082492509479
 30
0.0
 11
94.87458822429443
 21
207.0641019709479
 31
0.0
  0
LINE
  5
58CB
330
1A
100
AcDbEntity
  8
SEIHIN
100
AcDbLine
 10
94.87458822429443
 20
210.4115642709478
 30
0.0
 11
97.6641077742944
 21
210.4115642709478
 31
0.0
  0
LINE
  5
58CC
330
1A
100
AcDbEntity
  8
SEIHIN
100
AcDbLine
 10
97.6641077742944
 20
207.0641019709479
 30
0.0
 11
94.87458822429443
 21
207.0641019709479
 31
0.0
  0
ARC
  5
58CD
330
1A
100
AcDbEntity
  8
SEIHIN
100
AcDbCircle
 10
94.58820478429442
 20
204.8361756109478
 30
0.0
 40
1.0
100
AcDbArc
 50
90.0
 51
180.0
  0
LINE
  5
58CE
330
1A
100
AcDbEntity
  8
SEIHIN
100
AcDbLine
 10
89.0553018142944
 20
204.3361756109478
 30
0.0
 11
93.02020913429442
 21
204.3361756109478
 31
0.0
  0
LINE
  5
58CF
330
1A
100
AcDbEntity
  8
SEIHIN
100
AcDbLine
 10
93.02045075429441
 20
204.8361756109478
 30
0.0
 11
89.0553018142944
 21
204.8361756109478
 31
0.0
  0
LINE
  5
58D0
330
1A
100
AcDbEntity
  8
SEIHIN
100
AcDbLine
 10
89.0553018142944
 20
204.3361756109478
 30
0.0
 11
89.0553018142944
 21
204.8361756109478
 31
0.0
  0
ARC
  5
58D1
330
1A
100
AcDbEntity
  8
SEIHIN
100
AcDbCircle
 10
95.08820478429441
 20
204.3361756109478
 30
0.0
 40
0.5
100
AcDbArc
 50
90.0
 51
180.0
  0
LINE
  5
58D2
330
1A
100
AcDbEntity
  8
SEIHIN
100
AcDbLine
 10
94.58820478429442
 20
204.3361756109478
 30
0.0
 11
94.58820478429442
 21
201.3361756109478
 31
0.0
  0
LINE
  5
58D3
330
1A
100
AcDbEntity
  8
SEIHIN
100
AcDbLine
 10
93.58820478429441
 20
201.3361756109478
 30
0.0
 11
93.58820478429441
 21
204.8361756109478
 31
0.0
  0
LINE
  5
58D4
330
1A
100
AcDbEntity
  8
SEIHIN
100
AcDbLine
 10
94.58820478429442
 20
201.3361756109478
 30
0.0
 11
93.58820478429441
 21
201.3361756109478
 31
0.0
  0
LINE
  5
58D5
330
1A
100
AcDbEntity
  8
SEIHIN
100
AcDbLine
 10
95.02045532429439
 20
204.3362216109478
 30
0.0
 11
95.02045653429439
 21
204.8361756109478
 31
0.0
  0
LINE
  5
58D6
330
1A
100
AcDbEntity
  8
SEIHIN
100
AcDbLine
 10
93.02044957429439
 20
204.3361756109478
 30
0.0
 11
93.02045075429441
 21
204.8361756109478
 31
0.0
  0
LINE
  5
58D7
330
1A
100
AcDbEntity
  8
SEIHIN
100
AcDbLine
 10
94.87458822429443
 20
207.0641019709479
 30
0.0
 11
94.87458822429443
 21
206.0641019709478
 31
0.0
  0
ARC
  5
58D8
330
1A
100
AcDbEntity
  8
SEIHIN
100
AcDbCircle
 10
104.0555429442944
 20
208.8545051109478
 30
0.0
 40
5.715337531631893
100
AcDbArc
 50
232.2375418744901
 51
307.7621812247561
  0
LINE
  5
58D9
330
1A
100
AcDbEntity
  8
SEIHIN
100
AcDbLine
 10
97.6641077742944
 20
206.0641019709478
 30
0.0
 11
97.6641077742944
 21
207.2641019709478
 31
0.0
  0
LINE
  5
58DA
330
1A
100
AcDbEntity
  8
SEIHIN
100
AcDbLine
 10
97.6641077742944
 20
217.6082492509479
 30
0.0
 11
94.87458822429443
 21
217.6082492509479
 31
0.0
  0
LINE
  5
58DB
330
1A
100
AcDbEntity
  8
SEIHIN
100
AcDbLine
 10
94.87458822429443
 20
214.2607869509479
 30
0.0
 11
97.6641077742944
 21
214.2607869509479
 31
0.0
  0
LINE
  5
58DC
330
1A
100
AcDbEntity
  8
SEIHIN
100
AcDbLine
 10
94.58820478429442
 20
220.3361756509479
 30
0.0
 11
94.58820478429442
 21
223.3361756509478
 31
0.0
  0
LINE
  5
58DD
330
1A
100
AcDbEntity
  8
SEIHIN
100
AcDbLine
 10
93.58820478429441
 20
223.3361756509478
 30
0.0
 11
93.58820478429441
 21
219.8361756509478
 31
0.0
  0
LINE
  5
58DE
330
1A
100
AcDbEntity
  8
SEIHIN
100
AcDbLine
 10
89.0553018142944
 20
220.3361756509479
 30
0.0
 11
93.02020913429442
 21
220.3361756509479
 31
0.0
  0
LINE
  5
58DF
330
1A
100
AcDbEntity
  8
SEIHIN
100
AcDbLine
 10
93.02048612429439
 20
219.8361756509478
 30
0.0
 11
89.0553018142944
 21
219.8361756509478
 31
0.0
  0
LINE
  5
58E0
330
1A
100
AcDbEntity
  8
SEIHIN
100
AcDbLine
 10
89.0553018142944
 20
219.8361756509478
 30
0.0
 11
89.0553018142944
 21
220.3361756509479
 31
0.0
  0
LINE
  5
58E1
330
1A
100
AcDbEntity
  8
SEIHIN
100
AcDbLine
 10
95.02049278429444
 20
219.8361756509478
 30
0.0
 11
95.02049399429438
 21
220.3361756509479
 31
0.0
  0
LINE
  5
58E2
330
1A
100
AcDbEntity
  8
SEIHIN
100
AcDbLine
 10
93.02048612429439
 20
219.8361756509478
 30
0.0
 11
93.02048730429442
 21
220.3361756509479
 31
0.0
  0
LINE
  5
58E3
330
1A
100
AcDbEntity
  8
SEIHIN
100
AcDbLine
 10
94.87458822429443
 20
217.6082492509479
 30
0.0
 11
94.87458822429443
 21
218.6082492509478
 31
0.0
  0
ARC
  5
58E4
330
1A
100
AcDbEntity
  8
SEIHIN
100
AcDbCircle
 10
95.08820478429441
 20
220.3361756509479
 30
0.0
 40
0.5
100
AcDbArc
 50
180.0
 51
270.0
  0
ARC
  5
58E5
330
1A
100
AcDbEntity
  8
SEIHIN
100
AcDbCircle
 10
94.58820478429442
 20
219.8361756509478
 30
0.0
 40
1.0
100
AcDbArc
 50
180.0
 51
270.0
  0
LINE
  5
58E6
330
1A
100
AcDbEntity
  8
SEIHIN
100
AcDbLine
 10
94.58820478429442
 20
223.3361756509478
 30
0.0
 11
93.58820478429441
 21
223.3361756509478
 31
0.0
  0
LINE
  5
58E7
330
1A
100
AcDbEntity
  8
SEIHIN
100
AcDbLine
 10
107.5555320242943
 20
221.4006140509478
 30
0.0
 11
100.5555320242943
 21
221.4006140509478
 31
0.0
  0
LINE
  5
58E8
330
1A
100
AcDbEntity
  8
SEIHIN
100
AcDbLine
 10
100.5555320242943
 20
220.3361756509479
 30
0.0
 11
107.5555320242943
 21
220.3361756509479
 31
0.0
  0
LINE
  5
58E9
330
1A
100
AcDbEntity
  8
SEIHIN
100
AcDbLine
 10
97.6641077742944
 20
218.6082492509478
 30
0.0
 11
97.6641077742944
 21
217.4082492509478
 31
0.0
  0
LINE
  5
58EA
330
1A
100
AcDbEntity
  8
SEIHIN
100
AcDbLine
 10
100.5555320242943
 20
221.4006140509478
 30
0.0
 11
100.5555320242943
 21
220.3361756509479
 31
0.0
  0
LINE
  5
58EB
330
1A
100
AcDbEntity
  8
SEIHIN
100
AcDbLine
 10
107.5555320242943
 20
220.3361756509479
 30
0.0
 11
107.5555320242943
 21
221.4006140509478
 31
0.0
  0
LINE
  5
58EC
330
1A
100
AcDbEntity
  8
SEIHIN
100
AcDbLine
 10
121.7227948992944
 20
214.4906196209479
 30
0.0
 11
121.7227948992944
 21
210.1817316009478
 31
0.0
  0
LINE
  5
58ED
330
1A
100
AcDbEntity
  8
SEIHIN
100
AcDbLine
 10
124.4615849142943
 20
208.0641019709478
 30
0.0
 11
124.4615849142943
 21
216.6082492509478
 31
0.0
  0
LINE
  5
58EE
330
1A
100
AcDbEntity
  8
SEIHIN
100
AcDbLine
 10
123.3140192072944
 20
208.0641019709478
 30
0.0
 11
123.3140192072944
 21
216.6082492509478
 31
0.0
  0
LINE
  5
58EF
330
1A
100
AcDbEntity
  8
SEIHIN
100
AcDbLine
 10
117.9996445387944
 20
209.1817316009478
 30
0.0
 11
117.9996445387944
 21
215.4906196209478
 31
0.0
  0
ARC
  5
58F0
330
1A
100
AcDbEntity
  8
SEIHIN
100
AcDbCircle
 10
119.7227948992944
 20
210.1817316009478
 30
0.0
 40
2.0
100
AcDbArc
 50
270.0
 51
0.0
  0
ARC
  5
58F1
330
1A
100
AcDbEntity
  8
SEIHIN
100
AcDbCircle
 10
121.3140192072944
 20
208.0641019709478
 30
0.0
 40
2.0
100
AcDbArc
 50
270.0
 51
0.0
  0
LINE
  5
58F2
330
1A
100
AcDbEntity
  8
SEIHIN
100
AcDbLine
 10
118.5803306201026
 20
205.8361756109478
 30
0.0
 11
118.5803306201025
 21
204.8361756109478
 31
0.0
  0
LINE
  5
58F3
330
1A
100
AcDbEntity
  8
SEIHIN
100
AcDbLine
 10
114.0553018162944
 20
204.3361756109478
 30
0.0
 11
114.0553018162944
 21
204.8361756109478
 31
0.0
  0
ARC
  5
58F4
330
1A
100
AcDbEntity
  8
SEIHIN
100
AcDbCircle
 10
122.4615849142944
 20
208.0641019709478
 30
0.0
 40
2.0
100
AcDbArc
 50
270.0
 51
0.0
  0
ARC
  5
58F5
330
1A
100
AcDbEntity
  8
SEIHIN
100
AcDbCircle
 10
122.4615849142944
 20
208.0641019709478
 30
0.0
 40
2.0
100
AcDbArc
 50
270.0
 51
0.0
  0
ARC
  5
58F6
330
1A
100
AcDbEntity
  8
SEIHIN
100
AcDbCircle
 10
121.3140192072944
 20
216.6082492509478
 30
0.0
 40
2.0
100
AcDbArc
 50
0.0
 51
90.0
  0
ARC
  5
58F7
330
1A
100
AcDbEntity
  8
SEIHIN
100
AcDbCircle
 10
119.7227948992944
 20
214.4906196209479
 30
0.0
 40
2.000000014999997
100
AcDbArc
 50
0.0
 51
90.0
  0
LINE
  5
58F8
330
1A
100
AcDbEntity
  8
SEIHIN
100
AcDbLine
 10
114.0553018162944
 20
219.8361756509478
 30
0.0
 11
114.0553018162944
 21
220.3361756509479
 31
0.0
  0
LINE
  5
58F9
330
1A
100
AcDbEntity
  8
SEIHIN
100
AcDbLine
 10
118.5803306201025
 20
219.8361756509478
 30
0.0
 11
118.5803306201026
 21
218.8361756509479
 31
0.0
  0
ARC
  5
58FA
330
1A
100
AcDbEntity
  8
SEIHIN
100
AcDbCircle
 10
122.4615849142944
 20
216.6082492509478
 30
0.0
 40
2.0
100
AcDbArc
 50
0.0
 51
90.0
  0
ARC
  5
58FB
330
1A
100
AcDbEntity
  8
SEIHIN
100
AcDbCircle
 10
122.4615849142944
 20
216.6082492509478
 30
0.0
 40
2.0
100
AcDbArc
 50
0.0
 51
90.0
  0
ARC
  5
58FC
330
1A
100
AcDbEntity
  8
SEIHIN
100
AcDbCircle
 10
206.8930589688259
 20
212.3361756109478
 30
0.0
 40
3.25
100
AcDbArc
 50
292.6198649480445
 51
67.38013505195993
  0
ARC
  5
58FD
330
1A
100
AcDbEntity
  8
SEIHIN
100
AcDbCircle
 10
198.7145672422412
 20
212.3361756109478
 30
0.0
 40
3.25
100
AcDbArc
 50
112.6198649480423
 51
247.3801350519576
  0
LINE
  5
58FE
330
1A
100
AcDbEntity
  8
SEIHIN
100
AcDbLine
 10
193.2439129899008
 20
205.8361756109478
 30
0.0
 11
193.2439129899008
 21
204.8361756109478
 31
0.0
  0
LINE
  5
58FF
330
1A
100
AcDbEntity
  8
SEIHIN
100
AcDbLine
 10
197.4645672422412
 20
209.3361756109478
 30
0.0
 11
197.4645672422412
 21
205.8361756109478
 31
0.0
  0
LINE
  5
5900
330
1A
100
AcDbEntity
  8
SEIHIN
100
AcDbLine
 10
210.5785648177475
 20
205.8361756109478
 30
0.0
 11
210.5785648177475
 21
204.8361756109478
 31
0.0
  0
LINE
  5
5901
330
1A
100
AcDbEntity
  8
SEIHIN
100
AcDbLine
 10
208.1430589688258
 20
209.3361756409478
 30
0.0
 11
208.1430589688258
 21
205.8361756209478
 31
0.0
  0
LINE
  5
5902
330
1A
100
AcDbEntity
  8
SEIHIN
100
AcDbLine
 10
193.2439129899008
 20
219.8361756509478
 30
0.0
 11
193.2439129899008
 21
218.8361756509478
 31
0.0
  0
LINE
  5
5903
330
1A
100
AcDbEntity
  8
SEIHIN
100
AcDbLine
 10
197.4645672422412
 20
218.8361756509479
 30
0.0
 11
197.4645672422412
 21
215.3361756109478
 31
0.0
  0
LINE
  5
5904
330
1A
100
AcDbEntity
  8
SEIHIN
100
AcDbLine
 10
208.1430589688258
 20
215.3361756409478
 30
0.0
 11
208.1430589688258
 21
218.8361756409479
 31
0.0
  0
LINE
  5
5905
330
1A
100
AcDbEntity
  8
SEIHIN
100
AcDbLine
 10
210.5785648177475
 20
219.8361756509478
 30
0.0
 11
210.5785648177475
 21
218.8361756509478
 31
0.0
  0
DIMENSION
  5
5906
330
1A
100
AcDbEntity
  8
SUNPOU
100
AcDbDimension
  2
*D8
 10
306.7215703945811
 20
130.8656406086178
 30
0.0
 11
307.4504393820696
 21
134.5099855423856
 31
0.0
 70
    33
  3
STANDARD
100
AcDbAlignedDimension
 13
315.3708196359295
 23
142.4692372349801
 33
0.0
 14
318.200546289777
 24
137.7530261441456
 34
0.0
1001
ACAD
1000
DSTYLE
1002
{
1070
    41
1040
3.0
1070
    42
1040
3.0
1070
    43
1040
7.0
1070
    44
1040
1.5
1070
    73
1070
     0
1070
    74
1070
     0
1070
    77
1070
     3
1070
   140
1040
3.0
1070
   141
1040
3.0
1070
   147
1040
1.0
1070
   172
1070
     1
1070
   173
1070
     1
1070
   176
1070
   256
1070
   177
1070
   256
1070
   178
1070
   256
1070
   271
1070
     0
1070
   272
1070
     0
1070
   341
1005
B2
1070
     6
1000
OPEN
1070
     7
1000
OPEN
1002
}
  0
LINE
  5
5907
330
1A
100
AcDbEntity
  8
CENTER_L
100
AcDbLine
 10
317.4631023775331
 20
149.6721778109574
 30
0.0
 11
322.7109590810556
 21
140.9257499697344
 31
0.0
  0
LINE
  5
5908
330
1A
100
AcDbEntity
  8
SEIHIN
100
AcDbLine
 10
319.9155321392944
 20
138.7820176543459
 30
0.0
 11
340.9241088092944
 21
151.3871636623458
 31
0.0
  0
LINE
  5
5909
330
1A
100
AcDbEntity
  8
SEIHIN
100
AcDbLine
 10
300.7076906092945
 20
166.9077856183458
 30
0.0
 11
317.1715547792943
 21
139.4680119953459
 31
0.0
  0
DIMENSION
  5
590A
330
1A
100
AcDbEntity
  8
SUNPOU
100
AcDbDimension
  2
*D9
 10
298.8890578972934
 20
126.1661331113299
 30
0.0
 11
291.7718666164479
 21
142.8872451620059
 31
0.0
 70
    33
  3
STANDARD
100
AcDbAlignedDimension
 13
299.6786990992614
 23
168.6227714687967
 33
0.0
 14
318.200546289777
 24
137.7530261441456
 34
0.0
1001
ACAD
1000
DSTYLE
1002
{
1070
    41
1040
3.0
1070
    42
1040
3.0
1070
    43
1040
7.0
1070
    44
1040
1.5
1070
    73
1070
     0
1070
    74
1070
     0
1070
    77
1070
     3
1070
   140
1040
3.0
1070
   141
1040
3.0
1070
   147
1040
1.0
1070
   172
1070
     1
1070
   173
1070
     1
1070
   176
1070
   256
1070
   177
1070
   256
1070
   178
1070
   256
1070
   271
1070
     0
1070
   272
1070
     0
1070
   341
1005
B2
1070
     6
1000
OPEN
1070
     7
1000
OPEN
1002
}
  0
LINE
  5
590B
330
1A
100
AcDbEntity
  8
SEIHIN
  6
DASHED
 62
     2
100
AcDbLine
 10
229.6690597942943
 20
117.6169878933458
 30
0.0
 11
248.1909069842943
 21
86.74724256834588
 31
0.0
  0
LINE
  5
590C
330
1A
100
AcDbEntity
  8
SEIHIN
  6
DASHED
 62
     2
100
AcDbLine
 10
228.6400682842943
 20
116.9995929863458
 30
0.0
 11
247.1619154742944
 21
86.12984765834591
 31
0.0
  0
LINE
  5
590D
330
1A
100
AcDbEntity
  8
SEIHIN
  6
DASHED
 62
     2
100
AcDbLine
 10
242.4457043842944
 20
83.30012100834592
 30
0.0
 11
223.9238571942943
 21
114.1698663313458
 31
0.0
  0
LINE
  5
590E
330
1A
100
AcDbEntity
  8
SEIHIN
 62
     3
100
AcDbLine
 10
213.6400682842944
 20
116.9995929863458
 30
0.0
 11
232.1619154742943
 21
86.12984765834591
 31
0.0
  0
LINE
  5
590F
330
1A
100
AcDbEntity
  8
SEIHIN
 62
     3
100
AcDbLine
 10
214.6690597942943
 20
117.6169878933458
 30
0.0
 11
233.1909069842943
 21
86.74724256834588
 31
0.0
  0
LINE
  5
5910
330
1A
100
AcDbEntity
  8
SUNPOU
100
AcDbLine
 10
250.3326272776938
 20
58.17770875064072
 30
0.0
 11
244.3326272776939
 21
58.17770875064072
 31
0.0
  0
LINE
  5
5911
330
1A
100
AcDbEntity
  8
SUNPOU
100
AcDbLine
 10
233.1909069842943
 20
86.74724256834588
 30
0.0
 11
250.3326272776938
 21
58.17770875064072
 31
0.0
  0
LINE
  5
5912
330
1A
100
AcDbEntity
  8
CENTER_L
100
AcDbLine
 10
233.6135272505866
 20
84.41486180629853
 30
0.0
 11
251.3636308128927
 21
95.06492394122394
 31
0.0
  0
LINE
  5
5913
330
1A
100
AcDbEntity
  8
SEIHIN
  6
DASHED
 62
     2
100
AcDbLine
 10
248.1909069842943
 20
86.74724256834588
 30
0.0
 11
242.4457043842944
 21
83.30012100834592
 31
0.0
  0
LINE
  5
5914
330
1A
100
AcDbEntity
  8
SUNPOU
100
AcDbLine
 10
244.3326272776939
 20
58.17770875064072
 30
0.0
 11
244.3326272776939
 21
68.17770875064072
 31
0.0
  0
TEXT
  5
5915
330
1A
100
AcDbEntity
  8
SUNPOU
100
AcDbText
 10
239.2397934735601
 20
60.60761258124639
 30
0.0
 40
3.0
  1
10
100
AcDbText
  0
LINE
  5
5916
330
1A
100
AcDbEntity
  8
SEIHIN
100
AcDbLine
 10
225.4734706488627
 20
91.44630380570164
 30
0.0
 11
229.5894366921949
 21
90.41731229443758
 31
0.0
  0
LINE
  5
5917
330
1A
100
AcDbEntity
  8
CENTER_L
100
AcDbLine
 10
218.6135272505865
 20
84.41486180629853
 30
0.0
 11
236.3636308128926
 21
95.06492394122394
 31
0.0
  0
LINE
  5
5918
330
1A
100
AcDbEntity
  8
SEIHIN
 62
     3
100
AcDbLine
 10
233.1909069842943
 20
86.74724256834588
 30
0.0
 11
227.4457043842943
 21
83.30012100834592
 31
0.0
  0
LINE
  5
5919
330
1A
100
AcDbEntity
  8
SEIHIN
100
AcDbLine
 10
225.4734706488627
 20
91.44630380570163
 30
0.0
 11
228.0459494261575
 21
92.98979107172227
 31
0.0
  0
LINE
  5
591A
330
1A
100
AcDbEntity
  8
SEIHIN
100
AcDbLine
 10
226.5024621601199
 20
95.56226984900696
 30
0.0
 11
225.4734706488627
 21
91.44630380570164
 31
0.0
  0
TEXT
  5
591B
330
1A
100
AcDbEntity
  8
SUNPOU
100
AcDbText
 10
246.0471564025509
 20
53.68172989544088
 30
0.0
 40
3.0
  1
6
100
AcDbText
  0
ARC
  5
591C
330
1A
100
AcDbEntity
  8
SEIHIN
  6
DASHED
 62
     2
100
AcDbCircle
 10
218.4359024642943
 20
117.8742357703458
 30
0.0
 40
4.000000000005702
100
AcDbArc
 50
30.96376780757603
 51
170.7918456040361
  0
LINE
  5
591D
330
1A
100
AcDbEntity
  8
SEIHIN
  6
DASHED
 62
     2
100
AcDbLine
 10
223.9107038015228
 20
126.242422566213
 30
0.0
 11
229.2403133342943
 21
117.3597400153459
 31
0.0
  0
LINE
  5
591E
330
1A
100
AcDbEntity
  8
SEIHIN
  6
DASHED
 62
     2
100
AcDbLine
 10
221.8658737642943
 20
119.9322194683458
 30
0.0
 11
224.9528487042943
 21
114.7872612383458
 31
0.0
  0
LINE
  5
591F
330
1A
100
AcDbEntity
  8
CENTER_L
100
AcDbLine
 10
220.7511333653702
 20
105.8521849471685
 30
0.0
 11
238.5012369266549
 21
116.5022470814812
 31
0.0
  0
LINE
  5
5920
330
1A
100
AcDbEntity
  8
CENTER_L
100
AcDbLine
 10
225.1243472842887
 20
98.56349508269786
 30
0.0
 11
242.8744508459207
 21
109.2135572172189
 31
0.0
  0
LINE
  5
5921
330
1A
100
AcDbEntity
  8
SEIHIN
  6
DASHED
 62
     2
100
AcDbLine
 10
223.9238571942943
 20
114.1698663313458
 30
0.0
 11
229.6690597942943
 21
117.6169878933458
 31
0.0
  0
LINE
  5
5922
330
1A
100
AcDbEntity
  8
SEIHIN
100
AcDbLine
 10
215.1835555392466
 20
108.5961623254321
 30
0.0
 11
219.2995215825789
 21
107.567170814168
 31
0.0
  0
LINE
  5
5923
330
1A
100
AcDbEntity
  8
SEIHIN
100
AcDbLine
 10
217.7560343165414
 20
110.1396495914527
 30
0.0
 11
215.1835555392466
 21
108.596162325432
 31
0.0
  0
LINE
  5
5924
330
1A
100
AcDbEntity
  8
SEIHIN
100
AcDbLine
 10
216.2125470505039
 20
112.7121283687374
 30
0.0
 11
215.1835555392466
 21
108.5961623254321
 31
0.0
  0
ARC
  5
5925
330
1A
100
AcDbEntity
  8
SEIHIN
100
AcDbCircle
 10
318.8865406292944
 20
140.4970035063458
 30
0.0
 40
1.999999999452818
100
AcDbArc
 50
210.9637565566384
 51
300.9637565025945
  0
ELLIPSE
  5
5926
330
1A
100
AcDbEntity
  8
SEIHIN
100
AcDbEllipse
 10
214.6690597949645
 20
236.7693718203454
 30
0.0
 11
-0.0000000000000031
 21
2.0
 31
0.0
210
0.0
220
0.0
230
-1.0
 40
0.5144957552958261
 41
-1.570796326794895
 42
0.0000000000000029
  0
ELLIPSE
  5
5927
330
1A
100
AcDbEntity
  8
SEIHIN
100
AcDbEllipse
 10
215.684775083031
 20
236.7693718203454
 30
0.0
 11
-0.0000000000000031
 21
2.0
 31
0.0
210
0.0
220
0.0
230
-1.0
 40
0.5144957552958261
 41
-1.570796326794895
 42
0.0000000000000029
  0
ELLIPSE
  5
5928
330
1A
100
AcDbEntity
  8
SEIHIN
100
AcDbEllipse
 10
217.4987864463004
 20
234.0595128363621
 30
0.0
 11
0.0
 21
-2.099999999999994
 31
0.0
210
0.0
220
0.0
230
-1.0
 40
0.5144957554888068
 41
0.0
 42
6.283185307179586
  0
ELLIPSE
  5
5929
330
1A
100
AcDbEntity
  8
SEIHIN
100
AcDbEllipse
 10
216.4830711582339
 20
234.0595128363621
 30
0.0
 11
-0.0000000000000026
 21
2.099999999999989
 31
0.0
210
0.0
220
0.0
230
-1.0
 40
0.5144957554888081
 41
0.4893435574111358
 42
2.652249096192996
  0
ELLIPSE
  5
592A
330
1A
100
AcDbEntity
  8
SEIHIN
100
AcDbEllipse
 10
221.8720003655661
 20
232.5595128363621
 30
0.0
 11
0.0
 21
3.25
 31
0.0
210
0.0
220
0.0
230
-1.0
 40
0.5144957554888029
 41
0.0
 42
6.283185307179586
  0
ELLIPSE
  5
592B
330
1A
100
AcDbEntity
  8
SEIHIN
100
AcDbEllipse
 10
220.8562850774996
 20
232.5595128363621
 30
0.0
 11
-0.0000000000000208
 21
3.249999999999994
 31
0.0
210
0.0
220
0.0
230
-1.0
 40
0.5144957554888037
 41
0.3085972064891413
 42
2.832995447100658
  0
ELLIPSE
  5
592C
330
1A
100
AcDbEntity
  8
SEIHIN
100
AcDbEllipse
 10
232.1619154737027
 20
236.7693718203454
 30
0.0
 11
0.000000000000003
 21
2.0
 31
0.0
210
0.0
220
0.0
230
-1.0
 40
0.5144957552958261
 41
-0.0000000000000031
 42
1.570796326794896
  0
ELLIPSE
  5
592D
330
1A
100
AcDbEntity
  8
SEIHIN
100
AcDbEllipse
 10
229.3454650444716
 20
234.0595128363621
 30
0.0
 11
-0.0000000000000026
 21
2.099999999999989
 31
0.0
210
0.0
220
0.0
230
-1.0
 40
0.5144957554888081
 41
0.4893435574111358
 42
2.652249096192996
  0
ELLIPSE
  5
592E
330
1A
100
AcDbEntity
  8
SEIHIN
100
AcDbEllipse
 10
230.361180332538
 20
234.0595128363621
 30
0.0
 11
0.0
 21
-2.099999999999994
 31
0.0
210
0.0
220
0.0
230
-1.0
 40
0.5144957554888068
 41
0.0
 42
6.283185307179586
  0
SPLINE
  5
592F
330
1A
100
AcDbEntity
  8
SEIHIN
100
AcDbSpline
210
0.0
220
0.0
230
1.0
 70
     8
 71
     3
 72
    43
 73
    39
 74
     0
 42
0.0000000001
 43
0.0000000001
 40
2.573801282421732
 40
2.573801282421732
 40
2.573801282421732
 40
2.573801282421732
 40
2.743484381259663
 40
2.743484381259663
 40
2.952958003953673
 40
2.952958003953673
 40
3.162431626647684
 40
3.162431626647684
 40
3.371905249341694
 40
3.371905249341694
 40
3.581378872035704
 40
3.581378872035704
 40
3.790852494729714
 40
3.790852494729714
 40
4.212890898547438
 40
4.212890898547438
 40
4.63492930236516
 40
4.63492930236516
 40
4.712388980384689
 40
4.712388980384689
 40
4.712388980384689
 40
5.035006403854932
 40
5.035006403854932
 40
5.40458618261824
 40
5.40458618261824
 40
5.774165961381548
 40
5.774165961381548
 40
6.00394318856648
 40
6.00394318856648
 40
6.233720415751411
 40
6.233720415751411
 40
6.426033209648384
 40
6.426033209648384
 40
6.618346003545356
 40
6.618346003545356
 40
6.810658797442329
 40
6.810658797442329
 40
6.85074050005263
 40
6.85074050005263
 40
6.85074050005263
 40
6.85074050005263
 10
225.366886456344
 20
215.3361756409478
 30
0.0
 10
225.4658372905998
 20
215.4710792489093
 30
0.0
 10
225.5775486709322
 20
215.5973576697795
 30
0.0
 10
225.864061468715
 20
215.8548047679046
 30
0.0
 10
226.0495966696493
 20
215.9799084614016
 30
0.0
 10
226.4784506789769
 20
216.1548270824534
 30
0.0
 10
226.7225667972292
 20
216.2012585463144
 30
0.0
 10
227.2068048413253
 20
216.1796955643223
 30
0.0
 10
227.4420365532766
 20
216.1126333743182
 30
0.0
 10
227.8487472570852
 20
215.9088872331867
 30
0.0
 10
228.0220431293983
 20
215.7747171626779
 30
0.0
 10
228.3187742956522
 20
215.4764184237304
 30
0.0
 10
228.443353129017
 20
215.3115669928957
 30
0.0
 10
228.7699794786726
 20
214.7818730848245
 30
0.0
 10
228.9247134495157
 20
214.3819656715428
 30
0.0
 10
229.1445550587451
 20
213.5211588438876
 30
0.0
 10
229.2074266040126
 20
213.0601496772269
 30
0.0
 10
229.2274911791114
 20
212.507824042259
 30
0.0
 10
229.2290469507209
 20
212.4219998769042
 30
0.0
 10
229.2290469507209
 20
212.3361756309478
 30
0.0
 10
229.2290469507209
 20
211.9787200126231
 30
0.0
 10
229.2020832016677
 20
211.6213650711983
 30
0.0
 10
229.0861822189588
 20
210.880625361398
 30
0.0
 10
228.9893629007881
 20
210.5013835096214
 30
0.0
 10
228.717987076125
 20
209.8020117035674
 30
0.0
 10
228.5453406091371
 20
209.4803936820564
 30
0.0
 10
228.1636011781846
 20
209.0252296514854
 30
0.0
 10
227.9913812639668
 20
208.8657377320727
 30
0.0
 10
227.5749447737647
 20
208.6106211830347
 30
0.0
 10
227.3272074618776
 20
208.5171837971488
 30
0.0
 10
226.8430146166267
 20
208.4659707560903
 30
0.0
 10
226.6152268703679
 20
208.4898835419783
 30
0.0
 10
226.2014000385299
 20
208.6170496530026
 30
0.0
 10
226.0158960570815
 20
208.7177053848738
 30
0.0
 10
225.6954663335656
 20
208.9561560912029
 30
0.0
 10
225.5590865532101
 20
209.0938387898029
 30
0.0
 10
225.415144511629
 20
209.2729881716528
 30
0.0
 10
225.3910312602708
 20
209.3043552439338
 30
0.0
 10
225.3676001417535
 20
209.3361756409479
 30
0.0
  0
ELLIPSE
  5
5930
330
1A
100
AcDbEntity
  8
SEIHIN
100
AcDbEllipse
 10
220.8562850774996
 20
192.1128384255334
 30
0.0
 11
0.0000000000000208
 21
3.249999999999994
 31
0.0
210
0.0
220
0.0
230
1.0
 40
0.5144957554888037
 41
3.450189860078934
 42
5.974588100690452
  0
ELLIPSE
  5
5931
330
1A
100
AcDbEntity
  8
SEIHIN
100
AcDbEllipse
 10
221.8720003655661
 20
192.1128384255334
 30
0.0
 11
0.0
 21
-3.25
 31
0.0
210
0.0
220
0.0
230
1.0
 40
0.5144957554888029
 41
0.0
 42
6.283185307179586
  0
ELLIPSE
  5
5932
330
1A
100
AcDbEntity
  8
SEIHIN
100
AcDbEllipse
 10
216.4830711582339
 20
190.6128384255334
 30
0.0
 11
0.0000000000000026
 21
2.099999999999989
 31
0.0
210
0.0
220
0.0
230
1.0
 40
0.5144957554888081
 41
3.630936211000927
 42
5.79384174978279
  0
ELLIPSE
  5
5933
330
1A
100
AcDbEntity
  8
SEIHIN
100
AcDbEllipse
 10
217.4987864463004
 20
190.6128384255334
 30
0.0
 11
0.0
 21
2.099999999999994
 31
0.0
210
0.0
220
0.0
230
1.0
 40
0.5144957554888068
 41
0.0
 42
6.283185307179586
  0
ELLIPSE
  5
5934
330
1A
100
AcDbEntity
  8
SEIHIN
100
AcDbEllipse
 10
214.6690597949645
 20
187.9029794415501
 30
0.0
 11
0.0000000000000031
 21
2.0
 31
0.0
210
0.0
220
0.0
230
1.0
 40
0.5144957552958261
 41
1.570796326794897
 42
3.141592653589796
  0
ELLIPSE
  5
5935
330
1A
100
AcDbEntity
  8
SEIHIN
100
AcDbEllipse
 10
215.6847750830309
 20
187.9029794415501
 30
0.0
 11
0.0000000000000031
 21
2.0
 31
0.0
210
0.0
220
0.0
230
1.0
 40
0.5144957552958261
 41
1.570796326794897
 42
3.141592653589796
  0
ELLIPSE
  5
5936
330
1A
100
AcDbEntity
  8
SEIHIN
100
AcDbEllipse
 10
226.8923467442944
 20
212.3361756309478
 30
0.0
 11
0.0
 21
-2.8559114857152
 31
0.0
210
0.0
220
0.0
230
-1.0
 40
0.4680467910551545
 41
-1.570796326794896
 42
4.712388980384689
  0
ELLIPSE
  5
5937
330
1A
100
AcDbEntity
  8
SEIHIN
100
AcDbEllipse
 10
230.361180332538
 20
190.6128384255334
 30
0.0
 11
0.0
 21
2.099999999999994
 31
0.0
210
0.0
220
0.0
230
1.0
 40
0.5144957554888068
 41
0.0
 42
6.283185307179586
  0
ELLIPSE
  5
5938
330
1A
100
AcDbEntity
  8
SEIHIN
100
AcDbEllipse
 10
229.3454650444715
 20
190.6128384255334
 30
0.0
 11
0.0000000000000026
 21
2.099999999999989
 31
0.0
210
0.0
220
0.0
230
1.0
 40
0.5144957554888081
 41
3.630936211000927
 42
5.79384174978279
  0
ELLIPSE
  5
5939
330
1A
100
AcDbEntity
  8
SEIHIN
100
AcDbEllipse
 10
232.1619154737027
 20
187.9029794415501
 30
0.0
 11
-0.000000000000003
 21
2.0
 31
0.0
210
0.0
220
0.0
230
1.0
 40
0.5144957552958261
 41
3.141592653589789
 42
4.712388980384688
  0
LINE
  5
593A
330
1A
100
AcDbEntity
  8
SEIHIN
100
AcDbLine
 10
328.8334586092943
 20
186.1156271583458
 30
0.0
 11
343.4108383092943
 21
194.8620549983459
 31
0.0
  0
CIRCLE
  5
593B
330
1A
100
AcDbEntity
  8
SEIHIN
100
AcDbCircle
 10
343.2393397092943
 20
188.3451087583458
 30
0.0
 40
2.099999996653719
  0
LINE
  5
593C
330
1A
100
AcDbEntity
  8
CENTER_L
100
AcDbLine
 10
340.6154113575332
 20
192.7183226789573
 30
0.0
 11
345.8632680610557
 21
183.9718948377344
 31
0.0
  0
LINE
  5
593D
330
1A
100
AcDbEntity
  8
CENTER_L
100
AcDbLine
 10
338.8661257886829
 20
185.7211804065846
 30
0.0
 11
347.6125536299059
 21
190.969037110107
 31
0.0
  0
LINE
  5
593E
330
1A
100
AcDbEntity
  8
SEIHIN
100
AcDbLine
 10
334.4681427092943
 20
178.4176290283459
 30
0.0
 11
343.2145705092943
 21
163.8402492983459
 31
0.0
  0
LINE
  5
593F
330
1A
100
AcDbEntity
  8
SEIHIN
100
AcDbLine
 10
345.4501607092944
 20
165.1816033683459
 30
0.0
 11
342.4675961092943
 21
163.3920646183459
 31
0.0
  0
LINE
  5
5940
330
1A
100
AcDbEntity
  8
CENTER_L
100
AcDbLine
 10
340.9669834197815
 20
177.0690767853803
 30
0.0
 11
351.6856449988072
 21
183.5002737313113
 31
0.0
  0
LINE
  5
5941
330
1A
100
AcDbEntity
  8
SEIHIN
100
AcDbLine
 10
343.2839456092944
 20
156.2005302653458
 30
0.0
 11
335.5665092092944
 21
151.5700684663459
 31
0.0
  0
LINE
  5
5942
330
1A
100
AcDbEntity
  8
SEIHIN
100
AcDbLine
 10
343.9699399092944
 20
158.9445076283458
 30
0.0
 11
319.7440335592943
 21
199.3210182083458
 31
0.0
  0
LINE
  5
5943
330
1A
100
AcDbEntity
  8
CENTER_L
100
AcDbLine
 10
310.5688592692871
 20
201.9792462781251
 30
0.0
 11
344.5255791131862
 21
145.3847131918975
 31
0.0
  0
LINE
  5
5944
330
1A
100
AcDbEntity
  8
SEIHIN
100
AcDbLine
 10
344.8274328092943
 20
159.4590033783458
 30
0.0
 11
320.6015264792944
 21
199.8355139683459
 31
0.0
  0
LINE
  5
5945
330
1A
100
AcDbEntity
  8
SEIHIN
100
AcDbLine
 10
361.9326855092944
 20
163.9923096683459
 30
0.0
 11
340.9241088092944
 21
151.3871636623458
 31
0.0
  0
LINE
  5
5946
330
1A
100
AcDbEntity
  8
SEIHIN
100
AcDbLine
 10
342.4675961092943
 20
163.3920646183459
 30
0.0
 11
344.0110833092944
 21
160.8195858483459
 31
0.0
  0
DIMENSION
  5
5947
330
1A
100
AcDbEntity
  8
SUNPOU
100
AcDbDimension
  2
*D10
 10
323.2549332433553
 20
218.736976829899
 30
0.0
 11
305.2475818236553
 21
210.8480419135017
 31
0.0
 70
    33
  3
STANDARD
100
AcDbAlignedDimension
 13
309.6684916763289
 23
165.5786715878587
 33
0.0
 14
343.1107157363289
 24
185.6440060478587
 34
0.0
1001
ACAD
1000
DSTYLE
1002
{
1070
    41
1040
3.0
1070
    42
1040
3.0
1070
    43
1040
7.0
1070
    44
1040
1.5
1070
    73
1070
     0
1070
    74
1070
     0
1070
    77
1070
     3
1070
   140
1040
3.0
1070
   141
1040
3.0
1070
   147
1040
1.0
1070
   172
1070
     1
1070
   173
1070
     1
1070
   176
1070
   256
1070
   177
1070
   256
1070
   178
1070
   256
1070
   271
1070
     0
1070
   272
1070
     0
1070
   341
1005
B2
1070
     6
1000
OPEN
1070
     7
1000
OPEN
1002
}
  0
DIMENSION
  5
5948
330
1A
100
AcDbEntity
  8
SUNPOU
100
AcDbDimension
  2
*D11
 10
320.4912489441957
 20
236.9486719327782
 30
0.0
 11
296.4814470094272
 21
225.4582667163986
 31
0.0
 70
    33
  3
STANDARD
100
AcDbAlignedDimension
 13
299.6786990992614
 23
168.6227714687967
 33
0.0
 14
345.1258241912526
 24
195.8910465298738
 34
0.0
1001
ACAD
1000
DSTYLE
1002
{
1070
    41
1040
3.0
1070
    42
1040
3.0
1070
    43
1040
7.0
1070
    44
1040
1.5
1070
    73
1070
     0
1070
    74
1070
     0
1070
    77
1070
     3
1070
   140
1040
3.0
1070
   141
1040
3.0
1070
   147
1040
1.0
1070
   172
1070
     1
1070
   173
1070
     1
1070
   176
1070
   256
1070
   177
1070
   256
1070
   178
1070
   256
1070
   271
1070
     0
1070
   272
1070
     0
1070
   341
1005
B2
1070
     6
1000
OPEN
1070
     7
1000
OPEN
1002
}
  0
DIMENSION
  5
5949
330
1A
100
AcDbEntity
  8
SUNPOU
100
AcDbDimension
  2
*D12
 10
251.3695610365958
 20
185.9029794415501
 30
0.0
 11
248.8695610365958
 21
212.3361756309478
 31
0.0
 70
    32
  3
STANDARD
100
AcDbAlignedDimension
 13
232.1619154737027
 23
238.7693718203454
 33
0.0
 14
232.1619154737027
 24
185.9029794415501
 34
0.0
 50
90.0
100
AcDbRotatedDimension
1001
ACAD
1000
DSTYLE
1002
{
1070
    41
1040
3.0
1070
    42
1040
3.0
1070
    43
1040
7.0
1070
    44
1040
1.5
1070
    73
1070
     0
1070
    74
1070
     0
1070
    77
1070
     3
1070
   140
1040
3.0
1070
   141
1040
3.0
1070
   147
1040
1.0
1070
   172
1070
     1
1070
   173
1070
     1
1070
   176
1070
   256
1070
   177
1070
   256
1070
   178
1070
   256
1070
   271
1070
     0
1070
   272
1070
     0
1070
   341
1005
B2
1070
     6
1000
OPEN
1070
     7
1000
OPEN
1002
}
  0
LINE
  5
594A
330
1A
100
AcDbEntity
  8
SEIHIN
100
AcDbLine
 10
233.1909069842943
 20
222.0924237903455
 30
0.0
 11
233.1909069842943
 21
236.7693718203454
 31
0.0
  0
LINE
  5
594B
330
1A
100
AcDbEntity
  8
SEIHIN
100
AcDbLine
 10
213.6400682843728
 20
236.7693718203454
 30
0.0
 11
213.6400682843728
 21
221.6043192903454
 31
0.0
  0
LINE
  5
594C
330
1A
100
AcDbEntity
  8
SEIHIN
100
AcDbLine
 10
214.6557835724393
 20
222.0924234003454
 30
0.0
 11
214.6557835724393
 21
236.7693718203454
 31
0.0
  0
TEXT
  5
594D
330
1A
100
AcDbEntity
  8
SUNPOU
100
AcDbText
 10
265.0992298628145
 20
188.56315437892
 30
0.0
 40
3.0
  1
4-φ4.2
100
AcDbText
  0
LWPOLYLINE
  5
594E
330
1A
100
AcDbEntity
  8
SUNPOU
100
AcDbPolyline
 90
        3
 70
     0
 43
0.0
 10
303.1144059375757
 20
169.4047648769808
 10
281.6992298628144
 20
187.854103572306
 10
264.1174432259057
 20
187.854103572306
1001
ACAD
1000
DSTYLE
1002
{
1070
    41
1040
3.0
1070
    42
1040
3.0
1070
    43
1040
7.0
1070
    44
1040
1.5
1070
    73
1070
     0
1070
    74
1070
     0
1070
    77
1070
     0
1070
   140
1040
3.0
1070
   141
1040
3.0
1070
   147
1040
1.0
1070
   172
1070
     1
1070
   173
1070
     1
1070
   176
1070
   256
1070
   177
1070
   256
1070
   178
1070
   256
1070
   271
1070
     0
1070
   272
1070
     0
1070
   341
1005
B2
1070
   343
1005
B2
1070
   344
1005
B2
1002
}
  0
LINE
  5
594F
330
1A
100
AcDbEntity
  8
SEIHIN
100
AcDbLine
 10
233.1909069842943
 20
202.57992747155
 30
0.0
 11
233.1909069842943
 21
187.9029794415501
 31
0.0
  0
LINE
  5
5950
330
1A
100
AcDbEntity
  8
SEIHIN
100
AcDbLine
 10
214.6557835724393
 20
202.5799278615501
 30
0.0
 11
214.6557835724393
 21
187.9029794415501
 31
0.0
  0
LINE
  5
5951
330
1A
100
AcDbEntity
  8
SEIHIN
100
AcDbLine
 10
213.6400682843728
 20
187.9029794415501
 30
0.0
 11
213.6400682843728
 21
203.0680319715501
 31
0.0
  0
TEXT
  5
5952
330
1A
100
AcDbEntity
  8
SUNPOU
100
AcDbText
 10
214.6098592807352
 20
160.9341800052332
 30
0.0
 40
3.0
  1
（スライド幅）
100
AcDbText
  0
LINE
  5
5953
330
1A
100
AcDbEntity
  8
SEIHIN
100
AcDbLine
 10
232.1619154737027
 20
185.9029794415501
 30
0.0
 11
214.6690597949645
 21
185.9029794415501
 31
0.0
  0
LINE
  5
5954
330
1A
100
AcDbEntity
  8
SEIHIN
100
AcDbLine
 10
230.1632399342944
 20
218.8361756409479
 30
0.0
 11
230.1632399342945
 21
205.8361756209479
 31
0.0
  0
LINE
  5
5955
330
1A
100
AcDbEntity
  8
SEIHIN
100
AcDbLine
 10
231.1632399342944
 20
219.8361756409479
 30
0.0
 11
231.1632399342944
 21
204.8361756209478
 31
0.0
  0
LINE
  5
5956
330
1A
100
AcDbEntity
  8
SEIHIN
100
AcDbLine
 10
228.9545631482943
 20
201.9029794415501
 30
0.0
 11
227.5651614392943
 21
203.97417425155
 31
0.0
  0
LINE
  5
5957
330
1A
100
AcDbEntity
  8
SEIHIN
100
AcDbLine
 10
227.5651614392943
 20
201.9029794415501
 30
0.0
 11
228.9545631482943
 21
201.9029794415501
 31
0.0
  0
LINE
  5
5958
330
1A
100
AcDbEntity
  8
CENTER_L
100
AcDbLine
 10
226.3388796121766
 20
190.6128384255337
 30
0.0
 11
234.3834810528994
 21
190.6128384255337
 31
0.0
  0
LINE
  5
5959
330
1A
100
AcDbEntity
  8
CENTER_L
100
AcDbLine
 10
217.7467681221881
 20
192.1128384255337
 30
0.0
 11
225.997232608944
 21
192.1128384255336
 31
0.0
  0
LINE
  5
595A
330
1A
100
AcDbEntity
  8
CENTER_L
100
AcDbLine
 10
213.4764857259389
 20
190.6128384255337
 30
0.0
 11
221.5210871666617
 21
190.6128384255337
 31
0.0
  0
LINE
  5
595B
330
1A
100
AcDbEntity
  8
SEIHIN
100
AcDbLine
 10
216.1616064162943
 20
203.6839895415501
 30
0.0
 11
219.9983337422943
 21
203.6839895415501
 31
0.0
  0
LINE
  5
595C
330
1A
100
AcDbEntity
  8
SEIHIN
100
AcDbLine
 10
213.2217221634393
 20
204.25899804155
 30
0.0
 11
212.5777407584393
 21
204.9029794415501
 31
0.0
  0
ARC
  5
595D
330
1A
100
AcDbEntity
  8
SEIHIN
100
AcDbCircle
 10
212.9557835684393
 20
202.5799278615501
 30
0.0
 40
1.700000002834678
100
AcDbArc
 50
0.0
 51
80.99999985768855
  0
ARC
  5
595E
330
1A
100
AcDbEntity
  8
SEIHIN
100
AcDbCircle
 10
213.1400682803728
 20
203.0680319715501
 30
0.0
 40
0.5000000015686215
100
AcDbArc
 50
0.0
 51
86.20816424113447
  0
LINE
  5
595F
330
1A
100
AcDbEntity
  8
SEIHIN
100
AcDbLine
 10
222.7415021202943
 20
203.6839895415501
 30
0.0
 11
226.5835189272943
 21
203.6839895415501
 31
0.0
  0
LINE
  5
5960
330
1A
100
AcDbEntity
  8
SEIHIN
100
AcDbLine
 10
222.0421637932943
 20
204.9029794415501
 30
0.0
 11
222.0421637932943
 21
201.9029794415501
 31
0.0
  0
LINE
  5
5961
330
1A
100
AcDbEntity
  8
SEIHIN
100
AcDbLine
 10
220.6527620832943
 20
201.9029794415501
 30
0.0
 11
220.6527620832943
 21
204.9029794415501
 31
0.0
  0
LINE
  5
5962
330
1A
100
AcDbEntity
  8
SEIHIN
100
AcDbLine
 10
222.0421637932943
 20
201.9029794415501
 30
0.0
 11
220.6527620832943
 21
203.97417425155
 31
0.0
  0
LINE
  5
5963
330
1A
100
AcDbEntity
  8
SEIHIN
100
AcDbLine
 10
220.6527620832943
 20
201.9029794415501
 30
0.0
 11
222.0421637932943
 21
201.9029794415501
 31
0.0
  0
LINE
  5
5964
330
1A
100
AcDbEntity
  8
SEIHIN
100
AcDbLine
 10
227.5651614392943
 20
201.9029794415501
 30
0.0
 11
227.5651614392943
 21
204.9029794415501
 31
0.0
  0
ARC
  5
5965
330
1A
100
AcDbEntity
  8
SEIHIN
100
AcDbCircle
 10
231.4909069842943
 20
202.5799278615501
 30
0.0
 40
1.700000000521832
100
AcDbArc
 50
359.9999868556723
 51
80.99999999084433
  0
LINE
  5
5966
330
1A
100
AcDbEntity
  8
SEIHIN
100
AcDbLine
 10
230.1828748052944
 20
203.6839895415501
 30
0.0
 11
231.6058439922943
 21
203.6839895415501
 31
0.0
  0
LINE
  5
5967
330
1A
100
AcDbEntity
  8
SEIHIN
100
AcDbLine
 10
228.9545631482943
 20
204.9029794415501
 30
0.0
 11
228.9545631482943
 21
201.9029794415501
 31
0.0
  0
LINE
  5
5968
330
1A
100
AcDbEntity
  8
SEIHIN
100
AcDbLine
 10
231.7568455752943
 20
204.25899804155
 30
0.0
 11
231.1128641672943
 21
204.9029794415501
 31
0.0
  0
LINE
  5
5969
330
1A
100
AcDbEntity
  8
SEIHIN
100
AcDbLine
 10
227.5651614392943
 20
222.7693718203454
 30
0.0
 11
228.9545631482944
 21
222.7693718203454
 31
0.0
  0
LINE
  5
596A
330
1A
100
AcDbEntity
  8
SEIHIN
100
AcDbLine
 10
228.9545631482944
 20
222.7693718203454
 30
0.0
 11
227.5651614392943
 21
220.6981770103455
 31
0.0
  0
LINE
  5
596B
330
1A
100
AcDbEntity
  8
CENTER_L
100
AcDbLine
 10
226.3388796121767
 20
234.0595128363621
 30
0.0
 11
234.3834810528995
 21
234.0595128363621
 31
0.0
  0
LINE
  5
596C
330
1A
100
AcDbEntity
  8
SEIHIN
100
AcDbLine
 10
216.1616064162944
 20
220.9883617203454
 30
0.0
 11
219.9983337422943
 21
220.9883617203454
 31
0.0
  0
LINE
  5
596D
330
1A
100
AcDbEntity
  8
SEIHIN
100
AcDbLine
 10
213.2217221634393
 20
220.4133532203455
 30
0.0
 11
212.5777407584393
 21
219.7693718203454
 31
0.0
  0
ARC
  5
596E
330
1A
100
AcDbEntity
  8
SEIHIN
100
AcDbCircle
 10
212.9557835684393
 20
222.0924234003454
 30
0.0
 40
1.700000002834678
100
AcDbArc
 50
279.0000001423114
 51
0.0
  0
ARC
  5
596F
330
1A
100
AcDbEntity
  8
SEIHIN
100
AcDbCircle
 10
213.1400682803728
 20
221.6043192903454
 30
0.0
 40
0.5000000015686215
100
AcDbArc
 50
273.7918357588654
 51
0.0
  0
LINE
  5
5970
330
1A
100
AcDbEntity
  8
SEIHIN
100
AcDbLine
 10
222.7415021202943
 20
220.9883617203454
 30
0.0
 11
226.5835189272944
 21
220.9883617203454
 31
0.0
  0
LINE
  5
5971
330
1A
100
AcDbEntity
  8
SEIHIN
100
AcDbLine
 10
222.0421637932944
 20
219.7693718203454
 30
0.0
 11
222.0421637932944
 21
222.7693718203454
 31
0.0
  0
LINE
  5
5972
330
1A
100
AcDbEntity
  8
SEIHIN
100
AcDbLine
 10
220.6527620832944
 20
222.7693718203454
 30
0.0
 11
220.6527620832944
 21
219.7693718203454
 31
0.0
  0
LINE
  5
5973
330
1A
100
AcDbEntity
  8
SEIHIN
100
AcDbLine
 10
220.6527620832944
 20
222.7693718203454
 30
0.0
 11
222.0421637932944
 21
222.7693718203454
 31
0.0
  0
LINE
  5
5974
330
1A
100
AcDbEntity
  8
SEIHIN
100
AcDbLine
 10
222.0421637932944
 20
222.7693718203454
 30
0.0
 11
220.6527620832944
 21
220.6981770103455
 31
0.0
  0
LINE
  5
5975
330
1A
100
AcDbEntity
  8
SEIHIN
100
AcDbLine
 10
227.5651614392943
 20
222.7693718203454
 30
0.0
 11
227.5651614392943
 21
219.7693718203454
 31
0.0
  0
LINE
  5
5976
330
1A
100
AcDbEntity
  8
CENTER_L
100
AcDbLine
 10
213.476485725939
 20
234.0595128363621
 30
0.0
 11
221.5210871666617
 21
234.0595128363621
 31
0.0
  0
LINE
  5
5977
330
1A
100
AcDbEntity
  8
CENTER_L
100
AcDbLine
 10
217.7467681221882
 20
232.5595128363621
 30
0.0
 11
225.997232608944
 21
232.5595128363621
 31
0.0
  0
ARC
  5
5978
330
1A
100
AcDbEntity
  8
SEIHIN
100
AcDbCircle
 10
231.4909069842943
 20
222.0924234003454
 30
0.0
 40
1.700000000521832
100
AcDbArc
 50
279.0000000091556
 51
0.0000131443276943
  0
LINE
  5
5979
330
1A
100
AcDbEntity
  8
SEIHIN
100
AcDbLine
 10
230.1828748052944
 20
220.9883617203454
 30
0.0
 11
231.6058439922944
 21
220.9883617203454
 31
0.0
  0
LINE
  5
597A
330
1A
100
AcDbEntity
  8
SEIHIN
100
AcDbLine
 10
228.9545631482944
 20
219.7693718203454
 30
0.0
 11
228.9545631482944
 21
222.7693718203454
 31
0.0
  0
LINE
  5
597B
330
1A
100
AcDbEntity
  8
SEIHIN
100
AcDbLine
 10
231.7568455752943
 20
220.4133532203455
 30
0.0
 11
231.1128641672943
 21
219.7693718203454
 31
0.0
  0
LINE
  5
597C
330
1A
100
AcDbEntity
  8
SEIHIN
100
AcDbLine
 10
311.1764205392943
 20
188.3329150283459
 30
0.0
 11
314.1776457792943
 21
190.1336501683458
 31
0.0
  0
LINE
  5
597D
330
1A
100
AcDbEntity
  8
SEIHIN
100
AcDbLine
 10
314.1776456092944
 20
190.1336504483458
 30
0.0
 11
327.0167340092943
 21
168.7351697383459
 31
0.0
  0
LINE
  5
597E
330
1A
100
AcDbEntity
  8
SEIHIN
100
AcDbLine
 10
319.3226031492944
 20
193.2206250183459
 30
0.0
 11
332.1616916092943
 21
171.8221442683458
 31
0.0
  0
LINE
  5
597F
330
1A
100
AcDbEntity
  8
SEIHIN
100
AcDbLine
 10
331.9650389092943
 20
151.7415670513458
 30
0.0
 11
307.7391325992943
 21
192.1180776383458
 31
0.0
  0
LINE
  5
5980
330
1A
100
AcDbEntity
  8
SEIHIN
100
AcDbLine
 10
332.8225319092943
 20
152.2560628073458
 30
0.0
 11
308.5966255192944
 21
192.6325733883459
 31
0.0
  0
DIMENSION
  5
5981
330
1A
100
AcDbEntity
  8
SUNPOU
100
AcDbDimension
  2
*D13
 10
320.1390073452346
 20
226.8456626868204
 30
0.0
 11
300.8454165213157
 21
218.1849841358917
 31
0.0
 70
    33
  3
STANDARD
100
AcDbAlignedDimension
 13
304.6007084875331
 23
171.1095009489573
 33
0.0
 14
340.6154113575332
 24
192.7183226789573
 34
0.0
1001
ACAD
1000
DSTYLE
1002
{
1070
    41
1040
3.0
1070
    42
1040
3.0
1070
    43
1040
7.0
1070
    44
1040
1.5
1070
    73
1070
     0
1070
    74
1070
     0
1070
    77
1070
     3
1070
   140
1040
3.0
1070
   141
1040
3.0
1070
   147
1040
1.0
1070
   172
1070
     1
1070
   173
1070
     1
1070
   176
1070
   256
1070
   177
1070
   256
1070
   178
1070
   256
1070
   271
1070
     0
1070
   272
1070
     0
1070
   341
1005
B2
1070
     6
1000
OPEN
1070
     7
1000
OPEN
1002
}
  0
LINE
  5
5982
330
1A
100
AcDbEntity
  8
CENTER_L
100
AcDbLine
 10
302.8514229186829
 20
164.1123586765846
 30
0.0
 11
311.5978507599058
 21
169.360215380107
 31
0.0
  0
LINE
  5
5983
330
1A
100
AcDbEntity
  8
SEIHIN
100
AcDbLine
 10
315.9710646892944
 20
178.3981908183458
 30
0.0
 11
301.3936849492945
 21
169.6517629783459
 31
0.0
  0
LINE
  5
5984
330
1A
100
AcDbEntity
  8
CENTER_L
100
AcDbLine
 10
309.6684916763289
 20
165.5786715878587
 30
0.0
 11
316.0996886222598
 21
154.860010008833
 31
0.0
  0
CIRCLE
  5
5985
330
1A
100
AcDbEntity
  8
SEIHIN
100
AcDbCircle
 10
312.8840901492944
 20
160.2193407983459
 30
0.0
 40
3.250000004060681
  0
LINE
  5
5986
330
1A
100
AcDbEntity
  8
CENTER_L
100
AcDbLine
 10
307.5247593597816
 20
157.0037423253803
 30
0.0
 11
318.2434209388072
 21
163.4349392713114
 31
0.0
  0
CIRCLE
  5
5987
330
1A
100
AcDbEntity
  8
SEIHIN
100
AcDbCircle
 10
307.2246368392944
 20
166.7362870283458
 30
0.0
 40
2.09999999907906
  0
LINE
  5
5988
330
1A
100
AcDbEntity
  8
CENTER_L
100
AcDbLine
 10
304.6007084875331
 20
171.1095009489573
 30
0.0
 11
309.8485651910556
 21
162.3630731077344
 31
0.0
  0
DIMENSION
  5
5989
330
1A
100
AcDbEntity
  8
SUNPOU
100
AcDbDimension
  2
*D14
 10
291.0897980453611
 20
157.0553837542203
 30
0.0
 11
291.8186670327009
 21
160.699728688236
 31
0.0
 70
    33
  3
STANDARD
100
AcDbAlignedDimension
 13
299.6786990992614
 23
168.6227714687967
 33
0.0
 14
302.5084257534065
 24
163.9065603774662
 34
0.0
1001
ACAD
1000
DSTYLE
1002
{
1070
    41
1040
3.0
1070
    42
1040
3.0
1070
    43
1040
7.0
1070
    44
1040
1.5
1070
    73
1070
     0
1070
    74
1070
     0
1070
    77
1070
     3
1070
   140
1040
3.0
1070
   141
1040
3.0
1070
   147
1040
1.0
1070
   172
1070
     1
1070
   173
1070
     1
1070
   176
1070
   256
1070
   177
1070
   256
1070
   178
1070
   256
1070
   271
1070
     0
1070
   272
1070
     0
1070
   341
1005
B2
1070
     6
1000
OPEN
1070
     7
1000
OPEN
1002
}
  0
ARC
  5
598A
330
1A
100
AcDbEntity
  8
SEIHIN
100
AcDbCircle
 10
302.4226764592944
 20
167.9367771283459
 30
0.0
 40
1.999999998338071
100
AcDbArc
 50
120.9637565320724
 51
210.9637565320759
  0
INSERT
  5
598B
330
1A
100
AcDbEntity
  8
SUNPOU
100
AcDbBlockReference
  2
_OPEN
 10
305.387266602737
 20
167.4466779543026
 30
0.0
 41
2.999999999999992
 42
3.0
 43
3.0
 50
319.2548486777223
1001
ACAD
1000
DSTYLE
1002
{
1070
    41
1040
3.0
1070
    42
1040
3.0
1070
    43
1040
7.0
1070
    44
1040
1.5
1070
    73
1070
     0
1070
    74
1070
     0
1070
    77
1070
     0
1070
   140
1040
3.0
1070
   141
1040
3.0
1070
   147
1040
1.0
1070
   172
1070
     1
1070
   173
1070
     1
1070
   176
1070
   256
1070
   177
1070
   256
1070
   178
1070
   256
1070
   271
1070
     0
1070
   272
1070
     0
1070
   341
1005
B2
1070
   343
1005
B2
1070
   344
1005
B2
1002
}
  0
CIRCLE
  5
598C
330
1A
100
AcDbEntity
  8
SEIHIN
100
AcDbCircle
 10
331.6631852092943
 20
166.8220363283459
 30
0.0
 40
3.000000000763261
  0
LINE
  5
598D
330
1A
100
AcDbEntity
  8
SEIHIN
100
AcDbLine
 10
333.7211682092945
 20
177.9694443583458
 30
0.0
 11
342.4675961092943
 21
163.3920646183459
 31
0.0
  0
LINE
  5
598E
330
1A
100
AcDbEntity
  8
SEIHIN
100
AcDbLine
 10
320.1117999092943
 20
169.8038233583458
 30
0.0
 11
328.8582277092943
 21
155.2264436183459
 31
0.0
  0
ARC
  5
598F
330
1A
100
AcDbEntity
  8
SEIHIN
100
AcDbCircle
 10
331.6631852092943
 20
166.8220363283459
 30
0.0
 40
5.024896826847874
100
AcDbArc
 50
157.6210374072251
 51
84.30647540336028
  0
LINE
  5
5990
330
1A
100
AcDbEntity
  8
SEIHIN
100
AcDbLine
 10
320.8587743592945
 20
170.2520080283459
 30
0.0
 11
329.6052022092944
 21
155.6746282913459
 31
0.0
  0
CIRCLE
  5
5991
330
1A
100
AcDbEntity
  8
SEIHIN
100
AcDbCircle
 10
320.0870307292943
 20
145.2989638903459
 30
0.0
 40
2.100000000249221
  0
LINE
  5
5992
330
1A
100
AcDbEntity
  8
CENTER_L
100
AcDbLine
 10
315.7138168086829
 20
142.6750355385846
 30
0.0
 11
324.4602446499058
 21
147.9228922421071
 31
0.0
  0
LINE
  5
5993
330
1A
100
AcDbEntity
  8
SEIHIN
100
AcDbLine
 10
329.6052022092944
 20
155.6746282913459
 30
0.0
 11
331.1486895092943
 21
153.1021495143459
 31
0.0
  0
LINE
  5
5994
330
1A
100
AcDbEntity
  8
SEIHIN
100
AcDbLine
 10
326.6226376092944
 20
153.8850895403459
 30
0.0
 11
328.1661249092944
 21
151.3126107633459
 31
0.0
  0
ARC
  5
5995
330
1A
100
AcDbEntity
  8
SEIHIN
100
AcDbCircle
 10
334.5375177092943
 20
153.2850543173458
 30
0.0
 40
1.999999974757018
100
AcDbArc
 50
210.9637572690345
 51
300.9637562716816
  0
LINE
  5
5996
330
1A
100
AcDbEntity
  8
SEIHIN
100
AcDbLine
 10
330.4017150092945
 20
152.6539648413459
 30
0.0
 11
333.7459374092944
 21
147.0802608242459
 31
0.0
  0
LINE
  5
5997
330
1A
100
AcDbEntity
  8
SEIHIN
100
AcDbLine
 10
331.1486895092943
 20
153.1021495143459
 30
0.0
 11
334.4929119092943
 21
147.5284454967459
 31
0.0
  0
LINE
  5
5998
330
1A
100
AcDbEntity
  8
SEIHIN
100
AcDbLine
 10
328.1661249092944
 20
151.3126107633459
 30
0.0
 11
332.0061824092944
 21
153.6166452693459
 31
0.0
  0
LINE
  5
5999
330
1A
100
AcDbEntity
  8
SEIHIN
100
AcDbLine
 10
326.6226376092944
 20
153.8850895403459
 30
0.0
 11
329.6052022092944
 21
155.6746282913459
 31
0.0
  0
LINE
  5
599A
330
1A
100
AcDbEntity
  8
SEIHIN
100
AcDbLine
 10
315.9710646892944
 20
178.3981908183458
 30
0.0
 11
319.3152870992943
 21
172.8244868083459
 31
0.0
  0
LINE
  5
599B
330
1A
100
AcDbEntity
  8
SEIHIN
100
AcDbLine
 10
315.2240902292944
 20
177.9500061483458
 30
0.0
 11
318.5683126392943
 21
172.3763021283459
 31
0.0
  0
LINE
  5
599C
330
1A
100
AcDbEntity
  8
SEIHIN
100
AcDbLine
 10
320.8587743592945
 20
170.2520080283459
 30
0.0
 11
317.8762097792943
 21
168.4624692783459
 31
0.0
  0
LINE
  5
599D
330
1A
100
AcDbEntity
  8
SEIHIN
100
AcDbLine
 10
319.3152870992943
 20
172.8244868083459
 30
0.0
 11
316.3327225092943
 21
171.0349480583458
 31
0.0
  0
LINE
  5
599E
330
1A
100
AcDbEntity
  8
SEIHIN
100
AcDbLine
 10
316.3327225092943
 20
171.0349480583458
 30
0.0
 11
317.8762097792943
 21
168.4624692783459
 31
0.0
  0
LINE
  5
599F
330
1A
100
AcDbEntity
  8
SEIHIN
100
AcDbLine
 10
319.3152870992943
 20
172.8244868083459
 30
0.0
 11
320.8587743592945
 21
170.2520080283459
 31
0.0
  0
LINE
  5
59A0
330
1A
100
AcDbEntity
  8
SEIHIN
100
AcDbLine
 10
311.6202627339432
 20
187.5931780392098
 30
0.0
 11
310.7627698070743
 21
187.0786822832676
 31
0.0
  0
LINE
  5
59A1
330
1A
100
AcDbEntity
  8
SEIHIN
100
AcDbLine
 10
333.7211682092945
 20
177.9694443583458
 30
0.0
 11
336.7037328092944
 21
179.7589831083458
 31
0.0
  0
LINE
  5
59A2
330
1A
100
AcDbEntity
  8
SEIHIN
100
AcDbLine
 10
332.1776810092944
 20
180.5419231383459
 30
0.0
 11
335.1602456092943
 21
182.3314618883458
 31
0.0
  0
LINE
  5
59A3
330
1A
100
AcDbEntity
  8
SEIHIN
100
AcDbLine
 10
329.5804330092944
 20
186.5638118283459
 30
0.0
 11
332.9246554092944
 21
180.9901078083458
 31
0.0
  0
LINE
  5
59A4
330
1A
100
AcDbEntity
  8
SEIHIN
100
AcDbLine
 10
328.8334586092943
 20
186.1156271583458
 30
0.0
 11
332.1776810092944
 21
180.5419231383459
 31
0.0
  0
LINE
  5
59A5
330
1A
100
AcDbEntity
  8
SEIHIN
100
AcDbLine
 10
332.1776810092944
 20
180.5419231383459
 30
0.0
 11
333.7211682092945
 21
177.9694443583458
 31
0.0
  0
LINE
  5
59A6
330
1A
100
AcDbEntity
  8
SEIHIN
100
AcDbLine
 10
335.1602456092943
 20
182.3314618883458
 30
0.0
 11
336.7037328092944
 21
179.7589831083458
 31
0.0
  0
LINE
  5
59A7
330
1A
100
AcDbEntity
  8
SEIHIN
100
AcDbLine
 10
307.7391325992943
 20
192.1180776383458
 30
0.0
 11
308.5966255192944
 21
192.6325733883459
 31
0.0
  0
ARC
  5
59A8
330
1A
100
AcDbEntity
  8
SEIHIN
100
AcDbCircle
 10
316.7501245592944
 20
191.6771374383458
 30
0.0
 40
3.000000003509581
100
AcDbArc
 50
30.96376350863535
 51
210.9637503088462
  0
LINE
  5
59A9
330
1A
100
AcDbEntity
  8
SEIHIN
100
AcDbLine
 10
319.3226033392944
 20
193.2206247083458
 30
0.0
 11
322.3238285792944
 21
195.0213598483459
 31
0.0
  0
LINE
  5
59AA
330
1A
100
AcDbEntity
  8
SEIHIN
100
AcDbLine
 10
319.7440335592943
 20
199.3210182083458
 30
0.0
 11
320.6015264792944
 21
199.8355139683459
 31
0.0
  0
LINE
  5
59AB
330
1A
100
AcDbEntity
  8
SEIHIN
100
AcDbLine
 10
323.6251636908122
 20
194.7961186108237
 30
0.0
 11
322.7676707695897
 21
194.2816228582694
 31
0.0
  0
LINE
  5
59AC
330
1A
100
AcDbEntity
  8
SEIHIN
100
AcDbLine
 10
232.1619154737027
 20
238.7693718203454
 30
0.0
 11
214.6690597949645
 21
238.7693718203454
 31
0.0
  0
LINE
  5
59AD
330
1A
100
AcDbEntity
  8
SEIHIN
100
AcDbLine
 10
346.1548157092944
 20
194.1760606583459
 30
0.0
 11
362.6186798092944
 21
166.7362870283458
 31
0.0
  0
DIMENSION
  5
59AE
330
1A
100
AcDbEntity
  8
SUNPOU
100
AcDbDimension
  2
*D15
 10
363.9781401604936
 20
190.8757707951197
 30
0.0
 11
362.5204022069539
 21
198.1644606584944
 31
0.0
 70
    33
  3
STANDARD
100
AcDbAlignedDimension
 13
345.1258241912526
 23
195.8910465298738
 33
0.0
 14
352.3287647322715
 24
183.8861455713008
 34
0.0
1001
ACAD
1000
DSTYLE
1002
{
1070
    41
1040
3.0
1070
    42
1040
3.0
1070
    43
1040
7.0
1070
    44
1040
1.5
1070
    73
1070
     0
1070
    74
1070
     0
1070
    77
1070
     3
1070
   140
1040
3.0
1070
   141
1040
3.0
1070
   147
1040
1.0
1070
   172
1070
     1
1070
   173
1070
     1
1070
   176
1070
   256
1070
   177
1070
   256
1070
   178
1070
   256
1070
   271
1070
     0
1070
   272
1070
     0
1070
   341
1005
B2
1070
     6
1000
OPEN
1070
     7
1000
OPEN
1002
}
  0
LWPOLYLINE
  5
59AF
330
1A
100
AcDbEntity
  8
SUNPOU
100
AcDbPolyline
 90
        3
 70
     0
 43
0.0
 10
348.5500527114074
 20
186.1194873365461
 10
359.6605879749949
 20
219.7276190231537
 10
375.5100378154992
 20
219.7276190231537
1001
ACAD
1000
DSTYLE
1002
{
1070
    41
1040
3.0
1070
    42
1040
3.0
1070
    43
1040
7.0
1070
    44
1040
1.5
1070
    73
1070
     0
1070
    74
1070
     0
1070
    77
1070
     0
1070
   140
1040
3.0
1070
   141
1040
3.0
1070
   147
1040
1.0
1070
   172
1070
     1
1070
   173
1070
     1
1070
   176
1070
   256
1070
   177
1070
   256
1070
   178
1070
   256
1070
   271
1070
     0
1070
   272
1070
     0
1070
   341
1005
B2
1070
   343
1005
B2
1070
   344
1005
B2
1002
}
  0
ARC
  5
59B0
330
1A
100
AcDbEntity
  8
SEIHIN
100
AcDbCircle
 10
360.9036940092944
 20
165.7072955183459
 30
0.0
 40
1.999999974328267
100
AcDbArc
 50
300.9637562864189
 51
30.9637572690345
  0
CIRCLE
  5
59B1
330
1A
100
AcDbEntity
  8
SEIHIN
100
AcDbCircle
 10
356.1017336092944
 20
166.9077856183458
 30
0.0
 40
2.099999993088218
  0
LINE
  5
59B2
330
1A
100
AcDbEntity
  8
CENTER_L
100
AcDbLine
 10
353.4778052575331
 20
171.2809995389573
 30
0.0
 11
358.7256619610556
 21
162.5345716977344
 31
0.0
  0
LINE
  5
59B3
330
1A
100
AcDbEntity
  8
CENTER_L
100
AcDbLine
 10
351.7285196886829
 20
164.2838572665846
 30
0.0
 11
360.4749475299058
 21
169.531713970107
 31
0.0
  0
LINE
  5
59B4
330
1A
100
AcDbEntity
  8
SEIHIN
100
AcDbLine
 10
344.0110833092944
 20
160.8195858483459
 30
0.0
 11
347.3553058092944
 21
155.2458818283458
 31
0.0
  0
LINE
  5
59B5
330
1A
100
AcDbEntity
  8
SEIHIN
100
AcDbLine
 10
344.7580578092944
 20
161.2677705183459
 30
0.0
 11
348.1022802092944
 21
155.6940665003459
 31
0.0
  0
ARC
  5
59B6
330
1A
100
AcDbEntity
  8
SEIHIN
100
AcDbCircle
 10
342.2549540092944
 20
157.9155161183458
 30
0.0
 40
2.000000044213948
100
AcDbArc
 50
300.9637586987388
 51
30.96375579511198
  0
LINE
  5
59B7
330
1A
100
AcDbEntity
  8
SEIHIN
100
AcDbLine
 10
345.4501607092944
 20
165.1816033683459
 30
0.0
 11
346.9936479092943
 21
162.6091245983458
 31
0.0
  0
LINE
  5
59B8
330
1A
100
AcDbEntity
  8
SEIHIN
100
AcDbLine
 10
346.9936479092943
 20
162.6091245983458
 30
0.0
 11
343.1535904092943
 21
160.3050900883458
 31
0.0
  0
LINE
  5
59B9
330
1A
100
AcDbEntity
  8
CENTER_L
100
AcDbLine
 10
343.1107157363289
 20
185.6440060478587
 30
0.0
 11
349.5419126822599
 21
174.925344468833
 31
0.0
  0
CIRCLE
  5
59BA
330
1A
100
AcDbEntity
  8
SEIHIN
100
AcDbCircle
 10
346.3263142092943
 20
180.2846752583458
 30
0.0
 40
3.249999974956403
  0
INSERT
  5
59BB
330
1A
100
AcDbEntity
  8
SUNPOU
100
AcDbBlockReference
  2
_OPEN
 10
347.6084032153193
 20
183.2711024913194
 30
0.0
 41
2.999999999999981
 42
3.0
 43
3.0
 50
251.7065953267104
1001
ACAD
1000
DSTYLE
1002
{
1070
    41
1040
3.0
1070
    42
1040
3.0
1070
    43
1040
7.0
1070
    44
1040
1.5
1070
    73
1070
     0
1070
    74
1070
     0
1070
    77
1070
     0
1070
   140
1040
3.0
1070
   141
1040
3.0
1070
   147
1040
1.0
1070
   172
1070
     1
1070
   173
1070
     1
1070
   176
1070
   256
1070
   177
1070
   256
1070
   178
1070
   256
1070
   271
1070
     0
1070
   272
1070
     0
1070
   341
1005
B2
1070
   343
1005
B2
1070
   344
1005
B2
1002
}
  0
ARC
  5
59BC
330
1A
100
AcDbEntity
  8
SEIHIN
100
AcDbCircle
 10
344.4398298092944
 20
193.1470691483459
 30
0.0
 40
2.00000001720292
100
AcDbArc
 50
30.96375579511198
 51
120.9637562864194
  0
TEXT
  5
59BD
330
1A
100
AcDbEntity
  8
SUNPOU
100
AcDbText
 10
360.0001931888209
 20
221.0319659357743
 30
0.0
 40
3.0
  1
2-φ6.5
100
AcDbText
  0
VIEWPORT
  5
22
330
17
100
AcDbEntity
 67
     1
  8
0
100
AcDbViewport
 10
313.6808219178082
 20
148.5
 30
0.0
 40
627.3616438356165
 41
297.0
 68
     2
 69
     1
1001
ACAD
1000
MVIEW
1002
{
1070
    16
1010
0.0
1020
0.0
1030
0.0
1010
0.0
1020
0.0
1030
1.0
1040
0.0
1040
297.0
1040
313.6808219178082
1040
148.5
1040
50.0
1040
0.0
1040
0.0
1070
     0
1070
   100
1070
     1
1070
     0
1070
     0
1070
     0
1070
     0
1070
     0
1040
0.0
1040
0.0
1040
0.0
1040
1.0
1040
1.0
1040
10.0
1040
10.0
1070
     0
1002
{
1002
}
1002
}
  0
VIEWPORT
  5
64
330
17
100
AcDbEntity
 67
     1
  8
VIEWPORT
100
AcDbViewport
 10
210.0
 20
148.5
 30
0.0
 40
420.0
 41
297.0
 68
     1
 69
     2
1001
ACAD
1000
MVIEW
1002
{
1070
    16
1010
0.0
1020
0.0
1030
0.0
1010
0.0
1020
0.0
1030
1.0
1040
0.0
1040
302.9399999999998
1040
210.0
1040
148.5
1040
50.0
1040
0.0
1040
0.0
1070
     0
1070
   100
1070
     1
1070
     0
1070
     0
1070
     0
1070
     0
1070
     0
1040
0.0
1040
0.0
1040
0.0
1040
5.0
1040
5.0
1040
0.0
1040
0.0
1070
     0
1002
{
1002
}
1002
}
  0
ENDSEC
  0
SECTION
  2
OBJECTS
  0
DICTIONARY
  5
C
330
0
100
AcDbDictionary
  3
ACAD_GROUP
350
D
  3
ACAD_LAYOUT
350
141
  3
ACAD_MLINESTYLE
350
E
  3
ACAD_PLOTSETTINGS
350
142
  3
ACAD_PLOTSTYLENAME
350
13F
  3
ACADDIM
350
1A14
  3
ACDBVARIABLEDICTIONARY
350
120D
  3
ACDBHEADERROUNDTRIPXREC
350
5B0C
  0
DICTIONARY
  5
7A2
330
1A
100
AcDbDictionary
280
     1
  3
ACAD_LAYOUTSELFREF
360
5B2E
  0
DICTIONARY
  5
7A0
330
17
100
AcDbDictionary
280
     1
  3
ACAD_LAYOUTSELFREF
360
5B2D
  0
DICTIONARY
  5
D
102
{ACAD_REACTORS
330
C
102
}
330
C
100
AcDbDictionary
  0
DICTIONARY
  5
141
102
{ACAD_REACTORS
330
C
102
}
330
C
100
AcDbDictionary
  0
DICTIONARY
  5
E
102
{ACAD_REACTORS
330
C
102
}
330
C
100
AcDbDictionary
  3
STANDARD
350
13
  0
DICTIONARY
  5
142
102
{ACAD_REACTORS
330
C
102
}
330
C
100
AcDbDictionary
  0
ACDBDICTIONARYWDFLT
  5
13F
102
{ACAD_REACTORS
330
C
102
}
330
C
100
AcDbDictionary
281
     1
  3
Normal
350
140
100
AcDbDictionaryWithDefault
340
140
1001
ACAD
1000
TREAT_AS_HARD
1070
     0
1000
TREAT_AS_HARD
1070
     0
1000
TREAT_AS_HARD
1070
     0
1000
TREAT_AS_HARD
1070
     0
1000
TREAT_AS_HARD
1070
     0
1000
TREAT_AS_HARD
1070
     0
1000
TREAT_AS_HARD
1070
     0
1000
TREAT_AS_HARD
1070
     0
1000
TREAT_AS_HARD
1070
     0
1000
TREAT_AS_HARD
1070
     0
1000
TREAT_AS_HARD
1070
     0
  0
XRECORD
  5
1A14
102
{ACAD_REACTORS
330
C
102
}
330
C
100
AcDbXrecord
 90
   990106
  3

 60
     0
 61
     0
 62
     1
 63
     3
 64
     0
 65
     0
 66
     0
 67
     3
 68
     1
 69
     0
 70
     0
 71
     0
 72
     0
 40
0.0
170
     0
340
0
  0
DICTIONARY
  5
120D
102
{ACAD_REACTORS
330
C
102
}
330
C
100
AcDbDictionary
  3
SORTENTS
350
120E
  0
DICTIONARY
  5
5B0C
102
{ACAD_REACTORS
330
C
102
}
330
C
100
AcDbDictionary
  3
TSTACKALIGN
350
5B0D
  3
TSTACKSIZE
350
5B0E
  3
HYPERLINKBASE
350
5B0F
  3
STYLESHEET
350
5B10
  3
LAYOUTDICT
350
5B11
  3
PLOTSETDICT
350
5B12
  3
PLOTSTYLNAMDICT
350
5B13
  3
LWETCUNION
350
5B14
  3
INSUNITS
350
5B15
  3
CEPSNTYPE
350
5B16
  3
FINGERPRINTGUID
350
5B17
  3
VERSIONGUID
350
5B18
  3
PSVPSCALE
350
5B19
  3
DIMSTYLEDATA
350
5B1A
  3
PUCSORTHOREF
350
5B1B
  3
PUCSORTHOVIEW
350
5B1C
  3
PUCSBASE
350
5B1D
  3
PUCSORGTOP
350
5B1E
  3
PUCSORGBOTTOM
350
5B1F
  3
PUCSORGLEFT
350
5B20
  3
PUCSORGRIGHT
350
5B21
  3
PUCSORGFRONT
350
5B22
  3
PUCSORGBACK
350
5B23
  3
UCSORTHOREF
350
5B24
  3
UCSORTHOVIEW
350
5B25
  3
UCSBASE
350
5B26
  3
UCSORGTOP
350
5B27
  3
UCSORGBOTTOM
350
5B28
  3
UCSORGLEFT
350
5B29
  3
UCSORGRIGHT
350
5B2A
  3
UCSORGFRONT
350
5B2B
  3
UCSORGBACK
350
5B2C
  0
XRECORD
  5
5B2E
102
{ACAD_REACTORS
330
7A2
102
}
330
7A2
100
AcDbXrecord
340
1A
  0
XRECORD
  5
5B2D
102
{ACAD_REACTORS
330
7A0
102
}
330
7A0
100
AcDbXrecord
340
17
  0
MLINESTYLE
  5
13
102
{ACAD_REACTORS
330
E
102
}
330
E
100
AcDbMlineStyle
  2
STANDARD
 70
     0
  3

 62
     0
 51
90.0
 52
90.0
 71
     2
 49
0.5
 62
   256
  6
BYLAYER
 49
-0.5
 62
   256
  6
BYLAYER
  0
ACDBPLACEHOLDER
  5
140
102
{ACAD_REACTORS
330
13F
102
}
330
13F
100
AcDbPlaceHolder
280
     0
  0
DICTIONARYVAR
  5
120E
102
{ACAD_REACTORS
330
120D
102
}
330
120D
100
DictionaryVariables
280
     0
  1
96
  0
XRECORD
  5
5B0D
102
{ACAD_REACTORS
330
5B0C
102
}
330
5B0C
100
AcDbXrecord
 90
        1
  0
XRECORD
  5
5B0E
102
{ACAD_REACTORS
330
5B0C
102
}
330
5B0C
100
AcDbXrecord
 90
       70
  0
XRECORD
  5
5B0F
102
{ACAD_REACTORS
330
5B0C
102
}
330
5B0C
100
AcDbXrecord
  1

  0
XRECORD
  5
5B10
102
{ACAD_REACTORS
330
5B0C
102
}
330
5B0C
100
AcDbXrecord
  1
systemprinter.ctb
  0
XRECORD
  5
5B11
102
{ACAD_REACTORS
330
5B0C
102
}
330
5B0C
100
AcDbXrecord
340
141
  0
XRECORD
  5
5B12
102
{ACAD_REACTORS
330
5B0C
102
}
330
5B0C
100
AcDbXrecord
340
142
  0
XRECORD
  5
5B13
102
{ACAD_REACTORS
330
5B0C
102
}
330
5B0C
100
AcDbXrecord
340
13F
  0
XRECORD
  5
5B14
102
{ACAD_REACTORS
330
5B0C
102
}
330
5B0C
100
AcDbXrecord
 90
    10781
  0
XRECORD
  5
5B15
102
{ACAD_REACTORS
330
5B0C
102
}
330
5B0C
100
AcDbXrecord
 90
        0
  0
XRECORD
  5
5B16
102
{ACAD_REACTORS
330
5B0C
102
}
330
5B0C
100
AcDbXrecord
 90
        0
  0
XRECORD
  5
5B17
102
{ACAD_REACTORS
330
5B0C
102
}
330
5B0C
100
AcDbXrecord
  1
{4E8D0500-CDD1-11D3-932C-444553540000}
  0
XRECORD
  5
5B18
102
{ACAD_REACTORS
330
5B0C
102
}
330
5B0C
100
AcDbXrecord
  1
{56040B20-6693-4B07-AA5D-624691090119}
  0
XRECORD
  5
5B19
102
{ACAD_REACTORS
330
5B0C
102
}
330
5B0C
100
AcDbXrecord
 40
0.0
  0
XRECORD
  5
5B1A
102
{ACAD_REACTORS
330
5B0C
102
}
330
5B0C
100
AcDbXrecord
1000
DSTYLE
1002
{
1070
   341
340
B2
1070
   343
340
B2
1070
   344
340
B2
1070
   371
 70
    -1
1070
   372
 70
    -1
1002
}
  0
XRECORD
  5
5B1B
102
{ACAD_REACTORS
330
5B0C
102
}
330
5B0C
100
AcDbXrecord
340
0
  0
XRECORD
  5
5B1C
102
{ACAD_REACTORS
330
5B0C
102
}
330
5B0C
100
AcDbXrecord
 70
     0
  0
XRECORD
  5
5B1D
102
{ACAD_REACTORS
330
5B0C
102
}
330
5B0C
100
AcDbXrecord
340
0
  0
XRECORD
  5
5B1E
102
{ACAD_REACTORS
330
5B0C
102
}
330
5B0C
100
AcDbXrecord
 10
0.0
 20
0.0
 30
0.0
  0
XRECORD
  5
5B1F
102
{ACAD_REACTORS
330
5B0C
102
}
330
5B0C
100
AcDbXrecord
 10
0.0
 20
0.0
 30
0.0
  0
XRECORD
  5
5B20
102
{ACAD_REACTORS
330
5B0C
102
}
330
5B0C
100
AcDbXrecord
 10
0.0
 20
0.0
 30
0.0
  0
XRECORD
  5
5B21
102
{ACAD_REACTORS
330
5B0C
102
}
330
5B0C
100
AcDbXrecord
 10
0.0
 20
0.0
 30
0.0
  0
XRECORD
  5
5B22
102
{ACAD_REACTORS
330
5B0C
102
}
330
5B0C
100
AcDbXrecord
 10
0.0
 20
0.0
 30
0.0
  0
XRECORD
  5
5B23
102
{ACAD_REACTORS
330
5B0C
102
}
330
5B0C
100
AcDbXrecord
 10
0.0
 20
0.0
 30
0.0
  0
XRECORD
  5
5B24
102
{ACAD_REACTORS
330
5B0C
102
}
330
5B0C
100
AcDbXrecord
340
0
  0
XRECORD
  5
5B25
102
{ACAD_REACTORS
330
5B0C
102
}
330
5B0C
100
AcDbXrecord
 70
     0
  0
XRECORD
  5
5B26
102
{ACAD_REACTORS
330
5B0C
102
}
330
5B0C
100
AcDbXrecord
340
0
  0
XRECORD
  5
5B27
102
{ACAD_REACTORS
330
5B0C
102
}
330
5B0C
100
AcDbXrecord
 10
0.0
 20
0.0
 30
0.0
  0
XRECORD
  5
5B28
102
{ACAD_REACTORS
330
5B0C
102
}
330
5B0C
100
AcDbXrecord
 10
0.0
 20
0.0
 30
0.0
  0
XRECORD
  5
5B29
102
{ACAD_REACTORS
330
5B0C
102
}
330
5B0C
100
AcDbXrecord
 10
0.0
 20
0.0
 30
0.0
  0
XRECORD
  5
5B2A
102
{ACAD_REACTORS
330
5B0C
102
}
330
5B0C
100
AcDbXrecord
 10
0.0
 20
0.0
 30
0.0
  0
XRECORD
  5
5B2B
102
{ACAD_REACTORS
330
5B0C
102
}
330
5B0C
100
AcDbXrecord
 10
0.0
 20
0.0
 30
0.0
  0
XRECORD
  5
5B2C
102
{ACAD_REACTORS
330
5B0C
102
}
330
5B0C
100
AcDbXrecord
 10
0.0
 20
0.0
 30
0.0
  0
ENDSEC
  0
EOF
