  0
SECTION
  2
HEADER
  9
$ACADVER
  1
AC1014
  9
$ACADMAINTVER
 70
     9
  9
$DWGCODEPAGE
  3
ANSI_932
  9
$INSBASE
 10
0.0
 20
0.0
 30
0.0
  9
$EXTMIN
 10
-0.0128165200105741
 20
-0.0090630292066862
 30
-0.0015258207003583
  9
$EXTMAX
 10
398.8000497755253
 20
275.8226172440017
 30
0.0000000349246037
  9
$LIMMIN
 10
0.0
 20
0.0
  9
$LIMMAX
 10
420.0
 20
297.0
  9
$ORTHOMODE
 70
     0
  9
$REGENMODE
 70
     1
  9
$FILLMODE
 70
     1
  9
$QTEXTMODE
 70
     0
  9
$MIRRTEXT
 70
     1
  9
$DRAGMODE
 70
     2
  9
$LTSCALE
 40
5.0
  9
$OSMODE
 70
    35
  9
$ATTMODE
 70
     1
  9
$TEXTSIZE
 40
3.0
  9
$TRACEWID
 40
1.0
  9
$TEXTSTYLE
  7
STANDARD
  9
$CLAYER
  8
SUNPOU
  9
$CELTYPE
  6
BYLAYER
  9
$CECOLOR
 62
   256
  9
$CELTSCALE
 40
1.0
  9
$DELOBJ
 70
     1
  9
$DISPSILH
 70
     0
  9
$DIMSCALE
 40
1.0
  9
$DIMASZ
 40
3.0
  9
$DIMEXO
 40
3.0
  9
$DIMDLI
 40
7.0
  9
$DIMRND
 40
0.0
  9
$DIMDLE
 40
0.0
  9
$DIMEXE
 40
1.5
  9
$DIMTP
 40
0.0
  9
$DIMTM
 40
0.0
  9
$DIMTXT
 40
3.0
  9
$DIMCEN
 40
3.0
  9
$DIMTSZ
 40
0.0
  9
$DIMTOL
 70
     0
  9
$DIMLIM
 70
     0
  9
$DIMTIH
 70
     0
  9
$DIMTOH
 70
     0
  9
$DIMSE1
 70
     0
  9
$DIMSE2
 70
     0
  9
$DIMTAD
 70
     3
  9
$DIMZIN
 70
     0
  9
$DIMBLK
  1

  9
$DIMASO
 70
     1
  9
$DIMSHO
 70
     1
  9
$DIMPOST
  1

  9
$DIMAPOST
  1

  9
$DIMALT
 70
     0
  9
$DIMALTD
 70
     2
  9
$DIMALTF
 40
25.4
  9
$DIMLFAC
 40
1.0
  9
$DIMTOFL
 70
     1
  9
$DIMTVP
 40
0.0
  9
$DIMTIX
 70
     0
  9
$DIMSOXD
 70
     0
  9
$DIMSAH
 70
     1
  9
$DIMBLK1
  1
OPEN
  9
$DIMBLK2
  1
OPEN
  9
$DIMSTYLE
  2
STANDARD
  9
$DIMCLRD
 70
   256
  9
$DIMCLRE
 70
   256
  9
$DIMCLRT
 70
   256
  9
$DIMTFAC
 40
1.0
  9
$DIMGAP
 40
1.0
  9
$DIMJUST
 70
     0
  9
$DIMSD1
 70
     0
  9
$DIMSD2
 70
     0
  9
$DIMTOLJ
 70
     1
  9
$DIMTZIN
 70
     0
  9
$DIMALTZ
 70
     0
  9
$DIMALTTZ
 70
     0
  9
$DIMFIT
 70
     3
  9
$DIMUPT
 70
     0
  9
$DIMUNIT
 70
     2
  9
$DIMDEC
 70
     0
  9
$DIMTDEC
 70
     0
  9
$DIMALTU
 70
     2
  9
$DIMALTTD
 70
     2
  9
$DIMTXSTY
  7
STANDARD
  9
$DIMAUNIT
 70
     0
  9
$LUNITS
 70
     2
  9
$LUPREC
 70
     4
  9
$SKETCHINC
 40
1.0
  9
$FILLETRAD
 40
0.25
  9
$AUNITS
 70
     0
  9
$AUPREC
 70
     0
  9
$MENU
  1
.
  9
$ELEVATION
 40
0.0
  9
$PELEVATION
 40
0.0
  9
$THICKNESS
 40
0.0
  9
$LIMCHECK
 70
     0
  9
$BLIPMODE
 70
     0
  9
$CHAMFERA
 40
10.0
  9
$CHAMFERB
 40
10.0
  9
$CHAMFERC
 40
20.0
  9
$CHAMFERD
 40
0.0
  9
$SKPOLY
 70
     0
  9
$TDCREATE
 40
2451589.469382176
  9
$TDUPDATE
 40
2453802.496925995
  9
$TDINDWG
 40
0.4420537731
  9
$TDUSRTIMER
 40
0.4420537731
  9
$USRTIMER
 70
     1
  9
$ANGBASE
 50
0.0
  9
$ANGDIR
 70
     0
  9
$PDMODE
 70
     0
  9
$PDSIZE
 40
0.0
  9
$PLINEWID
 40
0.0
  9
$COORDS
 70
     1
  9
$SPLFRAME
 70
     0
  9
$SPLINETYPE
 70
     6
  9
$SPLINESEGS
 70
     8
  9
$ATTDIA
 70
     0
  9
$ATTREQ
 70
     1
  9
$HANDLING
 70
 10241
  9
$HANDSEED
  5
3041
  9
$SURFTAB1
 70
     6
  9
$SURFTAB2
 70
     6
  9
$SURFTYPE
 70
     6
  9
$SURFU
 70
     6
  9
$SURFV
 70
     6
  9
$UCSNAME
  2

  9
$UCSORG
 10
0.0
 20
0.0
 30
0.0
  9
$UCSXDIR
 10
1.0
 20
0.0
 30
0.0
  9
$UCSYDIR
 10
0.0
 20
1.0
 30
0.0
  9
$PUCSNAME
  2

  9
$PUCSORG
 10
0.0
 20
0.0
 30
0.0
  9
$PUCSXDIR
 10
1.0
 20
0.0
 30
0.0
  9
$PUCSYDIR
 10
0.0
 20
1.0
 30
0.0
  9
$USERI1
 70
     0
  9
$USERI2
 70
     0
  9
$USERI3
 70
     0
  9
$USERI4
 70
     0
  9
$USERI5
 70
     0
  9
$USERR1
 40
0.0
  9
$USERR2
 40
0.0
  9
$USERR3
 40
0.0
  9
$USERR4
 40
0.0
  9
$USERR5
 40
0.0
  9
$WORLDVIEW
 70
     1
  9
$SHADEDGE
 70
     3
  9
$SHADEDIF
 70
    70
  9
$TILEMODE
 70
     1
  9
$MAXACTVP
 70
    16
  9
$PINSBASE
 10
0.0
 20
0.0
 30
0.0
  9
$PLIMCHECK
 70
     0
  9
$PEXTMIN
 10
0.0
 20
0.0
 30
0.0
  9
$PEXTMAX
 10
420.0
 20
297.0
 30
0.0
  9
$PLIMMIN
 10
0.0
 20
0.0
  9
$PLIMMAX
 10
420.0
 20
297.0
  9
$UNITMODE
 70
     0
  9
$VISRETAIN
 70
     0
  9
$PLINEGEN
 70
     0
  9
$PSLTSCALE
 70
     1
  9
$TREEDEPTH
 70
  3020
  9
$PICKSTYLE
 70
     1
  9
$CMLSTYLE
  2
STANDARD
  9
$CMLJUST
 70
     0
  9
$CMLSCALE
 40
1.0
  9
$PROXYGRAPHICS
 70
     1
  9
$MEASUREMENT
 70
     0
  0
ENDSEC
  0
SECTION
  2
CLASSES
  0
CLASS
  1
ACDBDICTIONARYWDFLT
  2
AcDbDictionaryWithDefault
  3
AutoCAD 2000
 90
        0
280
     0
281
     0
  0
CLASS
  1
ACDBPLACEHOLDER
  2
AcDbPlaceHolder
  3
AutoCAD 2000
 90
        0
280
     0
281
     0
  0
CLASS
  1
LAYOUT
  2
AcDbLayout
  3
AutoCAD 2000
 90
        0
280
     0
281
     0
  0
CLASS
  1
LONG_TRANSACTION
  2
AcDbLongTransaction
  3
AutoCAD 2000
 90
        0
280
     0
281
     0
  0
CLASS
  1
LWPOLYLINE
  2
AcDbPolyline
  3
AutoCAD 2000
 90
        0
280
     0
281
     1
  0
CLASS
  1
HATCH
  2
AcDbHatch
  3
AutoCAD 2000
 90
        0
280
     0
281
     1
  0
CLASS
  1
XRECORD
  2
AcDbXrecord
  3
AutoCAD 2000
 90
        0
280
     0
281
     0
  0
CLASS
  1
LONG_TRANSACTION
  2
AcDbLongTransaction
  3
AutoCAD 2000
 90
        0
280
     0
281
     0
  0
CLASS
  1
LWPOLYLINE
  2
AcDbPolyline
  3
AutoCAD 2000
 90
        0
280
     0
281
     1
  0
CLASS
  1
HATCH
  2
AcDbHatch
  3
AutoCAD 2000
 90
        0
280
     0
281
     1
  0
CLASS
  1
XRECORD
  2
AcDbXrecord
  3
AutoCAD 2000
 90
        0
280
     0
281
     0
  0
CLASS
  1
DICTIONARYVAR
  2
AcDbDictionaryVar
  3
AutoCAD 2000
 90
        0
280
     0
281
     0
  0
CLASS
  1
LONG_TRANSACTION
  2
AcDbLongTransaction
  3
AutoCAD 2000
 90
        0
280
     0
281
     0
  0
CLASS
  1
LWPOLYLINE
  2
AcDbPolyline
  3
AutoCAD 2000
 90
        0
280
     0
281
     1
  0
CLASS
  1
HATCH
  2
AcDbHatch
  3
AutoCAD 2000
 90
        0
280
     0
281
     1
  0
CLASS
  1
XRECORD
  2
AcDbXrecord
  3
AutoCAD 2000
 90
        0
280
     0
281
     0
  0
CLASS
  1
LONG_TRANSACTION
  2
AcDbLongTransaction
  3
AutoCAD 2000
 90
        0
280
     0
281
     0
  0
CLASS
  1
LWPOLYLINE
  2
AcDbPolyline
  3
AutoCAD 2000
 90
        0
280
     0
281
     1
  0
CLASS
  1
HATCH
  2
AcDbHatch
  3
AutoCAD 2000
 90
        0
280
     0
281
     1
  0
CLASS
  1
XRECORD
  2
AcDbXrecord
  3
AutoCAD 2000
 90
        0
280
     0
281
     0
  0
CLASS
  1
LONG_TRANSACTION
  2
AcDbLongTransaction
  3
AutoCAD 2000
 90
        0
280
     0
281
     0
  0
CLASS
  1
LWPOLYLINE
  2
AcDbPolyline
  3
AutoCAD 2000
 90
        0
280
     0
281
     1
  0
CLASS
  1
HATCH
  2
AcDbHatch
  3
AutoCAD 2000
 90
        0
280
     0
281
     1
  0
CLASS
  1
XRECORD
  2
AcDbXrecord
  3
AutoCAD 2000
 90
        0
280
     0
281
     0
  0
CLASS
  1
LONG_TRANSACTION
  2
AcDbLongTransaction
  3
AutoCAD 2000
 90
        0
280
     0
281
     0
  0
CLASS
  1
LWPOLYLINE
  2
AcDbPolyline
  3
AutoCAD 2000
 90
        0
280
     0
281
     1
  0
CLASS
  1
HATCH
  2
AcDbHatch
  3
AutoCAD 2000
 90
        0
280
     0
281
     1
  0
CLASS
  1
XRECORD
  2
AcDbXrecord
  3
AutoCAD 2000
 90
        0
280
     0
281
     0
  0
CLASS
  1
LONG_TRANSACTION
  2
AcDbLongTransaction
  3
AutoCAD 2000
 90
        0
280
     0
281
     0
  0
CLASS
  1
LWPOLYLINE
  2
AcDbPolyline
  3
AutoCAD 2000
 90
        0
280
     0
281
     1
  0
CLASS
  1
HATCH
  2
AcDbHatch
  3
AutoCAD 2000
 90
        0
280
     0
281
     1
  0
CLASS
  1
XRECORD
  2
AcDbXrecord
  3
AutoCAD 2000
 90
        0
280
     0
281
     0
  0
CLASS
  1
LONG_TRANSACTION
  2
AcDbLongTransaction
  3
AutoCAD 2000
 90
        0
280
     0
281
     0
  0
CLASS
  1
LWPOLYLINE
  2
AcDbPolyline
  3
AutoCAD 2000
 90
        0
280
     0
281
     1
  0
CLASS
  1
HATCH
  2
AcDbHatch
  3
AutoCAD 2000
 90
        0
280
     0
281
     1
  0
CLASS
  1
XRECORD
  2
AcDbXrecord
  3
AutoCAD 2000
 90
        0
280
     0
281
     0
  0
CLASS
  1
LONG_TRANSACTION
  2
AcDbLongTransaction
  3
AutoCAD 2000
 90
        0
280
     0
281
     0
  0
CLASS
  1
LWPOLYLINE
  2
AcDbPolyline
  3
AutoCAD 2000
 90
        0
280
     0
281
     1
  0
CLASS
  1
HATCH
  2
AcDbHatch
  3
AutoCAD 2000
 90
        0
280
     0
281
     1
  0
CLASS
  1
XRECORD
  2
AcDbXrecord
  3
AutoCAD 2000
 90
        0
280
     0
281
     0
  0
CLASS
  1
LONG_TRANSACTION
  2
AcDbLongTransaction
  3
AutoCAD 2000
 90
        0
280
     0
281
     0
  0
CLASS
  1
LWPOLYLINE
  2
AcDbPolyline
  3
AutoCAD 2000
 90
        0
280
     0
281
     1
  0
CLASS
  1
HATCH
  2
AcDbHatch
  3
AutoCAD 2000
 90
        0
280
     0
281
     1
  0
CLASS
  1
XRECORD
  2
AcDbXrecord
  3
AutoCAD 2000
 90
        0
280
     0
281
     0
  0
CLASS
  1
LONG_TRANSACTION
  2
AcDbLongTransaction
  3
AutoCAD 2000
 90
        0
280
     0
281
     0
  0
CLASS
  1
LWPOLYLINE
  2
AcDbPolyline
  3
AutoCAD 2000
 90
        0
280
     0
281
     1
  0
CLASS
  1
HATCH
  2
AcDbHatch
  3
AutoCAD 2000
 90
        0
280
     0
281
     1
  0
CLASS
  1
XRECORD
  2
AcDbXrecord
  3
AutoCAD 2000
 90
        0
280
     0
281
     0
  0
CLASS
  1
LONG_TRANSACTION
  2
AcDbLongTransaction
  3
AutoCAD 2000
 90
        0
280
     0
281
     0
  0
CLASS
  1
LWPOLYLINE
  2
AcDbPolyline
  3
AutoCAD 2000
 90
        0
280
     0
281
     1
  0
CLASS
  1
HATCH
  2
AcDbHatch
  3
AutoCAD 2000
 90
        0
280
     0
281
     1
  0
CLASS
  1
XRECORD
  2
AcDbXrecord
  3
AutoCAD 2000
 90
        0
280
     0
281
     0
  0
CLASS
  1
LONG_TRANSACTION
  2
AcDbLongTransaction
  3
AutoCAD 2000
 90
        0
280
     0
281
     0
  0
CLASS
  1
LWPOLYLINE
  2
AcDbPolyline
  3
AutoCAD 2000
 90
        0
280
     0
281
     1
  0
CLASS
  1
HATCH
  2
AcDbHatch
  3
AutoCAD 2000
 90
        0
280
     0
281
     1
  0
CLASS
  1
XRECORD
  2
AcDbXrecord
  3
AutoCAD 2000
 90
        0
280
     0
281
     0
  0
CLASS
  1
LONG_TRANSACTION
  2
AcDbLongTransaction
  3
AutoCAD 2000
 90
        0
280
     0
281
     0
  0
CLASS
  1
LWPOLYLINE
  2
AcDbPolyline
  3
AutoCAD 2000
 90
        0
280
     0
281
     1
  0
CLASS
  1
HATCH
  2
AcDbHatch
  3
AutoCAD 2000
 90
        0
280
     0
281
     1
  0
CLASS
  1
XRECORD
  2
AcDbXrecord
  3
AutoCAD 2000
 90
        0
280
     0
281
     0
  0
CLASS
  1
LONG_TRANSACTION
  2
AcDbLongTransaction
  3
AutoCAD 2000
 90
        0
280
     0
281
     0
  0
CLASS
  1
LWPOLYLINE
  2
AcDbPolyline
  3
AutoCAD 2000
 90
        0
280
     0
281
     1
  0
CLASS
  1
HATCH
  2
AcDbHatch
  3
AutoCAD 2000
 90
        0
280
     0
281
     1
  0
CLASS
  1
XRECORD
  2
AcDbXrecord
  3
AutoCAD 2000
 90
        0
280
     0
281
     0
  0
CLASS
  1
LONG_TRANSACTION
  2
AcDbLongTransaction
  3
AutoCAD 2000
 90
        0
280
     0
281
     0
  0
CLASS
  1
LWPOLYLINE
  2
AcDbPolyline
  3
AutoCAD 2000
 90
        0
280
     0
281
     1
  0
CLASS
  1
HATCH
  2
AcDbHatch
  3
AutoCAD 2000
 90
        0
280
     0
281
     1
  0
CLASS
  1
XRECORD
  2
AcDbXrecord
  3
AutoCAD 2000
 90
        0
280
     0
281
     0
  0
CLASS
  1
LONG_TRANSACTION
  2
AcDbLongTransaction
  3
AutoCAD 2000
 90
        0
280
     0
281
     0
  0
CLASS
  1
LWPOLYLINE
  2
AcDbPolyline
  3
AutoCAD 2000
 90
        0
280
     0
281
     1
  0
CLASS
  1
HATCH
  2
AcDbHatch
  3
AutoCAD 2000
 90
        0
280
     0
281
     1
  0
CLASS
  1
XRECORD
  2
AcDbXrecord
  3
AutoCAD 2000
 90
        0
280
     0
281
     0
  0
CLASS
  1
LONG_TRANSACTION
  2
AcDbLongTransaction
  3
AutoCAD 2000
 90
        0
280
     0
281
     0
  0
CLASS
  1
LWPOLYLINE
  2
AcDbPolyline
  3
AutoCAD 2000
 90
        0
280
     0
281
     1
  0
CLASS
  1
HATCH
  2
AcDbHatch
  3
AutoCAD 2000
 90
        0
280
     0
281
     1
  0
CLASS
  1
XRECORD
  2
AcDbXrecord
  3
AutoCAD 2000
 90
        0
280
     0
281
     0
  0
ENDSEC
  0
SECTION
  2
TABLES
  0
TABLE
  2
VPORT
  5
8
330
0
100
AcDbSymbolTable
 70
     2
  0
VPORT
  5
301D
330
8
100
AcDbSymbolTableRecord
100
AcDbViewportTableRecord
  2
*ACTIVE
 70
     0
 10
0.0
 20
0.0
 11
1.0
 21
1.0
 12
227.4567755161202
 22
136.8985430767611
 13
0.0
 23
0.0
 14
5.0
 24
5.0
 15
0.0
 25
0.0
 16
0.0
 26
0.0
 36
1.0
 17
0.0
 27
0.0
 37
0.0
 40
315.7788532092614
 41
1.795454545454545
 42
50.0
 43
0.0
 44
0.0
 50
0.0
 51
0.0
 71
     0
 72
   100
 73
     1
 74
     0
 75
     0
 76
     0
 77
     0
 78
     0
  0
ENDTAB
  0
TABLE
  2
LTYPE
  5
5
330
0
100
AcDbSymbolTable
 70
     3
  0
LTYPE
  5
14
330
5
100
AcDbSymbolTableRecord
100
AcDbLinetypeTableRecord
  2
BYBLOCK
 70
     0
  3

 72
    65
 73
     0
 40
0.0
  0
LTYPE
  5
15
330
5
100
AcDbSymbolTableRecord
100
AcDbLinetypeTableRecord
  2
BYLAYER
 70
     0
  3

 72
    65
 73
     0
 40
0.0
  0
LTYPE
  5
16
330
5
100
AcDbSymbolTableRecord
100
AcDbLinetypeTableRecord
  2
CONTINUOUS
 70
     0
  3
Solid line
 72
    65
 73
     0
 40
0.0
  0
LTYPE
  5
120
330
5
100
AcDbSymbolTableRecord
100
AcDbLinetypeTableRecord
  2
CENTER
 70
     0
  3
____ _ ____ _ ____ _ ____ _ ____ _ ____ _ ____ 
 72
    65
 73
     4
 40
2.0
 49
1.25
 74
     0
 49
-0.25
 74
     0
 49
0.25
 74
     0
 49
-0.25
 74
     0
  0
LTYPE
  5
122
330
5
100
AcDbSymbolTableRecord
100
AcDbLinetypeTableRecord
  2
PHANTOM
 70
     0
  3
______  __  __  ______  __  __  ______  __  __ 
 72
    65
 73
     6
 40
2.5
 49
1.25
 74
     0
 49
-0.25
 74
     0
 49
0.25
 74
     0
 49
-0.25
 74
     0
 49
0.25
 74
     0
 49
-0.25
 74
     0
  0
ENDTAB
  0
TABLE
  2
LAYER
  5
2
330
0
100
AcDbSymbolTable
 70
     9
  0
LAYER
  5
F
330
2
100
AcDbSymbolTableRecord
100
AcDbLayerTableRecord
  2
0
 70
     0
 62
     7
  6
CONTINUOUS
  0
LAYER
  5
62
330
2
100
AcDbSymbolTableRecord
100
AcDbLayerTableRecord
  2
VIEWPORT
 70
     0
 62
     7
  6
CONTINUOUS
  0
LAYER
  5
6B
330
2
100
AcDbSymbolTableRecord
100
AcDbLayerTableRecord
  2
ZUWAKU
 70
     0
 62
     7
  6
CONTINUOUS
  0
LAYER
  5
3EF
330
2
100
AcDbSymbolTableRecord
100
AcDbLayerTableRecord
  2
DEFPOINTS
 70
     0
 62
     7
  6
CONTINUOUS
  0
LAYER
  5
54D
330
2
100
AcDbSymbolTableRecord
100
AcDbLayerTableRecord
  2
SEIHIN
 70
     0
 62
     3
  6
CONTINUOUS
  0
LAYER
  5
54E
330
2
100
AcDbSymbolTableRecord
100
AcDbLayerTableRecord
  2
SUNPOU
 70
     0
 62
     4
  6
CONTINUOUS
  0
LAYER
  5
54F
330
2
100
AcDbSymbolTableRecord
100
AcDbLayerTableRecord
  2
CENTER_L
 70
     0
 62
     1
  6
CENTER
  0
LAYER
  5
550
330
2
100
AcDbSymbolTableRecord
100
AcDbLayerTableRecord
  2
NOKITOI
 70
     0
 62
     8
  6
PHANTOM
  0
LAYER
  5
2EA6
330
2
100
AcDbSymbolTableRecord
100
AcDbLayerTableRecord
  2
MOJI
 70
     0
 62
     2
  6
CONTINUOUS
  0
ENDTAB
  0
TABLE
  2
STYLE
  5
3
330
0
100
AcDbSymbolTable
 70
     2
  0
STYLE
  5
10
330
3
100
AcDbSymbolTableRecord
100
AcDbTextStyleTableRecord
  2
STANDARD
 70
     0
 40
0.0
 41
1.0
 50
0.0
 71
     0
 42
3.0
  3
TXT
  4
c:\PROGRAM FILES\AUTOCAD LT\ms\bigfont.shx
  0
STYLE
  5
2EA7
330
3
100
AcDbSymbolTableRecord
100
AcDbTextStyleTableRecord
  2
ｽﾀｲﾙ1
 70
     0
 40
0.0
 41
1.0
 50
0.0
 71
     0
 42
2.5
  3
MS PGothic.ttf
  4

1001
ACAD
1000
MS PGothic
1071
    32818
  0
ENDTAB
  0
TABLE
  2
VIEW
  5
6
330
0
100
AcDbSymbolTable
 70
     0
  0
ENDTAB
  0
TABLE
  2
UCS
  5
7
330
0
100
AcDbSymbolTable
 70
     0
  0
ENDTAB
  0
TABLE
  2
APPID
  5
9
330
0
100
AcDbSymbolTable
 70
     1
  0
APPID
  5
11
330
9
100
AcDbSymbolTableRecord
100
AcDbRegAppTableRecord
  2
ACAD
 70
     0
  0
ENDTAB
  0
TABLE
  2
DIMSTYLE
  5
A
330
0
100
AcDbSymbolTable
 70
     1
  0
DIMSTYLE
105
1D
102
{ACAD_REACTORS
330
1FF7
330
2006
330
2015
330
2022
330
204C
330
2059
330
2066
330
2073
330
285C
330
2869
330
2876
330
2883
330
2D44
102
}
330
A
100
AcDbSymbolTableRecord
100
AcDbDimStyleTableRecord
  2
STANDARD
 70
     0
  3

  4

  5

  6

  7

 40
1.0
 41
0.18
 42
0.0625
 43
0.38
 44
0.18
 45
0.0
 46
0.0
 47
0.0
 48
0.0
140
0.18
141
0.09
142
0.0
143
25.4
144
1.0
145
0.0
146
1.0
147
0.09
 71
     0
 72
     0
 73
     1
 74
     1
 75
     0
 76
     0
 77
     0
 78
     0
170
     0
171
     2
172
     0
173
     0
174
     0
175
     0
176
     0
177
     0
178
     0
270
     2
271
     4
272
     4
273
     2
274
     2
340
10
275
     0
280
     0
281
     0
282
     0
283
     1
284
     0
285
     0
286
     0
287
     3
288
     0
  0
ENDTAB
  0
TABLE
  2
BLOCK_RECORD
  5
1
330
0
100
AcDbSymbolTable
 70
    14
  0
BLOCK_RECORD
  5
1A
102
{ACAD_XDICTIONARY
360
7A2
102
}
330
1
100
AcDbSymbolTableRecord
100
AcDbBlockTableRecord
  2
*MODEL_SPACE
  0
BLOCK_RECORD
  5
17
102
{ACAD_XDICTIONARY
360
7A0
102
}
330
1
100
AcDbSymbolTableRecord
100
AcDbBlockTableRecord
  2
*PAPER_SPACE
  0
BLOCK_RECORD
  5
B2
330
1
100
AcDbSymbolTableRecord
100
AcDbBlockTableRecord
  2
_OPEN
  0
BLOCK_RECORD
  5
1FF8
330
1
100
AcDbSymbolTableRecord
100
AcDbBlockTableRecord
  2
*D1
  0
BLOCK_RECORD
  5
2007
330
1
100
AcDbSymbolTableRecord
100
AcDbBlockTableRecord
  2
*D2
  0
BLOCK_RECORD
  5
2016
330
1
100
AcDbSymbolTableRecord
100
AcDbBlockTableRecord
  2
*D3
  0
BLOCK_RECORD
  5
2023
330
1
100
AcDbSymbolTableRecord
100
AcDbBlockTableRecord
  2
*D4
  0
BLOCK_RECORD
  5
204D
330
1
100
AcDbSymbolTableRecord
100
AcDbBlockTableRecord
  2
*D5
  0
BLOCK_RECORD
  5
205A
330
1
100
AcDbSymbolTableRecord
100
AcDbBlockTableRecord
  2
*D6
  0
BLOCK_RECORD
  5
2067
330
1
100
AcDbSymbolTableRecord
100
AcDbBlockTableRecord
  2
*D7
  0
BLOCK_RECORD
  5
2074
330
1
100
AcDbSymbolTableRecord
100
AcDbBlockTableRecord
  2
*D8
  0
BLOCK_RECORD
  5
285D
330
1
100
AcDbSymbolTableRecord
100
AcDbBlockTableRecord
  2
*D9
  0
BLOCK_RECORD
  5
286A
330
1
100
AcDbSymbolTableRecord
100
AcDbBlockTableRecord
  2
*D10
  0
BLOCK_RECORD
  5
2877
330
1
100
AcDbSymbolTableRecord
100
AcDbBlockTableRecord
  2
*D11
  0
BLOCK_RECORD
  5
2884
330
1
100
AcDbSymbolTableRecord
100
AcDbBlockTableRecord
  2
*D12
  0
BLOCK_RECORD
  5
2D45
330
1
100
AcDbSymbolTableRecord
100
AcDbBlockTableRecord
  2
*D13
  0
ENDTAB
  0
ENDSEC
  0
SECTION
  2
BLOCKS
  0
BLOCK
  5
1B
330
1A
100
AcDbEntity
  8
0
100
AcDbBlockBegin
  2
*MODEL_SPACE
 70
     0
 10
0.0
 20
0.0
 30
0.0
  3
*MODEL_SPACE
  1

  0
ENDBLK
  5
1C
330
1A
100
AcDbEntity
  8
0
100
AcDbBlockEnd
  0
BLOCK
  5
18
330
17
100
AcDbEntity
 67
     1
  8
0
100
AcDbBlockBegin
  2
*PAPER_SPACE
 70
     0
 10
0.0
 20
0.0
 30
0.0
  3
*PAPER_SPACE
  1

  0
ENDBLK
  5
19
330
17
100
AcDbEntity
 67
     1
  8
0
100
AcDbBlockEnd
  0
BLOCK
  5
B3
330
B2
100
AcDbEntity
  8
0
100
AcDbBlockBegin
  2
_OPEN
 70
     0
 10
0.0
 20
0.0
 30
0.0
  3
_OPEN
  1

  0
LINE
  5
B4
330
B2
100
AcDbEntity
  8
0
  6
BYBLOCK
 62
     0
100
AcDbLine
 10
-1.0
 20
0.1666666666666666
 30
0.0
 11
0.0
 21
0.0
 31
0.0
  0
LINE
  5
B5
330
B2
100
AcDbEntity
  8
0
  6
BYBLOCK
 62
     0
100
AcDbLine
 10
0.0
 20
0.0
 30
0.0
 11
-1.0
 21
-0.1666666666666666
 31
0.0
  0
LINE
  5
B6
330
B2
100
AcDbEntity
  8
0
  6
BYBLOCK
 62
     0
100
AcDbLine
 10
0.0
 20
0.0
 30
0.0
 11
-1.0
 21
0.0
 31
0.0
  0
ENDBLK
  5
B7
330
B2
100
AcDbEntity
  8
0
100
AcDbBlockEnd
  0
BLOCK
  5
2002
330
1FF8
100
AcDbEntity
  8
0
100
AcDbBlockBegin
  2
*D1
 70
     1
 10
0.0
 20
0.0
 30
0.0
  3
*D1
  1

  0
LINE
  5
2DC3
330
1FF8
100
AcDbEntity
  8
SUNPOU
100
AcDbLine
 10
258.6206306195524
 20
101.7915278866696
 30
0.0
 11
278.1721250804864
 21
101.7915278866696
 31
0.0
  0
LINE
  5
2DC4
330
1FF8
100
AcDbEntity
  8
SUNPOU
100
AcDbLine
 10
258.6206306195524
 20
66.79152788666967
 30
0.0
 11
278.1721250804864
 21
66.79152788666967
 31
0.0
  0
LINE
  5
2DC5
330
1FF8
100
AcDbEntity
  8
SUNPOU
100
AcDbLine
 10
276.6721250804864
 20
98.79152788666967
 30
0.0
 11
276.6721250804864
 21
69.79152788666967
 31
0.0
  0
INSERT
  5
2DC6
330
1FF8
100
AcDbEntity
  8
SUNPOU
100
AcDbBlockReference
  2
_OPEN
 10
276.6721250804864
 20
101.7915278866696
 30
0.0
 41
3.0
 42
3.0
 43
3.0
 50
90.0
  0
INSERT
  5
2DC7
330
1FF8
100
AcDbEntity
  8
SUNPOU
100
AcDbBlockReference
  2
_OPEN
 10
276.6721250804864
 20
66.79152788666967
 30
0.0
 41
3.0
 42
3.0
 43
3.0
 50
270.0
  0
MTEXT
  5
2DC8
330
1FF8
100
AcDbEntity
  8
SUNPOU
100
AcDbMText
 10
274.1721250804864
 20
84.29152788666971
 30
0.0
 40
3.0
 41
0.0
 71
     5
 72
     5
  1
\A1;35
 11
0.0000000000000001
 21
1.0
 31
0.0
1001
ACAD
1000
MTEXTBEGIN
1070
    73
1070
     1
1070
    44
1040
1.0
1070
    74
1070
     0
1000
MTEXTEND
1000
MTEXTBEGIN
1070
    73
1070
     1
1070
    44
1040
1.0
1070
    74
1070
     0
1000
MTEXTEND
1000
MTEXTBEGIN
1070
    73
1070
     1
1070
    44
1040
1.0
1070
    74
1070
     0
1000
MTEXTEND
  0
POINT
  5
2DC9
330
1FF8
100
AcDbEntity
  8
DEFPOINTS
 62
     0
100
AcDbPoint
 10
255.6206306195524
 20
101.7915278866696
 30
0.0
  0
POINT
  5
2DCA
330
1FF8
100
AcDbEntity
  8
DEFPOINTS
 62
     0
100
AcDbPoint
 10
255.6206306195524
 20
66.79152788666967
 30
0.0
  0
POINT
  5
2DCB
330
1FF8
100
AcDbEntity
  8
DEFPOINTS
 62
     0
100
AcDbPoint
 10
276.6721250804864
 20
66.79152788666967
 30
0.0
  0
ENDBLK
  5
2003
330
1FF8
100
AcDbEntity
  8
0
100
AcDbBlockEnd
  0
BLOCK
  5
2013
330
2007
100
AcDbEntity
  8
0
100
AcDbBlockBegin
  2
*D2
 70
     1
 10
0.0
 20
0.0
 30
0.0
  3
*D2
  1

  0
LINE
  5
2DCC
330
2007
100
AcDbEntity
  8
SUNPOU
100
AcDbLine
 10
280.8653267912297
 20
101.7915278866696
 30
0.0
 11
265.1473090266638
 21
101.7915278866696
 31
0.0
  0
LINE
  5
2DCD
330
2007
100
AcDbEntity
  8
SUNPOU
100
AcDbLine
 10
280.7653267912296
 20
93.79152788666967
 30
0.0
 11
265.1473090266638
 21
93.79152788666967
 31
0.0
  0
LINE
  5
2DCE
330
2007
100
AcDbEntity
  8
SUNPOU
100
AcDbLine
 10
266.6473090266638
 20
104.7915278866696
 30
0.0
 11
266.6473090266638
 21
107.7915278866696
 31
0.0
  0
LINE
  5
2DCF
330
2007
100
AcDbEntity
  8
SUNPOU
100
AcDbLine
 10
266.6473090266638
 20
90.79152788666966
 30
0.0
 11
266.6473090266638
 21
87.79152788666968
 31
0.0
  0
LINE
  5
2DD0
330
2007
100
AcDbEntity
  8
SUNPOU
100
AcDbLine
 10
266.6473090266638
 20
101.7915278866696
 30
0.0
 11
266.6473090266638
 21
93.79152788666967
 31
0.0
  0
INSERT
  5
2DD1
330
2007
100
AcDbEntity
  8
SUNPOU
100
AcDbBlockReference
  2
_OPEN
 10
266.6473090266638
 20
101.7915278866696
 30
0.0
 41
3.0
 42
3.0
 43
3.0
 50
270.0
  0
INSERT
  5
2DD2
330
2007
100
AcDbEntity
  8
SUNPOU
100
AcDbBlockReference
  2
_OPEN
 10
266.6473090266638
 20
93.79152788666967
 30
0.0
 41
3.0
 42
3.0
 43
3.0
 50
90.0
  0
MTEXT
  5
2DD3
330
2007
100
AcDbEntity
  8
SUNPOU
100
AcDbMText
 10
264.1473090266638
 20
97.79152788666971
 30
0.0
 40
3.0
 41
0.0
 71
     5
 72
     5
  1
\A1;8
 11
0.0000000000000001
 21
1.0
 31
0.0
1001
ACAD
1000
MTEXTBEGIN
1070
    73
1070
     1
1070
    44
1040
1.0
1070
    74
1070
     0
1000
MTEXTEND
1000
MTEXTBEGIN
1070
    73
1070
     1
1070
    44
1040
1.0
1070
    74
1070
     0
1000
MTEXTEND
1000
MTEXTBEGIN
1070
    73
1070
     1
1070
    44
1040
1.0
1070
    74
1070
     0
1000
MTEXTEND
  0
POINT
  5
2DD4
330
2007
100
AcDbEntity
  8
DEFPOINTS
 62
     0
100
AcDbPoint
 10
283.8653267912297
 20
101.7915278866696
 30
0.0
  0
POINT
  5
2DD5
330
2007
100
AcDbEntity
  8
DEFPOINTS
 62
     0
100
AcDbPoint
 10
283.7653267912296
 20
93.79152788666967
 30
0.0
  0
POINT
  5
2DD6
330
2007
100
AcDbEntity
  8
DEFPOINTS
 62
     0
100
AcDbPoint
 10
266.6473090266638
 20
93.79152788666967
 30
0.0
  0
ENDBLK
  5
2014
330
2007
100
AcDbEntity
  8
0
100
AcDbBlockEnd
  0
BLOCK
  5
2020
330
2016
100
AcDbEntity
  8
0
100
AcDbBlockBegin
  2
*D3
 70
     1
 10
0.0
 20
0.0
 30
0.0
  3
*D3
  1

  0
LINE
  5
2DD7
330
2016
100
AcDbEntity
  8
SUNPOU
100
AcDbLine
 10
280.7653267912296
 20
74.79152788666967
 30
0.0
 11
265.1473090266638
 21
74.79152788666967
 31
0.0
  0
LINE
  5
2DD8
330
2016
100
AcDbEntity
  8
SUNPOU
100
AcDbLine
 10
280.8653267912297
 20
66.79152788666965
 30
0.0
 11
265.1473090266638
 21
66.79152788666965
 31
0.0
  0
LINE
  5
2DD9
330
2016
100
AcDbEntity
  8
SUNPOU
100
AcDbLine
 10
266.6473090266638
 20
71.79152788666967
 30
0.0
 11
266.6473090266638
 21
69.79152788666965
 31
0.0
  0
INSERT
  5
2DDA
330
2016
100
AcDbEntity
  8
SUNPOU
100
AcDbBlockReference
  2
_OPEN
 10
266.6473090266638
 20
74.79152788666967
 30
0.0
 41
3.0
 42
3.0
 43
3.0
 50
90.0
  0
INSERT
  5
2DDB
330
2016
100
AcDbEntity
  8
SUNPOU
100
AcDbBlockReference
  2
_OPEN
 10
266.6473090266638
 20
66.79152788666965
 30
0.0
 41
3.0
 42
3.0
 43
3.0
 50
270.0
  0
MTEXT
  5
2DDC
330
2016
100
AcDbEntity
  8
SUNPOU
100
AcDbMText
 10
264.1473090266638
 20
70.7915278866697
 30
0.0
 40
3.0
 41
0.0
 71
     5
 72
     5
  1
\A1;8
 11
0.0000000000000001
 21
1.0
 31
0.0
1001
ACAD
1000
MTEXTBEGIN
1070
    73
1070
     1
1070
    44
1040
1.0
1070
    74
1070
     0
1000
MTEXTEND
1000
MTEXTBEGIN
1070
    73
1070
     1
1070
    44
1040
1.0
1070
    74
1070
     0
1000
MTEXTEND
1000
MTEXTBEGIN
1070
    73
1070
     1
1070
    44
1040
1.0
1070
    74
1070
     0
1000
MTEXTEND
  0
POINT
  5
2DDD
330
2016
100
AcDbEntity
  8
DEFPOINTS
 62
     0
100
AcDbPoint
 10
283.7653267912296
 20
74.79152788666967
 30
0.0
  0
POINT
  5
2DDE
330
2016
100
AcDbEntity
  8
DEFPOINTS
 62
     0
100
AcDbPoint
 10
283.8653267912297
 20
66.79152788666965
 30
0.0
  0
POINT
  5
2DDF
330
2016
100
AcDbEntity
  8
DEFPOINTS
 62
     0
100
AcDbPoint
 10
266.6473090266638
 20
66.79152788666965
 30
0.0
  0
ENDBLK
  5
2021
330
2016
100
AcDbEntity
  8
0
100
AcDbBlockEnd
  0
BLOCK
  5
202D
330
2023
100
AcDbEntity
  8
0
100
AcDbBlockBegin
  2
*D4
 70
     1
 10
0.0
 20
0.0
 30
0.0
  3
*D4
  1

  0
LINE
  5
2DE0
330
2023
100
AcDbEntity
  8
SUNPOU
100
AcDbLine
 10
280.8653267912297
 20
101.7915278866696
 30
0.0
 11
255.1289299989839
 21
101.7915278866696
 31
0.0
  0
LINE
  5
2DE1
330
2023
100
AcDbEntity
  8
SUNPOU
100
AcDbLine
 10
280.8653267912297
 20
66.79152788666965
 30
0.0
 11
255.1289299989839
 21
66.79152788666965
 31
0.0
  0
LINE
  5
2DE2
330
2023
100
AcDbEntity
  8
SUNPOU
100
AcDbLine
 10
256.6289299989839
 20
98.79152788666967
 30
0.0
 11
256.6289299989839
 21
69.79152788666965
 31
0.0
  0
INSERT
  5
2DE3
330
2023
100
AcDbEntity
  8
SUNPOU
100
AcDbBlockReference
  2
_OPEN
 10
256.6289299989839
 20
101.7915278866696
 30
0.0
 41
3.0
 42
3.0
 43
3.0
 50
90.0
  0
INSERT
  5
2DE4
330
2023
100
AcDbEntity
  8
SUNPOU
100
AcDbBlockReference
  2
_OPEN
 10
256.6289299989839
 20
66.79152788666965
 30
0.0
 41
3.0
 42
3.0
 43
3.0
 50
270.0
  0
MTEXT
  5
2DE5
330
2023
100
AcDbEntity
  8
SUNPOU
100
AcDbMText
 10
254.1289299989839
 20
84.2915278866697
 30
0.0
 40
3.0
 41
0.0
 71
     5
 72
     5
  1
\A1;35
 11
0.0000000000000001
 21
1.0
 31
0.0
1001
ACAD
1000
MTEXTBEGIN
1070
    73
1070
     1
1070
    44
1040
1.0
1070
    74
1070
     0
1000
MTEXTEND
1000
MTEXTBEGIN
1070
    73
1070
     1
1070
    44
1040
1.0
1070
    74
1070
     0
1000
MTEXTEND
1000
MTEXTBEGIN
1070
    73
1070
     1
1070
    44
1040
1.0
1070
    74
1070
     0
1000
MTEXTEND
  0
POINT
  5
2DE6
330
2023
100
AcDbEntity
  8
DEFPOINTS
 62
     0
100
AcDbPoint
 10
283.8653267912297
 20
101.7915278866696
 30
0.0
  0
POINT
  5
2DE7
330
2023
100
AcDbEntity
  8
DEFPOINTS
 62
     0
100
AcDbPoint
 10
283.8653267912297
 20
66.79152788666965
 30
0.0
  0
POINT
  5
2DE8
330
2023
100
AcDbEntity
  8
DEFPOINTS
 62
     0
100
AcDbPoint
 10
256.6289299989839
 20
66.79152788666965
 30
0.0
  0
ENDBLK
  5
202E
330
2023
100
AcDbEntity
  8
0
100
AcDbBlockEnd
  0
BLOCK
  5
2057
330
204D
100
AcDbEntity
  8
0
100
AcDbBlockBegin
  2
*D5
 70
     1
 10
0.0
 20
0.0
 30
0.0
  3
*D5
  1

  0
LINE
  5
2DE9
330
204D
100
AcDbEntity
  8
SUNPOU
100
AcDbLine
 10
289.8653267912298
 20
102.8915278866696
 30
0.0
 11
289.8653267912298
 21
133.5248008960517
 31
0.0
  0
LINE
  5
2DEA
330
204D
100
AcDbEntity
  8
SUNPOU
100
AcDbLine
 10
333.8653267912297
 20
102.8915278866696
 30
0.0
 11
333.8653267912297
 21
133.5248008960517
 31
0.0
  0
LINE
  5
2DEB
330
204D
100
AcDbEntity
  8
SUNPOU
100
AcDbLine
 10
292.8653267912297
 20
132.0248008960517
 30
0.0
 11
330.8653267912298
 21
132.0248008960517
 31
0.0
  0
INSERT
  5
2DEC
330
204D
100
AcDbEntity
  8
SUNPOU
100
AcDbBlockReference
  2
_OPEN
 10
289.8653267912298
 20
132.0248008960517
 30
0.0
 41
3.0
 42
3.0
 43
3.0
 50
180.0
  0
INSERT
  5
2DED
330
204D
100
AcDbEntity
  8
SUNPOU
100
AcDbBlockReference
  2
_OPEN
 10
333.8653267912297
 20
132.0248008960517
 30
0.0
 41
3.0
 42
3.0
 43
3.0
  0
MTEXT
  5
2DEE
330
204D
100
AcDbEntity
  8
SUNPOU
100
AcDbMText
 10
311.8653267912297
 20
134.5248008960517
 30
0.0
 40
3.0
 41
0.0
 71
     5
 72
     5
  1
\A1;44
1001
ACAD
1000
MTEXTBEGIN
1070
    73
1070
     1
1070
    44
1040
1.0
1070
    74
1070
     0
1000
MTEXTEND
1000
MTEXTBEGIN
1070
    73
1070
     1
1070
    44
1040
1.0
1070
    74
1070
     0
1000
MTEXTEND
1000
MTEXTBEGIN
1070
    73
1070
     1
1070
    44
1040
1.0
1070
    74
1070
     0
1000
MTEXTEND
  0
POINT
  5
2DEF
330
204D
100
AcDbEntity
  8
DEFPOINTS
 62
     0
100
AcDbPoint
 10
289.8653267912298
 20
99.8915278866697
 30
0.0
  0
POINT
  5
2DF0
330
204D
100
AcDbEntity
  8
DEFPOINTS
 62
     0
100
AcDbPoint
 10
333.8653267912297
 20
99.8915278866697
 30
0.0
  0
POINT
  5
2DF1
330
204D
100
AcDbEntity
  8
DEFPOINTS
 62
     0
100
AcDbPoint
 10
333.8653267912297
 20
132.0248008960517
 30
0.0
  0
ENDBLK
  5
2058
330
204D
100
AcDbEntity
  8
0
100
AcDbBlockEnd
  0
BLOCK
  5
2064
330
205A
100
AcDbEntity
  8
0
100
AcDbBlockBegin
  2
*D6
 70
     1
 10
0.0
 20
0.0
 30
0.0
  3
*D6
  1

  0
LINE
  5
2DF2
330
205A
100
AcDbEntity
  8
SUNPOU
100
AcDbLine
 10
280.8653267912297
 20
101.7915278866696
 30
0.0
 11
280.8653267912297
 21
143.8693575795808
 31
0.0
  0
LINE
  5
2DF3
330
205A
100
AcDbEntity
  8
SUNPOU
100
AcDbLine
 10
342.8653267912297
 20
101.7915278866696
 30
0.0
 11
342.8653267912297
 21
143.8693575795808
 31
0.0
  0
LINE
  5
2DF4
330
205A
100
AcDbEntity
  8
SUNPOU
100
AcDbLine
 10
283.8653267912297
 20
142.3693575795808
 30
0.0
 11
339.8653267912298
 21
142.3693575795808
 31
0.0
  0
INSERT
  5
2DF5
330
205A
100
AcDbEntity
  8
SUNPOU
100
AcDbBlockReference
  2
_OPEN
 10
280.8653267912297
 20
142.3693575795808
 30
0.0
 41
3.0
 42
3.0
 43
3.0
 50
180.0
  0
INSERT
  5
2DF6
330
205A
100
AcDbEntity
  8
SUNPOU
100
AcDbBlockReference
  2
_OPEN
 10
342.8653267912297
 20
142.3693575795808
 30
0.0
 41
3.0
 42
3.0
 43
3.0
  0
MTEXT
  5
2DF7
330
205A
100
AcDbEntity
  8
SUNPOU
100
AcDbMText
 10
311.8653267912297
 20
144.8693575795808
 30
0.0
 40
3.0
 41
0.0
 71
     5
 72
     5
  1
\A1;62
1001
ACAD
1000
MTEXTBEGIN
1070
    73
1070
     1
1070
    44
1040
1.0
1070
    74
1070
     0
1000
MTEXTEND
1000
MTEXTBEGIN
1070
    73
1070
     1
1070
    44
1040
1.0
1070
    74
1070
     0
1000
MTEXTEND
1000
MTEXTBEGIN
1070
    73
1070
     1
1070
    44
1040
1.0
1070
    74
1070
     0
1000
MTEXTEND
  0
POINT
  5
2DF8
330
205A
100
AcDbEntity
  8
DEFPOINTS
 62
     0
100
AcDbPoint
 10
280.8653267912297
 20
98.79152788666967
 30
0.0
  0
POINT
  5
2DF9
330
205A
100
AcDbEntity
  8
DEFPOINTS
 62
     0
100
AcDbPoint
 10
342.8653267912297
 20
98.79152788666967
 30
0.0
  0
POINT
  5
2DFA
330
205A
100
AcDbEntity
  8
DEFPOINTS
 62
     0
100
AcDbPoint
 10
342.8653267912297
 20
142.3693575795808
 30
0.0
  0
ENDBLK
  5
2065
330
205A
100
AcDbEntity
  8
0
100
AcDbBlockEnd
  0
BLOCK
  5
2071
330
2067
100
AcDbEntity
  8
0
100
AcDbBlockBegin
  2
*D7
 70
     1
 10
0.0
 20
0.0
 30
0.0
  3
*D7
  1

  0
LINE
  5
2DFB
330
2067
100
AcDbEntity
  8
SUNPOU
100
AcDbLine
 10
223.8109566398878
 20
250.1707035089473
 30
0.0
 11
243.3624511008219
 21
250.1707035089473
 31
0.0
  0
LINE
  5
2DFC
330
2067
100
AcDbEntity
  8
SUNPOU
100
AcDbLine
 10
223.8109566398878
 20
188.1707035089473
 30
0.0
 11
243.3624511008218
 21
188.1707035089473
 31
0.0
  0
LINE
  5
2DFD
330
2067
100
AcDbEntity
  8
SUNPOU
100
AcDbLine
 10
241.8624511008219
 20
247.1707035089473
 30
0.0
 11
241.8624511008218
 21
191.1707035089473
 31
0.0
  0
INSERT
  5
2DFE
330
2067
100
AcDbEntity
  8
SUNPOU
100
AcDbBlockReference
  2
_OPEN
 10
241.8624511008219
 20
250.1707035089473
 30
0.0
 41
3.0
 42
3.0
 43
3.0
 50
90.0
  0
INSERT
  5
2DFF
330
2067
100
AcDbEntity
  8
SUNPOU
100
AcDbBlockReference
  2
_OPEN
 10
241.8624511008218
 20
188.1707035089473
 30
0.0
 41
3.0
 42
3.0
 43
3.0
 50
270.0
  0
MTEXT
  5
2E00
330
2067
100
AcDbEntity
  8
SUNPOU
100
AcDbMText
 10
239.3624511008218
 20
219.1707035089473
 30
0.0
 40
3.0
 41
0.0
 71
     5
 72
     5
  1
\A1;62
 11
0.0000000000000001
 21
1.0
 31
0.0
1001
ACAD
1000
MTEXTBEGIN
1070
    73
1070
     1
1070
    44
1040
1.0
1070
    74
1070
     0
1000
MTEXTEND
1000
MTEXTBEGIN
1070
    73
1070
     1
1070
    44
1040
1.0
1070
    74
1070
     0
1000
MTEXTEND
1000
MTEXTBEGIN
1070
    73
1070
     1
1070
    44
1040
1.0
1070
    74
1070
     0
1000
MTEXTEND
  0
POINT
  5
2E01
330
2067
100
AcDbEntity
  8
DEFPOINTS
 62
     0
100
AcDbPoint
 10
220.8109566398878
 20
250.1707035089473
 30
0.0
  0
POINT
  5
2E02
330
2067
100
AcDbEntity
  8
DEFPOINTS
 62
     0
100
AcDbPoint
 10
220.8109566398878
 20
188.1707035089473
 30
0.0
  0
POINT
  5
2E03
330
2067
100
AcDbEntity
  8
DEFPOINTS
 62
     0
100
AcDbPoint
 10
241.8624511008218
 20
188.1707035089473
 30
0.0
  0
ENDBLK
  5
2072
330
2067
100
AcDbEntity
  8
0
100
AcDbBlockEnd
  0
BLOCK
  5
207E
330
2074
100
AcDbEntity
  8
0
100
AcDbBlockBegin
  2
*D8
 70
     1
 10
0.0
 20
0.0
 30
0.0
  3
*D8
  1

  0
LINE
  5
2E04
330
2074
100
AcDbEntity
  8
SUNPOU
100
AcDbLine
 10
78.8106659798878
 20
229.1707035089473
 30
0.0
 11
53.47985321155012
 21
229.1707035089473
 31
0.0
  0
LINE
  5
2E05
330
2074
100
AcDbEntity
  8
SUNPOU
100
AcDbLine
 10
78.8106659798878
 20
209.1707035089473
 30
0.0
 11
53.47985321155012
 21
209.1707035089473
 31
0.0
  0
LINE
  5
2E06
330
2074
100
AcDbEntity
  8
SUNPOU
100
AcDbLine
 10
54.97985321155012
 20
226.1707035089473
 30
0.0
 11
54.97985321155012
 21
212.1707035089473
 31
0.0
  0
INSERT
  5
2E07
330
2074
100
AcDbEntity
  8
SUNPOU
100
AcDbBlockReference
  2
_OPEN
 10
54.97985321155012
 20
229.1707035089473
 30
0.0
 41
3.0
 42
3.0
 43
3.0
 50
90.0
  0
INSERT
  5
2E08
330
2074
100
AcDbEntity
  8
SUNPOU
100
AcDbBlockReference
  2
_OPEN
 10
54.97985321155012
 20
209.1707035089473
 30
0.0
 41
3.0
 42
3.0
 43
3.0
 50
270.0
  0
MTEXT
  5
2E09
330
2074
100
AcDbEntity
  8
SUNPOU
100
AcDbMText
 10
52.47985321155009
 20
219.1707035089473
 30
0.0
 40
3.0
 41
0.0
 71
     5
 72
     5
  1
\A1;20
 11
0.0000000000000001
 21
1.0
 31
0.0
1001
ACAD
1000
MTEXTBEGIN
1070
    73
1070
     1
1070
    44
1040
1.0
1070
    74
1070
     0
1000
MTEXTEND
1000
MTEXTBEGIN
1070
    73
1070
     1
1070
    44
1040
1.0
1070
    74
1070
     0
1000
MTEXTEND
1000
MTEXTBEGIN
1070
    73
1070
     1
1070
    44
1040
1.0
1070
    74
1070
     0
1000
MTEXTEND
  0
POINT
  5
2E0A
330
2074
100
AcDbEntity
  8
DEFPOINTS
 62
     0
100
AcDbPoint
 10
81.81066597988779
 20
229.1707035089473
 30
0.0
  0
POINT
  5
2E0B
330
2074
100
AcDbEntity
  8
DEFPOINTS
 62
     0
100
AcDbPoint
 10
81.81066597988779
 20
209.1707035089473
 30
0.0
  0
POINT
  5
2E0C
330
2074
100
AcDbEntity
  8
DEFPOINTS
 62
     0
100
AcDbPoint
 10
54.97985321155012
 20
209.1707035089473
 30
0.0
  0
ENDBLK
  5
207F
330
2074
100
AcDbEntity
  8
0
100
AcDbBlockEnd
  0
BLOCK
  5
2867
330
285D
100
AcDbEntity
  8
0
100
AcDbBlockBegin
  2
*D9
 70
     1
 10
0.0
 20
0.0
 30
0.0
  3
*D9
  1

  0
LINE
  5
2E0D
330
285D
100
AcDbEntity
  8
SUNPOU
100
AcDbLine
 10
223.8109566398878
 20
101.7915278916696
 30
0.0
 11
242.6494214574295
 21
101.7915278916696
 31
0.0
  0
LINE
  5
2E0E
330
285D
100
AcDbEntity
  8
SUNPOU
100
AcDbLine
 10
223.8109566398878
 20
66.79152788666967
 30
0.0
 11
242.6494214574295
 21
66.79152788666965
 31
0.0
  0
LINE
  5
2E0F
330
285D
100
AcDbEntity
  8
SUNPOU
100
AcDbLine
 10
241.1494214574295
 20
98.79152789166965
 30
0.0
 11
241.1494214574295
 21
69.79152788666965
 31
0.0
  0
INSERT
  5
2E10
330
285D
100
AcDbEntity
  8
SUNPOU
100
AcDbBlockReference
  2
_OPEN
 10
241.1494214574295
 20
101.7915278916696
 30
0.0
 41
3.0
 42
3.0
 43
3.0
 50
90.0
  0
INSERT
  5
2E11
330
285D
100
AcDbEntity
  8
SUNPOU
100
AcDbBlockReference
  2
_OPEN
 10
241.1494214574295
 20
66.79152788666965
 30
0.0
 41
3.0
 42
3.0
 43
3.0
 50
270.0
  0
MTEXT
  5
2E12
330
285D
100
AcDbEntity
  8
SUNPOU
100
AcDbMText
 10
238.6494214574295
 20
84.29152788916971
 30
0.0
 40
3.0
 41
0.0
 71
     5
 72
     5
  1
\A1;35
 11
0.0000000000000001
 21
1.0
 31
0.0
1001
ACAD
1000
MTEXTBEGIN
1070
    73
1070
     1
1070
    44
1040
1.0
1070
    74
1070
     0
1000
MTEXTEND
1000
MTEXTBEGIN
1070
    73
1070
     1
1070
    44
1040
1.0
1070
    74
1070
     0
1000
MTEXTEND
1000
MTEXTBEGIN
1070
    73
1070
     1
1070
    44
1040
1.0
1070
    74
1070
     0
1000
MTEXTEND
  0
POINT
  5
2E13
330
285D
100
AcDbEntity
  8
DEFPOINTS
 62
     0
100
AcDbPoint
 10
220.8109566398878
 20
101.7915278916696
 30
0.0
  0
POINT
  5
2E14
330
285D
100
AcDbEntity
  8
DEFPOINTS
 62
     0
100
AcDbPoint
 10
220.8109566398878
 20
66.79152788666967
 30
0.0
  0
POINT
  5
2E15
330
285D
100
AcDbEntity
  8
DEFPOINTS
 62
     0
100
AcDbPoint
 10
241.1494214574295
 20
66.79152788666965
 30
0.0
  0
ENDBLK
  5
2868
330
285D
100
AcDbEntity
  8
0
100
AcDbBlockEnd
  0
BLOCK
  5
2874
330
286A
100
AcDbEntity
  8
0
100
AcDbBlockBegin
  2
*D10
 70
     1
 10
0.0
 20
0.0
 30
0.0
  3
*D10
  1

  0
LINE
  5
2E16
330
286A
100
AcDbEntity
  8
SUNPOU
100
AcDbLine
 10
198.2696087027265
 20
97.87850258922027
 30
0.0
 11
198.2696087027265
 21
134.3799914063706
 31
0.0
  0
LINE
  5
2E17
330
286A
100
AcDbEntity
  8
SUNPOU
100
AcDbLine
 10
220.8109566398878
 20
104.7915278916696
 30
0.0
 11
220.8109566398878
 21
134.3799914063706
 31
0.0
  0
LINE
  5
2E18
330
286A
100
AcDbEntity
  8
SUNPOU
100
AcDbLine
 10
201.2696087027265
 20
132.8799914063706
 30
0.0
 11
217.8109566398878
 21
132.8799914063706
 31
0.0
  0
INSERT
  5
2E19
330
286A
100
AcDbEntity
  8
SUNPOU
100
AcDbBlockReference
  2
_OPEN
 10
198.2696087027265
 20
132.8799914063706
 30
0.0
 41
3.0
 42
3.0
 43
3.0
 50
180.0
  0
INSERT
  5
2E1A
330
286A
100
AcDbEntity
  8
SUNPOU
100
AcDbBlockReference
  2
_OPEN
 10
220.8109566398878
 20
132.8799914063706
 30
0.0
 41
3.0
 42
3.0
 43
3.0
  0
MTEXT
  5
2E1B
330
286A
100
AcDbEntity
  8
SUNPOU
100
AcDbMText
 10
209.5402826713072
 20
135.3799914063706
 30
0.0
 40
3.0
 41
0.0
 71
     5
 72
     5
  1
\A1;23
1001
ACAD
1000
MTEXTBEGIN
1070
    73
1070
     1
1070
    44
1040
1.0
1070
    74
1070
     0
1000
MTEXTEND
1000
MTEXTBEGIN
1070
    73
1070
     1
1070
    44
1040
1.0
1070
    74
1070
     0
1000
MTEXTEND
1000
MTEXTBEGIN
1070
    73
1070
     1
1070
    44
1040
1.0
1070
    74
1070
     0
1000
MTEXTEND
  0
POINT
  5
2E1C
330
286A
100
AcDbEntity
  8
DEFPOINTS
 62
     0
100
AcDbPoint
 10
198.2696087027265
 20
94.87850258922028
 30
0.0
  0
POINT
  5
2E1D
330
286A
100
AcDbEntity
  8
DEFPOINTS
 62
     0
100
AcDbPoint
 10
220.8109566398878
 20
101.7915278916696
 30
0.0
  0
POINT
  5
2E1E
330
286A
100
AcDbEntity
  8
DEFPOINTS
 62
     0
100
AcDbPoint
 10
220.8109566398878
 20
132.8799914063706
 30
0.0
  0
ENDBLK
  5
2875
330
286A
100
AcDbEntity
  8
0
100
AcDbBlockEnd
  0
BLOCK
  5
2881
330
2877
100
AcDbEntity
  8
0
100
AcDbBlockBegin
  2
*D11
 70
     1
 10
0.0
 20
0.0
 30
0.0
  3
*D11
  1

  0
LINE
  5
2E1F
330
2877
100
AcDbEntity
  8
SUNPOU
100
AcDbLine
 10
134.3106659798878
 20
95.14800260166969
 30
0.0
 11
134.3106659798878
 21
143.7982436964134
 31
0.0
  0
LINE
  5
2E20
330
2877
100
AcDbEntity
  8
SUNPOU
100
AcDbLine
 10
220.8109566398878
 20
104.7915278916696
 30
0.0
 11
220.8109566398878
 21
143.7982436964134
 31
0.0
  0
LINE
  5
2E21
330
2877
100
AcDbEntity
  8
SUNPOU
100
AcDbLine
 10
137.3106659798878
 20
142.2982436964134
 30
0.0
 11
217.8109566398878
 21
142.2982436964134
 31
0.0
  0
INSERT
  5
2E22
330
2877
100
AcDbEntity
  8
SUNPOU
100
AcDbBlockReference
  2
_OPEN
 10
134.3106659798878
 20
142.2982436964134
 30
0.0
 41
3.0
 42
3.0
 43
3.0
 50
180.0
  0
INSERT
  5
2E23
330
2877
100
AcDbEntity
  8
SUNPOU
100
AcDbBlockReference
  2
_OPEN
 10
220.8109566398878
 20
142.2982436964134
 30
0.0
 41
3.0
 42
3.0
 43
3.0
  0
MTEXT
  5
2E24
330
2877
100
AcDbEntity
  8
SUNPOU
100
AcDbMText
 10
177.5608113098878
 20
144.7982436964134
 30
0.0
 40
3.0
 41
0.0
 71
     5
 72
     5
  1
\A1;87
1001
ACAD
1000
MTEXTBEGIN
1070
    73
1070
     1
1070
    44
1040
1.0
1070
    74
1070
     0
1000
MTEXTEND
1000
MTEXTBEGIN
1070
    73
1070
     1
1070
    44
1040
1.0
1070
    74
1070
     0
1000
MTEXTEND
1000
MTEXTBEGIN
1070
    73
1070
     1
1070
    44
1040
1.0
1070
    74
1070
     0
1000
MTEXTEND
  0
POINT
  5
2E25
330
2877
100
AcDbEntity
  8
DEFPOINTS
 62
     0
100
AcDbPoint
 10
134.3106659798878
 20
92.1480026016697
 30
0.0
  0
POINT
  5
2E26
330
2877
100
AcDbEntity
  8
DEFPOINTS
 62
     0
100
AcDbPoint
 10
220.8109566398878
 20
101.7915278916696
 30
0.0
  0
POINT
  5
2E27
330
2877
100
AcDbEntity
  8
DEFPOINTS
 62
     0
100
AcDbPoint
 10
220.8109566398878
 20
142.2982436964134
 30
0.0
  0
ENDBLK
  5
2882
330
2877
100
AcDbEntity
  8
0
100
AcDbBlockEnd
  0
BLOCK
  5
288E
330
2884
100
AcDbEntity
  8
0
100
AcDbBlockBegin
  2
*D12
 70
     1
 10
0.0
 20
0.0
 30
0.0
  3
*D12
  1

  0
LINE
  5
2E28
330
2884
100
AcDbEntity
  8
SUNPOU
100
AcDbLine
 10
81.81066597988779
 20
93.38257322101016
 30
0.0
 11
81.81066597988779
 21
153.464341572409
 31
0.0
  0
LINE
  5
2E29
330
2884
100
AcDbEntity
  8
SUNPOU
100
AcDbLine
 10
220.8109566398878
 20
104.7915278916696
 30
0.0
 11
220.8109566398878
 21
153.464341572409
 31
0.0
  0
LINE
  5
2E2A
330
2884
100
AcDbEntity
  8
SUNPOU
100
AcDbLine
 10
84.8106659798878
 20
151.964341572409
 30
0.0
 11
217.8109566398878
 21
151.964341572409
 31
0.0
  0
INSERT
  5
2E2B
330
2884
100
AcDbEntity
  8
SUNPOU
100
AcDbBlockReference
  2
_OPEN
 10
81.81066597988779
 20
151.964341572409
 30
0.0
 41
3.0
 42
3.0
 43
3.0
 50
180.0
  0
INSERT
  5
2E2C
330
2884
100
AcDbEntity
  8
SUNPOU
100
AcDbBlockReference
  2
_OPEN
 10
220.8109566398878
 20
151.964341572409
 30
0.0
 41
3.0
 42
3.0
 43
3.0
  0
MTEXT
  5
2E2D
330
2884
100
AcDbEntity
  8
SUNPOU
100
AcDbMText
 10
151.3108113098878
 20
154.464341572409
 30
0.0
 40
3.0
 41
0.0
 71
     5
 72
     5
  1
\A1;139
1001
ACAD
1000
MTEXTBEGIN
1070
    73
1070
     1
1070
    44
1040
1.0
1070
    74
1070
     0
1000
MTEXTEND
1000
MTEXTBEGIN
1070
    73
1070
     1
1070
    44
1040
1.0
1070
    74
1070
     0
1000
MTEXTEND
1000
MTEXTBEGIN
1070
    73
1070
     1
1070
    44
1040
1.0
1070
    74
1070
     0
1000
MTEXTEND
  0
POINT
  5
2E2E
330
2884
100
AcDbEntity
  8
DEFPOINTS
 62
     0
100
AcDbPoint
 10
81.81066597988779
 20
90.38257322101015
 30
0.0
  0
POINT
  5
2E2F
330
2884
100
AcDbEntity
  8
DEFPOINTS
 62
     0
100
AcDbPoint
 10
220.8109566398878
 20
101.7915278916696
 30
0.0
  0
POINT
  5
2E30
330
2884
100
AcDbEntity
  8
DEFPOINTS
 62
     0
100
AcDbPoint
 10
220.8109566398878
 20
151.964341572409
 30
0.0
  0
ENDBLK
  5
288F
330
2884
100
AcDbEntity
  8
0
100
AcDbBlockEnd
  0
BLOCK
  5
2D4F
330
2D45
100
AcDbEntity
  8
0
100
AcDbBlockBegin
  2
*D13
 70
     1
 10
0.0
 20
0.0
 30
0.0
  3
*D13
  1

  0
LINE
  5
2E31
330
2D45
100
AcDbEntity
  8
SUNPOU
100
AcDbLine
 10
78.8106659798878
 20
90.84800260166968
 30
0.0
 11
53.47985321155009
 21
90.84800260166968
 31
0.0
  0
LINE
  5
2E32
330
2D45
100
AcDbEntity
  8
SUNPOU
100
AcDbLine
 10
211.2109565998878
 20
66.79152788666967
 30
0.0
 11
53.47985321155009
 21
66.79152788666971
 31
0.0
  0
LINE
  5
2E33
330
2D45
100
AcDbEntity
  8
SUNPOU
100
AcDbLine
 10
54.9798532115501
 20
87.84800260166967
 30
0.0
 11
54.97985321155009
 21
69.79152788666971
 31
0.0
  0
INSERT
  5
2E34
330
2D45
100
AcDbEntity
  8
SUNPOU
100
AcDbBlockReference
  2
_OPEN
 10
54.9798532115501
 20
90.84800260166968
 30
0.0
 41
3.0
 42
3.0
 43
3.0
 50
90.0
  0
INSERT
  5
2E35
330
2D45
100
AcDbEntity
  8
SUNPOU
100
AcDbBlockReference
  2
_OPEN
 10
54.97985321155009
 20
66.79152788666971
 30
0.0
 41
3.0
 42
3.0
 43
3.0
 50
270.0
  0
MTEXT
  5
2E36
330
2D45
100
AcDbEntity
  8
SUNPOU
100
AcDbMText
 10
52.47985321155008
 20
78.8197652441697
 30
0.0
 40
3.0
 41
0.0
 71
     5
 72
     5
  1
\A1;24
 11
0.0000000000000001
 21
1.0
 31
0.0
1001
ACAD
1000
MTEXTBEGIN
1070
    73
1070
     1
1070
    44
1040
1.0
1070
    74
1070
     0
1000
MTEXTEND
1000
MTEXTBEGIN
1070
    73
1070
     1
1070
    44
1040
1.0
1070
    74
1070
     0
1000
MTEXTEND
1000
MTEXTBEGIN
1070
    73
1070
     1
1070
    44
1040
1.0
1070
    74
1070
     0
1000
MTEXTEND
  0
POINT
  5
2E37
330
2D45
100
AcDbEntity
  8
DEFPOINTS
 62
     0
100
AcDbPoint
 10
81.81066597988779
 20
90.84800260166968
 30
0.0
  0
POINT
  5
2E38
330
2D45
100
AcDbEntity
  8
DEFPOINTS
 62
     0
100
AcDbPoint
 10
214.2109565998878
 20
66.79152788666967
 30
0.0
  0
POINT
  5
2E39
330
2D45
100
AcDbEntity
  8
DEFPOINTS
 62
     0
100
AcDbPoint
 10
54.97985321155009
 20
66.79152788666971
 30
0.0
  0
ENDBLK
  5
2D50
330
2D45
100
AcDbEntity
  8
0
100
AcDbBlockEnd
  0
ENDSEC
  0
SECTION
  2
ENTITIES
  0
TEXT
  5
9D
330
1A
100
AcDbEntity
  8
ZUWAKU
 48
5.0
100
AcDbText
 10
327.1013476411085
 20
8.060146781246267
 30
0.0
 40
4.0
  1

100
AcDbText
  0
ARC
  5
5A7
330
1A
100
AcDbEntity
  8
NOKITOI
  6
PHANTOM
 62
     8
100
AcDbCircle
 10
130.1476924766582
 20
84.94101707803972
 30
0.0
 40
43.00001447645168
100
AcDbArc
 50
186.5249107071177
 51
269.9998883751437
  0
ARC
  5
5A8
330
1A
100
AcDbEntity
  8
NOKITOI
  6
PHANTOM
 62
     8
100
AcDbCircle
 10
130.1477147850835
 20
84.94099697701333
 30
0.0
 40
41.79999437547816
100
AcDbArc
 50
184.4742952125247
 51
269.999854592109
  0
LINE
  5
5A9
330
1A
100
AcDbEntity
  8
NOKITOI
  6
PHANTOM
 62
     8
100
AcDbLine
 10
79.9367087031153
 20
84.07860260166964
 30
0.0
 11
79.85120870311561
 21
86.8161026016696
 31
0.0
  0
LINE
  5
5AA
330
1A
100
AcDbEntity
  8
NOKITOI
  6
PHANTOM
 62
     8
100
AcDbLine
 10
78.39860870311554
 20
94.87850260166963
 30
0.0
 11
78.78880870311537
 21
82.39420260166955
 31
0.0
  0
LINE
  5
5AB
330
1A
100
AcDbEntity
  8
NOKITOI
  6
PHANTOM
 62
     8
100
AcDbLine
 10
87.97660870311597
 20
82.14100260166967
 30
0.0
 11
81.93570870311555
 21
82.14100260166967
 31
0.0
  0
ARC
  5
5AC
330
1A
100
AcDbEntity
  8
NOKITOI
  6
PHANTOM
 62
     8
100
AcDbCircle
 10
86.43270027895301
 20
79.94101011672611
 30
0.0
 40
0.9999924849789756
100
AcDbArc
 50
6.528264606673934
 51
89.99951732740965
  0
LINE
  5
5AD
330
1A
100
AcDbEntity
  8
NOKITOI
  6
PHANTOM
 62
     8
100
AcDbLine
 10
80.28800870311556
 20
80.94100260166962
 30
0.0
 11
86.43270870311539
 21
80.94100260166962
 31
0.0
  0
ARC
  5
5AE
330
1A
100
AcDbEntity
  8
NOKITOI
  6
PHANTOM
 62
     8
100
AcDbCircle
 10
81.93572227525397
 20
84.14098944658324
 30
0.0
 40
1.999986844959662
100
AcDbArc
 50
181.7875531852356
 51
269.9996111843215
  0
ARC
  5
5AF
330
1A
100
AcDbEntity
  8
NOKITOI
  6
PHANTOM
 62
     8
100
AcDbCircle
 10
80.28804466226644
 20
82.44096774752639
 30
0.0
 40
1.499965146287778
100
AcDbArc
 50
181.7866280217767
 51
269.9986264296971
  0
ARC
  5
5B0
330
1A
100
AcDbEntity
  8
NOKITOI
  6
PHANTOM
 62
     8
100
AcDbCircle
 10
87.97662127282388
 20
81.64099097693995
 30
0.0
 40
0.5000116248877111
100
AcDbArc
 50
4.474846808342103
 51
90.00144034898383
  0
ARC
  5
5B1
330
1A
100
AcDbEntity
  8
NOKITOI
  6
PHANTOM
 62
     8
100
AcDbCircle
 10
80.39762145396549
 20
94.94101575675605
 30
0.0
 40
1.999986844954076
100
AcDbArc
 50
90.00036528735451
 51
181.7883072882703
  0
LINE
  5
5B2
330
1A
100
AcDbEntity
  8
NOKITOI
  6
PHANTOM
 62
     8
100
AcDbLine
 10
86.67550870311538
 20
94.44100260166962
 30
0.0
 11
84.44400870311552
 21
94.44100260166962
 31
0.0
  0
ARC
  5
5B3
330
1A
100
AcDbEntity
  8
NOKITOI
  6
PHANTOM
 62
     8
100
AcDbCircle
 10
86.3597018161206
 20
87.94099606658411
 30
0.0
 40
0.499993464961963
100
AcDbArc
 50
270.0007892017869
 51
356.997036131742
  0
LINE
  5
5B4
330
1A
100
AcDbEntity
  8
NOKITOI
  6
PHANTOM
 62
     8
100
AcDbLine
 10
85.69560870311557
 20
88.64100260166967
 30
0.0
 11
85.87680870311556
 21
92.0825026016698
 31
0.0
  0
LINE
  5
5B5
330
1A
100
AcDbEntity
  8
NOKITOI
  6
PHANTOM
 62
     8
100
AcDbLine
 10
85.32180870311572
 20
91.46940260166955
 30
0.0
 11
85.87680870311556
 21
92.0825026016698
 31
0.0
  0
ARC
  5
5B6
330
1A
100
AcDbEntity
  8
NOKITOI
  6
PHANTOM
 62
     8
100
AcDbCircle
 10
83.84932891578477
 20
86.94106133004968
 30
0.0
 40
5.2000412730095
100
AcDbArc
 50
90.0013245430618
 51
142.0757990790548
  0
LINE
  5
5B7
330
1A
100
AcDbEntity
  8
NOKITOI
  6
PHANTOM
 62
     8
100
AcDbLine
 10
79.59800870311596
 20
94.91600260166952
 30
0.0
 11
79.7474087031153
 21
90.13710260166973
 31
0.0
  0
ARC
  5
5B8
330
1A
100
AcDbEntity
  8
NOKITOI
  6
PHANTOM
 62
     8
100
AcDbCircle
 10
83.84924658456226
 20
86.94104638419501
 30
0.0
 40
3.999989731271038
100
AcDbArc
 50
96.47731142013116
 51
181.7899836067311
  0
ARC
  5
5B9
330
1A
100
AcDbEntity
  8
NOKITOI
  6
PHANTOM
 62
     8
100
AcDbCircle
 10
83.45442292153098
 20
90.41868796736864
 30
0.0
 40
0.5000073448410256
100
AcDbArc
 50
351.872947864124
 51
96.47829282996921
  0
LINE
  5
5BA
330
1A
100
AcDbEntity
  8
NOKITOI
  6
PHANTOM
 62
     8
100
AcDbLine
 10
84.91770870311597
 20
88.64100260166967
 30
0.0
 11
85.32180870311572
 21
91.46940260166955
 31
0.0
  0
LINE
  5
5BB
330
1A
100
AcDbEntity
  8
NOKITOI
  6
PHANTOM
 62
     8
100
AcDbLine
 10
85.69560870311557
 20
88.64100260166967
 30
0.0
 11
84.91770870311597
 21
88.64100260166967
 31
0.0
  0
ARC
  5
5BC
330
1A
100
AcDbEntity
  8
NOKITOI
  6
PHANTOM
 62
     8
100
AcDbCircle
 10
84.11063530371325
 20
87.94097192478758
 30
0.0
 40
0.4999693238254178
100
AcDbArc
 50
171.8555038770531
 51
269.9969516090356
  0
LINE
  5
5BD
330
1A
100
AcDbEntity
  8
NOKITOI
  6
PHANTOM
 62
     8
100
AcDbLine
 10
86.35970870311552
 20
87.44100260166963
 30
0.0
 11
84.11060870311553
 21
87.44100260166963
 31
0.0
  0
LINE
  5
5BE
330
1A
100
AcDbEntity
  8
NOKITOI
  6
PHANTOM
 62
     8
100
AcDbLine
 10
83.61570870311538
 20
88.01180260166981
 30
0.0
 11
83.94940870311552
 21
90.34800260166978
 31
0.0
  0
LINE
  5
5BF
330
1A
100
AcDbEntity
  8
NOKITOI
  6
PHANTOM
 62
     8
100
AcDbLine
 10
82.8704087031158
 20
95.7410026016698
 30
0.0
 11
82.37040870311579
 21
93.2410026016698
 31
0.0
  0
LINE
  5
5C0
330
1A
100
AcDbEntity
  8
NOKITOI
  6
PHANTOM
 62
     8
100
AcDbLine
 10
82.37040870311579
 20
93.2410026016698
 30
0.0
 11
85.30690870311559
 21
93.2410026016698
 31
0.0
  0
LINE
  5
5C1
330
1A
100
AcDbEntity
  8
NOKITOI
  6
PHANTOM
 62
     8
100
AcDbLine
 10
80.39760870311534
 20
96.94100260166962
 30
0.0
 11
83.72420870311566
 21
96.94100260166962
 31
0.0
  0
LINE
  5
5C2
330
1A
100
AcDbEntity
  8
NOKITOI
  6
PHANTOM
 62
     8
100
AcDbLine
 10
80.39760870311534
 20
95.7410026016698
 30
0.0
 11
82.8704087031158
 21
95.7410026016698
 31
0.0
  0
ARC
  5
5C3
330
1A
100
AcDbEntity
  8
NOKITOI
  6
PHANTOM
 62
     8
100
AcDbCircle
 10
80.39761319791365
 20
94.94100723919652
 30
0.0
 40
0.7999953624857498
100
AcDbArc
 50
90.00032191805264
 51
181.7911273464193
  0
ARC
  5
5C4
330
1A
100
AcDbEntity
  8
NOKITOI
  6
PHANTOM
 62
     8
100
AcDbCircle
 10
83.72420792010712
 20
96.44100355667134
 30
0.0
 40
0.4999990449987349
100
AcDbArc
 50
348.6967198015447
 51
89.99991027369492
  0
ARC
  5
5C5
330
1A
100
AcDbEntity
  8
NOKITOI
  6
PHANTOM
 62
     8
100
AcDbCircle
 10
84.44400144856013
 20
94.94101145151304
 30
0.0
 40
0.5000088498959383
100
AcDbArc
 50
168.6864043304892
 51
270.0008312961442
  0
LINE
  5
5C6
330
1A
100
AcDbEntity
  8
NOKITOI
  6
PHANTOM
 62
     8
100
AcDbLine
 10
83.95370870311557
 20
95.03910260166955
 30
0.0
 11
84.21450870311559
 21
96.34300260166966
 31
0.0
  0
LINE
  5
5C7
330
1A
100
AcDbEntity
  8
NOKITOI
  6
PHANTOM
 62
     8
100
AcDbLine
 10
84.3111087031159
 20
92.14100260166967
 30
0.0
 11
83.84920870311566
 21
92.14100260166967
 31
0.0
  0
LINE
  5
5C8
330
1A
100
AcDbEntity
  8
NOKITOI
  6
PHANTOM
 62
     8
100
AcDbLine
 10
84.3111087031159
 20
92.14100260166967
 30
0.0
 11
85.30690870311559
 21
93.2410026016698
 31
0.0
  0
LINE
  5
5C9
330
1A
100
AcDbEntity
  8
NOKITOI
  6
PHANTOM
 62
     8
100
AcDbLine
 10
86.85910870311568
 20
87.91480260166961
 30
0.0
 11
87.17490870311554
 21
93.91470260166963
 31
0.0
  0
ARC
  5
5CA
330
1A
100
AcDbEntity
  8
NOKITOI
  6
PHANTOM
 62
     8
100
AcDbCircle
 10
86.67550250195768
 20
93.9410091367549
 30
0.0
 40
0.4999934649531607
100
AcDbArc
 50
356.9955363203376
 51
89.99928939038076
  0
LINE
  5
5CB
330
1A
100
AcDbEntity
  8
NOKITOI
  6
PHANTOM
 62
     8
100
AcDbLine
 10
170.9771087031155
 20
41.94090260166965
 30
0.0
 11
150.8192087031158
 21
41.94090260166965
 31
0.0
  0
LINE
  5
5CC
330
1A
100
AcDbEntity
  8
NOKITOI
  6
PHANTOM
 62
     8
100
AcDbLine
 10
170.7273087031155
 20
43.14090260166969
 30
0.0
 11
150.8192087031158
 21
43.14090260166969
 31
0.0
  0
LINE
  5
5CD
330
1A
100
AcDbEntity
  8
NOKITOI
  6
PHANTOM
 62
     8
100
AcDbLine
 10
174.9771087031156
 20
41.94090260166965
 30
0.0
 11
130.1477087031155
 21
41.94100260166962
 31
0.0
  0
LINE
  5
5CE
330
1A
100
AcDbEntity
  8
NOKITOI
  6
PHANTOM
 62
     8
100
AcDbLine
 10
130.1477087031155
 20
43.14100260166966
 30
0.0
 11
174.7273087031155
 21
43.14090260166969
 31
0.0
  0
LINE
  5
5CF
330
1A
100
AcDbEntity
  8
NOKITOI
  6
PHANTOM
 62
     8
100
AcDbLine
 10
196.7316087031156
 20
84.07840260166969
 30
0.0
 11
196.8171087031152
 21
86.81600260166963
 31
0.0
  0
LINE
  5
5D0
330
1A
100
AcDbEntity
  8
NOKITOI
  6
PHANTOM
 62
     8
100
AcDbLine
 10
198.2696087031156
 20
94.87850260166963
 30
0.0
 11
197.8795087031155
 21
82.39410260166957
 31
0.0
  0
LINE
  5
5D1
330
1A
100
AcDbEntity
  8
NOKITOI
  6
PHANTOM
 62
     8
100
AcDbLine
 10
196.3802087031155
 20
80.94100260166962
 30
0.0
 11
190.2391087031157
 21
80.94100260166962
 31
0.0
  0
LINE
  5
5D2
330
1A
100
AcDbEntity
  8
NOKITOI
  6
PHANTOM
 62
     8
100
AcDbLine
 10
188.7006087031151
 20
82.14100260166967
 30
0.0
 11
194.7325087031155
 21
82.14100260166967
 31
0.0
  0
LINE
  5
5D3
330
1A
100
AcDbEntity
  8
NOKITOI
  6
PHANTOM
 62
     8
100
AcDbLine
 10
189.2441087031158
 20
80.04050260166966
 30
0.0
 11
186.3753087031156
 21
51.35310260166964
 31
0.0
  0
LINE
  5
5D4
330
1A
100
AcDbEntity
  8
NOKITOI
  6
PHANTOM
 62
     8
100
AcDbLine
 10
188.2031087031156
 20
81.69080260166968
 30
0.0
 11
185.2101087031153
 21
51.76100260166956
 31
0.0
  0
LINE
  5
5D5
330
1A
100
AcDbEntity
  8
NOKITOI
  6
PHANTOM
 62
     8
100
AcDbLine
 10
186.0135087031155
 20
50.67860260166978
 30
0.0
 11
175.6104087031155
 21
42.16690260166976
 31
0.0
  0
LINE
  5
5D6
330
1A
100
AcDbEntity
  8
NOKITOI
  6
PHANTOM
 62
     8
100
AcDbLine
 10
185.0292087031159
 20
51.42370260166964
 30
0.0
 11
175.0439087031156
 21
43.25390260166952
 31
0.0
  0
ARC
  5
5D7
330
1A
100
AcDbEntity
  8
NOKITOI
  6
PHANTOM
 62
     8
100
AcDbCircle
 10
174.9771017705381
 20
42.94090012666353
 30
0.0
 40
0.9999975250179316
100
AcDbArc
 50
270.0003972084035
 51
309.2946416752299
  0
ARC
  5
5D8
330
1A
100
AcDbEntity
  8
NOKITOI
  6
PHANTOM
 62
     8
100
AcDbCircle
 10
174.7273150908642
 20
43.64090488165922
 30
0.0
 40
0.5000022800304047
100
AcDbArc
 50
269.9992680212791
 51
309.2854498596061
  0
ARC
  5
5D9
330
1A
100
AcDbEntity
  8
NOKITOI
  6
PHANTOM
 62
     8
100
AcDbCircle
 10
185.3802861302467
 20
51.45256052999704
 30
0.0
 40
0.9999908507640039
100
AcDbArc
 50
309.288709223069
 51
354.2862329477532
  0
ARC
  5
5DA
330
1A
100
AcDbEntity
  8
NOKITOI
  6
PHANTOM
 62
     8
100
AcDbCircle
 10
184.7125912772373
 20
51.81067011528168
 30
0.0
 40
0.4999904508696396
100
AcDbArc
 50
309.2900846377951
 51
354.2990110749239
  0
ARC
  5
5DB
330
1A
100
AcDbEntity
  8
NOKITOI
  6
PHANTOM
 62
     8
100
AcDbCircle
 10
190.2391293529564
 20
79.94102128951883
 30
0.0
 40
0.9999813123640345
100
AcDbArc
 50
90.00118317084911
 51
174.2905900333514
  0
ARC
  5
5DC
330
1A
100
AcDbEntity
  8
NOKITOI
  6
PHANTOM
 62
     8
100
AcDbCircle
 10
188.7006217741202
 20
81.64101443194951
 30
0.0
 40
0.499988169890889
100
AcDbArc
 50
90.00149786226634
 51
174.2966061377162
  0
ARC
  5
5DD
330
1A
100
AcDbEntity
  8
NOKITOI
  6
PHANTOM
 62
     8
100
AcDbCircle
 10
196.3802259162937
 20
82.44101928481743
 30
0.0
 40
1.500016683246579
100
AcDbArc
 50
269.9993425123344
 51
358.2076423244113
  0
ARC
  5
5DE
330
1A
100
AcDbEntity
  8
NOKITOI
  6
PHANTOM
 62
     8
100
AcDbCircle
 10
194.7325466909398
 20
84.14093942224187
 30
0.0
 40
2.000036820932882
100
AcDbArc
 50
269.9989117490344
 51
358.2110591274195
  0
LINE
  5
5DF
330
1A
100
AcDbEntity
  8
NOKITOI
  6
PHANTOM
 62
     8
100
AcDbLine
 10
196.2706087031158
 20
96.94090260166966
 30
0.0
 11
192.9440087031155
 21
96.94100260166962
 31
0.0
  0
LINE
  5
5E0
330
1A
100
AcDbEntity
  8
NOKITOI
  6
PHANTOM
 62
     8
100
AcDbLine
 10
194.2979087031155
 20
93.2410026016698
 30
0.0
 11
191.3613087031155
 21
93.2410026016698
 31
0.0
  0
ARC
  5
5E1
330
1A
100
AcDbEntity
  8
NOKITOI
  6
PHANTOM
 62
     8
100
AcDbCircle
 10
193.2138380756152
 20
90.41863283416452
 30
0.0
 40
0.4999578477751074
100
AcDbArc
 50
83.52609071220754
 51
188.1330561712932
  0
ARC
  5
5E2
330
1A
100
AcDbEntity
  8
NOKITOI
  6
PHANTOM
 62
     8
100
AcDbCircle
 10
192.8190908367643
 20
86.94101133004958
 30
0.0
 40
5.199991271650611
100
AcDbArc
 50
37.92532860472995
 51
89.9998031407256
  0
LINE
  5
5E3
330
1A
100
AcDbEntity
  8
NOKITOI
  6
PHANTOM
 62
     8
100
AcDbLine
 10
190.9726087031155
 20
88.64100260166967
 30
0.0
 11
190.7915087031153
 21
92.08240260166959
 31
0.0
  0
LINE
  5
5E4
330
1A
100
AcDbEntity
  8
NOKITOI
  6
PHANTOM
 62
     8
100
AcDbLine
 10
191.3465087031156
 20
91.46940260166955
 30
0.0
 11
190.7915087031153
 21
92.08240260166959
 31
0.0
  0
LINE
  5
5E5
330
1A
100
AcDbEntity
  8
NOKITOI
  6
PHANTOM
 62
     8
100
AcDbLine
 10
189.8092087031156
 20
87.91470260166963
 30
0.0
 11
189.4934087031153
 21
93.91470260166963
 31
0.0
  0
LINE
  5
5E6
330
1A
100
AcDbEntity
  8
NOKITOI
  6
PHANTOM
 62
     8
100
AcDbLine
 10
191.7505087031151
 20
88.64100260166967
 30
0.0
 11
191.3465087031156
 21
91.46940260166955
 31
0.0
  0
LINE
  5
5E7
330
1A
100
AcDbEntity
  8
NOKITOI
  6
PHANTOM
 62
     8
100
AcDbLine
 10
190.9726087031155
 20
88.64100260166967
 30
0.0
 11
191.7505087031151
 21
88.64100260166967
 31
0.0
  0
LINE
  5
5E8
330
1A
100
AcDbEntity
  8
NOKITOI
  6
PHANTOM
 62
     8
100
AcDbLine
 10
190.3085087031156
 20
87.44100260166963
 30
0.0
 11
192.5576087031151
 21
87.44100260166963
 31
0.0
  0
ARC
  5
5E9
330
1A
100
AcDbEntity
  8
NOKITOI
  6
PHANTOM
 62
     8
100
AcDbCircle
 10
190.3085128245222
 20
87.94099869163913
 30
0.0
 40
0.4999960899864752
100
AcDbArc
 50
183.0147243791741
 51
269.9995277178593
  0
ARC
  5
5EA
330
1A
100
AcDbEntity
  8
NOKITOI
  6
PHANTOM
 62
     8
100
AcDbCircle
 10
192.5576188895517
 20
87.94101434639376
 30
0.0
 40
0.5000117448278309
100
AcDbArc
 50
269.9988327478016
 51
8.127314608715551
  0
LINE
  5
5EB
330
1A
100
AcDbEntity
  8
NOKITOI
  6
PHANTOM
 62
     8
100
AcDbLine
 10
193.0526087031155
 20
88.0117026016696
 30
0.0
 11
192.7188087031156
 21
90.3479026016698
 31
0.0
  0
LINE
  5
5EC
330
1A
100
AcDbEntity
  8
NOKITOI
  6
PHANTOM
 62
     8
100
AcDbLine
 10
189.9927087031157
 20
94.44100260166962
 30
0.0
 11
192.2242087031156
 21
94.44100260166962
 31
0.0
  0
ARC
  5
5ED
330
1A
100
AcDbEntity
  8
NOKITOI
  6
PHANTOM
 62
     8
100
AcDbCircle
 10
189.9927124126108
 20
93.94100651170035
 30
0.0
 40
0.4999960899831856
100
AcDbArc
 50
90.00042508015082
 51
183.0156217414647
  0
ARC
  5
5EE
330
1A
100
AcDbEntity
  8
NOKITOI
  6
PHANTOM
 62
     8
100
AcDbCircle
 10
192.94400144856
 20
96.44099375182619
 30
0.0
 40
0.500008849895925
100
AcDbArc
 50
89.99916870385415
 51
191.3135956695126
  0
ARC
  5
5EF
330
1A
100
AcDbEntity
  8
NOKITOI
  6
PHANTOM
 62
     8
100
AcDbCircle
 10
192.2242079201071
 20
94.94100164666789
 30
0.0
 40
0.4999990449987399
100
AcDbArc
 50
270.000089726305
 51
11.30328019845521
  0
LINE
  5
5F0
330
1A
100
AcDbEntity
  8
NOKITOI
  6
PHANTOM
 62
     8
100
AcDbLine
 10
192.7145087031155
 20
95.03900260166981
 30
0.0
 11
192.4537087031155
 21
96.34300260166966
 31
0.0
  0
LINE
  5
5F1
330
1A
100
AcDbEntity
  8
NOKITOI
  6
PHANTOM
 62
     8
100
AcDbLine
 10
192.3571087031157
 20
92.14100260166967
 30
0.0
 11
192.8191087031157
 21
92.14100260166967
 31
0.0
  0
LINE
  5
5F2
330
1A
100
AcDbEntity
  8
NOKITOI
  6
PHANTOM
 62
     8
100
AcDbLine
 10
192.3571087031157
 20
92.14100260166967
 30
0.0
 11
191.3613087031155
 21
93.2410026016698
 31
0.0
  0
LINE
  5
5F3
330
1A
100
AcDbEntity
  8
NOKITOI
  6
PHANTOM
 62
     8
100
AcDbLine
 10
197.0702087031151
 20
94.91600260166952
 30
0.0
 11
196.9209087031156
 21
90.13700260166976
 31
0.0
  0
ARC
  5
5F4
330
1A
100
AcDbEntity
  8
NOKITOI
  6
PHANTOM
 62
     8
100
AcDbCircle
 10
192.8190777761794
 20
86.94103834633343
 30
0.0
 40
3.99998565374706
100
AcDbArc
 50
358.208696659101
 51
83.52422380468341
  0
ARC
  5
5F5
330
1A
100
AcDbEntity
  8
NOKITOI
  6
PHANTOM
 62
     8
100
AcDbCircle
 10
196.2705974661214
 20
94.94101419548675
 30
0.0
 40
1.999988406214315
100
AcDbArc
 50
358.2088726535936
 51
89.99967808195551
  0
LINE
  5
5F6
330
1A
100
AcDbEntity
  8
NOKITOI
  6
PHANTOM
 62
     8
100
AcDbLine
 10
196.2706087031158
 20
95.74090260166959
 30
0.0
 11
193.7979087031155
 21
95.7410026016698
 31
0.0
  0
LINE
  5
5F7
330
1A
100
AcDbEntity
  8
NOKITOI
  6
PHANTOM
 62
     8
100
AcDbLine
 10
193.7979087031155
 20
95.7410026016698
 30
0.0
 11
194.2979087031155
 21
93.2410026016698
 31
0.0
  0
ARC
  5
5F8
330
1A
100
AcDbEntity
  8
NOKITOI
  6
PHANTOM
 62
     8
100
AcDbCircle
 10
196.2706526694685
 20
94.94095723919665
 30
0.0
 40
0.7999453636812564
100
AcDbArc
 50
358.2123436447881
 51
90.00314907315425
  0
LINE
  5
1D19
330
1A
100
AcDbEntity
  8
SEIHIN
100
AcDbLine
 10
157.5253846231031
 20
91.73378904482936
 30
0.0
 11
170.3128711798878
 21
104.5212757016697
 31
0.0
  0
ARC
  5
1D1B
330
1A
100
AcDbEntity
  8
SEIHIN
100
AcDbCircle
 10
156.8253845798878
 20
91.94800260166969
 30
0.0
 40
5.500000002456481
100
AcDbArc
 50
270.0
 51
315.0
  0
LINE
  5
1D1E
330
1A
100
AcDbEntity
  8
SEIHIN
100
AcDbLine
 10
91.71423917988784
 20
78.84800260166968
 30
0.0
 11
160.1390930798878
 21
78.84800260166968
 31
0.0
  0
LINE
  5
1D23
330
1A
100
AcDbEntity
  8
SEIHIN
100
AcDbLine
 10
156.8182778015232
 20
92.44089582324951
 30
0.0
 11
169.6057643798878
 21
105.2283825016696
 31
0.0
  0
LINE
  5
1D24
330
1A
100
AcDbEntity
  8
CENTER_L
100
AcDbLine
 10
144.3106659798877
 20
101.338605475777
 30
0.0
 11
144.3106659798877
 21
76.39958802379474
 31
0.0
  0
LINE
  5
1D2A
330
1A
100
AcDbEntity
  8
SEIHIN
100
AcDbLine
 10
134.3106659798878
 20
92.1480026016697
 30
0.0
 11
134.3106659798878
 21
86.6480026016697
 31
0.0
  0
LINE
  5
1D2C
330
1A
100
AcDbEntity
  8
SEIHIN
100
AcDbLine
 10
84.11066597988781
 20
86.4480026016697
 30
0.0
 11
156.8255489616313
 21
86.4480026016697
 31
0.0
  0
ARC
  5
1D41
330
1A
100
AcDbEntity
  8
SEIHIN
100
AcDbCircle
 10
91.71423917988784
 20
80.44800260166971
 30
0.0
 40
1.599999992064534
100
AcDbArc
 50
185.0000004668387
 51
270.0
  0
LINE
  5
1D42
330
1A
100
AcDbEntity
  8
SEIHIN
100
AcDbLine
 10
84.91066597988776
 20
83.84800260166967
 30
0.0
 11
89.8106659798878
 21
83.84800260166967
 31
0.0
  0
ARC
  5
1D43
330
1A
100
AcDbEntity
  8
SEIHIN
100
AcDbCircle
 10
84.91066597988776
 20
86.94800260166969
 30
0.0
 40
3.100000000000008
100
AcDbArc
 50
180.0
 51
270.0
  0
LINE
  5
1D44
330
1A
100
AcDbEntity
  8
SEIHIN
100
AcDbLine
 10
81.81066597988779
 20
90.84800260166968
 30
0.0
 11
83.61066597988781
 21
90.84800260166968
 31
0.0
  0
ARC
  5
1D45
330
1A
100
AcDbEntity
  8
SEIHIN
100
AcDbCircle
 10
84.11066597988781
 20
86.94800260166969
 30
0.0
 40
0.5
100
AcDbArc
 50
180.0
 51
270.0
  0
LINE
  5
1D46
330
1A
100
AcDbEntity
  8
SEIHIN
100
AcDbLine
 10
81.81066597988779
 20
90.84800260166968
 30
0.0
 11
81.81066597988779
 21
86.94800260166969
 31
0.0
  0
LINE
  5
1D47
330
1A
100
AcDbEntity
  8
SEIHIN
100
AcDbLine
 10
83.61066597988781
 20
90.84800260166968
 30
0.0
 11
83.61066597988781
 21
86.94800260166969
 31
0.0
  0
LINE
  5
1D48
330
1A
100
AcDbEntity
  8
SEIHIN
100
AcDbLine
 10
90.12032767988779
 20
80.3085534016697
 30
0.0
 11
89.58319544012136
 21
86.44800260166968
 31
0.0
  0
LINE
  5
1D4B
330
1A
100
AcDbEntity
  8
SEIHIN
100
AcDbLine
 10
134.3106659798878
 20
91.14800260166971
 30
0.0
 11
156.1111710551972
 21
91.14800260166971
 31
0.0
  0
LINE
  5
1D4D
330
1A
100
AcDbEntity
  8
SEIHIN
100
AcDbLine
 10
134.3106659798878
 20
86.4480026016697
 30
0.0
 11
156.8253845798878
 21
86.4480026016697
 31
0.0
  0
ARC
  5
1D5C
330
1A
100
AcDbEntity
  8
SEIHIN
100
AcDbCircle
 10
144.3106659798877
 20
86.2573776016697
 30
0.0
 40
7.890625
100
AcDbArc
 50
48.29108392084388
 51
131.708916079156
  0
LINE
  5
1D5D
330
1A
100
AcDbEntity
  8
SEIHIN
100
AcDbLine
 10
134.3106659798878
 20
92.1480026016697
 30
0.0
 11
156.1111710175703
 21
92.14800260166969
 31
0.0
  0
LINE
  5
1D60
330
1A
100
AcDbEntity
  8
CENTER_L
100
AcDbLine
 10
311.8653267912297
 20
117.141300588573
 30
0.0
 11
311.8653267912297
 21
58.18440262695727
 31
0.0
  0
LINE
  5
1D61
330
1A
100
AcDbEntity
  8
SEIHIN
100
AcDbLine
 10
321.8653267912297
 20
109.9390831364368
 30
0.0
 11
321.8653267912297
 21
66.79152788666967
 31
0.0
  0
LINE
  5
1D63
330
1A
100
AcDbEntity
  8
SEIHIN
100
AcDbLine
 10
307.8653267912296
 20
105.2678166989889
 30
0.0
 11
307.8653267912296
 21
110.3067111364368
 31
0.0
  0
LINE
  5
1D64
330
1A
100
AcDbEntity
  8
SEIHIN
100
AcDbLine
 10
315.8653267912297
 20
105.2678166989889
 30
0.0
 11
315.8653267912297
 21
110.3067111364368
 31
0.0
  0
LINE
  5
1D65
330
1A
100
AcDbEntity
  8
SEIHIN
100
AcDbLine
 10
203.8106659798878
 20
97.94800260166972
 30
0.0
 11
203.8106659798878
 21
80.92248492424152
 31
0.0
  0
LINE
  5
1D66
330
1A
100
AcDbEntity
  8
SEIHIN
100
AcDbLine
 10
301.8653267912298
 20
109.9390831364368
 30
0.0
 11
301.8653267912296
 21
66.79152788666967
 31
0.0
  0
LINE
  5
1D67
330
1A
100
AcDbEntity
  8
SEIHIN
100
AcDbLine
 10
200.2106659798878
 20
97.94800260166972
 30
0.0
 11
200.2106659798878
 21
80.9748927016697
 31
0.0
  0
LINE
  5
1D68
330
1A
100
AcDbEntity
  8
SEIHIN
100
AcDbLine
 10
202.8106659798877
 20
97.94800260166972
 30
0.0
 11
202.8106659798877
 21
80.9748927016697
 31
0.0
  0
LINE
  5
1D6C
330
1A
100
AcDbEntity
  8
SEIHIN
100
AcDbLine
 10
163.7453376798877
 20
80.34175800166968
 30
0.0
 11
178.1451676388765
 21
94.74158803789839
 31
0.0
  0
LINE
  5
1D6E
330
1A
100
AcDbEntity
  8
SEIHIN
100
AcDbLine
 10
160.7144718798878
 20
88.0589153016697
 30
0.0
 11
172.5450214748327
 21
99.88946489661465
 31
0.0
  0
LINE
  5
1D79
330
1A
100
AcDbEntity
  8
SEIHIN
100
AcDbLine
 10
174.7918922798878
 20
77.44292550166967
 30
0.0
 11
186.7349386798878
 21
83.26793840166969
 31
0.0
  0
LINE
  5
1D7A
330
1A
100
AcDbEntity
  8
SEIHIN
100
AcDbLine
 10
175.4494488798878
 20
76.09473430166968
 30
0.0
 11
186.7349386798878
 21
81.59903550166969
 31
0.0
  0
LINE
  5
1D7B
330
1A
100
AcDbEntity
  8
SEIHIN
100
AcDbLine
 10
174.6165438798878
 20
77.80244310166968
 30
0.0
 11
186.4595901798878
 21
83.57868270166967
 31
0.0
  0
LINE
  5
1D7D
330
1A
100
AcDbEntity
  8
SEIHIN
100
AcDbLine
 10
163.7341939309617
 20
80.33064859830799
 30
0.0
 11
172.8664807798878
 21
76.07219330166969
 31
0.0
  0
ARC
  5
1D7E
330
1A
100
AcDbEntity
  8
SEIHIN
100
AcDbCircle
 10
160.1390930798878
 20
83.9480026016697
 30
0.0
 40
5.100000011277387
100
AcDbArc
 50
270.0
 51
315.0
  0
LINE
  5
1D7F
330
1A
100
AcDbEntity
  8
SEIHIN
100
AcDbLine
 10
165.1639432555058
 20
81.76036358489714
 30
0.0
 11
173.6694555798877
 21
77.79417810166968
 31
0.0
  0
LINE
  5
1D80
330
1A
100
AcDbEntity
  8
SEIHIN
100
AcDbLine
 10
164.8629483458214
 20
81.45936867359809
 30
0.0
 11
173.5004082798878
 21
77.43165500166968
 31
0.0
  0
ARC
  5
1D81
330
1A
100
AcDbEntity
  8
SEIHIN
100
AcDbCircle
 10
174.1343356798878
 20
78.79111660166969
 30
0.0
 40
1.499999997384386
100
AcDbArc
 50
244.9999984438223
 51
295.9999936879063
  0
ARC
  5
1D83
330
1A
100
AcDbEntity
  8
SEIHIN
100
AcDbCircle
 10
174.1343356798878
 20
78.79111660166969
 30
0.0
 40
1.099999981342675
100
AcDbArc
 50
244.9999979823536
 51
295.9999960018844
  0
ARC
  5
1D84
330
1A
100
AcDbEntity
  8
SEIHIN
100
AcDbCircle
 10
174.1343356798878
 20
78.79111660166969
 30
0.0
 40
2.9999999920909
100
AcDbArc
 50
244.9999949819811
 51
295.999994525133
  0
ARC
  5
1D86
330
1A
100
AcDbEntity
  8
SEIHIN
100
AcDbCircle
 10
184.8061055798877
 20
87.2226322016697
 30
0.0
 40
4.400000010194002
100
AcDbArc
 50
296.0000006547247
 51
359.9999934891161
  0
ARC
  5
1D87
330
1A
100
AcDbEntity
  8
SEIHIN
100
AcDbCircle
 10
184.7061055798878
 20
87.17385890166967
 30
0.0
 40
4.000000009467725
100
AcDbArc
 50
296.0000000723986
 51
0.0
  0
LINE
  5
1D88
330
1A
100
AcDbEntity
  8
SEIHIN
100
AcDbLine
 10
189.2061055798878
 20
85.55372880166968
 30
0.0
 11
189.2061055798878
 21
89.68195940166969
 31
0.0
  0
ARC
  5
1D8A
330
1A
100
AcDbEntity
  8
SEIHIN
100
AcDbCircle
 10
184.8061055798877
 20
85.55372930166969
 30
0.0
 40
4.400000010194002
100
AcDbArc
 50
296.0000006547247
 51
359.9999934891161
  0
LINE
  5
1D8B
330
1A
100
AcDbEntity
  8
SEIHIN
100
AcDbLine
 10
188.7061055798877
 20
89.68195940166969
 30
0.0
 11
189.2061055798878
 21
89.68195940166969
 31
0.0
  0
LINE
  5
1D8C
330
1A
100
AcDbEntity
  8
SEIHIN
100
AcDbLine
 10
188.7061055798877
 20
87.17385890166967
 30
0.0
 11
188.7061055798877
 21
89.68195940166969
 31
0.0
  0
LINE
  5
1D92
330
1A
100
AcDbEntity
  8
SEIHIN
100
AcDbLine
 10
193.3202591798878
 20
80.81435430166969
 30
0.0
 11
193.1894193221548
 21
78.31778050469536
 31
0.0
  0
ARC
  5
1D93
330
1A
100
AcDbEntity
  8
SEIHIN
100
AcDbCircle
 10
199.8106659798878
 20
80.9748927016697
 30
0.0
 40
2.999999998689364
100
AcDbArc
 50
266.9999993993207
 51
0.0
  0
LINE
  5
1D94
330
1A
100
AcDbEntity
  8
SEIHIN
100
AcDbLine
 10
200.6536581088584
 20
77.92659632009836
 30
0.0
 11
193.1894193798878
 21
78.3177805016697
 31
0.0
  0
LINE
  5
1D96
330
1A
100
AcDbEntity
  8
SEIHIN
100
AcDbLine
 10
199.7897315798878
 20
80.57544090166969
 30
0.0
 11
193.3254927798878
 21
80.91421730166969
 31
0.0
  0
ARC
  5
1D97
330
1A
100
AcDbEntity
  8
SEIHIN
100
AcDbCircle
 10
199.8106659798878
 20
80.9748927016697
 30
0.0
 40
0.3999999935166316
100
AcDbArc
 50
266.999997392128
 51
0.0
  0
LINE
  5
1D9E
330
1A
100
AcDbEntity
  8
SEIHIN
100
AcDbLine
 10
301.8653267912298
 20
109.9390831364368
 30
0.0
 11
304.4653267912299
 21
109.9390831364368
 31
0.0
  0
LINE
  5
1DA6
330
1A
100
AcDbEntity
  8
SEIHIN
100
AcDbLine
 10
319.2653267912299
 20
109.9390831364368
 30
0.0
 11
321.8653267912298
 21
109.9390831364368
 31
0.0
  0
ARC
  5
1DA7
330
1A
100
AcDbEntity
  8
SEIHIN
100
AcDbCircle
 10
339.8653267912298
 20
98.79152788666967
 30
0.0
 40
3.0
100
AcDbArc
 50
0.0000019098594751
 51
90.0
  0
ARC
  5
1DA8
330
1A
100
AcDbEntity
  8
SEIHIN
100
AcDbCircle
 10
339.8653267912298
 20
69.79152788666967
 30
0.0
 40
3.000000000000003
100
AcDbArc
 50
270.0
 51
0.0000038197189503
  0
LINE
  5
1DAE
330
1A
100
AcDbEntity
  8
SEIHIN
100
AcDbLine
 10
198.0751541798878
 20
102.3847020016696
 30
0.0
 11
175.4913055798878
 21
101.2011327016696
 31
0.0
  0
LINE
  5
1DB3
330
1A
100
AcDbEntity
  8
SEIHIN
100
AcDbLine
 10
198.2112276798878
 20
99.78826520166968
 30
0.0
 11
183.8106659798878
 21
99.03356379151064
 31
0.0
  0
ARC
  5
1DB6
330
1A
100
AcDbEntity
  8
SEIHIN
100
AcDbCircle
 10
175.7268173798878
 20
96.70729980166971
 30
0.0
 40
4.499999985879004
100
AcDbArc
 50
92.99999996493296
 51
135.0
  0
ARC
  5
1DB8
330
1A
100
AcDbEntity
  8
SEIHIN
100
AcDbCircle
 10
174.2019586798878
 20
100.6321885016697
 30
0.0
 40
5.500000065643712
100
AcDbArc
 50
92.99999935063343
 51
135.0000022098678
  0
ARC
  5
1DB9
330
1A
100
AcDbEntity
  8
SEIHIN
100
AcDbCircle
 10
174.2019586798878
 20
100.6321885016697
 30
0.0
 40
6.500000024766264
100
AcDbArc
 50
92.99999897148103
 51
135.000002493184
  0
ARC
  5
1DBB
330
1A
100
AcDbEntity
  8
SEIHIN
100
AcDbCircle
 10
198.3106659798878
 20
97.8908691016697
 30
0.0
 40
4.499999996725646
100
AcDbArc
 50
0.0
 51
92.99999996493296
  0
ARC
  5
1DBC
330
1A
100
AcDbEntity
  8
SEIHIN
100
AcDbCircle
 10
198.3106659798878
 20
97.8908691016697
 30
0.0
 40
5.500000030448694
100
AcDbArc
 50
0.0
 51
68.36289348814613
  0
ARC
  5
1DBD
330
1A
100
AcDbEntity
  8
SEIHIN
100
AcDbCircle
 10
198.3106659798878
 20
97.8908691016697
 30
0.0
 40
1.899999991552915
100
AcDbArc
 50
0.0
 51
92.99999951753015
  0
LINE
  5
1DC4
330
1A
100
AcDbEntity
  8
SEIHIN
100
AcDbLine
 10
322.3653267912297
 20
101.7915278866696
 30
0.0
 11
322.3653267912297
 21
66.79152788666967
 31
0.0
  0
LINE
  5
1DC7
330
1A
100
AcDbEntity
  8
CENTER_L
100
AcDbLine
 10
289.8653267912298
 20
99.8915278866697
 30
0.0
 11
289.8653267912298
 21
87.69152788666964
 31
0.0
  0
LINE
  5
1DC9
330
1A
100
AcDbEntity
  8
SEIHIN
100
AcDbLine
 10
280.8653267912297
 20
98.79152798666964
 30
0.0
 11
280.8653267912297
 21
69.79152808666966
 31
0.0
  0
LINE
  5
1DCA
330
1A
100
AcDbEntity
  8
SEIHIN
100
AcDbLine
 10
301.3653267912297
 20
101.7915278866696
 30
0.0
 11
301.3653267912297
 21
66.79152788666967
 31
0.0
  0
ARC
  5
1DCF
330
1A
100
AcDbEntity
  8
SEIHIN
100
AcDbCircle
 10
283.8653267912297
 20
69.79152788666967
 30
0.0
 40
3.000000000000003
100
AcDbArc
 50
179.999996180281
 51
270.0
  0
LINE
  5
1DD1
330
1A
100
AcDbEntity
  8
SEIHIN
100
AcDbLine
 10
283.8653267912297
 20
66.79152788666967
 30
0.0
 11
311.8653267912297
 21
66.79152788666967
 31
0.0
  0
CIRCLE
  5
1DD8
330
1A
100
AcDbEntity
  8
SEIHIN
100
AcDbCircle
 10
289.8653267912298
 20
74.79152788666967
 30
0.0
 40
2.100000000000022
  0
LINE
  5
1DE0
330
1A
100
AcDbEntity
  8
SEIHIN
100
AcDbLine
 10
311.8653267912297
 20
66.79152788666967
 30
0.0
 11
339.8653267912298
 21
66.79152788666967
 31
0.0
  0
CIRCLE
  5
1DEB
330
1A
100
AcDbEntity
  8
SEIHIN
100
AcDbCircle
 10
333.8653267912297
 20
74.79152788666967
 30
0.0
 40
2.100000000000022
  0
LINE
  5
1DEE
330
1A
100
AcDbEntity
  8
SEIHIN
100
AcDbLine
 10
283.8653267912297
 20
101.7915278866696
 30
0.0
 11
301.8653267912298
 21
101.7915278866696
 31
0.0
  0
LINE
  5
1DEF
330
1A
100
AcDbEntity
  8
CENTER_L
100
AcDbLine
 10
283.7653267912296
 20
93.79152788666967
 30
0.0
 11
295.9653267912297
 21
93.79152788666967
 31
0.0
  0
ARC
  5
1DF3
330
1A
100
AcDbEntity
  8
SEIHIN
100
AcDbCircle
 10
283.8653267912297
 20
98.79152788666967
 30
0.0
 40
3.0
100
AcDbArc
 50
90.0
 51
180.0
  0
CIRCLE
  5
1DF4
330
1A
100
AcDbEntity
  8
SEIHIN
100
AcDbCircle
 10
289.8653267912298
 20
93.79152788666967
 30
0.0
 40
2.100000000000022
  0
CIRCLE
  5
1E06
330
1A
100
AcDbEntity
  8
SEIHIN
100
AcDbCircle
 10
333.8653267912297
 20
93.79152788666967
 30
0.0
 40
2.100000000000022
  0
LINE
  5
1E0A
330
1A
100
AcDbEntity
  8
SEIHIN
100
AcDbLine
 10
342.8653267912297
 20
98.79152798666964
 30
0.0
 11
342.8653267912297
 21
69.79152808666966
 31
0.0
  0
LINE
  5
1EC3
330
1A
100
AcDbEntity
  8
SEIHIN
100
AcDbLine
 10
81.81066597988779
 20
229.1707035089473
 30
0.0
 11
89.5831954401213
 21
229.1707035089473
 31
0.0
  0
LINE
  5
1EC4
330
1A
100
AcDbEntity
  8
SEIHIN
100
AcDbLine
 10
219.8109566398878
 20
208.6707035089473
 30
0.0
 11
216.1109566398878
 21
208.6707035089473
 31
0.0
  0
LINE
  5
1EC5
330
1A
100
AcDbEntity
  8
SEIHIN
100
AcDbLine
 10
220.8109566398878
 20
188.1707035089473
 30
0.0
 11
219.2109566398878
 21
188.1707035089473
 31
0.0
  0
LINE
  5
1EC6
330
1A
100
AcDbEntity
  8
CENTER_L
100
AcDbLine
 10
227.8109566398878
 20
219.1707035089473
 30
0.0
 11
74.8106659798878
 21
219.1707035089473
 31
0.0
  0
LINE
  5
1EC7
330
1A
100
AcDbEntity
  8
SEIHIN
100
AcDbLine
 10
220.8109566398878
 20
207.6707035089473
 30
0.0
 11
220.8109566398878
 21
188.1707035089473
 31
0.0
  0
LINE
  5
1EC8
330
1A
100
AcDbEntity
  8
SEIHIN
100
AcDbLine
 10
214.2109566398878
 20
208.0707035089473
 30
0.0
 11
214.2109566398878
 21
209.1707035089473
 31
0.0
  0
LINE
  5
1EC9
330
1A
100
AcDbEntity
  8
SEIHIN
100
AcDbLine
 10
219.2109566398878
 20
188.1707035089473
 30
0.0
 11
219.2109566398878
 21
206.5707035089473
 31
0.0
  0
LINE
  5
1ECB
330
1A
100
AcDbEntity
  8
SEIHIN
100
AcDbLine
 10
81.81066597988779
 20
209.1707035089473
 30
0.0
 11
89.58319544012136
 21
209.1707035089473
 31
0.0
  0
LINE
  5
1ECC
330
1A
100
AcDbEntity
  8
SEIHIN
100
AcDbLine
 10
215.2109566398878
 20
207.0707035089473
 30
0.0
 11
218.7109566398878
 21
207.0707035089473
 31
0.0
  0
LINE
  5
1ECD
330
1A
100
AcDbEntity
  8
SEIHIN
100
AcDbLine
 10
215.8109566398878
 20
208.9707035089473
 30
0.0
 11
215.8109566398878
 21
209.1707035089473
 31
0.0
  0
ARC
  5
1ECE
330
1A
100
AcDbEntity
  8
SEIHIN
100
AcDbCircle
 10
219.8109566398878
 20
207.6707035089473
 30
0.0
 40
1.0
100
AcDbArc
 50
359.9999999999983
 51
90.0
  0
ARC
  5
1ECF
330
1A
100
AcDbEntity
  8
SEIHIN
100
AcDbCircle
 10
215.2109566398878
 20
208.0707035089473
 30
0.0
 40
1.0
100
AcDbArc
 50
180.0000000000016
 51
270.0
  0
ARC
  5
1ED0
330
1A
100
AcDbEntity
  8
SEIHIN
100
AcDbCircle
 10
218.7109566398878
 20
206.5707035089473
 30
0.0
 40
0.5
100
AcDbArc
 50
359.9999999999967
 51
89.99999999999674
  0
LINE
  5
1ED1
330
1A
100
AcDbEntity
  8
CENTER_L
100
AcDbLine
 10
212.2109566398878
 20
197.1707035089473
 30
0.0
 11
227.8109566398878
 21
197.1707035089473
 31
0.0
  0
LINE
  5
1ED8
330
1A
100
AcDbEntity
  8
CENTER_L
100
AcDbLine
 10
144.3106659798877
 20
204.1418317963961
 30
0.0
 11
144.3106659798877
 21
234.1995752214985
 31
0.0
  0
LINE
  5
1EDA
330
1A
100
AcDbEntity
  8
SEIHIN
100
AcDbLine
 10
134.3106659798878
 20
209.1707035089473
 30
0.0
 11
134.3106659798877
 21
229.1707035089473
 31
0.0
  0
LINE
  5
1F11
330
1A
100
AcDbEntity
  8
SEIHIN
100
AcDbLine
 10
183.8106659798878
 20
101.6371319261094
 30
0.0
 11
183.8106659798878
 21
95.98746880105966
 31
0.0
  0
LINE
  5
1F12
330
1A
100
AcDbEntity
  8
SEIHIN
100
AcDbLine
 10
182.8630019382125
 20
94.98883926641418
 30
0.0
 11
178.1451676388765
 21
94.74158803789839
 31
0.0
  0
ARC
  5
1F13
330
1A
100
AcDbEntity
  8
SEIHIN
100
AcDbCircle
 10
182.8106659798877
 20
95.98746880105966
 30
0.0
 40
1.0
100
AcDbArc
 50
273.0000001194438
 51
0.0
  0
ARC
  5
1F15
330
1A
100
AcDbEntity
  8
SEIHIN
100
AcDbCircle
 10
200.8106659798877
 20
80.92248492424152
 30
0.0
 40
3.0
100
AcDbArc
 50
266.9999999560026
 51
0.0
  0
LINE
  5
1F30
330
1A
100
AcDbEntity
  8
CENTER_L
100
AcDbLine
 10
283.7653267912296
 20
74.79152788666967
 30
0.0
 11
295.9653267912297
 21
74.79152788666967
 31
0.0
  0
LINE
  5
1F31
330
1A
100
AcDbEntity
  8
CENTER_L
100
AcDbLine
 10
289.8653267912298
 20
80.8915278866697
 30
0.0
 11
289.8653267912298
 21
68.69152788666965
 31
0.0
  0
LINE
  5
1F32
330
1A
100
AcDbEntity
  8
CENTER_L
100
AcDbLine
 10
333.8653267912297
 20
80.8915278866697
 30
0.0
 11
333.8653267912297
 21
68.69152788666965
 31
0.0
  0
LINE
  5
1F33
330
1A
100
AcDbEntity
  8
CENTER_L
100
AcDbLine
 10
333.8653267912297
 20
99.8915278866697
 30
0.0
 11
333.8653267912297
 21
87.69152788666964
 31
0.0
  0
LINE
  5
1F34
330
1A
100
AcDbEntity
  8
CENTER_L
100
AcDbLine
 10
339.9653267912297
 20
74.79152788666967
 30
0.0
 11
327.7653267912296
 21
74.79152788666967
 31
0.0
  0
LINE
  5
1F35
330
1A
100
AcDbEntity
  8
CENTER_L
100
AcDbLine
 10
339.9653267912297
 20
93.79152788666967
 30
0.0
 11
327.7653267912296
 21
93.79152788666967
 31
0.0
  0
LINE
  5
1F4A
330
1A
100
AcDbEntity
  8
SEIHIN
100
AcDbLine
 10
219.2109566398879
 20
91.79152788666966
 30
0.0
 11
216.6981066716148
 21
91.79152788666964
 31
0.0
  0
LINE
  5
1F4B
330
1A
100
AcDbEntity
  8
SEIHIN
100
AcDbLine
 10
219.2109566398879
 20
95.79152788666966
 30
0.0
 11
216.6981066716148
 21
95.79152788666966
 31
0.0
  0
LINE
  5
1F4C
330
1A
100
AcDbEntity
  8
SEIHIN
100
AcDbLine
 10
300.3653267912298
 20
94.79152788666967
 30
0.0
 11
298.3653267912298
 21
94.79152788666967
 31
0.0
  0
LINE
  5
1F4D
330
1A
100
AcDbEntity
  8
SEIHIN
100
AcDbLine
 10
300.3653267912298
 20
92.79152788666968
 30
0.0
 11
298.3653267912298
 21
92.79152788666964
 31
0.0
  0
LINE
  5
1F4E
330
1A
100
AcDbEntity
  8
SEIHIN
100
AcDbLine
 10
297.8653267912298
 20
93.29152788666965
 30
0.0
 11
297.8653267912298
 21
94.29152788666966
 31
0.0
  0
ARC
  5
1F4F
330
1A
100
AcDbEntity
  8
SEIHIN
100
AcDbCircle
 10
298.3653267912298
 20
93.29152788666965
 30
0.0
 40
0.5
100
AcDbArc
 50
180.0
 51
270.0000000000005
  0
ARC
  5
1F50
330
1A
100
AcDbEntity
  8
SEIHIN
100
AcDbCircle
 10
298.3653267912298
 20
94.29152788666966
 30
0.0
 40
0.5
100
AcDbArc
 50
90.0
 51
180.0
  0
LINE
  5
1F51
330
1A
100
AcDbEntity
  8
SEIHIN
100
AcDbLine
 10
300.3653267912298
 20
75.79152788666966
 30
0.0
 11
298.3653267912298
 21
75.79152788666966
 31
0.0
  0
LINE
  5
1F52
330
1A
100
AcDbEntity
  8
SEIHIN
100
AcDbLine
 10
300.3653267912298
 20
73.79152788666967
 30
0.0
 11
298.3653267912298
 21
73.79152788666964
 31
0.0
  0
LINE
  5
1F53
330
1A
100
AcDbEntity
  8
SEIHIN
100
AcDbLine
 10
297.8653267912298
 20
74.29152788666964
 30
0.0
 11
297.8653267912298
 21
75.29152788666967
 31
0.0
  0
ARC
  5
1F54
330
1A
100
AcDbEntity
  8
SEIHIN
100
AcDbCircle
 10
298.3653267912298
 20
75.29152788666967
 30
0.0
 40
0.5
100
AcDbArc
 50
90.0
 51
180.0
  0
ARC
  5
1F55
330
1A
100
AcDbEntity
  8
SEIHIN
100
AcDbCircle
 10
298.3653267912298
 20
74.29152788666964
 30
0.0
 40
0.5
100
AcDbArc
 50
180.0
 51
270.0000000000005
  0
LINE
  5
1F56
330
1A
100
AcDbEntity
  8
SEIHIN
100
AcDbLine
 10
325.8653267912297
 20
74.29152788666964
 30
0.0
 11
325.8653267912297
 21
75.29152788666967
 31
0.0
  0
LINE
  5
1F57
330
1A
100
AcDbEntity
  8
SEIHIN
100
AcDbLine
 10
323.3653267912298
 20
73.79152788666967
 30
0.0
 11
325.3653267912298
 21
73.79152788666964
 31
0.0
  0
ARC
  5
1F58
330
1A
100
AcDbEntity
  8
SEIHIN
100
AcDbCircle
 10
325.3653267912298
 20
74.29152788666964
 30
0.0
 40
0.5
100
AcDbArc
 50
269.9999999999994
 51
0.000000000000007
  0
LINE
  5
1F59
330
1A
100
AcDbEntity
  8
SEIHIN
100
AcDbLine
 10
323.3653267912298
 20
75.79152788666966
 30
0.0
 11
325.3653267912298
 21
75.79152788666966
 31
0.0
  0
ARC
  5
1F5A
330
1A
100
AcDbEntity
  8
SEIHIN
100
AcDbCircle
 10
325.3653267912298
 20
75.29152788666967
 30
0.0
 40
0.5
100
AcDbArc
 50
0.000000000000007
 51
90.0
  0
LINE
  5
1F5B
330
1A
100
AcDbEntity
  8
SEIHIN
100
AcDbLine
 10
323.3653267912298
 20
94.79152788666967
 30
0.0
 11
325.3653267912298
 21
94.79152788666967
 31
0.0
  0
LINE
  5
1F5C
330
1A
100
AcDbEntity
  8
SEIHIN
100
AcDbLine
 10
323.3653267912298
 20
92.79152788666968
 30
0.0
 11
325.3653267912298
 21
92.79152788666964
 31
0.0
  0
LINE
  5
1F5D
330
1A
100
AcDbEntity
  8
SEIHIN
100
AcDbLine
 10
325.8653267912297
 20
93.29152788666965
 30
0.0
 11
325.8653267912297
 21
94.29152788666966
 31
0.0
  0
ARC
  5
1F5E
330
1A
100
AcDbEntity
  8
SEIHIN
100
AcDbCircle
 10
325.3653267912298
 20
94.29152788666966
 30
0.0
 40
0.5
100
AcDbArc
 50
0.000000000000007
 51
90.0
  0
ARC
  5
1F5F
330
1A
100
AcDbEntity
  8
SEIHIN
100
AcDbCircle
 10
325.3653267912298
 20
93.29152788666965
 30
0.0
 40
0.5
100
AcDbArc
 50
269.9999999999994
 51
0.000000000000007
  0
LINE
  5
1F61
330
1A
100
AcDbEntity
  8
SEIHIN
100
AcDbLine
 10
183.8106659798878
 20
206.6707035089473
 30
0.0
 11
89.58319544012136
 21
206.6707035089473
 31
0.0
  0
LINE
  5
1F62
330
1A
100
AcDbEntity
  8
SEIHIN
100
AcDbLine
 10
183.8106659798878
 20
206.6707035089473
 30
0.0
 11
183.8106659798878
 21
209.1707035089473
 31
0.0
  0
LINE
  5
1F63
330
1A
100
AcDbEntity
  8
SEIHIN
100
AcDbLine
 10
89.58319544012136
 20
206.6707035089473
 30
0.0
 11
89.58319544012136
 21
209.1707035089473
 31
0.0
  0
LINE
  5
1F64
330
1A
100
AcDbEntity
  8
SEIHIN
100
AcDbLine
 10
81.81066597988779
 20
209.1707035089473
 30
0.0
 11
81.81066597988779
 21
229.1707035089473
 31
0.0
  0
LINE
  5
1F67
330
1A
100
AcDbEntity
  8
SEIHIN
100
AcDbLine
 10
83.61066597988781
 20
209.1707035089473
 30
0.0
 11
83.61066597988781
 21
229.1707035089473
 31
0.0
  0
LINE
  5
1F68
330
1A
100
AcDbEntity
  8
SEIHIN
100
AcDbLine
 10
134.3106659798877
 20
209.1707035089473
 30
0.0
 11
220.3109566398878
 21
209.1707035089473
 31
0.0
  0
LINE
  5
1F69
330
1A
100
AcDbEntity
  8
SEIHIN
100
AcDbLine
 10
134.3106659798878
 20
211.1707035089473
 30
0.0
 11
215.6089285414903
 21
211.1707035089473
 31
0.0
  0
CIRCLE
  5
1F6A
330
1A
100
AcDbEntity
  8
SEIHIN
100
AcDbCircle
 10
144.3106659798877
 20
219.1707035089473
 30
0.0
 40
5.0
  0
LINE
  5
1F6B
330
1A
100
AcDbEntity
  8
SEIHIN
100
AcDbLine
 10
220.3109566398878
 20
209.1707035089473
 30
0.0
 11
220.3109566398878
 21
229.1707035089473
 31
0.0
  0
LINE
  5
1F6C
330
1A
100
AcDbEntity
  8
SEIHIN
100
AcDbLine
 10
156.6662488279093
 20
211.6707035089473
 30
0.0
 11
156.6662488279093
 21
226.6707035089473
 31
0.0
  0
LINE
  5
1F6D
330
1A
100
AcDbEntity
  8
SEIHIN
100
AcDbLine
 10
171.4510500338601
 20
211.6707035089473
 30
0.0
 11
171.4510500338601
 21
226.6707035089472
 31
0.0
  0
LINE
  5
1F70
330
1A
100
AcDbEntity
  8
SEIHIN
100
AcDbLine
 10
134.3106659798877
 20
227.1707035089473
 30
0.0
 11
215.6089285414903
 21
227.1707035089473
 31
0.0
  0
LINE
  5
1F71
330
1A
100
AcDbEntity
  8
SEIHIN
100
AcDbLine
 10
134.3106659798877
 20
229.1707035089473
 30
0.0
 11
220.3109566398878
 21
229.1707035089473
 31
0.0
  0
LINE
  5
1F72
330
1A
100
AcDbEntity
  8
SEIHIN
100
AcDbLine
 10
183.8106659798878
 20
231.6707035089473
 30
0.0
 11
89.58319544012136
 21
231.6707035089473
 31
0.0
  0
LINE
  5
1F73
330
1A
100
AcDbEntity
  8
SEIHIN
100
AcDbLine
 10
81.81066597988779
 20
229.1707035089473
 30
0.0
 11
89.58319544012136
 21
229.1707035089473
 31
0.0
  0
LINE
  5
1F74
330
1A
100
AcDbEntity
  8
SEIHIN
100
AcDbLine
 10
89.58319544012136
 20
231.6707035089473
 30
0.0
 11
89.58319544012136
 21
229.1707035089473
 31
0.0
  0
LINE
  5
1F75
330
1A
100
AcDbEntity
  8
SEIHIN
100
AcDbLine
 10
157.598265299531
 20
227.6707035089474
 30
0.0
 11
157.598265299531
 21
228.6707035089473
 31
0.0
  0
LINE
  5
1F76
330
1A
100
AcDbEntity
  8
SEIHIN
100
AcDbLine
 10
170.6122355773031
 20
228.6707035089473
 30
0.0
 11
170.6122355773031
 21
227.6707035089473
 31
0.0
  0
LINE
  5
1F77
330
1A
100
AcDbEntity
  8
SEIHIN
100
AcDbLine
 10
183.8106659798878
 20
231.6707035089473
 30
0.0
 11
183.8106659798878
 21
229.1707035089473
 31
0.0
  0
LINE
  5
1F78
330
1A
100
AcDbEntity
  8
SEIHIN
100
AcDbLine
 10
219.2109566398878
 20
250.1707035089473
 30
0.0
 11
219.2109566398878
 21
231.7707035089473
 31
0.0
  0
LINE
  5
1F79
330
1A
100
AcDbEntity
  8
SEIHIN
100
AcDbLine
 10
220.8109566398878
 20
230.6707035089473
 30
0.0
 11
220.8109566398878
 21
250.1707035089473
 31
0.0
  0
LINE
  5
1F7A
330
1A
100
AcDbEntity
  8
CENTER_L
100
AcDbLine
 10
212.2109566398878
 20
241.1707035089473
 30
0.0
 11
227.8109566398878
 21
241.1707035089473
 31
0.0
  0
LINE
  5
1F7B
330
1A
100
AcDbEntity
  8
SEIHIN
100
AcDbLine
 10
220.8109566398878
 20
250.1707035089473
 30
0.0
 11
219.2109566398878
 21
250.1707035089473
 31
0.0
  0
LINE
  5
1F7C
330
1A
100
AcDbEntity
  8
SEIHIN
100
AcDbLine
 10
219.8109566398878
 20
229.6707035089473
 30
0.0
 11
216.1109566398878
 21
229.6707035089473
 31
0.0
  0
LINE
  5
1F7D
330
1A
100
AcDbEntity
  8
SEIHIN
100
AcDbLine
 10
215.2109566398878
 20
231.2707035089473
 30
0.0
 11
218.7109566398878
 21
231.2707035089473
 31
0.0
  0
ARC
  5
1F7F
330
1A
100
AcDbEntity
  8
SEIHIN
100
AcDbCircle
 10
215.2109566398878
 20
230.2707035089472
 30
0.0
 40
1.0
100
AcDbArc
 50
90.00000000000003
 51
179.9999999999983
  0
ARC
  5
1F81
330
1A
100
AcDbEntity
  8
SEIHIN
100
AcDbCircle
 10
218.7109566398878
 20
231.7707035089473
 30
0.0
 40
0.5
100
AcDbArc
 50
270.0000000000032
 51
0.0000000000032709
  0
ARC
  5
1F82
330
1A
100
AcDbEntity
  8
SEIHIN
100
AcDbCircle
 10
219.8109566398878
 20
230.6707035089472
 30
0.0
 40
1.0
100
AcDbArc
 50
270.0
 51
0.0000000000016425
  0
LINE
  5
1F85
330
1A
100
AcDbEntity
  8
SEIHIN
100
AcDbLine
 10
174.2488040645271
 20
229.6707035089473
 30
0.0
 11
174.2488040645271
 21
231.1707035089473
 31
0.0
  0
LINE
  5
1F86
330
1A
100
AcDbEntity
  8
SEIHIN
100
AcDbLine
 10
158.7242462015835
 20
229.6707035089473
 30
0.0
 11
158.7242462015835
 21
231.1707035089472
 31
0.0
  0
LINE
  5
1F88
330
1A
100
AcDbEntity
  8
SEIHIN
100
AcDbLine
 10
134.3106659798878
 20
86.6480026016697
 30
0.0
 11
156.7324913645675
 21
86.64800260166968
 31
0.0
  0
LINE
  5
1F89
330
1A
100
AcDbEntity
  8
SEIHIN
100
AcDbLine
 10
160.2680252843321
 20
88.11246870956884
 30
0.0
 11
172.4091203813144
 21
100.2535639015489
 31
0.0
  0
ARC
  5
1F8B
330
1A
100
AcDbEntity
  8
SEIHIN
100
AcDbCircle
 10
175.944654301079
 20
96.71803000944809
 30
0.0
 40
5.0
100
AcDbArc
 50
92.99999987887712
 51
135.0000002241552
  0
LINE
  5
1F8E
330
1A
100
AcDbEntity
  8
SEIHIN
100
AcDbLine
 10
219.2109566398878
 20
233.2707035089473
 30
0.0
 11
217.2109566398878
 21
231.2707035089473
 31
0.0
  0
LINE
  5
1F8F
330
1A
100
AcDbEntity
  8
SEIHIN
100
AcDbLine
 10
219.2109566398878
 20
205.0707035089473
 30
0.0
 11
217.2109566398878
 21
207.0707035089473
 31
0.0
  0
ARC
  5
1F91
330
1A
100
AcDbEntity
  8
SEIHIN
100
AcDbCircle
 10
216.1109566398878
 20
229.3707035089473
 30
0.0
 40
0.3
100
AcDbArc
 50
90.0
 51
180.0
  0
ARC
  5
1F92
330
1A
100
AcDbEntity
  8
SEIHIN
100
AcDbCircle
 10
216.1109566398878
 20
208.9707035089473
 30
0.0
 40
0.3
100
AcDbArc
 50
180.0
 51
270.0
  0
ARC
  5
1F93
330
1A
100
AcDbEntity
  8
SEIHIN
100
AcDbCircle
 10
156.7324913645675
 20
91.64800260166968
 30
0.0
 40
5.0
100
AcDbArc
 50
270.0
 51
315.0000002241551
  0
ARC
  5
1F94
330
1A
100
AcDbEntity
  8
SEIHIN
100
AcDbCircle
 10
156.1111710551972
 20
93.1480026016697
 30
0.0
 40
2.0
100
AcDbArc
 50
270.0
 51
315.0000002241553
  0
ARC
  5
1F95
330
1A
100
AcDbEntity
  8
SEIHIN
100
AcDbCircle
 10
156.1111710175703
 20
93.14800260166968
 30
0.0
 40
1.0
100
AcDbArc
 50
270.0
 51
315.0000002241551
  0
DIMENSION
  5
1FF7
330
1A
100
AcDbEntity
  8
SUNPOU
100
AcDbDimension
  2
*D1
 10
276.6721250804864
 20
66.79152788666967
 30
0.0
 11
274.1721250804864
 21
84.29152788666971
 31
0.0
 70
    32
  3
STANDARD
100
AcDbAlignedDimension
 13
255.6206306195524
 23
101.7915278866696
 33
0.0
 14
255.6206306195524
 24
66.79152788666967
 34
0.0
 50
90.0
100
AcDbRotatedDimension
1001
ACAD
1000
DSTYLE
1002
{
1070
    41
1040
3.0
1070
    42
1040
3.0
1070
    43
1040
7.0
1070
    44
1040
1.5
1070
    73
1070
     0
1070
    74
1070
     0
1070
    77
1070
     3
1070
   140
1040
3.0
1070
   141
1040
3.0
1070
   147
1040
1.0
1070
   172
1070
     1
1070
   173
1070
     1
1070
   176
1070
   256
1070
   177
1070
   256
1070
   178
1070
   256
1070
   271
1070
     0
1070
   272
1070
     0
1070
   341
1005
B2
1070
     6
1000
OPEN
1070
     7
1000
OPEN
1002
}
  0
LINE
  5
2004
330
1A
100
AcDbEntity
  8
SEIHIN
100
AcDbLine
 10
219.2109566398879
 20
76.79152788666967
 30
0.0
 11
216.6981066716148
 21
76.79152788666967
 31
0.0
  0
LINE
  5
2005
330
1A
100
AcDbEntity
  8
SEIHIN
100
AcDbLine
 10
219.2109566398879
 20
72.79152788666967
 30
0.0
 11
216.6981066716148
 21
72.79152788666964
 31
0.0
  0
DIMENSION
  5
2006
330
1A
100
AcDbEntity
  8
SUNPOU
100
AcDbDimension
  2
*D2
 10
266.6473090266638
 20
93.79152788666967
 30
0.0
 11
264.1473090266638
 21
97.79152788666971
 31
0.0
 70
    32
  3
STANDARD
100
AcDbAlignedDimension
 13
283.8653267912297
 23
101.7915278866696
 33
0.0
 14
283.7653267912296
 24
93.79152788666967
 34
0.0
 50
90.0
100
AcDbRotatedDimension
1001
ACAD
1000
DSTYLE
1002
{
1070
    41
1040
3.0
1070
    42
1040
3.0
1070
    43
1040
7.0
1070
    44
1040
1.5
1070
    73
1070
     0
1070
    74
1070
     0
1070
    77
1070
     3
1070
   140
1040
3.0
1070
   141
1040
3.0
1070
   147
1040
1.0
1070
   172
1070
     1
1070
   173
1070
     1
1070
   176
1070
   256
1070
   177
1070
   256
1070
   178
1070
   256
1070
   271
1070
     0
1070
   272
1070
     0
1070
   341
1005
B2
1070
     6
1000
OPEN
1070
     7
1000
OPEN
1002
}
  0
DIMENSION
  5
2015
330
1A
100
AcDbEntity
  8
SUNPOU
100
AcDbDimension
  2
*D3
 10
266.6473090266638
 20
66.79152788666965
 30
0.0
 11
264.1473090266638
 21
70.7915278866697
 31
0.0
 70
    32
  3
STANDARD
100
AcDbAlignedDimension
 13
283.7653267912296
 23
74.79152788666967
 33
0.0
 14
283.8653267912297
 24
66.79152788666965
 34
0.0
 50
90.0
100
AcDbRotatedDimension
1001
ACAD
1000
DSTYLE
1002
{
1070
    41
1040
3.0
1070
    42
1040
3.0
1070
    43
1040
7.0
1070
    44
1040
1.5
1070
    73
1070
     0
1070
    74
1070
     0
1070
    77
1070
     3
1070
   140
1040
3.0
1070
   141
1040
3.0
1070
   147
1040
1.0
1070
   172
1070
     1
1070
   173
1070
     1
1070
   176
1070
   256
1070
   177
1070
   256
1070
   178
1070
   256
1070
   271
1070
     0
1070
   272
1070
     0
1070
   341
1005
B2
1070
     6
1000
OPEN
1070
     7
1000
OPEN
1002
}
  0
DIMENSION
  5
2022
330
1A
100
AcDbEntity
  8
SUNPOU
100
AcDbDimension
  2
*D4
 10
256.6289299989839
 20
66.79152788666965
 30
0.0
 11
254.1289299989839
 21
84.2915278866697
 31
0.0
 70
    32
  3
STANDARD
100
AcDbAlignedDimension
 13
283.8653267912297
 23
101.7915278866696
 33
0.0
 14
283.8653267912297
 24
66.79152788666965
 34
0.0
 50
90.0
100
AcDbRotatedDimension
1001
ACAD
1000
DSTYLE
1002
{
1070
    41
1040
3.0
1070
    42
1040
3.0
1070
    43
1040
7.0
1070
    44
1040
1.5
1070
    73
1070
     0
1070
    74
1070
     0
1070
    77
1070
     3
1070
   140
1040
3.0
1070
   141
1040
3.0
1070
   147
1040
1.0
1070
   172
1070
     1
1070
   173
1070
     1
1070
   176
1070
   256
1070
   177
1070
   256
1070
   178
1070
   256
1070
   271
1070
     0
1070
   272
1070
     0
1070
   341
1005
B2
1070
     6
1000
OPEN
1070
     7
1000
OPEN
1002
}
  0
DIMENSION
  5
204C
330
1A
100
AcDbEntity
  8
SUNPOU
100
AcDbDimension
  2
*D5
 10
333.8653267912297
 20
132.0248008960517
 30
0.0
 11
311.8653267912297
 21
134.5248008960517
 31
0.0
 70
    32
  3
STANDARD
100
AcDbAlignedDimension
 13
289.8653267912298
 23
99.8915278866697
 33
0.0
 14
333.8653267912297
 24
99.8915278866697
 34
0.0
100
AcDbRotatedDimension
1001
ACAD
1000
DSTYLE
1002
{
1070
    41
1040
3.0
1070
    42
1040
3.0
1070
    43
1040
7.0
1070
    44
1040
1.5
1070
    73
1070
     0
1070
    74
1070
     0
1070
    77
1070
     3
1070
   140
1040
3.0
1070
   141
1040
3.0
1070
   147
1040
1.0
1070
   172
1070
     1
1070
   173
1070
     1
1070
   176
1070
   256
1070
   177
1070
   256
1070
   178
1070
   256
1070
   271
1070
     0
1070
   272
1070
     0
1070
   341
1005
B2
1070
     6
1000
OPEN
1070
     7
1000
OPEN
1002
}
  0
DIMENSION
  5
2059
330
1A
100
AcDbEntity
  8
SUNPOU
100
AcDbDimension
  2
*D6
 10
342.8653267912297
 20
142.3693575795808
 30
0.0
 11
311.8653267912297
 21
144.8693575795808
 31
0.0
 70
    32
  3
STANDARD
100
AcDbAlignedDimension
 13
280.8653267912297
 23
98.79152788666967
 33
0.0
 14
342.8653267912297
 24
98.79152788666967
 34
0.0
100
AcDbRotatedDimension
1001
ACAD
1000
DSTYLE
1002
{
1070
    41
1040
3.0
1070
    42
1040
3.0
1070
    43
1040
7.0
1070
    44
1040
1.5
1070
    73
1070
     0
1070
    74
1070
     0
1070
    77
1070
     3
1070
   140
1040
3.0
1070
   141
1040
3.0
1070
   147
1040
1.0
1070
   172
1070
     1
1070
   173
1070
     1
1070
   176
1070
   256
1070
   177
1070
   256
1070
   178
1070
   256
1070
   271
1070
     0
1070
   272
1070
     0
1070
   341
1005
B2
1070
     6
1000
OPEN
1070
     7
1000
OPEN
1002
}
  0
DIMENSION
  5
2066
330
1A
100
AcDbEntity
  8
SUNPOU
100
AcDbDimension
  2
*D7
 10
241.8624511008218
 20
188.1707035089473
 30
0.0
 11
239.3624511008218
 21
219.1707035089473
 31
0.0
 70
    32
  3
STANDARD
100
AcDbAlignedDimension
 13
220.8109566398878
 23
250.1707035089473
 33
0.0
 14
220.8109566398878
 24
188.1707035089473
 34
0.0
 50
90.0
100
AcDbRotatedDimension
1001
ACAD
1000
DSTYLE
1002
{
1070
    41
1040
3.0
1070
    42
1040
3.0
1070
    43
1040
7.0
1070
    44
1040
1.5
1070
    73
1070
     0
1070
    74
1070
     0
1070
    77
1070
     3
1070
   140
1040
3.0
1070
   141
1040
3.0
1070
   147
1040
1.0
1070
   172
1070
     1
1070
   173
1070
     1
1070
   176
1070
   256
1070
   177
1070
   256
1070
   178
1070
   256
1070
   271
1070
     0
1070
   272
1070
     0
1070
   341
1005
B2
1070
     6
1000
OPEN
1070
     7
1000
OPEN
1002
}
  0
DIMENSION
  5
2073
330
1A
100
AcDbEntity
  8
SUNPOU
100
AcDbDimension
  2
*D8
 10
54.97985321155012
 20
209.1707035089473
 30
0.0
 11
52.47985321155009
 21
219.1707035089473
 31
0.0
 70
    32
  3
STANDARD
100
AcDbAlignedDimension
 13
81.81066597988779
 23
229.1707035089473
 33
0.0
 14
81.81066597988779
 24
209.1707035089473
 34
0.0
 50
90.0
100
AcDbRotatedDimension
1001
ACAD
1000
DSTYLE
1002
{
1070
    41
1040
3.0
1070
    42
1040
3.0
1070
    43
1040
7.0
1070
    44
1040
1.5
1070
    73
1070
     0
1070
    74
1070
     0
1070
    77
1070
     3
1070
   140
1040
3.0
1070
   141
1040
3.0
1070
   147
1040
1.0
1070
   172
1070
     1
1070
   173
1070
     1
1070
   176
1070
   256
1070
   177
1070
   256
1070
   178
1070
   256
1070
   271
1070
     0
1070
   272
1070
     0
1070
   341
1005
B2
1070
     6
1000
OPEN
1070
     7
1000
OPEN
1002
}
  0
LEADER
  5
2081
330
1A
100
AcDbEntity
  8
SUNPOU
100
AcDbLeader
  3
STANDARD
 73
     0
 40
3.0
 41
15.59999999999999
 76
     3
 10
288.3017745155005
 20
95.1934209928166
 30
0.0
 10
273.6789509956825
 20
118.6949491937215
 30
0.0
 10
270.4097309579604
 20
118.7474862369076
 30
0.0
340
2082
213
0.0
223
1.5
233
0.0
1001
ACAD
1000
DSTYLE
1002
{
1070
     6
1000
OPEN
1070
    41
1040
3.0
1070
    42
1040
3.0
1070
    43
1040
7.0
1070
    44
1040
1.5
1070
    73
1070
     0
1070
    74
1070
     0
1070
    77
1070
     0
1070
   140
1040
3.0
1070
   141
1040
3.0
1070
   147
1040
1.0
1070
   172
1070
     1
1070
   173
1070
     1
1070
   176
1070
   256
1070
   177
1070
   256
1070
   178
1070
   256
1070
   271
1070
     0
1070
   272
1070
     0
1070
   341
1005
B2
1070
   343
1005
B2
1070
   344
1005
B2
1002
}
  0
MTEXT
  5
2082
102
{ACAD_REACTORS
330
2081
102
}
330
1A
100
AcDbEntity
  8
SUNPOU
100
AcDbMText
 10
269.4097309579603
 20
117.2474862369076
 30
0.0
 40
3.0
 41
0.0
 71
     9
 72
     5
  1
\A1;4-φ4.2
1001
ACAD
1000
MTEXTBEGIN
1070
    73
1070
     1
1070
    44
1040
1.0
1070
    74
1070
     0
1000
MTEXTEND
1000
MTEXTBEGIN
1070
    73
1070
     1
1070
    44
1040
1.0
1070
    74
1070
     0
1000
MTEXTEND
1000
MTEXTBEGIN
1070
    73
1070
     1
1070
    44
1040
1.0
1070
    74
1070
     0
1000
MTEXTEND
1000
MTEXTBEGIN
1070
    73
1070
     1
1070
    44
1040
1.0
1070
    74
1070
     0
1000
MTEXTEND
1000
MTEXTBEGIN
1070
    73
1070
     1
1070
    44
1040
1.0
1070
    74
1070
     0
1000
MTEXTEND
1000
MTEXTBEGIN
1070
    73
1070
     1
1070
    44
1040
1.0
1070
    74
1070
     0
1000
MTEXTEND
1000
MTEXTBEGIN
1070
    73
1070
     1
1070
    44
1040
1.0
1070
    74
1070
     0
1000
MTEXTEND
1000
MTEXTBEGIN
1070
    73
1070
     1
1070
    44
1040
1.0
1070
    74
1070
     0
1000
MTEXTEND
1000
MTEXTBEGIN
1070
    73
1070
     1
1070
    44
1040
1.0
1070
    74
1070
     0
1000
MTEXTEND
1000
MTEXTBEGIN
1070
    73
1070
     1
1070
    44
1040
1.0
1070
    74
1070
     0
1000
MTEXTEND
  0
LINE
  5
2127
330
1A
100
AcDbEntity
  8
SEIHIN
100
AcDbLine
 10
157.598265299531
 20
210.6707035089472
 30
0.0
 11
157.598265299531
 21
209.6707035089473
 31
0.0
  0
LINE
  5
2128
330
1A
100
AcDbEntity
  8
SEIHIN
100
AcDbLine
 10
158.7242462015835
 20
208.6707035089473
 30
0.0
 11
158.7242462015835
 21
207.1707035089473
 31
0.0
  0
LINE
  5
2129
330
1A
100
AcDbEntity
  8
SEIHIN
100
AcDbLine
 10
170.6122355773031
 20
209.6707035089472
 30
0.0
 11
170.6122355773031
 21
210.6707035089473
 31
0.0
  0
LINE
  5
212A
330
1A
100
AcDbEntity
  8
SEIHIN
100
AcDbLine
 10
174.2488040645271
 20
208.6707035089473
 30
0.0
 11
174.2488040645271
 21
207.1707035089473
 31
0.0
  0
ARC
  5
2604
330
1A
100
AcDbEntity
  8
SEIHIN
100
AcDbCircle
 10
214.8107073998878
 20
104.2990654366696
 30
0.0
 40
5.499999999272874
100
AcDbArc
 50
0.0004095085622128
 51
92.99999792145438
  0
LINE
  5
2609
330
1A
100
AcDbEntity
  8
SEIHIN
100
AcDbLine
 10
220.8109566398878
 20
66.79152788666967
 30
0.0
 11
220.8109566398878
 21
101.7915278916696
 31
0.0
  0
LINE
  5
260B
330
1A
100
AcDbEntity
  8
SEIHIN
100
AcDbLine
 10
214.2109565998878
 20
66.79152788666967
 30
0.0
 11
214.2109565998878
 21
101.7915278916696
 31
0.0
  0
LINE
  5
2610
330
1A
100
AcDbEntity
  8
SEIHIN
100
AcDbLine
 10
219.2109565998878
 20
66.79152788666967
 30
0.0
 11
219.2109565998878
 21
101.7915278916696
 31
0.0
  0
LINE
  5
2614
330
1A
100
AcDbEntity
  8
SEIHIN
100
AcDbLine
 10
214.2109565998878
 20
66.79152788666967
 30
0.0
 11
220.8109566398878
 21
66.79152788666967
 31
0.0
  0
LINE
  5
2623
330
1A
100
AcDbEntity
  8
SEIHIN
100
AcDbLine
 10
215.8107073998878
 20
104.2990725866696
 30
0.0
 11
215.8107253198878
 21
101.7915278916696
 31
0.0
  0
LINE
  5
2624
330
1A
100
AcDbEntity
  8
SEIHIN
100
AcDbLine
 10
220.3107073998878
 20
104.2991047466696
 30
0.0
 11
220.3107073998878
 21
101.6604219386696
 31
0.0
  0
LINE
  5
2625
330
1A
100
AcDbEntity
  8
SEIHIN
100
AcDbLine
 10
220.8109566398878
 20
101.7915278916696
 30
0.0
 11
214.2109565998878
 21
101.7915278916696
 31
0.0
  0
LINE
  5
2626
330
1A
100
AcDbEntity
  8
SEIHIN
100
AcDbLine
 10
215.8110028098878
 20
103.6293609066696
 30
0.0
 11
213.2814010198878
 21
105.2202750066696
 31
0.0
  0
ARC
  5
2627
330
1A
100
AcDbEntity
  8
SEIHIN
100
AcDbCircle
 10
214.8107073998878
 20
104.2990654366696
 30
0.0
 40
1.000000000636776
100
AcDbArc
 50
0.0004096648236276
 51
92.9999956218581
  0
ARC
  5
2666
330
1A
100
AcDbEntity
  8
SEIHIN
100
AcDbCircle
 10
211.1089454998878
 20
105.3067111366696
 30
0.0
 40
5.499999999767214
100
AcDbArc
 50
63.83344115236194
 51
93.00000000753284
  0
LINE
  5
2667
330
1A
100
AcDbEntity
  8
SEIHIN
100
AcDbLine
 10
214.4696970230158
 20
109.7889150370774
 30
0.0
 11
214.4603056998878
 21
109.7948214166696
 31
0.0
  0
LINE
  5
2668
330
1A
100
AcDbEntity
  8
SEIHIN
100
AcDbLine
 10
214.4600150698878
 20
109.7882343366696
 30
0.0
 11
213.5343469698878
 21
110.2430486166696
 31
0.0
  0
LINE
  5
273D
330
1A
100
AcDbEntity
  8
SEIHIN
100
AcDbLine
 10
175.6829745304197
 20
101.7111776837741
 30
0.0
 11
214.7583715199198
 21
105.2976949760592
 31
0.0
  0
LINE
  5
273E
330
1A
100
AcDbEntity
  8
SEIHIN
100
AcDbLine
 10
173.9141109793653
 20
106.1246510116359
 30
0.0
 11
214.5228598398423
 21
109.7915278875361
 31
0.0
  0
LINE
  5
273F
330
1A
100
AcDbEntity
  8
SEIHIN
100
AcDbLine
 10
173.8617750795343
 20
107.1232805084133
 30
0.0
 11
210.8210977398417
 21
110.7991735775495
 31
0.0
  0
LINE
  5
277B
330
1A
100
AcDbEntity
  8
CENTER_L
100
AcDbLine
 10
214.7109566398877
 20
93.79152788666967
 30
0.0
 11
226.9109566398877
 21
93.79152788666967
 31
0.0
  0
LINE
  5
277C
330
1A
100
AcDbEntity
  8
CENTER_L
100
AcDbLine
 10
214.7109566398877
 20
74.79152788666967
 30
0.0
 11
226.9109566398877
 21
74.79152788666967
 31
0.0
  0
DIMENSION
  5
285C
330
1A
100
AcDbEntity
  8
SUNPOU
100
AcDbDimension
  2
*D9
 10
241.1494214574295
 20
66.79152788666965
 30
0.0
 11
238.6494214574295
 21
84.29152788916971
 31
0.0
 70
    32
  3
STANDARD
100
AcDbAlignedDimension
 13
220.8109566398878
 23
101.7915278916696
 33
0.0
 14
220.8109566398878
 24
66.79152788666967
 34
0.0
 50
90.0
100
AcDbRotatedDimension
1001
ACAD
1000
DSTYLE
1002
{
1070
    41
1040
3.0
1070
    42
1040
3.0
1070
    43
1040
7.0
1070
    44
1040
1.5
1070
    73
1070
     0
1070
    74
1070
     0
1070
    77
1070
     3
1070
   140
1040
3.0
1070
   141
1040
3.0
1070
   147
1040
1.0
1070
   172
1070
     1
1070
   173
1070
     1
1070
   176
1070
   256
1070
   177
1070
   256
1070
   178
1070
   256
1070
   271
1070
     0
1070
   272
1070
     0
1070
   341
1005
B2
1070
     6
1000
OPEN
1070
     7
1000
OPEN
1002
}
  0
DIMENSION
  5
2869
330
1A
100
AcDbEntity
  8
SUNPOU
100
AcDbDimension
  2
*D10
 10
220.8109566398878
 20
132.8799914063706
 30
0.0
 11
209.5402826713072
 21
135.3799914063706
 31
0.0
 70
    32
  3
STANDARD
100
AcDbAlignedDimension
 13
198.2696087027265
 23
94.87850258922028
 33
0.0
 14
220.8109566398878
 24
101.7915278916696
 34
0.0
100
AcDbRotatedDimension
1001
ACAD
1000
DSTYLE
1002
{
1070
    41
1040
3.0
1070
    42
1040
3.0
1070
    43
1040
7.0
1070
    44
1040
1.5
1070
    73
1070
     0
1070
    74
1070
     0
1070
    77
1070
     3
1070
   140
1040
3.0
1070
   141
1040
3.0
1070
   147
1040
1.0
1070
   172
1070
     1
1070
   173
1070
     1
1070
   176
1070
   256
1070
   177
1070
   256
1070
   178
1070
   256
1070
   271
1070
     0
1070
   272
1070
     0
1070
   341
1005
B2
1070
     6
1000
OPEN
1070
     7
1000
OPEN
1002
}
  0
DIMENSION
  5
2876
330
1A
100
AcDbEntity
  8
SUNPOU
100
AcDbDimension
  2
*D11
 10
220.8109566398878
 20
142.2982436964134
 30
0.0
 11
177.5608113098878
 21
144.7982436964134
 31
0.0
 70
    32
  3
STANDARD
100
AcDbAlignedDimension
 13
134.3106659798878
 23
92.1480026016697
 33
0.0
 14
220.8109566398878
 24
101.7915278916696
 34
0.0
100
AcDbRotatedDimension
1001
ACAD
1000
DSTYLE
1002
{
1070
    41
1040
3.0
1070
    42
1040
3.0
1070
    43
1040
7.0
1070
    44
1040
1.5
1070
    73
1070
     0
1070
    74
1070
     0
1070
    77
1070
     3
1070
   140
1040
3.0
1070
   141
1040
3.0
1070
   147
1040
1.0
1070
   172
1070
     1
1070
   173
1070
     1
1070
   176
1070
   256
1070
   177
1070
   256
1070
   178
1070
   256
1070
   271
1070
     0
1070
   272
1070
     0
1070
   341
1005
B2
1070
     6
1000
OPEN
1070
     7
1000
OPEN
1002
}
  0
DIMENSION
  5
2883
330
1A
100
AcDbEntity
  8
SUNPOU
100
AcDbDimension
  2
*D12
 10
220.8109566398878
 20
151.964341572409
 30
0.0
 11
151.3108113098878
 21
154.464341572409
 31
0.0
 70
    32
  3
STANDARD
100
AcDbAlignedDimension
 13
81.81066597988779
 23
90.38257322101015
 33
0.0
 14
220.8109566398878
 24
101.7915278916696
 34
0.0
100
AcDbRotatedDimension
1001
ACAD
1000
DSTYLE
1002
{
1070
    41
1040
3.0
1070
    42
1040
3.0
1070
    43
1040
7.0
1070
    44
1040
1.5
1070
    73
1070
     0
1070
    74
1070
     0
1070
    77
1070
     3
1070
   140
1040
3.0
1070
   141
1040
3.0
1070
   147
1040
1.0
1070
   172
1070
     1
1070
   173
1070
     1
1070
   176
1070
   256
1070
   177
1070
   256
1070
   178
1070
   256
1070
   271
1070
     0
1070
   272
1070
     0
1070
   341
1005
B2
1070
     6
1000
OPEN
1070
     7
1000
OPEN
1002
}
  0
LINE
  5
29B3
330
1A
100
AcDbEntity
  8
SEIHIN
100
AcDbLine
 10
214.2109566398878
 20
229.1707035089473
 30
0.0
 11
214.2109566398878
 21
230.2707035089472
 31
0.0
  0
LINE
  5
29B4
330
1A
100
AcDbEntity
  8
SEIHIN
100
AcDbLine
 10
215.8109566398878
 20
229.1707035089473
 30
0.0
 11
215.8109566398878
 21
229.3707035089473
 31
0.0
  0
LINE
  5
29B5
330
1A
100
AcDbEntity
  8
SEIHIN
100
AcDbLine
 10
220.3109566398878
 20
223.1707035089473
 30
0.0
 11
213.8670227282882
 21
223.1707035089473
 31
0.0
  0
LINE
  5
29B6
330
1A
100
AcDbEntity
  8
SEIHIN
100
AcDbLine
 10
220.3109566398878
 20
215.1707035089473
 30
0.0
 11
213.8670227282882
 21
215.1707035089473
 31
0.0
  0
ARC
  5
2D0E
330
1A
100
AcDbEntity
  8
SEIHIN
100
AcDbCircle
 10
311.8653267912299
 20
78.81559377601217
 30
0.0
 40
31.99111736042471
100
AcDbArc
 50
76.62554294262005
 51
103.3744570573798
  0
LINE
  5
2D0F
330
1A
100
AcDbEntity
  8
SEIHIN
100
AcDbLine
 10
321.8653267912297
 20
101.7915278866696
 30
0.0
 11
339.8653267912298
 21
101.7915278866696
 31
0.0
  0
DIMENSION
  5
2D44
330
1A
100
AcDbEntity
  8
SUNPOU
100
AcDbDimension
  2
*D13
 10
54.97985321155009
 20
66.79152788666971
 30
0.0
 11
52.47985321155008
 21
78.8197652441697
 31
0.0
 70
    32
  3
STANDARD
100
AcDbAlignedDimension
 13
81.81066597988779
 23
90.84800260166968
 33
0.0
 14
214.2109565998878
 24
66.79152788666967
 34
0.0
 50
90.0
100
AcDbRotatedDimension
1001
ACAD
1000
DSTYLE
1002
{
1070
    41
1040
3.0
1070
    42
1040
3.0
1070
    43
1040
7.0
1070
    44
1040
1.5
1070
    73
1070
     0
1070
    74
1070
     0
1070
    77
1070
     3
1070
   140
1040
3.0
1070
   141
1040
3.0
1070
   147
1040
1.0
1070
   172
1070
     1
1070
   173
1070
     1
1070
   176
1070
   256
1070
   177
1070
   256
1070
   178
1070
   256
1070
   271
1070
     0
1070
   272
1070
     0
1070
   341
1005
B2
1070
     6
1000
OPEN
1070
     7
1000
OPEN
1002
}
  0
LWPOLYLINE
  5
2F62
330
1A
100
AcDbEntity
  8
ZUWAKU
100
AcDbPolyline
 90
        4
 70
     1
 43
0.0
 10
0.3999998849316171
 20
275.4000001155457
 10
0.3999998849316171
 20
0.4000001155457654
 10
398.3999998849316
 20
0.4000001155457654
 10
398.3999998849316
 20
275.4000001155457
  0
LWPOLYLINE
  5
2F63
330
1A
100
AcDbEntity
  8
ZUWAKU
100
AcDbPolyline
 90
        4
 70
     1
 43
0.0
 10
0.1999998849316284
 20
275.6000001155457
 10
0.1999998849316284
 20
0.2000001155457767
 10
398.5999998849316
 20
0.2000001155457651
 10
398.5999998849316
 20
275.6000001155457
  0
LWPOLYLINE
  5
2F64
330
1A
100
AcDbEntity
  8
ZUWAKU
100
AcDbPolyline
 90
        4
 70
     1
 43
0.0
 10
-0.0000001150683602
 20
275.8000001155457
 10
-0.0000001150683602
 20
0.0000001155457312
 10
398.7999998849317
 20
0.000000115545765
 10
398.7999998849317
 20
275.8000001155457
  0
LWPOLYLINE
  5
2F65
330
1A
100
AcDbEntity
  8
ZUWAKU
100
AcDbPolyline
 90
        4
 70
     1
 43
0.0
 10
0.2999998849315943
 20
275.5000001155457
 10
0.2999998849315943
 20
0.3000001155457426
 10
398.4999998849317
 20
0.3000001155457657
 10
398.4999998849316
 20
275.5000001155457
  0
LWPOLYLINE
  5
2F66
330
1A
100
AcDbEntity
  8
ZUWAKU
100
AcDbPolyline
 90
        4
 70
     1
 43
0.0
 10
0.0999998849316057
 20
275.7000001155457
 10
0.0999998849316057
 20
0.1000001155457539
 10
398.6999998849315
 20
0.1000001155457655
 10
398.6999998849316
 20
275.7000001155457
  0
LINE
  5
2F67
330
1A
100
AcDbEntity
  8
ZUWAKU
100
AcDbLine
 10
-0.0000001150683602
 20
15.00000011554573
 30
0.0
 11
398.6999998849315
 21
15.00000011554573
 31
0.0
  0
LINE
  5
2F68
330
1A
100
AcDbEntity
  8
ZUWAKU
100
AcDbLine
 10
-0.0000001150683602
 20
15.10000011554573
 30
0.0
 11
398.6999998849315
 21
15.10000011554573
 31
0.0
  0
LINE
  5
2F69
330
1A
100
AcDbEntity
  8
ZUWAKU
100
AcDbLine
 10
-0.0000001150683602
 20
15.20000011554573
 30
0.0
 11
398.6999998849315
 21
15.20000011554573
 31
0.0
  0
LINE
  5
2F6A
330
1A
100
AcDbEntity
  8
ZUWAKU
100
AcDbLine
 10
-0.0000001150683602
 20
15.30000011554573
 30
0.0
 11
398.6999998849315
 21
15.30000011554573
 31
0.0
  0
LINE
  5
2F6B
330
1A
100
AcDbEntity
  8
ZUWAKU
100
AcDbLine
 10
-0.0000001150683602
 20
15.40000011554573
 30
0.0
 11
398.6999998849315
 21
15.40000011554573
 31
0.0
  0
LINE
  5
2F6C
330
1A
100
AcDbEntity
  8
ZUWAKU
100
AcDbLine
 10
104.3233005299656
 20
7.700000115545748
 30
0.0
 11
223.7121818704273
 21
7.700000115545748
 31
0.0
  0
LINE
  5
2F6D
330
1A
100
AcDbEntity
  8
ZUWAKU
100
AcDbLine
 10
104.3233005299656
 20
7.800000115545747
 30
0.0
 11
223.7121818704273
 21
7.800000115545751
 31
0.0
  0
LINE
  5
2F6E
330
1A
100
AcDbEntity
  8
ZUWAKU
100
AcDbLine
 10
104.3233005299656
 20
7.60000011554575
 30
0.0
 11
223.7121818704273
 21
7.600000115545746
 31
0.0
  0
TEXT
  5
2F6F
330
1A
100
AcDbEntity
  8
MOJI
100
AcDbText
 10
46.4788946790162
 20
6.370589180683111
 30
0.0
 40
3.0
  1
新・丸トップＲＶ１０５
 41
0.9
  7
ｽﾀｲﾙ1
100
AcDbText
  0
CIRCLE
  5
2F70
330
1A
100
AcDbEntity
  8
ZUWAKU
100
AcDbCircle
 10
12.99610596232219
 20
7.600000115545732
 30
0.0
 40
0.875
  0
LINE
  5
2F71
330
1A
100
AcDbEntity
  8
ZUWAKU
100
AcDbLine
 10
13.43360596232219
 20
3.575000115545734
 30
0.0
 11
12.47110596232221
 21
3.575000115545734
 31
0.0
  0
LINE
  5
2F72
330
1A
100
AcDbEntity
  8
ZUWAKU
100
AcDbLine
 10
12.47110596232221
 20
4.975000115545732
 30
0.0
 11
13.43360596232219
 21
4.975000115545732
 31
0.0
  0
LINE
  5
2F73
330
1A
100
AcDbEntity
  8
ZUWAKU
100
AcDbLine
 10
13.43360596232219
 20
10.22500011554573
 30
0.0
 11
12.47110596232221
 21
10.22500011554573
 31
0.0
  0
LINE
  5
2F74
330
1A
100
AcDbEntity
  8
ZUWAKU
100
AcDbLine
 10
12.47110596232221
 20
11.62500011554571
 30
0.0
 11
13.43360596232219
 21
11.62500011554573
 31
0.0
  0
HATCH
  5
2F75
330
1A
100
AcDbEntity
  8
ZUWAKU
100
AcDbHatch
 10
0.0
 20
0.0
 30
0.0
210
0.0
220
0.0
230
1.0
  2
ANSI37
 70
     0
 71
     0
 91
        8
 92
        7
 72
     1
 73
     1
 93
       24
 10
7.251131215491568
 20
8.822424356037522
 42
-0.1989123673796348
 10
7.046105962322201
 20
9.317399102868048
 42
0.0
 10
7.046105962322201
 20
9.962500115545736
 42
-0.4142135623730912
 10
7.308605962322189
 20
10.22500011554573
 42
0.0
 10
8.796105962322144
 20
10.22500011554573
 42
0.4142135623731546
 10
9.058605962322189
 20
10.48750011554572
 42
0.0
 10
9.058605962322189
 20
11.36250011554573
 42
0.4142135623731586
 10
8.796105962322144
 20
11.62500011554573
 42
0.0
 10
7.046105962322201
 20
11.62500011554573
 42
0.4142135623730928
 10
5.646105962322224
 20
10.22500011554574
 42
0.0
 10
5.646105962322224
 20
9.317399102868112
 42
0.1989123673796619
 10
6.261181721830439
 20
7.832474862376308
 42
0.0
 10
7.716080709152777
 20
6.377575875053979
 42
-0.1989123673796613
 10
7.921105962322201
 20
5.882601128223386
 42
0.0
 10
7.921105962322201
 20
5.237500115545728
 42
-0.4142135623730911
 10
7.658605962322212
 20
4.975000115545732
 42
0.0
 10
6.171105962322258
 20
4.975000115545732
 42
0.4142135623731526
 10
5.908605962322212
 20
4.712500115545738
 42
0.0
 10
5.908605962322212
 20
3.837500115545728
 42
0.4142135623731526
 10
6.171105962322258
 20
3.575000115545734
 42
0.0
 10
7.921105962322201
 20
3.575000115545734
 42
0.4142135623731044
 10
9.321105962322235
 20
4.975000115545721
 42
0.0
 10
9.321105962322235
 20
5.882601128223358
 42
0.1989123673796604
 10
8.706030202813963
 20
7.367525368715128
 42
0.0
 97
        0
 92
        7
 72
     1
 73
     1
 93
       16
 10
11.77110596232222
 20
9.525000115545736
 42
-0.4142135623730935
 10
12.47110596232221
 20
10.22500011554573
 42
0.0
 10
13.43360596232219
 20
10.22500011554573
 42
0.4142135623731546
 10
13.69610596232223
 20
10.48750011554572
 42
0.0
 10
13.69610596232223
 20
11.36250011554573
 42
0.4142135623730951
 10
13.43360596232224
 20
11.62500011554573
 42
0.0
 10
12.47110596232215
 20
11.62500011554571
 42
0.4142135623730892
 10
10.37110596232219
 20
9.525000115545701
 42
0.0
 10
10.37110596232219
 20
5.675000115545746
 42
0.4142135623730969
 10
12.47110596232221
 20
3.575000115545734
 42
0.0
 10
13.43360596232219
 20
3.575000115545734
 42
0.4142135623731526
 10
13.69610596232223
 20
3.837500115545728
 42
0.0
 10
13.69610596232223
 20
4.712500115545738
 42
0.4142135623730891
 10
13.43360596232224
 20
4.975000115545732
 42
0.0
 10
12.47110596232221
 20
4.975000115545732
 42
-0.4142135623730928
 10
11.77110596232222
 20
5.675000115545726
 42
0.0
 97
        0
 92
        7
 72
     1
 73
     1
 93
        2
 10
12.12110596232219
 20
7.600000115545732
 42
1.0
 10
13.87110596232218
 20
7.600000115545732
 42
1.0
 97
        0
 92
        7
 72
     1
 73
     1
 93
       26
 10
18.65742920341119
 20
9.602523712327446
 42
0.0
 10
19.1882490199801
 20
11.28345313146224
 42
0.5069206636600134
 10
18.93793357038242
 20
11.62500011554573
 42
0.0
 10
18.08848888057781
 20
11.62500011554573
 42
0.3272098845218764
 10
17.83817343098013
 20
11.44154709962921
 42
0.0
 10
16.90403849366424
 20
8.483453131462272
 42
-0.3272098845219541
 10
16.65372304406651
 20
8.300000115545731
 42
0.0
 10
16.58360596232228
 20
8.300000115545731
 42
-0.4142135623731526
 10
16.32110596232223
 20
8.562500115545725
 42
0.0
 10
16.32110596232223
 20
11.36250011554573
 42
0.4142135623730951
 10
16.05860596232224
 20
11.62500011554573
 42
0.0
 10
15.18360596232219
 20
11.62500011554573
 42
0.4142135623730871
 10
14.9211059623222
 20
11.36250011554574
 42
0.0
 10
14.9211059623222
 20
3.837500115545728
 42
0.4142135623730891
 10
15.18360596232219
 20
3.575000115545734
 42
0.0
 10
16.05860596232218
 20
3.575000115545734
 42
0.4142135623731526
 10
16.32110596232223
 20
3.837500115545728
 42
0.0
 10
16.32110596232223
 20
6.637500115545739
 42
-0.4142135623731526
 10
16.58360596232228
 20
6.900000115545733
 42
0.0
 10
16.65372304406656
 20
6.900000115545733
 42
-0.3272098845218915
 10
16.90403849366424
 20
6.716547099629195
 42
0.0
 10
17.83817343098013
 20
3.758453131462269
 42
0.3272098845218902
 10
18.08848888057781
 20
3.575000115545734
 42
0.0
 10
18.93793357038242
 20
3.575000115545734
 42
0.5069206636600335
 10
19.1882490199801
 20
3.916547099629237
 42
0.0
 10
18.02505333074327
 20
7.600000115545801
 42
0.0
 97
        0
 92
        7
 72
     1
 73
     1
 93
        8
 10
21.74610596232219
 20
11.36250011554573
 42
0.4142135623731546
 10
21.48360596232214
 20
11.62500011554573
 42
0.0
 10
20.60860596232225
 20
11.62500011554573
 42
0.4142135623731507
 10
20.34610596232221
 20
11.36250011554574
 42
0.0
 10
20.34610596232221
 20
3.837500115545728
 42
0.4142135623731526
 10
20.60860596232225
 20
3.575000115545734
 42
0.0
 10
21.48360596232214
 20
3.575000115545734
 42
0.4142135623731526
 10
21.74610596232219
 20
3.837500115545728
 42
0.0
 97
        0
 92
        7
 72
     1
 73
     1
 93
       24
 10
24.19610596232223
 20
9.962500115545736
 42
-0.4142135623731546
 10
24.45860596232228
 20
10.22500011554573
 42
0.0
 10
25.94610596232223
 20
10.22500011554573
 42
0.4142135623730911
 10
26.20860596232222
 20
10.48750011554572
 42
0.0
 10
26.20860596232222
 20
11.36250011554573
 42
0.4142135623730952
 10
25.94610596232223
 20
11.62500011554573
 42
0.0
 10
24.19610596232223
 20
11.62500011554573
 42
0.4142135623731048
 10
22.7961059623222
 20
10.22500011554574
 42
0.0
 10
22.7961059623222
 20
9.317399102868112
 42
0.1989123673796613
 10
23.41118172183047
 20
7.832474862376336
 42
0.0
 10
24.86608070915281
 20
6.377575875054002
 42
-0.1989123673796402
 10
25.07110596232223
 20
5.882601128223466
 42
0.0
 10
25.07110596232223
 20
5.237500115545728
 42
-0.4142135623730911
 10
24.80860596232224
 20
4.975000115545732
 42
0.0
 10
23.32110596232223
 20
4.975000115545732
 42
0.4142135623731526
 10
23.05860596232219
 20
4.712500115545738
 42
0.0
 10
23.05860596232219
 20
3.837500115545728
 42
0.4142135623730891
 10
23.32110596232217
 20
3.575000115545734
 42
0.0
 10
25.07110596232223
 20
3.575000115545734
 42
0.4142135623730925
 10
26.47110596232221
 20
4.975000115545721
 42
0.0
 10
26.47110596232221
 20
5.882601128223358
 42
0.1989123673796675
 10
25.85603020281394
 20
7.367525368715185
 42
0.0
 10
24.40113121549166
 20
8.822424356037442
 42
-0.1989123673796652
 10
24.19610596232223
 20
9.317399102868026
 42
0.0
 97
        0
 92
        7
 72
     1
 73
     1
 93
       16
 10
28.9211059623222
 20
11.36250011554572
 42
0.414213562373103
 10
28.65860596232221
 20
11.62500011554573
 42
0.0
 10
27.78360596232221
 20
11.62500011554573
 42
0.4142135623730871
 10
27.52110596232222
 20
11.36250011554574
 42
0.0
 10
27.52110596232222
 20
4.975000115545721
 42
0.4142135623730926
 10
28.9211059623222
 20
3.575000115545734
 42
0.0
 10
30.6711059623222
 20
3.575000115545734
 42
0.4142135623731044
 10
32.07110596232223
 20
4.975000115545721
 42
0.0
 10
32.07110596232223
 20
11.36250011554573
 42
0.4142135623730951
 10
31.80860596232224
 20
11.62500011554573
 42
0.0
 10
30.93360596232219
 20
11.62500011554573
 42
0.4142135623730871
 10
30.6711059623222
 20
11.36250011554574
 42
0.0
 10
30.6711059623222
 20
5.50000011554572
 42
-0.414213562373088
 10
30.14610596232222
 20
4.975000115545732
 42
0.0
 10
29.44610596232223
 20
4.975000115545732
 42
-0.4142135623731197
 10
28.9211059623222
 20
5.50000011554572
 42
0.0
 97
        0
 92
        7
 72
     1
 73
     1
 93
        8
 10
34.52110596232222
 20
11.36250011554574
 42
0.4142135623730871
 10
34.25860596232223
 20
11.62500011554573
 42
0.0
 10
33.38360596232223
 20
11.62500011554573
 42
0.4142135623731507
 10
33.12110596232219
 20
11.36250011554574
 42
0.0
 10
33.12110596232219
 20
3.837500115545728
 42
0.4142135623730891
 10
33.38360596232218
 20
3.575000115545734
 42
0.0
 10
34.25860596232223
 20
3.575000115545734
 42
0.4142135623730891
 10
34.52110596232222
 20
3.837500115545728
 42
0.0
 97
        0
 75
     0
 76
     1
 52
0.0
 41
0.1
 77
     0
 78
     2
 53
45.0
 43
-450.4711522824078
 44
-6.599999884454234
 45
-0.2245064030267288
 46
0.2245064030267288
 79
     0
 53
135.0
 43
-450.4711522824078
 44
-6.599999884454234
 45
-0.2245064030267288
 46
-0.2245064030267288
 79
     0
 47
0.057451373970553
 98
        8
 10
8.039927366443293
 20
7.583586938488508
 10
11.20225738815122
 20
9.422031206771237
 10
12.58218382776147
 20
7.75594093858109
 10
15.45702987575021
 20
8.100648938766482
 10
20.91923589441
 20
8.33045507253729
 10
23.44910033249641
 20
9.709288273749336
 10
28.27884287113181
 20
9.364579073093239
 10
33.913539694743
 20
9.594385206864046
  0
ARC
  5
2F76
330
1A
100
AcDbEntity
  8
ZUWAKU
100
AcDbCircle
 10
7.746105962322189
 20
9.317399102868083
 30
0.0
 40
2.099999999999999
100
AcDbArc
 50
180.0
 51
225.0
  0
LINE
  5
2F77
330
1A
100
AcDbEntity
  8
ZUWAKU
100
AcDbLine
 10
10.37110596232219
 20
5.675000115545735
 30
0.0
 11
10.37110596232219
 21
9.525000115545712
 31
0.0
  0
LINE
  5
2F78
330
1A
100
AcDbEntity
  8
ZUWAKU
100
AcDbLine
 10
11.77110596232222
 20
9.525000115545733
 30
0.0
 11
11.77110596232222
 21
5.675000115545735
 31
0.0
  0
ARC
  5
2F79
330
1A
100
AcDbEntity
  8
ZUWAKU
100
AcDbCircle
 10
7.746105962322189
 20
9.317399102868083
 30
0.0
 40
0.7
100
AcDbArc
 50
180.0000000000016
 51
224.9999999999988
  0
ARC
  5
2F7A
330
1A
100
AcDbEntity
  8
ZUWAKU
100
AcDbCircle
 10
12.47110596232221
 20
5.675000115545735
 30
0.0
 40
2.099999999999999
100
AcDbArc
 50
180.0
 51
270.0
  0
ARC
  5
2F7B
330
1A
100
AcDbEntity
  8
ZUWAKU
100
AcDbCircle
 10
7.921105962322201
 20
4.975000115545732
 30
0.0
 40
1.399999999999999
100
AcDbArc
 50
270.0
 51
0.0
  0
ARC
  5
2F7C
330
1A
100
AcDbEntity
  8
ZUWAKU
100
AcDbCircle
 10
7.221105962322212
 20
5.882601128223384
 30
0.0
 40
2.099999999999999
100
AcDbArc
 50
0.0
 51
45.0
  0
LINE
  5
2F7D
330
1A
100
AcDbEntity
  8
ZUWAKU
100
AcDbLine
 10
6.261181721830439
 20
7.832474862376322
 30
0.0
 11
7.716080709152777
 21
6.377575875053992
 31
0.0
  0
LINE
  5
2F7E
330
1A
100
AcDbEntity
  8
ZUWAKU
100
AcDbLine
 10
6.171105962322201
 20
4.975000115545732
 30
0.0
 11
7.658605962322212
 21
4.975000115545732
 31
0.0
  0
LINE
  5
2F7F
330
1A
100
AcDbEntity
  8
ZUWAKU
100
AcDbLine
 10
6.171105962322201
 20
3.575000115545734
 30
0.0
 11
7.921105962322201
 21
3.575000115545734
 31
0.0
  0
ARC
  5
2F80
330
1A
100
AcDbEntity
  8
ZUWAKU
100
AcDbCircle
 10
6.171105962322201
 20
4.712500115545733
 30
0.0
 40
0.2625
100
AcDbArc
 50
90.0
 51
180.0
  0
ARC
  5
2F81
330
1A
100
AcDbEntity
  8
ZUWAKU
100
AcDbCircle
 10
6.171105962322201
 20
3.837500115545733
 30
0.0
 40
0.2625
100
AcDbArc
 50
180.0
 51
270.0
  0
LINE
  5
2F82
330
1A
100
AcDbEntity
  8
ZUWAKU
100
AcDbLine
 10
5.908605962322212
 20
3.837500115545733
 30
0.0
 11
5.908605962322212
 21
4.712500115545733
 31
0.0
  0
ARC
  5
2F83
330
1A
100
AcDbEntity
  8
ZUWAKU
100
AcDbCircle
 10
7.221105962322212
 20
5.882601128223406
 30
0.0
 40
0.7
100
AcDbArc
 50
0.0
 51
45.0
  0
ARC
  5
2F84
330
1A
100
AcDbEntity
  8
ZUWAKU
100
AcDbCircle
 10
7.658605962322212
 20
5.237500115545735
 30
0.0
 40
0.2625
100
AcDbArc
 50
270.0
 51
0.0
  0
LINE
  5
2F85
330
1A
100
AcDbEntity
  8
ZUWAKU
100
AcDbLine
 10
7.921105962322201
 20
5.237500115545735
 30
0.0
 11
7.921105962322201
 21
5.882601128223406
 31
0.0
  0
LINE
  5
2F86
330
1A
100
AcDbEntity
  8
ZUWAKU
100
AcDbLine
 10
8.706030202813963
 20
7.367525368715146
 30
0.0
 11
7.251131215491625
 21
8.822424356037483
 31
0.0
  0
ARC
  5
2F87
330
1A
100
AcDbEntity
  8
ZUWAKU
100
AcDbCircle
 10
12.47110596232221
 20
5.675000115545735
 30
0.0
 40
0.7
100
AcDbArc
 50
180.0
 51
270.0
  0
LINE
  5
2F88
330
1A
100
AcDbEntity
  8
ZUWAKU
100
AcDbLine
 10
9.321105962322235
 20
4.975000115545732
 30
0.0
 11
9.321105962322235
 21
5.882601128223406
 31
0.0
  0
ARC
  5
2F89
330
1A
100
AcDbEntity
  8
ZUWAKU
100
AcDbCircle
 10
8.796105962322201
 20
10.48750011554573
 30
0.0
 40
0.2625
100
AcDbArc
 50
270.0
 51
0.0
  0
ARC
  5
2F8A
330
1A
100
AcDbEntity
  8
ZUWAKU
100
AcDbCircle
 10
8.796105962322201
 20
11.36250011554573
 30
0.0
 40
0.2625
100
AcDbArc
 50
0.0
 51
90.0
  0
ARC
  5
2F8B
330
1A
100
AcDbEntity
  8
ZUWAKU
100
AcDbCircle
 10
7.046105962322201
 20
10.22500011554573
 30
0.0
 40
1.399999999999999
100
AcDbArc
 50
90.0
 51
180.0
  0
LINE
  5
2F8C
330
1A
100
AcDbEntity
  8
ZUWAKU
100
AcDbLine
 10
5.646105962322224
 20
10.22500011554573
 30
0.0
 11
5.646105962322224
 21
9.317399102868062
 31
0.0
  0
LINE
  5
2F8D
330
1A
100
AcDbEntity
  8
ZUWAKU
100
AcDbLine
 10
8.796105962322201
 20
10.22500011554573
 30
0.0
 11
7.308605962322189
 21
10.22500011554573
 31
0.0
  0
LINE
  5
2F8E
330
1A
100
AcDbEntity
  8
ZUWAKU
100
AcDbLine
 10
7.046105962322201
 20
9.962500115545733
 30
0.0
 11
7.046105962322201
 21
9.317399102868062
 31
0.0
  0
ARC
  5
2F8F
330
1A
100
AcDbEntity
  8
ZUWAKU
100
AcDbCircle
 10
7.308605962322189
 20
9.962500115545733
 30
0.0
 40
0.2625
100
AcDbArc
 50
90.0
 51
180.0
  0
LINE
  5
2F90
330
1A
100
AcDbEntity
  8
ZUWAKU
100
AcDbLine
 10
7.046105962322201
 20
11.62500011554573
 30
0.0
 11
8.796105962322201
 21
11.62500011554573
 31
0.0
  0
ARC
  5
2F91
330
1A
100
AcDbEntity
  8
ZUWAKU
100
AcDbCircle
 10
12.47110596232221
 20
9.525000115545712
 30
0.0
 40
2.099999999999999
100
AcDbArc
 50
90.0
 51
180.0
  0
ARC
  5
2F92
330
1A
100
AcDbEntity
  8
ZUWAKU
100
AcDbCircle
 10
12.47110596232221
 20
9.525000115545733
 30
0.0
 40
0.7
100
AcDbArc
 50
90.0
 51
180.0
  0
LINE
  5
2F93
330
1A
100
AcDbEntity
  8
ZUWAKU
100
AcDbLine
 10
9.058605962322189
 20
11.36250011554573
 30
0.0
 11
9.058605962322189
 21
10.48750011554573
 31
0.0
  0
LINE
  5
2F94
330
1A
100
AcDbEntity
  8
ZUWAKU
100
AcDbLine
 10
17.83817343098013
 20
11.44154709962921
 30
0.0
 11
16.90403849366424
 21
8.483453131462248
 31
0.0
  0
LINE
  5
2F95
330
1A
100
AcDbEntity
  8
ZUWAKU
100
AcDbLine
 10
14.9211059623222
 20
11.36250011554573
 30
0.0
 11
14.9211059623222
 21
3.837500115545733
 31
0.0
  0
LINE
  5
2F96
330
1A
100
AcDbEntity
  8
ZUWAKU
100
AcDbLine
 10
16.32110596232223
 20
8.562500115545734
 30
0.0
 11
16.32110596232223
 21
11.36250011554573
 31
0.0
  0
LINE
  5
2F97
330
1A
100
AcDbEntity
  8
ZUWAKU
100
AcDbLine
 10
28.9211059623222
 20
5.500000115545731
 30
0.0
 11
28.9211059623222
 21
11.36250011554573
 31
0.0
  0
LINE
  5
2F98
330
1A
100
AcDbEntity
  8
ZUWAKU
100
AcDbLine
 10
27.52110596232222
 20
11.36250011554573
 30
0.0
 11
27.52110596232222
 21
4.975000115545732
 31
0.0
  0
LINE
  5
2F99
330
1A
100
AcDbEntity
  8
ZUWAKU
100
AcDbLine
 10
21.74610596232219
 20
3.837500115545733
 30
0.0
 11
21.74610596232219
 21
11.36250011554573
 31
0.0
  0
LINE
  5
2F9A
330
1A
100
AcDbEntity
  8
ZUWAKU
100
AcDbLine
 10
20.34610596232221
 20
11.36250011554573
 30
0.0
 11
20.34610596232221
 21
3.837500115545733
 31
0.0
  0
LINE
  5
2F9B
330
1A
100
AcDbEntity
  8
ZUWAKU
100
AcDbLine
 10
18.65742920341119
 20
9.602523712327446
 30
0.0
 11
18.02505333074327
 21
7.600000115545743
 31
0.0
  0
ARC
  5
2F9C
330
1A
100
AcDbEntity
  8
ZUWAKU
100
AcDbCircle
 10
24.89610596232222
 20
9.317399102868083
 30
0.0
 40
2.099999999999999
100
AcDbArc
 50
180.0
 51
225.0
  0
ARC
  5
2F9D
330
1A
100
AcDbEntity
  8
ZUWAKU
100
AcDbCircle
 10
24.89610596232222
 20
9.317399102868083
 30
0.0
 40
0.7
100
AcDbArc
 50
180.0000000000016
 51
224.9999999999988
  0
LINE
  5
2F9E
330
1A
100
AcDbEntity
  8
ZUWAKU
100
AcDbLine
 10
33.12110596232219
 20
11.36250011554573
 30
0.0
 11
33.12110596232219
 21
3.837500115545733
 31
0.0
  0
LINE
  5
2F9F
330
1A
100
AcDbEntity
  8
ZUWAKU
100
AcDbLine
 10
34.52110596232222
 20
3.837500115545733
 30
0.0
 11
34.52110596232222
 21
11.36250011554573
 31
0.0
  0
LINE
  5
2FA0
330
1A
100
AcDbEntity
  8
ZUWAKU
100
AcDbLine
 10
30.6711059623222
 20
11.36250011554573
 30
0.0
 11
30.6711059623222
 21
5.500000115545731
 31
0.0
  0
LINE
  5
2FA1
330
1A
100
AcDbEntity
  8
ZUWAKU
100
AcDbLine
 10
32.07110596232223
 20
4.975000115545732
 30
0.0
 11
32.07110596232223
 21
11.36250011554573
 31
0.0
  0
LINE
  5
2FA2
330
1A
100
AcDbEntity
  8
ZUWAKU
100
AcDbLine
 10
39.56331465892583
 20
15.00000011554573
 30
0.0
 11
39.56331465892583
 21
0.4000001155457654
 31
0.0
  0
LINE
  5
2FA3
330
1A
100
AcDbEntity
  8
ZUWAKU
100
AcDbLine
 10
39.76331465892576
 20
15.00000011554573
 30
0.0
 11
39.76331465892588
 21
0.4000001155457654
 31
0.0
  0
LINE
  5
2FA4
330
1A
100
AcDbEntity
  8
ZUWAKU
100
AcDbLine
 10
39.66331465892574
 20
15.00000011554573
 30
0.0
 11
39.66331465892585
 21
0.4000001155457654
 31
0.0
  0
LINE
  5
2FA5
330
1A
100
AcDbEntity
  8
ZUWAKU
100
AcDbLine
 10
28.9211059623222
 20
3.575000115545734
 30
0.0
 11
30.6711059623222
 21
3.575000115545734
 31
0.0
  0
LINE
  5
2FA6
330
1A
100
AcDbEntity
  8
ZUWAKU
100
AcDbLine
 10
30.14610596232222
 20
4.975000115545732
 30
0.0
 11
29.44610596232223
 21
4.975000115545732
 31
0.0
  0
LINE
  5
2FA7
330
1A
100
AcDbEntity
  8
ZUWAKU
100
AcDbLine
 10
20.6086059623222
 20
3.575000115545734
 30
0.0
 11
21.4836059623222
 21
3.575000115545734
 31
0.0
  0
LINE
  5
2FA8
330
1A
100
AcDbEntity
  8
ZUWAKU
100
AcDbLine
 10
17.83817343098013
 20
3.758453131462246
 30
0.0
 11
16.90403849366424
 21
6.716547099629217
 31
0.0
  0
ARC
  5
2FA9
330
1A
100
AcDbEntity
  8
ZUWAKU
100
AcDbCircle
 10
16.58360596232222
 20
6.637500115545734
 30
0.0
 40
0.2625
100
AcDbArc
 50
90.0
 51
180.0
  0
ARC
  5
2FAA
330
1A
100
AcDbEntity
  8
ZUWAKU
100
AcDbCircle
 10
16.65372304406656
 20
6.637500115545734
 30
0.0
 40
0.2625
100
AcDbArc
 50
17.52556837372303
 51
90.0
  0
ARC
  5
2FAB
330
1A
100
AcDbEntity
  8
ZUWAKU
100
AcDbCircle
 10
15.18360596232219
 20
3.837500115545733
 30
0.0
 40
0.2625
100
AcDbArc
 50
180.0
 51
270.0
  0
ARC
  5
2FAC
330
1A
100
AcDbEntity
  8
ZUWAKU
100
AcDbCircle
 10
13.43360596232219
 20
4.712500115545733
 30
0.0
 40
0.2625
100
AcDbArc
 50
0.0
 51
90.0
  0
ARC
  5
2FAD
330
1A
100
AcDbEntity
  8
ZUWAKU
100
AcDbCircle
 10
13.43360596232219
 20
3.837500115545733
 30
0.0
 40
0.2625
100
AcDbArc
 50
270.0
 51
0.0
  0
LINE
  5
2FAE
330
1A
100
AcDbEntity
  8
ZUWAKU
100
AcDbLine
 10
13.69610596232223
 20
4.712500115545733
 30
0.0
 11
13.69610596232223
 21
3.837500115545733
 31
0.0
  0
LINE
  5
2FAF
330
1A
100
AcDbEntity
  8
ZUWAKU
100
AcDbLine
 10
16.32110596232223
 20
3.837500115545733
 30
0.0
 11
16.32110596232223
 21
6.637500115545734
 31
0.0
  0
ARC
  5
2FB0
330
1A
100
AcDbEntity
  8
ZUWAKU
100
AcDbCircle
 10
16.05860596232218
 20
3.837500115545733
 30
0.0
 40
0.2625
100
AcDbArc
 50
270.0
 51
0.0
  0
LINE
  5
2FB1
330
1A
100
AcDbEntity
  8
ZUWAKU
100
AcDbLine
 10
15.18360596232219
 20
3.575000115545734
 30
0.0
 11
16.05860596232218
 21
3.575000115545734
 31
0.0
  0
ARC
  5
2FB2
330
1A
100
AcDbEntity
  8
ZUWAKU
100
AcDbCircle
 10
16.58360596232222
 20
8.562500115545734
 30
0.0
 40
0.2625
100
AcDbArc
 50
180.0
 51
270.0
  0
LINE
  5
2FB3
330
1A
100
AcDbEntity
  8
ZUWAKU
100
AcDbLine
 10
16.58360596232222
 20
6.900000115545733
 30
0.0
 11
16.65372304406656
 21
6.900000115545733
 31
0.0
  0
LINE
  5
2FB4
330
1A
100
AcDbEntity
  8
ZUWAKU
100
AcDbLine
 10
16.65372304406656
 20
8.300000115545731
 30
0.0
 11
16.58360596232222
 21
8.300000115545731
 31
0.0
  0
ARC
  5
2FB5
330
1A
100
AcDbEntity
  8
ZUWAKU
100
AcDbCircle
 10
16.65372304406656
 20
8.562500115545734
 30
0.0
 40
0.2625
100
AcDbArc
 50
270.0
 51
342.4744316262769
  0
ARC
  5
2FB6
330
1A
100
AcDbEntity
  8
ZUWAKU
100
AcDbCircle
 10
18.08848888057787
 20
3.837500115545733
 30
0.0
 40
0.2625
100
AcDbArc
 50
197.525568373723
 51
270.0
  0
LINE
  5
2FB7
330
1A
100
AcDbEntity
  8
ZUWAKU
100
AcDbLine
 10
19.1882490199801
 20
3.916547099629219
 30
0.0
 11
18.02505333074327
 21
7.600000115545743
 31
0.0
  0
ARC
  5
2FB8
330
1A
100
AcDbEntity
  8
ZUWAKU
100
AcDbCircle
 10
18.93793357038236
 20
3.837500115545733
 30
0.0
 40
0.2625
100
AcDbArc
 50
270.0
 51
17.52556837372303
  0
LINE
  5
2FB9
330
1A
100
AcDbEntity
  8
ZUWAKU
100
AcDbLine
 10
18.08848888057787
 20
3.575000115545734
 30
0.0
 11
18.93793357038236
 21
3.575000115545734
 31
0.0
  0
ARC
  5
2FBA
330
1A
100
AcDbEntity
  8
ZUWAKU
100
AcDbCircle
 10
20.6086059623222
 20
3.837500115545733
 30
0.0
 40
0.2625
100
AcDbArc
 50
180.0
 51
270.0
  0
ARC
  5
2FBB
330
1A
100
AcDbEntity
  8
ZUWAKU
100
AcDbCircle
 10
25.07110596232223
 20
4.975000115545732
 30
0.0
 40
1.399999999999999
100
AcDbArc
 50
270.0
 51
0.0
  0
ARC
  5
2FBC
330
1A
100
AcDbEntity
  8
ZUWAKU
100
AcDbCircle
 10
28.9211059623222
 20
4.975000115545732
 30
0.0
 40
1.399999999999999
100
AcDbArc
 50
180.0
 51
270.0
  0
LINE
  5
2FBD
330
1A
100
AcDbEntity
  8
ZUWAKU
100
AcDbLine
 10
25.85603020281399
 20
7.367525368715146
 30
0.0
 11
24.4011312154916
 21
8.822424356037483
 31
0.0
  0
LINE
  5
2FBE
330
1A
100
AcDbEntity
  8
ZUWAKU
100
AcDbLine
 10
23.41118172183047
 20
7.832474862376322
 30
0.0
 11
24.86608070915281
 21
6.377575875053992
 31
0.0
  0
LINE
  5
2FBF
330
1A
100
AcDbEntity
  8
ZUWAKU
100
AcDbLine
 10
23.32110596232223
 20
3.575000115545734
 30
0.0
 11
25.07110596232223
 21
3.575000115545734
 31
0.0
  0
LINE
  5
2FC0
330
1A
100
AcDbEntity
  8
ZUWAKU
100
AcDbLine
 10
23.32110596232223
 20
4.975000115545732
 30
0.0
 11
24.80860596232218
 21
4.975000115545732
 31
0.0
  0
ARC
  5
2FC1
330
1A
100
AcDbEntity
  8
ZUWAKU
100
AcDbCircle
 10
23.32110596232223
 20
4.712500115545733
 30
0.0
 40
0.2625
100
AcDbArc
 50
90.0
 51
180.0
  0
ARC
  5
2FC2
330
1A
100
AcDbEntity
  8
ZUWAKU
100
AcDbCircle
 10
21.4836059623222
 20
3.837500115545733
 30
0.0
 40
0.2625
100
AcDbArc
 50
270.0
 51
0.0
  0
ARC
  5
2FC3
330
1A
100
AcDbEntity
  8
ZUWAKU
100
AcDbCircle
 10
23.32110596232223
 20
3.837500115545733
 30
0.0
 40
0.2625
100
AcDbArc
 50
180.0
 51
270.0
  0
LINE
  5
2FC4
330
1A
100
AcDbEntity
  8
ZUWAKU
100
AcDbLine
 10
23.05860596232219
 20
3.837500115545733
 30
0.0
 11
23.05860596232219
 21
4.712500115545733
 31
0.0
  0
ARC
  5
2FC5
330
1A
100
AcDbEntity
  8
ZUWAKU
100
AcDbCircle
 10
24.80860596232218
 20
5.237500115545735
 30
0.0
 40
0.2625
100
AcDbArc
 50
270.0
 51
0.0
  0
ARC
  5
2FC6
330
1A
100
AcDbEntity
  8
ZUWAKU
100
AcDbCircle
 10
24.37110596232219
 20
5.882601128223406
 30
0.0
 40
0.7
100
AcDbArc
 50
0.0
 51
45.0
  0
LINE
  5
2FC7
330
1A
100
AcDbEntity
  8
ZUWAKU
100
AcDbLine
 10
25.07110596232223
 20
5.237500115545735
 30
0.0
 11
25.07110596232223
 21
5.882601128223406
 31
0.0
  0
ARC
  5
2FC8
330
1A
100
AcDbEntity
  8
ZUWAKU
100
AcDbCircle
 10
29.44610596232223
 20
5.500000115545731
 30
0.0
 40
0.525
100
AcDbArc
 50
180.0
 51
270.0
  0
ARC
  5
2FC9
330
1A
100
AcDbEntity
  8
ZUWAKU
100
AcDbCircle
 10
24.37110596232219
 20
5.882601128223384
 30
0.0
 40
2.099999999999999
100
AcDbArc
 50
0.0
 51
45.0
  0
LINE
  5
2FCA
330
1A
100
AcDbEntity
  8
ZUWAKU
100
AcDbLine
 10
26.47110596232221
 20
4.975000115545732
 30
0.0
 11
26.47110596232221
 21
5.882601128223406
 31
0.0
  0
ARC
  5
2FCB
330
1A
100
AcDbEntity
  8
ZUWAKU
100
AcDbCircle
 10
30.6711059623222
 20
4.975000115545732
 30
0.0
 40
1.399999999999999
100
AcDbArc
 50
270.0
 51
0.0
  0
LINE
  5
2FCC
330
1A
100
AcDbEntity
  8
ZUWAKU
100
AcDbLine
 10
33.38360596232223
 20
3.575000115545734
 30
0.0
 11
34.25860596232223
 21
3.575000115545734
 31
0.0
  0
ARC
  5
2FCD
330
1A
100
AcDbEntity
  8
ZUWAKU
100
AcDbCircle
 10
30.14610596232222
 20
5.500000115545731
 30
0.0
 40
0.525
100
AcDbArc
 50
270.0
 51
0.0
  0
ARC
  5
2FCE
330
1A
100
AcDbEntity
  8
ZUWAKU
100
AcDbCircle
 10
33.38360596232223
 20
3.837500115545733
 30
0.0
 40
0.2625
100
AcDbArc
 50
180.0
 51
270.0
  0
ARC
  5
2FCF
330
1A
100
AcDbEntity
  8
ZUWAKU
100
AcDbCircle
 10
34.25860596232223
 20
3.837500115545733
 30
0.0
 40
0.2625
100
AcDbArc
 50
270.0
 51
0.0
  0
LINE
  5
2FD0
330
1A
100
AcDbEntity
  8
ZUWAKU
100
AcDbLine
 10
21.4836059623222
 20
11.62500011554573
 30
0.0
 11
20.6086059623222
 21
11.62500011554573
 31
0.0
  0
LINE
  5
2FD1
330
1A
100
AcDbEntity
  8
ZUWAKU
100
AcDbLine
 10
13.69610596232223
 20
11.36250011554573
 30
0.0
 11
13.69610596232223
 21
10.48750011554573
 31
0.0
  0
ARC
  5
2FD2
330
1A
100
AcDbEntity
  8
ZUWAKU
100
AcDbCircle
 10
13.43360596232219
 20
10.48750011554573
 30
0.0
 40
0.2625
100
AcDbArc
 50
270.0
 51
0.0
  0
ARC
  5
2FD3
330
1A
100
AcDbEntity
  8
ZUWAKU
100
AcDbCircle
 10
15.18360596232219
 20
11.36250011554573
 30
0.0
 40
0.2625
100
AcDbArc
 50
90.0
 51
180.0
  0
ARC
  5
2FD4
330
1A
100
AcDbEntity
  8
ZUWAKU
100
AcDbCircle
 10
13.43360596232219
 20
11.36250011554573
 30
0.0
 40
0.2625
100
AcDbArc
 50
0.0
 51
90.0
  0
LINE
  5
2FD5
330
1A
100
AcDbEntity
  8
ZUWAKU
100
AcDbLine
 10
16.05860596232218
 20
11.62500011554573
 30
0.0
 11
15.18360596232219
 21
11.62500011554573
 31
0.0
  0
ARC
  5
2FD6
330
1A
100
AcDbEntity
  8
ZUWAKU
100
AcDbCircle
 10
16.05860596232218
 20
11.36250011554573
 30
0.0
 40
0.2625
100
AcDbArc
 50
0.0
 51
90.0
  0
ARC
  5
2FD7
330
1A
100
AcDbEntity
  8
ZUWAKU
100
AcDbCircle
 10
18.08848888057787
 20
11.36250011554573
 30
0.0
 40
0.2625
100
AcDbArc
 50
90.0
 51
162.4744316262769
  0
LINE
  5
2FD8
330
1A
100
AcDbEntity
  8
ZUWAKU
100
AcDbLine
 10
19.1882490199801
 20
11.28345313146224
 30
0.0
 11
18.65742920341119
 21
9.602523712327446
 31
0.0
  0
ARC
  5
2FD9
330
1A
100
AcDbEntity
  8
ZUWAKU
100
AcDbCircle
 10
18.93793357038236
 20
11.36250011554573
 30
0.0
 40
0.2625
100
AcDbArc
 50
342.4744316262769
 51
90.0
  0
LINE
  5
2FDA
330
1A
100
AcDbEntity
  8
ZUWAKU
100
AcDbLine
 10
18.08848888057787
 20
11.62500011554573
 30
0.0
 11
18.93793357038236
 21
11.62500011554573
 31
0.0
  0
ARC
  5
2FDB
330
1A
100
AcDbEntity
  8
ZUWAKU
100
AcDbCircle
 10
20.6086059623222
 20
11.36250011554573
 30
0.0
 40
0.2625
100
AcDbArc
 50
90.0
 51
180.0
  0
LINE
  5
2FDC
330
1A
100
AcDbEntity
  8
ZUWAKU
100
AcDbLine
 10
25.94610596232223
 20
10.22500011554573
 30
0.0
 11
24.45860596232222
 21
10.22500011554573
 31
0.0
  0
LINE
  5
2FDD
330
1A
100
AcDbEntity
  8
ZUWAKU
100
AcDbLine
 10
24.19610596232223
 20
11.62500011554573
 30
0.0
 11
25.94610596232223
 21
11.62500011554573
 31
0.0
  0
ARC
  5
2FDE
330
1A
100
AcDbEntity
  8
ZUWAKU
100
AcDbCircle
 10
24.19610596232223
 20
10.22500011554573
 30
0.0
 40
1.399999999999999
100
AcDbArc
 50
90.0
 51
180.0
  0
LINE
  5
2FDF
330
1A
100
AcDbEntity
  8
ZUWAKU
100
AcDbLine
 10
22.7961059623222
 20
10.22500011554573
 30
0.0
 11
22.7961059623222
 21
9.317399102868062
 31
0.0
  0
ARC
  5
2FE0
330
1A
100
AcDbEntity
  8
ZUWAKU
100
AcDbCircle
 10
21.4836059623222
 20
11.36250011554573
 30
0.0
 40
0.2625
100
AcDbArc
 50
0.0
 51
90.0
  0
LINE
  5
2FE1
330
1A
100
AcDbEntity
  8
ZUWAKU
100
AcDbLine
 10
24.19610596232223
 20
9.962500115545733
 30
0.0
 11
24.19610596232223
 21
9.317399102868062
 31
0.0
  0
ARC
  5
2FE2
330
1A
100
AcDbEntity
  8
ZUWAKU
100
AcDbCircle
 10
24.45860596232222
 20
9.962500115545733
 30
0.0
 40
0.2625
100
AcDbArc
 50
90.0
 51
180.0
  0
LINE
  5
2FE3
330
1A
100
AcDbEntity
  8
ZUWAKU
100
AcDbLine
 10
26.20860596232222
 20
11.36250011554573
 30
0.0
 11
26.20860596232222
 21
10.48750011554573
 31
0.0
  0
ARC
  5
2FE4
330
1A
100
AcDbEntity
  8
ZUWAKU
100
AcDbCircle
 10
25.94610596232223
 20
10.48750011554573
 30
0.0
 40
0.2625
100
AcDbArc
 50
270.0
 51
0.0
  0
ARC
  5
2FE5
330
1A
100
AcDbEntity
  8
ZUWAKU
100
AcDbCircle
 10
25.94610596232223
 20
11.36250011554573
 30
0.0
 40
0.2625
100
AcDbArc
 50
0.0
 51
90.0
  0
LINE
  5
2FE6
330
1A
100
AcDbEntity
  8
ZUWAKU
100
AcDbLine
 10
28.65860596232221
 20
11.62500011554573
 30
0.0
 11
27.78360596232221
 21
11.62500011554573
 31
0.0
  0
ARC
  5
2FE7
330
1A
100
AcDbEntity
  8
ZUWAKU
100
AcDbCircle
 10
27.78360596232221
 20
11.36250011554573
 30
0.0
 40
0.2625
100
AcDbArc
 50
90.0
 51
180.0
  0
ARC
  5
2FE8
330
1A
100
AcDbEntity
  8
ZUWAKU
100
AcDbCircle
 10
28.65860596232221
 20
11.36250011554573
 30
0.0
 40
0.2625
100
AcDbArc
 50
0.0
 51
90.0
  0
LINE
  5
2FE9
330
1A
100
AcDbEntity
  8
ZUWAKU
100
AcDbLine
 10
34.25860596232223
 20
11.62500011554573
 30
0.0
 11
33.38360596232223
 21
11.62500011554573
 31
0.0
  0
ARC
  5
2FEA
330
1A
100
AcDbEntity
  8
ZUWAKU
100
AcDbCircle
 10
30.93360596232219
 20
11.36250011554573
 30
0.0
 40
0.2625
100
AcDbArc
 50
90.0
 51
180.0
  0
LINE
  5
2FEB
330
1A
100
AcDbEntity
  8
ZUWAKU
100
AcDbLine
 10
31.80860596232219
 20
11.62500011554573
 30
0.0
 11
30.93360596232219
 21
11.62500011554573
 31
0.0
  0
ARC
  5
2FEC
330
1A
100
AcDbEntity
  8
ZUWAKU
100
AcDbCircle
 10
31.80860596232219
 20
11.36250011554573
 30
0.0
 40
0.2625
100
AcDbArc
 50
0.0
 51
90.0
  0
ARC
  5
2FED
330
1A
100
AcDbEntity
  8
ZUWAKU
100
AcDbCircle
 10
33.38360596232223
 20
11.36250011554573
 30
0.0
 40
0.2625
100
AcDbArc
 50
90.0
 51
180.0
  0
ARC
  5
2FEE
330
1A
100
AcDbEntity
  8
ZUWAKU
100
AcDbCircle
 10
34.25860596232223
 20
11.36250011554573
 30
0.0
 40
0.2625
100
AcDbArc
 50
0.0
 51
90.0
  0
TEXT
  5
2FEF
330
1A
100
AcDbEntity
  8
MOJI
100
AcDbText
 10
119.9136012253571
 20
1.602460644249442
 30
0.0
 40
2.799999999999999
  1
ＲＶ１０５－０－２０
 41
0.9
  7
ｽﾀｲﾙ1
100
AcDbText
  0
TEXT
  5
2FF0
330
1A
100
AcDbEntity
  8
MOJI
100
AcDbText
 10
119.9136012253571
 20
9.002460644249424
 30
0.0
 40
2.799999999999999
  1
亜鉛メッキ金具正面打（吊）ストロング高強度金具（吊）
 41
0.9
  7
ｽﾀｲﾙ1
100
AcDbText
  0
LINE
  5
2FF1
330
1A
100
AcDbEntity
  8
ZUWAKU
100
AcDbLine
 10
104.2233005299655
 20
15.00000011554573
 30
0.0
 11
104.2233005299656
 21
0.4000001155457654
 31
0.0
  0
LINE
  5
2FF2
330
1A
100
AcDbEntity
  8
ZUWAKU
100
AcDbLine
 10
104.3233005299655
 20
15.00000011554573
 30
0.0
 11
104.3233005299656
 21
0.4000001155457654
 31
0.0
  0
LINE
  5
2FF3
330
1A
100
AcDbEntity
  8
ZUWAKU
100
AcDbLine
 10
104.1233005299656
 20
15.00000011554573
 30
0.0
 11
104.1233005299656
 21
0.4000001155457654
 31
0.0
  0
TEXT
  5
2FF4
330
1A
100
AcDbEntity
  8
ZUWAKU
100
AcDbText
 10
104.8620230410704
 20
4.82767838473854
 30
0.0
 40
2.0
  1
サイズ
 41
0.9
  7
ｽﾀｲﾙ1
100
AcDbText
  0
TEXT
  5
2FF5
330
1A
100
AcDbEntity
  8
ZUWAKU
100
AcDbText
 10
104.8620230410703
 20
12.02767838473852
 30
0.0
 40
2.0
  1
品名
 41
0.9
  7
ｽﾀｲﾙ1
100
AcDbText
  0
TEXT
  5
2FF6
330
1A
100
AcDbEntity
  8
ZUWAKU
100
AcDbText
 10
329.1019687285828
 20
9.002460644249424
 30
0.0
 40
2.799999999999999
  1
　　．　　．　　
 41
0.9
  7
ｽﾀｲﾙ1
100
AcDbText
  0
LINE
  5
2FF7
330
1A
100
AcDbEntity
  8
ZUWAKU
100
AcDbLine
 10
324.4086011400337
 20
7.800000115545747
 30
0.0
 11
348.6245051592022
 21
7.800000115545747
 31
0.0
  0
LINE
  5
2FF8
330
1A
100
AcDbEntity
  8
ZUWAKU
100
AcDbLine
 10
324.4086011400338
 20
7.70000011554575
 30
0.0
 11
348.6245051592022
 21
7.700000115545748
 31
0.0
  0
LINE
  5
2FF9
330
1A
100
AcDbEntity
  8
ZUWAKU
100
AcDbLine
 10
324.4086011400337
 20
7.600000115545746
 30
0.0
 11
348.6245051592022
 21
7.600000115545748
 31
0.0
  0
LINE
  5
2FFA
330
1A
100
AcDbEntity
  8
ZUWAKU
100
AcDbLine
 10
252.599589634002
 20
7.800000115545747
 30
0.0
 11
276.2634777679878
 21
7.800000115545747
 31
0.0
  0
LINE
  5
2FFB
330
1A
100
AcDbEntity
  8
ZUWAKU
100
AcDbLine
 10
252.599589634002
 20
7.700000115545748
 30
0.0
 11
276.2634777679878
 21
7.700000115545748
 31
0.0
  0
LINE
  5
2FFC
330
1A
100
AcDbEntity
  8
ZUWAKU
100
AcDbLine
 10
252.599589634002
 20
7.60000011554575
 30
0.0
 11
276.2634777679878
 21
7.60000011554575
 31
0.0
  0
LINE
  5
2FFD
330
1A
100
AcDbEntity
  8
ZUWAKU
100
AcDbLine
 10
252.3995896340021
 20
15.00000011554573
 30
0.0
 11
252.3995896340021
 21
0.4000001155457654
 31
0.0
  0
LINE
  5
2FFE
330
1A
100
AcDbEntity
  8
ZUWAKU
100
AcDbLine
 10
252.599589634002
 20
15.00000011554573
 30
0.0
 11
252.5995896340022
 21
0.4000001155457654
 31
0.0
  0
LINE
  5
2FFF
330
1A
100
AcDbEntity
  8
ZUWAKU
100
AcDbLine
 10
252.499589634002
 20
15.00000011554573
 30
0.0
 11
252.4995896340021
 21
0.4000001155457654
 31
0.0
  0
TEXT
  5
3000
330
1A
100
AcDbEntity
  8
MOJI
100
AcDbText
 10
264.0204538710881
 20
9.002460644249424
 30
0.0
 40
2.799999999999999
  1
Ａ３
 41
0.9
  7
ｽﾀｲﾙ1
100
AcDbText
  0
LINE
  5
3001
330
1A
100
AcDbEntity
  8
ZUWAKU
100
AcDbLine
 10
223.7121818704273
 20
15.00000011554573
 30
0.0
 11
223.7121818704273
 21
0.4000001155457654
 31
0.0
  0
LINE
  5
3002
330
1A
100
AcDbEntity
  8
ZUWAKU
100
AcDbLine
 10
223.9121818704272
 20
15.00000011554573
 30
0.0
 11
223.9121818704274
 21
0.4000001155457654
 31
0.0
  0
LINE
  5
3003
330
1A
100
AcDbEntity
  8
ZUWAKU
100
AcDbLine
 10
223.8121818704272
 20
15.00000011554573
 30
0.0
 11
223.8121818704273
 21
0.4000001155457654
 31
0.0
  0
TEXT
  5
3004
330
1A
100
AcDbEntity
  8
MOJI
100
AcDbText
 10
231.2836390459259
 20
5.971308976375723
 30
0.0
 40
2.799999999999999
  1
ＬＫ５１□
 41
0.9
  7
ｽﾀｲﾙ1
100
AcDbText
  0
TEXT
  5
3005
330
1A
100
AcDbEntity
  8
ZUWAKU
100
AcDbText
 10
231.3468807126852
 20
1.307035571115477
 30
0.0
 40
1.5
  1
□には色品番が入ります
 41
0.9
  7
ｽﾀｲﾙ1
100
AcDbText
  0
TEXT
  5
3006
330
1A
100
AcDbEntity
  8
ZUWAKU
100
AcDbText
 10
253.338312145107
 20
4.82767838473854
 30
0.0
 40
2.0
  1
縮尺
 41
0.9
  7
ｽﾀｲﾙ1
100
AcDbText
  0
TEXT
  5
3007
330
1A
100
AcDbEntity
  8
MOJI
100
AcDbText
 10
264.0204538710881
 20
1.602460644249442
 30
0.0
 40
2.799999999999999
  1
１/１
 41
0.9
  7
ｽﾀｲﾙ1
100
AcDbText
  0
TEXT
  5
3008
330
1A
100
AcDbEntity
  8
ZUWAKU
100
AcDbText
 10
224.650904381532
 20
12.02767838473852
 30
0.0
 40
2.0
  1
品番
 41
0.9
  7
ｽﾀｲﾙ1
100
AcDbText
  0
TEXT
  5
3009
330
1A
100
AcDbEntity
  8
ZUWAKU
100
AcDbText
 10
253.3383121451068
 20
12.02767838473852
 30
0.0
 40
2.0
  1
用紙
 41
0.9
  7
ｽﾀｲﾙ1
100
AcDbText
  0
LINE
  5
300A
330
1A
100
AcDbEntity
  8
ZUWAKU
100
AcDbLine
 10
276.2634777679878
 20
15.00000011554573
 30
0.0
 11
276.2634777679878
 21
0.4000001155457654
 31
0.0
  0
LINE
  5
300B
330
1A
100
AcDbEntity
  8
ZUWAKU
100
AcDbLine
 10
276.4634777679877
 20
15.00000011554573
 30
0.0
 11
276.4634777679879
 21
0.4000001155457654
 31
0.0
  0
LINE
  5
300C
330
1A
100
AcDbEntity
  8
ZUWAKU
100
AcDbLine
 10
276.3634777679877
 20
15.00000011554573
 30
0.0
 11
276.3634777679878
 21
0.4000001155457654
 31
0.0
  0
LINE
  5
300D
330
1A
100
AcDbEntity
  8
ZUWAKU
100
AcDbLine
 10
324.2086011400339
 20
15.00000011554573
 30
0.0
 11
324.2086011400339
 21
0.4000001155457654
 31
0.0
  0
LINE
  5
300E
330
1A
100
AcDbEntity
  8
ZUWAKU
100
AcDbLine
 10
324.4086011400338
 20
15.00000011554573
 30
0.0
 11
324.4086011400339
 21
0.4000001155457654
 31
0.0
  0
LINE
  5
300F
330
1A
100
AcDbEntity
  8
ZUWAKU
100
AcDbLine
 10
324.3086011400338
 20
15.00000011554573
 30
0.0
 11
324.3086011400339
 21
0.4000001155457654
 31
0.0
  0
TEXT
  5
3010
330
1A
100
AcDbEntity
  8
ZUWAKU
100
AcDbText
 10
325.1473236511386
 20
12.02767838473852
 30
0.0
 40
2.0
  1
DATE
 41
0.9
  7
ｽﾀｲﾙ1
100
AcDbText
  0
TEXT
  5
3011
330
1A
100
AcDbEntity
  8
ZUWAKU
100
AcDbText
 10
354.2640419810535
 20
8.776919783389132
 30
0.0
 40
3.0
  1
積水化学工業株式会社
 41
0.9
  7
ｽﾀｲﾙ1
100
AcDbText
  0
LINE
  5
3012
330
1A
100
AcDbEntity
  8
ZUWAKU
100
AcDbLine
 10
348.9245051592022
 20
15.00000011554573
 30
0.0
 11
348.9245051592023
 21
0.4000001155457654
 31
0.0
  0
LINE
  5
3013
330
1A
100
AcDbEntity
  8
ZUWAKU
100
AcDbLine
 10
348.8245051592022
 20
15.00000011554573
 30
0.0
 11
348.8245051592023
 21
0.4000001155457654
 31
0.0
  0
LINE
  5
3014
330
1A
100
AcDbEntity
  8
ZUWAKU
100
AcDbLine
 10
348.7245051592022
 20
15.00000011554573
 30
0.0
 11
348.7245051592022
 21
0.4000001155457654
 31
0.0
  0
LINE
  5
3015
330
1A
100
AcDbEntity
  8
ZUWAKU
100
AcDbLine
 10
348.6245051592022
 20
15.00000011554573
 30
0.0
 11
348.6245051592022
 21
0.4000001155457654
 31
0.0
  0
TEXT
  5
3016
330
1A
100
AcDbEntity
  8
ZUWAKU
100
AcDbText
 10
354.2640419810535
 20
3.324420272472764
 30
0.0
 40
3.0
  1
建材事業部
 41
0.9
  7
ｽﾀｲﾙ1
100
AcDbText
  0
VIEWPORT
  5
22
330
17
100
AcDbEntity
 67
     1
  8
0
100
AcDbViewport
 10
313.6808219178082
 20
148.5
 30
0.0
 40
627.3616438356165
 41
297.0
 68
     2
 69
     1
1001
ACAD
1000
MVIEW
1002
{
1070
    16
1010
0.0
1020
0.0
1030
0.0
1010
0.0
1020
0.0
1030
1.0
1040
0.0
1040
297.0
1040
313.6808219178082
1040
148.5
1040
50.0
1040
0.0
1040
0.0
1070
     0
1070
   100
1070
     1
1070
     0
1070
     0
1070
     0
1070
     0
1070
     0
1040
0.0
1040
0.0
1040
0.0
1040
1.0
1040
1.0
1040
10.0
1040
10.0
1070
     0
1002
{
1002
}
1002
}
  0
VIEWPORT
  5
64
330
17
100
AcDbEntity
 67
     1
  8
VIEWPORT
100
AcDbViewport
 10
210.0
 20
148.5
 30
0.0
 40
420.0
 41
297.0
 68
     1
 69
     2
1001
ACAD
1000
MVIEW
1002
{
1070
    16
1010
0.0
1020
0.0
1030
0.0
1010
0.0
1020
0.0
1030
1.0
1040
0.0
1040
302.9399999999998
1040
210.0
1040
148.5
1040
50.0
1040
0.0
1040
0.0
1070
     0
1070
   100
1070
     1
1070
     0
1070
     0
1070
     0
1070
     0
1070
     0
1040
0.0
1040
0.0
1040
0.0
1040
5.0
1040
5.0
1040
0.0
1040
0.0
1070
     0
1002
{
1002
}
1002
}
  0
ENDSEC
  0
SECTION
  2
OBJECTS
  0
DICTIONARY
  5
C
330
0
100
AcDbDictionary
  3
ACAD_GROUP
350
D
  3
ACAD_LAYOUT
350
141
  3
ACAD_MLINESTYLE
350
E
  3
ACAD_PLOTSETTINGS
350
142
  3
ACAD_PLOTSTYLENAME
350
13F
  3
ACADDIM
350
1A14
  3
ACDBVARIABLEDICTIONARY
350
120D
  3
ACDBHEADERROUNDTRIPXREC
350
301E
  0
DICTIONARY
  5
7A2
330
1A
100
AcDbDictionary
280
     1
  3
ACAD_LAYOUTSELFREF
360
3040
  0
DICTIONARY
  5
7A0
330
17
100
AcDbDictionary
280
     1
  3
ACAD_LAYOUTSELFREF
360
303F
  0
DICTIONARY
  5
D
102
{ACAD_REACTORS
330
C
102
}
330
C
100
AcDbDictionary
  0
DICTIONARY
  5
141
102
{ACAD_REACTORS
330
C
102
}
330
C
100
AcDbDictionary
  0
DICTIONARY
  5
E
102
{ACAD_REACTORS
330
C
102
}
330
C
100
AcDbDictionary
  3
STANDARD
350
13
  0
DICTIONARY
  5
142
102
{ACAD_REACTORS
330
C
102
}
330
C
100
AcDbDictionary
  0
ACDBDICTIONARYWDFLT
  5
13F
102
{ACAD_REACTORS
330
C
102
}
330
C
100
AcDbDictionary
281
     1
  3
Normal
350
140
100
AcDbDictionaryWithDefault
340
140
1001
ACAD
1000
TREAT_AS_HARD
1070
     0
1000
TREAT_AS_HARD
1070
     0
1000
TREAT_AS_HARD
1070
     0
1000
TREAT_AS_HARD
1070
     0
1000
TREAT_AS_HARD
1070
     0
1000
TREAT_AS_HARD
1070
     0
1000
TREAT_AS_HARD
1070
     0
1000
TREAT_AS_HARD
1070
     0
1000
TREAT_AS_HARD
1070
     0
1000
TREAT_AS_HARD
1070
     0
1000
TREAT_AS_HARD
1070
     0
1000
TREAT_AS_HARD
1070
     0
1000
TREAT_AS_HARD
1070
     0
1000
TREAT_AS_HARD
1070
     0
1000
TREAT_AS_HARD
1070
     0
1000
TREAT_AS_HARD
1070
     0
1000
TREAT_AS_HARD
1070
     0
  0
XRECORD
  5
1A14
102
{ACAD_REACTORS
330
C
102
}
330
C
100
AcDbXrecord
 90
   990106
  3

 60
     0
 61
     0
 62
     1
 63
     3
 64
     0
 65
     0
 66
     0
 67
     3
 68
     1
 69
     0
 70
     0
 71
     0
 72
     0
 40
0.0
170
     0
340
2082
  0
DICTIONARY
  5
120D
102
{ACAD_REACTORS
330
C
102
}
330
C
100
AcDbDictionary
  3
SORTENTS
350
120E
  0
DICTIONARY
  5
301E
102
{ACAD_REACTORS
330
C
102
}
330
C
100
AcDbDictionary
  3
TSTACKALIGN
350
301F
  3
TSTACKSIZE
350
3020
  3
HYPERLINKBASE
350
3021
  3
STYLESHEET
350
3022
  3
LAYOUTDICT
350
3023
  3
PLOTSETDICT
350
3024
  3
PLOTSTYLNAMDICT
350
3025
  3
LWETCUNION
350
3026
  3
INSUNITS
350
3027
  3
CEPSNTYPE
350
3028
  3
FINGERPRINTGUID
350
3029
  3
VERSIONGUID
350
302A
  3
PSVPSCALE
350
302B
  3
DIMSTYLEDATA
350
302C
  3
PUCSORTHOREF
350
302D
  3
PUCSORTHOVIEW
350
302E
  3
PUCSBASE
350
302F
  3
PUCSORGTOP
350
3030
  3
PUCSORGBOTTOM
350
3031
  3
PUCSORGLEFT
350
3032
  3
PUCSORGRIGHT
350
3033
  3
PUCSORGFRONT
350
3034
  3
PUCSORGBACK
350
3035
  3
UCSORTHOREF
350
3036
  3
UCSORTHOVIEW
350
3037
  3
UCSBASE
350
3038
  3
UCSORGTOP
350
3039
  3
UCSORGBOTTOM
350
303A
  3
UCSORGLEFT
350
303B
  3
UCSORGRIGHT
350
303C
  3
UCSORGFRONT
350
303D
  3
UCSORGBACK
350
303E
  0
XRECORD
  5
3040
102
{ACAD_REACTORS
330
7A2
102
}
330
7A2
100
AcDbXrecord
340
1A
  0
XRECORD
  5
303F
102
{ACAD_REACTORS
330
7A0
102
}
330
7A0
100
AcDbXrecord
340
17
  0
MLINESTYLE
  5
13
102
{ACAD_REACTORS
330
E
102
}
330
E
100
AcDbMlineStyle
  2
STANDARD
 70
     0
  3

 62
     0
 51
90.0
 52
90.0
 71
     2
 49
0.5
 62
   256
  6
BYLAYER
 49
-0.5
 62
   256
  6
BYLAYER
  0
ACDBPLACEHOLDER
  5
140
102
{ACAD_REACTORS
330
13F
102
}
330
13F
100
AcDbPlaceHolder
280
     0
  0
DICTIONARYVAR
  5
120E
102
{ACAD_REACTORS
330
120D
102
}
330
120D
100
DictionaryVariables
280
     0
  1
96
  0
XRECORD
  5
301F
102
{ACAD_REACTORS
330
301E
102
}
330
301E
100
AcDbXrecord
 90
        1
  0
XRECORD
  5
3020
102
{ACAD_REACTORS
330
301E
102
}
330
301E
100
AcDbXrecord
 90
       70
  0
XRECORD
  5
3021
102
{ACAD_REACTORS
330
301E
102
}
330
301E
100
AcDbXrecord
  1

  0
XRECORD
  5
3022
102
{ACAD_REACTORS
330
301E
102
}
330
301E
100
AcDbXrecord
  1
systemprinter.ctb
  0
XRECORD
  5
3023
102
{ACAD_REACTORS
330
301E
102
}
330
301E
100
AcDbXrecord
340
141
  0
XRECORD
  5
3024
102
{ACAD_REACTORS
330
301E
102
}
330
301E
100
AcDbXrecord
340
142
  0
XRECORD
  5
3025
102
{ACAD_REACTORS
330
301E
102
}
330
301E
100
AcDbXrecord
340
13F
  0
XRECORD
  5
3026
102
{ACAD_REACTORS
330
301E
102
}
330
301E
100
AcDbXrecord
 90
    10781
  0
XRECORD
  5
3027
102
{ACAD_REACTORS
330
301E
102
}
330
301E
100
AcDbXrecord
 90
        0
  0
XRECORD
  5
3028
102
{ACAD_REACTORS
330
301E
102
}
330
301E
100
AcDbXrecord
 90
        0
  0
XRECORD
  5
3029
102
{ACAD_REACTORS
330
301E
102
}
330
301E
100
AcDbXrecord
  1
{4E8D0500-CDD1-11D3-932C-444553540000}
  0
XRECORD
  5
302A
102
{ACAD_REACTORS
330
301E
102
}
330
301E
100
AcDbXrecord
  1
{BC951F92-5F40-432E-9764-B316D2B8DD14}
  0
XRECORD
  5
302B
102
{ACAD_REACTORS
330
301E
102
}
330
301E
100
AcDbXrecord
 40
0.0
  0
XRECORD
  5
302C
102
{ACAD_REACTORS
330
301E
102
}
330
301E
100
AcDbXrecord
1000
DSTYLE
1002
{
1070
   341
340
B2
1070
   343
340
B2
1070
   344
340
B2
1070
   371
 70
    -1
1070
   372
 70
    -1
1002
}
  0
XRECORD
  5
302D
102
{ACAD_REACTORS
330
301E
102
}
330
301E
100
AcDbXrecord
340
0
  0
XRECORD
  5
302E
102
{ACAD_REACTORS
330
301E
102
}
330
301E
100
AcDbXrecord
 70
     0
  0
XRECORD
  5
302F
102
{ACAD_REACTORS
330
301E
102
}
330
301E
100
AcDbXrecord
340
0
  0
XRECORD
  5
3030
102
{ACAD_REACTORS
330
301E
102
}
330
301E
100
AcDbXrecord
 10
0.0
 20
0.0
 30
0.0
  0
XRECORD
  5
3031
102
{ACAD_REACTORS
330
301E
102
}
330
301E
100
AcDbXrecord
 10
0.0
 20
0.0
 30
0.0
  0
XRECORD
  5
3032
102
{ACAD_REACTORS
330
301E
102
}
330
301E
100
AcDbXrecord
 10
0.0
 20
0.0
 30
0.0
  0
XRECORD
  5
3033
102
{ACAD_REACTORS
330
301E
102
}
330
301E
100
AcDbXrecord
 10
0.0
 20
0.0
 30
0.0
  0
XRECORD
  5
3034
102
{ACAD_REACTORS
330
301E
102
}
330
301E
100
AcDbXrecord
 10
0.0
 20
0.0
 30
0.0
  0
XRECORD
  5
3035
102
{ACAD_REACTORS
330
301E
102
}
330
301E
100
AcDbXrecord
 10
0.0
 20
0.0
 30
0.0
  0
XRECORD
  5
3036
102
{ACAD_REACTORS
330
301E
102
}
330
301E
100
AcDbXrecord
340
0
  0
XRECORD
  5
3037
102
{ACAD_REACTORS
330
301E
102
}
330
301E
100
AcDbXrecord
 70
     0
  0
XRECORD
  5
3038
102
{ACAD_REACTORS
330
301E
102
}
330
301E
100
AcDbXrecord
340
0
  0
XRECORD
  5
3039
102
{ACAD_REACTORS
330
301E
102
}
330
301E
100
AcDbXrecord
 10
0.0
 20
0.0
 30
0.0
  0
XRECORD
  5
303A
102
{ACAD_REACTORS
330
301E
102
}
330
301E
100
AcDbXrecord
 10
0.0
 20
0.0
 30
0.0
  0
XRECORD
  5
303B
102
{ACAD_REACTORS
330
301E
102
}
330
301E
100
AcDbXrecord
 10
0.0
 20
0.0
 30
0.0
  0
XRECORD
  5
303C
102
{ACAD_REACTORS
330
301E
102
}
330
301E
100
AcDbXrecord
 10
0.0
 20
0.0
 30
0.0
  0
XRECORD
  5
303D
102
{ACAD_REACTORS
330
301E
102
}
330
301E
100
AcDbXrecord
 10
0.0
 20
0.0
 30
0.0
  0
XRECORD
  5
303E
102
{ACAD_REACTORS
330
301E
102
}
330
301E
100
AcDbXrecord
 10
0.0
 20
0.0
 30
0.0
  0
ENDSEC
  0
EOF
