  0
SECTION
  2
HEADER
  9
$ACADVER
  1
AC1014
  9
$ACADMAINTVER
 70
     9
  9
$DWGCODEPAGE
  3
ANSI_932
  9
$INSBASE
 10
0.0
 20
0.0
 30
0.0
  9
$EXTMIN
 10
-0.025633200973175
 20
-0.0181263349739993
 30
-0.0000000100018307
  9
$EXTMAX
 10
398.8314472944385
 20
275.8219710108755
 30
0.0000000100018311
  9
$LIMMIN
 10
0.0
 20
0.0
  9
$LIMMAX
 10
420.0
 20
297.0
  9
$ORTHOMODE
 70
     0
  9
$REGENMODE
 70
     1
  9
$FILLMODE
 70
     1
  9
$QTEXTMODE
 70
     0
  9
$MIRRTEXT
 70
     1
  9
$DRAGMODE
 70
     2
  9
$LTSCALE
 40
5.0
  9
$OSMODE
 70
    35
  9
$ATTMODE
 70
     1
  9
$TEXTSIZE
 40
3.0
  9
$TRACEWID
 40
1.0
  9
$TEXTSTYLE
  7
STANDARD
  9
$CLAYER
  8
SEIHIN
  9
$CELTYPE
  6
BYLAYER
  9
$CECOLOR
 62
   256
  9
$CELTSCALE
 40
1.0
  9
$DELOBJ
 70
     1
  9
$DISPSILH
 70
     0
  9
$DIMSCALE
 40
1.0
  9
$DIMASZ
 40
3.0
  9
$DIMEXO
 40
3.0
  9
$DIMDLI
 40
7.0
  9
$DIMRND
 40
0.0
  9
$DIMDLE
 40
0.0
  9
$DIMEXE
 40
1.5
  9
$DIMTP
 40
0.0
  9
$DIMTM
 40
0.0
  9
$DIMTXT
 40
3.0
  9
$DIMCEN
 40
3.0
  9
$DIMTSZ
 40
0.0
  9
$DIMTOL
 70
     0
  9
$DIMLIM
 70
     0
  9
$DIMTIH
 70
     0
  9
$DIMTOH
 70
     0
  9
$DIMSE1
 70
     0
  9
$DIMSE2
 70
     0
  9
$DIMTAD
 70
     3
  9
$DIMZIN
 70
     0
  9
$DIMBLK
  1

  9
$DIMASO
 70
     1
  9
$DIMSHO
 70
     1
  9
$DIMPOST
  1

  9
$DIMAPOST
  1

  9
$DIMALT
 70
     0
  9
$DIMALTD
 70
     2
  9
$DIMALTF
 40
25.4
  9
$DIMLFAC
 40
1.0
  9
$DIMTOFL
 70
     1
  9
$DIMTVP
 40
0.0
  9
$DIMTIX
 70
     0
  9
$DIMSOXD
 70
     0
  9
$DIMSAH
 70
     1
  9
$DIMBLK1
  1
OPEN
  9
$DIMBLK2
  1
OPEN
  9
$DIMSTYLE
  2
STANDARD
  9
$DIMCLRD
 70
   256
  9
$DIMCLRE
 70
   256
  9
$DIMCLRT
 70
   256
  9
$DIMTFAC
 40
1.0
  9
$DIMGAP
 40
1.0
  9
$DIMJUST
 70
     0
  9
$DIMSD1
 70
     0
  9
$DIMSD2
 70
     0
  9
$DIMTOLJ
 70
     1
  9
$DIMTZIN
 70
     0
  9
$DIMALTZ
 70
     0
  9
$DIMALTTZ
 70
     0
  9
$DIMFIT
 70
     3
  9
$DIMUPT
 70
     0
  9
$DIMUNIT
 70
     2
  9
$DIMDEC
 70
     0
  9
$DIMTDEC
 70
     0
  9
$DIMALTU
 70
     2
  9
$DIMALTTD
 70
     2
  9
$DIMTXSTY
  7
STANDARD
  9
$DIMAUNIT
 70
     0
  9
$LUNITS
 70
     2
  9
$LUPREC
 70
     4
  9
$SKETCHINC
 40
1.0
  9
$FILLETRAD
 40
0.25
  9
$AUNITS
 70
     0
  9
$AUPREC
 70
     0
  9
$MENU
  1
.
  9
$ELEVATION
 40
0.0
  9
$PELEVATION
 40
0.0
  9
$THICKNESS
 40
0.0
  9
$LIMCHECK
 70
     0
  9
$BLIPMODE
 70
     0
  9
$CHAMFERA
 40
10.0
  9
$CHAMFERB
 40
10.0
  9
$CHAMFERC
 40
20.0
  9
$CHAMFERD
 40
0.0
  9
$SKPOLY
 70
     0
  9
$TDCREATE
 40
2451589.469382176
  9
$TDUPDATE
 40
2453802.569539559
  9
$TDINDWG
 40
0.5154048611
  9
$TDUSRTIMER
 40
0.5154048611
  9
$USRTIMER
 70
     1
  9
$ANGBASE
 50
0.0
  9
$ANGDIR
 70
     0
  9
$PDMODE
 70
     0
  9
$PDSIZE
 40
0.0
  9
$PLINEWID
 40
0.0
  9
$COORDS
 70
     1
  9
$SPLFRAME
 70
     0
  9
$SPLINETYPE
 70
     6
  9
$SPLINESEGS
 70
     8
  9
$ATTDIA
 70
     0
  9
$ATTREQ
 70
     1
  9
$HANDLING
 70
 10241
  9
$HANDSEED
  5
3769
  9
$SURFTAB1
 70
     6
  9
$SURFTAB2
 70
     6
  9
$SURFTYPE
 70
     6
  9
$SURFU
 70
     6
  9
$SURFV
 70
     6
  9
$UCSNAME
  2

  9
$UCSORG
 10
0.0
 20
0.0
 30
0.0
  9
$UCSXDIR
 10
1.0
 20
0.0
 30
0.0
  9
$UCSYDIR
 10
0.0
 20
1.0
 30
0.0
  9
$PUCSNAME
  2

  9
$PUCSORG
 10
0.0
 20
0.0
 30
0.0
  9
$PUCSXDIR
 10
1.0
 20
0.0
 30
0.0
  9
$PUCSYDIR
 10
0.0
 20
1.0
 30
0.0
  9
$USERI1
 70
     0
  9
$USERI2
 70
     0
  9
$USERI3
 70
     0
  9
$USERI4
 70
     0
  9
$USERI5
 70
     0
  9
$USERR1
 40
0.0
  9
$USERR2
 40
0.0
  9
$USERR3
 40
0.0
  9
$USERR4
 40
0.0
  9
$USERR5
 40
0.0
  9
$WORLDVIEW
 70
     1
  9
$SHADEDGE
 70
     3
  9
$SHADEDIF
 70
    70
  9
$TILEMODE
 70
     1
  9
$MAXACTVP
 70
    16
  9
$PINSBASE
 10
0.0
 20
0.0
 30
0.0
  9
$PLIMCHECK
 70
     0
  9
$PEXTMIN
 10
0.0
 20
0.0
 30
0.0
  9
$PEXTMAX
 10
420.0
 20
297.0
 30
0.0
  9
$PLIMMIN
 10
0.0
 20
0.0
  9
$PLIMMAX
 10
420.0
 20
297.0
  9
$UNITMODE
 70
     0
  9
$VISRETAIN
 70
     0
  9
$PLINEGEN
 70
     0
  9
$PSLTSCALE
 70
     1
  9
$TREEDEPTH
 70
  3020
  9
$PICKSTYLE
 70
     1
  9
$CMLSTYLE
  2
STANDARD
  9
$CMLJUST
 70
     0
  9
$CMLSCALE
 40
1.0
  9
$PROXYGRAPHICS
 70
     1
  9
$MEASUREMENT
 70
     0
  0
ENDSEC
  0
SECTION
  2
CLASSES
  0
CLASS
  1
ACDBDICTIONARYWDFLT
  2
AcDbDictionaryWithDefault
  3
AutoCAD 2000
 90
        0
280
     0
281
     0
  0
CLASS
  1
ACDBPLACEHOLDER
  2
AcDbPlaceHolder
  3
AutoCAD 2000
 90
        0
280
     0
281
     0
  0
CLASS
  1
LAYOUT
  2
AcDbLayout
  3
AutoCAD 2000
 90
        0
280
     0
281
     0
  0
CLASS
  1
LONG_TRANSACTION
  2
AcDbLongTransaction
  3
AutoCAD 2000
 90
        0
280
     0
281
     0
  0
CLASS
  1
LWPOLYLINE
  2
AcDbPolyline
  3
AutoCAD 2000
 90
        0
280
     0
281
     1
  0
CLASS
  1
HATCH
  2
AcDbHatch
  3
AutoCAD 2000
 90
        0
280
     0
281
     1
  0
CLASS
  1
XRECORD
  2
AcDbXrecord
  3
AutoCAD 2000
 90
        0
280
     0
281
     0
  0
CLASS
  1
LONG_TRANSACTION
  2
AcDbLongTransaction
  3
AutoCAD 2000
 90
        0
280
     0
281
     0
  0
CLASS
  1
LWPOLYLINE
  2
AcDbPolyline
  3
AutoCAD 2000
 90
        0
280
     0
281
     1
  0
CLASS
  1
HATCH
  2
AcDbHatch
  3
AutoCAD 2000
 90
        0
280
     0
281
     1
  0
CLASS
  1
XRECORD
  2
AcDbXrecord
  3
AutoCAD 2000
 90
        0
280
     0
281
     0
  0
CLASS
  1
DICTIONARYVAR
  2
AcDbDictionaryVar
  3
AutoCAD 2000
 90
        0
280
     0
281
     0
  0
CLASS
  1
LONG_TRANSACTION
  2
AcDbLongTransaction
  3
AutoCAD 2000
 90
        0
280
     0
281
     0
  0
CLASS
  1
LWPOLYLINE
  2
AcDbPolyline
  3
AutoCAD 2000
 90
        0
280
     0
281
     1
  0
CLASS
  1
HATCH
  2
AcDbHatch
  3
AutoCAD 2000
 90
        0
280
     0
281
     1
  0
CLASS
  1
XRECORD
  2
AcDbXrecord
  3
AutoCAD 2000
 90
        0
280
     0
281
     0
  0
CLASS
  1
LONG_TRANSACTION
  2
AcDbLongTransaction
  3
AutoCAD 2000
 90
        0
280
     0
281
     0
  0
CLASS
  1
LWPOLYLINE
  2
AcDbPolyline
  3
AutoCAD 2000
 90
        0
280
     0
281
     1
  0
CLASS
  1
HATCH
  2
AcDbHatch
  3
AutoCAD 2000
 90
        0
280
     0
281
     1
  0
CLASS
  1
XRECORD
  2
AcDbXrecord
  3
AutoCAD 2000
 90
        0
280
     0
281
     0
  0
CLASS
  1
LONG_TRANSACTION
  2
AcDbLongTransaction
  3
AutoCAD 2000
 90
        0
280
     0
281
     0
  0
CLASS
  1
LWPOLYLINE
  2
AcDbPolyline
  3
AutoCAD 2000
 90
        0
280
     0
281
     1
  0
CLASS
  1
HATCH
  2
AcDbHatch
  3
AutoCAD 2000
 90
        0
280
     0
281
     1
  0
CLASS
  1
XRECORD
  2
AcDbXrecord
  3
AutoCAD 2000
 90
        0
280
     0
281
     0
  0
CLASS
  1
LONG_TRANSACTION
  2
AcDbLongTransaction
  3
AutoCAD 2000
 90
        0
280
     0
281
     0
  0
CLASS
  1
LWPOLYLINE
  2
AcDbPolyline
  3
AutoCAD 2000
 90
        0
280
     0
281
     1
  0
CLASS
  1
HATCH
  2
AcDbHatch
  3
AutoCAD 2000
 90
        0
280
     0
281
     1
  0
CLASS
  1
XRECORD
  2
AcDbXrecord
  3
AutoCAD 2000
 90
        0
280
     0
281
     0
  0
CLASS
  1
LONG_TRANSACTION
  2
AcDbLongTransaction
  3
AutoCAD 2000
 90
        0
280
     0
281
     0
  0
CLASS
  1
LWPOLYLINE
  2
AcDbPolyline
  3
AutoCAD 2000
 90
        0
280
     0
281
     1
  0
CLASS
  1
HATCH
  2
AcDbHatch
  3
AutoCAD 2000
 90
        0
280
     0
281
     1
  0
CLASS
  1
XRECORD
  2
AcDbXrecord
  3
AutoCAD 2000
 90
        0
280
     0
281
     0
  0
CLASS
  1
LONG_TRANSACTION
  2
AcDbLongTransaction
  3
AutoCAD 2000
 90
        0
280
     0
281
     0
  0
CLASS
  1
LWPOLYLINE
  2
AcDbPolyline
  3
AutoCAD 2000
 90
        0
280
     0
281
     1
  0
CLASS
  1
HATCH
  2
AcDbHatch
  3
AutoCAD 2000
 90
        0
280
     0
281
     1
  0
CLASS
  1
XRECORD
  2
AcDbXrecord
  3
AutoCAD 2000
 90
        0
280
     0
281
     0
  0
CLASS
  1
LONG_TRANSACTION
  2
AcDbLongTransaction
  3
AutoCAD 2000
 90
        0
280
     0
281
     0
  0
CLASS
  1
LWPOLYLINE
  2
AcDbPolyline
  3
AutoCAD 2000
 90
        0
280
     0
281
     1
  0
CLASS
  1
HATCH
  2
AcDbHatch
  3
AutoCAD 2000
 90
        0
280
     0
281
     1
  0
CLASS
  1
XRECORD
  2
AcDbXrecord
  3
AutoCAD 2000
 90
        0
280
     0
281
     0
  0
CLASS
  1
LONG_TRANSACTION
  2
AcDbLongTransaction
  3
AutoCAD 2000
 90
        0
280
     0
281
     0
  0
CLASS
  1
LWPOLYLINE
  2
AcDbPolyline
  3
AutoCAD 2000
 90
        0
280
     0
281
     1
  0
CLASS
  1
HATCH
  2
AcDbHatch
  3
AutoCAD 2000
 90
        0
280
     0
281
     1
  0
CLASS
  1
XRECORD
  2
AcDbXrecord
  3
AutoCAD 2000
 90
        0
280
     0
281
     0
  0
CLASS
  1
LONG_TRANSACTION
  2
AcDbLongTransaction
  3
AutoCAD 2000
 90
        0
280
     0
281
     0
  0
CLASS
  1
LWPOLYLINE
  2
AcDbPolyline
  3
AutoCAD 2000
 90
        0
280
     0
281
     1
  0
CLASS
  1
HATCH
  2
AcDbHatch
  3
AutoCAD 2000
 90
        0
280
     0
281
     1
  0
CLASS
  1
XRECORD
  2
AcDbXrecord
  3
AutoCAD 2000
 90
        0
280
     0
281
     0
  0
CLASS
  1
LONG_TRANSACTION
  2
AcDbLongTransaction
  3
AutoCAD 2000
 90
        0
280
     0
281
     0
  0
CLASS
  1
LWPOLYLINE
  2
AcDbPolyline
  3
AutoCAD 2000
 90
        0
280
     0
281
     1
  0
CLASS
  1
HATCH
  2
AcDbHatch
  3
AutoCAD 2000
 90
        0
280
     0
281
     1
  0
CLASS
  1
XRECORD
  2
AcDbXrecord
  3
AutoCAD 2000
 90
        0
280
     0
281
     0
  0
CLASS
  1
LONG_TRANSACTION
  2
AcDbLongTransaction
  3
AutoCAD 2000
 90
        0
280
     0
281
     0
  0
CLASS
  1
LWPOLYLINE
  2
AcDbPolyline
  3
AutoCAD 2000
 90
        0
280
     0
281
     1
  0
CLASS
  1
HATCH
  2
AcDbHatch
  3
AutoCAD 2000
 90
        0
280
     0
281
     1
  0
CLASS
  1
XRECORD
  2
AcDbXrecord
  3
AutoCAD 2000
 90
        0
280
     0
281
     0
  0
CLASS
  1
LONG_TRANSACTION
  2
AcDbLongTransaction
  3
AutoCAD 2000
 90
        0
280
     0
281
     0
  0
CLASS
  1
LWPOLYLINE
  2
AcDbPolyline
  3
AutoCAD 2000
 90
        0
280
     0
281
     1
  0
CLASS
  1
HATCH
  2
AcDbHatch
  3
AutoCAD 2000
 90
        0
280
     0
281
     1
  0
CLASS
  1
XRECORD
  2
AcDbXrecord
  3
AutoCAD 2000
 90
        0
280
     0
281
     0
  0
CLASS
  1
LONG_TRANSACTION
  2
AcDbLongTransaction
  3
AutoCAD 2000
 90
        0
280
     0
281
     0
  0
CLASS
  1
LWPOLYLINE
  2
AcDbPolyline
  3
AutoCAD 2000
 90
        0
280
     0
281
     1
  0
CLASS
  1
HATCH
  2
AcDbHatch
  3
AutoCAD 2000
 90
        0
280
     0
281
     1
  0
CLASS
  1
XRECORD
  2
AcDbXrecord
  3
AutoCAD 2000
 90
        0
280
     0
281
     0
  0
CLASS
  1
LONG_TRANSACTION
  2
AcDbLongTransaction
  3
AutoCAD 2000
 90
        0
280
     0
281
     0
  0
CLASS
  1
LWPOLYLINE
  2
AcDbPolyline
  3
AutoCAD 2000
 90
        0
280
     0
281
     1
  0
CLASS
  1
HATCH
  2
AcDbHatch
  3
AutoCAD 2000
 90
        0
280
     0
281
     1
  0
CLASS
  1
XRECORD
  2
AcDbXrecord
  3
AutoCAD 2000
 90
        0
280
     0
281
     0
  0
CLASS
  1
LONG_TRANSACTION
  2
AcDbLongTransaction
  3
AutoCAD 2000
 90
        0
280
     0
281
     0
  0
CLASS
  1
LWPOLYLINE
  2
AcDbPolyline
  3
AutoCAD 2000
 90
        0
280
     0
281
     1
  0
CLASS
  1
HATCH
  2
AcDbHatch
  3
AutoCAD 2000
 90
        0
280
     0
281
     1
  0
CLASS
  1
XRECORD
  2
AcDbXrecord
  3
AutoCAD 2000
 90
        0
280
     0
281
     0
  0
CLASS
  1
LONG_TRANSACTION
  2
AcDbLongTransaction
  3
AutoCAD 2000
 90
        0
280
     0
281
     0
  0
CLASS
  1
LWPOLYLINE
  2
AcDbPolyline
  3
AutoCAD 2000
 90
        0
280
     0
281
     1
  0
CLASS
  1
HATCH
  2
AcDbHatch
  3
AutoCAD 2000
 90
        0
280
     0
281
     1
  0
CLASS
  1
XRECORD
  2
AcDbXrecord
  3
AutoCAD 2000
 90
        0
280
     0
281
     0
  0
CLASS
  1
LONG_TRANSACTION
  2
AcDbLongTransaction
  3
AutoCAD 2000
 90
        0
280
     0
281
     0
  0
CLASS
  1
LWPOLYLINE
  2
AcDbPolyline
  3
AutoCAD 2000
 90
        0
280
     0
281
     1
  0
CLASS
  1
HATCH
  2
AcDbHatch
  3
AutoCAD 2000
 90
        0
280
     0
281
     1
  0
CLASS
  1
XRECORD
  2
AcDbXrecord
  3
AutoCAD 2000
 90
        0
280
     0
281
     0
  0
CLASS
  1
LONG_TRANSACTION
  2
AcDbLongTransaction
  3
AutoCAD 2000
 90
        0
280
     0
281
     0
  0
CLASS
  1
LWPOLYLINE
  2
AcDbPolyline
  3
AutoCAD 2000
 90
        0
280
     0
281
     1
  0
CLASS
  1
HATCH
  2
AcDbHatch
  3
AutoCAD 2000
 90
        0
280
     0
281
     1
  0
CLASS
  1
XRECORD
  2
AcDbXrecord
  3
AutoCAD 2000
 90
        0
280
     0
281
     0
  0
ENDSEC
  0
SECTION
  2
TABLES
  0
TABLE
  2
VPORT
  5
8
330
0
100
AcDbSymbolTable
 70
     2
  0
VPORT
  5
3745
330
8
100
AcDbSymbolTableRecord
100
AcDbViewportTableRecord
  2
*ACTIVE
 70
     0
 10
0.0
 20
0.0
 11
1.0
 21
1.0
 12
232.9655231337947
 22
122.4862138790843
 13
0.0
 23
0.0
 14
5.0
 24
5.0
 15
0.0
 25
0.0
 16
0.0
 26
0.0
 36
1.0
 17
0.0
 27
0.0
 37
0.0
 40
362.8996704082106
 41
1.795454545454545
 42
50.0
 43
0.0
 44
0.0
 50
0.0
 51
0.0
 71
     0
 72
   100
 73
     1
 74
     0
 75
     0
 76
     0
 77
     0
 78
     0
  0
ENDTAB
  0
TABLE
  2
LTYPE
  5
5
330
0
100
AcDbSymbolTable
 70
     3
  0
LTYPE
  5
14
330
5
100
AcDbSymbolTableRecord
100
AcDbLinetypeTableRecord
  2
BYBLOCK
 70
     0
  3

 72
    65
 73
     0
 40
0.0
  0
LTYPE
  5
15
330
5
100
AcDbSymbolTableRecord
100
AcDbLinetypeTableRecord
  2
BYLAYER
 70
     0
  3

 72
    65
 73
     0
 40
0.0
  0
LTYPE
  5
16
330
5
100
AcDbSymbolTableRecord
100
AcDbLinetypeTableRecord
  2
CONTINUOUS
 70
     0
  3
Solid line
 72
    65
 73
     0
 40
0.0
  0
LTYPE
  5
120
330
5
100
AcDbSymbolTableRecord
100
AcDbLinetypeTableRecord
  2
CENTER
 70
     0
  3
____ _ ____ _ ____ _ ____ _ ____ _ ____ _ ____ 
 72
    65
 73
     4
 40
2.0
 49
1.25
 74
     0
 49
-0.25
 74
     0
 49
0.25
 74
     0
 49
-0.25
 74
     0
  0
LTYPE
  5
122
330
5
100
AcDbSymbolTableRecord
100
AcDbLinetypeTableRecord
  2
PHANTOM
 70
     0
  3
______  __  __  ______  __  __  ______  __  __ 
 72
    65
 73
     6
 40
2.5
 49
1.25
 74
     0
 49
-0.25
 74
     0
 49
0.25
 74
     0
 49
-0.25
 74
     0
 49
0.25
 74
     0
 49
-0.25
 74
     0
  0
ENDTAB
  0
TABLE
  2
LAYER
  5
2
330
0
100
AcDbSymbolTable
 70
     9
  0
LAYER
  5
F
330
2
100
AcDbSymbolTableRecord
100
AcDbLayerTableRecord
  2
0
 70
     0
 62
     7
  6
CONTINUOUS
  0
LAYER
  5
62
330
2
100
AcDbSymbolTableRecord
100
AcDbLayerTableRecord
  2
VIEWPORT
 70
     0
 62
     7
  6
CONTINUOUS
  0
LAYER
  5
6B
330
2
100
AcDbSymbolTableRecord
100
AcDbLayerTableRecord
  2
ZUWAKU
 70
     0
 62
     7
  6
CONTINUOUS
  0
LAYER
  5
3EF
330
2
100
AcDbSymbolTableRecord
100
AcDbLayerTableRecord
  2
DEFPOINTS
 70
     0
 62
     7
  6
CONTINUOUS
  0
LAYER
  5
54D
330
2
100
AcDbSymbolTableRecord
100
AcDbLayerTableRecord
  2
SEIHIN
 70
     0
 62
     3
  6
CONTINUOUS
  0
LAYER
  5
54E
330
2
100
AcDbSymbolTableRecord
100
AcDbLayerTableRecord
  2
SUNPOU
 70
     0
 62
     4
  6
CONTINUOUS
  0
LAYER
  5
54F
330
2
100
AcDbSymbolTableRecord
100
AcDbLayerTableRecord
  2
CENTER_L
 70
     0
 62
     1
  6
CENTER
  0
LAYER
  5
550
330
2
100
AcDbSymbolTableRecord
100
AcDbLayerTableRecord
  2
NOKITOI
 70
     0
 62
     8
  6
PHANTOM
  0
LAYER
  5
35CE
330
2
100
AcDbSymbolTableRecord
100
AcDbLayerTableRecord
  2
MOJI
 70
     0
 62
     2
  6
CONTINUOUS
  0
ENDTAB
  0
TABLE
  2
STYLE
  5
3
330
0
100
AcDbSymbolTable
 70
     2
  0
STYLE
  5
10
330
3
100
AcDbSymbolTableRecord
100
AcDbTextStyleTableRecord
  2
STANDARD
 70
     0
 40
0.0
 41
1.0
 50
0.0
 71
     0
 42
3.0
  3
TXT
  4
c:\PROGRAM FILES\AUTOCAD LT\ms\bigfont.shx
  0
STYLE
  5
35CF
330
3
100
AcDbSymbolTableRecord
100
AcDbTextStyleTableRecord
  2
ｽﾀｲﾙ1
 70
     0
 40
0.0
 41
1.0
 50
0.0
 71
     0
 42
2.5
  3
MS PGothic.ttf
  4

1001
ACAD
1000
MS PGothic
1071
    32818
  0
ENDTAB
  0
TABLE
  2
VIEW
  5
6
330
0
100
AcDbSymbolTable
 70
     0
  0
ENDTAB
  0
TABLE
  2
UCS
  5
7
330
0
100
AcDbSymbolTable
 70
     0
  0
ENDTAB
  0
TABLE
  2
APPID
  5
9
330
0
100
AcDbSymbolTable
 70
     1
  0
APPID
  5
11
330
9
100
AcDbSymbolTableRecord
100
AcDbRegAppTableRecord
  2
ACAD
 70
     0
  0
ENDTAB
  0
TABLE
  2
DIMSTYLE
  5
A
330
0
100
AcDbSymbolTable
 70
     1
  0
DIMSTYLE
105
1D
102
{ACAD_REACTORS
330
1FF7
330
2006
330
2015
330
2022
330
204C
330
2059
330
2073
330
2F39
330
2F81
330
2F8E
330
2FF7
330
3428
102
}
330
A
100
AcDbSymbolTableRecord
100
AcDbDimStyleTableRecord
  2
STANDARD
 70
     0
  3

  4

  5

  6

  7

 40
1.0
 41
0.18
 42
0.0625
 43
0.38
 44
0.18
 45
0.0
 46
0.0
 47
0.0
 48
0.0
140
0.18
141
0.09
142
0.0
143
25.4
144
1.0
145
0.0
146
1.0
147
0.09
 71
     0
 72
     0
 73
     1
 74
     1
 75
     0
 76
     0
 77
     0
 78
     0
170
     0
171
     2
172
     0
173
     0
174
     0
175
     0
176
     0
177
     0
178
     0
270
     2
271
     4
272
     4
273
     2
274
     2
340
10
275
     0
280
     0
281
     0
282
     0
283
     1
284
     0
285
     0
286
     0
287
     3
288
     0
  0
ENDTAB
  0
TABLE
  2
BLOCK_RECORD
  5
1
330
0
100
AcDbSymbolTable
 70
    14
  0
BLOCK_RECORD
  5
1A
102
{ACAD_XDICTIONARY
360
7A2
102
}
330
1
100
AcDbSymbolTableRecord
100
AcDbBlockTableRecord
  2
*MODEL_SPACE
  0
BLOCK_RECORD
  5
17
102
{ACAD_XDICTIONARY
360
7A0
102
}
330
1
100
AcDbSymbolTableRecord
100
AcDbBlockTableRecord
  2
*PAPER_SPACE
  0
BLOCK_RECORD
  5
B2
330
1
100
AcDbSymbolTableRecord
100
AcDbBlockTableRecord
  2
_OPEN
  0
BLOCK_RECORD
  5
1FF8
330
1
100
AcDbSymbolTableRecord
100
AcDbBlockTableRecord
  2
*D1
  0
BLOCK_RECORD
  5
2007
330
1
100
AcDbSymbolTableRecord
100
AcDbBlockTableRecord
  2
*D2
  0
BLOCK_RECORD
  5
2016
330
1
100
AcDbSymbolTableRecord
100
AcDbBlockTableRecord
  2
*D3
  0
BLOCK_RECORD
  5
2023
330
1
100
AcDbSymbolTableRecord
100
AcDbBlockTableRecord
  2
*D4
  0
BLOCK_RECORD
  5
204D
330
1
100
AcDbSymbolTableRecord
100
AcDbBlockTableRecord
  2
*D5
  0
BLOCK_RECORD
  5
205A
330
1
100
AcDbSymbolTableRecord
100
AcDbBlockTableRecord
  2
*D6
  0
BLOCK_RECORD
  5
2074
330
1
100
AcDbSymbolTableRecord
100
AcDbBlockTableRecord
  2
*D7
  0
BLOCK_RECORD
  5
2F3A
330
1
100
AcDbSymbolTableRecord
100
AcDbBlockTableRecord
  2
*D8
  0
BLOCK_RECORD
  5
2F82
330
1
100
AcDbSymbolTableRecord
100
AcDbBlockTableRecord
  2
*D9
  0
BLOCK_RECORD
  5
2F8F
330
1
100
AcDbSymbolTableRecord
100
AcDbBlockTableRecord
  2
*D10
  0
BLOCK_RECORD
  5
2FF8
330
1
100
AcDbSymbolTableRecord
100
AcDbBlockTableRecord
  2
*D11
  0
BLOCK_RECORD
  5
3470
330
1
100
AcDbSymbolTableRecord
100
AcDbBlockTableRecord
  2
*D12
  0
BLOCK_RECORD
  5
35D0
330
1
100
AcDbSymbolTableRecord
100
AcDbBlockTableRecord
  2
A$C4C0004CE
  0
ENDTAB
  0
ENDSEC
  0
SECTION
  2
BLOCKS
  0
BLOCK
  5
1B
330
1A
100
AcDbEntity
  8
0
100
AcDbBlockBegin
  2
*MODEL_SPACE
 70
     0
 10
0.0
 20
0.0
 30
0.0
  3
*MODEL_SPACE
  1

  0
ENDBLK
  5
1C
330
1A
100
AcDbEntity
  8
0
100
AcDbBlockEnd
  0
BLOCK
  5
18
330
17
100
AcDbEntity
 67
     1
  8
0
100
AcDbBlockBegin
  2
*PAPER_SPACE
 70
     0
 10
0.0
 20
0.0
 30
0.0
  3
*PAPER_SPACE
  1

  0
ENDBLK
  5
19
330
17
100
AcDbEntity
 67
     1
  8
0
100
AcDbBlockEnd
  0
BLOCK
  5
B3
330
B2
100
AcDbEntity
  8
0
100
AcDbBlockBegin
  2
_OPEN
 70
     0
 10
0.0
 20
0.0
 30
0.0
  3
_OPEN
  1

  0
LINE
  5
B4
330
B2
100
AcDbEntity
  8
0
  6
BYBLOCK
 62
     0
100
AcDbLine
 10
-1.0
 20
0.1666666666666666
 30
0.0
 11
0.0
 21
0.0
 31
0.0
  0
LINE
  5
B5
330
B2
100
AcDbEntity
  8
0
  6
BYBLOCK
 62
     0
100
AcDbLine
 10
0.0
 20
0.0
 30
0.0
 11
-1.0
 21
-0.1666666666666666
 31
0.0
  0
LINE
  5
B6
330
B2
100
AcDbEntity
  8
0
  6
BYBLOCK
 62
     0
100
AcDbLine
 10
0.0
 20
0.0
 30
0.0
 11
-1.0
 21
0.0
 31
0.0
  0
ENDBLK
  5
B7
330
B2
100
AcDbEntity
  8
0
100
AcDbBlockEnd
  0
BLOCK
  5
2002
330
1FF8
100
AcDbEntity
  8
0
100
AcDbBlockBegin
  2
*D1
 70
     1
 10
0.0
 20
0.0
 30
0.0
  3
*D1
  1

  0
LINE
  5
34F4
330
1FF8
100
AcDbEntity
  8
SUNPOU
100
AcDbLine
 10
278.7845212891574
 20
113.8115921142209
 30
0.0
 11
296.9376800629104
 21
121.0727051274465
 31
0.0
  0
LINE
  5
34F5
330
1FF8
100
AcDbEntity
  8
SUNPOU
100
AcDbLine
 10
291.7829627111517
 20
81.3148150340398
 30
0.0
 11
309.936121484905
 21
88.57592804726554
 31
0.0
  0
LINE
  5
34F6
330
1FF8
100
AcDbEntity
  8
SUNPOU
100
AcDbLine
 10
296.6591131670737
 20
117.7301910310598
 30
0.0
 11
307.4292503452977
 21
90.804290021767
 31
0.0
  0
INSERT
  5
34F7
330
1FF8
100
AcDbEntity
  8
SUNPOU
100
AcDbBlockReference
  2
_OPEN
 10
295.5449610451884
 20
120.5156290665039
 30
0.0
 41
3.0
 42
3.0
 43
3.0
 50
111.8010000000003
  0
INSERT
  5
34F8
330
1FF8
100
AcDbEntity
  8
SUNPOU
100
AcDbBlockReference
  2
_OPEN
 10
308.543402467183
 20
88.01885198632291
 30
0.0
 41
3.0
 42
3.0
 43
3.0
 50
291.8010000000003
  0
MTEXT
  5
34F9
330
1FF8
100
AcDbEntity
  8
SUNPOU
100
AcDbMText
 10
304.3653801190558
 20
105.1957006279844
 30
0.0
 40
3.0
 41
0.0
 71
     5
 72
     5
  1
\A1;35
 11
0.3713840406284144
 21
-0.9284793451480286
 31
0.0
1001
ACAD
1000
MTEXTBEGIN
1070
    73
1070
     1
1070
    44
1040
1.0
1070
    74
1070
     0
1000
MTEXTEND
1000
MTEXTBEGIN
1070
    73
1070
     1
1070
    44
1040
1.0
1070
    74
1070
     0
1000
MTEXTEND
1000
MTEXTBEGIN
1070
    73
1070
     1
1070
    44
1040
1.0
1070
    74
1070
     0
1000
MTEXTEND
  0
POINT
  5
34FA
330
1FF8
100
AcDbEntity
  8
DEFPOINTS
 62
     0
100
AcDbPoint
 10
275.9990832537133
 20
112.6974399923356
 30
0.0
  0
POINT
  5
34FB
330
1FF8
100
AcDbEntity
  8
DEFPOINTS
 62
     0
100
AcDbPoint
 10
288.9975246757076
 20
80.20066291215456
 30
0.0
  0
POINT
  5
34FC
330
1FF8
100
AcDbEntity
  8
DEFPOINTS
 62
     0
100
AcDbPoint
 10
308.543402467183
 20
88.01885198632291
 30
0.0
  0
ENDBLK
  5
2003
330
1FF8
100
AcDbEntity
  8
0
100
AcDbBlockEnd
  0
BLOCK
  5
2013
330
2007
100
AcDbEntity
  8
0
100
AcDbBlockBegin
  2
*D2
 70
     1
 10
0.0
 20
0.0
 30
0.0
  3
*D2
  1

  0
LINE
  5
34FD
330
2007
100
AcDbEntity
  8
SUNPOU
100
AcDbLine
 10
299.4382622236533
 20
122.0729172610096
 30
0.0
 11
284.8444073825839
 21
116.2354963129359
 31
0.0
  0
LINE
  5
34FE
330
2007
100
AcDbEntity
  8
SUNPOU
100
AcDbLine
 10
302.3164866141656
 20
114.6079440957625
 30
0.0
 11
287.8154797076112
 21
108.8076615517517
 31
0.0
  0
LINE
  5
34FF
330
2007
100
AcDbEntity
  8
SUNPOU
100
AcDbLine
 10
285.1229742784207
 20
119.5780104093226
 30
0.0
 11
284.0088221565355
 21
122.3634484447666
 31
0.0
  0
LINE
  5
3500
330
2007
100
AcDbEntity
  8
SUNPOU
100
AcDbLine
 10
290.3223508472185
 20
106.5792995772502
 30
0.0
 11
291.4365029691038
 21
103.7938615418061
 31
0.0
  0
LINE
  5
3501
330
2007
100
AcDbEntity
  8
SUNPOU
100
AcDbLine
 10
286.237126400306
 20
116.7925723738785
 30
0.0
 11
289.2081987253332
 21
109.3647376126943
 31
0.0
  0
INSERT
  5
3502
330
2007
100
AcDbEntity
  8
SUNPOU
100
AcDbBlockReference
  2
_OPEN
 10
286.237126400306
 20
116.7925723738785
 30
0.0
 41
3.0
 42
3.0
 43
3.0
 50
291.8010000000003
  0
INSERT
  5
3503
330
2007
100
AcDbEntity
  8
SUNPOU
100
AcDbBlockReference
  2
_OPEN
 10
289.2081987253332
 20
109.3647376126943
 30
0.0
 41
3.0
 42
3.0
 43
3.0
 50
111.8010000000003
  0
MTEXT
  5
3504
330
2007
100
AcDbEntity
  8
SUNPOU
100
AcDbMText
 10
290.0438609256897
 20
114.0071150948574
 30
0.0
 40
3.0
 41
0.0
 71
     5
 72
     5
  1
\A1;8
 11
0.3713840406284144
 21
-0.9284793451480286
 31
0.0
1001
ACAD
1000
MTEXTBEGIN
1070
    73
1070
     1
1070
    44
1040
1.0
1070
    74
1070
     0
1000
MTEXTEND
1000
MTEXTBEGIN
1070
    73
1070
     1
1070
    44
1040
1.0
1070
    74
1070
     0
1000
MTEXTEND
1000
MTEXTBEGIN
1070
    73
1070
     1
1070
    44
1040
1.0
1070
    74
1070
     0
1000
MTEXTEND
  0
POINT
  5
3505
330
2007
100
AcDbEntity
  8
DEFPOINTS
 62
     0
100
AcDbPoint
 10
302.2237002590974
 20
123.1870693828948
 30
0.0
  0
POINT
  5
3506
330
2007
100
AcDbEntity
  8
DEFPOINTS
 62
     0
100
AcDbPoint
 10
305.1019246496097
 20
115.7220962176478
 30
0.0
  0
POINT
  5
3507
330
2007
100
AcDbEntity
  8
DEFPOINTS
 62
     0
100
AcDbPoint
 10
289.2081987253332
 20
109.3647376126943
 30
0.0
  0
ENDBLK
  5
2014
330
2007
100
AcDbEntity
  8
0
100
AcDbBlockEnd
  0
BLOCK
  5
2020
330
2016
100
AcDbEntity
  8
0
100
AcDbBlockBegin
  2
*D3
 70
     1
 10
0.0
 20
0.0
 30
0.0
  3
*D3
  1

  0
LINE
  5
3508
330
2016
100
AcDbEntity
  8
SUNPOU
100
AcDbLine
 10
309.3727833861053
 20
96.96683653794998
 30
0.0
 11
294.871776479551
 21
91.16655399393918
 31
0.0
  0
LINE
  5
3509
330
2016
100
AcDbEntity
  8
SUNPOU
100
AcDbLine
 10
312.4367036456476
 20
89.57614018082859
 30
0.0
 11
297.8428488045783
 21
83.73871923275487
 31
0.0
  0
LINE
  5
350A
330
2016
100
AcDbEntity
  8
SUNPOU
100
AcDbLine
 10
297.3786476191583
 20
88.9381920194377
 30
0.0
 11
298.1214157004151
 21
87.08123332914158
 31
0.0
  0
INSERT
  5
350B
330
2016
100
AcDbEntity
  8
SUNPOU
100
AcDbBlockReference
  2
_OPEN
 10
296.2644954972731
 20
91.72363005488179
 30
0.0
 41
3.0
 42
3.0
 43
3.0
 50
111.8010000000003
  0
INSERT
  5
350C
330
2016
100
AcDbEntity
  8
SUNPOU
100
AcDbBlockReference
  2
_OPEN
 10
299.2355678223004
 20
84.2957952936975
 30
0.0
 41
3.0
 42
3.0
 43
3.0
 50
291.8010000000003
  0
MTEXT
  5
350D
330
2016
100
AcDbEntity
  8
SUNPOU
100
AcDbMText
 10
300.0712300226568
 20
88.93817277586064
 30
0.0
 40
3.0
 41
0.0
 71
     5
 72
     5
  1
\A1;8
 11
0.3713840406284144
 21
-0.9284793451480286
 31
0.0
1001
ACAD
1000
MTEXTBEGIN
1070
    73
1070
     1
1070
    44
1040
1.0
1070
    74
1070
     0
1000
MTEXTEND
1000
MTEXTBEGIN
1070
    73
1070
     1
1070
    44
1040
1.0
1070
    74
1070
     0
1000
MTEXTEND
1000
MTEXTBEGIN
1070
    73
1070
     1
1070
    44
1040
1.0
1070
    74
1070
     0
1000
MTEXTEND
  0
POINT
  5
350E
330
2016
100
AcDbEntity
  8
DEFPOINTS
 62
     0
100
AcDbPoint
 10
312.1582214215494
 20
98.08098865983522
 30
0.0
  0
POINT
  5
350F
330
2016
100
AcDbEntity
  8
DEFPOINTS
 62
     0
100
AcDbPoint
 10
315.2221416810917
 20
90.69029230271382
 30
0.0
  0
POINT
  5
3510
330
2016
100
AcDbEntity
  8
DEFPOINTS
 62
     0
100
AcDbPoint
 10
299.2355678223004
 20
84.2957952936975
 30
0.0
  0
ENDBLK
  5
2021
330
2016
100
AcDbEntity
  8
0
100
AcDbBlockEnd
  0
BLOCK
  5
202D
330
2023
100
AcDbEntity
  8
0
100
AcDbBlockBegin
  2
*D4
 70
     1
 10
0.0
 20
0.0
 30
0.0
  3
*D4
  1

  0
LINE
  5
3511
330
2023
100
AcDbEntity
  8
SUNPOU
100
AcDbLine
 10
299.4382622236533
 20
122.0729172610096
 30
0.0
 11
275.5425493835189
 21
112.5148302290891
 31
0.0
  0
LINE
  5
3512
330
2023
100
AcDbEntity
  8
SUNPOU
100
AcDbLine
 10
312.4367036456476
 20
89.57614018082859
 30
0.0
 11
288.5409908055134
 21
80.0180531489082
 31
0.0
  0
LINE
  5
3513
330
2023
100
AcDbEntity
  8
SUNPOU
100
AcDbLine
 10
278.0494205231263
 20
110.2864682545877
 30
0.0
 11
288.8195577013502
 21
83.36056724529489
 31
0.0
  0
INSERT
  5
3514
330
2023
100
AcDbEntity
  8
SUNPOU
100
AcDbBlockReference
  2
_OPEN
 10
276.935268401241
 20
113.0719062900318
 30
0.0
 41
3.0
 42
3.0
 43
3.0
 50
111.8010000000003
  0
INSERT
  5
3515
330
2023
100
AcDbEntity
  8
SUNPOU
100
AcDbBlockReference
  2
_OPEN
 10
289.9337098232355
 20
80.57512920985081
 30
0.0
 41
3.0
 42
3.0
 43
3.0
 50
291.8010000000003
  0
MTEXT
  5
3516
330
2023
100
AcDbEntity
  8
SUNPOU
100
AcDbMText
 10
285.7556874751083
 20
97.75197785151231
 30
0.0
 40
3.0
 41
0.0
 71
     5
 72
     5
  1
\A1;35
 11
0.3713840406284144
 21
-0.9284793451480286
 31
0.0
1001
ACAD
1000
MTEXTBEGIN
1070
    73
1070
     1
1070
    44
1040
1.0
1070
    74
1070
     0
1000
MTEXTEND
1000
MTEXTBEGIN
1070
    73
1070
     1
1070
    44
1040
1.0
1070
    74
1070
     0
1000
MTEXTEND
1000
MTEXTBEGIN
1070
    73
1070
     1
1070
    44
1040
1.0
1070
    74
1070
     0
1000
MTEXTEND
  0
POINT
  5
3517
330
2023
100
AcDbEntity
  8
DEFPOINTS
 62
     0
100
AcDbPoint
 10
302.2237002590974
 20
123.1870693828948
 30
0.0
  0
POINT
  5
3518
330
2023
100
AcDbEntity
  8
DEFPOINTS
 62
     0
100
AcDbPoint
 10
315.2221416810917
 20
90.69029230271382
 30
0.0
  0
POINT
  5
3519
330
2023
100
AcDbEntity
  8
DEFPOINTS
 62
     0
100
AcDbPoint
 10
289.9337098232355
 20
80.57512920985081
 30
0.0
  0
ENDBLK
  5
202E
330
2023
100
AcDbEntity
  8
0
100
AcDbBlockEnd
  0
BLOCK
  5
2057
330
204D
100
AcDbEntity
  8
0
100
AcDbBlockBegin
  2
*D5
 70
     1
 10
0.0
 20
0.0
 30
0.0
  3
*D5
  1

  0
LINE
  5
351A
330
204D
100
AcDbEntity
  8
SUNPOU
100
AcDbLine
 10
307.3860538852942
 20
126.4367009063281
 30
0.0
 11
296.0093451773967
 21
154.8790621698196
 31
0.0
  0
LINE
  5
351B
330
204D
100
AcDbEntity
  8
SUNPOU
100
AcDbLine
 10
348.2391450718076
 20
142.7775986939781
 30
0.0
 11
336.8624363639099
 21
171.2199599574699
 31
0.0
  0
LINE
  5
351C
330
204D
100
AcDbEntity
  8
SUNPOU
100
AcDbLine
 10
299.3518592737834
 20
154.6004952739828
 30
0.0
 11
334.6340743894085
 21
168.7130888178626
 31
0.0
  0
INSERT
  5
351D
330
204D
100
AcDbEntity
  8
SUNPOU
100
AcDbBlockReference
  2
_OPEN
 10
296.5664212383393
 20
153.4863431520975
 30
0.0
 41
3.0
 42
3.0
 43
3.0
 50
201.8010000000005
  0
INSERT
  5
351E
330
204D
100
AcDbEntity
  8
SUNPOU
100
AcDbBlockReference
  2
_OPEN
 10
337.4195124248525
 20
169.8272409397479
 30
0.0
 41
3.0
 42
3.0
 43
3.0
 50
21.8010000000005
  0
MTEXT
  5
351F
330
204D
100
AcDbEntity
  8
SUNPOU
100
AcDbMText
 10
316.0645067300249
 20
163.9779904087928
 30
0.0
 40
3.0
 41
0.0
 71
     5
 72
     5
  1
\A1;44
 11
0.9284793451480277
 21
0.3713840406284167
 31
0.0
1001
ACAD
1000
MTEXTBEGIN
1070
    73
1070
     1
1070
    44
1040
1.0
1070
    74
1070
     0
1000
MTEXTEND
1000
MTEXTBEGIN
1070
    73
1070
     1
1070
    44
1040
1.0
1070
    74
1070
     0
1000
MTEXTEND
1000
MTEXTBEGIN
1070
    73
1070
     1
1070
    44
1040
1.0
1070
    74
1070
     0
1000
MTEXTEND
  0
POINT
  5
3520
330
204D
100
AcDbEntity
  8
DEFPOINTS
 62
     0
100
AcDbPoint
 10
308.5002060071796
 20
123.6512628708841
 30
0.0
  0
POINT
  5
3521
330
204D
100
AcDbEntity
  8
DEFPOINTS
 62
     0
100
AcDbPoint
 10
349.3532971936929
 20
139.992160658534
 30
0.0
  0
POINT
  5
3522
330
204D
100
AcDbEntity
  8
DEFPOINTS
 62
     0
100
AcDbPoint
 10
337.4195124248525
 20
169.8272409397479
 30
0.0
  0
ENDBLK
  5
2058
330
204D
100
AcDbEntity
  8
0
100
AcDbBlockEnd
  0
BLOCK
  5
2064
330
205A
100
AcDbEntity
  8
0
100
AcDbBlockBegin
  2
*D6
 70
     1
 10
0.0
 20
0.0
 30
0.0
  3
*D6
  1

  0
LINE
  5
3523
330
205A
100
AcDbEntity
  8
SUNPOU
100
AcDbLine
 10
299.4382622236532
 20
122.0729172610097
 30
0.0
 11
283.8112278114257
 21
161.1413130195335
 31
0.0
  0
LINE
  5
3524
330
205A
100
AcDbEntity
  8
SUNPOU
100
AcDbLine
 10
357.0039816228312
 20
145.0987277799709
 30
0.0
 11
341.3769472106035
 21
184.1671235384954
 31
0.0
  0
LINE
  5
3525
330
205A
100
AcDbEntity
  8
SUNPOU
100
AcDbLine
 10
287.1537419078125
 20
160.8627461236967
 30
0.0
 11
339.1485852361021
 21
181.6602523988881
 31
0.0
  0
INSERT
  5
3526
330
205A
100
AcDbEntity
  8
SUNPOU
100
AcDbBlockReference
  2
_OPEN
 10
284.3683038723684
 20
159.7485940018115
 30
0.0
 41
3.0
 42
3.0
 43
3.0
 50
201.8010000000005
  0
INSERT
  5
3527
330
205A
100
AcDbEntity
  8
SUNPOU
100
AcDbBlockReference
  2
_OPEN
 10
341.9340232715462
 20
182.7744045207733
 30
0.0
 41
3.0
 42
3.0
 43
3.0
 50
21.8010000000005
  0
MTEXT
  5
3528
330
205A
100
AcDbEntity
  8
SUNPOU
100
AcDbMText
 10
312.2227034703862
 20
173.5826976241625
 30
0.0
 40
3.0
 41
0.0
 71
     5
 72
     5
  1
\A1;62
 11
0.9284793451480277
 21
0.3713840406284167
 31
0.0
1001
ACAD
1000
MTEXTBEGIN
1070
    73
1070
     1
1070
    44
1040
1.0
1070
    74
1070
     0
1000
MTEXTEND
1000
MTEXTBEGIN
1070
    73
1070
     1
1070
    44
1040
1.0
1070
    74
1070
     0
1000
MTEXTEND
1000
MTEXTBEGIN
1070
    73
1070
     1
1070
    44
1040
1.0
1070
    74
1070
     0
1000
MTEXTEND
  0
POINT
  5
3529
330
205A
100
AcDbEntity
  8
DEFPOINTS
 62
     0
100
AcDbPoint
 10
300.5524143455385
 20
119.2874792255656
 30
0.0
  0
POINT
  5
352A
330
205A
100
AcDbEntity
  8
DEFPOINTS
 62
     0
100
AcDbPoint
 10
358.1181337447165
 20
142.3132897445268
 30
0.0
  0
POINT
  5
352B
330
205A
100
AcDbEntity
  8
DEFPOINTS
 62
     0
100
AcDbPoint
 10
341.9340232715462
 20
182.7744045207733
 30
0.0
  0
ENDBLK
  5
2065
330
205A
100
AcDbEntity
  8
0
100
AcDbBlockEnd
  0
BLOCK
  5
207E
330
2074
100
AcDbEntity
  8
0
100
AcDbBlockBegin
  2
*D7
 70
     1
 10
0.0
 20
0.0
 30
0.0
  3
*D7
  1

  0
LINE
  5
352C
330
2074
100
AcDbEntity
  8
SUNPOU
100
AcDbLine
 10
63.81066597988779
 20
229.1707035089473
 30
0.0
 11
38.47985321155012
 21
229.1707035089473
 31
0.0
  0
LINE
  5
352D
330
2074
100
AcDbEntity
  8
SUNPOU
100
AcDbLine
 10
63.8106659798878
 20
209.1707035089473
 30
0.0
 11
38.47985321155012
 21
209.1707035089473
 31
0.0
  0
LINE
  5
352E
330
2074
100
AcDbEntity
  8
SUNPOU
100
AcDbLine
 10
39.97985321155012
 20
226.1707035089473
 30
0.0
 11
39.97985321155012
 21
212.1707035089473
 31
0.0
  0
INSERT
  5
352F
330
2074
100
AcDbEntity
  8
SUNPOU
100
AcDbBlockReference
  2
_OPEN
 10
39.97985321155012
 20
229.1707035089473
 30
0.0
 41
3.0
 42
3.0
 43
3.0
 50
90.0
  0
INSERT
  5
3530
330
2074
100
AcDbEntity
  8
SUNPOU
100
AcDbBlockReference
  2
_OPEN
 10
39.97985321155012
 20
209.1707035089473
 30
0.0
 41
3.0
 42
3.0
 43
3.0
 50
270.0
  0
MTEXT
  5
3531
330
2074
100
AcDbEntity
  8
SUNPOU
100
AcDbMText
 10
37.47985321155008
 20
219.1707035089473
 30
0.0
 40
3.0
 41
0.0
 71
     5
 72
     5
  1
\A1;20
 11
0.0000000000000001
 21
1.0
 31
0.0
1001
ACAD
1000
MTEXTBEGIN
1070
    73
1070
     1
1070
    44
1040
1.0
1070
    74
1070
     0
1000
MTEXTEND
1000
MTEXTBEGIN
1070
    73
1070
     1
1070
    44
1040
1.0
1070
    74
1070
     0
1000
MTEXTEND
1000
MTEXTBEGIN
1070
    73
1070
     1
1070
    44
1040
1.0
1070
    74
1070
     0
1000
MTEXTEND
  0
POINT
  5
3532
330
2074
100
AcDbEntity
  8
DEFPOINTS
 62
     0
100
AcDbPoint
 10
66.8106659798878
 20
229.1707035089473
 30
0.0
  0
POINT
  5
3533
330
2074
100
AcDbEntity
  8
DEFPOINTS
 62
     0
100
AcDbPoint
 10
66.8106659798878
 20
209.1707035089473
 30
0.0
  0
POINT
  5
3534
330
2074
100
AcDbEntity
  8
DEFPOINTS
 62
     0
100
AcDbPoint
 10
39.97985321155012
 20
209.1707035089473
 30
0.0
  0
ENDBLK
  5
207F
330
2074
100
AcDbEntity
  8
0
100
AcDbBlockEnd
  0
BLOCK
  5
2F44
330
2F3A
100
AcDbEntity
  8
0
100
AcDbBlockBegin
  2
*D8
 70
     1
 10
0.0
 20
0.0
 30
0.0
  3
*D8
  1

  0
LINE
  5
3535
330
2F3A
100
AcDbEntity
  8
SUNPOU
100
AcDbLine
 10
250.9603619153532
 20
102.6820342515015
 30
0.0
 11
262.5261569514619
 21
107.3082563810489
 31
0.0
  0
LINE
  5
3536
330
2F3A
100
AcDbEntity
  8
SUNPOU
100
AcDbLine
 10
263.9588033353532
 20
70.18525717450157
 30
0.0
 11
275.5245983714619
 21
74.81147930404898
 31
0.0
  0
LINE
  5
3537
330
2F3A
100
AcDbEntity
  8
SUNPOU
100
AcDbLine
 10
262.2475900555611
 20
103.9657422846676
 30
0.0
 11
273.0177272318973
 21
77.03984127859847
 31
0.0
  0
INSERT
  5
3538
330
2F3A
100
AcDbEntity
  8
SUNPOU
100
AcDbBlockReference
  2
_OPEN
 10
261.1334379337292
 20
106.751180320133
 30
0.0
 41
3.0
 42
3.0
 43
3.0
 50
111.8009999989027
  0
INSERT
  5
3539
330
2F3A
100
AcDbEntity
  8
SUNPOU
100
AcDbBlockReference
  2
_OPEN
 10
274.1318793537292
 20
74.25440324313306
 30
0.0
 41
3.0
 42
3.0
 43
3.0
 50
291.8009999989028
  0
MTEXT
  5
353A
330
2F3A
100
AcDbEntity
  8
SUNPOU
100
AcDbMText
 10
269.9538570066171
 20
91.43125188315964
 30
0.0
 40
3.0
 41
0.0
 71
     5
 72
     5
  1
\A1;35
 11
0.3713840406106279
 21
-0.9284793451551431
 31
0.0
1001
ACAD
1000
MTEXTBEGIN
1070
    73
1070
     1
1070
    44
1040
1.0
1070
    74
1070
     0
1000
MTEXTEND
1000
MTEXTBEGIN
1070
    73
1070
     1
1070
    44
1040
1.0
1070
    74
1070
     0
1000
MTEXTEND
1000
MTEXTBEGIN
1070
    73
1070
     1
1070
    44
1040
1.0
1070
    74
1070
     0
1000
MTEXTEND
  0
POINT
  5
353B
330
2F3A
100
AcDbEntity
  8
DEFPOINTS
 62
     0
100
AcDbPoint
 10
248.1749238798877
 20
101.5678821296696
 30
0.0
  0
POINT
  5
353C
330
2F3A
100
AcDbEntity
  8
DEFPOINTS
 62
     0
100
AcDbPoint
 10
261.1733652998878
 20
69.07110505266968
 30
0.0
  0
POINT
  5
353D
330
2F3A
100
AcDbEntity
  8
DEFPOINTS
 62
     0
100
AcDbPoint
 10
274.1318793537292
 20
74.25440324313306
 30
0.0
  0
ENDBLK
  5
2F45
330
2F3A
100
AcDbEntity
  8
0
100
AcDbBlockEnd
  0
BLOCK
  5
2F8C
330
2F82
100
AcDbEntity
  8
0
100
AcDbBlockBegin
  2
*D9
 70
     1
 10
0.0
 20
0.0
 30
0.0
  3
*D9
  1

  0
LINE
  5
353E
330
2F82
100
AcDbEntity
  8
SUNPOU
100
AcDbLine
 10
66.8106659798878
 20
93.84800260166967
 30
0.0
 11
66.8106659798878
 21
136.5340112540297
 31
0.0
  0
LINE
  5
353F
330
2F82
100
AcDbEntity
  8
SUNPOU
100
AcDbLine
 10
245.763957856485
 20
110.5954221147473
 30
0.0
 11
245.763957856485
 21
136.5340112540297
 31
0.0
  0
LINE
  5
3540
330
2F82
100
AcDbEntity
  8
SUNPOU
100
AcDbLine
 10
69.8106659798878
 20
135.0340112540297
 30
0.0
 11
242.763957856485
 21
135.0340112540297
 31
0.0
  0
INSERT
  5
3541
330
2F82
100
AcDbEntity
  8
SUNPOU
100
AcDbBlockReference
  2
_OPEN
 10
66.8106659798878
 20
135.0340112540297
 30
0.0
 41
3.0
 42
3.0
 43
3.0
 50
180.0
  0
INSERT
  5
3542
330
2F82
100
AcDbEntity
  8
SUNPOU
100
AcDbBlockReference
  2
_OPEN
 10
245.763957856485
 20
135.0340112540297
 30
0.0
 41
3.0
 42
3.0
 43
3.0
  0
MTEXT
  5
3543
330
2F82
100
AcDbEntity
  8
SUNPOU
100
AcDbMText
 10
156.2873119181864
 20
137.5340112540297
 30
0.0
 40
3.0
 41
0.0
 71
     5
 72
     5
  1
\A1;179
1001
ACAD
1000
MTEXTBEGIN
1070
    73
1070
     1
1070
    44
1040
1.0
1070
    74
1070
     0
1000
MTEXTEND
1000
MTEXTBEGIN
1070
    73
1070
     1
1070
    44
1040
1.0
1070
    74
1070
     0
1000
MTEXTEND
1000
MTEXTBEGIN
1070
    73
1070
     1
1070
    44
1040
1.0
1070
    74
1070
     0
1000
MTEXTEND
  0
POINT
  5
3544
330
2F82
100
AcDbEntity
  8
DEFPOINTS
 62
     0
100
AcDbPoint
 10
66.8106659798878
 20
90.84800260166968
 30
0.0
  0
POINT
  5
3545
330
2F82
100
AcDbEntity
  8
DEFPOINTS
 62
     0
100
AcDbPoint
 10
245.763957856485
 20
107.5954221147473
 30
0.0
  0
POINT
  5
3546
330
2F82
100
AcDbEntity
  8
DEFPOINTS
 62
     0
100
AcDbPoint
 10
245.763957856485
 20
135.0340112540297
 30
0.0
  0
ENDBLK
  5
2F8D
330
2F82
100
AcDbEntity
  8
0
100
AcDbBlockEnd
  0
BLOCK
  5
2F99
330
2F8F
100
AcDbEntity
  8
0
100
AcDbBlockBegin
  2
*D10
 70
     1
 10
0.0
 20
0.0
 30
0.0
  3
*D10
  1

  0
LINE
  5
3547
330
2F8F
100
AcDbEntity
  8
SUNPOU
100
AcDbLine
 10
183.2696087031158
 20
97.87850260166964
 30
0.0
 11
183.2696087031158
 21
127.210498899032
 31
0.0
  0
LINE
  5
3548
330
2F8F
100
AcDbEntity
  8
SUNPOU
100
AcDbLine
 10
245.763957856485
 20
110.5954221147473
 30
0.0
 11
245.763957856485
 21
127.210498899032
 31
0.0
  0
LINE
  5
3549
330
2F8F
100
AcDbEntity
  8
SUNPOU
100
AcDbLine
 10
186.2696087031158
 20
125.710498899032
 30
0.0
 11
242.763957856485
 21
125.710498899032
 31
0.0
  0
INSERT
  5
354A
330
2F8F
100
AcDbEntity
  8
SUNPOU
100
AcDbBlockReference
  2
_OPEN
 10
183.2696087031158
 20
125.710498899032
 30
0.0
 41
3.0
 42
3.0
 43
3.0
 50
180.0
  0
INSERT
  5
354B
330
2F8F
100
AcDbEntity
  8
SUNPOU
100
AcDbBlockReference
  2
_OPEN
 10
245.763957856485
 20
125.710498899032
 30
0.0
 41
3.0
 42
3.0
 43
3.0
  0
MTEXT
  5
354C
330
2F8F
100
AcDbEntity
  8
SUNPOU
100
AcDbMText
 10
214.5167832798004
 20
128.210498899032
 30
0.0
 40
3.0
 41
0.0
 71
     5
 72
     5
  1
\A1;62
1001
ACAD
1000
MTEXTBEGIN
1070
    73
1070
     1
1070
    44
1040
1.0
1070
    74
1070
     0
1000
MTEXTEND
1000
MTEXTBEGIN
1070
    73
1070
     1
1070
    44
1040
1.0
1070
    74
1070
     0
1000
MTEXTEND
1000
MTEXTBEGIN
1070
    73
1070
     1
1070
    44
1040
1.0
1070
    74
1070
     0
1000
MTEXTEND
  0
POINT
  5
354D
330
2F8F
100
AcDbEntity
  8
DEFPOINTS
 62
     0
100
AcDbPoint
 10
183.2696087031158
 20
94.87850260166963
 30
0.0
  0
POINT
  5
354E
330
2F8F
100
AcDbEntity
  8
DEFPOINTS
 62
     0
100
AcDbPoint
 10
245.763957856485
 20
107.5954221147473
 30
0.0
  0
POINT
  5
354F
330
2F8F
100
AcDbEntity
  8
DEFPOINTS
 62
     0
100
AcDbPoint
 10
245.763957856485
 20
125.710498899032
 30
0.0
  0
ENDBLK
  5
2F9A
330
2F8F
100
AcDbEntity
  8
0
100
AcDbBlockEnd
  0
BLOCK
  5
3002
330
2FF8
100
AcDbEntity
  8
0
100
AcDbBlockBegin
  2
*D11
 70
     1
 10
0.0
 20
0.0
 30
0.0
  3
*D11
  1

  0
LINE
  5
3550
330
2FF8
100
AcDbEntity
  8
SUNPOU
100
AcDbLine
 10
63.8106659798878
 20
90.84800260166968
 30
0.0
 11
38.47985321155009
 21
90.84800260166968
 31
0.0
  0
LINE
  5
3551
330
2FF8
100
AcDbEntity
  8
SUNPOU
100
AcDbLine
 10
258.1733652998877
 20
69.07110505266968
 30
0.0
 11
38.47985321155009
 21
69.07110505266974
 31
0.0
  0
LINE
  5
3552
330
2FF8
100
AcDbEntity
  8
SUNPOU
100
AcDbLine
 10
39.97985321155009
 20
87.84800260166967
 30
0.0
 11
39.97985321155008
 21
72.07110505266974
 31
0.0
  0
INSERT
  5
3553
330
2FF8
100
AcDbEntity
  8
SUNPOU
100
AcDbBlockReference
  2
_OPEN
 10
39.97985321155009
 20
90.84800260166968
 30
0.0
 41
3.0
 42
3.0
 43
3.0
 50
90.0
  0
INSERT
  5
3554
330
2FF8
100
AcDbEntity
  8
SUNPOU
100
AcDbBlockReference
  2
_OPEN
 10
39.97985321155008
 20
69.07110505266974
 30
0.0
 41
3.0
 42
3.0
 43
3.0
 50
270.0
  0
MTEXT
  5
3555
330
2FF8
100
AcDbEntity
  8
SUNPOU
100
AcDbMText
 10
37.47985321155008
 20
79.95955382716971
 30
0.0
 40
3.0
 41
0.0
 71
     5
 72
     5
  1
\A1;22
 11
0.0000000000000001
 21
1.0
 31
0.0
1001
ACAD
1000
MTEXTBEGIN
1070
    73
1070
     1
1070
    44
1040
1.0
1070
    74
1070
     0
1000
MTEXTEND
1000
MTEXTBEGIN
1070
    73
1070
     1
1070
    44
1040
1.0
1070
    74
1070
     0
1000
MTEXTEND
1000
MTEXTBEGIN
1070
    73
1070
     1
1070
    44
1040
1.0
1070
    74
1070
     0
1000
MTEXTEND
  0
POINT
  5
3556
330
2FF8
100
AcDbEntity
  8
DEFPOINTS
 62
     0
100
AcDbPoint
 10
66.8106659798878
 20
90.84800260166968
 30
0.0
  0
POINT
  5
3557
330
2FF8
100
AcDbEntity
  8
DEFPOINTS
 62
     0
100
AcDbPoint
 10
261.1733652998878
 20
69.07110505266968
 30
0.0
  0
POINT
  5
3558
330
2FF8
100
AcDbEntity
  8
DEFPOINTS
 62
     0
100
AcDbPoint
 10
39.97985321155008
 20
69.07110505266974
 30
0.0
  0
ENDBLK
  5
3003
330
2FF8
100
AcDbEntity
  8
0
100
AcDbBlockEnd
  0
BLOCK
  5
347A
330
3470
100
AcDbEntity
  8
0
100
AcDbBlockBegin
  2
*D12
 70
     1
 10
0.0
 20
0.0
 30
0.0
  3
*D12
  1

  0
LINE
  5
3559
330
3470
100
AcDbEntity
  8
SUNPOU
100
AcDbLine
 10
263.0592131532991
 20
250.1707035089473
 30
0.0
 11
285.6161223370849
 21
250.1707035089473
 31
0.0
  0
LINE
  5
355A
330
3470
100
AcDbEntity
  8
SUNPOU
100
AcDbLine
 10
263.0592131532991
 20
188.1707035089473
 30
0.0
 11
285.6161223370849
 21
188.1707035089473
 31
0.0
  0
LINE
  5
355B
330
3470
100
AcDbEntity
  8
SUNPOU
100
AcDbLine
 10
284.1161223370849
 20
247.1707035089473
 30
0.0
 11
284.1161223370849
 21
191.1707035089473
 31
0.0
  0
INSERT
  5
355C
330
3470
100
AcDbEntity
  8
SUNPOU
100
AcDbBlockReference
  2
_OPEN
 10
284.1161223370849
 20
250.1707035089473
 30
0.0
 41
3.0
 42
3.0
 43
3.0
 50
90.0
  0
INSERT
  5
355D
330
3470
100
AcDbEntity
  8
SUNPOU
100
AcDbBlockReference
  2
_OPEN
 10
284.1161223370849
 20
188.1707035089473
 30
0.0
 41
3.0
 42
3.0
 43
3.0
 50
270.0
  0
MTEXT
  5
355E
330
3470
100
AcDbEntity
  8
SUNPOU
100
AcDbMText
 10
281.6161223370849
 20
219.1707035089473
 30
0.0
 40
3.0
 41
0.0
 71
     5
 72
     5
  1
\A1;62
 11
0.0000000000000001
 21
1.0
 31
0.0
1001
ACAD
1000
MTEXTBEGIN
1070
    73
1070
     1
1070
    44
1040
1.0
1070
    74
1070
     0
1000
MTEXTEND
1000
MTEXTBEGIN
1070
    73
1070
     1
1070
    44
1040
1.0
1070
    74
1070
     0
1000
MTEXTEND
1000
MTEXTBEGIN
1070
    73
1070
     1
1070
    44
1040
1.0
1070
    74
1070
     0
1000
MTEXTEND
  0
POINT
  5
355F
330
3470
100
AcDbEntity
  8
DEFPOINTS
 62
     0
100
AcDbPoint
 10
260.0592131532991
 20
250.1707035089473
 30
0.0
  0
POINT
  5
3560
330
3470
100
AcDbEntity
  8
DEFPOINTS
 62
     0
100
AcDbPoint
 10
260.0592131532991
 20
188.1707035089473
 30
0.0
  0
POINT
  5
3561
330
3470
100
AcDbEntity
  8
DEFPOINTS
 62
     0
100
AcDbPoint
 10
284.1161223370849
 20
188.1707035089473
 30
0.0
  0
ENDBLK
  5
347B
330
3470
100
AcDbEntity
  8
0
100
AcDbBlockEnd
  0
BLOCK
  5
3686
330
35D0
100
AcDbEntity
  8
0
100
AcDbBlockBegin
  2
A$C4C0004CE
 70
     0
 10
0.0
 20
0.0
 30
0.0
  3
A$C4C0004CE
  1

  0
LINE
  5
35D1
330
35D0
100
AcDbEntity
  8
ZUWAKU
100
AcDbLine
 10
104.3233006308625
 20
7.599999859644409
 30
0.0
 11
223.7121819713241
 21
7.599999859644405
 31
0.0
  0
LINE
  5
35D2
330
35D0
100
AcDbEntity
  8
ZUWAKU
100
AcDbLine
 10
104.3233006308625
 20
7.799999859644406
 30
0.0
 11
223.7121819713241
 21
7.79999985964441
 31
0.0
  0
LINE
  5
35D3
330
35D0
100
AcDbEntity
  8
ZUWAKU
100
AcDbLine
 10
104.3233006308625
 20
7.699999859644407
 30
0.0
 11
223.7121819713241
 21
7.699999859644407
 31
0.0
  0
LINE
  5
35D4
330
35D0
100
AcDbEntity
  8
ZUWAKU
100
AcDbLine
 10
-0.0000000141715191
 20
15.39999985964439
 30
0.0
 11
398.6999999858284
 21
15.39999985964439
 31
0.0
  0
LINE
  5
35D5
330
35D0
100
AcDbEntity
  8
ZUWAKU
100
AcDbLine
 10
-0.0000000141715191
 20
15.29999985964439
 30
0.0
 11
398.6999999858284
 21
15.29999985964439
 31
0.0
  0
LINE
  5
35D6
330
35D0
100
AcDbEntity
  8
ZUWAKU
100
AcDbLine
 10
-0.0000000141715191
 20
15.19999985964439
 30
0.0
 11
398.6999999858284
 21
15.19999985964439
 31
0.0
  0
LINE
  5
35D7
330
35D0
100
AcDbEntity
  8
ZUWAKU
100
AcDbLine
 10
-0.0000000141715191
 20
15.09999985964439
 30
0.0
 11
398.6999999858284
 21
15.09999985964439
 31
0.0
  0
LINE
  5
35D8
330
35D0
100
AcDbEntity
  8
ZUWAKU
100
AcDbLine
 10
-0.0000000141715191
 20
14.99999985964439
 30
0.0
 11
398.6999999858284
 21
14.99999985964439
 31
0.0
  0
LWPOLYLINE
  5
35D9
330
35D0
100
AcDbEntity
  8
ZUWAKU
100
AcDbPolyline
 90
        4
 70
     1
 43
0.0
 10
0.0999999858284468
 20
275.6999998596444
 10
0.0999999858284468
 20
0.099999859644413
 10
398.6999999858284
 20
0.0999998596444245
 10
398.6999999858285
 20
275.6999998596444
  0
LWPOLYLINE
  5
35DA
330
35D0
100
AcDbEntity
  8
ZUWAKU
100
AcDbPolyline
 90
        4
 70
     1
 43
0.0
 10
0.2999999858284354
 20
275.4999998596444
 10
0.2999999858284354
 20
0.2999998596444016
 10
398.4999999858286
 20
0.2999998596444246
 10
398.4999999858284
 20
275.4999998596444
  0
LWPOLYLINE
  5
35DB
330
35D0
100
AcDbEntity
  8
ZUWAKU
100
AcDbPolyline
 90
        4
 70
     1
 43
0.0
 10
-0.0000000141715191
 20
275.7999998596444
 10
-0.0000000141715191
 20
-0.0000001403556098
 10
398.7999999858285
 20
-0.0000001403555761
 10
398.7999999858285
 20
275.7999998596444
  0
LWPOLYLINE
  5
35DC
330
35D0
100
AcDbEntity
  8
ZUWAKU
100
AcDbPolyline
 90
        4
 70
     1
 43
0.0
 10
0.1999999858284695
 20
275.5999998596444
 10
0.1999999858284695
 20
0.1999998596444357
 10
398.5999999858285
 20
0.1999998596444241
 10
398.5999999858285
 20
275.5999998596444
  0
LWPOLYLINE
  5
35DD
330
35D0
100
AcDbEntity
  8
ZUWAKU
100
AcDbPolyline
 90
        4
 70
     1
 43
0.0
 10
0.3999999858284582
 20
275.3999998596444
 10
0.3999999858284582
 20
0.3999998596444243
 10
398.3999999858284
 20
0.3999998596444243
 10
398.3999999858284
 20
275.3999998596444
  0
TEXT
  5
35DE
330
35D0
100
AcDbEntity
  8
MOJI
100
AcDbText
 10
46.47889477991305
 20
6.37058892478177
 30
0.0
 40
3.0
  1
新・丸トップＲＶ１０５
 41
0.9
  7
ｽﾀｲﾙ1
100
AcDbText
  0
HATCH
  5
35DF
330
35D0
100
AcDbEntity
  8
ZUWAKU
100
AcDbHatch
 10
0.0
 20
0.0
 30
0.0
210
0.0
220
0.0
230
1.0
  2
ANSI37
 70
     0
 71
     0
 91
        8
 92
        7
 72
     1
 73
     1
 93
       24
 10
7.251131316388409
 20
8.822424100136181
 42
-0.1989123673796348
 10
7.046106063219042
 20
9.317398846966707
 42
0.0
 10
7.046106063219042
 20
9.962499859644395
 42
-0.4142135623730912
 10
7.308606063219031
 20
10.22499985964439
 42
0.0
 10
8.796106063218985
 20
10.22499985964439
 42
0.4142135623731546
 10
9.058606063219031
 20
10.48749985964438
 42
0.0
 10
9.058606063219031
 20
11.36249985964439
 42
0.4142135623731586
 10
8.796106063218985
 20
11.62499985964439
 42
0.0
 10
7.046106063219042
 20
11.62499985964439
 42
0.4142135623730928
 10
5.646106063219065
 20
10.2249998596444
 42
0.0
 10
5.646106063219065
 20
9.317398846966771
 42
0.1989123673796619
 10
6.26118182272728
 20
7.832474606474967
 42
0.0
 10
7.716080810049618
 20
6.377575619152638
 42
-0.1989123673796613
 10
7.921106063219042
 20
5.882600872322045
 42
0.0
 10
7.921106063219042
 20
5.237499859644387
 42
-0.4142135623730911
 10
7.658606063219053
 20
4.974999859644391
 42
0.0
 10
6.171106063219099
 20
4.974999859644391
 42
0.4142135623731526
 10
5.908606063219053
 20
4.712499859644397
 42
0.0
 10
5.908606063219053
 20
3.837499859644387
 42
0.4142135623731526
 10
6.171106063219099
 20
3.574999859644393
 42
0.0
 10
7.921106063219042
 20
3.574999859644393
 42
0.4142135623731044
 10
9.321106063219076
 20
4.97499985964438
 42
0.0
 10
9.321106063219076
 20
5.882600872322017
 42
0.1989123673796604
 10
8.706030303710804
 20
7.367525112813787
 42
0.0
 97
        0
 92
        7
 72
     1
 73
     1
 93
       16
 10
11.77110606321906
 20
9.524999859644395
 42
-0.4142135623730935
 10
12.47110606321905
 20
10.22499985964439
 42
0.0
 10
13.43360606321903
 20
10.22499985964439
 42
0.4142135623731546
 10
13.69610606321907
 20
10.48749985964438
 42
0.0
 10
13.69610606321907
 20
11.36249985964439
 42
0.4142135623730951
 10
13.43360606321908
 20
11.62499985964439
 42
0.0
 10
12.47110606321899
 20
11.62499985964437
 42
0.4142135623730892
 10
10.37110606321903
 20
9.52499985964436
 42
0.0
 10
10.37110606321903
 20
5.674999859644405
 42
0.4142135623730969
 10
12.47110606321905
 20
3.574999859644393
 42
0.0
 10
13.43360606321903
 20
3.574999859644393
 42
0.4142135623731526
 10
13.69610606321907
 20
3.837499859644387
 42
0.0
 10
13.69610606321907
 20
4.712499859644397
 42
0.4142135623730891
 10
13.43360606321908
 20
4.974999859644391
 42
0.0
 10
12.47110606321905
 20
4.974999859644391
 42
-0.4142135623730928
 10
11.77110606321906
 20
5.674999859644385
 42
0.0
 97
        0
 92
        7
 72
     1
 73
     1
 93
        2
 10
12.12110606321903
 20
7.599999859644391
 42
1.0
 10
13.87110606321903
 20
7.599999859644391
 42
1.0
 97
        0
 92
        7
 72
     1
 73
     1
 93
       26
 10
18.65742930430803
 20
9.602523456426105
 42
0.0
 10
19.18824912087694
 20
11.2834528755609
 42
0.5069206636600134
 10
18.93793367127926
 20
11.62499985964439
 42
0.0
 10
18.08848898147465
 20
11.62499985964439
 42
0.3272098845218764
 10
17.83817353187697
 20
11.44154684372787
 42
0.0
 10
16.90403859456108
 20
8.483452875560931
 42
-0.3272098845219541
 10
16.65372314496335
 20
8.29999985964439
 42
0.0
 10
16.58360606321912
 20
8.29999985964439
 42
-0.4142135623731526
 10
16.32110606321907
 20
8.562499859644384
 42
0.0
 10
16.32110606321907
 20
11.36249985964439
 42
0.4142135623730951
 10
16.05860606321908
 20
11.62499985964439
 42
0.0
 10
15.18360606321903
 20
11.62499985964439
 42
0.4142135623730871
 10
14.92110606321904
 20
11.3624998596444
 42
0.0
 10
14.92110606321904
 20
3.837499859644387
 42
0.4142135623730891
 10
15.18360606321903
 20
3.574999859644393
 42
0.0
 10
16.05860606321903
 20
3.574999859644393
 42
0.4142135623731526
 10
16.32110606321907
 20
3.837499859644387
 42
0.0
 10
16.32110606321907
 20
6.637499859644398
 42
-0.4142135623731526
 10
16.58360606321912
 20
6.899999859644392
 42
0.0
 10
16.6537231449634
 20
6.899999859644392
 42
-0.3272098845218915
 10
16.90403859456108
 20
6.716546843727854
 42
0.0
 10
17.83817353187697
 20
3.758452875560928
 42
0.3272098845218902
 10
18.08848898147465
 20
3.574999859644393
 42
0.0
 10
18.93793367127926
 20
3.574999859644393
 42
0.5069206636600335
 10
19.18824912087694
 20
3.916546843727896
 42
0.0
 10
18.02505343164011
 20
7.59999985964446
 42
0.0
 97
        0
 92
        7
 72
     1
 73
     1
 93
        8
 10
21.74610606321903
 20
11.36249985964439
 42
0.4142135623731546
 10
21.48360606321898
 20
11.62499985964439
 42
0.0
 10
20.60860606321909
 20
11.62499985964439
 42
0.4142135623731507
 10
20.34610606321905
 20
11.3624998596444
 42
0.0
 10
20.34610606321905
 20
3.837499859644387
 42
0.4142135623731526
 10
20.60860606321909
 20
3.574999859644393
 42
0.0
 10
21.48360606321898
 20
3.574999859644393
 42
0.4142135623731526
 10
21.74610606321903
 20
3.837499859644387
 42
0.0
 97
        0
 92
        7
 72
     1
 73
     1
 93
       24
 10
24.19610606321907
 20
9.962499859644395
 42
-0.4142135623731546
 10
24.45860606321912
 20
10.22499985964439
 42
0.0
 10
25.94610606321907
 20
10.22499985964439
 42
0.4142135623730911
 10
26.20860606321906
 20
10.48749985964438
 42
0.0
 10
26.20860606321906
 20
11.36249985964439
 42
0.4142135623730952
 10
25.94610606321907
 20
11.62499985964439
 42
0.0
 10
24.19610606321907
 20
11.62499985964439
 42
0.4142135623731048
 10
22.79610606321904
 20
10.2249998596444
 42
0.0
 10
22.79610606321904
 20
9.317398846966771
 42
0.1989123673796613
 10
23.41118182272731
 20
7.832474606474995
 42
0.0
 10
24.86608081004965
 20
6.377575619152661
 42
-0.1989123673796402
 10
25.07110606321907
 20
5.882600872322125
 42
0.0
 10
25.07110606321907
 20
5.237499859644387
 42
-0.4142135623730911
 10
24.80860606321908
 20
4.974999859644391
 42
0.0
 10
23.32110606321907
 20
4.974999859644391
 42
0.4142135623731526
 10
23.05860606321903
 20
4.712499859644397
 42
0.0
 10
23.05860606321903
 20
3.837499859644387
 42
0.4142135623730891
 10
23.32110606321902
 20
3.574999859644393
 42
0.0
 10
25.07110606321907
 20
3.574999859644393
 42
0.4142135623730925
 10
26.47110606321905
 20
4.97499985964438
 42
0.0
 10
26.47110606321905
 20
5.882600872322017
 42
0.1989123673796675
 10
25.85603030371078
 20
7.367525112813844
 42
0.0
 10
24.4011313163885
 20
8.822424100136101
 42
-0.1989123673796652
 10
24.19610606321907
 20
9.317398846966685
 42
0.0
 97
        0
 92
        7
 72
     1
 73
     1
 93
       16
 10
28.92110606321904
 20
11.36249985964438
 42
0.414213562373103
 10
28.65860606321905
 20
11.62499985964439
 42
0.0
 10
27.78360606321905
 20
11.62499985964439
 42
0.4142135623730871
 10
27.52110606321906
 20
11.3624998596444
 42
0.0
 10
27.52110606321906
 20
4.97499985964438
 42
0.4142135623730926
 10
28.92110606321904
 20
3.574999859644393
 42
0.0
 10
30.67110606321904
 20
3.574999859644393
 42
0.4142135623731044
 10
32.07110606321907
 20
4.97499985964438
 42
0.0
 10
32.07110606321907
 20
11.36249985964439
 42
0.4142135623730951
 10
31.80860606321909
 20
11.62499985964439
 42
0.0
 10
30.93360606321903
 20
11.62499985964439
 42
0.4142135623730871
 10
30.67110606321904
 20
11.3624998596444
 42
0.0
 10
30.67110606321904
 20
5.499999859644379
 42
-0.414213562373088
 10
30.14610606321906
 20
4.974999859644391
 42
0.0
 10
29.44610606321907
 20
4.974999859644391
 42
-0.4142135623731197
 10
28.92110606321904
 20
5.499999859644379
 42
0.0
 97
        0
 92
        7
 72
     1
 73
     1
 93
        8
 10
34.52110606321906
 20
11.3624998596444
 42
0.4142135623730871
 10
34.25860606321907
 20
11.62499985964439
 42
0.0
 10
33.38360606321908
 20
11.62499985964439
 42
0.4142135623731507
 10
33.12110606321903
 20
11.3624998596444
 42
0.0
 10
33.12110606321903
 20
3.837499859644387
 42
0.4142135623730891
 10
33.38360606321902
 20
3.574999859644393
 42
0.0
 10
34.25860606321907
 20
3.574999859644393
 42
0.4142135623730891
 10
34.52110606321906
 20
3.837499859644387
 42
0.0
 97
        0
 75
     0
 76
     1
 52
0.0
 41
0.1
 77
     0
 78
     2
 53
45.0
 43
-450.4711521815109
 44
-6.600000140355575
 45
-0.2245064030267288
 46
0.2245064030267288
 79
     0
 53
135.0
 43
-450.4711521815109
 44
-6.600000140355575
 45
-0.2245064030267288
 46
-0.2245064030267288
 79
     0
 47
0.057451373970553
 98
        8
 10
8.039927467340135
 20
7.583586682587167
 10
11.20225748904806
 20
9.422030950869896
 10
12.58218392865831
 20
7.755940682679749
 10
15.45702997664704
 20
8.100648682865141
 10
20.91923599530685
 20
8.330454816635949
 10
23.44910043339325
 20
9.709288017847995
 10
28.27884297202865
 20
9.364578817191897
 10
33.91353979563985
 20
9.594384950962705
  0
LINE
  5
35E0
330
35D0
100
AcDbEntity
  8
ZUWAKU
100
AcDbLine
 10
12.47110606321905
 20
11.62499985964437
 30
0.0
 11
13.43360606321903
 21
11.62499985964439
 31
0.0
  0
LINE
  5
35E1
330
35D0
100
AcDbEntity
  8
ZUWAKU
100
AcDbLine
 10
13.43360606321903
 20
10.22499985964439
 30
0.0
 11
12.47110606321905
 21
10.22499985964439
 31
0.0
  0
LINE
  5
35E2
330
35D0
100
AcDbEntity
  8
ZUWAKU
100
AcDbLine
 10
12.47110606321905
 20
4.974999859644391
 30
0.0
 11
13.43360606321903
 21
4.974999859644391
 31
0.0
  0
LINE
  5
35E3
330
35D0
100
AcDbEntity
  8
ZUWAKU
100
AcDbLine
 10
13.43360606321903
 20
3.574999859644393
 30
0.0
 11
12.47110606321905
 21
3.574999859644393
 31
0.0
  0
CIRCLE
  5
35E4
330
35D0
100
AcDbEntity
  8
ZUWAKU
100
AcDbCircle
 10
12.99610606321903
 20
7.599999859644391
 30
0.0
 40
0.875
  0
ARC
  5
35E5
330
35D0
100
AcDbEntity
  8
ZUWAKU
100
AcDbCircle
 10
7.746106063219031
 20
9.317398846966742
 30
0.0
 40
0.7
100
AcDbArc
 50
180.0000000000016
 51
224.9999999999988
  0
LINE
  5
35E6
330
35D0
100
AcDbEntity
  8
ZUWAKU
100
AcDbLine
 10
11.77110606321906
 20
9.524999859644392
 30
0.0
 11
11.77110606321906
 21
5.674999859644394
 31
0.0
  0
LINE
  5
35E7
330
35D0
100
AcDbEntity
  8
ZUWAKU
100
AcDbLine
 10
10.37110606321903
 20
5.674999859644394
 30
0.0
 11
10.37110606321903
 21
9.524999859644371
 31
0.0
  0
ARC
  5
35E8
330
35D0
100
AcDbEntity
  8
ZUWAKU
100
AcDbCircle
 10
7.746106063219031
 20
9.317398846966742
 30
0.0
 40
2.099999999999999
100
AcDbArc
 50
180.0
 51
225.0
  0
ARC
  5
35E9
330
35D0
100
AcDbEntity
  8
ZUWAKU
100
AcDbCircle
 10
7.921106063219042
 20
4.974999859644391
 30
0.0
 40
1.399999999999999
100
AcDbArc
 50
270.0
 51
0.0
  0
ARC
  5
35EA
330
35D0
100
AcDbEntity
  8
ZUWAKU
100
AcDbCircle
 10
12.47110606321905
 20
5.674999859644394
 30
0.0
 40
2.099999999999999
100
AcDbArc
 50
180.0
 51
270.0
  0
ARC
  5
35EB
330
35D0
100
AcDbEntity
  8
ZUWAKU
100
AcDbCircle
 10
7.221106063219053
 20
5.882600872322043
 30
0.0
 40
2.099999999999999
100
AcDbArc
 50
0.0
 51
45.0
  0
LINE
  5
35EC
330
35D0
100
AcDbEntity
  8
ZUWAKU
100
AcDbLine
 10
8.706030303710804
 20
7.367525112813805
 30
0.0
 11
7.251131316388466
 21
8.822424100136142
 31
0.0
  0
LINE
  5
35ED
330
35D0
100
AcDbEntity
  8
ZUWAKU
100
AcDbLine
 10
7.921106063219042
 20
5.237499859644394
 30
0.0
 11
7.921106063219042
 21
5.882600872322065
 31
0.0
  0
ARC
  5
35EE
330
35D0
100
AcDbEntity
  8
ZUWAKU
100
AcDbCircle
 10
7.658606063219053
 20
5.237499859644394
 30
0.0
 40
0.2625
100
AcDbArc
 50
270.0
 51
0.0
  0
ARC
  5
35EF
330
35D0
100
AcDbEntity
  8
ZUWAKU
100
AcDbCircle
 10
7.221106063219053
 20
5.882600872322065
 30
0.0
 40
0.7
100
AcDbArc
 50
0.0
 51
45.0
  0
LINE
  5
35F0
330
35D0
100
AcDbEntity
  8
ZUWAKU
100
AcDbLine
 10
5.908606063219053
 20
3.837499859644392
 30
0.0
 11
5.908606063219053
 21
4.712499859644392
 31
0.0
  0
ARC
  5
35F1
330
35D0
100
AcDbEntity
  8
ZUWAKU
100
AcDbCircle
 10
6.171106063219042
 20
3.837499859644392
 30
0.0
 40
0.2625
100
AcDbArc
 50
180.0
 51
270.0
  0
ARC
  5
35F2
330
35D0
100
AcDbEntity
  8
ZUWAKU
100
AcDbCircle
 10
6.171106063219042
 20
4.712499859644392
 30
0.0
 40
0.2625
100
AcDbArc
 50
90.0
 51
180.0
  0
LINE
  5
35F3
330
35D0
100
AcDbEntity
  8
ZUWAKU
100
AcDbLine
 10
6.171106063219042
 20
3.574999859644393
 30
0.0
 11
7.921106063219042
 21
3.574999859644393
 31
0.0
  0
LINE
  5
35F4
330
35D0
100
AcDbEntity
  8
ZUWAKU
100
AcDbLine
 10
6.171106063219042
 20
4.974999859644391
 30
0.0
 11
7.658606063219053
 21
4.974999859644391
 31
0.0
  0
LINE
  5
35F5
330
35D0
100
AcDbEntity
  8
ZUWAKU
100
AcDbLine
 10
6.26118182272728
 20
7.832474606474981
 30
0.0
 11
7.716080810049618
 21
6.377575619152651
 31
0.0
  0
LINE
  5
35F6
330
35D0
100
AcDbEntity
  8
ZUWAKU
100
AcDbLine
 10
9.321106063219076
 20
4.974999859644391
 30
0.0
 11
9.321106063219076
 21
5.882600872322065
 31
0.0
  0
ARC
  5
35F7
330
35D0
100
AcDbEntity
  8
ZUWAKU
100
AcDbCircle
 10
12.47110606321905
 20
5.674999859644394
 30
0.0
 40
0.7
100
AcDbArc
 50
180.0
 51
270.0
  0
ARC
  5
35F8
330
35D0
100
AcDbEntity
  8
ZUWAKU
100
AcDbCircle
 10
8.796106063219042
 20
11.36249985964439
 30
0.0
 40
0.2625
100
AcDbArc
 50
0.0
 51
90.0
  0
ARC
  5
35F9
330
35D0
100
AcDbEntity
  8
ZUWAKU
100
AcDbCircle
 10
8.796106063219042
 20
10.48749985964439
 30
0.0
 40
0.2625
100
AcDbArc
 50
270.0
 51
0.0
  0
LINE
  5
35FA
330
35D0
100
AcDbEntity
  8
ZUWAKU
100
AcDbLine
 10
7.046106063219042
 20
11.62499985964439
 30
0.0
 11
8.796106063219042
 21
11.62499985964439
 31
0.0
  0
ARC
  5
35FB
330
35D0
100
AcDbEntity
  8
ZUWAKU
100
AcDbCircle
 10
7.308606063219031
 20
9.962499859644392
 30
0.0
 40
0.2625
100
AcDbArc
 50
90.0
 51
180.0
  0
LINE
  5
35FC
330
35D0
100
AcDbEntity
  8
ZUWAKU
100
AcDbLine
 10
7.046106063219042
 20
9.962499859644392
 30
0.0
 11
7.046106063219042
 21
9.317398846966721
 31
0.0
  0
LINE
  5
35FD
330
35D0
100
AcDbEntity
  8
ZUWAKU
100
AcDbLine
 10
8.796106063219042
 20
10.22499985964439
 30
0.0
 11
7.308606063219031
 21
10.22499985964439
 31
0.0
  0
LINE
  5
35FE
330
35D0
100
AcDbEntity
  8
ZUWAKU
100
AcDbLine
 10
5.646106063219065
 20
10.22499985964439
 30
0.0
 11
5.646106063219065
 21
9.317398846966721
 31
0.0
  0
ARC
  5
35FF
330
35D0
100
AcDbEntity
  8
ZUWAKU
100
AcDbCircle
 10
7.046106063219042
 20
10.22499985964439
 30
0.0
 40
1.399999999999999
100
AcDbArc
 50
90.0
 51
180.0
  0
LINE
  5
3600
330
35D0
100
AcDbEntity
  8
ZUWAKU
100
AcDbLine
 10
9.058606063219031
 20
11.36249985964439
 30
0.0
 11
9.058606063219031
 21
10.48749985964439
 31
0.0
  0
ARC
  5
3601
330
35D0
100
AcDbEntity
  8
ZUWAKU
100
AcDbCircle
 10
12.47110606321905
 20
9.524999859644392
 30
0.0
 40
0.7
100
AcDbArc
 50
90.0
 51
180.0
  0
ARC
  5
3602
330
35D0
100
AcDbEntity
  8
ZUWAKU
100
AcDbCircle
 10
12.47110606321905
 20
9.524999859644371
 30
0.0
 40
2.099999999999999
100
AcDbArc
 50
90.0
 51
180.0
  0
LINE
  5
3603
330
35D0
100
AcDbEntity
  8
ZUWAKU
100
AcDbLine
 10
39.66331475982258
 20
14.99999985964439
 30
0.0
 11
39.66331475982269
 21
0.3999998596444243
 31
0.0
  0
LINE
  5
3604
330
35D0
100
AcDbEntity
  8
ZUWAKU
100
AcDbLine
 10
39.7633147598226
 20
14.99999985964439
 30
0.0
 11
39.76331475982272
 21
0.3999998596444243
 31
0.0
  0
LINE
  5
3605
330
35D0
100
AcDbEntity
  8
ZUWAKU
100
AcDbLine
 10
39.56331475982267
 20
14.99999985964439
 30
0.0
 11
39.56331475982267
 21
0.3999998596444243
 31
0.0
  0
LINE
  5
3606
330
35D0
100
AcDbEntity
  8
ZUWAKU
100
AcDbLine
 10
32.07110606321907
 20
4.974999859644391
 30
0.0
 11
32.07110606321907
 21
11.36249985964439
 31
0.0
  0
LINE
  5
3607
330
35D0
100
AcDbEntity
  8
ZUWAKU
100
AcDbLine
 10
30.67110606321904
 20
11.36249985964439
 30
0.0
 11
30.67110606321904
 21
5.49999985964439
 31
0.0
  0
LINE
  5
3608
330
35D0
100
AcDbEntity
  8
ZUWAKU
100
AcDbLine
 10
34.52110606321906
 20
3.837499859644392
 30
0.0
 11
34.52110606321906
 21
11.36249985964439
 31
0.0
  0
LINE
  5
3609
330
35D0
100
AcDbEntity
  8
ZUWAKU
100
AcDbLine
 10
33.12110606321903
 20
11.36249985964439
 30
0.0
 11
33.12110606321903
 21
3.837499859644392
 31
0.0
  0
ARC
  5
360A
330
35D0
100
AcDbEntity
  8
ZUWAKU
100
AcDbCircle
 10
24.89610606321906
 20
9.317398846966742
 30
0.0
 40
0.7
100
AcDbArc
 50
180.0000000000016
 51
224.9999999999988
  0
ARC
  5
360B
330
35D0
100
AcDbEntity
  8
ZUWAKU
100
AcDbCircle
 10
24.89610606321906
 20
9.317398846966742
 30
0.0
 40
2.099999999999999
100
AcDbArc
 50
180.0
 51
225.0
  0
LINE
  5
360C
330
35D0
100
AcDbEntity
  8
ZUWAKU
100
AcDbLine
 10
18.65742930430803
 20
9.602523456426105
 30
0.0
 11
18.02505343164011
 21
7.599999859644402
 31
0.0
  0
LINE
  5
360D
330
35D0
100
AcDbEntity
  8
ZUWAKU
100
AcDbLine
 10
20.34610606321905
 20
11.36249985964439
 30
0.0
 11
20.34610606321905
 21
3.837499859644392
 31
0.0
  0
LINE
  5
360E
330
35D0
100
AcDbEntity
  8
ZUWAKU
100
AcDbLine
 10
21.74610606321903
 20
3.837499859644392
 30
0.0
 11
21.74610606321903
 21
11.36249985964439
 31
0.0
  0
LINE
  5
360F
330
35D0
100
AcDbEntity
  8
ZUWAKU
100
AcDbLine
 10
27.52110606321906
 20
11.36249985964439
 30
0.0
 11
27.52110606321906
 21
4.974999859644391
 31
0.0
  0
LINE
  5
3610
330
35D0
100
AcDbEntity
  8
ZUWAKU
100
AcDbLine
 10
28.92110606321904
 20
5.49999985964439
 30
0.0
 11
28.92110606321904
 21
11.36249985964439
 31
0.0
  0
LINE
  5
3611
330
35D0
100
AcDbEntity
  8
ZUWAKU
100
AcDbLine
 10
16.32110606321907
 20
8.562499859644393
 30
0.0
 11
16.32110606321907
 21
11.36249985964439
 31
0.0
  0
LINE
  5
3612
330
35D0
100
AcDbEntity
  8
ZUWAKU
100
AcDbLine
 10
14.92110606321904
 20
11.36249985964439
 30
0.0
 11
14.92110606321904
 21
3.837499859644392
 31
0.0
  0
LINE
  5
3613
330
35D0
100
AcDbEntity
  8
ZUWAKU
100
AcDbLine
 10
17.83817353187697
 20
11.44154684372787
 30
0.0
 11
16.90403859456108
 21
8.483452875560907
 31
0.0
  0
LINE
  5
3614
330
35D0
100
AcDbEntity
  8
ZUWAKU
100
AcDbLine
 10
30.14610606321906
 20
4.974999859644391
 30
0.0
 11
29.44610606321907
 21
4.974999859644391
 31
0.0
  0
LINE
  5
3615
330
35D0
100
AcDbEntity
  8
ZUWAKU
100
AcDbLine
 10
28.92110606321904
 20
3.574999859644393
 30
0.0
 11
30.67110606321904
 21
3.574999859644393
 31
0.0
  0
LINE
  5
3616
330
35D0
100
AcDbEntity
  8
ZUWAKU
100
AcDbLine
 10
20.60860606321904
 20
3.574999859644393
 30
0.0
 11
21.48360606321904
 21
3.574999859644393
 31
0.0
  0
LINE
  5
3617
330
35D0
100
AcDbEntity
  8
ZUWAKU
100
AcDbLine
 10
17.83817353187697
 20
3.758452875560905
 30
0.0
 11
16.90403859456108
 21
6.716546843727876
 31
0.0
  0
ARC
  5
3618
330
35D0
100
AcDbEntity
  8
ZUWAKU
100
AcDbCircle
 10
16.6537231449634
 20
8.562499859644393
 30
0.0
 40
0.2625
100
AcDbArc
 50
270.0
 51
342.4744316262769
  0
LINE
  5
3619
330
35D0
100
AcDbEntity
  8
ZUWAKU
100
AcDbLine
 10
16.6537231449634
 20
8.29999985964439
 30
0.0
 11
16.58360606321906
 21
8.29999985964439
 31
0.0
  0
LINE
  5
361A
330
35D0
100
AcDbEntity
  8
ZUWAKU
100
AcDbLine
 10
16.58360606321906
 20
6.899999859644392
 30
0.0
 11
16.6537231449634
 21
6.899999859644392
 31
0.0
  0
ARC
  5
361B
330
35D0
100
AcDbEntity
  8
ZUWAKU
100
AcDbCircle
 10
16.58360606321906
 20
8.562499859644393
 30
0.0
 40
0.2625
100
AcDbArc
 50
180.0
 51
270.0
  0
LINE
  5
361C
330
35D0
100
AcDbEntity
  8
ZUWAKU
100
AcDbLine
 10
15.18360606321903
 20
3.574999859644393
 30
0.0
 11
16.05860606321903
 21
3.574999859644393
 31
0.0
  0
ARC
  5
361D
330
35D0
100
AcDbEntity
  8
ZUWAKU
100
AcDbCircle
 10
16.05860606321903
 20
3.837499859644392
 30
0.0
 40
0.2625
100
AcDbArc
 50
270.0
 51
0.0
  0
LINE
  5
361E
330
35D0
100
AcDbEntity
  8
ZUWAKU
100
AcDbLine
 10
16.32110606321907
 20
3.837499859644392
 30
0.0
 11
16.32110606321907
 21
6.637499859644393
 31
0.0
  0
LINE
  5
361F
330
35D0
100
AcDbEntity
  8
ZUWAKU
100
AcDbLine
 10
13.69610606321907
 20
4.712499859644392
 30
0.0
 11
13.69610606321907
 21
3.837499859644392
 31
0.0
  0
ARC
  5
3620
330
35D0
100
AcDbEntity
  8
ZUWAKU
100
AcDbCircle
 10
13.43360606321903
 20
3.837499859644392
 30
0.0
 40
0.2625
100
AcDbArc
 50
270.0
 51
0.0
  0
ARC
  5
3621
330
35D0
100
AcDbEntity
  8
ZUWAKU
100
AcDbCircle
 10
13.43360606321903
 20
4.712499859644392
 30
0.0
 40
0.2625
100
AcDbArc
 50
0.0
 51
90.0
  0
ARC
  5
3622
330
35D0
100
AcDbEntity
  8
ZUWAKU
100
AcDbCircle
 10
15.18360606321903
 20
3.837499859644392
 30
0.0
 40
0.2625
100
AcDbArc
 50
180.0
 51
270.0
  0
ARC
  5
3623
330
35D0
100
AcDbEntity
  8
ZUWAKU
100
AcDbCircle
 10
16.6537231449634
 20
6.637499859644393
 30
0.0
 40
0.2625
100
AcDbArc
 50
17.52556837372303
 51
90.0
  0
ARC
  5
3624
330
35D0
100
AcDbEntity
  8
ZUWAKU
100
AcDbCircle
 10
16.58360606321906
 20
6.637499859644393
 30
0.0
 40
0.2625
100
AcDbArc
 50
90.0
 51
180.0
  0
ARC
  5
3625
330
35D0
100
AcDbEntity
  8
ZUWAKU
100
AcDbCircle
 10
20.60860606321904
 20
3.837499859644392
 30
0.0
 40
0.2625
100
AcDbArc
 50
180.0
 51
270.0
  0
LINE
  5
3626
330
35D0
100
AcDbEntity
  8
ZUWAKU
100
AcDbLine
 10
18.08848898147471
 20
3.574999859644393
 30
0.0
 11
18.93793367127921
 21
3.574999859644393
 31
0.0
  0
ARC
  5
3627
330
35D0
100
AcDbEntity
  8
ZUWAKU
100
AcDbCircle
 10
18.93793367127921
 20
3.837499859644392
 30
0.0
 40
0.2625
100
AcDbArc
 50
270.0
 51
17.52556837372303
  0
LINE
  5
3628
330
35D0
100
AcDbEntity
  8
ZUWAKU
100
AcDbLine
 10
19.18824912087694
 20
3.916546843727878
 30
0.0
 11
18.02505343164011
 21
7.599999859644402
 31
0.0
  0
ARC
  5
3629
330
35D0
100
AcDbEntity
  8
ZUWAKU
100
AcDbCircle
 10
18.08848898147471
 20
3.837499859644392
 30
0.0
 40
0.2625
100
AcDbArc
 50
197.525568373723
 51
270.0
  0
ARC
  5
362A
330
35D0
100
AcDbEntity
  8
ZUWAKU
100
AcDbCircle
 10
28.92110606321904
 20
4.974999859644391
 30
0.0
 40
1.399999999999999
100
AcDbArc
 50
180.0
 51
270.0
  0
ARC
  5
362B
330
35D0
100
AcDbEntity
  8
ZUWAKU
100
AcDbCircle
 10
25.07110606321907
 20
4.974999859644391
 30
0.0
 40
1.399999999999999
100
AcDbArc
 50
270.0
 51
0.0
  0
LINE
  5
362C
330
35D0
100
AcDbEntity
  8
ZUWAKU
100
AcDbLine
 10
25.85603030371084
 20
7.367525112813805
 30
0.0
 11
24.40113131638844
 21
8.822424100136142
 31
0.0
  0
LINE
  5
362D
330
35D0
100
AcDbEntity
  8
ZUWAKU
100
AcDbLine
 10
25.07110606321907
 20
5.237499859644394
 30
0.0
 11
25.07110606321907
 21
5.882600872322065
 31
0.0
  0
ARC
  5
362E
330
35D0
100
AcDbEntity
  8
ZUWAKU
100
AcDbCircle
 10
24.37110606321903
 20
5.882600872322065
 30
0.0
 40
0.7
100
AcDbArc
 50
0.0
 51
45.0
  0
ARC
  5
362F
330
35D0
100
AcDbEntity
  8
ZUWAKU
100
AcDbCircle
 10
24.80860606321903
 20
5.237499859644394
 30
0.0
 40
0.2625
100
AcDbArc
 50
270.0
 51
0.0
  0
LINE
  5
3630
330
35D0
100
AcDbEntity
  8
ZUWAKU
100
AcDbLine
 10
23.05860606321903
 20
3.837499859644392
 30
0.0
 11
23.05860606321903
 21
4.712499859644392
 31
0.0
  0
ARC
  5
3631
330
35D0
100
AcDbEntity
  8
ZUWAKU
100
AcDbCircle
 10
23.32110606321907
 20
3.837499859644392
 30
0.0
 40
0.2625
100
AcDbArc
 50
180.0
 51
270.0
  0
ARC
  5
3632
330
35D0
100
AcDbEntity
  8
ZUWAKU
100
AcDbCircle
 10
21.48360606321904
 20
3.837499859644392
 30
0.0
 40
0.2625
100
AcDbArc
 50
270.0
 51
0.0
  0
ARC
  5
3633
330
35D0
100
AcDbEntity
  8
ZUWAKU
100
AcDbCircle
 10
23.32110606321907
 20
4.712499859644392
 30
0.0
 40
0.2625
100
AcDbArc
 50
90.0
 51
180.0
  0
LINE
  5
3634
330
35D0
100
AcDbEntity
  8
ZUWAKU
100
AcDbLine
 10
23.32110606321907
 20
4.974999859644391
 30
0.0
 11
24.80860606321903
 21
4.974999859644391
 31
0.0
  0
LINE
  5
3635
330
35D0
100
AcDbEntity
  8
ZUWAKU
100
AcDbLine
 10
23.32110606321907
 20
3.574999859644393
 30
0.0
 11
25.07110606321907
 21
3.574999859644393
 31
0.0
  0
LINE
  5
3636
330
35D0
100
AcDbEntity
  8
ZUWAKU
100
AcDbLine
 10
23.41118182272731
 20
7.832474606474981
 30
0.0
 11
24.86608081004965
 21
6.377575619152651
 31
0.0
  0
LINE
  5
3637
330
35D0
100
AcDbEntity
  8
ZUWAKU
100
AcDbLine
 10
26.47110606321905
 20
4.974999859644391
 30
0.0
 11
26.47110606321905
 21
5.882600872322065
 31
0.0
  0
ARC
  5
3638
330
35D0
100
AcDbEntity
  8
ZUWAKU
100
AcDbCircle
 10
24.37110606321903
 20
5.882600872322043
 30
0.0
 40
2.099999999999999
100
AcDbArc
 50
0.0
 51
45.0
  0
ARC
  5
3639
330
35D0
100
AcDbEntity
  8
ZUWAKU
100
AcDbCircle
 10
29.44610606321907
 20
5.49999985964439
 30
0.0
 40
0.525
100
AcDbArc
 50
180.0
 51
270.0
  0
ARC
  5
363A
330
35D0
100
AcDbEntity
  8
ZUWAKU
100
AcDbCircle
 10
30.67110606321904
 20
4.974999859644391
 30
0.0
 40
1.399999999999999
100
AcDbArc
 50
270.0
 51
0.0
  0
LINE
  5
363B
330
35D0
100
AcDbEntity
  8
ZUWAKU
100
AcDbLine
 10
33.38360606321908
 20
3.574999859644393
 30
0.0
 11
34.25860606321907
 21
3.574999859644393
 31
0.0
  0
ARC
  5
363C
330
35D0
100
AcDbEntity
  8
ZUWAKU
100
AcDbCircle
 10
33.38360606321908
 20
3.837499859644392
 30
0.0
 40
0.2625
100
AcDbArc
 50
180.0
 51
270.0
  0
ARC
  5
363D
330
35D0
100
AcDbEntity
  8
ZUWAKU
100
AcDbCircle
 10
30.14610606321906
 20
5.49999985964439
 30
0.0
 40
0.525
100
AcDbArc
 50
270.0
 51
0.0
  0
ARC
  5
363E
330
35D0
100
AcDbEntity
  8
ZUWAKU
100
AcDbCircle
 10
34.25860606321907
 20
3.837499859644392
 30
0.0
 40
0.2625
100
AcDbArc
 50
270.0
 51
0.0
  0
LINE
  5
363F
330
35D0
100
AcDbEntity
  8
ZUWAKU
100
AcDbLine
 10
21.48360606321904
 20
11.62499985964439
 30
0.0
 11
20.60860606321904
 21
11.62499985964439
 31
0.0
  0
ARC
  5
3640
330
35D0
100
AcDbEntity
  8
ZUWAKU
100
AcDbCircle
 10
16.05860606321903
 20
11.36249985964439
 30
0.0
 40
0.2625
100
AcDbArc
 50
0.0
 51
90.0
  0
LINE
  5
3641
330
35D0
100
AcDbEntity
  8
ZUWAKU
100
AcDbLine
 10
16.05860606321903
 20
11.62499985964439
 30
0.0
 11
15.18360606321903
 21
11.62499985964439
 31
0.0
  0
ARC
  5
3642
330
35D0
100
AcDbEntity
  8
ZUWAKU
100
AcDbCircle
 10
13.43360606321903
 20
11.36249985964439
 30
0.0
 40
0.2625
100
AcDbArc
 50
0.0
 51
90.0
  0
ARC
  5
3643
330
35D0
100
AcDbEntity
  8
ZUWAKU
100
AcDbCircle
 10
15.18360606321903
 20
11.36249985964439
 30
0.0
 40
0.2625
100
AcDbArc
 50
90.0
 51
180.0
  0
ARC
  5
3644
330
35D0
100
AcDbEntity
  8
ZUWAKU
100
AcDbCircle
 10
13.43360606321903
 20
10.48749985964439
 30
0.0
 40
0.2625
100
AcDbArc
 50
270.0
 51
0.0
  0
LINE
  5
3645
330
35D0
100
AcDbEntity
  8
ZUWAKU
100
AcDbLine
 10
13.69610606321907
 20
11.36249985964439
 30
0.0
 11
13.69610606321907
 21
10.48749985964439
 31
0.0
  0
ARC
  5
3646
330
35D0
100
AcDbEntity
  8
ZUWAKU
100
AcDbCircle
 10
20.60860606321904
 20
11.36249985964439
 30
0.0
 40
0.2625
100
AcDbArc
 50
90.0
 51
180.0
  0
LINE
  5
3647
330
35D0
100
AcDbEntity
  8
ZUWAKU
100
AcDbLine
 10
18.08848898147471
 20
11.62499985964439
 30
0.0
 11
18.93793367127921
 21
11.62499985964439
 31
0.0
  0
ARC
  5
3648
330
35D0
100
AcDbEntity
  8
ZUWAKU
100
AcDbCircle
 10
18.93793367127921
 20
11.36249985964439
 30
0.0
 40
0.2625
100
AcDbArc
 50
342.4744316262769
 51
90.0
  0
LINE
  5
3649
330
35D0
100
AcDbEntity
  8
ZUWAKU
100
AcDbLine
 10
19.18824912087694
 20
11.2834528755609
 30
0.0
 11
18.65742930430803
 21
9.602523456426105
 31
0.0
  0
ARC
  5
364A
330
35D0
100
AcDbEntity
  8
ZUWAKU
100
AcDbCircle
 10
18.08848898147471
 20
11.36249985964439
 30
0.0
 40
0.2625
100
AcDbArc
 50
90.0
 51
162.4744316262769
  0
LINE
  5
364B
330
35D0
100
AcDbEntity
  8
ZUWAKU
100
AcDbLine
 10
24.19610606321907
 20
11.62499985964439
 30
0.0
 11
25.94610606321907
 21
11.62499985964439
 31
0.0
  0
LINE
  5
364C
330
35D0
100
AcDbEntity
  8
ZUWAKU
100
AcDbLine
 10
25.94610606321907
 20
10.22499985964439
 30
0.0
 11
24.45860606321906
 21
10.22499985964439
 31
0.0
  0
ARC
  5
364D
330
35D0
100
AcDbEntity
  8
ZUWAKU
100
AcDbCircle
 10
24.45860606321906
 20
9.962499859644392
 30
0.0
 40
0.2625
100
AcDbArc
 50
90.0
 51
180.0
  0
LINE
  5
364E
330
35D0
100
AcDbEntity
  8
ZUWAKU
100
AcDbLine
 10
24.19610606321907
 20
9.962499859644392
 30
0.0
 11
24.19610606321907
 21
9.317398846966721
 31
0.0
  0
ARC
  5
364F
330
35D0
100
AcDbEntity
  8
ZUWAKU
100
AcDbCircle
 10
21.48360606321904
 20
11.36249985964439
 30
0.0
 40
0.2625
100
AcDbArc
 50
0.0
 51
90.0
  0
LINE
  5
3650
330
35D0
100
AcDbEntity
  8
ZUWAKU
100
AcDbLine
 10
22.79610606321904
 20
10.22499985964439
 30
0.0
 11
22.79610606321904
 21
9.317398846966721
 31
0.0
  0
ARC
  5
3651
330
35D0
100
AcDbEntity
  8
ZUWAKU
100
AcDbCircle
 10
24.19610606321907
 20
10.22499985964439
 30
0.0
 40
1.399999999999999
100
AcDbArc
 50
90.0
 51
180.0
  0
ARC
  5
3652
330
35D0
100
AcDbEntity
  8
ZUWAKU
100
AcDbCircle
 10
28.65860606321905
 20
11.36249985964439
 30
0.0
 40
0.2625
100
AcDbArc
 50
0.0
 51
90.0
  0
ARC
  5
3653
330
35D0
100
AcDbEntity
  8
ZUWAKU
100
AcDbCircle
 10
27.78360606321905
 20
11.36249985964439
 30
0.0
 40
0.2625
100
AcDbArc
 50
90.0
 51
180.0
  0
LINE
  5
3654
330
35D0
100
AcDbEntity
  8
ZUWAKU
100
AcDbLine
 10
28.65860606321905
 20
11.62499985964439
 30
0.0
 11
27.78360606321905
 21
11.62499985964439
 31
0.0
  0
ARC
  5
3655
330
35D0
100
AcDbEntity
  8
ZUWAKU
100
AcDbCircle
 10
25.94610606321907
 20
11.36249985964439
 30
0.0
 40
0.2625
100
AcDbArc
 50
0.0
 51
90.0
  0
ARC
  5
3656
330
35D0
100
AcDbEntity
  8
ZUWAKU
100
AcDbCircle
 10
25.94610606321907
 20
10.48749985964439
 30
0.0
 40
0.2625
100
AcDbArc
 50
270.0
 51
0.0
  0
LINE
  5
3657
330
35D0
100
AcDbEntity
  8
ZUWAKU
100
AcDbLine
 10
26.20860606321906
 20
11.36249985964439
 30
0.0
 11
26.20860606321906
 21
10.48749985964439
 31
0.0
  0
LINE
  5
3658
330
35D0
100
AcDbEntity
  8
ZUWAKU
100
AcDbLine
 10
34.25860606321907
 20
11.62499985964439
 30
0.0
 11
33.38360606321908
 21
11.62499985964439
 31
0.0
  0
ARC
  5
3659
330
35D0
100
AcDbEntity
  8
ZUWAKU
100
AcDbCircle
 10
33.38360606321908
 20
11.36249985964439
 30
0.0
 40
0.2625
100
AcDbArc
 50
90.0
 51
180.0
  0
ARC
  5
365A
330
35D0
100
AcDbEntity
  8
ZUWAKU
100
AcDbCircle
 10
31.80860606321903
 20
11.36249985964439
 30
0.0
 40
0.2625
100
AcDbArc
 50
0.0
 51
90.0
  0
LINE
  5
365B
330
35D0
100
AcDbEntity
  8
ZUWAKU
100
AcDbLine
 10
31.80860606321903
 20
11.62499985964439
 30
0.0
 11
30.93360606321903
 21
11.62499985964439
 31
0.0
  0
ARC
  5
365C
330
35D0
100
AcDbEntity
  8
ZUWAKU
100
AcDbCircle
 10
30.93360606321903
 20
11.36249985964439
 30
0.0
 40
0.2625
100
AcDbArc
 50
90.0
 51
180.0
  0
ARC
  5
365D
330
35D0
100
AcDbEntity
  8
ZUWAKU
100
AcDbCircle
 10
34.25860606321907
 20
11.36249985964439
 30
0.0
 40
0.2625
100
AcDbArc
 50
0.0
 51
90.0
  0
TEXT
  5
365E
330
35D0
100
AcDbEntity
  8
MOJI
100
AcDbText
 10
119.913601326254
 20
9.002460388348083
 30
0.0
 40
2.799999999999999
  1
亜鉛メッキ金具正面打（吊）ストロング高強度金具（吊）
 41
0.9
  7
ｽﾀｲﾙ1
100
AcDbText
  0
TEXT
  5
365F
330
35D0
100
AcDbEntity
  8
MOJI
100
AcDbText
 10
119.913601326254
 20
1.602460388348101
 30
0.0
 40
2.799999999999999
  1
ＲＶ１０５－０－７５
 41
0.9
  7
ｽﾀｲﾙ1
100
AcDbText
  0
LINE
  5
3660
330
35D0
100
AcDbEntity
  8
ZUWAKU
100
AcDbLine
 10
104.1233006308624
 20
14.99999985964439
 30
0.0
 11
104.1233006308624
 21
0.3999998596444243
 31
0.0
  0
LINE
  5
3661
330
35D0
100
AcDbEntity
  8
ZUWAKU
100
AcDbLine
 10
104.3233006308623
 20
14.99999985964439
 30
0.0
 11
104.3233006308625
 21
0.3999998596444243
 31
0.0
  0
LINE
  5
3662
330
35D0
100
AcDbEntity
  8
ZUWAKU
100
AcDbLine
 10
104.2233006308623
 20
14.99999985964439
 30
0.0
 11
104.2233006308624
 21
0.3999998596444243
 31
0.0
  0
TEXT
  5
3663
330
35D0
100
AcDbEntity
  8
ZUWAKU
100
AcDbText
 10
104.8620231419672
 20
4.827678128837199
 30
0.0
 40
2.0
  1
サイズ
 41
0.9
  7
ｽﾀｲﾙ1
100
AcDbText
  0
TEXT
  5
3664
330
35D0
100
AcDbEntity
  8
ZUWAKU
100
AcDbText
 10
104.8620231419671
 20
12.02767812883718
 30
0.0
 40
2.0
  1
品名
 41
0.9
  7
ｽﾀｲﾙ1
100
AcDbText
  0
LINE
  5
3665
330
35D0
100
AcDbEntity
  8
ZUWAKU
100
AcDbLine
 10
324.4086012409305
 20
7.599999859644405
 30
0.0
 11
348.6245052600991
 21
7.599999859644407
 31
0.0
  0
LINE
  5
3666
330
35D0
100
AcDbEntity
  8
ZUWAKU
100
AcDbLine
 10
324.4086012409307
 20
7.699999859644409
 30
0.0
 11
348.6245052600991
 21
7.699999859644407
 31
0.0
  0
LINE
  5
3667
330
35D0
100
AcDbEntity
  8
ZUWAKU
100
AcDbLine
 10
324.4086012409305
 20
7.799999859644406
 30
0.0
 11
348.6245052600991
 21
7.799999859644406
 31
0.0
  0
TEXT
  5
3668
330
35D0
100
AcDbEntity
  8
ZUWAKU
100
AcDbText
 10
329.1019688294797
 20
9.002460388348083
 30
0.0
 40
2.799999999999999
  1
　　．　　．　　
 41
0.9
  7
ｽﾀｲﾙ1
100
AcDbText
  0
LINE
  5
3669
330
35D0
100
AcDbEntity
  8
ZUWAKU
100
AcDbLine
 10
252.5995897348989
 20
7.599999859644409
 30
0.0
 11
276.2634778688846
 21
7.599999859644409
 31
0.0
  0
LINE
  5
366A
330
35D0
100
AcDbEntity
  8
ZUWAKU
100
AcDbLine
 10
252.5995897348989
 20
7.699999859644407
 30
0.0
 11
276.2634778688846
 21
7.699999859644407
 31
0.0
  0
LINE
  5
366B
330
35D0
100
AcDbEntity
  8
ZUWAKU
100
AcDbLine
 10
252.5995897348989
 20
7.799999859644406
 30
0.0
 11
276.2634778688846
 21
7.799999859644406
 31
0.0
  0
TEXT
  5
366C
330
35D0
100
AcDbEntity
  8
MOJI
100
AcDbText
 10
231.2836391468227
 20
5.971308720474382
 30
0.0
 40
2.799999999999999
  1
ＬＫ５５□
 41
0.9
  7
ｽﾀｲﾙ1
100
AcDbText
  0
LINE
  5
366D
330
35D0
100
AcDbEntity
  8
ZUWAKU
100
AcDbLine
 10
223.812181971324
 20
14.99999985964439
 30
0.0
 11
223.8121819713242
 21
0.3999998596444243
 31
0.0
  0
LINE
  5
366E
330
35D0
100
AcDbEntity
  8
ZUWAKU
100
AcDbLine
 10
223.9121819713241
 20
14.99999985964439
 30
0.0
 11
223.9121819713242
 21
0.3999998596444243
 31
0.0
  0
LINE
  5
366F
330
35D0
100
AcDbEntity
  8
ZUWAKU
100
AcDbLine
 10
223.7121819713241
 20
14.99999985964439
 30
0.0
 11
223.7121819713241
 21
0.3999998596444243
 31
0.0
  0
TEXT
  5
3670
330
35D0
100
AcDbEntity
  8
MOJI
100
AcDbText
 10
264.0204539719849
 20
9.002460388348083
 30
0.0
 40
2.799999999999999
  1
Ａ３
 41
0.9
  7
ｽﾀｲﾙ1
100
AcDbText
  0
LINE
  5
3671
330
35D0
100
AcDbEntity
  8
ZUWAKU
100
AcDbLine
 10
252.4995897348988
 20
14.99999985964439
 30
0.0
 11
252.499589734899
 21
0.3999998596444243
 31
0.0
  0
LINE
  5
3672
330
35D0
100
AcDbEntity
  8
ZUWAKU
100
AcDbLine
 10
252.5995897348989
 20
14.99999985964439
 30
0.0
 11
252.599589734899
 21
0.3999998596444243
 31
0.0
  0
LINE
  5
3673
330
35D0
100
AcDbEntity
  8
ZUWAKU
100
AcDbLine
 10
252.3995897348989
 20
14.99999985964439
 30
0.0
 11
252.3995897348989
 21
0.3999998596444243
 31
0.0
  0
TEXT
  5
3674
330
35D0
100
AcDbEntity
  8
ZUWAKU
100
AcDbText
 10
231.346880813582
 20
1.307035315214136
 30
0.0
 40
1.5
  1
□には色品番が入ります
 41
0.9
  7
ｽﾀｲﾙ1
100
AcDbText
  0
TEXT
  5
3675
330
35D0
100
AcDbEntity
  8
ZUWAKU
100
AcDbText
 10
253.3383122460038
 20
4.827678128837199
 30
0.0
 40
2.0
  1
縮尺
 41
0.9
  7
ｽﾀｲﾙ1
100
AcDbText
  0
TEXT
  5
3676
330
35D0
100
AcDbEntity
  8
MOJI
100
AcDbText
 10
264.0204539719849
 20
1.602460388348101
 30
0.0
 40
2.799999999999999
  1
１/１
 41
0.9
  7
ｽﾀｲﾙ1
100
AcDbText
  0
TEXT
  5
3677
330
35D0
100
AcDbEntity
  8
ZUWAKU
100
AcDbText
 10
224.6509044824289
 20
12.02767812883718
 30
0.0
 40
2.0
  1
品番
 41
0.9
  7
ｽﾀｲﾙ1
100
AcDbText
  0
TEXT
  5
3678
330
35D0
100
AcDbEntity
  8
ZUWAKU
100
AcDbText
 10
253.3383122460037
 20
12.02767812883718
 30
0.0
 40
2.0
  1
用紙
 41
0.9
  7
ｽﾀｲﾙ1
100
AcDbText
  0
LINE
  5
3679
330
35D0
100
AcDbEntity
  8
ZUWAKU
100
AcDbLine
 10
324.3086012409306
 20
14.99999985964439
 30
0.0
 11
324.3086012409307
 21
0.3999998596444243
 31
0.0
  0
LINE
  5
367A
330
35D0
100
AcDbEntity
  8
ZUWAKU
100
AcDbLine
 10
324.4086012409307
 20
14.99999985964439
 30
0.0
 11
324.4086012409308
 21
0.3999998596444243
 31
0.0
  0
LINE
  5
367B
330
35D0
100
AcDbEntity
  8
ZUWAKU
100
AcDbLine
 10
324.2086012409307
 20
14.99999985964439
 30
0.0
 11
324.2086012409307
 21
0.3999998596444243
 31
0.0
  0
LINE
  5
367C
330
35D0
100
AcDbEntity
  8
ZUWAKU
100
AcDbLine
 10
276.3634778688845
 20
14.99999985964439
 30
0.0
 11
276.3634778688847
 21
0.3999998596444243
 31
0.0
  0
LINE
  5
367D
330
35D0
100
AcDbEntity
  8
ZUWAKU
100
AcDbLine
 10
276.4634778688846
 20
14.99999985964439
 30
0.0
 11
276.4634778688847
 21
0.3999998596444243
 31
0.0
  0
LINE
  5
367E
330
35D0
100
AcDbEntity
  8
ZUWAKU
100
AcDbLine
 10
276.2634778688846
 20
14.99999985964439
 30
0.0
 11
276.2634778688846
 21
0.3999998596444243
 31
0.0
  0
TEXT
  5
367F
330
35D0
100
AcDbEntity
  8
ZUWAKU
100
AcDbText
 10
325.1473237520355
 20
12.02767812883718
 30
0.0
 40
2.0
  1
DATE
 41
0.9
  7
ｽﾀｲﾙ1
100
AcDbText
  0
LINE
  5
3680
330
35D0
100
AcDbEntity
  8
ZUWAKU
100
AcDbLine
 10
348.6245052600991
 20
14.99999985964439
 30
0.0
 11
348.6245052600991
 21
0.3999998596444243
 31
0.0
  0
LINE
  5
3681
330
35D0
100
AcDbEntity
  8
ZUWAKU
100
AcDbLine
 10
348.7245052600991
 20
14.99999985964439
 30
0.0
 11
348.7245052600991
 21
0.3999998596444243
 31
0.0
  0
LINE
  5
3682
330
35D0
100
AcDbEntity
  8
ZUWAKU
100
AcDbLine
 10
348.824505260099
 20
14.99999985964439
 30
0.0
 11
348.8245052600991
 21
0.3999998596444243
 31
0.0
  0
LINE
  5
3683
330
35D0
100
AcDbEntity
  8
ZUWAKU
100
AcDbLine
 10
348.924505260099
 20
14.99999985964439
 30
0.0
 11
348.9245052600991
 21
0.3999998596444243
 31
0.0
  0
TEXT
  5
3684
330
35D0
100
AcDbEntity
  8
ZUWAKU
100
AcDbText
 10
354.2640420819503
 20
8.776919527487791
 30
0.0
 40
3.0
  1
積水化学工業株式会社
 41
0.9
  7
ｽﾀｲﾙ1
100
AcDbText
  0
TEXT
  5
3685
330
35D0
100
AcDbEntity
  8
ZUWAKU
100
AcDbText
 10
354.2640420819503
 20
3.324420016571423
 30
0.0
 40
3.0
  1
建材事業部
 41
0.9
  7
ｽﾀｲﾙ1
100
AcDbText
  0
ENDBLK
  5
3687
330
35D0
100
AcDbEntity
  8
0
100
AcDbBlockEnd
  0
ENDSEC
  0
SECTION
  2
ENTITIES
  0
TEXT
  5
9D
330
1A
100
AcDbEntity
  8
ZUWAKU
 48
5.0
100
AcDbText
 10
327.1013476411085
 20
8.060146781246267
 30
0.0
 40
4.0
  1

100
AcDbText
  0
ARC
  5
5A7
330
1A
100
AcDbEntity
  8
NOKITOI
  6
PHANTOM
 62
     8
100
AcDbCircle
 10
115.1476924766582
 20
84.94101707803972
 30
0.0
 40
43.00001447645168
100
AcDbArc
 50
186.5249107071177
 51
269.9998883751437
  0
ARC
  5
5A8
330
1A
100
AcDbEntity
  8
NOKITOI
  6
PHANTOM
 62
     8
100
AcDbCircle
 10
115.1477147850835
 20
84.94099697701333
 30
0.0
 40
41.79999437547816
100
AcDbArc
 50
184.4742952125247
 51
269.999854592109
  0
LINE
  5
5A9
330
1A
100
AcDbEntity
  8
NOKITOI
  6
PHANTOM
 62
     8
100
AcDbLine
 10
64.9367087031153
 20
84.07860260166964
 30
0.0
 11
64.85120870311561
 21
86.8161026016696
 31
0.0
  0
LINE
  5
5AA
330
1A
100
AcDbEntity
  8
NOKITOI
  6
PHANTOM
 62
     8
100
AcDbLine
 10
63.39860870311554
 20
94.87850260166963
 30
0.0
 11
63.78880870311537
 21
82.39420260166955
 31
0.0
  0
LINE
  5
5AB
330
1A
100
AcDbEntity
  8
NOKITOI
  6
PHANTOM
 62
     8
100
AcDbLine
 10
72.97660870311597
 20
82.14100260166967
 30
0.0
 11
66.93570870311555
 21
82.14100260166967
 31
0.0
  0
ARC
  5
5AC
330
1A
100
AcDbEntity
  8
NOKITOI
  6
PHANTOM
 62
     8
100
AcDbCircle
 10
71.43270027895301
 20
79.94101011672611
 30
0.0
 40
0.9999924849789756
100
AcDbArc
 50
6.528264606673934
 51
89.99951732740965
  0
LINE
  5
5AD
330
1A
100
AcDbEntity
  8
NOKITOI
  6
PHANTOM
 62
     8
100
AcDbLine
 10
65.28800870311556
 20
80.94100260166962
 30
0.0
 11
71.43270870311539
 21
80.94100260166962
 31
0.0
  0
ARC
  5
5AE
330
1A
100
AcDbEntity
  8
NOKITOI
  6
PHANTOM
 62
     8
100
AcDbCircle
 10
66.93572227525397
 20
84.14098944658324
 30
0.0
 40
1.999986844959662
100
AcDbArc
 50
181.7875531852356
 51
269.9996111843215
  0
ARC
  5
5AF
330
1A
100
AcDbEntity
  8
NOKITOI
  6
PHANTOM
 62
     8
100
AcDbCircle
 10
65.28804466226643
 20
82.44096774752639
 30
0.0
 40
1.499965146287778
100
AcDbArc
 50
181.7866280217767
 51
269.9986264296971
  0
ARC
  5
5B0
330
1A
100
AcDbEntity
  8
NOKITOI
  6
PHANTOM
 62
     8
100
AcDbCircle
 10
72.97662127282388
 20
81.64099097693995
 30
0.0
 40
0.5000116248877111
100
AcDbArc
 50
4.474846808342103
 51
90.00144034898383
  0
ARC
  5
5B1
330
1A
100
AcDbEntity
  8
NOKITOI
  6
PHANTOM
 62
     8
100
AcDbCircle
 10
65.39762145396548
 20
94.94101575675605
 30
0.0
 40
1.999986844954076
100
AcDbArc
 50
90.00036528735451
 51
181.7883072882703
  0
LINE
  5
5B2
330
1A
100
AcDbEntity
  8
NOKITOI
  6
PHANTOM
 62
     8
100
AcDbLine
 10
71.67550870311538
 20
94.44100260166962
 30
0.0
 11
69.44400870311551
 21
94.44100260166962
 31
0.0
  0
ARC
  5
5B3
330
1A
100
AcDbEntity
  8
NOKITOI
  6
PHANTOM
 62
     8
100
AcDbCircle
 10
71.3597018161206
 20
87.94099606658411
 30
0.0
 40
0.499993464961963
100
AcDbArc
 50
270.0007892017869
 51
356.997036131742
  0
LINE
  5
5B4
330
1A
100
AcDbEntity
  8
NOKITOI
  6
PHANTOM
 62
     8
100
AcDbLine
 10
70.69560870311557
 20
88.64100260166967
 30
0.0
 11
70.87680870311555
 21
92.0825026016698
 31
0.0
  0
LINE
  5
5B5
330
1A
100
AcDbEntity
  8
NOKITOI
  6
PHANTOM
 62
     8
100
AcDbLine
 10
70.32180870311572
 20
91.46940260166955
 30
0.0
 11
70.87680870311555
 21
92.0825026016698
 31
0.0
  0
ARC
  5
5B6
330
1A
100
AcDbEntity
  8
NOKITOI
  6
PHANTOM
 62
     8
100
AcDbCircle
 10
68.84932891578478
 20
86.94106133004968
 30
0.0
 40
5.2000412730095
100
AcDbArc
 50
90.0013245430618
 51
142.0757990790548
  0
LINE
  5
5B7
330
1A
100
AcDbEntity
  8
NOKITOI
  6
PHANTOM
 62
     8
100
AcDbLine
 10
64.59800870311596
 20
94.91600260166952
 30
0.0
 11
64.7474087031153
 21
90.13710260166973
 31
0.0
  0
ARC
  5
5B8
330
1A
100
AcDbEntity
  8
NOKITOI
  6
PHANTOM
 62
     8
100
AcDbCircle
 10
68.84924658456225
 20
86.94104638419501
 30
0.0
 40
3.999989731271038
100
AcDbArc
 50
96.47731142013116
 51
181.7899836067311
  0
ARC
  5
5B9
330
1A
100
AcDbEntity
  8
NOKITOI
  6
PHANTOM
 62
     8
100
AcDbCircle
 10
68.45442292153098
 20
90.41868796736864
 30
0.0
 40
0.5000073448410256
100
AcDbArc
 50
351.872947864124
 51
96.47829282996921
  0
LINE
  5
5BA
330
1A
100
AcDbEntity
  8
NOKITOI
  6
PHANTOM
 62
     8
100
AcDbLine
 10
69.91770870311597
 20
88.64100260166967
 30
0.0
 11
70.32180870311572
 21
91.46940260166955
 31
0.0
  0
LINE
  5
5BB
330
1A
100
AcDbEntity
  8
NOKITOI
  6
PHANTOM
 62
     8
100
AcDbLine
 10
70.69560870311557
 20
88.64100260166967
 30
0.0
 11
69.91770870311597
 21
88.64100260166967
 31
0.0
  0
ARC
  5
5BC
330
1A
100
AcDbEntity
  8
NOKITOI
  6
PHANTOM
 62
     8
100
AcDbCircle
 10
69.11063530371325
 20
87.94097192478758
 30
0.0
 40
0.4999693238254178
100
AcDbArc
 50
171.8555038770531
 51
269.9969516090356
  0
LINE
  5
5BD
330
1A
100
AcDbEntity
  8
NOKITOI
  6
PHANTOM
 62
     8
100
AcDbLine
 10
71.35970870311552
 20
87.44100260166963
 30
0.0
 11
69.11060870311553
 21
87.44100260166963
 31
0.0
  0
LINE
  5
5BE
330
1A
100
AcDbEntity
  8
NOKITOI
  6
PHANTOM
 62
     8
100
AcDbLine
 10
68.61570870311538
 20
88.01180260166981
 30
0.0
 11
68.94940870311552
 21
90.34800260166978
 31
0.0
  0
LINE
  5
5BF
330
1A
100
AcDbEntity
  8
NOKITOI
  6
PHANTOM
 62
     8
100
AcDbLine
 10
67.8704087031158
 20
95.7410026016698
 30
0.0
 11
67.3704087031158
 21
93.2410026016698
 31
0.0
  0
LINE
  5
5C0
330
1A
100
AcDbEntity
  8
NOKITOI
  6
PHANTOM
 62
     8
100
AcDbLine
 10
67.3704087031158
 20
93.2410026016698
 30
0.0
 11
70.30690870311559
 21
93.2410026016698
 31
0.0
  0
LINE
  5
5C1
330
1A
100
AcDbEntity
  8
NOKITOI
  6
PHANTOM
 62
     8
100
AcDbLine
 10
65.39760870311534
 20
96.94100260166962
 30
0.0
 11
68.72420870311566
 21
96.94100260166962
 31
0.0
  0
LINE
  5
5C2
330
1A
100
AcDbEntity
  8
NOKITOI
  6
PHANTOM
 62
     8
100
AcDbLine
 10
65.39760870311534
 20
95.7410026016698
 30
0.0
 11
67.8704087031158
 21
95.7410026016698
 31
0.0
  0
ARC
  5
5C3
330
1A
100
AcDbEntity
  8
NOKITOI
  6
PHANTOM
 62
     8
100
AcDbCircle
 10
65.39761319791364
 20
94.94100723919652
 30
0.0
 40
0.7999953624857498
100
AcDbArc
 50
90.00032191805264
 51
181.7911273464193
  0
ARC
  5
5C4
330
1A
100
AcDbEntity
  8
NOKITOI
  6
PHANTOM
 62
     8
100
AcDbCircle
 10
68.72420792010712
 20
96.44100355667134
 30
0.0
 40
0.4999990449987349
100
AcDbArc
 50
348.6967198015447
 51
89.99991027369492
  0
ARC
  5
5C5
330
1A
100
AcDbEntity
  8
NOKITOI
  6
PHANTOM
 62
     8
100
AcDbCircle
 10
69.44400144856013
 20
94.94101145151304
 30
0.0
 40
0.5000088498959383
100
AcDbArc
 50
168.6864043304892
 51
270.0008312961442
  0
LINE
  5
5C6
330
1A
100
AcDbEntity
  8
NOKITOI
  6
PHANTOM
 62
     8
100
AcDbLine
 10
68.95370870311558
 20
95.03910260166955
 30
0.0
 11
69.21450870311559
 21
96.34300260166966
 31
0.0
  0
LINE
  5
5C7
330
1A
100
AcDbEntity
  8
NOKITOI
  6
PHANTOM
 62
     8
100
AcDbLine
 10
69.31110870311591
 20
92.14100260166967
 30
0.0
 11
68.84920870311566
 21
92.14100260166967
 31
0.0
  0
LINE
  5
5C8
330
1A
100
AcDbEntity
  8
NOKITOI
  6
PHANTOM
 62
     8
100
AcDbLine
 10
69.31110870311591
 20
92.14100260166967
 30
0.0
 11
70.30690870311559
 21
93.2410026016698
 31
0.0
  0
LINE
  5
5C9
330
1A
100
AcDbEntity
  8
NOKITOI
  6
PHANTOM
 62
     8
100
AcDbLine
 10
71.85910870311568
 20
87.91480260166961
 30
0.0
 11
72.17490870311554
 21
93.91470260166963
 31
0.0
  0
ARC
  5
5CA
330
1A
100
AcDbEntity
  8
NOKITOI
  6
PHANTOM
 62
     8
100
AcDbCircle
 10
71.67550250195768
 20
93.9410091367549
 30
0.0
 40
0.4999934649531607
100
AcDbArc
 50
356.9955363203376
 51
89.99928939038076
  0
LINE
  5
5CB
330
1A
100
AcDbEntity
  8
NOKITOI
  6
PHANTOM
 62
     8
100
AcDbLine
 10
155.9771087031155
 20
41.94090260166965
 30
0.0
 11
135.8192087031159
 21
41.94090260166965
 31
0.0
  0
LINE
  5
5CC
330
1A
100
AcDbEntity
  8
NOKITOI
  6
PHANTOM
 62
     8
100
AcDbLine
 10
155.7273087031155
 20
43.14090260166969
 30
0.0
 11
135.8192087031159
 21
43.14090260166969
 31
0.0
  0
LINE
  5
5CD
330
1A
100
AcDbEntity
  8
NOKITOI
  6
PHANTOM
 62
     8
100
AcDbLine
 10
159.9771087031155
 20
41.94090260166965
 30
0.0
 11
115.1477087031155
 21
41.94100260166962
 31
0.0
  0
LINE
  5
5CE
330
1A
100
AcDbEntity
  8
NOKITOI
  6
PHANTOM
 62
     8
100
AcDbLine
 10
115.1477087031155
 20
43.14100260166966
 30
0.0
 11
159.7273087031155
 21
43.14090260166969
 31
0.0
  0
LINE
  5
5CF
330
1A
100
AcDbEntity
  8
NOKITOI
  6
PHANTOM
 62
     8
100
AcDbLine
 10
181.7316087031155
 20
84.07840260166969
 30
0.0
 11
181.8171087031153
 21
86.81600260166963
 31
0.0
  0
LINE
  5
5D0
330
1A
100
AcDbEntity
  8
NOKITOI
  6
PHANTOM
 62
     8
100
AcDbLine
 10
183.2696087031156
 20
94.87850260166963
 30
0.0
 11
182.8795087031155
 21
82.39410260166957
 31
0.0
  0
LINE
  5
5D1
330
1A
100
AcDbEntity
  8
NOKITOI
  6
PHANTOM
 62
     8
100
AcDbLine
 10
181.3802087031156
 20
80.94100260166962
 30
0.0
 11
175.2391087031157
 21
80.94100260166962
 31
0.0
  0
LINE
  5
5D2
330
1A
100
AcDbEntity
  8
NOKITOI
  6
PHANTOM
 62
     8
100
AcDbLine
 10
173.7006087031151
 20
82.14100260166967
 30
0.0
 11
179.7325087031156
 21
82.14100260166967
 31
0.0
  0
LINE
  5
5D3
330
1A
100
AcDbEntity
  8
NOKITOI
  6
PHANTOM
 62
     8
100
AcDbLine
 10
174.2441087031158
 20
80.04050260166966
 30
0.0
 11
171.3753087031156
 21
51.35310260166964
 31
0.0
  0
LINE
  5
5D4
330
1A
100
AcDbEntity
  8
NOKITOI
  6
PHANTOM
 62
     8
100
AcDbLine
 10
173.2031087031157
 20
81.69080260166968
 30
0.0
 11
170.2101087031152
 21
51.76100260166956
 31
0.0
  0
LINE
  5
5D5
330
1A
100
AcDbEntity
  8
NOKITOI
  6
PHANTOM
 62
     8
100
AcDbLine
 10
171.0135087031155
 20
50.67860260166978
 30
0.0
 11
160.6104087031155
 21
42.16690260166976
 31
0.0
  0
LINE
  5
5D6
330
1A
100
AcDbEntity
  8
NOKITOI
  6
PHANTOM
 62
     8
100
AcDbLine
 10
170.0292087031159
 20
51.42370260166964
 30
0.0
 11
160.0439087031156
 21
43.25390260166952
 31
0.0
  0
ARC
  5
5D7
330
1A
100
AcDbEntity
  8
NOKITOI
  6
PHANTOM
 62
     8
100
AcDbCircle
 10
159.9771017705381
 20
42.94090012666353
 30
0.0
 40
0.9999975250179316
100
AcDbArc
 50
270.0003972084035
 51
309.2946416752299
  0
ARC
  5
5D8
330
1A
100
AcDbEntity
  8
NOKITOI
  6
PHANTOM
 62
     8
100
AcDbCircle
 10
159.7273150908642
 20
43.64090488165922
 30
0.0
 40
0.5000022800304047
100
AcDbArc
 50
269.9992680212791
 51
309.2854498596061
  0
ARC
  5
5D9
330
1A
100
AcDbEntity
  8
NOKITOI
  6
PHANTOM
 62
     8
100
AcDbCircle
 10
170.3802861302467
 20
51.45256052999704
 30
0.0
 40
0.9999908507640039
100
AcDbArc
 50
309.288709223069
 51
354.2862329477532
  0
ARC
  5
5DA
330
1A
100
AcDbEntity
  8
NOKITOI
  6
PHANTOM
 62
     8
100
AcDbCircle
 10
169.7125912772373
 20
51.81067011528168
 30
0.0
 40
0.4999904508696396
100
AcDbArc
 50
309.2900846377951
 51
354.2990110749239
  0
ARC
  5
5DB
330
1A
100
AcDbEntity
  8
NOKITOI
  6
PHANTOM
 62
     8
100
AcDbCircle
 10
175.2391293529564
 20
79.94102128951883
 30
0.0
 40
0.9999813123640345
100
AcDbArc
 50
90.00118317084911
 51
174.2905900333514
  0
ARC
  5
5DC
330
1A
100
AcDbEntity
  8
NOKITOI
  6
PHANTOM
 62
     8
100
AcDbCircle
 10
173.7006217741202
 20
81.64101443194951
 30
0.0
 40
0.499988169890889
100
AcDbArc
 50
90.00149786226634
 51
174.2966061377162
  0
ARC
  5
5DD
330
1A
100
AcDbEntity
  8
NOKITOI
  6
PHANTOM
 62
     8
100
AcDbCircle
 10
181.3802259162937
 20
82.44101928481743
 30
0.0
 40
1.500016683246579
100
AcDbArc
 50
269.9993425123344
 51
358.2076423244113
  0
ARC
  5
5DE
330
1A
100
AcDbEntity
  8
NOKITOI
  6
PHANTOM
 62
     8
100
AcDbCircle
 10
179.7325466909398
 20
84.14093942224187
 30
0.0
 40
2.000036820932882
100
AcDbArc
 50
269.9989117490344
 51
358.2110591274195
  0
LINE
  5
5DF
330
1A
100
AcDbEntity
  8
NOKITOI
  6
PHANTOM
 62
     8
100
AcDbLine
 10
181.2706087031158
 20
96.94090260166966
 30
0.0
 11
177.9440087031154
 21
96.94100260166962
 31
0.0
  0
LINE
  5
5E0
330
1A
100
AcDbEntity
  8
NOKITOI
  6
PHANTOM
 62
     8
100
AcDbLine
 10
179.2979087031155
 20
93.2410026016698
 30
0.0
 11
176.3613087031155
 21
93.2410026016698
 31
0.0
  0
ARC
  5
5E1
330
1A
100
AcDbEntity
  8
NOKITOI
  6
PHANTOM
 62
     8
100
AcDbCircle
 10
178.2138380756152
 20
90.41863283416452
 30
0.0
 40
0.4999578477751074
100
AcDbArc
 50
83.52609071220754
 51
188.1330561712932
  0
ARC
  5
5E2
330
1A
100
AcDbEntity
  8
NOKITOI
  6
PHANTOM
 62
     8
100
AcDbCircle
 10
177.8190908367643
 20
86.94101133004958
 30
0.0
 40
5.199991271650611
100
AcDbArc
 50
37.92532860472995
 51
89.9998031407256
  0
LINE
  5
5E3
330
1A
100
AcDbEntity
  8
NOKITOI
  6
PHANTOM
 62
     8
100
AcDbLine
 10
175.9726087031156
 20
88.64100260166967
 30
0.0
 11
175.7915087031153
 21
92.08240260166959
 31
0.0
  0
LINE
  5
5E4
330
1A
100
AcDbEntity
  8
NOKITOI
  6
PHANTOM
 62
     8
100
AcDbLine
 10
176.3465087031156
 20
91.46940260166955
 30
0.0
 11
175.7915087031153
 21
92.08240260166959
 31
0.0
  0
LINE
  5
5E5
330
1A
100
AcDbEntity
  8
NOKITOI
  6
PHANTOM
 62
     8
100
AcDbLine
 10
174.8092087031156
 20
87.91470260166963
 30
0.0
 11
174.4934087031153
 21
93.91470260166963
 31
0.0
  0
LINE
  5
5E6
330
1A
100
AcDbEntity
  8
NOKITOI
  6
PHANTOM
 62
     8
100
AcDbLine
 10
176.7505087031151
 20
88.64100260166967
 30
0.0
 11
176.3465087031156
 21
91.46940260166955
 31
0.0
  0
LINE
  5
5E7
330
1A
100
AcDbEntity
  8
NOKITOI
  6
PHANTOM
 62
     8
100
AcDbLine
 10
175.9726087031156
 20
88.64100260166967
 30
0.0
 11
176.7505087031151
 21
88.64100260166967
 31
0.0
  0
LINE
  5
5E8
330
1A
100
AcDbEntity
  8
NOKITOI
  6
PHANTOM
 62
     8
100
AcDbLine
 10
175.3085087031156
 20
87.44100260166963
 30
0.0
 11
177.5576087031151
 21
87.44100260166963
 31
0.0
  0
ARC
  5
5E9
330
1A
100
AcDbEntity
  8
NOKITOI
  6
PHANTOM
 62
     8
100
AcDbCircle
 10
175.3085128245222
 20
87.94099869163913
 30
0.0
 40
0.4999960899864752
100
AcDbArc
 50
183.0147243791741
 51
269.9995277178593
  0
ARC
  5
5EA
330
1A
100
AcDbEntity
  8
NOKITOI
  6
PHANTOM
 62
     8
100
AcDbCircle
 10
177.5576188895517
 20
87.94101434639376
 30
0.0
 40
0.5000117448278309
100
AcDbArc
 50
269.9988327478016
 51
8.127314608715551
  0
LINE
  5
5EB
330
1A
100
AcDbEntity
  8
NOKITOI
  6
PHANTOM
 62
     8
100
AcDbLine
 10
178.0526087031155
 20
88.0117026016696
 30
0.0
 11
177.7188087031156
 21
90.3479026016698
 31
0.0
  0
LINE
  5
5EC
330
1A
100
AcDbEntity
  8
NOKITOI
  6
PHANTOM
 62
     8
100
AcDbLine
 10
174.9927087031157
 20
94.44100260166962
 30
0.0
 11
177.2242087031156
 21
94.44100260166962
 31
0.0
  0
ARC
  5
5ED
330
1A
100
AcDbEntity
  8
NOKITOI
  6
PHANTOM
 62
     8
100
AcDbCircle
 10
174.9927124126108
 20
93.94100651170035
 30
0.0
 40
0.4999960899831856
100
AcDbArc
 50
90.00042508015082
 51
183.0156217414647
  0
ARC
  5
5EE
330
1A
100
AcDbEntity
  8
NOKITOI
  6
PHANTOM
 62
     8
100
AcDbCircle
 10
177.9440014485601
 20
96.44099375182619
 30
0.0
 40
0.500008849895925
100
AcDbArc
 50
89.99916870385415
 51
191.3135956695126
  0
ARC
  5
5EF
330
1A
100
AcDbEntity
  8
NOKITOI
  6
PHANTOM
 62
     8
100
AcDbCircle
 10
177.224207920107
 20
94.94100164666789
 30
0.0
 40
0.4999990449987399
100
AcDbArc
 50
270.000089726305
 51
11.30328019845521
  0
LINE
  5
5F0
330
1A
100
AcDbEntity
  8
NOKITOI
  6
PHANTOM
 62
     8
100
AcDbLine
 10
177.7145087031155
 20
95.03900260166981
 30
0.0
 11
177.4537087031155
 21
96.34300260166966
 31
0.0
  0
LINE
  5
5F1
330
1A
100
AcDbEntity
  8
NOKITOI
  6
PHANTOM
 62
     8
100
AcDbLine
 10
177.3571087031156
 20
92.14100260166967
 30
0.0
 11
177.8191087031157
 21
92.14100260166967
 31
0.0
  0
LINE
  5
5F2
330
1A
100
AcDbEntity
  8
NOKITOI
  6
PHANTOM
 62
     8
100
AcDbLine
 10
177.3571087031156
 20
92.14100260166967
 30
0.0
 11
176.3613087031155
 21
93.2410026016698
 31
0.0
  0
LINE
  5
5F3
330
1A
100
AcDbEntity
  8
NOKITOI
  6
PHANTOM
 62
     8
100
AcDbLine
 10
182.0702087031151
 20
94.91600260166952
 30
0.0
 11
181.9209087031156
 21
90.13700260166976
 31
0.0
  0
ARC
  5
5F4
330
1A
100
AcDbEntity
  8
NOKITOI
  6
PHANTOM
 62
     8
100
AcDbCircle
 10
177.8190777761794
 20
86.94103834633343
 30
0.0
 40
3.99998565374706
100
AcDbArc
 50
358.208696659101
 51
83.52422380468341
  0
ARC
  5
5F5
330
1A
100
AcDbEntity
  8
NOKITOI
  6
PHANTOM
 62
     8
100
AcDbCircle
 10
181.2705974661214
 20
94.94101419548675
 30
0.0
 40
1.999988406214315
100
AcDbArc
 50
358.2088726535936
 51
89.99967808195551
  0
LINE
  5
5F6
330
1A
100
AcDbEntity
  8
NOKITOI
  6
PHANTOM
 62
     8
100
AcDbLine
 10
181.2706087031158
 20
95.74090260166959
 30
0.0
 11
178.7979087031155
 21
95.7410026016698
 31
0.0
  0
LINE
  5
5F7
330
1A
100
AcDbEntity
  8
NOKITOI
  6
PHANTOM
 62
     8
100
AcDbLine
 10
178.7979087031155
 20
95.7410026016698
 30
0.0
 11
179.2979087031155
 21
93.2410026016698
 31
0.0
  0
ARC
  5
5F8
330
1A
100
AcDbEntity
  8
NOKITOI
  6
PHANTOM
 62
     8
100
AcDbCircle
 10
181.2706526694684
 20
94.94095723919665
 30
0.0
 40
0.7999453636812564
100
AcDbArc
 50
358.2123436447881
 51
90.00314907315425
  0
LINE
  5
1D19
330
1A
100
AcDbEntity
  8
SEIHIN
100
AcDbLine
 10
142.525384623103
 20
91.73378904482936
 30
0.0
 11
155.3128711798877
 21
104.5212757016697
 31
0.0
  0
ARC
  5
1D1B
330
1A
100
AcDbEntity
  8
SEIHIN
100
AcDbCircle
 10
141.8253845798878
 20
91.94800260166969
 30
0.0
 40
5.500000002456481
100
AcDbArc
 50
270.0
 51
315.0
  0
LINE
  5
1D1E
330
1A
100
AcDbEntity
  8
SEIHIN
100
AcDbLine
 10
76.71423917988784
 20
78.84800260166968
 30
0.0
 11
145.1390930798877
 21
78.84800260166968
 31
0.0
  0
LINE
  5
1D23
330
1A
100
AcDbEntity
  8
SEIHIN
100
AcDbLine
 10
141.8182778015232
 20
92.44089582324951
 30
0.0
 11
154.6057643798878
 21
105.2283825016696
 31
0.0
  0
LINE
  5
1D24
330
1A
100
AcDbEntity
  8
CENTER_L
100
AcDbLine
 10
129.3106659798878
 20
101.338605475777
 30
0.0
 11
129.3106659798878
 21
76.39958802379474
 31
0.0
  0
LINE
  5
1D2A
330
1A
100
AcDbEntity
  8
SEIHIN
100
AcDbLine
 10
119.3106659798877
 20
92.1480026016697
 30
0.0
 11
119.3106659798877
 21
86.6480026016697
 31
0.0
  0
LINE
  5
1D2C
330
1A
100
AcDbEntity
  8
SEIHIN
100
AcDbLine
 10
69.11066597988781
 20
86.4480026016697
 30
0.0
 11
141.8255489616313
 21
86.4480026016697
 31
0.0
  0
ARC
  5
1D41
330
1A
100
AcDbEntity
  8
SEIHIN
100
AcDbCircle
 10
76.71423917988784
 20
80.44800260166971
 30
0.0
 40
1.599999992064534
100
AcDbArc
 50
185.0000004668387
 51
270.0
  0
LINE
  5
1D42
330
1A
100
AcDbEntity
  8
SEIHIN
100
AcDbLine
 10
69.91066597988776
 20
83.84800260166967
 30
0.0
 11
74.8106659798878
 21
83.84800260166967
 31
0.0
  0
ARC
  5
1D43
330
1A
100
AcDbEntity
  8
SEIHIN
100
AcDbCircle
 10
69.91066597988776
 20
86.94800260166969
 30
0.0
 40
3.100000000000008
100
AcDbArc
 50
180.0
 51
270.0
  0
LINE
  5
1D44
330
1A
100
AcDbEntity
  8
SEIHIN
100
AcDbLine
 10
66.8106659798878
 20
90.84800260166968
 30
0.0
 11
68.61066597988781
 21
90.84800260166968
 31
0.0
  0
ARC
  5
1D45
330
1A
100
AcDbEntity
  8
SEIHIN
100
AcDbCircle
 10
69.11066597988781
 20
86.94800260166969
 30
0.0
 40
0.5
100
AcDbArc
 50
180.0
 51
270.0
  0
LINE
  5
1D46
330
1A
100
AcDbEntity
  8
SEIHIN
100
AcDbLine
 10
66.8106659798878
 20
90.84800260166968
 30
0.0
 11
66.8106659798878
 21
86.94800260166969
 31
0.0
  0
LINE
  5
1D47
330
1A
100
AcDbEntity
  8
SEIHIN
100
AcDbLine
 10
68.61066597988781
 20
90.84800260166968
 30
0.0
 11
68.61066597988781
 21
86.94800260166969
 31
0.0
  0
LINE
  5
1D48
330
1A
100
AcDbEntity
  8
SEIHIN
100
AcDbLine
 10
75.12032767988779
 20
80.3085534016697
 30
0.0
 11
74.58319544012136
 21
86.44800260166968
 31
0.0
  0
LINE
  5
1D4B
330
1A
100
AcDbEntity
  8
SEIHIN
100
AcDbLine
 10
119.3106659798877
 20
91.14800260166971
 30
0.0
 11
141.1111710551972
 21
91.14800260166971
 31
0.0
  0
LINE
  5
1D4D
330
1A
100
AcDbEntity
  8
SEIHIN
100
AcDbLine
 10
119.3106659798877
 20
86.4480026016697
 30
0.0
 11
141.8253845798878
 21
86.4480026016697
 31
0.0
  0
ARC
  5
1D5C
330
1A
100
AcDbEntity
  8
SEIHIN
100
AcDbCircle
 10
129.3106659798878
 20
86.2573776016697
 30
0.0
 40
7.890625
100
AcDbArc
 50
48.29108392084388
 51
131.708916079156
  0
LINE
  5
1D5D
330
1A
100
AcDbEntity
  8
SEIHIN
100
AcDbLine
 10
119.3106659798877
 20
92.1480026016697
 30
0.0
 11
141.1111710175703
 21
92.14800260166969
 31
0.0
  0
LINE
  5
1D60
330
1A
100
AcDbEntity
  8
CENTER_L
100
AcDbLine
 10
322.5204613144818
 20
147.8377694269247
 30
0.0
 11
344.4161123023835
 21
93.0975074155644
 31
0.0
  0
LINE
  5
1D61
330
1A
100
AcDbEntity
  8
SEIHIN
100
AcDbLine
 10
334.4800433848207
 20
144.8644996896358
 30
0.0
 11
350.5043567967169
 21
104.8028858465933
 31
0.0
  0
LINE
  5
1D63
330
1A
100
AcDbEntity
  8
SEIHIN
100
AcDbLine
 10
323.2161663571395
 20
135.3279487179843
 30
0.0
 11
321.3448013806602
 21
140.006458125536
 31
0.0
  0
LINE
  5
1D64
330
1A
100
AcDbEntity
  8
SEIHIN
100
AcDbLine
 10
330.6440011183239
 20
138.2990210430116
 30
0.0
 11
328.7726361418445
 21
142.9775304505633
 31
0.0
  0
LINE
  5
1D65
330
1A
100
AcDbEntity
  8
SEIHIN
100
AcDbLine
 10
188.8106659798878
 20
97.94800260166972
 30
0.0
 11
188.8106659798878
 21
80.92248492424152
 31
0.0
  0
LINE
  5
1D66
330
1A
100
AcDbEntity
  8
SEIHIN
100
AcDbLine
 10
315.9104564818603
 20
137.4368188770676
 30
0.0
 11
331.9347698937562
 21
97.37520503402512
 31
0.0
  0
LINE
  5
1D67
330
1A
100
AcDbEntity
  8
SEIHIN
100
AcDbLine
 10
185.2106659798877
 20
97.94800260166972
 30
0.0
 11
185.2106659798877
 21
80.9748927016697
 31
0.0
  0
LINE
  5
1D68
330
1A
100
AcDbEntity
  8
SEIHIN
100
AcDbLine
 10
187.8106659798877
 20
97.94800260166972
 30
0.0
 11
187.8106659798877
 21
80.9748927016697
 31
0.0
  0
LINE
  5
1D6C
330
1A
100
AcDbEntity
  8
SEIHIN
100
AcDbLine
 10
148.7453376798877
 20
80.34175800166968
 30
0.0
 11
163.1451676388765
 21
94.74158803789839
 31
0.0
  0
LINE
  5
1D6E
330
1A
100
AcDbEntity
  8
SEIHIN
100
AcDbLine
 10
145.7144718798878
 20
88.0589153016697
 30
0.0
 11
157.5450214748327
 21
99.88946489661465
 31
0.0
  0
LINE
  5
1D79
330
1A
100
AcDbEntity
  8
SEIHIN
100
AcDbLine
 10
159.7918922798878
 20
77.44292550166967
 30
0.0
 11
171.7349386798878
 21
83.26793840166969
 31
0.0
  0
LINE
  5
1D7A
330
1A
100
AcDbEntity
  8
SEIHIN
100
AcDbLine
 10
160.4494488798877
 20
76.09473430166968
 30
0.0
 11
171.7349386798878
 21
81.59903550166969
 31
0.0
  0
LINE
  5
1D7B
330
1A
100
AcDbEntity
  8
SEIHIN
100
AcDbLine
 10
159.6165438798878
 20
77.80244310166968
 30
0.0
 11
171.4595901798878
 21
83.57868270166967
 31
0.0
  0
LINE
  5
1D7D
330
1A
100
AcDbEntity
  8
SEIHIN
100
AcDbLine
 10
148.7341939309617
 20
80.33064859830799
 30
0.0
 11
157.8664807798878
 21
76.07219330166969
 31
0.0
  0
ARC
  5
1D7E
330
1A
100
AcDbEntity
  8
SEIHIN
100
AcDbCircle
 10
145.1390930798877
 20
83.9480026016697
 30
0.0
 40
5.100000011277387
100
AcDbArc
 50
270.0
 51
315.0
  0
LINE
  5
1D7F
330
1A
100
AcDbEntity
  8
SEIHIN
100
AcDbLine
 10
150.1639432555059
 20
81.76036358489714
 30
0.0
 11
158.6694555798878
 21
77.79417810166968
 31
0.0
  0
LINE
  5
1D80
330
1A
100
AcDbEntity
  8
SEIHIN
100
AcDbLine
 10
149.8629483458214
 20
81.45936867359809
 30
0.0
 11
158.5004082798878
 21
77.43165500166968
 31
0.0
  0
ARC
  5
1D81
330
1A
100
AcDbEntity
  8
SEIHIN
100
AcDbCircle
 10
159.1343356798878
 20
78.79111660166969
 30
0.0
 40
1.499999997384386
100
AcDbArc
 50
244.9999984438223
 51
295.9999936879063
  0
ARC
  5
1D83
330
1A
100
AcDbEntity
  8
SEIHIN
100
AcDbCircle
 10
159.1343356798878
 20
78.79111660166969
 30
0.0
 40
1.099999981342675
100
AcDbArc
 50
244.9999979823536
 51
295.9999960018844
  0
ARC
  5
1D84
330
1A
100
AcDbEntity
  8
SEIHIN
100
AcDbCircle
 10
159.1343356798878
 20
78.79111660166969
 30
0.0
 40
2.9999999920909
100
AcDbArc
 50
244.9999949819811
 51
295.999994525133
  0
ARC
  5
1D86
330
1A
100
AcDbEntity
  8
SEIHIN
100
AcDbCircle
 10
169.8061055798878
 20
87.2226322016697
 30
0.0
 40
4.400000010194002
100
AcDbArc
 50
296.0000006547247
 51
359.9999934891161
  0
ARC
  5
1D87
330
1A
100
AcDbEntity
  8
SEIHIN
100
AcDbCircle
 10
169.7061055798878
 20
87.17385890166967
 30
0.0
 40
4.000000009467725
100
AcDbArc
 50
296.0000000723986
 51
0.0
  0
LINE
  5
1D88
330
1A
100
AcDbEntity
  8
SEIHIN
100
AcDbLine
 10
174.2061055798878
 20
85.55372880166968
 30
0.0
 11
174.2061055798878
 21
89.68195940166969
 31
0.0
  0
ARC
  5
1D8A
330
1A
100
AcDbEntity
  8
SEIHIN
100
AcDbCircle
 10
169.8061055798878
 20
85.55372930166969
 30
0.0
 40
4.400000010194002
100
AcDbArc
 50
296.0000006547247
 51
359.9999934891161
  0
LINE
  5
1D8B
330
1A
100
AcDbEntity
  8
SEIHIN
100
AcDbLine
 10
173.7061055798878
 20
89.68195940166969
 30
0.0
 11
174.2061055798878
 21
89.68195940166969
 31
0.0
  0
LINE
  5
1D8C
330
1A
100
AcDbEntity
  8
SEIHIN
100
AcDbLine
 10
173.7061055798878
 20
87.17385890166967
 30
0.0
 11
173.7061055798878
 21
89.68195940166969
 31
0.0
  0
LINE
  5
1D92
330
1A
100
AcDbEntity
  8
SEIHIN
100
AcDbLine
 10
178.3202591798878
 20
80.81435430166969
 30
0.0
 11
178.1894193221548
 21
78.31778050469536
 31
0.0
  0
ARC
  5
1D93
330
1A
100
AcDbEntity
  8
SEIHIN
100
AcDbCircle
 10
184.8106659798878
 20
80.9748927016697
 30
0.0
 40
2.999999998689364
100
AcDbArc
 50
266.9999993993207
 51
0.0
  0
LINE
  5
1D94
330
1A
100
AcDbEntity
  8
SEIHIN
100
AcDbLine
 10
185.6536581088584
 20
77.92659632009836
 30
0.0
 11
178.1894193798877
 21
78.3177805016697
 31
0.0
  0
LINE
  5
1D96
330
1A
100
AcDbEntity
  8
SEIHIN
100
AcDbLine
 10
184.7897315798878
 20
80.57544090166969
 30
0.0
 11
178.3254927798878
 21
80.91421730166969
 31
0.0
  0
ARC
  5
1D97
330
1A
100
AcDbEntity
  8
SEIHIN
100
AcDbCircle
 10
184.8106659798878
 20
80.9748927016697
 30
0.0
 40
0.3999999935166316
100
AcDbArc
 50
266.999997392128
 51
0.0
  0
LINE
  5
1D9E
330
1A
100
AcDbEntity
  8
SEIHIN
100
AcDbLine
 10
315.9104564818601
 20
137.4368188770674
 30
0.0
 11
318.3245027792451
 21
138.4024173827014
 31
0.0
  0
LINE
  5
1DA6
330
1A
100
AcDbEntity
  8
SEIHIN
100
AcDbLine
 10
332.065997087436
 20
143.8989011840018
 30
0.0
 11
334.4800433848208
 21
144.8644996896357
 31
0.0
  0
ARC
  5
1DA7
330
1A
100
AcDbEntity
  8
SEIHIN
100
AcDbCircle
 10
355.3326957092723
 20
141.1991376226417
 30
0.0
 40
3.0
100
AcDbArc
 50
21.80100190985947
 51
111.8009999999999
  0
ARC
  5
1DA8
330
1A
100
AcDbEntity
  8
SEIHIN
100
AcDbCircle
 10
366.1028328874962
 20
114.2732366133487
 30
0.0
 40
3.000000000000003
100
AcDbArc
 50
291.8009999999999
 51
21.80100381971894
  0
LINE
  5
1DAE
330
1A
100
AcDbEntity
  8
SEIHIN
100
AcDbLine
 10
174.0852441712311
 20
101.9135608031757
 30
0.0
 11
160.4913055798878
 21
101.2011327016696
 31
0.0
  0
LINE
  5
1DB3
330
1A
100
AcDbEntity
  8
SEIHIN
100
AcDbLine
 10
183.2112276798877
 20
99.78826520166968
 30
0.0
 11
168.8106659798878
 21
99.03356379151064
 31
0.0
  0
ARC
  5
1DB6
330
1A
100
AcDbEntity
  8
SEIHIN
100
AcDbCircle
 10
160.7268173798877
 20
96.70729980166971
 30
0.0
 40
4.499999985879004
100
AcDbArc
 50
92.99999996493296
 51
135.0
  0
ARC
  5
1DB8
330
1A
100
AcDbEntity
  8
SEIHIN
100
AcDbCircle
 10
159.2019586798878
 20
100.6321885016697
 30
0.0
 40
5.500000065643712
100
AcDbArc
 50
91.3361182741777
 51
135.0000022098678
  0
ARC
  5
1DB9
330
1A
100
AcDbEntity
  8
SEIHIN
100
AcDbCircle
 10
159.2019586798878
 20
100.6321885016697
 30
0.0
 40
6.500000024766264
100
AcDbArc
 50
91.33611865333142
 51
135.000002493184
  0
ARC
  5
1DBB
330
1A
100
AcDbEntity
  8
SEIHIN
100
AcDbCircle
 10
183.3106659798878
 20
97.8908691016697
 30
0.0
 40
4.499999996725646
100
AcDbArc
 50
0.0
 51
68.50091861647718
  0
ARC
  5
1DBC
330
1A
100
AcDbEntity
  8
SEIHIN
100
AcDbCircle
 10
183.3106659798878
 20
97.8908691016697
 30
0.0
 40
5.500000030448694
100
AcDbArc
 50
0.0
 51
50.03412929334452
  0
ARC
  5
1DBD
330
1A
100
AcDbEntity
  8
SEIHIN
100
AcDbCircle
 10
183.3106659798878
 20
97.8908691016697
 30
0.0
 40
1.899999991552915
100
AcDbArc
 50
0.0
 51
92.99999951753015
  0
LINE
  5
1DC4
330
1A
100
AcDbEntity
  8
SEIHIN
100
AcDbLine
 10
337.9701550472965
 20
137.4853549470886
 30
0.0
 11
350.9685964692909
 21
104.9885778669075
 31
0.0
  0
LINE
  5
1DC7
330
1A
100
AcDbEntity
  8
CENTER_L
100
AcDbLine
 10
308.5002060071796
 20
123.6512628708841
 30
0.0
 11
313.0310913028462
 21
112.3238148600781
 31
0.0
  0
LINE
  5
1DC9
330
1A
100
AcDbEntity
  8
SEIHIN
100
AcDbLine
 10
300.5524143084002
 20
119.2874793184135
 30
0.0
 11
311.3225514494855
 21
92.36157840196854
 31
0.0
  0
LINE
  5
1DCA
330
1A
100
AcDbEntity
  8
SEIHIN
100
AcDbLine
 10
318.472088799188
 20
129.686290093892
 30
0.0
 11
331.4705302211823
 21
97.18951301371097
 31
0.0
  0
ARC
  5
1DCF
330
1A
100
AcDbEntity
  8
SEIHIN
100
AcDbCircle
 10
314.1079895592065
 20
93.47573033815788
 30
0.0
 40
3.000000000000003
100
AcDbArc
 50
201.800996180281
 51
291.8009999999999
  0
LINE
  5
1DD1
330
1A
100
AcDbEntity
  8
SEIHIN
100
AcDbLine
 10
315.2221416810917
 20
90.69029230271384
 30
0.0
 11
341.2195633452366
 21
101.0890454403092
 31
0.0
  0
CIRCLE
  5
1DD8
330
1A
100
AcDbEntity
  8
SEIHIN
100
AcDbCircle
 10
317.8219454269526
 20
100.3464313076684
 30
0.0
 40
2.100000000000022
  0
LINE
  5
1DE0
330
1A
100
AcDbEntity
  8
SEIHIN
100
AcDbLine
 10
341.2195633452366
 20
101.0890454403092
 30
0.0
 11
367.2169850093813
 21
111.4877985779047
 31
0.0
  0
CIRCLE
  5
1DEB
330
1A
100
AcDbEntity
  8
SEIHIN
100
AcDbCircle
 10
358.6750366134661
 20
116.6873290953184
 30
0.0
 40
2.100000000000022
  0
LINE
  5
1DEE
330
1A
100
AcDbEntity
  8
SEIHIN
100
AcDbLine
 10
302.2237002590974
 20
123.1870693828948
 30
0.0
 11
318.936328471762
 21
129.8719821142062
 31
0.0
  0
LINE
  5
1DEF
330
1A
100
AcDbEntity
  8
CENTER_L
100
AcDbLine
 10
305.1019246496097
 20
115.7220962176477
 30
0.0
 11
316.4293726604158
 21
120.2529815133144
 31
0.0
  0
ARC
  5
1DF3
330
1A
100
AcDbEntity
  8
SEIHIN
100
AcDbCircle
 10
303.3378523809826
 20
120.4016313474508
 30
0.0
 40
3.0
100
AcDbArc
 50
111.8009999999999
 51
201.801
  0
CIRCLE
  5
1DF4
330
1A
100
AcDbEntity
  8
SEIHIN
100
AcDbCircle
 10
310.7656486550129
 20
117.9875388654811
 30
0.0
 40
2.100000000000022
  0
CIRCLE
  5
1E06
330
1A
100
AcDbEntity
  8
SEIHIN
100
AcDbCircle
 10
351.6187398415262
 20
134.3284366531311
 30
0.0
 40
2.100000000000022
  0
LINE
  5
1E0A
330
1A
100
AcDbEntity
  8
SEIHIN
100
AcDbLine
 10
358.118133707578
 20
142.3132898373748
 30
0.0
 11
368.8882708486636
 21
115.3873889209299
 31
0.0
  0
LINE
  5
1EC3
330
1A
100
AcDbEntity
  8
SEIHIN
100
AcDbLine
 10
66.8106659798878
 20
229.1707035089473
 30
0.0
 11
74.5831954401213
 21
229.1707035089473
 31
0.0
  0
LINE
  5
1EC6
330
1A
100
AcDbEntity
  8
CENTER_L
100
AcDbLine
 10
273.7866658728258
 20
219.1707035089473
 30
0.0
 11
59.8106659798878
 21
219.1707035089473
 31
0.0
  0
LINE
  5
1ECB
330
1A
100
AcDbEntity
  8
SEIHIN
100
AcDbLine
 10
66.8106659798878
 20
209.1707035089473
 30
0.0
 11
74.58319544012136
 21
209.1707035089473
 31
0.0
  0
LINE
  5
1ED8
330
1A
100
AcDbEntity
  8
CENTER_L
100
AcDbLine
 10
129.3106659798878
 20
204.1418317963961
 30
0.0
 11
129.3106659798878
 21
234.1995752214985
 31
0.0
  0
LINE
  5
1EDA
330
1A
100
AcDbEntity
  8
SEIHIN
100
AcDbLine
 10
119.3106659798877
 20
209.1707035089473
 30
0.0
 11
119.3106659798877
 21
229.1707035089473
 31
0.0
  0
LINE
  5
1F11
330
1A
100
AcDbEntity
  8
SEIHIN
100
AcDbLine
 10
168.8106659798878
 20
101.6371319261094
 30
0.0
 11
168.8106659798878
 21
95.98746880105966
 31
0.0
  0
LINE
  5
1F12
330
1A
100
AcDbEntity
  8
SEIHIN
100
AcDbLine
 10
167.8630019382125
 20
94.98883926641418
 30
0.0
 11
163.1451676388765
 21
94.74158803789839
 31
0.0
  0
ARC
  5
1F13
330
1A
100
AcDbEntity
  8
SEIHIN
100
AcDbCircle
 10
167.8106659798878
 20
95.98746880105966
 30
0.0
 40
1.0
100
AcDbArc
 50
273.0000001194438
 51
0.0
  0
ARC
  5
1F15
330
1A
100
AcDbEntity
  8
SEIHIN
100
AcDbCircle
 10
185.8106659798878
 20
80.92248492424152
 30
0.0
 40
3.0
100
AcDbArc
 50
266.9999999560026
 51
0.0
  0
LINE
  5
1F30
330
1A
100
AcDbEntity
  8
CENTER_L
100
AcDbLine
 10
312.1582214215494
 20
98.08098865983524
 30
0.0
 11
323.4856694323556
 21
102.6118739555017
 31
0.0
  0
LINE
  5
1F31
330
1A
100
AcDbEntity
  8
CENTER_L
100
AcDbLine
 10
315.5565027791193
 20
106.0101553130715
 30
0.0
 11
320.0873880747859
 21
94.68270730226551
 31
0.0
  0
LINE
  5
1F32
330
1A
100
AcDbEntity
  8
CENTER_L
100
AcDbLine
 10
356.4095939656327
 20
122.3510531007215
 30
0.0
 11
360.9404792612993
 21
111.0236050899154
 31
0.0
  0
LINE
  5
1F33
330
1A
100
AcDbEntity
  8
CENTER_L
100
AcDbLine
 10
349.3532971936929
 20
139.992160658534
 30
0.0
 11
353.8841824893596
 21
128.664712647728
 31
0.0
  0
LINE
  5
1F34
330
1A
100
AcDbEntity
  8
CENTER_L
100
AcDbLine
 10
364.338760618869
 20
118.9527717431517
 30
0.0
 11
353.0113126080629
 21
114.4218864474851
 31
0.0
  0
LINE
  5
1F35
330
1A
100
AcDbEntity
  8
CENTER_L
100
AcDbLine
 10
357.2824638469293
 20
136.5938793009643
 30
0.0
 11
345.9550158361231
 21
132.0629940052977
 31
0.0
  0
LINE
  5
1F4C
330
1A
100
AcDbEntity
  8
SEIHIN
100
AcDbLine
 10
320.1432977384388
 20
122.8155506372274
 30
0.0
 11
318.2863390481427
 21
122.0727825559706
 31
0.0
  0
LINE
  5
1F4D
330
1A
100
AcDbEntity
  8
SEIHIN
100
AcDbLine
 10
320.8860658196956
 20
120.9585919469314
 30
0.0
 11
319.0291071293995
 21
120.2158238656745
 31
0.0
  0
LINE
  5
1F4E
330
1A
100
AcDbEntity
  8
SEIHIN
100
AcDbLine
 10
318.3791754365113
 20
120.4943715179343
 30
0.0
 11
318.0077913958829
 21
121.4228508630824
 31
0.0
  0
ARC
  5
1F4F
330
1A
100
AcDbEntity
  8
SEIHIN
100
AcDbCircle
 10
318.8434151090853
 20
120.6800635382485
 30
0.0
 40
0.5
100
AcDbArc
 50
201.801
 51
291.8010000000005
  0
ARC
  5
1F50
330
1A
100
AcDbEntity
  8
SEIHIN
100
AcDbCircle
 10
318.4720310684568
 20
121.6085428833965
 30
0.0
 40
0.5
100
AcDbArc
 50
111.8009999999999
 51
201.801
  0
LINE
  5
1F51
330
1A
100
AcDbEntity
  8
SEIHIN
100
AcDbLine
 10
327.1995945103786
 20
105.1744430794148
 30
0.0
 11
325.3426358200826
 21
104.431674998158
 31
0.0
  0
LINE
  5
1F52
330
1A
100
AcDbEntity
  8
SEIHIN
100
AcDbLine
 10
327.9423625916354
 20
103.3174843891187
 30
0.0
 11
326.0854039013394
 21
102.5747163078619
 31
0.0
  0
LINE
  5
1F53
330
1A
100
AcDbEntity
  8
SEIHIN
100
AcDbLine
 10
325.4354722084511
 20
102.8532639601217
 30
0.0
 11
325.0640881678226
 21
103.7817433052698
 31
0.0
  0
ARC
  5
1F54
330
1A
100
AcDbEntity
  8
SEIHIN
100
AcDbCircle
 10
325.5283278403967
 20
103.9674353255839
 30
0.0
 40
0.5
100
AcDbArc
 50
111.8009999999999
 51
201.801
  0
ARC
  5
1F55
330
1A
100
AcDbEntity
  8
SEIHIN
100
AcDbCircle
 10
325.8997118810251
 20
103.0389559804359
 30
0.0
 40
0.5
100
AcDbArc
 50
201.801
 51
291.8010000000005
  0
LINE
  5
1F56
330
1A
100
AcDbEntity
  8
SEIHIN
100
AcDbLine
 10
351.4328938725959
 20
113.2520170977172
 30
0.0
 11
351.0615098319675
 21
114.1804964428652
 31
0.0
  0
LINE
  5
1F57
330
1A
100
AcDbEntity
  8
SEIHIN
100
AcDbLine
 10
349.29738753004
 20
111.8593173235721
 30
0.0
 11
351.1543462203361
 21
112.602085404829
 31
0.0
  0
ARC
  5
1F58
330
1A
100
AcDbEntity
  8
SEIHIN
100
AcDbCircle
 10
350.968654200022
 20
113.0663250774029
 30
0.0
 40
0.5
100
AcDbArc
 50
291.8009999999994
 51
21.801
  0
LINE
  5
1F59
330
1A
100
AcDbEntity
  8
SEIHIN
100
AcDbLine
 10
348.5546194487832
 20
113.7162760138682
 30
0.0
 11
350.4115781390793
 21
114.4590440951251
 31
0.0
  0
ARC
  5
1F5A
330
1A
100
AcDbEntity
  8
SEIHIN
100
AcDbCircle
 10
350.5972701593936
 20
113.994804422551
 30
0.0
 40
0.5
100
AcDbArc
 50
21.801
 51
111.8009999999999
  0
LINE
  5
1F5B
330
1A
100
AcDbEntity
  8
SEIHIN
100
AcDbLine
 10
341.4983226768435
 20
131.3573835716808
 30
0.0
 11
343.3552813671395
 21
132.1001516529376
 31
0.0
  0
LINE
  5
1F5C
330
1A
100
AcDbEntity
  8
SEIHIN
100
AcDbLine
 10
342.2410907581003
 20
129.5004248813848
 30
0.0
 11
344.0980494483964
 21
130.2431929626415
 31
0.0
  0
LINE
  5
1F5D
330
1A
100
AcDbEntity
  8
SEIHIN
100
AcDbLine
 10
344.3765971006561
 20
130.8931246555298
 30
0.0
 11
344.0052130600278
 21
131.8216040006778
 31
0.0
  0
ARC
  5
1F5E
330
1A
100
AcDbEntity
  8
SEIHIN
100
AcDbCircle
 10
343.5409733874538
 20
131.6359119803636
 30
0.0
 40
0.5
100
AcDbArc
 50
21.801
 51
111.8009999999999
  0
ARC
  5
1F5F
330
1A
100
AcDbEntity
  8
SEIHIN
100
AcDbCircle
 10
343.9123574280822
 20
130.7074326352155
 30
0.0
 40
0.5
100
AcDbArc
 50
291.8009999999994
 51
21.801
  0
LINE
  5
1F61
330
1A
100
AcDbEntity
  8
SEIHIN
100
AcDbLine
 10
168.8106659798878
 20
206.6707035089473
 30
0.0
 11
74.58319544012136
 21
206.6707035089473
 31
0.0
  0
LINE
  5
1F62
330
1A
100
AcDbEntity
  8
SEIHIN
100
AcDbLine
 10
168.8106659798878
 20
206.6707035089473
 30
0.0
 11
168.8106659798878
 21
209.1707035089473
 31
0.0
  0
LINE
  5
1F63
330
1A
100
AcDbEntity
  8
SEIHIN
100
AcDbLine
 10
74.58319544012136
 20
206.6707035089473
 30
0.0
 11
74.58319544012136
 21
209.1707035089473
 31
0.0
  0
LINE
  5
1F64
330
1A
100
AcDbEntity
  8
SEIHIN
100
AcDbLine
 10
66.8106659798878
 20
209.1707035089473
 30
0.0
 11
66.8106659798878
 21
229.1707035089473
 31
0.0
  0
LINE
  5
1F67
330
1A
100
AcDbEntity
  8
SEIHIN
100
AcDbLine
 10
68.61066597988781
 20
209.1707035089473
 30
0.0
 11
68.61066597988781
 21
229.1707035089473
 31
0.0
  0
LINE
  5
1F68
330
1A
100
AcDbEntity
  8
SEIHIN
100
AcDbLine
 10
119.3106659798877
 20
209.1707035089473
 30
0.0
 11
260.7091256985295
 21
209.1707035089473
 31
0.0
  0
LINE
  5
1F69
330
1A
100
AcDbEntity
  8
SEIHIN
100
AcDbLine
 10
119.3106659798877
 20
211.1707035089473
 30
0.0
 11
244.6089285414903
 21
211.1707035089473
 31
0.0
  0
CIRCLE
  5
1F6A
330
1A
100
AcDbEntity
  8
SEIHIN
100
AcDbCircle
 10
129.3106659798878
 20
219.1707035089473
 30
0.0
 40
5.0
  0
LINE
  5
1F6C
330
1A
100
AcDbEntity
  8
SEIHIN
100
AcDbLine
 10
141.6662488279093
 20
211.6707035089473
 30
0.0
 11
141.6662488279093
 21
226.6707035089473
 31
0.0
  0
LINE
  5
1F6D
330
1A
100
AcDbEntity
  8
SEIHIN
100
AcDbLine
 10
156.4510500338601
 20
211.6707035089473
 30
0.0
 11
156.4510500338601
 21
226.6707035089472
 31
0.0
  0
LINE
  5
1F70
330
1A
100
AcDbEntity
  8
SEIHIN
100
AcDbLine
 10
119.3106659798877
 20
227.1707035089473
 30
0.0
 11
244.6089285414903
 21
227.1707035089473
 31
0.0
  0
LINE
  5
1F71
330
1A
100
AcDbEntity
  8
SEIHIN
100
AcDbLine
 10
119.3106659798877
 20
229.1707035089473
 30
0.0
 11
260.7091256985295
 21
229.1707035089473
 31
0.0
  0
LINE
  5
1F72
330
1A
100
AcDbEntity
  8
SEIHIN
100
AcDbLine
 10
168.8106659798878
 20
231.6707035089473
 30
0.0
 11
74.58319544012136
 21
231.6707035089473
 31
0.0
  0
LINE
  5
1F73
330
1A
100
AcDbEntity
  8
SEIHIN
100
AcDbLine
 10
66.8106659798878
 20
229.1707035089473
 30
0.0
 11
74.58319544012136
 21
229.1707035089473
 31
0.0
  0
LINE
  5
1F74
330
1A
100
AcDbEntity
  8
SEIHIN
100
AcDbLine
 10
74.58319544012136
 20
231.6707035089473
 30
0.0
 11
74.58319544012136
 21
229.1707035089473
 31
0.0
  0
LINE
  5
1F75
330
1A
100
AcDbEntity
  8
SEIHIN
100
AcDbLine
 10
142.598265299531
 20
227.6707035089474
 30
0.0
 11
142.598265299531
 21
228.6707035089473
 31
0.0
  0
LINE
  5
1F76
330
1A
100
AcDbEntity
  8
SEIHIN
100
AcDbLine
 10
155.6122355773031
 20
228.6707035089473
 30
0.0
 11
155.6122355773031
 21
227.6707035089473
 31
0.0
  0
LINE
  5
1F77
330
1A
100
AcDbEntity
  8
SEIHIN
100
AcDbLine
 10
168.8106659798878
 20
231.6707035089473
 30
0.0
 11
168.8106659798878
 21
229.1707035089473
 31
0.0
  0
LINE
  5
1F85
330
1A
100
AcDbEntity
  8
SEIHIN
100
AcDbLine
 10
159.2488040645271
 20
229.6707035089473
 30
0.0
 11
159.2488040645271
 21
231.1707035089473
 31
0.0
  0
LINE
  5
1F86
330
1A
100
AcDbEntity
  8
SEIHIN
100
AcDbLine
 10
143.7242462015835
 20
229.6707035089473
 30
0.0
 11
143.7242462015835
 21
231.1707035089472
 31
0.0
  0
LINE
  5
1F88
330
1A
100
AcDbEntity
  8
SEIHIN
100
AcDbLine
 10
119.3106659798877
 20
86.6480026016697
 30
0.0
 11
141.7324913645675
 21
86.64800260166968
 31
0.0
  0
LINE
  5
1F89
330
1A
100
AcDbEntity
  8
SEIHIN
100
AcDbLine
 10
145.2680252843322
 20
88.11246870956884
 30
0.0
 11
157.4091203813144
 21
100.2535639015489
 31
0.0
  0
ARC
  5
1F8B
330
1A
100
AcDbEntity
  8
SEIHIN
100
AcDbCircle
 10
160.944654301079
 20
96.71803000944809
 30
0.0
 40
5.0
100
AcDbArc
 50
92.99999987887712
 51
135.0000002241552
  0
ARC
  5
1F93
330
1A
100
AcDbEntity
  8
SEIHIN
100
AcDbCircle
 10
141.7324913645675
 20
91.64800260166968
 30
0.0
 40
5.0
100
AcDbArc
 50
270.0
 51
315.0000002241551
  0
ARC
  5
1F94
330
1A
100
AcDbEntity
  8
SEIHIN
100
AcDbCircle
 10
141.1111710551972
 20
93.1480026016697
 30
0.0
 40
2.0
100
AcDbArc
 50
270.0
 51
315.0000002241553
  0
ARC
  5
1F95
330
1A
100
AcDbEntity
  8
SEIHIN
100
AcDbCircle
 10
141.1111710175703
 20
93.14800260166968
 30
0.0
 40
1.0
100
AcDbArc
 50
270.0
 51
315.0000002241551
  0
DIMENSION
  5
1FF7
330
1A
100
AcDbEntity
  8
SUNPOU
100
AcDbDimension
  2
*D1
 10
308.543402467183
 20
88.01885198632291
 30
0.0
 11
304.3653801190558
 21
105.1957006279844
 31
0.0
 70
    32
  3
STANDARD
100
AcDbAlignedDimension
 13
275.9990832537133
 23
112.6974399923356
 33
0.0
 14
288.9975246757077
 24
80.20066291215458
 34
0.0
 50
111.8010000000003
100
AcDbRotatedDimension
1001
ACAD
1000
DSTYLE
1002
{
1070
    41
1040
3.0
1070
    42
1040
3.0
1070
    43
1040
7.0
1070
    44
1040
1.5
1070
    73
1070
     0
1070
    74
1070
     0
1070
    77
1070
     3
1070
   140
1040
3.0
1070
   141
1040
3.0
1070
   147
1040
1.0
1070
   172
1070
     1
1070
   173
1070
     1
1070
   176
1070
   256
1070
   177
1070
   256
1070
   178
1070
   256
1070
   271
1070
     0
1070
   272
1070
     0
1070
   341
1005
B2
1070
     6
1000
OPEN
1070
     7
1000
OPEN
1002
}
  0
DIMENSION
  5
2006
330
1A
100
AcDbEntity
  8
SUNPOU
100
AcDbDimension
  2
*D2
 10
289.2081987253332
 20
109.3647376126943
 30
0.0
 11
290.0438609256897
 21
114.0071150948574
 31
0.0
 70
    32
  3
STANDARD
100
AcDbAlignedDimension
 13
302.2237002590974
 23
123.1870693828948
 33
0.0
 14
305.1019246496097
 24
115.7220962176477
 34
0.0
 50
111.8010000000003
100
AcDbRotatedDimension
1001
ACAD
1000
DSTYLE
1002
{
1070
    41
1040
3.0
1070
    42
1040
3.0
1070
    43
1040
7.0
1070
    44
1040
1.5
1070
    73
1070
     0
1070
    74
1070
     0
1070
    77
1070
     3
1070
   140
1040
3.0
1070
   141
1040
3.0
1070
   147
1040
1.0
1070
   172
1070
     1
1070
   173
1070
     1
1070
   176
1070
   256
1070
   177
1070
   256
1070
   178
1070
   256
1070
   271
1070
     0
1070
   272
1070
     0
1070
   341
1005
B2
1070
     6
1000
OPEN
1070
     7
1000
OPEN
1002
}
  0
DIMENSION
  5
2015
330
1A
100
AcDbEntity
  8
SUNPOU
100
AcDbDimension
  2
*D3
 10
299.2355678223004
 20
84.2957952936975
 30
0.0
 11
300.0712300226568
 21
88.93817277586064
 31
0.0
 70
    32
  3
STANDARD
100
AcDbAlignedDimension
 13
312.1582214215494
 23
98.08098865983524
 33
0.0
 14
315.2221416810917
 24
90.69029230271384
 34
0.0
 50
111.8010000000003
100
AcDbRotatedDimension
1001
ACAD
1000
DSTYLE
1002
{
1070
    41
1040
3.0
1070
    42
1040
3.0
1070
    43
1040
7.0
1070
    44
1040
1.5
1070
    73
1070
     0
1070
    74
1070
     0
1070
    77
1070
     3
1070
   140
1040
3.0
1070
   141
1040
3.0
1070
   147
1040
1.0
1070
   172
1070
     1
1070
   173
1070
     1
1070
   176
1070
   256
1070
   177
1070
   256
1070
   178
1070
   256
1070
   271
1070
     0
1070
   272
1070
     0
1070
   341
1005
B2
1070
     6
1000
OPEN
1070
     7
1000
OPEN
1002
}
  0
DIMENSION
  5
2022
330
1A
100
AcDbEntity
  8
SUNPOU
100
AcDbDimension
  2
*D4
 10
289.9337098232355
 20
80.57512920985081
 30
0.0
 11
285.7556874751083
 21
97.75197785151231
 31
0.0
 70
    32
  3
STANDARD
100
AcDbAlignedDimension
 13
302.2237002590974
 23
123.1870693828948
 33
0.0
 14
315.2221416810917
 24
90.69029230271384
 34
0.0
 50
111.8010000000003
100
AcDbRotatedDimension
1001
ACAD
1000
DSTYLE
1002
{
1070
    41
1040
3.0
1070
    42
1040
3.0
1070
    43
1040
7.0
1070
    44
1040
1.5
1070
    73
1070
     0
1070
    74
1070
     0
1070
    77
1070
     3
1070
   140
1040
3.0
1070
   141
1040
3.0
1070
   147
1040
1.0
1070
   172
1070
     1
1070
   173
1070
     1
1070
   176
1070
   256
1070
   177
1070
   256
1070
   178
1070
   256
1070
   271
1070
     0
1070
   272
1070
     0
1070
   341
1005
B2
1070
     6
1000
OPEN
1070
     7
1000
OPEN
1002
}
  0
DIMENSION
  5
204C
330
1A
100
AcDbEntity
  8
SUNPOU
100
AcDbDimension
  2
*D5
 10
337.4195124248525
 20
169.8272409397479
 30
0.0
 11
316.0645067300249
 21
163.9779904087928
 31
0.0
 70
    32
  3
STANDARD
100
AcDbAlignedDimension
 13
308.5002060071796
 23
123.6512628708841
 33
0.0
 14
349.3532971936929
 24
139.992160658534
 34
0.0
 50
21.8010000000005
100
AcDbRotatedDimension
1001
ACAD
1000
DSTYLE
1002
{
1070
    41
1040
3.0
1070
    42
1040
3.0
1070
    43
1040
7.0
1070
    44
1040
1.5
1070
    73
1070
     0
1070
    74
1070
     0
1070
    77
1070
     3
1070
   140
1040
3.0
1070
   141
1040
3.0
1070
   147
1040
1.0
1070
   172
1070
     1
1070
   173
1070
     1
1070
   176
1070
   256
1070
   177
1070
   256
1070
   178
1070
   256
1070
   271
1070
     0
1070
   272
1070
     0
1070
   341
1005
B2
1070
     6
1000
OPEN
1070
     7
1000
OPEN
1002
}
  0
DIMENSION
  5
2059
330
1A
100
AcDbEntity
  8
SUNPOU
100
AcDbDimension
  2
*D6
 10
341.9340232715462
 20
182.7744045207733
 30
0.0
 11
312.2227034703862
 21
173.5826976241625
 31
0.0
 70
    32
  3
STANDARD
100
AcDbAlignedDimension
 13
300.5524143455385
 23
119.2874792255656
 33
0.0
 14
358.1181337447166
 24
142.3132897445269
 34
0.0
 50
21.8010000000005
100
AcDbRotatedDimension
1001
ACAD
1000
DSTYLE
1002
{
1070
    41
1040
3.0
1070
    42
1040
3.0
1070
    43
1040
7.0
1070
    44
1040
1.5
1070
    73
1070
     0
1070
    74
1070
     0
1070
    77
1070
     3
1070
   140
1040
3.0
1070
   141
1040
3.0
1070
   147
1040
1.0
1070
   172
1070
     1
1070
   173
1070
     1
1070
   176
1070
   256
1070
   177
1070
   256
1070
   178
1070
   256
1070
   271
1070
     0
1070
   272
1070
     0
1070
   341
1005
B2
1070
     6
1000
OPEN
1070
     7
1000
OPEN
1002
}
  0
DIMENSION
  5
2073
330
1A
100
AcDbEntity
  8
SUNPOU
100
AcDbDimension
  2
*D7
 10
39.97985321155012
 20
209.1707035089473
 30
0.0
 11
37.47985321155008
 21
219.1707035089473
 31
0.0
 70
    32
  3
STANDARD
100
AcDbAlignedDimension
 13
66.8106659798878
 23
229.1707035089473
 33
0.0
 14
66.8106659798878
 24
209.1707035089473
 34
0.0
 50
90.0
100
AcDbRotatedDimension
1001
ACAD
1000
DSTYLE
1002
{
1070
    41
1040
3.0
1070
    42
1040
3.0
1070
    43
1040
7.0
1070
    44
1040
1.5
1070
    73
1070
     0
1070
    74
1070
     0
1070
    77
1070
     3
1070
   140
1040
3.0
1070
   141
1040
3.0
1070
   147
1040
1.0
1070
   172
1070
     1
1070
   173
1070
     1
1070
   176
1070
   256
1070
   177
1070
   256
1070
   178
1070
   256
1070
   271
1070
     0
1070
   272
1070
     0
1070
   341
1005
B2
1070
     6
1000
OPEN
1070
     7
1000
OPEN
1002
}
  0
LINE
  5
2127
330
1A
100
AcDbEntity
  8
SEIHIN
100
AcDbLine
 10
142.598265299531
 20
210.6707035089472
 30
0.0
 11
142.598265299531
 21
209.6707035089473
 31
0.0
  0
LINE
  5
2128
330
1A
100
AcDbEntity
  8
SEIHIN
100
AcDbLine
 10
143.7242462015835
 20
208.6707035089473
 30
0.0
 11
143.7242462015835
 21
207.1707035089473
 31
0.0
  0
LINE
  5
2129
330
1A
100
AcDbEntity
  8
SEIHIN
100
AcDbLine
 10
155.6122355773031
 20
209.6707035089472
 30
0.0
 11
155.6122355773031
 21
210.6707035089473
 31
0.0
  0
LINE
  5
212A
330
1A
100
AcDbEntity
  8
SEIHIN
100
AcDbLine
 10
159.2488040645271
 20
208.6707035089473
 30
0.0
 11
159.2488040645271
 21
207.1707035089473
 31
0.0
  0
LINE
  5
2E27
330
1A
100
AcDbEntity
  8
SEIHIN
100
AcDbLine
 10
255.0454016298878
 20
66.61997038266967
 30
0.0
 11
242.0469601998878
 21
99.11674746166969
 31
0.0
  0
LINE
  5
2E2A
330
1A
100
AcDbEntity
  8
SEIHIN
100
AcDbLine
 10
259.6877983498877
 20
68.47689058266968
 30
0.0
 11
246.6893569298878
 21
100.9736676646696
 31
0.0
  0
LINE
  5
2E2B
330
1A
100
AcDbEntity
  8
SEIHIN
100
AcDbLine
 10
261.1733652998878
 20
69.07110505266968
 30
0.0
 11
248.1749238798877
 21
101.5678821296696
 31
0.0
  0
LINE
  5
2E2E
330
1A
100
AcDbEntity
  8
SEIHIN
100
AcDbLine
 10
261.1733652998878
 20
69.07110505266968
 30
0.0
 11
255.0454016298878
 21
66.61997038266967
 31
0.0
  0
LINE
  5
2E35
330
1A
100
AcDbEntity
  8
SEIHIN
100
AcDbLine
 10
243.5323019798877
 20
99.71087185766968
 30
0.0
 11
242.4948343398877
 21
102.3045409656696
 31
0.0
  0
LINE
  5
2E36
330
1A
100
AcDbEntity
  8
SEIHIN
100
AcDbLine
 10
248.1749238798877
 20
101.5678821296696
 30
0.0
 11
242.0469601998878
 21
99.11674746166969
 31
0.0
  0
ARC
  5
2E38
330
1A
100
AcDbEntity
  8
SEIHIN
100
AcDbCircle
 10
241.5663576298877
 20
101.9331503206696
 30
0.0
 40
5.500000001997857
100
AcDbArc
 50
21.80140844174043
 51
93.00000000644189
  0
ARC
  5
2E39
330
1A
100
AcDbEntity
  8
SEIHIN
100
AcDbCircle
 10
241.5663576298877
 20
101.9331503206696
 30
0.0
 40
1.000000002511349
100
AcDbArc
 50
21.80140741163824
 51
92.99999964505737
  0
LINE
  5
2E3A
330
1A
100
AcDbEntity
  8
SEIHIN
100
AcDbLine
 10
247.7104590406037
 20
101.3821000446107
 30
0.0
 11
246.6729794298877
 21
103.9757990406696
 31
0.0
  0
LINE
  5
2E91
330
1A
100
AcDbEntity
  8
SEIHIN
100
AcDbLine
 10
241.5140216796998
 20
102.9317798582563
 30
0.0
 11
160.6829745304198
 21
101.7111776837741
 31
0.0
  0
LINE
  5
2E92
330
1A
100
AcDbEntity
  8
SEIHIN
100
AcDbLine
 10
159.0737121557064
 20
106.1306931666778
 30
0.0
 11
241.2785098698295
 21
107.4256127637825
 31
0.0
  0
LINE
  5
2E95
330
1A
100
AcDbEntity
  8
SEIHIN
100
AcDbLine
 10
239.3599736798877
 20
107.3250665426696
 30
0.0
 11
238.4343055778877
 21
107.7798808226696
 31
0.0
  0
LINE
  5
2F37
330
1A
100
AcDbEntity
  8
CENTER_L
100
AcDbLine
 10
245.4822721975175
 20
91.87460472383321
 30
0.0
 11
256.8097202083237
 21
96.40549001949985
 31
0.0
  0
LINE
  5
2F38
330
1A
100
AcDbEntity
  8
CENTER_L
100
AcDbLine
 10
252.5385689694572
 20
74.23349716602064
 30
0.0
 11
263.8660169802634
 21
78.76438246168721
 31
0.0
  0
DIMENSION
  5
2F39
330
1A
100
AcDbEntity
  8
SUNPOU
100
AcDbDimension
  2
*D8
 10
274.1318793537292
 20
74.25440324313306
 30
0.0
 11
269.9538570066171
 21
91.43125188315964
 31
0.0
 70
    33
  3
STANDARD
100
AcDbAlignedDimension
 13
248.1749238798877
 23
101.5678821296696
 33
0.0
 14
261.1733652998878
 24
69.07110505266968
 34
0.0
1001
ACAD
1000
DSTYLE
1002
{
1070
    41
1040
3.0
1070
    42
1040
3.0
1070
    43
1040
7.0
1070
    44
1040
1.5
1070
    73
1070
     0
1070
    74
1070
     0
1070
    77
1070
     3
1070
   140
1040
3.0
1070
   141
1040
3.0
1070
   147
1040
1.0
1070
   172
1070
     1
1070
   173
1070
     1
1070
   176
1070
   256
1070
   177
1070
   256
1070
   178
1070
   256
1070
   271
1070
     0
1070
   272
1070
     0
1070
   341
1005
B2
1070
     6
1000
OPEN
1070
     7
1000
OPEN
1002
}
  0
ARC
  5
2F7F
330
1A
100
AcDbEntity
  8
SEIHIN
100
AcDbCircle
 10
336.754017170471
 20
112.2531422632611
 30
0.0
 40
31.99111736042645
100
AcDbArc
 50
98.4265429426208
 51
125.1754570573792
  0
LINE
  5
2F80
330
1A
100
AcDbEntity
  8
SEIHIN
100
AcDbLine
 10
337.5059153747225
 20
137.2996629267744
 30
0.0
 11
354.2185435873872
 21
143.9845756580858
 31
0.0
  0
DIMENSION
  5
2F81
330
1A
100
AcDbEntity
  8
SUNPOU
100
AcDbDimension
  2
*D9
 10
245.763957856485
 20
135.0340112540297
 30
0.0
 11
156.2873119181864
 21
137.5340112540297
 31
0.0
 70
    32
  3
STANDARD
100
AcDbAlignedDimension
 13
66.8106659798878
 23
90.84800260166968
 33
0.0
 14
245.763957856485
 24
107.5954221147473
 34
0.0
100
AcDbRotatedDimension
1001
ACAD
1000
DSTYLE
1002
{
1070
    41
1040
3.0
1070
    42
1040
3.0
1070
    43
1040
7.0
1070
    44
1040
1.5
1070
    73
1070
     0
1070
    74
1070
     0
1070
    77
1070
     3
1070
   140
1040
3.0
1070
   141
1040
3.0
1070
   147
1040
1.0
1070
   172
1070
     1
1070
   173
1070
     1
1070
   176
1070
   256
1070
   177
1070
   256
1070
   178
1070
   256
1070
   271
1070
     0
1070
   272
1070
     0
1070
   341
1005
B2
1070
     6
1000
OPEN
1070
     7
1000
OPEN
1002
}
  0
DIMENSION
  5
2F8E
330
1A
100
AcDbEntity
  8
SUNPOU
100
AcDbDimension
  2
*D10
 10
245.763957856485
 20
125.710498899032
 30
0.0
 11
214.5167832798004
 21
128.210498899032
 31
0.0
 70
    32
  3
STANDARD
100
AcDbAlignedDimension
 13
183.2696087031158
 23
94.87850260166963
 33
0.0
 14
245.763957856485
 24
107.5954221147473
 34
0.0
100
AcDbRotatedDimension
1001
ACAD
1000
DSTYLE
1002
{
1070
    41
1040
3.0
1070
    42
1040
3.0
1070
    43
1040
7.0
1070
    44
1040
1.5
1070
    73
1070
     0
1070
    74
1070
     0
1070
    77
1070
     3
1070
   140
1040
3.0
1070
   141
1040
3.0
1070
   147
1040
1.0
1070
   172
1070
     1
1070
   173
1070
     1
1070
   176
1070
   256
1070
   177
1070
   256
1070
   178
1070
   256
1070
   271
1070
     0
1070
   272
1070
     0
1070
   341
1005
B2
1070
     6
1000
OPEN
1070
     7
1000
OPEN
1002
}
  0
DIMENSION
  5
2FF7
330
1A
100
AcDbEntity
  8
SUNPOU
100
AcDbDimension
  2
*D11
 10
39.97985321155008
 20
69.07110505266974
 30
0.0
 11
37.47985321155008
 21
79.95955382716971
 31
0.0
 70
    32
  3
STANDARD
100
AcDbAlignedDimension
 13
66.8106659798878
 23
90.84800260166968
 33
0.0
 14
261.1733652998878
 24
69.07110505266968
 34
0.0
 50
90.0
100
AcDbRotatedDimension
1001
ACAD
1000
DSTYLE
1002
{
1070
    41
1040
3.0
1070
    42
1040
3.0
1070
    43
1040
7.0
1070
    44
1040
1.5
1070
    73
1070
     0
1070
    74
1070
     0
1070
    77
1070
     3
1070
   140
1040
3.0
1070
   141
1040
3.0
1070
   147
1040
1.0
1070
   172
1070
     1
1070
   173
1070
     1
1070
   176
1070
   256
1070
   177
1070
   256
1070
   178
1070
   256
1070
   271
1070
     0
1070
   272
1070
     0
1070
   341
1005
B2
1070
     6
1000
OPEN
1070
     7
1000
OPEN
1002
}
  0
LEADER
  5
3021
330
1A
100
AcDbEntity
  8
SUNPOU
100
AcDbLeader
  3
STANDARD
 73
     0
 40
3.0
 41
15.59999999999999
 76
     3
 10
308.7932819356492
 20
118.7084892967498
 30
0.0
 10
286.4249811074125
 20
136.757803431785
 30
0.0
 10
284.383686709139
 20
136.757803431785
 30
0.0
340
3022
213
0.0
223
1.5
233
0.0
1001
ACAD
1000
DSTYLE
1002
{
1070
     6
1000
OPEN
1070
    41
1040
3.0
1070
    42
1040
3.0
1070
    43
1040
7.0
1070
    44
1040
1.5
1070
    73
1070
     0
1070
    74
1070
     0
1070
    77
1070
     0
1070
   140
1040
3.0
1070
   141
1040
3.0
1070
   147
1040
1.0
1070
   172
1070
     1
1070
   173
1070
     1
1070
   176
1070
   256
1070
   177
1070
   256
1070
   178
1070
   256
1070
   271
1070
     0
1070
   272
1070
     0
1070
   341
1005
B2
1070
   343
1005
B2
1070
   344
1005
B2
1002
}
  0
MTEXT
  5
3022
102
{ACAD_REACTORS
330
3021
102
}
330
1A
100
AcDbEntity
  8
SUNPOU
100
AcDbMText
 10
283.383686709139
 20
135.257803431785
 30
0.0
 40
3.0
 41
0.0
 71
     9
 72
     5
  1
4-φ4.2
1001
ACAD
1000
MTEXTBEGIN
1070
    73
1070
     1
1070
    44
1040
1.0
1070
    74
1070
     0
1000
MTEXTEND
1000
MTEXTBEGIN
1070
    73
1070
     1
1070
    44
1040
1.0
1070
    74
1070
     0
1000
MTEXTEND
1000
MTEXTBEGIN
1070
    73
1070
     1
1070
    44
1040
1.0
1070
    74
1070
     0
1000
MTEXTEND
1000
MTEXTBEGIN
1070
    73
1070
     1
1070
    44
1040
1.0
1070
    74
1070
     0
1000
MTEXTEND
1000
MTEXTBEGIN
1070
    73
1070
     1
1070
    44
1040
1.0
1070
    74
1070
     0
1000
MTEXTEND
1000
MTEXTBEGIN
1070
    73
1070
     1
1070
    44
1040
1.0
1070
    74
1070
     0
1000
MTEXTEND
1000
MTEXTBEGIN
1070
    73
1070
     1
1070
    44
1040
1.0
1070
    74
1070
     0
1000
MTEXTEND
1000
MTEXTBEGIN
1070
    73
1070
     1
1070
    44
1040
1.0
1070
    74
1070
     0
1000
MTEXTEND
  0
LINE
  5
32E8
330
1A
100
AcDbEntity
  8
SEIHIN
100
AcDbLine
 10
159.0503945640829
 20
107.130421233787
 30
0.0
 11
238.4343055769998
 21
107.7798808228969
 31
0.0
  0
LINE
  5
3326
330
1A
100
AcDbEntity
  8
SUNPOU
100
AcDbLine
 10
261.1733652998878
 20
69.07110505266968
 30
0.0
 11
272.6011788269699
 21
40.50157123496451
 31
0.0
  0
LINE
  5
3327
330
1A
100
AcDbEntity
  8
SUNPOU
100
AcDbLine
 10
268.6011788269698
 20
40.50157123496451
 30
0.0
 11
268.6011788269698
 21
50.50157123496451
 31
0.0
  0
LINE
  5
3328
330
1A
100
AcDbEntity
  8
SUNPOU
100
AcDbLine
 10
272.6011788269699
 20
40.50157123496451
 30
0.0
 11
268.6011788269698
 21
40.50157123496451
 31
0.0
  0
TEXT
  5
3329
330
1A
100
AcDbEntity
  8
SUNPOU
100
AcDbText
 10
269.3573030385608
 20
35.41817445456691
 30
0.0
 40
3.0
  1
4
100
AcDbText
  0
TEXT
  5
332A
330
1A
100
AcDbEntity
  8
SUNPOU
100
AcDbText
 10
262.8821594407734
 20
44.66071355968058
 30
0.0
 40
3.0
  1
10
100
AcDbText
  0
LINE
  5
3425
330
1A
100
AcDbEntity
  8
SEIHIN
100
AcDbLine
 10
261.1733652998878
 20
247.1707035089473
 30
0.0
 11
261.1733652998878
 21
230.4707035089473
 31
0.0
  0
LINE
  5
3426
330
1A
100
AcDbEntity
  8
SEIHIN
100
AcDbLine
 10
246.6893568998877
 20
231.5707035089473
 30
0.0
 11
246.6893568998877
 21
247.1707035089473
 31
0.0
  0
LINE
  5
3427
330
1A
100
AcDbEntity
  8
SEIHIN
100
AcDbLine
 10
248.1749237998877
 20
230.4707035089473
 30
0.0
 11
248.1749237998877
 21
247.1707035089473
 31
0.0
  0
DIMENSION
  5
3428
330
1A
100
AcDbEntity
  8
SUNPOU
100
AcDbDimension
  2
*D12
 10
284.1161223370849
 20
188.1707035089473
 30
0.0
 11
281.6161223370849
 21
219.1707035089473
 31
0.0
 70
    32
  3
STANDARD
100
AcDbAlignedDimension
 13
260.0592131532991
 23
250.1707035089473
 33
0.0
 14
260.0592131532991
 24
188.1707035089473
 34
0.0
 50
90.0
100
AcDbRotatedDimension
1001
ACAD
1000
DSTYLE
1002
{
1070
    41
1040
3.0
1070
    42
1040
3.0
1070
    43
1040
7.0
1070
    44
1040
1.5
1070
    73
1070
     0
1070
    74
1070
     0
1070
    77
1070
     3
1070
   140
1040
3.0
1070
   141
1040
3.0
1070
   147
1040
1.0
1070
   172
1070
     1
1070
   173
1070
     1
1070
   176
1070
   256
1070
   177
1070
   256
1070
   178
1070
   256
1070
   271
1070
     0
1070
   272
1070
     0
1070
   341
1005
B2
1070
     6
1000
OPEN
1070
     7
1000
OPEN
1002
}
  0
ARC
  5
3429
330
1A
100
AcDbEntity
  8
SEIHIN
100
AcDbCircle
 10
246.3893568998877
 20
231.5707035089473
 30
0.0
 40
0.3
100
AcDbArc
 50
269.9999999999885
 51
0.0000000000130276
  0
LINE
  5
342B
330
1A
100
AcDbEntity
  8
SEIHIN
100
AcDbLine
 10
260.3733652998877
 20
229.6707035089473
 30
0.0
 11
243.8325271138895
 21
229.6707035089473
 31
0.0
  0
ARC
  5
342C
330
1A
100
AcDbEntity
  8
SEIHIN
100
AcDbCircle
 10
246.3893568998877
 20
206.7707035089473
 30
0.0
 40
0.3
100
AcDbArc
 50
359.9999999999869
 51
90.0000000000106
  0
LINE
  5
342D
330
1A
100
AcDbEntity
  8
SEIHIN
100
AcDbLine
 10
260.3733652998877
 20
208.6707035089473
 30
0.0
 11
243.8325271138895
 21
208.6707035089473
 31
0.0
  0
LINE
  5
342F
330
1A
100
AcDbEntity
  8
CENTER_L
100
AcDbLine
 10
246.3659547040491
 20
197.1707035089473
 30
0.0
 11
263.4629113295514
 21
197.1707035089473
 31
0.0
  0
ELLIPSE
  5
3430
330
1A
100
AcDbEntity
  8
SEIHIN
100
AcDbEllipse
 10
247.8035090464763
 20
191.1707035089473
 30
0.0
 11
-0.0000000000000155
 21
3.0
 31
0.0
210
0.0
220
0.0
230
1.0
 40
0.3713840488628743
 41
1.570796326794894
 42
3.141592653589778
  0
LINE
  5
3431
330
1A
100
AcDbEntity
  8
SEIHIN
100
AcDbLine
 10
242.0469601998878
 20
207.8707035089473
 30
0.0
 11
242.0469601998878
 21
209.1707035089473
 31
0.0
  0
LINE
  5
3432
330
1A
100
AcDbEntity
  8
SEIHIN
100
AcDbLine
 10
243.5325271138895
 20
208.9707035089473
 30
0.0
 11
243.5325271138895
 21
209.1707035089473
 31
0.0
  0
LINE
  5
3433
330
1A
100
AcDbEntity
  8
SEIHIN
100
AcDbLine
 10
246.6893568998877
 20
206.7707035089473
 30
0.0
 11
246.6893568998877
 21
191.1707035089473
 31
0.0
  0
ARC
  5
3434
330
1A
100
AcDbEntity
  8
SEIHIN
100
AcDbCircle
 10
242.8469601998878
 20
207.8707035089474
 30
0.0
 40
0.8
100
AcDbArc
 50
180.0000000000065
 51
269.9999999999975
  0
ARC
  5
3435
330
1A
100
AcDbEntity
  8
SEIHIN
100
AcDbCircle
 10
243.8325271138895
 20
208.9707035089472
 30
0.0
 40
0.3
100
AcDbArc
 50
179.9999999999837
 51
270.0000000000105
  0
LINE
  5
3436
330
1A
100
AcDbEntity
  8
SEIHIN
100
AcDbLine
 10
242.8469601998878
 20
207.0707035089473
 30
0.0
 11
246.3893568998877
 21
207.0707035089473
 31
0.0
  0
ARC
  5
3437
330
1A
100
AcDbEntity
  8
SEIHIN
100
AcDbCircle
 10
242.8469601998878
 20
230.4707035089472
 30
0.0
 40
0.8
100
AcDbArc
 50
90.00000000000161
 51
179.9999999999934
  0
ARC
  5
3438
330
1A
100
AcDbEntity
  8
SEIHIN
100
AcDbCircle
 10
243.8325271138895
 20
229.3707035089473
 30
0.0
 40
0.3
100
AcDbArc
 50
89.99999999998861
 51
180.0000000000162
  0
LINE
  5
3439
330
1A
100
AcDbEntity
  8
SEIHIN
100
AcDbLine
 10
242.8469601998878
 20
231.2707035089473
 30
0.0
 11
246.3893568998877
 21
231.2707035089473
 31
0.0
  0
LINE
  5
343A
330
1A
100
AcDbEntity
  8
SEIHIN
100
AcDbLine
 10
256.5309686138895
 20
208.9707035089473
 30
0.0
 11
256.5309686138895
 21
209.1707035089473
 31
0.0
  0
LINE
  5
343B
330
1A
100
AcDbEntity
  8
SEIHIN
100
AcDbLine
 10
248.1749237998877
 20
207.8707035089473
 30
0.0
 11
248.1749237998877
 21
191.1707035089473
 31
0.0
  0
LINE
  5
343C
330
1A
100
AcDbEntity
  8
SEIHIN
100
AcDbLine
 10
261.1733652998878
 20
191.1707035089473
 30
0.0
 11
261.1733652998878
 21
207.8707035089473
 31
0.0
  0
LINE
  5
343D
330
1A
100
AcDbEntity
  8
CENTER_L
100
AcDbLine
 10
251.1459961563166
 20
203.2707035089473
 30
0.0
 11
251.1459961563166
 21
191.070847959355
 31
0.0
  0
LINE
  5
343E
330
1A
100
AcDbEntity
  8
CENTER_L
100
AcDbLine
 10
258.2022929610518
 20
203.2707035089473
 30
0.0
 11
258.2022929610518
 21
191.070847959355
 31
0.0
  0
ELLIPSE
  5
343F
330
1A
100
AcDbEntity
  8
SEIHIN
100
AcDbEllipse
 10
251.1459961563166
 20
197.1707035089473
 30
0.0
 11
0.0
 21
2.099999999999994
 31
0.0
210
0.0
220
0.0
230
1.0
 40
0.3713840423544865
 41
0.0
 42
6.283185307179586
  0
ELLIPSE
  5
3440
330
1A
100
AcDbEntity
  8
SEIHIN
100
AcDbEllipse
 10
258.2022929610518
 20
197.1707035089473
 30
0.0
 11
0.0
 21
2.099999999999994
 31
0.0
210
0.0
220
0.0
230
1.0
 40
0.3713840423544865
 41
0.0
 42
6.283185307179586
  0
LINE
  5
3441
330
1A
100
AcDbEntity
  8
SEIHIN
100
AcDbLine
 10
260.0592131532991
 20
188.1707035089473
 30
0.0
 11
247.8035090464763
 21
188.1707035089473
 31
0.0
  0
ELLIPSE
  5
3442
330
1A
100
AcDbEntity
  8
SEIHIN
100
AcDbEllipse
 10
249.2890759464764
 20
191.1707035089473
 30
0.0
 11
-0.0000000000000155
 21
3.0
 31
0.0
210
0.0
220
0.0
230
1.0
 40
0.3713840488628743
 41
1.570796326794894
 42
3.141592653589778
  0
ELLIPSE
  5
3443
330
1A
100
AcDbEntity
  8
SEIHIN
100
AcDbEllipse
 10
260.0592131532991
 20
191.1707035089473
 30
0.0
 11
0.0000000000000157
 21
3.0
 31
0.0
210
0.0
220
0.0
230
1.0
 40
0.3713840488628743
 41
3.141592653589807
 42
4.712388980384691
  0
LINE
  5
3444
330
1A
100
AcDbEntity
  8
SEIHIN
100
AcDbLine
 10
252.1459961563166
 20
206.6707035089473
 30
0.0
 11
250.1459961563166
 21
206.6707035089473
 31
0.0
  0
LINE
  5
3445
330
1A
100
AcDbEntity
  8
SEIHIN
100
AcDbLine
 10
250.1459961563166
 20
206.6707035089473
 30
0.0
 11
250.1459961563166
 21
207.8707035089473
 31
0.0
  0
ARC
  5
3446
330
1A
100
AcDbEntity
  8
SEIHIN
100
AcDbCircle
 10
247.3749237998878
 20
207.8707035089473
 30
0.0
 40
0.8
100
AcDbArc
 50
0.0
 51
90.00000000000161
  0
ARC
  5
3447
330
1A
100
AcDbEntity
  8
SEIHIN
100
AcDbCircle
 10
249.3459961563166
 20
207.8707035089473
 30
0.0
 40
0.8
100
AcDbArc
 50
0.0
 51
90.00000000000161
  0
LINE
  5
3448
330
1A
100
AcDbEntity
  8
SEIHIN
100
AcDbLine
 10
252.1459961563166
 20
206.6707035089473
 30
0.0
 11
252.1459961563166
 21
207.8707035089473
 31
0.0
  0
ARC
  5
3449
330
1A
100
AcDbEntity
  8
SEIHIN
100
AcDbCircle
 10
251.3459961563166
 20
207.8707035089473
 30
0.0
 40
0.8
100
AcDbArc
 50
0.0
 51
90.00000000000161
  0
ARC
  5
344A
330
1A
100
AcDbEntity
  8
SEIHIN
100
AcDbCircle
 10
258.4022929610518
 20
207.8707035089473
 30
0.0
 40
0.8
100
AcDbArc
 50
0.0
 51
90.00000000000161
  0
LINE
  5
344B
330
1A
100
AcDbEntity
  8
SEIHIN
100
AcDbLine
 10
259.2022929610518
 20
206.6707035089473
 30
0.0
 11
257.2022929610518
 21
206.6707035089473
 31
0.0
  0
ARC
  5
344C
330
1A
100
AcDbEntity
  8
SEIHIN
100
AcDbCircle
 10
256.8309686138895
 20
208.9707035089472
 30
0.0
 40
0.3
100
AcDbArc
 50
179.9999999999837
 51
270.0000000000105
  0
LINE
  5
344D
330
1A
100
AcDbEntity
  8
SEIHIN
100
AcDbLine
 10
257.2022929610518
 20
206.6707035089473
 30
0.0
 11
257.2022929610518
 21
207.8707035089473
 31
0.0
  0
ARC
  5
344E
330
1A
100
AcDbEntity
  8
SEIHIN
100
AcDbCircle
 10
256.4022929610519
 20
207.8707035089473
 30
0.0
 40
0.8
100
AcDbArc
 50
0.0
 51
90.00000000000161
  0
ARC
  5
344F
330
1A
100
AcDbEntity
  8
SEIHIN
100
AcDbCircle
 10
260.3733652998877
 20
207.8707035089473
 30
0.0
 40
0.8
100
AcDbArc
 50
0.0
 51
90.00000000000161
  0
LINE
  5
3450
330
1A
100
AcDbEntity
  8
SEIHIN
100
AcDbLine
 10
259.2022929610518
 20
206.6707035089473
 30
0.0
 11
259.2022929610518
 21
207.8707035089473
 31
0.0
  0
LINE
  5
3452
330
1A
100
AcDbEntity
  8
SEIHIN
100
AcDbLine
 10
247.7106841985296
 20
210.1707035089472
 30
0.0
 11
247.7106841985296
 21
228.1707035089473
 31
0.0
  0
LINE
  5
3455
330
1A
100
AcDbEntity
  8
SEIHIN
100
AcDbLine
 10
251.3006996590064
 20
215.1707035089473
 30
0.0
 11
244.5506045653107
 21
215.1707035089473
 31
0.0
  0
LINE
  5
3456
330
1A
100
AcDbEntity
  8
SEIHIN
100
AcDbLine
 10
252.1459961563166
 20
231.6707035089473
 30
0.0
 11
250.1459961563166
 21
231.6707035089473
 31
0.0
  0
LINE
  5
3457
330
1A
100
AcDbEntity
  8
SEIHIN
100
AcDbLine
 10
250.1459961563166
 20
231.6707035089473
 30
0.0
 11
250.1459961563166
 21
230.4707035089473
 31
0.0
  0
ARC
  5
3458
330
1A
100
AcDbEntity
  8
SEIHIN
100
AcDbCircle
 10
247.3749237998878
 20
230.4707035089473
 30
0.0
 40
0.8
100
AcDbArc
 50
269.9999999999975
 51
0.0
  0
ARC
  5
3459
330
1A
100
AcDbEntity
  8
SEIHIN
100
AcDbCircle
 10
249.3459961563166
 20
230.4707035089473
 30
0.0
 40
0.8
100
AcDbArc
 50
269.9999999999975
 51
0.0
  0
LINE
  5
345A
330
1A
100
AcDbEntity
  8
SEIHIN
100
AcDbLine
 10
252.1459961563166
 20
231.6707035089473
 30
0.0
 11
252.1459961563166
 21
230.4707035089473
 31
0.0
  0
ARC
  5
345B
330
1A
100
AcDbEntity
  8
SEIHIN
100
AcDbCircle
 10
251.3459961563166
 20
230.4707035089473
 30
0.0
 40
0.8
100
AcDbArc
 50
269.9999999999975
 51
0.0
  0
LINE
  5
345D
330
1A
100
AcDbEntity
  8
SEIHIN
100
AcDbLine
 10
251.3006996590064
 20
223.1707035089473
 30
0.0
 11
244.5506045653107
 21
223.1707035089473
 31
0.0
  0
ARC
  5
345F
330
1A
100
AcDbEntity
  8
SEIHIN
100
AcDbCircle
 10
258.4022929610518
 20
230.4707035089473
 30
0.0
 40
0.8
100
AcDbArc
 50
269.9999999999975
 51
0.0
  0
LINE
  5
3460
330
1A
100
AcDbEntity
  8
SEIHIN
100
AcDbLine
 10
259.2022929610518
 20
231.6707035089473
 30
0.0
 11
257.2022929610518
 21
231.6707035089473
 31
0.0
  0
ARC
  5
3461
330
1A
100
AcDbEntity
  8
SEIHIN
100
AcDbCircle
 10
256.8309686138895
 20
229.3707035089473
 30
0.0
 40
0.3
100
AcDbArc
 50
89.99999999998861
 51
180.0000000000162
  0
LINE
  5
3462
330
1A
100
AcDbEntity
  8
SEIHIN
100
AcDbLine
 10
257.2022929610518
 20
231.6707035089473
 30
0.0
 11
257.2022929610518
 21
230.4707035089473
 31
0.0
  0
ARC
  5
3463
330
1A
100
AcDbEntity
  8
SEIHIN
100
AcDbCircle
 10
256.4022929610519
 20
230.4707035089473
 30
0.0
 40
0.8
100
AcDbArc
 50
269.9999999999975
 51
0.0
  0
LINE
  5
3464
330
1A
100
AcDbEntity
  8
SEIHIN
100
AcDbLine
 10
256.5309686138895
 20
229.3707035089473
 30
0.0
 11
256.5309686138895
 21
229.1707035089473
 31
0.0
  0
ARC
  5
3465
330
1A
100
AcDbEntity
  8
SEIHIN
100
AcDbCircle
 10
260.3733652998877
 20
230.4707035089473
 30
0.0
 40
0.8
100
AcDbArc
 50
269.9999999999975
 51
0.0
  0
LINE
  5
3466
330
1A
100
AcDbEntity
  8
SEIHIN
100
AcDbLine
 10
259.2022929610518
 20
231.6707035089473
 30
0.0
 11
259.2022929610518
 21
230.4707035089473
 31
0.0
  0
LINE
  5
3467
330
1A
100
AcDbEntity
  8
CENTER_L
100
AcDbLine
 10
246.3659547040491
 20
241.1707035089473
 30
0.0
 11
263.4629113295514
 21
241.1707035089473
 31
0.0
  0
ELLIPSE
  5
3468
330
1A
100
AcDbEntity
  8
SEIHIN
100
AcDbEllipse
 10
247.8035090464763
 20
247.1707035089473
 30
0.0
 11
-0.0000000000000017
 21
3.0
 31
0.0
210
0.0
220
0.0
230
-1.0
 40
0.3713840488628743
 41
-1.570796326794896
 42
0.0000000000000018
  0
LINE
  5
3469
330
1A
100
AcDbEntity
  8
CENTER_L
100
AcDbLine
 10
258.2022929610518
 20
235.0707035089472
 30
0.0
 11
258.2022929610518
 21
247.2705590585395
 31
0.0
  0
LINE
  5
346A
330
1A
100
AcDbEntity
  8
CENTER_L
100
AcDbLine
 10
251.1459961563166
 20
235.0707035089472
 30
0.0
 11
251.1459961563166
 21
247.2705590585395
 31
0.0
  0
ELLIPSE
  5
346B
330
1A
100
AcDbEntity
  8
SEIHIN
100
AcDbEllipse
 10
251.1459961563166
 20
241.1707035089473
 30
0.0
 11
0.0
 21
-2.099999999999994
 31
0.0
210
0.0
220
0.0
230
-1.0
 40
0.3713840423544865
 41
0.0
 42
6.283185307179586
  0
ELLIPSE
  5
346C
330
1A
100
AcDbEntity
  8
SEIHIN
100
AcDbEllipse
 10
258.2022929610518
 20
241.1707035089473
 30
0.0
 11
0.0
 21
-2.099999999999994
 31
0.0
210
0.0
220
0.0
230
-1.0
 40
0.3713840423544865
 41
0.0
 42
6.283185307179586
  0
LINE
  5
346D
330
1A
100
AcDbEntity
  8
SEIHIN
100
AcDbLine
 10
260.0592131532991
 20
250.1707035089473
 30
0.0
 11
247.8035090464763
 21
250.1707035089473
 31
0.0
  0
ELLIPSE
  5
346E
330
1A
100
AcDbEntity
  8
SEIHIN
100
AcDbEllipse
 10
249.2890759464764
 20
247.1707035089473
 30
0.0
 11
-0.0000000000000017
 21
3.0
 31
0.0
210
0.0
220
0.0
230
-1.0
 40
0.3713840488628743
 41
-1.570796326794896
 42
0.0000000000000018
  0
ELLIPSE
  5
346F
330
1A
100
AcDbEntity
  8
SEIHIN
100
AcDbEllipse
 10
260.0592131532991
 20
247.1707035089473
 30
0.0
 11
0.0000000000000019
 21
3.0
 31
0.0
210
0.0
220
0.0
230
-1.0
 40
0.3713840488628742
 41
-0.000000000000002
 42
1.570796326794896
  0
LINE
  5
3485
330
1A
100
AcDbEntity
  8
SEIHIN
100
AcDbLine
 10
260.7091256985296
 20
209.1707035089473
 30
0.0
 11
260.7091256985296
 21
229.1707035089473
 31
0.0
  0
LINE
  5
3486
330
1A
100
AcDbEntity
  8
SEIHIN
100
AcDbLine
 10
242.0469601998878
 20
229.1707035089473
 30
0.0
 11
242.0469601998878
 21
230.4707035089472
 31
0.0
  0
LINE
  5
3487
330
1A
100
AcDbEntity
  8
SEIHIN
100
AcDbLine
 10
243.5325271138895
 20
229.1707035089473
 30
0.0
 11
243.5325271138895
 21
229.3707035089473
 31
0.0
  0
LINE
  5
368A
330
1A
100
AcDbEntity
  8
ZUWAKU
100
AcDbLine
 10
104.3233006308625
 20
7.599999859644409
 30
0.0
 11
223.7121819713241
 21
7.599999859644405
 31
0.0
  0
LINE
  5
368B
330
1A
100
AcDbEntity
  8
ZUWAKU
100
AcDbLine
 10
104.3233006308625
 20
7.799999859644406
 30
0.0
 11
223.7121819713241
 21
7.79999985964441
 31
0.0
  0
LINE
  5
368C
330
1A
100
AcDbEntity
  8
ZUWAKU
100
AcDbLine
 10
104.3233006308625
 20
7.699999859644407
 30
0.0
 11
223.7121819713241
 21
7.699999859644407
 31
0.0
  0
LINE
  5
368D
330
1A
100
AcDbEntity
  8
ZUWAKU
100
AcDbLine
 10
-0.0000000141715191
 20
15.39999985964439
 30
0.0
 11
398.6999999858284
 21
15.39999985964439
 31
0.0
  0
LINE
  5
368E
330
1A
100
AcDbEntity
  8
ZUWAKU
100
AcDbLine
 10
-0.0000000141715191
 20
15.29999985964439
 30
0.0
 11
398.6999999858284
 21
15.29999985964439
 31
0.0
  0
LINE
  5
368F
330
1A
100
AcDbEntity
  8
ZUWAKU
100
AcDbLine
 10
-0.0000000141715191
 20
15.19999985964439
 30
0.0
 11
398.6999999858284
 21
15.19999985964439
 31
0.0
  0
LINE
  5
3690
330
1A
100
AcDbEntity
  8
ZUWAKU
100
AcDbLine
 10
-0.0000000141715191
 20
15.09999985964439
 30
0.0
 11
398.6999999858284
 21
15.09999985964439
 31
0.0
  0
LINE
  5
3691
330
1A
100
AcDbEntity
  8
ZUWAKU
100
AcDbLine
 10
-0.0000000141715191
 20
14.99999985964439
 30
0.0
 11
398.6999999858284
 21
14.99999985964439
 31
0.0
  0
LWPOLYLINE
  5
3692
330
1A
100
AcDbEntity
  8
ZUWAKU
100
AcDbPolyline
 90
        4
 70
     1
 43
0.0
 10
0.0999999858284468
 20
275.6999998596444
 10
0.0999999858284468
 20
0.099999859644413
 10
398.6999999858284
 20
0.0999998596444245
 10
398.6999999858285
 20
275.6999998596444
  0
LWPOLYLINE
  5
3693
330
1A
100
AcDbEntity
  8
ZUWAKU
100
AcDbPolyline
 90
        4
 70
     1
 43
0.0
 10
0.2999999858284354
 20
275.4999998596444
 10
0.2999999858284354
 20
0.2999998596444016
 10
398.4999999858286
 20
0.2999998596444246
 10
398.4999999858284
 20
275.4999998596444
  0
LWPOLYLINE
  5
3694
330
1A
100
AcDbEntity
  8
ZUWAKU
100
AcDbPolyline
 90
        4
 70
     1
 43
0.0
 10
-0.0000000141715191
 20
275.7999998596444
 10
-0.0000000141715191
 20
-0.0000001403556098
 10
398.7999999858285
 20
-0.0000001403555761
 10
398.7999999858285
 20
275.7999998596444
  0
LWPOLYLINE
  5
3695
330
1A
100
AcDbEntity
  8
ZUWAKU
100
AcDbPolyline
 90
        4
 70
     1
 43
0.0
 10
0.1999999858284695
 20
275.5999998596444
 10
0.1999999858284695
 20
0.1999998596444357
 10
398.5999999858285
 20
0.1999998596444241
 10
398.5999999858285
 20
275.5999998596444
  0
LWPOLYLINE
  5
3696
330
1A
100
AcDbEntity
  8
ZUWAKU
100
AcDbPolyline
 90
        4
 70
     1
 43
0.0
 10
0.3999999858284582
 20
275.3999998596444
 10
0.3999999858284582
 20
0.3999998596444243
 10
398.3999999858284
 20
0.3999998596444243
 10
398.3999999858284
 20
275.3999998596444
  0
TEXT
  5
3697
330
1A
100
AcDbEntity
  8
MOJI
100
AcDbText
 10
46.47889477991305
 20
6.37058892478177
 30
0.0
 40
3.0
  1
新・丸トップＲＶ１０５
 41
0.9
  7
ｽﾀｲﾙ1
100
AcDbText
  0
HATCH
  5
3698
330
1A
100
AcDbEntity
  8
ZUWAKU
100
AcDbHatch
 10
0.0
 20
0.0
 30
0.0
210
0.0
220
0.0
230
1.0
  2
ANSI37
 70
     0
 71
     0
 91
        8
 92
        7
 72
     1
 73
     1
 93
       24
 10
7.251131316388409
 20
8.822424100136181
 42
-0.1989123673796348
 10
7.046106063219042
 20
9.317398846966707
 42
0.0
 10
7.046106063219042
 20
9.962499859644395
 42
-0.4142135623730912
 10
7.308606063219031
 20
10.22499985964439
 42
0.0
 10
8.796106063218985
 20
10.22499985964439
 42
0.4142135623731546
 10
9.058606063219031
 20
10.48749985964438
 42
0.0
 10
9.058606063219031
 20
11.36249985964439
 42
0.4142135623731586
 10
8.796106063218985
 20
11.62499985964439
 42
0.0
 10
7.046106063219042
 20
11.62499985964439
 42
0.4142135623730928
 10
5.646106063219065
 20
10.2249998596444
 42
0.0
 10
5.646106063219065
 20
9.317398846966771
 42
0.1989123673796619
 10
6.26118182272728
 20
7.832474606474967
 42
0.0
 10
7.716080810049618
 20
6.377575619152638
 42
-0.1989123673796613
 10
7.921106063219042
 20
5.882600872322045
 42
0.0
 10
7.921106063219042
 20
5.237499859644387
 42
-0.4142135623730911
 10
7.658606063219053
 20
4.974999859644391
 42
0.0
 10
6.171106063219099
 20
4.974999859644391
 42
0.4142135623731526
 10
5.908606063219053
 20
4.712499859644397
 42
0.0
 10
5.908606063219053
 20
3.837499859644387
 42
0.4142135623731526
 10
6.171106063219099
 20
3.574999859644393
 42
0.0
 10
7.921106063219042
 20
3.574999859644393
 42
0.4142135623731044
 10
9.321106063219076
 20
4.97499985964438
 42
0.0
 10
9.321106063219076
 20
5.882600872322017
 42
0.1989123673796604
 10
8.706030303710804
 20
7.367525112813787
 42
0.0
 97
        0
 92
        7
 72
     1
 73
     1
 93
       16
 10
11.77110606321906
 20
9.524999859644395
 42
-0.4142135623730935
 10
12.47110606321905
 20
10.22499985964439
 42
0.0
 10
13.43360606321903
 20
10.22499985964439
 42
0.4142135623731546
 10
13.69610606321907
 20
10.48749985964438
 42
0.0
 10
13.69610606321907
 20
11.36249985964439
 42
0.4142135623730951
 10
13.43360606321908
 20
11.62499985964439
 42
0.0
 10
12.47110606321899
 20
11.62499985964437
 42
0.4142135623730892
 10
10.37110606321903
 20
9.52499985964436
 42
0.0
 10
10.37110606321903
 20
5.674999859644405
 42
0.4142135623730969
 10
12.47110606321905
 20
3.574999859644393
 42
0.0
 10
13.43360606321903
 20
3.574999859644393
 42
0.4142135623731526
 10
13.69610606321907
 20
3.837499859644387
 42
0.0
 10
13.69610606321907
 20
4.712499859644397
 42
0.4142135623730891
 10
13.43360606321908
 20
4.974999859644391
 42
0.0
 10
12.47110606321905
 20
4.974999859644391
 42
-0.4142135623730928
 10
11.77110606321906
 20
5.674999859644385
 42
0.0
 97
        0
 92
        7
 72
     1
 73
     1
 93
        2
 10
12.12110606321903
 20
7.599999859644391
 42
1.0
 10
13.87110606321903
 20
7.599999859644391
 42
1.0
 97
        0
 92
        7
 72
     1
 73
     1
 93
       26
 10
18.65742930430803
 20
9.602523456426105
 42
0.0
 10
19.18824912087694
 20
11.2834528755609
 42
0.5069206636600134
 10
18.93793367127926
 20
11.62499985964439
 42
0.0
 10
18.08848898147465
 20
11.62499985964439
 42
0.3272098845218764
 10
17.83817353187697
 20
11.44154684372787
 42
0.0
 10
16.90403859456108
 20
8.483452875560931
 42
-0.3272098845219541
 10
16.65372314496335
 20
8.29999985964439
 42
0.0
 10
16.58360606321912
 20
8.29999985964439
 42
-0.4142135623731526
 10
16.32110606321907
 20
8.562499859644384
 42
0.0
 10
16.32110606321907
 20
11.36249985964439
 42
0.4142135623730951
 10
16.05860606321908
 20
11.62499985964439
 42
0.0
 10
15.18360606321903
 20
11.62499985964439
 42
0.4142135623730871
 10
14.92110606321904
 20
11.3624998596444
 42
0.0
 10
14.92110606321904
 20
3.837499859644387
 42
0.4142135623730891
 10
15.18360606321903
 20
3.574999859644393
 42
0.0
 10
16.05860606321903
 20
3.574999859644393
 42
0.4142135623731526
 10
16.32110606321907
 20
3.837499859644387
 42
0.0
 10
16.32110606321907
 20
6.637499859644398
 42
-0.4142135623731526
 10
16.58360606321912
 20
6.899999859644392
 42
0.0
 10
16.6537231449634
 20
6.899999859644392
 42
-0.3272098845218915
 10
16.90403859456108
 20
6.716546843727854
 42
0.0
 10
17.83817353187697
 20
3.758452875560928
 42
0.3272098845218902
 10
18.08848898147465
 20
3.574999859644393
 42
0.0
 10
18.93793367127926
 20
3.574999859644393
 42
0.5069206636600335
 10
19.18824912087694
 20
3.916546843727896
 42
0.0
 10
18.02505343164011
 20
7.59999985964446
 42
0.0
 97
        0
 92
        7
 72
     1
 73
     1
 93
        8
 10
21.74610606321903
 20
11.36249985964439
 42
0.4142135623731546
 10
21.48360606321898
 20
11.62499985964439
 42
0.0
 10
20.60860606321909
 20
11.62499985964439
 42
0.4142135623731507
 10
20.34610606321905
 20
11.3624998596444
 42
0.0
 10
20.34610606321905
 20
3.837499859644387
 42
0.4142135623731526
 10
20.60860606321909
 20
3.574999859644393
 42
0.0
 10
21.48360606321898
 20
3.574999859644393
 42
0.4142135623731526
 10
21.74610606321903
 20
3.837499859644387
 42
0.0
 97
        0
 92
        7
 72
     1
 73
     1
 93
       24
 10
24.19610606321907
 20
9.962499859644395
 42
-0.4142135623731546
 10
24.45860606321912
 20
10.22499985964439
 42
0.0
 10
25.94610606321907
 20
10.22499985964439
 42
0.4142135623730911
 10
26.20860606321906
 20
10.48749985964438
 42
0.0
 10
26.20860606321906
 20
11.36249985964439
 42
0.4142135623730952
 10
25.94610606321907
 20
11.62499985964439
 42
0.0
 10
24.19610606321907
 20
11.62499985964439
 42
0.4142135623731048
 10
22.79610606321904
 20
10.2249998596444
 42
0.0
 10
22.79610606321904
 20
9.317398846966771
 42
0.1989123673796613
 10
23.41118182272731
 20
7.832474606474995
 42
0.0
 10
24.86608081004965
 20
6.377575619152661
 42
-0.1989123673796402
 10
25.07110606321907
 20
5.882600872322125
 42
0.0
 10
25.07110606321907
 20
5.237499859644387
 42
-0.4142135623730911
 10
24.80860606321908
 20
4.974999859644391
 42
0.0
 10
23.32110606321907
 20
4.974999859644391
 42
0.4142135623731526
 10
23.05860606321903
 20
4.712499859644397
 42
0.0
 10
23.05860606321903
 20
3.837499859644387
 42
0.4142135623730891
 10
23.32110606321902
 20
3.574999859644393
 42
0.0
 10
25.07110606321907
 20
3.574999859644393
 42
0.4142135623730925
 10
26.47110606321905
 20
4.97499985964438
 42
0.0
 10
26.47110606321905
 20
5.882600872322017
 42
0.1989123673796675
 10
25.85603030371078
 20
7.367525112813844
 42
0.0
 10
24.4011313163885
 20
8.822424100136101
 42
-0.1989123673796652
 10
24.19610606321907
 20
9.317398846966685
 42
0.0
 97
        0
 92
        7
 72
     1
 73
     1
 93
       16
 10
28.92110606321904
 20
11.36249985964438
 42
0.414213562373103
 10
28.65860606321905
 20
11.62499985964439
 42
0.0
 10
27.78360606321905
 20
11.62499985964439
 42
0.4142135623730871
 10
27.52110606321906
 20
11.3624998596444
 42
0.0
 10
27.52110606321906
 20
4.97499985964438
 42
0.4142135623730926
 10
28.92110606321904
 20
3.574999859644393
 42
0.0
 10
30.67110606321904
 20
3.574999859644393
 42
0.4142135623731044
 10
32.07110606321907
 20
4.97499985964438
 42
0.0
 10
32.07110606321907
 20
11.36249985964439
 42
0.4142135623730951
 10
31.80860606321909
 20
11.62499985964439
 42
0.0
 10
30.93360606321903
 20
11.62499985964439
 42
0.4142135623730871
 10
30.67110606321904
 20
11.3624998596444
 42
0.0
 10
30.67110606321904
 20
5.499999859644379
 42
-0.414213562373088
 10
30.14610606321906
 20
4.974999859644391
 42
0.0
 10
29.44610606321907
 20
4.974999859644391
 42
-0.4142135623731197
 10
28.92110606321904
 20
5.499999859644379
 42
0.0
 97
        0
 92
        7
 72
     1
 73
     1
 93
        8
 10
34.52110606321906
 20
11.3624998596444
 42
0.4142135623730871
 10
34.25860606321907
 20
11.62499985964439
 42
0.0
 10
33.38360606321908
 20
11.62499985964439
 42
0.4142135623731507
 10
33.12110606321903
 20
11.3624998596444
 42
0.0
 10
33.12110606321903
 20
3.837499859644387
 42
0.4142135623730891
 10
33.38360606321902
 20
3.574999859644393
 42
0.0
 10
34.25860606321907
 20
3.574999859644393
 42
0.4142135623730891
 10
34.52110606321906
 20
3.837499859644387
 42
0.0
 97
        0
 75
     0
 76
     1
 52
0.0
 41
0.1
 77
     0
 78
     2
 53
45.0
 43
-450.4711521815109
 44
-6.600000140355575
 45
-0.2245064030267288
 46
0.2245064030267288
 79
     0
 53
135.0
 43
-450.4711521815109
 44
-6.600000140355575
 45
-0.2245064030267288
 46
-0.2245064030267288
 79
     0
 47
0.057451373970553
 98
        8
 10
8.039927467340135
 20
7.583586682587167
 10
11.20225748904806
 20
9.422030950869896
 10
12.58218392865831
 20
7.755940682679749
 10
15.45702997664704
 20
8.100648682865141
 10
20.91923599530685
 20
8.330454816635949
 10
23.44910043339325
 20
9.709288017847995
 10
28.27884297202865
 20
9.364578817191897
 10
33.91353979563985
 20
9.594384950962705
  0
LINE
  5
3699
330
1A
100
AcDbEntity
  8
ZUWAKU
100
AcDbLine
 10
12.47110606321905
 20
11.62499985964437
 30
0.0
 11
13.43360606321903
 21
11.62499985964439
 31
0.0
  0
LINE
  5
369A
330
1A
100
AcDbEntity
  8
ZUWAKU
100
AcDbLine
 10
13.43360606321903
 20
10.22499985964439
 30
0.0
 11
12.47110606321905
 21
10.22499985964439
 31
0.0
  0
LINE
  5
369B
330
1A
100
AcDbEntity
  8
ZUWAKU
100
AcDbLine
 10
12.47110606321905
 20
4.974999859644391
 30
0.0
 11
13.43360606321903
 21
4.974999859644391
 31
0.0
  0
LINE
  5
369C
330
1A
100
AcDbEntity
  8
ZUWAKU
100
AcDbLine
 10
13.43360606321903
 20
3.574999859644393
 30
0.0
 11
12.47110606321905
 21
3.574999859644393
 31
0.0
  0
CIRCLE
  5
369D
330
1A
100
AcDbEntity
  8
ZUWAKU
100
AcDbCircle
 10
12.99610606321903
 20
7.599999859644391
 30
0.0
 40
0.875
  0
ARC
  5
369E
330
1A
100
AcDbEntity
  8
ZUWAKU
100
AcDbCircle
 10
7.746106063219031
 20
9.317398846966742
 30
0.0
 40
0.7
100
AcDbArc
 50
180.0000000000016
 51
224.9999999999988
  0
LINE
  5
369F
330
1A
100
AcDbEntity
  8
ZUWAKU
100
AcDbLine
 10
11.77110606321906
 20
9.524999859644392
 30
0.0
 11
11.77110606321906
 21
5.674999859644394
 31
0.0
  0
LINE
  5
36A0
330
1A
100
AcDbEntity
  8
ZUWAKU
100
AcDbLine
 10
10.37110606321903
 20
5.674999859644394
 30
0.0
 11
10.37110606321903
 21
9.524999859644371
 31
0.0
  0
ARC
  5
36A1
330
1A
100
AcDbEntity
  8
ZUWAKU
100
AcDbCircle
 10
7.746106063219031
 20
9.317398846966742
 30
0.0
 40
2.099999999999999
100
AcDbArc
 50
180.0
 51
225.0
  0
ARC
  5
36A2
330
1A
100
AcDbEntity
  8
ZUWAKU
100
AcDbCircle
 10
7.921106063219042
 20
4.974999859644391
 30
0.0
 40
1.399999999999999
100
AcDbArc
 50
270.0
 51
0.0
  0
ARC
  5
36A3
330
1A
100
AcDbEntity
  8
ZUWAKU
100
AcDbCircle
 10
12.47110606321905
 20
5.674999859644394
 30
0.0
 40
2.099999999999999
100
AcDbArc
 50
180.0
 51
270.0
  0
ARC
  5
36A4
330
1A
100
AcDbEntity
  8
ZUWAKU
100
AcDbCircle
 10
7.221106063219053
 20
5.882600872322043
 30
0.0
 40
2.099999999999999
100
AcDbArc
 50
0.0
 51
45.0
  0
LINE
  5
36A5
330
1A
100
AcDbEntity
  8
ZUWAKU
100
AcDbLine
 10
8.706030303710804
 20
7.367525112813805
 30
0.0
 11
7.251131316388466
 21
8.822424100136142
 31
0.0
  0
LINE
  5
36A6
330
1A
100
AcDbEntity
  8
ZUWAKU
100
AcDbLine
 10
7.921106063219042
 20
5.237499859644394
 30
0.0
 11
7.921106063219042
 21
5.882600872322065
 31
0.0
  0
ARC
  5
36A7
330
1A
100
AcDbEntity
  8
ZUWAKU
100
AcDbCircle
 10
7.658606063219053
 20
5.237499859644394
 30
0.0
 40
0.2625
100
AcDbArc
 50
270.0
 51
0.0
  0
ARC
  5
36A8
330
1A
100
AcDbEntity
  8
ZUWAKU
100
AcDbCircle
 10
7.221106063219053
 20
5.882600872322065
 30
0.0
 40
0.7
100
AcDbArc
 50
0.0
 51
45.0
  0
LINE
  5
36A9
330
1A
100
AcDbEntity
  8
ZUWAKU
100
AcDbLine
 10
5.908606063219053
 20
3.837499859644392
 30
0.0
 11
5.908606063219053
 21
4.712499859644392
 31
0.0
  0
ARC
  5
36AA
330
1A
100
AcDbEntity
  8
ZUWAKU
100
AcDbCircle
 10
6.171106063219042
 20
3.837499859644392
 30
0.0
 40
0.2625
100
AcDbArc
 50
180.0
 51
270.0
  0
ARC
  5
36AB
330
1A
100
AcDbEntity
  8
ZUWAKU
100
AcDbCircle
 10
6.171106063219042
 20
4.712499859644392
 30
0.0
 40
0.2625
100
AcDbArc
 50
90.0
 51
180.0
  0
LINE
  5
36AC
330
1A
100
AcDbEntity
  8
ZUWAKU
100
AcDbLine
 10
6.171106063219042
 20
3.574999859644393
 30
0.0
 11
7.921106063219042
 21
3.574999859644393
 31
0.0
  0
LINE
  5
36AD
330
1A
100
AcDbEntity
  8
ZUWAKU
100
AcDbLine
 10
6.171106063219042
 20
4.974999859644391
 30
0.0
 11
7.658606063219053
 21
4.974999859644391
 31
0.0
  0
LINE
  5
36AE
330
1A
100
AcDbEntity
  8
ZUWAKU
100
AcDbLine
 10
6.26118182272728
 20
7.832474606474981
 30
0.0
 11
7.716080810049618
 21
6.377575619152651
 31
0.0
  0
LINE
  5
36AF
330
1A
100
AcDbEntity
  8
ZUWAKU
100
AcDbLine
 10
9.321106063219076
 20
4.974999859644391
 30
0.0
 11
9.321106063219076
 21
5.882600872322065
 31
0.0
  0
ARC
  5
36B0
330
1A
100
AcDbEntity
  8
ZUWAKU
100
AcDbCircle
 10
12.47110606321905
 20
5.674999859644394
 30
0.0
 40
0.7
100
AcDbArc
 50
180.0
 51
270.0
  0
ARC
  5
36B1
330
1A
100
AcDbEntity
  8
ZUWAKU
100
AcDbCircle
 10
8.796106063219042
 20
11.36249985964439
 30
0.0
 40
0.2625
100
AcDbArc
 50
0.0
 51
90.0
  0
ARC
  5
36B2
330
1A
100
AcDbEntity
  8
ZUWAKU
100
AcDbCircle
 10
8.796106063219042
 20
10.48749985964439
 30
0.0
 40
0.2625
100
AcDbArc
 50
270.0
 51
0.0
  0
LINE
  5
36B3
330
1A
100
AcDbEntity
  8
ZUWAKU
100
AcDbLine
 10
7.046106063219042
 20
11.62499985964439
 30
0.0
 11
8.796106063219042
 21
11.62499985964439
 31
0.0
  0
ARC
  5
36B4
330
1A
100
AcDbEntity
  8
ZUWAKU
100
AcDbCircle
 10
7.308606063219031
 20
9.962499859644392
 30
0.0
 40
0.2625
100
AcDbArc
 50
90.0
 51
180.0
  0
LINE
  5
36B5
330
1A
100
AcDbEntity
  8
ZUWAKU
100
AcDbLine
 10
7.046106063219042
 20
9.962499859644392
 30
0.0
 11
7.046106063219042
 21
9.317398846966721
 31
0.0
  0
LINE
  5
36B6
330
1A
100
AcDbEntity
  8
ZUWAKU
100
AcDbLine
 10
8.796106063219042
 20
10.22499985964439
 30
0.0
 11
7.308606063219031
 21
10.22499985964439
 31
0.0
  0
LINE
  5
36B7
330
1A
100
AcDbEntity
  8
ZUWAKU
100
AcDbLine
 10
5.646106063219065
 20
10.22499985964439
 30
0.0
 11
5.646106063219065
 21
9.317398846966721
 31
0.0
  0
ARC
  5
36B8
330
1A
100
AcDbEntity
  8
ZUWAKU
100
AcDbCircle
 10
7.046106063219042
 20
10.22499985964439
 30
0.0
 40
1.399999999999999
100
AcDbArc
 50
90.0
 51
180.0
  0
LINE
  5
36B9
330
1A
100
AcDbEntity
  8
ZUWAKU
100
AcDbLine
 10
9.058606063219031
 20
11.36249985964439
 30
0.0
 11
9.058606063219031
 21
10.48749985964439
 31
0.0
  0
ARC
  5
36BA
330
1A
100
AcDbEntity
  8
ZUWAKU
100
AcDbCircle
 10
12.47110606321905
 20
9.524999859644392
 30
0.0
 40
0.7
100
AcDbArc
 50
90.0
 51
180.0
  0
ARC
  5
36BB
330
1A
100
AcDbEntity
  8
ZUWAKU
100
AcDbCircle
 10
12.47110606321905
 20
9.524999859644371
 30
0.0
 40
2.099999999999999
100
AcDbArc
 50
90.0
 51
180.0
  0
LINE
  5
36BC
330
1A
100
AcDbEntity
  8
ZUWAKU
100
AcDbLine
 10
39.66331475982258
 20
14.99999985964439
 30
0.0
 11
39.66331475982269
 21
0.3999998596444243
 31
0.0
  0
LINE
  5
36BD
330
1A
100
AcDbEntity
  8
ZUWAKU
100
AcDbLine
 10
39.7633147598226
 20
14.99999985964439
 30
0.0
 11
39.76331475982272
 21
0.3999998596444243
 31
0.0
  0
LINE
  5
36BE
330
1A
100
AcDbEntity
  8
ZUWAKU
100
AcDbLine
 10
39.56331475982267
 20
14.99999985964439
 30
0.0
 11
39.56331475982267
 21
0.3999998596444243
 31
0.0
  0
LINE
  5
36BF
330
1A
100
AcDbEntity
  8
ZUWAKU
100
AcDbLine
 10
32.07110606321907
 20
4.974999859644391
 30
0.0
 11
32.07110606321907
 21
11.36249985964439
 31
0.0
  0
LINE
  5
36C0
330
1A
100
AcDbEntity
  8
ZUWAKU
100
AcDbLine
 10
30.67110606321904
 20
11.36249985964439
 30
0.0
 11
30.67110606321904
 21
5.49999985964439
 31
0.0
  0
LINE
  5
36C1
330
1A
100
AcDbEntity
  8
ZUWAKU
100
AcDbLine
 10
34.52110606321906
 20
3.837499859644392
 30
0.0
 11
34.52110606321906
 21
11.36249985964439
 31
0.0
  0
LINE
  5
36C2
330
1A
100
AcDbEntity
  8
ZUWAKU
100
AcDbLine
 10
33.12110606321903
 20
11.36249985964439
 30
0.0
 11
33.12110606321903
 21
3.837499859644392
 31
0.0
  0
ARC
  5
36C3
330
1A
100
AcDbEntity
  8
ZUWAKU
100
AcDbCircle
 10
24.89610606321906
 20
9.317398846966742
 30
0.0
 40
0.7
100
AcDbArc
 50
180.0000000000016
 51
224.9999999999988
  0
ARC
  5
36C4
330
1A
100
AcDbEntity
  8
ZUWAKU
100
AcDbCircle
 10
24.89610606321906
 20
9.317398846966742
 30
0.0
 40
2.099999999999999
100
AcDbArc
 50
180.0
 51
225.0
  0
LINE
  5
36C5
330
1A
100
AcDbEntity
  8
ZUWAKU
100
AcDbLine
 10
18.65742930430803
 20
9.602523456426105
 30
0.0
 11
18.02505343164011
 21
7.599999859644402
 31
0.0
  0
LINE
  5
36C6
330
1A
100
AcDbEntity
  8
ZUWAKU
100
AcDbLine
 10
20.34610606321905
 20
11.36249985964439
 30
0.0
 11
20.34610606321905
 21
3.837499859644392
 31
0.0
  0
LINE
  5
36C7
330
1A
100
AcDbEntity
  8
ZUWAKU
100
AcDbLine
 10
21.74610606321903
 20
3.837499859644392
 30
0.0
 11
21.74610606321903
 21
11.36249985964439
 31
0.0
  0
LINE
  5
36C8
330
1A
100
AcDbEntity
  8
ZUWAKU
100
AcDbLine
 10
27.52110606321906
 20
11.36249985964439
 30
0.0
 11
27.52110606321906
 21
4.974999859644391
 31
0.0
  0
LINE
  5
36C9
330
1A
100
AcDbEntity
  8
ZUWAKU
100
AcDbLine
 10
28.92110606321904
 20
5.49999985964439
 30
0.0
 11
28.92110606321904
 21
11.36249985964439
 31
0.0
  0
LINE
  5
36CA
330
1A
100
AcDbEntity
  8
ZUWAKU
100
AcDbLine
 10
16.32110606321907
 20
8.562499859644393
 30
0.0
 11
16.32110606321907
 21
11.36249985964439
 31
0.0
  0
LINE
  5
36CB
330
1A
100
AcDbEntity
  8
ZUWAKU
100
AcDbLine
 10
14.92110606321904
 20
11.36249985964439
 30
0.0
 11
14.92110606321904
 21
3.837499859644392
 31
0.0
  0
LINE
  5
36CC
330
1A
100
AcDbEntity
  8
ZUWAKU
100
AcDbLine
 10
17.83817353187697
 20
11.44154684372787
 30
0.0
 11
16.90403859456108
 21
8.483452875560907
 31
0.0
  0
LINE
  5
36CD
330
1A
100
AcDbEntity
  8
ZUWAKU
100
AcDbLine
 10
30.14610606321906
 20
4.974999859644391
 30
0.0
 11
29.44610606321907
 21
4.974999859644391
 31
0.0
  0
LINE
  5
36CE
330
1A
100
AcDbEntity
  8
ZUWAKU
100
AcDbLine
 10
28.92110606321904
 20
3.574999859644393
 30
0.0
 11
30.67110606321904
 21
3.574999859644393
 31
0.0
  0
LINE
  5
36CF
330
1A
100
AcDbEntity
  8
ZUWAKU
100
AcDbLine
 10
20.60860606321904
 20
3.574999859644393
 30
0.0
 11
21.48360606321904
 21
3.574999859644393
 31
0.0
  0
LINE
  5
36D0
330
1A
100
AcDbEntity
  8
ZUWAKU
100
AcDbLine
 10
17.83817353187697
 20
3.758452875560905
 30
0.0
 11
16.90403859456108
 21
6.716546843727876
 31
0.0
  0
ARC
  5
36D1
330
1A
100
AcDbEntity
  8
ZUWAKU
100
AcDbCircle
 10
16.6537231449634
 20
8.562499859644393
 30
0.0
 40
0.2625
100
AcDbArc
 50
270.0
 51
342.4744316262769
  0
LINE
  5
36D2
330
1A
100
AcDbEntity
  8
ZUWAKU
100
AcDbLine
 10
16.6537231449634
 20
8.29999985964439
 30
0.0
 11
16.58360606321906
 21
8.29999985964439
 31
0.0
  0
LINE
  5
36D3
330
1A
100
AcDbEntity
  8
ZUWAKU
100
AcDbLine
 10
16.58360606321906
 20
6.899999859644392
 30
0.0
 11
16.6537231449634
 21
6.899999859644392
 31
0.0
  0
ARC
  5
36D4
330
1A
100
AcDbEntity
  8
ZUWAKU
100
AcDbCircle
 10
16.58360606321906
 20
8.562499859644393
 30
0.0
 40
0.2625
100
AcDbArc
 50
180.0
 51
270.0
  0
LINE
  5
36D5
330
1A
100
AcDbEntity
  8
ZUWAKU
100
AcDbLine
 10
15.18360606321903
 20
3.574999859644393
 30
0.0
 11
16.05860606321903
 21
3.574999859644393
 31
0.0
  0
ARC
  5
36D6
330
1A
100
AcDbEntity
  8
ZUWAKU
100
AcDbCircle
 10
16.05860606321903
 20
3.837499859644392
 30
0.0
 40
0.2625
100
AcDbArc
 50
270.0
 51
0.0
  0
LINE
  5
36D7
330
1A
100
AcDbEntity
  8
ZUWAKU
100
AcDbLine
 10
16.32110606321907
 20
3.837499859644392
 30
0.0
 11
16.32110606321907
 21
6.637499859644393
 31
0.0
  0
LINE
  5
36D8
330
1A
100
AcDbEntity
  8
ZUWAKU
100
AcDbLine
 10
13.69610606321907
 20
4.712499859644392
 30
0.0
 11
13.69610606321907
 21
3.837499859644392
 31
0.0
  0
ARC
  5
36D9
330
1A
100
AcDbEntity
  8
ZUWAKU
100
AcDbCircle
 10
13.43360606321903
 20
3.837499859644392
 30
0.0
 40
0.2625
100
AcDbArc
 50
270.0
 51
0.0
  0
ARC
  5
36DA
330
1A
100
AcDbEntity
  8
ZUWAKU
100
AcDbCircle
 10
13.43360606321903
 20
4.712499859644392
 30
0.0
 40
0.2625
100
AcDbArc
 50
0.0
 51
90.0
  0
ARC
  5
36DB
330
1A
100
AcDbEntity
  8
ZUWAKU
100
AcDbCircle
 10
15.18360606321903
 20
3.837499859644392
 30
0.0
 40
0.2625
100
AcDbArc
 50
180.0
 51
270.0
  0
ARC
  5
36DC
330
1A
100
AcDbEntity
  8
ZUWAKU
100
AcDbCircle
 10
16.6537231449634
 20
6.637499859644393
 30
0.0
 40
0.2625
100
AcDbArc
 50
17.52556837372303
 51
90.0
  0
ARC
  5
36DD
330
1A
100
AcDbEntity
  8
ZUWAKU
100
AcDbCircle
 10
16.58360606321906
 20
6.637499859644393
 30
0.0
 40
0.2625
100
AcDbArc
 50
90.0
 51
180.0
  0
ARC
  5
36DE
330
1A
100
AcDbEntity
  8
ZUWAKU
100
AcDbCircle
 10
20.60860606321904
 20
3.837499859644392
 30
0.0
 40
0.2625
100
AcDbArc
 50
180.0
 51
270.0
  0
LINE
  5
36DF
330
1A
100
AcDbEntity
  8
ZUWAKU
100
AcDbLine
 10
18.08848898147471
 20
3.574999859644393
 30
0.0
 11
18.93793367127921
 21
3.574999859644393
 31
0.0
  0
ARC
  5
36E0
330
1A
100
AcDbEntity
  8
ZUWAKU
100
AcDbCircle
 10
18.93793367127921
 20
3.837499859644392
 30
0.0
 40
0.2625
100
AcDbArc
 50
270.0
 51
17.52556837372303
  0
LINE
  5
36E1
330
1A
100
AcDbEntity
  8
ZUWAKU
100
AcDbLine
 10
19.18824912087694
 20
3.916546843727878
 30
0.0
 11
18.02505343164011
 21
7.599999859644402
 31
0.0
  0
ARC
  5
36E2
330
1A
100
AcDbEntity
  8
ZUWAKU
100
AcDbCircle
 10
18.08848898147471
 20
3.837499859644392
 30
0.0
 40
0.2625
100
AcDbArc
 50
197.525568373723
 51
270.0
  0
ARC
  5
36E3
330
1A
100
AcDbEntity
  8
ZUWAKU
100
AcDbCircle
 10
28.92110606321904
 20
4.974999859644391
 30
0.0
 40
1.399999999999999
100
AcDbArc
 50
180.0
 51
270.0
  0
ARC
  5
36E4
330
1A
100
AcDbEntity
  8
ZUWAKU
100
AcDbCircle
 10
25.07110606321907
 20
4.974999859644391
 30
0.0
 40
1.399999999999999
100
AcDbArc
 50
270.0
 51
0.0
  0
LINE
  5
36E5
330
1A
100
AcDbEntity
  8
ZUWAKU
100
AcDbLine
 10
25.85603030371084
 20
7.367525112813805
 30
0.0
 11
24.40113131638844
 21
8.822424100136142
 31
0.0
  0
LINE
  5
36E6
330
1A
100
AcDbEntity
  8
ZUWAKU
100
AcDbLine
 10
25.07110606321907
 20
5.237499859644394
 30
0.0
 11
25.07110606321907
 21
5.882600872322065
 31
0.0
  0
ARC
  5
36E7
330
1A
100
AcDbEntity
  8
ZUWAKU
100
AcDbCircle
 10
24.37110606321903
 20
5.882600872322065
 30
0.0
 40
0.7
100
AcDbArc
 50
0.0
 51
45.0
  0
ARC
  5
36E8
330
1A
100
AcDbEntity
  8
ZUWAKU
100
AcDbCircle
 10
24.80860606321903
 20
5.237499859644394
 30
0.0
 40
0.2625
100
AcDbArc
 50
270.0
 51
0.0
  0
LINE
  5
36E9
330
1A
100
AcDbEntity
  8
ZUWAKU
100
AcDbLine
 10
23.05860606321903
 20
3.837499859644392
 30
0.0
 11
23.05860606321903
 21
4.712499859644392
 31
0.0
  0
ARC
  5
36EA
330
1A
100
AcDbEntity
  8
ZUWAKU
100
AcDbCircle
 10
23.32110606321907
 20
3.837499859644392
 30
0.0
 40
0.2625
100
AcDbArc
 50
180.0
 51
270.0
  0
ARC
  5
36EB
330
1A
100
AcDbEntity
  8
ZUWAKU
100
AcDbCircle
 10
21.48360606321904
 20
3.837499859644392
 30
0.0
 40
0.2625
100
AcDbArc
 50
270.0
 51
0.0
  0
ARC
  5
36EC
330
1A
100
AcDbEntity
  8
ZUWAKU
100
AcDbCircle
 10
23.32110606321907
 20
4.712499859644392
 30
0.0
 40
0.2625
100
AcDbArc
 50
90.0
 51
180.0
  0
LINE
  5
36ED
330
1A
100
AcDbEntity
  8
ZUWAKU
100
AcDbLine
 10
23.32110606321907
 20
4.974999859644391
 30
0.0
 11
24.80860606321903
 21
4.974999859644391
 31
0.0
  0
LINE
  5
36EE
330
1A
100
AcDbEntity
  8
ZUWAKU
100
AcDbLine
 10
23.32110606321907
 20
3.574999859644393
 30
0.0
 11
25.07110606321907
 21
3.574999859644393
 31
0.0
  0
LINE
  5
36EF
330
1A
100
AcDbEntity
  8
ZUWAKU
100
AcDbLine
 10
23.41118182272731
 20
7.832474606474981
 30
0.0
 11
24.86608081004965
 21
6.377575619152651
 31
0.0
  0
LINE
  5
36F0
330
1A
100
AcDbEntity
  8
ZUWAKU
100
AcDbLine
 10
26.47110606321905
 20
4.974999859644391
 30
0.0
 11
26.47110606321905
 21
5.882600872322065
 31
0.0
  0
ARC
  5
36F1
330
1A
100
AcDbEntity
  8
ZUWAKU
100
AcDbCircle
 10
24.37110606321903
 20
5.882600872322043
 30
0.0
 40
2.099999999999999
100
AcDbArc
 50
0.0
 51
45.0
  0
ARC
  5
36F2
330
1A
100
AcDbEntity
  8
ZUWAKU
100
AcDbCircle
 10
29.44610606321907
 20
5.49999985964439
 30
0.0
 40
0.525
100
AcDbArc
 50
180.0
 51
270.0
  0
ARC
  5
36F3
330
1A
100
AcDbEntity
  8
ZUWAKU
100
AcDbCircle
 10
30.67110606321904
 20
4.974999859644391
 30
0.0
 40
1.399999999999999
100
AcDbArc
 50
270.0
 51
0.0
  0
LINE
  5
36F4
330
1A
100
AcDbEntity
  8
ZUWAKU
100
AcDbLine
 10
33.38360606321908
 20
3.574999859644393
 30
0.0
 11
34.25860606321907
 21
3.574999859644393
 31
0.0
  0
ARC
  5
36F5
330
1A
100
AcDbEntity
  8
ZUWAKU
100
AcDbCircle
 10
33.38360606321908
 20
3.837499859644392
 30
0.0
 40
0.2625
100
AcDbArc
 50
180.0
 51
270.0
  0
ARC
  5
36F6
330
1A
100
AcDbEntity
  8
ZUWAKU
100
AcDbCircle
 10
30.14610606321906
 20
5.49999985964439
 30
0.0
 40
0.525
100
AcDbArc
 50
270.0
 51
0.0
  0
ARC
  5
36F7
330
1A
100
AcDbEntity
  8
ZUWAKU
100
AcDbCircle
 10
34.25860606321907
 20
3.837499859644392
 30
0.0
 40
0.2625
100
AcDbArc
 50
270.0
 51
0.0
  0
LINE
  5
36F8
330
1A
100
AcDbEntity
  8
ZUWAKU
100
AcDbLine
 10
21.48360606321904
 20
11.62499985964439
 30
0.0
 11
20.60860606321904
 21
11.62499985964439
 31
0.0
  0
ARC
  5
36F9
330
1A
100
AcDbEntity
  8
ZUWAKU
100
AcDbCircle
 10
16.05860606321903
 20
11.36249985964439
 30
0.0
 40
0.2625
100
AcDbArc
 50
0.0
 51
90.0
  0
LINE
  5
36FA
330
1A
100
AcDbEntity
  8
ZUWAKU
100
AcDbLine
 10
16.05860606321903
 20
11.62499985964439
 30
0.0
 11
15.18360606321903
 21
11.62499985964439
 31
0.0
  0
ARC
  5
36FB
330
1A
100
AcDbEntity
  8
ZUWAKU
100
AcDbCircle
 10
13.43360606321903
 20
11.36249985964439
 30
0.0
 40
0.2625
100
AcDbArc
 50
0.0
 51
90.0
  0
ARC
  5
36FC
330
1A
100
AcDbEntity
  8
ZUWAKU
100
AcDbCircle
 10
15.18360606321903
 20
11.36249985964439
 30
0.0
 40
0.2625
100
AcDbArc
 50
90.0
 51
180.0
  0
ARC
  5
36FD
330
1A
100
AcDbEntity
  8
ZUWAKU
100
AcDbCircle
 10
13.43360606321903
 20
10.48749985964439
 30
0.0
 40
0.2625
100
AcDbArc
 50
270.0
 51
0.0
  0
LINE
  5
36FE
330
1A
100
AcDbEntity
  8
ZUWAKU
100
AcDbLine
 10
13.69610606321907
 20
11.36249985964439
 30
0.0
 11
13.69610606321907
 21
10.48749985964439
 31
0.0
  0
ARC
  5
36FF
330
1A
100
AcDbEntity
  8
ZUWAKU
100
AcDbCircle
 10
20.60860606321904
 20
11.36249985964439
 30
0.0
 40
0.2625
100
AcDbArc
 50
90.0
 51
180.0
  0
LINE
  5
3700
330
1A
100
AcDbEntity
  8
ZUWAKU
100
AcDbLine
 10
18.08848898147471
 20
11.62499985964439
 30
0.0
 11
18.93793367127921
 21
11.62499985964439
 31
0.0
  0
ARC
  5
3701
330
1A
100
AcDbEntity
  8
ZUWAKU
100
AcDbCircle
 10
18.93793367127921
 20
11.36249985964439
 30
0.0
 40
0.2625
100
AcDbArc
 50
342.4744316262769
 51
90.0
  0
LINE
  5
3702
330
1A
100
AcDbEntity
  8
ZUWAKU
100
AcDbLine
 10
19.18824912087694
 20
11.2834528755609
 30
0.0
 11
18.65742930430803
 21
9.602523456426105
 31
0.0
  0
ARC
  5
3703
330
1A
100
AcDbEntity
  8
ZUWAKU
100
AcDbCircle
 10
18.08848898147471
 20
11.36249985964439
 30
0.0
 40
0.2625
100
AcDbArc
 50
90.0
 51
162.4744316262769
  0
LINE
  5
3704
330
1A
100
AcDbEntity
  8
ZUWAKU
100
AcDbLine
 10
24.19610606321907
 20
11.62499985964439
 30
0.0
 11
25.94610606321907
 21
11.62499985964439
 31
0.0
  0
LINE
  5
3705
330
1A
100
AcDbEntity
  8
ZUWAKU
100
AcDbLine
 10
25.94610606321907
 20
10.22499985964439
 30
0.0
 11
24.45860606321906
 21
10.22499985964439
 31
0.0
  0
ARC
  5
3706
330
1A
100
AcDbEntity
  8
ZUWAKU
100
AcDbCircle
 10
24.45860606321906
 20
9.962499859644392
 30
0.0
 40
0.2625
100
AcDbArc
 50
90.0
 51
180.0
  0
LINE
  5
3707
330
1A
100
AcDbEntity
  8
ZUWAKU
100
AcDbLine
 10
24.19610606321907
 20
9.962499859644392
 30
0.0
 11
24.19610606321907
 21
9.317398846966721
 31
0.0
  0
ARC
  5
3708
330
1A
100
AcDbEntity
  8
ZUWAKU
100
AcDbCircle
 10
21.48360606321904
 20
11.36249985964439
 30
0.0
 40
0.2625
100
AcDbArc
 50
0.0
 51
90.0
  0
LINE
  5
3709
330
1A
100
AcDbEntity
  8
ZUWAKU
100
AcDbLine
 10
22.79610606321904
 20
10.22499985964439
 30
0.0
 11
22.79610606321904
 21
9.317398846966721
 31
0.0
  0
ARC
  5
370A
330
1A
100
AcDbEntity
  8
ZUWAKU
100
AcDbCircle
 10
24.19610606321907
 20
10.22499985964439
 30
0.0
 40
1.399999999999999
100
AcDbArc
 50
90.0
 51
180.0
  0
ARC
  5
370B
330
1A
100
AcDbEntity
  8
ZUWAKU
100
AcDbCircle
 10
28.65860606321905
 20
11.36249985964439
 30
0.0
 40
0.2625
100
AcDbArc
 50
0.0
 51
90.0
  0
ARC
  5
370C
330
1A
100
AcDbEntity
  8
ZUWAKU
100
AcDbCircle
 10
27.78360606321905
 20
11.36249985964439
 30
0.0
 40
0.2625
100
AcDbArc
 50
90.0
 51
180.0
  0
LINE
  5
370D
330
1A
100
AcDbEntity
  8
ZUWAKU
100
AcDbLine
 10
28.65860606321905
 20
11.62499985964439
 30
0.0
 11
27.78360606321905
 21
11.62499985964439
 31
0.0
  0
ARC
  5
370E
330
1A
100
AcDbEntity
  8
ZUWAKU
100
AcDbCircle
 10
25.94610606321907
 20
11.36249985964439
 30
0.0
 40
0.2625
100
AcDbArc
 50
0.0
 51
90.0
  0
ARC
  5
370F
330
1A
100
AcDbEntity
  8
ZUWAKU
100
AcDbCircle
 10
25.94610606321907
 20
10.48749985964439
 30
0.0
 40
0.2625
100
AcDbArc
 50
270.0
 51
0.0
  0
LINE
  5
3710
330
1A
100
AcDbEntity
  8
ZUWAKU
100
AcDbLine
 10
26.20860606321906
 20
11.36249985964439
 30
0.0
 11
26.20860606321906
 21
10.48749985964439
 31
0.0
  0
LINE
  5
3711
330
1A
100
AcDbEntity
  8
ZUWAKU
100
AcDbLine
 10
34.25860606321907
 20
11.62499985964439
 30
0.0
 11
33.38360606321908
 21
11.62499985964439
 31
0.0
  0
ARC
  5
3712
330
1A
100
AcDbEntity
  8
ZUWAKU
100
AcDbCircle
 10
33.38360606321908
 20
11.36249985964439
 30
0.0
 40
0.2625
100
AcDbArc
 50
90.0
 51
180.0
  0
ARC
  5
3713
330
1A
100
AcDbEntity
  8
ZUWAKU
100
AcDbCircle
 10
31.80860606321903
 20
11.36249985964439
 30
0.0
 40
0.2625
100
AcDbArc
 50
0.0
 51
90.0
  0
LINE
  5
3714
330
1A
100
AcDbEntity
  8
ZUWAKU
100
AcDbLine
 10
31.80860606321903
 20
11.62499985964439
 30
0.0
 11
30.93360606321903
 21
11.62499985964439
 31
0.0
  0
ARC
  5
3715
330
1A
100
AcDbEntity
  8
ZUWAKU
100
AcDbCircle
 10
30.93360606321903
 20
11.36249985964439
 30
0.0
 40
0.2625
100
AcDbArc
 50
90.0
 51
180.0
  0
ARC
  5
3716
330
1A
100
AcDbEntity
  8
ZUWAKU
100
AcDbCircle
 10
34.25860606321907
 20
11.36249985964439
 30
0.0
 40
0.2625
100
AcDbArc
 50
0.0
 51
90.0
  0
TEXT
  5
3717
330
1A
100
AcDbEntity
  8
MOJI
100
AcDbText
 10
119.913601326254
 20
9.002460388348083
 30
0.0
 40
2.799999999999999
  1
亜鉛メッキ金具正面打（吊）ストロング高強度金具（吊）
 41
0.9
  7
ｽﾀｲﾙ1
100
AcDbText
  0
TEXT
  5
3718
330
1A
100
AcDbEntity
  8
MOJI
100
AcDbText
 10
119.913601326254
 20
1.602460388348101
 30
0.0
 40
2.799999999999999
  1
ＲＶ１０５－４－６０
 41
0.9
  7
ｽﾀｲﾙ1
100
AcDbText
  0
LINE
  5
3719
330
1A
100
AcDbEntity
  8
ZUWAKU
100
AcDbLine
 10
104.1233006308624
 20
14.99999985964439
 30
0.0
 11
104.1233006308624
 21
0.3999998596444243
 31
0.0
  0
LINE
  5
371A
330
1A
100
AcDbEntity
  8
ZUWAKU
100
AcDbLine
 10
104.3233006308623
 20
14.99999985964439
 30
0.0
 11
104.3233006308625
 21
0.3999998596444243
 31
0.0
  0
LINE
  5
371B
330
1A
100
AcDbEntity
  8
ZUWAKU
100
AcDbLine
 10
104.2233006308623
 20
14.99999985964439
 30
0.0
 11
104.2233006308624
 21
0.3999998596444243
 31
0.0
  0
TEXT
  5
371C
330
1A
100
AcDbEntity
  8
ZUWAKU
100
AcDbText
 10
104.8620231419672
 20
4.827678128837199
 30
0.0
 40
2.0
  1
サイズ
 41
0.9
  7
ｽﾀｲﾙ1
100
AcDbText
  0
TEXT
  5
371D
330
1A
100
AcDbEntity
  8
ZUWAKU
100
AcDbText
 10
104.8620231419671
 20
12.02767812883718
 30
0.0
 40
2.0
  1
品名
 41
0.9
  7
ｽﾀｲﾙ1
100
AcDbText
  0
LINE
  5
371E
330
1A
100
AcDbEntity
  8
ZUWAKU
100
AcDbLine
 10
324.4086012409305
 20
7.599999859644405
 30
0.0
 11
348.6245052600991
 21
7.599999859644407
 31
0.0
  0
LINE
  5
371F
330
1A
100
AcDbEntity
  8
ZUWAKU
100
AcDbLine
 10
324.4086012409307
 20
7.699999859644409
 30
0.0
 11
348.6245052600991
 21
7.699999859644407
 31
0.0
  0
LINE
  5
3720
330
1A
100
AcDbEntity
  8
ZUWAKU
100
AcDbLine
 10
324.4086012409305
 20
7.799999859644406
 30
0.0
 11
348.6245052600991
 21
7.799999859644406
 31
0.0
  0
TEXT
  5
3721
330
1A
100
AcDbEntity
  8
ZUWAKU
100
AcDbText
 10
329.1019688294797
 20
9.002460388348083
 30
0.0
 40
2.799999999999999
  1
　　．　　．　　
 41
0.9
  7
ｽﾀｲﾙ1
100
AcDbText
  0
LINE
  5
3722
330
1A
100
AcDbEntity
  8
ZUWAKU
100
AcDbLine
 10
252.5995897348989
 20
7.599999859644409
 30
0.0
 11
276.2634778688846
 21
7.599999859644409
 31
0.0
  0
LINE
  5
3723
330
1A
100
AcDbEntity
  8
ZUWAKU
100
AcDbLine
 10
252.5995897348989
 20
7.699999859644407
 30
0.0
 11
276.2634778688846
 21
7.699999859644407
 31
0.0
  0
LINE
  5
3724
330
1A
100
AcDbEntity
  8
ZUWAKU
100
AcDbLine
 10
252.5995897348989
 20
7.799999859644406
 30
0.0
 11
276.2634778688846
 21
7.799999859644406
 31
0.0
  0
TEXT
  5
3725
330
1A
100
AcDbEntity
  8
MOJI
100
AcDbText
 10
231.2836391468227
 20
5.971308720474382
 30
0.0
 40
2.799999999999999
  1
ＬＫ６０□
 41
0.9
  7
ｽﾀｲﾙ1
100
AcDbText
  0
LINE
  5
3726
330
1A
100
AcDbEntity
  8
ZUWAKU
100
AcDbLine
 10
223.812181971324
 20
14.99999985964439
 30
0.0
 11
223.8121819713242
 21
0.3999998596444243
 31
0.0
  0
LINE
  5
3727
330
1A
100
AcDbEntity
  8
ZUWAKU
100
AcDbLine
 10
223.9121819713241
 20
14.99999985964439
 30
0.0
 11
223.9121819713242
 21
0.3999998596444243
 31
0.0
  0
LINE
  5
3728
330
1A
100
AcDbEntity
  8
ZUWAKU
100
AcDbLine
 10
223.7121819713241
 20
14.99999985964439
 30
0.0
 11
223.7121819713241
 21
0.3999998596444243
 31
0.0
  0
TEXT
  5
3729
330
1A
100
AcDbEntity
  8
MOJI
100
AcDbText
 10
264.0204539719849
 20
9.002460388348083
 30
0.0
 40
2.799999999999999
  1
Ａ３
 41
0.9
  7
ｽﾀｲﾙ1
100
AcDbText
  0
LINE
  5
372A
330
1A
100
AcDbEntity
  8
ZUWAKU
100
AcDbLine
 10
252.4995897348988
 20
14.99999985964439
 30
0.0
 11
252.499589734899
 21
0.3999998596444243
 31
0.0
  0
LINE
  5
372B
330
1A
100
AcDbEntity
  8
ZUWAKU
100
AcDbLine
 10
252.5995897348989
 20
14.99999985964439
 30
0.0
 11
252.599589734899
 21
0.3999998596444243
 31
0.0
  0
LINE
  5
372C
330
1A
100
AcDbEntity
  8
ZUWAKU
100
AcDbLine
 10
252.3995897348989
 20
14.99999985964439
 30
0.0
 11
252.3995897348989
 21
0.3999998596444243
 31
0.0
  0
TEXT
  5
372D
330
1A
100
AcDbEntity
  8
ZUWAKU
100
AcDbText
 10
231.346880813582
 20
1.307035315214136
 30
0.0
 40
1.5
  1
□には色品番が入ります
 41
0.9
  7
ｽﾀｲﾙ1
100
AcDbText
  0
TEXT
  5
372E
330
1A
100
AcDbEntity
  8
ZUWAKU
100
AcDbText
 10
253.3383122460038
 20
4.827678128837199
 30
0.0
 40
2.0
  1
縮尺
 41
0.9
  7
ｽﾀｲﾙ1
100
AcDbText
  0
TEXT
  5
372F
330
1A
100
AcDbEntity
  8
MOJI
100
AcDbText
 10
264.0204539719849
 20
1.602460388348101
 30
0.0
 40
2.799999999999999
  1
１/１
 41
0.9
  7
ｽﾀｲﾙ1
100
AcDbText
  0
TEXT
  5
3730
330
1A
100
AcDbEntity
  8
ZUWAKU
100
AcDbText
 10
224.6509044824289
 20
12.02767812883718
 30
0.0
 40
2.0
  1
品番
 41
0.9
  7
ｽﾀｲﾙ1
100
AcDbText
  0
TEXT
  5
3731
330
1A
100
AcDbEntity
  8
ZUWAKU
100
AcDbText
 10
253.3383122460037
 20
12.02767812883718
 30
0.0
 40
2.0
  1
用紙
 41
0.9
  7
ｽﾀｲﾙ1
100
AcDbText
  0
LINE
  5
3732
330
1A
100
AcDbEntity
  8
ZUWAKU
100
AcDbLine
 10
324.3086012409306
 20
14.99999985964439
 30
0.0
 11
324.3086012409307
 21
0.3999998596444243
 31
0.0
  0
LINE
  5
3733
330
1A
100
AcDbEntity
  8
ZUWAKU
100
AcDbLine
 10
324.4086012409307
 20
14.99999985964439
 30
0.0
 11
324.4086012409308
 21
0.3999998596444243
 31
0.0
  0
LINE
  5
3734
330
1A
100
AcDbEntity
  8
ZUWAKU
100
AcDbLine
 10
324.2086012409307
 20
14.99999985964439
 30
0.0
 11
324.2086012409307
 21
0.3999998596444243
 31
0.0
  0
LINE
  5
3735
330
1A
100
AcDbEntity
  8
ZUWAKU
100
AcDbLine
 10
276.3634778688845
 20
14.99999985964439
 30
0.0
 11
276.3634778688847
 21
0.3999998596444243
 31
0.0
  0
LINE
  5
3736
330
1A
100
AcDbEntity
  8
ZUWAKU
100
AcDbLine
 10
276.4634778688846
 20
14.99999985964439
 30
0.0
 11
276.4634778688847
 21
0.3999998596444243
 31
0.0
  0
LINE
  5
3737
330
1A
100
AcDbEntity
  8
ZUWAKU
100
AcDbLine
 10
276.2634778688846
 20
14.99999985964439
 30
0.0
 11
276.2634778688846
 21
0.3999998596444243
 31
0.0
  0
TEXT
  5
3738
330
1A
100
AcDbEntity
  8
ZUWAKU
100
AcDbText
 10
325.1473237520355
 20
12.02767812883718
 30
0.0
 40
2.0
  1
DATE
 41
0.9
  7
ｽﾀｲﾙ1
100
AcDbText
  0
LINE
  5
3739
330
1A
100
AcDbEntity
  8
ZUWAKU
100
AcDbLine
 10
348.6245052600991
 20
14.99999985964439
 30
0.0
 11
348.6245052600991
 21
0.3999998596444243
 31
0.0
  0
LINE
  5
373A
330
1A
100
AcDbEntity
  8
ZUWAKU
100
AcDbLine
 10
348.7245052600991
 20
14.99999985964439
 30
0.0
 11
348.7245052600991
 21
0.3999998596444243
 31
0.0
  0
LINE
  5
373B
330
1A
100
AcDbEntity
  8
ZUWAKU
100
AcDbLine
 10
348.824505260099
 20
14.99999985964439
 30
0.0
 11
348.8245052600991
 21
0.3999998596444243
 31
0.0
  0
LINE
  5
373C
330
1A
100
AcDbEntity
  8
ZUWAKU
100
AcDbLine
 10
348.924505260099
 20
14.99999985964439
 30
0.0
 11
348.9245052600991
 21
0.3999998596444243
 31
0.0
  0
TEXT
  5
373D
330
1A
100
AcDbEntity
  8
ZUWAKU
100
AcDbText
 10
354.2640420819503
 20
8.776919527487791
 30
0.0
 40
3.0
  1
積水化学工業株式会社
 41
0.9
  7
ｽﾀｲﾙ1
100
AcDbText
  0
TEXT
  5
373E
330
1A
100
AcDbEntity
  8
ZUWAKU
100
AcDbText
 10
354.2640420819503
 20
3.324420016571423
 30
0.0
 40
3.0
  1
建材事業部
 41
0.9
  7
ｽﾀｲﾙ1
100
AcDbText
  0
VIEWPORT
  5
22
330
17
100
AcDbEntity
 67
     1
  8
0
100
AcDbViewport
 10
313.6808219178082
 20
148.5
 30
0.0
 40
627.3616438356165
 41
297.0
 68
     2
 69
     1
1001
ACAD
1000
MVIEW
1002
{
1070
    16
1010
0.0
1020
0.0
1030
0.0
1010
0.0
1020
0.0
1030
1.0
1040
0.0
1040
297.0
1040
313.6808219178082
1040
148.5
1040
50.0
1040
0.0
1040
0.0
1070
     0
1070
   100
1070
     1
1070
     0
1070
     0
1070
     0
1070
     0
1070
     0
1040
0.0
1040
0.0
1040
0.0
1040
1.0
1040
1.0
1040
10.0
1040
10.0
1070
     0
1002
{
1002
}
1002
}
  0
VIEWPORT
  5
64
330
17
100
AcDbEntity
 67
     1
  8
VIEWPORT
100
AcDbViewport
 10
210.0
 20
148.5
 30
0.0
 40
420.0
 41
297.0
 68
     1
 69
     2
1001
ACAD
1000
MVIEW
1002
{
1070
    16
1010
0.0
1020
0.0
1030
0.0
1010
0.0
1020
0.0
1030
1.0
1040
0.0
1040
302.9399999999998
1040
210.0
1040
148.5
1040
50.0
1040
0.0
1040
0.0
1070
     0
1070
   100
1070
     1
1070
     0
1070
     0
1070
     0
1070
     0
1070
     0
1040
0.0
1040
0.0
1040
0.0
1040
5.0
1040
5.0
1040
0.0
1040
0.0
1070
     0
1002
{
1002
}
1002
}
  0
ENDSEC
  0
SECTION
  2
OBJECTS
  0
DICTIONARY
  5
C
330
0
100
AcDbDictionary
  3
ACAD_GROUP
350
D
  3
ACAD_LAYOUT
350
141
  3
ACAD_MLINESTYLE
350
E
  3
ACAD_PLOTSETTINGS
350
142
  3
ACAD_PLOTSTYLENAME
350
13F
  3
ACADDIM
350
3023
  3
ACDBVARIABLEDICTIONARY
350
120D
  3
ACDBHEADERROUNDTRIPXREC
350
3746
  0
DICTIONARY
  5
7A2
330
1A
100
AcDbDictionary
280
     1
  3
ACAD_LAYOUTSELFREF
360
3768
  0
DICTIONARY
  5
7A0
330
17
100
AcDbDictionary
280
     1
  3
ACAD_LAYOUTSELFREF
360
3767
  0
DICTIONARY
  5
D
102
{ACAD_REACTORS
330
C
102
}
330
C
100
AcDbDictionary
  0
DICTIONARY
  5
141
102
{ACAD_REACTORS
330
C
102
}
330
C
100
AcDbDictionary
  0
DICTIONARY
  5
E
102
{ACAD_REACTORS
330
C
102
}
330
C
100
AcDbDictionary
  3
STANDARD
350
13
  0
DICTIONARY
  5
142
102
{ACAD_REACTORS
330
C
102
}
330
C
100
AcDbDictionary
  0
ACDBDICTIONARYWDFLT
  5
13F
102
{ACAD_REACTORS
330
C
102
}
330
C
100
AcDbDictionary
281
     1
  3
Normal
350
140
100
AcDbDictionaryWithDefault
340
140
1001
ACAD
1000
TREAT_AS_HARD
1070
     0
1000
TREAT_AS_HARD
1070
     0
1000
TREAT_AS_HARD
1070
     0
1000
TREAT_AS_HARD
1070
     0
1000
TREAT_AS_HARD
1070
     0
1000
TREAT_AS_HARD
1070
     0
1000
TREAT_AS_HARD
1070
     0
1000
TREAT_AS_HARD
1070
     0
1000
TREAT_AS_HARD
1070
     0
1000
TREAT_AS_HARD
1070
     0
1000
TREAT_AS_HARD
1070
     0
1000
TREAT_AS_HARD
1070
     0
1000
TREAT_AS_HARD
1070
     0
1000
TREAT_AS_HARD
1070
     0
1000
TREAT_AS_HARD
1070
     0
1000
TREAT_AS_HARD
1070
     0
1000
TREAT_AS_HARD
1070
     0
1000
TREAT_AS_HARD
1070
     0
1000
TREAT_AS_HARD
1070
     0
  0
XRECORD
  5
3023
102
{ACAD_REACTORS
330
C
102
}
330
C
100
AcDbXrecord
 90
   990106
  3

 60
     0
 61
     0
 62
     1
 63
     3
 64
     0
 65
     0
 66
     0
 67
     3
 68
     1
 69
     0
 70
     0
 71
     0
 72
     0
 40
0.0
170
     0
340
3022
  0
DICTIONARY
  5
120D
102
{ACAD_REACTORS
330
C
102
}
330
C
100
AcDbDictionary
  3
SORTENTS
350
120E
  0
DICTIONARY
  5
3746
102
{ACAD_REACTORS
330
C
102
}
330
C
100
AcDbDictionary
  3
TSTACKALIGN
350
3747
  3
TSTACKSIZE
350
3748
  3
HYPERLINKBASE
350
3749
  3
STYLESHEET
350
374A
  3
LAYOUTDICT
350
374B
  3
PLOTSETDICT
350
374C
  3
PLOTSTYLNAMDICT
350
374D
  3
LWETCUNION
350
374E
  3
INSUNITS
350
374F
  3
CEPSNTYPE
350
3750
  3
FINGERPRINTGUID
350
3751
  3
VERSIONGUID
350
3752
  3
PSVPSCALE
350
3753
  3
DIMSTYLEDATA
350
3754
  3
PUCSORTHOREF
350
3755
  3
PUCSORTHOVIEW
350
3756
  3
PUCSBASE
350
3757
  3
PUCSORGTOP
350
3758
  3
PUCSORGBOTTOM
350
3759
  3
PUCSORGLEFT
350
375A
  3
PUCSORGRIGHT
350
375B
  3
PUCSORGFRONT
350
375C
  3
PUCSORGBACK
350
375D
  3
UCSORTHOREF
350
375E
  3
UCSORTHOVIEW
350
375F
  3
UCSBASE
350
3760
  3
UCSORGTOP
350
3761
  3
UCSORGBOTTOM
350
3762
  3
UCSORGLEFT
350
3763
  3
UCSORGRIGHT
350
3764
  3
UCSORGFRONT
350
3765
  3
UCSORGBACK
350
3766
  0
XRECORD
  5
3768
102
{ACAD_REACTORS
330
7A2
102
}
330
7A2
100
AcDbXrecord
340
1A
  0
XRECORD
  5
3767
102
{ACAD_REACTORS
330
7A0
102
}
330
7A0
100
AcDbXrecord
340
17
  0
MLINESTYLE
  5
13
102
{ACAD_REACTORS
330
E
102
}
330
E
100
AcDbMlineStyle
  2
STANDARD
 70
     0
  3

 62
     0
 51
90.0
 52
90.0
 71
     2
 49
0.5
 62
   256
  6
BYLAYER
 49
-0.5
 62
   256
  6
BYLAYER
  0
ACDBPLACEHOLDER
  5
140
102
{ACAD_REACTORS
330
13F
102
}
330
13F
100
AcDbPlaceHolder
280
     0
  0
DICTIONARYVAR
  5
120E
102
{ACAD_REACTORS
330
120D
102
}
330
120D
100
DictionaryVariables
280
     0
  1
96
  0
XRECORD
  5
3747
102
{ACAD_REACTORS
330
3746
102
}
330
3746
100
AcDbXrecord
 90
        1
  0
XRECORD
  5
3748
102
{ACAD_REACTORS
330
3746
102
}
330
3746
100
AcDbXrecord
 90
       70
  0
XRECORD
  5
3749
102
{ACAD_REACTORS
330
3746
102
}
330
3746
100
AcDbXrecord
  1

  0
XRECORD
  5
374A
102
{ACAD_REACTORS
330
3746
102
}
330
3746
100
AcDbXrecord
  1
systemprinter.ctb
  0
XRECORD
  5
374B
102
{ACAD_REACTORS
330
3746
102
}
330
3746
100
AcDbXrecord
340
141
  0
XRECORD
  5
374C
102
{ACAD_REACTORS
330
3746
102
}
330
3746
100
AcDbXrecord
340
142
  0
XRECORD
  5
374D
102
{ACAD_REACTORS
330
3746
102
}
330
3746
100
AcDbXrecord
340
13F
  0
XRECORD
  5
374E
102
{ACAD_REACTORS
330
3746
102
}
330
3746
100
AcDbXrecord
 90
    10781
  0
XRECORD
  5
374F
102
{ACAD_REACTORS
330
3746
102
}
330
3746
100
AcDbXrecord
 90
        0
  0
XRECORD
  5
3750
102
{ACAD_REACTORS
330
3746
102
}
330
3746
100
AcDbXrecord
 90
        0
  0
XRECORD
  5
3751
102
{ACAD_REACTORS
330
3746
102
}
330
3746
100
AcDbXrecord
  1
{4E8D0500-CDD1-11D3-932C-444553540000}
  0
XRECORD
  5
3752
102
{ACAD_REACTORS
330
3746
102
}
330
3746
100
AcDbXrecord
  1
{423044CE-3167-4ED3-A89E-2651188A9D7D}
  0
XRECORD
  5
3753
102
{ACAD_REACTORS
330
3746
102
}
330
3746
100
AcDbXrecord
 40
0.0
  0
XRECORD
  5
3754
102
{ACAD_REACTORS
330
3746
102
}
330
3746
100
AcDbXrecord
1000
DSTYLE
1002
{
1070
   341
340
B2
1070
   343
340
B2
1070
   344
340
B2
1070
   371
 70
    -1
1070
   372
 70
    -1
1002
}
  0
XRECORD
  5
3755
102
{ACAD_REACTORS
330
3746
102
}
330
3746
100
AcDbXrecord
340
0
  0
XRECORD
  5
3756
102
{ACAD_REACTORS
330
3746
102
}
330
3746
100
AcDbXrecord
 70
     0
  0
XRECORD
  5
3757
102
{ACAD_REACTORS
330
3746
102
}
330
3746
100
AcDbXrecord
340
0
  0
XRECORD
  5
3758
102
{ACAD_REACTORS
330
3746
102
}
330
3746
100
AcDbXrecord
 10
0.0
 20
0.0
 30
0.0
  0
XRECORD
  5
3759
102
{ACAD_REACTORS
330
3746
102
}
330
3746
100
AcDbXrecord
 10
0.0
 20
0.0
 30
0.0
  0
XRECORD
  5
375A
102
{ACAD_REACTORS
330
3746
102
}
330
3746
100
AcDbXrecord
 10
0.0
 20
0.0
 30
0.0
  0
XRECORD
  5
375B
102
{ACAD_REACTORS
330
3746
102
}
330
3746
100
AcDbXrecord
 10
0.0
 20
0.0
 30
0.0
  0
XRECORD
  5
375C
102
{ACAD_REACTORS
330
3746
102
}
330
3746
100
AcDbXrecord
 10
0.0
 20
0.0
 30
0.0
  0
XRECORD
  5
375D
102
{ACAD_REACTORS
330
3746
102
}
330
3746
100
AcDbXrecord
 10
0.0
 20
0.0
 30
0.0
  0
XRECORD
  5
375E
102
{ACAD_REACTORS
330
3746
102
}
330
3746
100
AcDbXrecord
340
0
  0
XRECORD
  5
375F
102
{ACAD_REACTORS
330
3746
102
}
330
3746
100
AcDbXrecord
 70
     0
  0
XRECORD
  5
3760
102
{ACAD_REACTORS
330
3746
102
}
330
3746
100
AcDbXrecord
340
0
  0
XRECORD
  5
3761
102
{ACAD_REACTORS
330
3746
102
}
330
3746
100
AcDbXrecord
 10
0.0
 20
0.0
 30
0.0
  0
XRECORD
  5
3762
102
{ACAD_REACTORS
330
3746
102
}
330
3746
100
AcDbXrecord
 10
0.0
 20
0.0
 30
0.0
  0
XRECORD
  5
3763
102
{ACAD_REACTORS
330
3746
102
}
330
3746
100
AcDbXrecord
 10
0.0
 20
0.0
 30
0.0
  0
XRECORD
  5
3764
102
{ACAD_REACTORS
330
3746
102
}
330
3746
100
AcDbXrecord
 10
0.0
 20
0.0
 30
0.0
  0
XRECORD
  5
3765
102
{ACAD_REACTORS
330
3746
102
}
330
3746
100
AcDbXrecord
 10
0.0
 20
0.0
 30
0.0
  0
XRECORD
  5
3766
102
{ACAD_REACTORS
330
3746
102
}
330
3746
100
AcDbXrecord
 10
0.0
 20
0.0
 30
0.0
  0
ENDSEC
  0
EOF
