  0
SECTION
  2
HEADER
  9
$ACADVER
  1
AC1014
  9
$ACADMAINTVER
 70
     9
  9
$DWGCODEPAGE
  3
ANSI_932
  9
$INSBASE
 10
0.0
 20
0.0
 30
0.0
  9
$EXTMIN
 10
-0.0128164191105498
 20
-0.0090631695666161
 30
-0.0000000100021362
  9
$EXTMAX
 10
398.8000497806185
 20
275.8226172339937
 30
0.0000000100021363
  9
$LIMMIN
 10
0.0
 20
0.0
  9
$LIMMAX
 10
420.0
 20
297.0
  9
$ORTHOMODE
 70
     0
  9
$REGENMODE
 70
     1
  9
$FILLMODE
 70
     1
  9
$QTEXTMODE
 70
     0
  9
$MIRRTEXT
 70
     1
  9
$DRAGMODE
 70
     2
  9
$LTSCALE
 40
5.0
  9
$OSMODE
 70
    35
  9
$ATTMODE
 70
     1
  9
$TEXTSIZE
 40
3.0
  9
$TRACEWID
 40
1.0
  9
$TEXTSTYLE
  7
STANDARD
  9
$CLAYER
  8
SUNPOU
  9
$CELTYPE
  6
BYLAYER
  9
$CECOLOR
 62
   256
  9
$CELTSCALE
 40
1.0
  9
$DELOBJ
 70
     1
  9
$DISPSILH
 70
     0
  9
$DIMSCALE
 40
1.0
  9
$DIMASZ
 40
3.0
  9
$DIMEXO
 40
3.0
  9
$DIMDLI
 40
7.0
  9
$DIMRND
 40
0.0
  9
$DIMDLE
 40
0.0
  9
$DIMEXE
 40
1.5
  9
$DIMTP
 40
0.0
  9
$DIMTM
 40
0.0
  9
$DIMTXT
 40
3.0
  9
$DIMCEN
 40
3.0
  9
$DIMTSZ
 40
0.0
  9
$DIMTOL
 70
     0
  9
$DIMLIM
 70
     0
  9
$DIMTIH
 70
     0
  9
$DIMTOH
 70
     0
  9
$DIMSE1
 70
     0
  9
$DIMSE2
 70
     0
  9
$DIMTAD
 70
     3
  9
$DIMZIN
 70
     0
  9
$DIMBLK
  1

  9
$DIMASO
 70
     1
  9
$DIMSHO
 70
     1
  9
$DIMPOST
  1

  9
$DIMAPOST
  1

  9
$DIMALT
 70
     0
  9
$DIMALTD
 70
     2
  9
$DIMALTF
 40
25.4
  9
$DIMLFAC
 40
1.0
  9
$DIMTOFL
 70
     1
  9
$DIMTVP
 40
0.0
  9
$DIMTIX
 70
     0
  9
$DIMSOXD
 70
     0
  9
$DIMSAH
 70
     1
  9
$DIMBLK1
  1
OPEN
  9
$DIMBLK2
  1
OPEN
  9
$DIMSTYLE
  2
STANDARD
  9
$DIMCLRD
 70
   256
  9
$DIMCLRE
 70
   256
  9
$DIMCLRT
 70
   256
  9
$DIMTFAC
 40
1.0
  9
$DIMGAP
 40
1.0
  9
$DIMJUST
 70
     0
  9
$DIMSD1
 70
     0
  9
$DIMSD2
 70
     0
  9
$DIMTOLJ
 70
     1
  9
$DIMTZIN
 70
     0
  9
$DIMALTZ
 70
     0
  9
$DIMALTTZ
 70
     0
  9
$DIMFIT
 70
     3
  9
$DIMUPT
 70
     0
  9
$DIMUNIT
 70
     2
  9
$DIMDEC
 70
     0
  9
$DIMTDEC
 70
     0
  9
$DIMALTU
 70
     2
  9
$DIMALTTD
 70
     2
  9
$DIMTXSTY
  7
STANDARD
  9
$DIMAUNIT
 70
     0
  9
$LUNITS
 70
     2
  9
$LUPREC
 70
     4
  9
$SKETCHINC
 40
1.0
  9
$FILLETRAD
 40
0.25
  9
$AUNITS
 70
     0
  9
$AUPREC
 70
     0
  9
$MENU
  1
.
  9
$ELEVATION
 40
0.0
  9
$PELEVATION
 40
0.0
  9
$THICKNESS
 40
0.0
  9
$LIMCHECK
 70
     0
  9
$BLIPMODE
 70
     0
  9
$CHAMFERA
 40
10.0
  9
$CHAMFERB
 40
10.0
  9
$CHAMFERC
 40
20.0
  9
$CHAMFERD
 40
0.0
  9
$SKPOLY
 70
     0
  9
$TDCREATE
 40
2451589.469382176
  9
$TDUPDATE
 40
2453802.570229664
  9
$TDINDWG
 40
0.5166193634
  9
$TDUSRTIMER
 40
0.5166193634
  9
$USRTIMER
 70
     1
  9
$ANGBASE
 50
0.0
  9
$ANGDIR
 70
     0
  9
$PDMODE
 70
     0
  9
$PDSIZE
 40
0.0
  9
$PLINEWID
 40
0.0
  9
$COORDS
 70
     1
  9
$SPLFRAME
 70
     0
  9
$SPLINETYPE
 70
     6
  9
$SPLINESEGS
 70
     8
  9
$ATTDIA
 70
     0
  9
$ATTREQ
 70
     1
  9
$HANDLING
 70
 10241
  9
$HANDSEED
  5
3833
  9
$SURFTAB1
 70
     6
  9
$SURFTAB2
 70
     6
  9
$SURFTYPE
 70
     6
  9
$SURFU
 70
     6
  9
$SURFV
 70
     6
  9
$UCSNAME
  2

  9
$UCSORG
 10
0.0
 20
0.0
 30
0.0
  9
$UCSXDIR
 10
1.0
 20
0.0
 30
0.0
  9
$UCSYDIR
 10
0.0
 20
1.0
 30
0.0
  9
$PUCSNAME
  2

  9
$PUCSORG
 10
0.0
 20
0.0
 30
0.0
  9
$PUCSXDIR
 10
1.0
 20
0.0
 30
0.0
  9
$PUCSYDIR
 10
0.0
 20
1.0
 30
0.0
  9
$USERI1
 70
     0
  9
$USERI2
 70
     0
  9
$USERI3
 70
     0
  9
$USERI4
 70
     0
  9
$USERI5
 70
     0
  9
$USERR1
 40
0.0
  9
$USERR2
 40
0.0
  9
$USERR3
 40
0.0
  9
$USERR4
 40
0.0
  9
$USERR5
 40
0.0
  9
$WORLDVIEW
 70
     1
  9
$SHADEDGE
 70
     3
  9
$SHADEDIF
 70
    70
  9
$TILEMODE
 70
     1
  9
$MAXACTVP
 70
    16
  9
$PINSBASE
 10
0.0
 20
0.0
 30
0.0
  9
$PLIMCHECK
 70
     0
  9
$PEXTMIN
 10
0.0
 20
0.0
 30
0.0
  9
$PEXTMAX
 10
420.0
 20
297.0
 30
0.0
  9
$PLIMMIN
 10
0.0
 20
0.0
  9
$PLIMMAX
 10
420.0
 20
297.0
  9
$UNITMODE
 70
     0
  9
$VISRETAIN
 70
     0
  9
$PLINEGEN
 70
     0
  9
$PSLTSCALE
 70
     1
  9
$TREEDEPTH
 70
  3020
  9
$PICKSTYLE
 70
     1
  9
$CMLSTYLE
  2
STANDARD
  9
$CMLJUST
 70
     0
  9
$CMLSCALE
 40
1.0
  9
$PROXYGRAPHICS
 70
     1
  9
$MEASUREMENT
 70
     0
  0
ENDSEC
  0
SECTION
  2
CLASSES
  0
CLASS
  1
ACDBDICTIONARYWDFLT
  2
AcDbDictionaryWithDefault
  3
AutoCAD 2000
 90
        0
280
     0
281
     0
  0
CLASS
  1
ACDBPLACEHOLDER
  2
AcDbPlaceHolder
  3
AutoCAD 2000
 90
        0
280
     0
281
     0
  0
CLASS
  1
LAYOUT
  2
AcDbLayout
  3
AutoCAD 2000
 90
        0
280
     0
281
     0
  0
CLASS
  1
LONG_TRANSACTION
  2
AcDbLongTransaction
  3
AutoCAD 2000
 90
        0
280
     0
281
     0
  0
CLASS
  1
LWPOLYLINE
  2
AcDbPolyline
  3
AutoCAD 2000
 90
        0
280
     0
281
     1
  0
CLASS
  1
HATCH
  2
AcDbHatch
  3
AutoCAD 2000
 90
        0
280
     0
281
     1
  0
CLASS
  1
XRECORD
  2
AcDbXrecord
  3
AutoCAD 2000
 90
        0
280
     0
281
     0
  0
CLASS
  1
LONG_TRANSACTION
  2
AcDbLongTransaction
  3
AutoCAD 2000
 90
        0
280
     0
281
     0
  0
CLASS
  1
LWPOLYLINE
  2
AcDbPolyline
  3
AutoCAD 2000
 90
        0
280
     0
281
     1
  0
CLASS
  1
HATCH
  2
AcDbHatch
  3
AutoCAD 2000
 90
        0
280
     0
281
     1
  0
CLASS
  1
XRECORD
  2
AcDbXrecord
  3
AutoCAD 2000
 90
        0
280
     0
281
     0
  0
CLASS
  1
DICTIONARYVAR
  2
AcDbDictionaryVar
  3
AutoCAD 2000
 90
        0
280
     0
281
     0
  0
CLASS
  1
LONG_TRANSACTION
  2
AcDbLongTransaction
  3
AutoCAD 2000
 90
        0
280
     0
281
     0
  0
CLASS
  1
LWPOLYLINE
  2
AcDbPolyline
  3
AutoCAD 2000
 90
        0
280
     0
281
     1
  0
CLASS
  1
HATCH
  2
AcDbHatch
  3
AutoCAD 2000
 90
        0
280
     0
281
     1
  0
CLASS
  1
XRECORD
  2
AcDbXrecord
  3
AutoCAD 2000
 90
        0
280
     0
281
     0
  0
CLASS
  1
LONG_TRANSACTION
  2
AcDbLongTransaction
  3
AutoCAD 2000
 90
        0
280
     0
281
     0
  0
CLASS
  1
LWPOLYLINE
  2
AcDbPolyline
  3
AutoCAD 2000
 90
        0
280
     0
281
     1
  0
CLASS
  1
HATCH
  2
AcDbHatch
  3
AutoCAD 2000
 90
        0
280
     0
281
     1
  0
CLASS
  1
XRECORD
  2
AcDbXrecord
  3
AutoCAD 2000
 90
        0
280
     0
281
     0
  0
CLASS
  1
LONG_TRANSACTION
  2
AcDbLongTransaction
  3
AutoCAD 2000
 90
        0
280
     0
281
     0
  0
CLASS
  1
LWPOLYLINE
  2
AcDbPolyline
  3
AutoCAD 2000
 90
        0
280
     0
281
     1
  0
CLASS
  1
HATCH
  2
AcDbHatch
  3
AutoCAD 2000
 90
        0
280
     0
281
     1
  0
CLASS
  1
XRECORD
  2
AcDbXrecord
  3
AutoCAD 2000
 90
        0
280
     0
281
     0
  0
CLASS
  1
LONG_TRANSACTION
  2
AcDbLongTransaction
  3
AutoCAD 2000
 90
        0
280
     0
281
     0
  0
CLASS
  1
LWPOLYLINE
  2
AcDbPolyline
  3
AutoCAD 2000
 90
        0
280
     0
281
     1
  0
CLASS
  1
HATCH
  2
AcDbHatch
  3
AutoCAD 2000
 90
        0
280
     0
281
     1
  0
CLASS
  1
XRECORD
  2
AcDbXrecord
  3
AutoCAD 2000
 90
        0
280
     0
281
     0
  0
CLASS
  1
LONG_TRANSACTION
  2
AcDbLongTransaction
  3
AutoCAD 2000
 90
        0
280
     0
281
     0
  0
CLASS
  1
LWPOLYLINE
  2
AcDbPolyline
  3
AutoCAD 2000
 90
        0
280
     0
281
     1
  0
CLASS
  1
HATCH
  2
AcDbHatch
  3
AutoCAD 2000
 90
        0
280
     0
281
     1
  0
CLASS
  1
XRECORD
  2
AcDbXrecord
  3
AutoCAD 2000
 90
        0
280
     0
281
     0
  0
CLASS
  1
LONG_TRANSACTION
  2
AcDbLongTransaction
  3
AutoCAD 2000
 90
        0
280
     0
281
     0
  0
CLASS
  1
LWPOLYLINE
  2
AcDbPolyline
  3
AutoCAD 2000
 90
        0
280
     0
281
     1
  0
CLASS
  1
HATCH
  2
AcDbHatch
  3
AutoCAD 2000
 90
        0
280
     0
281
     1
  0
CLASS
  1
XRECORD
  2
AcDbXrecord
  3
AutoCAD 2000
 90
        0
280
     0
281
     0
  0
CLASS
  1
LONG_TRANSACTION
  2
AcDbLongTransaction
  3
AutoCAD 2000
 90
        0
280
     0
281
     0
  0
CLASS
  1
LWPOLYLINE
  2
AcDbPolyline
  3
AutoCAD 2000
 90
        0
280
     0
281
     1
  0
CLASS
  1
HATCH
  2
AcDbHatch
  3
AutoCAD 2000
 90
        0
280
     0
281
     1
  0
CLASS
  1
XRECORD
  2
AcDbXrecord
  3
AutoCAD 2000
 90
        0
280
     0
281
     0
  0
CLASS
  1
LONG_TRANSACTION
  2
AcDbLongTransaction
  3
AutoCAD 2000
 90
        0
280
     0
281
     0
  0
CLASS
  1
LWPOLYLINE
  2
AcDbPolyline
  3
AutoCAD 2000
 90
        0
280
     0
281
     1
  0
CLASS
  1
HATCH
  2
AcDbHatch
  3
AutoCAD 2000
 90
        0
280
     0
281
     1
  0
CLASS
  1
XRECORD
  2
AcDbXrecord
  3
AutoCAD 2000
 90
        0
280
     0
281
     0
  0
CLASS
  1
LONG_TRANSACTION
  2
AcDbLongTransaction
  3
AutoCAD 2000
 90
        0
280
     0
281
     0
  0
CLASS
  1
LWPOLYLINE
  2
AcDbPolyline
  3
AutoCAD 2000
 90
        0
280
     0
281
     1
  0
CLASS
  1
HATCH
  2
AcDbHatch
  3
AutoCAD 2000
 90
        0
280
     0
281
     1
  0
CLASS
  1
XRECORD
  2
AcDbXrecord
  3
AutoCAD 2000
 90
        0
280
     0
281
     0
  0
CLASS
  1
LONG_TRANSACTION
  2
AcDbLongTransaction
  3
AutoCAD 2000
 90
        0
280
     0
281
     0
  0
CLASS
  1
LWPOLYLINE
  2
AcDbPolyline
  3
AutoCAD 2000
 90
        0
280
     0
281
     1
  0
CLASS
  1
HATCH
  2
AcDbHatch
  3
AutoCAD 2000
 90
        0
280
     0
281
     1
  0
CLASS
  1
XRECORD
  2
AcDbXrecord
  3
AutoCAD 2000
 90
        0
280
     0
281
     0
  0
CLASS
  1
LONG_TRANSACTION
  2
AcDbLongTransaction
  3
AutoCAD 2000
 90
        0
280
     0
281
     0
  0
CLASS
  1
LWPOLYLINE
  2
AcDbPolyline
  3
AutoCAD 2000
 90
        0
280
     0
281
     1
  0
CLASS
  1
HATCH
  2
AcDbHatch
  3
AutoCAD 2000
 90
        0
280
     0
281
     1
  0
CLASS
  1
XRECORD
  2
AcDbXrecord
  3
AutoCAD 2000
 90
        0
280
     0
281
     0
  0
CLASS
  1
LONG_TRANSACTION
  2
AcDbLongTransaction
  3
AutoCAD 2000
 90
        0
280
     0
281
     0
  0
CLASS
  1
LWPOLYLINE
  2
AcDbPolyline
  3
AutoCAD 2000
 90
        0
280
     0
281
     1
  0
CLASS
  1
HATCH
  2
AcDbHatch
  3
AutoCAD 2000
 90
        0
280
     0
281
     1
  0
CLASS
  1
XRECORD
  2
AcDbXrecord
  3
AutoCAD 2000
 90
        0
280
     0
281
     0
  0
CLASS
  1
LONG_TRANSACTION
  2
AcDbLongTransaction
  3
AutoCAD 2000
 90
        0
280
     0
281
     0
  0
CLASS
  1
LWPOLYLINE
  2
AcDbPolyline
  3
AutoCAD 2000
 90
        0
280
     0
281
     1
  0
CLASS
  1
HATCH
  2
AcDbHatch
  3
AutoCAD 2000
 90
        0
280
     0
281
     1
  0
CLASS
  1
XRECORD
  2
AcDbXrecord
  3
AutoCAD 2000
 90
        0
280
     0
281
     0
  0
CLASS
  1
LONG_TRANSACTION
  2
AcDbLongTransaction
  3
AutoCAD 2000
 90
        0
280
     0
281
     0
  0
CLASS
  1
LWPOLYLINE
  2
AcDbPolyline
  3
AutoCAD 2000
 90
        0
280
     0
281
     1
  0
CLASS
  1
HATCH
  2
AcDbHatch
  3
AutoCAD 2000
 90
        0
280
     0
281
     1
  0
CLASS
  1
XRECORD
  2
AcDbXrecord
  3
AutoCAD 2000
 90
        0
280
     0
281
     0
  0
CLASS
  1
LONG_TRANSACTION
  2
AcDbLongTransaction
  3
AutoCAD 2000
 90
        0
280
     0
281
     0
  0
CLASS
  1
LWPOLYLINE
  2
AcDbPolyline
  3
AutoCAD 2000
 90
        0
280
     0
281
     1
  0
CLASS
  1
HATCH
  2
AcDbHatch
  3
AutoCAD 2000
 90
        0
280
     0
281
     1
  0
CLASS
  1
XRECORD
  2
AcDbXrecord
  3
AutoCAD 2000
 90
        0
280
     0
281
     0
  0
CLASS
  1
LONG_TRANSACTION
  2
AcDbLongTransaction
  3
AutoCAD 2000
 90
        0
280
     0
281
     0
  0
CLASS
  1
LWPOLYLINE
  2
AcDbPolyline
  3
AutoCAD 2000
 90
        0
280
     0
281
     1
  0
CLASS
  1
HATCH
  2
AcDbHatch
  3
AutoCAD 2000
 90
        0
280
     0
281
     1
  0
CLASS
  1
XRECORD
  2
AcDbXrecord
  3
AutoCAD 2000
 90
        0
280
     0
281
     0
  0
CLASS
  1
LONG_TRANSACTION
  2
AcDbLongTransaction
  3
AutoCAD 2000
 90
        0
280
     0
281
     0
  0
CLASS
  1
LWPOLYLINE
  2
AcDbPolyline
  3
AutoCAD 2000
 90
        0
280
     0
281
     1
  0
CLASS
  1
HATCH
  2
AcDbHatch
  3
AutoCAD 2000
 90
        0
280
     0
281
     1
  0
CLASS
  1
XRECORD
  2
AcDbXrecord
  3
AutoCAD 2000
 90
        0
280
     0
281
     0
  0
CLASS
  1
LONG_TRANSACTION
  2
AcDbLongTransaction
  3
AutoCAD 2000
 90
        0
280
     0
281
     0
  0
CLASS
  1
LWPOLYLINE
  2
AcDbPolyline
  3
AutoCAD 2000
 90
        0
280
     0
281
     1
  0
CLASS
  1
HATCH
  2
AcDbHatch
  3
AutoCAD 2000
 90
        0
280
     0
281
     1
  0
CLASS
  1
XRECORD
  2
AcDbXrecord
  3
AutoCAD 2000
 90
        0
280
     0
281
     0
  0
CLASS
  1
LONG_TRANSACTION
  2
AcDbLongTransaction
  3
AutoCAD 2000
 90
        0
280
     0
281
     0
  0
CLASS
  1
LWPOLYLINE
  2
AcDbPolyline
  3
AutoCAD 2000
 90
        0
280
     0
281
     1
  0
CLASS
  1
HATCH
  2
AcDbHatch
  3
AutoCAD 2000
 90
        0
280
     0
281
     1
  0
CLASS
  1
XRECORD
  2
AcDbXrecord
  3
AutoCAD 2000
 90
        0
280
     0
281
     0
  0
ENDSEC
  0
SECTION
  2
TABLES
  0
TABLE
  2
VPORT
  5
8
330
0
100
AcDbSymbolTable
 70
     2
  0
VPORT
  5
380F
330
8
100
AcDbSymbolTableRecord
100
AcDbViewportTableRecord
  2
*ACTIVE
 70
     0
 10
0.0
 20
0.0
 11
1.0
 21
1.0
 12
229.6797467848815
 22
152.9311064490481
 13
0.0
 23
0.0
 14
5.0
 24
5.0
 15
0.0
 25
0.0
 16
0.0
 26
0.0
 36
1.0
 17
0.0
 27
0.0
 37
0.0
 40
379.7564671530121
 41
1.795454545454545
 42
50.0
 43
0.0
 44
0.0
 50
0.0
 51
0.0
 71
     0
 72
   100
 73
     1
 74
     0
 75
     0
 76
     0
 77
     0
 78
     0
  0
ENDTAB
  0
TABLE
  2
LTYPE
  5
5
330
0
100
AcDbSymbolTable
 70
     3
  0
LTYPE
  5
14
330
5
100
AcDbSymbolTableRecord
100
AcDbLinetypeTableRecord
  2
BYBLOCK
 70
     0
  3

 72
    65
 73
     0
 40
0.0
  0
LTYPE
  5
15
330
5
100
AcDbSymbolTableRecord
100
AcDbLinetypeTableRecord
  2
BYLAYER
 70
     0
  3

 72
    65
 73
     0
 40
0.0
  0
LTYPE
  5
16
330
5
100
AcDbSymbolTableRecord
100
AcDbLinetypeTableRecord
  2
CONTINUOUS
 70
     0
  3
Solid line
 72
    65
 73
     0
 40
0.0
  0
LTYPE
  5
120
330
5
100
AcDbSymbolTableRecord
100
AcDbLinetypeTableRecord
  2
CENTER
 70
     0
  3
____ _ ____ _ ____ _ ____ _ ____ _ ____ _ ____ 
 72
    65
 73
     4
 40
2.0
 49
1.25
 74
     0
 49
-0.25
 74
     0
 49
0.25
 74
     0
 49
-0.25
 74
     0
  0
LTYPE
  5
122
330
5
100
AcDbSymbolTableRecord
100
AcDbLinetypeTableRecord
  2
PHANTOM
 70
     0
  3
______  __  __  ______  __  __  ______  __  __ 
 72
    65
 73
     6
 40
2.5
 49
1.25
 74
     0
 49
-0.25
 74
     0
 49
0.25
 74
     0
 49
-0.25
 74
     0
 49
0.25
 74
     0
 49
-0.25
 74
     0
  0
ENDTAB
  0
TABLE
  2
LAYER
  5
2
330
0
100
AcDbSymbolTable
 70
     9
  0
LAYER
  5
F
330
2
100
AcDbSymbolTableRecord
100
AcDbLayerTableRecord
  2
0
 70
     0
 62
     7
  6
CONTINUOUS
  0
LAYER
  5
62
330
2
100
AcDbSymbolTableRecord
100
AcDbLayerTableRecord
  2
VIEWPORT
 70
     0
 62
     7
  6
CONTINUOUS
  0
LAYER
  5
6B
330
2
100
AcDbSymbolTableRecord
100
AcDbLayerTableRecord
  2
ZUWAKU
 70
     0
 62
     7
  6
CONTINUOUS
  0
LAYER
  5
3EF
330
2
100
AcDbSymbolTableRecord
100
AcDbLayerTableRecord
  2
DEFPOINTS
 70
     0
 62
     7
  6
CONTINUOUS
  0
LAYER
  5
54D
330
2
100
AcDbSymbolTableRecord
100
AcDbLayerTableRecord
  2
SEIHIN
 70
     0
 62
     3
  6
CONTINUOUS
  0
LAYER
  5
54E
330
2
100
AcDbSymbolTableRecord
100
AcDbLayerTableRecord
  2
SUNPOU
 70
     0
 62
     4
  6
CONTINUOUS
  0
LAYER
  5
54F
330
2
100
AcDbSymbolTableRecord
100
AcDbLayerTableRecord
  2
CENTER_L
 70
     0
 62
     1
  6
CENTER
  0
LAYER
  5
550
330
2
100
AcDbSymbolTableRecord
100
AcDbLayerTableRecord
  2
NOKITOI
 70
     0
 62
     8
  6
PHANTOM
  0
LAYER
  5
3698
330
2
100
AcDbSymbolTableRecord
100
AcDbLayerTableRecord
  2
MOJI
 70
     0
 62
     2
  6
CONTINUOUS
  0
ENDTAB
  0
TABLE
  2
STYLE
  5
3
330
0
100
AcDbSymbolTable
 70
     2
  0
STYLE
  5
10
330
3
100
AcDbSymbolTableRecord
100
AcDbTextStyleTableRecord
  2
STANDARD
 70
     0
 40
0.0
 41
1.0
 50
0.0
 71
     0
 42
3.0
  3
TXT
  4
c:\PROGRAM FILES\AUTOCAD LT\ms\bigfont.shx
  0
STYLE
  5
3699
330
3
100
AcDbSymbolTableRecord
100
AcDbTextStyleTableRecord
  2
ｽﾀｲﾙ1
 70
     0
 40
0.0
 41
1.0
 50
0.0
 71
     0
 42
2.5
  3
MS PGothic.ttf
  4

1001
ACAD
1000
MS PGothic
1071
    32818
  0
ENDTAB
  0
TABLE
  2
VIEW
  5
6
330
0
100
AcDbSymbolTable
 70
     0
  0
ENDTAB
  0
TABLE
  2
UCS
  5
7
330
0
100
AcDbSymbolTable
 70
     0
  0
ENDTAB
  0
TABLE
  2
APPID
  5
9
330
0
100
AcDbSymbolTable
 70
     1
  0
APPID
  5
11
330
9
100
AcDbSymbolTableRecord
100
AcDbRegAppTableRecord
  2
ACAD
 70
     0
  0
ENDTAB
  0
TABLE
  2
DIMSTYLE
  5
A
330
0
100
AcDbSymbolTable
 70
     1
  0
DIMSTYLE
105
1D
102
{ACAD_REACTORS
330
1FF7
330
2006
330
2015
330
2022
330
204C
330
2059
330
2073
330
2F39
330
2F81
330
2F8E
330
2FF7
330
34EF
102
}
330
A
100
AcDbSymbolTableRecord
100
AcDbDimStyleTableRecord
  2
STANDARD
 70
     0
  3

  4

  5

  6

  7

 40
1.0
 41
0.18
 42
0.0625
 43
0.38
 44
0.18
 45
0.0
 46
0.0
 47
0.0
 48
0.0
140
0.18
141
0.09
142
0.0
143
25.4
144
1.0
145
0.0
146
1.0
147
0.09
 71
     0
 72
     0
 73
     1
 74
     1
 75
     0
 76
     0
 77
     0
 78
     0
170
     0
171
     2
172
     0
173
     0
174
     0
175
     0
176
     0
177
     0
178
     0
270
     2
271
     4
272
     4
273
     2
274
     2
340
10
275
     0
280
     0
281
     0
282
     0
283
     1
284
     0
285
     0
286
     0
287
     3
288
     0
  0
ENDTAB
  0
TABLE
  2
BLOCK_RECORD
  5
1
330
0
100
AcDbSymbolTable
 70
    13
  0
BLOCK_RECORD
  5
1A
102
{ACAD_XDICTIONARY
360
7A2
102
}
330
1
100
AcDbSymbolTableRecord
100
AcDbBlockTableRecord
  2
*MODEL_SPACE
  0
BLOCK_RECORD
  5
17
102
{ACAD_XDICTIONARY
360
7A0
102
}
330
1
100
AcDbSymbolTableRecord
100
AcDbBlockTableRecord
  2
*PAPER_SPACE
  0
BLOCK_RECORD
  5
B2
330
1
100
AcDbSymbolTableRecord
100
AcDbBlockTableRecord
  2
_OPEN
  0
BLOCK_RECORD
  5
1FF8
330
1
100
AcDbSymbolTableRecord
100
AcDbBlockTableRecord
  2
*D1
  0
BLOCK_RECORD
  5
2007
330
1
100
AcDbSymbolTableRecord
100
AcDbBlockTableRecord
  2
*D2
  0
BLOCK_RECORD
  5
2016
330
1
100
AcDbSymbolTableRecord
100
AcDbBlockTableRecord
  2
*D3
  0
BLOCK_RECORD
  5
2023
330
1
100
AcDbSymbolTableRecord
100
AcDbBlockTableRecord
  2
*D4
  0
BLOCK_RECORD
  5
204D
330
1
100
AcDbSymbolTableRecord
100
AcDbBlockTableRecord
  2
*D5
  0
BLOCK_RECORD
  5
205A
330
1
100
AcDbSymbolTableRecord
100
AcDbBlockTableRecord
  2
*D6
  0
BLOCK_RECORD
  5
2074
330
1
100
AcDbSymbolTableRecord
100
AcDbBlockTableRecord
  2
*D7
  0
BLOCK_RECORD
  5
2F3A
330
1
100
AcDbSymbolTableRecord
100
AcDbBlockTableRecord
  2
*D8
  0
BLOCK_RECORD
  5
2F82
330
1
100
AcDbSymbolTableRecord
100
AcDbBlockTableRecord
  2
*D9
  0
BLOCK_RECORD
  5
2F8F
330
1
100
AcDbSymbolTableRecord
100
AcDbBlockTableRecord
  2
*D10
  0
BLOCK_RECORD
  5
2FF8
330
1
100
AcDbSymbolTableRecord
100
AcDbBlockTableRecord
  2
*D11
  0
BLOCK_RECORD
  5
3536
330
1
100
AcDbSymbolTableRecord
100
AcDbBlockTableRecord
  2
*D12
  0
ENDTAB
  0
ENDSEC
  0
SECTION
  2
BLOCKS
  0
BLOCK
  5
1B
330
1A
100
AcDbEntity
  8
0
100
AcDbBlockBegin
  2
*MODEL_SPACE
 70
     0
 10
0.0
 20
0.0
 30
0.0
  3
*MODEL_SPACE
  1

  0
ENDBLK
  5
1C
330
1A
100
AcDbEntity
  8
0
100
AcDbBlockEnd
  0
BLOCK
  5
18
330
17
100
AcDbEntity
 67
     1
  8
0
100
AcDbBlockBegin
  2
*PAPER_SPACE
 70
     0
 10
0.0
 20
0.0
 30
0.0
  3
*PAPER_SPACE
  1

  0
ENDBLK
  5
19
330
17
100
AcDbEntity
 67
     1
  8
0
100
AcDbBlockEnd
  0
BLOCK
  5
B3
330
B2
100
AcDbEntity
  8
0
100
AcDbBlockBegin
  2
_OPEN
 70
     0
 10
0.0
 20
0.0
 30
0.0
  3
_OPEN
  1

  0
LINE
  5
B4
330
B2
100
AcDbEntity
  8
0
  6
BYBLOCK
 62
     0
100
AcDbLine
 10
-1.0
 20
0.1666666666666666
 30
0.0
 11
0.0
 21
0.0
 31
0.0
  0
LINE
  5
B5
330
B2
100
AcDbEntity
  8
0
  6
BYBLOCK
 62
     0
100
AcDbLine
 10
0.0
 20
0.0
 30
0.0
 11
-1.0
 21
-0.1666666666666666
 31
0.0
  0
LINE
  5
B6
330
B2
100
AcDbEntity
  8
0
  6
BYBLOCK
 62
     0
100
AcDbLine
 10
0.0
 20
0.0
 30
0.0
 11
-1.0
 21
0.0
 31
0.0
  0
ENDBLK
  5
B7
330
B2
100
AcDbEntity
  8
0
100
AcDbBlockEnd
  0
BLOCK
  5
2002
330
1FF8
100
AcDbEntity
  8
0
100
AcDbBlockBegin
  2
*D1
 70
     1
 10
0.0
 20
0.0
 30
0.0
  3
*D1
  1

  0
LINE
  5
35BE
330
1FF8
100
AcDbEntity
  8
SUNPOU
100
AcDbLine
 10
282.3489285160716
 20
113.8115921142209
 30
0.0
 11
300.5020872898248
 21
121.0727051274465
 31
0.0
  0
LINE
  5
35BF
330
1FF8
100
AcDbEntity
  8
SUNPOU
100
AcDbLine
 10
295.3473699380661
 20
81.31481503403984
 30
0.0
 11
313.5005287118194
 21
88.57592804726554
 31
0.0
  0
LINE
  5
35C0
330
1FF8
100
AcDbEntity
  8
SUNPOU
100
AcDbLine
 10
300.223520393988
 20
117.7301910310598
 30
0.0
 11
310.993657572212
 21
90.804290021767
 31
0.0
  0
INSERT
  5
35C1
330
1FF8
100
AcDbEntity
  8
SUNPOU
100
AcDbBlockReference
  2
_OPEN
 10
299.1093682721028
 20
120.5156290665039
 30
0.0
 41
3.0
 42
3.0
 43
3.0
 50
111.8010000000003
  0
INSERT
  5
35C2
330
1FF8
100
AcDbEntity
  8
SUNPOU
100
AcDbBlockReference
  2
_OPEN
 10
312.1078096940973
 20
88.01885198632291
 30
0.0
 41
3.0
 42
3.0
 43
3.0
 50
291.8010000000003
  0
MTEXT
  5
35C3
330
1FF8
100
AcDbEntity
  8
SUNPOU
100
AcDbMText
 10
307.9297873459701
 20
105.1957006279844
 30
0.0
 40
3.0
 41
0.0
 71
     5
 72
     5
  1
\A1;35
 11
0.3713840406284137
 21
-0.9284793451480291
 31
0.0
1001
ACAD
1000
MTEXTBEGIN
1070
    73
1070
     1
1070
    44
1040
1.0
1070
    74
1070
     0
1000
MTEXTEND
1000
MTEXTBEGIN
1070
    73
1070
     1
1070
    44
1040
1.0
1070
    74
1070
     0
1000
MTEXTEND
1000
MTEXTBEGIN
1070
    73
1070
     1
1070
    44
1040
1.0
1070
    74
1070
     0
1000
MTEXTEND
  0
POINT
  5
35C4
330
1FF8
100
AcDbEntity
  8
DEFPOINTS
 62
     0
100
AcDbPoint
 10
279.5634904806275
 20
112.6974399923357
 30
0.0
  0
POINT
  5
35C5
330
1FF8
100
AcDbEntity
  8
DEFPOINTS
 62
     0
100
AcDbPoint
 10
292.561931902622
 20
80.2006629121546
 30
0.0
  0
POINT
  5
35C6
330
1FF8
100
AcDbEntity
  8
DEFPOINTS
 62
     0
100
AcDbPoint
 10
312.1078096940973
 20
88.01885198632291
 30
0.0
  0
ENDBLK
  5
2003
330
1FF8
100
AcDbEntity
  8
0
100
AcDbBlockEnd
  0
BLOCK
  5
2013
330
2007
100
AcDbEntity
  8
0
100
AcDbBlockBegin
  2
*D2
 70
     1
 10
0.0
 20
0.0
 30
0.0
  3
*D2
  1

  0
LINE
  5
35C7
330
2007
100
AcDbEntity
  8
SUNPOU
100
AcDbLine
 10
303.0026694505675
 20
122.0729172610096
 30
0.0
 11
288.4088146094981
 21
116.2354963129359
 31
0.0
  0
LINE
  5
35C8
330
2007
100
AcDbEntity
  8
SUNPOU
100
AcDbLine
 10
305.8808938410798
 20
114.6079440957625
 30
0.0
 11
291.3798869345254
 21
108.8076615517517
 31
0.0
  0
LINE
  5
35C9
330
2007
100
AcDbEntity
  8
SUNPOU
100
AcDbLine
 10
288.6873815053349
 20
119.5780104093226
 30
0.0
 11
287.5732293834496
 21
122.3634484447667
 31
0.0
  0
LINE
  5
35CA
330
2007
100
AcDbEntity
  8
SUNPOU
100
AcDbLine
 10
293.8867580741327
 20
106.5792995772502
 30
0.0
 11
295.000910196018
 21
103.7938615418061
 31
0.0
  0
LINE
  5
35CB
330
2007
100
AcDbEntity
  8
SUNPOU
100
AcDbLine
 10
289.8015336272201
 20
116.7925723738785
 30
0.0
 11
292.7726059522474
 21
109.3647376126943
 31
0.0
  0
INSERT
  5
35CC
330
2007
100
AcDbEntity
  8
SUNPOU
100
AcDbBlockReference
  2
_OPEN
 10
289.8015336272201
 20
116.7925723738785
 30
0.0
 41
3.0
 42
3.0
 43
3.0
 50
291.8010000000003
  0
INSERT
  5
35CD
330
2007
100
AcDbEntity
  8
SUNPOU
100
AcDbBlockReference
  2
_OPEN
 10
292.7726059522474
 20
109.3647376126943
 30
0.0
 41
3.0
 42
3.0
 43
3.0
 50
111.8010000000003
  0
MTEXT
  5
35CE
330
2007
100
AcDbEntity
  8
SUNPOU
100
AcDbMText
 10
293.6082681526039
 20
114.0071150948575
 30
0.0
 40
3.0
 41
0.0
 71
     5
 72
     5
  1
\A1;8
 11
0.3713840406284137
 21
-0.9284793451480291
 31
0.0
1001
ACAD
1000
MTEXTBEGIN
1070
    73
1070
     1
1070
    44
1040
1.0
1070
    74
1070
     0
1000
MTEXTEND
1000
MTEXTBEGIN
1070
    73
1070
     1
1070
    44
1040
1.0
1070
    74
1070
     0
1000
MTEXTEND
1000
MTEXTBEGIN
1070
    73
1070
     1
1070
    44
1040
1.0
1070
    74
1070
     0
1000
MTEXTEND
  0
POINT
  5
35CF
330
2007
100
AcDbEntity
  8
DEFPOINTS
 62
     0
100
AcDbPoint
 10
305.7881074860116
 20
123.1870693828949
 30
0.0
  0
POINT
  5
35D0
330
2007
100
AcDbEntity
  8
DEFPOINTS
 62
     0
100
AcDbPoint
 10
308.6663318765239
 20
115.7220962176477
 30
0.0
  0
POINT
  5
35D1
330
2007
100
AcDbEntity
  8
DEFPOINTS
 62
     0
100
AcDbPoint
 10
292.7726059522474
 20
109.3647376126943
 30
0.0
  0
ENDBLK
  5
2014
330
2007
100
AcDbEntity
  8
0
100
AcDbBlockEnd
  0
BLOCK
  5
2020
330
2016
100
AcDbEntity
  8
0
100
AcDbBlockBegin
  2
*D3
 70
     1
 10
0.0
 20
0.0
 30
0.0
  3
*D3
  1

  0
LINE
  5
35D2
330
2016
100
AcDbEntity
  8
SUNPOU
100
AcDbLine
 10
312.9371906130196
 20
96.96683653795
 30
0.0
 11
298.4361837064653
 21
91.16655399393923
 31
0.0
  0
LINE
  5
35D3
330
2016
100
AcDbEntity
  8
SUNPOU
100
AcDbLine
 10
316.0011108725619
 20
89.57614018082862
 30
0.0
 11
301.4072560314926
 21
83.73871923275492
 31
0.0
  0
LINE
  5
35D4
330
2016
100
AcDbEntity
  8
SUNPOU
100
AcDbLine
 10
300.9430548460726
 20
88.93819201943777
 30
0.0
 11
301.6858229273295
 21
87.08123332914164
 31
0.0
  0
INSERT
  5
35D5
330
2016
100
AcDbEntity
  8
SUNPOU
100
AcDbBlockReference
  2
_OPEN
 10
299.8289027241874
 20
91.72363005488184
 30
0.0
 41
3.0
 42
3.0
 43
3.0
 50
111.8010000000003
  0
INSERT
  5
35D6
330
2016
100
AcDbEntity
  8
SUNPOU
100
AcDbBlockReference
  2
_OPEN
 10
302.7999750492147
 20
84.29579529369755
 30
0.0
 41
3.0
 42
3.0
 43
3.0
 50
291.8010000000003
  0
MTEXT
  5
35D7
330
2016
100
AcDbEntity
  8
SUNPOU
100
AcDbMText
 10
303.6356372495711
 20
88.93817277586075
 30
0.0
 40
3.0
 41
0.0
 71
     5
 72
     5
  1
\A1;8
 11
0.3713840406284137
 21
-0.9284793451480291
 31
0.0
1001
ACAD
1000
MTEXTBEGIN
1070
    73
1070
     1
1070
    44
1040
1.0
1070
    74
1070
     0
1000
MTEXTEND
1000
MTEXTBEGIN
1070
    73
1070
     1
1070
    44
1040
1.0
1070
    74
1070
     0
1000
MTEXTEND
1000
MTEXTBEGIN
1070
    73
1070
     1
1070
    44
1040
1.0
1070
    74
1070
     0
1000
MTEXTEND
  0
POINT
  5
35D8
330
2016
100
AcDbEntity
  8
DEFPOINTS
 62
     0
100
AcDbPoint
 10
315.7226286484636
 20
98.08098865983524
 30
0.0
  0
POINT
  5
35D9
330
2016
100
AcDbEntity
  8
DEFPOINTS
 62
     0
100
AcDbPoint
 10
318.786548908006
 20
90.69029230271386
 30
0.0
  0
POINT
  5
35DA
330
2016
100
AcDbEntity
  8
DEFPOINTS
 62
     0
100
AcDbPoint
 10
302.7999750492147
 20
84.29579529369755
 30
0.0
  0
ENDBLK
  5
2021
330
2016
100
AcDbEntity
  8
0
100
AcDbBlockEnd
  0
BLOCK
  5
202D
330
2023
100
AcDbEntity
  8
0
100
AcDbBlockBegin
  2
*D4
 70
     1
 10
0.0
 20
0.0
 30
0.0
  3
*D4
  1

  0
LINE
  5
35DB
330
2023
100
AcDbEntity
  8
SUNPOU
100
AcDbLine
 10
303.0026694505675
 20
122.0729172610096
 30
0.0
 11
279.1069566104332
 21
112.5148302290892
 31
0.0
  0
LINE
  5
35DC
330
2023
100
AcDbEntity
  8
SUNPOU
100
AcDbLine
 10
316.0011108725619
 20
89.57614018082862
 30
0.0
 11
292.1053980324277
 21
80.01805314890823
 31
0.0
  0
LINE
  5
35DD
330
2023
100
AcDbEntity
  8
SUNPOU
100
AcDbLine
 10
281.6138277500405
 20
110.2864682545877
 30
0.0
 11
292.3839649282646
 21
83.36056724529495
 31
0.0
  0
INSERT
  5
35DE
330
2023
100
AcDbEntity
  8
SUNPOU
100
AcDbBlockReference
  2
_OPEN
 10
280.4996756281553
 20
113.0719062900318
 30
0.0
 41
3.0
 42
3.0
 43
3.0
 50
111.8010000000003
  0
INSERT
  5
35DF
330
2023
100
AcDbEntity
  8
SUNPOU
100
AcDbBlockReference
  2
_OPEN
 10
293.4981170501498
 20
80.57512920985086
 30
0.0
 41
3.0
 42
3.0
 43
3.0
 50
291.8010000000003
  0
MTEXT
  5
35E0
330
2023
100
AcDbEntity
  8
SUNPOU
100
AcDbMText
 10
289.3200947020226
 20
97.75197785151242
 30
0.0
 40
3.0
 41
0.0
 71
     5
 72
     5
  1
\A1;35
 11
0.3713840406284137
 21
-0.9284793451480291
 31
0.0
1001
ACAD
1000
MTEXTBEGIN
1070
    73
1070
     1
1070
    44
1040
1.0
1070
    74
1070
     0
1000
MTEXTEND
1000
MTEXTBEGIN
1070
    73
1070
     1
1070
    44
1040
1.0
1070
    74
1070
     0
1000
MTEXTEND
1000
MTEXTBEGIN
1070
    73
1070
     1
1070
    44
1040
1.0
1070
    74
1070
     0
1000
MTEXTEND
  0
POINT
  5
35E1
330
2023
100
AcDbEntity
  8
DEFPOINTS
 62
     0
100
AcDbPoint
 10
305.7881074860116
 20
123.1870693828949
 30
0.0
  0
POINT
  5
35E2
330
2023
100
AcDbEntity
  8
DEFPOINTS
 62
     0
100
AcDbPoint
 10
318.786548908006
 20
90.69029230271386
 30
0.0
  0
POINT
  5
35E3
330
2023
100
AcDbEntity
  8
DEFPOINTS
 62
     0
100
AcDbPoint
 10
293.4981170501498
 20
80.57512920985086
 30
0.0
  0
ENDBLK
  5
202E
330
2023
100
AcDbEntity
  8
0
100
AcDbBlockEnd
  0
BLOCK
  5
2057
330
204D
100
AcDbEntity
  8
0
100
AcDbBlockBegin
  2
*D5
 70
     1
 10
0.0
 20
0.0
 30
0.0
  3
*D5
  1

  0
LINE
  5
35E4
330
204D
100
AcDbEntity
  8
SUNPOU
100
AcDbLine
 10
310.9504611122086
 20
126.4367009063281
 30
0.0
 11
299.5737524043109
 21
154.8790621698196
 31
0.0
  0
LINE
  5
35E5
330
204D
100
AcDbEntity
  8
SUNPOU
100
AcDbLine
 10
351.8035522987219
 20
142.7775986939782
 30
0.0
 11
340.4268435908242
 21
171.2199599574699
 31
0.0
  0
LINE
  5
35E6
330
204D
100
AcDbEntity
  8
SUNPOU
100
AcDbLine
 10
302.9162665006976
 20
154.6004952739828
 30
0.0
 11
338.1984816163227
 21
168.7130888178626
 31
0.0
  0
INSERT
  5
35E7
330
204D
100
AcDbEntity
  8
SUNPOU
100
AcDbBlockReference
  2
_OPEN
 10
300.1308284652536
 20
153.4863431520975
 30
0.0
 41
3.0
 42
3.0
 43
3.0
 50
201.8010000000005
  0
INSERT
  5
35E8
330
204D
100
AcDbEntity
  8
SUNPOU
100
AcDbBlockReference
  2
_OPEN
 10
340.9839196517668
 20
169.8272409397479
 30
0.0
 41
3.0
 42
3.0
 43
3.0
 50
21.8010000000005
  0
MTEXT
  5
35E9
330
204D
100
AcDbEntity
  8
SUNPOU
100
AcDbMText
 10
319.6289139569391
 20
163.9779904087928
 30
0.0
 40
3.0
 41
0.0
 71
     5
 72
     5
  1
\A1;44
 11
0.9284793451480277
 21
0.3713840406284167
 31
0.0
1001
ACAD
1000
MTEXTBEGIN
1070
    73
1070
     1
1070
    44
1040
1.0
1070
    74
1070
     0
1000
MTEXTEND
1000
MTEXTBEGIN
1070
    73
1070
     1
1070
    44
1040
1.0
1070
    74
1070
     0
1000
MTEXTEND
1000
MTEXTBEGIN
1070
    73
1070
     1
1070
    44
1040
1.0
1070
    74
1070
     0
1000
MTEXTEND
  0
POINT
  5
35EA
330
204D
100
AcDbEntity
  8
DEFPOINTS
 62
     0
100
AcDbPoint
 10
312.0646132340938
 20
123.6512628708841
 30
0.0
  0
POINT
  5
35EB
330
204D
100
AcDbEntity
  8
DEFPOINTS
 62
     0
100
AcDbPoint
 10
352.9177044206071
 20
139.9921606585341
 30
0.0
  0
POINT
  5
35EC
330
204D
100
AcDbEntity
  8
DEFPOINTS
 62
     0
100
AcDbPoint
 10
340.9839196517668
 20
169.8272409397479
 30
0.0
  0
ENDBLK
  5
2058
330
204D
100
AcDbEntity
  8
0
100
AcDbBlockEnd
  0
BLOCK
  5
2064
330
205A
100
AcDbEntity
  8
0
100
AcDbBlockBegin
  2
*D6
 70
     1
 10
0.0
 20
0.0
 30
0.0
  3
*D6
  1

  0
LINE
  5
35ED
330
205A
100
AcDbEntity
  8
SUNPOU
100
AcDbLine
 10
303.0026694505675
 20
122.0729172610097
 30
0.0
 11
287.37563503834
 21
161.1413130195335
 31
0.0
  0
LINE
  5
35EE
330
205A
100
AcDbEntity
  8
SUNPOU
100
AcDbLine
 10
360.5683888497454
 20
145.0987277799709
 30
0.0
 11
344.9413544375177
 21
184.1671235384954
 31
0.0
  0
LINE
  5
35EF
330
205A
100
AcDbEntity
  8
SUNPOU
100
AcDbLine
 10
290.7181491347267
 20
160.8627461236967
 30
0.0
 11
342.7129924630162
 21
181.6602523988881
 31
0.0
  0
INSERT
  5
35F0
330
205A
100
AcDbEntity
  8
SUNPOU
100
AcDbBlockReference
  2
_OPEN
 10
287.9327110992826
 20
159.7485940018115
 30
0.0
 41
3.0
 42
3.0
 43
3.0
 50
201.8010000000005
  0
INSERT
  5
35F1
330
205A
100
AcDbEntity
  8
SUNPOU
100
AcDbBlockReference
  2
_OPEN
 10
345.4984304984603
 20
182.7744045207733
 30
0.0
 41
3.0
 42
3.0
 43
3.0
 50
21.8010000000005
  0
MTEXT
  5
35F2
330
205A
100
AcDbEntity
  8
SUNPOU
100
AcDbMText
 10
315.7871106973004
 20
173.5826976241624
 30
0.0
 40
3.0
 41
0.0
 71
     5
 72
     5
  1
\A1;62
 11
0.9284793451480277
 21
0.3713840406284167
 31
0.0
1001
ACAD
1000
MTEXTBEGIN
1070
    73
1070
     1
1070
    44
1040
1.0
1070
    74
1070
     0
1000
MTEXTEND
1000
MTEXTBEGIN
1070
    73
1070
     1
1070
    44
1040
1.0
1070
    74
1070
     0
1000
MTEXTEND
1000
MTEXTBEGIN
1070
    73
1070
     1
1070
    44
1040
1.0
1070
    74
1070
     0
1000
MTEXTEND
  0
POINT
  5
35F3
330
205A
100
AcDbEntity
  8
DEFPOINTS
 62
     0
100
AcDbPoint
 10
304.1168215724527
 20
119.2874792255656
 30
0.0
  0
POINT
  5
35F4
330
205A
100
AcDbEntity
  8
DEFPOINTS
 62
     0
100
AcDbPoint
 10
361.6825409716307
 20
142.3132897445268
 30
0.0
  0
POINT
  5
35F5
330
205A
100
AcDbEntity
  8
DEFPOINTS
 62
     0
100
AcDbPoint
 10
345.4984304984603
 20
182.7744045207733
 30
0.0
  0
ENDBLK
  5
2065
330
205A
100
AcDbEntity
  8
0
100
AcDbBlockEnd
  0
BLOCK
  5
207E
330
2074
100
AcDbEntity
  8
0
100
AcDbBlockBegin
  2
*D7
 70
     1
 10
0.0
 20
0.0
 30
0.0
  3
*D7
  1

  0
LINE
  5
35F6
330
2074
100
AcDbEntity
  8
SUNPOU
100
AcDbLine
 10
52.37507320680203
 20
229.1707035089473
 30
0.0
 11
27.04426043846435
 21
229.1707035089473
 31
0.0
  0
LINE
  5
35F7
330
2074
100
AcDbEntity
  8
SUNPOU
100
AcDbLine
 10
52.37507320680203
 20
209.1707035089473
 30
0.0
 11
27.04426043846435
 21
209.1707035089473
 31
0.0
  0
LINE
  5
35F8
330
2074
100
AcDbEntity
  8
SUNPOU
100
AcDbLine
 10
28.54426043846435
 20
226.1707035089473
 30
0.0
 11
28.54426043846435
 21
212.1707035089473
 31
0.0
  0
INSERT
  5
35F9
330
2074
100
AcDbEntity
  8
SUNPOU
100
AcDbBlockReference
  2
_OPEN
 10
28.54426043846435
 20
229.1707035089473
 30
0.0
 41
3.0
 42
3.0
 43
3.0
 50
90.0
  0
INSERT
  5
35FA
330
2074
100
AcDbEntity
  8
SUNPOU
100
AcDbBlockReference
  2
_OPEN
 10
28.54426043846435
 20
209.1707035089473
 30
0.0
 41
3.0
 42
3.0
 43
3.0
 50
270.0
  0
MTEXT
  5
35FB
330
2074
100
AcDbEntity
  8
SUNPOU
100
AcDbMText
 10
26.04426043846431
 20
219.1707035089473
 30
0.0
 40
3.0
 41
0.0
 71
     5
 72
     5
  1
\A1;20
 11
0.0000000000000001
 21
1.0
 31
0.0
1001
ACAD
1000
MTEXTBEGIN
1070
    73
1070
     1
1070
    44
1040
1.0
1070
    74
1070
     0
1000
MTEXTEND
1000
MTEXTBEGIN
1070
    73
1070
     1
1070
    44
1040
1.0
1070
    74
1070
     0
1000
MTEXTEND
1000
MTEXTBEGIN
1070
    73
1070
     1
1070
    44
1040
1.0
1070
    74
1070
     0
1000
MTEXTEND
  0
POINT
  5
35FC
330
2074
100
AcDbEntity
  8
DEFPOINTS
 62
     0
100
AcDbPoint
 10
55.37507320680203
 20
229.1707035089473
 30
0.0
  0
POINT
  5
35FD
330
2074
100
AcDbEntity
  8
DEFPOINTS
 62
     0
100
AcDbPoint
 10
55.37507320680203
 20
209.1707035089473
 30
0.0
  0
POINT
  5
35FE
330
2074
100
AcDbEntity
  8
DEFPOINTS
 62
     0
100
AcDbPoint
 10
28.54426043846435
 20
209.1707035089473
 30
0.0
  0
ENDBLK
  5
207F
330
2074
100
AcDbEntity
  8
0
100
AcDbBlockEnd
  0
BLOCK
  5
2F44
330
2F3A
100
AcDbEntity
  8
0
100
AcDbBlockBegin
  2
*D8
 70
     1
 10
0.0
 20
0.0
 30
0.0
  3
*D8
  1

  0
LINE
  5
35FF
330
2F3A
100
AcDbEntity
  8
SUNPOU
100
AcDbLine
 10
254.5247691422674
 20
102.6820342515015
 30
0.0
 11
266.0905641783761
 21
107.3082563810489
 31
0.0
  0
LINE
  5
3600
330
2F3A
100
AcDbEntity
  8
SUNPOU
100
AcDbLine
 10
267.5232105622674
 20
70.18525717450157
 30
0.0
 11
279.0890055983761
 21
74.81147930404898
 31
0.0
  0
LINE
  5
3601
330
2F3A
100
AcDbEntity
  8
SUNPOU
100
AcDbLine
 10
265.8119972824753
 20
103.9657422846675
 30
0.0
 11
276.5821344588115
 21
77.03984127859846
 31
0.0
  0
INSERT
  5
3602
330
2F3A
100
AcDbEntity
  8
SUNPOU
100
AcDbBlockReference
  2
_OPEN
 10
264.6978451606433
 20
106.7511803201329
 30
0.0
 41
3.0
 42
3.0
 43
3.0
 50
111.8009999989027
  0
INSERT
  5
3603
330
2F3A
100
AcDbEntity
  8
SUNPOU
100
AcDbBlockReference
  2
_OPEN
 10
277.6962865806434
 20
74.25440324313303
 30
0.0
 41
3.0
 42
3.0
 43
3.0
 50
291.8009999989028
  0
MTEXT
  5
3604
330
2F3A
100
AcDbEntity
  8
SUNPOU
100
AcDbMText
 10
273.5182642335312
 20
91.43125188315961
 30
0.0
 40
3.0
 41
0.0
 71
     5
 72
     5
  1
\A1;35
 11
0.3713840406106279
 21
-0.9284793451551431
 31
0.0
1001
ACAD
1000
MTEXTBEGIN
1070
    73
1070
     1
1070
    44
1040
1.0
1070
    74
1070
     0
1000
MTEXTEND
1000
MTEXTBEGIN
1070
    73
1070
     1
1070
    44
1040
1.0
1070
    74
1070
     0
1000
MTEXTEND
1000
MTEXTBEGIN
1070
    73
1070
     1
1070
    44
1040
1.0
1070
    74
1070
     0
1000
MTEXTEND
  0
POINT
  5
3605
330
2F3A
100
AcDbEntity
  8
DEFPOINTS
 62
     0
100
AcDbPoint
 10
251.739331106802
 20
101.5678821296696
 30
0.0
  0
POINT
  5
3606
330
2F3A
100
AcDbEntity
  8
DEFPOINTS
 62
     0
100
AcDbPoint
 10
264.737772526802
 20
69.07110505266968
 30
0.0
  0
POINT
  5
3607
330
2F3A
100
AcDbEntity
  8
DEFPOINTS
 62
     0
100
AcDbPoint
 10
277.6962865806434
 20
74.25440324313303
 30
0.0
  0
ENDBLK
  5
2F45
330
2F3A
100
AcDbEntity
  8
0
100
AcDbBlockEnd
  0
BLOCK
  5
2F8C
330
2F82
100
AcDbEntity
  8
0
100
AcDbBlockBegin
  2
*D9
 70
     1
 10
0.0
 20
0.0
 30
0.0
  3
*D9
  1

  0
LINE
  5
3608
330
2F82
100
AcDbEntity
  8
SUNPOU
100
AcDbLine
 10
55.37507320680203
 20
93.84800260166967
 30
0.0
 11
55.37507320680203
 21
136.5340112540297
 31
0.0
  0
LINE
  5
3609
330
2F82
100
AcDbEntity
  8
SUNPOU
100
AcDbLine
 10
249.3283650833992
 20
110.5954221147473
 30
0.0
 11
249.3283650833992
 21
136.5340112540297
 31
0.0
  0
LINE
  5
360A
330
2F82
100
AcDbEntity
  8
SUNPOU
100
AcDbLine
 10
58.37507320680202
 20
135.0340112540297
 30
0.0
 11
246.3283650833993
 21
135.0340112540297
 31
0.0
  0
INSERT
  5
360B
330
2F82
100
AcDbEntity
  8
SUNPOU
100
AcDbBlockReference
  2
_OPEN
 10
55.37507320680203
 20
135.0340112540297
 30
0.0
 41
3.0
 42
3.0
 43
3.0
 50
180.0
  0
INSERT
  5
360C
330
2F82
100
AcDbEntity
  8
SUNPOU
100
AcDbBlockReference
  2
_OPEN
 10
249.3283650833992
 20
135.0340112540297
 30
0.0
 41
3.0
 42
3.0
 43
3.0
  0
MTEXT
  5
360D
330
2F82
100
AcDbEntity
  8
SUNPOU
100
AcDbMText
 10
152.3517191451006
 20
137.5340112540297
 30
0.0
 40
3.0
 41
0.0
 71
     5
 72
     5
  1
\A1;194
1001
ACAD
1000
MTEXTBEGIN
1070
    73
1070
     1
1070
    44
1040
1.0
1070
    74
1070
     0
1000
MTEXTEND
1000
MTEXTBEGIN
1070
    73
1070
     1
1070
    44
1040
1.0
1070
    74
1070
     0
1000
MTEXTEND
1000
MTEXTBEGIN
1070
    73
1070
     1
1070
    44
1040
1.0
1070
    74
1070
     0
1000
MTEXTEND
  0
POINT
  5
360E
330
2F82
100
AcDbEntity
  8
DEFPOINTS
 62
     0
100
AcDbPoint
 10
55.37507320680203
 20
90.84800260166968
 30
0.0
  0
POINT
  5
360F
330
2F82
100
AcDbEntity
  8
DEFPOINTS
 62
     0
100
AcDbPoint
 10
249.3283650833992
 20
107.5954221147473
 30
0.0
  0
POINT
  5
3610
330
2F82
100
AcDbEntity
  8
DEFPOINTS
 62
     0
100
AcDbPoint
 10
249.3283650833992
 20
135.0340112540297
 30
0.0
  0
ENDBLK
  5
2F8D
330
2F82
100
AcDbEntity
  8
0
100
AcDbBlockEnd
  0
BLOCK
  5
2F99
330
2F8F
100
AcDbEntity
  8
0
100
AcDbBlockBegin
  2
*D10
 70
     1
 10
0.0
 20
0.0
 30
0.0
  3
*D10
  1

  0
LINE
  5
3611
330
2F8F
100
AcDbEntity
  8
SUNPOU
100
AcDbLine
 10
171.83401593003
 20
97.87850260166964
 30
0.0
 11
171.83401593003
 21
127.210498899032
 31
0.0
  0
LINE
  5
3612
330
2F8F
100
AcDbEntity
  8
SUNPOU
100
AcDbLine
 10
249.3283650833992
 20
110.5954221147473
 30
0.0
 11
249.3283650833992
 21
127.210498899032
 31
0.0
  0
LINE
  5
3613
330
2F8F
100
AcDbEntity
  8
SUNPOU
100
AcDbLine
 10
174.83401593003
 20
125.710498899032
 30
0.0
 11
246.3283650833993
 21
125.710498899032
 31
0.0
  0
INSERT
  5
3614
330
2F8F
100
AcDbEntity
  8
SUNPOU
100
AcDbBlockReference
  2
_OPEN
 10
171.83401593003
 20
125.710498899032
 30
0.0
 41
3.0
 42
3.0
 43
3.0
 50
180.0
  0
INSERT
  5
3615
330
2F8F
100
AcDbEntity
  8
SUNPOU
100
AcDbBlockReference
  2
_OPEN
 10
249.3283650833992
 20
125.710498899032
 30
0.0
 41
3.0
 42
3.0
 43
3.0
  0
MTEXT
  5
3616
330
2F8F
100
AcDbEntity
  8
SUNPOU
100
AcDbMText
 10
210.5811905067146
 20
128.210498899032
 30
0.0
 40
3.0
 41
0.0
 71
     5
 72
     5
  1
\A1;77
1001
ACAD
1000
MTEXTBEGIN
1070
    73
1070
     1
1070
    44
1040
1.0
1070
    74
1070
     0
1000
MTEXTEND
1000
MTEXTBEGIN
1070
    73
1070
     1
1070
    44
1040
1.0
1070
    74
1070
     0
1000
MTEXTEND
1000
MTEXTBEGIN
1070
    73
1070
     1
1070
    44
1040
1.0
1070
    74
1070
     0
1000
MTEXTEND
  0
POINT
  5
3617
330
2F8F
100
AcDbEntity
  8
DEFPOINTS
 62
     0
100
AcDbPoint
 10
171.83401593003
 20
94.87850260166963
 30
0.0
  0
POINT
  5
3618
330
2F8F
100
AcDbEntity
  8
DEFPOINTS
 62
     0
100
AcDbPoint
 10
249.3283650833992
 20
107.5954221147473
 30
0.0
  0
POINT
  5
3619
330
2F8F
100
AcDbEntity
  8
DEFPOINTS
 62
     0
100
AcDbPoint
 10
249.3283650833992
 20
125.710498899032
 30
0.0
  0
ENDBLK
  5
2F9A
330
2F8F
100
AcDbEntity
  8
0
100
AcDbBlockEnd
  0
BLOCK
  5
3002
330
2FF8
100
AcDbEntity
  8
0
100
AcDbBlockBegin
  2
*D11
 70
     1
 10
0.0
 20
0.0
 30
0.0
  3
*D11
  1

  0
LINE
  5
361A
330
2FF8
100
AcDbEntity
  8
SUNPOU
100
AcDbLine
 10
52.37507320680203
 20
90.84800260166968
 30
0.0
 11
27.04426043846432
 21
90.8480026016697
 31
0.0
  0
LINE
  5
361B
330
2FF8
100
AcDbEntity
  8
SUNPOU
100
AcDbLine
 10
261.737772526802
 20
69.07110505266968
 30
0.0
 11
27.04426043846432
 21
69.07110505266975
 31
0.0
  0
LINE
  5
361C
330
2FF8
100
AcDbEntity
  8
SUNPOU
100
AcDbLine
 10
28.54426043846432
 20
87.84800260166969
 30
0.0
 11
28.54426043846432
 21
72.07110505266975
 31
0.0
  0
INSERT
  5
361D
330
2FF8
100
AcDbEntity
  8
SUNPOU
100
AcDbBlockReference
  2
_OPEN
 10
28.54426043846432
 20
90.8480026016697
 30
0.0
 41
3.0
 42
3.0
 43
3.0
 50
90.0
  0
INSERT
  5
361E
330
2FF8
100
AcDbEntity
  8
SUNPOU
100
AcDbBlockReference
  2
_OPEN
 10
28.54426043846431
 20
69.07110505266975
 30
0.0
 41
3.0
 42
3.0
 43
3.0
 50
270.0
  0
MTEXT
  5
361F
330
2FF8
100
AcDbEntity
  8
SUNPOU
100
AcDbMText
 10
26.0442604384643
 20
79.95955382716971
 30
0.0
 40
3.0
 41
0.0
 71
     5
 72
     5
  1
\A1;22
 11
0.0000000000000001
 21
1.0
 31
0.0
1001
ACAD
1000
MTEXTBEGIN
1070
    73
1070
     1
1070
    44
1040
1.0
1070
    74
1070
     0
1000
MTEXTEND
1000
MTEXTBEGIN
1070
    73
1070
     1
1070
    44
1040
1.0
1070
    74
1070
     0
1000
MTEXTEND
1000
MTEXTBEGIN
1070
    73
1070
     1
1070
    44
1040
1.0
1070
    74
1070
     0
1000
MTEXTEND
  0
POINT
  5
3620
330
2FF8
100
AcDbEntity
  8
DEFPOINTS
 62
     0
100
AcDbPoint
 10
55.37507320680203
 20
90.84800260166968
 30
0.0
  0
POINT
  5
3621
330
2FF8
100
AcDbEntity
  8
DEFPOINTS
 62
     0
100
AcDbPoint
 10
264.737772526802
 20
69.07110505266968
 30
0.0
  0
POINT
  5
3622
330
2FF8
100
AcDbEntity
  8
DEFPOINTS
 62
     0
100
AcDbPoint
 10
28.54426043846431
 20
69.07110505266975
 30
0.0
  0
ENDBLK
  5
3003
330
2FF8
100
AcDbEntity
  8
0
100
AcDbBlockEnd
  0
BLOCK
  5
3540
330
3536
100
AcDbEntity
  8
0
100
AcDbBlockBegin
  2
*D12
 70
     1
 10
0.0
 20
0.0
 30
0.0
  3
*D12
  1

  0
LINE
  5
3623
330
3536
100
AcDbEntity
  8
SUNPOU
100
AcDbLine
 10
266.6236203802134
 20
250.1707035089473
 30
0.0
 11
289.1805295639991
 21
250.1707035089473
 31
0.0
  0
LINE
  5
3624
330
3536
100
AcDbEntity
  8
SUNPOU
100
AcDbLine
 10
266.6236203802134
 20
188.1707035089473
 30
0.0
 11
289.1805295639991
 21
188.1707035089473
 31
0.0
  0
LINE
  5
3625
330
3536
100
AcDbEntity
  8
SUNPOU
100
AcDbLine
 10
287.6805295639992
 20
247.1707035089473
 30
0.0
 11
287.6805295639992
 21
191.1707035089473
 31
0.0
  0
INSERT
  5
3626
330
3536
100
AcDbEntity
  8
SUNPOU
100
AcDbBlockReference
  2
_OPEN
 10
287.6805295639992
 20
250.1707035089473
 30
0.0
 41
3.0
 42
3.0
 43
3.0
 50
90.0
  0
INSERT
  5
3627
330
3536
100
AcDbEntity
  8
SUNPOU
100
AcDbBlockReference
  2
_OPEN
 10
287.6805295639992
 20
188.1707035089473
 30
0.0
 41
3.0
 42
3.0
 43
3.0
 50
270.0
  0
MTEXT
  5
3628
330
3536
100
AcDbEntity
  8
SUNPOU
100
AcDbMText
 10
285.1805295639991
 20
219.1707035089473
 30
0.0
 40
3.0
 41
0.0
 71
     5
 72
     5
  1
\A1;62
 11
0.0000000000000001
 21
1.0
 31
0.0
1001
ACAD
1000
MTEXTBEGIN
1070
    73
1070
     1
1070
    44
1040
1.0
1070
    74
1070
     0
1000
MTEXTEND
1000
MTEXTBEGIN
1070
    73
1070
     1
1070
    44
1040
1.0
1070
    74
1070
     0
1000
MTEXTEND
1000
MTEXTBEGIN
1070
    73
1070
     1
1070
    44
1040
1.0
1070
    74
1070
     0
1000
MTEXTEND
  0
POINT
  5
3629
330
3536
100
AcDbEntity
  8
DEFPOINTS
 62
     0
100
AcDbPoint
 10
263.6236203802134
 20
250.1707035089473
 30
0.0
  0
POINT
  5
362A
330
3536
100
AcDbEntity
  8
DEFPOINTS
 62
     0
100
AcDbPoint
 10
263.6236203802134
 20
188.1707035089473
 30
0.0
  0
POINT
  5
362B
330
3536
100
AcDbEntity
  8
DEFPOINTS
 62
     0
100
AcDbPoint
 10
287.6805295639992
 20
188.1707035089473
 30
0.0
  0
ENDBLK
  5
3541
330
3536
100
AcDbEntity
  8
0
100
AcDbBlockEnd
  0
ENDSEC
  0
SECTION
  2
ENTITIES
  0
TEXT
  5
9D
330
1A
100
AcDbEntity
  8
ZUWAKU
 48
5.0
100
AcDbText
 10
327.1013476411085
 20
8.060146781246267
 30
0.0
 40
4.0
  1

100
AcDbText
  0
ARC
  5
5A7
330
1A
100
AcDbEntity
  8
NOKITOI
  6
PHANTOM
 62
     8
100
AcDbCircle
 10
103.7120997035724
 20
84.94101707803972
 30
0.0
 40
43.00001447645168
100
AcDbArc
 50
186.5249107071177
 51
269.9998883751437
  0
ARC
  5
5A8
330
1A
100
AcDbEntity
  8
NOKITOI
  6
PHANTOM
 62
     8
100
AcDbCircle
 10
103.7121220119977
 20
84.94099697701333
 30
0.0
 40
41.79999437547816
100
AcDbArc
 50
184.4742952125247
 51
269.999854592109
  0
LINE
  5
5A9
330
1A
100
AcDbEntity
  8
NOKITOI
  6
PHANTOM
 62
     8
100
AcDbLine
 10
53.50111593002953
 20
84.07860260166964
 30
0.0
 11
53.41561593002984
 21
86.8161026016696
 31
0.0
  0
LINE
  5
5AA
330
1A
100
AcDbEntity
  8
NOKITOI
  6
PHANTOM
 62
     8
100
AcDbLine
 10
51.96301593002977
 20
94.87850260166963
 30
0.0
 11
52.35321593002959
 21
82.39420260166955
 31
0.0
  0
LINE
  5
5AB
330
1A
100
AcDbEntity
  8
NOKITOI
  6
PHANTOM
 62
     8
100
AcDbLine
 10
61.54101593003019
 20
82.14100260166967
 30
0.0
 11
55.50011593002977
 21
82.14100260166967
 31
0.0
  0
ARC
  5
5AC
330
1A
100
AcDbEntity
  8
NOKITOI
  6
PHANTOM
 62
     8
100
AcDbCircle
 10
59.99710750586723
 20
79.94101011672611
 30
0.0
 40
0.9999924849789756
100
AcDbArc
 50
6.528264606673934
 51
89.99951732740965
  0
LINE
  5
5AD
330
1A
100
AcDbEntity
  8
NOKITOI
  6
PHANTOM
 62
     8
100
AcDbLine
 10
53.85241593002979
 20
80.94100260166962
 30
0.0
 11
59.99711593002962
 21
80.94100260166962
 31
0.0
  0
ARC
  5
5AE
330
1A
100
AcDbEntity
  8
NOKITOI
  6
PHANTOM
 62
     8
100
AcDbCircle
 10
55.50012950216819
 20
84.14098944658324
 30
0.0
 40
1.999986844959662
100
AcDbArc
 50
181.7875531852356
 51
269.9996111843215
  0
ARC
  5
5AF
330
1A
100
AcDbEntity
  8
NOKITOI
  6
PHANTOM
 62
     8
100
AcDbCircle
 10
53.85245188918066
 20
82.44096774752639
 30
0.0
 40
1.499965146287778
100
AcDbArc
 50
181.7866280217767
 51
269.9986264296971
  0
ARC
  5
5B0
330
1A
100
AcDbEntity
  8
NOKITOI
  6
PHANTOM
 62
     8
100
AcDbCircle
 10
61.5410284997381
 20
81.64099097693995
 30
0.0
 40
0.5000116248877111
100
AcDbArc
 50
4.474846808342103
 51
90.00144034898383
  0
ARC
  5
5B1
330
1A
100
AcDbEntity
  8
NOKITOI
  6
PHANTOM
 62
     8
100
AcDbCircle
 10
53.96202868087971
 20
94.94101575675605
 30
0.0
 40
1.999986844954076
100
AcDbArc
 50
90.00036528735451
 51
181.7883072882703
  0
LINE
  5
5B2
330
1A
100
AcDbEntity
  8
NOKITOI
  6
PHANTOM
 62
     8
100
AcDbLine
 10
60.23991593002961
 20
94.44100260166962
 30
0.0
 11
58.00841593002974
 21
94.44100260166962
 31
0.0
  0
ARC
  5
5B3
330
1A
100
AcDbEntity
  8
NOKITOI
  6
PHANTOM
 62
     8
100
AcDbCircle
 10
59.92410904303483
 20
87.94099606658411
 30
0.0
 40
0.499993464961963
100
AcDbArc
 50
270.0007892017869
 51
356.997036131742
  0
LINE
  5
5B4
330
1A
100
AcDbEntity
  8
NOKITOI
  6
PHANTOM
 62
     8
100
AcDbLine
 10
59.26001593002979
 20
88.64100260166967
 30
0.0
 11
59.44121593002979
 21
92.0825026016698
 31
0.0
  0
LINE
  5
5B5
330
1A
100
AcDbEntity
  8
NOKITOI
  6
PHANTOM
 62
     8
100
AcDbLine
 10
58.88621593002994
 20
91.46940260166955
 30
0.0
 11
59.44121593002979
 21
92.0825026016698
 31
0.0
  0
ARC
  5
5B6
330
1A
100
AcDbEntity
  8
NOKITOI
  6
PHANTOM
 62
     8
100
AcDbCircle
 10
57.41373614269901
 20
86.94106133004968
 30
0.0
 40
5.2000412730095
100
AcDbArc
 50
90.0013245430618
 51
142.0757990790548
  0
LINE
  5
5B7
330
1A
100
AcDbEntity
  8
NOKITOI
  6
PHANTOM
 62
     8
100
AcDbLine
 10
53.16241593003019
 20
94.91600260166952
 30
0.0
 11
53.31181593002952
 21
90.13710260166973
 31
0.0
  0
ARC
  5
5B8
330
1A
100
AcDbEntity
  8
NOKITOI
  6
PHANTOM
 62
     8
100
AcDbCircle
 10
57.41365381147648
 20
86.94104638419501
 30
0.0
 40
3.999989731271038
100
AcDbArc
 50
96.47731142013116
 51
181.7899836067311
  0
ARC
  5
5B9
330
1A
100
AcDbEntity
  8
NOKITOI
  6
PHANTOM
 62
     8
100
AcDbCircle
 10
57.0188301484452
 20
90.41868796736864
 30
0.0
 40
0.5000073448410256
100
AcDbArc
 50
351.872947864124
 51
96.47829282996921
  0
LINE
  5
5BA
330
1A
100
AcDbEntity
  8
NOKITOI
  6
PHANTOM
 62
     8
100
AcDbLine
 10
58.4821159300302
 20
88.64100260166967
 30
0.0
 11
58.88621593002994
 21
91.46940260166955
 31
0.0
  0
LINE
  5
5BB
330
1A
100
AcDbEntity
  8
NOKITOI
  6
PHANTOM
 62
     8
100
AcDbLine
 10
59.26001593002979
 20
88.64100260166967
 30
0.0
 11
58.4821159300302
 21
88.64100260166967
 31
0.0
  0
ARC
  5
5BC
330
1A
100
AcDbEntity
  8
NOKITOI
  6
PHANTOM
 62
     8
100
AcDbCircle
 10
57.67504253062748
 20
87.94097192478758
 30
0.0
 40
0.4999693238254178
100
AcDbArc
 50
171.8555038770531
 51
269.9969516090356
  0
LINE
  5
5BD
330
1A
100
AcDbEntity
  8
NOKITOI
  6
PHANTOM
 62
     8
100
AcDbLine
 10
59.92411593002976
 20
87.44100260166963
 30
0.0
 11
57.67501593002975
 21
87.44100260166963
 31
0.0
  0
LINE
  5
5BE
330
1A
100
AcDbEntity
  8
NOKITOI
  6
PHANTOM
 62
     8
100
AcDbLine
 10
57.18011593002962
 20
88.01180260166981
 30
0.0
 11
57.51381593002975
 21
90.34800260166978
 31
0.0
  0
LINE
  5
5BF
330
1A
100
AcDbEntity
  8
NOKITOI
  6
PHANTOM
 62
     8
100
AcDbLine
 10
56.43481593003002
 20
95.7410026016698
 30
0.0
 11
55.93481593003002
 21
93.2410026016698
 31
0.0
  0
LINE
  5
5C0
330
1A
100
AcDbEntity
  8
NOKITOI
  6
PHANTOM
 62
     8
100
AcDbLine
 10
55.93481593003002
 20
93.2410026016698
 30
0.0
 11
58.87131593002982
 21
93.2410026016698
 31
0.0
  0
LINE
  5
5C1
330
1A
100
AcDbEntity
  8
NOKITOI
  6
PHANTOM
 62
     8
100
AcDbLine
 10
53.96201593002956
 20
96.94100260166962
 30
0.0
 11
57.28861593002989
 21
96.94100260166962
 31
0.0
  0
LINE
  5
5C2
330
1A
100
AcDbEntity
  8
NOKITOI
  6
PHANTOM
 62
     8
100
AcDbLine
 10
53.96201593002956
 20
95.7410026016698
 30
0.0
 11
56.43481593003002
 21
95.7410026016698
 31
0.0
  0
ARC
  5
5C3
330
1A
100
AcDbEntity
  8
NOKITOI
  6
PHANTOM
 62
     8
100
AcDbCircle
 10
53.96202042482787
 20
94.94100723919652
 30
0.0
 40
0.7999953624857498
100
AcDbArc
 50
90.00032191805264
 51
181.7911273464193
  0
ARC
  5
5C4
330
1A
100
AcDbEntity
  8
NOKITOI
  6
PHANTOM
 62
     8
100
AcDbCircle
 10
57.28861514702135
 20
96.44100355667134
 30
0.0
 40
0.4999990449987349
100
AcDbArc
 50
348.6967198015447
 51
89.99991027369492
  0
ARC
  5
5C5
330
1A
100
AcDbEntity
  8
NOKITOI
  6
PHANTOM
 62
     8
100
AcDbCircle
 10
58.00840867547435
 20
94.94101145151304
 30
0.0
 40
0.5000088498959383
100
AcDbArc
 50
168.6864043304892
 51
270.0008312961442
  0
LINE
  5
5C6
330
1A
100
AcDbEntity
  8
NOKITOI
  6
PHANTOM
 62
     8
100
AcDbLine
 10
57.5181159300298
 20
95.03910260166955
 30
0.0
 11
57.77891593002983
 21
96.34300260166966
 31
0.0
  0
LINE
  5
5C7
330
1A
100
AcDbEntity
  8
NOKITOI
  6
PHANTOM
 62
     8
100
AcDbLine
 10
57.87551593003013
 20
92.14100260166967
 30
0.0
 11
57.41361593002989
 21
92.14100260166967
 31
0.0
  0
LINE
  5
5C8
330
1A
100
AcDbEntity
  8
NOKITOI
  6
PHANTOM
 62
     8
100
AcDbLine
 10
57.87551593003013
 20
92.14100260166967
 30
0.0
 11
58.87131593002982
 21
93.2410026016698
 31
0.0
  0
LINE
  5
5C9
330
1A
100
AcDbEntity
  8
NOKITOI
  6
PHANTOM
 62
     8
100
AcDbLine
 10
60.4235159300299
 20
87.91480260166961
 30
0.0
 11
60.73931593002976
 21
93.91470260166963
 31
0.0
  0
ARC
  5
5CA
330
1A
100
AcDbEntity
  8
NOKITOI
  6
PHANTOM
 62
     8
100
AcDbCircle
 10
60.2399097288719
 20
93.9410091367549
 30
0.0
 40
0.4999934649531607
100
AcDbArc
 50
356.9955363203376
 51
89.99928939038076
  0
LINE
  5
5CB
330
1A
100
AcDbEntity
  8
NOKITOI
  6
PHANTOM
 62
     8
100
AcDbLine
 10
144.5415159300298
 20
41.94090260166965
 30
0.0
 11
124.3836159300301
 21
41.94090260166965
 31
0.0
  0
LINE
  5
5CC
330
1A
100
AcDbEntity
  8
NOKITOI
  6
PHANTOM
 62
     8
100
AcDbLine
 10
144.2917159300297
 20
43.14090260166969
 30
0.0
 11
124.3836159300301
 21
43.14090260166969
 31
0.0
  0
LINE
  5
5CD
330
1A
100
AcDbEntity
  8
NOKITOI
  6
PHANTOM
 62
     8
100
AcDbLine
 10
148.5415159300298
 20
41.94090260166965
 30
0.0
 11
103.7121159300297
 21
41.94100260166962
 31
0.0
  0
LINE
  5
5CE
330
1A
100
AcDbEntity
  8
NOKITOI
  6
PHANTOM
 62
     8
100
AcDbLine
 10
103.7121159300297
 20
43.14100260166966
 30
0.0
 11
148.2917159300297
 21
43.14090260166969
 31
0.0
  0
LINE
  5
5CF
330
1A
100
AcDbEntity
  8
NOKITOI
  6
PHANTOM
 62
     8
100
AcDbLine
 10
170.2960159300298
 20
84.07840260166969
 30
0.0
 11
170.3815159300295
 21
86.81600260166963
 31
0.0
  0
LINE
  5
5D0
330
1A
100
AcDbEntity
  8
NOKITOI
  6
PHANTOM
 62
     8
100
AcDbLine
 10
171.8340159300298
 20
94.87850260166963
 30
0.0
 11
171.4439159300297
 21
82.39410260166957
 31
0.0
  0
LINE
  5
5D1
330
1A
100
AcDbEntity
  8
NOKITOI
  6
PHANTOM
 62
     8
100
AcDbLine
 10
169.9446159300298
 20
80.94100260166962
 30
0.0
 11
163.8035159300299
 21
80.94100260166962
 31
0.0
  0
LINE
  5
5D2
330
1A
100
AcDbEntity
  8
NOKITOI
  6
PHANTOM
 62
     8
100
AcDbLine
 10
162.2650159300294
 20
82.14100260166967
 30
0.0
 11
168.2969159300298
 21
82.14100260166967
 31
0.0
  0
LINE
  5
5D3
330
1A
100
AcDbEntity
  8
NOKITOI
  6
PHANTOM
 62
     8
100
AcDbLine
 10
162.80851593003
 20
80.04050260166966
 30
0.0
 11
159.9397159300299
 21
51.35310260166964
 31
0.0
  0
LINE
  5
5D4
330
1A
100
AcDbEntity
  8
NOKITOI
  6
PHANTOM
 62
     8
100
AcDbLine
 10
161.7675159300299
 20
81.69080260166968
 30
0.0
 11
158.7745159300295
 21
51.76100260166956
 31
0.0
  0
LINE
  5
5D5
330
1A
100
AcDbEntity
  8
NOKITOI
  6
PHANTOM
 62
     8
100
AcDbLine
 10
159.5779159300297
 20
50.67860260166978
 30
0.0
 11
149.1748159300297
 21
42.16690260166976
 31
0.0
  0
LINE
  5
5D6
330
1A
100
AcDbEntity
  8
NOKITOI
  6
PHANTOM
 62
     8
100
AcDbLine
 10
158.5936159300301
 20
51.42370260166964
 30
0.0
 11
148.6083159300298
 21
43.25390260166952
 31
0.0
  0
ARC
  5
5D7
330
1A
100
AcDbEntity
  8
NOKITOI
  6
PHANTOM
 62
     8
100
AcDbCircle
 10
148.5415089974523
 20
42.94090012666353
 30
0.0
 40
0.9999975250179316
100
AcDbArc
 50
270.0003972084035
 51
309.2946416752299
  0
ARC
  5
5D8
330
1A
100
AcDbEntity
  8
NOKITOI
  6
PHANTOM
 62
     8
100
AcDbCircle
 10
148.2917223177785
 20
43.64090488165922
 30
0.0
 40
0.5000022800304047
100
AcDbArc
 50
269.9992680212791
 51
309.2854498596061
  0
ARC
  5
5D9
330
1A
100
AcDbEntity
  8
NOKITOI
  6
PHANTOM
 62
     8
100
AcDbCircle
 10
158.9446933571609
 20
51.45256052999704
 30
0.0
 40
0.9999908507640039
100
AcDbArc
 50
309.288709223069
 51
354.2862329477532
  0
ARC
  5
5DA
330
1A
100
AcDbEntity
  8
NOKITOI
  6
PHANTOM
 62
     8
100
AcDbCircle
 10
158.2769985041515
 20
51.81067011528168
 30
0.0
 40
0.4999904508696396
100
AcDbArc
 50
309.2900846377951
 51
354.2990110749239
  0
ARC
  5
5DB
330
1A
100
AcDbEntity
  8
NOKITOI
  6
PHANTOM
 62
     8
100
AcDbCircle
 10
163.8035365798707
 20
79.94102128951883
 30
0.0
 40
0.9999813123640345
100
AcDbArc
 50
90.00118317084911
 51
174.2905900333514
  0
ARC
  5
5DC
330
1A
100
AcDbEntity
  8
NOKITOI
  6
PHANTOM
 62
     8
100
AcDbCircle
 10
162.2650290010344
 20
81.64101443194951
 30
0.0
 40
0.499988169890889
100
AcDbArc
 50
90.00149786226634
 51
174.2966061377162
  0
ARC
  5
5DD
330
1A
100
AcDbEntity
  8
NOKITOI
  6
PHANTOM
 62
     8
100
AcDbCircle
 10
169.9446331432079
 20
82.44101928481743
 30
0.0
 40
1.500016683246579
100
AcDbArc
 50
269.9993425123344
 51
358.2076423244113
  0
ARC
  5
5DE
330
1A
100
AcDbEntity
  8
NOKITOI
  6
PHANTOM
 62
     8
100
AcDbCircle
 10
168.2969539178541
 20
84.14093942224187
 30
0.0
 40
2.000036820932882
100
AcDbArc
 50
269.9989117490344
 51
358.2110591274195
  0
LINE
  5
5DF
330
1A
100
AcDbEntity
  8
NOKITOI
  6
PHANTOM
 62
     8
100
AcDbLine
 10
169.83501593003
 20
96.94090260166966
 30
0.0
 11
166.5084159300297
 21
96.94100260166962
 31
0.0
  0
LINE
  5
5E0
330
1A
100
AcDbEntity
  8
NOKITOI
  6
PHANTOM
 62
     8
100
AcDbLine
 10
167.8623159300297
 20
93.2410026016698
 30
0.0
 11
164.9257159300297
 21
93.2410026016698
 31
0.0
  0
ARC
  5
5E1
330
1A
100
AcDbEntity
  8
NOKITOI
  6
PHANTOM
 62
     8
100
AcDbCircle
 10
166.7782453025294
 20
90.41863283416452
 30
0.0
 40
0.4999578477751074
100
AcDbArc
 50
83.52609071220754
 51
188.1330561712932
  0
ARC
  5
5E2
330
1A
100
AcDbEntity
  8
NOKITOI
  6
PHANTOM
 62
     8
100
AcDbCircle
 10
166.3834980636786
 20
86.94101133004958
 30
0.0
 40
5.199991271650611
100
AcDbArc
 50
37.92532860472995
 51
89.9998031407256
  0
LINE
  5
5E3
330
1A
100
AcDbEntity
  8
NOKITOI
  6
PHANTOM
 62
     8
100
AcDbLine
 10
164.5370159300298
 20
88.64100260166967
 30
0.0
 11
164.3559159300295
 21
92.08240260166959
 31
0.0
  0
LINE
  5
5E4
330
1A
100
AcDbEntity
  8
NOKITOI
  6
PHANTOM
 62
     8
100
AcDbLine
 10
164.9109159300298
 20
91.46940260166955
 30
0.0
 11
164.3559159300295
 21
92.08240260166959
 31
0.0
  0
LINE
  5
5E5
330
1A
100
AcDbEntity
  8
NOKITOI
  6
PHANTOM
 62
     8
100
AcDbLine
 10
163.3736159300299
 20
87.91470260166963
 30
0.0
 11
163.0578159300295
 21
93.91470260166963
 31
0.0
  0
LINE
  5
5E6
330
1A
100
AcDbEntity
  8
NOKITOI
  6
PHANTOM
 62
     8
100
AcDbLine
 10
165.3149159300294
 20
88.64100260166967
 30
0.0
 11
164.9109159300298
 21
91.46940260166955
 31
0.0
  0
LINE
  5
5E7
330
1A
100
AcDbEntity
  8
NOKITOI
  6
PHANTOM
 62
     8
100
AcDbLine
 10
164.5370159300298
 20
88.64100260166967
 30
0.0
 11
165.3149159300294
 21
88.64100260166967
 31
0.0
  0
LINE
  5
5E8
330
1A
100
AcDbEntity
  8
NOKITOI
  6
PHANTOM
 62
     8
100
AcDbLine
 10
163.8729159300298
 20
87.44100260166963
 30
0.0
 11
166.1220159300293
 21
87.44100260166963
 31
0.0
  0
ARC
  5
5E9
330
1A
100
AcDbEntity
  8
NOKITOI
  6
PHANTOM
 62
     8
100
AcDbCircle
 10
163.8729200514364
 20
87.94099869163913
 30
0.0
 40
0.4999960899864752
100
AcDbArc
 50
183.0147243791741
 51
269.9995277178593
  0
ARC
  5
5EA
330
1A
100
AcDbEntity
  8
NOKITOI
  6
PHANTOM
 62
     8
100
AcDbCircle
 10
166.1220261164659
 20
87.94101434639376
 30
0.0
 40
0.5000117448278309
100
AcDbArc
 50
269.9988327478016
 51
8.127314608715551
  0
LINE
  5
5EB
330
1A
100
AcDbEntity
  8
NOKITOI
  6
PHANTOM
 62
     8
100
AcDbLine
 10
166.6170159300297
 20
88.0117026016696
 30
0.0
 11
166.2832159300298
 21
90.3479026016698
 31
0.0
  0
LINE
  5
5EC
330
1A
100
AcDbEntity
  8
NOKITOI
  6
PHANTOM
 62
     8
100
AcDbLine
 10
163.5571159300299
 20
94.44100260166962
 30
0.0
 11
165.7886159300298
 21
94.44100260166962
 31
0.0
  0
ARC
  5
5ED
330
1A
100
AcDbEntity
  8
NOKITOI
  6
PHANTOM
 62
     8
100
AcDbCircle
 10
163.5571196395251
 20
93.94100651170035
 30
0.0
 40
0.4999960899831856
100
AcDbArc
 50
90.00042508015082
 51
183.0156217414647
  0
ARC
  5
5EE
330
1A
100
AcDbEntity
  8
NOKITOI
  6
PHANTOM
 62
     8
100
AcDbCircle
 10
166.5084086754743
 20
96.44099375182619
 30
0.0
 40
0.500008849895925
100
AcDbArc
 50
89.99916870385415
 51
191.3135956695126
  0
ARC
  5
5EF
330
1A
100
AcDbEntity
  8
NOKITOI
  6
PHANTOM
 62
     8
100
AcDbCircle
 10
165.7886151470213
 20
94.94100164666789
 30
0.0
 40
0.4999990449987399
100
AcDbArc
 50
270.000089726305
 51
11.30328019845521
  0
LINE
  5
5F0
330
1A
100
AcDbEntity
  8
NOKITOI
  6
PHANTOM
 62
     8
100
AcDbLine
 10
166.2789159300297
 20
95.03900260166981
 30
0.0
 11
166.0181159300297
 21
96.34300260166966
 31
0.0
  0
LINE
  5
5F1
330
1A
100
AcDbEntity
  8
NOKITOI
  6
PHANTOM
 62
     8
100
AcDbLine
 10
165.9215159300299
 20
92.14100260166967
 30
0.0
 11
166.3835159300299
 21
92.14100260166967
 31
0.0
  0
LINE
  5
5F2
330
1A
100
AcDbEntity
  8
NOKITOI
  6
PHANTOM
 62
     8
100
AcDbLine
 10
165.9215159300299
 20
92.14100260166967
 30
0.0
 11
164.9257159300297
 21
93.2410026016698
 31
0.0
  0
LINE
  5
5F3
330
1A
100
AcDbEntity
  8
NOKITOI
  6
PHANTOM
 62
     8
100
AcDbLine
 10
170.6346159300294
 20
94.91600260166952
 30
0.0
 11
170.4853159300298
 21
90.13700260166976
 31
0.0
  0
ARC
  5
5F4
330
1A
100
AcDbEntity
  8
NOKITOI
  6
PHANTOM
 62
     8
100
AcDbCircle
 10
166.3834850030936
 20
86.94103834633343
 30
0.0
 40
3.99998565374706
100
AcDbArc
 50
358.208696659101
 51
83.52422380468341
  0
ARC
  5
5F5
330
1A
100
AcDbEntity
  8
NOKITOI
  6
PHANTOM
 62
     8
100
AcDbCircle
 10
169.8350046930356
 20
94.94101419548675
 30
0.0
 40
1.999988406214315
100
AcDbArc
 50
358.2088726535936
 51
89.99967808195551
  0
LINE
  5
5F6
330
1A
100
AcDbEntity
  8
NOKITOI
  6
PHANTOM
 62
     8
100
AcDbLine
 10
169.83501593003
 20
95.74090260166959
 30
0.0
 11
167.3623159300297
 21
95.7410026016698
 31
0.0
  0
LINE
  5
5F7
330
1A
100
AcDbEntity
  8
NOKITOI
  6
PHANTOM
 62
     8
100
AcDbLine
 10
167.3623159300297
 20
95.7410026016698
 30
0.0
 11
167.8623159300297
 21
93.2410026016698
 31
0.0
  0
ARC
  5
5F8
330
1A
100
AcDbEntity
  8
NOKITOI
  6
PHANTOM
 62
     8
100
AcDbCircle
 10
169.8350598963827
 20
94.94095723919665
 30
0.0
 40
0.7999453636812564
100
AcDbArc
 50
358.2123436447881
 51
90.00314907315425
  0
LINE
  5
1D19
330
1A
100
AcDbEntity
  8
SEIHIN
100
AcDbLine
 10
131.0897918500173
 20
91.73378904482936
 30
0.0
 11
143.877278406802
 21
104.5212757016697
 31
0.0
  0
ARC
  5
1D1B
330
1A
100
AcDbEntity
  8
SEIHIN
100
AcDbCircle
 10
130.389791806802
 20
91.94800260166969
 30
0.0
 40
5.500000002456481
100
AcDbArc
 50
270.0
 51
315.0
  0
LINE
  5
1D1E
330
1A
100
AcDbEntity
  8
SEIHIN
100
AcDbLine
 10
65.27864640680206
 20
78.84800260166968
 30
0.0
 11
133.703500306802
 21
78.84800260166968
 31
0.0
  0
LINE
  5
1D23
330
1A
100
AcDbEntity
  8
SEIHIN
100
AcDbLine
 10
130.3826850284374
 20
92.44089582324951
 30
0.0
 11
143.170171606802
 21
105.2283825016696
 31
0.0
  0
LINE
  5
1D24
330
1A
100
AcDbEntity
  8
CENTER_L
100
AcDbLine
 10
117.875073206802
 20
101.338605475777
 30
0.0
 11
117.875073206802
 21
76.39958802379474
 31
0.0
  0
LINE
  5
1D2A
330
1A
100
AcDbEntity
  8
SEIHIN
100
AcDbLine
 10
107.875073206802
 20
92.1480026016697
 30
0.0
 11
107.875073206802
 21
86.6480026016697
 31
0.0
  0
LINE
  5
1D2C
330
1A
100
AcDbEntity
  8
SEIHIN
100
AcDbLine
 10
57.67507320680204
 20
86.4480026016697
 30
0.0
 11
130.3899561885455
 21
86.4480026016697
 31
0.0
  0
ARC
  5
1D41
330
1A
100
AcDbEntity
  8
SEIHIN
100
AcDbCircle
 10
65.27864640680206
 20
80.44800260166971
 30
0.0
 40
1.599999992064534
100
AcDbArc
 50
185.0000004668387
 51
270.0
  0
LINE
  5
1D42
330
1A
100
AcDbEntity
  8
SEIHIN
100
AcDbLine
 10
58.47507320680199
 20
83.84800260166967
 30
0.0
 11
63.37507320680202
 21
83.84800260166967
 31
0.0
  0
ARC
  5
1D43
330
1A
100
AcDbEntity
  8
SEIHIN
100
AcDbCircle
 10
58.47507320680199
 20
86.94800260166969
 30
0.0
 40
3.100000000000008
100
AcDbArc
 50
180.0
 51
270.0
  0
LINE
  5
1D44
330
1A
100
AcDbEntity
  8
SEIHIN
100
AcDbLine
 10
55.37507320680203
 20
90.84800260166968
 30
0.0
 11
57.17507320680204
 21
90.84800260166968
 31
0.0
  0
ARC
  5
1D45
330
1A
100
AcDbEntity
  8
SEIHIN
100
AcDbCircle
 10
57.67507320680204
 20
86.94800260166969
 30
0.0
 40
0.5
100
AcDbArc
 50
180.0
 51
270.0
  0
LINE
  5
1D46
330
1A
100
AcDbEntity
  8
SEIHIN
100
AcDbLine
 10
55.37507320680203
 20
90.84800260166968
 30
0.0
 11
55.37507320680203
 21
86.94800260166969
 31
0.0
  0
LINE
  5
1D47
330
1A
100
AcDbEntity
  8
SEIHIN
100
AcDbLine
 10
57.17507320680204
 20
90.84800260166968
 30
0.0
 11
57.17507320680204
 21
86.94800260166969
 31
0.0
  0
LINE
  5
1D48
330
1A
100
AcDbEntity
  8
SEIHIN
100
AcDbLine
 10
63.68473490680202
 20
80.3085534016697
 30
0.0
 11
63.14760266703558
 21
86.44800260166968
 31
0.0
  0
LINE
  5
1D4B
330
1A
100
AcDbEntity
  8
SEIHIN
100
AcDbLine
 10
107.875073206802
 20
91.14800260166971
 30
0.0
 11
129.6755782821114
 21
91.14800260166971
 31
0.0
  0
LINE
  5
1D4D
330
1A
100
AcDbEntity
  8
SEIHIN
100
AcDbLine
 10
107.875073206802
 20
86.4480026016697
 30
0.0
 11
130.389791806802
 21
86.4480026016697
 31
0.0
  0
ARC
  5
1D5C
330
1A
100
AcDbEntity
  8
SEIHIN
100
AcDbCircle
 10
117.875073206802
 20
86.2573776016697
 30
0.0
 40
7.890625
100
AcDbArc
 50
48.29108392084388
 51
131.708916079156
  0
LINE
  5
1D5D
330
1A
100
AcDbEntity
  8
SEIHIN
100
AcDbLine
 10
107.875073206802
 20
92.1480026016697
 30
0.0
 11
129.6755782444845
 21
92.14800260166969
 31
0.0
  0
LINE
  5
1D60
330
1A
100
AcDbEntity
  8
CENTER_L
100
AcDbLine
 10
326.084868541396
 20
147.8377694269247
 30
0.0
 11
347.9805195292978
 21
93.0975074155644
 31
0.0
  0
LINE
  5
1D61
330
1A
100
AcDbEntity
  8
SEIHIN
100
AcDbLine
 10
338.044450611735
 20
144.8644996896358
 30
0.0
 11
354.0687640236311
 21
104.8028858465933
 31
0.0
  0
LINE
  5
1D63
330
1A
100
AcDbEntity
  8
SEIHIN
100
AcDbLine
 10
326.7805735840537
 20
135.3279487179843
 30
0.0
 11
324.9092086075744
 21
140.006458125536
 31
0.0
  0
LINE
  5
1D64
330
1A
100
AcDbEntity
  8
SEIHIN
100
AcDbLine
 10
334.2084083452381
 20
138.2990210430116
 30
0.0
 11
332.3370433687588
 21
142.9775304505633
 31
0.0
  0
LINE
  5
1D65
330
1A
100
AcDbEntity
  8
SEIHIN
100
AcDbLine
 10
177.375073206802
 20
97.94800260166972
 30
0.0
 11
177.375073206802
 21
80.92248492424152
 31
0.0
  0
LINE
  5
1D66
330
1A
100
AcDbEntity
  8
SEIHIN
100
AcDbLine
 10
319.4748637087745
 20
137.4368188770676
 30
0.0
 11
335.4991771206704
 21
97.37520503402512
 31
0.0
  0
LINE
  5
1D67
330
1A
100
AcDbEntity
  8
SEIHIN
100
AcDbLine
 10
173.775073206802
 20
97.94800260166972
 30
0.0
 11
173.775073206802
 21
80.9748927016697
 31
0.0
  0
LINE
  5
1D68
330
1A
100
AcDbEntity
  8
SEIHIN
100
AcDbLine
 10
176.375073206802
 20
97.94800260166972
 30
0.0
 11
176.375073206802
 21
80.9748927016697
 31
0.0
  0
LINE
  5
1D6C
330
1A
100
AcDbEntity
  8
SEIHIN
100
AcDbLine
 10
137.309744906802
 20
80.34175800166968
 30
0.0
 11
151.7095748657907
 21
94.74158803789839
 31
0.0
  0
LINE
  5
1D6E
330
1A
100
AcDbEntity
  8
SEIHIN
100
AcDbLine
 10
134.278879106802
 20
88.0589153016697
 30
0.0
 11
146.1094287017469
 21
99.88946489661465
 31
0.0
  0
LINE
  5
1D79
330
1A
100
AcDbEntity
  8
SEIHIN
100
AcDbLine
 10
148.356299506802
 20
77.44292550166967
 30
0.0
 11
160.299345906802
 21
83.26793840166969
 31
0.0
  0
LINE
  5
1D7A
330
1A
100
AcDbEntity
  8
SEIHIN
100
AcDbLine
 10
149.013856106802
 20
76.09473430166968
 30
0.0
 11
160.299345906802
 21
81.59903550166969
 31
0.0
  0
LINE
  5
1D7B
330
1A
100
AcDbEntity
  8
SEIHIN
100
AcDbLine
 10
148.180951106802
 20
77.80244310166968
 30
0.0
 11
160.023997406802
 21
83.57868270166967
 31
0.0
  0
LINE
  5
1D7D
330
1A
100
AcDbEntity
  8
SEIHIN
100
AcDbLine
 10
137.2986011578759
 20
80.33064859830799
 30
0.0
 11
146.430888006802
 21
76.07219330166969
 31
0.0
  0
ARC
  5
1D7E
330
1A
100
AcDbEntity
  8
SEIHIN
100
AcDbCircle
 10
133.703500306802
 20
83.9480026016697
 30
0.0
 40
5.100000011277387
100
AcDbArc
 50
270.0
 51
315.0
  0
LINE
  5
1D7F
330
1A
100
AcDbEntity
  8
SEIHIN
100
AcDbLine
 10
138.7283504824201
 20
81.76036358489714
 30
0.0
 11
147.233862806802
 21
77.79417810166968
 31
0.0
  0
LINE
  5
1D80
330
1A
100
AcDbEntity
  8
SEIHIN
100
AcDbLine
 10
138.4273555727356
 20
81.45936867359809
 30
0.0
 11
147.064815506802
 21
77.43165500166968
 31
0.0
  0
ARC
  5
1D81
330
1A
100
AcDbEntity
  8
SEIHIN
100
AcDbCircle
 10
147.698742906802
 20
78.79111660166969
 30
0.0
 40
1.499999997384386
100
AcDbArc
 50
244.9999984438223
 51
295.9999936879063
  0
ARC
  5
1D83
330
1A
100
AcDbEntity
  8
SEIHIN
100
AcDbCircle
 10
147.698742906802
 20
78.79111660166969
 30
0.0
 40
1.099999981342675
100
AcDbArc
 50
244.9999979823536
 51
295.9999960018844
  0
ARC
  5
1D84
330
1A
100
AcDbEntity
  8
SEIHIN
100
AcDbCircle
 10
147.698742906802
 20
78.79111660166969
 30
0.0
 40
2.9999999920909
100
AcDbArc
 50
244.9999949819811
 51
295.999994525133
  0
ARC
  5
1D86
330
1A
100
AcDbEntity
  8
SEIHIN
100
AcDbCircle
 10
158.370512806802
 20
87.2226322016697
 30
0.0
 40
4.400000010194002
100
AcDbArc
 50
296.0000006547247
 51
359.9999934891161
  0
ARC
  5
1D87
330
1A
100
AcDbEntity
  8
SEIHIN
100
AcDbCircle
 10
158.270512806802
 20
87.17385890166967
 30
0.0
 40
4.000000009467725
100
AcDbArc
 50
296.0000000723986
 51
0.0
  0
LINE
  5
1D88
330
1A
100
AcDbEntity
  8
SEIHIN
100
AcDbLine
 10
162.770512806802
 20
85.55372880166968
 30
0.0
 11
162.770512806802
 21
89.68195940166969
 31
0.0
  0
ARC
  5
1D8A
330
1A
100
AcDbEntity
  8
SEIHIN
100
AcDbCircle
 10
158.370512806802
 20
85.55372930166969
 30
0.0
 40
4.400000010194002
100
AcDbArc
 50
296.0000006547247
 51
359.9999934891161
  0
LINE
  5
1D8B
330
1A
100
AcDbEntity
  8
SEIHIN
100
AcDbLine
 10
162.270512806802
 20
89.68195940166969
 30
0.0
 11
162.770512806802
 21
89.68195940166969
 31
0.0
  0
LINE
  5
1D8C
330
1A
100
AcDbEntity
  8
SEIHIN
100
AcDbLine
 10
162.270512806802
 20
87.17385890166967
 30
0.0
 11
162.270512806802
 21
89.68195940166969
 31
0.0
  0
LINE
  5
1D92
330
1A
100
AcDbEntity
  8
SEIHIN
100
AcDbLine
 10
166.884666406802
 20
80.81435430166969
 30
0.0
 11
166.753826549069
 21
78.31778050469536
 31
0.0
  0
ARC
  5
1D93
330
1A
100
AcDbEntity
  8
SEIHIN
100
AcDbCircle
 10
173.375073206802
 20
80.9748927016697
 30
0.0
 40
2.999999998689364
100
AcDbArc
 50
266.9999993993207
 51
0.0
  0
LINE
  5
1D94
330
1A
100
AcDbEntity
  8
SEIHIN
100
AcDbLine
 10
174.2180653357726
 20
77.92659632009836
 30
0.0
 11
166.753826606802
 21
78.3177805016697
 31
0.0
  0
LINE
  5
1D96
330
1A
100
AcDbEntity
  8
SEIHIN
100
AcDbLine
 10
173.354138806802
 20
80.57544090166969
 30
0.0
 11
166.889900006802
 21
80.91421730166969
 31
0.0
  0
ARC
  5
1D97
330
1A
100
AcDbEntity
  8
SEIHIN
100
AcDbCircle
 10
173.375073206802
 20
80.9748927016697
 30
0.0
 40
0.3999999935166316
100
AcDbArc
 50
266.999997392128
 51
0.0
  0
LINE
  5
1D9E
330
1A
100
AcDbEntity
  8
SEIHIN
100
AcDbLine
 10
319.4748637087744
 20
137.4368188770674
 30
0.0
 11
321.8889100061594
 21
138.4024173827014
 31
0.0
  0
LINE
  5
1DA6
330
1A
100
AcDbEntity
  8
SEIHIN
100
AcDbLine
 10
335.6304043143502
 20
143.8989011840018
 30
0.0
 11
338.044450611735
 21
144.8644996896357
 31
0.0
  0
ARC
  5
1DA7
330
1A
100
AcDbEntity
  8
SEIHIN
100
AcDbCircle
 10
358.8971029361865
 20
141.1991376226417
 30
0.0
 40
3.0
100
AcDbArc
 50
21.80100190985947
 51
111.8009999999999
  0
ARC
  5
1DA8
330
1A
100
AcDbEntity
  8
SEIHIN
100
AcDbCircle
 10
369.6672401144104
 20
114.2732366133487
 30
0.0
 40
3.000000000000003
100
AcDbArc
 50
291.8009999999999
 51
21.80100381971894
  0
LINE
  5
1DAE
330
1A
100
AcDbEntity
  8
SEIHIN
100
AcDbLine
 10
162.6496513981453
 20
101.9135608031757
 30
0.0
 11
149.055712806802
 21
101.2011327016696
 31
0.0
  0
LINE
  5
1DB3
330
1A
100
AcDbEntity
  8
SEIHIN
100
AcDbLine
 10
171.775634906802
 20
99.78826520166968
 30
0.0
 11
157.375073206802
 21
99.03356379151064
 31
0.0
  0
ARC
  5
1DB6
330
1A
100
AcDbEntity
  8
SEIHIN
100
AcDbCircle
 10
149.291224606802
 20
96.70729980166971
 30
0.0
 40
4.499999985879004
100
AcDbArc
 50
92.99999996493296
 51
135.0
  0
ARC
  5
1DB8
330
1A
100
AcDbEntity
  8
SEIHIN
100
AcDbCircle
 10
147.766365906802
 20
100.6321885016697
 30
0.0
 40
5.500000065643712
100
AcDbArc
 50
91.3361182741777
 51
135.0000022098678
  0
ARC
  5
1DB9
330
1A
100
AcDbEntity
  8
SEIHIN
100
AcDbCircle
 10
147.766365906802
 20
100.6321885016697
 30
0.0
 40
6.500000024766264
100
AcDbArc
 50
91.33611865333142
 51
135.000002493184
  0
ARC
  5
1DBB
330
1A
100
AcDbEntity
  8
SEIHIN
100
AcDbCircle
 10
171.875073206802
 20
97.8908691016697
 30
0.0
 40
4.499999996725646
100
AcDbArc
 50
0.0
 51
68.50091861647718
  0
ARC
  5
1DBC
330
1A
100
AcDbEntity
  8
SEIHIN
100
AcDbCircle
 10
171.875073206802
 20
97.8908691016697
 30
0.0
 40
5.500000030448694
100
AcDbArc
 50
0.0
 51
50.03412929334452
  0
ARC
  5
1DBD
330
1A
100
AcDbEntity
  8
SEIHIN
100
AcDbCircle
 10
171.875073206802
 20
97.8908691016697
 30
0.0
 40
1.899999991552915
100
AcDbArc
 50
0.0
 51
92.99999951753015
  0
LINE
  5
1DC4
330
1A
100
AcDbEntity
  8
SEIHIN
100
AcDbLine
 10
341.5345622742107
 20
137.4853549470886
 30
0.0
 11
354.5330036962051
 21
104.9885778669075
 31
0.0
  0
LINE
  5
1DC7
330
1A
100
AcDbEntity
  8
CENTER_L
100
AcDbLine
 10
312.0646132340938
 20
123.6512628708841
 30
0.0
 11
316.5954985297604
 21
112.3238148600781
 31
0.0
  0
LINE
  5
1DC9
330
1A
100
AcDbEntity
  8
SEIHIN
100
AcDbLine
 10
304.1168215353144
 20
119.2874793184135
 30
0.0
 11
314.8869586763997
 21
92.36157840196854
 31
0.0
  0
LINE
  5
1DCA
330
1A
100
AcDbEntity
  8
SEIHIN
100
AcDbLine
 10
322.0364960261023
 20
129.686290093892
 30
0.0
 11
335.0349374480965
 21
97.18951301371097
 31
0.0
  0
ARC
  5
1DCF
330
1A
100
AcDbEntity
  8
SEIHIN
100
AcDbCircle
 10
317.6723967861207
 20
93.47573033815788
 30
0.0
 40
3.000000000000003
100
AcDbArc
 50
201.800996180281
 51
291.8009999999999
  0
LINE
  5
1DD1
330
1A
100
AcDbEntity
  8
SEIHIN
100
AcDbLine
 10
318.786548908006
 20
90.69029230271384
 30
0.0
 11
344.7839705721509
 21
101.0890454403092
 31
0.0
  0
CIRCLE
  5
1DD8
330
1A
100
AcDbEntity
  8
SEIHIN
100
AcDbCircle
 10
321.3863526538669
 20
100.3464313076684
 30
0.0
 40
2.100000000000022
  0
LINE
  5
1DE0
330
1A
100
AcDbEntity
  8
SEIHIN
100
AcDbLine
 10
344.7839705721509
 20
101.0890454403092
 30
0.0
 11
370.7813922362955
 21
111.4877985779047
 31
0.0
  0
CIRCLE
  5
1DEB
330
1A
100
AcDbEntity
  8
SEIHIN
100
AcDbCircle
 10
362.2394438403803
 20
116.6873290953184
 30
0.0
 40
2.100000000000022
  0
LINE
  5
1DEE
330
1A
100
AcDbEntity
  8
SEIHIN
100
AcDbLine
 10
305.7881074860116
 20
123.1870693828948
 30
0.0
 11
322.5007356986762
 21
129.8719821142062
 31
0.0
  0
LINE
  5
1DEF
330
1A
100
AcDbEntity
  8
CENTER_L
100
AcDbLine
 10
308.6663318765239
 20
115.7220962176477
 30
0.0
 11
319.9937798873301
 21
120.2529815133144
 31
0.0
  0
ARC
  5
1DF3
330
1A
100
AcDbEntity
  8
SEIHIN
100
AcDbCircle
 10
306.9022596078969
 20
120.4016313474508
 30
0.0
 40
3.0
100
AcDbArc
 50
111.8009999999999
 51
201.801
  0
CIRCLE
  5
1DF4
330
1A
100
AcDbEntity
  8
SEIHIN
100
AcDbCircle
 10
314.3300558819271
 20
117.9875388654811
 30
0.0
 40
2.100000000000022
  0
CIRCLE
  5
1E06
330
1A
100
AcDbEntity
  8
SEIHIN
100
AcDbCircle
 10
355.1831470684404
 20
134.3284366531311
 30
0.0
 40
2.100000000000022
  0
LINE
  5
1E0A
330
1A
100
AcDbEntity
  8
SEIHIN
100
AcDbLine
 10
361.6825409344922
 20
142.3132898373748
 30
0.0
 11
372.4526780755778
 21
115.3873889209299
 31
0.0
  0
LINE
  5
1EC3
330
1A
100
AcDbEntity
  8
SEIHIN
100
AcDbLine
 10
55.37507320680203
 20
229.1707035089473
 30
0.0
 11
63.14760266703553
 21
229.1707035089473
 31
0.0
  0
LINE
  5
1EC6
330
1A
100
AcDbEntity
  8
CENTER_L
100
AcDbLine
 10
277.499444543249
 20
219.1707035089473
 30
0.0
 11
48.37507320680202
 21
219.1707035089473
 31
0.0
  0
LINE
  5
1ECB
330
1A
100
AcDbEntity
  8
SEIHIN
100
AcDbLine
 10
55.37507320680203
 20
209.1707035089473
 30
0.0
 11
63.14760266703558
 21
209.1707035089473
 31
0.0
  0
LINE
  5
1ED8
330
1A
100
AcDbEntity
  8
CENTER_L
100
AcDbLine
 10
117.875073206802
 20
204.1418317963961
 30
0.0
 11
117.875073206802
 21
234.1995752214985
 31
0.0
  0
LINE
  5
1EDA
330
1A
100
AcDbEntity
  8
SEIHIN
100
AcDbLine
 10
107.875073206802
 20
209.1707035089473
 30
0.0
 11
107.8750732068019
 21
229.1707035089473
 31
0.0
  0
LINE
  5
1F11
330
1A
100
AcDbEntity
  8
SEIHIN
100
AcDbLine
 10
157.375073206802
 20
101.6371319261094
 30
0.0
 11
157.375073206802
 21
95.98746880105966
 31
0.0
  0
LINE
  5
1F12
330
1A
100
AcDbEntity
  8
SEIHIN
100
AcDbLine
 10
156.4274091651267
 20
94.98883926641418
 30
0.0
 11
151.7095748657907
 21
94.74158803789839
 31
0.0
  0
ARC
  5
1F13
330
1A
100
AcDbEntity
  8
SEIHIN
100
AcDbCircle
 10
156.375073206802
 20
95.98746880105966
 30
0.0
 40
1.0
100
AcDbArc
 50
273.0000001194438
 51
0.0
  0
ARC
  5
1F15
330
1A
100
AcDbEntity
  8
SEIHIN
100
AcDbCircle
 10
174.375073206802
 20
80.92248492424152
 30
0.0
 40
3.0
100
AcDbArc
 50
266.9999999560026
 51
0.0
  0
LINE
  5
1F30
330
1A
100
AcDbEntity
  8
CENTER_L
100
AcDbLine
 10
315.7226286484636
 20
98.08098865983524
 30
0.0
 11
327.0500766592698
 21
102.6118739555017
 31
0.0
  0
LINE
  5
1F31
330
1A
100
AcDbEntity
  8
CENTER_L
100
AcDbLine
 10
319.1209100060335
 20
106.0101553130715
 30
0.0
 11
323.6517953017001
 21
94.68270730226551
 31
0.0
  0
LINE
  5
1F32
330
1A
100
AcDbEntity
  8
CENTER_L
100
AcDbLine
 10
359.974001192547
 20
122.3510531007215
 30
0.0
 11
364.5048864882136
 21
111.0236050899154
 31
0.0
  0
LINE
  5
1F33
330
1A
100
AcDbEntity
  8
CENTER_L
100
AcDbLine
 10
352.9177044206071
 20
139.992160658534
 30
0.0
 11
357.4485897162738
 21
128.664712647728
 31
0.0
  0
LINE
  5
1F34
330
1A
100
AcDbEntity
  8
CENTER_L
100
AcDbLine
 10
367.9031678457832
 20
118.9527717431517
 30
0.0
 11
356.5757198349771
 21
114.4218864474851
 31
0.0
  0
LINE
  5
1F35
330
1A
100
AcDbEntity
  8
CENTER_L
100
AcDbLine
 10
360.8468710738435
 20
136.5938793009643
 30
0.0
 11
349.5194230630374
 21
132.0629940052977
 31
0.0
  0
LINE
  5
1F4C
330
1A
100
AcDbEntity
  8
SEIHIN
100
AcDbLine
 10
323.707704965353
 20
122.8155506372274
 30
0.0
 11
321.8507462750569
 21
122.0727825559706
 31
0.0
  0
LINE
  5
1F4D
330
1A
100
AcDbEntity
  8
SEIHIN
100
AcDbLine
 10
324.4504730466098
 20
120.9585919469314
 30
0.0
 11
322.5935143563138
 21
120.2158238656745
 31
0.0
  0
LINE
  5
1F4E
330
1A
100
AcDbEntity
  8
SEIHIN
100
AcDbLine
 10
321.9435826634255
 20
120.4943715179343
 30
0.0
 11
321.5721986227971
 21
121.4228508630824
 31
0.0
  0
ARC
  5
1F4F
330
1A
100
AcDbEntity
  8
SEIHIN
100
AcDbCircle
 10
322.4078223359995
 20
120.6800635382485
 30
0.0
 40
0.5
100
AcDbArc
 50
201.801
 51
291.8010000000005
  0
ARC
  5
1F50
330
1A
100
AcDbEntity
  8
SEIHIN
100
AcDbCircle
 10
322.0364382953711
 20
121.6085428833965
 30
0.0
 40
0.5
100
AcDbArc
 50
111.8009999999999
 51
201.801
  0
LINE
  5
1F51
330
1A
100
AcDbEntity
  8
SEIHIN
100
AcDbLine
 10
330.7640017372929
 20
105.1744430794148
 30
0.0
 11
328.9070430469968
 21
104.431674998158
 31
0.0
  0
LINE
  5
1F52
330
1A
100
AcDbEntity
  8
SEIHIN
100
AcDbLine
 10
331.5067698185496
 20
103.3174843891187
 30
0.0
 11
329.6498111282536
 21
102.5747163078619
 31
0.0
  0
LINE
  5
1F53
330
1A
100
AcDbEntity
  8
SEIHIN
100
AcDbLine
 10
328.9998794353654
 20
102.8532639601217
 30
0.0
 11
328.6284953947368
 21
103.7817433052698
 31
0.0
  0
ARC
  5
1F54
330
1A
100
AcDbEntity
  8
SEIHIN
100
AcDbCircle
 10
329.0927350673109
 20
103.9674353255839
 30
0.0
 40
0.5
100
AcDbArc
 50
111.8009999999999
 51
201.801
  0
ARC
  5
1F55
330
1A
100
AcDbEntity
  8
SEIHIN
100
AcDbCircle
 10
329.4641191079394
 20
103.0389559804359
 30
0.0
 40
0.5
100
AcDbArc
 50
201.801
 51
291.8010000000005
  0
LINE
  5
1F56
330
1A
100
AcDbEntity
  8
SEIHIN
100
AcDbLine
 10
354.9973010995102
 20
113.2520170977172
 30
0.0
 11
354.6259170588817
 21
114.1804964428652
 31
0.0
  0
LINE
  5
1F57
330
1A
100
AcDbEntity
  8
SEIHIN
100
AcDbLine
 10
352.8617947569542
 20
111.8593173235721
 30
0.0
 11
354.7187534472503
 21
112.602085404829
 31
0.0
  0
ARC
  5
1F58
330
1A
100
AcDbEntity
  8
SEIHIN
100
AcDbCircle
 10
354.5330614269362
 20
113.0663250774029
 30
0.0
 40
0.5
100
AcDbArc
 50
291.8009999999994
 51
21.801
  0
LINE
  5
1F59
330
1A
100
AcDbEntity
  8
SEIHIN
100
AcDbLine
 10
352.1190266756974
 20
113.7162760138682
 30
0.0
 11
353.9759853659935
 21
114.4590440951251
 31
0.0
  0
ARC
  5
1F5A
330
1A
100
AcDbEntity
  8
SEIHIN
100
AcDbCircle
 10
354.1616773863078
 20
113.994804422551
 30
0.0
 40
0.5
100
AcDbArc
 50
21.801
 51
111.8009999999999
  0
LINE
  5
1F5B
330
1A
100
AcDbEntity
  8
SEIHIN
100
AcDbLine
 10
345.0627299037577
 20
131.3573835716808
 30
0.0
 11
346.9196885940537
 21
132.1001516529376
 31
0.0
  0
LINE
  5
1F5C
330
1A
100
AcDbEntity
  8
SEIHIN
100
AcDbLine
 10
345.8054979850145
 20
129.5004248813848
 30
0.0
 11
347.6624566753106
 21
130.2431929626415
 31
0.0
  0
LINE
  5
1F5D
330
1A
100
AcDbEntity
  8
SEIHIN
100
AcDbLine
 10
347.9410043275703
 20
130.8931246555298
 30
0.0
 11
347.569620286942
 21
131.8216040006778
 31
0.0
  0
ARC
  5
1F5E
330
1A
100
AcDbEntity
  8
SEIHIN
100
AcDbCircle
 10
347.105380614368
 20
131.6359119803636
 30
0.0
 40
0.5
100
AcDbArc
 50
21.801
 51
111.8009999999999
  0
ARC
  5
1F5F
330
1A
100
AcDbEntity
  8
SEIHIN
100
AcDbCircle
 10
347.4767646549965
 20
130.7074326352155
 30
0.0
 40
0.5
100
AcDbArc
 50
291.8009999999994
 51
21.801
  0
LINE
  5
1F61
330
1A
100
AcDbEntity
  8
SEIHIN
100
AcDbLine
 10
157.375073206802
 20
206.6707035089473
 30
0.0
 11
63.14760266703558
 21
206.6707035089473
 31
0.0
  0
LINE
  5
1F62
330
1A
100
AcDbEntity
  8
SEIHIN
100
AcDbLine
 10
157.375073206802
 20
206.6707035089473
 30
0.0
 11
157.375073206802
 21
209.1707035089473
 31
0.0
  0
LINE
  5
1F63
330
1A
100
AcDbEntity
  8
SEIHIN
100
AcDbLine
 10
63.14760266703558
 20
206.6707035089473
 30
0.0
 11
63.14760266703558
 21
209.1707035089473
 31
0.0
  0
LINE
  5
1F64
330
1A
100
AcDbEntity
  8
SEIHIN
100
AcDbLine
 10
55.37507320680203
 20
209.1707035089473
 30
0.0
 11
55.37507320680203
 21
229.1707035089473
 31
0.0
  0
LINE
  5
1F67
330
1A
100
AcDbEntity
  8
SEIHIN
100
AcDbLine
 10
57.17507320680204
 20
209.1707035089473
 30
0.0
 11
57.17507320680204
 21
229.1707035089473
 31
0.0
  0
LINE
  5
1F68
330
1A
100
AcDbEntity
  8
SEIHIN
100
AcDbLine
 10
107.8750732068019
 20
209.1707035089473
 30
0.0
 11
264.2735329254438
 21
209.1707035089473
 31
0.0
  0
LINE
  5
1F69
330
1A
100
AcDbEntity
  8
SEIHIN
100
AcDbLine
 10
107.875073206802
 20
211.1707035089473
 30
0.0
 11
248.1733357684045
 21
211.1707035089473
 31
0.0
  0
CIRCLE
  5
1F6A
330
1A
100
AcDbEntity
  8
SEIHIN
100
AcDbCircle
 10
117.875073206802
 20
219.1707035089473
 30
0.0
 40
5.0
  0
LINE
  5
1F6C
330
1A
100
AcDbEntity
  8
SEIHIN
100
AcDbLine
 10
130.2306560548235
 20
211.6707035089473
 30
0.0
 11
130.2306560548236
 21
226.6707035089473
 31
0.0
  0
LINE
  5
1F6D
330
1A
100
AcDbEntity
  8
SEIHIN
100
AcDbLine
 10
145.0154572607743
 20
211.6707035089473
 30
0.0
 11
145.0154572607743
 21
226.6707035089472
 31
0.0
  0
LINE
  5
1F70
330
1A
100
AcDbEntity
  8
SEIHIN
100
AcDbLine
 10
107.8750732068019
 20
227.1707035089473
 30
0.0
 11
248.1733357684045
 21
227.1707035089473
 31
0.0
  0
LINE
  5
1F71
330
1A
100
AcDbEntity
  8
SEIHIN
100
AcDbLine
 10
107.8750732068019
 20
229.1707035089473
 30
0.0
 11
264.2735329254438
 21
229.1707035089473
 31
0.0
  0
LINE
  5
1F72
330
1A
100
AcDbEntity
  8
SEIHIN
100
AcDbLine
 10
157.375073206802
 20
231.6707035089473
 30
0.0
 11
63.14760266703558
 21
231.6707035089473
 31
0.0
  0
LINE
  5
1F73
330
1A
100
AcDbEntity
  8
SEIHIN
100
AcDbLine
 10
55.37507320680203
 20
229.1707035089473
 30
0.0
 11
63.14760266703558
 21
229.1707035089473
 31
0.0
  0
LINE
  5
1F74
330
1A
100
AcDbEntity
  8
SEIHIN
100
AcDbLine
 10
63.14760266703558
 20
231.6707035089473
 30
0.0
 11
63.14760266703558
 21
229.1707035089473
 31
0.0
  0
LINE
  5
1F75
330
1A
100
AcDbEntity
  8
SEIHIN
100
AcDbLine
 10
131.1626725264452
 20
227.6707035089474
 30
0.0
 11
131.1626725264452
 21
228.6707035089473
 31
0.0
  0
LINE
  5
1F76
330
1A
100
AcDbEntity
  8
SEIHIN
100
AcDbLine
 10
144.1766428042174
 20
228.6707035089473
 30
0.0
 11
144.1766428042173
 21
227.6707035089473
 31
0.0
  0
LINE
  5
1F77
330
1A
100
AcDbEntity
  8
SEIHIN
100
AcDbLine
 10
157.375073206802
 20
231.6707035089473
 30
0.0
 11
157.375073206802
 21
229.1707035089473
 31
0.0
  0
LINE
  5
1F85
330
1A
100
AcDbEntity
  8
SEIHIN
100
AcDbLine
 10
147.8132112914413
 20
229.6707035089473
 30
0.0
 11
147.8132112914413
 21
231.1707035089473
 31
0.0
  0
LINE
  5
1F86
330
1A
100
AcDbEntity
  8
SEIHIN
100
AcDbLine
 10
132.2886534284978
 20
229.6707035089473
 30
0.0
 11
132.2886534284978
 21
231.1707035089472
 31
0.0
  0
LINE
  5
1F88
330
1A
100
AcDbEntity
  8
SEIHIN
100
AcDbLine
 10
107.875073206802
 20
86.6480026016697
 30
0.0
 11
130.2968985914818
 21
86.64800260166968
 31
0.0
  0
LINE
  5
1F89
330
1A
100
AcDbEntity
  8
SEIHIN
100
AcDbLine
 10
133.8324325112464
 20
88.11246870956884
 30
0.0
 11
145.9735276082286
 21
100.2535639015489
 31
0.0
  0
ARC
  5
1F8B
330
1A
100
AcDbEntity
  8
SEIHIN
100
AcDbCircle
 10
149.5090615279932
 20
96.71803000944809
 30
0.0
 40
5.0
100
AcDbArc
 50
92.99999987887712
 51
135.0000002241552
  0
ARC
  5
1F93
330
1A
100
AcDbEntity
  8
SEIHIN
100
AcDbCircle
 10
130.2968985914818
 20
91.64800260166968
 30
0.0
 40
5.0
100
AcDbArc
 50
270.0
 51
315.0000002241551
  0
ARC
  5
1F94
330
1A
100
AcDbEntity
  8
SEIHIN
100
AcDbCircle
 10
129.6755782821114
 20
93.1480026016697
 30
0.0
 40
2.0
100
AcDbArc
 50
270.0
 51
315.0000002241553
  0
ARC
  5
1F95
330
1A
100
AcDbEntity
  8
SEIHIN
100
AcDbCircle
 10
129.6755782444845
 20
93.14800260166968
 30
0.0
 40
1.0
100
AcDbArc
 50
270.0
 51
315.0000002241551
  0
DIMENSION
  5
1FF7
330
1A
100
AcDbEntity
  8
SUNPOU
100
AcDbDimension
  2
*D1
 10
312.1078096940973
 20
88.01885198632291
 30
0.0
 11
307.9297873459701
 21
105.1957006279844
 31
0.0
 70
    32
  3
STANDARD
100
AcDbAlignedDimension
 13
279.5634904806275
 23
112.6974399923356
 33
0.0
 14
292.5619319026219
 24
80.20066291215458
 34
0.0
 50
111.8010000000003
100
AcDbRotatedDimension
1001
ACAD
1000
DSTYLE
1002
{
1070
    41
1040
3.0
1070
    42
1040
3.0
1070
    43
1040
7.0
1070
    44
1040
1.5
1070
    73
1070
     0
1070
    74
1070
     0
1070
    77
1070
     3
1070
   140
1040
3.0
1070
   141
1040
3.0
1070
   147
1040
1.0
1070
   172
1070
     1
1070
   173
1070
     1
1070
   176
1070
   256
1070
   177
1070
   256
1070
   178
1070
   256
1070
   271
1070
     0
1070
   272
1070
     0
1070
   341
1005
B2
1070
     6
1000
OPEN
1070
     7
1000
OPEN
1002
}
  0
DIMENSION
  5
2006
330
1A
100
AcDbEntity
  8
SUNPOU
100
AcDbDimension
  2
*D2
 10
292.7726059522474
 20
109.3647376126943
 30
0.0
 11
293.6082681526039
 21
114.0071150948575
 31
0.0
 70
    32
  3
STANDARD
100
AcDbAlignedDimension
 13
305.7881074860116
 23
123.1870693828948
 33
0.0
 14
308.6663318765239
 24
115.7220962176477
 34
0.0
 50
111.8010000000003
100
AcDbRotatedDimension
1001
ACAD
1000
DSTYLE
1002
{
1070
    41
1040
3.0
1070
    42
1040
3.0
1070
    43
1040
7.0
1070
    44
1040
1.5
1070
    73
1070
     0
1070
    74
1070
     0
1070
    77
1070
     3
1070
   140
1040
3.0
1070
   141
1040
3.0
1070
   147
1040
1.0
1070
   172
1070
     1
1070
   173
1070
     1
1070
   176
1070
   256
1070
   177
1070
   256
1070
   178
1070
   256
1070
   271
1070
     0
1070
   272
1070
     0
1070
   341
1005
B2
1070
     6
1000
OPEN
1070
     7
1000
OPEN
1002
}
  0
DIMENSION
  5
2015
330
1A
100
AcDbEntity
  8
SUNPOU
100
AcDbDimension
  2
*D3
 10
302.7999750492147
 20
84.29579529369755
 30
0.0
 11
303.6356372495711
 21
88.93817277586075
 31
0.0
 70
    32
  3
STANDARD
100
AcDbAlignedDimension
 13
315.7226286484636
 23
98.08098865983524
 33
0.0
 14
318.786548908006
 24
90.69029230271384
 34
0.0
 50
111.8010000000003
100
AcDbRotatedDimension
1001
ACAD
1000
DSTYLE
1002
{
1070
    41
1040
3.0
1070
    42
1040
3.0
1070
    43
1040
7.0
1070
    44
1040
1.5
1070
    73
1070
     0
1070
    74
1070
     0
1070
    77
1070
     3
1070
   140
1040
3.0
1070
   141
1040
3.0
1070
   147
1040
1.0
1070
   172
1070
     1
1070
   173
1070
     1
1070
   176
1070
   256
1070
   177
1070
   256
1070
   178
1070
   256
1070
   271
1070
     0
1070
   272
1070
     0
1070
   341
1005
B2
1070
     6
1000
OPEN
1070
     7
1000
OPEN
1002
}
  0
DIMENSION
  5
2022
330
1A
100
AcDbEntity
  8
SUNPOU
100
AcDbDimension
  2
*D4
 10
293.4981170501498
 20
80.57512920985086
 30
0.0
 11
289.3200947020226
 21
97.75197785151242
 31
0.0
 70
    32
  3
STANDARD
100
AcDbAlignedDimension
 13
305.7881074860116
 23
123.1870693828948
 33
0.0
 14
318.786548908006
 24
90.69029230271384
 34
0.0
 50
111.8010000000003
100
AcDbRotatedDimension
1001
ACAD
1000
DSTYLE
1002
{
1070
    41
1040
3.0
1070
    42
1040
3.0
1070
    43
1040
7.0
1070
    44
1040
1.5
1070
    73
1070
     0
1070
    74
1070
     0
1070
    77
1070
     3
1070
   140
1040
3.0
1070
   141
1040
3.0
1070
   147
1040
1.0
1070
   172
1070
     1
1070
   173
1070
     1
1070
   176
1070
   256
1070
   177
1070
   256
1070
   178
1070
   256
1070
   271
1070
     0
1070
   272
1070
     0
1070
   341
1005
B2
1070
     6
1000
OPEN
1070
     7
1000
OPEN
1002
}
  0
DIMENSION
  5
204C
330
1A
100
AcDbEntity
  8
SUNPOU
100
AcDbDimension
  2
*D5
 10
340.9839196517668
 20
169.8272409397479
 30
0.0
 11
319.6289139569391
 21
163.9779904087928
 31
0.0
 70
    32
  3
STANDARD
100
AcDbAlignedDimension
 13
312.0646132340938
 23
123.6512628708841
 33
0.0
 14
352.9177044206071
 24
139.992160658534
 34
0.0
 50
21.8010000000005
100
AcDbRotatedDimension
1001
ACAD
1000
DSTYLE
1002
{
1070
    41
1040
3.0
1070
    42
1040
3.0
1070
    43
1040
7.0
1070
    44
1040
1.5
1070
    73
1070
     0
1070
    74
1070
     0
1070
    77
1070
     3
1070
   140
1040
3.0
1070
   141
1040
3.0
1070
   147
1040
1.0
1070
   172
1070
     1
1070
   173
1070
     1
1070
   176
1070
   256
1070
   177
1070
   256
1070
   178
1070
   256
1070
   271
1070
     0
1070
   272
1070
     0
1070
   341
1005
B2
1070
     6
1000
OPEN
1070
     7
1000
OPEN
1002
}
  0
DIMENSION
  5
2059
330
1A
100
AcDbEntity
  8
SUNPOU
100
AcDbDimension
  2
*D6
 10
345.4984304984603
 20
182.7744045207733
 30
0.0
 11
315.7871106973004
 21
173.5826976241624
 31
0.0
 70
    32
  3
STANDARD
100
AcDbAlignedDimension
 13
304.1168215724527
 23
119.2874792255656
 33
0.0
 14
361.6825409716308
 24
142.3132897445269
 34
0.0
 50
21.8010000000005
100
AcDbRotatedDimension
1001
ACAD
1000
DSTYLE
1002
{
1070
    41
1040
3.0
1070
    42
1040
3.0
1070
    43
1040
7.0
1070
    44
1040
1.5
1070
    73
1070
     0
1070
    74
1070
     0
1070
    77
1070
     3
1070
   140
1040
3.0
1070
   141
1040
3.0
1070
   147
1040
1.0
1070
   172
1070
     1
1070
   173
1070
     1
1070
   176
1070
   256
1070
   177
1070
   256
1070
   178
1070
   256
1070
   271
1070
     0
1070
   272
1070
     0
1070
   341
1005
B2
1070
     6
1000
OPEN
1070
     7
1000
OPEN
1002
}
  0
DIMENSION
  5
2073
330
1A
100
AcDbEntity
  8
SUNPOU
100
AcDbDimension
  2
*D7
 10
28.54426043846435
 20
209.1707035089473
 30
0.0
 11
26.04426043846431
 21
219.1707035089473
 31
0.0
 70
    32
  3
STANDARD
100
AcDbAlignedDimension
 13
55.37507320680203
 23
229.1707035089473
 33
0.0
 14
55.37507320680203
 24
209.1707035089473
 34
0.0
 50
90.0
100
AcDbRotatedDimension
1001
ACAD
1000
DSTYLE
1002
{
1070
    41
1040
3.0
1070
    42
1040
3.0
1070
    43
1040
7.0
1070
    44
1040
1.5
1070
    73
1070
     0
1070
    74
1070
     0
1070
    77
1070
     3
1070
   140
1040
3.0
1070
   141
1040
3.0
1070
   147
1040
1.0
1070
   172
1070
     1
1070
   173
1070
     1
1070
   176
1070
   256
1070
   177
1070
   256
1070
   178
1070
   256
1070
   271
1070
     0
1070
   272
1070
     0
1070
   341
1005
B2
1070
     6
1000
OPEN
1070
     7
1000
OPEN
1002
}
  0
LINE
  5
2127
330
1A
100
AcDbEntity
  8
SEIHIN
100
AcDbLine
 10
131.1626725264452
 20
210.6707035089472
 30
0.0
 11
131.1626725264452
 21
209.6707035089473
 31
0.0
  0
LINE
  5
2128
330
1A
100
AcDbEntity
  8
SEIHIN
100
AcDbLine
 10
132.2886534284978
 20
208.6707035089473
 30
0.0
 11
132.2886534284978
 21
207.1707035089473
 31
0.0
  0
LINE
  5
2129
330
1A
100
AcDbEntity
  8
SEIHIN
100
AcDbLine
 10
144.1766428042174
 20
209.6707035089472
 30
0.0
 11
144.1766428042173
 21
210.6707035089473
 31
0.0
  0
LINE
  5
212A
330
1A
100
AcDbEntity
  8
SEIHIN
100
AcDbLine
 10
147.8132112914413
 20
208.6707035089473
 30
0.0
 11
147.8132112914413
 21
207.1707035089473
 31
0.0
  0
LINE
  5
2E27
330
1A
100
AcDbEntity
  8
SEIHIN
100
AcDbLine
 10
258.609808856802
 20
66.61997038266967
 30
0.0
 11
245.611367426802
 21
99.11674746166969
 31
0.0
  0
LINE
  5
2E2A
330
1A
100
AcDbEntity
  8
SEIHIN
100
AcDbLine
 10
263.252205576802
 20
68.47689058266968
 30
0.0
 11
250.253764156802
 21
100.9736676646696
 31
0.0
  0
LINE
  5
2E2B
330
1A
100
AcDbEntity
  8
SEIHIN
100
AcDbLine
 10
264.737772526802
 20
69.07110505266968
 30
0.0
 11
251.739331106802
 21
101.5678821296696
 31
0.0
  0
LINE
  5
2E2E
330
1A
100
AcDbEntity
  8
SEIHIN
100
AcDbLine
 10
264.737772526802
 20
69.07110505266968
 30
0.0
 11
258.609808856802
 21
66.61997038266967
 31
0.0
  0
LINE
  5
2E35
330
1A
100
AcDbEntity
  8
SEIHIN
100
AcDbLine
 10
247.096709206802
 20
99.71087185766968
 30
0.0
 11
246.059241566802
 21
102.3045409656696
 31
0.0
  0
LINE
  5
2E36
330
1A
100
AcDbEntity
  8
SEIHIN
100
AcDbLine
 10
251.739331106802
 20
101.5678821296696
 30
0.0
 11
245.611367426802
 21
99.11674746166969
 31
0.0
  0
ARC
  5
2E38
330
1A
100
AcDbEntity
  8
SEIHIN
100
AcDbCircle
 10
245.130764856802
 20
101.9331503206696
 30
0.0
 40
5.500000001997857
100
AcDbArc
 50
21.80140844174043
 51
93.00000000644189
  0
ARC
  5
2E39
330
1A
100
AcDbEntity
  8
SEIHIN
100
AcDbCircle
 10
245.130764856802
 20
101.9331503206696
 30
0.0
 40
1.000000002511349
100
AcDbArc
 50
21.80140741163824
 51
92.99999964505737
  0
LINE
  5
2E3A
330
1A
100
AcDbEntity
  8
SEIHIN
100
AcDbLine
 10
251.2748662675179
 20
101.3821000446107
 30
0.0
 11
250.237386656802
 21
103.9757990406696
 31
0.0
  0
LINE
  5
2E91
330
1A
100
AcDbEntity
  8
SEIHIN
100
AcDbLine
 10
245.078428906614
 20
102.9317798582563
 30
0.0
 11
149.247381757334
 21
101.7111776837741
 31
0.0
  0
LINE
  5
2E92
330
1A
100
AcDbEntity
  8
SEIHIN
100
AcDbLine
 10
147.6381193826206
 20
106.1306931666778
 30
0.0
 11
244.8429170967437
 21
107.4256127637825
 31
0.0
  0
LINE
  5
2E95
330
1A
100
AcDbEntity
  8
SEIHIN
100
AcDbLine
 10
242.924380906802
 20
107.3250665426696
 30
0.0
 11
241.998712804802
 21
107.7798808226696
 31
0.0
  0
LINE
  5
2F37
330
1A
100
AcDbEntity
  8
CENTER_L
100
AcDbLine
 10
249.0466794244317
 20
91.87460472383321
 30
0.0
 11
260.3741274352379
 21
96.40549001949985
 31
0.0
  0
LINE
  5
2F38
330
1A
100
AcDbEntity
  8
CENTER_L
100
AcDbLine
 10
256.1029761963715
 20
74.23349716602064
 30
0.0
 11
267.4304242071776
 21
78.76438246168721
 31
0.0
  0
DIMENSION
  5
2F39
330
1A
100
AcDbEntity
  8
SUNPOU
100
AcDbDimension
  2
*D8
 10
277.6962865806434
 20
74.25440324313303
 30
0.0
 11
273.5182642335312
 21
91.43125188315961
 31
0.0
 70
    33
  3
STANDARD
100
AcDbAlignedDimension
 13
251.739331106802
 23
101.5678821296696
 33
0.0
 14
264.737772526802
 24
69.07110505266968
 34
0.0
1001
ACAD
1000
DSTYLE
1002
{
1070
    41
1040
3.0
1070
    42
1040
3.0
1070
    43
1040
7.0
1070
    44
1040
1.5
1070
    73
1070
     0
1070
    74
1070
     0
1070
    77
1070
     3
1070
   140
1040
3.0
1070
   141
1040
3.0
1070
   147
1040
1.0
1070
   172
1070
     1
1070
   173
1070
     1
1070
   176
1070
   256
1070
   177
1070
   256
1070
   178
1070
   256
1070
   271
1070
     0
1070
   272
1070
     0
1070
   341
1005
B2
1070
     6
1000
OPEN
1070
     7
1000
OPEN
1002
}
  0
ARC
  5
2F7F
330
1A
100
AcDbEntity
  8
SEIHIN
100
AcDbCircle
 10
340.3184243973853
 20
112.2531422632611
 30
0.0
 40
31.99111736042645
100
AcDbArc
 50
98.4265429426208
 51
125.1754570573792
  0
LINE
  5
2F80
330
1A
100
AcDbEntity
  8
SEIHIN
100
AcDbLine
 10
341.0703226016368
 20
137.2996629267744
 30
0.0
 11
357.7829508143014
 21
143.9845756580858
 31
0.0
  0
DIMENSION
  5
2F81
330
1A
100
AcDbEntity
  8
SUNPOU
100
AcDbDimension
  2
*D9
 10
249.3283650833992
 20
135.0340112540297
 30
0.0
 11
152.3517191451006
 21
137.5340112540297
 31
0.0
 70
    32
  3
STANDARD
100
AcDbAlignedDimension
 13
55.37507320680203
 23
90.84800260166968
 33
0.0
 14
249.3283650833992
 24
107.5954221147473
 34
0.0
100
AcDbRotatedDimension
1001
ACAD
1000
DSTYLE
1002
{
1070
    41
1040
3.0
1070
    42
1040
3.0
1070
    43
1040
7.0
1070
    44
1040
1.5
1070
    73
1070
     0
1070
    74
1070
     0
1070
    77
1070
     3
1070
   140
1040
3.0
1070
   141
1040
3.0
1070
   147
1040
1.0
1070
   172
1070
     1
1070
   173
1070
     1
1070
   176
1070
   256
1070
   177
1070
   256
1070
   178
1070
   256
1070
   271
1070
     0
1070
   272
1070
     0
1070
   341
1005
B2
1070
     6
1000
OPEN
1070
     7
1000
OPEN
1002
}
  0
DIMENSION
  5
2F8E
330
1A
100
AcDbEntity
  8
SUNPOU
100
AcDbDimension
  2
*D10
 10
249.3283650833992
 20
125.710498899032
 30
0.0
 11
210.5811905067146
 21
128.210498899032
 31
0.0
 70
    32
  3
STANDARD
100
AcDbAlignedDimension
 13
171.83401593003
 23
94.87850260166963
 33
0.0
 14
249.3283650833992
 24
107.5954221147473
 34
0.0
100
AcDbRotatedDimension
1001
ACAD
1000
DSTYLE
1002
{
1070
    41
1040
3.0
1070
    42
1040
3.0
1070
    43
1040
7.0
1070
    44
1040
1.5
1070
    73
1070
     0
1070
    74
1070
     0
1070
    77
1070
     3
1070
   140
1040
3.0
1070
   141
1040
3.0
1070
   147
1040
1.0
1070
   172
1070
     1
1070
   173
1070
     1
1070
   176
1070
   256
1070
   177
1070
   256
1070
   178
1070
   256
1070
   271
1070
     0
1070
   272
1070
     0
1070
   341
1005
B2
1070
     6
1000
OPEN
1070
     7
1000
OPEN
1002
}
  0
DIMENSION
  5
2FF7
330
1A
100
AcDbEntity
  8
SUNPOU
100
AcDbDimension
  2
*D11
 10
28.54426043846431
 20
69.07110505266975
 30
0.0
 11
26.0442604384643
 21
79.95955382716971
 31
0.0
 70
    32
  3
STANDARD
100
AcDbAlignedDimension
 13
55.37507320680203
 23
90.84800260166968
 33
0.0
 14
264.737772526802
 24
69.07110505266968
 34
0.0
 50
90.0
100
AcDbRotatedDimension
1001
ACAD
1000
DSTYLE
1002
{
1070
    41
1040
3.0
1070
    42
1040
3.0
1070
    43
1040
7.0
1070
    44
1040
1.5
1070
    73
1070
     0
1070
    74
1070
     0
1070
    77
1070
     3
1070
   140
1040
3.0
1070
   141
1040
3.0
1070
   147
1040
1.0
1070
   172
1070
     1
1070
   173
1070
     1
1070
   176
1070
   256
1070
   177
1070
   256
1070
   178
1070
   256
1070
   271
1070
     0
1070
   272
1070
     0
1070
   341
1005
B2
1070
     6
1000
OPEN
1070
     7
1000
OPEN
1002
}
  0
LEADER
  5
3021
330
1A
100
AcDbEntity
  8
SUNPOU
100
AcDbLeader
  3
STANDARD
 73
     0
 40
3.0
 41
15.59999999999999
 76
     3
 10
312.3576891625635
 20
118.7084892967498
 30
0.0
 10
289.9893883343267
 20
136.757803431785
 30
0.0
 10
287.9480939360533
 20
136.757803431785
 30
0.0
340
3022
213
0.0
223
1.5
233
0.0
1001
ACAD
1000
DSTYLE
1002
{
1070
     6
1000
OPEN
1070
    41
1040
3.0
1070
    42
1040
3.0
1070
    43
1040
7.0
1070
    44
1040
1.5
1070
    73
1070
     0
1070
    74
1070
     0
1070
    77
1070
     0
1070
   140
1040
3.0
1070
   141
1040
3.0
1070
   147
1040
1.0
1070
   172
1070
     1
1070
   173
1070
     1
1070
   176
1070
   256
1070
   177
1070
   256
1070
   178
1070
   256
1070
   271
1070
     0
1070
   272
1070
     0
1070
   341
1005
B2
1070
   343
1005
B2
1070
   344
1005
B2
1002
}
  0
MTEXT
  5
3022
102
{ACAD_REACTORS
330
3021
102
}
330
1A
100
AcDbEntity
  8
SUNPOU
100
AcDbMText
 10
286.9480939360532
 20
135.257803431785
 30
0.0
 40
3.0
 41
0.0
 71
     9
 72
     5
  1
4-φ4.2
1001
ACAD
1000
MTEXTBEGIN
1070
    73
1070
     1
1070
    44
1040
1.0
1070
    74
1070
     0
1000
MTEXTEND
1000
MTEXTBEGIN
1070
    73
1070
     1
1070
    44
1040
1.0
1070
    74
1070
     0
1000
MTEXTEND
1000
MTEXTBEGIN
1070
    73
1070
     1
1070
    44
1040
1.0
1070
    74
1070
     0
1000
MTEXTEND
1000
MTEXTBEGIN
1070
    73
1070
     1
1070
    44
1040
1.0
1070
    74
1070
     0
1000
MTEXTEND
1000
MTEXTBEGIN
1070
    73
1070
     1
1070
    44
1040
1.0
1070
    74
1070
     0
1000
MTEXTEND
1000
MTEXTBEGIN
1070
    73
1070
     1
1070
    44
1040
1.0
1070
    74
1070
     0
1000
MTEXTEND
1000
MTEXTBEGIN
1070
    73
1070
     1
1070
    44
1040
1.0
1070
    74
1070
     0
1000
MTEXTEND
1000
MTEXTBEGIN
1070
    73
1070
     1
1070
    44
1040
1.0
1070
    74
1070
     0
1000
MTEXTEND
1000
MTEXTBEGIN
1070
    73
1070
     1
1070
    44
1040
1.0
1070
    74
1070
     0
1000
MTEXTEND
  0
LINE
  5
32E8
330
1A
100
AcDbEntity
  8
SEIHIN
100
AcDbLine
 10
147.6148017909971
 20
107.130421233787
 30
0.0
 11
241.998712803914
 21
107.7798808228969
 31
0.0
  0
LINE
  5
33EC
330
1A
100
AcDbEntity
  8
SUNPOU
100
AcDbLine
 10
264.737772526802
 20
69.07110505266968
 30
0.0
 11
276.1655860538841
 21
40.50157123496451
 31
0.0
  0
LINE
  5
33ED
330
1A
100
AcDbEntity
  8
SUNPOU
100
AcDbLine
 10
272.1655860538841
 20
40.50157123496451
 30
0.0
 11
272.1655860538841
 21
50.50157123496451
 31
0.0
  0
LINE
  5
33EE
330
1A
100
AcDbEntity
  8
SUNPOU
100
AcDbLine
 10
276.1655860538841
 20
40.50157123496451
 30
0.0
 11
272.1655860538841
 21
40.50157123496451
 31
0.0
  0
TEXT
  5
33EF
330
1A
100
AcDbEntity
  8
SUNPOU
100
AcDbText
 10
272.921710265475
 20
35.41817445456691
 30
0.0
 40
3.0
  1
4
100
AcDbText
  0
TEXT
  5
33F0
330
1A
100
AcDbEntity
  8
SUNPOU
100
AcDbText
 10
266.4465666676877
 20
44.66071355968058
 30
0.0
 40
3.0
  1
10
100
AcDbText
  0
LINE
  5
34EC
330
1A
100
AcDbEntity
  8
SEIHIN
100
AcDbLine
 10
245.611367426802
 20
207.8707035089473
 30
0.0
 11
245.611367426802
 21
209.1707035089473
 31
0.0
  0
LINE
  5
34ED
330
1A
100
AcDbEntity
  8
SEIHIN
100
AcDbLine
 10
247.0969343408037
 20
208.9707035089473
 30
0.0
 11
247.0969343408037
 21
209.1707035089473
 31
0.0
  0
LINE
  5
34EE
330
1A
100
AcDbEntity
  8
SEIHIN
100
AcDbLine
 10
251.2750914254438
 20
210.1707035089473
 30
0.0
 11
251.2750914254438
 21
228.1707035089473
 31
0.0
  0
DIMENSION
  5
34EF
330
1A
100
AcDbEntity
  8
SUNPOU
100
AcDbDimension
  2
*D12
 10
287.6805295639992
 20
188.1707035089473
 30
0.0
 11
285.1805295639991
 21
219.1707035089473
 31
0.0
 70
    32
  3
STANDARD
100
AcDbAlignedDimension
 13
263.6236203802134
 23
250.1707035089473
 33
0.0
 14
263.6236203802134
 24
188.1707035089473
 34
0.0
 50
90.0
100
AcDbRotatedDimension
1001
ACAD
1000
DSTYLE
1002
{
1070
    41
1040
3.0
1070
    42
1040
3.0
1070
    43
1040
7.0
1070
    44
1040
1.5
1070
    73
1070
     0
1070
    74
1070
     0
1070
    77
1070
     3
1070
   140
1040
3.0
1070
   141
1040
3.0
1070
   147
1040
1.0
1070
   172
1070
     1
1070
   173
1070
     1
1070
   176
1070
   256
1070
   177
1070
   256
1070
   178
1070
   256
1070
   271
1070
     0
1070
   272
1070
     0
1070
   341
1005
B2
1070
     6
1000
OPEN
1070
     7
1000
OPEN
1002
}
  0
LINE
  5
34F0
330
1A
100
AcDbEntity
  8
SEIHIN
100
AcDbLine
 10
255.7104033832309
 20
206.6707035089473
 30
0.0
 11
253.7104033832309
 21
206.6707035089473
 31
0.0
  0
LINE
  5
34F1
330
1A
100
AcDbEntity
  8
SEIHIN
100
AcDbLine
 10
263.9377725268019
 20
208.6707035089473
 30
0.0
 11
247.3969343408037
 21
208.6707035089473
 31
0.0
  0
LINE
  5
34F3
330
1A
100
AcDbEntity
  8
SEIHIN
100
AcDbLine
 10
263.6236203802134
 20
188.1707035089473
 30
0.0
 11
251.3679162733906
 21
188.1707035089473
 31
0.0
  0
LINE
  5
34F4
330
1A
100
AcDbEntity
  8
CENTER_L
100
AcDbLine
 10
249.9303619309634
 20
197.1707035089473
 30
0.0
 11
267.0273185564656
 21
197.1707035089473
 31
0.0
  0
ELLIPSE
  5
34F5
330
1A
100
AcDbEntity
  8
SEIHIN
100
AcDbEllipse
 10
254.7104033832308
 20
197.1707035089473
 30
0.0
 11
0.0
 21
2.099999999999994
 31
0.0
210
0.0
220
0.0
230
1.0
 40
0.3713840423544865
 41
0.0
 42
6.283185307179586
  0
LINE
  5
34F6
330
1A
100
AcDbEntity
  8
SEIHIN
100
AcDbLine
 10
251.7393310268019
 20
207.8707035089473
 30
0.0
 11
251.7393310268019
 21
191.1707035089473
 31
0.0
  0
LINE
  5
34F7
330
1A
100
AcDbEntity
  8
SEIHIN
100
AcDbLine
 10
250.2537641268019
 20
206.7707035089473
 30
0.0
 11
250.2537641268019
 21
191.1707035089473
 31
0.0
  0
ELLIPSE
  5
34F8
330
1A
100
AcDbEntity
  8
SEIHIN
100
AcDbEllipse
 10
251.3679162733906
 20
191.1707035089473
 30
0.0
 11
-0.0000000000000155
 21
3.0
 31
0.0
210
0.0
220
0.0
230
1.0
 40
0.3713840488628743
 41
1.570796326794894
 42
3.141592653589778
  0
ELLIPSE
  5
34F9
330
1A
100
AcDbEntity
  8
SEIHIN
100
AcDbEllipse
 10
252.8534831733906
 20
191.1707035089473
 30
0.0
 11
-0.0000000000000155
 21
3.0
 31
0.0
210
0.0
220
0.0
230
1.0
 40
0.3713840488628743
 41
1.570796326794894
 42
3.141592653589778
  0
LINE
  5
34FA
330
1A
100
AcDbEntity
  8
SEIHIN
100
AcDbLine
 10
246.411367426802
 20
207.0707035089473
 30
0.0
 11
249.9537641268019
 21
207.0707035089473
 31
0.0
  0
ARC
  5
34FB
330
1A
100
AcDbEntity
  8
SEIHIN
100
AcDbCircle
 10
246.411367426802
 20
207.8707035089474
 30
0.0
 40
0.8
100
AcDbArc
 50
180.0000000000065
 51
269.9999999999975
  0
ARC
  5
34FC
330
1A
100
AcDbEntity
  8
SEIHIN
100
AcDbCircle
 10
249.953764126802
 20
206.7707035089473
 30
0.0
 40
0.3
100
AcDbArc
 50
359.9999999999869
 51
90.0000000000106
  0
ARC
  5
34FD
330
1A
100
AcDbEntity
  8
SEIHIN
100
AcDbCircle
 10
247.3969343408037
 20
208.9707035089472
 30
0.0
 40
0.3
100
AcDbArc
 50
179.9999999999837
 51
270.0000000000105
  0
LINE
  5
34FE
330
1A
100
AcDbEntity
  8
SEIHIN
100
AcDbLine
 10
253.7104033832309
 20
206.6707035089473
 30
0.0
 11
253.7104033832309
 21
207.8707035089473
 31
0.0
  0
ARC
  5
34FF
330
1A
100
AcDbEntity
  8
SEIHIN
100
AcDbCircle
 10
250.939331026802
 20
207.8707035089473
 30
0.0
 40
0.8
100
AcDbArc
 50
0.0
 51
90.00000000000161
  0
ARC
  5
3500
330
1A
100
AcDbEntity
  8
SEIHIN
100
AcDbCircle
 10
252.9104033832308
 20
207.8707035089473
 30
0.0
 40
0.8
100
AcDbArc
 50
0.0
 51
90.00000000000161
  0
LINE
  5
3501
330
1A
100
AcDbEntity
  8
SEIHIN
100
AcDbLine
 10
264.737772526802
 20
191.1707035089473
 30
0.0
 11
264.737772526802
 21
207.8707035089473
 31
0.0
  0
LINE
  5
3502
330
1A
100
AcDbEntity
  8
CENTER_L
100
AcDbLine
 10
254.7104033832308
 20
203.2707035089473
 30
0.0
 11
254.7104033832308
 21
191.070847959355
 31
0.0
  0
LINE
  5
3503
330
1A
100
AcDbEntity
  8
CENTER_L
100
AcDbLine
 10
261.766700187966
 20
203.2707035089473
 30
0.0
 11
261.766700187966
 21
191.070847959355
 31
0.0
  0
ELLIPSE
  5
3504
330
1A
100
AcDbEntity
  8
SEIHIN
100
AcDbEllipse
 10
263.6236203802134
 20
191.1707035089473
 30
0.0
 11
0.0000000000000157
 21
3.0
 31
0.0
210
0.0
220
0.0
230
1.0
 40
0.3713840488628743
 41
3.141592653589807
 42
4.712388980384691
  0
ELLIPSE
  5
3505
330
1A
100
AcDbEntity
  8
SEIHIN
100
AcDbEllipse
 10
261.766700187966
 20
197.1707035089473
 30
0.0
 11
0.0
 21
2.099999999999994
 31
0.0
210
0.0
220
0.0
230
1.0
 40
0.3713840423544865
 41
0.0
 42
6.283185307179586
  0
ARC
  5
3507
330
1A
100
AcDbEntity
  8
SEIHIN
100
AcDbCircle
 10
261.9667001879661
 20
207.8707035089473
 30
0.0
 40
0.8
100
AcDbArc
 50
0.0
 51
90.00000000000161
  0
LINE
  5
3508
330
1A
100
AcDbEntity
  8
SEIHIN
100
AcDbLine
 10
255.7104033832309
 20
206.6707035089473
 30
0.0
 11
255.7104033832309
 21
207.8707035089473
 31
0.0
  0
ARC
  5
3509
330
1A
100
AcDbEntity
  8
SEIHIN
100
AcDbCircle
 10
254.9104033832308
 20
207.8707035089473
 30
0.0
 40
0.8
100
AcDbArc
 50
0.0
 51
90.00000000000161
  0
LINE
  5
350A
330
1A
100
AcDbEntity
  8
SEIHIN
100
AcDbLine
 10
262.7667001879661
 20
206.6707035089473
 30
0.0
 11
262.7667001879661
 21
207.8707035089473
 31
0.0
  0
LINE
  5
350B
330
1A
100
AcDbEntity
  8
SEIHIN
100
AcDbLine
 10
260.0953758408038
 20
208.9707035089473
 30
0.0
 11
260.0953758408038
 21
209.1707035089473
 31
0.0
  0
ARC
  5
350C
330
1A
100
AcDbEntity
  8
SEIHIN
100
AcDbCircle
 10
260.3953758408037
 20
208.9707035089472
 30
0.0
 40
0.3
100
AcDbArc
 50
179.9999999999837
 51
270.0000000000105
  0
LINE
  5
350D
330
1A
100
AcDbEntity
  8
SEIHIN
100
AcDbLine
 10
260.7667001879661
 20
206.6707035089473
 30
0.0
 11
260.7667001879661
 21
207.8707035089473
 31
0.0
  0
ARC
  5
350E
330
1A
100
AcDbEntity
  8
SEIHIN
100
AcDbCircle
 10
259.9667001879661
 20
207.8707035089473
 30
0.0
 40
0.8
100
AcDbArc
 50
0.0
 51
90.00000000000161
  0
LINE
  5
350F
330
1A
100
AcDbEntity
  8
SEIHIN
100
AcDbLine
 10
262.7667001879661
 20
206.6707035089473
 30
0.0
 11
260.7667001879661
 21
206.6707035089473
 31
0.0
  0
ARC
  5
3511
330
1A
100
AcDbEntity
  8
SEIHIN
100
AcDbCircle
 10
263.937772526802
 20
207.8707035089473
 30
0.0
 40
0.8
100
AcDbArc
 50
0.0
 51
90.00000000000161
  0
LINE
  5
3516
330
1A
100
AcDbEntity
  8
SEIHIN
100
AcDbLine
 10
263.6236203802134
 20
250.1707035089473
 30
0.0
 11
251.3679162733906
 21
250.1707035089473
 31
0.0
  0
LINE
  5
3517
330
1A
100
AcDbEntity
  8
SEIHIN
100
AcDbLine
 10
255.7104033832309
 20
231.6707035089473
 30
0.0
 11
253.7104033832309
 21
231.6707035089473
 31
0.0
  0
LINE
  5
3519
330
1A
100
AcDbEntity
  8
SEIHIN
100
AcDbLine
 10
263.9377725268019
 20
229.6707035089473
 30
0.0
 11
247.3969343408037
 21
229.6707035089473
 31
0.0
  0
LINE
  5
351A
330
1A
100
AcDbEntity
  8
CENTER_L
100
AcDbLine
 10
249.9303619309634
 20
241.1707035089473
 30
0.0
 11
267.0273185564656
 21
241.1707035089473
 31
0.0
  0
ELLIPSE
  5
351B
330
1A
100
AcDbEntity
  8
SEIHIN
100
AcDbEllipse
 10
254.7104033832308
 20
241.1707035089473
 30
0.0
 11
0.0
 21
-2.099999999999994
 31
0.0
210
0.0
220
0.0
230
-1.0
 40
0.3713840423544865
 41
0.0
 42
6.283185307179586
  0
ELLIPSE
  5
351C
330
1A
100
AcDbEntity
  8
SEIHIN
100
AcDbEllipse
 10
251.3679162733906
 20
247.1707035089473
 30
0.0
 11
-0.0000000000000017
 21
3.0
 31
0.0
210
0.0
220
0.0
230
-1.0
 40
0.3713840488628743
 41
-1.570796326794896
 42
0.0000000000000018
  0
ELLIPSE
  5
351D
330
1A
100
AcDbEntity
  8
SEIHIN
100
AcDbEllipse
 10
252.8534831733906
 20
247.1707035089473
 30
0.0
 11
-0.0000000000000017
 21
3.0
 31
0.0
210
0.0
220
0.0
230
-1.0
 40
0.3713840488628743
 41
-1.570796326794896
 42
0.0000000000000018
  0
LINE
  5
351E
330
1A
100
AcDbEntity
  8
SEIHIN
100
AcDbLine
 10
250.2537641268019
 20
231.5707035089473
 30
0.0
 11
250.2537641268019
 21
247.1707035089473
 31
0.0
  0
LINE
  5
351F
330
1A
100
AcDbEntity
  8
SEIHIN
100
AcDbLine
 10
251.7393310268019
 20
230.4707035089473
 30
0.0
 11
251.7393310268019
 21
247.1707035089473
 31
0.0
  0
LINE
  5
3520
330
1A
100
AcDbEntity
  8
SEIHIN
100
AcDbLine
 10
246.411367426802
 20
231.2707035089473
 30
0.0
 11
249.9537641268019
 21
231.2707035089473
 31
0.0
  0
ARC
  5
3521
330
1A
100
AcDbEntity
  8
SEIHIN
100
AcDbCircle
 10
246.411367426802
 20
230.4707035089472
 30
0.0
 40
0.8
100
AcDbArc
 50
90.00000000000161
 51
179.9999999999934
  0
ARC
  5
3522
330
1A
100
AcDbEntity
  8
SEIHIN
100
AcDbCircle
 10
249.953764126802
 20
231.5707035089473
 30
0.0
 40
0.3
100
AcDbArc
 50
269.9999999999885
 51
0.0000000000130276
  0
ARC
  5
3523
330
1A
100
AcDbEntity
  8
SEIHIN
100
AcDbCircle
 10
247.3969343408037
 20
229.3707035089473
 30
0.0
 40
0.3
100
AcDbArc
 50
89.99999999998861
 51
180.0000000000162
  0
LINE
  5
3524
330
1A
100
AcDbEntity
  8
SEIHIN
100
AcDbLine
 10
253.7104033832309
 20
231.6707035089473
 30
0.0
 11
253.7104033832309
 21
230.4707035089473
 31
0.0
  0
ARC
  5
3525
330
1A
100
AcDbEntity
  8
SEIHIN
100
AcDbCircle
 10
250.939331026802
 20
230.4707035089473
 30
0.0
 40
0.8
100
AcDbArc
 50
269.9999999999975
 51
0.0
  0
ARC
  5
3526
330
1A
100
AcDbEntity
  8
SEIHIN
100
AcDbCircle
 10
252.9104033832308
 20
230.4707035089473
 30
0.0
 40
0.8
100
AcDbArc
 50
269.9999999999975
 51
0.0
  0
ELLIPSE
  5
3527
330
1A
100
AcDbEntity
  8
SEIHIN
100
AcDbEllipse
 10
263.6236203802134
 20
247.1707035089473
 30
0.0
 11
0.0000000000000019
 21
3.0
 31
0.0
210
0.0
220
0.0
230
-1.0
 40
0.3713840488628742
 41
-0.000000000000002
 42
1.570796326794896
  0
LINE
  5
3528
330
1A
100
AcDbEntity
  8
SEIHIN
100
AcDbLine
 10
264.737772526802
 20
247.1707035089473
 30
0.0
 11
264.737772526802
 21
230.4707035089473
 31
0.0
  0
LINE
  5
3529
330
1A
100
AcDbEntity
  8
CENTER_L
100
AcDbLine
 10
261.766700187966
 20
235.0707035089472
 30
0.0
 11
261.766700187966
 21
247.2705590585395
 31
0.0
  0
LINE
  5
352A
330
1A
100
AcDbEntity
  8
CENTER_L
100
AcDbLine
 10
254.7104033832308
 20
235.0707035089472
 30
0.0
 11
254.7104033832308
 21
247.2705590585395
 31
0.0
  0
ARC
  5
352B
330
1A
100
AcDbEntity
  8
SEIHIN
100
AcDbCircle
 10
261.9667001879661
 20
230.4707035089473
 30
0.0
 40
0.8
100
AcDbArc
 50
269.9999999999975
 51
0.0
  0
LINE
  5
352C
330
1A
100
AcDbEntity
  8
SEIHIN
100
AcDbLine
 10
255.7104033832309
 20
231.6707035089473
 30
0.0
 11
255.7104033832309
 21
230.4707035089473
 31
0.0
  0
ARC
  5
352D
330
1A
100
AcDbEntity
  8
SEIHIN
100
AcDbCircle
 10
254.9104033832308
 20
230.4707035089473
 30
0.0
 40
0.8
100
AcDbArc
 50
269.9999999999975
 51
0.0
  0
LINE
  5
352E
330
1A
100
AcDbEntity
  8
SEIHIN
100
AcDbLine
 10
262.7667001879661
 20
231.6707035089473
 30
0.0
 11
262.7667001879661
 21
230.4707035089473
 31
0.0
  0
ARC
  5
352F
330
1A
100
AcDbEntity
  8
SEIHIN
100
AcDbCircle
 10
260.3953758408037
 20
229.3707035089473
 30
0.0
 40
0.3
100
AcDbArc
 50
89.99999999998861
 51
180.0000000000162
  0
LINE
  5
3530
330
1A
100
AcDbEntity
  8
SEIHIN
100
AcDbLine
 10
260.7667001879661
 20
231.6707035089473
 30
0.0
 11
260.7667001879661
 21
230.4707035089473
 31
0.0
  0
ARC
  5
3531
330
1A
100
AcDbEntity
  8
SEIHIN
100
AcDbCircle
 10
259.9667001879661
 20
230.4707035089473
 30
0.0
 40
0.8
100
AcDbArc
 50
269.9999999999975
 51
0.0
  0
LINE
  5
3532
330
1A
100
AcDbEntity
  8
SEIHIN
100
AcDbLine
 10
262.7667001879661
 20
231.6707035089473
 30
0.0
 11
260.7667001879661
 21
231.6707035089473
 31
0.0
  0
LINE
  5
3533
330
1A
100
AcDbEntity
  8
SEIHIN
100
AcDbLine
 10
260.0953758408038
 20
229.3707035089473
 30
0.0
 11
260.0953758408038
 21
229.1707035089473
 31
0.0
  0
ARC
  5
3534
330
1A
100
AcDbEntity
  8
SEIHIN
100
AcDbCircle
 10
263.937772526802
 20
230.4707035089473
 30
0.0
 40
0.8
100
AcDbArc
 50
269.9999999999975
 51
0.0
  0
ELLIPSE
  5
3535
330
1A
100
AcDbEntity
  8
SEIHIN
100
AcDbEllipse
 10
261.766700187966
 20
241.1707035089473
 30
0.0
 11
0.0
 21
-2.099999999999994
 31
0.0
210
0.0
220
0.0
230
-1.0
 40
0.3713840423544865
 41
0.0
 42
6.283185307179586
  0
LINE
  5
354B
330
1A
100
AcDbEntity
  8
SEIHIN
100
AcDbLine
 10
264.2735329254438
 20
209.1707035089473
 30
0.0
 11
264.2735329254438
 21
229.1707035089473
 31
0.0
  0
LINE
  5
354D
330
1A
100
AcDbEntity
  8
SEIHIN
100
AcDbLine
 10
257.0326642082789
 20
223.1707035089473
 30
0.0
 11
246.3449110261353
 21
223.1707035089473
 31
0.0
  0
LINE
  5
354E
330
1A
100
AcDbEntity
  8
SEIHIN
100
AcDbLine
 10
257.0326642082789
 20
215.1707035089473
 30
0.0
 11
246.3449110261353
 21
215.1707035089473
 31
0.0
  0
LINE
  5
3551
330
1A
100
AcDbEntity
  8
SEIHIN
100
AcDbLine
 10
245.611367426802
 20
229.1707035089473
 30
0.0
 11
245.611367426802
 21
230.4707035089472
 31
0.0
  0
LINE
  5
3552
330
1A
100
AcDbEntity
  8
SEIHIN
100
AcDbLine
 10
247.0969343408037
 20
229.1707035089473
 30
0.0
 11
247.0969343408037
 21
229.3707035089473
 31
0.0
  0
LINE
  5
3754
330
1A
100
AcDbEntity
  8
ZUWAKU
100
AcDbLine
 10
104.3233006308625
 20
7.599999859644409
 30
0.0
 11
223.7121819713241
 21
7.599999859644405
 31
0.0
  0
LINE
  5
3755
330
1A
100
AcDbEntity
  8
ZUWAKU
100
AcDbLine
 10
104.3233006308625
 20
7.799999859644406
 30
0.0
 11
223.7121819713241
 21
7.79999985964441
 31
0.0
  0
LINE
  5
3756
330
1A
100
AcDbEntity
  8
ZUWAKU
100
AcDbLine
 10
104.3233006308625
 20
7.699999859644407
 30
0.0
 11
223.7121819713241
 21
7.699999859644407
 31
0.0
  0
LINE
  5
3757
330
1A
100
AcDbEntity
  8
ZUWAKU
100
AcDbLine
 10
-0.0000000141715191
 20
15.39999985964439
 30
0.0
 11
398.6999999858284
 21
15.39999985964439
 31
0.0
  0
LINE
  5
3758
330
1A
100
AcDbEntity
  8
ZUWAKU
100
AcDbLine
 10
-0.0000000141715191
 20
15.29999985964439
 30
0.0
 11
398.6999999858284
 21
15.29999985964439
 31
0.0
  0
LINE
  5
3759
330
1A
100
AcDbEntity
  8
ZUWAKU
100
AcDbLine
 10
-0.0000000141715191
 20
15.19999985964439
 30
0.0
 11
398.6999999858284
 21
15.19999985964439
 31
0.0
  0
LINE
  5
375A
330
1A
100
AcDbEntity
  8
ZUWAKU
100
AcDbLine
 10
-0.0000000141715191
 20
15.09999985964439
 30
0.0
 11
398.6999999858284
 21
15.09999985964439
 31
0.0
  0
LINE
  5
375B
330
1A
100
AcDbEntity
  8
ZUWAKU
100
AcDbLine
 10
-0.0000000141715191
 20
14.99999985964439
 30
0.0
 11
398.6999999858284
 21
14.99999985964439
 31
0.0
  0
LWPOLYLINE
  5
375C
330
1A
100
AcDbEntity
  8
ZUWAKU
100
AcDbPolyline
 90
        4
 70
     1
 43
0.0
 10
0.0999999858284468
 20
275.6999998596444
 10
0.0999999858284468
 20
0.099999859644413
 10
398.6999999858284
 20
0.0999998596444245
 10
398.6999999858285
 20
275.6999998596444
  0
LWPOLYLINE
  5
375D
330
1A
100
AcDbEntity
  8
ZUWAKU
100
AcDbPolyline
 90
        4
 70
     1
 43
0.0
 10
0.2999999858284354
 20
275.4999998596444
 10
0.2999999858284354
 20
0.2999998596444016
 10
398.4999999858286
 20
0.2999998596444246
 10
398.4999999858284
 20
275.4999998596444
  0
LWPOLYLINE
  5
375E
330
1A
100
AcDbEntity
  8
ZUWAKU
100
AcDbPolyline
 90
        4
 70
     1
 43
0.0
 10
-0.0000000141715191
 20
275.7999998596444
 10
-0.0000000141715191
 20
-0.0000001403556098
 10
398.7999999858285
 20
-0.0000001403555761
 10
398.7999999858285
 20
275.7999998596444
  0
LWPOLYLINE
  5
375F
330
1A
100
AcDbEntity
  8
ZUWAKU
100
AcDbPolyline
 90
        4
 70
     1
 43
0.0
 10
0.1999999858284695
 20
275.5999998596444
 10
0.1999999858284695
 20
0.1999998596444357
 10
398.5999999858285
 20
0.1999998596444241
 10
398.5999999858285
 20
275.5999998596444
  0
LWPOLYLINE
  5
3760
330
1A
100
AcDbEntity
  8
ZUWAKU
100
AcDbPolyline
 90
        4
 70
     1
 43
0.0
 10
0.3999999858284582
 20
275.3999998596444
 10
0.3999999858284582
 20
0.3999998596444243
 10
398.3999999858284
 20
0.3999998596444243
 10
398.3999999858284
 20
275.3999998596444
  0
TEXT
  5
3761
330
1A
100
AcDbEntity
  8
MOJI
100
AcDbText
 10
46.47889477991305
 20
6.37058892478177
 30
0.0
 40
3.0
  1
新・丸トップＲＶ１０５
 41
0.9
  7
ｽﾀｲﾙ1
100
AcDbText
  0
HATCH
  5
3762
330
1A
100
AcDbEntity
  8
ZUWAKU
100
AcDbHatch
 10
0.0
 20
0.0
 30
0.0
210
0.0
220
0.0
230
1.0
  2
ANSI37
 70
     0
 71
     0
 91
        8
 92
        7
 72
     1
 73
     1
 93
       24
 10
7.251131316388409
 20
8.822424100136181
 42
-0.1989123673796348
 10
7.046106063219042
 20
9.317398846966707
 42
0.0
 10
7.046106063219042
 20
9.962499859644395
 42
-0.4142135623730912
 10
7.308606063219031
 20
10.22499985964439
 42
0.0
 10
8.796106063218985
 20
10.22499985964439
 42
0.4142135623731546
 10
9.058606063219031
 20
10.48749985964438
 42
0.0
 10
9.058606063219031
 20
11.36249985964439
 42
0.4142135623731586
 10
8.796106063218985
 20
11.62499985964439
 42
0.0
 10
7.046106063219042
 20
11.62499985964439
 42
0.4142135623730928
 10
5.646106063219065
 20
10.2249998596444
 42
0.0
 10
5.646106063219065
 20
9.317398846966771
 42
0.1989123673796619
 10
6.26118182272728
 20
7.832474606474967
 42
0.0
 10
7.716080810049618
 20
6.377575619152638
 42
-0.1989123673796613
 10
7.921106063219042
 20
5.882600872322045
 42
0.0
 10
7.921106063219042
 20
5.237499859644387
 42
-0.4142135623730911
 10
7.658606063219053
 20
4.974999859644391
 42
0.0
 10
6.171106063219099
 20
4.974999859644391
 42
0.4142135623731526
 10
5.908606063219053
 20
4.712499859644397
 42
0.0
 10
5.908606063219053
 20
3.837499859644387
 42
0.4142135623731526
 10
6.171106063219099
 20
3.574999859644393
 42
0.0
 10
7.921106063219042
 20
3.574999859644393
 42
0.4142135623731044
 10
9.321106063219076
 20
4.97499985964438
 42
0.0
 10
9.321106063219076
 20
5.882600872322017
 42
0.1989123673796604
 10
8.706030303710804
 20
7.367525112813787
 42
0.0
 97
        0
 92
        7
 72
     1
 73
     1
 93
       16
 10
11.77110606321906
 20
9.524999859644395
 42
-0.4142135623730935
 10
12.47110606321905
 20
10.22499985964439
 42
0.0
 10
13.43360606321903
 20
10.22499985964439
 42
0.4142135623731546
 10
13.69610606321907
 20
10.48749985964438
 42
0.0
 10
13.69610606321907
 20
11.36249985964439
 42
0.4142135623730951
 10
13.43360606321908
 20
11.62499985964439
 42
0.0
 10
12.47110606321899
 20
11.62499985964437
 42
0.4142135623730892
 10
10.37110606321903
 20
9.52499985964436
 42
0.0
 10
10.37110606321903
 20
5.674999859644405
 42
0.4142135623730969
 10
12.47110606321905
 20
3.574999859644393
 42
0.0
 10
13.43360606321903
 20
3.574999859644393
 42
0.4142135623731526
 10
13.69610606321907
 20
3.837499859644387
 42
0.0
 10
13.69610606321907
 20
4.712499859644397
 42
0.4142135623730891
 10
13.43360606321908
 20
4.974999859644391
 42
0.0
 10
12.47110606321905
 20
4.974999859644391
 42
-0.4142135623730928
 10
11.77110606321906
 20
5.674999859644385
 42
0.0
 97
        0
 92
        7
 72
     1
 73
     1
 93
        2
 10
12.12110606321903
 20
7.599999859644391
 42
1.0
 10
13.87110606321903
 20
7.599999859644391
 42
1.0
 97
        0
 92
        7
 72
     1
 73
     1
 93
       26
 10
18.65742930430803
 20
9.602523456426105
 42
0.0
 10
19.18824912087694
 20
11.2834528755609
 42
0.5069206636600134
 10
18.93793367127926
 20
11.62499985964439
 42
0.0
 10
18.08848898147465
 20
11.62499985964439
 42
0.3272098845218764
 10
17.83817353187697
 20
11.44154684372787
 42
0.0
 10
16.90403859456108
 20
8.483452875560931
 42
-0.3272098845219541
 10
16.65372314496335
 20
8.29999985964439
 42
0.0
 10
16.58360606321912
 20
8.29999985964439
 42
-0.4142135623731526
 10
16.32110606321907
 20
8.562499859644384
 42
0.0
 10
16.32110606321907
 20
11.36249985964439
 42
0.4142135623730951
 10
16.05860606321908
 20
11.62499985964439
 42
0.0
 10
15.18360606321903
 20
11.62499985964439
 42
0.4142135623730871
 10
14.92110606321904
 20
11.3624998596444
 42
0.0
 10
14.92110606321904
 20
3.837499859644387
 42
0.4142135623730891
 10
15.18360606321903
 20
3.574999859644393
 42
0.0
 10
16.05860606321903
 20
3.574999859644393
 42
0.4142135623731526
 10
16.32110606321907
 20
3.837499859644387
 42
0.0
 10
16.32110606321907
 20
6.637499859644398
 42
-0.4142135623731526
 10
16.58360606321912
 20
6.899999859644392
 42
0.0
 10
16.6537231449634
 20
6.899999859644392
 42
-0.3272098845218915
 10
16.90403859456108
 20
6.716546843727854
 42
0.0
 10
17.83817353187697
 20
3.758452875560928
 42
0.3272098845218902
 10
18.08848898147465
 20
3.574999859644393
 42
0.0
 10
18.93793367127926
 20
3.574999859644393
 42
0.5069206636600335
 10
19.18824912087694
 20
3.916546843727896
 42
0.0
 10
18.02505343164011
 20
7.59999985964446
 42
0.0
 97
        0
 92
        7
 72
     1
 73
     1
 93
        8
 10
21.74610606321903
 20
11.36249985964439
 42
0.4142135623731546
 10
21.48360606321898
 20
11.62499985964439
 42
0.0
 10
20.60860606321909
 20
11.62499985964439
 42
0.4142135623731507
 10
20.34610606321905
 20
11.3624998596444
 42
0.0
 10
20.34610606321905
 20
3.837499859644387
 42
0.4142135623731526
 10
20.60860606321909
 20
3.574999859644393
 42
0.0
 10
21.48360606321898
 20
3.574999859644393
 42
0.4142135623731526
 10
21.74610606321903
 20
3.837499859644387
 42
0.0
 97
        0
 92
        7
 72
     1
 73
     1
 93
       24
 10
24.19610606321907
 20
9.962499859644395
 42
-0.4142135623731546
 10
24.45860606321912
 20
10.22499985964439
 42
0.0
 10
25.94610606321907
 20
10.22499985964439
 42
0.4142135623730911
 10
26.20860606321906
 20
10.48749985964438
 42
0.0
 10
26.20860606321906
 20
11.36249985964439
 42
0.4142135623730952
 10
25.94610606321907
 20
11.62499985964439
 42
0.0
 10
24.19610606321907
 20
11.62499985964439
 42
0.4142135623731048
 10
22.79610606321904
 20
10.2249998596444
 42
0.0
 10
22.79610606321904
 20
9.317398846966771
 42
0.1989123673796613
 10
23.41118182272731
 20
7.832474606474995
 42
0.0
 10
24.86608081004965
 20
6.377575619152661
 42
-0.1989123673796402
 10
25.07110606321907
 20
5.882600872322125
 42
0.0
 10
25.07110606321907
 20
5.237499859644387
 42
-0.4142135623730911
 10
24.80860606321908
 20
4.974999859644391
 42
0.0
 10
23.32110606321907
 20
4.974999859644391
 42
0.4142135623731526
 10
23.05860606321903
 20
4.712499859644397
 42
0.0
 10
23.05860606321903
 20
3.837499859644387
 42
0.4142135623730891
 10
23.32110606321902
 20
3.574999859644393
 42
0.0
 10
25.07110606321907
 20
3.574999859644393
 42
0.4142135623730925
 10
26.47110606321905
 20
4.97499985964438
 42
0.0
 10
26.47110606321905
 20
5.882600872322017
 42
0.1989123673796675
 10
25.85603030371078
 20
7.367525112813844
 42
0.0
 10
24.4011313163885
 20
8.822424100136101
 42
-0.1989123673796652
 10
24.19610606321907
 20
9.317398846966685
 42
0.0
 97
        0
 92
        7
 72
     1
 73
     1
 93
       16
 10
28.92110606321904
 20
11.36249985964438
 42
0.414213562373103
 10
28.65860606321905
 20
11.62499985964439
 42
0.0
 10
27.78360606321905
 20
11.62499985964439
 42
0.4142135623730871
 10
27.52110606321906
 20
11.3624998596444
 42
0.0
 10
27.52110606321906
 20
4.97499985964438
 42
0.4142135623730926
 10
28.92110606321904
 20
3.574999859644393
 42
0.0
 10
30.67110606321904
 20
3.574999859644393
 42
0.4142135623731044
 10
32.07110606321907
 20
4.97499985964438
 42
0.0
 10
32.07110606321907
 20
11.36249985964439
 42
0.4142135623730951
 10
31.80860606321909
 20
11.62499985964439
 42
0.0
 10
30.93360606321903
 20
11.62499985964439
 42
0.4142135623730871
 10
30.67110606321904
 20
11.3624998596444
 42
0.0
 10
30.67110606321904
 20
5.499999859644379
 42
-0.414213562373088
 10
30.14610606321906
 20
4.974999859644391
 42
0.0
 10
29.44610606321907
 20
4.974999859644391
 42
-0.4142135623731197
 10
28.92110606321904
 20
5.499999859644379
 42
0.0
 97
        0
 92
        7
 72
     1
 73
     1
 93
        8
 10
34.52110606321906
 20
11.3624998596444
 42
0.4142135623730871
 10
34.25860606321907
 20
11.62499985964439
 42
0.0
 10
33.38360606321908
 20
11.62499985964439
 42
0.4142135623731507
 10
33.12110606321903
 20
11.3624998596444
 42
0.0
 10
33.12110606321903
 20
3.837499859644387
 42
0.4142135623730891
 10
33.38360606321902
 20
3.574999859644393
 42
0.0
 10
34.25860606321907
 20
3.574999859644393
 42
0.4142135623730891
 10
34.52110606321906
 20
3.837499859644387
 42
0.0
 97
        0
 75
     0
 76
     1
 52
0.0
 41
0.1
 77
     0
 78
     2
 53
45.0
 43
-450.4711521815109
 44
-6.600000140355575
 45
-0.2245064030267288
 46
0.2245064030267288
 79
     0
 53
135.0
 43
-450.4711521815109
 44
-6.600000140355575
 45
-0.2245064030267288
 46
-0.2245064030267288
 79
     0
 47
0.057451373970553
 98
        8
 10
8.039927467340135
 20
7.583586682587167
 10
11.20225748904806
 20
9.422030950869896
 10
12.58218392865831
 20
7.755940682679749
 10
15.45702997664704
 20
8.100648682865141
 10
20.91923599530685
 20
8.330454816635949
 10
23.44910043339325
 20
9.709288017847995
 10
28.27884297202865
 20
9.364578817191897
 10
33.91353979563985
 20
9.594384950962705
  0
LINE
  5
3763
330
1A
100
AcDbEntity
  8
ZUWAKU
100
AcDbLine
 10
12.47110606321905
 20
11.62499985964437
 30
0.0
 11
13.43360606321903
 21
11.62499985964439
 31
0.0
  0
LINE
  5
3764
330
1A
100
AcDbEntity
  8
ZUWAKU
100
AcDbLine
 10
13.43360606321903
 20
10.22499985964439
 30
0.0
 11
12.47110606321905
 21
10.22499985964439
 31
0.0
  0
LINE
  5
3765
330
1A
100
AcDbEntity
  8
ZUWAKU
100
AcDbLine
 10
12.47110606321905
 20
4.974999859644391
 30
0.0
 11
13.43360606321903
 21
4.974999859644391
 31
0.0
  0
LINE
  5
3766
330
1A
100
AcDbEntity
  8
ZUWAKU
100
AcDbLine
 10
13.43360606321903
 20
3.574999859644393
 30
0.0
 11
12.47110606321905
 21
3.574999859644393
 31
0.0
  0
CIRCLE
  5
3767
330
1A
100
AcDbEntity
  8
ZUWAKU
100
AcDbCircle
 10
12.99610606321903
 20
7.599999859644391
 30
0.0
 40
0.875
  0
ARC
  5
3768
330
1A
100
AcDbEntity
  8
ZUWAKU
100
AcDbCircle
 10
7.746106063219031
 20
9.317398846966742
 30
0.0
 40
0.7
100
AcDbArc
 50
180.0000000000016
 51
224.9999999999988
  0
LINE
  5
3769
330
1A
100
AcDbEntity
  8
ZUWAKU
100
AcDbLine
 10
11.77110606321906
 20
9.524999859644392
 30
0.0
 11
11.77110606321906
 21
5.674999859644394
 31
0.0
  0
LINE
  5
376A
330
1A
100
AcDbEntity
  8
ZUWAKU
100
AcDbLine
 10
10.37110606321903
 20
5.674999859644394
 30
0.0
 11
10.37110606321903
 21
9.524999859644371
 31
0.0
  0
ARC
  5
376B
330
1A
100
AcDbEntity
  8
ZUWAKU
100
AcDbCircle
 10
7.746106063219031
 20
9.317398846966742
 30
0.0
 40
2.099999999999999
100
AcDbArc
 50
180.0
 51
225.0
  0
ARC
  5
376C
330
1A
100
AcDbEntity
  8
ZUWAKU
100
AcDbCircle
 10
7.921106063219042
 20
4.974999859644391
 30
0.0
 40
1.399999999999999
100
AcDbArc
 50
270.0
 51
0.0
  0
ARC
  5
376D
330
1A
100
AcDbEntity
  8
ZUWAKU
100
AcDbCircle
 10
12.47110606321905
 20
5.674999859644394
 30
0.0
 40
2.099999999999999
100
AcDbArc
 50
180.0
 51
270.0
  0
ARC
  5
376E
330
1A
100
AcDbEntity
  8
ZUWAKU
100
AcDbCircle
 10
7.221106063219053
 20
5.882600872322043
 30
0.0
 40
2.099999999999999
100
AcDbArc
 50
0.0
 51
45.0
  0
LINE
  5
376F
330
1A
100
AcDbEntity
  8
ZUWAKU
100
AcDbLine
 10
8.706030303710804
 20
7.367525112813805
 30
0.0
 11
7.251131316388466
 21
8.822424100136142
 31
0.0
  0
LINE
  5
3770
330
1A
100
AcDbEntity
  8
ZUWAKU
100
AcDbLine
 10
7.921106063219042
 20
5.237499859644394
 30
0.0
 11
7.921106063219042
 21
5.882600872322065
 31
0.0
  0
ARC
  5
3771
330
1A
100
AcDbEntity
  8
ZUWAKU
100
AcDbCircle
 10
7.658606063219053
 20
5.237499859644394
 30
0.0
 40
0.2625
100
AcDbArc
 50
270.0
 51
0.0
  0
ARC
  5
3772
330
1A
100
AcDbEntity
  8
ZUWAKU
100
AcDbCircle
 10
7.221106063219053
 20
5.882600872322065
 30
0.0
 40
0.7
100
AcDbArc
 50
0.0
 51
45.0
  0
LINE
  5
3773
330
1A
100
AcDbEntity
  8
ZUWAKU
100
AcDbLine
 10
5.908606063219053
 20
3.837499859644392
 30
0.0
 11
5.908606063219053
 21
4.712499859644392
 31
0.0
  0
ARC
  5
3774
330
1A
100
AcDbEntity
  8
ZUWAKU
100
AcDbCircle
 10
6.171106063219042
 20
3.837499859644392
 30
0.0
 40
0.2625
100
AcDbArc
 50
180.0
 51
270.0
  0
ARC
  5
3775
330
1A
100
AcDbEntity
  8
ZUWAKU
100
AcDbCircle
 10
6.171106063219042
 20
4.712499859644392
 30
0.0
 40
0.2625
100
AcDbArc
 50
90.0
 51
180.0
  0
LINE
  5
3776
330
1A
100
AcDbEntity
  8
ZUWAKU
100
AcDbLine
 10
6.171106063219042
 20
3.574999859644393
 30
0.0
 11
7.921106063219042
 21
3.574999859644393
 31
0.0
  0
LINE
  5
3777
330
1A
100
AcDbEntity
  8
ZUWAKU
100
AcDbLine
 10
6.171106063219042
 20
4.974999859644391
 30
0.0
 11
7.658606063219053
 21
4.974999859644391
 31
0.0
  0
LINE
  5
3778
330
1A
100
AcDbEntity
  8
ZUWAKU
100
AcDbLine
 10
6.26118182272728
 20
7.832474606474981
 30
0.0
 11
7.716080810049618
 21
6.377575619152651
 31
0.0
  0
LINE
  5
3779
330
1A
100
AcDbEntity
  8
ZUWAKU
100
AcDbLine
 10
9.321106063219076
 20
4.974999859644391
 30
0.0
 11
9.321106063219076
 21
5.882600872322065
 31
0.0
  0
ARC
  5
377A
330
1A
100
AcDbEntity
  8
ZUWAKU
100
AcDbCircle
 10
12.47110606321905
 20
5.674999859644394
 30
0.0
 40
0.7
100
AcDbArc
 50
180.0
 51
270.0
  0
ARC
  5
377B
330
1A
100
AcDbEntity
  8
ZUWAKU
100
AcDbCircle
 10
8.796106063219042
 20
11.36249985964439
 30
0.0
 40
0.2625
100
AcDbArc
 50
0.0
 51
90.0
  0
ARC
  5
377C
330
1A
100
AcDbEntity
  8
ZUWAKU
100
AcDbCircle
 10
8.796106063219042
 20
10.48749985964439
 30
0.0
 40
0.2625
100
AcDbArc
 50
270.0
 51
0.0
  0
LINE
  5
377D
330
1A
100
AcDbEntity
  8
ZUWAKU
100
AcDbLine
 10
7.046106063219042
 20
11.62499985964439
 30
0.0
 11
8.796106063219042
 21
11.62499985964439
 31
0.0
  0
ARC
  5
377E
330
1A
100
AcDbEntity
  8
ZUWAKU
100
AcDbCircle
 10
7.308606063219031
 20
9.962499859644392
 30
0.0
 40
0.2625
100
AcDbArc
 50
90.0
 51
180.0
  0
LINE
  5
377F
330
1A
100
AcDbEntity
  8
ZUWAKU
100
AcDbLine
 10
7.046106063219042
 20
9.962499859644392
 30
0.0
 11
7.046106063219042
 21
9.317398846966721
 31
0.0
  0
LINE
  5
3780
330
1A
100
AcDbEntity
  8
ZUWAKU
100
AcDbLine
 10
8.796106063219042
 20
10.22499985964439
 30
0.0
 11
7.308606063219031
 21
10.22499985964439
 31
0.0
  0
LINE
  5
3781
330
1A
100
AcDbEntity
  8
ZUWAKU
100
AcDbLine
 10
5.646106063219065
 20
10.22499985964439
 30
0.0
 11
5.646106063219065
 21
9.317398846966721
 31
0.0
  0
ARC
  5
3782
330
1A
100
AcDbEntity
  8
ZUWAKU
100
AcDbCircle
 10
7.046106063219042
 20
10.22499985964439
 30
0.0
 40
1.399999999999999
100
AcDbArc
 50
90.0
 51
180.0
  0
LINE
  5
3783
330
1A
100
AcDbEntity
  8
ZUWAKU
100
AcDbLine
 10
9.058606063219031
 20
11.36249985964439
 30
0.0
 11
9.058606063219031
 21
10.48749985964439
 31
0.0
  0
ARC
  5
3784
330
1A
100
AcDbEntity
  8
ZUWAKU
100
AcDbCircle
 10
12.47110606321905
 20
9.524999859644392
 30
0.0
 40
0.7
100
AcDbArc
 50
90.0
 51
180.0
  0
ARC
  5
3785
330
1A
100
AcDbEntity
  8
ZUWAKU
100
AcDbCircle
 10
12.47110606321905
 20
9.524999859644371
 30
0.0
 40
2.099999999999999
100
AcDbArc
 50
90.0
 51
180.0
  0
LINE
  5
3786
330
1A
100
AcDbEntity
  8
ZUWAKU
100
AcDbLine
 10
39.66331475982258
 20
14.99999985964439
 30
0.0
 11
39.66331475982269
 21
0.3999998596444243
 31
0.0
  0
LINE
  5
3787
330
1A
100
AcDbEntity
  8
ZUWAKU
100
AcDbLine
 10
39.7633147598226
 20
14.99999985964439
 30
0.0
 11
39.76331475982272
 21
0.3999998596444243
 31
0.0
  0
LINE
  5
3788
330
1A
100
AcDbEntity
  8
ZUWAKU
100
AcDbLine
 10
39.56331475982267
 20
14.99999985964439
 30
0.0
 11
39.56331475982267
 21
0.3999998596444243
 31
0.0
  0
LINE
  5
3789
330
1A
100
AcDbEntity
  8
ZUWAKU
100
AcDbLine
 10
32.07110606321907
 20
4.974999859644391
 30
0.0
 11
32.07110606321907
 21
11.36249985964439
 31
0.0
  0
LINE
  5
378A
330
1A
100
AcDbEntity
  8
ZUWAKU
100
AcDbLine
 10
30.67110606321904
 20
11.36249985964439
 30
0.0
 11
30.67110606321904
 21
5.49999985964439
 31
0.0
  0
LINE
  5
378B
330
1A
100
AcDbEntity
  8
ZUWAKU
100
AcDbLine
 10
34.52110606321906
 20
3.837499859644392
 30
0.0
 11
34.52110606321906
 21
11.36249985964439
 31
0.0
  0
LINE
  5
378C
330
1A
100
AcDbEntity
  8
ZUWAKU
100
AcDbLine
 10
33.12110606321903
 20
11.36249985964439
 30
0.0
 11
33.12110606321903
 21
3.837499859644392
 31
0.0
  0
ARC
  5
378D
330
1A
100
AcDbEntity
  8
ZUWAKU
100
AcDbCircle
 10
24.89610606321906
 20
9.317398846966742
 30
0.0
 40
0.7
100
AcDbArc
 50
180.0000000000016
 51
224.9999999999988
  0
ARC
  5
378E
330
1A
100
AcDbEntity
  8
ZUWAKU
100
AcDbCircle
 10
24.89610606321906
 20
9.317398846966742
 30
0.0
 40
2.099999999999999
100
AcDbArc
 50
180.0
 51
225.0
  0
LINE
  5
378F
330
1A
100
AcDbEntity
  8
ZUWAKU
100
AcDbLine
 10
18.65742930430803
 20
9.602523456426105
 30
0.0
 11
18.02505343164011
 21
7.599999859644402
 31
0.0
  0
LINE
  5
3790
330
1A
100
AcDbEntity
  8
ZUWAKU
100
AcDbLine
 10
20.34610606321905
 20
11.36249985964439
 30
0.0
 11
20.34610606321905
 21
3.837499859644392
 31
0.0
  0
LINE
  5
3791
330
1A
100
AcDbEntity
  8
ZUWAKU
100
AcDbLine
 10
21.74610606321903
 20
3.837499859644392
 30
0.0
 11
21.74610606321903
 21
11.36249985964439
 31
0.0
  0
LINE
  5
3792
330
1A
100
AcDbEntity
  8
ZUWAKU
100
AcDbLine
 10
27.52110606321906
 20
11.36249985964439
 30
0.0
 11
27.52110606321906
 21
4.974999859644391
 31
0.0
  0
LINE
  5
3793
330
1A
100
AcDbEntity
  8
ZUWAKU
100
AcDbLine
 10
28.92110606321904
 20
5.49999985964439
 30
0.0
 11
28.92110606321904
 21
11.36249985964439
 31
0.0
  0
LINE
  5
3794
330
1A
100
AcDbEntity
  8
ZUWAKU
100
AcDbLine
 10
16.32110606321907
 20
8.562499859644393
 30
0.0
 11
16.32110606321907
 21
11.36249985964439
 31
0.0
  0
LINE
  5
3795
330
1A
100
AcDbEntity
  8
ZUWAKU
100
AcDbLine
 10
14.92110606321904
 20
11.36249985964439
 30
0.0
 11
14.92110606321904
 21
3.837499859644392
 31
0.0
  0
LINE
  5
3796
330
1A
100
AcDbEntity
  8
ZUWAKU
100
AcDbLine
 10
17.83817353187697
 20
11.44154684372787
 30
0.0
 11
16.90403859456108
 21
8.483452875560907
 31
0.0
  0
LINE
  5
3797
330
1A
100
AcDbEntity
  8
ZUWAKU
100
AcDbLine
 10
30.14610606321906
 20
4.974999859644391
 30
0.0
 11
29.44610606321907
 21
4.974999859644391
 31
0.0
  0
LINE
  5
3798
330
1A
100
AcDbEntity
  8
ZUWAKU
100
AcDbLine
 10
28.92110606321904
 20
3.574999859644393
 30
0.0
 11
30.67110606321904
 21
3.574999859644393
 31
0.0
  0
LINE
  5
3799
330
1A
100
AcDbEntity
  8
ZUWAKU
100
AcDbLine
 10
20.60860606321904
 20
3.574999859644393
 30
0.0
 11
21.48360606321904
 21
3.574999859644393
 31
0.0
  0
LINE
  5
379A
330
1A
100
AcDbEntity
  8
ZUWAKU
100
AcDbLine
 10
17.83817353187697
 20
3.758452875560905
 30
0.0
 11
16.90403859456108
 21
6.716546843727876
 31
0.0
  0
ARC
  5
379B
330
1A
100
AcDbEntity
  8
ZUWAKU
100
AcDbCircle
 10
16.6537231449634
 20
8.562499859644393
 30
0.0
 40
0.2625
100
AcDbArc
 50
270.0
 51
342.4744316262769
  0
LINE
  5
379C
330
1A
100
AcDbEntity
  8
ZUWAKU
100
AcDbLine
 10
16.6537231449634
 20
8.29999985964439
 30
0.0
 11
16.58360606321906
 21
8.29999985964439
 31
0.0
  0
LINE
  5
379D
330
1A
100
AcDbEntity
  8
ZUWAKU
100
AcDbLine
 10
16.58360606321906
 20
6.899999859644392
 30
0.0
 11
16.6537231449634
 21
6.899999859644392
 31
0.0
  0
ARC
  5
379E
330
1A
100
AcDbEntity
  8
ZUWAKU
100
AcDbCircle
 10
16.58360606321906
 20
8.562499859644393
 30
0.0
 40
0.2625
100
AcDbArc
 50
180.0
 51
270.0
  0
LINE
  5
379F
330
1A
100
AcDbEntity
  8
ZUWAKU
100
AcDbLine
 10
15.18360606321903
 20
3.574999859644393
 30
0.0
 11
16.05860606321903
 21
3.574999859644393
 31
0.0
  0
ARC
  5
37A0
330
1A
100
AcDbEntity
  8
ZUWAKU
100
AcDbCircle
 10
16.05860606321903
 20
3.837499859644392
 30
0.0
 40
0.2625
100
AcDbArc
 50
270.0
 51
0.0
  0
LINE
  5
37A1
330
1A
100
AcDbEntity
  8
ZUWAKU
100
AcDbLine
 10
16.32110606321907
 20
3.837499859644392
 30
0.0
 11
16.32110606321907
 21
6.637499859644393
 31
0.0
  0
LINE
  5
37A2
330
1A
100
AcDbEntity
  8
ZUWAKU
100
AcDbLine
 10
13.69610606321907
 20
4.712499859644392
 30
0.0
 11
13.69610606321907
 21
3.837499859644392
 31
0.0
  0
ARC
  5
37A3
330
1A
100
AcDbEntity
  8
ZUWAKU
100
AcDbCircle
 10
13.43360606321903
 20
3.837499859644392
 30
0.0
 40
0.2625
100
AcDbArc
 50
270.0
 51
0.0
  0
ARC
  5
37A4
330
1A
100
AcDbEntity
  8
ZUWAKU
100
AcDbCircle
 10
13.43360606321903
 20
4.712499859644392
 30
0.0
 40
0.2625
100
AcDbArc
 50
0.0
 51
90.0
  0
ARC
  5
37A5
330
1A
100
AcDbEntity
  8
ZUWAKU
100
AcDbCircle
 10
15.18360606321903
 20
3.837499859644392
 30
0.0
 40
0.2625
100
AcDbArc
 50
180.0
 51
270.0
  0
ARC
  5
37A6
330
1A
100
AcDbEntity
  8
ZUWAKU
100
AcDbCircle
 10
16.6537231449634
 20
6.637499859644393
 30
0.0
 40
0.2625
100
AcDbArc
 50
17.52556837372303
 51
90.0
  0
ARC
  5
37A7
330
1A
100
AcDbEntity
  8
ZUWAKU
100
AcDbCircle
 10
16.58360606321906
 20
6.637499859644393
 30
0.0
 40
0.2625
100
AcDbArc
 50
90.0
 51
180.0
  0
ARC
  5
37A8
330
1A
100
AcDbEntity
  8
ZUWAKU
100
AcDbCircle
 10
20.60860606321904
 20
3.837499859644392
 30
0.0
 40
0.2625
100
AcDbArc
 50
180.0
 51
270.0
  0
LINE
  5
37A9
330
1A
100
AcDbEntity
  8
ZUWAKU
100
AcDbLine
 10
18.08848898147471
 20
3.574999859644393
 30
0.0
 11
18.93793367127921
 21
3.574999859644393
 31
0.0
  0
ARC
  5
37AA
330
1A
100
AcDbEntity
  8
ZUWAKU
100
AcDbCircle
 10
18.93793367127921
 20
3.837499859644392
 30
0.0
 40
0.2625
100
AcDbArc
 50
270.0
 51
17.52556837372303
  0
LINE
  5
37AB
330
1A
100
AcDbEntity
  8
ZUWAKU
100
AcDbLine
 10
19.18824912087694
 20
3.916546843727878
 30
0.0
 11
18.02505343164011
 21
7.599999859644402
 31
0.0
  0
ARC
  5
37AC
330
1A
100
AcDbEntity
  8
ZUWAKU
100
AcDbCircle
 10
18.08848898147471
 20
3.837499859644392
 30
0.0
 40
0.2625
100
AcDbArc
 50
197.525568373723
 51
270.0
  0
ARC
  5
37AD
330
1A
100
AcDbEntity
  8
ZUWAKU
100
AcDbCircle
 10
28.92110606321904
 20
4.974999859644391
 30
0.0
 40
1.399999999999999
100
AcDbArc
 50
180.0
 51
270.0
  0
ARC
  5
37AE
330
1A
100
AcDbEntity
  8
ZUWAKU
100
AcDbCircle
 10
25.07110606321907
 20
4.974999859644391
 30
0.0
 40
1.399999999999999
100
AcDbArc
 50
270.0
 51
0.0
  0
LINE
  5
37AF
330
1A
100
AcDbEntity
  8
ZUWAKU
100
AcDbLine
 10
25.85603030371084
 20
7.367525112813805
 30
0.0
 11
24.40113131638844
 21
8.822424100136142
 31
0.0
  0
LINE
  5
37B0
330
1A
100
AcDbEntity
  8
ZUWAKU
100
AcDbLine
 10
25.07110606321907
 20
5.237499859644394
 30
0.0
 11
25.07110606321907
 21
5.882600872322065
 31
0.0
  0
ARC
  5
37B1
330
1A
100
AcDbEntity
  8
ZUWAKU
100
AcDbCircle
 10
24.37110606321903
 20
5.882600872322065
 30
0.0
 40
0.7
100
AcDbArc
 50
0.0
 51
45.0
  0
ARC
  5
37B2
330
1A
100
AcDbEntity
  8
ZUWAKU
100
AcDbCircle
 10
24.80860606321903
 20
5.237499859644394
 30
0.0
 40
0.2625
100
AcDbArc
 50
270.0
 51
0.0
  0
LINE
  5
37B3
330
1A
100
AcDbEntity
  8
ZUWAKU
100
AcDbLine
 10
23.05860606321903
 20
3.837499859644392
 30
0.0
 11
23.05860606321903
 21
4.712499859644392
 31
0.0
  0
ARC
  5
37B4
330
1A
100
AcDbEntity
  8
ZUWAKU
100
AcDbCircle
 10
23.32110606321907
 20
3.837499859644392
 30
0.0
 40
0.2625
100
AcDbArc
 50
180.0
 51
270.0
  0
ARC
  5
37B5
330
1A
100
AcDbEntity
  8
ZUWAKU
100
AcDbCircle
 10
21.48360606321904
 20
3.837499859644392
 30
0.0
 40
0.2625
100
AcDbArc
 50
270.0
 51
0.0
  0
ARC
  5
37B6
330
1A
100
AcDbEntity
  8
ZUWAKU
100
AcDbCircle
 10
23.32110606321907
 20
4.712499859644392
 30
0.0
 40
0.2625
100
AcDbArc
 50
90.0
 51
180.0
  0
LINE
  5
37B7
330
1A
100
AcDbEntity
  8
ZUWAKU
100
AcDbLine
 10
23.32110606321907
 20
4.974999859644391
 30
0.0
 11
24.80860606321903
 21
4.974999859644391
 31
0.0
  0
LINE
  5
37B8
330
1A
100
AcDbEntity
  8
ZUWAKU
100
AcDbLine
 10
23.32110606321907
 20
3.574999859644393
 30
0.0
 11
25.07110606321907
 21
3.574999859644393
 31
0.0
  0
LINE
  5
37B9
330
1A
100
AcDbEntity
  8
ZUWAKU
100
AcDbLine
 10
23.41118182272731
 20
7.832474606474981
 30
0.0
 11
24.86608081004965
 21
6.377575619152651
 31
0.0
  0
LINE
  5
37BA
330
1A
100
AcDbEntity
  8
ZUWAKU
100
AcDbLine
 10
26.47110606321905
 20
4.974999859644391
 30
0.0
 11
26.47110606321905
 21
5.882600872322065
 31
0.0
  0
ARC
  5
37BB
330
1A
100
AcDbEntity
  8
ZUWAKU
100
AcDbCircle
 10
24.37110606321903
 20
5.882600872322043
 30
0.0
 40
2.099999999999999
100
AcDbArc
 50
0.0
 51
45.0
  0
ARC
  5
37BC
330
1A
100
AcDbEntity
  8
ZUWAKU
100
AcDbCircle
 10
29.44610606321907
 20
5.49999985964439
 30
0.0
 40
0.525
100
AcDbArc
 50
180.0
 51
270.0
  0
ARC
  5
37BD
330
1A
100
AcDbEntity
  8
ZUWAKU
100
AcDbCircle
 10
30.67110606321904
 20
4.974999859644391
 30
0.0
 40
1.399999999999999
100
AcDbArc
 50
270.0
 51
0.0
  0
LINE
  5
37BE
330
1A
100
AcDbEntity
  8
ZUWAKU
100
AcDbLine
 10
33.38360606321908
 20
3.574999859644393
 30
0.0
 11
34.25860606321907
 21
3.574999859644393
 31
0.0
  0
ARC
  5
37BF
330
1A
100
AcDbEntity
  8
ZUWAKU
100
AcDbCircle
 10
33.38360606321908
 20
3.837499859644392
 30
0.0
 40
0.2625
100
AcDbArc
 50
180.0
 51
270.0
  0
ARC
  5
37C0
330
1A
100
AcDbEntity
  8
ZUWAKU
100
AcDbCircle
 10
30.14610606321906
 20
5.49999985964439
 30
0.0
 40
0.525
100
AcDbArc
 50
270.0
 51
0.0
  0
ARC
  5
37C1
330
1A
100
AcDbEntity
  8
ZUWAKU
100
AcDbCircle
 10
34.25860606321907
 20
3.837499859644392
 30
0.0
 40
0.2625
100
AcDbArc
 50
270.0
 51
0.0
  0
LINE
  5
37C2
330
1A
100
AcDbEntity
  8
ZUWAKU
100
AcDbLine
 10
21.48360606321904
 20
11.62499985964439
 30
0.0
 11
20.60860606321904
 21
11.62499985964439
 31
0.0
  0
ARC
  5
37C3
330
1A
100
AcDbEntity
  8
ZUWAKU
100
AcDbCircle
 10
16.05860606321903
 20
11.36249985964439
 30
0.0
 40
0.2625
100
AcDbArc
 50
0.0
 51
90.0
  0
LINE
  5
37C4
330
1A
100
AcDbEntity
  8
ZUWAKU
100
AcDbLine
 10
16.05860606321903
 20
11.62499985964439
 30
0.0
 11
15.18360606321903
 21
11.62499985964439
 31
0.0
  0
ARC
  5
37C5
330
1A
100
AcDbEntity
  8
ZUWAKU
100
AcDbCircle
 10
13.43360606321903
 20
11.36249985964439
 30
0.0
 40
0.2625
100
AcDbArc
 50
0.0
 51
90.0
  0
ARC
  5
37C6
330
1A
100
AcDbEntity
  8
ZUWAKU
100
AcDbCircle
 10
15.18360606321903
 20
11.36249985964439
 30
0.0
 40
0.2625
100
AcDbArc
 50
90.0
 51
180.0
  0
ARC
  5
37C7
330
1A
100
AcDbEntity
  8
ZUWAKU
100
AcDbCircle
 10
13.43360606321903
 20
10.48749985964439
 30
0.0
 40
0.2625
100
AcDbArc
 50
270.0
 51
0.0
  0
LINE
  5
37C8
330
1A
100
AcDbEntity
  8
ZUWAKU
100
AcDbLine
 10
13.69610606321907
 20
11.36249985964439
 30
0.0
 11
13.69610606321907
 21
10.48749985964439
 31
0.0
  0
ARC
  5
37C9
330
1A
100
AcDbEntity
  8
ZUWAKU
100
AcDbCircle
 10
20.60860606321904
 20
11.36249985964439
 30
0.0
 40
0.2625
100
AcDbArc
 50
90.0
 51
180.0
  0
LINE
  5
37CA
330
1A
100
AcDbEntity
  8
ZUWAKU
100
AcDbLine
 10
18.08848898147471
 20
11.62499985964439
 30
0.0
 11
18.93793367127921
 21
11.62499985964439
 31
0.0
  0
ARC
  5
37CB
330
1A
100
AcDbEntity
  8
ZUWAKU
100
AcDbCircle
 10
18.93793367127921
 20
11.36249985964439
 30
0.0
 40
0.2625
100
AcDbArc
 50
342.4744316262769
 51
90.0
  0
LINE
  5
37CC
330
1A
100
AcDbEntity
  8
ZUWAKU
100
AcDbLine
 10
19.18824912087694
 20
11.2834528755609
 30
0.0
 11
18.65742930430803
 21
9.602523456426105
 31
0.0
  0
ARC
  5
37CD
330
1A
100
AcDbEntity
  8
ZUWAKU
100
AcDbCircle
 10
18.08848898147471
 20
11.36249985964439
 30
0.0
 40
0.2625
100
AcDbArc
 50
90.0
 51
162.4744316262769
  0
LINE
  5
37CE
330
1A
100
AcDbEntity
  8
ZUWAKU
100
AcDbLine
 10
24.19610606321907
 20
11.62499985964439
 30
0.0
 11
25.94610606321907
 21
11.62499985964439
 31
0.0
  0
LINE
  5
37CF
330
1A
100
AcDbEntity
  8
ZUWAKU
100
AcDbLine
 10
25.94610606321907
 20
10.22499985964439
 30
0.0
 11
24.45860606321906
 21
10.22499985964439
 31
0.0
  0
ARC
  5
37D0
330
1A
100
AcDbEntity
  8
ZUWAKU
100
AcDbCircle
 10
24.45860606321906
 20
9.962499859644392
 30
0.0
 40
0.2625
100
AcDbArc
 50
90.0
 51
180.0
  0
LINE
  5
37D1
330
1A
100
AcDbEntity
  8
ZUWAKU
100
AcDbLine
 10
24.19610606321907
 20
9.962499859644392
 30
0.0
 11
24.19610606321907
 21
9.317398846966721
 31
0.0
  0
ARC
  5
37D2
330
1A
100
AcDbEntity
  8
ZUWAKU
100
AcDbCircle
 10
21.48360606321904
 20
11.36249985964439
 30
0.0
 40
0.2625
100
AcDbArc
 50
0.0
 51
90.0
  0
LINE
  5
37D3
330
1A
100
AcDbEntity
  8
ZUWAKU
100
AcDbLine
 10
22.79610606321904
 20
10.22499985964439
 30
0.0
 11
22.79610606321904
 21
9.317398846966721
 31
0.0
  0
ARC
  5
37D4
330
1A
100
AcDbEntity
  8
ZUWAKU
100
AcDbCircle
 10
24.19610606321907
 20
10.22499985964439
 30
0.0
 40
1.399999999999999
100
AcDbArc
 50
90.0
 51
180.0
  0
ARC
  5
37D5
330
1A
100
AcDbEntity
  8
ZUWAKU
100
AcDbCircle
 10
28.65860606321905
 20
11.36249985964439
 30
0.0
 40
0.2625
100
AcDbArc
 50
0.0
 51
90.0
  0
ARC
  5
37D6
330
1A
100
AcDbEntity
  8
ZUWAKU
100
AcDbCircle
 10
27.78360606321905
 20
11.36249985964439
 30
0.0
 40
0.2625
100
AcDbArc
 50
90.0
 51
180.0
  0
LINE
  5
37D7
330
1A
100
AcDbEntity
  8
ZUWAKU
100
AcDbLine
 10
28.65860606321905
 20
11.62499985964439
 30
0.0
 11
27.78360606321905
 21
11.62499985964439
 31
0.0
  0
ARC
  5
37D8
330
1A
100
AcDbEntity
  8
ZUWAKU
100
AcDbCircle
 10
25.94610606321907
 20
11.36249985964439
 30
0.0
 40
0.2625
100
AcDbArc
 50
0.0
 51
90.0
  0
ARC
  5
37D9
330
1A
100
AcDbEntity
  8
ZUWAKU
100
AcDbCircle
 10
25.94610606321907
 20
10.48749985964439
 30
0.0
 40
0.2625
100
AcDbArc
 50
270.0
 51
0.0
  0
LINE
  5
37DA
330
1A
100
AcDbEntity
  8
ZUWAKU
100
AcDbLine
 10
26.20860606321906
 20
11.36249985964439
 30
0.0
 11
26.20860606321906
 21
10.48749985964439
 31
0.0
  0
LINE
  5
37DB
330
1A
100
AcDbEntity
  8
ZUWAKU
100
AcDbLine
 10
34.25860606321907
 20
11.62499985964439
 30
0.0
 11
33.38360606321908
 21
11.62499985964439
 31
0.0
  0
ARC
  5
37DC
330
1A
100
AcDbEntity
  8
ZUWAKU
100
AcDbCircle
 10
33.38360606321908
 20
11.36249985964439
 30
0.0
 40
0.2625
100
AcDbArc
 50
90.0
 51
180.0
  0
ARC
  5
37DD
330
1A
100
AcDbEntity
  8
ZUWAKU
100
AcDbCircle
 10
31.80860606321903
 20
11.36249985964439
 30
0.0
 40
0.2625
100
AcDbArc
 50
0.0
 51
90.0
  0
LINE
  5
37DE
330
1A
100
AcDbEntity
  8
ZUWAKU
100
AcDbLine
 10
31.80860606321903
 20
11.62499985964439
 30
0.0
 11
30.93360606321903
 21
11.62499985964439
 31
0.0
  0
ARC
  5
37DF
330
1A
100
AcDbEntity
  8
ZUWAKU
100
AcDbCircle
 10
30.93360606321903
 20
11.36249985964439
 30
0.0
 40
0.2625
100
AcDbArc
 50
90.0
 51
180.0
  0
ARC
  5
37E0
330
1A
100
AcDbEntity
  8
ZUWAKU
100
AcDbCircle
 10
34.25860606321907
 20
11.36249985964439
 30
0.0
 40
0.2625
100
AcDbArc
 50
0.0
 51
90.0
  0
TEXT
  5
37E1
330
1A
100
AcDbEntity
  8
MOJI
100
AcDbText
 10
119.913601326254
 20
9.002460388348083
 30
0.0
 40
2.799999999999999
  1
亜鉛メッキ金具正面打（吊）ストロング高強度金具（吊）
 41
0.9
  7
ｽﾀｲﾙ1
100
AcDbText
  0
TEXT
  5
37E2
330
1A
100
AcDbEntity
  8
MOJI
100
AcDbText
 10
119.913601326254
 20
1.602460388348101
 30
0.0
 40
2.799999999999999
  1
ＲＶ１０５－４－７５
 41
0.9
  7
ｽﾀｲﾙ1
100
AcDbText
  0
LINE
  5
37E3
330
1A
100
AcDbEntity
  8
ZUWAKU
100
AcDbLine
 10
104.1233006308624
 20
14.99999985964439
 30
0.0
 11
104.1233006308624
 21
0.3999998596444243
 31
0.0
  0
LINE
  5
37E4
330
1A
100
AcDbEntity
  8
ZUWAKU
100
AcDbLine
 10
104.3233006308623
 20
14.99999985964439
 30
0.0
 11
104.3233006308625
 21
0.3999998596444243
 31
0.0
  0
LINE
  5
37E5
330
1A
100
AcDbEntity
  8
ZUWAKU
100
AcDbLine
 10
104.2233006308623
 20
14.99999985964439
 30
0.0
 11
104.2233006308624
 21
0.3999998596444243
 31
0.0
  0
TEXT
  5
37E6
330
1A
100
AcDbEntity
  8
ZUWAKU
100
AcDbText
 10
104.8620231419672
 20
4.827678128837199
 30
0.0
 40
2.0
  1
サイズ
 41
0.9
  7
ｽﾀｲﾙ1
100
AcDbText
  0
TEXT
  5
37E7
330
1A
100
AcDbEntity
  8
ZUWAKU
100
AcDbText
 10
104.8620231419671
 20
12.02767812883718
 30
0.0
 40
2.0
  1
品名
 41
0.9
  7
ｽﾀｲﾙ1
100
AcDbText
  0
LINE
  5
37E8
330
1A
100
AcDbEntity
  8
ZUWAKU
100
AcDbLine
 10
324.4086012409305
 20
7.599999859644405
 30
0.0
 11
348.6245052600991
 21
7.599999859644407
 31
0.0
  0
LINE
  5
37E9
330
1A
100
AcDbEntity
  8
ZUWAKU
100
AcDbLine
 10
324.4086012409307
 20
7.699999859644409
 30
0.0
 11
348.6245052600991
 21
7.699999859644407
 31
0.0
  0
LINE
  5
37EA
330
1A
100
AcDbEntity
  8
ZUWAKU
100
AcDbLine
 10
324.4086012409305
 20
7.799999859644406
 30
0.0
 11
348.6245052600991
 21
7.799999859644406
 31
0.0
  0
TEXT
  5
37EB
330
1A
100
AcDbEntity
  8
ZUWAKU
100
AcDbText
 10
329.1019688294797
 20
9.002460388348083
 30
0.0
 40
2.799999999999999
  1
　　．　　．　　
 41
0.9
  7
ｽﾀｲﾙ1
100
AcDbText
  0
LINE
  5
37EC
330
1A
100
AcDbEntity
  8
ZUWAKU
100
AcDbLine
 10
252.5995897348989
 20
7.599999859644409
 30
0.0
 11
276.2634778688846
 21
7.599999859644409
 31
0.0
  0
LINE
  5
37ED
330
1A
100
AcDbEntity
  8
ZUWAKU
100
AcDbLine
 10
252.5995897348989
 20
7.699999859644407
 30
0.0
 11
276.2634778688846
 21
7.699999859644407
 31
0.0
  0
LINE
  5
37EE
330
1A
100
AcDbEntity
  8
ZUWAKU
100
AcDbLine
 10
252.5995897348989
 20
7.799999859644406
 30
0.0
 11
276.2634778688846
 21
7.799999859644406
 31
0.0
  0
TEXT
  5
37EF
330
1A
100
AcDbEntity
  8
MOJI
100
AcDbText
 10
231.2836391468227
 20
5.971308720474382
 30
0.0
 40
2.799999999999999
  1
ＬＫ６１□
 41
0.9
  7
ｽﾀｲﾙ1
100
AcDbText
  0
LINE
  5
37F0
330
1A
100
AcDbEntity
  8
ZUWAKU
100
AcDbLine
 10
223.812181971324
 20
14.99999985964439
 30
0.0
 11
223.8121819713242
 21
0.3999998596444243
 31
0.0
  0
LINE
  5
37F1
330
1A
100
AcDbEntity
  8
ZUWAKU
100
AcDbLine
 10
223.9121819713241
 20
14.99999985964439
 30
0.0
 11
223.9121819713242
 21
0.3999998596444243
 31
0.0
  0
LINE
  5
37F2
330
1A
100
AcDbEntity
  8
ZUWAKU
100
AcDbLine
 10
223.7121819713241
 20
14.99999985964439
 30
0.0
 11
223.7121819713241
 21
0.3999998596444243
 31
0.0
  0
TEXT
  5
37F3
330
1A
100
AcDbEntity
  8
MOJI
100
AcDbText
 10
264.0204539719849
 20
9.002460388348083
 30
0.0
 40
2.799999999999999
  1
Ａ３
 41
0.9
  7
ｽﾀｲﾙ1
100
AcDbText
  0
LINE
  5
37F4
330
1A
100
AcDbEntity
  8
ZUWAKU
100
AcDbLine
 10
252.4995897348988
 20
14.99999985964439
 30
0.0
 11
252.499589734899
 21
0.3999998596444243
 31
0.0
  0
LINE
  5
37F5
330
1A
100
AcDbEntity
  8
ZUWAKU
100
AcDbLine
 10
252.5995897348989
 20
14.99999985964439
 30
0.0
 11
252.599589734899
 21
0.3999998596444243
 31
0.0
  0
LINE
  5
37F6
330
1A
100
AcDbEntity
  8
ZUWAKU
100
AcDbLine
 10
252.3995897348989
 20
14.99999985964439
 30
0.0
 11
252.3995897348989
 21
0.3999998596444243
 31
0.0
  0
TEXT
  5
37F7
330
1A
100
AcDbEntity
  8
ZUWAKU
100
AcDbText
 10
231.346880813582
 20
1.307035315214136
 30
0.0
 40
1.5
  1
□には色品番が入ります
 41
0.9
  7
ｽﾀｲﾙ1
100
AcDbText
  0
TEXT
  5
37F8
330
1A
100
AcDbEntity
  8
ZUWAKU
100
AcDbText
 10
253.3383122460038
 20
4.827678128837199
 30
0.0
 40
2.0
  1
縮尺
 41
0.9
  7
ｽﾀｲﾙ1
100
AcDbText
  0
TEXT
  5
37F9
330
1A
100
AcDbEntity
  8
MOJI
100
AcDbText
 10
264.0204539719849
 20
1.602460388348101
 30
0.0
 40
2.799999999999999
  1
１/１
 41
0.9
  7
ｽﾀｲﾙ1
100
AcDbText
  0
TEXT
  5
37FA
330
1A
100
AcDbEntity
  8
ZUWAKU
100
AcDbText
 10
224.6509044824289
 20
12.02767812883718
 30
0.0
 40
2.0
  1
品番
 41
0.9
  7
ｽﾀｲﾙ1
100
AcDbText
  0
TEXT
  5
37FB
330
1A
100
AcDbEntity
  8
ZUWAKU
100
AcDbText
 10
253.3383122460037
 20
12.02767812883718
 30
0.0
 40
2.0
  1
用紙
 41
0.9
  7
ｽﾀｲﾙ1
100
AcDbText
  0
LINE
  5
37FC
330
1A
100
AcDbEntity
  8
ZUWAKU
100
AcDbLine
 10
324.3086012409306
 20
14.99999985964439
 30
0.0
 11
324.3086012409307
 21
0.3999998596444243
 31
0.0
  0
LINE
  5
37FD
330
1A
100
AcDbEntity
  8
ZUWAKU
100
AcDbLine
 10
324.4086012409307
 20
14.99999985964439
 30
0.0
 11
324.4086012409308
 21
0.3999998596444243
 31
0.0
  0
LINE
  5
37FE
330
1A
100
AcDbEntity
  8
ZUWAKU
100
AcDbLine
 10
324.2086012409307
 20
14.99999985964439
 30
0.0
 11
324.2086012409307
 21
0.3999998596444243
 31
0.0
  0
LINE
  5
37FF
330
1A
100
AcDbEntity
  8
ZUWAKU
100
AcDbLine
 10
276.3634778688845
 20
14.99999985964439
 30
0.0
 11
276.3634778688847
 21
0.3999998596444243
 31
0.0
  0
LINE
  5
3800
330
1A
100
AcDbEntity
  8
ZUWAKU
100
AcDbLine
 10
276.4634778688846
 20
14.99999985964439
 30
0.0
 11
276.4634778688847
 21
0.3999998596444243
 31
0.0
  0
LINE
  5
3801
330
1A
100
AcDbEntity
  8
ZUWAKU
100
AcDbLine
 10
276.2634778688846
 20
14.99999985964439
 30
0.0
 11
276.2634778688846
 21
0.3999998596444243
 31
0.0
  0
TEXT
  5
3802
330
1A
100
AcDbEntity
  8
ZUWAKU
100
AcDbText
 10
325.1473237520355
 20
12.02767812883718
 30
0.0
 40
2.0
  1
DATE
 41
0.9
  7
ｽﾀｲﾙ1
100
AcDbText
  0
LINE
  5
3803
330
1A
100
AcDbEntity
  8
ZUWAKU
100
AcDbLine
 10
348.6245052600991
 20
14.99999985964439
 30
0.0
 11
348.6245052600991
 21
0.3999998596444243
 31
0.0
  0
LINE
  5
3804
330
1A
100
AcDbEntity
  8
ZUWAKU
100
AcDbLine
 10
348.7245052600991
 20
14.99999985964439
 30
0.0
 11
348.7245052600991
 21
0.3999998596444243
 31
0.0
  0
LINE
  5
3805
330
1A
100
AcDbEntity
  8
ZUWAKU
100
AcDbLine
 10
348.824505260099
 20
14.99999985964439
 30
0.0
 11
348.8245052600991
 21
0.3999998596444243
 31
0.0
  0
LINE
  5
3806
330
1A
100
AcDbEntity
  8
ZUWAKU
100
AcDbLine
 10
348.924505260099
 20
14.99999985964439
 30
0.0
 11
348.9245052600991
 21
0.3999998596444243
 31
0.0
  0
TEXT
  5
3807
330
1A
100
AcDbEntity
  8
ZUWAKU
100
AcDbText
 10
354.2640420819503
 20
8.776919527487791
 30
0.0
 40
3.0
  1
積水化学工業株式会社
 41
0.9
  7
ｽﾀｲﾙ1
100
AcDbText
  0
TEXT
  5
3808
330
1A
100
AcDbEntity
  8
ZUWAKU
100
AcDbText
 10
354.2640420819503
 20
3.324420016571423
 30
0.0
 40
3.0
  1
建材事業部
 41
0.9
  7
ｽﾀｲﾙ1
100
AcDbText
  0
VIEWPORT
  5
22
330
17
100
AcDbEntity
 67
     1
  8
0
100
AcDbViewport
 10
313.6808219178082
 20
148.5
 30
0.0
 40
627.3616438356165
 41
297.0
 68
     2
 69
     1
1001
ACAD
1000
MVIEW
1002
{
1070
    16
1010
0.0
1020
0.0
1030
0.0
1010
0.0
1020
0.0
1030
1.0
1040
0.0
1040
297.0
1040
313.6808219178082
1040
148.5
1040
50.0
1040
0.0
1040
0.0
1070
     0
1070
   100
1070
     1
1070
     0
1070
     0
1070
     0
1070
     0
1070
     0
1040
0.0
1040
0.0
1040
0.0
1040
1.0
1040
1.0
1040
10.0
1040
10.0
1070
     0
1002
{
1002
}
1002
}
  0
VIEWPORT
  5
64
330
17
100
AcDbEntity
 67
     1
  8
VIEWPORT
100
AcDbViewport
 10
210.0
 20
148.5
 30
0.0
 40
420.0
 41
297.0
 68
     1
 69
     2
1001
ACAD
1000
MVIEW
1002
{
1070
    16
1010
0.0
1020
0.0
1030
0.0
1010
0.0
1020
0.0
1030
1.0
1040
0.0
1040
302.9399999999998
1040
210.0
1040
148.5
1040
50.0
1040
0.0
1040
0.0
1070
     0
1070
   100
1070
     1
1070
     0
1070
     0
1070
     0
1070
     0
1070
     0
1040
0.0
1040
0.0
1040
0.0
1040
5.0
1040
5.0
1040
0.0
1040
0.0
1070
     0
1002
{
1002
}
1002
}
  0
ENDSEC
  0
SECTION
  2
OBJECTS
  0
DICTIONARY
  5
C
330
0
100
AcDbDictionary
  3
ACAD_GROUP
350
D
  3
ACAD_LAYOUT
350
141
  3
ACAD_MLINESTYLE
350
E
  3
ACAD_PLOTSETTINGS
350
142
  3
ACAD_PLOTSTYLENAME
350
13F
  3
ACADDIM
350
3023
  3
ACDBVARIABLEDICTIONARY
350
120D
  3
ACDBHEADERROUNDTRIPXREC
350
3810
  0
DICTIONARY
  5
7A2
330
1A
100
AcDbDictionary
280
     1
  3
ACAD_LAYOUTSELFREF
360
3832
  0
DICTIONARY
  5
7A0
330
17
100
AcDbDictionary
280
     1
  3
ACAD_LAYOUTSELFREF
360
3831
  0
DICTIONARY
  5
D
102
{ACAD_REACTORS
330
C
102
}
330
C
100
AcDbDictionary
  0
DICTIONARY
  5
141
102
{ACAD_REACTORS
330
C
102
}
330
C
100
AcDbDictionary
  0
DICTIONARY
  5
E
102
{ACAD_REACTORS
330
C
102
}
330
C
100
AcDbDictionary
  3
STANDARD
350
13
  0
DICTIONARY
  5
142
102
{ACAD_REACTORS
330
C
102
}
330
C
100
AcDbDictionary
  0
ACDBDICTIONARYWDFLT
  5
13F
102
{ACAD_REACTORS
330
C
102
}
330
C
100
AcDbDictionary
281
     1
  3
Normal
350
140
100
AcDbDictionaryWithDefault
340
140
1001
ACAD
1000
TREAT_AS_HARD
1070
     0
1000
TREAT_AS_HARD
1070
     0
1000
TREAT_AS_HARD
1070
     0
1000
TREAT_AS_HARD
1070
     0
1000
TREAT_AS_HARD
1070
     0
1000
TREAT_AS_HARD
1070
     0
1000
TREAT_AS_HARD
1070
     0
1000
TREAT_AS_HARD
1070
     0
1000
TREAT_AS_HARD
1070
     0
1000
TREAT_AS_HARD
1070
     0
1000
TREAT_AS_HARD
1070
     0
1000
TREAT_AS_HARD
1070
     0
1000
TREAT_AS_HARD
1070
     0
1000
TREAT_AS_HARD
1070
     0
1000
TREAT_AS_HARD
1070
     0
1000
TREAT_AS_HARD
1070
     0
1000
TREAT_AS_HARD
1070
     0
1000
TREAT_AS_HARD
1070
     0
1000
TREAT_AS_HARD
1070
     0
1000
TREAT_AS_HARD
1070
     0
  0
XRECORD
  5
3023
102
{ACAD_REACTORS
330
C
102
}
330
C
100
AcDbXrecord
 90
   990106
  3

 60
     0
 61
     0
 62
     1
 63
     3
 64
     0
 65
     0
 66
     0
 67
     3
 68
     1
 69
     0
 70
     0
 71
     0
 72
     0
 40
0.0
170
     0
340
3022
  0
DICTIONARY
  5
120D
102
{ACAD_REACTORS
330
C
102
}
330
C
100
AcDbDictionary
  3
SORTENTS
350
120E
  0
DICTIONARY
  5
3810
102
{ACAD_REACTORS
330
C
102
}
330
C
100
AcDbDictionary
  3
TSTACKALIGN
350
3811
  3
TSTACKSIZE
350
3812
  3
HYPERLINKBASE
350
3813
  3
STYLESHEET
350
3814
  3
LAYOUTDICT
350
3815
  3
PLOTSETDICT
350
3816
  3
PLOTSTYLNAMDICT
350
3817
  3
LWETCUNION
350
3818
  3
INSUNITS
350
3819
  3
CEPSNTYPE
350
381A
  3
FINGERPRINTGUID
350
381B
  3
VERSIONGUID
350
381C
  3
PSVPSCALE
350
381D
  3
DIMSTYLEDATA
350
381E
  3
PUCSORTHOREF
350
381F
  3
PUCSORTHOVIEW
350
3820
  3
PUCSBASE
350
3821
  3
PUCSORGTOP
350
3822
  3
PUCSORGBOTTOM
350
3823
  3
PUCSORGLEFT
350
3824
  3
PUCSORGRIGHT
350
3825
  3
PUCSORGFRONT
350
3826
  3
PUCSORGBACK
350
3827
  3
UCSORTHOREF
350
3828
  3
UCSORTHOVIEW
350
3829
  3
UCSBASE
350
382A
  3
UCSORGTOP
350
382B
  3
UCSORGBOTTOM
350
382C
  3
UCSORGLEFT
350
382D
  3
UCSORGRIGHT
350
382E
  3
UCSORGFRONT
350
382F
  3
UCSORGBACK
350
3830
  0
XRECORD
  5
3832
102
{ACAD_REACTORS
330
7A2
102
}
330
7A2
100
AcDbXrecord
340
1A
  0
XRECORD
  5
3831
102
{ACAD_REACTORS
330
7A0
102
}
330
7A0
100
AcDbXrecord
340
17
  0
MLINESTYLE
  5
13
102
{ACAD_REACTORS
330
E
102
}
330
E
100
AcDbMlineStyle
  2
STANDARD
 70
     0
  3

 62
     0
 51
90.0
 52
90.0
 71
     2
 49
0.5
 62
   256
  6
BYLAYER
 49
-0.5
 62
   256
  6
BYLAYER
  0
ACDBPLACEHOLDER
  5
140
102
{ACAD_REACTORS
330
13F
102
}
330
13F
100
AcDbPlaceHolder
280
     0
  0
DICTIONARYVAR
  5
120E
102
{ACAD_REACTORS
330
120D
102
}
330
120D
100
DictionaryVariables
280
     0
  1
96
  0
XRECORD
  5
3811
102
{ACAD_REACTORS
330
3810
102
}
330
3810
100
AcDbXrecord
 90
        1
  0
XRECORD
  5
3812
102
{ACAD_REACTORS
330
3810
102
}
330
3810
100
AcDbXrecord
 90
       70
  0
XRECORD
  5
3813
102
{ACAD_REACTORS
330
3810
102
}
330
3810
100
AcDbXrecord
  1

  0
XRECORD
  5
3814
102
{ACAD_REACTORS
330
3810
102
}
330
3810
100
AcDbXrecord
  1
systemprinter.ctb
  0
XRECORD
  5
3815
102
{ACAD_REACTORS
330
3810
102
}
330
3810
100
AcDbXrecord
340
141
  0
XRECORD
  5
3816
102
{ACAD_REACTORS
330
3810
102
}
330
3810
100
AcDbXrecord
340
142
  0
XRECORD
  5
3817
102
{ACAD_REACTORS
330
3810
102
}
330
3810
100
AcDbXrecord
340
13F
  0
XRECORD
  5
3818
102
{ACAD_REACTORS
330
3810
102
}
330
3810
100
AcDbXrecord
 90
    10781
  0
XRECORD
  5
3819
102
{ACAD_REACTORS
330
3810
102
}
330
3810
100
AcDbXrecord
 90
        0
  0
XRECORD
  5
381A
102
{ACAD_REACTORS
330
3810
102
}
330
3810
100
AcDbXrecord
 90
        0
  0
XRECORD
  5
381B
102
{ACAD_REACTORS
330
3810
102
}
330
3810
100
AcDbXrecord
  1
{4E8D0500-CDD1-11D3-932C-444553540000}
  0
XRECORD
  5
381C
102
{ACAD_REACTORS
330
3810
102
}
330
3810
100
AcDbXrecord
  1
{E64144F4-7A4B-42E2-9299-7ED229111778}
  0
XRECORD
  5
381D
102
{ACAD_REACTORS
330
3810
102
}
330
3810
100
AcDbXrecord
 40
0.0
  0
XRECORD
  5
381E
102
{ACAD_REACTORS
330
3810
102
}
330
3810
100
AcDbXrecord
1000
DSTYLE
1002
{
1070
   341
340
B2
1070
   343
340
B2
1070
   344
340
B2
1070
   371
 70
    -1
1070
   372
 70
    -1
1002
}
  0
XRECORD
  5
381F
102
{ACAD_REACTORS
330
3810
102
}
330
3810
100
AcDbXrecord
340
0
  0
XRECORD
  5
3820
102
{ACAD_REACTORS
330
3810
102
}
330
3810
100
AcDbXrecord
 70
     0
  0
XRECORD
  5
3821
102
{ACAD_REACTORS
330
3810
102
}
330
3810
100
AcDbXrecord
340
0
  0
XRECORD
  5
3822
102
{ACAD_REACTORS
330
3810
102
}
330
3810
100
AcDbXrecord
 10
0.0
 20
0.0
 30
0.0
  0
XRECORD
  5
3823
102
{ACAD_REACTORS
330
3810
102
}
330
3810
100
AcDbXrecord
 10
0.0
 20
0.0
 30
0.0
  0
XRECORD
  5
3824
102
{ACAD_REACTORS
330
3810
102
}
330
3810
100
AcDbXrecord
 10
0.0
 20
0.0
 30
0.0
  0
XRECORD
  5
3825
102
{ACAD_REACTORS
330
3810
102
}
330
3810
100
AcDbXrecord
 10
0.0
 20
0.0
 30
0.0
  0
XRECORD
  5
3826
102
{ACAD_REACTORS
330
3810
102
}
330
3810
100
AcDbXrecord
 10
0.0
 20
0.0
 30
0.0
  0
XRECORD
  5
3827
102
{ACAD_REACTORS
330
3810
102
}
330
3810
100
AcDbXrecord
 10
0.0
 20
0.0
 30
0.0
  0
XRECORD
  5
3828
102
{ACAD_REACTORS
330
3810
102
}
330
3810
100
AcDbXrecord
340
0
  0
XRECORD
  5
3829
102
{ACAD_REACTORS
330
3810
102
}
330
3810
100
AcDbXrecord
 70
     0
  0
XRECORD
  5
382A
102
{ACAD_REACTORS
330
3810
102
}
330
3810
100
AcDbXrecord
340
0
  0
XRECORD
  5
382B
102
{ACAD_REACTORS
330
3810
102
}
330
3810
100
AcDbXrecord
 10
0.0
 20
0.0
 30
0.0
  0
XRECORD
  5
382C
102
{ACAD_REACTORS
330
3810
102
}
330
3810
100
AcDbXrecord
 10
0.0
 20
0.0
 30
0.0
  0
XRECORD
  5
382D
102
{ACAD_REACTORS
330
3810
102
}
330
3810
100
AcDbXrecord
 10
0.0
 20
0.0
 30
0.0
  0
XRECORD
  5
382E
102
{ACAD_REACTORS
330
3810
102
}
330
3810
100
AcDbXrecord
 10
0.0
 20
0.0
 30
0.0
  0
XRECORD
  5
382F
102
{ACAD_REACTORS
330
3810
102
}
330
3810
100
AcDbXrecord
 10
0.0
 20
0.0
 30
0.0
  0
XRECORD
  5
3830
102
{ACAD_REACTORS
330
3810
102
}
330
3810
100
AcDbXrecord
 10
0.0
 20
0.0
 30
0.0
  0
ENDSEC
  0
EOF
